  0
SECTION
  2
HEADER
  9
$ACADVER
  1
AC1015
  9
$ACADMAINTVER
 70
    20
  9
$DWGCODEPAGE
  3
ANSI_932
  9
$INSBASE
 10
0.0
 20
0.0
 30
0.0
  9
$EXTMIN
 10
139.196816621341
 20
-0.1811693038616795
 30
-0.0000000000112498
  9
$EXTMAX
 10
16308.32523385566
 20
11409.92678395885
 30
0.0000000000002956
  9
$LIMMIN
 10
0.0
 20
0.0
  9
$LIMMAX
 10
16800.0
 20
11880.0
  9
$ORTHOMODE
 70
     0
  9
$REGENMODE
 70
     1
  9
$FILLMODE
 70
     1
  9
$QTEXTMODE
 70
     0
  9
$MIRRTEXT
 70
     1
  9
$LTSCALE
 40
20.0
  9
$ATTMODE
 70
     1
  9
$TEXTSIZE
 40
4.0
  9
$TRACEWID
 40
1.0
  9
$TEXTSTYLE
  7
STYLE1
  9
$CLAYER
  8
寸法
  9
$CELTYPE
  6
BYLAYER
  9
$CECOLOR
 62
   256
  9
$CELTSCALE
 40
50.0
  9
$DISPSILH
 70
     0
  9
$DIMSCALE
 40
40.0
  9
$DIMASZ
 40
2.5
  9
$DIMEXO
 40
0.5
  9
$DIMDLI
 40
7.0
  9
$DIMRND
 40
0.0
  9
$DIMDLE
 40
0.0
  9
$DIMEXE
 40
1.5
  9
$DIMTP
 40
0.0
  9
$DIMTM
 40
0.0
  9
$DIMTXT
 40
3.0
  9
$DIMCEN
 40
0.0
  9
$DIMTSZ
 40
0.0
  9
$DIMTOL
 70
     0
  9
$DIMLIM
 70
     0
  9
$DIMTIH
 70
     0
  9
$DIMTOH
 70
     0
  9
$DIMSE1
 70
     0
  9
$DIMSE2
 70
     0
  9
$DIMTAD
 70
     3
  9
$DIMZIN
 70
     8
  9
$DIMBLK
  1

  9
$DIMASO
 70
     1
  9
$DIMSHO
 70
     1
  9
$DIMPOST
  1

  9
$DIMAPOST
  1

  9
$DIMALT
 70
     0
  9
$DIMALTD
 70
     2
  9
$DIMALTF
 40
0.0394
  9
$DIMLFAC
 40
1.0
  9
$DIMTOFL
 70
     1
  9
$DIMTVP
 40
0.0
  9
$DIMTIX
 70
     1
  9
$DIMSOXD
 70
     0
  9
$DIMSAH
 70
     1
  9
$DIMBLK1
  1
DOTSMALL
  9
$DIMBLK2
  1
DOTSMALL
  9
$DIMSTYLE
  2
INABA_S40G
  9
$DIMCLRD
 70
     0
  9
$DIMCLRE
 70
     0
  9
$DIMCLRT
 70
     7
  9
$DIMTFAC
 40
1.0
  9
$DIMGAP
 40
1.0
  9
$DIMJUST
 70
     0
  9
$DIMSD1
 70
     0
  9
$DIMSD2
 70
     0
  9
$DIMTOLJ
 70
     1
  9
$DIMTZIN
 70
     0
  9
$DIMALTZ
 70
     0
  9
$DIMALTTZ
 70
     0
  9
$DIMUPT
 70
     0
  9
$DIMDEC
 70
     1
  9
$DIMTDEC
 70
     4
  9
$DIMALTU
 70
     2
  9
$DIMALTTD
 70
     2
  9
$DIMTXSTY
  7
STYLE1
  9
$DIMAUNIT
 70
     0
  9
$DIMADEC
 70
     0
  9
$DIMALTRND
 40
0.0
  9
$DIMAZIN
 70
     0
  9
$DIMDSEP
 70
    46
  9
$DIMATFIT
 70
     3
  9
$DIMFRAC
 70
     0
  9
$DIMLDRBLK
  1

  9
$DIMLUNIT
 70
     2
  9
$DIMLWD
 70
    -2
  9
$DIMLWE
 70
    -2
  9
$DIMTMOVE
 70
     0
  9
$LUNITS
 70
     2
  9
$LUPREC
 70
     1
  9
$SKETCHINC
 40
1.0
  9
$FILLETRAD
 40
3.0
  9
$AUNITS
 70
     0
  9
$AUPREC
 70
     0
  9
$MENU
  1
acad
  9
$ELEVATION
 40
0.0
  9
$PELEVATION
 40
0.0
  9
$THICKNESS
 40
0.0
  9
$LIMCHECK
 70
     0
  9
$CHAMFERA
 40
0.0
  9
$CHAMFERB
 40
0.0
  9
$CHAMFERC
 40
0.0
  9
$CHAMFERD
 40
0.0
  9
$SKPOLY
 70
     0
  9
$TDCREATE
 40
2451368.612993866
  9
$TDUCREATE
 40
2451368.237993866
  9
$TDUPDATE
 40
2455883.590063472
  9
$TDUUPDATE
 40
2455883.215063472
  9
$TDINDWG
 40
0.7612482176
  9
$TDUSRTIMER
 40
0.7612482176
  9
$USRTIMER
 70
     1
  9
$ANGBASE
 50
0.0
  9
$ANGDIR
 70
     0
  9
$PDMODE
 70
     3
  9
$PDSIZE
 40
2.0
  9
$PLINEWID
 40
0.0
  9
$SPLFRAME
 70
     0
  9
$SPLINETYPE
 70
     6
  9
$SPLINESEGS
 70
     8
  9
$HANDSEED
  5
22F04
  9
$SURFTAB1
 70
     6
  9
$SURFTAB2
 70
     6
  9
$SURFTYPE
 70
     6
  9
$SURFU
 70
     6
  9
$SURFV
 70
     6
  9
$UCSBASE
  2

  9
$UCSNAME
  2

  9
$UCSORG
 10
0.0
 20
0.0
 30
0.0
  9
$UCSXDIR
 10
1.0
 20
0.0
 30
0.0
  9
$UCSYDIR
 10
0.0
 20
1.0
 30
0.0
  9
$UCSORTHOREF
  2

  9
$UCSORTHOVIEW
 70
     0
  9
$UCSORGTOP
 10
0.0
 20
0.0
 30
0.0
  9
$UCSORGBOTTOM
 10
0.0
 20
0.0
 30
0.0
  9
$UCSORGLEFT
 10
0.0
 20
0.0
 30
0.0
  9
$UCSORGRIGHT
 10
0.0
 20
0.0
 30
0.0
  9
$UCSORGFRONT
 10
0.0
 20
0.0
 30
0.0
  9
$UCSORGBACK
 10
0.0
 20
0.0
 30
0.0
  9
$PUCSBASE
  2

  9
$PUCSNAME
  2

  9
$PUCSORG
 10
0.0
 20
0.0
 30
0.0
  9
$PUCSXDIR
 10
1.0
 20
0.0
 30
0.0
  9
$PUCSYDIR
 10
0.0
 20
1.0
 30
0.0
  9
$PUCSORTHOREF
  2

  9
$PUCSORTHOVIEW
 70
     0
  9
$PUCSORGTOP
 10
0.0
 20
0.0
 30
0.0
  9
$PUCSORGBOTTOM
 10
0.0
 20
0.0
 30
0.0
  9
$PUCSORGLEFT
 10
0.0
 20
0.0
 30
0.0
  9
$PUCSORGRIGHT
 10
0.0
 20
0.0
 30
0.0
  9
$PUCSORGFRONT
 10
0.0
 20
0.0
 30
0.0
  9
$PUCSORGBACK
 10
0.0
 20
0.0
 30
0.0
  9
$USERI1
 70
     0
  9
$USERI2
 70
     0
  9
$USERI3
 70
     0
  9
$USERI4
 70
     0
  9
$USERI5
 70
     0
  9
$USERR1
 40
0.0
  9
$USERR2
 40
0.0
  9
$USERR3
 40
0.0
  9
$USERR4
 40
0.0
  9
$USERR5
 40
0.0
  9
$WORLDVIEW
 70
     1
  9
$SHADEDGE
 70
     3
  9
$SHADEDIF
 70
    70
  9
$TILEMODE
 70
     1
  9
$MAXACTVP
 70
    16
  9
$PINSBASE
 10
0.0
 20
0.0
 30
0.0
  9
$PLIMCHECK
 70
     0
  9
$PEXTMIN
 10
1.000000000000000E+20
 20
1.000000000000000E+20
 30
1.000000000000000E+20
  9
$PEXTMAX
 10
-1.000000000000000E+20
 20
-1.000000000000000E+20
 30
-1.000000000000000E+20
  9
$PLIMMIN
 10
0.0
 20
0.0
  9
$PLIMMAX
 10
420.0
 20
297.0
  9
$UNITMODE
 70
     0
  9
$VISRETAIN
 70
     0
  9
$PLINEGEN
 70
     0
  9
$PSLTSCALE
 70
     0
  9
$TREEDEPTH
 70
  3020
  9
$CMLSTYLE
  2
STANDARD
  9
$CMLJUST
 70
     0
  9
$CMLSCALE
 40
1.0
  9
$PROXYGRAPHICS
 70
     1
  9
$MEASUREMENT
 70
     1
  9
$CELWEIGHT
370
    -1
  9
$ENDCAPS
280
     0
  9
$JOINSTYLE
280
     0
  9
$LWDISPLAY
290
     0
  9
$INSUNITS
 70
     0
  9
$HYPERLINKBASE
  1

  9
$STYLESHEET
  1
inaba.ctb
  9
$XEDIT
290
     1
  9
$CEPSNTYPE
380
     0
  9
$PSTYLEMODE
290
     1
  9
$FINGERPRINTGUID
  2
{5EAC461A-2277-4BF8-9AB0-99C43BB394F0}
  9
$VERSIONGUID
  2
{FBB10605-047B-4F54-A56A-C831D3310B55}
  9
$EXTNAMES
290
     1
  9
$PSVPSCALE
 40
0.0
  9
$OLESTARTUP
290
     0
  0
ENDSEC
  0
SECTION
  2
CLASSES
  0
CLASS
  1
ACDBDICTIONARYWDFLT
  2
AcDbDictionaryWithDefault
  3
ObjectDBX Classes
 90
        0
280
     0
281
     0
  0
CLASS
  1
DICTIONARYVAR
  2
AcDbDictionaryVar
  3
ObjectDBX Classes
 90
        0
280
     0
281
     0
  0
CLASS
  1
ACDBPLACEHOLDER
  2
AcDbPlaceHolder
  3
ObjectDBX Classes
 90
        0
280
     0
281
     0
  0
CLASS
  1
LAYOUT
  2
AcDbLayout
  3
ObjectDBX Classes
 90
        0
280
     0
281
     0
  0
ENDSEC
  0
SECTION
  2
TABLES
  0
TABLE
  2
VPORT
  5
746D
330
0
100
AcDbSymbolTable
 70
     3
  0
VPORT
  5
22EFC
330
746D
100
AcDbSymbolTableRecord
100
AcDbViewportTableRecord
  2
*Active
 70
     0
 10
0.0
 20
0.0
 11
1.0
 21
1.0
 12
8223.761025238502
 22
5704.872807327497
 13
0.0
 23
0.0
 14
10.0
 24
10.0
 15
10.0
 25
10.0
 16
0.0
 26
0.0
 36
1.0
 17
0.0
 27
0.0
 37
0.0
 40
11495.3640525399
 41
1.537406483790523
 42
50.0
 43
0.0
 44
0.0
 50
0.0
 51
0.0
 71
     0
 72
     0
 73
     1
 74
     0
 75
     0
 76
     0
 77
     0
 78
     0
281
     0
 65
     1
110
0.0
120
0.0
130
0.0
111
1.0
121
0.0
131
0.0
112
0.0
122
1.0
132
0.0
 79
     0
146
0.0
  0
ENDTAB
  0
TABLE
  2
LTYPE
  5
746A
330
0
100
AcDbSymbolTable
 70
     5
  0
LTYPE
  5
7477
330
746A
100
AcDbSymbolTableRecord
100
AcDbLinetypeTableRecord
  2
BYBLOCK
 70
     0
  3

 72
    65
 73
     0
 40
0.0
  0
LTYPE
  5
7478
330
746A
100
AcDbSymbolTableRecord
100
AcDbLinetypeTableRecord
  2
BYLAYER
 70
     0
  3

 72
    65
 73
     0
 40
0.0
  0
LTYPE
  5
7479
330
746A
100
AcDbSymbolTableRecord
100
AcDbLinetypeTableRecord
  2
CONTINUOUS
 70
     0
  3
Solid line
 72
    65
 73
     0
 40
0.0
  0
LTYPE
  5
7816
330
746A
100
AcDbSymbolTableRecord
100
AcDbLinetypeTableRecord
  2
CENTER
 70
     0
  3
____ _ ____ _ ____ _ ____ _ ____ _ ____ _ ____ 
 72
    65
 73
     4
 40
2.0
 49
1.25
 74
     0
 49
-0.25
 74
     0
 49
0.25
 74
     0
 49
-0.25
 74
     0
  0
LTYPE
  5
781A
330
746A
100
AcDbSymbolTableRecord
100
AcDbLinetypeTableRecord
  2
HIDDEN
 70
     0
  3
__ __ __ __ __ __ __ __ __ __ __ __ __ __ __ __
 72
    65
 73
     2
 40
0.375
 49
0.25
 74
     0
 49
-0.125
 74
     0
  0
LTYPE
  5
781B
330
746A
100
AcDbSymbolTableRecord
100
AcDbLinetypeTableRecord
  2
PHANTOM
 70
     0
  3
______  __  __  ______  __  __  ______  __  __ 
 72
    65
 73
     6
 40
2.5
 49
1.25
 74
     0
 49
-0.25
 74
     0
 49
0.25
 74
     0
 49
-0.25
 74
     0
 49
0.25
 74
     0
 49
-0.25
 74
     0
  0
LTYPE
  5
12CC3
330
746A
100
AcDbSymbolTableRecord
100
AcDbLinetypeTableRecord
  2
HIDDENX2
 70
     0
  3
Hidden (2x) ____ ____ ____ ____ ____ ____ ____
 72
    65
 73
     2
 40
19.05
 49
12.7
 74
     0
 49
-6.349999999999999
 74
     0
  0
ENDTAB
  0
TABLE
  2
LAYER
  5
7467
102
{ACAD_XDICTIONARY
360
1758F
102
}
330
0
100
AcDbSymbolTable
 70
    12
  0
LAYER
  5
7474
330
7467
100
AcDbSymbolTableRecord
100
AcDbLayerTableRecord
  2
0
 70
     0
 62
     7
  6
CONTINUOUS
370
    -3
390
173D0
  0
LAYER
  5
DEB2
330
7467
100
AcDbSymbolTableRecord
100
AcDbLayerTableRecord
  2
センター
 70
     0
 62
     3
  6
CENTER
370
    -3
390
173D0
  0
LAYER
  5
DEB3
330
7467
100
AcDbSymbolTableRecord
100
AcDbLayerTableRecord
  2
寸法
 70
     0
 62
     4
  6
CONTINUOUS
370
    -3
390
173D0
  0
LAYER
  5
DEB4
330
7467
100
AcDbSymbolTableRecord
100
AcDbLayerTableRecord
  2
部品1
 70
     0
 62
     7
  6
CONTINUOUS
370
    -3
390
173D0
  0
LAYER
  5
DEB5
330
7467
100
AcDbSymbolTableRecord
100
AcDbLayerTableRecord
  2
補助
 70
     0
 62
    -1
  6
CONTINUOUS
370
    -3
390
173D0
  0
LAYER
  5
DEB6
330
7467
100
AcDbSymbolTableRecord
100
AcDbLayerTableRecord
  2
文字
 70
     0
 62
     7
  6
CONTINUOUS
370
    -3
390
173D0
  0
LAYER
  5
F255
330
7467
100
AcDbSymbolTableRecord
100
AcDbLayerTableRecord
  2
DEFPOINTS
 70
     0
 62
     7
  6
CONTINUOUS
290
     0
370
    -3
390
173D0
  0
LAYER
  5
10B54
330
7467
100
AcDbSymbolTableRecord
100
AcDbLayerTableRecord
  2
仕様書枠
 70
     0
 62
   230
  6
CONTINUOUS
370
    -3
390
173D0
  0
LAYER
  5
11729
330
7467
100
AcDbSymbolTableRecord
100
AcDbLayerTableRecord
  2
Ｇ．Ｌ
 70
     0
 62
    30
  6
CONTINUOUS
370
    -3
390
173D0
  0
LAYER
  5
1173F
330
7467
100
AcDbSymbolTableRecord
100
AcDbLayerTableRecord
  2
細線
 70
     0
 62
     5
  6
CONTINUOUS
370
    -3
390
173D0
  0
LAYER
  5
12CC4
330
7467
100
AcDbSymbolTableRecord
100
AcDbLayerTableRecord
  2
想像線
 70
     0
 62
     6
  6
PHANTOM
370
    -3
390
173D0
  0
LAYER
  5
142E2
330
7467
100
AcDbSymbolTableRecord
100
AcDbLayerTableRecord
  2
破線
 70
     0
 62
     2
  6
HIDDEN
370
    -3
390
173D0
  0
ENDTAB
  0
TABLE
  2
STYLE
  5
7468
330
0
100
AcDbSymbolTable
 70
     7
  0
STYLE
  5
7475
330
7468
100
AcDbSymbolTableRecord
100
AcDbTextStyleTableRecord
  2
STANDARD
 70
     0
 40
0.0
 41
1.0
 50
0.0
 71
     0
 42
4.0
  3
txt
  4
C:\AutoCAD LT\bigfont.shx
  0
STYLE
  5
763C
330
7468
100
AcDbSymbolTableRecord
100
AcDbTextStyleTableRecord
  2
MSMINCHO
 70
     0
 40
0.0
 41
1.0
 50
0.0
 71
     0
 42
1.199999999999999
  3
C:\AutoCAD LT\msminch2.TTF
  4

  0
STYLE
  5
F706
330
7468
100
AcDbSymbolTableRecord
100
AcDbTextStyleTableRecord
  2
STYLE1
 70
     0
 40
0.0
 41
1.0
 50
0.0
 71
     0
 42
4.0
  3
isocp.shx
  4
bigfont.shx
  0
STYLE
  5
103BF
330
7468
100
AcDbSymbolTableRecord
100
AcDbTextStyleTableRecord
  2
STYLE2
 70
     0
 40
0.0
 41
1.0
 50
0.0
 71
     0
 42
100.0
  3
MS PGothic.ttf
  4

1001
ACAD
1000
MS PGothic
1071
    32818
  0
STYLE
  5
10BAA
330
7468
100
AcDbSymbolTableRecord
100
AcDbTextStyleTableRecord
  2
STYLE3
 70
     0
 40
0.0
 41
1.0
 50
0.0
 71
     0
 42
100.0
  3
DFPGothic-EB.ttf
  4

1001
ACAD
1000
DFPGothic-EB
1071
    32818
  0
STYLE
  5
11A15
330
7468
100
AcDbSymbolTableRecord
100
AcDbTextStyleTableRecord
  2
MSGOTHIC
 70
     0
 40
0.0
 41
1.0
 50
0.0
 71
     0
 42
3.5
  3
msgothi2.ttf
  4

  0
STYLE
  5
13E96
330
7468
100
AcDbSymbolTableRecord
100
AcDbTextStyleTableRecord
  2
MSPゴシック
 70
     0
 40
0.0
 41
1.0
 50
0.0
 71
     0
 42
4.0
  3
MS PGothic.ttf
  4

1001
ACAD
1000
MS PGothic
1071
    32818
  0
ENDTAB
  0
TABLE
  2
VIEW
  5
746B
330
0
100
AcDbSymbolTable
 70
     0
  0
ENDTAB
  0
TABLE
  2
UCS
  5
746C
330
0
100
AcDbSymbolTable
 70
     0
  0
ENDTAB
  0
TABLE
  2
APPID
  5
746E
330
0
100
AcDbSymbolTable
 70
     6
  0
APPID
  5
7476
330
746E
100
AcDbSymbolTableRecord
100
AcDbRegAppTableRecord
  2
ACAD
 70
     0
  0
APPID
  5
DEA9
330
746E
100
AcDbSymbolTableRecord
100
AcDbRegAppTableRecord
  2
CONTENTBLOCKICON
 70
     0
  0
APPID
  5
DEAA
330
746E
100
AcDbSymbolTableRecord
100
AcDbRegAppTableRecord
  2
CONTENTBLOCKDESCRIPTION
 70
     0
  0
APPID
  5
E71D
330
746E
100
AcDbSymbolTableRecord
100
AcDbRegAppTableRecord
  2
CONTENTTABDATA
 70
     0
  0
APPID
  5
E71E
330
746E
100
AcDbSymbolTableRecord
100
AcDbRegAppTableRecord
  2
CONTENTCURRENTTAB
 70
     0
  0
APPID
  5
F3BA
330
746E
100
AcDbSymbolTableRecord
100
AcDbRegAppTableRecord
  2
DRAWINGVARIABLESXDATA
 70
     0
  0
ENDTAB
  0
TABLE
  2
DIMSTYLE
  5
746F
330
0
100
AcDbSymbolTable
 70
     8
100
AcDbDimStyleTable
 71
     1
340
F71F
  0
DIMSTYLE
105
7484
330
746F
100
AcDbSymbolTableRecord
100
AcDbDimStyleTableRecord
  2
JIS
 70
     0
 41
2.5
 42
1.0
 43
7.0
 44
1.0
 73
     0
 74
     0
 77
     1
 78
     8
140
2.5
141
0.0
143
0.0394
147
0.0
172
     1
174
     1
175
     1
340
7475
  0
DIMSTYLE
105
F236
330
746F
100
AcDbSymbolTableRecord
100
AcDbDimStyleTableRecord
  2
INABA_S40
 70
     0
 40
40.0
 41
2.5
 42
0.5
 43
7.0
 44
1.5
 73
     0
 74
     0
 77
     3
 78
     8
140
3.0
141
0.0
143
0.0394
147
1.0
172
     1
173
     1
174
     1
175
     1
178
     7
289
     0
340
7475
341
DEAC
343
DEAC
344
DEAC
  0
DIMSTYLE
105
F71F
102
{ACAD_REACTORS
330
1DAC7
330
1F5A6
330
1F593
330
1F4F5
330
1F4EE
330
1F4ED
330
1F4EC
330
1F4E5
330
1F4E3
330
1F248
330
1F247
330
1F246
330
1F2B9
330
1F252
330
1F251
330
1F2B5
330
1F244
330
1F245
330
1F250
330
1F50C
330
1F594
330
1F592
330
1F5A4
330
1F4E6
330
206E3
330
20751
330
20DE1
330
20DFB
330
20E15
330
20E3A
330
21EC8
330
226A5
330
22C28
330
22C31
330
22C32
330
22C47
330
22CA1
330
22CA7
102
}
330
746F
100
AcDbSymbolTableRecord
100
AcDbDimStyleTableRecord
  2
INABA_S40G
 70
     0
 40
40.0
 41
2.5
 42
0.5
 43
7.0
 44
1.5
 73
     0
 74
     0
 77
     3
 78
     8
140
3.0
141
0.0
143
0.0394
147
1.0
172
     1
173
     1
174
     1
178
     7
271
     1
340
F706
341
F770
343
F770
344
F770
  0
DIMSTYLE
105
142E3
330
746F
100
AcDbSymbolTableRecord
100
AcDbDimStyleTableRecord
  2
INABA_S1
 70
     0
 40
0.0
 41
2.5
 42
0.5
 43
7.0
 44
1.5
 73
     0
 74
     0
 77
     3
 78
     8
140
3.0
141
0.0
143
0.0394
146
0.5
147
0.5
172
     1
173
     1
176
   256
177
   256
178
     7
271
     2
272
     2
284
     8
288
     1
340
7475
341
DEAC
343
DEAC
344
DEAC
  0
DIMSTYLE
105
14463
330
746F
100
AcDbSymbolTableRecord
100
AcDbDimStyleTableRecord
  2
INABA_S30G
 70
     0
 40
30.0
 41
2.5
 42
0.5
 43
7.0
 44
1.5
 73
     0
 74
     0
 77
     3
 78
     8
140
3.0
141
0.0
143
0.0394
147
1.0
172
     1
173
     1
174
     1
175
     1
178
     7
271
     1
340
F706
341
F770
343
F770
344
F770
  0
DIMSTYLE
105
1758E
330
746F
100
AcDbSymbolTableRecord
100
AcDbDimStyleTableRecord
  2
INABA_S50G
 70
     0
 41
125.0
 42
25.0
 43
7.0
 44
75.0
 73
     0
 74
     0
 77
     3
 78
     8
140
150.0
141
0.0
143
0.0394
147
25.0
172
     1
173
     1
174
     1
175
     1
178
     7
271
     1
340
F706
341
F770
343
F770
344
F770
  0
DIMSTYLE
105
22A51
330
746F
100
AcDbSymbolTableRecord
100
AcDbDimStyleTableRecord
  2
INABA_S100G
 70
     0
 40
100.0
 41
2.5
 42
0.5
 43
7.0
 44
1.5
 73
     0
 74
     0
 77
     3
 78
     8
140
3.0
141
0.0
143
0.0394
147
1.0
172
     1
173
     1
174
     1
178
     7
271
     1
340
F706
341
F770
343
F770
344
F770
  0
DIMSTYLE
105
22A52
330
746F
100
AcDbSymbolTableRecord
100
AcDbDimStyleTableRecord
  2
INABA_S100Gsmall
 70
     0
 40
100.0
 41
1.5
 42
0.5
 43
7.0
 44
0.5
 73
     0
 74
     0
 77
     3
 78
     8
140
2.0
141
0.0
143
0.0394
147
0.5
172
     1
173
     1
174
     1
178
     7
271
     1
272
     1
279
     2
340
F706
343
F770
344
F770
  0
ENDTAB
  0
TABLE
  2
BLOCK_RECORD
  5
7466
330
0
100
AcDbSymbolTable
 70
    57
  0
BLOCK_RECORD
  5
747D
330
7466
100
AcDbSymbolTableRecord
100
AcDbBlockTableRecord
  2
*MODEL_SPACE
340
173D5
  0
BLOCK_RECORD
  5
747A
330
7466
100
AcDbSymbolTableRecord
100
AcDbBlockTableRecord
  2
*PAPER_SPACE
340
173D6
  0
BLOCK_RECORD
  5
DEAC
330
7466
100
AcDbSymbolTableRecord
100
AcDbBlockTableRecord
  2
_OPEN
340
0
  0
BLOCK_RECORD
  5
F770
330
7466
100
AcDbSymbolTableRecord
100
AcDbBlockTableRecord
  2
_DOTSMALL
340
0
102
{BLKREFS
331
18C65
331
18C66
331
18C59
331
18C5A
331
18C4D
331
18C4E
331
18C41
331
18C42
331
18C35
331
18C36
331
18C29
331
18C2A
331
18C1D
331
18C1E
331
18C0F
331
18C10
331
18C03
331
18C04
331
18BF5
331
18BF6
331
18BE7
331
18BE8
331
18BD9
331
18BDA
331
18BCD
331
18BCE
331
1FD9D
331
1FD9E
331
1FDCE
331
1FDCF
331
1FDD8
331
1FDD9
331
1FDEA
331
1FDEB
331
1FDFE
331
1FDFF
331
1FE07
331
1FE08
331
1FE25
331
1FE26
331
1FE44
331
1FE45
331
1FE4D
331
1FE4E
331
1FE75
331
1FE76
331
202E1
331
202E2
331
20DF5
331
20DF6
331
20E0F
331
20E10
331
20E34
331
20E35
331
20E76
331
20E77
331
21F20
331
21F21
331
21F32
331
21F33
331
21F3B
331
21F3C
331
21F44
331
21F45
331
21F4D
331
21F4E
331
21F56
331
21F57
331
21F5F
331
21F60
331
21F68
331
21F69
331
22444
331
22445
331
22A36
331
22A37
331
22D9D
331
22D9E
331
22DA6
331
22DA7
331
22DAF
331
22DB0
331
22DB8
331
22DB9
331
22DC1
331
22DC2
331
22DCC
331
22DCD
331
22DD6
331
22DD7
331
22DE0
331
22DE1
331
22DEA
331
22DEB
331
22EC9
331
22ECA
331
22ED3
331
22ED4
331
22EE8
331
22EE9
331
22EF2
331
22EF3
102
}
  0
BLOCK_RECORD
  5
164B4
330
7466
100
AcDbSymbolTableRecord
100
AcDbBlockTableRecord
  2
_DOT
340
0
102
{BLKREFS
331
18C73
331
18C74
102
}
  0
BLOCK_RECORD
  5
18BC8
330
7466
100
AcDbSymbolTableRecord
100
AcDbBlockTableRecord
  2
*D3
340
0
  0
BLOCK_RECORD
  5
18BD4
330
7466
100
AcDbSymbolTableRecord
100
AcDbBlockTableRecord
  2
*D4
340
0
  0
BLOCK_RECORD
  5
18BE0
330
7466
100
AcDbSymbolTableRecord
100
AcDbBlockTableRecord
  2
*D5
340
0
  0
BLOCK_RECORD
  5
18BEE
330
7466
100
AcDbSymbolTableRecord
100
AcDbBlockTableRecord
  2
*D6
340
0
  0
BLOCK_RECORD
  5
18BFC
330
7466
100
AcDbSymbolTableRecord
100
AcDbBlockTableRecord
  2
*D7
340
0
  0
BLOCK_RECORD
  5
18C0A
330
7466
100
AcDbSymbolTableRecord
100
AcDbBlockTableRecord
  2
*D8
340
0
  0
BLOCK_RECORD
  5
18C16
330
7466
100
AcDbSymbolTableRecord
100
AcDbBlockTableRecord
  2
*D9
340
0
  0
BLOCK_RECORD
  5
18C24
330
7466
100
AcDbSymbolTableRecord
100
AcDbBlockTableRecord
  2
*D10
340
0
  0
BLOCK_RECORD
  5
18C30
330
7466
100
AcDbSymbolTableRecord
100
AcDbBlockTableRecord
  2
*D11
340
0
  0
BLOCK_RECORD
  5
18C3C
330
7466
100
AcDbSymbolTableRecord
100
AcDbBlockTableRecord
  2
*D12
340
0
  0
BLOCK_RECORD
  5
18C48
330
7466
100
AcDbSymbolTableRecord
100
AcDbBlockTableRecord
  2
*D13
340
0
  0
BLOCK_RECORD
  5
18C54
330
7466
100
AcDbSymbolTableRecord
100
AcDbBlockTableRecord
  2
*D14
340
0
  0
BLOCK_RECORD
  5
18C60
330
7466
100
AcDbSymbolTableRecord
100
AcDbBlockTableRecord
  2
*D15
340
0
  0
BLOCK_RECORD
  5
18C6C
330
7466
100
AcDbSymbolTableRecord
100
AcDbBlockTableRecord
  2
*D16
340
0
  0
BLOCK_RECORD
  5
18C7A
330
7466
100
AcDbSymbolTableRecord
100
AcDbBlockTableRecord
  2
A$C3B1A506B
340
0
  0
BLOCK_RECORD
  5
1C4CA
330
7466
100
AcDbSymbolTableRecord
100
AcDbBlockTableRecord
  2
_NONE
340
0
  0
BLOCK_RECORD
  5
1DAD7
330
7466
100
AcDbSymbolTableRecord
100
AcDbBlockTableRecord
  2
*D19
340
0
  0
BLOCK_RECORD
  5
1F5AA
330
7466
100
AcDbSymbolTableRecord
100
AcDbBlockTableRecord
  2
*D20
340
0
  0
BLOCK_RECORD
  5
1F5B7
330
7466
100
AcDbSymbolTableRecord
100
AcDbBlockTableRecord
  2
*D21
340
0
  0
BLOCK_RECORD
  5
1F5C4
330
7466
100
AcDbSymbolTableRecord
100
AcDbBlockTableRecord
  2
*D22
340
0
  0
BLOCK_RECORD
  5
1F5D0
330
7466
100
AcDbSymbolTableRecord
100
AcDbBlockTableRecord
  2
*D23
340
0
  0
BLOCK_RECORD
  5
1F5DB
330
7466
100
AcDbSymbolTableRecord
100
AcDbBlockTableRecord
  2
*D24
340
0
  0
BLOCK_RECORD
  5
1F5E6
330
7466
100
AcDbSymbolTableRecord
100
AcDbBlockTableRecord
  2
*D25
340
0
  0
BLOCK_RECORD
  5
1F5F0
330
7466
100
AcDbSymbolTableRecord
100
AcDbBlockTableRecord
  2
*D26
340
0
  0
BLOCK_RECORD
  5
1F5FC
330
7466
100
AcDbSymbolTableRecord
100
AcDbBlockTableRecord
  2
*D27
340
0
  0
BLOCK_RECORD
  5
1F627
330
7466
100
AcDbSymbolTableRecord
100
AcDbBlockTableRecord
  2
*D28
340
0
  0
BLOCK_RECORD
  5
1F640
330
7466
100
AcDbSymbolTableRecord
100
AcDbBlockTableRecord
  2
*D29
340
0
  0
BLOCK_RECORD
  5
1F664
330
7466
100
AcDbSymbolTableRecord
100
AcDbBlockTableRecord
  2
*D30
340
0
  0
BLOCK_RECORD
  5
1F670
330
7466
100
AcDbSymbolTableRecord
100
AcDbBlockTableRecord
  2
*D31
340
0
  0
BLOCK_RECORD
  5
1F67B
330
7466
100
AcDbSymbolTableRecord
100
AcDbBlockTableRecord
  2
*D32
340
0
  0
BLOCK_RECORD
  5
1F688
330
7466
100
AcDbSymbolTableRecord
100
AcDbBlockTableRecord
  2
*D33
340
0
  0
BLOCK_RECORD
  5
1F695
330
7466
100
AcDbSymbolTableRecord
100
AcDbBlockTableRecord
  2
*D34
340
0
  0
BLOCK_RECORD
  5
1F6A2
330
7466
100
AcDbSymbolTableRecord
100
AcDbBlockTableRecord
  2
*D35
340
0
  0
BLOCK_RECORD
  5
1F6AF
330
7466
100
AcDbSymbolTableRecord
100
AcDbBlockTableRecord
  2
*D36
340
0
  0
BLOCK_RECORD
  5
1F6BB
330
7466
100
AcDbSymbolTableRecord
100
AcDbBlockTableRecord
  2
*D37
340
0
  0
BLOCK_RECORD
  5
1F6ED
330
7466
100
AcDbSymbolTableRecord
100
AcDbBlockTableRecord
  2
*D38
340
0
  0
BLOCK_RECORD
  5
1F6FA
330
7466
100
AcDbSymbolTableRecord
100
AcDbBlockTableRecord
  2
*D39
340
0
  0
BLOCK_RECORD
  5
1F706
330
7466
100
AcDbSymbolTableRecord
100
AcDbBlockTableRecord
  2
*D40
340
0
  0
BLOCK_RECORD
  5
1F711
330
7466
100
AcDbSymbolTableRecord
100
AcDbBlockTableRecord
  2
*D41
340
0
  0
BLOCK_RECORD
  5
1F71E
330
7466
100
AcDbSymbolTableRecord
100
AcDbBlockTableRecord
  2
*D42
340
0
  0
BLOCK_RECORD
  5
206E4
330
7466
100
AcDbSymbolTableRecord
100
AcDbBlockTableRecord
  2
*D43
340
0
  0
BLOCK_RECORD
  5
20752
330
7466
100
AcDbSymbolTableRecord
100
AcDbBlockTableRecord
  2
*D44
340
0
  0
BLOCK_RECORD
  5
20DE2
330
7466
100
AcDbSymbolTableRecord
100
AcDbBlockTableRecord
  2
*D45
340
0
  0
BLOCK_RECORD
  5
20DFC
330
7466
100
AcDbSymbolTableRecord
100
AcDbBlockTableRecord
  2
*D46
340
0
  0
BLOCK_RECORD
  5
20E16
330
7466
100
AcDbSymbolTableRecord
100
AcDbBlockTableRecord
  2
*D47
340
0
  0
BLOCK_RECORD
  5
20E3B
330
7466
100
AcDbSymbolTableRecord
100
AcDbBlockTableRecord
  2
*D48
340
0
  0
BLOCK_RECORD
  5
21EC9
330
7466
100
AcDbSymbolTableRecord
100
AcDbBlockTableRecord
  2
*D49
340
0
  0
BLOCK_RECORD
  5
2274E
330
7466
100
AcDbSymbolTableRecord
100
AcDbBlockTableRecord
  2
*D50
340
0
  0
BLOCK_RECORD
  5
22D50
330
7466
100
AcDbSymbolTableRecord
100
AcDbBlockTableRecord
  2
*D51
340
0
  0
BLOCK_RECORD
  5
22D5C
330
7466
100
AcDbSymbolTableRecord
100
AcDbBlockTableRecord
  2
*D52
340
0
  0
BLOCK_RECORD
  5
22D68
330
7466
100
AcDbSymbolTableRecord
100
AcDbBlockTableRecord
  2
*D53
340
0
  0
BLOCK_RECORD
  5
22D74
330
7466
100
AcDbSymbolTableRecord
100
AcDbBlockTableRecord
  2
*D54
340
0
  0
BLOCK_RECORD
  5
22D80
330
7466
100
AcDbSymbolTableRecord
100
AcDbBlockTableRecord
  2
*D55
340
0
  0
BLOCK_RECORD
  5
22D8C
330
7466
100
AcDbSymbolTableRecord
100
AcDbBlockTableRecord
  2
*D56
340
0
  0
ENDTAB
  0
ENDSEC
  0
SECTION
  2
BLOCKS
  0
BLOCK
  5
7489
330
747D
100
AcDbEntity
  8
0
100
AcDbBlockBegin
  2
*MODEL_SPACE
 70
     0
 10
0.0
 20
0.0
 30
0.0
  3
*MODEL_SPACE
  1

  0
ENDBLK
  5
748A
330
747D
100
AcDbEntity
  8
0
100
AcDbBlockEnd
  0
BLOCK
  5
7487
330
747A
100
AcDbEntity
 67
     1
  8
0
100
AcDbBlockBegin
  2
*PAPER_SPACE
 70
     0
 10
0.0
 20
0.0
 30
0.0
  3
*PAPER_SPACE
  1

  0
ENDBLK
  5
7488
330
747A
100
AcDbEntity
 67
     1
  8
0
100
AcDbBlockEnd
  0
BLOCK
  5
DEAD
330
DEAC
100
AcDbEntity
  8
0
100
AcDbBlockBegin
  2
_OPEN
 70
     0
 10
0.0
 20
0.0
 30
0.0
  3
_OPEN
  1

  0
LINE
  5
DEAE
330
DEAC
100
AcDbEntity
  8
0
  6
ByBlock
 62
     0
100
AcDbLine
 10
-1.0
 20
0.1666666666666666
 30
0.0
 11
0.0
 21
0.0
 31
0.0
  0
LINE
  5
DEAF
330
DEAC
100
AcDbEntity
  8
0
  6
ByBlock
 62
     0
100
AcDbLine
 10
0.0
 20
0.0
 30
0.0
 11
-1.0
 21
-0.1666666666666666
 31
0.0
  0
LINE
  5
DEB0
330
DEAC
100
AcDbEntity
  8
0
  6
ByBlock
 62
     0
100
AcDbLine
 10
0.0
 20
0.0
 30
0.0
 11
-1.0
 21
0.0
 31
0.0
  0
ENDBLK
  5
DEB1
330
DEAC
100
AcDbEntity
  8
0
100
AcDbBlockEnd
  0
BLOCK
  5
F771
330
F770
100
AcDbEntity
  8
0
 48
50.0
100
AcDbBlockBegin
  2
_DOTSMALL
 70
     0
 10
0.0
 20
0.0
 30
0.0
  3
_DOTSMALL
  1

  0
LWPOLYLINE
  5
F772
330
F770
100
AcDbEntity
  8
0
  6
ByBlock
 62
     0
 48
50.0
100
AcDbPolyline
 90
        2
 70
     1
 43
0.5
 10
-0.0625
 20
0.0
 42
1.0
 10
0.0625
 20
0.0
 42
1.0
  0
ENDBLK
  5
F776
330
F770
100
AcDbEntity
  8
0
 48
50.0
100
AcDbBlockEnd
  0
BLOCK
  5
164BA
330
164B4
100
AcDbEntity
  8
0
 48
50.0
100
AcDbBlockBegin
  2
_DOT
 70
     0
 10
0.0
 20
0.0
 30
0.0
  3
_DOT
  1

  0
LWPOLYLINE
  5
164B5
330
164B4
100
AcDbEntity
  8
0
  6
ByBlock
 62
     0
 48
50.0
100
AcDbPolyline
 90
        2
 70
     1
 43
0.5
 10
-0.25
 20
0.0
 42
1.0
 10
0.25
 20
0.0
 42
1.0
  0
LINE
  5
164B9
330
164B4
100
AcDbEntity
  8
0
  6
ByBlock
 62
     0
 48
50.0
100
AcDbLine
 10
-0.5
 20
0.0
 30
0.0
 11
-1.0
 21
0.0
 31
0.0
  0
ENDBLK
  5
164BB
330
164B4
100
AcDbEntity
  8
0
 48
50.0
100
AcDbBlockEnd
  0
BLOCK
  5
18BC9
330
18BC8
100
AcDbEntity
  8
0
 48
50.0
100
AcDbBlockBegin
  2
*D3
 70
     1
 10
0.0
 20
0.0
 30
0.0
  3
*D3
  1

  0
LINE
  5
18BCA
330
18BC8
100
AcDbEntity
  8
寸法
 62
     0
 48
50.0
370
    -2
100
AcDbLine
 10
7649.896575106999
 20
9636.123139034717
 30
0.0
 11
8702.429862581047
 21
9636.123139034717
 31
0.0
  0
LINE
  5
18BCB
330
18BC8
100
AcDbEntity
  8
寸法
 62
     0
 48
50.0
370
    -2
100
AcDbLine
 10
7649.896575106973
 20
7846.123139034709
 30
0.0
 11
8702.429862581047
 21
7846.123139034709
 31
0.0
  0
LINE
  5
18BCC
330
18BC8
100
AcDbEntity
  8
寸法
 62
     0
 48
50.0
370
    -2
100
AcDbLine
 10
8642.429862581046
 20
9636.123139034717
 30
0.0
 11
8642.429862581046
 21
7846.123139034709
 31
0.0
  0
INSERT
  5
18BCD
330
18BC8
100
AcDbEntity
  8
寸法
 62
     0
 48
50.0
370
    -2
100
AcDbBlockReference
  2
_DOTSMALL
 10
8642.429862581046
 20
9636.123139034717
 30
0.0
 41
100.0
 42
100.0
 43
100.0
 50
90.0
  0
INSERT
  5
18BCE
330
18BC8
100
AcDbEntity
  8
寸法
 62
     0
 48
50.0
370
    -2
100
AcDbBlockReference
  2
_DOTSMALL
 10
8642.429862581046
 20
7846.123139034709
 30
0.0
 41
100.0
 42
100.0
 43
100.0
 50
270.0
  0
MTEXT
  5
18BCF
330
18BC8
100
AcDbEntity
  8
寸法
 62
     7
 48
50.0
100
AcDbMText
 10
8542.429862581045
 20
8741.123139034712
 30
0.0
 40
120.0
 41
0.0
 71
     5
 72
     1
  1
\A1;1790
  7
STYLE1
 11
0.0000000000000001
 21
1.0
 31
0.0
 73
     1
 44
1.0
1001
ACAD
1000
MTEXTBEGIN
1070
    73
1070
     1
1070
    44
1040
1.0
1070
    74
1070
     0
1000
MTEXTEND
  0
POINT
  5
18BD0
330
18BC8
100
AcDbEntity
  8
DEFPOINTS
 62
     0
 48
50.0
100
AcDbPoint
 10
7629.896575106998
 20
9636.123139034717
 30
0.0
  0
POINT
  5
18BD1
330
18BC8
100
AcDbEntity
  8
DEFPOINTS
 62
     0
 48
50.0
100
AcDbPoint
 10
7629.896575106974
 20
7846.123139034709
 30
0.0
  0
POINT
  5
18BD2
330
18BC8
100
AcDbEntity
  8
DEFPOINTS
 62
     0
 48
50.0
100
AcDbPoint
 10
8642.429862581046
 20
7846.123139034709
 30
0.0
  0
ENDBLK
  5
18BD3
330
18BC8
100
AcDbEntity
  8
0
 48
50.0
100
AcDbBlockEnd
  0
BLOCK
  5
18BD5
330
18BD4
100
AcDbEntity
  8
0
 48
50.0
100
AcDbBlockBegin
  2
*D4
 70
     1
 10
0.0
 20
0.0
 30
0.0
  3
*D4
  1

  0
LINE
  5
18BD6
330
18BD4
100
AcDbEntity
  8
寸法
 62
     0
 48
50.0
370
    -2
100
AcDbLine
 10
4214.896575106998
 20
9656.123139034622
 30
0.0
 11
4214.896575106998
 21
10211.93135865972
 31
0.0
  0
LINE
  5
18BD7
330
18BD4
100
AcDbEntity
  8
寸法
 62
     0
 48
50.0
370
    -2
100
AcDbLine
 10
7574.896575106999
 20
9656.123139034718
 30
0.0
 11
7574.896575106999
 21
10211.93135865972
 31
0.0
  0
LINE
  5
18BD8
330
18BD4
100
AcDbEntity
  8
寸法
 62
     0
 48
50.0
370
    -2
100
AcDbLine
 10
4214.896575106998
 20
10151.93135865972
 30
0.0
 11
7574.896575106999
 21
10151.93135865972
 31
0.0
  0
INSERT
  5
18BD9
330
18BD4
100
AcDbEntity
  8
寸法
 62
     0
 48
50.0
370
    -2
100
AcDbBlockReference
  2
_DOTSMALL
 10
4214.896575106998
 20
10151.93135865972
 30
0.0
 41
100.0
 42
100.0
 43
100.0
 50
180.0
  0
INSERT
  5
18BDA
330
18BD4
100
AcDbEntity
  8
寸法
 62
     0
 48
50.0
370
    -2
100
AcDbBlockReference
  2
_DOTSMALL
 10
7574.896575106999
 20
10151.93135865972
 30
0.0
 41
100.0
 42
100.0
 43
100.0
  0
MTEXT
  5
18BDB
330
18BD4
100
AcDbEntity
  8
寸法
 62
     7
 48
50.0
100
AcDbMText
 10
5894.896575106997
 20
10251.94316968334
 30
0.0
 40
120.0
 41
0.0
 71
     5
 72
     1
  1
\A1;8X420=3360
  7
STYLE1
 73
     1
 44
1.0
1001
ACAD
1000
MTEXTBEGIN
1070
    73
1070
     1
1070
    44
1040
1.0
1070
    74
1070
     0
1000
MTEXTEND
  0
POINT
  5
18BDC
330
18BD4
100
AcDbEntity
  8
DEFPOINTS
 62
     0
 48
50.0
100
AcDbPoint
 10
4214.896575106998
 20
9636.123139034623
 30
0.0
  0
POINT
  5
18BDD
330
18BD4
100
AcDbEntity
  8
DEFPOINTS
 62
     0
 48
50.0
100
AcDbPoint
 10
7574.896575106999
 20
9636.123139034717
 30
0.0
  0
POINT
  5
18BDE
330
18BD4
100
AcDbEntity
  8
DEFPOINTS
 62
     0
 48
50.0
100
AcDbPoint
 10
7574.896575106999
 20
10151.93135865972
 30
0.0
  0
ENDBLK
  5
18BDF
330
18BD4
100
AcDbEntity
  8
0
 48
50.0
100
AcDbBlockEnd
  0
BLOCK
  5
18BE1
330
18BE0
100
AcDbEntity
  8
0
 48
50.0
100
AcDbBlockBegin
  2
*D5
 70
     1
 10
0.0
 20
0.0
 30
0.0
  3
*D5
  1

  0
LINE
  5
18BE2
330
18BE0
100
AcDbEntity
  8
寸法
 62
     0
 48
50.0
370
    -2
100
AcDbLine
 10
7574.896575106999
 20
9656.123139034718
 30
0.0
 11
7574.896575106999
 21
10211.9313586597
 31
0.0
  0
LINE
  5
18BE3
330
18BE0
100
AcDbEntity
  8
寸法
 62
     0
 48
50.0
370
    -2
100
AcDbLine
 10
7629.896575106998
 20
9656.123139034718
 30
0.0
 11
7629.896575106998
 21
10211.9313586597
 31
0.0
  0
LINE
  5
18BE4
330
18BE0
100
AcDbEntity
  8
寸法
 62
     0
 48
50.0
370
    -2
100
AcDbLine
 10
7574.896575106999
 20
10151.9313586597
 30
0.0
 11
7474.896575106999
 21
10151.9313586597
 31
0.0
  0
LINE
  5
18BE5
330
18BE0
100
AcDbEntity
  8
寸法
 62
     0
 48
50.0
370
    -2
100
AcDbLine
 10
7629.896575106998
 20
10151.9313586597
 30
0.0
 11
8046.867137855477
 21
10151.9313586597
 31
0.0
  0
LINE
  5
18BE6
330
18BE0
100
AcDbEntity
  8
寸法
 62
     0
 48
50.0
370
    -2
100
AcDbLine
 10
7574.896575106999
 20
10151.9313586597
 30
0.0
 11
7629.896575106998
 21
10151.9313586597
 31
0.0
  0
INSERT
  5
18BE7
330
18BE0
100
AcDbEntity
  8
寸法
 62
     0
 48
50.0
370
    -2
100
AcDbBlockReference
  2
_DOTSMALL
 10
7574.896575106999
 20
10151.9313586597
 30
0.0
 41
100.0
 42
100.0
 43
100.0
  0
INSERT
  5
18BE8
330
18BE0
100
AcDbEntity
  8
寸法
 62
     0
 48
50.0
370
    -2
100
AcDbBlockReference
  2
_DOTSMALL
 10
7629.896575106998
 20
10151.9313586597
 30
0.0
 41
100.0
 42
100.0
 43
100.0
 50
180.0
  0
MTEXT
  5
18BE9
330
18BE0
100
AcDbEntity
  8
寸法
 62
     7
 48
50.0
100
AcDbMText
 10
7938.381856481237
 20
10251.9313586597
 30
0.0
 40
120.0
 41
0.0
 71
     5
 72
     1
  1
\A1;55
  7
STYLE1
 73
     1
 44
1.0
1001
ACAD
1000
MTEXTBEGIN
1070
    73
1070
     1
1070
    44
1040
1.0
1070
    74
1070
     0
1000
MTEXTEND
  0
POINT
  5
18BEA
330
18BE0
100
AcDbEntity
  8
DEFPOINTS
 62
     0
 48
50.0
100
AcDbPoint
 10
7574.896575106999
 20
9636.123139034717
 30
0.0
  0
POINT
  5
18BEB
330
18BE0
100
AcDbEntity
  8
DEFPOINTS
 62
     0
 48
50.0
100
AcDbPoint
 10
7629.896575106998
 20
9636.123139034717
 30
0.0
  0
POINT
  5
18BEC
330
18BE0
100
AcDbEntity
  8
DEFPOINTS
 62
     0
 48
50.0
100
AcDbPoint
 10
7629.896575106998
 20
10151.9313586597
 30
0.0
  0
ENDBLK
  5
18BED
330
18BE0
100
AcDbEntity
  8
0
 48
50.0
100
AcDbBlockEnd
  0
BLOCK
  5
18BEF
330
18BEE
100
AcDbEntity
  8
0
 48
50.0
100
AcDbBlockBegin
  2
*D6
 70
     1
 10
0.0
 20
0.0
 30
0.0
  3
*D6
  1

  0
LINE
  5
18BF0
330
18BEE
100
AcDbEntity
  8
寸法
 62
     0
 48
50.0
370
    -2
100
AcDbLine
 10
7649.896575106999
 20
9636.123139034717
 30
0.0
 11
8337.32292084141
 21
9636.123139034717
 31
0.0
  0
LINE
  5
18BF1
330
18BEE
100
AcDbEntity
  8
寸法
 62
     0
 48
50.0
370
    -2
100
AcDbLine
 10
7649.896575106999
 20
9581.123139034721
 30
0.0
 11
8337.32292084141
 21
9581.123139034721
 31
0.0
  0
LINE
  5
18BF2
330
18BEE
100
AcDbEntity
  8
寸法
 62
     0
 48
50.0
370
    -2
100
AcDbLine
 10
8277.322920841411
 20
9581.123139034721
 30
0.0
 11
8277.322920841411
 21
9481.123139034719
 31
0.0
  0
LINE
  5
18BF3
330
18BEE
100
AcDbEntity
  8
寸法
 62
     0
 48
50.0
370
    -2
100
AcDbLine
 10
8277.322920841411
 20
9636.123139034717
 30
0.0
 11
8277.322920841411
 21
10053.09370178319
 31
0.0
  0
LINE
  5
18BF4
330
18BEE
100
AcDbEntity
  8
寸法
 62
     0
 48
50.0
370
    -2
100
AcDbLine
 10
8277.322920841411
 20
9581.123139034721
 30
0.0
 11
8277.322920841411
 21
9636.123139034717
 31
0.0
  0
INSERT
  5
18BF5
330
18BEE
100
AcDbEntity
  8
寸法
 62
     0
 48
50.0
370
    -2
100
AcDbBlockReference
  2
_DOTSMALL
 10
8277.322920841411
 20
9581.123139034721
 30
0.0
 41
100.0
 42
100.0
 43
100.0
 50
90.0
  0
INSERT
  5
18BF6
330
18BEE
100
AcDbEntity
  8
寸法
 62
     0
 48
50.0
370
    -2
100
AcDbBlockReference
  2
_DOTSMALL
 10
8277.322920841411
 20
9636.123139034717
 30
0.0
 41
100.0
 42
100.0
 43
100.0
 50
270.0
  0
MTEXT
  5
18BF7
330
18BEE
100
AcDbEntity
  8
寸法
 62
     7
 48
50.0
100
AcDbMText
 10
8177.32292084141
 20
9944.608420408957
 30
0.0
 40
120.0
 41
0.0
 71
     5
 72
     1
  1
\A1;55
  7
STYLE1
 11
0.0000000000000001
 21
1.0
 31
0.0
 73
     1
 44
1.0
1001
ACAD
1000
MTEXTBEGIN
1070
    73
1070
     1
1070
    44
1040
1.0
1070
    74
1070
     0
1000
MTEXTEND
  0
POINT
  5
18BF8
330
18BEE
100
AcDbEntity
  8
DEFPOINTS
 62
     0
 48
50.0
100
AcDbPoint
 10
7629.896575106998
 20
9636.123139034717
 30
0.0
  0
POINT
  5
18BF9
330
18BEE
100
AcDbEntity
  8
DEFPOINTS
 62
     0
 48
50.0
100
AcDbPoint
 10
7629.896575106998
 20
9581.123139034721
 30
0.0
  0
POINT
  5
18BFA
330
18BEE
100
AcDbEntity
  8
DEFPOINTS
 62
     0
 48
50.0
100
AcDbPoint
 10
8277.322920841411
 20
9581.123139034721
 30
0.0
  0
ENDBLK
  5
18BFB
330
18BEE
100
AcDbEntity
  8
0
 48
50.0
100
AcDbBlockEnd
  0
BLOCK
  5
18BFD
330
18BFC
100
AcDbEntity
  8
0
 48
50.0
100
AcDbBlockBegin
  2
*D7
 70
     1
 10
0.0
 20
0.0
 30
0.0
  3
*D7
  1

  0
LINE
  5
18BFE
330
18BFC
100
AcDbEntity
  8
寸法
 62
     0
 48
50.0
370
    -2
100
AcDbLine
 10
4159.896575106963
 20
9656.123139034622
 30
0.0
 11
4159.896575106963
 21
10211.9313586596
 31
0.0
  0
LINE
  5
18BFF
330
18BFC
100
AcDbEntity
  8
寸法
 62
     0
 48
50.0
370
    -2
100
AcDbLine
 10
4214.896575106998
 20
9656.123139034622
 30
0.0
 11
4214.896575106998
 21
10211.9313586596
 31
0.0
  0
LINE
  5
18C00
330
18BFC
100
AcDbEntity
  8
寸法
 62
     0
 48
50.0
370
    -2
100
AcDbLine
 10
4214.896575106998
 20
10151.9313586596
 30
0.0
 11
4314.896575106998
 21
10151.9313586596
 31
0.0
  0
LINE
  5
18C01
330
18BFC
100
AcDbEntity
  8
寸法
 62
     0
 48
50.0
370
    -2
100
AcDbLine
 10
4159.896575106963
 20
10151.9313586596
 30
0.0
 11
3742.926012358486
 21
10151.9313586596
 31
0.0
  0
LINE
  5
18C02
330
18BFC
100
AcDbEntity
  8
寸法
 62
     0
 48
50.0
370
    -2
100
AcDbLine
 10
4214.896575106998
 20
10151.9313586596
 30
0.0
 11
4159.896575106963
 21
10151.9313586596
 31
0.0
  0
INSERT
  5
18C03
330
18BFC
100
AcDbEntity
  8
寸法
 62
     0
 48
50.0
370
    -2
100
AcDbBlockReference
  2
_DOTSMALL
 10
4214.896575106998
 20
10151.9313586596
 30
0.0
 41
100.0
 42
100.0
 43
100.0
 50
180.0
  0
INSERT
  5
18C04
330
18BFC
100
AcDbEntity
  8
寸法
 62
     0
 48
50.0
370
    -2
100
AcDbBlockReference
  2
_DOTSMALL
 10
4159.896575106963
 20
10151.9313586596
 30
0.0
 41
100.0
 42
100.0
 43
100.0
  0
MTEXT
  5
18C05
330
18BFC
100
AcDbEntity
  8
寸法
 62
     7
 48
50.0
100
AcDbMText
 10
3851.411293732725
 20
10251.9313586596
 30
0.0
 40
120.0
 41
0.0
 71
     5
 72
     1
  1
\A1;55
  7
STYLE1
 73
     1
 44
1.0
1001
ACAD
1000
MTEXTBEGIN
1070
    73
1070
     1
1070
    44
1040
1.0
1070
    74
1070
     0
1000
MTEXTEND
  0
POINT
  5
18C06
330
18BFC
100
AcDbEntity
  8
DEFPOINTS
 62
     0
 48
50.0
100
AcDbPoint
 10
4159.896575106963
 20
9636.123139034623
 30
0.0
  0
POINT
  5
18C07
330
18BFC
100
AcDbEntity
  8
DEFPOINTS
 62
     0
 48
50.0
100
AcDbPoint
 10
4214.896575106998
 20
9636.123139034623
 30
0.0
  0
POINT
  5
18C08
330
18BFC
100
AcDbEntity
  8
DEFPOINTS
 62
     0
 48
50.0
100
AcDbPoint
 10
4214.896575106998
 20
10151.9313586596
 30
0.0
  0
ENDBLK
  5
18C09
330
18BFC
100
AcDbEntity
  8
0
 48
50.0
100
AcDbBlockEnd
  0
BLOCK
  5
18C0B
330
18C0A
100
AcDbEntity
  8
0
 48
50.0
100
AcDbBlockBegin
  2
*D8
 70
     1
 10
0.0
 20
0.0
 30
0.0
  3
*D8
  1

  0
LINE
  5
18C0C
330
18C0A
100
AcDbEntity
  8
寸法
 62
     0
 48
50.0
370
    -2
100
AcDbLine
 10
4159.896575106992
 20
7826.123139034546
 30
0.0
 11
4159.896575106992
 21
6804.372203245664
 31
0.0
  0
LINE
  5
18C0D
330
18C0A
100
AcDbEntity
  8
寸法
 62
     0
 48
50.0
370
    -2
100
AcDbLine
 10
7629.896575106974
 20
7826.123139034674
 30
0.0
 11
7629.896575106974
 21
6804.372203245664
 31
0.0
  0
LINE
  5
18C0E
330
18C0A
100
AcDbEntity
  8
寸法
 62
     0
 48
50.0
370
    -2
100
AcDbLine
 10
4159.896575106992
 20
6864.372203245665
 30
0.0
 11
7629.896575106974
 21
6864.372203245665
 31
0.0
  0
INSERT
  5
18C0F
330
18C0A
100
AcDbEntity
  8
寸法
 62
     0
 48
50.0
370
    -2
100
AcDbBlockReference
  2
_DOTSMALL
 10
4159.896575106992
 20
6864.372203245665
 30
0.0
 41
100.0
 42
100.0
 43
100.0
 50
180.0
  0
INSERT
  5
18C10
330
18C0A
100
AcDbEntity
  8
寸法
 62
     0
 48
50.0
370
    -2
100
AcDbBlockReference
  2
_DOTSMALL
 10
7629.896575106974
 20
6864.372203245665
 30
0.0
 41
100.0
 42
100.0
 43
100.0
  0
MTEXT
  5
18C11
330
18C0A
100
AcDbEntity
  8
寸法
 62
     7
 48
50.0
100
AcDbMText
 10
5911.12376113973
 20
6964.372203245665
 30
0.0
 40
120.0
 41
0.0
 71
     5
 72
     1
  1
\A1;3470
  7
STYLE1
 73
     1
 44
1.0
1001
ACAD
1000
MTEXTBEGIN
1070
    73
1070
     1
1070
    44
1040
1.0
1070
    74
1070
     0
1000
MTEXTEND
  0
POINT
  5
18C12
330
18C0A
100
AcDbEntity
  8
DEFPOINTS
 62
     0
 48
50.0
100
AcDbPoint
 10
4159.896575106992
 20
7846.123139034546
 30
0.0
  0
POINT
  5
18C13
330
18C0A
100
AcDbEntity
  8
DEFPOINTS
 62
     0
 48
50.0
100
AcDbPoint
 10
7629.896575106974
 20
7846.123139034673
 30
0.0
  0
POINT
  5
18C14
330
18C0A
100
AcDbEntity
  8
DEFPOINTS
 62
     0
 48
50.0
100
AcDbPoint
 10
7629.896575106974
 20
6864.372203245665
 30
0.0
  0
ENDBLK
  5
18C15
330
18C0A
100
AcDbEntity
  8
0
 48
50.0
100
AcDbBlockEnd
  0
BLOCK
  5
18C17
330
18C16
100
AcDbEntity
  8
0
 48
50.0
100
AcDbBlockBegin
  2
*D9
 70
     1
 10
0.0
 20
0.0
 30
0.0
  3
*D9
  1

  0
LINE
  5
18C18
330
18C16
100
AcDbEntity
  8
寸法
 62
     0
 48
50.0
370
    -2
100
AcDbLine
 10
7649.896575106973
 20
7901.123139034706
 30
0.0
 11
8337.322920841385
 21
7901.123139034706
 31
0.0
  0
LINE
  5
18C19
330
18C16
100
AcDbEntity
  8
寸法
 62
     0
 48
50.0
370
    -2
100
AcDbLine
 10
7649.896575106973
 20
7846.123139034709
 30
0.0
 11
8337.322920841385
 21
7846.123139034709
 31
0.0
  0
LINE
  5
18C1A
330
18C16
100
AcDbEntity
  8
寸法
 62
     0
 48
50.0
370
    -2
100
AcDbLine
 10
8277.322920841385
 20
7901.123139034706
 30
0.0
 11
8277.322920841385
 21
8001.123139034707
 31
0.0
  0
LINE
  5
18C1B
330
18C16
100
AcDbEntity
  8
寸法
 62
     0
 48
50.0
370
    -2
100
AcDbLine
 10
8277.322920841385
 20
7846.123139034709
 30
0.0
 11
8277.322920841385
 21
7429.152576286229
 31
0.0
  0
LINE
  5
18C1C
330
18C16
100
AcDbEntity
  8
寸法
 62
     0
 48
50.0
370
    -2
100
AcDbLine
 10
8277.322920841385
 20
7901.123139034706
 30
0.0
 11
8277.322920841385
 21
7846.123139034709
 31
0.0
  0
INSERT
  5
18C1D
330
18C16
100
AcDbEntity
  8
寸法
 62
     0
 48
50.0
370
    -2
100
AcDbBlockReference
  2
_DOTSMALL
 10
8277.322920841385
 20
7901.123139034706
 30
0.0
 41
100.0
 42
100.0
 43
100.0
 50
270.0
  0
INSERT
  5
18C1E
330
18C16
100
AcDbEntity
  8
寸法
 62
     0
 48
50.0
370
    -2
100
AcDbBlockReference
  2
_DOTSMALL
 10
8277.322920841385
 20
7846.123139034709
 30
0.0
 41
100.0
 42
100.0
 43
100.0
 50
90.0
  0
MTEXT
  5
18C1F
330
18C16
100
AcDbEntity
  8
寸法
 62
     7
 48
50.0
100
AcDbMText
 10
8177.322920841383
 20
7537.637857660469
 30
0.0
 40
120.0
 41
0.0
 71
     5
 72
     1
  1
\A1;55
  7
STYLE1
 11
0.0000000000000001
 21
1.0
 31
0.0
 73
     1
 44
1.0
1001
ACAD
1000
MTEXTBEGIN
1070
    73
1070
     1
1070
    44
1040
1.0
1070
    74
1070
     0
1000
MTEXTEND
  0
POINT
  5
18C20
330
18C16
100
AcDbEntity
  8
DEFPOINTS
 62
     0
 48
50.0
100
AcDbPoint
 10
7629.896575106974
 20
7901.123139034706
 30
0.0
  0
POINT
  5
18C21
330
18C16
100
AcDbEntity
  8
DEFPOINTS
 62
     0
 48
50.0
100
AcDbPoint
 10
7629.896575106974
 20
7846.123139034709
 30
0.0
  0
POINT
  5
18C22
330
18C16
100
AcDbEntity
  8
DEFPOINTS
 62
     0
 48
50.0
100
AcDbPoint
 10
8277.322920841385
 20
7846.123139034709
 30
0.0
  0
ENDBLK
  5
18C23
330
18C16
100
AcDbEntity
  8
0
 48
50.0
100
AcDbBlockEnd
  0
BLOCK
  5
18C25
330
18C24
100
AcDbEntity
  8
0
 48
50.0
100
AcDbBlockBegin
  2
*D10
 70
     1
 10
0.0
 20
0.0
 30
0.0
  3
*D10
  1

  0
LINE
  5
18C26
330
18C24
100
AcDbEntity
  8
寸法
 62
     0
 48
50.0
370
    -2
100
AcDbLine
 10
6533.037591258376
 20
9136.123139034728
 30
0.0
 11
6465.083950562664
 21
8882.516699399049
 31
0.0
  0
LINE
  5
18C27
330
18C24
100
AcDbEntity
  8
寸法
 62
     0
 48
50.0
370
    -2
100
AcDbLine
 10
7596.037591258388
 20
9136.123139034721
 30
0.0
 11
7528.083950562677
 21
8882.516699399049
 31
0.0
  0
LINE
  5
18C28
330
18C24
100
AcDbEntity
  8
寸法
 62
     0
 48
50.0
370
    -2
100
AcDbLine
 10
6481.160902108531
 20
8942.51669939905
 30
0.0
 11
7544.160902108544
 21
8942.51669939905
 31
0.0
  0
INSERT
  5
18C29
330
18C24
100
AcDbEntity
  8
寸法
 62
     0
 48
50.0
370
    -2
100
AcDbBlockReference
  2
_DOTSMALL
 10
6481.160902108531
 20
8942.51669939905
 30
0.0
 41
100.0
 42
100.0
 43
100.0
 50
180.0
  0
INSERT
  5
18C2A
330
18C24
100
AcDbEntity
  8
寸法
 62
     0
 48
50.0
370
    -2
100
AcDbBlockReference
  2
_DOTSMALL
 10
7544.160902108544
 20
8942.51669939905
 30
0.0
 41
100.0
 42
100.0
 43
100.0
  0
MTEXT
  5
18C2B
330
18C24
100
AcDbEntity
  8
寸法
 62
     7
 48
50.0
100
AcDbMText
 10
7061.28653022935
 20
9042.516699399049
 30
0.0
 40
120.0
 41
0.0
 71
     5
 72
     1
  1
\A1;1063
  7
STYLE1
 73
     1
 44
1.0
1001
ACAD
1000
MTEXTBEGIN
1070
    73
1070
     1
1070
    44
1040
1.0
1070
    74
1070
     0
1000
MTEXTEND
  0
POINT
  5
18C2C
330
18C24
100
AcDbEntity
  8
DEFPOINTS
 62
     0
 48
50.0
100
AcDbPoint
 10
6538.396575106998
 20
9156.123139034727
 30
0.0
  0
POINT
  5
18C2D
330
18C24
100
AcDbEntity
  8
DEFPOINTS
 62
     0
 48
50.0
100
AcDbPoint
 10
7601.39657510701
 20
9156.12313903472
 30
0.0
  0
POINT
  5
18C2E
330
18C24
100
AcDbEntity
  8
DEFPOINTS
 62
     0
 48
50.0
100
AcDbPoint
 10
7544.160902108544
 20
8942.51669939905
 30
0.0
  0
ENDBLK
  5
18C2F
330
18C24
100
AcDbEntity
  8
0
 48
50.0
100
AcDbBlockEnd
  0
BLOCK
  5
18C31
330
18C30
100
AcDbEntity
  8
0
 48
50.0
100
AcDbBlockBegin
  2
*D11
 70
     1
 10
0.0
 20
0.0
 30
0.0
  3
*D11
  1

  0
LINE
  5
18C32
330
18C30
100
AcDbEntity
  8
寸法
 62
     0
 48
50.0
370
    -2
100
AcDbLine
 10
7621.396575106999
 20
9600.764155186094
 30
0.0
 11
8016.754300969024
 21
9494.828371819961
 31
0.0
  0
LINE
  5
18C33
330
18C30
100
AcDbEntity
  8
寸法
 62
     0
 48
50.0
370
    -2
100
AcDbLine
 10
7621.396575106999
 20
9150.764155186099
 30
0.0
 11
8016.754300969024
 21
9044.828371819964
 31
0.0
  0
LINE
  5
18C34
330
18C30
100
AcDbEntity
  8
寸法
 62
     0
 48
50.0
370
    -2
100
AcDbLine
 10
7956.754300969024
 20
9510.905323365827
 30
0.0
 11
7956.754300969024
 21
9060.90532336583
 31
0.0
  0
INSERT
  5
18C35
330
18C30
100
AcDbEntity
  8
寸法
 62
     0
 48
50.0
370
    -2
100
AcDbBlockReference
  2
_DOTSMALL
 10
7956.754300969024
 20
9510.905323365827
 30
0.0
 41
100.0
 42
100.0
 43
100.0
 50
90.0
  0
INSERT
  5
18C36
330
18C30
100
AcDbEntity
  8
寸法
 62
     0
 48
50.0
370
    -2
100
AcDbBlockReference
  2
_DOTSMALL
 10
7956.754300969024
 20
9060.90532336583
 30
0.0
 41
100.0
 42
100.0
 43
100.0
 50
270.0
  0
MTEXT
  5
18C37
330
18C30
100
AcDbEntity
  8
寸法
 62
     7
 48
50.0
100
AcDbMText
 10
7856.754300969022
 20
9285.905323365829
 30
0.0
 40
120.0
 41
0.0
 71
     5
 72
     1
  1
\A1;450
  7
STYLE1
 11
0.0000000000000001
 21
1.0
 31
0.0
 73
     1
 44
1.0
1001
ACAD
1000
MTEXTBEGIN
1070
    73
1070
     1
1070
    44
1040
1.0
1070
    74
1070
     0
1000
MTEXTEND
  0
POINT
  5
18C38
330
18C30
100
AcDbEntity
  8
DEFPOINTS
 62
     0
 48
50.0
100
AcDbPoint
 10
7601.396575106999
 20
9606.123139034718
 30
0.0
  0
POINT
  5
18C39
330
18C30
100
AcDbEntity
  8
DEFPOINTS
 62
     0
 48
50.0
100
AcDbPoint
 10
7601.396575106999
 20
9156.12313903472
 30
0.0
  0
POINT
  5
18C3A
330
18C30
100
AcDbEntity
  8
DEFPOINTS
 62
     0
 48
50.0
100
AcDbPoint
 10
7956.754300969024
 20
9060.90532336583
 30
0.0
  0
ENDBLK
  5
18C3B
330
18C30
100
AcDbEntity
  8
0
 48
50.0
100
AcDbBlockEnd
  0
BLOCK
  5
18C3D
330
18C3C
100
AcDbEntity
  8
0
 48
50.0
100
AcDbBlockBegin
  2
*D12
 70
     1
 10
0.0
 20
0.0
 30
0.0
  3
*D12
  1

  0
LINE
  5
18C3E
330
18C3C
100
AcDbEntity
  8
寸法
 62
     0
 48
50.0
370
    -2
100
AcDbLine
 10
7649.896575106999
 20
9581.123139034721
 30
0.0
 11
8337.32292084141
 21
9581.123139034721
 31
0.0
  0
LINE
  5
18C3F
330
18C3C
100
AcDbEntity
  8
寸法
 62
     0
 48
50.0
370
    -2
100
AcDbLine
 10
7649.896575106973
 20
7901.123139034706
 30
0.0
 11
8337.32292084141
 21
7901.123139034706
 31
0.0
  0
LINE
  5
18C40
330
18C3C
100
AcDbEntity
  8
寸法
 62
     0
 48
50.0
370
    -2
100
AcDbLine
 10
8277.322920841411
 20
9581.123139034721
 30
0.0
 11
8277.322920841411
 21
7901.123139034706
 31
0.0
  0
INSERT
  5
18C41
330
18C3C
100
AcDbEntity
  8
寸法
 62
     0
 48
50.0
370
    -2
100
AcDbBlockReference
  2
_DOTSMALL
 10
8277.322920841411
 20
9581.123139034721
 30
0.0
 41
100.0
 42
100.0
 43
100.0
 50
90.0
  0
INSERT
  5
18C42
330
18C3C
100
AcDbEntity
  8
寸法
 62
     0
 48
50.0
370
    -2
100
AcDbBlockReference
  2
_DOTSMALL
 10
8277.322920841411
 20
7901.123139034706
 30
0.0
 41
100.0
 42
100.0
 43
100.0
 50
270.0
  0
MTEXT
  5
18C43
330
18C3C
100
AcDbEntity
  8
寸法
 62
     7
 48
50.0
100
AcDbMText
 10
8177.311109817788
 20
8741.123139034712
 30
0.0
 40
120.0
 41
0.0
 71
     5
 72
     1
  1
\A1;4X420=1680
  7
STYLE1
 11
0.0000000000000001
 21
1.0
 31
0.0
 73
     1
 44
1.0
1001
ACAD
1000
MTEXTBEGIN
1070
    73
1070
     1
1070
    44
1040
1.0
1070
    74
1070
     0
1000
MTEXTEND
  0
POINT
  5
18C44
330
18C3C
100
AcDbEntity
  8
DEFPOINTS
 62
     0
 48
50.0
100
AcDbPoint
 10
7629.896575106998
 20
9581.123139034721
 30
0.0
  0
POINT
  5
18C45
330
18C3C
100
AcDbEntity
  8
DEFPOINTS
 62
     0
 48
50.0
100
AcDbPoint
 10
7629.896575106974
 20
7901.123139034706
 30
0.0
  0
POINT
  5
18C46
330
18C3C
100
AcDbEntity
  8
DEFPOINTS
 62
     0
 48
50.0
100
AcDbPoint
 10
8277.322920841411
 20
7901.123139034706
 30
0.0
  0
ENDBLK
  5
18C47
330
18C3C
100
AcDbEntity
  8
0
 48
50.0
100
AcDbBlockEnd
  0
BLOCK
  5
18C49
330
18C48
100
AcDbEntity
  8
0
 48
50.0
100
AcDbBlockBegin
  2
*D13
 70
     1
 10
0.0
 20
0.0
 30
0.0
  3
*D13
  1

  0
LINE
  5
18C4A
330
18C48
100
AcDbEntity
  8
寸法
 62
     0
 48
50.0
370
    -2
100
AcDbLine
 10
4183.037591258377
 20
9136.123139034619
 30
0.0
 11
4115.083950562663
 21
8882.516699398941
 31
0.0
  0
LINE
  5
18C4B
330
18C48
100
AcDbEntity
  8
寸法
 62
     0
 48
50.0
370
    -2
100
AcDbLine
 10
5246.037591258307
 20
9136.123139034671
 30
0.0
 11
5178.08395056258
 21
8882.516699398941
 31
0.0
  0
LINE
  5
18C4C
330
18C48
100
AcDbEntity
  8
寸法
 62
     0
 48
50.0
370
    -2
100
AcDbLine
 10
4131.160902108532
 20
8942.516699398941
 30
0.0
 11
5194.160902108448
 21
8942.516699398941
 31
0.0
  0
INSERT
  5
18C4D
330
18C48
100
AcDbEntity
  8
寸法
 62
     0
 48
50.0
370
    -2
100
AcDbBlockReference
  2
_DOTSMALL
 10
4131.160902108532
 20
8942.516699398941
 30
0.0
 41
100.0
 42
100.0
 43
100.0
 50
180.0
  0
INSERT
  5
18C4E
330
18C48
100
AcDbEntity
  8
寸法
 62
     0
 48
50.0
370
    -2
100
AcDbBlockReference
  2
_DOTSMALL
 10
5194.160902108448
 20
8942.516699398941
 30
0.0
 41
100.0
 42
100.0
 43
100.0
  0
MTEXT
  5
18C4F
330
18C48
100
AcDbEntity
  8
寸法
 62
     7
 48
50.0
100
AcDbMText
 10
4658.986452655306
 20
9042.516699398941
 30
0.0
 40
120.0
 41
0.0
 71
     5
 72
     1
  1
\A1;1063
  7
STYLE1
 73
     1
 44
1.0
1001
ACAD
1000
MTEXTBEGIN
1070
    73
1070
     1
1070
    44
1040
1.0
1070
    74
1070
     0
1000
MTEXTEND
  0
POINT
  5
18C50
330
18C48
100
AcDbEntity
  8
DEFPOINTS
 62
     0
 48
50.0
100
AcDbPoint
 10
4188.396575106999
 20
9156.123139034617
 30
0.0
  0
POINT
  5
18C51
330
18C48
100
AcDbEntity
  8
DEFPOINTS
 62
     0
 48
50.0
100
AcDbPoint
 10
5251.396575106929
 20
9156.123139034672
 30
0.0
  0
POINT
  5
18C52
330
18C48
100
AcDbEntity
  8
DEFPOINTS
 62
     0
 48
50.0
100
AcDbPoint
 10
5194.160902108448
 20
8942.516699398941
 30
0.0
  0
ENDBLK
  5
18C53
330
18C48
100
AcDbEntity
  8
0
 48
50.0
100
AcDbBlockEnd
  0
BLOCK
  5
18C55
330
18C54
100
AcDbEntity
  8
0
 48
50.0
100
AcDbBlockBegin
  2
*D14
 70
     1
 10
0.0
 20
0.0
 30
0.0
  3
*D14
  1

  0
LINE
  5
18C56
330
18C54
100
AcDbEntity
  8
寸法
 62
     0
 48
50.0
370
    -2
100
AcDbLine
 10
5274.037591258307
 20
9136.123139034669
 30
0.0
 11
5206.08395056258
 21
8882.516699398941
 31
0.0
  0
LINE
  5
18C57
330
18C54
100
AcDbEntity
  8
寸法
 62
     0
 48
50.0
370
    -2
100
AcDbLine
 10
6505.037591258377
 20
9136.123139034662
 30
0.0
 11
6437.083950562653
 21
8882.516699398941
 31
0.0
  0
LINE
  5
18C58
330
18C54
100
AcDbEntity
  8
寸法
 62
     0
 48
50.0
370
    -2
100
AcDbLine
 10
5222.160902108448
 20
8942.516699398941
 30
0.0
 11
6453.16090210852
 21
8942.516699398941
 31
0.0
  0
INSERT
  5
18C59
330
18C54
100
AcDbEntity
  8
寸法
 62
     0
 48
50.0
370
    -2
100
AcDbBlockReference
  2
_DOTSMALL
 10
5222.160902108448
 20
8942.516699398941
 30
0.0
 41
100.0
 42
100.0
 43
100.0
 50
180.0
  0
INSERT
  5
18C5A
330
18C54
100
AcDbEntity
  8
寸法
 62
     0
 48
50.0
370
    -2
100
AcDbBlockReference
  2
_DOTSMALL
 10
6453.16090210852
 20
8942.516699398941
 30
0.0
 41
100.0
 42
100.0
 43
100.0
  0
MTEXT
  5
18C5B
330
18C54
100
AcDbEntity
  8
寸法
 62
     7
 48
50.0
100
AcDbMText
 10
6081.244808320626
 20
9042.528510422561
 30
0.0
 40
120.0
 41
0.0
 71
     5
 72
     1
  1
\A1;1231
  7
STYLE1
 73
     1
 44
1.0
1001
ACAD
1000
MTEXTBEGIN
1070
    73
1070
     1
1070
    44
1040
1.0
1070
    74
1070
     0
1000
MTEXTEND
  0
POINT
  5
18C5C
330
18C54
100
AcDbEntity
  8
DEFPOINTS
 62
     0
 48
50.0
100
AcDbPoint
 10
5279.396575106929
 20
9156.123139034669
 30
0.0
  0
POINT
  5
18C5D
330
18C54
100
AcDbEntity
  8
DEFPOINTS
 62
     0
 48
50.0
100
AcDbPoint
 10
6510.396575106999
 20
9156.123139034662
 30
0.0
  0
POINT
  5
18C5E
330
18C54
100
AcDbEntity
  8
DEFPOINTS
 62
     0
 48
50.0
100
AcDbPoint
 10
6453.16090210852
 20
8942.516699398941
 30
0.0
  0
ENDBLK
  5
18C5F
330
18C54
100
AcDbEntity
  8
0
 48
50.0
100
AcDbBlockEnd
  0
BLOCK
  5
18C61
330
18C60
100
AcDbEntity
  8
0
 48
50.0
100
AcDbBlockBegin
  2
*D15
 70
     1
 10
0.0
 20
0.0
 30
0.0
  3
*D15
  1

  0
LINE
  5
18C62
330
18C60
100
AcDbEntity
  8
寸法
 62
     0
 48
50.0
370
    -2
100
AcDbLine
 10
5065.896575106966
 20
7749.123139034579
 30
0.0
 11
5065.896575106966
 21
7099.952920982538
 31
0.0
  0
LINE
  5
18C63
330
18C60
100
AcDbEntity
  8
寸法
 62
     0
 48
50.0
370
    -2
100
AcDbLine
 10
6331.896575106966
 20
7749.123139034579
 30
0.0
 11
6331.896575106966
 21
7099.952920982538
 31
0.0
  0
LINE
  5
18C64
330
18C60
100
AcDbEntity
  8
寸法
 62
     0
 48
50.0
370
    -2
100
AcDbLine
 10
5065.896575106966
 20
7159.952920982537
 30
0.0
 11
6331.896575106966
 21
7159.952920982537
 31
0.0
  0
INSERT
  5
18C65
330
18C60
100
AcDbEntity
  8
寸法
 62
     0
 48
50.0
370
    -2
100
AcDbBlockReference
  2
_DOTSMALL
 10
5065.896575106966
 20
7159.952920982537
 30
0.0
 41
100.0
 42
100.0
 43
100.0
 50
180.0
  0
INSERT
  5
18C66
330
18C60
100
AcDbEntity
  8
寸法
 62
     0
 48
50.0
370
    -2
100
AcDbBlockReference
  2
_DOTSMALL
 10
6331.896575106966
 20
7159.952920982537
 30
0.0
 41
100.0
 42
100.0
 43
100.0
  0
MTEXT
  5
18C67
330
18C60
100
AcDbEntity
  8
寸法
 62
     7
 48
50.0
100
AcDbMText
 10
5711.986008735934
 20
7359.964732006159
 30
0.0
 40
120.0
 41
0.0
 71
     5
 72
     1
  1
\A1;有効開口部間口\P1266
  7
STYLE1
 73
     1
 44
1.0
1001
ACAD
1000
MTEXTBEGIN
1070
    73
1070
     1
1070
    44
1040
1.0
1070
    74
1070
     0
1000
MTEXTEND
  0
POINT
  5
18C68
330
18C60
100
AcDbEntity
  8
DEFPOINTS
 62
     0
 48
50.0
100
AcDbPoint
 10
5065.896575106966
 20
7769.123139034579
 30
0.0
  0
POINT
  5
18C69
330
18C60
100
AcDbEntity
  8
DEFPOINTS
 62
     0
 48
50.0
100
AcDbPoint
 10
6331.896575106966
 20
7769.123139034579
 30
0.0
  0
POINT
  5
18C6A
330
18C60
100
AcDbEntity
  8
DEFPOINTS
 62
     0
 48
50.0
100
AcDbPoint
 10
6331.896575106966
 20
7159.952920982537
 30
0.0
  0
ENDBLK
  5
18C6B
330
18C60
100
AcDbEntity
  8
0
 48
50.0
100
AcDbBlockEnd
  0
BLOCK
  5
18C6D
330
18C6C
100
AcDbEntity
  8
0
 48
50.0
100
AcDbBlockBegin
  2
*D16
 70
     1
 10
0.0
 20
0.0
 30
0.0
  3
*D16
  1

  0
LINE
  5
18C6E
330
18C6C
100
AcDbEntity
  8
寸法
 62
     0
 48
50.0
370
    -2
100
AcDbLine
 10
7200.896575106966
 20
7846.123139034578
 30
0.0
 11
7457.192158500191
 21
7846.123139034578
 31
0.0
  0
LINE
  5
18C6F
330
18C6C
100
AcDbEntity
  8
寸法
 62
     0
 48
50.0
370
    -2
100
AcDbLine
 10
7199.896575106966
 20
7769.123139034579
 30
0.0
 11
7457.192158500191
 21
7769.123139034579
 31
0.0
  0
LINE
  5
18C70
330
18C6C
100
AcDbEntity
  8
寸法
 62
     0
 48
50.0
370
    -2
100
AcDbLine
 10
7417.192158500192
 20
7866.123139034579
 30
0.0
 11
7417.192158500192
 21
7886.123139034578
 31
0.0
  0
LINE
  5
18C71
330
18C6C
100
AcDbEntity
  8
寸法
 62
     0
 48
50.0
370
    -2
100
AcDbLine
 10
7417.192158500192
 20
7749.123139034579
 30
0.0
 11
7417.192158500192
 21
7533.123139034573
 31
0.0
  0
LINE
  5
18C72
330
18C6C
100
AcDbEntity
  8
寸法
 62
     0
 48
50.0
370
    -2
100
AcDbLine
 10
7417.192158500192
 20
7846.123139034578
 30
0.0
 11
7417.192158500192
 21
7769.123139034579
 31
0.0
  0
INSERT
  5
18C73
330
18C6C
100
AcDbEntity
  8
寸法
 62
     0
 48
50.0
370
    -2
100
AcDbBlockReference
  2
_DOT
 10
7417.192158500192
 20
7846.123139034578
 30
0.0
 41
20.0
 42
20.0
 43
20.0
 50
270.0
  0
INSERT
  5
18C74
330
18C6C
100
AcDbEntity
  8
寸法
 62
     0
 48
50.0
370
    -2
100
AcDbBlockReference
  2
_DOT
 10
7417.192158500192
 20
7769.123139034579
 30
0.0
 41
20.0
 42
20.0
 43
20.0
 50
90.0
  0
MTEXT
  5
18C75
330
18C6C
100
AcDbEntity
  8
寸法
 62
     7
 48
50.0
100
AcDbMText
 10
7325.192158500191
 20
7631.123139034575
 30
0.0
 40
120.0
 41
0.0
 71
     5
 72
     1
  1
\A1;77
  7
STYLE1
 11
0.0000000000000001
 21
1.0
 31
0.0
 73
     1
 44
1.0
1001
ACAD
1000
MTEXTBEGIN
1070
    73
1070
     1
1070
    44
1040
1.0
1070
    74
1070
     0
1000
MTEXTEND
  0
POINT
  5
18C76
330
18C6C
100
AcDbEntity
  8
DEFPOINTS
 62
     0
 48
50.0
100
AcDbPoint
 10
7180.896575106967
 20
7846.123139034578
 30
0.0
  0
POINT
  5
18C77
330
18C6C
100
AcDbEntity
  8
DEFPOINTS
 62
     0
 48
50.0
100
AcDbPoint
 10
7179.896575106965
 20
7769.123139034579
 30
0.0
  0
POINT
  5
18C78
330
18C6C
100
AcDbEntity
  8
DEFPOINTS
 62
     0
 48
50.0
100
AcDbPoint
 10
7417.192158500192
 20
7769.123139034579
 30
0.0
  0
ENDBLK
  5
18C79
330
18C6C
100
AcDbEntity
  8
0
 48
50.0
100
AcDbBlockEnd
  0
BLOCK
  5
18DA0
330
18C7A
100
AcDbEntity
  8
0
 48
50.0
100
AcDbBlockBegin
  2
A$C3B1A506B
 70
     0
 10
0.0
 20
0.0
 30
0.0
  3
A$C3B1A506B
  1

  0
MTEXT
  5
18C7B
330
18C7A
100
AcDbEntity
  8
寸法
 62
     7
 48
50.0
100
AcDbMText
 10
3342.250386887194
 20
2778.329429134012
 30
0.0
 40
96.0
 41
0.0
 71
     5
 72
     1
  1
棚 2段
  7
STYLE1
 73
     1
 44
1.0
1001
ACAD
1000
MTEXTBEGIN
1070
    73
1070
     1
1070
    44
1040
1.0
1070
    74
1070
     0
1000
MTEXTEND
  0
MTEXT
  5
18C7C
330
18C7A
100
AcDbEntity
  8
寸法
 62
     7
 48
50.0
100
AcDbMText
 10
2167.25038688716
 20
2778.329429133986
 30
0.0
 40
96.0
 41
0.0
 71
     5
 72
     1
  1
棚 2段
  7
STYLE1
 73
     1
 44
1.0
1001
ACAD
1000
MTEXTBEGIN
1070
    73
1070
     1
1070
    44
1040
1.0
1070
    74
1070
     0
1000
MTEXTEND
  0
MTEXT
  5
18C7D
330
18C7A
100
AcDbEntity
  8
寸法
 62
     7
 48
50.0
100
AcDbMText
 10
992.2503868871608
 20
2778.329429133935
 30
0.0
 40
96.0
 41
0.0
 71
     5
 72
     1
  1
棚 2段
  7
STYLE1
 73
     1
 44
1.0
1001
ACAD
1000
MTEXTBEGIN
1070
    73
1070
     1
1070
    44
1040
1.0
1070
    74
1070
     0
1000
MTEXTEND
  0
LINE
  5
18C7E
330
18C7A
100
AcDbEntity
  8
細線
 48
50.0
100
AcDbLine
 10
2771.970589276527
 20
1368.994384123192
 30
0.0
 11
3398.970589276523
 21
1368.994384123192
 31
0.0
  0
LINE
  5
18C7F
330
18C7A
100
AcDbEntity
  8
細線
 48
50.0
100
AcDbLine
 10
2117.970593930113
 20
1335.285615569113
 30
0.0
 11
3398.970589276523
 21
1335.285615569113
 31
0.0
  0
LINE
  5
18C80
330
18C7A
100
AcDbEntity
  8
細線
 48
50.0
100
AcDbLine
 10
2076.970593930115
 20
1364.690523565368
 30
0.0
 11
1322.970589276523
 21
1364.690523565367
 31
0.0
  0
LINE
  5
18C81
330
18C7A
100
AcDbEntity
  8
細線
100
AcDbLine
 10
3170.720579860066
 20
1388.494284088199
 30
0.0
 11
3173.052119381877
 21
1393.494286728162
 31
0.0
  0
LINE
  5
18C82
330
18C7A
100
AcDbEntity
  8
細線
100
AcDbLine
 10
3240.720589276525
 20
1388.494269174465
 30
0.0
 11
3238.389042800336
 21
1393.494286728144
 31
0.0
  0
LINE
  5
18C83
330
18C7A
100
AcDbEntity
  8
細線
100
AcDbLine
 10
3238.389042800336
 20
1393.494286728144
 30
0.0
 11
3173.052119381862
 21
1393.494286728133
 31
0.0
  0
LINE
  5
18C84
330
18C7A
100
AcDbEntity
  8
細線
100
AcDbLine
 10
3098.389042800336
 20
1393.494286728144
 30
0.0
 11
3033.052119381862
 21
1393.494286728133
 31
0.0
  0
LINE
  5
18C85
330
18C7A
100
AcDbEntity
  8
細線
100
AcDbLine
 10
3100.720589276523
 20
1388.494269174465
 30
0.0
 11
3098.389042800336
 21
1393.494286728144
 31
0.0
  0
LINE
  5
18C86
330
18C7A
100
AcDbEntity
  8
細線
100
AcDbLine
 10
3030.720579860066
 20
1388.494284088199
 30
0.0
 11
3033.052119381875
 21
1393.494286728162
 31
0.0
  0
LINE
  5
18C87
330
18C7A
100
AcDbEntity
  8
細線
100
AcDbLine
 10
2890.720589276525
 20
1388.494269174465
 30
0.0
 11
2893.052128798336
 21
1393.494271814428
 31
0.0
  0
LINE
  5
18C88
330
18C7A
100
AcDbEntity
  8
細線
100
AcDbLine
 10
2960.720598692984
 20
1388.494254260731
 30
0.0
 11
2958.389052216793
 21
1393.49427181441
 31
0.0
  0
LINE
  5
18C89
330
18C7A
100
AcDbEntity
  8
細線
100
AcDbLine
 10
2958.389052216795
 20
1393.49427181441
 30
0.0
 11
2893.052128798321
 21
1393.494271814399
 31
0.0
  0
LINE
  5
18C8A
330
18C7A
100
AcDbEntity
  8
細線
100
AcDbLine
 10
2667.139038146739
 20
1359.494298590735
 30
0.0
 11
2601.802114728263
 21
1359.494298590724
 31
0.0
  0
LINE
  5
18C8B
330
18C7A
100
AcDbEntity
  8
細線
100
AcDbLine
 10
2669.470584622926
 20
1354.494281037055
 30
0.0
 11
2667.139038146737
 21
1359.494298590735
 31
0.0
  0
LINE
  5
18C8C
330
18C7A
100
AcDbEntity
  8
細線
100
AcDbLine
 10
2599.470575206469
 20
1354.49429595079
 30
0.0
 11
2601.802114728278
 21
1359.494298590752
 31
0.0
  0
LINE
  5
18C8D
330
18C7A
100
AcDbEntity
  8
細線
 48
50.0
100
AcDbLine
 10
2440.853968524536
 20
1372.765132327548
 30
0.0
 11
2446.609486107205
 21
1354.494281037057
 31
0.0
  0
LINE
  5
18C8E
330
18C7A
100
AcDbEntity
  8
細線
 48
50.0
100
AcDbLine
 10
2429.925520044106
 20
1372.765132327546
 30
0.0
 11
2440.853968524536
 21
1372.765132327548
 31
0.0
  0
ARC
  5
18C8F
330
18C7A
100
AcDbEntity
  8
細線
 48
50.0
100
AcDbCircle
 10
2424.471163986787
 20
1374.265132327546
 30
0.0
 40
5.0
100
AcDbArc
 50
204.6243183520723
 51
335.3756816479278
  0
ARC
  5
18C90
330
18C7A
100
AcDbEntity
  8
細線
 48
50.0
100
AcDbCircle
 10
2429.925520044106
 20
1371.765132327546
 30
0.0
 40
1.0
100
AcDbArc
 50
90.0
 51
155.3756816479277
  0
ARC
  5
18C91
330
18C7A
100
AcDbEntity
  8
細線
 48
50.0
100
AcDbCircle
 10
2419.016807929469
 20
1371.765132327546
 30
0.0
 40
1.0
100
AcDbArc
 50
24.62431835207225
 51
90.0
  0
LINE
  5
18C92
330
18C7A
100
AcDbEntity
  8
細線
 48
50.0
100
AcDbLine
 10
2408.088359449037
 20
1372.765132327548
 30
0.0
 11
2419.016807929469
 21
1372.765132327546
 31
0.0
  0
LINE
  5
18C93
330
18C7A
100
AcDbEntity
  8
細線
 48
50.0
100
AcDbLine
 10
2402.33284186637
 20
1354.494281037054
 30
0.0
 11
2408.088359449037
 21
1372.765132327548
 31
0.0
  0
LINE
  5
18C94
330
18C7A
100
AcDbEntity
  8
細線
100
AcDbLine
 10
2458.070304175992
 20
1354.494278397076
 30
0.0
 11
2460.401843697802
 21
1359.494281037039
 31
0.0
  0
LINE
  5
18C95
330
18C7A
100
AcDbEntity
  8
細線
100
AcDbLine
 10
2528.070313592451
 20
1354.494263483342
 30
0.0
 11
2525.738767116262
 21
1359.494281037021
 31
0.0
  0
LINE
  5
18C96
330
18C7A
100
AcDbEntity
  8
細線
100
AcDbLine
 10
2525.738767116262
 20
1359.494281037021
 30
0.0
 11
2460.40184369779
 21
1359.49428103701
 31
0.0
  0
LINE
  5
18C97
330
18C7A
100
AcDbEntity
  8
細線
100
AcDbLine
 10
2387.139046332155
 20
1359.494281037021
 30
0.0
 11
2321.80212291368
 21
1359.49428103701
 31
0.0
  0
LINE
  5
18C98
330
18C7A
100
AcDbEntity
  8
細線
100
AcDbLine
 10
2389.470592808342
 20
1354.494263483342
 30
0.0
 11
2387.139046332153
 21
1359.494281037021
 31
0.0
  0
LINE
  5
18C99
330
18C7A
100
AcDbEntity
  8
細線
100
AcDbLine
 10
2319.470584622926
 20
1354.494281037054
 30
0.0
 11
2321.802122913694
 21
1359.494281037039
 31
0.0
  0
LINE
  5
18C9A
330
18C7A
100
AcDbEntity
  8
細線
100
AcDbLine
 10
2179.47061994182
 20
1354.494289224422
 30
0.0
 11
2181.802158232587
 21
1359.494289224407
 31
0.0
  0
LINE
  5
18C9B
330
18C7A
100
AcDbEntity
  8
細線
100
AcDbLine
 10
2249.470628127236
 20
1354.49427167071
 30
0.0
 11
2247.139081651047
 21
1359.494289224389
 31
0.0
  0
LINE
  5
18C9C
330
18C7A
100
AcDbEntity
  8
細線
100
AcDbLine
 10
2247.139081651047
 20
1359.494289224389
 30
0.0
 11
2181.802158232573
 21
1359.494289224378
 31
0.0
  0
LINE
  5
18C9D
330
18C7A
100
AcDbEntity
  8
細線
100
AcDbLine
 10
1807.970585744697
 20
1320.494460905133
 30
0.0
 11
1810.302124035464
 21
1325.494460905118
 31
0.0
  0
LINE
  5
18C9E
330
18C7A
100
AcDbEntity
  8
細線
100
AcDbLine
 10
1877.970593930113
 20
1320.494443351421
 30
0.0
 11
1875.639047453926
 21
1325.4944609051
 31
0.0
  0
LINE
  5
18C9F
330
18C7A
100
AcDbEntity
  8
細線
100
AcDbLine
 10
1875.639047453926
 20
1325.4944609051
 30
0.0
 11
1810.302124035452
 21
1325.494460905089
 31
0.0
  0
LINE
  5
18CA0
330
18C7A
100
AcDbEntity
  8
細線
100
AcDbLine
 10
2015.639047453926
 20
1325.4944609051
 30
0.0
 11
1950.302124035452
 21
1325.494460905089
 31
0.0
  0
LINE
  5
18CA1
330
18C7A
100
AcDbEntity
  8
細線
100
AcDbLine
 10
2017.970593930113
 20
1320.494443351421
 30
0.0
 11
2015.639047453924
 21
1325.4944609051
 31
0.0
  0
LINE
  5
18CA2
330
18C7A
100
AcDbEntity
  8
細線
100
AcDbLine
 10
1947.970585744697
 20
1320.494460905133
 30
0.0
 11
1950.302124035465
 21
1325.494460905118
 31
0.0
  0
LINE
  5
18CA3
330
18C7A
100
AcDbEntity
  8
細線
100
AcDbLine
 10
1735.639047453926
 20
1325.494460905098
 30
0.0
 11
1670.302124035454
 21
1325.494460905087
 31
0.0
  0
LINE
  5
18CA4
330
18C7A
100
AcDbEntity
  8
細線
100
AcDbLine
 10
1737.970593930113
 20
1320.494443351419
 30
0.0
 11
1735.639047453926
 21
1325.494460905098
 31
0.0
  0
LINE
  5
18CA5
330
18C7A
100
AcDbEntity
  8
細線
100
AcDbLine
 10
1667.970585744697
 20
1320.494460905131
 30
0.0
 11
1670.302124035465
 21
1325.494460905116
 31
0.0
  0
LINE
  5
18CA6
330
18C7A
100
AcDbEntity
  8
細線
100
AcDbLine
 10
1527.970593930113
 20
1320.494460905133
 30
0.0
 11
1530.302132220881
 21
1325.494460905118
 31
0.0
  0
LINE
  5
18CA7
330
18C7A
100
AcDbEntity
  8
細線
100
AcDbLine
 10
1597.970602115529
 20
1320.494443351421
 30
0.0
 11
1595.639055639342
 21
1325.4944609051
 31
0.0
  0
LINE
  5
18CA8
330
18C7A
100
AcDbEntity
  8
細線
100
AcDbLine
 10
1595.639055639342
 20
1325.4944609051
 30
0.0
 11
1530.302132220869
 21
1325.494460905089
 31
0.0
  0
ARC
  5
18CA9
330
18C7A
100
AcDbEntity
  8
部品1
 48
0.01
100
AcDbCircle
 10
1483.470482677778
 20
1319.493338720063
 30
0.0
 40
0.5
100
AcDbArc
 50
270.0
 51
0.0
  0
LINE
  5
18CAA
330
18C7A
100
AcDbEntity
  8
部品1
 48
0.01
100
AcDbLine
 10
1483.970482677778
 20
1320.493338720063
 30
0.0
 11
1483.970482677778
 21
1319.493338720063
 31
0.0
  0
LINE
  5
18CAB
330
18C7A
100
AcDbEntity
  8
部品1
 48
0.01
100
AcDbLine
 10
1483.970482677778
 20
1320.493338720063
 30
0.0
 11
1483.970482677778
 21
1319.493338720063
 31
0.0
  0
LINE
  5
18CAC
330
18C7A
100
AcDbEntity
  8
部品1
 48
0.01
100
AcDbLine
 10
1483.470482677778
 20
1318.993338720063
 30
0.0
 11
1476.857977247713
 21
1318.993338720062
 31
0.0
  0
ARC
  5
18CAD
330
18C7A
100
AcDbEntity
  8
部品1
100
AcDbCircle
 10
1476.926326800494
 20
1319.993338720062
 30
0.0
 40
1.0
100
AcDbArc
 50
160.5287793655865
 51
270.0
  0
ARC
  5
18CAE
330
18C7A
100
AcDbEntity
  8
部品1
100
AcDbCircle
 10
1451.470482677778
 20
1328.993338720062
 30
0.0
 40
26.0
100
AcDbArc
 50
340.5287793655865
 51
0.0
  0
LINE
  5
18CAF
330
18C7A
100
AcDbEntity
  8
部品1
100
AcDbLine
 10
1477.470482677778
 20
1328.993338720062
 30
0.0
 11
1477.470482677778
 21
1333.993338720061
 31
0.0
  0
ARC
  5
18CB0
330
18C7A
100
AcDbEntity
  8
部品1
 48
0.01
100
AcDbCircle
 10
1475.470482677778
 20
1333.993338720061
 30
0.0
 40
2.0
100
AcDbArc
 50
0.0
 51
90.0
  0
ARC
  5
18CB1
330
18C7A
100
AcDbEntity
  8
部品1
100
AcDbCircle
 10
1473.862091052968
 20
1332.993338720062
 30
0.0
 40
3.0
100
AcDbArc
 50
90.0
 51
141.6069559808035
  0
LINE
  5
18CB2
330
18C7A
100
AcDbEntity
  8
部品1
 48
0.01
100
AcDbLine
 10
1475.470482677778
 20
1335.993338720062
 30
0.0
 11
1473.862091052968
 21
1335.993338720062
 31
0.0
  0
ARC
  5
18CB3
330
18C7A
100
AcDbEntity
  8
部品1
100
AcDbCircle
 10
1455.399768463507
 20
1332.293338720065
 30
0.0
 40
3.0
100
AcDbArc
 50
254.0576313943215
 51
270.0
  0
ARC
  5
18CB4
330
18C7A
100
AcDbEntity
  8
部品1
100
AcDbCircle
 10
1462.541196892049
 20
1332.293338720065
 30
0.0
 40
3.0
100
AcDbArc
 50
270.0
 51
285.9423686056786
  0
LINE
  5
18CB5
330
18C7A
100
AcDbEntity
  8
部品1
100
AcDbLine
 10
1462.541196892049
 20
1329.293338720064
 30
0.0
 11
1455.399768463507
 21
1329.293338720064
 31
0.0
  0
ARC
  5
18CB6
330
18C7A
100
AcDbEntity
  8
部品1
100
AcDbCircle
 10
1458.970482677778
 20
1344.793338720065
 30
0.0
 40
16.0
100
AcDbArc
 50
285.9423686056786
 51
321.6069559808035
  0
LINE
  5
18CB7
330
18C7A
100
AcDbEntity
  8
部品1
 48
0.01
100
AcDbLine
 10
1442.470482677778
 20
1335.993338720062
 30
0.0
 11
1444.078874302588
 21
1335.993338720062
 31
0.0
  0
ARC
  5
18CB8
330
18C7A
100
AcDbEntity
  8
部品1
100
AcDbCircle
 10
1444.078874302588
 20
1332.993338720062
 30
0.0
 40
3.0
100
AcDbArc
 50
38.39304401919648
 51
90.0
  0
ARC
  5
18CB9
330
18C7A
100
AcDbEntity
  8
部品1
100
AcDbCircle
 10
1458.970482677778
 20
1344.793338720065
 30
0.0
 40
16.0
100
AcDbArc
 50
218.3930440191965
 51
254.0576313943215
  0
LINE
  5
18CBA
330
18C7A
100
AcDbEntity
  8
部品1
100
AcDbLine
 10
1440.470482677778
 20
1328.993338720062
 30
0.0
 11
1440.470482677778
 21
1333.993338720061
 31
0.0
  0
ARC
  5
18CBB
330
18C7A
100
AcDbEntity
  8
部品1
 48
0.01
100
AcDbCircle
 10
1442.470482677778
 20
1333.993338720061
 30
0.0
 40
2.0
100
AcDbArc
 50
90.0
 51
180.0
  0
ARC
  5
18CBC
330
18C7A
100
AcDbEntity
  8
部品1
100
AcDbCircle
 10
1466.470482677778
 20
1328.993338720062
 30
0.0
 40
26.0
100
AcDbArc
 50
180.0
 51
199.4712206344134
  0
ARC
  5
18CBD
330
18C7A
100
AcDbEntity
  8
部品1
 48
0.01
100
AcDbCircle
 10
1434.470482677778
 20
1319.493338720063
 30
0.0
 40
0.5
100
AcDbArc
 50
180.0
 51
270.0
  0
LINE
  5
18CBE
330
18C7A
100
AcDbEntity
  8
部品1
 48
0.01
100
AcDbLine
 10
1434.470482677778
 20
1318.993338720063
 30
0.0
 11
1441.014638555061
 21
1318.993338720062
 31
0.0
  0
LINE
  5
18CBF
330
18C7A
100
AcDbEntity
  8
部品1
 48
0.01
100
AcDbLine
 10
1433.970482677778
 20
1320.493338720063
 30
0.0
 11
1433.970482677778
 21
1319.493338720063
 31
0.0
  0
ARC
  5
18CC0
330
18C7A
100
AcDbEntity
  8
部品1
100
AcDbCircle
 10
1441.014638555061
 20
1319.993338720062
 30
0.0
 40
1.0
100
AcDbArc
 50
270.0
 51
19.47122063441346
  0
LINE
  5
18CC1
330
18C7A
100
AcDbEntity
  8
細線
100
AcDbLine
 10
1479.470482677785
 20
1338.493338720065
 30
0.0
 11
1438.470482677785
 21
1338.493338720058
 31
0.0
  0
LINE
  5
18CC2
330
18C7A
100
AcDbEntity
  8
細線
100
AcDbLine
 10
1438.470482677785
 20
1338.493338720058
 30
0.0
 11
1438.470482677785
 21
1320.49333872004
 31
0.0
  0
LINE
  5
18CC3
330
18C7A
100
AcDbEntity
  8
細線
100
AcDbLine
 10
1479.470482677785
 20
1338.493338720065
 30
0.0
 11
1479.470482677785
 21
1320.49333872004
 31
0.0
  0
LINE
  5
18CC4
330
18C7A
100
AcDbEntity
  8
細線
100
AcDbLine
 10
1322.970589276523
 20
1324.494269174465
 30
0.0
 11
1322.970589276523
 21
1320.494269174513
 31
0.0
  0
LINE
  5
18CC5
330
18C7A
100
AcDbEntity
  8
寸法
 48
50.0
100
AcDbLine
 10
1746.17359555837
 20
1170.531020743327
 30
0.0
 11
1694.767587648266
 21
1170.531020743327
 31
0.0
  0
LINE
  5
18CC6
330
18C7A
100
AcDbEntity
  8
寸法
 48
50.0
100
AcDbLine
 10
1694.767587648266
 20
1170.531020743327
 30
0.0
 11
1694.767587648266
 21
1201.841179395494
 31
0.0
  0
LINE
  5
18CC7
330
18C7A
100
AcDbEntity
  8
寸法
 48
50.0
100
AcDbLine
 10
1694.767587648266
 20
1201.841179395494
 30
0.0
 11
1665.006255656843
 21
1201.841179395494
 31
0.0
  0
LINE
  5
18CC8
330
18C7A
100
AcDbEntity
  8
寸法
 48
50.0
100
AcDbLine
 10
1665.006255656843
 20
1201.841179395494
 30
0.0
 11
1720.470591603318
 21
1239.420630324105
 31
0.0
  0
LINE
  5
18CC9
330
18C7A
100
AcDbEntity
  8
寸法
 48
50.0
100
AcDbLine
 10
1775.934927549793
 20
1201.841179395494
 30
0.0
 11
1720.470591603318
 21
1239.420630324105
 31
0.0
  0
LINE
  5
18CCA
330
18C7A
100
AcDbEntity
  8
寸法
 48
50.0
100
AcDbLine
 10
1746.17359555837
 20
1201.841179395494
 30
0.0
 11
1775.934927549793
 21
1201.841179395494
 31
0.0
  0
LINE
  5
18CCB
330
18C7A
100
AcDbEntity
  8
寸法
 48
50.0
100
AcDbLine
 10
1746.17359555837
 20
1170.531020743327
 30
0.0
 11
1746.17359555837
 21
1201.841179395494
 31
0.0
  0
LINE
  5
18CCC
330
18C7A
100
AcDbEntity
  8
寸法
 48
50.0
100
AcDbLine
 10
1694.767587648266
 20
1170.531020743327
 30
0.0
 11
1746.17359555837
 21
1170.531020743327
 31
0.0
  0
LINE
  5
18CCD
330
18C7A
100
AcDbEntity
  8
寸法
 48
50.0
100
AcDbLine
 10
2025.339129835225
 20
1227.676611498152
 30
0.0
 11
2025.339129835225
 21
1174.01297691636
 31
0.0
  0
LINE
  5
18CCE
330
18C7A
100
AcDbEntity
  8
寸法
 48
50.0
100
AcDbLine
 10
2114.623348430647
 20
1203.752977228664
 30
0.0
 11
2025.339129835225
 21
1227.676611498152
 31
0.0
  0
LINE
  5
18CCF
330
18C7A
100
AcDbEntity
  8
寸法
 48
50.0
100
AcDbLine
 10
1895.471408254923
 20
1203.752977228664
 30
0.0
 11
2114.623348430647
 21
1203.752977228664
 31
0.0
  0
DIMENSION
  5
18CD0
330
18C7A
100
AcDbEntity
  8
寸法
 48
50.0
100
AcDbDimension
  2
*D15
 10
2588.970589276523
 20
706.3240511224249
 30
0.0
 11
1969.060022905491
 21
706.3240511224249
 31
0.0
 12
-3742.925985830444
 22
-6453.628869860112
 32
0.0
 70
   128
  1
有効開口部間口\P<>
 71
     5
 42
1266.0
  3
INABA_S40G
100
AcDbAlignedDimension
 13
1322.970589276523
 23
1315.494269174465
 33
0.0
 14
2588.970589276523
 24
1315.494269174465
 34
0.0
100
AcDbRotatedDimension
1001
ACAD
1000
DSTYLE
1002
{
1070
   341
1005
0
1002
}
  0
LINE
  5
18CD1
330
18C7A
100
AcDbEntity
  8
部品1
100
AcDbLine
 10
3409.970589276524
 20
1392.494269174465
 30
0.0
 11
3437.970589276523
 21
1392.494269174465
 31
0.0
  0
DIMENSION
  5
18CD2
330
18C7A
100
AcDbEntity
  8
寸法
100
AcDbDimension
  2
*D16
 10
3674.266172669749
 20
1315.494269174465
 30
0.0
 11
3674.266172669748
 21
1177.494269174462
 31
0.0
 12
-3742.925985830444
 22
-6453.628869860112
 32
0.0
 70
   128
 71
     5
 42
77.0
  3
INABA_S40
100
AcDbAlignedDimension
 13
3437.970589276523
 23
1392.494269174465
 33
0.0
 14
3436.970589276523
 24
1315.494269174465
 34
0.0
 50
90.0
100
AcDbRotatedDimension
1001
ACAD
1000
DSTYLE
1002
{
1070
    41
1040
0.5
1070
    44
1040
1.0
1070
   147
1040
0.8
1070
   271
1070
     2
1070
   272
1070
     2
1070
   289
1070
     3
1070
   340
1005
F706
1070
   343
1005
164B4
1070
   344
1005
164B4
1002
}
  0
LINE
  5
18CD3
330
18C7A
100
AcDbEntity
  8
部品1
100
AcDbLine
 10
3437.970589276523
 20
1315.494269174465
 30
0.0
 11
3437.970589276523
 21
1392.494269174465
 31
0.0
  0
LINE
  5
18CD4
330
18C7A
100
AcDbEntity
  8
部品1
100
AcDbLine
 10
3398.970589276523
 20
1388.494269174465
 30
0.0
 11
3409.970589276524
 21
1388.494269174465
 31
0.0
  0
LINE
  5
18CD5
330
18C7A
100
AcDbEntity
  8
部品1
100
AcDbLine
 10
3407.970589276523
 20
1324.494269174465
 30
0.0
 11
3407.970589276523
 21
1315.494269174465
 31
0.0
  0
LINE
  5
18CD6
330
18C7A
100
AcDbEntity
  8
部品1
100
AcDbLine
 10
3398.970589276523
 20
1324.494269174465
 30
0.0
 11
3407.970589276523
 21
1324.494269174465
 31
0.0
  0
LINE
  5
18CD7
330
18C7A
100
AcDbEntity
  8
部品1
100
AcDbLine
 10
3398.970589276523
 20
1388.494269174465
 30
0.0
 11
3398.970589276523
 21
1324.494269174465
 31
0.0
  0
LINE
  5
18CD8
330
18C7A
100
AcDbEntity
  8
部品1
100
AcDbLine
 10
3409.970589276524
 20
1419.494269174465
 30
0.0
 11
3409.970589276524
 21
1388.494269174465
 31
0.0
  0
LINE
  5
18CD9
330
18C7A
100
AcDbEntity
  8
部品1
100
AcDbLine
 10
1322.970589276523
 20
1388.494269174465
 30
0.0
 11
1311.970589276523
 21
1388.494269174465
 31
0.0
  0
LINE
  5
18CDA
330
18C7A
100
AcDbEntity
  8
部品1
100
AcDbLine
 10
1283.970589276523
 20
1392.494269174465
 30
0.0
 11
1311.970589276523
 21
1392.494269174465
 31
0.0
  0
LINE
  5
18CDB
330
18C7A
100
AcDbEntity
  8
部品1
100
AcDbLine
 10
1313.970589276523
 20
1324.494269174465
 30
0.0
 11
1313.970589276523
 21
1315.494269174465
 31
0.0
  0
LINE
  5
18CDC
330
18C7A
100
AcDbEntity
  8
部品1
100
AcDbLine
 10
1322.970589276523
 20
1324.494269174465
 30
0.0
 11
1313.970589276523
 21
1324.494269174465
 31
0.0
  0
LINE
  5
18CDD
330
18C7A
100
AcDbEntity
  8
部品1
100
AcDbLine
 10
1313.970589276523
 20
1315.494269174465
 30
0.0
 11
1283.970589276523
 21
1315.494269174465
 31
0.0
  0
LINE
  5
18CDE
330
18C7A
100
AcDbEntity
  8
部品1
100
AcDbLine
 10
1283.970589276523
 20
1315.494269174465
 30
0.0
 11
1283.970589276523
 21
1392.494269174465
 31
0.0
  0
LINE
  5
18CDF
330
18C7A
100
AcDbEntity
  8
部品1
100
AcDbLine
 10
1322.970589276523
 20
1388.494269174465
 30
0.0
 11
1322.970589276523
 21
1324.494269174465
 31
0.0
  0
LINE
  5
18CE0
330
18C7A
100
AcDbEntity
  8
部品1
100
AcDbLine
 10
1311.970589276523
 20
1419.494269174462
 30
0.0
 11
1311.970589276523
 21
1388.494269174465
 31
0.0
  0
LINE
  5
18CE1
330
18C7A
100
AcDbEntity
  8
部品1
100
AcDbLine
 10
1311.970589276523
 20
1419.494269174462
 30
0.0
 11
3409.970589276524
 21
1419.494269174465
 31
0.0
  0
LINE
  5
18CE2
330
18C7A
100
AcDbEntity
  8
部品1
100
AcDbLine
 10
3407.970589276523
 20
1315.494269174465
 30
0.0
 11
3437.970589276523
 21
1315.494269174465
 31
0.0
  0
LINE
  5
18CE3
330
18C7A
100
AcDbEntity
  8
部品1
100
AcDbLine
 10
1313.970589276523
 20
1315.494269174465
 30
0.0
 11
3410.970589276523
 21
1315.494269174465
 31
0.0
  0
LINE
  5
18CE4
330
18C7A
100
AcDbEntity
  8
細線
  6
Continuous
 62
     5
100
AcDbLine
 10
2689.970589276527
 20
1354.494269174462
 30
0.0
 11
2689.970589276527
 21
1354.494269174462
 31
0.0
  0
LINE
  5
18CE5
330
18C7A
100
AcDbEntity
  8
細線
  6
Continuous
 62
     5
100
AcDbLine
 10
2682.470589276527
 20
1354.494269174462
 30
0.0
 11
2682.470589276527
 21
1354.494269174462
 31
0.0
  0
LINE
  5
18CE6
330
18C7A
100
AcDbEntity
  8
細線
  6
Continuous
 62
     5
100
AcDbLine
 10
2676.470589276527
 20
1354.494269174462
 30
0.0
 11
2676.470589276527
 21
1354.494269174462
 31
0.0
  0
LINE
  5
18CE7
330
18C7A
100
AcDbEntity
  8
細線
  6
Continuous
 62
     5
100
AcDbLine
 10
2743.970589276527
 20
1373.494269174462
 30
0.0
 11
2743.970589276527
 21
1373.494269174462
 31
0.0
  0
LINE
  5
18CE8
330
18C7A
100
AcDbEntity
  8
細線
 48
50.0
100
AcDbLine
 10
1336.970593930116
 20
1341.094443351418
 30
0.0
 11
1336.970593930113
 21
1349.490593759059
 31
0.0
  0
LINE
  5
18CE9
330
18C7A
100
AcDbEntity
  8
細線
 48
50.0
100
AcDbLine
 10
1336.970593930113
 20
1349.490593759059
 30
0.0
 11
1322.970589276523
 21
1349.490593759057
 31
0.0
  0
LINE
  5
18CEA
330
18C7A
100
AcDbEntity
  8
細線
 48
50.0
100
AcDbLine
 10
2087.970593930113
 20
1337.644443351419
 30
0.0
 11
2087.970593930113
 21
1342.494443351421
 31
0.0
  0
LINE
  5
18CEB
330
18C7A
100
AcDbEntity
  8
細線
 48
50.0
100
AcDbLine
 10
2087.970593930113
 20
1342.494443351421
 30
0.0
 11
2102.970593930113
 21
1342.494443351421
 31
0.0
  0
LINE
  5
18CEC
330
18C7A
100
AcDbEntity
  8
細線
 48
50.0
100
AcDbLine
 10
2102.970593930113
 20
1342.494443351421
 30
0.0
 11
2102.970593930115
 21
1349.494443351419
 31
0.0
  0
LINE
  5
18CED
330
18C7A
100
AcDbEntity
  8
細線
 48
50.0
100
AcDbLine
 10
2102.970593930115
 20
1349.494443351419
 30
0.0
 11
2117.970593930113
 21
1349.494443351419
 31
0.0
  0
LINE
  5
18CEE
330
18C7A
100
AcDbEntity
  8
細線
 48
50.0
100
AcDbLine
 10
2117.970593930113
 20
1349.494443351419
 30
0.0
 11
2117.970593930113
 21
1320.494443351421
 31
0.0
  0
LINE
  5
18CEF
330
18C7A
100
AcDbEntity
  8
細線
 48
50.0
100
AcDbLine
 10
1313.970589276523
 20
1320.491777694889
 30
0.0
 11
1527.970593930113
 21
1320.494460905133
 31
0.0
  0
LINE
  5
18CF0
330
18C7A
100
AcDbEntity
  8
細線
 48
50.0
100
AcDbLine
 10
2017.970593930113
 20
1320.494443351421
 30
0.0
 11
2117.970593930113
 21
1320.494443351421
 31
0.0
  0
LINE
  5
18CF1
330
18C7A
100
AcDbEntity
  8
細線
 48
50.0
100
AcDbLine
 10
1737.970593930113
 20
1320.494443351419
 30
0.0
 11
1807.970593930113
 21
1320.494443351423
 31
0.0
  0
LINE
  5
18CF2
330
18C7A
100
AcDbEntity
  8
細線
 48
50.0
100
AcDbLine
 10
1750.832558942642
 20
1320.494443351419
 30
0.0
 11
1756.588076525309
 21
1338.765294641913
 31
0.0
  0
LINE
  5
18CF3
330
18C7A
100
AcDbEntity
  8
細線
 48
50.0
100
AcDbLine
 10
1756.588076525309
 20
1338.765294641913
 30
0.0
 11
1767.516525005743
 21
1338.765294641911
 31
0.0
  0
ARC
  5
18CF4
330
18C7A
100
AcDbEntity
  8
細線
 48
50.0
100
AcDbCircle
 10
1767.516525005743
 20
1337.765294641911
 30
0.0
 40
1.0
100
AcDbArc
 50
24.62431835207225
 51
90.0
  0
ARC
  5
18CF5
330
18C7A
100
AcDbEntity
  8
細線
 48
50.0
100
AcDbCircle
 10
1778.425237120377
 20
1337.765294641911
 30
0.0
 40
1.0
100
AcDbArc
 50
90.0
 51
155.3756816479277
  0
ARC
  5
18CF6
330
18C7A
100
AcDbEntity
  8
細線
 48
50.0
100
AcDbCircle
 10
1772.970881063058
 20
1340.265294641911
 30
0.0
 40
5.0
100
AcDbArc
 50
204.6243183520723
 51
335.3756816479278
  0
LINE
  5
18CF7
330
18C7A
100
AcDbEntity
  8
細線
 48
50.0
100
AcDbLine
 10
1778.425237120377
 20
1338.765294641911
 30
0.0
 11
1789.35368560081
 21
1338.765294641913
 31
0.0
  0
LINE
  5
18CF8
330
18C7A
100
AcDbEntity
  8
細線
 48
50.0
100
AcDbLine
 10
1789.35368560081
 20
1338.765294641913
 30
0.0
 11
1795.109203183478
 21
1320.494443351423
 31
0.0
  0
LINE
  5
18CF9
330
18C7A
100
AcDbEntity
  8
細線
 48
50.0
100
AcDbLine
 10
2087.970593930113
 20
1341.094443351419
 30
0.0
 11
1336.970593930116
 21
1341.094443351418
 31
0.0
  0
LINE
  5
18CFA
330
18C7A
100
AcDbEntity
  8
細線
 48
50.0
100
AcDbLine
 10
1947.970593930113
 20
1320.494443351421
 30
0.0
 11
1877.970593930113
 21
1320.494443351421
 31
0.0
  0
LINE
  5
18CFB
330
18C7A
100
AcDbEntity
  8
細線
100
AcDbLine
 10
1667.970593930113
 20
1320.494443351421
 30
0.0
 11
1597.970602115529
 21
1320.494443351421
 31
0.0
  0
LINE
  5
18CFC
330
18C7A
100
AcDbEntity
  8
細線
 48
50.0
100
AcDbLine
 10
2741.970584622936
 20
1375.094487209288
 30
0.0
 11
2106.970593930113
 21
1375.094487209284
 31
0.0
  0
LINE
  5
18CFD
330
18C7A
100
AcDbEntity
  8
細線
 48
50.0
100
AcDbLine
 10
2106.970593930113
 20
1371.990637616925
 30
0.0
 11
2106.970593930113
 21
1376.490637616925
 31
0.0
  0
LINE
  5
18CFE
330
18C7A
100
AcDbEntity
  8
細線
 48
50.0
100
AcDbLine
 10
2106.970593930113
 20
1376.490637616925
 30
0.0
 11
2091.970593930113
 21
1376.490637616925
 31
0.0
  0
LINE
  5
18CFF
330
18C7A
100
AcDbEntity
  8
細線
 48
50.0
100
AcDbLine
 10
2091.970593930113
 20
1376.490637616925
 30
0.0
 11
2091.970593930113
 21
1383.490637616927
 31
0.0
  0
LINE
  5
18D00
330
18C7A
100
AcDbEntity
  8
細線
 48
50.0
100
AcDbLine
 10
2091.970593930113
 20
1383.490637616927
 30
0.0
 11
2076.970593930115
 21
1383.490637616924
 31
0.0
  0
LINE
  5
18D01
330
18C7A
100
AcDbEntity
  8
細線
 48
50.0
100
AcDbLine
 10
2076.970593930115
 20
1383.490637616924
 30
0.0
 11
2076.970593930115
 21
1345.890409513813
 31
0.0
  0
LINE
  5
18D02
330
18C7A
100
AcDbEntity
  8
細線
 48
50.0
100
AcDbLine
 10
2076.970593930115
 20
1345.890409513813
 30
0.0
 11
2096.970601231289
 21
1345.890451063353
 31
0.0
  0
LINE
  5
18D03
330
18C7A
100
AcDbEntity
  8
細線
 48
50.0
100
AcDbLine
 10
2096.970556362348
 20
1354.493912699161
 30
0.0
 11
2096.970601231289
 21
1345.890451063353
 31
0.0
  0
LINE
  5
18D04
330
18C7A
100
AcDbEntity
  8
細線
 48
50.0
100
AcDbLine
 10
2741.970584622936
 20
1371.644487209287
 30
0.0
 11
2741.970584622936
 21
1376.494487209284
 31
0.0
  0
LINE
  5
18D05
330
18C7A
100
AcDbEntity
  8
細線
 48
50.0
100
AcDbLine
 10
2741.970584622936
 20
1376.494487209284
 30
0.0
 11
2756.970584622934
 21
1376.494487209285
 31
0.0
  0
LINE
  5
18D06
330
18C7A
100
AcDbEntity
  8
細線
 48
50.0
100
AcDbLine
 10
2756.970584622934
 20
1376.494487209285
 30
0.0
 11
2756.970596256909
 21
1383.494487209331
 31
0.0
  0
LINE
  5
18D07
330
18C7A
100
AcDbEntity
  8
細線
 48
50.0
100
AcDbLine
 10
2756.970596256909
 20
1383.494487209331
 30
0.0
 11
2771.970594427439
 21
1383.494487209329
 31
0.0
  0
LINE
  5
18D08
330
18C7A
100
AcDbEntity
  8
細線
 48
50.0
100
AcDbLine
 10
2771.970594427439
 20
1383.494487209329
 30
0.0
 11
2771.970584125617
 21
1354.494281037055
 31
0.0
  0
LINE
  5
18D09
330
18C7A
100
AcDbEntity
  8
細線
 48
50.0
100
AcDbLine
 10
2458.070304175992
 20
1354.494278397076
 30
0.0
 11
2389.470863838818
 21
1354.494283787084
 31
0.0
  0
LINE
  5
18D0A
330
18C7A
100
AcDbEntity
  8
細線
 48
50.0
100
AcDbLine
 10
2096.970556362348
 20
1354.493912699161
 30
0.0
 11
2108.203245717057
 21
1354.494095652309
 31
0.0
  0
ARC
  5
18D0B
330
18C7A
100
AcDbEntity
  8
細線
 48
50.0
100
AcDbCircle
 10
2114.785538024393
 20
1353.294259565922
 30
0.0
 40
1.8
100
AcDbArc
 50
270.0006665777295
 51
345.000555481349
  0
LINE
  5
18D0C
330
18C7A
100
AcDbEntity
  8
細線
 48
50.0
100
AcDbLine
 10
2116.771971470473
 20
1353.753100023201
 30
0.0
 11
2116.524209028273
 21
1352.828402141094
 31
0.0
  0
LINE
  5
18D0D
330
18C7A
100
AcDbEntity
  8
細線
 48
50.0
100
AcDbLine
 10
2114.785558965548
 20
1351.494259566043
 30
0.0
 11
2111.155631546781
 21
1351.494217335563
 31
0.0
  0
ARC
  5
18D0E
330
18C7A
100
AcDbEntity
  8
細線
 48
50.0
100
AcDbCircle
 10
2111.155610605627
 20
1353.29421733544
 30
0.0
 40
1.8
100
AcDbArc
 50
195.0010443049965
 51
270.0006665777295
  0
LINE
  5
18D0F
330
18C7A
100
AcDbEntity
  8
細線
 48
50.0
100
AcDbLine
 10
2109.169183113368
 20
1353.752932303007
 30
0.0
 11
2109.416952609882
 21
1352.828311364425
 31
0.0
  0
ARC
  5
18D10
330
18C7A
100
AcDbEntity
  8
細線
 48
50.0
100
AcDbCircle
 10
2108.203262004622
 20
1353.494095652444
 30
0.0
 40
1.0
100
AcDbArc
 50
15.00104430499651
 51
90.00093320877969
  0
LINE
  5
18D11
330
18C7A
100
AcDbEntity
  8
細線
 48
50.0
100
AcDbLine
 10
2117.737892825577
 20
1354.494290342714
 30
0.0
 11
2118.679652976481
 21
1354.494296916564
 31
0.0
  0
ARC
  5
18D12
330
18C7A
100
AcDbEntity
  8
細線
 48
50.0
100
AcDbCircle
 10
2117.737899805961
 20
1353.49429034274
 30
0.0
 40
1.0
100
AcDbArc
 50
90.0003999466794
 51
165.000555481349
  0
LINE
  5
18D13
330
18C7A
100
AcDbEntity
  8
細線
 48
50.0
100
AcDbLine
 10
2669.470584622926
 20
1354.494281037055
 30
0.0
 11
2771.970584125617
 21
1354.494281037055
 31
0.0
  0
LINE
  5
18D14
330
18C7A
100
AcDbEntity
  8
細線
 48
50.0
100
AcDbLine
 10
2179.47061994182
 20
1354.494289224422
 30
0.0
 11
2118.370558714898
 21
1354.494296916564
 31
0.0
  0
LINE
  5
18D15
330
18C7A
100
AcDbEntity
  8
細線
 48
50.0
100
AcDbLine
 10
2599.470584622926
 20
1354.494281037057
 30
0.0
 11
2529.470584622926
 21
1354.494281037055
 31
0.0
  0
LINE
  5
18D16
330
18C7A
100
AcDbEntity
  8
細線
 48
50.0
100
AcDbLine
 10
2319.470584622926
 20
1354.494281037054
 30
0.0
 11
2249.470567335051
 21
1354.494281037057
 31
0.0
  0
ARC
  5
18D17
330
18C7A
100
AcDbEntity
  8
細線
 48
50.0
100
AcDbCircle
 10
2756.170589276533
 20
1387.694269174466
 30
0.0
 40
0.8
100
AcDbArc
 50
359.9997333689499
 51
89.99986668437072
  0
ARC
  5
18D18
330
18C7A
100
AcDbEntity
  8
細線
 48
50.0
100
AcDbCircle
 10
2763.770596101631
 20
1387.694280343081
 30
0.0
 40
0.8
100
AcDbArc
 50
90.00014387753465
 51
179.9997333689498
  0
LINE
  5
18D19
330
18C7A
100
AcDbEntity
  8
細線
 48
50.0
100
AcDbLine
 10
2756.170591137969
 20
1388.494269174465
 30
0.0
 11
2750.970589276525
 21
1388.494269174465
 31
0.0
  0
ARC
  5
18D1A
330
18C7A
100
AcDbEntity
  8
細線
 48
50.0
100
AcDbCircle
 10
2757.670589276524
 20
1386.194269174464
 30
0.0
 40
0.7
100
AcDbArc
 50
180.0
 51
270.0
  0
ARC
  5
18D1B
330
18C7A
100
AcDbEntity
  8
細線
 48
50.0
100
AcDbCircle
 10
2762.270589276524
 20
1386.194269174464
 30
0.0
 40
0.7
100
AcDbArc
 50
270.0
 51
0.0
  0
LINE
  5
18D1C
330
18C7A
100
AcDbEntity
  8
細線
 48
50.0
100
AcDbLine
 10
2762.970589276525
 20
1386.194269174464
 30
0.0
 11
2762.970596101639
 21
1387.694284065954
 31
0.0
  0
LINE
  5
18D1D
330
18C7A
100
AcDbEntity
  8
細線
 48
50.0
100
AcDbLine
 10
2757.670589276524
 20
1385.494269174465
 30
0.0
 11
2762.270589276524
 21
1385.494269174465
 31
0.0
  0
LINE
  5
18D1E
330
18C7A
100
AcDbEntity
  8
細線
 48
50.0
100
AcDbLine
 10
2756.970589276525
 20
1387.694269174466
 30
0.0
 11
2756.970589276525
 21
1386.194269174464
 31
0.0
  0
LINE
  5
18D1F
330
18C7A
100
AcDbEntity
  8
細線
 48
50.0
100
AcDbLine
 10
3382.570589276527
 20
1418.494269174465
 30
0.0
 11
2745.970589276525
 21
1418.494269174463
 31
0.0
  0
LINE
  5
18D20
330
18C7A
100
AcDbEntity
  8
細線
 48
50.0
100
AcDbLine
 10
3408.470589276525
 20
1413.494269174467
 30
0.0
 11
3392.570589276527
 21
1413.494269174465
 31
0.0
  0
LINE
  5
18D21
330
18C7A
100
AcDbEntity
  8
細線
 48
50.0
100
AcDbLine
 10
3392.570589276526
 20
1413.494269174465
 30
0.0
 11
3382.570589276527
 21
1418.494269174465
 31
0.0
  0
LINE
  5
18D22
330
18C7A
100
AcDbEntity
  8
細線
100
AcDbLine
 10
2993.470589276525
 20
1388.494269174465
 30
0.0
 11
2993.470589276525
 21
1417.794269174464
 31
0.0
  0
LINE
  5
18D23
330
18C7A
100
AcDbEntity
  8
細線
100
AcDbLine
 10
2993.470589276525
 20
1417.794269174464
 30
0.0
 11
3013.470589276525
 21
1417.794269174464
 31
0.0
  0
LINE
  5
18D24
330
18C7A
100
AcDbEntity
  8
細線
100
AcDbLine
 10
3013.470589276525
 20
1388.494269174465
 30
0.0
 11
3013.470589276525
 21
1417.794269174464
 31
0.0
  0
LINE
  5
18D25
330
18C7A
100
AcDbEntity
  8
細線
100
AcDbLine
 10
3170.720589276524
 20
1388.494269174465
 30
0.0
 11
3100.720589276523
 21
1388.494269174465
 31
0.0
  0
LINE
  5
18D26
330
18C7A
100
AcDbEntity
  8
細線
 48
50.0
100
AcDbLine
 10
2890.720589276525
 20
1388.494269174465
 30
0.0
 11
2763.766368849365
 21
1388.494269174465
 31
0.0
  0
LINE
  5
18D27
330
18C7A
100
AcDbEntity
  8
細線
100
AcDbLine
 10
3030.720589276525
 20
1388.494269174465
 30
0.0
 11
2960.720589276525
 21
1388.494269174465
 31
0.0
  0
LINE
  5
18D28
330
18C7A
100
AcDbEntity
  8
細線
 48
50.0
100
AcDbLine
 10
2750.970589276525
 20
1380.494269174465
 30
0.0
 11
2750.970589276525
 21
1388.494269174465
 31
0.0
  0
LINE
  5
18D29
330
18C7A
100
AcDbEntity
  8
細線
 48
50.0
100
AcDbLine
 10
2730.970589276524
 20
1380.494269174467
 30
0.0
 11
2750.970589276525
 21
1380.494269174465
 31
0.0
  0
LINE
  5
18D2A
330
18C7A
100
AcDbEntity
  8
細線
 48
50.0
100
AcDbLine
 10
2745.970589276525
 20
1418.494269174465
 30
0.0
 11
2745.970589276525
 21
1413.494269174465
 31
0.0
  0
LINE
  5
18D2B
330
18C7A
100
AcDbEntity
  8
細線
 48
50.0
100
AcDbLine
 10
2730.970589276525
 20
1418.494269174463
 30
0.0
 11
2745.970589276525
 21
1418.494269174465
 31
0.0
  0
LINE
  5
18D2C
330
18C7A
100
AcDbEntity
  8
細線
 48
50.0
100
AcDbLine
 10
2730.970589276524
 20
1380.494269174467
 30
0.0
 11
2730.970589276525
 21
1418.494269174463
 31
0.0
  0
LINE
  5
18D2D
330
18C7A
100
AcDbEntity
  8
細線
100
AcDbLine
 10
3398.970589276523
 20
1388.494269174465
 30
0.0
 11
3240.720589276525
 21
1388.494269174465
 31
0.0
  0
LINE
  5
18D2E
330
18C7A
100
AcDbEntity
  8
細線
 48
50.0
100
AcDbLine
 10
3408.470589276525
 20
1413.494269174467
 30
0.0
 11
3408.470589276524
 21
1388.494269174465
 31
0.0
  0
TEXT
  5
18D2F
330
18C7A
100
AcDbEntity
  8
部品1
100
AcDbText
 10
1860.154865991392
 20
46.99880823813145
 30
0.0
 40
135.0
  1
平面図
  7
STYLE2
100
AcDbText
  0
LWPOLYLINE
  5
18D30
330
18C7A
100
AcDbEntity
  8
部品1
100
AcDbPolyline
 90
        4
 70
     1
 43
0.0
 10
1770.23525616235
 20
239.8923374566548
 10
1770.23525616235
 20
0.0000159111223184
 10
2533.705922390791
 20
0.0000159111223184
 10
2533.705922390791
 20
239.8923374566548
  0
LINE
  5
18D31
330
18C7A
100
AcDbEntity
  8
部品1
100
AcDbLine
 10
1534.470589276487
 20
3154.494269174626
 30
0.0
 11
2769.470589276552
 21
3154.494269174626
 31
0.0
  0
LINE
  5
18D32
330
18C7A
100
AcDbEntity
  8
部品1
 48
50.0
100
AcDbLine
 10
1311.970589276523
 20
1420.494269174462
 30
0.0
 11
3411.970589276523
 21
1420.494269174465
 31
0.0
  0
LINE
  5
18D33
330
18C7A
100
AcDbEntity
  8
部品1
 48
50.0
100
AcDbLine
 10
471.9705892765232
 20
1392.494269174465
 30
0.0
 11
1311.970589276523
 21
1392.494269174465
 31
0.0
  0
DIMENSION
  5
18D34
330
18C7A
100
AcDbEntity
  8
寸法
100
AcDbDimension
  2
*D14
 10
2710.234916278077
 20
2488.887829538828
 30
0.0
 11
2338.318822490183
 21
2488.887829538828
 31
0.0
 12
-3742.925985830444
 22
-6453.628869860112
 32
0.0
 70
   128
 71
     5
 42
1231.00000000007
  3
INABA_S40G
100
AcDbAlignedDimension
 13
1536.470589276486
 23
2702.494269174557
 33
0.0
 14
2767.470589276556
 24
2702.494269174549
 34
0.0
100
AcDbRotatedDimension
1001
ACAD
1000
DSTYLE
1002
{
1002
}
  0
LINE
  5
18D35
330
18C7A
100
AcDbEntity
  8
部品1
100
AcDbLine
 10
1536.470589276487
 20
2702.494269174557
 30
0.0
 11
2767.470589276554
 21
2702.494269174615
 31
0.0
  0
LINE
  5
18D36
330
18C7A
100
AcDbEntity
  8
部品1
100
AcDbLine
 10
1536.470589276487
 20
3152.494269174557
 30
0.0
 11
2767.470589276556
 21
3152.494269174615
 31
0.0
  0
LINE
  5
18D37
330
18C7A
100
AcDbEntity
  8
細線
 48
50.0
100
AcDbLine
 10
1508.470589276487
 20
3152.494269174558
 30
0.0
 11
445.4705892765559
 21
2702.494269174509
 31
0.0
  0
LINE
  5
18D38
330
18C7A
100
AcDbEntity
  8
細線
 48
50.0
100
AcDbLine
 10
1508.470589276487
 20
2702.494269174558
 30
0.0
 11
445.4705892765542
 21
3152.494269174509
 31
0.0
  0
LINE
  5
18D39
330
18C7A
100
AcDbEntity
  8
部品1
100
AcDbLine
 10
1556.970589276487
 20
3172.494269174611
 30
0.0
 11
1556.970589276487
 21
3154.494269174611
 31
0.0
  0
LINE
  5
18D3A
330
18C7A
100
AcDbEntity
  8
部品1
100
AcDbLine
 10
1556.970589276487
 20
3172.494269174611
 30
0.0
 11
1550.970589276487
 21
3172.494269174611
 31
0.0
  0
LINE
  5
18D3B
330
18C7A
100
AcDbEntity
  8
部品1
100
AcDbLine
 10
1534.470589276487
 20
3146.494269174608
 30
0.0
 11
1509.470589276487
 21
3146.494269174611
 31
0.0
  0
LINE
  5
18D3C
330
18C7A
100
AcDbEntity
  8
部品1
100
AcDbLine
 10
1486.970589276487
 20
3172.494269174611
 30
0.0
 11
1486.970589276487
 21
3154.494269174611
 31
0.0
  0
LINE
  5
18D3D
330
18C7A
100
AcDbEntity
  8
部品1
100
AcDbLine
 10
1492.970589276487
 20
3172.494269174611
 30
0.0
 11
1486.970589276487
 21
3172.494269174611
 31
0.0
  0
LINE
  5
18D3E
330
18C7A
100
AcDbEntity
  8
部品1
100
AcDbLine
 10
1534.470589276487
 20
2702.494269174615
 30
0.0
 11
1509.470589276487
 21
2702.494269174615
 31
0.0
  0
LINE
  5
18D3F
330
18C7A
100
AcDbEntity
  8
部品1
 48
50.0
100
AcDbLine
 10
1536.470589276487
 20
3152.494269174611
 30
0.0
 11
1536.470589276487
 21
2702.494269174615
 31
0.0
  0
LINE
  5
18D40
330
18C7A
100
AcDbEntity
  8
部品1
 48
50.0
100
AcDbLine
 10
1508.470589276487
 20
3152.494269174607
 30
0.0
 11
1508.470589276487
 21
2702.494269174615
 31
0.0
  0
LINE
  5
18D41
330
18C7A
100
AcDbEntity
  8
部品1
 48
50.0
100
AcDbLine
 10
1534.470589276487
 20
3154.494269174618
 30
0.0
 11
1534.470589276487
 21
2702.494269174615
 31
0.0
  0
LINE
  5
18D42
330
18C7A
100
AcDbEntity
  8
部品1
 48
50.0
100
AcDbLine
 10
1509.470589276487
 20
3154.494269174615
 30
0.0
 11
1509.470589276487
 21
2702.494269174615
 31
0.0
  0
LINE
  5
18D43
330
18C7A
100
AcDbEntity
  8
部品1
100
AcDbLine
 10
3411.970589276556
 20
1392.494269174582
 30
0.0
 11
3411.970589276556
 21
1420.494269174596
 31
0.0
  0
LINE
  5
18D44
330
18C7A
100
AcDbEntity
  8
部品1
100
AcDbLine
 10
1311.970589276523
 20
1392.494269174596
 30
0.0
 11
1311.970589276523
 21
1420.494269174596
 31
0.0
  0
LINE
  5
18D45
330
18C7A
100
AcDbEntity
  8
部品1
100
AcDbLine
 10
891.9705892765232
 20
1392.494269174596
 30
0.0
 11
891.9705892765232
 21
1420.494269174596
 31
0.0
  0
LINE
  5
18D46
330
18C7A
100
AcDbEntity
  8
部品1
100
AcDbLine
 10
3411.97058927652
 20
3182.494269174477
 30
0.0
 11
3411.970589276523
 21
3154.494269174477
 31
0.0
  0
LINE
  5
18D47
330
18C7A
100
AcDbEntity
  8
部品1
100
AcDbLine
 10
2571.97058927652
 20
3182.494269174477
 30
0.0
 11
2571.970589276523
 21
3154.494269174477
 31
0.0
  0
LINE
  5
18D48
330
18C7A
100
AcDbEntity
  8
部品1
100
AcDbLine
 10
2991.97058927652
 20
3182.494269174477
 30
0.0
 11
2991.970589276523
 21
3154.494269174477
 31
0.0
  0
LINE
  5
18D49
330
18C7A
100
AcDbEntity
  8
部品1
100
AcDbLine
 10
2151.970589276519
 20
3182.494269174477
 30
0.0
 11
2151.970589276523
 21
3154.494269174477
 31
0.0
  0
LINE
  5
18D4A
330
18C7A
100
AcDbEntity
  8
部品1
100
AcDbLine
 10
1731.970589276519
 20
3182.494269174477
 30
0.0
 11
1731.970589276523
 21
3154.494269174477
 31
0.0
  0
LINE
  5
18D4B
330
18C7A
100
AcDbEntity
  8
部品1
100
AcDbLine
 10
1311.970589276519
 20
3182.494269174477
 30
0.0
 11
1311.970589276523
 21
3154.494269174477
 31
0.0
  0
LINE
  5
18D4C
330
18C7A
100
AcDbEntity
  8
部品1
100
AcDbLine
 10
891.9705892765195
 20
3182.494269174477
 30
0.0
 11
891.9705892765232
 21
3154.494269174477
 31
0.0
  0
LINE
  5
18D4D
330
18C7A
100
AcDbEntity
  8
部品1
100
AcDbLine
 10
471.9705892765232
 20
1392.494269174596
 30
0.0
 11
471.9705892765232
 21
1420.494269174596
 31
0.0
  0
LINE
  5
18D4E
330
18C7A
100
AcDbEntity
  8
部品1
100
AcDbLine
 10
444.9705892765305
 20
1420.494269174558
 30
0.0
 11
3858.970589276556
 21
1420.494269174596
 31
0.0
  0
LINE
  5
18D4F
330
18C7A
100
AcDbEntity
  8
部品1
100
AcDbLine
 10
3831.970589276556
 20
1392.494269174596
 30
0.0
 11
3831.970589276556
 21
1420.494269174596
 31
0.0
  0
LINE
  5
18D50
330
18C7A
100
AcDbEntity
  8
部品1
100
AcDbLine
 10
3858.970589276556
 20
1447.494269174593
 30
0.0
 11
3886.970589276556
 21
1447.494269174593
 31
0.0
  0
LINE
  5
18D51
330
18C7A
100
AcDbEntity
  8
部品1
100
AcDbLine
 10
3858.970589276556
 20
1867.494269174607
 30
0.0
 11
3886.970589276556
 21
1867.494269174607
 31
0.0
  0
LINE
  5
18D52
330
18C7A
100
AcDbEntity
  8
部品1
100
AcDbLine
 10
444.9705892765305
 20
1867.49426917448
 30
0.0
 11
416.9705892765305
 21
1867.49426917448
 31
0.0
  0
LINE
  5
18D53
330
18C7A
100
AcDbEntity
  8
部品1
100
AcDbLine
 10
3830.470589276541
 20
1867.49426917458
 30
0.0
 11
473.4705892765396
 21
1867.49426917448
 31
0.0
  0
LINE
  5
18D54
330
18C7A
100
AcDbEntity
  8
部品1
100
AcDbLine
 10
3830.470589276541
 20
2287.49426917458
 30
0.0
 11
473.4705892765396
 21
2287.49426917448
 31
0.0
  0
LINE
  5
18D55
330
18C7A
100
AcDbEntity
  8
部品1
100
AcDbLine
 10
444.9705892765305
 20
2287.49426917448
 30
0.0
 11
416.9705892765305
 21
2287.49426917448
 31
0.0
  0
LINE
  5
18D56
330
18C7A
100
AcDbEntity
  8
部品1
100
AcDbLine
 10
3858.970589276556
 20
2287.494269174608
 30
0.0
 11
3886.970589276556
 21
2287.494269174608
 31
0.0
  0
LINE
  5
18D57
330
18C7A
100
AcDbEntity
  8
部品1
 48
50.0
100
AcDbLine
 10
2151.970589276551
 20
2702.494269174586
 30
0.0
 11
2151.970589276581
 21
1448.994269174494
 31
0.0
  0
LINE
  5
18D58
330
18C7A
100
AcDbEntity
  8
破線
 48
10.0
100
AcDbLine
 10
2959.470589276535
 20
1472.494269174522
 30
0.0
 11
2176.970589276532
 21
1472.494269174505
 31
0.0
  0
LINE
  5
18D59
330
18C7A
100
AcDbEntity
  8
破線
 48
10.0
100
AcDbLine
 10
3009.47058927653
 20
1448.994269174509
 30
0.0
 11
3009.47058927653
 21
2702.494269174615
 31
0.0
  0
LINE
  5
18D5A
330
18C7A
100
AcDbEntity
  8
破線
 48
10.0
100
AcDbLine
 10
2959.470589276535
 20
1448.994269174505
 30
0.0
 11
2959.470589276531
 21
2702.494269174615
 31
0.0
  0
LINE
  5
18D5B
330
18C7A
100
AcDbEntity
  8
破線
 48
10.0
100
AcDbLine
 10
1344.47058927653
 20
1448.994269174509
 30
0.0
 11
1344.47058927653
 21
2702.494269174615
 31
0.0
  0
LINE
  5
18D5C
330
18C7A
100
AcDbEntity
  8
破線
 48
10.0
100
AcDbLine
 10
1294.470589276534
 20
1448.994269174505
 30
0.0
 11
1294.47058927653
 21
2702.494269174615
 31
0.0
  0
DIMENSION
  5
18D5D
330
18C7A
100
AcDbEntity
  8
寸法
100
AcDbDimension
  2
*D13
 10
1451.234916278005
 20
2488.887829538828
 30
0.0
 11
916.0604668248634
 21
2488.887829538828
 31
0.0
 12
-3742.925985830444
 22
-6453.628869860112
 32
0.0
 70
   128
 71
     5
 42
1062.99999999993
  3
INABA_S40G
100
AcDbAlignedDimension
 13
445.4705892765559
 23
2702.494269174505
 33
0.0
 14
1508.470589276486
 24
2702.494269174558
 34
0.0
100
AcDbRotatedDimension
1001
ACAD
1000
DSTYLE
1002
{
1002
}
  0
LINE
  5
18D5E
330
18C7A
100
AcDbEntity
  8
破線
 48
10.0
100
AcDbLine
 10
1294.470589276534
 20
1472.494269174469
 30
0.0
 11
496.9705892765414
 21
1472.494269174476
 31
0.0
  0
LINE
  5
18D5F
330
18C7A
100
AcDbEntity
  8
部品1
100
AcDbLine
 10
3831.970589276556
 20
3182.494269174604
 30
0.0
 11
3831.970589276556
 21
3154.494269174604
 31
0.0
  0
LINE
  5
18D60
330
18C7A
100
AcDbEntity
  8
部品1
100
AcDbLine
 10
3831.970589276556
 20
3182.494269174626
 30
0.0
 11
3831.970589276556
 21
3154.494269174626
 31
0.0
  0
LINE
  5
18D61
330
18C7A
100
AcDbEntity
  8
部品1
100
AcDbLine
 10
3858.970589276556
 20
3127.494269174607
 30
0.0
 11
3886.970589276556
 21
3127.494269174607
 31
0.0
  0
LINE
  5
18D62
330
18C7A
100
AcDbEntity
  8
部品1
100
AcDbLine
 10
3858.970589276556
 20
2707.494269174608
 30
0.0
 11
3886.970589276556
 21
2707.494269174608
 31
0.0
  0
LINE
  5
18D63
330
18C7A
100
AcDbEntity
  8
部品1
100
AcDbLine
 10
3858.470589276556
 20
3152.494269174604
 30
0.0
 11
3858.470589276556
 21
2702.494269174608
 31
0.0
  0
LINE
  5
18D64
330
18C7A
100
AcDbEntity
  8
部品1
100
AcDbLine
 10
3886.970589276533
 20
1447.494269174593
 30
0.0
 11
3886.970589276531
 21
1392.494269174596
 31
0.0
  0
LINE
  5
18D65
330
18C7A
100
AcDbEntity
  8
部品1
 48
50.0
100
AcDbLine
 10
3830.470589276556
 20
1448.994269174596
 30
0.0
 11
3858.970589276554
 21
1420.494269174596
 31
0.0
  0
LINE
  5
18D66
330
18C7A
100
AcDbEntity
  8
部品1
100
AcDbLine
 10
3886.970589276531
 20
1392.494269174596
 30
0.0
 11
3835.970589276531
 21
1392.494269174596
 31
0.0
  0
LINE
  5
18D67
330
18C7A
100
AcDbEntity
  8
部品1
100
AcDbLine
 10
3858.970589276533
 20
1447.494269174593
 30
0.0
 11
3886.970589276531
 21
1447.494269174593
 31
0.0
  0
LINE
  5
18D68
330
18C7A
100
AcDbEntity
  8
部品1
100
AcDbLine
 10
3886.970589276556
 20
3182.494269174604
 30
0.0
 11
3886.970589276531
 21
1392.494269174596
 31
0.0
  0
DIMENSION
  5
18D69
330
18C7A
100
AcDbEntity
  8
寸法
100
AcDbDimension
  2
*D12
 10
4534.396935010967
 20
1447.494269174593
 30
0.0
 11
4534.396935010965
 21
2287.4942691746
 31
0.0
 12
-3742.925985830444
 22
-6453.628869860112
 32
0.0
 70
   128
  1
4X420=<>
 71
     5
 42
1680.000000000014
  3
INABA_S40G
100
AcDbAlignedDimension
 13
3886.970589276556
 23
3127.494269174607
 33
0.0
 14
3886.970589276531
 24
1447.494269174593
 34
0.0
 50
90.0
100
AcDbRotatedDimension
1001
ACAD
1000
DSTYLE
1002
{
1002
}
  0
LINE
  5
18D6A
330
18C7A
100
AcDbEntity
  8
部品1
100
AcDbLine
 10
3858.970589276556
 20
3154.494269174604
 30
0.0
 11
3858.970589276534
 21
1420.494269174596
 31
0.0
  0
DIMENSION
  5
18D6B
330
18C7A
100
AcDbEntity
  8
寸法
100
AcDbDimension
  2
*D11
 10
4213.82831513858
 20
2607.276453505718
 30
0.0
 11
4113.828315138579
 21
2832.276453505718
 31
0.0
 12
-3742.925985830444
 22
-6453.628869860112
 32
0.0
 71
     5
 42
449.9999999999963
  3
INABA_S40G
100
AcDbAlignedDimension
 13
3858.470589276556
 23
3152.494269174604
 33
0.0
 14
3858.470589276556
 24
2702.494269174608
 34
0.0
 50
90.0
100
AcDbRotatedDimension
1001
ACAD
1000
DSTYLE
1002
{
1002
}
  0
LINE
  5
18D6C
330
18C7A
100
AcDbEntity
  8
部品1
100
AcDbLine
 10
3830.470589276547
 20
2702.494269174608
 30
0.0
 11
3830.470589276556
 21
1448.994269174596
 31
0.0
  0
LINE
  5
18D6D
330
18C7A
100
AcDbEntity
  8
破線
 48
10.0
100
AcDbLine
 10
3806.970589276549
 20
2702.494269174608
 30
0.0
 11
3806.970589276558
 21
1472.494269174593
 31
0.0
  0
LINE
  5
18D6E
330
18C7A
100
AcDbEntity
  8
部品1
100
AcDbLine
 10
2769.470589276556
 20
3146.494269174608
 30
0.0
 11
2794.470589276556
 21
3146.494269174611
 31
0.0
  0
LINE
  5
18D6F
330
18C7A
100
AcDbEntity
  8
部品1
100
AcDbLine
 10
2810.970589276556
 20
3172.494269174611
 30
0.0
 11
2816.970589276556
 21
3172.494269174611
 31
0.0
  0
LINE
  5
18D70
330
18C7A
100
AcDbEntity
  8
部品1
100
AcDbLine
 10
2816.970589276556
 20
3172.494269174611
 30
0.0
 11
2816.970589276556
 21
3154.494269174611
 31
0.0
  0
LINE
  5
18D71
330
18C7A
100
AcDbEntity
  8
部品1
100
AcDbLine
 10
2746.970589276556
 20
3172.494269174611
 30
0.0
 11
2752.970589276556
 21
3172.494269174611
 31
0.0
  0
LINE
  5
18D72
330
18C7A
100
AcDbEntity
  8
部品1
100
AcDbLine
 10
2746.970589276556
 20
3172.494269174611
 30
0.0
 11
2746.970589276556
 21
3154.494269174611
 31
0.0
  0
LINE
  5
18D73
330
18C7A
100
AcDbEntity
  8
部品1
100
AcDbLine
 10
2769.470589276556
 20
2702.494269174615
 30
0.0
 11
2794.470589276556
 21
2702.494269174615
 31
0.0
  0
LINE
  5
18D74
330
18C7A
100
AcDbEntity
  8
部品1
 48
50.0
100
AcDbLine
 10
2794.470589276556
 20
3154.494269174615
 30
0.0
 11
2794.470589276556
 21
2702.494269174615
 31
0.0
  0
LINE
  5
18D75
330
18C7A
100
AcDbEntity
  8
部品1
 48
50.0
100
AcDbLine
 10
2769.470589276554
 20
3154.494269174618
 30
0.0
 11
2769.470589276556
 21
2702.494269174615
 31
0.0
  0
LINE
  5
18D76
330
18C7A
100
AcDbEntity
  8
部品1
 48
50.0
100
AcDbLine
 10
2795.470589276556
 20
3152.494269174607
 30
0.0
 11
2795.470589276556
 21
2702.494269174615
 31
0.0
  0
LINE
  5
18D77
330
18C7A
100
AcDbEntity
  8
部品1
 48
50.0
100
AcDbLine
 10
2767.470589276556
 20
3152.494269174611
 30
0.0
 11
2767.470589276556
 21
2702.494269174615
 31
0.0
  0
LINE
  5
18D78
330
18C7A
100
AcDbEntity
  8
破線
 48
10.0
100
AcDbLine
 10
2176.97058927653
 20
1448.994269174509
 30
0.0
 11
2176.97058927653
 21
2702.494269174588
 31
0.0
  0
LINE
  5
18D79
330
18C7A
100
AcDbEntity
  8
破線
 48
10.0
100
AcDbLine
 10
2126.970589276534
 20
1448.994269174505
 30
0.0
 11
2126.970589276531
 21
2702.494269174586
 31
0.0
  0
LINE
  5
18D7A
330
18C7A
100
AcDbEntity
  8
部品1
100
AcDbLine
 10
2794.470589276556
 20
3154.494269174622
 30
0.0
 11
3858.970589276556
 21
3154.494269174604
 31
0.0
  0
LINE
  5
18D7B
330
18C7A
100
AcDbEntity
  8
細線
 48
50.0
100
AcDbLine
 10
3858.470589276556
 20
2702.494269174608
 30
0.0
 11
2795.470589276556
 21
3152.494269174607
 31
0.0
  0
LINE
  5
18D7C
330
18C7A
100
AcDbEntity
  8
部品1
100
AcDbLine
 10
2795.470589276555
 20
2702.494269174615
 30
0.0
 11
3858.470589276556
 21
2702.494269174608
 31
0.0
  0
LINE
  5
18D7D
330
18C7A
100
AcDbEntity
  8
部品1
100
AcDbLine
 10
2795.470589276556
 20
3152.494269174611
 30
0.0
 11
3858.470589276556
 21
3152.494269174604
 31
0.0
  0
LINE
  5
18D7E
330
18C7A
100
AcDbEntity
  8
細線
 48
50.0
100
AcDbLine
 10
3858.470589276556
 20
3152.494269174604
 30
0.0
 11
2795.470589276555
 21
2702.494269174615
 31
0.0
  0
DIMENSION
  5
18D7F
330
18C7A
100
AcDbEntity
  8
寸法
100
AcDbDimension
  2
*D10
 10
3801.234916278101
 20
2488.887829538937
 30
0.0
 11
3318.360544398907
 21
2488.887829538937
 31
0.0
 12
-3742.925985830444
 22
-6453.628869860112
 32
0.0
 70
   128
 71
     5
 42
1063.000000000012
  3
INABA_S40G
100
AcDbAlignedDimension
 13
2795.470589276555
 23
2702.494269174615
 33
0.0
 14
3858.470589276567
 24
2702.494269174608
 34
0.0
100
AcDbRotatedDimension
1001
ACAD
1000
DSTYLE
1002
{
1002
}
  0
LINE
  5
18D80
330
18C7A
100
AcDbEntity
  8
破線
 48
10.0
100
AcDbLine
 10
3806.970589276556
 20
1472.494269174594
 30
0.0
 11
3009.47058927653
 21
1472.494269174523
 31
0.0
  0
DIMENSION
  5
18D81
330
18C7A
100
AcDbEntity
  8
寸法
100
AcDbDimension
  2
*D9
 10
4534.396935010941
 20
1392.494269174596
 30
0.0
 11
4534.39693501094
 21
1084.008987800356
 31
0.0
 12
-3742.925985830444
 22
-6453.628869860112
 32
0.0
 70
   128
 71
     5
 42
54.99999999999636
  3
INABA_S40G
100
AcDbAlignedDimension
 13
3886.970589276531
 23
1447.494269174593
 33
0.0
 14
3886.970589276531
 24
1392.494269174596
 34
0.0
 50
90.0
100
AcDbRotatedDimension
1001
ACAD
1000
DSTYLE
1002
{
1002
}
  0
LINE
  5
18D82
330
18C7A
100
AcDbEntity
  8
部品1
100
AcDbLine
 10
471.9705892765196
 20
3182.494269174477
 30
0.0
 11
471.9705892765232
 21
3154.494269174477
 31
0.0
  0
LINE
  5
18D83
330
18C7A
100
AcDbEntity
  8
部品1
100
AcDbLine
 10
471.9705892765559
 20
3182.494269174509
 30
0.0
 11
471.9705892765559
 21
3154.494269174509
 31
0.0
  0
LINE
  5
18D84
330
18C7A
100
AcDbEntity
  8
部品1
100
AcDbLine
 10
444.9705892765232
 20
3127.49426917448
 30
0.0
 11
416.9705892765232
 21
3127.49426917448
 31
0.0
  0
LINE
  5
18D85
330
18C7A
100
AcDbEntity
  8
部品1
100
AcDbLine
 10
444.9705892765305
 20
2707.49426917448
 30
0.0
 11
416.9705892765305
 21
2707.49426917448
 31
0.0
  0
LINE
  5
18D86
330
18C7A
100
AcDbEntity
  8
部品1
 48
50.0
100
AcDbLine
 10
445.4705892765542
 20
3152.494269174506
 30
0.0
 11
445.4705892765559
 21
2702.494269174505
 31
0.0
  0
LINE
  5
18D87
330
18C7A
100
AcDbEntity
  8
部品1
 48
50.0
100
AcDbLine
 10
473.470589276545
 20
1448.994269174573
 30
0.0
 11
444.970589276545
 21
1420.494269174574
 31
0.0
  0
LINE
  5
18D88
330
18C7A
100
AcDbEntity
  8
部品1
100
AcDbLine
 10
471.9705892765232
 20
1392.494269174465
 30
0.0
 11
416.9705892765486
 21
1392.494269174465
 31
0.0
  0
LINE
  5
18D89
330
18C7A
100
AcDbEntity
  8
部品1
100
AcDbLine
 10
444.9705892765305
 20
1447.494269174429
 30
0.0
 11
416.9705892765469
 21
1447.494269174429
 31
0.0
  0
LINE
  5
18D8A
330
18C7A
100
AcDbEntity
  8
部品1
100
AcDbLine
 10
444.9705892765305
 20
1447.494269174465
 30
0.0
 11
416.9705892765469
 21
1447.494269174465
 31
0.0
  0
LINE
  5
18D8B
330
18C7A
100
AcDbEntity
  8
部品1
100
AcDbLine
 10
444.9705892765469
 20
1447.49426917448
 30
0.0
 11
416.9705892765469
 21
1447.49426917448
 31
0.0
  0
LINE
  5
18D8C
330
18C7A
100
AcDbEntity
  8
部品1
100
AcDbLine
 10
416.9705892765469
 20
1447.494269174429
 30
0.0
 11
416.9705892765486
 21
1392.494269174433
 31
0.0
  0
LINE
  5
18D8D
330
18C7A
100
AcDbEntity
  8
部品1
100
AcDbLine
 10
416.9705892765196
 20
3182.494269174477
 30
0.0
 11
416.9705892765486
 21
1392.494269174465
 31
0.0
  0
LINE
  5
18D8E
330
18C7A
100
AcDbEntity
  8
部品1
100
AcDbLine
 10
444.9705892765305
 20
1420.494269174556
 30
0.0
 11
444.9705892765559
 21
3154.494269174509
 31
0.0
  0
LINE
  5
18D8F
330
18C7A
100
AcDbEntity
  8
部品1
100
AcDbLine
 10
473.4705892765323
 20
2702.494269174608
 30
0.0
 11
473.470589276545
 21
1448.994269174571
 31
0.0
  0
LINE
  5
18D90
330
18C7A
100
AcDbEntity
  8
破線
 48
10.0
100
AcDbLine
 10
496.9705892765305
 20
2702.494269174608
 30
0.0
 11
496.9705892765451
 21
1472.494269174476
 31
0.0
  0
DIMENSION
  5
18D91
330
18C7A
100
AcDbEntity
  8
寸法
100
AcDbDimension
  2
*D8
 10
3886.970589276531
 20
410.7433333855515
 30
0.0
 11
2168.197775309287
 21
410.7433333855515
 31
0.0
 12
-3742.925985830444
 22
-6453.628869860112
 32
0.0
 70
   128
 71
     5
 42
3469.999999999982
  3
INABA_S40G
100
AcDbAlignedDimension
 13
416.9705892765486
 23
1392.494269174433
 33
0.0
 14
3886.970589276531
 24
1392.49426917456
 34
0.0
100
AcDbRotatedDimension
1001
ACAD
1000
DSTYLE
1002
{
1070
   341
1005
0
1002
}
  0
LINE
  5
18D92
330
18C7A
100
AcDbEntity
  8
部品1
100
AcDbLine
 10
444.9705892765559
 20
3154.494269174624
 30
0.0
 11
1509.470589276487
 21
3154.494269174626
 31
0.0
  0
LINE
  5
18D93
330
18C7A
100
AcDbEntity
  8
部品1
100
AcDbLine
 10
3886.970589276531
 20
1392.494269174596
 30
0.0
 11
3411.970589276556
 21
1392.494269174582
 31
0.0
  0
LINE
  5
18D94
330
18C7A
100
AcDbEntity
  8
部品1
100
AcDbLine
 10
416.9705892765559
 20
3182.494269174509
 30
0.0
 11
3886.970589276556
 21
3182.494269174604
 31
0.0
  0
LINE
  5
18D95
330
18C7A
100
AcDbEntity
  8
部品1
100
AcDbLine
 10
445.4705892765559
 20
2702.494269174509
 30
0.0
 11
1508.470589276487
 21
2702.494269174558
 31
0.0
  0
LINE
  5
18D96
330
18C7A
100
AcDbEntity
  8
細線
 48
50.0
100
AcDbLine
 10
2767.470589276556
 20
3152.494269174611
 30
0.0
 11
1536.470589276487
 21
2702.494269174558
 31
0.0
  0
LINE
  5
18D97
330
18C7A
100
AcDbEntity
  8
部品1
100
AcDbLine
 10
445.4705892765542
 20
3152.494269174509
 30
0.0
 11
1508.470589276485
 21
3152.494269174558
 31
0.0
  0
LINE
  5
18D98
330
18C7A
100
AcDbEntity
  8
細線
 48
50.0
100
AcDbLine
 10
2767.470589276554
 20
2702.494269174615
 30
0.0
 11
1536.470589276485
 21
3152.494269174558
 31
0.0
  0
LINE
  5
18D99
330
18C7A
100
AcDbEntity
  8
破線
 48
10.0
100
AcDbLine
 10
2126.970589276534
 20
1472.494269174502
 30
0.0
 11
1344.47058927653
 21
1472.494269174473
 31
0.0
  0
LINE
  5
18D9A
330
18C7A
100
AcDbEntity
  8
部品1
100
AcDbLine
 10
3830.470589276556
 20
1448.994269174596
 30
0.0
 11
473.4705892764487
 21
1448.994269174476
 31
0.0
  0
DIMENSION
  5
18D9B
330
18C7A
100
AcDbEntity
  8
寸法
100
AcDbDimension
  2
*D7
 10
471.970589276555
 20
3698.302488799491
 30
0.0
 11
108.4853079022819
 21
3698.302488799491
 31
0.0
 12
-3742.925985830444
 22
-6453.628869860112
 32
0.0
 70
   128
 71
     5
 42
55.00000000003456
  3
INABA_S40G
100
AcDbAlignedDimension
 13
416.9705892765205
 23
3182.494269174509
 33
0.0
 14
471.970589276555
 24
3182.494269174509
 34
0.0
100
AcDbRotatedDimension
1001
ACAD
1000
DSTYLE
1002
{
1002
}
  0
DIMENSION
  5
18D9C
330
18C7A
100
AcDbEntity
  8
寸法
100
AcDbDimension
  2
*D6
 10
4534.396935010967
 20
3127.494269174607
 30
0.0
 11
4534.396935010965
 21
3490.979550548844
 31
0.0
 12
-3742.925985830444
 22
-6453.628869860112
 32
0.0
 70
   128
 71
     5
 42
54.99999999999636
  3
INABA_S40G
100
AcDbAlignedDimension
 13
3886.970589276556
 23
3182.494269174604
 33
0.0
 14
3886.970589276556
 24
3127.494269174607
 34
0.0
 50
90.0
100
AcDbRotatedDimension
1001
ACAD
1000
DSTYLE
1002
{
1002
}
  0
DIMENSION
  5
18D9D
330
18C7A
100
AcDbEntity
  8
寸法
100
AcDbDimension
  2
*D5
 10
3886.970589276556
 20
3698.302488799589
 30
0.0
 11
4195.455870650794
 21
3698.302488799589
 31
0.0
 12
-3742.925985830444
 22
-6453.628869860112
 32
0.0
 70
   128
 71
     5
 42
55.0
  3
INABA_S40G
100
AcDbAlignedDimension
 13
3831.970589276556
 23
3182.494269174604
 33
0.0
 14
3886.970589276556
 24
3182.494269174604
 34
0.0
100
AcDbRotatedDimension
1001
ACAD
1000
DSTYLE
1002
{
1002
}
  0
DIMENSION
  5
18D9E
330
18C7A
100
AcDbEntity
  8
寸法
100
AcDbDimension
  2
*D4
 10
3831.970589276556
 20
3698.302488799607
 30
0.0
 11
2151.970589276555
 21
3698.302488799607
 31
0.0
 12
-3742.925985830444
 22
-6453.628869860112
 32
0.0
 70
   128
  1
8X420=<>
 71
     5
 42
3360.000000000001
  3
INABA_S40G
100
AcDbAlignedDimension
 13
471.970589276555
 23
3182.494269174509
 33
0.0
 14
3831.970589276556
 24
3182.494269174604
 34
0.0
100
AcDbRotatedDimension
1001
ACAD
1000
DSTYLE
1002
{
1002
}
  0
DIMENSION
  5
18D9F
330
18C7A
100
AcDbEntity
  8
寸法
100
AcDbDimension
  2
*D3
 10
4899.503876750603
 20
1392.494269174596
 30
0.0
 11
4899.503876750601
 21
2287.4942691746
 31
0.0
 12
-3742.925985830444
 22
-6453.628869860112
 32
0.0
 70
   128
 71
     5
 42
1790.000000000007
  3
INABA_S40G
100
AcDbAlignedDimension
 13
3886.970589276556
 23
3182.494269174604
 33
0.0
 14
3886.970589276531
 24
1392.494269174596
 34
0.0
 50
90.0
100
AcDbRotatedDimension
1001
ACAD
1000
DSTYLE
1002
{
1002
}
  0
ENDBLK
  5
18DA1
330
18C7A
100
AcDbEntity
  8
0
 48
50.0
100
AcDbBlockEnd
  0
BLOCK
  5
1C4CB
330
1C4CA
100
AcDbEntity
  8
0
 48
50.0
100
AcDbBlockBegin
  2
_NONE
 70
     0
 10
0.0
 20
0.0
 30
0.0
  3
_NONE
  1

  0
CIRCLE
  5
1C4CC
330
1C4CA
100
AcDbEntity
  8
0
  6
ByBlock
 62
     0
 48
50.0
100
AcDbCircle
 10
0.0
 20
0.0
 30
0.0
 40
0.25
  0
ENDBLK
  5
1C4CD
330
1C4CA
100
AcDbEntity
  8
0
 48
50.0
100
AcDbBlockEnd
  0
BLOCK
  5
1DAE3
330
1DAD7
100
AcDbEntity
  8
0
 48
50.0
100
AcDbBlockBegin
  2
*D19
 70
     1
 10
0.0
 20
0.0
 30
0.0
  3
*D19
  1

  0
LINE
  5
202DC
330
1DAD7
100
AcDbEntity
  8
寸法
 62
     0
 48
50.0
370
    -2
100
AcDbLine
 10
8216.600000000001
 20
6188.211798685403
 30
0.0
 11
8523.202780124334
 21
6188.211798685403
 31
0.0
  0
LINE
  5
202DD
330
1DAD7
100
AcDbEntity
  8
寸法
 62
     0
 48
50.0
370
    -2
100
AcDbLine
 10
8216.600000000005
 20
6263.211798685404
 30
0.0
 11
8523.202780124334
 21
6263.211798685404
 31
0.0
  0
LINE
  5
202DE
330
1DAD7
100
AcDbEntity
  8
寸法
 62
     0
 48
50.0
370
    -2
100
AcDbLine
 10
8463.202780124335
 20
6263.211798685404
 30
0.0
 11
8463.202780124335
 21
6363.211798685404
 31
0.0
  0
LINE
  5
202DF
330
1DAD7
100
AcDbEntity
  8
寸法
 62
     0
 48
50.0
370
    -2
100
AcDbLine
 10
8463.202780124335
 20
6188.211798685403
 30
0.0
 11
8463.202780124335
 21
5321.241235936925
 31
0.0
  0
LINE
  5
202E0
330
1DAD7
100
AcDbEntity
  8
寸法
 62
     0
 48
50.0
370
    -2
100
AcDbLine
 10
8463.202780124335
 20
6263.211798685404
 30
0.0
 11
8463.202780124335
 21
6188.211798685403
 31
0.0
  0
INSERT
  5
202E1
330
1DAD7
100
AcDbEntity
  8
寸法
 62
     0
 48
50.0
370
    -2
100
AcDbBlockReference
  2
_DOTSMALL
 10
8463.202780124335
 20
6263.211798685404
 30
0.0
 41
100.0
 42
100.0
 43
100.0
 50
270.0
  0
INSERT
  5
202E2
330
1DAD7
100
AcDbEntity
  8
寸法
 62
     0
 48
50.0
370
    -2
100
AcDbBlockReference
  2
_DOTSMALL
 10
8463.202780124335
 20
6188.211798685403
 30
0.0
 41
100.0
 42
100.0
 43
100.0
 50
90.0
  0
MTEXT
  5
202E3
330
1DAD7
100
AcDbEntity
  8
寸法
 62
     7
 48
50.0
100
AcDbMText
 10
8363.202780124332
 20
5654.726517311164
 30
0.0
 40
120.0
 41
0.0
 71
     5
 72
     1
  1
\A1;扉の出75
  7
STYLE1
 11
0.0000000000000001
 21
1.0
 31
0.0
 73
     1
 44
1.0
1001
ACAD
1000
MTEXTBEGIN
1070
    73
1070
     1
1070
    44
1040
1.0
1070
    74
1070
     0
1000
MTEXTEND
  0
POINT
  5
202E4
330
1DAD7
100
AcDbEntity
  8
DEFPOINTS
 62
     0
 48
50.0
100
AcDbPoint
 10
8196.600000000001
 20
6188.211798685403
 30
0.0
  0
POINT
  5
202E5
330
1DAD7
100
AcDbEntity
  8
DEFPOINTS
 62
     0
 48
50.0
100
AcDbPoint
 10
8196.600000000003
 20
6263.211798685404
 30
0.0
  0
POINT
  5
202E6
330
1DAD7
100
AcDbEntity
  8
DEFPOINTS
 62
     0
 48
50.0
100
AcDbPoint
 10
8463.202780124335
 20
6263.211798685404
 30
0.0
  0
ENDBLK
  5
1DAE4
330
1DAD7
100
AcDbEntity
  8
0
 48
50.0
100
AcDbBlockEnd
  0
BLOCK
  5
1F5B5
330
1F5AA
100
AcDbEntity
  8
0
 48
50.0
100
AcDbBlockBegin
  2
*D20
 70
     1
 10
0.0
 20
0.0
 30
0.0
  3
*D20
  1

  0
LINE
  5
22DE6
330
1F5AA
100
AcDbEntity
  8
寸法
 62
     0
 48
50.0
370
    -2
100
AcDbLine
 10
8327.419180988156
 20
6263.211798685425
 30
0.0
 11
8730.144386142111
 21
6263.211798685425
 31
0.0
  0
LINE
  5
22DE7
330
1F5AA
100
AcDbEntity
  8
寸法
 62
     0
 48
50.0
370
    -2
100
AcDbLine
 10
8762.786001592285
 20
6383.211798685409
 30
0.0
 11
8610.14438614211
 21
6383.211798685409
 31
0.0
  0
LINE
  5
22DE8
330
1F5AA
100
AcDbEntity
  8
寸法
 62
     0
 48
50.0
370
    -2
100
AcDbLine
 10
8670.14438614211
 20
6383.211798685409
 30
0.0
 11
8670.14438614211
 21
6263.211798685425
 31
0.0
  0
LINE
  5
22DE9
330
1F5AA
100
AcDbEntity
  8
寸法
 62
     0
 48
50.0
370
    -2
100
AcDbLine
 10
8670.14438614211
 20
6263.211798685425
 30
0.0
 11
8670.14438614211
 21
5790.876249622968
 31
0.0
  0
INSERT
  5
22DEA
330
1F5AA
100
AcDbEntity
  8
寸法
 62
     0
 48
50.0
370
    -2
100
AcDbBlockReference
  2
_DOTSMALL
 10
8670.14438614211
 20
6383.211798685409
 30
0.0
 41
100.0
 42
100.0
 43
100.0
 50
90.0
  0
INSERT
  5
22DEB
330
1F5AA
100
AcDbEntity
  8
寸法
 62
     0
 48
50.0
370
    -2
100
AcDbBlockReference
  2
_DOTSMALL
 10
8670.14438614211
 20
6263.211798685425
 30
0.0
 41
100.0
 42
100.0
 43
100.0
 50
270.0
  0
MTEXT
  5
22DEC
330
1F5AA
100
AcDbEntity
  8
寸法
 62
     7
 48
50.0
100
AcDbMText
 10
8570.132575118487
 20
5926.923493717457
 30
0.0
 40
120.0
 41
0.0
 71
     5
 72
     1
  1
\A1;120
  7
STYLE1
 11
0.0000000000000001
 21
1.0
 31
0.0
 73
     1
 44
1.0
1001
ACAD
1000
MTEXTBEGIN
1070
    73
1070
     1
1070
    44
1040
1.0
1070
    74
1070
     0
1000
MTEXTEND
  0
POINT
  5
22DED
330
1F5AA
100
AcDbEntity
  8
DEFPOINTS
 62
     0
 48
50.0
100
AcDbPoint
 10
8307.419180988159
 20
6263.211798685425
 30
0.0
  0
POINT
  5
22DEE
330
1F5AA
100
AcDbEntity
  8
DEFPOINTS
 62
     0
 48
50.0
100
AcDbPoint
 10
8782.786001592285
 20
6383.211798685409
 30
0.0
  0
POINT
  5
22DEF
330
1F5AA
100
AcDbEntity
  8
DEFPOINTS
 62
     0
 48
50.0
100
AcDbPoint
 10
8670.14438614211
 20
6383.211798685409
 30
0.0
  0
ENDBLK
  5
1F5B6
330
1F5AA
100
AcDbEntity
  8
0
 48
50.0
100
AcDbBlockEnd
  0
BLOCK
  5
1F5C2
330
1F5B7
100
AcDbEntity
  8
0
 48
50.0
100
AcDbBlockBegin
  2
*D21
 70
     1
 10
0.0
 20
0.0
 30
0.0
  3
*D21
  1

  0
LINE
  5
22DDC
330
1F5B7
100
AcDbEntity
  8
寸法
 62
     0
 48
50.0
370
    -2
100
AcDbLine
 10
8762.786001592285
 20
6383.211798685409
 30
0.0
 11
8610.14438614211
 21
6383.211798685409
 31
0.0
  0
LINE
  5
22DDD
330
1F5B7
100
AcDbEntity
  8
寸法
 62
     0
 48
50.0
370
    -2
100
AcDbLine
 10
8255.600000000001
 20
6493.211798685415
 30
0.0
 11
8730.144386142111
 21
6493.211798685415
 31
0.0
  0
LINE
  5
22DDE
330
1F5B7
100
AcDbEntity
  8
寸法
 62
     0
 48
50.0
370
    -2
100
AcDbLine
 10
8670.14438614211
 20
6383.211798685409
 30
0.0
 11
8670.14438614211
 21
6493.211798685415
 31
0.0
  0
LINE
  5
22DDF
330
1F5B7
100
AcDbEntity
  8
寸法
 62
     0
 48
50.0
370
    -2
100
AcDbLine
 10
8670.14438614211
 20
6493.211798685415
 30
0.0
 11
8670.14438614211
 21
6887.318097898027
 31
0.0
  0
INSERT
  5
22DE0
330
1F5B7
100
AcDbEntity
  8
寸法
 62
     0
 48
50.0
370
    -2
100
AcDbBlockReference
  2
_DOTSMALL
 10
8670.14438614211
 20
6383.211798685409
 30
0.0
 41
100.0
 42
100.0
 43
100.0
 50
270.0
  0
INSERT
  5
22DE1
330
1F5B7
100
AcDbEntity
  8
寸法
 62
     0
 48
50.0
370
    -2
100
AcDbBlockReference
  2
_DOTSMALL
 10
8670.14438614211
 20
6493.211798685415
 30
0.0
 41
100.0
 42
100.0
 43
100.0
 50
90.0
  0
MTEXT
  5
22DE2
330
1F5B7
100
AcDbEntity
  8
寸法
 62
     7
 48
50.0
100
AcDbMText
 10
8570.144386142109
 20
6763.27085380354
 30
0.0
 40
120.0
 41
0.0
 71
     5
 72
     1
  1
\A1;110
  7
STYLE1
 11
0.0000000000000001
 21
1.0
 31
0.0
 73
     1
 44
1.0
1001
ACAD
1000
MTEXTBEGIN
1070
    73
1070
     1
1070
    44
1040
1.0
1070
    74
1070
     0
1000
MTEXTEND
  0
POINT
  5
22DE3
330
1F5B7
100
AcDbEntity
  8
DEFPOINTS
 62
     0
 48
50.0
100
AcDbPoint
 10
8782.786001592285
 20
6383.211798685409
 30
0.0
  0
POINT
  5
22DE4
330
1F5B7
100
AcDbEntity
  8
DEFPOINTS
 62
     0
 48
50.0
100
AcDbPoint
 10
8235.600000000001
 20
6493.211798685415
 30
0.0
  0
POINT
  5
22DE5
330
1F5B7
100
AcDbEntity
  8
DEFPOINTS
 62
     0
 48
50.0
100
AcDbPoint
 10
8670.14438614211
 20
6493.211798685415
 30
0.0
  0
ENDBLK
  5
1F5C3
330
1F5B7
100
AcDbEntity
  8
0
 48
50.0
100
AcDbBlockEnd
  0
BLOCK
  5
1F5CE
330
1F5C4
100
AcDbEntity
  8
0
 48
50.0
100
AcDbBlockBegin
  2
*D22
 70
     1
 10
0.0
 20
0.0
 30
0.0
  3
*D22
  1

  0
LINE
  5
21F2F
330
1F5C4
100
AcDbEntity
  8
寸法
 62
     0
 48
50.0
370
    -2
100
AcDbLine
 10
8983.599999999999
 20
7283.211798685406
 30
0.0
 11
8983.599999999999
 21
8650.121564333726
 31
0.0
  0
LINE
  5
21F30
330
1F5C4
100
AcDbEntity
  8
寸法
 62
     0
 48
50.0
370
    -2
100
AcDbLine
 10
8223.600000000001
 20
7283.211798685397
 30
0.0
 11
8223.600000000001
 21
8650.121564333726
 31
0.0
  0
LINE
  5
21F31
330
1F5C4
100
AcDbEntity
  8
寸法
 62
     0
 48
50.0
370
    -2
100
AcDbLine
 10
8983.599999999999
 20
8590.121564333726
 30
0.0
 11
8223.600000000001
 21
8590.121564333726
 31
0.0
  0
INSERT
  5
21F32
330
1F5C4
100
AcDbEntity
  8
寸法
 62
     0
 48
50.0
370
    -2
100
AcDbBlockReference
  2
_DOTSMALL
 10
8983.599999999999
 20
8590.121564333726
 30
0.0
 41
100.0
 42
100.0
 43
100.0
  0
INSERT
  5
21F33
330
1F5C4
100
AcDbEntity
  8
寸法
 62
     0
 48
50.0
370
    -2
100
AcDbBlockReference
  2
_DOTSMALL
 10
8223.600000000001
 20
8590.121564333726
 30
0.0
 41
100.0
 42
100.0
 43
100.0
 50
180.0
  0
MTEXT
  5
21F34
330
1F5C4
100
AcDbEntity
  8
寸法
 62
     7
 48
50.0
100
AcDbMText
 10
8603.599999999998
 20
8690.121564333725
 30
0.0
 40
120.0
 41
0.0
 71
     5
 72
     1
  1
\A1;760
  7
STYLE1
 73
     1
 44
1.0
1001
ACAD
1000
MTEXTBEGIN
1070
    73
1070
     1
1070
    44
1040
1.0
1070
    74
1070
     0
1000
MTEXTEND
  0
POINT
  5
21F35
330
1F5C4
100
AcDbEntity
  8
DEFPOINTS
 62
     0
 48
50.0
100
AcDbPoint
 10
8983.599999999999
 20
7263.211798685405
 30
0.0
  0
POINT
  5
21F36
330
1F5C4
100
AcDbEntity
  8
DEFPOINTS
 62
     0
 48
50.0
100
AcDbPoint
 10
8223.600000000001
 20
7263.211798685397
 30
0.0
  0
POINT
  5
21F37
330
1F5C4
100
AcDbEntity
  8
DEFPOINTS
 62
     0
 48
50.0
100
AcDbPoint
 10
8223.600000000001
 20
8590.121564333726
 30
0.0
  0
ENDBLK
  5
1F5CF
330
1F5C4
100
AcDbEntity
  8
0
 48
50.0
100
AcDbBlockEnd
  0
BLOCK
  5
1F5D9
330
1F5D0
100
AcDbEntity
  8
0
 48
50.0
100
AcDbBlockBegin
  2
*D23
 70
     1
 10
0.0
 20
0.0
 30
0.0
  3
*D23
  1

  0
LINE
  5
1FE04
330
1F5D0
100
AcDbEntity
  8
寸法
 62
     0
 48
50.0
370
    -2
100
AcDbLine
 10
10315.6
 20
8010.211798685396
 30
0.0
 11
10315.6
 21
8868.971425227481
 31
0.0
  0
LINE
  5
1FE05
330
1F5D0
100
AcDbEntity
  8
寸法
 62
     0
 48
50.0
370
    -2
100
AcDbLine
 10
8105.6
 20
8010.211798685396
 30
0.0
 11
8105.6
 21
8868.971425227481
 31
0.0
  0
LINE
  5
1FE06
330
1F5D0
100
AcDbEntity
  8
寸法
 62
     0
 48
50.0
370
    -2
100
AcDbLine
 10
10315.6
 20
8808.971425227481
 30
0.0
 11
8105.6
 21
8808.971425227481
 31
0.0
  0
INSERT
  5
1FE07
330
1F5D0
100
AcDbEntity
  8
寸法
 62
     0
 48
50.0
370
    -2
100
AcDbBlockReference
  2
_DOTSMALL
 10
10315.6
 20
8808.971425227481
 30
0.0
 41
100.0
 42
100.0
 43
100.0
  0
INSERT
  5
1FE08
330
1F5D0
100
AcDbEntity
  8
寸法
 62
     0
 48
50.0
370
    -2
100
AcDbBlockReference
  2
_DOTSMALL
 10
8105.6
 20
8808.971425227481
 30
0.0
 41
100.0
 42
100.0
 43
100.0
 50
180.0
  0
MTEXT
  5
1FE09
330
1F5D0
100
AcDbEntity
  8
寸法
 62
     7
 48
50.0
100
AcDbMText
 10
9210.600000000001
 20
8908.983236251103
 30
0.0
 40
120.0
 41
0.0
 71
     5
 72
     1
  1
\A1;2210
  7
STYLE1
 73
     1
 44
1.0
1001
ACAD
1000
MTEXTBEGIN
1070
    73
1070
     1
1070
    44
1040
1.0
1070
    74
1070
     0
1000
MTEXTEND
  0
POINT
  5
1FE0A
330
1F5D0
100
AcDbEntity
  8
DEFPOINTS
 62
     0
 48
50.0
100
AcDbPoint
 10
10315.6
 20
7990.211798685398
 30
0.0
  0
POINT
  5
1FE0B
330
1F5D0
100
AcDbEntity
  8
DEFPOINTS
 62
     0
 48
50.0
100
AcDbPoint
 10
8105.6
 20
7990.211798685398
 30
0.0
  0
POINT
  5
1FE0C
330
1F5D0
100
AcDbEntity
  8
DEFPOINTS
 62
     0
 48
50.0
100
AcDbPoint
 10
8105.6
 20
8808.971425227481
 30
0.0
  0
ENDBLK
  5
1F5DA
330
1F5D0
100
AcDbEntity
  8
0
 48
50.0
100
AcDbBlockEnd
  0
BLOCK
  5
1F5E4
330
1F5DB
100
AcDbEntity
  8
0
 48
50.0
100
AcDbBlockBegin
  2
*D24
 70
     1
 10
0.0
 20
0.0
 30
0.0
  3
*D24
  1

  0
LINE
  5
1FDFB
330
1F5DB
100
AcDbEntity
  8
寸法
 62
     0
 48
50.0
370
    -2
100
AcDbLine
 10
6008.600000000001
 20
8083.211798685397
 30
0.0
 11
6008.600000000001
 21
9081.432120744317
 31
0.0
  0
LINE
  5
1FDFC
330
1F5DB
100
AcDbEntity
  8
寸法
 62
     0
 48
50.0
370
    -2
100
AcDbLine
 10
10438.6
 20
8083.211798685397
 30
0.0
 11
10438.6
 21
9081.432120744317
 31
0.0
  0
LINE
  5
1FDFD
330
1F5DB
100
AcDbEntity
  8
寸法
 62
     0
 48
50.0
370
    -2
100
AcDbLine
 10
6008.600000000001
 20
9021.432120744318
 30
0.0
 11
10438.6
 21
9021.432120744318
 31
0.0
  0
INSERT
  5
1FDFE
330
1F5DB
100
AcDbEntity
  8
寸法
 62
     0
 48
50.0
370
    -2
100
AcDbBlockReference
  2
_DOTSMALL
 10
6008.600000000001
 20
9021.432120744318
 30
0.0
 41
100.0
 42
100.0
 43
100.0
 50
180.0
  0
INSERT
  5
1FDFF
330
1F5DB
100
AcDbEntity
  8
寸法
 62
     0
 48
50.0
370
    -2
100
AcDbBlockReference
  2
_DOTSMALL
 10
10438.6
 20
9021.432120744318
 30
0.0
 41
100.0
 42
100.0
 43
100.0
  0
MTEXT
  5
1FE00
330
1F5DB
100
AcDbEntity
  8
寸法
 62
     7
 48
50.0
100
AcDbMText
 10
8223.600000000001
 20
9121.432120744318
 30
0.0
 40
120.0
 41
0.0
 71
     5
 72
     1
  1
\A1;4430
  7
STYLE1
 73
     1
 44
1.0
1001
ACAD
1000
MTEXTBEGIN
1070
    73
1070
     1
1070
    44
1040
1.0
1070
    74
1070
     0
1000
MTEXTEND
  0
POINT
  5
1FE01
330
1F5DB
100
AcDbEntity
  8
DEFPOINTS
 62
     0
 48
50.0
100
AcDbPoint
 10
6008.600000000001
 20
8063.211798685397
 30
0.0
  0
POINT
  5
1FE02
330
1F5DB
100
AcDbEntity
  8
DEFPOINTS
 62
     0
 48
50.0
100
AcDbPoint
 10
10438.6
 20
8063.211798685397
 30
0.0
  0
POINT
  5
1FE03
330
1F5DB
100
AcDbEntity
  8
DEFPOINTS
 62
     0
 48
50.0
100
AcDbPoint
 10
10438.6
 20
9021.432120744318
 30
0.0
  0
ENDBLK
  5
1F5E5
330
1F5DB
100
AcDbEntity
  8
0
 48
50.0
100
AcDbBlockEnd
  0
BLOCK
  5
1F5EE
330
1F5E6
100
AcDbEntity
  8
0
 48
50.0
100
AcDbBlockBegin
  2
*D25
 70
     1
 10
0.0
 20
0.0
 30
0.0
  3
*D25
  1

  0
LINE
  5
1FE70
330
1F5E6
100
AcDbEntity
  8
寸法
 62
     0
 48
50.0
370
    -2
100
AcDbLine
 10
8235.600000000001
 20
6513.211798685415
 30
0.0
 11
8235.600000000001
 21
6866.369337512553
 31
0.0
  0
LINE
  5
1FE71
330
1F5E6
100
AcDbEntity
  8
寸法
 62
     0
 48
50.0
370
    -2
100
AcDbLine
 10
7975.6
 20
6513.211798685415
 30
0.0
 11
7975.6
 21
6866.369337512553
 31
0.0
  0
LINE
  5
1FE72
330
1F5E6
100
AcDbEntity
  8
寸法
 62
     0
 48
50.0
370
    -2
100
AcDbLine
 10
8235.600000000001
 20
6806.369337512554
 30
0.0
 11
8335.600000000001
 21
6806.369337512554
 31
0.0
  0
LINE
  5
1FE73
330
1F5E6
100
AcDbEntity
  8
寸法
 62
     0
 48
50.0
370
    -2
100
AcDbLine
 10
7975.6
 20
6806.369337512554
 30
0.0
 11
7875.6
 21
6806.369337512554
 31
0.0
  0
LINE
  5
1FE74
330
1F5E6
100
AcDbEntity
  8
寸法
 62
     0
 48
50.0
370
    -2
100
AcDbLine
 10
8235.600000000001
 20
6806.369337512554
 30
0.0
 11
7975.6
 21
6806.369337512554
 31
0.0
  0
INSERT
  5
1FE75
330
1F5E6
100
AcDbEntity
  8
寸法
 62
     0
 48
50.0
370
    -2
100
AcDbBlockReference
  2
_DOTSMALL
 10
8235.600000000001
 20
6806.369337512554
 30
0.0
 41
100.0
 42
100.0
 43
100.0
 50
180.0
  0
INSERT
  5
1FE76
330
1F5E6
100
AcDbEntity
  8
寸法
 62
     0
 48
50.0
370
    -2
100
AcDbBlockReference
  2
_DOTSMALL
 10
7975.6
 20
6806.369337512554
 30
0.0
 41
100.0
 42
100.0
 43
100.0
  0
MTEXT
  5
1FE77
330
1F5E6
100
AcDbEntity
  8
寸法
 62
     7
 48
50.0
100
AcDbMText
 10
8105.6
 20
6906.381148536175
 30
0.0
 40
120.0
 41
0.0
 71
     5
 72
     1
  1
\A1;260
  7
STYLE1
 73
     1
 44
1.0
1001
ACAD
1000
MTEXTBEGIN
1070
    73
1070
     1
1070
    44
1040
1.0
1070
    74
1070
     0
1000
MTEXTEND
  0
POINT
  5
1FE78
330
1F5E6
100
AcDbEntity
  8
DEFPOINTS
 62
     0
 48
50.0
100
AcDbPoint
 10
8235.600000000001
 20
6493.211798685415
 30
0.0
  0
POINT
  5
1FE79
330
1F5E6
100
AcDbEntity
  8
DEFPOINTS
 62
     0
 48
50.0
100
AcDbPoint
 10
7975.6
 20
6493.211798685415
 30
0.0
  0
POINT
  5
1FE7A
330
1F5E6
100
AcDbEntity
  8
DEFPOINTS
 62
     0
 48
50.0
100
AcDbPoint
 10
7975.6
 20
6806.369337512554
 30
0.0
  0
ENDBLK
  5
1F5EF
330
1F5E6
100
AcDbEntity
  8
0
 48
50.0
100
AcDbBlockEnd
  0
BLOCK
  5
1F5FA
330
1F5F0
100
AcDbEntity
  8
0
 48
50.0
100
AcDbBlockBegin
  2
*D26
 70
     1
 10
0.0
 20
0.0
 30
0.0
  3
*D26
  1

  0
LINE
  5
1FE4A
330
1F5F0
100
AcDbEntity
  8
寸法
 62
     0
 48
50.0
370
    -2
100
AcDbLine
 10
6061.600000000001
 20
7940.211798685398
 30
0.0
 11
5452.657733986179
 21
7940.211798685398
 31
0.0
  0
LINE
  5
1FE4B
330
1F5F0
100
AcDbEntity
  8
寸法
 62
     0
 48
50.0
370
    -2
100
AcDbLine
 10
6061.600000000008
 20
6386.211798685399
 30
0.0
 11
5452.657733986179
 21
6386.211798685399
 31
0.0
  0
LINE
  5
1FE4C
330
1F5F0
100
AcDbEntity
  8
寸法
 62
     0
 48
50.0
370
    -2
100
AcDbLine
 10
5512.65773398618
 20
7940.211798685398
 30
0.0
 11
5512.65773398618
 21
6386.211798685399
 31
0.0
  0
INSERT
  5
1FE4D
330
1F5F0
100
AcDbEntity
  8
寸法
 62
     0
 48
50.0
370
    -2
100
AcDbBlockReference
  2
_DOTSMALL
 10
5512.65773398618
 20
7940.211798685398
 30
0.0
 41
100.0
 42
100.0
 43
100.0
 50
90.0
  0
INSERT
  5
1FE4E
330
1F5F0
100
AcDbEntity
  8
寸法
 62
     0
 48
50.0
370
    -2
100
AcDbBlockReference
  2
_DOTSMALL
 10
5512.65773398618
 20
6386.211798685399
 30
0.0
 41
100.0
 42
100.0
 43
100.0
 50
270.0
  0
MTEXT
  5
1FE4F
330
1F5F0
100
AcDbEntity
  8
寸法
 62
     7
 48
50.0
100
AcDbMText
 10
5412.657733986178
 20
7163.211798685397
 30
0.0
 40
120.0
 41
0.0
 71
     5
 72
     1
  1
\A1;1554
  7
STYLE1
 11
0.0000000000000001
 21
1.0
 31
0.0
 73
     1
 44
1.0
1001
ACAD
1000
MTEXTBEGIN
1070
    73
1070
     1
1070
    44
1040
1.0
1070
    74
1070
     0
1000
MTEXTEND
  0
POINT
  5
1FE50
330
1F5F0
100
AcDbEntity
  8
DEFPOINTS
 62
     0
 48
50.0
100
AcDbPoint
 10
6081.6
 20
7940.211798685398
 30
0.0
  0
POINT
  5
1FE51
330
1F5F0
100
AcDbEntity
  8
DEFPOINTS
 62
     0
 48
50.0
100
AcDbPoint
 10
6081.600000000008
 20
6386.211798685399
 30
0.0
  0
POINT
  5
1FE52
330
1F5F0
100
AcDbEntity
  8
DEFPOINTS
 62
     0
 48
50.0
100
AcDbPoint
 10
5512.65773398618
 20
6386.211798685399
 30
0.0
  0
ENDBLK
  5
1F5FB
330
1F5F0
100
AcDbEntity
  8
0
 48
50.0
100
AcDbBlockEnd
  0
BLOCK
  5
1F605
330
1F5FC
100
AcDbEntity
  8
0
 48
50.0
100
AcDbBlockBegin
  2
*D27
 70
     1
 10
0.0
 20
0.0
 30
0.0
  3
*D27
  1

  0
LINE
  5
1FE41
330
1F5FC
100
AcDbEntity
  8
寸法
 62
     0
 48
50.0
370
    -2
100
AcDbLine
 10
5988.6
 20
8063.211798685397
 30
0.0
 11
5200.714637266781
 21
8063.211798685397
 31
0.0
  0
LINE
  5
1FE42
330
1F5FC
100
AcDbEntity
  8
寸法
 62
     0
 48
50.0
370
    -2
100
AcDbLine
 10
5988.6
 20
6263.211798685397
 30
0.0
 11
5200.714637266781
 21
6263.211798685397
 31
0.0
  0
LINE
  5
1FE43
330
1F5FC
100
AcDbEntity
  8
寸法
 62
     0
 48
50.0
370
    -2
100
AcDbLine
 10
5260.714637266781
 20
8063.211798685397
 30
0.0
 11
5260.714637266781
 21
6263.211798685397
 31
0.0
  0
INSERT
  5
1FE44
330
1F5FC
100
AcDbEntity
  8
寸法
 62
     0
 48
50.0
370
    -2
100
AcDbBlockReference
  2
_DOTSMALL
 10
5260.714637266781
 20
8063.211798685397
 30
0.0
 41
100.0
 42
100.0
 43
100.0
 50
90.0
  0
INSERT
  5
1FE45
330
1F5FC
100
AcDbEntity
  8
寸法
 62
     0
 48
50.0
370
    -2
100
AcDbBlockReference
  2
_DOTSMALL
 10
5260.714637266781
 20
6263.211798685397
 30
0.0
 41
100.0
 42
100.0
 43
100.0
 50
270.0
  0
MTEXT
  5
1FE46
330
1F5FC
100
AcDbEntity
  8
寸法
 62
     7
 48
50.0
100
AcDbMText
 10
5160.714637266779
 20
7163.211798685397
 30
0.0
 40
120.0
 41
0.0
 71
     5
 72
     1
  1
\A1;1800
  7
STYLE1
 11
0.0000000000000001
 21
1.0
 31
0.0
 73
     1
 44
1.0
1001
ACAD
1000
MTEXTBEGIN
1070
    73
1070
     1
1070
    44
1040
1.0
1070
    74
1070
     0
1000
MTEXTEND
  0
POINT
  5
1FE47
330
1F5FC
100
AcDbEntity
  8
DEFPOINTS
 62
     0
 48
50.0
100
AcDbPoint
 10
6008.600000000001
 20
8063.211798685397
 30
0.0
  0
POINT
  5
1FE48
330
1F5FC
100
AcDbEntity
  8
DEFPOINTS
 62
     0
 48
50.0
100
AcDbPoint
 10
6008.600000000001
 20
6263.211798685397
 30
0.0
  0
POINT
  5
1FE49
330
1F5FC
100
AcDbEntity
  8
DEFPOINTS
 62
     0
 48
50.0
100
AcDbPoint
 10
5260.714637266781
 20
6263.211798685397
 30
0.0
  0
ENDBLK
  5
1F606
330
1F5FC
100
AcDbEntity
  8
0
 48
50.0
100
AcDbBlockEnd
  0
BLOCK
  5
1F631
330
1F627
100
AcDbEntity
  8
0
 48
50.0
100
AcDbBlockBegin
  2
*D28
 70
     1
 10
0.0
 20
0.0
 30
0.0
  3
*D28
  1

  0
LINE
  5
22441
330
1F627
100
AcDbEntity
  8
寸法
 62
     0
 48
50.0
370
    -2
100
AcDbLine
 10
8196.600000000001
 20
6168.211798685401
 30
0.0
 11
8196.600000000001
 21
5524.226068866642
 31
0.0
  0
LINE
  5
22442
330
1F627
100
AcDbEntity
  8
寸法
 62
     0
 48
50.0
370
    -2
100
AcDbLine
 10
6008.600000000001
 20
6168.211798685387
 30
0.0
 11
6008.600000000001
 21
5524.226068866642
 31
0.0
  0
LINE
  5
22443
330
1F627
100
AcDbEntity
  8
寸法
 62
     0
 48
50.0
370
    -2
100
AcDbLine
 10
8196.600000000001
 20
5584.226068866643
 30
0.0
 11
6008.600000000001
 21
5584.226068866643
 31
0.0
  0
INSERT
  5
22444
330
1F627
100
AcDbEntity
  8
寸法
 62
     0
 48
50.0
370
    -2
100
AcDbBlockReference
  2
_DOTSMALL
 10
8196.600000000001
 20
5584.226068866643
 30
0.0
 41
100.0
 42
100.0
 43
100.0
  0
INSERT
  5
22445
330
1F627
100
AcDbEntity
  8
寸法
 62
     0
 48
50.0
370
    -2
100
AcDbBlockReference
  2
_DOTSMALL
 10
6008.600000000001
 20
5584.226068866643
 30
0.0
 41
100.0
 42
100.0
 43
100.0
 50
180.0
  0
MTEXT
  5
22446
330
1F627
100
AcDbEntity
  8
寸法
 62
     7
 48
50.0
100
AcDbMText
 10
7098.766762832856
 20
5684.237879890265
 30
0.0
 40
120.0
 41
0.0
 71
     5
 72
     1
  1
\A1;扉の幅 2188
  7
STYLE1
 73
     1
 44
1.0
1001
ACAD
1000
MTEXTBEGIN
1070
    73
1070
     1
1070
    44
1040
1.0
1070
    74
1070
     0
1000
MTEXTEND
  0
POINT
  5
22447
330
1F627
100
AcDbEntity
  8
DEFPOINTS
 62
     0
 48
50.0
100
AcDbPoint
 10
8196.600000000001
 20
6188.211798685401
 30
0.0
  0
POINT
  5
22448
330
1F627
100
AcDbEntity
  8
DEFPOINTS
 62
     0
 48
50.0
100
AcDbPoint
 10
6008.600000000001
 20
6188.211798685387
 30
0.0
  0
POINT
  5
22449
330
1F627
100
AcDbEntity
  8
DEFPOINTS
 62
     0
 48
50.0
100
AcDbPoint
 10
6008.600000000001
 20
5584.226068866643
 30
0.0
  0
ENDBLK
  5
1F632
330
1F627
100
AcDbEntity
  8
0
 48
50.0
100
AcDbBlockEnd
  0
BLOCK
  5
1F64B
330
1F640
100
AcDbEntity
  8
0
 48
50.0
100
AcDbBlockBegin
  2
*D29
 70
     1
 10
0.0
 20
0.0
 30
0.0
  3
*D29
  1

  0
LINE
  5
1FE21
330
1F640
100
AcDbEntity
  8
寸法
 62
     0
 48
50.0
370
    -2
100
AcDbLine
 10
6061.600000000008
 20
6386.211798685399
 30
0.0
 11
5452.657733986179
 21
6386.211798685399
 31
0.0
  0
LINE
  5
1FE22
330
1F640
100
AcDbEntity
  8
寸法
 62
     0
 48
50.0
370
    -2
100
AcDbLine
 10
5988.6
 20
6263.211798685397
 30
0.0
 11
5452.657733986179
 21
6263.211798685397
 31
0.0
  0
LINE
  5
1FE23
330
1F640
100
AcDbEntity
  8
寸法
 62
     0
 48
50.0
370
    -2
100
AcDbLine
 10
5512.65773398618
 20
6386.211798685399
 30
0.0
 11
5512.65773398618
 21
6263.211798685397
 31
0.0
  0
LINE
  5
1FE24
330
1F640
100
AcDbEntity
  8
寸法
 62
     0
 48
50.0
370
    -2
100
AcDbLine
 10
5512.65773398618
 20
6263.211798685397
 30
0.0
 11
5512.657733986179
 21
5789.195568468565
 31
0.0
  0
INSERT
  5
1FE25
330
1F640
100
AcDbEntity
  8
寸法
 62
     0
 48
50.0
370
    -2
100
AcDbBlockReference
  2
_DOTSMALL
 10
5512.65773398618
 20
6386.211798685399
 30
0.0
 41
100.0
 42
100.0
 43
100.0
 50
90.0
  0
INSERT
  5
1FE26
330
1F640
100
AcDbEntity
  8
寸法
 62
     0
 48
50.0
370
    -2
100
AcDbBlockReference
  2
_DOTSMALL
 10
5512.65773398618
 20
6263.211798685397
 30
0.0
 41
100.0
 42
100.0
 43
100.0
 50
270.0
  0
MTEXT
  5
1FE27
330
1F640
100
AcDbEntity
  8
寸法
 62
     7
 48
50.0
100
AcDbMText
 10
5412.645922962556
 20
5927.680849842805
 30
0.0
 40
120.0
 41
0.0
 71
     5
 72
     1
  1
\A1;123
  7
STYLE1
 11
0.0000000000000001
 21
1.0
 31
0.0
 73
     1
 44
1.0
1001
ACAD
1000
MTEXTBEGIN
1070
    73
1070
     1
1070
    44
1040
1.0
1070
    74
1070
     0
1000
MTEXTEND
  0
POINT
  5
1FE28
330
1F640
100
AcDbEntity
  8
DEFPOINTS
 62
     0
 48
50.0
100
AcDbPoint
 10
6081.600000000008
 20
6386.211798685399
 30
0.0
  0
POINT
  5
1FE29
330
1F640
100
AcDbEntity
  8
DEFPOINTS
 62
     0
 48
50.0
100
AcDbPoint
 10
6008.600000000001
 20
6263.211798685397
 30
0.0
  0
POINT
  5
1FE2A
330
1F640
100
AcDbEntity
  8
DEFPOINTS
 62
     0
 48
50.0
100
AcDbPoint
 10
5512.65773398618
 20
6263.211798685397
 30
0.0
  0
ENDBLK
  5
1F64C
330
1F640
100
AcDbEntity
  8
0
 48
50.0
100
AcDbBlockEnd
  0
BLOCK
  5
1F66E
330
1F664
100
AcDbEntity
  8
0
 48
50.0
100
AcDbBlockBegin
  2
*D30
 70
     1
 10
0.0
 20
0.0
 30
0.0
  3
*D30
  1

  0
LINE
  5
1FDE7
330
1F664
100
AcDbEntity
  8
寸法
 62
     0
 48
50.0
370
    -2
100
AcDbLine
 10
8105.6
 20
8010.211798685396
 30
0.0
 11
8105.6
 21
8868.971425227481
 31
0.0
  0
LINE
  5
1FDE8
330
1F664
100
AcDbEntity
  8
寸法
 62
     0
 48
50.0
370
    -2
100
AcDbLine
 10
6131.6
 20
8010.211798685396
 30
0.0
 11
6131.6
 21
8868.971425227481
 31
0.0
  0
LINE
  5
1FDE9
330
1F664
100
AcDbEntity
  8
寸法
 62
     0
 48
50.0
370
    -2
100
AcDbLine
 10
8105.6
 20
8808.971425227481
 30
0.0
 11
6131.6
 21
8808.971425227481
 31
0.0
  0
INSERT
  5
1FDEA
330
1F664
100
AcDbEntity
  8
寸法
 62
     0
 48
50.0
370
    -2
100
AcDbBlockReference
  2
_DOTSMALL
 10
8105.6
 20
8808.971425227481
 30
0.0
 41
100.0
 42
100.0
 43
100.0
  0
INSERT
  5
1FDEB
330
1F664
100
AcDbEntity
  8
寸法
 62
     0
 48
50.0
370
    -2
100
AcDbBlockReference
  2
_DOTSMALL
 10
6131.6
 20
8808.971425227481
 30
0.0
 41
100.0
 42
100.0
 43
100.0
 50
180.0
  0
MTEXT
  5
1FDEC
330
1F664
100
AcDbEntity
  8
寸法
 62
     7
 48
50.0
100
AcDbMText
 10
7118.6
 20
8908.97142522748
 30
0.0
 40
120.0
 41
0.0
 71
     5
 72
     1
  1
\A1;1974
  7
STYLE1
 73
     1
 44
1.0
1001
ACAD
1000
MTEXTBEGIN
1070
    73
1070
     1
1070
    44
1040
1.0
1070
    74
1070
     0
1000
MTEXTEND
  0
POINT
  5
1FDED
330
1F664
100
AcDbEntity
  8
DEFPOINTS
 62
     0
 48
50.0
100
AcDbPoint
 10
8105.6
 20
7990.211798685398
 30
0.0
  0
POINT
  5
1FDEE
330
1F664
100
AcDbEntity
  8
DEFPOINTS
 62
     0
 48
50.0
100
AcDbPoint
 10
6131.6
 20
7990.211798685398
 30
0.0
  0
POINT
  5
1FDEF
330
1F664
100
AcDbEntity
  8
DEFPOINTS
 62
     0
 48
50.0
100
AcDbPoint
 10
6131.6
 20
8808.971425227481
 30
0.0
  0
ENDBLK
  5
1F66F
330
1F664
100
AcDbEntity
  8
0
 48
50.0
100
AcDbBlockEnd
  0
BLOCK
  5
1F679
330
1F670
100
AcDbEntity
  8
0
 48
50.0
100
AcDbBlockBegin
  2
*D31
 70
     1
 10
0.0
 20
0.0
 30
0.0
  3
*D31
  1

  0
LINE
  5
21F41
330
1F670
100
AcDbEntity
  8
寸法
 62
     0
 48
50.0
370
    -2
100
AcDbLine
 10
6773.599999999996
 20
7283.2117986854
 30
0.0
 11
6773.599999999996
 21
8650.121564333726
 31
0.0
  0
LINE
  5
21F42
330
1F670
100
AcDbEntity
  8
寸法
 62
     0
 48
50.0
370
    -2
100
AcDbLine
 10
6008.600000000001
 20
8083.211798685397
 30
0.0
 11
6008.600000000001
 21
8650.121564333726
 31
0.0
  0
LINE
  5
21F43
330
1F670
100
AcDbEntity
  8
寸法
 62
     0
 48
50.0
370
    -2
100
AcDbLine
 10
6773.599999999996
 20
8590.121564333726
 30
0.0
 11
6008.600000000001
 21
8590.121564333726
 31
0.0
  0
INSERT
  5
21F44
330
1F670
100
AcDbEntity
  8
寸法
 62
     0
 48
50.0
370
    -2
100
AcDbBlockReference
  2
_DOTSMALL
 10
6773.599999999996
 20
8590.121564333726
 30
0.0
 41
100.0
 42
100.0
 43
100.0
  0
INSERT
  5
21F45
330
1F670
100
AcDbEntity
  8
寸法
 62
     0
 48
50.0
370
    -2
100
AcDbBlockReference
  2
_DOTSMALL
 10
6008.600000000001
 20
8590.121564333726
 30
0.0
 41
100.0
 42
100.0
 43
100.0
 50
180.0
  0
MTEXT
  5
21F46
330
1F670
100
AcDbEntity
  8
寸法
 62
     7
 48
50.0
100
AcDbMText
 10
6391.099999999998
 20
8690.121564333725
 30
0.0
 40
120.0
 41
0.0
 71
     5
 72
     1
  1
\A1;765
  7
STYLE1
 73
     1
 44
1.0
1001
ACAD
1000
MTEXTBEGIN
1070
    73
1070
     1
1070
    44
1040
1.0
1070
    74
1070
     0
1000
MTEXTEND
  0
POINT
  5
21F47
330
1F670
100
AcDbEntity
  8
DEFPOINTS
 62
     0
 48
50.0
100
AcDbPoint
 10
6773.599999999996
 20
7263.2117986854
 30
0.0
  0
POINT
  5
21F48
330
1F670
100
AcDbEntity
  8
DEFPOINTS
 62
     0
 48
50.0
100
AcDbPoint
 10
6008.600000000001
 20
8063.211798685397
 30
0.0
  0
POINT
  5
21F49
330
1F670
100
AcDbEntity
  8
DEFPOINTS
 62
     0
 48
50.0
100
AcDbPoint
 10
6008.600000000001
 20
8590.121564333726
 30
0.0
  0
ENDBLK
  5
1F67A
330
1F670
100
AcDbEntity
  8
0
 48
50.0
100
AcDbBlockEnd
  0
BLOCK
  5
1F686
330
1F67B
100
AcDbEntity
  8
0
 48
50.0
100
AcDbBlockBegin
  2
*D32
 70
     1
 10
0.0
 20
0.0
 30
0.0
  3
*D32
  1

  0
LINE
  5
22ECF
330
1F67B
100
AcDbEntity
  8
寸法
 62
     0
 48
50.0
370
    -2
100
AcDbLine
 10
6258.6
 20
7943.2117986854
 30
0.0
 11
6515.307249876099
 21
7943.2117986854
 31
0.0
  0
LINE
  5
22ED0
330
1F67B
100
AcDbEntity
  8
寸法
 62
     0
 48
50.0
370
    -2
100
AcDbLine
 10
6258.600000000001
 20
7833.211798685394
 30
0.0
 11
6515.307249876099
 21
7833.211798685394
 31
0.0
  0
LINE
  5
22ED1
330
1F67B
100
AcDbEntity
  8
寸法
 62
     0
 48
50.0
370
    -2
100
AcDbLine
 10
6455.307249876098
 20
7943.2117986854
 30
0.0
 11
6455.307249876098
 21
7833.211798685394
 31
0.0
  0
LINE
  5
22ED2
330
1F67B
100
AcDbEntity
  8
寸法
 62
     0
 48
50.0
370
    -2
100
AcDbLine
 10
6455.307249876098
 20
7833.211798685394
 30
0.0
 11
6455.307249876098
 21
7369.105499472794
 31
0.0
  0
INSERT
  5
22ED3
330
1F67B
100
AcDbEntity
  8
寸法
 62
     0
 48
50.0
370
    -2
100
AcDbBlockReference
  2
_DOTSMALL
 10
6455.307249876098
 20
7943.2117986854
 30
0.0
 41
100.0
 42
100.0
 43
100.0
 50
90.0
  0
INSERT
  5
22ED4
330
1F67B
100
AcDbEntity
  8
寸法
 62
     0
 48
50.0
370
    -2
100
AcDbBlockReference
  2
_DOTSMALL
 10
6455.307249876098
 20
7833.211798685394
 30
0.0
 41
100.0
 42
100.0
 43
100.0
 50
270.0
  0
MTEXT
  5
22ED5
330
1F67B
100
AcDbEntity
  8
寸法
 62
     7
 48
50.0
100
AcDbMText
 10
6355.307249876098
 20
7493.152743567283
 30
0.0
 40
120.0
 41
0.0
 71
     5
 72
     1
  1
\A1;110
  7
STYLE1
 11
0.0000000000000001
 21
1.0
 31
0.0
 73
     1
 44
1.0
1001
ACAD
1000
MTEXTBEGIN
1070
    73
1070
     1
1070
    44
1040
1.0
1070
    74
1070
     0
1000
MTEXTEND
  0
POINT
  5
22ED6
330
1F67B
100
AcDbEntity
  8
DEFPOINTS
 62
     0
 48
50.0
100
AcDbPoint
 10
6238.599999999999
 20
7943.2117986854
 30
0.0
  0
POINT
  5
22ED7
330
1F67B
100
AcDbEntity
  8
DEFPOINTS
 62
     0
 48
50.0
100
AcDbPoint
 10
6238.6
 20
7833.211798685394
 30
0.0
  0
POINT
  5
22ED8
330
1F67B
100
AcDbEntity
  8
DEFPOINTS
 62
     0
 48
50.0
100
AcDbPoint
 10
6455.307249876098
 20
7833.211798685394
 30
0.0
  0
ENDBLK
  5
1F687
330
1F67B
100
AcDbEntity
  8
0
 48
50.0
100
AcDbBlockEnd
  0
BLOCK
  5
1F693
330
1F688
100
AcDbEntity
  8
0
 48
50.0
100
AcDbBlockBegin
  2
*D33
 70
     1
 10
0.0
 20
0.0
 30
0.0
  3
*D33
  1

  0
LINE
  5
1FDD4
330
1F688
100
AcDbEntity
  8
寸法
 62
     0
 48
50.0
370
    -2
100
AcDbLine
 10
5988.6
 20
8063.211798685397
 30
0.0
 11
5452.657733986178
 21
8063.211798685397
 31
0.0
  0
LINE
  5
1FDD5
330
1F688
100
AcDbEntity
  8
寸法
 62
     0
 48
50.0
370
    -2
100
AcDbLine
 10
6061.600000000001
 20
7940.211798685398
 30
0.0
 11
5452.657733986178
 21
7940.211798685398
 31
0.0
  0
LINE
  5
1FDD6
330
1F688
100
AcDbEntity
  8
寸法
 62
     0
 48
50.0
370
    -2
100
AcDbLine
 10
5512.657733986179
 20
7940.211798685398
 30
0.0
 11
5512.657733986179
 21
8063.211798685397
 31
0.0
  0
LINE
  5
1FDD7
330
1F688
100
AcDbEntity
  8
寸法
 62
     0
 48
50.0
370
    -2
100
AcDbLine
 10
5512.657733986179
 20
8063.211798685397
 30
0.0
 11
5512.657733986179
 21
8474.803681777434
 31
0.0
  0
INSERT
  5
1FDD8
330
1F688
100
AcDbEntity
  8
寸法
 62
     0
 48
50.0
370
    -2
100
AcDbBlockReference
  2
_DOTSMALL
 10
5512.657733986179
 20
7940.211798685398
 30
0.0
 41
100.0
 42
100.0
 43
100.0
 50
270.0
  0
INSERT
  5
1FDD9
330
1F688
100
AcDbEntity
  8
寸法
 62
     0
 48
50.0
370
    -2
100
AcDbBlockReference
  2
_DOTSMALL
 10
5512.657733986179
 20
8063.211798685397
 30
0.0
 41
100.0
 42
100.0
 43
100.0
 50
90.0
  0
MTEXT
  5
1FDDA
330
1F688
100
AcDbEntity
  8
寸法
 62
     7
 48
50.0
100
AcDbMText
 10
5412.645922962556
 20
8336.318400403198
 30
0.0
 40
120.0
 41
0.0
 71
     5
 72
     1
  1
\A1;123
  7
STYLE1
 11
0.0000000000000001
 21
1.0
 31
0.0
 73
     1
 44
1.0
1001
ACAD
1000
MTEXTBEGIN
1070
    73
1070
     1
1070
    44
1040
1.0
1070
    74
1070
     0
1000
MTEXTEND
  0
POINT
  5
1FDDB
330
1F688
100
AcDbEntity
  8
DEFPOINTS
 62
     0
 48
50.0
100
AcDbPoint
 10
6008.600000000001
 20
8063.211798685397
 30
0.0
  0
POINT
  5
1FDDC
330
1F688
100
AcDbEntity
  8
DEFPOINTS
 62
     0
 48
50.0
100
AcDbPoint
 10
6081.6
 20
7940.211798685398
 30
0.0
  0
POINT
  5
1FDDD
330
1F688
100
AcDbEntity
  8
DEFPOINTS
 62
     0
 48
50.0
100
AcDbPoint
 10
5512.657733986179
 20
7940.211798685398
 30
0.0
  0
ENDBLK
  5
1F694
330
1F688
100
AcDbEntity
  8
0
 48
50.0
100
AcDbBlockEnd
  0
BLOCK
  5
1F6A0
330
1F695
100
AcDbEntity
  8
0
 48
50.0
100
AcDbBlockBegin
  2
*D34
 70
     1
 10
0.0
 20
0.0
 30
0.0
  3
*D34
  1

  0
LINE
  5
1FDCA
330
1F695
100
AcDbEntity
  8
寸法
 62
     0
 48
50.0
370
    -2
100
AcDbLine
 10
6131.6
 20
8010.211798685396
 30
0.0
 11
6131.6
 21
8868.971425227481
 31
0.0
  0
LINE
  5
1FDCB
330
1F695
100
AcDbEntity
  8
寸法
 62
     0
 48
50.0
370
    -2
100
AcDbLine
 10
6008.600000000001
 20
8083.211798685397
 30
0.0
 11
6008.600000000001
 21
8868.971425227481
 31
0.0
  0
LINE
  5
1FDCC
330
1F695
100
AcDbEntity
  8
寸法
 62
     0
 48
50.0
370
    -2
100
AcDbLine
 10
6131.6
 20
8808.971425227481
 30
0.0
 11
6008.600000000001
 21
8808.971425227481
 31
0.0
  0
LINE
  5
1FDCD
330
1F695
100
AcDbEntity
  8
寸法
 62
     0
 48
50.0
370
    -2
100
AcDbLine
 10
6008.600000000001
 20
8808.971425227481
 30
0.0
 11
5597.008116907963
 21
8808.971425227481
 31
0.0
  0
INSERT
  5
1FDCE
330
1F695
100
AcDbEntity
  8
寸法
 62
     0
 48
50.0
370
    -2
100
AcDbBlockReference
  2
_DOTSMALL
 10
6131.6
 20
8808.971425227481
 30
0.0
 41
100.0
 42
100.0
 43
100.0
  0
INSERT
  5
1FDCF
330
1F695
100
AcDbEntity
  8
寸法
 62
     0
 48
50.0
370
    -2
100
AcDbBlockReference
  2
_DOTSMALL
 10
6008.600000000001
 20
8808.971425227481
 30
0.0
 41
100.0
 42
100.0
 43
100.0
 50
180.0
  0
MTEXT
  5
1FDD0
330
1F695
100
AcDbEntity
  8
寸法
 62
     7
 48
50.0
100
AcDbMText
 10
5735.493398282202
 20
8908.983236251103
 30
0.0
 40
120.0
 41
0.0
 71
     5
 72
     1
  1
\A1;123
  7
STYLE1
 73
     1
 44
1.0
1001
ACAD
1000
MTEXTBEGIN
1070
    73
1070
     1
1070
    44
1040
1.0
1070
    74
1070
     0
1000
MTEXTEND
  0
POINT
  5
1FDD1
330
1F695
100
AcDbEntity
  8
DEFPOINTS
 62
     0
 48
50.0
100
AcDbPoint
 10
6131.6
 20
7990.211798685398
 30
0.0
  0
POINT
  5
1FDD2
330
1F695
100
AcDbEntity
  8
DEFPOINTS
 62
     0
 48
50.0
100
AcDbPoint
 10
6008.600000000001
 20
8063.211798685397
 30
0.0
  0
POINT
  5
1FDD3
330
1F695
100
AcDbEntity
  8
DEFPOINTS
 62
     0
 48
50.0
100
AcDbPoint
 10
6008.600000000001
 20
8808.971425227481
 30
0.0
  0
ENDBLK
  5
1F6A1
330
1F695
100
AcDbEntity
  8
0
 48
50.0
100
AcDbBlockEnd
  0
BLOCK
  5
1F6AD
330
1F6A2
100
AcDbEntity
  8
0
 48
50.0
100
AcDbBlockBegin
  2
*D35
 70
     1
 10
0.0
 20
0.0
 30
0.0
  3
*D35
  1

  0
LINE
  5
22EC5
330
1F6A2
100
AcDbEntity
  8
寸法
 62
     0
 48
50.0
370
    -2
100
AcDbLine
 10
6258.6
 20
7943.211798685398
 30
0.0
 11
6515.307249876099
 21
7943.211798685398
 31
0.0
  0
LINE
  5
22EC6
330
1F6A2
100
AcDbEntity
  8
寸法
 62
     0
 48
50.0
370
    -2
100
AcDbLine
 10
6258.600000000001
 20
8063.211798685395
 30
0.0
 11
6515.307249876099
 21
8063.211798685395
 31
0.0
  0
LINE
  5
22EC7
330
1F6A2
100
AcDbEntity
  8
寸法
 62
     0
 48
50.0
370
    -2
100
AcDbLine
 10
6455.307249876098
 20
7943.211798685398
 30
0.0
 11
6455.307249876098
 21
8063.211798685395
 31
0.0
  0
LINE
  5
22EC8
330
1F6A2
100
AcDbEntity
  8
寸法
 62
     0
 48
50.0
370
    -2
100
AcDbLine
 10
6455.307249876098
 20
8063.211798685395
 30
0.0
 11
6455.307249876098
 21
8477.342586052769
 31
0.0
  0
INSERT
  5
22EC9
330
1F6A2
100
AcDbEntity
  8
寸法
 62
     0
 48
50.0
370
    -2
100
AcDbBlockReference
  2
_DOTSMALL
 10
6455.307249876098
 20
7943.211798685398
 30
0.0
 41
100.0
 42
100.0
 43
100.0
 50
270.0
  0
INSERT
  5
22ECA
330
1F6A2
100
AcDbEntity
  8
寸法
 62
     0
 48
50.0
370
    -2
100
AcDbBlockReference
  2
_DOTSMALL
 10
6455.307249876098
 20
8063.211798685395
 30
0.0
 41
100.0
 42
100.0
 43
100.0
 50
90.0
  0
MTEXT
  5
22ECB
330
1F6A2
100
AcDbEntity
  8
寸法
 62
     7
 48
50.0
100
AcDbMText
 10
6355.295438852476
 20
8341.295341958284
 30
0.0
 40
120.0
 41
0.0
 71
     5
 72
     1
  1
\A1;120
  7
STYLE1
 11
0.0000000000000001
 21
1.0
 31
0.0
 73
     1
 44
1.0
1001
ACAD
1000
MTEXTBEGIN
1070
    73
1070
     1
1070
    44
1040
1.0
1070
    74
1070
     0
1000
MTEXTEND
  0
POINT
  5
22ECC
330
1F6A2
100
AcDbEntity
  8
DEFPOINTS
 62
     0
 48
50.0
100
AcDbPoint
 10
6238.599999999999
 20
7943.211798685398
 30
0.0
  0
POINT
  5
22ECD
330
1F6A2
100
AcDbEntity
  8
DEFPOINTS
 62
     0
 48
50.0
100
AcDbPoint
 10
6238.6
 20
8063.211798685395
 30
0.0
  0
POINT
  5
22ECE
330
1F6A2
100
AcDbEntity
  8
DEFPOINTS
 62
     0
 48
50.0
100
AcDbPoint
 10
6455.307249876098
 20
8063.211798685395
 30
0.0
  0
ENDBLK
  5
1F6AE
330
1F6A2
100
AcDbEntity
  8
0
 48
50.0
100
AcDbBlockEnd
  0
BLOCK
  5
1F6B9
330
1F6AF
100
AcDbEntity
  8
0
 48
50.0
100
AcDbBlockBegin
  2
*D36
 70
     1
 10
0.0
 20
0.0
 30
0.0
  3
*D36
  1

  0
LINE
  5
21F1D
330
1F6AF
100
AcDbEntity
  8
寸法
 62
     0
 48
50.0
370
    -2
100
AcDbLine
 10
8223.600000000001
 20
7283.211798685397
 30
0.0
 11
8223.600000000001
 21
8650.121564333726
 31
0.0
  0
LINE
  5
21F1E
330
1F6AF
100
AcDbEntity
  8
寸法
 62
     0
 48
50.0
370
    -2
100
AcDbLine
 10
7463.599999999998
 20
7283.211798685399
 30
0.0
 11
7463.599999999998
 21
8650.121564333726
 31
0.0
  0
LINE
  5
21F1F
330
1F6AF
100
AcDbEntity
  8
寸法
 62
     0
 48
50.0
370
    -2
100
AcDbLine
 10
8223.600000000001
 20
8590.121564333726
 30
0.0
 11
7463.599999999998
 21
8590.121564333726
 31
0.0
  0
INSERT
  5
21F20
330
1F6AF
100
AcDbEntity
  8
寸法
 62
     0
 48
50.0
370
    -2
100
AcDbBlockReference
  2
_DOTSMALL
 10
8223.600000000001
 20
8590.121564333726
 30
0.0
 41
100.0
 42
100.0
 43
100.0
  0
INSERT
  5
21F21
330
1F6AF
100
AcDbEntity
  8
寸法
 62
     0
 48
50.0
370
    -2
100
AcDbBlockReference
  2
_DOTSMALL
 10
7463.599999999998
 20
8590.121564333726
 30
0.0
 41
100.0
 42
100.0
 43
100.0
 50
180.0
  0
MTEXT
  5
21F22
330
1F6AF
100
AcDbEntity
  8
寸法
 62
     7
 48
50.0
100
AcDbMText
 10
7843.599999999999
 20
8690.121564333725
 30
0.0
 40
120.0
 41
0.0
 71
     5
 72
     1
  1
\A1;760
  7
STYLE1
 73
     1
 44
1.0
1001
ACAD
1000
MTEXTBEGIN
1070
    73
1070
     1
1070
    44
1040
1.0
1070
    74
1070
     0
1000
MTEXTEND
  0
POINT
  5
21F23
330
1F6AF
100
AcDbEntity
  8
DEFPOINTS
 62
     0
 48
50.0
100
AcDbPoint
 10
8223.600000000001
 20
7263.211798685397
 30
0.0
  0
POINT
  5
21F24
330
1F6AF
100
AcDbEntity
  8
DEFPOINTS
 62
     0
 48
50.0
100
AcDbPoint
 10
7463.599999999998
 20
7263.211798685398
 30
0.0
  0
POINT
  5
21F25
330
1F6AF
100
AcDbEntity
  8
DEFPOINTS
 62
     0
 48
50.0
100
AcDbPoint
 10
7463.599999999998
 20
8590.121564333726
 30
0.0
  0
ENDBLK
  5
1F6BA
330
1F6AF
100
AcDbEntity
  8
0
 48
50.0
100
AcDbBlockEnd
  0
BLOCK
  5
1F6C5
330
1F6BB
100
AcDbEntity
  8
0
 48
50.0
100
AcDbBlockBegin
  2
*D37
 70
     1
 10
0.0
 20
0.0
 30
0.0
  3
*D37
  1

  0
LINE
  5
21F53
330
1F6BB
100
AcDbEntity
  8
寸法
 62
     0
 48
50.0
370
    -2
100
AcDbLine
 10
9247.60000000001
 20
6263.211798685412
 30
0.0
 11
9418.531448609051
 21
6263.211798685412
 31
0.0
  0
LINE
  5
21F54
330
1F6BB
100
AcDbEntity
  8
寸法
 62
     0
 48
50.0
370
    -2
100
AcDbLine
 10
9553.600000000002
 20
7163.211798685407
 30
0.0
 11
9298.531448609052
 21
7163.211798685407
 31
0.0
  0
LINE
  5
21F55
330
1F6BB
100
AcDbEntity
  8
寸法
 62
     0
 48
50.0
370
    -2
100
AcDbLine
 10
9358.531448609053
 20
6263.211798685412
 30
0.0
 11
9358.531448609053
 21
7163.211798685407
 31
0.0
  0
INSERT
  5
21F56
330
1F6BB
100
AcDbEntity
  8
寸法
 62
     0
 48
50.0
370
    -2
100
AcDbBlockReference
  2
_DOTSMALL
 10
9358.531448609053
 20
6263.211798685412
 30
0.0
 41
100.0
 42
100.0
 43
100.0
 50
270.0
  0
INSERT
  5
21F57
330
1F6BB
100
AcDbEntity
  8
寸法
 62
     0
 48
50.0
370
    -2
100
AcDbBlockReference
  2
_DOTSMALL
 10
9358.531448609053
 20
7163.211798685407
 30
0.0
 41
100.0
 42
100.0
 43
100.0
 50
90.0
  0
MTEXT
  5
21F58
330
1F6BB
100
AcDbEntity
  8
寸法
 62
     7
 48
50.0
100
AcDbMText
 10
9258.531448609049
 20
6713.21179868541
 30
0.0
 40
120.0
 41
0.0
 71
     5
 72
     1
  1
\A1;900
  7
STYLE1
 11
0.0000000000000001
 21
1.0
 31
0.0
 73
     1
 44
1.0
1001
ACAD
1000
MTEXTBEGIN
1070
    73
1070
     1
1070
    44
1040
1.0
1070
    74
1070
     0
1000
MTEXTEND
  0
POINT
  5
21F59
330
1F6BB
100
AcDbEntity
  8
DEFPOINTS
 62
     0
 48
50.0
100
AcDbPoint
 10
9227.600000000011
 20
6263.211798685412
 30
0.0
  0
POINT
  5
21F5A
330
1F6BB
100
AcDbEntity
  8
DEFPOINTS
 62
     0
 48
50.0
100
AcDbPoint
 10
9573.600000000002
 20
7163.211798685407
 30
0.0
  0
POINT
  5
21F5B
330
1F6BB
100
AcDbEntity
  8
DEFPOINTS
 62
     0
 48
50.0
100
AcDbPoint
 10
9358.531448609053
 20
7163.211798685407
 30
0.0
  0
ENDBLK
  5
1F6C6
330
1F6BB
100
AcDbEntity
  8
0
 48
50.0
100
AcDbBlockEnd
  0
BLOCK
  5
1F6F8
330
1F6ED
100
AcDbEntity
  8
0
 48
50.0
100
AcDbBlockBegin
  2
*D38
 70
     1
 10
0.0
 20
0.0
 30
0.0
  3
*D38
  1

  0
LINE
  5
22EEE
330
1F6ED
100
AcDbEntity
  8
寸法
 62
     0
 48
50.0
370
    -2
100
AcDbLine
 10
10318.6
 20
7643.461799501199
 30
0.0
 11
10318.6
 21
7545.503131185023
 31
0.0
  0
LINE
  5
22EEF
330
1F6ED
100
AcDbEntity
  8
寸法
 62
     0
 48
50.0
370
    -2
100
AcDbLine
 10
10208.6
 20
7813.211798685395
 30
0.0
 11
10208.6
 21
7545.503131185023
 31
0.0
  0
LINE
  5
22EF0
330
1F6ED
100
AcDbEntity
  8
寸法
 62
     0
 48
50.0
370
    -2
100
AcDbLine
 10
10318.6
 20
7605.503131185024
 30
0.0
 11
10208.6
 21
7605.503131185024
 31
0.0
  0
LINE
  5
22EF1
330
1F6ED
100
AcDbEntity
  8
寸法
 62
     0
 48
50.0
370
    -2
100
AcDbLine
 10
10208.6
 20
7605.503131185024
 30
0.0
 11
9814.493700787402
 21
7605.503131185024
 31
0.0
  0
INSERT
  5
22EF2
330
1F6ED
100
AcDbEntity
  8
寸法
 62
     0
 48
50.0
370
    -2
100
AcDbBlockReference
  2
_DOTSMALL
 10
10318.6
 20
7605.503131185024
 30
0.0
 41
100.0
 42
100.0
 43
100.0
  0
INSERT
  5
22EF3
330
1F6ED
100
AcDbEntity
  8
寸法
 62
     0
 48
50.0
370
    -2
100
AcDbBlockReference
  2
_DOTSMALL
 10
10208.6
 20
7605.503131185024
 30
0.0
 41
100.0
 42
100.0
 43
100.0
 50
180.0
  0
MTEXT
  5
22EF4
330
1F6ED
100
AcDbEntity
  8
寸法
 62
     7
 48
50.0
100
AcDbMText
 10
9938.540944881891
 20
7705.503131185024
 30
0.0
 40
120.0
 41
0.0
 71
     5
 72
     1
  1
\A1;110
  7
STYLE1
 73
     1
 44
1.0
1001
ACAD
1000
MTEXTBEGIN
1070
    73
1070
     1
1070
    44
1040
1.0
1070
    74
1070
     0
1000
MTEXTEND
  0
POINT
  5
22EF5
330
1F6ED
100
AcDbEntity
  8
DEFPOINTS
 62
     0
 48
50.0
100
AcDbPoint
 10
10318.6
 20
7663.461799501199
 30
0.0
  0
POINT
  5
22EF6
330
1F6ED
100
AcDbEntity
  8
DEFPOINTS
 62
     0
 48
50.0
100
AcDbPoint
 10
10208.6
 20
7833.211798685396
 30
0.0
  0
POINT
  5
22EF7
330
1F6ED
100
AcDbEntity
  8
DEFPOINTS
 62
     0
 48
50.0
100
AcDbPoint
 10
10208.6
 20
7605.503131185024
 30
0.0
  0
ENDBLK
  5
1F6F9
330
1F6ED
100
AcDbEntity
  8
0
 48
50.0
100
AcDbBlockEnd
  0
BLOCK
  5
1F704
330
1F6FA
100
AcDbEntity
  8
0
 48
50.0
100
AcDbBlockBegin
  2
*D39
 70
     1
 10
0.0
 20
0.0
 30
0.0
  3
*D39
  1

  0
LINE
  5
21F65
330
1F6FA
100
AcDbEntity
  8
寸法
 62
     0
 48
50.0
370
    -2
100
AcDbLine
 10
10438.6
 20
8083.211798685397
 30
0.0
 11
10438.6
 21
8650.121564333726
 31
0.0
  0
LINE
  5
21F66
330
1F6FA
100
AcDbEntity
  8
寸法
 62
     0
 48
50.0
370
    -2
100
AcDbLine
 10
9673.6
 20
7283.211798685406
 30
0.0
 11
9673.6
 21
8650.121564333726
 31
0.0
  0
LINE
  5
21F67
330
1F6FA
100
AcDbEntity
  8
寸法
 62
     0
 48
50.0
370
    -2
100
AcDbLine
 10
10438.6
 20
8590.121564333726
 30
0.0
 11
9673.6
 21
8590.121564333726
 31
0.0
  0
INSERT
  5
21F68
330
1F6FA
100
AcDbEntity
  8
寸法
 62
     0
 48
50.0
370
    -2
100
AcDbBlockReference
  2
_DOTSMALL
 10
10438.6
 20
8590.121564333726
 30
0.0
 41
100.0
 42
100.0
 43
100.0
  0
INSERT
  5
21F69
330
1F6FA
100
AcDbEntity
  8
寸法
 62
     0
 48
50.0
370
    -2
100
AcDbBlockReference
  2
_DOTSMALL
 10
9673.6
 20
8590.121564333726
 30
0.0
 41
100.0
 42
100.0
 43
100.0
 50
180.0
  0
MTEXT
  5
21F6A
330
1F6FA
100
AcDbEntity
  8
寸法
 62
     7
 48
50.0
100
AcDbMText
 10
10056.1
 20
8690.121564333725
 30
0.0
 40
120.0
 41
0.0
 71
     5
 72
     1
  1
\A1;765
  7
STYLE1
 73
     1
 44
1.0
1001
ACAD
1000
MTEXTBEGIN
1070
    73
1070
     1
1070
    44
1040
1.0
1070
    74
1070
     0
1000
MTEXTEND
  0
POINT
  5
21F6B
330
1F6FA
100
AcDbEntity
  8
DEFPOINTS
 62
     0
 48
50.0
100
AcDbPoint
 10
10438.6
 20
8063.211798685397
 30
0.0
  0
POINT
  5
21F6C
330
1F6FA
100
AcDbEntity
  8
DEFPOINTS
 62
     0
 48
50.0
100
AcDbPoint
 10
9673.6
 20
7263.211798685405
 30
0.0
  0
POINT
  5
21F6D
330
1F6FA
100
AcDbEntity
  8
DEFPOINTS
 62
     0
 48
50.0
100
AcDbPoint
 10
9673.6
 20
8590.121564333726
 30
0.0
  0
ENDBLK
  5
1F705
330
1F6FA
100
AcDbEntity
  8
0
 48
50.0
100
AcDbBlockEnd
  0
BLOCK
  5
1F70F
330
1F706
100
AcDbEntity
  8
0
 48
50.0
100
AcDbBlockBegin
  2
*D40
 70
     1
 10
0.0
 20
0.0
 30
0.0
  3
*D40
  1

  0
LINE
  5
21F4A
330
1F706
100
AcDbEntity
  8
寸法
 62
     0
 48
50.0
370
    -2
100
AcDbLine
 10
9553.600000000002
 20
7163.211798685407
 30
0.0
 11
9298.531448609052
 21
7163.211798685407
 31
0.0
  0
LINE
  5
21F4B
330
1F706
100
AcDbEntity
  8
寸法
 62
     0
 48
50.0
370
    -2
100
AcDbLine
 10
9247.6
 20
8063.211798685395
 30
0.0
 11
9418.531448609051
 21
8063.211798685395
 31
0.0
  0
LINE
  5
21F4C
330
1F706
100
AcDbEntity
  8
寸法
 62
     0
 48
50.0
370
    -2
100
AcDbLine
 10
9358.531448609053
 20
7163.211798685407
 30
0.0
 11
9358.531448609053
 21
8063.211798685395
 31
0.0
  0
INSERT
  5
21F4D
330
1F706
100
AcDbEntity
  8
寸法
 62
     0
 48
50.0
370
    -2
100
AcDbBlockReference
  2
_DOTSMALL
 10
9358.531448609053
 20
7163.211798685407
 30
0.0
 41
100.0
 42
100.0
 43
100.0
 50
270.0
  0
INSERT
  5
21F4E
330
1F706
100
AcDbEntity
  8
寸法
 62
     0
 48
50.0
370
    -2
100
AcDbBlockReference
  2
_DOTSMALL
 10
9358.531448609053
 20
8063.211798685395
 30
0.0
 41
100.0
 42
100.0
 43
100.0
 50
90.0
  0
MTEXT
  5
21F4F
330
1F706
100
AcDbEntity
  8
寸法
 62
     7
 48
50.0
100
AcDbMText
 10
9258.531448609049
 20
7613.211798685402
 30
0.0
 40
120.0
 41
0.0
 71
     5
 72
     1
  1
\A1;900
  7
STYLE1
 11
0.0000000000000001
 21
1.0
 31
0.0
 73
     1
 44
1.0
1001
ACAD
1000
MTEXTBEGIN
1070
    73
1070
     1
1070
    44
1040
1.0
1070
    74
1070
     0
1000
MTEXTEND
  0
POINT
  5
21F50
330
1F706
100
AcDbEntity
  8
DEFPOINTS
 62
     0
 48
50.0
100
AcDbPoint
 10
9573.600000000002
 20
7163.211798685407
 30
0.0
  0
POINT
  5
21F51
330
1F706
100
AcDbEntity
  8
DEFPOINTS
 62
     0
 48
50.0
100
AcDbPoint
 10
9227.6
 20
8063.211798685395
 30
0.0
  0
POINT
  5
21F52
330
1F706
100
AcDbEntity
  8
DEFPOINTS
 62
     0
 48
50.0
100
AcDbPoint
 10
9358.531448609053
 20
8063.211798685395
 30
0.0
  0
ENDBLK
  5
1F710
330
1F706
100
AcDbEntity
  8
0
 48
50.0
100
AcDbBlockEnd
  0
BLOCK
  5
1F71C
330
1F711
100
AcDbEntity
  8
0
 48
50.0
100
AcDbBlockBegin
  2
*D41
 70
     1
 10
0.0
 20
0.0
 30
0.0
  3
*D41
  1

  0
LINE
  5
22EE4
330
1F711
100
AcDbEntity
  8
寸法
 62
     0
 48
50.0
370
    -2
100
AcDbLine
 10
10438.6
 20
7602.496395223854
 30
0.0
 11
10438.6
 21
7545.503131185023
 31
0.0
  0
LINE
  5
22EE5
330
1F711
100
AcDbEntity
  8
寸法
 62
     0
 48
50.0
370
    -2
100
AcDbLine
 10
10318.6
 20
7643.461799501199
 30
0.0
 11
10318.6
 21
7545.503131185023
 31
0.0
  0
LINE
  5
22EE6
330
1F711
100
AcDbEntity
  8
寸法
 62
     0
 48
50.0
370
    -2
100
AcDbLine
 10
10318.6
 20
7605.503131185024
 30
0.0
 11
10438.6
 21
7605.503131185024
 31
0.0
  0
LINE
  5
22EE7
330
1F711
100
AcDbEntity
  8
寸法
 62
     0
 48
50.0
370
    -2
100
AcDbLine
 10
10438.6
 20
7605.503131185024
 30
0.0
 11
10844.7062992126
 21
7605.503131185024
 31
0.0
  0
INSERT
  5
22EE8
330
1F711
100
AcDbEntity
  8
寸法
 62
     0
 48
50.0
370
    -2
100
AcDbBlockReference
  2
_DOTSMALL
 10
10318.6
 20
7605.503131185024
 30
0.0
 41
100.0
 42
100.0
 43
100.0
 50
180.0
  0
INSERT
  5
22EE9
330
1F711
100
AcDbEntity
  8
寸法
 62
     0
 48
50.0
370
    -2
100
AcDbBlockReference
  2
_DOTSMALL
 10
10438.6
 20
7605.503131185024
 30
0.0
 41
100.0
 42
100.0
 43
100.0
  0
MTEXT
  5
22EEA
330
1F711
100
AcDbEntity
  8
寸法
 62
     7
 48
50.0
100
AcDbMText
 10
10708.65905511811
 20
7705.514942208646
 30
0.0
 40
120.0
 41
0.0
 71
     5
 72
     1
  1
\A1;120
  7
STYLE1
 73
     1
 44
1.0
1001
ACAD
1000
MTEXTBEGIN
1070
    73
1070
     1
1070
    44
1040
1.0
1070
    74
1070
     0
1000
MTEXTEND
  0
POINT
  5
22EEB
330
1F711
100
AcDbEntity
  8
DEFPOINTS
 62
     0
 48
50.0
100
AcDbPoint
 10
10438.6
 20
7622.496395223854
 30
0.0
  0
POINT
  5
22EEC
330
1F711
100
AcDbEntity
  8
DEFPOINTS
 62
     0
 48
50.0
100
AcDbPoint
 10
10318.6
 20
7663.461799501199
 30
0.0
  0
POINT
  5
22EED
330
1F711
100
AcDbEntity
  8
DEFPOINTS
 62
     0
 48
50.0
100
AcDbPoint
 10
10318.6
 20
7605.503131185024
 30
0.0
  0
ENDBLK
  5
1F71D
330
1F711
100
AcDbEntity
  8
0
 48
50.0
100
AcDbBlockEnd
  0
BLOCK
  5
1F729
330
1F71E
100
AcDbEntity
  8
0
 48
50.0
100
AcDbBlockBegin
  2
*D42
 70
     1
 10
0.0
 20
0.0
 30
0.0
  3
*D42
  1

  0
LINE
  5
1FD99
330
1F71E
100
AcDbEntity
  8
寸法
 62
     0
 48
50.0
370
    -2
100
AcDbLine
 10
10438.6
 20
8083.211798685397
 30
0.0
 11
10438.6
 21
8868.971425227481
 31
0.0
  0
LINE
  5
1FD9A
330
1F71E
100
AcDbEntity
  8
寸法
 62
     0
 48
50.0
370
    -2
100
AcDbLine
 10
10315.6
 20
8010.211798685396
 30
0.0
 11
10315.6
 21
8868.971425227481
 31
0.0
  0
LINE
  5
1FD9B
330
1F71E
100
AcDbEntity
  8
寸法
 62
     0
 48
50.0
370
    -2
100
AcDbLine
 10
10315.6
 20
8808.971425227481
 30
0.0
 11
10438.6
 21
8808.971425227481
 31
0.0
  0
LINE
  5
1FD9C
330
1F71E
100
AcDbEntity
  8
寸法
 62
     0
 48
50.0
370
    -2
100
AcDbLine
 10
10438.6
 20
8808.971425227481
 30
0.0
 11
10850.19188309203
 21
8808.971425227481
 31
0.0
  0
INSERT
  5
1FD9D
330
1F71E
100
AcDbEntity
  8
寸法
 62
     0
 48
50.0
370
    -2
100
AcDbBlockReference
  2
_DOTSMALL
 10
10315.6
 20
8808.971425227481
 30
0.0
 41
100.0
 42
100.0
 43
100.0
 50
180.0
  0
INSERT
  5
1FD9E
330
1F71E
100
AcDbEntity
  8
寸法
 62
     0
 48
50.0
370
    -2
100
AcDbBlockReference
  2
_DOTSMALL
 10
10438.6
 20
8808.971425227481
 30
0.0
 41
100.0
 42
100.0
 43
100.0
  0
MTEXT
  5
1FD9F
330
1F71E
100
AcDbEntity
  8
寸法
 62
     7
 48
50.0
100
AcDbMText
 10
10711.7066017178
 20
8908.983236251103
 30
0.0
 40
120.0
 41
0.0
 71
     5
 72
     1
  1
\A1;123
  7
STYLE1
 73
     1
 44
1.0
1001
ACAD
1000
MTEXTBEGIN
1070
    73
1070
     1
1070
    44
1040
1.0
1070
    74
1070
     0
1000
MTEXTEND
  0
POINT
  5
1FDA0
330
1F71E
100
AcDbEntity
  8
DEFPOINTS
 62
     0
 48
50.0
100
AcDbPoint
 10
10438.6
 20
8063.211798685397
 30
0.0
  0
POINT
  5
1FDA1
330
1F71E
100
AcDbEntity
  8
DEFPOINTS
 62
     0
 48
50.0
100
AcDbPoint
 10
10315.6
 20
7990.211798685398
 30
0.0
  0
POINT
  5
1FDA2
330
1F71E
100
AcDbEntity
  8
DEFPOINTS
 62
     0
 48
50.0
100
AcDbPoint
 10
10315.6
 20
8808.971425227481
 30
0.0
  0
ENDBLK
  5
1F72A
330
1F71E
100
AcDbEntity
  8
0
 48
50.0
100
AcDbBlockEnd
  0
BLOCK
  5
206EE
330
206E4
100
AcDbEntity
  8
0
 48
50.0
100
AcDbBlockBegin
  2
*D43
 70
     1
 10
0.0
 20
0.0
 30
0.0
  3
*D43
  1

  0
LINE
  5
21F38
330
206E4
100
AcDbEntity
  8
寸法
 62
     0
 48
50.0
370
    -2
100
AcDbLine
 10
7463.599999999998
 20
7283.211798685399
 30
0.0
 11
7463.599999999998
 21
8650.121564333726
 31
0.0
  0
LINE
  5
21F39
330
206E4
100
AcDbEntity
  8
寸法
 62
     0
 48
50.0
370
    -2
100
AcDbLine
 10
6773.599999999996
 20
7283.2117986854
 30
0.0
 11
6773.599999999996
 21
8650.121564333726
 31
0.0
  0
LINE
  5
21F3A
330
206E4
100
AcDbEntity
  8
寸法
 62
     0
 48
50.0
370
    -2
100
AcDbLine
 10
7463.599999999998
 20
8590.121564333726
 30
0.0
 11
6773.599999999996
 21
8590.121564333726
 31
0.0
  0
INSERT
  5
21F3B
330
206E4
100
AcDbEntity
  8
寸法
 62
     0
 48
50.0
370
    -2
100
AcDbBlockReference
  2
_DOTSMALL
 10
7463.599999999998
 20
8590.121564333726
 30
0.0
 41
100.0
 42
100.0
 43
100.0
  0
INSERT
  5
21F3C
330
206E4
100
AcDbEntity
  8
寸法
 62
     0
 48
50.0
370
    -2
100
AcDbBlockReference
  2
_DOTSMALL
 10
6773.599999999996
 20
8590.121564333726
 30
0.0
 41
100.0
 42
100.0
 43
100.0
 50
180.0
  0
MTEXT
  5
21F3D
330
206E4
100
AcDbEntity
  8
寸法
 62
     7
 48
50.0
100
AcDbMText
 10
7118.599999999997
 20
8690.121564333725
 30
0.0
 40
120.0
 41
0.0
 71
     5
 72
     1
  1
\A1;690
  7
STYLE1
 73
     1
 44
1.0
1001
ACAD
1000
MTEXTBEGIN
1070
    73
1070
     1
1070
    44
1040
1.0
1070
    74
1070
     0
1000
MTEXTEND
  0
POINT
  5
21F3E
330
206E4
100
AcDbEntity
  8
DEFPOINTS
 62
     0
 48
50.0
100
AcDbPoint
 10
7463.599999999998
 20
7263.211798685398
 30
0.0
  0
POINT
  5
21F3F
330
206E4
100
AcDbEntity
  8
DEFPOINTS
 62
     0
 48
50.0
100
AcDbPoint
 10
6773.599999999996
 20
7263.2117986854
 30
0.0
  0
POINT
  5
21F40
330
206E4
100
AcDbEntity
  8
DEFPOINTS
 62
     0
 48
50.0
100
AcDbPoint
 10
6773.599999999996
 20
8590.121564333726
 30
0.0
  0
ENDBLK
  5
206EF
330
206E4
100
AcDbEntity
  8
0
 48
50.0
100
AcDbBlockEnd
  0
BLOCK
  5
2075C
330
20752
100
AcDbEntity
  8
0
 48
50.0
100
AcDbBlockBegin
  2
*D44
 70
     1
 10
0.0
 20
0.0
 30
0.0
  3
*D44
  1

  0
LINE
  5
21F5C
330
20752
100
AcDbEntity
  8
寸法
 62
     0
 48
50.0
370
    -2
100
AcDbLine
 10
9673.6
 20
7283.211798685406
 30
0.0
 11
9673.6
 21
8650.121564333726
 31
0.0
  0
LINE
  5
21F5D
330
20752
100
AcDbEntity
  8
寸法
 62
     0
 48
50.0
370
    -2
100
AcDbLine
 10
8983.599999999999
 20
7283.211798685406
 30
0.0
 11
8983.599999999999
 21
8650.121564333726
 31
0.0
  0
LINE
  5
21F5E
330
20752
100
AcDbEntity
  8
寸法
 62
     0
 48
50.0
370
    -2
100
AcDbLine
 10
9673.6
 20
8590.121564333726
 30
0.0
 11
8983.599999999999
 21
8590.121564333726
 31
0.0
  0
INSERT
  5
21F5F
330
20752
100
AcDbEntity
  8
寸法
 62
     0
 48
50.0
370
    -2
100
AcDbBlockReference
  2
_DOTSMALL
 10
9673.6
 20
8590.121564333726
 30
0.0
 41
100.0
 42
100.0
 43
100.0
  0
INSERT
  5
21F60
330
20752
100
AcDbEntity
  8
寸法
 62
     0
 48
50.0
370
    -2
100
AcDbBlockReference
  2
_DOTSMALL
 10
8983.599999999999
 20
8590.121564333726
 30
0.0
 41
100.0
 42
100.0
 43
100.0
 50
180.0
  0
MTEXT
  5
21F61
330
20752
100
AcDbEntity
  8
寸法
 62
     7
 48
50.0
100
AcDbMText
 10
9328.599999999999
 20
8690.121564333725
 30
0.0
 40
120.0
 41
0.0
 71
     5
 72
     1
  1
\A1;690
  7
STYLE1
 73
     1
 44
1.0
1001
ACAD
1000
MTEXTBEGIN
1070
    73
1070
     1
1070
    44
1040
1.0
1070
    74
1070
     0
1000
MTEXTEND
  0
POINT
  5
21F62
330
20752
100
AcDbEntity
  8
DEFPOINTS
 62
     0
 48
50.0
100
AcDbPoint
 10
9673.6
 20
7263.211798685405
 30
0.0
  0
POINT
  5
21F63
330
20752
100
AcDbEntity
  8
DEFPOINTS
 62
     0
 48
50.0
100
AcDbPoint
 10
8983.599999999999
 20
7263.211798685405
 30
0.0
  0
POINT
  5
21F64
330
20752
100
AcDbEntity
  8
DEFPOINTS
 62
     0
 48
50.0
100
AcDbPoint
 10
8983.599999999999
 20
8590.121564333726
 30
0.0
  0
ENDBLK
  5
2075D
330
20752
100
AcDbEntity
  8
0
 48
50.0
100
AcDbBlockEnd
  0
BLOCK
  5
20DEE
330
20DE2
100
AcDbEntity
  8
0
 48
50.0
100
AcDbBlockBegin
  2
*D45
 70
     1
 10
0.0
 20
0.0
 30
0.0
  3
*D45
  1

  0
LINE
  5
20DF0
330
20DE2
100
AcDbEntity
  8
寸法
 62
     0
 48
50.0
370
    -2
100
AcDbLine
 10
10438.6
 20
8083.211798685397
 30
0.0
 11
10438.6
 21
9081.432120744318
 31
0.0
  0
LINE
  5
20DF1
330
20DE2
100
AcDbEntity
  8
寸法
 62
     0
 48
50.0
370
    -2
100
AcDbLine
 10
10483.6
 20
8828.97142522748
 30
0.0
 11
10483.6
 21
9081.432120744318
 31
0.0
  0
LINE
  5
20DF2
330
20DE2
100
AcDbEntity
  8
寸法
 62
     0
 48
50.0
370
    -2
100
AcDbLine
 10
10438.6
 20
9021.43212074432
 30
0.0
 11
10338.6
 21
9021.43212074432
 31
0.0
  0
LINE
  5
20DF3
330
20DE2
100
AcDbEntity
  8
寸法
 62
     0
 48
50.0
370
    -2
100
AcDbLine
 10
10483.6
 20
9021.43212074432
 30
0.0
 11
10820.94924240492
 21
9021.43212074432
 31
0.0
  0
LINE
  5
20DF4
330
20DE2
100
AcDbEntity
  8
寸法
 62
     0
 48
50.0
370
    -2
100
AcDbLine
 10
10438.6
 20
9021.43212074432
 30
0.0
 11
10483.6
 21
9021.43212074432
 31
0.0
  0
INSERT
  5
20DF5
330
20DE2
100
AcDbEntity
  8
寸法
 62
     0
 48
50.0
370
    -2
100
AcDbBlockReference
  2
_DOTSMALL
 10
10438.6
 20
9021.43212074432
 30
0.0
 41
100.0
 42
100.0
 43
100.0
  0
INSERT
  5
20DF6
330
20DE2
100
AcDbEntity
  8
寸法
 62
     0
 48
50.0
370
    -2
100
AcDbBlockReference
  2
_DOTSMALL
 10
10483.6
 20
9021.43212074432
 30
0.0
 41
100.0
 42
100.0
 43
100.0
 50
180.0
  0
MTEXT
  5
20DF7
330
20DE2
100
AcDbEntity
  8
寸法
 62
     7
 48
50.0
100
AcDbMText
 10
10754.77462120246
 20
9121.432120744319
 30
0.0
 40
120.0
 41
0.0
 71
     5
 72
     1
  1
\A1;a
  7
STYLE1
 73
     1
 44
1.0
1001
ACAD
1000
MTEXTBEGIN
1070
    73
1070
     1
1070
    44
1040
1.0
1070
    74
1070
     0
1000
MTEXTEND
  0
POINT
  5
20DF8
330
20DE2
100
AcDbEntity
  8
DEFPOINTS
 62
     0
 48
50.0
100
AcDbPoint
 10
10438.6
 20
8063.211798685397
 30
0.0
  0
POINT
  5
20DF9
330
20DE2
100
AcDbEntity
  8
DEFPOINTS
 62
     0
 48
50.0
100
AcDbPoint
 10
10483.6
 20
8808.971425227481
 30
0.0
  0
POINT
  5
20DFA
330
20DE2
100
AcDbEntity
  8
DEFPOINTS
 62
     0
 48
50.0
100
AcDbPoint
 10
10483.6
 20
9021.43212074432
 30
0.0
  0
ENDBLK
  5
20DEF
330
20DE2
100
AcDbEntity
  8
0
 48
50.0
100
AcDbBlockEnd
  0
BLOCK
  5
20E08
330
20DFC
100
AcDbEntity
  8
0
 48
50.0
100
AcDbBlockBegin
  2
*D46
 70
     1
 10
0.0
 20
0.0
 30
0.0
  3
*D46
  1

  0
LINE
  5
20E0A
330
20DFC
100
AcDbEntity
  8
寸法
 62
     0
 48
50.0
370
    -2
100
AcDbLine
 10
5963.600000000004
 20
8828.97142522748
 30
0.0
 11
5963.600000000004
 21
9081.432120744318
 31
0.0
  0
LINE
  5
20E0B
330
20DFC
100
AcDbEntity
  8
寸法
 62
     0
 48
50.0
370
    -2
100
AcDbLine
 10
6008.600000000001
 20
8083.211798685397
 30
0.0
 11
6008.600000000001
 21
9081.432120744318
 31
0.0
  0
LINE
  5
20E0C
330
20DFC
100
AcDbEntity
  8
寸法
 62
     0
 48
50.0
370
    -2
100
AcDbLine
 10
6008.600000000001
 20
9021.43212074432
 30
0.0
 11
6108.6
 21
9021.43212074432
 31
0.0
  0
LINE
  5
20E0D
330
20DFC
100
AcDbEntity
  8
寸法
 62
     0
 48
50.0
370
    -2
100
AcDbLine
 10
5963.600000000004
 20
9021.43212074432
 30
0.0
 11
5626.250757595084
 21
9021.43212074432
 31
0.0
  0
LINE
  5
20E0E
330
20DFC
100
AcDbEntity
  8
寸法
 62
     0
 48
50.0
370
    -2
100
AcDbLine
 10
6008.600000000001
 20
9021.43212074432
 30
0.0
 11
5963.600000000004
 21
9021.43212074432
 31
0.0
  0
INSERT
  5
20E0F
330
20DFC
100
AcDbEntity
  8
寸法
 62
     0
 48
50.0
370
    -2
100
AcDbBlockReference
  2
_DOTSMALL
 10
6008.600000000001
 20
9021.43212074432
 30
0.0
 41
100.0
 42
100.0
 43
100.0
 50
180.0
  0
INSERT
  5
20E10
330
20DFC
100
AcDbEntity
  8
寸法
 62
     0
 48
50.0
370
    -2
100
AcDbBlockReference
  2
_DOTSMALL
 10
5963.600000000004
 20
9021.43212074432
 30
0.0
 41
100.0
 42
100.0
 43
100.0
  0
MTEXT
  5
20E11
330
20DFC
100
AcDbEntity
  8
寸法
 62
     7
 48
50.0
100
AcDbMText
 10
5692.425378797541
 20
9121.432120744319
 30
0.0
 40
120.0
 41
0.0
 71
     5
 72
     1
  1
\A1;a
  7
STYLE1
 73
     1
 44
1.0
1001
ACAD
1000
MTEXTBEGIN
1070
    73
1070
     1
1070
    44
1040
1.0
1070
    74
1070
     0
1000
MTEXTEND
  0
POINT
  5
20E12
330
20DFC
100
AcDbEntity
  8
DEFPOINTS
 62
     0
 48
50.0
100
AcDbPoint
 10
5963.600000000004
 20
8808.971425227481
 30
0.0
  0
POINT
  5
20E13
330
20DFC
100
AcDbEntity
  8
DEFPOINTS
 62
     0
 48
50.0
100
AcDbPoint
 10
6008.600000000001
 20
8063.211798685397
 30
0.0
  0
POINT
  5
20E14
330
20DFC
100
AcDbEntity
  8
DEFPOINTS
 62
     0
 48
50.0
100
AcDbPoint
 10
6008.600000000001
 20
9021.43212074432
 30
0.0
  0
ENDBLK
  5
20E09
330
20DFC
100
AcDbEntity
  8
0
 48
50.0
100
AcDbBlockEnd
  0
BLOCK
  5
20E22
330
20E16
100
AcDbEntity
  8
0
 48
50.0
100
AcDbBlockBegin
  2
*D47
 70
     1
 10
0.0
 20
0.0
 30
0.0
  3
*D47
  1

  0
LINE
  5
20E2F
330
20E16
100
AcDbEntity
  8
寸法
 62
     0
 48
50.0
370
    -2
100
AcDbLine
 10
5492.657733986178
 20
8138.211798685402
 30
0.0
 11
5200.714637266781
 21
8138.211798685402
 31
0.0
  0
LINE
  5
20E30
330
20E16
100
AcDbEntity
  8
寸法
 62
     0
 48
50.0
370
    -2
100
AcDbLine
 10
5982.149705418571
 20
8063.211798685397
 30
0.0
 11
5200.714637266781
 21
8063.211798685397
 31
0.0
  0
LINE
  5
20E31
330
20E16
100
AcDbEntity
  8
寸法
 62
     0
 48
50.0
370
    -2
100
AcDbLine
 10
5260.714637266781
 20
8138.211798685402
 30
0.0
 11
5260.714637266781
 21
8238.211798685401
 31
0.0
  0
LINE
  5
20E32
330
20E16
100
AcDbEntity
  8
寸法
 62
     0
 48
50.0
370
    -2
100
AcDbLine
 10
5260.714637266781
 20
8063.211798685397
 30
0.0
 11
5260.714637266781
 21
7963.211798685397
 31
0.0
  0
LINE
  5
20E33
330
20E16
100
AcDbEntity
  8
寸法
 62
     0
 48
50.0
370
    -2
100
AcDbLine
 10
5260.714637266781
 20
8138.211798685402
 30
0.0
 11
5260.714637266781
 21
8063.211798685397
 31
0.0
  0
INSERT
  5
20E34
330
20E16
100
AcDbEntity
  8
寸法
 62
     0
 48
50.0
370
    -2
100
AcDbBlockReference
  2
_DOTSMALL
 10
5260.714637266781
 20
8138.211798685402
 30
0.0
 41
100.0
 42
100.0
 43
100.0
 50
270.0
  0
INSERT
  5
20E35
330
20E16
100
AcDbEntity
  8
寸法
 62
     0
 48
50.0
370
    -2
100
AcDbBlockReference
  2
_DOTSMALL
 10
5260.714637266781
 20
8063.211798685397
 30
0.0
 41
100.0
 42
100.0
 43
100.0
 50
90.0
  0
MTEXT
  5
20E36
330
20E16
100
AcDbEntity
  8
寸法
 62
     7
 48
50.0
100
AcDbMText
 10
5160.714637266781
 20
8100.7117986854
 30
0.0
 40
120.0
 41
0.0
 71
     5
 72
     1
  1
\A1;c
  7
STYLE1
 11
0.0000000000000001
 21
1.0
 31
0.0
 73
     1
 44
1.0
1001
ACAD
1000
MTEXTBEGIN
1070
    73
1070
     1
1070
    44
1040
1.0
1070
    74
1070
     0
1000
MTEXTEND
  0
POINT
  5
20E37
330
20E16
100
AcDbEntity
  8
DEFPOINTS
 62
     0
 48
50.0
100
AcDbPoint
 10
5512.657733986179
 20
8138.211798685402
 30
0.0
  0
POINT
  5
20E38
330
20E16
100
AcDbEntity
  8
DEFPOINTS
 62
     0
 48
50.0
100
AcDbPoint
 10
6002.149705418571
 20
8063.211798685397
 30
0.0
  0
POINT
  5
20E39
330
20E16
100
AcDbEntity
  8
DEFPOINTS
 62
     0
 48
50.0
100
AcDbPoint
 10
5260.714637266781
 20
8063.211798685397
 30
0.0
  0
ENDBLK
  5
20E23
330
20E16
100
AcDbEntity
  8
0
 48
50.0
100
AcDbBlockEnd
  0
BLOCK
  5
20E47
330
20E3B
100
AcDbEntity
  8
0
 48
50.0
100
AcDbBlockBegin
  2
*D48
 70
     1
 10
0.0
 20
0.0
 30
0.0
  3
*D48
  1

  0
LINE
  5
20E71
330
20E3B
100
AcDbEntity
  8
寸法
 62
     0
 48
50.0
370
    -2
100
AcDbLine
 10
5988.6
 20
6263.211798685386
 30
0.0
 11
5200.714637266781
 21
6263.211798685386
 31
0.0
  0
LINE
  5
20E72
330
20E3B
100
AcDbEntity
  8
寸法
 62
     0
 48
50.0
370
    -2
100
AcDbLine
 10
5492.65773398618
 20
6208.211798685408
 30
0.0
 11
5200.714637266781
 21
6208.211798685408
 31
0.0
  0
LINE
  5
20E73
330
20E3B
100
AcDbEntity
  8
寸法
 62
     0
 48
50.0
370
    -2
100
AcDbLine
 10
5260.714637266781
 20
6263.211798685386
 30
0.0
 11
5260.714637266781
 21
6363.211798685386
 31
0.0
  0
LINE
  5
20E74
330
20E3B
100
AcDbEntity
  8
寸法
 62
     0
 48
50.0
370
    -2
100
AcDbLine
 10
5260.714637266781
 20
6208.211798685408
 30
0.0
 11
5260.71463726678
 21
6108.211798685409
 31
0.0
  0
LINE
  5
20E75
330
20E3B
100
AcDbEntity
  8
寸法
 62
     0
 48
50.0
370
    -2
100
AcDbLine
 10
5260.714637266781
 20
6263.211798685386
 30
0.0
 11
5260.714637266781
 21
6208.211798685408
 31
0.0
  0
INSERT
  5
20E76
330
20E3B
100
AcDbEntity
  8
寸法
 62
     0
 48
50.0
370
    -2
100
AcDbBlockReference
  2
_DOTSMALL
 10
5260.714637266781
 20
6263.211798685386
 30
0.0
 41
100.0
 42
100.0
 43
100.0
 50
270.0
  0
INSERT
  5
20E77
330
20E3B
100
AcDbEntity
  8
寸法
 62
     0
 48
50.0
370
    -2
100
AcDbBlockReference
  2
_DOTSMALL
 10
5260.714637266781
 20
6208.211798685408
 30
0.0
 41
100.0
 42
100.0
 43
100.0
 50
90.0
  0
MTEXT
  5
20E78
330
20E3B
100
AcDbEntity
  8
寸法
 62
     7
 48
50.0
100
AcDbMText
 10
5160.714637266779
 20
6235.711798685398
 30
0.0
 40
120.0
 41
0.0
 71
     5
 72
     1
  1
\A1;b
  7
STYLE1
 11
0.0000000000000001
 21
1.0
 31
0.0
 73
     1
 44
1.0
1001
ACAD
1000
MTEXTBEGIN
1070
    73
1070
     1
1070
    44
1040
1.0
1070
    74
1070
     0
1000
MTEXTEND
  0
POINT
  5
20E79
330
20E3B
100
AcDbEntity
  8
DEFPOINTS
 62
     0
 48
50.0
100
AcDbPoint
 10
6008.600000000001
 20
6263.211798685386
 30
0.0
  0
POINT
  5
20E7A
330
20E3B
100
AcDbEntity
  8
DEFPOINTS
 62
     0
 48
50.0
100
AcDbPoint
 10
5512.65773398618
 20
6208.211798685408
 30
0.0
  0
POINT
  5
20E7B
330
20E3B
100
AcDbEntity
  8
DEFPOINTS
 62
     0
 48
50.0
100
AcDbPoint
 10
5260.714637266781
 20
6208.211798685408
 30
0.0
  0
ENDBLK
  5
20E48
330
20E3B
100
AcDbEntity
  8
0
 48
50.0
100
AcDbBlockEnd
  0
BLOCK
  5
21ED5
330
21EC9
100
AcDbEntity
  8
0
 48
50.0
100
AcDbBlockBegin
  2
*D49
 70
     1
 10
0.0
 20
0.0
 30
0.0
  3
*D49
  1

  0
LINE
  5
22DD2
330
21EC9
100
AcDbEntity
  8
寸法
 62
     0
 48
50.0
370
    -2
100
AcDbLine
 10
6258.600000000001
 20
6383.211798685401
 30
0.0
 11
6547.722911041356
 21
6383.211798685401
 31
0.0
  0
LINE
  5
22DD3
330
21EC9
100
AcDbEntity
  8
寸法
 62
     0
 48
50.0
370
    -2
100
AcDbLine
 10
6258.600000000001
 20
6188.211798685388
 30
0.0
 11
6547.722911041356
 21
6188.211798685388
 31
0.0
  0
LINE
  5
22DD4
330
21EC9
100
AcDbEntity
  8
寸法
 62
     0
 48
50.0
370
    -2
100
AcDbLine
 10
6487.722911041355
 20
6383.211798685401
 30
0.0
 11
6487.722911041355
 21
6188.211798685388
 31
0.0
  0
LINE
  5
22DD5
330
21EC9
100
AcDbEntity
  8
寸法
 62
     0
 48
50.0
370
    -2
100
AcDbLine
 10
6487.722911041355
 20
6188.211798685388
 30
0.0
 11
6487.722911041355
 21
5810.821916277598
 31
0.0
  0
INSERT
  5
22DD6
330
21EC9
100
AcDbEntity
  8
寸法
 62
     0
 48
50.0
370
    -2
100
AcDbBlockReference
  2
_DOTSMALL
 10
6487.722911041355
 20
6383.211798685401
 30
0.0
 41
100.0
 42
100.0
 43
100.0
 50
90.0
  0
INSERT
  5
22DD7
330
21EC9
100
AcDbEntity
  8
寸法
 62
     0
 48
50.0
370
    -2
100
AcDbBlockReference
  2
_DOTSMALL
 10
6487.722911041355
 20
6188.211798685388
 30
0.0
 41
100.0
 42
100.0
 43
100.0
 50
270.0
  0
MTEXT
  5
22DD8
330
21EC9
100
AcDbEntity
  8
寸法
 62
     7
 48
50.0
100
AcDbMText
 10
6387.722911041354
 20
5949.516857481495
 30
0.0
 40
120.0
 41
0.0
 71
     5
 72
     1
  1
\A1;195
  7
STYLE1
 11
0.0000000000000001
 21
1.0
 31
0.0
 73
     1
 44
1.0
1001
ACAD
1000
MTEXTBEGIN
1070
    73
1070
     1
1070
    44
1040
1.0
1070
    74
1070
     0
1000
MTEXTEND
  0
POINT
  5
22DD9
330
21EC9
100
AcDbEntity
  8
DEFPOINTS
 62
     0
 48
50.0
100
AcDbPoint
 10
6238.6
 20
6383.211798685401
 30
0.0
  0
POINT
  5
22DDA
330
21EC9
100
AcDbEntity
  8
DEFPOINTS
 62
     0
 48
50.0
100
AcDbPoint
 10
6238.600000000001
 20
6188.211798685388
 30
0.0
  0
POINT
  5
22DDB
330
21EC9
100
AcDbEntity
  8
DEFPOINTS
 62
     0
 48
50.0
100
AcDbPoint
 10
6487.722911041355
 20
6188.211798685388
 30
0.0
  0
ENDBLK
  5
21ED6
330
21EC9
100
AcDbEntity
  8
0
 48
50.0
100
AcDbBlockEnd
  0
BLOCK
  5
2275A
330
2274E
100
AcDbEntity
  8
0
 48
50.0
100
AcDbBlockBegin
  2
*D50
 70
     1
 10
0.0
 20
0.0
 30
0.0
  3
*D50
  1

  0
LINE
  5
22A31
330
2274E
100
AcDbEntity
  8
寸法
 62
     0
 48
50.0
370
    -2
100
AcDbLine
 10
5988.6
 20
6188.211798685437
 30
0.0
 11
5712.312481891148
 21
6188.211798685437
 31
0.0
  0
LINE
  5
22A32
330
2274E
100
AcDbEntity
  8
寸法
 62
     0
 48
50.0
370
    -2
100
AcDbLine
 10
5988.600000000008
 20
6263.211798685438
 30
0.0
 11
5712.312481891148
 21
6263.211798685438
 31
0.0
  0
LINE
  5
22A33
330
2274E
100
AcDbEntity
  8
寸法
 62
     0
 48
50.0
370
    -2
100
AcDbLine
 10
5772.312481891147
 20
6263.211798685438
 30
0.0
 11
5772.312481891147
 21
6363.211798685438
 31
0.0
  0
LINE
  5
22A34
330
2274E
100
AcDbEntity
  8
寸法
 62
     0
 48
50.0
370
    -2
100
AcDbLine
 10
5772.312481891147
 20
6188.211798685437
 30
0.0
 11
5772.312481891146
 21
5321.241235936959
 31
0.0
  0
LINE
  5
22A35
330
2274E
100
AcDbEntity
  8
寸法
 62
     0
 48
50.0
370
    -2
100
AcDbLine
 10
5772.312481891147
 20
6263.211798685438
 30
0.0
 11
5772.312481891147
 21
6188.211798685437
 31
0.0
  0
INSERT
  5
22A36
330
2274E
100
AcDbEntity
  8
寸法
 62
     0
 48
50.0
370
    -2
100
AcDbBlockReference
  2
_DOTSMALL
 10
5772.312481891147
 20
6263.211798685438
 30
0.0
 41
100.0
 42
100.0
 43
100.0
 50
270.0
  0
INSERT
  5
22A37
330
2274E
100
AcDbEntity
  8
寸法
 62
     0
 48
50.0
370
    -2
100
AcDbBlockReference
  2
_DOTSMALL
 10
5772.312481891147
 20
6188.211798685437
 30
0.0
 41
100.0
 42
100.0
 43
100.0
 50
90.0
  0
MTEXT
  5
22A38
330
2274E
100
AcDbEntity
  8
寸法
 62
     7
 48
50.0
100
AcDbMText
 10
5672.312481891146
 20
5654.7265173112
 30
0.0
 40
120.0
 41
0.0
 71
     5
 72
     1
  1
\A1;扉の出75
  7
STYLE1
 11
0.0000000000000001
 21
1.0
 31
0.0
 73
     1
 44
1.0
1001
ACAD
1000
MTEXTBEGIN
1070
    73
1070
     1
1070
    44
1040
1.0
1070
    74
1070
     0
1000
MTEXTEND
  0
POINT
  5
22A39
330
2274E
100
AcDbEntity
  8
DEFPOINTS
 62
     0
 48
50.0
100
AcDbPoint
 10
6008.600000000001
 20
6188.211798685437
 30
0.0
  0
POINT
  5
22A3A
330
2274E
100
AcDbEntity
  8
DEFPOINTS
 62
     0
 48
50.0
100
AcDbPoint
 10
6008.600000000008
 20
6263.211798685438
 30
0.0
  0
POINT
  5
22A3B
330
2274E
100
AcDbEntity
  8
DEFPOINTS
 62
     0
 48
50.0
100
AcDbPoint
 10
5772.312481891147
 20
6263.211798685438
 30
0.0
  0
ENDBLK
  5
2275B
330
2274E
100
AcDbEntity
  8
0
 48
50.0
100
AcDbBlockEnd
  0
BLOCK
  5
22D5A
330
22D50
100
AcDbEntity
  8
0
 48
50.0
100
AcDbBlockBegin
  2
*D51
 70
     1
 10
0.0
 20
0.0
 30
0.0
  3
*D51
  1

  0
LINE
  5
22D9A
330
22D50
100
AcDbEntity
  8
寸法
 62
     0
 48
50.0
370
    -2
100
AcDbLine
 10
6194.60097241096
 20
2248.841310031426
 30
0.0
 11
6194.60097241096
 21
2813.426069926901
 31
0.0
  0
LINE
  5
22D9B
330
22D50
100
AcDbEntity
  8
寸法
 62
     0
 48
50.0
370
    -2
100
AcDbLine
 10
5954.60097241096
 20
2248.841310031426
 30
0.0
 11
5954.60097241096
 21
2813.426069926901
 31
0.0
  0
LINE
  5
22D9C
330
22D50
100
AcDbEntity
  8
寸法
 62
     0
 48
50.0
370
    -2
100
AcDbLine
 10
6194.60097241096
 20
2753.426069926901
 30
0.0
 11
5954.60097241096
 21
2753.426069926901
 31
0.0
  0
INSERT
  5
22D9D
330
22D50
100
AcDbEntity
  8
寸法
 62
     0
 48
50.0
370
    -2
100
AcDbBlockReference
  2
_DOTSMALL
 10
6194.60097241096
 20
2753.426069926901
 30
0.0
 41
100.0
 42
100.0
 43
100.0
  0
INSERT
  5
22D9E
330
22D50
100
AcDbEntity
  8
寸法
 62
     0
 48
50.0
370
    -2
100
AcDbBlockReference
  2
_DOTSMALL
 10
5954.60097241096
 20
2753.426069926901
 30
0.0
 41
100.0
 42
100.0
 43
100.0
 50
180.0
  0
MTEXT
  5
22D9F
330
22D50
100
AcDbEntity
  8
寸法
 62
     7
 48
50.0
100
AcDbMText
 10
6074.600972410959
 20
2959.466882491705
 30
0.0
 40
120.0
 41
0.0
 71
     5
 72
     1
  1
\A1;120\P(195)
  7
STYLE1
 73
     1
 44
1.0
1001
ACAD
1000
MTEXTBEGIN
1070
    73
1070
     1
1070
    44
1040
1.0
1070
    74
1070
     0
1000
MTEXTEND
  0
POINT
  5
22DA0
330
22D50
100
AcDbEntity
  8
DEFPOINTS
 62
     0
 48
50.0
100
AcDbPoint
 10
6194.60097241096
 20
2228.841310031425
 30
0.0
  0
POINT
  5
22DA1
330
22D50
100
AcDbEntity
  8
DEFPOINTS
 62
     0
 48
50.0
100
AcDbPoint
 10
5954.60097241096
 20
2228.841310031425
 30
0.0
  0
POINT
  5
22DA2
330
22D50
100
AcDbEntity
  8
DEFPOINTS
 62
     0
 48
50.0
100
AcDbPoint
 10
5954.60097241096
 20
2753.426069926901
 30
0.0
  0
ENDBLK
  5
22D5B
330
22D50
100
AcDbEntity
  8
0
 48
50.0
100
AcDbBlockEnd
  0
BLOCK
  5
22D66
330
22D5C
100
AcDbEntity
  8
0
 48
50.0
100
AcDbBlockBegin
  2
*D52
 70
     1
 10
0.0
 20
0.0
 30
0.0
  3
*D52
  1

  0
LINE
  5
22DA3
330
22D5C
100
AcDbEntity
  8
寸法
 62
     0
 48
50.0
370
    -2
100
AcDbLine
 10
5774.60097241096
 20
1548.841310031423
 30
0.0
 11
5556.575580245385
 21
1548.841310031424
 31
0.0
  0
LINE
  5
22DA4
330
22D5C
100
AcDbEntity
  8
寸法
 62
     0
 48
50.0
370
    -2
100
AcDbLine
 10
5674.600972410964
 20
1248.841310031424
 30
0.0
 11
5556.575580245385
 21
1248.841310031424
 31
0.0
  0
LINE
  5
22DA5
330
22D5C
100
AcDbEntity
  8
寸法
 62
     0
 48
50.0
370
    -2
100
AcDbLine
 10
5616.575580245385
 20
1548.841310031424
 30
0.0
 11
5616.575580245385
 21
1248.841310031424
 31
0.0
  0
INSERT
  5
22DA6
330
22D5C
100
AcDbEntity
  8
寸法
 62
     0
 48
50.0
370
    -2
100
AcDbBlockReference
  2
_DOTSMALL
 10
5616.575580245385
 20
1548.841310031424
 30
0.0
 41
100.0
 42
100.0
 43
100.0
 50
90.0
  0
INSERT
  5
22DA7
330
22D5C
100
AcDbEntity
  8
寸法
 62
     0
 48
50.0
370
    -2
100
AcDbBlockReference
  2
_DOTSMALL
 10
5616.575580245385
 20
1248.841310031424
 30
0.0
 41
100.0
 42
100.0
 43
100.0
 50
270.0
  0
MTEXT
  5
22DA8
330
22D5C
100
AcDbEntity
  8
寸法
 62
     7
 48
50.0
100
AcDbMText
 10
5516.575580245385
 20
1398.841310031424
 30
0.0
 40
120.0
 41
0.0
 71
     5
 72
     1
  1
\A1;150
  7
STYLE1
 11
0.0000000000000001
 21
1.0
 31
0.0
 73
     1
 44
1.0
1001
ACAD
1000
MTEXTBEGIN
1070
    73
1070
     1
1070
    44
1040
1.0
1070
    74
1070
     0
1000
MTEXTEND
  0
POINT
  5
22DA9
330
22D5C
100
AcDbEntity
  8
DEFPOINTS
 62
     0
 48
50.0
100
AcDbPoint
 10
5794.60097241096
 20
1548.841310031423
 30
0.0
  0
POINT
  5
22DAA
330
22D5C
100
AcDbEntity
  8
DEFPOINTS
 62
     0
 48
50.0
100
AcDbPoint
 10
5694.600972410964
 20
1248.841310031424
 30
0.0
  0
POINT
  5
22DAB
330
22D5C
100
AcDbEntity
  8
DEFPOINTS
 62
     0
 48
50.0
100
AcDbPoint
 10
5616.575580245385
 20
1248.841310031424
 30
0.0
  0
ENDBLK
  5
22D67
330
22D5C
100
AcDbEntity
  8
0
 48
50.0
100
AcDbBlockEnd
  0
BLOCK
  5
22D72
330
22D68
100
AcDbEntity
  8
0
 48
50.0
100
AcDbBlockBegin
  2
*D53
 70
     1
 10
0.0
 20
0.0
 30
0.0
  3
*D53
  1

  0
LINE
  5
22DAC
330
22D68
100
AcDbEntity
  8
寸法
 62
     0
 48
50.0
370
    -2
100
AcDbLine
 10
5934.60097241096
 20
2228.841310031425
 30
0.0
 11
5133.956034374897
 21
2228.841310031425
 31
0.0
  0
LINE
  5
22DAD
330
22D68
100
AcDbEntity
  8
寸法
 62
     0
 48
50.0
370
    -2
100
AcDbLine
 10
5674.600972410964
 20
1248.841310031424
 30
0.0
 11
5133.956034374897
 21
1248.841310031424
 31
0.0
  0
LINE
  5
22DAE
330
22D68
100
AcDbEntity
  8
寸法
 62
     0
 48
50.0
370
    -2
100
AcDbLine
 10
5193.956034374897
 20
2228.841310031425
 30
0.0
 11
5193.956034374896
 21
1248.841310031424
 31
0.0
  0
INSERT
  5
22DAF
330
22D68
100
AcDbEntity
  8
寸法
 62
     0
 48
50.0
370
    -2
100
AcDbBlockReference
  2
_DOTSMALL
 10
5193.956034374897
 20
2228.841310031425
 30
0.0
 41
100.0
 42
100.0
 43
100.0
 50
90.0
  0
INSERT
  5
22DB0
330
22D68
100
AcDbEntity
  8
寸法
 62
     0
 48
50.0
370
    -2
100
AcDbBlockReference
  2
_DOTSMALL
 10
5193.956034374896
 20
1248.841310031424
 30
0.0
 41
100.0
 42
100.0
 43
100.0
 50
270.0
  0
MTEXT
  5
22DB1
330
22D68
100
AcDbEntity
  8
寸法
 62
     7
 48
50.0
100
AcDbMText
 10
5093.956034374897
 20
1738.841310031424
 30
0.0
 40
120.0
 41
0.0
 71
     5
 72
     1
  1
\A1;540
  7
STYLE1
 11
0.0000000000000001
 21
1.0
 31
0.0
 73
     1
 44
1.0
1001
ACAD
1000
MTEXTBEGIN
1070
    73
1070
     1
1070
    44
1040
1.0
1070
    74
1070
     0
1000
MTEXTEND
  0
POINT
  5
22DB2
330
22D68
100
AcDbEntity
  8
DEFPOINTS
 62
     0
 48
50.0
100
AcDbPoint
 10
5954.60097241096
 20
2228.841310031425
 30
0.0
  0
POINT
  5
22DB3
330
22D68
100
AcDbEntity
  8
DEFPOINTS
 62
     0
 48
50.0
100
AcDbPoint
 10
5694.600972410964
 20
1248.841310031424
 30
0.0
  0
POINT
  5
22DB4
330
22D68
100
AcDbEntity
  8
DEFPOINTS
 62
     0
 48
50.0
100
AcDbPoint
 10
5193.956034374896
 20
1248.841310031424
 30
0.0
  0
ENDBLK
  5
22D73
330
22D68
100
AcDbEntity
  8
0
 48
50.0
100
AcDbBlockEnd
  0
BLOCK
  5
22D7E
330
22D74
100
AcDbEntity
  8
0
 48
50.0
100
AcDbBlockBegin
  2
*D54
 70
     1
 10
0.0
 20
0.0
 30
0.0
  3
*D54
  1

  0
LINE
  5
22DB5
330
22D74
100
AcDbEntity
  8
寸法
 62
     0
 48
50.0
370
    -2
100
AcDbLine
 10
5794.60097241096
 20
1068.841310031424
 30
0.0
 11
5794.60097241096
 21
729.889203575491
 31
0.0
  0
LINE
  5
22DB6
330
22D74
100
AcDbEntity
  8
寸法
 62
     0
 48
50.0
370
    -2
100
AcDbLine
 10
6354.600972410961
 20
1068.841310031424
 30
0.0
 11
6354.600972410961
 21
729.889203575491
 31
0.0
  0
LINE
  5
22DB7
330
22D74
100
AcDbEntity
  8
寸法
 62
     0
 48
50.0
370
    -2
100
AcDbLine
 10
5794.60097241096
 20
789.889203575491
 30
0.0
 11
6354.600972410961
 21
789.889203575491
 31
0.0
  0
INSERT
  5
22DB8
330
22D74
100
AcDbEntity
  8
寸法
 62
     0
 48
50.0
370
    -2
100
AcDbBlockReference
  2
_DOTSMALL
 10
5794.60097241096
 20
789.889203575491
 30
0.0
 41
100.0
 42
100.0
 43
100.0
 50
180.0
  0
INSERT
  5
22DB9
330
22D74
100
AcDbEntity
  8
寸法
 62
     0
 48
50.0
370
    -2
100
AcDbBlockReference
  2
_DOTSMALL
 10
6354.600972410961
 20
789.889203575491
 30
0.0
 41
100.0
 42
100.0
 43
100.0
  0
MTEXT
  5
22DBA
330
22D74
100
AcDbEntity
  8
寸法
 62
     7
 48
50.0
100
AcDbMText
 10
6074.600972410959
 20
889.889203575491
 30
0.0
 40
120.0
 41
0.0
 71
     5
 72
     1
  1
\A1;300
  7
STYLE1
 73
     1
 44
1.0
1001
ACAD
1000
MTEXTBEGIN
1070
    73
1070
     1
1070
    44
1040
1.0
1070
    74
1070
     0
1000
MTEXTEND
  0
POINT
  5
22DBB
330
22D74
100
AcDbEntity
  8
DEFPOINTS
 62
     0
 48
50.0
100
AcDbPoint
 10
5794.60097241096
 20
1088.841310031424
 30
0.0
  0
POINT
  5
22DBC
330
22D74
100
AcDbEntity
  8
DEFPOINTS
 62
     0
 48
50.0
100
AcDbPoint
 10
6354.600972410961
 20
1088.841310031424
 30
0.0
  0
POINT
  5
22DBD
330
22D74
100
AcDbEntity
  8
DEFPOINTS
 62
     0
 48
50.0
100
AcDbPoint
 10
6354.600972410961
 20
789.889203575491
 30
0.0
  0
ENDBLK
  5
22D7F
330
22D74
100
AcDbEntity
  8
0
 48
50.0
100
AcDbBlockEnd
  0
BLOCK
  5
22D8A
330
22D80
100
AcDbEntity
  8
0
 48
50.0
100
AcDbBlockBegin
  2
*D55
 70
     1
 10
0.0
 20
0.0
 30
0.0
  3
*D55
  1

  0
LINE
  5
22DBE
330
22D80
100
AcDbEntity
  8
寸法
 62
     0
 48
50.0
370
    -2
100
AcDbLine
 10
8617.150113882454
 20
2228.841310031425
 30
0.0
 11
9284.485863593509
 21
2228.841310031425
 31
0.0
  0
LINE
  5
22DBF
330
22D80
100
AcDbEntity
  8
寸法
 62
     0
 48
50.0
370
    -2
100
AcDbLine
 10
8617.150113882454
 20
1823.841310031424
 30
0.0
 11
9284.485863593509
 21
1823.841310031423
 31
0.0
  0
LINE
  5
22DC0
330
22D80
100
AcDbEntity
  8
寸法
 62
     0
 48
50.0
370
    -2
100
AcDbLine
 10
9224.485863593509
 20
2228.841310031425
 30
0.0
 11
9224.485863593509
 21
1823.841310031423
 31
0.0
  0
INSERT
  5
22DC1
330
22D80
100
AcDbEntity
  8
寸法
 62
     0
 48
50.0
370
    -2
100
AcDbBlockReference
  2
_DOTSMALL
 10
9224.485863593509
 20
2228.841310031425
 30
0.0
 41
100.0
 42
100.0
 43
100.0
 50
90.0
  0
INSERT
  5
22DC2
330
22D80
100
AcDbEntity
  8
寸法
 62
     0
 48
50.0
370
    -2
100
AcDbBlockReference
  2
_DOTSMALL
 10
9224.485863593509
 20
1823.841310031423
 30
0.0
 41
100.0
 42
100.0
 43
100.0
 50
270.0
  0
MTEXT
  5
22DC3
330
22D80
100
AcDbEntity
  8
寸法
 62
     7
 48
50.0
100
AcDbMText
 10
9124.485863593509
 20
2026.341310031426
 30
0.0
 40
120.0
 41
0.0
 71
     5
 72
     1
  1
\A1;180
  7
STYLE1
 11
0.0000000000000001
 21
1.0
 31
0.0
 73
     1
 44
1.0
1001
ACAD
1000
MTEXTBEGIN
1070
    73
1070
     1
1070
    44
1040
1.0
1070
    74
1070
     0
1000
MTEXTEND
  0
POINT
  5
22DC4
330
22D80
100
AcDbEntity
  8
DEFPOINTS
 62
     0
 48
50.0
100
AcDbPoint
 10
8597.150113882454
 20
2228.841310031425
 30
0.0
  0
POINT
  5
22DC5
330
22D80
100
AcDbEntity
  8
DEFPOINTS
 62
     0
 48
50.0
100
AcDbPoint
 10
8597.150113882454
 20
1823.841310031424
 30
0.0
  0
POINT
  5
22DC6
330
22D80
100
AcDbEntity
  8
DEFPOINTS
 62
     0
 48
50.0
100
AcDbPoint
 10
9224.485863593509
 20
1823.841310031423
 30
0.0
  0
ENDBLK
  5
22D8B
330
22D80
100
AcDbEntity
  8
0
 48
50.0
100
AcDbBlockEnd
  0
BLOCK
  5
22D98
330
22D8C
100
AcDbEntity
  8
0
 48
50.0
100
AcDbBlockBegin
  2
*D56
 70
     1
 10
0.0
 20
0.0
 30
0.0
  3
*D56
  1

  0
LINE
  5
22DC7
330
22D8C
100
AcDbEntity
  8
寸法
 62
     0
 48
50.0
370
    -2
100
AcDbLine
 10
8383.150113882454
 20
2294.791310031425
 30
0.0
 11
9629.554196242294
 21
2294.791310031425
 31
0.0
  0
LINE
  5
22DC8
330
22D8C
100
AcDbEntity
  8
寸法
 62
     0
 48
50.0
370
    -2
100
AcDbLine
 10
8617.150113882454
 20
2228.841310031425
 30
0.0
 11
9629.554196242294
 21
2228.841310031425
 31
0.0
  0
LINE
  5
22DC9
330
22D8C
100
AcDbEntity
  8
寸法
 62
     0
 48
50.0
370
    -2
100
AcDbLine
 10
9569.554196242291
 20
2294.791310031425
 30
0.0
 11
9569.554196242291
 21
2394.791310031425
 31
0.0
  0
LINE
  5
22DCA
330
22D8C
100
AcDbEntity
  8
寸法
 62
     0
 48
50.0
370
    -2
100
AcDbLine
 10
9569.554196242291
 20
2228.841310031425
 30
0.0
 11
9569.554196242291
 21
1496.823503188459
 31
0.0
  0
LINE
  5
22DCB
330
22D8C
100
AcDbEntity
  8
寸法
 62
     0
 48
50.0
370
    -2
100
AcDbLine
 10
9569.554196242291
 20
2294.791310031425
 30
0.0
 11
9569.554196242291
 21
2228.841310031425
 31
0.0
  0
INSERT
  5
22DCC
330
22D8C
100
AcDbEntity
  8
寸法
 62
     0
 48
50.0
370
    -2
100
AcDbBlockReference
  2
_DOTSMALL
 10
9569.554196242291
 20
2294.791310031425
 30
0.0
 41
100.0
 42
100.0
 43
100.0
 50
270.0
  0
INSERT
  5
22DCD
330
22D8C
100
AcDbEntity
  8
寸法
 62
     0
 48
50.0
370
    -2
100
AcDbBlockReference
  2
_DOTSMALL
 10
9569.554196242291
 20
2228.841310031425
 30
0.0
 41
100.0
 42
100.0
 43
100.0
 50
90.0
  0
MTEXT
  5
22DCE
330
22D8C
100
AcDbEntity
  8
寸法
 62
     7
 48
50.0
100
AcDbMText
 10
9469.542385218671
 20
1762.832406609943
 30
0.0
 40
120.0
 41
0.0
 71
     5
 72
     1
  1
\A1;20～25
  7
STYLE1
 11
0.0000000000000001
 21
1.0
 31
0.0
 73
     1
 44
1.0
1001
ACAD
1000
MTEXTBEGIN
1070
    73
1070
     1
1070
    44
1040
1.0
1070
    74
1070
     0
1000
MTEXTEND
  0
POINT
  5
22DCF
330
22D8C
100
AcDbEntity
  8
DEFPOINTS
 62
     0
 48
50.0
100
AcDbPoint
 10
8363.150113882452
 20
2294.791310031425
 30
0.0
  0
POINT
  5
22DD0
330
22D8C
100
AcDbEntity
  8
DEFPOINTS
 62
     0
 48
50.0
100
AcDbPoint
 10
8597.150113882454
 20
2228.841310031425
 30
0.0
  0
POINT
  5
22DD1
330
22D8C
100
AcDbEntity
  8
DEFPOINTS
 62
     0
 48
50.0
100
AcDbPoint
 10
9569.554196242291
 20
2228.841310031425
 30
0.0
  0
ENDBLK
  5
22D99
330
22D8C
100
AcDbEntity
  8
0
 48
50.0
100
AcDbBlockEnd
  0
ENDSEC
  0
SECTION
  2
ENTITIES
  0
MTEXT
  5
763F
330
747D
100
AcDbEntity
  8
0
100
AcDbMText
 10
302.846345836809
 20
280.1983726409901
 30
0.0
 40
3.5
 41
5.323721266742722
 71
     1
 72
     5
  1

  7
MSMINCHO
 73
     1
 44
1.0
1001
ACAD
1000
MTEXTBEGIN
1070
    73
1070
     1
1070
    44
1040
1.0
1070
    74
1070
     0
1000
MTEXTEND
  0
LINE
  5
10B57
330
747D
100
AcDbEntity
  8
補助
  6
PHANTOM
 62
   230
 48
50.0
100
AcDbLine
 10
139.9999999999995
 20
11409.6
 30
0.0
 11
16307.2
 21
11409.6
 31
0.0
  0
LINE
  5
10B59
330
747D
100
AcDbEntity
  8
仕様書枠
  6
Continuous
 48
50.0
100
AcDbLine
 10
13107.2
 20
1200.0
 30
0.0
 11
13107.2
 21
-0.0000000000000729
 31
0.0
  0
LINE
  5
10B5D
330
747D
100
AcDbEntity
  8
仕様書枠
 48
50.0
100
AcDbLine
 10
140.0
 20
0.0
 30
0.0
 11
16307.2
 21
-0.0000000000000909
 31
0.0
  0
LINE
  5
10B5E
330
747D
100
AcDbEntity
  8
補助
  6
PHANTOM
 62
   230
 48
50.0
100
AcDbLine
 10
16307.2
 20
11409.6
 30
0.0
 11
16307.2
 21
1200.0
 31
0.0
  0
LINE
  5
10B6C
330
747D
100
AcDbEntity
  8
仕様書枠
 48
50.0
100
AcDbLine
 10
13107.2
 20
1200.0
 30
0.0
 11
16307.2
 21
1200.0
 31
0.0
  0
TEXT
  5
10B73
330
747D
100
AcDbEntity
  8
文字
 62
     7
 48
50.0
100
AcDbText
 10
13162.9790565769
 20
895.0906074299405
 30
0.0
 40
200.0
  1
基 礎 図
  7
STYLE2
100
AcDbText
  0
LINE
  5
10B7B
330
747D
100
AcDbEntity
  8
仕様書枠
 48
50.0
100
AcDbLine
 10
13107.2
 20
800.0
 30
0.0
 11
14251.2
 21
800.0
 31
0.0
  0
LINE
  5
10B88
330
747D
100
AcDbEntity
  8
仕様書枠
  6
Continuous
 48
50.0
100
AcDbLine
 10
14251.2
 20
1200.0
 30
0.0
 11
14251.2
 21
800.0
 31
0.0
  0
LINE
  5
16462
330
747D
100
AcDbEntity
  8
仕様書枠
 48
50.0
100
AcDbLine
 10
16307.2
 20
1200.0
 30
0.0
 11
16307.2
 21
-0.0000000000000909
 31
0.0
  0
LINE
  5
1903B
330
747D
100
AcDbEntity
  8
補助
  6
PHANTOM
 62
   230
 48
50.0
100
AcDbLine
 10
140.0
 20
0.0
 30
0.0
 11
139.9999999999995
 21
11409.6
 31
0.0
  0
LEADER
  5
1AC27
330
747D
100
AcDbEntity
  8
寸法
 48
50.0
100
AcDbLeader
  3
INABA_S50G
 73
     0
 74
     0
 75
     1
 40
120.0
 41
720.0000000000001
 76
     3
 10
10438.69549961499
 20
7222.315249872557
 30
0.0
 10
10595.46907400128
 20
6961.301336304725
 30
0.0
 10
10720.46907400128
 20
6961.301336304725
 30
0.0
340
1AC28
1001
ACAD
1000
DSTYLE
1002
{
1070
   341
1005
0
1070
    40
1040
1.0
1070
   343
1005
0
1070
   344
1005
0
1002
}
  0
MTEXT
  5
1AC28
102
{ACAD_REACTORS
330
1AC27
102
}
330
747D
100
AcDbEntity
  8
部品1
 62
     7
 48
50.0
100
AcDbMText
 10
11465.46907400128
 20
7046.301336304724
 30
0.0
 40
120.0
 41
0.0
 71
     6
 72
     1
  1
\A1;床下換気口
  7
STYLE1
 73
     1
 44
1.0
1001
ACAD
1000
MTEXTBEGIN
1070
    73
1070
     1
1070
    44
1040
1.0
1070
    74
1070
     0
1000
MTEXTEND
  0
TEXT
  5
1AC29
330
747D
100
AcDbEntity
  8
部品1
 48
50.0
100
AcDbText
 10
10787.43013846118
 20
5988.120897348607
 30
0.0
 40
80.0
  1
(a=45,b=55,c=75)
  7
STYLE1
100
AcDbText
  0
TEXT
  5
1AC2A
330
747D
100
AcDbEntity
  8
部品1
 48
50.0
100
AcDbText
 10
10628.85112970687
 20
6094.96611821736
 30
0.0
 40
80.0
  1
※a,b,cは屋根の出幅です。
  7
STYLE1
100
AcDbText
  0
MTEXT
  5
1AC2B
102
{ACAD_REACTORS
330
1AC2C
102
}
330
747D
100
AcDbEntity
  8
部品1
 62
     7
 48
50.0
100
AcDbMText
 10
11426.63832569548
 20
6274.276805150435
 30
0.0
 40
120.0
 41
0.0
 71
     6
 72
     1
  1
\A1;屋根の外寸
  7
STYLE1
 73
     1
 44
1.0
1001
ACAD
1000
MTEXTBEGIN
1070
    73
1070
     1
1070
    44
1040
1.0
1070
    74
1070
     0
1000
MTEXTEND
  0
LEADER
  5
1AC2C
330
747D
100
AcDbEntity
  8
寸法
 48
50.0
100
AcDbLeader
  3
INABA_S50G
 73
     0
 74
     0
 75
     1
 40
120.0
 41
672.0
 76
     3
 10
10488.69831350344
 20
6448.166148614011
 30
0.0
 10
10604.63832569548
 20
6189.276805150435
 30
0.0
 10
10729.63832569548
 20
6189.276805150435
 30
0.0
340
1AC2B
1001
ACAD
1000
DSTYLE
1002
{
1070
   341
1005
0
1070
    40
1040
1.0
1070
   343
1005
0
1070
   344
1005
0
1002
}
  0
TEXT
  5
1C7A1
330
747D
100
AcDbEntity
  8
文字
 62
     7
 48
50.0
100
AcDbText
 10
13188.16259899338
 20
79.80631269190417
 30
0.0
 40
80.0
  1
※布基礎には換気口を設けてください。
  7
STYLE2
100
AcDbText
  0
TEXT
  5
1C7E7
330
747D
100
AcDbEntity
  8
文字
 62
     7
 48
50.0
100
AcDbText
 10
13188.16259899338
 20
246.7109242801889
 30
0.0
 40
80.0
  1
※寒冷地等は地域の実情に合わせた基礎にして下さい。
  7
STYLE2
100
AcDbText
  0
TEXT
  5
1C7E8
330
747D
100
AcDbEntity
  8
文字
 62
     7
 48
50.0
100
AcDbText
 10
14478.98566430227
 20
499.5983841039506
 30
0.0
 40
160.0
  1
ＮＸＮ－８１Ｈ
  7
STYLE2
100
AcDbText
  0
TEXT
  5
1C7E9
330
747D
100
AcDbEntity
  8
文字
 62
     7
 48
50.0
100
AcDbText
 10
14641.2525855784
 20
871.1744590657927
 30
0.0
 40
100.0
  1
～一般型・多雪地型～
  7
STYLE2
100
AcDbText
  0
TEXT
  5
1C7EC
330
747D
100
AcDbEntity
  8
文字
 62
     7
 48
50.0
100
AcDbText
 10
14524.131837222
 20
1031.557706291229
 30
0.0
 40
100.0
  1
      <縮尺> S=1/40
  7
STYLE2
100
AcDbText
  0
TEXT
  5
1C7ED
330
747D
100
AcDbEntity
  8
文字
 62
     7
 48
50.0
100
AcDbText
 10
13201.43669998441
 20
477.2740661031257
 30
0.0
 40
160.0
  1
機種名
  7
STYLE2
100
AcDbText
  0
LINE
  5
1C7EF
330
747D
100
AcDbEntity
  8
文字
 62
     7
 48
50.0
100
AcDbLine
 10
13187.2
 20
400.0
 30
0.0
 11
16227.2
 21
400.0
 31
0.0
  0
MTEXT
  5
1D2D5
102
{ACAD_REACTORS
330
1D2D6
102
}
330
747D
100
AcDbEntity
  8
部品1
 62
     7
 48
50.0
100
AcDbMText
 10
11633.99523070988
 20
8378.824542927903
 30
0.0
 40
120.0
 41
0.0
 71
     6
 72
     1
  1
アンカーボルト
  7
STYLE1
 73
     1
 44
1.0
1001
ACAD
1000
MTEXTBEGIN
1070
    73
1070
     1
1070
    44
1040
1.0
1070
    74
1070
     0
1000
MTEXTEND
  0
LEADER
  5
1D2D6
330
747D
100
AcDbEntity
  8
寸法
 48
50.0
100
AcDbLeader
  3
INABA_S50G
 73
     0
 74
     0
 75
     1
 40
120.0
 41
994.3492424049171
 76
     3
 10
10315.680085757
 20
7940.419643044106
 30
0.0
 10
10489.64598830496
 20
8293.824542927904
 30
0.0
 10
10614.64598830496
 20
8293.824542927904
 30
0.0
340
1D2D5
1001
ACAD
1000
DSTYLE
1002
{
1070
   341
1005
0
1070
    40
1040
1.0
1070
   343
1005
0
1070
   344
1005
0
1002
}
  0
MTEXT
  5
1D332
102
{ACAD_REACTORS
330
1D333
102
}
330
747D
100
AcDbEntity
  8
部品1
 62
     7
 48
50.0
100
AcDbMText
 10
7175.440328953415
 20
6911.031857207877
 30
0.0
 40
120.0
 41
0.0
 71
     6
 72
     1
  1
CB
  7
STYLE1
 73
     1
 44
1.0
1001
ACAD
1000
MTEXTBEGIN
1070
    73
1070
     1
1070
    44
1040
1.0
1070
    74
1070
     0
1000
MTEXTEND
  0
LEADER
  5
1D333
330
747D
100
AcDbEntity
  8
寸法
 48
50.0
100
AcDbLeader
  3
INABA_S50G
 73
     0
 74
     0
 75
     1
 40
120.0
 41
149.591883092037
 76
     3
 10
6748.565642998734
 20
7087.045770775709
 30
0.0
 10
6875.848445861378
 20
6826.031857207877
 30
0.0
 10
7000.848445861378
 20
6826.031857207877
 30
0.0
340
1D332
1001
ACAD
1000
DSTYLE
1002
{
1070
   341
1005
0
1070
    40
1040
1.0
1070
   343
1005
0
1070
   344
1005
0
1002
}
  0
DIMENSION
  5
1DAC7
330
747D
100
AcDbEntity
  8
寸法
 48
50.0
100
AcDbDimension
  2
*D19
 10
8463.202780124335
 20
6263.211798685404
 30
0.0
 11
8463.202780124332
 21
5654.726517311164
 31
0.0
 70
   160
  1
扉の出<>
 71
     5
 42
75.00000000000091
  3
INABA_S40G
100
AcDbAlignedDimension
 13
8196.600000000001
 23
6188.211798685403
 33
0.0
 14
8196.600000000003
 24
6263.211798685404
 34
0.0
 50
90.0
100
AcDbRotatedDimension
1001
ACAD
1000
DSTYLE
1002
{
1070
   341
1005
0
1002
}
  0
DIMENSION
  5
1F244
330
747D
100
AcDbEntity
  8
寸法
 48
50.0
100
AcDbDimension
  2
*D20
 10
8670.14438614211
 20
6383.211798685409
 30
0.0
 11
8670.144386142109
 21
5926.923493717457
 31
0.0
 70
   160
 71
     5
 42
119.9999999999845
  3
INABA_S40G
100
AcDbAlignedDimension
 13
8307.419180988159
 23
6263.211798685425
 33
0.0
 14
8782.786001592285
 24
6383.211798685409
 34
0.0
 50
90.0
100
AcDbRotatedDimension
1001
ACAD
1000
DSTYLE
1002
{
1070
   341
1005
0
1002
}
  0
DIMENSION
  5
1F245
330
747D
100
AcDbEntity
  8
寸法
 48
50.0
100
AcDbDimension
  2
*D21
 10
8670.14438614211
 20
6493.211798685415
 30
0.0
 11
8670.144386142109
 21
6763.27085380354
 31
0.0
 70
   160
 71
     5
 42
110.0000000000063
  3
INABA_S40G
100
AcDbAlignedDimension
 13
8782.786001592285
 23
6383.211798685409
 33
0.0
 14
8235.600000000001
 24
6493.211798685415
 34
0.0
 50
90.0
100
AcDbRotatedDimension
1001
ACAD
1000
DSTYLE
1002
{
1070
   341
1005
0
1002
}
  0
DIMENSION
  5
1F246
330
747D
100
AcDbEntity
  8
寸法
 48
50.0
100
AcDbDimension
  2
*D22
 10
8223.600000000001
 20
8590.121564333726
 30
0.0
 11
8603.599999999998
 21
8690.121564333725
 31
0.0
 70
    32
 71
     5
 42
759.9999999999981
  3
INABA_S40G
100
AcDbAlignedDimension
 13
8983.599999999999
 23
7263.211798685405
 33
0.0
 14
8223.600000000001
 24
7263.211798685397
 34
0.0
100
AcDbRotatedDimension
1001
ACAD
1000
DSTYLE
1002
{
1070
   341
1005
0
1002
}
  0
DIMENSION
  5
1F247
330
747D
100
AcDbEntity
  8
寸法
 48
50.0
100
AcDbDimension
  2
*D23
 10
8105.6
 20
8808.971425227481
 30
0.0
 11
9210.600000000001
 21
8908.983236251103
 31
0.0
 70
    32
 71
     5
 42
2210.0
  3
INABA_S40G
100
AcDbAlignedDimension
 13
10315.6
 23
7990.211798685398
 33
0.0
 14
8105.6
 24
7990.211798685398
 34
0.0
100
AcDbRotatedDimension
1001
ACAD
1000
DSTYLE
1002
{
1070
   341
1005
0
1002
}
  0
DIMENSION
  5
1F248
330
747D
100
AcDbEntity
  8
寸法
 48
50.0
100
AcDbDimension
  2
*D24
 10
10438.6
 20
9021.432120744318
 30
0.0
 11
8223.600000000001
 21
9121.432120744318
 31
0.0
 70
    32
 71
     5
 42
4430.0
  3
INABA_S40G
100
AcDbAlignedDimension
 13
6008.600000000001
 23
8063.211798685397
 33
0.0
 14
10438.6
 24
8063.211798685397
 34
0.0
100
AcDbRotatedDimension
1001
ACAD
1000
DSTYLE
1002
{
1070
   341
1005
0
1002
}
  0
LINE
  5
1F249
330
747D
100
AcDbEntity
  8
部品1
 48
50.0
100
AcDbLine
 10
10208.6
 20
7943.211798685395
 30
0.0
 11
8235.600000000001
 21
7943.211798685398
 31
0.0
  0
LINE
  5
1F24A
330
747D
100
AcDbEntity
  8
部品1
 48
50.0
100
AcDbLine
 10
10208.6
 20
6383.211798685413
 30
0.0
 11
8235.600000000001
 21
6383.211798685408
 31
0.0
  0
LINE
  5
1F24B
330
747D
100
AcDbEntity
  8
部品1
 48
50.0
100
AcDbLine
 10
10438.6
 20
6263.211798685415
 30
0.0
 11
8196.600000000001
 21
6263.211798685397
 31
0.0
  0
LINE
  5
1F24C
330
747D
100
AcDbEntity
  8
部品1
 48
50.0
100
AcDbLine
 10
10438.6
 20
8063.211798685397
 30
0.0
 11
6008.600000000001
 21
8063.211798685397
 31
0.0
  0
DIMENSION
  5
1F250
330
747D
100
AcDbEntity
  8
寸法
 48
50.0
100
AcDbDimension
  2
*D25
 10
7975.6
 20
6806.369337512554
 30
0.0
 11
8105.6
 21
6906.381148536175
 31
0.0
 70
    32
 71
     5
 42
260.0
  3
INABA_S40G
100
AcDbAlignedDimension
 13
8235.600000000001
 23
6493.211798685415
 33
0.0
 14
7975.6
 24
6493.211798685415
 34
0.0
100
AcDbRotatedDimension
1001
ACAD
1000
DSTYLE
1002
{
1070
   341
1005
0
1002
}
  0
DIMENSION
  5
1F251
330
747D
100
AcDbEntity
  8
寸法
 48
50.0
100
AcDbDimension
  2
*D26
 10
5512.65773398618
 20
6386.211798685399
 30
0.0
 11
5512.657733986178
 21
7163.211798685397
 31
0.0
 70
   160
 71
     5
 42
1553.999999999998
  3
INABA_S40G
100
AcDbAlignedDimension
 13
6081.6
 23
7940.211798685398
 33
0.0
 14
6081.600000000008
 24
6386.211798685399
 34
0.0
 50
90.0
100
AcDbRotatedDimension
1001
ACAD
1000
DSTYLE
1002
{
1070
   341
1005
0
1002
}
  0
DIMENSION
  5
1F252
330
747D
100
AcDbEntity
  8
寸法
 48
50.0
100
AcDbDimension
  2
*D27
 10
5260.714637266781
 20
6263.211798685397
 30
0.0
 11
5260.714637266779
 21
7163.211798685397
 31
0.0
 70
   160
 71
     5
 42
1800.0
  3
INABA_S40G
100
AcDbAlignedDimension
 13
6008.600000000001
 23
8063.211798685397
 33
0.0
 14
6008.600000000001
 24
6263.211798685397
 34
0.0
 50
90.0
100
AcDbRotatedDimension
1001
ACAD
1000
DSTYLE
1002
{
1070
   341
1005
0
1002
}
  0
LINE
  5
1F253
330
747D
100
AcDbEntity
  8
部品1
 48
50.0
100
AcDbLine
 10
6128.6
 20
6493.2117986854
 30
0.0
 11
6128.6
 21
7833.211798685394
 31
0.0
  0
LINE
  5
1F254
330
747D
100
AcDbEntity
  8
部品1
 48
50.0
100
AcDbLine
 10
6008.600000000001
 20
6263.211798685397
 30
0.0
 11
6008.600000000001
 21
8063.211798685397
 31
0.0
  0
LINE
  5
1F2B4
330
747D
100
AcDbEntity
  8
部品1
 48
50.0
100
AcDbLine
 10
7975.6
 20
6383.211798685406
 30
0.0
 11
6238.6
 21
6383.211798685401
 31
0.0
  0
DIMENSION
  5
1F2B5
330
747D
100
AcDbEntity
  8
寸法
 48
50.0
100
AcDbDimension
  2
*D28
 10
6008.600000000001
 20
5584.226068866643
 30
0.0
 11
7098.766762832856
 21
5584.226068866643
 31
0.0
 70
   160
  1
扉の幅 <>
 71
     5
 42
2188.0
  3
INABA_S40G
100
AcDbAlignedDimension
 13
8196.600000000001
 23
6188.211798685401
 33
0.0
 14
6008.600000000001
 24
6188.211798685387
 34
0.0
100
AcDbRotatedDimension
1001
ACAD
1000
DSTYLE
1002
{
1070
   341
1005
0
1002
}
  0
LINE
  5
1F2B6
330
747D
100
AcDbEntity
  8
部品1
 48
50.0
100
AcDbLine
 10
8196.600000000001
 20
6188.211798685401
 30
0.0
 11
6008.600000000001
 21
6188.211798685387
 31
0.0
  0
DIMENSION
  5
1F2B9
330
747D
100
AcDbEntity
  8
寸法
 48
50.0
100
AcDbDimension
  2
*D29
 10
5512.65773398618
 20
6263.211798685397
 30
0.0
 11
5512.657733986178
 21
5927.680849842805
 31
0.0
 70
   160
 71
     5
 42
123.0000000000018
  3
INABA_S40G
100
AcDbAlignedDimension
 13
6081.600000000008
 23
6386.211798685399
 33
0.0
 14
6008.600000000001
 24
6263.211798685397
 34
0.0
 50
90.0
100
AcDbRotatedDimension
1001
ACAD
1000
DSTYLE
1002
{
1070
   341
1005
0
1002
}
  0
LINE
  5
1F2BB
330
747D
100
AcDbEntity
  8
センター
 48
2.0
100
AcDbLine
 10
6131.600000000008
 20
6436.211798685398
 30
0.0
 11
6131.600000000008
 21
6336.2117986854
 31
0.0
  0
LINE
  5
1F2BC
330
747D
100
AcDbEntity
  8
部品1
 48
50.0
100
AcDbLine
 10
6238.6
 20
6383.211798685401
 30
0.0
 11
6238.6
 21
6493.2117986854
 31
0.0
  0
CIRCLE
  5
1F2BD
330
747D
100
AcDbEntity
  8
部品1
 48
50.0
100
AcDbCircle
 10
6131.600000000008
 20
6386.211798685399
 30
0.0
 40
35.0
  0
LINE
  5
1F2F5
330
747D
100
AcDbEntity
  8
部品1
 48
50.0
100
AcDbLine
 10
6008.600000000001
 20
6188.211798685403
 30
0.0
 11
6008.600000000001
 21
6263.211798685386
 31
0.0
  0
LINE
  5
1F2F6
330
747D
100
AcDbEntity
  8
センター
 48
2.0
100
AcDbLine
 10
6081.600000000008
 20
6386.211798685399
 30
0.0
 11
6181.600000000008
 21
6386.211798685399
 31
0.0
  0
LINE
  5
1F338
330
747D
100
AcDbEntity
  8
部品1
 48
50.0
100
AcDbLine
 10
6238.6
 20
6493.2117986854
 30
0.0
 11
6128.6
 21
6493.2117986854
 31
0.0
  0
LINE
  5
1F3A4
330
747D
100
AcDbEntity
  8
部品1
 48
50.0
100
AcDbLine
 10
7018.599999999999
 20
6383.211798685403
 30
0.0
 11
7018.600000000001
 21
6188.21179868539
 31
0.0
  0
LINE
  5
1F3E4
330
747D
100
AcDbEntity
  8
部品1
 48
50.0
100
AcDbLine
 10
7218.600000000001
 20
6383.211798685404
 30
0.0
 11
7218.600000000001
 21
6188.211798685394
 31
0.0
  0
LINE
  5
1F426
330
747D
100
AcDbEntity
  8
部品1
 48
50.0
100
AcDbLine
 10
8235.600000000001
 20
6493.211798685415
 30
0.0
 11
7975.6
 21
6493.211798685415
 31
0.0
  0
LINE
  5
1F427
330
747D
100
AcDbEntity
  8
部品1
 48
50.0
100
AcDbLine
 10
7975.6
 20
6383.211798685406
 30
0.0
 11
7975.6
 21
6493.211798685415
 31
0.0
  0
LINE
  5
1F4AA
330
747D
100
AcDbEntity
  8
部品1
 48
50.0
100
AcDbLine
 10
8235.600000000003
 20
6383.211798685409
 30
0.0
 11
8235.600000000001
 21
6493.211798685415
 31
0.0
  0
CIRCLE
  5
1F4AB
330
747D
100
AcDbEntity
  8
部品1
 48
50.0
100
AcDbCircle
 10
8105.600000000007
 20
6386.211798685399
 30
0.0
 40
35.0
  0
LINE
  5
1F4AC
330
747D
100
AcDbEntity
  8
センター
 48
2.0
100
AcDbLine
 10
8105.600000000007
 20
6436.211798685398
 30
0.0
 11
8105.600000000007
 21
6336.2117986854
 31
0.0
  0
LINE
  5
1F4DF
330
747D
100
AcDbEntity
  8
センター
 48
2.0
100
AcDbLine
 10
8055.600000000008
 20
6386.211798685399
 30
0.0
 11
8155.600000000008
 21
6386.211798685399
 31
0.0
  0
LINE
  5
1F4E0
330
747D
100
AcDbEntity
  8
部品1
 48
50.0
100
AcDbLine
 10
8196.600000000001
 20
6188.211798685403
 30
0.0
 11
8196.600000000001
 21
6263.211798685399
 31
0.0
  0
DIMENSION
  5
1F4E3
330
747D
100
AcDbEntity
  8
寸法
 48
50.0
100
AcDbDimension
  2
*D30
 10
6131.6
 20
8808.971425227481
 30
0.0
 11
7118.6
 21
8908.97142522748
 31
0.0
 70
    32
 71
     5
 42
1974.0
  3
INABA_S40G
100
AcDbAlignedDimension
 13
8105.6
 23
7990.211798685398
 33
0.0
 14
6131.6
 24
7990.211798685398
 34
0.0
100
AcDbRotatedDimension
1001
ACAD
1000
DSTYLE
1002
{
1070
   341
1005
0
1002
}
  0
LINE
  5
1F4E4
330
747D
100
AcDbEntity
  8
部品1
 48
50.0
100
AcDbLine
 10
7975.6
 20
7943.211798685398
 30
0.0
 11
6238.6
 21
7943.211798685398
 31
0.0
  0
DIMENSION
  5
1F4E5
330
747D
100
AcDbEntity
  8
寸法
 48
50.0
100
AcDbDimension
  2
*D31
 10
6008.600000000001
 20
8590.121564333726
 30
0.0
 11
6391.099999999998
 21
8690.121564333725
 31
0.0
 70
    32
 71
     5
 42
764.9999999999963
  3
INABA_S40G
100
AcDbAlignedDimension
 13
6773.599999999996
 23
7263.2117986854
 33
0.0
 14
6008.600000000001
 24
8063.211798685397
 34
0.0
100
AcDbRotatedDimension
1001
ACAD
1000
DSTYLE
1002
{
1070
   341
1005
0
1002
}
  0
DIMENSION
  5
1F4E6
330
747D
100
AcDbEntity
  8
寸法
 48
50.0
100
AcDbDimension
  2
*D32
 10
6455.307249876098
 20
7833.211798685394
 30
0.0
 11
6455.307249876098
 21
7493.152743567283
 31
0.0
 70
   160
 71
     5
 42
110.0000000000054
  3
INABA_S40G
100
AcDbAlignedDimension
 13
6238.599999999999
 23
7943.2117986854
 33
0.0
 14
6238.6
 24
7833.211798685394
 34
0.0
 50
90.0
100
AcDbRotatedDimension
1001
ACAD
1000
DSTYLE
1002
{
1070
   341
1005
0
1002
}
  0
LINE
  5
1F4E7
330
747D
100
AcDbEntity
  8
部品1
 48
50.0
100
AcDbLine
 10
6238.6
 20
7833.211798685394
 30
0.0
 11
6238.599999999999
 21
7943.211798685398
 31
0.0
  0
LINE
  5
1F4E8
330
747D
100
AcDbEntity
  8
部品1
 48
50.0
100
AcDbLine
 10
6128.600000000002
 20
7063.211798685397
 30
0.0
 11
6008.600000000001
 21
7063.211798685397
 31
0.0
  0
LINE
  5
1F4E9
330
747D
100
AcDbEntity
  8
部品1
 48
50.0
100
AcDbLine
 10
6128.600000000002
 20
7263.211798685397
 30
0.0
 11
6008.600000000001
 21
7263.211798685397
 31
0.0
  0
LINE
  5
1F4EB
330
747D
100
AcDbEntity
  8
部品1
 48
50.0
100
AcDbLine
 10
6238.6
 20
7833.211798685394
 30
0.0
 11
6128.6
 21
7833.211798685396
 31
0.0
  0
DIMENSION
  5
1F4EC
330
747D
100
AcDbEntity
  8
寸法
 48
50.0
100
AcDbDimension
  2
*D33
 10
5512.657733986179
 20
7940.211798685398
 30
0.0
 11
5512.657733986178
 21
8336.318400403198
 31
0.0
 70
   160
 71
     5
 42
123.0
  3
INABA_S40G
100
AcDbAlignedDimension
 13
6008.600000000001
 23
8063.211798685397
 33
0.0
 14
6081.6
 24
7940.211798685398
 34
0.0
 50
90.0
100
AcDbRotatedDimension
1001
ACAD
1000
DSTYLE
1002
{
1070
   341
1005
0
1002
}
  0
DIMENSION
  5
1F4ED
330
747D
100
AcDbEntity
  8
寸法
 48
50.0
100
AcDbDimension
  2
*D34
 10
6008.600000000001
 20
8808.971425227481
 30
0.0
 11
5735.493398282202
 21
8808.971425227481
 31
0.0
 70
   160
 71
     5
 42
123.0
  3
INABA_S40G
100
AcDbAlignedDimension
 13
6131.6
 23
7990.211798685398
 33
0.0
 14
6008.600000000001
 24
8063.211798685397
 34
0.0
100
AcDbRotatedDimension
1001
ACAD
1000
DSTYLE
1002
{
1070
   341
1005
0
1002
}
  0
DIMENSION
  5
1F4EE
330
747D
100
AcDbEntity
  8
寸法
 48
50.0
100
AcDbDimension
  2
*D35
 10
6455.307249876098
 20
8063.211798685395
 30
0.0
 11
6455.307249876098
 21
8341.295341958284
 31
0.0
 70
   160
 71
     5
 42
119.9999999999981
  3
INABA_S40G
100
AcDbAlignedDimension
 13
6238.599999999999
 23
7943.211798685398
 33
0.0
 14
6238.6
 24
8063.211798685395
 34
0.0
 50
90.0
100
AcDbRotatedDimension
1001
ACAD
1000
DSTYLE
1002
{
1070
   341
1005
0
1002
}
  0
LINE
  5
1F4EF
330
747D
100
AcDbEntity
  8
部品1
 48
50.0
100
AcDbLine
 10
6407.928907166848
 20
8063.211798685394
 30
0.0
 11
6008.600000000001
 21
8063.211798685397
 31
0.0
  0
LINE
  5
1F4F0
330
747D
100
AcDbEntity
  8
センター
 48
2.0
100
AcDbLine
 10
6081.6
 20
7940.211798685398
 30
0.0
 11
6181.6
 21
7940.211798685398
 31
0.0
  0
LINE
  5
1F4F1
330
747D
100
AcDbEntity
  8
センター
 48
2.0
100
AcDbLine
 10
6131.6
 20
7990.211798685398
 30
0.0
 11
6131.6
 21
7890.211798685398
 31
0.0
  0
CIRCLE
  5
1F4F2
330
747D
100
AcDbEntity
  8
部品1
 48
50.0
100
AcDbCircle
 10
6131.6
 20
7940.211798685398
 30
0.0
 40
35.0
  0
LINE
  5
1F4F3
330
747D
100
AcDbEntity
  8
部品1
 48
50.0
100
AcDbLine
 10
8235.600000000003
 20
7943.211798685398
 30
0.0
 11
8235.600000000001
 21
7833.211798685379
 31
0.0
  0
LINE
  5
1F4F4
330
747D
100
AcDbEntity
  8
部品1
 48
50.0
100
AcDbLine
 10
7975.6
 20
7943.211798685398
 30
0.0
 11
7975.6
 21
7833.211798685379
 31
0.0
  0
DIMENSION
  5
1F4F5
330
747D
100
AcDbEntity
  8
寸法
 48
50.0
100
AcDbDimension
  2
*D36
 10
7463.599999999998
 20
8590.121564333726
 30
0.0
 11
7843.599999999999
 21
8690.121564333725
 31
0.0
 70
    32
 71
     5
 42
760.0000000000027
  3
INABA_S40G
100
AcDbAlignedDimension
 13
8223.600000000001
 23
7263.211798685397
 33
0.0
 14
7463.599999999998
 24
7263.211798685398
 34
0.0
100
AcDbRotatedDimension
1001
ACAD
1000
DSTYLE
1002
{
1070
   341
1005
0
1002
}
  0
LINE
  5
1F4FE
330
747D
100
AcDbEntity
  8
センター
 48
2.0
100
AcDbLine
 10
8173.6
 20
7163.211798685397
 30
0.0
 11
8273.6
 21
7163.211798685397
 31
0.0
  0
LINE
  5
1F4FF
330
747D
100
AcDbEntity
  8
部品1
 48
50.0
100
AcDbLine
 10
8323.6
 20
7263.211798685397
 30
0.0
 11
8123.600000000001
 21
7263.211798685397
 31
0.0
  0
LINE
  5
1F500
330
747D
100
AcDbEntity
  8
部品1
 48
50.0
100
AcDbLine
 10
8323.6
 20
7063.211798685395
 30
0.0
 11
8123.600000000001
 21
7063.211798685395
 31
0.0
  0
LINE
  5
1F501
330
747D
100
AcDbEntity
  8
センター
 48
2.0
100
AcDbLine
 10
8223.600000000001
 20
7213.211798685397
 30
0.0
 11
8223.600000000001
 21
7113.211798685397
 31
0.0
  0
LINE
  5
1F502
330
747D
100
AcDbEntity
  8
部品1
 48
50.0
100
AcDbLine
 10
8123.600000000001
 20
7063.211798685397
 30
0.0
 11
8123.600000000001
 21
7263.211798685397
 31
0.0
  0
LINE
  5
1F503
330
747D
100
AcDbEntity
  8
部品1
 48
50.0
100
AcDbLine
 10
8323.6
 20
7063.211798685395
 30
0.0
 11
8323.6
 21
7263.211798685397
 31
0.0
  0
LINE
  5
1F504
330
747D
100
AcDbEntity
  8
部品1
 48
50.0
100
AcDbLine
 10
8235.600000000001
 20
7833.211798685379
 30
0.0
 11
7975.6
 21
7833.211798685379
 31
0.0
  0
LINE
  5
1F507
330
747D
100
AcDbEntity
  8
部品1
 48
50.0
100
AcDbLine
 10
7018.600000000001
 20
8063.211798685397
 30
0.0
 11
7018.599999999999
 21
7943.211798685398
 31
0.0
  0
LINE
  5
1F508
330
747D
100
AcDbEntity
  8
部品1
 48
50.0
100
AcDbLine
 10
7218.600000000001
 20
8063.211798685397
 30
0.0
 11
7218.599999999999
 21
7943.211798685398
 31
0.0
  0
LINE
  5
1F509
330
747D
100
AcDbEntity
  8
センター
 48
2.0
100
AcDbLine
 10
8055.600000000001
 20
7940.211798685398
 30
0.0
 11
8155.600000000001
 21
7940.211798685398
 31
0.0
  0
CIRCLE
  5
1F50A
330
747D
100
AcDbEntity
  8
部品1
 48
50.0
100
AcDbCircle
 10
8105.6
 20
7940.211798685398
 30
0.0
 40
35.0
  0
LINE
  5
1F50B
330
747D
100
AcDbEntity
  8
センター
 48
2.0
100
AcDbLine
 10
8105.6
 20
7990.211798685398
 30
0.0
 11
8105.6
 21
7890.211798685398
 31
0.0
  0
DIMENSION
  5
1F50C
330
747D
100
AcDbEntity
  8
寸法
 48
50.0
100
AcDbDimension
  2
*D37
 10
9358.531448609053
 20
7163.211798685407
 30
0.0
 11
9258.531448609049
 21
6713.21179868541
 31
0.0
 70
    32
 71
     5
 42
899.9999999999944
  3
INABA_S40G
100
AcDbAlignedDimension
 13
9227.600000000011
 23
6263.211798685412
 33
0.0
 14
9573.600000000002
 24
7163.211798685407
 34
0.0
 50
90.0
100
AcDbRotatedDimension
1001
ACAD
1000
DSTYLE
1002
{
1070
   341
1005
0
1002
}
  0
LINE
  5
1F50D
330
747D
100
AcDbEntity
  8
部品1
 48
50.0
100
AcDbLine
 10
10318.6
 20
6493.211798685418
 30
0.0
 11
10318.6
 21
7833.211798685397
 31
0.0
  0
LINE
  5
1F50E
330
747D
100
AcDbEntity
  8
部品1
 48
50.0
100
AcDbLine
 10
10438.6
 20
6263.211798685415
 30
0.0
 11
10438.6
 21
8063.211798685397
 31
0.0
  0
LINE
  5
1F582
330
747D
100
AcDbEntity
  8
部品1
 48
50.0
100
AcDbLine
 10
9228.600000000012
 20
6383.21179868541
 30
0.0
 11
9228.600000000012
 21
6263.211798685412
 31
0.0
  0
LINE
  5
1F583
330
747D
100
AcDbEntity
  8
部品1
 48
50.0
100
AcDbLine
 10
9428.600000000011
 20
6383.211798685411
 30
0.0
 11
9428.600000000011
 21
6263.211798685412
 31
0.0
  0
CIRCLE
  5
1F588
330
747D
100
AcDbEntity
  8
部品1
 48
50.0
100
AcDbCircle
 10
10315.60000000001
 20
6386.211798685399
 30
0.0
 40
35.0
  0
LINE
  5
1F589
330
747D
100
AcDbEntity
  8
部品1
 48
50.0
100
AcDbLine
 10
10208.6
 20
6383.211798685413
 30
0.0
 11
10208.6
 21
6493.211798685415
 31
0.0
  0
LINE
  5
1F58A
330
747D
100
AcDbEntity
  8
センター
 48
2.0
100
AcDbLine
 10
10315.60000000001
 20
6436.211798685398
 30
0.0
 11
10315.60000000001
 21
6336.2117986854
 31
0.0
  0
LINE
  5
1F58B
330
747D
100
AcDbEntity
  8
センター
 48
2.0
100
AcDbLine
 10
10265.60000000001
 20
6386.211798685399
 30
0.0
 11
10365.60000000001
 21
6386.211798685399
 31
0.0
  0
LINE
  5
1F58C
330
747D
100
AcDbEntity
  8
部品1
 48
50.0
100
AcDbLine
 10
10318.6
 20
6493.211798685415
 30
0.0
 11
10208.6
 21
6493.211798685415
 31
0.0
  0
DIMENSION
  5
1F592
330
747D
100
AcDbEntity
  8
寸法
 48
50.0
100
AcDbDimension
  2
*D38
 10
10208.6
 20
7605.503131185024
 30
0.0
 11
9938.540944881891
 21
7605.503131185024
 31
0.0
 70
   160
 71
     5
 42
110.0
  3
INABA_S40G
100
AcDbAlignedDimension
 13
10318.6
 23
7663.461799501199
 33
0.0
 14
10208.6
 24
7833.211798685396
 34
0.0
100
AcDbRotatedDimension
1001
ACAD
1000
DSTYLE
1002
{
1070
   341
1005
0
1002
}
  0
DIMENSION
  5
1F593
330
747D
100
AcDbEntity
  8
寸法
 48
50.0
100
AcDbDimension
  2
*D39
 10
9673.6
 20
8590.121564333726
 30
0.0
 11
10056.1
 21
8690.121564333725
 31
0.0
 70
    32
 71
     5
 42
765.0
  3
INABA_S40G
100
AcDbAlignedDimension
 13
10438.6
 23
8063.211798685397
 33
0.0
 14
9673.6
 24
7263.211798685405
 34
0.0
100
AcDbRotatedDimension
1001
ACAD
1000
DSTYLE
1002
{
1070
   341
1005
0
1002
}
  0
DIMENSION
  5
1F594
330
747D
100
AcDbEntity
  8
寸法
 48
50.0
100
AcDbDimension
  2
*D40
 10
9358.531448609053
 20
8063.211798685395
 30
0.0
 11
9258.531448609049
 21
7613.211798685402
 31
0.0
 70
    32
 71
     5
 42
899.9999999999891
  3
INABA_S40G
100
AcDbAlignedDimension
 13
9573.600000000002
 23
7163.211798685407
 33
0.0
 14
9227.6
 24
8063.211798685395
 34
0.0
 50
90.0
100
AcDbRotatedDimension
1001
ACAD
1000
DSTYLE
1002
{
1070
   341
1005
0
1002
}
  0
LINE
  5
1F59C
330
747D
100
AcDbEntity
  8
部品1
 48
50.0
100
AcDbLine
 10
9228.6
 20
8063.211798685395
 30
0.0
 11
9228.599999999998
 21
7943.211798685396
 31
0.0
  0
LINE
  5
1F59D
330
747D
100
AcDbEntity
  8
部品1
 48
50.0
100
AcDbLine
 10
9428.600000000001
 20
8063.211798685395
 30
0.0
 11
9428.599999999999
 21
7943.211798685396
 31
0.0
  0
LINE
  5
1F59E
330
747D
100
AcDbEntity
  8
部品1
 48
50.0
100
AcDbLine
 10
10208.6
 20
7833.211798685396
 30
0.0
 11
10208.6
 21
7943.211798685396
 31
0.0
  0
LINE
  5
1F5A1
330
747D
100
AcDbEntity
  8
部品1
 48
50.0
100
AcDbLine
 10
10438.6
 20
7263.2117986854
 30
0.0
 11
10318.6
 21
7263.2117986854
 31
0.0
  0
LINE
  5
1F5A2
330
747D
100
AcDbEntity
  8
部品1
 48
50.0
100
AcDbLine
 10
10438.6
 20
7063.2117986854
 30
0.0
 11
10318.6
 21
7063.2117986854
 31
0.0
  0
DIMENSION
  5
1F5A4
330
747D
100
AcDbEntity
  8
寸法
 48
50.0
100
AcDbDimension
  2
*D41
 10
10318.6
 20
7605.503131185024
 30
0.0
 11
10708.65905511811
 21
7605.503131185024
 31
0.0
 70
   160
 71
     5
 42
120.0
  3
INABA_S40G
100
AcDbAlignedDimension
 13
10438.6
 23
7622.496395223854
 33
0.0
 14
10318.6
 24
7663.461799501199
 34
0.0
100
AcDbRotatedDimension
1001
ACAD
1000
DSTYLE
1002
{
1070
   341
1005
0
1002
}
  0
LINE
  5
1F5A5
330
747D
100
AcDbEntity
  8
部品1
 48
50.0
100
AcDbLine
 10
10318.6
 20
7833.211798685397
 30
0.0
 11
10208.6
 21
7833.211798685396
 31
0.0
  0
DIMENSION
  5
1F5A6
330
747D
100
AcDbEntity
  8
寸法
 48
50.0
100
AcDbDimension
  2
*D42
 10
10315.6
 20
8808.971425227481
 30
0.0
 11
10711.7066017178
 21
8808.971425227481
 31
0.0
 70
   160
 71
     5
 42
123.0
  3
INABA_S40G
100
AcDbAlignedDimension
 13
10438.6
 23
8063.211798685397
 33
0.0
 14
10315.6
 24
7990.211798685398
 34
0.0
100
AcDbRotatedDimension
1001
ACAD
1000
DSTYLE
1002
{
1070
   341
1005
0
1002
}
  0
LINE
  5
1F5A7
330
747D
100
AcDbEntity
  8
センター
 48
2.0
100
AcDbLine
 10
10265.6
 20
7940.211798685398
 30
0.0
 11
10365.6
 21
7940.211798685398
 31
0.0
  0
CIRCLE
  5
1F5A8
330
747D
100
AcDbEntity
  8
部品1
 48
50.0
100
AcDbCircle
 10
10315.6
 20
7940.211798685398
 30
0.0
 40
35.0
  0
LINE
  5
1F5A9
330
747D
100
AcDbEntity
  8
センター
 48
2.0
100
AcDbLine
 10
10315.6
 20
7990.211798685398
 30
0.0
 11
10315.6
 21
7890.211798685398
 31
0.0
  0
LINE
  5
206BA
330
747D
100
AcDbEntity
  8
センター
 48
2.0
100
AcDbLine
 10
6723.599999999996
 20
7163.211798685406
 30
0.0
 11
6823.599999999996
 21
7163.211798685406
 31
0.0
  0
LINE
  5
206BD
330
747D
100
AcDbEntity
  8
センター
 48
2.0
100
AcDbLine
 10
6773.599999999996
 20
7213.211798685406
 30
0.0
 11
6773.599999999996
 21
7113.211798685405
 31
0.0
  0
LINE
  5
206C0
330
747D
100
AcDbEntity
  8
センター
 48
2.0
100
AcDbLine
 10
7463.599999999998
 20
7213.211798685406
 30
0.0
 11
7463.599999999998
 21
7113.211798685405
 31
0.0
  0
LINE
  5
206C3
330
747D
100
AcDbEntity
  8
センター
 48
2.0
100
AcDbLine
 10
7413.599999999998
 20
7163.211798685406
 30
0.0
 11
7513.599999999998
 21
7163.211798685406
 31
0.0
  0
DIMENSION
  5
206E3
330
747D
100
AcDbEntity
  8
寸法
 48
50.0
100
AcDbDimension
  2
*D43
 10
6773.599999999996
 20
8590.121564333726
 30
0.0
 11
7118.599999999997
 21
8690.121564333725
 31
0.0
 70
    32
 71
     5
 42
690.0000000000009
  3
INABA_S40G
100
AcDbAlignedDimension
 13
7463.599999999998
 23
7263.211798685398
 33
0.0
 14
6773.599999999996
 24
7263.2117986854
 34
0.0
100
AcDbRotatedDimension
1001
ACAD
1000
DSTYLE
1002
{
1070
   341
1005
0
1002
}
  0
LINE
  5
2070F
330
747D
100
AcDbEntity
  8
センター
 48
2.0
100
AcDbLine
 10
8933.599999999998
 20
7163.211798685406
 30
0.0
 11
9033.599999999998
 21
7163.211798685406
 31
0.0
  0
LINE
  5
20712
330
747D
100
AcDbEntity
  8
センター
 48
2.0
100
AcDbLine
 10
8983.599999999999
 20
7213.211798685406
 30
0.0
 11
8983.599999999999
 21
7113.211798685405
 31
0.0
  0
LINE
  5
20715
330
747D
100
AcDbEntity
  8
センター
 48
2.0
100
AcDbLine
 10
9673.6
 20
7213.211798685406
 30
0.0
 11
9673.6
 21
7113.211798685405
 31
0.0
  0
LINE
  5
20718
330
747D
100
AcDbEntity
  8
センター
 48
2.0
100
AcDbLine
 10
9623.600000000001
 20
7163.211798685406
 30
0.0
 11
9723.600000000001
 21
7163.211798685406
 31
0.0
  0
DIMENSION
  5
20751
330
747D
100
AcDbEntity
  8
寸法
 48
50.0
100
AcDbDimension
  2
*D44
 10
8983.599999999999
 20
8590.121564333726
 30
0.0
 11
9328.599999999999
 21
8690.121564333725
 31
0.0
 70
    32
 71
     5
 42
690.0000000000018
  3
INABA_S40G
100
AcDbAlignedDimension
 13
9673.6
 23
7263.211798685405
 33
0.0
 14
8983.599999999999
 24
7263.211798685405
 34
0.0
100
AcDbRotatedDimension
1001
ACAD
1000
DSTYLE
1002
{
1070
   341
1005
0
1002
}
  0
LINE
  5
20992
330
747D
100
AcDbEntity
  8
想像線
 48
10.0
100
AcDbLine
 10
10483.6
 20
6208.211798685414
 30
0.0
 11
10483.6
 21
8138.211798685397
 31
0.0
  0
DIMENSION
  5
20DE1
330
747D
100
AcDbEntity
  8
寸法
 48
50.0
100
AcDbDimension
  2
*D45
 10
10483.6
 20
9021.43212074432
 30
0.0
 11
10754.77462120246
 21
9021.43212074432
 31
0.0
 70
   160
  1
a
 71
     5
 42
45.0
  3
INABA_S40G
100
AcDbAlignedDimension
 13
10438.6
 23
8063.211798685397
 33
0.0
 14
10483.6
 24
8808.971425227481
 34
0.0
100
AcDbRotatedDimension
1001
ACAD
1000
DSTYLE
1002
{
1070
   341
1005
0
1002
}
  0
DIMENSION
  5
20DFB
330
747D
100
AcDbEntity
  8
寸法
 48
50.0
100
AcDbDimension
  2
*D46
 10
6008.600000000001
 20
9021.43212074432
 30
0.0
 11
5692.425378797541
 21
9021.43212074432
 31
0.0
 70
   160
  1
a
 71
     5
 42
44.99999999999636
  3
INABA_S40G
100
AcDbAlignedDimension
 13
5963.600000000004
 23
8808.971425227481
 33
0.0
 14
6008.600000000001
 24
8063.211798685397
 34
0.0
100
AcDbRotatedDimension
1001
ACAD
1000
DSTYLE
1002
{
1070
   341
1005
0
1002
}
  0
DIMENSION
  5
20E15
330
747D
100
AcDbEntity
  8
寸法
 48
50.0
100
AcDbDimension
  2
*D47
 10
5260.714637266781
 20
8063.211798685397
 30
0.0
 11
5160.714637266781
 21
8100.7117986854
 31
0.0
 70
    32
  1
c
 71
     5
 42
75.00000000000364
  3
INABA_S40G
100
AcDbAlignedDimension
 13
5512.657733986179
 23
8138.211798685402
 33
0.0
 14
6002.149705418571
 24
8063.211798685397
 34
0.0
 50
90.0
100
AcDbRotatedDimension
1001
ACAD
1000
DSTYLE
1002
{
1070
   341
1005
0
1002
}
  0
DIMENSION
  5
20E3A
330
747D
100
AcDbEntity
  8
寸法
 48
50.0
100
AcDbDimension
  2
*D48
 10
5260.714637266781
 20
6208.211798685408
 30
0.0
 11
5160.714637266779
 21
6235.711798685398
 31
0.0
 70
    32
  1
b
 71
     5
 42
54.99999999997817
  3
INABA_S40G
100
AcDbAlignedDimension
 13
6008.600000000001
 23
6263.211798685386
 33
0.0
 14
5512.65773398618
 24
6208.211798685408
 34
0.0
 50
90.0
100
AcDbRotatedDimension
1001
ACAD
1000
DSTYLE
1002
{
1070
   341
1005
0
1002
}
  0
DIMENSION
  5
21EC8
330
747D
100
AcDbEntity
  8
寸法
 48
50.0
100
AcDbDimension
  2
*D49
 10
6487.722911041355
 20
6188.211798685388
 30
0.0
 11
6487.722911041354
 21
5949.516857481495
 31
0.0
 70
   160
 71
     5
 42
195.0000000000127
  3
INABA_S40G
100
AcDbAlignedDimension
 13
6238.6
 23
6383.211798685401
 33
0.0
 14
6238.600000000001
 24
6188.211798685388
 34
0.0
 50
90.0
100
AcDbRotatedDimension
1001
ACAD
1000
DSTYLE
1002
{
1070
   341
1005
0
1002
}
  0
TEXT
  5
22157
330
747D
100
AcDbEntity
  8
寸法
 62
     7
100
AcDbText
 10
6533.456352585791
 20
4932.779523287181
 30
0.0
 40
120.0
  1
扉の位置に合わせた基礎形状として下さい。
  7
STYLE1
100
AcDbText
  0
LWPOLYLINE
  5
22158
330
747D
100
AcDbEntity
  8
寸法
 48
50.0
100
AcDbPolyline
 90
        3
 70
     0
 43
0.0
 10
-6757.850857895411
 20
6188.211798685389
 10
-6416.840393393039
 20
5082.115338622187
 10
-9230.90480632468
 20
5082.115338622187
210
0.0
220
0.0
230
-1.0
1001
ACAD
1000
DSTYLE
1002
{
1070
   341
1005
0
1070
    40
1040
1.0
1070
   343
1005
0
1070
   344
1005
0
1002
}
  0
SOLID
  5
22159
330
747D
100
AcDbEntity
  8
寸法
 48
50.0
100
AcDbTrace
 10
-6740.941652225425
 20
6062.620769780503
 30
0.0
 11
-6757.850857895411
 21
6188.211798685389
 31
0.0
 12
-6701.123437751947
 22
6074.893540749411
 32
0.0
 13
-6701.123437751947
 23
6074.893540749411
 33
0.0
210
0.0
220
0.0
230
-1.0
1001
ACAD
1000
DSTYLE
1002
{
1070
   341
1005
0
1070
    40
1040
1.0
1070
   343
1005
0
1070
   344
1005
0
1002
}
  0
TEXT
  5
2215A
330
747D
100
AcDbEntity
  8
寸法
 62
     7
100
AcDbText
 10
6533.456352585791
 20
5104.383286170507
 30
0.0
 40
120.0
  1
扉位置 (2188x75)
  7
STYLE1
100
AcDbText
  0
LINE
  5
2243E
330
747D
100
AcDbEntity
  8
想像線
 48
10.0
100
AcDbLine
 10
9147.16214885316
 20
8138.2117986854
 30
0.0
 11
10483.6
 21
8138.211798685397
 31
0.0
  0
LINE
  5
2243F
330
747D
100
AcDbEntity
  8
想像線
 48
10.0
100
AcDbLine
 10
9147.16214885316
 20
6208.211798685416
 30
0.0
 11
10483.6
 21
6208.211798685414
 31
0.0
  0
DIMENSION
  5
226A5
330
747D
100
AcDbEntity
  8
寸法
 48
50.0
100
AcDbDimension
  2
*D50
 10
5772.312481891147
 20
6263.211798685438
 30
0.0
 11
5772.312481891145
 21
5654.7265173112
 31
0.0
 70
   160
  1
扉の出<>
 71
     5
 42
75.00000000000091
  3
INABA_S40G
100
AcDbAlignedDimension
 13
6008.600000000001
 23
6188.211798685437
 33
0.0
 14
6008.600000000008
 24
6263.211798685438
 34
0.0
 50
90.0
100
AcDbRotatedDimension
1001
ACAD
1000
DSTYLE
1002
{
1070
   341
1005
0
1002
}
  0
LINE
  5
22A5F
330
747D
100
AcDbEntity
  8
部品1
 48
50.0
100
AcDbLine
 10
6868.59999999999
 20
6968.211798685395
 30
0.0
 11
6678.59999999999
 21
6968.211798685395
 31
0.0
  0
LINE
  5
22A60
330
747D
100
AcDbEntity
  8
部品1
 48
50.0
100
AcDbLine
 10
6678.59999999999
 20
6968.211798685395
 30
0.0
 11
6678.59999999999
 21
7358.211798685394
 31
0.0
  0
LINE
  5
22A61
330
747D
100
AcDbEntity
  8
部品1
 48
50.0
100
AcDbLine
 10
6868.59999999999
 20
6968.211798685395
 30
0.0
 11
6868.59999999999
 21
7358.211798685394
 31
0.0
  0
LINE
  5
22A62
330
747D
100
AcDbEntity
  8
部品1
 48
50.0
100
AcDbLine
 10
6868.59999999999
 20
7358.211798685394
 30
0.0
 11
6678.59999999999
 21
7358.211798685394
 31
0.0
  0
LINE
  5
22A70
330
747D
100
AcDbEntity
  8
部品1
 48
50.0
100
AcDbLine
 10
7558.599999999991
 20
7358.211798685394
 30
0.0
 11
7368.59999999999
 21
7358.211798685394
 31
0.0
  0
LINE
  5
22A71
330
747D
100
AcDbEntity
  8
部品1
 48
50.0
100
AcDbLine
 10
7368.59999999999
 20
6968.211798685395
 30
0.0
 11
7368.59999999999
 21
7358.211798685394
 31
0.0
  0
LINE
  5
22A72
330
747D
100
AcDbEntity
  8
部品1
 48
50.0
100
AcDbLine
 10
7558.599999999991
 20
6968.211798685395
 30
0.0
 11
7558.599999999991
 21
7358.211798685394
 31
0.0
  0
LINE
  5
22A73
330
747D
100
AcDbEntity
  8
部品1
 48
50.0
100
AcDbLine
 10
7558.599999999991
 20
6968.211798685395
 30
0.0
 11
7368.59999999999
 21
6968.211798685395
 31
0.0
  0
LINE
  5
22A7C
330
747D
100
AcDbEntity
  8
部品1
 48
50.0
100
AcDbLine
 10
9078.599999999992
 20
7358.211798685394
 30
0.0
 11
8888.599999999991
 21
7358.211798685394
 31
0.0
  0
LINE
  5
22A7D
330
747D
100
AcDbEntity
  8
部品1
 48
50.0
100
AcDbLine
 10
8888.599999999991
 20
6968.211798685395
 30
0.0
 11
8888.599999999991
 21
7358.211798685394
 31
0.0
  0
LINE
  5
22A7E
330
747D
100
AcDbEntity
  8
部品1
 48
50.0
100
AcDbLine
 10
9078.599999999992
 20
6968.211798685395
 30
0.0
 11
9078.599999999992
 21
7358.211798685394
 31
0.0
  0
LINE
  5
22A7F
330
747D
100
AcDbEntity
  8
部品1
 48
50.0
100
AcDbLine
 10
9078.599999999992
 20
6968.211798685395
 30
0.0
 11
8888.599999999991
 21
6968.211798685395
 31
0.0
  0
LINE
  5
22A88
330
747D
100
AcDbEntity
  8
部品1
 48
50.0
100
AcDbLine
 10
9768.599999999993
 20
7358.211798685394
 30
0.0
 11
9578.599999999992
 21
7358.211798685394
 31
0.0
  0
LINE
  5
22A89
330
747D
100
AcDbEntity
  8
部品1
 48
50.0
100
AcDbLine
 10
9578.599999999992
 20
6968.211798685395
 30
0.0
 11
9578.599999999992
 21
7358.211798685394
 31
0.0
  0
LINE
  5
22A8A
330
747D
100
AcDbEntity
  8
部品1
 48
50.0
100
AcDbLine
 10
9768.599999999993
 20
6968.211798685395
 30
0.0
 11
9768.599999999993
 21
7358.211798685394
 31
0.0
  0
LINE
  5
22A8B
330
747D
100
AcDbEntity
  8
部品1
 48
50.0
100
AcDbLine
 10
9768.599999999993
 20
6968.211798685395
 30
0.0
 11
9578.599999999992
 21
6968.211798685395
 31
0.0
  0
LINE
  5
22C1B
330
747D
100
AcDbEntity
  8
細線
100
AcDbLine
 10
10635.05571623405
 20
1928.841310031424
 30
0.0
 11
10391.76404913807
 21
2172.132977127403
 31
0.0
  0
LINE
  5
22C1C
330
747D
100
AcDbEntity
  8
細線
100
AcDbLine
 10
10571.41610592726
 20
1928.841310031424
 30
0.0
 11
10391.76404913807
 21
2108.493366820615
 31
0.0
  0
LINE
  5
22C1D
330
747D
100
AcDbEntity
  8
部品1
100
AcDbLine
 10
10391.76404913807
 20
2228.841310031425
 30
0.0
 11
10991.76404913807
 21
2228.841310031425
 31
0.0
  0
LINE
  5
22C1E
330
747D
100
AcDbEntity
  8
細線
100
AcDbLine
 10
10383.05954226223
 20
1814.217665464737
 30
0.0
 11
10497.68318682892
 21
1928.841310031424
 31
0.0
  0
LWPOLYLINE
  5
22C1F
330
747D
100
AcDbEntity
  8
部品1
 48
50.0
100
AcDbPolyline
 90
        2
 70
     0
 43
15.0
 10
9910.999971512586
 20
1928.841310031424
 10
11412.36535042711
 20
1928.841310031424
  0
LINE
  5
22C20
330
747D
100
AcDbEntity
  8
部品1
100
AcDbLine
 10
10241.76404913807
 20
1814.217665464737
 30
0.0
 11
11141.76404913807
 21
1814.217665464741
 31
0.0
  0
LINE
  5
22C21
330
747D
100
AcDbEntity
  8
部品1
100
AcDbLine
 10
10241.76404913807
 20
1654.217665464733
 30
0.0
 11
11141.76404913807
 21
1654.217665464738
 31
0.0
  0
LINE
  5
22C22
330
747D
100
AcDbEntity
  8
部品1
100
AcDbLine
 10
4835.800280859178
 20
620.9863353977929
 30
0.0
 11
11732.2749769572
 21
620.9863353977929
 31
0.0
  0
LINE
  5
22C23
330
747D
100
AcDbEntity
  8
部品1
100
AcDbLine
 10
11732.2749769572
 20
3580.055834752481
 30
0.0
 11
4835.800280859178
 21
3580.055834752481
 31
0.0
  0
LINE
  5
22C24
330
747D
100
AcDbEntity
  8
部品1
100
AcDbLine
 10
11732.2749769572
 20
3880.055834752482
 30
0.0
 11
4835.800280859178
 21
3880.05583475248
 31
0.0
  0
LEADER
  5
22C25
330
747D
100
AcDbEntity
  8
寸法
 48
50.0
100
AcDbLeader
  3
INABA_S40G
 73
     0
 75
     1
 40
141.4772727272727
 41
760.7954545454546
 76
     3
 10
8317.321051555017
 20
2165.735901729274
 30
0.0
 10
8102.566265690832
 20
3221.209754674872
 30
0.0
 10
8002.566265690832
 20
3221.209754674872
 30
0.0
1001
ACAD
1000
DSTYLE
1002
{
1070
   341
1005
0
1002
}
  0
MTEXT
  5
22C26
102
{ACAD_REACTORS
330
22C25
102
}
330
747D
100
AcDbEntity
  8
寸法
 62
     7
 48
50.0
100
AcDbMText
 10
7962.566265690831
 20
3331.948391038507
 30
0.0
 40
100.0
 41
1.0
 71
     6
 72
     1
  1
\A1;φ70スリーブ
  7
STYLE2
 73
     1
 44
1.0
1001
ACAD
1000
MTEXTBEGIN
1070
    73
1070
     1
1070
    44
1040
1.0
1070
    74
1070
     0
1000
MTEXTEND
  0
LINE
  5
22C27
330
747D
100
AcDbEntity
  8
部品1
100
AcDbLine
 10
4835.800280859182
 20
3880.05583475248
 30
0.0
 11
4835.800280859182
 21
620.9863353977929
 31
0.0
  0
DIMENSION
  5
22C28
330
747D
100
AcDbEntity
  8
寸法
 48
50.0
100
AcDbDimension
  2
*D51
 10
5954.60097241096
 20
2753.426069926901
 30
0.0
 11
6074.600972410959
 21
2753.426069926901
 31
0.0
 70
   160
  1
120\P(195)
 71
     5
 42
240.0
  3
INABA_S40G
100
AcDbAlignedDimension
 13
6194.60097241096
 23
2228.841310031425
 33
0.0
 14
5954.60097241096
 24
2228.841310031425
 34
0.0
100
AcDbRotatedDimension
1001
ACAD
1000
DSTYLE
1002
{
1070
   341
1005
0
1002
}
  0
LEADER
  5
22C29
330
747D
100
AcDbEntity
  8
寸法
 48
50.0
100
AcDbLeader
  3
INABA_S40G
 73
     0
 74
     0
 75
     1
 40
127.8409090909091
 41
1133.522727272727
 76
     3
 10
8406.400113882453
 20
2565.245420586776
 30
0.0
 10
8506.239601843502
 20
3000.540071845046
 30
0.0
 10
8606.239601843503
 20
3000.540071845046
 30
0.0
1001
ACAD
1000
DSTYLE
1002
{
1070
   341
1005
0
1002
}
  0
MTEXT
  5
22C2A
102
{ACAD_REACTORS
330
22C29
102
}
330
747D
100
AcDbEntity
  8
部品1
 62
     7
 48
50.0
100
AcDbMText
 10
8646.239601843502
 20
3104.4605263905
 30
0.0
 40
100.0
 41
1.0
 71
     4
 72
     1
  1
\A1;ワッシャー(市販品)
  7
STYLE2
 73
     1
 44
1.0
1001
ACAD
1000
MTEXTBEGIN
1070
    73
1070
     1
1070
    44
1040
1.0
1070
    74
1070
     0
1000
MTEXTEND
  0
LEADER
  5
22C2B
330
747D
100
AcDbEntity
  8
寸法
 48
50.0
100
AcDbLeader
  3
INABA_S40G
 73
     0
 74
     0
 75
     1
 40
127.8409090909091
 41
850.0
 76
     3
 10
8376.400113882453
 20
2727.435411417854
 30
0.0
 10
8466.84257777415
 20
3231.751425301031
 30
0.0
 10
8566.842577774151
 20
3231.751425301031
 30
0.0
1001
ACAD
1000
DSTYLE
1002
{
1070
   341
1005
0
1002
}
  0
MTEXT
  5
22C2C
102
{ACAD_REACTORS
330
22C2B
102
}
330
747D
100
AcDbEntity
  8
部品1
 62
     7
 48
50.0
100
AcDbMText
 10
8606.84257777415
 20
3335.671879846485
 30
0.0
 40
100.0
 41
1.0
 71
     4
 72
     1
  1
\A1;ナット(市販品)
  7
STYLE2
 73
     1
 44
1.0
1001
ACAD
1000
MTEXTBEGIN
1070
    73
1070
     1
1070
    44
1040
1.0
1070
    74
1070
     0
1000
MTEXTEND
  0
MTEXT
  5
22C2D
102
{ACAD_REACTORS
330
22C2E
102
}
330
747D
100
AcDbEntity
  8
寸法
 62
     7
 48
50.0
100
AcDbMText
 10
7995.87002345128
 20
2881.093051154115
 30
0.0
 40
100.0
 41
1.0
 71
     6
 72
     1
  1
\A1;アンカープレート L
  7
STYLE2
 73
     1
 44
1.0
1001
ACAD
1000
MTEXTBEGIN
1070
    73
1070
     1
1070
    44
1040
1.0
1070
    74
1070
     0
1000
MTEXTEND
  0
LEADER
  5
22C2E
330
747D
100
AcDbEntity
  8
寸法
 48
50.0
100
AcDbLeader
  3
INABA_S40G
 73
     0
 75
     1
 40
132.9545454545455
 41
1116.477272727273
 76
     3
 10
8243.900113882453
 20
2315.791310031425
 30
0.0
 10
8135.87002345128
 20
2774.615778426842
 30
0.0
 10
8035.870023451279
 20
2774.615778426842
 30
0.0
1001
ACAD
1000
DSTYLE
1002
{
1070
   341
1005
0
1002
}
  0
TEXT
  5
22C2F
330
747D
100
AcDbEntity
  8
部品1
 48
50.0
100
AcDbText
 10
5436.926095119765
 20
1942.890050385494
 30
0.0
 40
100.0
  1
▽G.L
  7
STYLE2
100
AcDbText
  0
LWPOLYLINE
  5
22C30
330
747D
100
AcDbEntity
  8
部品1
 48
50.0
100
AcDbPolyline
 90
        2
 70
     0
 43
10.0
 10
5436.926095119765
 20
1928.841310031426
 10
5954.60097241096
 20
1928.841310031426
  0
DIMENSION
  5
22C31
330
747D
100
AcDbEntity
  8
寸法
 48
50.0
100
AcDbDimension
  2
*D52
 10
5616.575580245385
 20
1248.841310031424
 30
0.0
 11
5616.575580245385
 21
1398.841310031423
 31
0.0
 70
   160
  1
150
 71
     5
 42
299.9999999999993
  3
INABA_S40G
100
AcDbAlignedDimension
 13
5794.60097241096
 23
1548.841310031423
 33
0.0
 14
5694.600972410964
 24
1248.841310031424
 34
0.0
 50
90.0
100
AcDbRotatedDimension
1001
ACAD
1000
DSTYLE
1002
{
1070
   341
1005
0
1002
}
  0
DIMENSION
  5
22C32
330
747D
100
AcDbEntity
  8
寸法
 48
50.0
100
AcDbDimension
  2
*D53
 10
5193.956034374896
 20
1248.841310031424
 30
0.0
 11
5193.956034374896
 21
1738.841310031424
 31
0.0
 70
   160
  1
540
 71
     5
 42
980.0000000000013
  3
INABA_S40G
100
AcDbAlignedDimension
 13
5954.60097241096
 23
2228.841310031425
 33
0.0
 14
5694.600972410964
 24
1248.841310031424
 34
0.0
 50
90.0
100
AcDbRotatedDimension
1001
ACAD
1000
DSTYLE
1002
{
1070
   341
1005
0
1002
}
  0
MTEXT
  5
22C33
102
{ACAD_REACTORS
330
22C34
102
}
330
747D
100
AcDbEntity
  8
寸法
 62
     7
 48
50.0
100
AcDbMText
 10
5870.682972492677
 20
2494.486585033979
 30
0.0
 40
100.0
 41
1.0
 71
     6
 72
     1
  1
\A1;金コテ押エ
  7
STYLE2
 73
     1
 44
1.0
1001
ACAD
1000
MTEXTBEGIN
1070
    73
1070
     1
1070
    44
1040
1.0
1070
    74
1070
     0
1000
MTEXTEND
  0
LEADER
  5
22C34
330
747D
100
AcDbEntity
  8
寸法
 48
50.0
100
AcDbLeader
  3
INABA_S40G
 71
     0
 73
     0
 75
     1
 40
130.1136363636363
 41
651.1363636363636
 76
     3
 10
6054.600972410961
 20
2228.841310031425
 30
0.0
 10
5995.682972492677
 20
2404.429766852159
 30
0.0
 10
5895.682972492678
 20
2404.429766852159
 30
0.0
1001
ACAD
1000
DSTYLE
1002
{
1070
   341
1005
0
1002
}
  0
LEADER
  5
22C35
330
747D
100
AcDbEntity
  8
寸法
 48
50.0
100
AcDbLeader
  3
INABA_S40G
 71
     0
 73
     0
 75
     1
 40
100.0
 41
540.3409090909091
 76
     3
 10
6084.600972410962
 20
1926.500328402828
 30
0.0
 10
5955.873176750088
 20
1649.662417726824
 30
0.0
 10
5855.873176750088
 20
1649.662417726824
 30
0.0
213
-12.16522788236671
223
-5.804645826423211
233
0.0
1001
ACAD
1000
DSTYLE
1002
{
1070
   341
1005
0
1002
}
  0
MTEXT
  5
22C36
102
{ACAD_REACTORS
330
22C35
102
}
330
747D
100
AcDbEntity
  8
寸法
 62
     7
 48
50.0
100
AcDbMText
 10
5843.038404632455
 20
1730.467063553244
 30
0.0
 40
100.0
 41
1.0
 71
     6
 72
     1
  1
\A1;D10@300
  7
STYLE2
 73
     1
 44
1.0
1001
ACAD
1000
MTEXTBEGIN
1070
    73
1070
     1
1070
    44
1040
1.0
1070
    74
1070
     0
1000
MTEXTEND
  0
MTEXT
  5
22C37
102
{ACAD_REACTORS
330
22C38
102
}
330
747D
100
AcDbEntity
  8
寸法
 62
     7
 48
50.0
100
AcDbMText
 10
5616.085599113761
 20
919.0427523340755
 30
0.0
 40
100.0
 41
1.0
 71
     6
 72
     1
  1
D13
  7
STYLE2
 73
     1
 44
1.0
1001
ACAD
1000
MTEXTBEGIN
1070
    73
1070
     1
1070
    44
1040
1.0
1070
    74
1070
     0
1000
MTEXTEND
  0
LEADER
  5
22C38
330
747D
100
AcDbEntity
  8
寸法
 48
50.0
100
AcDbLeader
  3
INABA_S40G
 71
     0
 73
     0
 75
     1
 40
100.0
 41
222.7272727272727
 76
     3
 10
6074.600972410959
 20
1398.841310031423
 30
0.0
 10
5741.085599113763
 20
844.0427523340755
 30
0.0
 10
5641.085599113762
 20
844.0427523340755
 30
0.0
1001
ACAD
1000
DSTYLE
1002
{
1070
   341
1005
0
1002
}
  0
LEADER
  5
22C39
330
747D
100
AcDbEntity
  8
寸法
 48
50.0
100
AcDbLeader
  3
INABA_S40G
 71
     0
 73
     0
 75
     1
 40
100.0
 41
225.0
 76
     3
 10
5914.479662851139
 20
1398.841310031423
 30
0.0
 10
5705.932189666967
 20
1069.437943008379
 30
0.0
 10
5605.932189666967
 20
1069.437943008379
 30
0.0
1001
ACAD
1000
DSTYLE
1002
{
1070
   341
1005
0
1002
}
  0
MTEXT
  5
22C3A
102
{ACAD_REACTORS
330
22C39
102
}
330
747D
100
AcDbEntity
  8
寸法
 62
     7
 48
50.0
100
AcDbMText
 10
5580.932189666967
 20
1144.437943008379
 30
0.0
 40
100.0
 41
1.0
 71
     6
 72
     1
  1
D10
  7
STYLE2
 73
     1
 44
1.0
1001
ACAD
1000
MTEXTBEGIN
1070
    73
1070
     1
1070
    44
1040
1.0
1070
    74
1070
     0
1000
MTEXTEND
  0
LINE
  5
22C3B
330
747D
100
AcDbEntity
  8
部品1
 48
50.0
100
AcDbLine
 10
6194.60097241096
 20
2228.841310031425
 30
0.0
 11
6194.60097241096
 21
1548.841310031423
 31
0.0
  0
LINE
  5
22C3C
330
747D
100
AcDbEntity
  8
細線
 48
50.0
100
AcDbLine
 10
5954.600972410961
 20
1607.399742234138
 30
0.0
 11
6084.600972410968
 21
1737.399742234138
 31
0.0
  0
LINE
  5
22C3D
330
747D
100
AcDbEntity
  8
細線
 48
50.0
100
AcDbLine
 10
5954.600972410961
 20
1674.751663142156
 30
0.0
 11
6084.600972410962
 21
1804.751663142157
 31
0.0
  0
LINE
  5
22C3E
330
747D
100
AcDbEntity
  8
細線
 48
50.0
100
AcDbLine
 10
5954.600972410961
 20
1641.075702688147
 30
0.0
 11
6084.600972410968
 21
1771.075702688152
 31
0.0
  0
LINE
  5
22C3F
330
747D
100
AcDbEntity
  8
部品1
 48
50.0
100
AcDbLine
 10
5954.600972410961
 20
1548.841310031423
 30
0.0
 11
5954.600972410961
 21
2228.841310031425
 31
0.0
  0
LINE
  5
22C40
330
747D
100
AcDbEntity
  8
部品1
 48
50.0
100
AcDbLine
 10
6084.600972410968
 20
1398.841310031423
 30
0.0
 11
6084.600972410953
 21
2054.159346774231
 31
0.0
  0
LINE
  5
22C41
330
747D
100
AcDbEntity
  8
部品1
 48
50.0
100
AcDbLine
 10
6104.600972410968
 20
1398.841310031423
 30
0.0
 11
6104.600972410961
 21
2054.159346774231
 31
0.0
  0
LINE
  5
22C42
330
747D
100
AcDbEntity
  8
部品1
 48
50.0
100
AcDbLine
 10
6194.60097241096
 20
1548.841310031423
 30
0.0
 11
6354.600972410961
 21
1548.841310031423
 31
0.0
  0
LINE
  5
22C43
330
747D
100
AcDbEntity
  8
細線
 48
50.0
100
AcDbLine
 10
6241.181947018392
 20
1388.841310031423
 30
0.0
 11
6354.600972410961
 21
1502.260335423998
 31
0.0
  0
LINE
  5
22C44
330
747D
100
AcDbEntity
  8
細線
 48
50.0
100
AcDbLine
 10
6274.857907472397
 20
1388.841310031423
 30
0.0
 11
6354.600972410961
 21
1468.584374969989
 31
0.0
  0
LINE
  5
22C45
330
747D
100
AcDbEntity
  8
細線
 48
50.0
100
AcDbLine
 10
6207.50598656437
 20
1388.841310031423
 30
0.0
 11
6354.600972410961
 21
1535.936295878007
 31
0.0
  0
LEADER
  5
22C46
330
747D
100
AcDbEntity
  8
寸法
 48
50.0
100
AcDbLeader
  3
INABA_S40G
 71
     0
 73
     0
 74
     0
 75
     1
 40
100.0
 41
225.0
 76
     3
 10
6234.479662851139
 20
1398.841310031423
 30
0.0
 10
6358.760547169318
 20
1279.594973852709
 30
0.0
 10
6458.760547169318
 20
1279.594973852709
 30
0.0
1001
ACAD
1000
DSTYLE
1002
{
1070
   341
1005
0
1002
}
  0
DIMENSION
  5
22C47
330
747D
100
AcDbEntity
  8
寸法
 48
50.0
100
AcDbDimension
  2
*D54
 10
6354.600972410961
 20
789.889203575491
 30
0.0
 11
6074.600972410959
 21
789.889203575491
 31
0.0
 70
   160
  1
300
 71
     5
 42
560.0000000000009
  3
INABA_S40G
100
AcDbAlignedDimension
 13
5794.60097241096
 23
1088.841310031424
 33
0.0
 14
6354.600972410961
 24
1088.841310031424
 34
0.0
100
AcDbRotatedDimension
1001
ACAD
1000
DSTYLE
1002
{
1070
   341
1005
0
1002
}
  0
LEADER
  5
22C48
330
747D
100
AcDbEntity
  8
寸法
 48
50.0
100
AcDbLeader
  3
INABA_S40G
 71
     0
 73
     0
 74
     0
 75
     1
 40
100.0
 41
540.3409090909091
 76
     3
 10
6167.032433677428
 20
1377.915647014517
 30
0.0
 10
6371.774042237525
 20
950.8771245208963
 30
0.0
 10
6471.774042237526
 20
950.8771245208963
 30
0.0
213
0.0
223
-1.277828345336728
233
0.0
1001
ACAD
1000
DSTYLE
1002
{
1070
   341
1005
0
1002
}
  0
LINE
  5
22C49
330
747D
100
AcDbEntity
  8
部品1
 48
50.0
100
AcDbLine
 10
6454.600972410964
 20
1248.841310031424
 30
0.0
 11
5694.600972410964
 21
1248.841310031424
 31
0.0
  0
LINE
  5
22C4A
330
747D
100
AcDbEntity
  8
部品1
 48
50.0
100
AcDbLine
 10
6454.600972410964
 20
1088.841310031424
 30
0.0
 11
5694.600972410964
 21
1088.841310031424
 31
0.0
  0
LINE
  5
22C4B
330
747D
100
AcDbEntity
  8
細線
 48
50.0
100
AcDbLine
 10
6248.299634149098
 20
1088.841310031423
 30
0.0
 11
6291.171504938077
 21
1248.841310031423
 31
0.0
  0
LINE
  5
22C4C
330
747D
100
AcDbEntity
  8
細線
 48
50.0
100
AcDbLine
 10
6051.079521780979
 20
1088.841310031424
 30
0.0
 11
6093.951392569958
 21
1248.841310031424
 31
0.0
  0
LINE
  5
22C4D
330
747D
100
AcDbEntity
  8
部品1
 48
50.0
100
AcDbLine
 10
5694.600972410964
 20
1088.841310031424
 30
0.0
 11
5694.600972410964
 21
1248.841310031424
 31
0.0
  0
LINE
  5
22C4E
330
747D
100
AcDbEntity
  8
細線
 48
50.0
100
AcDbLine
 10
5755.249353228784
 20
1088.841310031423
 30
0.0
 11
5798.121224017764
 21
1248.841310031423
 31
0.0
  0
LINE
  5
22C4F
330
747D
100
AcDbEntity
  8
細線
 48
50.0
100
AcDbLine
 10
5952.469465596914
 20
1088.841310031423
 30
0.0
 11
5995.341336385892
 21
1248.841310031423
 31
0.0
  0
LINE
  5
22C50
330
747D
100
AcDbEntity
  8
細線
 48
50.0
100
AcDbLine
 10
5853.859409412857
 20
1088.841310031424
 30
0.0
 11
5896.731280201834
 21
1248.841310031424
 31
0.0
  0
LINE
  5
22C51
330
747D
100
AcDbEntity
  8
細線
 48
50.0
100
AcDbLine
 10
6149.689577965036
 20
1088.841310031424
 30
0.0
 11
6192.561448754018
 21
1248.841310031423
 31
0.0
  0
LINE
  5
22C52
330
747D
100
AcDbEntity
  8
細線
 48
50.0
100
AcDbLine
 10
5861.897885185789
 20
1118.841310031424
 30
0.0
 11
5869.936360958724
 21
1088.841310031424
 31
0.0
  0
LINE
  5
22C53
330
747D
100
AcDbEntity
  8
細線
 48
50.0
100
AcDbLine
 10
5763.287829001725
 20
1118.841310031424
 30
0.0
 11
5771.326304774658
 21
1088.841310031424
 31
0.0
  0
LINE
  5
22C54
330
747D
100
AcDbEntity
  8
細線
 48
50.0
100
AcDbLine
 10
6059.117997553919
 20
1118.841310031424
 30
0.0
 11
6067.156473326853
 21
1088.841310031424
 31
0.0
  0
LINE
  5
22C55
330
747D
100
AcDbEntity
  8
細線
 48
50.0
100
AcDbLine
 10
5960.507941369856
 20
1118.841310031424
 30
0.0
 11
5968.546417142789
 21
1088.841310031424
 31
0.0
  0
LINE
  5
22C56
330
747D
100
AcDbEntity
  8
細線
 48
50.0
100
AcDbLine
 10
6256.338109922036
 20
1118.841310031424
 30
0.0
 11
6264.376585694968
 21
1088.841310031424
 31
0.0
  0
LINE
  5
22C57
330
747D
100
AcDbEntity
  8
細線
 48
50.0
100
AcDbLine
 10
6157.728053737978
 20
1118.841310031424
 30
0.0
 11
6165.766529510911
 21
1088.841310031424
 31
0.0
  0
LINE
  5
22C58
330
747D
100
AcDbEntity
  8
部品1
 48
50.0
100
AcDbLine
 10
5794.600972410961
 20
1548.841310031423
 30
0.0
 11
5954.600972410961
 21
1548.841310031423
 31
0.0
  0
LINE
  5
22C59
330
747D
100
AcDbEntity
  8
細線
 48
50.0
100
AcDbLine
 10
5798.098302932304
 20
1248.841310031424
 30
0.0
 11
5918.098302932304
 21
1368.841310031423
 31
0.0
  0
LINE
  5
22C5A
330
747D
100
AcDbEntity
  8
細線
 48
50.0
100
AcDbLine
 10
5831.774263386315
 20
1248.841310031424
 30
0.0
 11
5951.774263386317
 21
1368.841310031423
 31
0.0
  0
CIRCLE
  5
22C5B
330
747D
100
AcDbEntity
  8
部品1
 48
50.0
100
AcDbCircle
 10
5914.600972410961
 20
1398.841310031423
 30
0.0
 40
10.0
  0
LINE
  5
22C5C
330
747D
100
AcDbEntity
  8
細線
 48
50.0
100
AcDbLine
 10
5865.450223840321
 20
1248.841310031424
 30
0.0
 11
5985.450223840321
 21
1368.841310031423
 31
0.0
  0
LINE
  5
22C5D
330
747D
100
AcDbEntity
  8
部品1
 48
50.0
100
AcDbLine
 10
5864.600972410961
 20
1388.841310031423
 30
0.0
 11
6284.600972410962
 21
1388.841310031423
 31
0.0
  0
LINE
  5
22C5E
330
747D
100
AcDbEntity
  8
部品1
 48
50.0
100
AcDbLine
 10
5864.600972410961
 20
1368.841310031423
 30
0.0
 11
6284.600972410962
 21
1368.841310031423
 31
0.0
  0
LINE
  5
22C5F
330
747D
100
AcDbEntity
  8
部品1
 48
50.0
100
AcDbLine
 10
5794.600972410961
 20
1248.841310031424
 30
0.0
 11
5794.600972410961
 21
1548.841310031423
 31
0.0
  0
LINE
  5
22C60
330
747D
100
AcDbEntity
  8
細線
 48
50.0
100
AcDbLine
 10
5694.60097241096
 20
1230.516211238649
 30
0.0
 11
5699.511167833705
 21
1248.841310031424
 31
0.0
  0
LINE
  5
22C61
330
747D
100
AcDbEntity
  8
細線
 48
50.0
100
AcDbLine
 10
5790.082748244835
 20
1218.841310031425
 30
0.0
 11
5782.044272471903
 21
1248.841310031424
 31
0.0
  0
LINE
  5
22C62
330
747D
100
AcDbEntity
  8
細線
 48
50.0
100
AcDbLine
 10
5888.692804428901
 20
1218.841310031425
 30
0.0
 11
5880.654328655968
 21
1248.841310031424
 31
0.0
  0
LINE
  5
22C63
330
747D
100
AcDbEntity
  8
部品1
 48
50.0
100
AcDbLine
 10
5864.600972410961
 20
1388.841310031423
 30
0.0
 11
5864.600972410961
 21
1368.841310031423
 31
0.0
  0
LINE
  5
22C64
330
747D
100
AcDbEntity
  8
細線
 48
50.0
100
AcDbLine
 10
5794.600972410954
 20
1447.399742234138
 30
0.0
 11
5896.042540208248
 21
1548.841310031423
 31
0.0
  0
LINE
  5
22C65
330
747D
100
AcDbEntity
  8
細線
 48
50.0
100
AcDbLine
 10
5794.600972410954
 20
1514.751663142158
 30
0.0
 11
5828.690619300228
 21
1548.841310031423
 31
0.0
  0
LINE
  5
22C66
330
747D
100
AcDbEntity
  8
細線
 48
50.0
100
AcDbLine
 10
5794.600972410954
 20
1481.075702688143
 30
0.0
 11
5862.366579754241
 21
1548.841310031423
 31
0.0
  0
LINE
  5
22C67
330
747D
100
AcDbEntity
  8
部品1
 48
50.0
100
AcDbLine
 10
6064.600972410961
 20
1471.500328402828
 30
0.0
 11
6064.600972410961
 21
1398.841310031423
 31
0.0
  0
LINE
  5
22C68
330
747D
100
AcDbEntity
  8
細線
 48
50.0
100
AcDbLine
 10
5971.774263386315
 20
1388.841310031423
 30
0.0
 11
6044.600972410961
 21
1461.668019056074
 31
0.0
  0
LINE
  5
22C69
330
747D
100
AcDbEntity
  8
部品1
 48
50.0
100
AcDbLine
 10
6044.600972410961
 20
1471.500328402828
 30
0.0
 11
6044.600972410961
 21
1398.841310031423
 31
0.0
  0
LINE
  5
22C6A
330
747D
100
AcDbEntity
  8
細線
 48
50.0
100
AcDbLine
 10
6005.450223840321
 20
1388.841310031423
 30
0.0
 11
6044.600972410961
 21
1427.992058602064
 31
0.0
  0
LINE
  5
22C6B
330
747D
100
AcDbEntity
  8
細線
 48
50.0
100
AcDbLine
 10
5938.098302932303
 20
1388.841310031423
 30
0.0
 11
6084.600972410962
 21
1535.343979510082
 31
0.0
  0
LINE
  5
22C6C
330
747D
100
AcDbEntity
  8
細線
 48
50.0
100
AcDbLine
 10
6067.505986564378
 20
1248.841310031424
 30
0.0
 11
6187.505986564378
 21
1368.841310031423
 31
0.0
  0
LINE
  5
22C6D
330
747D
100
AcDbEntity
  8
細線
 48
50.0
100
AcDbLine
 10
6101.18194701839
 20
1248.841310031424
 30
0.0
 11
6221.181947018391
 21
1368.841310031423
 31
0.0
  0
CIRCLE
  5
22C6E
330
747D
100
AcDbEntity
  8
部品1
 48
50.0
100
AcDbCircle
 10
6074.600972410961
 20
1398.841310031423
 30
0.0
 40
10.0
  0
LINE
  5
22C6F
330
747D
100
AcDbEntity
  8
細線
 48
50.0
100
AcDbLine
 10
5987.302860612966
 20
1218.841310031425
 30
0.0
 11
5979.264384840033
 21
1248.841310031424
 31
0.0
  0
ARC
  5
22C70
330
747D
100
AcDbEntity
  8
部品1
 48
50.0
100
AcDbCircle
 10
6074.600972410961
 20
1398.841310031423
 30
0.0
 40
30.0
100
AcDbArc
 50
180.0
 51
199.4712206345204
  0
LINE
  5
22C71
330
747D
100
AcDbEntity
  8
細線
 48
50.0
100
AcDbLine
 10
6085.912916797031
 20
1218.841310031425
 30
0.0
 11
6077.874441024098
 21
1248.841310031424
 31
0.0
  0
ARC
  5
22C72
330
747D
100
AcDbEntity
  8
部品1
 48
50.0
100
AcDbCircle
 10
6074.600972410961
 20
1398.841310031423
 30
0.0
 40
30.0
100
AcDbArc
 50
340.5287793654796
 51
0.0
  0
LINE
  5
22C73
330
747D
100
AcDbEntity
  8
細線
 48
50.0
100
AcDbLine
 10
6184.522972981088
 20
1218.841310031425
 30
0.0
 11
6176.484497208155
 21
1248.841310031424
 31
0.0
  0
CIRCLE
  5
22C74
330
747D
100
AcDbEntity
  8
部品1
 48
50.0
100
AcDbCircle
 10
6234.600972410961
 20
1398.841310031423
 30
0.0
 40
10.0
  0
LINE
  5
22C75
330
747D
100
AcDbEntity
  8
細線
 48
50.0
100
AcDbLine
 10
6283.133029165147
 20
1218.841310031425
 30
0.0
 11
6275.094553392214
 21
1248.841310031424
 31
0.0
  0
LINE
  5
22C76
330
747D
100
AcDbEntity
  8
部品1
 48
50.0
100
AcDbLine
 10
6284.600972410962
 20
1388.841310031423
 30
0.0
 11
6284.600972410962
 21
1368.841310031423
 31
0.0
  0
LINE
  5
22C77
330
747D
100
AcDbEntity
  8
細線
 48
50.0
100
AcDbLine
 10
6134.857907472396
 20
1248.841310031424
 30
0.0
 11
6254.859017278818
 21
1368.842419837849
 31
0.0
  0
LINE
  5
22C78
330
747D
100
AcDbEntity
  8
細線
 48
50.0
100
AcDbLine
 10
6104.600972410968
 20
1487.992058602064
 30
0.0
 11
6194.600972410953
 21
1577.992058602063
 31
0.0
  0
LINE
  5
22C79
330
747D
100
AcDbEntity
  8
細線
 48
50.0
100
AcDbLine
 10
6104.600972410968
 20
1555.343979510086
 30
0.0
 11
6194.600972410953
 21
1645.343979510083
 31
0.0
  0
LINE
  5
22C7A
330
747D
100
AcDbEntity
  8
細線
 48
50.0
100
AcDbLine
 10
6104.600972410968
 20
1521.668019056076
 30
0.0
 11
6194.600972410953
 21
1611.668019056069
 31
0.0
  0
LINE
  5
22C7B
330
747D
100
AcDbEntity
  8
細線
 48
50.0
100
AcDbLine
 10
6064.600972410961
 20
1447.992058602063
 30
0.0
 11
6084.600972410968
 21
1467.992058602064
 31
0.0
  0
LINE
  5
22C7C
330
747D
100
AcDbEntity
  8
細線
 48
50.0
100
AcDbLine
 10
6054.433281757717
 20
1471.500328402828
 30
0.0
 11
6084.600972410968
 21
1501.668019056076
 31
0.0
  0
LINE
  5
22C7D
330
747D
100
AcDbEntity
  8
部品1
 48
50.0
100
AcDbLine
 10
6064.600972410961
 20
1471.500328402828
 30
0.0
 11
6044.600972410961
 21
1471.500328402828
 31
0.0
  0
LINE
  5
22C7E
330
747D
100
AcDbEntity
  8
細線
 48
50.0
100
AcDbLine
 10
6346.909690333152
 20
1088.841310031424
 30
0.0
 11
6389.781561122133
 21
1248.841310031423
 31
0.0
  0
LINE
  5
22C7F
330
747D
100
AcDbEntity
  8
部品1
 48
50.0
100
AcDbLine
 10
6454.600972410964
 20
1248.841310031424
 30
0.0
 11
6454.600972410964
 21
1088.841310031424
 31
0.0
  0
MTEXT
  5
22C80
102
{ACAD_REACTORS
330
22C48
102
}
330
747D
100
AcDbEntity
  8
寸法
 62
     7
 48
50.0
100
AcDbMText
 10
6496.774042237524
 20
1027.154952866233
 30
0.0
 40
100.0
 41
1.0
 71
     4
 72
     1
  1
\A1;D10@300
  7
STYLE2
 73
     1
 44
1.0
1001
ACAD
1000
MTEXTBEGIN
1070
    73
1070
     1
1070
    44
1040
1.0
1070
    74
1070
     0
1000
MTEXTEND
  0
LINE
  5
22C81
330
747D
100
AcDbEntity
  8
細線
 48
50.0
100
AcDbLine
 10
6445.519746517215
 20
1088.841310031423
 30
0.0
 11
6454.600972410961
 21
1122.73290646191
 31
0.0
  0
LINE
  5
22C82
330
747D
100
AcDbEntity
  8
細線
 48
50.0
100
AcDbLine
 10
6453.558222290151
 20
1118.841310031424
 30
0.0
 11
6454.600972410961
 21
1114.949713600968
 31
0.0
  0
LINE
  5
22C83
330
747D
100
AcDbEntity
  8
細線
 48
50.0
100
AcDbLine
 10
6354.948166106093
 20
1118.841310031424
 30
0.0
 11
6362.986641879027
 21
1088.841310031424
 31
0.0
  0
LINE
  5
22C84
330
747D
100
AcDbEntity
  8
部品1
 48
50.0
100
AcDbLine
 10
6354.600972410961
 20
1548.841310031423
 30
0.0
 11
6354.600972410961
 21
1248.841310031424
 31
0.0
  0
MTEXT
  5
22C85
102
{ACAD_REACTORS
330
22C46
102
}
330
747D
100
AcDbEntity
  8
寸法
 62
     7
 48
50.0
100
AcDbMText
 10
6483.760547169317
 20
1354.594973852708
 30
0.0
 40
100.0
 41
1.0
 71
     4
 72
     1
  1
D10
  7
STYLE2
 73
     1
 44
1.0
1001
ACAD
1000
MTEXTBEGIN
1070
    73
1070
     1
1070
    44
1040
1.0
1070
    74
1070
     0
1000
MTEXTEND
  0
LINE
  5
22C86
330
747D
100
AcDbEntity
  8
細線
 48
50.0
100
AcDbLine
 10
6336.913670196453
 20
1248.841310031424
 30
0.0
 11
6354.600972410961
 21
1266.528612245933
 31
0.0
  0
LINE
  5
22C87
330
747D
100
AcDbEntity
  8
細線
 48
50.0
100
AcDbLine
 10
6381.743085349206
 20
1218.841310031425
 30
0.0
 11
6373.70460957627
 21
1248.841310031424
 31
0.0
  0
MTEXT
  5
22C88
102
{ACAD_REACTORS
330
22C8A
102
}
330
747D
100
AcDbEntity
  8
寸法
 62
     7
 48
50.0
100
AcDbMText
 10
6298.208393695205
 20
2055.425761655085
 30
0.0
 40
100.0
 41
1.0
 71
     4
 72
     1
  1
D13
  7
STYLE2
 73
     1
 44
1.0
1001
ACAD
1000
MTEXTBEGIN
1070
    73
1070
     1
1070
    44
1040
1.0
1070
    74
1070
     0
1000
MTEXTEND
  0
LWPOLYLINE
  5
22C89
330
747D
100
AcDbEntity
  8
部品1
 48
50.0
100
AcDbPolyline
 90
        2
 70
     0
 43
10.0
 10
6194.60097241096
 20
1928.841310031426
 10
6712.275849702158
 20
1928.841310031426
  0
LEADER
  5
22C8A
330
747D
100
AcDbEntity
  8
寸法
 48
50.0
100
AcDbLeader
  3
INABA_S40G
 71
     0
 73
     0
 74
     0
 75
     1
 40
100.0
 41
222.7272727272727
 76
     3
 10
6074.600972410959
 20
2054.159346774231
 30
0.0
 10
6173.208393695205
 20
1980.425761655084
 30
0.0
 10
6273.208393695205
 20
1980.425761655084
 30
0.0
1001
ACAD
1000
DSTYLE
1002
{
1070
   341
1005
0
1002
}
  0
LINE
  5
22C8B
330
747D
100
AcDbEntity
  8
部品1
 48
50.0
100
AcDbLine
 10
6064.600972410961
 20
1981.500328402828
 30
0.0
 11
6064.600972410961
 21
2054.159346774231
 31
0.0
  0
LINE
  5
22C8C
330
747D
100
AcDbEntity
  8
部品1
 48
50.0
100
AcDbLine
 10
6044.600972410961
 20
1981.500328402832
 30
0.0
 11
6044.600972410961
 21
2054.159346774231
 31
0.0
  0
LINE
  5
22C8D
330
747D
100
AcDbEntity
  8
細線
 48
50.0
100
AcDbLine
 10
6064.600972410961
 20
1986.807425866214
 30
0.0
 11
6084.600972410962
 21
2006.807425866214
 31
0.0
  0
LINE
  5
22C8E
330
747D
100
AcDbEntity
  8
細線
 48
50.0
100
AcDbLine
 10
5954.600972410961
 20
1944.159346774231
 30
0.0
 11
6044.600972410961
 21
2034.159346774231
 31
0.0
  0
LINE
  5
22C8F
330
747D
100
AcDbEntity
  8
細線
 48
50.0
100
AcDbLine
 10
5954.600972410961
 20
1910.483386320223
 30
0.0
 11
6044.600972410961
 21
2000.483386320223
 31
0.0
  0
LINE
  5
22C90
330
747D
100
AcDbEntity
  8
細線
 48
50.0
100
AcDbLine
 10
6104.600972410968
 20
1791.075702688151
 30
0.0
 11
6194.600972410953
 21
1881.075702688145
 31
0.0
  0
LINE
  5
22C91
330
747D
100
AcDbEntity
  8
細線
 48
50.0
100
AcDbLine
 10
6104.600972410961
 20
1824.751663142156
 30
0.0
 11
6194.60097241096
 21
1914.751663142157
 31
0.0
  0
LINE
  5
22C92
330
747D
100
AcDbEntity
  8
細線
 48
50.0
100
AcDbLine
 10
6104.600972410968
 20
1757.399742234138
 30
0.0
 11
6194.600972410953
 21
1847.399742234139
 31
0.0
  0
LINE
  5
22C93
330
747D
100
AcDbEntity
  8
部品1
 48
50.0
100
AcDbLine
 10
6064.600972410961
 20
1981.500328402828
 30
0.0
 11
6044.600972410961
 21
1981.500328402832
 31
0.0
  0
LINE
  5
22C94
330
747D
100
AcDbEntity
  8
細線
 48
50.0
100
AcDbLine
 10
5954.600972410961
 20
1876.807425866213
 30
0.0
 11
6059.29387494758
 21
1981.500328402828
 31
0.0
  0
LINE
  5
22C95
330
747D
100
AcDbEntity
  8
部品1
 48
50.0
100
AcDbLine
 10
5954.600972410961
 20
2228.841310031425
 30
0.0
 11
6194.60097241096
 21
2228.841310031425
 31
0.0
  0
LINE
  5
22C96
330
747D
100
AcDbEntity
  8
細線
 48
50.0
100
AcDbLine
 10
6090.216500539049
 20
2079.774874902319
 30
0.0
 11
6194.60097241096
 21
2184.159346774231
 31
0.0
  0
LINE
  5
22C97
330
747D
100
AcDbEntity
  8
細線
 48
50.0
100
AcDbLine
 10
6104.041856493444
 20
2059.924270402702
 30
0.0
 11
6194.60097241096
 21
2150.483386320223
 31
0.0
  0
LINE
  5
22C98
330
747D
100
AcDbEntity
  8
細線
 48
50.0
100
AcDbLine
 10
6104.600972410961
 20
2026.807425866212
 30
0.0
 11
6194.60097241096
 21
2116.807425866214
 31
0.0
  0
LINE
  5
22C99
330
747D
100
AcDbEntity
  8
細線
 48
50.0
100
AcDbLine
 10
6064.600972410961
 20
2020.483386320223
 30
0.0
 11
6084.600972410962
 21
2040.483386320223
 31
0.0
  0
CIRCLE
  5
22C9A
330
747D
100
AcDbEntity
  8
部品1
 48
50.0
100
AcDbCircle
 10
6074.600972410961
 20
2054.159346774231
 30
0.0
 40
10.0
  0
ARC
  5
22C9B
330
747D
100
AcDbEntity
  8
部品1
 48
50.0
100
AcDbCircle
 10
6074.600972410961
 20
2054.159346774231
 30
0.0
 40
30.0
100
AcDbArc
 50
0.0
 51
180.0
  0
LINE
  5
22C9C
330
747D
100
AcDbEntity
  8
細線
 48
50.0
100
AcDbLine
 10
5954.600972410961
 20
2213.567030406307
 30
0.0
 11
5969.87525203608
 21
2228.841310031425
 31
0.0
  0
LINE
  5
22C9D
330
747D
100
AcDbEntity
  8
細線
 48
50.0
100
AcDbLine
 10
5954.600972410961
 20
2146.215109498287
 30
0.0
 11
6037.227172944097
 21
2228.841310031425
 31
0.0
  0
LINE
  5
22C9E
330
747D
100
AcDbEntity
  8
細線
 48
50.0
100
AcDbLine
 10
5954.600972410961
 20
2179.891069952298
 30
0.0
 11
6003.551212490092
 21
2228.841310031425
 31
0.0
  0
LEADER
  5
22C9F
330
747D
100
AcDbEntity
  8
寸法
 48
50.0
100
AcDbLeader
  3
INABA_S40G
 73
     0
 74
     0
 75
     1
 40
100.0
 41
543.75
 76
     3
 10
8367.650113882453
 20
2290.291310031426
 30
0.0
 10
8468.330691906601
 20
2469.320467722964
 30
0.0
 10
8568.3306919066
 20
2469.320467722964
 30
0.0
1001
ACAD
1000
DSTYLE
1002
{
1070
   341
1005
0
1002
}
  0
MTEXT
  5
22CA0
102
{ACAD_REACTORS
330
22C9F
102
}
330
747D
100
AcDbEntity
  8
部品1
 62
     7
 48
50.0
100
AcDbMText
 10
8608.330691906601
 20
2559.320467722963
 30
0.0
 40
100.0
 41
1.0
 71
     4
 72
     1
  1
M10X160
  7
STYLE2
 73
     1
 44
1.0
1001
ACAD
1000
MTEXTBEGIN
1070
    73
1070
     1
1070
    44
1040
1.0
1070
    74
1070
     0
1000
MTEXTEND
  0
DIMENSION
  5
22CA1
330
747D
100
AcDbEntity
  8
寸法
 48
50.0
100
AcDbDimension
  2
*D55
 10
9224.485863593509
 20
1823.841310031423
 30
0.0
 11
9124.485863593509
 21
2026.341310031426
 31
0.0
 70
    32
  1
180
 71
     5
 42
405.000000000002
  3
INABA_S40G
100
AcDbAlignedDimension
 13
8597.150113882454
 23
2228.841310031425
 33
0.0
 14
8597.150113882454
 24
1823.841310031424
 34
0.0
 50
90.0
100
AcDbRotatedDimension
1001
ACAD
1000
DSTYLE
1002
{
1070
   341
1005
0
1002
}
  0
LWPOLYLINE
  5
22CA2
330
747D
100
AcDbEntity
  8
部品1
 48
50.0
100
AcDbPolyline
 90
        2
 70
     0
 43
10.0
 10
8597.150113882454
 20
1928.841310031426
 10
8964.278193131686
 20
1928.841310031426
  0
LINE
  5
22CA3
330
747D
100
AcDbEntity
  8
部品1
 48
50.0
100
AcDbLine
 10
8857.150113882457
 20
1248.841310031424
 30
0.0
 11
7819.650113882459
 21
1248.841310031424
 31
0.0
  0
LINE
  5
22CA4
330
747D
100
AcDbEntity
  8
細線
 48
50.0
100
AcDbLine
 10
8775.82747612976
 20
1118.841310031423
 30
0.0
 11
8783.865951902695
 21
1088.841310031423
 31
0.0
  0
LINE
  5
22CA5
330
747D
100
AcDbEntity
  8
部品1
 48
50.0
100
AcDbLine
 10
8857.150113882457
 20
1088.841310031424
 30
0.0
 11
7819.650113882459
 21
1088.841310031424
 31
0.0
  0
LINE
  5
22CA6
330
747D
100
AcDbEntity
  8
細線
 48
50.0
100
AcDbLine
 10
8767.78900035682
 20
1088.841310031423
 30
0.0
 11
8810.660871145804
 21
1248.841310031421
 31
0.0
  0
DIMENSION
  5
22CA7
330
747D
100
AcDbEntity
  8
寸法
 48
50.0
100
AcDbDimension
  2
*D56
 10
9569.554196242291
 20
2228.841310031425
 30
0.0
 11
9569.554196242291
 21
1762.832406609943
 31
0.0
 70
   160
  1
20～25
 71
     5
 42
65.94999999999981
  3
INABA_S40G
100
AcDbAlignedDimension
 13
8363.150113882452
 23
2294.791310031425
 33
0.0
 14
8597.150113882454
 24
2228.841310031425
 34
0.0
 50
90.0
100
AcDbRotatedDimension
1001
ACAD
1000
DSTYLE
1002
{
1070
   341
1005
0
1002
}
  0
TEXT
  5
22CA8
330
747D
100
AcDbEntity
  8
部品1
 48
50.0
100
AcDbText
 10
8602.592094237989
 20
2673.689660984176
 30
0.0
 40
100.0
  1
基礎ボルト(市販品)
  7
STYLE2
100
AcDbText
  0
LINE
  5
22CA9
330
747D
100
AcDbEntity
  8
細線
 48
50.0
100
AcDbLine
 10
7956.823404857807
 20
1248.841310031424
 30
0.0
 11
8597.150113882456
 21
1889.168019056068
 31
0.0
  0
LINE
  5
22CAA
330
747D
100
AcDbEntity
  8
細線
 48
50.0
100
AcDbLine
 10
7990.499365311812
 20
1248.841310031424
 30
0.0
 11
8597.150113882454
 21
1855.492058602061
 31
0.0
  0
LINE
  5
22CAB
330
747D
100
AcDbEntity
  8
細線
 48
50.0
100
AcDbLine
 10
8079.650113882454
 20
1674.751663142156
 30
0.0
 11
8277.650113882444
 21
1872.75166314215
 31
0.0
  0
LINE
  5
22CAC
330
747D
100
AcDbEntity
  8
細線
 48
50.0
100
AcDbLine
 10
8079.650113882454
 20
1607.399742234138
 30
0.0
 11
8296.091681679747
 21
1823.841310031424
 31
0.0
  0
LINE
  5
22CAD
330
747D
100
AcDbEntity
  8
細線
 48
50.0
100
AcDbLine
 10
8079.650113882454
 20
1641.075702688147
 30
0.0
 11
8277.650113882444
 21
1839.075702688133
 31
0.0
  0
LINE
  5
22CAE
330
747D
100
AcDbEntity
  8
部品1
 48
50.0
100
AcDbLine
 10
8079.650113882454
 20
1548.841310031423
 30
0.0
 11
8079.650113882454
 21
2228.841310031425
 31
0.0
  0
LINE
  5
22CAF
330
747D
100
AcDbEntity
  8
部品1
100
AcDbLine
 10
8597.150113882452
 20
1548.841310031423
 30
0.0
 11
8597.150113882454
 21
2228.841310031425
 31
0.0
  0
LINE
  5
22CB0
330
747D
100
AcDbEntity
  8
細線
 48
50.0
100
AcDbLine
 10
7923.147444403795
 20
1248.841310031424
 30
0.0
 11
8597.150113882452
 21
1922.843979510082
 31
0.0
  0
LINE
  5
22CB1
330
747D
100
AcDbEntity
  8
部品1
 48
50.0
100
AcDbLine
 10
7919.650113882453
 20
1548.841310031423
 30
0.0
 11
8079.650113882454
 21
1548.841310031423
 31
0.0
  0
LINE
  5
22CB2
330
747D
100
AcDbEntity
  8
細線
 48
50.0
100
AcDbLine
 10
7919.650113882446
 20
1447.399742234138
 30
0.0
 11
8021.09168167974
 21
1548.841310031423
 31
0.0
  0
LINE
  5
22CB3
330
747D
100
AcDbEntity
  8
細線
 48
50.0
100
AcDbLine
 10
7919.650113882446
 20
1481.075702688143
 30
0.0
 11
7987.415721225736
 21
1548.841310031423
 31
0.0
  0
LINE
  5
22CB4
330
747D
100
AcDbEntity
  8
細線
 48
50.0
100
AcDbLine
 10
7880.298494700278
 20
1088.841310031423
 30
0.0
 11
7923.170365489255
 21
1248.841310031423
 31
0.0
  0
LINE
  5
22CB5
330
747D
100
AcDbEntity
  8
部品1
 48
50.0
100
AcDbLine
 10
7819.650113882459
 20
1088.841310031424
 30
0.0
 11
7819.650113882459
 21
1248.841310031424
 31
0.0
  0
LINE
  5
22CB6
330
747D
100
AcDbEntity
  8
細線
 48
50.0
100
AcDbLine
 10
7888.336970473218
 20
1118.841310031424
 30
0.0
 11
7896.375446246151
 21
1088.841310031424
 31
0.0
  0
LINE
  5
22CB7
330
747D
100
AcDbEntity
  8
部品1
 48
50.0
100
AcDbLine
 10
7919.650113882453
 20
1248.841310031424
 30
0.0
 11
7919.650113882453
 21
1548.841310031423
 31
0.0
  0
LINE
  5
22CB8
330
747D
100
AcDbEntity
  8
細線
 48
50.0
100
AcDbLine
 10
7915.131889716331
 20
1218.841310031425
 30
0.0
 11
7907.093413943394
 21
1248.841310031424
 31
0.0
  0
LINE
  5
22CB9
330
747D
100
AcDbEntity
  8
細線
 48
50.0
100
AcDbLine
 10
7819.650113882453
 20
1230.516211238649
 30
0.0
 11
7824.560309305198
 21
1248.841310031424
 31
0.0
  0
LINE
  5
22CBA
330
747D
100
AcDbEntity
  8
細線
 48
50.0
100
AcDbLine
 10
7919.650113882446
 20
1514.751663142158
 30
0.0
 11
7953.739760771721
 21
1548.841310031423
 31
0.0
  0
LINE
  5
22CBB
330
747D
100
AcDbEntity
  8
細線
 48
50.0
100
AcDbLine
 10
8077.518607068405
 20
1088.841310031423
 30
0.0
 11
8120.390477857386
 21
1248.841310031423
 31
0.0
  0
LINE
  5
22CBC
330
747D
100
AcDbEntity
  8
細線
 48
50.0
100
AcDbLine
 10
7978.90855088435
 20
1088.841310031424
 30
0.0
 11
8021.780421673327
 21
1248.841310031424
 31
0.0
  0
LINE
  5
22CBD
330
747D
100
AcDbEntity
  8
細線
 48
50.0
100
AcDbLine
 10
8471.958831804645
 20
1088.841310031424
 30
0.0
 11
8514.830702593625
 21
1248.841310031423
 31
0.0
  0
LINE
  5
22CBE
330
747D
100
AcDbEntity
  8
細線
 48
50.0
100
AcDbLine
 10
8274.738719436529
 20
1088.841310031424
 30
0.0
 11
8317.610590225511
 21
1248.841310031423
 31
0.0
  0
LINE
  5
22CBF
330
747D
100
AcDbEntity
  8
細線
 48
50.0
100
AcDbLine
 10
8176.128663252471
 20
1088.841310031424
 30
0.0
 11
8219.00053404145
 21
1248.841310031424
 31
0.0
  0
LINE
  5
22CC0
330
747D
100
AcDbEntity
  8
細線
 48
50.0
100
AcDbLine
 10
8373.348775620589
 20
1088.841310031423
 30
0.0
 11
8416.220646409568
 21
1248.841310031423
 31
0.0
  0
LINE
  5
22CC1
330
747D
100
AcDbEntity
  8
細線
 48
50.0
100
AcDbLine
 10
8669.178944172767
 20
1088.841310031421
 30
0.0
 11
8712.050814961745
 21
1248.841310031421
 31
0.0
  0
LINE
  5
22CC2
330
747D
100
AcDbEntity
  8
細線
 48
50.0
100
AcDbLine
 10
8570.568887988706
 20
1088.841310031423
 30
0.0
 11
8613.440758777674
 21
1248.841310031424
 31
0.0
  0
LINE
  5
22CC3
330
747D
100
AcDbEntity
  8
細線
 48
50.0
100
AcDbLine
 10
8085.557082841349
 20
1118.841310031424
 30
0.0
 11
8093.595558614282
 21
1088.841310031424
 31
0.0
  0
LINE
  5
22CC4
330
747D
100
AcDbEntity
  8
細線
 48
50.0
100
AcDbLine
 10
7986.947026657283
 20
1118.841310031424
 30
0.0
 11
7994.985502430215
 21
1088.841310031424
 31
0.0
  0
LINE
  5
22CC5
330
747D
100
AcDbEntity
  8
細線
 48
50.0
100
AcDbLine
 10
8282.777195209471
 20
1118.841310031424
 30
0.0
 11
8290.815670982404
 21
1088.841310031424
 31
0.0
  0
LINE
  5
22CC6
330
747D
100
AcDbEntity
  8
細線
 48
50.0
100
AcDbLine
 10
8184.167139025412
 20
1118.841310031424
 30
0.0
 11
8192.205614798345
 21
1088.841310031424
 31
0.0
  0
LINE
  5
22CC7
330
747D
100
AcDbEntity
  8
細線
 48
50.0
100
AcDbLine
 10
8479.997307577585
 20
1118.841310031424
 30
0.0
 11
8488.035783350518
 21
1088.841310031424
 31
0.0
  0
LINE
  5
22CC8
330
747D
100
AcDbEntity
  8
細線
 48
50.0
100
AcDbLine
 10
8381.387251393528
 20
1118.841310031424
 30
0.0
 11
8389.425727166461
 21
1088.841310031424
 31
0.0
  0
LINE
  5
22CC9
330
747D
100
AcDbEntity
  8
細線
 48
50.0
100
AcDbLine
 10
8677.217419945703
 20
1118.841310031423
 30
0.0
 11
8685.255895718638
 21
1088.841310031423
 31
0.0
  0
LINE
  5
22CCA
330
747D
100
AcDbEntity
  8
細線
 48
50.0
100
AcDbLine
 10
8578.607363761642
 20
1118.841310031424
 30
0.0
 11
8586.645839534591
 21
1088.841310031424
 31
0.0
  0
LINE
  5
22CCB
330
747D
100
AcDbEntity
  8
細線
 48
50.0
100
AcDbLine
 10
8259.907048943889
 20
1248.841310031424
 30
0.0
 11
8597.150113882454
 21
1586.084374969997
 31
0.0
  0
LINE
  5
22CCC
330
747D
100
AcDbEntity
  8
細線
 48
50.0
100
AcDbLine
 10
8226.231088489882
 20
1248.841310031424
 30
0.0
 11
8597.150113882454
 21
1619.76033542399
 31
0.0
  0
LINE
  5
22CCD
330
747D
100
AcDbEntity
  8
細線
 48
50.0
100
AcDbLine
 10
8192.55512803587
 20
1248.841310031424
 30
0.0
 11
8597.150113882452
 21
1653.436295878007
 31
0.0
  0
LINE
  5
22CCE
330
747D
100
AcDbEntity
  8
細線
 48
50.0
100
AcDbLine
 10
8112.352002084458
 20
1218.841310031425
 30
0.0
 11
8104.313526311527
 21
1248.841310031424
 31
0.0
  0
LINE
  5
22CCF
330
747D
100
AcDbEntity
  8
細線
 48
50.0
100
AcDbLine
 10
8013.741945900394
 20
1218.841310031425
 30
0.0
 11
8005.70347012746
 21
1248.841310031424
 31
0.0
  0
LINE
  5
22CD0
330
747D
100
AcDbEntity
  8
細線
 48
50.0
100
AcDbLine
 10
8309.572114452581
 20
1218.841310031425
 30
0.0
 11
8301.533638679648
 21
1248.841310031424
 31
0.0
  0
LINE
  5
22CD1
330
747D
100
AcDbEntity
  8
細線
 48
50.0
100
AcDbLine
 10
8210.962058268524
 20
1218.841310031425
 30
0.0
 11
8202.923582495591
 21
1248.841310031424
 31
0.0
  0
LINE
  5
22CD2
330
747D
100
AcDbEntity
  8
部品1
 48
50.0
100
AcDbLine
 10
8757.150113882453
 20
1548.841310031423
 30
0.0
 11
8757.150113882453
 21
1248.841310031424
 31
0.0
  0
LINE
  5
22CD3
330
747D
100
AcDbEntity
  8
細線
 48
50.0
100
AcDbLine
 10
8529.314732575963
 20
1248.841310031424
 30
0.0
 11
8757.150113882453
 21
1476.67669133792
 31
0.0
  0
LINE
  5
22CD4
330
747D
100
AcDbEntity
  8
細線
 48
50.0
100
AcDbLine
 10
8495.638772121958
 20
1248.841310031424
 30
0.0
 11
8757.150113882453
 21
1510.352651791917
 31
0.0
  0
LINE
  5
22CD5
330
747D
100
AcDbEntity
  8
細線
 48
50.0
100
AcDbLine
 10
8461.962811667945
 20
1248.841310031424
 30
0.0
 11
8757.150113882453
 21
1544.028612245934
 31
0.0
  0
LINE
  5
22CD6
330
747D
100
AcDbEntity
  8
細線
 48
50.0
100
AcDbLine
 10
8506.792226820698
 20
1218.841310031425
 30
0.0
 11
8498.753751047763
 21
1248.841310031424
 31
0.0
  0
LINE
  5
22CD7
330
747D
100
AcDbEntity
  8
細線
 48
50.0
100
AcDbLine
 10
8408.18217063664
 20
1218.841310031425
 30
0.0
 11
8400.143694863707
 21
1248.841310031424
 31
0.0
  0
LINE
  5
22CD8
330
747D
100
AcDbEntity
  8
細線
 48
50.0
100
AcDbLine
 10
8704.012339188816
 20
1218.841310031423
 30
0.0
 11
8695.973863415883
 21
1248.841310031423
 31
0.0
  0
LINE
  5
22CD9
330
747D
100
AcDbEntity
  8
細線
 48
50.0
100
AcDbLine
 10
8605.402283004741
 20
1218.841310031425
 30
0.0
 11
8597.363807231809
 21
1248.841310031424
 31
0.0
  0
LINE
  5
22CDA
330
747D
100
AcDbEntity
  8
部品1
 48
50.0
100
AcDbLine
 10
8597.150113882454
 20
1548.841310031423
 30
0.0
 11
8757.150113882453
 21
1548.841310031423
 31
0.0
  0
LWPOLYLINE
  5
22CDB
330
747D
100
AcDbEntity
  8
部品1
 48
50.0
100
AcDbPolyline
 90
        2
 70
     0
 43
10.0
 10
7561.975236591258
 20
1928.841310031426
 10
8079.650113882454
 20
1928.841310031426
  0
TEXT
  5
22CDC
330
747D
100
AcDbEntity
  8
部品1
 48
50.0
100
AcDbText
 10
7561.975236591256
 20
1942.890050385494
 30
0.0
 40
100.0
  1
▽G.L
  7
STYLE2
100
AcDbText
  0
LINE
  5
22CDD
330
747D
100
AcDbEntity
  8
部品1
100
AcDbLine
 10
8345.150113882453
 20
1947.591310031424
 30
0.0
 11
8345.15011388245
 21
2290.291310031426
 31
0.0
  0
LINE
  5
22CDE
330
747D
100
AcDbEntity
  8
部品1
100
AcDbLine
 10
8367.650113882453
 20
1947.591310031424
 30
0.0
 11
8367.650113882449
 21
2290.291310031426
 31
0.0
  0
LINE
  5
22CDF
330
747D
100
AcDbEntity
  8
部品1
100
AcDbLine
 10
8282.475113882458
 20
2312.416310031427
 30
0.0
 11
8282.475113882446
 21
2244.166310031424
 31
0.0
  0
LINE
  5
22CE0
330
747D
100
AcDbEntity
  8
部品1
100
AcDbLine
 10
8267.525113882454
 20
2297.466310031426
 30
0.0
 11
8267.525113882454
 21
2244.166310031424
 31
0.0
  0
LINE
  5
22CE1
330
747D
100
AcDbEntity
  8
細線
100
AcDbLine
 10
8349.650113882457
 20
2240.791310031426
 30
0.0
 11
8349.650113882454
 21
2294.791310031425
 31
0.0
  0
LINE
  5
22CE2
330
747D
100
AcDbEntity
  8
細線
100
AcDbLine
 10
8363.150113882452
 20
2240.791310031426
 30
0.0
 11
8363.150113882452
 21
2294.791310031425
 31
0.0
  0
LINE
  5
22CE3
330
747D
100
AcDbEntity
  8
部品1
100
AcDbLine
 10
8087.525113882454
 20
2244.166310031424
 30
0.0
 11
8087.525113882454
 21
2321.83118965981
 31
0.0
  0
LINE
  5
22CE4
330
747D
100
AcDbEntity
  8
部品1
100
AcDbLine
 10
8367.650113882453
 20
1947.591310031424
 30
0.0
 11
8412.650113882454
 21
1947.591310031424
 31
0.0
  0
LINE
  5
22CE5
330
747D
100
AcDbEntity
  8
部品1
100
AcDbLine
 10
8367.650113882453
 20
1925.091310031423
 30
0.0
 11
8412.650113882454
 21
1925.091310031423
 31
0.0
  0
LINE
  5
22CE6
330
747D
100
AcDbEntity
  8
部品1
100
AcDbLine
 10
8285.850113882446
 20
2240.791310031426
 30
0.0
 11
8537.525113882448
 21
2240.791310031426
 31
0.0
  0
LINE
  5
22CE7
330
747D
100
AcDbEntity
  8
部品1
 48
50.0
100
AcDbLine
 10
8079.650113882454
 20
2228.841310031425
 30
0.0
 11
8597.150113882456
 21
2228.841310031425
 31
0.0
  0
LINE
  5
22CE8
330
747D
100
AcDbEntity
  8
部品1
100
AcDbLine
 10
8435.150113882453
 20
1823.841310031424
 30
0.0
 11
8277.650113882446
 21
1823.841310031424
 31
0.0
  0
LINE
  5
22CE9
330
747D
100
AcDbEntity
  8
細線
 48
50.0
100
AcDbLine
 10
8079.650113882454
 20
1910.483386320223
 30
0.0
 11
8277.650113882451
 21
2108.483386320219
 31
0.0
  0
LINE
  5
22CEA
330
747D
100
AcDbEntity
  8
細線
 48
50.0
100
AcDbLine
 10
8079.650113882454
 20
1944.159346774231
 30
0.0
 11
8277.650113882451
 21
2142.159346774229
 31
0.0
  0
LINE
  5
22CEB
330
747D
100
AcDbEntity
  8
部品1
100
AcDbLine
 10
8277.650113882446
 20
1823.841310031424
 30
0.0
 11
8277.650113882453
 21
2228.841310031425
 31
0.0
  0
LINE
  5
22CEC
330
747D
100
AcDbEntity
  8
細線
 48
50.0
100
AcDbLine
 10
8079.650113882454
 20
1876.807425866213
 30
0.0
 11
8277.650113882449
 21
2074.807425866204
 31
0.0
  0
ARC
  5
22CED
330
747D
100
AcDbEntity
  8
部品1
100
AcDbCircle
 10
8367.650113882453
 20
1947.591310031424
 30
0.0
 40
22.5
100
AcDbArc
 50
180.0
 51
270.0
  0
LINE
  5
22CEE
330
747D
100
AcDbEntity
  8
細線
 48
50.0
100
AcDbLine
 10
8079.650113882454
 20
2146.215109498287
 30
0.0
 11
8162.27631441559
 21
2228.841310031425
 31
0.0
  0
LINE
  5
22CEF
330
747D
100
AcDbEntity
  8
細線
 48
50.0
100
AcDbLine
 10
8079.650113882454
 20
2179.891069952298
 30
0.0
 11
8128.600353961585
 21
2228.841310031425
 31
0.0
  0
LINE
  5
22CF0
330
747D
100
AcDbEntity
  8
部品1
100
AcDbLine
 10
8090.900113882453
 20
2240.791310031426
 30
0.0
 11
8105.525113882446
 21
2240.791310031426
 31
0.0
  0
LINE
  5
22CF1
330
747D
100
AcDbEntity
  8
細線
 48
50.0
100
AcDbLine
 10
8079.650113882454
 20
2213.567030406307
 30
0.0
 11
8094.924393507573
 21
2228.841310031425
 31
0.0
  0
ARC
  5
22CF2
330
747D
100
AcDbEntity
  8
部品1
100
AcDbCircle
 10
8090.900113882453
 20
2244.166310031424
 30
0.0
 40
3.375
100
AcDbArc
 50
180.0
 51
270.0
  0
ARC
  5
22CF3
330
747D
100
AcDbEntity
  8
部品1
100
AcDbCircle
 10
8264.150113882454
 20
2244.166310031424
 30
0.0
 40
3.375
100
AcDbArc
 50
270.0
 51
0.0
  0
ARC
  5
22CF4
330
747D
100
AcDbEntity
  8
部品1
100
AcDbCircle
 10
8285.850113882446
 20
2244.166310031424
 30
0.0
 40
3.375
100
AcDbArc
 50
180.0
 51
270.0
  0
LINE
  5
22CF5
330
747D
100
AcDbEntity
  8
部品1
100
AcDbLine
 10
8249.525113882453
 20
2240.791310031426
 30
0.0
 11
8264.150113882454
 21
2240.791310031426
 31
0.0
  0
LINE
  5
22CF6
330
747D
100
AcDbEntity
  8
細線
 48
50.0
100
AcDbLine
 10
8435.150113882455
 20
1962.899742234122
 30
0.0
 11
8597.150113882454
 21
2124.899742234112
 31
0.0
  0
LINE
  5
22CF7
330
747D
100
AcDbEntity
  8
部品1
100
AcDbLine
 10
8435.150113882453
 20
1823.841310031424
 30
0.0
 11
8435.150113882453
 21
2228.841310031425
 31
0.0
  0
LINE
  5
22CF8
330
747D
100
AcDbEntity
  8
部品1
100
AcDbLine
 10
8412.650113882454
 20
1925.091310031423
 30
0.0
 11
8412.650113882454
 21
1947.591310031424
 31
0.0
  0
LINE
  5
22CF9
330
747D
100
AcDbEntity
  8
細線
 48
50.0
100
AcDbLine
 10
8435.150113882455
 20
1996.575702688139
 30
0.0
 11
8597.150113882454
 21
2158.575702688136
 31
0.0
  0
LINE
  5
22CFA
330
747D
100
AcDbEntity
  8
細線
 48
50.0
100
AcDbLine
 10
8435.150113882455
 20
2030.251663142161
 30
0.0
 11
8597.150113882454
 21
2192.25166314216
 31
0.0
  0
LINE
  5
22CFB
330
747D
100
AcDbEntity
  8
部品1
 48
50.0
100
AcDbLine
 10
8336.400113882453
 20
2707.435411417854
 30
0.0
 11
8376.400113882453
 21
2707.435411417854
 31
0.0
  0
LINE
  5
22CFC
330
747D
100
AcDbEntity
  8
部品1
 48
50.0
100
AcDbLine
 10
8336.400113882453
 20
2667.435411417854
 30
0.0
 11
8376.400113882453
 21
2667.435411417854
 31
0.0
  0
ELLIPSE
  5
22CFD
330
747D
100
AcDbEntity
  8
細線
 48
50.0
100
AcDbEllipse
 10
8356.400113882454
 20
2717.435411417854
 30
0.0
 11
18.45838483258558
 21
0.0
 31
0.0
210
0.0
220
0.0
230
1.0
 40
0.2071254069489396
 41
0.0
 42
6.283185307179584
  0
LINE
  5
22CFE
330
747D
100
AcDbEntity
  8
部品1
 48
50.0
100
AcDbLine
 10
8336.400113882453
 20
2727.435411417854
 30
0.0
 11
8376.400113882453
 21
2727.435411417854
 31
0.0
  0
ELLIPSE
  5
22CFF
330
747D
100
AcDbEntity
  8
部品1
 48
50.0
100
AcDbEllipse
 10
8356.400113882454
 20
2553.245420586766
 30
0.0
 11
50.0
 21
0.0
 31
0.0
210
0.0
220
0.0
230
1.0
 40
0.4
 41
3.141592653589792
 42
6.283185307179584
  0
ELLIPSE
  5
22D00
330
747D
100
AcDbEntity
  8
部品1
 48
50.0
100
AcDbEllipse
 10
8356.400113882454
 20
2565.245420586766
 30
0.0
 11
50.0
 21
0.0
 31
0.0
210
0.0
220
0.0
230
1.0
 40
0.4
 41
0.0
 42
6.283185307179584
  0
ELLIPSE
  5
22D01
330
747D
100
AcDbEntity
  8
部品1
 48
50.0
100
AcDbEllipse
 10
8356.400113882454
 20
2565.245420586766
 30
0.0
 11
23.0
 21
0.0
 31
0.0
210
0.0
220
0.0
230
1.0
 40
0.3478260869565217
 41
0.0
 42
6.283185307179584
  0
LINE
  5
22D02
330
747D
100
AcDbEntity
  8
部品1
100
AcDbLine
 10
8158.400113882452
 20
2368.341310031425
 30
0.0
 11
8211.275113882454
 21
2368.341310031421
 31
0.0
  0
LINE
  5
22D03
330
747D
100
AcDbEntity
  8
部品1
100
AcDbLine
 10
8104.400113882453
 20
2341.341310031426
 30
0.0
 11
8151.650113882453
 21
2341.341310031426
 31
0.0
  0
LINE
  5
22D04
330
747D
100
AcDbEntity
  8
部品1
100
AcDbLine
 10
8090.081556147955
 20
2325.105420597801
 30
0.0
 11
8101.025113882453
 21
2327.841310031426
 31
0.0
  0
ARC
  5
22D05
330
747D
100
AcDbEntity
  8
部品1
100
AcDbCircle
 10
8090.900113882453
 20
2321.83118965981
 30
0.0
 40
3.375
100
AcDbArc
 50
104.0362434679059
 51
180.0
  0
ARC
  5
22D06
330
747D
100
AcDbEntity
  8
部品1
100
AcDbCircle
 10
8104.400113882453
 20
2337.966310031426
 30
0.0
 40
3.375
100
AcDbArc
 50
90.0
 51
180.0
  0
LINE
  5
22D07
330
747D
100
AcDbEntity
  8
部品1
100
AcDbLine
 10
8101.025113882453
 20
2327.841310031426
 30
0.0
 11
8101.025113882453
 21
2337.966310031426
 31
0.0
  0
ARC
  5
22D08
330
747D
100
AcDbEntity
  8
部品1
100
AcDbCircle
 10
8155.025113882455
 20
2351.466310031426
 30
0.0
 40
3.375
100
AcDbArc
 50
90.0
 51
180.0
  0
LINE
  5
22D09
330
747D
100
AcDbEntity
  8
部品1
100
AcDbLine
 10
8151.650113882453
 20
2341.341310031426
 30
0.0
 11
8151.650113882453
 21
2351.466310031426
 31
0.0
  0
LINE
  5
22D0A
330
747D
100
AcDbEntity
  8
部品1
100
AcDbLine
 10
8155.025113882455
 20
2354.841310031426
 30
0.0
 11
8155.025113882455
 21
2364.966310031426
 31
0.0
  0
LINE
  5
22D0B
330
747D
100
AcDbEntity
  8
部品1
100
AcDbLine
 10
8155.025113882455
 20
2354.841310031426
 30
0.0
 11
8155.025113882455
 21
2354.841310031426
 31
0.0
  0
ARC
  5
22D0C
330
747D
100
AcDbEntity
  8
部品1
100
AcDbCircle
 10
8158.400113882452
 20
2364.966310031426
 30
0.0
 40
3.375
100
AcDbArc
 50
90.0
 51
180.0
  0
LINE
  5
22D0D
330
747D
100
AcDbEntity
  8
部品1
100
AcDbLine
 10
8240.525113882453
 20
2312.416310031427
 30
0.0
 11
8240.525113882453
 21
2291.041310031426
 31
0.0
  0
ARC
  5
22D0E
330
747D
100
AcDbEntity
  8
部品1
100
AcDbCircle
 10
8264.150113882454
 20
2297.466310031426
 30
0.0
 40
3.375
100
AcDbArc
 50
0.0
 51
90.0
  0
LINE
  5
22D0F
330
747D
100
AcDbEntity
  8
部品1
100
AcDbLine
 10
8349.650113882454
 20
2294.791310031425
 30
0.0
 11
8363.150113882452
 21
2294.791310031425
 31
0.0
  0
LINE
  5
22D10
330
747D
100
AcDbEntity
  8
部品1
100
AcDbLine
 10
8345.150113882453
 20
2290.291310031426
 30
0.0
 11
8367.650113882453
 21
2290.291310031426
 31
0.0
  0
ARC
  5
22D11
330
747D
100
AcDbEntity
  8
部品1
100
AcDbCircle
 10
8279.100113882455
 20
2312.416310031427
 30
0.0
 40
3.375
100
AcDbArc
 50
0.0
 51
90.0
  0
ARC
  5
22D12
330
747D
100
AcDbEntity
  8
部品1
100
AcDbCircle
 10
8243.900113882453
 20
2312.416310031427
 30
0.0
 40
3.375
100
AcDbArc
 50
90.0
 51
180.0
  0
LINE
  5
22D13
330
747D
100
AcDbEntity
  8
部品1
100
AcDbLine
 10
8243.900113882453
 20
2315.791310031425
 30
0.0
 11
8279.100113882455
 21
2315.791310031425
 31
0.0
  0
LINE
  5
22D14
330
747D
100
AcDbEntity
  8
部品1
 48
50.0
100
AcDbLine
 10
8306.400113882453
 20
2565.245420586766
 30
0.0
 11
8306.400113882453
 21
2553.245420586766
 31
0.0
  0
LINE
  5
22D15
330
747D
100
AcDbEntity
  8
部品1
100
AcDbLine
 10
8214.650113882454
 20
2364.966310031421
 30
0.0
 11
8214.650113882454
 21
2300.841310031426
 31
0.0
  0
ARC
  5
22D16
330
747D
100
AcDbEntity
  8
部品1
100
AcDbCircle
 10
8211.275113882454
 20
2364.966310031421
 30
0.0
 40
3.375
100
AcDbArc
 50
0.0
 51
90.0
  0
LINE
  5
22D17
330
747D
100
AcDbEntity
  8
部品1
100
AcDbLine
 10
8214.650113882454
 20
2300.841310031426
 30
0.0
 11
8264.150113882454
 21
2300.841310031426
 31
0.0
  0
LINE
  5
22D18
330
747D
100
AcDbEntity
  8
部品1
 48
50.0
100
AcDbLine
 10
8316.400113882453
 20
2717.435411417854
 30
0.0
 11
8336.400113882453
 21
2727.435411417854
 31
0.0
  0
LINE
  5
22D19
330
747D
100
AcDbEntity
  8
部品1
 48
50.0
100
AcDbLine
 10
8316.400113882453
 20
2677.435411417854
 30
0.0
 11
8336.400113882453
 21
2667.435411417854
 31
0.0
  0
LINE
  5
22D1A
330
747D
100
AcDbEntity
  8
部品1
 48
50.0
100
AcDbLine
 10
8316.400113882453
 20
2717.435411417854
 30
0.0
 11
8336.400113882453
 21
2707.435411417854
 31
0.0
  0
LINE
  5
22D1B
330
747D
100
AcDbEntity
  8
部品1
 48
50.0
100
AcDbLine
 10
8316.400113882453
 20
2677.435411417854
 30
0.0
 11
8316.400113882453
 21
2717.435411417854
 31
0.0
  0
LINE
  5
22D1C
330
747D
100
AcDbEntity
  8
細線
 48
50.0
100
AcDbLine
 10
8336.400113882453
 20
2667.435411417854
 30
0.0
 11
8336.400113882453
 21
2707.435411417854
 31
0.0
  0
LINE
  5
22D1D
330
747D
100
AcDbEntity
  8
部品1
 48
50.0
100
AcDbLine
 10
8406.400113882453
 20
2553.245420586766
 30
0.0
 11
8406.400113882453
 21
2565.245420586766
 31
0.0
  0
LINE
  5
22D1E
330
747D
100
AcDbEntity
  8
部品1
 48
50.0
100
AcDbLine
 10
8376.400113882453
 20
2727.435411417854
 30
0.0
 11
8396.400113882455
 21
2717.435411417854
 31
0.0
  0
LINE
  5
22D1F
330
747D
100
AcDbEntity
  8
部品1
 48
50.0
100
AcDbLine
 10
8396.400113882455
 20
2677.435411417854
 30
0.0
 11
8396.400113882455
 21
2717.435411417854
 31
0.0
  0
LINE
  5
22D20
330
747D
100
AcDbEntity
  8
細線
 48
50.0
100
AcDbLine
 10
8376.400113882453
 20
2667.435411417854
 30
0.0
 11
8376.400113882453
 21
2707.435411417854
 31
0.0
  0
LINE
  5
22D21
330
747D
100
AcDbEntity
  8
部品1
 48
50.0
100
AcDbLine
 10
8376.400113882453
 20
2707.435411417854
 30
0.0
 11
8396.400113882455
 21
2717.435411417854
 31
0.0
  0
LINE
  5
22D22
330
747D
100
AcDbEntity
  8
部品1
 48
50.0
100
AcDbLine
 10
8376.400113882453
 20
2667.435411417854
 30
0.0
 11
8396.400113882455
 21
2677.435411417854
 31
0.0
  0
LINE
  5
22D23
330
747D
100
AcDbEntity
  8
細線
 48
50.0
100
AcDbLine
 10
10362.13254232402
 20
1654.217665464734
 30
0.0
 11
10405.004413113
 21
1814.217665464735
 31
0.0
  0
TEXT
  5
22D24
330
747D
100
AcDbEntity
  8
部品1
 48
50.0
100
AcDbText
 10
9766.422420812771
 20
1595.341634234788
 30
0.0
 40
100.0
  1
ボルトの出
 50
90.0
  7
STYLE2
100
AcDbText
  0
LINE
  5
22D25
330
747D
100
AcDbEntity
  8
部品1
100
AcDbLine
 10
10241.76404913807
 20
1654.217665464733
 30
0.0
 11
10241.76404913807
 21
1928.841310031424
 31
0.0
  0
LINE
  5
22D26
330
747D
100
AcDbEntity
  8
細線
 48
50.0
100
AcDbLine
 10
10263.52248613996
 20
1654.217665464738
 30
0.0
 11
10306.39435692894
 21
1814.217665464737
 31
0.0
  0
LINE
  5
22D27
330
747D
100
AcDbEntity
  8
部品1
 48
50.0
100
AcDbLine
 10
8857.150113882457
 20
1248.841310031424
 30
0.0
 11
8857.150113882457
 21
1088.841310031424
 31
0.0
  0
LINE
  5
22D28
330
747D
100
AcDbEntity
  8
細線
 48
50.0
100
AcDbLine
 10
8802.622395372873
 20
1218.841310031423
 30
0.0
 11
8794.58391959994
 21
1248.841310031423
 31
0.0
  0
LINE
  5
22D29
330
747D
100
AcDbEntity
  8
細線
 48
50.0
100
AcDbLine
 10
10370.17101809695
 20
1684.217665464737
 30
0.0
 11
10378.20949386989
 21
1654.217665464738
 31
0.0
  0
LINE
  5
22D2A
330
747D
100
AcDbEntity
  8
細線
 48
50.0
100
AcDbLine
 10
10271.5609619129
 20
1684.217665464737
 30
0.0
 11
10279.59943768582
 21
1654.217665464738
 31
0.0
  0
LINE
  5
22D2B
330
747D
100
AcDbEntity
  8
部品1
100
AcDbLine
 10
10391.76404913807
 20
1928.841310031424
 30
0.0
 11
10391.76404913807
 21
2228.841310031425
 31
0.0
  0
LINE
  5
22D2C
330
747D
100
AcDbEntity
  8
細線
 48
50.0
100
AcDbLine
 10
10298.35588115601
 20
1784.217665464737
 30
0.0
 11
10290.31740538307
 21
1814.217665464737
 31
0.0
  0
LINE
  5
22D2D
330
747D
100
AcDbEntity
  8
細線
 48
50.0
100
AcDbLine
 10
10396.96593734007
 20
1784.217665464737
 30
0.0
 11
10388.92746156714
 21
1814.217665464737
 31
0.0
  0
TEXT
  5
22D2E
330
747D
100
AcDbEntity
  8
部品1
100
AcDbText
 10
7841.729389375825
 20
3655.615919813197
 30
0.0
 40
150.0
  1
基礎詳細
  7
STYLE2
100
AcDbText
  0
LINE
  5
22D2F
330
747D
100
AcDbEntity
  8
部品1
100
AcDbLine
 10
11732.2749769572
 20
620.9863320043918
 30
0.0
 11
11732.2749769572
 21
3880.055834752482
 31
0.0
  0
LINE
  5
22D30
330
747D
100
AcDbEntity
  8
部品1
100
AcDbLine
 10
11141.76404913807
 20
1928.841310031424
 30
0.0
 11
11141.76404913807
 21
1654.217665464738
 31
0.0
  0
LINE
  5
22D31
330
747D
100
AcDbEntity
  8
細線
 48
50.0
100
AcDbLine
 10
10953.79287942838
 20
1654.217665464733
 30
0.0
 11
10996.66475021736
 21
1814.217665464732
 31
0.0
  0
LINE
  5
22D32
330
747D
100
AcDbEntity
  8
細線
 48
50.0
100
AcDbLine
 10
11052.40293561243
 20
1654.217665464734
 30
0.0
 11
11095.27480640142
 21
1814.217665464732
 31
0.0
  0
LINE
  5
22D33
330
747D
100
AcDbEntity
  8
細線
 48
50.0
100
AcDbLine
 10
10756.57276706026
 20
1654.217665464738
 30
0.0
 11
10799.44463784924
 21
1814.217665464735
 31
0.0
  0
LINE
  5
22D34
330
747D
100
AcDbEntity
  8
細線
 48
50.0
100
AcDbLine
 10
10855.18282324432
 20
1654.217665464734
 30
0.0
 11
10898.05469403329
 21
1814.217665464737
 31
0.0
  0
LINE
  5
22D35
330
747D
100
AcDbEntity
  8
細線
 48
50.0
100
AcDbLine
 10
10559.35265469214
 20
1654.217665464738
 30
0.0
 11
10602.22452548112
 21
1814.217665464735
 31
0.0
  0
LINE
  5
22D36
330
747D
100
AcDbEntity
  8
細線
 48
50.0
100
AcDbLine
 10
10460.74259850808
 20
1654.217665464738
 30
0.0
 11
10503.61446929706
 21
1814.217665464737
 31
0.0
  0
LINE
  5
22D37
330
747D
100
AcDbEntity
  8
細線
 48
50.0
100
AcDbLine
 10
10657.9627108762
 20
1654.217665464734
 30
0.0
 11
10700.83458166518
 21
1814.217665464735
 31
0.0
  0
LINE
  5
22D38
330
747D
100
AcDbEntity
  8
細線
 48
50.0
100
AcDbLine
 10
10567.39113046508
 20
1684.217665464737
 30
0.0
 11
10575.42960623802
 21
1654.217665464738
 31
0.0
  0
LINE
  5
22D39
330
747D
100
AcDbEntity
  8
細線
 48
50.0
100
AcDbLine
 10
10468.78107428103
 20
1684.217665464737
 30
0.0
 11
10476.81955005396
 21
1654.217665464738
 31
0.0
  0
LINE
  5
22D3A
330
747D
100
AcDbEntity
  8
細線
 48
50.0
100
AcDbLine
 10
10764.6112428332
 20
1684.217665464737
 30
0.0
 11
10772.64971860613
 21
1654.217665464738
 31
0.0
  0
LINE
  5
22D3B
330
747D
100
AcDbEntity
  8
細線
 48
50.0
100
AcDbLine
 10
10666.00118664914
 20
1684.217665464737
 30
0.0
 11
10674.03966242207
 21
1654.217665464738
 31
0.0
  0
LINE
  5
22D3C
330
747D
100
AcDbEntity
  8
細線
 48
50.0
100
AcDbLine
 10
10961.83135520132
 20
1684.217665464734
 30
0.0
 11
10969.86983097425
 21
1654.217665464734
 31
0.0
  0
LINE
  5
22D3D
330
747D
100
AcDbEntity
  8
細線
 48
50.0
100
AcDbLine
 10
10863.22129901726
 20
1684.217665464737
 30
0.0
 11
10871.2597747902
 21
1654.217665464738
 31
0.0
  0
LINE
  5
22D3E
330
747D
100
AcDbEntity
  8
細線
 48
50.0
100
AcDbLine
 10
11060.44141138537
 20
1684.217665464734
 30
0.0
 11
11068.47988715831
 21
1654.217665464734
 31
0.0
  0
MTEXT
  5
22D3F
102
{ACAD_REACTORS
330
22D40
102
}
330
747D
100
AcDbEntity
  8
寸法
 62
     7
 48
50.0
100
AcDbMText
 10
11134.09232195003
 20
2550.274210882848
 30
0.0
 40
150.0
 41
1.0
 71
     4
 72
     1
  1
\A1;C.B
  7
STYLE1
 73
     1
 44
1.0
1001
ACAD
1000
MTEXTBEGIN
1070
    73
1070
     1
1070
    44
1040
1.0
1070
    74
1070
     0
1000
MTEXTEND
  0
LEADER
  5
22D40
330
747D
100
AcDbEntity
  8
寸法
 48
50.0
100
AcDbLeader
  3
INABA_S40G
 73
     0
 74
     0
 75
     1
 40
150.0
 41
231.9898538650463
 76
     3
 10
10905.16956365797
 20
2228.841310031425
 30
0.0
 10
10994.09232195003
 20
2435.274210882848
 30
0.0
 10
11094.09232195003
 20
2435.274210882848
 30
0.0
1001
ACAD
1000
DSTYLE
1002
{
1070
   341
1005
0
1002
}
  0
LINE
  5
22D41
330
747D
100
AcDbEntity
  8
細線
100
AcDbLine
 10
10974.46697120359
 20
1928.841310031426
 30
0.0
 11
10674.4669712036
 21
2228.841310031425
 31
0.0
  0
LINE
  5
22D42
330
747D
100
AcDbEntity
  8
細線
100
AcDbLine
 10
10910.82736089681
 20
1928.841310031424
 30
0.0
 11
10610.82736089681
 21
2228.841310031425
 31
0.0
  0
LINE
  5
22D43
330
747D
100
AcDbEntity
  8
細線
 48
50.0
100
AcDbLine
 10
10495.57599352414
 20
1784.217665464737
 30
0.0
 11
10487.5375177512
 21
1814.217665464737
 31
0.0
  0
LINE
  5
22D44
330
747D
100
AcDbEntity
  8
細線
 48
50.0
100
AcDbLine
 10
10594.18604970818
 20
1784.217665464737
 30
0.0
 11
10586.14757393526
 21
1814.217665464737
 31
0.0
  0
LINE
  5
22D45
330
747D
100
AcDbEntity
  8
細線
100
AcDbLine
 10
10467.91235600462
 20
1814.217665464738
 30
0.0
 11
10582.5360005713
 21
1928.841310031424
 31
0.0
  0
LINE
  5
22D46
330
747D
100
AcDbEntity
  8
細線
100
AcDbLine
 10
10425.48594913343
 20
1814.217665464738
 30
0.0
 11
10540.10959370011
 21
1928.841310031424
 31
0.0
  0
LINE
  5
22D47
330
747D
100
AcDbEntity
  8
細線
 48
50.0
100
AcDbLine
 10
10791.40616207631
 20
1784.217665464737
 30
0.0
 11
10783.36768630338
 21
1814.217665464737
 31
0.0
  0
LINE
  5
22D48
330
747D
100
AcDbEntity
  8
細線
 48
50.0
100
AcDbLine
 10
10692.79610589225
 20
1784.217665464737
 30
0.0
 11
10684.75763011932
 21
1814.217665464737
 31
0.0
  0
LINE
  5
22D49
330
747D
100
AcDbEntity
  8
部品1
100
AcDbLine
 10
10991.76404913807
 20
2228.841310031425
 30
0.0
 11
10991.76404913807
 21
1928.841310031424
 31
0.0
  0
LINE
  5
22D4A
330
747D
100
AcDbEntity
  8
細線
 48
50.0
100
AcDbLine
 10
10988.62627444442
 20
1784.217665464734
 30
0.0
 11
10980.58779867149
 21
1814.217665464735
 31
0.0
  0
LINE
  5
22D4B
330
747D
100
AcDbEntity
  8
細線
 48
50.0
100
AcDbLine
 10
10890.01621826036
 20
1784.217665464737
 30
0.0
 11
10881.97774248742
 21
1814.217665464737
 31
0.0
  0
LINE
  5
22D4C
330
747D
100
AcDbEntity
  8
細線
100
AcDbLine
 10
10917.91235600462
 20
1814.21766546474
 30
0.0
 11
11032.5360005713
 21
1928.841310031424
 31
0.0
  0
LINE
  5
22D4D
330
747D
100
AcDbEntity
  8
細線
100
AcDbLine
 10
10833.05954226224
 20
1814.21766546474
 30
0.0
 11
10947.68318682892
 21
1928.841310031424
 31
0.0
  0
LINE
  5
22D4E
330
747D
100
AcDbEntity
  8
細線
100
AcDbLine
 10
10875.48594913343
 20
1814.21766546474
 30
0.0
 11
10990.10959370011
 21
1928.841310031424
 31
0.0
  0
LINE
  5
22D4F
330
747D
100
AcDbEntity
  8
細線
 48
50.0
100
AcDbLine
 10
11087.23633062849
 20
1784.217665464734
 30
0.0
 11
11079.19785485555
 21
1814.217665464735
 31
0.0
  0
HATCH
  5
22E07
330
747D
100
AcDbEntity
  8
細線
 48
50.0
100
AcDbHatch
 10
0.0
 20
0.0
 30
0.0
210
0.0
220
0.0
230
1.0
  2
LINE
 70
     0
 71
     0
 91
        1
 92
        7
 72
     0
 73
     1
 93
        4
 10
10438.6
 20
7263.2117986854
 10
10318.6
 20
7263.2117986854
 10
10318.6
 20
7063.2117986854
 10
10438.6
 20
7063.2117986854
 97
        0
 75
     0
 76
     1
 52
45.0
 41
10.0
 77
     0
 78
     1
 53
45.0
 43
0.0
 44
0.0
 45
-22.45064030267288
 46
22.45064030267288
 79
     0
 47
3.192694916391255
 98
        1
 10
10365.39486675973
 20
7205.458609177455
  0
HATCH
  5
22E1F
330
747D
100
AcDbEntity
  8
細線
 48
50.0
100
AcDbHatch
 10
0.0
 20
0.0
 30
0.0
210
0.0
220
0.0
230
1.0
  2
LINE
 70
     0
 71
     0
 91
        1
 92
        7
 72
     0
 73
     1
 93
        4
 10
9428.600000000001
 20
8063.211798685399
 10
9228.6
 20
8063.211798685397
 10
9228.599999999998
 20
7943.211798685396
 10
9428.599999999997
 20
7943.211798685395
 97
        0
 75
     0
 76
     1
 52
45.0
 41
10.0
 77
     0
 78
     1
 53
45.0
 43
0.0
 44
0.0
 45
-22.45064030267288
 46
22.45064030267288
 79
     0
 47
3.192694916391255
 98
        1
 10
9381.626728802199
 20
8010.017745595542
  0
HATCH
  5
22E38
330
747D
100
AcDbEntity
  8
細線
 48
50.0
100
AcDbHatch
 10
0.0
 20
0.0
 30
0.0
210
0.0
220
0.0
230
1.0
  2
LINE
 70
     0
 71
     0
 91
        1
 92
        7
 72
     0
 73
     1
 93
        4
 10
9428.60000000001
 20
6383.211798685411
 10
9228.600000000012
 20
6383.21179868541
 10
9228.600000000012
 20
6263.211798685405
 10
9428.60000000001
 20
6263.211798685405
 97
        0
 75
     0
 76
     1
 52
45.0
 41
10.0
 77
     0
 78
     1
 53
45.0
 43
0.0
 44
0.0
 45
-22.45064030267288
 46
22.45064030267288
 79
     0
 47
3.19283885389691
 98
        1
 10
9289.013623705853
 20
6314.654383227106
  0
HATCH
  5
22E5D
330
747D
100
AcDbEntity
  8
細線
 48
50.0
100
AcDbHatch
 10
0.0
 20
0.0
 30
0.0
210
0.0
220
0.0
230
1.0
  2
LINE
 70
     0
 71
     0
 91
        1
 92
        7
 72
     0
 73
     1
 93
        4
 10
7218.600000000001
 20
6383.211798685404
 10
7018.599999999998
 20
6383.211798685403
 10
7018.600000000001
 20
6188.211798685393
 10
7218.599999999999
 20
6188.211798685394
 97
        0
 75
     0
 76
     1
 52
45.0
 41
10.0
 77
     0
 78
     1
 53
45.0
 43
0.0
 44
0.0
 45
-22.45064030267288
 46
22.45064030267288
 79
     0
 47
13.0778679830953
 98
        1
 10
7112.475355726201
 20
6312.635761092497
  0
HATCH
  5
22E82
330
747D
100
AcDbEntity
  8
細線
 48
50.0
100
AcDbHatch
 10
0.0
 20
0.0
 30
0.0
210
0.0
220
0.0
230
1.0
  2
LINE
 70
     0
 71
     0
 91
        1
 92
        7
 72
     0
 73
     1
 93
        4
 10
6128.600000000002
 20
7263.211798685398
 10
6008.600000000001
 20
7263.211798685398
 10
6008.6
 20
7063.211798685397
 10
6128.6
 20
7063.211798685397
 97
        0
 75
     0
 76
     1
 52
45.0
 41
10.0
 77
     0
 78
     1
 53
45.0
 43
0.0
 44
0.0
 45
-22.45064030267288
 46
22.45064030267288
 79
     0
 47
13.0778679830953
 98
        1
 10
6052.717659149727
 20
7201.930778995855
  0
HATCH
  5
22EA7
330
747D
100
AcDbEntity
  8
細線
 48
50.0
100
AcDbHatch
 10
0.0
 20
0.0
 30
0.0
210
0.0
220
0.0
230
1.0
  2
LINE
 70
     0
 71
     0
 91
        1
 92
        7
 72
     0
 73
     1
 93
        4
 10
7218.599999999999
 20
8063.211798685397
 10
7018.599999999999
 20
8063.211798685399
 10
7018.599999999999
 20
7943.211798685398
 10
7218.599999999999
 20
7943.211798685396
 97
        0
 75
     0
 76
     1
 52
45.0
 41
10.0
 77
     0
 78
     1
 53
45.0
 43
0.0
 44
0.0
 45
-22.45064030267288
 46
22.45064030267288
 79
     0
 47
13.0778679830953
 98
        1
 10
7086.30850312199
 20
8012.758610476515
  0
ENDSEC
  0
SECTION
  2
OBJECTS
  0
DICTIONARY
  5
7471
330
0
100
AcDbDictionary
281
     1
  3
ACAD_COLOR
350
173D2
  3
ACAD_GROUP
350
7472
  3
ACAD_LAYOUT
350
173D3
  3
ACAD_MATERIAL
350
173D1
  3
ACAD_MLINESTYLE
350
7473
  3
ACAD_PLOTSETTINGS
350
173D4
  3
ACAD_PLOTSTYLENAME
350
173CF
  3
ACDBHEADERROUNDTRIPXREC
350
22EFD
  3
AcDbVariableDictionary
350
22EF9
  3
CONTENTDICTIONARY
350
E71C
  3
DRAWINGVARIABLESDICT
350
F3B9
  0
DICTIONARY
  5
1758F
330
7467
100
AcDbDictionary
280
     1
281
     1
  3
ACAD_LAYERSTATES
360
17590
  0
DICTIONARY
  5
173D2
102
{ACAD_REACTORS
330
7471
102
}
330
7471
100
AcDbDictionary
281
     1
  0
DICTIONARY
  5
7472
102
{ACAD_REACTORS
330
7471
102
}
330
7471
100
AcDbDictionary
281
     1
  3
*A1
350
1D2A9
  0
DICTIONARY
  5
173D3
102
{ACAD_REACTORS
330
7471
102
}
330
7471
100
AcDbDictionary
281
     1
  3
Model
350
173D5
  3
レイアウト1
350
173D6
  0
DICTIONARY
  5
173D1
102
{ACAD_REACTORS
330
7471
102
}
330
7471
100
AcDbDictionary
281
     1
  0
DICTIONARY
  5
7473
102
{ACAD_REACTORS
330
7471
102
}
330
7471
100
AcDbDictionary
281
     1
  3
STANDARD
350
7480
  0
DICTIONARY
  5
173D4
102
{ACAD_REACTORS
330
7471
102
}
330
7471
100
AcDbDictionary
281
     1
  0
ACDBDICTIONARYWDFLT
  5
173CF
102
{ACAD_REACTORS
330
7471
102
}
330
7471
100
AcDbDictionary
281
     1
  3
Normal
350
173D0
100
AcDbDictionaryWithDefault
340
173D0
  0
DICTIONARY
  5
22EFD
102
{ACAD_REACTORS
330
7471
102
}
330
7471
100
AcDbDictionary
281
     1
  3
COLORDICT
350
22EFF
  3
MATERIALDICT
350
22EFE
  0
DICTIONARY
  5
22EF9
102
{ACAD_REACTORS
330
7471
102
}
330
7471
100
AcDbDictionary
281
     1
  3
DIMASSOC
350
22EFA
  3
PROJECTNAME
350
22EFB
  0
DICTIONARY
  5
E71C
102
{ACAD_REACTORS
330
7471
102
}
330
7471
100
AcDbDictionary
281
     1
  0
DICTIONARY
  5
F3B9
102
{ACAD_REACTORS
330
7471
102
}
330
7471
100
AcDbDictionary
281
     1
1001
DRAWINGVARIABLESXDATA
1000
POLARMODE
1000
1
  0
DICTIONARY
  5
17590
102
{ACAD_REACTORS
330
1758F
102
}
330
1758F
100
AcDbDictionary
281
     1
  0
GROUP
  5
1D2A9
102
{ACAD_REACTORS
330
7472
102
}
330
7472
100
AcDbGroup
300

 70
     1
 71
     1
  0
LAYOUT
  5
173D5
102
{ACAD_XDICTIONARY
360
22F00
102
}
102
{ACAD_REACTORS
330
173D3
102
}
330
173D3
100
AcDbPlotSettings
  1

  2
クセロPDF
  4
A3
  6

 40
3.174999952316284
 41
3.174999952316284
 42
3.17498779296875
 43
3.17498779296875
 44
419.9466552734374
 45
296.9259948730469
 46
0.0
 47
0.0
 48
0.0
 49
0.0
140
0.0
141
0.0
142
1.0
143
40.0
 70
 11952
 72
     1
 73
     0
 74
     2
  7
inaba.ctb
 75
    24
147
0.025
148
0.0
149
0.0
100
AcDbLayout
  1
Model
 70
     1
 71
     0
 10
0.0
 20
0.0
 11
12.0
 21
9.0
 12
0.0
 22
0.0
 32
0.0
 14
0.0
 24
0.0
 34
0.0
 15
0.0
 25
0.0
 35
0.0
146
0.0
 13
0.0
 23
0.0
 33
0.0
 16
1.0
 26
0.0
 36
0.0
 17
0.0
 27
1.0
 37
0.0
 76
     0
330
747D
  0
LAYOUT
  5
173D6
102
{ACAD_XDICTIONARY
360
22F02
102
}
102
{ACAD_REACTORS
330
173D3
102
}
330
173D3
100
AcDbPlotSettings
  1

  2
Microsoft Office Document Image Writer
  4

  6

 40
0.0
 41
0.0
 42
0.0
 43
0.0
 44
0.0
 45
0.0
 46
0.0
 47
0.0
 48
0.0
 49
0.0
140
0.0
141
0.0
142
1.0
143
1.0
 70
   688
 72
     0
 73
     0
 74
     5
  7

 75
    16
147
1.0
148
0.0
149
0.0
100
AcDbLayout
  1
レイアウト1
 70
     0
 71
     1
 10
0.0
 20
0.0
 11
420.0
 21
297.0
 12
0.0
 22
0.0
 32
0.0
 14
1.000000000000000E+20
 24
1.000000000000000E+20
 34
1.000000000000000E+20
 15
-1.000000000000000E+20
 25
-1.000000000000000E+20
 35
-1.000000000000000E+20
146
0.0
 13
0.0
 23
0.0
 33
0.0
 16
1.0
 26
0.0
 36
0.0
 17
0.0
 27
1.0
 37
0.0
 76
     0
330
747A
  0
MLINESTYLE
  5
7480
102
{ACAD_REACTORS
330
7473
102
}
330
7473
100
AcDbMlineStyle
  2
STANDARD
 70
     0
  3

 62
     0
 51
90.0
 52
90.0
 71
     2
 49
0.5
 62
   256
  6
BYLAYER
 49
-0.5
 62
   256
  6
BYLAYER
  0
ACDBPLACEHOLDER
  5
173D0
102
{ACAD_REACTORS
330
173CF
102
}
330
173CF
  0
XRECORD
  5
22EFF
102
{ACAD_REACTORS
330
22EFD
102
}
330
22EFD
100
AcDbXrecord
280
     1
340
173D2
  0
XRECORD
  5
22EFE
102
{ACAD_REACTORS
330
22EFD
102
}
330
22EFD
100
AcDbXrecord
280
     1
340
173D1
  0
DICTIONARYVAR
  5
22EFA
102
{ACAD_REACTORS
330
22EF9
102
}
330
22EF9
100
DictionaryVariables
280
     0
  1
1
  0
DICTIONARYVAR
  5
22EFB
102
{ACAD_REACTORS
330
22EF9
102
}
330
22EF9
100
DictionaryVariables
280
     0
  1

  0
DICTIONARY
  5
22F00
330
173D5
100
AcDbDictionary
280
     1
281
     1
  3
ACAD_XREC_ROUNDTRIP
360
22F01
  0
DICTIONARY
  5
22F02
330
173D6
100
AcDbDictionary
280
     1
281
     1
  3
ACAD_XREC_ROUNDTRIP
360
22F03
  0
XRECORD
  5
22F01
102
{ACAD_REACTORS
330
22F00
102
}
330
22F00
100
AcDbXrecord
280
     1
102
SHADEPLOT
 70
     0
102
SHADEPLOTRESLEVEL
 70
     2
102
SHADEPLOTCUSTOMDPI
 70
   150
  0
XRECORD
  5
22F03
102
{ACAD_REACTORS
330
22F02
102
}
330
22F02
100
AcDbXrecord
280
     1
102
SHADEPLOT
 70
     0
102
SHADEPLOTRESLEVEL
 70
     2
102
SHADEPLOTCUSTOMDPI
 70
   300
  0
ENDSEC
  0
EOF
