  0
SECTION
  2
HEADER
  9
$ACADVER
  1
AC1015
  9
$ACADMAINTVER
 70
    20
  9
$DWGCODEPAGE
  3
ANSI_932
  9
$INSBASE
 10
0.0
 20
0.0
 30
0.0
  9
$EXTMIN
 10
139.9999999999995
 20
-0.0000000000000909
 30
0.0
  9
$EXTMAX
 10
16307.2
 20
11409.6
 30
0.0
  9
$LIMMIN
 10
0.0
 20
0.0
  9
$LIMMAX
 10
16800.0
 20
11880.0
  9
$ORTHOMODE
 70
     0
  9
$REGENMODE
 70
     1
  9
$FILLMODE
 70
     1
  9
$QTEXTMODE
 70
     0
  9
$MIRRTEXT
 70
     1
  9
$LTSCALE
 40
20.0
  9
$ATTMODE
 70
     1
  9
$TEXTSIZE
 40
100.0
  9
$TRACEWID
 40
1.0
  9
$TEXTSTYLE
  7
STYLE2
  9
$CLAYER
  8
寸法
  9
$CELTYPE
  6
BYLAYER
  9
$CECOLOR
 62
   256
  9
$CELTSCALE
 40
50.0
  9
$DISPSILH
 70
     0
  9
$DIMSCALE
 40
40.0
  9
$DIMASZ
 40
2.5
  9
$DIMEXO
 40
0.5
  9
$DIMDLI
 40
7.0
  9
$DIMRND
 40
0.0
  9
$DIMDLE
 40
0.0
  9
$DIMEXE
 40
1.5
  9
$DIMTP
 40
0.0
  9
$DIMTM
 40
0.0
  9
$DIMTXT
 40
3.0
  9
$DIMCEN
 40
0.0
  9
$DIMTSZ
 40
0.0
  9
$DIMTOL
 70
     0
  9
$DIMLIM
 70
     0
  9
$DIMTIH
 70
     0
  9
$DIMTOH
 70
     0
  9
$DIMSE1
 70
     0
  9
$DIMSE2
 70
     0
  9
$DIMTAD
 70
     3
  9
$DIMZIN
 70
     8
  9
$DIMBLK
  1

  9
$DIMASO
 70
     1
  9
$DIMSHO
 70
     1
  9
$DIMPOST
  1

  9
$DIMAPOST
  1

  9
$DIMALT
 70
     0
  9
$DIMALTD
 70
     2
  9
$DIMALTF
 40
0.0394
  9
$DIMLFAC
 40
1.0
  9
$DIMTOFL
 70
     1
  9
$DIMTVP
 40
0.0
  9
$DIMTIX
 70
     0
  9
$DIMSOXD
 70
     0
  9
$DIMSAH
 70
     1
  9
$DIMBLK1
  1
DOTSMALL
  9
$DIMBLK2
  1
DOTSMALL
  9
$DIMSTYLE
  2
INABA_S40G
  9
$DIMCLRD
 70
     0
  9
$DIMCLRE
 70
     0
  9
$DIMCLRT
 70
     7
  9
$DIMTFAC
 40
1.0
  9
$DIMGAP
 40
1.0
  9
$DIMJUST
 70
     0
  9
$DIMSD1
 70
     0
  9
$DIMSD2
 70
     0
  9
$DIMTOLJ
 70
     1
  9
$DIMTZIN
 70
     0
  9
$DIMALTZ
 70
     0
  9
$DIMALTTZ
 70
     0
  9
$DIMUPT
 70
     0
  9
$DIMDEC
 70
     1
  9
$DIMTDEC
 70
     1
  9
$DIMALTU
 70
     2
  9
$DIMALTTD
 70
     2
  9
$DIMTXSTY
  7
STYLE1
  9
$DIMAUNIT
 70
     0
  9
$DIMADEC
 70
     0
  9
$DIMALTRND
 40
0.0
  9
$DIMAZIN
 70
     0
  9
$DIMDSEP
 70
    46
  9
$DIMATFIT
 70
     3
  9
$DIMFRAC
 70
     0
  9
$DIMLDRBLK
  1

  9
$DIMLUNIT
 70
     2
  9
$DIMLWD
 70
    -2
  9
$DIMLWE
 70
    -2
  9
$DIMTMOVE
 70
     0
  9
$LUNITS
 70
     2
  9
$LUPREC
 70
     1
  9
$SKETCHINC
 40
1.0
  9
$FILLETRAD
 40
0.0
  9
$AUNITS
 70
     0
  9
$AUPREC
 70
     0
  9
$MENU
  1
acad
  9
$ELEVATION
 40
0.0
  9
$PELEVATION
 40
0.0
  9
$THICKNESS
 40
0.0
  9
$LIMCHECK
 70
     0
  9
$CHAMFERA
 40
3.0
  9
$CHAMFERB
 40
3.0
  9
$CHAMFERC
 40
0.0
  9
$CHAMFERD
 40
0.0
  9
$SKPOLY
 70
     0
  9
$TDCREATE
 40
2451368.612993866
  9
$TDUCREATE
 40
2451368.237993866
  9
$TDUPDATE
 40
2455575.707748658
  9
$TDUUPDATE
 40
2455575.332748658
  9
$TDINDWG
 40
1.4317681481
  9
$TDUSRTIMER
 40
1.4317681481
  9
$USRTIMER
 70
     1
  9
$ANGBASE
 50
0.0
  9
$ANGDIR
 70
     0
  9
$PDMODE
 70
     3
  9
$PDSIZE
 40
2.0
  9
$PLINEWID
 40
0.0
  9
$SPLFRAME
 70
     0
  9
$SPLINETYPE
 70
     6
  9
$SPLINESEGS
 70
     8
  9
$HANDSEED
  5
225C8
  9
$SURFTAB1
 70
     6
  9
$SURFTAB2
 70
     6
  9
$SURFTYPE
 70
     6
  9
$SURFU
 70
     6
  9
$SURFV
 70
     6
  9
$UCSBASE
  2

  9
$UCSNAME
  2

  9
$UCSORG
 10
0.0
 20
0.0
 30
0.0
  9
$UCSXDIR
 10
1.0
 20
0.0
 30
0.0
  9
$UCSYDIR
 10
0.0
 20
1.0
 30
0.0
  9
$UCSORTHOREF
  2

  9
$UCSORTHOVIEW
 70
     0
  9
$UCSORGTOP
 10
0.0
 20
0.0
 30
0.0
  9
$UCSORGBOTTOM
 10
0.0
 20
0.0
 30
0.0
  9
$UCSORGLEFT
 10
0.0
 20
0.0
 30
0.0
  9
$UCSORGRIGHT
 10
0.0
 20
0.0
 30
0.0
  9
$UCSORGFRONT
 10
0.0
 20
0.0
 30
0.0
  9
$UCSORGBACK
 10
0.0
 20
0.0
 30
0.0
  9
$PUCSBASE
  2

  9
$PUCSNAME
  2

  9
$PUCSORG
 10
0.0
 20
0.0
 30
0.0
  9
$PUCSXDIR
 10
1.0
 20
0.0
 30
0.0
  9
$PUCSYDIR
 10
0.0
 20
1.0
 30
0.0
  9
$PUCSORTHOREF
  2

  9
$PUCSORTHOVIEW
 70
     0
  9
$PUCSORGTOP
 10
0.0
 20
0.0
 30
0.0
  9
$PUCSORGBOTTOM
 10
0.0
 20
0.0
 30
0.0
  9
$PUCSORGLEFT
 10
0.0
 20
0.0
 30
0.0
  9
$PUCSORGRIGHT
 10
0.0
 20
0.0
 30
0.0
  9
$PUCSORGFRONT
 10
0.0
 20
0.0
 30
0.0
  9
$PUCSORGBACK
 10
0.0
 20
0.0
 30
0.0
  9
$USERI1
 70
     0
  9
$USERI2
 70
     0
  9
$USERI3
 70
     0
  9
$USERI4
 70
     0
  9
$USERI5
 70
     0
  9
$USERR1
 40
0.0
  9
$USERR2
 40
0.0
  9
$USERR3
 40
0.0
  9
$USERR4
 40
0.0
  9
$USERR5
 40
0.0
  9
$WORLDVIEW
 70
     1
  9
$SHADEDGE
 70
     3
  9
$SHADEDIF
 70
    70
  9
$TILEMODE
 70
     1
  9
$MAXACTVP
 70
    16
  9
$PINSBASE
 10
0.0
 20
0.0
 30
0.0
  9
$PLIMCHECK
 70
     0
  9
$PEXTMIN
 10
1.000000000000000E+20
 20
1.000000000000000E+20
 30
1.000000000000000E+20
  9
$PEXTMAX
 10
-1.000000000000000E+20
 20
-1.000000000000000E+20
 30
-1.000000000000000E+20
  9
$PLIMMIN
 10
0.0
 20
0.0
  9
$PLIMMAX
 10
420.0
 20
297.0
  9
$UNITMODE
 70
     0
  9
$VISRETAIN
 70
     0
  9
$PLINEGEN
 70
     0
  9
$PSLTSCALE
 70
     0
  9
$TREEDEPTH
 70
  3020
  9
$CMLSTYLE
  2
STANDARD
  9
$CMLJUST
 70
     0
  9
$CMLSCALE
 40
1.0
  9
$PROXYGRAPHICS
 70
     1
  9
$MEASUREMENT
 70
     1
  9
$CELWEIGHT
370
    -1
  9
$ENDCAPS
280
     0
  9
$JOINSTYLE
280
     0
  9
$LWDISPLAY
290
     0
  9
$INSUNITS
 70
     0
  9
$HYPERLINKBASE
  1

  9
$STYLESHEET
  1
inaba.ctb
  9
$XEDIT
290
     1
  9
$CEPSNTYPE
380
     0
  9
$PSTYLEMODE
290
     1
  9
$FINGERPRINTGUID
  2
{3B57B35E-7D77-4BBF-81B7-6C583B9EB24C}
  9
$VERSIONGUID
  2
{B8ECF438-0F43-4EF8-9C75-C9A2BC9E6117}
  9
$EXTNAMES
290
     1
  9
$PSVPSCALE
 40
0.0
  9
$OLESTARTUP
290
     0
  0
ENDSEC
  0
SECTION
  2
CLASSES
  0
CLASS
  1
ACDBDICTIONARYWDFLT
  2
AcDbDictionaryWithDefault
  3
ObjectDBX Classes
 90
        0
280
     0
281
     0
  0
CLASS
  1
DICTIONARYVAR
  2
AcDbDictionaryVar
  3
ObjectDBX Classes
 90
        0
280
     0
281
     0
  0
CLASS
  1
ACDBPLACEHOLDER
  2
AcDbPlaceHolder
  3
ObjectDBX Classes
 90
        0
280
     0
281
     0
  0
CLASS
  1
LAYOUT
  2
AcDbLayout
  3
ObjectDBX Classes
 90
        0
280
     0
281
     0
  0
ENDSEC
  0
SECTION
  2
TABLES
  0
TABLE
  2
VPORT
  5
746D
330
0
100
AcDbSymbolTable
 70
     2
  0
VPORT
  5
225C0
330
746D
100
AcDbSymbolTableRecord
100
AcDbViewportTableRecord
  2
*Active
 70
     0
 10
0.0
 20
0.0
 11
1.0
 21
1.0
 12
8223.761025238502
 22
6348.534373990247
 13
0.0
 23
0.0
 14
10.0
 24
10.0
 15
10.0
 25
10.0
 16
0.0
 26
0.0
 36
1.0
 17
0.0
 27
0.0
 37
0.0
 40
12805.99765711426
 41
1.525925925925925
 42
50.0
 43
0.0
 44
0.0
 50
0.0
 51
0.0
 71
     0
 72
     0
 73
     1
 74
     0
 75
     0
 76
     0
 77
     0
 78
     0
281
     0
 65
     1
110
0.0
120
0.0
130
0.0
111
1.0
121
0.0
131
0.0
112
0.0
122
1.0
132
0.0
 79
     0
146
0.0
  0
ENDTAB
  0
TABLE
  2
LTYPE
  5
746A
330
0
100
AcDbSymbolTable
 70
     4
  0
LTYPE
  5
7477
330
746A
100
AcDbSymbolTableRecord
100
AcDbLinetypeTableRecord
  2
BYBLOCK
 70
     0
  3

 72
    65
 73
     0
 40
0.0
  0
LTYPE
  5
7478
330
746A
100
AcDbSymbolTableRecord
100
AcDbLinetypeTableRecord
  2
BYLAYER
 70
     0
  3

 72
    65
 73
     0
 40
0.0
  0
LTYPE
  5
7479
330
746A
100
AcDbSymbolTableRecord
100
AcDbLinetypeTableRecord
  2
CONTINUOUS
 70
     0
  3
Solid line
 72
    65
 73
     0
 40
0.0
  0
LTYPE
  5
7816
330
746A
100
AcDbSymbolTableRecord
100
AcDbLinetypeTableRecord
  2
CENTER
 70
     0
  3
____ _ ____ _ ____ _ ____ _ ____ _ ____ _ ____ 
 72
    65
 73
     4
 40
2.0
 49
1.25
 74
     0
 49
-0.25
 74
     0
 49
0.25
 74
     0
 49
-0.25
 74
     0
  0
LTYPE
  5
781A
330
746A
100
AcDbSymbolTableRecord
100
AcDbLinetypeTableRecord
  2
HIDDEN
 70
     0
  3
__ __ __ __ __ __ __ __ __ __ __ __ __ __ __ __
 72
    65
 73
     2
 40
0.375
 49
0.25
 74
     0
 49
-0.125
 74
     0
  0
LTYPE
  5
781B
330
746A
100
AcDbSymbolTableRecord
100
AcDbLinetypeTableRecord
  2
PHANTOM
 70
     0
  3
______  __  __  ______  __  __  ______  __  __ 
 72
    65
 73
     6
 40
2.5
 49
1.25
 74
     0
 49
-0.25
 74
     0
 49
0.25
 74
     0
 49
-0.25
 74
     0
 49
0.25
 74
     0
 49
-0.25
 74
     0
  0
ENDTAB
  0
TABLE
  2
LAYER
  5
7467
102
{ACAD_XDICTIONARY
360
1ED5D
102
}
330
0
100
AcDbSymbolTable
 70
    13
  0
LAYER
  5
7474
330
7467
100
AcDbSymbolTableRecord
100
AcDbLayerTableRecord
  2
0
 70
     0
 62
     7
  6
CONTINUOUS
370
    -3
390
159AE
  0
LAYER
  5
DEB2
330
7467
100
AcDbSymbolTableRecord
100
AcDbLayerTableRecord
  2
センター
 70
     0
 62
     3
  6
CENTER
370
    -3
390
159AE
  0
LAYER
  5
DEB3
330
7467
100
AcDbSymbolTableRecord
100
AcDbLayerTableRecord
  2
寸法
 70
     0
 62
     4
  6
CONTINUOUS
370
    -3
390
159AE
  0
LAYER
  5
DEB4
330
7467
100
AcDbSymbolTableRecord
100
AcDbLayerTableRecord
  2
部品1
 70
     0
 62
     7
  6
CONTINUOUS
370
    -3
390
159AE
  0
LAYER
  5
DEB5
330
7467
100
AcDbSymbolTableRecord
100
AcDbLayerTableRecord
  2
補助
 70
     0
 62
    -1
  6
CONTINUOUS
370
    -3
390
159AE
  0
LAYER
  5
DEB6
330
7467
100
AcDbSymbolTableRecord
100
AcDbLayerTableRecord
  2
文字
 70
     0
 62
     7
  6
CONTINUOUS
370
    -3
390
159AE
  0
LAYER
  5
F255
330
7467
100
AcDbSymbolTableRecord
100
AcDbLayerTableRecord
  2
DEFPOINTS
 70
     0
 62
     7
  6
CONTINUOUS
290
     0
370
    -3
390
159AE
  0
LAYER
  5
10B54
330
7467
100
AcDbSymbolTableRecord
100
AcDbLayerTableRecord
  2
仕様書枠
 70
     0
 62
   230
  6
CONTINUOUS
370
    -3
390
159AE
  0
LAYER
  5
11729
330
7467
100
AcDbSymbolTableRecord
100
AcDbLayerTableRecord
  2
Ｇ．Ｌ
 70
     0
 62
    30
  6
CONTINUOUS
370
    -3
390
159AE
  0
LAYER
  5
1173F
330
7467
100
AcDbSymbolTableRecord
100
AcDbLayerTableRecord
  2
細線
 70
     0
 62
     5
  6
CONTINUOUS
370
    -3
390
159AE
  0
LAYER
  5
12CC4
330
7467
100
AcDbSymbolTableRecord
100
AcDbLayerTableRecord
  2
想像線
 70
     0
 62
     6
  6
PHANTOM
370
    -3
390
159AE
  0
LAYER
  5
142E2
330
7467
100
AcDbSymbolTableRecord
100
AcDbLayerTableRecord
  2
破線
 70
     0
 62
     2
  6
HIDDEN
370
    -3
390
159AE
  0
LAYER
  5
1C644
330
7467
100
AcDbSymbolTableRecord
100
AcDbLayerTableRecord
  2
点線
 70
     0
 62
     2
  6
HIDDEN
370
    -3
390
159AE
  0
ENDTAB
  0
TABLE
  2
STYLE
  5
7468
330
0
100
AcDbSymbolTable
 70
     3
  0
STYLE
  5
7475
330
7468
100
AcDbSymbolTableRecord
100
AcDbTextStyleTableRecord
  2
STANDARD
 70
     0
 40
0.0
 41
1.0
 50
0.0
 71
     0
 42
4.0
  3
txt
  4
C:\AutoCAD LT\bigfont.shx
  0
STYLE
  5
F706
330
7468
100
AcDbSymbolTableRecord
100
AcDbTextStyleTableRecord
  2
STYLE1
 70
     0
 40
0.0
 41
1.0
 50
0.0
 71
     0
 42
100.0
  3
isocp.shx
  4
bigfont.shx
  0
STYLE
  5
103BF
330
7468
100
AcDbSymbolTableRecord
100
AcDbTextStyleTableRecord
  2
STYLE2
 70
     0
 40
0.0
 41
1.0
 50
0.0
 71
     0
 42
100.0
  3
MS PGothic.ttf
  4

1001
ACAD
1000
MS PGothic
1071
    32818
  0
ENDTAB
  0
TABLE
  2
VIEW
  5
746B
330
0
100
AcDbSymbolTable
 70
     0
  0
ENDTAB
  0
TABLE
  2
UCS
  5
746C
330
0
100
AcDbSymbolTable
 70
     0
  0
ENDTAB
  0
TABLE
  2
APPID
  5
746E
330
0
100
AcDbSymbolTable
 70
     6
  0
APPID
  5
7476
330
746E
100
AcDbSymbolTableRecord
100
AcDbRegAppTableRecord
  2
ACAD
 70
     0
  0
APPID
  5
DEA9
330
746E
100
AcDbSymbolTableRecord
100
AcDbRegAppTableRecord
  2
CONTENTBLOCKICON
 70
     0
  0
APPID
  5
DEAA
330
746E
100
AcDbSymbolTableRecord
100
AcDbRegAppTableRecord
  2
CONTENTBLOCKDESCRIPTION
 70
     0
  0
APPID
  5
E71D
330
746E
100
AcDbSymbolTableRecord
100
AcDbRegAppTableRecord
  2
CONTENTTABDATA
 70
     0
  0
APPID
  5
E71E
330
746E
100
AcDbSymbolTableRecord
100
AcDbRegAppTableRecord
  2
CONTENTCURRENTTAB
 70
     0
  0
APPID
  5
F3BA
330
746E
100
AcDbSymbolTableRecord
100
AcDbRegAppTableRecord
  2
DRAWINGVARIABLESXDATA
 70
     0
  0
ENDTAB
  0
TABLE
  2
DIMSTYLE
  5
746F
330
0
100
AcDbSymbolTable
 70
     2
100
AcDbDimStyleTable
 71
     1
340
F71F
  0
DIMSTYLE
105
F71F
102
{ACAD_REACTORS
330
20AC9
330
203F6
330
203B0
330
203B6
330
203E9
330
20F62
330
20F92
330
20FBA
330
20FEA
330
21B30
330
21B2F
330
21B2C
330
21B2D
330
21B2B
330
21B2E
330
223EC
330
22448
330
224B0
330
22512
330
2235E
102
}
330
746F
100
AcDbSymbolTableRecord
100
AcDbDimStyleTableRecord
  2
INABA_S40G
 70
     0
 40
40.0
 41
2.5
 42
0.5
 43
7.0
 44
1.5
 73
     0
 74
     0
 77
     3
 78
     8
140
3.0
141
0.0
143
0.0394
147
1.0
172
     1
173
     1
174
     1
178
     7
271
     1
288
     1
340
F706
341
F770
343
F770
344
F770
  0
DIMSTYLE
105
1C645
330
746F
100
AcDbSymbolTableRecord
100
AcDbDimStyleTableRecord
  2
INABA_S50G
 70
     0
 40
0.0
 41
125.0
 42
25.0
 43
7.0
 44
75.0
 73
     0
 74
     0
 77
     3
 78
     8
140
150.0
141
0.0
143
0.0394
147
25.0
172
     1
173
     1
174
     1
178
     7
271
     1
340
F706
341
F770
343
F770
344
F770
  0
ENDTAB
  0
TABLE
  2
BLOCK_RECORD
  5
7466
330
0
100
AcDbSymbolTable
 70
    44
  0
BLOCK_RECORD
  5
747D
330
7466
100
AcDbSymbolTableRecord
100
AcDbBlockTableRecord
  2
*MODEL_SPACE
340
159B3
  0
BLOCK_RECORD
  5
747A
330
7466
100
AcDbSymbolTableRecord
100
AcDbBlockTableRecord
  2
*PAPER_SPACE
340
159B4
  0
BLOCK_RECORD
  5
F770
330
7466
100
AcDbSymbolTableRecord
100
AcDbBlockTableRecord
  2
_DOTSMALL
340
0
102
{BLKREFS
331
1E214
331
1E215
331
1E1AD
331
1E1AE
331
1E1D1
331
1E1D2
331
1E1C6
331
1E1C7
331
1E187
331
1E188
331
1E1BA
331
1E1BB
331
1E1DF
331
1E1E0
331
1E1A1
331
1E1A2
331
1E194
331
1E195
331
1E220
331
1E221
331
1E24F
331
1E250
331
1E1FA
331
1E1FB
331
1E1ED
331
1E1EE
331
1E207
331
1E208
331
1E22B
331
1E22C
331
1E242
331
1E243
331
1E17A
331
1E17B
331
1E16D
331
1E16E
331
1E160
331
1E161
331
1E155
331
1E156
331
1E236
331
1E237
331
2147D
331
2147E
331
21488
331
21489
331
21491
331
21492
331
2149C
331
2149D
331
214CB
331
214CC
331
214DE
331
214DF
331
214E8
331
214E9
331
214F1
331
214F2
331
21B7C
331
21B7D
331
21B85
331
21B86
331
21B8E
331
21B8F
331
21B97
331
21B98
331
21BA0
331
21BA1
331
21BA9
331
21BAA
331
21E94
331
21E95
331
22583
331
22584
331
2258C
331
2258D
331
22595
331
22596
331
2259E
331
2259F
331
225A7
331
225A8
102
}
  0
BLOCK_RECORD
  5
1C530
330
7466
100
AcDbSymbolTableRecord
100
AcDbBlockTableRecord
  2
_NONE
340
0
  0
BLOCK_RECORD
  5
1E151
330
7466
100
AcDbSymbolTableRecord
100
AcDbBlockTableRecord
  2
*D2
340
0
  0
BLOCK_RECORD
  5
1E15C
330
7466
100
AcDbSymbolTableRecord
100
AcDbBlockTableRecord
  2
*D3
340
0
  0
BLOCK_RECORD
  5
1E167
330
7466
100
AcDbSymbolTableRecord
100
AcDbBlockTableRecord
  2
*D4
340
0
  0
BLOCK_RECORD
  5
1E174
330
7466
100
AcDbSymbolTableRecord
100
AcDbBlockTableRecord
  2
*D5
340
0
  0
BLOCK_RECORD
  5
1E181
330
7466
100
AcDbSymbolTableRecord
100
AcDbBlockTableRecord
  2
*D6
340
0
  0
BLOCK_RECORD
  5
1E18E
330
7466
100
AcDbSymbolTableRecord
100
AcDbBlockTableRecord
  2
*D7
340
0
  0
BLOCK_RECORD
  5
1E19B
330
7466
100
AcDbSymbolTableRecord
100
AcDbBlockTableRecord
  2
*D8
340
0
  0
BLOCK_RECORD
  5
1E1A8
330
7466
100
AcDbSymbolTableRecord
100
AcDbBlockTableRecord
  2
*D9
340
0
  0
BLOCK_RECORD
  5
1E1B4
330
7466
100
AcDbSymbolTableRecord
100
AcDbBlockTableRecord
  2
*D10
340
0
  0
BLOCK_RECORD
  5
1E1C1
330
7466
100
AcDbSymbolTableRecord
100
AcDbBlockTableRecord
  2
*D11
340
0
  0
BLOCK_RECORD
  5
1E1CD
330
7466
100
AcDbSymbolTableRecord
100
AcDbBlockTableRecord
  2
*D12
340
0
  0
BLOCK_RECORD
  5
1E1D8
330
7466
100
AcDbSymbolTableRecord
100
AcDbBlockTableRecord
  2
*D13
340
0
  0
BLOCK_RECORD
  5
1E1E6
330
7466
100
AcDbSymbolTableRecord
100
AcDbBlockTableRecord
  2
*D14
340
0
  0
BLOCK_RECORD
  5
1E1F4
330
7466
100
AcDbSymbolTableRecord
100
AcDbBlockTableRecord
  2
*D15
340
0
  0
BLOCK_RECORD
  5
1E201
330
7466
100
AcDbSymbolTableRecord
100
AcDbBlockTableRecord
  2
*D16
340
0
  0
BLOCK_RECORD
  5
1E20E
330
7466
100
AcDbSymbolTableRecord
100
AcDbBlockTableRecord
  2
*D17
340
0
  0
BLOCK_RECORD
  5
1E21B
330
7466
100
AcDbSymbolTableRecord
100
AcDbBlockTableRecord
  2
*D18
340
0
  0
BLOCK_RECORD
  5
1E227
330
7466
100
AcDbSymbolTableRecord
100
AcDbBlockTableRecord
  2
*D19
340
0
  0
BLOCK_RECORD
  5
1E232
330
7466
100
AcDbSymbolTableRecord
100
AcDbBlockTableRecord
  2
*D20
340
0
  0
BLOCK_RECORD
  5
1E23D
330
7466
100
AcDbSymbolTableRecord
100
AcDbBlockTableRecord
  2
*D21
340
0
  0
BLOCK_RECORD
  5
1E249
330
7466
100
AcDbSymbolTableRecord
100
AcDbBlockTableRecord
  2
*D22
340
0
  0
BLOCK_RECORD
  5
1E256
330
7466
100
AcDbSymbolTableRecord
100
AcDbBlockTableRecord
  2
A$C56A41A26
340
0
  0
BLOCK_RECORD
  5
20438
330
7466
100
AcDbSymbolTableRecord
100
AcDbBlockTableRecord
  2
*D24
340
0
  0
BLOCK_RECORD
  5
20443
330
7466
100
AcDbSymbolTableRecord
100
AcDbBlockTableRecord
  2
*D25
340
0
  0
BLOCK_RECORD
  5
2045D
330
7466
100
AcDbSymbolTableRecord
100
AcDbBlockTableRecord
  2
*D26
340
0
  0
BLOCK_RECORD
  5
20475
330
7466
100
AcDbSymbolTableRecord
100
AcDbBlockTableRecord
  2
*D27
340
0
  0
BLOCK_RECORD
  5
20BD9
330
7466
100
AcDbSymbolTableRecord
100
AcDbBlockTableRecord
  2
*D28
340
0
  0
BLOCK_RECORD
  5
20F63
330
7466
100
AcDbSymbolTableRecord
100
AcDbBlockTableRecord
  2
*D29
340
0
  0
BLOCK_RECORD
  5
20F93
330
7466
100
AcDbSymbolTableRecord
100
AcDbBlockTableRecord
  2
*D30
340
0
  0
BLOCK_RECORD
  5
20FBB
330
7466
100
AcDbSymbolTableRecord
100
AcDbBlockTableRecord
  2
*D31
340
0
  0
BLOCK_RECORD
  5
20FEB
330
7466
100
AcDbSymbolTableRecord
100
AcDbBlockTableRecord
  2
*D32
340
0
  0
BLOCK_RECORD
  5
21B31
330
7466
100
AcDbSymbolTableRecord
100
AcDbBlockTableRecord
  2
*D33
340
0
  0
BLOCK_RECORD
  5
21B3D
330
7466
100
AcDbSymbolTableRecord
100
AcDbBlockTableRecord
  2
*D34
340
0
  0
BLOCK_RECORD
  5
21B49
330
7466
100
AcDbSymbolTableRecord
100
AcDbBlockTableRecord
  2
*D35
340
0
  0
BLOCK_RECORD
  5
21B55
330
7466
100
AcDbSymbolTableRecord
100
AcDbBlockTableRecord
  2
*D36
340
0
  0
BLOCK_RECORD
  5
21B61
330
7466
100
AcDbSymbolTableRecord
100
AcDbBlockTableRecord
  2
*D37
340
0
  0
BLOCK_RECORD
  5
21B6D
330
7466
100
AcDbSymbolTableRecord
100
AcDbBlockTableRecord
  2
*D38
340
0
  0
BLOCK_RECORD
  5
22544
330
7466
100
AcDbSymbolTableRecord
100
AcDbBlockTableRecord
  2
*D39
340
0
  0
BLOCK_RECORD
  5
22550
330
7466
100
AcDbSymbolTableRecord
100
AcDbBlockTableRecord
  2
*D40
340
0
  0
BLOCK_RECORD
  5
2255C
330
7466
100
AcDbSymbolTableRecord
100
AcDbBlockTableRecord
  2
*D41
340
0
  0
BLOCK_RECORD
  5
22568
330
7466
100
AcDbSymbolTableRecord
100
AcDbBlockTableRecord
  2
*D42
340
0
  0
BLOCK_RECORD
  5
22574
330
7466
100
AcDbSymbolTableRecord
100
AcDbBlockTableRecord
  2
*D43
340
0
  0
ENDTAB
  0
ENDSEC
  0
SECTION
  2
BLOCKS
  0
BLOCK
  5
7489
330
747D
100
AcDbEntity
  8
0
100
AcDbBlockBegin
  2
*MODEL_SPACE
 70
     0
 10
0.0
 20
0.0
 30
0.0
  3
*MODEL_SPACE
  1

  0
ENDBLK
  5
748A
330
747D
100
AcDbEntity
  8
0
100
AcDbBlockEnd
  0
BLOCK
  5
7487
330
747A
100
AcDbEntity
 67
     1
  8
0
100
AcDbBlockBegin
  2
*PAPER_SPACE
 70
     0
 10
0.0
 20
0.0
 30
0.0
  3
*PAPER_SPACE
  1

  0
ENDBLK
  5
7488
330
747A
100
AcDbEntity
 67
     1
  8
0
100
AcDbBlockEnd
  0
BLOCK
  5
F771
330
F770
100
AcDbEntity
  8
0
 48
50.0
100
AcDbBlockBegin
  2
_DOTSMALL
 70
     0
 10
0.0
 20
0.0
 30
0.0
  3
_DOTSMALL
  1

  0
LWPOLYLINE
  5
F772
330
F770
100
AcDbEntity
  8
0
  6
ByBlock
 62
     0
 48
50.0
100
AcDbPolyline
 90
        2
 70
     1
 43
0.5
 10
-0.0625
 20
0.0
 42
1.0
 10
0.0625
 20
0.0
 42
1.0
  0
ENDBLK
  5
F776
330
F770
100
AcDbEntity
  8
0
 48
50.0
100
AcDbBlockEnd
  0
BLOCK
  5
1C531
330
1C530
100
AcDbEntity
  8
0
 48
50.0
100
AcDbBlockBegin
  2
_NONE
 70
     0
 10
0.0
 20
0.0
 30
0.0
  3
_NONE
  1

  0
CIRCLE
  5
1C532
330
1C530
100
AcDbEntity
  8
0
  6
ByBlock
 62
     0
 48
50.0
100
AcDbCircle
 10
0.0
 20
0.0
 30
0.0
 40
0.25
  0
ENDBLK
  5
1C533
330
1C530
100
AcDbEntity
  8
0
 48
50.0
100
AcDbBlockEnd
  0
BLOCK
  5
1E152
330
1E151
100
AcDbEntity
  8
0
 48
50.0
100
AcDbBlockBegin
  2
*D2
 70
     1
 10
0.0
 20
0.0
 30
0.0
  3
*D2
  1

  0
LINE
  5
1E153
330
1E151
100
AcDbEntity
  8
0
  6
ByBlock
 62
     0
 48
50.0
100
AcDbLine
 10
5296.0
 20
8029.0
 30
0.0
 11
5296.0
 21
9017.667619817153
 31
0.0
  0
LINE
  5
1E154
330
1E151
100
AcDbEntity
  8
0
  6
ByBlock
 62
     0
 48
50.0
100
AcDbLine
 10
3496.0
 20
8942.667619817154
 30
0.0
 11
5296.0
 21
8942.667619817154
 31
0.0
  0
INSERT
  5
1E155
330
1E151
100
AcDbEntity
  8
0
  6
ByBlock
 62
     0
 48
50.0
100
AcDbBlockReference
  2
_DOTSMALL
 10
3496.0
 20
8942.667619817154
 30
0.0
 41
125.0
 42
125.0
 43
125.0
 50
180.0
  0
INSERT
  5
1E156
330
1E151
100
AcDbEntity
  8
0
  6
ByBlock
 62
     0
 48
50.0
100
AcDbBlockReference
  2
_DOTSMALL
 10
5296.0
 20
8942.667619817154
 30
0.0
 41
125.0
 42
125.0
 43
125.0
  0
MTEXT
  5
1E157
330
1E151
100
AcDbEntity
  8
0
  6
ByBlock
 62
     7
 48
50.0
100
AcDbMText
 10
4396.0
 20
9042.667619817153
 30
0.0
 40
150.0
 41
0.0
 71
     5
 72
     1
  1
\A1;1800
  7
STYLE1
 73
     1
 44
1.0
1001
ACAD
1000
MTEXTBEGIN
1070
    73
1070
     1
1070
    44
1040
1.0
1070
    74
1070
     0
1000
MTEXTEND
  0
POINT
  5
1E158
330
1E151
100
AcDbEntity
  8
DEFPOINTS
  6
ByBlock
 62
     0
 48
50.0
100
AcDbPoint
 10
3496.0
 20
8004.0
 30
0.0
  0
POINT
  5
1E159
330
1E151
100
AcDbEntity
  8
DEFPOINTS
  6
ByBlock
 62
     0
 48
50.0
100
AcDbPoint
 10
5296.0
 20
8004.0
 30
0.0
  0
POINT
  5
1E15A
330
1E151
100
AcDbEntity
  8
DEFPOINTS
  6
ByBlock
 62
     0
 48
50.0
100
AcDbPoint
 10
5296.0
 20
8942.667619817154
 30
0.0
  0
ENDBLK
  5
1E15B
330
1E151
100
AcDbEntity
  8
0
 48
50.0
100
AcDbBlockEnd
  0
BLOCK
  5
1E15D
330
1E15C
100
AcDbEntity
  8
0
 48
50.0
100
AcDbBlockBegin
  2
*D3
 70
     1
 10
0.0
 20
0.0
 30
0.0
  3
*D3
  1

  0
LINE
  5
1E15E
330
1E15C
100
AcDbEntity
  8
0
  6
ByBlock
 62
     0
 48
50.0
100
AcDbLine
 10
3619.0
 20
7956.0
 30
0.0
 11
3619.0
 21
8805.206924300318
 31
0.0
  0
LINE
  5
1E15F
330
1E15C
100
AcDbEntity
  8
0
  6
ByBlock
 62
     0
 48
50.0
100
AcDbLine
 10
5173.0
 20
8730.206924300317
 30
0.0
 11
3619.0
 21
8730.206924300317
 31
0.0
  0
INSERT
  5
1E160
330
1E15C
100
AcDbEntity
  8
0
  6
ByBlock
 62
     0
 48
50.0
100
AcDbBlockReference
  2
_DOTSMALL
 10
5173.0
 20
8730.206924300317
 30
0.0
 41
125.0
 42
125.0
 43
125.0
  0
INSERT
  5
1E161
330
1E15C
100
AcDbEntity
  8
0
  6
ByBlock
 62
     0
 48
50.0
100
AcDbBlockReference
  2
_DOTSMALL
 10
3619.0
 20
8730.206924300317
 30
0.0
 41
125.0
 42
125.0
 43
125.0
 50
180.0
  0
MTEXT
  5
1E162
330
1E15C
100
AcDbEntity
  8
0
  6
ByBlock
 62
     7
 48
50.0
100
AcDbMText
 10
4396.0
 20
8830.206924300318
 30
0.0
 40
150.0
 41
0.0
 71
     5
 72
     1
  1
\A1;1554
  7
STYLE1
 73
     1
 44
1.0
1001
ACAD
1000
MTEXTBEGIN
1070
    73
1070
     1
1070
    44
1040
1.0
1070
    74
1070
     0
1000
MTEXTEND
  0
POINT
  5
1E163
330
1E15C
100
AcDbEntity
  8
DEFPOINTS
  6
ByBlock
 62
     0
 48
50.0
100
AcDbPoint
 10
5173.0
 20
7931.0
 30
0.0
  0
POINT
  5
1E164
330
1E15C
100
AcDbEntity
  8
DEFPOINTS
  6
ByBlock
 62
     0
 48
50.0
100
AcDbPoint
 10
3619.0
 20
7931.0
 30
0.0
  0
POINT
  5
1E165
330
1E15C
100
AcDbEntity
  8
DEFPOINTS
  6
ByBlock
 62
     0
 48
50.0
100
AcDbPoint
 10
3619.0
 20
8730.206924300317
 30
0.0
  0
ENDBLK
  5
1E166
330
1E15C
100
AcDbEntity
  8
0
 48
50.0
100
AcDbBlockEnd
  0
BLOCK
  5
1E168
330
1E167
100
AcDbEntity
  8
0
 48
50.0
100
AcDbBlockBegin
  2
*D4
 70
     1
 10
0.0
 20
0.0
 30
0.0
  3
*D4
  1

  0
LINE
  5
1E169
330
1E167
100
AcDbEntity
  8
0
  6
ByBlock
 62
     0
 48
50.0
100
AcDbLine
 10
3751.000000000001
 20
2304.000000000004
 30
0.0
 11
4106.75372407693
 21
2304.000000000004
 31
0.0
  0
LINE
  5
1E16A
330
1E167
100
AcDbEntity
  8
0
  6
ByBlock
 62
     0
 48
50.0
100
AcDbLine
 10
3821.000000000001
 20
2504.000000000007
 30
0.0
 11
4106.75372407693
 21
2504.000000000007
 31
0.0
  0
LINE
  5
1E16B
330
1E167
100
AcDbEntity
  8
0
  6
ByBlock
 62
     0
 48
50.0
100
AcDbLine
 10
4031.753724076931
 20
2304.000000000004
 30
0.0
 11
4031.753724076931
 21
2504.000000000007
 31
0.0
  0
LINE
  5
1E16C
330
1E167
100
AcDbEntity
  8
0
  6
ByBlock
 62
     0
 48
50.0
100
AcDbLine
 10
4031.753724076931
 20
2504.000000000007
 30
0.0
 11
4031.753724076931
 21
2952.927165354338
 31
0.0
  0
INSERT
  5
1E16D
330
1E167
100
AcDbEntity
  8
0
  6
ByBlock
 62
     0
 48
50.0
100
AcDbBlockReference
  2
_DOTSMALL
 10
4031.753724076931
 20
2304.000000000004
 30
0.0
 41
125.0
 42
125.0
 43
125.0
 50
270.0
  0
INSERT
  5
1E16E
330
1E167
100
AcDbEntity
  8
0
  6
ByBlock
 62
     0
 48
50.0
100
AcDbBlockReference
  2
_DOTSMALL
 10
4031.753724076931
 20
2504.000000000007
 30
0.0
 41
125.0
 42
125.0
 43
125.0
 50
90.0
  0
MTEXT
  5
1E16F
330
1E167
100
AcDbEntity
  8
0
  6
ByBlock
 62
     7
 48
50.0
100
AcDbMText
 10
3931.738960297403
 20
2790.963582677173
 30
0.0
 40
150.0
 41
0.0
 71
     5
 72
     1
  1
\A1;200
  7
STYLE1
 11
0.0000000000000001
 21
1.0
 31
0.0
 73
     1
 44
1.0
1001
ACAD
1000
MTEXTBEGIN
1070
    73
1070
     1
1070
    44
1040
1.0
1070
    74
1070
     0
1000
MTEXTEND
  0
POINT
  5
1E170
330
1E167
100
AcDbEntity
  8
DEFPOINTS
  6
ByBlock
 62
     0
 48
50.0
100
AcDbPoint
 10
3726.000000000001
 20
2304.000000000004
 30
0.0
  0
POINT
  5
1E171
330
1E167
100
AcDbEntity
  8
DEFPOINTS
  6
ByBlock
 62
     0
 48
50.0
100
AcDbPoint
 10
3796.000000000001
 20
2504.000000000007
 30
0.0
  0
POINT
  5
1E172
330
1E167
100
AcDbEntity
  8
DEFPOINTS
  6
ByBlock
 62
     0
 48
50.0
100
AcDbPoint
 10
4031.753724076931
 20
2504.000000000007
 30
0.0
  0
ENDBLK
  5
1E173
330
1E167
100
AcDbEntity
  8
0
 48
50.0
100
AcDbBlockEnd
  0
BLOCK
  5
1E175
330
1E174
100
AcDbEntity
  8
0
 48
50.0
100
AcDbBlockBegin
  2
*D5
 70
     1
 10
0.0
 20
0.0
 30
0.0
  3
*D5
  1

  0
LINE
  5
1E176
330
1E174
100
AcDbEntity
  8
0
  6
ByBlock
 62
     0
 48
50.0
100
AcDbLine
 10
3751.000000000001
 20
6724.000000000005
 30
0.0
 11
4106.75372407693
 21
6724.000000000005
 31
0.0
  0
LINE
  5
1E177
330
1E174
100
AcDbEntity
  8
0
  6
ByBlock
 62
     0
 48
50.0
100
AcDbLine
 10
3751.000000000002
 20
6624.000000000002
 30
0.0
 11
4106.75372407693
 21
6624.000000000002
 31
0.0
  0
LINE
  5
1E178
330
1E174
100
AcDbEntity
  8
0
  6
ByBlock
 62
     0
 48
50.0
100
AcDbLine
 10
4031.753724076931
 20
6724.000000000005
 30
0.0
 11
4031.753724076931
 21
6624.000000000002
 31
0.0
  0
LINE
  5
1E179
330
1E174
100
AcDbEntity
  8
0
  6
ByBlock
 62
     0
 48
50.0
100
AcDbLine
 10
4031.753724076931
 20
6624.000000000002
 30
0.0
 11
4031.753724076931
 21
6200.857401609004
 31
0.0
  0
INSERT
  5
1E17A
330
1E174
100
AcDbEntity
  8
0
  6
ByBlock
 62
     0
 48
50.0
100
AcDbBlockReference
  2
_DOTSMALL
 10
4031.753724076931
 20
6724.000000000005
 30
0.0
 41
125.0
 42
125.0
 43
125.0
 50
90.0
  0
INSERT
  5
1E17B
330
1E174
100
AcDbEntity
  8
0
  6
ByBlock
 62
     0
 48
50.0
100
AcDbBlockReference
  2
_DOTSMALL
 10
4031.753724076931
 20
6624.000000000002
 30
0.0
 41
125.0
 42
125.0
 43
125.0
 50
270.0
  0
MTEXT
  5
1E17C
330
1E174
100
AcDbEntity
  8
0
  6
ByBlock
 62
     7
 48
50.0
100
AcDbMText
 10
3931.75372407693
 20
6345.916456727114
 30
0.0
 40
150.0
 41
0.0
 71
     5
 72
     1
  1
\A1;100
  7
STYLE1
 11
0.0000000000000001
 21
1.0
 31
0.0
 73
     1
 44
1.0
1001
ACAD
1000
MTEXTBEGIN
1070
    73
1070
     1
1070
    44
1040
1.0
1070
    74
1070
     0
1000
MTEXTEND
  0
POINT
  5
1E17D
330
1E174
100
AcDbEntity
  8
DEFPOINTS
  6
ByBlock
 62
     0
 48
50.0
100
AcDbPoint
 10
3726.000000000001
 20
6724.000000000005
 30
0.0
  0
POINT
  5
1E17E
330
1E174
100
AcDbEntity
  8
DEFPOINTS
  6
ByBlock
 62
     0
 48
50.0
100
AcDbPoint
 10
3726.000000000002
 20
6624.000000000002
 30
0.0
  0
POINT
  5
1E17F
330
1E174
100
AcDbEntity
  8
DEFPOINTS
  6
ByBlock
 62
     0
 48
50.0
100
AcDbPoint
 10
4031.753724076931
 20
6624.000000000002
 30
0.0
  0
ENDBLK
  5
1E180
330
1E174
100
AcDbEntity
  8
0
 48
50.0
100
AcDbBlockEnd
  0
BLOCK
  5
1E182
330
1E181
100
AcDbEntity
  8
0
 48
50.0
100
AcDbBlockBegin
  2
*D6
 70
     1
 10
0.0
 20
0.0
 30
0.0
  3
*D6
  1

  0
LINE
  5
1E183
330
1E181
100
AcDbEntity
  8
0
  6
ByBlock
 62
     0
 48
50.0
100
AcDbLine
 10
3544.000000000006
 20
6822.000000000001
 30
0.0
 11
2925.057733986177
 21
6822.000000000001
 31
0.0
  0
LINE
  5
1E184
330
1E181
100
AcDbEntity
  8
0
  6
ByBlock
 62
     0
 48
50.0
100
AcDbLine
 10
3471.0
 20
6624.0
 30
0.0
 11
2925.057733986177
 21
6624.0
 31
0.0
  0
LINE
  5
1E185
330
1E181
100
AcDbEntity
  8
0
  6
ByBlock
 62
     0
 48
50.0
100
AcDbLine
 10
3000.057733986178
 20
6822.000000000001
 30
0.0
 11
3000.057733986178
 21
6624.0
 31
0.0
  0
LINE
  5
1E186
330
1E181
100
AcDbEntity
  8
0
  6
ByBlock
 62
     0
 48
50.0
100
AcDbLine
 10
3000.057733986178
 20
6624.0
 30
0.0
 11
3000.057733986178
 21
6143.206976370337
 31
0.0
  0
INSERT
  5
1E187
330
1E181
100
AcDbEntity
  8
0
  6
ByBlock
 62
     0
 48
50.0
100
AcDbBlockReference
  2
_DOTSMALL
 10
3000.057733986178
 20
6822.000000000001
 30
0.0
 41
125.0
 42
125.0
 43
125.0
 50
90.0
  0
INSERT
  5
1E188
330
1E181
100
AcDbEntity
  8
0
  6
ByBlock
 62
     0
 48
50.0
100
AcDbBlockReference
  2
_DOTSMALL
 10
3000.057733986178
 20
6624.0
 30
0.0
 41
125.0
 42
125.0
 43
125.0
 50
270.0
  0
MTEXT
  5
1E189
330
1E181
100
AcDbEntity
  8
0
  6
ByBlock
 62
     7
 48
50.0
100
AcDbMText
 10
2900.057733986177
 20
6288.469051157409
 30
0.0
 40
150.0
 41
0.0
 71
     5
 72
     1
  1
\A1;198
  7
STYLE1
 11
0.0000000000000001
 21
1.0
 31
0.0
 73
     1
 44
1.0
1001
ACAD
1000
MTEXTBEGIN
1070
    73
1070
     1
1070
    44
1040
1.0
1070
    74
1070
     0
1000
MTEXTEND
  0
POINT
  5
1E18A
330
1E181
100
AcDbEntity
  8
DEFPOINTS
  6
ByBlock
 62
     0
 48
50.0
100
AcDbPoint
 10
3569.000000000006
 20
6822.000000000001
 30
0.0
  0
POINT
  5
1E18B
330
1E181
100
AcDbEntity
  8
DEFPOINTS
  6
ByBlock
 62
     0
 48
50.0
100
AcDbPoint
 10
3496.0
 20
6624.0
 30
0.0
  0
POINT
  5
1E18C
330
1E181
100
AcDbEntity
  8
DEFPOINTS
  6
ByBlock
 62
     0
 48
50.0
100
AcDbPoint
 10
3000.057733986178
 20
6624.0
 30
0.0
  0
ENDBLK
  5
1E18D
330
1E181
100
AcDbEntity
  8
0
 48
50.0
100
AcDbBlockEnd
  0
BLOCK
  5
1E18F
330
1E18E
100
AcDbEntity
  8
0
 48
50.0
100
AcDbBlockBegin
  2
*D7
 70
     1
 10
0.0
 20
0.0
 30
0.0
  3
*D7
  1

  0
LINE
  5
1E190
330
1E18E
100
AcDbEntity
  8
0
  6
ByBlock
 62
     0
 48
50.0
100
AcDbLine
 10
3438.740228660987
 20
8755.206924300313
 30
0.0
 11
3438.740228660987
 21
9017.667619817155
 31
0.0
  0
LINE
  5
1E191
330
1E18E
100
AcDbEntity
  8
0
  6
ByBlock
 62
     0
 48
50.0
100
AcDbLine
 10
3496.0
 20
8029.0
 30
0.0
 11
3496.0
 21
9017.667619817155
 31
0.0
  0
LINE
  5
1E192
330
1E18E
100
AcDbEntity
  8
0
  6
ByBlock
 62
     0
 48
50.0
100
AcDbLine
 10
3496.0
 20
8942.667619817155
 30
0.0
 11
3438.740228660987
 21
8942.667619817155
 31
0.0
  0
LINE
  5
1E193
330
1E18E
100
AcDbEntity
  8
0
  6
ByBlock
 62
     0
 48
50.0
100
AcDbLine
 10
3438.740228660987
 20
8942.667619817155
 30
0.0
 11
3198.30367565484
 21
8942.667619817155
 31
0.0
  0
INSERT
  5
1E194
330
1E18E
100
AcDbEntity
  8
0
  6
ByBlock
 62
     0
 48
50.0
100
AcDbBlockReference
  2
_DOTSMALL
 10
3496.0
 20
8942.667619817155
 30
0.0
 41
125.0
 42
125.0
 43
125.0
  0
INSERT
  5
1E195
330
1E18E
100
AcDbEntity
  8
0
  6
ByBlock
 62
     0
 48
50.0
100
AcDbBlockReference
  2
_DOTSMALL
 10
3438.740228660987
 20
8942.667619817155
 30
0.0
 41
125.0
 42
125.0
 43
125.0
 50
180.0
  0
MTEXT
  5
1E196
330
1E18E
100
AcDbEntity
  8
0
  6
ByBlock
 62
     7
 48
50.0
100
AcDbMText
 10
3256.021952157913
 20
9042.667619817155
 30
0.0
 40
150.0
 41
0.0
 71
     5
 72
     1
  1
\A1;a
  7
STYLE1
 73
     1
 44
1.0
1001
ACAD
1000
MTEXTBEGIN
1070
    73
1070
     1
1070
    44
1040
1.0
1070
    74
1070
     0
1000
MTEXTEND
  0
POINT
  5
1E197
330
1E18E
100
AcDbEntity
  8
DEFPOINTS
  6
ByBlock
 62
     0
 48
50.0
100
AcDbPoint
 10
3438.740228660987
 20
8730.206924300313
 30
0.0
  0
POINT
  5
1E198
330
1E18E
100
AcDbEntity
  8
DEFPOINTS
  6
ByBlock
 62
     0
 48
50.0
100
AcDbPoint
 10
3496.0
 20
8004.0
 30
0.0
  0
POINT
  5
1E199
330
1E18E
100
AcDbEntity
  8
DEFPOINTS
  6
ByBlock
 62
     0
 48
50.0
100
AcDbPoint
 10
3496.0
 20
8942.667619817155
 30
0.0
  0
ENDBLK
  5
1E19A
330
1E18E
100
AcDbEntity
  8
0
 48
50.0
100
AcDbBlockEnd
  0
BLOCK
  5
1E19C
330
1E19B
100
AcDbEntity
  8
0
 48
50.0
100
AcDbBlockBegin
  2
*D8
 70
     1
 10
0.0
 20
0.0
 30
0.0
  3
*D8
  1

  0
LINE
  5
1E19D
330
1E19B
100
AcDbEntity
  8
0
  6
ByBlock
 62
     0
 48
50.0
100
AcDbLine
 10
3619.0
 20
7956.0
 30
0.0
 11
3619.0
 21
8805.206924300318
 31
0.0
  0
LINE
  5
1E19E
330
1E19B
100
AcDbEntity
  8
0
  6
ByBlock
 62
     0
 48
50.0
100
AcDbLine
 10
3496.0
 20
8029.0
 30
0.0
 11
3496.0
 21
8805.206924300318
 31
0.0
  0
LINE
  5
1E19F
330
1E19B
100
AcDbEntity
  8
0
  6
ByBlock
 62
     0
 48
50.0
100
AcDbLine
 10
3619.0
 20
8730.206924300317
 30
0.0
 11
3496.0
 21
8730.206924300317
 31
0.0
  0
LINE
  5
1E1A0
330
1E19B
100
AcDbEntity
  8
0
  6
ByBlock
 62
     0
 48
50.0
100
AcDbLine
 10
3496.0
 20
8730.206924300317
 30
0.0
 11
3067.527025225391
 21
8730.206924300317
 31
0.0
  0
INSERT
  5
1E1A1
330
1E19B
100
AcDbEntity
  8
0
  6
ByBlock
 62
     0
 48
50.0
100
AcDbBlockReference
  2
_DOTSMALL
 10
3619.0
 20
8730.206924300317
 30
0.0
 41
125.0
 42
125.0
 43
125.0
  0
INSERT
  5
1E1A2
330
1E19B
100
AcDbEntity
  8
0
  6
ByBlock
 62
     0
 48
50.0
100
AcDbBlockReference
  2
_DOTSMALL
 10
3496.0
 20
8730.206924300317
 30
0.0
 41
125.0
 42
125.0
 43
125.0
 50
180.0
  0
MTEXT
  5
1E1A3
330
1E19B
100
AcDbEntity
  8
0
  6
ByBlock
 62
     7
 48
50.0
100
AcDbMText
 10
3215.633626943189
 20
8830.221688079843
 30
0.0
 40
150.0
 41
0.0
 71
     5
 72
     1
  1
\A1;123
  7
STYLE1
 73
     1
 44
1.0
1001
ACAD
1000
MTEXTBEGIN
1070
    73
1070
     1
1070
    44
1040
1.0
1070
    74
1070
     0
1000
MTEXTEND
  0
POINT
  5
1E1A4
330
1E19B
100
AcDbEntity
  8
DEFPOINTS
  6
ByBlock
 62
     0
 48
50.0
100
AcDbPoint
 10
3619.0
 20
7931.0
 30
0.0
  0
POINT
  5
1E1A5
330
1E19B
100
AcDbEntity
  8
DEFPOINTS
  6
ByBlock
 62
     0
 48
50.0
100
AcDbPoint
 10
3496.0
 20
8004.0
 30
0.0
  0
POINT
  5
1E1A6
330
1E19B
100
AcDbEntity
  8
DEFPOINTS
  6
ByBlock
 62
     0
 48
50.0
100
AcDbPoint
 10
3496.0
 20
8730.206924300317
 30
0.0
  0
ENDBLK
  5
1E1A7
330
1E19B
100
AcDbEntity
  8
0
 48
50.0
100
AcDbBlockEnd
  0
BLOCK
  5
1E1A9
330
1E1A8
100
AcDbEntity
  8
0
 48
50.0
100
AcDbBlockBegin
  2
*D9
 70
     1
 10
0.0
 20
0.0
 30
0.0
  3
*D9
  1

  0
LINE
  5
1E1AA
330
1E1A8
100
AcDbEntity
  8
0
  6
ByBlock
 62
     0
 48
50.0
100
AcDbLine
 10
3544.0
 20
3881.0
 30
0.0
 11
2925.057733986178
 21
3881.0
 31
0.0
  0
LINE
  5
1E1AB
330
1E1A8
100
AcDbEntity
  8
0
  6
ByBlock
 62
     0
 48
50.0
100
AcDbLine
 10
3544.000000000006
 20
2402.000000000002
 30
0.0
 11
2925.057733986177
 21
2402.000000000002
 31
0.0
  0
LINE
  5
1E1AC
330
1E1A8
100
AcDbEntity
  8
0
  6
ByBlock
 62
     0
 48
50.0
100
AcDbLine
 10
3000.057733986178
 20
3881.0
 30
0.0
 11
3000.057733986178
 21
2402.000000000002
 31
0.0
  0
INSERT
  5
1E1AD
330
1E1A8
100
AcDbEntity
  8
0
  6
ByBlock
 62
     0
 48
50.0
100
AcDbBlockReference
  2
_DOTSMALL
 10
3000.057733986178
 20
3881.0
 30
0.0
 41
125.0
 42
125.0
 43
125.0
 50
90.0
  0
INSERT
  5
1E1AE
330
1E1A8
100
AcDbEntity
  8
0
  6
ByBlock
 62
     0
 48
50.0
100
AcDbBlockReference
  2
_DOTSMALL
 10
3000.057733986178
 20
2402.000000000002
 30
0.0
 41
125.0
 42
125.0
 43
125.0
 50
270.0
  0
MTEXT
  5
1E1AF
330
1E1A8
100
AcDbEntity
  8
0
  6
ByBlock
 62
     7
 48
50.0
100
AcDbMText
 10
2900.057733986177
 20
3104.0
 30
0.0
 40
150.0
 41
0.0
 71
     5
 72
     1
  1
\A1;1479
  7
STYLE1
 11
0.0000000000000001
 21
1.0
 31
0.0
 73
     1
 44
1.0
1001
ACAD
1000
MTEXTBEGIN
1070
    73
1070
     1
1070
    44
1040
1.0
1070
    74
1070
     0
1000
MTEXTEND
  0
POINT
  5
1E1B0
330
1E1A8
100
AcDbEntity
  8
DEFPOINTS
  6
ByBlock
 62
     0
 48
50.0
100
AcDbPoint
 10
3569.0
 20
3881.0
 30
0.0
  0
POINT
  5
1E1B1
330
1E1A8
100
AcDbEntity
  8
DEFPOINTS
  6
ByBlock
 62
     0
 48
50.0
100
AcDbPoint
 10
3569.000000000006
 20
2402.000000000002
 30
0.0
  0
POINT
  5
1E1B2
330
1E1A8
100
AcDbEntity
  8
DEFPOINTS
  6
ByBlock
 62
     0
 48
50.0
100
AcDbPoint
 10
3000.057733986178
 20
2402.000000000002
 30
0.0
  0
ENDBLK
  5
1E1B3
330
1E1A8
100
AcDbEntity
  8
0
 48
50.0
100
AcDbBlockEnd
  0
BLOCK
  5
1E1B5
330
1E1B4
100
AcDbEntity
  8
0
 48
50.0
100
AcDbBlockBegin
  2
*D10
 70
     1
 10
0.0
 20
0.0
 30
0.0
  3
*D10
  1

  0
LINE
  5
1E1B6
330
1E1B4
100
AcDbEntity
  8
0
  6
ByBlock
 62
     0
 48
50.0
100
AcDbLine
 10
3471.0
 20
8004.0
 30
0.0
 11
2925.057733986177
 21
8004.0
 31
0.0
  0
LINE
  5
1E1B7
330
1E1B4
100
AcDbEntity
  8
0
  6
ByBlock
 62
     0
 48
50.0
100
AcDbLine
 10
3544.0
 20
7881.0
 30
0.0
 11
2925.057733986177
 21
7881.0
 31
0.0
  0
LINE
  5
1E1B8
330
1E1B4
100
AcDbEntity
  8
0
  6
ByBlock
 62
     0
 48
50.0
100
AcDbLine
 10
3000.057733986178
 20
7881.0
 30
0.0
 11
3000.057733986178
 21
8004.0
 31
0.0
  0
LINE
  5
1E1B9
330
1E1B4
100
AcDbEntity
  8
0
  6
ByBlock
 62
     0
 48
50.0
100
AcDbLine
 10
3000.057733986178
 20
8004.0
 30
0.0
 11
3000.057733986178
 21
8425.213203435596
 31
0.0
  0
INSERT
  5
1E1BA
330
1E1B4
100
AcDbEntity
  8
0
  6
ByBlock
 62
     0
 48
50.0
100
AcDbBlockReference
  2
_DOTSMALL
 10
3000.057733986178
 20
7881.0
 30
0.0
 41
125.0
 42
125.0
 43
125.0
 50
270.0
  0
INSERT
  5
1E1BB
330
1E1B4
100
AcDbEntity
  8
0
  6
ByBlock
 62
     0
 48
50.0
100
AcDbBlockReference
  2
_DOTSMALL
 10
3000.057733986178
 20
8004.0
 30
0.0
 41
125.0
 42
125.0
 43
125.0
 50
90.0
  0
MTEXT
  5
1E1BC
330
1E1B4
100
AcDbEntity
  8
0
  6
ByBlock
 62
     7
 48
50.0
100
AcDbMText
 10
2900.04297020665
 20
8277.106601717798
 30
0.0
 40
150.0
 41
0.0
 71
     5
 72
     1
  1
\A1;123
  7
STYLE1
 11
0.0000000000000001
 21
1.0
 31
0.0
 73
     1
 44
1.0
1001
ACAD
1000
MTEXTBEGIN
1070
    73
1070
     1
1070
    44
1040
1.0
1070
    74
1070
     0
1000
MTEXTEND
  0
POINT
  5
1E1BD
330
1E1B4
100
AcDbEntity
  8
DEFPOINTS
  6
ByBlock
 62
     0
 48
50.0
100
AcDbPoint
 10
3496.0
 20
8004.0
 30
0.0
  0
POINT
  5
1E1BE
330
1E1B4
100
AcDbEntity
  8
DEFPOINTS
  6
ByBlock
 62
     0
 48
50.0
100
AcDbPoint
 10
3569.0
 20
7881.0
 30
0.0
  0
POINT
  5
1E1BF
330
1E1B4
100
AcDbEntity
  8
DEFPOINTS
  6
ByBlock
 62
     0
 48
50.0
100
AcDbPoint
 10
3000.057733986178
 20
7881.0
 30
0.0
  0
ENDBLK
  5
1E1C0
330
1E1B4
100
AcDbEntity
  8
0
 48
50.0
100
AcDbBlockEnd
  0
BLOCK
  5
1E1C2
330
1E1C1
100
AcDbEntity
  8
0
 48
50.0
100
AcDbBlockBegin
  2
*D11
 70
     1
 10
0.0
 20
0.0
 30
0.0
  3
*D11
  1

  0
LINE
  5
1E1C3
330
1E1C1
100
AcDbEntity
  8
0
  6
ByBlock
 62
     0
 48
50.0
100
AcDbLine
 10
3471.0
 20
6624.0
 30
0.0
 11
2679.56493184821
 21
6624.0
 31
0.0
  0
LINE
  5
1E1C4
330
1E1C1
100
AcDbEntity
  8
0
  6
ByBlock
 62
     0
 48
50.0
100
AcDbLine
 10
2975.057733986178
 20
6494.0
 30
0.0
 11
2679.56493184821
 21
6494.0
 31
0.0
  0
LINE
  5
1E1C5
330
1E1C1
100
AcDbEntity
  8
0
  6
ByBlock
 62
     0
 48
50.0
100
AcDbLine
 10
2754.56493184821
 20
6624.0
 30
0.0
 11
2754.56493184821
 21
6494.0
 31
0.0
  0
INSERT
  5
1E1C6
330
1E1C1
100
AcDbEntity
  8
0
  6
ByBlock
 62
     0
 48
50.0
100
AcDbBlockReference
  2
_DOTSMALL
 10
2754.56493184821
 20
6624.0
 30
0.0
 41
125.0
 42
125.0
 43
125.0
 50
90.0
  0
INSERT
  5
1E1C7
330
1E1C1
100
AcDbEntity
  8
0
  6
ByBlock
 62
     0
 48
50.0
100
AcDbBlockReference
  2
_DOTSMALL
 10
2754.56493184821
 20
6494.0
 30
0.0
 41
125.0
 42
125.0
 43
125.0
 50
270.0
  0
MTEXT
  5
1E1C8
330
1E1C1
100
AcDbEntity
  8
0
  6
ByBlock
 62
     7
 48
50.0
100
AcDbMText
 10
2654.56493184821
 20
6559.0
 30
0.0
 40
150.0
 41
0.0
 71
     5
 72
     1
  1
\A1;b
  7
STYLE1
 11
0.0000000000000001
 21
1.0
 31
0.0
 73
     1
 44
1.0
1001
ACAD
1000
MTEXTBEGIN
1070
    73
1070
     1
1070
    44
1040
1.0
1070
    74
1070
     0
1000
MTEXTEND
  0
POINT
  5
1E1C9
330
1E1C1
100
AcDbEntity
  8
DEFPOINTS
  6
ByBlock
 62
     0
 48
50.0
100
AcDbPoint
 10
3496.0
 20
6624.0
 30
0.0
  0
POINT
  5
1E1CA
330
1E1C1
100
AcDbEntity
  8
DEFPOINTS
  6
ByBlock
 62
     0
 48
50.0
100
AcDbPoint
 10
3000.057733986178
 20
6494.0
 30
0.0
  0
POINT
  5
1E1CB
330
1E1C1
100
AcDbEntity
  8
DEFPOINTS
  6
ByBlock
 62
     0
 48
50.0
100
AcDbPoint
 10
2754.56493184821
 20
6494.0
 30
0.0
  0
ENDBLK
  5
1E1CC
330
1E1C1
100
AcDbEntity
  8
0
 48
50.0
100
AcDbBlockEnd
  0
BLOCK
  5
1E1CE
330
1E1CD
100
AcDbEntity
  8
0
 48
50.0
100
AcDbBlockBegin
  2
*D12
 70
     1
 10
0.0
 20
0.0
 30
0.0
  3
*D12
  1

  0
LINE
  5
1E1CF
330
1E1CD
100
AcDbEntity
  8
0
  6
ByBlock
 62
     0
 48
50.0
100
AcDbLine
 10
3471.0
 20
2204.0
 30
0.0
 11
2679.56493184821
 21
2204.0
 31
0.0
  0
LINE
  5
1E1D0
330
1E1CD
100
AcDbEntity
  8
0
  6
ByBlock
 62
     0
 48
50.0
100
AcDbLine
 10
2754.564931848211
 20
4004.0
 30
0.0
 11
2754.56493184821
 21
2204.0
 31
0.0
  0
INSERT
  5
1E1D1
330
1E1CD
100
AcDbEntity
  8
0
  6
ByBlock
 62
     0
 48
50.0
100
AcDbBlockReference
  2
_DOTSMALL
 10
2754.564931848211
 20
4004.0
 30
0.0
 41
125.0
 42
125.0
 43
125.0
 50
90.0
  0
INSERT
  5
1E1D2
330
1E1CD
100
AcDbEntity
  8
0
  6
ByBlock
 62
     0
 48
50.0
100
AcDbBlockReference
  2
_DOTSMALL
 10
2754.56493184821
 20
2204.0
 30
0.0
 41
125.0
 42
125.0
 43
125.0
 50
270.0
  0
MTEXT
  5
1E1D3
330
1E1CD
100
AcDbEntity
  8
0
  6
ByBlock
 62
     7
 48
50.0
100
AcDbMText
 10
2654.56493184821
 20
3104.0
 30
0.0
 40
150.0
 41
0.0
 71
     5
 72
     1
  1
\A1;1800
  7
STYLE1
 11
0.0000000000000001
 21
1.0
 31
0.0
 73
     1
 44
1.0
1001
ACAD
1000
MTEXTBEGIN
1070
    73
1070
     1
1070
    44
1040
1.0
1070
    74
1070
     0
1000
MTEXTEND
  0
POINT
  5
1E1D4
330
1E1CD
100
AcDbEntity
  8
DEFPOINTS
  6
ByBlock
 62
     0
 48
50.0
100
AcDbPoint
 10
3496.0
 20
4004.0
 30
0.0
  0
POINT
  5
1E1D5
330
1E1CD
100
AcDbEntity
  8
DEFPOINTS
  6
ByBlock
 62
     0
 48
50.0
100
AcDbPoint
 10
3496.0
 20
2204.0
 30
0.0
  0
POINT
  5
1E1D6
330
1E1CD
100
AcDbEntity
  8
DEFPOINTS
  6
ByBlock
 62
     0
 48
50.0
100
AcDbPoint
 10
2754.56493184821
 20
2204.0
 30
0.0
  0
ENDBLK
  5
1E1D7
330
1E1CD
100
AcDbEntity
  8
0
 48
50.0
100
AcDbBlockEnd
  0
BLOCK
  5
1E1D9
330
1E1D8
100
AcDbEntity
  8
0
 48
50.0
100
AcDbBlockBegin
  2
*D13
 70
     1
 10
0.0
 20
0.0
 30
0.0
  3
*D13
  1

  0
LINE
  5
1E1DA
330
1E1D8
100
AcDbEntity
  8
0
  6
ByBlock
 62
     0
 48
50.0
100
AcDbLine
 10
2975.057733986178
 20
8093.999999999997
 30
0.0
 11
2679.56493184821
 21
8093.999999999997
 31
0.0
  0
LINE
  5
1E1DB
330
1E1D8
100
AcDbEntity
  8
0
  6
ByBlock
 62
     0
 48
50.0
100
AcDbLine
 10
3471.0
 20
8004.0
 30
0.0
 11
2679.56493184821
 21
8004.0
 31
0.0
  0
LINE
  5
1E1DC
330
1E1D8
100
AcDbEntity
  8
0
  6
ByBlock
 62
     0
 48
50.0
100
AcDbLine
 10
2754.56493184821
 20
8093.999999999997
 30
0.0
 11
2754.56493184821
 21
8218.999999999997
 31
0.0
  0
LINE
  5
1E1DD
330
1E1D8
100
AcDbEntity
  8
0
  6
ByBlock
 62
     0
 48
50.0
100
AcDbLine
 10
2754.56493184821
 20
8004.0
 30
0.0
 11
2754.56493184821
 21
7879.0
 31
0.0
  0
LINE
  5
1E1DE
330
1E1D8
100
AcDbEntity
  8
0
  6
ByBlock
 62
     0
 48
50.0
100
AcDbLine
 10
2754.56493184821
 20
8093.999999999997
 30
0.0
 11
2754.56493184821
 21
8004.0
 31
0.0
  0
INSERT
  5
1E1DF
330
1E1D8
100
AcDbEntity
  8
0
  6
ByBlock
 62
     0
 48
50.0
100
AcDbBlockReference
  2
_DOTSMALL
 10
2754.56493184821
 20
8093.999999999997
 30
0.0
 41
125.0
 42
125.0
 43
125.0
 50
270.0
  0
INSERT
  5
1E1E0
330
1E1D8
100
AcDbEntity
  8
0
  6
ByBlock
 62
     0
 48
50.0
100
AcDbBlockReference
  2
_DOTSMALL
 10
2754.56493184821
 20
8004.0
 30
0.0
 41
125.0
 42
125.0
 43
125.0
 50
90.0
  0
MTEXT
  5
1E1E1
330
1E1D8
100
AcDbEntity
  8
0
  6
ByBlock
 62
     7
 48
50.0
100
AcDbMText
 10
2654.56493184821
 20
8048.999999999997
 30
0.0
 40
150.0
 41
0.0
 71
     5
 72
     1
  1
\A1;c
  7
STYLE1
 11
0.0000000000000001
 21
1.0
 31
0.0
 73
     1
 44
1.0
1001
ACAD
1000
MTEXTBEGIN
1070
    73
1070
     1
1070
    44
1040
1.0
1070
    74
1070
     0
1000
MTEXTEND
  0
POINT
  5
1E1E2
330
1E1D8
100
AcDbEntity
  8
DEFPOINTS
  6
ByBlock
 62
     0
 48
50.0
100
AcDbPoint
 10
3000.057733986178
 20
8093.999999999997
 30
0.0
  0
POINT
  5
1E1E3
330
1E1D8
100
AcDbEntity
  8
DEFPOINTS
  6
ByBlock
 62
     0
 48
50.0
100
AcDbPoint
 10
3496.0
 20
8004.0
 30
0.0
  0
POINT
  5
1E1E4
330
1E1D8
100
AcDbEntity
  8
DEFPOINTS
  6
ByBlock
 62
     0
 48
50.0
100
AcDbPoint
 10
2754.56493184821
 20
8004.0
 30
0.0
  0
ENDBLK
  5
1E1E5
330
1E1D8
100
AcDbEntity
  8
0
 48
50.0
100
AcDbBlockEnd
  0
BLOCK
  5
1E1E7
330
1E1E6
100
AcDbEntity
  8
0
 48
50.0
100
AcDbBlockBegin
  2
*D14
 70
     1
 10
0.0
 20
0.0
 30
0.0
  3
*D14
  1

  0
LINE
  5
1E1E8
330
1E1E6
100
AcDbEntity
  8
0
  6
ByBlock
 62
     0
 48
50.0
100
AcDbLine
 10
5296.0
 20
8029.0
 30
0.0
 11
5296.0
 21
9017.667619817155
 31
0.0
  0
LINE
  5
1E1E9
330
1E1E6
100
AcDbEntity
  8
0
  6
ByBlock
 62
     0
 48
50.0
100
AcDbLine
 10
5338.740228660987
 20
8755.206924300319
 30
0.0
 11
5338.740228660987
 21
9017.667619817155
 31
0.0
  0
LINE
  5
1E1EA
330
1E1E6
100
AcDbEntity
  8
0
  6
ByBlock
 62
     0
 48
50.0
100
AcDbLine
 10
5296.0
 20
8942.667619817155
 30
0.0
 11
5171.0
 21
8942.667619817155
 31
0.0
  0
LINE
  5
1E1EB
330
1E1E6
100
AcDbEntity
  8
0
  6
ByBlock
 62
     0
 48
50.0
100
AcDbLine
 10
5338.740228660987
 20
8942.667619817155
 30
0.0
 11
5704.176781667134
 21
8942.667619817155
 31
0.0
  0
LINE
  5
1E1EC
330
1E1E6
100
AcDbEntity
  8
0
  6
ByBlock
 62
     0
 48
50.0
100
AcDbLine
 10
5296.0
 20
8942.667619817155
 30
0.0
 11
5338.740228660987
 21
8942.667619817155
 31
0.0
  0
INSERT
  5
1E1ED
330
1E1E6
100
AcDbEntity
  8
0
  6
ByBlock
 62
     0
 48
50.0
100
AcDbBlockReference
  2
_DOTSMALL
 10
5296.0
 20
8942.667619817155
 30
0.0
 41
125.0
 42
125.0
 43
125.0
  0
INSERT
  5
1E1EE
330
1E1E6
100
AcDbEntity
  8
0
  6
ByBlock
 62
     0
 48
50.0
100
AcDbBlockReference
  2
_DOTSMALL
 10
5338.740228660987
 20
8942.667619817155
 30
0.0
 41
125.0
 42
125.0
 43
125.0
 50
180.0
  0
MTEXT
  5
1E1EF
330
1E1E6
100
AcDbEntity
  8
0
  6
ByBlock
 62
     7
 48
50.0
100
AcDbMText
 10
5646.45850516406
 20
9042.667619817155
 30
0.0
 40
150.0
 41
0.0
 71
     5
 72
     1
  1
\A1;a
  7
STYLE1
 73
     1
 44
1.0
1001
ACAD
1000
MTEXTBEGIN
1070
    73
1070
     1
1070
    44
1040
1.0
1070
    74
1070
     0
1000
MTEXTEND
  0
POINT
  5
1E1F0
330
1E1E6
100
AcDbEntity
  8
DEFPOINTS
  6
ByBlock
 62
     0
 48
50.0
100
AcDbPoint
 10
5296.0
 20
8004.0
 30
0.0
  0
POINT
  5
1E1F1
330
1E1E6
100
AcDbEntity
  8
DEFPOINTS
  6
ByBlock
 62
     0
 48
50.0
100
AcDbPoint
 10
5338.740228660987
 20
8730.206924300318
 30
0.0
  0
POINT
  5
1E1F2
330
1E1E6
100
AcDbEntity
  8
DEFPOINTS
  6
ByBlock
 62
     0
 48
50.0
100
AcDbPoint
 10
5338.740228660987
 20
8942.667619817155
 30
0.0
  0
ENDBLK
  5
1E1F3
330
1E1E6
100
AcDbEntity
  8
0
 48
50.0
100
AcDbBlockEnd
  0
BLOCK
  5
1E1F5
330
1E1F4
100
AcDbEntity
  8
0
 48
50.0
100
AcDbBlockBegin
  2
*D15
 70
     1
 10
0.0
 20
0.0
 30
0.0
  3
*D15
  1

  0
LINE
  5
1E1F6
330
1E1F4
100
AcDbEntity
  8
0
  6
ByBlock
 62
     0
 48
50.0
100
AcDbLine
 10
5296.0
 20
8029.0
 30
0.0
 11
5296.0
 21
8805.206924300318
 31
0.0
  0
LINE
  5
1E1F7
330
1E1F4
100
AcDbEntity
  8
0
  6
ByBlock
 62
     0
 48
50.0
100
AcDbLine
 10
5173.0
 20
7956.0
 30
0.0
 11
5173.0
 21
8805.206924300318
 31
0.0
  0
LINE
  5
1E1F8
330
1E1F4
100
AcDbEntity
  8
0
  6
ByBlock
 62
     0
 48
50.0
100
AcDbLine
 10
5173.0
 20
8730.206924300317
 30
0.0
 11
5296.0
 21
8730.206924300317
 31
0.0
  0
LINE
  5
1E1F9
330
1E1F4
100
AcDbEntity
  8
0
  6
ByBlock
 62
     0
 48
50.0
100
AcDbLine
 10
5296.0
 20
8730.206924300317
 30
0.0
 11
5717.213203435597
 21
8730.206924300317
 31
0.0
  0
INSERT
  5
1E1FA
330
1E1F4
100
AcDbEntity
  8
0
  6
ByBlock
 62
     0
 48
50.0
100
AcDbBlockReference
  2
_DOTSMALL
 10
5173.0
 20
8730.206924300317
 30
0.0
 41
125.0
 42
125.0
 43
125.0
 50
180.0
  0
INSERT
  5
1E1FB
330
1E1F4
100
AcDbEntity
  8
0
  6
ByBlock
 62
     0
 48
50.0
100
AcDbBlockReference
  2
_DOTSMALL
 10
5296.0
 20
8730.206924300317
 30
0.0
 41
125.0
 42
125.0
 43
125.0
  0
MTEXT
  5
1E1FC
330
1E1F4
100
AcDbEntity
  8
0
  6
ByBlock
 62
     7
 48
50.0
100
AcDbMText
 10
5569.106601717798
 20
8830.221688079843
 30
0.0
 40
150.0
 41
0.0
 71
     5
 72
     1
  1
\A1;123
  7
STYLE1
 73
     1
 44
1.0
1001
ACAD
1000
MTEXTBEGIN
1070
    73
1070
     1
1070
    44
1040
1.0
1070
    74
1070
     0
1000
MTEXTEND
  0
POINT
  5
1E1FD
330
1E1F4
100
AcDbEntity
  8
DEFPOINTS
  6
ByBlock
 62
     0
 48
50.0
100
AcDbPoint
 10
5296.0
 20
8004.0
 30
0.0
  0
POINT
  5
1E1FE
330
1E1F4
100
AcDbEntity
  8
DEFPOINTS
  6
ByBlock
 62
     0
 48
50.0
100
AcDbPoint
 10
5173.0
 20
7931.0
 30
0.0
  0
POINT
  5
1E1FF
330
1E1F4
100
AcDbEntity
  8
DEFPOINTS
  6
ByBlock
 62
     0
 48
50.0
100
AcDbPoint
 10
5173.0
 20
8730.206924300317
 30
0.0
  0
ENDBLK
  5
1E200
330
1E1F4
100
AcDbEntity
  8
0
 48
50.0
100
AcDbBlockEnd
  0
BLOCK
  5
1E202
330
1E201
100
AcDbEntity
  8
0
 48
50.0
100
AcDbBlockBegin
  2
*D16
 70
     1
 10
0.0
 20
0.0
 30
0.0
  3
*D16
  1

  0
LINE
  5
1E203
330
1E201
100
AcDbEntity
  8
0
  6
ByBlock
 62
     0
 48
50.0
100
AcDbLine
 10
4765.91864628953
 20
8004.0
 30
0.0
 11
5028.847448568776
 21
8004.0
 31
0.0
  0
LINE
  5
1E204
330
1E201
100
AcDbEntity
  8
0
  6
ByBlock
 62
     0
 48
50.0
100
AcDbLine
 10
4765.91864628953
 20
7903.999999999998
 30
0.0
 11
5028.847448568776
 21
7903.999999999998
 31
0.0
  0
LINE
  5
1E205
330
1E201
100
AcDbEntity
  8
0
  6
ByBlock
 62
     0
 48
50.0
100
AcDbLine
 10
4953.847448568776
 20
7903.999999999998
 30
0.0
 11
4953.847448568776
 21
8004.0
 31
0.0
  0
LINE
  5
1E206
330
1E201
100
AcDbEntity
  8
0
  6
ByBlock
 62
     0
 48
50.0
100
AcDbLine
 10
4953.847448568776
 20
8004.0
 30
0.0
 11
4953.847448568776
 21
8419.118110236221
 31
0.0
  0
INSERT
  5
1E207
330
1E201
100
AcDbEntity
  8
0
  6
ByBlock
 62
     0
 48
50.0
100
AcDbBlockReference
  2
_DOTSMALL
 10
4953.847448568776
 20
7903.999999999998
 30
0.0
 41
125.0
 42
125.0
 43
125.0
 50
270.0
  0
INSERT
  5
1E208
330
1E201
100
AcDbEntity
  8
0
  6
ByBlock
 62
     0
 48
50.0
100
AcDbBlockReference
  2
_DOTSMALL
 10
4953.847448568776
 20
8004.0
 30
0.0
 41
125.0
 42
125.0
 43
125.0
 50
90.0
  0
MTEXT
  5
1E209
330
1E201
100
AcDbEntity
  8
0
  6
ByBlock
 62
     7
 48
50.0
100
AcDbMText
 10
4853.847448568776
 20
8274.05905511811
 30
0.0
 40
150.0
 41
0.0
 71
     5
 72
     1
  1
\A1;100
  7
STYLE1
 11
0.0000000000000001
 21
1.0
 31
0.0
 73
     1
 44
1.0
1001
ACAD
1000
MTEXTBEGIN
1070
    73
1070
     1
1070
    44
1040
1.0
1070
    74
1070
     0
1000
MTEXTEND
  0
POINT
  5
1E20A
330
1E201
100
AcDbEntity
  8
DEFPOINTS
  6
ByBlock
 62
     0
 48
50.0
100
AcDbPoint
 10
4740.91864628953
 20
8004.0
 30
0.0
  0
POINT
  5
1E20B
330
1E201
100
AcDbEntity
  8
DEFPOINTS
  6
ByBlock
 62
     0
 48
50.0
100
AcDbPoint
 10
4740.91864628953
 20
7903.999999999998
 30
0.0
  0
POINT
  5
1E20C
330
1E201
100
AcDbEntity
  8
DEFPOINTS
  6
ByBlock
 62
     0
 48
50.0
100
AcDbPoint
 10
4953.847448568776
 20
7903.999999999998
 30
0.0
  0
ENDBLK
  5
1E20D
330
1E201
100
AcDbEntity
  8
0
 48
50.0
100
AcDbBlockEnd
  0
BLOCK
  5
1E20F
330
1E20E
100
AcDbEntity
  8
0
 48
50.0
100
AcDbBlockBegin
  2
*D17
 70
     1
 10
0.0
 20
0.0
 30
0.0
  3
*D17
  1

  0
LINE
  5
1E210
330
1E20E
100
AcDbEntity
  8
0
  6
ByBlock
 62
     0
 48
50.0
100
AcDbLine
 10
3796.000000000001
 20
2529.000000000007
 30
0.0
 11
3796.000000000001
 21
2931.6104948313
 31
0.0
  0
LINE
  5
1E211
330
1E20E
100
AcDbEntity
  8
0
  6
ByBlock
 62
     0
 48
50.0
100
AcDbLine
 10
3595.999999999998
 20
2529.000000000004
 30
0.0
 11
3595.999999999998
 21
2931.6104948313
 31
0.0
  0
LINE
  5
1E212
330
1E20E
100
AcDbEntity
  8
0
  6
ByBlock
 62
     0
 48
50.0
100
AcDbLine
 10
3796.000000000001
 20
2856.610494831301
 30
0.0
 11
3595.999999999998
 21
2856.610494831301
 31
0.0
  0
LINE
  5
1E213
330
1E20E
100
AcDbEntity
  8
0
  6
ByBlock
 62
     0
 48
50.0
100
AcDbLine
 10
3595.999999999998
 20
2856.610494831301
 30
0.0
 11
3122.996254565651
 21
2856.610494831301
 31
0.0
  0
INSERT
  5
1E214
330
1E20E
100
AcDbEntity
  8
0
  6
ByBlock
 62
     0
 48
50.0
100
AcDbBlockReference
  2
_DOTSMALL
 10
3796.000000000001
 20
2856.610494831301
 30
0.0
 41
125.0
 42
125.0
 43
125.0
  0
INSERT
  5
1E215
330
1E20E
100
AcDbEntity
  8
0
  6
ByBlock
 62
     0
 48
50.0
100
AcDbBlockReference
  2
_DOTSMALL
 10
3595.999999999998
 20
2856.610494831301
 30
0.0
 41
125.0
 42
125.0
 43
125.0
 50
180.0
  0
MTEXT
  5
1E216
330
1E20E
100
AcDbEntity
  8
0
  6
ByBlock
 62
     7
 48
50.0
100
AcDbMText
 10
3284.959837242816
 20
2956.625258610828
 30
0.0
 40
150.0
 41
0.0
 71
     5
 72
     1
  1
\A1;200
  7
STYLE1
 73
     1
 44
1.0
1001
ACAD
1000
MTEXTBEGIN
1070
    73
1070
     1
1070
    44
1040
1.0
1070
    74
1070
     0
1000
MTEXTEND
  0
POINT
  5
1E217
330
1E20E
100
AcDbEntity
  8
DEFPOINTS
  6
ByBlock
 62
     0
 48
50.0
100
AcDbPoint
 10
3796.000000000001
 20
2504.000000000007
 30
0.0
  0
POINT
  5
1E218
330
1E20E
100
AcDbEntity
  8
DEFPOINTS
  6
ByBlock
 62
     0
 48
50.0
100
AcDbPoint
 10
3595.999999999998
 20
2504.000000000004
 30
0.0
  0
POINT
  5
1E219
330
1E20E
100
AcDbEntity
  8
DEFPOINTS
  6
ByBlock
 62
     0
 48
50.0
100
AcDbPoint
 10
3595.999999999998
 20
2856.610494831301
 30
0.0
  0
ENDBLK
  5
1E21A
330
1E20E
100
AcDbEntity
  8
0
 48
50.0
100
AcDbBlockEnd
  0
BLOCK
  5
1E21C
330
1E21B
100
AcDbEntity
  8
0
 48
50.0
100
AcDbBlockBegin
  2
*D18
 70
     1
 10
0.0
 20
0.0
 30
0.0
  3
*D18
  1

  0
LINE
  5
1E21D
330
1E21B
100
AcDbEntity
  8
0
  6
ByBlock
 62
     0
 48
50.0
100
AcDbLine
 10
4421.0
 20
2204.000000000009
 30
0.0
 11
4870.266817430558
 21
2204.000000000009
 31
0.0
  0
LINE
  5
1E21E
330
1E21B
100
AcDbEntity
  8
0
  6
ByBlock
 62
     0
 48
50.0
100
AcDbLine
 10
4471.0
 20
3104.0
 30
0.0
 11
4870.266817430558
 21
3104.0
 31
0.0
  0
LINE
  5
1E21F
330
1E21B
100
AcDbEntity
  8
0
  6
ByBlock
 62
     0
 48
50.0
100
AcDbLine
 10
4795.266817430558
 20
2204.000000000009
 30
0.0
 11
4795.266817430558
 21
3104.0
 31
0.0
  0
INSERT
  5
1E220
330
1E21B
100
AcDbEntity
  8
0
  6
ByBlock
 62
     0
 48
50.0
100
AcDbBlockReference
  2
_DOTSMALL
 10
4795.266817430558
 20
2204.000000000009
 30
0.0
 41
125.0
 42
125.0
 43
125.0
 50
270.0
  0
INSERT
  5
1E221
330
1E21B
100
AcDbEntity
  8
0
  6
ByBlock
 62
     0
 48
50.0
100
AcDbBlockReference
  2
_DOTSMALL
 10
4795.266817430558
 20
3104.0
 30
0.0
 41
125.0
 42
125.0
 43
125.0
 50
90.0
  0
MTEXT
  5
1E222
330
1E21B
100
AcDbEntity
  8
0
  6
ByBlock
 62
     7
 48
50.0
100
AcDbMText
 10
4695.266817430558
 20
2654.000000000005
 30
0.0
 40
150.0
 41
0.0
 71
     5
 72
     1
  1
\A1;900
  7
STYLE1
 11
0.0000000000000001
 21
1.0
 31
0.0
 73
     1
 44
1.0
1001
ACAD
1000
MTEXTBEGIN
1070
    73
1070
     1
1070
    44
1040
1.0
1070
    74
1070
     0
1000
MTEXTEND
  0
POINT
  5
1E223
330
1E21B
100
AcDbEntity
  8
DEFPOINTS
  6
ByBlock
 62
     0
 48
50.0
100
AcDbPoint
 10
4396.0
 20
2204.000000000009
 30
0.0
  0
POINT
  5
1E224
330
1E21B
100
AcDbEntity
  8
DEFPOINTS
  6
ByBlock
 62
     0
 48
50.0
100
AcDbPoint
 10
4446.0
 20
3104.0
 30
0.0
  0
POINT
  5
1E225
330
1E21B
100
AcDbEntity
  8
DEFPOINTS
  6
ByBlock
 62
     0
 48
50.0
100
AcDbPoint
 10
4795.266817430558
 20
3104.0
 30
0.0
  0
ENDBLK
  5
1E226
330
1E21B
100
AcDbEntity
  8
0
 48
50.0
100
AcDbBlockEnd
  0
BLOCK
  5
1E228
330
1E227
100
AcDbEntity
  8
0
 48
50.0
100
AcDbBlockBegin
  2
*D19
 70
     1
 10
0.0
 20
0.0
 30
0.0
  3
*D19
  1

  0
LINE
  5
1E229
330
1E227
100
AcDbEntity
  8
0
  6
ByBlock
 62
     0
 48
50.0
100
AcDbLine
 10
4421.0
 20
4004.0
 30
0.0
 11
4870.266817430558
 21
4004.0
 31
0.0
  0
LINE
  5
1E22A
330
1E227
100
AcDbEntity
  8
0
  6
ByBlock
 62
     0
 48
50.0
100
AcDbLine
 10
4795.266817430558
 20
3104.0
 30
0.0
 11
4795.266817430558
 21
4004.0
 31
0.0
  0
INSERT
  5
1E22B
330
1E227
100
AcDbEntity
  8
0
  6
ByBlock
 62
     0
 48
50.0
100
AcDbBlockReference
  2
_DOTSMALL
 10
4795.266817430558
 20
3104.0
 30
0.0
 41
125.0
 42
125.0
 43
125.0
 50
270.0
  0
INSERT
  5
1E22C
330
1E227
100
AcDbEntity
  8
0
  6
ByBlock
 62
     0
 48
50.0
100
AcDbBlockReference
  2
_DOTSMALL
 10
4795.266817430558
 20
4004.0
 30
0.0
 41
125.0
 42
125.0
 43
125.0
 50
90.0
  0
MTEXT
  5
1E22D
330
1E227
100
AcDbEntity
  8
0
  6
ByBlock
 62
     7
 48
50.0
100
AcDbMText
 10
4695.266817430558
 20
3554.0
 30
0.0
 40
150.0
 41
0.0
 71
     5
 72
     1
  1
\A1;900
  7
STYLE1
 11
0.0000000000000001
 21
1.0
 31
0.0
 73
     1
 44
1.0
1001
ACAD
1000
MTEXTBEGIN
1070
    73
1070
     1
1070
    44
1040
1.0
1070
    74
1070
     0
1000
MTEXTEND
  0
POINT
  5
1E22E
330
1E227
100
AcDbEntity
  8
DEFPOINTS
  6
ByBlock
 62
     0
 48
50.0
100
AcDbPoint
 10
4446.0
 20
3104.0
 30
0.0
  0
POINT
  5
1E22F
330
1E227
100
AcDbEntity
  8
DEFPOINTS
  6
ByBlock
 62
     0
 48
50.0
100
AcDbPoint
 10
4396.0
 20
4004.0
 30
0.0
  0
POINT
  5
1E230
330
1E227
100
AcDbEntity
  8
DEFPOINTS
  6
ByBlock
 62
     0
 48
50.0
100
AcDbPoint
 10
4795.266817430558
 20
4004.0
 30
0.0
  0
ENDBLK
  5
1E231
330
1E227
100
AcDbEntity
  8
0
 48
50.0
100
AcDbBlockEnd
  0
BLOCK
  5
1E233
330
1E232
100
AcDbEntity
  8
0
 48
50.0
100
AcDbBlockBegin
  2
*D20
 70
     1
 10
0.0
 20
0.0
 30
0.0
  3
*D20
  1

  0
LINE
  5
1E234
330
1E232
100
AcDbEntity
  8
0
  6
ByBlock
 62
     0
 48
50.0
100
AcDbLine
 10
3496.0
 20
4029.0
 30
0.0
 11
3496.0
 21
4605.909765648328
 31
0.0
  0
LINE
  5
1E235
330
1E232
100
AcDbEntity
  8
0
  6
ByBlock
 62
     0
 48
50.0
100
AcDbLine
 10
4396.0
 20
4530.909765648328
 30
0.0
 11
3496.0
 21
4530.909765648328
 31
0.0
  0
INSERT
  5
1E236
330
1E232
100
AcDbEntity
  8
0
  6
ByBlock
 62
     0
 48
50.0
100
AcDbBlockReference
  2
_DOTSMALL
 10
4396.0
 20
4530.909765648328
 30
0.0
 41
125.0
 42
125.0
 43
125.0
  0
INSERT
  5
1E237
330
1E232
100
AcDbEntity
  8
0
  6
ByBlock
 62
     0
 48
50.0
100
AcDbBlockReference
  2
_DOTSMALL
 10
3496.0
 20
4530.909765648328
 30
0.0
 41
125.0
 42
125.0
 43
125.0
 50
180.0
  0
MTEXT
  5
1E238
330
1E232
100
AcDbEntity
  8
0
  6
ByBlock
 62
     7
 48
50.0
100
AcDbMText
 10
3946.0
 20
4630.909765648328
 30
0.0
 40
150.0
 41
0.0
 71
     5
 72
     1
  1
\A1;900
  7
STYLE1
 73
     1
 44
1.0
1001
ACAD
1000
MTEXTBEGIN
1070
    73
1070
     1
1070
    44
1040
1.0
1070
    74
1070
     0
1000
MTEXTEND
  0
POINT
  5
1E239
330
1E232
100
AcDbEntity
  8
DEFPOINTS
  6
ByBlock
 62
     0
 48
50.0
100
AcDbPoint
 10
4396.0
 20
3304.0
 30
0.0
  0
POINT
  5
1E23A
330
1E232
100
AcDbEntity
  8
DEFPOINTS
  6
ByBlock
 62
     0
 48
50.0
100
AcDbPoint
 10
3496.0
 20
4004.0
 30
0.0
  0
POINT
  5
1E23B
330
1E232
100
AcDbEntity
  8
DEFPOINTS
  6
ByBlock
 62
     0
 48
50.0
100
AcDbPoint
 10
3496.0
 20
4530.909765648328
 30
0.0
  0
ENDBLK
  5
1E23C
330
1E232
100
AcDbEntity
  8
0
 48
50.0
100
AcDbBlockEnd
  0
BLOCK
  5
1E23E
330
1E23D
100
AcDbEntity
  8
0
 48
50.0
100
AcDbBlockBegin
  2
*D21
 70
     1
 10
0.0
 20
0.0
 30
0.0
  3
*D21
  1

  0
LINE
  5
1E23F
330
1E23D
100
AcDbEntity
  8
0
  6
ByBlock
 62
     0
 48
50.0
100
AcDbLine
 10
5296.0
 20
4029.0
 30
0.0
 11
5296.0
 21
4605.909765648328
 31
0.0
  0
LINE
  5
1E240
330
1E23D
100
AcDbEntity
  8
0
  6
ByBlock
 62
     0
 48
50.0
100
AcDbLine
 10
4396.0
 20
3329.0
 30
0.0
 11
4396.0
 21
4605.909765648328
 31
0.0
  0
LINE
  5
1E241
330
1E23D
100
AcDbEntity
  8
0
  6
ByBlock
 62
     0
 48
50.0
100
AcDbLine
 10
5296.0
 20
4530.909765648328
 30
0.0
 11
4396.0
 21
4530.909765648328
 31
0.0
  0
INSERT
  5
1E242
330
1E23D
100
AcDbEntity
  8
0
  6
ByBlock
 62
     0
 48
50.0
100
AcDbBlockReference
  2
_DOTSMALL
 10
5296.0
 20
4530.909765648328
 30
0.0
 41
125.0
 42
125.0
 43
125.0
  0
INSERT
  5
1E243
330
1E23D
100
AcDbEntity
  8
0
  6
ByBlock
 62
     0
 48
50.0
100
AcDbBlockReference
  2
_DOTSMALL
 10
4396.0
 20
4530.909765648328
 30
0.0
 41
125.0
 42
125.0
 43
125.0
 50
180.0
  0
MTEXT
  5
1E244
330
1E23D
100
AcDbEntity
  8
0
  6
ByBlock
 62
     7
 48
50.0
100
AcDbMText
 10
4866.91852200628
 20
4630.909765648328
 30
0.0
 40
150.0
 41
0.0
 71
     5
 72
     1
  1
\A1;900
  7
STYLE1
 73
     1
 44
1.0
1001
ACAD
1000
MTEXTBEGIN
1070
    73
1070
     1
1070
    44
1040
1.0
1070
    74
1070
     0
1000
MTEXTEND
  0
POINT
  5
1E245
330
1E23D
100
AcDbEntity
  8
DEFPOINTS
  6
ByBlock
 62
     0
 48
50.0
100
AcDbPoint
 10
5296.0
 20
4004.0
 30
0.0
  0
POINT
  5
1E246
330
1E23D
100
AcDbEntity
  8
DEFPOINTS
  6
ByBlock
 62
     0
 48
50.0
100
AcDbPoint
 10
4396.0
 20
3304.0
 30
0.0
  0
POINT
  5
1E247
330
1E23D
100
AcDbEntity
  8
DEFPOINTS
  6
ByBlock
 62
     0
 48
50.0
100
AcDbPoint
 10
4396.0
 20
4530.909765648328
 30
0.0
  0
ENDBLK
  5
1E248
330
1E23D
100
AcDbEntity
  8
0
 48
50.0
100
AcDbBlockEnd
  0
BLOCK
  5
1E24A
330
1E249
100
AcDbEntity
  8
0
 48
50.0
100
AcDbBlockBegin
  2
*D22
 70
     1
 10
0.0
 20
0.0
 30
0.0
  3
*D22
  1

  0
LINE
  5
1E24B
330
1E249
100
AcDbEntity
  8
0
  6
ByBlock
 62
     0
 48
50.0
100
AcDbLine
 10
5196.0
 20
7079.000000000007
 30
0.0
 11
5196.0
 21
6928.700321064884
 31
0.0
  0
LINE
  5
1E24C
330
1E249
100
AcDbEntity
  8
0
  6
ByBlock
 62
     0
 48
50.0
100
AcDbLine
 10
5296.0
 20
7079.000000000007
 30
0.0
 11
5296.0
 21
6928.700321064884
 31
0.0
  0
LINE
  5
1E24D
330
1E249
100
AcDbEntity
  8
0
  6
ByBlock
 62
     0
 48
50.0
100
AcDbLine
 10
5196.0
 20
7003.700321064883
 30
0.0
 11
5296.0
 21
7003.700321064883
 31
0.0
  0
LINE
  5
1E24E
330
1E249
100
AcDbEntity
  8
0
  6
ByBlock
 62
     0
 48
50.0
100
AcDbLine
 10
5296.0
 20
7003.700321064883
 30
0.0
 11
5711.11811023622
 21
7003.700321064883
 31
0.0
  0
INSERT
  5
1E24F
330
1E249
100
AcDbEntity
  8
0
  6
ByBlock
 62
     0
 48
50.0
100
AcDbBlockReference
  2
_DOTSMALL
 10
5196.0
 20
7003.700321064883
 30
0.0
 41
125.0
 42
125.0
 43
125.0
 50
180.0
  0
INSERT
  5
1E250
330
1E249
100
AcDbEntity
  8
0
  6
ByBlock
 62
     0
 48
50.0
100
AcDbBlockReference
  2
_DOTSMALL
 10
5296.0
 20
7003.700321064883
 30
0.0
 41
125.0
 42
125.0
 43
125.0
  0
MTEXT
  5
1E251
330
1E249
100
AcDbEntity
  8
0
  6
ByBlock
 62
     7
 48
50.0
100
AcDbMText
 10
5566.05905511811
 20
7103.700321064883
 30
0.0
 40
150.0
 41
0.0
 71
     5
 72
     1
  1
\A1;100
  7
STYLE1
 73
     1
 44
1.0
1001
ACAD
1000
MTEXTBEGIN
1070
    73
1070
     1
1070
    44
1040
1.0
1070
    74
1070
     0
1000
MTEXTEND
  0
POINT
  5
1E252
330
1E249
100
AcDbEntity
  8
DEFPOINTS
  6
ByBlock
 62
     0
 48
50.0
100
AcDbPoint
 10
5196.0
 20
7104.000000000008
 30
0.0
  0
POINT
  5
1E253
330
1E249
100
AcDbEntity
  8
DEFPOINTS
  6
ByBlock
 62
     0
 48
50.0
100
AcDbPoint
 10
5296.0
 20
7104.000000000008
 30
0.0
  0
POINT
  5
1E254
330
1E249
100
AcDbEntity
  8
DEFPOINTS
  6
ByBlock
 62
     0
 48
50.0
100
AcDbPoint
 10
5296.0
 20
7003.700321064883
 30
0.0
  0
ENDBLK
  5
1E255
330
1E249
100
AcDbEntity
  8
0
 48
50.0
100
AcDbBlockEnd
  0
BLOCK
  5
1E2A5
330
1E256
100
AcDbEntity
  8
0
 48
50.0
100
AcDbBlockBegin
  2
A$C56A41A26
 70
     0
 10
0.0
 20
0.0
 30
0.0
  3
A$C56A41A26
  1

  0
LINE
  5
1E257
330
1E256
100
AcDbEntity
  8
部品1
 48
50.0
100
AcDbLine
 10
2708.994140400603
 20
2627.271234847374
 30
0.0
 11
908.9941404006022
 21
2627.271234847374
 31
0.0
  0
LINE
  5
1E258
330
1E256
100
AcDbEntity
  8
部品1
 48
50.0
100
AcDbLine
 10
2708.994140400602
 20
2727.271234847376
 30
0.0
 11
908.9941404006022
 21
2727.271234847376
 31
0.0
  0
LINE
  5
1E259
330
1E256
100
AcDbEntity
  8
想像線
 48
10.0
100
AcDbLine
 10
858.9941404005985
 20
2817.271234847376
 30
0.0
 11
2758.994140400606
 21
2817.27123484738
 31
0.0
  0
LINE
  5
1E25A
330
1E256
100
AcDbEntity
  8
想像線
 48
10.0
100
AcDbLine
 10
2758.994140400603
 20
797.2712348473724
 30
0.0
 11
858.9941404006022
 21
797.271234847376
 31
0.0
  0
LINE
  5
1E25B
330
1E256
100
AcDbEntity
  8
部品1
 48
50.0
100
AcDbLine
 10
2708.994140400602
 20
927.2712348473943
 30
0.0
 11
908.9941404006022
 21
927.271234847376
 31
0.0
  0
DIMENSION
  5
1E25C
330
1E256
100
AcDbEntity
  8
寸法
 48
50.0
100
AcDbDimension
  2
*D5
 10
1444.747864477533
 20
927.2712348473778
 30
0.0
 11
1444.747864477533
 21
649.1876915744906
 31
0.0
 12
-2587.005859599398
 22
-5696.728765152624
 32
0.0
 70
   128
 71
     5
 42
-1.0
  3
INABA_S50G
100
AcDbAlignedDimension
 13
1138.994140400603
 23
1027.271234847381
 33
0.0
 14
1138.994140400604
 24
927.2712348473778
 34
0.0
 50
90.0
100
AcDbRotatedDimension
1001
ACAD
1000
DSTYLE
1002
{
1070
   288
1070
     1
1070
    40
1040
1.0
1002
}
  0
LINE
  5
1E25D
330
1E256
100
AcDbEntity
  8
部品1
 48
50.0
100
AcDbLine
 10
2708.994140400603
 20
1027.271234847398
 30
0.0
 11
908.9941404006022
 21
1027.27123484738
 31
0.0
  0
DIMENSION
  5
1E25E
330
1E256
100
AcDbEntity
  8
寸法
 48
50.0
100
AcDbDimension
  2
*D4
 10
1444.747864477533
 20
1227.271234847383
 30
0.0
 11
1444.747864477533
 21
1514.234817524549
 31
0.0
 12
-2587.005859599398
 22
-1276.728765152624
 32
0.0
 70
   128
 71
     5
 42
-1.0
  3
INABA_S50G
100
AcDbAlignedDimension
 13
1138.994140400603
 23
1027.27123484738
 33
0.0
 14
1208.994140400603
 24
1227.271234847383
 34
0.0
 50
90.0
100
AcDbRotatedDimension
1001
ACAD
1000
DSTYLE
1002
{
1070
   288
1070
     1
1070
    40
1040
1.0
1002
}
  0
MTEXT
  5
1E25F
102
{ACAD_REACTORS
330
1E260
102
}
330
1E256
100
AcDbEntity
  8
寸法
 62
     7
 48
50.0
100
AcDbMText
 10
1566.166025099446
 20
2207.190649171135
 30
0.0
 40
150.0
 41
0.0
 71
     6
 72
     1
  1
\A1;C.B
  7
STYLE1
 73
     1
 44
1.0
1001
ACAD
1000
MTEXTBEGIN
1070
    73
1070
     1
1070
    44
1040
1.0
1070
    74
1070
     0
1000
MTEXTEND
  0
LEADER
  5
1E260
330
1E256
100
AcDbEntity
  8
寸法
 48
50.0
100
AcDbLeader
  3
INABA_S50G
 73
     0
 75
     1
 40
150.0
 41
231.9898538650463
 76
     3
 10
1759.920575772113
 20
1978.037610834701
 30
0.0
 10
1716.166025099446
 20
2107.190649171135
 30
0.0
 10
1591.166025099446
 20
2107.190649171135
 30
0.0
340
1E25F
1001
ACAD
1000
DSTYLE
1002
{
1070
    40
1040
1.0
1002
}
  0
DIMENSION
  5
1E261
330
1E256
100
AcDbEntity
  8
寸法
 48
50.0
100
AcDbDimension
  2
*D3
 10
1031.994140400602
 20
3453.478159147693
 30
0.0
 11
1808.994140400602
 21
3553.478159147693
 31
0.0
 12
-2587.005859599398
 22
-5276.728765152624
 32
0.0
 71
     5
 42
-1.0
  3
INABA_S50G
100
AcDbAlignedDimension
 13
2585.994140400603
 23
2654.271234847376
 33
0.0
 14
1031.994140400602
 24
2654.271234847376
 34
0.0
100
AcDbRotatedDimension
1001
ACAD
1000
DSTYLE
1002
{
1070
    40
1040
1.0
1070
    75
1070
     1
1070
   279
1070
     1
1002
}
  0
DIMENSION
  5
1E262
330
1E256
100
AcDbEntity
  8
寸法
 48
50.0
100
AcDbDimension
  2
*D2
 10
2708.994140400602
 20
3665.93885466453
 30
0.0
 11
1808.994140400602
 21
3765.93885466453
 31
0.0
 12
-2587.005859599398
 22
-5276.728765152624
 32
0.0
 71
     5
 42
-1.0
  3
INABA_S50G
100
AcDbAlignedDimension
 13
908.9941404006022
 23
2727.271234847376
 33
0.0
 14
2708.994140400602
 24
2727.271234847376
 34
0.0
100
AcDbRotatedDimension
1001
ACAD
1000
DSTYLE
1002
{
1070
    40
1040
1.0
1070
    75
1070
     1
1070
   279
1070
     1
1002
}
  0
DIMENSION
  5
1E263
330
1E256
100
AcDbEntity
  8
寸法
 48
50.0
100
AcDbDimension
  2
*D20
 10
908.9941404006022
 20
3254.181000495704
 30
0.0
 11
1358.994140400602
 21
3354.181000495704
 31
0.0
 12
-2587.005859599398
 22
-1276.728765152624
 32
0.0
 71
     5
 42
-1.0
  3
INABA_S50G
100
AcDbAlignedDimension
 13
1808.994140400602
 23
2027.271234847376
 33
0.0
 14
908.9941404006022
 24
2727.271234847376
 34
0.0
100
AcDbRotatedDimension
1001
ACAD
1000
DSTYLE
1002
{
1070
    40
1040
1.0
1070
    75
1070
     1
1070
   279
1070
     1
1070
   288
1070
     1
1002
}
  0
DIMENSION
  5
1E264
330
1E256
100
AcDbEntity
  8
寸法
 48
50.0
100
AcDbDimension
  2
*D17
 10
1008.9941404006
 20
1579.881729678676
 30
0.0
 11
697.9539776434176
 21
1579.881729678676
 31
0.0
 12
-2587.005859599398
 22
-1276.728765152624
 32
0.0
 70
   128
 71
     5
 42
-1.0
  3
INABA_S50G
100
AcDbAlignedDimension
 13
1208.994140400603
 23
1227.271234847383
 33
0.0
 14
1008.9941404006
 24
1227.271234847379
 34
0.0
100
AcDbRotatedDimension
1001
ACAD
1000
DSTYLE
1002
{
1070
    40
1040
1.0
1002
}
  0
LINE
  5
1E265
330
1E256
100
AcDbEntity
  8
部品1
 48
50.0
100
AcDbLine
 10
1008.994140400602
 20
1027.27123484738
 30
0.0
 11
1008.994140400602
 21
2627.271234847373
 31
0.0
  0
DIMENSION
  5
1E266
330
1E256
100
AcDbEntity
  8
寸法
 48
50.0
100
AcDbDimension
  2
*D9
 10
413.0518743867797
 20
1125.271234847378
 30
0.0
 11
413.0518743867797
 21
1827.271234847376
 31
0.0
 12
-2587.005859599398
 22
-1276.728765152624
 32
0.0
 70
   128
 71
     5
 42
-1.0
  3
INABA_S50G
100
AcDbAlignedDimension
 13
981.9941404006021
 23
2604.271234847376
 33
0.0
 14
981.9941404006085
 24
1125.271234847378
 34
0.0
 50
90.0
100
AcDbRotatedDimension
1001
ACAD
1000
DSTYLE
1002
{
1070
   288
1070
     1
1070
    40
1040
1.0
1002
}
  0
DIMENSION
  5
1E267
330
1E256
100
AcDbEntity
  8
寸法
 48
50.0
100
AcDbDimension
  2
*D12
 10
167.5590722488123
 20
927.271234847376
 30
0.0
 11
67.5590722488123
 21
1827.271234847376
 31
0.0
 12
-2587.005859599398
 22
-1276.728765152624
 32
0.0
 71
     5
 42
-1.0
  3
INABA_S50G
100
AcDbAlignedDimension
 13
908.9941404006022
 23
2727.271234847376
 33
0.0
 14
908.9941404006022
 24
927.271234847376
 34
0.0
 50
90.0
100
AcDbRotatedDimension
1001
ACAD
1000
DSTYLE
1002
{
1070
    40
1040
1.0
1070
    75
1070
     1
1070
   279
1070
     1
1002
}
  0
LINE
  5
1E268
330
1E256
100
AcDbEntity
  8
想像線
 48
10.0
100
AcDbLine
 10
858.9941404006022
 20
797.271234847376
 30
0.0
 11
858.9941404006022
 21
2817.27123484738
 31
0.0
  0
LINE
  5
1E269
330
1E256
100
AcDbEntity
  8
部品1
 48
50.0
100
AcDbLine
 10
908.9941404006022
 20
927.271234847376
 30
0.0
 11
908.9941404006022
 21
2727.271234847376
 31
0.0
  0
DIMENSION
  5
1E26A
330
1E256
100
AcDbEntity
  8
寸法
 48
50.0
100
AcDbDimension
  2
*D11
 10
167.5590722488123
 20
797.271234847376
 30
0.0
 11
67.5590722488123
 21
1282.271234847376
 31
0.0
 12
-2587.005859599398
 22
-5696.728765152624
 32
0.0
  1
b
 71
     5
 42
-1.0
  3
INABA_S50G
100
AcDbAlignedDimension
 13
908.9941404006022
 23
927.271234847376
 33
0.0
 14
413.0518743867797
 24
797.271234847376
 34
0.0
 50
90.0
100
AcDbRotatedDimension
1001
ACAD
1000
DSTYLE
1002
{
1070
    40
1040
1.0
1002
}
  0
DIMENSION
  5
1E26B
330
1E256
100
AcDbEntity
  8
寸法
 48
50.0
100
AcDbDimension
  2
*D6
 10
413.0518743867797
 20
927.271234847376
 30
0.0
 11
413.0518743867797
 21
591.7402860047841
 31
0.0
 12
-2587.005859599398
 22
-5696.728765152624
 32
0.0
 70
   128
 71
     5
 42
-1.0
  3
INABA_S50G
100
AcDbAlignedDimension
 13
981.9941404006085
 23
1125.271234847378
 33
0.0
 14
908.9941404006022
 24
927.271234847376
 34
0.0
 50
90.0
100
AcDbRotatedDimension
1001
ACAD
1000
DSTYLE
1002
{
1070
    40
1040
1.0
1002
}
  0
LINE
  5
1E26C
330
1E256
100
AcDbEntity
  8
部品1
 48
50.0
100
AcDbLine
 10
1008.994140400602
 20
1427.27123484738
 30
0.0
 11
908.9941404006022
 21
1427.27123484738
 31
0.0
  0
LINE
  5
1E26D
330
1E256
100
AcDbEntity
  8
点線
 48
10.0
100
AcDbLine
 10
1208.994140400603
 20
1027.27123484738
 30
0.0
 11
1208.994140400603
 21
1227.271234847383
 31
0.0
  0
LINE
  5
1E26E
330
1E256
100
AcDbEntity
  8
センター
 48
2.0
100
AcDbLine
 10
981.9941404006085
 20
1125.271234847378
 30
0.0
 11
1081.994140400608
 21
1125.271234847378
 31
0.0
  0
LINE
  5
1E26F
330
1E256
100
AcDbEntity
  8
センター
 48
2.0
100
AcDbLine
 10
1031.994140400608
 20
1175.271234847378
 30
0.0
 11
1031.994140400608
 21
1075.271234847378
 31
0.0
  0
LINE
  5
1E270
330
1E256
100
AcDbEntity
  8
部品1
 48
50.0
100
AcDbLine
 10
1308.994140400602
 20
927.271234847376
 30
0.0
 11
1308.994140400602
 21
1027.271234847383
 31
0.0
  0
LINE
  5
1E271
330
1E256
100
AcDbEntity
  8
点線
 48
10.0
100
AcDbLine
 10
1208.994140400603
 20
1227.271234847383
 30
0.0
 11
1008.9941404006
 21
1227.271234847379
 31
0.0
  0
LINE
  5
1E272
330
1E256
100
AcDbEntity
  8
部品1
 48
50.0
100
AcDbLine
 10
1308.994140400602
 20
2627.271234847374
 30
0.0
 11
1308.994140400602
 21
2727.271234847382
 31
0.0
  0
DIMENSION
  5
1E273
330
1E256
100
AcDbEntity
  8
寸法
 48
50.0
100
AcDbDimension
  2
*D10
 10
413.0518743867797
 20
2604.271234847376
 30
0.0
 11
413.0518743867797
 21
3000.377836565175
 31
0.0
 12
-2587.005859599398
 22
-5276.728765152624
 32
0.0
 70
   128
 71
     5
 42
-1.0
  3
INABA_S50G
100
AcDbAlignedDimension
 13
908.9941404006022
 23
2727.271234847376
 33
0.0
 14
981.9941404006021
 24
2604.271234847376
 34
0.0
 50
90.0
100
AcDbRotatedDimension
1001
ACAD
1000
DSTYLE
1002
{
1070
    40
1040
1.0
1002
}
  0
DIMENSION
  5
1E274
330
1E256
100
AcDbEntity
  8
寸法
 48
50.0
100
AcDbDimension
  2
*D13
 10
167.5590722488123
 20
2727.271234847376
 30
0.0
 11
67.5590722488123
 21
2772.271234847374
 31
0.0
 12
-2587.005859599398
 22
-5276.728765152624
 32
0.0
  1
c
 71
     5
 42
-1.0
  3
INABA_S50G
100
AcDbAlignedDimension
 13
413.0518743867797
 23
2817.271234847373
 33
0.0
 14
908.9941404006022
 24
2727.271234847376
 34
0.0
 50
90.0
100
AcDbRotatedDimension
1001
ACAD
1000
DSTYLE
1002
{
1070
    40
1040
1.0
1002
}
  0
DIMENSION
  5
1E275
330
1E256
100
AcDbEntity
  8
寸法
 48
50.0
100
AcDbDimension
  2
*D8
 10
908.9941404006022
 20
3453.478159147693
 30
0.0
 11
628.6277673437908
 21
3453.478159147693
 31
0.0
 12
-2587.005859599398
 22
-5276.728765152624
 32
0.0
 70
   128
 71
     5
 42
-1.0
  3
INABA_S50G
100
AcDbAlignedDimension
 13
1031.994140400602
 23
2654.271234847376
 33
0.0
 14
908.9941404006022
 24
2727.271234847376
 34
0.0
100
AcDbRotatedDimension
1001
ACAD
1000
DSTYLE
1002
{
1070
    40
1040
1.0
1002
}
  0
LINE
  5
1E276
330
1E256
100
AcDbEntity
  8
部品1
 48
50.0
100
AcDbLine
 10
1008.994140400602
 20
1827.271234847379
 30
0.0
 11
908.9941404006022
 21
1827.271234847379
 31
0.0
  0
LINE
  5
1E277
330
1E256
100
AcDbEntity
  8
部品1
 48
50.0
100
AcDbLine
 10
1008.994140400602
 20
2227.271234847375
 30
0.0
 11
908.9941404006022
 21
2227.271234847374
 31
0.0
  0
LINE
  5
1E278
330
1E256
100
AcDbEntity
  8
点線
 48
10.0
100
AcDbLine
 10
1208.994140400601
 20
2427.271234847373
 30
0.0
 11
1008.994140400602
 21
2427.271234847375
 31
0.0
  0
LINE
  5
1E279
330
1E256
100
AcDbEntity
  8
センター
 48
2.0
100
AcDbLine
 10
1031.994140400602
 20
2654.271234847376
 30
0.0
 11
1031.994140400602
 21
2554.271234847376
 31
0.0
  0
LINE
  5
1E27A
330
1E256
100
AcDbEntity
  8
センター
 48
2.0
100
AcDbLine
 10
981.9941404006021
 20
2604.271234847376
 30
0.0
 11
1081.994140400602
 21
2604.271234847376
 31
0.0
  0
LINE
  5
1E27B
330
1E256
100
AcDbEntity
  8
点線
 48
10.0
100
AcDbLine
 10
1208.994140400601
 20
2427.271234847373
 30
0.0
 11
1208.994140400602
 21
2627.271234847373
 31
0.0
  0
DIMENSION
  5
1E27C
330
1E256
100
AcDbEntity
  8
寸法
 48
50.0
100
AcDbDimension
  2
*D7
 10
908.9941404006022
 20
3665.938854664532
 30
0.0
 11
669.0160925585151
 21
3665.938854664532
 31
0.0
 12
-2587.005859599398
 22
-5276.728765152624
 32
0.0
 70
   128
  1
a
 71
     5
 42
-1.0
  3
INABA_S50G
100
AcDbAlignedDimension
 13
851.734369061589
 23
3453.478159147689
 33
0.0
 14
908.9941404006022
 24
2727.271234847376
 34
0.0
100
AcDbRotatedDimension
1001
ACAD
1000
DSTYLE
1002
{
1070
    40
1040
1.0
1002
}
  0
LINE
  5
1E27D
330
1E256
100
AcDbEntity
  8
部品1
 48
50.0
100
AcDbLine
 10
1312.994140400602
 20
2727.271234847373
 30
0.0
 11
908.9941404006022
 21
2727.271234847376
 31
0.0
  0
LINE
  5
1E27E
330
1E256
100
AcDbEntity
  8
部品1
 48
50.0
100
AcDbLine
 10
2608.994140400602
 20
1027.271234847396
 30
0.0
 11
2608.994140400601
 21
2627.271234847373
 31
0.0
  0
LINE
  5
1E27F
330
1E256
100
AcDbEntity
  8
想像線
 48
10.0
100
AcDbLine
 10
2758.994140400603
 20
2817.27123484738
 30
0.0
 11
2758.994140400606
 21
797.271234847376
 31
0.0
  0
LINE
  5
1E280
330
1E256
100
AcDbEntity
  8
部品1
 48
50.0
100
AcDbLine
 10
2708.994140400602
 20
927.2712348473943
 30
0.0
 11
2708.994140400602
 21
2727.271234847376
 31
0.0
  0
DIMENSION
  5
1E281
330
1E256
100
AcDbEntity
  8
寸法
 48
50.0
100
AcDbDimension
  2
*D18
 10
2208.260957831161
 20
1827.271234847376
 30
0.0
 11
2208.260957831161
 21
1377.271234847381
 31
0.0
 12
-2587.005859599398
 22
-1276.728765152624
 32
0.0
 70
   128
 71
     5
 42
-1.0
  3
INABA_S50G
100
AcDbAlignedDimension
 13
1808.994140400602
 23
927.271234847385
 33
0.0
 14
1858.994140400602
 24
1827.271234847376
 34
0.0
 50
90.0
100
AcDbRotatedDimension
1001
ACAD
1000
DSTYLE
1002
{
1070
   288
1070
     1
1070
    40
1040
1.0
1002
}
  0
DIMENSION
  5
1E282
330
1E256
100
AcDbEntity
  8
寸法
 48
50.0
100
AcDbDimension
  2
*D22
 10
2708.994140400602
 20
1306.97155591226
 30
0.0
 11
2979.053195518713
 21
1306.97155591226
 31
0.0
 12
-2587.005859599398
 22
-5696.728765152624
 32
0.0
 70
   128
 71
     5
 42
-1.0
  3
INABA_S50G
100
AcDbAlignedDimension
 13
2608.994140400602
 23
1407.271234847383
 33
0.0
 14
2708.994140400602
 24
1407.271234847383
 34
0.0
100
AcDbRotatedDimension
1001
ACAD
1000
DSTYLE
1002
{
1070
    40
1040
1.0
1002
}
  0
TEXT
  5
1E283
330
1E256
100
AcDbEntity
  8
寸法
 48
50.0
100
AcDbText
 10
1431.428391756737
 20
210.9080740941899
 30
0.0
 40
150.0
  1
MBW-32
  7
STYLE2
100
AcDbText
  0
TEXT
  5
1E284
330
1E256
100
AcDbEntity
  8
寸法
 48
50.0
100
AcDbText
 10
1431.428391756737
 20
40.90807409418994
 30
0.0
 40
150.0
  1
MBW-32H
  7
STYLE2
100
AcDbText
  0
TEXT
  5
1E285
330
1E256
100
AcDbEntity
  8
寸法
 48
50.0
100
AcDbText
 10
1679.121083237383
 20
648.2218646227884
 30
0.0
 40
120.0
  1
扉面
  7
STYLE1
100
AcDbText
  0
LINE
  5
1E286
330
1E256
100
AcDbEntity
  8
部品1
 48
50.0
100
AcDbLine
 10
1908.994140400602
 20
1127.27123484739
 30
0.0
 11
1708.994140400602
 21
1127.271234847389
 31
0.0
  0
LINE
  5
1E287
330
1E256
100
AcDbEntity
  8
部品1
 48
50.0
100
AcDbLine
 10
1708.994140400602
 20
1127.271234847389
 30
0.0
 11
1708.994140400602
 21
1027.271234847389
 31
0.0
  0
LINE
  5
1E288
330
1E256
100
AcDbEntity
  8
部品1
 48
50.0
100
AcDbLine
 10
1708.994140400602
 20
927.2712348473797
 30
0.0
 11
1708.994140400602
 21
1027.271234847387
 31
0.0
  0
LINE
  5
1E289
330
1E256
100
AcDbEntity
  8
部品1
 48
50.0
100
AcDbLine
 10
1908.994140400602
 20
1127.271234847389
 30
0.0
 11
1908.994140400602
 21
1027.271234847389
 31
0.0
  0
LINE
  5
1E28A
330
1E256
100
AcDbEntity
  8
部品1
 48
50.0
100
AcDbLine
 10
2108.994140400602
 20
927.271234847376
 30
0.0
 11
2108.994140400602
 21
1027.271234847383
 31
0.0
  0
LINE
  5
1E28B
330
1E256
100
AcDbEntity
  8
センター
 48
2.0
100
AcDbLine
 10
2535.994140400609
 20
1125.271234847378
 30
0.0
 11
2635.994140400609
 21
1125.271234847378
 31
0.0
  0
LINE
  5
1E28C
330
1E256
100
AcDbEntity
  8
点線
 48
10.0
100
AcDbLine
 10
2608.9941404006
 20
1227.271234847396
 30
0.0
 11
2408.994140400601
 21
1227.271234847394
 31
0.0
  0
LINE
  5
1E28D
330
1E256
100
AcDbEntity
  8
点線
 48
10.0
100
AcDbLine
 10
2408.994140400603
 20
1027.271234847396
 30
0.0
 11
2408.994140400601
 21
1227.271234847394
 31
0.0
  0
LINE
  5
1E28E
330
1E256
100
AcDbEntity
  8
部品1
 48
50.0
100
AcDbLine
 10
2308.994140400602
 20
927.2712348473943
 30
0.0
 11
2308.994140400602
 21
1027.27123484739
 31
0.0
  0
LINE
  5
1E28F
330
1E256
100
AcDbEntity
  8
センター
 48
2.0
100
AcDbLine
 10
2585.994140400609
 20
1175.271234847378
 30
0.0
 11
2585.994140400609
 21
1075.271234847378
 31
0.0
  0
LINE
  5
1E290
330
1E256
100
AcDbEntity
  8
部品1
 48
50.0
100
AcDbLine
 10
2708.994140400603
 20
1427.271234847398
 30
0.0
 11
2608.994140400601
 21
1427.271234847396
 31
0.0
  0
DIMENSION
  5
1E291
330
1E256
100
AcDbEntity
  8
寸法
 48
50.0
100
AcDbDimension
  2
*D15
 10
2585.994140400603
 20
3453.478159147693
 30
0.0
 11
2982.100742118401
 21
3453.478159147693
 31
0.0
 12
-2587.005859599398
 22
-5276.728765152624
 32
0.0
 70
   128
 71
     5
 42
-1.0
  3
INABA_S50G
100
AcDbAlignedDimension
 13
2708.994140400602
 23
2727.271234847376
 33
0.0
 14
2585.994140400603
 24
2654.271234847376
 34
0.0
100
AcDbRotatedDimension
1001
ACAD
1000
DSTYLE
1002
{
1070
    40
1040
1.0
1002
}
  0
DIMENSION
  5
1E292
330
1E256
100
AcDbEntity
  8
寸法
 48
50.0
100
AcDbDimension
  2
*D14
 10
2751.734369061589
 20
3665.938854664532
 30
0.0
 11
3059.452645564663
 21
3665.938854664532
 31
0.0
 12
-2587.005859599398
 22
-5276.728765152624
 32
0.0
 70
   128
  1
a
 71
     5
 42
-1.0
  3
INABA_S50G
100
AcDbAlignedDimension
 13
2708.994140400602
 23
2727.271234847376
 33
0.0
 14
2751.734369061589
 24
3453.478159147695
 34
0.0
100
AcDbRotatedDimension
1001
ACAD
1000
DSTYLE
1002
{
1070
    40
1040
1.0
1002
}
  0
LINE
  5
1E293
330
1E256
100
AcDbEntity
  8
部品1
 48
50.0
100
AcDbLine
 10
2308.994140400602
 20
2627.271234847392
 30
0.0
 11
2308.994140400602
 21
2727.271234847389
 31
0.0
  0
LINE
  5
1E294
330
1E256
100
AcDbEntity
  8
部品1
 48
50.0
100
AcDbLine
 10
2108.994140400602
 20
2627.271234847374
 30
0.0
 11
2108.994140400602
 21
2727.271234847382
 31
0.0
  0
LINE
  5
1E295
330
1E256
100
AcDbEntity
  8
部品1
 48
50.0
100
AcDbLine
 10
1708.994140400602
 20
2627.271234847378
 30
0.0
 11
1708.994140400602
 21
2727.271234847385
 31
0.0
  0
DIMENSION
  5
1E296
330
1E256
100
AcDbEntity
  8
寸法
 48
50.0
100
AcDbDimension
  2
*D16
 10
2366.841588969379
 20
2627.271234847374
 30
0.0
 11
2366.841588969379
 21
2997.330289965487
 31
0.0
 12
-2587.005859599398
 22
-5276.728765152624
 32
0.0
 70
   128
 71
     5
 42
-1.0
  3
INABA_S50G
100
AcDbAlignedDimension
 13
2153.912786690133
 23
2727.271234847376
 33
0.0
 14
2153.912786690133
 24
2627.271234847374
 34
0.0
 50
90.0
100
AcDbRotatedDimension
1001
ACAD
1000
DSTYLE
1002
{
1070
    40
1040
1.0
1002
}
  0
DIMENSION
  5
1E297
330
1E256
100
AcDbEntity
  8
寸法
 48
50.0
100
AcDbDimension
  2
*D19
 10
2208.260957831161
 20
2727.271234847376
 30
0.0
 11
2108.260957831161
 21
2277.271234847376
 31
0.0
 12
-2587.005859599398
 22
-1276.728765152624
 32
0.0
 71
     5
 42
-1.0
  3
INABA_S50G
100
AcDbAlignedDimension
 13
1858.994140400602
 23
1827.271234847376
 33
0.0
 14
1808.994140400602
 24
2727.271234847376
 34
0.0
 50
90.0
100
AcDbRotatedDimension
1001
ACAD
1000
DSTYLE
1002
{
1070
    40
1040
1.0
1070
    75
1070
     1
1070
   279
1070
     1
1070
   288
1070
     1
1002
}
  0
DIMENSION
  5
1E298
330
1E256
100
AcDbEntity
  8
寸法
 48
50.0
100
AcDbDimension
  2
*D21
 10
1808.994140400602
 20
3254.181000495704
 30
0.0
 11
2279.912662406881
 21
3254.181000495704
 31
0.0
 12
-2587.005859599398
 22
-1276.728765152624
 32
0.0
 70
   128
 71
     5
 42
-1.0
  3
INABA_S50G
100
AcDbAlignedDimension
 13
2708.994140400602
 23
2727.271234847376
 33
0.0
 14
1808.994140400602
 24
2027.271234847376
 34
0.0
100
AcDbRotatedDimension
1001
ACAD
1000
DSTYLE
1002
{
1070
   288
1070
     1
1070
    40
1040
1.0
1002
}
  0
LINE
  5
1E299
330
1E256
100
AcDbEntity
  8
部品1
 48
50.0
100
AcDbLine
 10
1908.994140400602
 20
2027.271234847376
 30
0.0
 11
1708.994140400602
 21
2027.271234847376
 31
0.0
  0
LINE
  5
1E29A
330
1E256
100
AcDbEntity
  8
部品1
 48
50.0
100
AcDbLine
 10
1908.994140400602
 20
1627.271234847374
 30
0.0
 11
1708.994140400602
 21
1627.271234847374
 31
0.0
  0
LINE
  5
1E29B
330
1E256
100
AcDbEntity
  8
センター
 48
2.0
100
AcDbLine
 10
1758.994140400602
 20
1827.271234847376
 30
0.0
 11
1858.994140400602
 21
1827.271234847376
 31
0.0
  0
LINE
  5
1E29C
330
1E256
100
AcDbEntity
  8
部品1
 48
50.0
100
AcDbLine
 10
1708.994140400602
 20
1627.271234847376
 30
0.0
 11
1708.994140400602
 21
2027.271234847376
 31
0.0
  0
LINE
  5
1E29D
330
1E256
100
AcDbEntity
  8
部品1
 48
50.0
100
AcDbLine
 10
1908.994140400602
 20
1627.271234847374
 30
0.0
 11
1908.994140400602
 21
2027.271234847376
 31
0.0
  0
LINE
  5
1E29E
330
1E256
100
AcDbEntity
  8
センター
 48
2.0
100
AcDbLine
 10
1808.994140400602
 20
1877.271234847376
 30
0.0
 11
1808.994140400602
 21
1777.271234847376
 31
0.0
  0
LINE
  5
1E29F
330
1E256
100
AcDbEntity
  8
部品1
 48
50.0
100
AcDbLine
 10
2708.994140400603
 20
1827.271234847398
 30
0.0
 11
2608.994140400601
 21
1827.271234847396
 31
0.0
  0
LINE
  5
1E2A0
330
1E256
100
AcDbEntity
  8
点線
 48
10.0
100
AcDbLine
 10
2608.994140400601
 20
2427.271234847375
 30
0.0
 11
2408.994140400603
 21
2427.271234847375
 31
0.0
  0
LINE
  5
1E2A1
330
1E256
100
AcDbEntity
  8
センター
 48
2.0
100
AcDbLine
 10
2535.994140400602
 20
2604.271234847376
 30
0.0
 11
2635.994140400602
 21
2604.271234847376
 31
0.0
  0
LINE
  5
1E2A2
330
1E256
100
AcDbEntity
  8
点線
 48
10.0
100
AcDbLine
 10
2408.994140400603
 20
2427.271234847375
 30
0.0
 11
2408.994140400601
 21
2627.271234847373
 31
0.0
  0
LINE
  5
1E2A3
330
1E256
100
AcDbEntity
  8
部品1
 48
50.0
100
AcDbLine
 10
2708.994140400603
 20
2227.271234847374
 30
0.0
 11
2608.994140400602
 21
2227.271234847374
 31
0.0
  0
LINE
  5
1E2A4
330
1E256
100
AcDbEntity
  8
センター
 48
2.0
100
AcDbLine
 10
2585.994140400603
 20
2654.271234847376
 30
0.0
 11
2585.994140400603
 21
2554.271234847376
 31
0.0
  0
ENDBLK
  5
1E2A6
330
1E256
100
AcDbEntity
  8
0
 48
50.0
100
AcDbBlockEnd
  0
BLOCK
  5
20441
330
20438
100
AcDbEntity
  8
0
 48
50.0
100
AcDbBlockBegin
  2
*D24
 70
     1
 10
0.0
 20
0.0
 30
0.0
  3
*D24
  1

  0
LINE
  5
214EE
330
20438
100
AcDbEntity
  8
寸法
 62
     0
 48
50.0
370
    -2
100
AcDbLine
 10
5992.6
 20
7872.140975822262
 30
0.0
 11
5311.88811655075
 21
7872.140975822262
 31
0.0
  0
LINE
  5
214EF
330
20438
100
AcDbEntity
  8
寸法
 62
     0
 48
50.0
370
    -2
100
AcDbLine
 10
5992.6
 20
6080.140975822262
 30
0.0
 11
5311.88811655075
 21
6080.140975822262
 31
0.0
  0
LINE
  5
214F0
330
20438
100
AcDbEntity
  8
寸法
 62
     0
 48
50.0
370
    -2
100
AcDbLine
 10
5371.888116550751
 20
7872.140975822262
 30
0.0
 11
5371.88811655075
 21
6080.140975822262
 31
0.0
  0
INSERT
  5
214F1
330
20438
100
AcDbEntity
  8
寸法
 62
     0
 48
50.0
370
    -2
100
AcDbBlockReference
  2
_DOTSMALL
 10
5371.888116550751
 20
7872.140975822262
 30
0.0
 41
100.0
 42
100.0
 43
100.0
 50
90.0
  0
INSERT
  5
214F2
330
20438
100
AcDbEntity
  8
寸法
 62
     0
 48
50.0
370
    -2
100
AcDbBlockReference
  2
_DOTSMALL
 10
5371.88811655075
 20
6080.140975822262
 30
0.0
 41
100.0
 42
100.0
 43
100.0
 50
270.0
  0
MTEXT
  5
214F3
330
20438
100
AcDbEntity
  8
寸法
 62
     7
 48
50.0
100
AcDbMText
 10
5271.847303985945
 20
6976.140975822263
 30
0.0
 40
120.0
 41
0.0
 71
     5
 72
     1
  1
\A1;1792
  7
STYLE1
 11
0.0000000000000001
 21
1.0
 31
0.0
 73
     1
 44
1.0
1001
ACAD
1000
MTEXTBEGIN
1070
    73
1070
     1
1070
    44
1040
1.0
1070
    74
1070
     0
1000
MTEXTEND
  0
POINT
  5
214F4
330
20438
100
AcDbEntity
  8
DEFPOINTS
 62
     0
 48
50.0
100
AcDbPoint
 10
6012.6
 20
7872.140975822262
 30
0.0
  0
POINT
  5
214F5
330
20438
100
AcDbEntity
  8
DEFPOINTS
 62
     0
 48
50.0
100
AcDbPoint
 10
6012.6
 20
6080.140975822262
 30
0.0
  0
POINT
  5
214F6
330
20438
100
AcDbEntity
  8
DEFPOINTS
 62
     0
 48
50.0
100
AcDbPoint
 10
5371.88811655075
 20
6080.140975822262
 30
0.0
  0
ENDBLK
  5
20442
330
20438
100
AcDbEntity
  8
0
 48
50.0
100
AcDbBlockEnd
  0
BLOCK
  5
2044E
330
20443
100
AcDbEntity
  8
0
 48
50.0
100
AcDbBlockBegin
  2
*D25
 70
     1
 10
0.0
 20
0.0
 30
0.0
  3
*D25
  1

  0
LINE
  5
214E4
330
20443
100
AcDbEntity
  8
寸法
 62
     0
 48
50.0
370
    -2
100
AcDbLine
 10
10534.6
 20
5960.140975822258
 30
0.0
 11
10534.6
 21
5591.942294736611
 31
0.0
  0
LINE
  5
214E5
330
20443
100
AcDbEntity
  8
寸法
 62
     0
 48
50.0
370
    -2
100
AcDbLine
 10
10334.6
 20
5960.140975822258
 30
0.0
 11
10334.6
 21
5591.942294736611
 31
0.0
  0
LINE
  5
214E6
330
20443
100
AcDbEntity
  8
寸法
 62
     0
 48
50.0
370
    -2
100
AcDbLine
 10
10334.6
 20
5651.942294736611
 30
0.0
 11
10534.6
 21
5651.942294736611
 31
0.0
  0
LINE
  5
214E7
330
20443
100
AcDbEntity
  8
寸法
 62
     0
 48
50.0
370
    -2
100
AcDbLine
 10
10534.6
 20
5651.942294736611
 30
0.0
 11
10933.74173228346
 21
5651.942294736611
 31
0.0
  0
INSERT
  5
214E8
330
20443
100
AcDbEntity
  8
寸法
 62
     0
 48
50.0
370
    -2
100
AcDbBlockReference
  2
_DOTSMALL
 10
10334.6
 20
5651.942294736611
 30
0.0
 41
100.0
 42
100.0
 43
100.0
 50
180.0
  0
INSERT
  5
214E9
330
20443
100
AcDbEntity
  8
寸法
 62
     0
 48
50.0
370
    -2
100
AcDbBlockReference
  2
_DOTSMALL
 10
10534.6
 20
5651.942294736611
 30
0.0
 41
100.0
 42
100.0
 43
100.0
  0
MTEXT
  5
214EA
330
20443
100
AcDbEntity
  8
寸法
 62
     7
 48
50.0
100
AcDbMText
 10
10784.17086614173
 20
5751.954105760233
 30
0.0
 40
120.0
 41
0.0
 71
     5
 72
     1
  1
\A1;200
  7
STYLE1
 73
     1
 44
1.0
1001
ACAD
1000
MTEXTBEGIN
1070
    73
1070
     1
1070
    44
1040
1.0
1070
    74
1070
     0
1000
MTEXTEND
  0
POINT
  5
214EB
330
20443
100
AcDbEntity
  8
DEFPOINTS
 62
     0
 48
50.0
100
AcDbPoint
 10
10534.6
 20
5980.140975822259
 30
0.0
  0
POINT
  5
214EC
330
20443
100
AcDbEntity
  8
DEFPOINTS
 62
     0
 48
50.0
100
AcDbPoint
 10
10334.6
 20
5980.140975822259
 30
0.0
  0
POINT
  5
214ED
330
20443
100
AcDbEntity
  8
DEFPOINTS
 62
     0
 48
50.0
100
AcDbPoint
 10
10334.6
 20
5651.942294736611
 30
0.0
  0
ENDBLK
  5
2044F
330
20443
100
AcDbEntity
  8
0
 48
50.0
100
AcDbBlockEnd
  0
BLOCK
  5
20467
330
2045D
100
AcDbEntity
  8
0
 48
50.0
100
AcDbBlockBegin
  2
*D26
 70
     1
 10
0.0
 20
0.0
 30
0.0
  3
*D26
  1

  0
LINE
  5
214DA
330
2045D
100
AcDbEntity
  8
寸法
 62
     0
 48
50.0
370
    -2
100
AcDbLine
 10
10554.6
 20
6180.140975822258
 30
0.0
 11
10894.23045670601
 21
6180.140975822258
 31
0.0
  0
LINE
  5
214DB
330
2045D
100
AcDbEntity
  8
寸法
 62
     0
 48
50.0
370
    -2
100
AcDbLine
 10
10554.6
 20
5980.140975822259
 30
0.0
 11
10894.23045670601
 21
5980.140975822259
 31
0.0
  0
LINE
  5
214DC
330
2045D
100
AcDbEntity
  8
寸法
 62
     0
 48
50.0
370
    -2
100
AcDbLine
 10
10834.23045670601
 20
5980.140975822259
 30
0.0
 11
10834.23045670601
 21
6180.140975822258
 31
0.0
  0
LINE
  5
214DD
330
2045D
100
AcDbEntity
  8
寸法
 62
     0
 48
50.0
370
    -2
100
AcDbLine
 10
10834.23045670601
 20
6180.140975822258
 30
0.0
 11
10834.23045670601
 21
6579.282708105722
 31
0.0
  0
INSERT
  5
214DE
330
2045D
100
AcDbEntity
  8
寸法
 62
     0
 48
50.0
370
    -2
100
AcDbBlockReference
  2
_DOTSMALL
 10
10834.23045670601
 20
5980.140975822259
 30
0.0
 41
100.0
 42
100.0
 43
100.0
 50
270.0
  0
INSERT
  5
214DF
330
2045D
100
AcDbEntity
  8
寸法
 62
     0
 48
50.0
370
    -2
100
AcDbBlockReference
  2
_DOTSMALL
 10
10834.23045670601
 20
6180.140975822258
 30
0.0
 41
100.0
 42
100.0
 43
100.0
 50
90.0
  0
MTEXT
  5
214E0
330
2045D
100
AcDbEntity
  8
寸法
 62
     7
 48
50.0
100
AcDbMText
 10
10734.21864568239
 20
6429.711841963992
 30
0.0
 40
120.0
 41
0.0
 71
     5
 72
     1
  1
\A1;200
  7
STYLE1
 11
0.0000000000000001
 21
1.0
 31
0.0
 73
     1
 44
1.0
1001
ACAD
1000
MTEXTBEGIN
1070
    73
1070
     1
1070
    44
1040
1.0
1070
    74
1070
     0
1000
MTEXTEND
  0
POINT
  5
214E1
330
2045D
100
AcDbEntity
  8
DEFPOINTS
 62
     0
 48
50.0
100
AcDbPoint
 10
10534.6
 20
6180.140975822258
 30
0.0
  0
POINT
  5
214E2
330
2045D
100
AcDbEntity
  8
DEFPOINTS
 62
     0
 48
50.0
100
AcDbPoint
 10
10534.6
 20
5980.140975822259
 30
0.0
  0
POINT
  5
214E3
330
2045D
100
AcDbEntity
  8
DEFPOINTS
 62
     0
 48
50.0
100
AcDbPoint
 10
10834.23045670601
 20
5980.140975822259
 30
0.0
  0
ENDBLK
  5
20468
330
2045D
100
AcDbEntity
  8
0
 48
50.0
100
AcDbBlockEnd
  0
BLOCK
  5
2047E
330
20475
100
AcDbEntity
  8
0
 48
50.0
100
AcDbBlockBegin
  2
*D27
 70
     1
 10
0.0
 20
0.0
 30
0.0
  3
*D27
  1

  0
LINE
  5
214C8
330
20475
100
AcDbEntity
  8
寸法
 62
     0
 48
50.0
370
    -2
100
AcDbLine
 10
6012.6
 20
7892.140975822262
 30
0.0
 11
6012.6
 21
8524.553563493883
 31
0.0
  0
LINE
  5
214C9
330
20475
100
AcDbEntity
  8
寸法
 62
     0
 48
50.0
370
    -2
100
AcDbLine
 10
10434.6
 20
7892.140975822262
 30
0.0
 11
10434.6
 21
8524.553563493883
 31
0.0
  0
LINE
  5
214CA
330
20475
100
AcDbEntity
  8
寸法
 62
     0
 48
50.0
370
    -2
100
AcDbLine
 10
6012.6
 20
8464.553563493883
 30
0.0
 11
10434.6
 21
8464.553563493883
 31
0.0
  0
INSERT
  5
214CB
330
20475
100
AcDbEntity
  8
寸法
 62
     0
 48
50.0
370
    -2
100
AcDbBlockReference
  2
_DOTSMALL
 10
6012.6
 20
8464.553563493883
 30
0.0
 41
100.0
 42
100.0
 43
100.0
 50
180.0
  0
INSERT
  5
214CC
330
20475
100
AcDbEntity
  8
寸法
 62
     0
 48
50.0
370
    -2
100
AcDbBlockReference
  2
_DOTSMALL
 10
10434.6
 20
8464.553563493883
 30
0.0
 41
100.0
 42
100.0
 43
100.0
  0
MTEXT
  5
214CD
330
20475
100
AcDbEntity
  8
寸法
 62
     7
 48
50.0
100
AcDbMText
 10
8223.600000000001
 20
8564.565374517504
 30
0.0
 40
120.0
 41
0.0
 71
     5
 72
     1
  1
\A1;4422
  7
STYLE1
 73
     1
 44
1.0
1001
ACAD
1000
MTEXTBEGIN
1070
    73
1070
     1
1070
    44
1040
1.0
1070
    74
1070
     0
1000
MTEXTEND
  0
POINT
  5
214CE
330
20475
100
AcDbEntity
  8
DEFPOINTS
 62
     0
 48
50.0
100
AcDbPoint
 10
6012.6
 20
7872.140975822262
 30
0.0
  0
POINT
  5
214CF
330
20475
100
AcDbEntity
  8
DEFPOINTS
 62
     0
 48
50.0
100
AcDbPoint
 10
10434.6
 20
7872.140975822262
 30
0.0
  0
POINT
  5
214D0
330
20475
100
AcDbEntity
  8
DEFPOINTS
 62
     0
 48
50.0
100
AcDbPoint
 10
10434.6
 20
8464.553563493883
 30
0.0
  0
ENDBLK
  5
2047F
330
20475
100
AcDbEntity
  8
0
 48
50.0
100
AcDbBlockEnd
  0
BLOCK
  5
20BE5
330
20BD9
100
AcDbEntity
  8
0
 48
50.0
100
AcDbBlockBegin
  2
*D28
 70
     1
 10
0.0
 20
0.0
 30
0.0
  3
*D28
  1

  0
LINE
  5
21E8F
330
20BD9
100
AcDbEntity
  8
寸法
 62
     0
 48
50.0
370
    -2
100
AcDbLine
 10
8194.600000000001
 20
6005.140975822263
 30
0.0
 11
8701.775670520978
 21
6005.140975822263
 31
0.0
  0
LINE
  5
21E90
330
20BD9
100
AcDbEntity
  8
寸法
 62
     0
 48
50.0
370
    -2
100
AcDbLine
 10
8194.600000000004
 20
6080.140975822265
 30
0.0
 11
8701.775670520978
 21
6080.140975822265
 31
0.0
  0
LINE
  5
21E91
330
20BD9
100
AcDbEntity
  8
寸法
 62
     0
 48
50.0
370
    -2
100
AcDbLine
 10
8641.775670520978
 20
6080.140975822265
 30
0.0
 11
8641.775670520978
 21
6180.140975822265
 31
0.0
  0
LINE
  5
21E92
330
20BD9
100
AcDbEntity
  8
寸法
 62
     0
 48
50.0
370
    -2
100
AcDbLine
 10
8641.775670520978
 20
6005.140975822263
 30
0.0
 11
8641.775670520978
 21
5138.170413073787
 31
0.0
  0
LINE
  5
21E93
330
20BD9
100
AcDbEntity
  8
寸法
 62
     0
 48
50.0
370
    -2
100
AcDbLine
 10
8641.775670520978
 20
6080.140975822265
 30
0.0
 11
8641.775670520978
 21
6005.140975822263
 31
0.0
  0
INSERT
  5
21E94
330
20BD9
100
AcDbEntity
  8
寸法
 62
     0
 48
50.0
370
    -2
100
AcDbBlockReference
  2
_DOTSMALL
 10
8641.775670520978
 20
6080.140975822265
 30
0.0
 41
100.0
 42
100.0
 43
100.0
 50
270.0
  0
INSERT
  5
21E95
330
20BD9
100
AcDbEntity
  8
寸法
 62
     0
 48
50.0
370
    -2
100
AcDbBlockReference
  2
_DOTSMALL
 10
8641.775670520978
 20
6005.140975822263
 30
0.0
 41
100.0
 42
100.0
 43
100.0
 50
90.0
  0
MTEXT
  5
21E96
330
20BD9
100
AcDbEntity
  8
寸法
 62
     7
 48
50.0
100
AcDbMText
 10
8541.775670520975
 20
5471.655694448026
 30
0.0
 40
120.0
 41
0.0
 71
     5
 72
     1
  1
\A1;扉の出75
  7
STYLE1
 11
0.0000000000000001
 21
1.0
 31
0.0
 73
     1
 44
1.0
1001
ACAD
1000
MTEXTBEGIN
1070
    73
1070
     1
1070
    44
1040
1.0
1070
    74
1070
     0
1000
MTEXTEND
  0
POINT
  5
21E97
330
20BD9
100
AcDbEntity
  8
DEFPOINTS
 62
     0
 48
50.0
100
AcDbPoint
 10
8174.600000000001
 20
6005.140975822263
 30
0.0
  0
POINT
  5
21E98
330
20BD9
100
AcDbEntity
  8
DEFPOINTS
 62
     0
 48
50.0
100
AcDbPoint
 10
8174.600000000003
 20
6080.140975822265
 30
0.0
  0
POINT
  5
21E99
330
20BD9
100
AcDbEntity
  8
DEFPOINTS
 62
     0
 48
50.0
100
AcDbPoint
 10
8641.775670520978
 20
6080.140975822265
 30
0.0
  0
ENDBLK
  5
20BE6
330
20BD9
100
AcDbEntity
  8
0
 48
50.0
100
AcDbBlockEnd
  0
BLOCK
  5
20F6F
330
20F63
100
AcDbEntity
  8
0
 48
50.0
100
AcDbBlockBegin
  2
*D29
 70
     1
 10
0.0
 20
0.0
 30
0.0
  3
*D29
  1

  0
LINE
  5
21497
330
20F63
100
AcDbEntity
  8
寸法
 62
     0
 48
50.0
370
    -2
100
AcDbLine
 10
5992.6
 20
6080.140975822263
 30
0.0
 11
5311.88811655075
 21
6080.140975822263
 31
0.0
  0
LINE
  5
21498
330
20F63
100
AcDbEntity
  8
寸法
 62
     0
 48
50.0
370
    -2
100
AcDbLine
 10
5942.599999999999
 20
6020.140975822264
 30
0.0
 11
5311.88811655075
 21
6020.140975822264
 31
0.0
  0
LINE
  5
21499
330
20F63
100
AcDbEntity
  8
寸法
 62
     0
 48
50.0
370
    -2
100
AcDbLine
 10
5371.888116550751
 20
6080.140975822263
 30
0.0
 11
5371.888116550752
 21
6180.140975822262
 31
0.0
  0
LINE
  5
2149A
330
20F63
100
AcDbEntity
  8
寸法
 62
     0
 48
50.0
370
    -2
100
AcDbLine
 10
5371.888116550751
 20
6020.140975822264
 30
0.0
 11
5371.888116550751
 21
5920.140975822263
 31
0.0
  0
LINE
  5
2149B
330
20F63
100
AcDbEntity
  8
寸法
 62
     0
 48
50.0
370
    -2
100
AcDbLine
 10
5371.888116550751
 20
6080.140975822263
 30
0.0
 11
5371.888116550751
 21
6020.140975822264
 31
0.0
  0
INSERT
  5
2149C
330
20F63
100
AcDbEntity
  8
寸法
 62
     0
 48
50.0
370
    -2
100
AcDbBlockReference
  2
_DOTSMALL
 10
5371.888116550751
 20
6080.140975822263
 30
0.0
 41
100.0
 42
100.0
 43
100.0
 50
270.0
  0
INSERT
  5
2149D
330
20F63
100
AcDbEntity
  8
寸法
 62
     0
 48
50.0
370
    -2
100
AcDbBlockReference
  2
_DOTSMALL
 10
5371.888116550751
 20
6020.140975822264
 30
0.0
 41
100.0
 42
100.0
 43
100.0
 50
90.0
  0
MTEXT
  5
2149E
330
20F63
100
AcDbEntity
  8
寸法
 62
     7
 48
50.0
100
AcDbMText
 10
5271.88811655075
 20
6050.140975822263
 30
0.0
 40
120.0
 41
0.0
 71
     5
 72
     1
  1
\A1;b
  7
STYLE1
 11
0.0000000000000001
 21
1.0
 31
0.0
 73
     1
 44
1.0
1001
ACAD
1000
MTEXTBEGIN
1070
    73
1070
     1
1070
    44
1040
1.0
1070
    74
1070
     0
1000
MTEXTEND
  0
POINT
  5
2149F
330
20F63
100
AcDbEntity
  8
DEFPOINTS
 62
     0
 48
50.0
100
AcDbPoint
 10
6012.6
 20
6080.140975822263
 30
0.0
  0
POINT
  5
214A0
330
20F63
100
AcDbEntity
  8
DEFPOINTS
 62
     0
 48
50.0
100
AcDbPoint
 10
5962.6
 20
6020.140975822264
 30
0.0
  0
POINT
  5
214A1
330
20F63
100
AcDbEntity
  8
DEFPOINTS
 62
     0
 48
50.0
100
AcDbPoint
 10
5371.888116550751
 20
6020.140975822264
 30
0.0
  0
ENDBLK
  5
20F70
330
20F63
100
AcDbEntity
  8
0
 48
50.0
100
AcDbBlockEnd
  0
BLOCK
  5
20F9D
330
20F93
100
AcDbEntity
  8
0
 48
50.0
100
AcDbBlockBegin
  2
*D30
 70
     1
 10
0.0
 20
0.0
 30
0.0
  3
*D30
  1

  0
LINE
  5
2148E
330
20F93
100
AcDbEntity
  8
寸法
 62
     0
 48
50.0
370
    -2
100
AcDbLine
 10
5942.6
 20
7952.140975822263
 30
0.0
 11
5311.888116550751
 21
7952.140975822263
 31
0.0
  0
LINE
  5
2148F
330
20F93
100
AcDbEntity
  8
寸法
 62
     0
 48
50.0
370
    -2
100
AcDbLine
 10
5992.6
 20
7872.140975822262
 30
0.0
 11
5311.888116550751
 21
7872.140975822262
 31
0.0
  0
LINE
  5
21490
330
20F93
100
AcDbEntity
  8
寸法
 62
     0
 48
50.0
370
    -2
100
AcDbLine
 10
5371.888116550752
 20
7952.140975822263
 30
0.0
 11
5371.888116550752
 21
7872.140975822262
 31
0.0
  0
INSERT
  5
21491
330
20F93
100
AcDbEntity
  8
寸法
 62
     0
 48
50.0
370
    -2
100
AcDbBlockReference
  2
_DOTSMALL
 10
5371.888116550752
 20
7952.140975822263
 30
0.0
 41
100.0
 42
100.0
 43
100.0
 50
90.0
  0
INSERT
  5
21492
330
20F93
100
AcDbEntity
  8
寸法
 62
     0
 48
50.0
370
    -2
100
AcDbBlockReference
  2
_DOTSMALL
 10
5371.888116550752
 20
7872.140975822262
 30
0.0
 41
100.0
 42
100.0
 43
100.0
 50
270.0
  0
MTEXT
  5
21493
330
20F93
100
AcDbEntity
  8
寸法
 62
     7
 48
50.0
100
AcDbMText
 10
5271.888116550751
 20
7912.140975822264
 30
0.0
 40
120.0
 41
0.0
 71
     5
 72
     1
  1
\A1;c
  7
STYLE1
 11
0.0000000000000001
 21
1.0
 31
0.0
 73
     1
 44
1.0
1001
ACAD
1000
MTEXTBEGIN
1070
    73
1070
     1
1070
    44
1040
1.0
1070
    74
1070
     0
1000
MTEXTEND
  0
POINT
  5
21494
330
20F93
100
AcDbEntity
  8
DEFPOINTS
 62
     0
 48
50.0
100
AcDbPoint
 10
5962.600000000001
 20
7952.140975822263
 30
0.0
  0
POINT
  5
21495
330
20F93
100
AcDbEntity
  8
DEFPOINTS
 62
     0
 48
50.0
100
AcDbPoint
 10
6012.6
 20
7872.140975822262
 30
0.0
  0
POINT
  5
21496
330
20F93
100
AcDbEntity
  8
DEFPOINTS
 62
     0
 48
50.0
100
AcDbPoint
 10
5371.888116550752
 20
7872.140975822262
 30
0.0
  0
ENDBLK
  5
20F9E
330
20F93
100
AcDbEntity
  8
0
 48
50.0
100
AcDbBlockEnd
  0
BLOCK
  5
20FC7
330
20FBB
100
AcDbEntity
  8
0
 48
50.0
100
AcDbBlockBegin
  2
*D31
 70
     1
 10
0.0
 20
0.0
 30
0.0
  3
*D31
  1

  0
LINE
  5
21483
330
20FBB
100
AcDbEntity
  8
寸法
 62
     0
 48
50.0
370
    -2
100
AcDbLine
 10
5962.600000000001
 20
7972.140975822258
 30
0.0
 11
5962.600000000001
 21
8524.553563493883
 31
0.0
  0
LINE
  5
21484
330
20FBB
100
AcDbEntity
  8
寸法
 62
     0
 48
50.0
370
    -2
100
AcDbLine
 10
6012.600000000002
 20
7892.140975822261
 30
0.0
 11
6012.600000000002
 21
8524.553563493883
 31
0.0
  0
LINE
  5
21485
330
20FBB
100
AcDbEntity
  8
寸法
 62
     0
 48
50.0
370
    -2
100
AcDbLine
 10
5962.600000000001
 20
8464.553563493883
 30
0.0
 11
5862.600000000001
 21
8464.553563493883
 31
0.0
  0
LINE
  5
21486
330
20FBB
100
AcDbEntity
  8
寸法
 62
     0
 48
50.0
370
    -2
100
AcDbLine
 10
6012.600000000002
 20
8464.553563493883
 30
0.0
 11
6112.600000000003
 21
8464.553563493883
 31
0.0
  0
LINE
  5
21487
330
20FBB
100
AcDbEntity
  8
寸法
 62
     0
 48
50.0
370
    -2
100
AcDbLine
 10
5962.600000000001
 20
8464.553563493883
 30
0.0
 11
6012.600000000002
 21
8464.553563493883
 31
0.0
  0
INSERT
  5
21488
330
20FBB
100
AcDbEntity
  8
寸法
 62
     0
 48
50.0
370
    -2
100
AcDbBlockReference
  2
_DOTSMALL
 10
5962.600000000001
 20
8464.553563493883
 30
0.0
 41
100.0
 42
100.0
 43
100.0
  0
INSERT
  5
21489
330
20FBB
100
AcDbEntity
  8
寸法
 62
     0
 48
50.0
370
    -2
100
AcDbBlockReference
  2
_DOTSMALL
 10
6012.600000000002
 20
8464.553563493883
 30
0.0
 41
100.0
 42
100.0
 43
100.0
 50
180.0
  0
MTEXT
  5
2148A
330
20FBB
100
AcDbEntity
  8
寸法
 62
     7
 48
50.0
100
AcDbMText
 10
5987.600000000003
 20
8564.553563493882
 30
0.0
 40
120.0
 41
0.0
 71
     5
 72
     1
  1
\A1;a
  7
STYLE1
 73
     1
 44
1.0
1001
ACAD
1000
MTEXTBEGIN
1070
    73
1070
     1
1070
    44
1040
1.0
1070
    74
1070
     0
1000
MTEXTEND
  0
POINT
  5
2148B
330
20FBB
100
AcDbEntity
  8
DEFPOINTS
 62
     0
 48
50.0
100
AcDbPoint
 10
5962.600000000001
 20
7952.140975822259
 30
0.0
  0
POINT
  5
2148C
330
20FBB
100
AcDbEntity
  8
DEFPOINTS
 62
     0
 48
50.0
100
AcDbPoint
 10
6012.600000000002
 20
7872.140975822261
 30
0.0
  0
POINT
  5
2148D
330
20FBB
100
AcDbEntity
  8
DEFPOINTS
 62
     0
 48
50.0
100
AcDbPoint
 10
6012.600000000002
 20
8464.553563493883
 30
0.0
  0
ENDBLK
  5
20FC8
330
20FBB
100
AcDbEntity
  8
0
 48
50.0
100
AcDbBlockEnd
  0
BLOCK
  5
20FF7
330
20FEB
100
AcDbEntity
  8
0
 48
50.0
100
AcDbBlockBegin
  2
*D32
 70
     1
 10
0.0
 20
0.0
 30
0.0
  3
*D32
  1

  0
LINE
  5
21478
330
20FEB
100
AcDbEntity
  8
寸法
 62
     0
 48
50.0
370
    -2
100
AcDbLine
 10
10434.6
 20
7892.140975822261
 30
0.0
 11
10434.6
 21
8524.553563493883
 31
0.0
  0
LINE
  5
21479
330
20FEB
100
AcDbEntity
  8
寸法
 62
     0
 48
50.0
370
    -2
100
AcDbLine
 10
10484.59999999999
 20
7972.140975822262
 30
0.0
 11
10484.59999999999
 21
8524.553563493883
 31
0.0
  0
LINE
  5
2147A
330
20FEB
100
AcDbEntity
  8
寸法
 62
     0
 48
50.0
370
    -2
100
AcDbLine
 10
10434.6
 20
8464.553563493883
 30
0.0
 11
10334.6
 21
8464.553563493883
 31
0.0
  0
LINE
  5
2147B
330
20FEB
100
AcDbEntity
  8
寸法
 62
     0
 48
50.0
370
    -2
100
AcDbLine
 10
10484.59999999999
 20
8464.553563493883
 30
0.0
 11
10584.59999999999
 21
8464.553563493883
 31
0.0
  0
LINE
  5
2147C
330
20FEB
100
AcDbEntity
  8
寸法
 62
     0
 48
50.0
370
    -2
100
AcDbLine
 10
10434.6
 20
8464.553563493883
 30
0.0
 11
10484.59999999999
 21
8464.553563493883
 31
0.0
  0
INSERT
  5
2147D
330
20FEB
100
AcDbEntity
  8
寸法
 62
     0
 48
50.0
370
    -2
100
AcDbBlockReference
  2
_DOTSMALL
 10
10434.6
 20
8464.553563493883
 30
0.0
 41
100.0
 42
100.0
 43
100.0
  0
INSERT
  5
2147E
330
20FEB
100
AcDbEntity
  8
寸法
 62
     0
 48
50.0
370
    -2
100
AcDbBlockReference
  2
_DOTSMALL
 10
10484.59999999999
 20
8464.553563493883
 30
0.0
 41
100.0
 42
100.0
 43
100.0
 50
180.0
  0
MTEXT
  5
2147F
330
20FEB
100
AcDbEntity
  8
寸法
 62
     7
 48
50.0
100
AcDbMText
 10
10459.59999999999
 20
8564.553563493882
 30
0.0
 40
120.0
 41
0.0
 71
     5
 72
     1
  1
\A1;a
  7
STYLE1
 73
     1
 44
1.0
1001
ACAD
1000
MTEXTBEGIN
1070
    73
1070
     1
1070
    44
1040
1.0
1070
    74
1070
     0
1000
MTEXTEND
  0
POINT
  5
21480
330
20FEB
100
AcDbEntity
  8
DEFPOINTS
 62
     0
 48
50.0
100
AcDbPoint
 10
10434.6
 20
7872.140975822261
 30
0.0
  0
POINT
  5
21481
330
20FEB
100
AcDbEntity
  8
DEFPOINTS
 62
     0
 48
50.0
100
AcDbPoint
 10
10484.59999999999
 20
7952.140975822262
 30
0.0
  0
POINT
  5
21482
330
20FEB
100
AcDbEntity
  8
DEFPOINTS
 62
     0
 48
50.0
100
AcDbPoint
 10
10484.59999999999
 20
8464.553563493883
 30
0.0
  0
ENDBLK
  5
20FF8
330
20FEB
100
AcDbEntity
  8
0
 48
50.0
100
AcDbBlockEnd
  0
BLOCK
  5
21B3B
330
21B31
100
AcDbEntity
  8
0
 48
50.0
100
AcDbBlockBegin
  2
*D33
 70
     1
 10
0.0
 20
0.0
 30
0.0
  3
*D33
  1

  0
LINE
  5
21B79
330
21B31
100
AcDbEntity
  8
寸法
 62
     0
 48
50.0
370
    -2
100
AcDbLine
 10
6772.599999999998
 20
7892.140975822262
 30
0.0
 11
6772.599999999998
 21
8278.153535465404
 31
0.0
  0
LINE
  5
21B7A
330
21B31
100
AcDbEntity
  8
寸法
 62
     0
 48
50.0
370
    -2
100
AcDbLine
 10
6012.6
 20
7892.140975822262
 30
0.0
 11
6012.6
 21
8278.153535465404
 31
0.0
  0
LINE
  5
21B7B
330
21B31
100
AcDbEntity
  8
寸法
 62
     0
 48
50.0
370
    -2
100
AcDbLine
 10
6772.599999999998
 20
8218.153535465404
 30
0.0
 11
6012.6
 21
8218.153535465404
 31
0.0
  0
INSERT
  5
21B7C
330
21B31
100
AcDbEntity
  8
寸法
 62
     0
 48
50.0
370
    -2
100
AcDbBlockReference
  2
_DOTSMALL
 10
6772.599999999998
 20
8218.153535465404
 30
0.0
 41
100.0
 42
100.0
 43
100.0
  0
INSERT
  5
21B7D
330
21B31
100
AcDbEntity
  8
寸法
 62
     0
 48
50.0
370
    -2
100
AcDbBlockReference
  2
_DOTSMALL
 10
6012.6
 20
8218.153535465404
 30
0.0
 41
100.0
 42
100.0
 43
100.0
 50
180.0
  0
MTEXT
  5
21B7E
330
21B31
100
AcDbEntity
  8
寸法
 62
     7
 48
50.0
100
AcDbMText
 10
6392.599999999999
 20
8318.153535465404
 30
0.0
 40
120.0
 41
0.0
 71
     5
 72
     1
  1
\A1;760
  7
STYLE1
 73
     1
 44
1.0
1001
ACAD
1000
MTEXTBEGIN
1070
    73
1070
     1
1070
    44
1040
1.0
1070
    74
1070
     0
1000
MTEXTEND
  0
POINT
  5
21B7F
330
21B31
100
AcDbEntity
  8
DEFPOINTS
 62
     0
 48
50.0
100
AcDbPoint
 10
6772.599999999998
 20
7872.140975822262
 30
0.0
  0
POINT
  5
21B80
330
21B31
100
AcDbEntity
  8
DEFPOINTS
 62
     0
 48
50.0
100
AcDbPoint
 10
6012.6
 20
7872.140975822262
 30
0.0
  0
POINT
  5
21B81
330
21B31
100
AcDbEntity
  8
DEFPOINTS
 62
     0
 48
50.0
100
AcDbPoint
 10
6012.6
 20
8218.153535465404
 30
0.0
  0
ENDBLK
  5
21B3C
330
21B31
100
AcDbEntity
  8
0
 48
50.0
100
AcDbBlockEnd
  0
BLOCK
  5
21B47
330
21B3D
100
AcDbEntity
  8
0
 48
50.0
100
AcDbBlockBegin
  2
*D34
 70
     1
 10
0.0
 20
0.0
 30
0.0
  3
*D34
  1

  0
LINE
  5
21B82
330
21B3D
100
AcDbEntity
  8
寸法
 62
     0
 48
50.0
370
    -2
100
AcDbLine
 10
7463.599999999998
 20
7892.140975822262
 30
0.0
 11
7463.599999999998
 21
8278.153535465404
 31
0.0
  0
LINE
  5
21B83
330
21B3D
100
AcDbEntity
  8
寸法
 62
     0
 48
50.0
370
    -2
100
AcDbLine
 10
6772.599999999998
 20
7892.140975822262
 30
0.0
 11
6772.599999999998
 21
8278.153535465404
 31
0.0
  0
LINE
  5
21B84
330
21B3D
100
AcDbEntity
  8
寸法
 62
     0
 48
50.0
370
    -2
100
AcDbLine
 10
7463.599999999998
 20
8218.153535465404
 30
0.0
 11
6772.599999999998
 21
8218.153535465404
 31
0.0
  0
INSERT
  5
21B85
330
21B3D
100
AcDbEntity
  8
寸法
 62
     0
 48
50.0
370
    -2
100
AcDbBlockReference
  2
_DOTSMALL
 10
7463.599999999998
 20
8218.153535465404
 30
0.0
 41
100.0
 42
100.0
 43
100.0
  0
INSERT
  5
21B86
330
21B3D
100
AcDbEntity
  8
寸法
 62
     0
 48
50.0
370
    -2
100
AcDbBlockReference
  2
_DOTSMALL
 10
6772.599999999998
 20
8218.153535465404
 30
0.0
 41
100.0
 42
100.0
 43
100.0
 50
180.0
  0
MTEXT
  5
21B87
330
21B3D
100
AcDbEntity
  8
寸法
 62
     7
 48
50.0
100
AcDbMText
 10
7118.099999999998
 20
8318.153535465404
 30
0.0
 40
120.0
 41
0.0
 71
     5
 72
     1
  1
\A1;691
  7
STYLE1
 73
     1
 44
1.0
1001
ACAD
1000
MTEXTBEGIN
1070
    73
1070
     1
1070
    44
1040
1.0
1070
    74
1070
     0
1000
MTEXTEND
  0
POINT
  5
21B88
330
21B3D
100
AcDbEntity
  8
DEFPOINTS
 62
     0
 48
50.0
100
AcDbPoint
 10
7463.599999999998
 20
7872.140975822262
 30
0.0
  0
POINT
  5
21B89
330
21B3D
100
AcDbEntity
  8
DEFPOINTS
 62
     0
 48
50.0
100
AcDbPoint
 10
6772.599999999998
 20
7872.140975822262
 30
0.0
  0
POINT
  5
21B8A
330
21B3D
100
AcDbEntity
  8
DEFPOINTS
 62
     0
 48
50.0
100
AcDbPoint
 10
6772.599999999998
 20
8218.153535465404
 30
0.0
  0
ENDBLK
  5
21B48
330
21B3D
100
AcDbEntity
  8
0
 48
50.0
100
AcDbBlockEnd
  0
BLOCK
  5
21B53
330
21B49
100
AcDbEntity
  8
0
 48
50.0
100
AcDbBlockBegin
  2
*D35
 70
     1
 10
0.0
 20
0.0
 30
0.0
  3
*D35
  1

  0
LINE
  5
21B8B
330
21B49
100
AcDbEntity
  8
寸法
 62
     0
 48
50.0
370
    -2
100
AcDbLine
 10
9674.599999999996
 20
7892.140975822262
 30
0.0
 11
9674.599999999996
 21
8278.153535465404
 31
0.0
  0
LINE
  5
21B8C
330
21B49
100
AcDbEntity
  8
寸法
 62
     0
 48
50.0
370
    -2
100
AcDbLine
 10
8983.599999999995
 20
7892.140975822262
 30
0.0
 11
8983.599999999995
 21
8278.153535465404
 31
0.0
  0
LINE
  5
21B8D
330
21B49
100
AcDbEntity
  8
寸法
 62
     0
 48
50.0
370
    -2
100
AcDbLine
 10
9674.599999999996
 20
8218.153535465404
 30
0.0
 11
8983.599999999995
 21
8218.153535465404
 31
0.0
  0
INSERT
  5
21B8E
330
21B49
100
AcDbEntity
  8
寸法
 62
     0
 48
50.0
370
    -2
100
AcDbBlockReference
  2
_DOTSMALL
 10
9674.599999999996
 20
8218.153535465404
 30
0.0
 41
100.0
 42
100.0
 43
100.0
  0
INSERT
  5
21B8F
330
21B49
100
AcDbEntity
  8
寸法
 62
     0
 48
50.0
370
    -2
100
AcDbBlockReference
  2
_DOTSMALL
 10
8983.599999999995
 20
8218.153535465404
 30
0.0
 41
100.0
 42
100.0
 43
100.0
 50
180.0
  0
MTEXT
  5
21B90
330
21B49
100
AcDbEntity
  8
寸法
 62
     7
 48
50.0
100
AcDbMText
 10
9329.099999999995
 20
8318.153535465404
 30
0.0
 40
120.0
 41
0.0
 71
     5
 72
     1
  1
\A1;691
  7
STYLE1
 73
     1
 44
1.0
1001
ACAD
1000
MTEXTBEGIN
1070
    73
1070
     1
1070
    44
1040
1.0
1070
    74
1070
     0
1000
MTEXTEND
  0
POINT
  5
21B91
330
21B49
100
AcDbEntity
  8
DEFPOINTS
 62
     0
 48
50.0
100
AcDbPoint
 10
9674.599999999996
 20
7872.140975822262
 30
0.0
  0
POINT
  5
21B92
330
21B49
100
AcDbEntity
  8
DEFPOINTS
 62
     0
 48
50.0
100
AcDbPoint
 10
8983.599999999995
 20
7872.140975822262
 30
0.0
  0
POINT
  5
21B93
330
21B49
100
AcDbEntity
  8
DEFPOINTS
 62
     0
 48
50.0
100
AcDbPoint
 10
8983.599999999995
 20
8218.153535465404
 30
0.0
  0
ENDBLK
  5
21B54
330
21B49
100
AcDbEntity
  8
0
 48
50.0
100
AcDbBlockEnd
  0
BLOCK
  5
21B5F
330
21B55
100
AcDbEntity
  8
0
 48
50.0
100
AcDbBlockBegin
  2
*D36
 70
     1
 10
0.0
 20
0.0
 30
0.0
  3
*D36
  1

  0
LINE
  5
21B94
330
21B55
100
AcDbEntity
  8
寸法
 62
     0
 48
50.0
370
    -2
100
AcDbLine
 10
8983.599999999995
 20
7892.140975822262
 30
0.0
 11
8983.599999999995
 21
8278.153535465404
 31
0.0
  0
LINE
  5
21B95
330
21B55
100
AcDbEntity
  8
寸法
 62
     0
 48
50.0
370
    -2
100
AcDbLine
 10
8223.599999999997
 20
7892.140975822262
 30
0.0
 11
8223.599999999997
 21
8278.153535465404
 31
0.0
  0
LINE
  5
21B96
330
21B55
100
AcDbEntity
  8
寸法
 62
     0
 48
50.0
370
    -2
100
AcDbLine
 10
8983.599999999995
 20
8218.153535465404
 30
0.0
 11
8223.599999999997
 21
8218.153535465404
 31
0.0
  0
INSERT
  5
21B97
330
21B55
100
AcDbEntity
  8
寸法
 62
     0
 48
50.0
370
    -2
100
AcDbBlockReference
  2
_DOTSMALL
 10
8983.599999999995
 20
8218.153535465404
 30
0.0
 41
100.0
 42
100.0
 43
100.0
  0
INSERT
  5
21B98
330
21B55
100
AcDbEntity
  8
寸法
 62
     0
 48
50.0
370
    -2
100
AcDbBlockReference
  2
_DOTSMALL
 10
8223.599999999997
 20
8218.153535465404
 30
0.0
 41
100.0
 42
100.0
 43
100.0
 50
180.0
  0
MTEXT
  5
21B99
330
21B55
100
AcDbEntity
  8
寸法
 62
     7
 48
50.0
100
AcDbMText
 10
8603.599999999994
 20
8318.153535465404
 30
0.0
 40
120.0
 41
0.0
 71
     5
 72
     1
  1
\A1;760
  7
STYLE1
 73
     1
 44
1.0
1001
ACAD
1000
MTEXTBEGIN
1070
    73
1070
     1
1070
    44
1040
1.0
1070
    74
1070
     0
1000
MTEXTEND
  0
POINT
  5
21B9A
330
21B55
100
AcDbEntity
  8
DEFPOINTS
 62
     0
 48
50.0
100
AcDbPoint
 10
8983.599999999995
 20
7872.140975822262
 30
0.0
  0
POINT
  5
21B9B
330
21B55
100
AcDbEntity
  8
DEFPOINTS
 62
     0
 48
50.0
100
AcDbPoint
 10
8223.599999999997
 20
7872.140975822262
 30
0.0
  0
POINT
  5
21B9C
330
21B55
100
AcDbEntity
  8
DEFPOINTS
 62
     0
 48
50.0
100
AcDbPoint
 10
8223.599999999997
 20
8218.153535465404
 30
0.0
  0
ENDBLK
  5
21B60
330
21B55
100
AcDbEntity
  8
0
 48
50.0
100
AcDbBlockEnd
  0
BLOCK
  5
21B6B
330
21B61
100
AcDbEntity
  8
0
 48
50.0
100
AcDbBlockBegin
  2
*D37
 70
     1
 10
0.0
 20
0.0
 30
0.0
  3
*D37
  1

  0
LINE
  5
21B9D
330
21B61
100
AcDbEntity
  8
寸法
 62
     0
 48
50.0
370
    -2
100
AcDbLine
 10
10434.59999999999
 20
7892.140975822262
 30
0.0
 11
10434.59999999999
 21
8278.153535465404
 31
0.0
  0
LINE
  5
21B9E
330
21B61
100
AcDbEntity
  8
寸法
 62
     0
 48
50.0
370
    -2
100
AcDbLine
 10
9674.599999999996
 20
7892.140975822262
 30
0.0
 11
9674.599999999996
 21
8278.153535465404
 31
0.0
  0
LINE
  5
21B9F
330
21B61
100
AcDbEntity
  8
寸法
 62
     0
 48
50.0
370
    -2
100
AcDbLine
 10
10434.59999999999
 20
8218.153535465404
 30
0.0
 11
9674.599999999996
 21
8218.153535465404
 31
0.0
  0
INSERT
  5
21BA0
330
21B61
100
AcDbEntity
  8
寸法
 62
     0
 48
50.0
370
    -2
100
AcDbBlockReference
  2
_DOTSMALL
 10
10434.59999999999
 20
8218.153535465404
 30
0.0
 41
100.0
 42
100.0
 43
100.0
  0
INSERT
  5
21BA1
330
21B61
100
AcDbEntity
  8
寸法
 62
     0
 48
50.0
370
    -2
100
AcDbBlockReference
  2
_DOTSMALL
 10
9674.599999999996
 20
8218.153535465404
 30
0.0
 41
100.0
 42
100.0
 43
100.0
 50
180.0
  0
MTEXT
  5
21BA2
330
21B61
100
AcDbEntity
  8
寸法
 62
     7
 48
50.0
100
AcDbMText
 10
10054.59999999999
 20
8318.153535465404
 30
0.0
 40
120.0
 41
0.0
 71
     5
 72
     1
  1
\A1;760
  7
STYLE1
 73
     1
 44
1.0
1001
ACAD
1000
MTEXTBEGIN
1070
    73
1070
     1
1070
    44
1040
1.0
1070
    74
1070
     0
1000
MTEXTEND
  0
POINT
  5
21BA3
330
21B61
100
AcDbEntity
  8
DEFPOINTS
 62
     0
 48
50.0
100
AcDbPoint
 10
10434.59999999999
 20
7872.140975822262
 30
0.0
  0
POINT
  5
21BA4
330
21B61
100
AcDbEntity
  8
DEFPOINTS
 62
     0
 48
50.0
100
AcDbPoint
 10
9674.599999999996
 20
7872.140975822262
 30
0.0
  0
POINT
  5
21BA5
330
21B61
100
AcDbEntity
  8
DEFPOINTS
 62
     0
 48
50.0
100
AcDbPoint
 10
9674.599999999996
 20
8218.153535465404
 30
0.0
  0
ENDBLK
  5
21B6C
330
21B61
100
AcDbEntity
  8
0
 48
50.0
100
AcDbBlockEnd
  0
BLOCK
  5
21B77
330
21B6D
100
AcDbEntity
  8
0
 48
50.0
100
AcDbBlockBegin
  2
*D38
 70
     1
 10
0.0
 20
0.0
 30
0.0
  3
*D38
  1

  0
LINE
  5
21BA6
330
21B6D
100
AcDbEntity
  8
寸法
 62
     0
 48
50.0
370
    -2
100
AcDbLine
 10
8223.599999999997
 20
7892.140975822262
 30
0.0
 11
8223.599999999997
 21
8278.153535465404
 31
0.0
  0
LINE
  5
21BA7
330
21B6D
100
AcDbEntity
  8
寸法
 62
     0
 48
50.0
370
    -2
100
AcDbLine
 10
7463.599999999998
 20
7892.140975822262
 30
0.0
 11
7463.599999999998
 21
8278.153535465404
 31
0.0
  0
LINE
  5
21BA8
330
21B6D
100
AcDbEntity
  8
寸法
 62
     0
 48
50.0
370
    -2
100
AcDbLine
 10
8223.599999999997
 20
8218.153535465404
 30
0.0
 11
7463.599999999998
 21
8218.153535465404
 31
0.0
  0
INSERT
  5
21BA9
330
21B6D
100
AcDbEntity
  8
寸法
 62
     0
 48
50.0
370
    -2
100
AcDbBlockReference
  2
_DOTSMALL
 10
8223.599999999997
 20
8218.153535465404
 30
0.0
 41
100.0
 42
100.0
 43
100.0
  0
INSERT
  5
21BAA
330
21B6D
100
AcDbEntity
  8
寸法
 62
     0
 48
50.0
370
    -2
100
AcDbBlockReference
  2
_DOTSMALL
 10
7463.599999999998
 20
8218.153535465404
 30
0.0
 41
100.0
 42
100.0
 43
100.0
 50
180.0
  0
MTEXT
  5
21BAB
330
21B6D
100
AcDbEntity
  8
寸法
 62
     7
 48
50.0
100
AcDbMText
 10
7843.599999999998
 20
8318.153535465404
 30
0.0
 40
120.0
 41
0.0
 71
     5
 72
     1
  1
\A1;760
  7
STYLE1
 73
     1
 44
1.0
1001
ACAD
1000
MTEXTBEGIN
1070
    73
1070
     1
1070
    44
1040
1.0
1070
    74
1070
     0
1000
MTEXTEND
  0
POINT
  5
21BAC
330
21B6D
100
AcDbEntity
  8
DEFPOINTS
 62
     0
 48
50.0
100
AcDbPoint
 10
8223.599999999997
 20
7872.140975822262
 30
0.0
  0
POINT
  5
21BAD
330
21B6D
100
AcDbEntity
  8
DEFPOINTS
 62
     0
 48
50.0
100
AcDbPoint
 10
7463.599999999998
 20
7872.140975822262
 30
0.0
  0
POINT
  5
21BAE
330
21B6D
100
AcDbEntity
  8
DEFPOINTS
 62
     0
 48
50.0
100
AcDbPoint
 10
7463.599999999998
 20
8218.153535465404
 30
0.0
  0
ENDBLK
  5
21B78
330
21B6D
100
AcDbEntity
  8
0
 48
50.0
100
AcDbBlockEnd
  0
BLOCK
  5
2254E
330
22544
100
AcDbEntity
  8
0
 48
50.0
100
AcDbBlockBegin
  2
*D39
 70
     1
 10
0.0
 20
0.0
 30
0.0
  3
*D39
  1

  0
LINE
  5
22580
330
22544
100
AcDbEntity
  8
寸法
 62
     0
 48
50.0
370
    -2
100
AcDbLine
 10
4865.356359188783
 20
1340.760787611755
 30
0.0
 11
5153.427363549177
 21
1340.760787611755
 31
0.0
  0
LINE
  5
22581
330
22544
100
AcDbEntity
  8
寸法
 62
     0
 48
50.0
370
    -2
100
AcDbLine
 10
4865.356359188785
 20
1140.760787611754
 30
0.0
 11
5153.427363549177
 21
1140.760787611754
 31
0.0
  0
LINE
  5
22582
330
22544
100
AcDbEntity
  8
寸法
 62
     0
 48
50.0
370
    -2
100
AcDbLine
 10
5093.427363549177
 20
1340.760787611755
 30
0.0
 11
5093.427363549177
 21
1140.760787611754
 31
0.0
  0
INSERT
  5
22583
330
22544
100
AcDbEntity
  8
寸法
 62
     0
 48
50.0
370
    -2
100
AcDbBlockReference
  2
_DOTSMALL
 10
5093.427363549177
 20
1340.760787611755
 30
0.0
 41
100.0
 42
100.0
 43
100.0
 50
90.0
  0
INSERT
  5
22584
330
22544
100
AcDbEntity
  8
寸法
 62
     0
 48
50.0
370
    -2
100
AcDbBlockReference
  2
_DOTSMALL
 10
5093.427363549177
 20
1140.760787611754
 30
0.0
 41
100.0
 42
100.0
 43
100.0
 50
270.0
  0
MTEXT
  5
22585
330
22544
100
AcDbEntity
  8
寸法
 62
     7
 48
50.0
100
AcDbMText
 10
4993.427363549177
 20
1240.760787611756
 30
0.0
 40
120.0
 41
0.0
 71
     5
 72
     1
  1
\A1;a
  7
STYLE1
 11
0.0000000000000001
 21
1.0
 31
0.0
 73
     1
 44
1.0
1001
ACAD
1000
MTEXTBEGIN
1070
    73
1070
     1
1070
    44
1040
1.0
1070
    74
1070
     0
1000
MTEXTEND
  0
POINT
  5
22586
330
22544
100
AcDbEntity
  8
DEFPOINTS
 62
     0
 48
50.0
100
AcDbPoint
 10
4845.356359188784
 20
1340.760787611755
 30
0.0
  0
POINT
  5
22587
330
22544
100
AcDbEntity
  8
DEFPOINTS
 62
     0
 48
50.0
100
AcDbPoint
 10
4845.356359188785
 20
1140.760787611754
 30
0.0
  0
POINT
  5
22588
330
22544
100
AcDbEntity
  8
DEFPOINTS
 62
     0
 48
50.0
100
AcDbPoint
 10
5093.427363549177
 20
1140.760787611754
 30
0.0
  0
ENDBLK
  5
2254F
330
22544
100
AcDbEntity
  8
0
 48
50.0
100
AcDbBlockEnd
  0
BLOCK
  5
2255A
330
22550
100
AcDbEntity
  8
0
 48
50.0
100
AcDbBlockBegin
  2
*D40
 70
     1
 10
0.0
 20
0.0
 30
0.0
  3
*D40
  1

  0
LINE
  5
22589
330
22550
100
AcDbEntity
  8
寸法
 62
     0
 48
50.0
370
    -2
100
AcDbLine
 10
11178.85555682453
 20
1438.690833376044
 30
0.0
 11
11421.49111054165
 21
1438.690833376044
 31
0.0
  0
LINE
  5
2258A
330
22550
100
AcDbEntity
  8
寸法
 62
     0
 48
50.0
370
    -2
100
AcDbLine
 10
11208.74446491486
 20
1138.690833376044
 30
0.0
 11
11421.49111054165
 21
1138.690833376044
 31
0.0
  0
LINE
  5
2258B
330
22550
100
AcDbEntity
  8
寸法
 62
     0
 48
50.0
370
    -2
100
AcDbLine
 10
11361.49111054165
 20
1438.690833376044
 30
0.0
 11
11361.49111054165
 21
1138.690833376044
 31
0.0
  0
INSERT
  5
2258C
330
22550
100
AcDbEntity
  8
寸法
 62
     0
 48
50.0
370
    -2
100
AcDbBlockReference
  2
_DOTSMALL
 10
11361.49111054165
 20
1438.690833376044
 30
0.0
 41
100.0
 42
100.0
 43
100.0
 50
90.0
  0
INSERT
  5
2258D
330
22550
100
AcDbEntity
  8
寸法
 62
     0
 48
50.0
370
    -2
100
AcDbBlockReference
  2
_DOTSMALL
 10
11361.49111054165
 20
1138.690833376044
 30
0.0
 41
100.0
 42
100.0
 43
100.0
 50
270.0
  0
MTEXT
  5
2258E
330
22550
100
AcDbEntity
  8
寸法
 62
     7
 48
50.0
100
AcDbMText
 10
11261.49111054165
 20
1288.690833376046
 30
0.0
 40
120.0
 41
0.0
 71
     5
 72
     1
  1
\A1;c
  7
STYLE1
 11
0.0000000000000001
 21
1.0
 31
0.0
 73
     1
 44
1.0
1001
ACAD
1000
MTEXTBEGIN
1070
    73
1070
     1
1070
    44
1040
1.0
1070
    74
1070
     0
1000
MTEXTEND
  0
POINT
  5
2258F
330
22550
100
AcDbEntity
  8
DEFPOINTS
 62
     0
 48
50.0
100
AcDbPoint
 10
11158.85555682453
 20
1438.690833376044
 30
0.0
  0
POINT
  5
22590
330
22550
100
AcDbEntity
  8
DEFPOINTS
 62
     0
 48
50.0
100
AcDbPoint
 10
11188.74446491486
 20
1138.690833376044
 30
0.0
  0
POINT
  5
22591
330
22550
100
AcDbEntity
  8
DEFPOINTS
 62
     0
 48
50.0
100
AcDbPoint
 10
11361.49111054165
 20
1138.690833376044
 30
0.0
  0
ENDBLK
  5
2255B
330
22550
100
AcDbEntity
  8
0
 48
50.0
100
AcDbBlockEnd
  0
BLOCK
  5
22566
330
2255C
100
AcDbEntity
  8
0
 48
50.0
100
AcDbBlockBegin
  2
*D41
 70
     1
 10
0.0
 20
0.0
 30
0.0
  3
*D41
  1

  0
LINE
  5
22592
330
2255C
100
AcDbEntity
  8
寸法
 62
     0
 48
50.0
370
    -2
100
AcDbLine
 10
8078.96262330739
 20
1340.760787611756
 30
0.0
 11
8341.175870770291
 21
1340.760787611756
 31
0.0
  0
LINE
  5
22593
330
2255C
100
AcDbEntity
  8
寸法
 62
     0
 48
50.0
370
    -2
100
AcDbLine
 10
8098.411860201881
 20
1140.760787611754
 30
0.0
 11
8341.175870770291
 21
1140.760787611754
 31
0.0
  0
LINE
  5
22594
330
2255C
100
AcDbEntity
  8
寸法
 62
     0
 48
50.0
370
    -2
100
AcDbLine
 10
8281.17587077029
 20
1340.760787611756
 30
0.0
 11
8281.17587077029
 21
1140.760787611754
 31
0.0
  0
INSERT
  5
22595
330
2255C
100
AcDbEntity
  8
寸法
 62
     0
 48
50.0
370
    -2
100
AcDbBlockReference
  2
_DOTSMALL
 10
8281.17587077029
 20
1340.760787611756
 30
0.0
 41
100.0
 42
100.0
 43
100.0
 50
90.0
  0
INSERT
  5
22596
330
2255C
100
AcDbEntity
  8
寸法
 62
     0
 48
50.0
370
    -2
100
AcDbBlockReference
  2
_DOTSMALL
 10
8281.17587077029
 20
1140.760787611754
 30
0.0
 41
100.0
 42
100.0
 43
100.0
 50
270.0
  0
MTEXT
  5
22597
330
2255C
100
AcDbEntity
  8
寸法
 62
     7
 48
50.0
100
AcDbMText
 10
8181.175870770291
 20
1240.760787611757
 30
0.0
 40
120.0
 41
0.0
 71
     5
 72
     1
  1
\A1;b
  7
STYLE1
 11
0.0000000000000001
 21
1.0
 31
0.0
 73
     1
 44
1.0
1001
ACAD
1000
MTEXTBEGIN
1070
    73
1070
     1
1070
    44
1040
1.0
1070
    74
1070
     0
1000
MTEXTEND
  0
POINT
  5
22598
330
2255C
100
AcDbEntity
  8
DEFPOINTS
 62
     0
 48
50.0
100
AcDbPoint
 10
8058.96262330739
 20
1340.760787611756
 30
0.0
  0
POINT
  5
22599
330
2255C
100
AcDbEntity
  8
DEFPOINTS
 62
     0
 48
50.0
100
AcDbPoint
 10
8078.41186020188
 20
1140.760787611754
 30
0.0
  0
POINT
  5
2259A
330
2255C
100
AcDbEntity
  8
DEFPOINTS
 62
     0
 48
50.0
100
AcDbPoint
 10
8281.17587077029
 20
1140.760787611754
 30
0.0
  0
ENDBLK
  5
22567
330
2255C
100
AcDbEntity
  8
0
 48
50.0
100
AcDbBlockEnd
  0
BLOCK
  5
22572
330
22568
100
AcDbEntity
  8
0
 48
50.0
100
AcDbBlockBegin
  2
*D42
 70
     1
 10
0.0
 20
0.0
 30
0.0
  3
*D42
  1

  0
LINE
  5
2259B
330
22568
100
AcDbEntity
  8
寸法
 62
     0
 48
50.0
370
    -2
100
AcDbLine
 10
4425.356359188781
 20
1140.760787611754
 30
0.0
 11
4292.026612113252
 21
1140.760787611754
 31
0.0
  0
LINE
  5
2259C
330
22568
100
AcDbEntity
  8
寸法
 62
     0
 48
50.0
370
    -2
100
AcDbLine
 10
4575.356359188782
 20
740.7607876117545
 30
0.0
 11
4292.026612113252
 21
740.7607876117546
 31
0.0
  0
LINE
  5
2259D
330
22568
100
AcDbEntity
  8
寸法
 62
     0
 48
50.0
370
    -2
100
AcDbLine
 10
4352.026612113252
 20
1140.760787611754
 30
0.0
 11
4352.026612113252
 21
740.7607876117545
 31
0.0
  0
INSERT
  5
2259E
330
22568
100
AcDbEntity
  8
寸法
 62
     0
 48
50.0
370
    -2
100
AcDbBlockReference
  2
_DOTSMALL
 10
4352.026612113252
 20
1140.760787611754
 30
0.0
 41
100.0
 42
100.0
 43
100.0
 50
90.0
  0
INSERT
  5
2259F
330
22568
100
AcDbEntity
  8
寸法
 62
     0
 48
50.0
370
    -2
100
AcDbBlockReference
  2
_DOTSMALL
 10
4352.026612113252
 20
740.7607876117545
 30
0.0
 41
100.0
 42
100.0
 43
100.0
 50
270.0
  0
MTEXT
  5
225A0
330
22568
100
AcDbEntity
  8
寸法
 62
     7
 48
50.0
100
AcDbMText
 10
4252.01480108963
 20
928.3854207276599
 30
0.0
 40
120.0
 41
0.0
 71
     5
 72
     1
  1
\A1;200
  7
STYLE1
 11
0.0000000000000001
 21
1.0
 31
0.0
 73
     1
 44
1.0
1001
ACAD
1000
MTEXTBEGIN
1070
    73
1070
     1
1070
    44
1040
1.0
1070
    74
1070
     0
1000
MTEXTEND
  0
POINT
  5
225A1
330
22568
100
AcDbEntity
  8
DEFPOINTS
 62
     0
 48
50.0
100
AcDbPoint
 10
4445.356359188781
 20
1140.760787611754
 30
0.0
  0
POINT
  5
225A2
330
22568
100
AcDbEntity
  8
DEFPOINTS
 62
     0
 48
50.0
100
AcDbPoint
 10
4595.356359188781
 20
740.7607876117545
 30
0.0
  0
POINT
  5
225A3
330
22568
100
AcDbEntity
  8
DEFPOINTS
 62
     0
 48
50.0
100
AcDbPoint
 10
4352.026612113252
 20
740.7607876117545
 30
0.0
  0
ENDBLK
  5
22573
330
22568
100
AcDbEntity
  8
0
 48
50.0
100
AcDbBlockEnd
  0
BLOCK
  5
2257E
330
22574
100
AcDbEntity
  8
0
 48
50.0
100
AcDbBlockBegin
  2
*D43
 70
     1
 10
0.0
 20
0.0
 30
0.0
  3
*D43
  1

  0
LINE
  5
225A4
330
22574
100
AcDbEntity
  8
寸法
 62
     0
 48
50.0
370
    -2
100
AcDbLine
 10
2896.319460875799
 20
1140.760787611746
 30
0.0
 11
2762.98971380027
 21
1140.760787611746
 31
0.0
  0
LINE
  5
225A5
330
22574
100
AcDbEntity
  8
寸法
 62
     0
 48
50.0
370
    -2
100
AcDbLine
 10
3046.319460875799
 20
740.7607876117463
 30
0.0
 11
2762.989713800269
 21
740.7607876117464
 31
0.0
  0
LINE
  5
225A6
330
22574
100
AcDbEntity
  8
寸法
 62
     0
 48
50.0
370
    -2
100
AcDbLine
 10
2822.98971380027
 20
1140.760787611746
 30
0.0
 11
2822.989713800269
 21
740.7607876117463
 31
0.0
  0
INSERT
  5
225A7
330
22574
100
AcDbEntity
  8
寸法
 62
     0
 48
50.0
370
    -2
100
AcDbBlockReference
  2
_DOTSMALL
 10
2822.98971380027
 20
1140.760787611746
 30
0.0
 41
100.0
 42
100.0
 43
100.0
 50
90.0
  0
INSERT
  5
225A8
330
22574
100
AcDbEntity
  8
寸法
 62
     0
 48
50.0
370
    -2
100
AcDbBlockReference
  2
_DOTSMALL
 10
2822.989713800269
 20
740.7607876117463
 30
0.0
 41
100.0
 42
100.0
 43
100.0
 50
270.0
  0
MTEXT
  5
225A9
330
22574
100
AcDbEntity
  8
寸法
 62
     7
 48
50.0
100
AcDbMText
 10
2722.977902776647
 20
928.3854207276519
 30
0.0
 40
120.0
 41
0.0
 71
     5
 72
     1
  1
\A1;200
  7
STYLE1
 11
0.0000000000000001
 21
1.0
 31
0.0
 73
     1
 44
1.0
1001
ACAD
1000
MTEXTBEGIN
1070
    73
1070
     1
1070
    44
1040
1.0
1070
    74
1070
     0
1000
MTEXTEND
  0
POINT
  5
225AA
330
22574
100
AcDbEntity
  8
DEFPOINTS
 62
     0
 48
50.0
100
AcDbPoint
 10
2916.319460875799
 20
1140.760787611746
 30
0.0
  0
POINT
  5
225AB
330
22574
100
AcDbEntity
  8
DEFPOINTS
 62
     0
 48
50.0
100
AcDbPoint
 10
3066.319460875799
 20
740.7607876117463
 30
0.0
  0
POINT
  5
225AC
330
22574
100
AcDbEntity
  8
DEFPOINTS
 62
     0
 48
50.0
100
AcDbPoint
 10
2822.989713800269
 20
740.7607876117463
 30
0.0
  0
ENDBLK
  5
2257F
330
22574
100
AcDbEntity
  8
0
 48
50.0
100
AcDbBlockEnd
  0
ENDSEC
  0
SECTION
  2
ENTITIES
  0
LINE
  5
10B57
330
747D
100
AcDbEntity
  8
補助
  6
PHANTOM
 62
   230
 48
50.0
100
AcDbLine
 10
139.9999999999995
 20
11409.6
 30
0.0
 11
16307.2
 21
11409.6
 31
0.0
  0
LINE
  5
10B59
330
747D
100
AcDbEntity
  8
仕様書枠
  6
Continuous
 48
50.0
100
AcDbLine
 10
13107.2
 20
1200.0
 30
0.0
 11
13107.2
 21
-0.0000000000000729
 31
0.0
  0
LINE
  5
10B5C
330
747D
100
AcDbEntity
  8
仕様書枠
 48
50.0
100
AcDbLine
 10
16307.2
 20
1200.0
 30
0.0
 11
16307.2
 21
-0.0000000000000909
 31
0.0
  0
LINE
  5
10B5D
330
747D
100
AcDbEntity
  8
仕様書枠
 48
50.0
100
AcDbLine
 10
140.0
 20
0.0
 30
0.0
 11
16307.2
 21
-0.0000000000000909
 31
0.0
  0
LINE
  5
10B5E
330
747D
100
AcDbEntity
  8
補助
  6
PHANTOM
 62
   230
 48
50.0
100
AcDbLine
 10
16307.2
 20
11409.6
 30
0.0
 11
16307.2
 21
1200.0
 31
0.0
  0
LINE
  5
10B6C
330
747D
100
AcDbEntity
  8
仕様書枠
 48
50.0
100
AcDbLine
 10
13107.2
 20
1200.0
 30
0.0
 11
16307.2
 21
1200.0
 31
0.0
  0
LINE
  5
10B6D
330
747D
100
AcDbEntity
  8
補助
  6
PHANTOM
 62
   230
 48
50.0
100
AcDbLine
 10
13107.2
 20
11409.6
 30
0.0
 11
13107.2
 21
4800.0
 31
0.0
  0
LINE
  5
10B6F
330
747D
100
AcDbEntity
  8
補助
  6
PHANTOM
 62
   230
 48
50.0
100
AcDbLine
 10
13107.2
 20
4800.0
 30
0.0
 11
16307.2
 21
4800.0
 31
0.0
  0
LINE
  5
10B72
330
747D
100
AcDbEntity
  8
文字
 62
     7
 48
50.0
100
AcDbLine
 10
13187.2
 20
400.0
 30
0.0
 11
16227.2
 21
400.0
 31
0.0
  0
TEXT
  5
10B73
330
747D
100
AcDbEntity
  8
文字
 62
     7
 48
50.0
100
AcDbText
 10
13162.9790565769
 20
895.0906074299405
 30
0.0
 40
200.0
  1
基 礎 図
  7
STYLE2
100
AcDbText
  0
TEXT
  5
10B74
330
747D
100
AcDbEntity
  8
文字
 62
     7
 48
50.0
100
AcDbText
 10
13201.43669998441
 20
477.2740661031255
 30
0.0
 40
160.0
  1
機種名
  7
STYLE2
100
AcDbText
  0
TEXT
  5
10B79
330
747D
100
AcDbEntity
  8
文字
 62
     7
 48
50.0
100
AcDbText
 10
14524.131837222
 20
1031.557706291228
 30
0.0
 40
100.0
  1
NO.07      <縮尺> S=1/40
  7
STYLE2
100
AcDbText
  0
LINE
  5
10B7B
330
747D
100
AcDbEntity
  8
仕様書枠
 48
50.0
100
AcDbLine
 10
13107.2
 20
800.0
 30
0.0
 11
14251.2
 21
800.0
 31
0.0
  0
LINE
  5
10B88
330
747D
100
AcDbEntity
  8
仕様書枠
  6
Continuous
 48
50.0
100
AcDbLine
 10
14251.2
 20
1200.0
 30
0.0
 11
14251.2
 21
800.0
 31
0.0
  0
TEXT
  5
14DEF
330
747D
100
AcDbEntity
  8
文字
 62
     7
 48
50.0
100
AcDbText
 10
14641.2525855784
 20
871.1744590657925
 30
0.0
 40
100.0
  1
～一般型・多雪地型～
  7
STYLE2
100
AcDbText
  0
TEXT
  5
15A76
330
747D
100
AcDbEntity
  8
文字
 62
     7
 48
50.0
100
AcDbText
 10
14482.61482192223
 20
488.1241585855691
 30
0.0
 40
160.0
  1
ＮＸＮ－８１Ｈ
  7
STYLE2
100
AcDbText
  0
TEXT
  5
1C9B2
330
747D
100
AcDbEntity
  8
部品1
 48
50.0
100
AcDbText
 10
10802.36733715367
 20
6776.900872411973
 30
0.0
 40
80.0
  1
(a=50,b=60,c=80)
  7
STYLE1
100
AcDbText
  0
TEXT
  5
1C9B3
330
747D
100
AcDbEntity
  8
部品1
 48
50.0
100
AcDbText
 10
10688.66709642772
 20
6910.457398497917
 30
0.0
 40
80.0
  1
※a,b,cは屋根の出幅です。
  7
STYLE1
100
AcDbText
  0
MTEXT
  5
1C9B4
102
{ACAD_REACTORS
330
1C9B5
102
}
330
747D
100
AcDbEntity
  8
部品1
 62
     7
 48
50.0
100
AcDbMText
 10
11554.83718660449
 20
7122.125298697381
 30
0.0
 40
120.0
 41
0.0
 71
     6
 72
     1
  1
\A1;屋根の外寸
  7
STYLE1
 73
     1
 44
1.0
1001
ACAD
1000
MTEXTBEGIN
1070
    73
1070
     1
1070
    44
1040
1.0
1070
    74
1070
     0
1000
MTEXTEND
  0
LEADER
  5
1C9B5
330
747D
100
AcDbEntity
  8
寸法
 48
50.0
100
AcDbLeader
  3
INABA_S50G
 71
     0
 73
     0
 74
     0
 75
     1
 40
120.0
 41
672.0
 76
     3
 10
10484.6
 20
7417.142690657172
 30
0.0
 10
10732.83718660449
 20
7037.125298697382
 30
0.0
 10
10857.83718660449
 20
7037.125298697382
 30
0.0
340
1C9B4
1001
ACAD
1000
DSTYLE
1002
{
1070
   341
1005
1C530
1070
    40
1040
1.0
1070
   343
1005
1C530
1070
   344
1005
1C530
1002
}
  0
LINE
  5
1C9BB
330
747D
100
AcDbEntity
  8
想像線
 48
10.0
100
AcDbLine
 10
10481.6
 20
6020.140975822254
 30
0.0
 11
5962.599999999998
 21
6020.140975822264
 31
0.0
  0
LINE
  5
1C9BC
330
747D
100
AcDbEntity
  8
想像線
 48
10.0
100
AcDbLine
 10
5962.600000000001
 20
7952.140975822257
 30
0.0
 11
10484.59999999999
 21
7952.140975822262
 31
0.0
  0
LINE
  5
1CAB9
330
747D
100
AcDbEntity
  8
想像線
 48
10.0
100
AcDbLine
 10
5962.599999999998
 20
6020.140975822264
 30
0.0
 11
5962.600000000001
 21
7952.140975822257
 31
0.0
  0
LINE
  5
1CCF0
330
747D
100
AcDbEntity
  8
想像線
 48
10.0
100
AcDbLine
 10
10484.59999999999
 20
7952.140975822262
 30
0.0
 11
10484.6
 21
6023.140975822254
 31
0.0
  0
TEXT
  5
1D002
330
747D
100
AcDbEntity
  8
文字
 62
     7
 48
50.0
100
AcDbText
 10
13188.16259899338
 20
246.7109242801889
 30
0.0
 40
80.0
  1
※寒冷地等は地域の実情に合わせた基礎にして下さい。
  7
STYLE2
100
AcDbText
  0
LEADER
  5
1EB63
330
747D
100
AcDbEntity
  8
寸法
 48
50.0
100
AcDbLeader
  3
INABA_S50G
 71
     0
 73
     0
 74
     0
 75
     1
 40
120.0
 41
1282.349242404918
 76
     3
 10
10529.44068557283
 20
7861.597615110188
 30
0.0
 10
10785.82789715524
 20
8057.941552726328
 30
0.0
 10
10910.82789715523
 20
8057.941552726328
 30
0.0
340
1EB64
1001
ACAD
1000
DSTYLE
1002
{
1070
   341
1005
1C530
1070
    40
1040
1.0
1070
   343
1005
1C530
1070
   344
1005
1C530
1002
}
  0
MTEXT
  5
1EB64
102
{ACAD_REACTORS
330
1EB63
102
}
330
747D
100
AcDbEntity
  8
部品1
 62
     7
 48
50.0
100
AcDbMText
 10
10935.82789715523
 20
8142.941552726327
 30
0.0
 40
120.0
 41
0.0
 71
     4
 72
     1
  1
現場打コンクリート
  7
STYLE1
 73
     1
 44
1.0
1001
ACAD
1000
MTEXTBEGIN
1070
    73
1070
     1
1070
    44
1040
1.0
1070
    74
1070
     0
1000
MTEXTEND
  0
TEXT
  5
1EB65
330
747D
100
AcDbEntity
  8
部品1
 48
50.0
100
AcDbText
 10
10943.95182925034
 20
8269.419141198403
 30
0.0
 40
120.0
  1
組立後
  7
STYLE1
100
AcDbText
  0
TEXT
  5
1F34D
330
747D
100
AcDbEntity
  8
文字
 48
50.0
100
AcDbText
 10
6264.58318746153
 20
7264.586903750478
 30
0.0
 40
120.0
  1
100x190x390
  7
STYLE1
100
AcDbText
  0
MTEXT
  5
1F34E
102
{ACAD_REACTORS
330
1F34F
102
}
330
747D
100
AcDbEntity
  8
部品1
 62
     7
 48
50.0
100
AcDbMText
 10
6403.524372326066
 20
7517.0855032441
 30
0.0
 40
120.0
 41
0.0
 71
     4
 72
     1
  1
\A1;C.B
  7
STYLE1
 73
     1
 44
1.0
1001
ACAD
1000
MTEXTBEGIN
1070
    73
1070
     1
1070
    44
1040
1.0
1070
    74
1070
     0
1000
MTEXTEND
  0
LEADER
  5
1F34F
330
747D
100
AcDbEntity
  8
寸法
 48
50.0
100
AcDbLeader
  3
INABA_S50G
 71
     0
 73
     0
 74
     0
 75
     1
 40
120.0
 41
185.591883092037
 76
     3
 10
6185.147659102763
 20
7719.837983549474
 30
0.0
 10
6253.524372326066
 20
7432.0855032441
 30
0.0
 10
6378.524372326066
 20
7432.0855032441
 30
0.0
340
1F34E
1001
ACAD
1000
DSTYLE
1002
{
1070
   341
1005
1C530
1070
    40
1040
1.0
1070
   343
1005
1C530
1070
   344
1005
1C530
1002
}
  0
TEXT
  5
1F6EC
330
747D
100
AcDbEntity
  8
文字
 48
50.0
100
AcDbText
 10
10966.8664264809
 20
7867.504505210205
 30
0.0
 40
120.0
  1
深サ:200
  7
STYLE1
100
AcDbText
  0
LINE
  5
20293
330
747D
100
AcDbEntity
  8
補助
  6
PHANTOM
 62
   230
 48
50.0
100
AcDbLine
 10
140.0
 20
0.0
 30
0.0
 11
139.9999999999995
 21
11409.6
 31
0.0
  0
DIMENSION
  5
203B0
330
747D
100
AcDbEntity
  8
寸法
 48
50.0
100
AcDbDimension
  2
*D24
 10
5371.88811655075
 20
6080.140975822262
 30
0.0
 11
5271.847303985945
 21
6976.140975822263
 31
0.0
 70
    32
 71
     5
 42
1792.0
  3
INABA_S40G
100
AcDbAlignedDimension
 13
6012.6
 23
7872.140975822262
 33
0.0
 14
6012.6
 24
6080.140975822262
 34
0.0
 50
90.0
100
AcDbRotatedDimension
1001
ACAD
1000
DSTYLE
1002
{
1070
   174
1070
     0
1070
   272
1070
     1
1070
   288
1070
     0
1070
   341
1005
0
1002
}
  0
LINE
  5
203B3
330
747D
100
AcDbEntity
  8
想像線
 48
10.0
100
AcDbLine
 10
6056.6
 20
6080.140975822262
 30
0.0
 11
8174.600000000001
 21
6080.140975822265
 31
0.0
  0
LINE
  5
203B4
330
747D
100
AcDbEntity
  8
想像線
 48
10.0
100
AcDbLine
 10
6056.6
 20
6005.140975822262
 30
0.0
 11
8174.600000000001
 21
6005.140975822265
 31
0.0
  0
DIMENSION
  5
203B6
330
747D
100
AcDbEntity
  8
寸法
 48
50.0
100
AcDbDimension
  2
*D25
 10
10334.6
 20
5651.942294736611
 30
0.0
 11
10784.17086614173
 21
5651.942294736611
 31
0.0
 70
   160
 71
     5
 42
200.0
  3
INABA_S40G
100
AcDbAlignedDimension
 13
10534.6
 23
5980.140975822259
 33
0.0
 14
10334.6
 24
5980.140975822259
 34
0.0
100
AcDbRotatedDimension
1001
ACAD
1000
DSTYLE
1002
{
1070
   174
1070
     0
1070
   272
1070
     1
1070
   288
1070
     0
1070
   341
1005
0
1002
}
  0
LINE
  5
203BF
330
747D
100
AcDbEntity
  8
部品1
 48
50.0
100
AcDbLine
 10
6012.6
 20
6280.140975822262
 30
0.0
 11
6012.6
 21
6080.140975822262
 31
0.0
  0
LINE
  5
203C0
330
747D
100
AcDbEntity
  8
部品1
 48
50.0
100
AcDbLine
 10
6412.600000000001
 20
6280.140975822262
 30
0.0
 11
6412.600000000001
 21
6080.140975822262
 31
0.0
  0
LINE
  5
203C1
330
747D
100
AcDbEntity
  8
部品1
 48
50.0
100
AcDbLine
 10
6412.600000000001
 20
6080.140975822262
 30
0.0
 11
6012.6
 21
6080.140975822262
 31
0.0
  0
LINE
  5
203C2
330
747D
100
AcDbEntity
  8
部品1
 48
50.0
100
AcDbLine
 10
6412.600000000001
 20
6080.140975822265
 30
0.0
 11
6012.6
 21
6080.140975822262
 31
0.0
  0
LINE
  5
203C3
330
747D
100
AcDbEntity
  8
点線
 48
10.0
100
AcDbLine
 10
6112.6
 20
5980.140975822255
 30
0.0
 11
5912.600000000001
 21
5980.140975822255
 31
0.0
  0
LINE
  5
203C4
330
747D
100
AcDbEntity
  8
点線
 48
10.0
100
AcDbLine
 10
6112.6
 20
6180.140975822254
 30
0.0
 11
5912.600000000001
 21
6180.140975822254
 31
0.0
  0
LINE
  5
203C5
330
747D
100
AcDbEntity
  8
点線
 48
10.0
100
AcDbLine
 10
5912.600000000001
 20
6180.140975822254
 30
0.0
 11
5912.600000000001
 21
5980.140975822255
 31
0.0
  0
LINE
  5
203C6
330
747D
100
AcDbEntity
  8
点線
 48
10.0
100
AcDbLine
 10
6112.6
 20
6180.140975822254
 30
0.0
 11
6112.6
 21
5980.140975822255
 31
0.0
  0
LINE
  5
203C8
330
747D
100
AcDbEntity
  8
想像線
 48
10.0
100
AcDbLine
 10
6056.6
 20
6005.140975822262
 30
0.0
 11
6056.6
 21
6080.140975822262
 31
0.0
  0
LINE
  5
203C9
330
747D
100
AcDbEntity
  8
部品1
 48
50.0
100
AcDbLine
 10
6412.600000000001
 20
6280.140975822262
 30
0.0
 11
6012.6
 21
6280.140975822262
 31
0.0
  0
LINE
  5
203CA
330
747D
100
AcDbEntity
  8
部品1
 48
50.0
100
AcDbLine
 10
6212.600000000001
 20
7076.140975822259
 30
0.0
 11
6012.6
 21
7076.140975822259
 31
0.0
  0
LINE
  5
203CB
330
747D
100
AcDbEntity
  8
部品1
 48
50.0
100
AcDbLine
 10
6212.600000000001
 20
6876.140975822258
 30
0.0
 11
6012.6
 21
6876.140975822258
 31
0.0
  0
LINE
  5
203CC
330
747D
100
AcDbEntity
  8
部品1
 48
50.0
100
AcDbLine
 10
6012.6
 20
6876.140975822261
 30
0.0
 11
6012.6
 21
7076.140975822261
 31
0.0
  0
LINE
  5
203CD
330
747D
100
AcDbEntity
  8
部品1
 48
50.0
100
AcDbLine
 10
6212.600000000001
 20
6876.140975822261
 30
0.0
 11
6212.600000000001
 21
7076.140975822261
 31
0.0
  0
LINE
  5
203E7
330
747D
100
AcDbEntity
  8
部品1
 48
50.0
100
AcDbLine
 10
10034.6
 20
6280.140975822262
 30
0.0
 11
10034.6
 21
6080.140975822262
 31
0.0
  0
LINE
  5
203E8
330
747D
100
AcDbEntity
  8
部品1
 48
50.0
100
AcDbLine
 10
10434.6
 20
6280.140975822262
 30
0.0
 11
10434.6
 21
6080.140975822262
 31
0.0
  0
DIMENSION
  5
203E9
330
747D
100
AcDbEntity
  8
寸法
 48
50.0
100
AcDbDimension
  2
*D26
 10
10834.23045670601
 20
5980.140975822259
 30
0.0
 11
10834.23045670601
 21
6429.711841963992
 31
0.0
 70
   160
 71
     5
 42
200.0
  3
INABA_S40G
100
AcDbAlignedDimension
 13
10534.6
 23
6180.140975822258
 33
0.0
 14
10534.6
 24
5980.140975822259
 34
0.0
 50
90.0
100
AcDbRotatedDimension
1001
ACAD
1000
DSTYLE
1002
{
1070
   174
1070
     0
1070
   272
1070
     1
1070
   288
1070
     0
1070
   341
1005
0
1002
}
  0
LINE
  5
203EA
330
747D
100
AcDbEntity
  8
部品1
 48
50.0
100
AcDbLine
 10
10034.6
 20
6080.140975822265
 30
0.0
 11
10434.6
 21
6080.140975822262
 31
0.0
  0
LINE
  5
203EB
330
747D
100
AcDbEntity
  8
想像線
 48
10.0
100
AcDbLine
 10
8174.600000000001
 20
6005.140975822265
 30
0.0
 11
8174.600000000001
 21
6080.140975822262
 31
0.0
  0
LINE
  5
203EC
330
747D
100
AcDbEntity
  8
点線
 48
10.0
100
AcDbLine
 10
10534.6
 20
6180.140975822254
 30
0.0
 11
10534.6
 21
5980.140975822255
 31
0.0
  0
LINE
  5
203ED
330
747D
100
AcDbEntity
  8
点線
 48
10.0
100
AcDbLine
 10
10334.6
 20
6180.140975822254
 30
0.0
 11
10334.6
 21
5980.140975822255
 31
0.0
  0
LINE
  5
203EE
330
747D
100
AcDbEntity
  8
点線
 48
10.0
100
AcDbLine
 10
10334.6
 20
5980.140975822255
 30
0.0
 11
10534.6
 21
5980.140975822255
 31
0.0
  0
LINE
  5
203EF
330
747D
100
AcDbEntity
  8
点線
 48
10.0
100
AcDbLine
 10
10334.6
 20
6180.140975822254
 30
0.0
 11
10534.6
 21
6180.140975822254
 31
0.0
  0
LINE
  5
203F0
330
747D
100
AcDbEntity
  8
部品1
 48
50.0
100
AcDbLine
 10
10034.6
 20
6280.140975822262
 30
0.0
 11
10434.6
 21
6280.140975822262
 31
0.0
  0
LINE
  5
203F1
330
747D
100
AcDbEntity
  8
部品1
 48
50.0
100
AcDbLine
 10
10234.6
 20
7076.140975822259
 30
0.0
 11
10434.6
 21
7076.140975822259
 31
0.0
  0
LINE
  5
203F2
330
747D
100
AcDbEntity
  8
部品1
 48
50.0
100
AcDbLine
 10
10234.6
 20
6876.140975822258
 30
0.0
 11
10434.6
 21
6876.140975822258
 31
0.0
  0
LINE
  5
203F3
330
747D
100
AcDbEntity
  8
部品1
 48
50.0
100
AcDbLine
 10
10234.6
 20
6876.140975822261
 30
0.0
 11
10234.6
 21
7076.140975822261
 31
0.0
  0
LINE
  5
203F4
330
747D
100
AcDbEntity
  8
部品1
 48
50.0
100
AcDbLine
 10
10434.6
 20
6876.140975822261
 30
0.0
 11
10434.6
 21
7076.140975822261
 31
0.0
  0
DIMENSION
  5
203F6
330
747D
100
AcDbEntity
  8
寸法
 48
50.0
100
AcDbDimension
  2
*D27
 10
10434.6
 20
8464.553563493883
 30
0.0
 11
8223.600000000001
 21
8564.565374517504
 31
0.0
 70
    32
 71
     5
 42
4422.0
  3
INABA_S40G
100
AcDbAlignedDimension
 13
6012.6
 23
7872.140975822262
 33
0.0
 14
10434.6
 24
7872.140975822262
 34
0.0
100
AcDbRotatedDimension
1001
ACAD
1000
DSTYLE
1002
{
1070
   174
1070
     0
1070
   272
1070
     1
1070
   288
1070
     0
1070
   341
1005
0
1002
}
  0
LINE
  5
203FB
330
747D
100
AcDbEntity
  8
部品1
 48
50.0
100
AcDbLine
 10
6412.600000000001
 20
7872.140975822262
 30
0.0
 11
6012.6
 21
7872.140975822262
 31
0.0
  0
LINE
  5
203FC
330
747D
100
AcDbEntity
  8
部品1
 48
50.0
100
AcDbLine
 10
6412.600000000001
 20
7872.140975822258
 30
0.0
 11
6012.6
 21
7872.140975822262
 31
0.0
  0
LINE
  5
203FD
330
747D
100
AcDbEntity
  8
点線
 48
10.0
100
AcDbLine
 10
6112.6
 20
7972.140975822262
 30
0.0
 11
5912.600000000001
 21
7972.140975822262
 31
0.0
  0
LINE
  5
203FE
330
747D
100
AcDbEntity
  8
部品1
 48
50.0
100
AcDbLine
 10
6412.600000000001
 20
7672.140975822262
 30
0.0
 11
6012.6
 21
7672.140975822262
 31
0.0
  0
LINE
  5
203FF
330
747D
100
AcDbEntity
  8
点線
 48
10.0
100
AcDbLine
 10
6112.6
 20
7772.140975822262
 30
0.0
 11
5912.600000000001
 21
7772.140975822262
 31
0.0
  0
LINE
  5
20400
330
747D
100
AcDbEntity
  8
部品1
 48
50.0
100
AcDbLine
 10
6012.6
 20
7672.140975822262
 30
0.0
 11
6012.6
 21
7872.140975822262
 31
0.0
  0
LINE
  5
20401
330
747D
100
AcDbEntity
  8
点線
 48
10.0
100
AcDbLine
 10
5912.600000000001
 20
7772.140975822262
 30
0.0
 11
5912.600000000001
 21
7972.140975822262
 31
0.0
  0
LINE
  5
20402
330
747D
100
AcDbEntity
  8
部品1
 48
50.0
100
AcDbLine
 10
6412.600000000001
 20
7672.140975822262
 30
0.0
 11
6412.600000000001
 21
7872.140975822262
 31
0.0
  0
LINE
  5
20403
330
747D
100
AcDbEntity
  8
点線
 48
10.0
100
AcDbLine
 10
6112.6
 20
7772.140975822262
 30
0.0
 11
6112.6
 21
7972.140975822262
 31
0.0
  0
LINE
  5
20414
330
747D
100
AcDbEntity
  8
部品1
 48
50.0
100
AcDbLine
 10
10034.6
 20
7872.140975822258
 30
0.0
 11
10434.6
 21
7872.140975822262
 31
0.0
  0
LINE
  5
20415
330
747D
100
AcDbEntity
  8
部品1
 48
50.0
100
AcDbLine
 10
10034.6
 20
7872.140975822262
 30
0.0
 11
10434.6
 21
7872.140975822262
 31
0.0
  0
LINE
  5
20416
330
747D
100
AcDbEntity
  8
部品1
 48
50.0
100
AcDbLine
 10
10034.6
 20
7672.140975822262
 30
0.0
 11
10434.6
 21
7672.140975822262
 31
0.0
  0
LINE
  5
20417
330
747D
100
AcDbEntity
  8
部品1
 48
50.0
100
AcDbLine
 10
10034.6
 20
7672.140975822262
 30
0.0
 11
10034.6
 21
7872.140975822262
 31
0.0
  0
LINE
  5
20418
330
747D
100
AcDbEntity
  8
部品1
 48
50.0
100
AcDbLine
 10
10434.6
 20
7672.140975822262
 30
0.0
 11
10434.6
 21
7872.140975822262
 31
0.0
  0
LINE
  5
20419
330
747D
100
AcDbEntity
  8
点線
 48
10.0
100
AcDbLine
 10
10334.6
 20
7972.140975822262
 30
0.0
 11
10534.6
 21
7972.140975822262
 31
0.0
  0
LINE
  5
2041A
330
747D
100
AcDbEntity
  8
点線
 48
10.0
100
AcDbLine
 10
10334.6
 20
7772.140975822262
 30
0.0
 11
10534.6
 21
7772.140975822262
 31
0.0
  0
LINE
  5
2041B
330
747D
100
AcDbEntity
  8
点線
 48
10.0
100
AcDbLine
 10
10334.6
 20
7772.140975822262
 30
0.0
 11
10334.6
 21
7972.140975822262
 31
0.0
  0
LINE
  5
2041C
330
747D
100
AcDbEntity
  8
点線
 48
10.0
100
AcDbLine
 10
10534.6
 20
7772.140975822262
 30
0.0
 11
10534.6
 21
7972.140975822262
 31
0.0
  0
TEXT
  5
20A95
330
747D
100
AcDbEntity
  8
寸法
 48
50.0
100
AcDbText
 10
7011.638962405148
 20
5897.580815177987
 30
0.0
 40
96.0
  1
扉面
  7
STYLE1
100
AcDbText
  0
DIMENSION
  5
20AC9
330
747D
100
AcDbEntity
  8
寸法
 48
50.0
100
AcDbDimension
  2
*D28
 10
8641.775670520978
 20
6080.140975822265
 30
0.0
 11
8641.775670520976
 21
5471.655694448026
 31
0.0
 70
   160
  1
扉の出<>
 71
     5
 42
75.00000000000182
  3
INABA_S40G
100
AcDbAlignedDimension
 13
8174.600000000001
 23
6005.140975822263
 33
0.0
 14
8174.600000000003
 24
6080.140975822265
 34
0.0
 50
90.0
100
AcDbRotatedDimension
1001
ACAD
1000
DSTYLE
1002
{
1070
   341
1005
0
1002
}
  0
HATCH
  5
20F49
330
747D
100
AcDbEntity
  8
寸法
 48
50.0
100
AcDbHatch
 10
0.0
 20
0.0
 30
0.0
210
0.0
220
0.0
230
1.0
  2
DOTS
 70
     0
 71
     0
 91
        5
 92
        7
 72
     0
 73
     1
 93
        4
 10
7620.6
 20
6080.140975822265
 10
6988.600000000001
 20
6080.140975822264
 10
6988.600000000001
 20
6005.140975822263
 10
7620.6
 20
6005.140975822264
 97
        0
 92
        7
 72
     0
 73
     1
 93
        4
 10
8174.600000000001
 20
6080.140975822265
 10
7820.6
 20
6080.140975822264
 10
7820.600000000002
 20
6005.140975822265
 10
8174.600000000001
 20
6005.140975822265
 97
        0
 92
        7
 72
     0
 73
     1
 93
        4
 10
7820.6
 20
6080.140975822265
 10
7620.6
 20
6080.140975822265
 10
7620.6
 20
6005.140975822262
 10
7820.6
 20
6005.140975822262
 97
        0
 92
        7
 72
     0
 73
     1
 93
        4
 10
6988.600000000001
 20
6080.140975822263
 10
6788.600000000001
 20
6080.140975822263
 10
6788.600000000001
 20
6005.140975822262
 10
6988.600000000001
 20
6005.140975822262
 97
        0
 92
        7
 72
     0
 73
     1
 93
        4
 10
6788.600000000001
 20
6080.140975822263
 10
6056.6
 20
6080.140975822261
 10
6056.599999999999
 20
6005.140975822262
 10
6788.600000000001
 20
6005.140975822263
 97
        0
 75
     0
 76
     1
 52
0.0
 41
10.0
 77
     0
 78
     1
 53
0.0
 43
-1335.0
 44
377.4087803114453
 45
7.9375
 46
15.875
 79
     2
 49
0.0
 49
-15.875
 47
6.040334419946638
 98
        5
 10
7323.602207547352
 20
6050.541901837452
 10
7885.316193878586
 20
6031.732244992817
 10
7745.782016012505
 20
6031.732244992817
 10
6917.687669110404
 20
6045.914789484239
 10
6659.904216863542
 20
6034.099583078467
  0
DIMENSION
  5
20F62
330
747D
100
AcDbEntity
  8
寸法
 48
50.0
100
AcDbDimension
  2
*D29
 10
5371.888116550751
 20
6020.140975822264
 30
0.0
 11
5371.88811655075
 21
6050.140975822263
 31
0.0
 70
   160
  1
b
 71
     5
 42
59.99999999999909
  3
INABA_S40G
100
AcDbAlignedDimension
 13
6012.6
 23
6080.140975822263
 33
0.0
 14
5962.6
 24
6020.140975822264
 34
0.0
 50
90.0
100
AcDbRotatedDimension
1001
ACAD
1000
DSTYLE
1002
{
1070
   174
1070
     0
1070
   272
1070
     1
1070
   288
1070
     0
1070
   341
1005
0
1002
}
  0
DIMENSION
  5
20F92
330
747D
100
AcDbEntity
  8
寸法
 48
50.0
100
AcDbDimension
  2
*D30
 10
5371.888116550752
 20
7872.140975822262
 30
0.0
 11
5371.888116550751
 21
7912.140975822264
 31
0.0
 70
   160
  1
c
 71
     5
 42
80.00000000000182
  3
INABA_S40G
100
AcDbAlignedDimension
 13
5962.600000000001
 23
7952.140975822263
 33
0.0
 14
6012.6
 24
7872.140975822262
 34
0.0
 50
90.0
100
AcDbRotatedDimension
1001
ACAD
1000
DSTYLE
1002
{
1070
   174
1070
     0
1070
   272
1070
     1
1070
   288
1070
     0
1070
   341
1005
0
1002
}
  0
DIMENSION
  5
20FBA
330
747D
100
AcDbEntity
  8
寸法
 48
50.0
100
AcDbDimension
  2
*D31
 10
6012.600000000002
 20
8464.553563493883
 30
0.0
 11
5987.600000000003
 21
8464.553563493883
 31
0.0
 70
   160
  1
a
 71
     5
 42
50.00000000000091
  3
INABA_S40G
100
AcDbAlignedDimension
 13
5962.600000000001
 23
7952.140975822259
 33
0.0
 14
6012.600000000002
 24
7872.140975822261
 34
0.0
100
AcDbRotatedDimension
1001
ACAD
1000
DSTYLE
1002
{
1070
   174
1070
     0
1070
   272
1070
     1
1070
   288
1070
     0
1070
   341
1005
0
1002
}
  0
DIMENSION
  5
20FEA
330
747D
100
AcDbEntity
  8
寸法
 48
50.0
100
AcDbDimension
  2
*D32
 10
10484.59999999999
 20
8464.553563493883
 30
0.0
 11
10459.59999999999
 21
8464.553563493883
 31
0.0
 70
   160
  1
a
 71
     5
 42
49.99999999999454
  3
INABA_S40G
100
AcDbAlignedDimension
 13
10434.6
 23
7872.140975822261
 33
0.0
 14
10484.59999999999
 24
7952.140975822262
 34
0.0
100
AcDbRotatedDimension
1001
ACAD
1000
DSTYLE
1002
{
1070
   174
1070
     0
1070
   272
1070
     1
1070
   288
1070
     0
1070
   341
1005
0
1002
}
  0
LINE
  5
21385
330
747D
100
AcDbEntity
  8
部品1
 48
50.0
100
AcDbLine
 10
9083.599999999995
 20
7872.140975822262
 30
0.0
 11
8883.599999999995
 21
7872.140975822262
 31
0.0
  0
LINE
  5
21386
330
747D
100
AcDbEntity
  8
部品1
 48
50.0
100
AcDbLine
 10
9083.599999999995
 20
7672.140975822262
 30
0.0
 11
8883.599999999995
 21
7672.140975822262
 31
0.0
  0
LINE
  5
21387
330
747D
100
AcDbEntity
  8
部品1
 48
50.0
100
AcDbLine
 10
8883.599999999995
 20
7672.140975822265
 30
0.0
 11
8883.599999999995
 21
7872.140975822265
 31
0.0
  0
LINE
  5
21388
330
747D
100
AcDbEntity
  8
部品1
 48
50.0
100
AcDbLine
 10
9083.599999999995
 20
7672.140975822265
 30
0.0
 11
9083.599999999995
 21
7872.140975822265
 31
0.0
  0
LINE
  5
21389
330
747D
100
AcDbEntity
  8
点線
 48
10.0
100
AcDbLine
 10
8323.599999999998
 20
7772.14097582226
 30
0.0
 11
8323.599999999998
 21
7972.14097582226
 31
0.0
  0
LINE
  5
2138A
330
747D
100
AcDbEntity
  8
部品1
 48
50.0
100
AcDbLine
 10
8423.599999999998
 20
7872.140975822261
 30
0.0
 11
8423.599999999998
 21
7672.14097582226
 31
0.0
  0
LINE
  5
2138B
330
747D
100
AcDbEntity
  8
点線
 48
10.0
100
AcDbLine
 10
8123.599999999999
 20
7772.14097582226
 30
0.0
 11
8123.599999999999
 21
7972.14097582226
 31
0.0
  0
LINE
  5
2138C
330
747D
100
AcDbEntity
  8
部品1
 48
50.0
100
AcDbLine
 10
8023.6
 20
7872.140975822261
 30
0.0
 11
8023.6
 21
7672.14097582226
 31
0.0
  0
LINE
  5
21391
330
747D
100
AcDbEntity
  8
部品1
 48
50.0
100
AcDbLine
 10
8323.599999999998
 20
7872.140975822261
 30
0.0
 11
8123.599999999999
 21
7872.140975822261
 31
0.0
  0
LINE
  5
21392
330
747D
100
AcDbEntity
  8
部品1
 48
50.0
100
AcDbLine
 10
8023.6
 20
7672.140975822265
 30
0.0
 11
8423.599999999998
 21
7672.14097582226
 31
0.0
  0
LINE
  5
21393
330
747D
100
AcDbEntity
  8
部品1
 48
50.0
100
AcDbLine
 10
8023.6
 20
7872.140975822261
 30
0.0
 11
8423.599999999998
 21
7872.140975822261
 31
0.0
  0
LINE
  5
21394
330
747D
100
AcDbEntity
  8
点線
 48
10.0
100
AcDbLine
 10
8123.599999999999
 20
7772.14097582226
 30
0.0
 11
8323.599999999998
 21
7772.14097582226
 31
0.0
  0
LINE
  5
21395
330
747D
100
AcDbEntity
  8
点線
 48
10.0
100
AcDbLine
 10
8123.599999999999
 20
7972.14097582226
 30
0.0
 11
8323.599999999998
 21
7972.14097582226
 31
0.0
  0
LINE
  5
2139A
330
747D
100
AcDbEntity
  8
部品1
 48
50.0
100
AcDbLine
 10
9083.599999999995
 20
7076.140975822259
 30
0.0
 11
8883.599999999995
 21
7076.140975822259
 31
0.0
  0
LINE
  5
2139B
330
747D
100
AcDbEntity
  8
部品1
 48
50.0
100
AcDbLine
 10
9083.599999999995
 20
6876.140975822258
 30
0.0
 11
8883.599999999995
 21
6876.140975822258
 31
0.0
  0
LINE
  5
2139C
330
747D
100
AcDbEntity
  8
部品1
 48
50.0
100
AcDbLine
 10
9083.599999999995
 20
6876.140975822261
 30
0.0
 11
9083.599999999995
 21
7076.140975822261
 31
0.0
  0
LINE
  5
2139D
330
747D
100
AcDbEntity
  8
部品1
 48
50.0
100
AcDbLine
 10
8883.599999999995
 20
6876.140975822261
 30
0.0
 11
8883.599999999995
 21
7076.140975822261
 31
0.0
  0
LINE
  5
2139E
330
747D
100
AcDbEntity
  8
部品1
 48
50.0
100
AcDbLine
 10
8323.599999999998
 20
6876.140975822261
 30
0.0
 11
8323.599999999998
 21
7076.140975822261
 31
0.0
  0
LINE
  5
2139F
330
747D
100
AcDbEntity
  8
部品1
 48
50.0
100
AcDbLine
 10
8123.599999999999
 20
6876.140975822261
 30
0.0
 11
8123.599999999999
 21
7076.140975822261
 31
0.0
  0
LINE
  5
213A0
330
747D
100
AcDbEntity
  8
部品1
 48
50.0
100
AcDbLine
 10
8323.599999999998
 20
7076.140975822257
 30
0.0
 11
8123.599999999999
 21
7076.140975822257
 31
0.0
  0
LINE
  5
213A1
330
747D
100
AcDbEntity
  8
部品1
 48
50.0
100
AcDbLine
 10
8323.599999999998
 20
6876.140975822257
 30
0.0
 11
8123.599999999999
 21
6876.140975822257
 31
0.0
  0
LINE
  5
213A6
330
747D
100
AcDbEntity
  8
部品1
 48
50.0
100
AcDbLine
 10
8423.599999999998
 20
6280.140975822259
 30
0.0
 11
8423.599999999998
 21
6080.140975822259
 31
0.0
  0
LINE
  5
213A7
330
747D
100
AcDbEntity
  8
点線
 48
10.0
100
AcDbLine
 10
8323.599999999998
 20
6180.140975822253
 30
0.0
 11
8323.599999999998
 21
5980.140975822253
 31
0.0
  0
LINE
  5
213A8
330
747D
100
AcDbEntity
  8
部品1
 48
50.0
100
AcDbLine
 10
8023.6
 20
6280.140975822259
 30
0.0
 11
8023.6
 21
6080.140975822259
 31
0.0
  0
LINE
  5
213A9
330
747D
100
AcDbEntity
  8
点線
 48
10.0
100
AcDbLine
 10
8123.599999999999
 20
6180.140975822253
 30
0.0
 11
8123.599999999999
 21
5980.140975822253
 31
0.0
  0
LINE
  5
213AB
330
747D
100
AcDbEntity
  8
部品1
 48
50.0
100
AcDbLine
 10
8323.599999999998
 20
6080.140975822261
 30
0.0
 11
8123.599999999999
 21
6080.140975822261
 31
0.0
  0
LINE
  5
213AC
330
747D
100
AcDbEntity
  8
部品1
 48
50.0
100
AcDbLine
 10
8023.6
 20
6280.140975822259
 30
0.0
 11
8423.599999999998
 21
6280.140975822259
 31
0.0
  0
LINE
  5
213AD
330
747D
100
AcDbEntity
  8
部品1
 48
50.0
100
AcDbLine
 10
8023.6
 20
6080.140975822263
 30
0.0
 11
8423.599999999998
 21
6080.140975822259
 31
0.0
  0
LINE
  5
213AE
330
747D
100
AcDbEntity
  8
点線
 48
10.0
100
AcDbLine
 10
8123.599999999999
 20
6180.140975822253
 30
0.0
 11
8323.599999999998
 21
6180.140975822253
 31
0.0
  0
LINE
  5
213AF
330
747D
100
AcDbEntity
  8
点線
 48
10.0
100
AcDbLine
 10
8123.599999999999
 20
5980.140975822253
 30
0.0
 11
8323.599999999998
 21
5980.140975822253
 31
0.0
  0
LINE
  5
213B0
330
747D
100
AcDbEntity
  8
部品1
 48
50.0
100
AcDbLine
 10
9083.599999999995
 20
6080.140975822265
 30
0.0
 11
9083.599999999995
 21
6280.140975822265
 31
0.0
  0
LINE
  5
213B1
330
747D
100
AcDbEntity
  8
部品1
 48
50.0
100
AcDbLine
 10
8883.599999999995
 20
6080.140975822265
 30
0.0
 11
8883.599999999995
 21
6280.140975822265
 31
0.0
  0
LINE
  5
213B2
330
747D
100
AcDbEntity
  8
部品1
 48
50.0
100
AcDbLine
 10
9083.599999999995
 20
6080.140975822262
 30
0.0
 11
8883.599999999995
 21
6080.140975822262
 31
0.0
  0
LINE
  5
213B3
330
747D
100
AcDbEntity
  8
部品1
 48
50.0
100
AcDbLine
 10
9083.599999999995
 20
6280.140975822262
 30
0.0
 11
8883.599999999995
 21
6280.140975822262
 31
0.0
  0
DIMENSION
  5
21B2B
330
747D
100
AcDbEntity
  8
寸法
 48
50.0
100
AcDbDimension
  2
*D37
 10
9674.599999999996
 20
8218.153535465404
 30
0.0
 11
10054.59999999999
 21
8318.153535465404
 31
0.0
 70
    32
 71
     5
 42
759.9999999999981
  3
INABA_S40G
100
AcDbAlignedDimension
 13
10434.59999999999
 23
7872.140975822262
 33
0.0
 14
9674.599999999996
 24
7872.140975822262
 34
0.0
100
AcDbRotatedDimension
1001
ACAD
1000
DSTYLE
1002
{
1070
   174
1070
     0
1070
   272
1070
     1
1070
   288
1070
     0
1070
   341
1005
0
1002
}
  0
DIMENSION
  5
21B2C
330
747D
100
AcDbEntity
  8
寸法
 48
50.0
100
AcDbDimension
  2
*D35
 10
8983.599999999995
 20
8218.153535465404
 30
0.0
 11
9329.099999999995
 21
8318.153535465404
 31
0.0
 70
    32
 71
     5
 42
691.0
  3
INABA_S40G
100
AcDbAlignedDimension
 13
9674.599999999996
 23
7872.140975822262
 33
0.0
 14
8983.599999999995
 24
7872.140975822262
 34
0.0
100
AcDbRotatedDimension
1001
ACAD
1000
DSTYLE
1002
{
1070
   174
1070
     0
1070
   272
1070
     1
1070
   288
1070
     0
1070
   341
1005
0
1002
}
  0
DIMENSION
  5
21B2D
330
747D
100
AcDbEntity
  8
寸法
 48
50.0
100
AcDbDimension
  2
*D36
 10
8223.599999999997
 20
8218.153535465404
 30
0.0
 11
8603.599999999994
 21
8318.153535465404
 31
0.0
 70
    32
 71
     5
 42
759.9999999999981
  3
INABA_S40G
100
AcDbAlignedDimension
 13
8983.599999999995
 23
7872.140975822262
 33
0.0
 14
8223.599999999997
 24
7872.140975822262
 34
0.0
100
AcDbRotatedDimension
1001
ACAD
1000
DSTYLE
1002
{
1070
   174
1070
     0
1070
   272
1070
     1
1070
   288
1070
     0
1070
   341
1005
0
1002
}
  0
DIMENSION
  5
21B2E
330
747D
100
AcDbEntity
  8
寸法
 48
50.0
100
AcDbDimension
  2
*D38
 10
7463.599999999998
 20
8218.153535465404
 30
0.0
 11
7843.599999999998
 21
8318.153535465404
 31
0.0
 70
    32
 71
     5
 42
759.9999999999981
  3
INABA_S40G
100
AcDbAlignedDimension
 13
8223.599999999997
 23
7872.140975822262
 33
0.0
 14
7463.599999999998
 24
7872.140975822262
 34
0.0
100
AcDbRotatedDimension
1001
ACAD
1000
DSTYLE
1002
{
1070
   174
1070
     0
1070
   272
1070
     1
1070
   288
1070
     0
1070
   341
1005
0
1002
}
  0
DIMENSION
  5
21B2F
330
747D
100
AcDbEntity
  8
寸法
 48
50.0
100
AcDbDimension
  2
*D34
 10
6772.599999999998
 20
8218.153535465404
 30
0.0
 11
7118.099999999998
 21
8318.153535465404
 31
0.0
 70
    32
 71
     5
 42
691.0
  3
INABA_S40G
100
AcDbAlignedDimension
 13
7463.599999999998
 23
7872.140975822262
 33
0.0
 14
6772.599999999998
 24
7872.140975822262
 34
0.0
100
AcDbRotatedDimension
1001
ACAD
1000
DSTYLE
1002
{
1070
   174
1070
     0
1070
   272
1070
     1
1070
   288
1070
     0
1070
   341
1005
0
1002
}
  0
DIMENSION
  5
21B30
330
747D
100
AcDbEntity
  8
寸法
 48
50.0
100
AcDbDimension
  2
*D33
 10
6012.6
 20
8218.153535465404
 30
0.0
 11
6392.599999999999
 21
8318.153535465404
 31
0.0
 70
    32
 71
     5
 42
759.9999999999981
  3
INABA_S40G
100
AcDbAlignedDimension
 13
6772.599999999998
 23
7872.140975822262
 33
0.0
 14
6012.6
 24
7872.140975822262
 34
0.0
100
AcDbRotatedDimension
1001
ACAD
1000
DSTYLE
1002
{
1070
   174
1070
     0
1070
   272
1070
     1
1070
   288
1070
     0
1070
   341
1005
0
1002
}
  0
LINE
  5
21BAF
330
747D
100
AcDbEntity
  8
部品1
 48
50.0
100
AcDbLine
 10
9774.599999999995
 20
6280.140975822262
 30
0.0
 11
9574.599999999994
 21
6280.140975822262
 31
0.0
  0
LINE
  5
21BB0
330
747D
100
AcDbEntity
  8
部品1
 48
50.0
100
AcDbLine
 10
9774.599999999995
 20
6080.140975822262
 30
0.0
 11
9574.599999999994
 21
6080.140975822262
 31
0.0
  0
LINE
  5
21BB1
330
747D
100
AcDbEntity
  8
部品1
 48
50.0
100
AcDbLine
 10
9574.599999999994
 20
6080.140975822265
 30
0.0
 11
9574.599999999994
 21
6280.140975822265
 31
0.0
  0
LINE
  5
21BB2
330
747D
100
AcDbEntity
  8
部品1
 48
50.0
100
AcDbLine
 10
9774.599999999995
 20
6080.140975822265
 30
0.0
 11
9774.599999999995
 21
6280.140975822265
 31
0.0
  0
LINE
  5
21BB3
330
747D
100
AcDbEntity
  8
部品1
 48
50.0
100
AcDbLine
 10
9574.599999999994
 20
6876.140975822261
 30
0.0
 11
9574.599999999994
 21
7076.140975822261
 31
0.0
  0
LINE
  5
21BB4
330
747D
100
AcDbEntity
  8
部品1
 48
50.0
100
AcDbLine
 10
9774.599999999995
 20
6876.140975822261
 30
0.0
 11
9774.599999999995
 21
7076.140975822261
 31
0.0
  0
LINE
  5
21BB5
330
747D
100
AcDbEntity
  8
部品1
 48
50.0
100
AcDbLine
 10
9774.599999999995
 20
6876.140975822258
 30
0.0
 11
9574.599999999994
 21
6876.140975822258
 31
0.0
  0
LINE
  5
21BB6
330
747D
100
AcDbEntity
  8
部品1
 48
50.0
100
AcDbLine
 10
9774.599999999995
 20
7076.140975822259
 30
0.0
 11
9574.599999999994
 21
7076.140975822259
 31
0.0
  0
LINE
  5
21BB7
330
747D
100
AcDbEntity
  8
部品1
 48
50.0
100
AcDbLine
 10
9774.599999999995
 20
7672.140975822265
 30
0.0
 11
9774.599999999995
 21
7872.140975822265
 31
0.0
  0
LINE
  5
21BB8
330
747D
100
AcDbEntity
  8
部品1
 48
50.0
100
AcDbLine
 10
9574.599999999994
 20
7672.140975822265
 30
0.0
 11
9574.599999999994
 21
7872.140975822265
 31
0.0
  0
LINE
  5
21BB9
330
747D
100
AcDbEntity
  8
部品1
 48
50.0
100
AcDbLine
 10
9774.599999999995
 20
7672.140975822262
 30
0.0
 11
9574.599999999994
 21
7672.140975822262
 31
0.0
  0
LINE
  5
21BBA
330
747D
100
AcDbEntity
  8
部品1
 48
50.0
100
AcDbLine
 10
9774.599999999995
 20
7872.140975822262
 30
0.0
 11
9574.599999999994
 21
7872.140975822262
 31
0.0
  0
LINE
  5
21BBB
330
747D
100
AcDbEntity
  8
部品1
 48
50.0
100
AcDbLine
 10
7563.599999999998
 20
7872.140975822262
 30
0.0
 11
7363.599999999998
 21
7872.140975822262
 31
0.0
  0
LINE
  5
21BBC
330
747D
100
AcDbEntity
  8
部品1
 48
50.0
100
AcDbLine
 10
7563.599999999998
 20
7672.140975822262
 30
0.0
 11
7363.599999999998
 21
7672.140975822262
 31
0.0
  0
LINE
  5
21BBD
330
747D
100
AcDbEntity
  8
部品1
 48
50.0
100
AcDbLine
 10
7363.599999999998
 20
7672.140975822265
 30
0.0
 11
7363.599999999998
 21
7872.140975822265
 31
0.0
  0
LINE
  5
21BBE
330
747D
100
AcDbEntity
  8
部品1
 48
50.0
100
AcDbLine
 10
7563.599999999998
 20
7672.140975822265
 30
0.0
 11
7563.599999999998
 21
7872.140975822265
 31
0.0
  0
LINE
  5
21BBF
330
747D
100
AcDbEntity
  8
部品1
 48
50.0
100
AcDbLine
 10
7563.599999999998
 20
7076.140975822259
 30
0.0
 11
7363.599999999998
 21
7076.140975822259
 31
0.0
  0
LINE
  5
21BC0
330
747D
100
AcDbEntity
  8
部品1
 48
50.0
100
AcDbLine
 10
7563.599999999998
 20
6876.140975822258
 30
0.0
 11
7363.599999999998
 21
6876.140975822258
 31
0.0
  0
LINE
  5
21BC1
330
747D
100
AcDbEntity
  8
部品1
 48
50.0
100
AcDbLine
 10
7563.599999999998
 20
6876.140975822261
 30
0.0
 11
7563.599999999998
 21
7076.140975822261
 31
0.0
  0
LINE
  5
21BC2
330
747D
100
AcDbEntity
  8
部品1
 48
50.0
100
AcDbLine
 10
7363.599999999998
 20
6876.140975822261
 30
0.0
 11
7363.599999999998
 21
7076.140975822261
 31
0.0
  0
LINE
  5
21BC3
330
747D
100
AcDbEntity
  8
部品1
 48
50.0
100
AcDbLine
 10
7563.599999999998
 20
6020.140975822264
 30
0.0
 11
7563.599999999998
 21
6220.140975822264
 31
0.0
  0
LINE
  5
21BC4
330
747D
100
AcDbEntity
  8
部品1
 48
50.0
100
AcDbLine
 10
7363.599999999998
 20
6020.140975822264
 30
0.0
 11
7363.599999999998
 21
6220.140975822264
 31
0.0
  0
LINE
  5
21BC5
330
747D
100
AcDbEntity
  8
部品1
 48
50.0
100
AcDbLine
 10
7563.599999999998
 20
6020.14097582226
 30
0.0
 11
7363.599999999998
 21
6020.14097582226
 31
0.0
  0
LINE
  5
21BC6
330
747D
100
AcDbEntity
  8
部品1
 48
50.0
100
AcDbLine
 10
7563.599999999998
 20
6220.14097582226
 30
0.0
 11
7363.599999999998
 21
6220.14097582226
 31
0.0
  0
LINE
  5
21BC7
330
747D
100
AcDbEntity
  8
部品1
 48
50.0
100
AcDbLine
 10
6872.599999999998
 20
6220.14097582226
 30
0.0
 11
6672.599999999997
 21
6220.14097582226
 31
0.0
  0
LINE
  5
21BC8
330
747D
100
AcDbEntity
  8
部品1
 48
50.0
100
AcDbLine
 10
6872.599999999998
 20
6020.14097582226
 30
0.0
 11
6672.599999999997
 21
6020.14097582226
 31
0.0
  0
LINE
  5
21BC9
330
747D
100
AcDbEntity
  8
部品1
 48
50.0
100
AcDbLine
 10
6672.599999999997
 20
6020.140975822264
 30
0.0
 11
6672.599999999997
 21
6220.140975822264
 31
0.0
  0
LINE
  5
21BCA
330
747D
100
AcDbEntity
  8
部品1
 48
50.0
100
AcDbLine
 10
6872.599999999998
 20
6020.140975822264
 30
0.0
 11
6872.599999999998
 21
6220.140975822264
 31
0.0
  0
LINE
  5
21BCB
330
747D
100
AcDbEntity
  8
部品1
 48
50.0
100
AcDbLine
 10
6672.599999999999
 20
6876.140975822261
 30
0.0
 11
6672.599999999999
 21
7076.140975822261
 31
0.0
  0
LINE
  5
21BCC
330
747D
100
AcDbEntity
  8
部品1
 48
50.0
100
AcDbLine
 10
6872.599999999998
 20
6876.140975822261
 30
0.0
 11
6872.599999999998
 21
7076.140975822261
 31
0.0
  0
LINE
  5
21BCD
330
747D
100
AcDbEntity
  8
部品1
 48
50.0
100
AcDbLine
 10
6872.599999999998
 20
6876.140975822258
 30
0.0
 11
6672.599999999999
 21
6876.140975822258
 31
0.0
  0
LINE
  5
21BCE
330
747D
100
AcDbEntity
  8
部品1
 48
50.0
100
AcDbLine
 10
6872.599999999998
 20
7076.140975822259
 30
0.0
 11
6672.599999999999
 21
7076.140975822259
 31
0.0
  0
LINE
  5
21BCF
330
747D
100
AcDbEntity
  8
部品1
 48
50.0
100
AcDbLine
 10
6872.599999999998
 20
7672.140975822265
 30
0.0
 11
6872.599999999998
 21
7872.140975822265
 31
0.0
  0
LINE
  5
21BD0
330
747D
100
AcDbEntity
  8
部品1
 48
50.0
100
AcDbLine
 10
6672.599999999999
 20
7672.140975822265
 30
0.0
 11
6672.599999999999
 21
7872.140975822265
 31
0.0
  0
LINE
  5
21BD1
330
747D
100
AcDbEntity
  8
部品1
 48
50.0
100
AcDbLine
 10
6872.599999999998
 20
7672.140975822262
 30
0.0
 11
6672.599999999999
 21
7672.140975822262
 31
0.0
  0
LINE
  5
21BD2
330
747D
100
AcDbEntity
  8
部品1
 48
50.0
100
AcDbLine
 10
6872.599999999998
 20
7872.140975822262
 30
0.0
 11
6672.599999999999
 21
7872.140975822262
 31
0.0
  0
LINE
  5
2229A
330
747D
100
AcDbEntity
  8
部品1
100
AcDbLine
 10
6708.158960611777
 20
1140.760787611755
 30
0.0
 11
6708.158960611777
 21
1340.760787611761
 31
0.0
  0
CIRCLE
  5
2229B
330
747D
100
AcDbEntity
  8
部品1
100
AcDbCircle
 10
6427.158960611777
 20
1384.760787611757
 30
0.0
 40
12.8
  0
CIRCLE
  5
2229C
330
747D
100
AcDbEntity
  8
部品1
100
AcDbCircle
 10
6349.158960611777
 20
1384.760787611757
 30
0.0
 40
12.8
  0
LINE
  5
2229D
330
747D
100
AcDbEntity
  8
細線
100
AcDbLine
 10
6542.122696262492
 20
1140.760787611757
 30
0.0
 11
6442.158960611777
 21
1240.724523262473
 31
0.0
  0
LINE
  5
2229E
330
747D
100
AcDbEntity
  8
細線
100
AcDbLine
 10
6170.922696262489
 20
1140.760787611757
 30
0.0
 11
6068.158960611778
 21
1243.52452326247
 31
0.0
  0
LINE
  5
2229F
330
747D
100
AcDbEntity
  8
細線
100
AcDbLine
 10
6318.000906749293
 20
1140.760787611753
 30
0.0
 11
6118.000906749294
 21
1340.760787611761
 31
0.0
  0
LINE
  5
222A0
330
747D
100
AcDbEntity
  8
細線
100
AcDbLine
 10
6334.158960611778
 20
1158.543859246228
 30
0.0
 11
6151.942032246246
 21
1340.760787611761
 31
0.0
  0
LINE
  5
222A1
330
747D
100
AcDbEntity
  8
部品1
100
AcDbLine
 10
6068.158960611778
 20
1140.760787611755
 30
0.0
 11
6068.158960611778
 21
1340.760787611761
 31
0.0
  0
LINE
  5
222A2
330
747D
100
AcDbEntity
  8
細線
100
AcDbLine
 10
6136.981570765536
 20
1140.760787611757
 30
0.0
 11
6068.158960611778
 21
1209.583397765517
 31
0.0
  0
LINE
  5
222A3
330
747D
100
AcDbEntity
  8
細線
100
AcDbLine
 10
6508.181570765536
 20
1140.760787611757
 30
0.0
 11
6442.158960611777
 21
1206.783397765518
 31
0.0
  0
LINE
  5
222A4
330
747D
100
AcDbEntity
  8
部品1
100
AcDbLine
 10
7028.158960611778
 20
1440.760787611762
 30
0.0
 11
6498.158960611778
 21
1440.760787611762
 31
0.0
  0
LINE
  5
222A5
330
747D
100
AcDbEntity
  8
Ｇ．Ｌ
100
AcDbLine
 10
7137.098846832421
 20
1140.760787611759
 30
0.0
 11
6442.158960611777
 21
1140.760787611755
 31
0.0
  0
LINE
  5
222A6
330
747D
100
AcDbEntity
  8
部品1
100
AcDbLine
 10
7028.158960611778
 20
1434.760787611762
 30
0.0
 11
6442.158960611777
 21
1434.760787611762
 31
0.0
  0
LINE
  5
222A7
330
747D
100
AcDbEntity
  8
部品1
100
AcDbLine
 10
7028.158960611778
 20
1340.760787611761
 30
0.0
 11
6442.158960611777
 21
1340.760787611761
 31
0.0
  0
LINE
  5
222A8
330
747D
100
AcDbEntity
  8
細線
100
AcDbLine
 10
6689.200906749298
 20
1140.760787611753
 30
0.0
 11
6489.200906749291
 21
1340.760787611761
 31
0.0
  0
LINE
  5
222A9
330
747D
100
AcDbEntity
  8
細線
100
AcDbLine
 10
6708.158960611777
 20
1155.743859246227
 30
0.0
 11
6523.142032246247
 21
1340.760787611761
 31
0.0
  0
LINE
  5
222AA
330
747D
100
AcDbEntity
  8
部品1
100
AcDbLine
 10
6278.158960611781
 20
1940.760787611759
 30
0.0
 11
6278.158960611778
 21
1434.760787611762
 31
0.0
  0
LINE
  5
222AB
330
747D
100
AcDbEntity
  8
部品1
100
AcDbLine
 10
6498.158960611778
 20
1940.760787611759
 30
0.0
 11
6498.158960611778
 21
1434.760787611762
 31
0.0
  0
LINE
  5
222AC
330
747D
100
AcDbEntity
  8
Ｇ．Ｌ
100
AcDbLine
 10
5748.158960611778
 20
1140.760787611759
 30
0.0
 11
6334.158960611778
 21
1140.760787611755
 31
0.0
  0
LINE
  5
222AD
330
747D
100
AcDbEntity
  8
部品1
100
AcDbLine
 10
5748.158960611778
 20
1440.760787611762
 30
0.0
 11
6278.158960611778
 21
1440.760787611762
 31
0.0
  0
LINE
  5
222AE
330
747D
100
AcDbEntity
  8
部品1
100
AcDbLine
 10
5748.158960611778
 20
1340.760787611761
 30
0.0
 11
6334.158960611778
 21
1340.760787611761
 31
0.0
  0
LINE
  5
222AF
330
747D
100
AcDbEntity
  8
部品1
100
AcDbLine
 10
5748.158960611778
 20
1434.760787611762
 30
0.0
 11
6334.158960611778
 21
1434.760787611762
 31
0.0
  0
LINE
  5
222B0
330
747D
100
AcDbEntity
  8
細線
 48
50.0
100
AcDbLine
 10
5843.158960611777
 20
1940.760787611736
 30
0.0
 11
5843.158960611777
 21
1440.760787611738
 31
0.0
  0
LINE
  5
222B1
330
747D
100
AcDbEntity
  8
細線
 48
50.0
100
AcDbLine
 10
5873.158960611778
 20
1940.760787611736
 30
0.0
 11
5873.158960611778
 21
1440.760787611738
 31
0.0
  0
LINE
  5
222B2
330
747D
100
AcDbEntity
  8
細線
 48
50.0
100
AcDbLine
 10
6123.158960611778
 20
1940.760787611736
 30
0.0
 11
6123.158960611778
 21
1440.760787611738
 31
0.0
  0
LINE
  5
222B3
330
747D
100
AcDbEntity
  8
細線
 48
50.0
100
AcDbLine
 10
6153.158960611778
 20
1940.760787611736
 30
0.0
 11
6153.158960611778
 21
1440.760787611738
 31
0.0
  0
LINE
  5
222B4
330
747D
100
AcDbEntity
  8
細線
 48
50.0
100
AcDbLine
 10
6623.158960611781
 20
1940.760787611736
 30
0.0
 11
6623.158960611781
 21
1440.760787611738
 31
0.0
  0
LINE
  5
222B5
330
747D
100
AcDbEntity
  8
細線
 48
50.0
100
AcDbLine
 10
6653.158960611782
 20
1940.760787611736
 30
0.0
 11
6653.158960611782
 21
1440.760787611738
 31
0.0
  0
LINE
  5
222B6
330
747D
100
AcDbEntity
  8
細線
 48
50.0
100
AcDbLine
 10
6903.158960611782
 20
1940.760787611736
 30
0.0
 11
6903.158960611782
 21
1440.760787611738
 31
0.0
  0
LINE
  5
222B7
330
747D
100
AcDbEntity
  8
細線
 48
50.0
100
AcDbLine
 10
6933.158960611781
 20
1940.760787611736
 30
0.0
 11
6933.158960611781
 21
1440.760787611738
 31
0.0
  0
ARC
  5
222B8
330
747D
100
AcDbEntity
  8
部品1
100
AcDbCircle
 10
6432.158960611778
 20
1436.760787611755
 30
0.0
 40
10.0
100
AcDbArc
 50
0.0
 51
90.0
  0
ARC
  5
222B9
330
747D
100
AcDbEntity
  8
部品1
100
AcDbCircle
 10
6344.158960611778
 20
1436.760787611756
 30
0.0
 40
10.0
100
AcDbArc
 50
90.0
 51
180.0
  0
ARC
  5
222BA
330
747D
100
AcDbEntity
  8
部品1
100
AcDbCircle
 10
6427.158960611777
 20
1424.760787611756
 30
0.0
 40
8.0
100
AcDbArc
 50
0.0
 51
180.0
  0
LINE
  5
222BB
330
747D
100
AcDbEntity
  8
部品1
100
AcDbLine
 10
6435.158960611778
 20
1424.760787611756
 30
0.0
 11
6435.158960611778
 21
1394.752784409196
 31
0.0
  0
LINE
  5
222BC
330
747D
100
AcDbEntity
  8
部品1
100
AcDbLine
 10
6419.158960611778
 20
1424.760787611756
 30
0.0
 11
6419.158960611778
 21
1394.752784409196
 31
0.0
  0
LINE
  5
222BD
330
747D
100
AcDbEntity
  8
部品1
100
AcDbLine
 10
6432.158960611778
 20
1446.760787611755
 30
0.0
 11
6344.158960611778
 21
1446.760787611756
 31
0.0
  0
LINE
  5
222BE
330
747D
100
AcDbEntity
  8
部品1
100
AcDbLine
 10
6334.158960611778
 20
1436.760787611756
 30
0.0
 11
6334.158960611778
 21
1140.760787611755
 31
0.0
  0
LINE
  5
222BF
330
747D
100
AcDbEntity
  8
部品1
100
AcDbLine
 10
6334.158960611778
 20
1140.760787611755
 30
0.0
 11
6442.158960611777
 21
1140.760787611755
 31
0.0
  0
LINE
  5
222C0
330
747D
100
AcDbEntity
  8
部品1
100
AcDbLine
 10
6442.158960611777
 20
1436.760787611755
 30
0.0
 11
6442.158960611777
 21
1140.760787611755
 31
0.0
  0
LINE
  5
222C1
330
747D
100
AcDbEntity
  8
部品1
100
AcDbLine
 10
6403.158960611778
 20
1354.760787611755
 30
0.0
 11
6373.158960611778
 21
1354.760787611755
 31
0.0
  0
LINE
  5
222C2
330
747D
100
AcDbEntity
  8
部品1
100
AcDbLine
 10
6403.158960611778
 20
1207.160787611755
 30
0.0
 11
6373.158960611778
 21
1207.160787611755
 31
0.0
  0
LINE
  5
222C3
330
747D
100
AcDbEntity
  8
部品1
100
AcDbLine
 10
6334.158960611778
 20
1152.760787611755
 30
0.0
 11
6442.158960611777
 21
1152.760787611755
 31
0.0
  0
LINE
  5
222C4
330
747D
100
AcDbEntity
  8
部品1
100
AcDbLine
 10
6403.158960611778
 20
1213.160787611755
 30
0.0
 11
6373.158960611778
 21
1213.160787611755
 31
0.0
  0
LINE
  5
222C5
330
747D
100
AcDbEntity
  8
部品1
100
AcDbLine
 10
6403.158960611778
 20
1360.760787611755
 30
0.0
 11
6373.158960611778
 21
1360.760787611755
 31
0.0
  0
LINE
  5
222C6
330
747D
100
AcDbEntity
  8
部品1
100
AcDbLine
 10
6403.158960611778
 20
1360.760787611755
 30
0.0
 11
6403.158960611778
 21
1354.760787611755
 31
0.0
  0
LINE
  5
222C7
330
747D
100
AcDbEntity
  8
部品1
100
AcDbLine
 10
6373.158960611778
 20
1360.760787611755
 30
0.0
 11
6373.158960611778
 21
1354.760787611755
 31
0.0
  0
LINE
  5
222C8
330
747D
100
AcDbEntity
  8
部品1
100
AcDbLine
 10
6403.158960611778
 20
1213.160787611755
 30
0.0
 11
6403.158960611778
 21
1207.160787611755
 31
0.0
  0
LINE
  5
222C9
330
747D
100
AcDbEntity
  8
部品1
100
AcDbLine
 10
6373.158960611778
 20
1213.160787611755
 30
0.0
 11
6373.158960611778
 21
1207.160787611755
 31
0.0
  0
LINE
  5
222CA
330
747D
100
AcDbEntity
  8
部品1
100
AcDbLine
 10
6341.158960611778
 20
1424.760787611756
 30
0.0
 11
6341.158960611778
 21
1394.752784409194
 31
0.0
  0
LINE
  5
222CB
330
747D
100
AcDbEntity
  8
部品1
100
AcDbLine
 10
6357.158960611777
 20
1424.760787611756
 30
0.0
 11
6357.158960611777
 21
1394.752784409194
 31
0.0
  0
ARC
  5
222CC
330
747D
100
AcDbEntity
  8
部品1
100
AcDbCircle
 10
6349.158960611777
 20
1424.760787611756
 30
0.0
 40
8.0
100
AcDbArc
 50
0.0
 51
180.0
  0
LINE
  5
222CD
330
747D
100
AcDbEntity
  8
細線
 48
10.0
100
AcDbLine
 10
6723.668941947522
 20
826.4425902724715
 30
0.0
 11
7030.5871392868
 21
1133.360787611755
 31
0.0
  0
LINE
  5
222CE
330
747D
100
AcDbEntity
  8
細線
 48
10.0
100
AcDbLine
 10
6751.953213194986
 20
826.4425902724715
 30
0.0
 11
7058.871410534258
 21
1133.360787611755
 31
0.0
  0
LINE
  5
222CF
330
747D
100
AcDbEntity
  8
細線
 48
10.0
100
AcDbLine
 10
6780.237484442449
 20
826.4425902724715
 30
0.0
 11
7087.155681781725
 21
1133.360787611755
 31
0.0
  0
LINE
  5
222D0
330
747D
100
AcDbEntity
  8
部品1
100
AcDbLine
 10
6393.57734163609
 20
1081.97491833994
 30
0.0
 11
6401.488832459036
 21
1083.161641963382
 31
0.0
  0
LINE
  5
222D1
330
747D
100
AcDbEntity
  8
部品1
100
AcDbLine
 10
6394.467384353673
 20
1076.041300222731
 30
0.0
 11
6402.378875176619
 21
1077.228023846174
 31
0.0
  0
LINE
  5
222D2
330
747D
100
AcDbEntity
  8
部品1
100
AcDbLine
 10
6395.357427071249
 20
1070.107682105522
 30
0.0
 11
6403.268917894202
 21
1071.294405728965
 31
0.0
  0
LINE
  5
222D3
330
747D
100
AcDbEntity
  8
部品1
100
AcDbLine
 10
6374.82908876452
 20
1083.161641963382
 30
0.0
 11
6382.740579587466
 21
1081.97491833994
 31
0.0
  0
LINE
  5
222D4
330
747D
100
AcDbEntity
  8
部品1
100
AcDbLine
 10
6373.939046046936
 20
1077.228023846174
 30
0.0
 11
6381.850536869883
 21
1076.041300222731
 31
0.0
  0
LINE
  5
222D5
330
747D
100
AcDbEntity
  8
部品1
100
AcDbLine
 10
6373.049003329361
 20
1071.294405728965
 30
0.0
 11
6380.960494152307
 21
1070.107682105522
 31
0.0
  0
LINE
  5
222D6
330
747D
100
AcDbEntity
  8
部品1
100
AcDbLine
 10
6396.247469788832
 20
1064.174063988316
 30
0.0
 11
6404.158960611778
 21
1065.360787611756
 31
0.0
  0
LINE
  5
222D7
330
747D
100
AcDbEntity
  8
部品1
100
AcDbLine
 10
6372.158960611778
 20
1065.360787611756
 30
0.0
 11
6380.070451434724
 21
1064.174063988316
 31
0.0
  0
LINE
  5
222D8
330
747D
100
AcDbEntity
  8
部品1
100
AcDbLine
 10
6396.247469788832
 20
1064.174063988316
 30
0.0
 11
6390.069461245316
 21
1105.360787611756
 31
0.0
  0
LINE
  5
222D9
330
747D
100
AcDbEntity
  8
部品1
100
AcDbLine
 10
6386.24845997824
 20
1105.360787611756
 30
0.0
 11
6380.070451434724
 21
1064.174063988316
 31
0.0
  0
LINE
  5
222DA
330
747D
100
AcDbEntity
  8
部品1
100
AcDbLine
 10
6404.158960611778
 20
1065.360787611756
 30
0.0
 11
6398.158960611778
 21
1105.360787611756
 31
0.0
  0
LINE
  5
222DB
330
747D
100
AcDbEntity
  8
部品1
100
AcDbLine
 10
6378.158960611777
 20
1105.360787611756
 30
0.0
 11
6372.158960611778
 21
1065.360787611756
 31
0.0
  0
LINE
  5
222DC
330
747D
100
AcDbEntity
  8
細線
 48
10.0
100
AcDbLine
 10
5712.904527368188
 20
1067.369071004165
 30
0.0
 11
5778.896243975775
 21
1133.360787611755
 31
0.0
  0
LINE
  5
222DD
330
747D
100
AcDbEntity
  8
細線
 48
10.0
100
AcDbLine
 10
5712.904527368188
 20
1039.084799756706
 30
0.0
 11
5807.180515223226
 21
1133.360787611755
 31
0.0
  0
LINE
  5
222DE
330
747D
100
AcDbEntity
  8
細線
 48
10.0
100
AcDbLine
 10
5926.920706736805
 20
826.4425902724715
 30
0.0
 11
6233.838904076066
 21
1133.360787611755
 31
0.0
  0
LINE
  5
222DF
330
747D
100
AcDbEntity
  8
細線
 48
10.0
100
AcDbLine
 10
5870.352164241882
 20
826.4425902724715
 30
0.0
 11
6177.270361581158
 21
1133.360787611755
 31
0.0
  0
LINE
  5
222E0
330
747D
100
AcDbEntity
  8
細線
 48
10.0
100
AcDbLine
 10
5898.636435489345
 20
826.4425902724715
 30
0.0
 11
6205.554632828615
 21
1133.360787611755
 31
0.0
  0
LINE
  5
222E1
330
747D
100
AcDbEntity
  8
細線
 48
10.0
100
AcDbLine
 10
6353.57909558963
 20
826.4425902724715
 30
0.0
 11
6660.497292928908
 21
1133.360787611755
 31
0.0
  0
LINE
  5
222E2
330
747D
100
AcDbEntity
  8
細線
 48
10.0
100
AcDbLine
 10
6297.010553094708
 20
826.4425902724715
 30
0.0
 11
6603.928750433981
 21
1133.360787611755
 31
0.0
  0
LINE
  5
222E3
330
747D
100
AcDbEntity
  8
細線
 48
10.0
100
AcDbLine
 10
6325.294824342167
 20
826.4425902724715
 30
0.0
 11
6632.21302168144
 21
1133.360787611755
 31
0.0
  0
LINE
  5
222E4
330
747D
100
AcDbEntity
  8
細線
 48
10.0
100
AcDbLine
 10
5712.904527368184
 20
1095.653342251621
 30
0.0
 11
5750.611972728322
 21
1133.360787611755
 31
0.0
  0
LINE
  5
222E5
330
747D
100
AcDbEntity
  8
部品1
100
AcDbLine
 10
6390.907213483348
 20
1099.775772691569
 30
0.0
 11
6398.818704306293
 21
1100.962496315012
 31
0.0
  0
LINE
  5
222E6
330
747D
100
AcDbEntity
  8
部品1
100
AcDbLine
 10
6391.797256200931
 20
1093.842154574359
 30
0.0
 11
6399.708747023876
 21
1095.028878197802
 31
0.0
  0
LINE
  5
222E7
330
747D
100
AcDbEntity
  8
部品1
100
AcDbLine
 10
6392.687298918514
 20
1087.908536457153
 30
0.0
 11
6400.59878974146
 21
1089.095260080593
 31
0.0
  0
LINE
  5
222E8
330
747D
100
AcDbEntity
  8
部品1
100
AcDbLine
 10
6377.499216917262
 20
1100.962496315012
 30
0.0
 11
6385.410707740208
 21
1099.775772691569
 31
0.0
  0
LINE
  5
222E9
330
747D
100
AcDbEntity
  8
部品1
100
AcDbLine
 10
6376.609174199678
 20
1095.028878197802
 30
0.0
 11
6384.520665022624
 21
1093.842154574359
 31
0.0
  0
LINE
  5
222EA
330
747D
100
AcDbEntity
  8
部品1
100
AcDbLine
 10
6375.719131482103
 20
1089.095260080593
 30
0.0
 11
6383.630622305049
 21
1087.908536457153
 31
0.0
  0
LINE
  5
222EB
330
747D
100
AcDbEntity
  8
部品1
100
AcDbLine
 10
6386.24845997824
 20
1105.360787611756
 30
0.0
 11
6390.069461245316
 21
1105.360787611756
 31
0.0
  0
LINE
  5
222EC
330
747D
100
AcDbEntity
  8
部品1
100
AcDbLine
 10
6398.158960611778
 20
1140.760787611755
 30
0.0
 11
6398.158960611778
 21
1105.360787611756
 31
0.0
  0
LINE
  5
222ED
330
747D
100
AcDbEntity
  8
部品1
100
AcDbLine
 10
6378.158960611777
 20
1140.760787611755
 30
0.0
 11
6378.158960611777
 21
1105.360787611756
 31
0.0
  0
LINE
  5
222EE
330
747D
100
AcDbEntity
  8
部品1
100
AcDbLine
 10
6381.158960611777
 20
1201.013683635417
 30
0.0
 11
6395.158960611778
 21
1201.013683635417
 31
0.0
  0
LINE
  5
222EF
330
747D
100
AcDbEntity
  8
部品1
100
AcDbLine
 10
6395.158960611778
 20
1201.013683635417
 30
0.0
 11
6395.158960611778
 21
1205.013683635417
 31
0.0
  0
LINE
  5
222F0
330
747D
100
AcDbEntity
  8
部品1
100
AcDbLine
 10
6381.158960611777
 20
1201.013683635417
 30
0.0
 11
6381.158960611777
 21
1205.013683635417
 31
0.0
  0
LINE
  5
222F1
330
747D
100
AcDbEntity
  8
部品1
100
AcDbLine
 10
6393.158960611778
 20
1192.760787611757
 30
0.0
 11
6393.158960611778
 21
1201.013683635417
 31
0.0
  0
LINE
  5
222F2
330
747D
100
AcDbEntity
  8
部品1
100
AcDbLine
 10
6383.158960611778
 20
1192.760787611757
 30
0.0
 11
6383.158960611778
 21
1201.013683635417
 31
0.0
  0
LINE
  5
222F3
330
747D
100
AcDbEntity
  8
部品1
100
AcDbLine
 10
6381.158960611777
 20
1205.013683635417
 30
0.0
 11
6395.158960611778
 21
1205.013683635417
 31
0.0
  0
ARC
  5
222F4
330
747D
100
AcDbEntity
  8
部品1
100
AcDbCircle
 10
6388.158960611778
 20
1147.672154390938
 30
0.0
 40
23.33946124318486
100
AcDbArc
 50
64.63020194521516
 51
115.3697980547848
  0
ARC
  5
222F5
330
747D
100
AcDbEntity
  8
部品1
100
AcDbCircle
 10
6403.158960611778
 20
1164.246032821439
 30
0.0
 40
6.736691384996243
100
AcDbArc
 50
42.08048849859669
 51
137.9195115014033
  0
ARC
  5
222F6
330
747D
100
AcDbEntity
  8
部品1
100
AcDbCircle
 10
6373.158960611778
 20
1164.246032821439
 30
0.0
 40
6.736691384996243
100
AcDbArc
 50
42.08048849859669
 51
137.9195115014033
  0
LINE
  5
222F7
330
747D
100
AcDbEntity
  8
部品1
100
AcDbLine
 10
6368.158960611777
 20
1168.760787611757
 30
0.0
 11
6408.158960611777
 21
1168.760787611757
 31
0.0
  0
LINE
  5
222F8
330
747D
100
AcDbEntity
  8
部品1
100
AcDbLine
 10
6418.158960611778
 20
1152.760787611755
 30
0.0
 11
6418.158960611778
 21
1155.760787611764
 31
0.0
  0
LINE
  5
222F9
330
747D
100
AcDbEntity
  8
部品1
100
AcDbLine
 10
6405.158960611777
 20
1171.760787611757
 30
0.0
 11
6408.158960611777
 21
1168.760787611757
 31
0.0
  0
LINE
  5
222FA
330
747D
100
AcDbEntity
  8
部品1
100
AcDbLine
 10
6371.158960611777
 20
1171.760787611757
 30
0.0
 11
6368.158960611777
 21
1168.760787611757
 31
0.0
  0
LINE
  5
222FB
330
747D
100
AcDbEntity
  8
部品1
100
AcDbLine
 10
6408.158960611777
 20
1155.760787611761
 30
0.0
 11
6408.158960611777
 21
1168.760787611757
 31
0.0
  0
LINE
  5
222FC
330
747D
100
AcDbEntity
  8
部品1
100
AcDbLine
 10
6368.158960611777
 20
1155.760787611755
 30
0.0
 11
6368.158960611777
 21
1168.760787611757
 31
0.0
  0
LINE
  5
222FD
330
747D
100
AcDbEntity
  8
部品1
100
AcDbLine
 10
6371.158960611777
 20
1171.760787611757
 30
0.0
 11
6405.158960611777
 21
1171.760787611757
 31
0.0
  0
LINE
  5
222FE
330
747D
100
AcDbEntity
  8
部品1
100
AcDbLine
 10
6398.158960611778
 20
1155.760787611755
 30
0.0
 11
6398.158960611778
 21
1192.760787611757
 31
0.0
  0
LINE
  5
222FF
330
747D
100
AcDbEntity
  8
部品1
100
AcDbLine
 10
6378.158960611777
 20
1155.760787611755
 30
0.0
 11
6378.158960611777
 21
1192.760787611757
 31
0.0
  0
LINE
  5
22300
330
747D
100
AcDbEntity
  8
部品1
100
AcDbLine
 10
6378.158960611777
 20
1192.760787611757
 30
0.0
 11
6398.158960611778
 21
1192.760787611757
 31
0.0
  0
LINE
  5
22301
330
747D
100
AcDbEntity
  8
部品1
100
AcDbLine
 10
6403.158960611778
 20
1213.160787611755
 30
0.0
 11
6403.158960611778
 21
1207.160787611755
 31
0.0
  0
LINE
  5
22302
330
747D
100
AcDbEntity
  8
部品1
100
AcDbLine
 10
6373.158960611778
 20
1173.160787611759
 30
0.0
 11
6373.158960611778
 21
1171.760787611757
 31
0.0
  0
LINE
  5
22303
330
747D
100
AcDbEntity
  8
部品1
100
AcDbLine
 10
6373.158960611778
 20
1213.160787611758
 30
0.0
 11
6373.158960611778
 21
1207.160787611759
 31
0.0
  0
LINE
  5
22304
330
747D
100
AcDbEntity
  8
部品1
100
AcDbLine
 10
6373.158960611778
 20
1173.160787611759
 30
0.0
 11
6378.158960611777
 21
1173.160787611759
 31
0.0
  0
LINE
  5
22305
330
747D
100
AcDbEntity
  8
部品1
100
AcDbLine
 10
6373.158960611778
 20
1213.160787611758
 30
0.0
 11
6403.158960611778
 21
1213.160787611758
 31
0.0
  0
LINE
  5
22306
330
747D
100
AcDbEntity
  8
部品1
100
AcDbLine
 10
6373.158960611778
 20
1207.160787611759
 30
0.0
 11
6403.158960611778
 21
1207.160787611759
 31
0.0
  0
LINE
  5
22307
330
747D
100
AcDbEntity
  8
部品1
100
AcDbLine
 10
6358.158960611778
 20
1152.760787611755
 30
0.0
 11
6358.158960611778
 21
1155.760787611755
 31
0.0
  0
LINE
  5
22308
330
747D
100
AcDbEntity
  8
部品1
100
AcDbLine
 10
6358.158960611778
 20
1155.760787611755
 30
0.0
 11
6418.158960611778
 21
1155.760787611761
 31
0.0
  0
LINE
  5
22309
330
747D
100
AcDbEntity
  8
部品1
100
AcDbLine
 10
6398.158960611778
 20
1173.160787611759
 30
0.0
 11
6403.158960611778
 21
1173.160787611759
 31
0.0
  0
LINE
  5
2230A
330
747D
100
AcDbEntity
  8
部品1
100
AcDbLine
 10
6403.158960611778
 20
1173.160787611753
 30
0.0
 11
6403.158960611778
 21
1171.760787611757
 31
0.0
  0
LINE
  5
2230B
330
747D
100
AcDbEntity
  8
部品1
100
AcDbLine
 10
3586.319460875799
 20
1140.760787611751
 30
0.0
 11
3586.319460875797
 21
1340.760787611756
 31
0.0
  0
CIRCLE
  5
2230C
330
747D
100
AcDbEntity
  8
部品1
100
AcDbCircle
 10
3305.319460875799
 20
1384.760787611752
 30
0.0
 40
12.8
  0
CIRCLE
  5
2230D
330
747D
100
AcDbEntity
  8
部品1
100
AcDbCircle
 10
3227.319460875798
 20
1384.760787611752
 30
0.0
 40
12.8
  0
LINE
  5
2230E
330
747D
100
AcDbEntity
  8
細線
100
AcDbLine
 10
3420.283196526513
 20
1140.760787611752
 30
0.0
 11
3320.319460875803
 21
1240.724523262466
 31
0.0
  0
LINE
  5
2230F
330
747D
100
AcDbEntity
  8
細線
100
AcDbLine
 10
3049.083196526512
 20
1140.760787611752
 30
0.0
 11
2946.319460875799
 21
1243.524523262466
 31
0.0
  0
LINE
  5
22310
330
747D
100
AcDbEntity
  8
細線
100
AcDbLine
 10
3196.161407013315
 20
1140.760787611749
 30
0.0
 11
2996.161407013313
 21
1340.760787611756
 31
0.0
  0
LINE
  5
22311
330
747D
100
AcDbEntity
  8
細線
100
AcDbLine
 10
3212.319460875801
 20
1158.543859246225
 30
0.0
 11
3030.102532510266
 21
1340.760787611756
 31
0.0
  0
LINE
  5
22312
330
747D
100
AcDbEntity
  8
部品1
100
AcDbLine
 10
2946.319460875799
 20
1140.760787611751
 30
0.0
 11
2946.319460875799
 21
1340.760787611756
 31
0.0
  0
LINE
  5
22313
330
747D
100
AcDbEntity
  8
細線
100
AcDbLine
 10
3015.142071029557
 20
1140.760787611752
 30
0.0
 11
2946.319460875799
 21
1209.583397765512
 31
0.0
  0
LINE
  5
22314
330
747D
100
AcDbEntity
  8
細線
100
AcDbLine
 10
3386.342071029558
 20
1140.760787611752
 30
0.0
 11
3320.319460875797
 21
1206.783397765512
 31
0.0
  0
LINE
  5
22315
330
747D
100
AcDbEntity
  8
部品1
100
AcDbLine
 10
3906.319460875799
 20
1440.760787611758
 30
0.0
 11
3376.319460875797
 21
1440.760787611758
 31
0.0
  0
LINE
  5
22316
330
747D
100
AcDbEntity
  8
Ｇ．Ｌ
100
AcDbLine
 10
4015.259347096441
 20
1140.760787611754
 30
0.0
 11
3320.319460875798
 21
1140.760787611751
 31
0.0
  0
LINE
  5
22317
330
747D
100
AcDbEntity
  8
部品1
100
AcDbLine
 10
3906.319460875799
 20
1434.760787611758
 30
0.0
 11
2626.319460875797
 21
1434.760787611758
 31
0.0
  0
LINE
  5
22318
330
747D
100
AcDbEntity
  8
部品1
100
AcDbLine
 10
3906.319460875799
 20
1340.760787611756
 30
0.0
 11
3320.319460875797
 21
1340.760787611756
 31
0.0
  0
LINE
  5
22319
330
747D
100
AcDbEntity
  8
細線
100
AcDbLine
 10
3567.361407013319
 20
1140.760787611749
 30
0.0
 11
3367.361407013312
 21
1340.760787611756
 31
0.0
  0
LINE
  5
2231A
330
747D
100
AcDbEntity
  8
細線
100
AcDbLine
 10
3586.319460875799
 20
1155.743859246223
 30
0.0
 11
3401.302532510268
 21
1340.760787611756
 31
0.0
  0
LINE
  5
2231B
330
747D
100
AcDbEntity
  8
部品1
100
AcDbLine
 10
3156.319460875802
 20
1940.760787611754
 30
0.0
 11
3156.319460875799
 21
1434.760787611758
 31
0.0
  0
LINE
  5
2231C
330
747D
100
AcDbEntity
  8
部品1
100
AcDbLine
 10
3376.319460875801
 20
1940.760787611754
 30
0.0
 11
3376.319460875798
 21
1434.760787611758
 31
0.0
  0
LINE
  5
2231D
330
747D
100
AcDbEntity
  8
Ｇ．Ｌ
100
AcDbLine
 10
2626.319460875798
 20
1140.760787611754
 30
0.0
 11
3212.319460875801
 21
1140.760787611751
 31
0.0
  0
LINE
  5
2231E
330
747D
100
AcDbEntity
  8
部品1
100
AcDbLine
 10
2626.319460875797
 20
1440.760787611758
 30
0.0
 11
3156.319460875799
 21
1440.760787611758
 31
0.0
  0
LINE
  5
2231F
330
747D
100
AcDbEntity
  8
部品1
100
AcDbLine
 10
2626.319460875797
 20
1340.760787611756
 30
0.0
 11
3212.319460875799
 21
1340.760787611756
 31
0.0
  0
LINE
  5
22320
330
747D
100
AcDbEntity
  8
部品1
 48
50.0
100
AcDbLine
 10
3466.319460875798
 20
1140.760787611746
 30
0.0
 11
3466.319460875798
 21
740.7607876117481
 31
0.0
  0
LINE
  5
22321
330
747D
100
AcDbEntity
  8
細線
  6
HIDDEN
 48
10.0
100
AcDbLine
 10
3379.330461025217
 20
740.7607876117481
 30
0.0
 11
3466.319460875798
 21
827.7497874623314
 31
0.0
  0
LINE
  5
22322
330
747D
100
AcDbEntity
  8
細線
  6
HIDDEN
 48
10.0
100
AcDbLine
 10
3322.761918530294
 20
740.7607876117472
 30
0.0
 11
3466.319460875798
 21
884.3183299572556
 31
0.0
  0
LINE
  5
22323
330
747D
100
AcDbEntity
  8
細線
  6
HIDDEN
 48
10.0
100
AcDbLine
 10
3351.046189777755
 20
740.7607876117481
 30
0.0
 11
3466.319460875798
 21
856.0340587097952
 31
0.0
  0
LINE
  5
22324
330
747D
100
AcDbEntity
  8
部品1
 48
50.0
100
AcDbLine
 10
3466.319460875798
 20
740.7607876117481
 30
0.0
 11
3066.319460875799
 21
740.7607876117463
 31
0.0
  0
LINE
  5
22325
330
747D
100
AcDbEntity
  8
部品1
 48
50.0
100
AcDbLine
 10
3066.319460875799
 20
740.7607876117463
 30
0.0
 11
3066.319460875799
 21
1140.760787611746
 31
0.0
  0
LINE
  5
22326
330
747D
100
AcDbEntity
  8
細線
  6
HIDDEN
 48
10.0
100
AcDbLine
 10
3066.319460875799
 20
854.4081763151599
 30
0.0
 11
3212.319460875801
 21
1000.408176315174
 31
0.0
  0
LINE
  5
22327
330
747D
100
AcDbEntity
  8
細線
  6
HIDDEN
 48
10.0
100
AcDbLine
 10
3066.319460875799
 20
910.9767188100823
 30
0.0
 11
3212.319460875801
 21
1056.976718810087
 31
0.0
  0
LINE
  5
22328
330
747D
100
AcDbEntity
  8
細線
  6
HIDDEN
 48
10.0
100
AcDbLine
 10
3066.319460875799
 20
882.692447562621
 30
0.0
 11
3212.319460875801
 21
1028.692447562629
 31
0.0
  0
LINE
  5
22329
330
747D
100
AcDbEntity
  8
細線
 48
50.0
100
AcDbLine
 10
2721.319460875797
 20
1940.760787611732
 30
0.0
 11
2721.319460875797
 21
1440.760787611733
 31
0.0
  0
LINE
  5
2232A
330
747D
100
AcDbEntity
  8
細線
 48
50.0
100
AcDbLine
 10
2751.319460875797
 20
1940.760787611732
 30
0.0
 11
2751.319460875797
 21
1440.760787611733
 31
0.0
  0
LINE
  5
2232B
330
747D
100
AcDbEntity
  8
細線
 48
50.0
100
AcDbLine
 10
3001.319460875797
 20
1940.760787611732
 30
0.0
 11
3001.319460875797
 21
1440.760787611733
 31
0.0
  0
LINE
  5
2232C
330
747D
100
AcDbEntity
  8
細線
 48
50.0
100
AcDbLine
 10
3031.319460875797
 20
1940.760787611732
 30
0.0
 11
3031.319460875797
 21
1440.760787611733
 31
0.0
  0
LINE
  5
2232D
330
747D
100
AcDbEntity
  8
細線
 48
50.0
100
AcDbLine
 10
3501.319460875802
 20
1940.760787611732
 30
0.0
 11
3501.319460875802
 21
1440.760787611733
 31
0.0
  0
LINE
  5
2232E
330
747D
100
AcDbEntity
  8
細線
 48
50.0
100
AcDbLine
 10
3531.319460875803
 20
1940.760787611732
 30
0.0
 11
3531.319460875803
 21
1440.760787611733
 31
0.0
  0
LINE
  5
2232F
330
747D
100
AcDbEntity
  8
細線
 48
50.0
100
AcDbLine
 10
3781.319460875803
 20
1940.760787611732
 30
0.0
 11
3781.319460875803
 21
1440.760787611733
 31
0.0
  0
LINE
  5
22330
330
747D
100
AcDbEntity
  8
細線
 48
50.0
100
AcDbLine
 10
3811.319460875802
 20
1940.760787611732
 30
0.0
 11
3811.319460875802
 21
1440.760787611733
 31
0.0
  0
ARC
  5
22331
330
747D
100
AcDbEntity
  8
部品1
100
AcDbCircle
 10
3310.319460875799
 20
1404.760787611752
 30
0.0
 40
10.0
100
AcDbArc
 50
0.0
 51
90.0
  0
ARC
  5
22332
330
747D
100
AcDbEntity
  8
部品1
100
AcDbCircle
 10
3222.319460875799
 20
1404.760787611752
 30
0.0
 40
10.0
100
AcDbArc
 50
90.0
 51
180.0
  0
ARC
  5
22333
330
747D
100
AcDbEntity
  8
部品1
100
AcDbCircle
 10
3310.319460875799
 20
1101.760787611753
 30
0.0
 40
10.0
100
AcDbArc
 50
0.0
 51
90.0
  0
CIRCLE
  5
22334
330
747D
100
AcDbEntity
  8
部品1
100
AcDbCircle
 10
3305.319460875799
 20
1244.760787611753
 30
0.0
 40
6.0
  0
CIRCLE
  5
22335
330
747D
100
AcDbEntity
  8
部品1
100
AcDbCircle
 10
3305.319460875799
 20
1244.760787611753
 30
0.0
 40
8.0
  0
LINE
  5
22336
330
747D
100
AcDbEntity
  8
部品1
100
AcDbLine
 10
3297.319460875801
 20
1354.760787611752
 30
0.0
 11
3297.319460875799
 21
1314.760787611753
 31
0.0
  0
LINE
  5
22337
330
747D
100
AcDbEntity
  8
部品1
100
AcDbLine
 10
3313.3194608758
 20
1354.760787611752
 30
0.0
 11
3313.319460875799
 21
1314.760787611753
 31
0.0
  0
ARC
  5
22338
330
747D
100
AcDbEntity
  8
部品1
100
AcDbCircle
 10
3305.319460875799
 20
1354.760787611752
 30
0.0
 40
8.0
100
AcDbArc
 50
0.0
 51
180.0
  0
ARC
  5
22339
330
747D
100
AcDbEntity
  8
部品1
100
AcDbCircle
 10
3305.319460875799
 20
1314.760787611753
 30
0.0
 40
8.0
100
AcDbArc
 50
180.0
 51
0.0
  0
LINE
  5
2233A
330
747D
100
AcDbEntity
  8
部品1
100
AcDbLine
 10
3313.319460875799
 20
1075.904381151202
 30
0.0
 11
3313.319460875799
 21
1049.760787611752
 31
0.0
  0
LINE
  5
2233B
330
747D
100
AcDbEntity
  8
部品1
100
AcDbLine
 10
3310.319460875799
 20
1414.760787611753
 30
0.0
 11
3222.319460875799
 21
1414.760787611753
 31
0.0
  0
LINE
  5
2233C
330
747D
100
AcDbEntity
  8
部品1
100
AcDbLine
 10
3212.319460875799
 20
1404.760787611752
 30
0.0
 11
3212.319460875799
 21
1095.328551974583
 31
0.0
  0
LINE
  5
2233D
330
747D
100
AcDbEntity
  8
部品1
100
AcDbLine
 10
3320.319460875798
 20
1095.328551974583
 30
0.0
 11
3320.319460875798
 21
1404.760787611752
 31
0.0
  0
ARC
  5
2233E
330
747D
100
AcDbEntity
  8
部品1
100
AcDbCircle
 10
3227.319460875798
 20
1314.760787611753
 30
0.0
 40
8.0
100
AcDbArc
 50
180.0
 51
0.0
  0
ARC
  5
2233F
330
747D
100
AcDbEntity
  8
部品1
100
AcDbCircle
 10
3227.319460875798
 20
1354.760787611752
 30
0.0
 40
8.0
100
AcDbArc
 50
0.0
 51
180.0
  0
LINE
  5
22340
330
747D
100
AcDbEntity
  8
部品1
100
AcDbLine
 10
3235.319460875799
 20
1354.760787611752
 30
0.0
 11
3235.319460875799
 21
1314.760787611753
 31
0.0
  0
LINE
  5
22341
330
747D
100
AcDbEntity
  8
部品1
100
AcDbLine
 10
3219.319460875798
 20
1354.760787611752
 30
0.0
 11
3219.319460875798
 21
1314.760787611753
 31
0.0
  0
CIRCLE
  5
22342
330
747D
100
AcDbEntity
  8
部品1
100
AcDbCircle
 10
3227.319460875798
 20
1244.760787611753
 30
0.0
 40
8.0
  0
CIRCLE
  5
22343
330
747D
100
AcDbEntity
  8
部品1
100
AcDbCircle
 10
3227.319460875798
 20
1244.760787611753
 30
0.0
 40
6.0
  0
ARC
  5
22344
330
747D
100
AcDbEntity
  8
部品1
100
AcDbCircle
 10
3222.319460875799
 20
1101.760787611753
 30
0.0
 40
10.0
100
AcDbArc
 50
90.0
 51
180.0
  0
ARC
  5
22345
330
747D
100
AcDbEntity
  8
部品1
100
AcDbCircle
 10
3305.319460875799
 20
1049.760787611752
 30
0.0
 40
8.0
100
AcDbArc
 50
180.0
 51
0.0
  0
LINE
  5
22346
330
747D
100
AcDbEntity
  8
部品1
100
AcDbLine
 10
3297.319460875799
 20
1075.904381151202
 30
0.0
 11
3297.319460875799
 21
1049.760787611752
 31
0.0
  0
LINE
  5
22347
330
747D
100
AcDbEntity
  8
部品1
100
AcDbLine
 10
3310.319460875799
 20
1111.760787611753
 30
0.0
 11
3222.319460875799
 21
1111.760787611753
 31
0.0
  0
LINE
  5
22348
330
747D
100
AcDbEntity
  8
部品1
100
AcDbLine
 10
3212.319460875799
 20
1101.760787611753
 30
0.0
 11
3212.319460875799
 21
1095.328551974583
 31
0.0
  0
LINE
  5
22349
330
747D
100
AcDbEntity
  8
部品1
100
AcDbLine
 10
3212.319460875799
 20
805.7607876117526
 30
0.0
 11
3320.319460875798
 21
805.7607876117526
 31
0.0
  0
LINE
  5
2234A
330
747D
100
AcDbEntity
  8
部品1
100
AcDbLine
 10
3320.319460875798
 20
1101.760787611753
 30
0.0
 11
3320.319460875798
 21
1095.328551974583
 31
0.0
  0
LINE
  5
2234B
330
747D
100
AcDbEntity
  8
部品1
100
AcDbLine
 10
3281.319460875799
 20
1019.760787611752
 30
0.0
 11
3251.319460875798
 21
1019.760787611752
 31
0.0
  0
LINE
  5
2234C
330
747D
100
AcDbEntity
  8
部品1
100
AcDbLine
 10
3281.319460875799
 20
864.7607876117527
 30
0.0
 11
3251.319460875798
 21
864.7607876117527
 31
0.0
  0
LINE
  5
2234D
330
747D
100
AcDbEntity
  8
部品1
100
AcDbLine
 10
3281.319460875799
 20
824.7607876117527
 30
0.0
 11
3251.319460875798
 21
824.7607876117527
 31
0.0
  0
LINE
  5
2234E
330
747D
100
AcDbEntity
  8
部品1
100
AcDbLine
 10
3281.319460875799
 20
830.7607876117526
 30
0.0
 11
3251.319460875798
 21
830.7607876117526
 31
0.0
  0
LINE
  5
2234F
330
747D
100
AcDbEntity
  8
部品1
100
AcDbLine
 10
3281.319460875799
 20
870.7607876117526
 30
0.0
 11
3251.319460875798
 21
870.7607876117526
 31
0.0
  0
LINE
  5
22350
330
747D
100
AcDbEntity
  8
部品1
100
AcDbLine
 10
3281.319460875799
 20
1025.760787611752
 30
0.0
 11
3251.319460875798
 21
1025.760787611752
 31
0.0
  0
LINE
  5
22351
330
747D
100
AcDbEntity
  8
部品1
100
AcDbLine
 10
3281.319460875799
 20
1025.760787611752
 30
0.0
 11
3281.319460875799
 21
1019.760787611752
 31
0.0
  0
LINE
  5
22352
330
747D
100
AcDbEntity
  8
部品1
100
AcDbLine
 10
3251.319460875798
 20
1025.760787611752
 30
0.0
 11
3251.319460875798
 21
1019.760787611752
 31
0.0
  0
LINE
  5
22353
330
747D
100
AcDbEntity
  8
部品1
100
AcDbLine
 10
3281.319460875799
 20
870.7607876117526
 30
0.0
 11
3281.319460875799
 21
864.7607876117527
 31
0.0
  0
LINE
  5
22354
330
747D
100
AcDbEntity
  8
部品1
100
AcDbLine
 10
3251.319460875798
 20
870.7607876117526
 30
0.0
 11
3251.319460875798
 21
864.7607876117527
 31
0.0
  0
LINE
  5
22355
330
747D
100
AcDbEntity
  8
部品1
100
AcDbLine
 10
3251.319460875798
 20
830.7607876117526
 30
0.0
 11
3251.319460875798
 21
824.7607876117527
 31
0.0
  0
LINE
  5
22356
330
747D
100
AcDbEntity
  8
部品1
100
AcDbLine
 10
3281.319460875799
 20
830.7607876117526
 30
0.0
 11
3281.319460875799
 21
824.7607876117527
 31
0.0
  0
LINE
  5
22357
330
747D
100
AcDbEntity
  8
部品1
100
AcDbLine
 10
3219.319460875798
 20
1075.904381151202
 30
0.0
 11
3219.319460875798
 21
1049.760787611752
 31
0.0
  0
LINE
  5
22358
330
747D
100
AcDbEntity
  8
部品1
100
AcDbLine
 10
3235.319460875799
 20
1075.904381151202
 30
0.0
 11
3235.319460875799
 21
1049.760787611752
 31
0.0
  0
ARC
  5
22359
330
747D
100
AcDbEntity
  8
部品1
100
AcDbCircle
 10
3227.319460875798
 20
1049.760787611752
 30
0.0
 40
8.0
100
AcDbArc
 50
180.0
 51
0.0
  0
CIRCLE
  5
2235A
330
747D
100
AcDbEntity
  8
部品1
100
AcDbCircle
 10
3305.319460875799
 20
1089.760787611753
 30
0.0
 40
16.0
  0
CIRCLE
  5
2235B
330
747D
100
AcDbEntity
  8
部品1
100
AcDbCircle
 10
3227.319460875798
 20
1089.760787611752
 30
0.0
 40
16.0
  0
LINE
  5
2235C
330
747D
100
AcDbEntity
  8
部品1
100
AcDbLine
 10
3320.319460875798
 20
1084.193023248923
 30
0.0
 11
3320.319460875798
 21
805.7607876117526
 31
0.0
  0
LINE
  5
2235D
330
747D
100
AcDbEntity
  8
部品1
100
AcDbLine
 10
3212.319460875799
 20
1084.193023248923
 30
0.0
 11
3212.319460875799
 21
805.7607876117526
 31
0.0
  0
DIMENSION
  5
2235E
330
747D
100
AcDbEntity
  8
寸法
 48
50.0
100
AcDbDimension
  2
*D43
 10
2822.989713800269
 20
740.7607876117463
 30
0.0
 11
2822.989713800269
 21
928.3854207276517
 31
0.0
 70
   160
  1
200
 71
     5
 42
400.0
  3
INABA_S40G
100
AcDbAlignedDimension
 13
2916.319460875799
 23
1140.760787611746
 33
0.0
 14
3066.319460875799
 24
740.7607876117463
 34
0.0
 50
90.0
100
AcDbRotatedDimension
1001
ACAD
1000
DSTYLE
1002
{
1070
   174
1070
     0
1070
   272
1070
     1
1070
   288
1070
     0
1070
   341
1005
0
1002
}
  0
LINE
  5
2235F
330
747D
100
AcDbEntity
  8
部品1
100
AcDbLine
 10
9638.122667299185
 20
1171.090833376039
 30
0.0
 11
9638.122667299185
 21
1169.690833376043
 31
0.0
  0
LINE
  5
22360
330
747D
100
AcDbEntity
  8
部品1
100
AcDbLine
 10
9633.122667299186
 20
1171.090833376045
 30
0.0
 11
9638.122667299185
 21
1171.090833376045
 31
0.0
  0
LINE
  5
22361
330
747D
100
AcDbEntity
  8
部品1
100
AcDbLine
 10
9593.122667299185
 20
1153.690833376042
 30
0.0
 11
9653.122667299186
 21
1153.690833376047
 31
0.0
  0
LINE
  5
22362
330
747D
100
AcDbEntity
  8
部品1
100
AcDbLine
 10
9593.122667299185
 20
1150.690833376041
 30
0.0
 11
9593.122667299185
 21
1153.690833376042
 31
0.0
  0
LINE
  5
22363
330
747D
100
AcDbEntity
  8
部品1
100
AcDbLine
 10
9608.122667299186
 20
1205.090833376045
 30
0.0
 11
9638.122667299185
 21
1205.090833376045
 31
0.0
  0
LINE
  5
22364
330
747D
100
AcDbEntity
  8
部品1
100
AcDbLine
 10
9608.122667299186
 20
1211.090833376045
 30
0.0
 11
9638.122667299185
 21
1211.090833376045
 31
0.0
  0
LINE
  5
22365
330
747D
100
AcDbEntity
  8
部品1
100
AcDbLine
 10
9608.122667299186
 20
1171.090833376045
 30
0.0
 11
9613.122667299187
 21
1171.090833376045
 31
0.0
  0
LINE
  5
22366
330
747D
100
AcDbEntity
  8
部品1
100
AcDbLine
 10
9608.122667299186
 20
1211.090833376045
 30
0.0
 11
9608.122667299186
 21
1205.090833376045
 31
0.0
  0
LINE
  5
22367
330
747D
100
AcDbEntity
  8
部品1
100
AcDbLine
 10
9608.122667299186
 20
1171.090833376045
 30
0.0
 11
9608.122667299186
 21
1169.690833376043
 31
0.0
  0
LINE
  5
22368
330
747D
100
AcDbEntity
  8
部品1
100
AcDbLine
 10
9638.122667299185
 20
1211.090833376041
 30
0.0
 11
9638.122667299185
 21
1205.090833376041
 31
0.0
  0
LINE
  5
22369
330
747D
100
AcDbEntity
  8
部品1
100
AcDbLine
 10
9613.122667299187
 20
1190.690833376043
 30
0.0
 11
9633.122667299186
 21
1190.690833376043
 31
0.0
  0
LINE
  5
2236A
330
747D
100
AcDbEntity
  8
部品1
100
AcDbLine
 10
9613.122667299187
 20
1153.690833376042
 30
0.0
 11
9613.122667299187
 21
1190.690833376043
 31
0.0
  0
LINE
  5
2236B
330
747D
100
AcDbEntity
  8
部品1
100
AcDbLine
 10
9633.122667299186
 20
1153.690833376042
 30
0.0
 11
9633.122667299186
 21
1190.690833376043
 31
0.0
  0
LINE
  5
2236C
330
747D
100
AcDbEntity
  8
部品1
100
AcDbLine
 10
9606.122667299185
 20
1169.690833376043
 30
0.0
 11
9640.122667299186
 21
1169.690833376043
 31
0.0
  0
LINE
  5
2236D
330
747D
100
AcDbEntity
  8
部品1
100
AcDbLine
 10
9603.122667299185
 20
1153.690833376042
 30
0.0
 11
9603.122667299185
 21
1166.690833376043
 31
0.0
  0
LINE
  5
2236E
330
747D
100
AcDbEntity
  8
部品1
100
AcDbLine
 10
9643.122667299186
 20
1153.690833376047
 30
0.0
 11
9643.122667299186
 21
1166.690833376043
 31
0.0
  0
LINE
  5
2236F
330
747D
100
AcDbEntity
  8
部品1
100
AcDbLine
 10
9606.122667299185
 20
1169.690833376043
 30
0.0
 11
9603.122667299185
 21
1166.690833376043
 31
0.0
  0
LINE
  5
22370
330
747D
100
AcDbEntity
  8
部品1
100
AcDbLine
 10
9640.122667299186
 20
1169.690833376043
 30
0.0
 11
9643.122667299186
 21
1166.690833376043
 31
0.0
  0
LINE
  5
22371
330
747D
100
AcDbEntity
  8
部品1
100
AcDbLine
 10
9653.122667299186
 20
1150.690833376041
 30
0.0
 11
9653.122667299186
 21
1153.69083337605
 31
0.0
  0
LINE
  5
22372
330
747D
100
AcDbEntity
  8
部品1
100
AcDbLine
 10
9603.122667299185
 20
1166.690833376043
 30
0.0
 11
9643.122667299186
 21
1166.690833376043
 31
0.0
  0
ARC
  5
22373
330
747D
100
AcDbEntity
  8
部品1
100
AcDbCircle
 10
9608.122667299186
 20
1162.176078585725
 30
0.0
 40
6.736691384996243
100
AcDbArc
 50
42.08048849859669
 51
137.9195115014033
  0
ARC
  5
22374
330
747D
100
AcDbEntity
  8
部品1
100
AcDbCircle
 10
9638.122667299185
 20
1162.176078585725
 30
0.0
 40
6.736691384996243
100
AcDbArc
 50
42.08048849859669
 51
137.9195115014033
  0
ARC
  5
22375
330
747D
100
AcDbEntity
  8
部品1
100
AcDbCircle
 10
9623.122667299185
 20
1145.602200155224
 30
0.0
 40
23.33946124318486
100
AcDbArc
 50
64.63020194521516
 51
115.3697980547848
  0
LINE
  5
22376
330
747D
100
AcDbEntity
  8
部品1
100
AcDbLine
 10
9616.122667299187
 20
1202.943729399703
 30
0.0
 11
9630.122667299186
 21
1202.943729399703
 31
0.0
  0
LINE
  5
22377
330
747D
100
AcDbEntity
  8
部品1
100
AcDbLine
 10
9618.122667299186
 20
1190.690833376043
 30
0.0
 11
9618.122667299186
 21
1198.943729399703
 31
0.0
  0
LINE
  5
22378
330
747D
100
AcDbEntity
  8
部品1
100
AcDbLine
 10
9628.122667299185
 20
1190.690833376043
 30
0.0
 11
9628.122667299185
 21
1198.943729399703
 31
0.0
  0
LINE
  5
22379
330
747D
100
AcDbEntity
  8
部品1
100
AcDbLine
 10
9616.122667299187
 20
1198.943729399703
 30
0.0
 11
9616.122667299187
 21
1202.943729399703
 31
0.0
  0
LINE
  5
2237A
330
747D
100
AcDbEntity
  8
部品1
100
AcDbLine
 10
9630.122667299186
 20
1198.943729399703
 30
0.0
 11
9630.122667299186
 21
1202.943729399703
 31
0.0
  0
LINE
  5
2237B
330
747D
100
AcDbEntity
  8
部品1
100
AcDbLine
 10
9616.122667299187
 20
1198.943729399703
 30
0.0
 11
9630.122667299186
 21
1198.943729399703
 31
0.0
  0
LINE
  5
2237C
330
747D
100
AcDbEntity
  8
部品1
100
AcDbLine
 10
9613.122667299187
 20
1138.690833376041
 30
0.0
 11
9613.122667299187
 21
1103.290833376042
 31
0.0
  0
LINE
  5
2237D
330
747D
100
AcDbEntity
  8
部品1
100
AcDbLine
 10
9633.122667299186
 20
1138.690833376041
 30
0.0
 11
9633.122667299186
 21
1103.290833376042
 31
0.0
  0
LINE
  5
2237E
330
747D
100
AcDbEntity
  8
部品1
100
AcDbLine
 10
9621.212166665648
 20
1103.290833376042
 30
0.0
 11
9625.033167932723
 21
1103.290833376042
 31
0.0
  0
LINE
  5
2237F
330
747D
100
AcDbEntity
  8
部品1
100
AcDbLine
 10
9610.682838169511
 20
1087.025305844879
 30
0.0
 11
9618.594328992458
 21
1085.83858222144
 31
0.0
  0
LINE
  5
22380
330
747D
100
AcDbEntity
  8
部品1
100
AcDbLine
 10
9611.572880887088
 20
1092.958923962088
 30
0.0
 11
9619.484371710033
 21
1091.772200338645
 31
0.0
  0
LINE
  5
22381
330
747D
100
AcDbEntity
  8
部品1
100
AcDbLine
 10
9612.46292360467
 20
1098.892542079298
 30
0.0
 11
9620.374414427615
 21
1097.705818455855
 31
0.0
  0
LINE
  5
22382
330
747D
100
AcDbEntity
  8
部品1
100
AcDbLine
 10
9627.651005605923
 20
1085.83858222144
 30
0.0
 11
9635.562496428867
 21
1087.025305844879
 31
0.0
  0
LINE
  5
22383
330
747D
100
AcDbEntity
  8
部品1
100
AcDbLine
 10
9626.76096288834
 20
1091.772200338645
 30
0.0
 11
9634.672453711285
 21
1092.958923962088
 31
0.0
  0
LINE
  5
22384
330
747D
100
AcDbEntity
  8
部品1
100
AcDbLine
 10
9625.870920170756
 20
1097.705818455855
 30
0.0
 11
9633.782410993703
 21
1098.892542079298
 31
0.0
  0
LINE
  5
22385
330
747D
100
AcDbEntity
  8
細線
 48
10.0
100
AcDbLine
 10
8947.868234055592
 20
1093.583388015907
 30
0.0
 11
8985.575679415729
 21
1131.290833376041
 31
0.0
  0
LINE
  5
22386
330
747D
100
AcDbEntity
  8
細線
 48
10.0
100
AcDbLine
 10
9560.258531029575
 20
824.3726360367572
 30
0.0
 11
9867.176728368848
 21
1131.290833376041
 31
0.0
  0
LINE
  5
22387
330
747D
100
AcDbEntity
  8
細線
 48
10.0
100
AcDbLine
 10
9531.974259782115
 20
824.3726360367572
 30
0.0
 11
9838.892457121389
 21
1131.290833376041
 31
0.0
  0
LINE
  5
22388
330
747D
100
AcDbEntity
  8
細線
 48
10.0
100
AcDbLine
 10
9588.542802277038
 20
824.3726360367572
 30
0.0
 11
9895.460999616314
 21
1131.290833376041
 31
0.0
  0
LINE
  5
22389
330
747D
100
AcDbEntity
  8
細線
 48
10.0
100
AcDbLine
 10
9133.600142176751
 20
824.3726360367572
 30
0.0
 11
9440.518339516023
 21
1131.290833376041
 31
0.0
  0
LINE
  5
2238A
330
747D
100
AcDbEntity
  8
細線
 48
10.0
100
AcDbLine
 10
9105.31587092929
 20
824.3726360367572
 30
0.0
 11
9412.234068268565
 21
1131.290833376041
 31
0.0
  0
LINE
  5
2238B
330
747D
100
AcDbEntity
  8
細線
 48
10.0
100
AcDbLine
 10
9161.884413424212
 20
824.3726360367572
 30
0.0
 11
9468.802610763473
 21
1131.290833376041
 31
0.0
  0
LINE
  5
2238C
330
747D
100
AcDbEntity
  8
細線
 48
10.0
100
AcDbLine
 10
8947.868234055595
 20
1037.014845520992
 30
0.0
 11
9042.144221910634
 21
1131.290833376041
 31
0.0
  0
LINE
  5
2238D
330
747D
100
AcDbEntity
  8
細線
 48
10.0
100
AcDbLine
 10
8947.868234055595
 20
1065.299116768451
 30
0.0
 11
9013.859950663182
 21
1131.290833376041
 31
0.0
  0
LINE
  5
2238E
330
747D
100
AcDbEntity
  8
部品1
100
AcDbLine
 10
9613.122667299187
 20
1103.290833376042
 30
0.0
 11
9607.122667299186
 21
1063.290833376042
 31
0.0
  0
LINE
  5
2238F
330
747D
100
AcDbEntity
  8
部品1
100
AcDbLine
 10
9639.122667299185
 20
1063.290833376042
 30
0.0
 11
9633.122667299186
 21
1103.290833376042
 31
0.0
  0
LINE
  5
22390
330
747D
100
AcDbEntity
  8
部品1
100
AcDbLine
 10
9621.212166665648
 20
1103.290833376042
 30
0.0
 11
9615.034158122131
 21
1062.104109752602
 31
0.0
  0
LINE
  5
22391
330
747D
100
AcDbEntity
  8
部品1
100
AcDbLine
 10
9631.21117647624
 20
1062.104109752602
 30
0.0
 11
9625.033167932723
 21
1103.290833376042
 31
0.0
  0
LINE
  5
22392
330
747D
100
AcDbEntity
  8
部品1
100
AcDbLine
 10
9607.122667299186
 20
1063.290833376042
 30
0.0
 11
9615.034158122131
 21
1062.104109752602
 31
0.0
  0
LINE
  5
22393
330
747D
100
AcDbEntity
  8
部品1
100
AcDbLine
 10
9631.21117647624
 20
1062.104109752602
 30
0.0
 11
9639.122667299185
 21
1063.290833376042
 31
0.0
  0
LINE
  5
22394
330
747D
100
AcDbEntity
  8
部品1
100
AcDbLine
 10
9608.012710016769
 20
1069.224451493251
 30
0.0
 11
9615.924200839714
 21
1068.037727869808
 31
0.0
  0
LINE
  5
22395
330
747D
100
AcDbEntity
  8
部品1
100
AcDbLine
 10
9608.902752734344
 20
1075.158069610461
 30
0.0
 11
9616.814243557291
 21
1073.971345987017
 31
0.0
  0
LINE
  5
22396
330
747D
100
AcDbEntity
  8
部品1
100
AcDbLine
 10
9609.792795451928
 20
1081.091687727668
 30
0.0
 11
9617.704286274873
 21
1079.904964104227
 31
0.0
  0
LINE
  5
22397
330
747D
100
AcDbEntity
  8
部品1
100
AcDbLine
 10
9630.321133758656
 20
1068.037727869808
 30
0.0
 11
9638.232624581611
 21
1069.224451493251
 31
0.0
  0
LINE
  5
22398
330
747D
100
AcDbEntity
  8
部品1
100
AcDbLine
 10
9629.43109104108
 20
1073.971345987017
 30
0.0
 11
9637.342581864027
 21
1075.158069610461
 31
0.0
  0
LINE
  5
22399
330
747D
100
AcDbEntity
  8
部品1
100
AcDbLine
 10
9628.541048323498
 20
1079.904964104227
 30
0.0
 11
9636.452539146445
 21
1081.091687727668
 31
0.0
  0
LINE
  5
2239A
330
747D
100
AcDbEntity
  8
細線
 48
10.0
100
AcDbLine
 10
10015.20119112985
 20
824.3726360367572
 30
0.0
 11
10322.11938846913
 21
1131.290833376041
 31
0.0
  0
LINE
  5
2239B
330
747D
100
AcDbEntity
  8
細線
 48
10.0
100
AcDbLine
 10
9986.916919882393
 20
824.3726360367572
 30
0.0
 11
10293.83511722166
 21
1131.290833376041
 31
0.0
  0
LINE
  5
2239C
330
747D
100
AcDbEntity
  8
細線
 48
10.0
100
AcDbLine
 10
9958.632648634932
 20
824.3726360367572
 30
0.0
 11
10265.5508459742
 21
1131.290833376041
 31
0.0
  0
ARC
  5
2239D
330
747D
100
AcDbEntity
  8
部品1
100
AcDbCircle
 10
9584.122667299185
 20
1422.690833376042
 30
0.0
 40
8.0
100
AcDbArc
 50
0.0
 51
180.0
  0
LINE
  5
2239E
330
747D
100
AcDbEntity
  8
部品1
100
AcDbLine
 10
9592.122667299184
 20
1422.690833376042
 30
0.0
 11
9592.122667299189
 21
1408.049285360505
 31
0.0
  0
LINE
  5
2239F
330
747D
100
AcDbEntity
  8
部品1
100
AcDbLine
 10
9576.122667299186
 20
1422.690833376042
 30
0.0
 11
9576.122667299186
 21
1408.049285360508
 31
0.0
  0
LINE
  5
223A0
330
747D
100
AcDbEntity
  8
部品1
100
AcDbLine
 10
9608.122667299186
 20
1211.090833376041
 30
0.0
 11
9608.122667299186
 21
1205.090833376042
 31
0.0
  0
LINE
  5
223A1
330
747D
100
AcDbEntity
  8
部品1
100
AcDbLine
 10
9638.122667299185
 20
1211.090833376041
 30
0.0
 11
9638.122667299185
 21
1205.090833376042
 31
0.0
  0
LINE
  5
223A2
330
747D
100
AcDbEntity
  8
部品1
100
AcDbLine
 10
9608.122667299186
 20
1358.690833376041
 30
0.0
 11
9608.122667299186
 21
1352.690833376042
 31
0.0
  0
LINE
  5
223A3
330
747D
100
AcDbEntity
  8
部品1
100
AcDbLine
 10
9638.122667299185
 20
1358.690833376041
 30
0.0
 11
9638.122667299185
 21
1352.690833376042
 31
0.0
  0
LINE
  5
223A4
330
747D
100
AcDbEntity
  8
部品1
100
AcDbLine
 10
9638.122667299185
 20
1358.690833376041
 30
0.0
 11
9608.122667299186
 21
1358.690833376041
 31
0.0
  0
LINE
  5
223A5
330
747D
100
AcDbEntity
  8
部品1
100
AcDbLine
 10
9638.122667299185
 20
1211.090833376041
 30
0.0
 11
9608.122667299186
 21
1211.090833376041
 31
0.0
  0
LINE
  5
223A6
330
747D
100
AcDbEntity
  8
部品1
100
AcDbLine
 10
9569.122667299186
 20
1150.690833376041
 30
0.0
 11
9677.122667299187
 21
1150.690833376041
 31
0.0
  0
LINE
  5
223A7
330
747D
100
AcDbEntity
  8
部品1
100
AcDbLine
 10
9638.122667299185
 20
1205.090833376042
 30
0.0
 11
9608.122667299186
 21
1205.090833376042
 31
0.0
  0
LINE
  5
223A8
330
747D
100
AcDbEntity
  8
部品1
100
AcDbLine
 10
9638.122667299185
 20
1352.690833376042
 30
0.0
 11
9608.122667299186
 21
1352.690833376042
 31
0.0
  0
LINE
  5
223A9
330
747D
100
AcDbEntity
  8
部品1
100
AcDbLine
 10
9677.122667299187
 20
1434.690833376041
 30
0.0
 11
9677.122667299187
 21
1138.690833376041
 31
0.0
  0
LINE
  5
223AA
330
747D
100
AcDbEntity
  8
部品1
100
AcDbLine
 10
9569.122667299186
 20
1138.690833376041
 30
0.0
 11
9677.122667299187
 21
1138.690833376041
 31
0.0
  0
LINE
  5
223AB
330
747D
100
AcDbEntity
  8
部品1
100
AcDbLine
 10
9569.122667299186
 20
1434.690833376042
 30
0.0
 11
9569.122667299186
 21
1138.690833376041
 31
0.0
  0
LINE
  5
223AC
330
747D
100
AcDbEntity
  8
部品1
100
AcDbLine
 10
9667.122667299185
 20
1444.690833376041
 30
0.0
 11
9579.122667299186
 21
1444.690833376042
 31
0.0
  0
LINE
  5
223AD
330
747D
100
AcDbEntity
  8
部品1
100
AcDbLine
 10
9654.122667299185
 20
1422.690833376042
 30
0.0
 11
9654.122667299185
 21
1408.049285360509
 31
0.0
  0
LINE
  5
223AE
330
747D
100
AcDbEntity
  8
部品1
100
AcDbLine
 10
9670.122667299185
 20
1422.690833376042
 30
0.0
 11
9670.122667299185
 21
1408.049285360509
 31
0.0
  0
ARC
  5
223AF
330
747D
100
AcDbEntity
  8
部品1
100
AcDbCircle
 10
9662.122667299186
 20
1422.690833376042
 30
0.0
 40
8.0
100
AcDbArc
 50
0.0
 51
180.0
  0
ARC
  5
223B0
330
747D
100
AcDbEntity
  8
部品1
100
AcDbCircle
 10
9579.122667299186
 20
1434.690833376042
 30
0.0
 40
10.0
100
AcDbArc
 50
90.0
 51
180.0
  0
ARC
  5
223B1
330
747D
100
AcDbEntity
  8
部品1
100
AcDbCircle
 10
9667.122667299185
 20
1434.690833376041
 30
0.0
 40
10.0
100
AcDbArc
 50
0.0
 51
90.0
  0
LINE
  5
223B2
330
747D
100
AcDbEntity
  8
細線
 48
50.0
100
AcDbLine
 10
10168.12266729919
 20
2038.690833376022
 30
0.0
 11
10168.12266729919
 21
1538.690833376024
 31
0.0
  0
LINE
  5
223B3
330
747D
100
AcDbEntity
  8
細線
 48
50.0
100
AcDbLine
 10
10138.12266729919
 20
2038.690833376022
 30
0.0
 11
10138.12266729919
 21
1538.690833376024
 31
0.0
  0
LINE
  5
223B4
330
747D
100
AcDbEntity
  8
細線
 48
50.0
100
AcDbLine
 10
9888.122667299189
 20
2038.690833376022
 30
0.0
 11
9888.122667299189
 21
1538.690833376024
 31
0.0
  0
LINE
  5
223B5
330
747D
100
AcDbEntity
  8
細線
 48
50.0
100
AcDbLine
 10
9858.122667299189
 20
2038.690833376022
 30
0.0
 11
9858.122667299189
 21
1538.690833376024
 31
0.0
  0
LINE
  5
223B6
330
747D
100
AcDbEntity
  8
細線
 48
50.0
100
AcDbLine
 10
9388.122667299185
 20
2038.690833376022
 30
0.0
 11
9388.122667299185
 21
1538.690833376024
 31
0.0
  0
LINE
  5
223B7
330
747D
100
AcDbEntity
  8
細線
 48
50.0
100
AcDbLine
 10
9358.122667299186
 20
2038.690833376022
 30
0.0
 11
9358.122667299186
 21
1538.690833376024
 31
0.0
  0
LINE
  5
223B8
330
747D
100
AcDbEntity
  8
細線
 48
50.0
100
AcDbLine
 10
9108.122667299186
 20
2038.690833376022
 30
0.0
 11
9108.122667299186
 21
1538.690833376024
 31
0.0
  0
LINE
  5
223B9
330
747D
100
AcDbEntity
  8
細線
 48
50.0
100
AcDbLine
 10
9078.122667299185
 20
2038.690833376022
 30
0.0
 11
9078.122667299185
 21
1538.690833376024
 31
0.0
  0
LINE
  5
223BA
330
747D
100
AcDbEntity
  8
部品1
100
AcDbLine
 10
8983.122667299186
 20
1532.690833376048
 30
0.0
 11
9569.122667299186
 21
1532.690833376048
 31
0.0
  0
LINE
  5
223BB
330
747D
100
AcDbEntity
  8
部品1
100
AcDbLine
 10
8983.122667299186
 20
1438.690833376046
 30
0.0
 11
9569.122667299186
 21
1438.690833376046
 31
0.0
  0
LINE
  5
223BC
330
747D
100
AcDbEntity
  8
部品1
100
AcDbLine
 10
8983.122667299186
 20
1538.690833376048
 30
0.0
 11
9513.122667299185
 21
1538.690833376048
 31
0.0
  0
LINE
  5
223BD
330
747D
100
AcDbEntity
  8
Ｇ．Ｌ
100
AcDbLine
 10
8983.122667299186
 20
1138.690833376045
 30
0.0
 11
9569.122667299186
 21
1138.690833376041
 31
0.0
  0
LINE
  5
223BE
330
747D
100
AcDbEntity
  8
部品1
100
AcDbLine
 10
9733.122667299186
 20
2038.690833376045
 30
0.0
 11
9733.122667299186
 21
1532.690833376048
 31
0.0
  0
LINE
  5
223BF
330
747D
100
AcDbEntity
  8
部品1
100
AcDbLine
 10
9513.122667299189
 20
2038.690833376045
 30
0.0
 11
9513.122667299185
 21
1532.690833376048
 31
0.0
  0
LINE
  5
223C0
330
747D
100
AcDbEntity
  8
細線
100
AcDbLine
 10
9943.122667299185
 20
1153.673905010513
 30
0.0
 11
9677.122667299187
 21
1419.673905010519
 31
0.0
  0
LINE
  5
223C1
330
747D
100
AcDbEntity
  8
細線
100
AcDbLine
 10
9924.164613436706
 20
1138.690833376039
 30
0.0
 11
9677.122667299189
 21
1385.732779513561
 31
0.0
  0
LINE
  5
223C2
330
747D
100
AcDbEntity
  8
部品1
100
AcDbLine
 10
10263.12266729918
 20
1438.690833376046
 30
0.0
 11
9677.122667299187
 21
1438.690833376046
 31
0.0
  0
LINE
  5
223C3
330
747D
100
AcDbEntity
  8
部品1
100
AcDbLine
 10
10263.12266729918
 20
1532.690833376048
 30
0.0
 11
9677.122667299187
 21
1532.690833376048
 31
0.0
  0
LINE
  5
223C4
330
747D
100
AcDbEntity
  8
Ｇ．Ｌ
100
AcDbLine
 10
10372.06255351983
 20
1138.690833376045
 30
0.0
 11
9677.122667299187
 21
1138.690833376041
 31
0.0
  0
LINE
  5
223C5
330
747D
100
AcDbEntity
  8
部品1
100
AcDbLine
 10
10263.12266729918
 20
1538.690833376048
 30
0.0
 11
9733.122667299186
 21
1538.690833376048
 31
0.0
  0
LINE
  5
223C6
330
747D
100
AcDbEntity
  8
細線
100
AcDbLine
 10
9743.145277452946
 20
1138.690833376043
 30
0.0
 11
9677.122667299187
 21
1204.713443529805
 31
0.0
  0
LINE
  5
223C7
330
747D
100
AcDbEntity
  8
細線
100
AcDbLine
 10
9371.945277452944
 20
1138.690833376043
 30
0.0
 11
9303.122667299184
 21
1207.513443529802
 31
0.0
  0
LINE
  5
223C8
330
747D
100
AcDbEntity
  8
部品1
100
AcDbLine
 10
9303.122667299184
 20
1138.690833376041
 30
0.0
 11
9303.122667299184
 21
1438.690833376046
 31
0.0
  0
LINE
  5
223C9
330
747D
100
AcDbEntity
  8
細線
100
AcDbLine
 10
9569.122667299186
 20
1156.473905010513
 30
0.0
 11
9303.122667299184
 21
1422.473905010516
 31
0.0
  0
LINE
  5
223CA
330
747D
100
AcDbEntity
  8
細線
100
AcDbLine
 10
9552.964613436701
 20
1138.690833376039
 30
0.0
 11
9303.12266729919
 21
1388.53277951357
 31
0.0
  0
LINE
  5
223CB
330
747D
100
AcDbEntity
  8
細線
100
AcDbLine
 10
9405.886402949896
 20
1138.690833376043
 30
0.0
 11
9303.122667299184
 21
1241.454569026756
 31
0.0
  0
LINE
  5
223CC
330
747D
100
AcDbEntity
  8
細線
100
AcDbLine
 10
9777.086402949901
 20
1138.690833376043
 30
0.0
 11
9677.122667299187
 21
1238.654569026756
 31
0.0
  0
CIRCLE
  5
223CD
330
747D
100
AcDbEntity
  8
部品1
100
AcDbCircle
 10
9584.122667299185
 20
1482.690833376042
 30
0.0
 40
12.8
  0
CIRCLE
  5
223CE
330
747D
100
AcDbEntity
  8
部品1
100
AcDbCircle
 10
9662.122667299186
 20
1482.690833376043
 30
0.0
 40
12.8
  0
LINE
  5
223CF
330
747D
100
AcDbEntity
  8
部品1
100
AcDbLine
 10
9943.122667299185
 20
1138.690833376041
 30
0.0
 11
9943.122667299181
 21
1438.690833376046
 31
0.0
  0
ARC
  5
223D0
330
747D
100
AcDbEntity
  8
部品1
100
AcDbCircle
 10
9667.122667299185
 20
1542.290833376044
 30
0.0
 40
10.0
100
AcDbArc
 50
0.0
 51
90.0
  0
ARC
  5
223D1
330
747D
100
AcDbEntity
  8
部品1
100
AcDbCircle
 10
9579.122667299186
 20
1542.290833376043
 30
0.0
 40
10.0
100
AcDbArc
 50
90.0
 51
180.0
  0
ARC
  5
223D2
330
747D
100
AcDbEntity
  8
部品1
100
AcDbCircle
 10
9584.122667299185
 20
1492.290833376044
 30
0.0
 40
8.0
100
AcDbArc
 50
0.0
 51
180.0
  0
ARC
  5
223D3
330
747D
100
AcDbEntity
  8
部品1
100
AcDbCircle
 10
9584.122667299185
 20
1452.290833376044
 30
0.0
 40
8.0
100
AcDbArc
 50
180.0
 51
251.805127661334
  0
CIRCLE
  5
223D4
330
747D
100
AcDbEntity
  8
部品1
100
AcDbCircle
 10
9584.122667299185
 20
1522.290833376044
 30
0.0
 40
8.0
  0
LINE
  5
223D5
330
747D
100
AcDbEntity
  8
部品1
100
AcDbLine
 10
9677.122667299187
 20
1434.690833376041
 30
0.0
 11
9677.122667299187
 21
1542.290833376044
 31
0.0
  0
LINE
  5
223D6
330
747D
100
AcDbEntity
  8
部品1
100
AcDbLine
 10
9569.122667299186
 20
1542.290833376043
 30
0.0
 11
9569.122667299186
 21
1434.690833376042
 31
0.0
  0
LINE
  5
223D7
330
747D
100
AcDbEntity
  8
部品1
100
AcDbLine
 10
9667.122667299185
 20
1552.290833376044
 30
0.0
 11
9579.122667299186
 21
1552.290833376043
 31
0.0
  0
CIRCLE
  5
223D8
330
747D
100
AcDbEntity
  8
部品1
100
AcDbCircle
 10
9662.122667299186
 20
1522.290833376044
 30
0.0
 40
8.0
  0
ARC
  5
223D9
330
747D
100
AcDbEntity
  8
部品1
100
AcDbCircle
 10
9662.122667299186
 20
1452.290833376044
 30
0.0
 40
8.0
100
AcDbArc
 50
180.0
 51
251.805127661334
  0
ARC
  5
223DA
330
747D
100
AcDbEntity
  8
部品1
100
AcDbCircle
 10
9662.122667299186
 20
1492.290833376044
 30
0.0
 40
8.0
100
AcDbArc
 50
0.0
 51
180.0
  0
CIRCLE
  5
223DB
330
747D
100
AcDbEntity
  8
部品1
100
AcDbCircle
 10
9662.122667299186
 20
1398.057288563071
 30
0.0
 40
12.8
  0
CIRCLE
  5
223DC
330
747D
100
AcDbEntity
  8
部品1
100
AcDbCircle
 10
9584.122667299185
 20
1398.05728856307
 30
0.0
 40
12.8
  0
LINE
  5
223DD
330
747D
100
AcDbEntity
  8
部品1
100
AcDbLine
 10
9654.122667299185
 20
1472.698836578605
 30
0.0
 11
9654.122667299185
 21
1452.290833376044
 31
0.0
  0
LINE
  5
223DE
330
747D
100
AcDbEntity
  8
部品1
100
AcDbLine
 10
9670.122667299185
 20
1472.698836578606
 30
0.0
 11
9670.122667299185
 21
1452.290833376044
 31
0.0
  0
LINE
  5
223DF
330
747D
100
AcDbEntity
  8
部品1
100
AcDbLine
 10
9592.122667299184
 20
1472.698836578605
 30
0.0
 11
9592.122667299184
 21
1452.290833376044
 31
0.0
  0
LINE
  5
223E0
330
747D
100
AcDbEntity
  8
部品1
100
AcDbLine
 10
9576.122667299186
 20
1472.698836578605
 30
0.0
 11
9576.122667299186
 21
1452.290833376044
 31
0.0
  0
LINE
  5
223E1
330
747D
100
AcDbEntity
  8
細線
100
AcDbLine
 10
9569.122667299186
 20
1346.654569026758
 30
0.0
 11
9477.086402949897
 21
1438.690833376046
 31
0.0
  0
LINE
  5
223E2
330
747D
100
AcDbEntity
  8
細線
100
AcDbLine
 10
9569.122667299186
 20
1312.71344352981
 30
0.0
 11
9443.145277452947
 21
1438.690833376046
 31
0.0
  0
LINE
  5
223E3
330
747D
100
AcDbEntity
  8
細線
100
AcDbLine
 10
9943.12266729919
 20
1334.693240994274
 30
0.0
 11
9839.125074917411
 21
1438.690833376046
 31
0.0
  0
LINE
  5
223E4
330
747D
100
AcDbEntity
  8
細線
100
AcDbLine
 10
9943.122667299185
 20
1300.752115497321
 30
0.0
 11
9805.183949420463
 21
1438.690833376046
 31
0.0
  0
LINE
  5
223E5
330
747D
100
AcDbEntity
  8
部品1
 48
50.0
100
AcDbLine
 10
12062.64865692558
 20
2599.999999999999
 30
0.0
 11
12062.64865692558
 21
199.9999999999963
 31
0.0
  0
LINE
  5
223E6
330
747D
100
AcDbEntity
  8
部品1
 48
50.0
100
AcDbLine
 10
4995.35635918878
 20
740.7607876117562
 30
0.0
 11
4595.356359188781
 21
740.7607876117545
 31
0.0
  0
LINE
  5
223E7
330
747D
100
AcDbEntity
  8
部品1
 48
50.0
100
AcDbLine
 10
4995.356359188781
 20
1140.760787611754
 30
0.0
 11
4995.35635918878
 21
740.7607876117562
 31
0.0
  0
LINE
  5
223E8
330
747D
100
AcDbEntity
  8
部品1
 48
50.0
100
AcDbLine
 10
4595.356359188781
 20
740.7607876117545
 30
0.0
 11
4595.356359188781
 21
1140.760787611754
 31
0.0
  0
TEXT
  5
223E9
330
747D
100
AcDbEntity
  8
部品1
100
AcDbText
 10
3298.357491939523
 20
485.2500369699864
 30
0.0
 40
80.0
  1
a寸法：100～150mmに対応
  7
STYLE2
100
AcDbText
  0
TEXT
  5
223EA
330
747D
100
AcDbEntity
  8
部品1
100
AcDbText
 10
5987.259138591797
 20
455.3904639477514
 30
0.0
 40
80.0
  1
\U+203BオールアンカーM10(市販品)が4本必要になります。
  7
STYLE2
100
AcDbText
  0
TEXT
  5
223EB
330
747D
100
AcDbEntity
  8
部品1
100
AcDbText
 10
6636.027962717164
 20
624.0115021823967
 30
0.0
 40
80.0
  1
b寸法：100～120mmに対応
  7
STYLE2
100
AcDbText
  0
DIMENSION
  5
223EC
330
747D
100
AcDbEntity
  8
寸法
 48
50.0
100
AcDbDimension
  2
*D39
 10
5093.427363549177
 20
1140.760787611754
 30
0.0
 11
4993.427363549177
 21
1240.760787611756
 31
0.0
 70
    32
  1
a
 71
     5
 42
200.0000000000009
  3
INABA_S40G
100
AcDbAlignedDimension
 13
4845.356359188784
 23
1340.760787611755
 33
0.0
 14
4845.356359188785
 24
1140.760787611754
 34
0.0
 50
90.0
100
AcDbRotatedDimension
1001
ACAD
1000
DSTYLE
1002
{
1070
   174
1070
     0
1070
   272
1070
     1
1070
   288
1070
     0
1070
   341
1005
0
1002
}
  0
TEXT
  5
223ED
330
747D
100
AcDbEntity
  8
部品1
100
AcDbText
 10
7886.660960621639
 20
2175.866049504641
 30
0.0
 40
120.0
  1
地盤がコンクリートの場合
  7
STYLE2
100
AcDbText
  0
LINE
  5
223EE
330
747D
100
AcDbEntity
  8
部品1
100
AcDbLine
 10
11110.74446491486
 20
1467.834426915492
 30
0.0
 11
11110.74446491486
 21
1452.290833376043
 31
0.0
  0
LINE
  5
223EF
330
747D
100
AcDbEntity
  8
部品1
100
AcDbLine
 10
11126.74446491486
 20
1467.834426915492
 30
0.0
 11
11126.74446491486
 21
1452.290833376043
 31
0.0
  0
LINE
  5
223F0
330
747D
100
AcDbEntity
  8
部品1
100
AcDbLine
 10
11158.74446491486
 20
1542.290833376046
 30
0.0
 11
11158.74446491486
 21
1438.936302364057
 31
0.0
  0
LINE
  5
223F1
330
747D
100
AcDbEntity
  8
部品1
100
AcDbLine
 10
11078.74446491486
 20
1542.290833376043
 30
0.0
 11
11078.74446491486
 21
1438.936302364051
 31
0.0
  0
ARC
  5
223F2
330
747D
100
AcDbEntity
  8
部品1
100
AcDbCircle
 10
11118.74446491486
 20
1452.290833376043
 30
0.0
 40
8.0
100
AcDbArc
 50
288.1948723386655
 51
0.0
  0
ARC
  5
223F3
330
747D
100
AcDbEntity
  8
部品1
100
AcDbCircle
 10
11118.74446491486
 20
1452.290833376043
 30
0.0
 40
8.0
100
AcDbArc
 50
180.0
 51
251.8051276613345
  0
ARC
  5
223F4
330
747D
100
AcDbEntity
  8
部品1
100
AcDbCircle
 10
11149.69040543462
 20
1434.690833376041
 30
0.0
 40
10.0
100
AcDbArc
 50
5.684241598180749
 51
90.0
  0
ARC
  5
223F5
330
747D
100
AcDbEntity
  8
部品1
100
AcDbCircle
 10
11087.7985243951
 20
1434.690833376044
 30
0.0
 40
10.0
100
AcDbArc
 50
90.0
 51
174.3157584018192
  0
LINE
  5
223F6
330
747D
100
AcDbEntity
  8
部品1
100
AcDbLine
 10
11087.7985243951
 20
1444.690833376044
 30
0.0
 11
11149.69040543462
 21
1444.69083337604
 31
0.0
  0
CIRCLE
  5
223F7
330
747D
100
AcDbEntity
  8
部品1
100
AcDbCircle
 10
11118.74446491486
 20
1382.290833376043
 30
0.0
 40
16.0
  0
LINE
  5
223F8
330
747D
100
AcDbEntity
  8
細線
100
AcDbLine
 10
11126.74446491486
 20
1422.690833376041
 30
0.0
 11
11126.74446491486
 21
1396.147239836595
 31
0.0
  0
LINE
  5
223F9
330
747D
100
AcDbEntity
  8
細線
100
AcDbLine
 10
11110.74446491486
 20
1422.690833376041
 30
0.0
 11
11110.74446491486
 21
1396.147239836595
 31
0.0
  0
LINE
  5
223FA
330
747D
100
AcDbEntity
  8
細線
100
AcDbLine
 10
11133.74446491486
 20
1358.690833376041
 30
0.0
 11
11133.74446491486
 21
1352.690833376041
 31
0.0
  0
LINE
  5
223FB
330
747D
100
AcDbEntity
  8
細線
100
AcDbLine
 10
11103.74446491486
 20
1358.690833376044
 30
0.0
 11
11103.74446491486
 21
1352.690833376044
 31
0.0
  0
LINE
  5
223FC
330
747D
100
AcDbEntity
  8
細線
100
AcDbLine
 10
11103.74446491486
 20
1358.690833376044
 30
0.0
 11
11133.74446491486
 21
1358.690833376044
 31
0.0
  0
LINE
  5
223FD
330
747D
100
AcDbEntity
  8
細線
100
AcDbLine
 10
11103.74446491486
 20
1352.690833376044
 30
0.0
 11
11133.74446491486
 21
1352.690833376044
 31
0.0
  0
ARC
  5
223FE
330
747D
100
AcDbEntity
  8
細線
100
AcDbCircle
 10
11118.74446491486
 20
1422.690833376041
 30
0.0
 40
8.0
100
AcDbArc
 50
0.0
 51
180.0
  0
CIRCLE
  5
223FF
330
747D
100
AcDbEntity
  8
細線
100
AcDbCircle
 10
11118.74446491486
 20
1522.290833376043
 30
0.0
 40
8.0
  0
CIRCLE
  5
22400
330
747D
100
AcDbEntity
  8
部品1
100
AcDbCircle
 10
11118.74446491486
 20
1481.690833376044
 30
0.0
 40
16.0
  0
ARC
  5
22401
330
747D
100
AcDbEntity
  8
部品1
100
AcDbCircle
 10
11118.74446491486
 20
1492.290833376043
 30
0.0
 40
8.0
100
AcDbArc
 50
28.00674301448735
 51
151.9932569855126
  0
ARC
  5
22402
330
747D
100
AcDbEntity
  8
部品1
100
AcDbCircle
 10
11148.74446491486
 20
1542.290833376046
 30
0.0
 40
10.0
100
AcDbArc
 50
0.0
 51
90.0
  0
ARC
  5
22403
330
747D
100
AcDbEntity
  8
部品1
100
AcDbCircle
 10
11088.74446491486
 20
1542.290833376043
 30
0.0
 40
10.0
100
AcDbArc
 50
90.0
 51
180.0
  0
LINE
  5
22404
330
747D
100
AcDbEntity
  8
部品1
100
AcDbLine
 10
11088.74446491486
 20
1552.290833376043
 30
0.0
 11
11148.74446491486
 21
1552.290833376046
 31
0.0
  0
LINE
  5
22405
330
747D
100
AcDbEntity
  8
細線
100
AcDbLine
 10
11070.6651328442
 20
1365.346768098298
 30
0.0
 11
10997.32106756646
 21
1438.690833376044
 31
0.0
  0
LINE
  5
22406
330
747D
100
AcDbEntity
  8
細線
100
AcDbLine
 10
11074.59627043783
 20
1403.842037375855
 30
0.0
 11
11039.74747443765
 21
1438.690833376044
 31
0.0
  0
LINE
  5
22407
330
747D
100
AcDbEntity
  8
部品1
100
AcDbLine
 10
11188.74446491486
 20
1150.690833376044
 30
0.0
 11
11188.74446491486
 21
1138.690833376044
 31
0.0
  0
LINE
  5
22408
330
747D
100
AcDbEntity
  8
部品1
100
AcDbLine
 10
11128.74446491486
 20
1171.090833376045
 30
0.0
 11
11133.74446491486
 21
1171.090833376045
 31
0.0
  0
LINE
  5
22409
330
747D
100
AcDbEntity
  8
部品1
100
AcDbLine
 10
11103.74446491486
 20
1205.090833376046
 30
0.0
 11
11133.74446491486
 21
1205.090833376046
 31
0.0
  0
LINE
  5
2240A
330
747D
100
AcDbEntity
  8
部品1
100
AcDbLine
 10
11103.74446491486
 20
1211.090833376046
 30
0.0
 11
11133.74446491486
 21
1211.090833376046
 31
0.0
  0
LINE
  5
2240B
330
747D
100
AcDbEntity
  8
部品1
100
AcDbLine
 10
11103.74446491486
 20
1211.090833376046
 30
0.0
 11
11103.74446491486
 21
1205.090833376046
 31
0.0
  0
LINE
  5
2240C
330
747D
100
AcDbEntity
  8
部品1
100
AcDbLine
 10
11133.74446491486
 20
1211.090833376042
 30
0.0
 11
11133.74446491486
 21
1205.090833376042
 31
0.0
  0
LINE
  5
2240D
330
747D
100
AcDbEntity
  8
部品1
100
AcDbLine
 10
11111.74446491486
 20
1202.943729399704
 30
0.0
 11
11125.74446491486
 21
1202.943729399704
 31
0.0
  0
LINE
  5
2240E
330
747D
100
AcDbEntity
  8
部品1
100
AcDbLine
 10
11108.74446491486
 20
1190.690833376044
 30
0.0
 11
11128.74446491486
 21
1190.690833376044
 31
0.0
  0
LINE
  5
2240F
330
747D
100
AcDbEntity
  8
部品1
100
AcDbLine
 10
11101.74446491486
 20
1169.690833376044
 30
0.0
 11
11098.74446491486
 21
1166.690833376044
 31
0.0
  0
LINE
  5
22410
330
747D
100
AcDbEntity
  8
部品1
100
AcDbLine
 10
11101.74446491486
 20
1169.690833376044
 30
0.0
 11
11135.74446491486
 21
1169.690833376044
 31
0.0
  0
LINE
  5
22411
330
747D
100
AcDbEntity
  8
部品1
100
AcDbLine
 10
11135.74446491486
 20
1169.690833376044
 30
0.0
 11
11138.74446491486
 21
1166.690833376044
 31
0.0
  0
LINE
  5
22412
330
747D
100
AcDbEntity
  8
部品1
100
AcDbLine
 10
11103.74446491486
 20
1171.090833376045
 30
0.0
 11
11103.74446491486
 21
1169.690833376044
 31
0.0
  0
LINE
  5
22413
330
747D
100
AcDbEntity
  8
部品1
100
AcDbLine
 10
11133.74446491486
 20
1171.090833376042
 30
0.0
 11
11133.74446491486
 21
1169.690833376044
 31
0.0
  0
LINE
  5
22414
330
747D
100
AcDbEntity
  8
部品1
100
AcDbLine
 10
11088.74446491486
 20
1153.690833376044
 30
0.0
 11
11148.74446491486
 21
1153.690833376048
 31
0.0
  0
LINE
  5
22415
330
747D
100
AcDbEntity
  8
部品1
100
AcDbLine
 10
11088.74446491486
 20
1150.690833376044
 30
0.0
 11
11088.74446491486
 21
1153.690833376044
 31
0.0
  0
LINE
  5
22416
330
747D
100
AcDbEntity
  8
部品1
100
AcDbLine
 10
11148.74446491486
 20
1150.690833376044
 30
0.0
 11
11148.74446491486
 21
1153.690833376051
 31
0.0
  0
LINE
  5
22417
330
747D
100
AcDbEntity
  8
部品1
100
AcDbLine
 10
11098.74446491486
 20
1153.690833376044
 30
0.0
 11
11098.74446491486
 21
1166.690833376044
 31
0.0
  0
LINE
  5
22418
330
747D
100
AcDbEntity
  8
部品1
100
AcDbLine
 10
11108.74446491486
 20
1153.690833376044
 30
0.0
 11
11108.74446491486
 21
1190.690833376044
 31
0.0
  0
LINE
  5
22419
330
747D
100
AcDbEntity
  8
部品1
100
AcDbLine
 10
11128.74446491486
 20
1153.690833376044
 30
0.0
 11
11128.74446491486
 21
1190.690833376044
 31
0.0
  0
LINE
  5
2241A
330
747D
100
AcDbEntity
  8
部品1
100
AcDbLine
 10
11138.74446491486
 20
1153.690833376048
 30
0.0
 11
11138.74446491486
 21
1166.690833376044
 31
0.0
  0
LINE
  5
2241B
330
747D
100
AcDbEntity
  8
部品1
100
AcDbLine
 10
11103.74446491486
 20
1171.090833376045
 30
0.0
 11
11108.74446491486
 21
1171.090833376045
 31
0.0
  0
LINE
  5
2241C
330
747D
100
AcDbEntity
  8
部品1
100
AcDbLine
 10
11128.74446491486
 20
1171.090833376045
 30
0.0
 11
11133.74446491486
 21
1171.090833376045
 31
0.0
  0
LINE
  5
2241D
330
747D
100
AcDbEntity
  8
部品1
100
AcDbLine
 10
11098.74446491486
 20
1166.690833376044
 30
0.0
 11
11138.74446491486
 21
1166.690833376044
 31
0.0
  0
ARC
  5
2241E
330
747D
100
AcDbEntity
  8
部品1
100
AcDbCircle
 10
11103.74446491486
 20
1162.176078585726
 30
0.0
 40
6.736691384996243
100
AcDbArc
 50
42.08048849859669
 51
137.9195115014033
  0
ARC
  5
2241F
330
747D
100
AcDbEntity
  8
部品1
100
AcDbCircle
 10
11133.74446491486
 20
1162.176078585726
 30
0.0
 40
6.736691384996243
100
AcDbArc
 50
42.08048849859669
 51
137.9195115014033
  0
ARC
  5
22420
330
747D
100
AcDbEntity
  8
部品1
100
AcDbCircle
 10
11118.74446491486
 20
1145.602200155227
 30
0.0
 40
23.33946124318486
100
AcDbArc
 50
64.63020194521516
 51
115.3697980547848
  0
LINE
  5
22421
330
747D
100
AcDbEntity
  8
部品1
100
AcDbLine
 10
11111.74446491486
 20
1198.943729399704
 30
0.0
 11
11125.74446491486
 21
1198.943729399704
 31
0.0
  0
LINE
  5
22422
330
747D
100
AcDbEntity
  8
部品1
100
AcDbLine
 10
11113.74446491486
 20
1190.690833376044
 30
0.0
 11
11113.74446491486
 21
1198.943729399704
 31
0.0
  0
LINE
  5
22423
330
747D
100
AcDbEntity
  8
部品1
100
AcDbLine
 10
11123.74446491486
 20
1190.690833376044
 30
0.0
 11
11123.74446491486
 21
1198.943729399704
 31
0.0
  0
LINE
  5
22424
330
747D
100
AcDbEntity
  8
部品1
100
AcDbLine
 10
11108.74446491486
 20
1138.690833376044
 30
0.0
 11
11108.74446491486
 21
1103.290833376043
 31
0.0
  0
LINE
  5
22425
330
747D
100
AcDbEntity
  8
部品1
100
AcDbLine
 10
11128.74446491486
 20
1138.690833376044
 30
0.0
 11
11128.74446491486
 21
1103.290833376043
 31
0.0
  0
LINE
  5
22426
330
747D
100
AcDbEntity
  8
部品1
100
AcDbLine
 10
11116.83396428132
 20
1103.290833376043
 30
0.0
 11
11120.6549655484
 21
1103.290833376043
 31
0.0
  0
LINE
  5
22427
330
747D
100
AcDbEntity
  8
部品1
100
AcDbLine
 10
11105.4145930676
 20
1081.091687727669
 30
0.0
 11
11113.32608389055
 21
1079.90496410423
 31
0.0
  0
LINE
  5
22428
330
747D
100
AcDbEntity
  8
部品1
100
AcDbLine
 10
11106.30463578518
 20
1087.02530584488
 30
0.0
 11
11114.21612660813
 21
1085.838582221441
 31
0.0
  0
LINE
  5
22429
330
747D
100
AcDbEntity
  8
部品1
100
AcDbLine
 10
11107.19467850276
 20
1092.958923962091
 30
0.0
 11
11115.10616932571
 21
1091.772200338648
 31
0.0
  0
LINE
  5
2242A
330
747D
100
AcDbEntity
  8
部品1
100
AcDbLine
 10
11108.08472122034
 20
1098.892542079299
 30
0.0
 11
11115.99621204329
 21
1097.705818455856
 31
0.0
  0
LINE
  5
2242B
330
747D
100
AcDbEntity
  8
部品1
100
AcDbLine
 10
11124.16284593917
 20
1079.90496410423
 30
0.0
 11
11132.07433676212
 21
1081.091687727669
 31
0.0
  0
LINE
  5
2242C
330
747D
100
AcDbEntity
  8
部品1
100
AcDbLine
 10
11123.27280322159
 20
1085.838582221441
 30
0.0
 11
11131.18429404454
 21
1087.02530584488
 31
0.0
  0
LINE
  5
2242D
330
747D
100
AcDbEntity
  8
部品1
100
AcDbLine
 10
11122.38276050401
 20
1091.772200338648
 30
0.0
 11
11130.29425132696
 21
1092.958923962091
 31
0.0
  0
LINE
  5
2242E
330
747D
100
AcDbEntity
  8
部品1
100
AcDbLine
 10
11121.49271778643
 20
1097.705818455856
 30
0.0
 11
11129.40420860938
 21
1098.892542079299
 31
0.0
  0
LINE
  5
2242F
330
747D
100
AcDbEntity
  8
部品1
100
AcDbLine
 10
11111.74446491486
 20
1198.943729399704
 30
0.0
 11
11111.74446491486
 21
1202.943729399704
 31
0.0
  0
LINE
  5
22430
330
747D
100
AcDbEntity
  8
部品1
100
AcDbLine
 10
11125.74446491486
 20
1198.943729399704
 30
0.0
 11
11125.74446491486
 21
1202.943729399704
 31
0.0
  0
LINE
  5
22431
330
747D
100
AcDbEntity
  8
部品1
100
AcDbLine
 10
11103.74446491486
 20
1169.690833376044
 30
0.0
 11
11133.74446491486
 21
1169.690833376044
 31
0.0
  0
LINE
  5
22432
330
747D
100
AcDbEntity
  8
部品1
100
AcDbLine
 10
11133.74446491486
 20
1171.090833376042
 30
0.0
 11
11133.74446491486
 21
1169.690833376044
 31
0.0
  0
LINE
  5
22433
330
747D
100
AcDbEntity
  8
部品1
100
AcDbLine
 10
11103.74446491486
 20
1171.090833376045
 30
0.0
 11
11103.74446491486
 21
1169.69083337604
 31
0.0
  0
LINE
  5
22434
330
747D
100
AcDbEntity
  8
部品1
100
AcDbLine
 10
11103.74446491486
 20
1171.090833376045
 30
0.0
 11
11108.74446491486
 21
1171.090833376045
 31
0.0
  0
LINE
  5
22435
330
747D
100
AcDbEntity
  8
部品1
100
AcDbLine
 10
11133.74446491486
 20
1211.090833376042
 30
0.0
 11
11133.74446491486
 21
1205.090833376042
 31
0.0
  0
LINE
  5
22436
330
747D
100
AcDbEntity
  8
部品1
100
AcDbLine
 10
11103.74446491486
 20
1211.090833376046
 30
0.0
 11
11103.74446491486
 21
1205.090833376046
 31
0.0
  0
LINE
  5
22437
330
747D
100
AcDbEntity
  8
部品1
100
AcDbLine
 10
11103.74446491486
 20
1211.090833376046
 30
0.0
 11
11133.74446491486
 21
1211.090833376046
 31
0.0
  0
LINE
  5
22438
330
747D
100
AcDbEntity
  8
部品1
100
AcDbLine
 10
11103.74446491486
 20
1205.090833376046
 30
0.0
 11
11133.74446491486
 21
1205.090833376046
 31
0.0
  0
LINE
  5
22439
330
747D
100
AcDbEntity
  8
部品1
100
AcDbLine
 10
11048.74446491486
 20
1150.690833376044
 30
0.0
 11
11048.74446491486
 21
1138.690833376044
 31
0.0
  0
LINE
  5
2243A
330
747D
100
AcDbEntity
  8
部品1
100
AcDbLine
 10
11102.74446491486
 20
1063.290833376043
 30
0.0
 11
11110.65595573781
 21
1062.104109752603
 31
0.0
  0
LINE
  5
2243B
330
747D
100
AcDbEntity
  8
部品1
100
AcDbLine
 10
11126.83297409191
 20
1062.104109752603
 30
0.0
 11
11134.74446491486
 21
1063.290833376043
 31
0.0
  0
LINE
  5
2243C
330
747D
100
AcDbEntity
  8
部品1
100
AcDbLine
 10
11103.63450763244
 20
1069.224451493254
 30
0.0
 11
11111.54599845539
 21
1068.037727869811
 31
0.0
  0
LINE
  5
2243D
330
747D
100
AcDbEntity
  8
部品1
100
AcDbLine
 10
11104.52455035002
 20
1075.158069610461
 30
0.0
 11
11112.43604117297
 21
1073.971345987018
 31
0.0
  0
LINE
  5
2243E
330
747D
100
AcDbEntity
  8
部品1
100
AcDbLine
 10
11125.94293137433
 20
1068.037727869811
 30
0.0
 11
11133.85442219728
 21
1069.224451493254
 31
0.0
  0
LINE
  5
2243F
330
747D
100
AcDbEntity
  8
部品1
100
AcDbLine
 10
11125.05288865675
 20
1073.971345987018
 30
0.0
 11
11132.9643794797
 21
1075.158069610461
 31
0.0
  0
LINE
  5
22440
330
747D
100
AcDbEntity
  8
部品1
100
AcDbLine
 10
11108.74446491486
 20
1103.290833376043
 30
0.0
 11
11102.74446491486
 21
1063.290833376043
 31
0.0
  0
LINE
  5
22441
330
747D
100
AcDbEntity
  8
部品1
100
AcDbLine
 10
11134.74446491486
 20
1063.290833376043
 30
0.0
 11
11128.74446491486
 21
1103.290833376043
 31
0.0
  0
LINE
  5
22442
330
747D
100
AcDbEntity
  8
部品1
100
AcDbLine
 10
11116.83396428132
 20
1103.290833376043
 30
0.0
 11
11110.65595573781
 21
1062.104109752603
 31
0.0
  0
LINE
  5
22443
330
747D
100
AcDbEntity
  8
部品1
100
AcDbLine
 10
11126.83297409191
 20
1062.104109752603
 30
0.0
 11
11120.6549655484
 21
1103.290833376043
 31
0.0
  0
LINE
  5
22444
330
747D
100
AcDbEntity
  8
部品1
100
AcDbLine
 10
11048.74446491486
 20
1138.690833376044
 30
0.0
 11
11188.74446491486
 21
1138.690833376044
 31
0.0
  0
LINE
  5
22445
330
747D
100
AcDbEntity
  8
部品1
100
AcDbLine
 10
11048.74446491486
 20
1150.690833376044
 30
0.0
 11
11188.74446491486
 21
1150.690833376044
 31
0.0
  0
LINE
  5
22446
330
747D
100
AcDbEntity
  8
部品1
100
AcDbLine
 10
11159.64123392293
 20
1435.681294074944
 30
0.0
 11
11188.74446491486
 21
1150.690833376044
 31
0.0
  0
LINE
  5
22447
330
747D
100
AcDbEntity
  8
部品1
100
AcDbLine
 10
11077.84769590679
 20
1435.681294074944
 30
0.0
 11
11048.74446491486
 21
1150.690833376044
 31
0.0
  0
DIMENSION
  5
22448
330
747D
100
AcDbEntity
  8
寸法
 48
50.0
100
AcDbDimension
  2
*D40
 10
11361.49111054165
 20
1138.690833376044
 30
0.0
 11
11261.49111054165
 21
1288.690833376046
 31
0.0
 70
    32
  1
c
 71
     5
 42
300.0
  3
INABA_S40G
100
AcDbAlignedDimension
 13
11158.85555682453
 23
1438.690833376044
 33
0.0
 14
11188.74446491486
 24
1138.690833376044
 34
0.0
 50
90.0
100
AcDbRotatedDimension
1001
ACAD
1000
DSTYLE
1002
{
1070
   174
1070
     0
1070
   272
1070
     1
1070
   288
1070
     0
1070
   341
1005
0
1002
}
  0
LINE
  5
22449
330
747D
100
AcDbEntity
  8
細線
 48
10.0
100
AcDbLine
 10
11146.30922320576
 20
831.7726360367601
 30
0.0
 11
11453.22742054504
 21
1138.690833376044
 31
0.0
  0
LINE
  5
2244A
330
747D
100
AcDbEntity
  8
細線
 48
10.0
100
AcDbLine
 10
11174.59349445322
 20
831.7726360367601
 30
0.0
 11
11481.5116917925
 21
1138.690833376044
 31
0.0
  0
LINE
  5
2244B
330
747D
100
AcDbEntity
  8
細線
 48
10.0
100
AcDbLine
 10
11202.87776570068
 20
831.7726360367601
 30
0.0
 11
11509.79596303996
 21
1138.690833376046
 31
0.0
  0
LINE
  5
2244C
330
747D
100
AcDbEntity
  8
細線
100
AcDbLine
 10
10844.77272760706
 20
1138.690833376044
 30
0.0
 11
10758.74446491486
 21
1224.719096068244
 31
0.0
  0
LINE
  5
2244D
330
747D
100
AcDbEntity
  8
細線
100
AcDbLine
 10
10887.19913447825
 20
1138.690833376044
 30
0.0
 11
10758.74446491486
 21
1267.145502939437
 31
0.0
  0
LINE
  5
2244E
330
747D
100
AcDbEntity
  8
部品1
100
AcDbLine
 10
10758.74446491486
 20
1138.690833376041
 30
0.0
 11
10758.74446491486
 21
1438.690833376044
 31
0.0
  0
LINE
  5
2244F
330
747D
100
AcDbEntity
  8
細線
 48
10.0
100
AcDbLine
 10
10535.94706811615
 20
1074.727258652816
 30
0.0
 11
10599.91064283938
 21
1138.690833376044
 31
0.0
  0
LINE
  5
22450
330
747D
100
AcDbEntity
  8
細線
 48
10.0
100
AcDbLine
 10
10535.94706811615
 20
1046.442987405362
 30
0.0
 11
10628.19491408683
 21
1138.690833376044
 31
0.0
  0
LINE
  5
22451
330
747D
100
AcDbEntity
  8
細線
 48
10.0
100
AcDbLine
 10
10535.94706811615
 20
1018.158716157903
 30
0.0
 11
10656.47918533428
 21
1138.690833376044
 31
0.0
  0
LINE
  5
22452
330
747D
100
AcDbEntity
  8
細線
 48
10.0
100
AcDbLine
 10
10776.21937684786
 20
831.7726360367601
 30
0.0
 11
11083.13757418712
 21
1138.690833376044
 31
0.0
  0
LINE
  5
22453
330
747D
100
AcDbEntity
  8
細線
 48
10.0
100
AcDbLine
 10
10747.9351056004
 20
831.7726360367601
 30
0.0
 11
11054.85330293967
 21
1138.690833376044
 31
0.0
  0
LINE
  5
22454
330
747D
100
AcDbEntity
  8
細線
 48
10.0
100
AcDbLine
 10
10719.65083435294
 20
831.7726360367601
 30
0.0
 11
11026.56903169221
 21
1138.690833376046
 31
0.0
  0
LINE
  5
22455
330
747D
100
AcDbEntity
  8
細線
100
AcDbLine
 10
11053.63020327178
 20
1198.533934562216
 30
0.0
 11
10813.47330445795
 21
1438.690833376044
 31
0.0
  0
LINE
  5
22456
330
747D
100
AcDbEntity
  8
細線
100
AcDbLine
 10
11049.69906567814
 20
1160.038665284659
 30
0.0
 11
10771.04689758676
 21
1438.690833376044
 31
0.0
  0
LINE
  5
22457
330
747D
100
AcDbEntity
  8
部品1
100
AcDbLine
 10
10535.94706811615
 20
1532.690833376046
 30
0.0
 11
11078.74446491486
 21
1532.690833376046
 31
0.0
  0
LINE
  5
22458
330
747D
100
AcDbEntity
  8
部品1
100
AcDbLine
 10
10535.94706811615
 20
1538.690833376046
 30
0.0
 11
11048.74446491486
 21
1538.690833376046
 31
0.0
  0
LINE
  5
22459
330
747D
100
AcDbEntity
  8
部品1
100
AcDbLine
 10
10535.94706811615
 20
1438.690833376044
 30
0.0
 11
11078.6333730052
 21
1438.690833376046
 31
0.0
  0
TEXT
  5
2245A
330
747D
100
AcDbEntity
  8
部品1
100
AcDbText
 10
8422.901063470256
 20
1148.666829290658
 30
0.0
 40
120.0
  1
▽G.L
  7
STYLE1
100
AcDbText
  0
LINE
  5
2245B
330
747D
100
AcDbEntity
  8
細線
 48
10.0
100
AcDbLine
 10
8343.921841537627
 20
833.8425902724702
 30
0.0
 11
8650.840038876902
 21
1140.760787611754
 31
0.0
  0
LINE
  5
2245C
330
747D
100
AcDbEntity
  8
細線
 48
10.0
100
AcDbLine
 10
8372.206112785089
 20
833.8425902724702
 30
0.0
 11
8679.124310124363
 21
1140.760787611754
 31
0.0
  0
LINE
  5
2245D
330
747D
100
AcDbEntity
  8
細線
 48
10.0
100
AcDbLine
 10
8400.490384032551
 20
833.8425902724702
 30
0.0
 11
8707.408581371828
 21
1140.760787611754
 31
0.0
  0
LINE
  5
2245E
330
747D
100
AcDbEntity
  8
細線
100
AcDbLine
 10
8023.41186020188
 20
1360.760787611751
 30
0.0
 11
8023.41186020188
 21
1354.760787611751
 31
0.0
  0
LINE
  5
2245F
330
747D
100
AcDbEntity
  8
細線
100
AcDbLine
 10
7993.411860201881
 20
1360.760787611756
 30
0.0
 11
7993.411860201881
 21
1354.760787611756
 31
0.0
  0
LINE
  5
22460
330
747D
100
AcDbEntity
  8
細線
100
AcDbLine
 10
7993.411860201881
 20
1354.760787611756
 30
0.0
 11
8023.41186020188
 21
1354.760787611756
 31
0.0
  0
ARC
  5
22461
330
747D
100
AcDbEntity
  8
部品1
100
AcDbCircle
 10
8039.357800721637
 20
1436.760787611753
 30
0.0
 40
10.0
100
AcDbArc
 50
5.684241598180749
 51
90.0
  0
LINE
  5
22462
330
747D
100
AcDbEntity
  8
部品1
100
AcDbLine
 10
7977.465919682124
 20
1446.760787611754
 30
0.0
 11
8039.357800721637
 21
1446.760787611752
 31
0.0
  0
ARC
  5
22463
330
747D
100
AcDbEntity
  8
細線
100
AcDbCircle
 10
8008.41186020188
 20
1424.760787611752
 30
0.0
 40
8.0
100
AcDbArc
 50
0.0
 51
180.0
  0
LINE
  5
22464
330
747D
100
AcDbEntity
  8
細線
100
AcDbLine
 10
8016.411860201881
 20
1424.760787611752
 30
0.0
 11
8016.411860201881
 21
1398.617194072307
 31
0.0
  0
LINE
  5
22465
330
747D
100
AcDbEntity
  8
細線
100
AcDbLine
 10
8000.41186020188
 20
1424.760787611752
 30
0.0
 11
8000.41186020188
 21
1398.617194072307
 31
0.0
  0
LINE
  5
22466
330
747D
100
AcDbEntity
  8
細線
100
AcDbLine
 10
7993.411860201881
 20
1360.760787611756
 30
0.0
 11
8023.41186020188
 21
1360.760787611756
 31
0.0
  0
CIRCLE
  5
22467
330
747D
100
AcDbEntity
  8
部品1
100
AcDbCircle
 10
8008.41186020188
 20
1384.760787611754
 30
0.0
 40
16.0
  0
ARC
  5
22468
330
747D
100
AcDbEntity
  8
部品1
100
AcDbCircle
 10
7977.465919682124
 20
1436.760787611756
 30
0.0
 40
10.0
100
AcDbArc
 50
90.0
 51
174.3157584018192
  0
LINE
  5
22469
330
747D
100
AcDbEntity
  8
部品1
100
AcDbLine
 10
8011.160113073451
 20
1099.775772691568
 30
0.0
 11
8019.071603896398
 21
1100.962496315011
 31
0.0
  0
LINE
  5
2246A
330
747D
100
AcDbEntity
  8
部品1
100
AcDbLine
 10
8012.050155791035
 20
1093.842154574358
 30
0.0
 11
8019.96164661398
 21
1095.028878197801
 31
0.0
  0
LINE
  5
2246B
330
747D
100
AcDbEntity
  8
部品1
100
AcDbLine
 10
8012.940198508617
 20
1087.908536457153
 30
0.0
 11
8020.851689331562
 21
1089.095260080592
 31
0.0
  0
LINE
  5
2246C
330
747D
100
AcDbEntity
  8
部品1
100
AcDbLine
 10
8013.830241226193
 20
1081.97491833994
 30
0.0
 11
8021.741732049139
 21
1083.161641963381
 31
0.0
  0
LINE
  5
2246D
330
747D
100
AcDbEntity
  8
部品1
100
AcDbLine
 10
8014.720283943777
 20
1076.04130022273
 30
0.0
 11
8022.631774766722
 21
1077.228023846173
 31
0.0
  0
LINE
  5
2246E
330
747D
100
AcDbEntity
  8
部品1
100
AcDbLine
 10
8015.61032666135
 20
1070.107682105521
 30
0.0
 11
8023.521817484306
 21
1071.294405728964
 31
0.0
  0
LINE
  5
2246F
330
747D
100
AcDbEntity
  8
部品1
100
AcDbLine
 10
7997.752116507365
 20
1100.962496315011
 30
0.0
 11
8005.66360733031
 21
1099.775772691568
 31
0.0
  0
LINE
  5
22470
330
747D
100
AcDbEntity
  8
部品1
100
AcDbLine
 10
7996.862073789782
 20
1095.028878197801
 30
0.0
 11
8004.773564612728
 21
1093.842154574358
 31
0.0
  0
LINE
  5
22471
330
747D
100
AcDbEntity
  8
部品1
100
AcDbLine
 10
7995.972031072206
 20
1089.095260080592
 30
0.0
 11
8003.883521895152
 21
1087.908536457153
 31
0.0
  0
LINE
  5
22472
330
747D
100
AcDbEntity
  8
部品1
100
AcDbLine
 10
7995.081988354623
 20
1083.161641963381
 30
0.0
 11
8002.993479177568
 21
1081.97491833994
 31
0.0
  0
LINE
  5
22473
330
747D
100
AcDbEntity
  8
部品1
100
AcDbLine
 10
7994.19194563704
 20
1077.228023846173
 30
0.0
 11
8002.103436459986
 21
1076.04130022273
 31
0.0
  0
LINE
  5
22474
330
747D
100
AcDbEntity
  8
部品1
100
AcDbLine
 10
7993.301902919464
 20
1071.294405728964
 30
0.0
 11
8001.213393742409
 21
1070.107682105521
 31
0.0
  0
LINE
  5
22475
330
747D
100
AcDbEntity
  8
部品1
100
AcDbLine
 10
8016.500369378935
 20
1064.174063988315
 30
0.0
 11
8024.411860201881
 21
1065.360787611755
 31
0.0
  0
LINE
  5
22476
330
747D
100
AcDbEntity
  8
部品1
100
AcDbLine
 10
7992.41186020188
 20
1065.360787611755
 30
0.0
 11
8000.323351024826
 21
1064.174063988315
 31
0.0
  0
LINE
  5
22477
330
747D
100
AcDbEntity
  8
部品1
100
AcDbLine
 10
8016.500369378935
 20
1064.174063988315
 30
0.0
 11
8010.322360835418
 21
1105.360787611755
 31
0.0
  0
LINE
  5
22478
330
747D
100
AcDbEntity
  8
部品1
100
AcDbLine
 10
8006.501359568344
 20
1105.360787611755
 30
0.0
 11
8000.323351024826
 21
1064.174063988315
 31
0.0
  0
LINE
  5
22479
330
747D
100
AcDbEntity
  8
部品1
100
AcDbLine
 10
8024.411860201881
 20
1065.360787611755
 30
0.0
 11
8018.411860201881
 21
1105.360787611755
 31
0.0
  0
LINE
  5
2247A
330
747D
100
AcDbEntity
  8
部品1
100
AcDbLine
 10
7998.411860201881
 20
1105.360787611755
 30
0.0
 11
7992.41186020188
 21
1065.360787611755
 31
0.0
  0
LINE
  5
2247B
330
747D
100
AcDbEntity
  8
部品1
100
AcDbLine
 10
8006.501359568344
 20
1105.360787611755
 30
0.0
 11
8010.322360835418
 21
1105.360787611755
 31
0.0
  0
LINE
  5
2247C
330
747D
100
AcDbEntity
  8
部品1
100
AcDbLine
 10
8018.411860201881
 20
1140.760787611754
 30
0.0
 11
8018.411860201881
 21
1105.360787611755
 31
0.0
  0
LINE
  5
2247D
330
747D
100
AcDbEntity
  8
部品1
100
AcDbLine
 10
7998.411860201881
 20
1140.760787611754
 30
0.0
 11
7998.411860201881
 21
1105.360787611755
 31
0.0
  0
LINE
  5
2247E
330
747D
100
AcDbEntity
  8
部品1
100
AcDbLine
 10
8001.411860201882
 20
1201.013683635416
 30
0.0
 11
8015.411860201881
 21
1201.013683635416
 31
0.0
  0
LINE
  5
2247F
330
747D
100
AcDbEntity
  8
部品1
100
AcDbLine
 10
8015.411860201881
 20
1201.013683635416
 30
0.0
 11
8015.411860201881
 21
1205.013683635416
 31
0.0
  0
LINE
  5
22480
330
747D
100
AcDbEntity
  8
部品1
100
AcDbLine
 10
8001.411860201882
 20
1201.013683635416
 30
0.0
 11
8001.411860201882
 21
1205.013683635416
 31
0.0
  0
LINE
  5
22481
330
747D
100
AcDbEntity
  8
部品1
100
AcDbLine
 10
8013.41186020188
 20
1192.760787611756
 30
0.0
 11
8013.41186020188
 21
1201.013683635416
 31
0.0
  0
LINE
  5
22482
330
747D
100
AcDbEntity
  8
部品1
100
AcDbLine
 10
8003.411860201881
 20
1192.760787611756
 30
0.0
 11
8003.411860201881
 21
1201.013683635416
 31
0.0
  0
LINE
  5
22483
330
747D
100
AcDbEntity
  8
部品1
100
AcDbLine
 10
8001.411860201882
 20
1205.013683635416
 30
0.0
 11
8015.411860201881
 21
1205.013683635416
 31
0.0
  0
ARC
  5
22484
330
747D
100
AcDbEntity
  8
部品1
100
AcDbCircle
 10
8008.41186020188
 20
1147.672154390937
 30
0.0
 40
23.33946124318486
100
AcDbArc
 50
64.63020194521516
 51
115.3697980547848
  0
ARC
  5
22485
330
747D
100
AcDbEntity
  8
部品1
100
AcDbCircle
 10
8023.41186020188
 20
1164.246032821438
 30
0.0
 40
6.736691384996243
100
AcDbArc
 50
42.08048849859669
 51
137.9195115014033
  0
ARC
  5
22486
330
747D
100
AcDbEntity
  8
部品1
100
AcDbCircle
 10
7993.411860201881
 20
1164.246032821438
 30
0.0
 40
6.736691384996243
100
AcDbArc
 50
42.08048849859669
 51
137.9195115014033
  0
LINE
  5
22487
330
747D
100
AcDbEntity
  8
部品1
100
AcDbLine
 10
7988.41186020188
 20
1168.760787611756
 30
0.0
 11
8028.411860201881
 21
1168.760787611756
 31
0.0
  0
LINE
  5
22488
330
747D
100
AcDbEntity
  8
部品1
100
AcDbLine
 10
8018.411860201881
 20
1173.160787611758
 30
0.0
 11
8023.41186020188
 21
1173.160787611758
 31
0.0
  0
LINE
  5
22489
330
747D
100
AcDbEntity
  8
部品1
100
AcDbLine
 10
8038.411860201881
 20
1152.760787611754
 30
0.0
 11
8038.411860201881
 21
1155.760787611763
 31
0.0
  0
LINE
  5
2248A
330
747D
100
AcDbEntity
  8
部品1
100
AcDbLine
 10
7978.41186020188
 20
1152.760787611754
 30
0.0
 11
7978.41186020188
 21
1155.760787611754
 31
0.0
  0
LINE
  5
2248B
330
747D
100
AcDbEntity
  8
部品1
100
AcDbLine
 10
8025.411860201881
 20
1171.760787611756
 30
0.0
 11
8028.411860201881
 21
1168.760787611756
 31
0.0
  0
LINE
  5
2248C
330
747D
100
AcDbEntity
  8
部品1
100
AcDbLine
 10
7991.41186020188
 20
1171.760787611756
 30
0.0
 11
7988.41186020188
 21
1168.760787611756
 31
0.0
  0
LINE
  5
2248D
330
747D
100
AcDbEntity
  8
部品1
100
AcDbLine
 10
8028.411860201881
 20
1155.76078761176
 30
0.0
 11
8028.411860201881
 21
1168.760787611756
 31
0.0
  0
LINE
  5
2248E
330
747D
100
AcDbEntity
  8
部品1
100
AcDbLine
 10
7988.41186020188
 20
1155.760787611754
 30
0.0
 11
7988.41186020188
 21
1168.760787611756
 31
0.0
  0
LINE
  5
2248F
330
747D
100
AcDbEntity
  8
部品1
100
AcDbLine
 10
7991.41186020188
 20
1171.760787611756
 30
0.0
 11
8025.411860201881
 21
1171.760787611756
 31
0.0
  0
LINE
  5
22490
330
747D
100
AcDbEntity
  8
部品1
100
AcDbLine
 10
8018.411860201881
 20
1155.760787611754
 30
0.0
 11
8018.411860201881
 21
1192.760787611756
 31
0.0
  0
LINE
  5
22491
330
747D
100
AcDbEntity
  8
部品1
100
AcDbLine
 10
7998.411860201881
 20
1155.760787611754
 30
0.0
 11
7998.411860201881
 21
1192.760787611756
 31
0.0
  0
LINE
  5
22492
330
747D
100
AcDbEntity
  8
部品1
100
AcDbLine
 10
7998.411860201881
 20
1192.760787611756
 30
0.0
 11
8018.411860201881
 21
1192.760787611756
 31
0.0
  0
LINE
  5
22493
330
747D
100
AcDbEntity
  8
部品1
100
AcDbLine
 10
7978.41186020188
 20
1155.760787611754
 30
0.0
 11
8038.411860201881
 21
1155.76078761176
 31
0.0
  0
LINE
  5
22494
330
747D
100
AcDbEntity
  8
部品1
100
AcDbLine
 10
8023.41186020188
 20
1173.160787611752
 30
0.0
 11
8023.41186020188
 21
1171.760787611756
 31
0.0
  0
LINE
  5
22495
330
747D
100
AcDbEntity
  8
部品1
100
AcDbLine
 10
8023.41186020188
 20
1213.160787611754
 30
0.0
 11
8023.41186020188
 21
1207.160787611754
 31
0.0
  0
LINE
  5
22496
330
747D
100
AcDbEntity
  8
部品1
100
AcDbLine
 10
8078.41186020188
 20
1152.760787611754
 30
0.0
 11
8078.41186020188
 21
1140.760787611754
 31
0.0
  0
LINE
  5
22497
330
747D
100
AcDbEntity
  8
部品1
100
AcDbLine
 10
7993.411860201881
 20
1173.160787611758
 30
0.0
 11
7993.411860201881
 21
1171.760787611756
 31
0.0
  0
LINE
  5
22498
330
747D
100
AcDbEntity
  8
部品1
100
AcDbLine
 10
7993.411860201881
 20
1213.160787611758
 30
0.0
 11
7993.411860201881
 21
1207.160787611758
 31
0.0
  0
LINE
  5
22499
330
747D
100
AcDbEntity
  8
部品1
100
AcDbLine
 10
7993.411860201881
 20
1173.160787611758
 30
0.0
 11
7998.411860201881
 21
1173.160787611758
 31
0.0
  0
LINE
  5
2249A
330
747D
100
AcDbEntity
  8
部品1
100
AcDbLine
 10
7993.411860201881
 20
1213.160787611758
 30
0.0
 11
8023.41186020188
 21
1213.160787611758
 31
0.0
  0
LINE
  5
2249B
330
747D
100
AcDbEntity
  8
部品1
100
AcDbLine
 10
7993.411860201881
 20
1207.160787611758
 30
0.0
 11
8023.41186020188
 21
1207.160787611758
 31
0.0
  0
LINE
  5
2249C
330
747D
100
AcDbEntity
  8
部品1
100
AcDbLine
 10
7938.41186020188
 20
1152.760787611754
 30
0.0
 11
7938.41186020188
 21
1140.760787611754
 31
0.0
  0
LINE
  5
2249D
330
747D
100
AcDbEntity
  8
部品1
100
AcDbLine
 10
7938.41186020188
 20
1140.760787611754
 30
0.0
 11
8078.41186020188
 21
1140.760787611754
 31
0.0
  0
LINE
  5
2249E
330
747D
100
AcDbEntity
  8
部品1
100
AcDbLine
 10
7938.41186020188
 20
1152.760787611754
 30
0.0
 11
8078.41186020188
 21
1152.760787611754
 31
0.0
  0
LINE
  5
2249F
330
747D
100
AcDbEntity
  8
部品1
100
AcDbLine
 10
7967.515091193813
 20
1437.751248310656
 30
0.0
 11
7938.41186020188
 21
1152.760787611754
 31
0.0
  0
LINE
  5
224A0
330
747D
100
AcDbEntity
  8
部品1
100
AcDbLine
 10
8049.308629209956
 20
1437.751248310656
 30
0.0
 11
8078.41186020188
 21
1152.760787611754
 31
0.0
  0
LINE
  5
224A1
330
747D
100
AcDbEntity
  8
細線
100
AcDbLine
 10
7943.2975985588
 20
1200.603888797927
 30
0.0
 11
7803.140699744969
 21
1340.760787611754
 31
0.0
  0
LINE
  5
224A2
330
747D
100
AcDbEntity
  8
細線
100
AcDbLine
 10
7939.366460965162
 20
1162.10861952037
 30
0.0
 11
7760.714292873776
 21
1340.760787611754
 31
0.0
  0
LINE
  5
224A3
330
747D
100
AcDbEntity
  8
細線
 48
10.0
100
AcDbLine
 10
7333.15742695829
 20
1074.769071004164
 30
0.0
 11
7399.149143565877
 21
1140.760787611754
 31
0.0
  0
LINE
  5
224A4
330
747D
100
AcDbEntity
  8
細線
 48
10.0
100
AcDbLine
 10
7333.15742695829
 20
1046.484799756705
 30
0.0
 11
7427.433414813329
 21
1140.760787611754
 31
0.0
  0
LINE
  5
224A5
330
747D
100
AcDbEntity
  8
細線
 48
10.0
100
AcDbLine
 10
7333.157426958287
 20
1103.05334225162
 30
0.0
 11
7370.864872318425
 21
1140.760787611754
 31
0.0
  0
LINE
  5
224A6
330
747D
100
AcDbEntity
  8
部品1
100
AcDbLine
 10
7648.411860201881
 20
1140.760787611754
 30
0.0
 11
7648.411860201881
 21
1340.760787611756
 31
0.0
  0
LINE
  5
224A7
330
747D
100
AcDbEntity
  8
細線
100
AcDbLine
 10
7776.866529765271
 20
1140.760787611754
 30
0.0
 11
7648.411860201881
 21
1269.215457175147
 31
0.0
  0
LINE
  5
224A8
330
747D
100
AcDbEntity
  8
細線
100
AcDbLine
 10
7734.440122894078
 20
1140.760787611754
 30
0.0
 11
7648.411860201881
 21
1226.789050303954
 31
0.0
  0
LINE
  5
224A9
330
747D
100
AcDbEntity
  8
部品1
100
AcDbLine
 10
7333.157426958287
 20
1434.760787611758
 30
0.0
 11
7967.209705293246
 21
1434.760787611758
 31
0.0
  0
LINE
  5
224AA
330
747D
100
AcDbEntity
  8
部品1
100
AcDbLine
 10
7333.157426958287
 20
1440.760787611758
 30
0.0
 11
7938.411860201885
 21
1440.760787611756
 31
0.0
  0
LINE
  5
224AB
330
747D
100
AcDbEntity
  8
部品1
100
AcDbLine
 10
7333.157426958287
 20
1340.760787611756
 30
0.0
 11
7957.610423596126
 21
1340.760787611756
 31
0.0
  0
LINE
  5
224AC
330
747D
100
AcDbEntity
  8
細線
 48
10.0
100
AcDbLine
 10
7547.173606326909
 20
833.8425902724702
 30
0.0
 11
7854.091803666169
 21
1140.760787611754
 31
0.0
  0
LINE
  5
224AD
330
747D
100
AcDbEntity
  8
細線
 48
10.0
100
AcDbLine
 10
7490.605063831985
 20
833.8425902724702
 30
0.0
 11
7797.523261171261
 21
1140.760787611754
 31
0.0
  0
LINE
  5
224AE
330
747D
100
AcDbEntity
  8
細線
 48
10.0
100
AcDbLine
 10
7518.889335079449
 20
833.8425902724702
 30
0.0
 11
7825.807532418718
 21
1140.760787611754
 31
0.0
  0
LINE
  5
224AF
330
747D
100
AcDbEntity
  8
Ｇ．Ｌ
100
AcDbLine
 10
7333.15742695829
 20
1140.760787611754
 30
0.0
 11
8797.192665722572
 21
1140.760787611754
 31
0.0
  0
DIMENSION
  5
224B0
330
747D
100
AcDbEntity
  8
寸法
 48
50.0
100
AcDbDimension
  2
*D41
 10
8281.17587077029
 20
1140.760787611754
 30
0.0
 11
8181.175870770291
 21
1240.760787611757
 31
0.0
 70
    32
  1
b
 71
     5
 42
200.0000000000018
  3
INABA_S40G
100
AcDbAlignedDimension
 13
8058.96262330739
 23
1340.760787611756
 33
0.0
 14
8078.41186020188
 24
1140.760787611754
 34
0.0
 50
90.0
100
AcDbRotatedDimension
1001
ACAD
1000
DSTYLE
1002
{
1070
   174
1070
     0
1070
   272
1070
     1
1070
   288
1070
     0
1070
   341
1005
0
1002
}
  0
LINE
  5
224B1
330
747D
100
AcDbEntity
  8
細線
 48
10.0
100
AcDbLine
 10
7973.831995179731
 20
833.8425902724702
 30
0.0
 11
8280.750192519009
 21
1140.760787611754
 31
0.0
  0
LINE
  5
224B2
330
747D
100
AcDbEntity
  8
細線
 48
10.0
100
AcDbLine
 10
7917.263452684811
 20
833.8425902724702
 30
0.0
 11
8224.181650024084
 21
1140.760787611754
 31
0.0
  0
LINE
  5
224B3
330
747D
100
AcDbEntity
  8
細線
 48
10.0
100
AcDbLine
 10
7945.54772393227
 20
833.8425902724702
 30
0.0
 11
8252.465921271543
 21
1140.760787611754
 31
0.0
  0
LINE
  5
224B4
330
747D
100
AcDbEntity
  8
部品1
 48
50.0
100
AcDbLine
 10
8862.648656925582
 20
2120.0
 30
0.0
 11
8862.648656925582
 21
200.0
 31
0.0
  0
LINE
  5
224B5
330
747D
100
AcDbEntity
  8
部品1
100
AcDbLine
 10
8048.411860201884
 20
1940.760787611754
 30
0.0
 11
8048.411860201888
 21
1441.006256599761
 31
0.0
  0
LINE
  5
224B6
330
747D
100
AcDbEntity
  8
細線
 48
50.0
100
AcDbLine
 10
7503.411860201881
 20
1940.760787611754
 30
0.0
 11
7503.411860201881
 21
1440.760787611756
 31
0.0
  0
LINE
  5
224B7
330
747D
100
AcDbEntity
  8
細線
 48
50.0
100
AcDbLine
 10
7533.41186020188
 20
1940.760787611754
 30
0.0
 11
7533.41186020188
 21
1440.760787611756
 31
0.0
  0
LINE
  5
224B8
330
747D
100
AcDbEntity
  8
細線
 48
50.0
100
AcDbLine
 10
7783.41186020188
 20
1940.760787611754
 30
0.0
 11
7783.41186020188
 21
1440.760787611756
 31
0.0
  0
LINE
  5
224B9
330
747D
100
AcDbEntity
  8
細線
 48
50.0
100
AcDbLine
 10
7813.41186020188
 20
1940.760787611754
 30
0.0
 11
7813.41186020188
 21
1440.760787611756
 31
0.0
  0
LINE
  5
224BA
330
747D
100
AcDbEntity
  8
部品1
100
AcDbLine
 10
7938.411860201885
 20
1940.760787611754
 30
0.0
 11
7938.411860201888
 21
1434.760787611758
 31
0.0
  0
LINE
  5
224BB
330
747D
100
AcDbEntity
  8
細線
 48
50.0
100
AcDbLine
 10
10923.74446491486
 20
2038.690833376043
 30
0.0
 11
10923.74446491486
 21
1538.690833376046
 31
0.0
  0
LINE
  5
224BC
330
747D
100
AcDbEntity
  8
細線
 48
50.0
100
AcDbLine
 10
10893.74446491486
 20
2038.690833376043
 30
0.0
 11
10893.74446491486
 21
1538.690833376046
 31
0.0
  0
LINE
  5
224BD
330
747D
100
AcDbEntity
  8
細線
 48
50.0
100
AcDbLine
 10
10643.74446491486
 20
2038.690833376043
 30
0.0
 11
10643.74446491486
 21
1538.690833376046
 31
0.0
  0
LINE
  5
224BE
330
747D
100
AcDbEntity
  8
細線
 48
50.0
100
AcDbLine
 10
10613.74446491486
 20
2038.690833376043
 30
0.0
 11
10613.74446491486
 21
1538.690833376046
 31
0.0
  0
LINE
  5
224BF
330
747D
100
AcDbEntity
  8
部品1
100
AcDbLine
 10
11158.74446491486
 20
2038.690833376043
 30
0.0
 11
11158.74446491487
 21
1538.936302364051
 31
0.0
  0
LINE
  5
224C0
330
747D
100
AcDbEntity
  8
部品1
100
AcDbLine
 10
11048.74446491486
 20
2038.690833376043
 30
0.0
 11
11048.74446491487
 21
1532.690833376046
 31
0.0
  0
LINE
  5
224C1
330
747D
100
AcDbEntity
  8
Ｇ．Ｌ
100
AcDbLine
 10
10535.94706811615
 20
1138.690833376044
 30
0.0
 11
11980.8387701213
 21
1138.690833376044
 31
0.0
  0
LINE
  5
224C2
330
747D
100
AcDbEntity
  8
細線
 48
10.0
100
AcDbLine
 10
11572.96761205858
 20
831.7726360367601
 30
0.0
 11
11879.88580939786
 21
1138.690833376044
 31
0.0
  0
LINE
  5
224C3
330
747D
100
AcDbEntity
  8
細線
 48
10.0
100
AcDbLine
 10
11601.25188330604
 20
831.7726360367601
 30
0.0
 11
11908.17008064531
 21
1138.690833376044
 31
0.0
  0
LINE
  5
224C4
330
747D
100
AcDbEntity
  8
細線
 48
10.0
100
AcDbLine
 10
11629.53615455351
 20
831.7726360367601
 30
0.0
 11
11936.45435189279
 21
1138.690833376044
 31
0.0
  0
TEXT
  5
224C5
330
747D
100
AcDbEntity
  8
部品1
100
AcDbText
 10
11608.81469956665
 20
1146.596875054948
 30
0.0
 40
120.0
  1
▽G.L
  7
STYLE1
100
AcDbText
  0
TEXT
  5
224C6
330
747D
100
AcDbEntity
  8
部品1
100
AcDbText
 10
3475.808874701916
 20
2178.285116341204
 30
0.0
 40
120.0
  1
地盤が土の場合
  7
STYLE2
100
AcDbText
  0
CIRCLE
  5
224C7
330
747D
100
AcDbEntity
  8
部品1
100
AcDbCircle
 10
4805.356359188781
 20
1384.760787611754
 30
0.0
 40
16.0
  0
ARC
  5
224C8
330
747D
100
AcDbEntity
  8
部品1
100
AcDbCircle
 10
4835.356359188781
 20
1404.760787611754
 30
0.0
 40
10.0
100
AcDbArc
 50
0.0
 51
90.0
  0
LINE
  5
224C9
330
747D
100
AcDbEntity
  8
細線
100
AcDbLine
 10
4813.356359188781
 20
1354.760787611754
 30
0.0
 11
4813.356359188781
 21
1314.760787611754
 31
0.0
  0
LINE
  5
224CA
330
747D
100
AcDbEntity
  8
細線
100
AcDbLine
 10
4797.356359188781
 20
1354.760787611754
 30
0.0
 11
4797.356359188781
 21
1314.760787611754
 31
0.0
  0
ARC
  5
224CB
330
747D
100
AcDbEntity
  8
細線
100
AcDbCircle
 10
4805.356359188781
 20
1314.760787611754
 30
0.0
 40
8.0
100
AcDbArc
 50
180.0
 51
0.0
  0
ARC
  5
224CC
330
747D
100
AcDbEntity
  8
細線
100
AcDbCircle
 10
4805.356359188781
 20
1354.760787611754
 30
0.0
 40
8.0
100
AcDbArc
 50
0.0
 51
180.0
  0
ARC
  5
224CD
330
747D
100
AcDbEntity
  8
部品1
100
AcDbCircle
 10
4775.356359188782
 20
1404.760787611754
 30
0.0
 40
10.0
100
AcDbArc
 50
90.0
 51
180.0
  0
LINE
  5
224CE
330
747D
100
AcDbEntity
  8
部品1
100
AcDbLine
 10
4775.356359188782
 20
1414.760787611754
 30
0.0
 11
4835.356359188781
 21
1414.760787611754
 31
0.0
  0
LINE
  5
224CF
330
747D
100
AcDbEntity
  8
細線
100
AcDbLine
 10
4797.356359188781
 20
1075.904381151204
 30
0.0
 11
4797.356359188781
 21
1050.16078761175
 31
0.0
  0
LINE
  5
224D0
330
747D
100
AcDbEntity
  8
細線
100
AcDbLine
 10
4813.356359188781
 20
1075.904381151204
 30
0.0
 11
4813.356359188781
 21
1050.16078761175
 31
0.0
  0
LINE
  5
224D1
330
747D
100
AcDbEntity
  8
細線
100
AcDbLine
 10
4819.356359188781
 20
1020.160787611756
 30
0.0
 11
4820.356359188782
 21
1020.160787611752
 31
0.0
  0
LINE
  5
224D2
330
747D
100
AcDbEntity
  8
細線
100
AcDbLine
 10
4820.356359188782
 20
1026.16078761175
 30
0.0
 11
4820.356359188782
 21
1020.16078761175
 31
0.0
  0
ARC
  5
224D3
330
747D
100
AcDbEntity
  8
細線
100
AcDbCircle
 10
4813.233253563167
 20
1012.160787611748
 30
0.0
 40
4.0
100
AcDbArc
 50
270.0
 51
345.9637565320562
  0
LINE
  5
224D4
330
747D
100
AcDbEntity
  8
細線
100
AcDbLine
 10
4819.356359188781
 20
1020.16078761175
 30
0.0
 11
4817.113823563743
 21
1011.190645111601
 31
0.0
  0
LINE
  5
224D5
330
747D
100
AcDbEntity
  8
細線
100
AcDbLine
 10
4819.356359188781
 20
1024.760787611751
 30
0.0
 11
4819.356359188781
 21
1020.160787611752
 31
0.0
  0
ARC
  5
224D6
330
747D
100
AcDbEntity
  8
細線
100
AcDbCircle
 10
4797.479464814403
 20
1012.160787611747
 30
0.0
 40
4.0
100
AcDbArc
 50
194.0362434679438
 51
270.0
  0
LINE
  5
224D7
330
747D
100
AcDbEntity
  8
細線
100
AcDbLine
 10
4791.356359188781
 20
1020.16078761175
 30
0.0
 11
4793.59889481382
 21
1011.190645111601
 31
0.0
  0
LINE
  5
224D8
330
747D
100
AcDbEntity
  8
細線
100
AcDbLine
 10
4791.356359188781
 20
1024.760787611749
 30
0.0
 11
4791.356359188781
 21
1020.160787611752
 31
0.0
  0
LINE
  5
224D9
330
747D
100
AcDbEntity
  8
細線
100
AcDbLine
 10
4797.479464814403
 20
1008.160787611745
 30
0.0
 11
4813.233253563167
 21
1008.16078761175
 31
0.0
  0
LINE
  5
224DA
330
747D
100
AcDbEntity
  8
細線
100
AcDbLine
 10
4790.356359188781
 20
1024.760787611749
 30
0.0
 11
4820.356359188782
 21
1024.760787611754
 31
0.0
  0
LINE
  5
224DB
330
747D
100
AcDbEntity
  8
細線
100
AcDbLine
 10
4790.356359188781
 20
1026.160787611756
 30
0.0
 11
4790.356359188781
 21
1020.160787611752
 31
0.0
  0
ARC
  5
224DC
330
747D
100
AcDbEntity
  8
細線
100
AcDbCircle
 10
4805.356359188781
 20
1050.16078761175
 30
0.0
 40
8.0
100
AcDbArc
 50
180.0
 51
0.0
  0
LINE
  5
224DD
330
747D
100
AcDbEntity
  8
細線
100
AcDbLine
 10
4790.356359188781
 20
1026.160787611756
 30
0.0
 11
4820.356359188782
 21
1026.160787611752
 31
0.0
  0
LINE
  5
224DE
330
747D
100
AcDbEntity
  8
細線
100
AcDbLine
 10
4790.356359188781
 20
1020.160787611756
 30
0.0
 11
4791.356359188781
 21
1020.160787611756
 31
0.0
  0
CIRCLE
  5
224DF
330
747D
100
AcDbEntity
  8
細線
100
AcDbCircle
 10
4805.356359188781
 20
1089.760787611754
 30
0.0
 40
16.0
  0
CIRCLE
  5
224E0
330
747D
100
AcDbEntity
  8
細線
100
AcDbCircle
 10
4805.356359188781
 20
1244.760787611756
 30
0.0
 40
7.0
  0
CIRCLE
  5
224E1
330
747D
100
AcDbEntity
  8
細線
100
AcDbCircle
 10
4805.356359188781
 20
1244.760787611756
 30
0.0
 40
6.0
  0
ARC
  5
224E2
330
747D
100
AcDbEntity
  8
部品1
100
AcDbCircle
 10
4836.302299708537
 20
1102.160787611748
 30
0.0
 40
10.0
100
AcDbArc
 50
5.684241598180749
 51
90.0
  0
LINE
  5
224E3
330
747D
100
AcDbEntity
  8
細線
  6
HIDDEN
 48
10.0
100
AcDbLine
 10
4845.903804845669
 20
1104.955621972072
 30
0.0
 11
4881.708970485352
 21
1140.760787611756
 31
0.0
  0
LINE
  5
224E4
330
747D
100
AcDbEntity
  8
細線
  6
HIDDEN
 48
10.0
100
AcDbLine
 10
4845.356359188781
 20
1132.692447562642
 30
0.0
 11
4853.424699237896
 21
1140.760787611754
 31
0.0
  0
ARC
  5
224E5
330
747D
100
AcDbEntity
  8
部品1
100
AcDbCircle
 10
4774.410418669026
 20
1102.160787611752
 30
0.0
 40
10.0
100
AcDbArc
 50
90.0
 51
174.3157584018192
  0
LINE
  5
224E6
330
747D
100
AcDbEntity
  8
部品1
100
AcDbLine
 10
4774.410418669026
 20
1112.160787611754
 30
0.0
 11
4836.302299708537
 21
1112.160787611748
 31
0.0
  0
LINE
  5
224E7
330
747D
100
AcDbEntity
  8
部品1
100
AcDbLine
 10
4765.356359188781
 20
1404.760787611754
 30
0.0
 11
4765.356359188781
 21
1106.406256599763
 31
0.0
  0
LINE
  5
224E8
330
747D
100
AcDbEntity
  8
部品1
100
AcDbLine
 10
4845.356359188781
 20
1403.760787611754
 30
0.0
 11
4845.356359188785
 21
1106.406256599763
 31
0.0
  0
LINE
  5
224E9
330
747D
100
AcDbEntity
  8
細線
100
AcDbLine
 10
4765.356359188781
 20
1175.489627154842
 30
0.0
 11
4600.085198731869
 21
1340.760787611754
 31
0.0
  0
LINE
  5
224EA
330
747D
100
AcDbEntity
  8
細線
100
AcDbLine
 10
4531.384621880979
 20
1140.760787611754
 30
0.0
 11
4445.356359188781
 21
1226.789050303954
 31
0.0
  0
LINE
  5
224EB
330
747D
100
AcDbEntity
  8
部品1
100
AcDbLine
 10
4445.356359188781
 20
1140.760787611754
 30
0.0
 11
4445.356359188781
 21
1340.760787611754
 31
0.0
  0
LINE
  5
224EC
330
747D
100
AcDbEntity
  8
細線
100
AcDbLine
 10
4757.658791860676
 20
1140.760787611754
 30
0.0
 11
4557.658791860677
 21
1340.760787611754
 31
0.0
  0
LINE
  5
224ED
330
747D
100
AcDbEntity
  8
細線
100
AcDbLine
 10
4573.811028752172
 20
1140.760787611754
 30
0.0
 11
4445.356359188781
 21
1269.215457175147
 31
0.0
  0
LINE
  5
224EE
330
747D
100
AcDbEntity
  8
部品1
100
AcDbLine
 10
4875.356359188781
 20
818.160787611754
 30
0.0
 11
4875.356359188781
 21
806.1607876117541
 31
0.0
  0
LINE
  5
224EF
330
747D
100
AcDbEntity
  8
細線
100
AcDbLine
 10
4820.356359188782
 20
876.1607876117487
 30
0.0
 11
4820.356359188782
 21
870.1607876117487
 31
0.0
  0
LINE
  5
224F0
330
747D
100
AcDbEntity
  8
細線
100
AcDbLine
 10
4820.356359188782
 20
836.1607876117505
 30
0.0
 11
4820.356359188782
 21
830.1607876117504
 31
0.0
  0
LINE
  5
224F1
330
747D
100
AcDbEntity
  8
細線
100
AcDbLine
 10
4790.356359188781
 20
876.1607876117578
 30
0.0
 11
4790.356359188781
 21
870.1607876117522
 31
0.0
  0
LINE
  5
224F2
330
747D
100
AcDbEntity
  8
細線
100
AcDbLine
 10
4790.356359188781
 20
836.160787611756
 30
0.0
 11
4790.356359188781
 21
830.1607876117524
 31
0.0
  0
LINE
  5
224F3
330
747D
100
AcDbEntity
  8
細線
100
AcDbLine
 10
4790.356359188781
 20
870.1607876117577
 30
0.0
 11
4820.356359188782
 21
870.1607876117522
 31
0.0
  0
LINE
  5
224F4
330
747D
100
AcDbEntity
  8
細線
100
AcDbLine
 10
4790.356359188781
 20
876.1607876117578
 30
0.0
 11
4820.356359188782
 21
876.1607876117523
 31
0.0
  0
LINE
  5
224F5
330
747D
100
AcDbEntity
  8
細線
100
AcDbLine
 10
4790.356359188781
 20
836.160787611756
 30
0.0
 11
4820.356359188782
 21
836.1607876117522
 31
0.0
  0
LINE
  5
224F6
330
747D
100
AcDbEntity
  8
細線
100
AcDbLine
 10
4790.356359188781
 20
830.1607876117559
 30
0.0
 11
4820.356359188782
 21
830.1607876117524
 31
0.0
  0
LINE
  5
224F7
330
747D
100
AcDbEntity
  8
部品1
100
AcDbLine
 10
4735.356359188781
 20
818.1607876117523
 30
0.0
 11
4735.356359188781
 21
806.1607876117541
 31
0.0
  0
LINE
  5
224F8
330
747D
100
AcDbEntity
  8
部品1
100
AcDbLine
 10
4735.356359188781
 20
806.1607876117541
 30
0.0
 11
4875.356359188781
 21
806.1607876117541
 31
0.0
  0
LINE
  5
224F9
330
747D
100
AcDbEntity
  8
部品1
100
AcDbLine
 10
4735.356359188781
 20
818.160787611754
 30
0.0
 11
4875.356359188781
 21
818.160787611754
 31
0.0
  0
LINE
  5
224FA
330
747D
100
AcDbEntity
  8
部品1
100
AcDbLine
 10
4846.253128196856
 20
1103.151248310656
 30
0.0
 11
4875.356359188781
 21
818.160787611754
 31
0.0
  0
LINE
  5
224FB
330
747D
100
AcDbEntity
  8
部品1
100
AcDbLine
 10
4764.459590180713
 20
1103.151248310656
 30
0.0
 11
4735.356359188781
 21
818.160787611754
 31
0.0
  0
LINE
  5
224FC
330
747D
100
AcDbEntity
  8
細線
  6
HIDDEN
 48
10.0
100
AcDbLine
 10
4595.356359188782
 20
854.408176315168
 30
0.0
 11
4755.401784945404
 21
1014.453602071808
 31
0.0
  0
LINE
  5
224FD
330
747D
100
AcDbEntity
  8
細線
  6
HIDDEN
 48
10.0
100
AcDbLine
 10
4595.356359188781
 20
910.9767188100905
 30
0.0
 11
4761.835585338618
 21
1077.455944959931
 31
0.0
  0
LINE
  5
224FE
330
747D
100
AcDbEntity
  8
細線
  6
HIDDEN
 48
10.0
100
AcDbLine
 10
4595.356359188782
 20
882.6924475626292
 30
0.0
 11
4758.618685142015
 21
1045.954773515872
 31
0.0
  0
LINE
  5
224FF
330
747D
100
AcDbEntity
  8
Ｇ．Ｌ
100
AcDbLine
 10
4845.356359188781
 20
1140.760787611754
 30
0.0
 11
5597.45260142712
 21
1140.760787611754
 31
0.0
  0
LINE
  5
22500
330
747D
100
AcDbEntity
  8
細線
  6
HIDDEN
 48
10.0
100
AcDbLine
 10
4908.3673593382
 20
740.7607876117562
 30
0.0
 11
4995.35635918878
 21
827.7497874623396
 31
0.0
  0
LINE
  5
22501
330
747D
100
AcDbEntity
  8
細線
  6
HIDDEN
 48
10.0
100
AcDbLine
 10
4851.798816843277
 20
740.7607876117554
 30
0.0
 11
4995.356359188781
 21
884.3183299572638
 31
0.0
  0
LINE
  5
22502
330
747D
100
AcDbEntity
  8
細線
  6
HIDDEN
 48
10.0
100
AcDbLine
 10
4880.083088090738
 20
740.7607876117562
 30
0.0
 11
4995.35635918878
 21
856.0340587098036
 31
0.0
  0
TEXT
  5
22503
330
747D
100
AcDbEntity
  8
部品1
100
AcDbText
 10
5229.919906258392
 20
1148.666829290658
 30
0.0
 40
120.0
  1
▽G.L
  7
STYLE1
100
AcDbText
  0
LINE
  5
22504
330
747D
100
AcDbEntity
  8
細線
100
AcDbLine
 10
1714.317326742917
 20
1040.760787611754
 30
0.0
 11
1700.919867121362
 21
990.7607876117562
 31
0.0
  0
LINE
  5
22505
330
747D
100
AcDbEntity
  8
細線
100
AcDbLine
 10
1814.317326742921
 20
1040.760787611754
 30
0.0
 11
1800.919867121361
 21
990.7607876117562
 31
0.0
  0
LINE
  5
22506
330
747D
100
AcDbEntity
  8
細線
100
AcDbLine
 10
1686.419437207836
 20
1040.760787611754
 30
0.0
 11
1786.419437207833
 21
1140.760787611756
 31
0.0
  0
LINE
  5
22507
330
747D
100
AcDbEntity
  8
細線
100
AcDbLine
 10
1714.703708455296
 20
1040.760787611754
 30
0.0
 11
1814.703708455296
 21
1140.760787611756
 31
0.0
  0
LINE
  5
22508
330
747D
100
AcDbEntity
  8
部品1
100
AcDbLine
 10
1787.522407499806
 20
1340.760787611754
 30
0.0
 11
1787.522407499806
 21
1140.760787611756
 31
0.0
  0
TEXT
  5
22509
330
747D
100
AcDbEntity
  8
部品1
100
AcDbText
 10
2010.775033367236
 20
1148.66682929066
 30
0.0
 40
120.0
  1
▽G.L
  7
STYLE1
100
AcDbText
  0
LINE
  5
2250A
330
747D
100
AcDbEntity
  8
細線
100
AcDbLine
 10
1727.714786364477
 20
890.7607876117545
 30
0.0
 11
1714.317326742917
 21
840.7607876117545
 31
0.0
  0
LINE
  5
2250B
330
747D
100
AcDbEntity
  8
細線
100
AcDbLine
 10
1827.714786364473
 20
890.7607876117545
 30
0.0
 11
1814.317326742921
 21
840.7607876117545
 31
0.0
  0
LINE
  5
2250C
330
747D
100
AcDbEntity
  8
部品1
100
AcDbLine
 10
1887.522407499806
 20
1140.760787611756
 30
0.0
 11
1887.522407499806
 21
840.7607876117545
 31
0.0
  0
LINE
  5
2250D
330
747D
100
AcDbEntity
  8
細線
100
AcDbLine
 10
1687.522407499809
 20
1040.760787611754
 30
0.0
 11
1741.112245986029
 21
840.7607876117507
 31
0.0
  0
LINE
  5
2250E
330
747D
100
AcDbEntity
  8
細線
100
AcDbLine
 10
1787.522407499806
 20
1040.760787611754
 30
0.0
 11
1841.112245986029
 21
840.7607876117545
 31
0.0
  0
LINE
  5
2250F
330
747D
100
AcDbEntity
  8
部品1
100
AcDbLine
 10
4130.101925945187
 20
1440.760787611756
 30
0.0
 11
4735.356359188781
 21
1440.760787611754
 31
0.0
  0
LINE
  5
22510
330
747D
100
AcDbEntity
  8
部品1
100
AcDbLine
 10
4130.101925945187
 20
1340.760787611754
 30
0.0
 11
4765.356359188781
 21
1340.760787611754
 31
0.0
  0
LINE
  5
22511
330
747D
100
AcDbEntity
  8
Ｇ．Ｌ
100
AcDbLine
 10
4130.101925945187
 20
1140.760787611754
 30
0.0
 11
4765.356359188781
 21
1140.760787611754
 31
0.0
  0
DIMENSION
  5
22512
330
747D
100
AcDbEntity
  8
寸法
 48
50.0
100
AcDbDimension
  2
*D42
 10
4352.026612113252
 20
740.7607876117545
 30
0.0
 11
4352.026612113252
 21
928.3854207276599
 31
0.0
 70
   160
  1
200
 71
     5
 42
399.9999999999999
  3
INABA_S40G
100
AcDbAlignedDimension
 13
4445.356359188781
 23
1140.760787611754
 33
0.0
 14
4595.356359188781
 24
740.7607876117545
 34
0.0
 50
90.0
100
AcDbRotatedDimension
1001
ACAD
1000
DSTYLE
1002
{
1070
   174
1070
     0
1070
   272
1070
     1
1070
   288
1070
     0
1070
   341
1005
0
1002
}
  0
LINE
  5
22513
330
747D
100
AcDbEntity
  8
部品1
100
AcDbLine
 10
4130.101925945187
 20
1434.760787611754
 30
0.0
 11
4845.356359188781
 21
1434.760787611754
 31
0.0
  0
LINE
  5
22514
330
747D
100
AcDbEntity
  8
部品1
100
AcDbLine
 10
4735.356359188781
 20
1940.760787611752
 30
0.0
 11
4735.356359188784
 21
1434.760787611756
 31
0.0
  0
LINE
  5
22515
330
747D
100
AcDbEntity
  8
部品1
100
AcDbLine
 10
4845.356359188781
 20
1940.760787611752
 30
0.0
 11
4845.356359188781
 21
1140.760787611754
 31
0.0
  0
LINE
  5
22516
330
747D
100
AcDbEntity
  8
部品1
 48
50.0
100
AcDbLine
 10
2462.648656925582
 20
2600.0
 30
0.0
 11
2462.648656925582
 21
200.0
 31
0.0
  0
LINE
  5
22517
330
747D
100
AcDbEntity
  8
部品1
 48
50.0
100
AcDbLine
 10
5662.648656925581
 20
2360.0
 30
0.0
 11
5662.648656925581
 21
200.0
 31
0.0
  0
LINE
  5
22518
330
747D
100
AcDbEntity
  8
細線
 48
50.0
100
AcDbLine
 10
4580.356359188781
 20
1940.760787611752
 30
0.0
 11
4580.356359188781
 21
1440.760787611754
 31
0.0
  0
LINE
  5
22519
330
747D
100
AcDbEntity
  8
細線
 48
50.0
100
AcDbLine
 10
4610.356359188781
 20
1940.760787611752
 30
0.0
 11
4610.356359188781
 21
1440.760787611754
 31
0.0
  0
LINE
  5
2251A
330
747D
100
AcDbEntity
  8
細線
 48
50.0
100
AcDbLine
 10
4330.356359188781
 20
1940.760787611752
 30
0.0
 11
4330.356359188781
 21
1440.760787611754
 31
0.0
  0
LINE
  5
2251B
330
747D
100
AcDbEntity
  8
細線
 48
50.0
100
AcDbLine
 10
4300.356359188781
 20
1940.760787611752
 30
0.0
 11
4300.356359188781
 21
1440.760787611754
 31
0.0
  0
LINE
  5
2251C
330
747D
100
AcDbEntity
  8
細線
100
AcDbLine
 10
1614.317326742917
 20
1040.760787611754
 30
0.0
 11
1600.919867121365
 21
990.7607876117562
 31
0.0
  0
LINE
  5
2251D
330
747D
100
AcDbEntity
  8
細線
100
AcDbLine
 10
1514.317326742921
 20
1040.760787611754
 30
0.0
 11
1500.919867121362
 21
990.7607876117562
 31
0.0
  0
LINE
  5
2251E
330
747D
100
AcDbEntity
  8
細線
100
AcDbLine
 10
1314.317326742917
 20
1040.760787611753
 30
0.0
 11
1300.919867121365
 21
990.7607876117507
 31
0.0
  0
LINE
  5
2251F
330
747D
100
AcDbEntity
  8
細線
100
AcDbLine
 10
1414.317326742917
 20
1040.760787611753
 30
0.0
 11
1400.919867121362
 21
990.7607876117507
 31
0.0
  0
LINE
  5
22520
330
747D
100
AcDbEntity
  8
細線
100
AcDbLine
 10
1358.135165960373
 20
1040.760787611753
 30
0.0
 11
1458.135165960373
 21
1140.760787611756
 31
0.0
  0
LINE
  5
22521
330
747D
100
AcDbEntity
  8
細線
100
AcDbLine
 10
1386.419437207836
 20
1040.760787611754
 30
0.0
 11
1486.419437207833
 21
1140.760787611756
 31
0.0
  0
LINE
  5
22522
330
747D
100
AcDbEntity
  8
細線
100
AcDbLine
 10
1507.290445359269
 20
1140.760787611756
 30
0.0
 11
1387.522407499809
 21
1260.528825471216
 31
0.0
  0
LINE
  5
22523
330
747D
100
AcDbEntity
  8
細線
100
AcDbLine
 10
1414.703708455299
 20
1040.760787611754
 30
0.0
 11
1514.703708455296
 21
1140.760787611756
 31
0.0
  0
LINE
  5
22524
330
747D
100
AcDbEntity
  8
細線
100
AcDbLine
 10
1549.716852230462
 20
1140.760787611756
 30
0.0
 11
1387.522407499806
 21
1302.955232342408
 31
0.0
  0
LINE
  5
22525
330
747D
100
AcDbEntity
  8
部品1
100
AcDbLine
 10
1387.522407499809
 20
1140.760787611756
 30
0.0
 11
1387.522407499809
 21
1340.760787611754
 31
0.0
  0
LINE
  5
22526
330
747D
100
AcDbEntity
  8
細線
100
AcDbLine
 10
1627.714786364473
 20
890.7607876117545
 30
0.0
 11
1614.317326742917
 21
840.7607876117545
 31
0.0
  0
LINE
  5
22527
330
747D
100
AcDbEntity
  8
細線
100
AcDbLine
 10
1527.714786364473
 20
890.7607876117545
 30
0.0
 11
1514.317326742921
 21
840.7607876117545
 31
0.0
  0
LINE
  5
22528
330
747D
100
AcDbEntity
  8
細線
100
AcDbLine
 10
1327.714786364473
 20
890.7607876117527
 30
0.0
 11
1314.317326742917
 21
840.7607876117507
 31
0.0
  0
LINE
  5
22529
330
747D
100
AcDbEntity
  8
細線
100
AcDbLine
 10
1427.714786364477
 20
890.7607876117527
 30
0.0
 11
1414.317326742917
 21
840.7607876117507
 31
0.0
  0
LINE
  5
2252A
330
747D
100
AcDbEntity
  8
部品1
100
AcDbLine
 10
1287.522407499806
 20
840.7607876117507
 30
0.0
 11
1287.522407499806
 21
1140.760787611756
 31
0.0
  0
LINE
  5
2252B
330
747D
100
AcDbEntity
  8
細線
100
AcDbLine
 10
1287.522407499806
 20
1040.760787611753
 30
0.0
 11
1341.112245986032
 21
840.760787611749
 31
0.0
  0
LINE
  5
2252C
330
747D
100
AcDbEntity
  8
細線
100
AcDbLine
 10
1587.522407499806
 20
1040.760787611754
 30
0.0
 11
1641.112245986033
 21
840.7607876117507
 31
0.0
  0
LINE
  5
2252D
330
747D
100
AcDbEntity
  8
細線
100
AcDbLine
 10
1487.522407499806
 20
1040.760787611754
 30
0.0
 11
1541.112245986029
 21
840.7607876117507
 31
0.0
  0
LINE
  5
2252E
330
747D
100
AcDbEntity
  8
細線
100
AcDbLine
 10
1387.522407499809
 20
1040.760787611753
 30
0.0
 11
1441.112245986029
 21
840.760787611749
 31
0.0
  0
LINE
  5
2252F
330
747D
100
AcDbEntity
  8
部品1
 48
50.0
100
AcDbLine
 10
862.6486569255812
 20
2600.0
 30
0.0
 11
862.6486569255812
 21
200.0
 31
0.0
  0
LINE
  5
22530
330
747D
100
AcDbEntity
  8
部品1
100
AcDbLine
 10
1287.522407499806
 20
840.7607876117507
 30
0.0
 11
1887.522407499806
 21
840.7607876117545
 31
0.0
  0
LINE
  5
22531
330
747D
100
AcDbEntity
  8
部品1
100
AcDbLine
 10
1287.522407499806
 20
1040.760787611753
 30
0.0
 11
1887.522407499806
 21
1040.760787611754
 31
0.0
  0
LINE
  5
22532
330
747D
100
AcDbEntity
  8
部品1
100
AcDbLine
 10
1387.522407499809
 20
1340.760787611754
 30
0.0
 11
1787.522407499806
 21
1340.760787611754
 31
0.0
  0
LINE
  5
22533
330
747D
100
AcDbEntity
  8
Ｇ．Ｌ
100
AcDbLine
 10
957.4214014544832
 20
1140.760787611756
 30
0.0
 11
2388.314685277643
 21
1140.760787611756
 31
0.0
  0
LINE
  5
22534
330
747D
100
AcDbEntity
  8
細線
100
AcDbLine
 10
1775.991022210155
 20
1140.760787611756
 30
0.0
 11
1575.991022210159
 21
1340.760787611754
 31
0.0
  0
TEXT
  5
22535
330
747D
100
AcDbEntity
  8
部品1
100
AcDbText
 10
1328.24867793038
 20
2307.972217178321
 30
0.0
 40
120.0
  1
基礎詳細
  7
STYLE2
100
AcDbText
  0
MTEXT
  5
22536
102
{ACAD_REACTORS
330
22537
102
}
330
747D
100
AcDbEntity
  8
寸法
 62
     7
 48
50.0
100
AcDbMText
 10
1825.054264224596
 20
1638.612705420522
 30
0.0
 40
120.0
 41
1.0
 71
     4
 72
     1
  1
\A1;C.B
  7
STYLE1
 73
     1
 44
1.0
1001
ACAD
1000
MTEXTBEGIN
1070
    73
1070
     1
1070
    44
1040
1.0
1070
    74
1070
     0
1000
MTEXTEND
  0
LEADER
  5
22537
330
747D
100
AcDbEntity
  8
寸法
 48
50.0
100
AcDbLeader
  3
INABA_S50G
 71
     0
 73
     0
 74
     0
 75
     1
 40
120.0
 41
185.591883092037
 76
     3
 10
1587.522407499808
 20
1340.760787611754
 30
0.0
 10
1742.785990070984
 20
1553.612705420522
 30
0.0
 10
1867.785990070984
 20
1553.612705420522
 30
0.0
340
22536
213
67.73172584638814
223
0.0
233
0.0
1001
ACAD
1000
DSTYLE
1002
{
1070
    40
1040
1.0
1002
}
  0
LINE
  5
22538
330
747D
100
AcDbEntity
  8
細線
100
AcDbLine
 10
1733.564615338962
 20
1140.760787611756
 30
0.0
 11
1533.564615338966
 21
1340.760787611754
 31
0.0
  0
LINE
  5
22539
330
747D
100
AcDbEntity
  8
細線
100
AcDbLine
 10
1658.135165960373
 20
1040.760787611754
 30
0.0
 11
1758.13516596037
 21
1140.760787611756
 31
0.0
  0
TEXT
  5
2253A
330
747D
100
AcDbEntity
  8
部品1
100
AcDbText
 10
6248.654084796076
 20
2414.063814602734
 30
0.0
 40
120.0
  1
アンカー部詳細
  7
STYLE2
100
AcDbText
  0
LINE
  5
2253B
330
747D
100
AcDbEntity
  8
部品1
 48
50.0
100
AcDbLine
 10
862.6486569255812
 20
200.0
 30
0.0
 11
12062.64865692558
 21
200.0
 31
0.0
  0
LINE
  5
2253C
330
747D
100
AcDbEntity
  8
部品1
 48
50.0
100
AcDbLine
 10
12062.64865692558
 20
2599.999999999999
 30
0.0
 11
862.6486569255812
 21
2600.000000000002
 31
0.0
  0
LINE
  5
2253D
330
747D
100
AcDbEntity
  8
部品1
 48
50.0
100
AcDbLine
 10
12062.64865692558
 20
2359.999999999999
 30
0.0
 11
2462.648656925582
 21
2360.0
 31
0.0
  0
LINE
  5
2253E
330
747D
100
AcDbEntity
  8
部品1
 48
50.0
100
AcDbLine
 10
862.6486569255812
 20
2120.0
 30
0.0
 11
12062.64865692558
 21
2120.0
 31
0.0
  0
LINE
  5
2253F
330
747D
100
AcDbEntity
  8
部品1
100
AcDbLine
 10
3212.319460875799
 20
817.7607876117527
 30
0.0
 11
3320.319460875798
 21
817.7607876117527
 31
0.0
  0
TEXT
  5
22540
330
747D
100
AcDbEntity
  8
部品1
100
AcDbText
 10
9813.273426343172
 20
624.0115021823967
 30
0.0
 40
80.0
  1
c寸法：135～175,190mmに対応
  7
STYLE2
100
AcDbText
  0
TEXT
  5
22541
330
747D
100
AcDbEntity
  8
部品1
100
AcDbText
 10
9164.504602217805
 20
455.3904639477514
 30
0.0
 40
80.0
  1
\U+203BオールアンカーM10(市販品)が4本必要になります。
  7
STYLE2
100
AcDbText
  0
ARC
  5
22542
330
747D
100
AcDbEntity
  8
部品1
100
AcDbCircle
 10
9584.122667299185
 20
1452.290833376044
 30
0.0
 40
8.0
100
AcDbArc
 50
288.194872338666
 51
0.0
  0
ARC
  5
22543
330
747D
100
AcDbEntity
  8
部品1
100
AcDbCircle
 10
9662.122667299186
 20
1452.290833376044
 30
0.0
 40
8.0
100
AcDbArc
 50
288.194872338666
 51
0.0
  0
ENDSEC
  0
SECTION
  2
OBJECTS
  0
DICTIONARY
  5
7471
330
0
100
AcDbDictionary
281
     1
  3
ACAD_COLOR
350
159B0
  3
ACAD_GROUP
350
7472
  3
ACAD_LAYOUT
350
159B1
  3
ACAD_MATERIAL
350
159AF
  3
ACAD_MLINESTYLE
350
7473
  3
ACAD_PLOTSETTINGS
350
159B2
  3
ACAD_PLOTSTYLENAME
350
159AD
  3
ACDBHEADERROUNDTRIPXREC
350
225C1
  3
AcDbVariableDictionary
350
21EE5
  3
CONTENTDICTIONARY
350
E71C
  3
DRAWINGVARIABLESDICT
350
F3B9
  0
DICTIONARY
  5
1ED5D
330
7467
100
AcDbDictionary
280
     1
281
     1
  3
ACAD_LAYERSTATES
360
1ED5E
  0
DICTIONARY
  5
159B0
102
{ACAD_REACTORS
330
7471
102
}
330
7471
100
AcDbDictionary
281
     1
  0
DICTIONARY
  5
7472
102
{ACAD_REACTORS
330
7471
102
}
330
7471
100
AcDbDictionary
281
     1
  0
DICTIONARY
  5
159B1
102
{ACAD_REACTORS
330
7471
102
}
330
7471
100
AcDbDictionary
281
     1
  3
Model
350
159B3
  3
レイアウト1
350
159B4
  0
DICTIONARY
  5
159AF
102
{ACAD_REACTORS
330
7471
102
}
330
7471
100
AcDbDictionary
281
     1
  0
DICTIONARY
  5
7473
102
{ACAD_REACTORS
330
7471
102
}
330
7471
100
AcDbDictionary
281
     1
  3
STANDARD
350
7480
  0
DICTIONARY
  5
159B2
102
{ACAD_REACTORS
330
7471
102
}
330
7471
100
AcDbDictionary
281
     1
  0
ACDBDICTIONARYWDFLT
  5
159AD
102
{ACAD_REACTORS
330
7471
102
}
330
7471
100
AcDbDictionary
281
     1
  3
Normal
350
159AE
100
AcDbDictionaryWithDefault
340
159AE
  0
DICTIONARY
  5
225C1
102
{ACAD_REACTORS
330
7471
102
}
330
7471
100
AcDbDictionary
281
     1
  3
COLORDICT
350
225C3
  3
MATERIALDICT
350
225C2
  0
DICTIONARY
  5
21EE5
102
{ACAD_REACTORS
330
7471
102
}
330
7471
100
AcDbDictionary
281
     1
  3
DIMASSOC
350
21EE6
  3
PROJECTNAME
350
21EE7
  0
DICTIONARY
  5
E71C
102
{ACAD_REACTORS
330
7471
102
}
330
7471
100
AcDbDictionary
281
     1
  0
DICTIONARY
  5
F3B9
102
{ACAD_REACTORS
330
7471
102
}
330
7471
100
AcDbDictionary
281
     1
1001
DRAWINGVARIABLESXDATA
1000
POLARMODE
1000
1
  0
DICTIONARY
  5
1ED5E
102
{ACAD_REACTORS
330
1ED5D
102
}
330
1ED5D
100
AcDbDictionary
281
     1
  0
LAYOUT
  5
159B3
102
{ACAD_XDICTIONARY
360
225C4
102
}
102
{ACAD_REACTORS
330
159B1
102
}
330
159B1
100
AcDbPlotSettings
  1

  2
none_device
  4
Letter_(8.50_x_11.00_Inches)
  6

 40
6.349999904632568
 41
6.349999904632568
 42
6.350006103515625
 43
6.350006103515625
 44
215.8999938964844
 45
279.3999938964844
 46
0.0
 47
0.0
 48
0.0
 49
0.0
140
0.0
141
0.0
142
1.0
143
1.0
 70
 11952
 72
     1
 73
     1
 74
     0
  7

 75
     0
147
1.0
148
-4149.571981164617
149
65.56433826894044
100
AcDbLayout
  1
Model
 70
     1
 71
     0
 10
0.0
 20
0.0
 11
12.0
 21
9.0
 12
0.0
 22
0.0
 32
0.0
 14
0.0
 24
0.0
 34
0.0
 15
0.0
 25
0.0
 35
0.0
146
0.0
 13
0.0
 23
0.0
 33
0.0
 16
1.0
 26
0.0
 36
0.0
 17
0.0
 27
1.0
 37
0.0
 76
     0
330
747D
  0
LAYOUT
  5
159B4
102
{ACAD_XDICTIONARY
360
225C6
102
}
102
{ACAD_REACTORS
330
159B1
102
}
330
159B1
100
AcDbPlotSettings
  1

  2
自動 EPSON LP-8400FX (TATENO 上)
  4

  6

 40
0.0
 41
0.0
 42
0.0
 43
0.0
 44
0.0
 45
0.0
 46
0.0
 47
0.0
 48
0.0
 49
0.0
140
0.0
141
0.0
142
1.0
143
1.0
 70
   688
 72
     0
 73
     0
 74
     5
  7
inaba.ctb
 75
    16
147
1.0
148
0.0
149
0.0
100
AcDbLayout
  1
レイアウト1
 70
     0
 71
     1
 10
0.0
 20
0.0
 11
420.0
 21
297.0
 12
0.0
 22
0.0
 32
0.0
 14
1.000000000000000E+20
 24
1.000000000000000E+20
 34
1.000000000000000E+20
 15
-1.000000000000000E+20
 25
-1.000000000000000E+20
 35
-1.000000000000000E+20
146
0.0
 13
0.0
 23
0.0
 33
0.0
 16
1.0
 26
0.0
 36
0.0
 17
0.0
 27
1.0
 37
0.0
 76
     0
330
747A
  0
MLINESTYLE
  5
7480
102
{ACAD_REACTORS
330
7473
102
}
330
7473
100
AcDbMlineStyle
  2
STANDARD
 70
     0
  3

 62
     0
 51
90.0
 52
90.0
 71
     2
 49
0.5
 62
   256
  6
BYLAYER
 49
-0.5
 62
   256
  6
BYLAYER
  0
ACDBPLACEHOLDER
  5
159AE
102
{ACAD_REACTORS
330
159AD
102
}
330
159AD
  0
XRECORD
  5
225C3
102
{ACAD_REACTORS
330
225C1
102
}
330
225C1
100
AcDbXrecord
280
     1
340
159B0
  0
XRECORD
  5
225C2
102
{ACAD_REACTORS
330
225C1
102
}
330
225C1
100
AcDbXrecord
280
     1
340
159AF
  0
DICTIONARYVAR
  5
21EE6
102
{ACAD_REACTORS
330
21EE5
102
}
330
21EE5
100
DictionaryVariables
280
     0
  1
1
  0
DICTIONARYVAR
  5
21EE7
102
{ACAD_REACTORS
330
21EE5
102
}
330
21EE5
100
DictionaryVariables
280
     0
  1

  0
DICTIONARY
  5
225C4
330
159B3
100
AcDbDictionary
280
     1
281
     1
  3
ACAD_XREC_ROUNDTRIP
360
225C5
  0
DICTIONARY
  5
225C6
330
159B4
100
AcDbDictionary
280
     1
281
     1
  3
ACAD_XREC_ROUNDTRIP
360
225C7
  0
XRECORD
  5
225C5
102
{ACAD_REACTORS
330
225C4
102
}
330
225C4
100
AcDbXrecord
280
     1
102
SHADEPLOT
 70
     0
102
SHADEPLOTRESLEVEL
 70
     2
102
SHADEPLOTCUSTOMDPI
 70
   300
  0
XRECORD
  5
225C7
102
{ACAD_REACTORS
330
225C6
102
}
330
225C6
100
AcDbXrecord
280
     1
102
SHADEPLOT
 70
     0
102
SHADEPLOTRESLEVEL
 70
     2
102
SHADEPLOTCUSTOMDPI
 70
   300
  0
ENDSEC
  0
EOF
