  0
SECTION
  2
HEADER
  9
$ACADVER
  1
AC1015
  9
$ACADMAINTVER
 70
    20
  9
$DWGCODEPAGE
  3
ANSI_932
  9
$INSBASE
 10
0.0
 20
0.0
 30
0.0
  9
$EXTMIN
 10
139.9999999999995
 20
-0.5544583723944512
 30
0.0
  9
$EXTMAX
 10
16308.62952785952
 20
11409.6
 30
0.0
  9
$LIMMIN
 10
0.0
 20
0.0
  9
$LIMMAX
 10
16800.0
 20
11880.0
  9
$ORTHOMODE
 70
     0
  9
$REGENMODE
 70
     1
  9
$FILLMODE
 70
     1
  9
$QTEXTMODE
 70
     0
  9
$MIRRTEXT
 70
     1
  9
$LTSCALE
 40
20.0
  9
$ATTMODE
 70
     1
  9
$TEXTSIZE
 40
4.0
  9
$TRACEWID
 40
1.0
  9
$TEXTSTYLE
  7
STYLE1
  9
$CLAYER
  8
寸法
  9
$CELTYPE
  6
BYLAYER
  9
$CECOLOR
 62
   256
  9
$CELTSCALE
 40
50.0
  9
$DISPSILH
 70
     0
  9
$DIMSCALE
 40
40.0
  9
$DIMASZ
 40
2.5
  9
$DIMEXO
 40
0.5
  9
$DIMDLI
 40
7.0
  9
$DIMRND
 40
0.0
  9
$DIMDLE
 40
0.0
  9
$DIMEXE
 40
1.5
  9
$DIMTP
 40
0.0
  9
$DIMTM
 40
0.0
  9
$DIMTXT
 40
3.0
  9
$DIMCEN
 40
0.0
  9
$DIMTSZ
 40
0.0
  9
$DIMTOL
 70
     0
  9
$DIMLIM
 70
     0
  9
$DIMTIH
 70
     0
  9
$DIMTOH
 70
     0
  9
$DIMSE1
 70
     0
  9
$DIMSE2
 70
     0
  9
$DIMTAD
 70
     3
  9
$DIMZIN
 70
     8
  9
$DIMBLK
  1

  9
$DIMASO
 70
     1
  9
$DIMSHO
 70
     1
  9
$DIMPOST
  1

  9
$DIMAPOST
  1

  9
$DIMALT
 70
     0
  9
$DIMALTD
 70
     2
  9
$DIMALTF
 40
0.0394
  9
$DIMLFAC
 40
1.0
  9
$DIMTOFL
 70
     1
  9
$DIMTVP
 40
0.0
  9
$DIMTIX
 70
     1
  9
$DIMSOXD
 70
     0
  9
$DIMSAH
 70
     1
  9
$DIMBLK1
  1
DOTSMALL
  9
$DIMBLK2
  1
DOTSMALL
  9
$DIMSTYLE
  2
INABA_S40G
  9
$DIMCLRD
 70
     0
  9
$DIMCLRE
 70
     0
  9
$DIMCLRT
 70
     7
  9
$DIMTFAC
 40
1.0
  9
$DIMGAP
 40
1.0
  9
$DIMJUST
 70
     0
  9
$DIMSD1
 70
     0
  9
$DIMSD2
 70
     0
  9
$DIMTOLJ
 70
     1
  9
$DIMTZIN
 70
     0
  9
$DIMALTZ
 70
     0
  9
$DIMALTTZ
 70
     0
  9
$DIMUPT
 70
     0
  9
$DIMDEC
 70
     1
  9
$DIMTDEC
 70
     4
  9
$DIMALTU
 70
     2
  9
$DIMALTTD
 70
     2
  9
$DIMTXSTY
  7
STYLE1
  9
$DIMAUNIT
 70
     0
  9
$DIMADEC
 70
     0
  9
$DIMALTRND
 40
0.0
  9
$DIMAZIN
 70
     0
  9
$DIMDSEP
 70
    46
  9
$DIMATFIT
 70
     3
  9
$DIMFRAC
 70
     0
  9
$DIMLDRBLK
  1

  9
$DIMLUNIT
 70
     2
  9
$DIMLWD
 70
    -2
  9
$DIMLWE
 70
    -2
  9
$DIMTMOVE
 70
     0
  9
$LUNITS
 70
     2
  9
$LUPREC
 70
     1
  9
$SKETCHINC
 40
1.0
  9
$FILLETRAD
 40
0.0
  9
$AUNITS
 70
     0
  9
$AUPREC
 70
     0
  9
$MENU
  1
acad
  9
$ELEVATION
 40
0.0
  9
$PELEVATION
 40
0.0
  9
$THICKNESS
 40
0.0
  9
$LIMCHECK
 70
     0
  9
$CHAMFERA
 40
0.0
  9
$CHAMFERB
 40
0.0
  9
$CHAMFERC
 40
0.0
  9
$CHAMFERD
 40
0.0
  9
$SKPOLY
 70
     0
  9
$TDCREATE
 40
2451368.612993866
  9
$TDUCREATE
 40
2451368.237993866
  9
$TDUPDATE
 40
2455827.764704815
  9
$TDUUPDATE
 40
2455827.389704815
  9
$TDINDWG
 40
0.8713962500
  9
$TDUSRTIMER
 40
0.8713962500
  9
$USRTIMER
 70
     1
  9
$ANGBASE
 50
0.0
  9
$ANGDIR
 70
     0
  9
$PDMODE
 70
     3
  9
$PDSIZE
 40
2.0
  9
$PLINEWID
 40
0.0
  9
$SPLFRAME
 70
     0
  9
$SPLINETYPE
 70
     6
  9
$SPLINESEGS
 70
     8
  9
$HANDSEED
  5
24655
  9
$SURFTAB1
 70
     6
  9
$SURFTAB2
 70
     6
  9
$SURFTYPE
 70
     6
  9
$SURFU
 70
     6
  9
$SURFV
 70
     6
  9
$UCSBASE
  2

  9
$UCSNAME
  2

  9
$UCSORG
 10
0.0
 20
0.0
 30
0.0
  9
$UCSXDIR
 10
1.0
 20
0.0
 30
0.0
  9
$UCSYDIR
 10
0.0
 20
1.0
 30
0.0
  9
$UCSORTHOREF
  2

  9
$UCSORTHOVIEW
 70
     0
  9
$UCSORGTOP
 10
0.0
 20
0.0
 30
0.0
  9
$UCSORGBOTTOM
 10
0.0
 20
0.0
 30
0.0
  9
$UCSORGLEFT
 10
0.0
 20
0.0
 30
0.0
  9
$UCSORGRIGHT
 10
0.0
 20
0.0
 30
0.0
  9
$UCSORGFRONT
 10
0.0
 20
0.0
 30
0.0
  9
$UCSORGBACK
 10
0.0
 20
0.0
 30
0.0
  9
$PUCSBASE
  2

  9
$PUCSNAME
  2

  9
$PUCSORG
 10
0.0
 20
0.0
 30
0.0
  9
$PUCSXDIR
 10
1.0
 20
0.0
 30
0.0
  9
$PUCSYDIR
 10
0.0
 20
1.0
 30
0.0
  9
$PUCSORTHOREF
  2

  9
$PUCSORTHOVIEW
 70
     0
  9
$PUCSORGTOP
 10
0.0
 20
0.0
 30
0.0
  9
$PUCSORGBOTTOM
 10
0.0
 20
0.0
 30
0.0
  9
$PUCSORGLEFT
 10
0.0
 20
0.0
 30
0.0
  9
$PUCSORGRIGHT
 10
0.0
 20
0.0
 30
0.0
  9
$PUCSORGFRONT
 10
0.0
 20
0.0
 30
0.0
  9
$PUCSORGBACK
 10
0.0
 20
0.0
 30
0.0
  9
$USERI1
 70
     0
  9
$USERI2
 70
     0
  9
$USERI3
 70
     0
  9
$USERI4
 70
     0
  9
$USERI5
 70
     0
  9
$USERR1
 40
0.0
  9
$USERR2
 40
0.0
  9
$USERR3
 40
0.0
  9
$USERR4
 40
0.0
  9
$USERR5
 40
0.0
  9
$WORLDVIEW
 70
     1
  9
$SHADEDGE
 70
     3
  9
$SHADEDIF
 70
    70
  9
$TILEMODE
 70
     1
  9
$MAXACTVP
 70
    16
  9
$PINSBASE
 10
0.0
 20
0.0
 30
0.0
  9
$PLIMCHECK
 70
     0
  9
$PEXTMIN
 10
1.000000000000000E+20
 20
1.000000000000000E+20
 30
1.000000000000000E+20
  9
$PEXTMAX
 10
-1.000000000000000E+20
 20
-1.000000000000000E+20
 30
-1.000000000000000E+20
  9
$PLIMMIN
 10
0.0
 20
0.0
  9
$PLIMMAX
 10
420.0
 20
297.0
  9
$UNITMODE
 70
     0
  9
$VISRETAIN
 70
     0
  9
$PLINEGEN
 70
     0
  9
$PSLTSCALE
 70
     0
  9
$TREEDEPTH
 70
  3020
  9
$CMLSTYLE
  2
STANDARD
  9
$CMLJUST
 70
     0
  9
$CMLSCALE
 40
1.0
  9
$PROXYGRAPHICS
 70
     1
  9
$MEASUREMENT
 70
     1
  9
$CELWEIGHT
370
    -1
  9
$ENDCAPS
280
     0
  9
$JOINSTYLE
280
     0
  9
$LWDISPLAY
290
     0
  9
$INSUNITS
 70
     0
  9
$HYPERLINKBASE
  1

  9
$STYLESHEET
  1
inaba.ctb
  9
$XEDIT
290
     1
  9
$CEPSNTYPE
380
     0
  9
$PSTYLEMODE
290
     1
  9
$FINGERPRINTGUID
  2
{5EAC461A-2277-4BF8-9AB0-99C43BB394F0}
  9
$VERSIONGUID
  2
{08332120-F788-4AEE-82D6-18DD145B258B}
  9
$EXTNAMES
290
     1
  9
$PSVPSCALE
 40
0.0
  9
$OLESTARTUP
290
     0
  0
ENDSEC
  0
SECTION
  2
CLASSES
  0
CLASS
  1
ACDBDICTIONARYWDFLT
  2
AcDbDictionaryWithDefault
  3
ObjectDBX Classes
 90
        0
280
     0
281
     0
  0
CLASS
  1
DICTIONARYVAR
  2
AcDbDictionaryVar
  3
ObjectDBX Classes
 90
        0
280
     0
281
     0
  0
CLASS
  1
ACDBPLACEHOLDER
  2
AcDbPlaceHolder
  3
ObjectDBX Classes
 90
        0
280
     0
281
     0
  0
CLASS
  1
LAYOUT
  2
AcDbLayout
  3
ObjectDBX Classes
 90
        0
280
     0
281
     0
  0
ENDSEC
  0
SECTION
  2
TABLES
  0
TABLE
  2
VPORT
  5
746D
330
0
100
AcDbSymbolTable
 70
     2
  0
VPORT
  5
2464D
330
746D
100
AcDbSymbolTableRecord
100
AcDbViewportTableRecord
  2
*Active
 70
     0
 10
0.0
 20
0.0
 11
1.0
 21
1.0
 12
10116.63621041105
 22
5939.360227194629
 13
0.0
 23
0.0
 14
10.0
 24
10.0
 15
10.0
 25
10.0
 16
0.0
 26
0.0
 36
1.0
 17
0.0
 27
0.0
 37
0.0
 40
11969.39333514153
 41
1.79295154185022
 42
50.0
 43
0.0
 44
0.0
 50
0.0
 51
0.0
 71
     0
 72
     0
 73
     1
 74
     0
 75
     0
 76
     0
 77
     0
 78
     0
281
     0
 65
     1
110
0.0
120
0.0
130
0.0
111
1.0
121
0.0
131
0.0
112
0.0
122
1.0
132
0.0
 79
     0
146
0.0
  0
ENDTAB
  0
TABLE
  2
LTYPE
  5
746A
330
0
100
AcDbSymbolTable
 70
     3
  0
LTYPE
  5
7477
330
746A
100
AcDbSymbolTableRecord
100
AcDbLinetypeTableRecord
  2
BYBLOCK
 70
     0
  3

 72
    65
 73
     0
 40
0.0
  0
LTYPE
  5
7478
330
746A
100
AcDbSymbolTableRecord
100
AcDbLinetypeTableRecord
  2
BYLAYER
 70
     0
  3

 72
    65
 73
     0
 40
0.0
  0
LTYPE
  5
7479
330
746A
100
AcDbSymbolTableRecord
100
AcDbLinetypeTableRecord
  2
CONTINUOUS
 70
     0
  3
Solid line
 72
    65
 73
     0
 40
0.0
  0
LTYPE
  5
7816
330
746A
100
AcDbSymbolTableRecord
100
AcDbLinetypeTableRecord
  2
CENTER
 70
     0
  3
____ _ ____ _ ____ _ ____ _ ____ _ ____ _ ____ 
 72
    65
 73
     4
 40
2.0
 49
1.25
 74
     0
 49
-0.25
 74
     0
 49
0.25
 74
     0
 49
-0.25
 74
     0
  0
LTYPE
  5
781B
330
746A
100
AcDbSymbolTableRecord
100
AcDbLinetypeTableRecord
  2
PHANTOM
 70
     0
  3
______  __  __  ______  __  __  ______  __  __ 
 72
    65
 73
     6
 40
2.5
 49
1.25
 74
     0
 49
-0.25
 74
     0
 49
0.25
 74
     0
 49
-0.25
 74
     0
 49
0.25
 74
     0
 49
-0.25
 74
     0
  0
ENDTAB
  0
TABLE
  2
LAYER
  5
7467
102
{ACAD_XDICTIONARY
360
1758F
102
}
330
0
100
AcDbSymbolTable
 70
    10
  0
LAYER
  5
7474
330
7467
100
AcDbSymbolTableRecord
100
AcDbLayerTableRecord
  2
0
 70
     0
 62
     7
  6
CONTINUOUS
370
    -3
390
173D0
  0
LAYER
  5
DEB2
330
7467
100
AcDbSymbolTableRecord
100
AcDbLayerTableRecord
  2
センター
 70
     0
 62
     3
  6
CENTER
370
    -3
390
173D0
  0
LAYER
  5
DEB3
330
7467
100
AcDbSymbolTableRecord
100
AcDbLayerTableRecord
  2
寸法
 70
     0
 62
     4
  6
CONTINUOUS
370
    -3
390
173D0
  0
LAYER
  5
DEB4
330
7467
100
AcDbSymbolTableRecord
100
AcDbLayerTableRecord
  2
部品1
 70
     0
 62
     7
  6
CONTINUOUS
370
    -3
390
173D0
  0
LAYER
  5
DEB5
330
7467
100
AcDbSymbolTableRecord
100
AcDbLayerTableRecord
  2
補助
 70
     0
 62
    -1
  6
CONTINUOUS
370
    -3
390
173D0
  0
LAYER
  5
DEB6
330
7467
100
AcDbSymbolTableRecord
100
AcDbLayerTableRecord
  2
文字
 70
     0
 62
     7
  6
CONTINUOUS
370
    -3
390
173D0
  0
LAYER
  5
F255
330
7467
100
AcDbSymbolTableRecord
100
AcDbLayerTableRecord
  2
DEFPOINTS
 70
     0
 62
     7
  6
CONTINUOUS
290
     0
370
    -3
390
173D0
  0
LAYER
  5
10B54
330
7467
100
AcDbSymbolTableRecord
100
AcDbLayerTableRecord
  2
仕様書枠
 70
     0
 62
   230
  6
CONTINUOUS
370
    -3
390
173D0
  0
LAYER
  5
1173F
330
7467
100
AcDbSymbolTableRecord
100
AcDbLayerTableRecord
  2
細線
 70
     0
 62
     5
  6
CONTINUOUS
370
    -3
390
173D0
  0
LAYER
  5
12CC4
330
7467
100
AcDbSymbolTableRecord
100
AcDbLayerTableRecord
  2
想像線
 70
     0
 62
     6
  6
PHANTOM
370
    -3
390
173D0
  0
ENDTAB
  0
TABLE
  2
STYLE
  5
7468
330
0
100
AcDbSymbolTable
 70
     4
  0
STYLE
  5
7475
330
7468
100
AcDbSymbolTableRecord
100
AcDbTextStyleTableRecord
  2
STANDARD
 70
     0
 40
0.0
 41
1.0
 50
0.0
 71
     0
 42
4.0
  3
txt
  4
C:\AutoCAD LT\bigfont.shx
  0
STYLE
  5
763C
330
7468
100
AcDbSymbolTableRecord
100
AcDbTextStyleTableRecord
  2
MSMINCHO
 70
     0
 40
0.0
 41
1.0
 50
0.0
 71
     0
 42
1.199999999999999
  3
C:\AutoCAD LT\msminch2.TTF
  4

  0
STYLE
  5
F706
330
7468
100
AcDbSymbolTableRecord
100
AcDbTextStyleTableRecord
  2
STYLE1
 70
     0
 40
0.0
 41
1.0
 50
0.0
 71
     0
 42
4.0
  3
isocp.shx
  4
bigfont.shx
  0
STYLE
  5
103BF
330
7468
100
AcDbSymbolTableRecord
100
AcDbTextStyleTableRecord
  2
STYLE2
 70
     0
 40
0.0
 41
1.0
 50
0.0
 71
     0
 42
100.0
  3
MS PGothic.ttf
  4

1001
ACAD
1000
MS PGothic
1071
    32818
  0
ENDTAB
  0
TABLE
  2
VIEW
  5
746B
330
0
100
AcDbSymbolTable
 70
     0
  0
ENDTAB
  0
TABLE
  2
UCS
  5
746C
330
0
100
AcDbSymbolTable
 70
     0
  0
ENDTAB
  0
TABLE
  2
APPID
  5
746E
330
0
100
AcDbSymbolTable
 70
     6
  0
APPID
  5
7476
330
746E
100
AcDbSymbolTableRecord
100
AcDbRegAppTableRecord
  2
ACAD
 70
     0
  0
APPID
  5
DEA9
330
746E
100
AcDbSymbolTableRecord
100
AcDbRegAppTableRecord
  2
CONTENTBLOCKICON
 70
     0
  0
APPID
  5
DEAA
330
746E
100
AcDbSymbolTableRecord
100
AcDbRegAppTableRecord
  2
CONTENTBLOCKDESCRIPTION
 70
     0
  0
APPID
  5
E71D
330
746E
100
AcDbSymbolTableRecord
100
AcDbRegAppTableRecord
  2
CONTENTTABDATA
 70
     0
  0
APPID
  5
E71E
330
746E
100
AcDbSymbolTableRecord
100
AcDbRegAppTableRecord
  2
CONTENTCURRENTTAB
 70
     0
  0
APPID
  5
F3BA
330
746E
100
AcDbSymbolTableRecord
100
AcDbRegAppTableRecord
  2
DRAWINGVARIABLESXDATA
 70
     0
  0
ENDTAB
  0
TABLE
  2
DIMSTYLE
  5
746F
330
0
100
AcDbSymbolTable
 70
     1
100
AcDbDimStyleTable
 71
     1
340
F71F
  0
DIMSTYLE
105
F71F
102
{ACAD_REACTORS
330
2434A
330
2429C
330
24287
330
24255
330
2424F
330
24243
330
2423D
330
24234
330
24232
330
24231
330
24230
330
2422E
330
2422C
330
2422B
330
24228
330
24223
330
24222
330
24220
330
2421E
330
24217
330
23E28
330
23A97
330
23730
330
222D5
330
2227B
330
21966
330
21964
330
21959
330
21958
330
21957
330
21942
330
218CC
330
218AA
330
218A9
330
218A8
330
218A6
330
218A5
330
218A4
330
217E5
330
21671
330
2160C
330
21608
330
215F5
330
215F3
330
215EF
330
215ED
330
20E3A
330
20E15
330
20DFB
330
20DE1
330
1DAC7
330
1D333
330
1D2D6
330
1AC2C
330
1AC27
102
}
330
746F
100
AcDbSymbolTableRecord
100
AcDbDimStyleTableRecord
  2
INABA_S40G
 70
     0
 40
40.0
 41
2.5
 42
0.5
 43
7.0
 44
1.5
 73
     0
 74
     0
 77
     3
 78
     8
140
3.0
141
0.0
143
0.0394
147
1.0
172
     1
173
     1
174
     1
178
     7
271
     1
340
F706
341
F770
343
F770
344
F770
  0
ENDTAB
  0
TABLE
  2
BLOCK_RECORD
  5
7466
330
0
100
AcDbSymbolTable
 70
    38
  0
BLOCK_RECORD
  5
747D
330
7466
100
AcDbSymbolTableRecord
100
AcDbBlockTableRecord
  2
*MODEL_SPACE
340
173D5
  0
BLOCK_RECORD
  5
747A
330
7466
100
AcDbSymbolTableRecord
100
AcDbBlockTableRecord
  2
*PAPER_SPACE
340
173D6
  0
BLOCK_RECORD
  5
F770
330
7466
100
AcDbSymbolTableRecord
100
AcDbBlockTableRecord
  2
_DOTSMALL
340
0
102
{BLKREFS
331
24433
331
24434
331
2443C
331
2443D
331
24445
331
24446
331
2444E
331
2444F
331
24459
331
2445A
331
24462
331
24463
331
2446D
331
2446E
331
24476
331
24477
331
24480
331
24481
331
2449C
331
2449D
331
244A6
331
244A7
331
244C2
331
244C3
331
244DE
331
244DF
331
244E8
331
244E9
331
244F2
331
244F3
331
244FC
331
244FD
331
24505
331
24506
331
24517
331
24518
331
24521
331
24522
331
2452A
331
2452B
331
24533
331
24534
331
2453C
331
2453D
331
24545
331
24546
331
2454F
331
24550
331
24559
331
2455A
331
24564
331
24565
331
2456F
331
24570
331
2457A
331
2457B
331
24585
331
24586
331
24590
331
24591
331
245C1
331
245C2
331
245CA
331
245CB
331
245D3
331
245D4
331
245DC
331
245DD
331
245E5
331
245E6
331
245EE
331
245EF
331
245F7
331
245F8
102
}
  0
BLOCK_RECORD
  5
1DAD7
330
7466
100
AcDbSymbolTableRecord
100
AcDbBlockTableRecord
  2
*D1
340
0
  0
BLOCK_RECORD
  5
20DE2
330
7466
100
AcDbSymbolTableRecord
100
AcDbBlockTableRecord
  2
*D2
340
0
  0
BLOCK_RECORD
  5
20DFC
330
7466
100
AcDbSymbolTableRecord
100
AcDbBlockTableRecord
  2
*D3
340
0
  0
BLOCK_RECORD
  5
20E16
330
7466
100
AcDbSymbolTableRecord
100
AcDbBlockTableRecord
  2
*D4
340
0
  0
BLOCK_RECORD
  5
20E3B
330
7466
100
AcDbSymbolTableRecord
100
AcDbBlockTableRecord
  2
*D5
340
0
  0
BLOCK_RECORD
  5
2196C
330
7466
100
AcDbSymbolTableRecord
100
AcDbBlockTableRecord
  2
*D6
340
0
  0
BLOCK_RECORD
  5
21979
330
7466
100
AcDbSymbolTableRecord
100
AcDbBlockTableRecord
  2
*D7
340
0
  0
BLOCK_RECORD
  5
21986
330
7466
100
AcDbSymbolTableRecord
100
AcDbBlockTableRecord
  2
*D8
340
0
  0
BLOCK_RECORD
  5
2199D
330
7466
100
AcDbSymbolTableRecord
100
AcDbBlockTableRecord
  2
*D9
340
0
  0
BLOCK_RECORD
  5
219A8
330
7466
100
AcDbSymbolTableRecord
100
AcDbBlockTableRecord
  2
*D10
340
0
  0
BLOCK_RECORD
  5
219B4
330
7466
100
AcDbSymbolTableRecord
100
AcDbBlockTableRecord
  2
*D11
340
0
  0
BLOCK_RECORD
  5
219DD
330
7466
100
AcDbSymbolTableRecord
100
AcDbBlockTableRecord
  2
*D12
340
0
  0
BLOCK_RECORD
  5
219E8
330
7466
100
AcDbSymbolTableRecord
100
AcDbBlockTableRecord
  2
*D13
340
0
  0
BLOCK_RECORD
  5
219F4
330
7466
100
AcDbSymbolTableRecord
100
AcDbBlockTableRecord
  2
*D14
340
0
  0
BLOCK_RECORD
  5
21A0E
330
7466
100
AcDbSymbolTableRecord
100
AcDbBlockTableRecord
  2
*D15
340
0
  0
BLOCK_RECORD
  5
21A1B
330
7466
100
AcDbSymbolTableRecord
100
AcDbBlockTableRecord
  2
*D16
340
0
  0
BLOCK_RECORD
  5
21A28
330
7466
100
AcDbSymbolTableRecord
100
AcDbBlockTableRecord
  2
*D17
340
0
  0
BLOCK_RECORD
  5
21A41
330
7466
100
AcDbSymbolTableRecord
100
AcDbBlockTableRecord
  2
*D18
340
0
  0
BLOCK_RECORD
  5
21A66
330
7466
100
AcDbSymbolTableRecord
100
AcDbBlockTableRecord
  2
*D19
340
0
  0
BLOCK_RECORD
  5
21A72
330
7466
100
AcDbSymbolTableRecord
100
AcDbBlockTableRecord
  2
*D20
340
0
  0
BLOCK_RECORD
  5
21A7F
330
7466
100
AcDbSymbolTableRecord
100
AcDbBlockTableRecord
  2
*D21
340
0
  0
BLOCK_RECORD
  5
21A8B
330
7466
100
AcDbSymbolTableRecord
100
AcDbBlockTableRecord
  2
*D22
340
0
  0
BLOCK_RECORD
  5
21AA3
330
7466
100
AcDbSymbolTableRecord
100
AcDbBlockTableRecord
  2
*D23
340
0
  0
BLOCK_RECORD
  5
21AB0
330
7466
100
AcDbSymbolTableRecord
100
AcDbBlockTableRecord
  2
*D24
340
0
  0
BLOCK_RECORD
  5
21AE2
330
7466
100
AcDbSymbolTableRecord
100
AcDbBlockTableRecord
  2
*D25
340
0
  0
BLOCK_RECORD
  5
21AEF
330
7466
100
AcDbSymbolTableRecord
100
AcDbBlockTableRecord
  2
*D26
340
0
  0
BLOCK_RECORD
  5
2227C
330
7466
100
AcDbSymbolTableRecord
100
AcDbBlockTableRecord
  2
*D27
340
0
  0
BLOCK_RECORD
  5
222D6
330
7466
100
AcDbSymbolTableRecord
100
AcDbBlockTableRecord
  2
*D28
340
0
  0
BLOCK_RECORD
  5
23731
330
7466
100
AcDbSymbolTableRecord
100
AcDbBlockTableRecord
  2
*D29
340
0
  0
BLOCK_RECORD
  5
23BBF
330
7466
100
AcDbSymbolTableRecord
100
AcDbBlockTableRecord
  2
*D30
340
0
  0
BLOCK_RECORD
  5
23E29
330
7466
100
AcDbSymbolTableRecord
100
AcDbBlockTableRecord
  2
*D31
340
0
  0
BLOCK_RECORD
  5
2434D
330
7466
100
AcDbSymbolTableRecord
100
AcDbBlockTableRecord
  2
*D32
340
0
  0
BLOCK_RECORD
  5
24358
330
7466
100
AcDbSymbolTableRecord
100
AcDbBlockTableRecord
  2
*D33
340
0
  0
BLOCK_RECORD
  5
24366
330
7466
100
AcDbSymbolTableRecord
100
AcDbBlockTableRecord
  2
*D34
340
0
  0
BLOCK_RECORD
  5
24372
330
7466
100
AcDbSymbolTableRecord
100
AcDbBlockTableRecord
  2
*D35
340
0
  0
BLOCK_RECORD
  5
2437E
330
7466
100
AcDbSymbolTableRecord
100
AcDbBlockTableRecord
  2
*D36
340
0
  0
BLOCK_RECORD
  5
2438A
330
7466
100
AcDbSymbolTableRecord
100
AcDbBlockTableRecord
  2
*D37
340
0
  0
ENDTAB
  0
ENDSEC
  0
SECTION
  2
BLOCKS
  0
BLOCK
  5
7489
330
747D
100
AcDbEntity
  8
0
100
AcDbBlockBegin
  2
*MODEL_SPACE
 70
     0
 10
0.0
 20
0.0
 30
0.0
  3
*MODEL_SPACE
  1

  0
ENDBLK
  5
748A
330
747D
100
AcDbEntity
  8
0
100
AcDbBlockEnd
  0
BLOCK
  5
7487
330
747A
100
AcDbEntity
 67
     1
  8
0
100
AcDbBlockBegin
  2
*PAPER_SPACE
 70
     0
 10
0.0
 20
0.0
 30
0.0
  3
*PAPER_SPACE
  1

  0
ENDBLK
  5
7488
330
747A
100
AcDbEntity
 67
     1
  8
0
100
AcDbBlockEnd
  0
BLOCK
  5
F771
330
F770
100
AcDbEntity
  8
0
 48
50.0
100
AcDbBlockBegin
  2
_DOTSMALL
 70
     0
 10
0.0
 20
0.0
 30
0.0
  3
_DOTSMALL
  1

  0
LWPOLYLINE
  5
F772
330
F770
100
AcDbEntity
  8
0
  6
ByBlock
 62
     0
 48
50.0
100
AcDbPolyline
 90
        2
 70
     1
 43
0.5
 10
-0.0625
 20
0.0
 42
1.0
 10
0.0625
 20
0.0
 42
1.0
  0
ENDBLK
  5
F776
330
F770
100
AcDbEntity
  8
0
 48
50.0
100
AcDbBlockEnd
  0
BLOCK
  5
1DAE3
330
1DAD7
100
AcDbEntity
  8
0
 48
50.0
100
AcDbBlockBegin
  2
*D1
 70
     1
 10
0.0
 20
0.0
 30
0.0
  3
*D1
  1

  0
LINE
  5
2458B
330
1DAD7
100
AcDbEntity
  8
寸法
 62
     0
 48
50.0
370
    -2
100
AcDbLine
 10
8216.600000000001
 20
5754.082677076063
 30
0.0
 11
8523.202780124334
 21
5754.082677076063
 31
0.0
  0
LINE
  5
2458C
330
1DAD7
100
AcDbEntity
  8
寸法
 62
     0
 48
50.0
370
    -2
100
AcDbLine
 10
8216.600000000008
 20
5829.082677076065
 30
0.0
 11
8523.202780124334
 21
5829.082677076065
 31
0.0
  0
LINE
  5
2458D
330
1DAD7
100
AcDbEntity
  8
寸法
 62
     0
 48
50.0
370
    -2
100
AcDbLine
 10
8463.202780124335
 20
5829.082677076065
 30
0.0
 11
8463.202780124335
 21
5929.082677076064
 31
0.0
  0
LINE
  5
2458E
330
1DAD7
100
AcDbEntity
  8
寸法
 62
     0
 48
50.0
370
    -2
100
AcDbLine
 10
8463.202780124335
 20
5754.082677076063
 30
0.0
 11
8463.202780124335
 21
4887.112114327585
 31
0.0
  0
LINE
  5
2458F
330
1DAD7
100
AcDbEntity
  8
寸法
 62
     0
 48
50.0
370
    -2
100
AcDbLine
 10
8463.202780124335
 20
5829.082677076065
 30
0.0
 11
8463.202780124335
 21
5754.082677076063
 31
0.0
  0
INSERT
  5
24590
330
1DAD7
100
AcDbEntity
  8
寸法
 62
     0
 48
50.0
370
    -2
100
AcDbBlockReference
  2
_DOTSMALL
 10
8463.202780124335
 20
5829.082677076065
 30
0.0
 41
100.0
 42
100.0
 43
100.0
 50
270.0
  0
INSERT
  5
24591
330
1DAD7
100
AcDbEntity
  8
寸法
 62
     0
 48
50.0
370
    -2
100
AcDbBlockReference
  2
_DOTSMALL
 10
8463.202780124335
 20
5754.082677076063
 30
0.0
 41
100.0
 42
100.0
 43
100.0
 50
90.0
  0
MTEXT
  5
24592
330
1DAD7
100
AcDbEntity
  8
寸法
 62
     7
 48
50.0
100
AcDbMText
 10
8363.202780124332
 20
5220.597395701825
 30
0.0
 40
120.0
 41
0.0
 71
     5
 72
     1
  1
\A1;扉の出75
  7
STYLE1
 11
0.0000000000000001
 21
1.0
 31
0.0
 73
     1
 44
1.0
1001
ACAD
1000
MTEXTBEGIN
1070
    73
1070
     1
1070
    44
1040
1.0
1070
    74
1070
     0
1000
MTEXTEND
  0
POINT
  5
24593
330
1DAD7
100
AcDbEntity
  8
DEFPOINTS
 62
     0
 48
50.0
100
AcDbPoint
 10
8196.600000000001
 20
5754.082677076063
 30
0.0
  0
POINT
  5
24594
330
1DAD7
100
AcDbEntity
  8
DEFPOINTS
 62
     0
 48
50.0
100
AcDbPoint
 10
8196.600000000008
 20
5829.082677076065
 30
0.0
  0
POINT
  5
24595
330
1DAD7
100
AcDbEntity
  8
DEFPOINTS
 62
     0
 48
50.0
100
AcDbPoint
 10
8463.202780124335
 20
5829.082677076065
 30
0.0
  0
ENDBLK
  5
1DAE4
330
1DAD7
100
AcDbEntity
  8
0
 48
50.0
100
AcDbBlockEnd
  0
BLOCK
  5
20DEE
330
20DE2
100
AcDbEntity
  8
0
 48
50.0
100
AcDbBlockBegin
  2
*D2
 70
     1
 10
0.0
 20
0.0
 30
0.0
  3
*D2
  1

  0
LINE
  5
24580
330
20DE2
100
AcDbEntity
  8
寸法
 62
     0
 48
50.0
370
    -2
100
AcDbLine
 10
10018.6
 20
8069.082677076039
 30
0.0
 11
10018.6
 21
9067.302999134961
 31
0.0
  0
LINE
  5
24581
330
20DE2
100
AcDbEntity
  8
寸法
 62
     0
 48
50.0
370
    -2
100
AcDbLine
 10
10063.6
 20
8814.842303618123
 30
0.0
 11
10063.6
 21
9067.302999134961
 31
0.0
  0
LINE
  5
24582
330
20DE2
100
AcDbEntity
  8
寸法
 62
     0
 48
50.0
370
    -2
100
AcDbLine
 10
10018.6
 20
9007.302999134962
 30
0.0
 11
9918.600000000001
 21
9007.302999134962
 31
0.0
  0
LINE
  5
24583
330
20DE2
100
AcDbEntity
  8
寸法
 62
     0
 48
50.0
370
    -2
100
AcDbLine
 10
10063.6
 20
9007.302999134962
 30
0.0
 11
10400.94924240492
 21
9007.302999134962
 31
0.0
  0
LINE
  5
24584
330
20DE2
100
AcDbEntity
  8
寸法
 62
     0
 48
50.0
370
    -2
100
AcDbLine
 10
10018.6
 20
9007.302999134962
 30
0.0
 11
10063.6
 21
9007.302999134962
 31
0.0
  0
INSERT
  5
24585
330
20DE2
100
AcDbEntity
  8
寸法
 62
     0
 48
50.0
370
    -2
100
AcDbBlockReference
  2
_DOTSMALL
 10
10018.6
 20
9007.302999134962
 30
0.0
 41
100.0
 42
100.0
 43
100.0
  0
INSERT
  5
24586
330
20DE2
100
AcDbEntity
  8
寸法
 62
     0
 48
50.0
370
    -2
100
AcDbBlockReference
  2
_DOTSMALL
 10
10063.6
 20
9007.302999134962
 30
0.0
 41
100.0
 42
100.0
 43
100.0
 50
180.0
  0
MTEXT
  5
24587
330
20DE2
100
AcDbEntity
  8
寸法
 62
     7
 48
50.0
100
AcDbMText
 10
10334.77462120246
 20
9107.302999134962
 30
0.0
 40
120.0
 41
0.0
 71
     5
 72
     1
  1
\A1;a
  7
STYLE1
 73
     1
 44
1.0
1001
ACAD
1000
MTEXTBEGIN
1070
    73
1070
     1
1070
    44
1040
1.0
1070
    74
1070
     0
1000
MTEXTEND
  0
POINT
  5
24588
330
20DE2
100
AcDbEntity
  8
DEFPOINTS
 62
     0
 48
50.0
100
AcDbPoint
 10
10018.6
 20
8049.082677076039
 30
0.0
  0
POINT
  5
24589
330
20DE2
100
AcDbEntity
  8
DEFPOINTS
 62
     0
 48
50.0
100
AcDbPoint
 10
10063.6
 20
8794.842303618123
 30
0.0
  0
POINT
  5
2458A
330
20DE2
100
AcDbEntity
  8
DEFPOINTS
 62
     0
 48
50.0
100
AcDbPoint
 10
10063.6
 20
9007.302999134962
 30
0.0
  0
ENDBLK
  5
20DEF
330
20DE2
100
AcDbEntity
  8
0
 48
50.0
100
AcDbBlockEnd
  0
BLOCK
  5
20E08
330
20DFC
100
AcDbEntity
  8
0
 48
50.0
100
AcDbBlockBegin
  2
*D3
 70
     1
 10
0.0
 20
0.0
 30
0.0
  3
*D3
  1

  0
LINE
  5
24575
330
20DFC
100
AcDbEntity
  8
寸法
 62
     0
 48
50.0
370
    -2
100
AcDbLine
 10
6383.600000000008
 20
8814.842303618123
 30
0.0
 11
6383.600000000008
 21
9067.302999134961
 31
0.0
  0
LINE
  5
24576
330
20DFC
100
AcDbEntity
  8
寸法
 62
     0
 48
50.0
370
    -2
100
AcDbLine
 10
6428.6
 20
8069.082677076039
 30
0.0
 11
6428.6
 21
9067.302999134961
 31
0.0
  0
LINE
  5
24577
330
20DFC
100
AcDbEntity
  8
寸法
 62
     0
 48
50.0
370
    -2
100
AcDbLine
 10
6428.6
 20
9007.302999134962
 30
0.0
 11
6528.6
 21
9007.302999134962
 31
0.0
  0
LINE
  5
24578
330
20DFC
100
AcDbEntity
  8
寸法
 62
     0
 48
50.0
370
    -2
100
AcDbLine
 10
6383.600000000008
 20
9007.302999134962
 30
0.0
 11
6046.250757595083
 21
9007.302999134962
 31
0.0
  0
LINE
  5
24579
330
20DFC
100
AcDbEntity
  8
寸法
 62
     0
 48
50.0
370
    -2
100
AcDbLine
 10
6428.6
 20
9007.302999134962
 30
0.0
 11
6383.600000000008
 21
9007.302999134962
 31
0.0
  0
INSERT
  5
2457A
330
20DFC
100
AcDbEntity
  8
寸法
 62
     0
 48
50.0
370
    -2
100
AcDbBlockReference
  2
_DOTSMALL
 10
6428.6
 20
9007.302999134962
 30
0.0
 41
100.0
 42
100.0
 43
100.0
 50
180.0
  0
INSERT
  5
2457B
330
20DFC
100
AcDbEntity
  8
寸法
 62
     0
 48
50.0
370
    -2
100
AcDbBlockReference
  2
_DOTSMALL
 10
6383.600000000008
 20
9007.302999134962
 30
0.0
 41
100.0
 42
100.0
 43
100.0
  0
MTEXT
  5
2457C
330
20DFC
100
AcDbEntity
  8
寸法
 62
     7
 48
50.0
100
AcDbMText
 10
6112.425378797541
 20
9107.302999134962
 30
0.0
 40
120.0
 41
0.0
 71
     5
 72
     1
  1
\A1;a
  7
STYLE1
 73
     1
 44
1.0
1001
ACAD
1000
MTEXTBEGIN
1070
    73
1070
     1
1070
    44
1040
1.0
1070
    74
1070
     0
1000
MTEXTEND
  0
POINT
  5
2457D
330
20DFC
100
AcDbEntity
  8
DEFPOINTS
 62
     0
 48
50.0
100
AcDbPoint
 10
6383.600000000008
 20
8794.842303618123
 30
0.0
  0
POINT
  5
2457E
330
20DFC
100
AcDbEntity
  8
DEFPOINTS
 62
     0
 48
50.0
100
AcDbPoint
 10
6428.6
 20
8049.082677076039
 30
0.0
  0
POINT
  5
2457F
330
20DFC
100
AcDbEntity
  8
DEFPOINTS
 62
     0
 48
50.0
100
AcDbPoint
 10
6428.6
 20
9007.302999134962
 30
0.0
  0
ENDBLK
  5
20E09
330
20DFC
100
AcDbEntity
  8
0
 48
50.0
100
AcDbBlockEnd
  0
BLOCK
  5
20E22
330
20E16
100
AcDbEntity
  8
0
 48
50.0
100
AcDbBlockBegin
  2
*D4
 70
     1
 10
0.0
 20
0.0
 30
0.0
  3
*D4
  1

  0
LINE
  5
2456A
330
20E16
100
AcDbEntity
  8
寸法
 62
     0
 48
50.0
370
    -2
100
AcDbLine
 10
5912.657733986179
 20
8124.082677076044
 30
0.0
 11
5627.164931848213
 21
8124.082677076044
 31
0.0
  0
LINE
  5
2456B
330
20E16
100
AcDbEntity
  8
寸法
 62
     0
 48
50.0
370
    -2
100
AcDbLine
 10
6408.600000000003
 20
8049.082677076041
 30
0.0
 11
5627.164931848213
 21
8049.082677076041
 31
0.0
  0
LINE
  5
2456C
330
20E16
100
AcDbEntity
  8
寸法
 62
     0
 48
50.0
370
    -2
100
AcDbLine
 10
5687.164931848212
 20
8124.082677076044
 30
0.0
 11
5687.164931848212
 21
8224.082677076046
 31
0.0
  0
LINE
  5
2456D
330
20E16
100
AcDbEntity
  8
寸法
 62
     0
 48
50.0
370
    -2
100
AcDbLine
 10
5687.164931848212
 20
8049.082677076041
 30
0.0
 11
5687.164931848212
 21
7949.082677076042
 31
0.0
  0
LINE
  5
2456E
330
20E16
100
AcDbEntity
  8
寸法
 62
     0
 48
50.0
370
    -2
100
AcDbLine
 10
5687.164931848212
 20
8124.082677076044
 30
0.0
 11
5687.164931848212
 21
8049.082677076041
 31
0.0
  0
INSERT
  5
2456F
330
20E16
100
AcDbEntity
  8
寸法
 62
     0
 48
50.0
370
    -2
100
AcDbBlockReference
  2
_DOTSMALL
 10
5687.164931848212
 20
8124.082677076044
 30
0.0
 41
100.0
 42
100.0
 43
100.0
 50
270.0
  0
INSERT
  5
24570
330
20E16
100
AcDbEntity
  8
寸法
 62
     0
 48
50.0
370
    -2
100
AcDbBlockReference
  2
_DOTSMALL
 10
5687.164931848212
 20
8049.082677076041
 30
0.0
 41
100.0
 42
100.0
 43
100.0
 50
90.0
  0
MTEXT
  5
24571
330
20E16
100
AcDbEntity
  8
寸法
 62
     7
 48
50.0
100
AcDbMText
 10
5587.164931848211
 20
8086.582677076044
 30
0.0
 40
120.0
 41
0.0
 71
     5
 72
     1
  1
\A1;c
  7
STYLE1
 11
0.0000000000000001
 21
1.0
 31
0.0
 73
     1
 44
1.0
1001
ACAD
1000
MTEXTBEGIN
1070
    73
1070
     1
1070
    44
1040
1.0
1070
    74
1070
     0
1000
MTEXTEND
  0
POINT
  5
24572
330
20E16
100
AcDbEntity
  8
DEFPOINTS
 62
     0
 48
50.0
100
AcDbPoint
 10
5932.657733986179
 20
8124.082677076044
 30
0.0
  0
POINT
  5
24573
330
20E16
100
AcDbEntity
  8
DEFPOINTS
 62
     0
 48
50.0
100
AcDbPoint
 10
6428.600000000002
 20
8049.082677076041
 30
0.0
  0
POINT
  5
24574
330
20E16
100
AcDbEntity
  8
DEFPOINTS
 62
     0
 48
50.0
100
AcDbPoint
 10
5687.164931848212
 20
8049.082677076041
 30
0.0
  0
ENDBLK
  5
20E23
330
20E16
100
AcDbEntity
  8
0
 48
50.0
100
AcDbBlockEnd
  0
BLOCK
  5
20E47
330
20E3B
100
AcDbEntity
  8
0
 48
50.0
100
AcDbBlockBegin
  2
*D5
 70
     1
 10
0.0
 20
0.0
 30
0.0
  3
*D5
  1

  0
LINE
  5
2455F
330
20E3B
100
AcDbEntity
  8
寸法
 62
     0
 48
50.0
370
    -2
100
AcDbLine
 10
6408.599999999999
 20
5829.082677076041
 30
0.0
 11
5627.164931848213
 21
5829.082677076042
 31
0.0
  0
LINE
  5
24560
330
20E3B
100
AcDbEntity
  8
寸法
 62
     0
 48
50.0
370
    -2
100
AcDbLine
 10
5912.657733986179
 20
5774.082677076052
 30
0.0
 11
5627.164931848213
 21
5774.082677076052
 31
0.0
  0
LINE
  5
24561
330
20E3B
100
AcDbEntity
  8
寸法
 62
     0
 48
50.0
370
    -2
100
AcDbLine
 10
5687.164931848212
 20
5829.082677076042
 30
0.0
 11
5687.164931848212
 21
5929.082677076042
 31
0.0
  0
LINE
  5
24562
330
20E3B
100
AcDbEntity
  8
寸法
 62
     0
 48
50.0
370
    -2
100
AcDbLine
 10
5687.164931848212
 20
5774.082677076052
 30
0.0
 11
5687.164931848212
 21
5674.082677076052
 31
0.0
  0
LINE
  5
24563
330
20E3B
100
AcDbEntity
  8
寸法
 62
     0
 48
50.0
370
    -2
100
AcDbLine
 10
5687.164931848212
 20
5829.082677076042
 30
0.0
 11
5687.164931848212
 21
5774.082677076052
 31
0.0
  0
INSERT
  5
24564
330
20E3B
100
AcDbEntity
  8
寸法
 62
     0
 48
50.0
370
    -2
100
AcDbBlockReference
  2
_DOTSMALL
 10
5687.164931848212
 20
5829.082677076042
 30
0.0
 41
100.0
 42
100.0
 43
100.0
 50
270.0
  0
INSERT
  5
24565
330
20E3B
100
AcDbEntity
  8
寸法
 62
     0
 48
50.0
370
    -2
100
AcDbBlockReference
  2
_DOTSMALL
 10
5687.164931848212
 20
5774.082677076052
 30
0.0
 41
100.0
 42
100.0
 43
100.0
 50
90.0
  0
MTEXT
  5
24566
330
20E3B
100
AcDbEntity
  8
寸法
 62
     7
 48
50.0
100
AcDbMText
 10
5587.164931848211
 20
5801.582677076049
 30
0.0
 40
120.0
 41
0.0
 71
     5
 72
     1
  1
\A1;b
  7
STYLE1
 11
0.0000000000000001
 21
1.0
 31
0.0
 73
     1
 44
1.0
1001
ACAD
1000
MTEXTBEGIN
1070
    73
1070
     1
1070
    44
1040
1.0
1070
    74
1070
     0
1000
MTEXTEND
  0
POINT
  5
24567
330
20E3B
100
AcDbEntity
  8
DEFPOINTS
 62
     0
 48
50.0
100
AcDbPoint
 10
6428.6
 20
5829.082677076041
 30
0.0
  0
POINT
  5
24568
330
20E3B
100
AcDbEntity
  8
DEFPOINTS
 62
     0
 48
50.0
100
AcDbPoint
 10
5932.65773398618
 20
5774.082677076052
 30
0.0
  0
POINT
  5
24569
330
20E3B
100
AcDbEntity
  8
DEFPOINTS
 62
     0
 48
50.0
100
AcDbPoint
 10
5687.164931848212
 20
5774.082677076052
 30
0.0
  0
ENDBLK
  5
20E48
330
20E3B
100
AcDbEntity
  8
0
 48
50.0
100
AcDbBlockEnd
  0
BLOCK
  5
21977
330
2196C
100
AcDbEntity
  8
0
 48
50.0
100
AcDbBlockBegin
  2
*D6
 70
     1
 10
0.0
 20
0.0
 30
0.0
  3
*D6
  1

  0
LINE
  5
24555
330
2196C
100
AcDbEntity
  8
寸法
 62
     0
 48
50.0
370
    -2
100
AcDbLine
 10
8762.599867447319
 20
5949.082677076053
 30
0.0
 11
8610.14438614211
 21
5949.082677076053
 31
0.0
  0
LINE
  5
24556
330
2196C
100
AcDbEntity
  8
寸法
 62
     0
 48
50.0
370
    -2
100
AcDbLine
 10
8255.600000000001
 20
6059.08267707606
 30
0.0
 11
8730.144386142111
 21
6059.08267707606
 31
0.0
  0
LINE
  5
24557
330
2196C
100
AcDbEntity
  8
寸法
 62
     0
 48
50.0
370
    -2
100
AcDbLine
 10
8670.14438614211
 20
5949.082677076053
 30
0.0
 11
8670.14438614211
 21
6059.08267707606
 31
0.0
  0
LINE
  5
24558
330
2196C
100
AcDbEntity
  8
寸法
 62
     0
 48
50.0
370
    -2
100
AcDbLine
 10
8670.14438614211
 20
6059.08267707606
 30
0.0
 11
8670.14438614211
 21
6453.188976288672
 31
0.0
  0
INSERT
  5
24559
330
2196C
100
AcDbEntity
  8
寸法
 62
     0
 48
50.0
370
    -2
100
AcDbBlockReference
  2
_DOTSMALL
 10
8670.14438614211
 20
5949.082677076053
 30
0.0
 41
100.0
 42
100.0
 43
100.0
 50
270.0
  0
INSERT
  5
2455A
330
2196C
100
AcDbEntity
  8
寸法
 62
     0
 48
50.0
370
    -2
100
AcDbBlockReference
  2
_DOTSMALL
 10
8670.14438614211
 20
6059.08267707606
 30
0.0
 41
100.0
 42
100.0
 43
100.0
 50
90.0
  0
MTEXT
  5
2455B
330
2196C
100
AcDbEntity
  8
寸法
 62
     7
 48
50.0
100
AcDbMText
 10
8570.144386142109
 20
6329.141732194184
 30
0.0
 40
120.0
 41
0.0
 71
     5
 72
     1
  1
\A1;110
  7
STYLE1
 11
0.0000000000000001
 21
1.0
 31
0.0
 73
     1
 44
1.0
1001
ACAD
1000
MTEXTBEGIN
1070
    73
1070
     1
1070
    44
1040
1.0
1070
    74
1070
     0
1000
MTEXTEND
  0
POINT
  5
2455C
330
2196C
100
AcDbEntity
  8
DEFPOINTS
 62
     0
 48
50.0
100
AcDbPoint
 10
8782.599867447318
 20
5949.082677076053
 30
0.0
  0
POINT
  5
2455D
330
2196C
100
AcDbEntity
  8
DEFPOINTS
 62
     0
 48
50.0
100
AcDbPoint
 10
8235.600000000001
 20
6059.08267707606
 30
0.0
  0
POINT
  5
2455E
330
2196C
100
AcDbEntity
  8
DEFPOINTS
 62
     0
 48
50.0
100
AcDbPoint
 10
8670.14438614211
 20
6059.08267707606
 30
0.0
  0
ENDBLK
  5
21978
330
2196C
100
AcDbEntity
  8
0
 48
50.0
100
AcDbBlockEnd
  0
BLOCK
  5
21984
330
21979
100
AcDbEntity
  8
0
 48
50.0
100
AcDbBlockBegin
  2
*D7
 70
     1
 10
0.0
 20
0.0
 30
0.0
  3
*D7
  1

  0
LINE
  5
2454B
330
21979
100
AcDbEntity
  8
寸法
 62
     0
 48
50.0
370
    -2
100
AcDbLine
 10
8327.419180988156
 20
5829.082677076069
 30
0.0
 11
8730.144386142111
 21
5829.082677076069
 31
0.0
  0
LINE
  5
2454C
330
21979
100
AcDbEntity
  8
寸法
 62
     0
 48
50.0
370
    -2
100
AcDbLine
 10
8666.372126794716
 20
5949.082677076053
 30
0.0
 11
8610.14438614211
 21
5949.082677076053
 31
0.0
  0
LINE
  5
2454D
330
21979
100
AcDbEntity
  8
寸法
 62
     0
 48
50.0
370
    -2
100
AcDbLine
 10
8670.14438614211
 20
5949.082677076053
 30
0.0
 11
8670.14438614211
 21
5829.082677076069
 31
0.0
  0
LINE
  5
2454E
330
21979
100
AcDbEntity
  8
寸法
 62
     0
 48
50.0
370
    -2
100
AcDbLine
 10
8670.14438614211
 20
5829.082677076069
 30
0.0
 11
8670.14438614211
 21
5356.747128013612
 31
0.0
  0
INSERT
  5
2454F
330
21979
100
AcDbEntity
  8
寸法
 62
     0
 48
50.0
370
    -2
100
AcDbBlockReference
  2
_DOTSMALL
 10
8670.14438614211
 20
5949.082677076053
 30
0.0
 41
100.0
 42
100.0
 43
100.0
 50
90.0
  0
INSERT
  5
24550
330
21979
100
AcDbEntity
  8
寸法
 62
     0
 48
50.0
370
    -2
100
AcDbBlockReference
  2
_DOTSMALL
 10
8670.14438614211
 20
5829.082677076069
 30
0.0
 41
100.0
 42
100.0
 43
100.0
 50
270.0
  0
MTEXT
  5
24551
330
21979
100
AcDbEntity
  8
寸法
 62
     7
 48
50.0
100
AcDbMText
 10
8570.132575118487
 20
5492.794372108101
 30
0.0
 40
120.0
 41
0.0
 71
     5
 72
     1
  1
\A1;120
  7
STYLE1
 11
0.0000000000000001
 21
1.0
 31
0.0
 73
     1
 44
1.0
1001
ACAD
1000
MTEXTBEGIN
1070
    73
1070
     1
1070
    44
1040
1.0
1070
    74
1070
     0
1000
MTEXTEND
  0
POINT
  5
24552
330
21979
100
AcDbEntity
  8
DEFPOINTS
 62
     0
 48
50.0
100
AcDbPoint
 10
8307.419180988159
 20
5829.082677076069
 30
0.0
  0
POINT
  5
24553
330
21979
100
AcDbEntity
  8
DEFPOINTS
 62
     0
 48
50.0
100
AcDbPoint
 10
8686.372126794715
 20
5949.082677076053
 30
0.0
  0
POINT
  5
24554
330
21979
100
AcDbEntity
  8
DEFPOINTS
 62
     0
 48
50.0
100
AcDbPoint
 10
8670.14438614211
 20
5949.082677076053
 30
0.0
  0
ENDBLK
  5
21985
330
21979
100
AcDbEntity
  8
0
 48
50.0
100
AcDbBlockEnd
  0
BLOCK
  5
2198F
330
21986
100
AcDbEntity
  8
0
 48
50.0
100
AcDbBlockBegin
  2
*D8
 70
     1
 10
0.0
 20
0.0
 30
0.0
  3
*D8
  1

  0
LINE
  5
24542
330
21986
100
AcDbEntity
  8
寸法
 62
     0
 48
50.0
370
    -2
100
AcDbLine
 10
6428.6
 20
8069.082677076041
 30
0.0
 11
6428.6
 21
9067.302999134961
 31
0.0
  0
LINE
  5
24543
330
21986
100
AcDbEntity
  8
寸法
 62
     0
 48
50.0
370
    -2
100
AcDbLine
 10
10018.6
 20
8069.082677076039
 30
0.0
 11
10018.6
 21
9067.302999134961
 31
0.0
  0
LINE
  5
24544
330
21986
100
AcDbEntity
  8
寸法
 62
     0
 48
50.0
370
    -2
100
AcDbLine
 10
6428.6
 20
9007.302999134962
 30
0.0
 11
10018.6
 21
9007.302999134962
 31
0.0
  0
INSERT
  5
24545
330
21986
100
AcDbEntity
  8
寸法
 62
     0
 48
50.0
370
    -2
100
AcDbBlockReference
  2
_DOTSMALL
 10
6428.6
 20
9007.302999134962
 30
0.0
 41
100.0
 42
100.0
 43
100.0
 50
180.0
  0
INSERT
  5
24546
330
21986
100
AcDbEntity
  8
寸法
 62
     0
 48
50.0
370
    -2
100
AcDbBlockReference
  2
_DOTSMALL
 10
10018.6
 20
9007.302999134962
 30
0.0
 41
100.0
 42
100.0
 43
100.0
  0
MTEXT
  5
24547
330
21986
100
AcDbEntity
  8
寸法
 62
     7
 48
50.0
100
AcDbMText
 10
8223.600000000001
 20
9107.302999134962
 30
0.0
 40
120.0
 41
0.0
 71
     5
 72
     1
  1
\A1;3590
  7
STYLE1
 73
     1
 44
1.0
1001
ACAD
1000
MTEXTBEGIN
1070
    73
1070
     1
1070
    44
1040
1.0
1070
    74
1070
     0
1000
MTEXTEND
  0
POINT
  5
24548
330
21986
100
AcDbEntity
  8
DEFPOINTS
 62
     0
 48
50.0
100
AcDbPoint
 10
6428.6
 20
8049.082677076041
 30
0.0
  0
POINT
  5
24549
330
21986
100
AcDbEntity
  8
DEFPOINTS
 62
     0
 48
50.0
100
AcDbPoint
 10
10018.6
 20
8049.082677076039
 30
0.0
  0
POINT
  5
2454A
330
21986
100
AcDbEntity
  8
DEFPOINTS
 62
     0
 48
50.0
100
AcDbPoint
 10
10018.6
 20
9007.302999134962
 30
0.0
  0
ENDBLK
  5
21990
330
21986
100
AcDbEntity
  8
0
 48
50.0
100
AcDbBlockEnd
  0
BLOCK
  5
219A6
330
2199D
100
AcDbEntity
  8
0
 48
50.0
100
AcDbBlockBegin
  2
*D9
 70
     1
 10
0.0
 20
0.0
 30
0.0
  3
*D9
  1

  0
LINE
  5
24539
330
2199D
100
AcDbEntity
  8
寸法
 62
     0
 48
50.0
370
    -2
100
AcDbLine
 10
9895.600000000001
 20
7996.082677076042
 30
0.0
 11
9895.600000000001
 21
8854.842303618125
 31
0.0
  0
LINE
  5
2453A
330
2199D
100
AcDbEntity
  8
寸法
 62
     0
 48
50.0
370
    -2
100
AcDbLine
 10
8105.6
 20
7996.082677076042
 30
0.0
 11
8105.6
 21
8854.842303618125
 31
0.0
  0
LINE
  5
2453B
330
2199D
100
AcDbEntity
  8
寸法
 62
     0
 48
50.0
370
    -2
100
AcDbLine
 10
9895.600000000001
 20
8794.842303618125
 30
0.0
 11
8105.6
 21
8794.842303618125
 31
0.0
  0
INSERT
  5
2453C
330
2199D
100
AcDbEntity
  8
寸法
 62
     0
 48
50.0
370
    -2
100
AcDbBlockReference
  2
_DOTSMALL
 10
9895.600000000001
 20
8794.842303618125
 30
0.0
 41
100.0
 42
100.0
 43
100.0
  0
INSERT
  5
2453D
330
2199D
100
AcDbEntity
  8
寸法
 62
     0
 48
50.0
370
    -2
100
AcDbBlockReference
  2
_DOTSMALL
 10
8105.6
 20
8794.842303618125
 30
0.0
 41
100.0
 42
100.0
 43
100.0
 50
180.0
  0
MTEXT
  5
2453E
330
2199D
100
AcDbEntity
  8
寸法
 62
     7
 48
50.0
100
AcDbMText
 10
9000.6
 20
8894.842303618125
 30
0.0
 40
120.0
 41
0.0
 71
     5
 72
     1
  1
\A1;1790
  7
STYLE1
 73
     1
 44
1.0
1001
ACAD
1000
MTEXTBEGIN
1070
    73
1070
     1
1070
    44
1040
1.0
1070
    74
1070
     0
1000
MTEXTEND
  0
POINT
  5
2453F
330
2199D
100
AcDbEntity
  8
DEFPOINTS
 62
     0
 48
50.0
100
AcDbPoint
 10
9895.600000000001
 20
7976.082677076042
 30
0.0
  0
POINT
  5
24540
330
2199D
100
AcDbEntity
  8
DEFPOINTS
 62
     0
 48
50.0
100
AcDbPoint
 10
8105.6
 20
7976.082677076042
 30
0.0
  0
POINT
  5
24541
330
2199D
100
AcDbEntity
  8
DEFPOINTS
 62
     0
 48
50.0
100
AcDbPoint
 10
8105.6
 20
8794.842303618125
 30
0.0
  0
ENDBLK
  5
219A7
330
2199D
100
AcDbEntity
  8
0
 48
50.0
100
AcDbBlockEnd
  0
BLOCK
  5
219B2
330
219A8
100
AcDbEntity
  8
0
 48
50.0
100
AcDbBlockBegin
  2
*D10
 70
     1
 10
0.0
 20
0.0
 30
0.0
  3
*D10
  1

  0
LINE
  5
24530
330
219A8
100
AcDbEntity
  8
寸法
 62
     0
 48
50.0
370
    -2
100
AcDbLine
 10
6481.6
 20
7926.082677076042
 30
0.0
 11
5872.657733986179
 21
7926.082677076043
 31
0.0
  0
LINE
  5
24531
330
219A8
100
AcDbEntity
  8
寸法
 62
     0
 48
50.0
370
    -2
100
AcDbLine
 10
6481.600000000007
 20
5952.082677076043
 30
0.0
 11
5872.657733986177
 21
5952.082677076044
 31
0.0
  0
LINE
  5
24532
330
219A8
100
AcDbEntity
  8
寸法
 62
     0
 48
50.0
370
    -2
100
AcDbLine
 10
5932.657733986179
 20
7926.082677076043
 30
0.0
 11
5932.657733986178
 21
5952.082677076044
 31
0.0
  0
INSERT
  5
24533
330
219A8
100
AcDbEntity
  8
寸法
 62
     0
 48
50.0
370
    -2
100
AcDbBlockReference
  2
_DOTSMALL
 10
5932.657733986179
 20
7926.082677076043
 30
0.0
 41
100.0
 42
100.0
 43
100.0
 50
90.0
  0
INSERT
  5
24534
330
219A8
100
AcDbEntity
  8
寸法
 62
     0
 48
50.0
370
    -2
100
AcDbBlockReference
  2
_DOTSMALL
 10
5932.657733986178
 20
5952.082677076044
 30
0.0
 41
100.0
 42
100.0
 43
100.0
 50
270.0
  0
MTEXT
  5
24535
330
219A8
100
AcDbEntity
  8
寸法
 62
     7
 48
50.0
100
AcDbMText
 10
5832.657733986177
 20
6939.082677076044
 30
0.0
 40
120.0
 41
0.0
 71
     5
 72
     1
  1
\A1;1974
  7
STYLE1
 11
0.0000000000000001
 21
1.0
 31
0.0
 73
     1
 44
1.0
1001
ACAD
1000
MTEXTBEGIN
1070
    73
1070
     1
1070
    44
1040
1.0
1070
    74
1070
     0
1000
MTEXTEND
  0
POINT
  5
24536
330
219A8
100
AcDbEntity
  8
DEFPOINTS
 62
     0
 48
50.0
100
AcDbPoint
 10
6501.6
 20
7926.082677076042
 30
0.0
  0
POINT
  5
24537
330
219A8
100
AcDbEntity
  8
DEFPOINTS
 62
     0
 48
50.0
100
AcDbPoint
 10
6501.600000000007
 20
5952.082677076043
 30
0.0
  0
POINT
  5
24538
330
219A8
100
AcDbEntity
  8
DEFPOINTS
 62
     0
 48
50.0
100
AcDbPoint
 10
5932.657733986178
 20
5952.082677076044
 30
0.0
  0
ENDBLK
  5
219B3
330
219A8
100
AcDbEntity
  8
0
 48
50.0
100
AcDbBlockEnd
  0
BLOCK
  5
219BD
330
219B4
100
AcDbEntity
  8
0
 48
50.0
100
AcDbBlockBegin
  2
*D11
 70
     1
 10
0.0
 20
0.0
 30
0.0
  3
*D11
  1

  0
LINE
  5
24527
330
219B4
100
AcDbEntity
  8
寸法
 62
     0
 48
50.0
370
    -2
100
AcDbLine
 10
6408.599999999999
 20
8049.082677076041
 30
0.0
 11
5627.164931848211
 21
8049.082677076041
 31
0.0
  0
LINE
  5
24528
330
219B4
100
AcDbEntity
  8
寸法
 62
     0
 48
50.0
370
    -2
100
AcDbLine
 10
6408.599999999999
 20
5829.082677076041
 30
0.0
 11
5627.16493184821
 21
5829.082677076042
 31
0.0
  0
LINE
  5
24529
330
219B4
100
AcDbEntity
  8
寸法
 62
     0
 48
50.0
370
    -2
100
AcDbLine
 10
5687.164931848212
 20
8049.082677076041
 30
0.0
 11
5687.164931848211
 21
5829.082677076042
 31
0.0
  0
INSERT
  5
2452A
330
219B4
100
AcDbEntity
  8
寸法
 62
     0
 48
50.0
370
    -2
100
AcDbBlockReference
  2
_DOTSMALL
 10
5687.164931848212
 20
8049.082677076041
 30
0.0
 41
100.0
 42
100.0
 43
100.0
 50
90.0
  0
INSERT
  5
2452B
330
219B4
100
AcDbEntity
  8
寸法
 62
     0
 48
50.0
370
    -2
100
AcDbBlockReference
  2
_DOTSMALL
 10
5687.164931848211
 20
5829.082677076042
 30
0.0
 41
100.0
 42
100.0
 43
100.0
 50
270.0
  0
MTEXT
  5
2452C
330
219B4
100
AcDbEntity
  8
寸法
 62
     7
 48
50.0
100
AcDbMText
 10
5587.153120824588
 20
6939.082677076043
 30
0.0
 40
120.0
 41
0.0
 71
     5
 72
     1
  1
\A1;2220
  7
STYLE1
 11
0.0000000000000001
 21
1.0
 31
0.0
 73
     1
 44
1.0
1001
ACAD
1000
MTEXTBEGIN
1070
    73
1070
     1
1070
    44
1040
1.0
1070
    74
1070
     0
1000
MTEXTEND
  0
POINT
  5
2452D
330
219B4
100
AcDbEntity
  8
DEFPOINTS
 62
     0
 48
50.0
100
AcDbPoint
 10
6428.6
 20
8049.082677076041
 30
0.0
  0
POINT
  5
2452E
330
219B4
100
AcDbEntity
  8
DEFPOINTS
 62
     0
 48
50.0
100
AcDbPoint
 10
6428.6
 20
5829.082677076041
 30
0.0
  0
POINT
  5
2452F
330
219B4
100
AcDbEntity
  8
DEFPOINTS
 62
     0
 48
50.0
100
AcDbPoint
 10
5687.164931848211
 20
5829.082677076042
 30
0.0
  0
ENDBLK
  5
219BE
330
219B4
100
AcDbEntity
  8
0
 48
50.0
100
AcDbBlockEnd
  0
BLOCK
  5
219E6
330
219DD
100
AcDbEntity
  8
0
 48
50.0
100
AcDbBlockBegin
  2
*D12
 70
     1
 10
0.0
 20
0.0
 30
0.0
  3
*D12
  1

  0
LINE
  5
245C7
330
219DD
100
AcDbEntity
  8
寸法
 62
     0
 48
50.0
370
    -2
100
AcDbLine
 10
7328.6
 20
7384.082677076043
 30
0.0
 11
7328.6
 21
8635.99244272437
 31
0.0
  0
LINE
  5
245C8
330
219DD
100
AcDbEntity
  8
寸法
 62
     0
 48
50.0
370
    -2
100
AcDbLine
 10
6428.6
 20
8069.082677076041
 30
0.0
 11
6428.6
 21
8635.99244272437
 31
0.0
  0
LINE
  5
245C9
330
219DD
100
AcDbEntity
  8
寸法
 62
     0
 48
50.0
370
    -2
100
AcDbLine
 10
7328.6
 20
8575.99244272437
 30
0.0
 11
6428.6
 21
8575.99244272437
 31
0.0
  0
INSERT
  5
245CA
330
219DD
100
AcDbEntity
  8
寸法
 62
     0
 48
50.0
370
    -2
100
AcDbBlockReference
  2
_DOTSMALL
 10
7328.6
 20
8575.99244272437
 30
0.0
 41
100.0
 42
100.0
 43
100.0
  0
INSERT
  5
245CB
330
219DD
100
AcDbEntity
  8
寸法
 62
     0
 48
50.0
370
    -2
100
AcDbBlockReference
  2
_DOTSMALL
 10
6428.6
 20
8575.99244272437
 30
0.0
 41
100.0
 42
100.0
 43
100.0
 50
180.0
  0
MTEXT
  5
245CC
330
219DD
100
AcDbEntity
  8
寸法
 62
     7
 48
50.0
100
AcDbMText
 10
6879.6
 20
8675.992442724369
 30
0.0
 40
120.0
 41
0.0
 71
     5
 72
     1
  1
\A1;900
  7
STYLE1
 73
     1
 44
1.0
1001
ACAD
1000
MTEXTBEGIN
1070
    73
1070
     1
1070
    44
1040
1.0
1070
    74
1070
     0
1000
MTEXTEND
  0
POINT
  5
245CD
330
219DD
100
AcDbEntity
  8
DEFPOINTS
 62
     0
 48
50.0
100
AcDbPoint
 10
7328.6
 20
7364.082677076043
 30
0.0
  0
POINT
  5
245CE
330
219DD
100
AcDbEntity
  8
DEFPOINTS
 62
     0
 48
50.0
100
AcDbPoint
 10
6428.6
 20
8049.082677076041
 30
0.0
  0
POINT
  5
245CF
330
219DD
100
AcDbEntity
  8
DEFPOINTS
 62
     0
 48
50.0
100
AcDbPoint
 10
6428.6
 20
8575.99244272437
 30
0.0
  0
ENDBLK
  5
219E7
330
219DD
100
AcDbEntity
  8
0
 48
50.0
100
AcDbBlockEnd
  0
BLOCK
  5
219F2
330
219E8
100
AcDbEntity
  8
0
 48
50.0
100
AcDbBlockBegin
  2
*D13
 70
     1
 10
0.0
 20
0.0
 30
0.0
  3
*D13
  1

  0
LINE
  5
24502
330
219E8
100
AcDbEntity
  8
寸法
 62
     0
 48
50.0
370
    -2
100
AcDbLine
 10
8105.6
 20
7996.082677076042
 30
0.0
 11
8105.6
 21
8854.842303618125
 31
0.0
  0
LINE
  5
24503
330
219E8
100
AcDbEntity
  8
寸法
 62
     0
 48
50.0
370
    -2
100
AcDbLine
 10
6551.6
 20
7996.082677076042
 30
0.0
 11
6551.6
 21
8854.842303618125
 31
0.0
  0
LINE
  5
24504
330
219E8
100
AcDbEntity
  8
寸法
 62
     0
 48
50.0
370
    -2
100
AcDbLine
 10
8105.6
 20
8794.842303618125
 30
0.0
 11
6551.6
 21
8794.842303618125
 31
0.0
  0
INSERT
  5
24505
330
219E8
100
AcDbEntity
  8
寸法
 62
     0
 48
50.0
370
    -2
100
AcDbBlockReference
  2
_DOTSMALL
 10
8105.6
 20
8794.842303618125
 30
0.0
 41
100.0
 42
100.0
 43
100.0
  0
INSERT
  5
24506
330
219E8
100
AcDbEntity
  8
寸法
 62
     0
 48
50.0
370
    -2
100
AcDbBlockReference
  2
_DOTSMALL
 10
6551.6
 20
8794.842303618125
 30
0.0
 41
100.0
 42
100.0
 43
100.0
 50
180.0
  0
MTEXT
  5
24507
330
219E8
100
AcDbEntity
  8
寸法
 62
     7
 48
50.0
100
AcDbMText
 10
7328.6
 20
8894.842303618125
 30
0.0
 40
120.0
 41
0.0
 71
     5
 72
     1
  1
\A1;1554
  7
STYLE1
 73
     1
 44
1.0
1001
ACAD
1000
MTEXTBEGIN
1070
    73
1070
     1
1070
    44
1040
1.0
1070
    74
1070
     0
1000
MTEXTEND
  0
POINT
  5
24508
330
219E8
100
AcDbEntity
  8
DEFPOINTS
 62
     0
 48
50.0
100
AcDbPoint
 10
8105.6
 20
7976.082677076042
 30
0.0
  0
POINT
  5
24509
330
219E8
100
AcDbEntity
  8
DEFPOINTS
 62
     0
 48
50.0
100
AcDbPoint
 10
6551.6
 20
7976.082677076042
 30
0.0
  0
POINT
  5
2450A
330
219E8
100
AcDbEntity
  8
DEFPOINTS
 62
     0
 48
50.0
100
AcDbPoint
 10
6551.6
 20
8794.842303618125
 30
0.0
  0
ENDBLK
  5
219F3
330
219E8
100
AcDbEntity
  8
0
 48
50.0
100
AcDbBlockEnd
  0
BLOCK
  5
219FF
330
219F4
100
AcDbEntity
  8
0
 48
50.0
100
AcDbBlockBegin
  2
*D14
 70
     1
 10
0.0
 20
0.0
 30
0.0
  3
*D14
  1

  0
LINE
  5
244F8
330
219F4
100
AcDbEntity
  8
寸法
 62
     0
 48
50.0
370
    -2
100
AcDbLine
 10
6551.6
 20
7996.082677076042
 30
0.0
 11
6551.6
 21
8854.842303618125
 31
0.0
  0
LINE
  5
244F9
330
219F4
100
AcDbEntity
  8
寸法
 62
     0
 48
50.0
370
    -2
100
AcDbLine
 10
6428.6
 20
8069.082677076041
 30
0.0
 11
6428.6
 21
8854.842303618125
 31
0.0
  0
LINE
  5
244FA
330
219F4
100
AcDbEntity
  8
寸法
 62
     0
 48
50.0
370
    -2
100
AcDbLine
 10
6551.6
 20
8794.842303618125
 30
0.0
 11
6428.6
 21
8794.842303618125
 31
0.0
  0
LINE
  5
244FB
330
219F4
100
AcDbEntity
  8
寸法
 62
     0
 48
50.0
370
    -2
100
AcDbLine
 10
6428.6
 20
8794.842303618125
 30
0.0
 11
6017.008116907963
 21
8794.842303618125
 31
0.0
  0
INSERT
  5
244FC
330
219F4
100
AcDbEntity
  8
寸法
 62
     0
 48
50.0
370
    -2
100
AcDbBlockReference
  2
_DOTSMALL
 10
6551.6
 20
8794.842303618125
 30
0.0
 41
100.0
 42
100.0
 43
100.0
  0
INSERT
  5
244FD
330
219F4
100
AcDbEntity
  8
寸法
 62
     0
 48
50.0
370
    -2
100
AcDbBlockReference
  2
_DOTSMALL
 10
6428.6
 20
8794.842303618125
 30
0.0
 41
100.0
 42
100.0
 43
100.0
 50
180.0
  0
MTEXT
  5
244FE
330
219F4
100
AcDbEntity
  8
寸法
 62
     7
 48
50.0
100
AcDbMText
 10
6155.493398282202
 20
8894.854114641747
 30
0.0
 40
120.0
 41
0.0
 71
     5
 72
     1
  1
\A1;123
  7
STYLE1
 73
     1
 44
1.0
1001
ACAD
1000
MTEXTBEGIN
1070
    73
1070
     1
1070
    44
1040
1.0
1070
    74
1070
     0
1000
MTEXTEND
  0
POINT
  5
244FF
330
219F4
100
AcDbEntity
  8
DEFPOINTS
 62
     0
 48
50.0
100
AcDbPoint
 10
6551.6
 20
7976.082677076042
 30
0.0
  0
POINT
  5
24500
330
219F4
100
AcDbEntity
  8
DEFPOINTS
 62
     0
 48
50.0
100
AcDbPoint
 10
6428.6
 20
8049.082677076041
 30
0.0
  0
POINT
  5
24501
330
219F4
100
AcDbEntity
  8
DEFPOINTS
 62
     0
 48
50.0
100
AcDbPoint
 10
6428.6
 20
8794.842303618125
 30
0.0
  0
ENDBLK
  5
21A00
330
219F4
100
AcDbEntity
  8
0
 48
50.0
100
AcDbBlockEnd
  0
BLOCK
  5
21A19
330
21A0E
100
AcDbEntity
  8
0
 48
50.0
100
AcDbBlockBegin
  2
*D15
 70
     1
 10
0.0
 20
0.0
 30
0.0
  3
*D15
  1

  0
LINE
  5
244EE
330
21A0E
100
AcDbEntity
  8
寸法
 62
     0
 48
50.0
370
    -2
100
AcDbLine
 10
6408.599999999999
 20
8049.082677076041
 30
0.0
 11
5872.657733986179
 21
8049.082677076041
 31
0.0
  0
LINE
  5
244EF
330
21A0E
100
AcDbEntity
  8
寸法
 62
     0
 48
50.0
370
    -2
100
AcDbLine
 10
6481.6
 20
7926.082677076042
 30
0.0
 11
5872.657733986179
 21
7926.082677076043
 31
0.0
  0
LINE
  5
244F0
330
21A0E
100
AcDbEntity
  8
寸法
 62
     0
 48
50.0
370
    -2
100
AcDbLine
 10
5932.657733986179
 20
7926.082677076043
 30
0.0
 11
5932.657733986179
 21
8049.082677076041
 31
0.0
  0
LINE
  5
244F1
330
21A0E
100
AcDbEntity
  8
寸法
 62
     0
 48
50.0
370
    -2
100
AcDbLine
 10
5932.657733986179
 20
8049.082677076041
 30
0.0
 11
5932.657733986179
 21
8460.674560168078
 31
0.0
  0
INSERT
  5
244F2
330
21A0E
100
AcDbEntity
  8
寸法
 62
     0
 48
50.0
370
    -2
100
AcDbBlockReference
  2
_DOTSMALL
 10
5932.657733986179
 20
7926.082677076043
 30
0.0
 41
100.0
 42
100.0
 43
100.0
 50
270.0
  0
INSERT
  5
244F3
330
21A0E
100
AcDbEntity
  8
寸法
 62
     0
 48
50.0
370
    -2
100
AcDbBlockReference
  2
_DOTSMALL
 10
5932.657733986179
 20
8049.082677076041
 30
0.0
 41
100.0
 42
100.0
 43
100.0
 50
90.0
  0
MTEXT
  5
244F4
330
21A0E
100
AcDbEntity
  8
寸法
 62
     7
 48
50.0
100
AcDbMText
 10
5832.645922962556
 20
8322.189278793841
 30
0.0
 40
120.0
 41
0.0
 71
     5
 72
     1
  1
\A1;123
  7
STYLE1
 11
0.0000000000000001
 21
1.0
 31
0.0
 73
     1
 44
1.0
1001
ACAD
1000
MTEXTBEGIN
1070
    73
1070
     1
1070
    44
1040
1.0
1070
    74
1070
     0
1000
MTEXTEND
  0
POINT
  5
244F5
330
21A0E
100
AcDbEntity
  8
DEFPOINTS
 62
     0
 48
50.0
100
AcDbPoint
 10
6428.6
 20
8049.082677076041
 30
0.0
  0
POINT
  5
244F6
330
21A0E
100
AcDbEntity
  8
DEFPOINTS
 62
     0
 48
50.0
100
AcDbPoint
 10
6501.6
 20
7926.082677076042
 30
0.0
  0
POINT
  5
244F7
330
21A0E
100
AcDbEntity
  8
DEFPOINTS
 62
     0
 48
50.0
100
AcDbPoint
 10
5932.657733986179
 20
7926.082677076043
 30
0.0
  0
ENDBLK
  5
21A1A
330
21A0E
100
AcDbEntity
  8
0
 48
50.0
100
AcDbBlockEnd
  0
BLOCK
  5
21A26
330
21A1B
100
AcDbEntity
  8
0
 48
50.0
100
AcDbBlockBegin
  2
*D16
 70
     1
 10
0.0
 20
0.0
 30
0.0
  3
*D16
  1

  0
LINE
  5
244E4
330
21A1B
100
AcDbEntity
  8
寸法
 62
     0
 48
50.0
370
    -2
100
AcDbLine
 10
6678.6
 20
7929.08267707604
 30
0.0
 11
6935.307249876098
 21
7929.08267707604
 31
0.0
  0
LINE
  5
244E5
330
21A1B
100
AcDbEntity
  8
寸法
 62
     0
 48
50.0
370
    -2
100
AcDbLine
 10
6678.6
 20
8049.082677076039
 30
0.0
 11
6935.307249876098
 21
8049.082677076039
 31
0.0
  0
LINE
  5
244E6
330
21A1B
100
AcDbEntity
  8
寸法
 62
     0
 48
50.0
370
    -2
100
AcDbLine
 10
6875.307249876098
 20
7929.08267707604
 30
0.0
 11
6875.307249876098
 21
8049.082677076039
 31
0.0
  0
LINE
  5
244E7
330
21A1B
100
AcDbEntity
  8
寸法
 62
     0
 48
50.0
370
    -2
100
AcDbLine
 10
6875.307249876098
 20
8049.082677076039
 30
0.0
 11
6875.307249876098
 21
8443.213464443415
 31
0.0
  0
INSERT
  5
244E8
330
21A1B
100
AcDbEntity
  8
寸法
 62
     0
 48
50.0
370
    -2
100
AcDbBlockReference
  2
_DOTSMALL
 10
6875.307249876098
 20
7929.08267707604
 30
0.0
 41
100.0
 42
100.0
 43
100.0
 50
270.0
  0
INSERT
  5
244E9
330
21A1B
100
AcDbEntity
  8
寸法
 62
     0
 48
50.0
370
    -2
100
AcDbBlockReference
  2
_DOTSMALL
 10
6875.307249876098
 20
8049.082677076039
 30
0.0
 41
100.0
 42
100.0
 43
100.0
 50
90.0
  0
MTEXT
  5
244EA
330
21A1B
100
AcDbEntity
  8
寸法
 62
     7
 48
50.0
100
AcDbMText
 10
6775.295438852475
 20
8307.166220348928
 30
0.0
 40
120.0
 41
0.0
 71
     5
 72
     1
  1
\A1;120
  7
STYLE1
 11
0.0000000000000001
 21
1.0
 31
0.0
 73
     1
 44
1.0
1001
ACAD
1000
MTEXTBEGIN
1070
    73
1070
     1
1070
    44
1040
1.0
1070
    74
1070
     0
1000
MTEXTEND
  0
POINT
  5
244EB
330
21A1B
100
AcDbEntity
  8
DEFPOINTS
 62
     0
 48
50.0
100
AcDbPoint
 10
6658.599999999999
 20
7929.08267707604
 30
0.0
  0
POINT
  5
244EC
330
21A1B
100
AcDbEntity
  8
DEFPOINTS
 62
     0
 48
50.0
100
AcDbPoint
 10
6658.599999999999
 20
8049.082677076039
 30
0.0
  0
POINT
  5
244ED
330
21A1B
100
AcDbEntity
  8
DEFPOINTS
 62
     0
 48
50.0
100
AcDbPoint
 10
6875.307249876098
 20
8049.082677076039
 30
0.0
  0
ENDBLK
  5
21A27
330
21A1B
100
AcDbEntity
  8
0
 48
50.0
100
AcDbBlockEnd
  0
BLOCK
  5
21A33
330
21A28
100
AcDbEntity
  8
0
 48
50.0
100
AcDbBlockBegin
  2
*D17
 70
     1
 10
0.0
 20
0.0
 30
0.0
  3
*D17
  1

  0
LINE
  5
244DA
330
21A28
100
AcDbEntity
  8
寸法
 62
     0
 48
50.0
370
    -2
100
AcDbLine
 10
6678.6
 20
7929.082677076042
 30
0.0
 11
6935.307249876098
 21
7929.082677076042
 31
0.0
  0
LINE
  5
244DB
330
21A28
100
AcDbEntity
  8
寸法
 62
     0
 48
50.0
370
    -2
100
AcDbLine
 10
6678.6
 20
7819.082677076038
 30
0.0
 11
6935.307249876098
 21
7819.082677076038
 31
0.0
  0
LINE
  5
244DC
330
21A28
100
AcDbEntity
  8
寸法
 62
     0
 48
50.0
370
    -2
100
AcDbLine
 10
6875.307249876098
 20
7929.082677076042
 30
0.0
 11
6875.307249876098
 21
7819.082677076038
 31
0.0
  0
LINE
  5
244DD
330
21A28
100
AcDbEntity
  8
寸法
 62
     0
 48
50.0
370
    -2
100
AcDbLine
 10
6875.307249876098
 20
7819.082677076038
 30
0.0
 11
6875.307249876098
 21
7334.97637786344
 31
0.0
  0
INSERT
  5
244DE
330
21A28
100
AcDbEntity
  8
寸法
 62
     0
 48
50.0
370
    -2
100
AcDbBlockReference
  2
_DOTSMALL
 10
6875.307249876098
 20
7929.082677076042
 30
0.0
 41
100.0
 42
100.0
 43
100.0
 50
90.0
  0
INSERT
  5
244DF
330
21A28
100
AcDbEntity
  8
寸法
 62
     0
 48
50.0
370
    -2
100
AcDbBlockReference
  2
_DOTSMALL
 10
6875.307249876098
 20
7819.082677076038
 30
0.0
 41
100.0
 42
100.0
 43
100.0
 50
270.0
  0
MTEXT
  5
244E0
330
21A28
100
AcDbEntity
  8
寸法
 62
     7
 48
50.0
100
AcDbMText
 10
6775.307249876097
 20
7459.023621957929
 30
0.0
 40
120.0
 41
0.0
 71
     5
 72
     1
  1
\A1;110
  7
STYLE1
 11
0.0000000000000001
 21
1.0
 31
0.0
 73
     1
 44
1.0
1001
ACAD
1000
MTEXTBEGIN
1070
    73
1070
     1
1070
    44
1040
1.0
1070
    74
1070
     0
1000
MTEXTEND
  0
POINT
  5
244E1
330
21A28
100
AcDbEntity
  8
DEFPOINTS
 62
     0
 48
50.0
100
AcDbPoint
 10
6658.599999999999
 20
7929.082677076042
 30
0.0
  0
POINT
  5
244E2
330
21A28
100
AcDbEntity
  8
DEFPOINTS
 62
     0
 48
50.0
100
AcDbPoint
 10
6658.599999999999
 20
7819.082677076038
 30
0.0
  0
POINT
  5
244E3
330
21A28
100
AcDbEntity
  8
DEFPOINTS
 62
     0
 48
50.0
100
AcDbPoint
 10
6875.307249876098
 20
7819.082677076038
 30
0.0
  0
ENDBLK
  5
21A34
330
21A28
100
AcDbEntity
  8
0
 48
50.0
100
AcDbBlockEnd
  0
BLOCK
  5
21A4B
330
21A41
100
AcDbEntity
  8
0
 48
50.0
100
AcDbBlockBegin
  2
*D18
 70
     1
 10
0.0
 20
0.0
 30
0.0
  3
*D18
  1

  0
LINE
  5
245F4
330
21A41
100
AcDbEntity
  8
寸法
 62
     0
 48
50.0
370
    -2
100
AcDbLine
 10
8998.600000000001
 20
7314.082677076043
 30
0.0
 11
8857.836548133354
 21
7314.082677076043
 31
0.0
  0
LINE
  5
245F5
330
21A41
100
AcDbEntity
  8
寸法
 62
     0
 48
50.0
370
    -2
100
AcDbLine
 10
8998.600000000001
 20
6564.082677076043
 30
0.0
 11
8857.836548133354
 21
6564.082677076043
 31
0.0
  0
LINE
  5
245F6
330
21A41
100
AcDbEntity
  8
寸法
 62
     0
 48
50.0
370
    -2
100
AcDbLine
 10
8917.836548133353
 20
7314.082677076043
 30
0.0
 11
8917.836548133353
 21
6564.082677076043
 31
0.0
  0
INSERT
  5
245F7
330
21A41
100
AcDbEntity
  8
寸法
 62
     0
 48
50.0
370
    -2
100
AcDbBlockReference
  2
_DOTSMALL
 10
8917.836548133353
 20
7314.082677076043
 30
0.0
 41
100.0
 42
100.0
 43
100.0
 50
90.0
  0
INSERT
  5
245F8
330
21A41
100
AcDbEntity
  8
寸法
 62
     0
 48
50.0
370
    -2
100
AcDbBlockReference
  2
_DOTSMALL
 10
8917.836548133353
 20
6564.082677076043
 30
0.0
 41
100.0
 42
100.0
 43
100.0
 50
270.0
  0
MTEXT
  5
245F9
330
21A41
100
AcDbEntity
  8
寸法
 62
     7
 48
50.0
100
AcDbMText
 10
8817.836548133351
 20
6939.082677076043
 30
0.0
 40
120.0
 41
0.0
 71
     5
 72
     1
  1
\A1;750
  7
STYLE1
 11
0.0000000000000001
 21
1.0
 31
0.0
 73
     1
 44
1.0
1001
ACAD
1000
MTEXTBEGIN
1070
    73
1070
     1
1070
    44
1040
1.0
1070
    74
1070
     0
1000
MTEXTEND
  0
POINT
  5
245FA
330
21A41
100
AcDbEntity
  8
DEFPOINTS
 62
     0
 48
50.0
100
AcDbPoint
 10
9018.600000000001
 20
7314.082677076043
 30
0.0
  0
POINT
  5
245FB
330
21A41
100
AcDbEntity
  8
DEFPOINTS
 62
     0
 48
50.0
100
AcDbPoint
 10
9018.600000000001
 20
6564.082677076043
 30
0.0
  0
POINT
  5
245FC
330
21A41
100
AcDbEntity
  8
DEFPOINTS
 62
     0
 48
50.0
100
AcDbPoint
 10
8917.836548133353
 20
6564.082677076043
 30
0.0
  0
ENDBLK
  5
21A4C
330
21A41
100
AcDbEntity
  8
0
 48
50.0
100
AcDbBlockEnd
  0
BLOCK
  5
21A70
330
21A66
100
AcDbEntity
  8
0
 48
50.0
100
AcDbBlockBegin
  2
*D19
 70
     1
 10
0.0
 20
0.0
 30
0.0
  3
*D19
  1

  0
LINE
  5
245EB
330
21A66
100
AcDbEntity
  8
寸法
 62
     0
 48
50.0
370
    -2
100
AcDbLine
 10
8677.045939259562
 20
5829.082677076051
 30
0.0
 11
8977.836548133353
 21
5829.082677076051
 31
0.0
  0
LINE
  5
245EC
330
21A66
100
AcDbEntity
  8
寸法
 62
     0
 48
50.0
370
    -2
100
AcDbLine
 10
8998.600000000001
 20
6564.082677076043
 30
0.0
 11
8857.836548133354
 21
6564.082677076043
 31
0.0
  0
LINE
  5
245ED
330
21A66
100
AcDbEntity
  8
寸法
 62
     0
 48
50.0
370
    -2
100
AcDbLine
 10
8917.836548133353
 20
5829.082677076051
 30
0.0
 11
8917.836548133353
 21
6564.082677076043
 31
0.0
  0
INSERT
  5
245EE
330
21A66
100
AcDbEntity
  8
寸法
 62
     0
 48
50.0
370
    -2
100
AcDbBlockReference
  2
_DOTSMALL
 10
8917.836548133353
 20
5829.082677076051
 30
0.0
 41
100.0
 42
100.0
 43
100.0
 50
270.0
  0
INSERT
  5
245EF
330
21A66
100
AcDbEntity
  8
寸法
 62
     0
 48
50.0
370
    -2
100
AcDbBlockReference
  2
_DOTSMALL
 10
8917.836548133353
 20
6564.082677076043
 30
0.0
 41
100.0
 42
100.0
 43
100.0
 50
90.0
  0
MTEXT
  5
245F0
330
21A66
100
AcDbEntity
  8
寸法
 62
     7
 48
50.0
100
AcDbMText
 10
8817.836548133351
 20
6196.582677076047
 30
0.0
 40
120.0
 41
0.0
 71
     5
 72
     1
  1
\A1;735
  7
STYLE1
 11
0.0000000000000001
 21
1.0
 31
0.0
 73
     1
 44
1.0
1001
ACAD
1000
MTEXTBEGIN
1070
    73
1070
     1
1070
    44
1040
1.0
1070
    74
1070
     0
1000
MTEXTEND
  0
POINT
  5
245F1
330
21A66
100
AcDbEntity
  8
DEFPOINTS
 62
     0
 48
50.0
100
AcDbPoint
 10
8657.04593925956
 20
5829.082677076051
 30
0.0
  0
POINT
  5
245F2
330
21A66
100
AcDbEntity
  8
DEFPOINTS
 62
     0
 48
50.0
100
AcDbPoint
 10
9018.600000000001
 20
6564.082677076043
 30
0.0
  0
POINT
  5
245F3
330
21A66
100
AcDbEntity
  8
DEFPOINTS
 62
     0
 48
50.0
100
AcDbPoint
 10
8917.836548133353
 20
6564.082677076043
 30
0.0
  0
ENDBLK
  5
21A71
330
21A66
100
AcDbEntity
  8
0
 48
50.0
100
AcDbBlockEnd
  0
BLOCK
  5
21A7D
330
21A72
100
AcDbEntity
  8
0
 48
50.0
100
AcDbBlockBegin
  2
*D20
 70
     1
 10
0.0
 20
0.0
 30
0.0
  3
*D20
  1

  0
LINE
  5
244BE
330
21A72
100
AcDbEntity
  8
寸法
 62
     0
 48
50.0
370
    -2
100
AcDbLine
 10
9898.6
 20
7588.367273614498
 30
0.0
 11
9898.6
 21
7531.374009575667
 31
0.0
  0
LINE
  5
244BF
330
21A72
100
AcDbEntity
  8
寸法
 62
     0
 48
50.0
370
    -2
100
AcDbLine
 10
9788.600000000002
 20
7799.082677076039
 30
0.0
 11
9788.600000000002
 21
7531.374009575667
 31
0.0
  0
LINE
  5
244C0
330
21A72
100
AcDbEntity
  8
寸法
 62
     0
 48
50.0
370
    -2
100
AcDbLine
 10
9898.6
 20
7591.374009575666
 30
0.0
 11
9788.600000000002
 21
7591.374009575666
 31
0.0
  0
LINE
  5
244C1
330
21A72
100
AcDbEntity
  8
寸法
 62
     0
 48
50.0
370
    -2
100
AcDbLine
 10
9788.600000000002
 20
7591.374009575666
 30
0.0
 11
9374.4937007874
 21
7591.374009575666
 31
0.0
  0
INSERT
  5
244C2
330
21A72
100
AcDbEntity
  8
寸法
 62
     0
 48
50.0
370
    -2
100
AcDbBlockReference
  2
_DOTSMALL
 10
9898.6
 20
7591.374009575666
 30
0.0
 41
100.0
 42
100.0
 43
100.0
  0
INSERT
  5
244C3
330
21A72
100
AcDbEntity
  8
寸法
 62
     0
 48
50.0
370
    -2
100
AcDbBlockReference
  2
_DOTSMALL
 10
9788.600000000002
 20
7591.374009575666
 30
0.0
 41
100.0
 42
100.0
 43
100.0
 50
180.0
  0
MTEXT
  5
244C4
330
21A72
100
AcDbEntity
  8
寸法
 62
     7
 48
50.0
100
AcDbMText
 10
9498.540944881888
 20
7691.374009575667
 30
0.0
 40
120.0
 41
0.0
 71
     5
 72
     1
  1
\A1;110
  7
STYLE1
 73
     1
 44
1.0
1001
ACAD
1000
MTEXTBEGIN
1070
    73
1070
     1
1070
    44
1040
1.0
1070
    74
1070
     0
1000
MTEXTEND
  0
POINT
  5
244C5
330
21A72
100
AcDbEntity
  8
DEFPOINTS
 62
     0
 48
50.0
100
AcDbPoint
 10
9898.6
 20
7608.367273614497
 30
0.0
  0
POINT
  5
244C6
330
21A72
100
AcDbEntity
  8
DEFPOINTS
 62
     0
 48
50.0
100
AcDbPoint
 10
9788.600000000002
 20
7819.082677076039
 30
0.0
  0
POINT
  5
244C7
330
21A72
100
AcDbEntity
  8
DEFPOINTS
 62
     0
 48
50.0
100
AcDbPoint
 10
9788.600000000002
 20
7591.374009575666
 30
0.0
  0
ENDBLK
  5
21A7E
330
21A72
100
AcDbEntity
  8
0
 48
50.0
100
AcDbBlockEnd
  0
BLOCK
  5
21A89
330
21A7F
100
AcDbEntity
  8
0
 48
50.0
100
AcDbBlockBegin
  2
*D21
 70
     1
 10
0.0
 20
0.0
 30
0.0
  3
*D21
  1

  0
LINE
  5
245E2
330
21A7F
100
AcDbEntity
  8
寸法
 62
     0
 48
50.0
370
    -2
100
AcDbLine
 10
10018.6
 20
8069.082677076041
 30
0.0
 11
10018.6
 21
8635.99244272437
 31
0.0
  0
LINE
  5
245E3
330
21A7F
100
AcDbEntity
  8
寸法
 62
     0
 48
50.0
370
    -2
100
AcDbLine
 10
9118.6
 20
7384.082677076043
 30
0.0
 11
9118.6
 21
8635.99244272437
 31
0.0
  0
LINE
  5
245E4
330
21A7F
100
AcDbEntity
  8
寸法
 62
     0
 48
50.0
370
    -2
100
AcDbLine
 10
10018.6
 20
8575.99244272437
 30
0.0
 11
9118.6
 21
8575.99244272437
 31
0.0
  0
INSERT
  5
245E5
330
21A7F
100
AcDbEntity
  8
寸法
 62
     0
 48
50.0
370
    -2
100
AcDbBlockReference
  2
_DOTSMALL
 10
10018.6
 20
8575.99244272437
 30
0.0
 41
100.0
 42
100.0
 43
100.0
  0
INSERT
  5
245E6
330
21A7F
100
AcDbEntity
  8
寸法
 62
     0
 48
50.0
370
    -2
100
AcDbBlockReference
  2
_DOTSMALL
 10
9118.6
 20
8575.99244272437
 30
0.0
 41
100.0
 42
100.0
 43
100.0
 50
180.0
  0
MTEXT
  5
245E7
330
21A7F
100
AcDbEntity
  8
寸法
 62
     7
 48
50.0
100
AcDbMText
 10
9568.600000000001
 20
8675.992442724369
 30
0.0
 40
120.0
 41
0.0
 71
     5
 72
     1
  1
\A1;900
  7
STYLE1
 73
     1
 44
1.0
1001
ACAD
1000
MTEXTBEGIN
1070
    73
1070
     1
1070
    44
1040
1.0
1070
    74
1070
     0
1000
MTEXTEND
  0
POINT
  5
245E8
330
21A7F
100
AcDbEntity
  8
DEFPOINTS
 62
     0
 48
50.0
100
AcDbPoint
 10
10018.6
 20
8049.082677076041
 30
0.0
  0
POINT
  5
245E9
330
21A7F
100
AcDbEntity
  8
DEFPOINTS
 62
     0
 48
50.0
100
AcDbPoint
 10
9118.6
 20
7364.082677076043
 30
0.0
  0
POINT
  5
245EA
330
21A7F
100
AcDbEntity
  8
DEFPOINTS
 62
     0
 48
50.0
100
AcDbPoint
 10
9118.6
 20
8575.99244272437
 30
0.0
  0
ENDBLK
  5
21A8A
330
21A7F
100
AcDbEntity
  8
0
 48
50.0
100
AcDbBlockEnd
  0
BLOCK
  5
21A94
330
21A8B
100
AcDbEntity
  8
0
 48
50.0
100
AcDbBlockBegin
  2
*D22
 70
     1
 10
0.0
 20
0.0
 30
0.0
  3
*D22
  1

  0
LINE
  5
245D9
330
21A8B
100
AcDbEntity
  8
寸法
 62
     0
 48
50.0
370
    -2
100
AcDbLine
 10
8998.600000000001
 20
7314.082677076043
 30
0.0
 11
8857.836548133354
 21
7314.082677076043
 31
0.0
  0
LINE
  5
245DA
330
21A8B
100
AcDbEntity
  8
寸法
 62
     0
 48
50.0
370
    -2
100
AcDbLine
 10
8581.157431058356
 20
8049.082677076043
 30
0.0
 11
8977.836548133353
 21
8049.082677076043
 31
0.0
  0
LINE
  5
245DB
330
21A8B
100
AcDbEntity
  8
寸法
 62
     0
 48
50.0
370
    -2
100
AcDbLine
 10
8917.836548133353
 20
7314.082677076043
 30
0.0
 11
8917.836548133353
 21
8049.082677076043
 31
0.0
  0
INSERT
  5
245DC
330
21A8B
100
AcDbEntity
  8
寸法
 62
     0
 48
50.0
370
    -2
100
AcDbBlockReference
  2
_DOTSMALL
 10
8917.836548133353
 20
7314.082677076043
 30
0.0
 41
100.0
 42
100.0
 43
100.0
 50
270.0
  0
INSERT
  5
245DD
330
21A8B
100
AcDbEntity
  8
寸法
 62
     0
 48
50.0
370
    -2
100
AcDbBlockReference
  2
_DOTSMALL
 10
8917.836548133353
 20
8049.082677076043
 30
0.0
 41
100.0
 42
100.0
 43
100.0
 50
90.0
  0
MTEXT
  5
245DE
330
21A8B
100
AcDbEntity
  8
寸法
 62
     7
 48
50.0
100
AcDbMText
 10
8817.836548133351
 20
7681.582677076043
 30
0.0
 40
120.0
 41
0.0
 71
     5
 72
     1
  1
\A1;735
  7
STYLE1
 11
0.0000000000000001
 21
1.0
 31
0.0
 73
     1
 44
1.0
1001
ACAD
1000
MTEXTBEGIN
1070
    73
1070
     1
1070
    44
1040
1.0
1070
    74
1070
     0
1000
MTEXTEND
  0
POINT
  5
245DF
330
21A8B
100
AcDbEntity
  8
DEFPOINTS
 62
     0
 48
50.0
100
AcDbPoint
 10
9018.600000000001
 20
7314.082677076043
 30
0.0
  0
POINT
  5
245E0
330
21A8B
100
AcDbEntity
  8
DEFPOINTS
 62
     0
 48
50.0
100
AcDbPoint
 10
8561.157431058354
 20
8049.082677076043
 30
0.0
  0
POINT
  5
245E1
330
21A8B
100
AcDbEntity
  8
DEFPOINTS
 62
     0
 48
50.0
100
AcDbPoint
 10
8917.836548133353
 20
8049.082677076043
 30
0.0
  0
ENDBLK
  5
21A95
330
21A8B
100
AcDbEntity
  8
0
 48
50.0
100
AcDbBlockEnd
  0
BLOCK
  5
21AAE
330
21AA3
100
AcDbEntity
  8
0
 48
50.0
100
AcDbBlockBegin
  2
*D23
 70
     1
 10
0.0
 20
0.0
 30
0.0
  3
*D23
  1

  0
LINE
  5
244A2
330
21AA3
100
AcDbEntity
  8
寸法
 62
     0
 48
50.0
370
    -2
100
AcDbLine
 10
10018.6
 20
8069.082677076041
 30
0.0
 11
10018.6
 21
8854.842303618125
 31
0.0
  0
LINE
  5
244A3
330
21AA3
100
AcDbEntity
  8
寸法
 62
     0
 48
50.0
370
    -2
100
AcDbLine
 10
9895.600000000001
 20
7996.082677076042
 30
0.0
 11
9895.600000000001
 21
8854.842303618125
 31
0.0
  0
LINE
  5
244A4
330
21AA3
100
AcDbEntity
  8
寸法
 62
     0
 48
50.0
370
    -2
100
AcDbLine
 10
9895.600000000001
 20
8794.842303618125
 30
0.0
 11
10018.6
 21
8794.842303618125
 31
0.0
  0
LINE
  5
244A5
330
21AA3
100
AcDbEntity
  8
寸法
 62
     0
 48
50.0
370
    -2
100
AcDbLine
 10
10018.6
 20
8794.842303618125
 30
0.0
 11
10430.19188309203
 21
8794.842303618125
 31
0.0
  0
INSERT
  5
244A6
330
21AA3
100
AcDbEntity
  8
寸法
 62
     0
 48
50.0
370
    -2
100
AcDbBlockReference
  2
_DOTSMALL
 10
9895.600000000001
 20
8794.842303618125
 30
0.0
 41
100.0
 42
100.0
 43
100.0
 50
180.0
  0
INSERT
  5
244A7
330
21AA3
100
AcDbEntity
  8
寸法
 62
     0
 48
50.0
370
    -2
100
AcDbBlockReference
  2
_DOTSMALL
 10
10018.6
 20
8794.842303618125
 30
0.0
 41
100.0
 42
100.0
 43
100.0
  0
MTEXT
  5
244A8
330
21AA3
100
AcDbEntity
  8
寸法
 62
     7
 48
50.0
100
AcDbMText
 10
10291.7066017178
 20
8894.854114641747
 30
0.0
 40
120.0
 41
0.0
 71
     5
 72
     1
  1
\A1;123
  7
STYLE1
 73
     1
 44
1.0
1001
ACAD
1000
MTEXTBEGIN
1070
    73
1070
     1
1070
    44
1040
1.0
1070
    74
1070
     0
1000
MTEXTEND
  0
POINT
  5
244A9
330
21AA3
100
AcDbEntity
  8
DEFPOINTS
 62
     0
 48
50.0
100
AcDbPoint
 10
10018.6
 20
8049.082677076041
 30
0.0
  0
POINT
  5
244AA
330
21AA3
100
AcDbEntity
  8
DEFPOINTS
 62
     0
 48
50.0
100
AcDbPoint
 10
9895.600000000001
 20
7976.082677076042
 30
0.0
  0
POINT
  5
244AB
330
21AA3
100
AcDbEntity
  8
DEFPOINTS
 62
     0
 48
50.0
100
AcDbPoint
 10
9895.600000000001
 20
8794.842303618125
 30
0.0
  0
ENDBLK
  5
21AAF
330
21AA3
100
AcDbEntity
  8
0
 48
50.0
100
AcDbBlockEnd
  0
BLOCK
  5
21ABB
330
21AB0
100
AcDbEntity
  8
0
 48
50.0
100
AcDbBlockBegin
  2
*D24
 70
     1
 10
0.0
 20
0.0
 30
0.0
  3
*D24
  1

  0
LINE
  5
24498
330
21AB0
100
AcDbEntity
  8
寸法
 62
     0
 48
50.0
370
    -2
100
AcDbLine
 10
10018.6
 20
7588.367273614498
 30
0.0
 11
10018.6
 21
7531.374009575667
 31
0.0
  0
LINE
  5
24499
330
21AB0
100
AcDbEntity
  8
寸法
 62
     0
 48
50.0
370
    -2
100
AcDbLine
 10
9898.6
 20
7588.367273614498
 30
0.0
 11
9898.6
 21
7531.374009575667
 31
0.0
  0
LINE
  5
2449A
330
21AB0
100
AcDbEntity
  8
寸法
 62
     0
 48
50.0
370
    -2
100
AcDbLine
 10
9898.6
 20
7591.374009575666
 30
0.0
 11
10018.6
 21
7591.374009575666
 31
0.0
  0
LINE
  5
2449B
330
21AB0
100
AcDbEntity
  8
寸法
 62
     0
 48
50.0
370
    -2
100
AcDbLine
 10
10018.6
 20
7591.374009575666
 30
0.0
 11
10404.7062992126
 21
7591.374009575666
 31
0.0
  0
INSERT
  5
2449C
330
21AB0
100
AcDbEntity
  8
寸法
 62
     0
 48
50.0
370
    -2
100
AcDbBlockReference
  2
_DOTSMALL
 10
9898.6
 20
7591.374009575666
 30
0.0
 41
100.0
 42
100.0
 43
100.0
 50
180.0
  0
INSERT
  5
2449D
330
21AB0
100
AcDbEntity
  8
寸法
 62
     0
 48
50.0
370
    -2
100
AcDbBlockReference
  2
_DOTSMALL
 10
10018.6
 20
7591.374009575666
 30
0.0
 41
100.0
 42
100.0
 43
100.0
  0
MTEXT
  5
2449E
330
21AB0
100
AcDbEntity
  8
寸法
 62
     7
 48
50.0
100
AcDbMText
 10
10268.65905511811
 20
7691.385820599288
 30
0.0
 40
120.0
 41
0.0
 71
     5
 72
     1
  1
\A1;120
  7
STYLE1
 73
     1
 44
1.0
1001
ACAD
1000
MTEXTBEGIN
1070
    73
1070
     1
1070
    44
1040
1.0
1070
    74
1070
     0
1000
MTEXTEND
  0
POINT
  5
2449F
330
21AB0
100
AcDbEntity
  8
DEFPOINTS
 62
     0
 48
50.0
100
AcDbPoint
 10
10018.6
 20
7608.367273614497
 30
0.0
  0
POINT
  5
244A0
330
21AB0
100
AcDbEntity
  8
DEFPOINTS
 62
     0
 48
50.0
100
AcDbPoint
 10
9898.6
 20
7608.367273614497
 30
0.0
  0
POINT
  5
244A1
330
21AB0
100
AcDbEntity
  8
DEFPOINTS
 62
     0
 48
50.0
100
AcDbPoint
 10
9898.6
 20
7591.374009575666
 30
0.0
  0
ENDBLK
  5
21ABC
330
21AB0
100
AcDbEntity
  8
0
 48
50.0
100
AcDbBlockEnd
  0
BLOCK
  5
21AED
330
21AE2
100
AcDbEntity
  8
0
 48
50.0
100
AcDbBlockBegin
  2
*D25
 70
     1
 10
0.0
 20
0.0
 30
0.0
  3
*D25
  1

  0
LINE
  5
2451D
330
21AE2
100
AcDbEntity
  8
寸法
 62
     0
 48
50.0
370
    -2
100
AcDbLine
 10
6481.600000000007
 20
5952.082677076043
 30
0.0
 11
5872.657733986179
 21
5952.082677076044
 31
0.0
  0
LINE
  5
2451E
330
21AE2
100
AcDbEntity
  8
寸法
 62
     0
 48
50.0
370
    -2
100
AcDbLine
 10
6408.599999999999
 20
5829.08267707603
 30
0.0
 11
5872.657733986179
 21
5829.082677076031
 31
0.0
  0
LINE
  5
2451F
330
21AE2
100
AcDbEntity
  8
寸法
 62
     0
 48
50.0
370
    -2
100
AcDbLine
 10
5932.657733986179
 20
5952.082677076044
 30
0.0
 11
5932.657733986179
 21
5829.082677076031
 31
0.0
  0
LINE
  5
24520
330
21AE2
100
AcDbEntity
  8
寸法
 62
     0
 48
50.0
370
    -2
100
AcDbLine
 10
5932.657733986179
 20
5829.082677076031
 30
0.0
 11
5932.657733986179
 21
5355.066446859209
 31
0.0
  0
INSERT
  5
24521
330
21AE2
100
AcDbEntity
  8
寸法
 62
     0
 48
50.0
370
    -2
100
AcDbBlockReference
  2
_DOTSMALL
 10
5932.657733986179
 20
5952.082677076044
 30
0.0
 41
100.0
 42
100.0
 43
100.0
 50
90.0
  0
INSERT
  5
24522
330
21AE2
100
AcDbEntity
  8
寸法
 62
     0
 48
50.0
370
    -2
100
AcDbBlockReference
  2
_DOTSMALL
 10
5932.657733986179
 20
5829.082677076031
 30
0.0
 41
100.0
 42
100.0
 43
100.0
 50
270.0
  0
MTEXT
  5
24523
330
21AE2
100
AcDbEntity
  8
寸法
 62
     7
 48
50.0
100
AcDbMText
 10
5832.645922962556
 20
5493.551728233449
 30
0.0
 40
120.0
 41
0.0
 71
     5
 72
     1
  1
\A1;123
  7
STYLE1
 11
0.0000000000000001
 21
1.0
 31
0.0
 73
     1
 44
1.0
1001
ACAD
1000
MTEXTBEGIN
1070
    73
1070
     1
1070
    44
1040
1.0
1070
    74
1070
     0
1000
MTEXTEND
  0
POINT
  5
24524
330
21AE2
100
AcDbEntity
  8
DEFPOINTS
 62
     0
 48
50.0
100
AcDbPoint
 10
6501.600000000007
 20
5952.082677076043
 30
0.0
  0
POINT
  5
24525
330
21AE2
100
AcDbEntity
  8
DEFPOINTS
 62
     0
 48
50.0
100
AcDbPoint
 10
6428.6
 20
5829.08267707603
 30
0.0
  0
POINT
  5
24526
330
21AE2
100
AcDbEntity
  8
DEFPOINTS
 62
     0
 48
50.0
100
AcDbPoint
 10
5932.657733986179
 20
5829.082677076031
 30
0.0
  0
ENDBLK
  5
21AEE
330
21AE2
100
AcDbEntity
  8
0
 48
50.0
100
AcDbBlockEnd
  0
BLOCK
  5
21AF7
330
21AEF
100
AcDbEntity
  8
0
 48
50.0
100
AcDbBlockBegin
  2
*D26
 70
     1
 10
0.0
 20
0.0
 30
0.0
  3
*D26
  1

  0
LINE
  5
24514
330
21AEF
100
AcDbEntity
  8
寸法
 62
     0
 48
50.0
370
    -2
100
AcDbLine
 10
8235.600000000001
 20
6079.082677076059
 30
0.0
 11
8235.600000000001
 21
6375.33706418395
 31
0.0
  0
LINE
  5
24515
330
21AEF
100
AcDbEntity
  8
寸法
 62
     0
 48
50.0
370
    -2
100
AcDbLine
 10
7975.6
 20
6079.082677076059
 30
0.0
 11
7975.6
 21
6375.33706418395
 31
0.0
  0
LINE
  5
24516
330
21AEF
100
AcDbEntity
  8
寸法
 62
     0
 48
50.0
370
    -2
100
AcDbLine
 10
8235.600000000001
 20
6315.33706418395
 30
0.0
 11
7975.6
 21
6315.33706418395
 31
0.0
  0
INSERT
  5
24517
330
21AEF
100
AcDbEntity
  8
寸法
 62
     0
 48
50.0
370
    -2
100
AcDbBlockReference
  2
_DOTSMALL
 10
8235.600000000001
 20
6315.33706418395
 30
0.0
 41
100.0
 42
100.0
 43
100.0
  0
INSERT
  5
24518
330
21AEF
100
AcDbEntity
  8
寸法
 62
     0
 48
50.0
370
    -2
100
AcDbBlockReference
  2
_DOTSMALL
 10
7975.6
 20
6315.33706418395
 30
0.0
 41
100.0
 42
100.0
 43
100.0
 50
180.0
  0
MTEXT
  5
24519
330
21AEF
100
AcDbEntity
  8
寸法
 62
     7
 48
50.0
100
AcDbMText
 10
8105.6
 20
6415.348875207572
 30
0.0
 40
120.0
 41
0.0
 71
     5
 72
     1
  1
\A1;260
  7
STYLE1
 73
     1
 44
1.0
1001
ACAD
1000
MTEXTBEGIN
1070
    73
1070
     1
1070
    44
1040
1.0
1070
    74
1070
     0
1000
MTEXTEND
  0
POINT
  5
2451A
330
21AEF
100
AcDbEntity
  8
DEFPOINTS
 62
     0
 48
50.0
100
AcDbPoint
 10
8235.600000000001
 20
6059.08267707606
 30
0.0
  0
POINT
  5
2451B
330
21AEF
100
AcDbEntity
  8
DEFPOINTS
 62
     0
 48
50.0
100
AcDbPoint
 10
7975.6
 20
6059.08267707606
 30
0.0
  0
POINT
  5
2451C
330
21AEF
100
AcDbEntity
  8
DEFPOINTS
 62
     0
 48
50.0
100
AcDbPoint
 10
7975.6
 20
6315.33706418395
 30
0.0
  0
ENDBLK
  5
21AF8
330
21AEF
100
AcDbEntity
  8
0
 48
50.0
100
AcDbBlockEnd
  0
BLOCK
  5
22286
330
2227C
100
AcDbEntity
  8
0
 48
50.0
100
AcDbBlockBegin
  2
*D27
 70
     1
 10
0.0
 20
0.0
 30
0.0
  3
*D27
  1

  0
LINE
  5
245BE
330
2227C
100
AcDbEntity
  8
寸法
 62
     0
 48
50.0
370
    -2
100
AcDbLine
 10
8223.600000000001
 20
7009.082677076051
 30
0.0
 11
8223.600000000001
 21
8635.99244272437
 31
0.0
  0
LINE
  5
245BF
330
2227C
100
AcDbEntity
  8
寸法
 62
     0
 48
50.0
370
    -2
100
AcDbLine
 10
7328.6
 20
7384.082677076043
 30
0.0
 11
7328.6
 21
8635.99244272437
 31
0.0
  0
LINE
  5
245C0
330
2227C
100
AcDbEntity
  8
寸法
 62
     0
 48
50.0
370
    -2
100
AcDbLine
 10
8223.600000000001
 20
8575.99244272437
 30
0.0
 11
7328.6
 21
8575.99244272437
 31
0.0
  0
INSERT
  5
245C1
330
2227C
100
AcDbEntity
  8
寸法
 62
     0
 48
50.0
370
    -2
100
AcDbBlockReference
  2
_DOTSMALL
 10
8223.600000000001
 20
8575.99244272437
 30
0.0
 41
100.0
 42
100.0
 43
100.0
  0
INSERT
  5
245C2
330
2227C
100
AcDbEntity
  8
寸法
 62
     0
 48
50.0
370
    -2
100
AcDbBlockReference
  2
_DOTSMALL
 10
7328.6
 20
8575.99244272437
 30
0.0
 41
100.0
 42
100.0
 43
100.0
 50
180.0
  0
MTEXT
  5
245C3
330
2227C
100
AcDbEntity
  8
寸法
 62
     7
 48
50.0
100
AcDbMText
 10
7776.100000000001
 20
8675.992442724369
 30
0.0
 40
120.0
 41
0.0
 71
     5
 72
     1
  1
\A1;895
  7
STYLE1
 73
     1
 44
1.0
1001
ACAD
1000
MTEXTBEGIN
1070
    73
1070
     1
1070
    44
1040
1.0
1070
    74
1070
     0
1000
MTEXTEND
  0
POINT
  5
245C4
330
2227C
100
AcDbEntity
  8
DEFPOINTS
 62
     0
 48
50.0
100
AcDbPoint
 10
8223.600000000001
 20
6989.082677076051
 30
0.0
  0
POINT
  5
245C5
330
2227C
100
AcDbEntity
  8
DEFPOINTS
 62
     0
 48
50.0
100
AcDbPoint
 10
7328.6
 20
7364.082677076043
 30
0.0
  0
POINT
  5
245C6
330
2227C
100
AcDbEntity
  8
DEFPOINTS
 62
     0
 48
50.0
100
AcDbPoint
 10
7328.6
 20
8575.99244272437
 30
0.0
  0
ENDBLK
  5
22287
330
2227C
100
AcDbEntity
  8
0
 48
50.0
100
AcDbBlockEnd
  0
BLOCK
  5
222E0
330
222D6
100
AcDbEntity
  8
0
 48
50.0
100
AcDbBlockBegin
  2
*D28
 70
     1
 10
0.0
 20
0.0
 30
0.0
  3
*D28
  1

  0
LINE
  5
245D0
330
222D6
100
AcDbEntity
  8
寸法
 62
     0
 48
50.0
370
    -2
100
AcDbLine
 10
9118.6
 20
7384.082677076043
 30
0.0
 11
9118.6
 21
8635.99244272437
 31
0.0
  0
LINE
  5
245D1
330
222D6
100
AcDbEntity
  8
寸法
 62
     0
 48
50.0
370
    -2
100
AcDbLine
 10
8223.600000000001
 20
7009.082677076051
 30
0.0
 11
8223.600000000001
 21
8635.99244272437
 31
0.0
  0
LINE
  5
245D2
330
222D6
100
AcDbEntity
  8
寸法
 62
     0
 48
50.0
370
    -2
100
AcDbLine
 10
9118.6
 20
8575.99244272437
 30
0.0
 11
8223.600000000001
 21
8575.99244272437
 31
0.0
  0
INSERT
  5
245D3
330
222D6
100
AcDbEntity
  8
寸法
 62
     0
 48
50.0
370
    -2
100
AcDbBlockReference
  2
_DOTSMALL
 10
9118.6
 20
8575.99244272437
 30
0.0
 41
100.0
 42
100.0
 43
100.0
  0
INSERT
  5
245D4
330
222D6
100
AcDbEntity
  8
寸法
 62
     0
 48
50.0
370
    -2
100
AcDbBlockReference
  2
_DOTSMALL
 10
8223.600000000001
 20
8575.99244272437
 30
0.0
 41
100.0
 42
100.0
 43
100.0
 50
180.0
  0
MTEXT
  5
245D5
330
222D6
100
AcDbEntity
  8
寸法
 62
     7
 48
50.0
100
AcDbMText
 10
8671.1
 20
8675.992442724369
 30
0.0
 40
120.0
 41
0.0
 71
     5
 72
     1
  1
\A1;895
  7
STYLE1
 73
     1
 44
1.0
1001
ACAD
1000
MTEXTBEGIN
1070
    73
1070
     1
1070
    44
1040
1.0
1070
    74
1070
     0
1000
MTEXTEND
  0
POINT
  5
245D6
330
222D6
100
AcDbEntity
  8
DEFPOINTS
 62
     0
 48
50.0
100
AcDbPoint
 10
9118.6
 20
7364.082677076043
 30
0.0
  0
POINT
  5
245D7
330
222D6
100
AcDbEntity
  8
DEFPOINTS
 62
     0
 48
50.0
100
AcDbPoint
 10
8223.600000000001
 20
6989.082677076051
 30
0.0
  0
POINT
  5
245D8
330
222D6
100
AcDbEntity
  8
DEFPOINTS
 62
     0
 48
50.0
100
AcDbPoint
 10
8223.600000000001
 20
8575.99244272437
 30
0.0
  0
ENDBLK
  5
222E1
330
222D6
100
AcDbEntity
  8
0
 48
50.0
100
AcDbBlockEnd
  0
BLOCK
  5
2373D
330
23731
100
AcDbEntity
  8
0
 48
50.0
100
AcDbBlockBegin
  2
*D29
 70
     1
 10
0.0
 20
0.0
 30
0.0
  3
*D29
  1

  0
LINE
  5
2447C
330
23731
100
AcDbEntity
  8
寸法
 62
     0
 48
50.0
370
    -2
100
AcDbLine
 10
6678.600000000002
 20
5949.082677076048
 30
0.0
 11
6928.41995844098
 21
5949.082677076048
 31
0.0
  0
LINE
  5
2447D
330
23731
100
AcDbEntity
  8
寸法
 62
     0
 48
50.0
370
    -2
100
AcDbLine
 10
6678.600000000002
 20
5754.082677076032
 30
0.0
 11
6928.41995844098
 21
5754.082677076032
 31
0.0
  0
LINE
  5
2447E
330
23731
100
AcDbEntity
  8
寸法
 62
     0
 48
50.0
370
    -2
100
AcDbLine
 10
6868.419958440981
 20
5949.082677076048
 30
0.0
 11
6868.419958440981
 21
5754.082677076032
 31
0.0
  0
LINE
  5
2447F
330
23731
100
AcDbEntity
  8
寸法
 62
     0
 48
50.0
370
    -2
100
AcDbLine
 10
6868.419958440981
 20
5754.082677076032
 30
0.0
 11
6868.419958440981
 21
5376.692794668241
 31
0.0
  0
INSERT
  5
24480
330
23731
100
AcDbEntity
  8
寸法
 62
     0
 48
50.0
370
    -2
100
AcDbBlockReference
  2
_DOTSMALL
 10
6868.419958440981
 20
5949.082677076048
 30
0.0
 41
100.0
 42
100.0
 43
100.0
 50
90.0
  0
INSERT
  5
24481
330
23731
100
AcDbEntity
  8
寸法
 62
     0
 48
50.0
370
    -2
100
AcDbBlockReference
  2
_DOTSMALL
 10
6868.419958440981
 20
5754.082677076032
 30
0.0
 41
100.0
 42
100.0
 43
100.0
 50
270.0
  0
MTEXT
  5
24482
330
23731
100
AcDbEntity
  8
寸法
 62
     7
 48
50.0
100
AcDbMText
 10
6768.419958440979
 20
5515.387735872139
 30
0.0
 40
120.0
 41
0.0
 71
     5
 72
     1
  1
\A1;195
  7
STYLE1
 11
0.0000000000000001
 21
1.0
 31
0.0
 73
     1
 44
1.0
1001
ACAD
1000
MTEXTBEGIN
1070
    73
1070
     1
1070
    44
1040
1.0
1070
    74
1070
     0
1000
MTEXTEND
  0
POINT
  5
24483
330
23731
100
AcDbEntity
  8
DEFPOINTS
 62
     0
 48
50.0
100
AcDbPoint
 10
6658.600000000001
 20
5949.082677076048
 30
0.0
  0
POINT
  5
24484
330
23731
100
AcDbEntity
  8
DEFPOINTS
 62
     0
 48
50.0
100
AcDbPoint
 10
6658.600000000001
 20
5754.082677076032
 30
0.0
  0
POINT
  5
24485
330
23731
100
AcDbEntity
  8
DEFPOINTS
 62
     0
 48
50.0
100
AcDbPoint
 10
6868.419958440981
 20
5754.082677076032
 30
0.0
  0
ENDBLK
  5
2373E
330
23731
100
AcDbEntity
  8
0
 48
50.0
100
AcDbBlockEnd
  0
BLOCK
  5
23BC9
330
23BBF
100
AcDbEntity
  8
0
 48
50.0
100
AcDbBlockBegin
  2
*D30
 70
     1
 10
0.0
 20
0.0
 30
0.0
  3
*D30
  1

  0
LINE
  5
24473
330
23BBF
100
AcDbEntity
  8
寸法
 62
     0
 48
50.0
370
    -2
100
AcDbLine
 10
8196.600000000001
 20
5734.082677076061
 30
0.0
 11
8196.600000000001
 21
5090.096947257303
 31
0.0
  0
LINE
  5
24474
330
23BBF
100
AcDbEntity
  8
寸法
 62
     0
 48
50.0
370
    -2
100
AcDbLine
 10
6428.6
 20
5734.082677076033
 30
0.0
 11
6428.6
 21
5090.096947257303
 31
0.0
  0
LINE
  5
24475
330
23BBF
100
AcDbEntity
  8
寸法
 62
     0
 48
50.0
370
    -2
100
AcDbLine
 10
8196.600000000001
 20
5150.096947257303
 30
0.0
 11
6428.6
 21
5150.096947257303
 31
0.0
  0
INSERT
  5
24476
330
23BBF
100
AcDbEntity
  8
寸法
 62
     0
 48
50.0
370
    -2
100
AcDbBlockReference
  2
_DOTSMALL
 10
8196.600000000001
 20
5150.096947257303
 30
0.0
 41
100.0
 42
100.0
 43
100.0
  0
INSERT
  5
24477
330
23BBF
100
AcDbEntity
  8
寸法
 62
     0
 48
50.0
370
    -2
100
AcDbBlockReference
  2
_DOTSMALL
 10
6428.6
 20
5150.096947257303
 30
0.0
 41
100.0
 42
100.0
 43
100.0
 50
180.0
  0
MTEXT
  5
24478
330
23BBF
100
AcDbEntity
  8
寸法
 62
     7
 48
50.0
100
AcDbMText
 10
7608.425085650889
 20
5250.096947257303
 30
0.0
 40
120.0
 41
0.0
 71
     5
 72
     1
  1
\A1;扉の幅 1768
  7
STYLE1
 73
     1
 44
1.0
1001
ACAD
1000
MTEXTBEGIN
1070
    73
1070
     1
1070
    44
1040
1.0
1070
    74
1070
     0
1000
MTEXTEND
  0
POINT
  5
24479
330
23BBF
100
AcDbEntity
  8
DEFPOINTS
 62
     0
 48
50.0
100
AcDbPoint
 10
8196.600000000001
 20
5754.082677076062
 30
0.0
  0
POINT
  5
2447A
330
23BBF
100
AcDbEntity
  8
DEFPOINTS
 62
     0
 48
50.0
100
AcDbPoint
 10
6428.6
 20
5754.082677076033
 30
0.0
  0
POINT
  5
2447B
330
23BBF
100
AcDbEntity
  8
DEFPOINTS
 62
     0
 48
50.0
100
AcDbPoint
 10
6428.6
 20
5150.096947257303
 30
0.0
  0
ENDBLK
  5
23BCA
330
23BBF
100
AcDbEntity
  8
0
 48
50.0
100
AcDbBlockEnd
  0
BLOCK
  5
23E35
330
23E29
100
AcDbEntity
  8
0
 48
50.0
100
AcDbBlockBegin
  2
*D31
 70
     1
 10
0.0
 20
0.0
 30
0.0
  3
*D31
  1

  0
LINE
  5
24468
330
23E29
100
AcDbEntity
  8
寸法
 62
     0
 48
50.0
370
    -2
100
AcDbLine
 10
6408.599999999999
 20
5754.082677076065
 30
0.0
 11
6132.312481891147
 21
5754.082677076066
 31
0.0
  0
LINE
  5
24469
330
23E29
100
AcDbEntity
  8
寸法
 62
     0
 48
50.0
370
    -2
100
AcDbLine
 10
6408.600000000008
 20
5829.082677076065
 30
0.0
 11
6132.312481891147
 21
5829.082677076066
 31
0.0
  0
LINE
  5
2446A
330
23E29
100
AcDbEntity
  8
寸法
 62
     0
 48
50.0
370
    -2
100
AcDbLine
 10
6192.312481891146
 20
5829.082677076065
 30
0.0
 11
6192.312481891146
 21
5929.082677076066
 31
0.0
  0
LINE
  5
2446B
330
23E29
100
AcDbEntity
  8
寸法
 62
     0
 48
50.0
370
    -2
100
AcDbLine
 10
6192.312481891146
 20
5754.082677076065
 30
0.0
 11
6192.312481891146
 21
4887.112114327585
 31
0.0
  0
LINE
  5
2446C
330
23E29
100
AcDbEntity
  8
寸法
 62
     0
 48
50.0
370
    -2
100
AcDbLine
 10
6192.312481891146
 20
5829.082677076065
 30
0.0
 11
6192.312481891146
 21
5754.082677076065
 31
0.0
  0
INSERT
  5
2446D
330
23E29
100
AcDbEntity
  8
寸法
 62
     0
 48
50.0
370
    -2
100
AcDbBlockReference
  2
_DOTSMALL
 10
6192.312481891146
 20
5829.082677076065
 30
0.0
 41
100.0
 42
100.0
 43
100.0
 50
270.0
  0
INSERT
  5
2446E
330
23E29
100
AcDbEntity
  8
寸法
 62
     0
 48
50.0
370
    -2
100
AcDbBlockReference
  2
_DOTSMALL
 10
6192.312481891146
 20
5754.082677076065
 30
0.0
 41
100.0
 42
100.0
 43
100.0
 50
90.0
  0
MTEXT
  5
2446F
330
23E29
100
AcDbEntity
  8
寸法
 62
     7
 48
50.0
100
AcDbMText
 10
6092.312481891145
 20
5220.597395701827
 30
0.0
 40
120.0
 41
0.0
 71
     5
 72
     1
  1
\A1;扉の出75
  7
STYLE1
 11
0.0000000000000001
 21
1.0
 31
0.0
 73
     1
 44
1.0
1001
ACAD
1000
MTEXTBEGIN
1070
    73
1070
     1
1070
    44
1040
1.0
1070
    74
1070
     0
1000
MTEXTEND
  0
POINT
  5
24470
330
23E29
100
AcDbEntity
  8
DEFPOINTS
 62
     0
 48
50.0
100
AcDbPoint
 10
6428.6
 20
5754.082677076065
 30
0.0
  0
POINT
  5
24471
330
23E29
100
AcDbEntity
  8
DEFPOINTS
 62
     0
 48
50.0
100
AcDbPoint
 10
6428.600000000007
 20
5829.082677076065
 30
0.0
  0
POINT
  5
24472
330
23E29
100
AcDbEntity
  8
DEFPOINTS
 62
     0
 48
50.0
100
AcDbPoint
 10
6192.312481891146
 20
5829.082677076065
 30
0.0
  0
ENDBLK
  5
23E36
330
23E29
100
AcDbEntity
  8
0
 48
50.0
100
AcDbBlockEnd
  0
BLOCK
  5
24356
330
2434D
100
AcDbEntity
  8
0
 48
50.0
100
AcDbBlockBegin
  2
*D32
 70
     1
 10
0.0
 20
0.0
 30
0.0
  3
*D32
  1

  0
LINE
  5
2445F
330
2434D
100
AcDbEntity
  8
寸法
 62
     0
 48
50.0
370
    -2
100
AcDbLine
 10
8801.458593922554
 20
2169.381065474545
 30
0.0
 11
9468.794343633609
 21
2169.381065474544
 31
0.0
  0
LINE
  5
24460
330
2434D
100
AcDbEntity
  8
寸法
 62
     0
 48
50.0
370
    -2
100
AcDbLine
 10
8801.458593922554
 20
1764.381065474543
 30
0.0
 11
9468.794343633609
 21
1764.381065474543
 31
0.0
  0
LINE
  5
24461
330
2434D
100
AcDbEntity
  8
寸法
 62
     0
 48
50.0
370
    -2
100
AcDbLine
 10
9408.794343633609
 20
2169.381065474544
 30
0.0
 11
9408.794343633609
 21
1764.381065474543
 31
0.0
  0
INSERT
  5
24462
330
2434D
100
AcDbEntity
  8
寸法
 62
     0
 48
50.0
370
    -2
100
AcDbBlockReference
  2
_DOTSMALL
 10
9408.794343633609
 20
2169.381065474544
 30
0.0
 41
100.0
 42
100.0
 43
100.0
 50
90.0
  0
INSERT
  5
24463
330
2434D
100
AcDbEntity
  8
寸法
 62
     0
 48
50.0
370
    -2
100
AcDbBlockReference
  2
_DOTSMALL
 10
9408.794343633609
 20
1764.381065474543
 30
0.0
 41
100.0
 42
100.0
 43
100.0
 50
270.0
  0
MTEXT
  5
24464
330
2434D
100
AcDbEntity
  8
寸法
 62
     7
 48
50.0
100
AcDbMText
 10
9308.794343633609
 20
1966.881065474545
 30
0.0
 40
120.0
 41
0.0
 71
     5
 72
     1
  1
\A1;180
  7
STYLE1
 11
0.0000000000000001
 21
1.0
 31
0.0
 73
     1
 44
1.0
1001
ACAD
1000
MTEXTBEGIN
1070
    73
1070
     1
1070
    44
1040
1.0
1070
    74
1070
     0
1000
MTEXTEND
  0
POINT
  5
24465
330
2434D
100
AcDbEntity
  8
DEFPOINTS
 62
     0
 48
50.0
100
AcDbPoint
 10
8781.458593922556
 20
2169.381065474545
 30
0.0
  0
POINT
  5
24466
330
2434D
100
AcDbEntity
  8
DEFPOINTS
 62
     0
 48
50.0
100
AcDbPoint
 10
8781.458593922556
 20
1764.381065474543
 30
0.0
  0
POINT
  5
24467
330
2434D
100
AcDbEntity
  8
DEFPOINTS
 62
     0
 48
50.0
100
AcDbPoint
 10
9408.794343633609
 20
1764.381065474543
 30
0.0
  0
ENDBLK
  5
24357
330
2434D
100
AcDbEntity
  8
0
 48
50.0
100
AcDbBlockEnd
  0
BLOCK
  5
24364
330
24358
100
AcDbEntity
  8
0
 48
50.0
100
AcDbBlockBegin
  2
*D33
 70
     1
 10
0.0
 20
0.0
 30
0.0
  3
*D33
  1

  0
LINE
  5
24454
330
24358
100
AcDbEntity
  8
寸法
 62
     0
 48
50.0
370
    -2
100
AcDbLine
 10
8567.458593922552
 20
2235.331065474545
 30
0.0
 11
9813.862676282388
 21
2235.331065474544
 31
0.0
  0
LINE
  5
24455
330
24358
100
AcDbEntity
  8
寸法
 62
     0
 48
50.0
370
    -2
100
AcDbLine
 10
8801.458593922554
 20
2169.381065474545
 30
0.0
 11
9813.862676282388
 21
2169.381065474544
 31
0.0
  0
LINE
  5
24456
330
24358
100
AcDbEntity
  8
寸法
 62
     0
 48
50.0
370
    -2
100
AcDbLine
 10
9753.862676282388
 20
2235.331065474544
 30
0.0
 11
9753.862676282388
 21
2335.331065474544
 31
0.0
  0
LINE
  5
24457
330
24358
100
AcDbEntity
  8
寸法
 62
     0
 48
50.0
370
    -2
100
AcDbLine
 10
9753.862676282388
 20
2169.381065474544
 30
0.0
 11
9753.862676282388
 21
1437.363258631579
 31
0.0
  0
LINE
  5
24458
330
24358
100
AcDbEntity
  8
寸法
 62
     0
 48
50.0
370
    -2
100
AcDbLine
 10
9753.862676282388
 20
2235.331065474544
 30
0.0
 11
9753.862676282388
 21
2169.381065474544
 31
0.0
  0
INSERT
  5
24459
330
24358
100
AcDbEntity
  8
寸法
 62
     0
 48
50.0
370
    -2
100
AcDbBlockReference
  2
_DOTSMALL
 10
9753.862676282388
 20
2235.331065474544
 30
0.0
 41
100.0
 42
100.0
 43
100.0
 50
270.0
  0
INSERT
  5
2445A
330
24358
100
AcDbEntity
  8
寸法
 62
     0
 48
50.0
370
    -2
100
AcDbBlockReference
  2
_DOTSMALL
 10
9753.862676282388
 20
2169.381065474544
 30
0.0
 41
100.0
 42
100.0
 43
100.0
 50
90.0
  0
MTEXT
  5
2445B
330
24358
100
AcDbEntity
  8
寸法
 62
     7
 48
50.0
100
AcDbMText
 10
9653.850865258768
 20
1703.372162053063
 30
0.0
 40
120.0
 41
0.0
 71
     5
 72
     1
  1
\A1;20～25
  7
STYLE1
 11
0.0000000000000001
 21
1.0
 31
0.0
 73
     1
 44
1.0
1001
ACAD
1000
MTEXTBEGIN
1070
    73
1070
     1
1070
    44
1040
1.0
1070
    74
1070
     0
1000
MTEXTEND
  0
POINT
  5
2445C
330
24358
100
AcDbEntity
  8
DEFPOINTS
 62
     0
 48
50.0
100
AcDbPoint
 10
8547.458593922554
 20
2235.331065474545
 30
0.0
  0
POINT
  5
2445D
330
24358
100
AcDbEntity
  8
DEFPOINTS
 62
     0
 48
50.0
100
AcDbPoint
 10
8781.458593922556
 20
2169.381065474545
 30
0.0
  0
POINT
  5
2445E
330
24358
100
AcDbEntity
  8
DEFPOINTS
 62
     0
 48
50.0
100
AcDbPoint
 10
9753.862676282388
 20
2169.381065474544
 30
0.0
  0
ENDBLK
  5
24365
330
24358
100
AcDbEntity
  8
0
 48
50.0
100
AcDbBlockEnd
  0
BLOCK
  5
24370
330
24366
100
AcDbEntity
  8
0
 48
50.0
100
AcDbBlockBegin
  2
*D34
 70
     1
 10
0.0
 20
0.0
 30
0.0
  3
*D34
  1

  0
LINE
  5
2444B
330
24366
100
AcDbEntity
  8
寸法
 62
     0
 48
50.0
370
    -2
100
AcDbLine
 10
6118.90945245106
 20
2169.381065474545
 30
0.0
 11
5318.264514414996
 21
2169.381065474545
 31
0.0
  0
LINE
  5
2444C
330
24366
100
AcDbEntity
  8
寸法
 62
     0
 48
50.0
370
    -2
100
AcDbLine
 10
5858.909452451065
 20
1189.381065474545
 30
0.0
 11
5318.264514414996
 21
1189.381065474545
 31
0.0
  0
LINE
  5
2444D
330
24366
100
AcDbEntity
  8
寸法
 62
     0
 48
50.0
370
    -2
100
AcDbLine
 10
5378.264514414997
 20
2169.381065474545
 30
0.0
 11
5378.264514414996
 21
1189.381065474545
 31
0.0
  0
INSERT
  5
2444E
330
24366
100
AcDbEntity
  8
寸法
 62
     0
 48
50.0
370
    -2
100
AcDbBlockReference
  2
_DOTSMALL
 10
5378.264514414997
 20
2169.381065474545
 30
0.0
 41
100.0
 42
100.0
 43
100.0
 50
90.0
  0
INSERT
  5
2444F
330
24366
100
AcDbEntity
  8
寸法
 62
     0
 48
50.0
370
    -2
100
AcDbBlockReference
  2
_DOTSMALL
 10
5378.264514414996
 20
1189.381065474545
 30
0.0
 41
100.0
 42
100.0
 43
100.0
 50
270.0
  0
MTEXT
  5
24450
330
24366
100
AcDbEntity
  8
寸法
 62
     7
 48
50.0
100
AcDbMText
 10
5278.264514414996
 20
1679.381065474545
 30
0.0
 40
120.0
 41
0.0
 71
     5
 72
     1
  1
\A1;540
  7
STYLE1
 11
0.0000000000000001
 21
1.0
 31
0.0
 73
     1
 44
1.0
1001
ACAD
1000
MTEXTBEGIN
1070
    73
1070
     1
1070
    44
1040
1.0
1070
    74
1070
     0
1000
MTEXTEND
  0
POINT
  5
24451
330
24366
100
AcDbEntity
  8
DEFPOINTS
 62
     0
 48
50.0
100
AcDbPoint
 10
6138.909452451059
 20
2169.381065474545
 30
0.0
  0
POINT
  5
24452
330
24366
100
AcDbEntity
  8
DEFPOINTS
 62
     0
 48
50.0
100
AcDbPoint
 10
5878.909452451065
 20
1189.381065474545
 30
0.0
  0
POINT
  5
24453
330
24366
100
AcDbEntity
  8
DEFPOINTS
 62
     0
 48
50.0
100
AcDbPoint
 10
5378.264514414996
 20
1189.381065474545
 30
0.0
  0
ENDBLK
  5
24371
330
24366
100
AcDbEntity
  8
0
 48
50.0
100
AcDbBlockEnd
  0
BLOCK
  5
2437C
330
24372
100
AcDbEntity
  8
0
 48
50.0
100
AcDbBlockBegin
  2
*D35
 70
     1
 10
0.0
 20
0.0
 30
0.0
  3
*D35
  1

  0
LINE
  5
24442
330
24372
100
AcDbEntity
  8
寸法
 62
     0
 48
50.0
370
    -2
100
AcDbLine
 10
5978.909452451059
 20
1009.381065474545
 30
0.0
 11
5978.909452451059
 21
670.4289590186108
 31
0.0
  0
LINE
  5
24443
330
24372
100
AcDbEntity
  8
寸法
 62
     0
 48
50.0
370
    -2
100
AcDbLine
 10
6538.909452451061
 20
1009.381065474545
 30
0.0
 11
6538.909452451061
 21
670.4289590186108
 31
0.0
  0
LINE
  5
24444
330
24372
100
AcDbEntity
  8
寸法
 62
     0
 48
50.0
370
    -2
100
AcDbLine
 10
5978.909452451059
 20
730.4289590186108
 30
0.0
 11
6538.909452451061
 21
730.4289590186108
 31
0.0
  0
INSERT
  5
24445
330
24372
100
AcDbEntity
  8
寸法
 62
     0
 48
50.0
370
    -2
100
AcDbBlockReference
  2
_DOTSMALL
 10
5978.909452451059
 20
730.4289590186108
 30
0.0
 41
100.0
 42
100.0
 43
100.0
 50
180.0
  0
INSERT
  5
24446
330
24372
100
AcDbEntity
  8
寸法
 62
     0
 48
50.0
370
    -2
100
AcDbBlockReference
  2
_DOTSMALL
 10
6538.909452451061
 20
730.4289590186108
 30
0.0
 41
100.0
 42
100.0
 43
100.0
  0
MTEXT
  5
24447
330
24372
100
AcDbEntity
  8
寸法
 62
     7
 48
50.0
100
AcDbMText
 10
6258.90945245106
 20
830.4289590186108
 30
0.0
 40
120.0
 41
0.0
 71
     5
 72
     1
  1
\A1;300
  7
STYLE1
 73
     1
 44
1.0
1001
ACAD
1000
MTEXTBEGIN
1070
    73
1070
     1
1070
    44
1040
1.0
1070
    74
1070
     0
1000
MTEXTEND
  0
POINT
  5
24448
330
24372
100
AcDbEntity
  8
DEFPOINTS
 62
     0
 48
50.0
100
AcDbPoint
 10
5978.909452451059
 20
1029.381065474544
 30
0.0
  0
POINT
  5
24449
330
24372
100
AcDbEntity
  8
DEFPOINTS
 62
     0
 48
50.0
100
AcDbPoint
 10
6538.909452451061
 20
1029.381065474544
 30
0.0
  0
POINT
  5
2444A
330
24372
100
AcDbEntity
  8
DEFPOINTS
 62
     0
 48
50.0
100
AcDbPoint
 10
6538.909452451061
 20
730.4289590186108
 30
0.0
  0
ENDBLK
  5
2437D
330
24372
100
AcDbEntity
  8
0
 48
50.0
100
AcDbBlockEnd
  0
BLOCK
  5
24388
330
2437E
100
AcDbEntity
  8
0
 48
50.0
100
AcDbBlockBegin
  2
*D36
 70
     1
 10
0.0
 20
0.0
 30
0.0
  3
*D36
  1

  0
LINE
  5
24439
330
2437E
100
AcDbEntity
  8
寸法
 62
     0
 48
50.0
370
    -2
100
AcDbLine
 10
5958.909452451059
 20
1489.381065474545
 30
0.0
 11
5740.884060285485
 21
1489.381065474545
 31
0.0
  0
LINE
  5
2443A
330
2437E
100
AcDbEntity
  8
寸法
 62
     0
 48
50.0
370
    -2
100
AcDbLine
 10
5858.909452451065
 20
1189.381065474545
 30
0.0
 11
5740.884060285485
 21
1189.381065474545
 31
0.0
  0
LINE
  5
2443B
330
2437E
100
AcDbEntity
  8
寸法
 62
     0
 48
50.0
370
    -2
100
AcDbLine
 10
5800.884060285485
 20
1489.381065474545
 30
0.0
 11
5800.884060285485
 21
1189.381065474545
 31
0.0
  0
INSERT
  5
2443C
330
2437E
100
AcDbEntity
  8
寸法
 62
     0
 48
50.0
370
    -2
100
AcDbBlockReference
  2
_DOTSMALL
 10
5800.884060285485
 20
1489.381065474545
 30
0.0
 41
100.0
 42
100.0
 43
100.0
 50
90.0
  0
INSERT
  5
2443D
330
2437E
100
AcDbEntity
  8
寸法
 62
     0
 48
50.0
370
    -2
100
AcDbBlockReference
  2
_DOTSMALL
 10
5800.884060285485
 20
1189.381065474545
 30
0.0
 41
100.0
 42
100.0
 43
100.0
 50
270.0
  0
MTEXT
  5
2443E
330
2437E
100
AcDbEntity
  8
寸法
 62
     7
 48
50.0
100
AcDbMText
 10
5700.884060285485
 20
1339.381065474545
 30
0.0
 40
120.0
 41
0.0
 71
     5
 72
     1
  1
\A1;150
  7
STYLE1
 11
0.0000000000000001
 21
1.0
 31
0.0
 73
     1
 44
1.0
1001
ACAD
1000
MTEXTBEGIN
1070
    73
1070
     1
1070
    44
1040
1.0
1070
    74
1070
     0
1000
MTEXTEND
  0
POINT
  5
2443F
330
2437E
100
AcDbEntity
  8
DEFPOINTS
 62
     0
 48
50.0
100
AcDbPoint
 10
5978.909452451059
 20
1489.381065474545
 30
0.0
  0
POINT
  5
24440
330
2437E
100
AcDbEntity
  8
DEFPOINTS
 62
     0
 48
50.0
100
AcDbPoint
 10
5878.909452451065
 20
1189.381065474545
 30
0.0
  0
POINT
  5
24441
330
2437E
100
AcDbEntity
  8
DEFPOINTS
 62
     0
 48
50.0
100
AcDbPoint
 10
5800.884060285485
 20
1189.381065474545
 30
0.0
  0
ENDBLK
  5
24389
330
2437E
100
AcDbEntity
  8
0
 48
50.0
100
AcDbBlockEnd
  0
BLOCK
  5
24394
330
2438A
100
AcDbEntity
  8
0
 48
50.0
100
AcDbBlockBegin
  2
*D37
 70
     1
 10
0.0
 20
0.0
 30
0.0
  3
*D37
  1

  0
LINE
  5
24430
330
2438A
100
AcDbEntity
  8
寸法
 62
     0
 48
50.0
370
    -2
100
AcDbLine
 10
6378.90945245106
 20
2189.381065474545
 30
0.0
 11
6378.90945245106
 21
2629.381065474545
 31
0.0
  0
LINE
  5
24431
330
2438A
100
AcDbEntity
  8
寸法
 62
     0
 48
50.0
370
    -2
100
AcDbLine
 10
6138.909452451059
 20
2189.381065474545
 30
0.0
 11
6138.909452451059
 21
2629.381065474545
 31
0.0
  0
LINE
  5
24432
330
2438A
100
AcDbEntity
  8
寸法
 62
     0
 48
50.0
370
    -2
100
AcDbLine
 10
6378.90945245106
 20
2569.381065474545
 30
0.0
 11
6138.909452451059
 21
2569.381065474545
 31
0.0
  0
INSERT
  5
24433
330
2438A
100
AcDbEntity
  8
寸法
 62
     0
 48
50.0
370
    -2
100
AcDbBlockReference
  2
_DOTSMALL
 10
6378.90945245106
 20
2569.381065474545
 30
0.0
 41
100.0
 42
100.0
 43
100.0
  0
INSERT
  5
24434
330
2438A
100
AcDbEntity
  8
寸法
 62
     0
 48
50.0
370
    -2
100
AcDbBlockReference
  2
_DOTSMALL
 10
6138.909452451059
 20
2569.381065474545
 30
0.0
 41
100.0
 42
100.0
 43
100.0
 50
180.0
  0
MTEXT
  5
24435
330
2438A
100
AcDbEntity
  8
寸法
 62
     7
 48
50.0
100
AcDbMText
 10
6258.90945245106
 20
2775.421878039349
 30
0.0
 40
120.0
 41
0.0
 71
     5
 72
     1
  1
\A1;120\P(195)
  7
STYLE1
 73
     1
 44
1.0
1001
ACAD
1000
MTEXTBEGIN
1070
    73
1070
     1
1070
    44
1040
1.0
1070
    74
1070
     0
1000
MTEXTEND
  0
POINT
  5
24436
330
2438A
100
AcDbEntity
  8
DEFPOINTS
 62
     0
 48
50.0
100
AcDbPoint
 10
6378.90945245106
 20
2169.381065474545
 30
0.0
  0
POINT
  5
24437
330
2438A
100
AcDbEntity
  8
DEFPOINTS
 62
     0
 48
50.0
100
AcDbPoint
 10
6138.909452451059
 20
2169.381065474545
 30
0.0
  0
POINT
  5
24438
330
2438A
100
AcDbEntity
  8
DEFPOINTS
 62
     0
 48
50.0
100
AcDbPoint
 10
6138.909452451059
 20
2569.381065474545
 30
0.0
  0
ENDBLK
  5
24395
330
2438A
100
AcDbEntity
  8
0
 48
50.0
100
AcDbBlockEnd
  0
ENDSEC
  0
SECTION
  2
ENTITIES
  0
MTEXT
  5
763F
330
747D
100
AcDbEntity
  8
0
100
AcDbMText
 10
302.846345836809
 20
280.1983726409901
 30
0.0
 40
3.5
 41
5.323721266742722
 71
     1
 72
     5
  1

  7
MSMINCHO
 73
     1
 44
1.0
1001
ACAD
1000
MTEXTBEGIN
1070
    73
1070
     1
1070
    44
1040
1.0
1070
    74
1070
     0
1000
MTEXTEND
  0
LINE
  5
10B57
330
747D
100
AcDbEntity
  8
補助
  6
PHANTOM
 62
   230
 48
50.0
100
AcDbLine
 10
139.9999999999995
 20
11409.6
 30
0.0
 11
16307.2
 21
11409.6
 31
0.0
  0
LINE
  5
10B59
330
747D
100
AcDbEntity
  8
仕様書枠
  6
Continuous
 48
50.0
100
AcDbLine
 10
13107.2
 20
1200.0
 30
0.0
 11
13107.2
 21
-0.0000000000000729
 31
0.0
  0
LINE
  5
10B5D
330
747D
100
AcDbEntity
  8
仕様書枠
 48
50.0
100
AcDbLine
 10
140.0
 20
0.0
 30
0.0
 11
16307.2
 21
-0.0000000000000909
 31
0.0
  0
LINE
  5
10B5E
330
747D
100
AcDbEntity
  8
補助
  6
PHANTOM
 62
   230
 48
50.0
100
AcDbLine
 10
16307.2
 20
11409.6
 30
0.0
 11
16307.2
 21
1200.0
 31
0.0
  0
LINE
  5
10B6C
330
747D
100
AcDbEntity
  8
仕様書枠
 48
50.0
100
AcDbLine
 10
13107.2
 20
1200.0
 30
0.0
 11
16307.2
 21
1200.0
 31
0.0
  0
TEXT
  5
10B73
330
747D
100
AcDbEntity
  8
文字
 62
     7
 48
50.0
100
AcDbText
 10
13162.9790565769
 20
895.0906074299405
 30
0.0
 40
200.0
  1
基 礎 図
  7
STYLE2
100
AcDbText
  0
LINE
  5
10B7B
330
747D
100
AcDbEntity
  8
仕様書枠
 48
50.0
100
AcDbLine
 10
13107.2
 20
800.0
 30
0.0
 11
14251.2
 21
800.0
 31
0.0
  0
LINE
  5
10B88
330
747D
100
AcDbEntity
  8
仕様書枠
  6
Continuous
 48
50.0
100
AcDbLine
 10
14251.2
 20
1200.0
 30
0.0
 11
14251.2
 21
800.0
 31
0.0
  0
LINE
  5
16462
330
747D
100
AcDbEntity
  8
仕様書枠
 48
50.0
100
AcDbLine
 10
16307.2
 20
1200.0
 30
0.0
 11
16307.2
 21
-0.0000000000000909
 31
0.0
  0
LINE
  5
1903B
330
747D
100
AcDbEntity
  8
補助
  6
PHANTOM
 62
   230
 48
50.0
100
AcDbLine
 10
140.0
 20
0.0
 30
0.0
 11
139.9999999999995
 21
11409.6
 31
0.0
  0
LEADER
  5
1AC27
330
747D
100
AcDbEntity
  8
寸法
 48
50.0
100
AcDbLeader
  3
INABA_S40G
 73
     0
 74
     0
 75
     1
 40
120.0
 41
720.0000000000001
 76
     3
 10
10018.69549961499
 20
6953.284847657854
 30
0.0
 10
10185.46907400128
 20
6677.270934090021
 30
0.0
 10
10285.46907400128
 20
6677.270934090021
 30
0.0
340
1AC28
1001
ACAD
1000
DSTYLE
1002
{
1070
   341
1005
0
1002
}
  0
MTEXT
  5
1AC28
102
{ACAD_REACTORS
330
1AC27
102
}
330
747D
100
AcDbEntity
  8
部品1
 62
     7
 48
50.0
100
AcDbMText
 10
11045.46907400128
 20
6777.270934090021
 30
0.0
 40
120.0
 41
0.0
 71
     6
 72
     1
  1
\A1;床下換気口
  7
STYLE1
 73
     1
 44
1.0
1001
ACAD
1000
MTEXTBEGIN
1070
    73
1070
     1
1070
    44
1040
1.0
1070
    74
1070
     0
1000
MTEXTEND
  0
TEXT
  5
1AC29
330
747D
100
AcDbEntity
  8
部品1
 48
50.0
100
AcDbText
 10
10362.50116389398
 20
5553.991775739251
 30
0.0
 40
80.0
  1
(a=45,b=55,c=75)
  7
STYLE1
100
AcDbText
  0
TEXT
  5
1AC2A
330
747D
100
AcDbEntity
  8
部品1
 48
50.0
100
AcDbText
 10
10203.92215513968
 20
5660.836996608004
 30
0.0
 40
80.0
  1
※a,b,cは屋根の出幅です。
  7
STYLE1
100
AcDbText
  0
MTEXT
  5
1AC2B
102
{ACAD_REACTORS
330
1AC2C
102
}
330
747D
100
AcDbEntity
  8
部品1
 62
     7
 48
50.0
100
AcDbMText
 10
11001.70935112828
 20
5840.147683541079
 30
0.0
 40
120.0
 41
0.0
 71
     6
 72
     1
  1
\A1;屋根の外寸
  7
STYLE1
 73
     1
 44
1.0
1001
ACAD
1000
MTEXTBEGIN
1070
    73
1070
     1
1070
    44
1040
1.0
1070
    74
1070
     0
1000
MTEXTEND
  0
LEADER
  5
1AC2C
330
747D
100
AcDbEntity
  8
寸法
 48
50.0
100
AcDbLeader
  3
INABA_S40G
 73
     0
 74
     0
 75
     1
 40
120.0
 41
672.0
 76
     3
 10
10063.76933893624
 20
6014.037027004655
 30
0.0
 10
10189.70935112828
 20
5740.14768354108
 30
0.0
 10
10289.70935112828
 20
5740.14768354108
 30
0.0
340
1AC2B
1001
ACAD
1000
DSTYLE
1002
{
1070
   341
1005
0
1002
}
  0
TEXT
  5
1C7A1
330
747D
100
AcDbEntity
  8
文字
 62
     7
 48
50.0
100
AcDbText
 10
13188.16259899338
 20
79.80631269190417
 30
0.0
 40
80.0
  1
※布基礎には換気口を設けてください。
  7
STYLE2
100
AcDbText
  0
TEXT
  5
1C7E7
330
747D
100
AcDbEntity
  8
文字
 62
     7
 48
50.0
100
AcDbText
 10
13188.16259899338
 20
246.7109242801889
 30
0.0
 40
80.0
  1
※寒冷地等は地域の実情に合わせた基礎にして下さい。
  7
STYLE2
100
AcDbText
  0
TEXT
  5
1C7E8
330
747D
100
AcDbEntity
  8
文字
 62
     7
 48
50.0
100
AcDbText
 10
14478.98566430227
 20
499.5983841039506
 30
0.0
 40
160.0
  1
ＮＸＮ－７９Ｈ
  7
STYLE2
100
AcDbText
  0
TEXT
  5
1C7E9
330
747D
100
AcDbEntity
  8
文字
 62
     7
 48
50.0
100
AcDbText
 10
14641.2525855784
 20
871.1744590657927
 30
0.0
 40
100.0
  1
～一般型・多雪地型～
  7
STYLE2
100
AcDbText
  0
TEXT
  5
1C7EC
330
747D
100
AcDbEntity
  8
文字
 62
     7
 48
50.0
100
AcDbText
 10
14524.131837222
 20
1031.557706291229
 30
0.0
 40
100.0
  1
      <縮尺> S=1/40
  7
STYLE2
100
AcDbText
  0
TEXT
  5
1C7ED
330
747D
100
AcDbEntity
  8
文字
 62
     7
 48
50.0
100
AcDbText
 10
13201.43669998441
 20
477.2740661031257
 30
0.0
 40
160.0
  1
機種名
  7
STYLE2
100
AcDbText
  0
LINE
  5
1C7EF
330
747D
100
AcDbEntity
  8
文字
 62
     7
 48
50.0
100
AcDbLine
 10
13187.2
 20
400.0
 30
0.0
 11
16227.2
 21
400.0
 31
0.0
  0
MTEXT
  5
1D2D5
102
{ACAD_REACTORS
330
1D2D6
102
}
330
747D
100
AcDbEntity
  8
部品1
 62
     7
 48
50.0
100
AcDbMText
 10
11213.99523070988
 20
8353.420855881642
 30
0.0
 40
120.0
 41
0.0
 71
     6
 72
     1
  1
アンカーボルト
  7
STYLE1
 73
     1
 44
1.0
1001
ACAD
1000
MTEXTBEGIN
1070
    73
1070
     1
1070
    44
1040
1.0
1070
    74
1070
     0
1000
MTEXTEND
  0
LEADER
  5
1D2D6
330
747D
100
AcDbEntity
  8
寸法
 48
50.0
100
AcDbLeader
  3
INABA_S40G
 73
     0
 74
     0
 75
     1
 40
120.0
 41
994.3492424049171
 76
     3
 10
9895.680085757
 20
7926.29052143475
 30
0.0
 10
10079.64598830496
 20
8253.420855881641
 30
0.0
 10
10179.64598830496
 20
8253.420855881641
 30
0.0
340
1D2D5
1001
ACAD
1000
DSTYLE
1002
{
1070
   341
1005
0
1002
}
  0
MTEXT
  5
1D332
102
{ACAD_REACTORS
330
1D333
102
}
330
747D
100
AcDbEntity
  8
部品1
 62
     7
 48
50.0
100
AcDbMText
 10
7730.440328953419
 20
6226.093440812515
 30
0.0
 40
120.0
 41
0.0
 71
     6
 72
     1
  1
CB
  7
STYLE1
 73
     1
 44
1.0
1001
ACAD
1000
MTEXTBEGIN
1070
    73
1070
     1
1070
    44
1040
1.0
1070
    74
1070
     0
1000
MTEXTEND
  0
LEADER
  5
1D333
330
747D
100
AcDbEntity
  8
寸法
 48
50.0
100
AcDbLeader
  3
INABA_S40G
 73
     0
 74
     0
 75
     1
 40
120.0
 41
149.591883092037
 76
     3
 10
7303.565642998738
 20
6502.107354380348
 30
0.0
 10
7440.848445861381
 20
6126.093440812515
 30
0.0
 10
7540.848445861382
 20
6126.093440812515
 30
0.0
340
1D332
1001
ACAD
1000
DSTYLE
1002
{
1070
   341
1005
0
1002
}
  0
DIMENSION
  5
1DAC7
330
747D
100
AcDbEntity
  8
寸法
 48
50.0
100
AcDbDimension
  2
*D1
 10
8463.202780124335
 20
5829.082677076065
 30
0.0
 11
8463.202780124332
 21
5220.597395701825
 31
0.0
 70
   160
  1
扉の出<>
 71
     5
 42
75.00000000000091
  3
INABA_S40G
100
AcDbAlignedDimension
 13
8196.600000000001
 23
5754.082677076063
 33
0.0
 14
8196.600000000008
 24
5829.082677076065
 34
0.0
 50
90.0
100
AcDbRotatedDimension
1001
ACAD
1000
DSTYLE
1002
{
1070
   341
1005
0
1002
}
  0
LINE
  5
20992
330
747D
100
AcDbEntity
  8
想像線
 48
10.0
100
AcDbLine
 10
10063.6
 20
5774.082677076048
 30
0.0
 11
10063.6
 21
8124.082677076039
 31
0.0
  0
DIMENSION
  5
20DE1
330
747D
100
AcDbEntity
  8
寸法
 48
50.0
100
AcDbDimension
  2
*D2
 10
10063.6
 20
9007.302999134962
 30
0.0
 11
10334.77462120246
 21
9007.302999134962
 31
0.0
 70
   160
  1
a
 71
     5
 42
45.0
  3
INABA_S40G
100
AcDbAlignedDimension
 13
10018.6
 23
8049.082677076039
 33
0.0
 14
10063.6
 24
8794.842303618123
 34
0.0
100
AcDbRotatedDimension
1001
ACAD
1000
DSTYLE
1002
{
1070
   341
1005
0
1002
}
  0
DIMENSION
  5
20DFB
330
747D
100
AcDbEntity
  8
寸法
 48
50.0
100
AcDbDimension
  2
*D3
 10
6428.6
 20
9007.302999134962
 30
0.0
 11
6112.425378797541
 21
9007.302999134962
 31
0.0
 70
   160
  1
a
 71
     5
 42
44.99999999999272
  3
INABA_S40G
100
AcDbAlignedDimension
 13
6383.600000000008
 23
8794.842303618123
 33
0.0
 14
6428.6
 24
8049.082677076039
 34
0.0
100
AcDbRotatedDimension
1001
ACAD
1000
DSTYLE
1002
{
1070
   341
1005
0
1002
}
  0
DIMENSION
  5
20E15
330
747D
100
AcDbEntity
  8
寸法
 48
50.0
100
AcDbDimension
  2
*D4
 10
5687.164931848212
 20
8049.082677076041
 30
0.0
 11
5587.164931848211
 21
8086.582677076044
 31
0.0
 70
    32
  1
c
 71
     5
 42
75.00000000000273
  3
INABA_S40G
100
AcDbAlignedDimension
 13
5932.657733986179
 23
8124.082677076044
 33
0.0
 14
6428.600000000002
 24
8049.082677076041
 34
0.0
 50
90.0
100
AcDbRotatedDimension
1001
ACAD
1000
DSTYLE
1002
{
1070
   341
1005
0
1002
}
  0
DIMENSION
  5
20E3A
330
747D
100
AcDbEntity
  8
寸法
 48
50.0
100
AcDbDimension
  2
*D5
 10
5687.164931848212
 20
5774.082677076052
 30
0.0
 11
5587.164931848211
 21
5801.582677076049
 31
0.0
 70
    32
  1
b
 71
     5
 42
54.99999999998999
  3
INABA_S40G
100
AcDbAlignedDimension
 13
6428.6
 23
5829.082677076041
 33
0.0
 14
5932.65773398618
 24
5774.082677076052
 34
0.0
 50
90.0
100
AcDbRotatedDimension
1001
ACAD
1000
DSTYLE
1002
{
1070
   341
1005
0
1002
}
  0
DIMENSION
  5
215ED
330
747D
100
AcDbEntity
  8
寸法
 48
50.0
100
AcDbDimension
  2
*D6
 10
8670.14438614211
 20
6059.08267707606
 30
0.0
 11
8670.144386142109
 21
6329.141732194184
 31
0.0
 70
   160
 71
     5
 42
110.0000000000063
  3
INABA_S40G
100
AcDbAlignedDimension
 13
8782.599867447318
 23
5949.082677076053
 33
0.0
 14
8235.600000000001
 24
6059.08267707606
 34
0.0
 50
90.0
100
AcDbRotatedDimension
1001
ACAD
1000
DSTYLE
1002
{
1070
   341
1005
0
1002
}
  0
DIMENSION
  5
215EF
330
747D
100
AcDbEntity
  8
寸法
 48
50.0
100
AcDbDimension
  2
*D7
 10
8670.14438614211
 20
5949.082677076053
 30
0.0
 11
8670.144386142109
 21
5492.794372108101
 31
0.0
 70
   160
 71
     5
 42
119.9999999999845
  3
INABA_S40G
100
AcDbAlignedDimension
 13
8307.419180988159
 23
5829.082677076069
 33
0.0
 14
8686.372126794715
 24
5949.082677076053
 34
0.0
 50
90.0
100
AcDbRotatedDimension
1001
ACAD
1000
DSTYLE
1002
{
1070
   341
1005
0
1002
}
  0
LINE
  5
215F0
330
747D
100
AcDbEntity
  8
部品1
 48
50.0
100
AcDbLine
 10
10018.6
 20
5829.082677076057
 30
0.0
 11
8196.600000000001
 21
5829.082677076041
 31
0.0
  0
LINE
  5
215F2
330
747D
100
AcDbEntity
  8
部品1
 48
50.0
100
AcDbLine
 10
10018.6
 20
8049.082677076041
 30
0.0
 11
6428.6
 21
8049.082677076041
 31
0.0
  0
DIMENSION
  5
215F3
330
747D
100
AcDbEntity
  8
寸法
 48
50.0
100
AcDbDimension
  2
*D8
 10
10018.6
 20
9007.302999134962
 30
0.0
 11
8223.600000000001
 21
9107.302999134962
 31
0.0
 70
    32
 71
     5
 42
3590.0
  3
INABA_S40G
100
AcDbAlignedDimension
 13
6428.6
 23
8049.082677076041
 33
0.0
 14
10018.6
 24
8049.082677076039
 34
0.0
100
AcDbRotatedDimension
1001
ACAD
1000
DSTYLE
1002
{
1070
   341
1005
0
1002
}
  0
DIMENSION
  5
215F5
330
747D
100
AcDbEntity
  8
寸法
 48
50.0
100
AcDbDimension
  2
*D9
 10
8105.6
 20
8794.842303618125
 30
0.0
 11
9000.6
 21
8894.842303618125
 31
0.0
 70
    32
 71
     5
 42
1790.0
  3
INABA_S40G
100
AcDbAlignedDimension
 13
9895.600000000001
 23
7976.082677076042
 33
0.0
 14
8105.6
 24
7976.082677076042
 34
0.0
100
AcDbRotatedDimension
1001
ACAD
1000
DSTYLE
1002
{
1070
   341
1005
0
1002
}
  0
DIMENSION
  5
21608
330
747D
100
AcDbEntity
  8
寸法
 48
50.0
100
AcDbDimension
  2
*D10
 10
5932.657733986178
 20
5952.082677076044
 30
0.0
 11
5832.657733986177
 21
6939.082677076044
 31
0.0
 70
    32
 71
     5
 42
1973.999999999998
  3
INABA_S40G
100
AcDbAlignedDimension
 13
6501.6
 23
7926.082677076042
 33
0.0
 14
6501.600000000007
 24
5952.082677076043
 34
0.0
 50
90.0
100
AcDbRotatedDimension
1001
ACAD
1000
DSTYLE
1002
{
1070
   341
1005
0
1002
}
  0
LINE
  5
2160A
330
747D
100
AcDbEntity
  8
部品1
 48
50.0
100
AcDbLine
 10
6428.6
 20
5829.082677076041
 30
0.0
 11
6428.6
 21
8049.082677076041
 31
0.0
  0
DIMENSION
  5
2160C
330
747D
100
AcDbEntity
  8
寸法
 48
50.0
100
AcDbDimension
  2
*D11
 10
5687.164931848211
 20
5829.082677076042
 30
0.0
 11
5587.153120824588
 21
6939.082677076043
 31
0.0
 70
    32
 71
     5
 42
2220.0
  3
INABA_S40G
100
AcDbAlignedDimension
 13
6428.6
 23
8049.082677076041
 33
0.0
 14
6428.6
 24
5829.082677076041
 34
0.0
 50
90.0
100
AcDbRotatedDimension
1001
ACAD
1000
DSTYLE
1002
{
1070
   341
1005
0
1002
}
  0
LINE
  5
2166D
330
747D
100
AcDbEntity
  8
部品1
 48
50.0
100
AcDbLine
 10
8196.600000000001
 20
5754.082677076045
 30
0.0
 11
6428.6
 21
5754.082677076033
 31
0.0
  0
DIMENSION
  5
21671
330
747D
100
AcDbEntity
  8
寸法
 48
50.0
100
AcDbDimension
  2
*D25
 10
5932.657733986179
 20
5829.082677076031
 30
0.0
 11
5932.657733986178
 21
5493.551728233449
 31
0.0
 70
   160
 71
     5
 42
123.0000000000127
  3
INABA_S40G
100
AcDbAlignedDimension
 13
6501.600000000007
 23
5952.082677076043
 33
0.0
 14
6428.6
 24
5829.08267707603
 34
0.0
 50
90.0
100
AcDbRotatedDimension
1001
ACAD
1000
DSTYLE
1002
{
1070
   341
1005
0
1002
}
  0
LINE
  5
21673
330
747D
100
AcDbEntity
  8
部品1
 48
50.0
100
AcDbLine
 10
6658.600000000001
 20
5949.082677076048
 30
0.0
 11
6658.599999999999
 21
6059.082677076045
 31
0.0
  0
LINE
  5
2167B
330
747D
100
AcDbEntity
  8
センター
 48
2.0
100
AcDbLine
 10
6551.600000000007
 20
6002.082677076043
 30
0.0
 11
6551.600000000007
 21
5902.082677076044
 31
0.0
  0
LINE
  5
216AC
330
747D
100
AcDbEntity
  8
センター
 48
2.0
100
AcDbLine
 10
6501.600000000007
 20
5952.082677076043
 30
0.0
 11
6601.600000000008
 21
5952.082677076043
 31
0.0
  0
CIRCLE
  5
216AD
330
747D
100
AcDbEntity
  8
部品1
 48
50.0
100
AcDbCircle
 10
6551.600000000007
 20
5952.082677076043
 30
0.0
 40
35.0
  0
LINE
  5
216AE
330
747D
100
AcDbEntity
  8
部品1
 48
50.0
100
AcDbLine
 10
6428.6
 20
5754.082677076047
 30
0.0
 11
6428.6
 21
5829.08267707603
 31
0.0
  0
LINE
  5
216F0
330
747D
100
AcDbEntity
  8
部品1
 48
50.0
100
AcDbLine
 10
6658.599999999999
 20
6059.082677076045
 30
0.0
 11
6548.6
 21
6059.082677076043
 31
0.0
  0
LINE
  5
2175A
330
747D
100
AcDbEntity
  8
部品1
 48
50.0
100
AcDbLine
 10
6548.599999999999
 20
6839.082677076041
 30
0.0
 11
6428.6
 21
6839.082677076041
 31
0.0
  0
LINE
  5
2175D
330
747D
100
AcDbEntity
  8
部品1
 48
50.0
100
AcDbLine
 10
7228.6
 20
5949.08267707605
 30
0.0
 11
7228.6
 21
5754.082677076034
 31
0.0
  0
LINE
  5
2179D
330
747D
100
AcDbEntity
  8
部品1
 48
50.0
100
AcDbLine
 10
7428.600000000002
 20
5949.08267707605
 30
0.0
 11
7428.6
 21
5754.082677076038
 31
0.0
  0
LINE
  5
217DF
330
747D
100
AcDbEntity
  8
部品1
 48
50.0
100
AcDbLine
 10
7428.6
 20
6764.082677076043
 30
0.0
 11
7228.6
 21
6764.082677076043
 31
0.0
  0
LINE
  5
217E0
330
747D
100
AcDbEntity
  8
部品1
 48
50.0
100
AcDbLine
 10
7428.6
 20
6364.082677076041
 30
0.0
 11
7228.6
 21
6364.082677076041
 31
0.0
  0
LINE
  5
217E1
330
747D
100
AcDbEntity
  8
センター
 48
2.0
100
AcDbLine
 10
7328.6
 20
6614.082677076043
 30
0.0
 11
7328.6
 21
6514.082677076043
 31
0.0
  0
LINE
  5
217E2
330
747D
100
AcDbEntity
  8
部品1
 48
50.0
100
AcDbLine
 10
7228.600000000001
 20
6364.082677076041
 30
0.0
 11
7228.6
 21
6764.082677076043
 31
0.0
  0
LINE
  5
217E3
330
747D
100
AcDbEntity
  8
センター
 48
2.0
100
AcDbLine
 10
7278.6
 20
6564.082677076043
 30
0.0
 11
7378.6
 21
6564.082677076043
 31
0.0
  0
LINE
  5
217E4
330
747D
100
AcDbEntity
  8
部品1
 48
50.0
100
AcDbLine
 10
7428.6
 20
6364.082677076041
 30
0.0
 11
7428.6
 21
6764.082677076043
 31
0.0
  0
DIMENSION
  5
217E5
330
747D
100
AcDbEntity
  8
寸法
 48
50.0
100
AcDbDimension
  2
*D26
 10
7975.6
 20
6315.33706418395
 30
0.0
 11
8105.6
 21
6315.33706418395
 31
0.0
 70
   160
 71
     5
 42
260.0
  3
INABA_S40G
100
AcDbAlignedDimension
 13
8235.600000000001
 23
6059.08267707606
 33
0.0
 14
7975.6
 24
6059.08267707606
 34
0.0
100
AcDbRotatedDimension
1001
ACAD
1000
DSTYLE
1002
{
1070
   341
1005
0
1002
}
  0
LINE
  5
217E6
330
747D
100
AcDbEntity
  8
部品1
 48
50.0
100
AcDbLine
 10
8235.600000000001
 20
6059.08267707606
 30
0.0
 11
7975.6
 21
6059.08267707606
 31
0.0
  0
LINE
  5
217E7
330
747D
100
AcDbEntity
  8
部品1
 48
50.0
100
AcDbLine
 10
7975.6
 20
5949.08267707605
 30
0.0
 11
7975.6
 21
6059.08267707606
 31
0.0
  0
LINE
  5
2186A
330
747D
100
AcDbEntity
  8
部品1
 48
50.0
100
AcDbLine
 10
8235.600000000003
 20
5949.082677076052
 30
0.0
 11
8235.600000000001
 21
6059.08267707606
 31
0.0
  0
LINE
  5
2186B
330
747D
100
AcDbEntity
  8
センター
 48
2.0
100
AcDbLine
 10
8055.600000000008
 20
5952.082677076043
 30
0.0
 11
8155.600000000008
 21
5952.082677076043
 31
0.0
  0
CIRCLE
  5
2186C
330
747D
100
AcDbEntity
  8
部品1
 48
50.0
100
AcDbCircle
 10
8105.600000000007
 20
5952.082677076043
 30
0.0
 40
35.0
  0
LINE
  5
2186D
330
747D
100
AcDbEntity
  8
センター
 48
2.0
100
AcDbLine
 10
8105.600000000007
 20
6002.082677076043
 30
0.0
 11
8105.600000000007
 21
5902.082677076044
 31
0.0
  0
LINE
  5
218A0
330
747D
100
AcDbEntity
  8
部品1
 48
50.0
100
AcDbLine
 10
8196.600000000001
 20
5754.082677076047
 30
0.0
 11
8196.600000000001
 21
5829.082677076043
 31
0.0
  0
DIMENSION
  5
218A4
330
747D
100
AcDbEntity
  8
寸法
 48
50.0
100
AcDbDimension
  2
*D12
 10
6428.6
 20
8575.99244272437
 30
0.0
 11
6879.6
 21
8575.99244272437
 31
0.0
 70
   160
 71
     5
 42
900.0
  3
INABA_S40G
100
AcDbAlignedDimension
 13
7328.6
 23
7364.082677076043
 33
0.0
 14
6428.6
 24
8049.082677076041
 34
0.0
100
AcDbRotatedDimension
1001
ACAD
1000
DSTYLE
1002
{
1070
   341
1005
0
1002
}
  0
DIMENSION
  5
218A5
330
747D
100
AcDbEntity
  8
寸法
 48
50.0
100
AcDbDimension
  2
*D13
 10
6551.6
 20
8794.842303618125
 30
0.0
 11
7328.6
 21
8894.842303618125
 31
0.0
 70
    32
 71
     5
 42
1554.0
  3
INABA_S40G
100
AcDbAlignedDimension
 13
8105.6
 23
7976.082677076042
 33
0.0
 14
6551.6
 24
7976.082677076042
 34
0.0
100
AcDbRotatedDimension
1001
ACAD
1000
DSTYLE
1002
{
1070
   341
1005
0
1002
}
  0
DIMENSION
  5
218A6
330
747D
100
AcDbEntity
  8
寸法
 48
50.0
100
AcDbDimension
  2
*D14
 10
6428.6
 20
8794.842303618125
 30
0.0
 11
6155.493398282202
 21
8794.842303618125
 31
0.0
 70
   160
 71
     5
 42
123.0
  3
INABA_S40G
100
AcDbAlignedDimension
 13
6551.6
 23
7976.082677076042
 33
0.0
 14
6428.6
 24
8049.082677076041
 34
0.0
100
AcDbRotatedDimension
1001
ACAD
1000
DSTYLE
1002
{
1070
   341
1005
0
1002
}
  0
DIMENSION
  5
218A8
330
747D
100
AcDbEntity
  8
寸法
 48
50.0
100
AcDbDimension
  2
*D15
 10
5932.657733986179
 20
7926.082677076043
 30
0.0
 11
5932.657733986178
 21
8322.189278793841
 31
0.0
 70
   160
 71
     5
 42
123.0
  3
INABA_S40G
100
AcDbAlignedDimension
 13
6428.6
 23
8049.082677076041
 33
0.0
 14
6501.6
 24
7926.082677076042
 34
0.0
 50
90.0
100
AcDbRotatedDimension
1001
ACAD
1000
DSTYLE
1002
{
1070
   341
1005
0
1002
}
  0
DIMENSION
  5
218A9
330
747D
100
AcDbEntity
  8
寸法
 48
50.0
100
AcDbDimension
  2
*D16
 10
6875.307249876098
 20
8049.082677076039
 30
0.0
 11
6875.307249876097
 21
8307.166220348928
 31
0.0
 70
   160
 71
     5
 42
120.0
  3
INABA_S40G
100
AcDbAlignedDimension
 13
6658.599999999999
 23
7929.08267707604
 33
0.0
 14
6658.599999999999
 24
8049.082677076039
 34
0.0
 50
90.0
100
AcDbRotatedDimension
1001
ACAD
1000
DSTYLE
1002
{
1070
   341
1005
0
1002
}
  0
DIMENSION
  5
218AA
330
747D
100
AcDbEntity
  8
寸法
 48
50.0
100
AcDbDimension
  2
*D17
 10
6875.307249876098
 20
7819.082677076038
 30
0.0
 11
6875.307249876097
 21
7459.023621957929
 31
0.0
 70
   160
 71
     5
 42
110.0000000000036
  3
INABA_S40G
100
AcDbAlignedDimension
 13
6658.599999999999
 23
7929.082677076042
 33
0.0
 14
6658.599999999999
 24
7819.082677076038
 34
0.0
 50
90.0
100
AcDbRotatedDimension
1001
ACAD
1000
DSTYLE
1002
{
1070
   341
1005
0
1002
}
  0
LINE
  5
218AB
330
747D
100
AcDbEntity
  8
部品1
 48
50.0
100
AcDbLine
 10
6548.599999999999
 20
7039.08267707604
 30
0.0
 11
6428.6
 21
7039.082677076041
 31
0.0
  0
LINE
  5
218AC
330
747D
100
AcDbEntity
  8
部品1
 48
50.0
100
AcDbLine
 10
6827.928907166849
 20
8049.082677076038
 30
0.0
 11
6428.6
 21
8049.082677076041
 31
0.0
  0
LINE
  5
218AD
330
747D
100
AcDbEntity
  8
部品1
 48
50.0
100
AcDbLine
 10
6658.599999999999
 20
7819.082677076038
 30
0.0
 11
6548.6
 21
7819.082677076041
 31
0.0
  0
LINE
  5
218AE
330
747D
100
AcDbEntity
  8
センター
 48
2.0
100
AcDbLine
 10
6551.6
 20
7976.082677076042
 30
0.0
 11
6551.6
 21
7876.082677076041
 31
0.0
  0
LINE
  5
218AF
330
747D
100
AcDbEntity
  8
センター
 48
2.0
100
AcDbLine
 10
6501.6
 20
7926.082677076042
 30
0.0
 11
6601.600000000001
 21
7926.082677076042
 31
0.0
  0
CIRCLE
  5
218B0
330
747D
100
AcDbEntity
  8
部品1
 48
50.0
100
AcDbCircle
 10
6551.6
 20
7926.082677076042
 30
0.0
 40
35.0
  0
LINE
  5
218B1
330
747D
100
AcDbEntity
  8
部品1
 48
50.0
100
AcDbLine
 10
6658.599999999999
 20
7819.082677076038
 30
0.0
 11
6658.599999999999
 21
7929.082677076042
 31
0.0
  0
LINE
  5
218B3
330
747D
100
AcDbEntity
  8
部品1
 48
50.0
100
AcDbLine
 10
7228.6
 20
7114.082677076041
 30
0.0
 11
7228.6
 21
7514.082677076043
 31
0.0
  0
LINE
  5
218B4
330
747D
100
AcDbEntity
  8
部品1
 48
50.0
100
AcDbLine
 10
7428.6
 20
7114.082677076041
 30
0.0
 11
7428.6
 21
7514.082677076043
 31
0.0
  0
LINE
  5
218B5
330
747D
100
AcDbEntity
  8
部品1
 48
50.0
100
AcDbLine
 10
7428.6
 20
7114.082677076041
 30
0.0
 11
7228.6
 21
7114.082677076041
 31
0.0
  0
LINE
  5
218B8
330
747D
100
AcDbEntity
  8
センター
 48
2.0
100
AcDbLine
 10
7278.6
 20
7314.082677076043
 30
0.0
 11
7378.6
 21
7314.082677076043
 31
0.0
  0
LINE
  5
218B9
330
747D
100
AcDbEntity
  8
センター
 48
2.0
100
AcDbLine
 10
7328.6
 20
7364.082677076043
 30
0.0
 11
7328.6
 21
7264.082677076043
 31
0.0
  0
LINE
  5
218BC
330
747D
100
AcDbEntity
  8
部品1
 48
50.0
100
AcDbLine
 10
7428.6
 20
7514.082677076043
 30
0.0
 11
7228.6
 21
7514.082677076043
 31
0.0
  0
LINE
  5
218BD
330
747D
100
AcDbEntity
  8
部品1
 48
50.0
100
AcDbLine
 10
7228.6
 20
8049.082677076041
 30
0.0
 11
7228.600000000001
 21
7929.082677076042
 31
0.0
  0
LINE
  5
218BE
330
747D
100
AcDbEntity
  8
部品1
 48
50.0
100
AcDbLine
 10
7428.6
 20
8049.082677076041
 30
0.0
 11
7428.600000000002
 21
7929.082677076042
 31
0.0
  0
LINE
  5
218C1
330
747D
100
AcDbEntity
  8
部品1
 48
50.0
100
AcDbLine
 10
8235.600000000001
 20
7819.082677076024
 30
0.0
 11
7975.6
 21
7819.082677076024
 31
0.0
  0
LINE
  5
218C2
330
747D
100
AcDbEntity
  8
部品1
 48
50.0
100
AcDbLine
 10
7975.6
 20
7929.082677076043
 30
0.0
 11
7975.6
 21
7819.082677076024
 31
0.0
  0
LINE
  5
218C3
330
747D
100
AcDbEntity
  8
部品1
 48
50.0
100
AcDbLine
 10
8235.600000000003
 20
7929.082677076042
 30
0.0
 11
8235.600000000001
 21
7819.082677076024
 31
0.0
  0
CIRCLE
  5
218C4
330
747D
100
AcDbEntity
  8
部品1
 48
50.0
100
AcDbCircle
 10
8105.6
 20
7926.082677076042
 30
0.0
 40
35.0
  0
LINE
  5
218C5
330
747D
100
AcDbEntity
  8
センター
 48
2.0
100
AcDbLine
 10
8105.6
 20
7976.082677076042
 30
0.0
 11
8105.6
 21
7876.082677076041
 31
0.0
  0
LINE
  5
218C6
330
747D
100
AcDbEntity
  8
センター
 48
2.0
100
AcDbLine
 10
8055.600000000001
 20
7926.082677076042
 30
0.0
 11
8155.600000000001
 21
7926.082677076042
 31
0.0
  0
LINE
  5
218C7
330
747D
100
AcDbEntity
  8
部品1
 48
50.0
100
AcDbLine
 10
10018.6
 20
5829.082677076059
 30
0.0
 11
10018.6
 21
8049.082677076041
 31
0.0
  0
DIMENSION
  5
218CC
330
747D
100
AcDbEntity
  8
寸法
 48
50.0
100
AcDbDimension
  2
*D18
 10
8917.836548133353
 20
6564.082677076043
 30
0.0
 11
8817.836548133351
 21
6939.082677076043
 31
0.0
 70
    32
 71
     5
 42
750.0
  3
INABA_S40G
100
AcDbAlignedDimension
 13
9018.600000000001
 23
7314.082677076043
 33
0.0
 14
9018.600000000001
 24
6564.082677076043
 34
0.0
 50
90.0
100
AcDbRotatedDimension
1001
ACAD
1000
DSTYLE
1002
{
1070
   341
1005
0
1002
}
  0
LINE
  5
2193F
330
747D
100
AcDbEntity
  8
部品1
 48
50.0
100
AcDbLine
 10
9218.6
 20
6764.082677076043
 30
0.0
 11
9018.600000000001
 21
6764.082677076043
 31
0.0
  0
LINE
  5
21940
330
747D
100
AcDbEntity
  8
部品1
 48
50.0
100
AcDbLine
 10
9218.6
 20
6364.082677076041
 30
0.0
 11
9018.600000000001
 21
6364.082677076041
 31
0.0
  0
DIMENSION
  5
21942
330
747D
100
AcDbEntity
  8
寸法
 48
50.0
100
AcDbDimension
  2
*D19
 10
8917.836548133353
 20
6564.082677076043
 30
0.0
 11
8817.836548133351
 21
6196.582677076047
 31
0.0
 70
    32
 71
     5
 42
734.9999999999909
  3
INABA_S40G
100
AcDbAlignedDimension
 13
8657.04593925956
 23
5829.082677076051
 33
0.0
 14
9018.600000000001
 24
6564.082677076043
 34
0.0
 50
90.0
100
AcDbRotatedDimension
1001
ACAD
1000
DSTYLE
1002
{
1070
   341
1005
0
1002
}
  0
LINE
  5
21943
330
747D
100
AcDbEntity
  8
部品1
 48
50.0
100
AcDbLine
 10
9018.600000000001
 20
5949.082677076051
 30
0.0
 11
9018.600000000001
 21
5829.082677076056
 31
0.0
  0
LINE
  5
21944
330
747D
100
AcDbEntity
  8
部品1
 48
50.0
100
AcDbLine
 10
9018.600000000001
 20
6364.082677076041
 30
0.0
 11
9018.600000000001
 21
6764.082677076043
 31
0.0
  0
LINE
  5
21945
330
747D
100
AcDbEntity
  8
部品1
 48
50.0
100
AcDbLine
 10
9218.6
 20
5949.082677076052
 30
0.0
 11
9218.6
 21
5829.082677076056
 31
0.0
  0
LINE
  5
21946
330
747D
100
AcDbEntity
  8
センター
 48
2.0
100
AcDbLine
 10
9118.6
 20
6614.082677076043
 30
0.0
 11
9118.6
 21
6514.082677076043
 31
0.0
  0
LINE
  5
21947
330
747D
100
AcDbEntity
  8
部品1
 48
50.0
100
AcDbLine
 10
9218.6
 20
6364.082677076041
 30
0.0
 11
9218.6
 21
6764.082677076043
 31
0.0
  0
LINE
  5
21948
330
747D
100
AcDbEntity
  8
センター
 48
2.0
100
AcDbLine
 10
9068.600000000001
 20
6564.082677076043
 30
0.0
 11
9168.600000000001
 21
6564.082677076043
 31
0.0
  0
LINE
  5
2194D
330
747D
100
AcDbEntity
  8
部品1
 48
50.0
100
AcDbLine
 10
9788.600000000002
 20
5949.082677076054
 30
0.0
 11
9788.600000000002
 21
6059.08267707606
 31
0.0
  0
CIRCLE
  5
2194E
330
747D
100
AcDbEntity
  8
部品1
 48
50.0
100
AcDbCircle
 10
9895.600000000008
 20
5952.082677076043
 30
0.0
 40
35.0
  0
LINE
  5
2194F
330
747D
100
AcDbEntity
  8
センター
 48
2.0
100
AcDbLine
 10
9845.600000000008
 20
5952.082677076043
 30
0.0
 11
9945.600000000007
 21
5952.082677076043
 31
0.0
  0
LINE
  5
21950
330
747D
100
AcDbEntity
  8
センター
 48
2.0
100
AcDbLine
 10
9895.600000000008
 20
6002.082677076043
 30
0.0
 11
9895.600000000008
 21
5902.082677076044
 31
0.0
  0
LINE
  5
21951
330
747D
100
AcDbEntity
  8
部品1
 48
50.0
100
AcDbLine
 10
9898.6
 20
6059.082677076058
 30
0.0
 11
9788.600000000002
 21
6059.08267707606
 31
0.0
  0
LINE
  5
21952
330
747D
100
AcDbEntity
  8
部品1
 48
50.0
100
AcDbLine
 10
10018.6
 20
6839.082677076042
 30
0.0
 11
9898.6
 21
6839.082677076042
 31
0.0
  0
DIMENSION
  5
21957
330
747D
100
AcDbEntity
  8
寸法
 48
50.0
100
AcDbDimension
  2
*D20
 10
9788.600000000002
 20
7591.374009575666
 30
0.0
 11
9498.540944881888
 21
7591.374009575666
 31
0.0
 70
   160
 71
     5
 42
109.9999999999982
  3
INABA_S40G
100
AcDbAlignedDimension
 13
9898.6
 23
7608.367273614497
 33
0.0
 14
9788.600000000002
 24
7819.082677076039
 34
0.0
100
AcDbRotatedDimension
1001
ACAD
1000
DSTYLE
1002
{
1070
   341
1005
0
1002
}
  0
DIMENSION
  5
21958
330
747D
100
AcDbEntity
  8
寸法
 48
50.0
100
AcDbDimension
  2
*D21
 10
9118.6
 20
8575.99244272437
 30
0.0
 11
9568.600000000001
 21
8675.992442724369
 31
0.0
 70
    32
 71
     5
 42
900.0
  3
INABA_S40G
100
AcDbAlignedDimension
 13
10018.6
 23
8049.082677076041
 33
0.0
 14
9118.6
 24
7364.082677076043
 34
0.0
100
AcDbRotatedDimension
1001
ACAD
1000
DSTYLE
1002
{
1070
   341
1005
0
1002
}
  0
DIMENSION
  5
21959
330
747D
100
AcDbEntity
  8
寸法
 48
50.0
100
AcDbDimension
  2
*D22
 10
8917.836548133353
 20
8049.082677076043
 30
0.0
 11
8817.836548133351
 21
7681.582677076043
 31
0.0
 70
    32
 71
     5
 42
735.0000000000009
  3
INABA_S40G
100
AcDbAlignedDimension
 13
9018.600000000001
 23
7314.082677076043
 33
0.0
 14
8561.157431058354
 24
8049.082677076043
 34
0.0
 50
90.0
100
AcDbRotatedDimension
1001
ACAD
1000
DSTYLE
1002
{
1070
   341
1005
0
1002
}
  0
LINE
  5
2195B
330
747D
100
AcDbEntity
  8
部品1
 48
50.0
100
AcDbLine
 10
9218.6
 20
7514.082677076043
 30
0.0
 11
9018.600000000001
 21
7514.082677076043
 31
0.0
  0
LINE
  5
2195C
330
747D
100
AcDbEntity
  8
部品1
 48
50.0
100
AcDbLine
 10
9218.6
 20
7114.082677076041
 30
0.0
 11
9018.600000000001
 21
7114.082677076041
 31
0.0
  0
LINE
  5
2195D
330
747D
100
AcDbEntity
  8
部品1
 48
50.0
100
AcDbLine
 10
9018.600000000001
 20
7114.082677076041
 30
0.0
 11
9018.600000000001
 21
7514.082677076043
 31
0.0
  0
LINE
  5
2195E
330
747D
100
AcDbEntity
  8
部品1
 48
50.0
100
AcDbLine
 10
9018.600000000001
 20
8049.082677076039
 30
0.0
 11
9018.600000000001
 21
7929.08267707604
 31
0.0
  0
LINE
  5
2195F
330
747D
100
AcDbEntity
  8
部品1
 48
50.0
100
AcDbLine
 10
9218.6
 20
7114.082677076041
 30
0.0
 11
9218.6
 21
7514.082677076043
 31
0.0
  0
LINE
  5
21960
330
747D
100
AcDbEntity
  8
センター
 48
2.0
100
AcDbLine
 10
9068.600000000001
 20
7314.082677076043
 30
0.0
 11
9168.600000000001
 21
7314.082677076043
 31
0.0
  0
LINE
  5
21961
330
747D
100
AcDbEntity
  8
センター
 48
2.0
100
AcDbLine
 10
9118.6
 20
7364.082677076043
 30
0.0
 11
9118.6
 21
7264.082677076043
 31
0.0
  0
LINE
  5
21962
330
747D
100
AcDbEntity
  8
部品1
 48
50.0
100
AcDbLine
 10
9218.6
 20
8049.082677076039
 30
0.0
 11
9218.6
 21
7929.08267707604
 31
0.0
  0
DIMENSION
  5
21964
330
747D
100
AcDbEntity
  8
寸法
 48
50.0
100
AcDbDimension
  2
*D23
 10
9895.600000000001
 20
8794.842303618125
 30
0.0
 11
10291.7066017178
 21
8794.842303618125
 31
0.0
 70
   160
 71
     5
 42
123.0
  3
INABA_S40G
100
AcDbAlignedDimension
 13
10018.6
 23
8049.082677076041
 33
0.0
 14
9895.600000000001
 24
7976.082677076042
 34
0.0
100
AcDbRotatedDimension
1001
ACAD
1000
DSTYLE
1002
{
1070
   341
1005
0
1002
}
  0
LINE
  5
21965
330
747D
100
AcDbEntity
  8
部品1
 48
50.0
100
AcDbLine
 10
10018.6
 20
7039.082677076042
 30
0.0
 11
9898.6
 21
7039.082677076044
 31
0.0
  0
DIMENSION
  5
21966
330
747D
100
AcDbEntity
  8
寸法
 48
50.0
100
AcDbDimension
  2
*D24
 10
9898.6
 20
7591.374009575666
 30
0.0
 11
10268.65905511811
 21
7591.374009575666
 31
0.0
 70
   160
 71
     5
 42
120.0000000000018
  3
INABA_S40G
100
AcDbAlignedDimension
 13
10018.6
 23
7608.367273614497
 33
0.0
 14
9898.6
 24
7608.367273614497
 34
0.0
100
AcDbRotatedDimension
1001
ACAD
1000
DSTYLE
1002
{
1070
   341
1005
0
1002
}
  0
CIRCLE
  5
21967
330
747D
100
AcDbEntity
  8
部品1
 48
50.0
100
AcDbCircle
 10
9895.600000000001
 20
7926.082677076042
 30
0.0
 40
35.0
  0
LINE
  5
21968
330
747D
100
AcDbEntity
  8
センター
 48
2.0
100
AcDbLine
 10
9845.600000000001
 20
7926.082677076042
 30
0.0
 11
9945.6
 21
7926.082677076042
 31
0.0
  0
LINE
  5
21969
330
747D
100
AcDbEntity
  8
部品1
 48
50.0
100
AcDbLine
 10
9898.6
 20
7819.082677076041
 30
0.0
 11
9788.600000000002
 21
7819.082677076039
 31
0.0
  0
LINE
  5
2196A
330
747D
100
AcDbEntity
  8
部品1
 48
50.0
100
AcDbLine
 10
9788.600000000002
 20
7819.082677076039
 30
0.0
 11
9788.600000000002
 21
7929.082677076042
 31
0.0
  0
LINE
  5
2196B
330
747D
100
AcDbEntity
  8
センター
 48
2.0
100
AcDbLine
 10
9895.600000000001
 20
7976.082677076042
 30
0.0
 11
9895.600000000001
 21
7876.082677076041
 31
0.0
  0
DIMENSION
  5
2227B
330
747D
100
AcDbEntity
  8
寸法
 48
50.0
100
AcDbDimension
  2
*D27
 10
7328.6
 20
8575.99244272437
 30
0.0
 11
7776.100000000001
 21
8675.992442724369
 31
0.0
 70
    32
 71
     5
 42
895.0
  3
INABA_S40G
100
AcDbAlignedDimension
 13
8223.600000000001
 23
6989.082677076051
 33
0.0
 14
7328.6
 24
7364.082677076043
 34
0.0
100
AcDbRotatedDimension
1001
ACAD
1000
DSTYLE
1002
{
1070
   341
1005
0
1002
}
  0
DIMENSION
  5
222D5
330
747D
100
AcDbEntity
  8
寸法
 48
50.0
100
AcDbDimension
  2
*D28
 10
8223.600000000001
 20
8575.99244272437
 30
0.0
 11
8671.1
 21
8675.992442724369
 31
0.0
 70
    32
 71
     5
 42
895.0
  3
INABA_S40G
100
AcDbAlignedDimension
 13
9118.6
 23
7364.082677076043
 33
0.0
 14
8223.600000000001
 24
6989.082677076051
 34
0.0
100
AcDbRotatedDimension
1001
ACAD
1000
DSTYLE
1002
{
1070
   341
1005
0
1002
}
  0
LINE
  5
236E9
330
747D
100
AcDbEntity
  8
部品1
 48
50.0
100
AcDbLine
 10
8323.6
 20
7039.082677076051
 30
0.0
 11
8123.600000000001
 21
7039.082677076051
 31
0.0
  0
LINE
  5
236EA
330
747D
100
AcDbEntity
  8
センター
 48
2.0
100
AcDbLine
 10
8173.6
 20
6939.082677076051
 30
0.0
 11
8273.6
 21
6939.082677076051
 31
0.0
  0
LINE
  5
236EB
330
747D
100
AcDbEntity
  8
部品1
 48
50.0
100
AcDbLine
 10
8323.6
 20
6839.082677076049
 30
0.0
 11
8123.600000000001
 21
6839.082677076049
 31
0.0
  0
LINE
  5
236EC
330
747D
100
AcDbEntity
  8
部品1
 48
50.0
100
AcDbLine
 10
8323.6
 20
6839.082677076049
 30
0.0
 11
8323.6
 21
7039.082677076051
 31
0.0
  0
LINE
  5
236ED
330
747D
100
AcDbEntity
  8
センター
 48
2.0
100
AcDbLine
 10
8223.600000000001
 20
6989.082677076051
 30
0.0
 11
8223.600000000001
 21
6889.082677076051
 31
0.0
  0
LINE
  5
236EE
330
747D
100
AcDbEntity
  8
部品1
 48
50.0
100
AcDbLine
 10
8123.600000000001
 20
6839.082677076051
 30
0.0
 11
8123.600000000001
 21
7039.082677076051
 31
0.0
  0
DIMENSION
  5
23730
330
747D
100
AcDbEntity
  8
寸法
 48
50.0
100
AcDbDimension
  2
*D29
 10
6868.419958440981
 20
5754.082677076032
 30
0.0
 11
6868.41995844098
 21
5515.387735872139
 31
0.0
 70
   160
 71
     5
 42
195.0000000000154
  3
INABA_S40G
100
AcDbAlignedDimension
 13
6658.600000000001
 23
5949.082677076048
 33
0.0
 14
6658.600000000001
 24
5754.082677076032
 34
0.0
 50
90.0
100
AcDbRotatedDimension
1001
ACAD
1000
DSTYLE
1002
{
1070
   341
1005
0
1002
}
  0
LINE
  5
23A23
330
747D
100
AcDbEntity
  8
想像線
 48
10.0
100
AcDbLine
 10
8727.16214885316
 20
5774.082677076051
 30
0.0
 11
10063.6
 21
5774.082677076048
 31
0.0
  0
LINE
  5
23A24
330
747D
100
AcDbEntity
  8
想像線
 48
10.0
100
AcDbLine
 10
8727.16214885316
 20
8124.082677076042
 30
0.0
 11
10063.6
 21
8124.082677076039
 31
0.0
  0
TEXT
  5
23A25
330
747D
100
AcDbEntity
  8
寸法
 62
     7
100
AcDbText
 10
6953.456352585792
 20
4670.254164561153
 30
0.0
 40
120.0
  1
扉位置 (1768x75)
  7
STYLE1
100
AcDbText
  0
SOLID
  5
23A26
330
747D
100
AcDbEntity
  8
寸法
 48
50.0
100
AcDbTrace
 10
-7160.941652225425
 20
5628.491648171149
 30
0.0
 11
-7177.850857895411
 21
5754.082677076036
 31
0.0
 12
-7121.123437751947
 22
5640.764419140058
 32
0.0
 13
-7121.123437751947
 23
5640.764419140058
 33
0.0
210
0.0
220
0.0
230
-1.0
1001
ACAD
1000
DSTYLE
1002
{
1070
   341
1005
0
1070
    40
1040
1.0
1070
   343
1005
0
1070
   344
1005
0
1002
}
  0
LWPOLYLINE
  5
23A27
330
747D
100
AcDbEntity
  8
寸法
 48
50.0
100
AcDbPolyline
 90
        3
 70
     0
 43
0.0
 10
-7177.850857895411
 20
5754.082677076036
 10
-6836.840393393038
 20
4647.986217012833
 10
-9650.904806324682
 20
4647.986217012833
210
0.0
220
0.0
230
-1.0
1001
ACAD
1000
DSTYLE
1002
{
1070
   341
1005
0
1070
    40
1040
1.0
1070
   343
1005
0
1070
   344
1005
0
1002
}
  0
TEXT
  5
23A28
330
747D
100
AcDbEntity
  8
寸法
 62
     7
100
AcDbText
 10
6953.456352585792
 20
4498.650401677828
 30
0.0
 40
120.0
  1
扉の位置に合わせた基礎形状として下さい。
  7
STYLE1
100
AcDbText
  0
DIMENSION
  5
23A97
330
747D
100
AcDbEntity
  8
寸法
 48
50.0
100
AcDbDimension
  2
*D30
 10
6428.6
 20
5150.096947257303
 30
0.0
 11
7608.425085650889
 21
5150.096947257303
 31
0.0
 70
   160
  1
扉の幅 <>
 71
     5
 42
1768.0
  3
INABA_S40G
100
AcDbAlignedDimension
 13
8196.600000000001
 23
5754.082677076062
 33
0.0
 14
6428.6
 24
5754.082677076033
 34
0.0
100
AcDbRotatedDimension
1001
ACAD
1000
DSTYLE
1002
{
1070
   341
1005
0
1002
}
  0
DIMENSION
  5
23E28
330
747D
100
AcDbEntity
  8
寸法
 48
50.0
100
AcDbDimension
  2
*D31
 10
6192.312481891146
 20
5829.082677076065
 30
0.0
 11
6192.312481891145
 21
5220.597395701827
 31
0.0
 70
   160
  1
扉の出<>
 71
     5
 42
75.00000000000091
  3
INABA_S40G
100
AcDbAlignedDimension
 13
6428.6
 23
5754.082677076065
 33
0.0
 14
6428.600000000007
 24
5829.082677076065
 34
0.0
 50
90.0
100
AcDbRotatedDimension
1001
ACAD
1000
DSTYLE
1002
{
1070
   341
1005
0
1002
}
  0
LINE
  5
24015
330
747D
100
AcDbEntity
  8
部品1
 48
50.0
100
AcDbLine
 10
7975.6
 20
7929.082677076043
 30
0.0
 11
6658.599999999999
 21
7929.082677076042
 31
0.0
  0
LINE
  5
24016
330
747D
100
AcDbEntity
  8
部品1
 48
50.0
100
AcDbLine
 10
9788.600000000002
 20
7929.082677076042
 30
0.0
 11
8235.600000000003
 21
7929.082677076042
 31
0.0
  0
LINE
  5
24017
330
747D
100
AcDbEntity
  8
部品1
 48
50.0
100
AcDbLine
 10
9898.6
 20
6059.082677076058
 30
0.0
 11
9898.6
 21
7819.082677076041
 31
0.0
  0
LINE
  5
24018
330
747D
100
AcDbEntity
  8
部品1
 48
50.0
100
AcDbLine
 10
9788.600000000002
 20
5949.082677076054
 30
0.0
 11
8235.600000000003
 21
5949.082677076052
 31
0.0
  0
LINE
  5
24019
330
747D
100
AcDbEntity
  8
部品1
 48
50.0
100
AcDbLine
 10
7975.6
 20
5949.08267707605
 30
0.0
 11
6658.600000000001
 21
5949.082677076048
 31
0.0
  0
LINE
  5
2401A
330
747D
100
AcDbEntity
  8
部品1
 48
50.0
100
AcDbLine
 10
6548.6
 20
6059.082677076043
 30
0.0
 11
6548.6
 21
7819.082677076041
 31
0.0
  0
LINE
  5
2401B
330
747D
100
AcDbEntity
  8
細線
 48
50.0
100
AcDbLine
 10
7228.6
 20
5919.639236311901
 30
0.0
 11
7258.043440764147
 21
5949.08267707605
 31
0.0
  0
LINE
  5
2401C
330
747D
100
AcDbEntity
  8
細線
 48
50.0
100
AcDbLine
 10
7228.600000000001
 20
5874.737955706557
 30
0.0
 11
7302.944721369494
 21
5949.08267707605
 31
0.0
  0
LINE
  5
2401D
330
747D
100
AcDbEntity
  8
細線
 48
50.0
100
AcDbLine
 10
7228.6
 20
5829.836675101211
 30
0.0
 11
7347.846001974843
 21
5949.08267707605
 31
0.0
  0
LINE
  5
2401E
330
747D
100
AcDbEntity
  8
細線
 48
50.0
100
AcDbLine
 10
7228.6
 20
5784.935394495864
 30
0.0
 11
7392.747282580185
 21
5949.08267707605
 31
0.0
  0
LINE
  5
2401F
330
747D
100
AcDbEntity
  8
細線
 48
50.0
100
AcDbLine
 10
7242.648563185515
 20
5754.082677076033
 30
0.0
 11
7428.600000000002
 21
5940.03411389052
 31
0.0
  0
LINE
  5
24020
330
747D
100
AcDbEntity
  8
細線
 48
50.0
100
AcDbLine
 10
7287.549843790863
 20
5754.082677076035
 30
0.0
 11
7428.6
 21
5895.132833285174
 31
0.0
  0
LINE
  5
24021
330
747D
100
AcDbEntity
  8
細線
 48
50.0
100
AcDbLine
 10
7332.451124396207
 20
5754.082677076034
 30
0.0
 11
7428.600000000002
 21
5850.231552679828
 31
0.0
  0
LINE
  5
24022
330
747D
100
AcDbEntity
  8
細線
 48
50.0
100
AcDbLine
 10
7377.352405001555
 20
5754.082677076036
 30
0.0
 11
7428.600000000002
 21
5805.330272074482
 31
0.0
  0
LINE
  5
24023
330
747D
100
AcDbEntity
  8
細線
 48
50.0
100
AcDbLine
 10
7422.253685606903
 20
5754.082677076037
 30
0.0
 11
7428.6
 21
5760.428991469137
 31
0.0
  0
LINE
  5
24024
330
747D
100
AcDbEntity
  8
細線
 48
50.0
100
AcDbLine
 10
6428.6
 20
7033.12375626472
 30
0.0
 11
6434.558920811321
 21
7039.082677076041
 31
0.0
  0
LINE
  5
24025
330
747D
100
AcDbEntity
  8
細線
 48
50.0
100
AcDbLine
 10
6428.6
 20
6988.222475659374
 30
0.0
 11
6479.460201416668
 21
7039.082677076041
 31
0.0
  0
LINE
  5
24026
330
747D
100
AcDbEntity
  8
細線
 48
50.0
100
AcDbLine
 10
6428.600000000002
 20
6943.321195054029
 30
0.0
 11
6524.361482022015
 21
7039.082677076042
 31
0.0
  0
LINE
  5
24027
330
747D
100
AcDbEntity
  8
細線
 48
50.0
100
AcDbLine
 10
6428.6
 20
6898.419914448684
 30
0.0
 11
6548.599999999999
 21
7018.419914448682
 31
0.0
  0
LINE
  5
24028
330
747D
100
AcDbEntity
  8
細線
 48
50.0
100
AcDbLine
 10
6428.6
 20
6853.518633843338
 30
0.0
 11
6548.599999999999
 21
6973.518633843337
 31
0.0
  0
LINE
  5
24029
330
747D
100
AcDbEntity
  8
細線
 48
50.0
100
AcDbLine
 10
6459.065323838051
 20
6839.082677076041
 30
0.0
 11
6548.6
 21
6928.617353237992
 31
0.0
  0
LINE
  5
2402A
330
747D
100
AcDbEntity
  8
細線
 48
50.0
100
AcDbLine
 10
6503.966604443395
 20
6839.082677076041
 30
0.0
 11
6548.6
 21
6883.716072632646
 31
0.0
  0
LINE
  5
2402B
330
747D
100
AcDbEntity
  8
細線
 48
50.0
100
AcDbLine
 10
7228.6
 20
8014.110950211264
 30
0.0
 11
7263.571726864775
 21
8049.082677076039
 31
0.0
  0
LINE
  5
2402C
330
747D
100
AcDbEntity
  8
細線
 48
50.0
100
AcDbLine
 10
7228.600000000001
 20
7969.209669605918
 30
0.0
 11
7308.473007470123
 21
8049.082677076039
 31
0.0
  0
LINE
  5
2402D
330
747D
100
AcDbEntity
  8
細線
 48
50.0
100
AcDbLine
 10
7233.37428807547
 20
7929.082677076042
 30
0.0
 11
7353.374288075468
 21
8049.082677076039
 31
0.0
  0
LINE
  5
2402E
330
747D
100
AcDbEntity
  8
細線
 48
50.0
100
AcDbLine
 10
7278.275568680816
 20
7929.08267707604
 30
0.0
 11
7398.275568680812
 21
8049.082677076039
 31
0.0
  0
LINE
  5
2402F
330
747D
100
AcDbEntity
  8
細線
 48
50.0
100
AcDbLine
 10
7323.176849286162
 20
7929.08267707604
 30
0.0
 11
7428.6
 21
8034.50582778988
 31
0.0
  0
LINE
  5
24030
330
747D
100
AcDbEntity
  8
細線
 48
50.0
100
AcDbLine
 10
7368.078129891507
 20
7929.082677076042
 30
0.0
 11
7428.600000000002
 21
7989.604547184535
 31
0.0
  0
LINE
  5
24031
330
747D
100
AcDbEntity
  8
細線
 48
50.0
100
AcDbLine
 10
9018.600000000001
 20
8014.110950211263
 30
0.0
 11
9053.571726864776
 21
8049.082677076036
 31
0.0
  0
LINE
  5
24032
330
747D
100
AcDbEntity
  8
細線
 48
50.0
100
AcDbLine
 10
9018.600000000002
 20
7969.209669605916
 30
0.0
 11
9098.47300747012
 21
8049.082677076036
 31
0.0
  0
LINE
  5
24033
330
747D
100
AcDbEntity
  8
細線
 48
50.0
100
AcDbLine
 10
9023.374288075469
 20
7929.082677076042
 30
0.0
 11
9143.374288075468
 21
8049.082677076038
 31
0.0
  0
LINE
  5
24034
330
747D
100
AcDbEntity
  8
細線
 48
50.0
100
AcDbLine
 10
9068.275568680817
 20
7929.08267707604
 30
0.0
 11
9188.275568680813
 21
8049.082677076036
 31
0.0
  0
LINE
  5
24035
330
747D
100
AcDbEntity
  8
細線
 48
50.0
100
AcDbLine
 10
9113.176849286166
 20
7929.08267707604
 30
0.0
 11
9218.600000000002
 21
8034.50582778988
 31
0.0
  0
LINE
  5
24036
330
747D
100
AcDbEntity
  8
細線
 48
50.0
100
AcDbLine
 10
9158.078129891507
 20
7929.08267707604
 30
0.0
 11
9218.600000000002
 21
7989.604547184534
 31
0.0
  0
LINE
  5
24037
330
747D
100
AcDbEntity
  8
細線
 48
50.0
100
AcDbLine
 10
9898.600000000001
 20
7013.123756264717
 30
0.0
 11
9924.558920811319
 21
7039.082677076042
 31
0.0
  0
LINE
  5
24038
330
747D
100
AcDbEntity
  8
細線
 48
50.0
100
AcDbLine
 10
9898.6
 20
6968.222475659378
 30
0.0
 11
9969.460201416664
 21
7039.082677076041
 31
0.0
  0
LINE
  5
24039
330
747D
100
AcDbEntity
  8
細線
 48
50.0
100
AcDbLine
 10
9898.6
 20
6923.321195054031
 30
0.0
 11
10014.36148202201
 21
7039.082677076042
 31
0.0
  0
LINE
  5
2403A
330
747D
100
AcDbEntity
  8
細線
 48
50.0
100
AcDbLine
 10
9898.6
 20
6878.419914448689
 30
0.0
 11
10018.6
 21
6998.419914448688
 31
0.0
  0
LINE
  5
2403B
330
747D
100
AcDbEntity
  8
細線
 48
50.0
100
AcDbLine
 10
9904.164043232704
 20
6839.082677076044
 30
0.0
 11
10018.6
 21
6953.518633843343
 31
0.0
  0
LINE
  5
2403C
330
747D
100
AcDbEntity
  8
細線
 48
50.0
100
AcDbLine
 10
9949.065323838048
 20
6839.082677076042
 30
0.0
 11
10018.6
 21
6908.617353237997
 31
0.0
  0
LINE
  5
2403D
330
747D
100
AcDbEntity
  8
細線
 48
50.0
100
AcDbLine
 10
9993.966604443391
 20
6839.082677076041
 30
0.0
 11
10018.6
 21
6863.716072632652
 31
0.0
  0
LINE
  5
2403E
330
747D
100
AcDbEntity
  8
細線
 48
50.0
100
AcDbLine
 10
9018.600000000001
 20
5894.110950211278
 30
0.0
 11
9073.571726864773
 21
5949.082677076052
 31
0.0
  0
LINE
  5
2403F
330
747D
100
AcDbEntity
  8
細線
 48
50.0
100
AcDbLine
 10
9018.600000000002
 20
5849.209669605933
 30
0.0
 11
9118.473007470118
 21
5949.082677076053
 31
0.0
  0
LINE
  5
24040
330
747D
100
AcDbEntity
  8
細線
 48
50.0
100
AcDbLine
 10
9043.374288075469
 20
5829.082677076056
 30
0.0
 11
9163.374288075464
 21
5949.082677076052
 31
0.0
  0
LINE
  5
24041
330
747D
100
AcDbEntity
  8
細線
 48
50.0
100
AcDbLine
 10
9088.275568680817
 20
5829.082677076056
 30
0.0
 11
9208.275568680813
 21
5949.082677076053
 31
0.0
  0
LINE
  5
24042
330
747D
100
AcDbEntity
  8
細線
 48
50.0
100
AcDbLine
 10
9133.176849286162
 20
5829.082677076056
 30
0.0
 11
9218.600000000002
 21
5914.505827789896
 31
0.0
  0
LINE
  5
24043
330
747D
100
AcDbEntity
  8
細線
 48
50.0
100
AcDbLine
 10
9178.078129891506
 20
5829.082677076056
 30
0.0
 11
9218.600000000002
 21
5869.60454718455
 31
0.0
  0
TEXT
  5
24212
330
747D
100
AcDbEntity
  8
文字
 62
     7
 48
50.0
100
AcDbText
 10
16307.26589149588
 20
-0.3499129178489966
 30
0.0
 40
1.0
  1
sy
  7
STYLE2
100
AcDbText
  0
LWPOLYLINE
  5
24213
330
747D
100
AcDbEntity
  8
部品1
 48
50.0
100
AcDbPolyline
 90
        2
 70
     0
 43
10.0
 10
8781.458593922556
 20
1869.381065474546
 10
9148.586673171783
 20
1869.381065474546
  0
TEXT
  5
24214
330
747D
100
AcDbEntity
  8
部品1
 48
50.0
100
AcDbText
 10
8786.900574278089
 20
2614.229416427296
 30
0.0
 40
100.0
  1
基礎ボルト(市販品)
  7
STYLE2
100
AcDbText
  0
LINE
  5
24215
330
747D
100
AcDbEntity
  8
部品1
 48
50.0
100
AcDbLine
 10
8781.458593922556
 20
1489.381065474545
 30
0.0
 11
8941.458593922552
 21
1489.381065474545
 31
0.0
  0
LINE
  5
24216
330
747D
100
AcDbEntity
  8
細線
 48
50.0
100
AcDbLine
 10
8713.623212616061
 20
1189.381065474545
 30
0.0
 11
8941.458593922552
 21
1417.21644678104
 31
0.0
  0
DIMENSION
  5
24217
330
747D
100
AcDbEntity
  8
寸法
 48
50.0
100
AcDbDimension
  2
*D32
 10
9408.794343633609
 20
1764.381065474543
 30
0.0
 11
9308.794343633609
 21
1966.881065474545
 31
0.0
 70
    32
  1
180
 71
     5
 42
405.0000000000015
  3
INABA_S40G
100
AcDbAlignedDimension
 13
8781.458593922556
 23
2169.381065474545
 33
0.0
 14
8781.458593922556
 24
1764.381065474543
 34
0.0
 50
90.0
100
AcDbRotatedDimension
1001
ACAD
1000
DSTYLE
1002
{
1070
   341
1005
0
1002
}
  0
LINE
  5
24218
330
747D
100
AcDbEntity
  8
部品1
100
AcDbLine
 10
11916.58345699731
 20
3820.5955901956
 30
0.0
 11
5020.108760899276
 21
3820.5955901956
 31
0.0
  0
LINE
  5
24219
330
747D
100
AcDbEntity
  8
部品1
100
AcDbLine
 10
11916.58345699731
 20
3520.5955901956
 30
0.0
 11
5020.108760899276
 21
3520.5955901956
 31
0.0
  0
LINE
  5
2421A
330
747D
100
AcDbEntity
  8
部品1
100
AcDbLine
 10
5020.108760899276
 20
561.5260908409132
 30
0.0
 11
11916.58345699731
 21
561.5260908409132
 31
0.0
  0
LINE
  5
2421B
330
747D
100
AcDbEntity
  8
部品1
 48
50.0
100
AcDbLine
 10
9041.458593922554
 20
1189.381065474545
 30
0.0
 11
8003.958593922556
 21
1189.381065474545
 31
0.0
  0
LINE
  5
2421C
330
747D
100
AcDbEntity
  8
部品1
 48
50.0
100
AcDbLine
 10
9041.458593922554
 20
1029.381065474545
 30
0.0
 11
8003.958593922556
 21
1029.381065474545
 31
0.0
  0
LINE
  5
2421D
330
747D
100
AcDbEntity
  8
細線
 48
50.0
100
AcDbLine
 10
8646.271291708044
 20
1189.381065474545
 30
0.0
 11
8941.458593922552
 21
1484.568367689054
 31
0.0
  0
DIMENSION
  5
2421E
330
747D
100
AcDbEntity
  8
寸法
 48
50.0
100
AcDbDimension
  2
*D33
 10
9753.862676282388
 20
2169.381065474544
 30
0.0
 11
9753.862676282388
 21
1703.372162053063
 31
0.0
 70
   160
  1
20～25
 71
     5
 42
65.94999999999981
  3
INABA_S40G
100
AcDbAlignedDimension
 13
8547.458593922554
 23
2235.331065474545
 33
0.0
 14
8781.458593922556
 24
2169.381065474545
 34
0.0
 50
90.0
100
AcDbRotatedDimension
1001
ACAD
1000
DSTYLE
1002
{
1070
   341
1005
0
1002
}
  0
MTEXT
  5
2421F
102
{ACAD_REACTORS
330
24220
102
}
330
747D
100
AcDbEntity
  8
部品1
 62
     7
 48
50.0
100
AcDbMText
 10
8792.639171946701
 20
2499.860223166083
 30
0.0
 40
100.0
 41
1.0
 71
     4
 72
     1
  1
M10X160
  7
STYLE2
 73
     1
 44
1.0
1001
ACAD
1000
MTEXTBEGIN
1070
    73
1070
     1
1070
    44
1040
1.0
1070
    74
1070
     0
1000
MTEXTEND
  0
LEADER
  5
24220
330
747D
100
AcDbEntity
  8
寸法
 48
50.0
100
AcDbLeader
  3
INABA_S40G
 73
     0
 74
     0
 75
     1
 40
100.0
 41
543.75
 76
     3
 10
8551.958593922552
 20
2230.831065474546
 30
0.0
 10
8652.639171946701
 20
2409.860223166083
 30
0.0
 10
8752.639171946702
 20
2409.860223166083
 30
0.0
340
2421F
1001
ACAD
1000
DSTYLE
1002
{
1070
   341
1005
0
1002
}
  0
MTEXT
  5
24221
102
{ACAD_REACTORS
330
24222
102
}
330
747D
100
AcDbEntity
  8
部品1
 62
     7
 48
50.0
100
AcDbMText
 10
8791.15105781425
 20
3276.211635289605
 30
0.0
 40
100.0
 41
1.0
 71
     4
 72
     1
  1
\A1;ナット(市販品)
  7
STYLE2
 73
     1
 44
1.0
1001
ACAD
1000
MTEXTBEGIN
1070
    73
1070
     1
1070
    44
1040
1.0
1070
    74
1070
     0
1000
MTEXTEND
  0
LEADER
  5
24222
330
747D
100
AcDbEntity
  8
寸法
 48
50.0
100
AcDbLeader
  3
INABA_S40G
 73
     0
 74
     0
 75
     1
 40
127.8409090909091
 41
850.0
 76
     3
 10
8560.708593922553
 20
2667.975166860974
 30
0.0
 10
8651.151057814251
 20
3172.291180744151
 30
0.0
 10
8751.151057814251
 20
3172.291180744151
 30
0.0
340
24221
1001
ACAD
1000
DSTYLE
1002
{
1070
   341
1005
0
1002
}
  0
LEADER
  5
24223
330
747D
100
AcDbEntity
  8
寸法
 48
50.0
100
AcDbLeader
  3
INABA_S40G
 73
     0
 74
     0
 75
     1
 40
127.8409090909091
 41
1133.522727272727
 76
     3
 10
8590.708593922553
 20
2505.785176029895
 30
0.0
 10
8690.548081883603
 20
2941.079827288165
 30
0.0
 10
8790.548081883605
 20
2941.079827288165
 30
0.0
340
24224
1001
ACAD
1000
DSTYLE
1002
{
1070
   341
1005
0
1002
}
  0
MTEXT
  5
24224
102
{ACAD_REACTORS
330
24223
102
}
330
747D
100
AcDbEntity
  8
部品1
 62
     7
 48
50.0
100
AcDbMText
 10
8830.548081883604
 20
3045.00028183362
 30
0.0
 40
100.0
 41
1.0
 71
     4
 72
     1
  1
\A1;ワッシャー(市販品)
  7
STYLE2
 73
     1
 44
1.0
1001
ACAD
1000
MTEXTBEGIN
1070
    73
1070
     1
1070
    44
1040
1.0
1070
    74
1070
     0
1000
MTEXTEND
  0
LINE
  5
24225
330
747D
100
AcDbEntity
  8
細線
 48
50.0
100
AcDbLine
 10
8679.947252162056
 20
1189.381065474545
 30
0.0
 11
8941.458593922552
 21
1450.892407235037
 31
0.0
  0
TEXT
  5
24226
330
747D
100
AcDbEntity
  8
部品1
100
AcDbText
 10
8026.037869415924
 20
3596.155675256316
 30
0.0
 40
150.0
  1
基礎詳細
  7
STYLE2
100
AcDbText
  0
LINE
  5
24227
330
747D
100
AcDbEntity
  8
部品1
100
AcDbLine
 10
5020.108760899281
 20
3820.5955901956
 30
0.0
 11
5020.108760899281
 21
561.5260908409132
 31
0.0
  0
LEADER
  5
24228
330
747D
100
AcDbEntity
  8
寸法
 48
50.0
100
AcDbLeader
  3
INABA_S40G
 73
     0
 75
     1
 40
141.4772727272727
 41
760.7954545454546
 76
     3
 10
8501.629531595114
 20
2106.275657172393
 30
0.0
 10
8286.874745730932
 20
3161.74951011799
 30
0.0
 10
8186.874745730932
 20
3161.74951011799
 30
0.0
340
24229
1001
ACAD
1000
DSTYLE
1002
{
1070
   341
1005
0
1002
}
  0
MTEXT
  5
24229
102
{ACAD_REACTORS
330
24228
102
}
330
747D
100
AcDbEntity
  8
寸法
 62
     7
 48
50.0
100
AcDbMText
 10
8146.874745730933
 20
3272.488146481626
 30
0.0
 40
100.0
 41
1.0
 71
     6
 72
     1
  1
\A1;φ70スリーブ
  7
STYLE2
 73
     1
 44
1.0
1001
ACAD
1000
MTEXTBEGIN
1070
    73
1070
     1
1070
    44
1040
1.0
1070
    74
1070
     0
1000
MTEXTEND
  0
MTEXT
  5
2422A
102
{ACAD_REACTORS
330
2422B
102
}
330
747D
100
AcDbEntity
  8
寸法
 62
     7
 48
50.0
100
AcDbMText
 10
6027.346884672553
 20
1671.006818996366
 30
0.0
 40
100.0
 41
1.0
 71
     6
 72
     1
  1
\A1;D10@300
  7
STYLE2
 73
     1
 44
1.0
1001
ACAD
1000
MTEXTBEGIN
1070
    73
1070
     1
1070
    44
1040
1.0
1070
    74
1070
     0
1000
MTEXTEND
  0
LEADER
  5
2422B
330
747D
100
AcDbEntity
  8
寸法
 48
50.0
100
AcDbLeader
  3
INABA_S40G
 71
     0
 73
     0
 75
     1
 40
100.0
 41
540.3409090909091
 76
     3
 10
6268.909452451062
 20
1867.040083845948
 30
0.0
 10
6140.181656790189
 20
1590.202173169943
 30
0.0
 10
6040.181656790188
 20
1590.202173169943
 30
0.0
213
-12.16522788236671
223
-5.804645826423211
233
0.0
1001
ACAD
1000
DSTYLE
1002
{
1070
   341
1005
0
1002
}
  0
LEADER
  5
2422C
330
747D
100
AcDbEntity
  8
寸法
 48
50.0
100
AcDbLeader
  3
INABA_S40G
 71
     0
 73
     0
 75
     1
 40
130.1136363636363
 41
651.1363636363636
 76
     3
 10
6238.909452451061
 20
2169.381065474545
 30
0.0
 10
6179.991452532779
 20
2344.969522295279
 30
0.0
 10
6079.991452532779
 20
2344.969522295279
 30
0.0
1001
ACAD
1000
DSTYLE
1002
{
1070
   341
1005
0
1002
}
  0
MTEXT
  5
2422D
102
{ACAD_REACTORS
330
2422C
102
}
330
747D
100
AcDbEntity
  8
寸法
 62
     7
 48
50.0
100
AcDbMText
 10
6054.991452532778
 20
2435.026340477098
 30
0.0
 40
100.0
 41
1.0
 71
     6
 72
     1
  1
\A1;金コテ押エ
  7
STYLE2
 73
     1
 44
1.0
1001
ACAD
1000
MTEXTBEGIN
1070
    73
1070
     1
1070
    44
1040
1.0
1070
    74
1070
     0
1000
MTEXTEND
  0
DIMENSION
  5
2422E
330
747D
100
AcDbEntity
  8
寸法
 48
50.0
100
AcDbDimension
  2
*D34
 10
5378.264514414996
 20
1189.381065474545
 30
0.0
 11
5378.264514414996
 21
1679.381065474545
 31
0.0
 70
   160
  1
540
 71
     5
 42
980.0
  3
INABA_S40G
100
AcDbAlignedDimension
 13
6138.909452451059
 23
2169.381065474545
 33
0.0
 14
5878.909452451065
 24
1189.381065474545
 34
0.0
 50
90.0
100
AcDbRotatedDimension
1001
ACAD
1000
DSTYLE
1002
{
1070
   341
1005
0
1002
}
  0
MTEXT
  5
2422F
102
{ACAD_REACTORS
330
24230
102
}
330
747D
100
AcDbEntity
  8
寸法
 62
     7
 48
50.0
100
AcDbMText
 10
5800.394079153861
 20
859.5825077771952
 30
0.0
 40
100.0
 41
1.0
 71
     6
 72
     1
  1
D13
  7
STYLE2
 73
     1
 44
1.0
1001
ACAD
1000
MTEXTBEGIN
1070
    73
1070
     1
1070
    44
1040
1.0
1070
    74
1070
     0
1000
MTEXTEND
  0
LEADER
  5
24230
330
747D
100
AcDbEntity
  8
寸法
 48
50.0
100
AcDbLeader
  3
INABA_S40G
 71
     0
 73
     0
 75
     1
 40
100.0
 41
222.7272727272727
 76
     3
 10
6258.90945245106
 20
1339.381065474545
 30
0.0
 10
5925.394079153861
 20
784.5825077771952
 30
0.0
 10
5825.394079153861
 20
784.5825077771952
 30
0.0
1001
ACAD
1000
DSTYLE
1002
{
1070
   341
1005
0
1002
}
  0
DIMENSION
  5
24231
330
747D
100
AcDbEntity
  8
寸法
 48
50.0
100
AcDbDimension
  2
*D35
 10
6538.909452451061
 20
730.4289590186108
 30
0.0
 11
6258.90945245106
 21
730.4289590186108
 31
0.0
 70
   160
  1
300
 71
     5
 42
560.0000000000018
  3
INABA_S40G
100
AcDbAlignedDimension
 13
5978.909452451059
 23
1029.381065474544
 33
0.0
 14
6538.909452451061
 24
1029.381065474544
 34
0.0
100
AcDbRotatedDimension
1001
ACAD
1000
DSTYLE
1002
{
1070
   341
1005
0
1002
}
  0
LEADER
  5
24232
330
747D
100
AcDbEntity
  8
寸法
 48
50.0
100
AcDbLeader
  3
INABA_S40G
 73
     0
 75
     1
 40
132.9545454545455
 41
1129.404378023068
 76
     3
 10
8428.208593922551
 20
2256.331065474546
 30
0.0
 10
8320.178503491382
 20
2715.155533869961
 30
0.0
 10
8220.17850349138
 20
2715.155533869961
 30
0.0
340
24233
1001
ACAD
1000
DSTYLE
1002
{
1070
   341
1005
0
1002
}
  0
MTEXT
  5
24233
102
{ACAD_REACTORS
330
24232
102
}
330
747D
100
AcDbEntity
  8
寸法
 62
     7
 48
50.0
100
AcDbMText
 10
8180.178503491381
 20
2821.632806597234
 30
0.0
 40
100.0
 41
1.0
 71
     6
 72
     1
  1
アンカープレート {\fArial|b0|i0|c0|p32;U}
  7
STYLE2
 73
     1
 44
1.0
1001
ACAD
1000
MTEXTBEGIN
1070
    73
1070
     1
1070
    44
1040
1.0
1070
    74
1070
     0
1000
MTEXTEND
  0
LEADER
  5
24234
330
747D
100
AcDbEntity
  8
寸法
 48
50.0
100
AcDbLeader
  3
INABA_S40G
 71
     0
 73
     0
 74
     0
 75
     1
 40
100.0
 41
540.3409090909091
 76
     3
 10
6351.340913717526
 20
1318.455402457637
 30
0.0
 10
6556.082522277624
 20
891.416879964016
 30
0.0
 10
6656.082522277625
 20
891.416879964016
 30
0.0
213
0.0
223
-1.277828345336728
233
0.0
1001
ACAD
1000
DSTYLE
1002
{
1070
   341
1005
0
1002
}
  0
MTEXT
  5
24235
102
{ACAD_REACTORS
330
24234
102
}
330
747D
100
AcDbEntity
  8
寸法
 62
     7
 48
50.0
100
AcDbMText
 10
6681.082522277624
 20
967.6947083093526
 30
0.0
 40
100.0
 41
1.0
 71
     4
 72
     1
  1
\A1;D10@300
  7
STYLE2
 73
     1
 44
1.0
1001
ACAD
1000
MTEXTBEGIN
1070
    73
1070
     1
1070
    44
1040
1.0
1070
    74
1070
     0
1000
MTEXTEND
  0
CIRCLE
  5
24236
330
747D
100
AcDbEntity
  8
部品1
 48
50.0
100
AcDbCircle
 10
6258.90945245106
 20
1994.69910221735
 30
0.0
 40
10.0
  0
LINE
  5
24237
330
747D
100
AcDbEntity
  8
細線
 48
50.0
100
AcDbLine
 10
6288.909452451061
 20
1967.347181309333
 30
0.0
 11
6378.90945245106
 21
2057.347181309333
 31
0.0
  0
MTEXT
  5
24238
102
{ACAD_REACTORS
330
2423D
102
}
330
747D
100
AcDbEntity
  8
寸法
 62
     7
 48
50.0
100
AcDbMText
 10
6482.516873735304
 20
1995.965517098204
 30
0.0
 40
100.0
 41
1.0
 71
     4
 72
     1
  1
D13
  7
STYLE2
 73
     1
 44
1.0
1001
ACAD
1000
MTEXTBEGIN
1070
    73
1070
     1
1070
    44
1040
1.0
1070
    74
1070
     0
1000
MTEXTEND
  0
TEXT
  5
24239
330
747D
100
AcDbEntity
  8
部品1
 48
50.0
100
AcDbText
 10
5621.234575159865
 20
1883.429805828614
 30
0.0
 40
100.0
  1
▽G.L
  7
STYLE2
100
AcDbText
  0
ARC
  5
2423A
330
747D
100
AcDbEntity
  8
部品1
 48
50.0
100
AcDbCircle
 10
6258.90945245106
 20
1994.69910221735
 30
0.0
 40
30.0
100
AcDbArc
 50
0.0
 51
180.0
  0
LINE
  5
2423B
330
747D
100
AcDbEntity
  8
部品1
 48
50.0
100
AcDbLine
 10
6138.909452451059
 20
1489.381065474545
 30
0.0
 11
6138.909452451059
 21
2169.381065474545
 31
0.0
  0
LINE
  5
2423C
330
747D
100
AcDbEntity
  8
部品1
 48
50.0
100
AcDbLine
 10
6378.90945245106
 20
2169.381065474545
 30
0.0
 11
6378.90945245106
 21
1489.381065474545
 31
0.0
  0
LEADER
  5
2423D
330
747D
100
AcDbEntity
  8
寸法
 48
50.0
100
AcDbLeader
  3
INABA_S40G
 71
     0
 73
     0
 74
     0
 75
     1
 40
100.0
 41
222.7272727272727
 76
     3
 10
6258.90945245106
 20
1994.699102217351
 30
0.0
 10
6357.516873735303
 20
1920.965517098204
 30
0.0
 10
6457.516873735304
 20
1920.965517098204
 30
0.0
1001
ACAD
1000
DSTYLE
1002
{
1070
   341
1005
0
1002
}
  0
LINE
  5
2423E
330
747D
100
AcDbEntity
  8
細線
 48
50.0
100
AcDbLine
 10
6288.909452451068
 20
1697.939497677258
 30
0.0
 11
6378.909452451053
 21
1787.939497677258
 31
0.0
  0
LINE
  5
2423F
330
747D
100
AcDbEntity
  8
細線
 48
50.0
100
AcDbLine
 10
6288.909452451068
 20
1731.615458131271
 30
0.0
 11
6378.909452451053
 21
1821.615458131264
 31
0.0
  0
LINE
  5
24240
330
747D
100
AcDbEntity
  8
細線
 48
50.0
100
AcDbLine
 10
6288.909452451068
 20
1428.531814045183
 30
0.0
 11
6378.909452451053
 21
1518.531814045184
 31
0.0
  0
LINE
  5
24241
330
747D
100
AcDbEntity
  8
細線
 48
50.0
100
AcDbLine
 10
6288.909452451068
 20
1495.883734953206
 30
0.0
 11
6378.909452451053
 21
1585.883734953202
 31
0.0
  0
LINE
  5
24242
330
747D
100
AcDbEntity
  8
細線
 48
50.0
100
AcDbLine
 10
6288.909452451068
 20
1462.207774499195
 30
0.0
 11
6378.909452451053
 21
1552.207774499189
 31
0.0
  0
LEADER
  5
24243
330
747D
100
AcDbEntity
  8
寸法
 48
50.0
100
AcDbLeader
  3
INABA_S40G
 71
     0
 73
     0
 74
     0
 75
     1
 40
100.0
 41
222.7272727272727
 76
     3
 10
6258.909452451069
 20
1667.040083845948
 30
0.0
 10
6357.516873735312
 20
1593.3064987268
 30
0.0
 10
6457.516873735312
 20
1593.3064987268
 30
0.0
1001
ACAD
1000
DSTYLE
1002
{
1070
   341
1005
0
1002
}
  0
LINE
  5
24244
330
747D
100
AcDbEntity
  8
細線
 48
50.0
100
AcDbLine
 10
6333.998058005136
 20
1029.381065474545
 30
0.0
 11
6376.869928794118
 21
1189.381065474543
 31
0.0
  0
LINE
  5
24245
330
747D
100
AcDbEntity
  8
細線
 48
50.0
100
AcDbLine
 10
6342.036533778077
 20
1059.381065474545
 30
0.0
 11
6350.075009551011
 21
1029.381065474545
 31
0.0
  0
LINE
  5
24246
330
747D
100
AcDbEntity
  8
細線
 48
50.0
100
AcDbLine
 10
6251.814466604479
 20
1189.381065474545
 30
0.0
 11
6371.814466604479
 21
1309.381065474545
 31
0.0
  0
LINE
  5
24247
330
747D
100
AcDbEntity
  8
細線
 48
50.0
100
AcDbLine
 10
6285.490427058491
 20
1189.381065474545
 30
0.0
 11
6405.49042705849
 21
1309.381065474545
 31
0.0
  0
LINE
  5
24248
330
747D
100
AcDbEntity
  8
細線
 48
50.0
100
AcDbLine
 10
6319.166387512496
 20
1189.381065474545
 30
0.0
 11
6439.167497318917
 21
1309.382175280969
 31
0.0
  0
LINE
  5
24249
330
747D
100
AcDbEntity
  8
部品1
 48
50.0
100
AcDbLine
 10
6638.909452451064
 20
1029.381065474545
 30
0.0
 11
5878.909452451065
 21
1029.381065474545
 31
0.0
  0
LINE
  5
2424A
330
747D
100
AcDbEntity
  8
部品1
 48
50.0
100
AcDbLine
 10
6638.909452451064
 20
1189.381065474545
 30
0.0
 11
5878.909452451065
 21
1189.381065474545
 31
0.0
  0
LINE
  5
2424B
330
747D
100
AcDbEntity
  8
部品1
 48
50.0
100
AcDbLine
 10
6048.909452451059
 20
1309.381065474545
 30
0.0
 11
6468.909452451061
 21
1309.381065474545
 31
0.0
  0
LINE
  5
2424C
330
747D
100
AcDbEntity
  8
部品1
 48
50.0
100
AcDbLine
 10
6048.909452451059
 20
1329.381065474545
 30
0.0
 11
6468.909452451061
 21
1329.381065474545
 31
0.0
  0
LINE
  5
2424D
330
747D
100
AcDbEntity
  8
細線
 48
50.0
100
AcDbLine
 10
6288.909452451061
 20
1765.291418585277
 30
0.0
 11
6378.90945245106
 21
1855.291418585277
 31
0.0
  0
LINE
  5
2424E
330
747D
100
AcDbEntity
  8
細線
 48
50.0
100
AcDbLine
 10
5978.909452451053
 20
1387.939497677258
 30
0.0
 11
6080.351020248347
 21
1489.381065474545
 31
0.0
  0
DIMENSION
  5
2424F
330
747D
100
AcDbEntity
  8
寸法
 48
50.0
100
AcDbDimension
  2
*D36
 10
5800.884060285485
 20
1189.381065474545
 30
0.0
 11
5800.884060285485
 21
1339.381065474545
 31
0.0
 70
   160
  1
150
 71
     5
 42
300.0
  3
INABA_S40G
100
AcDbAlignedDimension
 13
5978.909452451059
 23
1489.381065474545
 33
0.0
 14
5878.909452451065
 24
1189.381065474545
 34
0.0
 50
90.0
100
AcDbRotatedDimension
1001
ACAD
1000
DSTYLE
1002
{
1070
   341
1005
0
1002
}
  0
LINE
  5
24250
330
747D
100
AcDbEntity
  8
部品1
 48
50.0
100
AcDbLine
 10
5978.909452451059
 20
1189.381065474545
 30
0.0
 11
5978.909452451059
 21
1489.381065474545
 31
0.0
  0
LINE
  5
24251
330
747D
100
AcDbEntity
  8
細線
 48
50.0
100
AcDbLine
 10
6238.741761797815
 20
1412.040083845948
 30
0.0
 11
6268.909452451067
 21
1442.207774499196
 31
0.0
  0
LINE
  5
24252
330
747D
100
AcDbEntity
  8
細線
 48
50.0
100
AcDbLine
 10
6122.406782972403
 20
1329.381065474545
 30
0.0
 11
6268.909452451062
 21
1475.883734953202
 31
0.0
  0
LINE
  5
24253
330
747D
100
AcDbEntity
  8
部品1
 48
50.0
100
AcDbLine
 10
6288.909452451068
 20
1339.381065474545
 30
0.0
 11
6288.909452451061
 21
1994.69910221735
 31
0.0
  0
LINE
  5
24254
330
747D
100
AcDbEntity
  8
部品1
 48
50.0
100
AcDbLine
 10
6268.909452451067
 20
1339.381065474545
 30
0.0
 11
6268.909452451053
 21
1994.69910221735
 31
0.0
  0
LEADER
  5
24255
330
747D
100
AcDbEntity
  8
寸法
 48
50.0
100
AcDbLeader
  3
INABA_S40G
 71
     0
 73
     0
 75
     1
 40
100.0
 41
225.0
 76
     3
 10
6098.788142891239
 20
1339.381065474545
 30
0.0
 10
5890.240669707067
 20
1009.977698451499
 30
0.0
 10
5790.240669707067
 20
1009.977698451499
 30
0.0
1001
ACAD
1000
DSTYLE
1002
{
1070
   341
1005
0
1002
}
  0
LINE
  5
24256
330
747D
100
AcDbEntity
  8
部品1
 48
50.0
100
AcDbLine
 10
5878.909452451065
 20
1029.381065474545
 30
0.0
 11
5878.909452451065
 21
1189.381065474545
 31
0.0
  0
MTEXT
  5
24257
102
{ACAD_REACTORS
330
24255
102
}
330
747D
100
AcDbEntity
  8
寸法
 62
     7
 48
50.0
100
AcDbMText
 10
5765.240669707067
 20
1084.977698451499
 30
0.0
 40
100.0
 41
1.0
 71
     6
 72
     1
  1
D10
  7
STYLE2
 73
     1
 44
1.0
1001
ACAD
1000
MTEXTBEGIN
1070
    73
1070
     1
1070
    44
1040
1.0
1070
    74
1070
     0
1000
MTEXTEND
  0
LINE
  5
24258
330
747D
100
AcDbEntity
  8
細線
 48
50.0
100
AcDbLine
 10
5878.909452451059
 20
1171.05596668177
 30
0.0
 11
5883.819647873805
 21
1189.381065474545
 31
0.0
  0
LINE
  5
24259
330
747D
100
AcDbEntity
  8
細線
 48
50.0
100
AcDbLine
 10
6136.777945637014
 20
1029.381065474543
 30
0.0
 11
6179.649816425992
 21
1189.381065474543
 31
0.0
  0
LINE
  5
2425A
330
747D
100
AcDbEntity
  8
細線
 48
50.0
100
AcDbLine
 10
5939.557833268884
 20
1029.381065474543
 30
0.0
 11
5982.429704057862
 21
1189.381065474543
 31
0.0
  0
LINE
  5
2425B
330
747D
100
AcDbEntity
  8
細線
 48
50.0
100
AcDbLine
 10
6038.167889452956
 20
1029.381065474545
 30
0.0
 11
6081.039760241934
 21
1189.381065474545
 31
0.0
  0
LINE
  5
2425C
330
747D
100
AcDbEntity
  8
細線
 48
50.0
100
AcDbLine
 10
6235.388001821076
 20
1029.381065474545
 30
0.0
 11
6278.259872610057
 21
1189.381065474545
 31
0.0
  0
LINE
  5
2425D
330
747D
100
AcDbEntity
  8
細線
 48
50.0
100
AcDbLine
 10
6046.20636522589
 20
1059.381065474545
 30
0.0
 11
6054.244840998822
 21
1029.381065474545
 31
0.0
  0
LINE
  5
2425E
330
747D
100
AcDbEntity
  8
細線
 48
50.0
100
AcDbLine
 10
5947.596309041824
 20
1059.381065474545
 30
0.0
 11
5955.634784814758
 21
1029.381065474545
 31
0.0
  0
LINE
  5
2425F
330
747D
100
AcDbEntity
  8
細線
 48
50.0
100
AcDbLine
 10
6144.816421409954
 20
1059.381065474545
 30
0.0
 11
6152.854897182887
 21
1029.381065474545
 31
0.0
  0
LINE
  5
24260
330
747D
100
AcDbEntity
  8
細線
 48
50.0
100
AcDbLine
 10
6243.42647759402
 20
1059.381065474545
 30
0.0
 11
6251.464953366952
 21
1029.381065474545
 31
0.0
  0
LINE
  5
24261
330
747D
100
AcDbEntity
  8
細線
 48
50.0
100
AcDbLine
 10
6049.758703880421
 20
1189.381065474545
 30
0.0
 11
6169.758703880422
 21
1309.381065474545
 31
0.0
  0
LINE
  5
24262
330
747D
100
AcDbEntity
  8
部品1
 48
50.0
100
AcDbLine
 10
6048.909452451059
 20
1329.381065474545
 30
0.0
 11
6048.909452451059
 21
1309.381065474545
 31
0.0
  0
CIRCLE
  5
24263
330
747D
100
AcDbEntity
  8
部品1
 48
50.0
100
AcDbCircle
 10
6098.909452451059
 20
1339.381065474545
 30
0.0
 40
10.0
  0
LINE
  5
24264
330
747D
100
AcDbEntity
  8
細線
 48
50.0
100
AcDbLine
 10
6073.001284469
 20
1159.381065474545
 30
0.0
 11
6064.962808696067
 21
1189.381065474545
 31
0.0
  0
LINE
  5
24265
330
747D
100
AcDbEntity
  8
細線
 48
50.0
100
AcDbLine
 10
5974.391228284936
 20
1159.381065474545
 30
0.0
 11
5966.352752512002
 21
1189.381065474545
 31
0.0
  0
LINE
  5
24266
330
747D
100
AcDbEntity
  8
細線
 48
50.0
100
AcDbLine
 10
6016.082743426416
 20
1189.381065474545
 30
0.0
 11
6136.082743426416
 21
1309.381065474545
 31
0.0
  0
LINE
  5
24267
330
747D
100
AcDbEntity
  8
細線
 48
50.0
100
AcDbLine
 10
5982.406782972403
 20
1189.381065474545
 30
0.0
 11
6102.406782972402
 21
1309.381065474545
 31
0.0
  0
LINE
  5
24268
330
747D
100
AcDbEntity
  8
細線
 48
50.0
100
AcDbLine
 10
6248.909452451061
 20
1388.531814045183
 30
0.0
 11
6268.909452451067
 21
1408.531814045183
 31
0.0
  0
CIRCLE
  5
24269
330
747D
100
AcDbEntity
  8
部品1
 48
50.0
100
AcDbCircle
 10
6258.90945245106
 20
1339.381065474545
 30
0.0
 40
10.0
  0
LINE
  5
2426A
330
747D
100
AcDbEntity
  8
部品1
 48
50.0
100
AcDbLine
 10
6248.909452451061
 20
1412.040083845948
 30
0.0
 11
6248.909452451061
 21
1339.381065474545
 31
0.0
  0
ARC
  5
2426B
330
747D
100
AcDbEntity
  8
部品1
 48
50.0
100
AcDbCircle
 10
6258.90945245106
 20
1339.381065474545
 30
0.0
 40
30.0
100
AcDbArc
 50
340.5287793655164
 51
0.0
  0
LINE
  5
2426C
330
747D
100
AcDbEntity
  8
細線
 48
50.0
100
AcDbLine
 10
6270.221396837131
 20
1159.381065474545
 30
0.0
 11
6262.182921064198
 21
1189.381065474545
 31
0.0
  0
LINE
  5
2426D
330
747D
100
AcDbEntity
  8
部品1
 48
50.0
100
AcDbLine
 10
6228.909452451059
 20
1412.040083845948
 30
0.0
 11
6228.909452451059
 21
1339.381065474545
 31
0.0
  0
ARC
  5
2426E
330
747D
100
AcDbEntity
  8
部品1
 48
50.0
100
AcDbCircle
 10
6258.90945245106
 20
1339.381065474545
 30
0.0
 40
30.0
100
AcDbArc
 50
180.0
 51
199.4712206344835
  0
LINE
  5
2426F
330
747D
100
AcDbEntity
  8
細線
 48
50.0
100
AcDbLine
 10
6156.082743426416
 20
1329.381065474545
 30
0.0
 11
6228.909452451059
 21
1402.207774499193
 31
0.0
  0
LINE
  5
24270
330
747D
100
AcDbEntity
  8
細線
 48
50.0
100
AcDbLine
 10
6189.758703880421
 20
1329.381065474545
 30
0.0
 11
6228.909452451059
 21
1368.531814045184
 31
0.0
  0
LINE
  5
24271
330
747D
100
AcDbEntity
  8
細線
 48
50.0
100
AcDbLine
 10
6171.611340653066
 20
1159.381065474545
 30
0.0
 11
6163.572864880133
 21
1189.381065474545
 31
0.0
  0
LINE
  5
24272
330
747D
100
AcDbEntity
  8
部品1
 48
50.0
100
AcDbLine
 10
6248.909452451061
 20
1412.040083845948
 30
0.0
 11
6228.909452451059
 21
1412.040083845948
 31
0.0
  0
LWPOLYLINE
  5
24273
330
747D
100
AcDbEntity
  8
部品1
 48
50.0
100
AcDbPolyline
 90
        2
 70
     0
 43
10.0
 10
5621.234575159865
 20
1869.381065474546
 10
6138.909452451059
 20
1869.381065474546
  0
LINE
  5
24274
330
747D
100
AcDbEntity
  8
細線
 48
50.0
100
AcDbLine
 10
6138.909452451059
 20
1581.615458131267
 30
0.0
 11
6268.909452451067
 21
1711.615458131271
 31
0.0
  0
LINE
  5
24275
330
747D
100
AcDbEntity
  8
細線
 48
50.0
100
AcDbLine
 10
6138.909452451059
 20
1615.291418585277
 30
0.0
 11
6268.909452451062
 21
1745.291418585277
 31
0.0
  0
LINE
  5
24276
330
747D
100
AcDbEntity
  8
細線
 48
50.0
100
AcDbLine
 10
6138.909452451059
 20
1547.939497677258
 30
0.0
 11
6251.40299247965
 21
1660.433037705843
 31
0.0
  0
LINE
  5
24277
330
747D
100
AcDbEntity
  8
細線
 48
50.0
100
AcDbLine
 10
5978.909452451053
 20
1455.291418585277
 30
0.0
 11
6012.999099340327
 21
1489.381065474545
 31
0.0
  0
LINE
  5
24278
330
747D
100
AcDbEntity
  8
部品1
 48
50.0
100
AcDbLine
 10
5978.909452451059
 20
1489.381065474545
 30
0.0
 11
6138.909452451059
 21
1489.381065474545
 31
0.0
  0
LINE
  5
24279
330
747D
100
AcDbEntity
  8
細線
 48
50.0
100
AcDbLine
 10
5978.909452451053
 20
1421.615458131264
 30
0.0
 11
6046.675059794342
 21
1489.381065474545
 31
0.0
  0
LINE
  5
2427A
330
747D
100
AcDbEntity
  8
細線
 48
50.0
100
AcDbLine
 10
6265.516498591177
 20
1674.546543817366
 30
0.0
 11
6268.909452451067
 21
1677.939497677258
 31
0.0
  0
CIRCLE
  5
2427B
330
747D
100
AcDbEntity
  8
部品1
 48
50.0
100
AcDbCircle
 10
6258.909452451069
 20
1667.040083845948
 30
0.0
 40
10.0
  0
LINE
  5
2427C
330
747D
100
AcDbEntity
  8
細線
 48
50.0
100
AcDbLine
 10
6138.909452451059
 20
1884.699102217351
 30
0.0
 11
6228.909452451059
 21
1974.699102217351
 31
0.0
  0
LINE
  5
2427D
330
747D
100
AcDbEntity
  8
細線
 48
50.0
100
AcDbLine
 10
6138.909452451059
 20
1851.023141763342
 30
0.0
 11
6228.909452451059
 21
1941.023141763342
 31
0.0
  0
LINE
  5
2427E
330
747D
100
AcDbEntity
  8
細線
 48
50.0
100
AcDbLine
 10
6138.909452451059
 20
1817.347181309333
 30
0.0
 11
6243.602354987679
 21
1922.040083845948
 31
0.0
  0
LINE
  5
2427F
330
747D
100
AcDbEntity
  8
細線
 48
50.0
100
AcDbLine
 10
6248.909452451061
 20
1927.347181309333
 30
0.0
 11
6268.909452451062
 21
1947.347181309333
 31
0.0
  0
LINE
  5
24280
330
747D
100
AcDbEntity
  8
細線
 48
50.0
100
AcDbLine
 10
6248.909452451061
 20
1961.023141763342
 30
0.0
 11
6268.909452451062
 21
1981.023141763342
 31
0.0
  0
LINE
  5
24281
330
747D
100
AcDbEntity
  8
部品1
 48
50.0
100
AcDbLine
 10
6248.909452451061
 20
1922.040083845948
 30
0.0
 11
6248.909452451061
 21
1994.69910221735
 31
0.0
  0
LINE
  5
24282
330
747D
100
AcDbEntity
  8
部品1
 48
50.0
100
AcDbLine
 10
6228.909452451059
 20
1922.040083845952
 30
0.0
 11
6228.909452451059
 21
1994.69910221735
 31
0.0
  0
LINE
  5
24283
330
747D
100
AcDbEntity
  8
部品1
 48
50.0
100
AcDbLine
 10
6248.909452451061
 20
1922.040083845948
 30
0.0
 11
6228.909452451059
 21
1922.040083845952
 31
0.0
  0
LINE
  5
24284
330
747D
100
AcDbEntity
  8
細線
 48
50.0
100
AcDbLine
 10
6425.49042705849
 20
1329.381065474545
 30
0.0
 11
6538.909452451061
 21
1442.800090867118
 31
0.0
  0
LINE
  5
24285
330
747D
100
AcDbEntity
  8
細線
 48
50.0
100
AcDbLine
 10
6391.814466604468
 20
1329.381065474545
 30
0.0
 11
6538.909452451061
 21
1476.476051321127
 31
0.0
  0
LINE
  5
24286
330
747D
100
AcDbEntity
  8
部品1
 48
50.0
100
AcDbLine
 10
6538.909452451061
 20
1489.381065474545
 30
0.0
 11
6538.909452451061
 21
1189.381065474545
 31
0.0
  0
LEADER
  5
24287
330
747D
100
AcDbEntity
  8
寸法
 48
50.0
100
AcDbLeader
  3
INABA_S40G
 71
     0
 73
     0
 74
     0
 75
     1
 40
100.0
 41
225.0
 76
     3
 10
6418.788142891239
 20
1339.381065474545
 30
0.0
 10
6543.069027209416
 20
1220.134729295829
 30
0.0
 10
6643.069027209417
 20
1220.134729295829
 30
0.0
1001
ACAD
1000
DSTYLE
1002
{
1070
   341
1005
0
1002
}
  0
MTEXT
  5
24288
102
{ACAD_REACTORS
330
24287
102
}
330
747D
100
AcDbEntity
  8
寸法
 62
     7
 48
50.0
100
AcDbMText
 10
6668.069027209416
 20
1295.134729295829
 30
0.0
 40
100.0
 41
1.0
 71
     4
 72
     1
  1
D10
  7
STYLE2
 73
     1
 44
1.0
1001
ACAD
1000
MTEXTBEGIN
1070
    73
1070
     1
1070
    44
1040
1.0
1070
    74
1070
     0
1000
MTEXTEND
  0
LINE
  5
24289
330
747D
100
AcDbEntity
  8
部品1
 48
50.0
100
AcDbLine
 10
6638.909452451064
 20
1189.381065474545
 30
0.0
 11
6638.909452451064
 21
1029.381065474545
 31
0.0
  0
LINE
  5
2428A
330
747D
100
AcDbEntity
  8
細線
 48
50.0
100
AcDbLine
 10
6531.218170373252
 20
1029.381065474545
 30
0.0
 11
6574.090041162233
 21
1189.381065474543
 31
0.0
  0
LINE
  5
2428B
330
747D
100
AcDbEntity
  8
細線
 48
50.0
100
AcDbLine
 10
6432.608114189197
 20
1029.381065474543
 30
0.0
 11
6475.479984978176
 21
1189.381065474543
 31
0.0
  0
LINE
  5
2428C
330
747D
100
AcDbEntity
  8
細線
 48
50.0
100
AcDbLine
 10
6539.256646146192
 20
1059.381065474545
 30
0.0
 11
6547.295121919126
 21
1029.381065474545
 31
0.0
  0
LINE
  5
2428D
330
747D
100
AcDbEntity
  8
細線
 48
50.0
100
AcDbLine
 10
6440.646589962134
 20
1059.381065474545
 30
0.0
 11
6448.685065735069
 21
1029.381065474545
 31
0.0
  0
LINE
  5
2428E
330
747D
100
AcDbEntity
  8
細線
 48
50.0
100
AcDbLine
 10
6637.866702330248
 20
1059.381065474545
 30
0.0
 11
6638.909452451059
 21
1055.489469044089
 31
0.0
  0
LINE
  5
2428F
330
747D
100
AcDbEntity
  8
細線
 48
50.0
100
AcDbLine
 10
6629.828226557312
 20
1029.381065474543
 30
0.0
 11
6638.909452451059
 21
1063.27266190503
 31
0.0
  0
LINE
  5
24290
330
747D
100
AcDbEntity
  8
細線
 48
50.0
100
AcDbLine
 10
6459.166387512495
 20
1329.381065474545
 30
0.0
 11
6538.909452451061
 21
1409.124130413109
 31
0.0
  0
LINE
  5
24291
330
747D
100
AcDbEntity
  8
部品1
 48
50.0
100
AcDbLine
 10
6468.909452451061
 20
1329.381065474545
 30
0.0
 11
6468.909452451061
 21
1309.381065474545
 31
0.0
  0
CIRCLE
  5
24292
330
747D
100
AcDbEntity
  8
部品1
 48
50.0
100
AcDbCircle
 10
6418.90945245106
 20
1339.381065474545
 30
0.0
 40
10.0
  0
LINE
  5
24293
330
747D
100
AcDbEntity
  8
細線
 48
50.0
100
AcDbLine
 10
6467.441509205247
 20
1159.381065474545
 30
0.0
 11
6459.403033432312
 21
1189.381065474545
 31
0.0
  0
LINE
  5
24294
330
747D
100
AcDbEntity
  8
細線
 48
50.0
100
AcDbLine
 10
6521.222150236552
 20
1189.381065474545
 30
0.0
 11
6538.909452451061
 21
1207.068367689053
 31
0.0
  0
LINE
  5
24295
330
747D
100
AcDbEntity
  8
細線
 48
50.0
100
AcDbLine
 10
6368.831453021188
 20
1159.381065474545
 30
0.0
 11
6360.792977248255
 21
1189.381065474545
 31
0.0
  0
LINE
  5
24296
330
747D
100
AcDbEntity
  8
細線
 48
50.0
100
AcDbLine
 10
6566.051565389305
 20
1159.381065474545
 30
0.0
 11
6558.01308961637
 21
1189.381065474545
 31
0.0
  0
LWPOLYLINE
  5
24297
330
747D
100
AcDbEntity
  8
部品1
 48
50.0
100
AcDbPolyline
 90
        2
 70
     0
 43
10.0
 10
6378.90945245106
 20
1869.381065474546
 10
6896.584329742257
 20
1869.381065474546
  0
MTEXT
  5
24298
102
{ACAD_REACTORS
330
24243
102
}
330
747D
100
AcDbEntity
  8
寸法
 62
     7
 48
50.0
100
AcDbMText
 10
6482.516873735313
 20
1668.3064987268
 30
0.0
 40
100.0
 41
1.0
 71
     4
 72
     1
  1
D13
  7
STYLE2
 73
     1
 44
1.0
1001
ACAD
1000
MTEXTBEGIN
1070
    73
1070
     1
1070
    44
1040
1.0
1070
    74
1070
     0
1000
MTEXTEND
  0
LINE
  5
24299
330
747D
100
AcDbEntity
  8
部品1
 48
50.0
100
AcDbLine
 10
6378.90945245106
 20
1489.381065474545
 30
0.0
 11
6538.909452451061
 21
1489.381065474545
 31
0.0
  0
LINE
  5
2429A
330
747D
100
AcDbEntity
  8
細線
 48
50.0
100
AcDbLine
 10
6288.350336533543
 20
2000.464025845822
 30
0.0
 11
6378.90945245106
 21
2091.023141763342
 31
0.0
  0
LINE
  5
2429B
330
747D
100
AcDbEntity
  8
細線
 48
50.0
100
AcDbLine
 10
6274.524980579148
 20
2020.31463034544
 30
0.0
 11
6378.90945245106
 21
2124.699102217352
 31
0.0
  0
DIMENSION
  5
2429C
330
747D
100
AcDbEntity
  8
寸法
 48
50.0
100
AcDbDimension
  2
*D37
 10
6138.909452451059
 20
2569.381065474545
 30
0.0
 11
6258.90945245106
 21
2569.381065474545
 31
0.0
 70
   160
  1
120\P(195)
 71
     5
 42
240.0000000000009
  3
INABA_S40G
100
AcDbAlignedDimension
 13
6378.90945245106
 23
2169.381065474545
 33
0.0
 14
6138.909452451059
 24
2169.381065474545
 34
0.0
100
AcDbRotatedDimension
1001
ACAD
1000
DSTYLE
1002
{
1070
   341
1005
0
1002
}
  0
LINE
  5
2429D
330
747D
100
AcDbEntity
  8
部品1
 48
50.0
100
AcDbLine
 10
6138.909452451059
 20
2169.381065474545
 30
0.0
 11
6378.90945245106
 21
2169.381065474545
 31
0.0
  0
LINE
  5
2429E
330
747D
100
AcDbEntity
  8
細線
 48
50.0
100
AcDbLine
 10
6138.909452451059
 20
2154.106785849426
 30
0.0
 11
6154.18373207618
 21
2169.381065474545
 31
0.0
  0
LINE
  5
2429F
330
747D
100
AcDbEntity
  8
細線
 48
50.0
100
AcDbLine
 10
6138.909452451059
 20
2120.430825395417
 30
0.0
 11
6187.859692530192
 21
2169.381065474545
 31
0.0
  0
LINE
  5
242A0
330
747D
100
AcDbEntity
  8
細線
 48
50.0
100
AcDbLine
 10
6138.909452451059
 20
2086.754864941408
 30
0.0
 11
6221.535652984197
 21
2169.381065474545
 31
0.0
  0
LINE
  5
242A1
330
747D
100
AcDbEntity
  8
部品1
100
AcDbLine
 10
8781.45859392255
 20
1489.381065474545
 30
0.0
 11
8781.458593922556
 21
2169.381065474545
 31
0.0
  0
LINE
  5
242A2
330
747D
100
AcDbEntity
  8
部品1
100
AcDbLine
 10
8551.958593922552
 20
1888.131065474545
 30
0.0
 11
8551.958593922547
 21
2230.831065474546
 31
0.0
  0
LINE
  5
242A3
330
747D
100
AcDbEntity
  8
部品1
100
AcDbLine
 10
8529.458593922553
 20
1888.131065474545
 30
0.0
 11
8529.458593922548
 21
2230.831065474546
 31
0.0
  0
LINE
  5
242A4
330
747D
100
AcDbEntity
  8
細線
 48
50.0
100
AcDbLine
 10
8263.95859392255
 20
1884.699102217351
 30
0.0
 11
8461.958593922551
 21
2082.699102217349
 31
0.0
  0
LINE
  5
242A5
330
747D
100
AcDbEntity
  8
細線
 48
50.0
100
AcDbLine
 10
8263.95859392255
 20
1851.023141763342
 30
0.0
 11
8461.958593922551
 21
2049.023141763338
 31
0.0
  0
TEXT
  5
242A6
330
747D
100
AcDbEntity
  8
部品1
 48
50.0
100
AcDbText
 10
7746.283716631357
 20
1883.429805828614
 30
0.0
 40
100.0
  1
▽G.L
  7
STYLE2
100
AcDbText
  0
LINE
  5
242A7
330
747D
100
AcDbEntity
  8
細線
 48
50.0
100
AcDbLine
 10
8263.95859392255
 20
1817.347181309333
 30
0.0
 11
8461.958593922547
 21
2015.347181309324
 31
0.0
  0
LINE
  5
242A8
330
747D
100
AcDbEntity
  8
部品1
 48
50.0
100
AcDbLine
 10
8263.95859392255
 20
1489.381065474545
 30
0.0
 11
8263.95859392255
 21
2169.381065474545
 31
0.0
  0
LINE
  5
242A9
330
747D
100
AcDbEntity
  8
部品1
100
AcDbLine
 10
8619.458593922553
 20
1764.381065474545
 30
0.0
 11
8619.458593922553
 21
2169.381065474545
 31
0.0
  0
LINE
  5
242AA
330
747D
100
AcDbEntity
  8
部品1
100
AcDbLine
 10
8461.958593922545
 20
1764.381065474545
 30
0.0
 11
8461.958593922553
 21
2169.381065474545
 31
0.0
  0
LINE
  5
242AB
330
747D
100
AcDbEntity
  8
細線
 48
50.0
100
AcDbLine
 10
8619.458593922555
 20
1903.439497677243
 30
0.0
 11
8781.458593922556
 21
2065.439497677232
 31
0.0
  0
LINE
  5
242AC
330
747D
100
AcDbEntity
  8
細線
 48
50.0
100
AcDbLine
 10
8619.458593922555
 20
1937.115458131258
 30
0.0
 11
8781.458593922556
 21
2099.115458131255
 31
0.0
  0
LINE
  5
242AD
330
747D
100
AcDbEntity
  8
細線
 48
50.0
100
AcDbLine
 10
8619.458593922555
 20
1970.79141858528
 30
0.0
 11
8781.458593922556
 21
2132.791418585279
 31
0.0
  0
LWPOLYLINE
  5
242AE
330
747D
100
AcDbEntity
  8
部品1
 48
50.0
100
AcDbPolyline
 90
        2
 70
     0
 43
10.0
 10
7746.283716631357
 20
1869.381065474546
 10
8263.95859392255
 20
1869.381065474546
  0
LINE
  5
242AF
330
747D
100
AcDbEntity
  8
細線
 48
50.0
100
AcDbLine
 10
8103.958593922547
 20
1387.939497677258
 30
0.0
 11
8205.40016171984
 21
1489.381065474545
 31
0.0
  0
LINE
  5
242B0
330
747D
100
AcDbEntity
  8
部品1
 48
50.0
100
AcDbLine
 10
8103.958593922554
 20
1189.381065474545
 30
0.0
 11
8103.958593922554
 21
1489.381065474545
 31
0.0
  0
LINE
  5
242B1
330
747D
100
AcDbEntity
  8
細線
 48
50.0
100
AcDbLine
 10
8107.455924443895
 20
1189.381065474545
 30
0.0
 11
8781.45859392255
 21
1863.383734953202
 31
0.0
  0
LINE
  5
242B2
330
747D
100
AcDbEntity
  8
細線
 48
50.0
100
AcDbLine
 10
8174.807845351912
 20
1189.381065474545
 30
0.0
 11
8781.458593922556
 21
1796.03181404518
 31
0.0
  0
LINE
  5
242B3
330
747D
100
AcDbEntity
  8
細線
 48
50.0
100
AcDbLine
 10
8141.131884897907
 20
1189.381065474545
 30
0.0
 11
8781.458593922556
 21
1829.707774499187
 31
0.0
  0
LINE
  5
242B4
330
747D
100
AcDbEntity
  8
細線
 48
50.0
100
AcDbLine
 10
8410.539568529982
 20
1189.381065474545
 30
0.0
 11
8781.458593922556
 21
1560.300090867111
 31
0.0
  0
LINE
  5
242B5
330
747D
100
AcDbEntity
  8
細線
 48
50.0
100
AcDbLine
 10
8444.215528983988
 20
1189.381065474545
 30
0.0
 11
8781.458593922556
 21
1526.624130413117
 31
0.0
  0
LINE
  5
242B6
330
747D
100
AcDbEntity
  8
細線
 48
50.0
100
AcDbLine
 10
8376.863608075971
 20
1189.381065474545
 30
0.0
 11
8781.45859392255
 21
1593.976051321128
 31
0.0
  0
LINE
  5
242B7
330
747D
100
AcDbEntity
  8
細線
 48
50.0
100
AcDbLine
 10
8360.437143292571
 20
1029.381065474545
 30
0.0
 11
8403.309014081548
 21
1189.381065474545
 31
0.0
  0
LINE
  5
242B8
330
747D
100
AcDbEntity
  8
細線
 48
50.0
100
AcDbLine
 10
8163.217030924448
 20
1029.381065474545
 30
0.0
 11
8206.088901713426
 21
1189.381065474545
 31
0.0
  0
LINE
  5
242B9
330
747D
100
AcDbEntity
  8
部品1
 48
50.0
100
AcDbLine
 10
8003.958593922556
 20
1029.381065474545
 30
0.0
 11
8003.958593922556
 21
1189.381065474545
 31
0.0
  0
LINE
  5
242BA
330
747D
100
AcDbEntity
  8
細線
 48
50.0
100
AcDbLine
 10
8064.606974740376
 20
1029.381065474543
 30
0.0
 11
8107.478845529357
 21
1189.381065474543
 31
0.0
  0
LINE
  5
242BB
330
747D
100
AcDbEntity
  8
細線
 48
50.0
100
AcDbLine
 10
8261.827087108505
 20
1029.381065474543
 30
0.0
 11
8304.698957897484
 21
1189.381065474543
 31
0.0
  0
LINE
  5
242BC
330
747D
100
AcDbEntity
  8
細線
 48
50.0
100
AcDbLine
 10
8171.255506697383
 20
1059.381065474545
 30
0.0
 11
8179.293982470316
 21
1029.381065474545
 31
0.0
  0
LINE
  5
242BD
330
747D
100
AcDbEntity
  8
細線
 48
50.0
100
AcDbLine
 10
8072.645450513318
 20
1059.381065474545
 30
0.0
 11
8080.683926286251
 21
1029.381065474545
 31
0.0
  0
LINE
  5
242BE
330
747D
100
AcDbEntity
  8
細線
 48
50.0
100
AcDbLine
 10
8368.475619065511
 20
1059.381065474545
 30
0.0
 11
8376.514094838443
 21
1029.381065474545
 31
0.0
  0
LINE
  5
242BF
330
747D
100
AcDbEntity
  8
細線
 48
50.0
100
AcDbLine
 10
8269.865562881449
 20
1059.381065474545
 30
0.0
 11
8277.90403865438
 21
1029.381065474545
 31
0.0
  0
LINE
  5
242C0
330
747D
100
AcDbEntity
  8
細線
 48
50.0
100
AcDbLine
 10
8198.050425940493
 20
1159.381065474545
 30
0.0
 11
8190.01195016756
 21
1189.381065474545
 31
0.0
  0
LINE
  5
242C1
330
747D
100
AcDbEntity
  8
細線
 48
50.0
100
AcDbLine
 10
8003.958593922552
 20
1171.05596668177
 30
0.0
 11
8008.868789345298
 21
1189.381065474545
 31
0.0
  0
LINE
  5
242C2
330
747D
100
AcDbEntity
  8
細線
 48
50.0
100
AcDbLine
 10
8099.440369756427
 20
1159.381065474545
 30
0.0
 11
8091.401893983494
 21
1189.381065474545
 31
0.0
  0
LINE
  5
242C3
330
747D
100
AcDbEntity
  8
細線
 48
50.0
100
AcDbLine
 10
8395.270538308624
 20
1159.381065474545
 30
0.0
 11
8387.232062535689
 21
1189.381065474545
 31
0.0
  0
LINE
  5
242C4
330
747D
100
AcDbEntity
  8
細線
 48
50.0
100
AcDbLine
 10
8296.660482124556
 20
1159.381065474545
 30
0.0
 11
8288.622006351625
 21
1189.381065474545
 31
0.0
  0
LINE
  5
242C5
330
747D
100
AcDbEntity
  8
細線
 48
50.0
100
AcDbLine
 10
8754.877368028806
 20
1029.381065474543
 30
0.0
 11
8797.74923881777
 21
1189.381065474545
 31
0.0
  0
LINE
  5
242C6
330
747D
100
AcDbEntity
  8
細線
 48
50.0
100
AcDbLine
 10
8557.657255660691
 20
1029.381065474543
 30
0.0
 11
8600.529126449668
 21
1189.381065474543
 31
0.0
  0
LINE
  5
242C7
330
747D
100
AcDbEntity
  8
細線
 48
50.0
100
AcDbLine
 10
8656.267311844741
 20
1029.381065474545
 30
0.0
 11
8699.139182633727
 21
1189.381065474543
 31
0.0
  0
LINE
  5
242C8
330
747D
100
AcDbEntity
  8
細線
 48
50.0
100
AcDbLine
 10
8459.047199476627
 20
1029.381065474545
 30
0.0
 11
8501.919070265611
 21
1189.381065474543
 31
0.0
  0
LINE
  5
242C9
330
747D
100
AcDbEntity
  8
細線
 48
50.0
100
AcDbLine
 10
8565.695731433626
 20
1059.381065474545
 30
0.0
 11
8573.734207206559
 21
1029.381065474545
 31
0.0
  0
LINE
  5
242CA
330
747D
100
AcDbEntity
  8
細線
 48
50.0
100
AcDbLine
 10
8467.085675249569
 20
1059.381065474545
 30
0.0
 11
8475.124151022503
 21
1029.381065474545
 31
0.0
  0
LINE
  5
242CB
330
747D
100
AcDbEntity
  8
細線
 48
50.0
100
AcDbLine
 10
8762.91584380174
 20
1059.381065474545
 30
0.0
 11
8770.954319574689
 21
1029.381065474545
 31
0.0
  0
LINE
  5
242CC
330
747D
100
AcDbEntity
  8
細線
 48
50.0
100
AcDbLine
 10
8664.305787617683
 20
1059.381065474545
 30
0.0
 11
8672.344263390618
 21
1029.381065474545
 31
0.0
  0
LINE
  5
242CD
330
747D
100
AcDbEntity
  8
細線
 48
50.0
100
AcDbLine
 10
8592.490650676738
 20
1159.381065474545
 30
0.0
 11
8584.452174903805
 21
1189.381065474545
 31
0.0
  0
LINE
  5
242CE
330
747D
100
AcDbEntity
  8
細線
 48
50.0
100
AcDbLine
 10
8493.880594492681
 20
1159.381065474545
 30
0.0
 11
8485.842118719748
 21
1189.381065474545
 31
0.0
  0
LINE
  5
242CF
330
747D
100
AcDbEntity
  8
細線
 48
50.0
100
AcDbLine
 10
8789.710763044842
 20
1159.381065474545
 30
0.0
 11
8781.672287271909
 21
1189.381065474545
 31
0.0
  0
LINE
  5
242D0
330
747D
100
AcDbEntity
  8
細線
 48
50.0
100
AcDbLine
 10
8691.100706860794
 20
1159.381065474545
 30
0.0
 11
8683.062231087863
 21
1189.381065474545
 31
0.0
  0
LINE
  5
242D1
330
747D
100
AcDbEntity
  8
細線
 48
50.0
100
AcDbLine
 10
8263.95859392255
 20
1547.939497677258
 30
0.0
 11
8480.400161719847
 21
1764.381065474543
 31
0.0
  0
LINE
  5
242D2
330
747D
100
AcDbEntity
  8
細線
 48
50.0
100
AcDbLine
 10
8263.95859392255
 20
1581.615458131267
 30
0.0
 11
8461.958593922544
 21
1779.615458131253
 31
0.0
  0
LINE
  5
242D3
330
747D
100
AcDbEntity
  8
細線
 48
50.0
100
AcDbLine
 10
8263.95859392255
 20
1615.291418585277
 30
0.0
 11
8461.958593922544
 21
1813.29141858527
 31
0.0
  0
LINE
  5
242D4
330
747D
100
AcDbEntity
  8
部品1
 48
50.0
100
AcDbLine
 10
8103.958593922554
 20
1489.381065474545
 30
0.0
 11
8263.95859392255
 21
1489.381065474545
 31
0.0
  0
LINE
  5
242D5
330
747D
100
AcDbEntity
  8
細線
 48
50.0
100
AcDbLine
 10
8103.958593922547
 20
1421.615458131264
 30
0.0
 11
8171.724201265837
 21
1489.381065474545
 31
0.0
  0
LINE
  5
242D6
330
747D
100
AcDbEntity
  8
細線
 48
50.0
100
AcDbLine
 10
8103.958593922547
 20
1455.291418585277
 30
0.0
 11
8138.048240811821
 21
1489.381065474545
 31
0.0
  0
LINE
  5
242D7
330
747D
100
AcDbEntity
  8
部品1
100
AcDbLine
 10
8619.458593922553
 20
1764.381065474543
 30
0.0
 11
8461.958593922545
 21
1764.381065474543
 31
0.0
  0
LINE
  5
242D8
330
747D
100
AcDbEntity
  8
部品1
100
AcDbLine
 10
8596.958593922552
 20
1865.631065474545
 30
0.0
 11
8596.958593922552
 21
1888.131065474545
 31
0.0
  0
ARC
  5
242D9
330
747D
100
AcDbEntity
  8
部品1
100
AcDbCircle
 10
8551.958593922552
 20
1888.131065474545
 30
0.0
 40
22.5
100
AcDbArc
 50
180.0
 51
270.0
  0
LINE
  5
242DA
330
747D
100
AcDbEntity
  8
部品1
100
AcDbLine
 10
8551.958593922552
 20
1865.631065474545
 30
0.0
 11
8596.958593922552
 21
1865.631065474545
 31
0.0
  0
LINE
  5
242DB
330
747D
100
AcDbEntity
  8
部品1
100
AcDbLine
 10
8551.958593922552
 20
1888.131065474545
 30
0.0
 11
8596.958593922552
 21
1888.131065474545
 31
0.0
  0
TEXT
  5
242DC
330
747D
100
AcDbEntity
  8
部品1
 48
50.0
100
AcDbText
 10
7730.900973198188
 20
2582.58171685014
 30
0.0
 40
100.0
  1
※(別売)
  7
STYLE2
100
AcDbText
  0
ARC
  5
242DD
330
747D
100
AcDbEntity
  8
部品1
100
AcDbCircle
 10
8395.583593922555
 20
2305.506065474542
 30
0.0
 40
3.375
100
AcDbArc
 50
0.0
 51
90.0
  0
LINE
  5
242DE
330
747D
100
AcDbEntity
  8
部品1
 48
50.0
100
AcDbLine
 10
8263.95859392255
 20
2169.381065474545
 30
0.0
 11
8781.458593922556
 21
2169.381065474545
 31
0.0
  0
LINE
  5
242DF
330
747D
100
AcDbEntity
  8
部品1
100
AcDbLine
 10
8335.958593922551
 20
2281.881065474545
 30
0.0
 11
8335.958593922551
 21
2292.006065474545
 31
0.0
  0
LINE
  5
242E0
330
747D
100
AcDbEntity
  8
部品1
100
AcDbLine
 10
8285.333593922553
 20
2268.381065474545
 30
0.0
 11
8285.333593922553
 21
2278.506065474545
 31
0.0
  0
ARC
  5
242E1
330
747D
100
AcDbEntity
  8
部品1
100
AcDbCircle
 10
8288.708593922553
 20
2278.506065474545
 30
0.0
 40
3.375
100
AcDbArc
 50
90.0
 51
180.0
  0
ARC
  5
242E2
330
747D
100
AcDbEntity
  8
部品1
100
AcDbCircle
 10
8275.208593922554
 20
2184.706065474546
 30
0.0
 40
3.375
100
AcDbArc
 50
180.0
 51
270.0
  0
ARC
  5
242E3
330
747D
100
AcDbEntity
  8
部品1
100
AcDbCircle
 10
8275.208593922554
 20
2262.37094510293
 30
0.0
 40
3.375
100
AcDbArc
 50
104.0362434679067
 51
180.0
  0
LINE
  5
242E4
330
747D
100
AcDbEntity
  8
部品1
100
AcDbLine
 10
8271.833593922552
 20
2184.706065474546
 30
0.0
 11
8271.833593922552
 21
2262.37094510293
 31
0.0
  0
LINE
  5
242E5
330
747D
100
AcDbEntity
  8
細線
 48
50.0
100
AcDbLine
 10
8263.95859392255
 20
2154.106785849426
 30
0.0
 11
8279.232873547671
 21
2169.381065474545
 31
0.0
  0
LINE
  5
242E6
330
747D
100
AcDbEntity
  8
部品1
100
AcDbLine
 10
8274.390036188053
 20
2265.64517604092
 30
0.0
 11
8285.333593922553
 21
2268.381065474545
 31
0.0
  0
LINE
  5
242E7
330
747D
100
AcDbEntity
  8
部品1
100
AcDbLine
 10
8275.208593922554
 20
2181.331065474546
 30
0.0
 11
8289.833593922546
 21
2181.331065474546
 31
0.0
  0
LINE
  5
242E8
330
747D
100
AcDbEntity
  8
細線
 48
50.0
100
AcDbLine
 10
8263.95859392255
 20
2120.430825395417
 30
0.0
 11
8312.908834001687
 21
2169.381065474545
 31
0.0
  0
LINE
  5
242E9
330
747D
100
AcDbEntity
  8
細線
 48
50.0
100
AcDbLine
 10
8263.95859392255
 20
2086.754864941408
 30
0.0
 11
8346.58479445569
 21
2169.381065474545
 31
0.0
  0
LINE
  5
242EA
330
747D
100
AcDbEntity
  8
部品1
100
AcDbLine
 10
8288.708593922553
 20
2281.881065474545
 30
0.0
 11
8335.958593922551
 21
2281.881065474545
 31
0.0
  0
ARC
  5
242EB
330
747D
100
AcDbEntity
  8
部品1
100
AcDbCircle
 10
8342.708593922555
 20
2305.506065474545
 30
0.0
 40
3.375
100
AcDbArc
 50
90.0
 51
180.0
  0
LINE
  5
242EC
330
747D
100
AcDbEntity
  8
部品1
100
AcDbLine
 10
8339.333593922551
 20
2295.381065474545
 30
0.0
 11
8339.333593922551
 21
2295.381065474545
 31
0.0
  0
LINE
  5
242ED
330
747D
100
AcDbEntity
  8
部品1
100
AcDbLine
 10
8339.333593922551
 20
2295.381065474545
 30
0.0
 11
8339.333593922551
 21
2305.506065474545
 31
0.0
  0
LINE
  5
242EE
330
747D
100
AcDbEntity
  8
部品1
100
AcDbLine
 10
8342.708593922555
 20
2308.881065474545
 30
0.0
 11
8395.583593922555
 21
2308.881065474542
 31
0.0
  0
ARC
  5
242EF
330
747D
100
AcDbEntity
  8
部品1
100
AcDbCircle
 10
8339.333593922551
 20
2292.006065474545
 30
0.0
 40
3.375
100
AcDbArc
 50
90.0
 51
180.0
  0
LINE
  5
242F0
330
747D
100
AcDbEntity
  8
部品1
100
AcDbLine
 10
8398.958593922555
 20
2305.506065474542
 30
0.0
 11
8398.958593922555
 21
2241.381065474545
 31
0.0
  0
LINE
  5
242F1
330
747D
100
AcDbEntity
  8
部品1
100
AcDbLine
 10
8470.158593922548
 20
2181.331065474546
 30
0.0
 11
8721.833593922545
 21
2181.331065474546
 31
0.0
  0
LINE
  5
242F2
330
747D
100
AcDbEntity
  8
細線
100
AcDbLine
 10
8547.458593922554
 20
2181.331065474546
 30
0.0
 11
8547.458593922554
 21
2235.331065474545
 31
0.0
  0
LINE
  5
242F3
330
747D
100
AcDbEntity
  8
細線
100
AcDbLine
 10
8533.958593922555
 20
2181.331065474546
 30
0.0
 11
8533.958593922553
 21
2235.331065474545
 31
0.0
  0
LINE
  5
242F4
330
747D
100
AcDbEntity
  8
部品1
100
AcDbLine
 10
8529.458593922553
 20
2230.831065474546
 30
0.0
 11
8551.958593922552
 21
2230.831065474546
 31
0.0
  0
LINE
  5
242F5
330
747D
100
AcDbEntity
  8
部品1
100
AcDbLine
 10
8533.958593922553
 20
2235.331065474545
 30
0.0
 11
8547.458593922554
 21
2235.331065474545
 31
0.0
  0
LINE
  5
242F6
330
747D
100
AcDbEntity
  8
部品1
100
AcDbLine
 10
8428.208593922551
 20
2256.331065474546
 30
0.0
 11
8463.408593922556
 21
2256.331065474546
 31
0.0
  0
LINE
  5
242F7
330
747D
100
AcDbEntity
  8
部品1
100
AcDbLine
 10
8433.833593922553
 20
2181.331065474546
 30
0.0
 11
8448.45859392255
 21
2181.331065474546
 31
0.0
  0
LINE
  5
242F8
330
747D
100
AcDbEntity
  8
部品1
100
AcDbLine
 10
8398.958593922555
 20
2241.381065474545
 30
0.0
 11
8448.45859392255
 21
2241.381065474545
 31
0.0
  0
ARC
  5
242F9
330
747D
100
AcDbEntity
  8
部品1
100
AcDbCircle
 10
8428.208593922551
 20
2252.956065474545
 30
0.0
 40
3.375
100
AcDbArc
 50
90.0
 51
180.0
  0
LINE
  5
242FA
330
747D
100
AcDbEntity
  8
部品1
100
AcDbLine
 10
8424.833593922553
 20
2252.956065474545
 30
0.0
 11
8424.833593922553
 21
2231.581065474546
 31
0.0
  0
ARC
  5
242FB
330
747D
100
AcDbEntity
  8
部品1
100
AcDbCircle
 10
8470.158593922548
 20
2184.706065474546
 30
0.0
 40
3.375
100
AcDbArc
 50
180.0
 51
270.0
  0
ARC
  5
242FC
330
747D
100
AcDbEntity
  8
部品1
100
AcDbCircle
 10
8463.408593922556
 20
2252.956065474545
 30
0.0
 40
3.375
100
AcDbArc
 50
0.0
 51
90.0
  0
LINE
  5
242FD
330
747D
100
AcDbEntity
  8
部品1
100
AcDbLine
 10
8466.783593922555
 20
2252.956065474545
 30
0.0
 11
8466.783593922547
 21
2184.706065474546
 31
0.0
  0
ARC
  5
242FE
330
747D
100
AcDbEntity
  8
部品1
100
AcDbCircle
 10
8448.45859392255
 20
2184.706065474546
 30
0.0
 40
3.375
100
AcDbArc
 50
270.0
 51
0.0
  0
ARC
  5
242FF
330
747D
100
AcDbEntity
  8
部品1
100
AcDbCircle
 10
8448.45859392255
 20
2238.006065474545
 30
0.0
 40
3.375
100
AcDbArc
 50
0.0
 51
90.0
  0
LINE
  5
24300
330
747D
100
AcDbEntity
  8
部品1
100
AcDbLine
 10
8451.833593922556
 20
2238.006065474545
 30
0.0
 11
8451.833593922556
 21
2184.706065474546
 31
0.0
  0
ELLIPSE
  5
24301
330
747D
100
AcDbEntity
  8
部品1
 48
50.0
100
AcDbEllipse
 10
8540.70859392255
 20
2505.785176029886
 30
0.0
 11
23.0
 21
0.0
 31
0.0
210
0.0
220
0.0
230
1.0
 40
0.3478260869565217
 41
0.0
 42
6.283185307179585
  0
LINE
  5
24302
330
747D
100
AcDbEntity
  8
部品1
 48
50.0
100
AcDbLine
 10
8590.708593922553
 20
2493.785176029886
 30
0.0
 11
8590.708593922553
 21
2505.785176029886
 31
0.0
  0
LINE
  5
24303
330
747D
100
AcDbEntity
  8
部品1
 48
50.0
100
AcDbLine
 10
8490.708593922551
 20
2505.785176029886
 30
0.0
 11
8490.708593922551
 21
2493.785176029886
 31
0.0
  0
ELLIPSE
  5
24304
330
747D
100
AcDbEntity
  8
部品1
 48
50.0
100
AcDbEllipse
 10
8540.70859392255
 20
2493.785176029886
 30
0.0
 11
50.0
 21
0.0
 31
0.0
210
0.0
220
0.0
230
1.0
 40
0.4
 41
3.141592653589792
 42
6.283185307179585
  0
ELLIPSE
  5
24305
330
747D
100
AcDbEntity
  8
部品1
 48
50.0
100
AcDbEllipse
 10
8540.70859392255
 20
2505.785176029886
 30
0.0
 11
50.0
 21
0.0
 31
0.0
210
0.0
220
0.0
230
1.0
 40
0.4
 41
0.0
 42
6.283185307179585
  0
LINE
  5
24306
330
747D
100
AcDbEntity
  8
部品1
 48
50.0
100
AcDbLine
 10
8520.708593922552
 20
2667.975166860973
 30
0.0
 11
8560.708593922553
 21
2667.975166860973
 31
0.0
  0
ELLIPSE
  5
24307
330
747D
100
AcDbEntity
  8
細線
 48
50.0
100
AcDbEllipse
 10
8540.70859392255
 20
2657.975166860973
 30
0.0
 11
18.45838483258558
 21
0.0
 31
0.0
210
0.0
220
0.0
230
1.0
 40
0.2071254069489396
 41
0.0
 42
6.283185307179585
  0
LINE
  5
24308
330
747D
100
AcDbEntity
  8
部品1
 48
50.0
100
AcDbLine
 10
8520.708593922552
 20
2607.975166860974
 30
0.0
 11
8560.708593922553
 21
2607.975166860974
 31
0.0
  0
LINE
  5
24309
330
747D
100
AcDbEntity
  8
部品1
 48
50.0
100
AcDbLine
 10
8520.708593922552
 20
2647.975166860974
 30
0.0
 11
8560.708593922553
 21
2647.975166860974
 31
0.0
  0
LINE
  5
2430A
330
747D
100
AcDbEntity
  8
細線
 48
50.0
100
AcDbLine
 10
8520.708593922552
 20
2607.975166860974
 30
0.0
 11
8520.708593922552
 21
2647.975166860974
 31
0.0
  0
LINE
  5
2430B
330
747D
100
AcDbEntity
  8
部品1
 48
50.0
100
AcDbLine
 10
8560.708593922553
 20
2607.975166860974
 30
0.0
 11
8580.708593922553
 21
2617.975166860973
 31
0.0
  0
LINE
  5
2430C
330
747D
100
AcDbEntity
  8
部品1
 48
50.0
100
AcDbLine
 10
8560.708593922553
 20
2647.975166860974
 30
0.0
 11
8580.708593922553
 21
2657.975166860973
 31
0.0
  0
LINE
  5
2430D
330
747D
100
AcDbEntity
  8
細線
 48
50.0
100
AcDbLine
 10
8560.708593922553
 20
2607.975166860974
 30
0.0
 11
8560.708593922553
 21
2647.975166860974
 31
0.0
  0
LINE
  5
2430E
330
747D
100
AcDbEntity
  8
部品1
 48
50.0
100
AcDbLine
 10
8580.708593922553
 20
2617.975166860973
 30
0.0
 11
8580.708593922553
 21
2657.975166860973
 31
0.0
  0
LINE
  5
2430F
330
747D
100
AcDbEntity
  8
部品1
 48
50.0
100
AcDbLine
 10
8560.708593922553
 20
2667.975166860973
 30
0.0
 11
8580.708593922553
 21
2657.975166860973
 31
0.0
  0
LINE
  5
24310
330
747D
100
AcDbEntity
  8
部品1
 48
50.0
100
AcDbLine
 10
8500.708593922553
 20
2617.975166860973
 30
0.0
 11
8500.708593922553
 21
2657.975166860973
 31
0.0
  0
LINE
  5
24311
330
747D
100
AcDbEntity
  8
部品1
 48
50.0
100
AcDbLine
 10
8500.708593922553
 20
2657.975166860973
 30
0.0
 11
8520.708593922552
 21
2647.975166860974
 31
0.0
  0
LINE
  5
24312
330
747D
100
AcDbEntity
  8
部品1
 48
50.0
100
AcDbLine
 10
8500.708593922553
 20
2617.975166860973
 30
0.0
 11
8520.708593922552
 21
2607.975166860974
 31
0.0
  0
LINE
  5
24313
330
747D
100
AcDbEntity
  8
部品1
 48
50.0
100
AcDbLine
 10
8500.708593922553
 20
2657.975166860973
 30
0.0
 11
8520.708593922552
 21
2667.975166860973
 31
0.0
  0
LINE
  5
24314
330
747D
100
AcDbEntity
  8
部品1
100
AcDbLine
 10
11916.58345699731
 20
561.526087447512
 30
0.0
 11
11916.58345699731
 21
3820.5955901956
 31
0.0
  0
LINE
  5
24315
330
747D
100
AcDbEntity
  8
部品1
100
AcDbLine
 10
10426.07252917817
 20
1594.757420907853
 30
0.0
 11
11326.07252917817
 21
1594.757420907856
 31
0.0
  0
LINE
  5
24316
330
747D
100
AcDbEntity
  8
部品1
100
AcDbLine
 10
10426.07252917817
 20
1754.757420907856
 30
0.0
 11
11326.07252917817
 21
1754.757420907861
 31
0.0
  0
LWPOLYLINE
  5
24317
330
747D
100
AcDbEntity
  8
部品1
 48
50.0
100
AcDbPolyline
 90
        2
 70
     0
 43
15.0
 10
10095.30845155268
 20
1869.381065474545
 10
11596.67383046722
 20
1869.381065474545
  0
TEXT
  5
24318
330
747D
100
AcDbEntity
  8
部品1
 48
50.0
100
AcDbText
 10
9950.730900852871
 20
1535.881389677908
 30
0.0
 40
100.0
  1
ボルトの出
 50
90.0
  7
STYLE2
100
AcDbText
  0
LINE
  5
24319
330
747D
100
AcDbEntity
  8
部品1
 48
50.0
100
AcDbLine
 10
8941.458593922552
 20
1489.381065474545
 30
0.0
 11
8941.458593922552
 21
1189.381065474545
 31
0.0
  0
LINE
  5
2431A
330
747D
100
AcDbEntity
  8
部品1
 48
50.0
100
AcDbLine
 10
9041.458593922554
 20
1189.381065474545
 30
0.0
 11
9041.458593922554
 21
1029.381065474545
 31
0.0
  0
LINE
  5
2431B
330
747D
100
AcDbEntity
  8
細線
 48
50.0
100
AcDbLine
 10
8952.097480396918
 20
1029.381065474543
 30
0.0
 11
8994.969351185902
 21
1189.381065474542
 31
0.0
  0
LINE
  5
2431C
330
747D
100
AcDbEntity
  8
細線
 48
50.0
100
AcDbLine
 10
8853.487424212866
 20
1029.381065474541
 30
0.0
 11
8896.359295001845
 21
1189.381065474542
 31
0.0
  0
LINE
  5
2431D
330
747D
100
AcDbEntity
  8
細線
 48
50.0
100
AcDbLine
 10
8960.135956169862
 20
1059.381065474543
 30
0.0
 11
8968.174431942795
 21
1029.381065474543
 31
0.0
  0
LINE
  5
2431E
330
747D
100
AcDbEntity
  8
細線
 48
50.0
100
AcDbLine
 10
8861.525899985805
 20
1059.381065474543
 30
0.0
 11
8869.56437575874
 21
1029.381065474543
 31
0.0
  0
LINE
  5
2431F
330
747D
100
AcDbEntity
  8
細線
 48
50.0
100
AcDbLine
 10
8986.930875412973
 20
1159.381065474543
 30
0.0
 11
8978.892399640038
 21
1189.381065474543
 31
0.0
  0
LINE
  5
24320
330
747D
100
AcDbEntity
  8
細線
 48
50.0
100
AcDbLine
 10
8888.320819228914
 20
1159.381065474543
 30
0.0
 11
8880.282343455979
 21
1189.381065474543
 31
0.0
  0
LINE
  5
24321
330
747D
100
AcDbEntity
  8
部品1
100
AcDbLine
 10
10426.07252917817
 20
1594.757420907853
 30
0.0
 11
10426.07252917817
 21
1869.381065474545
 31
0.0
  0
LINE
  5
24322
330
747D
100
AcDbEntity
  8
部品1
100
AcDbLine
 10
11176.07252917816
 20
2169.381065474544
 30
0.0
 11
11176.07252917816
 21
1869.381065474545
 31
0.0
  0
LINE
  5
24323
330
747D
100
AcDbEntity
  8
細線
100
AcDbLine
 10
11095.1358409369
 20
1869.381065474545
 30
0.0
 11
10795.13584093691
 21
2169.381065474544
 31
0.0
  0
LINE
  5
24324
330
747D
100
AcDbEntity
  8
細線
100
AcDbLine
 10
11158.77545124369
 20
1869.381065474546
 30
0.0
 11
10858.7754512437
 21
2169.381065474544
 31
0.0
  0
LINE
  5
24325
330
747D
100
AcDbEntity
  8
細線
100
AcDbLine
 10
10755.72458596736
 20
1869.381065474545
 30
0.0
 11
10576.07252917817
 21
2049.033122263736
 31
0.0
  0
LINE
  5
24326
330
747D
100
AcDbEntity
  8
部品1
100
AcDbLine
 10
10576.07252917817
 20
1869.381065474545
 30
0.0
 11
10576.07252917817
 21
2169.381065474544
 31
0.0
  0
LINE
  5
24327
330
747D
100
AcDbEntity
  8
細線
100
AcDbLine
 10
10819.36419627415
 20
1869.381065474545
 30
0.0
 11
10576.07252917817
 21
2112.672732570524
 31
0.0
  0
LINE
  5
24328
330
747D
100
AcDbEntity
  8
細線
 48
50.0
100
AcDbLine
 10
11271.54481066859
 20
1724.757420907854
 30
0.0
 11
11263.50633489565
 21
1754.757420907855
 31
0.0
  0
LINE
  5
24329
330
747D
100
AcDbEntity
  8
細線
 48
50.0
100
AcDbLine
 10
11236.71141565252
 20
1594.757420907854
 30
0.0
 11
11279.58328644152
 21
1754.757420907853
 31
0.0
  0
LINE
  5
2432A
330
747D
100
AcDbEntity
  8
細線
 48
50.0
100
AcDbLine
 10
10850.30966668923
 20
1624.757420907856
 30
0.0
 11
10858.34814246217
 21
1594.757420907856
 31
0.0
  0
LINE
  5
2432B
330
747D
100
AcDbEntity
  8
細線
 48
50.0
100
AcDbLine
 10
10842.27119091629
 20
1594.757420907854
 30
0.0
 11
10885.14306170528
 21
1754.757420907855
 31
0.0
  0
LINE
  5
2432C
330
747D
100
AcDbEntity
  8
細線
 48
50.0
100
AcDbLine
 10
10645.05107854818
 20
1594.757420907856
 30
0.0
 11
10687.92294933716
 21
1754.757420907856
 31
0.0
  0
LINE
  5
2432D
330
747D
100
AcDbEntity
  8
細線
 48
50.0
100
AcDbLine
 10
10447.83096618006
 20
1594.757420907856
 30
0.0
 11
10490.70283696904
 21
1754.757420907856
 31
0.0
  0
LINE
  5
2432E
330
747D
100
AcDbEntity
  8
細線
 48
50.0
100
AcDbLine
 10
10546.44102236412
 20
1594.757420907854
 30
0.0
 11
10589.3128931531
 21
1754.757420907855
 31
0.0
  0
LINE
  5
2432F
330
747D
100
AcDbEntity
  8
細線
 48
50.0
100
AcDbLine
 10
10743.66113473224
 20
1594.757420907856
 30
0.0
 11
10786.53300552123
 21
1754.757420907855
 31
0.0
  0
LINE
  5
24330
330
747D
100
AcDbEntity
  8
細線
 48
50.0
100
AcDbLine
 10
10554.47949813706
 20
1624.757420907856
 30
0.0
 11
10562.51797390999
 21
1594.757420907856
 31
0.0
  0
LINE
  5
24331
330
747D
100
AcDbEntity
  8
細線
 48
50.0
100
AcDbLine
 10
10455.86944195299
 20
1624.757420907856
 30
0.0
 11
10463.90791772593
 21
1594.757420907856
 31
0.0
  0
LINE
  5
24332
330
747D
100
AcDbEntity
  8
細線
 48
50.0
100
AcDbLine
 10
10653.08955432112
 20
1624.757420907856
 30
0.0
 11
10661.12803009406
 21
1594.757420907856
 31
0.0
  0
LINE
  5
24333
330
747D
100
AcDbEntity
  8
細線
 48
50.0
100
AcDbLine
 10
10751.69961050517
 20
1624.757420907856
 30
0.0
 11
10759.73808627812
 21
1594.757420907856
 31
0.0
  0
LINE
  5
24334
330
747D
100
AcDbEntity
  8
細線
100
AcDbLine
 10
10567.36802230233
 20
1754.757420907856
 30
0.0
 11
10681.99166686901
 21
1869.381065474544
 31
0.0
  0
LINE
  5
24335
330
747D
100
AcDbEntity
  8
細線
100
AcDbLine
 10
10609.79442917353
 20
1754.757420907857
 30
0.0
 11
10724.41807374021
 21
1869.381065474545
 31
0.0
  0
LINE
  5
24336
330
747D
100
AcDbEntity
  8
細線
 48
50.0
100
AcDbLine
 10
10581.27441738017
 20
1724.757420907857
 30
0.0
 11
10573.23594160724
 21
1754.757420907856
 31
0.0
  0
LINE
  5
24337
330
747D
100
AcDbEntity
  8
細線
 48
50.0
100
AcDbLine
 10
10482.66436119611
 20
1724.757420907857
 30
0.0
 11
10474.62588542317
 21
1754.757420907856
 31
0.0
  0
LINE
  5
24338
330
747D
100
AcDbEntity
  8
細線
 48
50.0
100
AcDbLine
 10
10778.49452974829
 20
1724.757420907857
 30
0.0
 11
10770.45605397536
 21
1754.757420907856
 31
0.0
  0
LINE
  5
24339
330
747D
100
AcDbEntity
  8
細線
 48
50.0
100
AcDbLine
 10
10679.88447356424
 20
1724.757420907857
 30
0.0
 11
10671.8459977913
 21
1754.757420907856
 31
0.0
  0
LINE
  5
2433A
330
747D
100
AcDbEntity
  8
細線
100
AcDbLine
 10
10652.22083604472
 20
1754.757420907857
 30
0.0
 11
10766.84448061141
 21
1869.381065474545
 31
0.0
  0
LINE
  5
2433B
330
747D
100
AcDbEntity
  8
細線
 48
50.0
100
AcDbLine
 10
11039.49130328442
 20
1594.757420907854
 30
0.0
 11
11082.36317407339
 21
1754.757420907856
 31
0.0
  0
LINE
  5
2433C
330
747D
100
AcDbEntity
  8
細線
 48
50.0
100
AcDbLine
 10
10940.88124710036
 20
1594.757420907856
 30
0.0
 11
10983.75311788934
 21
1754.757420907855
 31
0.0
  0
LINE
  5
2433D
330
747D
100
AcDbEntity
  8
細線
 48
50.0
100
AcDbLine
 10
11138.10135946847
 20
1594.757420907854
 30
0.0
 11
11180.97323025746
 21
1754.757420907853
 31
0.0
  0
LINE
  5
2433E
330
747D
100
AcDbEntity
  8
細線
 48
50.0
100
AcDbLine
 10
11047.52977905736
 20
1624.757420907856
 30
0.0
 11
11055.5682548303
 21
1594.757420907856
 31
0.0
  0
LINE
  5
2433F
330
747D
100
AcDbEntity
  8
細線
 48
50.0
100
AcDbLine
 10
10948.9197228733
 20
1624.757420907856
 30
0.0
 11
10956.95819864623
 21
1594.757420907856
 31
0.0
  0
LINE
  5
24340
330
747D
100
AcDbEntity
  8
細線
 48
50.0
100
AcDbLine
 10
11244.74989142548
 20
1624.757420907855
 30
0.0
 11
11252.78836719841
 21
1594.757420907854
 31
0.0
  0
LINE
  5
24341
330
747D
100
AcDbEntity
  8
細線
 48
50.0
100
AcDbLine
 10
11146.13983524141
 20
1624.757420907855
 30
0.0
 11
11154.17831101435
 21
1594.757420907854
 31
0.0
  0
LINE
  5
24342
330
747D
100
AcDbEntity
  8
細線
100
AcDbLine
 10
11059.79442917353
 20
1754.75742090786
 30
0.0
 11
11174.41807374021
 21
1869.381065474545
 31
0.0
  0
LINE
  5
24343
330
747D
100
AcDbEntity
  8
細線
100
AcDbLine
 10
11017.36802230234
 20
1754.75742090786
 30
0.0
 11
11131.99166686902
 21
1869.381065474545
 31
0.0
  0
LINE
  5
24344
330
747D
100
AcDbEntity
  8
細線
 48
50.0
100
AcDbLine
 10
10975.71464211641
 20
1724.757420907857
 30
0.0
 11
10967.67616634348
 21
1754.757420907856
 31
0.0
  0
LINE
  5
24345
330
747D
100
AcDbEntity
  8
細線
 48
50.0
100
AcDbLine
 10
10877.10458593235
 20
1724.757420907857
 30
0.0
 11
10869.06611015941
 21
1754.757420907856
 31
0.0
  0
LINE
  5
24346
330
747D
100
AcDbEntity
  8
細線
 48
50.0
100
AcDbLine
 10
11074.32469830046
 20
1724.757420907857
 30
0.0
 11
11066.28622252752
 21
1754.757420907856
 31
0.0
  0
LINE
  5
24347
330
747D
100
AcDbEntity
  8
細線
 48
50.0
100
AcDbLine
 10
11172.93475448453
 20
1724.757420907854
 30
0.0
 11
11164.8962787116
 21
1754.757420907855
 31
0.0
  0
LINE
  5
24348
330
747D
100
AcDbEntity
  8
細線
100
AcDbLine
 10
11102.22083604472
 20
1754.75742090786
 30
0.0
 11
11216.8444806114
 21
1869.381065474545
 31
0.0
  0
LINE
  5
24349
330
747D
100
AcDbEntity
  8
部品1
100
AcDbLine
 10
11326.07252917817
 20
1869.381065474545
 30
0.0
 11
11326.07252917817
 21
1594.757420907856
 31
0.0
  0
LEADER
  5
2434A
330
747D
100
AcDbEntity
  8
寸法
 48
50.0
100
AcDbLeader
  3
INABA_S40G
 73
     0
 74
     0
 75
     1
 40
150.0
 41
231.9898538650463
 76
     3
 10
11089.47804369807
 20
2169.381065474545
 30
0.0
 10
11178.40080199013
 20
2375.813966325967
 30
0.0
 10
11278.40080199013
 20
2375.813966325967
 30
0.0
340
2434B
1001
ACAD
1000
DSTYLE
1002
{
1070
   341
1005
0
1002
}
  0
MTEXT
  5
2434B
102
{ACAD_REACTORS
330
2434A
102
}
330
747D
100
AcDbEntity
  8
寸法
 62
     7
 48
50.0
100
AcDbMText
 10
11318.40080199013
 20
2490.813966325967
 30
0.0
 40
150.0
 41
1.0
 71
     4
 72
     1
  1
\A1;C.B
  7
STYLE1
 73
     1
 44
1.0
1001
ACAD
1000
MTEXTBEGIN
1070
    73
1070
     1
1070
    44
1040
1.0
1070
    74
1070
     0
1000
MTEXTEND
  0
LINE
  5
2434C
330
747D
100
AcDbEntity
  8
部品1
100
AcDbLine
 10
10576.07252917817
 20
2169.381065474544
 30
0.0
 11
11176.07252917816
 21
2169.381065474544
 31
0.0
  0
ENDSEC
  0
SECTION
  2
OBJECTS
  0
DICTIONARY
  5
7471
330
0
100
AcDbDictionary
281
     1
  3
ACAD_COLOR
350
173D2
  3
ACAD_GROUP
350
7472
  3
ACAD_LAYOUT
350
173D3
  3
ACAD_MATERIAL
350
173D1
  3
ACAD_MLINESTYLE
350
7473
  3
ACAD_PLOTSETTINGS
350
173D4
  3
ACAD_PLOTSTYLENAME
350
173CF
  3
ACDBHEADERROUNDTRIPXREC
350
2464E
  3
AcDbVariableDictionary
350
243F6
  3
CONTENTDICTIONARY
350
E71C
  3
DRAWINGVARIABLESDICT
350
F3B9
  0
DICTIONARY
  5
1758F
330
7467
100
AcDbDictionary
280
     1
281
     1
  3
ACAD_LAYERSTATES
360
17590
  0
DICTIONARY
  5
173D2
102
{ACAD_REACTORS
330
7471
102
}
330
7471
100
AcDbDictionary
281
     1
  0
DICTIONARY
  5
7472
102
{ACAD_REACTORS
330
7471
102
}
330
7471
100
AcDbDictionary
281
     1
  3
*A1
350
1D2A9
  0
DICTIONARY
  5
173D3
102
{ACAD_REACTORS
330
7471
102
}
330
7471
100
AcDbDictionary
281
     1
  3
Model
350
173D5
  3
レイアウト1
350
173D6
  0
DICTIONARY
  5
173D1
102
{ACAD_REACTORS
330
7471
102
}
330
7471
100
AcDbDictionary
281
     1
  0
DICTIONARY
  5
7473
102
{ACAD_REACTORS
330
7471
102
}
330
7471
100
AcDbDictionary
281
     1
  3
STANDARD
350
7480
  0
DICTIONARY
  5
173D4
102
{ACAD_REACTORS
330
7471
102
}
330
7471
100
AcDbDictionary
281
     1
  0
ACDBDICTIONARYWDFLT
  5
173CF
102
{ACAD_REACTORS
330
7471
102
}
330
7471
100
AcDbDictionary
281
     1
  3
Normal
350
173D0
100
AcDbDictionaryWithDefault
340
173D0
  0
DICTIONARY
  5
2464E
102
{ACAD_REACTORS
330
7471
102
}
330
7471
100
AcDbDictionary
281
     1
  3
COLORDICT
350
24650
  3
MATERIALDICT
350
2464F
  0
DICTIONARY
  5
243F6
102
{ACAD_REACTORS
330
7471
102
}
330
7471
100
AcDbDictionary
281
     1
  3
DIMASSOC
350
243F7
  3
PROJECTNAME
350
243F8
  0
DICTIONARY
  5
E71C
102
{ACAD_REACTORS
330
7471
102
}
330
7471
100
AcDbDictionary
281
     1
  0
DICTIONARY
  5
F3B9
102
{ACAD_REACTORS
330
7471
102
}
330
7471
100
AcDbDictionary
281
     1
1001
DRAWINGVARIABLESXDATA
1000
POLARMODE
1000
1
  0
DICTIONARY
  5
17590
102
{ACAD_REACTORS
330
1758F
102
}
330
1758F
100
AcDbDictionary
281
     1
  0
GROUP
  5
1D2A9
102
{ACAD_REACTORS
330
7472
102
}
330
7472
100
AcDbGroup
300

 70
     1
 71
     1
  0
LAYOUT
  5
173D5
102
{ACAD_XDICTIONARY
360
24651
102
}
102
{ACAD_REACTORS
330
173D3
102
}
330
173D3
100
AcDbPlotSettings
  1

  2
クセロPDF
  4
A3
  6

 40
3.174999952316284
 41
3.174999952316284
 42
3.17498779296875
 43
3.17498779296875
 44
419.9466552734374
 45
296.9259948730469
 46
0.0
 47
0.0
 48
0.0
 49
0.0
140
0.0
141
0.0
142
1.0
143
40.0
 70
 11952
 72
     1
 73
     0
 74
     2
  7
inaba.ctb
 75
    24
147
0.025
148
0.0
149
0.0
100
AcDbLayout
  1
Model
 70
     1
 71
     0
 10
0.0
 20
0.0
 11
12.0
 21
9.0
 12
0.0
 22
0.0
 32
0.0
 14
0.0
 24
0.0
 34
0.0
 15
0.0
 25
0.0
 35
0.0
146
0.0
 13
0.0
 23
0.0
 33
0.0
 16
1.0
 26
0.0
 36
0.0
 17
0.0
 27
1.0
 37
0.0
 76
     0
330
747D
  0
LAYOUT
  5
173D6
102
{ACAD_XDICTIONARY
360
24653
102
}
102
{ACAD_REACTORS
330
173D3
102
}
330
173D3
100
AcDbPlotSettings
  1

  2
Microsoft Office Document Image Writer
  4

  6

 40
0.0
 41
0.0
 42
0.0
 43
0.0
 44
0.0
 45
0.0
 46
0.0
 47
0.0
 48
0.0
 49
0.0
140
0.0
141
0.0
142
1.0
143
1.0
 70
   688
 72
     0
 73
     0
 74
     5
  7

 75
    16
147
1.0
148
0.0
149
0.0
100
AcDbLayout
  1
レイアウト1
 70
     0
 71
     1
 10
0.0
 20
0.0
 11
420.0
 21
297.0
 12
0.0
 22
0.0
 32
0.0
 14
1.000000000000000E+20
 24
1.000000000000000E+20
 34
1.000000000000000E+20
 15
-1.000000000000000E+20
 25
-1.000000000000000E+20
 35
-1.000000000000000E+20
146
0.0
 13
0.0
 23
0.0
 33
0.0
 16
1.0
 26
0.0
 36
0.0
 17
0.0
 27
1.0
 37
0.0
 76
     0
330
747A
  0
MLINESTYLE
  5
7480
102
{ACAD_REACTORS
330
7473
102
}
330
7473
100
AcDbMlineStyle
  2
STANDARD
 70
     0
  3

 62
     0
 51
90.0
 52
90.0
 71
     2
 49
0.5
 62
   256
  6
BYLAYER
 49
-0.5
 62
   256
  6
BYLAYER
  0
ACDBPLACEHOLDER
  5
173D0
102
{ACAD_REACTORS
330
173CF
102
}
330
173CF
  0
XRECORD
  5
24650
102
{ACAD_REACTORS
330
2464E
102
}
330
2464E
100
AcDbXrecord
280
     1
340
173D2
  0
XRECORD
  5
2464F
102
{ACAD_REACTORS
330
2464E
102
}
330
2464E
100
AcDbXrecord
280
     1
340
173D1
  0
DICTIONARYVAR
  5
243F7
102
{ACAD_REACTORS
330
243F6
102
}
330
243F6
100
DictionaryVariables
280
     0
  1
1
  0
DICTIONARYVAR
  5
243F8
102
{ACAD_REACTORS
330
243F6
102
}
330
243F6
100
DictionaryVariables
280
     0
  1

  0
DICTIONARY
  5
24651
330
173D5
100
AcDbDictionary
280
     1
281
     1
  3
ACAD_XREC_ROUNDTRIP
360
24652
  0
DICTIONARY
  5
24653
330
173D6
100
AcDbDictionary
280
     1
281
     1
  3
ACAD_XREC_ROUNDTRIP
360
24654
  0
XRECORD
  5
24652
102
{ACAD_REACTORS
330
24651
102
}
330
24651
100
AcDbXrecord
280
     1
102
SHADEPLOT
 70
     0
102
SHADEPLOTRESLEVEL
 70
     2
102
SHADEPLOTCUSTOMDPI
 70
   150
  0
XRECORD
  5
24654
102
{ACAD_REACTORS
330
24653
102
}
330
24653
100
AcDbXrecord
280
     1
102
SHADEPLOT
 70
     0
102
SHADEPLOTRESLEVEL
 70
     2
102
SHADEPLOTCUSTOMDPI
 70
   300
  0
ENDSEC
  0
EOF
