  0
SECTION
  2
HEADER
  9
$ACADVER
  1
AC1015
  9
$ACADMAINTVER
 70
    20
  9
$DWGCODEPAGE
  3
ANSI_932
  9
$INSBASE
 10
0.0
 20
0.0
 30
0.0
  9
$EXTMIN
 10
139.9999999999995
 20
-0.0000000000000909
 30
0.0
  9
$EXTMAX
 10
16307.2
 20
11409.6
 30
0.0
  9
$LIMMIN
 10
0.0
 20
0.0
  9
$LIMMAX
 10
16800.0
 20
11880.0
  9
$ORTHOMODE
 70
     0
  9
$REGENMODE
 70
     1
  9
$FILLMODE
 70
     1
  9
$QTEXTMODE
 70
     0
  9
$MIRRTEXT
 70
     1
  9
$LTSCALE
 40
20.0
  9
$ATTMODE
 70
     1
  9
$TEXTSIZE
 40
4.0
  9
$TRACEWID
 40
1.0
  9
$TEXTSTYLE
  7
STYLE1
  9
$CLAYER
  8
細線
  9
$CELTYPE
  6
BYLAYER
  9
$CECOLOR
 62
   256
  9
$CELTSCALE
 40
50.0
  9
$DISPSILH
 70
     0
  9
$DIMSCALE
 40
40.0
  9
$DIMASZ
 40
2.5
  9
$DIMEXO
 40
0.5
  9
$DIMDLI
 40
7.0
  9
$DIMRND
 40
0.0
  9
$DIMDLE
 40
0.0
  9
$DIMEXE
 40
1.5
  9
$DIMTP
 40
0.0
  9
$DIMTM
 40
0.0
  9
$DIMTXT
 40
3.0
  9
$DIMCEN
 40
0.0
  9
$DIMTSZ
 40
0.0
  9
$DIMTOL
 70
     0
  9
$DIMLIM
 70
     0
  9
$DIMTIH
 70
     0
  9
$DIMTOH
 70
     0
  9
$DIMSE1
 70
     0
  9
$DIMSE2
 70
     0
  9
$DIMTAD
 70
     3
  9
$DIMZIN
 70
     8
  9
$DIMBLK
  1

  9
$DIMASO
 70
     1
  9
$DIMSHO
 70
     1
  9
$DIMPOST
  1

  9
$DIMAPOST
  1

  9
$DIMALT
 70
     0
  9
$DIMALTD
 70
     2
  9
$DIMALTF
 40
0.0394
  9
$DIMLFAC
 40
1.0
  9
$DIMTOFL
 70
     1
  9
$DIMTVP
 40
0.0
  9
$DIMTIX
 70
     1
  9
$DIMSOXD
 70
     0
  9
$DIMSAH
 70
     1
  9
$DIMBLK1
  1
DOTSMALL
  9
$DIMBLK2
  1
DOTSMALL
  9
$DIMSTYLE
  2
INABA_S40G
  9
$DIMCLRD
 70
     0
  9
$DIMCLRE
 70
     0
  9
$DIMCLRT
 70
     7
  9
$DIMTFAC
 40
1.0
  9
$DIMGAP
 40
1.0
  9
$DIMJUST
 70
     0
  9
$DIMSD1
 70
     0
  9
$DIMSD2
 70
     0
  9
$DIMTOLJ
 70
     1
  9
$DIMTZIN
 70
     0
  9
$DIMALTZ
 70
     0
  9
$DIMALTTZ
 70
     0
  9
$DIMUPT
 70
     0
  9
$DIMDEC
 70
     1
  9
$DIMTDEC
 70
     4
  9
$DIMALTU
 70
     2
  9
$DIMALTTD
 70
     2
  9
$DIMTXSTY
  7
STYLE1
  9
$DIMAUNIT
 70
     0
  9
$DIMADEC
 70
     0
  9
$DIMALTRND
 40
0.0
  9
$DIMAZIN
 70
     0
  9
$DIMDSEP
 70
    46
  9
$DIMATFIT
 70
     3
  9
$DIMFRAC
 70
     0
  9
$DIMLDRBLK
  1

  9
$DIMLUNIT
 70
     2
  9
$DIMLWD
 70
    -2
  9
$DIMLWE
 70
    -2
  9
$DIMTMOVE
 70
     0
  9
$LUNITS
 70
     2
  9
$LUPREC
 70
     1
  9
$SKETCHINC
 40
1.0
  9
$FILLETRAD
 40
3.0
  9
$AUNITS
 70
     0
  9
$AUPREC
 70
     0
  9
$MENU
  1
acad
  9
$ELEVATION
 40
0.0
  9
$PELEVATION
 40
0.0
  9
$THICKNESS
 40
0.0
  9
$LIMCHECK
 70
     0
  9
$CHAMFERA
 40
0.0
  9
$CHAMFERB
 40
0.0
  9
$CHAMFERC
 40
0.0
  9
$CHAMFERD
 40
0.0
  9
$SKPOLY
 70
     0
  9
$TDCREATE
 40
2451368.612993866
  9
$TDUCREATE
 40
2451368.237993866
  9
$TDUPDATE
 40
2455827.764642790
  9
$TDUUPDATE
 40
2455827.389642790
  9
$TDINDWG
 40
0.9319226042
  9
$TDUSRTIMER
 40
0.9319209838
  9
$USRTIMER
 70
     1
  9
$ANGBASE
 50
0.0
  9
$ANGDIR
 70
     0
  9
$PDMODE
 70
     3
  9
$PDSIZE
 40
2.0
  9
$PLINEWID
 40
0.0
  9
$SPLFRAME
 70
     0
  9
$SPLINETYPE
 70
     6
  9
$SPLINESEGS
 70
     8
  9
$HANDSEED
  5
2F961
  9
$SURFTAB1
 70
     6
  9
$SURFTAB2
 70
     6
  9
$SURFTYPE
 70
     6
  9
$SURFU
 70
     6
  9
$SURFV
 70
     6
  9
$UCSBASE
  2

  9
$UCSNAME
  2

  9
$UCSORG
 10
0.0
 20
0.0
 30
0.0
  9
$UCSXDIR
 10
1.0
 20
0.0
 30
0.0
  9
$UCSYDIR
 10
0.0
 20
1.0
 30
0.0
  9
$UCSORTHOREF
  2

  9
$UCSORTHOVIEW
 70
     0
  9
$UCSORGTOP
 10
0.0
 20
0.0
 30
0.0
  9
$UCSORGBOTTOM
 10
0.0
 20
0.0
 30
0.0
  9
$UCSORGLEFT
 10
0.0
 20
0.0
 30
0.0
  9
$UCSORGRIGHT
 10
0.0
 20
0.0
 30
0.0
  9
$UCSORGFRONT
 10
0.0
 20
0.0
 30
0.0
  9
$UCSORGBACK
 10
0.0
 20
0.0
 30
0.0
  9
$PUCSBASE
  2

  9
$PUCSNAME
  2

  9
$PUCSORG
 10
0.0
 20
0.0
 30
0.0
  9
$PUCSXDIR
 10
1.0
 20
0.0
 30
0.0
  9
$PUCSYDIR
 10
0.0
 20
1.0
 30
0.0
  9
$PUCSORTHOREF
  2

  9
$PUCSORTHOVIEW
 70
     0
  9
$PUCSORGTOP
 10
0.0
 20
0.0
 30
0.0
  9
$PUCSORGBOTTOM
 10
0.0
 20
0.0
 30
0.0
  9
$PUCSORGLEFT
 10
0.0
 20
0.0
 30
0.0
  9
$PUCSORGRIGHT
 10
0.0
 20
0.0
 30
0.0
  9
$PUCSORGFRONT
 10
0.0
 20
0.0
 30
0.0
  9
$PUCSORGBACK
 10
0.0
 20
0.0
 30
0.0
  9
$USERI1
 70
     0
  9
$USERI2
 70
     0
  9
$USERI3
 70
     0
  9
$USERI4
 70
     0
  9
$USERI5
 70
     0
  9
$USERR1
 40
0.0
  9
$USERR2
 40
0.0
  9
$USERR3
 40
0.0
  9
$USERR4
 40
0.0
  9
$USERR5
 40
0.0
  9
$WORLDVIEW
 70
     1
  9
$SHADEDGE
 70
     3
  9
$SHADEDIF
 70
    70
  9
$TILEMODE
 70
     1
  9
$MAXACTVP
 70
    16
  9
$PINSBASE
 10
0.0
 20
0.0
 30
0.0
  9
$PLIMCHECK
 70
     0
  9
$PEXTMIN
 10
1.000000000000000E+20
 20
1.000000000000000E+20
 30
1.000000000000000E+20
  9
$PEXTMAX
 10
-1.000000000000000E+20
 20
-1.000000000000000E+20
 30
-1.000000000000000E+20
  9
$PLIMMIN
 10
0.0
 20
0.0
  9
$PLIMMAX
 10
420.0
 20
297.0
  9
$UNITMODE
 70
     0
  9
$VISRETAIN
 70
     0
  9
$PLINEGEN
 70
     0
  9
$PSLTSCALE
 70
     0
  9
$TREEDEPTH
 70
  3020
  9
$CMLSTYLE
  2
STANDARD
  9
$CMLJUST
 70
     0
  9
$CMLSCALE
 40
1.0
  9
$PROXYGRAPHICS
 70
     1
  9
$MEASUREMENT
 70
     1
  9
$CELWEIGHT
370
    -1
  9
$ENDCAPS
280
     0
  9
$JOINSTYLE
280
     0
  9
$LWDISPLAY
290
     0
  9
$INSUNITS
 70
     0
  9
$HYPERLINKBASE
  1

  9
$STYLESHEET
  1
inaba.ctb
  9
$XEDIT
290
     1
  9
$CEPSNTYPE
380
     0
  9
$PSTYLEMODE
290
     1
  9
$FINGERPRINTGUID
  2
{5EAC461A-2277-4BF8-9AB0-99C43BB394F0}
  9
$VERSIONGUID
  2
{A7B4D881-0D88-41F9-A93D-2AC5F3379ABF}
  9
$EXTNAMES
290
     1
  9
$PSVPSCALE
 40
0.0
  9
$OLESTARTUP
290
     0
  0
ENDSEC
  0
SECTION
  2
CLASSES
  0
CLASS
  1
ACDBDICTIONARYWDFLT
  2
AcDbDictionaryWithDefault
  3
ObjectDBX Classes
 90
        0
280
     0
281
     0
  0
CLASS
  1
DICTIONARYVAR
  2
AcDbDictionaryVar
  3
ObjectDBX Classes
 90
        0
280
     0
281
     0
  0
CLASS
  1
ACDBPLACEHOLDER
  2
AcDbPlaceHolder
  3
ObjectDBX Classes
 90
        0
280
     0
281
     0
  0
CLASS
  1
LAYOUT
  2
AcDbLayout
  3
ObjectDBX Classes
 90
        0
280
     0
281
     0
  0
ENDSEC
  0
SECTION
  2
TABLES
  0
TABLE
  2
VPORT
  5
746D
330
0
100
AcDbSymbolTable
 70
     2
  0
VPORT
  5
2F959
330
746D
100
AcDbSymbolTableRecord
100
AcDbViewportTableRecord
  2
*Active
 70
     0
 10
0.0
 20
0.0
 11
1.0
 21
1.0
 12
9779.741870590704
 22
5704.796475140369
 13
0.0
 23
0.0
 14
10.0
 24
10.0
 15
10.0
 25
10.0
 16
0.0
 26
0.0
 36
1.0
 17
0.0
 27
0.0
 37
0.0
 40
11494.73464854293
 41
1.79295154185022
 42
50.0
 43
0.0
 44
0.0
 50
0.0
 51
0.0
 71
     0
 72
     0
 73
     1
 74
     0
 75
     0
 76
     0
 77
     0
 78
     0
281
     0
 65
     1
110
0.0
120
0.0
130
0.0
111
1.0
121
0.0
131
0.0
112
0.0
122
1.0
132
0.0
 79
     0
146
0.0
  0
ENDTAB
  0
TABLE
  2
LTYPE
  5
746A
330
0
100
AcDbSymbolTable
 70
     3
  0
LTYPE
  5
7477
330
746A
100
AcDbSymbolTableRecord
100
AcDbLinetypeTableRecord
  2
BYBLOCK
 70
     0
  3

 72
    65
 73
     0
 40
0.0
  0
LTYPE
  5
7478
330
746A
100
AcDbSymbolTableRecord
100
AcDbLinetypeTableRecord
  2
BYLAYER
 70
     0
  3

 72
    65
 73
     0
 40
0.0
  0
LTYPE
  5
7479
330
746A
100
AcDbSymbolTableRecord
100
AcDbLinetypeTableRecord
  2
CONTINUOUS
 70
     0
  3
Solid line
 72
    65
 73
     0
 40
0.0
  0
LTYPE
  5
7816
330
746A
100
AcDbSymbolTableRecord
100
AcDbLinetypeTableRecord
  2
CENTER
 70
     0
  3
____ _ ____ _ ____ _ ____ _ ____ _ ____ _ ____ 
 72
    65
 73
     4
 40
2.0
 49
1.25
 74
     0
 49
-0.25
 74
     0
 49
0.25
 74
     0
 49
-0.25
 74
     0
  0
LTYPE
  5
781B
330
746A
100
AcDbSymbolTableRecord
100
AcDbLinetypeTableRecord
  2
PHANTOM
 70
     0
  3
______  __  __  ______  __  __  ______  __  __ 
 72
    65
 73
     6
 40
2.5
 49
1.25
 74
     0
 49
-0.25
 74
     0
 49
0.25
 74
     0
 49
-0.25
 74
     0
 49
0.25
 74
     0
 49
-0.25
 74
     0
  0
ENDTAB
  0
TABLE
  2
LAYER
  5
7467
102
{ACAD_XDICTIONARY
360
1758F
102
}
330
0
100
AcDbSymbolTable
 70
    10
  0
LAYER
  5
7474
330
7467
100
AcDbSymbolTableRecord
100
AcDbLayerTableRecord
  2
0
 70
     0
 62
     7
  6
CONTINUOUS
370
    -3
390
173D0
  0
LAYER
  5
DEB2
330
7467
100
AcDbSymbolTableRecord
100
AcDbLayerTableRecord
  2
センター
 70
     0
 62
     3
  6
CENTER
370
    -3
390
173D0
  0
LAYER
  5
DEB3
330
7467
100
AcDbSymbolTableRecord
100
AcDbLayerTableRecord
  2
寸法
 70
     0
 62
     4
  6
CONTINUOUS
370
    -3
390
173D0
  0
LAYER
  5
DEB4
330
7467
100
AcDbSymbolTableRecord
100
AcDbLayerTableRecord
  2
部品1
 70
     0
 62
     7
  6
CONTINUOUS
370
    -3
390
173D0
  0
LAYER
  5
DEB5
330
7467
100
AcDbSymbolTableRecord
100
AcDbLayerTableRecord
  2
補助
 70
     0
 62
    -1
  6
CONTINUOUS
370
    -3
390
173D0
  0
LAYER
  5
DEB6
330
7467
100
AcDbSymbolTableRecord
100
AcDbLayerTableRecord
  2
文字
 70
     0
 62
     7
  6
CONTINUOUS
370
    -3
390
173D0
  0
LAYER
  5
F255
330
7467
100
AcDbSymbolTableRecord
100
AcDbLayerTableRecord
  2
DEFPOINTS
 70
     0
 62
     7
  6
CONTINUOUS
290
     0
370
    -3
390
173D0
  0
LAYER
  5
10B54
330
7467
100
AcDbSymbolTableRecord
100
AcDbLayerTableRecord
  2
仕様書枠
 70
     0
 62
   230
  6
CONTINUOUS
370
    -3
390
173D0
  0
LAYER
  5
1173F
330
7467
100
AcDbSymbolTableRecord
100
AcDbLayerTableRecord
  2
細線
 70
     0
 62
     5
  6
CONTINUOUS
370
    -3
390
173D0
  0
LAYER
  5
12CC4
330
7467
100
AcDbSymbolTableRecord
100
AcDbLayerTableRecord
  2
想像線
 70
     0
 62
     6
  6
PHANTOM
370
    -3
390
173D0
  0
ENDTAB
  0
TABLE
  2
STYLE
  5
7468
330
0
100
AcDbSymbolTable
 70
     4
  0
STYLE
  5
7475
330
7468
100
AcDbSymbolTableRecord
100
AcDbTextStyleTableRecord
  2
STANDARD
 70
     0
 40
0.0
 41
1.0
 50
0.0
 71
     0
 42
4.0
  3
txt
  4
C:\AutoCAD LT\bigfont.shx
  0
STYLE
  5
763C
330
7468
100
AcDbSymbolTableRecord
100
AcDbTextStyleTableRecord
  2
MSMINCHO
 70
     0
 40
0.0
 41
1.0
 50
0.0
 71
     0
 42
1.199999999999999
  3
C:\AutoCAD LT\msminch2.TTF
  4

  0
STYLE
  5
F706
330
7468
100
AcDbSymbolTableRecord
100
AcDbTextStyleTableRecord
  2
STYLE1
 70
     0
 40
0.0
 41
1.0
 50
0.0
 71
     0
 42
4.0
  3
isocp.shx
  4
bigfont.shx
  0
STYLE
  5
103BF
330
7468
100
AcDbSymbolTableRecord
100
AcDbTextStyleTableRecord
  2
STYLE2
 70
     0
 40
0.0
 41
1.0
 50
0.0
 71
     0
 42
100.0
  3
MS PGothic.ttf
  4

1001
ACAD
1000
MS PGothic
1071
    32818
  0
ENDTAB
  0
TABLE
  2
VIEW
  5
746B
330
0
100
AcDbSymbolTable
 70
     0
  0
ENDTAB
  0
TABLE
  2
UCS
  5
746C
330
0
100
AcDbSymbolTable
 70
     0
  0
ENDTAB
  0
TABLE
  2
APPID
  5
746E
330
0
100
AcDbSymbolTable
 70
     6
  0
APPID
  5
7476
330
746E
100
AcDbSymbolTableRecord
100
AcDbRegAppTableRecord
  2
ACAD
 70
     0
  0
APPID
  5
DEA9
330
746E
100
AcDbSymbolTableRecord
100
AcDbRegAppTableRecord
  2
CONTENTBLOCKICON
 70
     0
  0
APPID
  5
DEAA
330
746E
100
AcDbSymbolTableRecord
100
AcDbRegAppTableRecord
  2
CONTENTBLOCKDESCRIPTION
 70
     0
  0
APPID
  5
E71D
330
746E
100
AcDbSymbolTableRecord
100
AcDbRegAppTableRecord
  2
CONTENTTABDATA
 70
     0
  0
APPID
  5
E71E
330
746E
100
AcDbSymbolTableRecord
100
AcDbRegAppTableRecord
  2
CONTENTCURRENTTAB
 70
     0
  0
APPID
  5
F3BA
330
746E
100
AcDbSymbolTableRecord
100
AcDbRegAppTableRecord
  2
DRAWINGVARIABLESXDATA
 70
     0
  0
ENDTAB
  0
TABLE
  2
DIMSTYLE
  5
746F
330
0
100
AcDbSymbolTable
 70
     1
100
AcDbDimStyleTable
 71
     1
340
F71F
  0
DIMSTYLE
105
F71F
102
{ACAD_REACTORS
330
2F616
330
2F57C
330
2F576
330
2F574
330
2F55F
330
2F51D
330
2F51C
330
2F51B
330
2F50E
330
2F50D
330
2F50A
330
2F509
330
2F507
330
2F506
330
2F503
330
2F501
330
2F4FF
330
2F4FE
330
2F4FA
330
2EFBB
330
2C930
330
2B134
330
2B133
330
2B132
330
2A558
330
2A548
330
2A52F
330
2A52E
330
2A52D
330
2A529
330
2A528
330
2A524
330
2A4A1
330
2A466
330
2A465
330
2A461
330
2A456
330
2A455
330
2A452
330
2A451
330
2A450
330
2A44F
330
2A233
330
2A231
330
2A1CF
330
2A1CE
330
2A1B7
330
2A1B6
330
2A1B2
330
29997
330
2701E
330
26F7E
330
26F64
330
26F3F
330
26F1A
330
26F00
330
1D2D6
330
1AC2C
330
1AC27
102
}
330
746F
100
AcDbSymbolTableRecord
100
AcDbDimStyleTableRecord
  2
INABA_S40G
 70
     0
 40
40.0
 41
2.5
 42
0.5
 43
7.0
 44
1.5
 73
     0
 74
     0
 77
     3
 78
     8
140
3.0
141
0.0
143
0.0394
147
1.0
172
     1
173
     1
174
     1
178
     7
271
     1
340
F706
341
F770
343
F770
344
F770
  0
ENDTAB
  0
TABLE
  2
BLOCK_RECORD
  5
7466
330
0
100
AcDbSymbolTable
 70
    43
  0
BLOCK_RECORD
  5
747D
330
7466
100
AcDbSymbolTableRecord
100
AcDbBlockTableRecord
  2
*MODEL_SPACE
340
173D5
  0
BLOCK_RECORD
  5
747A
330
7466
100
AcDbSymbolTableRecord
100
AcDbBlockTableRecord
  2
*PAPER_SPACE
340
173D6
  0
BLOCK_RECORD
  5
F770
330
7466
100
AcDbSymbolTableRecord
100
AcDbBlockTableRecord
  2
_DOTSMALL
340
0
102
{BLKREFS
331
2F7A9
331
2F7AA
331
2F7B2
331
2F7B3
331
2F7BB
331
2F7BC
331
2F7C4
331
2F7C5
331
2F7CD
331
2F7CE
331
2F7D6
331
2F7D7
331
2F7DF
331
2F7E0
331
2F7E8
331
2F7E9
331
2F7F2
331
2F7F3
331
2F7FC
331
2F7FD
331
2F805
331
2F806
331
2F80F
331
2F810
331
2F818
331
2F819
331
2F821
331
2F822
331
2F82A
331
2F82B
331
2F833
331
2F834
331
2F83C
331
2F83D
331
2F846
331
2F847
331
2F850
331
2F851
331
2F859
331
2F85A
331
2F862
331
2F863
331
2F86B
331
2F86C
331
2F874
331
2F875
331
2F87E
331
2F87F
331
2F888
331
2F889
331
2F891
331
2F892
331
2F89B
331
2F89C
331
2F8A4
331
2F8A5
331
2F8AE
331
2F8AF
331
2F8B8
331
2F8B9
331
2F8C1
331
2F8C2
331
2F8CA
331
2F8CB
331
2F8D3
331
2F8D4
331
2F8DC
331
2F8DD
331
2F8E5
331
2F8E6
331
2F8EE
331
2F8EF
331
2F8F8
331
2F8F9
331
2F903
331
2F904
331
2F90E
331
2F90F
331
2F919
331
2F91A
331
2F924
331
2F925
331
2F92F
331
2F930
102
}
  0
BLOCK_RECORD
  5
26F01
330
7466
100
AcDbSymbolTableRecord
100
AcDbBlockTableRecord
  2
*D1
340
0
  0
BLOCK_RECORD
  5
26F1B
330
7466
100
AcDbSymbolTableRecord
100
AcDbBlockTableRecord
  2
*D2
340
0
  0
BLOCK_RECORD
  5
26F40
330
7466
100
AcDbSymbolTableRecord
100
AcDbBlockTableRecord
  2
*D3
340
0
  0
BLOCK_RECORD
  5
26F65
330
7466
100
AcDbSymbolTableRecord
100
AcDbBlockTableRecord
  2
*D4
340
0
  0
BLOCK_RECORD
  5
26F7F
330
7466
100
AcDbSymbolTableRecord
100
AcDbBlockTableRecord
  2
*D5
340
0
  0
BLOCK_RECORD
  5
2701F
330
7466
100
AcDbSymbolTableRecord
100
AcDbBlockTableRecord
  2
*D6
340
0
  0
BLOCK_RECORD
  5
2A56B
330
7466
100
AcDbSymbolTableRecord
100
AcDbBlockTableRecord
  2
*D7
340
0
  0
BLOCK_RECORD
  5
2A576
330
7466
100
AcDbSymbolTableRecord
100
AcDbBlockTableRecord
  2
*D8
340
0
  0
BLOCK_RECORD
  5
2A581
330
7466
100
AcDbSymbolTableRecord
100
AcDbBlockTableRecord
  2
*D9
340
0
  0
BLOCK_RECORD
  5
2A5A3
330
7466
100
AcDbSymbolTableRecord
100
AcDbBlockTableRecord
  2
*D10
340
0
  0
BLOCK_RECORD
  5
2A5AE
330
7466
100
AcDbSymbolTableRecord
100
AcDbBlockTableRecord
  2
*D11
340
0
  0
BLOCK_RECORD
  5
2A5DB
330
7466
100
AcDbSymbolTableRecord
100
AcDbBlockTableRecord
  2
*D12
340
0
  0
BLOCK_RECORD
  5
2A5F2
330
7466
100
AcDbSymbolTableRecord
100
AcDbBlockTableRecord
  2
*D13
340
0
  0
BLOCK_RECORD
  5
2A60B
330
7466
100
AcDbSymbolTableRecord
100
AcDbBlockTableRecord
  2
*D14
340
0
  0
BLOCK_RECORD
  5
2A618
330
7466
100
AcDbSymbolTableRecord
100
AcDbBlockTableRecord
  2
*D15
340
0
  0
BLOCK_RECORD
  5
2A623
330
7466
100
AcDbSymbolTableRecord
100
AcDbBlockTableRecord
  2
*D16
340
0
  0
BLOCK_RECORD
  5
2A630
330
7466
100
AcDbSymbolTableRecord
100
AcDbBlockTableRecord
  2
*D17
340
0
  0
BLOCK_RECORD
  5
2A646
330
7466
100
AcDbSymbolTableRecord
100
AcDbBlockTableRecord
  2
*D18
340
0
  0
BLOCK_RECORD
  5
2A653
330
7466
100
AcDbSymbolTableRecord
100
AcDbBlockTableRecord
  2
*D19
340
0
  0
BLOCK_RECORD
  5
2A66D
330
7466
100
AcDbSymbolTableRecord
100
AcDbBlockTableRecord
  2
*D20
340
0
  0
BLOCK_RECORD
  5
2A678
330
7466
100
AcDbSymbolTableRecord
100
AcDbBlockTableRecord
  2
*D21
340
0
  0
BLOCK_RECORD
  5
2A684
330
7466
100
AcDbSymbolTableRecord
100
AcDbBlockTableRecord
  2
*D22
340
0
  0
BLOCK_RECORD
  5
2A690
330
7466
100
AcDbSymbolTableRecord
100
AcDbBlockTableRecord
  2
*D23
340
0
  0
BLOCK_RECORD
  5
2A6B5
330
7466
100
AcDbSymbolTableRecord
100
AcDbBlockTableRecord
  2
*D24
340
0
  0
BLOCK_RECORD
  5
2A6CF
330
7466
100
AcDbSymbolTableRecord
100
AcDbBlockTableRecord
  2
*D25
340
0
  0
BLOCK_RECORD
  5
2A6DC
330
7466
100
AcDbSymbolTableRecord
100
AcDbBlockTableRecord
  2
*D26
340
0
  0
BLOCK_RECORD
  5
2A6E8
330
7466
100
AcDbSymbolTableRecord
100
AcDbBlockTableRecord
  2
*D27
340
0
  0
BLOCK_RECORD
  5
2A6F4
330
7466
100
AcDbSymbolTableRecord
100
AcDbBlockTableRecord
  2
*D28
340
0
  0
BLOCK_RECORD
  5
2A700
330
7466
100
AcDbSymbolTableRecord
100
AcDbBlockTableRecord
  2
*D29
340
0
  0
BLOCK_RECORD
  5
2A70B
330
7466
100
AcDbSymbolTableRecord
100
AcDbBlockTableRecord
  2
*D30
340
0
  0
BLOCK_RECORD
  5
2A717
330
7466
100
AcDbSymbolTableRecord
100
AcDbBlockTableRecord
  2
*D31
340
0
  0
BLOCK_RECORD
  5
2B135
330
7466
100
AcDbSymbolTableRecord
100
AcDbBlockTableRecord
  2
*D32
340
0
  0
BLOCK_RECORD
  5
2B142
330
7466
100
AcDbSymbolTableRecord
100
AcDbBlockTableRecord
  2
*D33
340
0
  0
BLOCK_RECORD
  5
2B14F
330
7466
100
AcDbSymbolTableRecord
100
AcDbBlockTableRecord
  2
*D34
340
0
  0
BLOCK_RECORD
  5
2C931
330
7466
100
AcDbSymbolTableRecord
100
AcDbBlockTableRecord
  2
*D35
340
0
  0
BLOCK_RECORD
  5
2F062
330
7466
100
AcDbSymbolTableRecord
100
AcDbBlockTableRecord
  2
*D36
340
0
  0
BLOCK_RECORD
  5
2F626
330
7466
100
AcDbSymbolTableRecord
100
AcDbBlockTableRecord
  2
*D37
340
0
  0
BLOCK_RECORD
  5
2F632
330
7466
100
AcDbSymbolTableRecord
100
AcDbBlockTableRecord
  2
*D38
340
0
  0
BLOCK_RECORD
  5
2F63E
330
7466
100
AcDbSymbolTableRecord
100
AcDbBlockTableRecord
  2
*D39
340
0
  0
BLOCK_RECORD
  5
2F64A
330
7466
100
AcDbSymbolTableRecord
100
AcDbBlockTableRecord
  2
*D40
340
0
  0
BLOCK_RECORD
  5
2F656
330
7466
100
AcDbSymbolTableRecord
100
AcDbBlockTableRecord
  2
*D41
340
0
  0
BLOCK_RECORD
  5
2F661
330
7466
100
AcDbSymbolTableRecord
100
AcDbBlockTableRecord
  2
*D42
340
0
  0
ENDTAB
  0
ENDSEC
  0
SECTION
  2
BLOCKS
  0
BLOCK
  5
7489
330
747D
100
AcDbEntity
  8
0
100
AcDbBlockBegin
  2
*MODEL_SPACE
 70
     0
 10
0.0
 20
0.0
 30
0.0
  3
*MODEL_SPACE
  1

  0
ENDBLK
  5
748A
330
747D
100
AcDbEntity
  8
0
100
AcDbBlockEnd
  0
BLOCK
  5
7487
330
747A
100
AcDbEntity
 67
     1
  8
0
100
AcDbBlockBegin
  2
*PAPER_SPACE
 70
     0
 10
0.0
 20
0.0
 30
0.0
  3
*PAPER_SPACE
  1

  0
ENDBLK
  5
7488
330
747A
100
AcDbEntity
 67
     1
  8
0
100
AcDbBlockEnd
  0
BLOCK
  5
F771
330
F770
100
AcDbEntity
  8
0
 48
50.0
100
AcDbBlockBegin
  2
_DOTSMALL
 70
     0
 10
0.0
 20
0.0
 30
0.0
  3
_DOTSMALL
  1

  0
LWPOLYLINE
  5
F772
330
F770
100
AcDbEntity
  8
0
  6
ByBlock
 62
     0
 48
50.0
100
AcDbPolyline
 90
        2
 70
     1
 43
0.5
 10
-0.0625
 20
0.0
 42
1.0
 10
0.0625
 20
0.0
 42
1.0
  0
ENDBLK
  5
F776
330
F770
100
AcDbEntity
  8
0
 48
50.0
100
AcDbBlockEnd
  0
BLOCK
  5
26F0D
330
26F01
100
AcDbEntity
  8
0
 48
50.0
100
AcDbBlockBegin
  2
*D1
 70
     1
 10
0.0
 20
0.0
 30
0.0
  3
*D1
  1

  0
LINE
  5
2F92A
330
26F01
100
AcDbEntity
  8
寸法
 62
     0
 48
50.0
370
    -2
100
AcDbLine
 10
7796.600000000001
 20
5154.119711170108
 30
0.0
 11
8103.202780124334
 21
5154.119711170108
 31
0.0
  0
LINE
  5
2F92B
330
26F01
100
AcDbEntity
  8
寸法
 62
     0
 48
50.0
370
    -2
100
AcDbLine
 10
7796.600000000009
 20
5229.11971117011
 30
0.0
 11
8103.202780124334
 21
5229.11971117011
 31
0.0
  0
LINE
  5
2F92C
330
26F01
100
AcDbEntity
  8
寸法
 62
     0
 48
50.0
370
    -2
100
AcDbLine
 10
8043.202780124335
 20
5229.11971117011
 30
0.0
 11
8043.202780124335
 21
5329.119711170109
 31
0.0
  0
LINE
  5
2F92D
330
26F01
100
AcDbEntity
  8
寸法
 62
     0
 48
50.0
370
    -2
100
AcDbLine
 10
8043.202780124335
 20
5154.119711170108
 30
0.0
 11
8043.202780124335
 21
4287.14914842163
 31
0.0
  0
LINE
  5
2F92E
330
26F01
100
AcDbEntity
  8
寸法
 62
     0
 48
50.0
370
    -2
100
AcDbLine
 10
8043.202780124335
 20
5229.11971117011
 30
0.0
 11
8043.202780124335
 21
5154.119711170108
 31
0.0
  0
INSERT
  5
2F92F
330
26F01
100
AcDbEntity
  8
寸法
 62
     0
 48
50.0
370
    -2
100
AcDbBlockReference
  2
_DOTSMALL
 10
8043.202780124335
 20
5229.11971117011
 30
0.0
 41
100.0
 42
100.0
 43
100.0
 50
270.0
  0
INSERT
  5
2F930
330
26F01
100
AcDbEntity
  8
寸法
 62
     0
 48
50.0
370
    -2
100
AcDbBlockReference
  2
_DOTSMALL
 10
8043.202780124335
 20
5154.119711170108
 30
0.0
 41
100.0
 42
100.0
 43
100.0
 50
90.0
  0
MTEXT
  5
2F931
330
26F01
100
AcDbEntity
  8
寸法
 62
     7
 48
50.0
100
AcDbMText
 10
7943.202780124334
 20
4620.634429795869
 30
0.0
 40
120.0
 41
0.0
 71
     5
 72
     1
  1
\A1;扉の出75
  7
STYLE1
 11
0.0000000000000001
 21
1.0
 31
0.0
 73
     1
 44
1.0
1001
ACAD
1000
MTEXTBEGIN
1070
    73
1070
     1
1070
    44
1040
1.0
1070
    74
1070
     0
1000
MTEXTEND
  0
POINT
  5
2F932
330
26F01
100
AcDbEntity
  8
DEFPOINTS
 62
     0
 48
50.0
100
AcDbPoint
 10
7776.600000000001
 20
5154.119711170108
 30
0.0
  0
POINT
  5
2F933
330
26F01
100
AcDbEntity
  8
DEFPOINTS
 62
     0
 48
50.0
100
AcDbPoint
 10
7776.600000000009
 20
5229.11971117011
 30
0.0
  0
POINT
  5
2F934
330
26F01
100
AcDbEntity
  8
DEFPOINTS
 62
     0
 48
50.0
100
AcDbPoint
 10
8043.202780124335
 20
5229.11971117011
 30
0.0
  0
ENDBLK
  5
26F0E
330
26F01
100
AcDbEntity
  8
0
 48
50.0
100
AcDbBlockEnd
  0
BLOCK
  5
26F27
330
26F1B
100
AcDbEntity
  8
0
 48
50.0
100
AcDbBlockBegin
  2
*D2
 70
     1
 10
0.0
 20
0.0
 30
0.0
  3
*D2
  1

  0
LINE
  5
2F91F
330
26F1B
100
AcDbEntity
  8
寸法
 62
     0
 48
50.0
370
    -2
100
AcDbLine
 10
4232.657733986182
 20
8784.119711170086
 30
0.0
 11
3947.164931848215
 21
8784.119711170088
 31
0.0
  0
LINE
  5
2F920
330
26F1B
100
AcDbEntity
  8
寸法
 62
     0
 48
50.0
370
    -2
100
AcDbLine
 10
4728.600000000004
 20
8709.119711170082
 30
0.0
 11
3947.164931848215
 21
8709.119711170083
 31
0.0
  0
LINE
  5
2F921
330
26F1B
100
AcDbEntity
  8
寸法
 62
     0
 48
50.0
370
    -2
100
AcDbLine
 10
4007.164931848214
 20
8784.119711170088
 30
0.0
 11
4007.164931848214
 21
8884.119711170088
 31
0.0
  0
LINE
  5
2F922
330
26F1B
100
AcDbEntity
  8
寸法
 62
     0
 48
50.0
370
    -2
100
AcDbLine
 10
4007.164931848214
 20
8709.119711170083
 30
0.0
 11
4007.164931848214
 21
8609.119711170084
 31
0.0
  0
LINE
  5
2F923
330
26F1B
100
AcDbEntity
  8
寸法
 62
     0
 48
50.0
370
    -2
100
AcDbLine
 10
4007.164931848214
 20
8784.119711170088
 30
0.0
 11
4007.164931848214
 21
8709.119711170083
 31
0.0
  0
INSERT
  5
2F924
330
26F1B
100
AcDbEntity
  8
寸法
 62
     0
 48
50.0
370
    -2
100
AcDbBlockReference
  2
_DOTSMALL
 10
4007.164931848214
 20
8784.119711170088
 30
0.0
 41
100.0
 42
100.0
 43
100.0
 50
270.0
  0
INSERT
  5
2F925
330
26F1B
100
AcDbEntity
  8
寸法
 62
     0
 48
50.0
370
    -2
100
AcDbBlockReference
  2
_DOTSMALL
 10
4007.164931848214
 20
8709.119711170083
 30
0.0
 41
100.0
 42
100.0
 43
100.0
 50
90.0
  0
MTEXT
  5
2F926
330
26F1B
100
AcDbEntity
  8
寸法
 62
     7
 48
50.0
100
AcDbMText
 10
3907.164931848213
 20
8746.619711170087
 30
0.0
 40
120.0
 41
0.0
 71
     5
 72
     1
  1
\A1;c
  7
STYLE1
 11
0.0000000000000001
 21
1.0
 31
0.0
 73
     1
 44
1.0
1001
ACAD
1000
MTEXTBEGIN
1070
    73
1070
     1
1070
    44
1040
1.0
1070
    74
1070
     0
1000
MTEXTEND
  0
POINT
  5
2F927
330
26F1B
100
AcDbEntity
  8
DEFPOINTS
 62
     0
 48
50.0
100
AcDbPoint
 10
4252.657733986182
 20
8784.119711170086
 30
0.0
  0
POINT
  5
2F928
330
26F1B
100
AcDbEntity
  8
DEFPOINTS
 62
     0
 48
50.0
100
AcDbPoint
 10
4748.600000000004
 20
8709.119711170082
 30
0.0
  0
POINT
  5
2F929
330
26F1B
100
AcDbEntity
  8
DEFPOINTS
 62
     0
 48
50.0
100
AcDbPoint
 10
4007.164931848214
 20
8709.119711170083
 30
0.0
  0
ENDBLK
  5
26F28
330
26F1B
100
AcDbEntity
  8
0
 48
50.0
100
AcDbBlockEnd
  0
BLOCK
  5
26F4C
330
26F40
100
AcDbEntity
  8
0
 48
50.0
100
AcDbBlockBegin
  2
*D3
 70
     1
 10
0.0
 20
0.0
 30
0.0
  3
*D3
  1

  0
LINE
  5
2F914
330
26F40
100
AcDbEntity
  8
寸法
 62
     0
 48
50.0
370
    -2
100
AcDbLine
 10
4735.050294581424
 20
5229.119711170083
 30
0.0
 11
3947.164931848211
 21
5229.119711170083
 31
0.0
  0
LINE
  5
2F915
330
26F40
100
AcDbEntity
  8
寸法
 62
     0
 48
50.0
370
    -2
100
AcDbLine
 10
4232.657733986182
 20
5174.119711170105
 30
0.0
 11
3947.164931848211
 21
5174.119711170105
 31
0.0
  0
LINE
  5
2F916
330
26F40
100
AcDbEntity
  8
寸法
 62
     0
 48
50.0
370
    -2
100
AcDbLine
 10
4007.164931848211
 20
5229.119711170083
 30
0.0
 11
4007.164931848211
 21
5329.119711170083
 31
0.0
  0
LINE
  5
2F917
330
26F40
100
AcDbEntity
  8
寸法
 62
     0
 48
50.0
370
    -2
100
AcDbLine
 10
4007.164931848211
 20
5174.119711170105
 30
0.0
 11
4007.164931848211
 21
5074.119711170105
 31
0.0
  0
LINE
  5
2F918
330
26F40
100
AcDbEntity
  8
寸法
 62
     0
 48
50.0
370
    -2
100
AcDbLine
 10
4007.164931848211
 20
5229.119711170083
 30
0.0
 11
4007.164931848211
 21
5174.119711170105
 31
0.0
  0
INSERT
  5
2F919
330
26F40
100
AcDbEntity
  8
寸法
 62
     0
 48
50.0
370
    -2
100
AcDbBlockReference
  2
_DOTSMALL
 10
4007.164931848211
 20
5229.119711170083
 30
0.0
 41
100.0
 42
100.0
 43
100.0
 50
270.0
  0
INSERT
  5
2F91A
330
26F40
100
AcDbEntity
  8
寸法
 62
     0
 48
50.0
370
    -2
100
AcDbBlockReference
  2
_DOTSMALL
 10
4007.164931848211
 20
5174.119711170105
 30
0.0
 41
100.0
 42
100.0
 43
100.0
 50
90.0
  0
MTEXT
  5
2F91B
330
26F40
100
AcDbEntity
  8
寸法
 62
     7
 48
50.0
100
AcDbMText
 10
3907.16493184821
 20
5201.619711170095
 30
0.0
 40
120.0
 41
0.0
 71
     5
 72
     1
  1
\A1;b
  7
STYLE1
 11
0.0000000000000001
 21
1.0
 31
0.0
 73
     1
 44
1.0
1001
ACAD
1000
MTEXTBEGIN
1070
    73
1070
     1
1070
    44
1040
1.0
1070
    74
1070
     0
1000
MTEXTEND
  0
POINT
  5
2F91C
330
26F40
100
AcDbEntity
  8
DEFPOINTS
 62
     0
 48
50.0
100
AcDbPoint
 10
4755.050294581424
 20
5229.119711170083
 30
0.0
  0
POINT
  5
2F91D
330
26F40
100
AcDbEntity
  8
DEFPOINTS
 62
     0
 48
50.0
100
AcDbPoint
 10
4252.657733986182
 20
5174.119711170105
 30
0.0
  0
POINT
  5
2F91E
330
26F40
100
AcDbEntity
  8
DEFPOINTS
 62
     0
 48
50.0
100
AcDbPoint
 10
4007.164931848211
 20
5174.119711170105
 30
0.0
  0
ENDBLK
  5
26F4D
330
26F40
100
AcDbEntity
  8
0
 48
50.0
100
AcDbBlockEnd
  0
BLOCK
  5
26F71
330
26F65
100
AcDbEntity
  8
0
 48
50.0
100
AcDbBlockBegin
  2
*D4
 70
     1
 10
0.0
 20
0.0
 30
0.0
  3
*D4
  1

  0
LINE
  5
2F909
330
26F65
100
AcDbEntity
  8
寸法
 62
     0
 48
50.0
370
    -2
100
AcDbLine
 10
11698.6
 20
8729.119711170083
 30
0.0
 11
11698.6
 21
9727.340033229005
 31
0.0
  0
LINE
  5
2F90A
330
26F65
100
AcDbEntity
  8
寸法
 62
     0
 48
50.0
370
    -2
100
AcDbLine
 10
11743.6
 20
9474.879337712165
 30
0.0
 11
11743.6
 21
9727.340033229005
 31
0.0
  0
LINE
  5
2F90B
330
26F65
100
AcDbEntity
  8
寸法
 62
     0
 48
50.0
370
    -2
100
AcDbLine
 10
11698.6
 20
9667.340033229004
 30
0.0
 11
11598.6
 21
9667.340033229004
 31
0.0
  0
LINE
  5
2F90C
330
26F65
100
AcDbEntity
  8
寸法
 62
     0
 48
50.0
370
    -2
100
AcDbLine
 10
11743.6
 20
9667.340033229004
 30
0.0
 11
12080.94924240491
 21
9667.340033229004
 31
0.0
  0
LINE
  5
2F90D
330
26F65
100
AcDbEntity
  8
寸法
 62
     0
 48
50.0
370
    -2
100
AcDbLine
 10
11698.6
 20
9667.340033229004
 30
0.0
 11
11743.6
 21
9667.340033229004
 31
0.0
  0
INSERT
  5
2F90E
330
26F65
100
AcDbEntity
  8
寸法
 62
     0
 48
50.0
370
    -2
100
AcDbBlockReference
  2
_DOTSMALL
 10
11698.6
 20
9667.340033229004
 30
0.0
 41
100.0
 42
100.0
 43
100.0
  0
INSERT
  5
2F90F
330
26F65
100
AcDbEntity
  8
寸法
 62
     0
 48
50.0
370
    -2
100
AcDbBlockReference
  2
_DOTSMALL
 10
11743.6
 20
9667.340033229004
 30
0.0
 41
100.0
 42
100.0
 43
100.0
 50
180.0
  0
MTEXT
  5
2F910
330
26F65
100
AcDbEntity
  8
寸法
 62
     7
 48
50.0
100
AcDbMText
 10
12014.77462120245
 20
9767.340033229004
 30
0.0
 40
120.0
 41
0.0
 71
     5
 72
     1
  1
\A1;a
  7
STYLE1
 73
     1
 44
1.0
1001
ACAD
1000
MTEXTBEGIN
1070
    73
1070
     1
1070
    44
1040
1.0
1070
    74
1070
     0
1000
MTEXTEND
  0
POINT
  5
2F911
330
26F65
100
AcDbEntity
  8
DEFPOINTS
 62
     0
 48
50.0
100
AcDbPoint
 10
11698.6
 20
8709.119711170082
 30
0.0
  0
POINT
  5
2F912
330
26F65
100
AcDbEntity
  8
DEFPOINTS
 62
     0
 48
50.0
100
AcDbPoint
 10
11743.6
 20
9454.879337712164
 30
0.0
  0
POINT
  5
2F913
330
26F65
100
AcDbEntity
  8
DEFPOINTS
 62
     0
 48
50.0
100
AcDbPoint
 10
11743.6
 20
9667.340033229004
 30
0.0
  0
ENDBLK
  5
26F72
330
26F65
100
AcDbEntity
  8
0
 48
50.0
100
AcDbBlockEnd
  0
BLOCK
  5
26F8B
330
26F7F
100
AcDbEntity
  8
0
 48
50.0
100
AcDbBlockBegin
  2
*D5
 70
     1
 10
0.0
 20
0.0
 30
0.0
  3
*D5
  1

  0
LINE
  5
2F8FE
330
26F7F
100
AcDbEntity
  8
寸法
 62
     0
 48
50.0
370
    -2
100
AcDbLine
 10
4703.600000000005
 20
9474.879337712165
 30
0.0
 11
4703.600000000005
 21
9727.340033229005
 31
0.0
  0
LINE
  5
2F8FF
330
26F7F
100
AcDbEntity
  8
寸法
 62
     0
 48
50.0
370
    -2
100
AcDbLine
 10
4748.6
 20
8729.119711170083
 30
0.0
 11
4748.6
 21
9727.340033229005
 31
0.0
  0
LINE
  5
2F900
330
26F7F
100
AcDbEntity
  8
寸法
 62
     0
 48
50.0
370
    -2
100
AcDbLine
 10
4748.6
 20
9667.340033229004
 30
0.0
 11
4848.600000000001
 21
9667.340033229004
 31
0.0
  0
LINE
  5
2F901
330
26F7F
100
AcDbEntity
  8
寸法
 62
     0
 48
50.0
370
    -2
100
AcDbLine
 10
4703.600000000005
 20
9667.340033229004
 30
0.0
 11
4366.250757595084
 21
9667.340033229004
 31
0.0
  0
LINE
  5
2F902
330
26F7F
100
AcDbEntity
  8
寸法
 62
     0
 48
50.0
370
    -2
100
AcDbLine
 10
4748.6
 20
9667.340033229004
 30
0.0
 11
4703.600000000005
 21
9667.340033229004
 31
0.0
  0
INSERT
  5
2F903
330
26F7F
100
AcDbEntity
  8
寸法
 62
     0
 48
50.0
370
    -2
100
AcDbBlockReference
  2
_DOTSMALL
 10
4748.6
 20
9667.340033229004
 30
0.0
 41
100.0
 42
100.0
 43
100.0
 50
180.0
  0
INSERT
  5
2F904
330
26F7F
100
AcDbEntity
  8
寸法
 62
     0
 48
50.0
370
    -2
100
AcDbBlockReference
  2
_DOTSMALL
 10
4703.600000000005
 20
9667.340033229004
 30
0.0
 41
100.0
 42
100.0
 43
100.0
  0
MTEXT
  5
2F905
330
26F7F
100
AcDbEntity
  8
寸法
 62
     7
 48
50.0
100
AcDbMText
 10
4432.425378797542
 20
9767.340033229004
 30
0.0
 40
120.0
 41
0.0
 71
     5
 72
     1
  1
\A1;a
  7
STYLE1
 73
     1
 44
1.0
1001
ACAD
1000
MTEXTBEGIN
1070
    73
1070
     1
1070
    44
1040
1.0
1070
    74
1070
     0
1000
MTEXTEND
  0
POINT
  5
2F906
330
26F7F
100
AcDbEntity
  8
DEFPOINTS
 62
     0
 48
50.0
100
AcDbPoint
 10
4703.600000000005
 20
9454.879337712164
 30
0.0
  0
POINT
  5
2F907
330
26F7F
100
AcDbEntity
  8
DEFPOINTS
 62
     0
 48
50.0
100
AcDbPoint
 10
4748.6
 20
8709.119711170082
 30
0.0
  0
POINT
  5
2F908
330
26F7F
100
AcDbEntity
  8
DEFPOINTS
 62
     0
 48
50.0
100
AcDbPoint
 10
4748.6
 20
9667.340033229004
 30
0.0
  0
ENDBLK
  5
26F8C
330
26F7F
100
AcDbEntity
  8
0
 48
50.0
100
AcDbBlockEnd
  0
BLOCK
  5
2702B
330
2701F
100
AcDbEntity
  8
0
 48
50.0
100
AcDbBlockBegin
  2
*D6
 70
     1
 10
0.0
 20
0.0
 30
0.0
  3
*D6
  1

  0
LINE
  5
2F8F4
330
2701F
100
AcDbEntity
  8
寸法
 62
     0
 48
50.0
370
    -2
100
AcDbLine
 10
5641.6
 20
5154.119711170095
 30
0.0
 11
5949.18320630424
 21
5154.119711170095
 31
0.0
  0
LINE
  5
2F8F5
330
2701F
100
AcDbEntity
  8
寸法
 62
     0
 48
50.0
370
    -2
100
AcDbLine
 10
5641.6
 20
5349.119711170088
 30
0.0
 11
5949.18320630424
 21
5349.119711170088
 31
0.0
  0
LINE
  5
2F8F6
330
2701F
100
AcDbEntity
  8
寸法
 62
     0
 48
50.0
370
    -2
100
AcDbLine
 10
5889.18320630424
 20
5349.119711170088
 30
0.0
 11
5889.18320630424
 21
5154.119711170095
 31
0.0
  0
LINE
  5
2F8F7
330
2701F
100
AcDbEntity
  8
寸法
 62
     0
 48
50.0
370
    -2
100
AcDbLine
 10
5889.18320630424
 20
5154.119711170095
 30
0.0
 11
5889.18320630424
 21
4776.729828762303
 31
0.0
  0
INSERT
  5
2F8F8
330
2701F
100
AcDbEntity
  8
寸法
 62
     0
 48
50.0
370
    -2
100
AcDbBlockReference
  2
_DOTSMALL
 10
5889.18320630424
 20
5349.119711170088
 30
0.0
 41
100.0
 42
100.0
 43
100.0
 50
90.0
  0
INSERT
  5
2F8F9
330
2701F
100
AcDbEntity
  8
寸法
 62
     0
 48
50.0
370
    -2
100
AcDbBlockReference
  2
_DOTSMALL
 10
5889.18320630424
 20
5154.119711170095
 30
0.0
 41
100.0
 42
100.0
 43
100.0
 50
270.0
  0
MTEXT
  5
2F8FA
330
2701F
100
AcDbEntity
  8
寸法
 62
     7
 48
50.0
100
AcDbMText
 10
5789.183206304239
 20
4915.4247699662
 30
0.0
 40
120.0
 41
0.0
 71
     5
 72
     1
  1
\A1;195
  7
STYLE1
 11
0.0000000000000001
 21
1.0
 31
0.0
 73
     1
 44
1.0
1001
ACAD
1000
MTEXTBEGIN
1070
    73
1070
     1
1070
    44
1040
1.0
1070
    74
1070
     0
1000
MTEXTEND
  0
POINT
  5
2F8FB
330
2701F
100
AcDbEntity
  8
DEFPOINTS
 62
     0
 48
50.0
100
AcDbPoint
 10
5621.6
 20
5154.119711170095
 30
0.0
  0
POINT
  5
2F8FC
330
2701F
100
AcDbEntity
  8
DEFPOINTS
 62
     0
 48
50.0
100
AcDbPoint
 10
5621.6
 20
5349.119711170088
 30
0.0
  0
POINT
  5
2F8FD
330
2701F
100
AcDbEntity
  8
DEFPOINTS
 62
     0
 48
50.0
100
AcDbPoint
 10
5889.18320630424
 20
5349.119711170088
 30
0.0
  0
ENDBLK
  5
2702C
330
2701F
100
AcDbEntity
  8
0
 48
50.0
100
AcDbBlockEnd
  0
BLOCK
  5
2A574
330
2A56B
100
AcDbEntity
  8
0
 48
50.0
100
AcDbBlockBegin
  2
*D7
 70
     1
 10
0.0
 20
0.0
 30
0.0
  3
*D7
  1

  0
LINE
  5
2F8EB
330
2A56B
100
AcDbEntity
  8
寸法
 62
     0
 48
50.0
370
    -2
100
AcDbLine
 10
9126.600000000001
 20
8044.119711170083
 30
0.0
 11
9126.600000000001
 21
9296.029476818413
 31
0.0
  0
LINE
  5
2F8EC
330
2A56B
100
AcDbEntity
  8
寸法
 62
     0
 48
50.0
370
    -2
100
AcDbLine
 10
8223.600000000001
 20
7944.119711170081
 30
0.0
 11
8223.600000000001
 21
9296.029476818413
 31
0.0
  0
LINE
  5
2F8ED
330
2A56B
100
AcDbEntity
  8
寸法
 62
     0
 48
50.0
370
    -2
100
AcDbLine
 10
9126.600000000001
 20
9236.029476818412
 30
0.0
 11
8223.600000000001
 21
9236.029476818412
 31
0.0
  0
INSERT
  5
2F8EE
330
2A56B
100
AcDbEntity
  8
寸法
 62
     0
 48
50.0
370
    -2
100
AcDbBlockReference
  2
_DOTSMALL
 10
9126.600000000001
 20
9236.029476818412
 30
0.0
 41
100.0
 42
100.0
 43
100.0
  0
INSERT
  5
2F8EF
330
2A56B
100
AcDbEntity
  8
寸法
 62
     0
 48
50.0
370
    -2
100
AcDbBlockReference
  2
_DOTSMALL
 10
8223.600000000001
 20
9236.029476818412
 30
0.0
 41
100.0
 42
100.0
 43
100.0
 50
180.0
  0
MTEXT
  5
2F8F0
330
2A56B
100
AcDbEntity
  8
寸法
 62
     7
 48
50.0
100
AcDbMText
 10
8675.1
 20
9336.029476818412
 30
0.0
 40
120.0
 41
0.0
 71
     5
 72
     1
  1
\A1;903
  7
STYLE1
 73
     1
 44
1.0
1001
ACAD
1000
MTEXTBEGIN
1070
    73
1070
     1
1070
    44
1040
1.0
1070
    74
1070
     0
1000
MTEXTEND
  0
POINT
  5
2F8F1
330
2A56B
100
AcDbEntity
  8
DEFPOINTS
 62
     0
 48
50.0
100
AcDbPoint
 10
9126.600000000001
 20
8024.119711170083
 30
0.0
  0
POINT
  5
2F8F2
330
2A56B
100
AcDbEntity
  8
DEFPOINTS
 62
     0
 48
50.0
100
AcDbPoint
 10
8223.600000000001
 20
7924.119711170082
 30
0.0
  0
POINT
  5
2F8F3
330
2A56B
100
AcDbEntity
  8
DEFPOINTS
 62
     0
 48
50.0
100
AcDbPoint
 10
8223.600000000001
 20
9236.029476818412
 30
0.0
  0
ENDBLK
  5
2A575
330
2A56B
100
AcDbEntity
  8
0
 48
50.0
100
AcDbBlockEnd
  0
BLOCK
  5
2A57F
330
2A576
100
AcDbEntity
  8
0
 48
50.0
100
AcDbBlockBegin
  2
*D8
 70
     1
 10
0.0
 20
0.0
 30
0.0
  3
*D8
  1

  0
LINE
  5
2F8E2
330
2A576
100
AcDbEntity
  8
寸法
 62
     0
 48
50.0
370
    -2
100
AcDbLine
 10
11575.6
 20
8656.119711170086
 30
0.0
 11
11575.6
 21
9514.879337712168
 31
0.0
  0
LINE
  5
2F8E3
330
2A576
100
AcDbEntity
  8
寸法
 62
     0
 48
50.0
370
    -2
100
AcDbLine
 10
8105.6
 20
8656.119711170086
 30
0.0
 11
8105.6
 21
9514.879337712168
 31
0.0
  0
LINE
  5
2F8E4
330
2A576
100
AcDbEntity
  8
寸法
 62
     0
 48
50.0
370
    -2
100
AcDbLine
 10
11575.6
 20
9454.879337712167
 30
0.0
 11
8105.6
 21
9454.879337712167
 31
0.0
  0
INSERT
  5
2F8E5
330
2A576
100
AcDbEntity
  8
寸法
 62
     0
 48
50.0
370
    -2
100
AcDbBlockReference
  2
_DOTSMALL
 10
11575.6
 20
9454.879337712167
 30
0.0
 41
100.0
 42
100.0
 43
100.0
  0
INSERT
  5
2F8E6
330
2A576
100
AcDbEntity
  8
寸法
 62
     0
 48
50.0
370
    -2
100
AcDbBlockReference
  2
_DOTSMALL
 10
8105.6
 20
9454.879337712167
 30
0.0
 41
100.0
 42
100.0
 43
100.0
 50
180.0
  0
MTEXT
  5
2F8E7
330
2A576
100
AcDbEntity
  8
寸法
 62
     7
 48
50.0
100
AcDbMText
 10
9840.600000000002
 20
9554.879337712167
 30
0.0
 40
120.0
 41
0.0
 71
     5
 72
     1
  1
\A1;3470
  7
STYLE1
 73
     1
 44
1.0
1001
ACAD
1000
MTEXTBEGIN
1070
    73
1070
     1
1070
    44
1040
1.0
1070
    74
1070
     0
1000
MTEXTEND
  0
POINT
  5
2F8E8
330
2A576
100
AcDbEntity
  8
DEFPOINTS
 62
     0
 48
50.0
100
AcDbPoint
 10
11575.6
 20
8636.119711170087
 30
0.0
  0
POINT
  5
2F8E9
330
2A576
100
AcDbEntity
  8
DEFPOINTS
 62
     0
 48
50.0
100
AcDbPoint
 10
8105.6
 20
8636.119711170087
 30
0.0
  0
POINT
  5
2F8EA
330
2A576
100
AcDbEntity
  8
DEFPOINTS
 62
     0
 48
50.0
100
AcDbPoint
 10
8105.6
 20
9454.879337712167
 30
0.0
  0
ENDBLK
  5
2A580
330
2A576
100
AcDbEntity
  8
0
 48
50.0
100
AcDbBlockEnd
  0
BLOCK
  5
2A58A
330
2A581
100
AcDbEntity
  8
0
 48
50.0
100
AcDbBlockBegin
  2
*D9
 70
     1
 10
0.0
 20
0.0
 30
0.0
  3
*D9
  1

  0
LINE
  5
2F8D9
330
2A581
100
AcDbEntity
  8
寸法
 62
     0
 48
50.0
370
    -2
100
AcDbLine
 10
4748.6
 20
8729.119711170083
 30
0.0
 11
4748.6
 21
9727.340033229005
 31
0.0
  0
LINE
  5
2F8DA
330
2A581
100
AcDbEntity
  8
寸法
 62
     0
 48
50.0
370
    -2
100
AcDbLine
 10
11698.6
 20
8729.119711170083
 30
0.0
 11
11698.6
 21
9727.340033229005
 31
0.0
  0
LINE
  5
2F8DB
330
2A581
100
AcDbEntity
  8
寸法
 62
     0
 48
50.0
370
    -2
100
AcDbLine
 10
4748.6
 20
9667.340033229004
 30
0.0
 11
11698.6
 21
9667.340033229004
 31
0.0
  0
INSERT
  5
2F8DC
330
2A581
100
AcDbEntity
  8
寸法
 62
     0
 48
50.0
370
    -2
100
AcDbBlockReference
  2
_DOTSMALL
 10
4748.6
 20
9667.340033229004
 30
0.0
 41
100.0
 42
100.0
 43
100.0
 50
180.0
  0
INSERT
  5
2F8DD
330
2A581
100
AcDbEntity
  8
寸法
 62
     0
 48
50.0
370
    -2
100
AcDbBlockReference
  2
_DOTSMALL
 10
11698.6
 20
9667.340033229004
 30
0.0
 41
100.0
 42
100.0
 43
100.0
  0
MTEXT
  5
2F8DE
330
2A581
100
AcDbEntity
  8
寸法
 62
     7
 48
50.0
100
AcDbMText
 10
8223.600000000001
 20
9767.340033229004
 30
0.0
 40
120.0
 41
0.0
 71
     5
 72
     1
  1
\A1;6950
  7
STYLE1
 73
     1
 44
1.0
1001
ACAD
1000
MTEXTBEGIN
1070
    73
1070
     1
1070
    44
1040
1.0
1070
    74
1070
     0
1000
MTEXTEND
  0
POINT
  5
2F8DF
330
2A581
100
AcDbEntity
  8
DEFPOINTS
 62
     0
 48
50.0
100
AcDbPoint
 10
4748.6
 20
8709.119711170082
 30
0.0
  0
POINT
  5
2F8E0
330
2A581
100
AcDbEntity
  8
DEFPOINTS
 62
     0
 48
50.0
100
AcDbPoint
 10
11698.6
 20
8709.119711170082
 30
0.0
  0
POINT
  5
2F8E1
330
2A581
100
AcDbEntity
  8
DEFPOINTS
 62
     0
 48
50.0
100
AcDbPoint
 10
11698.6
 20
9667.340033229004
 30
0.0
  0
ENDBLK
  5
2A58B
330
2A581
100
AcDbEntity
  8
0
 48
50.0
100
AcDbBlockEnd
  0
BLOCK
  5
2A5AC
330
2A5A3
100
AcDbEntity
  8
0
 48
50.0
100
AcDbBlockBegin
  2
*D10
 70
     1
 10
0.0
 20
0.0
 30
0.0
  3
*D10
  1

  0
LINE
  5
2F8D0
330
2A5A3
100
AcDbEntity
  8
寸法
 62
     0
 48
50.0
370
    -2
100
AcDbLine
 10
4728.6
 20
8709.119711170082
 30
0.0
 11
3947.164931848212
 21
8709.119711170083
 31
0.0
  0
LINE
  5
2F8D1
330
2A5A3
100
AcDbEntity
  8
寸法
 62
     0
 48
50.0
370
    -2
100
AcDbLine
 10
4728.6
 20
5229.119711170084
 30
0.0
 11
3947.164931848211
 21
5229.119711170084
 31
0.0
  0
LINE
  5
2F8D2
330
2A5A3
100
AcDbEntity
  8
寸法
 62
     0
 48
50.0
370
    -2
100
AcDbLine
 10
4007.164931848211
 20
8709.119711170083
 30
0.0
 11
4007.164931848211
 21
5229.119711170084
 31
0.0
  0
INSERT
  5
2F8D3
330
2A5A3
100
AcDbEntity
  8
寸法
 62
     0
 48
50.0
370
    -2
100
AcDbBlockReference
  2
_DOTSMALL
 10
4007.164931848211
 20
8709.119711170083
 30
0.0
 41
100.0
 42
100.0
 43
100.0
 50
90.0
  0
INSERT
  5
2F8D4
330
2A5A3
100
AcDbEntity
  8
寸法
 62
     0
 48
50.0
370
    -2
100
AcDbBlockReference
  2
_DOTSMALL
 10
4007.164931848211
 20
5229.119711170084
 30
0.0
 41
100.0
 42
100.0
 43
100.0
 50
270.0
  0
MTEXT
  5
2F8D5
330
2A5A3
100
AcDbEntity
  8
寸法
 62
     7
 48
50.0
100
AcDbMText
 10
3907.16493184821
 20
6969.119711170084
 30
0.0
 40
120.0
 41
0.0
 71
     5
 72
     1
  1
\A1;3480
  7
STYLE1
 11
0.0000000000000001
 21
1.0
 31
0.0
 73
     1
 44
1.0
1001
ACAD
1000
MTEXTBEGIN
1070
    73
1070
     1
1070
    44
1040
1.0
1070
    74
1070
     0
1000
MTEXTEND
  0
POINT
  5
2F8D6
330
2A5A3
100
AcDbEntity
  8
DEFPOINTS
 62
     0
 48
50.0
100
AcDbPoint
 10
4748.6
 20
8709.119711170082
 30
0.0
  0
POINT
  5
2F8D7
330
2A5A3
100
AcDbEntity
  8
DEFPOINTS
 62
     0
 48
50.0
100
AcDbPoint
 10
4748.6
 20
5229.119711170084
 30
0.0
  0
POINT
  5
2F8D8
330
2A5A3
100
AcDbEntity
  8
DEFPOINTS
 62
     0
 48
50.0
100
AcDbPoint
 10
4007.164931848211
 20
5229.119711170084
 30
0.0
  0
ENDBLK
  5
2A5AD
330
2A5A3
100
AcDbEntity
  8
0
 48
50.0
100
AcDbBlockEnd
  0
BLOCK
  5
2A5B8
330
2A5AE
100
AcDbEntity
  8
0
 48
50.0
100
AcDbBlockBegin
  2
*D11
 70
     1
 10
0.0
 20
0.0
 30
0.0
  3
*D11
  1

  0
LINE
  5
2F8C7
330
2A5AE
100
AcDbEntity
  8
寸法
 62
     0
 48
50.0
370
    -2
100
AcDbLine
 10
4801.6
 20
8586.119711170084
 30
0.0
 11
4192.657733986176
 21
8586.119711170084
 31
0.0
  0
LINE
  5
2F8C8
330
2A5AE
100
AcDbEntity
  8
寸法
 62
     0
 48
50.0
370
    -2
100
AcDbLine
 10
4801.600000000007
 20
5352.119711170086
 30
0.0
 11
4192.657733986175
 21
5352.119711170086
 31
0.0
  0
LINE
  5
2F8C9
330
2A5AE
100
AcDbEntity
  8
寸法
 62
     0
 48
50.0
370
    -2
100
AcDbLine
 10
4252.657733986175
 20
8586.119711170084
 30
0.0
 11
4252.657733986175
 21
5352.119711170086
 31
0.0
  0
INSERT
  5
2F8CA
330
2A5AE
100
AcDbEntity
  8
寸法
 62
     0
 48
50.0
370
    -2
100
AcDbBlockReference
  2
_DOTSMALL
 10
4252.657733986175
 20
8586.119711170084
 30
0.0
 41
100.0
 42
100.0
 43
100.0
 50
90.0
  0
INSERT
  5
2F8CB
330
2A5AE
100
AcDbEntity
  8
寸法
 62
     0
 48
50.0
370
    -2
100
AcDbBlockReference
  2
_DOTSMALL
 10
4252.657733986175
 20
5352.119711170086
 30
0.0
 41
100.0
 42
100.0
 43
100.0
 50
270.0
  0
MTEXT
  5
2F8CC
330
2A5AE
100
AcDbEntity
  8
寸法
 62
     7
 48
50.0
100
AcDbMText
 10
4152.645922962552
 20
6969.119711170086
 30
0.0
 40
120.0
 41
0.0
 71
     5
 72
     1
  1
\A1;3234
  7
STYLE1
 11
0.0000000000000001
 21
1.0
 31
0.0
 73
     1
 44
1.0
1001
ACAD
1000
MTEXTBEGIN
1070
    73
1070
     1
1070
    44
1040
1.0
1070
    74
1070
     0
1000
MTEXTEND
  0
POINT
  5
2F8CD
330
2A5AE
100
AcDbEntity
  8
DEFPOINTS
 62
     0
 48
50.0
100
AcDbPoint
 10
4821.6
 20
8586.119711170084
 30
0.0
  0
POINT
  5
2F8CE
330
2A5AE
100
AcDbEntity
  8
DEFPOINTS
 62
     0
 48
50.0
100
AcDbPoint
 10
4821.600000000008
 20
5352.119711170086
 30
0.0
  0
POINT
  5
2F8CF
330
2A5AE
100
AcDbEntity
  8
DEFPOINTS
 62
     0
 48
50.0
100
AcDbPoint
 10
4252.657733986175
 20
5352.119711170086
 30
0.0
  0
ENDBLK
  5
2A5B9
330
2A5AE
100
AcDbEntity
  8
0
 48
50.0
100
AcDbBlockEnd
  0
BLOCK
  5
2A5E4
330
2A5DB
100
AcDbEntity
  8
0
 48
50.0
100
AcDbBlockBegin
  2
*D12
 70
     1
 10
0.0
 20
0.0
 30
0.0
  3
*D12
  1

  0
LINE
  5
2F8BE
330
2A5DB
100
AcDbEntity
  8
寸法
 62
     0
 48
50.0
370
    -2
100
AcDbLine
 10
5621.6
 20
5134.119711170073
 30
0.0
 11
5621.6
 21
4550.113321515364
 31
0.0
  0
LINE
  5
2F8BF
330
2A5DB
100
AcDbEntity
  8
寸法
 62
     0
 48
50.0
370
    -2
100
AcDbLine
 10
4748.6
 20
5209.119711170084
 30
0.0
 11
4748.6
 21
4550.113321515364
 31
0.0
  0
LINE
  5
2F8C0
330
2A5DB
100
AcDbEntity
  8
寸法
 62
     0
 48
50.0
370
    -2
100
AcDbLine
 10
5621.6
 20
4610.113321515364
 30
0.0
 11
4748.6
 21
4610.113321515364
 31
0.0
  0
INSERT
  5
2F8C1
330
2A5DB
100
AcDbEntity
  8
寸法
 62
     0
 48
50.0
370
    -2
100
AcDbBlockReference
  2
_DOTSMALL
 10
5621.6
 20
4610.113321515364
 30
0.0
 41
100.0
 42
100.0
 43
100.0
  0
INSERT
  5
2F8C2
330
2A5DB
100
AcDbEntity
  8
寸法
 62
     0
 48
50.0
370
    -2
100
AcDbBlockReference
  2
_DOTSMALL
 10
4748.6
 20
4610.113321515364
 30
0.0
 41
100.0
 42
100.0
 43
100.0
 50
180.0
  0
MTEXT
  5
2F8C3
330
2A5DB
100
AcDbEntity
  8
寸法
 62
     7
 48
50.0
100
AcDbMText
 10
5185.100000000001
 20
4710.113321515364
 30
0.0
 40
120.0
 41
0.0
 71
     5
 72
     1
  1
\A1;873
  7
STYLE1
 73
     1
 44
1.0
1001
ACAD
1000
MTEXTBEGIN
1070
    73
1070
     1
1070
    44
1040
1.0
1070
    74
1070
     0
1000
MTEXTEND
  0
POINT
  5
2F8C4
330
2A5DB
100
AcDbEntity
  8
DEFPOINTS
 62
     0
 48
50.0
100
AcDbPoint
 10
5621.6
 20
5154.119711170073
 30
0.0
  0
POINT
  5
2F8C5
330
2A5DB
100
AcDbEntity
  8
DEFPOINTS
 62
     0
 48
50.0
100
AcDbPoint
 10
4748.6
 20
5229.119711170084
 30
0.0
  0
POINT
  5
2F8C6
330
2A5DB
100
AcDbEntity
  8
DEFPOINTS
 62
     0
 48
50.0
100
AcDbPoint
 10
4748.6
 20
4610.113321515364
 30
0.0
  0
ENDBLK
  5
2A5E5
330
2A5DB
100
AcDbEntity
  8
0
 48
50.0
100
AcDbBlockEnd
  0
BLOCK
  5
2A5FD
330
2A5F2
100
AcDbEntity
  8
0
 48
50.0
100
AcDbBlockBegin
  2
*D13
 70
     1
 10
0.0
 20
0.0
 30
0.0
  3
*D13
  1

  0
LINE
  5
2F8B4
330
2A5F2
100
AcDbEntity
  8
寸法
 62
     0
 48
50.0
370
    -2
100
AcDbLine
 10
4801.600000000007
 20
5352.119711170086
 30
0.0
 11
4192.657733986179
 21
5352.119711170086
 31
0.0
  0
LINE
  5
2F8B5
330
2A5F2
100
AcDbEntity
  8
寸法
 62
     0
 48
50.0
370
    -2
100
AcDbLine
 10
4728.6
 20
5229.119711170084
 30
0.0
 11
4192.657733986179
 21
5229.119711170084
 31
0.0
  0
LINE
  5
2F8B6
330
2A5F2
100
AcDbEntity
  8
寸法
 62
     0
 48
50.0
370
    -2
100
AcDbLine
 10
4252.657733986178
 20
5352.119711170086
 30
0.0
 11
4252.657733986178
 21
5229.119711170084
 31
0.0
  0
LINE
  5
2F8B7
330
2A5F2
100
AcDbEntity
  8
寸法
 62
     0
 48
50.0
370
    -2
100
AcDbLine
 10
4252.657733986178
 20
5229.119711170084
 30
0.0
 11
4252.657733986178
 21
4755.103480953252
 31
0.0
  0
INSERT
  5
2F8B8
330
2A5F2
100
AcDbEntity
  8
寸法
 62
     0
 48
50.0
370
    -2
100
AcDbBlockReference
  2
_DOTSMALL
 10
4252.657733986178
 20
5352.119711170086
 30
0.0
 41
100.0
 42
100.0
 43
100.0
 50
90.0
  0
INSERT
  5
2F8B9
330
2A5F2
100
AcDbEntity
  8
寸法
 62
     0
 48
50.0
370
    -2
100
AcDbBlockReference
  2
_DOTSMALL
 10
4252.657733986178
 20
5229.119711170084
 30
0.0
 41
100.0
 42
100.0
 43
100.0
 50
270.0
  0
MTEXT
  5
2F8BA
330
2A5F2
100
AcDbEntity
  8
寸法
 62
     7
 48
50.0
100
AcDbMText
 10
4152.645922962556
 20
4893.588762327492
 30
0.0
 40
120.0
 41
0.0
 71
     5
 72
     1
  1
\A1;123
  7
STYLE1
 11
0.0000000000000001
 21
1.0
 31
0.0
 73
     1
 44
1.0
1001
ACAD
1000
MTEXTBEGIN
1070
    73
1070
     1
1070
    44
1040
1.0
1070
    74
1070
     0
1000
MTEXTEND
  0
POINT
  5
2F8BB
330
2A5F2
100
AcDbEntity
  8
DEFPOINTS
 62
     0
 48
50.0
100
AcDbPoint
 10
4821.600000000008
 20
5352.119711170086
 30
0.0
  0
POINT
  5
2F8BC
330
2A5F2
100
AcDbEntity
  8
DEFPOINTS
 62
     0
 48
50.0
100
AcDbPoint
 10
4748.6
 20
5229.119711170084
 30
0.0
  0
POINT
  5
2F8BD
330
2A5F2
100
AcDbEntity
  8
DEFPOINTS
 62
     0
 48
50.0
100
AcDbPoint
 10
4252.657733986178
 20
5229.119711170084
 30
0.0
  0
ENDBLK
  5
2A5FE
330
2A5F2
100
AcDbEntity
  8
0
 48
50.0
100
AcDbBlockEnd
  0
BLOCK
  5
2A616
330
2A60B
100
AcDbEntity
  8
0
 48
50.0
100
AcDbBlockBegin
  2
*D14
 70
     1
 10
0.0
 20
0.0
 30
0.0
  3
*D14
  1

  0
LINE
  5
2F8AA
330
2A60B
100
AcDbEntity
  8
寸法
 62
     0
 48
50.0
370
    -2
100
AcDbLine
 10
4998.6
 20
8589.119711170082
 30
0.0
 11
5255.3072498761
 21
8589.119711170082
 31
0.0
  0
LINE
  5
2F8AB
330
2A60B
100
AcDbEntity
  8
寸法
 62
     0
 48
50.0
370
    -2
100
AcDbLine
 10
4998.600000000003
 20
8709.119711170082
 30
0.0
 11
5255.3072498761
 21
8709.119711170082
 31
0.0
  0
LINE
  5
2F8AC
330
2A60B
100
AcDbEntity
  8
寸法
 62
     0
 48
50.0
370
    -2
100
AcDbLine
 10
5195.3072498761
 20
8589.119711170082
 30
0.0
 11
5195.3072498761
 21
8709.119711170082
 31
0.0
  0
LINE
  5
2F8AD
330
2A60B
100
AcDbEntity
  8
寸法
 62
     0
 48
50.0
370
    -2
100
AcDbLine
 10
5195.3072498761
 20
8709.119711170082
 30
0.0
 11
5195.3072498761
 21
9123.250498537457
 31
0.0
  0
INSERT
  5
2F8AE
330
2A60B
100
AcDbEntity
  8
寸法
 62
     0
 48
50.0
370
    -2
100
AcDbBlockReference
  2
_DOTSMALL
 10
5195.3072498761
 20
8589.119711170082
 30
0.0
 41
100.0
 42
100.0
 43
100.0
 50
270.0
  0
INSERT
  5
2F8AF
330
2A60B
100
AcDbEntity
  8
寸法
 62
     0
 48
50.0
370
    -2
100
AcDbBlockReference
  2
_DOTSMALL
 10
5195.3072498761
 20
8709.119711170082
 30
0.0
 41
100.0
 42
100.0
 43
100.0
 50
90.0
  0
MTEXT
  5
2F8B0
330
2A60B
100
AcDbEntity
  8
寸法
 62
     7
 48
50.0
100
AcDbMText
 10
5095.295438852478
 20
8987.20325444297
 30
0.0
 40
120.0
 41
0.0
 71
     5
 72
     1
  1
\A1;120
  7
STYLE1
 11
0.0000000000000001
 21
1.0
 31
0.0
 73
     1
 44
1.0
1001
ACAD
1000
MTEXTBEGIN
1070
    73
1070
     1
1070
    44
1040
1.0
1070
    74
1070
     0
1000
MTEXTEND
  0
POINT
  5
2F8B1
330
2A60B
100
AcDbEntity
  8
DEFPOINTS
 62
     0
 48
50.0
100
AcDbPoint
 10
4978.6
 20
8589.119711170082
 30
0.0
  0
POINT
  5
2F8B2
330
2A60B
100
AcDbEntity
  8
DEFPOINTS
 62
     0
 48
50.0
100
AcDbPoint
 10
4978.600000000002
 20
8709.119711170082
 30
0.0
  0
POINT
  5
2F8B3
330
2A60B
100
AcDbEntity
  8
DEFPOINTS
 62
     0
 48
50.0
100
AcDbPoint
 10
5195.3072498761
 20
8709.119711170082
 30
0.0
  0
ENDBLK
  5
2A617
330
2A60B
100
AcDbEntity
  8
0
 48
50.0
100
AcDbBlockEnd
  0
BLOCK
  5
2A621
330
2A618
100
AcDbEntity
  8
0
 48
50.0
100
AcDbBlockBegin
  2
*D15
 70
     1
 10
0.0
 20
0.0
 30
0.0
  3
*D15
  1

  0
LINE
  5
2F8A1
330
2A618
100
AcDbEntity
  8
寸法
 62
     0
 48
50.0
370
    -2
100
AcDbLine
 10
5656.6
 20
8044.119711170083
 30
0.0
 11
5656.6
 21
9296.029476818413
 31
0.0
  0
LINE
  5
2F8A2
330
2A618
100
AcDbEntity
  8
寸法
 62
     0
 48
50.0
370
    -2
100
AcDbLine
 10
4748.6
 20
8729.119711170083
 30
0.0
 11
4748.6
 21
9296.029476818413
 31
0.0
  0
LINE
  5
2F8A3
330
2A618
100
AcDbEntity
  8
寸法
 62
     0
 48
50.0
370
    -2
100
AcDbLine
 10
5656.6
 20
9236.029476818412
 30
0.0
 11
4748.6
 21
9236.029476818412
 31
0.0
  0
INSERT
  5
2F8A4
330
2A618
100
AcDbEntity
  8
寸法
 62
     0
 48
50.0
370
    -2
100
AcDbBlockReference
  2
_DOTSMALL
 10
5656.6
 20
9236.029476818412
 30
0.0
 41
100.0
 42
100.0
 43
100.0
  0
INSERT
  5
2F8A5
330
2A618
100
AcDbEntity
  8
寸法
 62
     0
 48
50.0
370
    -2
100
AcDbBlockReference
  2
_DOTSMALL
 10
4748.6
 20
9236.029476818412
 30
0.0
 41
100.0
 42
100.0
 43
100.0
 50
180.0
  0
MTEXT
  5
2F8A6
330
2A618
100
AcDbEntity
  8
寸法
 62
     7
 48
50.0
100
AcDbMText
 10
5202.6
 20
9336.029476818412
 30
0.0
 40
120.0
 41
0.0
 71
     5
 72
     1
  1
\A1;908
  7
STYLE1
 73
     1
 44
1.0
1001
ACAD
1000
MTEXTBEGIN
1070
    73
1070
     1
1070
    44
1040
1.0
1070
    74
1070
     0
1000
MTEXTEND
  0
POINT
  5
2F8A7
330
2A618
100
AcDbEntity
  8
DEFPOINTS
 62
     0
 48
50.0
100
AcDbPoint
 10
5656.6
 20
8024.119711170083
 30
0.0
  0
POINT
  5
2F8A8
330
2A618
100
AcDbEntity
  8
DEFPOINTS
 62
     0
 48
50.0
100
AcDbPoint
 10
4748.6
 20
8709.119711170082
 30
0.0
  0
POINT
  5
2F8A9
330
2A618
100
AcDbEntity
  8
DEFPOINTS
 62
     0
 48
50.0
100
AcDbPoint
 10
4748.6
 20
9236.029476818412
 30
0.0
  0
ENDBLK
  5
2A622
330
2A618
100
AcDbEntity
  8
0
 48
50.0
100
AcDbBlockEnd
  0
BLOCK
  5
2A62E
330
2A623
100
AcDbEntity
  8
0
 48
50.0
100
AcDbBlockBegin
  2
*D16
 70
     1
 10
0.0
 20
0.0
 30
0.0
  3
*D16
  1

  0
LINE
  5
2F897
330
2A623
100
AcDbEntity
  8
寸法
 62
     0
 48
50.0
370
    -2
100
AcDbLine
 10
4998.6
 20
8589.119711170084
 30
0.0
 11
5255.3072498761
 21
8589.119711170084
 31
0.0
  0
LINE
  5
2F898
330
2A623
100
AcDbEntity
  8
寸法
 62
     0
 48
50.0
370
    -2
100
AcDbLine
 10
4998.6
 20
8479.119711170081
 30
0.0
 11
5255.3072498761
 21
8479.119711170081
 31
0.0
  0
LINE
  5
2F899
330
2A623
100
AcDbEntity
  8
寸法
 62
     0
 48
50.0
370
    -2
100
AcDbLine
 10
5195.3072498761
 20
8589.119711170084
 30
0.0
 11
5195.3072498761
 21
8479.119711170081
 31
0.0
  0
LINE
  5
2F89A
330
2A623
100
AcDbEntity
  8
寸法
 62
     0
 48
50.0
370
    -2
100
AcDbLine
 10
5195.3072498761
 20
8479.119711170081
 30
0.0
 11
5195.3072498761
 21
8015.013411957481
 31
0.0
  0
INSERT
  5
2F89B
330
2A623
100
AcDbEntity
  8
寸法
 62
     0
 48
50.0
370
    -2
100
AcDbBlockReference
  2
_DOTSMALL
 10
5195.3072498761
 20
8589.119711170084
 30
0.0
 41
100.0
 42
100.0
 43
100.0
 50
90.0
  0
INSERT
  5
2F89C
330
2A623
100
AcDbEntity
  8
寸法
 62
     0
 48
50.0
370
    -2
100
AcDbBlockReference
  2
_DOTSMALL
 10
5195.3072498761
 20
8479.119711170081
 30
0.0
 41
100.0
 42
100.0
 43
100.0
 50
270.0
  0
MTEXT
  5
2F89D
330
2A623
100
AcDbEntity
  8
寸法
 62
     7
 48
50.0
100
AcDbMText
 10
5095.3072498761
 20
8139.06065605197
 30
0.0
 40
120.0
 41
0.0
 71
     5
 72
     1
  1
\A1;110
  7
STYLE1
 11
0.0000000000000001
 21
1.0
 31
0.0
 73
     1
 44
1.0
1001
ACAD
1000
MTEXTBEGIN
1070
    73
1070
     1
1070
    44
1040
1.0
1070
    74
1070
     0
1000
MTEXTEND
  0
POINT
  5
2F89E
330
2A623
100
AcDbEntity
  8
DEFPOINTS
 62
     0
 48
50.0
100
AcDbPoint
 10
4978.6
 20
8589.119711170084
 30
0.0
  0
POINT
  5
2F89F
330
2A623
100
AcDbEntity
  8
DEFPOINTS
 62
     0
 48
50.0
100
AcDbPoint
 10
4978.6
 20
8479.119711170081
 30
0.0
  0
POINT
  5
2F8A0
330
2A623
100
AcDbEntity
  8
DEFPOINTS
 62
     0
 48
50.0
100
AcDbPoint
 10
5195.3072498761
 20
8479.119711170081
 30
0.0
  0
ENDBLK
  5
2A62F
330
2A623
100
AcDbEntity
  8
0
 48
50.0
100
AcDbBlockEnd
  0
BLOCK
  5
2A63A
330
2A630
100
AcDbEntity
  8
0
 48
50.0
100
AcDbBlockBegin
  2
*D17
 70
     1
 10
0.0
 20
0.0
 30
0.0
  3
*D17
  1

  0
LINE
  5
2F88E
330
2A630
100
AcDbEntity
  8
寸法
 62
     0
 48
50.0
370
    -2
100
AcDbLine
 10
8105.6
 20
8656.119711170086
 30
0.0
 11
8105.6
 21
9514.879337712168
 31
0.0
  0
LINE
  5
2F88F
330
2A630
100
AcDbEntity
  8
寸法
 62
     0
 48
50.0
370
    -2
100
AcDbLine
 10
4871.6
 20
8656.119711170086
 30
0.0
 11
4871.6
 21
9514.879337712168
 31
0.0
  0
LINE
  5
2F890
330
2A630
100
AcDbEntity
  8
寸法
 62
     0
 48
50.0
370
    -2
100
AcDbLine
 10
8105.6
 20
9454.879337712167
 30
0.0
 11
4871.6
 21
9454.879337712167
 31
0.0
  0
INSERT
  5
2F891
330
2A630
100
AcDbEntity
  8
寸法
 62
     0
 48
50.0
370
    -2
100
AcDbBlockReference
  2
_DOTSMALL
 10
8105.6
 20
9454.879337712167
 30
0.0
 41
100.0
 42
100.0
 43
100.0
  0
INSERT
  5
2F892
330
2A630
100
AcDbEntity
  8
寸法
 62
     0
 48
50.0
370
    -2
100
AcDbBlockReference
  2
_DOTSMALL
 10
4871.6
 20
9454.879337712167
 30
0.0
 41
100.0
 42
100.0
 43
100.0
 50
180.0
  0
MTEXT
  5
2F893
330
2A630
100
AcDbEntity
  8
寸法
 62
     7
 48
50.0
100
AcDbMText
 10
6488.600000000001
 20
9554.891148735789
 30
0.0
 40
120.0
 41
0.0
 71
     5
 72
     1
  1
\A1;3234
  7
STYLE1
 73
     1
 44
1.0
1001
ACAD
1000
MTEXTBEGIN
1070
    73
1070
     1
1070
    44
1040
1.0
1070
    74
1070
     0
1000
MTEXTEND
  0
POINT
  5
2F894
330
2A630
100
AcDbEntity
  8
DEFPOINTS
 62
     0
 48
50.0
100
AcDbPoint
 10
8105.6
 20
8636.119711170087
 30
0.0
  0
POINT
  5
2F895
330
2A630
100
AcDbEntity
  8
DEFPOINTS
 62
     0
 48
50.0
100
AcDbPoint
 10
4871.6
 20
8636.119711170087
 30
0.0
  0
POINT
  5
2F896
330
2A630
100
AcDbEntity
  8
DEFPOINTS
 62
     0
 48
50.0
100
AcDbPoint
 10
4871.6
 20
9454.879337712167
 30
0.0
  0
ENDBLK
  5
2A63B
330
2A630
100
AcDbEntity
  8
0
 48
50.0
100
AcDbBlockEnd
  0
BLOCK
  5
2A651
330
2A646
100
AcDbEntity
  8
0
 48
50.0
100
AcDbBlockBegin
  2
*D18
 70
     1
 10
0.0
 20
0.0
 30
0.0
  3
*D18
  1

  0
LINE
  5
2F884
330
2A646
100
AcDbEntity
  8
寸法
 62
     0
 48
50.0
370
    -2
100
AcDbLine
 10
4728.6
 20
8709.119711170082
 30
0.0
 11
4192.657733986179
 21
8709.119711170082
 31
0.0
  0
LINE
  5
2F885
330
2A646
100
AcDbEntity
  8
寸法
 62
     0
 48
50.0
370
    -2
100
AcDbLine
 10
4801.6
 20
8586.119711170084
 30
0.0
 11
4192.657733986179
 21
8586.119711170084
 31
0.0
  0
LINE
  5
2F886
330
2A646
100
AcDbEntity
  8
寸法
 62
     0
 48
50.0
370
    -2
100
AcDbLine
 10
4252.657733986178
 20
8586.119711170084
 30
0.0
 11
4252.657733986178
 21
8709.119711170082
 31
0.0
  0
LINE
  5
2F887
330
2A646
100
AcDbEntity
  8
寸法
 62
     0
 48
50.0
370
    -2
100
AcDbLine
 10
4252.657733986178
 20
8709.119711170082
 30
0.0
 11
4252.657733986178
 21
9120.71159426212
 31
0.0
  0
INSERT
  5
2F888
330
2A646
100
AcDbEntity
  8
寸法
 62
     0
 48
50.0
370
    -2
100
AcDbBlockReference
  2
_DOTSMALL
 10
4252.657733986178
 20
8586.119711170084
 30
0.0
 41
100.0
 42
100.0
 43
100.0
 50
270.0
  0
INSERT
  5
2F889
330
2A646
100
AcDbEntity
  8
寸法
 62
     0
 48
50.0
370
    -2
100
AcDbBlockReference
  2
_DOTSMALL
 10
4252.657733986178
 20
8709.119711170082
 30
0.0
 41
100.0
 42
100.0
 43
100.0
 50
90.0
  0
MTEXT
  5
2F88A
330
2A646
100
AcDbEntity
  8
寸法
 62
     7
 48
50.0
100
AcDbMText
 10
4152.645922962556
 20
8982.226312887885
 30
0.0
 40
120.0
 41
0.0
 71
     5
 72
     1
  1
\A1;123
  7
STYLE1
 11
0.0000000000000001
 21
1.0
 31
0.0
 73
     1
 44
1.0
1001
ACAD
1000
MTEXTBEGIN
1070
    73
1070
     1
1070
    44
1040
1.0
1070
    74
1070
     0
1000
MTEXTEND
  0
POINT
  5
2F88B
330
2A646
100
AcDbEntity
  8
DEFPOINTS
 62
     0
 48
50.0
100
AcDbPoint
 10
4748.6
 20
8709.119711170082
 30
0.0
  0
POINT
  5
2F88C
330
2A646
100
AcDbEntity
  8
DEFPOINTS
 62
     0
 48
50.0
100
AcDbPoint
 10
4821.6
 20
8586.119711170084
 30
0.0
  0
POINT
  5
2F88D
330
2A646
100
AcDbEntity
  8
DEFPOINTS
 62
     0
 48
50.0
100
AcDbPoint
 10
4252.657733986178
 20
8586.119711170084
 30
0.0
  0
ENDBLK
  5
2A652
330
2A646
100
AcDbEntity
  8
0
 48
50.0
100
AcDbBlockEnd
  0
BLOCK
  5
2A65E
330
2A653
100
AcDbEntity
  8
0
 48
50.0
100
AcDbBlockBegin
  2
*D19
 70
     1
 10
0.0
 20
0.0
 30
0.0
  3
*D19
  1

  0
LINE
  5
2F87A
330
2A653
100
AcDbEntity
  8
寸法
 62
     0
 48
50.0
370
    -2
100
AcDbLine
 10
4871.6
 20
8656.119711170086
 30
0.0
 11
4871.6
 21
9514.879337712168
 31
0.0
  0
LINE
  5
2F87B
330
2A653
100
AcDbEntity
  8
寸法
 62
     0
 48
50.0
370
    -2
100
AcDbLine
 10
4748.6
 20
8729.119711170083
 30
0.0
 11
4748.6
 21
9514.879337712168
 31
0.0
  0
LINE
  5
2F87C
330
2A653
100
AcDbEntity
  8
寸法
 62
     0
 48
50.0
370
    -2
100
AcDbLine
 10
4871.6
 20
9454.879337712167
 30
0.0
 11
4748.6
 21
9454.879337712167
 31
0.0
  0
LINE
  5
2F87D
330
2A653
100
AcDbEntity
  8
寸法
 62
     0
 48
50.0
370
    -2
100
AcDbLine
 10
4748.6
 20
9454.879337712167
 30
0.0
 11
4337.008116907963
 21
9454.879337712167
 31
0.0
  0
INSERT
  5
2F87E
330
2A653
100
AcDbEntity
  8
寸法
 62
     0
 48
50.0
370
    -2
100
AcDbBlockReference
  2
_DOTSMALL
 10
4871.6
 20
9454.879337712167
 30
0.0
 41
100.0
 42
100.0
 43
100.0
  0
INSERT
  5
2F87F
330
2A653
100
AcDbEntity
  8
寸法
 62
     0
 48
50.0
370
    -2
100
AcDbBlockReference
  2
_DOTSMALL
 10
4748.6
 20
9454.879337712167
 30
0.0
 41
100.0
 42
100.0
 43
100.0
 50
180.0
  0
MTEXT
  5
2F880
330
2A653
100
AcDbEntity
  8
寸法
 62
     7
 48
50.0
100
AcDbMText
 10
4475.493398282202
 20
9554.891148735789
 30
0.0
 40
120.0
 41
0.0
 71
     5
 72
     1
  1
\A1;123
  7
STYLE1
 73
     1
 44
1.0
1001
ACAD
1000
MTEXTBEGIN
1070
    73
1070
     1
1070
    44
1040
1.0
1070
    74
1070
     0
1000
MTEXTEND
  0
POINT
  5
2F881
330
2A653
100
AcDbEntity
  8
DEFPOINTS
 62
     0
 48
50.0
100
AcDbPoint
 10
4871.6
 20
8636.119711170087
 30
0.0
  0
POINT
  5
2F882
330
2A653
100
AcDbEntity
  8
DEFPOINTS
 62
     0
 48
50.0
100
AcDbPoint
 10
4748.6
 20
8709.119711170082
 30
0.0
  0
POINT
  5
2F883
330
2A653
100
AcDbEntity
  8
DEFPOINTS
 62
     0
 48
50.0
100
AcDbPoint
 10
4748.6
 20
9454.879337712167
 30
0.0
  0
ENDBLK
  5
2A65F
330
2A653
100
AcDbEntity
  8
0
 48
50.0
100
AcDbBlockEnd
  0
BLOCK
  5
2A676
330
2A66D
100
AcDbEntity
  8
0
 48
50.0
100
AcDbBlockBegin
  2
*D20
 70
     1
 10
0.0
 20
0.0
 30
0.0
  3
*D20
  1

  0
LINE
  5
2F871
330
2A66D
100
AcDbEntity
  8
寸法
 62
     0
 48
50.0
370
    -2
100
AcDbLine
 10
8223.600000000001
 20
7944.119711170081
 30
0.0
 11
8223.600000000001
 21
9296.029476818413
 31
0.0
  0
LINE
  5
2F872
330
2A66D
100
AcDbEntity
  8
寸法
 62
     0
 48
50.0
370
    -2
100
AcDbLine
 10
7320.6
 20
8044.119711170083
 30
0.0
 11
7320.6
 21
9296.029476818413
 31
0.0
  0
LINE
  5
2F873
330
2A66D
100
AcDbEntity
  8
寸法
 62
     0
 48
50.0
370
    -2
100
AcDbLine
 10
8223.600000000001
 20
9236.029476818412
 30
0.0
 11
7320.6
 21
9236.029476818412
 31
0.0
  0
INSERT
  5
2F874
330
2A66D
100
AcDbEntity
  8
寸法
 62
     0
 48
50.0
370
    -2
100
AcDbBlockReference
  2
_DOTSMALL
 10
8223.600000000001
 20
9236.029476818412
 30
0.0
 41
100.0
 42
100.0
 43
100.0
  0
INSERT
  5
2F875
330
2A66D
100
AcDbEntity
  8
寸法
 62
     0
 48
50.0
370
    -2
100
AcDbBlockReference
  2
_DOTSMALL
 10
7320.6
 20
9236.029476818412
 30
0.0
 41
100.0
 42
100.0
 43
100.0
 50
180.0
  0
MTEXT
  5
2F876
330
2A66D
100
AcDbEntity
  8
寸法
 62
     7
 48
50.0
100
AcDbMText
 10
7772.1
 20
9336.029476818412
 30
0.0
 40
120.0
 41
0.0
 71
     5
 72
     1
  1
\A1;903
  7
STYLE1
 73
     1
 44
1.0
1001
ACAD
1000
MTEXTBEGIN
1070
    73
1070
     1
1070
    44
1040
1.0
1070
    74
1070
     0
1000
MTEXTEND
  0
POINT
  5
2F877
330
2A66D
100
AcDbEntity
  8
DEFPOINTS
 62
     0
 48
50.0
100
AcDbPoint
 10
8223.600000000001
 20
7924.119711170082
 30
0.0
  0
POINT
  5
2F878
330
2A66D
100
AcDbEntity
  8
DEFPOINTS
 62
     0
 48
50.0
100
AcDbPoint
 10
7320.6
 20
8024.119711170083
 30
0.0
  0
POINT
  5
2F879
330
2A66D
100
AcDbEntity
  8
DEFPOINTS
 62
     0
 48
50.0
100
AcDbPoint
 10
7320.6
 20
9236.029476818412
 30
0.0
  0
ENDBLK
  5
2A677
330
2A66D
100
AcDbEntity
  8
0
 48
50.0
100
AcDbBlockEnd
  0
BLOCK
  5
2A682
330
2A678
100
AcDbEntity
  8
0
 48
50.0
100
AcDbBlockBegin
  2
*D21
 70
     1
 10
0.0
 20
0.0
 30
0.0
  3
*D21
  1

  0
LINE
  5
2F868
330
2A678
100
AcDbEntity
  8
寸法
 62
     0
 48
50.0
370
    -2
100
AcDbLine
 10
6488.600000000004
 20
8044.119711170083
 30
0.0
 11
6488.600000000004
 21
9296.029476818413
 31
0.0
  0
LINE
  5
2F869
330
2A678
100
AcDbEntity
  8
寸法
 62
     0
 48
50.0
370
    -2
100
AcDbLine
 10
5656.6
 20
8044.119711170083
 30
0.0
 11
5656.6
 21
9296.029476818413
 31
0.0
  0
LINE
  5
2F86A
330
2A678
100
AcDbEntity
  8
寸法
 62
     0
 48
50.0
370
    -2
100
AcDbLine
 10
6488.600000000004
 20
9236.029476818412
 30
0.0
 11
5656.6
 21
9236.029476818412
 31
0.0
  0
INSERT
  5
2F86B
330
2A678
100
AcDbEntity
  8
寸法
 62
     0
 48
50.0
370
    -2
100
AcDbBlockReference
  2
_DOTSMALL
 10
6488.600000000004
 20
9236.029476818412
 30
0.0
 41
100.0
 42
100.0
 43
100.0
  0
INSERT
  5
2F86C
330
2A678
100
AcDbEntity
  8
寸法
 62
     0
 48
50.0
370
    -2
100
AcDbBlockReference
  2
_DOTSMALL
 10
5656.6
 20
9236.029476818412
 30
0.0
 41
100.0
 42
100.0
 43
100.0
 50
180.0
  0
MTEXT
  5
2F86D
330
2A678
100
AcDbEntity
  8
寸法
 62
     7
 48
50.0
100
AcDbMText
 10
6072.600000000002
 20
9336.041287842034
 30
0.0
 40
120.0
 41
0.0
 71
     5
 72
     1
  1
\A1;832
  7
STYLE1
 73
     1
 44
1.0
1001
ACAD
1000
MTEXTBEGIN
1070
    73
1070
     1
1070
    44
1040
1.0
1070
    74
1070
     0
1000
MTEXTEND
  0
POINT
  5
2F86E
330
2A678
100
AcDbEntity
  8
DEFPOINTS
 62
     0
 48
50.0
100
AcDbPoint
 10
6488.600000000004
 20
8024.119711170083
 30
0.0
  0
POINT
  5
2F86F
330
2A678
100
AcDbEntity
  8
DEFPOINTS
 62
     0
 48
50.0
100
AcDbPoint
 10
5656.6
 20
8024.119711170083
 30
0.0
  0
POINT
  5
2F870
330
2A678
100
AcDbEntity
  8
DEFPOINTS
 62
     0
 48
50.0
100
AcDbPoint
 10
5656.6
 20
9236.029476818412
 30
0.0
  0
ENDBLK
  5
2A683
330
2A678
100
AcDbEntity
  8
0
 48
50.0
100
AcDbBlockEnd
  0
BLOCK
  5
2A68E
330
2A684
100
AcDbEntity
  8
0
 48
50.0
100
AcDbBlockBegin
  2
*D22
 70
     1
 10
0.0
 20
0.0
 30
0.0
  3
*D22
  1

  0
LINE
  5
2F85F
330
2A684
100
AcDbEntity
  8
寸法
 62
     0
 48
50.0
370
    -2
100
AcDbLine
 10
7320.6
 20
8044.119711170083
 30
0.0
 11
7320.6
 21
9296.029476818413
 31
0.0
  0
LINE
  5
2F860
330
2A684
100
AcDbEntity
  8
寸法
 62
     0
 48
50.0
370
    -2
100
AcDbLine
 10
6488.600000000004
 20
8044.119711170083
 30
0.0
 11
6488.600000000004
 21
9296.029476818413
 31
0.0
  0
LINE
  5
2F861
330
2A684
100
AcDbEntity
  8
寸法
 62
     0
 48
50.0
370
    -2
100
AcDbLine
 10
7320.6
 20
9236.029476818412
 30
0.0
 11
6488.600000000004
 21
9236.029476818412
 31
0.0
  0
INSERT
  5
2F862
330
2A684
100
AcDbEntity
  8
寸法
 62
     0
 48
50.0
370
    -2
100
AcDbBlockReference
  2
_DOTSMALL
 10
7320.6
 20
9236.029476818412
 30
0.0
 41
100.0
 42
100.0
 43
100.0
  0
INSERT
  5
2F863
330
2A684
100
AcDbEntity
  8
寸法
 62
     0
 48
50.0
370
    -2
100
AcDbBlockReference
  2
_DOTSMALL
 10
6488.600000000004
 20
9236.029476818412
 30
0.0
 41
100.0
 42
100.0
 43
100.0
 50
180.0
  0
MTEXT
  5
2F864
330
2A684
100
AcDbEntity
  8
寸法
 62
     7
 48
50.0
100
AcDbMText
 10
6904.600000000002
 20
9336.041287842034
 30
0.0
 40
120.0
 41
0.0
 71
     5
 72
     1
  1
\A1;832
  7
STYLE1
 73
     1
 44
1.0
1001
ACAD
1000
MTEXTBEGIN
1070
    73
1070
     1
1070
    44
1040
1.0
1070
    74
1070
     0
1000
MTEXTEND
  0
POINT
  5
2F865
330
2A684
100
AcDbEntity
  8
DEFPOINTS
 62
     0
 48
50.0
100
AcDbPoint
 10
7320.6
 20
8024.119711170083
 30
0.0
  0
POINT
  5
2F866
330
2A684
100
AcDbEntity
  8
DEFPOINTS
 62
     0
 48
50.0
100
AcDbPoint
 10
6488.600000000004
 20
8024.119711170083
 30
0.0
  0
POINT
  5
2F867
330
2A684
100
AcDbEntity
  8
DEFPOINTS
 62
     0
 48
50.0
100
AcDbPoint
 10
6488.600000000004
 20
9236.029476818412
 30
0.0
  0
ENDBLK
  5
2A68F
330
2A684
100
AcDbEntity
  8
0
 48
50.0
100
AcDbBlockEnd
  0
BLOCK
  5
2A69A
330
2A690
100
AcDbEntity
  8
0
 48
50.0
100
AcDbBlockBegin
  2
*D23
 70
     1
 10
0.0
 20
0.0
 30
0.0
  3
*D23
  1

  0
LINE
  5
2F856
330
2A690
100
AcDbEntity
  8
寸法
 62
     0
 48
50.0
370
    -2
100
AcDbLine
 10
10244.04593925956
 20
5229.119711170092
 30
0.0
 11
10538.85510029273
 21
5229.119711170092
 31
0.0
  0
LINE
  5
2F857
330
2A690
100
AcDbEntity
  8
寸法
 62
     0
 48
50.0
370
    -2
100
AcDbLine
 10
10670.6
 20
6114.119711170073
 30
0.0
 11
10418.85510029273
 21
6114.119711170073
 31
0.0
  0
LINE
  5
2F858
330
2A690
100
AcDbEntity
  8
寸法
 62
     0
 48
50.0
370
    -2
100
AcDbLine
 10
10478.85510029273
 20
5229.119711170092
 30
0.0
 11
10478.85510029273
 21
6114.119711170073
 31
0.0
  0
INSERT
  5
2F859
330
2A690
100
AcDbEntity
  8
寸法
 62
     0
 48
50.0
370
    -2
100
AcDbBlockReference
  2
_DOTSMALL
 10
10478.85510029273
 20
5229.119711170092
 30
0.0
 41
100.0
 42
100.0
 43
100.0
 50
270.0
  0
INSERT
  5
2F85A
330
2A690
100
AcDbEntity
  8
寸法
 62
     0
 48
50.0
370
    -2
100
AcDbBlockReference
  2
_DOTSMALL
 10
10478.85510029273
 20
6114.119711170073
 30
0.0
 41
100.0
 42
100.0
 43
100.0
 50
90.0
  0
MTEXT
  5
2F85B
330
2A690
100
AcDbEntity
  8
寸法
 62
     7
 48
50.0
100
AcDbMText
 10
10378.85510029272
 20
5671.619711170085
 30
0.0
 40
120.0
 41
0.0
 71
     5
 72
     1
  1
\A1;885
  7
STYLE1
 11
0.0000000000000001
 21
1.0
 31
0.0
 73
     1
 44
1.0
1001
ACAD
1000
MTEXTBEGIN
1070
    73
1070
     1
1070
    44
1040
1.0
1070
    74
1070
     0
1000
MTEXTEND
  0
POINT
  5
2F85C
330
2A690
100
AcDbEntity
  8
DEFPOINTS
 62
     0
 48
50.0
100
AcDbPoint
 10
10224.04593925956
 20
5229.119711170093
 30
0.0
  0
POINT
  5
2F85D
330
2A690
100
AcDbEntity
  8
DEFPOINTS
 62
     0
 48
50.0
100
AcDbPoint
 10
10690.6
 20
6114.119711170073
 30
0.0
  0
POINT
  5
2F85E
330
2A690
100
AcDbEntity
  8
DEFPOINTS
 62
     0
 48
50.0
100
AcDbPoint
 10
10478.85510029273
 20
6114.119711170073
 30
0.0
  0
ENDBLK
  5
2A69B
330
2A690
100
AcDbEntity
  8
0
 48
50.0
100
AcDbBlockEnd
  0
BLOCK
  5
2A6C0
330
2A6B5
100
AcDbEntity
  8
0
 48
50.0
100
AcDbBlockBegin
  2
*D24
 70
     1
 10
0.0
 20
0.0
 30
0.0
  3
*D24
  1

  0
LINE
  5
2F84C
330
2A6B5
100
AcDbEntity
  8
寸法
 62
     0
 48
50.0
370
    -2
100
AcDbLine
 10
11698.6
 20
8729.119711170083
 30
0.0
 11
11698.6
 21
9514.879337712168
 31
0.0
  0
LINE
  5
2F84D
330
2A6B5
100
AcDbEntity
  8
寸法
 62
     0
 48
50.0
370
    -2
100
AcDbLine
 10
11575.6
 20
8656.119711170086
 30
0.0
 11
11575.6
 21
9514.879337712168
 31
0.0
  0
LINE
  5
2F84E
330
2A6B5
100
AcDbEntity
  8
寸法
 62
     0
 48
50.0
370
    -2
100
AcDbLine
 10
11575.6
 20
9454.879337712167
 30
0.0
 11
11698.6
 21
9454.879337712167
 31
0.0
  0
LINE
  5
2F84F
330
2A6B5
100
AcDbEntity
  8
寸法
 62
     0
 48
50.0
370
    -2
100
AcDbLine
 10
11698.6
 20
9454.879337712167
 30
0.0
 11
12110.19188309204
 21
9454.879337712167
 31
0.0
  0
INSERT
  5
2F850
330
2A6B5
100
AcDbEntity
  8
寸法
 62
     0
 48
50.0
370
    -2
100
AcDbBlockReference
  2
_DOTSMALL
 10
11575.6
 20
9454.879337712167
 30
0.0
 41
100.0
 42
100.0
 43
100.0
 50
180.0
  0
INSERT
  5
2F851
330
2A6B5
100
AcDbEntity
  8
寸法
 62
     0
 48
50.0
370
    -2
100
AcDbBlockReference
  2
_DOTSMALL
 10
11698.6
 20
9454.879337712167
 30
0.0
 41
100.0
 42
100.0
 43
100.0
  0
MTEXT
  5
2F852
330
2A6B5
100
AcDbEntity
  8
寸法
 62
     7
 48
50.0
100
AcDbMText
 10
11971.7066017178
 20
9554.891148735789
 30
0.0
 40
120.0
 41
0.0
 71
     5
 72
     1
  1
\A1;123
  7
STYLE1
 73
     1
 44
1.0
1001
ACAD
1000
MTEXTBEGIN
1070
    73
1070
     1
1070
    44
1040
1.0
1070
    74
1070
     0
1000
MTEXTEND
  0
POINT
  5
2F853
330
2A6B5
100
AcDbEntity
  8
DEFPOINTS
 62
     0
 48
50.0
100
AcDbPoint
 10
11698.6
 20
8709.119711170082
 30
0.0
  0
POINT
  5
2F854
330
2A6B5
100
AcDbEntity
  8
DEFPOINTS
 62
     0
 48
50.0
100
AcDbPoint
 10
11575.6
 20
8636.119711170087
 30
0.0
  0
POINT
  5
2F855
330
2A6B5
100
AcDbEntity
  8
DEFPOINTS
 62
     0
 48
50.0
100
AcDbPoint
 10
11575.6
 20
9454.879337712167
 30
0.0
  0
ENDBLK
  5
2A6C1
330
2A6B5
100
AcDbEntity
  8
0
 48
50.0
100
AcDbBlockEnd
  0
BLOCK
  5
2A6DA
330
2A6CF
100
AcDbEntity
  8
0
 48
50.0
100
AcDbBlockBegin
  2
*D25
 70
     1
 10
0.0
 20
0.0
 30
0.0
  3
*D25
  1

  0
LINE
  5
2F842
330
2A6CF
100
AcDbEntity
  8
寸法
 62
     0
 48
50.0
370
    -2
100
AcDbLine
 10
11698.6
 20
8248.40430770854
 30
0.0
 11
11698.6
 21
8191.41104366971
 31
0.0
  0
LINE
  5
2F843
330
2A6CF
100
AcDbEntity
  8
寸法
 62
     0
 48
50.0
370
    -2
100
AcDbLine
 10
11578.6
 20
8248.40430770854
 30
0.0
 11
11578.6
 21
8191.41104366971
 31
0.0
  0
LINE
  5
2F844
330
2A6CF
100
AcDbEntity
  8
寸法
 62
     0
 48
50.0
370
    -2
100
AcDbLine
 10
11578.6
 20
8251.41104366971
 30
0.0
 11
11698.6
 21
8251.41104366971
 31
0.0
  0
LINE
  5
2F845
330
2A6CF
100
AcDbEntity
  8
寸法
 62
     0
 48
50.0
370
    -2
100
AcDbLine
 10
11698.6
 20
8251.41104366971
 30
0.0
 11
12104.7062992126
 21
8251.41104366971
 31
0.0
  0
INSERT
  5
2F846
330
2A6CF
100
AcDbEntity
  8
寸法
 62
     0
 48
50.0
370
    -2
100
AcDbBlockReference
  2
_DOTSMALL
 10
11578.6
 20
8251.41104366971
 30
0.0
 41
100.0
 42
100.0
 43
100.0
 50
180.0
  0
INSERT
  5
2F847
330
2A6CF
100
AcDbEntity
  8
寸法
 62
     0
 48
50.0
370
    -2
100
AcDbBlockReference
  2
_DOTSMALL
 10
11698.6
 20
8251.41104366971
 30
0.0
 41
100.0
 42
100.0
 43
100.0
  0
MTEXT
  5
2F848
330
2A6CF
100
AcDbEntity
  8
寸法
 62
     7
 48
50.0
100
AcDbMText
 10
11968.65905511811
 20
8351.422854693332
 30
0.0
 40
120.0
 41
0.0
 71
     5
 72
     1
  1
\A1;120
  7
STYLE1
 73
     1
 44
1.0
1001
ACAD
1000
MTEXTBEGIN
1070
    73
1070
     1
1070
    44
1040
1.0
1070
    74
1070
     0
1000
MTEXTEND
  0
POINT
  5
2F849
330
2A6CF
100
AcDbEntity
  8
DEFPOINTS
 62
     0
 48
50.0
100
AcDbPoint
 10
11698.6
 20
8268.404307708541
 30
0.0
  0
POINT
  5
2F84A
330
2A6CF
100
AcDbEntity
  8
DEFPOINTS
 62
     0
 48
50.0
100
AcDbPoint
 10
11578.6
 20
8268.404307708541
 30
0.0
  0
POINT
  5
2F84B
330
2A6CF
100
AcDbEntity
  8
DEFPOINTS
 62
     0
 48
50.0
100
AcDbPoint
 10
11578.6
 20
8251.41104366971
 30
0.0
  0
ENDBLK
  5
2A6DB
330
2A6CF
100
AcDbEntity
  8
0
 48
50.0
100
AcDbBlockEnd
  0
BLOCK
  5
2A6E6
330
2A6DC
100
AcDbEntity
  8
0
 48
50.0
100
AcDbBlockBegin
  2
*D26
 70
     1
 10
0.0
 20
0.0
 30
0.0
  3
*D26
  1

  0
LINE
  5
2F839
330
2A6DC
100
AcDbEntity
  8
寸法
 62
     0
 48
50.0
370
    -2
100
AcDbLine
 10
11698.6
 20
8729.119711170083
 30
0.0
 11
11698.6
 21
9296.029476818413
 31
0.0
  0
LINE
  5
2F83A
330
2A6DC
100
AcDbEntity
  8
寸法
 62
     0
 48
50.0
370
    -2
100
AcDbLine
 10
10790.6
 20
8054.119711170084
 30
0.0
 11
10790.6
 21
9296.029476818413
 31
0.0
  0
LINE
  5
2F83B
330
2A6DC
100
AcDbEntity
  8
寸法
 62
     0
 48
50.0
370
    -2
100
AcDbLine
 10
11698.6
 20
9236.029476818412
 30
0.0
 11
10790.6
 21
9236.029476818412
 31
0.0
  0
INSERT
  5
2F83C
330
2A6DC
100
AcDbEntity
  8
寸法
 62
     0
 48
50.0
370
    -2
100
AcDbBlockReference
  2
_DOTSMALL
 10
11698.6
 20
9236.029476818412
 30
0.0
 41
100.0
 42
100.0
 43
100.0
  0
INSERT
  5
2F83D
330
2A6DC
100
AcDbEntity
  8
寸法
 62
     0
 48
50.0
370
    -2
100
AcDbBlockReference
  2
_DOTSMALL
 10
10790.6
 20
9236.029476818412
 30
0.0
 41
100.0
 42
100.0
 43
100.0
 50
180.0
  0
MTEXT
  5
2F83E
330
2A6DC
100
AcDbEntity
  8
寸法
 62
     7
 48
50.0
100
AcDbMText
 10
11244.6
 20
9336.029476818412
 30
0.0
 40
120.0
 41
0.0
 71
     5
 72
     1
  1
\A1;908
  7
STYLE1
 73
     1
 44
1.0
1001
ACAD
1000
MTEXTBEGIN
1070
    73
1070
     1
1070
    44
1040
1.0
1070
    74
1070
     0
1000
MTEXTEND
  0
POINT
  5
2F83F
330
2A6DC
100
AcDbEntity
  8
DEFPOINTS
 62
     0
 48
50.0
100
AcDbPoint
 10
11698.6
 20
8709.119711170082
 30
0.0
  0
POINT
  5
2F840
330
2A6DC
100
AcDbEntity
  8
DEFPOINTS
 62
     0
 48
50.0
100
AcDbPoint
 10
10790.6
 20
8034.119711170083
 30
0.0
  0
POINT
  5
2F841
330
2A6DC
100
AcDbEntity
  8
DEFPOINTS
 62
     0
 48
50.0
100
AcDbPoint
 10
10790.6
 20
9236.029476818412
 30
0.0
  0
ENDBLK
  5
2A6E7
330
2A6DC
100
AcDbEntity
  8
0
 48
50.0
100
AcDbBlockEnd
  0
BLOCK
  5
2A6F2
330
2A6E8
100
AcDbEntity
  8
0
 48
50.0
100
AcDbBlockBegin
  2
*D27
 70
     1
 10
0.0
 20
0.0
 30
0.0
  3
*D27
  1

  0
LINE
  5
2F830
330
2A6E8
100
AcDbEntity
  8
寸法
 62
     0
 48
50.0
370
    -2
100
AcDbLine
 10
9958.600000000004
 20
8044.119711170083
 30
0.0
 11
9958.600000000004
 21
9296.029476818413
 31
0.0
  0
LINE
  5
2F831
330
2A6E8
100
AcDbEntity
  8
寸法
 62
     0
 48
50.0
370
    -2
100
AcDbLine
 10
9126.600000000001
 20
8044.119711170083
 30
0.0
 11
9126.600000000001
 21
9296.029476818413
 31
0.0
  0
LINE
  5
2F832
330
2A6E8
100
AcDbEntity
  8
寸法
 62
     0
 48
50.0
370
    -2
100
AcDbLine
 10
9958.600000000004
 20
9236.029476818412
 30
0.0
 11
9126.600000000001
 21
9236.029476818412
 31
0.0
  0
INSERT
  5
2F833
330
2A6E8
100
AcDbEntity
  8
寸法
 62
     0
 48
50.0
370
    -2
100
AcDbBlockReference
  2
_DOTSMALL
 10
9958.600000000004
 20
9236.029476818412
 30
0.0
 41
100.0
 42
100.0
 43
100.0
  0
INSERT
  5
2F834
330
2A6E8
100
AcDbEntity
  8
寸法
 62
     0
 48
50.0
370
    -2
100
AcDbBlockReference
  2
_DOTSMALL
 10
9126.600000000001
 20
9236.029476818412
 30
0.0
 41
100.0
 42
100.0
 43
100.0
 50
180.0
  0
MTEXT
  5
2F835
330
2A6E8
100
AcDbEntity
  8
寸法
 62
     7
 48
50.0
100
AcDbMText
 10
9542.600000000003
 20
9336.041287842034
 30
0.0
 40
120.0
 41
0.0
 71
     5
 72
     1
  1
\A1;832
  7
STYLE1
 73
     1
 44
1.0
1001
ACAD
1000
MTEXTBEGIN
1070
    73
1070
     1
1070
    44
1040
1.0
1070
    74
1070
     0
1000
MTEXTEND
  0
POINT
  5
2F836
330
2A6E8
100
AcDbEntity
  8
DEFPOINTS
 62
     0
 48
50.0
100
AcDbPoint
 10
9958.600000000004
 20
8024.119711170083
 30
0.0
  0
POINT
  5
2F837
330
2A6E8
100
AcDbEntity
  8
DEFPOINTS
 62
     0
 48
50.0
100
AcDbPoint
 10
9126.600000000001
 20
8024.119711170083
 30
0.0
  0
POINT
  5
2F838
330
2A6E8
100
AcDbEntity
  8
DEFPOINTS
 62
     0
 48
50.0
100
AcDbPoint
 10
9126.600000000001
 20
9236.029476818412
 30
0.0
  0
ENDBLK
  5
2A6F3
330
2A6E8
100
AcDbEntity
  8
0
 48
50.0
100
AcDbBlockEnd
  0
BLOCK
  5
2A6FE
330
2A6F4
100
AcDbEntity
  8
0
 48
50.0
100
AcDbBlockBegin
  2
*D28
 70
     1
 10
0.0
 20
0.0
 30
0.0
  3
*D28
  1

  0
LINE
  5
2F827
330
2A6F4
100
AcDbEntity
  8
寸法
 62
     0
 48
50.0
370
    -2
100
AcDbLine
 10
10790.6
 20
8054.119711170084
 30
0.0
 11
10790.6
 21
9296.029476818413
 31
0.0
  0
LINE
  5
2F828
330
2A6F4
100
AcDbEntity
  8
寸法
 62
     0
 48
50.0
370
    -2
100
AcDbLine
 10
9958.600000000004
 20
8044.119711170083
 30
0.0
 11
9958.600000000004
 21
9296.029476818413
 31
0.0
  0
LINE
  5
2F829
330
2A6F4
100
AcDbEntity
  8
寸法
 62
     0
 48
50.0
370
    -2
100
AcDbLine
 10
10790.6
 20
9236.029476818412
 30
0.0
 11
9958.600000000004
 21
9236.029476818412
 31
0.0
  0
INSERT
  5
2F82A
330
2A6F4
100
AcDbEntity
  8
寸法
 62
     0
 48
50.0
370
    -2
100
AcDbBlockReference
  2
_DOTSMALL
 10
10790.6
 20
9236.029476818412
 30
0.0
 41
100.0
 42
100.0
 43
100.0
  0
INSERT
  5
2F82B
330
2A6F4
100
AcDbEntity
  8
寸法
 62
     0
 48
50.0
370
    -2
100
AcDbBlockReference
  2
_DOTSMALL
 10
9958.600000000004
 20
9236.029476818412
 30
0.0
 41
100.0
 42
100.0
 43
100.0
 50
180.0
  0
MTEXT
  5
2F82C
330
2A6F4
100
AcDbEntity
  8
寸法
 62
     7
 48
50.0
100
AcDbMText
 10
10374.6
 20
9336.041287842034
 30
0.0
 40
120.0
 41
0.0
 71
     5
 72
     1
  1
\A1;832
  7
STYLE1
 73
     1
 44
1.0
1001
ACAD
1000
MTEXTBEGIN
1070
    73
1070
     1
1070
    44
1040
1.0
1070
    74
1070
     0
1000
MTEXTEND
  0
POINT
  5
2F82D
330
2A6F4
100
AcDbEntity
  8
DEFPOINTS
 62
     0
 48
50.0
100
AcDbPoint
 10
10790.6
 20
8034.119711170083
 30
0.0
  0
POINT
  5
2F82E
330
2A6F4
100
AcDbEntity
  8
DEFPOINTS
 62
     0
 48
50.0
100
AcDbPoint
 10
9958.600000000004
 20
8024.119711170083
 30
0.0
  0
POINT
  5
2F82F
330
2A6F4
100
AcDbEntity
  8
DEFPOINTS
 62
     0
 48
50.0
100
AcDbPoint
 10
9958.600000000004
 20
9236.029476818412
 30
0.0
  0
ENDBLK
  5
2A6FF
330
2A6F4
100
AcDbEntity
  8
0
 48
50.0
100
AcDbBlockEnd
  0
BLOCK
  5
2A709
330
2A700
100
AcDbEntity
  8
0
 48
50.0
100
AcDbBlockBegin
  2
*D29
 70
     1
 10
0.0
 20
0.0
 30
0.0
  3
*D29
  1

  0
LINE
  5
2F81E
330
2A700
100
AcDbEntity
  8
寸法
 62
     0
 48
50.0
370
    -2
100
AcDbLine
 10
10670.6
 20
7824.119711170083
 30
0.0
 11
10418.85510029273
 21
7824.119711170083
 31
0.0
  0
LINE
  5
2F81F
330
2A700
100
AcDbEntity
  8
寸法
 62
     0
 48
50.0
370
    -2
100
AcDbLine
 10
10148.15743105835
 20
8709.119711170082
 30
0.0
 11
10538.85510029273
 21
8709.119711170082
 31
0.0
  0
LINE
  5
2F820
330
2A700
100
AcDbEntity
  8
寸法
 62
     0
 48
50.0
370
    -2
100
AcDbLine
 10
10478.85510029273
 20
7824.119711170083
 30
0.0
 11
10478.85510029273
 21
8709.119711170082
 31
0.0
  0
INSERT
  5
2F821
330
2A700
100
AcDbEntity
  8
寸法
 62
     0
 48
50.0
370
    -2
100
AcDbBlockReference
  2
_DOTSMALL
 10
10478.85510029273
 20
7824.119711170083
 30
0.0
 41
100.0
 42
100.0
 43
100.0
 50
270.0
  0
INSERT
  5
2F822
330
2A700
100
AcDbEntity
  8
寸法
 62
     0
 48
50.0
370
    -2
100
AcDbBlockReference
  2
_DOTSMALL
 10
10478.85510029273
 20
8709.119711170082
 30
0.0
 41
100.0
 42
100.0
 43
100.0
 50
90.0
  0
MTEXT
  5
2F823
330
2A700
100
AcDbEntity
  8
寸法
 62
     7
 48
50.0
100
AcDbMText
 10
10378.85510029272
 20
8266.619711170084
 30
0.0
 40
120.0
 41
0.0
 71
     5
 72
     1
  1
\A1;885
  7
STYLE1
 11
0.0000000000000001
 21
1.0
 31
0.0
 73
     1
 44
1.0
1001
ACAD
1000
MTEXTBEGIN
1070
    73
1070
     1
1070
    44
1040
1.0
1070
    74
1070
     0
1000
MTEXTEND
  0
POINT
  5
2F824
330
2A700
100
AcDbEntity
  8
DEFPOINTS
 62
     0
 48
50.0
100
AcDbPoint
 10
10690.6
 20
7824.119711170083
 30
0.0
  0
POINT
  5
2F825
330
2A700
100
AcDbEntity
  8
DEFPOINTS
 62
     0
 48
50.0
100
AcDbPoint
 10
10128.15743105835
 20
8709.119711170082
 30
0.0
  0
POINT
  5
2F826
330
2A700
100
AcDbEntity
  8
DEFPOINTS
 62
     0
 48
50.0
100
AcDbPoint
 10
10478.85510029273
 20
8709.119711170082
 30
0.0
  0
ENDBLK
  5
2A70A
330
2A700
100
AcDbEntity
  8
0
 48
50.0
100
AcDbBlockEnd
  0
BLOCK
  5
2A715
330
2A70B
100
AcDbEntity
  8
0
 48
50.0
100
AcDbBlockBegin
  2
*D30
 70
     1
 10
0.0
 20
0.0
 30
0.0
  3
*D30
  1

  0
LINE
  5
2F815
330
2A70B
100
AcDbEntity
  8
寸法
 62
     0
 48
50.0
370
    -2
100
AcDbLine
 10
10670.6
 20
6114.119711170082
 30
0.0
 11
10418.85510029273
 21
6114.119711170082
 31
0.0
  0
LINE
  5
2F816
330
2A70B
100
AcDbEntity
  8
寸法
 62
     0
 48
50.0
370
    -2
100
AcDbLine
 10
10670.6
 20
6969.11971117008
 30
0.0
 11
10418.85510029273
 21
6969.11971117008
 31
0.0
  0
LINE
  5
2F817
330
2A70B
100
AcDbEntity
  8
寸法
 62
     0
 48
50.0
370
    -2
100
AcDbLine
 10
10478.85510029273
 20
6114.119711170082
 30
0.0
 11
10478.85510029273
 21
6969.11971117008
 31
0.0
  0
INSERT
  5
2F818
330
2A70B
100
AcDbEntity
  8
寸法
 62
     0
 48
50.0
370
    -2
100
AcDbBlockReference
  2
_DOTSMALL
 10
10478.85510029273
 20
6114.119711170082
 30
0.0
 41
100.0
 42
100.0
 43
100.0
 50
270.0
  0
INSERT
  5
2F819
330
2A70B
100
AcDbEntity
  8
寸法
 62
     0
 48
50.0
370
    -2
100
AcDbBlockReference
  2
_DOTSMALL
 10
10478.85510029273
 20
6969.11971117008
 30
0.0
 41
100.0
 42
100.0
 43
100.0
 50
90.0
  0
MTEXT
  5
2F81A
330
2A70B
100
AcDbEntity
  8
寸法
 62
     7
 48
50.0
100
AcDbMText
 10
10378.85510029272
 20
6541.619711170082
 30
0.0
 40
120.0
 41
0.0
 71
     5
 72
     1
  1
\A1;855
  7
STYLE1
 11
0.0000000000000001
 21
1.0
 31
0.0
 73
     1
 44
1.0
1001
ACAD
1000
MTEXTBEGIN
1070
    73
1070
     1
1070
    44
1040
1.0
1070
    74
1070
     0
1000
MTEXTEND
  0
POINT
  5
2F81B
330
2A70B
100
AcDbEntity
  8
DEFPOINTS
 62
     0
 48
50.0
100
AcDbPoint
 10
10690.6
 20
6114.119711170082
 30
0.0
  0
POINT
  5
2F81C
330
2A70B
100
AcDbEntity
  8
DEFPOINTS
 62
     0
 48
50.0
100
AcDbPoint
 10
10690.6
 20
6969.11971117008
 30
0.0
  0
POINT
  5
2F81D
330
2A70B
100
AcDbEntity
  8
DEFPOINTS
 62
     0
 48
50.0
100
AcDbPoint
 10
10478.85510029273
 20
6969.11971117008
 30
0.0
  0
ENDBLK
  5
2A716
330
2A70B
100
AcDbEntity
  8
0
 48
50.0
100
AcDbBlockEnd
  0
BLOCK
  5
2A722
330
2A717
100
AcDbEntity
  8
0
 48
50.0
100
AcDbBlockBegin
  2
*D31
 70
     1
 10
0.0
 20
0.0
 30
0.0
  3
*D31
  1

  0
LINE
  5
2F80B
330
2A717
100
AcDbEntity
  8
寸法
 62
     0
 48
50.0
370
    -2
100
AcDbLine
 10
11578.6
 20
8248.40430770854
 30
0.0
 11
11578.6
 21
8191.41104366971
 31
0.0
  0
LINE
  5
2F80C
330
2A717
100
AcDbEntity
  8
寸法
 62
     0
 48
50.0
370
    -2
100
AcDbLine
 10
11468.6
 20
8459.119711170082
 30
0.0
 11
11468.6
 21
8191.41104366971
 31
0.0
  0
LINE
  5
2F80D
330
2A717
100
AcDbEntity
  8
寸法
 62
     0
 48
50.0
370
    -2
100
AcDbLine
 10
11578.6
 20
8251.41104366971
 30
0.0
 11
11468.6
 21
8251.41104366971
 31
0.0
  0
LINE
  5
2F80E
330
2A717
100
AcDbEntity
  8
寸法
 62
     0
 48
50.0
370
    -2
100
AcDbLine
 10
11468.6
 20
8251.41104366971
 30
0.0
 11
11074.4937007874
 21
8251.41104366971
 31
0.0
  0
INSERT
  5
2F80F
330
2A717
100
AcDbEntity
  8
寸法
 62
     0
 48
50.0
370
    -2
100
AcDbBlockReference
  2
_DOTSMALL
 10
11578.6
 20
8251.41104366971
 30
0.0
 41
100.0
 42
100.0
 43
100.0
  0
INSERT
  5
2F810
330
2A717
100
AcDbEntity
  8
寸法
 62
     0
 48
50.0
370
    -2
100
AcDbBlockReference
  2
_DOTSMALL
 10
11468.6
 20
8251.41104366971
 30
0.0
 41
100.0
 42
100.0
 43
100.0
 50
180.0
  0
MTEXT
  5
2F811
330
2A717
100
AcDbEntity
  8
寸法
 62
     7
 48
50.0
100
AcDbMText
 10
11198.54094488189
 20
8351.411043669711
 30
0.0
 40
120.0
 41
0.0
 71
     5
 72
     1
  1
\A1;110
  7
STYLE1
 73
     1
 44
1.0
1001
ACAD
1000
MTEXTBEGIN
1070
    73
1070
     1
1070
    44
1040
1.0
1070
    74
1070
     0
1000
MTEXTEND
  0
POINT
  5
2F812
330
2A717
100
AcDbEntity
  8
DEFPOINTS
 62
     0
 48
50.0
100
AcDbPoint
 10
11578.6
 20
8268.404307708541
 30
0.0
  0
POINT
  5
2F813
330
2A717
100
AcDbEntity
  8
DEFPOINTS
 62
     0
 48
50.0
100
AcDbPoint
 10
11468.6
 20
8479.119711170083
 30
0.0
  0
POINT
  5
2F814
330
2A717
100
AcDbEntity
  8
DEFPOINTS
 62
     0
 48
50.0
100
AcDbPoint
 10
11468.6
 20
8251.41104366971
 30
0.0
  0
ENDBLK
  5
2A723
330
2A717
100
AcDbEntity
  8
0
 48
50.0
100
AcDbBlockEnd
  0
BLOCK
  5
2B140
330
2B135
100
AcDbEntity
  8
0
 48
50.0
100
AcDbBlockBegin
  2
*D32
 70
     1
 10
0.0
 20
0.0
 30
0.0
  3
*D32
  1

  0
LINE
  5
2F7EE
330
2B135
100
AcDbEntity
  8
寸法
 62
     0
 48
50.0
370
    -2
100
AcDbLine
 10
8255.600000000001
 20
5229.119711170111
 30
0.0
 11
8730.144386142111
 21
5229.119711170111
 31
0.0
  0
LINE
  5
2F7EF
330
2B135
100
AcDbEntity
  8
寸法
 62
     0
 48
50.0
370
    -2
100
AcDbLine
 10
8255.600000000001
 20
5349.119711170095
 30
0.0
 11
8730.144386142111
 21
5349.119711170095
 31
0.0
  0
LINE
  5
2F7F0
330
2B135
100
AcDbEntity
  8
寸法
 62
     0
 48
50.0
370
    -2
100
AcDbLine
 10
8670.14438614211
 20
5349.119711170095
 30
0.0
 11
8670.14438614211
 21
5229.119711170111
 31
0.0
  0
LINE
  5
2F7F1
330
2B135
100
AcDbEntity
  8
寸法
 62
     0
 48
50.0
370
    -2
100
AcDbLine
 10
8670.14438614211
 20
5229.119711170111
 30
0.0
 11
8670.14438614211
 21
4770.24039373251
 31
0.0
  0
INSERT
  5
2F7F2
330
2B135
100
AcDbEntity
  8
寸法
 62
     0
 48
50.0
370
    -2
100
AcDbBlockReference
  2
_DOTSMALL
 10
8670.14438614211
 20
5349.119711170095
 30
0.0
 41
100.0
 42
100.0
 43
100.0
 50
90.0
  0
INSERT
  5
2F7F3
330
2B135
100
AcDbEntity
  8
寸法
 62
     0
 48
50.0
370
    -2
100
AcDbBlockReference
  2
_DOTSMALL
 10
8670.14438614211
 20
5229.119711170111
 30
0.0
 41
100.0
 42
100.0
 43
100.0
 50
270.0
  0
MTEXT
  5
2F7F4
330
2B135
100
AcDbEntity
  8
寸法
 62
     7
 48
50.0
100
AcDbMText
 10
8570.132575118487
 20
4906.287637826999
 30
0.0
 40
120.0
 41
0.0
 71
     5
 72
     1
  1
\A1;120
  7
STYLE1
 11
0.0000000000000001
 21
1.0
 31
0.0
 73
     1
 44
1.0
1001
ACAD
1000
MTEXTBEGIN
1070
    73
1070
     1
1070
    44
1040
1.0
1070
    74
1070
     0
1000
MTEXTEND
  0
POINT
  5
2F7F5
330
2B135
100
AcDbEntity
  8
DEFPOINTS
 62
     0
 48
50.0
100
AcDbPoint
 10
8235.600000000001
 20
5229.119711170111
 30
0.0
  0
POINT
  5
2F7F6
330
2B135
100
AcDbEntity
  8
DEFPOINTS
 62
     0
 48
50.0
100
AcDbPoint
 10
8235.600000000001
 20
5349.119711170095
 30
0.0
  0
POINT
  5
2F7F7
330
2B135
100
AcDbEntity
  8
DEFPOINTS
 62
     0
 48
50.0
100
AcDbPoint
 10
8670.14438614211
 20
5349.119711170095
 30
0.0
  0
ENDBLK
  5
2B141
330
2B135
100
AcDbEntity
  8
0
 48
50.0
100
AcDbBlockEnd
  0
BLOCK
  5
2B14D
330
2B142
100
AcDbEntity
  8
0
 48
50.0
100
AcDbBlockBegin
  2
*D33
 70
     1
 10
0.0
 20
0.0
 30
0.0
  3
*D33
  1

  0
LINE
  5
2F7F8
330
2B142
100
AcDbEntity
  8
寸法
 62
     0
 48
50.0
370
    -2
100
AcDbLine
 10
8255.600000000001
 20
5349.119711170095
 30
0.0
 11
8730.144386142111
 21
5349.119711170095
 31
0.0
  0
LINE
  5
2F7F9
330
2B142
100
AcDbEntity
  8
寸法
 62
     0
 48
50.0
370
    -2
100
AcDbLine
 10
8255.600000000001
 20
5459.119711170102
 30
0.0
 11
8730.144386142111
 21
5459.119711170102
 31
0.0
  0
LINE
  5
2F7FA
330
2B142
100
AcDbEntity
  8
寸法
 62
     0
 48
50.0
370
    -2
100
AcDbLine
 10
8670.14438614211
 20
5349.119711170095
 30
0.0
 11
8670.14438614211
 21
5459.119711170102
 31
0.0
  0
LINE
  5
2F7FB
330
2B142
100
AcDbEntity
  8
寸法
 62
     0
 48
50.0
370
    -2
100
AcDbLine
 10
8670.14438614211
 20
5459.119711170102
 30
0.0
 11
8670.14438614211
 21
5819.21419935908
 31
0.0
  0
INSERT
  5
2F7FC
330
2B142
100
AcDbEntity
  8
寸法
 62
     0
 48
50.0
370
    -2
100
AcDbBlockReference
  2
_DOTSMALL
 10
8670.14438614211
 20
5349.119711170095
 30
0.0
 41
100.0
 42
100.0
 43
100.0
 50
270.0
  0
INSERT
  5
2F7FD
330
2B142
100
AcDbEntity
  8
寸法
 62
     0
 48
50.0
370
    -2
100
AcDbBlockReference
  2
_DOTSMALL
 10
8670.14438614211
 20
5459.119711170102
 30
0.0
 41
100.0
 42
100.0
 43
100.0
 50
90.0
  0
MTEXT
  5
2F7FE
330
2B142
100
AcDbEntity
  8
寸法
 62
     7
 48
50.0
100
AcDbMText
 10
8570.144386142109
 20
5695.166955264594
 30
0.0
 40
120.0
 41
0.0
 71
     5
 72
     1
  1
\A1;110
  7
STYLE1
 11
0.0000000000000001
 21
1.0
 31
0.0
 73
     1
 44
1.0
1001
ACAD
1000
MTEXTBEGIN
1070
    73
1070
     1
1070
    44
1040
1.0
1070
    74
1070
     0
1000
MTEXTEND
  0
POINT
  5
2F7FF
330
2B142
100
AcDbEntity
  8
DEFPOINTS
 62
     0
 48
50.0
100
AcDbPoint
 10
8235.600000000001
 20
5349.119711170095
 30
0.0
  0
POINT
  5
2F800
330
2B142
100
AcDbEntity
  8
DEFPOINTS
 62
     0
 48
50.0
100
AcDbPoint
 10
8235.600000000001
 20
5459.119711170102
 30
0.0
  0
POINT
  5
2F801
330
2B142
100
AcDbEntity
  8
DEFPOINTS
 62
     0
 48
50.0
100
AcDbPoint
 10
8670.14438614211
 20
5459.119711170102
 30
0.0
  0
ENDBLK
  5
2B14E
330
2B142
100
AcDbEntity
  8
0
 48
50.0
100
AcDbBlockEnd
  0
BLOCK
  5
2B159
330
2B14F
100
AcDbEntity
  8
0
 48
50.0
100
AcDbBlockBegin
  2
*D34
 70
     1
 10
0.0
 20
0.0
 30
0.0
  3
*D34
  1

  0
LINE
  5
2F802
330
2B14F
100
AcDbEntity
  8
寸法
 62
     0
 48
50.0
370
    -2
100
AcDbLine
 10
8235.600000000001
 20
5479.119711170103
 30
0.0
 11
8235.600000000001
 21
5697.544286131346
 31
0.0
  0
LINE
  5
2F803
330
2B14F
100
AcDbEntity
  8
寸法
 62
     0
 48
50.0
370
    -2
100
AcDbLine
 10
7975.6
 20
5479.119711170103
 30
0.0
 11
7975.6
 21
5697.544286131346
 31
0.0
  0
LINE
  5
2F804
330
2B14F
100
AcDbEntity
  8
寸法
 62
     0
 48
50.0
370
    -2
100
AcDbLine
 10
8235.600000000001
 20
5637.544286131347
 30
0.0
 11
7975.6
 21
5637.544286131347
 31
0.0
  0
INSERT
  5
2F805
330
2B14F
100
AcDbEntity
  8
寸法
 62
     0
 48
50.0
370
    -2
100
AcDbBlockReference
  2
_DOTSMALL
 10
8235.600000000001
 20
5637.544286131347
 30
0.0
 41
100.0
 42
100.0
 43
100.0
  0
INSERT
  5
2F806
330
2B14F
100
AcDbEntity
  8
寸法
 62
     0
 48
50.0
370
    -2
100
AcDbBlockReference
  2
_DOTSMALL
 10
7975.6
 20
5637.544286131347
 30
0.0
 41
100.0
 42
100.0
 43
100.0
 50
180.0
  0
MTEXT
  5
2F807
330
2B14F
100
AcDbEntity
  8
寸法
 62
     7
 48
50.0
100
AcDbMText
 10
8105.6
 20
5737.556097154969
 30
0.0
 40
120.0
 41
0.0
 71
     5
 72
     1
  1
\A1;260
  7
STYLE1
 73
     1
 44
1.0
1001
ACAD
1000
MTEXTBEGIN
1070
    73
1070
     1
1070
    44
1040
1.0
1070
    74
1070
     0
1000
MTEXTEND
  0
POINT
  5
2F808
330
2B14F
100
AcDbEntity
  8
DEFPOINTS
 62
     0
 48
50.0
100
AcDbPoint
 10
8235.600000000001
 20
5459.119711170102
 30
0.0
  0
POINT
  5
2F809
330
2B14F
100
AcDbEntity
  8
DEFPOINTS
 62
     0
 48
50.0
100
AcDbPoint
 10
7975.6
 20
5459.119711170102
 30
0.0
  0
POINT
  5
2F80A
330
2B14F
100
AcDbEntity
  8
DEFPOINTS
 62
     0
 48
50.0
100
AcDbPoint
 10
7975.6
 20
5637.544286131347
 30
0.0
  0
ENDBLK
  5
2B15A
330
2B14F
100
AcDbEntity
  8
0
 48
50.0
100
AcDbBlockEnd
  0
BLOCK
  5
2C93B
330
2C931
100
AcDbEntity
  8
0
 48
50.0
100
AcDbBlockBegin
  2
*D35
 70
     1
 10
0.0
 20
0.0
 30
0.0
  3
*D35
  1

  0
LINE
  5
2F7E5
330
2C931
100
AcDbEntity
  8
寸法
 62
     0
 48
50.0
370
    -2
100
AcDbLine
 10
10670.6
 20
6969.11971117008
 30
0.0
 11
10418.85510029273
 21
6969.11971117008
 31
0.0
  0
LINE
  5
2F7E6
330
2C931
100
AcDbEntity
  8
寸法
 62
     0
 48
50.0
370
    -2
100
AcDbLine
 10
10670.6
 20
7824.119711170083
 30
0.0
 11
10418.85510029273
 21
7824.119711170083
 31
0.0
  0
LINE
  5
2F7E7
330
2C931
100
AcDbEntity
  8
寸法
 62
     0
 48
50.0
370
    -2
100
AcDbLine
 10
10478.85510029273
 20
6969.11971117008
 30
0.0
 11
10478.85510029273
 21
7824.119711170083
 31
0.0
  0
INSERT
  5
2F7E8
330
2C931
100
AcDbEntity
  8
寸法
 62
     0
 48
50.0
370
    -2
100
AcDbBlockReference
  2
_DOTSMALL
 10
10478.85510029273
 20
6969.11971117008
 30
0.0
 41
100.0
 42
100.0
 43
100.0
 50
270.0
  0
INSERT
  5
2F7E9
330
2C931
100
AcDbEntity
  8
寸法
 62
     0
 48
50.0
370
    -2
100
AcDbBlockReference
  2
_DOTSMALL
 10
10478.85510029273
 20
7824.119711170083
 30
0.0
 41
100.0
 42
100.0
 43
100.0
 50
90.0
  0
MTEXT
  5
2F7EA
330
2C931
100
AcDbEntity
  8
寸法
 62
     7
 48
50.0
100
AcDbMText
 10
10378.85510029272
 20
7396.619711170083
 30
0.0
 40
120.0
 41
0.0
 71
     5
 72
     1
  1
\A1;855
  7
STYLE1
 11
0.0000000000000001
 21
1.0
 31
0.0
 73
     1
 44
1.0
1001
ACAD
1000
MTEXTBEGIN
1070
    73
1070
     1
1070
    44
1040
1.0
1070
    74
1070
     0
1000
MTEXTEND
  0
POINT
  5
2F7EB
330
2C931
100
AcDbEntity
  8
DEFPOINTS
 62
     0
 48
50.0
100
AcDbPoint
 10
10690.6
 20
6969.11971117008
 30
0.0
  0
POINT
  5
2F7EC
330
2C931
100
AcDbEntity
  8
DEFPOINTS
 62
     0
 48
50.0
100
AcDbPoint
 10
10690.6
 20
7824.119711170083
 30
0.0
  0
POINT
  5
2F7ED
330
2C931
100
AcDbEntity
  8
DEFPOINTS
 62
     0
 48
50.0
100
AcDbPoint
 10
10478.85510029273
 20
7824.119711170083
 30
0.0
  0
ENDBLK
  5
2C93C
330
2C931
100
AcDbEntity
  8
0
 48
50.0
100
AcDbBlockEnd
  0
BLOCK
  5
2F06C
330
2F062
100
AcDbEntity
  8
0
 48
50.0
100
AcDbBlockBegin
  2
*D36
 70
     1
 10
0.0
 20
0.0
 30
0.0
  3
*D36
  1

  0
LINE
  5
2F7DC
330
2F062
100
AcDbEntity
  8
寸法
 62
     0
 48
50.0
370
    -2
100
AcDbLine
 10
7776.600000000001
 20
5134.119711170107
 30
0.0
 11
7776.600000000001
 21
4550.113321515364
 31
0.0
  0
LINE
  5
2F7DD
330
2F062
100
AcDbEntity
  8
寸法
 62
     0
 48
50.0
370
    -2
100
AcDbLine
 10
5621.6
 20
5134.119711170073
 30
0.0
 11
5621.6
 21
4550.113321515364
 31
0.0
  0
LINE
  5
2F7DE
330
2F062
100
AcDbEntity
  8
寸法
 62
     0
 48
50.0
370
    -2
100
AcDbLine
 10
7776.600000000001
 20
4610.113321515364
 30
0.0
 11
5621.6
 21
4610.113321515364
 31
0.0
  0
INSERT
  5
2F7DF
330
2F062
100
AcDbEntity
  8
寸法
 62
     0
 48
50.0
370
    -2
100
AcDbBlockReference
  2
_DOTSMALL
 10
7776.600000000001
 20
4610.113321515364
 30
0.0
 41
100.0
 42
100.0
 43
100.0
  0
INSERT
  5
2F7E0
330
2F062
100
AcDbEntity
  8
寸法
 62
     0
 48
50.0
370
    -2
100
AcDbBlockReference
  2
_DOTSMALL
 10
5621.6
 20
4610.113321515364
 30
0.0
 41
100.0
 42
100.0
 43
100.0
 50
180.0
  0
MTEXT
  5
2F7E1
330
2F062
100
AcDbEntity
  8
寸法
 62
     7
 48
50.0
100
AcDbMText
 10
6699.1
 20
4710.125132538986
 30
0.0
 40
120.0
 41
0.0
 71
     5
 72
     1
  1
\A1;扉の幅 2155
  7
STYLE1
 73
     1
 44
1.0
1001
ACAD
1000
MTEXTBEGIN
1070
    73
1070
     1
1070
    44
1040
1.0
1070
    74
1070
     0
1000
MTEXTEND
  0
POINT
  5
2F7E2
330
2F062
100
AcDbEntity
  8
DEFPOINTS
 62
     0
 48
50.0
100
AcDbPoint
 10
7776.600000000001
 20
5154.119711170108
 30
0.0
  0
POINT
  5
2F7E3
330
2F062
100
AcDbEntity
  8
DEFPOINTS
 62
     0
 48
50.0
100
AcDbPoint
 10
5621.6
 20
5154.119711170073
 30
0.0
  0
POINT
  5
2F7E4
330
2F062
100
AcDbEntity
  8
DEFPOINTS
 62
     0
 48
50.0
100
AcDbPoint
 10
5621.6
 20
4610.113321515364
 30
0.0
  0
ENDBLK
  5
2F06D
330
2F062
100
AcDbEntity
  8
0
 48
50.0
100
AcDbBlockEnd
  0
BLOCK
  5
2F630
330
2F626
100
AcDbEntity
  8
0
 48
50.0
100
AcDbBlockBegin
  2
*D37
 70
     1
 10
0.0
 20
0.0
 30
0.0
  3
*D37
  1

  0
LINE
  5
2F7D3
330
2F626
100
AcDbEntity
  8
寸法
 62
     0
 48
50.0
370
    -2
100
AcDbLine
 10
5485.220260013718
 20
1934.438736257064
 30
0.0
 11
5485.220260013718
 21
2499.023496152539
 31
0.0
  0
LINE
  5
2F7D4
330
2F626
100
AcDbEntity
  8
寸法
 62
     0
 48
50.0
370
    -2
100
AcDbLine
 10
5245.22026001372
 20
1934.438736257064
 30
0.0
 11
5245.22026001372
 21
2499.023496152539
 31
0.0
  0
LINE
  5
2F7D5
330
2F626
100
AcDbEntity
  8
寸法
 62
     0
 48
50.0
370
    -2
100
AcDbLine
 10
5485.220260013718
 20
2439.023496152539
 30
0.0
 11
5245.22026001372
 21
2439.023496152539
 31
0.0
  0
INSERT
  5
2F7D6
330
2F626
100
AcDbEntity
  8
寸法
 62
     0
 48
50.0
370
    -2
100
AcDbBlockReference
  2
_DOTSMALL
 10
5485.220260013718
 20
2439.023496152539
 30
0.0
 41
100.0
 42
100.0
 43
100.0
  0
INSERT
  5
2F7D7
330
2F626
100
AcDbEntity
  8
寸法
 62
     0
 48
50.0
370
    -2
100
AcDbBlockReference
  2
_DOTSMALL
 10
5245.22026001372
 20
2439.023496152539
 30
0.0
 41
100.0
 42
100.0
 43
100.0
 50
180.0
  0
MTEXT
  5
2F7D8
330
2F626
100
AcDbEntity
  8
寸法
 62
     7
 48
50.0
100
AcDbMText
 10
5365.220260013718
 20
2645.064308717343
 30
0.0
 40
120.0
 41
0.0
 71
     5
 72
     1
  1
\A1;120\P(195)
  7
STYLE1
 73
     1
 44
1.0
1001
ACAD
1000
MTEXTBEGIN
1070
    73
1070
     1
1070
    44
1040
1.0
1070
    74
1070
     0
1000
MTEXTEND
  0
POINT
  5
2F7D9
330
2F626
100
AcDbEntity
  8
DEFPOINTS
 62
     0
 48
50.0
100
AcDbPoint
 10
5485.220260013718
 20
1914.438736257064
 30
0.0
  0
POINT
  5
2F7DA
330
2F626
100
AcDbEntity
  8
DEFPOINTS
 62
     0
 48
50.0
100
AcDbPoint
 10
5245.22026001372
 20
1914.438736257064
 30
0.0
  0
POINT
  5
2F7DB
330
2F626
100
AcDbEntity
  8
DEFPOINTS
 62
     0
 48
50.0
100
AcDbPoint
 10
5245.22026001372
 20
2439.023496152539
 30
0.0
  0
ENDBLK
  5
2F631
330
2F626
100
AcDbEntity
  8
0
 48
50.0
100
AcDbBlockEnd
  0
BLOCK
  5
2F63C
330
2F632
100
AcDbEntity
  8
0
 48
50.0
100
AcDbBlockBegin
  2
*D38
 70
     1
 10
0.0
 20
0.0
 30
0.0
  3
*D38
  1

  0
LINE
  5
2F7CA
330
2F632
100
AcDbEntity
  8
寸法
 62
     0
 48
50.0
370
    -2
100
AcDbLine
 10
5065.22026001372
 20
1234.438736257062
 30
0.0
 11
4847.194867848146
 21
1234.438736257062
 31
0.0
  0
LINE
  5
2F7CB
330
2F632
100
AcDbEntity
  8
寸法
 62
     0
 48
50.0
370
    -2
100
AcDbLine
 10
4965.220260013726
 20
934.4387362570623
 30
0.0
 11
4847.194867848146
 21
934.4387362570625
 31
0.0
  0
LINE
  5
2F7CC
330
2F632
100
AcDbEntity
  8
寸法
 62
     0
 48
50.0
370
    -2
100
AcDbLine
 10
4907.194867848146
 20
1234.438736257062
 30
0.0
 11
4907.194867848146
 21
934.4387362570623
 31
0.0
  0
INSERT
  5
2F7CD
330
2F632
100
AcDbEntity
  8
寸法
 62
     0
 48
50.0
370
    -2
100
AcDbBlockReference
  2
_DOTSMALL
 10
4907.194867848146
 20
1234.438736257062
 30
0.0
 41
100.0
 42
100.0
 43
100.0
 50
90.0
  0
INSERT
  5
2F7CE
330
2F632
100
AcDbEntity
  8
寸法
 62
     0
 48
50.0
370
    -2
100
AcDbBlockReference
  2
_DOTSMALL
 10
4907.194867848146
 20
934.4387362570623
 30
0.0
 41
100.0
 42
100.0
 43
100.0
 50
270.0
  0
MTEXT
  5
2F7CF
330
2F632
100
AcDbEntity
  8
寸法
 62
     7
 48
50.0
100
AcDbMText
 10
4807.194867848146
 20
1084.438736257062
 30
0.0
 40
120.0
 41
0.0
 71
     5
 72
     1
  1
\A1;150
  7
STYLE1
 11
0.0000000000000001
 21
1.0
 31
0.0
 73
     1
 44
1.0
1001
ACAD
1000
MTEXTBEGIN
1070
    73
1070
     1
1070
    44
1040
1.0
1070
    74
1070
     0
1000
MTEXTEND
  0
POINT
  5
2F7D0
330
2F632
100
AcDbEntity
  8
DEFPOINTS
 62
     0
 48
50.0
100
AcDbPoint
 10
5085.22026001372
 20
1234.438736257062
 30
0.0
  0
POINT
  5
2F7D1
330
2F632
100
AcDbEntity
  8
DEFPOINTS
 62
     0
 48
50.0
100
AcDbPoint
 10
4985.220260013726
 20
934.4387362570623
 30
0.0
  0
POINT
  5
2F7D2
330
2F632
100
AcDbEntity
  8
DEFPOINTS
 62
     0
 48
50.0
100
AcDbPoint
 10
4907.194867848146
 20
934.4387362570623
 30
0.0
  0
ENDBLK
  5
2F63D
330
2F632
100
AcDbEntity
  8
0
 48
50.0
100
AcDbBlockEnd
  0
BLOCK
  5
2F648
330
2F63E
100
AcDbEntity
  8
0
 48
50.0
100
AcDbBlockBegin
  2
*D39
 70
     1
 10
0.0
 20
0.0
 30
0.0
  3
*D39
  1

  0
LINE
  5
2F7C1
330
2F63E
100
AcDbEntity
  8
寸法
 62
     0
 48
50.0
370
    -2
100
AcDbLine
 10
5225.22026001372
 20
1914.438736257064
 30
0.0
 11
4424.575321977656
 21
1914.438736257064
 31
0.0
  0
LINE
  5
2F7C2
330
2F63E
100
AcDbEntity
  8
寸法
 62
     0
 48
50.0
370
    -2
100
AcDbLine
 10
4965.220260013726
 20
934.4387362570623
 30
0.0
 11
4424.575321977656
 21
934.4387362570625
 31
0.0
  0
LINE
  5
2F7C3
330
2F63E
100
AcDbEntity
  8
寸法
 62
     0
 48
50.0
370
    -2
100
AcDbLine
 10
4484.575321977656
 20
1914.438736257064
 30
0.0
 11
4484.575321977656
 21
934.4387362570625
 31
0.0
  0
INSERT
  5
2F7C4
330
2F63E
100
AcDbEntity
  8
寸法
 62
     0
 48
50.0
370
    -2
100
AcDbBlockReference
  2
_DOTSMALL
 10
4484.575321977656
 20
1914.438736257064
 30
0.0
 41
100.0
 42
100.0
 43
100.0
 50
90.0
  0
INSERT
  5
2F7C5
330
2F63E
100
AcDbEntity
  8
寸法
 62
     0
 48
50.0
370
    -2
100
AcDbBlockReference
  2
_DOTSMALL
 10
4484.575321977656
 20
934.4387362570625
 30
0.0
 41
100.0
 42
100.0
 43
100.0
 50
270.0
  0
MTEXT
  5
2F7C6
330
2F63E
100
AcDbEntity
  8
寸法
 62
     7
 48
50.0
100
AcDbMText
 10
4384.575321977655
 20
1424.438736257063
 30
0.0
 40
120.0
 41
0.0
 71
     5
 72
     1
  1
\A1;540
  7
STYLE1
 11
0.0000000000000001
 21
1.0
 31
0.0
 73
     1
 44
1.0
1001
ACAD
1000
MTEXTBEGIN
1070
    73
1070
     1
1070
    44
1040
1.0
1070
    74
1070
     0
1000
MTEXTEND
  0
POINT
  5
2F7C7
330
2F63E
100
AcDbEntity
  8
DEFPOINTS
 62
     0
 48
50.0
100
AcDbPoint
 10
5245.22026001372
 20
1914.438736257064
 30
0.0
  0
POINT
  5
2F7C8
330
2F63E
100
AcDbEntity
  8
DEFPOINTS
 62
     0
 48
50.0
100
AcDbPoint
 10
4985.220260013726
 20
934.4387362570623
 30
0.0
  0
POINT
  5
2F7C9
330
2F63E
100
AcDbEntity
  8
DEFPOINTS
 62
     0
 48
50.0
100
AcDbPoint
 10
4484.575321977656
 20
934.4387362570625
 30
0.0
  0
ENDBLK
  5
2F649
330
2F63E
100
AcDbEntity
  8
0
 48
50.0
100
AcDbBlockEnd
  0
BLOCK
  5
2F654
330
2F64A
100
AcDbEntity
  8
0
 48
50.0
100
AcDbBlockBegin
  2
*D40
 70
     1
 10
0.0
 20
0.0
 30
0.0
  3
*D40
  1

  0
LINE
  5
2F7B8
330
2F64A
100
AcDbEntity
  8
寸法
 62
     0
 48
50.0
370
    -2
100
AcDbLine
 10
5085.22026001372
 20
754.4387362570622
 30
0.0
 11
5085.22026001372
 21
415.4866298011291
 31
0.0
  0
LINE
  5
2F7B9
330
2F64A
100
AcDbEntity
  8
寸法
 62
     0
 48
50.0
370
    -2
100
AcDbLine
 10
5645.22026001372
 20
754.4387362570622
 30
0.0
 11
5645.22026001372
 21
415.4866298011291
 31
0.0
  0
LINE
  5
2F7BA
330
2F64A
100
AcDbEntity
  8
寸法
 62
     0
 48
50.0
370
    -2
100
AcDbLine
 10
5085.22026001372
 20
475.4866298011291
 30
0.0
 11
5645.22026001372
 21
475.4866298011291
 31
0.0
  0
INSERT
  5
2F7BB
330
2F64A
100
AcDbEntity
  8
寸法
 62
     0
 48
50.0
370
    -2
100
AcDbBlockReference
  2
_DOTSMALL
 10
5085.22026001372
 20
475.4866298011291
 30
0.0
 41
100.0
 42
100.0
 43
100.0
 50
180.0
  0
INSERT
  5
2F7BC
330
2F64A
100
AcDbEntity
  8
寸法
 62
     0
 48
50.0
370
    -2
100
AcDbBlockReference
  2
_DOTSMALL
 10
5645.22026001372
 20
475.4866298011291
 30
0.0
 41
100.0
 42
100.0
 43
100.0
  0
MTEXT
  5
2F7BD
330
2F64A
100
AcDbEntity
  8
寸法
 62
     7
 48
50.0
100
AcDbMText
 10
5365.22026001372
 20
575.4866298011291
 30
0.0
 40
120.0
 41
0.0
 71
     5
 72
     1
  1
\A1;300
  7
STYLE1
 73
     1
 44
1.0
1001
ACAD
1000
MTEXTBEGIN
1070
    73
1070
     1
1070
    44
1040
1.0
1070
    74
1070
     0
1000
MTEXTEND
  0
POINT
  5
2F7BE
330
2F64A
100
AcDbEntity
  8
DEFPOINTS
 62
     0
 48
50.0
100
AcDbPoint
 10
5085.22026001372
 20
774.4387362570622
 30
0.0
  0
POINT
  5
2F7BF
330
2F64A
100
AcDbEntity
  8
DEFPOINTS
 62
     0
 48
50.0
100
AcDbPoint
 10
5645.22026001372
 20
774.4387362570622
 30
0.0
  0
POINT
  5
2F7C0
330
2F64A
100
AcDbEntity
  8
DEFPOINTS
 62
     0
 48
50.0
100
AcDbPoint
 10
5645.22026001372
 20
475.4866298011291
 30
0.0
  0
ENDBLK
  5
2F655
330
2F64A
100
AcDbEntity
  8
0
 48
50.0
100
AcDbBlockEnd
  0
BLOCK
  5
2F65F
330
2F656
100
AcDbEntity
  8
0
 48
50.0
100
AcDbBlockBegin
  2
*D41
 70
     1
 10
0.0
 20
0.0
 30
0.0
  3
*D41
  1

  0
LINE
  5
2F7AF
330
2F656
100
AcDbEntity
  8
寸法
 62
     0
 48
50.0
370
    -2
100
AcDbLine
 10
7907.769401485214
 20
1914.438736257064
 30
0.0
 11
8575.105151196268
 21
1914.438736257064
 31
0.0
  0
LINE
  5
2F7B0
330
2F656
100
AcDbEntity
  8
寸法
 62
     0
 48
50.0
370
    -2
100
AcDbLine
 10
7907.769401485214
 20
1509.438736257061
 30
0.0
 11
8575.105151196268
 21
1509.438736257061
 31
0.0
  0
LINE
  5
2F7B1
330
2F656
100
AcDbEntity
  8
寸法
 62
     0
 48
50.0
370
    -2
100
AcDbLine
 10
8515.105151196269
 20
1914.438736257064
 30
0.0
 11
8515.105151196269
 21
1509.438736257061
 31
0.0
  0
INSERT
  5
2F7B2
330
2F656
100
AcDbEntity
  8
寸法
 62
     0
 48
50.0
370
    -2
100
AcDbBlockReference
  2
_DOTSMALL
 10
8515.105151196269
 20
1914.438736257064
 30
0.0
 41
100.0
 42
100.0
 43
100.0
 50
90.0
  0
INSERT
  5
2F7B3
330
2F656
100
AcDbEntity
  8
寸法
 62
     0
 48
50.0
370
    -2
100
AcDbBlockReference
  2
_DOTSMALL
 10
8515.105151196269
 20
1509.438736257061
 30
0.0
 41
100.0
 42
100.0
 43
100.0
 50
270.0
  0
MTEXT
  5
2F7B4
330
2F656
100
AcDbEntity
  8
寸法
 62
     7
 48
50.0
100
AcDbMText
 10
8415.10515119627
 20
1711.938736257064
 30
0.0
 40
120.0
 41
0.0
 71
     5
 72
     1
  1
\A1;180
  7
STYLE1
 11
0.0000000000000001
 21
1.0
 31
0.0
 73
     1
 44
1.0
1001
ACAD
1000
MTEXTBEGIN
1070
    73
1070
     1
1070
    44
1040
1.0
1070
    74
1070
     0
1000
MTEXTEND
  0
POINT
  5
2F7B5
330
2F656
100
AcDbEntity
  8
DEFPOINTS
 62
     0
 48
50.0
100
AcDbPoint
 10
7887.769401485214
 20
1914.438736257064
 30
0.0
  0
POINT
  5
2F7B6
330
2F656
100
AcDbEntity
  8
DEFPOINTS
 62
     0
 48
50.0
100
AcDbPoint
 10
7887.769401485214
 20
1509.438736257061
 30
0.0
  0
POINT
  5
2F7B7
330
2F656
100
AcDbEntity
  8
DEFPOINTS
 62
     0
 48
50.0
100
AcDbPoint
 10
8515.105151196269
 20
1509.438736257061
 30
0.0
  0
ENDBLK
  5
2F660
330
2F656
100
AcDbEntity
  8
0
 48
50.0
100
AcDbBlockEnd
  0
BLOCK
  5
2F66D
330
2F661
100
AcDbEntity
  8
0
 48
50.0
100
AcDbBlockBegin
  2
*D42
 70
     1
 10
0.0
 20
0.0
 30
0.0
  3
*D42
  1

  0
LINE
  5
2F7A4
330
2F661
100
AcDbEntity
  8
寸法
 62
     0
 48
50.0
370
    -2
100
AcDbLine
 10
7673.769401485213
 20
1980.388736257063
 30
0.0
 11
8920.173483845053
 21
1980.388736257063
 31
0.0
  0
LINE
  5
2F7A5
330
2F661
100
AcDbEntity
  8
寸法
 62
     0
 48
50.0
370
    -2
100
AcDbLine
 10
7907.769401485214
 20
1914.438736257064
 30
0.0
 11
8920.173483845053
 21
1914.438736257064
 31
0.0
  0
LINE
  5
2F7A6
330
2F661
100
AcDbEntity
  8
寸法
 62
     0
 48
50.0
370
    -2
100
AcDbLine
 10
8860.173483845052
 20
1980.388736257063
 30
0.0
 11
8860.173483845052
 21
2080.388736257063
 31
0.0
  0
LINE
  5
2F7A7
330
2F661
100
AcDbEntity
  8
寸法
 62
     0
 48
50.0
370
    -2
100
AcDbLine
 10
8860.173483845052
 20
1914.438736257064
 30
0.0
 11
8860.173483845052
 21
1182.420929414098
 31
0.0
  0
LINE
  5
2F7A8
330
2F661
100
AcDbEntity
  8
寸法
 62
     0
 48
50.0
370
    -2
100
AcDbLine
 10
8860.173483845052
 20
1980.388736257063
 30
0.0
 11
8860.173483845052
 21
1914.438736257064
 31
0.0
  0
INSERT
  5
2F7A9
330
2F661
100
AcDbEntity
  8
寸法
 62
     0
 48
50.0
370
    -2
100
AcDbBlockReference
  2
_DOTSMALL
 10
8860.173483845052
 20
1980.388736257063
 30
0.0
 41
100.0
 42
100.0
 43
100.0
 50
270.0
  0
INSERT
  5
2F7AA
330
2F661
100
AcDbEntity
  8
寸法
 62
     0
 48
50.0
370
    -2
100
AcDbBlockReference
  2
_DOTSMALL
 10
8860.173483845052
 20
1914.438736257064
 30
0.0
 41
100.0
 42
100.0
 43
100.0
 50
90.0
  0
MTEXT
  5
2F7AB
330
2F661
100
AcDbEntity
  8
寸法
 62
     7
 48
50.0
100
AcDbMText
 10
8760.16167282143
 20
1448.429832835582
 30
0.0
 40
120.0
 41
0.0
 71
     5
 72
     1
  1
\A1;20～25
  7
STYLE1
 11
0.0000000000000001
 21
1.0
 31
0.0
 73
     1
 44
1.0
1001
ACAD
1000
MTEXTBEGIN
1070
    73
1070
     1
1070
    44
1040
1.0
1070
    74
1070
     0
1000
MTEXTEND
  0
POINT
  5
2F7AC
330
2F661
100
AcDbEntity
  8
DEFPOINTS
 62
     0
 48
50.0
100
AcDbPoint
 10
7653.769401485212
 20
1980.388736257063
 30
0.0
  0
POINT
  5
2F7AD
330
2F661
100
AcDbEntity
  8
DEFPOINTS
 62
     0
 48
50.0
100
AcDbPoint
 10
7887.769401485214
 20
1914.438736257064
 30
0.0
  0
POINT
  5
2F7AE
330
2F661
100
AcDbEntity
  8
DEFPOINTS
 62
     0
 48
50.0
100
AcDbPoint
 10
8860.173483845052
 20
1914.438736257064
 30
0.0
  0
ENDBLK
  5
2F66E
330
2F661
100
AcDbEntity
  8
0
 48
50.0
100
AcDbBlockEnd
  0
ENDSEC
  0
SECTION
  2
ENTITIES
  0
MTEXT
  5
763F
330
747D
100
AcDbEntity
  8
0
100
AcDbMText
 10
302.846345836809
 20
280.1983726409901
 30
0.0
 40
3.5
 41
5.323721266742722
 71
     1
 72
     5
  1

  7
MSMINCHO
 73
     1
 44
1.0
1001
ACAD
1000
MTEXTBEGIN
1070
    73
1070
     1
1070
    44
1040
1.0
1070
    74
1070
     0
1000
MTEXTEND
  0
LINE
  5
10B57
330
747D
100
AcDbEntity
  8
補助
  6
PHANTOM
 62
   230
 48
50.0
100
AcDbLine
 10
139.9999999999995
 20
11409.6
 30
0.0
 11
16307.2
 21
11409.6
 31
0.0
  0
LINE
  5
10B59
330
747D
100
AcDbEntity
  8
仕様書枠
  6
Continuous
 48
50.0
100
AcDbLine
 10
13107.2
 20
1200.0
 30
0.0
 11
13107.2
 21
-0.0000000000000729
 31
0.0
  0
LINE
  5
10B5D
330
747D
100
AcDbEntity
  8
仕様書枠
 48
50.0
100
AcDbLine
 10
140.0
 20
0.0
 30
0.0
 11
16307.2
 21
-0.0000000000000909
 31
0.0
  0
LINE
  5
10B5E
330
747D
100
AcDbEntity
  8
補助
  6
PHANTOM
 62
   230
 48
50.0
100
AcDbLine
 10
16307.2
 20
11409.6
 30
0.0
 11
16307.2
 21
1200.0
 31
0.0
  0
LINE
  5
10B6C
330
747D
100
AcDbEntity
  8
仕様書枠
 48
50.0
100
AcDbLine
 10
13107.2
 20
1200.0
 30
0.0
 11
16307.2
 21
1200.0
 31
0.0
  0
TEXT
  5
10B73
330
747D
100
AcDbEntity
  8
文字
 62
     7
 48
50.0
100
AcDbText
 10
13162.9790565769
 20
895.0906074299405
 30
0.0
 40
200.0
  1
基 礎 図
  7
STYLE2
100
AcDbText
  0
LINE
  5
10B7B
330
747D
100
AcDbEntity
  8
仕様書枠
 48
50.0
100
AcDbLine
 10
13107.2
 20
800.0
 30
0.0
 11
14251.2
 21
800.0
 31
0.0
  0
LINE
  5
10B88
330
747D
100
AcDbEntity
  8
仕様書枠
  6
Continuous
 48
50.0
100
AcDbLine
 10
14251.2
 20
1200.0
 30
0.0
 11
14251.2
 21
800.0
 31
0.0
  0
LINE
  5
16462
330
747D
100
AcDbEntity
  8
仕様書枠
 48
50.0
100
AcDbLine
 10
16307.2
 20
1200.0
 30
0.0
 11
16307.2
 21
-0.0000000000000909
 31
0.0
  0
LINE
  5
1903B
330
747D
100
AcDbEntity
  8
補助
  6
PHANTOM
 62
   230
 48
50.0
100
AcDbLine
 10
140.0
 20
0.0
 30
0.0
 11
139.9999999999995
 21
11409.6
 31
0.0
  0
LEADER
  5
1AC27
330
747D
100
AcDbEntity
  8
寸法
 48
50.0
100
AcDbLeader
  3
INABA_S40G
 73
     0
 74
     0
 75
     1
 40
120.0
 41
720.0000000000001
 76
     3
 10
11698.695499615
 20
6983.321881751898
 30
0.0
 10
11865.46907400128
 20
6707.307968184067
 30
0.0
 10
11965.46907400128
 20
6707.307968184067
 30
0.0
340
1AC28
1001
ACAD
1000
DSTYLE
1002
{
1070
   341
1005
0
1002
}
  0
MTEXT
  5
1AC28
102
{ACAD_REACTORS
330
1AC27
102
}
330
747D
100
AcDbEntity
  8
部品1
 62
     7
 48
50.0
100
AcDbMText
 10
12725.46907400128
 20
6807.307968184066
 30
0.0
 40
120.0
 41
0.0
 71
     6
 72
     1
  1
\A1;床下換気口
  7
STYLE1
 73
     1
 44
1.0
1001
ACAD
1000
MTEXTBEGIN
1070
    73
1070
     1
1070
    44
1040
1.0
1070
    74
1070
     0
1000
MTEXTEND
  0
TEXT
  5
1AC29
330
747D
100
AcDbEntity
  8
部品1
 48
50.0
100
AcDbText
 10
12042.50116389397
 20
4954.028809833295
 30
0.0
 40
80.0
  1
(a=45,b=55,c=75)
  7
STYLE1
100
AcDbText
  0
TEXT
  5
1AC2A
330
747D
100
AcDbEntity
  8
部品1
 48
50.0
100
AcDbText
 10
11883.92215513967
 20
5060.874030702048
 30
0.0
 40
80.0
  1
※a,b,cは屋根の出幅です。
  7
STYLE1
100
AcDbText
  0
MTEXT
  5
1AC2B
102
{ACAD_REACTORS
330
1AC2C
102
}
330
747D
100
AcDbEntity
  8
部品1
 62
     7
 48
50.0
100
AcDbMText
 10
12681.70935112828
 20
5240.184717635123
 30
0.0
 40
120.0
 41
0.0
 71
     6
 72
     1
  1
\A1;屋根の外寸
  7
STYLE1
 73
     1
 44
1.0
1001
ACAD
1000
MTEXTBEGIN
1070
    73
1070
     1
1070
    44
1040
1.0
1070
    74
1070
     0
1000
MTEXTEND
  0
LEADER
  5
1AC2C
330
747D
100
AcDbEntity
  8
寸法
 48
50.0
100
AcDbLeader
  3
INABA_S40G
 73
     0
 74
     0
 75
     1
 40
120.0
 41
672.0
 76
     3
 10
11743.76933893624
 20
5414.074061098698
 30
0.0
 10
11869.70935112828
 20
5140.184717635123
 30
0.0
 10
11969.70935112828
 20
5140.184717635123
 30
0.0
340
1AC2B
1001
ACAD
1000
DSTYLE
1002
{
1070
   341
1005
0
1002
}
  0
TEXT
  5
1C7A1
330
747D
100
AcDbEntity
  8
文字
 62
     7
 48
50.0
100
AcDbText
 10
13188.16259899338
 20
79.80631269190417
 30
0.0
 40
80.0
  1
※布基礎には換気口を設けてください。
  7
STYLE2
100
AcDbText
  0
TEXT
  5
1C7E7
330
747D
100
AcDbEntity
  8
文字
 62
     7
 48
50.0
100
AcDbText
 10
13188.16259899338
 20
246.7109242801889
 30
0.0
 40
80.0
  1
※寒冷地等は地域の実情に合わせた基礎にして下さい。
  7
STYLE2
100
AcDbText
  0
TEXT
  5
1C7E8
330
747D
100
AcDbEntity
  8
文字
 62
     7
 48
50.0
100
AcDbText
 10
14338.73273568928
 20
499.5983841039506
 30
0.0
 40
160.0
  1
ＮＸＮ－２４５Ｈ
  7
STYLE2
100
AcDbText
  0
TEXT
  5
1C7E9
330
747D
100
AcDbEntity
  8
文字
 62
     7
 48
50.0
100
AcDbText
 10
14773.51716161636
 20
871.1744590657927
 30
0.0
 40
100.0
  1
～一般型～
  7
STYLE2
100
AcDbText
  0
TEXT
  5
1C7EC
330
747D
100
AcDbEntity
  8
文字
 62
     7
 48
50.0
100
AcDbText
 10
14524.131837222
 20
1031.557706291229
 30
0.0
 40
100.0
  1
      <縮尺> S=1/40
  7
STYLE2
100
AcDbText
  0
TEXT
  5
1C7ED
330
747D
100
AcDbEntity
  8
文字
 62
     7
 48
50.0
100
AcDbText
 10
13201.43669998441
 20
477.2740661031257
 30
0.0
 40
160.0
  1
機種名
  7
STYLE2
100
AcDbText
  0
LINE
  5
1C7EF
330
747D
100
AcDbEntity
  8
文字
 62
     7
 48
50.0
100
AcDbLine
 10
13187.2
 20
400.0
 30
0.0
 11
16227.2
 21
400.0
 31
0.0
  0
MTEXT
  5
1D2D5
102
{ACAD_REACTORS
330
1D2D6
102
}
330
747D
100
AcDbEntity
  8
部品1
 62
     7
 48
50.0
100
AcDbMText
 10
12893.99523070988
 20
8993.835621807965
 30
0.0
 40
120.0
 41
0.0
 71
     6
 72
     1
  1
アンカーボルト
  7
STYLE1
 73
     1
 44
1.0
1001
ACAD
1000
MTEXTBEGIN
1070
    73
1070
     1
1070
    44
1040
1.0
1070
    74
1070
     0
1000
MTEXTEND
  0
LEADER
  5
1D2D6
330
747D
100
AcDbEntity
  8
寸法
 48
50.0
100
AcDbLeader
  3
INABA_S40G
 73
     0
 74
     0
 75
     1
 40
120.0
 41
994.3492424049171
 76
     3
 10
11575.680085757
 20
8586.327555528793
 30
0.0
 10
11759.64598830496
 20
8893.835621807964
 30
0.0
 10
11859.64598830496
 20
8893.835621807964
 30
0.0
340
1D2D5
1001
ACAD
1000
DSTYLE
1002
{
1070
   341
1005
0
1002
}
  0
DIMENSION
  5
26F00
330
747D
100
AcDbEntity
  8
寸法
 48
50.0
100
AcDbDimension
  2
*D1
 10
8043.202780124335
 20
5229.11971117011
 30
0.0
 11
8043.202780124333
 21
4620.634429795869
 31
0.0
 70
   160
  1
扉の出<>
 71
     5
 42
75.00000000000182
  3
INABA_S40G
100
AcDbAlignedDimension
 13
7776.600000000001
 23
5154.119711170108
 33
0.0
 14
7776.600000000009
 24
5229.11971117011
 34
0.0
 50
90.0
100
AcDbRotatedDimension
1001
ACAD
1000
DSTYLE
1002
{
1070
   341
1005
0
1002
}
  0
DIMENSION
  5
26F1A
330
747D
100
AcDbEntity
  8
寸法
 48
50.0
100
AcDbDimension
  2
*D2
 10
4007.164931848214
 20
8709.119711170083
 30
0.0
 11
3907.164931848213
 21
8746.619711170087
 31
0.0
 70
    32
  1
c
 71
     5
 42
75.00000000000364
  3
INABA_S40G
100
AcDbAlignedDimension
 13
4252.657733986182
 23
8784.119711170086
 33
0.0
 14
4748.600000000004
 24
8709.119711170082
 34
0.0
 50
90.0
100
AcDbRotatedDimension
1001
ACAD
1000
DSTYLE
1002
{
1070
   341
1005
0
1002
}
  0
DIMENSION
  5
26F3F
330
747D
100
AcDbEntity
  8
寸法
 48
50.0
100
AcDbDimension
  2
*D3
 10
4007.164931848211
 20
5174.119711170105
 30
0.0
 11
3907.16493184821
 21
5201.619711170095
 31
0.0
 70
    32
  1
b
 71
     5
 42
54.99999999997817
  3
INABA_S40G
100
AcDbAlignedDimension
 13
4755.050294581424
 23
5229.119711170083
 33
0.0
 14
4252.657733986182
 24
5174.119711170105
 34
0.0
 50
90.0
100
AcDbRotatedDimension
1001
ACAD
1000
DSTYLE
1002
{
1070
   341
1005
0
1002
}
  0
DIMENSION
  5
26F64
330
747D
100
AcDbEntity
  8
寸法
 48
50.0
100
AcDbDimension
  2
*D4
 10
11743.6
 20
9667.340033229004
 30
0.0
 11
12014.77462120245
 21
9667.340033229004
 31
0.0
 70
   160
  1
a
 71
     5
 42
45.0
  3
INABA_S40G
100
AcDbAlignedDimension
 13
11698.6
 23
8709.119711170082
 33
0.0
 14
11743.6
 24
9454.879337712164
 34
0.0
100
AcDbRotatedDimension
1001
ACAD
1000
DSTYLE
1002
{
1070
   341
1005
0
1002
}
  0
DIMENSION
  5
26F7E
330
747D
100
AcDbEntity
  8
寸法
 48
50.0
100
AcDbDimension
  2
*D5
 10
4748.6
 20
9667.340033229004
 30
0.0
 11
4432.425378797542
 21
9667.340033229004
 31
0.0
 70
   160
  1
a
 71
     5
 42
44.99999999999454
  3
INABA_S40G
100
AcDbAlignedDimension
 13
4703.600000000005
 23
9454.879337712164
 33
0.0
 14
4748.6
 24
8709.119711170082
 34
0.0
100
AcDbRotatedDimension
1001
ACAD
1000
DSTYLE
1002
{
1070
   341
1005
0
1002
}
  0
DIMENSION
  5
2701E
330
747D
100
AcDbEntity
  8
寸法
 48
50.0
100
AcDbDimension
  2
*D6
 10
5889.18320630424
 20
5349.119711170088
 30
0.0
 11
5889.183206304239
 21
4915.4247699662
 31
0.0
 70
   160
 71
     5
 42
194.9999999999927
  3
INABA_S40G
100
AcDbAlignedDimension
 13
5621.6
 23
5154.119711170095
 33
0.0
 14
5621.6
 24
5349.119711170088
 34
0.0
 50
90.0
100
AcDbRotatedDimension
1001
ACAD
1000
DSTYLE
1002
{
1070
   341
1005
0
1002
}
  0
MTEXT
  5
29996
102
{ACAD_REACTORS
330
29997
102
}
330
747D
100
AcDbEntity
  8
部品1
 62
     7
 48
50.0
100
AcDbMText
 10
6058.440328953422
 20
6631.130474906557
 30
0.0
 40
120.0
 41
0.0
 71
     6
 72
     1
  1
CB
  7
STYLE1
 73
     1
 44
1.0
1001
ACAD
1000
MTEXTBEGIN
1070
    73
1070
     1
1070
    44
1040
1.0
1070
    74
1070
     0
1000
MTEXTEND
  0
LEADER
  5
29997
330
747D
100
AcDbEntity
  8
寸法
 48
50.0
100
AcDbLeader
  3
INABA_S40G
 73
     0
 74
     0
 75
     1
 40
120.0
 41
149.591883092037
 76
     3
 10
5631.565642998741
 20
6807.14438847439
 30
0.0
 10
5768.848445861385
 20
6531.130474906557
 30
0.0
 10
5868.848445861384
 20
6531.130474906557
 30
0.0
340
29996
1001
ACAD
1000
DSTYLE
1002
{
1070
   341
1005
0
1002
}
  0
DIMENSION
  5
2A1B2
330
747D
100
AcDbEntity
  8
寸法
 48
50.0
100
AcDbDimension
  2
*D7
 10
8223.600000000001
 20
9236.029476818412
 30
0.0
 11
8675.1
 21
9336.029476818412
 31
0.0
 70
    32
 71
     5
 42
903.0
  3
INABA_S40G
100
AcDbAlignedDimension
 13
9126.600000000001
 23
8024.119711170083
 33
0.0
 14
8223.600000000001
 24
7924.119711170082
 34
0.0
100
AcDbRotatedDimension
1001
ACAD
1000
DSTYLE
1002
{
1070
   341
1005
0
1002
}
  0
LINE
  5
2A1B3
102
{ACAD_REACTORS
330
2F75F
102
}
330
747D
100
AcDbEntity
  8
部品1
 48
50.0
100
AcDbLine
 10
11468.6
 20
5349.1197111701
 30
0.0
 11
8235.600000000001
 21
5349.119711170095
 31
0.0
  0
LINE
  5
2A1B4
102
{ACAD_REACTORS
330
2F75F
102
}
330
747D
100
AcDbEntity
  8
部品1
 48
50.0
100
AcDbLine
 10
11698.6
 20
5229.119711170103
 30
0.0
 11
7776.600000000001
 21
5229.119711170084
 31
0.0
  0
LINE
  5
2A1B5
102
{ACAD_REACTORS
330
2F75F
102
}
330
747D
100
AcDbEntity
  8
部品1
 48
50.0
100
AcDbLine
 10
11468.6
 20
8589.119711170082
 30
0.0
 11
8235.600000000001
 21
8589.119711170084
 31
0.0
  0
DIMENSION
  5
2A1B6
330
747D
100
AcDbEntity
  8
寸法
 48
50.0
100
AcDbDimension
  2
*D8
 10
8105.6
 20
9454.879337712167
 30
0.0
 11
9840.600000000002
 21
9554.879337712167
 31
0.0
 70
    32
 71
     5
 42
3470.0
  3
INABA_S40G
100
AcDbAlignedDimension
 13
11575.6
 23
8636.119711170087
 33
0.0
 14
8105.6
 24
8636.119711170087
 34
0.0
100
AcDbRotatedDimension
1001
ACAD
1000
DSTYLE
1002
{
1070
   341
1005
0
1002
}
  0
DIMENSION
  5
2A1B7
330
747D
100
AcDbEntity
  8
寸法
 48
50.0
100
AcDbDimension
  2
*D9
 10
11698.6
 20
9667.340033229004
 30
0.0
 11
8223.600000000001
 21
9767.340033229004
 31
0.0
 70
    32
 71
     5
 42
6950.0
  3
INABA_S40G
100
AcDbAlignedDimension
 13
4748.6
 23
8709.119711170082
 33
0.0
 14
11698.6
 24
8709.119711170082
 34
0.0
100
AcDbRotatedDimension
1001
ACAD
1000
DSTYLE
1002
{
1070
   341
1005
0
1002
}
  0
LINE
  5
2A1B8
102
{ACAD_REACTORS
330
2F75F
102
}
330
747D
100
AcDbEntity
  8
部品1
 48
50.0
100
AcDbLine
 10
11698.6
 20
8709.119711170082
 30
0.0
 11
4748.6
 21
8709.119711170082
 31
0.0
  0
LINE
  5
2A1CC
102
{ACAD_REACTORS
330
2F75F
102
}
330
747D
100
AcDbEntity
  8
部品1
 48
50.0
100
AcDbLine
 10
4748.6
 20
5229.119711170084
 30
0.0
 11
4748.6
 21
8709.119711170082
 31
0.0
  0
LINE
  5
2A1CD
102
{ACAD_REACTORS
330
2F75F
102
}
330
747D
100
AcDbEntity
  8
部品1
 48
50.0
100
AcDbLine
 10
4868.6
 20
5459.119711170085
 30
0.0
 11
4868.6
 21
8479.119711170081
 31
0.0
  0
DIMENSION
  5
2A1CE
330
747D
100
AcDbEntity
  8
寸法
 48
50.0
100
AcDbDimension
  2
*D10
 10
4007.164931848211
 20
5229.119711170084
 30
0.0
 11
3907.16493184821
 21
6969.119711170084
 31
0.0
 70
    32
 71
     5
 42
3479.999999999999
  3
INABA_S40G
100
AcDbAlignedDimension
 13
4748.6
 23
8709.119711170082
 33
0.0
 14
4748.6
 24
5229.119711170084
 34
0.0
 50
90.0
100
AcDbRotatedDimension
1001
ACAD
1000
DSTYLE
1002
{
1070
   341
1005
0
1002
}
  0
DIMENSION
  5
2A1CF
330
747D
100
AcDbEntity
  8
寸法
 48
50.0
100
AcDbDimension
  2
*D11
 10
4252.657733986175
 20
5352.119711170086
 30
0.0
 11
4152.645922962552
 21
6969.119711170086
 31
0.0
 70
    32
 71
     5
 42
3233.999999999999
  3
INABA_S40G
100
AcDbAlignedDimension
 13
4821.6
 23
8586.119711170084
 33
0.0
 14
4821.600000000008
 24
5352.119711170086
 34
0.0
 50
90.0
100
AcDbRotatedDimension
1001
ACAD
1000
DSTYLE
1002
{
1070
   341
1005
0
1002
}
  0
LINE
  5
2A22E
330
747D
100
AcDbEntity
  8
部品1
 48
50.0
100
AcDbLine
 10
4748.6
 20
5229.119711170084
 30
0.0
 11
5621.6
 21
5229.119711170084
 31
0.0
  0
LINE
  5
2A22F
102
{ACAD_REACTORS
330
2F75F
102
}
330
747D
100
AcDbEntity
  8
部品1
 48
50.0
100
AcDbLine
 10
7975.6
 20
5349.119711170093
 30
0.0
 11
4978.6
 21
5349.119711170088
 31
0.0
  0
DIMENSION
  5
2A231
330
747D
100
AcDbEntity
  8
寸法
 48
50.0
100
AcDbDimension
  2
*D12
 10
4748.6
 20
4610.113321515364
 30
0.0
 11
5185.100000000001
 21
4710.113321515364
 31
0.0
 70
    32
 71
     5
 42
873.0
  3
INABA_S40G
100
AcDbAlignedDimension
 13
5621.6
 23
5154.119711170073
 33
0.0
 14
4748.6
 24
5229.119711170084
 34
0.0
100
AcDbRotatedDimension
1001
ACAD
1000
DSTYLE
1002
{
1070
   341
1005
0
1002
}
  0
DIMENSION
  5
2A233
330
747D
100
AcDbEntity
  8
寸法
 48
50.0
100
AcDbDimension
  2
*D13
 10
4252.657733986178
 20
5229.119711170084
 30
0.0
 11
4252.657733986178
 21
4893.588762327492
 31
0.0
 70
   160
 71
     5
 42
123.0000000000018
  3
INABA_S40G
100
AcDbAlignedDimension
 13
4821.600000000008
 23
5352.119711170086
 33
0.0
 14
4748.6
 24
5229.119711170084
 34
0.0
 50
90.0
100
AcDbRotatedDimension
1001
ACAD
1000
DSTYLE
1002
{
1070
   341
1005
0
1002
}
  0
LINE
  5
2A234
330
747D
100
AcDbEntity
  8
部品1
 48
50.0
100
AcDbLine
 10
4978.6
 20
5459.119711170088
 30
0.0
 11
4868.6
 21
5459.119711170085
 31
0.0
  0
LINE
  5
2A235
330
747D
100
AcDbEntity
  8
センター
 48
2.0
100
AcDbLine
 10
4821.600000000008
 20
5352.119711170086
 30
0.0
 11
4921.600000000008
 21
5352.119711170086
 31
0.0
  0
CIRCLE
  5
2A236
330
747D
100
AcDbEntity
  8
部品1
 48
50.0
100
AcDbCircle
 10
4871.600000000007
 20
5352.119711170086
 30
0.0
 40
35.0
  0
LINE
  5
2A237
330
747D
100
AcDbEntity
  8
センター
 48
2.0
100
AcDbLine
 10
4871.600000000007
 20
5402.119711170086
 30
0.0
 11
4871.600000000007
 21
5302.119711170085
 31
0.0
  0
LINE
  5
2A238
330
747D
100
AcDbEntity
  8
部品1
 48
50.0
100
AcDbLine
 10
4978.6
 20
5349.119711170088
 30
0.0
 11
4978.6
 21
5459.119711170088
 31
0.0
  0
LINE
  5
2A23A
102
{ACAD_REACTORS
330
2F75F
102
}
330
747D
100
AcDbEntity
  8
部品1
 48
50.0
100
AcDbLine
 10
7776.600000000001
 20
5154.119711170087
 30
0.0
 11
5621.6
 21
5154.119711170073
 31
0.0
  0
LINE
  5
2A23D
330
747D
100
AcDbEntity
  8
部品1
 48
50.0
100
AcDbLine
 10
5621.6
 20
5154.119711170089
 30
0.0
 11
5621.6
 21
5229.119711170073
 31
0.0
  0
LINE
  5
2A2B2
102
{ACAD_REACTORS
330
2F75F
102
}
330
747D
100
AcDbEntity
  8
部品1
 48
50.0
100
AcDbLine
 10
6388.600000000009
 20
5349.119711170089
 30
0.0
 11
6388.600000000009
 21
5154.119711170078
 31
0.0
  0
LINE
  5
2A333
102
{ACAD_REACTORS
330
2F75F
102
}
330
747D
100
AcDbEntity
  8
部品1
 48
50.0
100
AcDbLine
 10
6588.600000000005
 20
5349.119711170089
 30
0.0
 11
6588.600000000005
 21
5154.11971117008
 31
0.0
  0
LINE
  5
2A418
330
747D
100
AcDbEntity
  8
部品1
 48
50.0
100
AcDbLine
 10
8235.600000000001
 20
5459.119711170102
 30
0.0
 11
7975.6
 21
5459.119711170102
 31
0.0
  0
LINE
  5
2A419
330
747D
100
AcDbEntity
  8
部品1
 48
50.0
100
AcDbLine
 10
7776.600000000001
 20
5154.119711170089
 30
0.0
 11
7776.600000000001
 21
5229.119711170086
 31
0.0
  0
LINE
  5
2A44A
330
747D
100
AcDbEntity
  8
部品1
 48
50.0
100
AcDbLine
 10
7975.599999999999
 20
5349.119711170093
 30
0.0
 11
7975.6
 21
5459.119711170102
 31
0.0
  0
LINE
  5
2A44B
330
747D
100
AcDbEntity
  8
部品1
 48
50.0
100
AcDbLine
 10
8235.600000000003
 20
5349.119711170095
 30
0.0
 11
8235.600000000001
 21
5459.119711170102
 31
0.0
  0
LINE
  5
2A44C
330
747D
100
AcDbEntity
  8
センター
 48
2.0
100
AcDbLine
 10
8105.600000000007
 20
5402.119711170086
 30
0.0
 11
8105.600000000007
 21
5302.119711170085
 31
0.0
  0
CIRCLE
  5
2A44D
330
747D
100
AcDbEntity
  8
部品1
 48
50.0
100
AcDbCircle
 10
8105.600000000007
 20
5352.119711170086
 30
0.0
 40
35.0
  0
LINE
  5
2A44E
330
747D
100
AcDbEntity
  8
センター
 48
2.0
100
AcDbLine
 10
8055.600000000008
 20
5352.119711170086
 30
0.0
 11
8155.600000000008
 21
5352.119711170086
 31
0.0
  0
DIMENSION
  5
2A44F
330
747D
100
AcDbEntity
  8
寸法
 48
50.0
100
AcDbDimension
  2
*D14
 10
5195.3072498761
 20
8709.119711170082
 30
0.0
 11
5195.307249876099
 21
8987.20325444297
 31
0.0
 70
   160
 71
     5
 42
120.0
  3
INABA_S40G
100
AcDbAlignedDimension
 13
4978.6
 23
8589.119711170082
 33
0.0
 14
4978.600000000002
 24
8709.119711170082
 34
0.0
 50
90.0
100
AcDbRotatedDimension
1001
ACAD
1000
DSTYLE
1002
{
1070
   341
1005
0
1002
}
  0
DIMENSION
  5
2A450
330
747D
100
AcDbEntity
  8
寸法
 48
50.0
100
AcDbDimension
  2
*D15
 10
4748.6
 20
9236.029476818412
 30
0.0
 11
5202.6
 21
9336.029476818412
 31
0.0
 70
    32
 71
     5
 42
908.0
  3
INABA_S40G
100
AcDbAlignedDimension
 13
5656.6
 23
8024.119711170083
 33
0.0
 14
4748.6
 24
8709.119711170082
 34
0.0
100
AcDbRotatedDimension
1001
ACAD
1000
DSTYLE
1002
{
1070
   341
1005
0
1002
}
  0
DIMENSION
  5
2A451
330
747D
100
AcDbEntity
  8
寸法
 48
50.0
100
AcDbDimension
  2
*D16
 10
5195.3072498761
 20
8479.119711170081
 30
0.0
 11
5195.307249876099
 21
8139.06065605197
 31
0.0
 70
   160
 71
     5
 42
110.0000000000036
  3
INABA_S40G
100
AcDbAlignedDimension
 13
4978.6
 23
8589.119711170084
 33
0.0
 14
4978.6
 24
8479.119711170081
 34
0.0
 50
90.0
100
AcDbRotatedDimension
1001
ACAD
1000
DSTYLE
1002
{
1070
   341
1005
0
1002
}
  0
DIMENSION
  5
2A452
330
747D
100
AcDbEntity
  8
寸法
 48
50.0
100
AcDbDimension
  2
*D17
 10
4871.6
 20
9454.879337712167
 30
0.0
 11
6488.600000000001
 21
9554.891148735789
 31
0.0
 70
    32
 71
     5
 42
3234.0
  3
INABA_S40G
100
AcDbAlignedDimension
 13
8105.6
 23
8636.119711170087
 33
0.0
 14
4871.6
 24
8636.119711170087
 34
0.0
100
AcDbRotatedDimension
1001
ACAD
1000
DSTYLE
1002
{
1070
   341
1005
0
1002
}
  0
LINE
  5
2A453
102
{ACAD_REACTORS
330
2F75F
102
}
330
747D
100
AcDbEntity
  8
部品1
 48
50.0
100
AcDbLine
 10
7975.6
 20
8589.119711170084
 30
0.0
 11
4978.6
 21
8589.119711170084
 31
0.0
  0
DIMENSION
  5
2A455
330
747D
100
AcDbEntity
  8
寸法
 48
50.0
100
AcDbDimension
  2
*D18
 10
4252.657733986178
 20
8586.119711170084
 30
0.0
 11
4252.657733986178
 21
8982.226312887885
 31
0.0
 70
   160
 71
     5
 42
122.9999999999981
  3
INABA_S40G
100
AcDbAlignedDimension
 13
4748.6
 23
8709.119711170082
 33
0.0
 14
4821.6
 24
8586.119711170084
 34
0.0
 50
90.0
100
AcDbRotatedDimension
1001
ACAD
1000
DSTYLE
1002
{
1070
   341
1005
0
1002
}
  0
DIMENSION
  5
2A456
330
747D
100
AcDbEntity
  8
寸法
 48
50.0
100
AcDbDimension
  2
*D19
 10
4748.6
 20
9454.879337712167
 30
0.0
 11
4475.493398282202
 21
9454.879337712167
 31
0.0
 70
   160
 71
     5
 42
123.0
  3
INABA_S40G
100
AcDbAlignedDimension
 13
4871.6
 23
8636.119711170087
 33
0.0
 14
4748.6
 24
8709.119711170082
 34
0.0
100
AcDbRotatedDimension
1001
ACAD
1000
DSTYLE
1002
{
1070
   341
1005
0
1002
}
  0
LINE
  5
2A457
102
{ACAD_REACTORS
330
2F75F
102
}
330
747D
100
AcDbEntity
  8
部品1
 48
50.0
100
AcDbLine
 10
4868.599999999998
 20
7069.119711170086
 30
0.0
 11
4748.6
 21
7069.119711170086
 31
0.0
  0
LINE
  5
2A458
102
{ACAD_REACTORS
330
2F75F
102
}
330
747D
100
AcDbEntity
  8
部品1
 48
50.0
100
AcDbLine
 10
4868.599999999998
 20
6869.119711170085
 30
0.0
 11
4748.6
 21
6869.119711170085
 31
0.0
  0
LINE
  5
2A45A
330
747D
100
AcDbEntity
  8
部品1
 48
50.0
100
AcDbLine
 10
4978.599999999999
 20
8479.119711170081
 30
0.0
 11
4868.6
 21
8479.119711170085
 31
0.0
  0
LINE
  5
2A45B
330
747D
100
AcDbEntity
  8
センター
 48
2.0
100
AcDbLine
 10
4821.6
 20
8586.119711170084
 30
0.0
 11
4921.600000000001
 21
8586.119711170084
 31
0.0
  0
CIRCLE
  5
2A45C
330
747D
100
AcDbEntity
  8
部品1
 48
50.0
100
AcDbCircle
 10
4871.6
 20
8586.119711170084
 30
0.0
 40
35.0
  0
LINE
  5
2A45D
330
747D
100
AcDbEntity
  8
センター
 48
2.0
100
AcDbLine
 10
4871.6
 20
8636.119711170087
 30
0.0
 11
4871.6
 21
8536.119711170085
 31
0.0
  0
LINE
  5
2A45E
330
747D
100
AcDbEntity
  8
部品1
 48
50.0
100
AcDbLine
 10
4978.599999999999
 20
8479.119711170081
 30
0.0
 11
4978.6
 21
8589.119711170084
 31
0.0
  0
LINE
  5
2A460
330
747D
100
AcDbEntity
  8
部品1
 48
50.0
100
AcDbLine
 10
5147.928907166848
 20
8709.11971117008
 30
0.0
 11
4748.6
 21
8709.119711170082
 31
0.0
  0
DIMENSION
  5
2A461
330
747D
100
AcDbEntity
  8
寸法
 48
50.0
100
AcDbDimension
  2
*D20
 10
7320.6
 20
9236.029476818412
 30
0.0
 11
7772.1
 21
9336.029476818412
 31
0.0
 70
    32
 71
     5
 42
903.0
  3
INABA_S40G
100
AcDbAlignedDimension
 13
8223.600000000001
 23
7924.119711170082
 33
0.0
 14
7320.6
 24
8024.119711170083
 34
0.0
100
AcDbRotatedDimension
1001
ACAD
1000
DSTYLE
1002
{
1070
   341
1005
0
1002
}
  0
LINE
  5
2A462
102
{ACAD_REACTORS
330
2F75F
102
}
330
747D
100
AcDbEntity
  8
部品1
 48
50.0
100
AcDbLine
 10
6588.600000000003
 20
8709.119711170082
 30
0.0
 11
6588.600000000003
 21
8589.119711170084
 31
0.0
  0
LINE
  5
2A463
102
{ACAD_REACTORS
330
2F75F
102
}
330
747D
100
AcDbEntity
  8
部品1
 48
50.0
100
AcDbLine
 10
6388.600000000002
 20
8709.119711170082
 30
0.0
 11
6388.600000000002
 21
8589.119711170084
 31
0.0
  0
DIMENSION
  5
2A465
330
747D
100
AcDbEntity
  8
寸法
 48
50.0
100
AcDbDimension
  2
*D21
 10
5656.6
 20
9236.029476818412
 30
0.0
 11
6072.600000000002
 21
9336.041287842034
 31
0.0
 70
    32
 71
     5
 42
832.0000000000035
  3
INABA_S40G
100
AcDbAlignedDimension
 13
6488.600000000004
 23
8024.119711170083
 33
0.0
 14
5656.6
 24
8024.119711170083
 34
0.0
100
AcDbRotatedDimension
1001
ACAD
1000
DSTYLE
1002
{
1070
   341
1005
0
1002
}
  0
DIMENSION
  5
2A466
330
747D
100
AcDbEntity
  8
寸法
 48
50.0
100
AcDbDimension
  2
*D22
 10
6488.600000000004
 20
9236.029476818412
 30
0.0
 11
6904.600000000002
 21
9336.041287842034
 31
0.0
 70
    32
 71
     5
 42
831.9999999999962
  3
INABA_S40G
100
AcDbAlignedDimension
 13
7320.6
 23
8024.119711170083
 33
0.0
 14
6488.600000000004
 24
8024.119711170083
 34
0.0
100
AcDbRotatedDimension
1001
ACAD
1000
DSTYLE
1002
{
1070
   341
1005
0
1002
}
  0
LINE
  5
2A499
330
747D
100
AcDbEntity
  8
部品1
 48
50.0
100
AcDbLine
 10
8235.600000000001
 20
8479.119711170064
 30
0.0
 11
7975.6
 21
8479.119711170064
 31
0.0
  0
LINE
  5
2A49A
330
747D
100
AcDbEntity
  8
部品1
 48
50.0
100
AcDbLine
 10
7975.599999999999
 20
8589.119711170084
 30
0.0
 11
7975.6
 21
8479.119711170064
 31
0.0
  0
LINE
  5
2A49B
330
747D
100
AcDbEntity
  8
部品1
 48
50.0
100
AcDbLine
 10
8235.600000000003
 20
8589.119711170086
 30
0.0
 11
8235.600000000001
 21
8479.119711170064
 31
0.0
  0
LINE
  5
2A49C
330
747D
100
AcDbEntity
  8
センター
 48
2.0
100
AcDbLine
 10
8055.600000000001
 20
8586.119711170084
 30
0.0
 11
8155.600000000001
 21
8586.119711170084
 31
0.0
  0
LINE
  5
2A49D
330
747D
100
AcDbEntity
  8
センター
 48
2.0
100
AcDbLine
 10
8105.6
 20
8636.119711170087
 30
0.0
 11
8105.6
 21
8536.119711170085
 31
0.0
  0
CIRCLE
  5
2A49E
330
747D
100
AcDbEntity
  8
部品1
 48
50.0
100
AcDbCircle
 10
8105.6
 20
8586.119711170084
 30
0.0
 40
35.0
  0
LINE
  5
2A49F
102
{ACAD_REACTORS
330
2F75F
102
}
330
747D
100
AcDbEntity
  8
部品1
 48
50.0
100
AcDbLine
 10
11578.6
 20
5459.119711170104
 30
0.0
 11
11578.6
 21
8479.119711170083
 31
0.0
  0
LINE
  5
2A4A0
102
{ACAD_REACTORS
330
2F75F
102
}
330
747D
100
AcDbEntity
  8
部品1
 48
50.0
100
AcDbLine
 10
11698.6
 20
5229.119711170103
 30
0.0
 11
11698.6
 21
8709.119711170082
 31
0.0
  0
DIMENSION
  5
2A4A1
330
747D
100
AcDbEntity
  8
寸法
 48
50.0
100
AcDbDimension
  2
*D23
 10
10478.85510029273
 20
6114.119711170073
 30
0.0
 11
10378.85510029272
 21
5671.619711170085
 31
0.0
 70
    32
 71
     5
 42
884.9999999999809
  3
INABA_S40G
100
AcDbAlignedDimension
 13
10224.04593925956
 23
5229.119711170093
 33
0.0
 14
10690.6
 24
6114.119711170073
 34
0.0
 50
90.0
100
AcDbRotatedDimension
1001
ACAD
1000
DSTYLE
1002
{
1070
   341
1005
0
1002
}
  0
LINE
  5
2A519
102
{ACAD_REACTORS
330
2F75F
102
}
330
747D
100
AcDbEntity
  8
部品1
 48
50.0
100
AcDbLine
 10
9858.600000000016
 20
5349.119711170096
 30
0.0
 11
9858.600000000016
 21
5229.119711170095
 31
0.0
  0
LINE
  5
2A51A
102
{ACAD_REACTORS
330
2F75F
102
}
330
747D
100
AcDbEntity
  8
部品1
 48
50.0
100
AcDbLine
 10
10058.60000000001
 20
5349.119711170096
 30
0.0
 11
10058.60000000001
 21
5229.119711170095
 31
0.0
  0
LINE
  5
2A51B
330
747D
100
AcDbEntity
  8
部品1
 48
50.0
100
AcDbLine
 10
11578.6
 20
5459.119711170102
 30
0.0
 11
11468.6
 21
5459.119711170102
 31
0.0
  0
LINE
  5
2A51C
330
747D
100
AcDbEntity
  8
部品1
 48
50.0
100
AcDbLine
 10
11468.6
 20
5349.1197111701
 30
0.0
 11
11468.6
 21
5459.119711170102
 31
0.0
  0
LINE
  5
2A51D
330
747D
100
AcDbEntity
  8
センター
 48
2.0
100
AcDbLine
 10
11525.60000000001
 20
5352.119711170086
 30
0.0
 11
11625.60000000001
 21
5352.119711170086
 31
0.0
  0
CIRCLE
  5
2A51E
330
747D
100
AcDbEntity
  8
部品1
 48
50.0
100
AcDbCircle
 10
11575.60000000001
 20
5352.119711170086
 30
0.0
 40
35.0
  0
LINE
  5
2A51F
330
747D
100
AcDbEntity
  8
センター
 48
2.0
100
AcDbLine
 10
11575.60000000001
 20
5402.119711170086
 30
0.0
 11
11575.60000000001
 21
5302.119711170085
 31
0.0
  0
DIMENSION
  5
2A524
330
747D
100
AcDbEntity
  8
寸法
 48
50.0
100
AcDbDimension
  2
*D24
 10
11575.6
 20
9454.879337712167
 30
0.0
 11
11971.7066017178
 21
9454.879337712167
 31
0.0
 70
   160
 71
     5
 42
123.0
  3
INABA_S40G
100
AcDbAlignedDimension
 13
11698.6
 23
8709.119711170082
 33
0.0
 14
11575.6
 24
8636.119711170087
 34
0.0
100
AcDbRotatedDimension
1001
ACAD
1000
DSTYLE
1002
{
1070
   341
1005
0
1002
}
  0
DIMENSION
  5
2A528
330
747D
100
AcDbEntity
  8
寸法
 48
50.0
100
AcDbDimension
  2
*D25
 10
11578.6
 20
8251.41104366971
 30
0.0
 11
11968.65905511811
 21
8251.41104366971
 31
0.0
 70
   160
 71
     5
 42
120.0
  3
INABA_S40G
100
AcDbAlignedDimension
 13
11698.6
 23
8268.404307708541
 33
0.0
 14
11578.6
 24
8268.404307708541
 34
0.0
100
AcDbRotatedDimension
1001
ACAD
1000
DSTYLE
1002
{
1070
   341
1005
0
1002
}
  0
DIMENSION
  5
2A529
330
747D
100
AcDbEntity
  8
寸法
 48
50.0
100
AcDbDimension
  2
*D26
 10
10790.6
 20
9236.029476818412
 30
0.0
 11
11244.6
 21
9336.029476818412
 31
0.0
 70
    32
 71
     5
 42
908.0
  3
INABA_S40G
100
AcDbAlignedDimension
 13
11698.6
 23
8709.119711170082
 33
0.0
 14
10790.6
 24
8034.119711170083
 34
0.0
100
AcDbRotatedDimension
1001
ACAD
1000
DSTYLE
1002
{
1070
   341
1005
0
1002
}
  0
LINE
  5
2A52A
102
{ACAD_REACTORS
330
2F75F
102
}
330
747D
100
AcDbEntity
  8
部品1
 48
50.0
100
AcDbLine
 10
10058.6
 20
8709.119711170082
 30
0.0
 11
10058.6
 21
8589.119711170084
 31
0.0
  0
LINE
  5
2A52B
102
{ACAD_REACTORS
330
2F75F
102
}
330
747D
100
AcDbEntity
  8
部品1
 48
50.0
100
AcDbLine
 10
9858.600000000002
 20
8709.119711170082
 30
0.0
 11
9858.600000000004
 21
8589.119711170084
 31
0.0
  0
DIMENSION
  5
2A52D
330
747D
100
AcDbEntity
  8
寸法
 48
50.0
100
AcDbDimension
  2
*D27
 10
9126.600000000001
 20
9236.029476818412
 30
0.0
 11
9542.600000000003
 21
9336.041287842034
 31
0.0
 70
    32
 71
     5
 42
832.0000000000035
  3
INABA_S40G
100
AcDbAlignedDimension
 13
9958.600000000004
 23
8024.119711170083
 33
0.0
 14
9126.600000000001
 24
8024.119711170083
 34
0.0
100
AcDbRotatedDimension
1001
ACAD
1000
DSTYLE
1002
{
1070
   341
1005
0
1002
}
  0
DIMENSION
  5
2A52E
330
747D
100
AcDbEntity
  8
寸法
 48
50.0
100
AcDbDimension
  2
*D28
 10
9958.600000000004
 20
9236.029476818412
 30
0.0
 11
10374.6
 21
9336.041287842034
 31
0.0
 70
    32
 71
     5
 42
831.9999999999962
  3
INABA_S40G
100
AcDbAlignedDimension
 13
10790.6
 23
8034.119711170083
 33
0.0
 14
9958.600000000004
 24
8024.119711170083
 34
0.0
100
AcDbRotatedDimension
1001
ACAD
1000
DSTYLE
1002
{
1070
   341
1005
0
1002
}
  0
DIMENSION
  5
2A52F
330
747D
100
AcDbEntity
  8
寸法
 48
50.0
100
AcDbDimension
  2
*D29
 10
10478.85510029273
 20
8709.119711170082
 30
0.0
 11
10378.85510029272
 21
8266.619711170084
 31
0.0
 70
    32
 71
     5
 42
884.9999999999981
  3
INABA_S40G
100
AcDbAlignedDimension
 13
10690.6
 23
7824.119711170083
 33
0.0
 14
10128.15743105835
 24
8709.119711170082
 34
0.0
 50
90.0
100
AcDbRotatedDimension
1001
ACAD
1000
DSTYLE
1002
{
1070
   341
1005
0
1002
}
  0
DIMENSION
  5
2A548
330
747D
100
AcDbEntity
  8
寸法
 48
50.0
100
AcDbDimension
  2
*D30
 10
10478.85510029273
 20
6969.11971117008
 30
0.0
 11
10378.85510029272
 21
6541.619711170082
 31
0.0
 70
    32
 71
     5
 42
854.9999999999972
  3
INABA_S40G
100
AcDbAlignedDimension
 13
10690.6
 23
6114.119711170082
 33
0.0
 14
10690.6
 24
6969.11971117008
 34
0.0
 50
90.0
100
AcDbRotatedDimension
1001
ACAD
1000
DSTYLE
1002
{
1070
   341
1005
0
1002
}
  0
LINE
  5
2A54F
102
{ACAD_REACTORS
330
2F75F
102
}
330
747D
100
AcDbEntity
  8
部品1
 48
50.0
100
AcDbLine
 10
11698.6
 20
7069.119711170086
 30
0.0
 11
11578.6
 21
7069.119711170086
 31
0.0
  0
LINE
  5
2A550
102
{ACAD_REACTORS
330
2F75F
102
}
330
747D
100
AcDbEntity
  8
部品1
 48
50.0
100
AcDbLine
 10
11698.6
 20
6869.119711170085
 30
0.0
 11
11578.6
 21
6869.119711170085
 31
0.0
  0
DIMENSION
  5
2A558
330
747D
100
AcDbEntity
  8
寸法
 48
50.0
100
AcDbDimension
  2
*D31
 10
11468.6
 20
8251.41104366971
 30
0.0
 11
11198.54094488189
 21
8251.41104366971
 31
0.0
 70
   160
 71
     5
 42
110.0
  3
INABA_S40G
100
AcDbAlignedDimension
 13
11578.6
 23
8268.404307708541
 33
0.0
 14
11468.6
 24
8479.119711170083
 34
0.0
100
AcDbRotatedDimension
1001
ACAD
1000
DSTYLE
1002
{
1070
   341
1005
0
1002
}
  0
LINE
  5
2A559
330
747D
100
AcDbEntity
  8
部品1
 48
50.0
100
AcDbLine
 10
11578.6
 20
8479.119711170085
 30
0.0
 11
11468.6
 21
8479.119711170083
 31
0.0
  0
LINE
  5
2A55A
330
747D
100
AcDbEntity
  8
部品1
 48
50.0
100
AcDbLine
 10
11468.6
 20
8479.119711170083
 30
0.0
 11
11468.6
 21
8589.119711170082
 31
0.0
  0
LINE
  5
2A55B
330
747D
100
AcDbEntity
  8
センター
 48
2.0
100
AcDbLine
 10
11525.6
 20
8586.119711170084
 30
0.0
 11
11625.6
 21
8586.119711170084
 31
0.0
  0
CIRCLE
  5
2A55C
330
747D
100
AcDbEntity
  8
部品1
 48
50.0
100
AcDbCircle
 10
11575.6
 20
8586.119711170084
 30
0.0
 40
35.0
  0
LINE
  5
2A55D
330
747D
100
AcDbEntity
  8
センター
 48
2.0
100
AcDbLine
 10
11575.6
 20
8636.119711170087
 30
0.0
 11
11575.6
 21
8536.119711170085
 31
0.0
  0
DIMENSION
  5
2B132
330
747D
100
AcDbEntity
  8
寸法
 48
50.0
100
AcDbDimension
  2
*D34
 10
7975.6
 20
5637.544286131347
 30
0.0
 11
8105.6
 21
5637.544286131347
 31
0.0
 70
   160
 71
     5
 42
260.0
  3
INABA_S40G
100
AcDbAlignedDimension
 13
8235.600000000001
 23
5459.119711170102
 33
0.0
 14
7975.6
 24
5459.119711170102
 34
0.0
100
AcDbRotatedDimension
1001
ACAD
1000
DSTYLE
1002
{
1070
   341
1005
0
1002
}
  0
DIMENSION
  5
2B133
330
747D
100
AcDbEntity
  8
寸法
 48
50.0
100
AcDbDimension
  2
*D33
 10
8670.14438614211
 20
5459.119711170102
 30
0.0
 11
8670.144386142109
 21
5695.166955264594
 31
0.0
 70
   160
 71
     5
 42
110.0000000000072
  3
INABA_S40G
100
AcDbAlignedDimension
 13
8235.600000000001
 23
5349.119711170095
 33
0.0
 14
8235.600000000001
 24
5459.119711170102
 34
0.0
 50
90.0
100
AcDbRotatedDimension
1001
ACAD
1000
DSTYLE
1002
{
1070
   341
1005
0
1002
}
  0
DIMENSION
  5
2B134
330
747D
100
AcDbEntity
  8
寸法
 48
50.0
100
AcDbDimension
  2
*D32
 10
8670.14438614211
 20
5349.119711170095
 30
0.0
 11
8670.144386142109
 21
4906.287637826999
 31
0.0
 70
   160
 71
     5
 42
119.9999999999836
  3
INABA_S40G
100
AcDbAlignedDimension
 13
8235.600000000001
 23
5229.119711170111
 33
0.0
 14
8235.600000000001
 24
5349.119711170095
 34
0.0
 50
90.0
100
AcDbRotatedDimension
1001
ACAD
1000
DSTYLE
1002
{
1070
   341
1005
0
1002
}
  0
LINE
  5
2B1B2
330
747D
100
AcDbEntity
  8
想像線
 48
10.0
100
AcDbLine
 10
11743.6
 20
5174.119711170104
 30
0.0
 11
11743.6
 21
8784.119711170086
 31
0.0
  0
DIMENSION
  5
2C930
330
747D
100
AcDbEntity
  8
寸法
 48
50.0
100
AcDbDimension
  2
*D35
 10
10478.85510029273
 20
7824.119711170083
 30
0.0
 11
10378.85510029272
 21
7396.619711170083
 31
0.0
 70
    32
 71
     5
 42
855.0000000000036
  3
INABA_S40G
100
AcDbAlignedDimension
 13
10690.6
 23
6969.11971117008
 33
0.0
 14
10690.6
 24
7824.119711170083
 34
0.0
 50
90.0
100
AcDbRotatedDimension
1001
ACAD
1000
DSTYLE
1002
{
1070
   341
1005
0
1002
}
  0
LINE
  5
2DC2C
330
747D
100
AcDbEntity
  8
部品1
 48
50.0
100
AcDbLine
 10
6388.600000000002
 20
6769.11971117008
 30
0.0
 11
6388.600000000002
 21
7169.119711170082
 31
0.0
  0
LINE
  5
2DC2D
330
747D
100
AcDbEntity
  8
部品1
 48
50.0
100
AcDbLine
 10
6588.600000000004
 20
6769.11971117008
 30
0.0
 11
6588.600000000004
 21
7169.119711170082
 31
0.0
  0
LINE
  5
2DC2E
330
747D
100
AcDbEntity
  8
部品1
 48
50.0
100
AcDbLine
 10
5556.600000000003
 20
6769.11971117008
 30
0.0
 11
5556.600000000003
 21
7169.119711170082
 31
0.0
  0
LINE
  5
2DC2F
330
747D
100
AcDbEntity
  8
部品1
 48
50.0
100
AcDbLine
 10
5756.600000000004
 20
6769.11971117008
 30
0.0
 11
5756.600000000004
 21
7169.119711170082
 31
0.0
  0
LINE
  5
2DC30
330
747D
100
AcDbEntity
  8
部品1
 48
50.0
100
AcDbLine
 10
5756.600000000004
 20
6314.119711170082
 30
0.0
 11
5556.600000000003
 21
6314.119711170082
 31
0.0
  0
LINE
  5
2DC31
330
747D
100
AcDbEntity
  8
部品1
 48
50.0
100
AcDbLine
 10
5756.600000000004
 20
5914.11971117008
 30
0.0
 11
5556.600000000003
 21
5914.11971117008
 31
0.0
  0
LINE
  5
2DC32
330
747D
100
AcDbEntity
  8
部品1
 48
50.0
100
AcDbLine
 10
5556.600000000003
 20
5914.119711170082
 30
0.0
 11
5556.600000000003
 21
6314.119711170082
 31
0.0
  0
LINE
  5
2DC33
330
747D
100
AcDbEntity
  8
部品1
 48
50.0
100
AcDbLine
 10
5756.600000000004
 20
5914.11971117008
 30
0.0
 11
5756.600000000004
 21
6314.119711170082
 31
0.0
  0
LINE
  5
2DC34
330
747D
100
AcDbEntity
  8
センター
 48
2.0
100
AcDbLine
 10
5606.600000000002
 20
6114.119711170082
 30
0.0
 11
5706.600000000004
 21
6114.119711170082
 31
0.0
  0
LINE
  5
2DC35
330
747D
100
AcDbEntity
  8
センター
 48
2.0
100
AcDbLine
 10
5656.600000000004
 20
6164.119711170084
 30
0.0
 11
5656.600000000004
 21
6064.119711170082
 31
0.0
  0
LINE
  5
2DC36
330
747D
100
AcDbEntity
  8
部品1
 48
50.0
100
AcDbLine
 10
5756.600000000004
 20
6769.11971117008
 30
0.0
 11
5556.600000000003
 21
6769.11971117008
 31
0.0
  0
LINE
  5
2DC37
330
747D
100
AcDbEntity
  8
センター
 48
2.0
100
AcDbLine
 10
5656.600000000004
 20
7019.11971117008
 30
0.0
 11
5656.600000000004
 21
6919.119711170082
 31
0.0
  0
LINE
  5
2DC38
330
747D
100
AcDbEntity
  8
センター
 48
2.0
100
AcDbLine
 10
5606.600000000002
 20
6969.11971117008
 30
0.0
 11
5706.600000000004
 21
6969.11971117008
 31
0.0
  0
LINE
  5
2DC39
330
747D
100
AcDbEntity
  8
部品1
 48
50.0
100
AcDbLine
 10
6588.600000000004
 20
6314.119711170082
 30
0.0
 11
6388.600000000002
 21
6314.119711170082
 31
0.0
  0
LINE
  5
2DC3A
330
747D
100
AcDbEntity
  8
部品1
 48
50.0
100
AcDbLine
 10
6588.600000000004
 20
5914.11971117008
 30
0.0
 11
6388.600000000002
 21
5914.11971117008
 31
0.0
  0
LINE
  5
2DC3B
330
747D
100
AcDbEntity
  8
部品1
 48
50.0
100
AcDbLine
 10
6388.600000000002
 20
5914.119711170082
 30
0.0
 11
6388.600000000002
 21
6314.119711170082
 31
0.0
  0
LINE
  5
2DC3C
330
747D
100
AcDbEntity
  8
部品1
 48
50.0
100
AcDbLine
 10
6588.600000000004
 20
5914.11971117008
 30
0.0
 11
6588.600000000004
 21
6314.119711170082
 31
0.0
  0
LINE
  5
2DC3D
330
747D
100
AcDbEntity
  8
センター
 48
2.0
100
AcDbLine
 10
6488.600000000004
 20
6164.119711170084
 30
0.0
 11
6488.600000000004
 21
6064.119711170082
 31
0.0
  0
LINE
  5
2DC3E
330
747D
100
AcDbEntity
  8
センター
 48
2.0
100
AcDbLine
 10
6438.600000000004
 20
6114.119711170082
 30
0.0
 11
6538.600000000004
 21
6114.119711170082
 31
0.0
  0
LINE
  5
2DC3F
330
747D
100
AcDbEntity
  8
部品1
 48
50.0
100
AcDbLine
 10
6588.600000000004
 20
6769.11971117008
 30
0.0
 11
6388.600000000002
 21
6769.11971117008
 31
0.0
  0
LINE
  5
2DC40
330
747D
100
AcDbEntity
  8
センター
 48
2.0
100
AcDbLine
 10
6488.600000000004
 20
7019.11971117008
 30
0.0
 11
6488.600000000004
 21
6919.119711170082
 31
0.0
  0
LINE
  5
2DC41
330
747D
100
AcDbEntity
  8
センター
 48
2.0
100
AcDbLine
 10
6438.600000000004
 20
6969.11971117008
 30
0.0
 11
6538.600000000004
 21
6969.11971117008
 31
0.0
  0
LINE
  5
2DC44
330
747D
100
AcDbEntity
  8
部品1
 48
50.0
100
AcDbLine
 10
5756.600000000004
 20
7624.11971117008
 30
0.0
 11
5756.600000000004
 21
8024.119711170083
 31
0.0
  0
LINE
  5
2DC45
330
747D
100
AcDbEntity
  8
部品1
 48
50.0
100
AcDbLine
 10
5556.600000000003
 20
7624.119711170083
 30
0.0
 11
5556.600000000003
 21
8024.119711170083
 31
0.0
  0
LINE
  5
2DC46
330
747D
100
AcDbEntity
  8
部品1
 48
50.0
100
AcDbLine
 10
5756.600000000004
 20
7624.11971117008
 30
0.0
 11
5556.600000000003
 21
7624.11971117008
 31
0.0
  0
LINE
  5
2DC47
330
747D
100
AcDbEntity
  8
部品1
 48
50.0
100
AcDbLine
 10
5756.600000000004
 20
7169.119711170082
 30
0.0
 11
5556.600000000003
 21
7169.119711170082
 31
0.0
  0
LINE
  5
2DC48
330
747D
100
AcDbEntity
  8
部品1
 48
50.0
100
AcDbLine
 10
5756.600000000004
 20
8024.119711170083
 30
0.0
 11
5556.600000000003
 21
8024.119711170083
 31
0.0
  0
LINE
  5
2DC49
330
747D
100
AcDbEntity
  8
センター
 48
2.0
100
AcDbLine
 10
5606.600000000002
 20
7824.119711170083
 30
0.0
 11
5706.600000000004
 21
7824.119711170083
 31
0.0
  0
LINE
  5
2DC4A
330
747D
100
AcDbEntity
  8
センター
 48
2.0
100
AcDbLine
 10
5656.600000000004
 20
7874.119711170083
 30
0.0
 11
5656.600000000004
 21
7774.119711170083
 31
0.0
  0
LINE
  5
2DC4B
330
747D
100
AcDbEntity
  8
部品1
 48
50.0
100
AcDbLine
 10
6588.600000000004
 20
7624.11971117008
 30
0.0
 11
6588.600000000004
 21
8024.119711170083
 31
0.0
  0
LINE
  5
2DC4C
330
747D
100
AcDbEntity
  8
部品1
 48
50.0
100
AcDbLine
 10
6388.600000000002
 20
7624.119711170083
 30
0.0
 11
6388.600000000002
 21
8024.119711170083
 31
0.0
  0
LINE
  5
2DC4D
330
747D
100
AcDbEntity
  8
部品1
 48
50.0
100
AcDbLine
 10
6588.600000000004
 20
7624.11971117008
 30
0.0
 11
6388.600000000002
 21
7624.11971117008
 31
0.0
  0
LINE
  5
2DC4E
330
747D
100
AcDbEntity
  8
部品1
 48
50.0
100
AcDbLine
 10
6588.600000000004
 20
7169.119711170082
 30
0.0
 11
6388.600000000002
 21
7169.119711170082
 31
0.0
  0
LINE
  5
2DC4F
330
747D
100
AcDbEntity
  8
部品1
 48
50.0
100
AcDbLine
 10
6588.600000000004
 20
8024.119711170083
 30
0.0
 11
6388.600000000002
 21
8024.119711170083
 31
0.0
  0
LINE
  5
2DC50
330
747D
100
AcDbEntity
  8
センター
 48
2.0
100
AcDbLine
 10
6488.600000000004
 20
7874.119711170083
 30
0.0
 11
6488.600000000004
 21
7774.119711170083
 31
0.0
  0
LINE
  5
2DC51
330
747D
100
AcDbEntity
  8
センター
 48
2.0
100
AcDbLine
 10
6438.600000000004
 20
7824.119711170083
 30
0.0
 11
6538.600000000004
 21
7824.119711170083
 31
0.0
  0
LINE
  5
2DC52
330
747D
100
AcDbEntity
  8
部品1
 48
50.0
100
AcDbLine
 10
8323.600000000004
 20
6769.11971117008
 30
0.0
 11
8323.600000000004
 21
7169.119711170082
 31
0.0
  0
LINE
  5
2DC53
330
747D
100
AcDbEntity
  8
部品1
 48
50.0
100
AcDbLine
 10
8123.600000000005
 20
6769.11971117008
 30
0.0
 11
8123.600000000005
 21
7169.119711170082
 31
0.0
  0
LINE
  5
2DC54
330
747D
100
AcDbEntity
  8
部品1
 48
50.0
100
AcDbLine
 10
7420.600000000004
 20
6769.11971117008
 30
0.0
 11
7420.600000000004
 21
7169.119711170082
 31
0.0
  0
LINE
  5
2DC55
330
747D
100
AcDbEntity
  8
部品1
 48
50.0
100
AcDbLine
 10
7220.600000000004
 20
6769.11971117008
 30
0.0
 11
7220.600000000004
 21
7169.119711170082
 31
0.0
  0
LINE
  5
2DC56
330
747D
100
AcDbEntity
  8
部品1
 48
50.0
100
AcDbLine
 10
7220.600000000004
 20
5914.119711170082
 30
0.0
 11
7220.600000000004
 21
6314.119711170082
 31
0.0
  0
LINE
  5
2DC57
330
747D
100
AcDbEntity
  8
部品1
 48
50.0
100
AcDbLine
 10
7420.600000000004
 20
5914.11971117008
 30
0.0
 11
7420.600000000004
 21
6314.119711170082
 31
0.0
  0
LINE
  5
2DC58
330
747D
100
AcDbEntity
  8
部品1
 48
50.0
100
AcDbLine
 10
7420.600000000004
 20
5914.11971117008
 30
0.0
 11
7220.600000000004
 21
5914.11971117008
 31
0.0
  0
LINE
  5
2DC59
330
747D
100
AcDbEntity
  8
センター
 48
2.0
100
AcDbLine
 10
7320.600000000005
 20
6164.119711170084
 30
0.0
 11
7320.600000000005
 21
6064.119711170082
 31
0.0
  0
LINE
  5
2DC5A
330
747D
100
AcDbEntity
  8
センター
 48
2.0
100
AcDbLine
 10
7270.600000000005
 20
6114.119711170082
 30
0.0
 11
7370.600000000004
 21
6114.119711170082
 31
0.0
  0
LINE
  5
2DC5B
330
747D
100
AcDbEntity
  8
部品1
 48
50.0
100
AcDbLine
 10
7420.600000000004
 20
6314.119711170082
 30
0.0
 11
7220.600000000004
 21
6314.119711170082
 31
0.0
  0
LINE
  5
2DC5C
330
747D
100
AcDbEntity
  8
部品1
 48
50.0
100
AcDbLine
 10
7420.600000000004
 20
6769.11971117008
 30
0.0
 11
7220.600000000004
 21
6769.11971117008
 31
0.0
  0
LINE
  5
2DC5D
330
747D
100
AcDbEntity
  8
センター
 48
2.0
100
AcDbLine
 10
7320.600000000005
 20
7019.11971117008
 30
0.0
 11
7320.600000000005
 21
6919.119711170082
 31
0.0
  0
LINE
  5
2DC5E
330
747D
100
AcDbEntity
  8
センター
 48
2.0
100
AcDbLine
 10
7270.600000000005
 20
6969.11971117008
 30
0.0
 11
7370.600000000004
 21
6969.11971117008
 31
0.0
  0
LINE
  5
2DC5F
330
747D
100
AcDbEntity
  8
部品1
 48
50.0
100
AcDbLine
 10
8323.600000000004
 20
6014.119711170081
 30
0.0
 11
8323.600000000004
 21
6214.119711170082
 31
0.0
  0
LINE
  5
2DC60
330
747D
100
AcDbEntity
  8
部品1
 48
50.0
100
AcDbLine
 10
8123.600000000005
 20
6014.119711170081
 30
0.0
 11
8123.600000000005
 21
6214.119711170082
 31
0.0
  0
LINE
  5
2DC61
330
747D
100
AcDbEntity
  8
部品1
 48
50.0
100
AcDbLine
 10
8323.600000000004
 20
6014.119711170081
 30
0.0
 11
8123.600000000005
 21
6014.119711170081
 31
0.0
  0
LINE
  5
2DC62
330
747D
100
AcDbEntity
  8
センター
 48
2.0
100
AcDbLine
 10
8173.600000000005
 20
6114.119711170082
 30
0.0
 11
8273.600000000005
 21
6114.119711170082
 31
0.0
  0
LINE
  5
2DC63
330
747D
100
AcDbEntity
  8
センター
 48
2.0
100
AcDbLine
 10
8223.600000000004
 20
6164.119711170084
 30
0.0
 11
8223.600000000004
 21
6064.119711170082
 31
0.0
  0
LINE
  5
2DC64
330
747D
100
AcDbEntity
  8
部品1
 48
50.0
100
AcDbLine
 10
8323.600000000004
 20
6214.119711170082
 30
0.0
 11
8123.600000000005
 21
6214.119711170082
 31
0.0
  0
LINE
  5
2DC65
330
747D
100
AcDbEntity
  8
センター
 48
2.0
100
AcDbLine
 10
8173.600000000005
 20
6969.11971117008
 30
0.0
 11
8273.600000000005
 21
6969.11971117008
 31
0.0
  0
LINE
  5
2DC66
330
747D
100
AcDbEntity
  8
部品1
 48
50.0
100
AcDbLine
 10
8323.600000000004
 20
6769.11971117008
 30
0.0
 11
8123.600000000005
 21
6769.11971117008
 31
0.0
  0
LINE
  5
2DC67
330
747D
100
AcDbEntity
  8
センター
 48
2.0
100
AcDbLine
 10
8223.600000000004
 20
7019.11971117008
 30
0.0
 11
8223.600000000004
 21
6919.119711170082
 31
0.0
  0
LINE
  5
2DC68
330
747D
100
AcDbEntity
  8
部品1
 48
50.0
100
AcDbLine
 10
7220.600000000004
 20
7624.119711170083
 30
0.0
 11
7220.600000000004
 21
8024.119711170083
 31
0.0
  0
LINE
  5
2DC69
330
747D
100
AcDbEntity
  8
部品1
 48
50.0
100
AcDbLine
 10
7420.600000000004
 20
7624.11971117008
 30
0.0
 11
7420.600000000004
 21
8024.119711170083
 31
0.0
  0
LINE
  5
2DC6A
330
747D
100
AcDbEntity
  8
部品1
 48
50.0
100
AcDbLine
 10
7420.600000000004
 20
7169.119711170082
 30
0.0
 11
7220.600000000004
 21
7169.119711170082
 31
0.0
  0
LINE
  5
2DC6B
330
747D
100
AcDbEntity
  8
部品1
 48
50.0
100
AcDbLine
 10
7420.600000000004
 20
7624.11971117008
 30
0.0
 11
7220.600000000004
 21
7624.11971117008
 31
0.0
  0
LINE
  5
2DC6C
330
747D
100
AcDbEntity
  8
センター
 48
2.0
100
AcDbLine
 10
7320.600000000005
 20
7874.119711170083
 30
0.0
 11
7320.600000000005
 21
7774.119711170083
 31
0.0
  0
LINE
  5
2DC6D
330
747D
100
AcDbEntity
  8
センター
 48
2.0
100
AcDbLine
 10
7270.600000000005
 20
7824.119711170083
 30
0.0
 11
7370.600000000004
 21
7824.119711170083
 31
0.0
  0
LINE
  5
2DC6E
330
747D
100
AcDbEntity
  8
部品1
 48
50.0
100
AcDbLine
 10
7420.600000000004
 20
8024.119711170083
 30
0.0
 11
7220.600000000004
 21
8024.119711170083
 31
0.0
  0
LINE
  5
2DC6F
330
747D
100
AcDbEntity
  8
部品1
 48
50.0
100
AcDbLine
 10
8323.600000000004
 20
7169.119711170082
 30
0.0
 11
8123.600000000005
 21
7169.119711170082
 31
0.0
  0
LINE
  5
2DC70
330
747D
100
AcDbEntity
  8
部品1
 48
50.0
100
AcDbLine
 10
8323.600000000004
 20
7724.11971117008
 30
0.0
 11
8323.600000000004
 21
7924.119711170082
 31
0.0
  0
LINE
  5
2DC71
330
747D
100
AcDbEntity
  8
部品1
 48
50.0
100
AcDbLine
 10
8123.600000000005
 20
7724.119711170082
 30
0.0
 11
8123.600000000005
 21
7924.119711170082
 31
0.0
  0
LINE
  5
2DC72
330
747D
100
AcDbEntity
  8
部品1
 48
50.0
100
AcDbLine
 10
8323.600000000004
 20
7724.11971117008
 30
0.0
 11
8123.600000000005
 21
7724.11971117008
 31
0.0
  0
LINE
  5
2DC73
330
747D
100
AcDbEntity
  8
センター
 48
2.0
100
AcDbLine
 10
8173.600000000005
 20
7824.119711170083
 30
0.0
 11
8273.600000000005
 21
7824.119711170083
 31
0.0
  0
LINE
  5
2DC74
330
747D
100
AcDbEntity
  8
センター
 48
2.0
100
AcDbLine
 10
8223.600000000004
 20
7874.119711170083
 30
0.0
 11
8223.600000000004
 21
7774.119711170083
 31
0.0
  0
LINE
  5
2DC75
330
747D
100
AcDbEntity
  8
部品1
 48
50.0
100
AcDbLine
 10
8323.600000000004
 20
7924.119711170082
 30
0.0
 11
8123.600000000005
 21
7924.119711170082
 31
0.0
  0
LINE
  5
2DC99
330
747D
100
AcDbEntity
  8
部品1
 48
50.0
100
AcDbLine
 10
10058.6
 20
6769.11971117008
 30
0.0
 11
10058.6
 21
7169.119711170082
 31
0.0
  0
LINE
  5
2DC9A
330
747D
100
AcDbEntity
  8
部品1
 48
50.0
100
AcDbLine
 10
9226.600000000004
 20
6769.11971117008
 30
0.0
 11
9226.600000000004
 21
7169.119711170082
 31
0.0
  0
LINE
  5
2DC9B
330
747D
100
AcDbEntity
  8
部品1
 48
50.0
100
AcDbLine
 10
9858.600000000004
 20
6769.11971117008
 30
0.0
 11
9858.600000000004
 21
7169.119711170082
 31
0.0
  0
LINE
  5
2DC9C
330
747D
100
AcDbEntity
  8
部品1
 48
50.0
100
AcDbLine
 10
9026.600000000005
 20
6769.11971117008
 30
0.0
 11
9026.600000000005
 21
7169.119711170082
 31
0.0
  0
LINE
  5
2DC9D
330
747D
100
AcDbEntity
  8
部品1
 48
50.0
100
AcDbLine
 10
9226.600000000004
 20
5914.11971117008
 30
0.0
 11
9226.600000000004
 21
6314.119711170082
 31
0.0
  0
LINE
  5
2DC9E
330
747D
100
AcDbEntity
  8
部品1
 48
50.0
100
AcDbLine
 10
9026.600000000005
 20
5914.119711170082
 30
0.0
 11
9026.600000000005
 21
6314.119711170082
 31
0.0
  0
LINE
  5
2DC9F
330
747D
100
AcDbEntity
  8
部品1
 48
50.0
100
AcDbLine
 10
9226.600000000004
 20
5914.11971117008
 30
0.0
 11
9026.600000000005
 21
5914.11971117008
 31
0.0
  0
LINE
  5
2DCA0
330
747D
100
AcDbEntity
  8
センター
 48
2.0
100
AcDbLine
 10
9126.600000000005
 20
6164.119711170084
 30
0.0
 11
9126.600000000005
 21
6064.119711170082
 31
0.0
  0
LINE
  5
2DCA1
330
747D
100
AcDbEntity
  8
センター
 48
2.0
100
AcDbLine
 10
9076.600000000004
 20
6114.119711170082
 30
0.0
 11
9176.600000000005
 21
6114.119711170082
 31
0.0
  0
LINE
  5
2DCA2
330
747D
100
AcDbEntity
  8
部品1
 48
50.0
100
AcDbLine
 10
9226.600000000004
 20
6314.119711170082
 30
0.0
 11
9026.600000000005
 21
6314.119711170082
 31
0.0
  0
LINE
  5
2DCA3
330
747D
100
AcDbEntity
  8
部品1
 48
50.0
100
AcDbLine
 10
9226.600000000004
 20
6769.11971117008
 30
0.0
 11
9026.600000000005
 21
6769.11971117008
 31
0.0
  0
LINE
  5
2DCA4
330
747D
100
AcDbEntity
  8
センター
 48
2.0
100
AcDbLine
 10
9126.600000000005
 20
7019.11971117008
 30
0.0
 11
9126.600000000005
 21
6919.119711170082
 31
0.0
  0
LINE
  5
2DCA5
330
747D
100
AcDbEntity
  8
センター
 48
2.0
100
AcDbLine
 10
9076.600000000004
 20
6969.11971117008
 30
0.0
 11
9176.600000000005
 21
6969.11971117008
 31
0.0
  0
LINE
  5
2DCA6
330
747D
100
AcDbEntity
  8
部品1
 48
50.0
100
AcDbLine
 10
10058.6
 20
5914.11971117008
 30
0.0
 11
10058.6
 21
6314.119711170082
 31
0.0
  0
LINE
  5
2DCA7
330
747D
100
AcDbEntity
  8
部品1
 48
50.0
100
AcDbLine
 10
9858.600000000004
 20
5914.119711170082
 30
0.0
 11
9858.600000000004
 21
6314.119711170082
 31
0.0
  0
LINE
  5
2DCA8
330
747D
100
AcDbEntity
  8
部品1
 48
50.0
100
AcDbLine
 10
10058.6
 20
5914.11971117008
 30
0.0
 11
9858.600000000004
 21
5914.11971117008
 31
0.0
  0
LINE
  5
2DCA9
330
747D
100
AcDbEntity
  8
センター
 48
2.0
100
AcDbLine
 10
9908.600000000005
 20
6114.119711170082
 30
0.0
 11
10008.6
 21
6114.119711170082
 31
0.0
  0
LINE
  5
2DCAA
330
747D
100
AcDbEntity
  8
センター
 48
2.0
100
AcDbLine
 10
9958.600000000004
 20
6164.119711170084
 30
0.0
 11
9958.600000000004
 21
6064.119711170082
 31
0.0
  0
LINE
  5
2DCAB
330
747D
100
AcDbEntity
  8
部品1
 48
50.0
100
AcDbLine
 10
10058.6
 20
6314.119711170082
 30
0.0
 11
9858.600000000004
 21
6314.119711170082
 31
0.0
  0
LINE
  5
2DCAC
330
747D
100
AcDbEntity
  8
部品1
 48
50.0
100
AcDbLine
 10
10058.6
 20
6769.11971117008
 30
0.0
 11
9858.600000000004
 21
6769.11971117008
 31
0.0
  0
LINE
  5
2DCAD
330
747D
100
AcDbEntity
  8
センター
 48
2.0
100
AcDbLine
 10
9958.600000000004
 20
7019.11971117008
 30
0.0
 11
9958.600000000004
 21
6919.119711170082
 31
0.0
  0
LINE
  5
2DCAE
330
747D
100
AcDbEntity
  8
センター
 48
2.0
100
AcDbLine
 10
9908.600000000005
 20
6969.11971117008
 30
0.0
 11
10008.6
 21
6969.11971117008
 31
0.0
  0
LINE
  5
2DCAF
330
747D
100
AcDbEntity
  8
部品1
 48
50.0
100
AcDbLine
 10
9026.600000000005
 20
7624.119711170083
 30
0.0
 11
9026.600000000005
 21
8024.119711170083
 31
0.0
  0
LINE
  5
2DCB0
330
747D
100
AcDbEntity
  8
部品1
 48
50.0
100
AcDbLine
 10
9226.600000000004
 20
7624.11971117008
 30
0.0
 11
9226.600000000004
 21
8024.119711170083
 31
0.0
  0
LINE
  5
2DCB1
330
747D
100
AcDbEntity
  8
部品1
 48
50.0
100
AcDbLine
 10
9226.600000000004
 20
7169.119711170082
 30
0.0
 11
9026.600000000005
 21
7169.119711170082
 31
0.0
  0
LINE
  5
2DCB2
330
747D
100
AcDbEntity
  8
部品1
 48
50.0
100
AcDbLine
 10
9226.600000000004
 20
7624.11971117008
 30
0.0
 11
9026.600000000005
 21
7624.11971117008
 31
0.0
  0
LINE
  5
2DCB3
330
747D
100
AcDbEntity
  8
センター
 48
2.0
100
AcDbLine
 10
9126.600000000005
 20
7874.119711170083
 30
0.0
 11
9126.600000000005
 21
7774.119711170083
 31
0.0
  0
LINE
  5
2DCB4
330
747D
100
AcDbEntity
  8
センター
 48
2.0
100
AcDbLine
 10
9076.600000000004
 20
7824.119711170083
 30
0.0
 11
9176.600000000005
 21
7824.119711170083
 31
0.0
  0
LINE
  5
2DCB5
330
747D
100
AcDbEntity
  8
部品1
 48
50.0
100
AcDbLine
 10
9226.600000000004
 20
8024.119711170083
 30
0.0
 11
9026.600000000005
 21
8024.119711170083
 31
0.0
  0
LINE
  5
2DCB6
330
747D
100
AcDbEntity
  8
部品1
 48
50.0
100
AcDbLine
 10
10058.6
 20
7624.11971117008
 30
0.0
 11
10058.6
 21
8024.119711170083
 31
0.0
  0
LINE
  5
2DCB7
330
747D
100
AcDbEntity
  8
部品1
 48
50.0
100
AcDbLine
 10
9858.600000000004
 20
7624.119711170083
 30
0.0
 11
9858.600000000004
 21
8024.119711170083
 31
0.0
  0
LINE
  5
2DCB8
330
747D
100
AcDbEntity
  8
部品1
 48
50.0
100
AcDbLine
 10
10058.6
 20
7169.119711170082
 30
0.0
 11
9858.600000000004
 21
7169.119711170082
 31
0.0
  0
LINE
  5
2DCB9
330
747D
100
AcDbEntity
  8
部品1
 48
50.0
100
AcDbLine
 10
10058.6
 20
7624.11971117008
 30
0.0
 11
9858.600000000004
 21
7624.11971117008
 31
0.0
  0
LINE
  5
2DCBA
330
747D
100
AcDbEntity
  8
センター
 48
2.0
100
AcDbLine
 10
9908.600000000005
 20
7824.119711170083
 30
0.0
 11
10008.6
 21
7824.119711170083
 31
0.0
  0
LINE
  5
2DCBB
330
747D
100
AcDbEntity
  8
センター
 48
2.0
100
AcDbLine
 10
9958.600000000004
 20
7874.119711170083
 30
0.0
 11
9958.600000000004
 21
7774.119711170083
 31
0.0
  0
LINE
  5
2DCBC
330
747D
100
AcDbEntity
  8
部品1
 48
50.0
100
AcDbLine
 10
10058.6
 20
8024.119711170083
 30
0.0
 11
9858.600000000004
 21
8024.119711170083
 31
0.0
  0
LINE
  5
2DCBE
330
747D
100
AcDbEntity
  8
部品1
 48
50.0
100
AcDbLine
 10
10890.6
 20
6769.11971117008
 30
0.0
 11
10890.6
 21
7169.119711170082
 31
0.0
  0
LINE
  5
2DCBF
330
747D
100
AcDbEntity
  8
部品1
 48
50.0
100
AcDbLine
 10
10690.6
 20
6769.11971117008
 30
0.0
 11
10690.6
 21
7169.119711170082
 31
0.0
  0
LINE
  5
2DCC2
330
747D
100
AcDbEntity
  8
部品1
 48
50.0
100
AcDbLine
 10
10890.6
 20
5914.11971117008
 30
0.0
 11
10890.6
 21
6314.119711170082
 31
0.0
  0
LINE
  5
2DCC3
330
747D
100
AcDbEntity
  8
部品1
 48
50.0
100
AcDbLine
 10
10690.6
 20
5914.119711170082
 30
0.0
 11
10690.6
 21
6314.119711170082
 31
0.0
  0
LINE
  5
2DCC4
330
747D
100
AcDbEntity
  8
部品1
 48
50.0
100
AcDbLine
 10
10890.6
 20
5914.11971117008
 30
0.0
 11
10690.6
 21
5914.11971117008
 31
0.0
  0
LINE
  5
2DCC5
330
747D
100
AcDbEntity
  8
センター
 48
2.0
100
AcDbLine
 10
10740.6
 20
6114.119711170082
 30
0.0
 11
10840.6
 21
6114.119711170082
 31
0.0
  0
LINE
  5
2DCC6
330
747D
100
AcDbEntity
  8
センター
 48
2.0
100
AcDbLine
 10
10790.6
 20
6164.119711170084
 30
0.0
 11
10790.6
 21
6064.119711170082
 31
0.0
  0
LINE
  5
2DCC7
330
747D
100
AcDbEntity
  8
部品1
 48
50.0
100
AcDbLine
 10
10890.6
 20
6314.119711170082
 30
0.0
 11
10690.6
 21
6314.119711170082
 31
0.0
  0
LINE
  5
2DCC8
330
747D
100
AcDbEntity
  8
部品1
 48
50.0
100
AcDbLine
 10
10890.6
 20
6769.11971117008
 30
0.0
 11
10690.6
 21
6769.11971117008
 31
0.0
  0
LINE
  5
2DCC9
330
747D
100
AcDbEntity
  8
センター
 48
2.0
100
AcDbLine
 10
10790.6
 20
7019.11971117008
 30
0.0
 11
10790.6
 21
6919.119711170082
 31
0.0
  0
LINE
  5
2DCCA
330
747D
100
AcDbEntity
  8
センター
 48
2.0
100
AcDbLine
 10
10740.6
 20
6969.11971117008
 30
0.0
 11
10840.6
 21
6969.11971117008
 31
0.0
  0
LINE
  5
2DCCC
330
747D
100
AcDbEntity
  8
部品1
 48
50.0
100
AcDbLine
 10
10690.6
 20
7624.119711170083
 30
0.0
 11
10690.6
 21
8024.119711170083
 31
0.0
  0
LINE
  5
2DCCD
330
747D
100
AcDbEntity
  8
部品1
 48
50.0
100
AcDbLine
 10
10890.6
 20
7624.11971117008
 30
0.0
 11
10890.6
 21
8024.119711170083
 31
0.0
  0
LINE
  5
2DCCE
330
747D
100
AcDbEntity
  8
部品1
 48
50.0
100
AcDbLine
 10
10890.6
 20
7169.119711170082
 30
0.0
 11
10690.6
 21
7169.119711170082
 31
0.0
  0
LINE
  5
2DCCF
330
747D
100
AcDbEntity
  8
部品1
 48
50.0
100
AcDbLine
 10
10890.6
 20
7624.11971117008
 30
0.0
 11
10690.6
 21
7624.11971117008
 31
0.0
  0
LINE
  5
2DCD0
330
747D
100
AcDbEntity
  8
センター
 48
2.0
100
AcDbLine
 10
10740.6
 20
7824.119711170083
 30
0.0
 11
10840.6
 21
7824.119711170083
 31
0.0
  0
LINE
  5
2DCD1
330
747D
100
AcDbEntity
  8
センター
 48
2.0
100
AcDbLine
 10
10790.6
 20
7874.119711170083
 30
0.0
 11
10790.6
 21
7774.119711170083
 31
0.0
  0
LINE
  5
2DCD2
330
747D
100
AcDbEntity
  8
部品1
 48
50.0
100
AcDbLine
 10
10890.6
 20
8024.119711170083
 30
0.0
 11
10690.6
 21
8024.119711170083
 31
0.0
  0
LINE
  5
2EFBA
330
747D
100
AcDbEntity
  8
想像線
 48
10.0
100
AcDbLine
 10
10112.7905776998
 20
8784.119711170086
 30
0.0
 11
11743.6
 21
8784.119711170086
 31
0.0
  0
DIMENSION
  5
2EFBB
330
747D
100
AcDbEntity
  8
寸法
 48
50.0
100
AcDbDimension
  2
*D36
 10
5621.6
 20
4610.113321515364
 30
0.0
 11
6699.1
 21
4710.125132538986
 31
0.0
 70
    32
  1
扉の幅 <>
 71
     5
 42
2155.000000000001
  3
INABA_S40G
100
AcDbAlignedDimension
 13
7776.600000000001
 23
5154.119711170108
 33
0.0
 14
5621.6
 24
5154.119711170073
 34
0.0
100
AcDbRotatedDimension
1001
ACAD
1000
DSTYLE
1002
{
1070
   341
1005
0
1002
}
  0
TEXT
  5
2EFBC
330
747D
100
AcDbEntity
  8
寸法
 62
     7
100
AcDbText
 10
6005.750754363518
 20
4070.291198655193
 30
0.0
 40
120.0
  1
扉位置 (2155x75)
  7
STYLE1
100
AcDbText
  0
SOLID
  5
2EFBD
330
747D
100
AcDbEntity
  8
寸法
 48
50.0
100
AcDbTrace
 10
-6213.23605400315
 20
5028.528682265193
 30
0.0
 11
-6230.145259673139
 21
5154.119711170078
 31
0.0
 12
-6173.417839529673
 22
5040.801453234101
 32
0.0
 13
-6173.417839529673
 23
5040.801453234101
 33
0.0
210
0.0
220
0.0
230
-1.0
1001
ACAD
1000
DSTYLE
1002
{
1070
   341
1005
0
1070
    40
1040
1.0
1070
   343
1005
0
1070
   344
1005
0
1002
}
  0
LWPOLYLINE
  5
2EFBE
330
747D
100
AcDbEntity
  8
寸法
 48
50.0
100
AcDbPolyline
 90
        3
 70
     0
 43
0.0
 10
-6230.145259673139
 20
5154.119711170078
 10
-5889.134795170765
 20
4048.023251106875
 10
-8703.199208102407
 20
4048.023251106875
210
0.0
220
0.0
230
-1.0
1001
ACAD
1000
DSTYLE
1002
{
1070
   341
1005
0
1070
    40
1040
1.0
1070
   343
1005
0
1070
   344
1005
0
1002
}
  0
TEXT
  5
2EFBF
330
747D
100
AcDbEntity
  8
寸法
 62
     7
100
AcDbText
 10
6005.750754363518
 20
3898.687435771871
 30
0.0
 40
120.0
  1
扉の位置に合わせた基礎形状として下さい。
  7
STYLE1
100
AcDbText
  0
LINE
  5
2F361
330
747D
100
AcDbEntity
  8
想像線
 48
10.0
100
AcDbLine
 10
10112.7905776998
 20
5174.119711170104
 30
0.0
 11
11743.6
 21
5174.119711170104
 31
0.0
  0
LINE
  5
2F4F0
330
747D
100
AcDbEntity
  8
細線
100
AcDbLine
 10
9925.675003836808
 20
1614.438736257063
 30
0.0
 11
9682.38333674083
 21
1857.730403353041
 31
0.0
  0
LINE
  5
2F4F1
330
747D
100
AcDbEntity
  8
細線
100
AcDbLine
 10
9862.035393530019
 20
1614.438736257063
 30
0.0
 11
9682.38333674083
 21
1794.090793046254
 31
0.0
  0
LINE
  5
2F4F2
330
747D
100
AcDbEntity
  8
部品1
100
AcDbLine
 10
9682.38333674083
 20
1914.438736257064
 30
0.0
 11
10282.38333674083
 21
1914.438736257064
 31
0.0
  0
LINE
  5
2F4F3
330
747D
100
AcDbEntity
  8
細線
100
AcDbLine
 10
9673.678829864989
 20
1499.815091690375
 30
0.0
 11
9788.302474431681
 21
1614.438736257062
 31
0.0
  0
LWPOLYLINE
  5
2F4F4
330
747D
100
AcDbEntity
  8
部品1
 48
50.0
100
AcDbPolyline
 90
        2
 70
     0
 43
15.0
 10
9201.619259115345
 20
1614.438736257063
 10
10702.98463802988
 20
1614.438736257063
  0
LINE
  5
2F4F5
330
747D
100
AcDbEntity
  8
部品1
100
AcDbLine
 10
9532.38333674083
 20
1499.815091690375
 30
0.0
 11
10432.38333674083
 21
1499.815091690378
 31
0.0
  0
LINE
  5
2F4F6
330
747D
100
AcDbEntity
  8
部品1
100
AcDbLine
 10
9532.38333674083
 20
1339.815091690371
 30
0.0
 11
10432.38333674083
 21
1339.815091690375
 31
0.0
  0
LINE
  5
2F4F7
330
747D
100
AcDbEntity
  8
部品1
100
AcDbLine
 10
4126.419568461937
 20
306.5837616234312
 30
0.0
 11
11022.89426455997
 21
306.5837616234312
 31
0.0
  0
LINE
  5
2F4F8
330
747D
100
AcDbEntity
  8
部品1
100
AcDbLine
 10
11022.89426455997
 20
3265.653260978119
 30
0.0
 11
4126.419568461937
 21
3265.653260978119
 31
0.0
  0
LINE
  5
2F4F9
330
747D
100
AcDbEntity
  8
部品1
100
AcDbLine
 10
11022.89426455997
 20
3565.65326097812
 30
0.0
 11
4126.419568461937
 21
3565.653260978119
 31
0.0
  0
LEADER
  5
2F4FA
330
747D
100
AcDbEntity
  8
寸法
 48
50.0
100
AcDbLeader
  3
INABA_S40G
 73
     0
 75
     1
 40
141.4772727272727
 41
760.7954545454546
 76
     3
 10
7607.940339157774
 20
1851.333327954912
 30
0.0
 10
7393.185553293593
 20
2906.80718090051
 30
0.0
 10
7293.185553293593
 20
2906.80718090051
 30
0.0
340
2F4FB
1001
ACAD
1000
DSTYLE
1002
{
1070
   341
1005
0
1002
}
  0
MTEXT
  5
2F4FB
102
{ACAD_REACTORS
330
2F4FA
102
}
330
747D
100
AcDbEntity
  8
寸法
 62
     7
 48
50.0
100
AcDbMText
 10
7253.185553293592
 20
3017.545817264146
 30
0.0
 40
100.0
 41
1.0
 71
     6
 72
     1
  1
\A1;φ70スリーブ
  7
STYLE2
 73
     1
 44
1.0
1001
ACAD
1000
MTEXTBEGIN
1070
    73
1070
     1
1070
    44
1040
1.0
1070
    74
1070
     0
1000
MTEXTEND
  0
MTEXT
  5
2F4FC
102
{ACAD_REACTORS
330
2F503
102
}
330
747D
100
AcDbEntity
  8
寸法
 62
     7
 48
50.0
100
AcDbMText
 10
7286.489311054039
 20
2566.690477379752
 30
0.0
 40
100.0
 41
1.0
 71
     6
 72
     1
  1
\A1;アンカープレート L
  7
STYLE2
 73
     1
 44
1.0
1001
ACAD
1000
MTEXTBEGIN
1070
    73
1070
     1
1070
    44
1040
1.0
1070
    74
1070
     0
1000
MTEXTEND
  0
LINE
  5
2F4FD
330
747D
100
AcDbEntity
  8
部品1
100
AcDbLine
 10
4126.41956846194
 20
3565.653260978119
 30
0.0
 11
4126.41956846194
 21
306.5837616234312
 31
0.0
  0
DIMENSION
  5
2F4FE
330
747D
100
AcDbEntity
  8
寸法
 48
50.0
100
AcDbDimension
  2
*D37
 10
5245.22026001372
 20
2439.023496152539
 30
0.0
 11
5365.220260013718
 21
2439.023496152539
 31
0.0
 70
   160
  1
120\P(195)
 71
     5
 42
239.9999999999982
  3
INABA_S40G
100
AcDbAlignedDimension
 13
5485.220260013718
 23
1914.438736257064
 33
0.0
 14
5245.22026001372
 24
1914.438736257064
 34
0.0
100
AcDbRotatedDimension
1001
ACAD
1000
DSTYLE
1002
{
1070
   341
1005
0
1002
}
  0
LEADER
  5
2F4FF
330
747D
100
AcDbEntity
  8
寸法
 48
50.0
100
AcDbLeader
  3
INABA_S40G
 73
     0
 74
     0
 75
     1
 40
127.8409090909091
 41
1133.522727272727
 76
     3
 10
7697.019401485214
 20
2250.842846812413
 30
0.0
 10
7796.858889446264
 20
2686.137498070685
 30
0.0
 10
7896.858889446264
 20
2686.137498070685
 30
0.0
340
2F500
1001
ACAD
1000
DSTYLE
1002
{
1070
   341
1005
0
1002
}
  0
MTEXT
  5
2F500
102
{ACAD_REACTORS
330
2F4FF
102
}
330
747D
100
AcDbEntity
  8
部品1
 62
     7
 48
50.0
100
AcDbMText
 10
7936.858889446265
 20
2790.057952616139
 30
0.0
 40
100.0
 41
1.0
 71
     4
 72
     1
  1
\A1;ワッシャー(市販品)
  7
STYLE2
 73
     1
 44
1.0
1001
ACAD
1000
MTEXTBEGIN
1070
    73
1070
     1
1070
    44
1040
1.0
1070
    74
1070
     0
1000
MTEXTEND
  0
LEADER
  5
2F501
330
747D
100
AcDbEntity
  8
寸法
 48
50.0
100
AcDbLeader
  3
INABA_S40G
 73
     0
 74
     0
 75
     1
 40
127.8409090909091
 41
850.0
 76
     3
 10
7667.019401485212
 20
2413.032837643493
 30
0.0
 10
7757.461865376909
 20
2917.34885152667
 30
0.0
 10
7857.461865376909
 20
2917.34885152667
 30
0.0
340
2F502
1001
ACAD
1000
DSTYLE
1002
{
1070
   341
1005
0
1002
}
  0
MTEXT
  5
2F502
102
{ACAD_REACTORS
330
2F501
102
}
330
747D
100
AcDbEntity
  8
部品1
 62
     7
 48
50.0
100
AcDbMText
 10
7897.46186537691
 20
3021.269306072124
 30
0.0
 40
100.0
 41
1.0
 71
     4
 72
     1
  1
\A1;ナット(市販品)
  7
STYLE2
 73
     1
 44
1.0
1001
ACAD
1000
MTEXTBEGIN
1070
    73
1070
     1
1070
    44
1040
1.0
1070
    74
1070
     0
1000
MTEXTEND
  0
LEADER
  5
2F503
330
747D
100
AcDbEntity
  8
寸法
 48
50.0
100
AcDbLeader
  3
INABA_S40G
 73
     0
 75
     1
 40
132.9545454545455
 41
1116.477272727273
 76
     3
 10
7534.519401485214
 20
2001.388736257064
 30
0.0
 10
7426.48931105404
 20
2460.213204652479
 30
0.0
 10
7326.489311054039
 20
2460.213204652479
 30
0.0
340
2F4FC
1001
ACAD
1000
DSTYLE
1002
{
1070
   341
1005
0
1002
}
  0
TEXT
  5
2F504
330
747D
100
AcDbEntity
  8
部品1
 48
50.0
100
AcDbText
 10
4727.545382722524
 20
1628.487476611132
 30
0.0
 40
100.0
  1
▽G.L
  7
STYLE2
100
AcDbText
  0
LWPOLYLINE
  5
2F505
330
747D
100
AcDbEntity
  8
部品1
 48
50.0
100
AcDbPolyline
 90
        2
 70
     0
 43
10.0
 10
4727.545382722524
 20
1614.438736257065
 10
5245.22026001372
 20
1614.438736257065
  0
DIMENSION
  5
2F506
330
747D
100
AcDbEntity
  8
寸法
 48
50.0
100
AcDbDimension
  2
*D38
 10
4907.194867848146
 20
934.4387362570623
 30
0.0
 11
4907.194867848146
 21
1084.438736257062
 31
0.0
 70
   160
  1
150
 71
     5
 42
299.9999999999998
  3
INABA_S40G
100
AcDbAlignedDimension
 13
5085.22026001372
 23
1234.438736257062
 33
0.0
 14
4985.220260013726
 24
934.4387362570623
 34
0.0
 50
90.0
100
AcDbRotatedDimension
1001
ACAD
1000
DSTYLE
1002
{
1070
   341
1005
0
1002
}
  0
DIMENSION
  5
2F507
330
747D
100
AcDbEntity
  8
寸法
 48
50.0
100
AcDbDimension
  2
*D39
 10
4484.575321977656
 20
934.4387362570625
 30
0.0
 11
4484.575321977656
 21
1424.438736257063
 31
0.0
 70
   160
  1
540
 71
     5
 42
980.0000000000016
  3
INABA_S40G
100
AcDbAlignedDimension
 13
5245.22026001372
 23
1914.438736257064
 33
0.0
 14
4985.220260013726
 24
934.4387362570623
 34
0.0
 50
90.0
100
AcDbRotatedDimension
1001
ACAD
1000
DSTYLE
1002
{
1070
   341
1005
0
1002
}
  0
MTEXT
  5
2F508
102
{ACAD_REACTORS
330
2F509
102
}
330
747D
100
AcDbEntity
  8
寸法
 62
     7
 48
50.0
100
AcDbMText
 10
5161.302260095438
 20
2180.084011259617
 30
0.0
 40
100.0
 41
1.0
 71
     6
 72
     1
  1
\A1;金コテ押エ
  7
STYLE2
 73
     1
 44
1.0
1001
ACAD
1000
MTEXTBEGIN
1070
    73
1070
     1
1070
    44
1040
1.0
1070
    74
1070
     0
1000
MTEXTEND
  0
LEADER
  5
2F509
330
747D
100
AcDbEntity
  8
寸法
 48
50.0
100
AcDbLeader
  3
INABA_S40G
 71
     0
 73
     0
 75
     1
 40
130.1136363636363
 41
651.1363636363636
 76
     3
 10
5345.220260013721
 20
1914.438736257064
 30
0.0
 10
5286.302260095438
 20
2090.027193077798
 30
0.0
 10
5186.302260095438
 20
2090.027193077798
 30
0.0
1001
ACAD
1000
DSTYLE
1002
{
1070
   341
1005
0
1002
}
  0
LEADER
  5
2F50A
330
747D
100
AcDbEntity
  8
寸法
 48
50.0
100
AcDbLeader
  3
INABA_S40G
 71
     0
 73
     0
 75
     1
 40
100.0
 41
540.3409090909091
 76
     3
 10
5375.220260013721
 20
1612.097754628466
 30
0.0
 10
5246.492464352847
 20
1335.259843952462
 30
0.0
 10
5146.492464352848
 20
1335.259843952462
 30
0.0
213
-12.16522788236671
223
-5.804645826423211
233
0.0
1001
ACAD
1000
DSTYLE
1002
{
1070
   341
1005
0
1002
}
  0
MTEXT
  5
2F50B
102
{ACAD_REACTORS
330
2F50A
102
}
330
747D
100
AcDbEntity
  8
寸法
 62
     7
 48
50.0
100
AcDbMText
 10
5133.657692235214
 20
1416.064489778883
 30
0.0
 40
100.0
 41
1.0
 71
     6
 72
     1
  1
\A1;D10@300
  7
STYLE2
 73
     1
 44
1.0
1001
ACAD
1000
MTEXTBEGIN
1070
    73
1070
     1
1070
    44
1040
1.0
1070
    74
1070
     0
1000
MTEXTEND
  0
MTEXT
  5
2F50C
102
{ACAD_REACTORS
330
2F50D
102
}
330
747D
100
AcDbEntity
  8
寸法
 62
     7
 48
50.0
100
AcDbMText
 10
4906.704886716521
 20
604.6401785597136
 30
0.0
 40
100.0
 41
1.0
 71
     6
 72
     1
  1
D13
  7
STYLE2
 73
     1
 44
1.0
1001
ACAD
1000
MTEXTBEGIN
1070
    73
1070
     1
1070
    44
1040
1.0
1070
    74
1070
     0
1000
MTEXTEND
  0
LEADER
  5
2F50D
330
747D
100
AcDbEntity
  8
寸法
 48
50.0
100
AcDbLeader
  3
INABA_S40G
 71
     0
 73
     0
 75
     1
 40
100.0
 41
222.7272727272727
 76
     3
 10
5365.22026001372
 20
1084.438736257062
 30
0.0
 10
5031.704886716521
 20
529.6401785597136
 30
0.0
 10
4931.704886716521
 20
529.6401785597136
 30
0.0
1001
ACAD
1000
DSTYLE
1002
{
1070
   341
1005
0
1002
}
  0
LEADER
  5
2F50E
330
747D
100
AcDbEntity
  8
寸法
 48
50.0
100
AcDbLeader
  3
INABA_S40G
 71
     0
 73
     0
 75
     1
 40
100.0
 41
225.0
 76
     3
 10
5205.0989504539
 20
1084.438736257062
 30
0.0
 10
4996.551477269727
 20
755.0353692340178
 30
0.0
 10
4896.551477269727
 20
755.0353692340178
 30
0.0
1001
ACAD
1000
DSTYLE
1002
{
1070
   341
1005
0
1002
}
  0
MTEXT
  5
2F50F
102
{ACAD_REACTORS
330
2F50E
102
}
330
747D
100
AcDbEntity
  8
寸法
 62
     7
 48
50.0
100
AcDbMText
 10
4871.551477269728
 20
830.0353692340177
 30
0.0
 40
100.0
 41
1.0
 71
     6
 72
     1
  1
D10
  7
STYLE2
 73
     1
 44
1.0
1001
ACAD
1000
MTEXTBEGIN
1070
    73
1070
     1
1070
    44
1040
1.0
1070
    74
1070
     0
1000
MTEXTEND
  0
LINE
  5
2F510
330
747D
100
AcDbEntity
  8
部品1
 48
50.0
100
AcDbLine
 10
5485.220260013718
 20
1914.438736257064
 30
0.0
 11
5485.220260013718
 21
1234.438736257062
 31
0.0
  0
LINE
  5
2F511
330
747D
100
AcDbEntity
  8
細線
 48
50.0
100
AcDbLine
 10
5245.22026001372
 20
1292.997168459776
 30
0.0
 11
5375.220260013728
 21
1422.997168459777
 31
0.0
  0
LINE
  5
2F512
330
747D
100
AcDbEntity
  8
細線
 48
50.0
100
AcDbLine
 10
5245.22026001372
 20
1360.349089367795
 30
0.0
 11
5375.220260013721
 21
1490.349089367795
 31
0.0
  0
LINE
  5
2F513
330
747D
100
AcDbEntity
  8
細線
 48
50.0
100
AcDbLine
 10
5245.22026001372
 20
1326.673128913786
 30
0.0
 11
5375.220260013728
 21
1456.67312891379
 31
0.0
  0
LINE
  5
2F514
330
747D
100
AcDbEntity
  8
部品1
 48
50.0
100
AcDbLine
 10
5245.22026001372
 20
1234.438736257062
 30
0.0
 11
5245.22026001372
 21
1914.438736257064
 31
0.0
  0
LINE
  5
2F515
330
747D
100
AcDbEntity
  8
部品1
 48
50.0
100
AcDbLine
 10
5375.220260013728
 20
1084.438736257062
 30
0.0
 11
5375.220260013716
 21
1739.756772999869
 31
0.0
  0
LINE
  5
2F516
330
747D
100
AcDbEntity
  8
部品1
 48
50.0
100
AcDbLine
 10
5395.220260013728
 20
1084.438736257062
 30
0.0
 11
5395.22026001372
 21
1739.756772999869
 31
0.0
  0
LINE
  5
2F517
330
747D
100
AcDbEntity
  8
部品1
 48
50.0
100
AcDbLine
 10
5485.220260013718
 20
1234.438736257062
 30
0.0
 11
5645.22026001372
 21
1234.438736257062
 31
0.0
  0
LINE
  5
2F518
330
747D
100
AcDbEntity
  8
細線
 48
50.0
100
AcDbLine
 10
5531.801234621152
 20
1074.438736257062
 30
0.0
 11
5645.22026001372
 21
1187.857761649637
 31
0.0
  0
LINE
  5
2F519
330
747D
100
AcDbEntity
  8
細線
 48
50.0
100
AcDbLine
 10
5565.477195075157
 20
1074.438736257062
 30
0.0
 11
5645.22026001372
 21
1154.181801195627
 31
0.0
  0
LINE
  5
2F51A
330
747D
100
AcDbEntity
  8
細線
 48
50.0
100
AcDbLine
 10
5498.12527416713
 20
1074.438736257062
 30
0.0
 11
5645.22026001372
 21
1221.533722103645
 31
0.0
  0
LEADER
  5
2F51B
330
747D
100
AcDbEntity
  8
寸法
 48
50.0
100
AcDbLeader
  3
INABA_S40G
 71
     0
 73
     0
 74
     0
 75
     1
 40
100.0
 41
225.0
 76
     3
 10
5525.098950453899
 20
1084.438736257062
 30
0.0
 10
5649.379834772076
 20
965.1924000783473
 30
0.0
 10
5749.379834772077
 20
965.1924000783473
 30
0.0
1001
ACAD
1000
DSTYLE
1002
{
1070
   341
1005
0
1002
}
  0
DIMENSION
  5
2F51C
330
747D
100
AcDbEntity
  8
寸法
 48
50.0
100
AcDbDimension
  2
*D40
 10
5645.22026001372
 20
475.4866298011291
 30
0.0
 11
5365.22026001372
 21
475.4866298011291
 31
0.0
 70
   160
  1
300
 71
     5
 42
560.0000000000009
  3
INABA_S40G
100
AcDbAlignedDimension
 13
5085.22026001372
 23
774.4387362570622
 33
0.0
 14
5645.22026001372
 24
774.4387362570622
 34
0.0
100
AcDbRotatedDimension
1001
ACAD
1000
DSTYLE
1002
{
1070
   341
1005
0
1002
}
  0
LEADER
  5
2F51D
330
747D
100
AcDbEntity
  8
寸法
 48
50.0
100
AcDbLeader
  3
INABA_S40G
 71
     0
 73
     0
 74
     0
 75
     1
 40
100.0
 41
540.3409090909091
 76
     3
 10
5457.651721280188
 20
1063.513073240156
 30
0.0
 10
5662.393329840284
 20
636.4745507465345
 30
0.0
 10
5762.393329840285
 20
636.4745507465345
 30
0.0
213
0.0
223
-1.277828345336728
233
0.0
1001
ACAD
1000
DSTYLE
1002
{
1070
   341
1005
0
1002
}
  0
LINE
  5
2F51E
330
747D
100
AcDbEntity
  8
部品1
 48
50.0
100
AcDbLine
 10
5745.220260013724
 20
934.4387362570623
 30
0.0
 11
4985.220260013726
 21
934.4387362570623
 31
0.0
  0
LINE
  5
2F51F
330
747D
100
AcDbEntity
  8
部品1
 48
50.0
100
AcDbLine
 10
5745.220260013724
 20
774.4387362570622
 30
0.0
 11
4985.220260013726
 21
774.4387362570622
 31
0.0
  0
LINE
  5
2F520
330
747D
100
AcDbEntity
  8
細線
 48
50.0
100
AcDbLine
 10
5538.918921751857
 20
774.4387362570614
 30
0.0
 11
5581.790792540836
 21
934.4387362570612
 31
0.0
  0
LINE
  5
2F521
330
747D
100
AcDbEntity
  8
細線
 48
50.0
100
AcDbLine
 10
5341.698809383738
 20
774.4387362570622
 30
0.0
 11
5384.570680172718
 21
934.4387362570623
 31
0.0
  0
LINE
  5
2F522
330
747D
100
AcDbEntity
  8
部品1
 48
50.0
100
AcDbLine
 10
4985.220260013726
 20
774.4387362570622
 30
0.0
 11
4985.220260013726
 21
934.4387362570623
 31
0.0
  0
LINE
  5
2F523
330
747D
100
AcDbEntity
  8
細線
 48
50.0
100
AcDbLine
 10
5045.868640831544
 20
774.4387362570614
 30
0.0
 11
5088.740511620523
 21
934.4387362570612
 31
0.0
  0
LINE
  5
2F524
330
747D
100
AcDbEntity
  8
細線
 48
50.0
100
AcDbLine
 10
5243.088753199675
 20
774.4387362570614
 30
0.0
 11
5285.960623988652
 21
934.4387362570612
 31
0.0
  0
LINE
  5
2F525
330
747D
100
AcDbEntity
  8
細線
 48
50.0
100
AcDbLine
 10
5144.478697015617
 20
774.4387362570622
 30
0.0
 11
5187.350567804595
 21
934.4387362570623
 31
0.0
  0
LINE
  5
2F526
330
747D
100
AcDbEntity
  8
細線
 48
50.0
100
AcDbLine
 10
5440.308865567796
 20
774.4387362570622
 30
0.0
 11
5483.180736356778
 21
934.4387362570612
 31
0.0
  0
LINE
  5
2F527
330
747D
100
AcDbEntity
  8
細線
 48
50.0
100
AcDbLine
 10
5152.51717278855
 20
804.4387362570624
 30
0.0
 11
5160.555648561484
 21
774.4387362570622
 31
0.0
  0
LINE
  5
2F528
330
747D
100
AcDbEntity
  8
細線
 48
50.0
100
AcDbLine
 10
5053.907116604484
 20
804.4387362570624
 30
0.0
 11
5061.945592377418
 21
774.4387362570622
 31
0.0
  0
LINE
  5
2F529
330
747D
100
AcDbEntity
  8
細線
 48
50.0
100
AcDbLine
 10
5349.737285156678
 20
804.4387362570624
 30
0.0
 11
5357.775760929612
 21
774.4387362570622
 31
0.0
  0
LINE
  5
2F52A
330
747D
100
AcDbEntity
  8
細線
 48
50.0
100
AcDbLine
 10
5251.127228972615
 20
804.4387362570624
 30
0.0
 11
5259.165704745548
 21
774.4387362570622
 31
0.0
  0
LINE
  5
2F52B
330
747D
100
AcDbEntity
  8
細線
 48
50.0
100
AcDbLine
 10
5546.957397524796
 20
804.4387362570624
 30
0.0
 11
5554.99587329773
 21
774.4387362570622
 31
0.0
  0
LINE
  5
2F52C
330
747D
100
AcDbEntity
  8
細線
 48
50.0
100
AcDbLine
 10
5448.347341340737
 20
804.4387362570624
 30
0.0
 11
5456.38581711367
 21
774.4387362570622
 31
0.0
  0
LINE
  5
2F52D
330
747D
100
AcDbEntity
  8
部品1
 48
50.0
100
AcDbLine
 10
5085.22026001372
 20
1234.438736257062
 30
0.0
 11
5245.22026001372
 21
1234.438736257062
 31
0.0
  0
LINE
  5
2F52E
330
747D
100
AcDbEntity
  8
細線
 48
50.0
100
AcDbLine
 10
5088.717590535062
 20
934.4387362570623
 30
0.0
 11
5208.717590535062
 21
1054.438736257062
 31
0.0
  0
LINE
  5
2F52F
330
747D
100
AcDbEntity
  8
細線
 48
50.0
100
AcDbLine
 10
5122.393550989077
 20
934.4387362570623
 30
0.0
 11
5242.393550989076
 21
1054.438736257062
 31
0.0
  0
CIRCLE
  5
2F530
330
747D
100
AcDbEntity
  8
部品1
 48
50.0
100
AcDbCircle
 10
5205.22026001372
 20
1084.438736257062
 30
0.0
 40
10.0
  0
LINE
  5
2F531
330
747D
100
AcDbEntity
  8
細線
 48
50.0
100
AcDbLine
 10
5156.069511443083
 20
934.4387362570623
 30
0.0
 11
5276.069511443083
 21
1054.438736257062
 31
0.0
  0
LINE
  5
2F532
330
747D
100
AcDbEntity
  8
部品1
 48
50.0
100
AcDbLine
 10
5155.22026001372
 20
1074.438736257062
 30
0.0
 11
5575.220260013721
 21
1074.438736257062
 31
0.0
  0
LINE
  5
2F533
330
747D
100
AcDbEntity
  8
部品1
 48
50.0
100
AcDbLine
 10
5155.22026001372
 20
1054.438736257062
 30
0.0
 11
5575.220260013721
 21
1054.438736257062
 31
0.0
  0
LINE
  5
2F534
330
747D
100
AcDbEntity
  8
部品1
 48
50.0
100
AcDbLine
 10
5085.22026001372
 20
934.4387362570623
 30
0.0
 11
5085.22026001372
 21
1234.438736257062
 31
0.0
  0
LINE
  5
2F535
330
747D
100
AcDbEntity
  8
細線
 48
50.0
100
AcDbLine
 10
4985.220260013718
 20
916.1136374642874
 30
0.0
 11
4990.130455436465
 21
934.4387362570623
 31
0.0
  0
LINE
  5
2F536
330
747D
100
AcDbEntity
  8
細線
 48
50.0
100
AcDbLine
 10
5080.702035847596
 20
904.4387362570637
 30
0.0
 11
5072.663560074663
 21
934.4387362570623
 31
0.0
  0
LINE
  5
2F537
330
747D
100
AcDbEntity
  8
細線
 48
50.0
100
AcDbLine
 10
5179.31209203166
 20
904.4387362570637
 30
0.0
 11
5171.273616258728
 21
934.4387362570623
 31
0.0
  0
LINE
  5
2F538
330
747D
100
AcDbEntity
  8
部品1
 48
50.0
100
AcDbLine
 10
5155.22026001372
 20
1074.438736257062
 30
0.0
 11
5155.22026001372
 21
1054.438736257062
 31
0.0
  0
LINE
  5
2F539
330
747D
100
AcDbEntity
  8
細線
 48
50.0
100
AcDbLine
 10
5085.220260013713
 20
1132.997168459777
 30
0.0
 11
5186.661827811008
 21
1234.438736257062
 31
0.0
  0
LINE
  5
2F53A
330
747D
100
AcDbEntity
  8
細線
 48
50.0
100
AcDbLine
 10
5085.220260013713
 20
1200.349089367795
 30
0.0
 11
5119.309906902988
 21
1234.438736257062
 31
0.0
  0
LINE
  5
2F53B
330
747D
100
AcDbEntity
  8
細線
 48
50.0
100
AcDbLine
 10
5085.220260013713
 20
1166.673128913782
 30
0.0
 11
5152.985867357003
 21
1234.438736257062
 31
0.0
  0
LINE
  5
2F53C
330
747D
100
AcDbEntity
  8
部品1
 48
50.0
100
AcDbLine
 10
5355.220260013719
 20
1157.097754628466
 30
0.0
 11
5355.220260013719
 21
1084.438736257062
 31
0.0
  0
LINE
  5
2F53D
330
747D
100
AcDbEntity
  8
細線
 48
50.0
100
AcDbLine
 10
5262.393550989077
 20
1074.438736257062
 30
0.0
 11
5335.22026001372
 21
1147.265445281711
 31
0.0
  0
LINE
  5
2F53E
330
747D
100
AcDbEntity
  8
部品1
 48
50.0
100
AcDbLine
 10
5335.22026001372
 20
1157.097754628466
 30
0.0
 11
5335.22026001372
 21
1084.438736257062
 31
0.0
  0
LINE
  5
2F53F
330
747D
100
AcDbEntity
  8
細線
 48
50.0
100
AcDbLine
 10
5296.069511443082
 20
1074.438736257062
 30
0.0
 11
5335.22026001372
 21
1113.589484827701
 31
0.0
  0
LINE
  5
2F540
330
747D
100
AcDbEntity
  8
細線
 48
50.0
100
AcDbLine
 10
5228.717590535062
 20
1074.438736257062
 30
0.0
 11
5375.220260013721
 21
1220.941405735721
 31
0.0
  0
LINE
  5
2F541
330
747D
100
AcDbEntity
  8
細線
 48
50.0
100
AcDbLine
 10
5358.125274167138
 20
934.4387362570623
 30
0.0
 11
5478.125274167138
 21
1054.438736257062
 31
0.0
  0
LINE
  5
2F542
330
747D
100
AcDbEntity
  8
細線
 48
50.0
100
AcDbLine
 10
5391.801234621151
 20
934.4387362570623
 30
0.0
 11
5511.801234621152
 21
1054.438736257062
 31
0.0
  0
CIRCLE
  5
2F543
330
747D
100
AcDbEntity
  8
部品1
 48
50.0
100
AcDbCircle
 10
5365.22026001372
 20
1084.438736257062
 30
0.0
 40
10.0
  0
LINE
  5
2F544
330
747D
100
AcDbEntity
  8
細線
 48
50.0
100
AcDbLine
 10
5277.922148215726
 20
904.4387362570637
 30
0.0
 11
5269.883672442793
 21
934.4387362570623
 31
0.0
  0
ARC
  5
2F545
330
747D
100
AcDbEntity
  8
部品1
 48
50.0
100
AcDbCircle
 10
5365.22026001372
 20
1084.438736257062
 30
0.0
 40
30.0
100
AcDbArc
 50
180.0
 51
199.471220634529
  0
LINE
  5
2F546
330
747D
100
AcDbEntity
  8
細線
 48
50.0
100
AcDbLine
 10
5376.532204399791
 20
904.4387362570637
 30
0.0
 11
5368.493728626859
 21
934.4387362570623
 31
0.0
  0
ARC
  5
2F547
330
747D
100
AcDbEntity
  8
部品1
 48
50.0
100
AcDbCircle
 10
5365.22026001372
 20
1084.438736257062
 30
0.0
 40
30.0
100
AcDbArc
 50
340.5287793654709
 51
0.0
  0
LINE
  5
2F548
330
747D
100
AcDbEntity
  8
細線
 48
50.0
100
AcDbLine
 10
5475.142260583847
 20
904.4387362570637
 30
0.0
 11
5467.103784810912
 21
934.4387362570623
 31
0.0
  0
CIRCLE
  5
2F549
330
747D
100
AcDbEntity
  8
部品1
 48
50.0
100
AcDbCircle
 10
5525.220260013719
 20
1084.438736257062
 30
0.0
 40
10.0
  0
LINE
  5
2F54A
330
747D
100
AcDbEntity
  8
細線
 48
50.0
100
AcDbLine
 10
5573.752316767906
 20
904.4387362570637
 30
0.0
 11
5565.713840994973
 21
934.4387362570623
 31
0.0
  0
LINE
  5
2F54B
330
747D
100
AcDbEntity
  8
部品1
 48
50.0
100
AcDbLine
 10
5575.220260013721
 20
1074.438736257062
 30
0.0
 11
5575.220260013721
 21
1054.438736257062
 31
0.0
  0
LINE
  5
2F54C
330
747D
100
AcDbEntity
  8
細線
 48
50.0
100
AcDbLine
 10
5425.477195075156
 20
934.4387362570623
 30
0.0
 11
5545.478304881577
 21
1054.439846063487
 31
0.0
  0
LINE
  5
2F54D
330
747D
100
AcDbEntity
  8
細線
 48
50.0
100
AcDbLine
 10
5395.220260013728
 20
1173.589484827701
 30
0.0
 11
5485.220260013712
 21
1263.589484827702
 31
0.0
  0
LINE
  5
2F54E
330
747D
100
AcDbEntity
  8
細線
 48
50.0
100
AcDbLine
 10
5395.220260013728
 20
1240.941405735725
 30
0.0
 11
5485.220260013712
 21
1330.94140573572
 31
0.0
  0
LINE
  5
2F54F
330
747D
100
AcDbEntity
  8
細線
 48
50.0
100
AcDbLine
 10
5395.220260013728
 20
1207.265445281715
 30
0.0
 11
5485.220260013712
 21
1297.265445281708
 31
0.0
  0
LINE
  5
2F550
330
747D
100
AcDbEntity
  8
細線
 48
50.0
100
AcDbLine
 10
5355.220260013719
 20
1133.589484827701
 30
0.0
 11
5375.220260013728
 21
1153.589484827701
 31
0.0
  0
LINE
  5
2F551
330
747D
100
AcDbEntity
  8
細線
 48
50.0
100
AcDbLine
 10
5345.052569360476
 20
1157.097754628466
 30
0.0
 11
5375.220260013728
 21
1187.265445281715
 31
0.0
  0
LINE
  5
2F552
330
747D
100
AcDbEntity
  8
部品1
 48
50.0
100
AcDbLine
 10
5355.220260013719
 20
1157.097754628466
 30
0.0
 11
5335.22026001372
 21
1157.097754628466
 31
0.0
  0
LINE
  5
2F553
330
747D
100
AcDbEntity
  8
細線
 48
50.0
100
AcDbLine
 10
5637.528977935912
 20
774.4387362570622
 30
0.0
 11
5680.400848724893
 21
934.4387362570612
 31
0.0
  0
LINE
  5
2F554
330
747D
100
AcDbEntity
  8
部品1
 48
50.0
100
AcDbLine
 10
5745.220260013724
 20
934.4387362570623
 30
0.0
 11
5745.220260013724
 21
774.4387362570622
 31
0.0
  0
MTEXT
  5
2F555
102
{ACAD_REACTORS
330
2F51D
102
}
330
747D
100
AcDbEntity
  8
寸法
 62
     7
 48
50.0
100
AcDbMText
 10
5787.393329840284
 20
712.7523790918711
 30
0.0
 40
100.0
 41
1.0
 71
     4
 72
     1
  1
\A1;D10@300
  7
STYLE2
 73
     1
 44
1.0
1001
ACAD
1000
MTEXTBEGIN
1070
    73
1070
     1
1070
    44
1040
1.0
1070
    74
1070
     0
1000
MTEXTEND
  0
LINE
  5
2F556
330
747D
100
AcDbEntity
  8
細線
 48
50.0
100
AcDbLine
 10
5736.139034119975
 20
774.4387362570614
 30
0.0
 11
5745.22026001372
 21
808.3303326875482
 31
0.0
  0
LINE
  5
2F557
330
747D
100
AcDbEntity
  8
細線
 48
50.0
100
AcDbLine
 10
5744.177509892909
 20
804.4387362570624
 30
0.0
 11
5745.22026001372
 21
800.5471398266067
 31
0.0
  0
LINE
  5
2F558
330
747D
100
AcDbEntity
  8
細線
 48
50.0
100
AcDbLine
 10
5645.567453708853
 20
804.4387362570624
 30
0.0
 11
5653.605929481786
 21
774.4387362570622
 31
0.0
  0
LINE
  5
2F559
330
747D
100
AcDbEntity
  8
部品1
 48
50.0
100
AcDbLine
 10
5645.22026001372
 20
1234.438736257062
 30
0.0
 11
5645.22026001372
 21
934.4387362570623
 31
0.0
  0
MTEXT
  5
2F55A
102
{ACAD_REACTORS
330
2F51B
102
}
330
747D
100
AcDbEntity
  8
寸法
 62
     7
 48
50.0
100
AcDbMText
 10
5774.379834772076
 20
1040.192400078346
 30
0.0
 40
100.0
 41
1.0
 71
     4
 72
     1
  1
D10
  7
STYLE2
 73
     1
 44
1.0
1001
ACAD
1000
MTEXTBEGIN
1070
    73
1070
     1
1070
    44
1040
1.0
1070
    74
1070
     0
1000
MTEXTEND
  0
LINE
  5
2F55B
330
747D
100
AcDbEntity
  8
細線
 48
50.0
100
AcDbLine
 10
5627.532957799211
 20
934.4387362570623
 30
0.0
 11
5645.22026001372
 21
952.1260384715716
 31
0.0
  0
LINE
  5
2F55C
330
747D
100
AcDbEntity
  8
細線
 48
50.0
100
AcDbLine
 10
5672.362372951965
 20
904.4387362570637
 30
0.0
 11
5664.323897179031
 21
934.4387362570623
 31
0.0
  0
MTEXT
  5
2F55D
102
{ACAD_REACTORS
330
2F55F
102
}
330
747D
100
AcDbEntity
  8
寸法
 62
     7
 48
50.0
100
AcDbMText
 10
5588.827681297964
 20
1741.023187880722
 30
0.0
 40
100.0
 41
1.0
 71
     4
 72
     1
  1
D13
  7
STYLE2
 73
     1
 44
1.0
1001
ACAD
1000
MTEXTBEGIN
1070
    73
1070
     1
1070
    44
1040
1.0
1070
    74
1070
     0
1000
MTEXTEND
  0
LWPOLYLINE
  5
2F55E
330
747D
100
AcDbEntity
  8
部品1
 48
50.0
100
AcDbPolyline
 90
        2
 70
     0
 43
10.0
 10
5485.220260013718
 20
1614.438736257065
 10
6002.895137304919
 20
1614.438736257065
  0
LEADER
  5
2F55F
330
747D
100
AcDbEntity
  8
寸法
 48
50.0
100
AcDbLeader
  3
INABA_S40G
 71
     0
 73
     0
 74
     0
 75
     1
 40
100.0
 41
222.7272727272727
 76
     3
 10
5365.22026001372
 20
1739.756772999869
 30
0.0
 10
5463.827681297964
 20
1666.023187880723
 30
0.0
 10
5563.827681297964
 20
1666.023187880723
 30
0.0
1001
ACAD
1000
DSTYLE
1002
{
1070
   341
1005
0
1002
}
  0
LINE
  5
2F560
330
747D
100
AcDbEntity
  8
部品1
 48
50.0
100
AcDbLine
 10
5355.220260013719
 20
1667.097754628467
 30
0.0
 11
5355.220260013719
 21
1739.756772999869
 31
0.0
  0
LINE
  5
2F561
330
747D
100
AcDbEntity
  8
部品1
 48
50.0
100
AcDbLine
 10
5335.22026001372
 20
1667.097754628471
 30
0.0
 11
5335.22026001372
 21
1739.756772999869
 31
0.0
  0
LINE
  5
2F562
330
747D
100
AcDbEntity
  8
細線
 48
50.0
100
AcDbLine
 10
5355.220260013719
 20
1672.404852091852
 30
0.0
 11
5375.220260013721
 21
1692.404852091852
 31
0.0
  0
LINE
  5
2F563
330
747D
100
AcDbEntity
  8
細線
 48
50.0
100
AcDbLine
 10
5245.22026001372
 20
1629.75677299987
 30
0.0
 11
5335.22026001372
 21
1719.756772999869
 31
0.0
  0
LINE
  5
2F564
330
747D
100
AcDbEntity
  8
細線
 48
50.0
100
AcDbLine
 10
5245.22026001372
 20
1596.08081254586
 30
0.0
 11
5335.22026001372
 21
1686.080812545861
 31
0.0
  0
LINE
  5
2F565
330
747D
100
AcDbEntity
  8
細線
 48
50.0
100
AcDbLine
 10
5395.220260013728
 20
1476.673128913789
 30
0.0
 11
5485.220260013712
 21
1566.673128913782
 31
0.0
  0
LINE
  5
2F566
330
747D
100
AcDbEntity
  8
細線
 48
50.0
100
AcDbLine
 10
5395.22026001372
 20
1510.349089367793
 30
0.0
 11
5485.220260013718
 21
1600.349089367795
 31
0.0
  0
LINE
  5
2F567
330
747D
100
AcDbEntity
  8
細線
 48
50.0
100
AcDbLine
 10
5395.220260013728
 20
1442.997168459777
 30
0.0
 11
5485.220260013712
 21
1532.997168459776
 31
0.0
  0
LINE
  5
2F568
330
747D
100
AcDbEntity
  8
部品1
 48
50.0
100
AcDbLine
 10
5355.220260013719
 20
1667.097754628467
 30
0.0
 11
5335.22026001372
 21
1667.097754628471
 31
0.0
  0
LINE
  5
2F569
330
747D
100
AcDbEntity
  8
細線
 48
50.0
100
AcDbLine
 10
5245.22026001372
 20
1562.404852091852
 30
0.0
 11
5349.91316255034
 21
1667.097754628467
 31
0.0
  0
LINE
  5
2F56A
330
747D
100
AcDbEntity
  8
部品1
 48
50.0
100
AcDbLine
 10
5245.22026001372
 20
1914.438736257064
 30
0.0
 11
5485.220260013718
 21
1914.438736257064
 31
0.0
  0
LINE
  5
2F56B
330
747D
100
AcDbEntity
  8
細線
 48
50.0
100
AcDbLine
 10
5380.835788141808
 20
1765.372301127958
 30
0.0
 11
5485.220260013718
 21
1869.756772999869
 31
0.0
  0
LINE
  5
2F56C
330
747D
100
AcDbEntity
  8
細線
 48
50.0
100
AcDbLine
 10
5394.661144096204
 20
1745.52169662834
 30
0.0
 11
5485.220260013718
 21
1836.08081254586
 31
0.0
  0
LINE
  5
2F56D
330
747D
100
AcDbEntity
  8
細線
 48
50.0
100
AcDbLine
 10
5395.22026001372
 20
1712.40485209185
 30
0.0
 11
5485.220260013718
 21
1802.404852091852
 31
0.0
  0
LINE
  5
2F56E
330
747D
100
AcDbEntity
  8
細線
 48
50.0
100
AcDbLine
 10
5355.220260013719
 20
1706.080812545861
 30
0.0
 11
5375.220260013721
 21
1726.08081254586
 31
0.0
  0
CIRCLE
  5
2F56F
330
747D
100
AcDbEntity
  8
部品1
 48
50.0
100
AcDbCircle
 10
5365.22026001372
 20
1739.756772999869
 30
0.0
 40
10.0
  0
ARC
  5
2F570
330
747D
100
AcDbEntity
  8
部品1
 48
50.0
100
AcDbCircle
 10
5365.22026001372
 20
1739.756772999869
 30
0.0
 40
30.0
100
AcDbArc
 50
0.0
 51
180.0
  0
LINE
  5
2F571
330
747D
100
AcDbEntity
  8
細線
 48
50.0
100
AcDbLine
 10
5245.22026001372
 20
1899.164456631945
 30
0.0
 11
5260.494539638839
 21
1914.438736257064
 31
0.0
  0
LINE
  5
2F572
330
747D
100
AcDbEntity
  8
細線
 48
50.0
100
AcDbLine
 10
5245.22026001372
 20
1831.812535723926
 30
0.0
 11
5327.846460546857
 21
1914.438736257064
 31
0.0
  0
LINE
  5
2F573
330
747D
100
AcDbEntity
  8
細線
 48
50.0
100
AcDbLine
 10
5245.22026001372
 20
1865.488496177936
 30
0.0
 11
5294.170500092852
 21
1914.438736257064
 31
0.0
  0
LEADER
  5
2F574
330
747D
100
AcDbEntity
  8
寸法
 48
50.0
100
AcDbLeader
  3
INABA_S40G
 73
     0
 74
     0
 75
     1
 40
100.0
 41
543.75
 76
     3
 10
7658.269401485212
 20
1975.888736257063
 30
0.0
 10
7758.949979509361
 20
2154.917893948601
 30
0.0
 10
7858.949979509361
 20
2154.917893948601
 30
0.0
340
2F575
1001
ACAD
1000
DSTYLE
1002
{
1070
   341
1005
0
1002
}
  0
MTEXT
  5
2F575
102
{ACAD_REACTORS
330
2F574
102
}
330
747D
100
AcDbEntity
  8
部品1
 62
     7
 48
50.0
100
AcDbMText
 10
7898.949979509362
 20
2244.917893948601
 30
0.0
 40
100.0
 41
1.0
 71
     4
 72
     1
  1
M10X160
  7
STYLE2
 73
     1
 44
1.0
1001
ACAD
1000
MTEXTBEGIN
1070
    73
1070
     1
1070
    44
1040
1.0
1070
    74
1070
     0
1000
MTEXTEND
  0
DIMENSION
  5
2F576
330
747D
100
AcDbEntity
  8
寸法
 48
50.0
100
AcDbDimension
  2
*D41
 10
8515.105151196269
 20
1509.438736257061
 30
0.0
 11
8415.10515119627
 21
1711.938736257064
 31
0.0
 70
    32
  1
180
 71
     5
 42
405.0000000000031
  3
INABA_S40G
100
AcDbAlignedDimension
 13
7887.769401485214
 23
1914.438736257064
 33
0.0
 14
7887.769401485214
 24
1509.438736257061
 34
0.0
 50
90.0
100
AcDbRotatedDimension
1001
ACAD
1000
DSTYLE
1002
{
1070
   341
1005
0
1002
}
  0
LWPOLYLINE
  5
2F577
330
747D
100
AcDbEntity
  8
部品1
 48
50.0
100
AcDbPolyline
 90
        2
 70
     0
 43
10.0
 10
7887.769401485214
 20
1614.438736257065
 10
8254.897480734443
 20
1614.438736257065
  0
LINE
  5
2F578
330
747D
100
AcDbEntity
  8
部品1
 48
50.0
100
AcDbLine
 10
8147.769401485218
 20
934.4387362570623
 30
0.0
 11
7110.269401485219
 21
934.4387362570623
 31
0.0
  0
LINE
  5
2F579
330
747D
100
AcDbEntity
  8
細線
 48
50.0
100
AcDbLine
 10
8066.446763732519
 20
804.4387362570613
 30
0.0
 11
8074.485239505454
 21
774.4387362570614
 31
0.0
  0
LINE
  5
2F57A
330
747D
100
AcDbEntity
  8
部品1
 48
50.0
100
AcDbLine
 10
8147.769401485218
 20
774.4387362570622
 30
0.0
 11
7110.269401485219
 21
774.4387362570622
 31
0.0
  0
LINE
  5
2F57B
330
747D
100
AcDbEntity
  8
細線
 48
50.0
100
AcDbLine
 10
8058.408287959581
 20
774.4387362570614
 30
0.0
 11
8101.280158748563
 21
934.4387362570596
 31
0.0
  0
DIMENSION
  5
2F57C
330
747D
100
AcDbEntity
  8
寸法
 48
50.0
100
AcDbDimension
  2
*D42
 10
8860.173483845052
 20
1914.438736257064
 30
0.0
 11
8860.173483845052
 21
1448.429832835582
 31
0.0
 70
   160
  1
20～25
 71
     5
 42
65.94999999999891
  3
INABA_S40G
100
AcDbAlignedDimension
 13
7653.769401485212
 23
1980.388736257063
 33
0.0
 14
7887.769401485214
 24
1914.438736257064
 34
0.0
 50
90.0
100
AcDbRotatedDimension
1001
ACAD
1000
DSTYLE
1002
{
1070
   341
1005
0
1002
}
  0
TEXT
  5
2F57D
330
747D
100
AcDbEntity
  8
部品1
 48
50.0
100
AcDbText
 10
7893.21138184075
 20
2359.287087209813
 30
0.0
 40
100.0
  1
基礎ボルト(市販品)
  7
STYLE2
100
AcDbText
  0
LINE
  5
2F57E
330
747D
100
AcDbEntity
  8
細線
 48
50.0
100
AcDbLine
 10
7247.442692460566
 20
934.4387362570623
 30
0.0
 11
7887.769401485218
 21
1574.765445281706
 31
0.0
  0
LINE
  5
2F57F
330
747D
100
AcDbEntity
  8
細線
 48
50.0
100
AcDbLine
 10
7281.118652914575
 20
934.4387362570623
 30
0.0
 11
7887.769401485214
 21
1541.089484827698
 31
0.0
  0
LINE
  5
2F580
330
747D
100
AcDbEntity
  8
細線
 48
50.0
100
AcDbLine
 10
7370.269401485213
 20
1360.349089367795
 30
0.0
 11
7568.269401485204
 21
1558.349089367788
 31
0.0
  0
LINE
  5
2F581
330
747D
100
AcDbEntity
  8
細線
 48
50.0
100
AcDbLine
 10
7370.269401485213
 20
1292.997168459776
 30
0.0
 11
7586.710969282506
 21
1509.438736257061
 31
0.0
  0
LINE
  5
2F582
330
747D
100
AcDbEntity
  8
細線
 48
50.0
100
AcDbLine
 10
7370.269401485213
 20
1326.673128913786
 30
0.0
 11
7568.269401485204
 21
1524.673128913771
 31
0.0
  0
LINE
  5
2F583
330
747D
100
AcDbEntity
  8
部品1
 48
50.0
100
AcDbLine
 10
7370.269401485213
 20
1234.438736257062
 30
0.0
 11
7370.269401485213
 21
1914.438736257064
 31
0.0
  0
LINE
  5
2F584
330
747D
100
AcDbEntity
  8
部品1
100
AcDbLine
 10
7887.769401485211
 20
1234.438736257062
 30
0.0
 11
7887.769401485214
 21
1914.438736257064
 31
0.0
  0
LINE
  5
2F585
330
747D
100
AcDbEntity
  8
細線
 48
50.0
100
AcDbLine
 10
7213.766732006558
 20
934.4387362570623
 30
0.0
 11
7887.769401485211
 21
1608.44140573572
 31
0.0
  0
LINE
  5
2F586
330
747D
100
AcDbEntity
  8
部品1
 48
50.0
100
AcDbLine
 10
7210.269401485215
 20
1234.438736257062
 30
0.0
 11
7370.269401485213
 21
1234.438736257062
 31
0.0
  0
LINE
  5
2F587
330
747D
100
AcDbEntity
  8
細線
 48
50.0
100
AcDbLine
 10
7210.269401485208
 20
1132.997168459777
 30
0.0
 11
7311.710969282501
 21
1234.438736257062
 31
0.0
  0
LINE
  5
2F588
330
747D
100
AcDbEntity
  8
細線
 48
50.0
100
AcDbLine
 10
7210.269401485208
 20
1166.673128913782
 30
0.0
 11
7278.035008828492
 21
1234.438736257062
 31
0.0
  0
LINE
  5
2F589
330
747D
100
AcDbEntity
  8
細線
 48
50.0
100
AcDbLine
 10
7170.917782303037
 20
774.4387362570614
 30
0.0
 11
7213.789653092018
 21
934.4387362570612
 31
0.0
  0
LINE
  5
2F58A
330
747D
100
AcDbEntity
  8
部品1
 48
50.0
100
AcDbLine
 10
7110.269401485219
 20
774.4387362570622
 30
0.0
 11
7110.269401485219
 21
934.4387362570623
 31
0.0
  0
LINE
  5
2F58B
330
747D
100
AcDbEntity
  8
細線
 48
50.0
100
AcDbLine
 10
7178.956258075976
 20
804.4387362570624
 30
0.0
 11
7186.994733848912
 21
774.4387362570622
 31
0.0
  0
LINE
  5
2F58C
330
747D
100
AcDbEntity
  8
部品1
 48
50.0
100
AcDbLine
 10
7210.269401485215
 20
934.4387362570623
 30
0.0
 11
7210.269401485215
 21
1234.438736257062
 31
0.0
  0
LINE
  5
2F58D
330
747D
100
AcDbEntity
  8
細線
 48
50.0
100
AcDbLine
 10
7205.751177319091
 20
904.4387362570637
 30
0.0
 11
7197.712701546156
 21
934.4387362570623
 31
0.0
  0
LINE
  5
2F58E
330
747D
100
AcDbEntity
  8
細線
 48
50.0
100
AcDbLine
 10
7110.269401485211
 20
916.1136374642874
 30
0.0
 11
7115.179596907957
 21
934.4387362570623
 31
0.0
  0
LINE
  5
2F58F
330
747D
100
AcDbEntity
  8
細線
 48
50.0
100
AcDbLine
 10
7210.269401485208
 20
1200.349089367795
 30
0.0
 11
7244.359048374483
 21
1234.438736257062
 31
0.0
  0
LINE
  5
2F590
330
747D
100
AcDbEntity
  8
細線
 48
50.0
100
AcDbLine
 10
7368.137894671164
 20
774.4387362570614
 30
0.0
 11
7411.009765460145
 21
934.4387362570612
 31
0.0
  0
LINE
  5
2F591
330
747D
100
AcDbEntity
  8
細線
 48
50.0
100
AcDbLine
 10
7269.527838487109
 20
774.4387362570622
 30
0.0
 11
7312.399709276085
 21
934.4387362570623
 31
0.0
  0
LINE
  5
2F592
330
747D
100
AcDbEntity
  8
細線
 48
50.0
100
AcDbLine
 10
7762.578119407402
 20
774.4387362570622
 30
0.0
 11
7805.449990196385
 21
934.4387362570612
 31
0.0
  0
LINE
  5
2F593
330
747D
100
AcDbEntity
  8
細線
 48
50.0
100
AcDbLine
 10
7565.35800703929
 20
774.4387362570622
 30
0.0
 11
7608.229877828271
 21
934.4387362570612
 31
0.0
  0
LINE
  5
2F594
330
747D
100
AcDbEntity
  8
細線
 48
50.0
100
AcDbLine
 10
7466.747950855232
 20
774.4387362570622
 30
0.0
 11
7509.619821644212
 21
934.4387362570623
 31
0.0
  0
LINE
  5
2F595
330
747D
100
AcDbEntity
  8
細線
 48
50.0
100
AcDbLine
 10
7663.968063223349
 20
774.4387362570614
 30
0.0
 11
7706.839934012332
 21
934.4387362570612
 31
0.0
  0
LINE
  5
2F596
330
747D
100
AcDbEntity
  8
細線
 48
50.0
100
AcDbLine
 10
7959.798231775526
 20
774.4387362570596
 30
0.0
 11
8002.670102564506
 21
934.4387362570596
 31
0.0
  0
LINE
  5
2F597
330
747D
100
AcDbEntity
  8
細線
 48
50.0
100
AcDbLine
 10
7861.188175591465
 20
774.4387362570614
 30
0.0
 11
7904.060046380435
 21
934.4387362570623
 31
0.0
  0
LINE
  5
2F598
330
747D
100
AcDbEntity
  8
細線
 48
50.0
100
AcDbLine
 10
7376.176370444106
 20
804.4387362570624
 30
0.0
 11
7384.214846217044
 21
774.4387362570622
 31
0.0
  0
LINE
  5
2F599
330
747D
100
AcDbEntity
  8
細線
 48
50.0
100
AcDbLine
 10
7277.566314260042
 20
804.4387362570624
 30
0.0
 11
7285.604790032978
 21
774.4387362570622
 31
0.0
  0
LINE
  5
2F59A
330
747D
100
AcDbEntity
  8
細線
 48
50.0
100
AcDbLine
 10
7573.396482812229
 20
804.4387362570624
 30
0.0
 11
7581.434958585163
 21
774.4387362570622
 31
0.0
  0
LINE
  5
2F59B
330
747D
100
AcDbEntity
  8
細線
 48
50.0
100
AcDbLine
 10
7474.786426628172
 20
804.4387362570624
 30
0.0
 11
7482.824902401104
 21
774.4387362570622
 31
0.0
  0
LINE
  5
2F59C
330
747D
100
AcDbEntity
  8
細線
 48
50.0
100
AcDbLine
 10
7770.616595180346
 20
804.4387362570624
 30
0.0
 11
7778.655070953279
 21
774.4387362570622
 31
0.0
  0
LINE
  5
2F59D
330
747D
100
AcDbEntity
  8
細線
 48
50.0
100
AcDbLine
 10
7672.006538996285
 20
804.4387362570624
 30
0.0
 11
7680.045014769223
 21
774.4387362570622
 31
0.0
  0
LINE
  5
2F59E
330
747D
100
AcDbEntity
  8
細線
 48
50.0
100
AcDbLine
 10
7967.836707548464
 20
804.4387362570613
 30
0.0
 11
7975.875183321398
 21
774.4387362570614
 31
0.0
  0
LINE
  5
2F59F
330
747D
100
AcDbEntity
  8
細線
 48
50.0
100
AcDbLine
 10
7869.226651364403
 20
804.4387362570624
 30
0.0
 11
7877.26512713735
 21
774.4387362570622
 31
0.0
  0
LINE
  5
2F5A0
330
747D
100
AcDbEntity
  8
細線
 48
50.0
100
AcDbLine
 10
7550.526336546649
 20
934.4387362570623
 30
0.0
 11
7887.769401485214
 21
1271.681801195635
 31
0.0
  0
LINE
  5
2F5A1
330
747D
100
AcDbEntity
  8
細線
 48
50.0
100
AcDbLine
 10
7516.850376092641
 20
934.4387362570623
 30
0.0
 11
7887.769401485214
 21
1305.357761649628
 31
0.0
  0
LINE
  5
2F5A2
330
747D
100
AcDbEntity
  8
細線
 48
50.0
100
AcDbLine
 10
7483.174415638631
 20
934.4387362570623
 30
0.0
 11
7887.769401485211
 21
1339.033722103646
 31
0.0
  0
LINE
  5
2F5A3
330
747D
100
AcDbEntity
  8
細線
 48
50.0
100
AcDbLine
 10
7402.971289687219
 20
904.4387362570637
 30
0.0
 11
7394.932813914285
 21
934.4387362570623
 31
0.0
  0
LINE
  5
2F5A4
330
747D
100
AcDbEntity
  8
細線
 48
50.0
100
AcDbLine
 10
7304.361233503152
 20
904.4387362570637
 30
0.0
 11
7296.322757730219
 21
934.4387362570623
 31
0.0
  0
LINE
  5
2F5A5
330
747D
100
AcDbEntity
  8
細線
 48
50.0
100
AcDbLine
 10
7600.19140205534
 20
904.4387362570637
 30
0.0
 11
7592.152926282409
 21
934.4387362570623
 31
0.0
  0
LINE
  5
2F5A6
330
747D
100
AcDbEntity
  8
細線
 48
50.0
100
AcDbLine
 10
7501.581345871284
 20
904.4387362570637
 30
0.0
 11
7493.542870098352
 21
934.4387362570623
 31
0.0
  0
LINE
  5
2F5A7
330
747D
100
AcDbEntity
  8
部品1
 48
50.0
100
AcDbLine
 10
8047.769401485211
 20
1234.438736257062
 30
0.0
 11
8047.769401485211
 21
934.4387362570623
 31
0.0
  0
LINE
  5
2F5A8
330
747D
100
AcDbEntity
  8
細線
 48
50.0
100
AcDbLine
 10
7819.934020178725
 20
934.4387362570623
 30
0.0
 11
8047.769401485211
 21
1162.274117563558
 31
0.0
  0
LINE
  5
2F5A9
330
747D
100
AcDbEntity
  8
細線
 48
50.0
100
AcDbLine
 10
7786.258059724717
 20
934.4387362570623
 30
0.0
 11
8047.769401485211
 21
1195.950078017556
 31
0.0
  0
LINE
  5
2F5AA
330
747D
100
AcDbEntity
  8
細線
 48
50.0
100
AcDbLine
 10
7752.582099270705
 20
934.4387362570623
 30
0.0
 11
8047.769401485211
 21
1229.626038471572
 31
0.0
  0
LINE
  5
2F5AB
330
747D
100
AcDbEntity
  8
細線
 48
50.0
100
AcDbLine
 10
7797.411514423457
 20
904.4387362570637
 30
0.0
 11
7789.373038650523
 21
934.4387362570623
 31
0.0
  0
LINE
  5
2F5AC
330
747D
100
AcDbEntity
  8
細線
 48
50.0
100
AcDbLine
 10
7698.801458239398
 20
904.4387362570637
 30
0.0
 11
7690.762982466468
 21
934.4387362570623
 31
0.0
  0
LINE
  5
2F5AD
330
747D
100
AcDbEntity
  8
細線
 48
50.0
100
AcDbLine
 10
7994.631626791573
 20
904.4387362570615
 30
0.0
 11
7986.593151018642
 21
934.4387362570612
 31
0.0
  0
LINE
  5
2F5AE
330
747D
100
AcDbEntity
  8
細線
 48
50.0
100
AcDbLine
 10
7896.021570607501
 20
904.4387362570637
 30
0.0
 11
7887.983094834571
 21
934.4387362570623
 31
0.0
  0
LINE
  5
2F5AF
330
747D
100
AcDbEntity
  8
部品1
 48
50.0
100
AcDbLine
 10
7887.769401485214
 20
1234.438736257062
 30
0.0
 11
8047.769401485211
 21
1234.438736257062
 31
0.0
  0
LWPOLYLINE
  5
2F5B0
330
747D
100
AcDbEntity
  8
部品1
 48
50.0
100
AcDbPolyline
 90
        2
 70
     0
 43
10.0
 10
6852.594524194017
 20
1614.438736257065
 10
7370.269401485213
 20
1614.438736257065
  0
TEXT
  5
2F5B2
330
747D
100
AcDbEntity
  8
部品1
 48
50.0
100
AcDbText
 10
6852.594524194017
 20
1628.487476611132
 30
0.0
 40
100.0
  1
▽G.L
  7
STYLE2
100
AcDbText
  0
LINE
  5
2F5B3
330
747D
100
AcDbEntity
  8
部品1
100
AcDbLine
 10
7635.769401485212
 20
1633.188736257063
 30
0.0
 11
7635.76940148521
 21
1975.888736257063
 31
0.0
  0
LINE
  5
2F5B4
330
747D
100
AcDbEntity
  8
部品1
100
AcDbLine
 10
7658.269401485212
 20
1633.188736257063
 30
0.0
 11
7658.26940148521
 21
1975.888736257063
 31
0.0
  0
LINE
  5
2F5B5
330
747D
100
AcDbEntity
  8
部品1
100
AcDbLine
 10
7573.094401485215
 20
1998.013736257065
 30
0.0
 11
7573.094401485207
 21
1929.763736257063
 31
0.0
  0
LINE
  5
2F5B6
330
747D
100
AcDbEntity
  8
部品1
100
AcDbLine
 10
7558.144401485214
 20
1983.063736257063
 30
0.0
 11
7558.144401485214
 21
1929.763736257063
 31
0.0
  0
LINE
  5
2F5B7
330
747D
100
AcDbEntity
  8
細線
100
AcDbLine
 10
7640.269401485217
 20
1926.388736257063
 30
0.0
 11
7640.269401485213
 21
1980.388736257063
 31
0.0
  0
LINE
  5
2F5B8
330
747D
100
AcDbEntity
  8
細線
100
AcDbLine
 10
7653.769401485212
 20
1926.388736257063
 30
0.0
 11
7653.769401485212
 21
1980.388736257063
 31
0.0
  0
LINE
  5
2F5B9
330
747D
100
AcDbEntity
  8
部品1
100
AcDbLine
 10
7378.144401485212
 20
1929.763736257063
 30
0.0
 11
7378.144401485212
 21
2007.428615885448
 31
0.0
  0
LINE
  5
2F5BA
330
747D
100
AcDbEntity
  8
部品1
100
AcDbLine
 10
7658.269401485212
 20
1633.188736257063
 30
0.0
 11
7703.269401485214
 21
1633.188736257063
 31
0.0
  0
LINE
  5
2F5BB
330
747D
100
AcDbEntity
  8
部品1
100
AcDbLine
 10
7658.269401485212
 20
1610.688736257062
 30
0.0
 11
7703.269401485214
 21
1610.688736257062
 31
0.0
  0
LINE
  5
2F5BC
330
747D
100
AcDbEntity
  8
部品1
100
AcDbLine
 10
7576.469401485208
 20
1926.388736257063
 30
0.0
 11
7828.144401485205
 21
1926.388736257063
 31
0.0
  0
LINE
  5
2F5BD
330
747D
100
AcDbEntity
  8
部品1
 48
50.0
100
AcDbLine
 10
7370.269401485213
 20
1914.438736257064
 30
0.0
 11
7887.769401485218
 21
1914.438736257064
 31
0.0
  0
LINE
  5
2F5BE
330
747D
100
AcDbEntity
  8
部品1
100
AcDbLine
 10
7725.769401485212
 20
1509.438736257061
 30
0.0
 11
7568.269401485206
 21
1509.438736257061
 31
0.0
  0
LINE
  5
2F5BF
330
747D
100
AcDbEntity
  8
細線
 48
50.0
100
AcDbLine
 10
7370.269401485213
 20
1596.08081254586
 30
0.0
 11
7568.269401485212
 21
1794.080812545857
 31
0.0
  0
LINE
  5
2F5C0
330
747D
100
AcDbEntity
  8
細線
 48
50.0
100
AcDbLine
 10
7370.269401485213
 20
1629.75677299987
 30
0.0
 11
7568.269401485212
 21
1827.756772999867
 31
0.0
  0
LINE
  5
2F5C1
330
747D
100
AcDbEntity
  8
部品1
100
AcDbLine
 10
7568.269401485206
 20
1509.438736257062
 30
0.0
 11
7568.269401485212
 21
1914.438736257064
 31
0.0
  0
LINE
  5
2F5C2
330
747D
100
AcDbEntity
  8
細線
 48
50.0
100
AcDbLine
 10
7370.269401485213
 20
1562.404852091852
 30
0.0
 11
7568.26940148521
 21
1760.404852091842
 31
0.0
  0
ARC
  5
2F5C3
330
747D
100
AcDbEntity
  8
部品1
100
AcDbCircle
 10
7658.269401485212
 20
1633.188736257063
 30
0.0
 40
22.5
100
AcDbArc
 50
180.0
 51
270.0
  0
LINE
  5
2F5C4
330
747D
100
AcDbEntity
  8
細線
 48
50.0
100
AcDbLine
 10
7370.269401485213
 20
1831.812535723926
 30
0.0
 11
7452.89560201835
 21
1914.438736257064
 31
0.0
  0
LINE
  5
2F5C5
330
747D
100
AcDbEntity
  8
細線
 48
50.0
100
AcDbLine
 10
7370.269401485213
 20
1865.488496177936
 30
0.0
 11
7419.219641564345
 21
1914.438736257064
 31
0.0
  0
LINE
  5
2F5C6
330
747D
100
AcDbEntity
  8
部品1
100
AcDbLine
 10
7381.519401485213
 20
1926.388736257063
 30
0.0
 11
7396.144401485206
 21
1926.388736257063
 31
0.0
  0
LINE
  5
2F5C7
330
747D
100
AcDbEntity
  8
細線
 48
50.0
100
AcDbLine
 10
7370.269401485213
 20
1899.164456631945
 30
0.0
 11
7385.543681110333
 21
1914.438736257064
 31
0.0
  0
ARC
  5
2F5C8
330
747D
100
AcDbEntity
  8
部品1
100
AcDbCircle
 10
7381.519401485213
 20
1929.763736257063
 30
0.0
 40
3.375
100
AcDbArc
 50
180.0
 51
270.0
  0
ARC
  5
2F5C9
330
747D
100
AcDbEntity
  8
部品1
100
AcDbCircle
 10
7554.769401485213
 20
1929.763736257063
 30
0.0
 40
3.375
100
AcDbArc
 50
270.0
 51
0.0
  0
ARC
  5
2F5CA
330
747D
100
AcDbEntity
  8
部品1
100
AcDbCircle
 10
7576.469401485208
 20
1929.763736257063
 30
0.0
 40
3.375
100
AcDbArc
 50
180.0
 51
270.0
  0
LINE
  5
2F5CB
330
747D
100
AcDbEntity
  8
部品1
100
AcDbLine
 10
7540.144401485211
 20
1926.388736257063
 30
0.0
 11
7554.769401485213
 21
1926.388736257063
 31
0.0
  0
LINE
  5
2F5CC
330
747D
100
AcDbEntity
  8
細線
 48
50.0
100
AcDbLine
 10
7725.769401485215
 20
1648.49716845976
 30
0.0
 11
7887.769401485214
 21
1810.49716845975
 31
0.0
  0
LINE
  5
2F5CD
330
747D
100
AcDbEntity
  8
部品1
100
AcDbLine
 10
7725.769401485212
 20
1509.438736257062
 30
0.0
 11
7725.769401485212
 21
1914.438736257064
 31
0.0
  0
LINE
  5
2F5CE
330
747D
100
AcDbEntity
  8
部品1
100
AcDbLine
 10
7703.269401485214
 20
1610.688736257062
 30
0.0
 11
7703.269401485214
 21
1633.188736257063
 31
0.0
  0
LINE
  5
2F5CF
330
747D
100
AcDbEntity
  8
細線
 48
50.0
100
AcDbLine
 10
7725.769401485215
 20
1682.173128913778
 30
0.0
 11
7887.769401485214
 21
1844.173128913774
 31
0.0
  0
LINE
  5
2F5D0
330
747D
100
AcDbEntity
  8
細線
 48
50.0
100
AcDbLine
 10
7725.769401485215
 20
1715.849089367799
 30
0.0
 11
7887.769401485214
 21
1877.849089367797
 31
0.0
  0
LINE
  5
2F5D1
330
747D
100
AcDbEntity
  8
部品1
 48
50.0
100
AcDbLine
 10
7627.019401485212
 20
2393.032837643492
 30
0.0
 11
7667.019401485212
 21
2393.032837643492
 31
0.0
  0
LINE
  5
2F5D2
330
747D
100
AcDbEntity
  8
部品1
 48
50.0
100
AcDbLine
 10
7627.019401485212
 20
2353.032837643493
 30
0.0
 11
7667.019401485212
 21
2353.032837643493
 31
0.0
  0
ELLIPSE
  5
2F5D3
330
747D
100
AcDbEntity
  8
細線
 48
50.0
100
AcDbEllipse
 10
7647.019401485214
 20
2403.032837643494
 30
0.0
 11
18.45838483258558
 21
0.0
 31
0.0
210
0.0
220
0.0
230
1.0
 40
0.2071254069489396
 41
0.0
 42
6.283185307179584
  0
LINE
  5
2F5D4
330
747D
100
AcDbEntity
  8
部品1
 48
50.0
100
AcDbLine
 10
7627.019401485212
 20
2413.032837643493
 30
0.0
 11
7667.019401485212
 21
2413.032837643493
 31
0.0
  0
ELLIPSE
  5
2F5D5
330
747D
100
AcDbEntity
  8
部品1
 48
50.0
100
AcDbEllipse
 10
7647.019401485214
 20
2238.842846812403
 30
0.0
 11
50.0
 21
0.0
 31
0.0
210
0.0
220
0.0
230
1.0
 40
0.4
 41
3.141592653589792
 42
6.283185307179584
  0
ELLIPSE
  5
2F5D6
330
747D
100
AcDbEntity
  8
部品1
 48
50.0
100
AcDbEllipse
 10
7647.019401485214
 20
2250.842846812403
 30
0.0
 11
50.0
 21
0.0
 31
0.0
210
0.0
220
0.0
230
1.0
 40
0.4
 41
0.0
 42
6.283185307179584
  0
ELLIPSE
  5
2F5D7
330
747D
100
AcDbEntity
  8
部品1
 48
50.0
100
AcDbEllipse
 10
7647.019401485214
 20
2250.842846812403
 30
0.0
 11
23.0
 21
0.0
 31
0.0
210
0.0
220
0.0
230
1.0
 40
0.3478260869565217
 41
0.0
 42
6.283185307179584
  0
LINE
  5
2F5D8
330
747D
100
AcDbEntity
  8
部品1
100
AcDbLine
 10
7449.019401485212
 20
2053.938736257063
 30
0.0
 11
7501.894401485214
 21
2053.93873625706
 31
0.0
  0
LINE
  5
2F5D9
330
747D
100
AcDbEntity
  8
部品1
100
AcDbLine
 10
7395.019401485213
 20
2026.938736257064
 30
0.0
 11
7442.269401485212
 21
2026.938736257064
 31
0.0
  0
LINE
  5
2F5DA
330
747D
100
AcDbEntity
  8
部品1
100
AcDbLine
 10
7380.700843750713
 20
2010.70284682344
 30
0.0
 11
7391.644401485212
 21
2013.438736257064
 31
0.0
  0
ARC
  5
2F5DB
330
747D
100
AcDbEntity
  8
部品1
100
AcDbCircle
 10
7381.519401485213
 20
2007.428615885448
 30
0.0
 40
3.375
100
AcDbArc
 50
104.0362434679075
 51
180.0
  0
ARC
  5
2F5DC
330
747D
100
AcDbEntity
  8
部品1
100
AcDbCircle
 10
7395.019401485213
 20
2023.563736257064
 30
0.0
 40
3.375
100
AcDbArc
 50
90.0
 51
180.0
  0
LINE
  5
2F5DD
330
747D
100
AcDbEntity
  8
部品1
100
AcDbLine
 10
7391.644401485212
 20
2013.438736257064
 30
0.0
 11
7391.644401485212
 21
2023.563736257064
 31
0.0
  0
ARC
  5
2F5DE
330
747D
100
AcDbEntity
  8
部品1
100
AcDbCircle
 10
7445.644401485214
 20
2037.063736257064
 30
0.0
 40
3.375
100
AcDbArc
 50
90.0
 51
180.0
  0
LINE
  5
2F5DF
330
747D
100
AcDbEntity
  8
部品1
100
AcDbLine
 10
7442.269401485212
 20
2026.938736257064
 30
0.0
 11
7442.269401485212
 21
2037.063736257064
 31
0.0
  0
LINE
  5
2F5E0
330
747D
100
AcDbEntity
  8
部品1
100
AcDbLine
 10
7445.644401485214
 20
2040.438736257064
 30
0.0
 11
7445.644401485214
 21
2050.563736257064
 31
0.0
  0
LINE
  5
2F5E1
330
747D
100
AcDbEntity
  8
部品1
100
AcDbLine
 10
7445.644401485214
 20
2040.438736257064
 30
0.0
 11
7445.644401485214
 21
2040.438736257064
 31
0.0
  0
ARC
  5
2F5E2
330
747D
100
AcDbEntity
  8
部品1
100
AcDbCircle
 10
7449.019401485212
 20
2050.563736257064
 30
0.0
 40
3.375
100
AcDbArc
 50
90.0
 51
180.0
  0
LINE
  5
2F5E3
330
747D
100
AcDbEntity
  8
部品1
100
AcDbLine
 10
7531.144401485213
 20
1998.013736257065
 30
0.0
 11
7531.144401485213
 21
1976.638736257063
 31
0.0
  0
ARC
  5
2F5E4
330
747D
100
AcDbEntity
  8
部品1
100
AcDbCircle
 10
7554.769401485213
 20
1983.063736257063
 30
0.0
 40
3.375
100
AcDbArc
 50
0.0
 51
90.0
  0
LINE
  5
2F5E5
330
747D
100
AcDbEntity
  8
部品1
100
AcDbLine
 10
7640.269401485213
 20
1980.388736257063
 30
0.0
 11
7653.769401485212
 21
1980.388736257063
 31
0.0
  0
LINE
  5
2F5E6
330
747D
100
AcDbEntity
  8
部品1
100
AcDbLine
 10
7635.769401485212
 20
1975.888736257063
 30
0.0
 11
7658.269401485212
 21
1975.888736257063
 31
0.0
  0
ARC
  5
2F5E7
330
747D
100
AcDbEntity
  8
部品1
100
AcDbCircle
 10
7569.719401485214
 20
1998.013736257065
 30
0.0
 40
3.375
100
AcDbArc
 50
0.0
 51
90.0
  0
ARC
  5
2F5E8
330
747D
100
AcDbEntity
  8
部品1
100
AcDbCircle
 10
7534.519401485214
 20
1998.013736257065
 30
0.0
 40
3.375
100
AcDbArc
 50
90.0
 51
180.0
  0
LINE
  5
2F5E9
330
747D
100
AcDbEntity
  8
部品1
100
AcDbLine
 10
7534.519401485214
 20
2001.388736257064
 30
0.0
 11
7569.719401485214
 21
2001.388736257064
 31
0.0
  0
LINE
  5
2F5EA
330
747D
100
AcDbEntity
  8
部品1
 48
50.0
100
AcDbLine
 10
7597.019401485214
 20
2250.842846812403
 30
0.0
 11
7597.019401485214
 21
2238.842846812403
 31
0.0
  0
LINE
  5
2F5EB
330
747D
100
AcDbEntity
  8
部品1
100
AcDbLine
 10
7505.269401485214
 20
2050.563736257061
 30
0.0
 11
7505.269401485214
 21
1986.438736257064
 31
0.0
  0
ARC
  5
2F5EC
330
747D
100
AcDbEntity
  8
部品1
100
AcDbCircle
 10
7501.894401485214
 20
2050.563736257061
 30
0.0
 40
3.375
100
AcDbArc
 50
0.0
 51
90.0
  0
LINE
  5
2F5ED
330
747D
100
AcDbEntity
  8
部品1
100
AcDbLine
 10
7505.269401485214
 20
1986.438736257064
 30
0.0
 11
7554.769401485213
 21
1986.438736257064
 31
0.0
  0
LINE
  5
2F5EE
330
747D
100
AcDbEntity
  8
部品1
 48
50.0
100
AcDbLine
 10
7607.019401485215
 20
2403.032837643494
 30
0.0
 11
7627.019401485212
 21
2413.032837643493
 31
0.0
  0
LINE
  5
2F5EF
330
747D
100
AcDbEntity
  8
部品1
 48
50.0
100
AcDbLine
 10
7607.019401485215
 20
2363.032837643492
 30
0.0
 11
7627.019401485212
 21
2353.032837643493
 31
0.0
  0
LINE
  5
2F5F0
330
747D
100
AcDbEntity
  8
部品1
 48
50.0
100
AcDbLine
 10
7607.019401485215
 20
2403.032837643494
 30
0.0
 11
7627.019401485212
 21
2393.032837643492
 31
0.0
  0
LINE
  5
2F5F1
330
747D
100
AcDbEntity
  8
部品1
 48
50.0
100
AcDbLine
 10
7607.019401485215
 20
2363.032837643492
 30
0.0
 11
7607.019401485215
 21
2403.032837643494
 31
0.0
  0
LINE
  5
2F5F2
330
747D
100
AcDbEntity
  8
細線
 48
50.0
100
AcDbLine
 10
7627.019401485212
 20
2353.032837643493
 30
0.0
 11
7627.019401485212
 21
2393.032837643492
 31
0.0
  0
LINE
  5
2F5F3
330
747D
100
AcDbEntity
  8
部品1
 48
50.0
100
AcDbLine
 10
7697.019401485214
 20
2238.842846812403
 30
0.0
 11
7697.019401485214
 21
2250.842846812403
 31
0.0
  0
LINE
  5
2F5F4
330
747D
100
AcDbEntity
  8
部品1
 48
50.0
100
AcDbLine
 10
7667.019401485212
 20
2413.032837643493
 30
0.0
 11
7687.019401485212
 21
2403.032837643494
 31
0.0
  0
LINE
  5
2F5F5
330
747D
100
AcDbEntity
  8
部品1
 48
50.0
100
AcDbLine
 10
7687.019401485212
 20
2363.032837643492
 30
0.0
 11
7687.019401485212
 21
2403.032837643494
 31
0.0
  0
LINE
  5
2F5F6
330
747D
100
AcDbEntity
  8
細線
 48
50.0
100
AcDbLine
 10
7667.019401485212
 20
2353.032837643493
 30
0.0
 11
7667.019401485212
 21
2393.032837643492
 31
0.0
  0
LINE
  5
2F5F7
330
747D
100
AcDbEntity
  8
部品1
 48
50.0
100
AcDbLine
 10
7667.019401485212
 20
2393.032837643492
 30
0.0
 11
7687.019401485212
 21
2403.032837643494
 31
0.0
  0
LINE
  5
2F5F8
330
747D
100
AcDbEntity
  8
部品1
 48
50.0
100
AcDbLine
 10
7667.019401485212
 20
2353.032837643493
 30
0.0
 11
7687.019401485212
 21
2363.032837643492
 31
0.0
  0
LINE
  5
2F5F9
330
747D
100
AcDbEntity
  8
細線
 48
50.0
100
AcDbLine
 10
9652.75182992678
 20
1339.815091690373
 30
0.0
 11
9695.62370071576
 21
1499.815091690373
 31
0.0
  0
TEXT
  5
2F5FA
330
747D
100
AcDbEntity
  8
部品1
 48
50.0
100
AcDbText
 10
9057.04170841553
 20
1280.939060460427
 30
0.0
 40
100.0
  1
ボルトの出
 50
90.0
  7
STYLE2
100
AcDbText
  0
LINE
  5
2F5FB
330
747D
100
AcDbEntity
  8
部品1
100
AcDbLine
 10
9532.38333674083
 20
1339.815091690371
 30
0.0
 11
9532.38333674083
 21
1614.438736257063
 31
0.0
  0
LINE
  5
2F5FC
330
747D
100
AcDbEntity
  8
細線
 48
50.0
100
AcDbLine
 10
9554.141773742719
 20
1339.815091690375
 30
0.0
 11
9597.013644531696
 21
1499.815091690375
 31
0.0
  0
LINE
  5
2F5FD
330
747D
100
AcDbEntity
  8
部品1
 48
50.0
100
AcDbLine
 10
8147.769401485218
 20
934.4387362570623
 30
0.0
 11
8147.769401485218
 21
774.4387362570622
 31
0.0
  0
LINE
  5
2F5FE
330
747D
100
AcDbEntity
  8
細線
 48
50.0
100
AcDbLine
 10
8093.241682975634
 20
904.4387362570615
 30
0.0
 11
8085.203207202701
 21
934.4387362570612
 31
0.0
  0
LINE
  5
2F5FF
330
747D
100
AcDbEntity
  8
細線
 48
50.0
100
AcDbLine
 10
9660.79030569972
 20
1369.815091690375
 30
0.0
 11
9668.828781472647
 21
1339.815091690375
 31
0.0
  0
LINE
  5
2F600
330
747D
100
AcDbEntity
  8
細線
 48
50.0
100
AcDbLine
 10
9562.180249515661
 20
1369.815091690375
 30
0.0
 11
9570.218725288588
 21
1339.815091690375
 31
0.0
  0
LINE
  5
2F601
330
747D
100
AcDbEntity
  8
部品1
100
AcDbLine
 10
9682.38333674083
 20
1614.438736257063
 30
0.0
 11
9682.38333674083
 21
1914.438736257064
 31
0.0
  0
LINE
  5
2F602
330
747D
100
AcDbEntity
  8
細線
 48
50.0
100
AcDbLine
 10
9588.97516875877
 20
1469.815091690376
 30
0.0
 11
9580.936692985828
 21
1499.815091690375
 31
0.0
  0
LINE
  5
2F603
330
747D
100
AcDbEntity
  8
細線
 48
50.0
100
AcDbLine
 10
9687.58522494283
 20
1469.815091690376
 30
0.0
 11
9679.546749169901
 21
1499.815091690375
 31
0.0
  0
TEXT
  5
2F604
330
747D
100
AcDbEntity
  8
部品1
100
AcDbText
 10
7132.348676978584
 20
3341.213346038834
 30
0.0
 40
150.0
  1
基礎詳細
  7
STYLE2
100
AcDbText
  0
LINE
  5
2F605
330
747D
100
AcDbEntity
  8
部品1
100
AcDbLine
 10
11022.89426455997
 20
306.5837582300301
 30
0.0
 11
11022.89426455997
 21
3565.65326097812
 31
0.0
  0
LINE
  5
2F606
330
747D
100
AcDbEntity
  8
部品1
100
AcDbLine
 10
10432.38333674083
 20
1614.438736257063
 30
0.0
 11
10432.38333674083
 21
1339.815091690375
 31
0.0
  0
LINE
  5
2F607
330
747D
100
AcDbEntity
  8
細線
 48
50.0
100
AcDbLine
 10
10244.41216703114
 20
1339.815091690371
 30
0.0
 11
10287.28403782012
 21
1499.815091690371
 31
0.0
  0
LINE
  5
2F608
330
747D
100
AcDbEntity
  8
細線
 48
50.0
100
AcDbLine
 10
10343.02222321519
 20
1339.815091690373
 30
0.0
 11
10385.89409400418
 21
1499.815091690371
 31
0.0
  0
LINE
  5
2F609
330
747D
100
AcDbEntity
  8
細線
 48
50.0
100
AcDbLine
 10
10047.19205466302
 20
1339.815091690375
 30
0.0
 11
10090.063925452
 21
1499.815091690373
 31
0.0
  0
LINE
  5
2F60A
330
747D
100
AcDbEntity
  8
細線
 48
50.0
100
AcDbLine
 10
10145.80211084708
 20
1339.815091690373
 30
0.0
 11
10188.67398163605
 21
1499.815091690375
 31
0.0
  0
LINE
  5
2F60B
330
747D
100
AcDbEntity
  8
細線
 48
50.0
100
AcDbLine
 10
9849.971942294899
 20
1339.815091690375
 30
0.0
 11
9892.843813083878
 21
1499.815091690373
 31
0.0
  0
LINE
  5
2F60C
330
747D
100
AcDbEntity
  8
細線
 48
50.0
100
AcDbLine
 10
9751.361886110849
 20
1339.815091690375
 30
0.0
 11
9794.233756899821
 21
1499.815091690375
 31
0.0
  0
LINE
  5
2F60D
330
747D
100
AcDbEntity
  8
細線
 48
50.0
100
AcDbLine
 10
9948.58199847896
 20
1339.815091690373
 30
0.0
 11
9991.453869267941
 21
1499.815091690373
 31
0.0
  0
LINE
  5
2F60E
330
747D
100
AcDbEntity
  8
細線
 48
50.0
100
AcDbLine
 10
9858.010418067841
 20
1369.815091690375
 30
0.0
 11
9866.04889384078
 21
1339.815091690375
 31
0.0
  0
LINE
  5
2F60F
330
747D
100
AcDbEntity
  8
細線
 48
50.0
100
AcDbLine
 10
9759.400361883789
 20
1369.815091690375
 30
0.0
 11
9767.438837656721
 21
1339.815091690375
 31
0.0
  0
LINE
  5
2F610
330
747D
100
AcDbEntity
  8
細線
 48
50.0
100
AcDbLine
 10
10055.23053043596
 20
1369.815091690375
 30
0.0
 11
10063.26900620889
 21
1339.815091690375
 31
0.0
  0
LINE
  5
2F611
330
747D
100
AcDbEntity
  8
細線
 48
50.0
100
AcDbLine
 10
9956.6204742519
 20
1369.815091690375
 30
0.0
 11
9964.658950024828
 21
1339.815091690375
 31
0.0
  0
LINE
  5
2F612
330
747D
100
AcDbEntity
  8
細線
 48
50.0
100
AcDbLine
 10
10252.45064280408
 20
1369.815091690373
 30
0.0
 11
10260.48911857701
 21
1339.815091690373
 31
0.0
  0
LINE
  5
2F613
330
747D
100
AcDbEntity
  8
細線
 48
50.0
100
AcDbLine
 10
10153.84058662002
 20
1369.815091690375
 30
0.0
 11
10161.87906239296
 21
1339.815091690375
 31
0.0
  0
LINE
  5
2F614
330
747D
100
AcDbEntity
  8
細線
 48
50.0
100
AcDbLine
 10
10351.06069898814
 20
1369.815091690373
 30
0.0
 11
10359.09917476107
 21
1339.815091690373
 31
0.0
  0
MTEXT
  5
2F615
102
{ACAD_REACTORS
330
2F616
102
}
330
747D
100
AcDbEntity
  8
寸法
 62
     7
 48
50.0
100
AcDbMText
 10
10424.71160955279
 20
2235.871637108486
 30
0.0
 40
150.0
 41
1.0
 71
     4
 72
     1
  1
\A1;C.B
  7
STYLE1
 73
     1
 44
1.0
1001
ACAD
1000
MTEXTBEGIN
1070
    73
1070
     1
1070
    44
1040
1.0
1070
    74
1070
     0
1000
MTEXTEND
  0
LEADER
  5
2F616
330
747D
100
AcDbEntity
  8
寸法
 48
50.0
100
AcDbLeader
  3
INABA_S40G
 73
     0
 74
     0
 75
     1
 40
150.0
 41
231.9898538650463
 76
     3
 10
10195.78885126073
 20
1914.438736257064
 30
0.0
 10
10284.71160955279
 20
2120.871637108486
 30
0.0
 10
10384.71160955279
 20
2120.871637108486
 30
0.0
340
2F615
1001
ACAD
1000
DSTYLE
1002
{
1070
   341
1005
0
1002
}
  0
LINE
  5
2F617
330
747D
100
AcDbEntity
  8
細線
100
AcDbLine
 10
10265.08625880635
 20
1614.438736257065
 30
0.0
 11
9965.086258806358
 21
1914.438736257064
 31
0.0
  0
LINE
  5
2F618
330
747D
100
AcDbEntity
  8
細線
100
AcDbLine
 10
10201.44664849957
 20
1614.438736257063
 30
0.0
 11
9901.446648499572
 21
1914.438736257064
 31
0.0
  0
LINE
  5
2F619
330
747D
100
AcDbEntity
  8
細線
 48
50.0
100
AcDbLine
 10
9786.1952811269
 20
1469.815091690376
 30
0.0
 11
9778.15680535396
 21
1499.815091690375
 31
0.0
  0
LINE
  5
2F61A
330
747D
100
AcDbEntity
  8
細線
 48
50.0
100
AcDbLine
 10
9884.80533731095
 20
1469.815091690376
 30
0.0
 11
9876.766861538024
 21
1499.815091690375
 31
0.0
  0
LINE
  5
2F61B
330
747D
100
AcDbEntity
  8
細線
100
AcDbLine
 10
9758.53164360738
 20
1499.815091690376
 30
0.0
 11
9873.155288174061
 21
1614.438736257063
 31
0.0
  0
LINE
  5
2F61C
330
747D
100
AcDbEntity
  8
細線
100
AcDbLine
 10
9716.10523673619
 20
1499.815091690376
 30
0.0
 11
9830.728881302867
 21
1614.438736257063
 31
0.0
  0
LINE
  5
2F61D
330
747D
100
AcDbEntity
  8
細線
 48
50.0
100
AcDbLine
 10
10082.02544967907
 20
1469.815091690376
 30
0.0
 11
10073.98697390614
 21
1499.815091690375
 31
0.0
  0
LINE
  5
2F61E
330
747D
100
AcDbEntity
  8
細線
 48
50.0
100
AcDbLine
 10
9983.415393495008
 20
1469.815091690376
 30
0.0
 11
9975.37691772208
 21
1499.815091690375
 31
0.0
  0
LINE
  5
2F61F
330
747D
100
AcDbEntity
  8
部品1
100
AcDbLine
 10
10282.38333674083
 20
1914.438736257064
 30
0.0
 11
10282.38333674083
 21
1614.438736257063
 31
0.0
  0
LINE
  5
2F620
330
747D
100
AcDbEntity
  8
細線
 48
50.0
100
AcDbLine
 10
10279.24556204719
 20
1469.815091690373
 30
0.0
 11
10271.20708627425
 21
1499.815091690373
 31
0.0
  0
LINE
  5
2F621
330
747D
100
AcDbEntity
  8
細線
 48
50.0
100
AcDbLine
 10
10180.63550586312
 20
1469.815091690376
 30
0.0
 11
10172.59703009018
 21
1499.815091690375
 31
0.0
  0
LINE
  5
2F622
330
747D
100
AcDbEntity
  8
細線
100
AcDbLine
 10
10208.53164360738
 20
1499.815091690378
 30
0.0
 11
10323.15528817406
 21
1614.438736257063
 31
0.0
  0
LINE
  5
2F623
330
747D
100
AcDbEntity
  8
細線
100
AcDbLine
 10
10123.678829865
 20
1499.815091690378
 30
0.0
 11
10238.30247443168
 21
1614.438736257063
 31
0.0
  0
LINE
  5
2F624
330
747D
100
AcDbEntity
  8
細線
100
AcDbLine
 10
10166.10523673619
 20
1499.815091690378
 30
0.0
 11
10280.72888130287
 21
1614.438736257063
 31
0.0
  0
LINE
  5
2F625
330
747D
100
AcDbEntity
  8
細線
 48
50.0
100
AcDbLine
 10
10377.85561823125
 20
1469.815091690373
 30
0.0
 11
10369.81714245831
 21
1499.815091690373
 31
0.0
  0
HATCH
  5
2F75F
330
747D
100
AcDbEntity
  8
細線
 48
50.0
100
AcDbHatch
 10
0.0
 20
0.0
 30
0.0
210
0.0
220
0.0
230
1.0
  2
LINE
 70
     0
 71
     1
 91
        6
 92
        7
 72
     0
 73
     1
 93
        4
 10
6588.600000000004
 20
8709.119711170082
 10
6388.600000000002
 20
8709.119711170087
 10
6388.600000000002
 20
8589.119711170084
 10
6588.600000000004
 20
8589.119711170084
 97
        4
330
2A1B8
330
2A463
330
2A453
330
2A462
 92
        7
 72
     0
 73
     1
 93
        4
 10
10058.6
 20
8709.119711170082
 10
9858.600000000002
 20
8709.119711170082
 10
9858.600000000004
 20
8589.119711170082
 10
10058.6
 20
8589.119711170082
 97
        4
330
2A1B8
330
2A52B
330
2A1B5
330
2A52A
 92
        7
 72
     0
 73
     1
 93
        4
 10
11698.6
 20
7069.119711170086
 10
11578.6
 20
7069.119711170086
 10
11578.6
 20
6869.119711170085
 10
11698.6
 20
6869.119711170085
 97
        4
330
2A54F
330
2A49F
330
2A550
330
2A4A0
 92
        7
 72
     0
 73
     1
 93
        4
 10
10058.60000000001
 20
5349.119711170096
 10
9858.600000000016
 20
5349.119711170096
 10
9858.600000000016
 20
5229.119711170093
 10
10058.60000000001
 20
5229.119711170095
 97
        4
330
2A1B3
330
2A519
330
2A1B4
330
2A51A
 92
        7
 72
     0
 73
     1
 93
        4
 10
6588.600000000005
 20
5349.119711170089
 10
6388.600000000009
 20
5349.119711170089
 10
6388.600000000009
 20
5154.119711170078
 10
6588.600000000005
 20
5154.119711170078
 97
        4
330
2A22F
330
2A2B2
330
2A23A
330
2A333
 92
        7
 72
     0
 73
     1
 93
        4
 10
4868.6
 20
7069.119711170083
 10
4748.6
 20
7069.119711170086
 10
4748.6
 20
6869.119711170085
 10
4868.6
 20
6869.119711170085
 97
        4
330
2A457
330
2A1CC
330
2A458
330
2A1CD
 75
     0
 76
     1
 52
45.0
 41
10.0
 77
     0
 78
     1
 53
45.0
 43
0.0
 44
0.0
 45
-22.45064030267288
 46
22.45064030267288
 79
     0
 47
6.304214162931039
 98
        6
 10
6546.121933873568
 20
8653.08949912843
 10
9977.090008665079
 20
8634.176865845599
 10
11686.26704819662
 20
6925.734813882343
 10
9989.703802149993
 20
5305.551790119498
 10
6451.518078249719
 20
5192.075902965864
 10
4830.637930185067
 20
6995.081165071599
  0
ENDSEC
  0
SECTION
  2
OBJECTS
  0
DICTIONARY
  5
7471
330
0
100
AcDbDictionary
281
     1
  3
ACAD_COLOR
350
173D2
  3
ACAD_GROUP
350
7472
  3
ACAD_LAYOUT
350
173D3
  3
ACAD_MATERIAL
350
173D1
  3
ACAD_MLINESTYLE
350
7473
  3
ACAD_PLOTSETTINGS
350
173D4
  3
ACAD_PLOTSTYLENAME
350
173CF
  3
ACDBHEADERROUNDTRIPXREC
350
2F95A
  3
AcDbVariableDictionary
350
2F774
  3
CONTENTDICTIONARY
350
E71C
  3
DRAWINGVARIABLESDICT
350
F3B9
  0
DICTIONARY
  5
1758F
330
7467
100
AcDbDictionary
280
     1
281
     1
  3
ACAD_LAYERSTATES
360
17590
  0
DICTIONARY
  5
173D2
102
{ACAD_REACTORS
330
7471
102
}
330
7471
100
AcDbDictionary
281
     1
  0
DICTIONARY
  5
7472
102
{ACAD_REACTORS
330
7471
102
}
330
7471
100
AcDbDictionary
281
     1
  3
*A1
350
1D2A9
  0
DICTIONARY
  5
173D3
102
{ACAD_REACTORS
330
7471
102
}
330
7471
100
AcDbDictionary
281
     1
  3
Model
350
173D5
  3
レイアウト1
350
173D6
  0
DICTIONARY
  5
173D1
102
{ACAD_REACTORS
330
7471
102
}
330
7471
100
AcDbDictionary
281
     1
  0
DICTIONARY
  5
7473
102
{ACAD_REACTORS
330
7471
102
}
330
7471
100
AcDbDictionary
281
     1
  3
STANDARD
350
7480
  0
DICTIONARY
  5
173D4
102
{ACAD_REACTORS
330
7471
102
}
330
7471
100
AcDbDictionary
281
     1
  0
ACDBDICTIONARYWDFLT
  5
173CF
102
{ACAD_REACTORS
330
7471
102
}
330
7471
100
AcDbDictionary
281
     1
  3
Normal
350
173D0
100
AcDbDictionaryWithDefault
340
173D0
  0
DICTIONARY
  5
2F95A
102
{ACAD_REACTORS
330
7471
102
}
330
7471
100
AcDbDictionary
281
     1
  3
COLORDICT
350
2F95C
  3
MATERIALDICT
350
2F95B
  0
DICTIONARY
  5
2F774
102
{ACAD_REACTORS
330
7471
102
}
330
7471
100
AcDbDictionary
281
     1
  3
DIMASSOC
350
2F775
  3
PROJECTNAME
350
2F776
  0
DICTIONARY
  5
E71C
102
{ACAD_REACTORS
330
7471
102
}
330
7471
100
AcDbDictionary
281
     1
  0
DICTIONARY
  5
F3B9
102
{ACAD_REACTORS
330
7471
102
}
330
7471
100
AcDbDictionary
281
     1
1001
DRAWINGVARIABLESXDATA
1000
POLARMODE
1000
1
  0
DICTIONARY
  5
17590
102
{ACAD_REACTORS
330
1758F
102
}
330
1758F
100
AcDbDictionary
281
     1
  0
GROUP
  5
1D2A9
102
{ACAD_REACTORS
330
7472
102
}
330
7472
100
AcDbGroup
300

 70
     1
 71
     1
  0
LAYOUT
  5
173D5
102
{ACAD_XDICTIONARY
360
2F95D
102
}
102
{ACAD_REACTORS
330
173D3
102
}
330
173D3
100
AcDbPlotSettings
  1

  2
クセロPDF
  4
A3
  6

 40
3.174999952316284
 41
3.174999952316284
 42
3.17498779296875
 43
3.17498779296875
 44
419.9466552734374
 45
296.9259948730469
 46
0.0
 47
0.0
 48
0.0
 49
0.0
140
0.0
141
0.0
142
1.0
143
40.0
 70
 11952
 72
     1
 73
     0
 74
     2
  7
inaba.ctb
 75
    24
147
0.025
148
0.0
149
0.0
100
AcDbLayout
  1
Model
 70
     1
 71
     0
 10
0.0
 20
0.0
 11
12.0
 21
9.0
 12
0.0
 22
0.0
 32
0.0
 14
0.0
 24
0.0
 34
0.0
 15
0.0
 25
0.0
 35
0.0
146
0.0
 13
0.0
 23
0.0
 33
0.0
 16
1.0
 26
0.0
 36
0.0
 17
0.0
 27
1.0
 37
0.0
 76
     0
330
747D
  0
LAYOUT
  5
173D6
102
{ACAD_XDICTIONARY
360
2F95F
102
}
102
{ACAD_REACTORS
330
173D3
102
}
330
173D3
100
AcDbPlotSettings
  1

  2
Microsoft Office Document Image Writer
  4

  6

 40
0.0
 41
0.0
 42
0.0
 43
0.0
 44
0.0
 45
0.0
 46
0.0
 47
0.0
 48
0.0
 49
0.0
140
0.0
141
0.0
142
1.0
143
1.0
 70
   688
 72
     0
 73
     0
 74
     5
  7

 75
    16
147
1.0
148
0.0
149
0.0
100
AcDbLayout
  1
レイアウト1
 70
     0
 71
     1
 10
0.0
 20
0.0
 11
420.0
 21
297.0
 12
0.0
 22
0.0
 32
0.0
 14
1.000000000000000E+20
 24
1.000000000000000E+20
 34
1.000000000000000E+20
 15
-1.000000000000000E+20
 25
-1.000000000000000E+20
 35
-1.000000000000000E+20
146
0.0
 13
0.0
 23
0.0
 33
0.0
 16
1.0
 26
0.0
 36
0.0
 17
0.0
 27
1.0
 37
0.0
 76
     0
330
747A
  0
MLINESTYLE
  5
7480
102
{ACAD_REACTORS
330
7473
102
}
330
7473
100
AcDbMlineStyle
  2
STANDARD
 70
     0
  3

 62
     0
 51
90.0
 52
90.0
 71
     2
 49
0.5
 62
   256
  6
BYLAYER
 49
-0.5
 62
   256
  6
BYLAYER
  0
ACDBPLACEHOLDER
  5
173D0
102
{ACAD_REACTORS
330
173CF
102
}
330
173CF
  0
XRECORD
  5
2F95C
102
{ACAD_REACTORS
330
2F95A
102
}
330
2F95A
100
AcDbXrecord
280
     1
340
173D2
  0
XRECORD
  5
2F95B
102
{ACAD_REACTORS
330
2F95A
102
}
330
2F95A
100
AcDbXrecord
280
     1
340
173D1
  0
DICTIONARYVAR
  5
2F775
102
{ACAD_REACTORS
330
2F774
102
}
330
2F774
100
DictionaryVariables
280
     0
  1
1
  0
DICTIONARYVAR
  5
2F776
102
{ACAD_REACTORS
330
2F774
102
}
330
2F774
100
DictionaryVariables
280
     0
  1

  0
DICTIONARY
  5
2F95D
330
173D5
100
AcDbDictionary
280
     1
281
     1
  3
ACAD_XREC_ROUNDTRIP
360
2F95E
  0
DICTIONARY
  5
2F95F
330
173D6
100
AcDbDictionary
280
     1
281
     1
  3
ACAD_XREC_ROUNDTRIP
360
2F960
  0
XRECORD
  5
2F95E
102
{ACAD_REACTORS
330
2F95D
102
}
330
2F95D
100
AcDbXrecord
280
     1
102
SHADEPLOT
 70
     0
102
SHADEPLOTRESLEVEL
 70
     2
102
SHADEPLOTCUSTOMDPI
 70
   150
  0
XRECORD
  5
2F960
102
{ACAD_REACTORS
330
2F95F
102
}
330
2F95F
100
AcDbXrecord
280
     1
102
SHADEPLOT
 70
     0
102
SHADEPLOTRESLEVEL
 70
     2
102
SHADEPLOTCUSTOMDPI
 70
   300
  0
ENDSEC
  0
EOF
