  0
SECTION
  2
HEADER
  9
$ACADVER
  1
AC1015
  9
$ACADMAINTVER
 70
    20
  9
$DWGCODEPAGE
  3
ANSI_932
  9
$INSBASE
 10
0.0
 20
0.0
 30
0.0
  9
$EXTMIN
 10
139.9999999999995
 20
-0.0000000000000909
 30
0.0
  9
$EXTMAX
 10
16307.2
 20
11409.6
 30
0.0
  9
$LIMMIN
 10
0.0
 20
0.0
  9
$LIMMAX
 10
16800.0
 20
11880.0
  9
$ORTHOMODE
 70
     0
  9
$REGENMODE
 70
     1
  9
$FILLMODE
 70
     1
  9
$QTEXTMODE
 70
     0
  9
$MIRRTEXT
 70
     1
  9
$LTSCALE
 40
20.0
  9
$ATTMODE
 70
     1
  9
$TEXTSIZE
 40
4.0
  9
$TRACEWID
 40
1.0
  9
$TEXTSTYLE
  7
STYLE1
  9
$CLAYER
  8
細線
  9
$CELTYPE
  6
BYLAYER
  9
$CECOLOR
 62
   256
  9
$CELTSCALE
 40
50.0
  9
$DISPSILH
 70
     0
  9
$DIMSCALE
 40
40.0
  9
$DIMASZ
 40
2.5
  9
$DIMEXO
 40
0.5
  9
$DIMDLI
 40
7.0
  9
$DIMRND
 40
0.0
  9
$DIMDLE
 40
0.0
  9
$DIMEXE
 40
1.5
  9
$DIMTP
 40
0.0
  9
$DIMTM
 40
0.0
  9
$DIMTXT
 40
3.0
  9
$DIMCEN
 40
0.0
  9
$DIMTSZ
 40
0.0
  9
$DIMTOL
 70
     0
  9
$DIMLIM
 70
     0
  9
$DIMTIH
 70
     0
  9
$DIMTOH
 70
     0
  9
$DIMSE1
 70
     0
  9
$DIMSE2
 70
     0
  9
$DIMTAD
 70
     3
  9
$DIMZIN
 70
     8
  9
$DIMBLK
  1

  9
$DIMASO
 70
     1
  9
$DIMSHO
 70
     1
  9
$DIMPOST
  1

  9
$DIMAPOST
  1

  9
$DIMALT
 70
     0
  9
$DIMALTD
 70
     2
  9
$DIMALTF
 40
0.0394
  9
$DIMLFAC
 40
1.0
  9
$DIMTOFL
 70
     1
  9
$DIMTVP
 40
0.0
  9
$DIMTIX
 70
     1
  9
$DIMSOXD
 70
     0
  9
$DIMSAH
 70
     1
  9
$DIMBLK1
  1
DOTSMALL
  9
$DIMBLK2
  1
DOTSMALL
  9
$DIMSTYLE
  2
INABA_S40G
  9
$DIMCLRD
 70
     0
  9
$DIMCLRE
 70
     0
  9
$DIMCLRT
 70
     7
  9
$DIMTFAC
 40
1.0
  9
$DIMGAP
 40
1.0
  9
$DIMJUST
 70
     0
  9
$DIMSD1
 70
     0
  9
$DIMSD2
 70
     0
  9
$DIMTOLJ
 70
     1
  9
$DIMTZIN
 70
     0
  9
$DIMALTZ
 70
     0
  9
$DIMALTTZ
 70
     0
  9
$DIMUPT
 70
     0
  9
$DIMDEC
 70
     1
  9
$DIMTDEC
 70
     4
  9
$DIMALTU
 70
     2
  9
$DIMALTTD
 70
     2
  9
$DIMTXSTY
  7
STYLE1
  9
$DIMAUNIT
 70
     0
  9
$DIMADEC
 70
     0
  9
$DIMALTRND
 40
0.0
  9
$DIMAZIN
 70
     0
  9
$DIMDSEP
 70
    46
  9
$DIMATFIT
 70
     3
  9
$DIMFRAC
 70
     0
  9
$DIMLDRBLK
  1

  9
$DIMLUNIT
 70
     2
  9
$DIMLWD
 70
    -2
  9
$DIMLWE
 70
    -2
  9
$DIMTMOVE
 70
     0
  9
$LUNITS
 70
     2
  9
$LUPREC
 70
     1
  9
$SKETCHINC
 40
1.0
  9
$FILLETRAD
 40
3.0
  9
$AUNITS
 70
     0
  9
$AUPREC
 70
     0
  9
$MENU
  1
acad
  9
$ELEVATION
 40
0.0
  9
$PELEVATION
 40
0.0
  9
$THICKNESS
 40
0.0
  9
$LIMCHECK
 70
     0
  9
$CHAMFERA
 40
0.0
  9
$CHAMFERB
 40
0.0
  9
$CHAMFERC
 40
0.0
  9
$CHAMFERD
 40
0.0
  9
$SKPOLY
 70
     0
  9
$TDCREATE
 40
2451368.612993866
  9
$TDUCREATE
 40
2451368.237993866
  9
$TDUPDATE
 40
2455827.764488160
  9
$TDUUPDATE
 40
2455827.389488160
  9
$TDINDWG
 40
0.9081406829
  9
$TDUSRTIMER
 40
0.9081388773
  9
$USRTIMER
 70
     1
  9
$ANGBASE
 50
0.0
  9
$ANGDIR
 70
     0
  9
$PDMODE
 70
     3
  9
$PDSIZE
 40
2.0
  9
$PLINEWID
 40
0.0
  9
$SPLFRAME
 70
     0
  9
$SPLINETYPE
 70
     6
  9
$SPLINESEGS
 70
     8
  9
$HANDSEED
  5
2C841
  9
$SURFTAB1
 70
     6
  9
$SURFTAB2
 70
     6
  9
$SURFTYPE
 70
     6
  9
$SURFU
 70
     6
  9
$SURFV
 70
     6
  9
$UCSBASE
  2

  9
$UCSNAME
  2

  9
$UCSORG
 10
0.0
 20
0.0
 30
0.0
  9
$UCSXDIR
 10
1.0
 20
0.0
 30
0.0
  9
$UCSYDIR
 10
0.0
 20
1.0
 30
0.0
  9
$UCSORTHOREF
  2

  9
$UCSORTHOVIEW
 70
     0
  9
$UCSORGTOP
 10
0.0
 20
0.0
 30
0.0
  9
$UCSORGBOTTOM
 10
0.0
 20
0.0
 30
0.0
  9
$UCSORGLEFT
 10
0.0
 20
0.0
 30
0.0
  9
$UCSORGRIGHT
 10
0.0
 20
0.0
 30
0.0
  9
$UCSORGFRONT
 10
0.0
 20
0.0
 30
0.0
  9
$UCSORGBACK
 10
0.0
 20
0.0
 30
0.0
  9
$PUCSBASE
  2

  9
$PUCSNAME
  2

  9
$PUCSORG
 10
0.0
 20
0.0
 30
0.0
  9
$PUCSXDIR
 10
1.0
 20
0.0
 30
0.0
  9
$PUCSYDIR
 10
0.0
 20
1.0
 30
0.0
  9
$PUCSORTHOREF
  2

  9
$PUCSORTHOVIEW
 70
     0
  9
$PUCSORGTOP
 10
0.0
 20
0.0
 30
0.0
  9
$PUCSORGBOTTOM
 10
0.0
 20
0.0
 30
0.0
  9
$PUCSORGLEFT
 10
0.0
 20
0.0
 30
0.0
  9
$PUCSORGRIGHT
 10
0.0
 20
0.0
 30
0.0
  9
$PUCSORGFRONT
 10
0.0
 20
0.0
 30
0.0
  9
$PUCSORGBACK
 10
0.0
 20
0.0
 30
0.0
  9
$USERI1
 70
     0
  9
$USERI2
 70
     0
  9
$USERI3
 70
     0
  9
$USERI4
 70
     0
  9
$USERI5
 70
     0
  9
$USERR1
 40
0.0
  9
$USERR2
 40
0.0
  9
$USERR3
 40
0.0
  9
$USERR4
 40
0.0
  9
$USERR5
 40
0.0
  9
$WORLDVIEW
 70
     1
  9
$SHADEDGE
 70
     3
  9
$SHADEDIF
 70
    70
  9
$TILEMODE
 70
     1
  9
$MAXACTVP
 70
    16
  9
$PINSBASE
 10
0.0
 20
0.0
 30
0.0
  9
$PLIMCHECK
 70
     0
  9
$PEXTMIN
 10
1.000000000000000E+20
 20
1.000000000000000E+20
 30
1.000000000000000E+20
  9
$PEXTMAX
 10
-1.000000000000000E+20
 20
-1.000000000000000E+20
 30
-1.000000000000000E+20
  9
$PLIMMIN
 10
0.0
 20
0.0
  9
$PLIMMAX
 10
420.0
 20
297.0
  9
$UNITMODE
 70
     0
  9
$VISRETAIN
 70
     0
  9
$PLINEGEN
 70
     0
  9
$PSLTSCALE
 70
     0
  9
$TREEDEPTH
 70
  3020
  9
$CMLSTYLE
  2
STANDARD
  9
$CMLJUST
 70
     0
  9
$CMLSCALE
 40
1.0
  9
$PROXYGRAPHICS
 70
     1
  9
$MEASUREMENT
 70
     1
  9
$CELWEIGHT
370
    -1
  9
$ENDCAPS
280
     0
  9
$JOINSTYLE
280
     0
  9
$LWDISPLAY
290
     0
  9
$INSUNITS
 70
     0
  9
$HYPERLINKBASE
  1

  9
$STYLESHEET
  1
inaba.ctb
  9
$XEDIT
290
     1
  9
$CEPSNTYPE
380
     0
  9
$PSTYLEMODE
290
     1
  9
$FINGERPRINTGUID
  2
{5EAC461A-2277-4BF8-9AB0-99C43BB394F0}
  9
$VERSIONGUID
  2
{80E7F2EF-3069-4C94-8A3E-6B135832E209}
  9
$EXTNAMES
290
     1
  9
$PSVPSCALE
 40
0.0
  9
$OLESTARTUP
290
     0
  0
ENDSEC
  0
SECTION
  2
CLASSES
  0
CLASS
  1
ACDBDICTIONARYWDFLT
  2
AcDbDictionaryWithDefault
  3
ObjectDBX Classes
 90
        0
280
     0
281
     0
  0
CLASS
  1
DICTIONARYVAR
  2
AcDbDictionaryVar
  3
ObjectDBX Classes
 90
        0
280
     0
281
     0
  0
CLASS
  1
ACDBPLACEHOLDER
  2
AcDbPlaceHolder
  3
ObjectDBX Classes
 90
        0
280
     0
281
     0
  0
CLASS
  1
LAYOUT
  2
AcDbLayout
  3
ObjectDBX Classes
 90
        0
280
     0
281
     0
  0
ENDSEC
  0
SECTION
  2
TABLES
  0
TABLE
  2
VPORT
  5
746D
330
0
100
AcDbSymbolTable
 70
     2
  0
VPORT
  5
2C839
330
746D
100
AcDbSymbolTableRecord
100
AcDbViewportTableRecord
  2
*Active
 70
     0
 10
0.0
 20
0.0
 11
1.0
 21
1.0
 12
9850.015631800012
 22
5755.737687086469
 13
0.0
 23
0.0
 14
10.0
 24
10.0
 15
10.0
 25
10.0
 16
0.0
 26
0.0
 36
1.0
 17
0.0
 27
0.0
 37
0.0
 40
11598.2805963755
 41
1.79295154185022
 42
50.0
 43
0.0
 44
0.0
 50
0.0
 51
0.0
 71
     0
 72
     0
 73
     1
 74
     0
 75
     0
 76
     0
 77
     0
 78
     0
281
     0
 65
     1
110
0.0
120
0.0
130
0.0
111
1.0
121
0.0
131
0.0
112
0.0
122
1.0
132
0.0
 79
     0
146
0.0
  0
ENDTAB
  0
TABLE
  2
LTYPE
  5
746A
330
0
100
AcDbSymbolTable
 70
     3
  0
LTYPE
  5
7477
330
746A
100
AcDbSymbolTableRecord
100
AcDbLinetypeTableRecord
  2
BYBLOCK
 70
     0
  3

 72
    65
 73
     0
 40
0.0
  0
LTYPE
  5
7478
330
746A
100
AcDbSymbolTableRecord
100
AcDbLinetypeTableRecord
  2
BYLAYER
 70
     0
  3

 72
    65
 73
     0
 40
0.0
  0
LTYPE
  5
7479
330
746A
100
AcDbSymbolTableRecord
100
AcDbLinetypeTableRecord
  2
CONTINUOUS
 70
     0
  3
Solid line
 72
    65
 73
     0
 40
0.0
  0
LTYPE
  5
7816
330
746A
100
AcDbSymbolTableRecord
100
AcDbLinetypeTableRecord
  2
CENTER
 70
     0
  3
____ _ ____ _ ____ _ ____ _ ____ _ ____ _ ____ 
 72
    65
 73
     4
 40
2.0
 49
1.25
 74
     0
 49
-0.25
 74
     0
 49
0.25
 74
     0
 49
-0.25
 74
     0
  0
LTYPE
  5
781B
330
746A
100
AcDbSymbolTableRecord
100
AcDbLinetypeTableRecord
  2
PHANTOM
 70
     0
  3
______  __  __  ______  __  __  ______  __  __ 
 72
    65
 73
     6
 40
2.5
 49
1.25
 74
     0
 49
-0.25
 74
     0
 49
0.25
 74
     0
 49
-0.25
 74
     0
 49
0.25
 74
     0
 49
-0.25
 74
     0
  0
ENDTAB
  0
TABLE
  2
LAYER
  5
7467
102
{ACAD_XDICTIONARY
360
1758F
102
}
330
0
100
AcDbSymbolTable
 70
    10
  0
LAYER
  5
7474
330
7467
100
AcDbSymbolTableRecord
100
AcDbLayerTableRecord
  2
0
 70
     0
 62
     7
  6
CONTINUOUS
370
    -3
390
173D0
  0
LAYER
  5
DEB2
330
7467
100
AcDbSymbolTableRecord
100
AcDbLayerTableRecord
  2
センター
 70
     0
 62
     3
  6
CENTER
370
    -3
390
173D0
  0
LAYER
  5
DEB3
330
7467
100
AcDbSymbolTableRecord
100
AcDbLayerTableRecord
  2
寸法
 70
     0
 62
     4
  6
CONTINUOUS
370
    -3
390
173D0
  0
LAYER
  5
DEB4
330
7467
100
AcDbSymbolTableRecord
100
AcDbLayerTableRecord
  2
部品1
 70
     0
 62
     7
  6
CONTINUOUS
370
    -3
390
173D0
  0
LAYER
  5
DEB5
330
7467
100
AcDbSymbolTableRecord
100
AcDbLayerTableRecord
  2
補助
 70
     0
 62
    -1
  6
CONTINUOUS
370
    -3
390
173D0
  0
LAYER
  5
DEB6
330
7467
100
AcDbSymbolTableRecord
100
AcDbLayerTableRecord
  2
文字
 70
     0
 62
     7
  6
CONTINUOUS
370
    -3
390
173D0
  0
LAYER
  5
F255
330
7467
100
AcDbSymbolTableRecord
100
AcDbLayerTableRecord
  2
DEFPOINTS
 70
     0
 62
     7
  6
CONTINUOUS
290
     0
370
    -3
390
173D0
  0
LAYER
  5
10B54
330
7467
100
AcDbSymbolTableRecord
100
AcDbLayerTableRecord
  2
仕様書枠
 70
     0
 62
   230
  6
CONTINUOUS
370
    -3
390
173D0
  0
LAYER
  5
1173F
330
7467
100
AcDbSymbolTableRecord
100
AcDbLayerTableRecord
  2
細線
 70
     0
 62
     5
  6
CONTINUOUS
370
    -3
390
173D0
  0
LAYER
  5
12CC4
330
7467
100
AcDbSymbolTableRecord
100
AcDbLayerTableRecord
  2
想像線
 70
     0
 62
     6
  6
PHANTOM
370
    -3
390
173D0
  0
ENDTAB
  0
TABLE
  2
STYLE
  5
7468
330
0
100
AcDbSymbolTable
 70
     4
  0
STYLE
  5
7475
330
7468
100
AcDbSymbolTableRecord
100
AcDbTextStyleTableRecord
  2
STANDARD
 70
     0
 40
0.0
 41
1.0
 50
0.0
 71
     0
 42
4.0
  3
txt
  4
C:\AutoCAD LT\bigfont.shx
  0
STYLE
  5
763C
330
7468
100
AcDbSymbolTableRecord
100
AcDbTextStyleTableRecord
  2
MSMINCHO
 70
     0
 40
0.0
 41
1.0
 50
0.0
 71
     0
 42
1.199999999999999
  3
C:\AutoCAD LT\msminch2.TTF
  4

  0
STYLE
  5
F706
330
7468
100
AcDbSymbolTableRecord
100
AcDbTextStyleTableRecord
  2
STYLE1
 70
     0
 40
0.0
 41
1.0
 50
0.0
 71
     0
 42
4.0
  3
isocp.shx
  4
bigfont.shx
  0
STYLE
  5
103BF
330
7468
100
AcDbSymbolTableRecord
100
AcDbTextStyleTableRecord
  2
STYLE2
 70
     0
 40
0.0
 41
1.0
 50
0.0
 71
     0
 42
100.0
  3
MS PGothic.ttf
  4

1001
ACAD
1000
MS PGothic
1071
    32818
  0
ENDTAB
  0
TABLE
  2
VIEW
  5
746B
330
0
100
AcDbSymbolTable
 70
     0
  0
ENDTAB
  0
TABLE
  2
UCS
  5
746C
330
0
100
AcDbSymbolTable
 70
     0
  0
ENDTAB
  0
TABLE
  2
APPID
  5
746E
330
0
100
AcDbSymbolTable
 70
     6
  0
APPID
  5
7476
330
746E
100
AcDbSymbolTableRecord
100
AcDbRegAppTableRecord
  2
ACAD
 70
     0
  0
APPID
  5
DEA9
330
746E
100
AcDbSymbolTableRecord
100
AcDbRegAppTableRecord
  2
CONTENTBLOCKICON
 70
     0
  0
APPID
  5
DEAA
330
746E
100
AcDbSymbolTableRecord
100
AcDbRegAppTableRecord
  2
CONTENTBLOCKDESCRIPTION
 70
     0
  0
APPID
  5
E71D
330
746E
100
AcDbSymbolTableRecord
100
AcDbRegAppTableRecord
  2
CONTENTTABDATA
 70
     0
  0
APPID
  5
E71E
330
746E
100
AcDbSymbolTableRecord
100
AcDbRegAppTableRecord
  2
CONTENTCURRENTTAB
 70
     0
  0
APPID
  5
F3BA
330
746E
100
AcDbSymbolTableRecord
100
AcDbRegAppTableRecord
  2
DRAWINGVARIABLESXDATA
 70
     0
  0
ENDTAB
  0
TABLE
  2
DIMSTYLE
  5
746F
330
0
100
AcDbSymbolTable
 70
     1
100
AcDbDimStyleTable
 71
     1
340
F71F
  0
DIMSTYLE
105
F71F
102
{ACAD_REACTORS
330
2C4F4
330
2C4F1
330
2C4F0
330
2C4EE
330
2C4EB
330
2C4E8
330
2C4E7
330
2C4E5
330
2C4E4
330
2C4E1
330
2C4E0
330
2C4D3
330
2C4D2
330
2C4D1
330
2C48F
330
2C47A
330
2C478
330
2C472
330
2C3D9
330
2BE96
330
2B134
330
2B133
330
2B132
330
2A558
330
2A548
330
2A52F
330
2A52E
330
2A52D
330
2A529
330
2A528
330
2A524
330
2A4A1
330
2A466
330
2A465
330
2A461
330
2A456
330
2A455
330
2A452
330
2A451
330
2A450
330
2A44F
330
2A233
330
2A231
330
2A1CF
330
2A1CE
330
2A1B7
330
2A1B6
330
2A1B2
330
29997
330
2701E
330
26F7E
330
26F64
330
26F3F
330
26F1A
330
26F00
330
1D2D6
330
1AC2C
330
1AC27
102
}
330
746F
100
AcDbSymbolTableRecord
100
AcDbDimStyleTableRecord
  2
INABA_S40G
 70
     0
 40
40.0
 41
2.5
 42
0.5
 43
7.0
 44
1.5
 73
     0
 74
     0
 77
     3
 78
     8
140
3.0
141
0.0
143
0.0394
147
1.0
172
     1
173
     1
174
     1
178
     7
271
     1
340
F706
341
F770
343
F770
344
F770
  0
ENDTAB
  0
TABLE
  2
BLOCK_RECORD
  5
7466
330
0
100
AcDbSymbolTable
 70
    42
  0
BLOCK_RECORD
  5
747D
330
7466
100
AcDbSymbolTableRecord
100
AcDbBlockTableRecord
  2
*MODEL_SPACE
340
173D5
  0
BLOCK_RECORD
  5
747A
330
7466
100
AcDbSymbolTableRecord
100
AcDbBlockTableRecord
  2
*PAPER_SPACE
340
173D6
  0
BLOCK_RECORD
  5
F770
330
7466
100
AcDbSymbolTableRecord
100
AcDbBlockTableRecord
  2
_DOTSMALL
340
0
102
{BLKREFS
331
2C690
331
2C691
331
2C699
331
2C69A
331
2C6A2
331
2C6A3
331
2C6AB
331
2C6AC
331
2C6B4
331
2C6B5
331
2C6BF
331
2C6C0
331
2C6C8
331
2C6C9
331
2C6D2
331
2C6D3
331
2C6DC
331
2C6DD
331
2C6E5
331
2C6E6
331
2C6EF
331
2C6F0
331
2C6F8
331
2C6F9
331
2C701
331
2C702
331
2C70A
331
2C70B
331
2C713
331
2C714
331
2C71C
331
2C71D
331
2C726
331
2C727
331
2C730
331
2C731
331
2C739
331
2C73A
331
2C742
331
2C743
331
2C74B
331
2C74C
331
2C754
331
2C755
331
2C75E
331
2C75F
331
2C768
331
2C769
331
2C771
331
2C772
331
2C77B
331
2C77C
331
2C784
331
2C785
331
2C78E
331
2C78F
331
2C798
331
2C799
331
2C7A1
331
2C7A2
331
2C7AA
331
2C7AB
331
2C7B3
331
2C7B4
331
2C7BC
331
2C7BD
331
2C7C5
331
2C7C6
331
2C7CE
331
2C7CF
331
2C7D8
331
2C7D9
331
2C7E3
331
2C7E4
331
2C7EE
331
2C7EF
331
2C7F9
331
2C7FA
331
2C804
331
2C805
331
2C80F
331
2C810
102
}
  0
BLOCK_RECORD
  5
26F01
330
7466
100
AcDbSymbolTableRecord
100
AcDbBlockTableRecord
  2
*D1
340
0
  0
BLOCK_RECORD
  5
26F1B
330
7466
100
AcDbSymbolTableRecord
100
AcDbBlockTableRecord
  2
*D2
340
0
  0
BLOCK_RECORD
  5
26F40
330
7466
100
AcDbSymbolTableRecord
100
AcDbBlockTableRecord
  2
*D3
340
0
  0
BLOCK_RECORD
  5
26F65
330
7466
100
AcDbSymbolTableRecord
100
AcDbBlockTableRecord
  2
*D4
340
0
  0
BLOCK_RECORD
  5
26F7F
330
7466
100
AcDbSymbolTableRecord
100
AcDbBlockTableRecord
  2
*D5
340
0
  0
BLOCK_RECORD
  5
2701F
330
7466
100
AcDbSymbolTableRecord
100
AcDbBlockTableRecord
  2
*D6
340
0
  0
BLOCK_RECORD
  5
2A56B
330
7466
100
AcDbSymbolTableRecord
100
AcDbBlockTableRecord
  2
*D7
340
0
  0
BLOCK_RECORD
  5
2A576
330
7466
100
AcDbSymbolTableRecord
100
AcDbBlockTableRecord
  2
*D8
340
0
  0
BLOCK_RECORD
  5
2A581
330
7466
100
AcDbSymbolTableRecord
100
AcDbBlockTableRecord
  2
*D9
340
0
  0
BLOCK_RECORD
  5
2A5A3
330
7466
100
AcDbSymbolTableRecord
100
AcDbBlockTableRecord
  2
*D10
340
0
  0
BLOCK_RECORD
  5
2A5AE
330
7466
100
AcDbSymbolTableRecord
100
AcDbBlockTableRecord
  2
*D11
340
0
  0
BLOCK_RECORD
  5
2A5DB
330
7466
100
AcDbSymbolTableRecord
100
AcDbBlockTableRecord
  2
*D12
340
0
  0
BLOCK_RECORD
  5
2A5F2
330
7466
100
AcDbSymbolTableRecord
100
AcDbBlockTableRecord
  2
*D13
340
0
  0
BLOCK_RECORD
  5
2A60B
330
7466
100
AcDbSymbolTableRecord
100
AcDbBlockTableRecord
  2
*D14
340
0
  0
BLOCK_RECORD
  5
2A618
330
7466
100
AcDbSymbolTableRecord
100
AcDbBlockTableRecord
  2
*D15
340
0
  0
BLOCK_RECORD
  5
2A623
330
7466
100
AcDbSymbolTableRecord
100
AcDbBlockTableRecord
  2
*D16
340
0
  0
BLOCK_RECORD
  5
2A630
330
7466
100
AcDbSymbolTableRecord
100
AcDbBlockTableRecord
  2
*D17
340
0
  0
BLOCK_RECORD
  5
2A646
330
7466
100
AcDbSymbolTableRecord
100
AcDbBlockTableRecord
  2
*D18
340
0
  0
BLOCK_RECORD
  5
2A653
330
7466
100
AcDbSymbolTableRecord
100
AcDbBlockTableRecord
  2
*D19
340
0
  0
BLOCK_RECORD
  5
2A66D
330
7466
100
AcDbSymbolTableRecord
100
AcDbBlockTableRecord
  2
*D20
340
0
  0
BLOCK_RECORD
  5
2A678
330
7466
100
AcDbSymbolTableRecord
100
AcDbBlockTableRecord
  2
*D21
340
0
  0
BLOCK_RECORD
  5
2A684
330
7466
100
AcDbSymbolTableRecord
100
AcDbBlockTableRecord
  2
*D22
340
0
  0
BLOCK_RECORD
  5
2A690
330
7466
100
AcDbSymbolTableRecord
100
AcDbBlockTableRecord
  2
*D23
340
0
  0
BLOCK_RECORD
  5
2A6B5
330
7466
100
AcDbSymbolTableRecord
100
AcDbBlockTableRecord
  2
*D24
340
0
  0
BLOCK_RECORD
  5
2A6CF
330
7466
100
AcDbSymbolTableRecord
100
AcDbBlockTableRecord
  2
*D25
340
0
  0
BLOCK_RECORD
  5
2A6DC
330
7466
100
AcDbSymbolTableRecord
100
AcDbBlockTableRecord
  2
*D26
340
0
  0
BLOCK_RECORD
  5
2A6E8
330
7466
100
AcDbSymbolTableRecord
100
AcDbBlockTableRecord
  2
*D27
340
0
  0
BLOCK_RECORD
  5
2A6F4
330
7466
100
AcDbSymbolTableRecord
100
AcDbBlockTableRecord
  2
*D28
340
0
  0
BLOCK_RECORD
  5
2A700
330
7466
100
AcDbSymbolTableRecord
100
AcDbBlockTableRecord
  2
*D29
340
0
  0
BLOCK_RECORD
  5
2A70B
330
7466
100
AcDbSymbolTableRecord
100
AcDbBlockTableRecord
  2
*D30
340
0
  0
BLOCK_RECORD
  5
2A717
330
7466
100
AcDbSymbolTableRecord
100
AcDbBlockTableRecord
  2
*D31
340
0
  0
BLOCK_RECORD
  5
2B135
330
7466
100
AcDbSymbolTableRecord
100
AcDbBlockTableRecord
  2
*D32
340
0
  0
BLOCK_RECORD
  5
2B142
330
7466
100
AcDbSymbolTableRecord
100
AcDbBlockTableRecord
  2
*D33
340
0
  0
BLOCK_RECORD
  5
2B14F
330
7466
100
AcDbSymbolTableRecord
100
AcDbBlockTableRecord
  2
*D34
340
0
  0
BLOCK_RECORD
  5
2BF3D
330
7466
100
AcDbSymbolTableRecord
100
AcDbBlockTableRecord
  2
*D35
340
0
  0
BLOCK_RECORD
  5
2C4FF
330
7466
100
AcDbSymbolTableRecord
100
AcDbBlockTableRecord
  2
*D36
340
0
  0
BLOCK_RECORD
  5
2C50B
330
7466
100
AcDbSymbolTableRecord
100
AcDbBlockTableRecord
  2
*D37
340
0
  0
BLOCK_RECORD
  5
2C517
330
7466
100
AcDbSymbolTableRecord
100
AcDbBlockTableRecord
  2
*D38
340
0
  0
BLOCK_RECORD
  5
2C523
330
7466
100
AcDbSymbolTableRecord
100
AcDbBlockTableRecord
  2
*D39
340
0
  0
BLOCK_RECORD
  5
2C52F
330
7466
100
AcDbSymbolTableRecord
100
AcDbBlockTableRecord
  2
*D40
340
0
  0
BLOCK_RECORD
  5
2C53D
330
7466
100
AcDbSymbolTableRecord
100
AcDbBlockTableRecord
  2
*D41
340
0
  0
ENDTAB
  0
ENDSEC
  0
SECTION
  2
BLOCKS
  0
BLOCK
  5
7489
330
747D
100
AcDbEntity
  8
0
100
AcDbBlockBegin
  2
*MODEL_SPACE
 70
     0
 10
0.0
 20
0.0
 30
0.0
  3
*MODEL_SPACE
  1

  0
ENDBLK
  5
748A
330
747D
100
AcDbEntity
  8
0
100
AcDbBlockEnd
  0
BLOCK
  5
7487
330
747A
100
AcDbEntity
 67
     1
  8
0
100
AcDbBlockBegin
  2
*PAPER_SPACE
 70
     0
 10
0.0
 20
0.0
 30
0.0
  3
*PAPER_SPACE
  1

  0
ENDBLK
  5
7488
330
747A
100
AcDbEntity
 67
     1
  8
0
100
AcDbBlockEnd
  0
BLOCK
  5
F771
330
F770
100
AcDbEntity
  8
0
 48
50.0
100
AcDbBlockBegin
  2
_DOTSMALL
 70
     0
 10
0.0
 20
0.0
 30
0.0
  3
_DOTSMALL
  1

  0
LWPOLYLINE
  5
F772
330
F770
100
AcDbEntity
  8
0
  6
ByBlock
 62
     0
 48
50.0
100
AcDbPolyline
 90
        2
 70
     1
 43
0.5
 10
-0.0625
 20
0.0
 42
1.0
 10
0.0625
 20
0.0
 42
1.0
  0
ENDBLK
  5
F776
330
F770
100
AcDbEntity
  8
0
 48
50.0
100
AcDbBlockEnd
  0
BLOCK
  5
26F0D
330
26F01
100
AcDbEntity
  8
0
 48
50.0
100
AcDbBlockBegin
  2
*D1
 70
     1
 10
0.0
 20
0.0
 30
0.0
  3
*D1
  1

  0
LINE
  5
2C80A
330
26F01
100
AcDbEntity
  8
寸法
 62
     0
 48
50.0
370
    -2
100
AcDbLine
 10
7796.600000000001
 20
5549.959634355439
 30
0.0
 11
8103.202780124334
 21
5549.959634355439
 31
0.0
  0
LINE
  5
2C80B
330
26F01
100
AcDbEntity
  8
寸法
 62
     0
 48
50.0
370
    -2
100
AcDbLine
 10
7796.600000000009
 20
5624.959634355439
 30
0.0
 11
8103.202780124334
 21
5624.959634355439
 31
0.0
  0
LINE
  5
2C80C
330
26F01
100
AcDbEntity
  8
寸法
 62
     0
 48
50.0
370
    -2
100
AcDbLine
 10
8043.202780124335
 20
5624.959634355439
 30
0.0
 11
8043.202780124335
 21
5724.959634355439
 31
0.0
  0
LINE
  5
2C80D
330
26F01
100
AcDbEntity
  8
寸法
 62
     0
 48
50.0
370
    -2
100
AcDbLine
 10
8043.202780124335
 20
5549.959634355439
 30
0.0
 11
8043.202780124335
 21
4682.989071606961
 31
0.0
  0
LINE
  5
2C80E
330
26F01
100
AcDbEntity
  8
寸法
 62
     0
 48
50.0
370
    -2
100
AcDbLine
 10
8043.202780124335
 20
5624.959634355439
 30
0.0
 11
8043.202780124335
 21
5549.959634355439
 31
0.0
  0
INSERT
  5
2C80F
330
26F01
100
AcDbEntity
  8
寸法
 62
     0
 48
50.0
370
    -2
100
AcDbBlockReference
  2
_DOTSMALL
 10
8043.202780124335
 20
5624.959634355439
 30
0.0
 41
100.0
 42
100.0
 43
100.0
 50
270.0
  0
INSERT
  5
2C810
330
26F01
100
AcDbEntity
  8
寸法
 62
     0
 48
50.0
370
    -2
100
AcDbBlockReference
  2
_DOTSMALL
 10
8043.202780124335
 20
5549.959634355439
 30
0.0
 41
100.0
 42
100.0
 43
100.0
 50
90.0
  0
MTEXT
  5
2C811
330
26F01
100
AcDbEntity
  8
寸法
 62
     7
 48
50.0
100
AcDbMText
 10
7943.202780124334
 20
5016.474352981202
 30
0.0
 40
120.0
 41
0.0
 71
     5
 72
     1
  1
\A1;扉の出75
  7
STYLE1
 11
0.0000000000000001
 21
1.0
 31
0.0
 73
     1
 44
1.0
1001
ACAD
1000
MTEXTBEGIN
1070
    73
1070
     1
1070
    44
1040
1.0
1070
    74
1070
     0
1000
MTEXTEND
  0
POINT
  5
2C812
330
26F01
100
AcDbEntity
  8
DEFPOINTS
 62
     0
 48
50.0
100
AcDbPoint
 10
7776.600000000001
 20
5549.959634355439
 30
0.0
  0
POINT
  5
2C813
330
26F01
100
AcDbEntity
  8
DEFPOINTS
 62
     0
 48
50.0
100
AcDbPoint
 10
7776.600000000009
 20
5624.959634355439
 30
0.0
  0
POINT
  5
2C814
330
26F01
100
AcDbEntity
  8
DEFPOINTS
 62
     0
 48
50.0
100
AcDbPoint
 10
8043.202780124335
 20
5624.959634355439
 30
0.0
  0
ENDBLK
  5
26F0E
330
26F01
100
AcDbEntity
  8
0
 48
50.0
100
AcDbBlockEnd
  0
BLOCK
  5
26F27
330
26F1B
100
AcDbEntity
  8
0
 48
50.0
100
AcDbBlockBegin
  2
*D2
 70
     1
 10
0.0
 20
0.0
 30
0.0
  3
*D2
  1

  0
LINE
  5
2C7FF
330
26F1B
100
AcDbEntity
  8
寸法
 62
     0
 48
50.0
370
    -2
100
AcDbLine
 10
4232.657733986182
 20
8339.959634355421
 30
0.0
 11
3947.164931848215
 21
8339.959634355421
 31
0.0
  0
LINE
  5
2C800
330
26F1B
100
AcDbEntity
  8
寸法
 62
     0
 48
50.0
370
    -2
100
AcDbLine
 10
4728.600000000004
 20
8264.959634355415
 30
0.0
 11
3947.164931848215
 21
8264.959634355417
 31
0.0
  0
LINE
  5
2C801
330
26F1B
100
AcDbEntity
  8
寸法
 62
     0
 48
50.0
370
    -2
100
AcDbLine
 10
4007.164931848214
 20
8339.959634355421
 30
0.0
 11
4007.164931848214
 21
8439.959634355423
 31
0.0
  0
LINE
  5
2C802
330
26F1B
100
AcDbEntity
  8
寸法
 62
     0
 48
50.0
370
    -2
100
AcDbLine
 10
4007.164931848214
 20
8264.959634355417
 30
0.0
 11
4007.164931848214
 21
8164.959634355417
 31
0.0
  0
LINE
  5
2C803
330
26F1B
100
AcDbEntity
  8
寸法
 62
     0
 48
50.0
370
    -2
100
AcDbLine
 10
4007.164931848214
 20
8339.959634355421
 30
0.0
 11
4007.164931848214
 21
8264.959634355417
 31
0.0
  0
INSERT
  5
2C804
330
26F1B
100
AcDbEntity
  8
寸法
 62
     0
 48
50.0
370
    -2
100
AcDbBlockReference
  2
_DOTSMALL
 10
4007.164931848214
 20
8339.959634355421
 30
0.0
 41
100.0
 42
100.0
 43
100.0
 50
270.0
  0
INSERT
  5
2C805
330
26F1B
100
AcDbEntity
  8
寸法
 62
     0
 48
50.0
370
    -2
100
AcDbBlockReference
  2
_DOTSMALL
 10
4007.164931848214
 20
8264.959634355417
 30
0.0
 41
100.0
 42
100.0
 43
100.0
 50
90.0
  0
MTEXT
  5
2C806
330
26F1B
100
AcDbEntity
  8
寸法
 62
     7
 48
50.0
100
AcDbMText
 10
3907.164931848213
 20
8302.45963435542
 30
0.0
 40
120.0
 41
0.0
 71
     5
 72
     1
  1
\A1;c
  7
STYLE1
 11
0.0000000000000001
 21
1.0
 31
0.0
 73
     1
 44
1.0
1001
ACAD
1000
MTEXTBEGIN
1070
    73
1070
     1
1070
    44
1040
1.0
1070
    74
1070
     0
1000
MTEXTEND
  0
POINT
  5
2C807
330
26F1B
100
AcDbEntity
  8
DEFPOINTS
 62
     0
 48
50.0
100
AcDbPoint
 10
4252.657733986182
 20
8339.959634355421
 30
0.0
  0
POINT
  5
2C808
330
26F1B
100
AcDbEntity
  8
DEFPOINTS
 62
     0
 48
50.0
100
AcDbPoint
 10
4748.600000000004
 20
8264.959634355415
 30
0.0
  0
POINT
  5
2C809
330
26F1B
100
AcDbEntity
  8
DEFPOINTS
 62
     0
 48
50.0
100
AcDbPoint
 10
4007.164931848214
 20
8264.959634355417
 30
0.0
  0
ENDBLK
  5
26F28
330
26F1B
100
AcDbEntity
  8
0
 48
50.0
100
AcDbBlockEnd
  0
BLOCK
  5
26F4C
330
26F40
100
AcDbEntity
  8
0
 48
50.0
100
AcDbBlockBegin
  2
*D3
 70
     1
 10
0.0
 20
0.0
 30
0.0
  3
*D3
  1

  0
LINE
  5
2C7F4
330
26F40
100
AcDbEntity
  8
寸法
 62
     0
 48
50.0
370
    -2
100
AcDbLine
 10
4735.050294581424
 20
5624.959634355416
 30
0.0
 11
3947.164931848211
 21
5624.959634355416
 31
0.0
  0
LINE
  5
2C7F5
330
26F40
100
AcDbEntity
  8
寸法
 62
     0
 48
50.0
370
    -2
100
AcDbLine
 10
4232.657733986182
 20
5569.95963435544
 30
0.0
 11
3947.164931848211
 21
5569.95963435544
 31
0.0
  0
LINE
  5
2C7F6
330
26F40
100
AcDbEntity
  8
寸法
 62
     0
 48
50.0
370
    -2
100
AcDbLine
 10
4007.164931848211
 20
5624.959634355416
 30
0.0
 11
4007.164931848211
 21
5724.959634355417
 31
0.0
  0
LINE
  5
2C7F7
330
26F40
100
AcDbEntity
  8
寸法
 62
     0
 48
50.0
370
    -2
100
AcDbLine
 10
4007.164931848211
 20
5569.95963435544
 30
0.0
 11
4007.164931848211
 21
5469.95963435544
 31
0.0
  0
LINE
  5
2C7F8
330
26F40
100
AcDbEntity
  8
寸法
 62
     0
 48
50.0
370
    -2
100
AcDbLine
 10
4007.164931848211
 20
5624.959634355416
 30
0.0
 11
4007.164931848211
 21
5569.95963435544
 31
0.0
  0
INSERT
  5
2C7F9
330
26F40
100
AcDbEntity
  8
寸法
 62
     0
 48
50.0
370
    -2
100
AcDbBlockReference
  2
_DOTSMALL
 10
4007.164931848211
 20
5624.959634355416
 30
0.0
 41
100.0
 42
100.0
 43
100.0
 50
270.0
  0
INSERT
  5
2C7FA
330
26F40
100
AcDbEntity
  8
寸法
 62
     0
 48
50.0
370
    -2
100
AcDbBlockReference
  2
_DOTSMALL
 10
4007.164931848211
 20
5569.95963435544
 30
0.0
 41
100.0
 42
100.0
 43
100.0
 50
90.0
  0
MTEXT
  5
2C7FB
330
26F40
100
AcDbEntity
  8
寸法
 62
     7
 48
50.0
100
AcDbMText
 10
3907.16493184821
 20
5597.45963435543
 30
0.0
 40
120.0
 41
0.0
 71
     5
 72
     1
  1
\A1;b
  7
STYLE1
 11
0.0000000000000001
 21
1.0
 31
0.0
 73
     1
 44
1.0
1001
ACAD
1000
MTEXTBEGIN
1070
    73
1070
     1
1070
    44
1040
1.0
1070
    74
1070
     0
1000
MTEXTEND
  0
POINT
  5
2C7FC
330
26F40
100
AcDbEntity
  8
DEFPOINTS
 62
     0
 48
50.0
100
AcDbPoint
 10
4755.050294581424
 20
5624.959634355416
 30
0.0
  0
POINT
  5
2C7FD
330
26F40
100
AcDbEntity
  8
DEFPOINTS
 62
     0
 48
50.0
100
AcDbPoint
 10
4252.657733986182
 20
5569.95963435544
 30
0.0
  0
POINT
  5
2C7FE
330
26F40
100
AcDbEntity
  8
DEFPOINTS
 62
     0
 48
50.0
100
AcDbPoint
 10
4007.164931848211
 20
5569.95963435544
 30
0.0
  0
ENDBLK
  5
26F4D
330
26F40
100
AcDbEntity
  8
0
 48
50.0
100
AcDbBlockEnd
  0
BLOCK
  5
26F71
330
26F65
100
AcDbEntity
  8
0
 48
50.0
100
AcDbBlockBegin
  2
*D4
 70
     1
 10
0.0
 20
0.0
 30
0.0
  3
*D4
  1

  0
LINE
  5
2C7E9
330
26F65
100
AcDbEntity
  8
寸法
 62
     0
 48
50.0
370
    -2
100
AcDbLine
 10
11698.6
 20
8284.959634355415
 30
0.0
 11
11698.6
 21
9283.179956414336
 31
0.0
  0
LINE
  5
2C7EA
330
26F65
100
AcDbEntity
  8
寸法
 62
     0
 48
50.0
370
    -2
100
AcDbLine
 10
11743.6
 20
9030.7192608975
 30
0.0
 11
11743.6
 21
9283.179956414336
 31
0.0
  0
LINE
  5
2C7EB
330
26F65
100
AcDbEntity
  8
寸法
 62
     0
 48
50.0
370
    -2
100
AcDbLine
 10
11698.6
 20
9223.179956414337
 30
0.0
 11
11598.6
 21
9223.179956414337
 31
0.0
  0
LINE
  5
2C7EC
330
26F65
100
AcDbEntity
  8
寸法
 62
     0
 48
50.0
370
    -2
100
AcDbLine
 10
11743.6
 20
9223.179956414337
 30
0.0
 11
12080.94924240491
 21
9223.179956414337
 31
0.0
  0
LINE
  5
2C7ED
330
26F65
100
AcDbEntity
  8
寸法
 62
     0
 48
50.0
370
    -2
100
AcDbLine
 10
11698.6
 20
9223.179956414337
 30
0.0
 11
11743.6
 21
9223.179956414337
 31
0.0
  0
INSERT
  5
2C7EE
330
26F65
100
AcDbEntity
  8
寸法
 62
     0
 48
50.0
370
    -2
100
AcDbBlockReference
  2
_DOTSMALL
 10
11698.6
 20
9223.179956414337
 30
0.0
 41
100.0
 42
100.0
 43
100.0
  0
INSERT
  5
2C7EF
330
26F65
100
AcDbEntity
  8
寸法
 62
     0
 48
50.0
370
    -2
100
AcDbBlockReference
  2
_DOTSMALL
 10
11743.6
 20
9223.179956414337
 30
0.0
 41
100.0
 42
100.0
 43
100.0
 50
180.0
  0
MTEXT
  5
2C7F0
330
26F65
100
AcDbEntity
  8
寸法
 62
     7
 48
50.0
100
AcDbMText
 10
12014.77462120245
 20
9323.179956414337
 30
0.0
 40
120.0
 41
0.0
 71
     5
 72
     1
  1
\A1;a
  7
STYLE1
 73
     1
 44
1.0
1001
ACAD
1000
MTEXTBEGIN
1070
    73
1070
     1
1070
    44
1040
1.0
1070
    74
1070
     0
1000
MTEXTEND
  0
POINT
  5
2C7F1
330
26F65
100
AcDbEntity
  8
DEFPOINTS
 62
     0
 48
50.0
100
AcDbPoint
 10
11698.6
 20
8264.959634355415
 30
0.0
  0
POINT
  5
2C7F2
330
26F65
100
AcDbEntity
  8
DEFPOINTS
 62
     0
 48
50.0
100
AcDbPoint
 10
11743.6
 20
9010.7192608975
 30
0.0
  0
POINT
  5
2C7F3
330
26F65
100
AcDbEntity
  8
DEFPOINTS
 62
     0
 48
50.0
100
AcDbPoint
 10
11743.6
 20
9223.179956414337
 30
0.0
  0
ENDBLK
  5
26F72
330
26F65
100
AcDbEntity
  8
0
 48
50.0
100
AcDbBlockEnd
  0
BLOCK
  5
26F8B
330
26F7F
100
AcDbEntity
  8
0
 48
50.0
100
AcDbBlockBegin
  2
*D5
 70
     1
 10
0.0
 20
0.0
 30
0.0
  3
*D5
  1

  0
LINE
  5
2C7DE
330
26F7F
100
AcDbEntity
  8
寸法
 62
     0
 48
50.0
370
    -2
100
AcDbLine
 10
4703.600000000005
 20
9030.7192608975
 30
0.0
 11
4703.600000000005
 21
9283.179956414336
 31
0.0
  0
LINE
  5
2C7DF
330
26F7F
100
AcDbEntity
  8
寸法
 62
     0
 48
50.0
370
    -2
100
AcDbLine
 10
4748.6
 20
8284.959634355415
 30
0.0
 11
4748.6
 21
9283.179956414336
 31
0.0
  0
LINE
  5
2C7E0
330
26F7F
100
AcDbEntity
  8
寸法
 62
     0
 48
50.0
370
    -2
100
AcDbLine
 10
4748.6
 20
9223.179956414337
 30
0.0
 11
4848.600000000001
 21
9223.179956414337
 31
0.0
  0
LINE
  5
2C7E1
330
26F7F
100
AcDbEntity
  8
寸法
 62
     0
 48
50.0
370
    -2
100
AcDbLine
 10
4703.600000000005
 20
9223.179956414337
 30
0.0
 11
4366.250757595084
 21
9223.179956414337
 31
0.0
  0
LINE
  5
2C7E2
330
26F7F
100
AcDbEntity
  8
寸法
 62
     0
 48
50.0
370
    -2
100
AcDbLine
 10
4748.6
 20
9223.179956414337
 30
0.0
 11
4703.600000000005
 21
9223.179956414337
 31
0.0
  0
INSERT
  5
2C7E3
330
26F7F
100
AcDbEntity
  8
寸法
 62
     0
 48
50.0
370
    -2
100
AcDbBlockReference
  2
_DOTSMALL
 10
4748.6
 20
9223.179956414337
 30
0.0
 41
100.0
 42
100.0
 43
100.0
 50
180.0
  0
INSERT
  5
2C7E4
330
26F7F
100
AcDbEntity
  8
寸法
 62
     0
 48
50.0
370
    -2
100
AcDbBlockReference
  2
_DOTSMALL
 10
4703.600000000005
 20
9223.179956414337
 30
0.0
 41
100.0
 42
100.0
 43
100.0
  0
MTEXT
  5
2C7E5
330
26F7F
100
AcDbEntity
  8
寸法
 62
     7
 48
50.0
100
AcDbMText
 10
4432.425378797542
 20
9323.179956414337
 30
0.0
 40
120.0
 41
0.0
 71
     5
 72
     1
  1
\A1;a
  7
STYLE1
 73
     1
 44
1.0
1001
ACAD
1000
MTEXTBEGIN
1070
    73
1070
     1
1070
    44
1040
1.0
1070
    74
1070
     0
1000
MTEXTEND
  0
POINT
  5
2C7E6
330
26F7F
100
AcDbEntity
  8
DEFPOINTS
 62
     0
 48
50.0
100
AcDbPoint
 10
4703.600000000005
 20
9010.7192608975
 30
0.0
  0
POINT
  5
2C7E7
330
26F7F
100
AcDbEntity
  8
DEFPOINTS
 62
     0
 48
50.0
100
AcDbPoint
 10
4748.6
 20
8264.959634355415
 30
0.0
  0
POINT
  5
2C7E8
330
26F7F
100
AcDbEntity
  8
DEFPOINTS
 62
     0
 48
50.0
100
AcDbPoint
 10
4748.6
 20
9223.179956414337
 30
0.0
  0
ENDBLK
  5
26F8C
330
26F7F
100
AcDbEntity
  8
0
 48
50.0
100
AcDbBlockEnd
  0
BLOCK
  5
2702B
330
2701F
100
AcDbEntity
  8
0
 48
50.0
100
AcDbBlockBegin
  2
*D6
 70
     1
 10
0.0
 20
0.0
 30
0.0
  3
*D6
  1

  0
LINE
  5
2C7D4
330
2701F
100
AcDbEntity
  8
寸法
 62
     0
 48
50.0
370
    -2
100
AcDbLine
 10
5641.6
 20
5549.959634355428
 30
0.0
 11
5949.18320630424
 21
5549.959634355428
 31
0.0
  0
LINE
  5
2C7D5
330
2701F
100
AcDbEntity
  8
寸法
 62
     0
 48
50.0
370
    -2
100
AcDbLine
 10
5641.6
 20
5744.959634355422
 30
0.0
 11
5949.18320630424
 21
5744.959634355422
 31
0.0
  0
LINE
  5
2C7D6
330
2701F
100
AcDbEntity
  8
寸法
 62
     0
 48
50.0
370
    -2
100
AcDbLine
 10
5889.18320630424
 20
5744.959634355422
 30
0.0
 11
5889.18320630424
 21
5549.959634355428
 31
0.0
  0
LINE
  5
2C7D7
330
2701F
100
AcDbEntity
  8
寸法
 62
     0
 48
50.0
370
    -2
100
AcDbLine
 10
5889.18320630424
 20
5549.959634355428
 30
0.0
 11
5889.18320630424
 21
5172.569751947636
 31
0.0
  0
INSERT
  5
2C7D8
330
2701F
100
AcDbEntity
  8
寸法
 62
     0
 48
50.0
370
    -2
100
AcDbBlockReference
  2
_DOTSMALL
 10
5889.18320630424
 20
5744.959634355422
 30
0.0
 41
100.0
 42
100.0
 43
100.0
 50
90.0
  0
INSERT
  5
2C7D9
330
2701F
100
AcDbEntity
  8
寸法
 62
     0
 48
50.0
370
    -2
100
AcDbBlockReference
  2
_DOTSMALL
 10
5889.18320630424
 20
5549.959634355428
 30
0.0
 41
100.0
 42
100.0
 43
100.0
 50
270.0
  0
MTEXT
  5
2C7DA
330
2701F
100
AcDbEntity
  8
寸法
 62
     7
 48
50.0
100
AcDbMText
 10
5789.183206304239
 20
5311.264693151533
 30
0.0
 40
120.0
 41
0.0
 71
     5
 72
     1
  1
\A1;195
  7
STYLE1
 11
0.0000000000000001
 21
1.0
 31
0.0
 73
     1
 44
1.0
1001
ACAD
1000
MTEXTBEGIN
1070
    73
1070
     1
1070
    44
1040
1.0
1070
    74
1070
     0
1000
MTEXTEND
  0
POINT
  5
2C7DB
330
2701F
100
AcDbEntity
  8
DEFPOINTS
 62
     0
 48
50.0
100
AcDbPoint
 10
5621.6
 20
5549.959634355428
 30
0.0
  0
POINT
  5
2C7DC
330
2701F
100
AcDbEntity
  8
DEFPOINTS
 62
     0
 48
50.0
100
AcDbPoint
 10
5621.6
 20
5744.959634355422
 30
0.0
  0
POINT
  5
2C7DD
330
2701F
100
AcDbEntity
  8
DEFPOINTS
 62
     0
 48
50.0
100
AcDbPoint
 10
5889.18320630424
 20
5744.959634355422
 30
0.0
  0
ENDBLK
  5
2702C
330
2701F
100
AcDbEntity
  8
0
 48
50.0
100
AcDbBlockEnd
  0
BLOCK
  5
2A574
330
2A56B
100
AcDbEntity
  8
0
 48
50.0
100
AcDbBlockBegin
  2
*D7
 70
     1
 10
0.0
 20
0.0
 30
0.0
  3
*D7
  1

  0
LINE
  5
2C7CB
330
2A56B
100
AcDbEntity
  8
寸法
 62
     0
 48
50.0
370
    -2
100
AcDbLine
 10
9126.600000000001
 20
7609.959634355417
 30
0.0
 11
9126.600000000001
 21
8851.869400003746
 31
0.0
  0
LINE
  5
2C7CC
330
2A56B
100
AcDbEntity
  8
寸法
 62
     0
 48
50.0
370
    -2
100
AcDbLine
 10
8223.600000000001
 20
7509.959634355417
 30
0.0
 11
8223.600000000001
 21
8851.869400003746
 31
0.0
  0
LINE
  5
2C7CD
330
2A56B
100
AcDbEntity
  8
寸法
 62
     0
 48
50.0
370
    -2
100
AcDbLine
 10
9126.600000000001
 20
8791.869400003745
 30
0.0
 11
8223.600000000001
 21
8791.869400003745
 31
0.0
  0
INSERT
  5
2C7CE
330
2A56B
100
AcDbEntity
  8
寸法
 62
     0
 48
50.0
370
    -2
100
AcDbBlockReference
  2
_DOTSMALL
 10
9126.600000000001
 20
8791.869400003745
 30
0.0
 41
100.0
 42
100.0
 43
100.0
  0
INSERT
  5
2C7CF
330
2A56B
100
AcDbEntity
  8
寸法
 62
     0
 48
50.0
370
    -2
100
AcDbBlockReference
  2
_DOTSMALL
 10
8223.600000000001
 20
8791.869400003745
 30
0.0
 41
100.0
 42
100.0
 43
100.0
 50
180.0
  0
MTEXT
  5
2C7D0
330
2A56B
100
AcDbEntity
  8
寸法
 62
     7
 48
50.0
100
AcDbMText
 10
8675.1
 20
8891.869400003745
 30
0.0
 40
120.0
 41
0.0
 71
     5
 72
     1
  1
\A1;903
  7
STYLE1
 73
     1
 44
1.0
1001
ACAD
1000
MTEXTBEGIN
1070
    73
1070
     1
1070
    44
1040
1.0
1070
    74
1070
     0
1000
MTEXTEND
  0
POINT
  5
2C7D1
330
2A56B
100
AcDbEntity
  8
DEFPOINTS
 62
     0
 48
50.0
100
AcDbPoint
 10
9126.600000000001
 20
7589.959634355416
 30
0.0
  0
POINT
  5
2C7D2
330
2A56B
100
AcDbEntity
  8
DEFPOINTS
 62
     0
 48
50.0
100
AcDbPoint
 10
8223.600000000001
 20
7489.959634355416
 30
0.0
  0
POINT
  5
2C7D3
330
2A56B
100
AcDbEntity
  8
DEFPOINTS
 62
     0
 48
50.0
100
AcDbPoint
 10
8223.600000000001
 20
8791.869400003745
 30
0.0
  0
ENDBLK
  5
2A575
330
2A56B
100
AcDbEntity
  8
0
 48
50.0
100
AcDbBlockEnd
  0
BLOCK
  5
2A57F
330
2A576
100
AcDbEntity
  8
0
 48
50.0
100
AcDbBlockBegin
  2
*D8
 70
     1
 10
0.0
 20
0.0
 30
0.0
  3
*D8
  1

  0
LINE
  5
2C7C2
330
2A576
100
AcDbEntity
  8
寸法
 62
     0
 48
50.0
370
    -2
100
AcDbLine
 10
11575.6
 20
8211.959634355419
 30
0.0
 11
11575.6
 21
9070.719260897501
 31
0.0
  0
LINE
  5
2C7C3
330
2A576
100
AcDbEntity
  8
寸法
 62
     0
 48
50.0
370
    -2
100
AcDbLine
 10
8105.6
 20
8211.959634355419
 30
0.0
 11
8105.6
 21
9070.719260897501
 31
0.0
  0
LINE
  5
2C7C4
330
2A576
100
AcDbEntity
  8
寸法
 62
     0
 48
50.0
370
    -2
100
AcDbLine
 10
11575.6
 20
9010.7192608975
 30
0.0
 11
8105.6
 21
9010.7192608975
 31
0.0
  0
INSERT
  5
2C7C5
330
2A576
100
AcDbEntity
  8
寸法
 62
     0
 48
50.0
370
    -2
100
AcDbBlockReference
  2
_DOTSMALL
 10
11575.6
 20
9010.7192608975
 30
0.0
 41
100.0
 42
100.0
 43
100.0
  0
INSERT
  5
2C7C6
330
2A576
100
AcDbEntity
  8
寸法
 62
     0
 48
50.0
370
    -2
100
AcDbBlockReference
  2
_DOTSMALL
 10
8105.6
 20
9010.7192608975
 30
0.0
 41
100.0
 42
100.0
 43
100.0
 50
180.0
  0
MTEXT
  5
2C7C7
330
2A576
100
AcDbEntity
  8
寸法
 62
     7
 48
50.0
100
AcDbMText
 10
9840.600000000002
 20
9110.7192608975
 30
0.0
 40
120.0
 41
0.0
 71
     5
 72
     1
  1
\A1;3470
  7
STYLE1
 73
     1
 44
1.0
1001
ACAD
1000
MTEXTBEGIN
1070
    73
1070
     1
1070
    44
1040
1.0
1070
    74
1070
     0
1000
MTEXTEND
  0
POINT
  5
2C7C8
330
2A576
100
AcDbEntity
  8
DEFPOINTS
 62
     0
 48
50.0
100
AcDbPoint
 10
11575.6
 20
8191.959634355418
 30
0.0
  0
POINT
  5
2C7C9
330
2A576
100
AcDbEntity
  8
DEFPOINTS
 62
     0
 48
50.0
100
AcDbPoint
 10
8105.6
 20
8191.959634355418
 30
0.0
  0
POINT
  5
2C7CA
330
2A576
100
AcDbEntity
  8
DEFPOINTS
 62
     0
 48
50.0
100
AcDbPoint
 10
8105.6
 20
9010.7192608975
 30
0.0
  0
ENDBLK
  5
2A580
330
2A576
100
AcDbEntity
  8
0
 48
50.0
100
AcDbBlockEnd
  0
BLOCK
  5
2A58A
330
2A581
100
AcDbEntity
  8
0
 48
50.0
100
AcDbBlockBegin
  2
*D9
 70
     1
 10
0.0
 20
0.0
 30
0.0
  3
*D9
  1

  0
LINE
  5
2C7B9
330
2A581
100
AcDbEntity
  8
寸法
 62
     0
 48
50.0
370
    -2
100
AcDbLine
 10
4748.6
 20
8284.959634355416
 30
0.0
 11
4748.6
 21
9283.179956414336
 31
0.0
  0
LINE
  5
2C7BA
330
2A581
100
AcDbEntity
  8
寸法
 62
     0
 48
50.0
370
    -2
100
AcDbLine
 10
11698.6
 20
8284.959634355416
 30
0.0
 11
11698.6
 21
9283.179956414336
 31
0.0
  0
LINE
  5
2C7BB
330
2A581
100
AcDbEntity
  8
寸法
 62
     0
 48
50.0
370
    -2
100
AcDbLine
 10
4748.6
 20
9223.179956414337
 30
0.0
 11
11698.6
 21
9223.179956414337
 31
0.0
  0
INSERT
  5
2C7BC
330
2A581
100
AcDbEntity
  8
寸法
 62
     0
 48
50.0
370
    -2
100
AcDbBlockReference
  2
_DOTSMALL
 10
4748.6
 20
9223.179956414337
 30
0.0
 41
100.0
 42
100.0
 43
100.0
 50
180.0
  0
INSERT
  5
2C7BD
330
2A581
100
AcDbEntity
  8
寸法
 62
     0
 48
50.0
370
    -2
100
AcDbBlockReference
  2
_DOTSMALL
 10
11698.6
 20
9223.179956414337
 30
0.0
 41
100.0
 42
100.0
 43
100.0
  0
MTEXT
  5
2C7BE
330
2A581
100
AcDbEntity
  8
寸法
 62
     7
 48
50.0
100
AcDbMText
 10
8223.600000000001
 20
9323.179956414337
 30
0.0
 40
120.0
 41
0.0
 71
     5
 72
     1
  1
\A1;6950
  7
STYLE1
 73
     1
 44
1.0
1001
ACAD
1000
MTEXTBEGIN
1070
    73
1070
     1
1070
    44
1040
1.0
1070
    74
1070
     0
1000
MTEXTEND
  0
POINT
  5
2C7BF
330
2A581
100
AcDbEntity
  8
DEFPOINTS
 62
     0
 48
50.0
100
AcDbPoint
 10
4748.6
 20
8264.959634355417
 30
0.0
  0
POINT
  5
2C7C0
330
2A581
100
AcDbEntity
  8
DEFPOINTS
 62
     0
 48
50.0
100
AcDbPoint
 10
11698.6
 20
8264.959634355417
 30
0.0
  0
POINT
  5
2C7C1
330
2A581
100
AcDbEntity
  8
DEFPOINTS
 62
     0
 48
50.0
100
AcDbPoint
 10
11698.6
 20
9223.179956414337
 30
0.0
  0
ENDBLK
  5
2A58B
330
2A581
100
AcDbEntity
  8
0
 48
50.0
100
AcDbBlockEnd
  0
BLOCK
  5
2A5AC
330
2A5A3
100
AcDbEntity
  8
0
 48
50.0
100
AcDbBlockBegin
  2
*D10
 70
     1
 10
0.0
 20
0.0
 30
0.0
  3
*D10
  1

  0
LINE
  5
2C7B0
330
2A5A3
100
AcDbEntity
  8
寸法
 62
     0
 48
50.0
370
    -2
100
AcDbLine
 10
4728.6
 20
8264.959634355417
 30
0.0
 11
3947.164931848212
 21
8264.959634355419
 31
0.0
  0
LINE
  5
2C7B1
330
2A5A3
100
AcDbEntity
  8
寸法
 62
     0
 48
50.0
370
    -2
100
AcDbLine
 10
4728.6
 20
5624.959634355416
 30
0.0
 11
3947.164931848211
 21
5624.959634355416
 31
0.0
  0
LINE
  5
2C7B2
330
2A5A3
100
AcDbEntity
  8
寸法
 62
     0
 48
50.0
370
    -2
100
AcDbLine
 10
4007.164931848211
 20
8264.959634355419
 30
0.0
 11
4007.164931848211
 21
5624.959634355416
 31
0.0
  0
INSERT
  5
2C7B3
330
2A5A3
100
AcDbEntity
  8
寸法
 62
     0
 48
50.0
370
    -2
100
AcDbBlockReference
  2
_DOTSMALL
 10
4007.164931848211
 20
8264.959634355419
 30
0.0
 41
100.0
 42
100.0
 43
100.0
 50
90.0
  0
INSERT
  5
2C7B4
330
2A5A3
100
AcDbEntity
  8
寸法
 62
     0
 48
50.0
370
    -2
100
AcDbBlockReference
  2
_DOTSMALL
 10
4007.164931848211
 20
5624.959634355416
 30
0.0
 41
100.0
 42
100.0
 43
100.0
 50
270.0
  0
MTEXT
  5
2C7B5
330
2A5A3
100
AcDbEntity
  8
寸法
 62
     7
 48
50.0
100
AcDbMText
 10
3907.153120824588
 20
6944.959634355419
 30
0.0
 40
120.0
 41
0.0
 71
     5
 72
     1
  1
\A1;2640
  7
STYLE1
 11
0.0000000000000001
 21
1.0
 31
0.0
 73
     1
 44
1.0
1001
ACAD
1000
MTEXTBEGIN
1070
    73
1070
     1
1070
    44
1040
1.0
1070
    74
1070
     0
1000
MTEXTEND
  0
POINT
  5
2C7B6
330
2A5A3
100
AcDbEntity
  8
DEFPOINTS
 62
     0
 48
50.0
100
AcDbPoint
 10
4748.6
 20
8264.959634355417
 30
0.0
  0
POINT
  5
2C7B7
330
2A5A3
100
AcDbEntity
  8
DEFPOINTS
 62
     0
 48
50.0
100
AcDbPoint
 10
4748.6
 20
5624.959634355416
 30
0.0
  0
POINT
  5
2C7B8
330
2A5A3
100
AcDbEntity
  8
DEFPOINTS
 62
     0
 48
50.0
100
AcDbPoint
 10
4007.164931848211
 20
5624.959634355416
 30
0.0
  0
ENDBLK
  5
2A5AD
330
2A5A3
100
AcDbEntity
  8
0
 48
50.0
100
AcDbBlockEnd
  0
BLOCK
  5
2A5B8
330
2A5AE
100
AcDbEntity
  8
0
 48
50.0
100
AcDbBlockBegin
  2
*D11
 70
     1
 10
0.0
 20
0.0
 30
0.0
  3
*D11
  1

  0
LINE
  5
2C7A7
330
2A5AE
100
AcDbEntity
  8
寸法
 62
     0
 48
50.0
370
    -2
100
AcDbLine
 10
4801.6
 20
8141.959634355417
 30
0.0
 11
4192.657733986179
 21
8141.959634355417
 31
0.0
  0
LINE
  5
2C7A8
330
2A5AE
100
AcDbEntity
  8
寸法
 62
     0
 48
50.0
370
    -2
100
AcDbLine
 10
4801.600000000007
 20
5747.959634355417
 30
0.0
 11
4192.657733986178
 21
5747.959634355417
 31
0.0
  0
LINE
  5
2C7A9
330
2A5AE
100
AcDbEntity
  8
寸法
 62
     0
 48
50.0
370
    -2
100
AcDbLine
 10
4252.657733986178
 20
8141.959634355417
 30
0.0
 11
4252.657733986178
 21
5747.959634355417
 31
0.0
  0
INSERT
  5
2C7AA
330
2A5AE
100
AcDbEntity
  8
寸法
 62
     0
 48
50.0
370
    -2
100
AcDbBlockReference
  2
_DOTSMALL
 10
4252.657733986178
 20
8141.959634355417
 30
0.0
 41
100.0
 42
100.0
 43
100.0
 50
90.0
  0
INSERT
  5
2C7AB
330
2A5AE
100
AcDbEntity
  8
寸法
 62
     0
 48
50.0
370
    -2
100
AcDbBlockReference
  2
_DOTSMALL
 10
4252.657733986178
 20
5747.959634355417
 30
0.0
 41
100.0
 42
100.0
 43
100.0
 50
270.0
  0
MTEXT
  5
2C7AC
330
2A5AE
100
AcDbEntity
  8
寸法
 62
     7
 48
50.0
100
AcDbMText
 10
4152.645922962554
 20
6944.959634355419
 30
0.0
 40
120.0
 41
0.0
 71
     5
 72
     1
  1
\A1;2394
  7
STYLE1
 11
0.0000000000000001
 21
1.0
 31
0.0
 73
     1
 44
1.0
1001
ACAD
1000
MTEXTBEGIN
1070
    73
1070
     1
1070
    44
1040
1.0
1070
    74
1070
     0
1000
MTEXTEND
  0
POINT
  5
2C7AD
330
2A5AE
100
AcDbEntity
  8
DEFPOINTS
 62
     0
 48
50.0
100
AcDbPoint
 10
4821.6
 20
8141.959634355417
 30
0.0
  0
POINT
  5
2C7AE
330
2A5AE
100
AcDbEntity
  8
DEFPOINTS
 62
     0
 48
50.0
100
AcDbPoint
 10
4821.600000000008
 20
5747.959634355417
 30
0.0
  0
POINT
  5
2C7AF
330
2A5AE
100
AcDbEntity
  8
DEFPOINTS
 62
     0
 48
50.0
100
AcDbPoint
 10
4252.657733986178
 20
5747.959634355417
 30
0.0
  0
ENDBLK
  5
2A5B9
330
2A5AE
100
AcDbEntity
  8
0
 48
50.0
100
AcDbBlockEnd
  0
BLOCK
  5
2A5E4
330
2A5DB
100
AcDbEntity
  8
0
 48
50.0
100
AcDbBlockBegin
  2
*D12
 70
     1
 10
0.0
 20
0.0
 30
0.0
  3
*D12
  1

  0
LINE
  5
2C79E
330
2A5DB
100
AcDbEntity
  8
寸法
 62
     0
 48
50.0
370
    -2
100
AcDbLine
 10
5621.6
 20
5529.959634355407
 30
0.0
 11
5621.6
 21
4945.953244700697
 31
0.0
  0
LINE
  5
2C79F
330
2A5DB
100
AcDbEntity
  8
寸法
 62
     0
 48
50.0
370
    -2
100
AcDbLine
 10
4748.6
 20
5604.959634355417
 30
0.0
 11
4748.6
 21
4945.953244700697
 31
0.0
  0
LINE
  5
2C7A0
330
2A5DB
100
AcDbEntity
  8
寸法
 62
     0
 48
50.0
370
    -2
100
AcDbLine
 10
5621.6
 20
5005.953244700697
 30
0.0
 11
4748.6
 21
5005.953244700697
 31
0.0
  0
INSERT
  5
2C7A1
330
2A5DB
100
AcDbEntity
  8
寸法
 62
     0
 48
50.0
370
    -2
100
AcDbBlockReference
  2
_DOTSMALL
 10
5621.6
 20
5005.953244700697
 30
0.0
 41
100.0
 42
100.0
 43
100.0
  0
INSERT
  5
2C7A2
330
2A5DB
100
AcDbEntity
  8
寸法
 62
     0
 48
50.0
370
    -2
100
AcDbBlockReference
  2
_DOTSMALL
 10
4748.6
 20
5005.953244700697
 30
0.0
 41
100.0
 42
100.0
 43
100.0
 50
180.0
  0
MTEXT
  5
2C7A3
330
2A5DB
100
AcDbEntity
  8
寸法
 62
     7
 48
50.0
100
AcDbMText
 10
5185.100000000001
 20
5105.953244700697
 30
0.0
 40
120.0
 41
0.0
 71
     5
 72
     1
  1
\A1;873
  7
STYLE1
 73
     1
 44
1.0
1001
ACAD
1000
MTEXTBEGIN
1070
    73
1070
     1
1070
    44
1040
1.0
1070
    74
1070
     0
1000
MTEXTEND
  0
POINT
  5
2C7A4
330
2A5DB
100
AcDbEntity
  8
DEFPOINTS
 62
     0
 48
50.0
100
AcDbPoint
 10
5621.6
 20
5549.959634355406
 30
0.0
  0
POINT
  5
2C7A5
330
2A5DB
100
AcDbEntity
  8
DEFPOINTS
 62
     0
 48
50.0
100
AcDbPoint
 10
4748.6
 20
5624.959634355416
 30
0.0
  0
POINT
  5
2C7A6
330
2A5DB
100
AcDbEntity
  8
DEFPOINTS
 62
     0
 48
50.0
100
AcDbPoint
 10
4748.6
 20
5005.953244700697
 30
0.0
  0
ENDBLK
  5
2A5E5
330
2A5DB
100
AcDbEntity
  8
0
 48
50.0
100
AcDbBlockEnd
  0
BLOCK
  5
2A5FD
330
2A5F2
100
AcDbEntity
  8
0
 48
50.0
100
AcDbBlockBegin
  2
*D13
 70
     1
 10
0.0
 20
0.0
 30
0.0
  3
*D13
  1

  0
LINE
  5
2C794
330
2A5F2
100
AcDbEntity
  8
寸法
 62
     0
 48
50.0
370
    -2
100
AcDbLine
 10
4801.600000000007
 20
5747.959634355417
 30
0.0
 11
4192.657733986179
 21
5747.959634355417
 31
0.0
  0
LINE
  5
2C795
330
2A5F2
100
AcDbEntity
  8
寸法
 62
     0
 48
50.0
370
    -2
100
AcDbLine
 10
4728.6
 20
5624.959634355416
 30
0.0
 11
4192.657733986179
 21
5624.959634355416
 31
0.0
  0
LINE
  5
2C796
330
2A5F2
100
AcDbEntity
  8
寸法
 62
     0
 48
50.0
370
    -2
100
AcDbLine
 10
4252.657733986178
 20
5747.959634355417
 30
0.0
 11
4252.657733986178
 21
5624.959634355416
 31
0.0
  0
LINE
  5
2C797
330
2A5F2
100
AcDbEntity
  8
寸法
 62
     0
 48
50.0
370
    -2
100
AcDbLine
 10
4252.657733986178
 20
5624.959634355416
 30
0.0
 11
4252.657733986178
 21
5150.943404138585
 31
0.0
  0
INSERT
  5
2C798
330
2A5F2
100
AcDbEntity
  8
寸法
 62
     0
 48
50.0
370
    -2
100
AcDbBlockReference
  2
_DOTSMALL
 10
4252.657733986178
 20
5747.959634355417
 30
0.0
 41
100.0
 42
100.0
 43
100.0
 50
90.0
  0
INSERT
  5
2C799
330
2A5F2
100
AcDbEntity
  8
寸法
 62
     0
 48
50.0
370
    -2
100
AcDbBlockReference
  2
_DOTSMALL
 10
4252.657733986178
 20
5624.959634355416
 30
0.0
 41
100.0
 42
100.0
 43
100.0
 50
270.0
  0
MTEXT
  5
2C79A
330
2A5F2
100
AcDbEntity
  8
寸法
 62
     7
 48
50.0
100
AcDbMText
 10
4152.645922962556
 20
5289.428685512825
 30
0.0
 40
120.0
 41
0.0
 71
     5
 72
     1
  1
\A1;123
  7
STYLE1
 11
0.0000000000000001
 21
1.0
 31
0.0
 73
     1
 44
1.0
1001
ACAD
1000
MTEXTBEGIN
1070
    73
1070
     1
1070
    44
1040
1.0
1070
    74
1070
     0
1000
MTEXTEND
  0
POINT
  5
2C79B
330
2A5F2
100
AcDbEntity
  8
DEFPOINTS
 62
     0
 48
50.0
100
AcDbPoint
 10
4821.600000000008
 20
5747.959634355417
 30
0.0
  0
POINT
  5
2C79C
330
2A5F2
100
AcDbEntity
  8
DEFPOINTS
 62
     0
 48
50.0
100
AcDbPoint
 10
4748.6
 20
5624.959634355416
 30
0.0
  0
POINT
  5
2C79D
330
2A5F2
100
AcDbEntity
  8
DEFPOINTS
 62
     0
 48
50.0
100
AcDbPoint
 10
4252.657733986178
 20
5624.959634355416
 30
0.0
  0
ENDBLK
  5
2A5FE
330
2A5F2
100
AcDbEntity
  8
0
 48
50.0
100
AcDbBlockEnd
  0
BLOCK
  5
2A616
330
2A60B
100
AcDbEntity
  8
0
 48
50.0
100
AcDbBlockBegin
  2
*D14
 70
     1
 10
0.0
 20
0.0
 30
0.0
  3
*D14
  1

  0
LINE
  5
2C78A
330
2A60B
100
AcDbEntity
  8
寸法
 62
     0
 48
50.0
370
    -2
100
AcDbLine
 10
4998.6
 20
8144.959634355416
 30
0.0
 11
5255.3072498761
 21
8144.959634355416
 31
0.0
  0
LINE
  5
2C78B
330
2A60B
100
AcDbEntity
  8
寸法
 62
     0
 48
50.0
370
    -2
100
AcDbLine
 10
4998.600000000003
 20
8264.959634355415
 30
0.0
 11
5255.3072498761
 21
8264.959634355415
 31
0.0
  0
LINE
  5
2C78C
330
2A60B
100
AcDbEntity
  8
寸法
 62
     0
 48
50.0
370
    -2
100
AcDbLine
 10
5195.3072498761
 20
8144.959634355416
 30
0.0
 11
5195.3072498761
 21
8264.959634355415
 31
0.0
  0
LINE
  5
2C78D
330
2A60B
100
AcDbEntity
  8
寸法
 62
     0
 48
50.0
370
    -2
100
AcDbLine
 10
5195.3072498761
 20
8264.959634355415
 30
0.0
 11
5195.3072498761
 21
8679.09042172279
 31
0.0
  0
INSERT
  5
2C78E
330
2A60B
100
AcDbEntity
  8
寸法
 62
     0
 48
50.0
370
    -2
100
AcDbBlockReference
  2
_DOTSMALL
 10
5195.3072498761
 20
8144.959634355416
 30
0.0
 41
100.0
 42
100.0
 43
100.0
 50
270.0
  0
INSERT
  5
2C78F
330
2A60B
100
AcDbEntity
  8
寸法
 62
     0
 48
50.0
370
    -2
100
AcDbBlockReference
  2
_DOTSMALL
 10
5195.3072498761
 20
8264.959634355415
 30
0.0
 41
100.0
 42
100.0
 43
100.0
 50
90.0
  0
MTEXT
  5
2C790
330
2A60B
100
AcDbEntity
  8
寸法
 62
     7
 48
50.0
100
AcDbMText
 10
5095.295438852478
 20
8543.043177628304
 30
0.0
 40
120.0
 41
0.0
 71
     5
 72
     1
  1
\A1;120
  7
STYLE1
 11
0.0000000000000001
 21
1.0
 31
0.0
 73
     1
 44
1.0
1001
ACAD
1000
MTEXTBEGIN
1070
    73
1070
     1
1070
    44
1040
1.0
1070
    74
1070
     0
1000
MTEXTEND
  0
POINT
  5
2C791
330
2A60B
100
AcDbEntity
  8
DEFPOINTS
 62
     0
 48
50.0
100
AcDbPoint
 10
4978.6
 20
8144.959634355416
 30
0.0
  0
POINT
  5
2C792
330
2A60B
100
AcDbEntity
  8
DEFPOINTS
 62
     0
 48
50.0
100
AcDbPoint
 10
4978.600000000002
 20
8264.959634355415
 30
0.0
  0
POINT
  5
2C793
330
2A60B
100
AcDbEntity
  8
DEFPOINTS
 62
     0
 48
50.0
100
AcDbPoint
 10
5195.3072498761
 20
8264.959634355415
 30
0.0
  0
ENDBLK
  5
2A617
330
2A60B
100
AcDbEntity
  8
0
 48
50.0
100
AcDbBlockEnd
  0
BLOCK
  5
2A621
330
2A618
100
AcDbEntity
  8
0
 48
50.0
100
AcDbBlockBegin
  2
*D15
 70
     1
 10
0.0
 20
0.0
 30
0.0
  3
*D15
  1

  0
LINE
  5
2C781
330
2A618
100
AcDbEntity
  8
寸法
 62
     0
 48
50.0
370
    -2
100
AcDbLine
 10
5656.6
 20
7609.959634355417
 30
0.0
 11
5656.6
 21
8851.869400003746
 31
0.0
  0
LINE
  5
2C782
330
2A618
100
AcDbEntity
  8
寸法
 62
     0
 48
50.0
370
    -2
100
AcDbLine
 10
4748.6
 20
8284.959634355416
 30
0.0
 11
4748.6
 21
8851.869400003746
 31
0.0
  0
LINE
  5
2C783
330
2A618
100
AcDbEntity
  8
寸法
 62
     0
 48
50.0
370
    -2
100
AcDbLine
 10
5656.6
 20
8791.869400003745
 30
0.0
 11
4748.6
 21
8791.869400003745
 31
0.0
  0
INSERT
  5
2C784
330
2A618
100
AcDbEntity
  8
寸法
 62
     0
 48
50.0
370
    -2
100
AcDbBlockReference
  2
_DOTSMALL
 10
5656.6
 20
8791.869400003745
 30
0.0
 41
100.0
 42
100.0
 43
100.0
  0
INSERT
  5
2C785
330
2A618
100
AcDbEntity
  8
寸法
 62
     0
 48
50.0
370
    -2
100
AcDbBlockReference
  2
_DOTSMALL
 10
4748.6
 20
8791.869400003745
 30
0.0
 41
100.0
 42
100.0
 43
100.0
 50
180.0
  0
MTEXT
  5
2C786
330
2A618
100
AcDbEntity
  8
寸法
 62
     7
 48
50.0
100
AcDbMText
 10
5202.6
 20
8891.869400003745
 30
0.0
 40
120.0
 41
0.0
 71
     5
 72
     1
  1
\A1;908
  7
STYLE1
 73
     1
 44
1.0
1001
ACAD
1000
MTEXTBEGIN
1070
    73
1070
     1
1070
    44
1040
1.0
1070
    74
1070
     0
1000
MTEXTEND
  0
POINT
  5
2C787
330
2A618
100
AcDbEntity
  8
DEFPOINTS
 62
     0
 48
50.0
100
AcDbPoint
 10
5656.6
 20
7589.959634355416
 30
0.0
  0
POINT
  5
2C788
330
2A618
100
AcDbEntity
  8
DEFPOINTS
 62
     0
 48
50.0
100
AcDbPoint
 10
4748.6
 20
8264.959634355417
 30
0.0
  0
POINT
  5
2C789
330
2A618
100
AcDbEntity
  8
DEFPOINTS
 62
     0
 48
50.0
100
AcDbPoint
 10
4748.6
 20
8791.869400003745
 30
0.0
  0
ENDBLK
  5
2A622
330
2A618
100
AcDbEntity
  8
0
 48
50.0
100
AcDbBlockEnd
  0
BLOCK
  5
2A62E
330
2A623
100
AcDbEntity
  8
0
 48
50.0
100
AcDbBlockBegin
  2
*D16
 70
     1
 10
0.0
 20
0.0
 30
0.0
  3
*D16
  1

  0
LINE
  5
2C777
330
2A623
100
AcDbEntity
  8
寸法
 62
     0
 48
50.0
370
    -2
100
AcDbLine
 10
4998.6
 20
8144.959634355418
 30
0.0
 11
5255.3072498761
 21
8144.959634355418
 31
0.0
  0
LINE
  5
2C778
330
2A623
100
AcDbEntity
  8
寸法
 62
     0
 48
50.0
370
    -2
100
AcDbLine
 10
4998.6
 20
8034.959634355413
 30
0.0
 11
5255.3072498761
 21
8034.959634355413
 31
0.0
  0
LINE
  5
2C779
330
2A623
100
AcDbEntity
  8
寸法
 62
     0
 48
50.0
370
    -2
100
AcDbLine
 10
5195.3072498761
 20
8144.959634355418
 30
0.0
 11
5195.3072498761
 21
8034.959634355413
 31
0.0
  0
LINE
  5
2C77A
330
2A623
100
AcDbEntity
  8
寸法
 62
     0
 48
50.0
370
    -2
100
AcDbLine
 10
5195.3072498761
 20
8034.959634355413
 30
0.0
 11
5195.3072498761
 21
7570.853335142816
 31
0.0
  0
INSERT
  5
2C77B
330
2A623
100
AcDbEntity
  8
寸法
 62
     0
 48
50.0
370
    -2
100
AcDbBlockReference
  2
_DOTSMALL
 10
5195.3072498761
 20
8144.959634355418
 30
0.0
 41
100.0
 42
100.0
 43
100.0
 50
90.0
  0
INSERT
  5
2C77C
330
2A623
100
AcDbEntity
  8
寸法
 62
     0
 48
50.0
370
    -2
100
AcDbBlockReference
  2
_DOTSMALL
 10
5195.3072498761
 20
8034.959634355413
 30
0.0
 41
100.0
 42
100.0
 43
100.0
 50
270.0
  0
MTEXT
  5
2C77D
330
2A623
100
AcDbEntity
  8
寸法
 62
     7
 48
50.0
100
AcDbMText
 10
5095.3072498761
 20
7694.900579237304
 30
0.0
 40
120.0
 41
0.0
 71
     5
 72
     1
  1
\A1;110
  7
STYLE1
 11
0.0000000000000001
 21
1.0
 31
0.0
 73
     1
 44
1.0
1001
ACAD
1000
MTEXTBEGIN
1070
    73
1070
     1
1070
    44
1040
1.0
1070
    74
1070
     0
1000
MTEXTEND
  0
POINT
  5
2C77E
330
2A623
100
AcDbEntity
  8
DEFPOINTS
 62
     0
 48
50.0
100
AcDbPoint
 10
4978.6
 20
8144.959634355418
 30
0.0
  0
POINT
  5
2C77F
330
2A623
100
AcDbEntity
  8
DEFPOINTS
 62
     0
 48
50.0
100
AcDbPoint
 10
4978.6
 20
8034.959634355413
 30
0.0
  0
POINT
  5
2C780
330
2A623
100
AcDbEntity
  8
DEFPOINTS
 62
     0
 48
50.0
100
AcDbPoint
 10
5195.3072498761
 20
8034.959634355413
 30
0.0
  0
ENDBLK
  5
2A62F
330
2A623
100
AcDbEntity
  8
0
 48
50.0
100
AcDbBlockEnd
  0
BLOCK
  5
2A63A
330
2A630
100
AcDbEntity
  8
0
 48
50.0
100
AcDbBlockBegin
  2
*D17
 70
     1
 10
0.0
 20
0.0
 30
0.0
  3
*D17
  1

  0
LINE
  5
2C76E
330
2A630
100
AcDbEntity
  8
寸法
 62
     0
 48
50.0
370
    -2
100
AcDbLine
 10
8105.6
 20
8211.959634355419
 30
0.0
 11
8105.6
 21
9070.719260897501
 31
0.0
  0
LINE
  5
2C76F
330
2A630
100
AcDbEntity
  8
寸法
 62
     0
 48
50.0
370
    -2
100
AcDbLine
 10
4871.6
 20
8211.959634355419
 30
0.0
 11
4871.6
 21
9070.719260897501
 31
0.0
  0
LINE
  5
2C770
330
2A630
100
AcDbEntity
  8
寸法
 62
     0
 48
50.0
370
    -2
100
AcDbLine
 10
8105.6
 20
9010.7192608975
 30
0.0
 11
4871.6
 21
9010.7192608975
 31
0.0
  0
INSERT
  5
2C771
330
2A630
100
AcDbEntity
  8
寸法
 62
     0
 48
50.0
370
    -2
100
AcDbBlockReference
  2
_DOTSMALL
 10
8105.6
 20
9010.7192608975
 30
0.0
 41
100.0
 42
100.0
 43
100.0
  0
INSERT
  5
2C772
330
2A630
100
AcDbEntity
  8
寸法
 62
     0
 48
50.0
370
    -2
100
AcDbBlockReference
  2
_DOTSMALL
 10
4871.6
 20
9010.7192608975
 30
0.0
 41
100.0
 42
100.0
 43
100.0
 50
180.0
  0
MTEXT
  5
2C773
330
2A630
100
AcDbEntity
  8
寸法
 62
     7
 48
50.0
100
AcDbMText
 10
6488.600000000001
 20
9110.73107192112
 30
0.0
 40
120.0
 41
0.0
 71
     5
 72
     1
  1
\A1;3234
  7
STYLE1
 73
     1
 44
1.0
1001
ACAD
1000
MTEXTBEGIN
1070
    73
1070
     1
1070
    44
1040
1.0
1070
    74
1070
     0
1000
MTEXTEND
  0
POINT
  5
2C774
330
2A630
100
AcDbEntity
  8
DEFPOINTS
 62
     0
 48
50.0
100
AcDbPoint
 10
8105.6
 20
8191.959634355418
 30
0.0
  0
POINT
  5
2C775
330
2A630
100
AcDbEntity
  8
DEFPOINTS
 62
     0
 48
50.0
100
AcDbPoint
 10
4871.6
 20
8191.959634355418
 30
0.0
  0
POINT
  5
2C776
330
2A630
100
AcDbEntity
  8
DEFPOINTS
 62
     0
 48
50.0
100
AcDbPoint
 10
4871.6
 20
9010.7192608975
 30
0.0
  0
ENDBLK
  5
2A63B
330
2A630
100
AcDbEntity
  8
0
 48
50.0
100
AcDbBlockEnd
  0
BLOCK
  5
2A651
330
2A646
100
AcDbEntity
  8
0
 48
50.0
100
AcDbBlockBegin
  2
*D18
 70
     1
 10
0.0
 20
0.0
 30
0.0
  3
*D18
  1

  0
LINE
  5
2C764
330
2A646
100
AcDbEntity
  8
寸法
 62
     0
 48
50.0
370
    -2
100
AcDbLine
 10
4728.6
 20
8264.959634355417
 30
0.0
 11
4192.657733986179
 21
8264.959634355417
 31
0.0
  0
LINE
  5
2C765
330
2A646
100
AcDbEntity
  8
寸法
 62
     0
 48
50.0
370
    -2
100
AcDbLine
 10
4801.6
 20
8141.959634355417
 30
0.0
 11
4192.657733986179
 21
8141.959634355417
 31
0.0
  0
LINE
  5
2C766
330
2A646
100
AcDbEntity
  8
寸法
 62
     0
 48
50.0
370
    -2
100
AcDbLine
 10
4252.657733986178
 20
8141.959634355417
 30
0.0
 11
4252.657733986178
 21
8264.959634355417
 31
0.0
  0
LINE
  5
2C767
330
2A646
100
AcDbEntity
  8
寸法
 62
     0
 48
50.0
370
    -2
100
AcDbLine
 10
4252.657733986178
 20
8264.959634355417
 30
0.0
 11
4252.657733986178
 21
8676.551517447455
 31
0.0
  0
INSERT
  5
2C768
330
2A646
100
AcDbEntity
  8
寸法
 62
     0
 48
50.0
370
    -2
100
AcDbBlockReference
  2
_DOTSMALL
 10
4252.657733986178
 20
8141.959634355417
 30
0.0
 41
100.0
 42
100.0
 43
100.0
 50
270.0
  0
INSERT
  5
2C769
330
2A646
100
AcDbEntity
  8
寸法
 62
     0
 48
50.0
370
    -2
100
AcDbBlockReference
  2
_DOTSMALL
 10
4252.657733986178
 20
8264.959634355417
 30
0.0
 41
100.0
 42
100.0
 43
100.0
 50
90.0
  0
MTEXT
  5
2C76A
330
2A646
100
AcDbEntity
  8
寸法
 62
     7
 48
50.0
100
AcDbMText
 10
4152.645922962556
 20
8538.066236073218
 30
0.0
 40
120.0
 41
0.0
 71
     5
 72
     1
  1
\A1;123
  7
STYLE1
 11
0.0000000000000001
 21
1.0
 31
0.0
 73
     1
 44
1.0
1001
ACAD
1000
MTEXTBEGIN
1070
    73
1070
     1
1070
    44
1040
1.0
1070
    74
1070
     0
1000
MTEXTEND
  0
POINT
  5
2C76B
330
2A646
100
AcDbEntity
  8
DEFPOINTS
 62
     0
 48
50.0
100
AcDbPoint
 10
4748.6
 20
8264.959634355417
 30
0.0
  0
POINT
  5
2C76C
330
2A646
100
AcDbEntity
  8
DEFPOINTS
 62
     0
 48
50.0
100
AcDbPoint
 10
4821.6
 20
8141.959634355417
 30
0.0
  0
POINT
  5
2C76D
330
2A646
100
AcDbEntity
  8
DEFPOINTS
 62
     0
 48
50.0
100
AcDbPoint
 10
4252.657733986178
 20
8141.959634355417
 30
0.0
  0
ENDBLK
  5
2A652
330
2A646
100
AcDbEntity
  8
0
 48
50.0
100
AcDbBlockEnd
  0
BLOCK
  5
2A65E
330
2A653
100
AcDbEntity
  8
0
 48
50.0
100
AcDbBlockBegin
  2
*D19
 70
     1
 10
0.0
 20
0.0
 30
0.0
  3
*D19
  1

  0
LINE
  5
2C75A
330
2A653
100
AcDbEntity
  8
寸法
 62
     0
 48
50.0
370
    -2
100
AcDbLine
 10
4871.6
 20
8211.959634355419
 30
0.0
 11
4871.6
 21
9070.719260897501
 31
0.0
  0
LINE
  5
2C75B
330
2A653
100
AcDbEntity
  8
寸法
 62
     0
 48
50.0
370
    -2
100
AcDbLine
 10
4748.6
 20
8284.959634355416
 30
0.0
 11
4748.6
 21
9070.719260897501
 31
0.0
  0
LINE
  5
2C75C
330
2A653
100
AcDbEntity
  8
寸法
 62
     0
 48
50.0
370
    -2
100
AcDbLine
 10
4871.6
 20
9010.7192608975
 30
0.0
 11
4748.6
 21
9010.7192608975
 31
0.0
  0
LINE
  5
2C75D
330
2A653
100
AcDbEntity
  8
寸法
 62
     0
 48
50.0
370
    -2
100
AcDbLine
 10
4748.6
 20
9010.7192608975
 30
0.0
 11
4337.008116907963
 21
9010.7192608975
 31
0.0
  0
INSERT
  5
2C75E
330
2A653
100
AcDbEntity
  8
寸法
 62
     0
 48
50.0
370
    -2
100
AcDbBlockReference
  2
_DOTSMALL
 10
4871.6
 20
9010.7192608975
 30
0.0
 41
100.0
 42
100.0
 43
100.0
  0
INSERT
  5
2C75F
330
2A653
100
AcDbEntity
  8
寸法
 62
     0
 48
50.0
370
    -2
100
AcDbBlockReference
  2
_DOTSMALL
 10
4748.6
 20
9010.7192608975
 30
0.0
 41
100.0
 42
100.0
 43
100.0
 50
180.0
  0
MTEXT
  5
2C760
330
2A653
100
AcDbEntity
  8
寸法
 62
     7
 48
50.0
100
AcDbMText
 10
4475.493398282202
 20
9110.73107192112
 30
0.0
 40
120.0
 41
0.0
 71
     5
 72
     1
  1
\A1;123
  7
STYLE1
 73
     1
 44
1.0
1001
ACAD
1000
MTEXTBEGIN
1070
    73
1070
     1
1070
    44
1040
1.0
1070
    74
1070
     0
1000
MTEXTEND
  0
POINT
  5
2C761
330
2A653
100
AcDbEntity
  8
DEFPOINTS
 62
     0
 48
50.0
100
AcDbPoint
 10
4871.6
 20
8191.959634355418
 30
0.0
  0
POINT
  5
2C762
330
2A653
100
AcDbEntity
  8
DEFPOINTS
 62
     0
 48
50.0
100
AcDbPoint
 10
4748.6
 20
8264.959634355417
 30
0.0
  0
POINT
  5
2C763
330
2A653
100
AcDbEntity
  8
DEFPOINTS
 62
     0
 48
50.0
100
AcDbPoint
 10
4748.6
 20
9010.7192608975
 30
0.0
  0
ENDBLK
  5
2A65F
330
2A653
100
AcDbEntity
  8
0
 48
50.0
100
AcDbBlockEnd
  0
BLOCK
  5
2A676
330
2A66D
100
AcDbEntity
  8
0
 48
50.0
100
AcDbBlockBegin
  2
*D20
 70
     1
 10
0.0
 20
0.0
 30
0.0
  3
*D20
  1

  0
LINE
  5
2C751
330
2A66D
100
AcDbEntity
  8
寸法
 62
     0
 48
50.0
370
    -2
100
AcDbLine
 10
8223.600000000001
 20
7509.959634355417
 30
0.0
 11
8223.600000000001
 21
8851.869400003746
 31
0.0
  0
LINE
  5
2C752
330
2A66D
100
AcDbEntity
  8
寸法
 62
     0
 48
50.0
370
    -2
100
AcDbLine
 10
7320.6
 20
7609.959634355417
 30
0.0
 11
7320.6
 21
8851.869400003746
 31
0.0
  0
LINE
  5
2C753
330
2A66D
100
AcDbEntity
  8
寸法
 62
     0
 48
50.0
370
    -2
100
AcDbLine
 10
8223.600000000001
 20
8791.869400003745
 30
0.0
 11
7320.6
 21
8791.869400003745
 31
0.0
  0
INSERT
  5
2C754
330
2A66D
100
AcDbEntity
  8
寸法
 62
     0
 48
50.0
370
    -2
100
AcDbBlockReference
  2
_DOTSMALL
 10
8223.600000000001
 20
8791.869400003745
 30
0.0
 41
100.0
 42
100.0
 43
100.0
  0
INSERT
  5
2C755
330
2A66D
100
AcDbEntity
  8
寸法
 62
     0
 48
50.0
370
    -2
100
AcDbBlockReference
  2
_DOTSMALL
 10
7320.6
 20
8791.869400003745
 30
0.0
 41
100.0
 42
100.0
 43
100.0
 50
180.0
  0
MTEXT
  5
2C756
330
2A66D
100
AcDbEntity
  8
寸法
 62
     7
 48
50.0
100
AcDbMText
 10
7772.1
 20
8891.869400003745
 30
0.0
 40
120.0
 41
0.0
 71
     5
 72
     1
  1
\A1;903
  7
STYLE1
 73
     1
 44
1.0
1001
ACAD
1000
MTEXTBEGIN
1070
    73
1070
     1
1070
    44
1040
1.0
1070
    74
1070
     0
1000
MTEXTEND
  0
POINT
  5
2C757
330
2A66D
100
AcDbEntity
  8
DEFPOINTS
 62
     0
 48
50.0
100
AcDbPoint
 10
8223.600000000001
 20
7489.959634355416
 30
0.0
  0
POINT
  5
2C758
330
2A66D
100
AcDbEntity
  8
DEFPOINTS
 62
     0
 48
50.0
100
AcDbPoint
 10
7320.6
 20
7589.959634355416
 30
0.0
  0
POINT
  5
2C759
330
2A66D
100
AcDbEntity
  8
DEFPOINTS
 62
     0
 48
50.0
100
AcDbPoint
 10
7320.6
 20
8791.869400003745
 30
0.0
  0
ENDBLK
  5
2A677
330
2A66D
100
AcDbEntity
  8
0
 48
50.0
100
AcDbBlockEnd
  0
BLOCK
  5
2A682
330
2A678
100
AcDbEntity
  8
0
 48
50.0
100
AcDbBlockBegin
  2
*D21
 70
     1
 10
0.0
 20
0.0
 30
0.0
  3
*D21
  1

  0
LINE
  5
2C748
330
2A678
100
AcDbEntity
  8
寸法
 62
     0
 48
50.0
370
    -2
100
AcDbLine
 10
6488.600000000001
 20
7609.959634355417
 30
0.0
 11
6488.600000000001
 21
8851.869400003746
 31
0.0
  0
LINE
  5
2C749
330
2A678
100
AcDbEntity
  8
寸法
 62
     0
 48
50.0
370
    -2
100
AcDbLine
 10
5656.6
 20
7609.959634355417
 30
0.0
 11
5656.6
 21
8851.869400003746
 31
0.0
  0
LINE
  5
2C74A
330
2A678
100
AcDbEntity
  8
寸法
 62
     0
 48
50.0
370
    -2
100
AcDbLine
 10
6488.600000000001
 20
8791.869400003745
 30
0.0
 11
5656.6
 21
8791.869400003745
 31
0.0
  0
INSERT
  5
2C74B
330
2A678
100
AcDbEntity
  8
寸法
 62
     0
 48
50.0
370
    -2
100
AcDbBlockReference
  2
_DOTSMALL
 10
6488.600000000001
 20
8791.869400003745
 30
0.0
 41
100.0
 42
100.0
 43
100.0
  0
INSERT
  5
2C74C
330
2A678
100
AcDbEntity
  8
寸法
 62
     0
 48
50.0
370
    -2
100
AcDbBlockReference
  2
_DOTSMALL
 10
5656.6
 20
8791.869400003745
 30
0.0
 41
100.0
 42
100.0
 43
100.0
 50
180.0
  0
MTEXT
  5
2C74D
330
2A678
100
AcDbEntity
  8
寸法
 62
     7
 48
50.0
100
AcDbMText
 10
6072.600000000001
 20
8891.881211027365
 30
0.0
 40
120.0
 41
0.0
 71
     5
 72
     1
  1
\A1;832
  7
STYLE1
 73
     1
 44
1.0
1001
ACAD
1000
MTEXTBEGIN
1070
    73
1070
     1
1070
    44
1040
1.0
1070
    74
1070
     0
1000
MTEXTEND
  0
POINT
  5
2C74E
330
2A678
100
AcDbEntity
  8
DEFPOINTS
 62
     0
 48
50.0
100
AcDbPoint
 10
6488.600000000001
 20
7589.959634355416
 30
0.0
  0
POINT
  5
2C74F
330
2A678
100
AcDbEntity
  8
DEFPOINTS
 62
     0
 48
50.0
100
AcDbPoint
 10
5656.6
 20
7589.959634355416
 30
0.0
  0
POINT
  5
2C750
330
2A678
100
AcDbEntity
  8
DEFPOINTS
 62
     0
 48
50.0
100
AcDbPoint
 10
5656.6
 20
8791.869400003745
 30
0.0
  0
ENDBLK
  5
2A683
330
2A678
100
AcDbEntity
  8
0
 48
50.0
100
AcDbBlockEnd
  0
BLOCK
  5
2A68E
330
2A684
100
AcDbEntity
  8
0
 48
50.0
100
AcDbBlockBegin
  2
*D22
 70
     1
 10
0.0
 20
0.0
 30
0.0
  3
*D22
  1

  0
LINE
  5
2C73F
330
2A684
100
AcDbEntity
  8
寸法
 62
     0
 48
50.0
370
    -2
100
AcDbLine
 10
7320.6
 20
7609.959634355417
 30
0.0
 11
7320.6
 21
8851.869400003746
 31
0.0
  0
LINE
  5
2C740
330
2A684
100
AcDbEntity
  8
寸法
 62
     0
 48
50.0
370
    -2
100
AcDbLine
 10
6488.600000000001
 20
7609.959634355417
 30
0.0
 11
6488.600000000001
 21
8851.869400003746
 31
0.0
  0
LINE
  5
2C741
330
2A684
100
AcDbEntity
  8
寸法
 62
     0
 48
50.0
370
    -2
100
AcDbLine
 10
7320.6
 20
8791.869400003745
 30
0.0
 11
6488.600000000001
 21
8791.869400003745
 31
0.0
  0
INSERT
  5
2C742
330
2A684
100
AcDbEntity
  8
寸法
 62
     0
 48
50.0
370
    -2
100
AcDbBlockReference
  2
_DOTSMALL
 10
7320.6
 20
8791.869400003745
 30
0.0
 41
100.0
 42
100.0
 43
100.0
  0
INSERT
  5
2C743
330
2A684
100
AcDbEntity
  8
寸法
 62
     0
 48
50.0
370
    -2
100
AcDbBlockReference
  2
_DOTSMALL
 10
6488.600000000001
 20
8791.869400003745
 30
0.0
 41
100.0
 42
100.0
 43
100.0
 50
180.0
  0
MTEXT
  5
2C744
330
2A684
100
AcDbEntity
  8
寸法
 62
     7
 48
50.0
100
AcDbMText
 10
6904.600000000001
 20
8891.881211027365
 30
0.0
 40
120.0
 41
0.0
 71
     5
 72
     1
  1
\A1;832
  7
STYLE1
 73
     1
 44
1.0
1001
ACAD
1000
MTEXTBEGIN
1070
    73
1070
     1
1070
    44
1040
1.0
1070
    74
1070
     0
1000
MTEXTEND
  0
POINT
  5
2C745
330
2A684
100
AcDbEntity
  8
DEFPOINTS
 62
     0
 48
50.0
100
AcDbPoint
 10
7320.6
 20
7589.959634355416
 30
0.0
  0
POINT
  5
2C746
330
2A684
100
AcDbEntity
  8
DEFPOINTS
 62
     0
 48
50.0
100
AcDbPoint
 10
6488.600000000001
 20
7589.959634355416
 30
0.0
  0
POINT
  5
2C747
330
2A684
100
AcDbEntity
  8
DEFPOINTS
 62
     0
 48
50.0
100
AcDbPoint
 10
6488.600000000001
 20
8791.869400003745
 30
0.0
  0
ENDBLK
  5
2A68F
330
2A684
100
AcDbEntity
  8
0
 48
50.0
100
AcDbBlockEnd
  0
BLOCK
  5
2A69A
330
2A690
100
AcDbEntity
  8
0
 48
50.0
100
AcDbBlockBegin
  2
*D23
 70
     1
 10
0.0
 20
0.0
 30
0.0
  3
*D23
  1

  0
LINE
  5
2C736
330
2A690
100
AcDbEntity
  8
寸法
 62
     0
 48
50.0
370
    -2
100
AcDbLine
 10
10244.04593925956
 20
5624.959634355425
 30
0.0
 11
10538.85510029273
 21
5624.959634355425
 31
0.0
  0
LINE
  5
2C737
330
2A690
100
AcDbEntity
  8
寸法
 62
     0
 48
50.0
370
    -2
100
AcDbLine
 10
10670.6
 20
6499.959634355417
 30
0.0
 11
10418.85510029273
 21
6499.959634355417
 31
0.0
  0
LINE
  5
2C738
330
2A690
100
AcDbEntity
  8
寸法
 62
     0
 48
50.0
370
    -2
100
AcDbLine
 10
10478.85510029273
 20
5624.959634355425
 30
0.0
 11
10478.85510029273
 21
6499.959634355417
 31
0.0
  0
INSERT
  5
2C739
330
2A690
100
AcDbEntity
  8
寸法
 62
     0
 48
50.0
370
    -2
100
AcDbBlockReference
  2
_DOTSMALL
 10
10478.85510029273
 20
5624.959634355425
 30
0.0
 41
100.0
 42
100.0
 43
100.0
 50
270.0
  0
INSERT
  5
2C73A
330
2A690
100
AcDbEntity
  8
寸法
 62
     0
 48
50.0
370
    -2
100
AcDbBlockReference
  2
_DOTSMALL
 10
10478.85510029273
 20
6499.959634355417
 30
0.0
 41
100.0
 42
100.0
 43
100.0
 50
90.0
  0
MTEXT
  5
2C73B
330
2A690
100
AcDbEntity
  8
寸法
 62
     7
 48
50.0
100
AcDbMText
 10
10378.85510029272
 20
6062.459634355423
 30
0.0
 40
120.0
 41
0.0
 71
     5
 72
     1
  1
\A1;875
  7
STYLE1
 11
0.0000000000000001
 21
1.0
 31
0.0
 73
     1
 44
1.0
1001
ACAD
1000
MTEXTBEGIN
1070
    73
1070
     1
1070
    44
1040
1.0
1070
    74
1070
     0
1000
MTEXTEND
  0
POINT
  5
2C73C
330
2A690
100
AcDbEntity
  8
DEFPOINTS
 62
     0
 48
50.0
100
AcDbPoint
 10
10224.04593925956
 20
5624.959634355426
 30
0.0
  0
POINT
  5
2C73D
330
2A690
100
AcDbEntity
  8
DEFPOINTS
 62
     0
 48
50.0
100
AcDbPoint
 10
10690.6
 20
6499.959634355417
 30
0.0
  0
POINT
  5
2C73E
330
2A690
100
AcDbEntity
  8
DEFPOINTS
 62
     0
 48
50.0
100
AcDbPoint
 10
10478.85510029273
 20
6499.959634355417
 30
0.0
  0
ENDBLK
  5
2A69B
330
2A690
100
AcDbEntity
  8
0
 48
50.0
100
AcDbBlockEnd
  0
BLOCK
  5
2A6C0
330
2A6B5
100
AcDbEntity
  8
0
 48
50.0
100
AcDbBlockBegin
  2
*D24
 70
     1
 10
0.0
 20
0.0
 30
0.0
  3
*D24
  1

  0
LINE
  5
2C72C
330
2A6B5
100
AcDbEntity
  8
寸法
 62
     0
 48
50.0
370
    -2
100
AcDbLine
 10
11698.6
 20
8284.959634355416
 30
0.0
 11
11698.6
 21
9070.719260897501
 31
0.0
  0
LINE
  5
2C72D
330
2A6B5
100
AcDbEntity
  8
寸法
 62
     0
 48
50.0
370
    -2
100
AcDbLine
 10
11575.6
 20
8211.959634355419
 30
0.0
 11
11575.6
 21
9070.719260897501
 31
0.0
  0
LINE
  5
2C72E
330
2A6B5
100
AcDbEntity
  8
寸法
 62
     0
 48
50.0
370
    -2
100
AcDbLine
 10
11575.6
 20
9010.7192608975
 30
0.0
 11
11698.6
 21
9010.7192608975
 31
0.0
  0
LINE
  5
2C72F
330
2A6B5
100
AcDbEntity
  8
寸法
 62
     0
 48
50.0
370
    -2
100
AcDbLine
 10
11698.6
 20
9010.7192608975
 30
0.0
 11
12110.19188309204
 21
9010.7192608975
 31
0.0
  0
INSERT
  5
2C730
330
2A6B5
100
AcDbEntity
  8
寸法
 62
     0
 48
50.0
370
    -2
100
AcDbBlockReference
  2
_DOTSMALL
 10
11575.6
 20
9010.7192608975
 30
0.0
 41
100.0
 42
100.0
 43
100.0
 50
180.0
  0
INSERT
  5
2C731
330
2A6B5
100
AcDbEntity
  8
寸法
 62
     0
 48
50.0
370
    -2
100
AcDbBlockReference
  2
_DOTSMALL
 10
11698.6
 20
9010.7192608975
 30
0.0
 41
100.0
 42
100.0
 43
100.0
  0
MTEXT
  5
2C732
330
2A6B5
100
AcDbEntity
  8
寸法
 62
     7
 48
50.0
100
AcDbMText
 10
11971.7066017178
 20
9110.73107192112
 30
0.0
 40
120.0
 41
0.0
 71
     5
 72
     1
  1
\A1;123
  7
STYLE1
 73
     1
 44
1.0
1001
ACAD
1000
MTEXTBEGIN
1070
    73
1070
     1
1070
    44
1040
1.0
1070
    74
1070
     0
1000
MTEXTEND
  0
POINT
  5
2C733
330
2A6B5
100
AcDbEntity
  8
DEFPOINTS
 62
     0
 48
50.0
100
AcDbPoint
 10
11698.6
 20
8264.959634355417
 30
0.0
  0
POINT
  5
2C734
330
2A6B5
100
AcDbEntity
  8
DEFPOINTS
 62
     0
 48
50.0
100
AcDbPoint
 10
11575.6
 20
8191.959634355418
 30
0.0
  0
POINT
  5
2C735
330
2A6B5
100
AcDbEntity
  8
DEFPOINTS
 62
     0
 48
50.0
100
AcDbPoint
 10
11575.6
 20
9010.7192608975
 30
0.0
  0
ENDBLK
  5
2A6C1
330
2A6B5
100
AcDbEntity
  8
0
 48
50.0
100
AcDbBlockEnd
  0
BLOCK
  5
2A6DA
330
2A6CF
100
AcDbEntity
  8
0
 48
50.0
100
AcDbBlockBegin
  2
*D25
 70
     1
 10
0.0
 20
0.0
 30
0.0
  3
*D25
  1

  0
LINE
  5
2C722
330
2A6CF
100
AcDbEntity
  8
寸法
 62
     0
 48
50.0
370
    -2
100
AcDbLine
 10
11698.6
 20
7804.244230893873
 30
0.0
 11
11698.6
 21
7747.250966855041
 31
0.0
  0
LINE
  5
2C723
330
2A6CF
100
AcDbEntity
  8
寸法
 62
     0
 48
50.0
370
    -2
100
AcDbLine
 10
11578.6
 20
8014.959634355417
 30
0.0
 11
11578.6
 21
7747.250966855041
 31
0.0
  0
LINE
  5
2C724
330
2A6CF
100
AcDbEntity
  8
寸法
 62
     0
 48
50.0
370
    -2
100
AcDbLine
 10
11578.6
 20
7807.250966855042
 30
0.0
 11
11698.6
 21
7807.250966855042
 31
0.0
  0
LINE
  5
2C725
330
2A6CF
100
AcDbEntity
  8
寸法
 62
     0
 48
50.0
370
    -2
100
AcDbLine
 10
11698.6
 20
7807.250966855042
 30
0.0
 11
12104.7062992126
 21
7807.250966855042
 31
0.0
  0
INSERT
  5
2C726
330
2A6CF
100
AcDbEntity
  8
寸法
 62
     0
 48
50.0
370
    -2
100
AcDbBlockReference
  2
_DOTSMALL
 10
11578.6
 20
7807.250966855042
 30
0.0
 41
100.0
 42
100.0
 43
100.0
 50
180.0
  0
INSERT
  5
2C727
330
2A6CF
100
AcDbEntity
  8
寸法
 62
     0
 48
50.0
370
    -2
100
AcDbBlockReference
  2
_DOTSMALL
 10
11698.6
 20
7807.250966855042
 30
0.0
 41
100.0
 42
100.0
 43
100.0
  0
MTEXT
  5
2C728
330
2A6CF
100
AcDbEntity
  8
寸法
 62
     7
 48
50.0
100
AcDbMText
 10
11968.65905511811
 20
7907.262777878663
 30
0.0
 40
120.0
 41
0.0
 71
     5
 72
     1
  1
\A1;120
  7
STYLE1
 73
     1
 44
1.0
1001
ACAD
1000
MTEXTBEGIN
1070
    73
1070
     1
1070
    44
1040
1.0
1070
    74
1070
     0
1000
MTEXTEND
  0
POINT
  5
2C729
330
2A6CF
100
AcDbEntity
  8
DEFPOINTS
 62
     0
 48
50.0
100
AcDbPoint
 10
11698.6
 20
7824.244230893873
 30
0.0
  0
POINT
  5
2C72A
330
2A6CF
100
AcDbEntity
  8
DEFPOINTS
 62
     0
 48
50.0
100
AcDbPoint
 10
11578.6
 20
8034.959634355416
 30
0.0
  0
POINT
  5
2C72B
330
2A6CF
100
AcDbEntity
  8
DEFPOINTS
 62
     0
 48
50.0
100
AcDbPoint
 10
11578.6
 20
7807.250966855042
 30
0.0
  0
ENDBLK
  5
2A6DB
330
2A6CF
100
AcDbEntity
  8
0
 48
50.0
100
AcDbBlockEnd
  0
BLOCK
  5
2A6E6
330
2A6DC
100
AcDbEntity
  8
0
 48
50.0
100
AcDbBlockBegin
  2
*D26
 70
     1
 10
0.0
 20
0.0
 30
0.0
  3
*D26
  1

  0
LINE
  5
2C719
330
2A6DC
100
AcDbEntity
  8
寸法
 62
     0
 48
50.0
370
    -2
100
AcDbLine
 10
11698.6
 20
8284.959634355416
 30
0.0
 11
11698.6
 21
8851.869400003746
 31
0.0
  0
LINE
  5
2C71A
330
2A6DC
100
AcDbEntity
  8
寸法
 62
     0
 48
50.0
370
    -2
100
AcDbLine
 10
10790.6
 20
7609.959634355417
 30
0.0
 11
10790.6
 21
8851.869400003746
 31
0.0
  0
LINE
  5
2C71B
330
2A6DC
100
AcDbEntity
  8
寸法
 62
     0
 48
50.0
370
    -2
100
AcDbLine
 10
11698.6
 20
8791.869400003745
 30
0.0
 11
10790.6
 21
8791.869400003745
 31
0.0
  0
INSERT
  5
2C71C
330
2A6DC
100
AcDbEntity
  8
寸法
 62
     0
 48
50.0
370
    -2
100
AcDbBlockReference
  2
_DOTSMALL
 10
11698.6
 20
8791.869400003745
 30
0.0
 41
100.0
 42
100.0
 43
100.0
  0
INSERT
  5
2C71D
330
2A6DC
100
AcDbEntity
  8
寸法
 62
     0
 48
50.0
370
    -2
100
AcDbBlockReference
  2
_DOTSMALL
 10
10790.6
 20
8791.869400003745
 30
0.0
 41
100.0
 42
100.0
 43
100.0
 50
180.0
  0
MTEXT
  5
2C71E
330
2A6DC
100
AcDbEntity
  8
寸法
 62
     7
 48
50.0
100
AcDbMText
 10
11244.6
 20
8891.869400003745
 30
0.0
 40
120.0
 41
0.0
 71
     5
 72
     1
  1
\A1;908
  7
STYLE1
 73
     1
 44
1.0
1001
ACAD
1000
MTEXTBEGIN
1070
    73
1070
     1
1070
    44
1040
1.0
1070
    74
1070
     0
1000
MTEXTEND
  0
POINT
  5
2C71F
330
2A6DC
100
AcDbEntity
  8
DEFPOINTS
 62
     0
 48
50.0
100
AcDbPoint
 10
11698.6
 20
8264.959634355417
 30
0.0
  0
POINT
  5
2C720
330
2A6DC
100
AcDbEntity
  8
DEFPOINTS
 62
     0
 48
50.0
100
AcDbPoint
 10
10790.6
 20
7589.959634355416
 30
0.0
  0
POINT
  5
2C721
330
2A6DC
100
AcDbEntity
  8
DEFPOINTS
 62
     0
 48
50.0
100
AcDbPoint
 10
10790.6
 20
8791.869400003745
 30
0.0
  0
ENDBLK
  5
2A6E7
330
2A6DC
100
AcDbEntity
  8
0
 48
50.0
100
AcDbBlockEnd
  0
BLOCK
  5
2A6F2
330
2A6E8
100
AcDbEntity
  8
0
 48
50.0
100
AcDbBlockBegin
  2
*D27
 70
     1
 10
0.0
 20
0.0
 30
0.0
  3
*D27
  1

  0
LINE
  5
2C710
330
2A6E8
100
AcDbEntity
  8
寸法
 62
     0
 48
50.0
370
    -2
100
AcDbLine
 10
9958.600000000004
 20
7609.959634355417
 30
0.0
 11
9958.600000000004
 21
8851.869400003746
 31
0.0
  0
LINE
  5
2C711
330
2A6E8
100
AcDbEntity
  8
寸法
 62
     0
 48
50.0
370
    -2
100
AcDbLine
 10
9126.600000000001
 20
7609.959634355417
 30
0.0
 11
9126.600000000001
 21
8851.869400003746
 31
0.0
  0
LINE
  5
2C712
330
2A6E8
100
AcDbEntity
  8
寸法
 62
     0
 48
50.0
370
    -2
100
AcDbLine
 10
9958.600000000004
 20
8791.869400003745
 30
0.0
 11
9126.600000000001
 21
8791.869400003745
 31
0.0
  0
INSERT
  5
2C713
330
2A6E8
100
AcDbEntity
  8
寸法
 62
     0
 48
50.0
370
    -2
100
AcDbBlockReference
  2
_DOTSMALL
 10
9958.600000000004
 20
8791.869400003745
 30
0.0
 41
100.0
 42
100.0
 43
100.0
  0
INSERT
  5
2C714
330
2A6E8
100
AcDbEntity
  8
寸法
 62
     0
 48
50.0
370
    -2
100
AcDbBlockReference
  2
_DOTSMALL
 10
9126.600000000001
 20
8791.869400003745
 30
0.0
 41
100.0
 42
100.0
 43
100.0
 50
180.0
  0
MTEXT
  5
2C715
330
2A6E8
100
AcDbEntity
  8
寸法
 62
     7
 48
50.0
100
AcDbMText
 10
9542.600000000003
 20
8891.881211027365
 30
0.0
 40
120.0
 41
0.0
 71
     5
 72
     1
  1
\A1;832
  7
STYLE1
 73
     1
 44
1.0
1001
ACAD
1000
MTEXTBEGIN
1070
    73
1070
     1
1070
    44
1040
1.0
1070
    74
1070
     0
1000
MTEXTEND
  0
POINT
  5
2C716
330
2A6E8
100
AcDbEntity
  8
DEFPOINTS
 62
     0
 48
50.0
100
AcDbPoint
 10
9958.600000000004
 20
7589.959634355416
 30
0.0
  0
POINT
  5
2C717
330
2A6E8
100
AcDbEntity
  8
DEFPOINTS
 62
     0
 48
50.0
100
AcDbPoint
 10
9126.600000000001
 20
7589.959634355416
 30
0.0
  0
POINT
  5
2C718
330
2A6E8
100
AcDbEntity
  8
DEFPOINTS
 62
     0
 48
50.0
100
AcDbPoint
 10
9126.600000000001
 20
8791.869400003745
 30
0.0
  0
ENDBLK
  5
2A6F3
330
2A6E8
100
AcDbEntity
  8
0
 48
50.0
100
AcDbBlockEnd
  0
BLOCK
  5
2A6FE
330
2A6F4
100
AcDbEntity
  8
0
 48
50.0
100
AcDbBlockBegin
  2
*D28
 70
     1
 10
0.0
 20
0.0
 30
0.0
  3
*D28
  1

  0
LINE
  5
2C707
330
2A6F4
100
AcDbEntity
  8
寸法
 62
     0
 48
50.0
370
    -2
100
AcDbLine
 10
10790.6
 20
7609.959634355417
 30
0.0
 11
10790.6
 21
8851.869400003746
 31
0.0
  0
LINE
  5
2C708
330
2A6F4
100
AcDbEntity
  8
寸法
 62
     0
 48
50.0
370
    -2
100
AcDbLine
 10
9958.600000000004
 20
7609.959634355417
 30
0.0
 11
9958.600000000004
 21
8851.869400003746
 31
0.0
  0
LINE
  5
2C709
330
2A6F4
100
AcDbEntity
  8
寸法
 62
     0
 48
50.0
370
    -2
100
AcDbLine
 10
10790.6
 20
8791.869400003745
 30
0.0
 11
9958.600000000004
 21
8791.869400003745
 31
0.0
  0
INSERT
  5
2C70A
330
2A6F4
100
AcDbEntity
  8
寸法
 62
     0
 48
50.0
370
    -2
100
AcDbBlockReference
  2
_DOTSMALL
 10
10790.6
 20
8791.869400003745
 30
0.0
 41
100.0
 42
100.0
 43
100.0
  0
INSERT
  5
2C70B
330
2A6F4
100
AcDbEntity
  8
寸法
 62
     0
 48
50.0
370
    -2
100
AcDbBlockReference
  2
_DOTSMALL
 10
9958.600000000004
 20
8791.869400003745
 30
0.0
 41
100.0
 42
100.0
 43
100.0
 50
180.0
  0
MTEXT
  5
2C70C
330
2A6F4
100
AcDbEntity
  8
寸法
 62
     7
 48
50.0
100
AcDbMText
 10
10374.6
 20
8891.881211027365
 30
0.0
 40
120.0
 41
0.0
 71
     5
 72
     1
  1
\A1;832
  7
STYLE1
 73
     1
 44
1.0
1001
ACAD
1000
MTEXTBEGIN
1070
    73
1070
     1
1070
    44
1040
1.0
1070
    74
1070
     0
1000
MTEXTEND
  0
POINT
  5
2C70D
330
2A6F4
100
AcDbEntity
  8
DEFPOINTS
 62
     0
 48
50.0
100
AcDbPoint
 10
10790.6
 20
7589.959634355416
 30
0.0
  0
POINT
  5
2C70E
330
2A6F4
100
AcDbEntity
  8
DEFPOINTS
 62
     0
 48
50.0
100
AcDbPoint
 10
9958.600000000004
 20
7589.959634355416
 30
0.0
  0
POINT
  5
2C70F
330
2A6F4
100
AcDbEntity
  8
DEFPOINTS
 62
     0
 48
50.0
100
AcDbPoint
 10
9958.600000000004
 20
8791.869400003745
 30
0.0
  0
ENDBLK
  5
2A6FF
330
2A6F4
100
AcDbEntity
  8
0
 48
50.0
100
AcDbBlockEnd
  0
BLOCK
  5
2A709
330
2A700
100
AcDbEntity
  8
0
 48
50.0
100
AcDbBlockBegin
  2
*D29
 70
     1
 10
0.0
 20
0.0
 30
0.0
  3
*D29
  1

  0
LINE
  5
2C6FE
330
2A700
100
AcDbEntity
  8
寸法
 62
     0
 48
50.0
370
    -2
100
AcDbLine
 10
10670.6
 20
7389.959634355418
 30
0.0
 11
10418.85510029273
 21
7389.959634355418
 31
0.0
  0
LINE
  5
2C6FF
330
2A700
100
AcDbEntity
  8
寸法
 62
     0
 48
50.0
370
    -2
100
AcDbLine
 10
10148.15743105835
 20
8264.959634355417
 30
0.0
 11
10538.85510029273
 21
8264.959634355417
 31
0.0
  0
LINE
  5
2C700
330
2A700
100
AcDbEntity
  8
寸法
 62
     0
 48
50.0
370
    -2
100
AcDbLine
 10
10478.85510029273
 20
7389.959634355418
 30
0.0
 11
10478.85510029273
 21
8264.959634355417
 31
0.0
  0
INSERT
  5
2C701
330
2A700
100
AcDbEntity
  8
寸法
 62
     0
 48
50.0
370
    -2
100
AcDbBlockReference
  2
_DOTSMALL
 10
10478.85510029273
 20
7389.959634355418
 30
0.0
 41
100.0
 42
100.0
 43
100.0
 50
270.0
  0
INSERT
  5
2C702
330
2A700
100
AcDbEntity
  8
寸法
 62
     0
 48
50.0
370
    -2
100
AcDbBlockReference
  2
_DOTSMALL
 10
10478.85510029273
 20
8264.959634355417
 30
0.0
 41
100.0
 42
100.0
 43
100.0
 50
90.0
  0
MTEXT
  5
2C703
330
2A700
100
AcDbEntity
  8
寸法
 62
     7
 48
50.0
100
AcDbMText
 10
10378.85510029272
 20
7827.459634355419
 30
0.0
 40
120.0
 41
0.0
 71
     5
 72
     1
  1
\A1;875
  7
STYLE1
 11
0.0000000000000001
 21
1.0
 31
0.0
 73
     1
 44
1.0
1001
ACAD
1000
MTEXTBEGIN
1070
    73
1070
     1
1070
    44
1040
1.0
1070
    74
1070
     0
1000
MTEXTEND
  0
POINT
  5
2C704
330
2A700
100
AcDbEntity
  8
DEFPOINTS
 62
     0
 48
50.0
100
AcDbPoint
 10
10690.6
 20
7389.959634355418
 30
0.0
  0
POINT
  5
2C705
330
2A700
100
AcDbEntity
  8
DEFPOINTS
 62
     0
 48
50.0
100
AcDbPoint
 10
10128.15743105835
 20
8264.959634355417
 30
0.0
  0
POINT
  5
2C706
330
2A700
100
AcDbEntity
  8
DEFPOINTS
 62
     0
 48
50.0
100
AcDbPoint
 10
10478.85510029273
 20
8264.959634355417
 30
0.0
  0
ENDBLK
  5
2A70A
330
2A700
100
AcDbEntity
  8
0
 48
50.0
100
AcDbBlockEnd
  0
BLOCK
  5
2A715
330
2A70B
100
AcDbEntity
  8
0
 48
50.0
100
AcDbBlockBegin
  2
*D30
 70
     1
 10
0.0
 20
0.0
 30
0.0
  3
*D30
  1

  0
LINE
  5
2C6F5
330
2A70B
100
AcDbEntity
  8
寸法
 62
     0
 48
50.0
370
    -2
100
AcDbLine
 10
10670.6
 20
6499.959634355426
 30
0.0
 11
10418.85510029273
 21
6499.959634355426
 31
0.0
  0
LINE
  5
2C6F6
330
2A70B
100
AcDbEntity
  8
寸法
 62
     0
 48
50.0
370
    -2
100
AcDbLine
 10
10670.6
 20
7389.959634355418
 30
0.0
 11
10418.85510029273
 21
7389.959634355418
 31
0.0
  0
LINE
  5
2C6F7
330
2A70B
100
AcDbEntity
  8
寸法
 62
     0
 48
50.0
370
    -2
100
AcDbLine
 10
10478.85510029273
 20
6499.959634355426
 30
0.0
 11
10478.85510029273
 21
7389.959634355418
 31
0.0
  0
INSERT
  5
2C6F8
330
2A70B
100
AcDbEntity
  8
寸法
 62
     0
 48
50.0
370
    -2
100
AcDbBlockReference
  2
_DOTSMALL
 10
10478.85510029273
 20
6499.959634355426
 30
0.0
 41
100.0
 42
100.0
 43
100.0
 50
270.0
  0
INSERT
  5
2C6F9
330
2A70B
100
AcDbEntity
  8
寸法
 62
     0
 48
50.0
370
    -2
100
AcDbBlockReference
  2
_DOTSMALL
 10
10478.85510029273
 20
7389.959634355418
 30
0.0
 41
100.0
 42
100.0
 43
100.0
 50
90.0
  0
MTEXT
  5
2C6FA
330
2A70B
100
AcDbEntity
  8
寸法
 62
     7
 48
50.0
100
AcDbMText
 10
10378.85510029272
 20
6944.959634355424
 30
0.0
 40
120.0
 41
0.0
 71
     5
 72
     1
  1
\A1;890
  7
STYLE1
 11
0.0000000000000001
 21
1.0
 31
0.0
 73
     1
 44
1.0
1001
ACAD
1000
MTEXTBEGIN
1070
    73
1070
     1
1070
    44
1040
1.0
1070
    74
1070
     0
1000
MTEXTEND
  0
POINT
  5
2C6FB
330
2A70B
100
AcDbEntity
  8
DEFPOINTS
 62
     0
 48
50.0
100
AcDbPoint
 10
10690.6
 20
6499.959634355426
 30
0.0
  0
POINT
  5
2C6FC
330
2A70B
100
AcDbEntity
  8
DEFPOINTS
 62
     0
 48
50.0
100
AcDbPoint
 10
10690.6
 20
7389.959634355418
 30
0.0
  0
POINT
  5
2C6FD
330
2A70B
100
AcDbEntity
  8
DEFPOINTS
 62
     0
 48
50.0
100
AcDbPoint
 10
10478.85510029273
 20
7389.959634355418
 30
0.0
  0
ENDBLK
  5
2A716
330
2A70B
100
AcDbEntity
  8
0
 48
50.0
100
AcDbBlockEnd
  0
BLOCK
  5
2A722
330
2A717
100
AcDbEntity
  8
0
 48
50.0
100
AcDbBlockBegin
  2
*D31
 70
     1
 10
0.0
 20
0.0
 30
0.0
  3
*D31
  1

  0
LINE
  5
2C6EB
330
2A717
100
AcDbEntity
  8
寸法
 62
     0
 48
50.0
370
    -2
100
AcDbLine
 10
11578.6
 20
8014.959634355417
 30
0.0
 11
11578.6
 21
7747.250966855041
 31
0.0
  0
LINE
  5
2C6EC
330
2A717
100
AcDbEntity
  8
寸法
 62
     0
 48
50.0
370
    -2
100
AcDbLine
 10
11468.6
 20
8014.959634355415
 30
0.0
 11
11468.6
 21
7747.250966855041
 31
0.0
  0
LINE
  5
2C6ED
330
2A717
100
AcDbEntity
  8
寸法
 62
     0
 48
50.0
370
    -2
100
AcDbLine
 10
11578.6
 20
7807.250966855042
 30
0.0
 11
11468.6
 21
7807.250966855042
 31
0.0
  0
LINE
  5
2C6EE
330
2A717
100
AcDbEntity
  8
寸法
 62
     0
 48
50.0
370
    -2
100
AcDbLine
 10
11468.6
 20
7807.250966855042
 30
0.0
 11
11074.4937007874
 21
7807.250966855042
 31
0.0
  0
INSERT
  5
2C6EF
330
2A717
100
AcDbEntity
  8
寸法
 62
     0
 48
50.0
370
    -2
100
AcDbBlockReference
  2
_DOTSMALL
 10
11578.6
 20
7807.250966855042
 30
0.0
 41
100.0
 42
100.0
 43
100.0
  0
INSERT
  5
2C6F0
330
2A717
100
AcDbEntity
  8
寸法
 62
     0
 48
50.0
370
    -2
100
AcDbBlockReference
  2
_DOTSMALL
 10
11468.6
 20
7807.250966855042
 30
0.0
 41
100.0
 42
100.0
 43
100.0
 50
180.0
  0
MTEXT
  5
2C6F1
330
2A717
100
AcDbEntity
  8
寸法
 62
     7
 48
50.0
100
AcDbMText
 10
11198.54094488189
 20
7907.250966855042
 30
0.0
 40
120.0
 41
0.0
 71
     5
 72
     1
  1
\A1;110
  7
STYLE1
 73
     1
 44
1.0
1001
ACAD
1000
MTEXTBEGIN
1070
    73
1070
     1
1070
    44
1040
1.0
1070
    74
1070
     0
1000
MTEXTEND
  0
POINT
  5
2C6F2
330
2A717
100
AcDbEntity
  8
DEFPOINTS
 62
     0
 48
50.0
100
AcDbPoint
 10
11578.6
 20
8034.959634355416
 30
0.0
  0
POINT
  5
2C6F3
330
2A717
100
AcDbEntity
  8
DEFPOINTS
 62
     0
 48
50.0
100
AcDbPoint
 10
11468.6
 20
8034.959634355415
 30
0.0
  0
POINT
  5
2C6F4
330
2A717
100
AcDbEntity
  8
DEFPOINTS
 62
     0
 48
50.0
100
AcDbPoint
 10
11468.6
 20
7807.250966855042
 30
0.0
  0
ENDBLK
  5
2A723
330
2A717
100
AcDbEntity
  8
0
 48
50.0
100
AcDbBlockEnd
  0
BLOCK
  5
2B140
330
2B135
100
AcDbEntity
  8
0
 48
50.0
100
AcDbBlockBegin
  2
*D32
 70
     1
 10
0.0
 20
0.0
 30
0.0
  3
*D32
  1

  0
LINE
  5
2C6CE
330
2B135
100
AcDbEntity
  8
寸法
 62
     0
 48
50.0
370
    -2
100
AcDbLine
 10
8255.600000000001
 20
5624.959634355445
 30
0.0
 11
8730.144386142111
 21
5624.959634355445
 31
0.0
  0
LINE
  5
2C6CF
330
2B135
100
AcDbEntity
  8
寸法
 62
     0
 48
50.0
370
    -2
100
AcDbLine
 10
8255.600000000002
 20
5744.959634355428
 30
0.0
 11
8730.144386142111
 21
5744.959634355428
 31
0.0
  0
LINE
  5
2C6D0
330
2B135
100
AcDbEntity
  8
寸法
 62
     0
 48
50.0
370
    -2
100
AcDbLine
 10
8670.14438614211
 20
5744.959634355428
 30
0.0
 11
8670.14438614211
 21
5624.959634355445
 31
0.0
  0
LINE
  5
2C6D1
330
2B135
100
AcDbEntity
  8
寸法
 62
     0
 48
50.0
370
    -2
100
AcDbLine
 10
8670.14438614211
 20
5624.959634355445
 30
0.0
 11
8670.14438614211
 21
5166.080316917841
 31
0.0
  0
INSERT
  5
2C6D2
330
2B135
100
AcDbEntity
  8
寸法
 62
     0
 48
50.0
370
    -2
100
AcDbBlockReference
  2
_DOTSMALL
 10
8670.14438614211
 20
5744.959634355428
 30
0.0
 41
100.0
 42
100.0
 43
100.0
 50
90.0
  0
INSERT
  5
2C6D3
330
2B135
100
AcDbEntity
  8
寸法
 62
     0
 48
50.0
370
    -2
100
AcDbBlockReference
  2
_DOTSMALL
 10
8670.14438614211
 20
5624.959634355445
 30
0.0
 41
100.0
 42
100.0
 43
100.0
 50
270.0
  0
MTEXT
  5
2C6D4
330
2B135
100
AcDbEntity
  8
寸法
 62
     7
 48
50.0
100
AcDbMText
 10
8570.132575118487
 20
5302.12756101233
 30
0.0
 40
120.0
 41
0.0
 71
     5
 72
     1
  1
\A1;120
  7
STYLE1
 11
0.0000000000000001
 21
1.0
 31
0.0
 73
     1
 44
1.0
1001
ACAD
1000
MTEXTBEGIN
1070
    73
1070
     1
1070
    44
1040
1.0
1070
    74
1070
     0
1000
MTEXTEND
  0
POINT
  5
2C6D5
330
2B135
100
AcDbEntity
  8
DEFPOINTS
 62
     0
 48
50.0
100
AcDbPoint
 10
8235.600000000001
 20
5624.959634355445
 30
0.0
  0
POINT
  5
2C6D6
330
2B135
100
AcDbEntity
  8
DEFPOINTS
 62
     0
 48
50.0
100
AcDbPoint
 10
8235.600000000003
 20
5744.959634355428
 30
0.0
  0
POINT
  5
2C6D7
330
2B135
100
AcDbEntity
  8
DEFPOINTS
 62
     0
 48
50.0
100
AcDbPoint
 10
8670.14438614211
 20
5744.959634355428
 30
0.0
  0
ENDBLK
  5
2B141
330
2B135
100
AcDbEntity
  8
0
 48
50.0
100
AcDbBlockEnd
  0
BLOCK
  5
2B14D
330
2B142
100
AcDbEntity
  8
0
 48
50.0
100
AcDbBlockBegin
  2
*D33
 70
     1
 10
0.0
 20
0.0
 30
0.0
  3
*D33
  1

  0
LINE
  5
2C6D8
330
2B142
100
AcDbEntity
  8
寸法
 62
     0
 48
50.0
370
    -2
100
AcDbLine
 10
8255.600000000002
 20
5744.959634355428
 30
0.0
 11
8730.144386142111
 21
5744.959634355428
 31
0.0
  0
LINE
  5
2C6D9
330
2B142
100
AcDbEntity
  8
寸法
 62
     0
 48
50.0
370
    -2
100
AcDbLine
 10
8255.600000000001
 20
5854.959634355434
 30
0.0
 11
8730.144386142111
 21
5854.959634355434
 31
0.0
  0
LINE
  5
2C6DA
330
2B142
100
AcDbEntity
  8
寸法
 62
     0
 48
50.0
370
    -2
100
AcDbLine
 10
8670.14438614211
 20
5744.959634355428
 30
0.0
 11
8670.14438614211
 21
5854.959634355434
 31
0.0
  0
LINE
  5
2C6DB
330
2B142
100
AcDbEntity
  8
寸法
 62
     0
 48
50.0
370
    -2
100
AcDbLine
 10
8670.14438614211
 20
5854.959634355434
 30
0.0
 11
8670.14438614211
 21
6215.054122544415
 31
0.0
  0
INSERT
  5
2C6DC
330
2B142
100
AcDbEntity
  8
寸法
 62
     0
 48
50.0
370
    -2
100
AcDbBlockReference
  2
_DOTSMALL
 10
8670.14438614211
 20
5744.959634355428
 30
0.0
 41
100.0
 42
100.0
 43
100.0
 50
270.0
  0
INSERT
  5
2C6DD
330
2B142
100
AcDbEntity
  8
寸法
 62
     0
 48
50.0
370
    -2
100
AcDbBlockReference
  2
_DOTSMALL
 10
8670.14438614211
 20
5854.959634355434
 30
0.0
 41
100.0
 42
100.0
 43
100.0
 50
90.0
  0
MTEXT
  5
2C6DE
330
2B142
100
AcDbEntity
  8
寸法
 62
     7
 48
50.0
100
AcDbMText
 10
8570.144386142109
 20
6091.006878449928
 30
0.0
 40
120.0
 41
0.0
 71
     5
 72
     1
  1
\A1;110
  7
STYLE1
 11
0.0000000000000001
 21
1.0
 31
0.0
 73
     1
 44
1.0
1001
ACAD
1000
MTEXTBEGIN
1070
    73
1070
     1
1070
    44
1040
1.0
1070
    74
1070
     0
1000
MTEXTEND
  0
POINT
  5
2C6DF
330
2B142
100
AcDbEntity
  8
DEFPOINTS
 62
     0
 48
50.0
100
AcDbPoint
 10
8235.600000000003
 20
5744.959634355428
 30
0.0
  0
POINT
  5
2C6E0
330
2B142
100
AcDbEntity
  8
DEFPOINTS
 62
     0
 48
50.0
100
AcDbPoint
 10
8235.600000000001
 20
5854.959634355434
 30
0.0
  0
POINT
  5
2C6E1
330
2B142
100
AcDbEntity
  8
DEFPOINTS
 62
     0
 48
50.0
100
AcDbPoint
 10
8670.14438614211
 20
5854.959634355434
 30
0.0
  0
ENDBLK
  5
2B14E
330
2B142
100
AcDbEntity
  8
0
 48
50.0
100
AcDbBlockEnd
  0
BLOCK
  5
2B159
330
2B14F
100
AcDbEntity
  8
0
 48
50.0
100
AcDbBlockBegin
  2
*D34
 70
     1
 10
0.0
 20
0.0
 30
0.0
  3
*D34
  1

  0
LINE
  5
2C6E2
330
2B14F
100
AcDbEntity
  8
寸法
 62
     0
 48
50.0
370
    -2
100
AcDbLine
 10
8235.600000000001
 20
5874.959634355435
 30
0.0
 11
8235.600000000001
 21
6141.993708736208
 31
0.0
  0
LINE
  5
2C6E3
330
2B14F
100
AcDbEntity
  8
寸法
 62
     0
 48
50.0
370
    -2
100
AcDbLine
 10
7975.6
 20
5874.959634355435
 30
0.0
 11
7975.6
 21
6141.993708736208
 31
0.0
  0
LINE
  5
2C6E4
330
2B14F
100
AcDbEntity
  8
寸法
 62
     0
 48
50.0
370
    -2
100
AcDbLine
 10
8235.600000000001
 20
6081.993708736209
 30
0.0
 11
7975.6
 21
6081.993708736209
 31
0.0
  0
INSERT
  5
2C6E5
330
2B14F
100
AcDbEntity
  8
寸法
 62
     0
 48
50.0
370
    -2
100
AcDbBlockReference
  2
_DOTSMALL
 10
8235.600000000001
 20
6081.993708736209
 30
0.0
 41
100.0
 42
100.0
 43
100.0
  0
INSERT
  5
2C6E6
330
2B14F
100
AcDbEntity
  8
寸法
 62
     0
 48
50.0
370
    -2
100
AcDbBlockReference
  2
_DOTSMALL
 10
7975.6
 20
6081.993708736209
 30
0.0
 41
100.0
 42
100.0
 43
100.0
 50
180.0
  0
MTEXT
  5
2C6E7
330
2B14F
100
AcDbEntity
  8
寸法
 62
     7
 48
50.0
100
AcDbMText
 10
8105.6
 20
6182.00551975983
 30
0.0
 40
120.0
 41
0.0
 71
     5
 72
     1
  1
\A1;260
  7
STYLE1
 73
     1
 44
1.0
1001
ACAD
1000
MTEXTBEGIN
1070
    73
1070
     1
1070
    44
1040
1.0
1070
    74
1070
     0
1000
MTEXTEND
  0
POINT
  5
2C6E8
330
2B14F
100
AcDbEntity
  8
DEFPOINTS
 62
     0
 48
50.0
100
AcDbPoint
 10
8235.600000000001
 20
5854.959634355434
 30
0.0
  0
POINT
  5
2C6E9
330
2B14F
100
AcDbEntity
  8
DEFPOINTS
 62
     0
 48
50.0
100
AcDbPoint
 10
7975.6
 20
5854.959634355434
 30
0.0
  0
POINT
  5
2C6EA
330
2B14F
100
AcDbEntity
  8
DEFPOINTS
 62
     0
 48
50.0
100
AcDbPoint
 10
7975.6
 20
6081.993708736209
 30
0.0
  0
ENDBLK
  5
2B15A
330
2B14F
100
AcDbEntity
  8
0
 48
50.0
100
AcDbBlockEnd
  0
BLOCK
  5
2BF47
330
2BF3D
100
AcDbEntity
  8
0
 48
50.0
100
AcDbBlockBegin
  2
*D35
 70
     1
 10
0.0
 20
0.0
 30
0.0
  3
*D35
  1

  0
LINE
  5
2C6C5
330
2BF3D
100
AcDbEntity
  8
寸法
 62
     0
 48
50.0
370
    -2
100
AcDbLine
 10
7776.600000000001
 20
5529.959634355421
 30
0.0
 11
7776.600000000001
 21
4945.953244700697
 31
0.0
  0
LINE
  5
2C6C6
330
2BF3D
100
AcDbEntity
  8
寸法
 62
     0
 48
50.0
370
    -2
100
AcDbLine
 10
5621.6
 20
5529.959634355407
 30
0.0
 11
5621.6
 21
4945.953244700697
 31
0.0
  0
LINE
  5
2C6C7
330
2BF3D
100
AcDbEntity
  8
寸法
 62
     0
 48
50.0
370
    -2
100
AcDbLine
 10
7776.600000000001
 20
5005.953244700697
 30
0.0
 11
5621.6
 21
5005.953244700697
 31
0.0
  0
INSERT
  5
2C6C8
330
2BF3D
100
AcDbEntity
  8
寸法
 62
     0
 48
50.0
370
    -2
100
AcDbBlockReference
  2
_DOTSMALL
 10
7776.600000000001
 20
5005.953244700697
 30
0.0
 41
100.0
 42
100.0
 43
100.0
  0
INSERT
  5
2C6C9
330
2BF3D
100
AcDbEntity
  8
寸法
 62
     0
 48
50.0
370
    -2
100
AcDbBlockReference
  2
_DOTSMALL
 10
5621.6
 20
5005.953244700697
 30
0.0
 41
100.0
 42
100.0
 43
100.0
 50
180.0
  0
MTEXT
  5
2C6CA
330
2BF3D
100
AcDbEntity
  8
寸法
 62
     7
 48
50.0
100
AcDbMText
 10
6699.1
 20
5105.965055724318
 30
0.0
 40
120.0
 41
0.0
 71
     5
 72
     1
  1
\A1;扉の幅 2155
  7
STYLE1
 73
     1
 44
1.0
1001
ACAD
1000
MTEXTBEGIN
1070
    73
1070
     1
1070
    44
1040
1.0
1070
    74
1070
     0
1000
MTEXTEND
  0
POINT
  5
2C6CB
330
2BF3D
100
AcDbEntity
  8
DEFPOINTS
 62
     0
 48
50.0
100
AcDbPoint
 10
7776.600000000001
 20
5549.95963435542
 30
0.0
  0
POINT
  5
2C6CC
330
2BF3D
100
AcDbEntity
  8
DEFPOINTS
 62
     0
 48
50.0
100
AcDbPoint
 10
5621.6
 20
5549.959634355406
 30
0.0
  0
POINT
  5
2C6CD
330
2BF3D
100
AcDbEntity
  8
DEFPOINTS
 62
     0
 48
50.0
100
AcDbPoint
 10
5621.6
 20
5005.953244700697
 30
0.0
  0
ENDBLK
  5
2BF48
330
2BF3D
100
AcDbEntity
  8
0
 48
50.0
100
AcDbBlockEnd
  0
BLOCK
  5
2C509
330
2C4FF
100
AcDbEntity
  8
0
 48
50.0
100
AcDbBlockBegin
  2
*D36
 70
     1
 10
0.0
 20
0.0
 30
0.0
  3
*D36
  1

  0
LINE
  5
2C6A8
330
2C4FF
100
AcDbEntity
  8
寸法
 62
     0
 48
50.0
370
    -2
100
AcDbLine
 10
4830.296819212009
 20
694.5461387982573
 30
0.0
 11
4830.296819212009
 21
355.5940323423242
 31
0.0
  0
LINE
  5
2C6A9
330
2C4FF
100
AcDbEntity
  8
寸法
 62
     0
 48
50.0
370
    -2
100
AcDbLine
 10
5390.296819212007
 20
694.5461387982573
 30
0.0
 11
5390.296819212007
 21
355.5940323423242
 31
0.0
  0
LINE
  5
2C6AA
330
2C4FF
100
AcDbEntity
  8
寸法
 62
     0
 48
50.0
370
    -2
100
AcDbLine
 10
4830.296819212009
 20
415.5940323423242
 30
0.0
 11
5390.296819212007
 21
415.5940323423242
 31
0.0
  0
INSERT
  5
2C6AB
330
2C4FF
100
AcDbEntity
  8
寸法
 62
     0
 48
50.0
370
    -2
100
AcDbBlockReference
  2
_DOTSMALL
 10
4830.296819212009
 20
415.5940323423242
 30
0.0
 41
100.0
 42
100.0
 43
100.0
 50
180.0
  0
INSERT
  5
2C6AC
330
2C4FF
100
AcDbEntity
  8
寸法
 62
     0
 48
50.0
370
    -2
100
AcDbBlockReference
  2
_DOTSMALL
 10
5390.296819212007
 20
415.5940323423242
 30
0.0
 41
100.0
 42
100.0
 43
100.0
  0
MTEXT
  5
2C6AD
330
2C4FF
100
AcDbEntity
  8
寸法
 62
     7
 48
50.0
100
AcDbMText
 10
5110.296819212008
 20
515.5940323423242
 30
0.0
 40
120.0
 41
0.0
 71
     5
 72
     1
  1
\A1;300
  7
STYLE1
 73
     1
 44
1.0
1001
ACAD
1000
MTEXTBEGIN
1070
    73
1070
     1
1070
    44
1040
1.0
1070
    74
1070
     0
1000
MTEXTEND
  0
POINT
  5
2C6AE
330
2C4FF
100
AcDbEntity
  8
DEFPOINTS
 62
     0
 48
50.0
100
AcDbPoint
 10
4830.296819212009
 20
714.5461387982573
 30
0.0
  0
POINT
  5
2C6AF
330
2C4FF
100
AcDbEntity
  8
DEFPOINTS
 62
     0
 48
50.0
100
AcDbPoint
 10
5390.296819212007
 20
714.5461387982573
 30
0.0
  0
POINT
  5
2C6B0
330
2C4FF
100
AcDbEntity
  8
DEFPOINTS
 62
     0
 48
50.0
100
AcDbPoint
 10
5390.296819212007
 20
415.5940323423242
 30
0.0
  0
ENDBLK
  5
2C50A
330
2C4FF
100
AcDbEntity
  8
0
 48
50.0
100
AcDbBlockEnd
  0
BLOCK
  5
2C515
330
2C50B
100
AcDbEntity
  8
0
 48
50.0
100
AcDbBlockBegin
  2
*D37
 70
     1
 10
0.0
 20
0.0
 30
0.0
  3
*D37
  1

  0
LINE
  5
2C69F
330
2C50B
100
AcDbEntity
  8
寸法
 62
     0
 48
50.0
370
    -2
100
AcDbLine
 10
4970.296819212008
 20
1854.546138798259
 30
0.0
 11
4169.651881175943
 21
1854.546138798259
 31
0.0
  0
LINE
  5
2C6A0
330
2C50B
100
AcDbEntity
  8
寸法
 62
     0
 48
50.0
370
    -2
100
AcDbLine
 10
4710.296819212011
 20
874.5461387982572
 30
0.0
 11
4169.651881175943
 21
874.5461387982574
 31
0.0
  0
LINE
  5
2C6A1
330
2C50B
100
AcDbEntity
  8
寸法
 62
     0
 48
50.0
370
    -2
100
AcDbLine
 10
4229.651881175943
 20
1854.546138798259
 30
0.0
 11
4229.651881175943
 21
874.5461387982574
 31
0.0
  0
INSERT
  5
2C6A2
330
2C50B
100
AcDbEntity
  8
寸法
 62
     0
 48
50.0
370
    -2
100
AcDbBlockReference
  2
_DOTSMALL
 10
4229.651881175943
 20
1854.546138798259
 30
0.0
 41
100.0
 42
100.0
 43
100.0
 50
90.0
  0
INSERT
  5
2C6A3
330
2C50B
100
AcDbEntity
  8
寸法
 62
     0
 48
50.0
370
    -2
100
AcDbBlockReference
  2
_DOTSMALL
 10
4229.651881175943
 20
874.5461387982574
 30
0.0
 41
100.0
 42
100.0
 43
100.0
 50
270.0
  0
MTEXT
  5
2C6A4
330
2C50B
100
AcDbEntity
  8
寸法
 62
     7
 48
50.0
100
AcDbMText
 10
4129.651881175943
 20
1364.546138798258
 30
0.0
 40
120.0
 41
0.0
 71
     5
 72
     1
  1
\A1;540
  7
STYLE1
 11
0.0000000000000001
 21
1.0
 31
0.0
 73
     1
 44
1.0
1001
ACAD
1000
MTEXTBEGIN
1070
    73
1070
     1
1070
    44
1040
1.0
1070
    74
1070
     0
1000
MTEXTEND
  0
POINT
  5
2C6A5
330
2C50B
100
AcDbEntity
  8
DEFPOINTS
 62
     0
 48
50.0
100
AcDbPoint
 10
4990.296819212008
 20
1854.546138798259
 30
0.0
  0
POINT
  5
2C6A6
330
2C50B
100
AcDbEntity
  8
DEFPOINTS
 62
     0
 48
50.0
100
AcDbPoint
 10
4730.296819212012
 20
874.5461387982572
 30
0.0
  0
POINT
  5
2C6A7
330
2C50B
100
AcDbEntity
  8
DEFPOINTS
 62
     0
 48
50.0
100
AcDbPoint
 10
4229.651881175943
 20
874.5461387982574
 30
0.0
  0
ENDBLK
  5
2C516
330
2C50B
100
AcDbEntity
  8
0
 48
50.0
100
AcDbBlockEnd
  0
BLOCK
  5
2C521
330
2C517
100
AcDbEntity
  8
0
 48
50.0
100
AcDbBlockBegin
  2
*D38
 70
     1
 10
0.0
 20
0.0
 30
0.0
  3
*D38
  1

  0
LINE
  5
2C696
330
2C517
100
AcDbEntity
  8
寸法
 62
     0
 48
50.0
370
    -2
100
AcDbLine
 10
4810.29681921201
 20
1174.546138798257
 30
0.0
 11
4592.271427046433
 21
1174.546138798257
 31
0.0
  0
LINE
  5
2C697
330
2C517
100
AcDbEntity
  8
寸法
 62
     0
 48
50.0
370
    -2
100
AcDbLine
 10
4710.296819212011
 20
874.5461387982572
 30
0.0
 11
4592.271427046433
 21
874.5461387982572
 31
0.0
  0
LINE
  5
2C698
330
2C517
100
AcDbEntity
  8
寸法
 62
     0
 48
50.0
370
    -2
100
AcDbLine
 10
4652.271427046433
 20
1174.546138798257
 30
0.0
 11
4652.271427046433
 21
874.5461387982572
 31
0.0
  0
INSERT
  5
2C699
330
2C517
100
AcDbEntity
  8
寸法
 62
     0
 48
50.0
370
    -2
100
AcDbBlockReference
  2
_DOTSMALL
 10
4652.271427046433
 20
1174.546138798257
 30
0.0
 41
100.0
 42
100.0
 43
100.0
 50
90.0
  0
INSERT
  5
2C69A
330
2C517
100
AcDbEntity
  8
寸法
 62
     0
 48
50.0
370
    -2
100
AcDbBlockReference
  2
_DOTSMALL
 10
4652.271427046433
 20
874.5461387982572
 30
0.0
 41
100.0
 42
100.0
 43
100.0
 50
270.0
  0
MTEXT
  5
2C69B
330
2C517
100
AcDbEntity
  8
寸法
 62
     7
 48
50.0
100
AcDbMText
 10
4552.271427046433
 20
1024.546138798257
 30
0.0
 40
120.0
 41
0.0
 71
     5
 72
     1
  1
\A1;150
  7
STYLE1
 11
0.0000000000000001
 21
1.0
 31
0.0
 73
     1
 44
1.0
1001
ACAD
1000
MTEXTBEGIN
1070
    73
1070
     1
1070
    44
1040
1.0
1070
    74
1070
     0
1000
MTEXTEND
  0
POINT
  5
2C69C
330
2C517
100
AcDbEntity
  8
DEFPOINTS
 62
     0
 48
50.0
100
AcDbPoint
 10
4830.296819212009
 20
1174.546138798257
 30
0.0
  0
POINT
  5
2C69D
330
2C517
100
AcDbEntity
  8
DEFPOINTS
 62
     0
 48
50.0
100
AcDbPoint
 10
4730.296819212012
 20
874.5461387982572
 30
0.0
  0
POINT
  5
2C69E
330
2C517
100
AcDbEntity
  8
DEFPOINTS
 62
     0
 48
50.0
100
AcDbPoint
 10
4652.271427046433
 20
874.5461387982572
 30
0.0
  0
ENDBLK
  5
2C522
330
2C517
100
AcDbEntity
  8
0
 48
50.0
100
AcDbBlockEnd
  0
BLOCK
  5
2C52D
330
2C523
100
AcDbEntity
  8
0
 48
50.0
100
AcDbBlockBegin
  2
*D39
 70
     1
 10
0.0
 20
0.0
 30
0.0
  3
*D39
  1

  0
LINE
  5
2C68D
330
2C523
100
AcDbEntity
  8
寸法
 62
     0
 48
50.0
370
    -2
100
AcDbLine
 10
5230.296819212008
 20
1874.546138798259
 30
0.0
 11
5230.296819212008
 21
2439.130898693735
 31
0.0
  0
LINE
  5
2C68E
330
2C523
100
AcDbEntity
  8
寸法
 62
     0
 48
50.0
370
    -2
100
AcDbLine
 10
4990.296819212008
 20
1874.546138798259
 30
0.0
 11
4990.296819212008
 21
2439.130898693735
 31
0.0
  0
LINE
  5
2C68F
330
2C523
100
AcDbEntity
  8
寸法
 62
     0
 48
50.0
370
    -2
100
AcDbLine
 10
5230.296819212008
 20
2379.130898693734
 30
0.0
 11
4990.296819212008
 21
2379.130898693734
 31
0.0
  0
INSERT
  5
2C690
330
2C523
100
AcDbEntity
  8
寸法
 62
     0
 48
50.0
370
    -2
100
AcDbBlockReference
  2
_DOTSMALL
 10
5230.296819212008
 20
2379.130898693734
 30
0.0
 41
100.0
 42
100.0
 43
100.0
  0
INSERT
  5
2C691
330
2C523
100
AcDbEntity
  8
寸法
 62
     0
 48
50.0
370
    -2
100
AcDbBlockReference
  2
_DOTSMALL
 10
4990.296819212008
 20
2379.130898693734
 30
0.0
 41
100.0
 42
100.0
 43
100.0
 50
180.0
  0
MTEXT
  5
2C692
330
2C523
100
AcDbEntity
  8
寸法
 62
     7
 48
50.0
100
AcDbMText
 10
5110.296819212008
 20
2585.171711258538
 30
0.0
 40
120.0
 41
0.0
 71
     5
 72
     1
  1
\A1;120\P(195)
  7
STYLE1
 73
     1
 44
1.0
1001
ACAD
1000
MTEXTBEGIN
1070
    73
1070
     1
1070
    44
1040
1.0
1070
    74
1070
     0
1000
MTEXTEND
  0
POINT
  5
2C693
330
2C523
100
AcDbEntity
  8
DEFPOINTS
 62
     0
 48
50.0
100
AcDbPoint
 10
5230.296819212008
 20
1854.546138798259
 30
0.0
  0
POINT
  5
2C694
330
2C523
100
AcDbEntity
  8
DEFPOINTS
 62
     0
 48
50.0
100
AcDbPoint
 10
4990.296819212008
 20
1854.546138798259
 30
0.0
  0
POINT
  5
2C695
330
2C523
100
AcDbEntity
  8
DEFPOINTS
 62
     0
 48
50.0
100
AcDbPoint
 10
4990.296819212008
 20
2379.130898693734
 30
0.0
  0
ENDBLK
  5
2C52E
330
2C523
100
AcDbEntity
  8
0
 48
50.0
100
AcDbBlockEnd
  0
BLOCK
  5
2C53B
330
2C52F
100
AcDbEntity
  8
0
 48
50.0
100
AcDbBlockBegin
  2
*D40
 70
     1
 10
0.0
 20
0.0
 30
0.0
  3
*D40
  1

  0
LINE
  5
2C6BA
330
2C52F
100
AcDbEntity
  8
寸法
 62
     0
 48
50.0
370
    -2
100
AcDbLine
 10
7418.845960683501
 20
1920.496138798258
 30
0.0
 11
8665.250043043339
 21
1920.496138798258
 31
0.0
  0
LINE
  5
2C6BB
330
2C52F
100
AcDbEntity
  8
寸法
 62
     0
 48
50.0
370
    -2
100
AcDbLine
 10
7652.845960683501
 20
1854.546138798259
 30
0.0
 11
8665.250043043339
 21
1854.546138798259
 31
0.0
  0
LINE
  5
2C6BC
330
2C52F
100
AcDbEntity
  8
寸法
 62
     0
 48
50.0
370
    -2
100
AcDbLine
 10
8605.250043043339
 20
1920.496138798258
 30
0.0
 11
8605.250043043339
 21
2020.496138798258
 31
0.0
  0
LINE
  5
2C6BD
330
2C52F
100
AcDbEntity
  8
寸法
 62
     0
 48
50.0
370
    -2
100
AcDbLine
 10
8605.250043043339
 20
1854.546138798259
 30
0.0
 11
8605.250043043339
 21
1122.528331955293
 31
0.0
  0
LINE
  5
2C6BE
330
2C52F
100
AcDbEntity
  8
寸法
 62
     0
 48
50.0
370
    -2
100
AcDbLine
 10
8605.250043043339
 20
1920.496138798258
 30
0.0
 11
8605.250043043339
 21
1854.546138798259
 31
0.0
  0
INSERT
  5
2C6BF
330
2C52F
100
AcDbEntity
  8
寸法
 62
     0
 48
50.0
370
    -2
100
AcDbBlockReference
  2
_DOTSMALL
 10
8605.250043043339
 20
1920.496138798258
 30
0.0
 41
100.0
 42
100.0
 43
100.0
 50
270.0
  0
INSERT
  5
2C6C0
330
2C52F
100
AcDbEntity
  8
寸法
 62
     0
 48
50.0
370
    -2
100
AcDbBlockReference
  2
_DOTSMALL
 10
8605.250043043339
 20
1854.546138798259
 30
0.0
 41
100.0
 42
100.0
 43
100.0
 50
90.0
  0
MTEXT
  5
2C6C1
330
2C52F
100
AcDbEntity
  8
寸法
 62
     7
 48
50.0
100
AcDbMText
 10
8505.238232019719
 20
1388.537235376777
 30
0.0
 40
120.0
 41
0.0
 71
     5
 72
     1
  1
\A1;20～25
  7
STYLE1
 11
0.0000000000000001
 21
1.0
 31
0.0
 73
     1
 44
1.0
1001
ACAD
1000
MTEXTBEGIN
1070
    73
1070
     1
1070
    44
1040
1.0
1070
    74
1070
     0
1000
MTEXTEND
  0
POINT
  5
2C6C2
330
2C52F
100
AcDbEntity
  8
DEFPOINTS
 62
     0
 48
50.0
100
AcDbPoint
 10
7398.845960683501
 20
1920.496138798258
 30
0.0
  0
POINT
  5
2C6C3
330
2C52F
100
AcDbEntity
  8
DEFPOINTS
 62
     0
 48
50.0
100
AcDbPoint
 10
7632.845960683501
 20
1854.546138798259
 30
0.0
  0
POINT
  5
2C6C4
330
2C52F
100
AcDbEntity
  8
DEFPOINTS
 62
     0
 48
50.0
100
AcDbPoint
 10
8605.250043043339
 20
1854.546138798259
 30
0.0
  0
ENDBLK
  5
2C53C
330
2C52F
100
AcDbEntity
  8
0
 48
50.0
100
AcDbBlockEnd
  0
BLOCK
  5
2C546
330
2C53D
100
AcDbEntity
  8
0
 48
50.0
100
AcDbBlockBegin
  2
*D41
 70
     1
 10
0.0
 20
0.0
 30
0.0
  3
*D41
  1

  0
LINE
  5
2C6B1
330
2C53D
100
AcDbEntity
  8
寸法
 62
     0
 48
50.0
370
    -2
100
AcDbLine
 10
7652.845960683501
 20
1854.546138798259
 30
0.0
 11
8320.181710394555
 21
1854.546138798259
 31
0.0
  0
LINE
  5
2C6B2
330
2C53D
100
AcDbEntity
  8
寸法
 62
     0
 48
50.0
370
    -2
100
AcDbLine
 10
7652.845960683501
 20
1449.546138798256
 30
0.0
 11
8320.181710394555
 21
1449.546138798256
 31
0.0
  0
LINE
  5
2C6B3
330
2C53D
100
AcDbEntity
  8
寸法
 62
     0
 48
50.0
370
    -2
100
AcDbLine
 10
8260.181710394556
 20
1854.546138798259
 30
0.0
 11
8260.181710394556
 21
1449.546138798256
 31
0.0
  0
INSERT
  5
2C6B4
330
2C53D
100
AcDbEntity
  8
寸法
 62
     0
 48
50.0
370
    -2
100
AcDbBlockReference
  2
_DOTSMALL
 10
8260.181710394556
 20
1854.546138798259
 30
0.0
 41
100.0
 42
100.0
 43
100.0
 50
90.0
  0
INSERT
  5
2C6B5
330
2C53D
100
AcDbEntity
  8
寸法
 62
     0
 48
50.0
370
    -2
100
AcDbBlockReference
  2
_DOTSMALL
 10
8260.181710394556
 20
1449.546138798256
 30
0.0
 41
100.0
 42
100.0
 43
100.0
 50
270.0
  0
MTEXT
  5
2C6B6
330
2C53D
100
AcDbEntity
  8
寸法
 62
     7
 48
50.0
100
AcDbMText
 10
8160.181710394557
 20
1652.046138798258
 30
0.0
 40
120.0
 41
0.0
 71
     5
 72
     1
  1
\A1;180
  7
STYLE1
 11
0.0000000000000001
 21
1.0
 31
0.0
 73
     1
 44
1.0
1001
ACAD
1000
MTEXTBEGIN
1070
    73
1070
     1
1070
    44
1040
1.0
1070
    74
1070
     0
1000
MTEXTEND
  0
POINT
  5
2C6B7
330
2C53D
100
AcDbEntity
  8
DEFPOINTS
 62
     0
 48
50.0
100
AcDbPoint
 10
7632.845960683501
 20
1854.546138798259
 30
0.0
  0
POINT
  5
2C6B8
330
2C53D
100
AcDbEntity
  8
DEFPOINTS
 62
     0
 48
50.0
100
AcDbPoint
 10
7632.845960683501
 20
1449.546138798256
 30
0.0
  0
POINT
  5
2C6B9
330
2C53D
100
AcDbEntity
  8
DEFPOINTS
 62
     0
 48
50.0
100
AcDbPoint
 10
8260.181710394556
 20
1449.546138798256
 30
0.0
  0
ENDBLK
  5
2C547
330
2C53D
100
AcDbEntity
  8
0
 48
50.0
100
AcDbBlockEnd
  0
ENDSEC
  0
SECTION
  2
ENTITIES
  0
MTEXT
  5
763F
330
747D
100
AcDbEntity
  8
0
100
AcDbMText
 10
302.846345836809
 20
280.1983726409901
 30
0.0
 40
3.5
 41
5.323721266742722
 71
     1
 72
     5
  1

  7
MSMINCHO
 73
     1
 44
1.0
1001
ACAD
1000
MTEXTBEGIN
1070
    73
1070
     1
1070
    44
1040
1.0
1070
    74
1070
     0
1000
MTEXTEND
  0
LINE
  5
10B57
330
747D
100
AcDbEntity
  8
補助
  6
PHANTOM
 62
   230
 48
50.0
100
AcDbLine
 10
139.9999999999995
 20
11409.6
 30
0.0
 11
16307.2
 21
11409.6
 31
0.0
  0
LINE
  5
10B59
330
747D
100
AcDbEntity
  8
仕様書枠
  6
Continuous
 48
50.0
100
AcDbLine
 10
13107.2
 20
1200.0
 30
0.0
 11
13107.2
 21
-0.0000000000000729
 31
0.0
  0
LINE
  5
10B5D
330
747D
100
AcDbEntity
  8
仕様書枠
 48
50.0
100
AcDbLine
 10
140.0
 20
0.0
 30
0.0
 11
16307.2
 21
-0.0000000000000909
 31
0.0
  0
LINE
  5
10B5E
330
747D
100
AcDbEntity
  8
補助
  6
PHANTOM
 62
   230
 48
50.0
100
AcDbLine
 10
16307.2
 20
11409.6
 30
0.0
 11
16307.2
 21
1200.0
 31
0.0
  0
LINE
  5
10B6C
330
747D
100
AcDbEntity
  8
仕様書枠
 48
50.0
100
AcDbLine
 10
13107.2
 20
1200.0
 30
0.0
 11
16307.2
 21
1200.0
 31
0.0
  0
TEXT
  5
10B73
330
747D
100
AcDbEntity
  8
文字
 62
     7
 48
50.0
100
AcDbText
 10
13162.9790565769
 20
895.0906074299405
 30
0.0
 40
200.0
  1
基 礎 図
  7
STYLE2
100
AcDbText
  0
LINE
  5
10B7B
330
747D
100
AcDbEntity
  8
仕様書枠
 48
50.0
100
AcDbLine
 10
13107.2
 20
800.0
 30
0.0
 11
14251.2
 21
800.0
 31
0.0
  0
LINE
  5
10B88
330
747D
100
AcDbEntity
  8
仕様書枠
  6
Continuous
 48
50.0
100
AcDbLine
 10
14251.2
 20
1200.0
 30
0.0
 11
14251.2
 21
800.0
 31
0.0
  0
LINE
  5
16462
330
747D
100
AcDbEntity
  8
仕様書枠
 48
50.0
100
AcDbLine
 10
16307.2
 20
1200.0
 30
0.0
 11
16307.2
 21
-0.0000000000000909
 31
0.0
  0
LINE
  5
1903B
330
747D
100
AcDbEntity
  8
補助
  6
PHANTOM
 62
   230
 48
50.0
100
AcDbLine
 10
140.0
 20
0.0
 30
0.0
 11
139.9999999999995
 21
11409.6
 31
0.0
  0
LEADER
  5
1AC27
330
747D
100
AcDbEntity
  8
寸法
 48
50.0
100
AcDbLeader
  3
INABA_S40G
 73
     0
 74
     0
 75
     1
 40
120.0
 41
720.0000000000001
 76
     3
 10
11698.695499615
 20
6959.161804937228
 30
0.0
 10
11865.46907400128
 20
6683.147891369394
 30
0.0
 10
11965.46907400128
 20
6683.147891369394
 30
0.0
340
1AC28
1001
ACAD
1000
DSTYLE
1002
{
1070
   341
1005
0
1002
}
  0
MTEXT
  5
1AC28
102
{ACAD_REACTORS
330
1AC27
102
}
330
747D
100
AcDbEntity
  8
部品1
 62
     7
 48
50.0
100
AcDbMText
 10
12725.46907400128
 20
6783.147891369394
 30
0.0
 40
120.0
 41
0.0
 71
     6
 72
     1
  1
\A1;床下換気口
  7
STYLE1
 73
     1
 44
1.0
1001
ACAD
1000
MTEXTBEGIN
1070
    73
1070
     1
1070
    44
1040
1.0
1070
    74
1070
     0
1000
MTEXTEND
  0
TEXT
  5
1AC29
330
747D
100
AcDbEntity
  8
部品1
 48
50.0
100
AcDbText
 10
12042.50116389397
 20
5349.868733018627
 30
0.0
 40
80.0
  1
(a=45,b=55,c=75)
  7
STYLE1
100
AcDbText
  0
TEXT
  5
1AC2A
330
747D
100
AcDbEntity
  8
部品1
 48
50.0
100
AcDbText
 10
11883.92215513967
 20
5456.713953887383
 30
0.0
 40
80.0
  1
※a,b,cは屋根の出幅です。
  7
STYLE1
100
AcDbText
  0
MTEXT
  5
1AC2B
102
{ACAD_REACTORS
330
1AC2C
102
}
330
747D
100
AcDbEntity
  8
部品1
 62
     7
 48
50.0
100
AcDbMText
 10
12681.70935112828
 20
5636.024640820457
 30
0.0
 40
120.0
 41
0.0
 71
     6
 72
     1
  1
\A1;屋根の外寸
  7
STYLE1
 73
     1
 44
1.0
1001
ACAD
1000
MTEXTBEGIN
1070
    73
1070
     1
1070
    44
1040
1.0
1070
    74
1070
     0
1000
MTEXTEND
  0
LEADER
  5
1AC2C
330
747D
100
AcDbEntity
  8
寸法
 48
50.0
100
AcDbLeader
  3
INABA_S40G
 73
     0
 74
     0
 75
     1
 40
120.0
 41
672.0
 76
     3
 10
11743.76933893624
 20
5809.913984284032
 30
0.0
 10
11869.70935112828
 20
5536.024640820457
 30
0.0
 10
11969.70935112828
 20
5536.024640820457
 30
0.0
340
1AC2B
1001
ACAD
1000
DSTYLE
1002
{
1070
   341
1005
0
1002
}
  0
TEXT
  5
1C7A1
330
747D
100
AcDbEntity
  8
文字
 62
     7
 48
50.0
100
AcDbText
 10
13188.16259899338
 20
79.80631269190417
 30
0.0
 40
80.0
  1
※布基礎には換気口を設けてください。
  7
STYLE2
100
AcDbText
  0
TEXT
  5
1C7E7
330
747D
100
AcDbEntity
  8
文字
 62
     7
 48
50.0
100
AcDbText
 10
13188.16259899338
 20
246.7109242801889
 30
0.0
 40
80.0
  1
※寒冷地等は地域の実情に合わせた基礎にして下さい。
  7
STYLE2
100
AcDbText
  0
TEXT
  5
1C7E8
330
747D
100
AcDbEntity
  8
文字
 62
     7
 48
50.0
100
AcDbText
 10
14478.98566430227
 20
499.5983841039506
 30
0.0
 40
160.0
  1
ＮＸＮ－１８０Ｈ
  7
STYLE2
100
AcDbText
  0
TEXT
  5
1C7EC
330
747D
100
AcDbEntity
  8
文字
 62
     7
 48
50.0
100
AcDbText
 10
14524.131837222
 20
1031.557706291229
 30
0.0
 40
100.0
  1
      <縮尺> S=1/40
  7
STYLE2
100
AcDbText
  0
TEXT
  5
1C7ED
330
747D
100
AcDbEntity
  8
文字
 62
     7
 48
50.0
100
AcDbText
 10
13201.43669998441
 20
477.2740661031257
 30
0.0
 40
160.0
  1
機種名
  7
STYLE2
100
AcDbText
  0
LINE
  5
1C7EF
330
747D
100
AcDbEntity
  8
文字
 62
     7
 48
50.0
100
AcDbLine
 10
13187.2
 20
400.0
 30
0.0
 11
16227.2
 21
400.0
 31
0.0
  0
MTEXT
  5
1D2D5
102
{ACAD_REACTORS
330
1D2D6
102
}
330
747D
100
AcDbEntity
  8
部品1
 62
     7
 48
50.0
100
AcDbMText
 10
12893.99523070988
 20
8549.675544993299
 30
0.0
 40
120.0
 41
0.0
 71
     6
 72
     1
  1
アンカーボルト
  7
STYLE1
 73
     1
 44
1.0
1001
ACAD
1000
MTEXTBEGIN
1070
    73
1070
     1
1070
    44
1040
1.0
1070
    74
1070
     0
1000
MTEXTEND
  0
LEADER
  5
1D2D6
330
747D
100
AcDbEntity
  8
寸法
 48
50.0
100
AcDbLeader
  3
INABA_S40G
 73
     0
 74
     0
 75
     1
 40
120.0
 41
994.3492424049171
 76
     3
 10
11575.680085757
 20
8142.167478714126
 30
0.0
 10
11759.64598830496
 20
8449.675544993299
 30
0.0
 10
11859.64598830496
 20
8449.675544993299
 30
0.0
340
1D2D5
1001
ACAD
1000
DSTYLE
1002
{
1070
   341
1005
0
1002
}
  0
DIMENSION
  5
26F00
330
747D
100
AcDbEntity
  8
寸法
 48
50.0
100
AcDbDimension
  2
*D1
 10
8043.202780124335
 20
5624.959634355439
 30
0.0
 11
8043.202780124333
 21
5016.474352981202
 31
0.0
 70
   160
  1
扉の出<>
 71
     5
 42
75.0
  3
INABA_S40G
100
AcDbAlignedDimension
 13
7776.600000000001
 23
5549.959634355439
 33
0.0
 14
7776.600000000009
 24
5624.959634355439
 34
0.0
 50
90.0
100
AcDbRotatedDimension
1001
ACAD
1000
DSTYLE
1002
{
1070
   341
1005
0
1002
}
  0
DIMENSION
  5
26F1A
330
747D
100
AcDbEntity
  8
寸法
 48
50.0
100
AcDbDimension
  2
*D2
 10
4007.164931848214
 20
8264.959634355417
 30
0.0
 11
3907.164931848213
 21
8302.45963435542
 31
0.0
 70
    32
  1
c
 71
     5
 42
75.00000000000546
  3
INABA_S40G
100
AcDbAlignedDimension
 13
4252.657733986182
 23
8339.959634355421
 33
0.0
 14
4748.600000000004
 24
8264.959634355415
 34
0.0
 50
90.0
100
AcDbRotatedDimension
1001
ACAD
1000
DSTYLE
1002
{
1070
   341
1005
0
1002
}
  0
DIMENSION
  5
26F3F
330
747D
100
AcDbEntity
  8
寸法
 48
50.0
100
AcDbDimension
  2
*D3
 10
4007.164931848211
 20
5569.95963435544
 30
0.0
 11
3907.16493184821
 21
5597.45963435543
 31
0.0
 70
    32
  1
b
 71
     5
 42
54.99999999997726
  3
INABA_S40G
100
AcDbAlignedDimension
 13
4755.050294581424
 23
5624.959634355416
 33
0.0
 14
4252.657733986182
 24
5569.95963435544
 34
0.0
 50
90.0
100
AcDbRotatedDimension
1001
ACAD
1000
DSTYLE
1002
{
1070
   341
1005
0
1002
}
  0
DIMENSION
  5
26F64
330
747D
100
AcDbEntity
  8
寸法
 48
50.0
100
AcDbDimension
  2
*D4
 10
11743.6
 20
9223.179956414337
 30
0.0
 11
12014.77462120245
 21
9223.179956414337
 31
0.0
 70
   160
  1
a
 71
     5
 42
45.0
  3
INABA_S40G
100
AcDbAlignedDimension
 13
11698.6
 23
8264.959634355415
 33
0.0
 14
11743.6
 24
9010.7192608975
 34
0.0
100
AcDbRotatedDimension
1001
ACAD
1000
DSTYLE
1002
{
1070
   341
1005
0
1002
}
  0
DIMENSION
  5
26F7E
330
747D
100
AcDbEntity
  8
寸法
 48
50.0
100
AcDbDimension
  2
*D5
 10
4748.6
 20
9223.179956414337
 30
0.0
 11
4432.425378797542
 21
9223.179956414337
 31
0.0
 70
   160
  1
a
 71
     5
 42
44.99999999999454
  3
INABA_S40G
100
AcDbAlignedDimension
 13
4703.600000000005
 23
9010.7192608975
 33
0.0
 14
4748.6
 24
8264.959634355415
 34
0.0
100
AcDbRotatedDimension
1001
ACAD
1000
DSTYLE
1002
{
1070
   341
1005
0
1002
}
  0
DIMENSION
  5
2701E
330
747D
100
AcDbEntity
  8
寸法
 48
50.0
100
AcDbDimension
  2
*D6
 10
5889.18320630424
 20
5744.959634355422
 30
0.0
 11
5889.183206304239
 21
5311.264693151533
 31
0.0
 70
   160
 71
     5
 42
194.9999999999936
  3
INABA_S40G
100
AcDbAlignedDimension
 13
5621.6
 23
5549.959634355428
 33
0.0
 14
5621.6
 24
5744.959634355422
 34
0.0
 50
90.0
100
AcDbRotatedDimension
1001
ACAD
1000
DSTYLE
1002
{
1070
   341
1005
0
1002
}
  0
MTEXT
  5
29996
102
{ACAD_REACTORS
330
29997
102
}
330
747D
100
AcDbEntity
  8
部品1
 62
     7
 48
50.0
100
AcDbMText
 10
6058.44032895342
 20
6161.970398091892
 30
0.0
 40
120.0
 41
0.0
 71
     6
 72
     1
  1
CB
  7
STYLE1
 73
     1
 44
1.0
1001
ACAD
1000
MTEXTBEGIN
1070
    73
1070
     1
1070
    44
1040
1.0
1070
    74
1070
     0
1000
MTEXTEND
  0
LEADER
  5
29997
330
747D
100
AcDbEntity
  8
寸法
 48
50.0
100
AcDbLeader
  3
INABA_S40G
 73
     0
 74
     0
 75
     1
 40
120.0
 41
149.591883092037
 76
     3
 10
5631.565642998737
 20
6337.984311659724
 30
0.0
 10
5768.848445861383
 20
6061.970398091892
 30
0.0
 10
5868.848445861383
 20
6061.970398091892
 30
0.0
340
29996
1001
ACAD
1000
DSTYLE
1002
{
1070
   341
1005
0
1002
}
  0
DIMENSION
  5
2A1B2
330
747D
100
AcDbEntity
  8
寸法
 48
50.0
100
AcDbDimension
  2
*D7
 10
8223.600000000001
 20
8791.869400003745
 30
0.0
 11
8675.1
 21
8891.869400003745
 31
0.0
 70
    32
 71
     5
 42
903.0
  3
INABA_S40G
100
AcDbAlignedDimension
 13
9126.600000000001
 23
7589.959634355416
 33
0.0
 14
8223.600000000001
 24
7489.959634355416
 34
0.0
100
AcDbRotatedDimension
1001
ACAD
1000
DSTYLE
1002
{
1070
   341
1005
0
1002
}
  0
LINE
  5
2A1B3
102
{ACAD_REACTORS
330
2C642
102
}
330
747D
100
AcDbEntity
  8
部品1
 48
50.0
100
AcDbLine
 10
11468.6
 20
5744.959634355433
 30
0.0
 11
8235.600000000001
 21
5744.959634355428
 31
0.0
  0
LINE
  5
2A1B4
102
{ACAD_REACTORS
330
2C642
102
}
330
747D
100
AcDbEntity
  8
部品1
 48
50.0
100
AcDbLine
 10
11698.6
 20
5624.959634355435
 30
0.0
 11
7776.600000000001
 21
5624.959634355416
 31
0.0
  0
LINE
  5
2A1B5
102
{ACAD_REACTORS
330
2C642
102
}
330
747D
100
AcDbEntity
  8
部品1
 48
50.0
100
AcDbLine
 10
11468.6
 20
8144.959634355414
 30
0.0
 11
8235.600000000001
 21
8144.959634355416
 31
0.0
  0
DIMENSION
  5
2A1B6
330
747D
100
AcDbEntity
  8
寸法
 48
50.0
100
AcDbDimension
  2
*D8
 10
8105.6
 20
9010.7192608975
 30
0.0
 11
9840.600000000002
 21
9110.7192608975
 31
0.0
 70
    32
 71
     5
 42
3470.0
  3
INABA_S40G
100
AcDbAlignedDimension
 13
11575.6
 23
8191.959634355418
 33
0.0
 14
8105.6
 24
8191.959634355418
 34
0.0
100
AcDbRotatedDimension
1001
ACAD
1000
DSTYLE
1002
{
1070
   341
1005
0
1002
}
  0
DIMENSION
  5
2A1B7
330
747D
100
AcDbEntity
  8
寸法
 48
50.0
100
AcDbDimension
  2
*D9
 10
11698.6
 20
9223.179956414337
 30
0.0
 11
8223.600000000001
 21
9323.179956414337
 31
0.0
 70
    32
 71
     5
 42
6950.0
  3
INABA_S40G
100
AcDbAlignedDimension
 13
4748.6
 23
8264.959634355417
 33
0.0
 14
11698.6
 24
8264.959634355417
 34
0.0
100
AcDbRotatedDimension
1001
ACAD
1000
DSTYLE
1002
{
1070
   341
1005
0
1002
}
  0
LINE
  5
2A1B8
102
{ACAD_REACTORS
330
2C642
102
}
330
747D
100
AcDbEntity
  8
部品1
 48
50.0
100
AcDbLine
 10
11698.6
 20
8264.959634355417
 30
0.0
 11
4748.6
 21
8264.959634355417
 31
0.0
  0
LINE
  5
2A1CC
102
{ACAD_REACTORS
330
2C642
102
}
330
747D
100
AcDbEntity
  8
部品1
 48
50.0
100
AcDbLine
 10
4748.6
 20
5624.959634355416
 30
0.0
 11
4748.6
 21
8264.959634355417
 31
0.0
  0
LINE
  5
2A1CD
102
{ACAD_REACTORS
330
2C642
102
}
330
747D
100
AcDbEntity
  8
部品1
 48
50.0
100
AcDbLine
 10
4868.6
 20
5854.959634355417
 30
0.0
 11
4868.6
 21
8034.959634355413
 31
0.0
  0
DIMENSION
  5
2A1CE
330
747D
100
AcDbEntity
  8
寸法
 48
50.0
100
AcDbDimension
  2
*D10
 10
4007.164931848211
 20
5624.959634355416
 30
0.0
 11
3907.153120824588
 21
6944.959634355419
 31
0.0
 70
    32
 71
     5
 42
2640.000000000001
  3
INABA_S40G
100
AcDbAlignedDimension
 13
4748.6
 23
8264.959634355417
 33
0.0
 14
4748.6
 24
5624.959634355416
 34
0.0
 50
90.0
100
AcDbRotatedDimension
1001
ACAD
1000
DSTYLE
1002
{
1070
   341
1005
0
1002
}
  0
DIMENSION
  5
2A1CF
330
747D
100
AcDbEntity
  8
寸法
 48
50.0
100
AcDbDimension
  2
*D11
 10
4252.657733986178
 20
5747.959634355417
 30
0.0
 11
4152.645922962554
 21
6944.959634355419
 31
0.0
 70
    32
 71
     5
 42
2394.0
  3
INABA_S40G
100
AcDbAlignedDimension
 13
4821.6
 23
8141.959634355417
 33
0.0
 14
4821.600000000008
 24
5747.959634355417
 34
0.0
 50
90.0
100
AcDbRotatedDimension
1001
ACAD
1000
DSTYLE
1002
{
1070
   341
1005
0
1002
}
  0
LINE
  5
2A22E
330
747D
100
AcDbEntity
  8
部品1
 48
50.0
100
AcDbLine
 10
4748.6
 20
5624.959634355416
 30
0.0
 11
5621.6
 21
5624.959634355416
 31
0.0
  0
LINE
  5
2A22F
102
{ACAD_REACTORS
330
2C642
102
}
330
747D
100
AcDbEntity
  8
部品1
 48
50.0
100
AcDbLine
 10
7975.6
 20
5744.959634355426
 30
0.0
 11
4978.6
 21
5744.959634355421
 31
0.0
  0
DIMENSION
  5
2A231
330
747D
100
AcDbEntity
  8
寸法
 48
50.0
100
AcDbDimension
  2
*D12
 10
4748.6
 20
5005.953244700697
 30
0.0
 11
5185.100000000001
 21
5105.953244700697
 31
0.0
 70
    32
 71
     5
 42
873.0
  3
INABA_S40G
100
AcDbAlignedDimension
 13
5621.6
 23
5549.959634355406
 33
0.0
 14
4748.6
 24
5624.959634355416
 34
0.0
100
AcDbRotatedDimension
1001
ACAD
1000
DSTYLE
1002
{
1070
   341
1005
0
1002
}
  0
DIMENSION
  5
2A233
330
747D
100
AcDbEntity
  8
寸法
 48
50.0
100
AcDbDimension
  2
*D13
 10
4252.657733986178
 20
5624.959634355416
 30
0.0
 11
4252.657733986178
 21
5289.428685512825
 31
0.0
 70
   160
 71
     5
 42
123.0000000000009
  3
INABA_S40G
100
AcDbAlignedDimension
 13
4821.600000000008
 23
5747.959634355417
 33
0.0
 14
4748.6
 24
5624.959634355416
 34
0.0
 50
90.0
100
AcDbRotatedDimension
1001
ACAD
1000
DSTYLE
1002
{
1070
   341
1005
0
1002
}
  0
LINE
  5
2A234
330
747D
100
AcDbEntity
  8
部品1
 48
50.0
100
AcDbLine
 10
4978.6
 20
5854.95963435542
 30
0.0
 11
4868.6
 21
5854.959634355417
 31
0.0
  0
LINE
  5
2A235
330
747D
100
AcDbEntity
  8
センター
 48
2.0
100
AcDbLine
 10
4821.600000000008
 20
5747.959634355417
 30
0.0
 11
4921.600000000008
 21
5747.959634355417
 31
0.0
  0
CIRCLE
  5
2A236
330
747D
100
AcDbEntity
  8
部品1
 48
50.0
100
AcDbCircle
 10
4871.600000000007
 20
5747.959634355417
 30
0.0
 40
35.0
  0
LINE
  5
2A237
330
747D
100
AcDbEntity
  8
センター
 48
2.0
100
AcDbLine
 10
4871.600000000007
 20
5797.959634355418
 30
0.0
 11
4871.600000000007
 21
5697.959634355417
 31
0.0
  0
LINE
  5
2A238
330
747D
100
AcDbEntity
  8
部品1
 48
50.0
100
AcDbLine
 10
4978.6
 20
5744.959634355417
 30
0.0
 11
4978.6
 21
5854.95963435542
 31
0.0
  0
LINE
  5
2A23A
102
{ACAD_REACTORS
330
2C642
102
}
330
747D
100
AcDbEntity
  8
部品1
 48
50.0
100
AcDbLine
 10
7776.600000000001
 20
5549.95963435542
 30
0.0
 11
5621.6
 21
5549.959634355406
 31
0.0
  0
LINE
  5
2A23D
330
747D
100
AcDbEntity
  8
部品1
 48
50.0
100
AcDbLine
 10
5621.6
 20
5549.959634355422
 30
0.0
 11
5621.6
 21
5624.959634355406
 31
0.0
  0
LINE
  5
2A2B2
102
{ACAD_REACTORS
330
2C642
102
}
330
747D
100
AcDbEntity
  8
部品1
 48
50.0
100
AcDbLine
 10
6388.600000000009
 20
5744.959634355424
 30
0.0
 11
6388.600000000009
 21
5549.959634355412
 31
0.0
  0
LINE
  5
2A333
102
{ACAD_REACTORS
330
2C642
102
}
330
747D
100
AcDbEntity
  8
部品1
 48
50.0
100
AcDbLine
 10
6588.600000000008
 20
5744.959634355424
 30
0.0
 11
6588.600000000005
 21
5549.959634355412
 31
0.0
  0
LINE
  5
2A418
330
747D
100
AcDbEntity
  8
部品1
 48
50.0
100
AcDbLine
 10
8235.600000000001
 20
5854.959634355434
 30
0.0
 11
7975.6
 21
5854.959634355434
 31
0.0
  0
LINE
  5
2A419
330
747D
100
AcDbEntity
  8
部品1
 48
50.0
100
AcDbLine
 10
7776.600000000001
 20
5549.959634355422
 30
0.0
 11
7776.600000000001
 21
5624.959634355419
 31
0.0
  0
LINE
  5
2A44A
330
747D
100
AcDbEntity
  8
部品1
 48
50.0
100
AcDbLine
 10
7975.599999999999
 20
5744.959634355424
 30
0.0
 11
7975.6
 21
5854.959634355434
 31
0.0
  0
LINE
  5
2A44B
330
747D
100
AcDbEntity
  8
部品1
 48
50.0
100
AcDbLine
 10
8235.600000000003
 20
5744.959634355428
 30
0.0
 11
8235.600000000001
 21
5854.959634355434
 31
0.0
  0
LINE
  5
2A44C
330
747D
100
AcDbEntity
  8
センター
 48
2.0
100
AcDbLine
 10
8105.600000000007
 20
5797.959634355418
 30
0.0
 11
8105.600000000007
 21
5697.959634355417
 31
0.0
  0
CIRCLE
  5
2A44D
330
747D
100
AcDbEntity
  8
部品1
 48
50.0
100
AcDbCircle
 10
8105.600000000007
 20
5747.959634355417
 30
0.0
 40
35.0
  0
LINE
  5
2A44E
330
747D
100
AcDbEntity
  8
センター
 48
2.0
100
AcDbLine
 10
8055.600000000008
 20
5747.959634355417
 30
0.0
 11
8155.600000000008
 21
5747.959634355417
 31
0.0
  0
DIMENSION
  5
2A44F
330
747D
100
AcDbEntity
  8
寸法
 48
50.0
100
AcDbDimension
  2
*D14
 10
5195.3072498761
 20
8264.959634355415
 30
0.0
 11
5195.307249876099
 21
8543.043177628304
 31
0.0
 70
   160
 71
     5
 42
119.9999999999991
  3
INABA_S40G
100
AcDbAlignedDimension
 13
4978.6
 23
8144.959634355416
 33
0.0
 14
4978.600000000002
 24
8264.959634355415
 34
0.0
 50
90.0
100
AcDbRotatedDimension
1001
ACAD
1000
DSTYLE
1002
{
1070
   341
1005
0
1002
}
  0
DIMENSION
  5
2A450
330
747D
100
AcDbEntity
  8
寸法
 48
50.0
100
AcDbDimension
  2
*D15
 10
4748.6
 20
8791.869400003745
 30
0.0
 11
5202.6
 21
8891.869400003745
 31
0.0
 70
    32
 71
     5
 42
908.0
  3
INABA_S40G
100
AcDbAlignedDimension
 13
5656.6
 23
7589.959634355416
 33
0.0
 14
4748.6
 24
8264.959634355417
 34
0.0
100
AcDbRotatedDimension
1001
ACAD
1000
DSTYLE
1002
{
1070
   341
1005
0
1002
}
  0
DIMENSION
  5
2A451
330
747D
100
AcDbEntity
  8
寸法
 48
50.0
100
AcDbDimension
  2
*D16
 10
5195.3072498761
 20
8034.959634355413
 30
0.0
 11
5195.307249876099
 21
7694.900579237304
 31
0.0
 70
   160
 71
     5
 42
110.0000000000054
  3
INABA_S40G
100
AcDbAlignedDimension
 13
4978.6
 23
8144.959634355418
 33
0.0
 14
4978.6
 24
8034.959634355413
 34
0.0
 50
90.0
100
AcDbRotatedDimension
1001
ACAD
1000
DSTYLE
1002
{
1070
   341
1005
0
1002
}
  0
DIMENSION
  5
2A452
330
747D
100
AcDbEntity
  8
寸法
 48
50.0
100
AcDbDimension
  2
*D17
 10
4871.6
 20
9010.7192608975
 30
0.0
 11
6488.600000000001
 21
9110.73107192112
 31
0.0
 70
    32
 71
     5
 42
3234.0
  3
INABA_S40G
100
AcDbAlignedDimension
 13
8105.6
 23
8191.959634355418
 33
0.0
 14
4871.6
 24
8191.959634355418
 34
0.0
100
AcDbRotatedDimension
1001
ACAD
1000
DSTYLE
1002
{
1070
   341
1005
0
1002
}
  0
LINE
  5
2A453
102
{ACAD_REACTORS
330
2C642
102
}
330
747D
100
AcDbEntity
  8
部品1
 48
50.0
100
AcDbLine
 10
7975.6
 20
8144.959634355416
 30
0.0
 11
4978.6
 21
8144.959634355416
 31
0.0
  0
DIMENSION
  5
2A455
330
747D
100
AcDbEntity
  8
寸法
 48
50.0
100
AcDbDimension
  2
*D18
 10
4252.657733986178
 20
8141.959634355417
 30
0.0
 11
4252.657733986178
 21
8538.066236073218
 31
0.0
 70
   160
 71
     5
 42
123.0
  3
INABA_S40G
100
AcDbAlignedDimension
 13
4748.6
 23
8264.959634355417
 33
0.0
 14
4821.6
 24
8141.959634355417
 34
0.0
 50
90.0
100
AcDbRotatedDimension
1001
ACAD
1000
DSTYLE
1002
{
1070
   341
1005
0
1002
}
  0
DIMENSION
  5
2A456
330
747D
100
AcDbEntity
  8
寸法
 48
50.0
100
AcDbDimension
  2
*D19
 10
4748.6
 20
9010.7192608975
 30
0.0
 11
4475.493398282202
 21
9010.7192608975
 31
0.0
 70
   160
 71
     5
 42
123.0
  3
INABA_S40G
100
AcDbAlignedDimension
 13
4871.6
 23
8191.959634355418
 33
0.0
 14
4748.6
 24
8264.959634355417
 34
0.0
100
AcDbRotatedDimension
1001
ACAD
1000
DSTYLE
1002
{
1070
   341
1005
0
1002
}
  0
LINE
  5
2A457
102
{ACAD_REACTORS
330
2C642
102
}
330
747D
100
AcDbEntity
  8
部品1
 48
50.0
100
AcDbLine
 10
4868.6
 20
7044.959634355414
 30
0.0
 11
4748.6
 21
7044.959634355414
 31
0.0
  0
LINE
  5
2A458
102
{ACAD_REACTORS
330
2C642
102
}
330
747D
100
AcDbEntity
  8
部品1
 48
50.0
100
AcDbLine
 10
4868.6
 20
6844.959634355415
 30
0.0
 11
4748.6
 21
6844.959634355415
 31
0.0
  0
LINE
  5
2A45A
330
747D
100
AcDbEntity
  8
部品1
 48
50.0
100
AcDbLine
 10
4978.599999999999
 20
8034.959634355413
 30
0.0
 11
4868.6
 21
8034.959634355415
 31
0.0
  0
LINE
  5
2A45B
330
747D
100
AcDbEntity
  8
センター
 48
2.0
100
AcDbLine
 10
4821.6
 20
8141.959634355417
 30
0.0
 11
4921.600000000001
 21
8141.959634355417
 31
0.0
  0
CIRCLE
  5
2A45C
330
747D
100
AcDbEntity
  8
部品1
 48
50.0
100
AcDbCircle
 10
4871.6
 20
8141.959634355417
 30
0.0
 40
35.0
  0
LINE
  5
2A45D
330
747D
100
AcDbEntity
  8
センター
 48
2.0
100
AcDbLine
 10
4871.6
 20
8191.959634355418
 30
0.0
 11
4871.6
 21
8091.959634355417
 31
0.0
  0
LINE
  5
2A45E
330
747D
100
AcDbEntity
  8
部品1
 48
50.0
100
AcDbLine
 10
4978.599999999999
 20
8034.959634355413
 30
0.0
 11
4978.6
 21
8144.959634355416
 31
0.0
  0
LINE
  5
2A460
330
747D
100
AcDbEntity
  8
部品1
 48
50.0
100
AcDbLine
 10
5147.928907166848
 20
8264.959634355413
 30
0.0
 11
4748.6
 21
8264.959634355417
 31
0.0
  0
DIMENSION
  5
2A461
330
747D
100
AcDbEntity
  8
寸法
 48
50.0
100
AcDbDimension
  2
*D20
 10
7320.6
 20
8791.869400003745
 30
0.0
 11
7772.1
 21
8891.869400003745
 31
0.0
 70
    32
 71
     5
 42
903.0
  3
INABA_S40G
100
AcDbAlignedDimension
 13
8223.600000000001
 23
7489.959634355416
 33
0.0
 14
7320.6
 24
7589.959634355416
 34
0.0
100
AcDbRotatedDimension
1001
ACAD
1000
DSTYLE
1002
{
1070
   341
1005
0
1002
}
  0
LINE
  5
2A462
102
{ACAD_REACTORS
330
2C642
102
}
330
747D
100
AcDbEntity
  8
部品1
 48
50.0
100
AcDbLine
 10
6588.600000000003
 20
8264.959634355417
 30
0.0
 11
6588.600000000003
 21
8144.959634355416
 31
0.0
  0
LINE
  5
2A463
102
{ACAD_REACTORS
330
2C642
102
}
330
747D
100
AcDbEntity
  8
部品1
 48
50.0
100
AcDbLine
 10
6388.600000000002
 20
8264.959634355417
 30
0.0
 11
6388.600000000002
 21
8144.959634355416
 31
0.0
  0
DIMENSION
  5
2A465
330
747D
100
AcDbEntity
  8
寸法
 48
50.0
100
AcDbDimension
  2
*D21
 10
5656.6
 20
8791.869400003745
 30
0.0
 11
6072.600000000001
 21
8891.881211027365
 31
0.0
 70
    32
 71
     5
 42
832.0000000000009
  3
INABA_S40G
100
AcDbAlignedDimension
 13
6488.600000000001
 23
7589.959634355416
 33
0.0
 14
5656.6
 24
7589.959634355416
 34
0.0
100
AcDbRotatedDimension
1001
ACAD
1000
DSTYLE
1002
{
1070
   341
1005
0
1002
}
  0
DIMENSION
  5
2A466
330
747D
100
AcDbEntity
  8
寸法
 48
50.0
100
AcDbDimension
  2
*D22
 10
6488.600000000001
 20
8791.869400003745
 30
0.0
 11
6904.600000000001
 21
8891.881211027365
 31
0.0
 70
    32
 71
     5
 42
831.9999999999991
  3
INABA_S40G
100
AcDbAlignedDimension
 13
7320.6
 23
7589.959634355416
 33
0.0
 14
6488.600000000001
 24
7589.959634355416
 34
0.0
100
AcDbRotatedDimension
1001
ACAD
1000
DSTYLE
1002
{
1070
   341
1005
0
1002
}
  0
LINE
  5
2A469
330
747D
100
AcDbEntity
  8
センター
 48
2.0
100
AcDbLine
 10
5656.6
 20
6549.959634355417
 30
0.0
 11
5656.6
 21
6449.959634355417
 31
0.0
  0
LINE
  5
2A46A
330
747D
100
AcDbEntity
  8
部品1
 48
50.0
100
AcDbLine
 10
5556.6
 20
6299.959634355418
 30
0.0
 11
5556.6
 21
6699.959634355417
 31
0.0
  0
LINE
  5
2A46B
330
747D
100
AcDbEntity
  8
部品1
 48
50.0
100
AcDbLine
 10
5756.6
 20
6299.959634355415
 30
0.0
 11
5756.6
 21
6699.959634355417
 31
0.0
  0
LINE
  5
2A46C
330
747D
100
AcDbEntity
  8
部品1
 48
50.0
100
AcDbLine
 10
5756.6
 20
6299.959634355415
 30
0.0
 11
5556.6
 21
6299.959634355415
 31
0.0
  0
LINE
  5
2A46D
330
747D
100
AcDbEntity
  8
部品1
 48
50.0
100
AcDbLine
 10
5756.6
 20
6699.959634355417
 30
0.0
 11
5556.6
 21
6699.959634355417
 31
0.0
  0
LINE
  5
2A46E
330
747D
100
AcDbEntity
  8
センター
 48
2.0
100
AcDbLine
 10
5606.6
 20
6499.959634355417
 30
0.0
 11
5706.6
 21
6499.959634355417
 31
0.0
  0
LINE
  5
2A46F
330
747D
100
AcDbEntity
  8
センター
 48
2.0
100
AcDbLine
 10
6488.600000000001
 20
6549.959634355417
 30
0.0
 11
6488.600000000001
 21
6449.959634355417
 31
0.0
  0
LINE
  5
2A470
330
747D
100
AcDbEntity
  8
部品1
 48
50.0
100
AcDbLine
 10
6588.600000000001
 20
6299.959634355415
 30
0.0
 11
6588.600000000001
 21
6699.959634355417
 31
0.0
  0
LINE
  5
2A471
330
747D
100
AcDbEntity
  8
部品1
 48
50.0
100
AcDbLine
 10
6388.6
 20
6299.959634355418
 30
0.0
 11
6388.6
 21
6699.959634355417
 31
0.0
  0
LINE
  5
2A472
330
747D
100
AcDbEntity
  8
部品1
 48
50.0
100
AcDbLine
 10
6588.600000000001
 20
6299.959634355415
 30
0.0
 11
6388.6
 21
6299.959634355415
 31
0.0
  0
LINE
  5
2A473
330
747D
100
AcDbEntity
  8
部品1
 48
50.0
100
AcDbLine
 10
6588.600000000001
 20
6699.959634355417
 30
0.0
 11
6388.6
 21
6699.959634355417
 31
0.0
  0
LINE
  5
2A474
330
747D
100
AcDbEntity
  8
センター
 48
2.0
100
AcDbLine
 10
6438.6
 20
6499.959634355417
 30
0.0
 11
6538.600000000001
 21
6499.959634355417
 31
0.0
  0
LINE
  5
2A475
330
747D
100
AcDbEntity
  8
部品1
 48
50.0
100
AcDbLine
 10
5756.6
 20
7589.959634355416
 30
0.0
 11
5556.6
 21
7589.959634355416
 31
0.0
  0
LINE
  5
2A476
330
747D
100
AcDbEntity
  8
部品1
 48
50.0
100
AcDbLine
 10
5756.6
 20
7189.959634355415
 30
0.0
 11
5556.6
 21
7189.959634355415
 31
0.0
  0
LINE
  5
2A477
330
747D
100
AcDbEntity
  8
部品1
 48
50.0
100
AcDbLine
 10
5556.6
 20
7189.959634355417
 30
0.0
 11
5556.6
 21
7589.959634355416
 31
0.0
  0
LINE
  5
2A478
330
747D
100
AcDbEntity
  8
センター
 48
2.0
100
AcDbLine
 10
5656.6
 20
7439.959634355417
 30
0.0
 11
5656.6
 21
7339.959634355416
 31
0.0
  0
LINE
  5
2A479
330
747D
100
AcDbEntity
  8
部品1
 48
50.0
100
AcDbLine
 10
5756.6
 20
7189.959634355415
 30
0.0
 11
5756.6
 21
7589.959634355416
 31
0.0
  0
LINE
  5
2A47A
330
747D
100
AcDbEntity
  8
センター
 48
2.0
100
AcDbLine
 10
5606.6
 20
7389.959634355418
 30
0.0
 11
5706.6
 21
7389.959634355418
 31
0.0
  0
LINE
  5
2A47B
330
747D
100
AcDbEntity
  8
部品1
 48
50.0
100
AcDbLine
 10
6588.600000000001
 20
7589.959634355416
 30
0.0
 11
6388.6
 21
7589.959634355416
 31
0.0
  0
LINE
  5
2A47C
330
747D
100
AcDbEntity
  8
部品1
 48
50.0
100
AcDbLine
 10
6588.600000000001
 20
7189.959634355415
 30
0.0
 11
6388.6
 21
7189.959634355415
 31
0.0
  0
LINE
  5
2A47D
330
747D
100
AcDbEntity
  8
部品1
 48
50.0
100
AcDbLine
 10
6388.6
 20
7189.959634355417
 30
0.0
 11
6388.6
 21
7589.959634355416
 31
0.0
  0
LINE
  5
2A47E
330
747D
100
AcDbEntity
  8
センター
 48
2.0
100
AcDbLine
 10
6488.600000000001
 20
7439.959634355417
 30
0.0
 11
6488.600000000001
 21
7339.959634355416
 31
0.0
  0
LINE
  5
2A47F
330
747D
100
AcDbEntity
  8
部品1
 48
50.0
100
AcDbLine
 10
6588.600000000001
 20
7189.959634355415
 30
0.0
 11
6588.600000000001
 21
7589.959634355416
 31
0.0
  0
LINE
  5
2A480
330
747D
100
AcDbEntity
  8
センター
 48
2.0
100
AcDbLine
 10
6438.6
 20
7389.959634355418
 30
0.0
 11
6538.600000000001
 21
7389.959634355418
 31
0.0
  0
LINE
  5
2A481
330
747D
100
AcDbEntity
  8
センター
 48
2.0
100
AcDbLine
 10
7320.6
 20
6549.959634355417
 30
0.0
 11
7320.6
 21
6449.959634355417
 31
0.0
  0
LINE
  5
2A482
330
747D
100
AcDbEntity
  8
部品1
 48
50.0
100
AcDbLine
 10
7220.600000000001
 20
6299.959634355418
 30
0.0
 11
7220.600000000001
 21
6699.959634355417
 31
0.0
  0
LINE
  5
2A483
330
747D
100
AcDbEntity
  8
部品1
 48
50.0
100
AcDbLine
 10
7420.6
 20
6299.959634355415
 30
0.0
 11
7420.6
 21
6699.959634355417
 31
0.0
  0
LINE
  5
2A484
330
747D
100
AcDbEntity
  8
部品1
 48
50.0
100
AcDbLine
 10
7420.6
 20
6299.959634355415
 30
0.0
 11
7220.600000000001
 21
6299.959634355415
 31
0.0
  0
LINE
  5
2A485
330
747D
100
AcDbEntity
  8
部品1
 48
50.0
100
AcDbLine
 10
7420.6
 20
6699.959634355417
 30
0.0
 11
7220.600000000001
 21
6699.959634355417
 31
0.0
  0
LINE
  5
2A486
330
747D
100
AcDbEntity
  8
センター
 48
2.0
100
AcDbLine
 10
7270.6
 20
6499.959634355417
 30
0.0
 11
7370.6
 21
6499.959634355417
 31
0.0
  0
LINE
  5
2A48D
330
747D
100
AcDbEntity
  8
センター
 48
2.0
100
AcDbLine
 10
7320.6
 20
7439.959634355417
 30
0.0
 11
7320.6
 21
7339.959634355416
 31
0.0
  0
LINE
  5
2A48E
330
747D
100
AcDbEntity
  8
部品1
 48
50.0
100
AcDbLine
 10
7220.600000000001
 20
7189.959634355417
 30
0.0
 11
7220.600000000001
 21
7589.959634355416
 31
0.0
  0
LINE
  5
2A48F
330
747D
100
AcDbEntity
  8
部品1
 48
50.0
100
AcDbLine
 10
7420.6
 20
7189.959634355415
 30
0.0
 11
7420.6
 21
7589.959634355416
 31
0.0
  0
LINE
  5
2A490
330
747D
100
AcDbEntity
  8
部品1
 48
50.0
100
AcDbLine
 10
7420.6
 20
7189.959634355415
 30
0.0
 11
7220.600000000001
 21
7189.959634355415
 31
0.0
  0
LINE
  5
2A491
330
747D
100
AcDbEntity
  8
部品1
 48
50.0
100
AcDbLine
 10
7420.6
 20
7589.959634355416
 30
0.0
 11
7220.600000000001
 21
7589.959634355416
 31
0.0
  0
LINE
  5
2A492
330
747D
100
AcDbEntity
  8
センター
 48
2.0
100
AcDbLine
 10
7270.6
 20
7389.959634355418
 30
0.0
 11
7370.6
 21
7389.959634355418
 31
0.0
  0
LINE
  5
2A499
330
747D
100
AcDbEntity
  8
部品1
 48
50.0
100
AcDbLine
 10
8235.600000000001
 20
8034.9596343554
 30
0.0
 11
7975.6
 21
8034.9596343554
 31
0.0
  0
LINE
  5
2A49A
330
747D
100
AcDbEntity
  8
部品1
 48
50.0
100
AcDbLine
 10
7975.599999999999
 20
8144.959634355416
 30
0.0
 11
7975.6
 21
8034.9596343554
 31
0.0
  0
LINE
  5
2A49B
330
747D
100
AcDbEntity
  8
部品1
 48
50.0
100
AcDbLine
 10
8235.600000000003
 20
8144.959634355418
 30
0.0
 11
8235.600000000001
 21
8034.9596343554
 31
0.0
  0
LINE
  5
2A49C
330
747D
100
AcDbEntity
  8
センター
 48
2.0
100
AcDbLine
 10
8055.600000000001
 20
8141.959634355417
 30
0.0
 11
8155.600000000001
 21
8141.959634355417
 31
0.0
  0
LINE
  5
2A49D
330
747D
100
AcDbEntity
  8
センター
 48
2.0
100
AcDbLine
 10
8105.6
 20
8191.959634355418
 30
0.0
 11
8105.6
 21
8091.959634355417
 31
0.0
  0
CIRCLE
  5
2A49E
330
747D
100
AcDbEntity
  8
部品1
 48
50.0
100
AcDbCircle
 10
8105.6
 20
8141.959634355417
 30
0.0
 40
35.0
  0
LINE
  5
2A49F
102
{ACAD_REACTORS
330
2C64D
102
}
330
747D
100
AcDbEntity
  8
部品1
 48
50.0
100
AcDbLine
 10
11578.6
 20
5854.959634355437
 30
0.0
 11
11578.6
 21
8034.959634355416
 31
0.0
  0
LINE
  5
2A4A0
102
{ACAD_REACTORS
330
2C64D
102
}
330
747D
100
AcDbEntity
  8
部品1
 48
50.0
100
AcDbLine
 10
11698.6
 20
5624.959634355435
 30
0.0
 11
11698.6
 21
8264.959634355417
 31
0.0
  0
DIMENSION
  5
2A4A1
330
747D
100
AcDbEntity
  8
寸法
 48
50.0
100
AcDbDimension
  2
*D23
 10
10478.85510029273
 20
6499.959634355417
 30
0.0
 11
10378.85510029272
 21
6062.459634355423
 31
0.0
 70
    32
 71
     5
 42
874.9999999999927
  3
INABA_S40G
100
AcDbAlignedDimension
 13
10224.04593925956
 23
5624.959634355426
 33
0.0
 14
10690.6
 24
6499.959634355417
 34
0.0
 50
90.0
100
AcDbRotatedDimension
1001
ACAD
1000
DSTYLE
1002
{
1070
   341
1005
0
1002
}
  0
LINE
  5
2A519
102
{ACAD_REACTORS
330
2C642
102
}
330
747D
100
AcDbEntity
  8
部品1
 48
50.0
100
AcDbLine
 10
9858.600000000016
 20
5744.959634355431
 30
0.0
 11
9858.600000000016
 21
5624.95963435543
 31
0.0
  0
LINE
  5
2A51A
102
{ACAD_REACTORS
330
2C642
102
}
330
747D
100
AcDbEntity
  8
部品1
 48
50.0
100
AcDbLine
 10
10058.60000000001
 20
5744.959634355431
 30
0.0
 11
10058.60000000001
 21
5624.95963435543
 31
0.0
  0
LINE
  5
2A51B
330
747D
100
AcDbEntity
  8
部品1
 48
50.0
100
AcDbLine
 10
11578.6
 20
5854.959634355434
 30
0.0
 11
11468.6
 21
5854.959634355434
 31
0.0
  0
LINE
  5
2A51C
330
747D
100
AcDbEntity
  8
部品1
 48
50.0
100
AcDbLine
 10
11468.6
 20
5744.959634355433
 30
0.0
 11
11468.6
 21
5854.959634355434
 31
0.0
  0
LINE
  5
2A51D
330
747D
100
AcDbEntity
  8
センター
 48
2.0
100
AcDbLine
 10
11525.60000000001
 20
5747.959634355417
 30
0.0
 11
11625.60000000001
 21
5747.959634355417
 31
0.0
  0
CIRCLE
  5
2A51E
330
747D
100
AcDbEntity
  8
部品1
 48
50.0
100
AcDbCircle
 10
11575.60000000001
 20
5747.959634355417
 30
0.0
 40
35.0
  0
LINE
  5
2A51F
330
747D
100
AcDbEntity
  8
センター
 48
2.0
100
AcDbLine
 10
11575.60000000001
 20
5797.959634355418
 30
0.0
 11
11575.60000000001
 21
5697.959634355417
 31
0.0
  0
DIMENSION
  5
2A524
330
747D
100
AcDbEntity
  8
寸法
 48
50.0
100
AcDbDimension
  2
*D24
 10
11575.6
 20
9010.7192608975
 30
0.0
 11
11971.7066017178
 21
9010.7192608975
 31
0.0
 70
   160
 71
     5
 42
123.0
  3
INABA_S40G
100
AcDbAlignedDimension
 13
11698.6
 23
8264.959634355417
 33
0.0
 14
11575.6
 24
8191.959634355418
 34
0.0
100
AcDbRotatedDimension
1001
ACAD
1000
DSTYLE
1002
{
1070
   341
1005
0
1002
}
  0
DIMENSION
  5
2A528
330
747D
100
AcDbEntity
  8
寸法
 48
50.0
100
AcDbDimension
  2
*D25
 10
11578.6
 20
7807.250966855042
 30
0.0
 11
11968.65905511811
 21
7807.250966855042
 31
0.0
 70
   160
 71
     5
 42
120.0
  3
INABA_S40G
100
AcDbAlignedDimension
 13
11698.6
 23
7824.244230893873
 33
0.0
 14
11578.6
 24
8034.959634355416
 34
0.0
100
AcDbRotatedDimension
1001
ACAD
1000
DSTYLE
1002
{
1070
   341
1005
0
1002
}
  0
DIMENSION
  5
2A529
330
747D
100
AcDbEntity
  8
寸法
 48
50.0
100
AcDbDimension
  2
*D26
 10
10790.6
 20
8791.869400003745
 30
0.0
 11
11244.6
 21
8891.869400003745
 31
0.0
 70
    32
 71
     5
 42
908.0
  3
INABA_S40G
100
AcDbAlignedDimension
 13
11698.6
 23
8264.959634355417
 33
0.0
 14
10790.6
 24
7589.959634355416
 34
0.0
100
AcDbRotatedDimension
1001
ACAD
1000
DSTYLE
1002
{
1070
   341
1005
0
1002
}
  0
LINE
  5
2A52A
102
{ACAD_REACTORS
330
2C642
102
}
330
747D
100
AcDbEntity
  8
部品1
 48
50.0
100
AcDbLine
 10
10058.6
 20
8264.959634355417
 30
0.0
 11
10058.6
 21
8144.959634355416
 31
0.0
  0
LINE
  5
2A52B
102
{ACAD_REACTORS
330
2C642
102
}
330
747D
100
AcDbEntity
  8
部品1
 48
50.0
100
AcDbLine
 10
9858.600000000002
 20
8264.959634355417
 30
0.0
 11
9858.600000000004
 21
8144.959634355416
 31
0.0
  0
DIMENSION
  5
2A52D
330
747D
100
AcDbEntity
  8
寸法
 48
50.0
100
AcDbDimension
  2
*D27
 10
9126.600000000001
 20
8791.869400003745
 30
0.0
 11
9542.600000000003
 21
8891.881211027365
 31
0.0
 70
    32
 71
     5
 42
832.0000000000035
  3
INABA_S40G
100
AcDbAlignedDimension
 13
9958.600000000004
 23
7589.959634355416
 33
0.0
 14
9126.600000000001
 24
7589.959634355416
 34
0.0
100
AcDbRotatedDimension
1001
ACAD
1000
DSTYLE
1002
{
1070
   341
1005
0
1002
}
  0
DIMENSION
  5
2A52E
330
747D
100
AcDbEntity
  8
寸法
 48
50.0
100
AcDbDimension
  2
*D28
 10
9958.600000000004
 20
8791.869400003745
 30
0.0
 11
10374.6
 21
8891.881211027365
 31
0.0
 70
    32
 71
     5
 42
831.9999999999962
  3
INABA_S40G
100
AcDbAlignedDimension
 13
10790.6
 23
7589.959634355416
 33
0.0
 14
9958.600000000004
 24
7589.959634355416
 34
0.0
100
AcDbRotatedDimension
1001
ACAD
1000
DSTYLE
1002
{
1070
   341
1005
0
1002
}
  0
DIMENSION
  5
2A52F
330
747D
100
AcDbEntity
  8
寸法
 48
50.0
100
AcDbDimension
  2
*D29
 10
10478.85510029273
 20
8264.959634355417
 30
0.0
 11
10378.85510029272
 21
7827.459634355419
 31
0.0
 70
    32
 71
     5
 42
874.9999999999982
  3
INABA_S40G
100
AcDbAlignedDimension
 13
10690.6
 23
7389.959634355418
 33
0.0
 14
10128.15743105835
 24
8264.959634355417
 34
0.0
 50
90.0
100
AcDbRotatedDimension
1001
ACAD
1000
DSTYLE
1002
{
1070
   341
1005
0
1002
}
  0
LINE
  5
2A530
330
747D
100
AcDbEntity
  8
センター
 48
2.0
100
AcDbLine
 10
9126.600000000001
 20
6549.959634355417
 30
0.0
 11
9126.600000000001
 21
6449.959634355417
 31
0.0
  0
LINE
  5
2A531
330
747D
100
AcDbEntity
  8
部品1
 48
50.0
100
AcDbLine
 10
9226.600000000001
 20
6299.959634355415
 30
0.0
 11
9226.600000000001
 21
6699.959634355417
 31
0.0
  0
LINE
  5
2A532
330
747D
100
AcDbEntity
  8
部品1
 48
50.0
100
AcDbLine
 10
9026.6
 20
6299.959634355418
 30
0.0
 11
9026.6
 21
6699.959634355417
 31
0.0
  0
LINE
  5
2A533
330
747D
100
AcDbEntity
  8
部品1
 48
50.0
100
AcDbLine
 10
9226.600000000001
 20
6299.959634355415
 30
0.0
 11
9026.6
 21
6299.959634355415
 31
0.0
  0
LINE
  5
2A534
330
747D
100
AcDbEntity
  8
部品1
 48
50.0
100
AcDbLine
 10
9226.600000000001
 20
6699.959634355417
 30
0.0
 11
9026.6
 21
6699.959634355417
 31
0.0
  0
LINE
  5
2A535
330
747D
100
AcDbEntity
  8
センター
 48
2.0
100
AcDbLine
 10
9076.6
 20
6499.959634355417
 30
0.0
 11
9176.6
 21
6499.959634355417
 31
0.0
  0
LINE
  5
2A536
330
747D
100
AcDbEntity
  8
センター
 48
2.0
100
AcDbLine
 10
9958.600000000004
 20
6549.959634355417
 30
0.0
 11
9958.600000000004
 21
6449.959634355417
 31
0.0
  0
LINE
  5
2A537
330
747D
100
AcDbEntity
  8
部品1
 48
50.0
100
AcDbLine
 10
9858.600000000002
 20
6299.959634355418
 30
0.0
 11
9858.600000000002
 21
6699.959634355417
 31
0.0
  0
LINE
  5
2A538
330
747D
100
AcDbEntity
  8
部品1
 48
50.0
100
AcDbLine
 10
10058.6
 20
6299.959634355415
 30
0.0
 11
10058.6
 21
6699.959634355417
 31
0.0
  0
LINE
  5
2A539
330
747D
100
AcDbEntity
  8
部品1
 48
50.0
100
AcDbLine
 10
10058.6
 20
6299.959634355415
 30
0.0
 11
9858.600000000002
 21
6299.959634355415
 31
0.0
  0
LINE
  5
2A53A
330
747D
100
AcDbEntity
  8
部品1
 48
50.0
100
AcDbLine
 10
10058.6
 20
6699.959634355417
 30
0.0
 11
9858.600000000002
 21
6699.959634355417
 31
0.0
  0
LINE
  5
2A53B
330
747D
100
AcDbEntity
  8
センター
 48
2.0
100
AcDbLine
 10
9908.600000000001
 20
6499.959634355417
 30
0.0
 11
10008.6
 21
6499.959634355417
 31
0.0
  0
LINE
  5
2A53C
330
747D
100
AcDbEntity
  8
センター
 48
2.0
100
AcDbLine
 10
9126.600000000001
 20
7439.959634355417
 30
0.0
 11
9126.600000000001
 21
7339.959634355416
 31
0.0
  0
LINE
  5
2A53D
330
747D
100
AcDbEntity
  8
部品1
 48
50.0
100
AcDbLine
 10
9026.6
 20
7189.959634355417
 30
0.0
 11
9026.6
 21
7589.959634355416
 31
0.0
  0
LINE
  5
2A53E
330
747D
100
AcDbEntity
  8
部品1
 48
50.0
100
AcDbLine
 10
9226.600000000001
 20
7189.959634355415
 30
0.0
 11
9226.600000000001
 21
7589.959634355416
 31
0.0
  0
LINE
  5
2A53F
330
747D
100
AcDbEntity
  8
部品1
 48
50.0
100
AcDbLine
 10
9226.600000000001
 20
7189.959634355415
 30
0.0
 11
9026.6
 21
7189.959634355415
 31
0.0
  0
LINE
  5
2A540
330
747D
100
AcDbEntity
  8
部品1
 48
50.0
100
AcDbLine
 10
9226.600000000001
 20
7589.959634355416
 30
0.0
 11
9026.6
 21
7589.959634355416
 31
0.0
  0
LINE
  5
2A541
330
747D
100
AcDbEntity
  8
センター
 48
2.0
100
AcDbLine
 10
9076.6
 20
7389.959634355418
 30
0.0
 11
9176.6
 21
7389.959634355418
 31
0.0
  0
LINE
  5
2A542
330
747D
100
AcDbEntity
  8
センター
 48
2.0
100
AcDbLine
 10
9958.600000000004
 20
7439.959634355417
 30
0.0
 11
9958.600000000004
 21
7339.959634355416
 31
0.0
  0
LINE
  5
2A543
330
747D
100
AcDbEntity
  8
部品1
 48
50.0
100
AcDbLine
 10
9858.600000000002
 20
7189.959634355417
 30
0.0
 11
9858.600000000002
 21
7589.959634355416
 31
0.0
  0
LINE
  5
2A544
330
747D
100
AcDbEntity
  8
部品1
 48
50.0
100
AcDbLine
 10
10058.6
 20
7189.959634355415
 30
0.0
 11
10058.6
 21
7589.959634355416
 31
0.0
  0
LINE
  5
2A545
330
747D
100
AcDbEntity
  8
部品1
 48
50.0
100
AcDbLine
 10
10058.6
 20
7189.959634355415
 30
0.0
 11
9858.600000000002
 21
7189.959634355415
 31
0.0
  0
LINE
  5
2A546
330
747D
100
AcDbEntity
  8
部品1
 48
50.0
100
AcDbLine
 10
10058.6
 20
7589.959634355416
 30
0.0
 11
9858.600000000002
 21
7589.959634355416
 31
0.0
  0
LINE
  5
2A547
330
747D
100
AcDbEntity
  8
センター
 48
2.0
100
AcDbLine
 10
9908.600000000001
 20
7389.959634355418
 30
0.0
 11
10008.6
 21
7389.959634355418
 31
0.0
  0
DIMENSION
  5
2A548
330
747D
100
AcDbEntity
  8
寸法
 48
50.0
100
AcDbDimension
  2
*D30
 10
10478.85510029273
 20
7389.959634355418
 30
0.0
 11
10378.85510029272
 21
6944.959634355424
 31
0.0
 70
    32
 71
     5
 42
889.9999999999918
  3
INABA_S40G
100
AcDbAlignedDimension
 13
10690.6
 23
6499.959634355426
 33
0.0
 14
10690.6
 24
7389.959634355418
 34
0.0
 50
90.0
100
AcDbRotatedDimension
1001
ACAD
1000
DSTYLE
1002
{
1070
   341
1005
0
1002
}
  0
LINE
  5
2A549
330
747D
100
AcDbEntity
  8
センター
 48
2.0
100
AcDbLine
 10
10790.6
 20
6549.959634355417
 30
0.0
 11
10790.6
 21
6449.959634355417
 31
0.0
  0
LINE
  5
2A54A
330
747D
100
AcDbEntity
  8
部品1
 48
50.0
100
AcDbLine
 10
10890.6
 20
6299.959634355415
 30
0.0
 11
10890.6
 21
6699.959634355417
 31
0.0
  0
LINE
  5
2A54B
330
747D
100
AcDbEntity
  8
部品1
 48
50.0
100
AcDbLine
 10
10690.6
 20
6299.959634355418
 30
0.0
 11
10690.6
 21
6699.959634355417
 31
0.0
  0
LINE
  5
2A54C
330
747D
100
AcDbEntity
  8
部品1
 48
50.0
100
AcDbLine
 10
10890.6
 20
6299.959634355415
 30
0.0
 11
10690.6
 21
6299.959634355415
 31
0.0
  0
LINE
  5
2A54D
330
747D
100
AcDbEntity
  8
部品1
 48
50.0
100
AcDbLine
 10
10890.6
 20
6699.959634355417
 30
0.0
 11
10690.6
 21
6699.959634355417
 31
0.0
  0
LINE
  5
2A54E
330
747D
100
AcDbEntity
  8
センター
 48
2.0
100
AcDbLine
 10
10740.6
 20
6499.959634355417
 30
0.0
 11
10840.6
 21
6499.959634355417
 31
0.0
  0
LINE
  5
2A54F
102
{ACAD_REACTORS
330
2C64D
102
}
330
747D
100
AcDbEntity
  8
部品1
 48
50.0
100
AcDbLine
 10
11698.6
 20
7044.959634355414
 30
0.0
 11
11578.6
 21
7044.959634355414
 31
0.0
  0
LINE
  5
2A550
102
{ACAD_REACTORS
330
2C64D
102
}
330
747D
100
AcDbEntity
  8
部品1
 48
50.0
100
AcDbLine
 10
11698.6
 20
6844.959634355415
 30
0.0
 11
11578.6
 21
6844.959634355415
 31
0.0
  0
LINE
  5
2A552
330
747D
100
AcDbEntity
  8
センター
 48
2.0
100
AcDbLine
 10
10790.6
 20
7439.959634355417
 30
0.0
 11
10790.6
 21
7339.959634355416
 31
0.0
  0
LINE
  5
2A553
330
747D
100
AcDbEntity
  8
部品1
 48
50.0
100
AcDbLine
 10
10690.6
 20
7189.959634355417
 30
0.0
 11
10690.6
 21
7589.959634355416
 31
0.0
  0
LINE
  5
2A554
330
747D
100
AcDbEntity
  8
部品1
 48
50.0
100
AcDbLine
 10
10890.6
 20
7189.959634355415
 30
0.0
 11
10890.6
 21
7589.959634355416
 31
0.0
  0
LINE
  5
2A555
330
747D
100
AcDbEntity
  8
部品1
 48
50.0
100
AcDbLine
 10
10890.6
 20
7189.959634355415
 30
0.0
 11
10690.6
 21
7189.959634355415
 31
0.0
  0
LINE
  5
2A556
330
747D
100
AcDbEntity
  8
部品1
 48
50.0
100
AcDbLine
 10
10890.6
 20
7589.959634355416
 30
0.0
 11
10690.6
 21
7589.959634355416
 31
0.0
  0
LINE
  5
2A557
330
747D
100
AcDbEntity
  8
センター
 48
2.0
100
AcDbLine
 10
10740.6
 20
7389.959634355418
 30
0.0
 11
10840.6
 21
7389.959634355418
 31
0.0
  0
DIMENSION
  5
2A558
330
747D
100
AcDbEntity
  8
寸法
 48
50.0
100
AcDbDimension
  2
*D31
 10
11468.6
 20
7807.250966855042
 30
0.0
 11
11198.54094488189
 21
7807.250966855042
 31
0.0
 70
   160
 71
     5
 42
110.0
  3
INABA_S40G
100
AcDbAlignedDimension
 13
11578.6
 23
8034.959634355416
 33
0.0
 14
11468.6
 24
8034.959634355415
 34
0.0
100
AcDbRotatedDimension
1001
ACAD
1000
DSTYLE
1002
{
1070
   341
1005
0
1002
}
  0
LINE
  5
2A559
330
747D
100
AcDbEntity
  8
部品1
 48
50.0
100
AcDbLine
 10
11578.6
 20
8034.959634355422
 30
0.0
 11
11468.6
 21
8034.959634355415
 31
0.0
  0
LINE
  5
2A55A
330
747D
100
AcDbEntity
  8
部品1
 48
50.0
100
AcDbLine
 10
11468.6
 20
8034.959634355415
 30
0.0
 11
11468.6
 21
8144.959634355414
 31
0.0
  0
LINE
  5
2A55B
330
747D
100
AcDbEntity
  8
センター
 48
2.0
100
AcDbLine
 10
11525.6
 20
8141.959634355417
 30
0.0
 11
11625.6
 21
8141.959634355417
 31
0.0
  0
CIRCLE
  5
2A55C
330
747D
100
AcDbEntity
  8
部品1
 48
50.0
100
AcDbCircle
 10
11575.6
 20
8141.959634355417
 30
0.0
 40
35.0
  0
LINE
  5
2A55D
330
747D
100
AcDbEntity
  8
センター
 48
2.0
100
AcDbLine
 10
11575.6
 20
8191.959634355418
 30
0.0
 11
11575.6
 21
8091.959634355417
 31
0.0
  0
DIMENSION
  5
2B132
330
747D
100
AcDbEntity
  8
寸法
 48
50.0
100
AcDbDimension
  2
*D34
 10
7975.6
 20
6081.993708736209
 30
0.0
 11
8105.6
 21
6081.993708736209
 31
0.0
 70
   160
 71
     5
 42
260.0
  3
INABA_S40G
100
AcDbAlignedDimension
 13
8235.600000000001
 23
5854.959634355434
 33
0.0
 14
7975.6
 24
5854.959634355434
 34
0.0
100
AcDbRotatedDimension
1001
ACAD
1000
DSTYLE
1002
{
1070
   341
1005
0
1002
}
  0
DIMENSION
  5
2B133
330
747D
100
AcDbEntity
  8
寸法
 48
50.0
100
AcDbDimension
  2
*D33
 10
8670.14438614211
 20
5854.959634355434
 30
0.0
 11
8670.144386142109
 21
6091.006878449928
 31
0.0
 70
   160
 71
     5
 42
110.0000000000063
  3
INABA_S40G
100
AcDbAlignedDimension
 13
8235.600000000003
 23
5744.959634355428
 33
0.0
 14
8235.600000000001
 24
5854.959634355434
 34
0.0
 50
90.0
100
AcDbRotatedDimension
1001
ACAD
1000
DSTYLE
1002
{
1070
   341
1005
0
1002
}
  0
DIMENSION
  5
2B134
330
747D
100
AcDbEntity
  8
寸法
 48
50.0
100
AcDbDimension
  2
*D32
 10
8670.14438614211
 20
5744.959634355428
 30
0.0
 11
8670.144386142109
 21
5302.12756101233
 31
0.0
 70
   160
 71
     5
 42
119.9999999999827
  3
INABA_S40G
100
AcDbAlignedDimension
 13
8235.600000000001
 23
5624.959634355445
 33
0.0
 14
8235.600000000003
 24
5744.959634355428
 34
0.0
 50
90.0
100
AcDbRotatedDimension
1001
ACAD
1000
DSTYLE
1002
{
1070
   341
1005
0
1002
}
  0
LINE
  5
2B178
330
747D
100
AcDbEntity
  8
センター
 48
2.0
100
AcDbLine
 10
8173.6
 20
7389.959634355418
 30
0.0
 11
8273.6
 21
7389.959634355418
 31
0.0
  0
LINE
  5
2B179
330
747D
100
AcDbEntity
  8
部品1
 48
50.0
100
AcDbLine
 10
8323.6
 20
7489.959634355416
 30
0.0
 11
8123.600000000001
 21
7489.959634355416
 31
0.0
  0
LINE
  5
2B17A
330
747D
100
AcDbEntity
  8
部品1
 48
50.0
100
AcDbLine
 10
8323.6
 20
7289.959634355415
 30
0.0
 11
8123.600000000001
 21
7289.959634355415
 31
0.0
  0
LINE
  5
2B17B
330
747D
100
AcDbEntity
  8
部品1
 48
50.0
100
AcDbLine
 10
8323.6
 20
7289.959634355415
 30
0.0
 11
8323.6
 21
7489.959634355416
 31
0.0
  0
LINE
  5
2B17C
330
747D
100
AcDbEntity
  8
部品1
 48
50.0
100
AcDbLine
 10
8123.600000000001
 20
7289.959634355416
 30
0.0
 11
8123.600000000001
 21
7489.959634355416
 31
0.0
  0
LINE
  5
2B17D
330
747D
100
AcDbEntity
  8
センター
 48
2.0
100
AcDbLine
 10
8223.600000000001
 20
7439.959634355417
 30
0.0
 11
8223.600000000001
 21
7339.959634355416
 31
0.0
  0
LINE
  5
2B17E
330
747D
100
AcDbEntity
  8
センター
 48
2.0
100
AcDbLine
 10
8173.6
 20
6499.959634355417
 30
0.0
 11
8273.6
 21
6499.959634355417
 31
0.0
  0
LINE
  5
2B17F
330
747D
100
AcDbEntity
  8
部品1
 48
50.0
100
AcDbLine
 10
8323.6
 20
6599.959634355418
 30
0.0
 11
8123.600000000001
 21
6599.959634355418
 31
0.0
  0
LINE
  5
2B180
330
747D
100
AcDbEntity
  8
部品1
 48
50.0
100
AcDbLine
 10
8323.6
 20
6399.959634355415
 30
0.0
 11
8123.600000000001
 21
6399.959634355415
 31
0.0
  0
LINE
  5
2B181
330
747D
100
AcDbEntity
  8
部品1
 48
50.0
100
AcDbLine
 10
8323.6
 20
6399.959634355415
 30
0.0
 11
8323.6
 21
6599.959634355418
 31
0.0
  0
LINE
  5
2B182
330
747D
100
AcDbEntity
  8
部品1
 48
50.0
100
AcDbLine
 10
8123.600000000001
 20
6399.959634355418
 30
0.0
 11
8123.600000000001
 21
6599.959634355418
 31
0.0
  0
LINE
  5
2B183
330
747D
100
AcDbEntity
  8
センター
 48
2.0
100
AcDbLine
 10
8223.600000000001
 20
6549.959634355417
 30
0.0
 11
8223.600000000001
 21
6449.959634355417
 31
0.0
  0
LINE
  5
2B1B2
330
747D
100
AcDbEntity
  8
想像線
 48
10.0
100
AcDbLine
 10
11743.6
 20
5569.959634355437
 30
0.0
 11
11743.6
 21
8339.959634355421
 31
0.0
  0
DIMENSION
  5
2BE96
330
747D
100
AcDbEntity
  8
寸法
 48
50.0
100
AcDbDimension
  2
*D35
 10
5621.6
 20
5005.953244700697
 30
0.0
 11
6699.1
 21
5105.965055724318
 31
0.0
 70
    32
  1
扉の幅 <>
 71
     5
 42
2155.000000000001
  3
INABA_S40G
100
AcDbAlignedDimension
 13
7776.600000000001
 23
5549.95963435542
 33
0.0
 14
5621.6
 24
5549.959634355406
 34
0.0
100
AcDbRotatedDimension
1001
ACAD
1000
DSTYLE
1002
{
1070
   341
1005
0
1002
}
  0
TEXT
  5
2BE97
330
747D
100
AcDbEntity
  8
寸法
 62
     7
100
AcDbText
 10
5961.066251113477
 20
4466.131121840528
 30
0.0
 40
120.0
  1
扉位置 (2155x75)
  7
STYLE1
100
AcDbText
  0
SOLID
  5
2BE98
330
747D
100
AcDbEntity
  8
寸法
 48
50.0
100
AcDbTrace
 10
-6168.551550753108
 20
5424.368605450524
 30
0.0
 11
-6185.460756423094
 21
5549.95963435541
 31
0.0
 12
-6128.733336279633
 22
5436.641376419434
 32
0.0
 13
-6128.733336279633
 23
5436.641376419434
 33
0.0
210
0.0
220
0.0
230
-1.0
1001
ACAD
1000
DSTYLE
1002
{
1070
   341
1005
0
1070
    40
1040
1.0
1070
   343
1005
0
1070
   344
1005
0
1002
}
  0
LWPOLYLINE
  5
2BE99
330
747D
100
AcDbEntity
  8
寸法
 48
50.0
100
AcDbPolyline
 90
        3
 70
     0
 43
0.0
 10
-6185.460756423094
 20
5549.95963435541
 10
-5844.450291920722
 20
4443.863174292208
 10
-8658.514704852365
 20
4443.863174292208
210
0.0
220
0.0
230
-1.0
1001
ACAD
1000
DSTYLE
1002
{
1070
   341
1005
0
1070
    40
1040
1.0
1070
   343
1005
0
1070
   344
1005
0
1002
}
  0
TEXT
  5
2BE9A
330
747D
100
AcDbEntity
  8
寸法
 62
     7
100
AcDbText
 10
5961.066251113477
 20
4294.527358957203
 30
0.0
 40
120.0
  1
扉の位置に合わせた基礎形状として下さい。
  7
STYLE1
100
AcDbText
  0
LINE
  5
2C220
330
747D
100
AcDbEntity
  8
想像線
 48
10.0
100
AcDbLine
 10
10518.18265186352
 20
8339.959634355421
 30
0.0
 11
11743.6
 21
8339.959634355421
 31
0.0
  0
LINE
  5
2C221
330
747D
100
AcDbEntity
  8
想像線
 48
10.0
100
AcDbLine
 10
10518.18265186352
 20
5569.95963435544
 30
0.0
 11
11743.6
 21
5569.959634355437
 31
0.0
  0
LINE
  5
2C3CA
330
747D
100
AcDbEntity
  8
細線
 48
50.0
100
AcDbLine
 10
10122.93217742953
 20
1409.922494231568
 30
0.0
 11
10114.89370165659
 21
1439.922494231568
 31
0.0
  0
LINE
  5
2C3CB
330
747D
100
AcDbEntity
  8
細線
100
AcDbLine
 10
9911.181795934478
 20
1439.922494231573
 30
0.0
 11
10025.80544050115
 21
1554.546138798258
 31
0.0
  0
LINE
  5
2C3CC
330
747D
100
AcDbEntity
  8
細線
100
AcDbLine
 10
9868.755389063288
 20
1439.922494231573
 30
0.0
 11
9983.379033629969
 21
1554.546138798258
 31
0.0
  0
LINE
  5
2C3CD
330
747D
100
AcDbEntity
  8
細線
100
AcDbLine
 10
9953.608202805668
 20
1439.922494231573
 30
0.0
 11
10068.23184737234
 21
1554.546138798258
 31
0.0
  0
LINE
  5
2C3CE
330
747D
100
AcDbEntity
  8
細線
 48
50.0
100
AcDbLine
 10
9925.712065061407
 20
1409.92249423157
 30
0.0
 11
9917.673589288469
 21
1439.92249423157
 31
0.0
  0
LINE
  5
2C3CF
330
747D
100
AcDbEntity
  8
細線
 48
50.0
100
AcDbLine
 10
10024.32212124547
 20
1409.922494231568
 30
0.0
 11
10016.28364547253
 21
1439.922494231568
 31
0.0
  0
LINE
  5
2C3D0
330
747D
100
AcDbEntity
  8
部品1
100
AcDbLine
 10
10027.45989593911
 20
1854.546138798259
 30
0.0
 11
10027.45989593911
 21
1554.546138798258
 31
0.0
  0
LINE
  5
2C3D1
330
747D
100
AcDbEntity
  8
細線
 48
50.0
100
AcDbLine
 10
9728.491952693296
 20
1409.92249423157
 30
0.0
 11
9720.453476920368
 21
1439.92249423157
 31
0.0
  0
LINE
  5
2C3D2
330
747D
100
AcDbEntity
  8
細線
 48
50.0
100
AcDbLine
 10
9827.102008877357
 20
1409.92249423157
 30
0.0
 11
9819.063533104428
 21
1439.92249423157
 31
0.0
  0
LINE
  5
2C3D3
330
747D
100
AcDbEntity
  8
細線
100
AcDbLine
 10
9461.181795934477
 20
1439.922494231571
 30
0.0
 11
9575.805440501154
 21
1554.546138798258
 31
0.0
  0
LINE
  5
2C3D4
330
747D
100
AcDbEntity
  8
細線
100
AcDbLine
 10
9503.608202805668
 20
1439.922494231571
 30
0.0
 11
9618.231847372349
 21
1554.546138798258
 31
0.0
  0
LINE
  5
2C3D5
330
747D
100
AcDbEntity
  8
細線
 48
50.0
100
AcDbLine
 10
9629.881896509237
 20
1409.92249423157
 30
0.0
 11
9621.843420736306
 21
1439.92249423157
 31
0.0
  0
LINE
  5
2C3D6
330
747D
100
AcDbEntity
  8
細線
 48
50.0
100
AcDbLine
 10
9531.271840325187
 20
1409.92249423157
 30
0.0
 11
9523.233364552249
 21
1439.92249423157
 31
0.0
  0
LINE
  5
2C3D7
330
747D
100
AcDbEntity
  8
細線
100
AcDbLine
 10
9946.523207697858
 20
1554.546138798258
 30
0.0
 11
9646.52320769786
 21
1854.546138798259
 31
0.0
  0
LINE
  5
2C3D8
330
747D
100
AcDbEntity
  8
細線
100
AcDbLine
 10
10010.16281800463
 20
1554.54613879826
 30
0.0
 11
9710.162818004649
 21
1854.546138798259
 31
0.0
  0
LEADER
  5
2C3D9
330
747D
100
AcDbEntity
  8
寸法
 48
50.0
100
AcDbLeader
  3
INABA_S40G
 73
     0
 74
     0
 75
     1
 40
150.0
 41
231.9898538650463
 76
     3
 10
9940.865410459018
 20
1854.546138798259
 30
0.0
 10
10029.78816875107
 20
2060.979039649681
 30
0.0
 10
10129.78816875107
 20
2060.979039649681
 30
0.0
340
2C3DA
1001
ACAD
1000
DSTYLE
1002
{
1070
   341
1005
0
1002
}
  0
MTEXT
  5
2C3DA
102
{ACAD_REACTORS
330
2C3D9
102
}
330
747D
100
AcDbEntity
  8
寸法
 62
     7
 48
50.0
100
AcDbMText
 10
10169.78816875107
 20
2175.979039649681
 30
0.0
 40
150.0
 41
1.0
 71
     4
 72
     1
  1
\A1;C.B
  7
STYLE1
 73
     1
 44
1.0
1001
ACAD
1000
MTEXTBEGIN
1070
    73
1070
     1
1070
    44
1040
1.0
1070
    74
1070
     0
1000
MTEXTEND
  0
LINE
  5
2C3DB
330
747D
100
AcDbEntity
  8
細線
 48
50.0
100
AcDbLine
 10
10096.13725818642
 20
1309.922494231568
 30
0.0
 11
10104.17573395935
 21
1279.922494231568
 31
0.0
  0
LINE
  5
2C3DC
330
747D
100
AcDbEntity
  8
細線
 48
50.0
100
AcDbLine
 10
9898.917145818309
 20
1309.92249423157
 30
0.0
 11
9906.955621591247
 21
1279.92249423157
 31
0.0
  0
LINE
  5
2C3DD
330
747D
100
AcDbEntity
  8
細線
 48
50.0
100
AcDbLine
 10
9997.527202002366
 20
1309.922494231568
 30
0.0
 11
10005.56567777529
 21
1279.922494231568
 31
0.0
  0
LINE
  5
2C3DE
330
747D
100
AcDbEntity
  8
細線
 48
50.0
100
AcDbLine
 10
9701.697033450187
 20
1309.92249423157
 30
0.0
 11
9709.735509223117
 21
1279.92249423157
 31
0.0
  0
LINE
  5
2C3DF
330
747D
100
AcDbEntity
  8
細線
 48
50.0
100
AcDbLine
 10
9800.307089634252
 20
1309.92249423157
 30
0.0
 11
9808.345565407181
 21
1279.92249423157
 31
0.0
  0
LINE
  5
2C3E0
330
747D
100
AcDbEntity
  8
細線
 48
50.0
100
AcDbLine
 10
9504.476921082076
 20
1309.92249423157
 30
0.0
 11
9512.515396855006
 21
1279.92249423157
 31
0.0
  0
LINE
  5
2C3E1
330
747D
100
AcDbEntity
  8
細線
 48
50.0
100
AcDbLine
 10
9603.086977266126
 20
1309.92249423157
 30
0.0
 11
9611.125453039072
 21
1279.92249423157
 31
0.0
  0
LINE
  5
2C3E2
330
747D
100
AcDbEntity
  8
細線
 48
50.0
100
AcDbLine
 10
9693.658557677249
 20
1279.922494231568
 30
0.0
 11
9736.530428466226
 21
1439.922494231568
 31
0.0
  0
LINE
  5
2C3E3
330
747D
100
AcDbEntity
  8
細線
 48
50.0
100
AcDbLine
 10
9496.438445309136
 20
1279.92249423157
 30
0.0
 11
9539.310316098108
 21
1439.92249423157
 31
0.0
  0
LINE
  5
2C3E4
330
747D
100
AcDbEntity
  8
細線
 48
50.0
100
AcDbLine
 10
9595.048501493186
 20
1279.92249423157
 30
0.0
 11
9637.920372282167
 21
1439.922494231568
 31
0.0
  0
LINE
  5
2C3E5
330
747D
100
AcDbEntity
  8
細線
 48
50.0
100
AcDbLine
 10
9890.878670045367
 20
1279.922494231568
 30
0.0
 11
9933.750540834338
 21
1439.92249423157
 31
0.0
  0
LINE
  5
2C3E6
330
747D
100
AcDbEntity
  8
細線
 48
50.0
100
AcDbLine
 10
9792.268613861306
 20
1279.92249423157
 30
0.0
 11
9835.140484650288
 21
1439.922494231568
 31
0.0
  0
LINE
  5
2C3E7
330
747D
100
AcDbEntity
  8
細線
 48
50.0
100
AcDbLine
 10
10088.09878241347
 20
1279.922494231568
 30
0.0
 11
10130.97065320246
 21
1439.922494231566
 31
0.0
  0
LINE
  5
2C3E8
330
747D
100
AcDbEntity
  8
細線
 48
50.0
100
AcDbLine
 10
9989.488726229428
 20
1279.922494231566
 30
0.0
 11
10032.3605970184
 21
1439.922494231566
 31
0.0
  0
LINE
  5
2C3E9
330
747D
100
AcDbEntity
  8
部品1
100
AcDbLine
 10
10177.45989593912
 20
1554.546138798258
 30
0.0
 11
10177.45989593912
 21
1279.92249423157
 31
0.0
  0
LINE
  5
2C3EA
330
747D
100
AcDbEntity
  8
部品1
100
AcDbLine
 10
10767.97082375825
 20
246.691160771225
 30
0.0
 11
10767.97082375825
 21
3505.760663519315
 31
0.0
  0
TEXT
  5
2C3EB
330
747D
100
AcDbEntity
  8
部品1
100
AcDbText
 10
6877.425236176872
 20
3281.32074858003
 30
0.0
 40
150.0
  1
基礎詳細
  7
STYLE2
100
AcDbText
  0
LINE
  5
2C3EC
330
747D
100
AcDbEntity
  8
細線
 48
50.0
100
AcDbLine
 10
9432.661784141116
 20
1409.92249423157
 30
0.0
 11
9424.623308368186
 21
1439.92249423157
 31
0.0
  0
LINE
  5
2C3ED
330
747D
100
AcDbEntity
  8
細線
 48
50.0
100
AcDbLine
 10
9334.051727957056
 20
1409.92249423157
 30
0.0
 11
9326.013252184116
 21
1439.92249423157
 31
0.0
  0
LINE
  5
2C3EE
330
747D
100
AcDbEntity
  8
部品1
100
AcDbLine
 10
9427.459895939117
 20
1554.546138798258
 30
0.0
 11
9427.459895939117
 21
1854.546138798259
 31
0.0
  0
LINE
  5
2C3EF
330
747D
100
AcDbEntity
  8
細線
 48
50.0
100
AcDbLine
 10
9307.256808713946
 20
1309.92249423157
 30
0.0
 11
9315.295284486877
 21
1279.92249423157
 31
0.0
  0
LINE
  5
2C3F0
330
747D
100
AcDbEntity
  8
細線
 48
50.0
100
AcDbLine
 10
9405.866864898007
 20
1309.92249423157
 30
0.0
 11
9413.905340670934
 21
1279.92249423157
 31
0.0
  0
LINE
  5
2C3F1
330
747D
100
AcDbEntity
  8
細線
 48
50.0
100
AcDbLine
 10
7838.318242173921
 20
844.5461387982563
 30
0.0
 11
7830.279766400987
 21
874.5461387982564
 31
0.0
  0
LINE
  5
2C3F2
330
747D
100
AcDbEntity
  8
部品1
 48
50.0
100
AcDbLine
 10
7892.845960683505
 20
874.5461387982572
 30
0.0
 11
7892.845960683505
 21
714.5461387982573
 31
0.0
  0
LINE
  5
2C3F3
330
747D
100
AcDbEntity
  8
細線
 48
50.0
100
AcDbLine
 10
9299.218332941006
 20
1279.92249423157
 30
0.0
 11
9342.090203729988
 21
1439.92249423157
 31
0.0
  0
LINE
  5
2C3F4
330
747D
100
AcDbEntity
  8
部品1
100
AcDbLine
 10
9277.459895939117
 20
1279.922494231566
 30
0.0
 11
9277.459895939117
 21
1554.546138798258
 31
0.0
  0
TEXT
  5
2C3F5
330
747D
100
AcDbEntity
  8
部品1
 48
50.0
100
AcDbText
 10
8802.118267613819
 20
1221.046463001622
 30
0.0
 40
100.0
  1
ボルトの出
 50
90.0
  7
STYLE2
100
AcDbText
  0
LINE
  5
2C3F6
330
747D
100
AcDbEntity
  8
細線
 48
50.0
100
AcDbLine
 10
9397.828389125066
 20
1279.922494231568
 30
0.0
 11
9440.700259914049
 21
1439.922494231568
 31
0.0
  0
LINE
  5
2C3F7
330
747D
100
AcDbEntity
  8
部品1
 48
50.0
100
AcDbLine
 10
7412.0959606835
 20
2293.140240184687
 30
0.0
 11
7432.095960683501
 21
2303.140240184687
 31
0.0
  0
LINE
  5
2C3F8
330
747D
100
AcDbEntity
  8
部品1
 48
50.0
100
AcDbLine
 10
7412.0959606835
 20
2333.140240184687
 30
0.0
 11
7432.095960683501
 21
2343.140240184688
 31
0.0
  0
LINE
  5
2C3F9
330
747D
100
AcDbEntity
  8
細線
 48
50.0
100
AcDbLine
 10
7412.0959606835
 20
2293.140240184687
 30
0.0
 11
7412.0959606835
 21
2333.140240184687
 31
0.0
  0
LINE
  5
2C3FA
330
747D
100
AcDbEntity
  8
部品1
 48
50.0
100
AcDbLine
 10
7432.095960683501
 20
2303.140240184687
 30
0.0
 11
7432.095960683501
 21
2343.140240184688
 31
0.0
  0
LINE
  5
2C3FB
330
747D
100
AcDbEntity
  8
部品1
 48
50.0
100
AcDbLine
 10
7412.0959606835
 20
2353.140240184687
 30
0.0
 11
7432.095960683501
 21
2343.140240184688
 31
0.0
  0
LINE
  5
2C3FC
330
747D
100
AcDbEntity
  8
部品1
 48
50.0
100
AcDbLine
 10
7442.095960683501
 20
2178.950249353599
 30
0.0
 11
7442.095960683501
 21
2190.950249353599
 31
0.0
  0
LINE
  5
2C3FD
330
747D
100
AcDbEntity
  8
細線
 48
50.0
100
AcDbLine
 10
7372.095960683501
 20
2293.140240184687
 30
0.0
 11
7372.095960683501
 21
2333.140240184687
 31
0.0
  0
LINE
  5
2C3FE
330
747D
100
AcDbEntity
  8
部品1
 48
50.0
100
AcDbLine
 10
7352.095960683502
 20
2303.140240184687
 30
0.0
 11
7352.095960683502
 21
2343.140240184688
 31
0.0
  0
LINE
  5
2C3FF
330
747D
100
AcDbEntity
  8
部品1
 48
50.0
100
AcDbLine
 10
7352.095960683502
 20
2343.140240184688
 30
0.0
 11
7372.095960683501
 21
2333.140240184687
 31
0.0
  0
LINE
  5
2C400
330
747D
100
AcDbEntity
  8
部品1
 48
50.0
100
AcDbLine
 10
7352.095960683502
 20
2303.140240184687
 30
0.0
 11
7372.095960683501
 21
2293.140240184687
 31
0.0
  0
LINE
  5
2C401
330
747D
100
AcDbEntity
  8
部品1
 48
50.0
100
AcDbLine
 10
7352.095960683502
 20
2343.140240184688
 30
0.0
 11
7372.095960683501
 21
2353.140240184687
 31
0.0
  0
LINE
  5
2C402
330
747D
100
AcDbEntity
  8
部品1
100
AcDbLine
 10
7250.345960683501
 20
1926.546138798259
 30
0.0
 11
7299.8459606835
 21
1926.546138798259
 31
0.0
  0
ARC
  5
2C403
330
747D
100
AcDbEntity
  8
部品1
100
AcDbCircle
 10
7246.970960683501
 20
1990.671138798255
 30
0.0
 40
3.375
100
AcDbArc
 50
0.0
 51
90.0
  0
LINE
  5
2C404
330
747D
100
AcDbEntity
  8
部品1
100
AcDbLine
 10
7250.345960683501
 20
1990.671138798255
 30
0.0
 11
7250.345960683501
 21
1926.546138798259
 31
0.0
  0
LINE
  5
2C405
330
747D
100
AcDbEntity
  8
部品1
 48
50.0
100
AcDbLine
 10
7342.095960683501
 20
2190.950249353599
 30
0.0
 11
7342.095960683501
 21
2178.950249353599
 31
0.0
  0
LINE
  5
2C406
330
747D
100
AcDbEntity
  8
部品1
100
AcDbLine
 10
7279.595960683501
 20
1941.496138798258
 30
0.0
 11
7314.795960683504
 21
1941.496138798258
 31
0.0
  0
ARC
  5
2C407
330
747D
100
AcDbEntity
  8
部品1
100
AcDbCircle
 10
7279.595960683501
 20
1938.12113879826
 30
0.0
 40
3.375
100
AcDbArc
 50
90.0
 51
180.0
  0
ARC
  5
2C408
330
747D
100
AcDbEntity
  8
部品1
100
AcDbCircle
 10
7314.795960683504
 20
1938.12113879826
 30
0.0
 40
3.375
100
AcDbArc
 50
0.0
 51
90.0
  0
LINE
  5
2C409
330
747D
100
AcDbEntity
  8
部品1
100
AcDbLine
 10
7380.8459606835
 20
1915.996138798258
 30
0.0
 11
7403.345960683501
 21
1915.996138798258
 31
0.0
  0
LINE
  5
2C40A
330
747D
100
AcDbEntity
  8
部品1
100
AcDbLine
 10
7385.3459606835
 20
1920.496138798258
 30
0.0
 11
7398.845960683501
 21
1920.496138798258
 31
0.0
  0
ARC
  5
2C40B
330
747D
100
AcDbEntity
  8
部品1
100
AcDbCircle
 10
7299.8459606835
 20
1923.171138798258
 30
0.0
 40
3.375
100
AcDbArc
 50
0.0
 51
90.0
  0
LINE
  5
2C40C
330
747D
100
AcDbEntity
  8
部品1
100
AcDbLine
 10
7276.2209606835
 20
1938.12113879826
 30
0.0
 11
7276.2209606835
 21
1916.746138798258
 31
0.0
  0
ARC
  5
2C40D
330
747D
100
AcDbEntity
  8
部品1
100
AcDbCircle
 10
7194.095960683501
 20
1990.671138798258
 30
0.0
 40
3.375
100
AcDbArc
 50
90.0
 51
180.0
  0
LINE
  5
2C40E
330
747D
100
AcDbEntity
  8
部品1
100
AcDbLine
 10
7190.720960683501
 20
1980.546138798258
 30
0.0
 11
7190.720960683501
 21
1980.546138798258
 31
0.0
  0
LINE
  5
2C40F
330
747D
100
AcDbEntity
  8
部品1
100
AcDbLine
 10
7190.720960683501
 20
1980.546138798258
 30
0.0
 11
7190.720960683501
 21
1990.671138798258
 31
0.0
  0
LINE
  5
2C410
330
747D
100
AcDbEntity
  8
部品1
100
AcDbLine
 10
7187.3459606835
 20
1967.046138798259
 30
0.0
 11
7187.3459606835
 21
1977.171138798259
 31
0.0
  0
ARC
  5
2C411
330
747D
100
AcDbEntity
  8
部品1
100
AcDbCircle
 10
7190.720960683501
 20
1977.171138798259
 30
0.0
 40
3.375
100
AcDbArc
 50
90.0
 51
180.0
  0
LINE
  5
2C412
330
747D
100
AcDbEntity
  8
部品1
100
AcDbLine
 10
7136.720960683502
 20
1953.546138798258
 30
0.0
 11
7136.720960683502
 21
1963.671138798259
 31
0.0
  0
ARC
  5
2C413
330
747D
100
AcDbEntity
  8
部品1
100
AcDbCircle
 10
7140.0959606835
 20
1963.671138798259
 30
0.0
 40
3.375
100
AcDbArc
 50
90.0
 51
180.0
  0
ARC
  5
2C414
330
747D
100
AcDbEntity
  8
部品1
100
AcDbCircle
 10
7126.595960683501
 20
1947.536018426643
 30
0.0
 40
3.375
100
AcDbArc
 50
104.0362434679075
 51
180.0
  0
LINE
  5
2C415
330
747D
100
AcDbEntity
  8
部品1
100
AcDbLine
 10
7125.777402949001
 20
1950.810249364634
 30
0.0
 11
7136.720960683502
 21
1953.546138798258
 31
0.0
  0
LINE
  5
2C416
330
747D
100
AcDbEntity
  8
部品1
100
AcDbLine
 10
7140.0959606835
 20
1967.046138798259
 30
0.0
 11
7187.3459606835
 21
1967.046138798259
 31
0.0
  0
LINE
  5
2C417
330
747D
100
AcDbEntity
  8
部品1
100
AcDbLine
 10
7194.095960683501
 20
1994.046138798258
 30
0.0
 11
7246.970960683501
 21
1994.046138798254
 31
0.0
  0
ELLIPSE
  5
2C418
330
747D
100
AcDbEntity
  8
部品1
 48
50.0
100
AcDbEllipse
 10
7392.095960683501
 20
2190.950249353599
 30
0.0
 11
23.0
 21
0.0
 31
0.0
210
0.0
220
0.0
230
1.0
 40
0.3478260869565217
 41
0.0
 42
6.283185307179584
  0
ELLIPSE
  5
2C419
330
747D
100
AcDbEntity
  8
部品1
 48
50.0
100
AcDbEllipse
 10
7392.095960683501
 20
2190.950249353599
 30
0.0
 11
50.0
 21
0.0
 31
0.0
210
0.0
220
0.0
230
1.0
 40
0.4
 41
0.0
 42
6.283185307179584
  0
ELLIPSE
  5
2C41A
330
747D
100
AcDbEntity
  8
部品1
 48
50.0
100
AcDbEllipse
 10
7392.095960683501
 20
2178.950249353599
 30
0.0
 11
50.0
 21
0.0
 31
0.0
210
0.0
220
0.0
230
1.0
 40
0.4
 41
3.141592653589792
 42
6.283185307179584
  0
LINE
  5
2C41B
330
747D
100
AcDbEntity
  8
部品1
 48
50.0
100
AcDbLine
 10
7372.095960683501
 20
2353.140240184687
 30
0.0
 11
7412.0959606835
 21
2353.140240184687
 31
0.0
  0
ELLIPSE
  5
2C41C
330
747D
100
AcDbEntity
  8
細線
 48
50.0
100
AcDbEllipse
 10
7392.095960683501
 20
2343.140240184688
 30
0.0
 11
18.45838483258558
 21
0.0
 31
0.0
210
0.0
220
0.0
230
1.0
 40
0.2071254069489396
 41
0.0
 42
6.283185307179584
  0
LINE
  5
2C41D
330
747D
100
AcDbEntity
  8
部品1
 48
50.0
100
AcDbLine
 10
7372.095960683501
 20
2293.140240184687
 30
0.0
 11
7412.0959606835
 21
2293.140240184687
 31
0.0
  0
LINE
  5
2C41E
330
747D
100
AcDbEntity
  8
部品1
 48
50.0
100
AcDbLine
 10
7372.095960683501
 20
2333.140240184687
 30
0.0
 11
7412.0959606835
 21
2333.140240184687
 31
0.0
  0
LINE
  5
2C41F
330
747D
100
AcDbEntity
  8
細線
 48
50.0
100
AcDbLine
 10
7470.845960683502
 20
1655.956491908994
 30
0.0
 11
7632.845960683501
 21
1817.956491908993
 31
0.0
  0
LINE
  5
2C420
330
747D
100
AcDbEntity
  8
細線
 48
50.0
100
AcDbLine
 10
7470.845960683502
 20
1622.280531454973
 30
0.0
 11
7632.845960683501
 21
1784.280531454968
 31
0.0
  0
LINE
  5
2C421
330
747D
100
AcDbEntity
  8
部品1
100
AcDbLine
 10
7448.345960683501
 20
1550.796138798257
 30
0.0
 11
7448.345960683501
 21
1573.296138798258
 31
0.0
  0
LINE
  5
2C422
330
747D
100
AcDbEntity
  8
部品1
100
AcDbLine
 10
7470.845960683502
 20
1449.546138798257
 30
0.0
 11
7470.845960683502
 21
1854.546138798259
 31
0.0
  0
LINE
  5
2C423
330
747D
100
AcDbEntity
  8
細線
 48
50.0
100
AcDbLine
 10
7470.845960683502
 20
1588.604571000956
 30
0.0
 11
7632.845960683501
 21
1750.604571000945
 31
0.0
  0
LINE
  5
2C424
330
747D
100
AcDbEntity
  8
部品1
100
AcDbLine
 10
7285.220960683499
 20
1866.496138798258
 30
0.0
 11
7299.8459606835
 21
1866.496138798258
 31
0.0
  0
ARC
  5
2C425
330
747D
100
AcDbEntity
  8
部品1
100
AcDbCircle
 10
7321.545960683494
 20
1869.871138798258
 30
0.0
 40
3.375
100
AcDbArc
 50
180.0
 51
270.0
  0
ARC
  5
2C426
330
747D
100
AcDbEntity
  8
部品1
100
AcDbCircle
 10
7299.8459606835
 20
1869.871138798258
 30
0.0
 40
3.375
100
AcDbArc
 50
270.0
 51
0.0
  0
ARC
  5
2C427
330
747D
100
AcDbEntity
  8
部品1
100
AcDbCircle
 10
7126.595960683501
 20
1869.871138798258
 30
0.0
 40
3.375
100
AcDbArc
 50
180.0
 51
270.0
  0
LINE
  5
2C428
330
747D
100
AcDbEntity
  8
細線
 48
50.0
100
AcDbLine
 10
7115.3459606835
 20
1839.271859173139
 30
0.0
 11
7130.62024030862
 21
1854.546138798259
 31
0.0
  0
LINE
  5
2C429
330
747D
100
AcDbEntity
  8
部品1
100
AcDbLine
 10
7126.595960683501
 20
1866.496138798258
 30
0.0
 11
7141.220960683495
 21
1866.496138798258
 31
0.0
  0
LINE
  5
2C42A
330
747D
100
AcDbEntity
  8
細線
 48
50.0
100
AcDbLine
 10
7115.3459606835
 20
1805.595898719131
 30
0.0
 11
7164.296200762632
 21
1854.546138798259
 31
0.0
  0
LINE
  5
2C42B
330
747D
100
AcDbEntity
  8
細線
 48
50.0
100
AcDbLine
 10
7115.3459606835
 20
1771.919938265121
 30
0.0
 11
7197.972161216637
 21
1854.546138798259
 31
0.0
  0
ARC
  5
2C42C
330
747D
100
AcDbEntity
  8
部品1
100
AcDbCircle
 10
7403.345960683501
 20
1573.296138798258
 30
0.0
 40
22.5
100
AcDbArc
 50
180.0
 51
270.0
  0
LINE
  5
2C42D
330
747D
100
AcDbEntity
  8
細線
 48
50.0
100
AcDbLine
 10
7115.3459606835
 20
1502.512254633046
 30
0.0
 11
7313.345960683498
 21
1700.512254633036
 31
0.0
  0
LINE
  5
2C42E
330
747D
100
AcDbEntity
  8
部品1
100
AcDbLine
 10
7313.345960683491
 20
1449.546138798257
 30
0.0
 11
7313.345960683498
 21
1854.546138798259
 31
0.0
  0
LINE
  5
2C42F
330
747D
100
AcDbEntity
  8
細線
 48
50.0
100
AcDbLine
 10
7115.3459606835
 20
1569.864175541064
 30
0.0
 11
7313.345960683498
 21
1767.864175541062
 31
0.0
  0
LINE
  5
2C430
330
747D
100
AcDbEntity
  8
細線
 48
50.0
100
AcDbLine
 10
7115.3459606835
 20
1536.188215087056
 30
0.0
 11
7313.345960683498
 21
1734.188215087052
 31
0.0
  0
LINE
  5
2C431
330
747D
100
AcDbEntity
  8
部品1
100
AcDbLine
 10
7470.845960683502
 20
1449.546138798256
 30
0.0
 11
7313.345960683491
 21
1449.546138798256
 31
0.0
  0
LINE
  5
2C432
330
747D
100
AcDbEntity
  8
部品1
 48
50.0
100
AcDbLine
 10
7115.3459606835
 20
1854.546138798259
 30
0.0
 11
7632.845960683503
 21
1854.546138798259
 31
0.0
  0
LINE
  5
2C433
330
747D
100
AcDbEntity
  8
部品1
100
AcDbLine
 10
7321.545960683494
 20
1866.496138798258
 30
0.0
 11
7573.220960683492
 21
1866.496138798258
 31
0.0
  0
LINE
  5
2C434
330
747D
100
AcDbEntity
  8
部品1
100
AcDbLine
 10
7403.345960683501
 20
1550.796138798257
 30
0.0
 11
7448.345960683501
 21
1550.796138798257
 31
0.0
  0
LINE
  5
2C435
330
747D
100
AcDbEntity
  8
部品1
100
AcDbLine
 10
7403.345960683501
 20
1573.296138798258
 30
0.0
 11
7448.345960683501
 21
1573.296138798258
 31
0.0
  0
LINE
  5
2C436
330
747D
100
AcDbEntity
  8
部品1
100
AcDbLine
 10
7123.2209606835
 20
1869.871138798258
 30
0.0
 11
7123.2209606835
 21
1947.536018426643
 31
0.0
  0
LINE
  5
2C437
330
747D
100
AcDbEntity
  8
細線
100
AcDbLine
 10
7398.845960683501
 20
1866.496138798258
 30
0.0
 11
7398.845960683501
 21
1920.496138798258
 31
0.0
  0
LINE
  5
2C438
330
747D
100
AcDbEntity
  8
細線
100
AcDbLine
 10
7385.345960683505
 20
1866.496138798258
 30
0.0
 11
7385.3459606835
 21
1920.496138798258
 31
0.0
  0
LINE
  5
2C439
330
747D
100
AcDbEntity
  8
部品1
100
AcDbLine
 10
7303.220960683501
 20
1923.171138798258
 30
0.0
 11
7303.220960683501
 21
1869.871138798258
 31
0.0
  0
LINE
  5
2C43A
330
747D
100
AcDbEntity
  8
部品1
100
AcDbLine
 10
7318.170960683502
 20
1938.12113879826
 30
0.0
 11
7318.170960683494
 21
1869.871138798258
 31
0.0
  0
LINE
  5
2C43B
330
747D
100
AcDbEntity
  8
部品1
100
AcDbLine
 10
7403.345960683501
 20
1573.296138798258
 30
0.0
 11
7403.345960683498
 21
1915.996138798258
 31
0.0
  0
LINE
  5
2C43C
330
747D
100
AcDbEntity
  8
部品1
100
AcDbLine
 10
7380.8459606835
 20
1573.296138798258
 30
0.0
 11
7380.845960683497
 21
1915.996138798258
 31
0.0
  0
TEXT
  5
2C43D
330
747D
100
AcDbEntity
  8
部品1
 48
50.0
100
AcDbText
 10
6597.671083392306
 20
1568.594879152327
 30
0.0
 40
100.0
  1
▽G.L
  7
STYLE2
100
AcDbText
  0
LWPOLYLINE
  5
2C43E
330
747D
100
AcDbEntity
  8
部品1
 48
50.0
100
AcDbPolyline
 90
        2
 70
     0
 43
10.0
 10
6597.671083392306
 20
1554.54613879826
 10
7115.3459606835
 20
1554.54613879826
  0
LINE
  5
2C43F
330
747D
100
AcDbEntity
  8
部品1
 48
50.0
100
AcDbLine
 10
7632.845960683501
 20
1174.546138798257
 30
0.0
 11
7792.845960683499
 21
1174.546138798257
 31
0.0
  0
LINE
  5
2C440
330
747D
100
AcDbEntity
  8
細線
 48
50.0
100
AcDbLine
 10
7641.098129805789
 20
844.5461387982586
 30
0.0
 11
7633.059654032855
 21
874.5461387982572
 31
0.0
  0
LINE
  5
2C441
330
747D
100
AcDbEntity
  8
細線
 48
50.0
100
AcDbLine
 10
7739.708185989861
 20
844.5461387982563
 30
0.0
 11
7731.66971021693
 21
874.5461387982564
 31
0.0
  0
LINE
  5
2C442
330
747D
100
AcDbEntity
  8
細線
 48
50.0
100
AcDbLine
 10
7443.878017437686
 20
844.5461387982586
 30
0.0
 11
7435.839541664755
 21
874.5461387982572
 31
0.0
  0
LINE
  5
2C443
330
747D
100
AcDbEntity
  8
細線
 48
50.0
100
AcDbLine
 10
7542.488073621744
 20
844.5461387982586
 30
0.0
 11
7534.449597848809
 21
874.5461387982572
 31
0.0
  0
LINE
  5
2C444
330
747D
100
AcDbEntity
  8
細線
 48
50.0
100
AcDbLine
 10
7497.658658468992
 20
874.5461387982572
 30
0.0
 11
7792.845960683499
 21
1169.733441012767
 31
0.0
  0
LINE
  5
2C445
330
747D
100
AcDbEntity
  8
細線
 48
50.0
100
AcDbLine
 10
7531.334618923004
 20
874.5461387982572
 30
0.0
 11
7792.845960683499
 21
1136.057480558751
 31
0.0
  0
LINE
  5
2C446
330
747D
100
AcDbEntity
  8
細線
 48
50.0
100
AcDbLine
 10
7565.010579377011
 20
874.5461387982572
 30
0.0
 11
7792.845960683499
 21
1102.381520104753
 31
0.0
  0
LINE
  5
2C447
330
747D
100
AcDbEntity
  8
部品1
 48
50.0
100
AcDbLine
 10
7792.845960683499
 20
1174.546138798257
 30
0.0
 11
7792.845960683499
 21
874.5461387982572
 31
0.0
  0
LINE
  5
2C448
330
747D
100
AcDbEntity
  8
細線
 48
50.0
100
AcDbLine
 10
7246.657905069572
 20
844.5461387982586
 30
0.0
 11
7238.619429296639
 21
874.5461387982572
 31
0.0
  0
LINE
  5
2C449
330
747D
100
AcDbEntity
  8
細線
 48
50.0
100
AcDbLine
 10
7345.26796125363
 20
844.5461387982586
 30
0.0
 11
7337.229485480694
 21
874.5461387982572
 31
0.0
  0
LINE
  5
2C44A
330
747D
100
AcDbEntity
  8
細線
 48
50.0
100
AcDbLine
 10
7049.437792701439
 20
844.5461387982586
 30
0.0
 11
7041.399316928509
 21
874.5461387982572
 31
0.0
  0
LINE
  5
2C44B
330
747D
100
AcDbEntity
  8
細線
 48
50.0
100
AcDbLine
 10
7148.047848885505
 20
844.5461387982586
 30
0.0
 11
7140.009373112572
 21
874.5461387982572
 31
0.0
  0
LINE
  5
2C44C
330
747D
100
AcDbEntity
  8
細線
 48
50.0
100
AcDbLine
 10
7228.250974836917
 20
874.5461387982572
 30
0.0
 11
7632.845960683498
 21
1279.14112464484
 31
0.0
  0
LINE
  5
2C44D
330
747D
100
AcDbEntity
  8
細線
 48
50.0
100
AcDbLine
 10
7261.926935290929
 20
874.5461387982572
 30
0.0
 11
7632.845960683501
 21
1245.465164190823
 31
0.0
  0
LINE
  5
2C44E
330
747D
100
AcDbEntity
  8
細線
 48
50.0
100
AcDbLine
 10
7295.602895744936
 20
874.5461387982572
 30
0.0
 11
7632.845960683501
 21
1211.789203736829
 31
0.0
  0
LINE
  5
2C44F
330
747D
100
AcDbEntity
  8
細線
 48
50.0
100
AcDbLine
 10
7614.303210562692
 20
744.5461387982573
 30
0.0
 11
7622.341686335637
 21
714.5461387982573
 31
0.0
  0
LINE
  5
2C450
330
747D
100
AcDbEntity
  8
細線
 48
50.0
100
AcDbLine
 10
7712.913266746752
 20
744.5461387982564
 30
0.0
 11
7720.951742519685
 21
714.5461387982564
 31
0.0
  0
LINE
  5
2C451
330
747D
100
AcDbEntity
  8
細線
 48
50.0
100
AcDbLine
 10
7417.083098194573
 20
744.5461387982573
 30
0.0
 11
7425.121573967508
 21
714.5461387982573
 31
0.0
  0
LINE
  5
2C452
330
747D
100
AcDbEntity
  8
細線
 48
50.0
100
AcDbLine
 10
7515.693154378633
 20
744.5461387982573
 30
0.0
 11
7523.731630151566
 21
714.5461387982573
 31
0.0
  0
LINE
  5
2C453
330
747D
100
AcDbEntity
  8
細線
 48
50.0
100
AcDbLine
 10
7219.862985826458
 20
744.5461387982573
 30
0.0
 11
7227.901461599393
 21
714.5461387982573
 31
0.0
  0
LINE
  5
2C454
330
747D
100
AcDbEntity
  8
細線
 48
50.0
100
AcDbLine
 10
7318.473042010516
 20
744.5461387982573
 30
0.0
 11
7326.51151778345
 21
714.5461387982573
 31
0.0
  0
LINE
  5
2C455
330
747D
100
AcDbEntity
  8
細線
 48
50.0
100
AcDbLine
 10
7022.642873458332
 20
744.5461387982573
 30
0.0
 11
7030.681349231265
 21
714.5461387982573
 31
0.0
  0
LINE
  5
2C456
330
747D
100
AcDbEntity
  8
細線
 48
50.0
100
AcDbLine
 10
7121.252929642395
 20
744.5461387982573
 30
0.0
 11
7129.29140541533
 21
714.5461387982573
 31
0.0
  0
LINE
  5
2C457
330
747D
100
AcDbEntity
  8
細線
 48
50.0
100
AcDbLine
 10
7606.264734789752
 20
714.5461387982564
 30
0.0
 11
7649.136605578721
 21
874.5461387982572
 31
0.0
  0
LINE
  5
2C458
330
747D
100
AcDbEntity
  8
細線
 48
50.0
100
AcDbLine
 10
7704.874790973814
 20
714.5461387982545
 30
0.0
 11
7747.746661762794
 21
874.5461387982546
 31
0.0
  0
LINE
  5
2C459
330
747D
100
AcDbEntity
  8
細線
 48
50.0
100
AcDbLine
 10
7409.044622421639
 20
714.5461387982564
 30
0.0
 11
7451.916493210616
 21
874.5461387982564
 31
0.0
  0
LINE
  5
2C45A
330
747D
100
AcDbEntity
  8
細線
 48
50.0
100
AcDbLine
 10
7211.824510053519
 20
714.5461387982573
 30
0.0
 11
7254.696380842498
 21
874.5461387982572
 31
0.0
  0
LINE
  5
2C45B
330
747D
100
AcDbEntity
  8
細線
 48
50.0
100
AcDbLine
 10
7310.434566237574
 20
714.5461387982573
 30
0.0
 11
7353.306437026559
 21
874.5461387982564
 31
0.0
  0
LINE
  5
2C45C
330
747D
100
AcDbEntity
  8
細線
 48
50.0
100
AcDbLine
 10
7507.654678605689
 20
714.5461387982573
 30
0.0
 11
7550.526549394675
 21
874.5461387982564
 31
0.0
  0
LINE
  5
2C45D
330
747D
100
AcDbEntity
  8
細線
 48
50.0
100
AcDbLine
 10
7014.604397685396
 20
714.5461387982573
 30
0.0
 11
7057.476268474373
 21
874.5461387982572
 31
0.0
  0
LINE
  5
2C45E
330
747D
100
AcDbEntity
  8
細線
 48
50.0
100
AcDbLine
 10
7113.214453869452
 20
714.5461387982564
 30
0.0
 11
7156.086324658431
 21
874.5461387982564
 31
0.0
  0
LINE
  5
2C45F
330
747D
100
AcDbEntity
  8
細線
 48
50.0
100
AcDbLine
 10
6955.345960683494
 20
1140.45649190899
 30
0.0
 11
6989.43560757277
 21
1174.546138798257
 31
0.0
  0
LINE
  5
2C460
330
747D
100
AcDbEntity
  8
細線
 48
50.0
100
AcDbLine
 10
6855.345960683499
 20
856.2210400054821
 30
0.0
 11
6860.256156106244
 21
874.5461387982572
 31
0.0
  0
LINE
  5
2C461
330
747D
100
AcDbEntity
  8
細線
 48
50.0
100
AcDbLine
 10
6950.827736517378
 20
844.5461387982586
 30
0.0
 11
6942.789260744445
 21
874.5461387982572
 31
0.0
  0
LINE
  5
2C462
330
747D
100
AcDbEntity
  8
部品1
 48
50.0
100
AcDbLine
 10
6955.345960683501
 20
874.5461387982572
 30
0.0
 11
6955.345960683501
 21
1174.546138798257
 31
0.0
  0
LINE
  5
2C463
330
747D
100
AcDbEntity
  8
細線
 48
50.0
100
AcDbLine
 10
6924.032817274265
 20
744.5461387982573
 30
0.0
 11
6932.0712930472
 21
714.5461387982573
 31
0.0
  0
LINE
  5
2C464
330
747D
100
AcDbEntity
  8
部品1
 48
50.0
100
AcDbLine
 10
6855.345960683504
 20
714.5461387982573
 30
0.0
 11
6855.345960683504
 21
874.5461387982572
 31
0.0
  0
LINE
  5
2C465
330
747D
100
AcDbEntity
  8
細線
 48
50.0
100
AcDbLine
 10
6915.994341501326
 20
714.5461387982564
 30
0.0
 11
6958.866212290304
 21
874.5461387982564
 31
0.0
  0
LINE
  5
2C466
330
747D
100
AcDbEntity
  8
細線
 48
50.0
100
AcDbLine
 10
6955.345960683494
 20
1106.780531454977
 30
0.0
 11
7023.111568026782
 21
1174.546138798257
 31
0.0
  0
LINE
  5
2C467
330
747D
100
AcDbEntity
  8
細線
 48
50.0
100
AcDbLine
 10
6955.345960683494
 20
1073.104571000971
 30
0.0
 11
7056.787528480788
 21
1174.546138798257
 31
0.0
  0
LINE
  5
2C468
330
747D
100
AcDbEntity
  8
部品1
 48
50.0
100
AcDbLine
 10
6955.345960683501
 20
1174.546138798257
 30
0.0
 11
7115.3459606835
 21
1174.546138798257
 31
0.0
  0
LINE
  5
2C469
330
747D
100
AcDbEntity
  8
細線
 48
50.0
100
AcDbLine
 10
6958.843291204843
 20
874.5461387982572
 30
0.0
 11
7632.845960683498
 21
1548.548808276915
 31
0.0
  0
LINE
  5
2C46A
330
747D
100
AcDbEntity
  8
部品1
100
AcDbLine
 10
7632.845960683498
 20
1174.546138798257
 30
0.0
 11
7632.845960683501
 21
1854.546138798259
 31
0.0
  0
LINE
  5
2C46B
330
747D
100
AcDbEntity
  8
部品1
 48
50.0
100
AcDbLine
 10
7115.3459606835
 20
1174.546138798257
 30
0.0
 11
7115.3459606835
 21
1854.546138798259
 31
0.0
  0
LINE
  5
2C46C
330
747D
100
AcDbEntity
  8
細線
 48
50.0
100
AcDbLine
 10
7115.3459606835
 20
1266.78053145498
 30
0.0
 11
7313.345960683491
 21
1464.780531454966
 31
0.0
  0
LINE
  5
2C46D
330
747D
100
AcDbEntity
  8
細線
 48
50.0
100
AcDbLine
 10
7115.3459606835
 20
1233.104571000972
 30
0.0
 11
7331.787528480794
 21
1449.546138798256
 31
0.0
  0
LINE
  5
2C46E
330
747D
100
AcDbEntity
  8
細線
 48
50.0
100
AcDbLine
 10
7115.3459606835
 20
1300.45649190899
 30
0.0
 11
7313.345960683491
 21
1498.456491908983
 31
0.0
  0
LINE
  5
2C46F
330
747D
100
AcDbEntity
  8
細線
 48
50.0
100
AcDbLine
 10
7026.195212112861
 20
874.5461387982572
 30
0.0
 11
7632.845960683501
 21
1481.196887368893
 31
0.0
  0
LINE
  5
2C470
330
747D
100
AcDbEntity
  8
細線
 48
50.0
100
AcDbLine
 10
6992.519251658854
 20
874.5461387982572
 30
0.0
 11
7632.845960683503
 21
1514.872847822901
 31
0.0
  0
TEXT
  5
2C471
330
747D
100
AcDbEntity
  8
部品1
 48
50.0
100
AcDbText
 10
7638.287941039036
 20
2299.394489751009
 30
0.0
 40
100.0
  1
基礎ボルト(市販品)
  7
STYLE2
100
AcDbText
  0
DIMENSION
  5
2C472
330
747D
100
AcDbEntity
  8
寸法
 48
50.0
100
AcDbDimension
  2
*D40
 10
8605.250043043339
 20
1854.546138798259
 30
0.0
 11
8605.250043043339
 21
1388.537235376777
 31
0.0
 70
   160
  1
20～25
 71
     5
 42
65.94999999999913
  3
INABA_S40G
100
AcDbAlignedDimension
 13
7398.845960683501
 23
1920.496138798258
 33
0.0
 14
7632.845960683501
 24
1854.546138798259
 34
0.0
 50
90.0
100
AcDbRotatedDimension
1001
ACAD
1000
DSTYLE
1002
{
1070
   341
1005
0
1002
}
  0
LINE
  5
2C473
330
747D
100
AcDbEntity
  8
細線
 48
50.0
100
AcDbLine
 10
7803.484847157867
 20
714.5461387982564
 30
0.0
 11
7846.356717946851
 21
874.5461387982546
 31
0.0
  0
LINE
  5
2C474
330
747D
100
AcDbEntity
  8
部品1
 48
50.0
100
AcDbLine
 10
7892.845960683505
 20
714.5461387982573
 30
0.0
 11
6855.345960683504
 21
714.5461387982573
 31
0.0
  0
LINE
  5
2C475
330
747D
100
AcDbEntity
  8
細線
 48
50.0
100
AcDbLine
 10
7811.52332293081
 20
744.5461387982564
 30
0.0
 11
7819.561798703741
 21
714.5461387982564
 31
0.0
  0
LINE
  5
2C476
330
747D
100
AcDbEntity
  8
部品1
 48
50.0
100
AcDbLine
 10
7892.845960683505
 20
874.5461387982572
 30
0.0
 11
6855.345960683504
 21
874.5461387982572
 31
0.0
  0
LWPOLYLINE
  5
2C477
330
747D
100
AcDbEntity
  8
部品1
 48
50.0
100
AcDbPolyline
 90
        2
 70
     0
 43
10.0
 10
7632.845960683501
 20
1554.54613879826
 10
7999.974039932729
 20
1554.54613879826
  0
DIMENSION
  5
2C478
330
747D
100
AcDbEntity
  8
寸法
 48
50.0
100
AcDbDimension
  2
*D41
 10
8260.181710394556
 20
1449.546138798256
 30
0.0
 11
8160.181710394557
 21
1652.046138798258
 31
0.0
 70
    32
  1
180
 71
     5
 42
405.000000000003
  3
INABA_S40G
100
AcDbAlignedDimension
 13
7632.845960683501
 23
1854.546138798259
 33
0.0
 14
7632.845960683501
 24
1449.546138798256
 34
0.0
 50
90.0
100
AcDbRotatedDimension
1001
ACAD
1000
DSTYLE
1002
{
1070
   341
1005
0
1002
}
  0
MTEXT
  5
2C479
102
{ACAD_REACTORS
330
2C47A
102
}
330
747D
100
AcDbEntity
  8
部品1
 62
     7
 48
50.0
100
AcDbMText
 10
7644.026538707649
 20
2185.025296489797
 30
0.0
 40
100.0
 41
1.0
 71
     4
 72
     1
  1
M10X160
  7
STYLE2
 73
     1
 44
1.0
1001
ACAD
1000
MTEXTBEGIN
1070
    73
1070
     1
1070
    44
1040
1.0
1070
    74
1070
     0
1000
MTEXTEND
  0
LEADER
  5
2C47A
330
747D
100
AcDbEntity
  8
寸法
 48
50.0
100
AcDbLeader
  3
INABA_S40G
 73
     0
 74
     0
 75
     1
 40
100.0
 41
543.75
 76
     3
 10
7403.345960683501
 20
1915.996138798258
 30
0.0
 10
7504.026538707648
 20
2095.025296489797
 30
0.0
 10
7604.026538707649
 20
2095.025296489797
 30
0.0
340
2C479
1001
ACAD
1000
DSTYLE
1002
{
1070
   341
1005
0
1002
}
  0
LINE
  5
2C47B
330
747D
100
AcDbEntity
  8
細線
 48
50.0
100
AcDbLine
 10
4990.296819212008
 20
1805.595898719131
 30
0.0
 11
5039.247059291138
 21
1854.546138798259
 31
0.0
  0
LINE
  5
2C47C
330
747D
100
AcDbEntity
  8
細線
 48
50.0
100
AcDbLine
 10
4990.296819212008
 20
1771.919938265121
 30
0.0
 11
5072.923019745145
 21
1854.546138798259
 31
0.0
  0
LINE
  5
2C47D
330
747D
100
AcDbEntity
  8
細線
 48
50.0
100
AcDbLine
 10
4990.296819212008
 20
1839.271859173139
 30
0.0
 11
5005.57109883713
 21
1854.546138798259
 31
0.0
  0
ARC
  5
2C47E
330
747D
100
AcDbEntity
  8
部品1
 48
50.0
100
AcDbCircle
 10
5110.296819212008
 20
1679.864175541064
 30
0.0
 40
30.0
100
AcDbArc
 50
0.0
 51
180.0
  0
CIRCLE
  5
2C47F
330
747D
100
AcDbEntity
  8
部品1
 48
50.0
100
AcDbCircle
 10
5110.296819212008
 20
1679.864175541064
 30
0.0
 40
10.0
  0
LINE
  5
2C480
330
747D
100
AcDbEntity
  8
細線
 48
50.0
100
AcDbLine
 10
5100.296819212008
 20
1646.188215087056
 30
0.0
 11
5120.296819212008
 21
1666.188215087055
 31
0.0
  0
LINE
  5
2C481
330
747D
100
AcDbEntity
  8
細線
 48
50.0
100
AcDbLine
 10
5140.296819212007
 20
1652.512254633045
 30
0.0
 11
5230.296819212008
 21
1742.512254633046
 31
0.0
  0
LINE
  5
2C482
330
747D
100
AcDbEntity
  8
細線
 48
50.0
100
AcDbLine
 10
5139.737703294493
 20
1685.629099169536
 30
0.0
 11
5230.296819212008
 21
1776.188215087055
 31
0.0
  0
LINE
  5
2C483
330
747D
100
AcDbEntity
  8
細線
 48
50.0
100
AcDbLine
 10
5125.912347340097
 20
1705.479703669153
 30
0.0
 11
5230.296819212008
 21
1809.864175541065
 31
0.0
  0
LINE
  5
2C484
330
747D
100
AcDbEntity
  8
部品1
 48
50.0
100
AcDbLine
 10
4990.296819212008
 20
1854.546138798259
 30
0.0
 11
5230.296819212008
 21
1854.546138798259
 31
0.0
  0
LINE
  5
2C485
330
747D
100
AcDbEntity
  8
細線
 48
50.0
100
AcDbLine
 10
4990.296819212008
 20
1502.512254633046
 30
0.0
 11
5094.989721748627
 21
1607.205157169661
 31
0.0
  0
LINE
  5
2C486
330
747D
100
AcDbEntity
  8
部品1
 48
50.0
100
AcDbLine
 10
5100.296819212008
 20
1607.205157169661
 30
0.0
 11
5080.296819212009
 21
1607.205157169666
 31
0.0
  0
LINE
  5
2C487
330
747D
100
AcDbEntity
  8
細線
 48
50.0
100
AcDbLine
 10
5140.296819212015
 20
1383.104571000971
 30
0.0
 11
5230.296819212
 21
1473.104571000972
 31
0.0
  0
LINE
  5
2C488
330
747D
100
AcDbEntity
  8
細線
 48
50.0
100
AcDbLine
 10
5140.296819212007
 20
1450.456491908989
 30
0.0
 11
5230.296819212008
 21
1540.45649190899
 31
0.0
  0
LINE
  5
2C489
330
747D
100
AcDbEntity
  8
細線
 48
50.0
100
AcDbLine
 10
5140.296819212015
 20
1416.780531454985
 30
0.0
 11
5230.296819212
 21
1506.780531454977
 31
0.0
  0
LINE
  5
2C48A
330
747D
100
AcDbEntity
  8
細線
 48
50.0
100
AcDbLine
 10
4990.296819212008
 20
1536.188215087056
 30
0.0
 11
5080.296819212009
 21
1626.188215087055
 31
0.0
  0
LINE
  5
2C48B
330
747D
100
AcDbEntity
  8
細線
 48
50.0
100
AcDbLine
 10
4990.296819212008
 20
1569.864175541064
 30
0.0
 11
5080.296819212009
 21
1659.864175541065
 31
0.0
  0
LINE
  5
2C48C
330
747D
100
AcDbEntity
  8
細線
 48
50.0
100
AcDbLine
 10
5100.296819212008
 20
1612.512254633046
 30
0.0
 11
5120.296819212008
 21
1632.512254633047
 31
0.0
  0
LINE
  5
2C48D
330
747D
100
AcDbEntity
  8
部品1
 48
50.0
100
AcDbLine
 10
5080.296819212009
 20
1607.205157169666
 30
0.0
 11
5080.296819212009
 21
1679.864175541064
 31
0.0
  0
LINE
  5
2C48E
330
747D
100
AcDbEntity
  8
部品1
 48
50.0
100
AcDbLine
 10
5100.296819212008
 20
1607.205157169661
 30
0.0
 11
5100.296819212008
 21
1679.864175541064
 31
0.0
  0
LEADER
  5
2C48F
330
747D
100
AcDbEntity
  8
寸法
 48
50.0
100
AcDbLeader
  3
INABA_S40G
 71
     0
 73
     0
 74
     0
 75
     1
 40
100.0
 41
222.7272727272727
 76
     3
 10
5110.296819212008
 20
1679.864175541064
 30
0.0
 10
5208.904240496251
 20
1606.130590421917
 30
0.0
 10
5308.904240496251
 20
1606.130590421917
 30
0.0
1001
ACAD
1000
DSTYLE
1002
{
1070
   341
1005
0
1002
}
  0
LWPOLYLINE
  5
2C490
330
747D
100
AcDbEntity
  8
部品1
 48
50.0
100
AcDbPolyline
 90
        2
 70
     0
 43
10.0
 10
5230.296819212008
 20
1554.54613879826
 10
5747.971696503206
 20
1554.54613879826
  0
MTEXT
  5
2C491
102
{ACAD_REACTORS
330
2C48F
102
}
330
747D
100
AcDbEntity
  8
寸法
 62
     7
 48
50.0
100
AcDbMText
 10
5333.904240496251
 20
1681.130590421917
 30
0.0
 40
100.0
 41
1.0
 71
     4
 72
     1
  1
D13
  7
STYLE2
 73
     1
 44
1.0
1001
ACAD
1000
MTEXTBEGIN
1070
    73
1070
     1
1070
    44
1040
1.0
1070
    74
1070
     0
1000
MTEXTEND
  0
LINE
  5
2C492
330
747D
100
AcDbEntity
  8
細線
 48
50.0
100
AcDbLine
 10
5417.438932150253
 20
844.5461387982586
 30
0.0
 11
5409.400456377319
 21
874.5461387982572
 31
0.0
  0
LINE
  5
2C493
330
747D
100
AcDbEntity
  8
細線
 48
50.0
100
AcDbLine
 10
5372.609516997499
 20
874.5461387982572
 30
0.0
 11
5390.296819212007
 21
892.2334410127664
 31
0.0
  0
MTEXT
  5
2C494
102
{ACAD_REACTORS
330
2C4D3
102
}
330
747D
100
AcDbEntity
  8
寸法
 62
     7
 48
50.0
100
AcDbMText
 10
5519.456393970364
 20
980.2998026195412
 30
0.0
 40
100.0
 41
1.0
 71
     4
 72
     1
  1
D10
  7
STYLE2
 73
     1
 44
1.0
1001
ACAD
1000
MTEXTBEGIN
1070
    73
1070
     1
1070
    44
1040
1.0
1070
    74
1070
     0
1000
MTEXTEND
  0
LINE
  5
2C495
330
747D
100
AcDbEntity
  8
部品1
 48
50.0
100
AcDbLine
 10
5390.296819212007
 20
1174.546138798257
 30
0.0
 11
5390.296819212007
 21
874.5461387982572
 31
0.0
  0
LINE
  5
2C496
330
747D
100
AcDbEntity
  8
細線
 48
50.0
100
AcDbLine
 10
5390.64401290714
 20
744.5461387982573
 30
0.0
 11
5398.682488680073
 21
714.5461387982573
 31
0.0
  0
LINE
  5
2C497
330
747D
100
AcDbEntity
  8
細線
 48
50.0
100
AcDbLine
 10
5489.254069091196
 20
744.5461387982573
 30
0.0
 11
5490.296819212008
 21
740.6545423678018
 31
0.0
  0
LINE
  5
2C498
330
747D
100
AcDbEntity
  8
細線
 48
50.0
100
AcDbLine
 10
5481.215593318262
 20
714.5461387982564
 30
0.0
 11
5490.296819212008
 21
748.4377352287432
 31
0.0
  0
MTEXT
  5
2C499
102
{ACAD_REACTORS
330
2C4D1
102
}
330
747D
100
AcDbEntity
  8
寸法
 62
     7
 48
50.0
100
AcDbMText
 10
5532.469889038572
 20
652.8597816330663
 30
0.0
 40
100.0
 41
1.0
 71
     4
 72
     1
  1
\A1;D10@300
  7
STYLE2
 73
     1
 44
1.0
1001
ACAD
1000
MTEXTBEGIN
1070
    73
1070
     1
1070
    44
1040
1.0
1070
    74
1070
     0
1000
MTEXTEND
  0
LINE
  5
2C49A
330
747D
100
AcDbEntity
  8
部品1
 48
50.0
100
AcDbLine
 10
5490.296819212011
 20
874.5461387982572
 30
0.0
 11
5490.296819212011
 21
714.5461387982573
 31
0.0
  0
LINE
  5
2C49B
330
747D
100
AcDbEntity
  8
細線
 48
50.0
100
AcDbLine
 10
5382.6055371342
 20
714.5461387982573
 30
0.0
 11
5425.477407923182
 21
874.5461387982564
 31
0.0
  0
LINE
  5
2C49C
330
747D
100
AcDbEntity
  8
部品1
 48
50.0
100
AcDbLine
 10
5100.296819212008
 20
1097.205157169661
 30
0.0
 11
5080.296819212009
 21
1097.205157169661
 31
0.0
  0
LINE
  5
2C49D
330
747D
100
AcDbEntity
  8
細線
 48
50.0
100
AcDbLine
 10
5090.129128558765
 20
1097.205157169661
 30
0.0
 11
5120.296819212015
 21
1127.37284782291
 31
0.0
  0
LINE
  5
2C49E
330
747D
100
AcDbEntity
  8
細線
 48
50.0
100
AcDbLine
 10
5100.296819212008
 20
1073.696887368896
 30
0.0
 11
5120.296819212015
 21
1093.696887368897
 31
0.0
  0
LINE
  5
2C49F
330
747D
100
AcDbEntity
  8
細線
 48
50.0
100
AcDbLine
 10
5140.296819212015
 20
1147.37284782291
 30
0.0
 11
5230.296819212
 21
1237.372847822903
 31
0.0
  0
LINE
  5
2C4A0
330
747D
100
AcDbEntity
  8
細線
 48
50.0
100
AcDbLine
 10
5140.296819212015
 20
1181.048808276919
 30
0.0
 11
5230.296819212
 21
1271.048808276916
 31
0.0
  0
LINE
  5
2C4A1
330
747D
100
AcDbEntity
  8
細線
 48
50.0
100
AcDbLine
 10
5140.296819212015
 20
1113.696887368896
 30
0.0
 11
5230.296819212
 21
1203.696887368896
 31
0.0
  0
LINE
  5
2C4A2
330
747D
100
AcDbEntity
  8
細線
 48
50.0
100
AcDbLine
 10
5170.553754273445
 20
874.5461387982572
 30
0.0
 11
5290.554864079864
 21
994.5472486046822
 31
0.0
  0
LINE
  5
2C4A3
330
747D
100
AcDbEntity
  8
部品1
 48
50.0
100
AcDbLine
 10
5320.296819212008
 20
1014.546138798257
 30
0.0
 11
5320.296819212008
 21
994.5461387982573
 31
0.0
  0
LINE
  5
2C4A4
330
747D
100
AcDbEntity
  8
細線
 48
50.0
100
AcDbLine
 10
5318.828875966193
 20
844.5461387982586
 30
0.0
 11
5310.790400193262
 21
874.5461387982572
 31
0.0
  0
CIRCLE
  5
2C4A5
330
747D
100
AcDbEntity
  8
部品1
 48
50.0
100
AcDbCircle
 10
5270.296819212008
 20
1024.546138798257
 30
0.0
 40
10.0
  0
LINE
  5
2C4A6
330
747D
100
AcDbEntity
  8
細線
 48
50.0
100
AcDbLine
 10
5220.218819782136
 20
844.5461387982586
 30
0.0
 11
5212.180344009203
 21
874.5461387982572
 31
0.0
  0
ARC
  5
2C4A7
330
747D
100
AcDbEntity
  8
部品1
 48
50.0
100
AcDbCircle
 10
5110.296819212008
 20
1024.546138798257
 30
0.0
 40
30.0
100
AcDbArc
 50
340.5287793654709
 51
0.0
  0
LINE
  5
2C4A8
330
747D
100
AcDbEntity
  8
細線
 48
50.0
100
AcDbLine
 10
5121.608763598079
 20
844.5461387982586
 30
0.0
 11
5113.570287825147
 21
874.5461387982572
 31
0.0
  0
ARC
  5
2C4A9
330
747D
100
AcDbEntity
  8
部品1
 48
50.0
100
AcDbCircle
 10
5110.296819212008
 20
1024.546138798257
 30
0.0
 40
30.0
100
AcDbArc
 50
180.0
 51
199.471220634529
  0
LINE
  5
2C4AA
330
747D
100
AcDbEntity
  8
細線
 48
50.0
100
AcDbLine
 10
5022.998707414012
 20
844.5461387982586
 30
0.0
 11
5014.960231641079
 21
874.5461387982572
 31
0.0
  0
CIRCLE
  5
2C4AB
330
747D
100
AcDbEntity
  8
部品1
 48
50.0
100
AcDbCircle
 10
5110.296819212008
 20
1024.546138798257
 30
0.0
 40
10.0
  0
LINE
  5
2C4AC
330
747D
100
AcDbEntity
  8
細線
 48
50.0
100
AcDbLine
 10
5136.87779381944
 20
874.5461387982572
 30
0.0
 11
5256.87779381944
 21
994.5461387982573
 31
0.0
  0
LINE
  5
2C4AD
330
747D
100
AcDbEntity
  8
細線
 48
50.0
100
AcDbLine
 10
5103.201833365424
 20
874.5461387982572
 30
0.0
 11
5223.201833365425
 21
994.5461387982573
 31
0.0
  0
LINE
  5
2C4AE
330
747D
100
AcDbEntity
  8
細線
 48
50.0
100
AcDbLine
 10
4973.79414973335
 20
1014.546138798257
 30
0.0
 11
5120.296819212008
 21
1161.048808276915
 31
0.0
  0
LINE
  5
2C4AF
330
747D
100
AcDbEntity
  8
細線
 48
50.0
100
AcDbLine
 10
5041.146070641369
 20
1014.546138798257
 30
0.0
 11
5080.296819212009
 21
1053.696887368896
 31
0.0
  0
LINE
  5
2C4B0
330
747D
100
AcDbEntity
  8
部品1
 48
50.0
100
AcDbLine
 10
5080.296819212009
 20
1097.205157169661
 30
0.0
 11
5080.296819212009
 21
1024.546138798257
 31
0.0
  0
LINE
  5
2C4B1
330
747D
100
AcDbEntity
  8
細線
 48
50.0
100
AcDbLine
 10
5007.470110187365
 20
1014.546138798257
 30
0.0
 11
5080.296819212009
 21
1087.372847822906
 31
0.0
  0
LINE
  5
2C4B2
330
747D
100
AcDbEntity
  8
部品1
 48
50.0
100
AcDbLine
 10
5100.296819212008
 20
1097.205157169661
 30
0.0
 11
5100.296819212008
 21
1024.546138798257
 31
0.0
  0
LINE
  5
2C4B3
330
747D
100
AcDbEntity
  8
細線
 48
50.0
100
AcDbLine
 10
4830.296819212001
 20
1106.780531454977
 30
0.0
 11
4898.062426555291
 21
1174.546138798257
 31
0.0
  0
LINE
  5
2C4B4
330
747D
100
AcDbEntity
  8
細線
 48
50.0
100
AcDbLine
 10
4830.296819212001
 20
1140.45649190899
 30
0.0
 11
4864.386466101276
 21
1174.546138798257
 31
0.0
  0
LINE
  5
2C4B5
330
747D
100
AcDbEntity
  8
細線
 48
50.0
100
AcDbLine
 10
4830.296819212001
 20
1073.104571000971
 30
0.0
 11
4931.738387009295
 21
1174.546138798257
 31
0.0
  0
LINE
  5
2C4B6
330
747D
100
AcDbEntity
  8
部品1
 48
50.0
100
AcDbLine
 10
4900.296819212008
 20
1014.546138798257
 30
0.0
 11
4900.296819212008
 21
994.5461387982573
 31
0.0
  0
LINE
  5
2C4B7
330
747D
100
AcDbEntity
  8
細線
 48
50.0
100
AcDbLine
 10
4924.388651229949
 20
844.5461387982586
 30
0.0
 11
4916.350175457015
 21
874.5461387982572
 31
0.0
  0
LINE
  5
2C4B8
330
747D
100
AcDbEntity
  8
細線
 48
50.0
100
AcDbLine
 10
4825.778595045884
 20
844.5461387982586
 30
0.0
 11
4817.740119272951
 21
874.5461387982572
 31
0.0
  0
LINE
  5
2C4B9
330
747D
100
AcDbEntity
  8
細線
 48
50.0
100
AcDbLine
 10
4730.296819212008
 20
856.2210400054821
 30
0.0
 11
4735.207014634752
 21
874.5461387982572
 31
0.0
  0
LINE
  5
2C4BA
330
747D
100
AcDbEntity
  8
部品1
 48
50.0
100
AcDbLine
 10
4830.296819212009
 20
874.5461387982572
 30
0.0
 11
4830.296819212009
 21
1174.546138798257
 31
0.0
  0
LINE
  5
2C4BB
330
747D
100
AcDbEntity
  8
部品1
 48
50.0
100
AcDbLine
 10
4900.296819212008
 20
994.5461387982573
 30
0.0
 11
5320.296819212008
 21
994.5461387982573
 31
0.0
  0
LINE
  5
2C4BC
330
747D
100
AcDbEntity
  8
部品1
 48
50.0
100
AcDbLine
 10
4900.296819212008
 20
1014.546138798257
 30
0.0
 11
5320.296819212008
 21
1014.546138798257
 31
0.0
  0
LINE
  5
2C4BD
330
747D
100
AcDbEntity
  8
細線
 48
50.0
100
AcDbLine
 10
4901.14607064137
 20
874.5461387982572
 30
0.0
 11
5021.146070641371
 21
994.5461387982573
 31
0.0
  0
CIRCLE
  5
2C4BE
330
747D
100
AcDbEntity
  8
部品1
 48
50.0
100
AcDbCircle
 10
4950.296819212008
 20
1024.546138798257
 30
0.0
 40
10.0
  0
LINE
  5
2C4BF
330
747D
100
AcDbEntity
  8
細線
 48
50.0
100
AcDbLine
 10
4867.470110187364
 20
874.5461387982572
 30
0.0
 11
4987.470110187363
 21
994.5461387982573
 31
0.0
  0
LINE
  5
2C4C0
330
747D
100
AcDbEntity
  8
細線
 48
50.0
100
AcDbLine
 10
4833.79414973335
 20
874.5461387982572
 30
0.0
 11
4953.794149733351
 21
994.5461387982573
 31
0.0
  0
LINE
  5
2C4C1
330
747D
100
AcDbEntity
  8
部品1
 48
50.0
100
AcDbLine
 10
4830.296819212009
 20
1174.546138798257
 30
0.0
 11
4990.296819212008
 21
1174.546138798257
 31
0.0
  0
LINE
  5
2C4C2
330
747D
100
AcDbEntity
  8
細線
 48
50.0
100
AcDbLine
 10
5193.423900539023
 20
744.5461387982573
 30
0.0
 11
5201.462376311958
 21
714.5461387982573
 31
0.0
  0
LINE
  5
2C4C3
330
747D
100
AcDbEntity
  8
細線
 48
50.0
100
AcDbLine
 10
5292.033956723082
 20
744.5461387982573
 30
0.0
 11
5300.072432496016
 21
714.5461387982573
 31
0.0
  0
LINE
  5
2C4C4
330
747D
100
AcDbEntity
  8
細線
 48
50.0
100
AcDbLine
 10
4996.203788170902
 20
744.5461387982573
 30
0.0
 11
5004.242263943837
 21
714.5461387982573
 31
0.0
  0
LINE
  5
2C4C5
330
747D
100
AcDbEntity
  8
細線
 48
50.0
100
AcDbLine
 10
5094.813844354967
 20
744.5461387982573
 30
0.0
 11
5102.852320127901
 21
714.5461387982573
 31
0.0
  0
LINE
  5
2C4C6
330
747D
100
AcDbEntity
  8
細線
 48
50.0
100
AcDbLine
 10
4798.983675802772
 20
744.5461387982573
 30
0.0
 11
4807.022151575704
 21
714.5461387982573
 31
0.0
  0
LINE
  5
2C4C7
330
747D
100
AcDbEntity
  8
細線
 48
50.0
100
AcDbLine
 10
4897.593731986837
 20
744.5461387982573
 30
0.0
 11
4905.63220775977
 21
714.5461387982573
 31
0.0
  0
LINE
  5
2C4C8
330
747D
100
AcDbEntity
  8
細線
 48
50.0
100
AcDbLine
 10
5185.385424766084
 20
714.5461387982573
 30
0.0
 11
5228.257295555066
 21
874.5461387982564
 31
0.0
  0
LINE
  5
2C4C9
330
747D
100
AcDbEntity
  8
細線
 48
50.0
100
AcDbLine
 10
4889.555256213903
 20
714.5461387982573
 30
0.0
 11
4932.427127002882
 21
874.5461387982572
 31
0.0
  0
LINE
  5
2C4CA
330
747D
100
AcDbEntity
  8
細線
 48
50.0
100
AcDbLine
 10
4988.165312397963
 20
714.5461387982564
 30
0.0
 11
5031.037183186938
 21
874.5461387982564
 31
0.0
  0
LINE
  5
2C4CB
330
747D
100
AcDbEntity
  8
細線
 48
50.0
100
AcDbLine
 10
4790.94520002983
 20
714.5461387982564
 30
0.0
 11
4833.817070818811
 21
874.5461387982564
 31
0.0
  0
LINE
  5
2C4CC
330
747D
100
AcDbEntity
  8
部品1
 48
50.0
100
AcDbLine
 10
4730.296819212012
 20
714.5461387982573
 30
0.0
 11
4730.296819212012
 21
874.5461387982572
 31
0.0
  0
LINE
  5
2C4CD
330
747D
100
AcDbEntity
  8
細線
 48
50.0
100
AcDbLine
 10
5086.775368582026
 20
714.5461387982573
 30
0.0
 11
5129.647239371005
 21
874.5461387982572
 31
0.0
  0
LINE
  5
2C4CE
330
747D
100
AcDbEntity
  8
細線
 48
50.0
100
AcDbLine
 10
5283.995480950145
 20
714.5461387982564
 30
0.0
 11
5326.867351739124
 21
874.5461387982564
 31
0.0
  0
LINE
  5
2C4CF
330
747D
100
AcDbEntity
  8
部品1
 48
50.0
100
AcDbLine
 10
5490.296819212011
 20
714.5461387982573
 30
0.0
 11
4730.296819212012
 21
714.5461387982573
 31
0.0
  0
LINE
  5
2C4D0
330
747D
100
AcDbEntity
  8
部品1
 48
50.0
100
AcDbLine
 10
5490.296819212011
 20
874.5461387982572
 30
0.0
 11
4730.296819212012
 21
874.5461387982572
 31
0.0
  0
LEADER
  5
2C4D1
330
747D
100
AcDbEntity
  8
寸法
 48
50.0
100
AcDbLeader
  3
INABA_S40G
 71
     0
 73
     0
 74
     0
 75
     1
 40
100.0
 41
540.3409090909091
 76
     3
 10
5202.728280478474
 20
1003.62047578135
 30
0.0
 10
5407.469889038572
 20
576.5819532877292
 30
0.0
 10
5507.469889038572
 20
576.5819532877292
 30
0.0
213
0.0
223
-1.277828345336728
233
0.0
1001
ACAD
1000
DSTYLE
1002
{
1070
   341
1005
0
1002
}
  0
DIMENSION
  5
2C4D2
330
747D
100
AcDbEntity
  8
寸法
 48
50.0
100
AcDbDimension
  2
*D36
 10
5390.296819212007
 20
415.5940323423242
 30
0.0
 11
5110.296819212008
 21
415.5940323423242
 31
0.0
 70
   160
  1
300
 71
     5
 42
559.9999999999972
  3
INABA_S40G
100
AcDbAlignedDimension
 13
4830.296819212009
 23
714.5461387982573
 33
0.0
 14
5390.296819212007
 24
714.5461387982573
 34
0.0
100
AcDbRotatedDimension
1001
ACAD
1000
DSTYLE
1002
{
1070
   341
1005
0
1002
}
  0
LEADER
  5
2C4D3
330
747D
100
AcDbEntity
  8
寸法
 48
50.0
100
AcDbLeader
  3
INABA_S40G
 71
     0
 73
     0
 74
     0
 75
     1
 40
100.0
 41
225.0
 76
     3
 10
5270.175509652187
 20
1024.546138798257
 30
0.0
 10
5394.456393970364
 20
905.2998026195423
 30
0.0
 10
5494.456393970364
 20
905.2998026195423
 30
0.0
1001
ACAD
1000
DSTYLE
1002
{
1070
   341
1005
0
1002
}
  0
LINE
  5
2C4D4
330
747D
100
AcDbEntity
  8
細線
 48
50.0
100
AcDbLine
 10
5243.201833365418
 20
1014.546138798257
 30
0.0
 11
5390.296819212007
 21
1161.64112464484
 31
0.0
  0
LINE
  5
2C4D5
330
747D
100
AcDbEntity
  8
細線
 48
50.0
100
AcDbLine
 10
5310.553754273445
 20
1014.546138798257
 30
0.0
 11
5390.296819212007
 21
1094.289203736822
 31
0.0
  0
LINE
  5
2C4D6
330
747D
100
AcDbEntity
  8
細線
 48
50.0
100
AcDbLine
 10
5276.87779381944
 20
1014.546138798257
 30
0.0
 11
5390.296819212007
 21
1127.965164190832
 31
0.0
  0
LINE
  5
2C4D7
330
747D
100
AcDbEntity
  8
部品1
 48
50.0
100
AcDbLine
 10
5230.296819212008
 20
1174.546138798257
 30
0.0
 11
5390.296819212007
 21
1174.546138798257
 31
0.0
  0
LINE
  5
2C4D8
330
747D
100
AcDbEntity
  8
部品1
 48
50.0
100
AcDbLine
 10
5140.296819212015
 20
1024.546138798257
 30
0.0
 11
5140.296819212007
 21
1679.864175541064
 31
0.0
  0
LINE
  5
2C4D9
330
747D
100
AcDbEntity
  8
部品1
 48
50.0
100
AcDbLine
 10
5120.296819212015
 20
1024.546138798257
 30
0.0
 11
5120.296819212001
 21
1679.864175541064
 31
0.0
  0
LINE
  5
2C4DA
330
747D
100
AcDbEntity
  8
部品1
 48
50.0
100
AcDbLine
 10
4990.296819212008
 20
1174.546138798257
 30
0.0
 11
4990.296819212008
 21
1854.546138798259
 31
0.0
  0
LINE
  5
2C4DB
330
747D
100
AcDbEntity
  8
細線
 48
50.0
100
AcDbLine
 10
4990.296819212008
 20
1266.78053145498
 30
0.0
 11
5120.296819212015
 21
1396.780531454984
 31
0.0
  0
LINE
  5
2C4DC
330
747D
100
AcDbEntity
  8
細線
 48
50.0
100
AcDbLine
 10
4990.296819212008
 20
1300.45649190899
 30
0.0
 11
5120.296819212008
 21
1430.45649190899
 31
0.0
  0
LINE
  5
2C4DD
330
747D
100
AcDbEntity
  8
細線
 48
50.0
100
AcDbLine
 10
4990.296819212008
 20
1233.104571000972
 30
0.0
 11
5120.296819212015
 21
1363.104571000971
 31
0.0
  0
LINE
  5
2C4DE
330
747D
100
AcDbEntity
  8
部品1
 48
50.0
100
AcDbLine
 10
5230.296819212008
 20
1854.546138798259
 30
0.0
 11
5230.296819212008
 21
1174.546138798257
 31
0.0
  0
MTEXT
  5
2C4DF
102
{ACAD_REACTORS
330
2C4E0
102
}
330
747D
100
AcDbEntity
  8
寸法
 62
     7
 48
50.0
100
AcDbMText
 10
4616.628036468015
 20
770.1427717752125
 30
0.0
 40
100.0
 41
1.0
 71
     6
 72
     1
  1
D10
  7
STYLE2
 73
     1
 44
1.0
1001
ACAD
1000
MTEXTBEGIN
1070
    73
1070
     1
1070
    44
1040
1.0
1070
    74
1070
     0
1000
MTEXTEND
  0
LEADER
  5
2C4E0
330
747D
100
AcDbEntity
  8
寸法
 48
50.0
100
AcDbLeader
  3
INABA_S40G
 71
     0
 73
     0
 75
     1
 40
100.0
 41
225.0
 76
     3
 10
4950.175509652186
 20
1024.546138798257
 30
0.0
 10
4741.628036468016
 20
695.1427717752125
 30
0.0
 10
4641.628036468016
 20
695.1427717752125
 30
0.0
1001
ACAD
1000
DSTYLE
1002
{
1070
   341
1005
0
1002
}
  0
LEADER
  5
2C4E1
330
747D
100
AcDbEntity
  8
寸法
 48
50.0
100
AcDbLeader
  3
INABA_S40G
 71
     0
 73
     0
 75
     1
 40
100.0
 41
222.7272727272727
 76
     3
 10
5110.296819212008
 20
1024.546138798257
 30
0.0
 10
4776.781445914807
 20
469.7475811009085
 30
0.0
 10
4676.781445914808
 20
469.7475811009085
 30
0.0
1001
ACAD
1000
DSTYLE
1002
{
1070
   341
1005
0
1002
}
  0
MTEXT
  5
2C4E2
102
{ACAD_REACTORS
330
2C4E1
102
}
330
747D
100
AcDbEntity
  8
寸法
 62
     7
 48
50.0
100
AcDbMText
 10
4651.781445914807
 20
544.7475811009085
 30
0.0
 40
100.0
 41
1.0
 71
     6
 72
     1
  1
D13
  7
STYLE2
 73
     1
 44
1.0
1001
ACAD
1000
MTEXTBEGIN
1070
    73
1070
     1
1070
    44
1040
1.0
1070
    74
1070
     0
1000
MTEXTEND
  0
MTEXT
  5
2C4E3
102
{ACAD_REACTORS
330
2C4E4
102
}
330
747D
100
AcDbEntity
  8
寸法
 62
     7
 48
50.0
100
AcDbMText
 10
4878.734251433503
 20
1356.171892320078
 30
0.0
 40
100.0
 41
1.0
 71
     6
 72
     1
  1
\A1;D10@300
  7
STYLE2
 73
     1
 44
1.0
1001
ACAD
1000
MTEXTBEGIN
1070
    73
1070
     1
1070
    44
1040
1.0
1070
    74
1070
     0
1000
MTEXTEND
  0
LEADER
  5
2C4E4
330
747D
100
AcDbEntity
  8
寸法
 48
50.0
100
AcDbLeader
  3
INABA_S40G
 71
     0
 73
     0
 75
     1
 40
100.0
 41
540.3409090909091
 76
     3
 10
5120.296819212008
 20
1552.205157169662
 30
0.0
 10
4991.569023551136
 20
1275.367246493656
 30
0.0
 10
4891.569023551135
 20
1275.367246493656
 30
0.0
213
-12.16522788236671
223
-5.804645826423211
233
0.0
1001
ACAD
1000
DSTYLE
1002
{
1070
   341
1005
0
1002
}
  0
LEADER
  5
2C4E5
330
747D
100
AcDbEntity
  8
寸法
 48
50.0
100
AcDbLeader
  3
INABA_S40G
 71
     0
 73
     0
 75
     1
 40
130.1136363636363
 41
651.1363636363636
 76
     3
 10
5090.296819212007
 20
1854.546138798259
 30
0.0
 10
5031.378819293727
 20
2030.134595618993
 30
0.0
 10
4931.378819293726
 20
2030.134595618993
 30
0.0
1001
ACAD
1000
DSTYLE
1002
{
1070
   341
1005
0
1002
}
  0
MTEXT
  5
2C4E6
102
{ACAD_REACTORS
330
2C4E5
102
}
330
747D
100
AcDbEntity
  8
寸法
 62
     7
 48
50.0
100
AcDbMText
 10
4906.378819293728
 20
2120.191413800811
 30
0.0
 40
100.0
 41
1.0
 71
     6
 72
     1
  1
\A1;金コテ押エ
  7
STYLE2
 73
     1
 44
1.0
1001
ACAD
1000
MTEXTBEGIN
1070
    73
1070
     1
1070
    44
1040
1.0
1070
    74
1070
     0
1000
MTEXTEND
  0
DIMENSION
  5
2C4E7
330
747D
100
AcDbEntity
  8
寸法
 48
50.0
100
AcDbDimension
  2
*D37
 10
4229.651881175943
 20
874.5461387982574
 30
0.0
 11
4229.651881175943
 21
1364.546138798258
 31
0.0
 70
   160
  1
540
 71
     5
 42
980.0000000000016
  3
INABA_S40G
100
AcDbAlignedDimension
 13
4990.296819212008
 23
1854.546138798259
 33
0.0
 14
4730.296819212012
 24
874.5461387982572
 34
0.0
 50
90.0
100
AcDbRotatedDimension
1001
ACAD
1000
DSTYLE
1002
{
1070
   341
1005
0
1002
}
  0
DIMENSION
  5
2C4E8
330
747D
100
AcDbEntity
  8
寸法
 48
50.0
100
AcDbDimension
  2
*D38
 10
4652.271427046433
 20
874.5461387982572
 30
0.0
 11
4652.271427046433
 21
1024.546138798257
 31
0.0
 70
   160
  1
150
 71
     5
 42
299.9999999999999
  3
INABA_S40G
100
AcDbAlignedDimension
 13
4830.296819212009
 23
1174.546138798257
 33
0.0
 14
4730.296819212012
 24
874.5461387982572
 34
0.0
 50
90.0
100
AcDbRotatedDimension
1001
ACAD
1000
DSTYLE
1002
{
1070
   341
1005
0
1002
}
  0
LWPOLYLINE
  5
2C4E9
330
747D
100
AcDbEntity
  8
部品1
 48
50.0
100
AcDbPolyline
 90
        2
 70
     0
 43
10.0
 10
4472.621941920812
 20
1554.54613879826
 10
4990.296819212008
 20
1554.54613879826
  0
TEXT
  5
2C4EA
330
747D
100
AcDbEntity
  8
部品1
 48
50.0
100
AcDbText
 10
4472.621941920812
 20
1568.594879152327
 30
0.0
 40
100.0
  1
▽G.L
  7
STYLE2
100
AcDbText
  0
LEADER
  5
2C4EB
330
747D
100
AcDbEntity
  8
寸法
 48
50.0
100
AcDbLeader
  3
INABA_S40G
 73
     0
 75
     1
 40
132.9545454545455
 41
1116.477272727273
 76
     3
 10
7279.595960683501
 20
1941.496138798258
 30
0.0
 10
7171.565870252326
 20
2400.320607193674
 30
0.0
 10
7071.565870252325
 20
2400.320607193674
 30
0.0
340
2C4EC
1001
ACAD
1000
DSTYLE
1002
{
1070
   341
1005
0
1002
}
  0
MTEXT
  5
2C4EC
102
{ACAD_REACTORS
330
2C4EB
102
}
330
747D
100
AcDbEntity
  8
寸法
 62
     7
 48
50.0
100
AcDbMText
 10
7031.565870252325
 20
2506.797879920947
 30
0.0
 40
100.0
 41
1.0
 71
     6
 72
     1
  1
\A1;アンカープレート L
  7
STYLE2
 73
     1
 44
1.0
1001
ACAD
1000
MTEXTBEGIN
1070
    73
1070
     1
1070
    44
1040
1.0
1070
    74
1070
     0
1000
MTEXTEND
  0
MTEXT
  5
2C4ED
102
{ACAD_REACTORS
330
2C4EE
102
}
330
747D
100
AcDbEntity
  8
部品1
 62
     7
 48
50.0
100
AcDbMText
 10
7642.538424575197
 20
2961.376708613319
 30
0.0
 40
100.0
 41
1.0
 71
     4
 72
     1
  1
\A1;ナット(市販品)
  7
STYLE2
 73
     1
 44
1.0
1001
ACAD
1000
MTEXTBEGIN
1070
    73
1070
     1
1070
    44
1040
1.0
1070
    74
1070
     0
1000
MTEXTEND
  0
LEADER
  5
2C4EE
330
747D
100
AcDbEntity
  8
寸法
 48
50.0
100
AcDbLeader
  3
INABA_S40G
 73
     0
 74
     0
 75
     1
 40
127.8409090909091
 41
850.0
 76
     3
 10
7412.0959606835
 20
2353.140240184687
 30
0.0
 10
7502.538424575196
 20
2857.456254067864
 30
0.0
 10
7602.538424575197
 20
2857.456254067864
 30
0.0
340
2C4ED
1001
ACAD
1000
DSTYLE
1002
{
1070
   341
1005
0
1002
}
  0
MTEXT
  5
2C4EF
102
{ACAD_REACTORS
330
2C4F0
102
}
330
747D
100
AcDbEntity
  8
部品1
 62
     7
 48
50.0
100
AcDbMText
 10
7681.935448644551
 20
2730.165355157334
 30
0.0
 40
100.0
 41
1.0
 71
     4
 72
     1
  1
\A1;ワッシャー(市販品)
  7
STYLE2
 73
     1
 44
1.0
1001
ACAD
1000
MTEXTBEGIN
1070
    73
1070
     1
1070
    44
1040
1.0
1070
    74
1070
     0
1000
MTEXTEND
  0
LEADER
  5
2C4F0
330
747D
100
AcDbEntity
  8
寸法
 48
50.0
100
AcDbLeader
  3
INABA_S40G
 73
     0
 74
     0
 75
     1
 40
127.8409090909091
 41
1133.522727272727
 76
     3
 10
7442.095960683501
 20
2190.950249353608
 30
0.0
 10
7541.935448644551
 20
2626.24490061188
 30
0.0
 10
7641.935448644551
 20
2626.24490061188
 30
0.0
340
2C4EF
1001
ACAD
1000
DSTYLE
1002
{
1070
   341
1005
0
1002
}
  0
DIMENSION
  5
2C4F1
330
747D
100
AcDbEntity
  8
寸法
 48
50.0
100
AcDbDimension
  2
*D39
 10
4990.296819212008
 20
2379.130898693734
 30
0.0
 11
5110.296819212008
 21
2379.130898693734
 31
0.0
 70
   160
  1
120\P(195)
 71
     5
 42
240.0
  3
INABA_S40G
100
AcDbAlignedDimension
 13
5230.296819212008
 23
1854.546138798259
 33
0.0
 14
4990.296819212008
 24
1854.546138798259
 34
0.0
100
AcDbRotatedDimension
1001
ACAD
1000
DSTYLE
1002
{
1070
   341
1005
0
1002
}
  0
LINE
  5
2C4F2
330
747D
100
AcDbEntity
  8
部品1
100
AcDbLine
 10
3871.496127660229
 20
3505.760663519313
 30
0.0
 11
3871.496127660229
 21
246.6911641646261
 31
0.0
  0
MTEXT
  5
2C4F3
102
{ACAD_REACTORS
330
2C4F4
102
}
330
747D
100
AcDbEntity
  8
寸法
 62
     7
 48
50.0
100
AcDbMText
 10
6998.262112491879
 20
2957.653219805341
 30
0.0
 40
100.0
 41
1.0
 71
     6
 72
     1
  1
\A1;φ70スリーブ
  7
STYLE2
 73
     1
 44
1.0
1001
ACAD
1000
MTEXTBEGIN
1070
    73
1070
     1
1070
    44
1040
1.0
1070
    74
1070
     0
1000
MTEXTEND
  0
LEADER
  5
2C4F4
330
747D
100
AcDbEntity
  8
寸法
 48
50.0
100
AcDbLeader
  3
INABA_S40G
 73
     0
 75
     1
 40
141.4772727272727
 41
760.7954545454546
 76
     3
 10
7353.016898356061
 20
1791.440730496107
 30
0.0
 10
7138.262112491879
 20
2846.914583441705
 30
0.0
 10
7038.262112491878
 20
2846.914583441705
 30
0.0
340
2C4F3
1001
ACAD
1000
DSTYLE
1002
{
1070
   341
1005
0
1002
}
  0
LINE
  5
2C4F5
330
747D
100
AcDbEntity
  8
部品1
100
AcDbLine
 10
10767.97082375825
 20
3505.760663519315
 30
0.0
 11
3871.496127660225
 21
3505.760663519313
 31
0.0
  0
LINE
  5
2C4F6
330
747D
100
AcDbEntity
  8
部品1
100
AcDbLine
 10
10767.97082375825
 20
3205.760663519313
 30
0.0
 11
3871.496127660225
 21
3205.760663519313
 31
0.0
  0
LINE
  5
2C4F7
330
747D
100
AcDbEntity
  8
部品1
100
AcDbLine
 10
3871.496127660225
 20
246.6911641646261
 30
0.0
 11
10767.97082375825
 21
246.6911641646261
 31
0.0
  0
LINE
  5
2C4F8
330
747D
100
AcDbEntity
  8
部品1
100
AcDbLine
 10
9277.459895939117
 20
1279.922494231566
 30
0.0
 11
10177.45989593912
 21
1279.92249423157
 31
0.0
  0
LINE
  5
2C4F9
330
747D
100
AcDbEntity
  8
部品1
100
AcDbLine
 10
9277.459895939117
 20
1439.92249423157
 30
0.0
 11
10177.45989593912
 21
1439.922494231574
 31
0.0
  0
LWPOLYLINE
  5
2C4FA
330
747D
100
AcDbEntity
  8
部品1
 48
50.0
100
AcDbPolyline
 90
        2
 70
     0
 43
15.0
 10
8946.695818313633
 20
1554.546138798258
 10
10448.06119722816
 20
1554.546138798258
  0
LINE
  5
2C4FB
330
747D
100
AcDbEntity
  8
細線
100
AcDbLine
 10
9418.755389063276
 20
1439.92249423157
 30
0.0
 11
9533.379033629968
 21
1554.546138798257
 31
0.0
  0
LINE
  5
2C4FC
330
747D
100
AcDbEntity
  8
部品1
100
AcDbLine
 10
9427.459895939117
 20
1854.546138798259
 30
0.0
 11
10027.45989593911
 21
1854.546138798259
 31
0.0
  0
LINE
  5
2C4FD
330
747D
100
AcDbEntity
  8
細線
100
AcDbLine
 10
9607.111952728306
 20
1554.546138798258
 30
0.0
 11
9427.459895939117
 21
1734.198195587448
 31
0.0
  0
LINE
  5
2C4FE
330
747D
100
AcDbEntity
  8
細線
100
AcDbLine
 10
9670.751563035096
 20
1554.546138798258
 30
0.0
 11
9427.459895939117
 21
1797.837805894237
 31
0.0
  0
HATCH
  5
2C642
330
747D
100
AcDbEntity
  8
細線
 48
50.0
100
AcDbHatch
 10
0.0
 20
0.0
 30
0.0
210
0.0
220
0.0
230
1.0
  2
LINE
 70
     0
 71
     1
 91
        5
 92
        7
 72
     0
 73
     1
 93
        4
 10
6588.600000000003
 20
8264.959634355417
 10
6388.600000000002
 20
8264.959634355417
 10
6388.600000000002
 20
8144.959634355416
 10
6588.600000000004
 20
8144.959634355418
 97
        4
330
2A1B8
330
2A463
330
2A453
330
2A462
 92
        7
 72
     0
 73
     1
 93
        4
 10
4868.599999999998
 20
7044.959634355414
 10
4748.6
 20
7044.959634355414
 10
4748.6
 20
6844.959634355415
 10
4868.6
 20
6844.959634355415
 97
        4
330
2A457
330
2A1CC
330
2A458
330
2A1CD
 92
        7
 72
     0
 73
     1
 93
        4
 10
6588.600000000008
 20
5744.959634355424
 10
6388.600000000009
 20
5744.959634355424
 10
6388.600000000009
 20
5549.959634355412
 10
6588.600000000005
 20
5549.959634355412
 97
        4
330
2A22F
330
2A2B2
330
2A23A
330
2A333
 92
        7
 72
     0
 73
     1
 93
        4
 10
10058.60000000001
 20
5744.95963435543
 10
9858.600000000016
 20
5744.95963435543
 10
9858.600000000016
 20
5624.959634355425
 10
10058.60000000001
 20
5624.959634355429
 97
        4
330
2A1B3
330
2A519
330
2A1B4
330
2A51A
 92
        7
 72
     0
 73
     1
 93
        4
 10
10058.6
 20
8264.959634355417
 10
9858.600000000002
 20
8264.959634355417
 10
9858.600000000004
 20
8144.959634355414
 10
10058.6
 20
8144.959634355414
 97
        4
330
2A1B8
330
2A52B
330
2A1B5
330
2A52A
 75
     0
 76
     1
 52
45.0
 41
10.0
 77
     0
 78
     1
 53
45.0
 43
0.0
 44
0.0
 45
-22.45064030267288
 46
22.45064030267288
 79
     0
 47
5.798422090931643
 98
        5
 10
6509.831492877076
 20
8215.743025063785
 10
4821.764655234765
 20
6986.477522808484
 10
6446.021364010238
 20
5676.034152084802
 10
9909.168724211291
 20
5641.243580666124
 10
9903.367819993212
 20
8221.541447058138
  0
HATCH
  5
2C64D
330
747D
100
AcDbEntity
  8
細線
 48
50.0
100
AcDbHatch
 10
0.0
 20
0.0
 30
0.0
210
0.0
220
0.0
230
1.0
  2
LINE
 70
     0
 71
     1
 91
        1
 92
        7
 72
     0
 73
     1
 93
        4
 10
11698.6
 20
7044.959634355414
 10
11578.6
 20
7044.959634355416
 10
11578.6
 20
6844.959634355415
 10
11698.6
 20
6844.959634355416
 97
        4
330
2A54F
330
2A49F
330
2A550
330
2A4A0
 75
     0
 76
     1
 52
45.0
 41
10.0
 77
     0
 78
     1
 53
45.0
 43
0.0
 44
0.0
 45
-22.45064030267288
 46
22.45064030267288
 79
     0
 47
1.998359687336453
 98
        1
 10
11593.61089385214
 20
6947.996598159734
  0
TEXT
  5
2C671
330
747D
100
AcDbEntity
  8
文字
 62
     7
 48
50.0
100
AcDbText
 10
14773.51716161636
 20
871.1744590657927
 30
0.0
 40
100.0
  1
～一般型～
  7
STYLE2
100
AcDbText
  0
ENDSEC
  0
SECTION
  2
OBJECTS
  0
DICTIONARY
  5
7471
330
0
100
AcDbDictionary
281
     1
  3
ACAD_COLOR
350
173D2
  3
ACAD_GROUP
350
7472
  3
ACAD_LAYOUT
350
173D3
  3
ACAD_MATERIAL
350
173D1
  3
ACAD_MLINESTYLE
350
7473
  3
ACAD_PLOTSETTINGS
350
173D4
  3
ACAD_PLOTSTYLENAME
350
173CF
  3
ACDBHEADERROUNDTRIPXREC
350
2C83A
  3
AcDbVariableDictionary
350
2C658
  3
CONTENTDICTIONARY
350
E71C
  3
DRAWINGVARIABLESDICT
350
F3B9
  0
DICTIONARY
  5
1758F
330
7467
100
AcDbDictionary
280
     1
281
     1
  3
ACAD_LAYERSTATES
360
17590
  0
DICTIONARY
  5
173D2
102
{ACAD_REACTORS
330
7471
102
}
330
7471
100
AcDbDictionary
281
     1
  0
DICTIONARY
  5
7472
102
{ACAD_REACTORS
330
7471
102
}
330
7471
100
AcDbDictionary
281
     1
  3
*A1
350
1D2A9
  0
DICTIONARY
  5
173D3
102
{ACAD_REACTORS
330
7471
102
}
330
7471
100
AcDbDictionary
281
     1
  3
Model
350
173D5
  3
レイアウト1
350
173D6
  0
DICTIONARY
  5
173D1
102
{ACAD_REACTORS
330
7471
102
}
330
7471
100
AcDbDictionary
281
     1
  0
DICTIONARY
  5
7473
102
{ACAD_REACTORS
330
7471
102
}
330
7471
100
AcDbDictionary
281
     1
  3
STANDARD
350
7480
  0
DICTIONARY
  5
173D4
102
{ACAD_REACTORS
330
7471
102
}
330
7471
100
AcDbDictionary
281
     1
  0
ACDBDICTIONARYWDFLT
  5
173CF
102
{ACAD_REACTORS
330
7471
102
}
330
7471
100
AcDbDictionary
281
     1
  3
Normal
350
173D0
100
AcDbDictionaryWithDefault
340
173D0
  0
DICTIONARY
  5
2C83A
102
{ACAD_REACTORS
330
7471
102
}
330
7471
100
AcDbDictionary
281
     1
  3
COLORDICT
350
2C83C
  3
MATERIALDICT
350
2C83B
  0
DICTIONARY
  5
2C658
102
{ACAD_REACTORS
330
7471
102
}
330
7471
100
AcDbDictionary
281
     1
  3
DIMASSOC
350
2C659
  3
PROJECTNAME
350
2C65A
  0
DICTIONARY
  5
E71C
102
{ACAD_REACTORS
330
7471
102
}
330
7471
100
AcDbDictionary
281
     1
  0
DICTIONARY
  5
F3B9
102
{ACAD_REACTORS
330
7471
102
}
330
7471
100
AcDbDictionary
281
     1
1001
DRAWINGVARIABLESXDATA
1000
POLARMODE
1000
1
  0
DICTIONARY
  5
17590
102
{ACAD_REACTORS
330
1758F
102
}
330
1758F
100
AcDbDictionary
281
     1
  0
GROUP
  5
1D2A9
102
{ACAD_REACTORS
330
7472
102
}
330
7472
100
AcDbGroup
300

 70
     1
 71
     1
  0
LAYOUT
  5
173D5
102
{ACAD_XDICTIONARY
360
2C83D
102
}
102
{ACAD_REACTORS
330
173D3
102
}
330
173D3
100
AcDbPlotSettings
  1

  2
クセロPDF
  4
A3
  6

 40
3.174999999999999
 41
3.174999999999999
 42
3.174987999999999
 43
3.174987999999999
 44
419.946655
 45
296.925995
 46
0.0
 47
0.0
 48
0.0
 49
0.0
140
0.0
141
0.0
142
1.0
143
40.88431155294937
 70
 11952
 72
     1
 73
     0
 74
     2
  7
inaba.ctb
 75
     0
147
0.0244592598484849
148
0.0
149
0.0
100
AcDbLayout
  1
Model
 70
     1
 71
     0
 10
0.0
 20
0.0
 11
12.0
 21
9.0
 12
0.0
 22
0.0
 32
0.0
 14
0.0
 24
0.0
 34
0.0
 15
0.0
 25
0.0
 35
0.0
146
0.0
 13
0.0
 23
0.0
 33
0.0
 16
1.0
 26
0.0
 36
0.0
 17
0.0
 27
1.0
 37
0.0
 76
     0
330
747D
  0
LAYOUT
  5
173D6
102
{ACAD_XDICTIONARY
360
2C83F
102
}
102
{ACAD_REACTORS
330
173D3
102
}
330
173D3
100
AcDbPlotSettings
  1

  2
Microsoft Office Document Image Writer
  4

  6

 40
0.0
 41
0.0
 42
0.0
 43
0.0
 44
0.0
 45
0.0
 46
0.0
 47
0.0
 48
0.0
 49
0.0
140
0.0
141
0.0
142
1.0
143
1.0
 70
   688
 72
     0
 73
     0
 74
     5
  7

 75
    16
147
1.0
148
0.0
149
0.0
100
AcDbLayout
  1
レイアウト1
 70
     0
 71
     1
 10
0.0
 20
0.0
 11
420.0
 21
297.0
 12
0.0
 22
0.0
 32
0.0
 14
1.000000000000000E+20
 24
1.000000000000000E+20
 34
1.000000000000000E+20
 15
-1.000000000000000E+20
 25
-1.000000000000000E+20
 35
-1.000000000000000E+20
146
0.0
 13
0.0
 23
0.0
 33
0.0
 16
1.0
 26
0.0
 36
0.0
 17
0.0
 27
1.0
 37
0.0
 76
     0
330
747A
  0
MLINESTYLE
  5
7480
102
{ACAD_REACTORS
330
7473
102
}
330
7473
100
AcDbMlineStyle
  2
STANDARD
 70
     0
  3

 62
     0
 51
90.0
 52
90.0
 71
     2
 49
0.5
 62
   256
  6
BYLAYER
 49
-0.5
 62
   256
  6
BYLAYER
  0
ACDBPLACEHOLDER
  5
173D0
102
{ACAD_REACTORS
330
173CF
102
}
330
173CF
  0
XRECORD
  5
2C83C
102
{ACAD_REACTORS
330
2C83A
102
}
330
2C83A
100
AcDbXrecord
280
     1
340
173D2
  0
XRECORD
  5
2C83B
102
{ACAD_REACTORS
330
2C83A
102
}
330
2C83A
100
AcDbXrecord
280
     1
340
173D1
  0
DICTIONARYVAR
  5
2C659
102
{ACAD_REACTORS
330
2C658
102
}
330
2C658
100
DictionaryVariables
280
     0
  1
1
  0
DICTIONARYVAR
  5
2C65A
102
{ACAD_REACTORS
330
2C658
102
}
330
2C658
100
DictionaryVariables
280
     0
  1

  0
DICTIONARY
  5
2C83D
330
173D5
100
AcDbDictionary
280
     1
281
     1
  3
ACAD_XREC_ROUNDTRIP
360
2C83E
  0
DICTIONARY
  5
2C83F
330
173D6
100
AcDbDictionary
280
     1
281
     1
  3
ACAD_XREC_ROUNDTRIP
360
2C840
  0
XRECORD
  5
2C83E
102
{ACAD_REACTORS
330
2C83D
102
}
330
2C83D
100
AcDbXrecord
280
     1
102
SHADEPLOT
 70
     1
102
SHADEPLOTRESLEVEL
 70
     2
102
SHADEPLOTCUSTOMDPI
 70
   300
  0
XRECORD
  5
2C840
102
{ACAD_REACTORS
330
2C83F
102
}
330
2C83F
100
AcDbXrecord
280
     1
102
SHADEPLOT
 70
     0
102
SHADEPLOTRESLEVEL
 70
     2
102
SHADEPLOTCUSTOMDPI
 70
   300
  0
ENDSEC
  0
EOF
