  0
SECTION
  2
HEADER
  9
$ACADVER
  1
AC1015
  9
$ACADMAINTVER
 70
    20
  9
$DWGCODEPAGE
  3
ANSI_932
  9
$INSBASE
 10
0.0
 20
0.0
 30
0.0
  9
$EXTMIN
 10
139.9999999999995
 20
-0.0000000000000909
 30
0.0
  9
$EXTMAX
 10
16307.2
 20
11409.6
 30
0.0
  9
$LIMMIN
 10
0.0
 20
0.0
  9
$LIMMAX
 10
16800.0
 20
11880.0
  9
$ORTHOMODE
 70
     0
  9
$REGENMODE
 70
     1
  9
$FILLMODE
 70
     1
  9
$QTEXTMODE
 70
     0
  9
$MIRRTEXT
 70
     1
  9
$LTSCALE
 40
20.0
  9
$ATTMODE
 70
     1
  9
$TEXTSIZE
 40
4.0
  9
$TRACEWID
 40
1.0
  9
$TEXTSTYLE
  7
STYLE1
  9
$CLAYER
  8
細線
  9
$CELTYPE
  6
BYLAYER
  9
$CECOLOR
 62
   256
  9
$CELTSCALE
 40
50.0
  9
$DISPSILH
 70
     0
  9
$DIMSCALE
 40
40.0
  9
$DIMASZ
 40
2.5
  9
$DIMEXO
 40
0.5
  9
$DIMDLI
 40
7.0
  9
$DIMRND
 40
0.0
  9
$DIMDLE
 40
0.0
  9
$DIMEXE
 40
1.5
  9
$DIMTP
 40
0.0
  9
$DIMTM
 40
0.0
  9
$DIMTXT
 40
3.0
  9
$DIMCEN
 40
0.0
  9
$DIMTSZ
 40
0.0
  9
$DIMTOL
 70
     0
  9
$DIMLIM
 70
     0
  9
$DIMTIH
 70
     0
  9
$DIMTOH
 70
     0
  9
$DIMSE1
 70
     0
  9
$DIMSE2
 70
     0
  9
$DIMTAD
 70
     3
  9
$DIMZIN
 70
     8
  9
$DIMBLK
  1

  9
$DIMASO
 70
     1
  9
$DIMSHO
 70
     1
  9
$DIMPOST
  1

  9
$DIMAPOST
  1

  9
$DIMALT
 70
     0
  9
$DIMALTD
 70
     2
  9
$DIMALTF
 40
0.0394
  9
$DIMLFAC
 40
1.0
  9
$DIMTOFL
 70
     1
  9
$DIMTVP
 40
0.0
  9
$DIMTIX
 70
     1
  9
$DIMSOXD
 70
     0
  9
$DIMSAH
 70
     1
  9
$DIMBLK1
  1
DOTSMALL
  9
$DIMBLK2
  1
DOTSMALL
  9
$DIMSTYLE
  2
INABA_S40G
  9
$DIMCLRD
 70
     0
  9
$DIMCLRE
 70
     0
  9
$DIMCLRT
 70
     7
  9
$DIMTFAC
 40
1.0
  9
$DIMGAP
 40
1.0
  9
$DIMJUST
 70
     0
  9
$DIMSD1
 70
     0
  9
$DIMSD2
 70
     0
  9
$DIMTOLJ
 70
     1
  9
$DIMTZIN
 70
     0
  9
$DIMALTZ
 70
     0
  9
$DIMALTTZ
 70
     0
  9
$DIMUPT
 70
     0
  9
$DIMDEC
 70
     1
  9
$DIMTDEC
 70
     4
  9
$DIMALTU
 70
     2
  9
$DIMALTTD
 70
     2
  9
$DIMTXSTY
  7
STYLE1
  9
$DIMAUNIT
 70
     0
  9
$DIMADEC
 70
     0
  9
$DIMALTRND
 40
0.0
  9
$DIMAZIN
 70
     0
  9
$DIMDSEP
 70
    46
  9
$DIMATFIT
 70
     3
  9
$DIMFRAC
 70
     0
  9
$DIMLDRBLK
  1

  9
$DIMLUNIT
 70
     2
  9
$DIMLWD
 70
    -2
  9
$DIMLWE
 70
    -2
  9
$DIMTMOVE
 70
     0
  9
$LUNITS
 70
     2
  9
$LUPREC
 70
     1
  9
$SKETCHINC
 40
1.0
  9
$FILLETRAD
 40
3.0
  9
$AUNITS
 70
     0
  9
$AUPREC
 70
     0
  9
$MENU
  1
acad
  9
$ELEVATION
 40
0.0
  9
$PELEVATION
 40
0.0
  9
$THICKNESS
 40
0.0
  9
$LIMCHECK
 70
     0
  9
$CHAMFERA
 40
0.0
  9
$CHAMFERB
 40
0.0
  9
$CHAMFERC
 40
0.0
  9
$CHAMFERD
 40
0.0
  9
$SKPOLY
 70
     0
  9
$TDCREATE
 40
2451368.612993866
  9
$TDUCREATE
 40
2451368.237993866
  9
$TDUPDATE
 40
2455827.764426493
  9
$TDUUPDATE
 40
2455827.389426493
  9
$TDINDWG
 40
0.9388743171
  9
$TDUSRTIMER
 40
0.9388734144
  9
$USRTIMER
 70
     1
  9
$ANGBASE
 50
0.0
  9
$ANGDIR
 70
     0
  9
$PDMODE
 70
     3
  9
$PDSIZE
 40
2.0
  9
$PLINEWID
 40
0.0
  9
$SPLFRAME
 70
     0
  9
$SPLINETYPE
 70
     6
  9
$SPLINESEGS
 70
     8
  9
$HANDSEED
  5
2A463
  9
$SURFTAB1
 70
     6
  9
$SURFTAB2
 70
     6
  9
$SURFTYPE
 70
     6
  9
$SURFU
 70
     6
  9
$SURFV
 70
     6
  9
$UCSBASE
  2

  9
$UCSNAME
  2

  9
$UCSORG
 10
0.0
 20
0.0
 30
0.0
  9
$UCSXDIR
 10
1.0
 20
0.0
 30
0.0
  9
$UCSYDIR
 10
0.0
 20
1.0
 30
0.0
  9
$UCSORTHOREF
  2

  9
$UCSORTHOVIEW
 70
     0
  9
$UCSORGTOP
 10
0.0
 20
0.0
 30
0.0
  9
$UCSORGBOTTOM
 10
0.0
 20
0.0
 30
0.0
  9
$UCSORGLEFT
 10
0.0
 20
0.0
 30
0.0
  9
$UCSORGRIGHT
 10
0.0
 20
0.0
 30
0.0
  9
$UCSORGFRONT
 10
0.0
 20
0.0
 30
0.0
  9
$UCSORGBACK
 10
0.0
 20
0.0
 30
0.0
  9
$PUCSBASE
  2

  9
$PUCSNAME
  2

  9
$PUCSORG
 10
0.0
 20
0.0
 30
0.0
  9
$PUCSXDIR
 10
1.0
 20
0.0
 30
0.0
  9
$PUCSYDIR
 10
0.0
 20
1.0
 30
0.0
  9
$PUCSORTHOREF
  2

  9
$PUCSORTHOVIEW
 70
     0
  9
$PUCSORGTOP
 10
0.0
 20
0.0
 30
0.0
  9
$PUCSORGBOTTOM
 10
0.0
 20
0.0
 30
0.0
  9
$PUCSORGLEFT
 10
0.0
 20
0.0
 30
0.0
  9
$PUCSORGRIGHT
 10
0.0
 20
0.0
 30
0.0
  9
$PUCSORGFRONT
 10
0.0
 20
0.0
 30
0.0
  9
$PUCSORGBACK
 10
0.0
 20
0.0
 30
0.0
  9
$USERI1
 70
     0
  9
$USERI2
 70
     0
  9
$USERI3
 70
     0
  9
$USERI4
 70
     0
  9
$USERI5
 70
     0
  9
$USERR1
 40
0.0
  9
$USERR2
 40
0.0
  9
$USERR3
 40
0.0
  9
$USERR4
 40
0.0
  9
$USERR5
 40
0.0
  9
$WORLDVIEW
 70
     1
  9
$SHADEDGE
 70
     3
  9
$SHADEDIF
 70
    70
  9
$TILEMODE
 70
     1
  9
$MAXACTVP
 70
    16
  9
$PINSBASE
 10
0.0
 20
0.0
 30
0.0
  9
$PLIMCHECK
 70
     0
  9
$PEXTMIN
 10
1.000000000000000E+20
 20
1.000000000000000E+20
 30
1.000000000000000E+20
  9
$PEXTMAX
 10
-1.000000000000000E+20
 20
-1.000000000000000E+20
 30
-1.000000000000000E+20
  9
$PLIMMIN
 10
0.0
 20
0.0
  9
$PLIMMAX
 10
420.0
 20
297.0
  9
$UNITMODE
 70
     0
  9
$VISRETAIN
 70
     0
  9
$PLINEGEN
 70
     0
  9
$PSLTSCALE
 70
     0
  9
$TREEDEPTH
 70
  3020
  9
$CMLSTYLE
  2
STANDARD
  9
$CMLJUST
 70
     0
  9
$CMLSCALE
 40
1.0
  9
$PROXYGRAPHICS
 70
     1
  9
$MEASUREMENT
 70
     1
  9
$CELWEIGHT
370
    -1
  9
$ENDCAPS
280
     0
  9
$JOINSTYLE
280
     0
  9
$LWDISPLAY
290
     0
  9
$INSUNITS
 70
     0
  9
$HYPERLINKBASE
  1

  9
$STYLESHEET
  1
inaba.ctb
  9
$XEDIT
290
     1
  9
$CEPSNTYPE
380
     0
  9
$PSTYLEMODE
290
     1
  9
$FINGERPRINTGUID
  2
{5EAC461A-2277-4BF8-9AB0-99C43BB394F0}
  9
$VERSIONGUID
  2
{EF6530FF-DB94-4BF6-8B97-28C69B1CBB29}
  9
$EXTNAMES
290
     1
  9
$PSVPSCALE
 40
0.0
  9
$OLESTARTUP
290
     0
  0
ENDSEC
  0
SECTION
  2
CLASSES
  0
CLASS
  1
ACDBDICTIONARYWDFLT
  2
AcDbDictionaryWithDefault
  3
ObjectDBX Classes
 90
        0
280
     0
281
     0
  0
CLASS
  1
DICTIONARYVAR
  2
AcDbDictionaryVar
  3
ObjectDBX Classes
 90
        0
280
     0
281
     0
  0
CLASS
  1
ACDBPLACEHOLDER
  2
AcDbPlaceHolder
  3
ObjectDBX Classes
 90
        0
280
     0
281
     0
  0
CLASS
  1
LAYOUT
  2
AcDbLayout
  3
ObjectDBX Classes
 90
        0
280
     0
281
     0
  0
ENDSEC
  0
SECTION
  2
TABLES
  0
TABLE
  2
VPORT
  5
746D
330
0
100
AcDbSymbolTable
 70
     2
  0
VPORT
  5
2A45B
330
746D
100
AcDbSymbolTableRecord
100
AcDbViewportTableRecord
  2
*Active
 70
     0
 10
0.0
 20
0.0
 11
1.0
 21
1.0
 12
9849.9010469839
 22
5755.813081555709
 13
0.0
 23
0.0
 14
10.0
 24
10.0
 15
10.0
 25
10.0
 16
0.0
 26
0.0
 36
1.0
 17
0.0
 27
0.0
 37
0.0
 40
11597.44175675021
 41
1.79295154185022
 42
50.0
 43
0.0
 44
0.0
 50
0.0
 51
0.0
 71
     0
 72
     0
 73
     1
 74
     0
 75
     0
 76
     0
 77
     0
 78
     0
281
     0
 65
     1
110
0.0
120
0.0
130
0.0
111
1.0
121
0.0
131
0.0
112
0.0
122
1.0
132
0.0
 79
     0
146
0.0
  0
ENDTAB
  0
TABLE
  2
LTYPE
  5
746A
330
0
100
AcDbSymbolTable
 70
     3
  0
LTYPE
  5
7477
330
746A
100
AcDbSymbolTableRecord
100
AcDbLinetypeTableRecord
  2
BYBLOCK
 70
     0
  3

 72
    65
 73
     0
 40
0.0
  0
LTYPE
  5
7478
330
746A
100
AcDbSymbolTableRecord
100
AcDbLinetypeTableRecord
  2
BYLAYER
 70
     0
  3

 72
    65
 73
     0
 40
0.0
  0
LTYPE
  5
7479
330
746A
100
AcDbSymbolTableRecord
100
AcDbLinetypeTableRecord
  2
CONTINUOUS
 70
     0
  3
Solid line
 72
    65
 73
     0
 40
0.0
  0
LTYPE
  5
7816
330
746A
100
AcDbSymbolTableRecord
100
AcDbLinetypeTableRecord
  2
CENTER
 70
     0
  3
____ _ ____ _ ____ _ ____ _ ____ _ ____ _ ____ 
 72
    65
 73
     4
 40
2.0
 49
1.25
 74
     0
 49
-0.25
 74
     0
 49
0.25
 74
     0
 49
-0.25
 74
     0
  0
LTYPE
  5
781B
330
746A
100
AcDbSymbolTableRecord
100
AcDbLinetypeTableRecord
  2
PHANTOM
 70
     0
  3
______  __  __  ______  __  __  ______  __  __ 
 72
    65
 73
     6
 40
2.5
 49
1.25
 74
     0
 49
-0.25
 74
     0
 49
0.25
 74
     0
 49
-0.25
 74
     0
 49
0.25
 74
     0
 49
-0.25
 74
     0
  0
ENDTAB
  0
TABLE
  2
LAYER
  5
7467
102
{ACAD_XDICTIONARY
360
1758F
102
}
330
0
100
AcDbSymbolTable
 70
    10
  0
LAYER
  5
7474
330
7467
100
AcDbSymbolTableRecord
100
AcDbLayerTableRecord
  2
0
 70
     0
 62
     7
  6
CONTINUOUS
370
    -3
390
173D0
  0
LAYER
  5
DEB2
330
7467
100
AcDbSymbolTableRecord
100
AcDbLayerTableRecord
  2
センター
 70
     0
 62
     3
  6
CENTER
370
    -3
390
173D0
  0
LAYER
  5
DEB3
330
7467
100
AcDbSymbolTableRecord
100
AcDbLayerTableRecord
  2
寸法
 70
     0
 62
     4
  6
CONTINUOUS
370
    -3
390
173D0
  0
LAYER
  5
DEB4
330
7467
100
AcDbSymbolTableRecord
100
AcDbLayerTableRecord
  2
部品1
 70
     0
 62
     7
  6
CONTINUOUS
370
    -3
390
173D0
  0
LAYER
  5
DEB5
330
7467
100
AcDbSymbolTableRecord
100
AcDbLayerTableRecord
  2
補助
 70
     0
 62
    -1
  6
CONTINUOUS
370
    -3
390
173D0
  0
LAYER
  5
DEB6
330
7467
100
AcDbSymbolTableRecord
100
AcDbLayerTableRecord
  2
文字
 70
     0
 62
     7
  6
CONTINUOUS
370
    -3
390
173D0
  0
LAYER
  5
F255
330
7467
100
AcDbSymbolTableRecord
100
AcDbLayerTableRecord
  2
DEFPOINTS
 70
     0
 62
     7
  6
CONTINUOUS
290
     0
370
    -3
390
173D0
  0
LAYER
  5
10B54
330
7467
100
AcDbSymbolTableRecord
100
AcDbLayerTableRecord
  2
仕様書枠
 70
     0
 62
   230
  6
CONTINUOUS
370
    -3
390
173D0
  0
LAYER
  5
1173F
330
7467
100
AcDbSymbolTableRecord
100
AcDbLayerTableRecord
  2
細線
 70
     0
 62
     5
  6
CONTINUOUS
370
    -3
390
173D0
  0
LAYER
  5
12CC4
330
7467
100
AcDbSymbolTableRecord
100
AcDbLayerTableRecord
  2
想像線
 70
     0
 62
     6
  6
PHANTOM
370
    -3
390
173D0
  0
ENDTAB
  0
TABLE
  2
STYLE
  5
7468
330
0
100
AcDbSymbolTable
 70
     4
  0
STYLE
  5
7475
330
7468
100
AcDbSymbolTableRecord
100
AcDbTextStyleTableRecord
  2
STANDARD
 70
     0
 40
0.0
 41
1.0
 50
0.0
 71
     0
 42
4.0
  3
txt
  4
C:\AutoCAD LT\bigfont.shx
  0
STYLE
  5
763C
330
7468
100
AcDbSymbolTableRecord
100
AcDbTextStyleTableRecord
  2
MSMINCHO
 70
     0
 40
0.0
 41
1.0
 50
0.0
 71
     0
 42
1.199999999999999
  3
C:\AutoCAD LT\msminch2.TTF
  4

  0
STYLE
  5
F706
330
7468
100
AcDbSymbolTableRecord
100
AcDbTextStyleTableRecord
  2
STYLE1
 70
     0
 40
0.0
 41
1.0
 50
0.0
 71
     0
 42
4.0
  3
isocp.shx
  4
bigfont.shx
  0
STYLE
  5
103BF
330
7468
100
AcDbSymbolTableRecord
100
AcDbTextStyleTableRecord
  2
STYLE2
 70
     0
 40
0.0
 41
1.0
 50
0.0
 71
     0
 42
100.0
  3
MS PGothic.ttf
  4

1001
ACAD
1000
MS PGothic
1071
    32818
  0
ENDTAB
  0
TABLE
  2
VIEW
  5
746B
330
0
100
AcDbSymbolTable
 70
     0
  0
ENDTAB
  0
TABLE
  2
UCS
  5
746C
330
0
100
AcDbSymbolTable
 70
     0
  0
ENDTAB
  0
TABLE
  2
APPID
  5
746E
330
0
100
AcDbSymbolTable
 70
     6
  0
APPID
  5
7476
330
746E
100
AcDbSymbolTableRecord
100
AcDbRegAppTableRecord
  2
ACAD
 70
     0
  0
APPID
  5
DEA9
330
746E
100
AcDbSymbolTableRecord
100
AcDbRegAppTableRecord
  2
CONTENTBLOCKICON
 70
     0
  0
APPID
  5
DEAA
330
746E
100
AcDbSymbolTableRecord
100
AcDbRegAppTableRecord
  2
CONTENTBLOCKDESCRIPTION
 70
     0
  0
APPID
  5
E71D
330
746E
100
AcDbSymbolTableRecord
100
AcDbRegAppTableRecord
  2
CONTENTTABDATA
 70
     0
  0
APPID
  5
E71E
330
746E
100
AcDbSymbolTableRecord
100
AcDbRegAppTableRecord
  2
CONTENTCURRENTTAB
 70
     0
  0
APPID
  5
F3BA
330
746E
100
AcDbSymbolTableRecord
100
AcDbRegAppTableRecord
  2
DRAWINGVARIABLESXDATA
 70
     0
  0
ENDTAB
  0
TABLE
  2
DIMSTYLE
  5
746F
330
0
100
AcDbSymbolTable
 70
     1
100
AcDbDimStyleTable
 71
     1
340
F71F
  0
DIMSTYLE
105
F71F
102
{ACAD_REACTORS
330
2A14A
330
2A147
330
2A146
330
2A144
330
2A141
330
2A13E
330
2A13D
330
2A13B
330
2A13A
330
2A137
330
2A136
330
2A129
330
2A128
330
2A127
330
2A0E5
330
2A0D0
330
2A0CE
330
2A0C8
330
2A02F
330
29AF7
330
29862
330
27D82
330
27D16
330
2701E
330
26F7E
330
26F64
330
26F3F
330
26F1A
330
26F00
330
26522
330
2651E
330
26519
330
2650D
330
2650C
330
26508
330
2647E
330
2646B
330
26467
330
26459
330
26458
330
26457
330
26454
330
26452
330
26450
330
26236
330
2622F
330
261CE
330
261CD
330
261C9
330
261B9
330
261B5
330
261B2
330
261B1
330
261B0
330
1D2D6
330
1AC2C
330
1AC27
102
}
330
746F
100
AcDbSymbolTableRecord
100
AcDbDimStyleTableRecord
  2
INABA_S40G
 70
     0
 40
40.0
 41
2.5
 42
0.5
 43
7.0
 44
1.5
 73
     0
 74
     0
 77
     3
 78
     8
140
3.0
141
0.0
143
0.0394
147
1.0
172
     1
173
     1
174
     1
178
     7
271
     1
340
F706
341
F770
343
F770
344
F770
  0
ENDTAB
  0
TABLE
  2
BLOCK_RECORD
  5
7466
330
0
100
AcDbSymbolTable
 70
    41
  0
BLOCK_RECORD
  5
747D
330
7466
100
AcDbSymbolTableRecord
100
AcDbBlockTableRecord
  2
*MODEL_SPACE
340
173D5
  0
BLOCK_RECORD
  5
747A
330
7466
100
AcDbSymbolTableRecord
100
AcDbBlockTableRecord
  2
*PAPER_SPACE
340
173D6
  0
BLOCK_RECORD
  5
F770
330
7466
100
AcDbSymbolTableRecord
100
AcDbBlockTableRecord
  2
_DOTSMALL
340
0
102
{BLKREFS
331
2A2BB
331
2A2BC
331
2A2C4
331
2A2C5
331
2A2CD
331
2A2CE
331
2A2D6
331
2A2D7
331
2A2DF
331
2A2E0
331
2A2EA
331
2A2EB
331
2A2F3
331
2A2F4
331
2A2FC
331
2A2FD
331
2A305
331
2A306
331
2A30F
331
2A310
331
2A31A
331
2A31B
331
2A325
331
2A326
331
2A330
331
2A331
331
2A33B
331
2A33C
331
2A346
331
2A347
331
2A350
331
2A351
331
2A35A
331
2A35B
331
2A364
331
2A365
331
2A36D
331
2A36E
331
2A376
331
2A377
331
2A37F
331
2A380
331
2A388
331
2A389
331
2A391
331
2A392
331
2A39B
331
2A39C
331
2A3A5
331
2A3A6
331
2A3AE
331
2A3AF
331
2A3B8
331
2A3B9
331
2A3C1
331
2A3C2
331
2A3CA
331
2A3CB
331
2A3D4
331
2A3D5
331
2A3DD
331
2A3DE
331
2A3E7
331
2A3E8
331
2A3F0
331
2A3F1
331
2A3F9
331
2A3FA
331
2A402
331
2A403
331
2A40B
331
2A40C
331
2A414
331
2A415
331
2A41E
331
2A41F
331
2A428
331
2A429
331
2A431
331
2A432
102
}
  0
BLOCK_RECORD
  5
26523
330
7466
100
AcDbSymbolTableRecord
100
AcDbBlockTableRecord
  2
*D1
340
0
  0
BLOCK_RECORD
  5
2652E
330
7466
100
AcDbSymbolTableRecord
100
AcDbBlockTableRecord
  2
*D2
340
0
  0
BLOCK_RECORD
  5
2653B
330
7466
100
AcDbSymbolTableRecord
100
AcDbBlockTableRecord
  2
*D3
340
0
  0
BLOCK_RECORD
  5
26548
330
7466
100
AcDbSymbolTableRecord
100
AcDbBlockTableRecord
  2
*D4
340
0
  0
BLOCK_RECORD
  5
26553
330
7466
100
AcDbSymbolTableRecord
100
AcDbBlockTableRecord
  2
*D5
340
0
  0
BLOCK_RECORD
  5
2655E
330
7466
100
AcDbSymbolTableRecord
100
AcDbBlockTableRecord
  2
*D6
340
0
  0
BLOCK_RECORD
  5
26568
330
7466
100
AcDbSymbolTableRecord
100
AcDbBlockTableRecord
  2
*D7
340
0
  0
BLOCK_RECORD
  5
26573
330
7466
100
AcDbSymbolTableRecord
100
AcDbBlockTableRecord
  2
*D8
340
0
  0
BLOCK_RECORD
  5
2659F
330
7466
100
AcDbSymbolTableRecord
100
AcDbBlockTableRecord
  2
*D9
340
0
  0
BLOCK_RECORD
  5
265C5
330
7466
100
AcDbSymbolTableRecord
100
AcDbBlockTableRecord
  2
*D10
340
0
  0
BLOCK_RECORD
  5
265DA
330
7466
100
AcDbSymbolTableRecord
100
AcDbBlockTableRecord
  2
*D11
340
0
  0
BLOCK_RECORD
  5
265F4
330
7466
100
AcDbSymbolTableRecord
100
AcDbBlockTableRecord
  2
*D12
340
0
  0
BLOCK_RECORD
  5
26600
330
7466
100
AcDbSymbolTableRecord
100
AcDbBlockTableRecord
  2
*D13
340
0
  0
BLOCK_RECORD
  5
2660C
330
7466
100
AcDbSymbolTableRecord
100
AcDbBlockTableRecord
  2
*D14
340
0
  0
BLOCK_RECORD
  5
26619
330
7466
100
AcDbSymbolTableRecord
100
AcDbBlockTableRecord
  2
*D15
340
0
  0
BLOCK_RECORD
  5
26624
330
7466
100
AcDbSymbolTableRecord
100
AcDbBlockTableRecord
  2
*D16
340
0
  0
BLOCK_RECORD
  5
26631
330
7466
100
AcDbSymbolTableRecord
100
AcDbBlockTableRecord
  2
*D17
340
0
  0
BLOCK_RECORD
  5
2663E
330
7466
100
AcDbSymbolTableRecord
100
AcDbBlockTableRecord
  2
*D18
340
0
  0
BLOCK_RECORD
  5
26649
330
7466
100
AcDbSymbolTableRecord
100
AcDbBlockTableRecord
  2
*D19
340
0
  0
BLOCK_RECORD
  5
2667B
330
7466
100
AcDbSymbolTableRecord
100
AcDbBlockTableRecord
  2
*D20
340
0
  0
BLOCK_RECORD
  5
26687
330
7466
100
AcDbSymbolTableRecord
100
AcDbBlockTableRecord
  2
*D21
340
0
  0
BLOCK_RECORD
  5
26692
330
7466
100
AcDbSymbolTableRecord
100
AcDbBlockTableRecord
  2
*D22
340
0
  0
BLOCK_RECORD
  5
2669E
330
7466
100
AcDbSymbolTableRecord
100
AcDbBlockTableRecord
  2
*D23
340
0
  0
BLOCK_RECORD
  5
266AB
330
7466
100
AcDbSymbolTableRecord
100
AcDbBlockTableRecord
  2
*D24
340
0
  0
BLOCK_RECORD
  5
266B8
330
7466
100
AcDbSymbolTableRecord
100
AcDbBlockTableRecord
  2
*D25
340
0
  0
BLOCK_RECORD
  5
26F01
330
7466
100
AcDbSymbolTableRecord
100
AcDbBlockTableRecord
  2
*D26
340
0
  0
BLOCK_RECORD
  5
26F1B
330
7466
100
AcDbSymbolTableRecord
100
AcDbBlockTableRecord
  2
*D27
340
0
  0
BLOCK_RECORD
  5
26F40
330
7466
100
AcDbSymbolTableRecord
100
AcDbBlockTableRecord
  2
*D28
340
0
  0
BLOCK_RECORD
  5
26F65
330
7466
100
AcDbSymbolTableRecord
100
AcDbBlockTableRecord
  2
*D29
340
0
  0
BLOCK_RECORD
  5
26F7F
330
7466
100
AcDbSymbolTableRecord
100
AcDbBlockTableRecord
  2
*D30
340
0
  0
BLOCK_RECORD
  5
2701F
330
7466
100
AcDbSymbolTableRecord
100
AcDbBlockTableRecord
  2
*D31
340
0
  0
BLOCK_RECORD
  5
27D83
330
7466
100
AcDbSymbolTableRecord
100
AcDbBlockTableRecord
  2
*D32
340
0
  0
BLOCK_RECORD
  5
29863
330
7466
100
AcDbSymbolTableRecord
100
AcDbBlockTableRecord
  2
*D33
340
0
  0
BLOCK_RECORD
  5
29B9E
330
7466
100
AcDbSymbolTableRecord
100
AcDbBlockTableRecord
  2
*D34
340
0
  0
BLOCK_RECORD
  5
2A155
330
7466
100
AcDbSymbolTableRecord
100
AcDbBlockTableRecord
  2
*D35
340
0
  0
BLOCK_RECORD
  5
2A163
330
7466
100
AcDbSymbolTableRecord
100
AcDbBlockTableRecord
  2
*D36
340
0
  0
BLOCK_RECORD
  5
2A16E
330
7466
100
AcDbSymbolTableRecord
100
AcDbBlockTableRecord
  2
*D37
340
0
  0
BLOCK_RECORD
  5
2A17A
330
7466
100
AcDbSymbolTableRecord
100
AcDbBlockTableRecord
  2
*D38
340
0
  0
BLOCK_RECORD
  5
2A186
330
7466
100
AcDbSymbolTableRecord
100
AcDbBlockTableRecord
  2
*D39
340
0
  0
BLOCK_RECORD
  5
2A192
330
7466
100
AcDbSymbolTableRecord
100
AcDbBlockTableRecord
  2
*D40
340
0
  0
ENDTAB
  0
ENDSEC
  0
SECTION
  2
BLOCKS
  0
BLOCK
  5
7489
330
747D
100
AcDbEntity
  8
0
100
AcDbBlockBegin
  2
*MODEL_SPACE
 70
     0
 10
0.0
 20
0.0
 30
0.0
  3
*MODEL_SPACE
  1

  0
ENDBLK
  5
748A
330
747D
100
AcDbEntity
  8
0
100
AcDbBlockEnd
  0
BLOCK
  5
7487
330
747A
100
AcDbEntity
 67
     1
  8
0
100
AcDbBlockBegin
  2
*PAPER_SPACE
 70
     0
 10
0.0
 20
0.0
 30
0.0
  3
*PAPER_SPACE
  1

  0
ENDBLK
  5
7488
330
747A
100
AcDbEntity
 67
     1
  8
0
100
AcDbBlockEnd
  0
BLOCK
  5
F771
330
F770
100
AcDbEntity
  8
0
 48
50.0
100
AcDbBlockBegin
  2
_DOTSMALL
 70
     0
 10
0.0
 20
0.0
 30
0.0
  3
_DOTSMALL
  1

  0
LWPOLYLINE
  5
F772
330
F770
100
AcDbEntity
  8
0
  6
ByBlock
 62
     0
 48
50.0
100
AcDbPolyline
 90
        2
 70
     1
 43
0.5
 10
-0.0625
 20
0.0
 42
1.0
 10
0.0625
 20
0.0
 42
1.0
  0
ENDBLK
  5
F776
330
F770
100
AcDbEntity
  8
0
 48
50.0
100
AcDbBlockEnd
  0
BLOCK
  5
2652C
330
26523
100
AcDbEntity
  8
0
 48
50.0
100
AcDbBlockBegin
  2
*D1
 70
     1
 10
0.0
 20
0.0
 30
0.0
  3
*D1
  1

  0
LINE
  5
2A42E
330
26523
100
AcDbEntity
  8
寸法
 62
     0
 48
50.0
370
    -2
100
AcDbLine
 10
10735.6
 20
8764.513207084728
 30
0.0
 11
10735.6
 21
9623.272833626813
 31
0.0
  0
LINE
  5
2A42F
330
26523
100
AcDbEntity
  8
寸法
 62
     0
 48
50.0
370
    -2
100
AcDbLine
 10
8105.6
 20
8764.513207084728
 30
0.0
 11
8105.6
 21
9623.272833626813
 31
0.0
  0
LINE
  5
2A430
330
26523
100
AcDbEntity
  8
寸法
 62
     0
 48
50.0
370
    -2
100
AcDbLine
 10
10735.6
 20
9563.272833626811
 30
0.0
 11
8105.6
 21
9563.272833626811
 31
0.0
  0
INSERT
  5
2A431
330
26523
100
AcDbEntity
  8
寸法
 62
     0
 48
50.0
370
    -2
100
AcDbBlockReference
  2
_DOTSMALL
 10
10735.6
 20
9563.272833626811
 30
0.0
 41
100.0
 42
100.0
 43
100.0
  0
INSERT
  5
2A432
330
26523
100
AcDbEntity
  8
寸法
 62
     0
 48
50.0
370
    -2
100
AcDbBlockReference
  2
_DOTSMALL
 10
8105.6
 20
9563.272833626811
 30
0.0
 41
100.0
 42
100.0
 43
100.0
 50
180.0
  0
MTEXT
  5
2A433
330
26523
100
AcDbEntity
  8
寸法
 62
     7
 48
50.0
100
AcDbMText
 10
9420.6
 20
9663.284644650435
 30
0.0
 40
120.0
 41
0.0
 71
     5
 72
     1
  1
\A1;2630
  7
STYLE1
 73
     1
 44
1.0
1001
ACAD
1000
MTEXTBEGIN
1070
    73
1070
     1
1070
    44
1040
1.0
1070
    74
1070
     0
1000
MTEXTEND
  0
POINT
  5
2A434
330
26523
100
AcDbEntity
  8
DEFPOINTS
 62
     0
 48
50.0
100
AcDbPoint
 10
10735.6
 20
8744.513207084729
 30
0.0
  0
POINT
  5
2A435
330
26523
100
AcDbEntity
  8
DEFPOINTS
 62
     0
 48
50.0
100
AcDbPoint
 10
8105.6
 20
8744.513207084729
 30
0.0
  0
POINT
  5
2A436
330
26523
100
AcDbEntity
  8
DEFPOINTS
 62
     0
 48
50.0
100
AcDbPoint
 10
8105.6
 20
9563.272833626811
 30
0.0
  0
ENDBLK
  5
2652D
330
26523
100
AcDbEntity
  8
0
 48
50.0
100
AcDbBlockEnd
  0
BLOCK
  5
26539
330
2652E
100
AcDbEntity
  8
0
 48
50.0
100
AcDbBlockBegin
  2
*D2
 70
     1
 10
0.0
 20
0.0
 30
0.0
  3
*D2
  1

  0
LINE
  5
2A424
330
2652E
100
AcDbEntity
  8
寸法
 62
     0
 48
50.0
370
    -2
100
AcDbLine
 10
8757.240883598699
 20
5877.51320708474
 30
0.0
 11
8610.14438614211
 21
5877.51320708474
 31
0.0
  0
LINE
  5
2A425
330
2652E
100
AcDbEntity
  8
寸法
 62
     0
 48
50.0
370
    -2
100
AcDbLine
 10
8255.600000000001
 20
5987.513207084748
 30
0.0
 11
8730.144386142111
 21
5987.513207084748
 31
0.0
  0
LINE
  5
2A426
330
2652E
100
AcDbEntity
  8
寸法
 62
     0
 48
50.0
370
    -2
100
AcDbLine
 10
8670.14438614211
 20
5877.51320708474
 30
0.0
 11
8670.14438614211
 21
5987.513207084748
 31
0.0
  0
LINE
  5
2A427
330
2652E
100
AcDbEntity
  8
寸法
 62
     0
 48
50.0
370
    -2
100
AcDbLine
 10
8670.14438614211
 20
5987.513207084748
 30
0.0
 11
8670.14438614211
 21
6381.619506297358
 31
0.0
  0
INSERT
  5
2A428
330
2652E
100
AcDbEntity
  8
寸法
 62
     0
 48
50.0
370
    -2
100
AcDbBlockReference
  2
_DOTSMALL
 10
8670.14438614211
 20
5877.51320708474
 30
0.0
 41
100.0
 42
100.0
 43
100.0
 50
270.0
  0
INSERT
  5
2A429
330
2652E
100
AcDbEntity
  8
寸法
 62
     0
 48
50.0
370
    -2
100
AcDbBlockReference
  2
_DOTSMALL
 10
8670.14438614211
 20
5987.513207084748
 30
0.0
 41
100.0
 42
100.0
 43
100.0
 50
90.0
  0
MTEXT
  5
2A42A
330
2652E
100
AcDbEntity
  8
寸法
 62
     7
 48
50.0
100
AcDbMText
 10
8570.144386142109
 20
6257.57226220287
 30
0.0
 40
120.0
 41
0.0
 71
     5
 72
     1
  1
\A1;110
  7
STYLE1
 11
0.0000000000000001
 21
1.0
 31
0.0
 73
     1
 44
1.0
1001
ACAD
1000
MTEXTBEGIN
1070
    73
1070
     1
1070
    44
1040
1.0
1070
    74
1070
     0
1000
MTEXTEND
  0
POINT
  5
2A42B
330
2652E
100
AcDbEntity
  8
DEFPOINTS
 62
     0
 48
50.0
100
AcDbPoint
 10
8777.240883598699
 20
5877.51320708474
 30
0.0
  0
POINT
  5
2A42C
330
2652E
100
AcDbEntity
  8
DEFPOINTS
 62
     0
 48
50.0
100
AcDbPoint
 10
8235.600000000001
 20
5987.513207084748
 30
0.0
  0
POINT
  5
2A42D
330
2652E
100
AcDbEntity
  8
DEFPOINTS
 62
     0
 48
50.0
100
AcDbPoint
 10
8670.14438614211
 20
5987.513207084748
 30
0.0
  0
ENDBLK
  5
2653A
330
2652E
100
AcDbEntity
  8
0
 48
50.0
100
AcDbBlockEnd
  0
BLOCK
  5
26546
330
2653B
100
AcDbEntity
  8
0
 48
50.0
100
AcDbBlockBegin
  2
*D3
 70
     1
 10
0.0
 20
0.0
 30
0.0
  3
*D3
  1

  0
LINE
  5
2A41A
330
2653B
100
AcDbEntity
  8
寸法
 62
     0
 48
50.0
370
    -2
100
AcDbLine
 10
8327.41918098816
 20
5757.513207084755
 30
0.0
 11
8730.144386142111
 21
5757.513207084755
 31
0.0
  0
LINE
  5
2A41B
330
2653B
100
AcDbEntity
  8
寸法
 62
     0
 48
50.0
370
    -2
100
AcDbLine
 10
8757.240883598699
 20
5877.51320708474
 30
0.0
 11
8610.14438614211
 21
5877.51320708474
 31
0.0
  0
LINE
  5
2A41C
330
2653B
100
AcDbEntity
  8
寸法
 62
     0
 48
50.0
370
    -2
100
AcDbLine
 10
8670.14438614211
 20
5877.51320708474
 30
0.0
 11
8670.14438614211
 21
5757.513207084755
 31
0.0
  0
LINE
  5
2A41D
330
2653B
100
AcDbEntity
  8
寸法
 62
     0
 48
50.0
370
    -2
100
AcDbLine
 10
8670.14438614211
 20
5757.513207084755
 30
0.0
 11
8670.14438614211
 21
5285.177658022299
 31
0.0
  0
INSERT
  5
2A41E
330
2653B
100
AcDbEntity
  8
寸法
 62
     0
 48
50.0
370
    -2
100
AcDbBlockReference
  2
_DOTSMALL
 10
8670.14438614211
 20
5877.51320708474
 30
0.0
 41
100.0
 42
100.0
 43
100.0
 50
90.0
  0
INSERT
  5
2A41F
330
2653B
100
AcDbEntity
  8
寸法
 62
     0
 48
50.0
370
    -2
100
AcDbBlockReference
  2
_DOTSMALL
 10
8670.14438614211
 20
5757.513207084755
 30
0.0
 41
100.0
 42
100.0
 43
100.0
 50
270.0
  0
MTEXT
  5
2A420
330
2653B
100
AcDbEntity
  8
寸法
 62
     7
 48
50.0
100
AcDbMText
 10
8570.132575118487
 20
5421.224902116788
 30
0.0
 40
120.0
 41
0.0
 71
     5
 72
     1
  1
\A1;120
  7
STYLE1
 11
0.0000000000000001
 21
1.0
 31
0.0
 73
     1
 44
1.0
1001
ACAD
1000
MTEXTBEGIN
1070
    73
1070
     1
1070
    44
1040
1.0
1070
    74
1070
     0
1000
MTEXTEND
  0
POINT
  5
2A421
330
2653B
100
AcDbEntity
  8
DEFPOINTS
 62
     0
 48
50.0
100
AcDbPoint
 10
8307.41918098816
 20
5757.513207084755
 30
0.0
  0
POINT
  5
2A422
330
2653B
100
AcDbEntity
  8
DEFPOINTS
 62
     0
 48
50.0
100
AcDbPoint
 10
8777.240883598699
 20
5877.51320708474
 30
0.0
  0
POINT
  5
2A423
330
2653B
100
AcDbEntity
  8
DEFPOINTS
 62
     0
 48
50.0
100
AcDbPoint
 10
8670.14438614211
 20
5877.51320708474
 30
0.0
  0
ENDBLK
  5
26547
330
2653B
100
AcDbEntity
  8
0
 48
50.0
100
AcDbBlockEnd
  0
BLOCK
  5
26551
330
26548
100
AcDbEntity
  8
0
 48
50.0
100
AcDbBlockBegin
  2
*D4
 70
     1
 10
0.0
 20
0.0
 30
0.0
  3
*D4
  1

  0
LINE
  5
2A411
330
26548
100
AcDbEntity
  8
寸法
 62
     0
 48
50.0
370
    -2
100
AcDbLine
 10
9123.600000000001
 20
8207.513207084724
 30
0.0
 11
9123.600000000001
 21
9404.422972733055
 31
0.0
  0
LINE
  5
2A412
330
26548
100
AcDbEntity
  8
寸法
 62
     0
 48
50.0
370
    -2
100
AcDbLine
 10
8223.600000000001
 20
8207.513207084724
 30
0.0
 11
8223.600000000001
 21
9404.422972733055
 31
0.0
  0
LINE
  5
2A413
330
26548
100
AcDbEntity
  8
寸法
 62
     0
 48
50.0
370
    -2
100
AcDbLine
 10
9123.600000000001
 20
9344.422972733054
 30
0.0
 11
8223.600000000001
 21
9344.422972733054
 31
0.0
  0
INSERT
  5
2A414
330
26548
100
AcDbEntity
  8
寸法
 62
     0
 48
50.0
370
    -2
100
AcDbBlockReference
  2
_DOTSMALL
 10
9123.600000000001
 20
9344.422972733054
 30
0.0
 41
100.0
 42
100.0
 43
100.0
  0
INSERT
  5
2A415
330
26548
100
AcDbEntity
  8
寸法
 62
     0
 48
50.0
370
    -2
100
AcDbBlockReference
  2
_DOTSMALL
 10
8223.600000000001
 20
9344.422972733054
 30
0.0
 41
100.0
 42
100.0
 43
100.0
 50
180.0
  0
MTEXT
  5
2A416
330
26548
100
AcDbEntity
  8
寸法
 62
     7
 48
50.0
100
AcDbMText
 10
8673.6
 20
9444.422972733056
 30
0.0
 40
120.0
 41
0.0
 71
     5
 72
     1
  1
\A1;900
  7
STYLE1
 73
     1
 44
1.0
1001
ACAD
1000
MTEXTBEGIN
1070
    73
1070
     1
1070
    44
1040
1.0
1070
    74
1070
     0
1000
MTEXTEND
  0
POINT
  5
2A417
330
26548
100
AcDbEntity
  8
DEFPOINTS
 62
     0
 48
50.0
100
AcDbPoint
 10
9123.600000000001
 20
8187.513207084725
 30
0.0
  0
POINT
  5
2A418
330
26548
100
AcDbEntity
  8
DEFPOINTS
 62
     0
 48
50.0
100
AcDbPoint
 10
8223.600000000001
 20
8187.513207084725
 30
0.0
  0
POINT
  5
2A419
330
26548
100
AcDbEntity
  8
DEFPOINTS
 62
     0
 48
50.0
100
AcDbPoint
 10
8223.600000000001
 20
9344.422972733054
 30
0.0
  0
ENDBLK
  5
26552
330
26548
100
AcDbEntity
  8
0
 48
50.0
100
AcDbBlockEnd
  0
BLOCK
  5
2655C
330
26553
100
AcDbEntity
  8
0
 48
50.0
100
AcDbBlockBegin
  2
*D5
 70
     1
 10
0.0
 20
0.0
 30
0.0
  3
*D5
  1

  0
LINE
  5
2A408
330
26553
100
AcDbEntity
  8
寸法
 62
     0
 48
50.0
370
    -2
100
AcDbLine
 10
5588.6
 20
8837.513207084727
 30
0.0
 11
5588.6
 21
9835.73352914365
 31
0.0
  0
LINE
  5
2A409
330
26553
100
AcDbEntity
  8
寸法
 62
     0
 48
50.0
370
    -2
100
AcDbLine
 10
10858.6
 20
8837.513207084727
 30
0.0
 11
10858.6
 21
9835.73352914365
 31
0.0
  0
LINE
  5
2A40A
330
26553
100
AcDbEntity
  8
寸法
 62
     0
 48
50.0
370
    -2
100
AcDbLine
 10
5588.6
 20
9775.73352914365
 30
0.0
 11
10858.6
 21
9775.73352914365
 31
0.0
  0
INSERT
  5
2A40B
330
26553
100
AcDbEntity
  8
寸法
 62
     0
 48
50.0
370
    -2
100
AcDbBlockReference
  2
_DOTSMALL
 10
5588.6
 20
9775.73352914365
 30
0.0
 41
100.0
 42
100.0
 43
100.0
 50
180.0
  0
INSERT
  5
2A40C
330
26553
100
AcDbEntity
  8
寸法
 62
     0
 48
50.0
370
    -2
100
AcDbBlockReference
  2
_DOTSMALL
 10
10858.6
 20
9775.73352914365
 30
0.0
 41
100.0
 42
100.0
 43
100.0
  0
MTEXT
  5
2A40D
330
26553
100
AcDbEntity
  8
寸法
 62
     7
 48
50.0
100
AcDbMText
 10
8223.600000000001
 20
9875.745340167272
 30
0.0
 40
120.0
 41
0.0
 71
     5
 72
     1
  1
\A1;5270
  7
STYLE1
 73
     1
 44
1.0
1001
ACAD
1000
MTEXTBEGIN
1070
    73
1070
     1
1070
    44
1040
1.0
1070
    74
1070
     0
1000
MTEXTEND
  0
POINT
  5
2A40E
330
26553
100
AcDbEntity
  8
DEFPOINTS
 62
     0
 48
50.0
100
AcDbPoint
 10
5588.6
 20
8817.513207084727
 30
0.0
  0
POINT
  5
2A40F
330
26553
100
AcDbEntity
  8
DEFPOINTS
 62
     0
 48
50.0
100
AcDbPoint
 10
10858.6
 20
8817.513207084727
 30
0.0
  0
POINT
  5
2A410
330
26553
100
AcDbEntity
  8
DEFPOINTS
 62
     0
 48
50.0
100
AcDbPoint
 10
10858.6
 20
9775.73352914365
 30
0.0
  0
ENDBLK
  5
2655D
330
26553
100
AcDbEntity
  8
0
 48
50.0
100
AcDbBlockEnd
  0
BLOCK
  5
26566
330
2655E
100
AcDbEntity
  8
0
 48
50.0
100
AcDbBlockBegin
  2
*D6
 70
     1
 10
0.0
 20
0.0
 30
0.0
  3
*D6
  1

  0
LINE
  5
2A3FF
330
2655E
100
AcDbEntity
  8
寸法
 62
     0
 48
50.0
370
    -2
100
AcDbLine
 10
8235.600000000001
 20
6007.513207084747
 30
0.0
 11
8235.600000000001
 21
6242.360657588265
 31
0.0
  0
LINE
  5
2A400
330
2655E
100
AcDbEntity
  8
寸法
 62
     0
 48
50.0
370
    -2
100
AcDbLine
 10
7975.6
 20
6007.513207084747
 30
0.0
 11
7975.6
 21
6242.360657588265
 31
0.0
  0
LINE
  5
2A401
330
2655E
100
AcDbEntity
  8
寸法
 62
     0
 48
50.0
370
    -2
100
AcDbLine
 10
8235.600000000001
 20
6182.360657588265
 30
0.0
 11
7975.6
 21
6182.360657588265
 31
0.0
  0
INSERT
  5
2A402
330
2655E
100
AcDbEntity
  8
寸法
 62
     0
 48
50.0
370
    -2
100
AcDbBlockReference
  2
_DOTSMALL
 10
8235.600000000001
 20
6182.360657588265
 30
0.0
 41
100.0
 42
100.0
 43
100.0
  0
INSERT
  5
2A403
330
2655E
100
AcDbEntity
  8
寸法
 62
     0
 48
50.0
370
    -2
100
AcDbBlockReference
  2
_DOTSMALL
 10
7975.6
 20
6182.360657588265
 30
0.0
 41
100.0
 42
100.0
 43
100.0
 50
180.0
  0
MTEXT
  5
2A404
330
2655E
100
AcDbEntity
  8
寸法
 62
     7
 48
50.0
100
AcDbMText
 10
8105.6
 20
6282.372468611886
 30
0.0
 40
120.0
 41
0.0
 71
     5
 72
     1
  1
\A1;260
  7
STYLE1
 73
     1
 44
1.0
1001
ACAD
1000
MTEXTBEGIN
1070
    73
1070
     1
1070
    44
1040
1.0
1070
    74
1070
     0
1000
MTEXTEND
  0
POINT
  5
2A405
330
2655E
100
AcDbEntity
  8
DEFPOINTS
 62
     0
 48
50.0
100
AcDbPoint
 10
8235.600000000001
 20
5987.513207084748
 30
0.0
  0
POINT
  5
2A406
330
2655E
100
AcDbEntity
  8
DEFPOINTS
 62
     0
 48
50.0
100
AcDbPoint
 10
7975.6
 20
5987.513207084748
 30
0.0
  0
POINT
  5
2A407
330
2655E
100
AcDbEntity
  8
DEFPOINTS
 62
     0
 48
50.0
100
AcDbPoint
 10
7975.6
 20
6182.360657588265
 30
0.0
  0
ENDBLK
  5
26567
330
2655E
100
AcDbEntity
  8
0
 48
50.0
100
AcDbBlockEnd
  0
BLOCK
  5
26571
330
26568
100
AcDbEntity
  8
0
 48
50.0
100
AcDbBlockBegin
  2
*D7
 70
     1
 10
0.0
 20
0.0
 30
0.0
  3
*D7
  1

  0
LINE
  5
2A3F6
330
26568
100
AcDbEntity
  8
寸法
 62
     0
 48
50.0
370
    -2
100
AcDbLine
 10
5568.6
 20
8817.513207084727
 30
0.0
 11
4780.714637266785
 21
8817.513207084727
 31
0.0
  0
LINE
  5
2A3F7
330
26568
100
AcDbEntity
  8
寸法
 62
     0
 48
50.0
370
    -2
100
AcDbLine
 10
5568.6
 20
5757.51320708473
 30
0.0
 11
4780.714637266783
 21
5757.51320708473
 31
0.0
  0
LINE
  5
2A3F8
330
26568
100
AcDbEntity
  8
寸法
 62
     0
 48
50.0
370
    -2
100
AcDbLine
 10
4840.714637266785
 20
8817.513207084727
 30
0.0
 11
4840.714637266784
 21
5757.51320708473
 31
0.0
  0
INSERT
  5
2A3F9
330
26568
100
AcDbEntity
  8
寸法
 62
     0
 48
50.0
370
    -2
100
AcDbBlockReference
  2
_DOTSMALL
 10
4840.714637266785
 20
8817.513207084727
 30
0.0
 41
100.0
 42
100.0
 43
100.0
 50
90.0
  0
INSERT
  5
2A3FA
330
26568
100
AcDbEntity
  8
寸法
 62
     0
 48
50.0
370
    -2
100
AcDbBlockReference
  2
_DOTSMALL
 10
4840.714637266784
 20
5757.51320708473
 30
0.0
 41
100.0
 42
100.0
 43
100.0
 50
270.0
  0
MTEXT
  5
2A3FB
330
26568
100
AcDbEntity
  8
寸法
 62
     7
 48
50.0
100
AcDbMText
 10
4740.714637266782
 20
7287.513207084727
 30
0.0
 40
120.0
 41
0.0
 71
     5
 72
     1
  1
\A1;3060
  7
STYLE1
 11
0.0000000000000001
 21
1.0
 31
0.0
 73
     1
 44
1.0
1001
ACAD
1000
MTEXTBEGIN
1070
    73
1070
     1
1070
    44
1040
1.0
1070
    74
1070
     0
1000
MTEXTEND
  0
POINT
  5
2A3FC
330
26568
100
AcDbEntity
  8
DEFPOINTS
 62
     0
 48
50.0
100
AcDbPoint
 10
5588.6
 20
8817.513207084727
 30
0.0
  0
POINT
  5
2A3FD
330
26568
100
AcDbEntity
  8
DEFPOINTS
 62
     0
 48
50.0
100
AcDbPoint
 10
5588.6
 20
5757.51320708473
 30
0.0
  0
POINT
  5
2A3FE
330
26568
100
AcDbEntity
  8
DEFPOINTS
 62
     0
 48
50.0
100
AcDbPoint
 10
4840.714637266784
 20
5757.51320708473
 30
0.0
  0
ENDBLK
  5
26572
330
26568
100
AcDbEntity
  8
0
 48
50.0
100
AcDbBlockEnd
  0
BLOCK
  5
2657D
330
26573
100
AcDbEntity
  8
0
 48
50.0
100
AcDbBlockBegin
  2
*D8
 70
     1
 10
0.0
 20
0.0
 30
0.0
  3
*D8
  1

  0
LINE
  5
2A3ED
330
26573
100
AcDbEntity
  8
寸法
 62
     0
 48
50.0
370
    -2
100
AcDbLine
 10
5641.6
 20
8694.51320708473
 30
0.0
 11
5032.657733986184
 21
8694.51320708473
 31
0.0
  0
LINE
  5
2A3EE
330
26573
100
AcDbEntity
  8
寸法
 62
     0
 48
50.0
370
    -2
100
AcDbLine
 10
5641.600000000007
 20
5880.513207084732
 30
0.0
 11
5032.657733986184
 21
5880.513207084732
 31
0.0
  0
LINE
  5
2A3EF
330
26573
100
AcDbEntity
  8
寸法
 62
     0
 48
50.0
370
    -2
100
AcDbLine
 10
5092.657733986184
 20
8694.51320708473
 30
0.0
 11
5092.657733986183
 21
5880.513207084732
 31
0.0
  0
INSERT
  5
2A3F0
330
26573
100
AcDbEntity
  8
寸法
 62
     0
 48
50.0
370
    -2
100
AcDbBlockReference
  2
_DOTSMALL
 10
5092.657733986184
 20
8694.51320708473
 30
0.0
 41
100.0
 42
100.0
 43
100.0
 50
90.0
  0
INSERT
  5
2A3F1
330
26573
100
AcDbEntity
  8
寸法
 62
     0
 48
50.0
370
    -2
100
AcDbBlockReference
  2
_DOTSMALL
 10
5092.657733986183
 20
5880.513207084732
 30
0.0
 41
100.0
 42
100.0
 43
100.0
 50
270.0
  0
MTEXT
  5
2A3F2
330
26573
100
AcDbEntity
  8
寸法
 62
     7
 48
50.0
100
AcDbMText
 10
4992.645922962561
 20
7287.51320708473
 30
0.0
 40
120.0
 41
0.0
 71
     5
 72
     1
  1
\A1;2814
  7
STYLE1
 11
0.0000000000000001
 21
1.0
 31
0.0
 73
     1
 44
1.0
1001
ACAD
1000
MTEXTBEGIN
1070
    73
1070
     1
1070
    44
1040
1.0
1070
    74
1070
     0
1000
MTEXTEND
  0
POINT
  5
2A3F3
330
26573
100
AcDbEntity
  8
DEFPOINTS
 62
     0
 48
50.0
100
AcDbPoint
 10
5661.6
 20
8694.51320708473
 30
0.0
  0
POINT
  5
2A3F4
330
26573
100
AcDbEntity
  8
DEFPOINTS
 62
     0
 48
50.0
100
AcDbPoint
 10
5661.600000000007
 20
5880.513207084732
 30
0.0
  0
POINT
  5
2A3F5
330
26573
100
AcDbEntity
  8
DEFPOINTS
 62
     0
 48
50.0
100
AcDbPoint
 10
5092.657733986183
 20
5880.513207084732
 30
0.0
  0
ENDBLK
  5
2657E
330
26573
100
AcDbEntity
  8
0
 48
50.0
100
AcDbBlockEnd
  0
BLOCK
  5
265AA
330
2659F
100
AcDbEntity
  8
0
 48
50.0
100
AcDbBlockBegin
  2
*D9
 70
     1
 10
0.0
 20
0.0
 30
0.0
  3
*D9
  1

  0
LINE
  5
2A3E3
330
2659F
100
AcDbEntity
  8
寸法
 62
     0
 48
50.0
370
    -2
100
AcDbLine
 10
5641.600000000007
 20
5880.513207084732
 30
0.0
 11
5032.657733986178
 21
5880.513207084732
 31
0.0
  0
LINE
  5
2A3E4
330
2659F
100
AcDbEntity
  8
寸法
 62
     0
 48
50.0
370
    -2
100
AcDbLine
 10
5568.6
 20
5757.51320708473
 30
0.0
 11
5032.657733986178
 21
5757.51320708473
 31
0.0
  0
LINE
  5
2A3E5
330
2659F
100
AcDbEntity
  8
寸法
 62
     0
 48
50.0
370
    -2
100
AcDbLine
 10
5092.657733986179
 20
5880.513207084732
 30
0.0
 11
5092.657733986179
 21
5757.51320708473
 31
0.0
  0
LINE
  5
2A3E6
330
2659F
100
AcDbEntity
  8
寸法
 62
     0
 48
50.0
370
    -2
100
AcDbLine
 10
5092.657733986179
 20
5757.51320708473
 30
0.0
 11
5092.657733986179
 21
5283.496976867897
 31
0.0
  0
INSERT
  5
2A3E7
330
2659F
100
AcDbEntity
  8
寸法
 62
     0
 48
50.0
370
    -2
100
AcDbBlockReference
  2
_DOTSMALL
 10
5092.657733986179
 20
5880.513207084732
 30
0.0
 41
100.0
 42
100.0
 43
100.0
 50
90.0
  0
INSERT
  5
2A3E8
330
2659F
100
AcDbEntity
  8
寸法
 62
     0
 48
50.0
370
    -2
100
AcDbBlockReference
  2
_DOTSMALL
 10
5092.657733986179
 20
5757.51320708473
 30
0.0
 41
100.0
 42
100.0
 43
100.0
 50
270.0
  0
MTEXT
  5
2A3E9
330
2659F
100
AcDbEntity
  8
寸法
 62
     7
 48
50.0
100
AcDbMText
 10
4992.645922962556
 20
5421.982258242136
 30
0.0
 40
120.0
 41
0.0
 71
     5
 72
     1
  1
\A1;123
  7
STYLE1
 11
0.0000000000000001
 21
1.0
 31
0.0
 73
     1
 44
1.0
1001
ACAD
1000
MTEXTBEGIN
1070
    73
1070
     1
1070
    44
1040
1.0
1070
    74
1070
     0
1000
MTEXTEND
  0
POINT
  5
2A3EA
330
2659F
100
AcDbEntity
  8
DEFPOINTS
 62
     0
 48
50.0
100
AcDbPoint
 10
5661.600000000007
 20
5880.513207084732
 30
0.0
  0
POINT
  5
2A3EB
330
2659F
100
AcDbEntity
  8
DEFPOINTS
 62
     0
 48
50.0
100
AcDbPoint
 10
5588.6
 20
5757.51320708473
 30
0.0
  0
POINT
  5
2A3EC
330
2659F
100
AcDbEntity
  8
DEFPOINTS
 62
     0
 48
50.0
100
AcDbPoint
 10
5092.657733986179
 20
5757.51320708473
 30
0.0
  0
ENDBLK
  5
265AB
330
2659F
100
AcDbEntity
  8
0
 48
50.0
100
AcDbBlockEnd
  0
BLOCK
  5
265CE
330
265C5
100
AcDbEntity
  8
0
 48
50.0
100
AcDbBlockBegin
  2
*D10
 70
     1
 10
0.0
 20
0.0
 30
0.0
  3
*D10
  1

  0
LINE
  5
2A3DA
330
265C5
100
AcDbEntity
  8
寸法
 62
     0
 48
50.0
370
    -2
100
AcDbLine
 10
6041.6
 20
5662.513207084717
 30
0.0
 11
6041.6
 21
5137.668192742538
 31
0.0
  0
LINE
  5
2A3DB
330
265C5
100
AcDbEntity
  8
寸法
 62
     0
 48
50.0
370
    -2
100
AcDbLine
 10
5588.6
 20
5737.513207084729
 30
0.0
 11
5588.6
 21
5137.668192742538
 31
0.0
  0
LINE
  5
2A3DC
330
265C5
100
AcDbEntity
  8
寸法
 62
     0
 48
50.0
370
    -2
100
AcDbLine
 10
6041.6
 20
5197.668192742538
 30
0.0
 11
5588.6
 21
5197.668192742538
 31
0.0
  0
INSERT
  5
2A3DD
330
265C5
100
AcDbEntity
  8
寸法
 62
     0
 48
50.0
370
    -2
100
AcDbBlockReference
  2
_DOTSMALL
 10
6041.6
 20
5197.668192742538
 30
0.0
 41
100.0
 42
100.0
 43
100.0
  0
INSERT
  5
2A3DE
330
265C5
100
AcDbEntity
  8
寸法
 62
     0
 48
50.0
370
    -2
100
AcDbBlockReference
  2
_DOTSMALL
 10
5588.6
 20
5197.668192742538
 30
0.0
 41
100.0
 42
100.0
 43
100.0
 50
180.0
  0
MTEXT
  5
2A3DF
330
265C5
100
AcDbEntity
  8
寸法
 62
     7
 48
50.0
100
AcDbMText
 10
5815.100000000001
 20
5297.668192742538
 30
0.0
 40
120.0
 41
0.0
 71
     5
 72
     1
  1
\A1;453
  7
STYLE1
 73
     1
 44
1.0
1001
ACAD
1000
MTEXTBEGIN
1070
    73
1070
     1
1070
    44
1040
1.0
1070
    74
1070
     0
1000
MTEXTEND
  0
POINT
  5
2A3E0
330
265C5
100
AcDbEntity
  8
DEFPOINTS
 62
     0
 48
50.0
100
AcDbPoint
 10
6041.6
 20
5682.513207084717
 30
0.0
  0
POINT
  5
2A3E1
330
265C5
100
AcDbEntity
  8
DEFPOINTS
 62
     0
 48
50.0
100
AcDbPoint
 10
5588.6
 20
5757.51320708473
 30
0.0
  0
POINT
  5
2A3E2
330
265C5
100
AcDbEntity
  8
DEFPOINTS
 62
     0
 48
50.0
100
AcDbPoint
 10
5588.6
 20
5197.668192742538
 30
0.0
  0
ENDBLK
  5
265CF
330
265C5
100
AcDbEntity
  8
0
 48
50.0
100
AcDbBlockEnd
  0
BLOCK
  5
265E5
330
265DA
100
AcDbEntity
  8
0
 48
50.0
100
AcDbBlockBegin
  2
*D11
 70
     1
 10
0.0
 20
0.0
 30
0.0
  3
*D11
  1

  0
LINE
  5
2A3D0
330
265DA
100
AcDbEntity
  8
寸法
 62
     0
 48
50.0
370
    -2
100
AcDbLine
 10
5568.6
 20
8817.513207084727
 30
0.0
 11
5032.657733986178
 21
8817.513207084727
 31
0.0
  0
LINE
  5
2A3D1
330
265DA
100
AcDbEntity
  8
寸法
 62
     0
 48
50.0
370
    -2
100
AcDbLine
 10
5641.6
 20
8694.51320708473
 30
0.0
 11
5032.657733986178
 21
8694.51320708473
 31
0.0
  0
LINE
  5
2A3D2
330
265DA
100
AcDbEntity
  8
寸法
 62
     0
 48
50.0
370
    -2
100
AcDbLine
 10
5092.657733986179
 20
8694.51320708473
 30
0.0
 11
5092.657733986179
 21
8817.513207084727
 31
0.0
  0
LINE
  5
2A3D3
330
265DA
100
AcDbEntity
  8
寸法
 62
     0
 48
50.0
370
    -2
100
AcDbLine
 10
5092.657733986179
 20
8817.513207084727
 30
0.0
 11
5092.657733986179
 21
9229.105090176764
 31
0.0
  0
INSERT
  5
2A3D4
330
265DA
100
AcDbEntity
  8
寸法
 62
     0
 48
50.0
370
    -2
100
AcDbBlockReference
  2
_DOTSMALL
 10
5092.657733986179
 20
8694.51320708473
 30
0.0
 41
100.0
 42
100.0
 43
100.0
 50
270.0
  0
INSERT
  5
2A3D5
330
265DA
100
AcDbEntity
  8
寸法
 62
     0
 48
50.0
370
    -2
100
AcDbBlockReference
  2
_DOTSMALL
 10
5092.657733986179
 20
8817.513207084727
 30
0.0
 41
100.0
 42
100.0
 43
100.0
 50
90.0
  0
MTEXT
  5
2A3D6
330
265DA
100
AcDbEntity
  8
寸法
 62
     7
 48
50.0
100
AcDbMText
 10
4992.645922962556
 20
9090.619808802529
 30
0.0
 40
120.0
 41
0.0
 71
     5
 72
     1
  1
\A1;123
  7
STYLE1
 11
0.0000000000000001
 21
1.0
 31
0.0
 73
     1
 44
1.0
1001
ACAD
1000
MTEXTBEGIN
1070
    73
1070
     1
1070
    44
1040
1.0
1070
    74
1070
     0
1000
MTEXTEND
  0
POINT
  5
2A3D7
330
265DA
100
AcDbEntity
  8
DEFPOINTS
 62
     0
 48
50.0
100
AcDbPoint
 10
5588.6
 20
8817.513207084727
 30
0.0
  0
POINT
  5
2A3D8
330
265DA
100
AcDbEntity
  8
DEFPOINTS
 62
     0
 48
50.0
100
AcDbPoint
 10
5661.6
 20
8694.51320708473
 30
0.0
  0
POINT
  5
2A3D9
330
265DA
100
AcDbEntity
  8
DEFPOINTS
 62
     0
 48
50.0
100
AcDbPoint
 10
5092.657733986179
 20
8694.51320708473
 30
0.0
  0
ENDBLK
  5
265E6
330
265DA
100
AcDbEntity
  8
0
 48
50.0
100
AcDbBlockEnd
  0
BLOCK
  5
265FE
330
265F4
100
AcDbEntity
  8
0
 48
50.0
100
AcDbBlockBegin
  2
*D12
 70
     1
 10
0.0
 20
0.0
 30
0.0
  3
*D12
  1

  0
LINE
  5
2A3C7
330
265F4
100
AcDbEntity
  8
寸法
 62
     0
 48
50.0
370
    -2
100
AcDbLine
 10
7323.6
 20
8207.513207084724
 30
0.0
 11
7323.6
 21
9404.422972733055
 31
0.0
  0
LINE
  5
2A3C8
330
265F4
100
AcDbEntity
  8
寸法
 62
     0
 48
50.0
370
    -2
100
AcDbLine
 10
6493.6
 20
8207.513207084724
 30
0.0
 11
6493.6
 21
9404.422972733055
 31
0.0
  0
LINE
  5
2A3C9
330
265F4
100
AcDbEntity
  8
寸法
 62
     0
 48
50.0
370
    -2
100
AcDbLine
 10
7323.6
 20
9344.422972733054
 30
0.0
 11
6493.6
 21
9344.422972733054
 31
0.0
  0
INSERT
  5
2A3CA
330
265F4
100
AcDbEntity
  8
寸法
 62
     0
 48
50.0
370
    -2
100
AcDbBlockReference
  2
_DOTSMALL
 10
7323.6
 20
9344.422972733054
 30
0.0
 41
100.0
 42
100.0
 43
100.0
  0
INSERT
  5
2A3CB
330
265F4
100
AcDbEntity
  8
寸法
 62
     0
 48
50.0
370
    -2
100
AcDbBlockReference
  2
_DOTSMALL
 10
6493.6
 20
9344.422972733054
 30
0.0
 41
100.0
 42
100.0
 43
100.0
 50
180.0
  0
MTEXT
  5
2A3CC
330
265F4
100
AcDbEntity
  8
寸法
 62
     7
 48
50.0
100
AcDbMText
 10
6908.599999999999
 20
9444.422972733056
 30
0.0
 40
120.0
 41
0.0
 71
     5
 72
     1
  1
\A1;830
  7
STYLE1
 73
     1
 44
1.0
1001
ACAD
1000
MTEXTBEGIN
1070
    73
1070
     1
1070
    44
1040
1.0
1070
    74
1070
     0
1000
MTEXTEND
  0
POINT
  5
2A3CD
330
265F4
100
AcDbEntity
  8
DEFPOINTS
 62
     0
 48
50.0
100
AcDbPoint
 10
7323.6
 20
8187.513207084725
 30
0.0
  0
POINT
  5
2A3CE
330
265F4
100
AcDbEntity
  8
DEFPOINTS
 62
     0
 48
50.0
100
AcDbPoint
 10
6493.6
 20
8187.513207084725
 30
0.0
  0
POINT
  5
2A3CF
330
265F4
100
AcDbEntity
  8
DEFPOINTS
 62
     0
 48
50.0
100
AcDbPoint
 10
6493.6
 20
9344.422972733054
 30
0.0
  0
ENDBLK
  5
265FF
330
265F4
100
AcDbEntity
  8
0
 48
50.0
100
AcDbBlockEnd
  0
BLOCK
  5
2660A
330
26600
100
AcDbEntity
  8
0
 48
50.0
100
AcDbBlockBegin
  2
*D13
 70
     1
 10
0.0
 20
0.0
 30
0.0
  3
*D13
  1

  0
LINE
  5
2A3BE
330
26600
100
AcDbEntity
  8
寸法
 62
     0
 48
50.0
370
    -2
100
AcDbLine
 10
8105.6
 20
8764.513207084728
 30
0.0
 11
8105.6
 21
9623.272833626813
 31
0.0
  0
LINE
  5
2A3BF
330
26600
100
AcDbEntity
  8
寸法
 62
     0
 48
50.0
370
    -2
100
AcDbLine
 10
5711.6
 20
8764.513207084728
 30
0.0
 11
5711.6
 21
9623.272833626813
 31
0.0
  0
LINE
  5
2A3C0
330
26600
100
AcDbEntity
  8
寸法
 62
     0
 48
50.0
370
    -2
100
AcDbLine
 10
8105.6
 20
9563.272833626811
 30
0.0
 11
5711.6
 21
9563.272833626811
 31
0.0
  0
INSERT
  5
2A3C1
330
26600
100
AcDbEntity
  8
寸法
 62
     0
 48
50.0
370
    -2
100
AcDbBlockReference
  2
_DOTSMALL
 10
8105.6
 20
9563.272833626811
 30
0.0
 41
100.0
 42
100.0
 43
100.0
  0
INSERT
  5
2A3C2
330
26600
100
AcDbEntity
  8
寸法
 62
     0
 48
50.0
370
    -2
100
AcDbBlockReference
  2
_DOTSMALL
 10
5711.6
 20
9563.272833626811
 30
0.0
 41
100.0
 42
100.0
 43
100.0
 50
180.0
  0
MTEXT
  5
2A3C3
330
26600
100
AcDbEntity
  8
寸法
 62
     7
 48
50.0
100
AcDbMText
 10
6908.599999999999
 20
9663.284644650435
 30
0.0
 40
120.0
 41
0.0
 71
     5
 72
     1
  1
\A1;2394
  7
STYLE1
 73
     1
 44
1.0
1001
ACAD
1000
MTEXTBEGIN
1070
    73
1070
     1
1070
    44
1040
1.0
1070
    74
1070
     0
1000
MTEXTEND
  0
POINT
  5
2A3C4
330
26600
100
AcDbEntity
  8
DEFPOINTS
 62
     0
 48
50.0
100
AcDbPoint
 10
8105.6
 20
8744.513207084729
 30
0.0
  0
POINT
  5
2A3C5
330
26600
100
AcDbEntity
  8
DEFPOINTS
 62
     0
 48
50.0
100
AcDbPoint
 10
5711.6
 20
8744.513207084729
 30
0.0
  0
POINT
  5
2A3C6
330
26600
100
AcDbEntity
  8
DEFPOINTS
 62
     0
 48
50.0
100
AcDbPoint
 10
5711.6
 20
9563.272833626811
 30
0.0
  0
ENDBLK
  5
2660B
330
26600
100
AcDbEntity
  8
0
 48
50.0
100
AcDbBlockEnd
  0
BLOCK
  5
26617
330
2660C
100
AcDbEntity
  8
0
 48
50.0
100
AcDbBlockBegin
  2
*D14
 70
     1
 10
0.0
 20
0.0
 30
0.0
  3
*D14
  1

  0
LINE
  5
2A3B4
330
2660C
100
AcDbEntity
  8
寸法
 62
     0
 48
50.0
370
    -2
100
AcDbLine
 10
5838.6
 20
8697.513207084726
 30
0.0
 11
6095.307249876099
 21
8697.513207084726
 31
0.0
  0
LINE
  5
2A3B5
330
2660C
100
AcDbEntity
  8
寸法
 62
     0
 48
50.0
370
    -2
100
AcDbLine
 10
5838.600000000003
 20
8817.513207084727
 30
0.0
 11
6095.307249876099
 21
8817.513207084727
 31
0.0
  0
LINE
  5
2A3B6
330
2660C
100
AcDbEntity
  8
寸法
 62
     0
 48
50.0
370
    -2
100
AcDbLine
 10
6035.307249876098
 20
8697.513207084726
 30
0.0
 11
6035.307249876098
 21
8817.513207084727
 31
0.0
  0
LINE
  5
2A3B7
330
2660C
100
AcDbEntity
  8
寸法
 62
     0
 48
50.0
370
    -2
100
AcDbLine
 10
6035.307249876098
 20
8817.513207084727
 30
0.0
 11
6035.307249876098
 21
9231.643994452101
 31
0.0
  0
INSERT
  5
2A3B8
330
2660C
100
AcDbEntity
  8
寸法
 62
     0
 48
50.0
370
    -2
100
AcDbBlockReference
  2
_DOTSMALL
 10
6035.307249876098
 20
8697.513207084726
 30
0.0
 41
100.0
 42
100.0
 43
100.0
 50
270.0
  0
INSERT
  5
2A3B9
330
2660C
100
AcDbEntity
  8
寸法
 62
     0
 48
50.0
370
    -2
100
AcDbBlockReference
  2
_DOTSMALL
 10
6035.307249876098
 20
8817.513207084727
 30
0.0
 41
100.0
 42
100.0
 43
100.0
 50
90.0
  0
MTEXT
  5
2A3BA
330
2660C
100
AcDbEntity
  8
寸法
 62
     7
 48
50.0
100
AcDbMText
 10
5935.295438852476
 20
9095.596750357614
 30
0.0
 40
120.0
 41
0.0
 71
     5
 72
     1
  1
\A1;120
  7
STYLE1
 11
0.0000000000000001
 21
1.0
 31
0.0
 73
     1
 44
1.0
1001
ACAD
1000
MTEXTBEGIN
1070
    73
1070
     1
1070
    44
1040
1.0
1070
    74
1070
     0
1000
MTEXTEND
  0
POINT
  5
2A3BB
330
2660C
100
AcDbEntity
  8
DEFPOINTS
 62
     0
 48
50.0
100
AcDbPoint
 10
5818.6
 20
8697.513207084726
 30
0.0
  0
POINT
  5
2A3BC
330
2660C
100
AcDbEntity
  8
DEFPOINTS
 62
     0
 48
50.0
100
AcDbPoint
 10
5818.600000000002
 20
8817.513207084727
 30
0.0
  0
POINT
  5
2A3BD
330
2660C
100
AcDbEntity
  8
DEFPOINTS
 62
     0
 48
50.0
100
AcDbPoint
 10
6035.307249876098
 20
8817.513207084727
 30
0.0
  0
ENDBLK
  5
26618
330
2660C
100
AcDbEntity
  8
0
 48
50.0
100
AcDbBlockEnd
  0
BLOCK
  5
26622
330
26619
100
AcDbEntity
  8
0
 48
50.0
100
AcDbBlockBegin
  2
*D15
 70
     1
 10
0.0
 20
0.0
 30
0.0
  3
*D15
  1

  0
LINE
  5
2A3AB
330
26619
100
AcDbEntity
  8
寸法
 62
     0
 48
50.0
370
    -2
100
AcDbLine
 10
6493.6
 20
8207.513207084724
 30
0.0
 11
6493.6
 21
9404.422972733055
 31
0.0
  0
LINE
  5
2A3AC
330
26619
100
AcDbEntity
  8
寸法
 62
     0
 48
50.0
370
    -2
100
AcDbLine
 10
5588.6
 20
8837.513207084727
 30
0.0
 11
5588.6
 21
9404.422972733055
 31
0.0
  0
LINE
  5
2A3AD
330
26619
100
AcDbEntity
  8
寸法
 62
     0
 48
50.0
370
    -2
100
AcDbLine
 10
6493.6
 20
9344.422972733054
 30
0.0
 11
5588.6
 21
9344.422972733054
 31
0.0
  0
INSERT
  5
2A3AE
330
26619
100
AcDbEntity
  8
寸法
 62
     0
 48
50.0
370
    -2
100
AcDbBlockReference
  2
_DOTSMALL
 10
6493.6
 20
9344.422972733054
 30
0.0
 41
100.0
 42
100.0
 43
100.0
  0
INSERT
  5
2A3AF
330
26619
100
AcDbEntity
  8
寸法
 62
     0
 48
50.0
370
    -2
100
AcDbBlockReference
  2
_DOTSMALL
 10
5588.6
 20
9344.422972733054
 30
0.0
 41
100.0
 42
100.0
 43
100.0
 50
180.0
  0
MTEXT
  5
2A3B0
330
26619
100
AcDbEntity
  8
寸法
 62
     7
 48
50.0
100
AcDbMText
 10
6041.1
 20
9444.422972733056
 30
0.0
 40
120.0
 41
0.0
 71
     5
 72
     1
  1
\A1;905
  7
STYLE1
 73
     1
 44
1.0
1001
ACAD
1000
MTEXTBEGIN
1070
    73
1070
     1
1070
    44
1040
1.0
1070
    74
1070
     0
1000
MTEXTEND
  0
POINT
  5
2A3B1
330
26619
100
AcDbEntity
  8
DEFPOINTS
 62
     0
 48
50.0
100
AcDbPoint
 10
6493.6
 20
8187.513207084725
 30
0.0
  0
POINT
  5
2A3B2
330
26619
100
AcDbEntity
  8
DEFPOINTS
 62
     0
 48
50.0
100
AcDbPoint
 10
5588.6
 20
8817.513207084727
 30
0.0
  0
POINT
  5
2A3B3
330
26619
100
AcDbEntity
  8
DEFPOINTS
 62
     0
 48
50.0
100
AcDbPoint
 10
5588.6
 20
9344.422972733054
 30
0.0
  0
ENDBLK
  5
26623
330
26619
100
AcDbEntity
  8
0
 48
50.0
100
AcDbBlockEnd
  0
BLOCK
  5
2662F
330
26624
100
AcDbEntity
  8
0
 48
50.0
100
AcDbBlockBegin
  2
*D16
 70
     1
 10
0.0
 20
0.0
 30
0.0
  3
*D16
  1

  0
LINE
  5
2A3A1
330
26624
100
AcDbEntity
  8
寸法
 62
     0
 48
50.0
370
    -2
100
AcDbLine
 10
5838.6
 20
8697.513207084728
 30
0.0
 11
6095.307249876099
 21
8697.513207084728
 31
0.0
  0
LINE
  5
2A3A2
330
26624
100
AcDbEntity
  8
寸法
 62
     0
 48
50.0
370
    -2
100
AcDbLine
 10
5838.6
 20
8587.513207084723
 30
0.0
 11
6095.307249876099
 21
8587.513207084723
 31
0.0
  0
LINE
  5
2A3A3
330
26624
100
AcDbEntity
  8
寸法
 62
     0
 48
50.0
370
    -2
100
AcDbLine
 10
6035.307249876098
 20
8697.513207084728
 30
0.0
 11
6035.307249876098
 21
8587.513207084723
 31
0.0
  0
LINE
  5
2A3A4
330
26624
100
AcDbEntity
  8
寸法
 62
     0
 48
50.0
370
    -2
100
AcDbLine
 10
6035.307249876098
 20
8587.513207084723
 30
0.0
 11
6035.307249876098
 21
8123.406907872126
 31
0.0
  0
INSERT
  5
2A3A5
330
26624
100
AcDbEntity
  8
寸法
 62
     0
 48
50.0
370
    -2
100
AcDbBlockReference
  2
_DOTSMALL
 10
6035.307249876098
 20
8697.513207084728
 30
0.0
 41
100.0
 42
100.0
 43
100.0
 50
90.0
  0
INSERT
  5
2A3A6
330
26624
100
AcDbEntity
  8
寸法
 62
     0
 48
50.0
370
    -2
100
AcDbBlockReference
  2
_DOTSMALL
 10
6035.307249876098
 20
8587.513207084723
 30
0.0
 41
100.0
 42
100.0
 43
100.0
 50
270.0
  0
MTEXT
  5
2A3A7
330
26624
100
AcDbEntity
  8
寸法
 62
     7
 48
50.0
100
AcDbMText
 10
5935.307249876098
 20
8247.454151966614
 30
0.0
 40
120.0
 41
0.0
 71
     5
 72
     1
  1
\A1;110
  7
STYLE1
 11
0.0000000000000001
 21
1.0
 31
0.0
 73
     1
 44
1.0
1001
ACAD
1000
MTEXTBEGIN
1070
    73
1070
     1
1070
    44
1040
1.0
1070
    74
1070
     0
1000
MTEXTEND
  0
POINT
  5
2A3A8
330
26624
100
AcDbEntity
  8
DEFPOINTS
 62
     0
 48
50.0
100
AcDbPoint
 10
5818.6
 20
8697.513207084728
 30
0.0
  0
POINT
  5
2A3A9
330
26624
100
AcDbEntity
  8
DEFPOINTS
 62
     0
 48
50.0
100
AcDbPoint
 10
5818.6
 20
8587.513207084723
 30
0.0
  0
POINT
  5
2A3AA
330
26624
100
AcDbEntity
  8
DEFPOINTS
 62
     0
 48
50.0
100
AcDbPoint
 10
6035.307249876098
 20
8587.513207084723
 30
0.0
  0
ENDBLK
  5
26630
330
26624
100
AcDbEntity
  8
0
 48
50.0
100
AcDbBlockEnd
  0
BLOCK
  5
2663C
330
26631
100
AcDbEntity
  8
0
 48
50.0
100
AcDbBlockBegin
  2
*D17
 70
     1
 10
0.0
 20
0.0
 30
0.0
  3
*D17
  1

  0
LINE
  5
2A397
330
26631
100
AcDbEntity
  8
寸法
 62
     0
 48
50.0
370
    -2
100
AcDbLine
 10
5711.6
 20
8764.513207084728
 30
0.0
 11
5711.6
 21
9623.272833626813
 31
0.0
  0
LINE
  5
2A398
330
26631
100
AcDbEntity
  8
寸法
 62
     0
 48
50.0
370
    -2
100
AcDbLine
 10
5588.6
 20
8837.513207084727
 30
0.0
 11
5588.6
 21
9623.272833626813
 31
0.0
  0
LINE
  5
2A399
330
26631
100
AcDbEntity
  8
寸法
 62
     0
 48
50.0
370
    -2
100
AcDbLine
 10
5711.6
 20
9563.272833626811
 30
0.0
 11
5588.6
 21
9563.272833626811
 31
0.0
  0
LINE
  5
2A39A
330
26631
100
AcDbEntity
  8
寸法
 62
     0
 48
50.0
370
    -2
100
AcDbLine
 10
5588.6
 20
9563.272833626811
 30
0.0
 11
5177.008116907963
 21
9563.272833626811
 31
0.0
  0
INSERT
  5
2A39B
330
26631
100
AcDbEntity
  8
寸法
 62
     0
 48
50.0
370
    -2
100
AcDbBlockReference
  2
_DOTSMALL
 10
5711.6
 20
9563.272833626811
 30
0.0
 41
100.0
 42
100.0
 43
100.0
  0
INSERT
  5
2A39C
330
26631
100
AcDbEntity
  8
寸法
 62
     0
 48
50.0
370
    -2
100
AcDbBlockReference
  2
_DOTSMALL
 10
5588.6
 20
9563.272833626811
 30
0.0
 41
100.0
 42
100.0
 43
100.0
 50
180.0
  0
MTEXT
  5
2A39D
330
26631
100
AcDbEntity
  8
寸法
 62
     7
 48
50.0
100
AcDbMText
 10
5315.493398282202
 20
9663.284644650435
 30
0.0
 40
120.0
 41
0.0
 71
     5
 72
     1
  1
\A1;123
  7
STYLE1
 73
     1
 44
1.0
1001
ACAD
1000
MTEXTBEGIN
1070
    73
1070
     1
1070
    44
1040
1.0
1070
    74
1070
     0
1000
MTEXTEND
  0
POINT
  5
2A39E
330
26631
100
AcDbEntity
  8
DEFPOINTS
 62
     0
 48
50.0
100
AcDbPoint
 10
5711.6
 20
8744.513207084729
 30
0.0
  0
POINT
  5
2A39F
330
26631
100
AcDbEntity
  8
DEFPOINTS
 62
     0
 48
50.0
100
AcDbPoint
 10
5588.6
 20
8817.513207084727
 30
0.0
  0
POINT
  5
2A3A0
330
26631
100
AcDbEntity
  8
DEFPOINTS
 62
     0
 48
50.0
100
AcDbPoint
 10
5588.6
 20
9563.272833626811
 30
0.0
  0
ENDBLK
  5
2663D
330
26631
100
AcDbEntity
  8
0
 48
50.0
100
AcDbBlockEnd
  0
BLOCK
  5
26647
330
2663E
100
AcDbEntity
  8
0
 48
50.0
100
AcDbBlockBegin
  2
*D18
 70
     1
 10
0.0
 20
0.0
 30
0.0
  3
*D18
  1

  0
LINE
  5
2A38E
330
2663E
100
AcDbEntity
  8
寸法
 62
     0
 48
50.0
370
    -2
100
AcDbLine
 10
8223.600000000001
 20
8207.513207084724
 30
0.0
 11
8223.600000000001
 21
9404.422972733055
 31
0.0
  0
LINE
  5
2A38F
330
2663E
100
AcDbEntity
  8
寸法
 62
     0
 48
50.0
370
    -2
100
AcDbLine
 10
7323.6
 20
8207.513207084724
 30
0.0
 11
7323.6
 21
9404.422972733055
 31
0.0
  0
LINE
  5
2A390
330
2663E
100
AcDbEntity
  8
寸法
 62
     0
 48
50.0
370
    -2
100
AcDbLine
 10
8223.600000000001
 20
9344.422972733054
 30
0.0
 11
7323.6
 21
9344.422972733054
 31
0.0
  0
INSERT
  5
2A391
330
2663E
100
AcDbEntity
  8
寸法
 62
     0
 48
50.0
370
    -2
100
AcDbBlockReference
  2
_DOTSMALL
 10
8223.600000000001
 20
9344.422972733054
 30
0.0
 41
100.0
 42
100.0
 43
100.0
  0
INSERT
  5
2A392
330
2663E
100
AcDbEntity
  8
寸法
 62
     0
 48
50.0
370
    -2
100
AcDbBlockReference
  2
_DOTSMALL
 10
7323.6
 20
9344.422972733054
 30
0.0
 41
100.0
 42
100.0
 43
100.0
 50
180.0
  0
MTEXT
  5
2A393
330
2663E
100
AcDbEntity
  8
寸法
 62
     7
 48
50.0
100
AcDbMText
 10
7773.6
 20
9444.422972733056
 30
0.0
 40
120.0
 41
0.0
 71
     5
 72
     1
  1
\A1;900
  7
STYLE1
 73
     1
 44
1.0
1001
ACAD
1000
MTEXTBEGIN
1070
    73
1070
     1
1070
    44
1040
1.0
1070
    74
1070
     0
1000
MTEXTEND
  0
POINT
  5
2A394
330
2663E
100
AcDbEntity
  8
DEFPOINTS
 62
     0
 48
50.0
100
AcDbPoint
 10
8223.600000000001
 20
8187.513207084725
 30
0.0
  0
POINT
  5
2A395
330
2663E
100
AcDbEntity
  8
DEFPOINTS
 62
     0
 48
50.0
100
AcDbPoint
 10
7323.6
 20
8187.513207084725
 30
0.0
  0
POINT
  5
2A396
330
2663E
100
AcDbEntity
  8
DEFPOINTS
 62
     0
 48
50.0
100
AcDbPoint
 10
7323.6
 20
9344.422972733054
 30
0.0
  0
ENDBLK
  5
26648
330
2663E
100
AcDbEntity
  8
0
 48
50.0
100
AcDbBlockEnd
  0
BLOCK
  5
26653
330
26649
100
AcDbEntity
  8
0
 48
50.0
100
AcDbBlockBegin
  2
*D19
 70
     1
 10
0.0
 20
0.0
 30
0.0
  3
*D19
  1

  0
LINE
  5
2A385
330
26649
100
AcDbEntity
  8
寸法
 62
     0
 48
50.0
370
    -2
100
AcDbLine
 10
9833.600000000002
 20
7287.513207084725
 30
0.0
 11
9528.531448609053
 21
7287.513207084725
 31
0.0
  0
LINE
  5
2A386
330
26649
100
AcDbEntity
  8
寸法
 62
     0
 48
50.0
370
    -2
100
AcDbLine
 10
9833.600000000002
 20
8087.513207084723
 30
0.0
 11
9528.531448609053
 21
8087.513207084723
 31
0.0
  0
LINE
  5
2A387
330
26649
100
AcDbEntity
  8
寸法
 62
     0
 48
50.0
370
    -2
100
AcDbLine
 10
9588.531448609051
 20
7287.513207084725
 30
0.0
 11
9588.531448609051
 21
8087.513207084723
 31
0.0
  0
INSERT
  5
2A388
330
26649
100
AcDbEntity
  8
寸法
 62
     0
 48
50.0
370
    -2
100
AcDbBlockReference
  2
_DOTSMALL
 10
9588.531448609051
 20
7287.513207084725
 30
0.0
 41
100.0
 42
100.0
 43
100.0
 50
270.0
  0
INSERT
  5
2A389
330
26649
100
AcDbEntity
  8
寸法
 62
     0
 48
50.0
370
    -2
100
AcDbBlockReference
  2
_DOTSMALL
 10
9588.531448609051
 20
8087.513207084723
 30
0.0
 41
100.0
 42
100.0
 43
100.0
 50
90.0
  0
MTEXT
  5
2A38A
330
26649
100
AcDbEntity
  8
寸法
 62
     7
 48
50.0
100
AcDbMText
 10
9488.53144860905
 20
7687.513207084726
 30
0.0
 40
120.0
 41
0.0
 71
     5
 72
     1
  1
\A1;800
  7
STYLE1
 11
0.0000000000000001
 21
1.0
 31
0.0
 73
     1
 44
1.0
1001
ACAD
1000
MTEXTBEGIN
1070
    73
1070
     1
1070
    44
1040
1.0
1070
    74
1070
     0
1000
MTEXTEND
  0
POINT
  5
2A38B
330
26649
100
AcDbEntity
  8
DEFPOINTS
 62
     0
 48
50.0
100
AcDbPoint
 10
9853.6
 20
7287.513207084725
 30
0.0
  0
POINT
  5
2A38C
330
26649
100
AcDbEntity
  8
DEFPOINTS
 62
     0
 48
50.0
100
AcDbPoint
 10
9853.6
 20
8087.513207084723
 30
0.0
  0
POINT
  5
2A38D
330
26649
100
AcDbEntity
  8
DEFPOINTS
 62
     0
 48
50.0
100
AcDbPoint
 10
9588.531448609051
 20
8087.513207084723
 30
0.0
  0
ENDBLK
  5
26654
330
26649
100
AcDbEntity
  8
0
 48
50.0
100
AcDbBlockEnd
  0
BLOCK
  5
26685
330
2667B
100
AcDbEntity
  8
0
 48
50.0
100
AcDbBlockBegin
  2
*D20
 70
     1
 10
0.0
 20
0.0
 30
0.0
  3
*D20
  1

  0
LINE
  5
2A37C
330
2667B
100
AcDbEntity
  8
寸法
 62
     0
 48
50.0
370
    -2
100
AcDbLine
 10
10858.6
 20
8837.513207084727
 30
0.0
 11
10858.6
 21
9404.422972733055
 31
0.0
  0
LINE
  5
2A37D
330
2667B
100
AcDbEntity
  8
寸法
 62
     0
 48
50.0
370
    -2
100
AcDbLine
 10
9953.600000000001
 20
8207.513207084724
 30
0.0
 11
9953.600000000001
 21
9404.422972733055
 31
0.0
  0
LINE
  5
2A37E
330
2667B
100
AcDbEntity
  8
寸法
 62
     0
 48
50.0
370
    -2
100
AcDbLine
 10
10858.6
 20
9344.422972733054
 30
0.0
 11
9953.600000000001
 21
9344.422972733054
 31
0.0
  0
INSERT
  5
2A37F
330
2667B
100
AcDbEntity
  8
寸法
 62
     0
 48
50.0
370
    -2
100
AcDbBlockReference
  2
_DOTSMALL
 10
10858.6
 20
9344.422972733054
 30
0.0
 41
100.0
 42
100.0
 43
100.0
  0
INSERT
  5
2A380
330
2667B
100
AcDbEntity
  8
寸法
 62
     0
 48
50.0
370
    -2
100
AcDbBlockReference
  2
_DOTSMALL
 10
9953.600000000001
 20
9344.422972733054
 30
0.0
 41
100.0
 42
100.0
 43
100.0
 50
180.0
  0
MTEXT
  5
2A381
330
2667B
100
AcDbEntity
  8
寸法
 62
     7
 48
50.0
100
AcDbMText
 10
10406.1
 20
9444.422972733056
 30
0.0
 40
120.0
 41
0.0
 71
     5
 72
     1
  1
\A1;905
  7
STYLE1
 73
     1
 44
1.0
1001
ACAD
1000
MTEXTBEGIN
1070
    73
1070
     1
1070
    44
1040
1.0
1070
    74
1070
     0
1000
MTEXTEND
  0
POINT
  5
2A382
330
2667B
100
AcDbEntity
  8
DEFPOINTS
 62
     0
 48
50.0
100
AcDbPoint
 10
10858.6
 20
8817.513207084727
 30
0.0
  0
POINT
  5
2A383
330
2667B
100
AcDbEntity
  8
DEFPOINTS
 62
     0
 48
50.0
100
AcDbPoint
 10
9953.600000000001
 20
8187.513207084725
 30
0.0
  0
POINT
  5
2A384
330
2667B
100
AcDbEntity
  8
DEFPOINTS
 62
     0
 48
50.0
100
AcDbPoint
 10
9953.600000000001
 20
9344.422972733054
 30
0.0
  0
ENDBLK
  5
26686
330
2667B
100
AcDbEntity
  8
0
 48
50.0
100
AcDbBlockEnd
  0
BLOCK
  5
26690
330
26687
100
AcDbEntity
  8
0
 48
50.0
100
AcDbBlockBegin
  2
*D21
 70
     1
 10
0.0
 20
0.0
 30
0.0
  3
*D21
  1

  0
LINE
  5
2A373
330
26687
100
AcDbEntity
  8
寸法
 62
     0
 48
50.0
370
    -2
100
AcDbLine
 10
9833.600000000002
 20
8087.513207084723
 30
0.0
 11
9528.531448609053
 21
8087.513207084723
 31
0.0
  0
LINE
  5
2A374
330
26687
100
AcDbEntity
  8
寸法
 62
     0
 48
50.0
370
    -2
100
AcDbLine
 10
9552.099999999997
 20
8817.513207084727
 30
0.0
 11
9648.531448609052
 21
8817.513207084727
 31
0.0
  0
LINE
  5
2A375
330
26687
100
AcDbEntity
  8
寸法
 62
     0
 48
50.0
370
    -2
100
AcDbLine
 10
9588.531448609051
 20
8087.513207084723
 30
0.0
 11
9588.531448609051
 21
8817.513207084727
 31
0.0
  0
INSERT
  5
2A376
330
26687
100
AcDbEntity
  8
寸法
 62
     0
 48
50.0
370
    -2
100
AcDbBlockReference
  2
_DOTSMALL
 10
9588.531448609051
 20
8087.513207084723
 30
0.0
 41
100.0
 42
100.0
 43
100.0
 50
270.0
  0
INSERT
  5
2A377
330
26687
100
AcDbEntity
  8
寸法
 62
     0
 48
50.0
370
    -2
100
AcDbBlockReference
  2
_DOTSMALL
 10
9588.531448609051
 20
8817.513207084727
 30
0.0
 41
100.0
 42
100.0
 43
100.0
 50
90.0
  0
MTEXT
  5
2A378
330
26687
100
AcDbEntity
  8
寸法
 62
     7
 48
50.0
100
AcDbMText
 10
9488.53144860905
 20
8452.513207084725
 30
0.0
 40
120.0
 41
0.0
 71
     5
 72
     1
  1
\A1;730
  7
STYLE1
 11
0.0000000000000001
 21
1.0
 31
0.0
 73
     1
 44
1.0
1001
ACAD
1000
MTEXTBEGIN
1070
    73
1070
     1
1070
    44
1040
1.0
1070
    74
1070
     0
1000
MTEXTEND
  0
POINT
  5
2A379
330
26687
100
AcDbEntity
  8
DEFPOINTS
 62
     0
 48
50.0
100
AcDbPoint
 10
9853.6
 20
8087.513207084723
 30
0.0
  0
POINT
  5
2A37A
330
26687
100
AcDbEntity
  8
DEFPOINTS
 62
     0
 48
50.0
100
AcDbPoint
 10
9532.099999999998
 20
8817.513207084727
 30
0.0
  0
POINT
  5
2A37B
330
26687
100
AcDbEntity
  8
DEFPOINTS
 62
     0
 48
50.0
100
AcDbPoint
 10
9588.531448609051
 20
8817.513207084727
 30
0.0
  0
ENDBLK
  5
26691
330
26687
100
AcDbEntity
  8
0
 48
50.0
100
AcDbBlockEnd
  0
BLOCK
  5
2669C
330
26692
100
AcDbEntity
  8
0
 48
50.0
100
AcDbBlockBegin
  2
*D22
 70
     1
 10
0.0
 20
0.0
 30
0.0
  3
*D22
  1

  0
LINE
  5
2A36A
330
26692
100
AcDbEntity
  8
寸法
 62
     0
 48
50.0
370
    -2
100
AcDbLine
 10
9953.600000000001
 20
8207.513207084724
 30
0.0
 11
9953.600000000001
 21
9404.422972733055
 31
0.0
  0
LINE
  5
2A36B
330
26692
100
AcDbEntity
  8
寸法
 62
     0
 48
50.0
370
    -2
100
AcDbLine
 10
9123.600000000001
 20
8207.513207084724
 30
0.0
 11
9123.600000000001
 21
9404.422972733055
 31
0.0
  0
LINE
  5
2A36C
330
26692
100
AcDbEntity
  8
寸法
 62
     0
 48
50.0
370
    -2
100
AcDbLine
 10
9953.600000000001
 20
9344.422972733054
 30
0.0
 11
9123.600000000001
 21
9344.422972733054
 31
0.0
  0
INSERT
  5
2A36D
330
26692
100
AcDbEntity
  8
寸法
 62
     0
 48
50.0
370
    -2
100
AcDbBlockReference
  2
_DOTSMALL
 10
9953.600000000001
 20
9344.422972733054
 30
0.0
 41
100.0
 42
100.0
 43
100.0
  0
INSERT
  5
2A36E
330
26692
100
AcDbEntity
  8
寸法
 62
     0
 48
50.0
370
    -2
100
AcDbBlockReference
  2
_DOTSMALL
 10
9123.600000000001
 20
9344.422972733054
 30
0.0
 41
100.0
 42
100.0
 43
100.0
 50
180.0
  0
MTEXT
  5
2A36F
330
26692
100
AcDbEntity
  8
寸法
 62
     7
 48
50.0
100
AcDbMText
 10
9538.6
 20
9444.422972733056
 30
0.0
 40
120.0
 41
0.0
 71
     5
 72
     1
  1
\A1;830
  7
STYLE1
 73
     1
 44
1.0
1001
ACAD
1000
MTEXTBEGIN
1070
    73
1070
     1
1070
    44
1040
1.0
1070
    74
1070
     0
1000
MTEXTEND
  0
POINT
  5
2A370
330
26692
100
AcDbEntity
  8
DEFPOINTS
 62
     0
 48
50.0
100
AcDbPoint
 10
9953.600000000001
 20
8187.513207084725
 30
0.0
  0
POINT
  5
2A371
330
26692
100
AcDbEntity
  8
DEFPOINTS
 62
     0
 48
50.0
100
AcDbPoint
 10
9123.600000000001
 20
8187.513207084725
 30
0.0
  0
POINT
  5
2A372
330
26692
100
AcDbEntity
  8
DEFPOINTS
 62
     0
 48
50.0
100
AcDbPoint
 10
9123.600000000001
 20
9344.422972733054
 30
0.0
  0
ENDBLK
  5
2669D
330
26692
100
AcDbEntity
  8
0
 48
50.0
100
AcDbBlockEnd
  0
BLOCK
  5
266A9
330
2669E
100
AcDbEntity
  8
0
 48
50.0
100
AcDbBlockBegin
  2
*D23
 70
     1
 10
0.0
 20
0.0
 30
0.0
  3
*D23
  1

  0
LINE
  5
2A360
330
2669E
100
AcDbEntity
  8
寸法
 62
     0
 48
50.0
370
    -2
100
AcDbLine
 10
10858.6
 20
8567.513207084727
 30
0.0
 11
10858.6
 21
8253.760222016147
 31
0.0
  0
LINE
  5
2A361
330
2669E
100
AcDbEntity
  8
寸法
 62
     0
 48
50.0
370
    -2
100
AcDbLine
 10
10738.59999999998
 20
8565.763433814209
 30
0.0
 11
10738.59999999998
 21
8253.760222016147
 31
0.0
  0
LINE
  5
2A362
330
2669E
100
AcDbEntity
  8
寸法
 62
     0
 48
50.0
370
    -2
100
AcDbLine
 10
10738.59999999998
 20
8313.760222016147
 30
0.0
 11
10858.6
 21
8313.760222016147
 31
0.0
  0
LINE
  5
2A363
330
2669E
100
AcDbEntity
  8
寸法
 62
     0
 48
50.0
370
    -2
100
AcDbLine
 10
10858.6
 20
8313.760222016147
 30
0.0
 11
11264.7062992126
 21
8313.760222016147
 31
0.0
  0
INSERT
  5
2A364
330
2669E
100
AcDbEntity
  8
寸法
 62
     0
 48
50.0
370
    -2
100
AcDbBlockReference
  2
_DOTSMALL
 10
10738.59999999998
 20
8313.760222016147
 30
0.0
 41
100.0
 42
100.0
 43
100.0
 50
180.0
  0
INSERT
  5
2A365
330
2669E
100
AcDbEntity
  8
寸法
 62
     0
 48
50.0
370
    -2
100
AcDbBlockReference
  2
_DOTSMALL
 10
10858.6
 20
8313.760222016147
 30
0.0
 41
100.0
 42
100.0
 43
100.0
  0
MTEXT
  5
2A366
330
2669E
100
AcDbEntity
  8
寸法
 62
     7
 48
50.0
100
AcDbMText
 10
11128.65905511811
 20
8413.772033039769
 30
0.0
 40
120.0
 41
0.0
 71
     5
 72
     1
  1
\A1;120
  7
STYLE1
 73
     1
 44
1.0
1001
ACAD
1000
MTEXTBEGIN
1070
    73
1070
     1
1070
    44
1040
1.0
1070
    74
1070
     0
1000
MTEXTEND
  0
POINT
  5
2A367
330
2669E
100
AcDbEntity
  8
DEFPOINTS
 62
     0
 48
50.0
100
AcDbPoint
 10
10858.6
 20
8587.513207084729
 30
0.0
  0
POINT
  5
2A368
330
2669E
100
AcDbEntity
  8
DEFPOINTS
 62
     0
 48
50.0
100
AcDbPoint
 10
10738.59999999998
 20
8585.763433814211
 30
0.0
  0
POINT
  5
2A369
330
2669E
100
AcDbEntity
  8
DEFPOINTS
 62
     0
 48
50.0
100
AcDbPoint
 10
10738.59999999998
 20
8313.760222016147
 30
0.0
  0
ENDBLK
  5
266AA
330
2669E
100
AcDbEntity
  8
0
 48
50.0
100
AcDbBlockEnd
  0
BLOCK
  5
266B6
330
266AB
100
AcDbEntity
  8
0
 48
50.0
100
AcDbBlockBegin
  2
*D24
 70
     1
 10
0.0
 20
0.0
 30
0.0
  3
*D24
  1

  0
LINE
  5
2A356
330
266AB
100
AcDbEntity
  8
寸法
 62
     0
 48
50.0
370
    -2
100
AcDbLine
 10
10738.6
 20
8565.763433814209
 30
0.0
 11
10738.6
 21
8253.760222016147
 31
0.0
  0
LINE
  5
2A357
330
266AB
100
AcDbEntity
  8
寸法
 62
     0
 48
50.0
370
    -2
100
AcDbLine
 10
10628.6
 20
8567.513207084727
 30
0.0
 11
10628.6
 21
8253.760222016147
 31
0.0
  0
LINE
  5
2A358
330
266AB
100
AcDbEntity
  8
寸法
 62
     0
 48
50.0
370
    -2
100
AcDbLine
 10
10738.6
 20
8313.760222016147
 30
0.0
 11
10628.6
 21
8313.760222016147
 31
0.0
  0
LINE
  5
2A359
330
266AB
100
AcDbEntity
  8
寸法
 62
     0
 48
50.0
370
    -2
100
AcDbLine
 10
10628.6
 20
8313.760222016147
 30
0.0
 11
10268.50551181102
 21
8313.760222016147
 31
0.0
  0
INSERT
  5
2A35A
330
266AB
100
AcDbEntity
  8
寸法
 62
     0
 48
50.0
370
    -2
100
AcDbBlockReference
  2
_DOTSMALL
 10
10738.6
 20
8313.760222016147
 30
0.0
 41
100.0
 42
100.0
 43
100.0
  0
INSERT
  5
2A35B
330
266AB
100
AcDbEntity
  8
寸法
 62
     0
 48
50.0
370
    -2
100
AcDbBlockReference
  2
_DOTSMALL
 10
10628.6
 20
8313.760222016147
 30
0.0
 41
100.0
 42
100.0
 43
100.0
 50
180.0
  0
MTEXT
  5
2A35C
330
266AB
100
AcDbEntity
  8
寸法
 62
     7
 48
50.0
100
AcDbMText
 10
10392.55275590551
 20
8413.760222016149
 30
0.0
 40
120.0
 41
0.0
 71
     5
 72
     1
  1
\A1;110
  7
STYLE1
 73
     1
 44
1.0
1001
ACAD
1000
MTEXTBEGIN
1070
    73
1070
     1
1070
    44
1040
1.0
1070
    74
1070
     0
1000
MTEXTEND
  0
POINT
  5
2A35D
330
266AB
100
AcDbEntity
  8
DEFPOINTS
 62
     0
 48
50.0
100
AcDbPoint
 10
10738.6
 20
8585.763433814209
 30
0.0
  0
POINT
  5
2A35E
330
266AB
100
AcDbEntity
  8
DEFPOINTS
 62
     0
 48
50.0
100
AcDbPoint
 10
10628.6
 20
8587.513207084727
 30
0.0
  0
POINT
  5
2A35F
330
266AB
100
AcDbEntity
  8
DEFPOINTS
 62
     0
 48
50.0
100
AcDbPoint
 10
10628.6
 20
8313.760222016147
 30
0.0
  0
ENDBLK
  5
266B7
330
266AB
100
AcDbEntity
  8
0
 48
50.0
100
AcDbBlockEnd
  0
BLOCK
  5
266C3
330
266B8
100
AcDbEntity
  8
0
 48
50.0
100
AcDbBlockBegin
  2
*D25
 70
     1
 10
0.0
 20
0.0
 30
0.0
  3
*D25
  1

  0
LINE
  5
2A34C
330
266B8
100
AcDbEntity
  8
寸法
 62
     0
 48
50.0
370
    -2
100
AcDbLine
 10
10858.6
 20
8837.513207084727
 30
0.0
 11
10858.6
 21
9623.272833626813
 31
0.0
  0
LINE
  5
2A34D
330
266B8
100
AcDbEntity
  8
寸法
 62
     0
 48
50.0
370
    -2
100
AcDbLine
 10
10735.6
 20
8764.513207084728
 30
0.0
 11
10735.6
 21
9623.272833626813
 31
0.0
  0
LINE
  5
2A34E
330
266B8
100
AcDbEntity
  8
寸法
 62
     0
 48
50.0
370
    -2
100
AcDbLine
 10
10735.6
 20
9563.272833626811
 30
0.0
 11
10858.6
 21
9563.272833626811
 31
0.0
  0
LINE
  5
2A34F
330
266B8
100
AcDbEntity
  8
寸法
 62
     0
 48
50.0
370
    -2
100
AcDbLine
 10
10858.6
 20
9563.272833626811
 30
0.0
 11
11270.19188309204
 21
9563.272833626811
 31
0.0
  0
INSERT
  5
2A350
330
266B8
100
AcDbEntity
  8
寸法
 62
     0
 48
50.0
370
    -2
100
AcDbBlockReference
  2
_DOTSMALL
 10
10735.6
 20
9563.272833626811
 30
0.0
 41
100.0
 42
100.0
 43
100.0
 50
180.0
  0
INSERT
  5
2A351
330
266B8
100
AcDbEntity
  8
寸法
 62
     0
 48
50.0
370
    -2
100
AcDbBlockReference
  2
_DOTSMALL
 10
10858.6
 20
9563.272833626811
 30
0.0
 41
100.0
 42
100.0
 43
100.0
  0
MTEXT
  5
2A352
330
266B8
100
AcDbEntity
  8
寸法
 62
     7
 48
50.0
100
AcDbMText
 10
11131.7066017178
 20
9663.284644650435
 30
0.0
 40
120.0
 41
0.0
 71
     5
 72
     1
  1
\A1;123
  7
STYLE1
 73
     1
 44
1.0
1001
ACAD
1000
MTEXTBEGIN
1070
    73
1070
     1
1070
    44
1040
1.0
1070
    74
1070
     0
1000
MTEXTEND
  0
POINT
  5
2A353
330
266B8
100
AcDbEntity
  8
DEFPOINTS
 62
     0
 48
50.0
100
AcDbPoint
 10
10858.6
 20
8817.513207084727
 30
0.0
  0
POINT
  5
2A354
330
266B8
100
AcDbEntity
  8
DEFPOINTS
 62
     0
 48
50.0
100
AcDbPoint
 10
10735.6
 20
8744.513207084729
 30
0.0
  0
POINT
  5
2A355
330
266B8
100
AcDbEntity
  8
DEFPOINTS
 62
     0
 48
50.0
100
AcDbPoint
 10
10735.6
 20
9563.272833626811
 30
0.0
  0
ENDBLK
  5
266C4
330
266B8
100
AcDbEntity
  8
0
 48
50.0
100
AcDbBlockEnd
  0
BLOCK
  5
26F0D
330
26F01
100
AcDbEntity
  8
0
 48
50.0
100
AcDbBlockBegin
  2
*D26
 70
     1
 10
0.0
 20
0.0
 30
0.0
  3
*D26
  1

  0
LINE
  5
2A341
330
26F01
100
AcDbEntity
  8
寸法
 62
     0
 48
50.0
370
    -2
100
AcDbLine
 10
8216.600000000001
 20
5682.513207084749
 30
0.0
 11
8523.202780124334
 21
5682.513207084749
 31
0.0
  0
LINE
  5
2A342
330
26F01
100
AcDbEntity
  8
寸法
 62
     0
 48
50.0
370
    -2
100
AcDbLine
 10
8216.600000000008
 20
5757.513207084752
 30
0.0
 11
8523.202780124334
 21
5757.513207084752
 31
0.0
  0
LINE
  5
2A343
330
26F01
100
AcDbEntity
  8
寸法
 62
     0
 48
50.0
370
    -2
100
AcDbLine
 10
8463.202780124335
 20
5757.513207084752
 30
0.0
 11
8463.202780124335
 21
5857.513207084752
 31
0.0
  0
LINE
  5
2A344
330
26F01
100
AcDbEntity
  8
寸法
 62
     0
 48
50.0
370
    -2
100
AcDbLine
 10
8463.202780124335
 20
5682.513207084749
 30
0.0
 11
8463.202780124335
 21
4815.542644336272
 31
0.0
  0
LINE
  5
2A345
330
26F01
100
AcDbEntity
  8
寸法
 62
     0
 48
50.0
370
    -2
100
AcDbLine
 10
8463.202780124335
 20
5757.513207084752
 30
0.0
 11
8463.202780124335
 21
5682.513207084749
 31
0.0
  0
INSERT
  5
2A346
330
26F01
100
AcDbEntity
  8
寸法
 62
     0
 48
50.0
370
    -2
100
AcDbBlockReference
  2
_DOTSMALL
 10
8463.202780124335
 20
5757.513207084752
 30
0.0
 41
100.0
 42
100.0
 43
100.0
 50
270.0
  0
INSERT
  5
2A347
330
26F01
100
AcDbEntity
  8
寸法
 62
     0
 48
50.0
370
    -2
100
AcDbBlockReference
  2
_DOTSMALL
 10
8463.202780124335
 20
5682.513207084749
 30
0.0
 41
100.0
 42
100.0
 43
100.0
 50
90.0
  0
MTEXT
  5
2A348
330
26F01
100
AcDbEntity
  8
寸法
 62
     7
 48
50.0
100
AcDbMText
 10
8363.202780124332
 20
5149.027925710512
 30
0.0
 40
120.0
 41
0.0
 71
     5
 72
     1
  1
\A1;扉の出75
  7
STYLE1
 11
0.0000000000000001
 21
1.0
 31
0.0
 73
     1
 44
1.0
1001
ACAD
1000
MTEXTBEGIN
1070
    73
1070
     1
1070
    44
1040
1.0
1070
    74
1070
     0
1000
MTEXTEND
  0
POINT
  5
2A349
330
26F01
100
AcDbEntity
  8
DEFPOINTS
 62
     0
 48
50.0
100
AcDbPoint
 10
8196.600000000001
 20
5682.513207084749
 30
0.0
  0
POINT
  5
2A34A
330
26F01
100
AcDbEntity
  8
DEFPOINTS
 62
     0
 48
50.0
100
AcDbPoint
 10
8196.600000000008
 20
5757.513207084752
 30
0.0
  0
POINT
  5
2A34B
330
26F01
100
AcDbEntity
  8
DEFPOINTS
 62
     0
 48
50.0
100
AcDbPoint
 10
8463.202780124335
 20
5757.513207084752
 30
0.0
  0
ENDBLK
  5
26F0E
330
26F01
100
AcDbEntity
  8
0
 48
50.0
100
AcDbBlockEnd
  0
BLOCK
  5
26F27
330
26F1B
100
AcDbEntity
  8
0
 48
50.0
100
AcDbBlockBegin
  2
*D27
 70
     1
 10
0.0
 20
0.0
 30
0.0
  3
*D27
  1

  0
LINE
  5
2A336
330
26F1B
100
AcDbEntity
  8
寸法
 62
     0
 48
50.0
370
    -2
100
AcDbLine
 10
5072.657733986179
 20
8892.513207084732
 30
0.0
 11
4780.714637266788
 21
8892.513207084732
 31
0.0
  0
LINE
  5
2A337
330
26F1B
100
AcDbEntity
  8
寸法
 62
     0
 48
50.0
370
    -2
100
AcDbLine
 10
5562.149705418577
 20
8817.513207084727
 30
0.0
 11
4780.714637266788
 21
8817.513207084727
 31
0.0
  0
LINE
  5
2A338
330
26F1B
100
AcDbEntity
  8
寸法
 62
     0
 48
50.0
370
    -2
100
AcDbLine
 10
4840.714637266787
 20
8892.513207084732
 30
0.0
 11
4840.714637266787
 21
8992.513207084732
 31
0.0
  0
LINE
  5
2A339
330
26F1B
100
AcDbEntity
  8
寸法
 62
     0
 48
50.0
370
    -2
100
AcDbLine
 10
4840.714637266787
 20
8817.513207084727
 30
0.0
 11
4840.714637266787
 21
8717.513207084726
 31
0.0
  0
LINE
  5
2A33A
330
26F1B
100
AcDbEntity
  8
寸法
 62
     0
 48
50.0
370
    -2
100
AcDbLine
 10
4840.714637266787
 20
8892.513207084732
 30
0.0
 11
4840.714637266787
 21
8817.513207084727
 31
0.0
  0
INSERT
  5
2A33B
330
26F1B
100
AcDbEntity
  8
寸法
 62
     0
 48
50.0
370
    -2
100
AcDbBlockReference
  2
_DOTSMALL
 10
4840.714637266787
 20
8892.513207084732
 30
0.0
 41
100.0
 42
100.0
 43
100.0
 50
270.0
  0
INSERT
  5
2A33C
330
26F1B
100
AcDbEntity
  8
寸法
 62
     0
 48
50.0
370
    -2
100
AcDbBlockReference
  2
_DOTSMALL
 10
4840.714637266787
 20
8817.513207084727
 30
0.0
 41
100.0
 42
100.0
 43
100.0
 50
90.0
  0
MTEXT
  5
2A33D
330
26F1B
100
AcDbEntity
  8
寸法
 62
     7
 48
50.0
100
AcDbMText
 10
4740.714637266786
 20
8855.013207084732
 30
0.0
 40
120.0
 41
0.0
 71
     5
 72
     1
  1
\A1;c
  7
STYLE1
 11
0.0000000000000001
 21
1.0
 31
0.0
 73
     1
 44
1.0
1001
ACAD
1000
MTEXTBEGIN
1070
    73
1070
     1
1070
    44
1040
1.0
1070
    74
1070
     0
1000
MTEXTEND
  0
POINT
  5
2A33E
330
26F1B
100
AcDbEntity
  8
DEFPOINTS
 62
     0
 48
50.0
100
AcDbPoint
 10
5092.657733986179
 20
8892.513207084732
 30
0.0
  0
POINT
  5
2A33F
330
26F1B
100
AcDbEntity
  8
DEFPOINTS
 62
     0
 48
50.0
100
AcDbPoint
 10
5582.149705418578
 20
8817.513207084727
 30
0.0
  0
POINT
  5
2A340
330
26F1B
100
AcDbEntity
  8
DEFPOINTS
 62
     0
 48
50.0
100
AcDbPoint
 10
4840.714637266787
 20
8817.513207084727
 30
0.0
  0
ENDBLK
  5
26F28
330
26F1B
100
AcDbEntity
  8
0
 48
50.0
100
AcDbBlockEnd
  0
BLOCK
  5
26F4C
330
26F40
100
AcDbEntity
  8
0
 48
50.0
100
AcDbBlockBegin
  2
*D28
 70
     1
 10
0.0
 20
0.0
 30
0.0
  3
*D28
  1

  0
LINE
  5
2A32B
330
26F40
100
AcDbEntity
  8
寸法
 62
     0
 48
50.0
370
    -2
100
AcDbLine
 10
5568.599999999997
 20
5757.51320708473
 30
0.0
 11
4780.714637266782
 21
5757.51320708473
 31
0.0
  0
LINE
  5
2A32C
330
26F40
100
AcDbEntity
  8
寸法
 62
     0
 48
50.0
370
    -2
100
AcDbLine
 10
5072.657733986179
 20
5702.513207084749
 30
0.0
 11
4780.714637266782
 21
5702.513207084749
 31
0.0
  0
LINE
  5
2A32D
330
26F40
100
AcDbEntity
  8
寸法
 62
     0
 48
50.0
370
    -2
100
AcDbLine
 10
4840.714637266781
 20
5757.51320708473
 30
0.0
 11
4840.714637266781
 21
5857.513207084729
 31
0.0
  0
LINE
  5
2A32E
330
26F40
100
AcDbEntity
  8
寸法
 62
     0
 48
50.0
370
    -2
100
AcDbLine
 10
4840.714637266781
 20
5702.513207084749
 30
0.0
 11
4840.714637266781
 21
5602.51320708475
 31
0.0
  0
LINE
  5
2A32F
330
26F40
100
AcDbEntity
  8
寸法
 62
     0
 48
50.0
370
    -2
100
AcDbLine
 10
4840.714637266781
 20
5757.51320708473
 30
0.0
 11
4840.714637266781
 21
5702.513207084749
 31
0.0
  0
INSERT
  5
2A330
330
26F40
100
AcDbEntity
  8
寸法
 62
     0
 48
50.0
370
    -2
100
AcDbBlockReference
  2
_DOTSMALL
 10
4840.714637266781
 20
5757.51320708473
 30
0.0
 41
100.0
 42
100.0
 43
100.0
 50
270.0
  0
INSERT
  5
2A331
330
26F40
100
AcDbEntity
  8
寸法
 62
     0
 48
50.0
370
    -2
100
AcDbBlockReference
  2
_DOTSMALL
 10
4840.714637266781
 20
5702.513207084749
 30
0.0
 41
100.0
 42
100.0
 43
100.0
 50
90.0
  0
MTEXT
  5
2A332
330
26F40
100
AcDbEntity
  8
寸法
 62
     7
 48
50.0
100
AcDbMText
 10
4740.71463726678
 20
5730.01320708474
 30
0.0
 40
120.0
 41
0.0
 71
     5
 72
     1
  1
\A1;b
  7
STYLE1
 11
0.0000000000000001
 21
1.0
 31
0.0
 73
     1
 44
1.0
1001
ACAD
1000
MTEXTBEGIN
1070
    73
1070
     1
1070
    44
1040
1.0
1070
    74
1070
     0
1000
MTEXTEND
  0
POINT
  5
2A333
330
26F40
100
AcDbEntity
  8
DEFPOINTS
 62
     0
 48
50.0
100
AcDbPoint
 10
5588.599999999996
 20
5757.51320708473
 30
0.0
  0
POINT
  5
2A334
330
26F40
100
AcDbEntity
  8
DEFPOINTS
 62
     0
 48
50.0
100
AcDbPoint
 10
5092.657733986179
 20
5702.513207084749
 30
0.0
  0
POINT
  5
2A335
330
26F40
100
AcDbEntity
  8
DEFPOINTS
 62
     0
 48
50.0
100
AcDbPoint
 10
4840.714637266781
 20
5702.513207084749
 30
0.0
  0
ENDBLK
  5
26F4D
330
26F40
100
AcDbEntity
  8
0
 48
50.0
100
AcDbBlockEnd
  0
BLOCK
  5
26F71
330
26F65
100
AcDbEntity
  8
0
 48
50.0
100
AcDbBlockBegin
  2
*D29
 70
     1
 10
0.0
 20
0.0
 30
0.0
  3
*D29
  1

  0
LINE
  5
2A320
330
26F65
100
AcDbEntity
  8
寸法
 62
     0
 48
50.0
370
    -2
100
AcDbLine
 10
10858.6
 20
8837.513207084727
 30
0.0
 11
10858.6
 21
9835.73352914365
 31
0.0
  0
LINE
  5
2A321
330
26F65
100
AcDbEntity
  8
寸法
 62
     0
 48
50.0
370
    -2
100
AcDbLine
 10
10903.6
 20
9583.272833626809
 30
0.0
 11
10903.6
 21
9835.73352914365
 31
0.0
  0
LINE
  5
2A322
330
26F65
100
AcDbEntity
  8
寸法
 62
     0
 48
50.0
370
    -2
100
AcDbLine
 10
10858.6
 20
9775.73352914365
 30
0.0
 11
10758.6
 21
9775.73352914365
 31
0.0
  0
LINE
  5
2A323
330
26F65
100
AcDbEntity
  8
寸法
 62
     0
 48
50.0
370
    -2
100
AcDbLine
 10
10903.6
 20
9775.73352914365
 30
0.0
 11
11240.94924240491
 21
9775.73352914365
 31
0.0
  0
LINE
  5
2A324
330
26F65
100
AcDbEntity
  8
寸法
 62
     0
 48
50.0
370
    -2
100
AcDbLine
 10
10858.6
 20
9775.73352914365
 30
0.0
 11
10903.6
 21
9775.73352914365
 31
0.0
  0
INSERT
  5
2A325
330
26F65
100
AcDbEntity
  8
寸法
 62
     0
 48
50.0
370
    -2
100
AcDbBlockReference
  2
_DOTSMALL
 10
10858.6
 20
9775.73352914365
 30
0.0
 41
100.0
 42
100.0
 43
100.0
  0
INSERT
  5
2A326
330
26F65
100
AcDbEntity
  8
寸法
 62
     0
 48
50.0
370
    -2
100
AcDbBlockReference
  2
_DOTSMALL
 10
10903.6
 20
9775.73352914365
 30
0.0
 41
100.0
 42
100.0
 43
100.0
 50
180.0
  0
MTEXT
  5
2A327
330
26F65
100
AcDbEntity
  8
寸法
 62
     7
 48
50.0
100
AcDbMText
 10
11174.77462120246
 20
9875.733529143651
 30
0.0
 40
120.0
 41
0.0
 71
     5
 72
     1
  1
\A1;a
  7
STYLE1
 73
     1
 44
1.0
1001
ACAD
1000
MTEXTBEGIN
1070
    73
1070
     1
1070
    44
1040
1.0
1070
    74
1070
     0
1000
MTEXTEND
  0
POINT
  5
2A328
330
26F65
100
AcDbEntity
  8
DEFPOINTS
 62
     0
 48
50.0
100
AcDbPoint
 10
10858.6
 20
8817.513207084727
 30
0.0
  0
POINT
  5
2A329
330
26F65
100
AcDbEntity
  8
DEFPOINTS
 62
     0
 48
50.0
100
AcDbPoint
 10
10903.6
 20
9563.272833626809
 30
0.0
  0
POINT
  5
2A32A
330
26F65
100
AcDbEntity
  8
DEFPOINTS
 62
     0
 48
50.0
100
AcDbPoint
 10
10903.6
 20
9775.73352914365
 30
0.0
  0
ENDBLK
  5
26F72
330
26F65
100
AcDbEntity
  8
0
 48
50.0
100
AcDbBlockEnd
  0
BLOCK
  5
26F8B
330
26F7F
100
AcDbEntity
  8
0
 48
50.0
100
AcDbBlockBegin
  2
*D30
 70
     1
 10
0.0
 20
0.0
 30
0.0
  3
*D30
  1

  0
LINE
  5
2A315
330
26F7F
100
AcDbEntity
  8
寸法
 62
     0
 48
50.0
370
    -2
100
AcDbLine
 10
5543.600000000008
 20
9583.272833626809
 30
0.0
 11
5543.600000000008
 21
9835.73352914365
 31
0.0
  0
LINE
  5
2A316
330
26F7F
100
AcDbEntity
  8
寸法
 62
     0
 48
50.0
370
    -2
100
AcDbLine
 10
5588.6
 20
8837.513207084727
 30
0.0
 11
5588.6
 21
9835.73352914365
 31
0.0
  0
LINE
  5
2A317
330
26F7F
100
AcDbEntity
  8
寸法
 62
     0
 48
50.0
370
    -2
100
AcDbLine
 10
5588.6
 20
9775.73352914365
 30
0.0
 11
5688.6
 21
9775.73352914365
 31
0.0
  0
LINE
  5
2A318
330
26F7F
100
AcDbEntity
  8
寸法
 62
     0
 48
50.0
370
    -2
100
AcDbLine
 10
5543.600000000008
 20
9775.73352914365
 30
0.0
 11
5206.250757595083
 21
9775.73352914365
 31
0.0
  0
LINE
  5
2A319
330
26F7F
100
AcDbEntity
  8
寸法
 62
     0
 48
50.0
370
    -2
100
AcDbLine
 10
5588.6
 20
9775.73352914365
 30
0.0
 11
5543.600000000008
 21
9775.73352914365
 31
0.0
  0
INSERT
  5
2A31A
330
26F7F
100
AcDbEntity
  8
寸法
 62
     0
 48
50.0
370
    -2
100
AcDbBlockReference
  2
_DOTSMALL
 10
5588.6
 20
9775.73352914365
 30
0.0
 41
100.0
 42
100.0
 43
100.0
 50
180.0
  0
INSERT
  5
2A31B
330
26F7F
100
AcDbEntity
  8
寸法
 62
     0
 48
50.0
370
    -2
100
AcDbBlockReference
  2
_DOTSMALL
 10
5543.600000000008
 20
9775.73352914365
 30
0.0
 41
100.0
 42
100.0
 43
100.0
  0
MTEXT
  5
2A31C
330
26F7F
100
AcDbEntity
  8
寸法
 62
     7
 48
50.0
100
AcDbMText
 10
5272.425378797541
 20
9875.733529143651
 30
0.0
 40
120.0
 41
0.0
 71
     5
 72
     1
  1
\A1;a
  7
STYLE1
 73
     1
 44
1.0
1001
ACAD
1000
MTEXTBEGIN
1070
    73
1070
     1
1070
    44
1040
1.0
1070
    74
1070
     0
1000
MTEXTEND
  0
POINT
  5
2A31D
330
26F7F
100
AcDbEntity
  8
DEFPOINTS
 62
     0
 48
50.0
100
AcDbPoint
 10
5543.600000000008
 20
9563.272833626809
 30
0.0
  0
POINT
  5
2A31E
330
26F7F
100
AcDbEntity
  8
DEFPOINTS
 62
     0
 48
50.0
100
AcDbPoint
 10
5588.6
 20
8817.513207084727
 30
0.0
  0
POINT
  5
2A31F
330
26F7F
100
AcDbEntity
  8
DEFPOINTS
 62
     0
 48
50.0
100
AcDbPoint
 10
5588.6
 20
9775.73352914365
 30
0.0
  0
ENDBLK
  5
26F8C
330
26F7F
100
AcDbEntity
  8
0
 48
50.0
100
AcDbBlockEnd
  0
BLOCK
  5
2702B
330
2701F
100
AcDbEntity
  8
0
 48
50.0
100
AcDbBlockBegin
  2
*D31
 70
     1
 10
0.0
 20
0.0
 30
0.0
  3
*D31
  1

  0
LINE
  5
2A30B
330
2701F
100
AcDbEntity
  8
寸法
 62
     0
 48
50.0
370
    -2
100
AcDbLine
 10
6061.600000000001
 20
5682.513207084717
 30
0.0
 11
6369.183206304239
 21
5682.513207084716
 31
0.0
  0
LINE
  5
2A30C
330
2701F
100
AcDbEntity
  8
寸法
 62
     0
 48
50.0
370
    -2
100
AcDbLine
 10
6061.599999999998
 20
5877.513207084732
 30
0.0
 11
6369.183206304239
 21
5877.513207084731
 31
0.0
  0
LINE
  5
2A30D
330
2701F
100
AcDbEntity
  8
寸法
 62
     0
 48
50.0
370
    -2
100
AcDbLine
 10
6309.18320630424
 20
5877.513207084731
 30
0.0
 11
6309.18320630424
 21
5682.513207084716
 31
0.0
  0
LINE
  5
2A30E
330
2701F
100
AcDbEntity
  8
寸法
 62
     0
 48
50.0
370
    -2
100
AcDbLine
 10
6309.18320630424
 20
5682.513207084716
 30
0.0
 11
6309.18320630424
 21
5305.123324676925
 31
0.0
  0
INSERT
  5
2A30F
330
2701F
100
AcDbEntity
  8
寸法
 62
     0
 48
50.0
370
    -2
100
AcDbBlockReference
  2
_DOTSMALL
 10
6309.18320630424
 20
5877.513207084731
 30
0.0
 41
100.0
 42
100.0
 43
100.0
 50
90.0
  0
INSERT
  5
2A310
330
2701F
100
AcDbEntity
  8
寸法
 62
     0
 48
50.0
370
    -2
100
AcDbBlockReference
  2
_DOTSMALL
 10
6309.18320630424
 20
5682.513207084716
 30
0.0
 41
100.0
 42
100.0
 43
100.0
 50
270.0
  0
MTEXT
  5
2A311
330
2701F
100
AcDbEntity
  8
寸法
 62
     7
 48
50.0
100
AcDbMText
 10
6209.183206304238
 20
5443.818265880823
 30
0.0
 40
120.0
 41
0.0
 71
     5
 72
     1
  1
\A1;195
  7
STYLE1
 11
0.0000000000000001
 21
1.0
 31
0.0
 73
     1
 44
1.0
1001
ACAD
1000
MTEXTBEGIN
1070
    73
1070
     1
1070
    44
1040
1.0
1070
    74
1070
     0
1000
MTEXTEND
  0
POINT
  5
2A312
330
2701F
100
AcDbEntity
  8
DEFPOINTS
 62
     0
 48
50.0
100
AcDbPoint
 10
6041.6
 20
5682.513207084717
 30
0.0
  0
POINT
  5
2A313
330
2701F
100
AcDbEntity
  8
DEFPOINTS
 62
     0
 48
50.0
100
AcDbPoint
 10
6041.599999999998
 20
5877.513207084732
 30
0.0
  0
POINT
  5
2A314
330
2701F
100
AcDbEntity
  8
DEFPOINTS
 62
     0
 48
50.0
100
AcDbPoint
 10
6309.18320630424
 20
5877.513207084731
 30
0.0
  0
ENDBLK
  5
2702C
330
2701F
100
AcDbEntity
  8
0
 48
50.0
100
AcDbBlockEnd
  0
BLOCK
  5
27D8D
330
27D83
100
AcDbEntity
  8
0
 48
50.0
100
AcDbBlockBegin
  2
*D32
 70
     1
 10
0.0
 20
0.0
 30
0.0
  3
*D32
  1

  0
LINE
  5
2A302
330
27D83
100
AcDbEntity
  8
寸法
 62
     0
 48
50.0
370
    -2
100
AcDbLine
 10
9833.600000000002
 20
5757.513207084727
 30
0.0
 11
9528.531448609053
 21
5757.513207084727
 31
0.0
  0
LINE
  5
2A303
330
27D83
100
AcDbEntity
  8
寸法
 62
     0
 48
50.0
370
    -2
100
AcDbLine
 10
9833.600000000002
 20
6487.513207084724
 30
0.0
 11
9528.531448609053
 21
6487.513207084724
 31
0.0
  0
LINE
  5
2A304
330
27D83
100
AcDbEntity
  8
寸法
 62
     0
 48
50.0
370
    -2
100
AcDbLine
 10
9588.531448609051
 20
5757.513207084727
 30
0.0
 11
9588.531448609051
 21
6487.513207084724
 31
0.0
  0
INSERT
  5
2A305
330
27D83
100
AcDbEntity
  8
寸法
 62
     0
 48
50.0
370
    -2
100
AcDbBlockReference
  2
_DOTSMALL
 10
9588.531448609051
 20
5757.513207084727
 30
0.0
 41
100.0
 42
100.0
 43
100.0
 50
270.0
  0
INSERT
  5
2A306
330
27D83
100
AcDbEntity
  8
寸法
 62
     0
 48
50.0
370
    -2
100
AcDbBlockReference
  2
_DOTSMALL
 10
9588.531448609051
 20
6487.513207084724
 30
0.0
 41
100.0
 42
100.0
 43
100.0
 50
90.0
  0
MTEXT
  5
2A307
330
27D83
100
AcDbEntity
  8
寸法
 62
     7
 48
50.0
100
AcDbMText
 10
9488.53144860905
 20
6122.513207084725
 30
0.0
 40
120.0
 41
0.0
 71
     5
 72
     1
  1
\A1;730
  7
STYLE1
 11
0.0000000000000001
 21
1.0
 31
0.0
 73
     1
 44
1.0
1001
ACAD
1000
MTEXTBEGIN
1070
    73
1070
     1
1070
    44
1040
1.0
1070
    74
1070
     0
1000
MTEXTEND
  0
POINT
  5
2A308
330
27D83
100
AcDbEntity
  8
DEFPOINTS
 62
     0
 48
50.0
100
AcDbPoint
 10
9853.6
 20
5757.513207084727
 30
0.0
  0
POINT
  5
2A309
330
27D83
100
AcDbEntity
  8
DEFPOINTS
 62
     0
 48
50.0
100
AcDbPoint
 10
9853.6
 20
6487.513207084724
 30
0.0
  0
POINT
  5
2A30A
330
27D83
100
AcDbEntity
  8
DEFPOINTS
 62
     0
 48
50.0
100
AcDbPoint
 10
9588.531448609051
 20
6487.513207084724
 30
0.0
  0
ENDBLK
  5
27D8E
330
27D83
100
AcDbEntity
  8
0
 48
50.0
100
AcDbBlockEnd
  0
BLOCK
  5
2986D
330
29863
100
AcDbEntity
  8
0
 48
50.0
100
AcDbBlockBegin
  2
*D33
 70
     1
 10
0.0
 20
0.0
 30
0.0
  3
*D33
  1

  0
LINE
  5
2A2F9
330
29863
100
AcDbEntity
  8
寸法
 62
     0
 48
50.0
370
    -2
100
AcDbLine
 10
9833.600000000002
 20
6487.513207084724
 30
0.0
 11
9528.531448609053
 21
6487.513207084724
 31
0.0
  0
LINE
  5
2A2FA
330
29863
100
AcDbEntity
  8
寸法
 62
     0
 48
50.0
370
    -2
100
AcDbLine
 10
9833.600000000002
 20
7287.513207084725
 30
0.0
 11
9528.531448609053
 21
7287.513207084725
 31
0.0
  0
LINE
  5
2A2FB
330
29863
100
AcDbEntity
  8
寸法
 62
     0
 48
50.0
370
    -2
100
AcDbLine
 10
9588.531448609051
 20
6487.513207084724
 30
0.0
 11
9588.531448609051
 21
7287.513207084725
 31
0.0
  0
INSERT
  5
2A2FC
330
29863
100
AcDbEntity
  8
寸法
 62
     0
 48
50.0
370
    -2
100
AcDbBlockReference
  2
_DOTSMALL
 10
9588.531448609051
 20
6487.513207084724
 30
0.0
 41
100.0
 42
100.0
 43
100.0
 50
270.0
  0
INSERT
  5
2A2FD
330
29863
100
AcDbEntity
  8
寸法
 62
     0
 48
50.0
370
    -2
100
AcDbBlockReference
  2
_DOTSMALL
 10
9588.531448609051
 20
7287.513207084725
 30
0.0
 41
100.0
 42
100.0
 43
100.0
 50
90.0
  0
MTEXT
  5
2A2FE
330
29863
100
AcDbEntity
  8
寸法
 62
     7
 48
50.0
100
AcDbMText
 10
9488.53144860905
 20
6887.513207084726
 30
0.0
 40
120.0
 41
0.0
 71
     5
 72
     1
  1
\A1;800
  7
STYLE1
 11
0.0000000000000001
 21
1.0
 31
0.0
 73
     1
 44
1.0
1001
ACAD
1000
MTEXTBEGIN
1070
    73
1070
     1
1070
    44
1040
1.0
1070
    74
1070
     0
1000
MTEXTEND
  0
POINT
  5
2A2FF
330
29863
100
AcDbEntity
  8
DEFPOINTS
 62
     0
 48
50.0
100
AcDbPoint
 10
9853.6
 20
6487.513207084724
 30
0.0
  0
POINT
  5
2A300
330
29863
100
AcDbEntity
  8
DEFPOINTS
 62
     0
 48
50.0
100
AcDbPoint
 10
9853.6
 20
7287.513207084725
 30
0.0
  0
POINT
  5
2A301
330
29863
100
AcDbEntity
  8
DEFPOINTS
 62
     0
 48
50.0
100
AcDbPoint
 10
9588.531448609051
 20
7287.513207084725
 30
0.0
  0
ENDBLK
  5
2986E
330
29863
100
AcDbEntity
  8
0
 48
50.0
100
AcDbBlockEnd
  0
BLOCK
  5
29BA8
330
29B9E
100
AcDbEntity
  8
0
 48
50.0
100
AcDbBlockBegin
  2
*D34
 70
     1
 10
0.0
 20
0.0
 30
0.0
  3
*D34
  1

  0
LINE
  5
2A2F0
330
29B9E
100
AcDbEntity
  8
寸法
 62
     0
 48
50.0
370
    -2
100
AcDbLine
 10
8196.600000000001
 20
5662.513207084749
 30
0.0
 11
8196.600000000001
 21
5137.668192742538
 31
0.0
  0
LINE
  5
2A2F1
330
29B9E
100
AcDbEntity
  8
寸法
 62
     0
 48
50.0
370
    -2
100
AcDbLine
 10
6041.6
 20
5662.513207084734
 30
0.0
 11
6041.6
 21
5137.668192742538
 31
0.0
  0
LINE
  5
2A2F2
330
29B9E
100
AcDbEntity
  8
寸法
 62
     0
 48
50.0
370
    -2
100
AcDbLine
 10
8196.600000000001
 20
5197.668192742538
 30
0.0
 11
6041.6
 21
5197.668192742538
 31
0.0
  0
INSERT
  5
2A2F3
330
29B9E
100
AcDbEntity
  8
寸法
 62
     0
 48
50.0
370
    -2
100
AcDbBlockReference
  2
_DOTSMALL
 10
8196.600000000001
 20
5197.668192742538
 30
0.0
 41
100.0
 42
100.0
 43
100.0
  0
INSERT
  5
2A2F4
330
29B9E
100
AcDbEntity
  8
寸法
 62
     0
 48
50.0
370
    -2
100
AcDbBlockReference
  2
_DOTSMALL
 10
6041.6
 20
5197.668192742538
 30
0.0
 41
100.0
 42
100.0
 43
100.0
 50
180.0
  0
MTEXT
  5
2A2F5
330
29B9E
100
AcDbEntity
  8
寸法
 62
     7
 48
50.0
100
AcDbMText
 10
7119.1
 20
5297.68000376616
 30
0.0
 40
120.0
 41
0.0
 71
     5
 72
     1
  1
\A1;扉の幅 2155
  7
STYLE1
 73
     1
 44
1.0
1001
ACAD
1000
MTEXTBEGIN
1070
    73
1070
     1
1070
    44
1040
1.0
1070
    74
1070
     0
1000
MTEXTEND
  0
POINT
  5
2A2F6
330
29B9E
100
AcDbEntity
  8
DEFPOINTS
 62
     0
 48
50.0
100
AcDbPoint
 10
8196.600000000001
 20
5682.513207084749
 30
0.0
  0
POINT
  5
2A2F7
330
29B9E
100
AcDbEntity
  8
DEFPOINTS
 62
     0
 48
50.0
100
AcDbPoint
 10
6041.6
 20
5682.513207084734
 30
0.0
  0
POINT
  5
2A2F8
330
29B9E
100
AcDbEntity
  8
DEFPOINTS
 62
     0
 48
50.0
100
AcDbPoint
 10
6041.6
 20
5197.668192742538
 30
0.0
  0
ENDBLK
  5
29BA9
330
29B9E
100
AcDbEntity
  8
0
 48
50.0
100
AcDbBlockEnd
  0
BLOCK
  5
2A161
330
2A155
100
AcDbEntity
  8
0
 48
50.0
100
AcDbBlockBegin
  2
*D35
 70
     1
 10
0.0
 20
0.0
 30
0.0
  3
*D35
  1

  0
LINE
  5
2A2E5
330
2A155
100
AcDbEntity
  8
寸法
 62
     0
 48
50.0
370
    -2
100
AcDbLine
 10
7112.107650530555
 20
2096.266213575509
 30
0.0
 11
8358.51173289039
 21
2096.266213575509
 31
0.0
  0
LINE
  5
2A2E6
330
2A155
100
AcDbEntity
  8
寸法
 62
     0
 48
50.0
370
    -2
100
AcDbLine
 10
7346.107650530552
 20
2030.316213575509
 30
0.0
 11
8358.51173289039
 21
2030.316213575509
 31
0.0
  0
LINE
  5
2A2E7
330
2A155
100
AcDbEntity
  8
寸法
 62
     0
 48
50.0
370
    -2
100
AcDbLine
 10
8298.511732890391
 20
2096.266213575509
 30
0.0
 11
8298.511732890391
 21
2196.266213575508
 31
0.0
  0
LINE
  5
2A2E8
330
2A155
100
AcDbEntity
  8
寸法
 62
     0
 48
50.0
370
    -2
100
AcDbLine
 10
8298.511732890391
 20
2030.316213575509
 30
0.0
 11
8298.511732890391
 21
1298.298406732543
 31
0.0
  0
LINE
  5
2A2E9
330
2A155
100
AcDbEntity
  8
寸法
 62
     0
 48
50.0
370
    -2
100
AcDbLine
 10
8298.511732890391
 20
2096.266213575509
 30
0.0
 11
8298.511732890391
 21
2030.316213575509
 31
0.0
  0
INSERT
  5
2A2EA
330
2A155
100
AcDbEntity
  8
寸法
 62
     0
 48
50.0
370
    -2
100
AcDbBlockReference
  2
_DOTSMALL
 10
8298.511732890391
 20
2096.266213575509
 30
0.0
 41
100.0
 42
100.0
 43
100.0
 50
270.0
  0
INSERT
  5
2A2EB
330
2A155
100
AcDbEntity
  8
寸法
 62
     0
 48
50.0
370
    -2
100
AcDbBlockReference
  2
_DOTSMALL
 10
8298.511732890391
 20
2030.316213575509
 30
0.0
 41
100.0
 42
100.0
 43
100.0
 50
90.0
  0
MTEXT
  5
2A2EC
330
2A155
100
AcDbEntity
  8
寸法
 62
     7
 48
50.0
100
AcDbMText
 10
8198.499921866769
 20
1564.307310154027
 30
0.0
 40
120.0
 41
0.0
 71
     5
 72
     1
  1
\A1;20～25
  7
STYLE1
 11
0.0000000000000001
 21
1.0
 31
0.0
 73
     1
 44
1.0
1001
ACAD
1000
MTEXTBEGIN
1070
    73
1070
     1
1070
    44
1040
1.0
1070
    74
1070
     0
1000
MTEXTEND
  0
POINT
  5
2A2ED
330
2A155
100
AcDbEntity
  8
DEFPOINTS
 62
     0
 48
50.0
100
AcDbPoint
 10
7092.107650530555
 20
2096.266213575509
 30
0.0
  0
POINT
  5
2A2EE
330
2A155
100
AcDbEntity
  8
DEFPOINTS
 62
     0
 48
50.0
100
AcDbPoint
 10
7326.107650530552
 20
2030.316213575509
 30
0.0
  0
POINT
  5
2A2EF
330
2A155
100
AcDbEntity
  8
DEFPOINTS
 62
     0
 48
50.0
100
AcDbPoint
 10
8298.511732890391
 20
2030.316213575509
 30
0.0
  0
ENDBLK
  5
2A162
330
2A155
100
AcDbEntity
  8
0
 48
50.0
100
AcDbBlockEnd
  0
BLOCK
  5
2A16C
330
2A163
100
AcDbEntity
  8
0
 48
50.0
100
AcDbBlockBegin
  2
*D36
 70
     1
 10
0.0
 20
0.0
 30
0.0
  3
*D36
  1

  0
LINE
  5
2A2DC
330
2A163
100
AcDbEntity
  8
寸法
 62
     0
 48
50.0
370
    -2
100
AcDbLine
 10
7346.107650530552
 20
2030.316213575509
 30
0.0
 11
8013.443400241611
 21
2030.316213575509
 31
0.0
  0
LINE
  5
2A2DD
330
2A163
100
AcDbEntity
  8
寸法
 62
     0
 48
50.0
370
    -2
100
AcDbLine
 10
7346.107650530552
 20
1625.316213575507
 30
0.0
 11
8013.443400241611
 21
1625.316213575507
 31
0.0
  0
LINE
  5
2A2DE
330
2A163
100
AcDbEntity
  8
寸法
 62
     0
 48
50.0
370
    -2
100
AcDbLine
 10
7953.443400241609
 20
2030.316213575509
 30
0.0
 11
7953.443400241609
 21
1625.316213575507
 31
0.0
  0
INSERT
  5
2A2DF
330
2A163
100
AcDbEntity
  8
寸法
 62
     0
 48
50.0
370
    -2
100
AcDbBlockReference
  2
_DOTSMALL
 10
7953.443400241609
 20
2030.316213575509
 30
0.0
 41
100.0
 42
100.0
 43
100.0
 50
90.0
  0
INSERT
  5
2A2E0
330
2A163
100
AcDbEntity
  8
寸法
 62
     0
 48
50.0
370
    -2
100
AcDbBlockReference
  2
_DOTSMALL
 10
7953.443400241609
 20
1625.316213575507
 30
0.0
 41
100.0
 42
100.0
 43
100.0
 50
270.0
  0
MTEXT
  5
2A2E1
330
2A163
100
AcDbEntity
  8
寸法
 62
     7
 48
50.0
100
AcDbMText
 10
7853.443400241609
 20
1827.816213575509
 30
0.0
 40
120.0
 41
0.0
 71
     5
 72
     1
  1
\A1;180
  7
STYLE1
 11
0.0000000000000001
 21
1.0
 31
0.0
 73
     1
 44
1.0
1001
ACAD
1000
MTEXTBEGIN
1070
    73
1070
     1
1070
    44
1040
1.0
1070
    74
1070
     0
1000
MTEXTEND
  0
POINT
  5
2A2E2
330
2A163
100
AcDbEntity
  8
DEFPOINTS
 62
     0
 48
50.0
100
AcDbPoint
 10
7326.107650530552
 20
2030.316213575509
 30
0.0
  0
POINT
  5
2A2E3
330
2A163
100
AcDbEntity
  8
DEFPOINTS
 62
     0
 48
50.0
100
AcDbPoint
 10
7326.107650530552
 20
1625.316213575507
 30
0.0
  0
POINT
  5
2A2E4
330
2A163
100
AcDbEntity
  8
DEFPOINTS
 62
     0
 48
50.0
100
AcDbPoint
 10
7953.443400241609
 20
1625.316213575507
 30
0.0
  0
ENDBLK
  5
2A16D
330
2A163
100
AcDbEntity
  8
0
 48
50.0
100
AcDbBlockEnd
  0
BLOCK
  5
2A178
330
2A16E
100
AcDbEntity
  8
0
 48
50.0
100
AcDbBlockBegin
  2
*D37
 70
     1
 10
0.0
 20
0.0
 30
0.0
  3
*D37
  1

  0
LINE
  5
2A2D3
330
2A16E
100
AcDbEntity
  8
寸法
 62
     0
 48
50.0
370
    -2
100
AcDbLine
 10
4523.55850905906
 20
870.3162135755079
 30
0.0
 11
4523.55850905906
 21
531.3641071195747
 31
0.0
  0
LINE
  5
2A2D4
330
2A16E
100
AcDbEntity
  8
寸法
 62
     0
 48
50.0
370
    -2
100
AcDbLine
 10
5083.55850905906
 20
870.3162135755079
 30
0.0
 11
5083.55850905906
 21
531.3641071195747
 31
0.0
  0
LINE
  5
2A2D5
330
2A16E
100
AcDbEntity
  8
寸法
 62
     0
 48
50.0
370
    -2
100
AcDbLine
 10
4523.55850905906
 20
591.3641071195748
 30
0.0
 11
5083.55850905906
 21
591.3641071195748
 31
0.0
  0
INSERT
  5
2A2D6
330
2A16E
100
AcDbEntity
  8
寸法
 62
     0
 48
50.0
370
    -2
100
AcDbBlockReference
  2
_DOTSMALL
 10
4523.55850905906
 20
591.3641071195748
 30
0.0
 41
100.0
 42
100.0
 43
100.0
 50
180.0
  0
INSERT
  5
2A2D7
330
2A16E
100
AcDbEntity
  8
寸法
 62
     0
 48
50.0
370
    -2
100
AcDbBlockReference
  2
_DOTSMALL
 10
5083.55850905906
 20
591.3641071195748
 30
0.0
 41
100.0
 42
100.0
 43
100.0
  0
MTEXT
  5
2A2D8
330
2A16E
100
AcDbEntity
  8
寸法
 62
     7
 48
50.0
100
AcDbMText
 10
4803.558509059058
 20
691.3641071195748
 30
0.0
 40
120.0
 41
0.0
 71
     5
 72
     1
  1
\A1;300
  7
STYLE1
 73
     1
 44
1.0
1001
ACAD
1000
MTEXTBEGIN
1070
    73
1070
     1
1070
    44
1040
1.0
1070
    74
1070
     0
1000
MTEXTEND
  0
POINT
  5
2A2D9
330
2A16E
100
AcDbEntity
  8
DEFPOINTS
 62
     0
 48
50.0
100
AcDbPoint
 10
4523.55850905906
 20
890.3162135755078
 30
0.0
  0
POINT
  5
2A2DA
330
2A16E
100
AcDbEntity
  8
DEFPOINTS
 62
     0
 48
50.0
100
AcDbPoint
 10
5083.55850905906
 20
890.3162135755078
 30
0.0
  0
POINT
  5
2A2DB
330
2A16E
100
AcDbEntity
  8
DEFPOINTS
 62
     0
 48
50.0
100
AcDbPoint
 10
5083.55850905906
 20
591.3641071195748
 30
0.0
  0
ENDBLK
  5
2A179
330
2A16E
100
AcDbEntity
  8
0
 48
50.0
100
AcDbBlockEnd
  0
BLOCK
  5
2A184
330
2A17A
100
AcDbEntity
  8
0
 48
50.0
100
AcDbBlockBegin
  2
*D38
 70
     1
 10
0.0
 20
0.0
 30
0.0
  3
*D38
  1

  0
LINE
  5
2A2CA
330
2A17A
100
AcDbEntity
  8
寸法
 62
     0
 48
50.0
370
    -2
100
AcDbLine
 10
4663.558509059058
 20
2030.316213575509
 30
0.0
 11
3862.913571022997
 21
2030.316213575509
 31
0.0
  0
LINE
  5
2A2CB
330
2A17A
100
AcDbEntity
  8
寸法
 62
     0
 48
50.0
370
    -2
100
AcDbLine
 10
4403.558509059063
 20
1050.316213575507
 30
0.0
 11
3862.913571022997
 21
1050.316213575507
 31
0.0
  0
LINE
  5
2A2CC
330
2A17A
100
AcDbEntity
  8
寸法
 62
     0
 48
50.0
370
    -2
100
AcDbLine
 10
3922.913571022997
 20
2030.316213575509
 30
0.0
 11
3922.913571022997
 21
1050.316213575507
 31
0.0
  0
INSERT
  5
2A2CD
330
2A17A
100
AcDbEntity
  8
寸法
 62
     0
 48
50.0
370
    -2
100
AcDbBlockReference
  2
_DOTSMALL
 10
3922.913571022997
 20
2030.316213575509
 30
0.0
 41
100.0
 42
100.0
 43
100.0
 50
90.0
  0
INSERT
  5
2A2CE
330
2A17A
100
AcDbEntity
  8
寸法
 62
     0
 48
50.0
370
    -2
100
AcDbBlockReference
  2
_DOTSMALL
 10
3922.913571022997
 20
1050.316213575507
 30
0.0
 41
100.0
 42
100.0
 43
100.0
 50
270.0
  0
MTEXT
  5
2A2CF
330
2A17A
100
AcDbEntity
  8
寸法
 62
     7
 48
50.0
100
AcDbMText
 10
3822.913571022996
 20
1540.316213575509
 30
0.0
 40
120.0
 41
0.0
 71
     5
 72
     1
  1
\A1;540
  7
STYLE1
 11
0.0000000000000001
 21
1.0
 31
0.0
 73
     1
 44
1.0
1001
ACAD
1000
MTEXTBEGIN
1070
    73
1070
     1
1070
    44
1040
1.0
1070
    74
1070
     0
1000
MTEXTEND
  0
POINT
  5
2A2D0
330
2A17A
100
AcDbEntity
  8
DEFPOINTS
 62
     0
 48
50.0
100
AcDbPoint
 10
4683.558509059058
 20
2030.316213575509
 30
0.0
  0
POINT
  5
2A2D1
330
2A17A
100
AcDbEntity
  8
DEFPOINTS
 62
     0
 48
50.0
100
AcDbPoint
 10
4423.558509059064
 20
1050.316213575507
 30
0.0
  0
POINT
  5
2A2D2
330
2A17A
100
AcDbEntity
  8
DEFPOINTS
 62
     0
 48
50.0
100
AcDbPoint
 10
3922.913571022997
 20
1050.316213575507
 30
0.0
  0
ENDBLK
  5
2A185
330
2A17A
100
AcDbEntity
  8
0
 48
50.0
100
AcDbBlockEnd
  0
BLOCK
  5
2A190
330
2A186
100
AcDbEntity
  8
0
 48
50.0
100
AcDbBlockBegin
  2
*D39
 70
     1
 10
0.0
 20
0.0
 30
0.0
  3
*D39
  1

  0
LINE
  5
2A2C1
330
2A186
100
AcDbEntity
  8
寸法
 62
     0
 48
50.0
370
    -2
100
AcDbLine
 10
4503.55850905906
 20
1350.316213575508
 30
0.0
 11
4285.533116893485
 21
1350.316213575508
 31
0.0
  0
LINE
  5
2A2C2
330
2A186
100
AcDbEntity
  8
寸法
 62
     0
 48
50.0
370
    -2
100
AcDbLine
 10
4403.558509059063
 20
1050.316213575507
 30
0.0
 11
4285.533116893485
 21
1050.316213575507
 31
0.0
  0
LINE
  5
2A2C3
330
2A186
100
AcDbEntity
  8
寸法
 62
     0
 48
50.0
370
    -2
100
AcDbLine
 10
4345.533116893485
 20
1350.316213575508
 30
0.0
 11
4345.533116893485
 21
1050.316213575507
 31
0.0
  0
INSERT
  5
2A2C4
330
2A186
100
AcDbEntity
  8
寸法
 62
     0
 48
50.0
370
    -2
100
AcDbBlockReference
  2
_DOTSMALL
 10
4345.533116893485
 20
1350.316213575508
 30
0.0
 41
100.0
 42
100.0
 43
100.0
 50
90.0
  0
INSERT
  5
2A2C5
330
2A186
100
AcDbEntity
  8
寸法
 62
     0
 48
50.0
370
    -2
100
AcDbBlockReference
  2
_DOTSMALL
 10
4345.533116893485
 20
1050.316213575507
 30
0.0
 41
100.0
 42
100.0
 43
100.0
 50
270.0
  0
MTEXT
  5
2A2C6
330
2A186
100
AcDbEntity
  8
寸法
 62
     7
 48
50.0
100
AcDbMText
 10
4245.533116893486
 20
1200.316213575508
 30
0.0
 40
120.0
 41
0.0
 71
     5
 72
     1
  1
\A1;150
  7
STYLE1
 11
0.0000000000000001
 21
1.0
 31
0.0
 73
     1
 44
1.0
1001
ACAD
1000
MTEXTBEGIN
1070
    73
1070
     1
1070
    44
1040
1.0
1070
    74
1070
     0
1000
MTEXTEND
  0
POINT
  5
2A2C7
330
2A186
100
AcDbEntity
  8
DEFPOINTS
 62
     0
 48
50.0
100
AcDbPoint
 10
4523.55850905906
 20
1350.316213575508
 30
0.0
  0
POINT
  5
2A2C8
330
2A186
100
AcDbEntity
  8
DEFPOINTS
 62
     0
 48
50.0
100
AcDbPoint
 10
4423.558509059064
 20
1050.316213575507
 30
0.0
  0
POINT
  5
2A2C9
330
2A186
100
AcDbEntity
  8
DEFPOINTS
 62
     0
 48
50.0
100
AcDbPoint
 10
4345.533116893485
 20
1050.316213575507
 30
0.0
  0
ENDBLK
  5
2A191
330
2A186
100
AcDbEntity
  8
0
 48
50.0
100
AcDbBlockEnd
  0
BLOCK
  5
2A19C
330
2A192
100
AcDbEntity
  8
0
 48
50.0
100
AcDbBlockBegin
  2
*D40
 70
     1
 10
0.0
 20
0.0
 30
0.0
  3
*D40
  1

  0
LINE
  5
2A2B8
330
2A192
100
AcDbEntity
  8
寸法
 62
     0
 48
50.0
370
    -2
100
AcDbLine
 10
4923.558509059058
 20
2050.316213575509
 30
0.0
 11
4923.558509059058
 21
2614.900973470986
 31
0.0
  0
LINE
  5
2A2B9
330
2A192
100
AcDbEntity
  8
寸法
 62
     0
 48
50.0
370
    -2
100
AcDbLine
 10
4683.558509059058
 20
2050.316213575509
 30
0.0
 11
4683.558509059058
 21
2614.900973470986
 31
0.0
  0
LINE
  5
2A2BA
330
2A192
100
AcDbEntity
  8
寸法
 62
     0
 48
50.0
370
    -2
100
AcDbLine
 10
4923.558509059058
 20
2554.900973470985
 30
0.0
 11
4683.558509059058
 21
2554.900973470985
 31
0.0
  0
INSERT
  5
2A2BB
330
2A192
100
AcDbEntity
  8
寸法
 62
     0
 48
50.0
370
    -2
100
AcDbBlockReference
  2
_DOTSMALL
 10
4923.558509059058
 20
2554.900973470985
 30
0.0
 41
100.0
 42
100.0
 43
100.0
  0
INSERT
  5
2A2BC
330
2A192
100
AcDbEntity
  8
寸法
 62
     0
 48
50.0
370
    -2
100
AcDbBlockReference
  2
_DOTSMALL
 10
4683.558509059058
 20
2554.900973470985
 30
0.0
 41
100.0
 42
100.0
 43
100.0
 50
180.0
  0
MTEXT
  5
2A2BD
330
2A192
100
AcDbEntity
  8
寸法
 62
     7
 48
50.0
100
AcDbMText
 10
4803.558509059058
 20
2760.941786035789
 30
0.0
 40
120.0
 41
0.0
 71
     5
 72
     1
  1
\A1;120\P(195)
  7
STYLE1
 73
     1
 44
1.0
1001
ACAD
1000
MTEXTBEGIN
1070
    73
1070
     1
1070
    44
1040
1.0
1070
    74
1070
     0
1000
MTEXTEND
  0
POINT
  5
2A2BE
330
2A192
100
AcDbEntity
  8
DEFPOINTS
 62
     0
 48
50.0
100
AcDbPoint
 10
4923.558509059058
 20
2030.316213575509
 30
0.0
  0
POINT
  5
2A2BF
330
2A192
100
AcDbEntity
  8
DEFPOINTS
 62
     0
 48
50.0
100
AcDbPoint
 10
4683.558509059058
 20
2030.316213575509
 30
0.0
  0
POINT
  5
2A2C0
330
2A192
100
AcDbEntity
  8
DEFPOINTS
 62
     0
 48
50.0
100
AcDbPoint
 10
4683.558509059058
 20
2554.900973470985
 30
0.0
  0
ENDBLK
  5
2A19D
330
2A192
100
AcDbEntity
  8
0
 48
50.0
100
AcDbBlockEnd
  0
ENDSEC
  0
SECTION
  2
ENTITIES
  0
MTEXT
  5
763F
330
747D
100
AcDbEntity
  8
0
100
AcDbMText
 10
302.846345836809
 20
280.1983726409901
 30
0.0
 40
3.5
 41
5.323721266742722
 71
     1
 72
     5
  1

  7
MSMINCHO
 73
     1
 44
1.0
1001
ACAD
1000
MTEXTBEGIN
1070
    73
1070
     1
1070
    44
1040
1.0
1070
    74
1070
     0
1000
MTEXTEND
  0
LINE
  5
10B57
330
747D
100
AcDbEntity
  8
補助
  6
PHANTOM
 62
   230
 48
50.0
100
AcDbLine
 10
139.9999999999995
 20
11409.6
 30
0.0
 11
16307.2
 21
11409.6
 31
0.0
  0
LINE
  5
10B59
330
747D
100
AcDbEntity
  8
仕様書枠
  6
Continuous
 48
50.0
100
AcDbLine
 10
13107.2
 20
1200.0
 30
0.0
 11
13107.2
 21
-0.0000000000000729
 31
0.0
  0
LINE
  5
10B5D
330
747D
100
AcDbEntity
  8
仕様書枠
 48
50.0
100
AcDbLine
 10
140.0
 20
0.0
 30
0.0
 11
16307.2
 21
-0.0000000000000909
 31
0.0
  0
LINE
  5
10B5E
330
747D
100
AcDbEntity
  8
補助
  6
PHANTOM
 62
   230
 48
50.0
100
AcDbLine
 10
16307.2
 20
11409.6
 30
0.0
 11
16307.2
 21
1200.0
 31
0.0
  0
LINE
  5
10B6C
330
747D
100
AcDbEntity
  8
仕様書枠
 48
50.0
100
AcDbLine
 10
13107.2
 20
1200.0
 30
0.0
 11
16307.2
 21
1200.0
 31
0.0
  0
TEXT
  5
10B73
330
747D
100
AcDbEntity
  8
文字
 62
     7
 48
50.0
100
AcDbText
 10
13162.9790565769
 20
895.0906074299405
 30
0.0
 40
200.0
  1
基 礎 図
  7
STYLE2
100
AcDbText
  0
LINE
  5
10B7B
330
747D
100
AcDbEntity
  8
仕様書枠
 48
50.0
100
AcDbLine
 10
13107.2
 20
800.0
 30
0.0
 11
14251.2
 21
800.0
 31
0.0
  0
LINE
  5
10B88
330
747D
100
AcDbEntity
  8
仕様書枠
  6
Continuous
 48
50.0
100
AcDbLine
 10
14251.2
 20
1200.0
 30
0.0
 11
14251.2
 21
800.0
 31
0.0
  0
LINE
  5
16462
330
747D
100
AcDbEntity
  8
仕様書枠
 48
50.0
100
AcDbLine
 10
16307.2
 20
1200.0
 30
0.0
 11
16307.2
 21
-0.0000000000000909
 31
0.0
  0
LINE
  5
1903B
330
747D
100
AcDbEntity
  8
補助
  6
PHANTOM
 62
   230
 48
50.0
100
AcDbLine
 10
140.0
 20
0.0
 30
0.0
 11
139.9999999999995
 21
11409.6
 31
0.0
  0
LEADER
  5
1AC27
330
747D
100
AcDbEntity
  8
寸法
 48
50.0
100
AcDbLeader
  3
INABA_S40G
 73
     0
 74
     0
 75
     1
 40
120.0
 41
720.0000000000001
 76
     3
 10
10858.69549961499
 20
7301.715377666539
 30
0.0
 10
11025.46907400128
 20
7025.701464098708
 30
0.0
 10
11125.46907400128
 20
7025.701464098708
 30
0.0
340
1AC28
1001
ACAD
1000
DSTYLE
1002
{
1070
   341
1005
0
1002
}
  0
MTEXT
  5
1AC28
102
{ACAD_REACTORS
330
1AC27
102
}
330
747D
100
AcDbEntity
  8
部品1
 62
     7
 48
50.0
100
AcDbMText
 10
11885.46907400128
 20
7125.701464098708
 30
0.0
 40
120.0
 41
0.0
 71
     6
 72
     1
  1
\A1;床下換気口
  7
STYLE1
 73
     1
 44
1.0
1001
ACAD
1000
MTEXTBEGIN
1070
    73
1070
     1
1070
    44
1040
1.0
1070
    74
1070
     0
1000
MTEXTEND
  0
TEXT
  5
1AC29
330
747D
100
AcDbEntity
  8
部品1
 48
50.0
100
AcDbText
 10
11202.50116389398
 20
5482.422305747938
 30
0.0
 40
80.0
  1
(a=45,b=55,c=75)
  7
STYLE1
100
AcDbText
  0
TEXT
  5
1AC2A
330
747D
100
AcDbEntity
  8
部品1
 48
50.0
100
AcDbText
 10
11043.92215513968
 20
5589.267526616692
 30
0.0
 40
80.0
  1
※a,b,cは屋根の出幅です。
  7
STYLE1
100
AcDbText
  0
MTEXT
  5
1AC2B
102
{ACAD_REACTORS
330
1AC2C
102
}
330
747D
100
AcDbEntity
  8
部品1
 62
     7
 48
50.0
100
AcDbMText
 10
11841.70935112828
 20
5768.578213549766
 30
0.0
 40
120.0
 41
0.0
 71
     6
 72
     1
  1
\A1;屋根の外寸
  7
STYLE1
 73
     1
 44
1.0
1001
ACAD
1000
MTEXTBEGIN
1070
    73
1070
     1
1070
    44
1040
1.0
1070
    74
1070
     0
1000
MTEXTEND
  0
LEADER
  5
1AC2C
330
747D
100
AcDbEntity
  8
寸法
 48
50.0
100
AcDbLeader
  3
INABA_S40G
 73
     0
 74
     0
 75
     1
 40
120.0
 41
672.0
 76
     3
 10
10903.76933893624
 20
5942.467557013342
 30
0.0
 10
11029.70935112828
 20
5668.578213549766
 30
0.0
 10
11129.70935112828
 20
5668.578213549766
 30
0.0
340
1AC2B
1001
ACAD
1000
DSTYLE
1002
{
1070
   341
1005
0
1002
}
  0
TEXT
  5
1C7A1
330
747D
100
AcDbEntity
  8
文字
 62
     7
 48
50.0
100
AcDbText
 10
13188.16259899338
 20
79.80631269190417
 30
0.0
 40
80.0
  1
※布基礎には換気口を設けてください。
  7
STYLE2
100
AcDbText
  0
TEXT
  5
1C7E7
330
747D
100
AcDbEntity
  8
文字
 62
     7
 48
50.0
100
AcDbText
 10
13188.16259899338
 20
246.7109242801889
 30
0.0
 40
80.0
  1
※寒冷地等は地域の実情に合わせた基礎にして下さい。
  7
STYLE2
100
AcDbText
  0
TEXT
  5
1C7E8
330
747D
100
AcDbEntity
  8
文字
 62
     7
 48
50.0
100
AcDbText
 10
14478.98566430227
 20
499.5983841039506
 30
0.0
 40
160.0
  1
ＮＸＮ－１６０Ｈ
  7
STYLE2
100
AcDbText
  0
TEXT
  5
1C7E9
330
747D
100
AcDbEntity
  8
文字
 62
     7
 48
50.0
100
AcDbText
 10
14641.2525855784
 20
871.1744590657927
 30
0.0
 40
100.0
  1
～一般型・多雪地型～
  7
STYLE2
100
AcDbText
  0
TEXT
  5
1C7EC
330
747D
100
AcDbEntity
  8
文字
 62
     7
 48
50.0
100
AcDbText
 10
14524.131837222
 20
1031.557706291229
 30
0.0
 40
100.0
  1
      <縮尺> S=1/40
  7
STYLE2
100
AcDbText
  0
TEXT
  5
1C7ED
330
747D
100
AcDbEntity
  8
文字
 62
     7
 48
50.0
100
AcDbText
 10
13201.43669998441
 20
477.2740661031257
 30
0.0
 40
160.0
  1
機種名
  7
STYLE2
100
AcDbText
  0
LINE
  5
1C7EF
330
747D
100
AcDbEntity
  8
文字
 62
     7
 48
50.0
100
AcDbLine
 10
13187.2
 20
400.0
 30
0.0
 11
16227.2
 21
400.0
 31
0.0
  0
MTEXT
  5
1D2D5
102
{ACAD_REACTORS
330
1D2D6
102
}
330
747D
100
AcDbEntity
  8
部品1
 62
     7
 48
50.0
100
AcDbMText
 10
12053.99523070988
 20
9093.206656938612
 30
0.0
 40
120.0
 41
0.0
 71
     6
 72
     1
  1
アンカーボルト
  7
STYLE1
 73
     1
 44
1.0
1001
ACAD
1000
MTEXTBEGIN
1070
    73
1070
     1
1070
    44
1040
1.0
1070
    74
1070
     0
1000
MTEXTEND
  0
LEADER
  5
1D2D6
330
747D
100
AcDbEntity
  8
寸法
 48
50.0
100
AcDbLeader
  3
INABA_S40G
 73
     0
 74
     0
 75
     1
 40
120.0
 41
994.3492424049171
 76
     3
 10
10735.680085757
 20
8694.721051443437
 30
0.0
 10
10919.64598830496
 20
8993.206656938612
 30
0.0
 10
11019.64598830496
 20
8993.206656938612
 30
0.0
340
1D2D5
1001
ACAD
1000
DSTYLE
1002
{
1070
   341
1005
0
1002
}
  0
LINE
  5
20992
330
747D
100
AcDbEntity
  8
想像線
 48
10.0
100
AcDbLine
 10
10903.6
 20
5702.513207084748
 30
0.0
 11
10903.6
 21
8892.513207084729
 31
0.0
  0
LINE
  5
261AF
102
{ACAD_REACTORS
330
2A28D
102
}
330
747D
100
AcDbEntity
  8
部品1
 48
50.0
100
AcDbLine
 10
10628.6
 20
8697.513207084726
 30
0.0
 11
8235.600000000001
 21
8697.513207084728
 31
0.0
  0
DIMENSION
  5
261B0
330
747D
100
AcDbEntity
  8
寸法
 48
50.0
100
AcDbDimension
  2
*D1
 10
8105.6
 20
9563.272833626811
 30
0.0
 11
9420.6
 21
9663.284644650435
 31
0.0
 70
    32
 71
     5
 42
2630.0
  3
INABA_S40G
100
AcDbAlignedDimension
 13
10735.6
 23
8744.513207084729
 33
0.0
 14
8105.6
 24
8744.513207084729
 34
0.0
100
AcDbRotatedDimension
1001
ACAD
1000
DSTYLE
1002
{
1070
   341
1005
0
1002
}
  0
DIMENSION
  5
261B1
330
747D
100
AcDbEntity
  8
寸法
 48
50.0
100
AcDbDimension
  2
*D2
 10
8670.14438614211
 20
5987.513207084748
 30
0.0
 11
8670.144386142109
 21
6257.57226220287
 31
0.0
 70
   160
 71
     5
 42
110.0000000000072
  3
INABA_S40G
100
AcDbAlignedDimension
 13
8777.240883598699
 23
5877.51320708474
 33
0.0
 14
8235.600000000001
 24
5987.513207084748
 34
0.0
 50
90.0
100
AcDbRotatedDimension
1001
ACAD
1000
DSTYLE
1002
{
1070
   341
1005
0
1002
}
  0
DIMENSION
  5
261B2
330
747D
100
AcDbEntity
  8
寸法
 48
50.0
100
AcDbDimension
  2
*D3
 10
8670.14438614211
 20
5877.51320708474
 30
0.0
 11
8670.144386142109
 21
5421.224902116788
 31
0.0
 70
   160
 71
     5
 42
119.9999999999854
  3
INABA_S40G
100
AcDbAlignedDimension
 13
8307.41918098816
 23
5757.513207084755
 33
0.0
 14
8777.240883598699
 24
5877.51320708474
 34
0.0
 50
90.0
100
AcDbRotatedDimension
1001
ACAD
1000
DSTYLE
1002
{
1070
   341
1005
0
1002
}
  0
LINE
  5
261B3
102
{ACAD_REACTORS
330
2A28D
102
}
330
747D
100
AcDbEntity
  8
部品1
 48
50.0
100
AcDbLine
 10
10858.6
 20
5757.513207084747
 30
0.0
 11
8196.600000000001
 21
5757.51320708473
 31
0.0
  0
LINE
  5
261B4
102
{ACAD_REACTORS
330
2A28D
102
}
330
747D
100
AcDbEntity
  8
部品1
 48
50.0
100
AcDbLine
 10
10628.6
 20
5877.513207084745
 30
0.0
 11
8235.600000000001
 21
5877.51320708474
 31
0.0
  0
DIMENSION
  5
261B5
330
747D
100
AcDbEntity
  8
寸法
 48
50.0
100
AcDbDimension
  2
*D4
 10
8223.600000000001
 20
9344.422972733054
 30
0.0
 11
8673.6
 21
9444.422972733056
 31
0.0
 70
    32
 71
     5
 42
900.0
  3
INABA_S40G
100
AcDbAlignedDimension
 13
9123.600000000001
 23
8187.513207084725
 33
0.0
 14
8223.600000000001
 24
8187.513207084725
 34
0.0
100
AcDbRotatedDimension
1001
ACAD
1000
DSTYLE
1002
{
1070
   341
1005
0
1002
}
  0
LINE
  5
261B8
102
{ACAD_REACTORS
330
2A28D
102
}
330
747D
100
AcDbEntity
  8
部品1
 48
50.0
100
AcDbLine
 10
10858.6
 20
8817.513207084727
 30
0.0
 11
5588.6
 21
8817.513207084727
 31
0.0
  0
DIMENSION
  5
261B9
330
747D
100
AcDbEntity
  8
寸法
 48
50.0
100
AcDbDimension
  2
*D5
 10
10858.6
 20
9775.73352914365
 30
0.0
 11
8223.600000000001
 21
9875.745340167272
 31
0.0
 70
    32
 71
     5
 42
5270.0
  3
INABA_S40G
100
AcDbAlignedDimension
 13
5588.6
 23
8817.513207084727
 33
0.0
 14
10858.6
 24
8817.513207084727
 34
0.0
100
AcDbRotatedDimension
1001
ACAD
1000
DSTYLE
1002
{
1070
   341
1005
0
1002
}
  0
DIMENSION
  5
261C9
330
747D
100
AcDbEntity
  8
寸法
 48
50.0
100
AcDbDimension
  2
*D6
 10
7975.6
 20
6182.360657588265
 30
0.0
 11
8105.6
 21
6182.360657588265
 31
0.0
 70
   160
 71
     5
 42
260.0
  3
INABA_S40G
100
AcDbAlignedDimension
 13
8235.600000000001
 23
5987.513207084748
 33
0.0
 14
7975.6
 24
5987.513207084748
 34
0.0
100
AcDbRotatedDimension
1001
ACAD
1000
DSTYLE
1002
{
1070
   341
1005
0
1002
}
  0
LINE
  5
261CB
102
{ACAD_REACTORS
330
2A28D
102
}
330
747D
100
AcDbEntity
  8
部品1
 48
50.0
100
AcDbLine
 10
5588.6
 20
5757.51320708473
 30
0.0
 11
5588.6
 21
8817.513207084727
 31
0.0
  0
LINE
  5
261CC
102
{ACAD_REACTORS
330
2A28D
102
}
330
747D
100
AcDbEntity
  8
部品1
 48
50.0
100
AcDbLine
 10
5708.6
 20
5987.513207084731
 30
0.0
 11
5708.6
 21
8587.513207084723
 31
0.0
  0
DIMENSION
  5
261CD
330
747D
100
AcDbEntity
  8
寸法
 48
50.0
100
AcDbDimension
  2
*D7
 10
4840.714637266784
 20
5757.51320708473
 30
0.0
 11
4840.714637266783
 21
7287.513207084727
 31
0.0
 70
   160
 71
     5
 42
3059.999999999999
  3
INABA_S40G
100
AcDbAlignedDimension
 13
5588.6
 23
8817.513207084727
 33
0.0
 14
5588.6
 24
5757.51320708473
 34
0.0
 50
90.0
100
AcDbRotatedDimension
1001
ACAD
1000
DSTYLE
1002
{
1070
   341
1005
0
1002
}
  0
DIMENSION
  5
261CE
330
747D
100
AcDbEntity
  8
寸法
 48
50.0
100
AcDbDimension
  2
*D8
 10
5092.657733986183
 20
5880.513207084732
 30
0.0
 11
5092.657733986182
 21
7287.51320708473
 31
0.0
 70
   160
 71
     5
 42
2814.0
  3
INABA_S40G
100
AcDbAlignedDimension
 13
5661.6
 23
8694.51320708473
 33
0.0
 14
5661.600000000007
 24
5880.513207084732
 34
0.0
 50
90.0
100
AcDbRotatedDimension
1001
ACAD
1000
DSTYLE
1002
{
1070
   341
1005
0
1002
}
  0
DIMENSION
  5
2622F
330
747D
100
AcDbEntity
  8
寸法
 48
50.0
100
AcDbDimension
  2
*D9
 10
5092.657733986179
 20
5757.51320708473
 30
0.0
 11
5092.657733986178
 21
5421.982258242136
 31
0.0
 70
   160
 71
     5
 42
123.0000000000018
  3
INABA_S40G
100
AcDbAlignedDimension
 13
5661.600000000007
 23
5880.513207084732
 33
0.0
 14
5588.6
 24
5757.51320708473
 34
0.0
 50
90.0
100
AcDbRotatedDimension
1001
ACAD
1000
DSTYLE
1002
{
1070
   341
1005
0
1002
}
  0
LINE
  5
26231
102
{ACAD_REACTORS
330
2A28D
102
}
330
747D
100
AcDbEntity
  8
部品1
 48
50.0
100
AcDbLine
 10
8196.600000000001
 20
5682.513207084731
 30
0.0
 11
6041.6
 21
5682.513207084717
 31
0.0
  0
LINE
  5
26233
102
{ACAD_REACTORS
330
2A28D
102
}
330
747D
100
AcDbEntity
  8
部品1
 48
50.0
100
AcDbLine
 10
7975.6
 20
5877.513207084738
 30
0.0
 11
5818.6
 21
5877.513207084732
 31
0.0
  0
LINE
  5
26235
330
747D
100
AcDbEntity
  8
部品1
 48
50.0
100
AcDbLine
 10
5588.6
 20
5757.51320708473
 30
0.0
 11
6041.6
 21
5757.51320708473
 31
0.0
  0
DIMENSION
  5
26236
330
747D
100
AcDbEntity
  8
寸法
 48
50.0
100
AcDbDimension
  2
*D10
 10
5588.6
 20
5197.668192742538
 30
0.0
 11
5815.100000000001
 21
5297.668192742538
 31
0.0
 70
    32
 71
     5
 42
453.0
  3
INABA_S40G
100
AcDbAlignedDimension
 13
6041.6
 23
5682.513207084717
 33
0.0
 14
5588.6
 24
5757.51320708473
 34
0.0
100
AcDbRotatedDimension
1001
ACAD
1000
DSTYLE
1002
{
1070
   341
1005
0
1002
}
  0
LINE
  5
26237
330
747D
100
AcDbEntity
  8
部品1
 48
50.0
100
AcDbLine
 10
5818.6
 20
5987.513207084731
 30
0.0
 11
5708.6
 21
5987.513207084731
 31
0.0
  0
CIRCLE
  5
26238
330
747D
100
AcDbEntity
  8
部品1
 48
50.0
100
AcDbCircle
 10
5711.600000000007
 20
5880.513207084732
 30
0.0
 40
35.0
  0
LINE
  5
26239
330
747D
100
AcDbEntity
  8
センター
 48
2.0
100
AcDbLine
 10
5661.600000000007
 20
5880.513207084732
 30
0.0
 11
5761.600000000008
 21
5880.513207084732
 31
0.0
  0
LINE
  5
2623A
330
747D
100
AcDbEntity
  8
センター
 48
2.0
100
AcDbLine
 10
5711.600000000007
 20
5930.513207084731
 30
0.0
 11
5711.600000000007
 21
5830.513207084731
 31
0.0
  0
LINE
  5
2623B
330
747D
100
AcDbEntity
  8
部品1
 48
50.0
100
AcDbLine
 10
5818.6
 20
5877.513207084732
 30
0.0
 11
5818.6
 21
5987.513207084731
 31
0.0
  0
LINE
  5
2623C
330
747D
100
AcDbEntity
  8
部品1
 48
50.0
100
AcDbLine
 10
6041.6
 20
5682.513207084734
 30
0.0
 11
6041.6
 21
5757.513207084716
 31
0.0
  0
LINE
  5
26322
102
{ACAD_REACTORS
330
2A28D
102
}
330
747D
100
AcDbEntity
  8
部品1
 48
50.0
100
AcDbLine
 10
6997.100000000009
 20
5877.513207084735
 30
0.0
 11
6997.100000000007
 21
5682.513207084721
 31
0.0
  0
LINE
  5
26324
102
{ACAD_REACTORS
330
2A28D
102
}
330
747D
100
AcDbEntity
  8
部品1
 48
50.0
100
AcDbLine
 10
6797.100000000007
 20
5877.513207084735
 30
0.0
 11
6797.100000000007
 21
5682.513207084721
 31
0.0
  0
LINE
  5
26387
330
747D
100
AcDbEntity
  8
部品1
 48
50.0
100
AcDbLine
 10
8196.600000000001
 20
5682.513207084734
 30
0.0
 11
8196.600000000001
 21
5757.513207084731
 31
0.0
  0
LINE
  5
263FC
330
747D
100
AcDbEntity
  8
部品1
 48
50.0
100
AcDbLine
 10
8235.600000000001
 20
5987.513207084748
 30
0.0
 11
7975.6
 21
5987.513207084748
 31
0.0
  0
LINE
  5
26431
330
747D
100
AcDbEntity
  8
部品1
 48
50.0
100
AcDbLine
 10
7975.600000000001
 20
5877.513207084739
 30
0.0
 11
7975.6
 21
5987.513207084748
 31
0.0
  0
LINE
  5
26432
330
747D
100
AcDbEntity
  8
センター
 48
2.0
100
AcDbLine
 10
8105.600000000007
 20
5930.513207084731
 30
0.0
 11
8105.600000000007
 21
5830.513207084731
 31
0.0
  0
CIRCLE
  5
26433
330
747D
100
AcDbEntity
  8
部品1
 48
50.0
100
AcDbCircle
 10
8105.600000000007
 20
5880.513207084732
 30
0.0
 40
35.0
  0
LINE
  5
26434
330
747D
100
AcDbEntity
  8
センター
 48
2.0
100
AcDbLine
 10
8055.600000000008
 20
5880.513207084732
 30
0.0
 11
8155.600000000008
 21
5880.513207084732
 31
0.0
  0
LINE
  5
2644E
330
747D
100
AcDbEntity
  8
部品1
 48
50.0
100
AcDbLine
 10
8235.600000000001
 20
5877.51320708474
 30
0.0
 11
8235.600000000001
 21
5987.513207084748
 31
0.0
  0
DIMENSION
  5
26450
330
747D
100
AcDbEntity
  8
寸法
 48
50.0
100
AcDbDimension
  2
*D11
 10
5092.657733986179
 20
8694.51320708473
 30
0.0
 11
5092.657733986178
 21
9090.619808802529
 31
0.0
 70
   160
 71
     5
 42
122.9999999999963
  3
INABA_S40G
100
AcDbAlignedDimension
 13
5588.6
 23
8817.513207084727
 33
0.0
 14
5661.6
 24
8694.51320708473
 34
0.0
 50
90.0
100
AcDbRotatedDimension
1001
ACAD
1000
DSTYLE
1002
{
1070
   341
1005
0
1002
}
  0
DIMENSION
  5
26452
330
747D
100
AcDbEntity
  8
寸法
 48
50.0
100
AcDbDimension
  2
*D12
 10
6493.6
 20
9344.422972733054
 30
0.0
 11
6908.599999999999
 21
9444.422972733056
 31
0.0
 70
    32
 71
     5
 42
830.0
  3
INABA_S40G
100
AcDbAlignedDimension
 13
7323.6
 23
8187.513207084725
 33
0.0
 14
6493.6
 24
8187.513207084725
 34
0.0
100
AcDbRotatedDimension
1001
ACAD
1000
DSTYLE
1002
{
1070
   341
1005
0
1002
}
  0
LINE
  5
26453
102
{ACAD_REACTORS
330
2A28D
102
}
330
747D
100
AcDbEntity
  8
部品1
 48
50.0
100
AcDbLine
 10
7975.6
 20
8697.513207084728
 30
0.0
 11
5818.6
 21
8697.513207084728
 31
0.0
  0
DIMENSION
  5
26454
330
747D
100
AcDbEntity
  8
寸法
 48
50.0
100
AcDbDimension
  2
*D13
 10
5711.6
 20
9563.272833626811
 30
0.0
 11
6908.599999999999
 21
9663.284644650435
 31
0.0
 70
    32
 71
     5
 42
2394.0
  3
INABA_S40G
100
AcDbAlignedDimension
 13
8105.6
 23
8744.513207084729
 33
0.0
 14
5711.6
 24
8744.513207084729
 34
0.0
100
AcDbRotatedDimension
1001
ACAD
1000
DSTYLE
1002
{
1070
   341
1005
0
1002
}
  0
CIRCLE
  5
26455
330
747D
100
AcDbEntity
  8
部品1
 48
50.0
100
AcDbCircle
 10
5711.6
 20
8694.51320708473
 30
0.0
 40
35.0
  0
LINE
  5
26456
330
747D
100
AcDbEntity
  8
センター
 48
2.0
100
AcDbLine
 10
5711.6
 20
8744.513207084729
 30
0.0
 11
5711.6
 21
8644.513207084729
 31
0.0
  0
DIMENSION
  5
26457
330
747D
100
AcDbEntity
  8
寸法
 48
50.0
100
AcDbDimension
  2
*D14
 10
6035.307249876098
 20
8817.513207084727
 30
0.0
 11
6035.307249876098
 21
9095.596750357614
 31
0.0
 70
   160
 71
     5
 42
120.0
  3
INABA_S40G
100
AcDbAlignedDimension
 13
5818.6
 23
8697.513207084726
 33
0.0
 14
5818.600000000002
 24
8817.513207084727
 34
0.0
 50
90.0
100
AcDbRotatedDimension
1001
ACAD
1000
DSTYLE
1002
{
1070
   341
1005
0
1002
}
  0
DIMENSION
  5
26458
330
747D
100
AcDbEntity
  8
寸法
 48
50.0
100
AcDbDimension
  2
*D15
 10
5588.6
 20
9344.422972733054
 30
0.0
 11
6041.1
 21
9444.422972733056
 31
0.0
 70
    32
 71
     5
 42
905.0
  3
INABA_S40G
100
AcDbAlignedDimension
 13
6493.6
 23
8187.513207084725
 33
0.0
 14
5588.6
 24
8817.513207084727
 34
0.0
100
AcDbRotatedDimension
1001
ACAD
1000
DSTYLE
1002
{
1070
   341
1005
0
1002
}
  0
DIMENSION
  5
26459
330
747D
100
AcDbEntity
  8
寸法
 48
50.0
100
AcDbDimension
  2
*D16
 10
6035.307249876098
 20
8587.513207084723
 30
0.0
 11
6035.307249876098
 21
8247.454151966614
 31
0.0
 70
   160
 71
     5
 42
110.0000000000054
  3
INABA_S40G
100
AcDbAlignedDimension
 13
5818.6
 23
8697.513207084728
 33
0.0
 14
5818.6
 24
8587.513207084723
 34
0.0
 50
90.0
100
AcDbRotatedDimension
1001
ACAD
1000
DSTYLE
1002
{
1070
   341
1005
0
1002
}
  0
LINE
  5
2645B
102
{ACAD_REACTORS
330
2A28D
102
}
330
747D
100
AcDbEntity
  8
部品1
 48
50.0
100
AcDbLine
 10
5708.600000000001
 20
7187.51320708473
 30
0.0
 11
5588.600000000003
 21
7187.51320708473
 31
0.0
  0
LINE
  5
2645C
102
{ACAD_REACTORS
330
2A28D
102
}
330
747D
100
AcDbEntity
  8
部品1
 48
50.0
100
AcDbLine
 10
5708.600000000001
 20
7387.51320708473
 30
0.0
 11
5588.600000000003
 21
7387.51320708473
 31
0.0
  0
LINE
  5
2645D
330
747D
100
AcDbEntity
  8
部品1
 48
50.0
100
AcDbLine
 10
5818.599999999999
 20
8587.513207084723
 30
0.0
 11
5708.6
 21
8587.513207084729
 31
0.0
  0
LINE
  5
2645E
330
747D
100
AcDbEntity
  8
センター
 48
2.0
100
AcDbLine
 10
5661.6
 20
8694.51320708473
 30
0.0
 11
5761.600000000001
 21
8694.51320708473
 31
0.0
  0
LINE
  5
2645F
330
747D
100
AcDbEntity
  8
部品1
 48
50.0
100
AcDbLine
 10
5818.599999999999
 20
8587.513207084723
 30
0.0
 11
5818.599999999999
 21
8697.513207084728
 31
0.0
  0
LINE
  5
26466
330
747D
100
AcDbEntity
  8
部品1
 48
50.0
100
AcDbLine
 10
5987.928907166848
 20
8817.513207084727
 30
0.0
 11
5588.6
 21
8817.513207084727
 31
0.0
  0
DIMENSION
  5
26467
330
747D
100
AcDbEntity
  8
寸法
 48
50.0
100
AcDbDimension
  2
*D17
 10
5588.6
 20
9563.272833626811
 30
0.0
 11
5315.493398282202
 21
9563.272833626811
 31
0.0
 70
   160
 71
     5
 42
123.0
  3
INABA_S40G
100
AcDbAlignedDimension
 13
5711.6
 23
8744.513207084729
 33
0.0
 14
5588.6
 24
8817.513207084727
 34
0.0
100
AcDbRotatedDimension
1001
ACAD
1000
DSTYLE
1002
{
1070
   341
1005
0
1002
}
  0
LINE
  5
26468
330
747D
100
AcDbEntity
  8
センター
 48
2.0
100
AcDbLine
 10
8105.6
 20
8744.513207084729
 30
0.0
 11
8105.6
 21
8644.513207084729
 31
0.0
  0
CIRCLE
  5
26469
330
747D
100
AcDbEntity
  8
部品1
 48
50.0
100
AcDbCircle
 10
8105.6
 20
8694.51320708473
 30
0.0
 40
35.0
  0
LINE
  5
2646A
102
{ACAD_REACTORS
330
2A28D
102
}
330
747D
100
AcDbEntity
  8
部品1
 48
50.0
100
AcDbLine
 10
6997.099999999997
 20
8817.513207084727
 30
0.0
 11
6997.099999999997
 21
8697.513207084728
 31
0.0
  0
DIMENSION
  5
2646B
330
747D
100
AcDbEntity
  8
寸法
 48
50.0
100
AcDbDimension
  2
*D18
 10
7323.6
 20
9344.422972733054
 30
0.0
 11
7773.6
 21
9444.422972733056
 31
0.0
 70
    32
 71
     5
 42
900.0
  3
INABA_S40G
100
AcDbAlignedDimension
 13
8223.600000000001
 23
8187.513207084725
 33
0.0
 14
7323.6
 24
8187.513207084725
 34
0.0
100
AcDbRotatedDimension
1001
ACAD
1000
DSTYLE
1002
{
1070
   341
1005
0
1002
}
  0
LINE
  5
2646C
102
{ACAD_REACTORS
330
2A28D
102
}
330
747D
100
AcDbEntity
  8
部品1
 48
50.0
100
AcDbLine
 10
6797.099999999997
 20
8817.513207084727
 30
0.0
 11
6797.099999999997
 21
8697.513207084728
 31
0.0
  0
LINE
  5
2647A
330
747D
100
AcDbEntity
  8
部品1
 48
50.0
100
AcDbLine
 10
8235.600000000001
 20
8587.513207084709
 30
0.0
 11
7975.6
 21
8587.513207084709
 31
0.0
  0
LINE
  5
2647B
330
747D
100
AcDbEntity
  8
部品1
 48
50.0
100
AcDbLine
 10
7975.600000000001
 20
8697.513207084728
 30
0.0
 11
7975.6
 21
8587.513207084709
 31
0.0
  0
LINE
  5
2647C
330
747D
100
AcDbEntity
  8
センター
 48
2.0
100
AcDbLine
 10
8055.600000000001
 20
8694.51320708473
 30
0.0
 11
8155.600000000001
 21
8694.51320708473
 31
0.0
  0
LINE
  5
2647D
330
747D
100
AcDbEntity
  8
部品1
 48
50.0
100
AcDbLine
 10
8235.600000000001
 20
8697.513207084728
 30
0.0
 11
8235.600000000001
 21
8587.513207084709
 31
0.0
  0
DIMENSION
  5
2647E
330
747D
100
AcDbEntity
  8
寸法
 48
50.0
100
AcDbDimension
  2
*D19
 10
9588.531448609051
 20
8087.513207084723
 30
0.0
 11
9488.53144860905
 21
7687.513207084726
 31
0.0
 70
    32
 71
     5
 42
799.9999999999972
  3
INABA_S40G
100
AcDbAlignedDimension
 13
9853.6
 23
7287.513207084725
 33
0.0
 14
9853.6
 24
8087.513207084723
 34
0.0
 50
90.0
100
AcDbRotatedDimension
1001
ACAD
1000
DSTYLE
1002
{
1070
   341
1005
0
1002
}
  0
LINE
  5
26480
102
{ACAD_REACTORS
330
2A28D
102
}
330
747D
100
AcDbEntity
  8
部品1
 48
50.0
100
AcDbLine
 10
10858.6
 20
5757.513207084747
 30
0.0
 11
10858.6
 21
8817.513207084727
 31
0.0
  0
LINE
  5
26481
102
{ACAD_REACTORS
330
2A28D
102
}
330
747D
100
AcDbEntity
  8
部品1
 48
50.0
100
AcDbLine
 10
10738.6
 20
5987.513207084749
 30
0.0
 11
10738.6
 21
8587.513207084729
 31
0.0
  0
LINE
  5
264F4
102
{ACAD_REACTORS
330
2A28D
102
}
330
747D
100
AcDbEntity
  8
部品1
 48
50.0
100
AcDbLine
 10
9332.100000000018
 20
5877.513207084742
 30
0.0
 11
9332.100000000018
 21
5757.513207084737
 31
0.0
  0
LINE
  5
264F5
102
{ACAD_REACTORS
330
2A28D
102
}
330
747D
100
AcDbEntity
  8
部品1
 48
50.0
100
AcDbLine
 10
9532.100000000021
 20
5877.513207084742
 30
0.0
 11
9532.100000000021
 21
5757.513207084737
 31
0.0
  0
LINE
  5
264FA
330
747D
100
AcDbEntity
  8
部品1
 48
50.0
100
AcDbLine
 10
10738.6
 20
5987.513207084748
 30
0.0
 11
10628.6
 21
5987.513207084748
 31
0.0
  0
LINE
  5
264FB
330
747D
100
AcDbEntity
  8
部品1
 48
50.0
100
AcDbLine
 10
10628.6
 20
5877.513207084745
 30
0.0
 11
10628.6
 21
5987.513207084748
 31
0.0
  0
LINE
  5
264FC
330
747D
100
AcDbEntity
  8
センター
 48
2.0
100
AcDbLine
 10
10735.6
 20
5930.513207084731
 30
0.0
 11
10735.6
 21
5830.513207084731
 31
0.0
  0
CIRCLE
  5
264FD
330
747D
100
AcDbEntity
  8
部品1
 48
50.0
100
AcDbCircle
 10
10735.6
 20
5880.513207084732
 30
0.0
 40
35.0
  0
LINE
  5
264FE
330
747D
100
AcDbEntity
  8
センター
 48
2.0
100
AcDbLine
 10
10685.60000000001
 20
5880.513207084732
 30
0.0
 11
10785.60000000001
 21
5880.513207084732
 31
0.0
  0
DIMENSION
  5
26508
330
747D
100
AcDbEntity
  8
寸法
 48
50.0
100
AcDbDimension
  2
*D20
 10
9953.600000000001
 20
9344.422972733054
 30
0.0
 11
10406.1
 21
9444.422972733056
 31
0.0
 70
    32
 71
     5
 42
905.0
  3
INABA_S40G
100
AcDbAlignedDimension
 13
10858.6
 23
8817.513207084727
 33
0.0
 14
9953.600000000001
 24
8187.513207084725
 34
0.0
100
AcDbRotatedDimension
1001
ACAD
1000
DSTYLE
1002
{
1070
   341
1005
0
1002
}
  0
LINE
  5
26509
102
{ACAD_REACTORS
330
2A28D
102
}
330
747D
100
AcDbEntity
  8
部品1
 48
50.0
100
AcDbLine
 10
9532.099999999998
 20
8817.513207084727
 30
0.0
 11
9532.099999999998
 21
8697.513207084728
 31
0.0
  0
LINE
  5
2650A
102
{ACAD_REACTORS
330
2A28D
102
}
330
747D
100
AcDbEntity
  8
部品1
 48
50.0
100
AcDbLine
 10
9332.099999999996
 20
8817.513207084727
 30
0.0
 11
9332.099999999996
 21
8697.513207084728
 31
0.0
  0
DIMENSION
  5
2650C
330
747D
100
AcDbEntity
  8
寸法
 48
50.0
100
AcDbDimension
  2
*D21
 10
9588.531448609051
 20
8817.513207084727
 30
0.0
 11
9488.53144860905
 21
8452.513207084725
 31
0.0
 70
    32
 71
     5
 42
730.0000000000036
  3
INABA_S40G
100
AcDbAlignedDimension
 13
9853.6
 23
8087.513207084723
 33
0.0
 14
9532.099999999998
 24
8817.513207084727
 34
0.0
 50
90.0
100
AcDbRotatedDimension
1001
ACAD
1000
DSTYLE
1002
{
1070
   341
1005
0
1002
}
  0
DIMENSION
  5
2650D
330
747D
100
AcDbEntity
  8
寸法
 48
50.0
100
AcDbDimension
  2
*D22
 10
9123.600000000001
 20
9344.422972733054
 30
0.0
 11
9538.6
 21
9444.422972733056
 31
0.0
 70
    32
 71
     5
 42
830.0
  3
INABA_S40G
100
AcDbAlignedDimension
 13
9953.600000000001
 23
8187.513207084725
 33
0.0
 14
9123.600000000001
 24
8187.513207084725
 34
0.0
100
AcDbRotatedDimension
1001
ACAD
1000
DSTYLE
1002
{
1070
   341
1005
0
1002
}
  0
LINE
  5
26517
330
747D
100
AcDbEntity
  8
センター
 48
2.0
100
AcDbLine
 10
10735.6
 20
8744.513207084729
 30
0.0
 11
10735.6
 21
8644.513207084729
 31
0.0
  0
CIRCLE
  5
26518
330
747D
100
AcDbEntity
  8
部品1
 48
50.0
100
AcDbCircle
 10
10735.6
 20
8694.51320708473
 30
0.0
 40
35.0
  0
DIMENSION
  5
26519
330
747D
100
AcDbEntity
  8
寸法
 48
50.0
100
AcDbDimension
  2
*D23
 10
10738.59999999998
 20
8313.760222016147
 30
0.0
 11
11128.65905511811
 21
8313.760222016147
 31
0.0
 70
   160
 71
     5
 42
120.0000000000218
  3
INABA_S40G
100
AcDbAlignedDimension
 13
10858.6
 23
8587.513207084729
 33
0.0
 14
10738.59999999998
 24
8585.763433814211
 34
0.0
100
AcDbRotatedDimension
1001
ACAD
1000
DSTYLE
1002
{
1070
   341
1005
0
1002
}
  0
LINE
  5
2651C
102
{ACAD_REACTORS
330
2A28D
102
}
330
747D
100
AcDbEntity
  8
部品1
 48
50.0
100
AcDbLine
 10
10858.6
 20
7187.51320708473
 30
0.0
 11
10738.6
 21
7187.51320708473
 31
0.0
  0
LINE
  5
2651D
102
{ACAD_REACTORS
330
2A28D
102
}
330
747D
100
AcDbEntity
  8
部品1
 48
50.0
100
AcDbLine
 10
10858.6
 20
7387.51320708473
 30
0.0
 11
10738.6
 21
7387.51320708473
 31
0.0
  0
DIMENSION
  5
2651E
330
747D
100
AcDbEntity
  8
寸法
 48
50.0
100
AcDbDimension
  2
*D24
 10
10628.6
 20
8313.760222016147
 30
0.0
 11
10392.55275590551
 21
8313.760222016147
 31
0.0
 70
   160
 71
     5
 42
110.0
  3
INABA_S40G
100
AcDbAlignedDimension
 13
10738.6
 23
8585.763433814209
 33
0.0
 14
10628.6
 24
8587.513207084727
 34
0.0
100
AcDbRotatedDimension
1001
ACAD
1000
DSTYLE
1002
{
1070
   341
1005
0
1002
}
  0
LINE
  5
2651F
330
747D
100
AcDbEntity
  8
部品1
 48
50.0
100
AcDbLine
 10
10738.6
 20
8587.513207084732
 30
0.0
 11
10628.6
 21
8587.513207084727
 31
0.0
  0
LINE
  5
26520
330
747D
100
AcDbEntity
  8
部品1
 48
50.0
100
AcDbLine
 10
10628.6
 20
8587.513207084727
 30
0.0
 11
10628.6
 21
8697.513207084726
 31
0.0
  0
LINE
  5
26521
330
747D
100
AcDbEntity
  8
センター
 48
2.0
100
AcDbLine
 10
10685.6
 20
8694.51320708473
 30
0.0
 11
10785.6
 21
8694.51320708473
 31
0.0
  0
DIMENSION
  5
26522
330
747D
100
AcDbEntity
  8
寸法
 48
50.0
100
AcDbDimension
  2
*D25
 10
10735.6
 20
9563.272833626811
 30
0.0
 11
11131.7066017178
 21
9563.272833626811
 31
0.0
 70
   160
 71
     5
 42
123.0
  3
INABA_S40G
100
AcDbAlignedDimension
 13
10858.6
 23
8817.513207084727
 33
0.0
 14
10735.6
 24
8744.513207084729
 34
0.0
100
AcDbRotatedDimension
1001
ACAD
1000
DSTYLE
1002
{
1070
   341
1005
0
1002
}
  0
DIMENSION
  5
26F00
330
747D
100
AcDbEntity
  8
寸法
 48
50.0
100
AcDbDimension
  2
*D26
 10
8463.202780124335
 20
5757.513207084752
 30
0.0
 11
8463.202780124332
 21
5149.027925710512
 31
0.0
 70
   160
  1
扉の出<>
 71
     5
 42
75.00000000000273
  3
INABA_S40G
100
AcDbAlignedDimension
 13
8196.600000000001
 23
5682.513207084749
 33
0.0
 14
8196.600000000008
 24
5757.513207084752
 34
0.0
 50
90.0
100
AcDbRotatedDimension
1001
ACAD
1000
DSTYLE
1002
{
1070
   341
1005
0
1002
}
  0
DIMENSION
  5
26F1A
330
747D
100
AcDbEntity
  8
寸法
 48
50.0
100
AcDbDimension
  2
*D27
 10
4840.714637266787
 20
8817.513207084727
 30
0.0
 11
4740.714637266786
 21
8855.013207084732
 31
0.0
 70
    32
  1
c
 71
     5
 42
75.00000000000546
  3
INABA_S40G
100
AcDbAlignedDimension
 13
5092.657733986179
 23
8892.513207084732
 33
0.0
 14
5582.149705418578
 24
8817.513207084727
 34
0.0
 50
90.0
100
AcDbRotatedDimension
1001
ACAD
1000
DSTYLE
1002
{
1070
   341
1005
0
1002
}
  0
DIMENSION
  5
26F3F
330
747D
100
AcDbEntity
  8
寸法
 48
50.0
100
AcDbDimension
  2
*D28
 10
4840.714637266781
 20
5702.513207084749
 30
0.0
 11
4740.71463726678
 21
5730.01320708474
 31
0.0
 70
    32
  1
b
 71
     5
 42
54.99999999997999
  3
INABA_S40G
100
AcDbAlignedDimension
 13
5588.599999999996
 23
5757.51320708473
 33
0.0
 14
5092.657733986179
 24
5702.513207084749
 34
0.0
 50
90.0
100
AcDbRotatedDimension
1001
ACAD
1000
DSTYLE
1002
{
1070
   341
1005
0
1002
}
  0
DIMENSION
  5
26F64
330
747D
100
AcDbEntity
  8
寸法
 48
50.0
100
AcDbDimension
  2
*D29
 10
10903.6
 20
9775.73352914365
 30
0.0
 11
11174.77462120246
 21
9775.73352914365
 31
0.0
 70
   160
  1
a
 71
     5
 42
45.0
  3
INABA_S40G
100
AcDbAlignedDimension
 13
10858.6
 23
8817.513207084727
 33
0.0
 14
10903.6
 24
9563.272833626809
 34
0.0
100
AcDbRotatedDimension
1001
ACAD
1000
DSTYLE
1002
{
1070
   341
1005
0
1002
}
  0
DIMENSION
  5
26F7E
330
747D
100
AcDbEntity
  8
寸法
 48
50.0
100
AcDbDimension
  2
*D30
 10
5588.6
 20
9775.73352914365
 30
0.0
 11
5272.425378797541
 21
9775.73352914365
 31
0.0
 70
   160
  1
a
 71
     5
 42
44.99999999999181
  3
INABA_S40G
100
AcDbAlignedDimension
 13
5543.600000000008
 23
9563.272833626809
 33
0.0
 14
5588.6
 24
8817.513207084727
 34
0.0
100
AcDbRotatedDimension
1001
ACAD
1000
DSTYLE
1002
{
1070
   341
1005
0
1002
}
  0
DIMENSION
  5
2701E
330
747D
100
AcDbEntity
  8
寸法
 48
50.0
100
AcDbDimension
  2
*D31
 10
6309.18320630424
 20
5877.513207084731
 30
0.0
 11
6309.183206304238
 21
5443.818265880823
 31
0.0
 70
   160
 71
     5
 42
195.0000000000145
  3
INABA_S40G
100
AcDbAlignedDimension
 13
6041.6
 23
5682.513207084717
 33
0.0
 14
6041.599999999998
 24
5877.513207084732
 34
0.0
 50
90.0
100
AcDbRotatedDimension
1001
ACAD
1000
DSTYLE
1002
{
1070
   341
1005
0
1002
}
  0
LEADER
  5
27D16
330
747D
100
AcDbEntity
  8
寸法
 48
50.0
100
AcDbLeader
  3
INABA_S40G
 73
     0
 74
     0
 75
     1
 40
120.0
 41
149.591883092037
 76
     3
 10
6506.193249025702
 20
7129.300250235916
 30
0.0
 10
6605.84844586138
 20
6849.523970821199
 30
0.0
 10
6705.848445861381
 20
6849.523970821199
 30
0.0
340
27D17
1001
ACAD
1000
DSTYLE
1002
{
1070
   341
1005
0
1002
}
  0
MTEXT
  5
27D17
102
{ACAD_REACTORS
330
27D16
102
}
330
747D
100
AcDbEntity
  8
部品1
 62
     7
 48
50.0
100
AcDbMText
 10
6895.440328953417
 20
6949.5239708212
 30
0.0
 40
120.0
 41
0.0
 71
     6
 72
     1
  1
CB
  7
STYLE1
 73
     1
 44
1.0
1001
ACAD
1000
MTEXTBEGIN
1070
    73
1070
     1
1070
    44
1040
1.0
1070
    74
1070
     0
1000
MTEXTEND
  0
DIMENSION
  5
27D82
330
747D
100
AcDbEntity
  8
寸法
 48
50.0
100
AcDbDimension
  2
*D32
 10
9588.531448609051
 20
6487.513207084724
 30
0.0
 11
9488.53144860905
 21
6122.513207084725
 31
0.0
 70
    32
 71
     5
 42
729.9999999999973
  3
INABA_S40G
100
AcDbAlignedDimension
 13
9853.6
 23
5757.513207084727
 33
0.0
 14
9853.6
 24
6487.513207084724
 34
0.0
 50
90.0
100
AcDbRotatedDimension
1001
ACAD
1000
DSTYLE
1002
{
1070
   341
1005
0
1002
}
  0
LINE
  5
29788
330
747D
100
AcDbEntity
  8
部品1
 48
50.0
100
AcDbLine
 10
6593.600000000001
 20
7087.513207084723
 30
0.0
 11
6393.600000000001
 21
7087.513207084723
 31
0.0
  0
LINE
  5
29789
330
747D
100
AcDbEntity
  8
部品1
 48
50.0
100
AcDbLine
 10
6593.600000000001
 20
7487.513207084724
 30
0.0
 11
6393.600000000001
 21
7487.513207084724
 31
0.0
  0
LINE
  5
2978A
330
747D
100
AcDbEntity
  8
部品1
 48
50.0
100
AcDbLine
 10
6393.600000000001
 20
7087.513207084724
 30
0.0
 11
6393.600000000001
 21
7487.513207084724
 31
0.0
  0
LINE
  5
2978B
330
747D
100
AcDbEntity
  8
センター
 48
2.0
100
AcDbLine
 10
6493.6
 20
7337.513207084724
 30
0.0
 11
6493.6
 21
7237.513207084724
 31
0.0
  0
LINE
  5
2978C
330
747D
100
AcDbEntity
  8
センター
 48
2.0
100
AcDbLine
 10
6443.6
 20
7287.513207084725
 30
0.0
 11
6543.600000000001
 21
7287.513207084725
 31
0.0
  0
LINE
  5
2978D
330
747D
100
AcDbEntity
  8
部品1
 48
50.0
100
AcDbLine
 10
6593.600000000001
 20
7087.513207084723
 30
0.0
 11
6593.600000000001
 21
7487.513207084724
 31
0.0
  0
LINE
  5
2978E
330
747D
100
AcDbEntity
  8
部品1
 48
50.0
100
AcDbLine
 10
6593.600000000001
 20
6587.513207084724
 30
0.0
 11
6393.600000000001
 21
6587.513207084724
 31
0.0
  0
LINE
  5
2978F
330
747D
100
AcDbEntity
  8
部品1
 48
50.0
100
AcDbLine
 10
6593.600000000001
 20
6387.513207084722
 30
0.0
 11
6393.600000000001
 21
6387.513207084722
 31
0.0
  0
LINE
  5
29790
330
747D
100
AcDbEntity
  8
センター
 48
2.0
100
AcDbLine
 10
6493.6
 20
6537.513207084725
 30
0.0
 11
6493.6
 21
6437.513207084724
 31
0.0
  0
LINE
  5
29791
330
747D
100
AcDbEntity
  8
センター
 48
2.0
100
AcDbLine
 10
6443.6
 20
6487.513207084724
 30
0.0
 11
6543.600000000001
 21
6487.513207084724
 31
0.0
  0
LINE
  5
29792
330
747D
100
AcDbEntity
  8
部品1
 48
50.0
100
AcDbLine
 10
6393.600000000001
 20
6387.513207084726
 30
0.0
 11
6393.600000000001
 21
6587.513207084724
 31
0.0
  0
LINE
  5
29793
330
747D
100
AcDbEntity
  8
部品1
 48
50.0
100
AcDbLine
 10
6593.600000000001
 20
6387.513207084722
 30
0.0
 11
6593.600000000001
 21
6587.513207084724
 31
0.0
  0
LINE
  5
29794
330
747D
100
AcDbEntity
  8
部品1
 48
50.0
100
AcDbLine
 10
6593.600000000001
 20
8187.513207084725
 30
0.0
 11
6393.600000000001
 21
8187.513207084725
 31
0.0
  0
LINE
  5
29795
330
747D
100
AcDbEntity
  8
センター
 48
2.0
100
AcDbLine
 10
6493.6
 20
8137.513207084724
 30
0.0
 11
6493.6
 21
8037.513207084726
 31
0.0
  0
LINE
  5
29796
330
747D
100
AcDbEntity
  8
センター
 48
2.0
100
AcDbLine
 10
6443.6
 20
8087.513207084723
 30
0.0
 11
6543.600000000001
 21
8087.513207084723
 31
0.0
  0
LINE
  5
29797
330
747D
100
AcDbEntity
  8
部品1
 48
50.0
100
AcDbLine
 10
6593.600000000001
 20
7987.513207084723
 30
0.0
 11
6393.600000000001
 21
7987.513207084723
 31
0.0
  0
LINE
  5
29798
330
747D
100
AcDbEntity
  8
部品1
 48
50.0
100
AcDbLine
 10
6393.600000000001
 20
7987.513207084724
 30
0.0
 11
6393.600000000001
 21
8187.513207084725
 31
0.0
  0
LINE
  5
29799
330
747D
100
AcDbEntity
  8
部品1
 48
50.0
100
AcDbLine
 10
6593.600000000001
 20
7987.513207084723
 30
0.0
 11
6593.600000000001
 21
8187.513207084725
 31
0.0
  0
LINE
  5
297AD
330
747D
100
AcDbEntity
  8
部品1
 48
50.0
100
AcDbLine
 10
7423.6
 20
7987.513207084723
 30
0.0
 11
7423.6
 21
8187.513207084725
 31
0.0
  0
LINE
  5
297AE
330
747D
100
AcDbEntity
  8
部品1
 48
50.0
100
AcDbLine
 10
7223.600000000002
 20
7987.513207084724
 30
0.0
 11
7223.600000000002
 21
8187.513207084725
 31
0.0
  0
LINE
  5
297AF
330
747D
100
AcDbEntity
  8
部品1
 48
50.0
100
AcDbLine
 10
7423.6
 20
7987.513207084723
 30
0.0
 11
7223.600000000002
 21
7987.513207084723
 31
0.0
  0
LINE
  5
297B0
330
747D
100
AcDbEntity
  8
センター
 48
2.0
100
AcDbLine
 10
7273.6
 20
8087.513207084723
 30
0.0
 11
7373.6
 21
8087.513207084723
 31
0.0
  0
LINE
  5
297B1
330
747D
100
AcDbEntity
  8
センター
 48
2.0
100
AcDbLine
 10
7323.6
 20
8137.513207084724
 30
0.0
 11
7323.6
 21
8037.513207084726
 31
0.0
  0
LINE
  5
297B2
330
747D
100
AcDbEntity
  8
部品1
 48
50.0
100
AcDbLine
 10
7423.6
 20
8187.513207084725
 30
0.0
 11
7223.600000000002
 21
8187.513207084725
 31
0.0
  0
LINE
  5
297B3
330
747D
100
AcDbEntity
  8
部品1
 48
50.0
100
AcDbLine
 10
7423.6
 20
6387.513207084722
 30
0.0
 11
7423.6
 21
6587.513207084724
 31
0.0
  0
LINE
  5
297B4
330
747D
100
AcDbEntity
  8
部品1
 48
50.0
100
AcDbLine
 10
7223.600000000002
 20
6387.513207084726
 30
0.0
 11
7223.600000000002
 21
6587.513207084724
 31
0.0
  0
LINE
  5
297B5
330
747D
100
AcDbEntity
  8
センター
 48
2.0
100
AcDbLine
 10
7273.6
 20
6487.513207084724
 30
0.0
 11
7373.6
 21
6487.513207084724
 31
0.0
  0
LINE
  5
297B6
330
747D
100
AcDbEntity
  8
センター
 48
2.0
100
AcDbLine
 10
7323.6
 20
6537.513207084725
 30
0.0
 11
7323.6
 21
6437.513207084724
 31
0.0
  0
LINE
  5
297B7
330
747D
100
AcDbEntity
  8
部品1
 48
50.0
100
AcDbLine
 10
7423.6
 20
6387.513207084722
 30
0.0
 11
7223.600000000002
 21
6387.513207084722
 31
0.0
  0
LINE
  5
297B8
330
747D
100
AcDbEntity
  8
部品1
 48
50.0
100
AcDbLine
 10
7423.6
 20
6587.513207084724
 30
0.0
 11
7223.600000000002
 21
6587.513207084724
 31
0.0
  0
LINE
  5
297B9
330
747D
100
AcDbEntity
  8
部品1
 48
50.0
100
AcDbLine
 10
7423.6
 20
7087.513207084723
 30
0.0
 11
7423.6
 21
7487.513207084724
 31
0.0
  0
LINE
  5
297BA
330
747D
100
AcDbEntity
  8
センター
 48
2.0
100
AcDbLine
 10
7273.6
 20
7287.513207084725
 30
0.0
 11
7373.6
 21
7287.513207084725
 31
0.0
  0
LINE
  5
297BB
330
747D
100
AcDbEntity
  8
センター
 48
2.0
100
AcDbLine
 10
7323.6
 20
7337.513207084724
 30
0.0
 11
7323.6
 21
7237.513207084724
 31
0.0
  0
LINE
  5
297BC
330
747D
100
AcDbEntity
  8
部品1
 48
50.0
100
AcDbLine
 10
7223.600000000002
 20
7087.513207084724
 30
0.0
 11
7223.600000000002
 21
7487.513207084724
 31
0.0
  0
LINE
  5
297BD
330
747D
100
AcDbEntity
  8
部品1
 48
50.0
100
AcDbLine
 10
7423.6
 20
7487.513207084724
 30
0.0
 11
7223.600000000002
 21
7487.513207084724
 31
0.0
  0
LINE
  5
297BE
330
747D
100
AcDbEntity
  8
部品1
 48
50.0
100
AcDbLine
 10
7423.6
 20
7087.513207084723
 30
0.0
 11
7223.600000000002
 21
7087.513207084723
 31
0.0
  0
LINE
  5
297D2
330
747D
100
AcDbEntity
  8
部品1
 48
50.0
100
AcDbLine
 10
8323.6
 20
7187.513207084723
 30
0.0
 11
8123.600000000001
 21
7187.513207084723
 31
0.0
  0
LINE
  5
297D3
330
747D
100
AcDbEntity
  8
部品1
 48
50.0
100
AcDbLine
 10
8323.6
 20
7387.513207084724
 30
0.0
 11
8123.600000000001
 21
7387.513207084724
 31
0.0
  0
LINE
  5
297D4
330
747D
100
AcDbEntity
  8
部品1
 48
50.0
100
AcDbLine
 10
8123.600000000001
 20
7187.513207084724
 30
0.0
 11
8123.600000000001
 21
7387.513207084724
 31
0.0
  0
LINE
  5
297D5
330
747D
100
AcDbEntity
  8
センター
 48
2.0
100
AcDbLine
 10
8223.600000000001
 20
7337.513207084724
 30
0.0
 11
8223.600000000001
 21
7237.513207084724
 31
0.0
  0
LINE
  5
297D6
330
747D
100
AcDbEntity
  8
センター
 48
2.0
100
AcDbLine
 10
8173.6
 20
7287.513207084725
 30
0.0
 11
8273.6
 21
7287.513207084725
 31
0.0
  0
LINE
  5
297D7
330
747D
100
AcDbEntity
  8
部品1
 48
50.0
100
AcDbLine
 10
8323.6
 20
7187.513207084723
 30
0.0
 11
8323.6
 21
7387.513207084724
 31
0.0
  0
LINE
  5
297D8
330
747D
100
AcDbEntity
  8
部品1
 48
50.0
100
AcDbLine
 10
8323.6
 20
6587.513207084724
 30
0.0
 11
8123.600000000001
 21
6587.513207084724
 31
0.0
  0
LINE
  5
297D9
330
747D
100
AcDbEntity
  8
部品1
 48
50.0
100
AcDbLine
 10
8323.6
 20
6387.513207084722
 30
0.0
 11
8123.600000000001
 21
6387.513207084722
 31
0.0
  0
LINE
  5
297DA
330
747D
100
AcDbEntity
  8
センター
 48
2.0
100
AcDbLine
 10
8223.600000000001
 20
6537.513207084725
 30
0.0
 11
8223.600000000001
 21
6437.513207084724
 31
0.0
  0
LINE
  5
297DB
330
747D
100
AcDbEntity
  8
センター
 48
2.0
100
AcDbLine
 10
8173.6
 20
6487.513207084724
 30
0.0
 11
8273.6
 21
6487.513207084724
 31
0.0
  0
LINE
  5
297DC
330
747D
100
AcDbEntity
  8
部品1
 48
50.0
100
AcDbLine
 10
8123.600000000001
 20
6387.513207084726
 30
0.0
 11
8123.600000000001
 21
6587.513207084724
 31
0.0
  0
LINE
  5
297DD
330
747D
100
AcDbEntity
  8
部品1
 48
50.0
100
AcDbLine
 10
8323.6
 20
6387.513207084722
 30
0.0
 11
8323.6
 21
6587.513207084724
 31
0.0
  0
LINE
  5
297DE
330
747D
100
AcDbEntity
  8
部品1
 48
50.0
100
AcDbLine
 10
8323.6
 20
8187.513207084725
 30
0.0
 11
8123.600000000001
 21
8187.513207084725
 31
0.0
  0
LINE
  5
297DF
330
747D
100
AcDbEntity
  8
センター
 48
2.0
100
AcDbLine
 10
8223.600000000001
 20
8137.513207084724
 30
0.0
 11
8223.600000000001
 21
8037.513207084726
 31
0.0
  0
LINE
  5
297E0
330
747D
100
AcDbEntity
  8
センター
 48
2.0
100
AcDbLine
 10
8173.6
 20
8087.513207084723
 30
0.0
 11
8273.6
 21
8087.513207084723
 31
0.0
  0
LINE
  5
297E1
330
747D
100
AcDbEntity
  8
部品1
 48
50.0
100
AcDbLine
 10
8323.6
 20
7987.513207084723
 30
0.0
 11
8123.600000000001
 21
7987.513207084723
 31
0.0
  0
LINE
  5
297E2
330
747D
100
AcDbEntity
  8
部品1
 48
50.0
100
AcDbLine
 10
8123.600000000001
 20
7987.513207084724
 30
0.0
 11
8123.600000000001
 21
8187.513207084725
 31
0.0
  0
LINE
  5
297E3
330
747D
100
AcDbEntity
  8
部品1
 48
50.0
100
AcDbLine
 10
8323.6
 20
7987.513207084723
 30
0.0
 11
8323.6
 21
8187.513207084725
 31
0.0
  0
LINE
  5
297F6
330
747D
100
AcDbEntity
  8
部品1
 48
50.0
100
AcDbLine
 10
9223.600000000001
 20
7087.513207084723
 30
0.0
 11
9023.6
 21
7087.513207084723
 31
0.0
  0
LINE
  5
297F7
330
747D
100
AcDbEntity
  8
部品1
 48
50.0
100
AcDbLine
 10
9223.600000000001
 20
7487.513207084724
 30
0.0
 11
9023.6
 21
7487.513207084724
 31
0.0
  0
LINE
  5
297F8
330
747D
100
AcDbEntity
  8
部品1
 48
50.0
100
AcDbLine
 10
9023.6
 20
7087.513207084724
 30
0.0
 11
9023.6
 21
7487.513207084724
 31
0.0
  0
LINE
  5
297F9
330
747D
100
AcDbEntity
  8
センター
 48
2.0
100
AcDbLine
 10
9123.600000000001
 20
7337.513207084724
 30
0.0
 11
9123.600000000001
 21
7237.513207084724
 31
0.0
  0
LINE
  5
297FA
330
747D
100
AcDbEntity
  8
センター
 48
2.0
100
AcDbLine
 10
9073.6
 20
7287.513207084725
 30
0.0
 11
9173.6
 21
7287.513207084725
 31
0.0
  0
LINE
  5
297FB
330
747D
100
AcDbEntity
  8
部品1
 48
50.0
100
AcDbLine
 10
9223.600000000001
 20
7087.513207084723
 30
0.0
 11
9223.600000000001
 21
7487.513207084724
 31
0.0
  0
LINE
  5
297FC
330
747D
100
AcDbEntity
  8
部品1
 48
50.0
100
AcDbLine
 10
9223.600000000001
 20
6587.513207084724
 30
0.0
 11
9023.6
 21
6587.513207084724
 31
0.0
  0
LINE
  5
297FD
330
747D
100
AcDbEntity
  8
部品1
 48
50.0
100
AcDbLine
 10
9223.600000000001
 20
6387.513207084722
 30
0.0
 11
9023.6
 21
6387.513207084722
 31
0.0
  0
LINE
  5
297FE
330
747D
100
AcDbEntity
  8
センター
 48
2.0
100
AcDbLine
 10
9123.600000000001
 20
6537.513207084725
 30
0.0
 11
9123.600000000001
 21
6437.513207084724
 31
0.0
  0
LINE
  5
297FF
330
747D
100
AcDbEntity
  8
センター
 48
2.0
100
AcDbLine
 10
9073.6
 20
6487.513207084724
 30
0.0
 11
9173.6
 21
6487.513207084724
 31
0.0
  0
LINE
  5
29800
330
747D
100
AcDbEntity
  8
部品1
 48
50.0
100
AcDbLine
 10
9023.6
 20
6387.513207084726
 30
0.0
 11
9023.6
 21
6587.513207084724
 31
0.0
  0
LINE
  5
29801
330
747D
100
AcDbEntity
  8
部品1
 48
50.0
100
AcDbLine
 10
9223.600000000001
 20
6387.513207084722
 30
0.0
 11
9223.600000000001
 21
6587.513207084724
 31
0.0
  0
LINE
  5
29802
330
747D
100
AcDbEntity
  8
部品1
 48
50.0
100
AcDbLine
 10
9223.600000000001
 20
8187.513207084725
 30
0.0
 11
9023.6
 21
8187.513207084725
 31
0.0
  0
LINE
  5
29803
330
747D
100
AcDbEntity
  8
センター
 48
2.0
100
AcDbLine
 10
9123.600000000001
 20
8137.513207084724
 30
0.0
 11
9123.600000000001
 21
8037.513207084726
 31
0.0
  0
LINE
  5
29804
330
747D
100
AcDbEntity
  8
センター
 48
2.0
100
AcDbLine
 10
9073.6
 20
8087.513207084723
 30
0.0
 11
9173.6
 21
8087.513207084723
 31
0.0
  0
LINE
  5
29805
330
747D
100
AcDbEntity
  8
部品1
 48
50.0
100
AcDbLine
 10
9223.600000000001
 20
7987.513207084723
 30
0.0
 11
9023.6
 21
7987.513207084723
 31
0.0
  0
LINE
  5
29806
330
747D
100
AcDbEntity
  8
部品1
 48
50.0
100
AcDbLine
 10
9023.6
 20
7987.513207084724
 30
0.0
 11
9023.6
 21
8187.513207084725
 31
0.0
  0
LINE
  5
29807
330
747D
100
AcDbEntity
  8
部品1
 48
50.0
100
AcDbLine
 10
9223.600000000001
 20
7987.513207084723
 30
0.0
 11
9223.600000000001
 21
8187.513207084725
 31
0.0
  0
LINE
  5
2981A
330
747D
100
AcDbEntity
  8
部品1
 48
50.0
100
AcDbLine
 10
10053.6
 20
7987.513207084723
 30
0.0
 11
10053.6
 21
8187.513207084725
 31
0.0
  0
LINE
  5
2981B
330
747D
100
AcDbEntity
  8
部品1
 48
50.0
100
AcDbLine
 10
9853.6
 20
7987.513207084724
 30
0.0
 11
9853.6
 21
8187.513207084725
 31
0.0
  0
LINE
  5
2981C
330
747D
100
AcDbEntity
  8
部品1
 48
50.0
100
AcDbLine
 10
10053.6
 20
7987.513207084723
 30
0.0
 11
9853.6
 21
7987.513207084723
 31
0.0
  0
LINE
  5
2981D
330
747D
100
AcDbEntity
  8
センター
 48
2.0
100
AcDbLine
 10
9903.6
 20
8087.513207084723
 30
0.0
 11
10003.6
 21
8087.513207084723
 31
0.0
  0
LINE
  5
2981E
330
747D
100
AcDbEntity
  8
センター
 48
2.0
100
AcDbLine
 10
9953.600000000001
 20
8137.513207084724
 30
0.0
 11
9953.600000000001
 21
8037.513207084726
 31
0.0
  0
LINE
  5
2981F
330
747D
100
AcDbEntity
  8
部品1
 48
50.0
100
AcDbLine
 10
10053.6
 20
8187.513207084725
 30
0.0
 11
9853.6
 21
8187.513207084725
 31
0.0
  0
LINE
  5
29820
330
747D
100
AcDbEntity
  8
部品1
 48
50.0
100
AcDbLine
 10
10053.6
 20
6387.513207084722
 30
0.0
 11
10053.6
 21
6587.513207084724
 31
0.0
  0
LINE
  5
29821
330
747D
100
AcDbEntity
  8
部品1
 48
50.0
100
AcDbLine
 10
9853.6
 20
6387.513207084726
 30
0.0
 11
9853.6
 21
6587.513207084724
 31
0.0
  0
LINE
  5
29822
330
747D
100
AcDbEntity
  8
センター
 48
2.0
100
AcDbLine
 10
9903.6
 20
6487.513207084724
 30
0.0
 11
10003.6
 21
6487.513207084724
 31
0.0
  0
LINE
  5
29823
330
747D
100
AcDbEntity
  8
センター
 48
2.0
100
AcDbLine
 10
9953.600000000001
 20
6537.513207084725
 30
0.0
 11
9953.600000000001
 21
6437.513207084724
 31
0.0
  0
LINE
  5
29824
330
747D
100
AcDbEntity
  8
部品1
 48
50.0
100
AcDbLine
 10
10053.6
 20
6387.513207084722
 30
0.0
 11
9853.6
 21
6387.513207084722
 31
0.0
  0
LINE
  5
29825
330
747D
100
AcDbEntity
  8
部品1
 48
50.0
100
AcDbLine
 10
10053.6
 20
6587.513207084724
 30
0.0
 11
9853.6
 21
6587.513207084724
 31
0.0
  0
LINE
  5
29826
330
747D
100
AcDbEntity
  8
部品1
 48
50.0
100
AcDbLine
 10
10053.6
 20
7087.513207084723
 30
0.0
 11
10053.6
 21
7487.513207084724
 31
0.0
  0
LINE
  5
29827
330
747D
100
AcDbEntity
  8
センター
 48
2.0
100
AcDbLine
 10
9903.6
 20
7287.513207084725
 30
0.0
 11
10003.6
 21
7287.513207084725
 31
0.0
  0
LINE
  5
29828
330
747D
100
AcDbEntity
  8
センター
 48
2.0
100
AcDbLine
 10
9953.600000000001
 20
7337.513207084724
 30
0.0
 11
9953.600000000001
 21
7237.513207084724
 31
0.0
  0
LINE
  5
29829
330
747D
100
AcDbEntity
  8
部品1
 48
50.0
100
AcDbLine
 10
9853.6
 20
7087.513207084724
 30
0.0
 11
9853.6
 21
7487.513207084724
 31
0.0
  0
LINE
  5
2982A
330
747D
100
AcDbEntity
  8
部品1
 48
50.0
100
AcDbLine
 10
10053.6
 20
7487.513207084724
 30
0.0
 11
9853.6
 21
7487.513207084724
 31
0.0
  0
LINE
  5
2982B
330
747D
100
AcDbEntity
  8
部品1
 48
50.0
100
AcDbLine
 10
10053.6
 20
7087.513207084723
 30
0.0
 11
9853.6
 21
7087.513207084723
 31
0.0
  0
DIMENSION
  5
29862
330
747D
100
AcDbEntity
  8
寸法
 48
50.0
100
AcDbDimension
  2
*D33
 10
9588.531448609051
 20
7287.513207084725
 30
0.0
 11
9488.53144860905
 21
6887.513207084726
 31
0.0
 70
    32
 71
     5
 42
800.0000000000017
  3
INABA_S40G
100
AcDbAlignedDimension
 13
9853.6
 23
6487.513207084724
 33
0.0
 14
9853.6
 24
7287.513207084725
 34
0.0
 50
90.0
100
AcDbRotatedDimension
1001
ACAD
1000
DSTYLE
1002
{
1070
   341
1005
0
1002
}
  0
LINE
  5
29AF5
330
747D
100
AcDbEntity
  8
想像線
 48
10.0
100
AcDbLine
 10
9678.182651863522
 20
5702.513207084749
 30
0.0
 11
10903.6
 21
5702.513207084748
 31
0.0
  0
LINE
  5
29AF6
330
747D
100
AcDbEntity
  8
想像線
 48
10.0
100
AcDbLine
 10
9678.182651863522
 20
8892.51320708473
 30
0.0
 11
10903.6
 21
8892.513207084729
 31
0.0
  0
DIMENSION
  5
29AF7
330
747D
100
AcDbEntity
  8
寸法
 48
50.0
100
AcDbDimension
  2
*D34
 10
6041.6
 20
5197.668192742538
 30
0.0
 11
7119.1
 21
5297.68000376616
 31
0.0
 70
    32
  1
扉の幅 <>
 71
     5
 42
2155.0
  3
INABA_S40G
100
AcDbAlignedDimension
 13
8196.600000000001
 23
5682.513207084749
 33
0.0
 14
6041.6
 24
5682.513207084734
 34
0.0
100
AcDbRotatedDimension
1001
ACAD
1000
DSTYLE
1002
{
1070
   341
1005
0
1002
}
  0
TEXT
  5
29AF8
330
747D
100
AcDbEntity
  8
寸法
 62
     7
100
AcDbText
 10
6414.250754363519
 20
4598.684694569838
 30
0.0
 40
120.0
  1
扉位置 (2155x75)
  7
STYLE1
100
AcDbText
  0
SOLID
  5
29AF9
330
747D
100
AcDbEntity
  8
寸法
 48
50.0
100
AcDbTrace
 10
-6621.736054003149
 20
5556.922178179834
 30
0.0
 11
-6638.645259673137
 21
5682.513207084721
 31
0.0
 12
-6581.917839529673
 22
5569.194949148744
 32
0.0
 13
-6581.917839529673
 23
5569.194949148744
 33
0.0
210
0.0
220
0.0
230
-1.0
1001
ACAD
1000
DSTYLE
1002
{
1070
   341
1005
0
1070
    40
1040
1.0
1070
   343
1005
0
1070
   344
1005
0
1002
}
  0
LWPOLYLINE
  5
29AFA
330
747D
100
AcDbEntity
  8
寸法
 48
50.0
100
AcDbPolyline
 90
        3
 70
     0
 43
0.0
 10
-6638.645259673137
 20
5682.513207084721
 10
-6297.634795170766
 20
4576.416747021517
 10
-9111.699208102409
 20
4576.416747021517
210
0.0
220
0.0
230
-1.0
1001
ACAD
1000
DSTYLE
1002
{
1070
   341
1005
0
1070
    40
1040
1.0
1070
   343
1005
0
1070
   344
1005
0
1002
}
  0
TEXT
  5
29AFB
330
747D
100
AcDbEntity
  8
寸法
 62
     7
100
AcDbText
 10
6414.250754363519
 20
4427.080931686512
 30
0.0
 40
120.0
  1
扉の位置に合わせた基礎形状として下さい。
  7
STYLE1
100
AcDbText
  0
LINE
  5
2A020
330
747D
100
AcDbEntity
  8
細線
 48
50.0
100
AcDbLine
 10
9816.193867276588
 20
1585.692569008819
 30
0.0
 11
9808.155391503648
 21
1615.692569008819
 31
0.0
  0
LINE
  5
2A021
330
747D
100
AcDbEntity
  8
細線
100
AcDbLine
 10
9604.44348578153
 20
1615.692569008823
 30
0.0
 11
9719.067130348209
 21
1730.316213575509
 31
0.0
  0
LINE
  5
2A022
330
747D
100
AcDbEntity
  8
細線
100
AcDbLine
 10
9562.017078910338
 20
1615.692569008823
 30
0.0
 11
9676.640723477021
 21
1730.316213575509
 31
0.0
  0
LINE
  5
2A023
330
747D
100
AcDbEntity
  8
細線
100
AcDbLine
 10
9646.869892652718
 20
1615.692569008823
 30
0.0
 11
9761.493537219401
 21
1730.316213575509
 31
0.0
  0
LINE
  5
2A024
330
747D
100
AcDbEntity
  8
細線
 48
50.0
100
AcDbLine
 10
9618.973754908461
 20
1585.692569008821
 30
0.0
 11
9610.935279135517
 21
1615.692569008821
 31
0.0
  0
LINE
  5
2A025
330
747D
100
AcDbEntity
  8
細線
 48
50.0
100
AcDbLine
 10
9717.583811092529
 20
1585.692569008819
 30
0.0
 11
9709.545335319589
 21
1615.692569008819
 31
0.0
  0
LINE
  5
2A026
330
747D
100
AcDbEntity
  8
部品1
100
AcDbLine
 10
9720.721585786169
 20
2030.316213575509
 30
0.0
 11
9720.721585786169
 21
1730.316213575509
 31
0.0
  0
LINE
  5
2A027
330
747D
100
AcDbEntity
  8
細線
 48
50.0
100
AcDbLine
 10
9421.753642540345
 20
1585.692569008821
 30
0.0
 11
9413.715166767415
 21
1615.692569008821
 31
0.0
  0
LINE
  5
2A028
330
747D
100
AcDbEntity
  8
細線
 48
50.0
100
AcDbLine
 10
9520.363698724407
 20
1585.692569008821
 30
0.0
 11
9512.32522295148
 21
1615.692569008821
 31
0.0
  0
LINE
  5
2A029
330
747D
100
AcDbEntity
  8
細線
100
AcDbLine
 10
9154.443485781529
 20
1615.692569008822
 30
0.0
 11
9269.067130348204
 21
1730.316213575509
 31
0.0
  0
LINE
  5
2A02A
330
747D
100
AcDbEntity
  8
細線
100
AcDbLine
 10
9196.869892652719
 20
1615.692569008822
 30
0.0
 11
9311.493537219398
 21
1730.316213575509
 31
0.0
  0
LINE
  5
2A02B
330
747D
100
AcDbEntity
  8
細線
 48
50.0
100
AcDbLine
 10
9323.143586356287
 20
1585.692569008821
 30
0.0
 11
9315.105110583358
 21
1615.692569008821
 31
0.0
  0
LINE
  5
2A02C
330
747D
100
AcDbEntity
  8
細線
 48
50.0
100
AcDbLine
 10
9224.533530172237
 20
1585.692569008821
 30
0.0
 11
9216.495054399301
 21
1615.692569008821
 31
0.0
  0
LINE
  5
2A02D
330
747D
100
AcDbEntity
  8
細線
100
AcDbLine
 10
9639.784897544911
 20
1730.316213575509
 30
0.0
 11
9339.784897544909
 21
2030.316213575509
 31
0.0
  0
LINE
  5
2A02E
330
747D
100
AcDbEntity
  8
細線
100
AcDbLine
 10
9703.424507851689
 20
1730.31621357551
 30
0.0
 11
9403.424507851696
 21
2030.316213575509
 31
0.0
  0
LEADER
  5
2A02F
330
747D
100
AcDbEntity
  8
寸法
 48
50.0
100
AcDbLeader
  3
INABA_S40G
 73
     0
 74
     0
 75
     1
 40
150.0
 41
231.9898538650463
 76
     3
 10
9634.127100306068
 20
2030.316213575509
 30
0.0
 10
9723.049858598129
 20
2236.749114426931
 30
0.0
 10
9823.049858598128
 20
2236.749114426931
 30
0.0
340
2A030
1001
ACAD
1000
DSTYLE
1002
{
1070
   341
1005
0
1002
}
  0
MTEXT
  5
2A030
102
{ACAD_REACTORS
330
2A02F
102
}
330
747D
100
AcDbEntity
  8
寸法
 62
     7
 48
50.0
100
AcDbMText
 10
9863.049858598129
 20
2351.749114426931
 30
0.0
 40
150.0
 41
1.0
 71
     4
 72
     1
  1
\A1;C.B
  7
STYLE1
 73
     1
 44
1.0
1001
ACAD
1000
MTEXTBEGIN
1070
    73
1070
     1
1070
    44
1040
1.0
1070
    74
1070
     0
1000
MTEXTEND
  0
LINE
  5
2A031
330
747D
100
AcDbEntity
  8
細線
 48
50.0
100
AcDbLine
 10
9789.398948033477
 20
1485.692569008819
 30
0.0
 11
9797.437423806409
 21
1455.692569008818
 31
0.0
  0
LINE
  5
2A032
330
747D
100
AcDbEntity
  8
細線
 48
50.0
100
AcDbLine
 10
9592.178835665356
 20
1485.692569008821
 30
0.0
 11
9600.217311438301
 21
1455.692569008821
 31
0.0
  0
LINE
  5
2A033
330
747D
100
AcDbEntity
  8
細線
 48
50.0
100
AcDbLine
 10
9690.788891849418
 20
1485.692569008819
 30
0.0
 11
9698.827367622348
 21
1455.692569008818
 31
0.0
  0
LINE
  5
2A034
330
747D
100
AcDbEntity
  8
細線
 48
50.0
100
AcDbLine
 10
9394.958723297238
 20
1485.692569008821
 30
0.0
 11
9402.997199070169
 21
1455.692569008821
 31
0.0
  0
LINE
  5
2A035
330
747D
100
AcDbEntity
  8
細線
 48
50.0
100
AcDbLine
 10
9493.568779481298
 20
1485.692569008821
 30
0.0
 11
9501.607255254228
 21
1455.692569008821
 31
0.0
  0
LINE
  5
2A036
330
747D
100
AcDbEntity
  8
細線
 48
50.0
100
AcDbLine
 10
9197.738610929128
 20
1485.692569008821
 30
0.0
 11
9205.777086702058
 21
1455.692569008821
 31
0.0
  0
LINE
  5
2A037
330
747D
100
AcDbEntity
  8
細線
 48
50.0
100
AcDbLine
 10
9296.348667113177
 20
1485.692569008821
 30
0.0
 11
9304.38714288612
 21
1455.692569008821
 31
0.0
  0
LINE
  5
2A038
330
747D
100
AcDbEntity
  8
細線
 48
50.0
100
AcDbLine
 10
9386.920247524299
 20
1455.692569008818
 30
0.0
 11
9429.792118313278
 21
1615.692569008819
 31
0.0
  0
LINE
  5
2A039
330
747D
100
AcDbEntity
  8
細線
 48
50.0
100
AcDbLine
 10
9189.700135156186
 20
1455.692569008821
 30
0.0
 11
9232.572005945158
 21
1615.692569008821
 31
0.0
  0
LINE
  5
2A03A
330
747D
100
AcDbEntity
  8
細線
 48
50.0
100
AcDbLine
 10
9288.310191340235
 20
1455.692569008821
 30
0.0
 11
9331.18206212922
 21
1615.692569008819
 31
0.0
  0
LINE
  5
2A03B
330
747D
100
AcDbEntity
  8
細線
 48
50.0
100
AcDbLine
 10
9584.140359892415
 20
1455.692569008818
 30
0.0
 11
9627.012230681389
 21
1615.692569008821
 31
0.0
  0
LINE
  5
2A03C
330
747D
100
AcDbEntity
  8
細線
 48
50.0
100
AcDbLine
 10
9485.530303708356
 20
1455.692569008821
 30
0.0
 11
9528.40217449734
 21
1615.692569008819
 31
0.0
  0
LINE
  5
2A03D
330
747D
100
AcDbEntity
  8
細線
 48
50.0
100
AcDbLine
 10
9781.36047226053
 20
1455.692569008818
 30
0.0
 11
9824.232343049516
 21
1615.692569008817
 31
0.0
  0
LINE
  5
2A03E
330
747D
100
AcDbEntity
  8
細線
 48
50.0
100
AcDbLine
 10
9682.75041607648
 20
1455.692569008817
 30
0.0
 11
9725.622286865458
 21
1615.692569008817
 31
0.0
  0
LINE
  5
2A03F
330
747D
100
AcDbEntity
  8
部品1
100
AcDbLine
 10
9870.721585786169
 20
1730.316213575509
 30
0.0
 11
9870.721585786169
 21
1455.692569008821
 31
0.0
  0
LINE
  5
2A040
330
747D
100
AcDbEntity
  8
部品1
100
AcDbLine
 10
10461.2325136053
 20
422.4612355484754
 30
0.0
 11
10461.2325136053
 21
3681.530738296566
 31
0.0
  0
TEXT
  5
2A041
330
747D
100
AcDbEntity
  8
部品1
100
AcDbText
 10
6570.686926023924
 20
3457.090823357281
 30
0.0
 40
150.0
  1
基礎詳細
  7
STYLE2
100
AcDbText
  0
LINE
  5
2A042
330
747D
100
AcDbEntity
  8
細線
 48
50.0
100
AcDbLine
 10
9125.923473988169
 20
1585.692569008821
 30
0.0
 11
9117.884998215236
 21
1615.692569008821
 31
0.0
  0
LINE
  5
2A043
330
747D
100
AcDbEntity
  8
細線
 48
50.0
100
AcDbLine
 10
9027.313417804107
 20
1585.692569008821
 30
0.0
 11
9019.274942031168
 21
1615.692569008821
 31
0.0
  0
LINE
  5
2A044
330
747D
100
AcDbEntity
  8
部品1
100
AcDbLine
 10
9120.721585786169
 20
1730.316213575509
 30
0.0
 11
9120.721585786169
 21
2030.316213575509
 31
0.0
  0
LINE
  5
2A045
330
747D
100
AcDbEntity
  8
細線
 48
50.0
100
AcDbLine
 10
9000.518498561
 20
1485.692569008821
 30
0.0
 11
9008.556974333927
 21
1455.692569008821
 31
0.0
  0
LINE
  5
2A046
330
747D
100
AcDbEntity
  8
細線
 48
50.0
100
AcDbLine
 10
9099.128554745057
 20
1485.692569008821
 30
0.0
 11
9107.167030517985
 21
1455.692569008821
 31
0.0
  0
LINE
  5
2A047
330
747D
100
AcDbEntity
  8
細線
 48
50.0
100
AcDbLine
 10
7531.579932020973
 20
1020.316213575507
 30
0.0
 11
7523.541456248041
 21
1050.316213575507
 31
0.0
  0
LINE
  5
2A048
330
747D
100
AcDbEntity
  8
部品1
 48
50.0
100
AcDbLine
 10
7586.107650530556
 20
1050.316213575507
 30
0.0
 11
7586.107650530556
 21
890.3162135755078
 31
0.0
  0
LINE
  5
2A049
330
747D
100
AcDbEntity
  8
細線
 48
50.0
100
AcDbLine
 10
8992.480022788056
 20
1455.692569008821
 30
0.0
 11
9035.351893577034
 21
1615.692569008821
 31
0.0
  0
LINE
  5
2A04A
330
747D
100
AcDbEntity
  8
部品1
100
AcDbLine
 10
8970.72158578617
 20
1455.692569008817
 30
0.0
 11
8970.72158578617
 21
1730.316213575509
 31
0.0
  0
TEXT
  5
2A04B
330
747D
100
AcDbEntity
  8
部品1
 48
50.0
100
AcDbText
 10
8495.379957460869
 20
1396.816537778872
 30
0.0
 40
100.0
  1
ボルトの出
 50
90.0
  7
STYLE2
100
AcDbText
  0
LINE
  5
2A04C
330
747D
100
AcDbEntity
  8
細線
 48
50.0
100
AcDbLine
 10
9091.090078972118
 20
1455.692569008818
 30
0.0
 11
9133.961949761099
 21
1615.692569008819
 31
0.0
  0
LINE
  5
2A04D
330
747D
100
AcDbEntity
  8
部品1
 48
50.0
100
AcDbLine
 10
7105.357650530553
 20
2468.910314961938
 30
0.0
 11
7125.357650530553
 21
2478.910314961937
 31
0.0
  0
LINE
  5
2A04E
330
747D
100
AcDbEntity
  8
部品1
 48
50.0
100
AcDbLine
 10
7105.357650530553
 20
2508.910314961938
 30
0.0
 11
7125.357650530553
 21
2518.910314961938
 31
0.0
  0
LINE
  5
2A04F
330
747D
100
AcDbEntity
  8
細線
 48
50.0
100
AcDbLine
 10
7105.357650530553
 20
2468.910314961938
 30
0.0
 11
7105.357650530553
 21
2508.910314961938
 31
0.0
  0
LINE
  5
2A050
330
747D
100
AcDbEntity
  8
部品1
 48
50.0
100
AcDbLine
 10
7125.357650530553
 20
2478.910314961937
 30
0.0
 11
7125.357650530553
 21
2518.910314961938
 31
0.0
  0
LINE
  5
2A051
330
747D
100
AcDbEntity
  8
部品1
 48
50.0
100
AcDbLine
 10
7105.357650530553
 20
2528.910314961937
 30
0.0
 11
7125.357650530553
 21
2518.910314961938
 31
0.0
  0
LINE
  5
2A052
330
747D
100
AcDbEntity
  8
部品1
 48
50.0
100
AcDbLine
 10
7135.357650530552
 20
2354.720324130849
 30
0.0
 11
7135.357650530552
 21
2366.720324130849
 31
0.0
  0
LINE
  5
2A053
330
747D
100
AcDbEntity
  8
細線
 48
50.0
100
AcDbLine
 10
7065.357650530552
 20
2468.910314961938
 30
0.0
 11
7065.357650530552
 21
2508.910314961938
 31
0.0
  0
LINE
  5
2A054
330
747D
100
AcDbEntity
  8
部品1
 48
50.0
100
AcDbLine
 10
7045.357650530553
 20
2478.910314961937
 30
0.0
 11
7045.357650530553
 21
2518.910314961938
 31
0.0
  0
LINE
  5
2A055
330
747D
100
AcDbEntity
  8
部品1
 48
50.0
100
AcDbLine
 10
7045.357650530553
 20
2518.910314961938
 30
0.0
 11
7065.357650530552
 21
2508.910314961938
 31
0.0
  0
LINE
  5
2A056
330
747D
100
AcDbEntity
  8
部品1
 48
50.0
100
AcDbLine
 10
7045.357650530553
 20
2478.910314961937
 30
0.0
 11
7065.357650530552
 21
2468.910314961938
 31
0.0
  0
LINE
  5
2A057
330
747D
100
AcDbEntity
  8
部品1
 48
50.0
100
AcDbLine
 10
7045.357650530553
 20
2518.910314961938
 30
0.0
 11
7065.357650530552
 21
2528.910314961937
 31
0.0
  0
LINE
  5
2A058
330
747D
100
AcDbEntity
  8
部品1
100
AcDbLine
 10
6943.607650530553
 20
2102.316213575509
 30
0.0
 11
6993.107650530553
 21
2102.316213575509
 31
0.0
  0
ARC
  5
2A059
330
747D
100
AcDbEntity
  8
部品1
100
AcDbCircle
 10
6940.232650530552
 20
2166.441213575505
 30
0.0
 40
3.375
100
AcDbArc
 50
0.0
 51
90.0
  0
LINE
  5
2A05A
330
747D
100
AcDbEntity
  8
部品1
100
AcDbLine
 10
6943.607650530553
 20
2166.441213575505
 30
0.0
 11
6943.607650530553
 21
2102.316213575509
 31
0.0
  0
LINE
  5
2A05B
330
747D
100
AcDbEntity
  8
部品1
 48
50.0
100
AcDbLine
 10
7035.357650530553
 20
2366.720324130849
 30
0.0
 11
7035.357650530553
 21
2354.720324130849
 31
0.0
  0
LINE
  5
2A05C
330
747D
100
AcDbEntity
  8
部品1
100
AcDbLine
 10
6972.857650530553
 20
2117.266213575509
 30
0.0
 11
7008.057650530556
 21
2117.266213575509
 31
0.0
  0
ARC
  5
2A05D
330
747D
100
AcDbEntity
  8
部品1
100
AcDbCircle
 10
6972.857650530553
 20
2113.89121357551
 30
0.0
 40
3.375
100
AcDbArc
 50
90.0
 51
180.0
  0
ARC
  5
2A05E
330
747D
100
AcDbEntity
  8
部品1
100
AcDbCircle
 10
7008.057650530556
 20
2113.89121357551
 30
0.0
 40
3.375
100
AcDbArc
 50
0.0
 51
90.0
  0
LINE
  5
2A05F
330
747D
100
AcDbEntity
  8
部品1
100
AcDbLine
 10
7074.107650530553
 20
2091.766213575509
 30
0.0
 11
7096.607650530552
 21
2091.766213575509
 31
0.0
  0
LINE
  5
2A060
330
747D
100
AcDbEntity
  8
部品1
100
AcDbLine
 10
7078.607650530553
 20
2096.266213575509
 30
0.0
 11
7092.107650530555
 21
2096.266213575509
 31
0.0
  0
ARC
  5
2A061
330
747D
100
AcDbEntity
  8
部品1
100
AcDbCircle
 10
6993.107650530553
 20
2098.941213575509
 30
0.0
 40
3.375
100
AcDbArc
 50
0.0
 51
90.0
  0
LINE
  5
2A062
330
747D
100
AcDbEntity
  8
部品1
100
AcDbLine
 10
6969.482650530553
 20
2113.89121357551
 30
0.0
 11
6969.482650530553
 21
2092.516213575509
 31
0.0
  0
ARC
  5
2A063
330
747D
100
AcDbEntity
  8
部品1
100
AcDbCircle
 10
6887.357650530553
 20
2166.44121357551
 30
0.0
 40
3.375
100
AcDbArc
 50
90.0
 51
180.0
  0
LINE
  5
2A064
330
747D
100
AcDbEntity
  8
部品1
100
AcDbLine
 10
6883.982650530552
 20
2156.316213575509
 30
0.0
 11
6883.982650530552
 21
2156.316213575509
 31
0.0
  0
LINE
  5
2A065
330
747D
100
AcDbEntity
  8
部品1
100
AcDbLine
 10
6883.982650530552
 20
2156.316213575509
 30
0.0
 11
6883.982650530552
 21
2166.44121357551
 31
0.0
  0
LINE
  5
2A066
330
747D
100
AcDbEntity
  8
部品1
100
AcDbLine
 10
6880.607650530553
 20
2142.816213575509
 30
0.0
 11
6880.607650530553
 21
2152.941213575509
 31
0.0
  0
ARC
  5
2A067
330
747D
100
AcDbEntity
  8
部品1
100
AcDbCircle
 10
6883.982650530552
 20
2152.941213575509
 30
0.0
 40
3.375
100
AcDbArc
 50
90.0
 51
180.0
  0
LINE
  5
2A068
330
747D
100
AcDbEntity
  8
部品1
100
AcDbLine
 10
6829.982650530553
 20
2129.316213575509
 30
0.0
 11
6829.982650530553
 21
2139.441213575509
 31
0.0
  0
ARC
  5
2A069
330
747D
100
AcDbEntity
  8
部品1
100
AcDbCircle
 10
6833.357650530553
 20
2139.441213575509
 30
0.0
 40
3.375
100
AcDbArc
 50
90.0
 51
180.0
  0
ARC
  5
2A06A
330
747D
100
AcDbEntity
  8
部品1
100
AcDbCircle
 10
6819.857650530552
 20
2123.306093203894
 30
0.0
 40
3.375
100
AcDbArc
 50
104.0362434679075
 51
180.0
  0
LINE
  5
2A06B
330
747D
100
AcDbEntity
  8
部品1
100
AcDbLine
 10
6819.039092796053
 20
2126.580324141885
 30
0.0
 11
6829.982650530553
 21
2129.316213575509
 31
0.0
  0
LINE
  5
2A06C
330
747D
100
AcDbEntity
  8
部品1
100
AcDbLine
 10
6833.357650530553
 20
2142.816213575509
 30
0.0
 11
6880.607650530553
 21
2142.816213575509
 31
0.0
  0
LINE
  5
2A06D
330
747D
100
AcDbEntity
  8
部品1
100
AcDbLine
 10
6887.357650530553
 20
2169.816213575508
 30
0.0
 11
6940.232650530552
 21
2169.816213575505
 31
0.0
  0
ELLIPSE
  5
2A06E
330
747D
100
AcDbEntity
  8
部品1
 48
50.0
100
AcDbEllipse
 10
7085.357650530553
 20
2366.720324130849
 30
0.0
 11
23.0
 21
0.0
 31
0.0
210
0.0
220
0.0
230
1.0
 40
0.3478260869565217
 41
0.0
 42
6.283185307179584
  0
ELLIPSE
  5
2A06F
330
747D
100
AcDbEntity
  8
部品1
 48
50.0
100
AcDbEllipse
 10
7085.357650530553
 20
2366.720324130849
 30
0.0
 11
50.0
 21
0.0
 31
0.0
210
0.0
220
0.0
230
1.0
 40
0.4
 41
0.0
 42
6.283185307179584
  0
ELLIPSE
  5
2A070
330
747D
100
AcDbEntity
  8
部品1
 48
50.0
100
AcDbEllipse
 10
7085.357650530553
 20
2354.720324130849
 30
0.0
 11
50.0
 21
0.0
 31
0.0
210
0.0
220
0.0
230
1.0
 40
0.4
 41
3.141592653589792
 42
6.283185307179584
  0
LINE
  5
2A071
330
747D
100
AcDbEntity
  8
部品1
 48
50.0
100
AcDbLine
 10
7065.357650530552
 20
2528.910314961937
 30
0.0
 11
7105.357650530553
 21
2528.910314961937
 31
0.0
  0
ELLIPSE
  5
2A072
330
747D
100
AcDbEntity
  8
細線
 48
50.0
100
AcDbEllipse
 10
7085.357650530553
 20
2518.910314961938
 30
0.0
 11
18.45838483258558
 21
0.0
 31
0.0
210
0.0
220
0.0
230
1.0
 40
0.2071254069489396
 41
0.0
 42
6.283185307179584
  0
LINE
  5
2A073
330
747D
100
AcDbEntity
  8
部品1
 48
50.0
100
AcDbLine
 10
7065.357650530552
 20
2468.910314961938
 30
0.0
 11
7105.357650530553
 21
2468.910314961938
 31
0.0
  0
LINE
  5
2A074
330
747D
100
AcDbEntity
  8
部品1
 48
50.0
100
AcDbLine
 10
7065.357650530552
 20
2508.910314961938
 30
0.0
 11
7105.357650530553
 21
2508.910314961938
 31
0.0
  0
LINE
  5
2A075
330
747D
100
AcDbEntity
  8
細線
 48
50.0
100
AcDbLine
 10
7164.107650530556
 20
1831.726566686245
 30
0.0
 11
7326.107650530552
 21
1993.726566686243
 31
0.0
  0
LINE
  5
2A076
330
747D
100
AcDbEntity
  8
細線
 48
50.0
100
AcDbLine
 10
7164.107650530556
 20
1798.050606232223
 30
0.0
 11
7326.107650530552
 21
1960.050606232219
 31
0.0
  0
LINE
  5
2A077
330
747D
100
AcDbEntity
  8
部品1
100
AcDbLine
 10
7141.607650530552
 20
1726.566213575508
 30
0.0
 11
7141.607650530552
 21
1749.066213575509
 31
0.0
  0
LINE
  5
2A078
330
747D
100
AcDbEntity
  8
部品1
100
AcDbLine
 10
7164.107650530553
 20
1625.316213575508
 30
0.0
 11
7164.107650530553
 21
2030.316213575509
 31
0.0
  0
LINE
  5
2A079
330
747D
100
AcDbEntity
  8
細線
 48
50.0
100
AcDbLine
 10
7164.107650530556
 20
1764.374645778206
 30
0.0
 11
7326.107650530552
 21
1926.374645778196
 31
0.0
  0
LINE
  5
2A07A
330
747D
100
AcDbEntity
  8
部品1
100
AcDbLine
 10
6978.482650530553
 20
2042.266213575509
 30
0.0
 11
6993.107650530553
 21
2042.266213575509
 31
0.0
  0
ARC
  5
2A07B
330
747D
100
AcDbEntity
  8
部品1
100
AcDbCircle
 10
7014.807650530547
 20
2045.641213575509
 30
0.0
 40
3.375
100
AcDbArc
 50
180.0
 51
270.0
  0
ARC
  5
2A07C
330
747D
100
AcDbEntity
  8
部品1
100
AcDbCircle
 10
6993.107650530553
 20
2045.641213575509
 30
0.0
 40
3.375
100
AcDbArc
 50
270.0
 51
0.0
  0
ARC
  5
2A07D
330
747D
100
AcDbEntity
  8
部品1
100
AcDbCircle
 10
6819.857650530552
 20
2045.641213575509
 30
0.0
 40
3.375
100
AcDbArc
 50
180.0
 51
270.0
  0
LINE
  5
2A07E
330
747D
100
AcDbEntity
  8
細線
 48
50.0
100
AcDbLine
 10
6808.607650530553
 20
2015.04193395039
 30
0.0
 11
6823.881930155671
 21
2030.316213575509
 31
0.0
  0
LINE
  5
2A07F
330
747D
100
AcDbEntity
  8
部品1
100
AcDbLine
 10
6819.857650530552
 20
2042.266213575509
 30
0.0
 11
6834.482650530546
 21
2042.266213575509
 31
0.0
  0
LINE
  5
2A080
330
747D
100
AcDbEntity
  8
細線
 48
50.0
100
AcDbLine
 10
6808.607650530553
 20
1981.365973496381
 30
0.0
 11
6857.557890609685
 21
2030.316213575509
 31
0.0
  0
LINE
  5
2A081
330
747D
100
AcDbEntity
  8
細線
 48
50.0
100
AcDbLine
 10
6808.607650530553
 20
1947.690013042371
 30
0.0
 11
6891.23385106369
 21
2030.316213575509
 31
0.0
  0
ARC
  5
2A082
330
747D
100
AcDbEntity
  8
部品1
100
AcDbCircle
 10
7096.607650530552
 20
1749.066213575509
 30
0.0
 40
22.5
100
AcDbArc
 50
180.0
 51
270.0
  0
LINE
  5
2A083
330
747D
100
AcDbEntity
  8
細線
 48
50.0
100
AcDbLine
 10
6808.607650530553
 20
1678.282329410297
 30
0.0
 11
7006.607650530549
 21
1876.282329410287
 31
0.0
  0
LINE
  5
2A084
330
747D
100
AcDbEntity
  8
部品1
100
AcDbLine
 10
7006.607650530546
 20
1625.316213575508
 30
0.0
 11
7006.607650530553
 21
2030.316213575509
 31
0.0
  0
LINE
  5
2A085
330
747D
100
AcDbEntity
  8
細線
 48
50.0
100
AcDbLine
 10
6808.607650530553
 20
1745.634250318315
 30
0.0
 11
7006.607650530551
 21
1943.634250318312
 31
0.0
  0
LINE
  5
2A086
330
747D
100
AcDbEntity
  8
細線
 48
50.0
100
AcDbLine
 10
6808.607650530553
 20
1711.958289864306
 30
0.0
 11
7006.607650530551
 21
1909.958289864303
 31
0.0
  0
LINE
  5
2A087
330
747D
100
AcDbEntity
  8
部品1
100
AcDbLine
 10
7164.107650530553
 20
1625.316213575507
 30
0.0
 11
7006.607650530546
 21
1625.316213575507
 31
0.0
  0
LINE
  5
2A088
330
747D
100
AcDbEntity
  8
部品1
 48
50.0
100
AcDbLine
 10
6808.607650530553
 20
2030.316213575509
 30
0.0
 11
7326.107650530556
 21
2030.316213575509
 31
0.0
  0
LINE
  5
2A089
330
747D
100
AcDbEntity
  8
部品1
100
AcDbLine
 10
7014.807650530547
 20
2042.266213575509
 30
0.0
 11
7266.482650530544
 21
2042.266213575509
 31
0.0
  0
LINE
  5
2A08A
330
747D
100
AcDbEntity
  8
部品1
100
AcDbLine
 10
7096.607650530552
 20
1726.566213575508
 30
0.0
 11
7141.607650530552
 21
1726.566213575508
 31
0.0
  0
LINE
  5
2A08B
330
747D
100
AcDbEntity
  8
部品1
100
AcDbLine
 10
7096.607650530552
 20
1749.066213575509
 30
0.0
 11
7141.607650530552
 21
1749.066213575509
 31
0.0
  0
LINE
  5
2A08C
330
747D
100
AcDbEntity
  8
部品1
100
AcDbLine
 10
6816.482650530551
 20
2045.641213575509
 30
0.0
 11
6816.482650530551
 21
2123.306093203894
 31
0.0
  0
LINE
  5
2A08D
330
747D
100
AcDbEntity
  8
細線
100
AcDbLine
 10
7092.107650530555
 20
2042.266213575509
 30
0.0
 11
7092.107650530555
 21
2096.266213575509
 31
0.0
  0
LINE
  5
2A08E
330
747D
100
AcDbEntity
  8
細線
100
AcDbLine
 10
7078.607650530556
 20
2042.266213575509
 30
0.0
 11
7078.607650530553
 21
2096.266213575509
 31
0.0
  0
LINE
  5
2A08F
330
747D
100
AcDbEntity
  8
部品1
100
AcDbLine
 10
6996.482650530552
 20
2098.941213575509
 30
0.0
 11
6996.482650530552
 21
2045.641213575509
 31
0.0
  0
LINE
  5
2A090
330
747D
100
AcDbEntity
  8
部品1
100
AcDbLine
 10
7011.432650530555
 20
2113.89121357551
 30
0.0
 11
7011.432650530548
 21
2045.641213575509
 31
0.0
  0
LINE
  5
2A091
330
747D
100
AcDbEntity
  8
部品1
100
AcDbLine
 10
7096.607650530552
 20
1749.066213575509
 30
0.0
 11
7096.607650530549
 21
2091.766213575509
 31
0.0
  0
LINE
  5
2A092
330
747D
100
AcDbEntity
  8
部品1
100
AcDbLine
 10
7074.107650530553
 20
1749.066213575509
 30
0.0
 11
7074.107650530549
 21
2091.766213575509
 31
0.0
  0
TEXT
  5
2A093
330
747D
100
AcDbEntity
  8
部品1
 48
50.0
100
AcDbText
 10
6290.932773239357
 20
1744.364953929578
 30
0.0
 40
100.0
  1
▽G.L
  7
STYLE2
100
AcDbText
  0
LWPOLYLINE
  5
2A094
330
747D
100
AcDbEntity
  8
部品1
 48
50.0
100
AcDbPolyline
 90
        2
 70
     0
 43
10.0
 10
6290.932773239358
 20
1730.31621357551
 10
6808.607650530553
 20
1730.31621357551
  0
LINE
  5
2A095
330
747D
100
AcDbEntity
  8
部品1
 48
50.0
100
AcDbLine
 10
7326.107650530552
 20
1350.316213575508
 30
0.0
 11
7486.107650530553
 21
1350.316213575508
 31
0.0
  0
LINE
  5
2A096
330
747D
100
AcDbEntity
  8
細線
 48
50.0
100
AcDbLine
 10
7334.359819652842
 20
1020.316213575509
 30
0.0
 11
7326.32134387991
 21
1050.316213575507
 31
0.0
  0
LINE
  5
2A097
330
747D
100
AcDbEntity
  8
細線
 48
50.0
100
AcDbLine
 10
7432.969875836914
 20
1020.316213575507
 30
0.0
 11
7424.931400063981
 21
1050.316213575507
 31
0.0
  0
LINE
  5
2A098
330
747D
100
AcDbEntity
  8
細線
 48
50.0
100
AcDbLine
 10
7137.139707284737
 20
1020.316213575509
 30
0.0
 11
7129.101231511807
 21
1050.316213575507
 31
0.0
  0
LINE
  5
2A099
330
747D
100
AcDbEntity
  8
細線
 48
50.0
100
AcDbLine
 10
7235.749763468795
 20
1020.316213575509
 30
0.0
 11
7227.711287695862
 21
1050.316213575507
 31
0.0
  0
LINE
  5
2A09A
330
747D
100
AcDbEntity
  8
細線
 48
50.0
100
AcDbLine
 10
7190.920348316045
 20
1050.316213575507
 30
0.0
 11
7486.107650530553
 21
1345.503515790018
 31
0.0
  0
LINE
  5
2A09B
330
747D
100
AcDbEntity
  8
細線
 48
50.0
100
AcDbLine
 10
7224.596308770057
 20
1050.316213575507
 30
0.0
 11
7486.107650530553
 21
1311.827555336001
 31
0.0
  0
LINE
  5
2A09C
330
747D
100
AcDbEntity
  8
細線
 48
50.0
100
AcDbLine
 10
7258.272269224064
 20
1050.316213575507
 30
0.0
 11
7486.107650530553
 21
1278.151594882004
 31
0.0
  0
LINE
  5
2A09D
330
747D
100
AcDbEntity
  8
部品1
 48
50.0
100
AcDbLine
 10
7486.107650530553
 20
1350.316213575508
 30
0.0
 11
7486.107650530553
 21
1050.316213575507
 31
0.0
  0
LINE
  5
2A09E
330
747D
100
AcDbEntity
  8
細線
 48
50.0
100
AcDbLine
 10
6939.919594916624
 20
1020.316213575509
 30
0.0
 11
6931.881119143692
 21
1050.316213575507
 31
0.0
  0
LINE
  5
2A09F
330
747D
100
AcDbEntity
  8
細線
 48
50.0
100
AcDbLine
 10
7038.529651100681
 20
1020.316213575509
 30
0.0
 11
7030.491175327748
 21
1050.316213575507
 31
0.0
  0
LINE
  5
2A0A0
330
747D
100
AcDbEntity
  8
細線
 48
50.0
100
AcDbLine
 10
6742.699482548494
 20
1020.316213575509
 30
0.0
 11
6734.66100677556
 21
1050.316213575507
 31
0.0
  0
LINE
  5
2A0A1
330
747D
100
AcDbEntity
  8
細線
 48
50.0
100
AcDbLine
 10
6841.309538732558
 20
1020.316213575509
 30
0.0
 11
6833.271062959624
 21
1050.316213575507
 31
0.0
  0
LINE
  5
2A0A2
330
747D
100
AcDbEntity
  8
細線
 48
50.0
100
AcDbLine
 10
6921.51266468397
 20
1050.316213575507
 30
0.0
 11
7326.107650530551
 21
1454.911199422091
 31
0.0
  0
LINE
  5
2A0A3
330
747D
100
AcDbEntity
  8
細線
 48
50.0
100
AcDbLine
 10
6955.188625137981
 20
1050.316213575507
 30
0.0
 11
7326.107650530552
 21
1421.235238968074
 31
0.0
  0
LINE
  5
2A0A4
330
747D
100
AcDbEntity
  8
細線
 48
50.0
100
AcDbLine
 10
6988.864585591989
 20
1050.316213575507
 30
0.0
 11
7326.107650530552
 21
1387.55927851408
 31
0.0
  0
LINE
  5
2A0A5
330
747D
100
AcDbEntity
  8
細線
 48
50.0
100
AcDbLine
 10
7307.564900409743
 20
920.3162135755079
 30
0.0
 11
7315.60337618269
 21
890.3162135755078
 31
0.0
  0
LINE
  5
2A0A6
330
747D
100
AcDbEntity
  8
細線
 48
50.0
100
AcDbLine
 10
7406.174956593803
 20
920.316213575507
 30
0.0
 11
7414.213432366738
 21
890.3162135755069
 31
0.0
  0
LINE
  5
2A0A7
330
747D
100
AcDbEntity
  8
細線
 48
50.0
100
AcDbLine
 10
7110.344788041627
 20
920.3162135755079
 30
0.0
 11
7118.38326381456
 21
890.3162135755078
 31
0.0
  0
LINE
  5
2A0A8
330
747D
100
AcDbEntity
  8
細線
 48
50.0
100
AcDbLine
 10
7208.954844225684
 20
920.3162135755079
 30
0.0
 11
7216.993319998618
 21
890.3162135755078
 31
0.0
  0
LINE
  5
2A0A9
330
747D
100
AcDbEntity
  8
細線
 48
50.0
100
AcDbLine
 10
6913.124675673512
 20
920.3162135755079
 30
0.0
 11
6921.163151446446
 21
890.3162135755078
 31
0.0
  0
LINE
  5
2A0AA
330
747D
100
AcDbEntity
  8
細線
 48
50.0
100
AcDbLine
 10
7011.734731857569
 20
920.3162135755079
 30
0.0
 11
7019.773207630503
 21
890.3162135755078
 31
0.0
  0
LINE
  5
2A0AB
330
747D
100
AcDbEntity
  8
細線
 48
50.0
100
AcDbLine
 10
6715.904563305382
 20
920.3162135755079
 30
0.0
 11
6723.943039078315
 21
890.3162135755078
 31
0.0
  0
LINE
  5
2A0AC
330
747D
100
AcDbEntity
  8
細線
 48
50.0
100
AcDbLine
 10
6814.514619489447
 20
920.3162135755079
 30
0.0
 11
6822.553095262382
 21
890.3162135755078
 31
0.0
  0
LINE
  5
2A0AD
330
747D
100
AcDbEntity
  8
細線
 48
50.0
100
AcDbLine
 10
7299.526424636805
 20
890.3162135755069
 30
0.0
 11
7342.398295425772
 21
1050.316213575507
 31
0.0
  0
LINE
  5
2A0AE
330
747D
100
AcDbEntity
  8
細線
 48
50.0
100
AcDbLine
 10
7398.136480820865
 20
890.3162135755051
 30
0.0
 11
7441.008351609845
 21
1050.316213575505
 31
0.0
  0
LINE
  5
2A0AF
330
747D
100
AcDbEntity
  8
細線
 48
50.0
100
AcDbLine
 10
7102.306312268692
 20
890.3162135755069
 30
0.0
 11
7145.17818305767
 21
1050.316213575507
 31
0.0
  0
LINE
  5
2A0B0
330
747D
100
AcDbEntity
  8
細線
 48
50.0
100
AcDbLine
 10
6905.086199900573
 20
890.3162135755078
 30
0.0
 11
6947.958070689549
 21
1050.316213575507
 31
0.0
  0
LINE
  5
2A0B1
330
747D
100
AcDbEntity
  8
細線
 48
50.0
100
AcDbLine
 10
7003.696256084629
 20
890.3162135755078
 30
0.0
 11
7046.56812687361
 21
1050.316213575507
 31
0.0
  0
LINE
  5
2A0B2
330
747D
100
AcDbEntity
  8
細線
 48
50.0
100
AcDbLine
 10
7200.916368452742
 20
890.3162135755078
 30
0.0
 11
7243.788239241727
 21
1050.316213575507
 31
0.0
  0
LINE
  5
2A0B3
330
747D
100
AcDbEntity
  8
細線
 48
50.0
100
AcDbLine
 10
6707.866087532448
 20
890.3162135755078
 30
0.0
 11
6750.737958321427
 21
1050.316213575507
 31
0.0
  0
LINE
  5
2A0B4
330
747D
100
AcDbEntity
  8
細線
 48
50.0
100
AcDbLine
 10
6806.476143716506
 20
890.3162135755069
 30
0.0
 11
6849.348014505483
 21
1050.316213575507
 31
0.0
  0
LINE
  5
2A0B5
330
747D
100
AcDbEntity
  8
細線
 48
50.0
100
AcDbLine
 10
6648.607650530546
 20
1316.226566686241
 30
0.0
 11
6682.697297419821
 21
1350.316213575508
 31
0.0
  0
LINE
  5
2A0B6
330
747D
100
AcDbEntity
  8
細線
 48
50.0
100
AcDbLine
 10
6548.607650530553
 20
1031.991114782733
 30
0.0
 11
6553.517845953297
 21
1050.316213575507
 31
0.0
  0
LINE
  5
2A0B7
330
747D
100
AcDbEntity
  8
細線
 48
50.0
100
AcDbLine
 10
6644.089426364428
 20
1020.316213575509
 30
0.0
 11
6636.050950591495
 21
1050.316213575507
 31
0.0
  0
LINE
  5
2A0B8
330
747D
100
AcDbEntity
  8
部品1
 48
50.0
100
AcDbLine
 10
6648.607650530554
 20
1050.316213575507
 30
0.0
 11
6648.607650530554
 21
1350.316213575508
 31
0.0
  0
LINE
  5
2A0B9
330
747D
100
AcDbEntity
  8
細線
 48
50.0
100
AcDbLine
 10
6617.294507121318
 20
920.3162135755079
 30
0.0
 11
6625.332982894251
 21
890.3162135755078
 31
0.0
  0
LINE
  5
2A0BA
330
747D
100
AcDbEntity
  8
部品1
 48
50.0
100
AcDbLine
 10
6548.607650530556
 20
890.3162135755078
 30
0.0
 11
6548.607650530556
 21
1050.316213575507
 31
0.0
  0
LINE
  5
2A0BB
330
747D
100
AcDbEntity
  8
細線
 48
50.0
100
AcDbLine
 10
6609.256031348376
 20
890.3162135755069
 30
0.0
 11
6652.127902137355
 21
1050.316213575507
 31
0.0
  0
LINE
  5
2A0BC
330
747D
100
AcDbEntity
  8
細線
 48
50.0
100
AcDbLine
 10
6648.607650530546
 20
1282.550606232228
 30
0.0
 11
6716.373257873833
 21
1350.316213575508
 31
0.0
  0
LINE
  5
2A0BD
330
747D
100
AcDbEntity
  8
細線
 48
50.0
100
AcDbLine
 10
6648.607650530546
 20
1248.874645778222
 30
0.0
 11
6750.049218327839
 21
1350.316213575508
 31
0.0
  0
LINE
  5
2A0BE
330
747D
100
AcDbEntity
  8
部品1
 48
50.0
100
AcDbLine
 10
6648.607650530554
 20
1350.316213575508
 30
0.0
 11
6808.607650530553
 21
1350.316213575508
 31
0.0
  0
LINE
  5
2A0BF
330
747D
100
AcDbEntity
  8
細線
 48
50.0
100
AcDbLine
 10
6652.104981051896
 20
1050.316213575507
 30
0.0
 11
7326.107650530551
 21
1724.318883054165
 31
0.0
  0
LINE
  5
2A0C0
330
747D
100
AcDbEntity
  8
部品1
100
AcDbLine
 10
7326.107650530551
 20
1350.316213575508
 30
0.0
 11
7326.107650530552
 21
2030.316213575509
 31
0.0
  0
LINE
  5
2A0C1
330
747D
100
AcDbEntity
  8
部品1
 48
50.0
100
AcDbLine
 10
6808.607650530553
 20
1350.316213575508
 30
0.0
 11
6808.607650530553
 21
2030.316213575509
 31
0.0
  0
LINE
  5
2A0C2
330
747D
100
AcDbEntity
  8
細線
 48
50.0
100
AcDbLine
 10
6808.607650530553
 20
1442.550606232231
 30
0.0
 11
7006.607650530543
 21
1640.550606232217
 31
0.0
  0
LINE
  5
2A0C3
330
747D
100
AcDbEntity
  8
細線
 48
50.0
100
AcDbLine
 10
6808.607650530553
 20
1408.874645778222
 30
0.0
 11
7025.049218327847
 21
1625.316213575507
 31
0.0
  0
LINE
  5
2A0C4
330
747D
100
AcDbEntity
  8
細線
 48
50.0
100
AcDbLine
 10
6808.607650530553
 20
1476.226566686241
 30
0.0
 11
7006.607650530543
 21
1674.226566686234
 31
0.0
  0
LINE
  5
2A0C5
330
747D
100
AcDbEntity
  8
細線
 48
50.0
100
AcDbLine
 10
6719.456901959914
 20
1050.316213575507
 30
0.0
 11
7326.107650530552
 21
1656.966962146144
 31
0.0
  0
LINE
  5
2A0C6
330
747D
100
AcDbEntity
  8
細線
 48
50.0
100
AcDbLine
 10
6685.780941505908
 20
1050.316213575507
 30
0.0
 11
7326.107650530556
 21
1690.642922600152
 31
0.0
  0
TEXT
  5
2A0C7
330
747D
100
AcDbEntity
  8
部品1
 48
50.0
100
AcDbText
 10
7331.54963088609
 20
2475.164564528259
 30
0.0
 40
100.0
  1
基礎ボルト(市販品)
  7
STYLE2
100
AcDbText
  0
DIMENSION
  5
2A0C8
330
747D
100
AcDbEntity
  8
寸法
 48
50.0
100
AcDbDimension
  2
*D35
 10
8298.511732890391
 20
2030.316213575509
 30
0.0
 11
8298.511732890391
 21
1564.307310154027
 31
0.0
 70
   160
  1
20～25
 71
     5
 42
65.94999999999981
  3
INABA_S40G
100
AcDbAlignedDimension
 13
7092.107650530555
 23
2096.266213575509
 33
0.0
 14
7326.107650530552
 24
2030.316213575509
 34
0.0
 50
90.0
100
AcDbRotatedDimension
1001
ACAD
1000
DSTYLE
1002
{
1070
   341
1005
0
1002
}
  0
LINE
  5
2A0C9
330
747D
100
AcDbEntity
  8
細線
 48
50.0
100
AcDbLine
 10
7496.746537004921
 20
890.3162135755069
 30
0.0
 11
7539.618407793902
 21
1050.316213575505
 31
0.0
  0
LINE
  5
2A0CA
330
747D
100
AcDbEntity
  8
部品1
 48
50.0
100
AcDbLine
 10
7586.107650530556
 20
890.3162135755078
 30
0.0
 11
6548.607650530556
 21
890.3162135755078
 31
0.0
  0
LINE
  5
2A0CB
330
747D
100
AcDbEntity
  8
細線
 48
50.0
100
AcDbLine
 10
7504.785012777863
 20
920.316213575507
 30
0.0
 11
7512.823488550795
 21
890.3162135755069
 31
0.0
  0
LINE
  5
2A0CC
330
747D
100
AcDbEntity
  8
部品1
 48
50.0
100
AcDbLine
 10
7586.107650530556
 20
1050.316213575507
 30
0.0
 11
6548.607650530556
 21
1050.316213575507
 31
0.0
  0
LWPOLYLINE
  5
2A0CD
330
747D
100
AcDbEntity
  8
部品1
 48
50.0
100
AcDbPolyline
 90
        2
 70
     0
 43
10.0
 10
7326.107650530552
 20
1730.31621357551
 10
7693.235729779782
 20
1730.31621357551
  0
DIMENSION
  5
2A0CE
330
747D
100
AcDbEntity
  8
寸法
 48
50.0
100
AcDbDimension
  2
*D36
 10
7953.443400241609
 20
1625.316213575507
 30
0.0
 11
7853.443400241609
 21
1827.816213575509
 31
0.0
 70
    32
  1
180
 71
     5
 42
405.000000000002
  3
INABA_S40G
100
AcDbAlignedDimension
 13
7326.107650530552
 23
2030.316213575509
 33
0.0
 14
7326.107650530552
 24
1625.316213575507
 34
0.0
 50
90.0
100
AcDbRotatedDimension
1001
ACAD
1000
DSTYLE
1002
{
1070
   341
1005
0
1002
}
  0
MTEXT
  5
2A0CF
102
{ACAD_REACTORS
330
2A0D0
102
}
330
747D
100
AcDbEntity
  8
部品1
 62
     7
 48
50.0
100
AcDbMText
 10
7337.288228554701
 20
2360.795371267047
 30
0.0
 40
100.0
 41
1.0
 71
     4
 72
     1
  1
M10X160
  7
STYLE2
 73
     1
 44
1.0
1001
ACAD
1000
MTEXTBEGIN
1070
    73
1070
     1
1070
    44
1040
1.0
1070
    74
1070
     0
1000
MTEXTEND
  0
LEADER
  5
2A0D0
330
747D
100
AcDbEntity
  8
寸法
 48
50.0
100
AcDbLeader
  3
INABA_S40G
 73
     0
 74
     0
 75
     1
 40
100.0
 41
543.75
 76
     3
 10
7096.607650530552
 20
2091.766213575509
 30
0.0
 10
7197.288228554701
 20
2270.795371267047
 30
0.0
 10
7297.288228554702
 20
2270.795371267047
 30
0.0
340
2A0CF
1001
ACAD
1000
DSTYLE
1002
{
1070
   341
1005
0
1002
}
  0
LINE
  5
2A0D1
330
747D
100
AcDbEntity
  8
細線
 48
50.0
100
AcDbLine
 10
4683.55850905906
 20
1981.365973496381
 30
0.0
 11
4732.508749138192
 21
2030.316213575509
 31
0.0
  0
LINE
  5
2A0D2
330
747D
100
AcDbEntity
  8
細線
 48
50.0
100
AcDbLine
 10
4683.55850905906
 20
1947.690013042371
 30
0.0
 11
4766.184709592198
 21
2030.316213575509
 31
0.0
  0
LINE
  5
2A0D3
330
747D
100
AcDbEntity
  8
細線
 48
50.0
100
AcDbLine
 10
4683.55850905906
 20
2015.04193395039
 30
0.0
 11
4698.832788684177
 21
2030.316213575509
 31
0.0
  0
ARC
  5
2A0D4
330
747D
100
AcDbEntity
  8
部品1
 48
50.0
100
AcDbCircle
 10
4803.55850905906
 20
1855.634250318315
 30
0.0
 40
30.0
100
AcDbArc
 50
0.0
 51
180.0
  0
CIRCLE
  5
2A0D5
330
747D
100
AcDbEntity
  8
部品1
 48
50.0
100
AcDbCircle
 10
4803.55850905906
 20
1855.634250318315
 30
0.0
 40
10.0
  0
LINE
  5
2A0D6
330
747D
100
AcDbEntity
  8
細線
 48
50.0
100
AcDbLine
 10
4793.55850905906
 20
1821.958289864306
 30
0.0
 11
4813.55850905906
 21
1841.958289864306
 31
0.0
  0
LINE
  5
2A0D7
330
747D
100
AcDbEntity
  8
細線
 48
50.0
100
AcDbLine
 10
4833.55850905906
 20
1828.282329410296
 30
0.0
 11
4923.55850905906
 21
1918.282329410297
 31
0.0
  0
LINE
  5
2A0D8
330
747D
100
AcDbEntity
  8
細線
 48
50.0
100
AcDbLine
 10
4832.999393141544
 20
1861.399173946786
 30
0.0
 11
4923.55850905906
 21
1951.958289864306
 31
0.0
  0
LINE
  5
2A0D9
330
747D
100
AcDbEntity
  8
細線
 48
50.0
100
AcDbLine
 10
4819.174037187147
 20
1881.249778446403
 30
0.0
 11
4923.55850905906
 21
1985.634250318315
 31
0.0
  0
LINE
  5
2A0DA
330
747D
100
AcDbEntity
  8
部品1
 48
50.0
100
AcDbLine
 10
4683.55850905906
 20
2030.316213575509
 30
0.0
 11
4923.55850905906
 21
2030.316213575509
 31
0.0
  0
LINE
  5
2A0DB
330
747D
100
AcDbEntity
  8
細線
 48
50.0
100
AcDbLine
 10
4683.55850905906
 20
1678.282329410297
 30
0.0
 11
4788.25141159568
 21
1782.975231946912
 31
0.0
  0
LINE
  5
2A0DC
330
747D
100
AcDbEntity
  8
部品1
 48
50.0
100
AcDbLine
 10
4793.55850905906
 20
1782.975231946912
 30
0.0
 11
4773.55850905906
 21
1782.975231946916
 31
0.0
  0
LINE
  5
2A0DD
330
747D
100
AcDbEntity
  8
細線
 48
50.0
100
AcDbLine
 10
4833.558509059066
 20
1558.874645778222
 30
0.0
 11
4923.558509059053
 21
1648.874645778222
 31
0.0
  0
LINE
  5
2A0DE
330
747D
100
AcDbEntity
  8
細線
 48
50.0
100
AcDbLine
 10
4833.55850905906
 20
1626.22656668624
 30
0.0
 11
4923.55850905906
 21
1716.226566686241
 31
0.0
  0
LINE
  5
2A0DF
330
747D
100
AcDbEntity
  8
細線
 48
50.0
100
AcDbLine
 10
4833.558509059066
 20
1592.550606232235
 30
0.0
 11
4923.558509059053
 21
1682.550606232228
 31
0.0
  0
LINE
  5
2A0E0
330
747D
100
AcDbEntity
  8
細線
 48
50.0
100
AcDbLine
 10
4683.55850905906
 20
1711.958289864306
 30
0.0
 11
4773.55850905906
 21
1801.958289864306
 31
0.0
  0
LINE
  5
2A0E1
330
747D
100
AcDbEntity
  8
細線
 48
50.0
100
AcDbLine
 10
4683.55850905906
 20
1745.634250318315
 30
0.0
 11
4773.55850905906
 21
1835.634250318315
 31
0.0
  0
LINE
  5
2A0E2
330
747D
100
AcDbEntity
  8
細線
 48
50.0
100
AcDbLine
 10
4793.55850905906
 20
1788.282329410297
 30
0.0
 11
4813.55850905906
 21
1808.282329410297
 31
0.0
  0
LINE
  5
2A0E3
330
747D
100
AcDbEntity
  8
部品1
 48
50.0
100
AcDbLine
 10
4773.55850905906
 20
1782.975231946916
 30
0.0
 11
4773.55850905906
 21
1855.634250318315
 31
0.0
  0
LINE
  5
2A0E4
330
747D
100
AcDbEntity
  8
部品1
 48
50.0
100
AcDbLine
 10
4793.55850905906
 20
1782.975231946912
 30
0.0
 11
4793.55850905906
 21
1855.634250318315
 31
0.0
  0
LEADER
  5
2A0E5
330
747D
100
AcDbEntity
  8
寸法
 48
50.0
100
AcDbLeader
  3
INABA_S40G
 71
     0
 73
     0
 74
     0
 75
     1
 40
100.0
 41
222.7272727272727
 76
     3
 10
4803.558509059058
 20
1855.634250318315
 30
0.0
 10
4902.165930343303
 20
1781.900665199168
 30
0.0
 10
5002.165930343303
 20
1781.900665199168
 30
0.0
1001
ACAD
1000
DSTYLE
1002
{
1070
   341
1005
0
1002
}
  0
LWPOLYLINE
  5
2A0E6
330
747D
100
AcDbEntity
  8
部品1
 48
50.0
100
AcDbPolyline
 90
        2
 70
     0
 43
10.0
 10
4923.558509059058
 20
1730.31621357551
 10
5441.233386350257
 20
1730.31621357551
  0
MTEXT
  5
2A0E7
102
{ACAD_REACTORS
330
2A0E5
102
}
330
747D
100
AcDbEntity
  8
寸法
 62
     7
 48
50.0
100
AcDbMText
 10
5027.165930343303
 20
1856.900665199168
 30
0.0
 40
100.0
 41
1.0
 71
     4
 72
     1
  1
D13
  7
STYLE2
 73
     1
 44
1.0
1001
ACAD
1000
MTEXTBEGIN
1070
    73
1070
     1
1070
    44
1040
1.0
1070
    74
1070
     0
1000
MTEXTEND
  0
LINE
  5
2A0E8
330
747D
100
AcDbEntity
  8
細線
 48
50.0
100
AcDbLine
 10
5110.700621997306
 20
1020.316213575509
 30
0.0
 11
5102.66214622437
 21
1050.316213575507
 31
0.0
  0
LINE
  5
2A0E9
330
747D
100
AcDbEntity
  8
細線
 48
50.0
100
AcDbLine
 10
5065.871206844552
 20
1050.316213575507
 30
0.0
 11
5083.55850905906
 21
1068.003515790017
 31
0.0
  0
MTEXT
  5
2A0EA
102
{ACAD_REACTORS
330
2A129
102
}
330
747D
100
AcDbEntity
  8
寸法
 62
     7
 48
50.0
100
AcDbMText
 10
5212.718083817415
 20
1156.069877396792
 30
0.0
 40
100.0
 41
1.0
 71
     4
 72
     1
  1
D10
  7
STYLE2
 73
     1
 44
1.0
1001
ACAD
1000
MTEXTBEGIN
1070
    73
1070
     1
1070
    44
1040
1.0
1070
    74
1070
     0
1000
MTEXTEND
  0
LINE
  5
2A0EB
330
747D
100
AcDbEntity
  8
部品1
 48
50.0
100
AcDbLine
 10
5083.55850905906
 20
1350.316213575508
 30
0.0
 11
5083.55850905906
 21
1050.316213575507
 31
0.0
  0
LINE
  5
2A0EC
330
747D
100
AcDbEntity
  8
細線
 48
50.0
100
AcDbLine
 10
5083.905702754192
 20
920.3162135755079
 30
0.0
 11
5091.944178527126
 21
890.3162135755078
 31
0.0
  0
LINE
  5
2A0ED
330
747D
100
AcDbEntity
  8
細線
 48
50.0
100
AcDbLine
 10
5182.51575893825
 20
920.3162135755079
 30
0.0
 11
5183.558509059061
 21
916.4246171450523
 31
0.0
  0
LINE
  5
2A0EE
330
747D
100
AcDbEntity
  8
細線
 48
50.0
100
AcDbLine
 10
5174.477283165313
 20
890.3162135755069
 30
0.0
 11
5183.558509059061
 21
924.207810005994
 31
0.0
  0
MTEXT
  5
2A0EF
102
{ACAD_REACTORS
330
2A127
102
}
330
747D
100
AcDbEntity
  8
寸法
 62
     7
 48
50.0
100
AcDbMText
 10
5225.731578885624
 20
828.6298564103168
 30
0.0
 40
100.0
 41
1.0
 71
     4
 72
     1
  1
\A1;D10@300
  7
STYLE2
 73
     1
 44
1.0
1001
ACAD
1000
MTEXTBEGIN
1070
    73
1070
     1
1070
    44
1040
1.0
1070
    74
1070
     0
1000
MTEXTEND
  0
LINE
  5
2A0F0
330
747D
100
AcDbEntity
  8
部品1
 48
50.0
100
AcDbLine
 10
5183.558509059064
 20
1050.316213575507
 30
0.0
 11
5183.558509059064
 21
890.3162135755078
 31
0.0
  0
LINE
  5
2A0F1
330
747D
100
AcDbEntity
  8
細線
 48
50.0
100
AcDbLine
 10
5075.867226981252
 20
890.3162135755078
 30
0.0
 11
5118.739097770234
 21
1050.316213575507
 31
0.0
  0
LINE
  5
2A0F2
330
747D
100
AcDbEntity
  8
部品1
 48
50.0
100
AcDbLine
 10
4793.55850905906
 20
1272.975231946912
 30
0.0
 11
4773.55850905906
 21
1272.975231946912
 31
0.0
  0
LINE
  5
2A0F3
330
747D
100
AcDbEntity
  8
細線
 48
50.0
100
AcDbLine
 10
4783.390818405814
 20
1272.975231946912
 30
0.0
 11
4813.558509059067
 21
1303.14292260016
 31
0.0
  0
LINE
  5
2A0F4
330
747D
100
AcDbEntity
  8
細線
 48
50.0
100
AcDbLine
 10
4793.55850905906
 20
1249.466962146147
 30
0.0
 11
4813.558509059067
 21
1269.466962146147
 31
0.0
  0
LINE
  5
2A0F5
330
747D
100
AcDbEntity
  8
細線
 48
50.0
100
AcDbLine
 10
4833.558509059066
 20
1323.14292260016
 30
0.0
 11
4923.558509059053
 21
1413.142922600153
 31
0.0
  0
LINE
  5
2A0F6
330
747D
100
AcDbEntity
  8
細線
 48
50.0
100
AcDbLine
 10
4833.558509059066
 20
1356.81888305417
 30
0.0
 11
4923.558509059053
 21
1446.818883054166
 31
0.0
  0
LINE
  5
2A0F7
330
747D
100
AcDbEntity
  8
細線
 48
50.0
100
AcDbLine
 10
4833.558509059066
 20
1289.466962146147
 30
0.0
 11
4923.558509059053
 21
1379.466962146147
 31
0.0
  0
LINE
  5
2A0F8
330
747D
100
AcDbEntity
  8
細線
 48
50.0
100
AcDbLine
 10
4863.815444120496
 20
1050.316213575507
 30
0.0
 11
4983.816553926917
 21
1170.317323381933
 31
0.0
  0
LINE
  5
2A0F9
330
747D
100
AcDbEntity
  8
部品1
 48
50.0
100
AcDbLine
 10
5013.55850905906
 20
1190.316213575508
 30
0.0
 11
5013.55850905906
 21
1170.316213575508
 31
0.0
  0
LINE
  5
2A0FA
330
747D
100
AcDbEntity
  8
細線
 48
50.0
100
AcDbLine
 10
5012.090565813246
 20
1020.316213575509
 30
0.0
 11
5004.052090040311
 21
1050.316213575507
 31
0.0
  0
CIRCLE
  5
2A0FB
330
747D
100
AcDbEntity
  8
部品1
 48
50.0
100
AcDbCircle
 10
4963.55850905906
 20
1200.316213575508
 30
0.0
 40
10.0
  0
LINE
  5
2A0FC
330
747D
100
AcDbEntity
  8
細線
 48
50.0
100
AcDbLine
 10
4913.480509629188
 20
1020.316213575509
 30
0.0
 11
4905.442033856255
 21
1050.316213575507
 31
0.0
  0
ARC
  5
2A0FD
330
747D
100
AcDbEntity
  8
部品1
 48
50.0
100
AcDbCircle
 10
4803.55850905906
 20
1200.316213575508
 30
0.0
 40
30.0
100
AcDbArc
 50
340.5287793654709
 51
0.0
  0
LINE
  5
2A0FE
330
747D
100
AcDbEntity
  8
細線
 48
50.0
100
AcDbLine
 10
4814.870453445131
 20
1020.316213575509
 30
0.0
 11
4806.831977672199
 21
1050.316213575507
 31
0.0
  0
ARC
  5
2A0FF
330
747D
100
AcDbEntity
  8
部品1
 48
50.0
100
AcDbCircle
 10
4803.55850905906
 20
1200.316213575508
 30
0.0
 40
30.0
100
AcDbArc
 50
180.0
 51
199.471220634529
  0
LINE
  5
2A100
330
747D
100
AcDbEntity
  8
細線
 48
50.0
100
AcDbLine
 10
4716.260397261065
 20
1020.316213575509
 30
0.0
 11
4708.221921488131
 21
1050.316213575507
 31
0.0
  0
CIRCLE
  5
2A101
330
747D
100
AcDbEntity
  8
部品1
 48
50.0
100
AcDbCircle
 10
4803.55850905906
 20
1200.316213575508
 30
0.0
 40
10.0
  0
LINE
  5
2A102
330
747D
100
AcDbEntity
  8
細線
 48
50.0
100
AcDbLine
 10
4830.139483666489
 20
1050.316213575507
 30
0.0
 11
4950.13948366649
 21
1170.316213575508
 31
0.0
  0
LINE
  5
2A103
330
747D
100
AcDbEntity
  8
細線
 48
50.0
100
AcDbLine
 10
4796.463523212476
 20
1050.316213575507
 30
0.0
 11
4916.463523212478
 21
1170.316213575508
 31
0.0
  0
LINE
  5
2A104
330
747D
100
AcDbEntity
  8
細線
 48
50.0
100
AcDbLine
 10
4667.055839580402
 20
1190.316213575508
 30
0.0
 11
4813.55850905906
 21
1336.818883054166
 31
0.0
  0
LINE
  5
2A105
330
747D
100
AcDbEntity
  8
細線
 48
50.0
100
AcDbLine
 10
4734.407760488421
 20
1190.316213575508
 30
0.0
 11
4773.55850905906
 21
1229.466962146147
 31
0.0
  0
LINE
  5
2A106
330
747D
100
AcDbEntity
  8
部品1
 48
50.0
100
AcDbLine
 10
4773.55850905906
 20
1272.975231946912
 30
0.0
 11
4773.55850905906
 21
1200.316213575508
 31
0.0
  0
LINE
  5
2A107
330
747D
100
AcDbEntity
  8
細線
 48
50.0
100
AcDbLine
 10
4700.731800034414
 20
1190.316213575508
 30
0.0
 11
4773.55850905906
 21
1263.142922600157
 31
0.0
  0
LINE
  5
2A108
330
747D
100
AcDbEntity
  8
部品1
 48
50.0
100
AcDbLine
 10
4793.55850905906
 20
1272.975231946912
 30
0.0
 11
4793.55850905906
 21
1200.316213575508
 31
0.0
  0
LINE
  5
2A109
330
747D
100
AcDbEntity
  8
細線
 48
50.0
100
AcDbLine
 10
4523.558509059053
 20
1282.550606232228
 30
0.0
 11
4591.324116402341
 21
1350.316213575508
 31
0.0
  0
LINE
  5
2A10A
330
747D
100
AcDbEntity
  8
細線
 48
50.0
100
AcDbLine
 10
4523.558509059053
 20
1316.226566686241
 30
0.0
 11
4557.648155948328
 21
1350.316213575508
 31
0.0
  0
LINE
  5
2A10B
330
747D
100
AcDbEntity
  8
細線
 48
50.0
100
AcDbLine
 10
4523.558509059053
 20
1248.874645778222
 30
0.0
 11
4625.000076856347
 21
1350.316213575508
 31
0.0
  0
LINE
  5
2A10C
330
747D
100
AcDbEntity
  8
部品1
 48
50.0
100
AcDbLine
 10
4593.55850905906
 20
1190.316213575508
 30
0.0
 11
4593.55850905906
 21
1170.316213575508
 31
0.0
  0
LINE
  5
2A10D
330
747D
100
AcDbEntity
  8
細線
 48
50.0
100
AcDbLine
 10
4617.650341077001
 20
1020.316213575509
 30
0.0
 11
4609.611865304066
 21
1050.316213575507
 31
0.0
  0
LINE
  5
2A10E
330
747D
100
AcDbEntity
  8
細線
 48
50.0
100
AcDbLine
 10
4519.040284892936
 20
1020.316213575509
 30
0.0
 11
4511.001809120002
 21
1050.316213575507
 31
0.0
  0
LINE
  5
2A10F
330
747D
100
AcDbEntity
  8
細線
 48
50.0
100
AcDbLine
 10
4423.55850905906
 20
1031.991114782733
 30
0.0
 11
4428.468704481804
 21
1050.316213575507
 31
0.0
  0
LINE
  5
2A110
330
747D
100
AcDbEntity
  8
部品1
 48
50.0
100
AcDbLine
 10
4523.55850905906
 20
1050.316213575507
 30
0.0
 11
4523.55850905906
 21
1350.316213575508
 31
0.0
  0
LINE
  5
2A111
330
747D
100
AcDbEntity
  8
部品1
 48
50.0
100
AcDbLine
 10
4593.55850905906
 20
1170.316213575508
 30
0.0
 11
5013.55850905906
 21
1170.316213575508
 31
0.0
  0
LINE
  5
2A112
330
747D
100
AcDbEntity
  8
部品1
 48
50.0
100
AcDbLine
 10
4593.55850905906
 20
1190.316213575508
 30
0.0
 11
5013.55850905906
 21
1190.316213575508
 31
0.0
  0
LINE
  5
2A113
330
747D
100
AcDbEntity
  8
細線
 48
50.0
100
AcDbLine
 10
4594.407760488421
 20
1050.316213575507
 30
0.0
 11
4714.407760488422
 21
1170.316213575508
 31
0.0
  0
CIRCLE
  5
2A114
330
747D
100
AcDbEntity
  8
部品1
 48
50.0
100
AcDbCircle
 10
4643.558509059061
 20
1200.316213575508
 30
0.0
 40
10.0
  0
LINE
  5
2A115
330
747D
100
AcDbEntity
  8
細線
 48
50.0
100
AcDbLine
 10
4560.731800034416
 20
1050.316213575507
 30
0.0
 11
4680.731800034416
 21
1170.316213575508
 31
0.0
  0
LINE
  5
2A116
330
747D
100
AcDbEntity
  8
細線
 48
50.0
100
AcDbLine
 10
4527.055839580403
 20
1050.316213575507
 30
0.0
 11
4647.055839580402
 21
1170.316213575508
 31
0.0
  0
LINE
  5
2A117
330
747D
100
AcDbEntity
  8
部品1
 48
50.0
100
AcDbLine
 10
4523.55850905906
 20
1350.316213575508
 30
0.0
 11
4683.55850905906
 21
1350.316213575508
 31
0.0
  0
LINE
  5
2A118
330
747D
100
AcDbEntity
  8
細線
 48
50.0
100
AcDbLine
 10
4886.685590386075
 20
920.3162135755079
 30
0.0
 11
4894.72406615901
 21
890.3162135755078
 31
0.0
  0
LINE
  5
2A119
330
747D
100
AcDbEntity
  8
細線
 48
50.0
100
AcDbLine
 10
4985.295646570135
 20
920.3162135755079
 30
0.0
 11
4993.334122343068
 21
890.3162135755078
 31
0.0
  0
LINE
  5
2A11A
330
747D
100
AcDbEntity
  8
細線
 48
50.0
100
AcDbLine
 10
4689.465478017954
 20
920.3162135755079
 30
0.0
 11
4697.503953790888
 21
890.3162135755078
 31
0.0
  0
LINE
  5
2A11B
330
747D
100
AcDbEntity
  8
細線
 48
50.0
100
AcDbLine
 10
4788.075534202019
 20
920.3162135755079
 30
0.0
 11
4796.114009974952
 21
890.3162135755078
 31
0.0
  0
LINE
  5
2A11C
330
747D
100
AcDbEntity
  8
細線
 48
50.0
100
AcDbLine
 10
4492.245365649824
 20
920.3162135755079
 30
0.0
 11
4500.283841422758
 21
890.3162135755078
 31
0.0
  0
LINE
  5
2A11D
330
747D
100
AcDbEntity
  8
細線
 48
50.0
100
AcDbLine
 10
4590.855421833889
 20
920.3162135755079
 30
0.0
 11
4598.893897606823
 21
890.3162135755078
 31
0.0
  0
LINE
  5
2A11E
330
747D
100
AcDbEntity
  8
細線
 48
50.0
100
AcDbLine
 10
4878.647114613136
 20
890.3162135755078
 30
0.0
 11
4921.518985402118
 21
1050.316213575507
 31
0.0
  0
LINE
  5
2A11F
330
747D
100
AcDbEntity
  8
細線
 48
50.0
100
AcDbLine
 10
4582.816946060956
 20
890.3162135755078
 30
0.0
 11
4625.688816849934
 21
1050.316213575507
 31
0.0
  0
LINE
  5
2A120
330
747D
100
AcDbEntity
  8
細線
 48
50.0
100
AcDbLine
 10
4681.427002245014
 20
890.3162135755069
 30
0.0
 11
4724.298873033992
 21
1050.316213575507
 31
0.0
  0
LINE
  5
2A121
330
747D
100
AcDbEntity
  8
細線
 48
50.0
100
AcDbLine
 10
4484.206889876882
 20
890.3162135755069
 30
0.0
 11
4527.078760665861
 21
1050.316213575507
 31
0.0
  0
LINE
  5
2A122
330
747D
100
AcDbEntity
  8
部品1
 48
50.0
100
AcDbLine
 10
4423.558509059064
 20
890.3162135755078
 30
0.0
 11
4423.558509059064
 21
1050.316213575507
 31
0.0
  0
LINE
  5
2A123
330
747D
100
AcDbEntity
  8
細線
 48
50.0
100
AcDbLine
 10
4780.037058429079
 20
890.3162135755078
 30
0.0
 11
4822.908929218057
 21
1050.316213575507
 31
0.0
  0
LINE
  5
2A124
330
747D
100
AcDbEntity
  8
細線
 48
50.0
100
AcDbLine
 10
4977.257170797198
 20
890.3162135755069
 30
0.0
 11
5020.129041586177
 21
1050.316213575507
 31
0.0
  0
LINE
  5
2A125
330
747D
100
AcDbEntity
  8
部品1
 48
50.0
100
AcDbLine
 10
5183.558509059064
 20
890.3162135755078
 30
0.0
 11
4423.558509059064
 21
890.3162135755078
 31
0.0
  0
LINE
  5
2A126
330
747D
100
AcDbEntity
  8
部品1
 48
50.0
100
AcDbLine
 10
5183.558509059064
 20
1050.316213575507
 30
0.0
 11
4423.558509059064
 21
1050.316213575507
 31
0.0
  0
LEADER
  5
2A127
330
747D
100
AcDbEntity
  8
寸法
 48
50.0
100
AcDbLeader
  3
INABA_S40G
 71
     0
 73
     0
 74
     0
 75
     1
 40
100.0
 41
540.3409090909091
 76
     3
 10
4895.989970325528
 20
1179.390550558601
 30
0.0
 10
5100.731578885624
 20
752.3520280649798
 30
0.0
 10
5200.731578885624
 20
752.3520280649798
 30
0.0
213
0.0
223
-1.277828345336728
233
0.0
1001
ACAD
1000
DSTYLE
1002
{
1070
   341
1005
0
1002
}
  0
DIMENSION
  5
2A128
330
747D
100
AcDbEntity
  8
寸法
 48
50.0
100
AcDbDimension
  2
*D37
 10
5083.55850905906
 20
591.3641071195748
 30
0.0
 11
4803.558509059058
 21
591.3641071195748
 31
0.0
 70
   160
  1
300
 71
     5
 42
560.0
  3
INABA_S40G
100
AcDbAlignedDimension
 13
4523.55850905906
 23
890.3162135755078
 33
0.0
 14
5083.55850905906
 24
890.3162135755078
 34
0.0
100
AcDbRotatedDimension
1001
ACAD
1000
DSTYLE
1002
{
1070
   341
1005
0
1002
}
  0
LEADER
  5
2A129
330
747D
100
AcDbEntity
  8
寸法
 48
50.0
100
AcDbLeader
  3
INABA_S40G
 71
     0
 73
     0
 74
     0
 75
     1
 40
100.0
 41
225.0
 76
     3
 10
4963.437199499239
 20
1200.316213575508
 30
0.0
 10
5087.718083817415
 20
1081.069877396793
 30
0.0
 10
5187.718083817415
 20
1081.069877396793
 30
0.0
1001
ACAD
1000
DSTYLE
1002
{
1070
   341
1005
0
1002
}
  0
LINE
  5
2A12A
330
747D
100
AcDbEntity
  8
細線
 48
50.0
100
AcDbLine
 10
4936.46352321247
 20
1190.316213575508
 30
0.0
 11
5083.55850905906
 21
1337.411199422091
 31
0.0
  0
LINE
  5
2A12B
330
747D
100
AcDbEntity
  8
細線
 48
50.0
100
AcDbLine
 10
5003.815444120496
 20
1190.316213575508
 30
0.0
 11
5083.55850905906
 21
1270.059278514073
 31
0.0
  0
LINE
  5
2A12C
330
747D
100
AcDbEntity
  8
細線
 48
50.0
100
AcDbLine
 10
4970.139483666489
 20
1190.316213575508
 30
0.0
 11
5083.55850905906
 21
1303.735238968082
 31
0.0
  0
LINE
  5
2A12D
330
747D
100
AcDbEntity
  8
部品1
 48
50.0
100
AcDbLine
 10
4923.55850905906
 20
1350.316213575508
 30
0.0
 11
5083.55850905906
 21
1350.316213575508
 31
0.0
  0
LINE
  5
2A12E
330
747D
100
AcDbEntity
  8
部品1
 48
50.0
100
AcDbLine
 10
4833.558509059066
 20
1200.316213575508
 30
0.0
 11
4833.55850905906
 21
1855.634250318315
 31
0.0
  0
LINE
  5
2A12F
330
747D
100
AcDbEntity
  8
部品1
 48
50.0
100
AcDbLine
 10
4813.558509059067
 20
1200.316213575508
 30
0.0
 11
4813.558509059053
 21
1855.634250318315
 31
0.0
  0
LINE
  5
2A130
330
747D
100
AcDbEntity
  8
部品1
 48
50.0
100
AcDbLine
 10
4683.55850905906
 20
1350.316213575508
 30
0.0
 11
4683.55850905906
 21
2030.316213575509
 31
0.0
  0
LINE
  5
2A131
330
747D
100
AcDbEntity
  8
細線
 48
50.0
100
AcDbLine
 10
4683.55850905906
 20
1442.550606232231
 30
0.0
 11
4813.558509059067
 21
1572.550606232235
 31
0.0
  0
LINE
  5
2A132
330
747D
100
AcDbEntity
  8
細線
 48
50.0
100
AcDbLine
 10
4683.55850905906
 20
1476.226566686241
 30
0.0
 11
4813.55850905906
 21
1606.226566686241
 31
0.0
  0
LINE
  5
2A133
330
747D
100
AcDbEntity
  8
細線
 48
50.0
100
AcDbLine
 10
4683.55850905906
 20
1408.874645778222
 30
0.0
 11
4813.558509059067
 21
1538.874645778222
 31
0.0
  0
LINE
  5
2A134
330
747D
100
AcDbEntity
  8
部品1
 48
50.0
100
AcDbLine
 10
4923.55850905906
 20
2030.316213575509
 30
0.0
 11
4923.55850905906
 21
1350.316213575508
 31
0.0
  0
MTEXT
  5
2A135
102
{ACAD_REACTORS
330
2A136
102
}
330
747D
100
AcDbEntity
  8
寸法
 62
     7
 48
50.0
100
AcDbMText
 10
4309.889726315067
 20
945.9128465524631
 30
0.0
 40
100.0
 41
1.0
 71
     6
 72
     1
  1
D10
  7
STYLE2
 73
     1
 44
1.0
1001
ACAD
1000
MTEXTBEGIN
1070
    73
1070
     1
1070
    44
1040
1.0
1070
    74
1070
     0
1000
MTEXTEND
  0
LEADER
  5
2A136
330
747D
100
AcDbEntity
  8
寸法
 48
50.0
100
AcDbLeader
  3
INABA_S40G
 71
     0
 73
     0
 75
     1
 40
100.0
 41
225.0
 76
     3
 10
4643.437199499238
 20
1200.316213575508
 30
0.0
 10
4434.889726315067
 20
870.912846552463
 30
0.0
 10
4334.889726315068
 20
870.912846552463
 30
0.0
1001
ACAD
1000
DSTYLE
1002
{
1070
   341
1005
0
1002
}
  0
LEADER
  5
2A137
330
747D
100
AcDbEntity
  8
寸法
 48
50.0
100
AcDbLeader
  3
INABA_S40G
 71
     0
 73
     0
 75
     1
 40
100.0
 41
222.7272727272727
 76
     3
 10
4803.558509059058
 20
1200.316213575508
 30
0.0
 10
4470.043135761861
 20
645.517655878159
 30
0.0
 10
4370.043135761861
 20
645.517655878159
 30
0.0
1001
ACAD
1000
DSTYLE
1002
{
1070
   341
1005
0
1002
}
  0
MTEXT
  5
2A138
102
{ACAD_REACTORS
330
2A137
102
}
330
747D
100
AcDbEntity
  8
寸法
 62
     7
 48
50.0
100
AcDbMText
 10
4345.043135761861
 20
720.517655878159
 30
0.0
 40
100.0
 41
1.0
 71
     6
 72
     1
  1
D13
  7
STYLE2
 73
     1
 44
1.0
1001
ACAD
1000
MTEXTBEGIN
1070
    73
1070
     1
1070
    44
1040
1.0
1070
    74
1070
     0
1000
MTEXTEND
  0
MTEXT
  5
2A139
102
{ACAD_REACTORS
330
2A13A
102
}
330
747D
100
AcDbEntity
  8
寸法
 62
     7
 48
50.0
100
AcDbMText
 10
4571.995941280554
 20
1531.941967097329
 30
0.0
 40
100.0
 41
1.0
 71
     6
 72
     1
  1
\A1;D10@300
  7
STYLE2
 73
     1
 44
1.0
1001
ACAD
1000
MTEXTBEGIN
1070
    73
1070
     1
1070
    44
1040
1.0
1070
    74
1070
     0
1000
MTEXTEND
  0
LEADER
  5
2A13A
330
747D
100
AcDbEntity
  8
寸法
 48
50.0
100
AcDbLeader
  3
INABA_S40G
 71
     0
 73
     0
 75
     1
 40
100.0
 41
540.3409090909091
 76
     3
 10
4813.55850905906
 20
1727.975231946912
 30
0.0
 10
4684.830713398188
 20
1451.137321270907
 30
0.0
 10
4584.830713398188
 20
1451.137321270907
 30
0.0
213
-12.16522788236671
223
-5.804645826423211
233
0.0
1001
ACAD
1000
DSTYLE
1002
{
1070
   341
1005
0
1002
}
  0
LEADER
  5
2A13B
330
747D
100
AcDbEntity
  8
寸法
 48
50.0
100
AcDbLeader
  3
INABA_S40G
 71
     0
 73
     0
 75
     1
 40
130.1136363636363
 41
651.1363636363636
 76
     3
 10
4783.55850905906
 20
2030.316213575509
 30
0.0
 10
4724.640509140777
 20
2205.904670396243
 30
0.0
 10
4624.640509140777
 20
2205.904670396243
 30
0.0
1001
ACAD
1000
DSTYLE
1002
{
1070
   341
1005
0
1002
}
  0
MTEXT
  5
2A13C
102
{ACAD_REACTORS
330
2A13B
102
}
330
747D
100
AcDbEntity
  8
寸法
 62
     7
 48
50.0
100
AcDbMText
 10
4599.640509140778
 20
2295.961488578062
 30
0.0
 40
100.0
 41
1.0
 71
     6
 72
     1
  1
\A1;金コテ押エ
  7
STYLE2
 73
     1
 44
1.0
1001
ACAD
1000
MTEXTBEGIN
1070
    73
1070
     1
1070
    44
1040
1.0
1070
    74
1070
     0
1000
MTEXTEND
  0
DIMENSION
  5
2A13D
330
747D
100
AcDbEntity
  8
寸法
 48
50.0
100
AcDbDimension
  2
*D38
 10
3922.913571022997
 20
1050.316213575507
 30
0.0
 11
3922.913571022996
 21
1540.316213575509
 31
0.0
 70
   160
  1
540
 71
     5
 42
980.000000000002
  3
INABA_S40G
100
AcDbAlignedDimension
 13
4683.558509059058
 23
2030.316213575509
 33
0.0
 14
4423.558509059064
 24
1050.316213575507
 34
0.0
 50
90.0
100
AcDbRotatedDimension
1001
ACAD
1000
DSTYLE
1002
{
1070
   341
1005
0
1002
}
  0
DIMENSION
  5
2A13E
330
747D
100
AcDbEntity
  8
寸法
 48
50.0
100
AcDbDimension
  2
*D39
 10
4345.533116893485
 20
1050.316213575507
 30
0.0
 11
4345.533116893485
 21
1200.316213575508
 31
0.0
 70
   160
  1
150
 71
     5
 42
300.0000000000009
  3
INABA_S40G
100
AcDbAlignedDimension
 13
4523.55850905906
 23
1350.316213575508
 33
0.0
 14
4423.558509059064
 24
1050.316213575507
 34
0.0
 50
90.0
100
AcDbRotatedDimension
1001
ACAD
1000
DSTYLE
1002
{
1070
   341
1005
0
1002
}
  0
LWPOLYLINE
  5
2A13F
330
747D
100
AcDbEntity
  8
部品1
 48
50.0
100
AcDbPolyline
 90
        2
 70
     0
 43
10.0
 10
4165.883631767863
 20
1730.31621357551
 10
4683.558509059058
 20
1730.31621357551
  0
TEXT
  5
2A140
330
747D
100
AcDbEntity
  8
部品1
 48
50.0
100
AcDbText
 10
4165.883631767863
 20
1744.364953929578
 30
0.0
 40
100.0
  1
▽G.L
  7
STYLE2
100
AcDbText
  0
LEADER
  5
2A141
330
747D
100
AcDbEntity
  8
寸法
 48
50.0
100
AcDbLeader
  3
INABA_S40G
 73
     0
 75
     1
 40
132.9545454545455
 41
1116.477272727273
 76
     3
 10
6972.857650530553
 20
2117.266213575509
 30
0.0
 10
6864.827560099378
 20
2576.090681970924
 30
0.0
 10
6764.827560099378
 20
2576.090681970924
 30
0.0
340
2A142
1001
ACAD
1000
DSTYLE
1002
{
1070
   341
1005
0
1002
}
  0
MTEXT
  5
2A142
102
{ACAD_REACTORS
330
2A141
102
}
330
747D
100
AcDbEntity
  8
寸法
 62
     7
 48
50.0
100
AcDbMText
 10
6724.827560099377
 20
2682.567954698197
 30
0.0
 40
100.0
 41
1.0
 71
     6
 72
     1
  1
\A1;アンカープレート L
  7
STYLE2
 73
     1
 44
1.0
1001
ACAD
1000
MTEXTBEGIN
1070
    73
1070
     1
1070
    44
1040
1.0
1070
    74
1070
     0
1000
MTEXTEND
  0
MTEXT
  5
2A143
102
{ACAD_REACTORS
330
2A144
102
}
330
747D
100
AcDbEntity
  8
部品1
 62
     7
 48
50.0
100
AcDbMText
 10
7335.80011442225
 20
3137.146783390569
 30
0.0
 40
100.0
 41
1.0
 71
     4
 72
     1
  1
\A1;ナット(市販品)
  7
STYLE2
 73
     1
 44
1.0
1001
ACAD
1000
MTEXTBEGIN
1070
    73
1070
     1
1070
    44
1040
1.0
1070
    74
1070
     0
1000
MTEXTEND
  0
LEADER
  5
2A144
330
747D
100
AcDbEntity
  8
寸法
 48
50.0
100
AcDbLeader
  3
INABA_S40G
 73
     0
 74
     0
 75
     1
 40
127.8409090909091
 41
850.0
 76
     3
 10
7105.357650530553
 20
2528.910314961937
 30
0.0
 10
7195.800114422251
 20
3033.226328845115
 30
0.0
 10
7295.800114422251
 20
3033.226328845115
 30
0.0
340
2A143
1001
ACAD
1000
DSTYLE
1002
{
1070
   341
1005
0
1002
}
  0
MTEXT
  5
2A145
102
{ACAD_REACTORS
330
2A146
102
}
330
747D
100
AcDbEntity
  8
部品1
 62
     7
 48
50.0
100
AcDbMText
 10
7375.197138491604
 20
2905.935429934584
 30
0.0
 40
100.0
 41
1.0
 71
     4
 72
     1
  1
\A1;ワッシャー(市販品)
  7
STYLE2
 73
     1
 44
1.0
1001
ACAD
1000
MTEXTBEGIN
1070
    73
1070
     1
1070
    44
1040
1.0
1070
    74
1070
     0
1000
MTEXTEND
  0
LEADER
  5
2A146
330
747D
100
AcDbEntity
  8
寸法
 48
50.0
100
AcDbLeader
  3
INABA_S40G
 73
     0
 74
     0
 75
     1
 40
127.8409090909091
 41
1133.522727272727
 76
     3
 10
7135.357650530552
 20
2366.720324130859
 30
0.0
 10
7235.197138491604
 20
2802.014975389129
 30
0.0
 10
7335.197138491604
 20
2802.014975389129
 30
0.0
340
2A145
1001
ACAD
1000
DSTYLE
1002
{
1070
   341
1005
0
1002
}
  0
DIMENSION
  5
2A147
330
747D
100
AcDbEntity
  8
寸法
 48
50.0
100
AcDbDimension
  2
*D40
 10
4683.558509059058
 20
2554.900973470985
 30
0.0
 11
4803.558509059058
 21
2554.900973470985
 31
0.0
 70
   160
  1
120\P(195)
 71
     5
 42
240.0
  3
INABA_S40G
100
AcDbAlignedDimension
 13
4923.558509059058
 23
2030.316213575509
 33
0.0
 14
4683.558509059058
 24
2030.316213575509
 34
0.0
100
AcDbRotatedDimension
1001
ACAD
1000
DSTYLE
1002
{
1070
   341
1005
0
1002
}
  0
LINE
  5
2A148
330
747D
100
AcDbEntity
  8
部品1
100
AcDbLine
 10
3564.757817507282
 20
3681.530738296564
 30
0.0
 11
3564.757817507282
 21
422.4612389418767
 31
0.0
  0
MTEXT
  5
2A149
102
{ACAD_REACTORS
330
2A14A
102
}
330
747D
100
AcDbEntity
  8
寸法
 62
     7
 48
50.0
100
AcDbMText
 10
6691.523802338931
 20
3133.423294582591
 30
0.0
 40
100.0
 41
1.0
 71
     6
 72
     1
  1
\A1;φ70スリーブ
  7
STYLE2
 73
     1
 44
1.0
1001
ACAD
1000
MTEXTBEGIN
1070
    73
1070
     1
1070
    44
1040
1.0
1070
    74
1070
     0
1000
MTEXTEND
  0
LEADER
  5
2A14A
330
747D
100
AcDbEntity
  8
寸法
 48
50.0
100
AcDbLeader
  3
INABA_S40G
 73
     0
 75
     1
 40
141.4772727272727
 41
760.7954545454546
 76
     3
 10
7046.278588203114
 20
1967.210805273357
 30
0.0
 10
6831.523802338931
 20
3022.684658218955
 30
0.0
 10
6731.523802338931
 20
3022.684658218955
 30
0.0
340
2A149
1001
ACAD
1000
DSTYLE
1002
{
1070
   341
1005
0
1002
}
  0
LINE
  5
2A14B
330
747D
100
AcDbEntity
  8
部品1
100
AcDbLine
 10
10461.2325136053
 20
3681.530738296566
 30
0.0
 11
3564.757817507278
 21
3681.530738296564
 31
0.0
  0
LINE
  5
2A14C
330
747D
100
AcDbEntity
  8
部品1
100
AcDbLine
 10
10461.2325136053
 20
3381.530738296564
 30
0.0
 11
3564.757817507278
 21
3381.530738296564
 31
0.0
  0
LINE
  5
2A14D
330
747D
100
AcDbEntity
  8
部品1
100
AcDbLine
 10
3564.757817507278
 20
422.4612389418767
 30
0.0
 11
10461.2325136053
 21
422.4612389418767
 31
0.0
  0
LINE
  5
2A14E
330
747D
100
AcDbEntity
  8
部品1
100
AcDbLine
 10
8970.72158578617
 20
1455.692569008817
 30
0.0
 11
9870.721585786169
 21
1455.692569008821
 31
0.0
  0
LINE
  5
2A14F
330
747D
100
AcDbEntity
  8
部品1
100
AcDbLine
 10
8970.72158578617
 20
1615.692569008821
 30
0.0
 11
9870.721585786169
 21
1615.692569008824
 31
0.0
  0
LWPOLYLINE
  5
2A150
330
747D
100
AcDbEntity
  8
部品1
 48
50.0
100
AcDbPolyline
 90
        2
 70
     0
 43
15.0
 10
8639.957508160685
 20
1730.316213575509
 10
10141.32288707521
 20
1730.316213575509
  0
LINE
  5
2A151
330
747D
100
AcDbEntity
  8
細線
100
AcDbLine
 10
9112.017078910328
 20
1615.692569008821
 30
0.0
 11
9226.64072347702
 21
1730.316213575508
 31
0.0
  0
LINE
  5
2A152
330
747D
100
AcDbEntity
  8
部品1
100
AcDbLine
 10
9120.721585786169
 20
2030.316213575509
 30
0.0
 11
9720.721585786169
 21
2030.316213575509
 31
0.0
  0
LINE
  5
2A153
330
747D
100
AcDbEntity
  8
細線
100
AcDbLine
 10
9300.373642575356
 20
1730.316213575509
 30
0.0
 11
9120.721585786169
 21
1909.968270364699
 31
0.0
  0
LINE
  5
2A154
330
747D
100
AcDbEntity
  8
細線
100
AcDbLine
 10
9364.013252882148
 20
1730.316213575509
 30
0.0
 11
9120.721585786169
 21
1973.607880671487
 31
0.0
  0
HATCH
  5
2A28D
330
747D
100
AcDbEntity
  8
細線
 48
50.0
100
AcDbHatch
 10
0.0
 20
0.0
 30
0.0
210
0.0
220
0.0
230
1.0
  2
LINE
 70
     0
 71
     1
 91
        6
 92
        7
 72
     0
 73
     1
 93
        4
 10
6997.099999999997
 20
8817.513207084733
 10
6797.099999999997
 20
8817.513207084727
 10
6797.099999999997
 20
8697.513207084728
 10
6997.099999999997
 20
8697.513207084728
 97
        4
330
261B8
330
2646C
330
26453
330
2646A
 92
        7
 72
     0
 73
     1
 93
        4
 10
9532.099999999998
 20
8817.513207084727
 10
9332.099999999996
 20
8817.513207084727
 10
9332.099999999996
 20
8697.513207084728
 10
9532.099999999998
 20
8697.513207084728
 97
        4
330
261B8
330
2650A
330
261AF
330
26509
 92
        7
 72
     0
 73
     1
 93
        4
 10
10858.6
 20
7387.51320708473
 10
10738.6
 20
7387.51320708473
 10
10738.6
 20
7187.51320708473
 10
10858.6
 20
7187.51320708473
 97
        4
330
2651D
330
26481
330
2651C
330
26480
 92
        7
 72
     0
 73
     1
 93
        4
 10
9532.100000000021
 20
5877.513207084742
 10
9332.100000000018
 20
5877.513207084741
 10
9332.100000000016
 20
5757.513207084735
 10
9532.100000000017
 20
5757.513207084737
 97
        4
330
261B4
330
264F4
330
261B3
330
264F5
 92
        7
 72
     0
 73
     1
 93
        4
 10
6997.10000000001
 20
5877.513207084735
 10
6797.100000000009
 20
5877.513207084734
 10
6797.100000000007
 20
5682.513207084722
 10
6997.100000000007
 20
5682.513207084723
 97
        4
330
26233
330
26324
330
26231
330
26322
 92
        7
 72
     0
 73
     1
 93
        4
 10
5708.6
 20
7387.51320708473
 10
5588.6
 20
7387.51320708473
 10
5588.6
 20
7187.51320708473
 10
5708.600000000001
 20
7187.51320708473
 97
        4
330
2645C
330
261CB
330
2645B
330
261CC
 75
     0
 76
     1
 52
45.0
 41
10.0
 77
     0
 78
     1
 53
45.0
 43
0.0
 44
0.0
 45
-22.45064030267288
 46
22.45064030267288
 79
     0
 47
10.76644362471195
 98
        6
 10
6957.807164569292
 20
8761.16068009289
 10
9478.238927818189
 20
8750.394230825135
 10
10792.31018462091
 20
7253.858530234146
 10
9435.15461486899
 20
5854.220873052938
 10
6990.120447305824
 20
5789.622218981239
 10
5643.735971799404
 20
7243.092122501214
  0
ENDSEC
  0
SECTION
  2
OBJECTS
  0
DICTIONARY
  5
7471
330
0
100
AcDbDictionary
281
     1
  3
ACAD_COLOR
350
173D2
  3
ACAD_GROUP
350
7472
  3
ACAD_LAYOUT
350
173D3
  3
ACAD_MATERIAL
350
173D1
  3
ACAD_MLINESTYLE
350
7473
  3
ACAD_PLOTSETTINGS
350
173D4
  3
ACAD_PLOTSTYLENAME
350
173CF
  3
ACDBHEADERROUNDTRIPXREC
350
2A45C
  3
AcDbVariableDictionary
350
2A298
  3
CONTENTDICTIONARY
350
E71C
  3
DRAWINGVARIABLESDICT
350
F3B9
  0
DICTIONARY
  5
1758F
330
7467
100
AcDbDictionary
280
     1
281
     1
  3
ACAD_LAYERSTATES
360
17590
  0
DICTIONARY
  5
173D2
102
{ACAD_REACTORS
330
7471
102
}
330
7471
100
AcDbDictionary
281
     1
  0
DICTIONARY
  5
7472
102
{ACAD_REACTORS
330
7471
102
}
330
7471
100
AcDbDictionary
281
     1
  3
*A1
350
1D2A9
  0
DICTIONARY
  5
173D3
102
{ACAD_REACTORS
330
7471
102
}
330
7471
100
AcDbDictionary
281
     1
  3
Model
350
173D5
  3
レイアウト1
350
173D6
  0
DICTIONARY
  5
173D1
102
{ACAD_REACTORS
330
7471
102
}
330
7471
100
AcDbDictionary
281
     1
  0
DICTIONARY
  5
7473
102
{ACAD_REACTORS
330
7471
102
}
330
7471
100
AcDbDictionary
281
     1
  3
STANDARD
350
7480
  0
DICTIONARY
  5
173D4
102
{ACAD_REACTORS
330
7471
102
}
330
7471
100
AcDbDictionary
281
     1
  0
ACDBDICTIONARYWDFLT
  5
173CF
102
{ACAD_REACTORS
330
7471
102
}
330
7471
100
AcDbDictionary
281
     1
  3
Normal
350
173D0
100
AcDbDictionaryWithDefault
340
173D0
  0
DICTIONARY
  5
2A45C
102
{ACAD_REACTORS
330
7471
102
}
330
7471
100
AcDbDictionary
281
     1
  3
COLORDICT
350
2A45E
  3
MATERIALDICT
350
2A45D
  0
DICTIONARY
  5
2A298
102
{ACAD_REACTORS
330
7471
102
}
330
7471
100
AcDbDictionary
281
     1
  3
DIMASSOC
350
2A299
  3
PROJECTNAME
350
2A29A
  0
DICTIONARY
  5
E71C
102
{ACAD_REACTORS
330
7471
102
}
330
7471
100
AcDbDictionary
281
     1
  0
DICTIONARY
  5
F3B9
102
{ACAD_REACTORS
330
7471
102
}
330
7471
100
AcDbDictionary
281
     1
1001
DRAWINGVARIABLESXDATA
1000
POLARMODE
1000
1
  0
DICTIONARY
  5
17590
102
{ACAD_REACTORS
330
1758F
102
}
330
1758F
100
AcDbDictionary
281
     1
  0
GROUP
  5
1D2A9
102
{ACAD_REACTORS
330
7472
102
}
330
7472
100
AcDbGroup
300

 70
     1
 71
     1
  0
LAYOUT
  5
173D5
102
{ACAD_XDICTIONARY
360
2A45F
102
}
102
{ACAD_REACTORS
330
173D3
102
}
330
173D3
100
AcDbPlotSettings
  1

  2
クセロPDF
  4
A3
  6

 40
3.174999999999999
 41
3.174999999999999
 42
3.174987999999999
 43
3.174987999999999
 44
419.946655
 45
296.925995
 46
0.0
 47
0.0
 48
0.0
 49
0.0
140
0.0
141
0.0
142
1.0
143
40.88431155294937
 70
 11952
 72
     1
 73
     0
 74
     2
  7
inaba.ctb
 75
     0
147
0.0244592598484849
148
0.0
149
0.0
100
AcDbLayout
  1
Model
 70
     1
 71
     0
 10
0.0
 20
0.0
 11
12.0
 21
9.0
 12
0.0
 22
0.0
 32
0.0
 14
0.0
 24
0.0
 34
0.0
 15
0.0
 25
0.0
 35
0.0
146
0.0
 13
0.0
 23
0.0
 33
0.0
 16
1.0
 26
0.0
 36
0.0
 17
0.0
 27
1.0
 37
0.0
 76
     0
330
747D
  0
LAYOUT
  5
173D6
102
{ACAD_XDICTIONARY
360
2A461
102
}
102
{ACAD_REACTORS
330
173D3
102
}
330
173D3
100
AcDbPlotSettings
  1

  2
Microsoft Office Document Image Writer
  4

  6

 40
0.0
 41
0.0
 42
0.0
 43
0.0
 44
0.0
 45
0.0
 46
0.0
 47
0.0
 48
0.0
 49
0.0
140
0.0
141
0.0
142
1.0
143
1.0
 70
   688
 72
     0
 73
     0
 74
     5
  7

 75
    16
147
1.0
148
0.0
149
0.0
100
AcDbLayout
  1
レイアウト1
 70
     0
 71
     1
 10
0.0
 20
0.0
 11
420.0
 21
297.0
 12
0.0
 22
0.0
 32
0.0
 14
1.000000000000000E+20
 24
1.000000000000000E+20
 34
1.000000000000000E+20
 15
-1.000000000000000E+20
 25
-1.000000000000000E+20
 35
-1.000000000000000E+20
146
0.0
 13
0.0
 23
0.0
 33
0.0
 16
1.0
 26
0.0
 36
0.0
 17
0.0
 27
1.0
 37
0.0
 76
     0
330
747A
  0
MLINESTYLE
  5
7480
102
{ACAD_REACTORS
330
7473
102
}
330
7473
100
AcDbMlineStyle
  2
STANDARD
 70
     0
  3

 62
     0
 51
90.0
 52
90.0
 71
     2
 49
0.5
 62
   256
  6
BYLAYER
 49
-0.5
 62
   256
  6
BYLAYER
  0
ACDBPLACEHOLDER
  5
173D0
102
{ACAD_REACTORS
330
173CF
102
}
330
173CF
  0
XRECORD
  5
2A45E
102
{ACAD_REACTORS
330
2A45C
102
}
330
2A45C
100
AcDbXrecord
280
     1
340
173D2
  0
XRECORD
  5
2A45D
102
{ACAD_REACTORS
330
2A45C
102
}
330
2A45C
100
AcDbXrecord
280
     1
340
173D1
  0
DICTIONARYVAR
  5
2A299
102
{ACAD_REACTORS
330
2A298
102
}
330
2A298
100
DictionaryVariables
280
     0
  1
1
  0
DICTIONARYVAR
  5
2A29A
102
{ACAD_REACTORS
330
2A298
102
}
330
2A298
100
DictionaryVariables
280
     0
  1

  0
DICTIONARY
  5
2A45F
330
173D5
100
AcDbDictionary
280
     1
281
     1
  3
ACAD_XREC_ROUNDTRIP
360
2A460
  0
DICTIONARY
  5
2A461
330
173D6
100
AcDbDictionary
280
     1
281
     1
  3
ACAD_XREC_ROUNDTRIP
360
2A462
  0
XRECORD
  5
2A460
102
{ACAD_REACTORS
330
2A45F
102
}
330
2A45F
100
AcDbXrecord
280
     1
102
SHADEPLOT
 70
     1
102
SHADEPLOTRESLEVEL
 70
     2
102
SHADEPLOTCUSTOMDPI
 70
   300
  0
XRECORD
  5
2A462
102
{ACAD_REACTORS
330
2A461
102
}
330
2A461
100
AcDbXrecord
280
     1
102
SHADEPLOT
 70
     0
102
SHADEPLOTRESLEVEL
 70
     2
102
SHADEPLOTCUSTOMDPI
 70
   300
  0
ENDSEC
  0
EOF
