  0
SECTION
  2
HEADER
  9
$ACADVER
  1
AC1015
  9
$ACADMAINTVER
 70
    20
  9
$DWGCODEPAGE
  3
ANSI_932
  9
$INSBASE
 10
0.0
 20
0.0
 30
0.0
  9
$EXTMIN
 10
139.9999999999995
 20
-0.0000000000000909
 30
0.0
  9
$EXTMAX
 10
16307.2
 20
11409.6
 30
0.0
  9
$LIMMIN
 10
0.0
 20
0.0
  9
$LIMMAX
 10
16800.0
 20
11880.0
  9
$ORTHOMODE
 70
     0
  9
$REGENMODE
 70
     1
  9
$FILLMODE
 70
     1
  9
$QTEXTMODE
 70
     0
  9
$MIRRTEXT
 70
     1
  9
$LTSCALE
 40
20.0
  9
$ATTMODE
 70
     1
  9
$TEXTSIZE
 40
4.0
  9
$TRACEWID
 40
1.0
  9
$TEXTSTYLE
  7
STYLE1
  9
$CLAYER
  8
細線
  9
$CELTYPE
  6
BYLAYER
  9
$CECOLOR
 62
   256
  9
$CELTSCALE
 40
50.0
  9
$DISPSILH
 70
     0
  9
$DIMSCALE
 40
40.0
  9
$DIMASZ
 40
2.5
  9
$DIMEXO
 40
0.5
  9
$DIMDLI
 40
7.0
  9
$DIMRND
 40
0.0
  9
$DIMDLE
 40
0.0
  9
$DIMEXE
 40
1.5
  9
$DIMTP
 40
0.0
  9
$DIMTM
 40
0.0
  9
$DIMTXT
 40
3.0
  9
$DIMCEN
 40
0.0
  9
$DIMTSZ
 40
0.0
  9
$DIMTOL
 70
     0
  9
$DIMLIM
 70
     0
  9
$DIMTIH
 70
     0
  9
$DIMTOH
 70
     0
  9
$DIMSE1
 70
     0
  9
$DIMSE2
 70
     0
  9
$DIMTAD
 70
     3
  9
$DIMZIN
 70
     8
  9
$DIMBLK
  1

  9
$DIMASO
 70
     1
  9
$DIMSHO
 70
     1
  9
$DIMPOST
  1

  9
$DIMAPOST
  1

  9
$DIMALT
 70
     0
  9
$DIMALTD
 70
     2
  9
$DIMALTF
 40
0.0394
  9
$DIMLFAC
 40
1.0
  9
$DIMTOFL
 70
     1
  9
$DIMTVP
 40
0.0
  9
$DIMTIX
 70
     1
  9
$DIMSOXD
 70
     0
  9
$DIMSAH
 70
     1
  9
$DIMBLK1
  1
DOTSMALL
  9
$DIMBLK2
  1
DOTSMALL
  9
$DIMSTYLE
  2
INABA_S40G
  9
$DIMCLRD
 70
     0
  9
$DIMCLRE
 70
     0
  9
$DIMCLRT
 70
     7
  9
$DIMTFAC
 40
1.0
  9
$DIMGAP
 40
1.0
  9
$DIMJUST
 70
     0
  9
$DIMSD1
 70
     0
  9
$DIMSD2
 70
     0
  9
$DIMTOLJ
 70
     1
  9
$DIMTZIN
 70
     0
  9
$DIMALTZ
 70
     0
  9
$DIMALTTZ
 70
     0
  9
$DIMUPT
 70
     0
  9
$DIMDEC
 70
     1
  9
$DIMTDEC
 70
     4
  9
$DIMALTU
 70
     2
  9
$DIMALTTD
 70
     2
  9
$DIMTXSTY
  7
STYLE1
  9
$DIMAUNIT
 70
     0
  9
$DIMADEC
 70
     0
  9
$DIMALTRND
 40
0.0
  9
$DIMAZIN
 70
     0
  9
$DIMDSEP
 70
    46
  9
$DIMATFIT
 70
     3
  9
$DIMFRAC
 70
     0
  9
$DIMLDRBLK
  1

  9
$DIMLUNIT
 70
     2
  9
$DIMLWD
 70
    -2
  9
$DIMLWE
 70
    -2
  9
$DIMTMOVE
 70
     0
  9
$LUNITS
 70
     2
  9
$LUPREC
 70
     1
  9
$SKETCHINC
 40
1.0
  9
$FILLETRAD
 40
3.0
  9
$AUNITS
 70
     0
  9
$AUPREC
 70
     0
  9
$MENU
  1
acad
  9
$ELEVATION
 40
0.0
  9
$PELEVATION
 40
0.0
  9
$THICKNESS
 40
0.0
  9
$LIMCHECK
 70
     0
  9
$CHAMFERA
 40
0.0
  9
$CHAMFERB
 40
0.0
  9
$CHAMFERC
 40
0.0
  9
$CHAMFERD
 40
0.0
  9
$SKPOLY
 70
     0
  9
$TDCREATE
 40
2451368.612993866
  9
$TDUCREATE
 40
2451368.237993866
  9
$TDUPDATE
 40
2455827.764395753
  9
$TDUUPDATE
 40
2455827.389395753
  9
$TDINDWG
 40
0.8610119329
  9
$TDUSRTIMER
 40
0.8610110301
  9
$USRTIMER
 70
     1
  9
$ANGBASE
 50
0.0
  9
$ANGDIR
 70
     0
  9
$PDMODE
 70
     3
  9
$PDSIZE
 40
2.0
  9
$PLINEWID
 40
0.0
  9
$SPLFRAME
 70
     0
  9
$SPLINETYPE
 70
     6
  9
$SPLINESEGS
 70
     8
  9
$HANDSEED
  5
2690F
  9
$SURFTAB1
 70
     6
  9
$SURFTAB2
 70
     6
  9
$SURFTYPE
 70
     6
  9
$SURFU
 70
     6
  9
$SURFV
 70
     6
  9
$UCSBASE
  2

  9
$UCSNAME
  2

  9
$UCSORG
 10
0.0
 20
0.0
 30
0.0
  9
$UCSXDIR
 10
1.0
 20
0.0
 30
0.0
  9
$UCSYDIR
 10
0.0
 20
1.0
 30
0.0
  9
$UCSORTHOREF
  2

  9
$UCSORTHOVIEW
 70
     0
  9
$UCSORGTOP
 10
0.0
 20
0.0
 30
0.0
  9
$UCSORGBOTTOM
 10
0.0
 20
0.0
 30
0.0
  9
$UCSORGLEFT
 10
0.0
 20
0.0
 30
0.0
  9
$UCSORGRIGHT
 10
0.0
 20
0.0
 30
0.0
  9
$UCSORGFRONT
 10
0.0
 20
0.0
 30
0.0
  9
$UCSORGBACK
 10
0.0
 20
0.0
 30
0.0
  9
$PUCSBASE
  2

  9
$PUCSNAME
  2

  9
$PUCSORG
 10
0.0
 20
0.0
 30
0.0
  9
$PUCSXDIR
 10
1.0
 20
0.0
 30
0.0
  9
$PUCSYDIR
 10
0.0
 20
1.0
 30
0.0
  9
$PUCSORTHOREF
  2

  9
$PUCSORTHOVIEW
 70
     0
  9
$PUCSORGTOP
 10
0.0
 20
0.0
 30
0.0
  9
$PUCSORGBOTTOM
 10
0.0
 20
0.0
 30
0.0
  9
$PUCSORGLEFT
 10
0.0
 20
0.0
 30
0.0
  9
$PUCSORGRIGHT
 10
0.0
 20
0.0
 30
0.0
  9
$PUCSORGFRONT
 10
0.0
 20
0.0
 30
0.0
  9
$PUCSORGBACK
 10
0.0
 20
0.0
 30
0.0
  9
$USERI1
 70
     0
  9
$USERI2
 70
     0
  9
$USERI3
 70
     0
  9
$USERI4
 70
     0
  9
$USERI5
 70
     0
  9
$USERR1
 40
0.0
  9
$USERR2
 40
0.0
  9
$USERR3
 40
0.0
  9
$USERR4
 40
0.0
  9
$USERR5
 40
0.0
  9
$WORLDVIEW
 70
     1
  9
$SHADEDGE
 70
     3
  9
$SHADEDIF
 70
    70
  9
$TILEMODE
 70
     1
  9
$MAXACTVP
 70
    16
  9
$PINSBASE
 10
0.0
 20
0.0
 30
0.0
  9
$PLIMCHECK
 70
     0
  9
$PEXTMIN
 10
1.000000000000000E+20
 20
1.000000000000000E+20
 30
1.000000000000000E+20
  9
$PEXTMAX
 10
-1.000000000000000E+20
 20
-1.000000000000000E+20
 30
-1.000000000000000E+20
  9
$PLIMMIN
 10
0.0
 20
0.0
  9
$PLIMMAX
 10
420.0
 20
297.0
  9
$UNITMODE
 70
     0
  9
$VISRETAIN
 70
     0
  9
$PLINEGEN
 70
     0
  9
$PSLTSCALE
 70
     0
  9
$TREEDEPTH
 70
  3020
  9
$CMLSTYLE
  2
STANDARD
  9
$CMLJUST
 70
     0
  9
$CMLSCALE
 40
1.0
  9
$PROXYGRAPHICS
 70
     1
  9
$MEASUREMENT
 70
     1
  9
$CELWEIGHT
370
    -1
  9
$ENDCAPS
280
     0
  9
$JOINSTYLE
280
     0
  9
$LWDISPLAY
290
     0
  9
$INSUNITS
 70
     0
  9
$HYPERLINKBASE
  1

  9
$STYLESHEET
  1
inaba.ctb
  9
$XEDIT
290
     1
  9
$CEPSNTYPE
380
     0
  9
$PSTYLEMODE
290
     1
  9
$FINGERPRINTGUID
  2
{5EAC461A-2277-4BF8-9AB0-99C43BB394F0}
  9
$VERSIONGUID
  2
{B4FB9516-65DA-46CD-98DF-CDE563B20AA0}
  9
$EXTNAMES
290
     1
  9
$PSVPSCALE
 40
0.0
  9
$OLESTARTUP
290
     0
  0
ENDSEC
  0
SECTION
  2
CLASSES
  0
CLASS
  1
ACDBDICTIONARYWDFLT
  2
AcDbDictionaryWithDefault
  3
ObjectDBX Classes
 90
        0
280
     0
281
     0
  0
CLASS
  1
DICTIONARYVAR
  2
AcDbDictionaryVar
  3
ObjectDBX Classes
 90
        0
280
     0
281
     0
  0
CLASS
  1
ACDBPLACEHOLDER
  2
AcDbPlaceHolder
  3
ObjectDBX Classes
 90
        0
280
     0
281
     0
  0
CLASS
  1
LAYOUT
  2
AcDbLayout
  3
ObjectDBX Classes
 90
        0
280
     0
281
     0
  0
ENDSEC
  0
SECTION
  2
TABLES
  0
TABLE
  2
VPORT
  5
746D
330
0
100
AcDbSymbolTable
 70
     2
  0
VPORT
  5
26907
330
746D
100
AcDbSymbolTableRecord
100
AcDbViewportTableRecord
  2
*Active
 70
     0
 10
0.0
 20
0.0
 11
1.0
 21
1.0
 12
9779.741870590704
 22
5704.796475140369
 13
0.0
 23
0.0
 14
10.0
 24
10.0
 15
10.0
 25
10.0
 16
0.0
 26
0.0
 36
1.0
 17
0.0
 27
0.0
 37
0.0
 40
11494.73464854293
 41
1.79295154185022
 42
50.0
 43
0.0
 44
0.0
 50
0.0
 51
0.0
 71
     0
 72
     0
 73
     1
 74
     0
 75
     0
 76
     0
 77
     0
 78
     0
281
     0
 65
     1
110
0.0
120
0.0
130
0.0
111
1.0
121
0.0
131
0.0
112
0.0
122
1.0
132
0.0
 79
     0
146
0.0
  0
ENDTAB
  0
TABLE
  2
LTYPE
  5
746A
330
0
100
AcDbSymbolTable
 70
     3
  0
LTYPE
  5
7477
330
746A
100
AcDbSymbolTableRecord
100
AcDbLinetypeTableRecord
  2
BYBLOCK
 70
     0
  3

 72
    65
 73
     0
 40
0.0
  0
LTYPE
  5
7478
330
746A
100
AcDbSymbolTableRecord
100
AcDbLinetypeTableRecord
  2
BYLAYER
 70
     0
  3

 72
    65
 73
     0
 40
0.0
  0
LTYPE
  5
7479
330
746A
100
AcDbSymbolTableRecord
100
AcDbLinetypeTableRecord
  2
CONTINUOUS
 70
     0
  3
Solid line
 72
    65
 73
     0
 40
0.0
  0
LTYPE
  5
7816
330
746A
100
AcDbSymbolTableRecord
100
AcDbLinetypeTableRecord
  2
CENTER
 70
     0
  3
____ _ ____ _ ____ _ ____ _ ____ _ ____ _ ____ 
 72
    65
 73
     4
 40
2.0
 49
1.25
 74
     0
 49
-0.25
 74
     0
 49
0.25
 74
     0
 49
-0.25
 74
     0
  0
LTYPE
  5
781B
330
746A
100
AcDbSymbolTableRecord
100
AcDbLinetypeTableRecord
  2
PHANTOM
 70
     0
  3
______  __  __  ______  __  __  ______  __  __ 
 72
    65
 73
     6
 40
2.5
 49
1.25
 74
     0
 49
-0.25
 74
     0
 49
0.25
 74
     0
 49
-0.25
 74
     0
 49
0.25
 74
     0
 49
-0.25
 74
     0
  0
ENDTAB
  0
TABLE
  2
LAYER
  5
7467
102
{ACAD_XDICTIONARY
360
1758F
102
}
330
0
100
AcDbSymbolTable
 70
    10
  0
LAYER
  5
7474
330
7467
100
AcDbSymbolTableRecord
100
AcDbLayerTableRecord
  2
0
 70
     0
 62
     7
  6
CONTINUOUS
370
    -3
390
173D0
  0
LAYER
  5
DEB2
330
7467
100
AcDbSymbolTableRecord
100
AcDbLayerTableRecord
  2
センター
 70
     0
 62
     3
  6
CENTER
370
    -3
390
173D0
  0
LAYER
  5
DEB3
330
7467
100
AcDbSymbolTableRecord
100
AcDbLayerTableRecord
  2
寸法
 70
     0
 62
     4
  6
CONTINUOUS
370
    -3
390
173D0
  0
LAYER
  5
DEB4
330
7467
100
AcDbSymbolTableRecord
100
AcDbLayerTableRecord
  2
部品1
 70
     0
 62
     7
  6
CONTINUOUS
370
    -3
390
173D0
  0
LAYER
  5
DEB5
330
7467
100
AcDbSymbolTableRecord
100
AcDbLayerTableRecord
  2
補助
 70
     0
 62
    -1
  6
CONTINUOUS
370
    -3
390
173D0
  0
LAYER
  5
DEB6
330
7467
100
AcDbSymbolTableRecord
100
AcDbLayerTableRecord
  2
文字
 70
     0
 62
     7
  6
CONTINUOUS
370
    -3
390
173D0
  0
LAYER
  5
F255
330
7467
100
AcDbSymbolTableRecord
100
AcDbLayerTableRecord
  2
DEFPOINTS
 70
     0
 62
     7
  6
CONTINUOUS
290
     0
370
    -3
390
173D0
  0
LAYER
  5
10B54
330
7467
100
AcDbSymbolTableRecord
100
AcDbLayerTableRecord
  2
仕様書枠
 70
     0
 62
   230
  6
CONTINUOUS
370
    -3
390
173D0
  0
LAYER
  5
1173F
330
7467
100
AcDbSymbolTableRecord
100
AcDbLayerTableRecord
  2
細線
 70
     0
 62
     5
  6
CONTINUOUS
370
    -3
390
173D0
  0
LAYER
  5
12CC4
330
7467
100
AcDbSymbolTableRecord
100
AcDbLayerTableRecord
  2
想像線
 70
     0
 62
     6
  6
PHANTOM
370
    -3
390
173D0
  0
ENDTAB
  0
TABLE
  2
STYLE
  5
7468
330
0
100
AcDbSymbolTable
 70
     4
  0
STYLE
  5
7475
330
7468
100
AcDbSymbolTableRecord
100
AcDbTextStyleTableRecord
  2
STANDARD
 70
     0
 40
0.0
 41
1.0
 50
0.0
 71
     0
 42
4.0
  3
txt
  4
C:\AutoCAD LT\bigfont.shx
  0
STYLE
  5
763C
330
7468
100
AcDbSymbolTableRecord
100
AcDbTextStyleTableRecord
  2
MSMINCHO
 70
     0
 40
0.0
 41
1.0
 50
0.0
 71
     0
 42
1.199999999999999
  3
C:\AutoCAD LT\msminch2.TTF
  4

  0
STYLE
  5
F706
330
7468
100
AcDbSymbolTableRecord
100
AcDbTextStyleTableRecord
  2
STYLE1
 70
     0
 40
0.0
 41
1.0
 50
0.0
 71
     0
 42
4.0
  3
isocp.shx
  4
bigfont.shx
  0
STYLE
  5
103BF
330
7468
100
AcDbSymbolTableRecord
100
AcDbTextStyleTableRecord
  2
STYLE2
 70
     0
 40
0.0
 41
1.0
 50
0.0
 71
     0
 42
100.0
  3
MS PGothic.ttf
  4

1001
ACAD
1000
MS PGothic
1071
    32818
  0
ENDTAB
  0
TABLE
  2
VIEW
  5
746B
330
0
100
AcDbSymbolTable
 70
     0
  0
ENDTAB
  0
TABLE
  2
UCS
  5
746C
330
0
100
AcDbSymbolTable
 70
     0
  0
ENDTAB
  0
TABLE
  2
APPID
  5
746E
330
0
100
AcDbSymbolTable
 70
     6
  0
APPID
  5
7476
330
746E
100
AcDbSymbolTableRecord
100
AcDbRegAppTableRecord
  2
ACAD
 70
     0
  0
APPID
  5
DEA9
330
746E
100
AcDbSymbolTableRecord
100
AcDbRegAppTableRecord
  2
CONTENTBLOCKICON
 70
     0
  0
APPID
  5
DEAA
330
746E
100
AcDbSymbolTableRecord
100
AcDbRegAppTableRecord
  2
CONTENTBLOCKDESCRIPTION
 70
     0
  0
APPID
  5
E71D
330
746E
100
AcDbSymbolTableRecord
100
AcDbRegAppTableRecord
  2
CONTENTTABDATA
 70
     0
  0
APPID
  5
E71E
330
746E
100
AcDbSymbolTableRecord
100
AcDbRegAppTableRecord
  2
CONTENTCURRENTTAB
 70
     0
  0
APPID
  5
F3BA
330
746E
100
AcDbSymbolTableRecord
100
AcDbRegAppTableRecord
  2
DRAWINGVARIABLESXDATA
 70
     0
  0
ENDTAB
  0
TABLE
  2
DIMSTYLE
  5
746F
330
0
100
AcDbSymbolTable
 70
     1
100
AcDbDimStyleTable
 71
     1
340
F71F
  0
DIMSTYLE
105
F71F
102
{ACAD_REACTORS
330
265E9
330
265E6
330
265E5
330
265E3
330
265E0
330
265DD
330
265DC
330
265DA
330
265D9
330
265D6
330
265D5
330
265C8
330
265C7
330
265C6
330
26584
330
2656F
330
2656D
330
26567
330
264CE
330
25F87
330
25F86
330
25C85
330
24B74
330
222D5
330
2227B
330
21966
330
21964
330
21959
330
21958
330
21957
330
21942
330
218CC
330
218B2
330
218AA
330
218A9
330
218A8
330
218A6
330
218A5
330
218A4
330
217E5
330
21671
330
2160C
330
21608
330
215F5
330
215F4
330
215F3
330
215EF
330
215ED
330
20E3A
330
20E15
330
20DFB
330
20DE1
330
1DAC7
330
1D333
330
1D2D6
330
1AC2C
330
1AC27
102
}
330
746F
100
AcDbSymbolTableRecord
100
AcDbDimStyleTableRecord
  2
INABA_S40G
 70
     0
 40
40.0
 41
2.5
 42
0.5
 43
7.0
 44
1.5
 73
     0
 74
     0
 77
     3
 78
     8
140
3.0
141
0.0
143
0.0394
147
1.0
172
     1
173
     1
174
     1
178
     7
271
     1
340
F706
341
F770
343
F770
344
F770
  0
ENDTAB
  0
TABLE
  2
BLOCK_RECORD
  5
7466
330
0
100
AcDbSymbolTable
 70
    41
  0
BLOCK_RECORD
  5
747D
330
7466
100
AcDbSymbolTableRecord
100
AcDbBlockTableRecord
  2
*MODEL_SPACE
340
173D5
  0
BLOCK_RECORD
  5
747A
330
7466
100
AcDbSymbolTableRecord
100
AcDbBlockTableRecord
  2
*PAPER_SPACE
340
173D6
  0
BLOCK_RECORD
  5
F770
330
7466
100
AcDbSymbolTableRecord
100
AcDbBlockTableRecord
  2
_DOTSMALL
340
0
102
{BLKREFS
331
2676C
331
2676D
331
26775
331
26776
331
2677E
331
2677F
331
26787
331
26788
331
26790
331
26791
331
2679B
331
2679C
331
267A4
331
267A5
331
267AF
331
267B0
331
267B9
331
267BA
331
267C2
331
267C3
331
267CB
331
267CC
331
267D4
331
267D5
331
267DE
331
267DF
331
267E8
331
267E9
331
267F1
331
267F2
331
267FA
331
267FB
331
26804
331
26805
331
2680D
331
2680E
331
26816
331
26817
331
2681F
331
26820
331
26829
331
2682A
331
26833
331
26834
331
2683D
331
2683E
331
26847
331
26848
331
26850
331
26851
331
26859
331
2685A
331
26862
331
26863
331
2686C
331
2686D
331
26875
331
26876
331
2687E
331
2687F
331
26887
331
26888
331
26890
331
26891
331
26899
331
2689A
331
268A3
331
268A4
331
268AD
331
268AE
331
268B8
331
268B9
331
268C3
331
268C4
331
268CE
331
268CF
331
268D9
331
268DA
331
268E4
331
268E5
102
}
  0
BLOCK_RECORD
  5
1DAD7
330
7466
100
AcDbSymbolTableRecord
100
AcDbBlockTableRecord
  2
*D1
340
0
  0
BLOCK_RECORD
  5
20DE2
330
7466
100
AcDbSymbolTableRecord
100
AcDbBlockTableRecord
  2
*D2
340
0
  0
BLOCK_RECORD
  5
20DFC
330
7466
100
AcDbSymbolTableRecord
100
AcDbBlockTableRecord
  2
*D3
340
0
  0
BLOCK_RECORD
  5
20E16
330
7466
100
AcDbSymbolTableRecord
100
AcDbBlockTableRecord
  2
*D4
340
0
  0
BLOCK_RECORD
  5
20E3B
330
7466
100
AcDbSymbolTableRecord
100
AcDbBlockTableRecord
  2
*D5
340
0
  0
BLOCK_RECORD
  5
2196C
330
7466
100
AcDbSymbolTableRecord
100
AcDbBlockTableRecord
  2
*D6
340
0
  0
BLOCK_RECORD
  5
21979
330
7466
100
AcDbSymbolTableRecord
100
AcDbBlockTableRecord
  2
*D7
340
0
  0
BLOCK_RECORD
  5
21986
330
7466
100
AcDbSymbolTableRecord
100
AcDbBlockTableRecord
  2
*D8
340
0
  0
BLOCK_RECORD
  5
21991
330
7466
100
AcDbSymbolTableRecord
100
AcDbBlockTableRecord
  2
*D9
340
0
  0
BLOCK_RECORD
  5
2199D
330
7466
100
AcDbSymbolTableRecord
100
AcDbBlockTableRecord
  2
*D10
340
0
  0
BLOCK_RECORD
  5
219A8
330
7466
100
AcDbSymbolTableRecord
100
AcDbBlockTableRecord
  2
*D11
340
0
  0
BLOCK_RECORD
  5
219B4
330
7466
100
AcDbSymbolTableRecord
100
AcDbBlockTableRecord
  2
*D12
340
0
  0
BLOCK_RECORD
  5
219DD
330
7466
100
AcDbSymbolTableRecord
100
AcDbBlockTableRecord
  2
*D13
340
0
  0
BLOCK_RECORD
  5
219E8
330
7466
100
AcDbSymbolTableRecord
100
AcDbBlockTableRecord
  2
*D14
340
0
  0
BLOCK_RECORD
  5
219F4
330
7466
100
AcDbSymbolTableRecord
100
AcDbBlockTableRecord
  2
*D15
340
0
  0
BLOCK_RECORD
  5
21A0E
330
7466
100
AcDbSymbolTableRecord
100
AcDbBlockTableRecord
  2
*D16
340
0
  0
BLOCK_RECORD
  5
21A1B
330
7466
100
AcDbSymbolTableRecord
100
AcDbBlockTableRecord
  2
*D17
340
0
  0
BLOCK_RECORD
  5
21A28
330
7466
100
AcDbSymbolTableRecord
100
AcDbBlockTableRecord
  2
*D18
340
0
  0
BLOCK_RECORD
  5
21A35
330
7466
100
AcDbSymbolTableRecord
100
AcDbBlockTableRecord
  2
*D19
340
0
  0
BLOCK_RECORD
  5
21A41
330
7466
100
AcDbSymbolTableRecord
100
AcDbBlockTableRecord
  2
*D20
340
0
  0
BLOCK_RECORD
  5
21A66
330
7466
100
AcDbSymbolTableRecord
100
AcDbBlockTableRecord
  2
*D21
340
0
  0
BLOCK_RECORD
  5
21A72
330
7466
100
AcDbSymbolTableRecord
100
AcDbBlockTableRecord
  2
*D22
340
0
  0
BLOCK_RECORD
  5
21A7F
330
7466
100
AcDbSymbolTableRecord
100
AcDbBlockTableRecord
  2
*D23
340
0
  0
BLOCK_RECORD
  5
21A8B
330
7466
100
AcDbSymbolTableRecord
100
AcDbBlockTableRecord
  2
*D24
340
0
  0
BLOCK_RECORD
  5
21AA3
330
7466
100
AcDbSymbolTableRecord
100
AcDbBlockTableRecord
  2
*D25
340
0
  0
BLOCK_RECORD
  5
21AB0
330
7466
100
AcDbSymbolTableRecord
100
AcDbBlockTableRecord
  2
*D26
340
0
  0
BLOCK_RECORD
  5
21AE2
330
7466
100
AcDbSymbolTableRecord
100
AcDbBlockTableRecord
  2
*D27
340
0
  0
BLOCK_RECORD
  5
21AEF
330
7466
100
AcDbSymbolTableRecord
100
AcDbBlockTableRecord
  2
*D28
340
0
  0
BLOCK_RECORD
  5
2227C
330
7466
100
AcDbSymbolTableRecord
100
AcDbBlockTableRecord
  2
*D29
340
0
  0
BLOCK_RECORD
  5
222D6
330
7466
100
AcDbSymbolTableRecord
100
AcDbBlockTableRecord
  2
*D30
340
0
  0
BLOCK_RECORD
  5
24B75
330
7466
100
AcDbSymbolTableRecord
100
AcDbBlockTableRecord
  2
*D31
340
0
  0
BLOCK_RECORD
  5
25C86
330
7466
100
AcDbSymbolTableRecord
100
AcDbBlockTableRecord
  2
*D32
340
0
  0
BLOCK_RECORD
  5
2602F
330
7466
100
AcDbSymbolTableRecord
100
AcDbBlockTableRecord
  2
*D33
340
0
  0
BLOCK_RECORD
  5
2603D
330
7466
100
AcDbSymbolTableRecord
100
AcDbBlockTableRecord
  2
*D34
340
0
  0
BLOCK_RECORD
  5
265F4
330
7466
100
AcDbSymbolTableRecord
100
AcDbBlockTableRecord
  2
*D35
340
0
  0
BLOCK_RECORD
  5
26602
330
7466
100
AcDbSymbolTableRecord
100
AcDbBlockTableRecord
  2
*D36
340
0
  0
BLOCK_RECORD
  5
2660D
330
7466
100
AcDbSymbolTableRecord
100
AcDbBlockTableRecord
  2
*D37
340
0
  0
BLOCK_RECORD
  5
26619
330
7466
100
AcDbSymbolTableRecord
100
AcDbBlockTableRecord
  2
*D38
340
0
  0
BLOCK_RECORD
  5
26625
330
7466
100
AcDbSymbolTableRecord
100
AcDbBlockTableRecord
  2
*D39
340
0
  0
BLOCK_RECORD
  5
26631
330
7466
100
AcDbSymbolTableRecord
100
AcDbBlockTableRecord
  2
*D40
340
0
  0
ENDTAB
  0
ENDSEC
  0
SECTION
  2
BLOCKS
  0
BLOCK
  5
7489
330
747D
100
AcDbEntity
  8
0
100
AcDbBlockBegin
  2
*MODEL_SPACE
 70
     0
 10
0.0
 20
0.0
 30
0.0
  3
*MODEL_SPACE
  1

  0
ENDBLK
  5
748A
330
747D
100
AcDbEntity
  8
0
100
AcDbBlockEnd
  0
BLOCK
  5
7487
330
747A
100
AcDbEntity
 67
     1
  8
0
100
AcDbBlockBegin
  2
*PAPER_SPACE
 70
     0
 10
0.0
 20
0.0
 30
0.0
  3
*PAPER_SPACE
  1

  0
ENDBLK
  5
7488
330
747A
100
AcDbEntity
 67
     1
  8
0
100
AcDbBlockEnd
  0
BLOCK
  5
F771
330
F770
100
AcDbEntity
  8
0
 48
50.0
100
AcDbBlockBegin
  2
_DOTSMALL
 70
     0
 10
0.0
 20
0.0
 30
0.0
  3
_DOTSMALL
  1

  0
LWPOLYLINE
  5
F772
330
F770
100
AcDbEntity
  8
0
  6
ByBlock
 62
     0
 48
50.0
100
AcDbPolyline
 90
        2
 70
     1
 43
0.5
 10
-0.0625
 20
0.0
 42
1.0
 10
0.0625
 20
0.0
 42
1.0
  0
ENDBLK
  5
F776
330
F770
100
AcDbEntity
  8
0
 48
50.0
100
AcDbBlockEnd
  0
BLOCK
  5
1DAE3
330
1DAD7
100
AcDbEntity
  8
0
 48
50.0
100
AcDbBlockBegin
  2
*D1
 70
     1
 10
0.0
 20
0.0
 30
0.0
  3
*D1
  1

  0
LINE
  5
268DF
330
1DAD7
100
AcDbEntity
  8
寸法
 62
     0
 48
50.0
370
    -2
100
AcDbLine
 10
8216.600000000001
 20
5358.352553667963
 30
0.0
 11
8523.202780124334
 21
5358.352553667963
 31
0.0
  0
LINE
  5
268E0
330
1DAD7
100
AcDbEntity
  8
寸法
 62
     0
 48
50.0
370
    -2
100
AcDbLine
 10
8216.600000000008
 20
5433.352553667964
 30
0.0
 11
8523.202780124334
 21
5433.352553667964
 31
0.0
  0
LINE
  5
268E1
330
1DAD7
100
AcDbEntity
  8
寸法
 62
     0
 48
50.0
370
    -2
100
AcDbLine
 10
8463.202780124335
 20
5433.352553667964
 30
0.0
 11
8463.202780124335
 21
5533.352553667963
 31
0.0
  0
LINE
  5
268E2
330
1DAD7
100
AcDbEntity
  8
寸法
 62
     0
 48
50.0
370
    -2
100
AcDbLine
 10
8463.202780124335
 20
5358.352553667963
 30
0.0
 11
8463.202780124335
 21
4491.381990919483
 31
0.0
  0
LINE
  5
268E3
330
1DAD7
100
AcDbEntity
  8
寸法
 62
     0
 48
50.0
370
    -2
100
AcDbLine
 10
8463.202780124335
 20
5433.352553667964
 30
0.0
 11
8463.202780124335
 21
5358.352553667963
 31
0.0
  0
INSERT
  5
268E4
330
1DAD7
100
AcDbEntity
  8
寸法
 62
     0
 48
50.0
370
    -2
100
AcDbBlockReference
  2
_DOTSMALL
 10
8463.202780124335
 20
5433.352553667964
 30
0.0
 41
100.0
 42
100.0
 43
100.0
 50
270.0
  0
INSERT
  5
268E5
330
1DAD7
100
AcDbEntity
  8
寸法
 62
     0
 48
50.0
370
    -2
100
AcDbBlockReference
  2
_DOTSMALL
 10
8463.202780124335
 20
5358.352553667963
 30
0.0
 41
100.0
 42
100.0
 43
100.0
 50
90.0
  0
MTEXT
  5
268E6
330
1DAD7
100
AcDbEntity
  8
寸法
 62
     7
 48
50.0
100
AcDbMText
 10
8363.202780124332
 20
4824.867272293723
 30
0.0
 40
120.0
 41
0.0
 71
     5
 72
     1
  1
\A1;扉の出75
  7
STYLE1
 11
0.0000000000000001
 21
1.0
 31
0.0
 73
     1
 44
1.0
1001
ACAD
1000
MTEXTBEGIN
1070
    73
1070
     1
1070
    44
1040
1.0
1070
    74
1070
     0
1000
MTEXTEND
  0
POINT
  5
268E7
330
1DAD7
100
AcDbEntity
  8
DEFPOINTS
 62
     0
 48
50.0
100
AcDbPoint
 10
8196.600000000001
 20
5358.352553667963
 30
0.0
  0
POINT
  5
268E8
330
1DAD7
100
AcDbEntity
  8
DEFPOINTS
 62
     0
 48
50.0
100
AcDbPoint
 10
8196.600000000008
 20
5433.352553667964
 30
0.0
  0
POINT
  5
268E9
330
1DAD7
100
AcDbEntity
  8
DEFPOINTS
 62
     0
 48
50.0
100
AcDbPoint
 10
8463.202780124335
 20
5433.352553667964
 30
0.0
  0
ENDBLK
  5
1DAE4
330
1DAD7
100
AcDbEntity
  8
0
 48
50.0
100
AcDbBlockEnd
  0
BLOCK
  5
20DEE
330
20DE2
100
AcDbEntity
  8
0
 48
50.0
100
AcDbBlockBegin
  2
*D2
 70
     1
 10
0.0
 20
0.0
 30
0.0
  3
*D2
  1

  0
LINE
  5
268D4
330
20DE2
100
AcDbEntity
  8
寸法
 62
     0
 48
50.0
370
    -2
100
AcDbLine
 10
10438.6
 20
8933.352553667939
 30
0.0
 11
10438.6
 21
9931.572875726862
 31
0.0
  0
LINE
  5
268D5
330
20DE2
100
AcDbEntity
  8
寸法
 62
     0
 48
50.0
370
    -2
100
AcDbLine
 10
10483.6
 20
9679.112180210026
 30
0.0
 11
10483.6
 21
9931.572875726862
 31
0.0
  0
LINE
  5
268D6
330
20DE2
100
AcDbEntity
  8
寸法
 62
     0
 48
50.0
370
    -2
100
AcDbLine
 10
10438.6
 20
9871.572875726862
 30
0.0
 11
10338.6
 21
9871.572875726862
 31
0.0
  0
LINE
  5
268D7
330
20DE2
100
AcDbEntity
  8
寸法
 62
     0
 48
50.0
370
    -2
100
AcDbLine
 10
10483.6
 20
9871.572875726862
 30
0.0
 11
10820.94924240492
 21
9871.572875726862
 31
0.0
  0
LINE
  5
268D8
330
20DE2
100
AcDbEntity
  8
寸法
 62
     0
 48
50.0
370
    -2
100
AcDbLine
 10
10438.6
 20
9871.572875726862
 30
0.0
 11
10483.6
 21
9871.572875726862
 31
0.0
  0
INSERT
  5
268D9
330
20DE2
100
AcDbEntity
  8
寸法
 62
     0
 48
50.0
370
    -2
100
AcDbBlockReference
  2
_DOTSMALL
 10
10438.6
 20
9871.572875726862
 30
0.0
 41
100.0
 42
100.0
 43
100.0
  0
INSERT
  5
268DA
330
20DE2
100
AcDbEntity
  8
寸法
 62
     0
 48
50.0
370
    -2
100
AcDbBlockReference
  2
_DOTSMALL
 10
10483.6
 20
9871.572875726862
 30
0.0
 41
100.0
 42
100.0
 43
100.0
 50
180.0
  0
MTEXT
  5
268DB
330
20DE2
100
AcDbEntity
  8
寸法
 62
     7
 48
50.0
100
AcDbMText
 10
10754.77462120246
 20
9971.572875726861
 30
0.0
 40
120.0
 41
0.0
 71
     5
 72
     1
  1
\A1;a
  7
STYLE1
 73
     1
 44
1.0
1001
ACAD
1000
MTEXTBEGIN
1070
    73
1070
     1
1070
    44
1040
1.0
1070
    74
1070
     0
1000
MTEXTEND
  0
POINT
  5
268DC
330
20DE2
100
AcDbEntity
  8
DEFPOINTS
 62
     0
 48
50.0
100
AcDbPoint
 10
10438.6
 20
8913.352553667939
 30
0.0
  0
POINT
  5
268DD
330
20DE2
100
AcDbEntity
  8
DEFPOINTS
 62
     0
 48
50.0
100
AcDbPoint
 10
10483.6
 20
9659.112180210025
 30
0.0
  0
POINT
  5
268DE
330
20DE2
100
AcDbEntity
  8
DEFPOINTS
 62
     0
 48
50.0
100
AcDbPoint
 10
10483.6
 20
9871.572875726862
 30
0.0
  0
ENDBLK
  5
20DEF
330
20DE2
100
AcDbEntity
  8
0
 48
50.0
100
AcDbBlockEnd
  0
BLOCK
  5
20E08
330
20DFC
100
AcDbEntity
  8
0
 48
50.0
100
AcDbBlockBegin
  2
*D3
 70
     1
 10
0.0
 20
0.0
 30
0.0
  3
*D3
  1

  0
LINE
  5
268C9
330
20DFC
100
AcDbEntity
  8
寸法
 62
     0
 48
50.0
370
    -2
100
AcDbLine
 10
5963.600000000009
 20
9679.112180210026
 30
0.0
 11
5963.600000000009
 21
9931.572875726862
 31
0.0
  0
LINE
  5
268CA
330
20DFC
100
AcDbEntity
  8
寸法
 62
     0
 48
50.0
370
    -2
100
AcDbLine
 10
6008.600000000001
 20
8933.352553667939
 30
0.0
 11
6008.600000000001
 21
9931.572875726862
 31
0.0
  0
LINE
  5
268CB
330
20DFC
100
AcDbEntity
  8
寸法
 62
     0
 48
50.0
370
    -2
100
AcDbLine
 10
6008.600000000001
 20
9871.572875726862
 30
0.0
 11
6108.600000000001
 21
9871.572875726862
 31
0.0
  0
LINE
  5
268CC
330
20DFC
100
AcDbEntity
  8
寸法
 62
     0
 48
50.0
370
    -2
100
AcDbLine
 10
5963.600000000009
 20
9871.572875726862
 30
0.0
 11
5626.250757595084
 21
9871.572875726862
 31
0.0
  0
LINE
  5
268CD
330
20DFC
100
AcDbEntity
  8
寸法
 62
     0
 48
50.0
370
    -2
100
AcDbLine
 10
6008.600000000001
 20
9871.572875726862
 30
0.0
 11
5963.600000000009
 21
9871.572875726862
 31
0.0
  0
INSERT
  5
268CE
330
20DFC
100
AcDbEntity
  8
寸法
 62
     0
 48
50.0
370
    -2
100
AcDbBlockReference
  2
_DOTSMALL
 10
6008.600000000001
 20
9871.572875726862
 30
0.0
 41
100.0
 42
100.0
 43
100.0
 50
180.0
  0
INSERT
  5
268CF
330
20DFC
100
AcDbEntity
  8
寸法
 62
     0
 48
50.0
370
    -2
100
AcDbBlockReference
  2
_DOTSMALL
 10
5963.600000000009
 20
9871.572875726862
 30
0.0
 41
100.0
 42
100.0
 43
100.0
  0
MTEXT
  5
268D0
330
20DFC
100
AcDbEntity
  8
寸法
 62
     7
 48
50.0
100
AcDbMText
 10
5692.425378797541
 20
9971.572875726861
 30
0.0
 40
120.0
 41
0.0
 71
     5
 72
     1
  1
\A1;a
  7
STYLE1
 73
     1
 44
1.0
1001
ACAD
1000
MTEXTBEGIN
1070
    73
1070
     1
1070
    44
1040
1.0
1070
    74
1070
     0
1000
MTEXTEND
  0
POINT
  5
268D1
330
20DFC
100
AcDbEntity
  8
DEFPOINTS
 62
     0
 48
50.0
100
AcDbPoint
 10
5963.600000000009
 20
9659.112180210025
 30
0.0
  0
POINT
  5
268D2
330
20DFC
100
AcDbEntity
  8
DEFPOINTS
 62
     0
 48
50.0
100
AcDbPoint
 10
6008.600000000001
 20
8913.352553667939
 30
0.0
  0
POINT
  5
268D3
330
20DFC
100
AcDbEntity
  8
DEFPOINTS
 62
     0
 48
50.0
100
AcDbPoint
 10
6008.600000000001
 20
9871.572875726862
 30
0.0
  0
ENDBLK
  5
20E09
330
20DFC
100
AcDbEntity
  8
0
 48
50.0
100
AcDbBlockEnd
  0
BLOCK
  5
20E22
330
20E16
100
AcDbEntity
  8
0
 48
50.0
100
AcDbBlockBegin
  2
*D4
 70
     1
 10
0.0
 20
0.0
 30
0.0
  3
*D4
  1

  0
LINE
  5
268BE
330
20E16
100
AcDbEntity
  8
寸法
 62
     0
 48
50.0
370
    -2
100
AcDbLine
 10
5492.657733986181
 20
8988.352553667944
 30
0.0
 11
5207.164931848213
 21
8988.352553667944
 31
0.0
  0
LINE
  5
268BF
330
20E16
100
AcDbEntity
  8
寸法
 62
     0
 48
50.0
370
    -2
100
AcDbLine
 10
5988.600000000004
 20
8913.352553667941
 30
0.0
 11
5207.164931848213
 21
8913.352553667941
 31
0.0
  0
LINE
  5
268C0
330
20E16
100
AcDbEntity
  8
寸法
 62
     0
 48
50.0
370
    -2
100
AcDbLine
 10
5267.164931848213
 20
8988.352553667944
 30
0.0
 11
5267.164931848213
 21
9088.352553667943
 31
0.0
  0
LINE
  5
268C1
330
20E16
100
AcDbEntity
  8
寸法
 62
     0
 48
50.0
370
    -2
100
AcDbLine
 10
5267.164931848213
 20
8913.352553667941
 30
0.0
 11
5267.164931848213
 21
8813.352553667941
 31
0.0
  0
LINE
  5
268C2
330
20E16
100
AcDbEntity
  8
寸法
 62
     0
 48
50.0
370
    -2
100
AcDbLine
 10
5267.164931848213
 20
8988.352553667944
 30
0.0
 11
5267.164931848213
 21
8913.352553667941
 31
0.0
  0
INSERT
  5
268C3
330
20E16
100
AcDbEntity
  8
寸法
 62
     0
 48
50.0
370
    -2
100
AcDbBlockReference
  2
_DOTSMALL
 10
5267.164931848213
 20
8988.352553667944
 30
0.0
 41
100.0
 42
100.0
 43
100.0
 50
270.0
  0
INSERT
  5
268C4
330
20E16
100
AcDbEntity
  8
寸法
 62
     0
 48
50.0
370
    -2
100
AcDbBlockReference
  2
_DOTSMALL
 10
5267.164931848213
 20
8913.352553667941
 30
0.0
 41
100.0
 42
100.0
 43
100.0
 50
90.0
  0
MTEXT
  5
268C5
330
20E16
100
AcDbEntity
  8
寸法
 62
     7
 48
50.0
100
AcDbMText
 10
5167.164931848212
 20
8950.852553667944
 30
0.0
 40
120.0
 41
0.0
 71
     5
 72
     1
  1
\A1;c
  7
STYLE1
 11
0.0000000000000001
 21
1.0
 31
0.0
 73
     1
 44
1.0
1001
ACAD
1000
MTEXTBEGIN
1070
    73
1070
     1
1070
    44
1040
1.0
1070
    74
1070
     0
1000
MTEXTEND
  0
POINT
  5
268C6
330
20E16
100
AcDbEntity
  8
DEFPOINTS
 62
     0
 48
50.0
100
AcDbPoint
 10
5512.657733986181
 20
8988.352553667944
 30
0.0
  0
POINT
  5
268C7
330
20E16
100
AcDbEntity
  8
DEFPOINTS
 62
     0
 48
50.0
100
AcDbPoint
 10
6008.600000000004
 20
8913.352553667941
 30
0.0
  0
POINT
  5
268C8
330
20E16
100
AcDbEntity
  8
DEFPOINTS
 62
     0
 48
50.0
100
AcDbPoint
 10
5267.164931848213
 20
8913.352553667941
 30
0.0
  0
ENDBLK
  5
20E23
330
20E16
100
AcDbEntity
  8
0
 48
50.0
100
AcDbBlockEnd
  0
BLOCK
  5
20E47
330
20E3B
100
AcDbEntity
  8
0
 48
50.0
100
AcDbBlockBegin
  2
*D5
 70
     1
 10
0.0
 20
0.0
 30
0.0
  3
*D5
  1

  0
LINE
  5
268B3
330
20E3B
100
AcDbEntity
  8
寸法
 62
     0
 48
50.0
370
    -2
100
AcDbLine
 10
5988.600000000001
 20
5433.35255366793
 30
0.0
 11
5207.164931848213
 21
5433.35255366793
 31
0.0
  0
LINE
  5
268B4
330
20E3B
100
AcDbEntity
  8
寸法
 62
     0
 48
50.0
370
    -2
100
AcDbLine
 10
5492.657733986181
 20
5378.352553667951
 30
0.0
 11
5207.164931848213
 21
5378.352553667951
 31
0.0
  0
LINE
  5
268B5
330
20E3B
100
AcDbEntity
  8
寸法
 62
     0
 48
50.0
370
    -2
100
AcDbLine
 10
5267.164931848213
 20
5433.35255366793
 30
0.0
 11
5267.164931848213
 21
5533.35255366793
 31
0.0
  0
LINE
  5
268B6
330
20E3B
100
AcDbEntity
  8
寸法
 62
     0
 48
50.0
370
    -2
100
AcDbLine
 10
5267.164931848213
 20
5378.352553667951
 30
0.0
 11
5267.164931848213
 21
5278.352553667951
 31
0.0
  0
LINE
  5
268B7
330
20E3B
100
AcDbEntity
  8
寸法
 62
     0
 48
50.0
370
    -2
100
AcDbLine
 10
5267.164931848213
 20
5433.35255366793
 30
0.0
 11
5267.164931848213
 21
5378.352553667951
 31
0.0
  0
INSERT
  5
268B8
330
20E3B
100
AcDbEntity
  8
寸法
 62
     0
 48
50.0
370
    -2
100
AcDbBlockReference
  2
_DOTSMALL
 10
5267.164931848213
 20
5433.35255366793
 30
0.0
 41
100.0
 42
100.0
 43
100.0
 50
270.0
  0
INSERT
  5
268B9
330
20E3B
100
AcDbEntity
  8
寸法
 62
     0
 48
50.0
370
    -2
100
AcDbBlockReference
  2
_DOTSMALL
 10
5267.164931848213
 20
5378.352553667951
 30
0.0
 41
100.0
 42
100.0
 43
100.0
 50
90.0
  0
MTEXT
  5
268BA
330
20E3B
100
AcDbEntity
  8
寸法
 62
     7
 48
50.0
100
AcDbMText
 10
5167.164931848212
 20
5405.852553667941
 30
0.0
 40
120.0
 41
0.0
 71
     5
 72
     1
  1
\A1;b
  7
STYLE1
 11
0.0000000000000001
 21
1.0
 31
0.0
 73
     1
 44
1.0
1001
ACAD
1000
MTEXTBEGIN
1070
    73
1070
     1
1070
    44
1040
1.0
1070
    74
1070
     0
1000
MTEXTEND
  0
POINT
  5
268BB
330
20E3B
100
AcDbEntity
  8
DEFPOINTS
 62
     0
 48
50.0
100
AcDbPoint
 10
6008.600000000001
 20
5433.35255366793
 30
0.0
  0
POINT
  5
268BC
330
20E3B
100
AcDbEntity
  8
DEFPOINTS
 62
     0
 48
50.0
100
AcDbPoint
 10
5512.657733986181
 20
5378.352553667951
 30
0.0
  0
POINT
  5
268BD
330
20E3B
100
AcDbEntity
  8
DEFPOINTS
 62
     0
 48
50.0
100
AcDbPoint
 10
5267.164931848213
 20
5378.352553667951
 30
0.0
  0
ENDBLK
  5
20E48
330
20E3B
100
AcDbEntity
  8
0
 48
50.0
100
AcDbBlockEnd
  0
BLOCK
  5
21977
330
2196C
100
AcDbEntity
  8
0
 48
50.0
100
AcDbBlockBegin
  2
*D6
 70
     1
 10
0.0
 20
0.0
 30
0.0
  3
*D6
  1

  0
LINE
  5
268A9
330
2196C
100
AcDbEntity
  8
寸法
 62
     0
 48
50.0
370
    -2
100
AcDbLine
 10
8764.349640717833
 20
5553.352553667952
 30
0.0
 11
8610.14438614211
 21
5553.352553667952
 31
0.0
  0
LINE
  5
268AA
330
2196C
100
AcDbEntity
  8
寸法
 62
     0
 48
50.0
370
    -2
100
AcDbLine
 10
8255.600000000001
 20
5663.352553667959
 30
0.0
 11
8730.144386142111
 21
5663.352553667959
 31
0.0
  0
LINE
  5
268AB
330
2196C
100
AcDbEntity
  8
寸法
 62
     0
 48
50.0
370
    -2
100
AcDbLine
 10
8670.14438614211
 20
5553.352553667952
 30
0.0
 11
8670.14438614211
 21
5663.352553667959
 31
0.0
  0
LINE
  5
268AC
330
2196C
100
AcDbEntity
  8
寸法
 62
     0
 48
50.0
370
    -2
100
AcDbLine
 10
8670.14438614211
 20
5663.352553667959
 30
0.0
 11
8670.14438614211
 21
6057.458852880571
 31
0.0
  0
INSERT
  5
268AD
330
2196C
100
AcDbEntity
  8
寸法
 62
     0
 48
50.0
370
    -2
100
AcDbBlockReference
  2
_DOTSMALL
 10
8670.14438614211
 20
5553.352553667952
 30
0.0
 41
100.0
 42
100.0
 43
100.0
 50
270.0
  0
INSERT
  5
268AE
330
2196C
100
AcDbEntity
  8
寸法
 62
     0
 48
50.0
370
    -2
100
AcDbBlockReference
  2
_DOTSMALL
 10
8670.14438614211
 20
5663.352553667959
 30
0.0
 41
100.0
 42
100.0
 43
100.0
 50
90.0
  0
MTEXT
  5
268AF
330
2196C
100
AcDbEntity
  8
寸法
 62
     7
 48
50.0
100
AcDbMText
 10
8570.144386142109
 20
5933.411608786084
 30
0.0
 40
120.0
 41
0.0
 71
     5
 72
     1
  1
\A1;110
  7
STYLE1
 11
0.0000000000000001
 21
1.0
 31
0.0
 73
     1
 44
1.0
1001
ACAD
1000
MTEXTBEGIN
1070
    73
1070
     1
1070
    44
1040
1.0
1070
    74
1070
     0
1000
MTEXTEND
  0
POINT
  5
268B0
330
2196C
100
AcDbEntity
  8
DEFPOINTS
 62
     0
 48
50.0
100
AcDbPoint
 10
8784.349640717833
 20
5553.352553667952
 30
0.0
  0
POINT
  5
268B1
330
2196C
100
AcDbEntity
  8
DEFPOINTS
 62
     0
 48
50.0
100
AcDbPoint
 10
8235.600000000001
 20
5663.352553667959
 30
0.0
  0
POINT
  5
268B2
330
2196C
100
AcDbEntity
  8
DEFPOINTS
 62
     0
 48
50.0
100
AcDbPoint
 10
8670.14438614211
 20
5663.352553667959
 30
0.0
  0
ENDBLK
  5
21978
330
2196C
100
AcDbEntity
  8
0
 48
50.0
100
AcDbBlockEnd
  0
BLOCK
  5
21984
330
21979
100
AcDbEntity
  8
0
 48
50.0
100
AcDbBlockBegin
  2
*D7
 70
     1
 10
0.0
 20
0.0
 30
0.0
  3
*D7
  1

  0
LINE
  5
2689F
330
21979
100
AcDbEntity
  8
寸法
 62
     0
 48
50.0
370
    -2
100
AcDbLine
 10
8327.41918098816
 20
5433.352553667968
 30
0.0
 11
8730.144386142111
 21
5433.352553667968
 31
0.0
  0
LINE
  5
268A0
330
21979
100
AcDbEntity
  8
寸法
 62
     0
 48
50.0
370
    -2
100
AcDbLine
 10
8764.349640717833
 20
5553.352553667952
 30
0.0
 11
8610.14438614211
 21
5553.352553667952
 31
0.0
  0
LINE
  5
268A1
330
21979
100
AcDbEntity
  8
寸法
 62
     0
 48
50.0
370
    -2
100
AcDbLine
 10
8670.14438614211
 20
5553.352553667952
 30
0.0
 11
8670.14438614211
 21
5433.352553667968
 31
0.0
  0
LINE
  5
268A2
330
21979
100
AcDbEntity
  8
寸法
 62
     0
 48
50.0
370
    -2
100
AcDbLine
 10
8670.14438614211
 20
5433.352553667968
 30
0.0
 11
8670.14438614211
 21
4961.017004605511
 31
0.0
  0
INSERT
  5
268A3
330
21979
100
AcDbEntity
  8
寸法
 62
     0
 48
50.0
370
    -2
100
AcDbBlockReference
  2
_DOTSMALL
 10
8670.14438614211
 20
5553.352553667952
 30
0.0
 41
100.0
 42
100.0
 43
100.0
 50
90.0
  0
INSERT
  5
268A4
330
21979
100
AcDbEntity
  8
寸法
 62
     0
 48
50.0
370
    -2
100
AcDbBlockReference
  2
_DOTSMALL
 10
8670.14438614211
 20
5433.352553667968
 30
0.0
 41
100.0
 42
100.0
 43
100.0
 50
270.0
  0
MTEXT
  5
268A5
330
21979
100
AcDbEntity
  8
寸法
 62
     7
 48
50.0
100
AcDbMText
 10
8570.132575118487
 20
5097.0642487
 30
0.0
 40
120.0
 41
0.0
 71
     5
 72
     1
  1
\A1;120
  7
STYLE1
 11
0.0000000000000001
 21
1.0
 31
0.0
 73
     1
 44
1.0
1001
ACAD
1000
MTEXTBEGIN
1070
    73
1070
     1
1070
    44
1040
1.0
1070
    74
1070
     0
1000
MTEXTEND
  0
POINT
  5
268A6
330
21979
100
AcDbEntity
  8
DEFPOINTS
 62
     0
 48
50.0
100
AcDbPoint
 10
8307.41918098816
 20
5433.352553667968
 30
0.0
  0
POINT
  5
268A7
330
21979
100
AcDbEntity
  8
DEFPOINTS
 62
     0
 48
50.0
100
AcDbPoint
 10
8784.349640717833
 20
5553.352553667952
 30
0.0
  0
POINT
  5
268A8
330
21979
100
AcDbEntity
  8
DEFPOINTS
 62
     0
 48
50.0
100
AcDbPoint
 10
8670.14438614211
 20
5553.352553667952
 30
0.0
  0
ENDBLK
  5
21985
330
21979
100
AcDbEntity
  8
0
 48
50.0
100
AcDbBlockEnd
  0
BLOCK
  5
2198F
330
21986
100
AcDbEntity
  8
0
 48
50.0
100
AcDbBlockBegin
  2
*D8
 70
     1
 10
0.0
 20
0.0
 30
0.0
  3
*D8
  1

  0
LINE
  5
26896
330
21986
100
AcDbEntity
  8
寸法
 62
     0
 48
50.0
370
    -2
100
AcDbLine
 10
6008.600000000001
 20
8933.352553667941
 30
0.0
 11
6008.600000000001
 21
9931.572875726862
 31
0.0
  0
LINE
  5
26897
330
21986
100
AcDbEntity
  8
寸法
 62
     0
 48
50.0
370
    -2
100
AcDbLine
 10
10438.6
 20
8933.352553667941
 30
0.0
 11
10438.6
 21
9931.572875726862
 31
0.0
  0
LINE
  5
26898
330
21986
100
AcDbEntity
  8
寸法
 62
     0
 48
50.0
370
    -2
100
AcDbLine
 10
6008.600000000001
 20
9871.572875726862
 30
0.0
 11
10438.6
 21
9871.572875726862
 31
0.0
  0
INSERT
  5
26899
330
21986
100
AcDbEntity
  8
寸法
 62
     0
 48
50.0
370
    -2
100
AcDbBlockReference
  2
_DOTSMALL
 10
6008.600000000001
 20
9871.572875726862
 30
0.0
 41
100.0
 42
100.0
 43
100.0
 50
180.0
  0
INSERT
  5
2689A
330
21986
100
AcDbEntity
  8
寸法
 62
     0
 48
50.0
370
    -2
100
AcDbBlockReference
  2
_DOTSMALL
 10
10438.6
 20
9871.572875726862
 30
0.0
 41
100.0
 42
100.0
 43
100.0
  0
MTEXT
  5
2689B
330
21986
100
AcDbEntity
  8
寸法
 62
     7
 48
50.0
100
AcDbMText
 10
8223.600000000001
 20
9971.572875726861
 30
0.0
 40
120.0
 41
0.0
 71
     5
 72
     1
  1
\A1;4430
  7
STYLE1
 73
     1
 44
1.0
1001
ACAD
1000
MTEXTBEGIN
1070
    73
1070
     1
1070
    44
1040
1.0
1070
    74
1070
     0
1000
MTEXTEND
  0
POINT
  5
2689C
330
21986
100
AcDbEntity
  8
DEFPOINTS
 62
     0
 48
50.0
100
AcDbPoint
 10
6008.600000000001
 20
8913.352553667941
 30
0.0
  0
POINT
  5
2689D
330
21986
100
AcDbEntity
  8
DEFPOINTS
 62
     0
 48
50.0
100
AcDbPoint
 10
10438.6
 20
8913.352553667941
 30
0.0
  0
POINT
  5
2689E
330
21986
100
AcDbEntity
  8
DEFPOINTS
 62
     0
 48
50.0
100
AcDbPoint
 10
10438.6
 20
9871.572875726862
 30
0.0
  0
ENDBLK
  5
21990
330
21986
100
AcDbEntity
  8
0
 48
50.0
100
AcDbBlockEnd
  0
BLOCK
  5
2199B
330
21991
100
AcDbEntity
  8
0
 48
50.0
100
AcDbBlockBegin
  2
*D9
 70
     1
 10
0.0
 20
0.0
 30
0.0
  3
*D9
  1

  0
LINE
  5
2688D
330
21991
100
AcDbEntity
  8
寸法
 62
     0
 48
50.0
370
    -2
100
AcDbLine
 10
8983.6
 20
8148.35255366794
 30
0.0
 11
8983.6
 21
9500.26231931627
 31
0.0
  0
LINE
  5
2688E
330
21991
100
AcDbEntity
  8
寸法
 62
     0
 48
50.0
370
    -2
100
AcDbLine
 10
8223.600000000001
 20
8148.35255366794
 30
0.0
 11
8223.600000000001
 21
9500.26231931627
 31
0.0
  0
LINE
  5
2688F
330
21991
100
AcDbEntity
  8
寸法
 62
     0
 48
50.0
370
    -2
100
AcDbLine
 10
8983.6
 20
9440.262319316271
 30
0.0
 11
8223.600000000001
 21
9440.262319316271
 31
0.0
  0
INSERT
  5
26890
330
21991
100
AcDbEntity
  8
寸法
 62
     0
 48
50.0
370
    -2
100
AcDbBlockReference
  2
_DOTSMALL
 10
8983.6
 20
9440.262319316271
 30
0.0
 41
100.0
 42
100.0
 43
100.0
  0
INSERT
  5
26891
330
21991
100
AcDbEntity
  8
寸法
 62
     0
 48
50.0
370
    -2
100
AcDbBlockReference
  2
_DOTSMALL
 10
8223.600000000001
 20
9440.262319316271
 30
0.0
 41
100.0
 42
100.0
 43
100.0
 50
180.0
  0
MTEXT
  5
26892
330
21991
100
AcDbEntity
  8
寸法
 62
     7
 48
50.0
100
AcDbMText
 10
8603.6
 20
9540.262319316271
 30
0.0
 40
120.0
 41
0.0
 71
     5
 72
     1
  1
\A1;760
  7
STYLE1
 73
     1
 44
1.0
1001
ACAD
1000
MTEXTBEGIN
1070
    73
1070
     1
1070
    44
1040
1.0
1070
    74
1070
     0
1000
MTEXTEND
  0
POINT
  5
26893
330
21991
100
AcDbEntity
  8
DEFPOINTS
 62
     0
 48
50.0
100
AcDbPoint
 10
8983.6
 20
8128.352553667941
 30
0.0
  0
POINT
  5
26894
330
21991
100
AcDbEntity
  8
DEFPOINTS
 62
     0
 48
50.0
100
AcDbPoint
 10
8223.600000000001
 20
8128.352553667941
 30
0.0
  0
POINT
  5
26895
330
21991
100
AcDbEntity
  8
DEFPOINTS
 62
     0
 48
50.0
100
AcDbPoint
 10
8223.600000000001
 20
9440.262319316271
 30
0.0
  0
ENDBLK
  5
2199C
330
21991
100
AcDbEntity
  8
0
 48
50.0
100
AcDbBlockEnd
  0
BLOCK
  5
219A6
330
2199D
100
AcDbEntity
  8
0
 48
50.0
100
AcDbBlockBegin
  2
*D10
 70
     1
 10
0.0
 20
0.0
 30
0.0
  3
*D10
  1

  0
LINE
  5
26884
330
2199D
100
AcDbEntity
  8
寸法
 62
     0
 48
50.0
370
    -2
100
AcDbLine
 10
10315.6
 20
8860.352553667942
 30
0.0
 11
10315.6
 21
9719.112180210025
 31
0.0
  0
LINE
  5
26885
330
2199D
100
AcDbEntity
  8
寸法
 62
     0
 48
50.0
370
    -2
100
AcDbLine
 10
8105.6
 20
8860.352553667942
 30
0.0
 11
8105.6
 21
9719.112180210025
 31
0.0
  0
LINE
  5
26886
330
2199D
100
AcDbEntity
  8
寸法
 62
     0
 48
50.0
370
    -2
100
AcDbLine
 10
10315.6
 20
9659.112180210025
 30
0.0
 11
8105.6
 21
9659.112180210025
 31
0.0
  0
INSERT
  5
26887
330
2199D
100
AcDbEntity
  8
寸法
 62
     0
 48
50.0
370
    -2
100
AcDbBlockReference
  2
_DOTSMALL
 10
10315.6
 20
9659.112180210025
 30
0.0
 41
100.0
 42
100.0
 43
100.0
  0
INSERT
  5
26888
330
2199D
100
AcDbEntity
  8
寸法
 62
     0
 48
50.0
370
    -2
100
AcDbBlockReference
  2
_DOTSMALL
 10
8105.6
 20
9659.112180210025
 30
0.0
 41
100.0
 42
100.0
 43
100.0
 50
180.0
  0
MTEXT
  5
26889
330
2199D
100
AcDbEntity
  8
寸法
 62
     7
 48
50.0
100
AcDbMText
 10
9210.600000000001
 20
9759.123991233646
 30
0.0
 40
120.0
 41
0.0
 71
     5
 72
     1
  1
\A1;2210
  7
STYLE1
 73
     1
 44
1.0
1001
ACAD
1000
MTEXTBEGIN
1070
    73
1070
     1
1070
    44
1040
1.0
1070
    74
1070
     0
1000
MTEXTEND
  0
POINT
  5
2688A
330
2199D
100
AcDbEntity
  8
DEFPOINTS
 62
     0
 48
50.0
100
AcDbPoint
 10
10315.6
 20
8840.352553667941
 30
0.0
  0
POINT
  5
2688B
330
2199D
100
AcDbEntity
  8
DEFPOINTS
 62
     0
 48
50.0
100
AcDbPoint
 10
8105.6
 20
8840.352553667941
 30
0.0
  0
POINT
  5
2688C
330
2199D
100
AcDbEntity
  8
DEFPOINTS
 62
     0
 48
50.0
100
AcDbPoint
 10
8105.6
 20
9659.112180210025
 30
0.0
  0
ENDBLK
  5
219A7
330
2199D
100
AcDbEntity
  8
0
 48
50.0
100
AcDbBlockEnd
  0
BLOCK
  5
219B2
330
219A8
100
AcDbEntity
  8
0
 48
50.0
100
AcDbBlockBegin
  2
*D11
 70
     1
 10
0.0
 20
0.0
 30
0.0
  3
*D11
  1

  0
LINE
  5
2687B
330
219A8
100
AcDbEntity
  8
寸法
 62
     0
 48
50.0
370
    -2
100
AcDbLine
 10
6061.600000000001
 20
8790.352553667942
 30
0.0
 11
5452.657733986176
 21
8790.352553667942
 31
0.0
  0
LINE
  5
2687C
330
219A8
100
AcDbEntity
  8
寸法
 62
     0
 48
50.0
370
    -2
100
AcDbLine
 10
6061.600000000009
 20
5556.352553667943
 30
0.0
 11
5452.657733986175
 21
5556.352553667943
 31
0.0
  0
LINE
  5
2687D
330
219A8
100
AcDbEntity
  8
寸法
 62
     0
 48
50.0
370
    -2
100
AcDbLine
 10
5512.657733986176
 20
8790.352553667942
 30
0.0
 11
5512.657733986175
 21
5556.352553667943
 31
0.0
  0
INSERT
  5
2687E
330
219A8
100
AcDbEntity
  8
寸法
 62
     0
 48
50.0
370
    -2
100
AcDbBlockReference
  2
_DOTSMALL
 10
5512.657733986176
 20
8790.352553667942
 30
0.0
 41
100.0
 42
100.0
 43
100.0
 50
90.0
  0
INSERT
  5
2687F
330
219A8
100
AcDbEntity
  8
寸法
 62
     0
 48
50.0
370
    -2
100
AcDbBlockReference
  2
_DOTSMALL
 10
5512.657733986175
 20
5556.352553667943
 30
0.0
 41
100.0
 42
100.0
 43
100.0
 50
270.0
  0
MTEXT
  5
26880
330
219A8
100
AcDbEntity
  8
寸法
 62
     7
 48
50.0
100
AcDbMText
 10
5412.645922962552
 20
7173.352553667945
 30
0.0
 40
120.0
 41
0.0
 71
     5
 72
     1
  1
\A1;3234
  7
STYLE1
 11
0.0000000000000001
 21
1.0
 31
0.0
 73
     1
 44
1.0
1001
ACAD
1000
MTEXTBEGIN
1070
    73
1070
     1
1070
    44
1040
1.0
1070
    74
1070
     0
1000
MTEXTEND
  0
POINT
  5
26881
330
219A8
100
AcDbEntity
  8
DEFPOINTS
 62
     0
 48
50.0
100
AcDbPoint
 10
6081.6
 20
8790.352553667942
 30
0.0
  0
POINT
  5
26882
330
219A8
100
AcDbEntity
  8
DEFPOINTS
 62
     0
 48
50.0
100
AcDbPoint
 10
6081.600000000008
 20
5556.352553667943
 30
0.0
  0
POINT
  5
26883
330
219A8
100
AcDbEntity
  8
DEFPOINTS
 62
     0
 48
50.0
100
AcDbPoint
 10
5512.657733986175
 20
5556.352553667943
 30
0.0
  0
ENDBLK
  5
219B3
330
219A8
100
AcDbEntity
  8
0
 48
50.0
100
AcDbBlockEnd
  0
BLOCK
  5
219BD
330
219B4
100
AcDbEntity
  8
0
 48
50.0
100
AcDbBlockBegin
  2
*D12
 70
     1
 10
0.0
 20
0.0
 30
0.0
  3
*D12
  1

  0
LINE
  5
26872
330
219B4
100
AcDbEntity
  8
寸法
 62
     0
 48
50.0
370
    -2
100
AcDbLine
 10
5988.600000000001
 20
8913.352553667941
 30
0.0
 11
5207.164931848211
 21
8913.352553667941
 31
0.0
  0
LINE
  5
26873
330
219B4
100
AcDbEntity
  8
寸法
 62
     0
 48
50.0
370
    -2
100
AcDbLine
 10
5988.600000000001
 20
5433.352553667941
 30
0.0
 11
5207.164931848211
 21
5433.352553667941
 31
0.0
  0
LINE
  5
26874
330
219B4
100
AcDbEntity
  8
寸法
 62
     0
 48
50.0
370
    -2
100
AcDbLine
 10
5267.164931848212
 20
8913.352553667941
 30
0.0
 11
5267.16493184821
 21
5433.352553667941
 31
0.0
  0
INSERT
  5
26875
330
219B4
100
AcDbEntity
  8
寸法
 62
     0
 48
50.0
370
    -2
100
AcDbBlockReference
  2
_DOTSMALL
 10
5267.164931848212
 20
8913.352553667941
 30
0.0
 41
100.0
 42
100.0
 43
100.0
 50
90.0
  0
INSERT
  5
26876
330
219B4
100
AcDbEntity
  8
寸法
 62
     0
 48
50.0
370
    -2
100
AcDbBlockReference
  2
_DOTSMALL
 10
5267.16493184821
 20
5433.352553667941
 30
0.0
 41
100.0
 42
100.0
 43
100.0
 50
270.0
  0
MTEXT
  5
26877
330
219B4
100
AcDbEntity
  8
寸法
 62
     7
 48
50.0
100
AcDbMText
 10
5167.164931848209
 20
7173.352553667942
 30
0.0
 40
120.0
 41
0.0
 71
     5
 72
     1
  1
\A1;3480
  7
STYLE1
 11
0.0000000000000001
 21
1.0
 31
0.0
 73
     1
 44
1.0
1001
ACAD
1000
MTEXTBEGIN
1070
    73
1070
     1
1070
    44
1040
1.0
1070
    74
1070
     0
1000
MTEXTEND
  0
POINT
  5
26878
330
219B4
100
AcDbEntity
  8
DEFPOINTS
 62
     0
 48
50.0
100
AcDbPoint
 10
6008.600000000001
 20
8913.352553667941
 30
0.0
  0
POINT
  5
26879
330
219B4
100
AcDbEntity
  8
DEFPOINTS
 62
     0
 48
50.0
100
AcDbPoint
 10
6008.600000000001
 20
5433.352553667941
 30
0.0
  0
POINT
  5
2687A
330
219B4
100
AcDbEntity
  8
DEFPOINTS
 62
     0
 48
50.0
100
AcDbPoint
 10
5267.16493184821
 20
5433.352553667941
 30
0.0
  0
ENDBLK
  5
219BE
330
219B4
100
AcDbEntity
  8
0
 48
50.0
100
AcDbBlockEnd
  0
BLOCK
  5
219E6
330
219DD
100
AcDbEntity
  8
0
 48
50.0
100
AcDbBlockBegin
  2
*D13
 70
     1
 10
0.0
 20
0.0
 30
0.0
  3
*D13
  1

  0
LINE
  5
26856
330
219DD
100
AcDbEntity
  8
寸法
 62
     0
 48
50.0
370
    -2
100
AcDbLine
 10
6773.6
 20
8148.35255366794
 30
0.0
 11
6773.6
 21
9500.26231931627
 31
0.0
  0
LINE
  5
26857
330
219DD
100
AcDbEntity
  8
寸法
 62
     0
 48
50.0
370
    -2
100
AcDbLine
 10
6008.600000000001
 20
8933.352553667941
 30
0.0
 11
6008.600000000001
 21
9500.26231931627
 31
0.0
  0
LINE
  5
26858
330
219DD
100
AcDbEntity
  8
寸法
 62
     0
 48
50.0
370
    -2
100
AcDbLine
 10
6773.6
 20
9440.262319316271
 30
0.0
 11
6008.600000000001
 21
9440.262319316271
 31
0.0
  0
INSERT
  5
26859
330
219DD
100
AcDbEntity
  8
寸法
 62
     0
 48
50.0
370
    -2
100
AcDbBlockReference
  2
_DOTSMALL
 10
6773.6
 20
9440.262319316271
 30
0.0
 41
100.0
 42
100.0
 43
100.0
  0
INSERT
  5
2685A
330
219DD
100
AcDbEntity
  8
寸法
 62
     0
 48
50.0
370
    -2
100
AcDbBlockReference
  2
_DOTSMALL
 10
6008.600000000001
 20
9440.262319316271
 30
0.0
 41
100.0
 42
100.0
 43
100.0
 50
180.0
  0
MTEXT
  5
2685B
330
219DD
100
AcDbEntity
  8
寸法
 62
     7
 48
50.0
100
AcDbMText
 10
6391.100000000001
 20
9540.262319316271
 30
0.0
 40
120.0
 41
0.0
 71
     5
 72
     1
  1
\A1;765
  7
STYLE1
 73
     1
 44
1.0
1001
ACAD
1000
MTEXTBEGIN
1070
    73
1070
     1
1070
    44
1040
1.0
1070
    74
1070
     0
1000
MTEXTEND
  0
POINT
  5
2685C
330
219DD
100
AcDbEntity
  8
DEFPOINTS
 62
     0
 48
50.0
100
AcDbPoint
 10
6773.6
 20
8128.352553667941
 30
0.0
  0
POINT
  5
2685D
330
219DD
100
AcDbEntity
  8
DEFPOINTS
 62
     0
 48
50.0
100
AcDbPoint
 10
6008.600000000001
 20
8913.352553667941
 30
0.0
  0
POINT
  5
2685E
330
219DD
100
AcDbEntity
  8
DEFPOINTS
 62
     0
 48
50.0
100
AcDbPoint
 10
6008.600000000001
 20
9440.262319316271
 30
0.0
  0
ENDBLK
  5
219E7
330
219DD
100
AcDbEntity
  8
0
 48
50.0
100
AcDbBlockEnd
  0
BLOCK
  5
219F2
330
219E8
100
AcDbEntity
  8
0
 48
50.0
100
AcDbBlockBegin
  2
*D14
 70
     1
 10
0.0
 20
0.0
 30
0.0
  3
*D14
  1

  0
LINE
  5
2684D
330
219E8
100
AcDbEntity
  8
寸法
 62
     0
 48
50.0
370
    -2
100
AcDbLine
 10
8105.6
 20
8860.352553667942
 30
0.0
 11
8105.6
 21
9719.112180210025
 31
0.0
  0
LINE
  5
2684E
330
219E8
100
AcDbEntity
  8
寸法
 62
     0
 48
50.0
370
    -2
100
AcDbLine
 10
6131.6
 20
8860.352553667942
 30
0.0
 11
6131.6
 21
9719.112180210025
 31
0.0
  0
LINE
  5
2684F
330
219E8
100
AcDbEntity
  8
寸法
 62
     0
 48
50.0
370
    -2
100
AcDbLine
 10
8105.6
 20
9659.112180210025
 30
0.0
 11
6131.6
 21
9659.112180210025
 31
0.0
  0
INSERT
  5
26850
330
219E8
100
AcDbEntity
  8
寸法
 62
     0
 48
50.0
370
    -2
100
AcDbBlockReference
  2
_DOTSMALL
 10
8105.6
 20
9659.112180210025
 30
0.0
 41
100.0
 42
100.0
 43
100.0
  0
INSERT
  5
26851
330
219E8
100
AcDbEntity
  8
寸法
 62
     0
 48
50.0
370
    -2
100
AcDbBlockReference
  2
_DOTSMALL
 10
6131.6
 20
9659.112180210025
 30
0.0
 41
100.0
 42
100.0
 43
100.0
 50
180.0
  0
MTEXT
  5
26852
330
219E8
100
AcDbEntity
  8
寸法
 62
     7
 48
50.0
100
AcDbMText
 10
7118.6
 20
9759.112180210024
 30
0.0
 40
120.0
 41
0.0
 71
     5
 72
     1
  1
\A1;1974
  7
STYLE1
 73
     1
 44
1.0
1001
ACAD
1000
MTEXTBEGIN
1070
    73
1070
     1
1070
    44
1040
1.0
1070
    74
1070
     0
1000
MTEXTEND
  0
POINT
  5
26853
330
219E8
100
AcDbEntity
  8
DEFPOINTS
 62
     0
 48
50.0
100
AcDbPoint
 10
8105.6
 20
8840.352553667941
 30
0.0
  0
POINT
  5
26854
330
219E8
100
AcDbEntity
  8
DEFPOINTS
 62
     0
 48
50.0
100
AcDbPoint
 10
6131.6
 20
8840.352553667941
 30
0.0
  0
POINT
  5
26855
330
219E8
100
AcDbEntity
  8
DEFPOINTS
 62
     0
 48
50.0
100
AcDbPoint
 10
6131.6
 20
9659.112180210025
 30
0.0
  0
ENDBLK
  5
219F3
330
219E8
100
AcDbEntity
  8
0
 48
50.0
100
AcDbBlockEnd
  0
BLOCK
  5
219FF
330
219F4
100
AcDbEntity
  8
0
 48
50.0
100
AcDbBlockBegin
  2
*D15
 70
     1
 10
0.0
 20
0.0
 30
0.0
  3
*D15
  1

  0
LINE
  5
26843
330
219F4
100
AcDbEntity
  8
寸法
 62
     0
 48
50.0
370
    -2
100
AcDbLine
 10
6131.6
 20
8860.352553667942
 30
0.0
 11
6131.6
 21
9719.112180210025
 31
0.0
  0
LINE
  5
26844
330
219F4
100
AcDbEntity
  8
寸法
 62
     0
 48
50.0
370
    -2
100
AcDbLine
 10
6008.600000000001
 20
8933.352553667941
 30
0.0
 11
6008.600000000001
 21
9719.112180210025
 31
0.0
  0
LINE
  5
26845
330
219F4
100
AcDbEntity
  8
寸法
 62
     0
 48
50.0
370
    -2
100
AcDbLine
 10
6131.6
 20
9659.112180210025
 30
0.0
 11
6008.600000000001
 21
9659.112180210025
 31
0.0
  0
LINE
  5
26846
330
219F4
100
AcDbEntity
  8
寸法
 62
     0
 48
50.0
370
    -2
100
AcDbLine
 10
6008.600000000001
 20
9659.112180210025
 30
0.0
 11
5597.008116907967
 21
9659.112180210025
 31
0.0
  0
INSERT
  5
26847
330
219F4
100
AcDbEntity
  8
寸法
 62
     0
 48
50.0
370
    -2
100
AcDbBlockReference
  2
_DOTSMALL
 10
6131.6
 20
9659.112180210025
 30
0.0
 41
100.0
 42
100.0
 43
100.0
  0
INSERT
  5
26848
330
219F4
100
AcDbEntity
  8
寸法
 62
     0
 48
50.0
370
    -2
100
AcDbBlockReference
  2
_DOTSMALL
 10
6008.600000000001
 20
9659.112180210025
 30
0.0
 41
100.0
 42
100.0
 43
100.0
 50
180.0
  0
MTEXT
  5
26849
330
219F4
100
AcDbEntity
  8
寸法
 62
     7
 48
50.0
100
AcDbMText
 10
5735.493398282206
 20
9759.123991233646
 30
0.0
 40
120.0
 41
0.0
 71
     5
 72
     1
  1
\A1;123
  7
STYLE1
 73
     1
 44
1.0
1001
ACAD
1000
MTEXTBEGIN
1070
    73
1070
     1
1070
    44
1040
1.0
1070
    74
1070
     0
1000
MTEXTEND
  0
POINT
  5
2684A
330
219F4
100
AcDbEntity
  8
DEFPOINTS
 62
     0
 48
50.0
100
AcDbPoint
 10
6131.6
 20
8840.352553667941
 30
0.0
  0
POINT
  5
2684B
330
219F4
100
AcDbEntity
  8
DEFPOINTS
 62
     0
 48
50.0
100
AcDbPoint
 10
6008.600000000001
 20
8913.352553667941
 30
0.0
  0
POINT
  5
2684C
330
219F4
100
AcDbEntity
  8
DEFPOINTS
 62
     0
 48
50.0
100
AcDbPoint
 10
6008.600000000001
 20
9659.112180210025
 30
0.0
  0
ENDBLK
  5
21A00
330
219F4
100
AcDbEntity
  8
0
 48
50.0
100
AcDbBlockEnd
  0
BLOCK
  5
21A19
330
21A0E
100
AcDbEntity
  8
0
 48
50.0
100
AcDbBlockBegin
  2
*D16
 70
     1
 10
0.0
 20
0.0
 30
0.0
  3
*D16
  1

  0
LINE
  5
26839
330
21A0E
100
AcDbEntity
  8
寸法
 62
     0
 48
50.0
370
    -2
100
AcDbLine
 10
5988.600000000001
 20
8913.352553667941
 30
0.0
 11
5452.657733986178
 21
8913.352553667941
 31
0.0
  0
LINE
  5
2683A
330
21A0E
100
AcDbEntity
  8
寸法
 62
     0
 48
50.0
370
    -2
100
AcDbLine
 10
6061.600000000001
 20
8790.352553667942
 30
0.0
 11
5452.657733986178
 21
8790.352553667942
 31
0.0
  0
LINE
  5
2683B
330
21A0E
100
AcDbEntity
  8
寸法
 62
     0
 48
50.0
370
    -2
100
AcDbLine
 10
5512.657733986179
 20
8790.352553667942
 30
0.0
 11
5512.657733986179
 21
8913.352553667941
 31
0.0
  0
LINE
  5
2683C
330
21A0E
100
AcDbEntity
  8
寸法
 62
     0
 48
50.0
370
    -2
100
AcDbLine
 10
5512.657733986179
 20
8913.352553667941
 30
0.0
 11
5512.657733986179
 21
9324.944436759977
 31
0.0
  0
INSERT
  5
2683D
330
21A0E
100
AcDbEntity
  8
寸法
 62
     0
 48
50.0
370
    -2
100
AcDbBlockReference
  2
_DOTSMALL
 10
5512.657733986179
 20
8790.352553667942
 30
0.0
 41
100.0
 42
100.0
 43
100.0
 50
270.0
  0
INSERT
  5
2683E
330
21A0E
100
AcDbEntity
  8
寸法
 62
     0
 48
50.0
370
    -2
100
AcDbBlockReference
  2
_DOTSMALL
 10
5512.657733986179
 20
8913.352553667941
 30
0.0
 41
100.0
 42
100.0
 43
100.0
 50
90.0
  0
MTEXT
  5
2683F
330
21A0E
100
AcDbEntity
  8
寸法
 62
     7
 48
50.0
100
AcDbMText
 10
5412.645922962556
 20
9186.45915538574
 30
0.0
 40
120.0
 41
0.0
 71
     5
 72
     1
  1
\A1;123
  7
STYLE1
 11
0.0000000000000001
 21
1.0
 31
0.0
 73
     1
 44
1.0
1001
ACAD
1000
MTEXTBEGIN
1070
    73
1070
     1
1070
    44
1040
1.0
1070
    74
1070
     0
1000
MTEXTEND
  0
POINT
  5
26840
330
21A0E
100
AcDbEntity
  8
DEFPOINTS
 62
     0
 48
50.0
100
AcDbPoint
 10
6008.600000000001
 20
8913.352553667941
 30
0.0
  0
POINT
  5
26841
330
21A0E
100
AcDbEntity
  8
DEFPOINTS
 62
     0
 48
50.0
100
AcDbPoint
 10
6081.6
 20
8790.352553667942
 30
0.0
  0
POINT
  5
26842
330
21A0E
100
AcDbEntity
  8
DEFPOINTS
 62
     0
 48
50.0
100
AcDbPoint
 10
5512.657733986179
 20
8790.352553667942
 30
0.0
  0
ENDBLK
  5
21A1A
330
21A0E
100
AcDbEntity
  8
0
 48
50.0
100
AcDbBlockEnd
  0
BLOCK
  5
21A26
330
21A1B
100
AcDbEntity
  8
0
 48
50.0
100
AcDbBlockBegin
  2
*D17
 70
     1
 10
0.0
 20
0.0
 30
0.0
  3
*D17
  1

  0
LINE
  5
2682F
330
21A1B
100
AcDbEntity
  8
寸法
 62
     0
 48
50.0
370
    -2
100
AcDbLine
 10
6258.600000000001
 20
8793.352553667942
 30
0.0
 11
6515.307249876099
 21
8793.352553667942
 31
0.0
  0
LINE
  5
26830
330
21A1B
100
AcDbEntity
  8
寸法
 62
     0
 48
50.0
370
    -2
100
AcDbLine
 10
6258.600000000001
 20
8913.352553667939
 30
0.0
 11
6515.307249876099
 21
8913.352553667939
 31
0.0
  0
LINE
  5
26831
330
21A1B
100
AcDbEntity
  8
寸法
 62
     0
 48
50.0
370
    -2
100
AcDbLine
 10
6455.307249876098
 20
8793.352553667942
 30
0.0
 11
6455.307249876098
 21
8913.352553667939
 31
0.0
  0
LINE
  5
26832
330
21A1B
100
AcDbEntity
  8
寸法
 62
     0
 48
50.0
370
    -2
100
AcDbLine
 10
6455.307249876098
 20
8913.352553667939
 30
0.0
 11
6455.307249876098
 21
9327.483341035314
 31
0.0
  0
INSERT
  5
26833
330
21A1B
100
AcDbEntity
  8
寸法
 62
     0
 48
50.0
370
    -2
100
AcDbBlockReference
  2
_DOTSMALL
 10
6455.307249876098
 20
8793.352553667942
 30
0.0
 41
100.0
 42
100.0
 43
100.0
 50
270.0
  0
INSERT
  5
26834
330
21A1B
100
AcDbEntity
  8
寸法
 62
     0
 48
50.0
370
    -2
100
AcDbBlockReference
  2
_DOTSMALL
 10
6455.307249876098
 20
8913.352553667939
 30
0.0
 41
100.0
 42
100.0
 43
100.0
 50
90.0
  0
MTEXT
  5
26835
330
21A1B
100
AcDbEntity
  8
寸法
 62
     7
 48
50.0
100
AcDbMText
 10
6355.295438852476
 20
9191.436096940826
 30
0.0
 40
120.0
 41
0.0
 71
     5
 72
     1
  1
\A1;120
  7
STYLE1
 11
0.0000000000000001
 21
1.0
 31
0.0
 73
     1
 44
1.0
1001
ACAD
1000
MTEXTBEGIN
1070
    73
1070
     1
1070
    44
1040
1.0
1070
    74
1070
     0
1000
MTEXTEND
  0
POINT
  5
26836
330
21A1B
100
AcDbEntity
  8
DEFPOINTS
 62
     0
 48
50.0
100
AcDbPoint
 10
6238.600000000001
 20
8793.352553667942
 30
0.0
  0
POINT
  5
26837
330
21A1B
100
AcDbEntity
  8
DEFPOINTS
 62
     0
 48
50.0
100
AcDbPoint
 10
6238.6
 20
8913.352553667939
 30
0.0
  0
POINT
  5
26838
330
21A1B
100
AcDbEntity
  8
DEFPOINTS
 62
     0
 48
50.0
100
AcDbPoint
 10
6455.307249876098
 20
8913.352553667939
 30
0.0
  0
ENDBLK
  5
21A27
330
21A1B
100
AcDbEntity
  8
0
 48
50.0
100
AcDbBlockEnd
  0
BLOCK
  5
21A33
330
21A28
100
AcDbEntity
  8
0
 48
50.0
100
AcDbBlockBegin
  2
*D18
 70
     1
 10
0.0
 20
0.0
 30
0.0
  3
*D18
  1

  0
LINE
  5
26825
330
21A28
100
AcDbEntity
  8
寸法
 62
     0
 48
50.0
370
    -2
100
AcDbLine
 10
6258.600000000001
 20
8793.352553667942
 30
0.0
 11
6515.307249876099
 21
8793.352553667942
 31
0.0
  0
LINE
  5
26826
330
21A28
100
AcDbEntity
  8
寸法
 62
     0
 48
50.0
370
    -2
100
AcDbLine
 10
6258.600000000001
 20
8683.352553667937
 30
0.0
 11
6515.307249876099
 21
8683.352553667937
 31
0.0
  0
LINE
  5
26827
330
21A28
100
AcDbEntity
  8
寸法
 62
     0
 48
50.0
370
    -2
100
AcDbLine
 10
6455.307249876098
 20
8793.352553667942
 30
0.0
 11
6455.307249876098
 21
8683.352553667937
 31
0.0
  0
LINE
  5
26828
330
21A28
100
AcDbEntity
  8
寸法
 62
     0
 48
50.0
370
    -2
100
AcDbLine
 10
6455.307249876098
 20
8683.352553667937
 30
0.0
 11
6455.307249876098
 21
8219.246254455335
 31
0.0
  0
INSERT
  5
26829
330
21A28
100
AcDbEntity
  8
寸法
 62
     0
 48
50.0
370
    -2
100
AcDbBlockReference
  2
_DOTSMALL
 10
6455.307249876098
 20
8793.352553667942
 30
0.0
 41
100.0
 42
100.0
 43
100.0
 50
90.0
  0
INSERT
  5
2682A
330
21A28
100
AcDbEntity
  8
寸法
 62
     0
 48
50.0
370
    -2
100
AcDbBlockReference
  2
_DOTSMALL
 10
6455.307249876098
 20
8683.352553667937
 30
0.0
 41
100.0
 42
100.0
 43
100.0
 50
270.0
  0
MTEXT
  5
2682B
330
21A28
100
AcDbEntity
  8
寸法
 62
     7
 48
50.0
100
AcDbMText
 10
6355.307249876098
 20
8343.293498549824
 30
0.0
 40
120.0
 41
0.0
 71
     5
 72
     1
  1
\A1;110
  7
STYLE1
 11
0.0000000000000001
 21
1.0
 31
0.0
 73
     1
 44
1.0
1001
ACAD
1000
MTEXTBEGIN
1070
    73
1070
     1
1070
    44
1040
1.0
1070
    74
1070
     0
1000
MTEXTEND
  0
POINT
  5
2682C
330
21A28
100
AcDbEntity
  8
DEFPOINTS
 62
     0
 48
50.0
100
AcDbPoint
 10
6238.600000000001
 20
8793.352553667942
 30
0.0
  0
POINT
  5
2682D
330
21A28
100
AcDbEntity
  8
DEFPOINTS
 62
     0
 48
50.0
100
AcDbPoint
 10
6238.6
 20
8683.352553667937
 30
0.0
  0
POINT
  5
2682E
330
21A28
100
AcDbEntity
  8
DEFPOINTS
 62
     0
 48
50.0
100
AcDbPoint
 10
6455.307249876098
 20
8683.352553667937
 30
0.0
  0
ENDBLK
  5
21A34
330
21A28
100
AcDbEntity
  8
0
 48
50.0
100
AcDbBlockEnd
  0
BLOCK
  5
21A3F
330
21A35
100
AcDbEntity
  8
0
 48
50.0
100
AcDbBlockBegin
  2
*D19
 70
     1
 10
0.0
 20
0.0
 30
0.0
  3
*D19
  1

  0
LINE
  5
2681C
330
21A35
100
AcDbEntity
  8
寸法
 62
     0
 48
50.0
370
    -2
100
AcDbLine
 10
8223.600000000001
 20
8148.35255366794
 30
0.0
 11
8223.600000000001
 21
9500.26231931627
 31
0.0
  0
LINE
  5
2681D
330
21A35
100
AcDbEntity
  8
寸法
 62
     0
 48
50.0
370
    -2
100
AcDbLine
 10
7463.600000000001
 20
8148.35255366794
 30
0.0
 11
7463.600000000001
 21
9500.26231931627
 31
0.0
  0
LINE
  5
2681E
330
21A35
100
AcDbEntity
  8
寸法
 62
     0
 48
50.0
370
    -2
100
AcDbLine
 10
8223.600000000001
 20
9440.262319316271
 30
0.0
 11
7463.600000000001
 21
9440.262319316271
 31
0.0
  0
INSERT
  5
2681F
330
21A35
100
AcDbEntity
  8
寸法
 62
     0
 48
50.0
370
    -2
100
AcDbBlockReference
  2
_DOTSMALL
 10
8223.600000000001
 20
9440.262319316271
 30
0.0
 41
100.0
 42
100.0
 43
100.0
  0
INSERT
  5
26820
330
21A35
100
AcDbEntity
  8
寸法
 62
     0
 48
50.0
370
    -2
100
AcDbBlockReference
  2
_DOTSMALL
 10
7463.600000000001
 20
9440.262319316271
 30
0.0
 41
100.0
 42
100.0
 43
100.0
 50
180.0
  0
MTEXT
  5
26821
330
21A35
100
AcDbEntity
  8
寸法
 62
     7
 48
50.0
100
AcDbMText
 10
7843.600000000001
 20
9540.262319316271
 30
0.0
 40
120.0
 41
0.0
 71
     5
 72
     1
  1
\A1;760
  7
STYLE1
 73
     1
 44
1.0
1001
ACAD
1000
MTEXTBEGIN
1070
    73
1070
     1
1070
    44
1040
1.0
1070
    74
1070
     0
1000
MTEXTEND
  0
POINT
  5
26822
330
21A35
100
AcDbEntity
  8
DEFPOINTS
 62
     0
 48
50.0
100
AcDbPoint
 10
8223.600000000001
 20
8128.352553667941
 30
0.0
  0
POINT
  5
26823
330
21A35
100
AcDbEntity
  8
DEFPOINTS
 62
     0
 48
50.0
100
AcDbPoint
 10
7463.600000000001
 20
8128.352553667941
 30
0.0
  0
POINT
  5
26824
330
21A35
100
AcDbEntity
  8
DEFPOINTS
 62
     0
 48
50.0
100
AcDbPoint
 10
7463.600000000001
 20
9440.262319316271
 30
0.0
  0
ENDBLK
  5
21A40
330
21A35
100
AcDbEntity
  8
0
 48
50.0
100
AcDbBlockEnd
  0
BLOCK
  5
21A4B
330
21A41
100
AcDbEntity
  8
0
 48
50.0
100
AcDbBlockBegin
  2
*D20
 70
     1
 10
0.0
 20
0.0
 30
0.0
  3
*D20
  1

  0
LINE
  5
26813
330
21A41
100
AcDbEntity
  8
寸法
 62
     0
 48
50.0
370
    -2
100
AcDbLine
 10
9553.600000000001
 20
8028.352553667941
 30
0.0
 11
9249.531448609053
 21
8028.352553667941
 31
0.0
  0
LINE
  5
26814
330
21A41
100
AcDbEntity
  8
寸法
 62
     0
 48
50.0
370
    -2
100
AcDbLine
 10
9553.600000000001
 20
7173.352553667957
 30
0.0
 11
9249.531448609053
 21
7173.352553667957
 31
0.0
  0
LINE
  5
26815
330
21A41
100
AcDbEntity
  8
寸法
 62
     0
 48
50.0
370
    -2
100
AcDbLine
 10
9309.531448609051
 20
8028.352553667941
 30
0.0
 11
9309.531448609051
 21
7173.352553667957
 31
0.0
  0
INSERT
  5
26816
330
21A41
100
AcDbEntity
  8
寸法
 62
     0
 48
50.0
370
    -2
100
AcDbBlockReference
  2
_DOTSMALL
 10
9309.531448609051
 20
8028.352553667941
 30
0.0
 41
100.0
 42
100.0
 43
100.0
 50
90.0
  0
INSERT
  5
26817
330
21A41
100
AcDbEntity
  8
寸法
 62
     0
 48
50.0
370
    -2
100
AcDbBlockReference
  2
_DOTSMALL
 10
9309.531448609051
 20
7173.352553667957
 30
0.0
 41
100.0
 42
100.0
 43
100.0
 50
270.0
  0
MTEXT
  5
26818
330
21A41
100
AcDbEntity
  8
寸法
 62
     7
 48
50.0
100
AcDbMText
 10
9209.53144860905
 20
7600.852553667948
 30
0.0
 40
120.0
 41
0.0
 71
     5
 72
     1
  1
\A1;855
  7
STYLE1
 11
0.0000000000000001
 21
1.0
 31
0.0
 73
     1
 44
1.0
1001
ACAD
1000
MTEXTBEGIN
1070
    73
1070
     1
1070
    44
1040
1.0
1070
    74
1070
     0
1000
MTEXTEND
  0
POINT
  5
26819
330
21A41
100
AcDbEntity
  8
DEFPOINTS
 62
     0
 48
50.0
100
AcDbPoint
 10
9573.6
 20
8028.352553667941
 30
0.0
  0
POINT
  5
2681A
330
21A41
100
AcDbEntity
  8
DEFPOINTS
 62
     0
 48
50.0
100
AcDbPoint
 10
9573.6
 20
7173.352553667957
 30
0.0
  0
POINT
  5
2681B
330
21A41
100
AcDbEntity
  8
DEFPOINTS
 62
     0
 48
50.0
100
AcDbPoint
 10
9309.531448609051
 20
7173.352553667957
 30
0.0
  0
ENDBLK
  5
21A4C
330
21A41
100
AcDbEntity
  8
0
 48
50.0
100
AcDbBlockEnd
  0
BLOCK
  5
21A70
330
21A66
100
AcDbEntity
  8
0
 48
50.0
100
AcDbBlockBegin
  2
*D21
 70
     1
 10
0.0
 20
0.0
 30
0.0
  3
*D21
  1

  0
LINE
  5
2680A
330
21A66
100
AcDbEntity
  8
寸法
 62
     0
 48
50.0
370
    -2
100
AcDbLine
 10
9230.045939259559
 20
5433.352553667951
 30
0.0
 11
9369.531448609052
 21
5433.352553667951
 31
0.0
  0
LINE
  5
2680B
330
21A66
100
AcDbEntity
  8
寸法
 62
     0
 48
50.0
370
    -2
100
AcDbLine
 10
9553.600000000001
 20
6318.352553667956
 30
0.0
 11
9249.531448609053
 21
6318.352553667956
 31
0.0
  0
LINE
  5
2680C
330
21A66
100
AcDbEntity
  8
寸法
 62
     0
 48
50.0
370
    -2
100
AcDbLine
 10
9309.531448609051
 20
5433.352553667951
 30
0.0
 11
9309.531448609051
 21
6318.352553667956
 31
0.0
  0
INSERT
  5
2680D
330
21A66
100
AcDbEntity
  8
寸法
 62
     0
 48
50.0
370
    -2
100
AcDbBlockReference
  2
_DOTSMALL
 10
9309.531448609051
 20
5433.352553667951
 30
0.0
 41
100.0
 42
100.0
 43
100.0
 50
270.0
  0
INSERT
  5
2680E
330
21A66
100
AcDbEntity
  8
寸法
 62
     0
 48
50.0
370
    -2
100
AcDbBlockReference
  2
_DOTSMALL
 10
9309.531448609051
 20
6318.352553667956
 30
0.0
 41
100.0
 42
100.0
 43
100.0
 50
90.0
  0
MTEXT
  5
2680F
330
21A66
100
AcDbEntity
  8
寸法
 62
     7
 48
50.0
100
AcDbMText
 10
9209.53144860905
 20
5875.852553667954
 30
0.0
 40
120.0
 41
0.0
 71
     5
 72
     1
  1
\A1;885
  7
STYLE1
 11
0.0000000000000001
 21
1.0
 31
0.0
 73
     1
 44
1.0
1001
ACAD
1000
MTEXTBEGIN
1070
    73
1070
     1
1070
    44
1040
1.0
1070
    74
1070
     0
1000
MTEXTEND
  0
POINT
  5
26810
330
21A66
100
AcDbEntity
  8
DEFPOINTS
 62
     0
 48
50.0
100
AcDbPoint
 10
9210.045939259561
 20
5433.352553667951
 30
0.0
  0
POINT
  5
26811
330
21A66
100
AcDbEntity
  8
DEFPOINTS
 62
     0
 48
50.0
100
AcDbPoint
 10
9573.6
 20
6318.352553667956
 30
0.0
  0
POINT
  5
26812
330
21A66
100
AcDbEntity
  8
DEFPOINTS
 62
     0
 48
50.0
100
AcDbPoint
 10
9309.531448609051
 20
6318.352553667956
 30
0.0
  0
ENDBLK
  5
21A71
330
21A66
100
AcDbEntity
  8
0
 48
50.0
100
AcDbBlockEnd
  0
BLOCK
  5
21A7D
330
21A72
100
AcDbEntity
  8
0
 48
50.0
100
AcDbBlockBegin
  2
*D22
 70
     1
 10
0.0
 20
0.0
 30
0.0
  3
*D22
  1

  0
LINE
  5
26800
330
21A72
100
AcDbEntity
  8
寸法
 62
     0
 48
50.0
370
    -2
100
AcDbLine
 10
10318.6
 20
8663.352553667941
 30
0.0
 11
10318.6
 21
8347.461308993217
 31
0.0
  0
LINE
  5
26801
330
21A72
100
AcDbEntity
  8
寸法
 62
     0
 48
50.0
370
    -2
100
AcDbLine
 10
10208.6
 20
8663.352553667939
 30
0.0
 11
10208.6
 21
8347.461308993217
 31
0.0
  0
LINE
  5
26802
330
21A72
100
AcDbEntity
  8
寸法
 62
     0
 48
50.0
370
    -2
100
AcDbLine
 10
10318.6
 20
8407.461308993218
 30
0.0
 11
10208.6
 21
8407.461308993218
 31
0.0
  0
LINE
  5
26803
330
21A72
100
AcDbEntity
  8
寸法
 62
     0
 48
50.0
370
    -2
100
AcDbLine
 10
10208.6
 20
8407.461308993218
 30
0.0
 11
9848.505511811024
 21
8407.461308993218
 31
0.0
  0
INSERT
  5
26804
330
21A72
100
AcDbEntity
  8
寸法
 62
     0
 48
50.0
370
    -2
100
AcDbBlockReference
  2
_DOTSMALL
 10
10318.6
 20
8407.461308993218
 30
0.0
 41
100.0
 42
100.0
 43
100.0
  0
INSERT
  5
26805
330
21A72
100
AcDbEntity
  8
寸法
 62
     0
 48
50.0
370
    -2
100
AcDbBlockReference
  2
_DOTSMALL
 10
10208.6
 20
8407.461308993218
 30
0.0
 41
100.0
 42
100.0
 43
100.0
 50
180.0
  0
MTEXT
  5
26806
330
21A72
100
AcDbEntity
  8
寸法
 62
     7
 48
50.0
100
AcDbMText
 10
9972.552755905512
 20
8507.461308993217
 30
0.0
 40
120.0
 41
0.0
 71
     5
 72
     1
  1
\A1;110
  7
STYLE1
 73
     1
 44
1.0
1001
ACAD
1000
MTEXTBEGIN
1070
    73
1070
     1
1070
    44
1040
1.0
1070
    74
1070
     0
1000
MTEXTEND
  0
POINT
  5
26807
330
21A72
100
AcDbEntity
  8
DEFPOINTS
 62
     0
 48
50.0
100
AcDbPoint
 10
10318.6
 20
8683.352553667941
 30
0.0
  0
POINT
  5
26808
330
21A72
100
AcDbEntity
  8
DEFPOINTS
 62
     0
 48
50.0
100
AcDbPoint
 10
10208.6
 20
8683.352553667939
 30
0.0
  0
POINT
  5
26809
330
21A72
100
AcDbEntity
  8
DEFPOINTS
 62
     0
 48
50.0
100
AcDbPoint
 10
10208.6
 20
8407.461308993218
 30
0.0
  0
ENDBLK
  5
21A7E
330
21A72
100
AcDbEntity
  8
0
 48
50.0
100
AcDbBlockEnd
  0
BLOCK
  5
21A89
330
21A7F
100
AcDbEntity
  8
0
 48
50.0
100
AcDbBlockBegin
  2
*D23
 70
     1
 10
0.0
 20
0.0
 30
0.0
  3
*D23
  1

  0
LINE
  5
267F7
330
21A7F
100
AcDbEntity
  8
寸法
 62
     0
 48
50.0
370
    -2
100
AcDbLine
 10
10438.6
 20
8933.352553667941
 30
0.0
 11
10438.6
 21
9500.26231931627
 31
0.0
  0
LINE
  5
267F8
330
21A7F
100
AcDbEntity
  8
寸法
 62
     0
 48
50.0
370
    -2
100
AcDbLine
 10
9673.6
 20
8148.35255366794
 30
0.0
 11
9673.6
 21
9500.26231931627
 31
0.0
  0
LINE
  5
267F9
330
21A7F
100
AcDbEntity
  8
寸法
 62
     0
 48
50.0
370
    -2
100
AcDbLine
 10
10438.6
 20
9440.262319316271
 30
0.0
 11
9673.6
 21
9440.262319316271
 31
0.0
  0
INSERT
  5
267FA
330
21A7F
100
AcDbEntity
  8
寸法
 62
     0
 48
50.0
370
    -2
100
AcDbBlockReference
  2
_DOTSMALL
 10
10438.6
 20
9440.262319316271
 30
0.0
 41
100.0
 42
100.0
 43
100.0
  0
INSERT
  5
267FB
330
21A7F
100
AcDbEntity
  8
寸法
 62
     0
 48
50.0
370
    -2
100
AcDbBlockReference
  2
_DOTSMALL
 10
9673.6
 20
9440.262319316271
 30
0.0
 41
100.0
 42
100.0
 43
100.0
 50
180.0
  0
MTEXT
  5
267FC
330
21A7F
100
AcDbEntity
  8
寸法
 62
     7
 48
50.0
100
AcDbMText
 10
10056.1
 20
9540.262319316271
 30
0.0
 40
120.0
 41
0.0
 71
     5
 72
     1
  1
\A1;765
  7
STYLE1
 73
     1
 44
1.0
1001
ACAD
1000
MTEXTBEGIN
1070
    73
1070
     1
1070
    44
1040
1.0
1070
    74
1070
     0
1000
MTEXTEND
  0
POINT
  5
267FD
330
21A7F
100
AcDbEntity
  8
DEFPOINTS
 62
     0
 48
50.0
100
AcDbPoint
 10
10438.6
 20
8913.352553667941
 30
0.0
  0
POINT
  5
267FE
330
21A7F
100
AcDbEntity
  8
DEFPOINTS
 62
     0
 48
50.0
100
AcDbPoint
 10
9673.6
 20
8128.352553667941
 30
0.0
  0
POINT
  5
267FF
330
21A7F
100
AcDbEntity
  8
DEFPOINTS
 62
     0
 48
50.0
100
AcDbPoint
 10
9673.6
 20
9440.262319316271
 30
0.0
  0
ENDBLK
  5
21A8A
330
21A7F
100
AcDbEntity
  8
0
 48
50.0
100
AcDbBlockEnd
  0
BLOCK
  5
21A94
330
21A8B
100
AcDbEntity
  8
0
 48
50.0
100
AcDbBlockBegin
  2
*D24
 70
     1
 10
0.0
 20
0.0
 30
0.0
  3
*D24
  1

  0
LINE
  5
267EE
330
21A8B
100
AcDbEntity
  8
寸法
 62
     0
 48
50.0
370
    -2
100
AcDbLine
 10
9553.600000000001
 20
8028.352553667941
 30
0.0
 11
9249.531448609053
 21
8028.352553667941
 31
0.0
  0
LINE
  5
267EF
330
21A8B
100
AcDbEntity
  8
寸法
 62
     0
 48
50.0
370
    -2
100
AcDbLine
 10
9134.157431058357
 20
8913.352553667943
 30
0.0
 11
9369.531448609052
 21
8913.352553667943
 31
0.0
  0
LINE
  5
267F0
330
21A8B
100
AcDbEntity
  8
寸法
 62
     0
 48
50.0
370
    -2
100
AcDbLine
 10
9309.531448609051
 20
8028.352553667941
 30
0.0
 11
9309.531448609051
 21
8913.352553667943
 31
0.0
  0
INSERT
  5
267F1
330
21A8B
100
AcDbEntity
  8
寸法
 62
     0
 48
50.0
370
    -2
100
AcDbBlockReference
  2
_DOTSMALL
 10
9309.531448609051
 20
8028.352553667941
 30
0.0
 41
100.0
 42
100.0
 43
100.0
 50
270.0
  0
INSERT
  5
267F2
330
21A8B
100
AcDbEntity
  8
寸法
 62
     0
 48
50.0
370
    -2
100
AcDbBlockReference
  2
_DOTSMALL
 10
9309.531448609051
 20
8913.352553667943
 30
0.0
 41
100.0
 42
100.0
 43
100.0
 50
90.0
  0
MTEXT
  5
267F3
330
21A8B
100
AcDbEntity
  8
寸法
 62
     7
 48
50.0
100
AcDbMText
 10
9209.53144860905
 20
8470.852553667944
 30
0.0
 40
120.0
 41
0.0
 71
     5
 72
     1
  1
\A1;885
  7
STYLE1
 11
0.0000000000000001
 21
1.0
 31
0.0
 73
     1
 44
1.0
1001
ACAD
1000
MTEXTBEGIN
1070
    73
1070
     1
1070
    44
1040
1.0
1070
    74
1070
     0
1000
MTEXTEND
  0
POINT
  5
267F4
330
21A8B
100
AcDbEntity
  8
DEFPOINTS
 62
     0
 48
50.0
100
AcDbPoint
 10
9573.6
 20
8028.352553667941
 30
0.0
  0
POINT
  5
267F5
330
21A8B
100
AcDbEntity
  8
DEFPOINTS
 62
     0
 48
50.0
100
AcDbPoint
 10
9114.157431058357
 20
8913.352553667943
 30
0.0
  0
POINT
  5
267F6
330
21A8B
100
AcDbEntity
  8
DEFPOINTS
 62
     0
 48
50.0
100
AcDbPoint
 10
9309.531448609051
 20
8913.352553667943
 30
0.0
  0
ENDBLK
  5
21A95
330
21A8B
100
AcDbEntity
  8
0
 48
50.0
100
AcDbBlockEnd
  0
BLOCK
  5
21AAE
330
21AA3
100
AcDbEntity
  8
0
 48
50.0
100
AcDbBlockBegin
  2
*D25
 70
     1
 10
0.0
 20
0.0
 30
0.0
  3
*D25
  1

  0
LINE
  5
267E4
330
21AA3
100
AcDbEntity
  8
寸法
 62
     0
 48
50.0
370
    -2
100
AcDbLine
 10
10438.6
 20
8933.352553667941
 30
0.0
 11
10438.6
 21
9719.112180210025
 31
0.0
  0
LINE
  5
267E5
330
21AA3
100
AcDbEntity
  8
寸法
 62
     0
 48
50.0
370
    -2
100
AcDbLine
 10
10315.6
 20
8860.352553667942
 30
0.0
 11
10315.6
 21
9719.112180210025
 31
0.0
  0
LINE
  5
267E6
330
21AA3
100
AcDbEntity
  8
寸法
 62
     0
 48
50.0
370
    -2
100
AcDbLine
 10
10315.6
 20
9659.112180210025
 30
0.0
 11
10438.6
 21
9659.112180210025
 31
0.0
  0
LINE
  5
267E7
330
21AA3
100
AcDbEntity
  8
寸法
 62
     0
 48
50.0
370
    -2
100
AcDbLine
 10
10438.6
 20
9659.112180210025
 30
0.0
 11
10850.19188309204
 21
9659.112180210025
 31
0.0
  0
INSERT
  5
267E8
330
21AA3
100
AcDbEntity
  8
寸法
 62
     0
 48
50.0
370
    -2
100
AcDbBlockReference
  2
_DOTSMALL
 10
10315.6
 20
9659.112180210025
 30
0.0
 41
100.0
 42
100.0
 43
100.0
 50
180.0
  0
INSERT
  5
267E9
330
21AA3
100
AcDbEntity
  8
寸法
 62
     0
 48
50.0
370
    -2
100
AcDbBlockReference
  2
_DOTSMALL
 10
10438.6
 20
9659.112180210025
 30
0.0
 41
100.0
 42
100.0
 43
100.0
  0
MTEXT
  5
267EA
330
21AA3
100
AcDbEntity
  8
寸法
 62
     7
 48
50.0
100
AcDbMText
 10
10711.7066017178
 20
9759.123991233646
 30
0.0
 40
120.0
 41
0.0
 71
     5
 72
     1
  1
\A1;123
  7
STYLE1
 73
     1
 44
1.0
1001
ACAD
1000
MTEXTBEGIN
1070
    73
1070
     1
1070
    44
1040
1.0
1070
    74
1070
     0
1000
MTEXTEND
  0
POINT
  5
267EB
330
21AA3
100
AcDbEntity
  8
DEFPOINTS
 62
     0
 48
50.0
100
AcDbPoint
 10
10438.6
 20
8913.352553667941
 30
0.0
  0
POINT
  5
267EC
330
21AA3
100
AcDbEntity
  8
DEFPOINTS
 62
     0
 48
50.0
100
AcDbPoint
 10
10315.6
 20
8840.352553667941
 30
0.0
  0
POINT
  5
267ED
330
21AA3
100
AcDbEntity
  8
DEFPOINTS
 62
     0
 48
50.0
100
AcDbPoint
 10
10315.6
 20
9659.112180210025
 30
0.0
  0
ENDBLK
  5
21AAF
330
21AA3
100
AcDbEntity
  8
0
 48
50.0
100
AcDbBlockEnd
  0
BLOCK
  5
21ABB
330
21AB0
100
AcDbEntity
  8
0
 48
50.0
100
AcDbBlockBegin
  2
*D26
 70
     1
 10
0.0
 20
0.0
 30
0.0
  3
*D26
  1

  0
LINE
  5
267DA
330
21AB0
100
AcDbEntity
  8
寸法
 62
     0
 48
50.0
370
    -2
100
AcDbLine
 10
10438.6
 20
8663.352553667941
 30
0.0
 11
10438.6
 21
8347.461308993217
 31
0.0
  0
LINE
  5
267DB
330
21AB0
100
AcDbEntity
  8
寸法
 62
     0
 48
50.0
370
    -2
100
AcDbLine
 10
10318.6
 20
8663.352553667941
 30
0.0
 11
10318.6
 21
8347.461308993217
 31
0.0
  0
LINE
  5
267DC
330
21AB0
100
AcDbEntity
  8
寸法
 62
     0
 48
50.0
370
    -2
100
AcDbLine
 10
10318.6
 20
8407.461308993218
 30
0.0
 11
10438.6
 21
8407.461308993218
 31
0.0
  0
LINE
  5
267DD
330
21AB0
100
AcDbEntity
  8
寸法
 62
     0
 48
50.0
370
    -2
100
AcDbLine
 10
10438.6
 20
8407.461308993218
 30
0.0
 11
10844.7062992126
 21
8407.461308993218
 31
0.0
  0
INSERT
  5
267DE
330
21AB0
100
AcDbEntity
  8
寸法
 62
     0
 48
50.0
370
    -2
100
AcDbBlockReference
  2
_DOTSMALL
 10
10318.6
 20
8407.461308993218
 30
0.0
 41
100.0
 42
100.0
 43
100.0
 50
180.0
  0
INSERT
  5
267DF
330
21AB0
100
AcDbEntity
  8
寸法
 62
     0
 48
50.0
370
    -2
100
AcDbBlockReference
  2
_DOTSMALL
 10
10438.6
 20
8407.461308993218
 30
0.0
 41
100.0
 42
100.0
 43
100.0
  0
MTEXT
  5
267E0
330
21AB0
100
AcDbEntity
  8
寸法
 62
     7
 48
50.0
100
AcDbMText
 10
10708.65905511811
 20
8507.473120016838
 30
0.0
 40
120.0
 41
0.0
 71
     5
 72
     1
  1
\A1;120
  7
STYLE1
 73
     1
 44
1.0
1001
ACAD
1000
MTEXTBEGIN
1070
    73
1070
     1
1070
    44
1040
1.0
1070
    74
1070
     0
1000
MTEXTEND
  0
POINT
  5
267E1
330
21AB0
100
AcDbEntity
  8
DEFPOINTS
 62
     0
 48
50.0
100
AcDbPoint
 10
10438.6
 20
8683.352553667941
 30
0.0
  0
POINT
  5
267E2
330
21AB0
100
AcDbEntity
  8
DEFPOINTS
 62
     0
 48
50.0
100
AcDbPoint
 10
10318.6
 20
8683.352553667941
 30
0.0
  0
POINT
  5
267E3
330
21AB0
100
AcDbEntity
  8
DEFPOINTS
 62
     0
 48
50.0
100
AcDbPoint
 10
10318.6
 20
8407.461308993218
 30
0.0
  0
ENDBLK
  5
21ABC
330
21AB0
100
AcDbEntity
  8
0
 48
50.0
100
AcDbBlockEnd
  0
BLOCK
  5
21AED
330
21AE2
100
AcDbEntity
  8
0
 48
50.0
100
AcDbBlockBegin
  2
*D27
 70
     1
 10
0.0
 20
0.0
 30
0.0
  3
*D27
  1

  0
LINE
  5
26868
330
21AE2
100
AcDbEntity
  8
寸法
 62
     0
 48
50.0
370
    -2
100
AcDbLine
 10
6061.600000000009
 20
5556.352553667943
 30
0.0
 11
5452.657733986178
 21
5556.352553667943
 31
0.0
  0
LINE
  5
26869
330
21AE2
100
AcDbEntity
  8
寸法
 62
     0
 48
50.0
370
    -2
100
AcDbLine
 10
5988.600000000001
 20
5433.352553667941
 30
0.0
 11
5452.657733986178
 21
5433.352553667941
 31
0.0
  0
LINE
  5
2686A
330
21AE2
100
AcDbEntity
  8
寸法
 62
     0
 48
50.0
370
    -2
100
AcDbLine
 10
5512.657733986179
 20
5556.352553667943
 30
0.0
 11
5512.657733986179
 21
5433.352553667941
 31
0.0
  0
LINE
  5
2686B
330
21AE2
100
AcDbEntity
  8
寸法
 62
     0
 48
50.0
370
    -2
100
AcDbLine
 10
5512.657733986179
 20
5433.352553667941
 30
0.0
 11
5512.657733986179
 21
4959.336323451108
 31
0.0
  0
INSERT
  5
2686C
330
21AE2
100
AcDbEntity
  8
寸法
 62
     0
 48
50.0
370
    -2
100
AcDbBlockReference
  2
_DOTSMALL
 10
5512.657733986179
 20
5556.352553667943
 30
0.0
 41
100.0
 42
100.0
 43
100.0
 50
90.0
  0
INSERT
  5
2686D
330
21AE2
100
AcDbEntity
  8
寸法
 62
     0
 48
50.0
370
    -2
100
AcDbBlockReference
  2
_DOTSMALL
 10
5512.657733986179
 20
5433.352553667941
 30
0.0
 41
100.0
 42
100.0
 43
100.0
 50
270.0
  0
MTEXT
  5
2686E
330
21AE2
100
AcDbEntity
  8
寸法
 62
     7
 48
50.0
100
AcDbMText
 10
5412.645922962556
 20
5097.821604825349
 30
0.0
 40
120.0
 41
0.0
 71
     5
 72
     1
  1
\A1;123
  7
STYLE1
 11
0.0000000000000001
 21
1.0
 31
0.0
 73
     1
 44
1.0
1001
ACAD
1000
MTEXTBEGIN
1070
    73
1070
     1
1070
    44
1040
1.0
1070
    74
1070
     0
1000
MTEXTEND
  0
POINT
  5
2686F
330
21AE2
100
AcDbEntity
  8
DEFPOINTS
 62
     0
 48
50.0
100
AcDbPoint
 10
6081.600000000008
 20
5556.352553667943
 30
0.0
  0
POINT
  5
26870
330
21AE2
100
AcDbEntity
  8
DEFPOINTS
 62
     0
 48
50.0
100
AcDbPoint
 10
6008.600000000001
 20
5433.352553667941
 30
0.0
  0
POINT
  5
26871
330
21AE2
100
AcDbEntity
  8
DEFPOINTS
 62
     0
 48
50.0
100
AcDbPoint
 10
5512.657733986179
 20
5433.352553667941
 30
0.0
  0
ENDBLK
  5
21AEE
330
21AE2
100
AcDbEntity
  8
0
 48
50.0
100
AcDbBlockEnd
  0
BLOCK
  5
21AF7
330
21AEF
100
AcDbEntity
  8
0
 48
50.0
100
AcDbBlockBegin
  2
*D28
 70
     1
 10
0.0
 20
0.0
 30
0.0
  3
*D28
  1

  0
LINE
  5
2685F
330
21AEF
100
AcDbEntity
  8
寸法
 62
     0
 48
50.0
370
    -2
100
AcDbLine
 10
8235.600000000001
 20
5683.352553667958
 30
0.0
 11
8235.600000000001
 21
5895.585133115988
 31
0.0
  0
LINE
  5
26860
330
21AEF
100
AcDbEntity
  8
寸法
 62
     0
 48
50.0
370
    -2
100
AcDbLine
 10
7975.6
 20
5683.352553667958
 30
0.0
 11
7975.6
 21
5895.585133115988
 31
0.0
  0
LINE
  5
26861
330
21AEF
100
AcDbEntity
  8
寸法
 62
     0
 48
50.0
370
    -2
100
AcDbLine
 10
8235.600000000001
 20
5835.585133115987
 30
0.0
 11
7975.6
 21
5835.585133115987
 31
0.0
  0
INSERT
  5
26862
330
21AEF
100
AcDbEntity
  8
寸法
 62
     0
 48
50.0
370
    -2
100
AcDbBlockReference
  2
_DOTSMALL
 10
8235.600000000001
 20
5835.585133115987
 30
0.0
 41
100.0
 42
100.0
 43
100.0
  0
INSERT
  5
26863
330
21AEF
100
AcDbEntity
  8
寸法
 62
     0
 48
50.0
370
    -2
100
AcDbBlockReference
  2
_DOTSMALL
 10
7975.6
 20
5835.585133115987
 30
0.0
 41
100.0
 42
100.0
 43
100.0
 50
180.0
  0
MTEXT
  5
26864
330
21AEF
100
AcDbEntity
  8
寸法
 62
     7
 48
50.0
100
AcDbMText
 10
8105.6
 20
5935.596944139609
 30
0.0
 40
120.0
 41
0.0
 71
     5
 72
     1
  1
\A1;260
  7
STYLE1
 73
     1
 44
1.0
1001
ACAD
1000
MTEXTBEGIN
1070
    73
1070
     1
1070
    44
1040
1.0
1070
    74
1070
     0
1000
MTEXTEND
  0
POINT
  5
26865
330
21AEF
100
AcDbEntity
  8
DEFPOINTS
 62
     0
 48
50.0
100
AcDbPoint
 10
8235.600000000001
 20
5663.352553667959
 30
0.0
  0
POINT
  5
26866
330
21AEF
100
AcDbEntity
  8
DEFPOINTS
 62
     0
 48
50.0
100
AcDbPoint
 10
7975.6
 20
5663.352553667959
 30
0.0
  0
POINT
  5
26867
330
21AEF
100
AcDbEntity
  8
DEFPOINTS
 62
     0
 48
50.0
100
AcDbPoint
 10
7975.6
 20
5835.585133115987
 30
0.0
  0
ENDBLK
  5
21AF8
330
21AEF
100
AcDbEntity
  8
0
 48
50.0
100
AcDbBlockEnd
  0
BLOCK
  5
22286
330
2227C
100
AcDbEntity
  8
0
 48
50.0
100
AcDbBlockBegin
  2
*D29
 70
     1
 10
0.0
 20
0.0
 30
0.0
  3
*D29
  1

  0
LINE
  5
267D1
330
2227C
100
AcDbEntity
  8
寸法
 62
     0
 48
50.0
370
    -2
100
AcDbLine
 10
7463.600000000001
 20
8148.35255366794
 30
0.0
 11
7463.600000000001
 21
9500.26231931627
 31
0.0
  0
LINE
  5
267D2
330
2227C
100
AcDbEntity
  8
寸法
 62
     0
 48
50.0
370
    -2
100
AcDbLine
 10
6773.6
 20
8148.35255366794
 30
0.0
 11
6773.6
 21
9500.26231931627
 31
0.0
  0
LINE
  5
267D3
330
2227C
100
AcDbEntity
  8
寸法
 62
     0
 48
50.0
370
    -2
100
AcDbLine
 10
7463.600000000001
 20
9440.262319316271
 30
0.0
 11
6773.6
 21
9440.262319316271
 31
0.0
  0
INSERT
  5
267D4
330
2227C
100
AcDbEntity
  8
寸法
 62
     0
 48
50.0
370
    -2
100
AcDbBlockReference
  2
_DOTSMALL
 10
7463.600000000001
 20
9440.262319316271
 30
0.0
 41
100.0
 42
100.0
 43
100.0
  0
INSERT
  5
267D5
330
2227C
100
AcDbEntity
  8
寸法
 62
     0
 48
50.0
370
    -2
100
AcDbBlockReference
  2
_DOTSMALL
 10
6773.6
 20
9440.262319316271
 30
0.0
 41
100.0
 42
100.0
 43
100.0
 50
180.0
  0
MTEXT
  5
267D6
330
2227C
100
AcDbEntity
  8
寸法
 62
     7
 48
50.0
100
AcDbMText
 10
7118.6
 20
9540.262319316271
 30
0.0
 40
120.0
 41
0.0
 71
     5
 72
     1
  1
\A1;690
  7
STYLE1
 73
     1
 44
1.0
1001
ACAD
1000
MTEXTBEGIN
1070
    73
1070
     1
1070
    44
1040
1.0
1070
    74
1070
     0
1000
MTEXTEND
  0
POINT
  5
267D7
330
2227C
100
AcDbEntity
  8
DEFPOINTS
 62
     0
 48
50.0
100
AcDbPoint
 10
7463.600000000001
 20
8128.352553667941
 30
0.0
  0
POINT
  5
267D8
330
2227C
100
AcDbEntity
  8
DEFPOINTS
 62
     0
 48
50.0
100
AcDbPoint
 10
6773.6
 20
8128.352553667941
 30
0.0
  0
POINT
  5
267D9
330
2227C
100
AcDbEntity
  8
DEFPOINTS
 62
     0
 48
50.0
100
AcDbPoint
 10
6773.6
 20
9440.262319316271
 30
0.0
  0
ENDBLK
  5
22287
330
2227C
100
AcDbEntity
  8
0
 48
50.0
100
AcDbBlockEnd
  0
BLOCK
  5
222E0
330
222D6
100
AcDbEntity
  8
0
 48
50.0
100
AcDbBlockBegin
  2
*D30
 70
     1
 10
0.0
 20
0.0
 30
0.0
  3
*D30
  1

  0
LINE
  5
267C8
330
222D6
100
AcDbEntity
  8
寸法
 62
     0
 48
50.0
370
    -2
100
AcDbLine
 10
9673.6
 20
8148.35255366794
 30
0.0
 11
9673.6
 21
9500.26231931627
 31
0.0
  0
LINE
  5
267C9
330
222D6
100
AcDbEntity
  8
寸法
 62
     0
 48
50.0
370
    -2
100
AcDbLine
 10
8983.6
 20
8148.35255366794
 30
0.0
 11
8983.6
 21
9500.26231931627
 31
0.0
  0
LINE
  5
267CA
330
222D6
100
AcDbEntity
  8
寸法
 62
     0
 48
50.0
370
    -2
100
AcDbLine
 10
9673.6
 20
9440.262319316271
 30
0.0
 11
8983.6
 21
9440.262319316271
 31
0.0
  0
INSERT
  5
267CB
330
222D6
100
AcDbEntity
  8
寸法
 62
     0
 48
50.0
370
    -2
100
AcDbBlockReference
  2
_DOTSMALL
 10
9673.6
 20
9440.262319316271
 30
0.0
 41
100.0
 42
100.0
 43
100.0
  0
INSERT
  5
267CC
330
222D6
100
AcDbEntity
  8
寸法
 62
     0
 48
50.0
370
    -2
100
AcDbBlockReference
  2
_DOTSMALL
 10
8983.6
 20
9440.262319316271
 30
0.0
 41
100.0
 42
100.0
 43
100.0
 50
180.0
  0
MTEXT
  5
267CD
330
222D6
100
AcDbEntity
  8
寸法
 62
     7
 48
50.0
100
AcDbMText
 10
9328.599999999999
 20
9540.262319316271
 30
0.0
 40
120.0
 41
0.0
 71
     5
 72
     1
  1
\A1;690
  7
STYLE1
 73
     1
 44
1.0
1001
ACAD
1000
MTEXTBEGIN
1070
    73
1070
     1
1070
    44
1040
1.0
1070
    74
1070
     0
1000
MTEXTEND
  0
POINT
  5
267CE
330
222D6
100
AcDbEntity
  8
DEFPOINTS
 62
     0
 48
50.0
100
AcDbPoint
 10
9673.6
 20
8128.352553667941
 30
0.0
  0
POINT
  5
267CF
330
222D6
100
AcDbEntity
  8
DEFPOINTS
 62
     0
 48
50.0
100
AcDbPoint
 10
8983.6
 20
8128.352553667941
 30
0.0
  0
POINT
  5
267D0
330
222D6
100
AcDbEntity
  8
DEFPOINTS
 62
     0
 48
50.0
100
AcDbPoint
 10
8983.6
 20
9440.262319316271
 30
0.0
  0
ENDBLK
  5
222E1
330
222D6
100
AcDbEntity
  8
0
 48
50.0
100
AcDbBlockEnd
  0
BLOCK
  5
24B7F
330
24B75
100
AcDbEntity
  8
0
 48
50.0
100
AcDbBlockBegin
  2
*D31
 70
     1
 10
0.0
 20
0.0
 30
0.0
  3
*D31
  1

  0
LINE
  5
267BF
330
24B75
100
AcDbEntity
  8
寸法
 62
     0
 48
50.0
370
    -2
100
AcDbLine
 10
9553.600000000006
 20
7173.352553667935
 30
0.0
 11
9249.531448609056
 21
7173.352553667935
 31
0.0
  0
LINE
  5
267C0
330
24B75
100
AcDbEntity
  8
寸法
 62
     0
 48
50.0
370
    -2
100
AcDbLine
 10
9553.600000000006
 20
6318.352553667951
 30
0.0
 11
9249.531448609056
 21
6318.352553667951
 31
0.0
  0
LINE
  5
267C1
330
24B75
100
AcDbEntity
  8
寸法
 62
     0
 48
50.0
370
    -2
100
AcDbLine
 10
9309.531448609055
 20
7173.352553667935
 30
0.0
 11
9309.531448609055
 21
6318.352553667951
 31
0.0
  0
INSERT
  5
267C2
330
24B75
100
AcDbEntity
  8
寸法
 62
     0
 48
50.0
370
    -2
100
AcDbBlockReference
  2
_DOTSMALL
 10
9309.531448609055
 20
7173.352553667935
 30
0.0
 41
100.0
 42
100.0
 43
100.0
 50
90.0
  0
INSERT
  5
267C3
330
24B75
100
AcDbEntity
  8
寸法
 62
     0
 48
50.0
370
    -2
100
AcDbBlockReference
  2
_DOTSMALL
 10
9309.531448609055
 20
6318.352553667951
 30
0.0
 41
100.0
 42
100.0
 43
100.0
 50
270.0
  0
MTEXT
  5
267C4
330
24B75
100
AcDbEntity
  8
寸法
 62
     7
 48
50.0
100
AcDbMText
 10
9209.531448609054
 20
6745.852553667943
 30
0.0
 40
120.0
 41
0.0
 71
     5
 72
     1
  1
\A1;855
  7
STYLE1
 11
0.0000000000000001
 21
1.0
 31
0.0
 73
     1
 44
1.0
1001
ACAD
1000
MTEXTBEGIN
1070
    73
1070
     1
1070
    44
1040
1.0
1070
    74
1070
     0
1000
MTEXTEND
  0
POINT
  5
267C5
330
24B75
100
AcDbEntity
  8
DEFPOINTS
 62
     0
 48
50.0
100
AcDbPoint
 10
9573.600000000006
 20
7173.352553667935
 30
0.0
  0
POINT
  5
267C6
330
24B75
100
AcDbEntity
  8
DEFPOINTS
 62
     0
 48
50.0
100
AcDbPoint
 10
9573.600000000006
 20
6318.352553667951
 30
0.0
  0
POINT
  5
267C7
330
24B75
100
AcDbEntity
  8
DEFPOINTS
 62
     0
 48
50.0
100
AcDbPoint
 10
9309.531448609055
 20
6318.352553667951
 30
0.0
  0
ENDBLK
  5
24B80
330
24B75
100
AcDbEntity
  8
0
 48
50.0
100
AcDbBlockEnd
  0
BLOCK
  5
25C92
330
25C86
100
AcDbEntity
  8
0
 48
50.0
100
AcDbBlockBegin
  2
*D32
 70
     1
 10
0.0
 20
0.0
 30
0.0
  3
*D32
  1

  0
LINE
  5
267B5
330
25C86
100
AcDbEntity
  8
寸法
 62
     0
 48
50.0
370
    -2
100
AcDbLine
 10
6258.600000000001
 20
5553.352553667945
 30
0.0
 11
6502.207396225874
 21
5553.352553667945
 31
0.0
  0
LINE
  5
267B6
330
25C86
100
AcDbEntity
  8
寸法
 62
     0
 48
50.0
370
    -2
100
AcDbLine
 10
6258.600000000001
 20
5358.352553667931
 30
0.0
 11
6502.207396225874
 21
5358.352553667931
 31
0.0
  0
LINE
  5
267B7
330
25C86
100
AcDbEntity
  8
寸法
 62
     0
 48
50.0
370
    -2
100
AcDbLine
 10
6442.207396225875
 20
5553.352553667945
 30
0.0
 11
6442.207396225875
 21
5358.352553667931
 31
0.0
  0
LINE
  5
267B8
330
25C86
100
AcDbEntity
  8
寸法
 62
     0
 48
50.0
370
    -2
100
AcDbLine
 10
6442.207396225875
 20
5358.352553667931
 30
0.0
 11
6442.207396225875
 21
4980.96267126014
 31
0.0
  0
INSERT
  5
267B9
330
25C86
100
AcDbEntity
  8
寸法
 62
     0
 48
50.0
370
    -2
100
AcDbBlockReference
  2
_DOTSMALL
 10
6442.207396225875
 20
5553.352553667945
 30
0.0
 41
100.0
 42
100.0
 43
100.0
 50
90.0
  0
INSERT
  5
267BA
330
25C86
100
AcDbEntity
  8
寸法
 62
     0
 48
50.0
370
    -2
100
AcDbBlockReference
  2
_DOTSMALL
 10
6442.207396225875
 20
5358.352553667931
 30
0.0
 41
100.0
 42
100.0
 43
100.0
 50
270.0
  0
MTEXT
  5
267BB
330
25C86
100
AcDbEntity
  8
寸法
 62
     7
 48
50.0
100
AcDbMText
 10
6342.207396225873
 20
5119.657612464038
 30
0.0
 40
120.0
 41
0.0
 71
     5
 72
     1
  1
\A1;195
  7
STYLE1
 11
0.0000000000000001
 21
1.0
 31
0.0
 73
     1
 44
1.0
1001
ACAD
1000
MTEXTBEGIN
1070
    73
1070
     1
1070
    44
1040
1.0
1070
    74
1070
     0
1000
MTEXTEND
  0
POINT
  5
267BC
330
25C86
100
AcDbEntity
  8
DEFPOINTS
 62
     0
 48
50.0
100
AcDbPoint
 10
6238.600000000001
 20
5553.352553667945
 30
0.0
  0
POINT
  5
267BD
330
25C86
100
AcDbEntity
  8
DEFPOINTS
 62
     0
 48
50.0
100
AcDbPoint
 10
6238.600000000001
 20
5358.352553667931
 30
0.0
  0
POINT
  5
267BE
330
25C86
100
AcDbEntity
  8
DEFPOINTS
 62
     0
 48
50.0
100
AcDbPoint
 10
6442.207396225875
 20
5358.352553667931
 30
0.0
  0
ENDBLK
  5
25C93
330
25C86
100
AcDbEntity
  8
0
 48
50.0
100
AcDbBlockEnd
  0
BLOCK
  5
2603B
330
2602F
100
AcDbEntity
  8
0
 48
50.0
100
AcDbBlockBegin
  2
*D33
 70
     1
 10
0.0
 20
0.0
 30
0.0
  3
*D33
  1

  0
LINE
  5
267AA
330
2602F
100
AcDbEntity
  8
寸法
 62
     0
 48
50.0
370
    -2
100
AcDbLine
 10
5988.600000000001
 20
5358.352553667963
 30
0.0
 11
5712.312481891146
 21
5358.352553667963
 31
0.0
  0
LINE
  5
267AB
330
2602F
100
AcDbEntity
  8
寸法
 62
     0
 48
50.0
370
    -2
100
AcDbLine
 10
5988.600000000008
 20
5433.352553667965
 30
0.0
 11
5712.312481891146
 21
5433.352553667965
 31
0.0
  0
LINE
  5
267AC
330
2602F
100
AcDbEntity
  8
寸法
 62
     0
 48
50.0
370
    -2
100
AcDbLine
 10
5772.312481891145
 20
5433.352553667965
 30
0.0
 11
5772.312481891145
 21
5533.352553667965
 31
0.0
  0
LINE
  5
267AD
330
2602F
100
AcDbEntity
  8
寸法
 62
     0
 48
50.0
370
    -2
100
AcDbLine
 10
5772.312481891145
 20
5358.352553667963
 30
0.0
 11
5772.312481891145
 21
4491.381990919486
 31
0.0
  0
LINE
  5
267AE
330
2602F
100
AcDbEntity
  8
寸法
 62
     0
 48
50.0
370
    -2
100
AcDbLine
 10
5772.312481891145
 20
5433.352553667965
 30
0.0
 11
5772.312481891145
 21
5358.352553667963
 31
0.0
  0
INSERT
  5
267AF
330
2602F
100
AcDbEntity
  8
寸法
 62
     0
 48
50.0
370
    -2
100
AcDbBlockReference
  2
_DOTSMALL
 10
5772.312481891145
 20
5433.352553667965
 30
0.0
 41
100.0
 42
100.0
 43
100.0
 50
270.0
  0
INSERT
  5
267B0
330
2602F
100
AcDbEntity
  8
寸法
 62
     0
 48
50.0
370
    -2
100
AcDbBlockReference
  2
_DOTSMALL
 10
5772.312481891145
 20
5358.352553667963
 30
0.0
 41
100.0
 42
100.0
 43
100.0
 50
90.0
  0
MTEXT
  5
267B1
330
2602F
100
AcDbEntity
  8
寸法
 62
     7
 48
50.0
100
AcDbMText
 10
5672.312481891145
 20
4824.867272293726
 30
0.0
 40
120.0
 41
0.0
 71
     5
 72
     1
  1
\A1;扉の出75
  7
STYLE1
 11
0.0000000000000001
 21
1.0
 31
0.0
 73
     1
 44
1.0
1001
ACAD
1000
MTEXTBEGIN
1070
    73
1070
     1
1070
    44
1040
1.0
1070
    74
1070
     0
1000
MTEXTEND
  0
POINT
  5
267B2
330
2602F
100
AcDbEntity
  8
DEFPOINTS
 62
     0
 48
50.0
100
AcDbPoint
 10
6008.600000000001
 20
5358.352553667963
 30
0.0
  0
POINT
  5
267B3
330
2602F
100
AcDbEntity
  8
DEFPOINTS
 62
     0
 48
50.0
100
AcDbPoint
 10
6008.600000000008
 20
5433.352553667965
 30
0.0
  0
POINT
  5
267B4
330
2602F
100
AcDbEntity
  8
DEFPOINTS
 62
     0
 48
50.0
100
AcDbPoint
 10
5772.312481891145
 20
5433.352553667965
 30
0.0
  0
ENDBLK
  5
2603C
330
2602F
100
AcDbEntity
  8
0
 48
50.0
100
AcDbBlockEnd
  0
BLOCK
  5
26047
330
2603D
100
AcDbEntity
  8
0
 48
50.0
100
AcDbBlockBegin
  2
*D34
 70
     1
 10
0.0
 20
0.0
 30
0.0
  3
*D34
  1

  0
LINE
  5
267A1
330
2603D
100
AcDbEntity
  8
寸法
 62
     0
 48
50.0
370
    -2
100
AcDbLine
 10
8196.600000000001
 20
5338.352553667979
 30
0.0
 11
8196.600000000001
 21
4694.366823849221
 31
0.0
  0
LINE
  5
267A2
330
2603D
100
AcDbEntity
  8
寸法
 62
     0
 48
50.0
370
    -2
100
AcDbLine
 10
6008.600000000001
 20
5338.352553667963
 30
0.0
 11
6008.600000000001
 21
4694.366823849221
 31
0.0
  0
LINE
  5
267A3
330
2603D
100
AcDbEntity
  8
寸法
 62
     0
 48
50.0
370
    -2
100
AcDbLine
 10
8196.600000000001
 20
4754.36682384922
 30
0.0
 11
6008.600000000001
 21
4754.36682384922
 31
0.0
  0
INSERT
  5
267A4
330
2603D
100
AcDbEntity
  8
寸法
 62
     0
 48
50.0
370
    -2
100
AcDbBlockReference
  2
_DOTSMALL
 10
8196.600000000001
 20
4754.36682384922
 30
0.0
 41
100.0
 42
100.0
 43
100.0
  0
INSERT
  5
267A5
330
2603D
100
AcDbEntity
  8
寸法
 62
     0
 48
50.0
370
    -2
100
AcDbBlockReference
  2
_DOTSMALL
 10
6008.600000000001
 20
4754.36682384922
 30
0.0
 41
100.0
 42
100.0
 43
100.0
 50
180.0
  0
MTEXT
  5
267A6
330
2603D
100
AcDbEntity
  8
寸法
 62
     7
 48
50.0
100
AcDbMText
 10
7098.766762832856
 20
4854.378634872842
 30
0.0
 40
120.0
 41
0.0
 71
     5
 72
     1
  1
\A1;扉の幅 2188
  7
STYLE1
 73
     1
 44
1.0
1001
ACAD
1000
MTEXTBEGIN
1070
    73
1070
     1
1070
    44
1040
1.0
1070
    74
1070
     0
1000
MTEXTEND
  0
POINT
  5
267A7
330
2603D
100
AcDbEntity
  8
DEFPOINTS
 62
     0
 48
50.0
100
AcDbPoint
 10
8196.600000000001
 20
5358.352553667979
 30
0.0
  0
POINT
  5
267A8
330
2603D
100
AcDbEntity
  8
DEFPOINTS
 62
     0
 48
50.0
100
AcDbPoint
 10
6008.600000000001
 20
5358.352553667963
 30
0.0
  0
POINT
  5
267A9
330
2603D
100
AcDbEntity
  8
DEFPOINTS
 62
     0
 48
50.0
100
AcDbPoint
 10
6008.600000000001
 20
4754.36682384922
 30
0.0
  0
ENDBLK
  5
26048
330
2603D
100
AcDbEntity
  8
0
 48
50.0
100
AcDbBlockEnd
  0
BLOCK
  5
26600
330
265F4
100
AcDbEntity
  8
0
 48
50.0
100
AcDbBlockBegin
  2
*D35
 70
     1
 10
0.0
 20
0.0
 30
0.0
  3
*D35
  1

  0
LINE
  5
26796
330
265F4
100
AcDbEntity
  8
寸法
 62
     0
 48
50.0
370
    -2
100
AcDbLine
 10
7010.273640057246
 20
2010.703494353944
 30
0.0
 11
8256.677722417085
 21
2010.703494353944
 31
0.0
  0
LINE
  5
26797
330
265F4
100
AcDbEntity
  8
寸法
 62
     0
 48
50.0
370
    -2
100
AcDbLine
 10
7244.273640057247
 20
1944.753494353944
 30
0.0
 11
8256.677722417085
 21
1944.753494353944
 31
0.0
  0
LINE
  5
26798
330
265F4
100
AcDbEntity
  8
寸法
 62
     0
 48
50.0
370
    -2
100
AcDbLine
 10
8196.677722417085
 20
2010.703494353944
 30
0.0
 11
8196.677722417085
 21
2110.703494353944
 31
0.0
  0
LINE
  5
26799
330
265F4
100
AcDbEntity
  8
寸法
 62
     0
 48
50.0
370
    -2
100
AcDbLine
 10
8196.677722417085
 20
1944.753494353944
 30
0.0
 11
8196.677722417085
 21
1212.735687510978
 31
0.0
  0
LINE
  5
2679A
330
265F4
100
AcDbEntity
  8
寸法
 62
     0
 48
50.0
370
    -2
100
AcDbLine
 10
8196.677722417085
 20
2010.703494353944
 30
0.0
 11
8196.677722417085
 21
1944.753494353944
 31
0.0
  0
INSERT
  5
2679B
330
265F4
100
AcDbEntity
  8
寸法
 62
     0
 48
50.0
370
    -2
100
AcDbBlockReference
  2
_DOTSMALL
 10
8196.677722417085
 20
2010.703494353944
 30
0.0
 41
100.0
 42
100.0
 43
100.0
 50
270.0
  0
INSERT
  5
2679C
330
265F4
100
AcDbEntity
  8
寸法
 62
     0
 48
50.0
370
    -2
100
AcDbBlockReference
  2
_DOTSMALL
 10
8196.677722417085
 20
1944.753494353944
 30
0.0
 41
100.0
 42
100.0
 43
100.0
 50
90.0
  0
MTEXT
  5
2679D
330
265F4
100
AcDbEntity
  8
寸法
 62
     7
 48
50.0
100
AcDbMText
 10
8096.665911393463
 20
1478.744590932462
 30
0.0
 40
120.0
 41
0.0
 71
     5
 72
     1
  1
\A1;20～25
  7
STYLE1
 11
0.0000000000000001
 21
1.0
 31
0.0
 73
     1
 44
1.0
1001
ACAD
1000
MTEXTBEGIN
1070
    73
1070
     1
1070
    44
1040
1.0
1070
    74
1070
     0
1000
MTEXTEND
  0
POINT
  5
2679E
330
265F4
100
AcDbEntity
  8
DEFPOINTS
 62
     0
 48
50.0
100
AcDbPoint
 10
6990.273640057246
 20
2010.703494353944
 30
0.0
  0
POINT
  5
2679F
330
265F4
100
AcDbEntity
  8
DEFPOINTS
 62
     0
 48
50.0
100
AcDbPoint
 10
7224.273640057248
 20
1944.753494353944
 30
0.0
  0
POINT
  5
267A0
330
265F4
100
AcDbEntity
  8
DEFPOINTS
 62
     0
 48
50.0
100
AcDbPoint
 10
8196.677722417085
 20
1944.753494353944
 30
0.0
  0
ENDBLK
  5
26601
330
265F4
100
AcDbEntity
  8
0
 48
50.0
100
AcDbBlockEnd
  0
BLOCK
  5
2660B
330
26602
100
AcDbEntity
  8
0
 48
50.0
100
AcDbBlockBegin
  2
*D36
 70
     1
 10
0.0
 20
0.0
 30
0.0
  3
*D36
  1

  0
LINE
  5
2678D
330
26602
100
AcDbEntity
  8
寸法
 62
     0
 48
50.0
370
    -2
100
AcDbLine
 10
7244.273640057247
 20
1944.753494353944
 30
0.0
 11
7911.609389768303
 21
1944.753494353944
 31
0.0
  0
LINE
  5
2678E
330
26602
100
AcDbEntity
  8
寸法
 62
     0
 48
50.0
370
    -2
100
AcDbLine
 10
7244.273640057247
 20
1539.753494353942
 30
0.0
 11
7911.609389768303
 21
1539.753494353942
 31
0.0
  0
LINE
  5
2678F
330
26602
100
AcDbEntity
  8
寸法
 62
     0
 48
50.0
370
    -2
100
AcDbLine
 10
7851.609389768302
 20
1944.753494353944
 30
0.0
 11
7851.609389768302
 21
1539.753494353942
 31
0.0
  0
INSERT
  5
26790
330
26602
100
AcDbEntity
  8
寸法
 62
     0
 48
50.0
370
    -2
100
AcDbBlockReference
  2
_DOTSMALL
 10
7851.609389768302
 20
1944.753494353944
 30
0.0
 41
100.0
 42
100.0
 43
100.0
 50
90.0
  0
INSERT
  5
26791
330
26602
100
AcDbEntity
  8
寸法
 62
     0
 48
50.0
370
    -2
100
AcDbBlockReference
  2
_DOTSMALL
 10
7851.609389768302
 20
1539.753494353942
 30
0.0
 41
100.0
 42
100.0
 43
100.0
 50
270.0
  0
MTEXT
  5
26792
330
26602
100
AcDbEntity
  8
寸法
 62
     7
 48
50.0
100
AcDbMText
 10
7751.609389768302
 20
1742.253494353944
 30
0.0
 40
120.0
 41
0.0
 71
     5
 72
     1
  1
\A1;180
  7
STYLE1
 11
0.0000000000000001
 21
1.0
 31
0.0
 73
     1
 44
1.0
1001
ACAD
1000
MTEXTBEGIN
1070
    73
1070
     1
1070
    44
1040
1.0
1070
    74
1070
     0
1000
MTEXTEND
  0
POINT
  5
26793
330
26602
100
AcDbEntity
  8
DEFPOINTS
 62
     0
 48
50.0
100
AcDbPoint
 10
7224.273640057248
 20
1944.753494353944
 30
0.0
  0
POINT
  5
26794
330
26602
100
AcDbEntity
  8
DEFPOINTS
 62
     0
 48
50.0
100
AcDbPoint
 10
7224.273640057248
 20
1539.753494353942
 30
0.0
  0
POINT
  5
26795
330
26602
100
AcDbEntity
  8
DEFPOINTS
 62
     0
 48
50.0
100
AcDbPoint
 10
7851.609389768302
 20
1539.753494353942
 30
0.0
  0
ENDBLK
  5
2660C
330
26602
100
AcDbEntity
  8
0
 48
50.0
100
AcDbBlockEnd
  0
BLOCK
  5
26617
330
2660D
100
AcDbEntity
  8
0
 48
50.0
100
AcDbBlockBegin
  2
*D37
 70
     1
 10
0.0
 20
0.0
 30
0.0
  3
*D37
  1

  0
LINE
  5
26784
330
2660D
100
AcDbEntity
  8
寸法
 62
     0
 48
50.0
370
    -2
100
AcDbLine
 10
4421.724498585753
 20
784.7534943539425
 30
0.0
 11
4421.724498585753
 21
445.8013878980095
 31
0.0
  0
LINE
  5
26785
330
2660D
100
AcDbEntity
  8
寸法
 62
     0
 48
50.0
370
    -2
100
AcDbLine
 10
4981.724498585754
 20
784.7534943539425
 30
0.0
 11
4981.724498585754
 21
445.8013878980095
 31
0.0
  0
LINE
  5
26786
330
2660D
100
AcDbEntity
  8
寸法
 62
     0
 48
50.0
370
    -2
100
AcDbLine
 10
4421.724498585753
 20
505.8013878980094
 30
0.0
 11
4981.724498585754
 21
505.8013878980094
 31
0.0
  0
INSERT
  5
26787
330
2660D
100
AcDbEntity
  8
寸法
 62
     0
 48
50.0
370
    -2
100
AcDbBlockReference
  2
_DOTSMALL
 10
4421.724498585753
 20
505.8013878980094
 30
0.0
 41
100.0
 42
100.0
 43
100.0
 50
180.0
  0
INSERT
  5
26788
330
2660D
100
AcDbEntity
  8
寸法
 62
     0
 48
50.0
370
    -2
100
AcDbBlockReference
  2
_DOTSMALL
 10
4981.724498585754
 20
505.8013878980094
 30
0.0
 41
100.0
 42
100.0
 43
100.0
  0
MTEXT
  5
26789
330
2660D
100
AcDbEntity
  8
寸法
 62
     7
 48
50.0
100
AcDbMText
 10
4701.724498585753
 20
605.8013878980094
 30
0.0
 40
120.0
 41
0.0
 71
     5
 72
     1
  1
\A1;300
  7
STYLE1
 73
     1
 44
1.0
1001
ACAD
1000
MTEXTBEGIN
1070
    73
1070
     1
1070
    44
1040
1.0
1070
    74
1070
     0
1000
MTEXTEND
  0
POINT
  5
2678A
330
2660D
100
AcDbEntity
  8
DEFPOINTS
 62
     0
 48
50.0
100
AcDbPoint
 10
4421.724498585753
 20
804.7534943539425
 30
0.0
  0
POINT
  5
2678B
330
2660D
100
AcDbEntity
  8
DEFPOINTS
 62
     0
 48
50.0
100
AcDbPoint
 10
4981.724498585754
 20
804.7534943539425
 30
0.0
  0
POINT
  5
2678C
330
2660D
100
AcDbEntity
  8
DEFPOINTS
 62
     0
 48
50.0
100
AcDbPoint
 10
4981.724498585754
 20
505.8013878980094
 30
0.0
  0
ENDBLK
  5
26618
330
2660D
100
AcDbEntity
  8
0
 48
50.0
100
AcDbBlockEnd
  0
BLOCK
  5
26623
330
26619
100
AcDbEntity
  8
0
 48
50.0
100
AcDbBlockBegin
  2
*D38
 70
     1
 10
0.0
 20
0.0
 30
0.0
  3
*D38
  1

  0
LINE
  5
2677B
330
26619
100
AcDbEntity
  8
寸法
 62
     0
 48
50.0
370
    -2
100
AcDbLine
 10
4561.724498585753
 20
1944.753494353944
 30
0.0
 11
3761.079560549691
 21
1944.753494353944
 31
0.0
  0
LINE
  5
2677C
330
26619
100
AcDbEntity
  8
寸法
 62
     0
 48
50.0
370
    -2
100
AcDbLine
 10
4301.724498585758
 20
964.7534943539424
 30
0.0
 11
3761.079560549691
 21
964.7534943539426
 31
0.0
  0
LINE
  5
2677D
330
26619
100
AcDbEntity
  8
寸法
 62
     0
 48
50.0
370
    -2
100
AcDbLine
 10
3821.079560549691
 20
1944.753494353944
 30
0.0
 11
3821.079560549691
 21
964.7534943539426
 31
0.0
  0
INSERT
  5
2677E
330
26619
100
AcDbEntity
  8
寸法
 62
     0
 48
50.0
370
    -2
100
AcDbBlockReference
  2
_DOTSMALL
 10
3821.079560549691
 20
1944.753494353944
 30
0.0
 41
100.0
 42
100.0
 43
100.0
 50
90.0
  0
INSERT
  5
2677F
330
26619
100
AcDbEntity
  8
寸法
 62
     0
 48
50.0
370
    -2
100
AcDbBlockReference
  2
_DOTSMALL
 10
3821.079560549691
 20
964.7534943539426
 30
0.0
 41
100.0
 42
100.0
 43
100.0
 50
270.0
  0
MTEXT
  5
26780
330
26619
100
AcDbEntity
  8
寸法
 62
     7
 48
50.0
100
AcDbMText
 10
3721.079560549691
 20
1454.753494353943
 30
0.0
 40
120.0
 41
0.0
 71
     5
 72
     1
  1
\A1;540
  7
STYLE1
 11
0.0000000000000001
 21
1.0
 31
0.0
 73
     1
 44
1.0
1001
ACAD
1000
MTEXTBEGIN
1070
    73
1070
     1
1070
    44
1040
1.0
1070
    74
1070
     0
1000
MTEXTEND
  0
POINT
  5
26781
330
26619
100
AcDbEntity
  8
DEFPOINTS
 62
     0
 48
50.0
100
AcDbPoint
 10
4581.724498585753
 20
1944.753494353944
 30
0.0
  0
POINT
  5
26782
330
26619
100
AcDbEntity
  8
DEFPOINTS
 62
     0
 48
50.0
100
AcDbPoint
 10
4321.724498585758
 20
964.7534943539424
 30
0.0
  0
POINT
  5
26783
330
26619
100
AcDbEntity
  8
DEFPOINTS
 62
     0
 48
50.0
100
AcDbPoint
 10
3821.079560549691
 20
964.7534943539426
 30
0.0
  0
ENDBLK
  5
26624
330
26619
100
AcDbEntity
  8
0
 48
50.0
100
AcDbBlockEnd
  0
BLOCK
  5
2662F
330
26625
100
AcDbEntity
  8
0
 48
50.0
100
AcDbBlockBegin
  2
*D39
 70
     1
 10
0.0
 20
0.0
 30
0.0
  3
*D39
  1

  0
LINE
  5
26772
330
26625
100
AcDbEntity
  8
寸法
 62
     0
 48
50.0
370
    -2
100
AcDbLine
 10
4401.724498585752
 20
1264.753494353942
 30
0.0
 11
4183.699106420178
 21
1264.753494353942
 31
0.0
  0
LINE
  5
26773
330
26625
100
AcDbEntity
  8
寸法
 62
     0
 48
50.0
370
    -2
100
AcDbLine
 10
4301.724498585758
 20
964.7534943539424
 30
0.0
 11
4183.699106420178
 21
964.7534943539424
 31
0.0
  0
LINE
  5
26774
330
26625
100
AcDbEntity
  8
寸法
 62
     0
 48
50.0
370
    -2
100
AcDbLine
 10
4243.699106420178
 20
1264.753494353942
 30
0.0
 11
4243.699106420178
 21
964.7534943539424
 31
0.0
  0
INSERT
  5
26775
330
26625
100
AcDbEntity
  8
寸法
 62
     0
 48
50.0
370
    -2
100
AcDbBlockReference
  2
_DOTSMALL
 10
4243.699106420178
 20
1264.753494353942
 30
0.0
 41
100.0
 42
100.0
 43
100.0
 50
90.0
  0
INSERT
  5
26776
330
26625
100
AcDbEntity
  8
寸法
 62
     0
 48
50.0
370
    -2
100
AcDbBlockReference
  2
_DOTSMALL
 10
4243.699106420178
 20
964.7534943539424
 30
0.0
 41
100.0
 42
100.0
 43
100.0
 50
270.0
  0
MTEXT
  5
26777
330
26625
100
AcDbEntity
  8
寸法
 62
     7
 48
50.0
100
AcDbMText
 10
4143.699106420178
 20
1114.753494353942
 30
0.0
 40
120.0
 41
0.0
 71
     5
 72
     1
  1
\A1;150
  7
STYLE1
 11
0.0000000000000001
 21
1.0
 31
0.0
 73
     1
 44
1.0
1001
ACAD
1000
MTEXTBEGIN
1070
    73
1070
     1
1070
    44
1040
1.0
1070
    74
1070
     0
1000
MTEXTEND
  0
POINT
  5
26778
330
26625
100
AcDbEntity
  8
DEFPOINTS
 62
     0
 48
50.0
100
AcDbPoint
 10
4421.724498585753
 20
1264.753494353942
 30
0.0
  0
POINT
  5
26779
330
26625
100
AcDbEntity
  8
DEFPOINTS
 62
     0
 48
50.0
100
AcDbPoint
 10
4321.724498585758
 20
964.7534943539424
 30
0.0
  0
POINT
  5
2677A
330
26625
100
AcDbEntity
  8
DEFPOINTS
 62
     0
 48
50.0
100
AcDbPoint
 10
4243.699106420178
 20
964.7534943539424
 30
0.0
  0
ENDBLK
  5
26630
330
26625
100
AcDbEntity
  8
0
 48
50.0
100
AcDbBlockEnd
  0
BLOCK
  5
2663B
330
26631
100
AcDbEntity
  8
0
 48
50.0
100
AcDbBlockBegin
  2
*D40
 70
     1
 10
0.0
 20
0.0
 30
0.0
  3
*D40
  1

  0
LINE
  5
26769
330
26631
100
AcDbEntity
  8
寸法
 62
     0
 48
50.0
370
    -2
100
AcDbLine
 10
4821.724498585753
 20
1964.753494353944
 30
0.0
 11
4821.724498585753
 21
2529.338254249419
 31
0.0
  0
LINE
  5
2676A
330
26631
100
AcDbEntity
  8
寸法
 62
     0
 48
50.0
370
    -2
100
AcDbLine
 10
4581.724498585753
 20
1964.753494353944
 30
0.0
 11
4581.724498585753
 21
2529.338254249419
 31
0.0
  0
LINE
  5
2676B
330
26631
100
AcDbEntity
  8
寸法
 62
     0
 48
50.0
370
    -2
100
AcDbLine
 10
4821.724498585753
 20
2469.338254249419
 30
0.0
 11
4581.724498585753
 21
2469.338254249419
 31
0.0
  0
INSERT
  5
2676C
330
26631
100
AcDbEntity
  8
寸法
 62
     0
 48
50.0
370
    -2
100
AcDbBlockReference
  2
_DOTSMALL
 10
4821.724498585753
 20
2469.338254249419
 30
0.0
 41
100.0
 42
100.0
 43
100.0
  0
INSERT
  5
2676D
330
26631
100
AcDbEntity
  8
寸法
 62
     0
 48
50.0
370
    -2
100
AcDbBlockReference
  2
_DOTSMALL
 10
4581.724498585753
 20
2469.338254249419
 30
0.0
 41
100.0
 42
100.0
 43
100.0
 50
180.0
  0
MTEXT
  5
2676E
330
26631
100
AcDbEntity
  8
寸法
 62
     7
 48
50.0
100
AcDbMText
 10
4701.724498585753
 20
2675.379066814223
 30
0.0
 40
120.0
 41
0.0
 71
     5
 72
     1
  1
\A1;120\P(195)
  7
STYLE1
 73
     1
 44
1.0
1001
ACAD
1000
MTEXTBEGIN
1070
    73
1070
     1
1070
    44
1040
1.0
1070
    74
1070
     0
1000
MTEXTEND
  0
POINT
  5
2676F
330
26631
100
AcDbEntity
  8
DEFPOINTS
 62
     0
 48
50.0
100
AcDbPoint
 10
4821.724498585753
 20
1944.753494353944
 30
0.0
  0
POINT
  5
26770
330
26631
100
AcDbEntity
  8
DEFPOINTS
 62
     0
 48
50.0
100
AcDbPoint
 10
4581.724498585753
 20
1944.753494353944
 30
0.0
  0
POINT
  5
26771
330
26631
100
AcDbEntity
  8
DEFPOINTS
 62
     0
 48
50.0
100
AcDbPoint
 10
4581.724498585753
 20
2469.338254249419
 30
0.0
  0
ENDBLK
  5
2663C
330
26631
100
AcDbEntity
  8
0
 48
50.0
100
AcDbBlockEnd
  0
ENDSEC
  0
SECTION
  2
ENTITIES
  0
MTEXT
  5
763F
330
747D
100
AcDbEntity
  8
0
100
AcDbMText
 10
302.846345836809
 20
280.1983726409901
 30
0.0
 40
3.5
 41
5.323721266742722
 71
     1
 72
     5
  1

  7
MSMINCHO
 73
     1
 44
1.0
1001
ACAD
1000
MTEXTBEGIN
1070
    73
1070
     1
1070
    44
1040
1.0
1070
    74
1070
     0
1000
MTEXTEND
  0
LINE
  5
10B57
330
747D
100
AcDbEntity
  8
補助
  6
PHANTOM
 62
   230
 48
50.0
100
AcDbLine
 10
139.9999999999995
 20
11409.6
 30
0.0
 11
16307.2
 21
11409.6
 31
0.0
  0
LINE
  5
10B59
330
747D
100
AcDbEntity
  8
仕様書枠
  6
Continuous
 48
50.0
100
AcDbLine
 10
13107.2
 20
1200.0
 30
0.0
 11
13107.2
 21
-0.0000000000000729
 31
0.0
  0
LINE
  5
10B5D
330
747D
100
AcDbEntity
  8
仕様書枠
 48
50.0
100
AcDbLine
 10
140.0
 20
0.0
 30
0.0
 11
16307.2
 21
-0.0000000000000909
 31
0.0
  0
LINE
  5
10B5E
330
747D
100
AcDbEntity
  8
補助
  6
PHANTOM
 62
   230
 48
50.0
100
AcDbLine
 10
16307.2
 20
11409.6
 30
0.0
 11
16307.2
 21
1200.0
 31
0.0
  0
LINE
  5
10B6C
330
747D
100
AcDbEntity
  8
仕様書枠
 48
50.0
100
AcDbLine
 10
13107.2
 20
1200.0
 30
0.0
 11
16307.2
 21
1200.0
 31
0.0
  0
TEXT
  5
10B73
330
747D
100
AcDbEntity
  8
文字
 62
     7
 48
50.0
100
AcDbText
 10
13162.9790565769
 20
895.0906074299405
 30
0.0
 40
200.0
  1
基 礎 図
  7
STYLE2
100
AcDbText
  0
LINE
  5
10B7B
330
747D
100
AcDbEntity
  8
仕様書枠
 48
50.0
100
AcDbLine
 10
13107.2
 20
800.0
 30
0.0
 11
14251.2
 21
800.0
 31
0.0
  0
LINE
  5
10B88
330
747D
100
AcDbEntity
  8
仕様書枠
  6
Continuous
 48
50.0
100
AcDbLine
 10
14251.2
 20
1200.0
 30
0.0
 11
14251.2
 21
800.0
 31
0.0
  0
LINE
  5
16462
330
747D
100
AcDbEntity
  8
仕様書枠
 48
50.0
100
AcDbLine
 10
16307.2
 20
1200.0
 30
0.0
 11
16307.2
 21
-0.0000000000000909
 31
0.0
  0
LINE
  5
1903B
330
747D
100
AcDbEntity
  8
補助
  6
PHANTOM
 62
   230
 48
50.0
100
AcDbLine
 10
140.0
 20
0.0
 30
0.0
 11
139.9999999999995
 21
11409.6
 31
0.0
  0
LEADER
  5
1AC27
330
747D
100
AcDbEntity
  8
寸法
 48
50.0
100
AcDbLeader
  3
INABA_S40G
 73
     0
 74
     0
 75
     1
 40
120.0
 41
720.0000000000001
 76
     3
 10
10438.69549961499
 20
7187.554724249752
 30
0.0
 10
10605.46907400128
 20
6911.540810681919
 30
0.0
 10
10705.46907400128
 20
6911.540810681919
 30
0.0
340
1AC28
1001
ACAD
1000
DSTYLE
1002
{
1070
   341
1005
0
1002
}
  0
MTEXT
  5
1AC28
102
{ACAD_REACTORS
330
1AC27
102
}
330
747D
100
AcDbEntity
  8
部品1
 62
     7
 48
50.0
100
AcDbMText
 10
11465.46907400128
 20
7011.540810681919
 30
0.0
 40
120.0
 41
0.0
 71
     6
 72
     1
  1
\A1;床下換気口
  7
STYLE1
 73
     1
 44
1.0
1001
ACAD
1000
MTEXTBEGIN
1070
    73
1070
     1
1070
    44
1040
1.0
1070
    74
1070
     0
1000
MTEXTEND
  0
TEXT
  5
1AC29
330
747D
100
AcDbEntity
  8
部品1
 48
50.0
100
AcDbText
 10
10782.50116389398
 20
5158.26165233115
 30
0.0
 40
80.0
  1
(a=45,b=55,c=75)
  7
STYLE1
100
AcDbText
  0
TEXT
  5
1AC2A
330
747D
100
AcDbEntity
  8
部品1
 48
50.0
100
AcDbText
 10
10623.92215513968
 20
5265.106873199904
 30
0.0
 40
80.0
  1
※a,b,cは屋根の出幅です。
  7
STYLE1
100
AcDbText
  0
MTEXT
  5
1AC2B
102
{ACAD_REACTORS
330
1AC2C
102
}
330
747D
100
AcDbEntity
  8
部品1
 62
     7
 48
50.0
100
AcDbMText
 10
11421.70935112828
 20
5444.417560132979
 30
0.0
 40
120.0
 41
0.0
 71
     6
 72
     1
  1
\A1;屋根の外寸
  7
STYLE1
 73
     1
 44
1.0
1001
ACAD
1000
MTEXTBEGIN
1070
    73
1070
     1
1070
    44
1040
1.0
1070
    74
1070
     0
1000
MTEXTEND
  0
LEADER
  5
1AC2C
330
747D
100
AcDbEntity
  8
寸法
 48
50.0
100
AcDbLeader
  3
INABA_S40G
 73
     0
 74
     0
 75
     1
 40
120.0
 41
672.0
 76
     3
 10
10483.76933893624
 20
5618.306903596554
 30
0.0
 10
10609.70935112828
 20
5344.417560132979
 30
0.0
 10
10709.70935112828
 20
5344.417560132979
 30
0.0
340
1AC2B
1001
ACAD
1000
DSTYLE
1002
{
1070
   341
1005
0
1002
}
  0
TEXT
  5
1C7A1
330
747D
100
AcDbEntity
  8
文字
 62
     7
 48
50.0
100
AcDbText
 10
13188.16259899338
 20
79.80631269190417
 30
0.0
 40
80.0
  1
※布基礎には換気口を設けてください。
  7
STYLE2
100
AcDbText
  0
TEXT
  5
1C7E7
330
747D
100
AcDbEntity
  8
文字
 62
     7
 48
50.0
100
AcDbText
 10
13188.16259899338
 20
246.7109242801889
 30
0.0
 40
80.0
  1
※寒冷地等は地域の実情に合わせた基礎にして下さい。
  7
STYLE2
100
AcDbText
  0
TEXT
  5
1C7E8
330
747D
100
AcDbEntity
  8
文字
 62
     7
 48
50.0
100
AcDbText
 10
14478.98566430227
 20
499.5983841039506
 30
0.0
 40
160.0
  1
ＮＸＮ－１５５Ｈ
  7
STYLE2
100
AcDbText
  0
TEXT
  5
1C7E9
330
747D
100
AcDbEntity
  8
文字
 62
     7
 48
50.0
100
AcDbText
 10
14908.43613009947
 20
871.1744590657927
 30
0.0
 40
100.0
  1
～一般型～
  7
STYLE2
100
AcDbText
  0
TEXT
  5
1C7EC
330
747D
100
AcDbEntity
  8
文字
 62
     7
 48
50.0
100
AcDbText
 10
14524.131837222
 20
1031.557706291229
 30
0.0
 40
100.0
  1
      <縮尺> S=1/40
  7
STYLE2
100
AcDbText
  0
TEXT
  5
1C7ED
330
747D
100
AcDbEntity
  8
文字
 62
     7
 48
50.0
100
AcDbText
 10
13201.43669998441
 20
477.2740661031257
 30
0.0
 40
160.0
  1
機種名
  7
STYLE2
100
AcDbText
  0
LINE
  5
1C7EF
330
747D
100
AcDbEntity
  8
文字
 62
     7
 48
50.0
100
AcDbLine
 10
13187.2
 20
400.0
 30
0.0
 11
16227.2
 21
400.0
 31
0.0
  0
MTEXT
  5
1D2D5
102
{ACAD_REACTORS
330
1D2D6
102
}
330
747D
100
AcDbEntity
  8
部品1
 62
     7
 48
50.0
100
AcDbMText
 10
11633.99523070988
 20
9251.075954987877
 30
0.0
 40
120.0
 41
0.0
 71
     6
 72
     1
  1
アンカーボルト
  7
STYLE1
 73
     1
 44
1.0
1001
ACAD
1000
MTEXTBEGIN
1070
    73
1070
     1
1070
    44
1040
1.0
1070
    74
1070
     0
1000
MTEXTEND
  0
LEADER
  5
1D2D6
330
747D
100
AcDbEntity
  8
寸法
 48
50.0
100
AcDbLeader
  3
INABA_S40G
 73
     0
 74
     0
 75
     1
 40
120.0
 41
994.3492424049171
 76
     3
 10
10315.680085757
 20
8790.560398026649
 30
0.0
 10
10499.64598830496
 20
9151.075954987877
 30
0.0
 10
10599.64598830496
 20
9151.075954987877
 30
0.0
340
1D2D5
1001
ACAD
1000
DSTYLE
1002
{
1070
   341
1005
0
1002
}
  0
MTEXT
  5
1D332
102
{ACAD_REACTORS
330
1D333
102
}
330
747D
100
AcDbEntity
  8
部品1
 62
     7
 48
50.0
100
AcDbMText
 10
7175.440328953422
 20
6835.363317404425
 30
0.0
 40
120.0
 41
0.0
 71
     6
 72
     1
  1
CB
  7
STYLE1
 73
     1
 44
1.0
1001
ACAD
1000
MTEXTBEGIN
1070
    73
1070
     1
1070
    44
1040
1.0
1070
    74
1070
     0
1000
MTEXTEND
  0
LEADER
  5
1D333
330
747D
100
AcDbEntity
  8
寸法
 48
50.0
100
AcDbLeader
  3
INABA_S40G
 73
     0
 74
     0
 75
     1
 40
120.0
 41
149.591883092037
 76
     3
 10
6748.565642998741
 20
7111.377230972258
 30
0.0
 10
6885.848445861384
 20
6735.363317404424
 30
0.0
 10
6985.848445861384
 20
6735.363317404424
 30
0.0
340
1D332
1001
ACAD
1000
DSTYLE
1002
{
1070
   341
1005
0
1002
}
  0
DIMENSION
  5
1DAC7
330
747D
100
AcDbEntity
  8
寸法
 48
50.0
100
AcDbDimension
  2
*D1
 10
8463.202780124335
 20
5433.352553667964
 30
0.0
 11
8463.202780124332
 21
4824.867272293723
 31
0.0
 70
   160
  1
扉の出<>
 71
     5
 42
75.0
  3
INABA_S40G
100
AcDbAlignedDimension
 13
8196.600000000001
 23
5358.352553667963
 33
0.0
 14
8196.600000000008
 24
5433.352553667964
 34
0.0
 50
90.0
100
AcDbRotatedDimension
1001
ACAD
1000
DSTYLE
1002
{
1070
   341
1005
0
1002
}
  0
LINE
  5
20992
330
747D
100
AcDbEntity
  8
想像線
 48
10.0
100
AcDbLine
 10
10483.6
 20
5378.352553667946
 30
0.0
 11
10483.6
 21
8988.352553667938
 31
0.0
  0
DIMENSION
  5
20DE1
330
747D
100
AcDbEntity
  8
寸法
 48
50.0
100
AcDbDimension
  2
*D2
 10
10483.6
 20
9871.572875726862
 30
0.0
 11
10754.77462120246
 21
9871.572875726862
 31
0.0
 70
   160
  1
a
 71
     5
 42
45.0
  3
INABA_S40G
100
AcDbAlignedDimension
 13
10438.6
 23
8913.352553667939
 33
0.0
 14
10483.6
 24
9659.112180210025
 34
0.0
100
AcDbRotatedDimension
1001
ACAD
1000
DSTYLE
1002
{
1070
   341
1005
0
1002
}
  0
DIMENSION
  5
20DFB
330
747D
100
AcDbEntity
  8
寸法
 48
50.0
100
AcDbDimension
  2
*D3
 10
6008.600000000001
 20
9871.572875726862
 30
0.0
 11
5692.425378797541
 21
9871.572875726862
 31
0.0
 70
   160
  1
a
 71
     5
 42
44.99999999999272
  3
INABA_S40G
100
AcDbAlignedDimension
 13
5963.600000000009
 23
9659.112180210025
 33
0.0
 14
6008.600000000001
 24
8913.352553667939
 34
0.0
100
AcDbRotatedDimension
1001
ACAD
1000
DSTYLE
1002
{
1070
   341
1005
0
1002
}
  0
DIMENSION
  5
20E15
330
747D
100
AcDbEntity
  8
寸法
 48
50.0
100
AcDbDimension
  2
*D4
 10
5267.164931848213
 20
8913.352553667941
 30
0.0
 11
5167.164931848212
 21
8950.852553667944
 31
0.0
 70
    32
  1
c
 71
     5
 42
75.00000000000364
  3
INABA_S40G
100
AcDbAlignedDimension
 13
5512.657733986181
 23
8988.352553667944
 33
0.0
 14
6008.600000000004
 24
8913.352553667941
 34
0.0
 50
90.0
100
AcDbRotatedDimension
1001
ACAD
1000
DSTYLE
1002
{
1070
   341
1005
0
1002
}
  0
DIMENSION
  5
20E3A
330
747D
100
AcDbEntity
  8
寸法
 48
50.0
100
AcDbDimension
  2
*D5
 10
5267.164931848213
 20
5378.352553667951
 30
0.0
 11
5167.164931848212
 21
5405.852553667941
 31
0.0
 70
    32
  1
b
 71
     5
 42
54.99999999997908
  3
INABA_S40G
100
AcDbAlignedDimension
 13
6008.600000000001
 23
5433.35255366793
 33
0.0
 14
5512.657733986181
 24
5378.352553667951
 34
0.0
 50
90.0
100
AcDbRotatedDimension
1001
ACAD
1000
DSTYLE
1002
{
1070
   341
1005
0
1002
}
  0
LINE
  5
215EC
102
{ACAD_REACTORS
330
26740
102
}
330
747D
100
AcDbEntity
  8
部品1
 48
50.0
100
AcDbLine
 10
10208.6
 20
5553.352553667956
 30
0.0
 11
8235.600000000001
 21
5553.352553667952
 31
0.0
  0
DIMENSION
  5
215ED
330
747D
100
AcDbEntity
  8
寸法
 48
50.0
100
AcDbDimension
  2
*D6
 10
8670.14438614211
 20
5663.352553667959
 30
0.0
 11
8670.144386142109
 21
5933.411608786084
 31
0.0
 70
   160
 71
     5
 42
110.0000000000063
  3
INABA_S40G
100
AcDbAlignedDimension
 13
8784.349640717833
 23
5553.352553667952
 33
0.0
 14
8235.600000000001
 24
5663.352553667959
 34
0.0
 50
90.0
100
AcDbRotatedDimension
1001
ACAD
1000
DSTYLE
1002
{
1070
   341
1005
0
1002
}
  0
LINE
  5
215EE
102
{ACAD_REACTORS
330
26740
102
}
330
747D
100
AcDbEntity
  8
部品1
 48
50.0
100
AcDbLine
 10
10208.6
 20
8793.352553667942
 30
0.0
 11
8235.600000000001
 21
8793.352553667942
 31
0.0
  0
DIMENSION
  5
215EF
330
747D
100
AcDbEntity
  8
寸法
 48
50.0
100
AcDbDimension
  2
*D7
 10
8670.14438614211
 20
5553.352553667952
 30
0.0
 11
8670.144386142109
 21
5097.0642487
 31
0.0
 70
   160
 71
     5
 42
119.9999999999845
  3
INABA_S40G
100
AcDbAlignedDimension
 13
8307.41918098816
 23
5433.352553667968
 33
0.0
 14
8784.349640717833
 24
5553.352553667952
 34
0.0
 50
90.0
100
AcDbRotatedDimension
1001
ACAD
1000
DSTYLE
1002
{
1070
   341
1005
0
1002
}
  0
LINE
  5
215F0
102
{ACAD_REACTORS
330
26740
102
}
330
747D
100
AcDbEntity
  8
部品1
 48
50.0
100
AcDbLine
 10
10438.6
 20
5433.352553667958
 30
0.0
 11
8196.600000000001
 21
5433.352553667939
 31
0.0
  0
LINE
  5
215F2
102
{ACAD_REACTORS
330
26740
102
}
330
747D
100
AcDbEntity
  8
部品1
 48
50.0
100
AcDbLine
 10
10438.6
 20
8913.352553667941
 30
0.0
 11
6008.600000000001
 21
8913.352553667941
 31
0.0
  0
DIMENSION
  5
215F3
330
747D
100
AcDbEntity
  8
寸法
 48
50.0
100
AcDbDimension
  2
*D8
 10
10438.6
 20
9871.572875726862
 30
0.0
 11
8223.600000000001
 21
9971.572875726861
 31
0.0
 70
    32
 71
     5
 42
4429.999999999998
  3
INABA_S40G
100
AcDbAlignedDimension
 13
6008.600000000001
 23
8913.352553667941
 33
0.0
 14
10438.6
 24
8913.352553667941
 34
0.0
100
AcDbRotatedDimension
1001
ACAD
1000
DSTYLE
1002
{
1070
   341
1005
0
1002
}
  0
DIMENSION
  5
215F4
330
747D
100
AcDbEntity
  8
寸法
 48
50.0
100
AcDbDimension
  2
*D9
 10
8223.600000000001
 20
9440.262319316271
 30
0.0
 11
8603.6
 21
9540.262319316271
 31
0.0
 70
    32
 71
     5
 42
760.0
  3
INABA_S40G
100
AcDbAlignedDimension
 13
8983.6
 23
8128.352553667941
 33
0.0
 14
8223.600000000001
 24
8128.352553667941
 34
0.0
100
AcDbRotatedDimension
1001
ACAD
1000
DSTYLE
1002
{
1070
   341
1005
0
1002
}
  0
DIMENSION
  5
215F5
330
747D
100
AcDbEntity
  8
寸法
 48
50.0
100
AcDbDimension
  2
*D10
 10
8105.6
 20
9659.112180210025
 30
0.0
 11
9210.600000000001
 21
9759.123991233646
 31
0.0
 70
    32
 71
     5
 42
2210.0
  3
INABA_S40G
100
AcDbAlignedDimension
 13
10315.6
 23
8840.352553667941
 33
0.0
 14
8105.6
 24
8840.352553667941
 34
0.0
100
AcDbRotatedDimension
1001
ACAD
1000
DSTYLE
1002
{
1070
   341
1005
0
1002
}
  0
LINE
  5
21605
330
747D
100
AcDbEntity
  8
部品1
 48
50.0
100
AcDbLine
 10
8123.600000000001
 20
7928.352553667941
 30
0.0
 11
8123.600000000001
 21
8128.352553667941
 31
0.0
  0
LINE
  5
21606
330
747D
100
AcDbEntity
  8
センター
 48
2.0
100
AcDbLine
 10
8223.600000000001
 20
8078.35255366794
 30
0.0
 11
8223.600000000001
 21
7978.35255366794
 31
0.0
  0
LINE
  5
21607
330
747D
100
AcDbEntity
  8
部品1
 48
50.0
100
AcDbLine
 10
8323.6
 20
7928.352553667941
 30
0.0
 11
8323.6
 21
8128.352553667941
 31
0.0
  0
DIMENSION
  5
21608
330
747D
100
AcDbEntity
  8
寸法
 48
50.0
100
AcDbDimension
  2
*D11
 10
5512.657733986175
 20
5556.352553667943
 30
0.0
 11
5412.645922962552
 21
7173.352553667945
 31
0.0
 70
    32
 71
     5
 42
3234.0
  3
INABA_S40G
100
AcDbAlignedDimension
 13
6081.6
 23
8790.352553667942
 33
0.0
 14
6081.600000000008
 24
5556.352553667943
 34
0.0
 50
90.0
100
AcDbRotatedDimension
1001
ACAD
1000
DSTYLE
1002
{
1070
   341
1005
0
1002
}
  0
LINE
  5
21609
102
{ACAD_REACTORS
330
26740
102
}
330
747D
100
AcDbEntity
  8
部品1
 48
50.0
100
AcDbLine
 10
6128.6
 20
5663.352553667944
 30
0.0
 11
6128.6
 21
8683.352553667937
 31
0.0
  0
LINE
  5
2160A
102
{ACAD_REACTORS
330
26740
102
}
330
747D
100
AcDbEntity
  8
部品1
 48
50.0
100
AcDbLine
 10
6008.600000000001
 20
5433.352553667941
 30
0.0
 11
6008.600000000001
 21
8913.352553667941
 31
0.0
  0
DIMENSION
  5
2160C
330
747D
100
AcDbEntity
  8
寸法
 48
50.0
100
AcDbDimension
  2
*D12
 10
5267.16493184821
 20
5433.352553667941
 30
0.0
 11
5167.164931848209
 21
7173.352553667942
 31
0.0
 70
    32
 71
     5
 42
3480.0
  3
INABA_S40G
100
AcDbAlignedDimension
 13
6008.600000000001
 23
8913.352553667941
 33
0.0
 14
6008.600000000001
 24
5433.352553667941
 34
0.0
 50
90.0
100
AcDbRotatedDimension
1001
ACAD
1000
DSTYLE
1002
{
1070
   341
1005
0
1002
}
  0
LINE
  5
2166C
102
{ACAD_REACTORS
330
26740
102
}
330
747D
100
AcDbEntity
  8
部品1
 48
50.0
100
AcDbLine
 10
7975.6
 20
5553.352553667949
 30
0.0
 11
6238.6
 21
5553.352553667945
 31
0.0
  0
LINE
  5
2166D
102
{ACAD_REACTORS
330
26740
102
}
330
747D
100
AcDbEntity
  8
部品1
 48
50.0
100
AcDbLine
 10
8196.600000000001
 20
5358.352553667945
 30
0.0
 11
6008.600000000001
 21
5358.352553667931
 31
0.0
  0
DIMENSION
  5
21671
330
747D
100
AcDbEntity
  8
寸法
 48
50.0
100
AcDbDimension
  2
*D27
 10
5512.657733986179
 20
5433.352553667941
 30
0.0
 11
5512.657733986178
 21
5097.821604825349
 31
0.0
 70
   160
 71
     5
 42
123.0000000000018
  3
INABA_S40G
100
AcDbAlignedDimension
 13
6081.600000000008
 23
5556.352553667943
 33
0.0
 14
6008.600000000001
 24
5433.352553667941
 34
0.0
 50
90.0
100
AcDbRotatedDimension
1001
ACAD
1000
DSTYLE
1002
{
1070
   341
1005
0
1002
}
  0
LINE
  5
21673
330
747D
100
AcDbEntity
  8
部品1
 48
50.0
100
AcDbLine
 10
6238.6
 20
5553.352553667945
 30
0.0
 11
6238.6
 21
5663.352553667944
 31
0.0
  0
LINE
  5
2167B
330
747D
100
AcDbEntity
  8
センター
 48
2.0
100
AcDbLine
 10
6131.600000000009
 20
5606.352553667942
 30
0.0
 11
6131.600000000009
 21
5506.352553667944
 31
0.0
  0
LINE
  5
216AC
330
747D
100
AcDbEntity
  8
センター
 48
2.0
100
AcDbLine
 10
6081.600000000008
 20
5556.352553667943
 30
0.0
 11
6181.600000000009
 21
5556.352553667943
 31
0.0
  0
CIRCLE
  5
216AD
330
747D
100
AcDbEntity
  8
部品1
 48
50.0
100
AcDbCircle
 10
6131.600000000009
 20
5556.352553667943
 30
0.0
 40
35.0
  0
LINE
  5
216AE
330
747D
100
AcDbEntity
  8
部品1
 48
50.0
100
AcDbLine
 10
6008.600000000001
 20
5358.352553667947
 30
0.0
 11
6008.600000000001
 21
5433.35255366793
 31
0.0
  0
LINE
  5
216F0
330
747D
100
AcDbEntity
  8
部品1
 48
50.0
100
AcDbLine
 10
6238.6
 20
5663.352553667944
 30
0.0
 11
6128.6
 21
5663.352553667944
 31
0.0
  0
LINE
  5
2175A
102
{ACAD_REACTORS
330
26740
102
}
330
747D
100
AcDbEntity
  8
部品1
 48
50.0
100
AcDbLine
 10
6128.599999999998
 20
7073.352553667939
 30
0.0
 11
6008.600000000001
 21
7073.352553667939
 31
0.0
  0
LINE
  5
2175D
102
{ACAD_REACTORS
330
26740
102
}
330
747D
100
AcDbEntity
  8
部品1
 48
50.0
100
AcDbLine
 10
7018.599999999999
 20
5553.352553667947
 30
0.0
 11
7018.600000000002
 21
5358.352553667934
 31
0.0
  0
LINE
  5
2179D
102
{ACAD_REACTORS
330
26740
102
}
330
747D
100
AcDbEntity
  8
部品1
 48
50.0
100
AcDbLine
 10
7218.600000000002
 20
5553.352553667949
 30
0.0
 11
7218.600000000002
 21
5358.352553667938
 31
0.0
  0
DIMENSION
  5
217E5
330
747D
100
AcDbEntity
  8
寸法
 48
50.0
100
AcDbDimension
  2
*D28
 10
7975.6
 20
5835.585133115987
 30
0.0
 11
8105.6
 21
5835.585133115987
 31
0.0
 70
   160
 71
     5
 42
260.0
  3
INABA_S40G
100
AcDbAlignedDimension
 13
8235.600000000001
 23
5663.352553667959
 33
0.0
 14
7975.6
 24
5663.352553667959
 34
0.0
100
AcDbRotatedDimension
1001
ACAD
1000
DSTYLE
1002
{
1070
   341
1005
0
1002
}
  0
LINE
  5
217E6
330
747D
100
AcDbEntity
  8
部品1
 48
50.0
100
AcDbLine
 10
8235.600000000001
 20
5663.352553667959
 30
0.0
 11
7975.6
 21
5663.352553667959
 31
0.0
  0
LINE
  5
217E7
330
747D
100
AcDbEntity
  8
部品1
 48
50.0
100
AcDbLine
 10
7975.6
 20
5553.352553667949
 30
0.0
 11
7975.6
 21
5663.352553667959
 31
0.0
  0
LINE
  5
2186A
330
747D
100
AcDbEntity
  8
部品1
 48
50.0
100
AcDbLine
 10
8235.600000000003
 20
5553.352553667952
 30
0.0
 11
8235.600000000001
 21
5663.352553667959
 31
0.0
  0
LINE
  5
2186B
330
747D
100
AcDbEntity
  8
センター
 48
2.0
100
AcDbLine
 10
8055.600000000008
 20
5556.352553667943
 30
0.0
 11
8155.600000000008
 21
5556.352553667943
 31
0.0
  0
CIRCLE
  5
2186C
330
747D
100
AcDbEntity
  8
部品1
 48
50.0
100
AcDbCircle
 10
8105.600000000007
 20
5556.352553667943
 30
0.0
 40
35.0
  0
LINE
  5
2186D
330
747D
100
AcDbEntity
  8
センター
 48
2.0
100
AcDbLine
 10
8105.600000000007
 20
5606.352553667942
 30
0.0
 11
8105.600000000007
 21
5506.352553667944
 31
0.0
  0
LINE
  5
218A0
330
747D
100
AcDbEntity
  8
部品1
 48
50.0
100
AcDbLine
 10
8196.600000000001
 20
5358.352553667947
 30
0.0
 11
8196.600000000001
 21
5433.352553667941
 31
0.0
  0
LINE
  5
218A1
330
747D
100
AcDbEntity
  8
部品1
 48
50.0
100
AcDbLine
 10
8323.6
 20
7928.352553667941
 30
0.0
 11
8123.600000000001
 21
7928.352553667941
 31
0.0
  0
LINE
  5
218A3
102
{ACAD_REACTORS
330
26740
102
}
330
747D
100
AcDbEntity
  8
部品1
 48
50.0
100
AcDbLine
 10
7975.6
 20
8793.352553667942
 30
0.0
 11
6238.6
 21
8793.352553667942
 31
0.0
  0
DIMENSION
  5
218A4
330
747D
100
AcDbEntity
  8
寸法
 48
50.0
100
AcDbDimension
  2
*D13
 10
6008.600000000001
 20
9440.262319316271
 30
0.0
 11
6391.100000000001
 21
9540.262319316271
 31
0.0
 70
    32
 71
     5
 42
764.9999999999991
  3
INABA_S40G
100
AcDbAlignedDimension
 13
6773.6
 23
8128.352553667941
 33
0.0
 14
6008.600000000001
 24
8913.352553667941
 34
0.0
100
AcDbRotatedDimension
1001
ACAD
1000
DSTYLE
1002
{
1070
   341
1005
0
1002
}
  0
DIMENSION
  5
218A5
330
747D
100
AcDbEntity
  8
寸法
 48
50.0
100
AcDbDimension
  2
*D14
 10
6131.6
 20
9659.112180210025
 30
0.0
 11
7118.6
 21
9759.112180210024
 31
0.0
 70
    32
 71
     5
 42
1974.0
  3
INABA_S40G
100
AcDbAlignedDimension
 13
8105.6
 23
8840.352553667941
 33
0.0
 14
6131.6
 24
8840.352553667941
 34
0.0
100
AcDbRotatedDimension
1001
ACAD
1000
DSTYLE
1002
{
1070
   341
1005
0
1002
}
  0
DIMENSION
  5
218A6
330
747D
100
AcDbEntity
  8
寸法
 48
50.0
100
AcDbDimension
  2
*D15
 10
6008.600000000001
 20
9659.112180210025
 30
0.0
 11
5735.493398282206
 21
9659.112180210025
 31
0.0
 70
   160
 71
     5
 42
122.9999999999991
  3
INABA_S40G
100
AcDbAlignedDimension
 13
6131.6
 23
8840.352553667941
 33
0.0
 14
6008.600000000001
 24
8913.352553667941
 34
0.0
100
AcDbRotatedDimension
1001
ACAD
1000
DSTYLE
1002
{
1070
   341
1005
0
1002
}
  0
DIMENSION
  5
218A8
330
747D
100
AcDbEntity
  8
寸法
 48
50.0
100
AcDbDimension
  2
*D16
 10
5512.657733986179
 20
8790.352553667942
 30
0.0
 11
5512.657733986178
 21
9186.45915538574
 31
0.0
 70
   160
 71
     5
 42
122.9999999999981
  3
INABA_S40G
100
AcDbAlignedDimension
 13
6008.600000000001
 23
8913.352553667941
 33
0.0
 14
6081.6
 24
8790.352553667942
 34
0.0
 50
90.0
100
AcDbRotatedDimension
1001
ACAD
1000
DSTYLE
1002
{
1070
   341
1005
0
1002
}
  0
DIMENSION
  5
218A9
330
747D
100
AcDbEntity
  8
寸法
 48
50.0
100
AcDbDimension
  2
*D17
 10
6455.307249876098
 20
8913.352553667939
 30
0.0
 11
6455.307249876098
 21
9191.436096940826
 31
0.0
 70
   160
 71
     5
 42
119.9999999999981
  3
INABA_S40G
100
AcDbAlignedDimension
 13
6238.600000000001
 23
8793.352553667942
 33
0.0
 14
6238.6
 24
8913.352553667939
 34
0.0
 50
90.0
100
AcDbRotatedDimension
1001
ACAD
1000
DSTYLE
1002
{
1070
   341
1005
0
1002
}
  0
DIMENSION
  5
218AA
330
747D
100
AcDbEntity
  8
寸法
 48
50.0
100
AcDbDimension
  2
*D18
 10
6455.307249876098
 20
8683.352553667937
 30
0.0
 11
6455.307249876098
 21
8343.293498549824
 31
0.0
 70
   160
 71
     5
 42
110.0000000000054
  3
INABA_S40G
100
AcDbAlignedDimension
 13
6238.600000000001
 23
8793.352553667942
 33
0.0
 14
6238.6
 24
8683.352553667937
 34
0.0
 50
90.0
100
AcDbRotatedDimension
1001
ACAD
1000
DSTYLE
1002
{
1070
   341
1005
0
1002
}
  0
LINE
  5
218AB
102
{ACAD_REACTORS
330
26740
102
}
330
747D
100
AcDbEntity
  8
部品1
 48
50.0
100
AcDbLine
 10
6128.599999999998
 20
7273.352553667938
 30
0.0
 11
6008.600000000001
 21
7273.352553667939
 31
0.0
  0
LINE
  5
218AC
330
747D
100
AcDbEntity
  8
部品1
 48
50.0
100
AcDbLine
 10
6407.928907166848
 20
8913.352553667937
 30
0.0
 11
6008.600000000001
 21
8913.352553667941
 31
0.0
  0
LINE
  5
218AD
330
747D
100
AcDbEntity
  8
部品1
 48
50.0
100
AcDbLine
 10
6238.6
 20
8683.352553667937
 30
0.0
 11
6128.6
 21
8683.352553667941
 31
0.0
  0
LINE
  5
218AE
330
747D
100
AcDbEntity
  8
センター
 48
2.0
100
AcDbLine
 10
6131.6
 20
8840.352553667941
 30
0.0
 11
6131.6
 21
8740.352553667941
 31
0.0
  0
LINE
  5
218AF
330
747D
100
AcDbEntity
  8
センター
 48
2.0
100
AcDbLine
 10
6081.6
 20
8790.352553667942
 30
0.0
 11
6181.6
 21
8790.352553667942
 31
0.0
  0
CIRCLE
  5
218B0
330
747D
100
AcDbEntity
  8
部品1
 48
50.0
100
AcDbCircle
 10
6131.6
 20
8790.352553667942
 30
0.0
 40
35.0
  0
LINE
  5
218B1
330
747D
100
AcDbEntity
  8
部品1
 48
50.0
100
AcDbLine
 10
6238.6
 20
8683.352553667937
 30
0.0
 11
6238.599999999999
 21
8793.352553667942
 31
0.0
  0
DIMENSION
  5
218B2
330
747D
100
AcDbEntity
  8
寸法
 48
50.0
100
AcDbDimension
  2
*D19
 10
7463.600000000001
 20
9440.262319316271
 30
0.0
 11
7843.600000000001
 21
9540.262319316271
 31
0.0
 70
    32
 71
     5
 42
759.999999999999
  3
INABA_S40G
100
AcDbAlignedDimension
 13
8223.600000000001
 23
8128.352553667941
 33
0.0
 14
7463.600000000001
 24
8128.352553667941
 34
0.0
100
AcDbRotatedDimension
1001
ACAD
1000
DSTYLE
1002
{
1070
   341
1005
0
1002
}
  0
LINE
  5
218BD
102
{ACAD_REACTORS
330
26740
102
}
330
747D
100
AcDbEntity
  8
部品1
 48
50.0
100
AcDbLine
 10
7018.600000000009
 20
8913.352553667941
 30
0.0
 11
7018.600000000009
 21
8793.352553667942
 31
0.0
  0
LINE
  5
218BE
102
{ACAD_REACTORS
330
26740
102
}
330
747D
100
AcDbEntity
  8
部品1
 48
50.0
100
AcDbLine
 10
7218.600000000009
 20
8913.352553667941
 30
0.0
 11
7218.600000000009
 21
8793.352553667942
 31
0.0
  0
LINE
  5
218BF
330
747D
100
AcDbEntity
  8
センター
 48
2.0
100
AcDbLine
 10
8173.6
 20
8028.352553667941
 30
0.0
 11
8273.6
 21
8028.352553667941
 31
0.0
  0
LINE
  5
218C0
330
747D
100
AcDbEntity
  8
部品1
 48
50.0
100
AcDbLine
 10
8323.6
 20
8128.352553667941
 30
0.0
 11
8123.600000000001
 21
8128.352553667941
 31
0.0
  0
LINE
  5
218C1
330
747D
100
AcDbEntity
  8
部品1
 48
50.0
100
AcDbLine
 10
8235.600000000001
 20
8683.352553667925
 30
0.0
 11
7975.6
 21
8683.352553667925
 31
0.0
  0
LINE
  5
218C2
330
747D
100
AcDbEntity
  8
部品1
 48
50.0
100
AcDbLine
 10
7975.6
 20
8793.352553667942
 30
0.0
 11
7975.6
 21
8683.352553667925
 31
0.0
  0
LINE
  5
218C3
330
747D
100
AcDbEntity
  8
部品1
 48
50.0
100
AcDbLine
 10
8235.600000000003
 20
8793.352553667942
 30
0.0
 11
8235.600000000001
 21
8683.352553667925
 31
0.0
  0
CIRCLE
  5
218C4
330
747D
100
AcDbEntity
  8
部品1
 48
50.0
100
AcDbCircle
 10
8105.6
 20
8790.352553667942
 30
0.0
 40
35.0
  0
LINE
  5
218C5
330
747D
100
AcDbEntity
  8
センター
 48
2.0
100
AcDbLine
 10
8105.6
 20
8840.352553667941
 30
0.0
 11
8105.6
 21
8740.352553667941
 31
0.0
  0
LINE
  5
218C6
330
747D
100
AcDbEntity
  8
センター
 48
2.0
100
AcDbLine
 10
8055.600000000001
 20
8790.352553667942
 30
0.0
 11
8155.600000000001
 21
8790.352553667942
 31
0.0
  0
LINE
  5
218C7
102
{ACAD_REACTORS
330
26740
102
}
330
747D
100
AcDbEntity
  8
部品1
 48
50.0
100
AcDbLine
 10
10438.6
 20
5433.352553667958
 30
0.0
 11
10438.6
 21
8913.352553667941
 31
0.0
  0
LINE
  5
218C8
102
{ACAD_REACTORS
330
26740
102
}
330
747D
100
AcDbEntity
  8
部品1
 48
50.0
100
AcDbLine
 10
10318.6
 20
5663.35255366796
 30
0.0
 11
10318.6
 21
8683.352553667941
 31
0.0
  0
DIMENSION
  5
218CC
330
747D
100
AcDbEntity
  8
寸法
 48
50.0
100
AcDbDimension
  2
*D20
 10
9309.531448609051
 20
7173.352553667957
 30
0.0
 11
9209.53144860905
 21
7600.852553667948
 31
0.0
 70
    32
 71
     5
 42
854.9999999999846
  3
INABA_S40G
100
AcDbAlignedDimension
 13
9573.6
 23
8028.352553667941
 33
0.0
 14
9573.6
 24
7173.352553667957
 34
0.0
 50
90.0
100
AcDbRotatedDimension
1001
ACAD
1000
DSTYLE
1002
{
1070
   341
1005
0
1002
}
  0
DIMENSION
  5
21942
330
747D
100
AcDbEntity
  8
寸法
 48
50.0
100
AcDbDimension
  2
*D21
 10
9309.531448609051
 20
6318.352553667956
 30
0.0
 11
9209.53144860905
 21
5875.852553667954
 31
0.0
 70
    32
 71
     5
 42
885.0000000000054
  3
INABA_S40G
100
AcDbAlignedDimension
 13
9210.045939259561
 23
5433.352553667951
 33
0.0
 14
9573.6
 24
6318.352553667956
 34
0.0
 50
90.0
100
AcDbRotatedDimension
1001
ACAD
1000
DSTYLE
1002
{
1070
   341
1005
0
1002
}
  0
LINE
  5
21943
102
{ACAD_REACTORS
330
26740
102
}
330
747D
100
AcDbEntity
  8
部品1
 48
50.0
100
AcDbLine
 10
9228.600000000017
 20
5553.352553667956
 30
0.0
 11
9228.600000000017
 21
5433.352553667955
 31
0.0
  0
LINE
  5
21945
102
{ACAD_REACTORS
330
26740
102
}
330
747D
100
AcDbEntity
  8
部品1
 48
50.0
100
AcDbLine
 10
9428.600000000017
 20
5553.352553667956
 30
0.0
 11
9428.600000000017
 21
5433.352553667955
 31
0.0
  0
LINE
  5
2194D
330
747D
100
AcDbEntity
  8
部品1
 48
50.0
100
AcDbLine
 10
10208.6
 20
5553.352553667958
 30
0.0
 11
10208.6
 21
5663.352553667959
 31
0.0
  0
CIRCLE
  5
2194E
330
747D
100
AcDbEntity
  8
部品1
 48
50.0
100
AcDbCircle
 10
10315.60000000001
 20
5556.352553667943
 30
0.0
 40
35.0
  0
LINE
  5
2194F
330
747D
100
AcDbEntity
  8
センター
 48
2.0
100
AcDbLine
 10
10265.60000000001
 20
5556.352553667943
 30
0.0
 11
10365.60000000001
 21
5556.352553667943
 31
0.0
  0
LINE
  5
21950
330
747D
100
AcDbEntity
  8
センター
 48
2.0
100
AcDbLine
 10
10315.60000000001
 20
5606.352553667942
 30
0.0
 11
10315.60000000001
 21
5506.352553667944
 31
0.0
  0
LINE
  5
21951
330
747D
100
AcDbEntity
  8
部品1
 48
50.0
100
AcDbLine
 10
10318.6
 20
5663.352553667959
 30
0.0
 11
10208.6
 21
5663.352553667959
 31
0.0
  0
LINE
  5
21952
102
{ACAD_REACTORS
330
26740
102
}
330
747D
100
AcDbEntity
  8
部品1
 48
50.0
100
AcDbLine
 10
10438.6
 20
7073.352553667942
 30
0.0
 11
10318.6
 21
7073.352553667942
 31
0.0
  0
DIMENSION
  5
21957
330
747D
100
AcDbEntity
  8
寸法
 48
50.0
100
AcDbDimension
  2
*D22
 10
10208.6
 20
8407.461308993218
 30
0.0
 11
9972.552755905512
 21
8407.461308993218
 31
0.0
 70
   160
 71
     5
 42
110.0
  3
INABA_S40G
100
AcDbAlignedDimension
 13
10318.6
 23
8683.352553667941
 33
0.0
 14
10208.6
 24
8683.352553667939
 34
0.0
100
AcDbRotatedDimension
1001
ACAD
1000
DSTYLE
1002
{
1070
   341
1005
0
1002
}
  0
DIMENSION
  5
21958
330
747D
100
AcDbEntity
  8
寸法
 48
50.0
100
AcDbDimension
  2
*D23
 10
9673.6
 20
9440.262319316271
 30
0.0
 11
10056.1
 21
9540.262319316271
 31
0.0
 70
    32
 71
     5
 42
765.0
  3
INABA_S40G
100
AcDbAlignedDimension
 13
10438.6
 23
8913.352553667941
 33
0.0
 14
9673.6
 24
8128.352553667941
 34
0.0
100
AcDbRotatedDimension
1001
ACAD
1000
DSTYLE
1002
{
1070
   341
1005
0
1002
}
  0
DIMENSION
  5
21959
330
747D
100
AcDbEntity
  8
寸法
 48
50.0
100
AcDbDimension
  2
*D24
 10
9309.531448609051
 20
8913.352553667943
 30
0.0
 11
9209.53144860905
 21
8470.852553667944
 31
0.0
 70
    32
 71
     5
 42
885.0000000000019
  3
INABA_S40G
100
AcDbAlignedDimension
 13
9573.6
 23
8028.352553667941
 33
0.0
 14
9114.157431058357
 24
8913.352553667943
 34
0.0
 50
90.0
100
AcDbRotatedDimension
1001
ACAD
1000
DSTYLE
1002
{
1070
   341
1005
0
1002
}
  0
LINE
  5
2195E
102
{ACAD_REACTORS
330
26740
102
}
330
747D
100
AcDbEntity
  8
部品1
 48
50.0
100
AcDbLine
 10
9228.600000000007
 20
8913.352553667939
 30
0.0
 11
9228.600000000007
 21
8793.352553667942
 31
0.0
  0
LINE
  5
21962
102
{ACAD_REACTORS
330
26740
102
}
330
747D
100
AcDbEntity
  8
部品1
 48
50.0
100
AcDbLine
 10
9428.600000000008
 20
8913.352553667939
 30
0.0
 11
9428.600000000008
 21
8793.352553667942
 31
0.0
  0
DIMENSION
  5
21964
330
747D
100
AcDbEntity
  8
寸法
 48
50.0
100
AcDbDimension
  2
*D25
 10
10315.6
 20
9659.112180210025
 30
0.0
 11
10711.7066017178
 21
9659.112180210025
 31
0.0
 70
   160
 71
     5
 42
123.0
  3
INABA_S40G
100
AcDbAlignedDimension
 13
10438.6
 23
8913.352553667941
 33
0.0
 14
10315.6
 24
8840.352553667941
 34
0.0
100
AcDbRotatedDimension
1001
ACAD
1000
DSTYLE
1002
{
1070
   341
1005
0
1002
}
  0
LINE
  5
21965
102
{ACAD_REACTORS
330
26740
102
}
330
747D
100
AcDbEntity
  8
部品1
 48
50.0
100
AcDbLine
 10
10438.6
 20
7273.352553667942
 30
0.0
 11
10318.6
 21
7273.352553667942
 31
0.0
  0
DIMENSION
  5
21966
330
747D
100
AcDbEntity
  8
寸法
 48
50.0
100
AcDbDimension
  2
*D26
 10
10318.6
 20
8407.461308993218
 30
0.0
 11
10708.65905511811
 21
8407.461308993218
 31
0.0
 70
   160
 71
     5
 42
120.0
  3
INABA_S40G
100
AcDbAlignedDimension
 13
10438.6
 23
8683.352553667941
 33
0.0
 14
10318.6
 24
8683.352553667941
 34
0.0
100
AcDbRotatedDimension
1001
ACAD
1000
DSTYLE
1002
{
1070
   341
1005
0
1002
}
  0
CIRCLE
  5
21967
330
747D
100
AcDbEntity
  8
部品1
 48
50.0
100
AcDbCircle
 10
10315.6
 20
8790.352553667942
 30
0.0
 40
35.0
  0
LINE
  5
21968
330
747D
100
AcDbEntity
  8
センター
 48
2.0
100
AcDbLine
 10
10265.6
 20
8790.352553667942
 30
0.0
 11
10365.6
 21
8790.352553667942
 31
0.0
  0
LINE
  5
21969
330
747D
100
AcDbEntity
  8
部品1
 48
50.0
100
AcDbLine
 10
10318.6
 20
8683.352553667942
 30
0.0
 11
10208.6
 21
8683.352553667939
 31
0.0
  0
LINE
  5
2196A
330
747D
100
AcDbEntity
  8
部品1
 48
50.0
100
AcDbLine
 10
10208.6
 20
8683.352553667939
 30
0.0
 11
10208.6
 21
8793.352553667942
 31
0.0
  0
LINE
  5
2196B
330
747D
100
AcDbEntity
  8
センター
 48
2.0
100
AcDbLine
 10
10315.6
 20
8840.352553667941
 30
0.0
 11
10315.6
 21
8740.352553667941
 31
0.0
  0
DIMENSION
  5
2227B
330
747D
100
AcDbEntity
  8
寸法
 48
50.0
100
AcDbDimension
  2
*D29
 10
6773.6
 20
9440.262319316271
 30
0.0
 11
7118.6
 21
9540.262319316271
 31
0.0
 70
    32
 71
     5
 42
690.0000000000009
  3
INABA_S40G
100
AcDbAlignedDimension
 13
7463.600000000001
 23
8128.352553667941
 33
0.0
 14
6773.6
 24
8128.352553667941
 34
0.0
100
AcDbRotatedDimension
1001
ACAD
1000
DSTYLE
1002
{
1070
   341
1005
0
1002
}
  0
DIMENSION
  5
222D5
330
747D
100
AcDbEntity
  8
寸法
 48
50.0
100
AcDbDimension
  2
*D30
 10
8983.6
 20
9440.262319316271
 30
0.0
 11
9328.599999999999
 21
9540.262319316271
 31
0.0
 70
    32
 71
     5
 42
690.0
  3
INABA_S40G
100
AcDbAlignedDimension
 13
9673.6
 23
8128.352553667941
 33
0.0
 14
8983.6
 24
8128.352553667941
 34
0.0
100
AcDbRotatedDimension
1001
ACAD
1000
DSTYLE
1002
{
1070
   341
1005
0
1002
}
  0
LINE
  5
23A5A
330
747D
100
AcDbEntity
  8
部品1
 48
50.0
100
AcDbLine
 10
8323.600000000006
 20
6418.352553667951
 30
0.0
 11
8123.600000000006
 21
6418.352553667951
 31
0.0
  0
LINE
  5
23A5B
330
747D
100
AcDbEntity
  8
センター
 48
2.0
100
AcDbLine
 10
8173.600000000005
 20
6318.352553667951
 30
0.0
 11
8273.600000000007
 21
6318.352553667951
 31
0.0
  0
LINE
  5
23A5C
330
747D
100
AcDbEntity
  8
部品1
 48
50.0
100
AcDbLine
 10
8323.600000000006
 20
6218.352553667951
 30
0.0
 11
8123.600000000006
 21
6218.352553667951
 31
0.0
  0
LINE
  5
23A5D
330
747D
100
AcDbEntity
  8
部品1
 48
50.0
100
AcDbLine
 10
8323.600000000006
 20
6218.352553667951
 30
0.0
 11
8323.600000000006
 21
6418.352553667951
 31
0.0
  0
LINE
  5
23A5E
330
747D
100
AcDbEntity
  8
センター
 48
2.0
100
AcDbLine
 10
8223.600000000006
 20
6368.352553667951
 30
0.0
 11
8223.600000000006
 21
6268.352553667951
 31
0.0
  0
LINE
  5
23A5F
330
747D
100
AcDbEntity
  8
部品1
 48
50.0
100
AcDbLine
 10
8123.600000000006
 20
6218.352553667951
 30
0.0
 11
8123.600000000006
 21
6418.352553667951
 31
0.0
  0
LINE
  5
24AB8
330
747D
100
AcDbEntity
  8
部品1
 48
50.0
100
AcDbLine
 10
7563.6
 20
8128.352553667941
 30
0.0
 11
7363.600000000001
 21
8128.352553667941
 31
0.0
  0
LINE
  5
24AB9
330
747D
100
AcDbEntity
  8
センター
 48
2.0
100
AcDbLine
 10
7413.600000000001
 20
8028.352553667941
 30
0.0
 11
7513.600000000001
 21
8028.352553667941
 31
0.0
  0
LINE
  5
24ABA
330
747D
100
AcDbEntity
  8
部品1
 48
50.0
100
AcDbLine
 10
7563.6
 20
7928.352553667941
 30
0.0
 11
7363.600000000001
 21
7928.352553667941
 31
0.0
  0
LINE
  5
24ABB
330
747D
100
AcDbEntity
  8
部品1
 48
50.0
100
AcDbLine
 10
7563.6
 20
7928.352553667941
 30
0.0
 11
7563.6
 21
8128.352553667941
 31
0.0
  0
LINE
  5
24ABC
330
747D
100
AcDbEntity
  8
センター
 48
2.0
100
AcDbLine
 10
7463.600000000001
 20
8078.35255366794
 30
0.0
 11
7463.600000000001
 21
7978.35255366794
 31
0.0
  0
LINE
  5
24ABD
330
747D
100
AcDbEntity
  8
部品1
 48
50.0
100
AcDbLine
 10
7363.600000000001
 20
7928.352553667941
 30
0.0
 11
7363.600000000001
 21
8128.352553667941
 31
0.0
  0
LINE
  5
24AD0
330
747D
100
AcDbEntity
  8
部品1
 48
50.0
100
AcDbLine
 10
6673.6
 20
7928.352553667941
 30
0.0
 11
6673.6
 21
8128.352553667941
 31
0.0
  0
LINE
  5
24AD1
330
747D
100
AcDbEntity
  8
センター
 48
2.0
100
AcDbLine
 10
6773.6
 20
8078.35255366794
 30
0.0
 11
6773.6
 21
7978.35255366794
 31
0.0
  0
LINE
  5
24AD2
330
747D
100
AcDbEntity
  8
部品1
 48
50.0
100
AcDbLine
 10
6873.6
 20
7928.352553667941
 30
0.0
 11
6873.6
 21
8128.352553667941
 31
0.0
  0
LINE
  5
24AD3
330
747D
100
AcDbEntity
  8
部品1
 48
50.0
100
AcDbLine
 10
6873.6
 20
7928.352553667941
 30
0.0
 11
6673.6
 21
7928.352553667941
 31
0.0
  0
LINE
  5
24AD4
330
747D
100
AcDbEntity
  8
センター
 48
2.0
100
AcDbLine
 10
6723.600000000002
 20
8028.352553667941
 30
0.0
 11
6823.6
 21
8028.352553667941
 31
0.0
  0
LINE
  5
24AD5
330
747D
100
AcDbEntity
  8
部品1
 48
50.0
100
AcDbLine
 10
6873.6
 20
8128.352553667941
 30
0.0
 11
6673.6
 21
8128.352553667941
 31
0.0
  0
LINE
  5
24AE8
330
747D
100
AcDbEntity
  8
部品1
 48
50.0
100
AcDbLine
 10
6873.600000000006
 20
6418.352553667951
 30
0.0
 11
6673.600000000006
 21
6418.352553667951
 31
0.0
  0
LINE
  5
24AE9
330
747D
100
AcDbEntity
  8
センター
 48
2.0
100
AcDbLine
 10
6723.600000000006
 20
6318.352553667951
 30
0.0
 11
6823.600000000006
 21
6318.352553667951
 31
0.0
  0
LINE
  5
24AEA
330
747D
100
AcDbEntity
  8
部品1
 48
50.0
100
AcDbLine
 10
6873.600000000006
 20
6218.352553667951
 30
0.0
 11
6673.600000000006
 21
6218.352553667951
 31
0.0
  0
LINE
  5
24AEB
330
747D
100
AcDbEntity
  8
部品1
 48
50.0
100
AcDbLine
 10
6873.600000000006
 20
6218.352553667951
 30
0.0
 11
6873.600000000006
 21
6418.352553667951
 31
0.0
  0
LINE
  5
24AEC
330
747D
100
AcDbEntity
  8
センター
 48
2.0
100
AcDbLine
 10
6773.600000000006
 20
6368.352553667951
 30
0.0
 11
6773.600000000006
 21
6268.352553667951
 31
0.0
  0
LINE
  5
24AED
330
747D
100
AcDbEntity
  8
部品1
 48
50.0
100
AcDbLine
 10
6673.600000000006
 20
6218.352553667951
 30
0.0
 11
6673.600000000006
 21
6418.352553667951
 31
0.0
  0
LINE
  5
24AEE
330
747D
100
AcDbEntity
  8
部品1
 48
50.0
100
AcDbLine
 10
7363.600000000008
 20
6218.352553667951
 30
0.0
 11
7363.600000000008
 21
6418.352553667951
 31
0.0
  0
LINE
  5
24AEF
330
747D
100
AcDbEntity
  8
センター
 48
2.0
100
AcDbLine
 10
7463.600000000006
 20
6368.352553667951
 30
0.0
 11
7463.600000000006
 21
6268.352553667951
 31
0.0
  0
LINE
  5
24AF0
330
747D
100
AcDbEntity
  8
部品1
 48
50.0
100
AcDbLine
 10
7563.600000000008
 20
6218.352553667951
 30
0.0
 11
7563.600000000008
 21
6418.352553667951
 31
0.0
  0
LINE
  5
24AF1
330
747D
100
AcDbEntity
  8
部品1
 48
50.0
100
AcDbLine
 10
7563.600000000008
 20
6218.352553667951
 30
0.0
 11
7363.600000000008
 21
6218.352553667951
 31
0.0
  0
LINE
  5
24AF2
330
747D
100
AcDbEntity
  8
センター
 48
2.0
100
AcDbLine
 10
7413.600000000006
 20
6318.352553667951
 30
0.0
 11
7513.600000000008
 21
6318.352553667951
 31
0.0
  0
LINE
  5
24AF3
330
747D
100
AcDbEntity
  8
部品1
 48
50.0
100
AcDbLine
 10
7563.600000000008
 20
6418.352553667951
 30
0.0
 11
7363.600000000008
 21
6418.352553667951
 31
0.0
  0
LINE
  5
24AF5
330
747D
100
AcDbEntity
  8
部品1
 48
50.0
100
AcDbLine
 10
7563.600000000004
 20
7373.352553667951
 30
0.0
 11
7363.600000000004
 21
7373.352553667951
 31
0.0
  0
LINE
  5
24AF6
330
747D
100
AcDbEntity
  8
センター
 48
2.0
100
AcDbLine
 10
7413.600000000004
 20
7173.35255366795
 30
0.0
 11
7513.600000000002
 21
7173.35255366795
 31
0.0
  0
LINE
  5
24AF7
330
747D
100
AcDbEntity
  8
部品1
 48
50.0
100
AcDbLine
 10
7563.600000000004
 20
6973.35255366795
 30
0.0
 11
7363.600000000004
 21
6973.35255366795
 31
0.0
  0
LINE
  5
24AF8
330
747D
100
AcDbEntity
  8
部品1
 48
50.0
100
AcDbLine
 10
7563.600000000004
 20
6973.35255366795
 30
0.0
 11
7563.600000000004
 21
7373.352553667951
 31
0.0
  0
LINE
  5
24AF9
330
747D
100
AcDbEntity
  8
センター
 48
2.0
100
AcDbLine
 10
7463.600000000004
 20
7223.35255366795
 30
0.0
 11
7463.600000000004
 21
7123.352553667951
 31
0.0
  0
LINE
  5
24AFA
330
747D
100
AcDbEntity
  8
部品1
 48
50.0
100
AcDbLine
 10
7363.600000000004
 20
6973.35255366795
 30
0.0
 11
7363.600000000004
 21
7373.352553667951
 31
0.0
  0
LINE
  5
24AFB
330
747D
100
AcDbEntity
  8
部品1
 48
50.0
100
AcDbLine
 10
6673.600000000004
 20
6973.35255366795
 30
0.0
 11
6673.600000000004
 21
7373.352553667951
 31
0.0
  0
LINE
  5
24AFC
330
747D
100
AcDbEntity
  8
センター
 48
2.0
100
AcDbLine
 10
6773.600000000005
 20
7223.35255366795
 30
0.0
 11
6773.600000000005
 21
7123.352553667951
 31
0.0
  0
LINE
  5
24AFD
330
747D
100
AcDbEntity
  8
部品1
 48
50.0
100
AcDbLine
 10
6873.600000000005
 20
6973.35255366795
 30
0.0
 11
6873.600000000005
 21
7373.352553667951
 31
0.0
  0
LINE
  5
24AFE
330
747D
100
AcDbEntity
  8
部品1
 48
50.0
100
AcDbLine
 10
6873.600000000005
 20
6973.35255366795
 30
0.0
 11
6673.600000000004
 21
6973.35255366795
 31
0.0
  0
LINE
  5
24AFF
330
747D
100
AcDbEntity
  8
センター
 48
2.0
100
AcDbLine
 10
6723.600000000004
 20
7173.35255366795
 30
0.0
 11
6823.600000000005
 21
7173.35255366795
 31
0.0
  0
LINE
  5
24B00
330
747D
100
AcDbEntity
  8
部品1
 48
50.0
100
AcDbLine
 10
6873.600000000005
 20
7373.352553667951
 30
0.0
 11
6673.600000000004
 21
7373.352553667951
 31
0.0
  0
LINE
  5
24B01
330
747D
100
AcDbEntity
  8
部品1
 48
50.0
100
AcDbLine
 10
8123.600000000005
 20
7073.352553667951
 30
0.0
 11
8123.600000000005
 21
7273.352553667951
 31
0.0
  0
LINE
  5
24B02
330
747D
100
AcDbEntity
  8
センター
 48
2.0
100
AcDbLine
 10
8223.600000000004
 20
7223.35255366795
 30
0.0
 11
8223.600000000004
 21
7123.352553667951
 31
0.0
  0
LINE
  5
24B03
330
747D
100
AcDbEntity
  8
部品1
 48
50.0
100
AcDbLine
 10
8323.600000000004
 20
7073.352553667951
 30
0.0
 11
8323.600000000004
 21
7273.352553667951
 31
0.0
  0
LINE
  5
24B04
330
747D
100
AcDbEntity
  8
部品1
 48
50.0
100
AcDbLine
 10
8323.600000000004
 20
7073.352553667951
 30
0.0
 11
8123.600000000005
 21
7073.352553667951
 31
0.0
  0
LINE
  5
24B05
330
747D
100
AcDbEntity
  8
センター
 48
2.0
100
AcDbLine
 10
8173.600000000005
 20
7173.35255366795
 30
0.0
 11
8273.600000000005
 21
7173.35255366795
 31
0.0
  0
LINE
  5
24B06
330
747D
100
AcDbEntity
  8
部品1
 48
50.0
100
AcDbLine
 10
8323.600000000004
 20
7273.352553667951
 30
0.0
 11
8123.600000000005
 21
7273.352553667951
 31
0.0
  0
LINE
  5
24B11
330
747D
100
AcDbEntity
  8
部品1
 48
50.0
100
AcDbLine
 10
9083.600000000004
 20
7373.352553667951
 30
0.0
 11
8883.600000000004
 21
7373.352553667951
 31
0.0
  0
LINE
  5
24B12
330
747D
100
AcDbEntity
  8
センター
 48
2.0
100
AcDbLine
 10
8933.600000000003
 20
7173.35255366795
 30
0.0
 11
9033.600000000005
 21
7173.35255366795
 31
0.0
  0
LINE
  5
24B13
330
747D
100
AcDbEntity
  8
部品1
 48
50.0
100
AcDbLine
 10
9083.600000000004
 20
6973.35255366795
 30
0.0
 11
8883.600000000004
 21
6973.35255366795
 31
0.0
  0
LINE
  5
24B14
330
747D
100
AcDbEntity
  8
部品1
 48
50.0
100
AcDbLine
 10
9083.600000000004
 20
6973.35255366795
 30
0.0
 11
9083.600000000004
 21
7373.352553667951
 31
0.0
  0
LINE
  5
24B15
330
747D
100
AcDbEntity
  8
センター
 48
2.0
100
AcDbLine
 10
8983.600000000004
 20
7223.35255366795
 30
0.0
 11
8983.600000000004
 21
7123.352553667951
 31
0.0
  0
LINE
  5
24B16
330
747D
100
AcDbEntity
  8
部品1
 48
50.0
100
AcDbLine
 10
8883.600000000004
 20
6973.35255366795
 30
0.0
 11
8883.600000000004
 21
7373.352553667951
 31
0.0
  0
LINE
  5
24B17
330
747D
100
AcDbEntity
  8
部品1
 48
50.0
100
AcDbLine
 10
8883.600000000006
 20
6218.352553667951
 30
0.0
 11
8883.600000000006
 21
6418.352553667951
 31
0.0
  0
LINE
  5
24B18
330
747D
100
AcDbEntity
  8
センター
 48
2.0
100
AcDbLine
 10
8983.600000000006
 20
6368.352553667951
 30
0.0
 11
8983.600000000006
 21
6268.352553667951
 31
0.0
  0
LINE
  5
24B19
330
747D
100
AcDbEntity
  8
部品1
 48
50.0
100
AcDbLine
 10
9083.600000000004
 20
6218.352553667951
 30
0.0
 11
9083.600000000004
 21
6418.352553667951
 31
0.0
  0
LINE
  5
24B1A
330
747D
100
AcDbEntity
  8
部品1
 48
50.0
100
AcDbLine
 10
9083.600000000004
 20
6218.352553667951
 30
0.0
 11
8883.600000000006
 21
6218.352553667951
 31
0.0
  0
LINE
  5
24B1B
330
747D
100
AcDbEntity
  8
センター
 48
2.0
100
AcDbLine
 10
8933.600000000003
 20
6318.352553667951
 30
0.0
 11
9033.600000000005
 21
6318.352553667951
 31
0.0
  0
LINE
  5
24B1C
330
747D
100
AcDbEntity
  8
部品1
 48
50.0
100
AcDbLine
 10
9083.600000000004
 20
6418.352553667951
 30
0.0
 11
8883.600000000006
 21
6418.352553667951
 31
0.0
  0
LINE
  5
24B1D
330
747D
100
AcDbEntity
  8
部品1
 48
50.0
100
AcDbLine
 10
9083.6
 20
8128.352553667941
 30
0.0
 11
8883.599999999999
 21
8128.352553667941
 31
0.0
  0
LINE
  5
24B1E
330
747D
100
AcDbEntity
  8
センター
 48
2.0
100
AcDbLine
 10
8933.6
 20
8028.352553667941
 30
0.0
 11
9033.599999999999
 21
8028.352553667941
 31
0.0
  0
LINE
  5
24B1F
330
747D
100
AcDbEntity
  8
部品1
 48
50.0
100
AcDbLine
 10
9083.6
 20
7928.352553667941
 30
0.0
 11
8883.599999999999
 21
7928.352553667941
 31
0.0
  0
LINE
  5
24B20
330
747D
100
AcDbEntity
  8
部品1
 48
50.0
100
AcDbLine
 10
9083.6
 20
7928.352553667941
 30
0.0
 11
9083.6
 21
8128.352553667941
 31
0.0
  0
LINE
  5
24B21
330
747D
100
AcDbEntity
  8
センター
 48
2.0
100
AcDbLine
 10
8983.6
 20
8078.35255366794
 30
0.0
 11
8983.6
 21
7978.35255366794
 31
0.0
  0
LINE
  5
24B22
330
747D
100
AcDbEntity
  8
部品1
 48
50.0
100
AcDbLine
 10
8883.599999999999
 20
7928.352553667941
 30
0.0
 11
8883.599999999999
 21
8128.352553667941
 31
0.0
  0
LINE
  5
24B35
330
747D
100
AcDbEntity
  8
部品1
 48
50.0
100
AcDbLine
 10
9573.6
 20
7928.352553667941
 30
0.0
 11
9573.6
 21
8128.352553667941
 31
0.0
  0
LINE
  5
24B36
330
747D
100
AcDbEntity
  8
センター
 48
2.0
100
AcDbLine
 10
9673.6
 20
8078.35255366794
 30
0.0
 11
9673.6
 21
7978.35255366794
 31
0.0
  0
LINE
  5
24B37
330
747D
100
AcDbEntity
  8
部品1
 48
50.0
100
AcDbLine
 10
9773.600000000001
 20
7928.352553667941
 30
0.0
 11
9773.600000000001
 21
8128.352553667941
 31
0.0
  0
LINE
  5
24B38
330
747D
100
AcDbEntity
  8
部品1
 48
50.0
100
AcDbLine
 10
9773.600000000001
 20
7928.352553667941
 30
0.0
 11
9573.6
 21
7928.352553667941
 31
0.0
  0
LINE
  5
24B39
330
747D
100
AcDbEntity
  8
センター
 48
2.0
100
AcDbLine
 10
9623.600000000001
 20
8028.352553667941
 30
0.0
 11
9723.600000000001
 21
8028.352553667941
 31
0.0
  0
LINE
  5
24B3A
330
747D
100
AcDbEntity
  8
部品1
 48
50.0
100
AcDbLine
 10
9773.600000000001
 20
8128.352553667941
 30
0.0
 11
9573.6
 21
8128.352553667941
 31
0.0
  0
LINE
  5
24B3B
330
747D
100
AcDbEntity
  8
部品1
 48
50.0
100
AcDbLine
 10
9773.600000000008
 20
6418.352553667951
 30
0.0
 11
9573.600000000006
 21
6418.352553667951
 31
0.0
  0
LINE
  5
24B3C
330
747D
100
AcDbEntity
  8
センター
 48
2.0
100
AcDbLine
 10
9623.600000000006
 20
6318.352553667951
 30
0.0
 11
9723.600000000006
 21
6318.352553667951
 31
0.0
  0
LINE
  5
24B3D
330
747D
100
AcDbEntity
  8
部品1
 48
50.0
100
AcDbLine
 10
9773.600000000008
 20
6218.352553667951
 30
0.0
 11
9573.600000000006
 21
6218.352553667951
 31
0.0
  0
LINE
  5
24B3E
330
747D
100
AcDbEntity
  8
部品1
 48
50.0
100
AcDbLine
 10
9773.600000000008
 20
6218.352553667951
 30
0.0
 11
9773.600000000008
 21
6418.352553667951
 31
0.0
  0
LINE
  5
24B3F
330
747D
100
AcDbEntity
  8
センター
 48
2.0
100
AcDbLine
 10
9673.600000000007
 20
6368.352553667951
 30
0.0
 11
9673.600000000007
 21
6268.352553667951
 31
0.0
  0
LINE
  5
24B40
330
747D
100
AcDbEntity
  8
部品1
 48
50.0
100
AcDbLine
 10
9573.600000000006
 20
6218.352553667951
 30
0.0
 11
9573.600000000006
 21
6418.352553667951
 31
0.0
  0
LINE
  5
24B41
330
747D
100
AcDbEntity
  8
部品1
 48
50.0
100
AcDbLine
 10
9573.600000000004
 20
6973.35255366795
 30
0.0
 11
9573.600000000004
 21
7373.352553667951
 31
0.0
  0
LINE
  5
24B42
330
747D
100
AcDbEntity
  8
センター
 48
2.0
100
AcDbLine
 10
9673.600000000005
 20
7223.35255366795
 30
0.0
 11
9673.600000000005
 21
7123.352553667951
 31
0.0
  0
LINE
  5
24B43
330
747D
100
AcDbEntity
  8
部品1
 48
50.0
100
AcDbLine
 10
9773.600000000005
 20
6973.35255366795
 30
0.0
 11
9773.600000000005
 21
7373.352553667951
 31
0.0
  0
LINE
  5
24B44
330
747D
100
AcDbEntity
  8
部品1
 48
50.0
100
AcDbLine
 10
9773.600000000005
 20
6973.35255366795
 30
0.0
 11
9573.600000000004
 21
6973.35255366795
 31
0.0
  0
LINE
  5
24B45
330
747D
100
AcDbEntity
  8
センター
 48
2.0
100
AcDbLine
 10
9623.600000000005
 20
7173.35255366795
 30
0.0
 11
9723.600000000004
 21
7173.35255366795
 31
0.0
  0
LINE
  5
24B46
330
747D
100
AcDbEntity
  8
部品1
 48
50.0
100
AcDbLine
 10
9773.600000000005
 20
7373.352553667951
 30
0.0
 11
9573.600000000004
 21
7373.352553667951
 31
0.0
  0
DIMENSION
  5
24B74
330
747D
100
AcDbEntity
  8
寸法
 48
50.0
100
AcDbDimension
  2
*D31
 10
9309.531448609055
 20
6318.352553667951
 30
0.0
 11
9209.531448609054
 21
6745.852553667943
 31
0.0
 70
    32
 71
     5
 42
854.9999999999837
  3
INABA_S40G
100
AcDbAlignedDimension
 13
9573.600000000006
 23
7173.352553667935
 33
0.0
 14
9573.600000000006
 24
6318.352553667951
 34
0.0
 50
90.0
100
AcDbRotatedDimension
1001
ACAD
1000
DSTYLE
1002
{
1070
   341
1005
0
1002
}
  0
DIMENSION
  5
25C85
330
747D
100
AcDbEntity
  8
寸法
 48
50.0
100
AcDbDimension
  2
*D32
 10
6442.207396225875
 20
5358.352553667931
 30
0.0
 11
6442.207396225874
 21
5119.657612464038
 31
0.0
 70
   160
 71
     5
 42
195.0000000000145
  3
INABA_S40G
100
AcDbAlignedDimension
 13
6238.600000000001
 23
5553.352553667945
 33
0.0
 14
6238.600000000001
 24
5358.352553667931
 34
0.0
 50
90.0
100
AcDbRotatedDimension
1001
ACAD
1000
DSTYLE
1002
{
1070
   341
1005
0
1002
}
  0
DIMENSION
  5
25F86
330
747D
100
AcDbEntity
  8
寸法
 48
50.0
100
AcDbDimension
  2
*D33
 10
5772.312481891145
 20
5433.352553667965
 30
0.0
 11
5772.312481891145
 21
4824.867272293726
 31
0.0
 70
   160
  1
扉の出<>
 71
     5
 42
75.00000000000182
  3
INABA_S40G
100
AcDbAlignedDimension
 13
6008.600000000001
 23
5358.352553667963
 33
0.0
 14
6008.600000000008
 24
5433.352553667965
 34
0.0
 50
90.0
100
AcDbRotatedDimension
1001
ACAD
1000
DSTYLE
1002
{
1070
   341
1005
0
1002
}
  0
DIMENSION
  5
25F87
330
747D
100
AcDbEntity
  8
寸法
 48
50.0
100
AcDbDimension
  2
*D34
 10
6008.600000000001
 20
4754.36682384922
 30
0.0
 11
7098.766762832856
 21
4754.36682384922
 31
0.0
 70
   160
  1
扉の幅 <>
 71
     5
 42
2187.999999999999
  3
INABA_S40G
100
AcDbAlignedDimension
 13
8196.600000000001
 23
5358.352553667979
 33
0.0
 14
6008.600000000001
 24
5358.352553667963
 34
0.0
100
AcDbRotatedDimension
1001
ACAD
1000
DSTYLE
1002
{
1070
   341
1005
0
1002
}
  0
TEXT
  5
25F88
330
747D
100
AcDbEntity
  8
寸法
 62
     7
100
AcDbText
 10
6533.456352585791
 20
4102.920278269727
 30
0.0
 40
120.0
  1
扉の位置に合わせた基礎形状として下さい。
  7
STYLE1
100
AcDbText
  0
LWPOLYLINE
  5
25F89
330
747D
100
AcDbEntity
  8
寸法
 48
50.0
100
AcDbPolyline
 90
        3
 70
     0
 43
0.0
 10
-6757.850857895411
 20
5358.352553667935
 10
-6416.840393393039
 20
4252.256093604733
 10
-9230.90480632468
 20
4252.256093604733
210
0.0
220
0.0
230
-1.0
1001
ACAD
1000
DSTYLE
1002
{
1070
   341
1005
0
1070
    40
1040
1.0
1070
   343
1005
0
1070
   344
1005
0
1002
}
  0
SOLID
  5
25F8A
330
747D
100
AcDbEntity
  8
寸法
 48
50.0
100
AcDbTrace
 10
-6740.941652225425
 20
5232.761524763049
 30
0.0
 11
-6757.850857895411
 21
5358.352553667935
 31
0.0
 12
-6701.123437751947
 22
5245.034295731958
 32
0.0
 13
-6701.123437751947
 23
5245.034295731958
 33
0.0
210
0.0
220
0.0
230
-1.0
1001
ACAD
1000
DSTYLE
1002
{
1070
   341
1005
0
1070
    40
1040
1.0
1070
   343
1005
0
1070
   344
1005
0
1002
}
  0
TEXT
  5
25F8B
330
747D
100
AcDbEntity
  8
寸法
 62
     7
100
AcDbText
 10
6533.456352585791
 20
4274.524041153052
 30
0.0
 40
120.0
  1
扉位置 (2188x75)
  7
STYLE1
100
AcDbText
  0
LINE
  5
25F8C
330
747D
100
AcDbEntity
  8
想像線
 48
10.0
100
AcDbLine
 10
9147.16214885316
 20
8988.352553667942
 30
0.0
 11
10483.6
 21
8988.352553667938
 31
0.0
  0
LINE
  5
26312
330
747D
100
AcDbEntity
  8
想像線
 48
10.0
100
AcDbLine
 10
9147.16214885316
 20
5378.352553667948
 30
0.0
 11
10483.6
 21
5378.352553667946
 31
0.0
  0
LINE
  5
264BF
330
747D
100
AcDbEntity
  8
細線
 48
50.0
100
AcDbLine
 10
9714.359856803284
 20
1500.129849787253
 30
0.0
 11
9706.321381030342
 21
1530.129849787253
 31
0.0
  0
LINE
  5
264C0
330
747D
100
AcDbEntity
  8
細線
100
AcDbLine
 10
9502.609475308224
 20
1530.129849787258
 30
0.0
 11
9617.233119874903
 21
1644.753494353943
 31
0.0
  0
LINE
  5
264C1
330
747D
100
AcDbEntity
  8
細線
100
AcDbLine
 10
9460.183068437032
 20
1530.129849787258
 30
0.0
 11
9574.806713003713
 21
1644.753494353943
 31
0.0
  0
LINE
  5
264C2
330
747D
100
AcDbEntity
  8
細線
100
AcDbLine
 10
9545.035882179412
 20
1530.129849787258
 30
0.0
 11
9659.659526746093
 21
1644.753494353943
 31
0.0
  0
LINE
  5
264C3
330
747D
100
AcDbEntity
  8
細線
 48
50.0
100
AcDbLine
 10
9517.139744435153
 20
1500.129849787256
 30
0.0
 11
9509.101268662211
 21
1530.129849787256
 31
0.0
  0
LINE
  5
264C4
330
747D
100
AcDbEntity
  8
細線
 48
50.0
100
AcDbLine
 10
9615.749800619219
 20
1500.129849787253
 30
0.0
 11
9607.711324846285
 21
1530.129849787253
 31
0.0
  0
LINE
  5
264C5
330
747D
100
AcDbEntity
  8
部品1
100
AcDbLine
 10
9618.887575312863
 20
1944.753494353944
 30
0.0
 11
9618.887575312863
 21
1644.753494353943
 31
0.0
  0
LINE
  5
264C6
330
747D
100
AcDbEntity
  8
細線
 48
50.0
100
AcDbLine
 10
9319.919632067042
 20
1500.129849787256
 30
0.0
 11
9311.881156294111
 21
1530.129849787256
 31
0.0
  0
LINE
  5
264C7
330
747D
100
AcDbEntity
  8
細線
 48
50.0
100
AcDbLine
 10
9418.529688251103
 20
1500.129849787256
 30
0.0
 11
9410.491212478174
 21
1530.129849787256
 31
0.0
  0
LINE
  5
264C8
330
747D
100
AcDbEntity
  8
細線
100
AcDbLine
 10
9052.609475308223
 20
1530.129849787257
 30
0.0
 11
9167.233119874902
 21
1644.753494353943
 31
0.0
  0
LINE
  5
264C9
330
747D
100
AcDbEntity
  8
細線
100
AcDbLine
 10
9095.035882179413
 20
1530.129849787257
 30
0.0
 11
9209.659526746092
 21
1644.753494353943
 31
0.0
  0
LINE
  5
264CA
330
747D
100
AcDbEntity
  8
細線
 48
50.0
100
AcDbLine
 10
9221.309575882981
 20
1500.129849787256
 30
0.0
 11
9213.271100110054
 21
1530.129849787256
 31
0.0
  0
LINE
  5
264CB
330
747D
100
AcDbEntity
  8
細線
 48
50.0
100
AcDbLine
 10
9122.699519698931
 20
1500.129849787256
 30
0.0
 11
9114.661043925993
 21
1530.129849787256
 31
0.0
  0
LINE
  5
264CC
330
747D
100
AcDbEntity
  8
細線
100
AcDbLine
 10
9537.950887071604
 20
1644.753494353943
 30
0.0
 11
9237.950887071603
 21
1944.753494353944
 31
0.0
  0
LINE
  5
264CD
330
747D
100
AcDbEntity
  8
細線
100
AcDbLine
 10
9601.590497378383
 20
1644.753494353945
 30
0.0
 11
9301.590497378393
 21
1944.753494353944
 31
0.0
  0
LEADER
  5
264CE
330
747D
100
AcDbEntity
  8
寸法
 48
50.0
100
AcDbLeader
  3
INABA_S40G
 73
     0
 74
     0
 75
     1
 40
150.0
 41
231.9898538650463
 76
     3
 10
9532.293089832762
 20
1944.753494353944
 30
0.0
 10
9621.215848124826
 20
2151.186395205366
 30
0.0
 10
9721.215848124826
 20
2151.186395205366
 30
0.0
340
264CF
1001
ACAD
1000
DSTYLE
1002
{
1070
   341
1005
0
1002
}
  0
MTEXT
  5
264CF
102
{ACAD_REACTORS
330
264CE
102
}
330
747D
100
AcDbEntity
  8
寸法
 62
     7
 48
50.0
100
AcDbMText
 10
9761.215848124825
 20
2266.186395205366
 30
0.0
 40
150.0
 41
1.0
 71
     4
 72
     1
  1
\A1;C.B
  7
STYLE1
 73
     1
 44
1.0
1001
ACAD
1000
MTEXTBEGIN
1070
    73
1070
     1
1070
    44
1040
1.0
1070
    74
1070
     0
1000
MTEXTEND
  0
LINE
  5
264D0
330
747D
100
AcDbEntity
  8
細線
 48
50.0
100
AcDbLine
 10
9687.564937560171
 20
1400.129849787253
 30
0.0
 11
9695.603413333106
 21
1370.129849787253
 31
0.0
  0
LINE
  5
264D1
330
747D
100
AcDbEntity
  8
細線
 48
50.0
100
AcDbLine
 10
9490.344825192051
 20
1400.129849787256
 30
0.0
 11
9498.383300964992
 21
1370.129849787256
 31
0.0
  0
LINE
  5
264D2
330
747D
100
AcDbEntity
  8
細線
 48
50.0
100
AcDbLine
 10
9588.954881376112
 20
1400.129849787253
 30
0.0
 11
9596.993357149042
 21
1370.129849787253
 31
0.0
  0
LINE
  5
264D3
330
747D
100
AcDbEntity
  8
細線
 48
50.0
100
AcDbLine
 10
9293.124712823932
 20
1400.129849787256
 30
0.0
 11
9301.163188596865
 21
1370.129849787256
 31
0.0
  0
LINE
  5
264D4
330
747D
100
AcDbEntity
  8
細線
 48
50.0
100
AcDbLine
 10
9391.734769007994
 20
1400.129849787256
 30
0.0
 11
9399.773244780922
 21
1370.129849787256
 31
0.0
  0
LINE
  5
264D5
330
747D
100
AcDbEntity
  8
細線
 48
50.0
100
AcDbLine
 10
9095.904600455822
 20
1400.129849787256
 30
0.0
 11
9103.943076228752
 21
1370.129849787256
 31
0.0
  0
LINE
  5
264D6
330
747D
100
AcDbEntity
  8
細線
 48
50.0
100
AcDbLine
 10
9194.514656639872
 20
1400.129849787256
 30
0.0
 11
9202.553132412814
 21
1370.129849787256
 31
0.0
  0
LINE
  5
264D7
330
747D
100
AcDbEntity
  8
細線
 48
50.0
100
AcDbLine
 10
9285.086237050993
 20
1370.129849787253
 30
0.0
 11
9327.958107839972
 21
1530.129849787253
 31
0.0
  0
LINE
  5
264D8
330
747D
100
AcDbEntity
  8
細線
 48
50.0
100
AcDbLine
 10
9087.86612468288
 20
1370.129849787256
 30
0.0
 11
9130.737995471852
 21
1530.129849787256
 31
0.0
  0
LINE
  5
264D9
330
747D
100
AcDbEntity
  8
細線
 48
50.0
100
AcDbLine
 10
9186.476180866931
 20
1370.129849787256
 30
0.0
 11
9229.348051655914
 21
1530.129849787253
 31
0.0
  0
LINE
  5
264DA
330
747D
100
AcDbEntity
  8
細線
 48
50.0
100
AcDbLine
 10
9482.306349419111
 20
1370.129849787253
 30
0.0
 11
9525.178220208083
 21
1530.129849787256
 31
0.0
  0
LINE
  5
264DB
330
747D
100
AcDbEntity
  8
細線
 48
50.0
100
AcDbLine
 10
9383.696293235052
 20
1370.129849787256
 30
0.0
 11
9426.568164024033
 21
1530.129849787253
 31
0.0
  0
LINE
  5
264DC
330
747D
100
AcDbEntity
  8
細線
 48
50.0
100
AcDbLine
 10
9679.526461787224
 20
1370.129849787253
 30
0.0
 11
9722.398332576213
 21
1530.129849787251
 31
0.0
  0
LINE
  5
264DD
330
747D
100
AcDbEntity
  8
細線
 48
50.0
100
AcDbLine
 10
9580.916405603174
 20
1370.129849787252
 30
0.0
 11
9623.788276392152
 21
1530.129849787251
 31
0.0
  0
LINE
  5
264DE
330
747D
100
AcDbEntity
  8
部品1
100
AcDbLine
 10
9768.887575312863
 20
1644.753494353943
 30
0.0
 11
9768.887575312863
 21
1370.129849787256
 31
0.0
  0
LINE
  5
264DF
330
747D
100
AcDbEntity
  8
部品1
100
AcDbLine
 10
10359.398503132
 20
336.8985163269103
 30
0.0
 11
10359.398503132
 21
3595.968019075
 31
0.0
  0
TEXT
  5
264E0
330
747D
100
AcDbEntity
  8
部品1
100
AcDbText
 10
6468.852915550619
 20
3371.528104135715
 30
0.0
 40
150.0
  1
基礎詳細
  7
STYLE2
100
AcDbText
  0
LINE
  5
264E1
330
747D
100
AcDbEntity
  8
細線
 48
50.0
100
AcDbLine
 10
9024.089463514865
 20
1500.129849787256
 30
0.0
 11
9016.050987741932
 21
1530.129849787256
 31
0.0
  0
LINE
  5
264E2
330
747D
100
AcDbEntity
  8
細線
 48
50.0
100
AcDbLine
 10
8925.479407330804
 20
1500.129849787256
 30
0.0
 11
8917.440931557862
 21
1530.129849787256
 31
0.0
  0
LINE
  5
264E3
330
747D
100
AcDbEntity
  8
部品1
100
AcDbLine
 10
9018.887575312863
 20
1644.753494353943
 30
0.0
 11
9018.887575312863
 21
1944.753494353944
 31
0.0
  0
LINE
  5
264E4
330
747D
100
AcDbEntity
  8
細線
 48
50.0
100
AcDbLine
 10
8898.684488087694
 20
1400.129849787256
 30
0.0
 11
8906.722963860621
 21
1370.129849787256
 31
0.0
  0
LINE
  5
264E5
330
747D
100
AcDbEntity
  8
細線
 48
50.0
100
AcDbLine
 10
8997.294544271751
 20
1400.129849787256
 30
0.0
 11
9005.333020044682
 21
1370.129849787256
 31
0.0
  0
LINE
  5
264E6
330
747D
100
AcDbEntity
  8
細線
 48
50.0
100
AcDbLine
 10
7429.745921547667
 20
934.7534943539416
 30
0.0
 11
7421.707445774734
 21
964.7534943539415
 31
0.0
  0
LINE
  5
264E7
330
747D
100
AcDbEntity
  8
部品1
 48
50.0
100
AcDbLine
 10
7484.273640057249
 20
964.7534943539424
 30
0.0
 11
7484.273640057249
 21
804.7534943539425
 31
0.0
  0
LINE
  5
264E8
330
747D
100
AcDbEntity
  8
細線
 48
50.0
100
AcDbLine
 10
8890.646012314752
 20
1370.129849787256
 30
0.0
 11
8933.517883103732
 21
1530.129849787256
 31
0.0
  0
LINE
  5
264E9
330
747D
100
AcDbEntity
  8
部品1
100
AcDbLine
 10
8868.887575312863
 20
1370.129849787252
 30
0.0
 11
8868.887575312863
 21
1644.753494353943
 31
0.0
  0
TEXT
  5
264EA
330
747D
100
AcDbEntity
  8
部品1
 48
50.0
100
AcDbText
 10
8393.545946987563
 20
1311.253818557307
 30
0.0
 40
100.0
  1
ボルトの出
 50
90.0
  7
STYLE2
100
AcDbText
  0
LINE
  5
264EB
330
747D
100
AcDbEntity
  8
細線
 48
50.0
100
AcDbLine
 10
8989.256068498812
 20
1370.129849787253
 30
0.0
 11
9032.127939287795
 21
1530.129849787253
 31
0.0
  0
LINE
  5
264EC
330
747D
100
AcDbEntity
  8
部品1
 48
50.0
100
AcDbLine
 10
7003.523640057247
 20
2383.347595740372
 30
0.0
 11
7023.523640057248
 21
2393.347595740372
 31
0.0
  0
LINE
  5
264ED
330
747D
100
AcDbEntity
  8
部品1
 48
50.0
100
AcDbLine
 10
7003.523640057247
 20
2423.347595740372
 30
0.0
 11
7023.523640057248
 21
2433.347595740373
 31
0.0
  0
LINE
  5
264EE
330
747D
100
AcDbEntity
  8
細線
 48
50.0
100
AcDbLine
 10
7003.523640057247
 20
2383.347595740372
 30
0.0
 11
7003.523640057247
 21
2423.347595740372
 31
0.0
  0
LINE
  5
264EF
330
747D
100
AcDbEntity
  8
部品1
 48
50.0
100
AcDbLine
 10
7023.523640057248
 20
2393.347595740372
 30
0.0
 11
7023.523640057248
 21
2433.347595740373
 31
0.0
  0
LINE
  5
264F0
330
747D
100
AcDbEntity
  8
部品1
 48
50.0
100
AcDbLine
 10
7003.523640057247
 20
2443.347595740372
 30
0.0
 11
7023.523640057248
 21
2433.347595740373
 31
0.0
  0
LINE
  5
264F1
330
747D
100
AcDbEntity
  8
部品1
 48
50.0
100
AcDbLine
 10
7033.523640057246
 20
2269.157604909284
 30
0.0
 11
7033.523640057246
 21
2281.157604909284
 31
0.0
  0
LINE
  5
264F2
330
747D
100
AcDbEntity
  8
細線
 48
50.0
100
AcDbLine
 10
6963.523640057245
 20
2383.347595740372
 30
0.0
 11
6963.523640057245
 21
2423.347595740372
 31
0.0
  0
LINE
  5
264F3
330
747D
100
AcDbEntity
  8
部品1
 48
50.0
100
AcDbLine
 10
6943.523640057247
 20
2393.347595740372
 30
0.0
 11
6943.523640057247
 21
2433.347595740373
 31
0.0
  0
LINE
  5
264F4
330
747D
100
AcDbEntity
  8
部品1
 48
50.0
100
AcDbLine
 10
6943.523640057247
 20
2433.347595740373
 30
0.0
 11
6963.523640057245
 21
2423.347595740372
 31
0.0
  0
LINE
  5
264F5
330
747D
100
AcDbEntity
  8
部品1
 48
50.0
100
AcDbLine
 10
6943.523640057247
 20
2393.347595740372
 30
0.0
 11
6963.523640057245
 21
2383.347595740372
 31
0.0
  0
LINE
  5
264F6
330
747D
100
AcDbEntity
  8
部品1
 48
50.0
100
AcDbLine
 10
6943.523640057247
 20
2433.347595740373
 30
0.0
 11
6963.523640057245
 21
2443.347595740372
 31
0.0
  0
LINE
  5
264F7
330
747D
100
AcDbEntity
  8
部品1
100
AcDbLine
 10
6841.773640057247
 20
2016.753494353944
 30
0.0
 11
6891.273640057248
 21
2016.753494353944
 31
0.0
  0
ARC
  5
264F8
330
747D
100
AcDbEntity
  8
部品1
100
AcDbCircle
 10
6838.398640057246
 20
2080.87849435394
 30
0.0
 40
3.375
100
AcDbArc
 50
0.0
 51
90.0
  0
LINE
  5
264F9
330
747D
100
AcDbEntity
  8
部品1
100
AcDbLine
 10
6841.773640057247
 20
2080.87849435394
 30
0.0
 11
6841.773640057247
 21
2016.753494353944
 31
0.0
  0
LINE
  5
264FA
330
747D
100
AcDbEntity
  8
部品1
 48
50.0
100
AcDbLine
 10
6933.523640057249
 20
2281.157604909284
 30
0.0
 11
6933.523640057249
 21
2269.157604909284
 31
0.0
  0
LINE
  5
264FB
330
747D
100
AcDbEntity
  8
部品1
100
AcDbLine
 10
6871.023640057249
 20
2031.703494353944
 30
0.0
 11
6906.223640057248
 21
2031.703494353944
 31
0.0
  0
ARC
  5
264FC
330
747D
100
AcDbEntity
  8
部品1
100
AcDbCircle
 10
6871.023640057249
 20
2028.328494353945
 30
0.0
 40
3.375
100
AcDbArc
 50
90.0
 51
180.0
  0
ARC
  5
264FD
330
747D
100
AcDbEntity
  8
部品1
100
AcDbCircle
 10
6906.223640057248
 20
2028.328494353945
 30
0.0
 40
3.375
100
AcDbArc
 50
0.0
 51
90.0
  0
LINE
  5
264FE
330
747D
100
AcDbEntity
  8
部品1
100
AcDbLine
 10
6972.273640057247
 20
2006.203494353944
 30
0.0
 11
6994.773640057245
 21
2006.203494353944
 31
0.0
  0
LINE
  5
264FF
330
747D
100
AcDbEntity
  8
部品1
100
AcDbLine
 10
6976.773640057247
 20
2010.703494353944
 30
0.0
 11
6990.273640057246
 21
2010.703494353944
 31
0.0
  0
ARC
  5
26500
330
747D
100
AcDbEntity
  8
部品1
100
AcDbCircle
 10
6891.273640057248
 20
2013.378494353944
 30
0.0
 40
3.375
100
AcDbArc
 50
0.0
 51
90.0
  0
LINE
  5
26501
330
747D
100
AcDbEntity
  8
部品1
100
AcDbLine
 10
6867.648640057247
 20
2028.328494353945
 30
0.0
 11
6867.648640057247
 21
2006.953494353944
 31
0.0
  0
ARC
  5
26502
330
747D
100
AcDbEntity
  8
部品1
100
AcDbCircle
 10
6785.523640057246
 20
2080.878494353944
 30
0.0
 40
3.375
100
AcDbArc
 50
90.0
 51
180.0
  0
LINE
  5
26503
330
747D
100
AcDbEntity
  8
部品1
100
AcDbLine
 10
6782.148640057248
 20
2070.753494353944
 30
0.0
 11
6782.148640057248
 21
2070.753494353944
 31
0.0
  0
LINE
  5
26504
330
747D
100
AcDbEntity
  8
部品1
100
AcDbLine
 10
6782.148640057248
 20
2070.753494353944
 30
0.0
 11
6782.148640057248
 21
2080.878494353944
 31
0.0
  0
LINE
  5
26505
330
747D
100
AcDbEntity
  8
部品1
100
AcDbLine
 10
6778.773640057247
 20
2057.253494353944
 30
0.0
 11
6778.773640057247
 21
2067.378494353944
 31
0.0
  0
ARC
  5
26506
330
747D
100
AcDbEntity
  8
部品1
100
AcDbCircle
 10
6782.148640057248
 20
2067.378494353944
 30
0.0
 40
3.375
100
AcDbArc
 50
90.0
 51
180.0
  0
LINE
  5
26507
330
747D
100
AcDbEntity
  8
部品1
100
AcDbLine
 10
6728.148640057246
 20
2043.753494353944
 30
0.0
 11
6728.148640057246
 21
2053.878494353944
 31
0.0
  0
ARC
  5
26508
330
747D
100
AcDbEntity
  8
部品1
100
AcDbCircle
 10
6731.523640057247
 20
2053.878494353944
 30
0.0
 40
3.375
100
AcDbArc
 50
90.0
 51
180.0
  0
ARC
  5
26509
330
747D
100
AcDbEntity
  8
部品1
100
AcDbCircle
 10
6718.023640057245
 20
2037.743373982328
 30
0.0
 40
3.375
100
AcDbArc
 50
104.0362434679075
 51
180.0
  0
LINE
  5
2650A
330
747D
100
AcDbEntity
  8
部品1
100
AcDbLine
 10
6717.205082322748
 20
2041.017604920319
 30
0.0
 11
6728.148640057246
 21
2043.753494353944
 31
0.0
  0
LINE
  5
2650B
330
747D
100
AcDbEntity
  8
部品1
100
AcDbLine
 10
6731.523640057247
 20
2057.253494353944
 30
0.0
 11
6778.773640057247
 21
2057.253494353944
 31
0.0
  0
LINE
  5
2650C
330
747D
100
AcDbEntity
  8
部品1
100
AcDbLine
 10
6785.523640057246
 20
2084.253494353943
 30
0.0
 11
6838.398640057246
 21
2084.25349435394
 31
0.0
  0
ELLIPSE
  5
2650D
330
747D
100
AcDbEntity
  8
部品1
 48
50.0
100
AcDbEllipse
 10
6983.523640057248
 20
2281.157604909284
 30
0.0
 11
23.0
 21
0.0
 31
0.0
210
0.0
220
0.0
230
1.0
 40
0.3478260869565217
 41
0.0
 42
6.283185307179584
  0
ELLIPSE
  5
2650E
330
747D
100
AcDbEntity
  8
部品1
 48
50.0
100
AcDbEllipse
 10
6983.523640057248
 20
2281.157604909284
 30
0.0
 11
50.0
 21
0.0
 31
0.0
210
0.0
220
0.0
230
1.0
 40
0.4
 41
0.0
 42
6.283185307179584
  0
ELLIPSE
  5
2650F
330
747D
100
AcDbEntity
  8
部品1
 48
50.0
100
AcDbEllipse
 10
6983.523640057248
 20
2269.157604909284
 30
0.0
 11
50.0
 21
0.0
 31
0.0
210
0.0
220
0.0
230
1.0
 40
0.4
 41
3.141592653589792
 42
6.283185307179584
  0
LINE
  5
26510
330
747D
100
AcDbEntity
  8
部品1
 48
50.0
100
AcDbLine
 10
6963.523640057245
 20
2443.347595740372
 30
0.0
 11
7003.523640057247
 21
2443.347595740372
 31
0.0
  0
ELLIPSE
  5
26511
330
747D
100
AcDbEntity
  8
細線
 48
50.0
100
AcDbEllipse
 10
6983.523640057248
 20
2433.347595740373
 30
0.0
 11
18.45838483258558
 21
0.0
 31
0.0
210
0.0
220
0.0
230
1.0
 40
0.2071254069489396
 41
0.0
 42
6.283185307179584
  0
LINE
  5
26512
330
747D
100
AcDbEntity
  8
部品1
 48
50.0
100
AcDbLine
 10
6963.523640057245
 20
2383.347595740372
 30
0.0
 11
7003.523640057247
 21
2383.347595740372
 31
0.0
  0
LINE
  5
26513
330
747D
100
AcDbEntity
  8
部品1
 48
50.0
100
AcDbLine
 10
6963.523640057245
 20
2423.347595740372
 30
0.0
 11
7003.523640057247
 21
2423.347595740372
 31
0.0
  0
LINE
  5
26514
330
747D
100
AcDbEntity
  8
細線
 48
50.0
100
AcDbLine
 10
7062.273640057249
 20
1746.163847464679
 30
0.0
 11
7224.273640057248
 21
1908.163847464678
 31
0.0
  0
LINE
  5
26515
330
747D
100
AcDbEntity
  8
細線
 48
50.0
100
AcDbLine
 10
7062.273640057249
 20
1712.487887010658
 30
0.0
 11
7224.273640057248
 21
1874.487887010654
 31
0.0
  0
LINE
  5
26516
330
747D
100
AcDbEntity
  8
部品1
100
AcDbLine
 10
7039.773640057248
 20
1641.003494353942
 30
0.0
 11
7039.773640057248
 21
1663.503494353943
 31
0.0
  0
LINE
  5
26517
330
747D
100
AcDbEntity
  8
部品1
100
AcDbLine
 10
7062.273640057246
 20
1539.753494353942
 30
0.0
 11
7062.273640057246
 21
1944.753494353944
 31
0.0
  0
LINE
  5
26518
330
747D
100
AcDbEntity
  8
細線
 48
50.0
100
AcDbLine
 10
7062.273640057249
 20
1678.81192655664
 30
0.0
 11
7224.273640057248
 21
1840.81192655663
 31
0.0
  0
LINE
  5
26519
330
747D
100
AcDbEntity
  8
部品1
100
AcDbLine
 10
6876.648640057247
 20
1956.703494353944
 30
0.0
 11
6891.273640057248
 21
1956.703494353944
 31
0.0
  0
ARC
  5
2651A
330
747D
100
AcDbEntity
  8
部品1
100
AcDbCircle
 10
6912.97364005724
 20
1960.078494353943
 30
0.0
 40
3.375
100
AcDbArc
 50
180.0
 51
270.0
  0
ARC
  5
2651B
330
747D
100
AcDbEntity
  8
部品1
100
AcDbCircle
 10
6891.273640057248
 20
1960.078494353943
 30
0.0
 40
3.375
100
AcDbArc
 50
270.0
 51
0.0
  0
ARC
  5
2651C
330
747D
100
AcDbEntity
  8
部品1
100
AcDbCircle
 10
6718.023640057245
 20
1960.078494353943
 30
0.0
 40
3.375
100
AcDbArc
 50
180.0
 51
270.0
  0
LINE
  5
2651D
330
747D
100
AcDbEntity
  8
細線
 48
50.0
100
AcDbLine
 10
6706.773640057247
 20
1929.479214728825
 30
0.0
 11
6722.047919682366
 21
1944.753494353944
 31
0.0
  0
LINE
  5
2651E
330
747D
100
AcDbEntity
  8
部品1
100
AcDbLine
 10
6718.023640057245
 20
1956.703494353944
 30
0.0
 11
6732.648640057239
 21
1956.703494353944
 31
0.0
  0
LINE
  5
2651F
330
747D
100
AcDbEntity
  8
細線
 48
50.0
100
AcDbLine
 10
6706.773640057247
 20
1895.803254274816
 30
0.0
 11
6755.723880136378
 21
1944.753494353944
 31
0.0
  0
LINE
  5
26520
330
747D
100
AcDbEntity
  8
細線
 48
50.0
100
AcDbLine
 10
6706.773640057247
 20
1862.127293820806
 30
0.0
 11
6789.399840590384
 21
1944.753494353944
 31
0.0
  0
ARC
  5
26521
330
747D
100
AcDbEntity
  8
部品1
100
AcDbCircle
 10
6994.773640057245
 20
1663.503494353943
 30
0.0
 40
22.5
100
AcDbArc
 50
180.0
 51
270.0
  0
LINE
  5
26522
330
747D
100
AcDbEntity
  8
細線
 48
50.0
100
AcDbLine
 10
6706.773640057247
 20
1592.719610188732
 30
0.0
 11
6904.773640057242
 21
1790.719610188722
 31
0.0
  0
LINE
  5
26523
330
747D
100
AcDbEntity
  8
部品1
100
AcDbLine
 10
6904.773640057239
 20
1539.753494353942
 30
0.0
 11
6904.773640057247
 21
1944.753494353944
 31
0.0
  0
LINE
  5
26524
330
747D
100
AcDbEntity
  8
細線
 48
50.0
100
AcDbLine
 10
6706.773640057247
 20
1660.07153109675
 30
0.0
 11
6904.773640057245
 21
1858.071531096747
 31
0.0
  0
LINE
  5
26525
330
747D
100
AcDbEntity
  8
細線
 48
50.0
100
AcDbLine
 10
6706.773640057247
 20
1626.395570642741
 30
0.0
 11
6904.773640057245
 21
1824.395570642738
 31
0.0
  0
LINE
  5
26526
330
747D
100
AcDbEntity
  8
部品1
100
AcDbLine
 10
7062.273640057246
 20
1539.753494353942
 30
0.0
 11
6904.773640057239
 21
1539.753494353942
 31
0.0
  0
LINE
  5
26527
330
747D
100
AcDbEntity
  8
部品1
 48
50.0
100
AcDbLine
 10
6706.773640057247
 20
1944.753494353944
 30
0.0
 11
7224.273640057251
 21
1944.753494353944
 31
0.0
  0
LINE
  5
26528
330
747D
100
AcDbEntity
  8
部品1
100
AcDbLine
 10
6912.97364005724
 20
1956.703494353944
 30
0.0
 11
7164.648640057241
 21
1956.703494353944
 31
0.0
  0
LINE
  5
26529
330
747D
100
AcDbEntity
  8
部品1
100
AcDbLine
 10
6994.773640057245
 20
1641.003494353942
 30
0.0
 11
7039.773640057248
 21
1641.003494353942
 31
0.0
  0
LINE
  5
2652A
330
747D
100
AcDbEntity
  8
部品1
100
AcDbLine
 10
6994.773640057245
 20
1663.503494353943
 30
0.0
 11
7039.773640057248
 21
1663.503494353943
 31
0.0
  0
LINE
  5
2652B
330
747D
100
AcDbEntity
  8
部品1
100
AcDbLine
 10
6714.648640057247
 20
1960.078494353943
 30
0.0
 11
6714.648640057247
 21
2037.743373982328
 31
0.0
  0
LINE
  5
2652C
330
747D
100
AcDbEntity
  8
細線
100
AcDbLine
 10
6990.273640057246
 20
1956.703494353944
 30
0.0
 11
6990.273640057246
 21
2010.703494353944
 31
0.0
  0
LINE
  5
2652D
330
747D
100
AcDbEntity
  8
細線
100
AcDbLine
 10
6976.77364005725
 20
1956.703494353944
 30
0.0
 11
6976.773640057247
 21
2010.703494353944
 31
0.0
  0
LINE
  5
2652E
330
747D
100
AcDbEntity
  8
部品1
100
AcDbLine
 10
6894.648640057248
 20
2013.378494353944
 30
0.0
 11
6894.648640057248
 21
1960.078494353943
 31
0.0
  0
LINE
  5
2652F
330
747D
100
AcDbEntity
  8
部品1
100
AcDbLine
 10
6909.59864005725
 20
2028.328494353945
 30
0.0
 11
6909.598640057241
 21
1960.078494353943
 31
0.0
  0
LINE
  5
26530
330
747D
100
AcDbEntity
  8
部品1
100
AcDbLine
 10
6994.773640057245
 20
1663.503494353943
 30
0.0
 11
6994.773640057244
 21
2006.203494353944
 31
0.0
  0
LINE
  5
26531
330
747D
100
AcDbEntity
  8
部品1
100
AcDbLine
 10
6972.273640057247
 20
1663.503494353943
 30
0.0
 11
6972.273640057243
 21
2006.203494353944
 31
0.0
  0
TEXT
  5
26532
330
747D
100
AcDbEntity
  8
部品1
 48
50.0
100
AcDbText
 10
6189.09876276605
 20
1658.802234708012
 30
0.0
 40
100.0
  1
▽G.L
  7
STYLE2
100
AcDbText
  0
LWPOLYLINE
  5
26533
330
747D
100
AcDbEntity
  8
部品1
 48
50.0
100
AcDbPolyline
 90
        2
 70
     0
 43
10.0
 10
6189.09876276605
 20
1644.753494353945
 10
6706.773640057247
 20
1644.753494353945
  0
LINE
  5
26534
330
747D
100
AcDbEntity
  8
部品1
 48
50.0
100
AcDbLine
 10
7224.273640057248
 20
1264.753494353942
 30
0.0
 11
7384.273640057246
 21
1264.753494353942
 31
0.0
  0
LINE
  5
26535
330
747D
100
AcDbEntity
  8
細線
 48
50.0
100
AcDbLine
 10
7232.525809179534
 20
934.7534943539439
 30
0.0
 11
7224.487333406603
 21
964.7534943539424
 31
0.0
  0
LINE
  5
26536
330
747D
100
AcDbEntity
  8
細線
 48
50.0
100
AcDbLine
 10
7331.135865363608
 20
934.7534943539416
 30
0.0
 11
7323.097389590675
 21
964.7534943539415
 31
0.0
  0
LINE
  5
26537
330
747D
100
AcDbEntity
  8
細線
 48
50.0
100
AcDbLine
 10
7035.305696811433
 20
934.7534943539439
 30
0.0
 11
7027.267221038501
 21
964.7534943539424
 31
0.0
  0
LINE
  5
26538
330
747D
100
AcDbEntity
  8
細線
 48
50.0
100
AcDbLine
 10
7133.915752995491
 20
934.7534943539439
 30
0.0
 11
7125.877277222556
 21
964.7534943539424
 31
0.0
  0
LINE
  5
26539
330
747D
100
AcDbEntity
  8
細線
 48
50.0
100
AcDbLine
 10
7089.086337842738
 20
964.7534943539424
 30
0.0
 11
7384.273640057246
 21
1259.940796568453
 31
0.0
  0
LINE
  5
2653A
330
747D
100
AcDbEntity
  8
細線
 48
50.0
100
AcDbLine
 10
7122.762298296752
 20
964.7534943539424
 30
0.0
 11
7384.273640057246
 21
1226.264836114436
 31
0.0
  0
LINE
  5
2653B
330
747D
100
AcDbEntity
  8
細線
 48
50.0
100
AcDbLine
 10
7156.438258750757
 20
964.7534943539424
 30
0.0
 11
7384.273640057246
 21
1192.588875660439
 31
0.0
  0
LINE
  5
2653C
330
747D
100
AcDbEntity
  8
部品1
 48
50.0
100
AcDbLine
 10
7384.273640057246
 20
1264.753494353942
 30
0.0
 11
7384.273640057246
 21
964.7534943539424
 31
0.0
  0
LINE
  5
2653D
330
747D
100
AcDbEntity
  8
細線
 48
50.0
100
AcDbLine
 10
6838.085584443317
 20
934.7534943539439
 30
0.0
 11
6830.047108670385
 21
964.7534943539424
 31
0.0
  0
LINE
  5
2653E
330
747D
100
AcDbEntity
  8
細線
 48
50.0
100
AcDbLine
 10
6936.695640627374
 20
934.7534943539439
 30
0.0
 11
6928.657164854441
 21
964.7534943539424
 31
0.0
  0
LINE
  5
2653F
330
747D
100
AcDbEntity
  8
細線
 48
50.0
100
AcDbLine
 10
6640.865472075187
 20
934.7534943539439
 30
0.0
 11
6632.826996302253
 21
964.7534943539424
 31
0.0
  0
LINE
  5
26540
330
747D
100
AcDbEntity
  8
細線
 48
50.0
100
AcDbLine
 10
6739.475528259252
 20
934.7534943539439
 30
0.0
 11
6731.437052486319
 21
964.7534943539424
 31
0.0
  0
LINE
  5
26541
330
747D
100
AcDbEntity
  8
細線
 48
50.0
100
AcDbLine
 10
6819.678654210663
 20
964.7534943539424
 30
0.0
 11
7224.273640057245
 21
1369.348480200526
 31
0.0
  0
LINE
  5
26542
330
747D
100
AcDbEntity
  8
細線
 48
50.0
100
AcDbLine
 10
6853.354614664675
 20
964.7534943539424
 30
0.0
 11
7224.273640057248
 21
1335.672519746509
 31
0.0
  0
LINE
  5
26543
330
747D
100
AcDbEntity
  8
細線
 48
50.0
100
AcDbLine
 10
6887.030575118682
 20
964.7534943539424
 30
0.0
 11
7224.273640057248
 21
1301.996559292515
 31
0.0
  0
LINE
  5
26544
330
747D
100
AcDbEntity
  8
細線
 48
50.0
100
AcDbLine
 10
7205.730889936436
 20
834.7534943539425
 30
0.0
 11
7213.769365709385
 21
804.7534943539425
 31
0.0
  0
LINE
  5
26545
330
747D
100
AcDbEntity
  8
細線
 48
50.0
100
AcDbLine
 10
7304.340946120497
 20
834.7534943539416
 30
0.0
 11
7312.379421893432
 21
804.7534943539417
 31
0.0
  0
LINE
  5
26546
330
747D
100
AcDbEntity
  8
細線
 48
50.0
100
AcDbLine
 10
7008.51077756832
 20
834.7534943539425
 30
0.0
 11
7016.549253341256
 21
804.7534943539425
 31
0.0
  0
LINE
  5
26547
330
747D
100
AcDbEntity
  8
細線
 48
50.0
100
AcDbLine
 10
7107.12083375238
 20
834.7534943539425
 30
0.0
 11
7115.159309525314
 21
804.7534943539425
 31
0.0
  0
LINE
  5
26548
330
747D
100
AcDbEntity
  8
細線
 48
50.0
100
AcDbLine
 10
6811.290665200205
 20
834.7534943539425
 30
0.0
 11
6819.329140973138
 21
804.7534943539425
 31
0.0
  0
LINE
  5
26549
330
747D
100
AcDbEntity
  8
細線
 48
50.0
100
AcDbLine
 10
6909.900721384264
 20
834.7534943539425
 30
0.0
 11
6917.939197157197
 21
804.7534943539425
 31
0.0
  0
LINE
  5
2654A
330
747D
100
AcDbEntity
  8
細線
 48
50.0
100
AcDbLine
 10
6614.070552832076
 20
834.7534943539425
 30
0.0
 11
6622.109028605009
 21
804.7534943539425
 31
0.0
  0
LINE
  5
2654B
330
747D
100
AcDbEntity
  8
細線
 48
50.0
100
AcDbLine
 10
6712.680609016143
 20
834.7534943539425
 30
0.0
 11
6720.719084789076
 21
804.7534943539425
 31
0.0
  0
LINE
  5
2654C
330
747D
100
AcDbEntity
  8
細線
 48
50.0
100
AcDbLine
 10
7197.692414163498
 20
804.7534943539417
 30
0.0
 11
7240.564284952466
 21
964.7534943539424
 31
0.0
  0
LINE
  5
2654D
330
747D
100
AcDbEntity
  8
細線
 48
50.0
100
AcDbLine
 10
7296.302470347561
 20
804.75349435394
 30
0.0
 11
7339.174341136538
 21
964.7534943539399
 31
0.0
  0
LINE
  5
2654E
330
747D
100
AcDbEntity
  8
細線
 48
50.0
100
AcDbLine
 10
7000.472301795383
 20
804.7534943539417
 30
0.0
 11
7043.344172584363
 21
964.7534943539415
 31
0.0
  0
LINE
  5
2654F
330
747D
100
AcDbEntity
  8
細線
 48
50.0
100
AcDbLine
 10
6803.252189427265
 20
804.7534943539425
 30
0.0
 11
6846.124060216244
 21
964.7534943539424
 31
0.0
  0
LINE
  5
26550
330
747D
100
AcDbEntity
  8
細線
 48
50.0
100
AcDbLine
 10
6901.862245611322
 20
804.7534943539425
 30
0.0
 11
6944.734116400304
 21
964.7534943539415
 31
0.0
  0
LINE
  5
26551
330
747D
100
AcDbEntity
  8
細線
 48
50.0
100
AcDbLine
 10
7099.082357979437
 20
804.7534943539425
 30
0.0
 11
7141.954228768419
 21
964.7534943539415
 31
0.0
  0
LINE
  5
26552
330
747D
100
AcDbEntity
  8
細線
 48
50.0
100
AcDbLine
 10
6606.032077059143
 20
804.7534943539425
 30
0.0
 11
6648.90394784812
 21
964.7534943539424
 31
0.0
  0
LINE
  5
26553
330
747D
100
AcDbEntity
  8
細線
 48
50.0
100
AcDbLine
 10
6704.642133243199
 20
804.7534943539417
 30
0.0
 11
6747.514004032179
 21
964.7534943539415
 31
0.0
  0
LINE
  5
26554
330
747D
100
AcDbEntity
  8
細線
 48
50.0
100
AcDbLine
 10
6546.773640057239
 20
1230.663847464676
 30
0.0
 11
6580.863286946514
 21
1264.753494353942
 31
0.0
  0
LINE
  5
26555
330
747D
100
AcDbEntity
  8
細線
 48
50.0
100
AcDbLine
 10
6446.773640057246
 20
946.4283955611675
 30
0.0
 11
6451.683835479991
 21
964.7534943539424
 31
0.0
  0
LINE
  5
26556
330
747D
100
AcDbEntity
  8
細線
 48
50.0
100
AcDbLine
 10
6542.255415891124
 20
934.7534943539439
 30
0.0
 11
6534.216940118188
 21
964.7534943539424
 31
0.0
  0
LINE
  5
26557
330
747D
100
AcDbEntity
  8
部品1
 48
50.0
100
AcDbLine
 10
6546.773640057246
 20
964.7534943539424
 30
0.0
 11
6546.773640057246
 21
1264.753494353942
 31
0.0
  0
LINE
  5
26558
330
747D
100
AcDbEntity
  8
細線
 48
50.0
100
AcDbLine
 10
6515.46049664801
 20
834.7534943539425
 30
0.0
 11
6523.498972420944
 21
804.7534943539425
 31
0.0
  0
LINE
  5
26559
330
747D
100
AcDbEntity
  8
部品1
 48
50.0
100
AcDbLine
 10
6446.773640057251
 20
804.7534943539425
 30
0.0
 11
6446.773640057251
 21
964.7534943539424
 31
0.0
  0
LINE
  5
2655A
330
747D
100
AcDbEntity
  8
細線
 48
50.0
100
AcDbLine
 10
6507.422020875072
 20
804.7534943539417
 30
0.0
 11
6550.293891664049
 21
964.7534943539415
 31
0.0
  0
LINE
  5
2655B
330
747D
100
AcDbEntity
  8
細線
 48
50.0
100
AcDbLine
 10
6546.773640057239
 20
1196.987887010662
 30
0.0
 11
6614.539247400529
 21
1264.753494353942
 31
0.0
  0
LINE
  5
2655C
330
747D
100
AcDbEntity
  8
細線
 48
50.0
100
AcDbLine
 10
6546.773640057239
 20
1163.311926556657
 30
0.0
 11
6648.215207854534
 21
1264.753494353942
 31
0.0
  0
LINE
  5
2655D
330
747D
100
AcDbEntity
  8
部品1
 48
50.0
100
AcDbLine
 10
6546.773640057246
 20
1264.753494353942
 30
0.0
 11
6706.773640057247
 21
1264.753494353942
 31
0.0
  0
LINE
  5
2655E
330
747D
100
AcDbEntity
  8
細線
 48
50.0
100
AcDbLine
 10
6550.270970578589
 20
964.7534943539424
 30
0.0
 11
7224.273640057245
 21
1638.7561638326
 31
0.0
  0
LINE
  5
2655F
330
747D
100
AcDbEntity
  8
部品1
100
AcDbLine
 10
7224.273640057245
 20
1264.753494353942
 30
0.0
 11
7224.273640057248
 21
1944.753494353944
 31
0.0
  0
LINE
  5
26560
330
747D
100
AcDbEntity
  8
部品1
 48
50.0
100
AcDbLine
 10
6706.773640057247
 20
1264.753494353942
 30
0.0
 11
6706.773640057247
 21
1944.753494353944
 31
0.0
  0
LINE
  5
26561
330
747D
100
AcDbEntity
  8
細線
 48
50.0
100
AcDbLine
 10
6706.773640057247
 20
1356.987887010666
 30
0.0
 11
6904.773640057237
 21
1554.987887010652
 31
0.0
  0
LINE
  5
26562
330
747D
100
AcDbEntity
  8
細線
 48
50.0
100
AcDbLine
 10
6706.773640057247
 20
1323.311926556657
 30
0.0
 11
6923.215207854541
 21
1539.753494353942
 31
0.0
  0
LINE
  5
26563
330
747D
100
AcDbEntity
  8
細線
 48
50.0
100
AcDbLine
 10
6706.773640057247
 20
1390.663847464675
 30
0.0
 11
6904.773640057237
 21
1588.663847464669
 31
0.0
  0
LINE
  5
26564
330
747D
100
AcDbEntity
  8
細線
 48
50.0
100
AcDbLine
 10
6617.622891486606
 20
964.7534943539424
 30
0.0
 11
7224.273640057248
 21
1571.404242924579
 31
0.0
  0
LINE
  5
26565
330
747D
100
AcDbEntity
  8
細線
 48
50.0
100
AcDbLine
 10
6583.946931032601
 20
964.7534943539424
 30
0.0
 11
7224.273640057251
 21
1605.080203378587
 31
0.0
  0
TEXT
  5
26566
330
747D
100
AcDbEntity
  8
部品1
 48
50.0
100
AcDbText
 10
7229.715620412783
 20
2389.601845306694
 30
0.0
 40
100.0
  1
基礎ボルト(市販品)
  7
STYLE2
100
AcDbText
  0
DIMENSION
  5
26567
330
747D
100
AcDbEntity
  8
寸法
 48
50.0
100
AcDbDimension
  2
*D35
 10
8196.677722417085
 20
1944.753494353944
 30
0.0
 11
8196.677722417085
 21
1478.744590932462
 31
0.0
 70
   160
  1
20～25
 71
     5
 42
65.95000000000005
  3
INABA_S40G
100
AcDbAlignedDimension
 13
6990.273640057246
 23
2010.703494353944
 33
0.0
 14
7224.273640057248
 24
1944.753494353944
 34
0.0
 50
90.0
100
AcDbRotatedDimension
1001
ACAD
1000
DSTYLE
1002
{
1070
   341
1005
0
1002
}
  0
LINE
  5
26568
330
747D
100
AcDbEntity
  8
細線
 48
50.0
100
AcDbLine
 10
7394.912526531614
 20
804.7534943539417
 30
0.0
 11
7437.784397320597
 21
964.7534943539399
 31
0.0
  0
LINE
  5
26569
330
747D
100
AcDbEntity
  8
部品1
 48
50.0
100
AcDbLine
 10
7484.273640057249
 20
804.7534943539425
 30
0.0
 11
6446.773640057251
 21
804.7534943539425
 31
0.0
  0
LINE
  5
2656A
330
747D
100
AcDbEntity
  8
細線
 48
50.0
100
AcDbLine
 10
7402.951002304554
 20
834.7534943539416
 30
0.0
 11
7410.989478077488
 21
804.7534943539417
 31
0.0
  0
LINE
  5
2656B
330
747D
100
AcDbEntity
  8
部品1
 48
50.0
100
AcDbLine
 10
7484.273640057249
 20
964.7534943539424
 30
0.0
 11
6446.773640057251
 21
964.7534943539424
 31
0.0
  0
LWPOLYLINE
  5
2656C
330
747D
100
AcDbEntity
  8
部品1
 48
50.0
100
AcDbPolyline
 90
        2
 70
     0
 43
10.0
 10
7224.273640057248
 20
1644.753494353945
 10
7591.401719306478
 20
1644.753494353945
  0
DIMENSION
  5
2656D
330
747D
100
AcDbEntity
  8
寸法
 48
50.0
100
AcDbDimension
  2
*D36
 10
7851.609389768302
 20
1539.753494353942
 30
0.0
 11
7751.609389768302
 21
1742.253494353944
 31
0.0
 70
    32
  1
180
 71
     5
 42
405.000000000002
  3
INABA_S40G
100
AcDbAlignedDimension
 13
7224.273640057248
 23
1944.753494353944
 33
0.0
 14
7224.273640057248
 24
1539.753494353942
 34
0.0
 50
90.0
100
AcDbRotatedDimension
1001
ACAD
1000
DSTYLE
1002
{
1070
   341
1005
0
1002
}
  0
MTEXT
  5
2656E
102
{ACAD_REACTORS
330
2656F
102
}
330
747D
100
AcDbEntity
  8
部品1
 62
     7
 48
50.0
100
AcDbMText
 10
7235.454218081395
 20
2275.232652045482
 30
0.0
 40
100.0
 41
1.0
 71
     4
 72
     1
  1
M10X160
  7
STYLE2
 73
     1
 44
1.0
1001
ACAD
1000
MTEXTBEGIN
1070
    73
1070
     1
1070
    44
1040
1.0
1070
    74
1070
     0
1000
MTEXTEND
  0
LEADER
  5
2656F
330
747D
100
AcDbEntity
  8
寸法
 48
50.0
100
AcDbLeader
  3
INABA_S40G
 73
     0
 74
     0
 75
     1
 40
100.0
 41
543.75
 76
     3
 10
6994.773640057245
 20
2006.203494353944
 30
0.0
 10
7095.454218081396
 20
2185.232652045482
 30
0.0
 10
7195.454218081396
 20
2185.232652045482
 30
0.0
340
2656E
1001
ACAD
1000
DSTYLE
1002
{
1070
   341
1005
0
1002
}
  0
LINE
  5
26570
330
747D
100
AcDbEntity
  8
細線
 48
50.0
100
AcDbLine
 10
4581.724498585754
 20
1895.803254274816
 30
0.0
 11
4630.674738664885
 21
1944.753494353944
 31
0.0
  0
LINE
  5
26571
330
747D
100
AcDbEntity
  8
細線
 48
50.0
100
AcDbLine
 10
4581.724498585754
 20
1862.127293820806
 30
0.0
 11
4664.35069911889
 21
1944.753494353944
 31
0.0
  0
LINE
  5
26572
330
747D
100
AcDbEntity
  8
細線
 48
50.0
100
AcDbLine
 10
4581.724498585754
 20
1929.479214728825
 30
0.0
 11
4596.998778210873
 21
1944.753494353944
 31
0.0
  0
ARC
  5
26573
330
747D
100
AcDbEntity
  8
部品1
 48
50.0
100
AcDbCircle
 10
4701.724498585754
 20
1770.07153109675
 30
0.0
 40
30.0
100
AcDbArc
 50
0.0
 51
180.0
  0
CIRCLE
  5
26574
330
747D
100
AcDbEntity
  8
部品1
 48
50.0
100
AcDbCircle
 10
4701.724498585754
 20
1770.07153109675
 30
0.0
 40
10.0
  0
LINE
  5
26575
330
747D
100
AcDbEntity
  8
細線
 48
50.0
100
AcDbLine
 10
4691.724498585754
 20
1736.395570642741
 30
0.0
 11
4711.724498585755
 21
1756.395570642741
 31
0.0
  0
LINE
  5
26576
330
747D
100
AcDbEntity
  8
細線
 48
50.0
100
AcDbLine
 10
4731.724498585754
 20
1742.71961018873
 30
0.0
 11
4821.724498585754
 21
1832.719610188732
 31
0.0
  0
LINE
  5
26577
330
747D
100
AcDbEntity
  8
細線
 48
50.0
100
AcDbLine
 10
4731.165382668238
 20
1775.836454725221
 30
0.0
 11
4821.724498585754
 21
1866.395570642741
 31
0.0
  0
LINE
  5
26578
330
747D
100
AcDbEntity
  8
細線
 48
50.0
100
AcDbLine
 10
4717.340026713842
 20
1795.687059224838
 30
0.0
 11
4821.724498585754
 21
1900.07153109675
 31
0.0
  0
LINE
  5
26579
330
747D
100
AcDbEntity
  8
部品1
 48
50.0
100
AcDbLine
 10
4581.724498585754
 20
1944.753494353944
 30
0.0
 11
4821.724498585754
 21
1944.753494353944
 31
0.0
  0
LINE
  5
2657A
330
747D
100
AcDbEntity
  8
細線
 48
50.0
100
AcDbLine
 10
4581.724498585754
 20
1592.719610188732
 30
0.0
 11
4686.417401122373
 21
1697.412512725347
 31
0.0
  0
LINE
  5
2657B
330
747D
100
AcDbEntity
  8
部品1
 48
50.0
100
AcDbLine
 10
4691.724498585754
 20
1697.412512725347
 30
0.0
 11
4671.724498585754
 21
1697.412512725351
 31
0.0
  0
LINE
  5
2657C
330
747D
100
AcDbEntity
  8
細線
 48
50.0
100
AcDbLine
 10
4731.724498585761
 20
1473.311926556657
 30
0.0
 11
4821.724498585747
 21
1563.311926556657
 31
0.0
  0
LINE
  5
2657D
330
747D
100
AcDbEntity
  8
細線
 48
50.0
100
AcDbLine
 10
4731.724498585754
 20
1540.663847464674
 30
0.0
 11
4821.724498585754
 21
1630.663847464675
 31
0.0
  0
LINE
  5
2657E
330
747D
100
AcDbEntity
  8
細線
 48
50.0
100
AcDbLine
 10
4731.724498585761
 20
1506.98788701067
 30
0.0
 11
4821.724498585747
 21
1596.987887010663
 31
0.0
  0
LINE
  5
2657F
330
747D
100
AcDbEntity
  8
細線
 48
50.0
100
AcDbLine
 10
4581.724498585754
 20
1626.395570642741
 30
0.0
 11
4671.724498585754
 21
1716.395570642741
 31
0.0
  0
LINE
  5
26580
330
747D
100
AcDbEntity
  8
細線
 48
50.0
100
AcDbLine
 10
4581.724498585754
 20
1660.07153109675
 30
0.0
 11
4671.724498585754
 21
1750.07153109675
 31
0.0
  0
LINE
  5
26581
330
747D
100
AcDbEntity
  8
細線
 48
50.0
100
AcDbLine
 10
4691.724498585754
 20
1702.719610188732
 30
0.0
 11
4711.724498585755
 21
1722.719610188732
 31
0.0
  0
LINE
  5
26582
330
747D
100
AcDbEntity
  8
部品1
 48
50.0
100
AcDbLine
 10
4671.724498585754
 20
1697.412512725351
 30
0.0
 11
4671.724498585754
 21
1770.07153109675
 31
0.0
  0
LINE
  5
26583
330
747D
100
AcDbEntity
  8
部品1
 48
50.0
100
AcDbLine
 10
4691.724498585754
 20
1697.412512725347
 30
0.0
 11
4691.724498585754
 21
1770.07153109675
 31
0.0
  0
LEADER
  5
26584
330
747D
100
AcDbEntity
  8
寸法
 48
50.0
100
AcDbLeader
  3
INABA_S40G
 71
     0
 73
     0
 74
     0
 75
     1
 40
100.0
 41
222.7272727272727
 76
     3
 10
4701.724498585753
 20
1770.07153109675
 30
0.0
 10
4800.331919869998
 20
1696.337945977603
 30
0.0
 10
4900.331919869998
 20
1696.337945977603
 30
0.0
1001
ACAD
1000
DSTYLE
1002
{
1070
   341
1005
0
1002
}
  0
LWPOLYLINE
  5
26585
330
747D
100
AcDbEntity
  8
部品1
 48
50.0
100
AcDbPolyline
 90
        2
 70
     0
 43
10.0
 10
4821.724498585753
 20
1644.753494353945
 10
5339.399375876951
 20
1644.753494353945
  0
MTEXT
  5
26586
102
{ACAD_REACTORS
330
26584
102
}
330
747D
100
AcDbEntity
  8
寸法
 62
     7
 48
50.0
100
AcDbMText
 10
4925.331919869997
 20
1771.337945977603
 30
0.0
 40
100.0
 41
1.0
 71
     4
 72
     1
  1
D13
  7
STYLE2
 73
     1
 44
1.0
1001
ACAD
1000
MTEXTBEGIN
1070
    73
1070
     1
1070
    44
1040
1.0
1070
    74
1070
     0
1000
MTEXTEND
  0
LINE
  5
26587
330
747D
100
AcDbEntity
  8
細線
 48
50.0
100
AcDbLine
 10
5008.866611523999
 20
934.7534943539439
 30
0.0
 11
5000.828135751063
 21
964.7534943539424
 31
0.0
  0
LINE
  5
26588
330
747D
100
AcDbEntity
  8
細線
 48
50.0
100
AcDbLine
 10
4964.037196371246
 20
964.7534943539424
 30
0.0
 11
4981.724498585754
 21
982.4407965684516
 31
0.0
  0
MTEXT
  5
26589
102
{ACAD_REACTORS
330
265C8
102
}
330
747D
100
AcDbEntity
  8
寸法
 62
     7
 48
50.0
100
AcDbMText
 10
5110.88407334411
 20
1070.507158175227
 30
0.0
 40
100.0
 41
1.0
 71
     4
 72
     1
  1
D10
  7
STYLE2
 73
     1
 44
1.0
1001
ACAD
1000
MTEXTBEGIN
1070
    73
1070
     1
1070
    44
1040
1.0
1070
    74
1070
     0
1000
MTEXTEND
  0
LINE
  5
2658A
330
747D
100
AcDbEntity
  8
部品1
 48
50.0
100
AcDbLine
 10
4981.724498585754
 20
1264.753494353942
 30
0.0
 11
4981.724498585754
 21
964.7534943539424
 31
0.0
  0
LINE
  5
2658B
330
747D
100
AcDbEntity
  8
細線
 48
50.0
100
AcDbLine
 10
4982.071692280886
 20
834.7534943539425
 30
0.0
 11
4990.110168053821
 21
804.7534943539425
 31
0.0
  0
LINE
  5
2658C
330
747D
100
AcDbEntity
  8
細線
 48
50.0
100
AcDbLine
 10
5080.681748464943
 20
834.7534943539425
 30
0.0
 11
5081.724498585754
 21
830.861897923487
 31
0.0
  0
LINE
  5
2658D
330
747D
100
AcDbEntity
  8
細線
 48
50.0
100
AcDbLine
 10
5072.643272692008
 20
804.7534943539417
 30
0.0
 11
5081.724498585754
 21
838.6450907844286
 31
0.0
  0
MTEXT
  5
2658E
102
{ACAD_REACTORS
330
265C6
102
}
330
747D
100
AcDbEntity
  8
寸法
 62
     7
 48
50.0
100
AcDbMText
 10
5123.897568412318
 20
743.0671371887515
 30
0.0
 40
100.0
 41
1.0
 71
     4
 72
     1
  1
\A1;D10@300
  7
STYLE2
 73
     1
 44
1.0
1001
ACAD
1000
MTEXTBEGIN
1070
    73
1070
     1
1070
    44
1040
1.0
1070
    74
1070
     0
1000
MTEXTEND
  0
LINE
  5
2658F
330
747D
100
AcDbEntity
  8
部品1
 48
50.0
100
AcDbLine
 10
5081.724498585757
 20
964.7534943539424
 30
0.0
 11
5081.724498585757
 21
804.7534943539425
 31
0.0
  0
LINE
  5
26590
330
747D
100
AcDbEntity
  8
細線
 48
50.0
100
AcDbLine
 10
4974.033216507945
 20
804.7534943539425
 30
0.0
 11
5016.905087296926
 21
964.7534943539415
 31
0.0
  0
LINE
  5
26591
330
747D
100
AcDbEntity
  8
部品1
 48
50.0
100
AcDbLine
 10
4691.724498585754
 20
1187.412512725347
 30
0.0
 11
4671.724498585754
 21
1187.412512725347
 31
0.0
  0
LINE
  5
26592
330
747D
100
AcDbEntity
  8
細線
 48
50.0
100
AcDbLine
 10
4681.556807932509
 20
1187.412512725347
 30
0.0
 11
4711.724498585762
 21
1217.580203378595
 31
0.0
  0
LINE
  5
26593
330
747D
100
AcDbEntity
  8
細線
 48
50.0
100
AcDbLine
 10
4691.724498585754
 20
1163.904242924582
 30
0.0
 11
4711.724498585762
 21
1183.904242924582
 31
0.0
  0
LINE
  5
26594
330
747D
100
AcDbEntity
  8
細線
 48
50.0
100
AcDbLine
 10
4731.724498585761
 20
1237.580203378595
 30
0.0
 11
4821.724498585747
 21
1327.580203378588
 31
0.0
  0
LINE
  5
26595
330
747D
100
AcDbEntity
  8
細線
 48
50.0
100
AcDbLine
 10
4731.724498585761
 20
1271.256163832605
 30
0.0
 11
4821.724498585747
 21
1361.256163832601
 31
0.0
  0
LINE
  5
26596
330
747D
100
AcDbEntity
  8
細線
 48
50.0
100
AcDbLine
 10
4731.724498585761
 20
1203.904242924582
 30
0.0
 11
4821.724498585747
 21
1293.904242924582
 31
0.0
  0
LINE
  5
26597
330
747D
100
AcDbEntity
  8
細線
 48
50.0
100
AcDbLine
 10
4761.981433647188
 20
964.7534943539424
 30
0.0
 11
4881.98254345361
 21
1084.754604160368
 31
0.0
  0
LINE
  5
26598
330
747D
100
AcDbEntity
  8
部品1
 48
50.0
100
AcDbLine
 10
4911.724498585755
 20
1104.753494353942
 30
0.0
 11
4911.724498585755
 21
1084.753494353942
 31
0.0
  0
LINE
  5
26599
330
747D
100
AcDbEntity
  8
細線
 48
50.0
100
AcDbLine
 10
4910.25655533994
 20
934.7534943539439
 30
0.0
 11
4902.218079567006
 21
964.7534943539424
 31
0.0
  0
CIRCLE
  5
2659A
330
747D
100
AcDbEntity
  8
部品1
 48
50.0
100
AcDbCircle
 10
4861.724498585754
 20
1114.753494353942
 30
0.0
 40
10.0
  0
LINE
  5
2659B
330
747D
100
AcDbEntity
  8
細線
 48
50.0
100
AcDbLine
 10
4811.646499155882
 20
934.7534943539439
 30
0.0
 11
4803.608023382949
 21
964.7534943539424
 31
0.0
  0
ARC
  5
2659C
330
747D
100
AcDbEntity
  8
部品1
 48
50.0
100
AcDbCircle
 10
4701.724498585754
 20
1114.753494353942
 30
0.0
 40
30.0
100
AcDbArc
 50
340.5287793654709
 51
0.0
  0
LINE
  5
2659D
330
747D
100
AcDbEntity
  8
細線
 48
50.0
100
AcDbLine
 10
4713.036442971825
 20
934.7534943539439
 30
0.0
 11
4704.997967198891
 21
964.7534943539424
 31
0.0
  0
ARC
  5
2659E
330
747D
100
AcDbEntity
  8
部品1
 48
50.0
100
AcDbCircle
 10
4701.724498585754
 20
1114.753494353942
 30
0.0
 40
30.0
100
AcDbArc
 50
180.0
 51
199.471220634529
  0
LINE
  5
2659F
330
747D
100
AcDbEntity
  8
細線
 48
50.0
100
AcDbLine
 10
4614.426386787759
 20
934.7534943539439
 30
0.0
 11
4606.387911014826
 21
964.7534943539424
 31
0.0
  0
CIRCLE
  5
265A0
330
747D
100
AcDbEntity
  8
部品1
 48
50.0
100
AcDbCircle
 10
4701.724498585754
 20
1114.753494353942
 30
0.0
 40
10.0
  0
LINE
  5
265A1
330
747D
100
AcDbEntity
  8
細線
 48
50.0
100
AcDbLine
 10
4728.305473193183
 20
964.7534943539424
 30
0.0
 11
4848.305473193184
 21
1084.753494353942
 31
0.0
  0
LINE
  5
265A2
330
747D
100
AcDbEntity
  8
細線
 48
50.0
100
AcDbLine
 10
4694.629512739171
 20
964.7534943539424
 30
0.0
 11
4814.629512739172
 21
1084.753494353942
 31
0.0
  0
LINE
  5
265A3
330
747D
100
AcDbEntity
  8
細線
 48
50.0
100
AcDbLine
 10
4565.221829107096
 20
1104.753494353942
 30
0.0
 11
4711.724498585755
 21
1251.256163832601
 31
0.0
  0
LINE
  5
265A4
330
747D
100
AcDbEntity
  8
細線
 48
50.0
100
AcDbLine
 10
4632.573750015114
 20
1104.753494353942
 30
0.0
 11
4671.724498585754
 21
1143.904242924582
 31
0.0
  0
LINE
  5
265A5
330
747D
100
AcDbEntity
  8
部品1
 48
50.0
100
AcDbLine
 10
4671.724498585754
 20
1187.412512725347
 30
0.0
 11
4671.724498585754
 21
1114.753494353942
 31
0.0
  0
LINE
  5
265A6
330
747D
100
AcDbEntity
  8
細線
 48
50.0
100
AcDbLine
 10
4598.897789561108
 20
1104.753494353942
 30
0.0
 11
4671.724498585754
 21
1177.580203378592
 31
0.0
  0
LINE
  5
265A7
330
747D
100
AcDbEntity
  8
部品1
 48
50.0
100
AcDbLine
 10
4691.724498585754
 20
1187.412512725347
 30
0.0
 11
4691.724498585754
 21
1114.753494353942
 31
0.0
  0
LINE
  5
265A8
330
747D
100
AcDbEntity
  8
細線
 48
50.0
100
AcDbLine
 10
4421.724498585747
 20
1196.987887010662
 30
0.0
 11
4489.490105929035
 21
1264.753494353942
 31
0.0
  0
LINE
  5
265A9
330
747D
100
AcDbEntity
  8
細線
 48
50.0
100
AcDbLine
 10
4421.724498585747
 20
1230.663847464676
 30
0.0
 11
4455.814145475022
 21
1264.753494353942
 31
0.0
  0
LINE
  5
265AA
330
747D
100
AcDbEntity
  8
細線
 48
50.0
100
AcDbLine
 10
4421.724498585747
 20
1163.311926556657
 30
0.0
 11
4523.166066383041
 21
1264.753494353942
 31
0.0
  0
LINE
  5
265AB
330
747D
100
AcDbEntity
  8
部品1
 48
50.0
100
AcDbLine
 10
4491.724498585754
 20
1104.753494353942
 30
0.0
 11
4491.724498585754
 21
1084.753494353942
 31
0.0
  0
LINE
  5
265AC
330
747D
100
AcDbEntity
  8
細線
 48
50.0
100
AcDbLine
 10
4515.816330603693
 20
934.7534943539439
 30
0.0
 11
4507.777854830761
 21
964.7534943539424
 31
0.0
  0
LINE
  5
265AD
330
747D
100
AcDbEntity
  8
細線
 48
50.0
100
AcDbLine
 10
4417.206274419629
 20
934.7534943539439
 30
0.0
 11
4409.167798646697
 21
964.7534943539424
 31
0.0
  0
LINE
  5
265AE
330
747D
100
AcDbEntity
  8
細線
 48
50.0
100
AcDbLine
 10
4321.724498585754
 20
946.4283955611675
 30
0.0
 11
4326.634694008498
 21
964.7534943539424
 31
0.0
  0
LINE
  5
265AF
330
747D
100
AcDbEntity
  8
部品1
 48
50.0
100
AcDbLine
 10
4421.724498585754
 20
964.7534943539424
 30
0.0
 11
4421.724498585754
 21
1264.753494353942
 31
0.0
  0
LINE
  5
265B0
330
747D
100
AcDbEntity
  8
部品1
 48
50.0
100
AcDbLine
 10
4491.724498585754
 20
1084.753494353942
 30
0.0
 11
4911.724498585755
 21
1084.753494353942
 31
0.0
  0
LINE
  5
265B1
330
747D
100
AcDbEntity
  8
部品1
 48
50.0
100
AcDbLine
 10
4491.724498585754
 20
1104.753494353942
 30
0.0
 11
4911.724498585755
 21
1104.753494353942
 31
0.0
  0
LINE
  5
265B2
330
747D
100
AcDbEntity
  8
細線
 48
50.0
100
AcDbLine
 10
4492.573750015114
 20
964.7534943539424
 30
0.0
 11
4612.573750015115
 21
1084.753494353942
 31
0.0
  0
CIRCLE
  5
265B3
330
747D
100
AcDbEntity
  8
部品1
 48
50.0
100
AcDbCircle
 10
4541.724498585754
 20
1114.753494353942
 30
0.0
 40
10.0
  0
LINE
  5
265B4
330
747D
100
AcDbEntity
  8
細線
 48
50.0
100
AcDbLine
 10
4458.897789561109
 20
964.7534943539424
 30
0.0
 11
4578.89778956111
 21
1084.753494353942
 31
0.0
  0
LINE
  5
265B5
330
747D
100
AcDbEntity
  8
細線
 48
50.0
100
AcDbLine
 10
4425.221829107097
 20
964.7534943539424
 30
0.0
 11
4545.221829107098
 21
1084.753494353942
 31
0.0
  0
LINE
  5
265B6
330
747D
100
AcDbEntity
  8
部品1
 48
50.0
100
AcDbLine
 10
4421.724498585754
 20
1264.753494353942
 30
0.0
 11
4581.724498585754
 21
1264.753494353942
 31
0.0
  0
LINE
  5
265B7
330
747D
100
AcDbEntity
  8
細線
 48
50.0
100
AcDbLine
 10
4784.85157991277
 20
834.7534943539425
 30
0.0
 11
4792.890055685703
 21
804.7534943539425
 31
0.0
  0
LINE
  5
265B8
330
747D
100
AcDbEntity
  8
細線
 48
50.0
100
AcDbLine
 10
4883.461636096829
 20
834.7534943539425
 30
0.0
 11
4891.500111869762
 21
804.7534943539425
 31
0.0
  0
LINE
  5
265B9
330
747D
100
AcDbEntity
  8
細線
 48
50.0
100
AcDbLine
 10
4587.631467544649
 20
834.7534943539425
 30
0.0
 11
4595.669943317582
 21
804.7534943539425
 31
0.0
  0
LINE
  5
265BA
330
747D
100
AcDbEntity
  8
細線
 48
50.0
100
AcDbLine
 10
4686.241523728713
 20
834.7534943539425
 30
0.0
 11
4694.279999501645
 21
804.7534943539425
 31
0.0
  0
LINE
  5
265BB
330
747D
100
AcDbEntity
  8
細線
 48
50.0
100
AcDbLine
 10
4390.411355176517
 20
834.7534943539425
 30
0.0
 11
4398.449830949451
 21
804.7534943539425
 31
0.0
  0
LINE
  5
265BC
330
747D
100
AcDbEntity
  8
細線
 48
50.0
100
AcDbLine
 10
4489.021411360583
 20
834.7534943539425
 30
0.0
 11
4497.059887133517
 21
804.7534943539425
 31
0.0
  0
LINE
  5
265BD
330
747D
100
AcDbEntity
  8
細線
 48
50.0
100
AcDbLine
 10
4776.813104139828
 20
804.7534943539425
 30
0.0
 11
4819.684974928811
 21
964.7534943539415
 31
0.0
  0
LINE
  5
265BE
330
747D
100
AcDbEntity
  8
細線
 48
50.0
100
AcDbLine
 10
4480.98293558765
 20
804.7534943539425
 30
0.0
 11
4523.854806376627
 21
964.7534943539424
 31
0.0
  0
LINE
  5
265BF
330
747D
100
AcDbEntity
  8
細線
 48
50.0
100
AcDbLine
 10
4579.592991771707
 20
804.7534943539417
 30
0.0
 11
4622.464862560685
 21
964.7534943539415
 31
0.0
  0
LINE
  5
265C0
330
747D
100
AcDbEntity
  8
細線
 48
50.0
100
AcDbLine
 10
4382.372879403578
 20
804.7534943539417
 30
0.0
 11
4425.244750192557
 21
964.7534943539415
 31
0.0
  0
LINE
  5
265C1
330
747D
100
AcDbEntity
  8
部品1
 48
50.0
100
AcDbLine
 10
4321.724498585758
 20
804.7534943539425
 30
0.0
 11
4321.724498585758
 21
964.7534943539424
 31
0.0
  0
LINE
  5
265C2
330
747D
100
AcDbEntity
  8
細線
 48
50.0
100
AcDbLine
 10
4678.203047955772
 20
804.7534943539425
 30
0.0
 11
4721.074918744751
 21
964.7534943539424
 31
0.0
  0
LINE
  5
265C3
330
747D
100
AcDbEntity
  8
細線
 48
50.0
100
AcDbLine
 10
4875.423160323891
 20
804.7534943539417
 30
0.0
 11
4918.295031112871
 21
964.7534943539415
 31
0.0
  0
LINE
  5
265C4
330
747D
100
AcDbEntity
  8
部品1
 48
50.0
100
AcDbLine
 10
5081.724498585757
 20
804.7534943539425
 30
0.0
 11
4321.724498585758
 21
804.7534943539425
 31
0.0
  0
LINE
  5
265C5
330
747D
100
AcDbEntity
  8
部品1
 48
50.0
100
AcDbLine
 10
5081.724498585757
 20
964.7534943539424
 30
0.0
 11
4321.724498585758
 21
964.7534943539424
 31
0.0
  0
LEADER
  5
265C6
330
747D
100
AcDbEntity
  8
寸法
 48
50.0
100
AcDbLeader
  3
INABA_S40G
 71
     0
 73
     0
 74
     0
 75
     1
 40
100.0
 41
540.3409090909091
 76
     3
 10
4794.155959852221
 20
1093.827831337036
 30
0.0
 10
4998.897568412319
 20
666.7893088434148
 30
0.0
 10
5098.897568412319
 20
666.7893088434148
 30
0.0
213
0.0
223
-1.277828345336728
233
0.0
1001
ACAD
1000
DSTYLE
1002
{
1070
   341
1005
0
1002
}
  0
DIMENSION
  5
265C7
330
747D
100
AcDbEntity
  8
寸法
 48
50.0
100
AcDbDimension
  2
*D37
 10
4981.724498585754
 20
505.8013878980094
 30
0.0
 11
4701.724498585753
 21
505.8013878980094
 31
0.0
 70
   160
  1
300
 71
     5
 42
560.0000000000009
  3
INABA_S40G
100
AcDbAlignedDimension
 13
4421.724498585753
 23
804.7534943539425
 33
0.0
 14
4981.724498585754
 24
804.7534943539425
 34
0.0
100
AcDbRotatedDimension
1001
ACAD
1000
DSTYLE
1002
{
1070
   341
1005
0
1002
}
  0
LEADER
  5
265C8
330
747D
100
AcDbEntity
  8
寸法
 48
50.0
100
AcDbLeader
  3
INABA_S40G
 71
     0
 73
     0
 74
     0
 75
     1
 40
100.0
 41
225.0
 76
     3
 10
4861.603189025933
 20
1114.753494353942
 30
0.0
 10
4985.884073344111
 20
995.5071581752276
 30
0.0
 10
5085.884073344111
 20
995.5071581752276
 30
0.0
1001
ACAD
1000
DSTYLE
1002
{
1070
   341
1005
0
1002
}
  0
LINE
  5
265C9
330
747D
100
AcDbEntity
  8
細線
 48
50.0
100
AcDbLine
 10
4834.629512739164
 20
1104.753494353942
 30
0.0
 11
4981.724498585754
 21
1251.848480200526
 31
0.0
  0
LINE
  5
265CA
330
747D
100
AcDbEntity
  8
細線
 48
50.0
100
AcDbLine
 10
4901.98143364719
 20
1104.753494353942
 30
0.0
 11
4981.724498585754
 21
1184.496559292508
 31
0.0
  0
LINE
  5
265CB
330
747D
100
AcDbEntity
  8
細線
 48
50.0
100
AcDbLine
 10
4868.305473193185
 20
1104.753494353942
 30
0.0
 11
4981.724498585754
 21
1218.172519746517
 31
0.0
  0
LINE
  5
265CC
330
747D
100
AcDbEntity
  8
部品1
 48
50.0
100
AcDbLine
 10
4821.724498585754
 20
1264.753494353942
 30
0.0
 11
4981.724498585754
 21
1264.753494353942
 31
0.0
  0
LINE
  5
265CD
330
747D
100
AcDbEntity
  8
部品1
 48
50.0
100
AcDbLine
 10
4731.724498585761
 20
1114.753494353942
 30
0.0
 11
4731.724498585754
 21
1770.07153109675
 31
0.0
  0
LINE
  5
265CE
330
747D
100
AcDbEntity
  8
部品1
 48
50.0
100
AcDbLine
 10
4711.724498585762
 20
1114.753494353942
 30
0.0
 11
4711.724498585747
 21
1770.07153109675
 31
0.0
  0
LINE
  5
265CF
330
747D
100
AcDbEntity
  8
部品1
 48
50.0
100
AcDbLine
 10
4581.724498585754
 20
1264.753494353942
 30
0.0
 11
4581.724498585754
 21
1944.753494353944
 31
0.0
  0
LINE
  5
265D0
330
747D
100
AcDbEntity
  8
細線
 48
50.0
100
AcDbLine
 10
4581.724498585754
 20
1356.987887010666
 30
0.0
 11
4711.724498585762
 21
1486.98788701067
 31
0.0
  0
LINE
  5
265D1
330
747D
100
AcDbEntity
  8
細線
 48
50.0
100
AcDbLine
 10
4581.724498585754
 20
1390.663847464675
 30
0.0
 11
4711.724498585755
 21
1520.663847464676
 31
0.0
  0
LINE
  5
265D2
330
747D
100
AcDbEntity
  8
細線
 48
50.0
100
AcDbLine
 10
4581.724498585754
 20
1323.311926556657
 30
0.0
 11
4711.724498585762
 21
1453.311926556657
 31
0.0
  0
LINE
  5
265D3
330
747D
100
AcDbEntity
  8
部品1
 48
50.0
100
AcDbLine
 10
4821.724498585754
 20
1944.753494353944
 30
0.0
 11
4821.724498585754
 21
1264.753494353942
 31
0.0
  0
MTEXT
  5
265D4
102
{ACAD_REACTORS
330
265D5
102
}
330
747D
100
AcDbEntity
  8
寸法
 62
     7
 48
50.0
100
AcDbMText
 10
4208.05571584176
 20
860.350127330898
 30
0.0
 40
100.0
 41
1.0
 71
     6
 72
     1
  1
D10
  7
STYLE2
 73
     1
 44
1.0
1001
ACAD
1000
MTEXTBEGIN
1070
    73
1070
     1
1070
    44
1040
1.0
1070
    74
1070
     0
1000
MTEXTEND
  0
LEADER
  5
265D5
330
747D
100
AcDbEntity
  8
寸法
 48
50.0
100
AcDbLeader
  3
INABA_S40G
 71
     0
 73
     0
 75
     1
 40
100.0
 41
225.0
 76
     3
 10
4541.603189025932
 20
1114.753494353942
 30
0.0
 10
4333.05571584176
 20
785.3501273308978
 30
0.0
 10
4233.05571584176
 20
785.3501273308978
 30
0.0
1001
ACAD
1000
DSTYLE
1002
{
1070
   341
1005
0
1002
}
  0
LEADER
  5
265D6
330
747D
100
AcDbEntity
  8
寸法
 48
50.0
100
AcDbLeader
  3
INABA_S40G
 71
     0
 73
     0
 75
     1
 40
100.0
 41
222.7272727272727
 76
     3
 10
4701.724498585753
 20
1114.753494353942
 30
0.0
 10
4368.209125288555
 20
559.9549366565939
 30
0.0
 10
4268.209125288556
 20
559.9549366565939
 30
0.0
1001
ACAD
1000
DSTYLE
1002
{
1070
   341
1005
0
1002
}
  0
MTEXT
  5
265D7
102
{ACAD_REACTORS
330
265D6
102
}
330
747D
100
AcDbEntity
  8
寸法
 62
     7
 48
50.0
100
AcDbMText
 10
4243.209125288553
 20
634.9549366565939
 30
0.0
 40
100.0
 41
1.0
 71
     6
 72
     1
  1
D13
  7
STYLE2
 73
     1
 44
1.0
1001
ACAD
1000
MTEXTBEGIN
1070
    73
1070
     1
1070
    44
1040
1.0
1070
    74
1070
     0
1000
MTEXTEND
  0
MTEXT
  5
265D8
102
{ACAD_REACTORS
330
265D9
102
}
330
747D
100
AcDbEntity
  8
寸法
 62
     7
 48
50.0
100
AcDbMText
 10
4470.161930807248
 20
1446.379247875763
 30
0.0
 40
100.0
 41
1.0
 71
     6
 72
     1
  1
\A1;D10@300
  7
STYLE2
 73
     1
 44
1.0
1001
ACAD
1000
MTEXTBEGIN
1070
    73
1070
     1
1070
    44
1040
1.0
1070
    74
1070
     0
1000
MTEXTEND
  0
LEADER
  5
265D9
330
747D
100
AcDbEntity
  8
寸法
 48
50.0
100
AcDbLeader
  3
INABA_S40G
 71
     0
 73
     0
 75
     1
 40
100.0
 41
540.3409090909091
 76
     3
 10
4711.724498585755
 20
1642.412512725347
 30
0.0
 10
4582.996702924881
 20
1365.574602049342
 30
0.0
 10
4482.996702924881
 20
1365.574602049342
 30
0.0
213
-12.16522788236671
223
-5.804645826423211
233
0.0
1001
ACAD
1000
DSTYLE
1002
{
1070
   341
1005
0
1002
}
  0
LEADER
  5
265DA
330
747D
100
AcDbEntity
  8
寸法
 48
50.0
100
AcDbLeader
  3
INABA_S40G
 71
     0
 73
     0
 75
     1
 40
130.1136363636363
 41
651.1363636363636
 76
     3
 10
4681.724498585754
 20
1944.753494353944
 30
0.0
 10
4622.806498667471
 20
2120.341951174678
 30
0.0
 10
4522.80649866747
 20
2120.341951174678
 30
0.0
1001
ACAD
1000
DSTYLE
1002
{
1070
   341
1005
0
1002
}
  0
MTEXT
  5
265DB
102
{ACAD_REACTORS
330
265DA
102
}
330
747D
100
AcDbEntity
  8
寸法
 62
     7
 48
50.0
100
AcDbMText
 10
4497.806498667471
 20
2210.398769356497
 30
0.0
 40
100.0
 41
1.0
 71
     6
 72
     1
  1
\A1;金コテ押エ
  7
STYLE2
 73
     1
 44
1.0
1001
ACAD
1000
MTEXTBEGIN
1070
    73
1070
     1
1070
    44
1040
1.0
1070
    74
1070
     0
1000
MTEXTEND
  0
DIMENSION
  5
265DC
330
747D
100
AcDbEntity
  8
寸法
 48
50.0
100
AcDbDimension
  2
*D38
 10
3821.079560549691
 20
964.7534943539426
 30
0.0
 11
3821.079560549691
 21
1454.753494353943
 31
0.0
 70
   160
  1
540
 71
     5
 42
980.0000000000014
  3
INABA_S40G
100
AcDbAlignedDimension
 13
4581.724498585753
 23
1944.753494353944
 33
0.0
 14
4321.724498585758
 24
964.7534943539424
 34
0.0
 50
90.0
100
AcDbRotatedDimension
1001
ACAD
1000
DSTYLE
1002
{
1070
   341
1005
0
1002
}
  0
DIMENSION
  5
265DD
330
747D
100
AcDbEntity
  8
寸法
 48
50.0
100
AcDbDimension
  2
*D39
 10
4243.699106420178
 20
964.7534943539424
 30
0.0
 11
4243.699106420178
 21
1114.753494353942
 31
0.0
 70
   160
  1
150
 71
     5
 42
299.9999999999994
  3
INABA_S40G
100
AcDbAlignedDimension
 13
4421.724498585753
 23
1264.753494353942
 33
0.0
 14
4321.724498585758
 24
964.7534943539424
 34
0.0
 50
90.0
100
AcDbRotatedDimension
1001
ACAD
1000
DSTYLE
1002
{
1070
   341
1005
0
1002
}
  0
LWPOLYLINE
  5
265DE
330
747D
100
AcDbEntity
  8
部品1
 48
50.0
100
AcDbPolyline
 90
        2
 70
     0
 43
10.0
 10
4064.049621294558
 20
1644.753494353945
 10
4581.724498585753
 20
1644.753494353945
  0
TEXT
  5
265DF
330
747D
100
AcDbEntity
  8
部品1
 48
50.0
100
AcDbText
 10
4064.049621294558
 20
1658.802234708012
 30
0.0
 40
100.0
  1
▽G.L
  7
STYLE2
100
AcDbText
  0
LEADER
  5
265E0
330
747D
100
AcDbEntity
  8
寸法
 48
50.0
100
AcDbLeader
  3
INABA_S40G
 73
     0
 75
     1
 40
132.9545454545455
 41
1116.477272727273
 76
     3
 10
6871.023640057249
 20
2031.703494353944
 30
0.0
 10
6762.993549626073
 20
2490.52796274936
 30
0.0
 10
6662.993549626072
 20
2490.52796274936
 30
0.0
340
265E1
1001
ACAD
1000
DSTYLE
1002
{
1070
   341
1005
0
1002
}
  0
MTEXT
  5
265E1
102
{ACAD_REACTORS
330
265E0
102
}
330
747D
100
AcDbEntity
  8
寸法
 62
     7
 48
50.0
100
AcDbMText
 10
6622.993549626073
 20
2597.005235476633
 30
0.0
 40
100.0
 41
1.0
 71
     6
 72
     1
  1
\A1;アンカープレート L
  7
STYLE2
 73
     1
 44
1.0
1001
ACAD
1000
MTEXTBEGIN
1070
    73
1070
     1
1070
    44
1040
1.0
1070
    74
1070
     0
1000
MTEXTEND
  0
MTEXT
  5
265E2
102
{ACAD_REACTORS
330
265E3
102
}
330
747D
100
AcDbEntity
  8
部品1
 62
     7
 48
50.0
100
AcDbMText
 10
7233.966103948944
 20
3051.584064169004
 30
0.0
 40
100.0
 41
1.0
 71
     4
 72
     1
  1
\A1;ナット(市販品)
  7
STYLE2
 73
     1
 44
1.0
1001
ACAD
1000
MTEXTBEGIN
1070
    73
1070
     1
1070
    44
1040
1.0
1070
    74
1070
     0
1000
MTEXTEND
  0
LEADER
  5
265E3
330
747D
100
AcDbEntity
  8
寸法
 48
50.0
100
AcDbLeader
  3
INABA_S40G
 73
     0
 74
     0
 75
     1
 40
127.8409090909091
 41
850.0
 76
     3
 10
7003.523640057247
 20
2443.347595740372
 30
0.0
 10
7093.966103948943
 20
2947.66360962355
 30
0.0
 10
7193.966103948944
 20
2947.66360962355
 30
0.0
340
265E2
1001
ACAD
1000
DSTYLE
1002
{
1070
   341
1005
0
1002
}
  0
MTEXT
  5
265E4
102
{ACAD_REACTORS
330
265E5
102
}
330
747D
100
AcDbEntity
  8
部品1
 62
     7
 48
50.0
100
AcDbMText
 10
7273.363128018297
 20
2820.372710713019
 30
0.0
 40
100.0
 41
1.0
 71
     4
 72
     1
  1
\A1;ワッシャー(市販品)
  7
STYLE2
 73
     1
 44
1.0
1001
ACAD
1000
MTEXTBEGIN
1070
    73
1070
     1
1070
    44
1040
1.0
1070
    74
1070
     0
1000
MTEXTEND
  0
LEADER
  5
265E5
330
747D
100
AcDbEntity
  8
寸法
 48
50.0
100
AcDbLeader
  3
INABA_S40G
 73
     0
 74
     0
 75
     1
 40
127.8409090909091
 41
1133.522727272727
 76
     3
 10
7033.523640057246
 20
2281.157604909294
 30
0.0
 10
7133.363128018297
 20
2716.452256167565
 30
0.0
 10
7233.363128018297
 20
2716.452256167565
 30
0.0
340
265E4
1001
ACAD
1000
DSTYLE
1002
{
1070
   341
1005
0
1002
}
  0
DIMENSION
  5
265E6
330
747D
100
AcDbEntity
  8
寸法
 48
50.0
100
AcDbDimension
  2
*D40
 10
4581.724498585753
 20
2469.338254249419
 30
0.0
 11
4701.724498585753
 21
2469.338254249419
 31
0.0
 70
   160
  1
120\P(195)
 71
     5
 42
240.0
  3
INABA_S40G
100
AcDbAlignedDimension
 13
4821.724498585753
 23
1944.753494353944
 33
0.0
 14
4581.724498585753
 24
1944.753494353944
 34
0.0
100
AcDbRotatedDimension
1001
ACAD
1000
DSTYLE
1002
{
1070
   341
1005
0
1002
}
  0
LINE
  5
265E7
330
747D
100
AcDbEntity
  8
部品1
100
AcDbLine
 10
3462.923807033976
 20
3595.968019074998
 30
0.0
 11
3462.923807033976
 21
336.8985197203115
 31
0.0
  0
MTEXT
  5
265E8
102
{ACAD_REACTORS
330
265E9
102
}
330
747D
100
AcDbEntity
  8
寸法
 62
     7
 48
50.0
100
AcDbMText
 10
6589.689791865625
 20
3047.860575361026
 30
0.0
 40
100.0
 41
1.0
 71
     6
 72
     1
  1
\A1;φ70スリーブ
  7
STYLE2
 73
     1
 44
1.0
1001
ACAD
1000
MTEXTBEGIN
1070
    73
1070
     1
1070
    44
1040
1.0
1070
    74
1070
     0
1000
MTEXTEND
  0
LEADER
  5
265E9
330
747D
100
AcDbEntity
  8
寸法
 48
50.0
100
AcDbLeader
  3
INABA_S40G
 73
     0
 75
     1
 40
141.4772727272727
 41
760.7954545454546
 76
     3
 10
6944.444577729808
 20
1881.648086051792
 30
0.0
 10
6729.689791865625
 20
2937.12193899739
 30
0.0
 10
6629.689791865626
 20
2937.12193899739
 30
0.0
340
265E8
1001
ACAD
1000
DSTYLE
1002
{
1070
   341
1005
0
1002
}
  0
LINE
  5
265EA
330
747D
100
AcDbEntity
  8
部品1
100
AcDbLine
 10
10359.398503132
 20
3595.968019075
 30
0.0
 11
3462.923807033971
 21
3595.968019074998
 31
0.0
  0
LINE
  5
265EB
330
747D
100
AcDbEntity
  8
部品1
100
AcDbLine
 10
10359.398503132
 20
3295.968019074999
 30
0.0
 11
3462.923807033971
 21
3295.968019074999
 31
0.0
  0
LINE
  5
265EC
330
747D
100
AcDbEntity
  8
部品1
100
AcDbLine
 10
3462.923807033971
 20
336.8985197203115
 30
0.0
 11
10359.398503132
 21
336.8985197203115
 31
0.0
  0
LINE
  5
265ED
330
747D
100
AcDbEntity
  8
部品1
100
AcDbLine
 10
8868.887575312863
 20
1370.129849787252
 30
0.0
 11
9768.887575312863
 21
1370.129849787256
 31
0.0
  0
LINE
  5
265EE
330
747D
100
AcDbEntity
  8
部品1
100
AcDbLine
 10
8868.887575312863
 20
1530.129849787256
 30
0.0
 11
9768.887575312863
 21
1530.129849787259
 31
0.0
  0
LWPOLYLINE
  5
265EF
330
747D
100
AcDbEntity
  8
部品1
 48
50.0
100
AcDbPolyline
 90
        2
 70
     0
 43
15.0
 10
8538.123497687378
 20
1644.753494353943
 10
10039.48887660191
 20
1644.753494353943
  0
LINE
  5
265F0
330
747D
100
AcDbEntity
  8
細線
100
AcDbLine
 10
9010.183068437024
 20
1530.129849787256
 30
0.0
 11
9124.806713003714
 21
1644.753494353943
 31
0.0
  0
LINE
  5
265F1
330
747D
100
AcDbEntity
  8
部品1
100
AcDbLine
 10
9018.887575312863
 20
1944.753494353944
 30
0.0
 11
9618.887575312863
 21
1944.753494353944
 31
0.0
  0
LINE
  5
265F2
330
747D
100
AcDbEntity
  8
細線
100
AcDbLine
 10
9198.539632102052
 20
1644.753494353943
 30
0.0
 11
9018.887575312863
 21
1824.405551143134
 31
0.0
  0
LINE
  5
265F3
330
747D
100
AcDbEntity
  8
細線
100
AcDbLine
 10
9262.179242408844
 20
1644.753494353943
 30
0.0
 11
9018.887575312863
 21
1888.045161449922
 31
0.0
  0
HATCH
  5
26740
330
747D
100
AcDbEntity
  8
細線
 48
50.0
100
AcDbHatch
 10
0.0
 20
0.0
 30
0.0
210
0.0
220
0.0
230
1.0
  2
LINE
 70
     0
 71
     1
 91
        6
 92
        7
 72
     0
 73
     1
 93
        4
 10
7218.600000000009
 20
8913.352553667941
 10
7018.600000000006
 20
8913.352553667939
 10
7018.600000000009
 20
8793.352553667942
 10
7218.600000000009
 20
8793.352553667942
 97
        4
330
215F2
330
218BD
330
218A3
330
218BE
 92
        7
 72
     0
 73
     1
 93
        4
 10
6128.599999999998
 20
7273.352553667938
 10
6008.600000000001
 20
7273.352553667939
 10
6008.600000000001
 20
7073.352553667941
 10
6128.599999999998
 20
7073.352553667938
 97
        4
330
218AB
330
2160A
330
2175A
330
21609
 92
        7
 72
     0
 73
     1
 93
        4
 10
7218.599999999999
 20
5553.352553667949
 10
7018.600000000002
 20
5553.352553667949
 10
7018.600000000002
 20
5358.352553667935
 10
7218.600000000002
 20
5358.352553667938
 97
        4
330
2166C
330
2175D
330
2166D
330
2179D
 92
        7
 72
     0
 73
     1
 93
        4
 10
9428.600000000017
 20
5553.352553667956
 10
9228.600000000017
 20
5553.352553667952
 10
9228.600000000017
 20
5433.352553667948
 10
9428.600000000017
 20
5433.352553667951
 97
        4
330
215EC
330
21943
330
215F0
330
21945
 92
        7
 72
     0
 73
     1
 93
        4
 10
10438.6
 20
7273.352553667945
 10
10318.6
 20
7273.352553667942
 10
10318.6
 20
7073.352553667941
 10
10438.6
 20
7073.352553667942
 97
        4
330
21965
330
218C8
330
21952
330
218C7
 92
        7
 72
     0
 73
     1
 93
        4
 10
9428.60000000001
 20
8913.352553667941
 10
9228.60000000001
 20
8913.352553667941
 10
9228.600000000005
 20
8793.352553667942
 10
9428.600000000006
 20
8793.352553667942
 97
        4
330
215F2
330
2195E
330
215EE
330
21962
 75
     0
 76
     1
 52
45.0
 41
10.0
 77
     0
 78
     1
 53
45.0
 43
0.0
 44
0.0
 45
-22.45064030267288
 46
22.45064030267288
 79
     0
 47
19.44729887593794
 98
        6
 10
7096.530826137402
 20
8850.52552913363
 10
6045.924877114527
 20
7178.05784203516
 10
7115.98649736315
 20
5427.800919843379
 10
9314.476751537617
 20
5486.142836525498
 10
10384.53837178623
 20
7139.163243764234
 10
9372.843765214858
 20
8850.52552913363
  0
ENDSEC
  0
SECTION
  2
OBJECTS
  0
DICTIONARY
  5
7471
330
0
100
AcDbDictionary
281
     1
  3
ACAD_COLOR
350
173D2
  3
ACAD_GROUP
350
7472
  3
ACAD_LAYOUT
350
173D3
  3
ACAD_MATERIAL
350
173D1
  3
ACAD_MLINESTYLE
350
7473
  3
ACAD_PLOTSETTINGS
350
173D4
  3
ACAD_PLOTSTYLENAME
350
173CF
  3
ACDBHEADERROUNDTRIPXREC
350
26908
  3
AcDbVariableDictionary
350
2674B
  3
CONTENTDICTIONARY
350
E71C
  3
DRAWINGVARIABLESDICT
350
F3B9
  0
DICTIONARY
  5
1758F
330
7467
100
AcDbDictionary
280
     1
281
     1
  3
ACAD_LAYERSTATES
360
17590
  0
DICTIONARY
  5
173D2
102
{ACAD_REACTORS
330
7471
102
}
330
7471
100
AcDbDictionary
281
     1
  0
DICTIONARY
  5
7472
102
{ACAD_REACTORS
330
7471
102
}
330
7471
100
AcDbDictionary
281
     1
  3
*A1
350
1D2A9
  0
DICTIONARY
  5
173D3
102
{ACAD_REACTORS
330
7471
102
}
330
7471
100
AcDbDictionary
281
     1
  3
Model
350
173D5
  3
レイアウト1
350
173D6
  0
DICTIONARY
  5
173D1
102
{ACAD_REACTORS
330
7471
102
}
330
7471
100
AcDbDictionary
281
     1
  0
DICTIONARY
  5
7473
102
{ACAD_REACTORS
330
7471
102
}
330
7471
100
AcDbDictionary
281
     1
  3
STANDARD
350
7480
  0
DICTIONARY
  5
173D4
102
{ACAD_REACTORS
330
7471
102
}
330
7471
100
AcDbDictionary
281
     1
  0
ACDBDICTIONARYWDFLT
  5
173CF
102
{ACAD_REACTORS
330
7471
102
}
330
7471
100
AcDbDictionary
281
     1
  3
Normal
350
173D0
100
AcDbDictionaryWithDefault
340
173D0
  0
DICTIONARY
  5
26908
102
{ACAD_REACTORS
330
7471
102
}
330
7471
100
AcDbDictionary
281
     1
  3
COLORDICT
350
2690A
  3
MATERIALDICT
350
26909
  0
DICTIONARY
  5
2674B
102
{ACAD_REACTORS
330
7471
102
}
330
7471
100
AcDbDictionary
281
     1
  3
DIMASSOC
350
2674C
  3
PROJECTNAME
350
2674D
  0
DICTIONARY
  5
E71C
102
{ACAD_REACTORS
330
7471
102
}
330
7471
100
AcDbDictionary
281
     1
  0
DICTIONARY
  5
F3B9
102
{ACAD_REACTORS
330
7471
102
}
330
7471
100
AcDbDictionary
281
     1
1001
DRAWINGVARIABLESXDATA
1000
POLARMODE
1000
1
  0
DICTIONARY
  5
17590
102
{ACAD_REACTORS
330
1758F
102
}
330
1758F
100
AcDbDictionary
281
     1
  0
GROUP
  5
1D2A9
102
{ACAD_REACTORS
330
7472
102
}
330
7472
100
AcDbGroup
300

 70
     1
 71
     1
  0
LAYOUT
  5
173D5
102
{ACAD_XDICTIONARY
360
2690B
102
}
102
{ACAD_REACTORS
330
173D3
102
}
330
173D3
100
AcDbPlotSettings
  1

  2
クセロPDF
  4
A3
  6

 40
3.174999999999999
 41
3.174999999999999
 42
3.174987999999999
 43
3.174987999999999
 44
419.946655
 45
296.925995
 46
0.0
 47
0.0
 48
0.0
 49
0.0
140
0.0
141
0.0
142
1.0
143
40.88431155294937
 70
 11952
 72
     1
 73
     0
 74
     2
  7
inaba.ctb
 75
     0
147
0.0244592598484849
148
0.0
149
0.0
100
AcDbLayout
  1
Model
 70
     1
 71
     0
 10
0.0
 20
0.0
 11
12.0
 21
9.0
 12
0.0
 22
0.0
 32
0.0
 14
0.0
 24
0.0
 34
0.0
 15
0.0
 25
0.0
 35
0.0
146
0.0
 13
0.0
 23
0.0
 33
0.0
 16
1.0
 26
0.0
 36
0.0
 17
0.0
 27
1.0
 37
0.0
 76
     0
330
747D
  0
LAYOUT
  5
173D6
102
{ACAD_XDICTIONARY
360
2690D
102
}
102
{ACAD_REACTORS
330
173D3
102
}
330
173D3
100
AcDbPlotSettings
  1

  2
Microsoft Office Document Image Writer
  4

  6

 40
0.0
 41
0.0
 42
0.0
 43
0.0
 44
0.0
 45
0.0
 46
0.0
 47
0.0
 48
0.0
 49
0.0
140
0.0
141
0.0
142
1.0
143
1.0
 70
   688
 72
     0
 73
     0
 74
     5
  7

 75
    16
147
1.0
148
0.0
149
0.0
100
AcDbLayout
  1
レイアウト1
 70
     0
 71
     1
 10
0.0
 20
0.0
 11
420.0
 21
297.0
 12
0.0
 22
0.0
 32
0.0
 14
1.000000000000000E+20
 24
1.000000000000000E+20
 34
1.000000000000000E+20
 15
-1.000000000000000E+20
 25
-1.000000000000000E+20
 35
-1.000000000000000E+20
146
0.0
 13
0.0
 23
0.0
 33
0.0
 16
1.0
 26
0.0
 36
0.0
 17
0.0
 27
1.0
 37
0.0
 76
     0
330
747A
  0
MLINESTYLE
  5
7480
102
{ACAD_REACTORS
330
7473
102
}
330
7473
100
AcDbMlineStyle
  2
STANDARD
 70
     0
  3

 62
     0
 51
90.0
 52
90.0
 71
     2
 49
0.5
 62
   256
  6
BYLAYER
 49
-0.5
 62
   256
  6
BYLAYER
  0
ACDBPLACEHOLDER
  5
173D0
102
{ACAD_REACTORS
330
173CF
102
}
330
173CF
  0
XRECORD
  5
2690A
102
{ACAD_REACTORS
330
26908
102
}
330
26908
100
AcDbXrecord
280
     1
340
173D2
  0
XRECORD
  5
26909
102
{ACAD_REACTORS
330
26908
102
}
330
26908
100
AcDbXrecord
280
     1
340
173D1
  0
DICTIONARYVAR
  5
2674C
102
{ACAD_REACTORS
330
2674B
102
}
330
2674B
100
DictionaryVariables
280
     0
  1
1
  0
DICTIONARYVAR
  5
2674D
102
{ACAD_REACTORS
330
2674B
102
}
330
2674B
100
DictionaryVariables
280
     0
  1

  0
DICTIONARY
  5
2690B
330
173D5
100
AcDbDictionary
280
     1
281
     1
  3
ACAD_XREC_ROUNDTRIP
360
2690C
  0
DICTIONARY
  5
2690D
330
173D6
100
AcDbDictionary
280
     1
281
     1
  3
ACAD_XREC_ROUNDTRIP
360
2690E
  0
XRECORD
  5
2690C
102
{ACAD_REACTORS
330
2690B
102
}
330
2690B
100
AcDbXrecord
280
     1
102
SHADEPLOT
 70
     1
102
SHADEPLOTRESLEVEL
 70
     2
102
SHADEPLOTCUSTOMDPI
 70
   300
  0
XRECORD
  5
2690E
102
{ACAD_REACTORS
330
2690D
102
}
330
2690D
100
AcDbXrecord
280
     1
102
SHADEPLOT
 70
     0
102
SHADEPLOTRESLEVEL
 70
     2
102
SHADEPLOTCUSTOMDPI
 70
   300
  0
ENDSEC
  0
EOF
