  0
SECTION
  2
HEADER
  9
$ACADVER
  1
AC1015
  9
$ACADMAINTVER
 70
    20
  9
$DWGCODEPAGE
  3
ANSI_932
  9
$INSBASE
 10
0.0
 20
0.0
 30
0.0
  9
$EXTMIN
 10
139.9999999999995
 20
-0.0000000000000909
 30
0.0
  9
$EXTMAX
 10
16307.2
 20
11409.6
 30
0.0
  9
$LIMMIN
 10
0.0
 20
0.0
  9
$LIMMAX
 10
16800.0
 20
11880.0
  9
$ORTHOMODE
 70
     0
  9
$REGENMODE
 70
     1
  9
$FILLMODE
 70
     1
  9
$QTEXTMODE
 70
     0
  9
$MIRRTEXT
 70
     1
  9
$LTSCALE
 40
20.0
  9
$ATTMODE
 70
     1
  9
$TEXTSIZE
 40
4.0
  9
$TRACEWID
 40
1.0
  9
$TEXTSTYLE
  7
STYLE1
  9
$CLAYER
  8
細線
  9
$CELTYPE
  6
BYLAYER
  9
$CECOLOR
 62
   256
  9
$CELTSCALE
 40
50.0
  9
$DISPSILH
 70
     0
  9
$DIMSCALE
 40
40.0
  9
$DIMASZ
 40
2.5
  9
$DIMEXO
 40
0.5
  9
$DIMDLI
 40
7.0
  9
$DIMRND
 40
0.0
  9
$DIMDLE
 40
0.0
  9
$DIMEXE
 40
1.5
  9
$DIMTP
 40
0.0
  9
$DIMTM
 40
0.0
  9
$DIMTXT
 40
3.0
  9
$DIMCEN
 40
0.0
  9
$DIMTSZ
 40
0.0
  9
$DIMTOL
 70
     0
  9
$DIMLIM
 70
     0
  9
$DIMTIH
 70
     0
  9
$DIMTOH
 70
     0
  9
$DIMSE1
 70
     0
  9
$DIMSE2
 70
     0
  9
$DIMTAD
 70
     3
  9
$DIMZIN
 70
     8
  9
$DIMBLK
  1

  9
$DIMASO
 70
     1
  9
$DIMSHO
 70
     1
  9
$DIMPOST
  1

  9
$DIMAPOST
  1

  9
$DIMALT
 70
     0
  9
$DIMALTD
 70
     2
  9
$DIMALTF
 40
0.0394
  9
$DIMLFAC
 40
1.0
  9
$DIMTOFL
 70
     1
  9
$DIMTVP
 40
0.0
  9
$DIMTIX
 70
     1
  9
$DIMSOXD
 70
     0
  9
$DIMSAH
 70
     1
  9
$DIMBLK1
  1
DOTSMALL
  9
$DIMBLK2
  1
DOTSMALL
  9
$DIMSTYLE
  2
INABA_S40G
  9
$DIMCLRD
 70
     0
  9
$DIMCLRE
 70
     0
  9
$DIMCLRT
 70
     7
  9
$DIMTFAC
 40
1.0
  9
$DIMGAP
 40
1.0
  9
$DIMJUST
 70
     0
  9
$DIMSD1
 70
     0
  9
$DIMSD2
 70
     0
  9
$DIMTOLJ
 70
     1
  9
$DIMTZIN
 70
     0
  9
$DIMALTZ
 70
     0
  9
$DIMALTTZ
 70
     0
  9
$DIMUPT
 70
     0
  9
$DIMDEC
 70
     1
  9
$DIMTDEC
 70
     4
  9
$DIMALTU
 70
     2
  9
$DIMALTTD
 70
     2
  9
$DIMTXSTY
  7
STYLE1
  9
$DIMAUNIT
 70
     0
  9
$DIMADEC
 70
     0
  9
$DIMALTRND
 40
0.0
  9
$DIMAZIN
 70
     0
  9
$DIMDSEP
 70
    46
  9
$DIMATFIT
 70
     3
  9
$DIMFRAC
 70
     0
  9
$DIMLDRBLK
  1

  9
$DIMLUNIT
 70
     2
  9
$DIMLWD
 70
    -2
  9
$DIMLWE
 70
    -2
  9
$DIMTMOVE
 70
     0
  9
$LUNITS
 70
     2
  9
$LUPREC
 70
     1
  9
$SKETCHINC
 40
1.0
  9
$FILLETRAD
 40
3.0
  9
$AUNITS
 70
     0
  9
$AUPREC
 70
     0
  9
$MENU
  1
acad
  9
$ELEVATION
 40
0.0
  9
$PELEVATION
 40
0.0
  9
$THICKNESS
 40
0.0
  9
$LIMCHECK
 70
     0
  9
$CHAMFERA
 40
0.0
  9
$CHAMFERB
 40
0.0
  9
$CHAMFERC
 40
0.0
  9
$CHAMFERD
 40
0.0
  9
$SKPOLY
 70
     0
  9
$TDCREATE
 40
2451368.612993866
  9
$TDUCREATE
 40
2451368.237993866
  9
$TDUPDATE
 40
2455827.764334271
  9
$TDUUPDATE
 40
2455827.389334271
  9
$TDINDWG
 40
0.8980452778
  9
$TDUSRTIMER
 40
0.8980443750
  9
$USRTIMER
 70
     1
  9
$ANGBASE
 50
0.0
  9
$ANGDIR
 70
     0
  9
$PDMODE
 70
     3
  9
$PDSIZE
 40
2.0
  9
$PLINEWID
 40
0.0
  9
$SPLFRAME
 70
     0
  9
$SPLINETYPE
 70
     6
  9
$SPLINESEGS
 70
     8
  9
$HANDSEED
  5
29A45
  9
$SURFTAB1
 70
     6
  9
$SURFTAB2
 70
     6
  9
$SURFTYPE
 70
     6
  9
$SURFU
 70
     6
  9
$SURFV
 70
     6
  9
$UCSBASE
  2

  9
$UCSNAME
  2

  9
$UCSORG
 10
0.0
 20
0.0
 30
0.0
  9
$UCSXDIR
 10
1.0
 20
0.0
 30
0.0
  9
$UCSYDIR
 10
0.0
 20
1.0
 30
0.0
  9
$UCSORTHOREF
  2

  9
$UCSORTHOVIEW
 70
     0
  9
$UCSORGTOP
 10
0.0
 20
0.0
 30
0.0
  9
$UCSORGBOTTOM
 10
0.0
 20
0.0
 30
0.0
  9
$UCSORGLEFT
 10
0.0
 20
0.0
 30
0.0
  9
$UCSORGRIGHT
 10
0.0
 20
0.0
 30
0.0
  9
$UCSORGFRONT
 10
0.0
 20
0.0
 30
0.0
  9
$UCSORGBACK
 10
0.0
 20
0.0
 30
0.0
  9
$PUCSBASE
  2

  9
$PUCSNAME
  2

  9
$PUCSORG
 10
0.0
 20
0.0
 30
0.0
  9
$PUCSXDIR
 10
1.0
 20
0.0
 30
0.0
  9
$PUCSYDIR
 10
0.0
 20
1.0
 30
0.0
  9
$PUCSORTHOREF
  2

  9
$PUCSORTHOVIEW
 70
     0
  9
$PUCSORGTOP
 10
0.0
 20
0.0
 30
0.0
  9
$PUCSORGBOTTOM
 10
0.0
 20
0.0
 30
0.0
  9
$PUCSORGLEFT
 10
0.0
 20
0.0
 30
0.0
  9
$PUCSORGRIGHT
 10
0.0
 20
0.0
 30
0.0
  9
$PUCSORGFRONT
 10
0.0
 20
0.0
 30
0.0
  9
$PUCSORGBACK
 10
0.0
 20
0.0
 30
0.0
  9
$USERI1
 70
     0
  9
$USERI2
 70
     0
  9
$USERI3
 70
     0
  9
$USERI4
 70
     0
  9
$USERI5
 70
     0
  9
$USERR1
 40
0.0
  9
$USERR2
 40
0.0
  9
$USERR3
 40
0.0
  9
$USERR4
 40
0.0
  9
$USERR5
 40
0.0
  9
$WORLDVIEW
 70
     1
  9
$SHADEDGE
 70
     3
  9
$SHADEDIF
 70
    70
  9
$TILEMODE
 70
     1
  9
$MAXACTVP
 70
    16
  9
$PINSBASE
 10
0.0
 20
0.0
 30
0.0
  9
$PLIMCHECK
 70
     0
  9
$PEXTMIN
 10
1.000000000000000E+20
 20
1.000000000000000E+20
 30
1.000000000000000E+20
  9
$PEXTMAX
 10
-1.000000000000000E+20
 20
-1.000000000000000E+20
 30
-1.000000000000000E+20
  9
$PLIMMIN
 10
0.0
 20
0.0
  9
$PLIMMAX
 10
420.0
 20
297.0
  9
$UNITMODE
 70
     0
  9
$VISRETAIN
 70
     0
  9
$PLINEGEN
 70
     0
  9
$PSLTSCALE
 70
     0
  9
$TREEDEPTH
 70
  3020
  9
$CMLSTYLE
  2
STANDARD
  9
$CMLJUST
 70
     0
  9
$CMLSCALE
 40
1.0
  9
$PROXYGRAPHICS
 70
     1
  9
$MEASUREMENT
 70
     1
  9
$CELWEIGHT
370
    -1
  9
$ENDCAPS
280
     0
  9
$JOINSTYLE
280
     0
  9
$LWDISPLAY
290
     0
  9
$INSUNITS
 70
     0
  9
$HYPERLINKBASE
  1

  9
$STYLESHEET
  1
inaba.ctb
  9
$XEDIT
290
     1
  9
$CEPSNTYPE
380
     0
  9
$PSTYLEMODE
290
     1
  9
$FINGERPRINTGUID
  2
{5EAC461A-2277-4BF8-9AB0-99C43BB394F0}
  9
$VERSIONGUID
  2
{42BAA906-8307-4C92-980B-6A0255FEC8D8}
  9
$EXTNAMES
290
     1
  9
$PSVPSCALE
 40
0.0
  9
$OLESTARTUP
290
     0
  0
ENDSEC
  0
SECTION
  2
CLASSES
  0
CLASS
  1
ACDBDICTIONARYWDFLT
  2
AcDbDictionaryWithDefault
  3
ObjectDBX Classes
 90
        0
280
     0
281
     0
  0
CLASS
  1
DICTIONARYVAR
  2
AcDbDictionaryVar
  3
ObjectDBX Classes
 90
        0
280
     0
281
     0
  0
CLASS
  1
ACDBPLACEHOLDER
  2
AcDbPlaceHolder
  3
ObjectDBX Classes
 90
        0
280
     0
281
     0
  0
CLASS
  1
LAYOUT
  2
AcDbLayout
  3
ObjectDBX Classes
 90
        0
280
     0
281
     0
  0
ENDSEC
  0
SECTION
  2
TABLES
  0
TABLE
  2
VPORT
  5
746D
330
0
100
AcDbSymbolTable
 70
     2
  0
VPORT
  5
29A3D
330
746D
100
AcDbSymbolTableRecord
100
AcDbViewportTableRecord
  2
*Active
 70
     0
 10
0.0
 20
0.0
 11
1.0
 21
1.0
 12
9850.540575579753
 22
5755.737687086469
 13
0.0
 23
0.0
 14
10.0
 24
10.0
 15
10.0
 25
10.0
 16
0.0
 26
0.0
 36
1.0
 17
0.0
 27
0.0
 37
0.0
 40
11602.15859363462
 41
1.79295154185022
 42
50.0
 43
0.0
 44
0.0
 50
0.0
 51
0.0
 71
     0
 72
     0
 73
     1
 74
     0
 75
     0
 76
     0
 77
     0
 78
     0
281
     0
 65
     1
110
0.0
120
0.0
130
0.0
111
1.0
121
0.0
131
0.0
112
0.0
122
1.0
132
0.0
 79
     0
146
0.0
  0
ENDTAB
  0
TABLE
  2
LTYPE
  5
746A
330
0
100
AcDbSymbolTable
 70
     3
  0
LTYPE
  5
7477
330
746A
100
AcDbSymbolTableRecord
100
AcDbLinetypeTableRecord
  2
BYBLOCK
 70
     0
  3

 72
    65
 73
     0
 40
0.0
  0
LTYPE
  5
7478
330
746A
100
AcDbSymbolTableRecord
100
AcDbLinetypeTableRecord
  2
BYLAYER
 70
     0
  3

 72
    65
 73
     0
 40
0.0
  0
LTYPE
  5
7479
330
746A
100
AcDbSymbolTableRecord
100
AcDbLinetypeTableRecord
  2
CONTINUOUS
 70
     0
  3
Solid line
 72
    65
 73
     0
 40
0.0
  0
LTYPE
  5
7816
330
746A
100
AcDbSymbolTableRecord
100
AcDbLinetypeTableRecord
  2
CENTER
 70
     0
  3
____ _ ____ _ ____ _ ____ _ ____ _ ____ _ ____ 
 72
    65
 73
     4
 40
2.0
 49
1.25
 74
     0
 49
-0.25
 74
     0
 49
0.25
 74
     0
 49
-0.25
 74
     0
  0
LTYPE
  5
781B
330
746A
100
AcDbSymbolTableRecord
100
AcDbLinetypeTableRecord
  2
PHANTOM
 70
     0
  3
______  __  __  ______  __  __  ______  __  __ 
 72
    65
 73
     6
 40
2.5
 49
1.25
 74
     0
 49
-0.25
 74
     0
 49
0.25
 74
     0
 49
-0.25
 74
     0
 49
0.25
 74
     0
 49
-0.25
 74
     0
  0
ENDTAB
  0
TABLE
  2
LAYER
  5
7467
102
{ACAD_XDICTIONARY
360
1758F
102
}
330
0
100
AcDbSymbolTable
 70
    10
  0
LAYER
  5
7474
330
7467
100
AcDbSymbolTableRecord
100
AcDbLayerTableRecord
  2
0
 70
     0
 62
     7
  6
CONTINUOUS
370
    -3
390
173D0
  0
LAYER
  5
DEB2
330
7467
100
AcDbSymbolTableRecord
100
AcDbLayerTableRecord
  2
センター
 70
     0
 62
     3
  6
CENTER
370
    -3
390
173D0
  0
LAYER
  5
DEB3
330
7467
100
AcDbSymbolTableRecord
100
AcDbLayerTableRecord
  2
寸法
 70
     0
 62
     4
  6
CONTINUOUS
370
    -3
390
173D0
  0
LAYER
  5
DEB4
330
7467
100
AcDbSymbolTableRecord
100
AcDbLayerTableRecord
  2
部品1
 70
     0
 62
     7
  6
CONTINUOUS
370
    -3
390
173D0
  0
LAYER
  5
DEB5
330
7467
100
AcDbSymbolTableRecord
100
AcDbLayerTableRecord
  2
補助
 70
     0
 62
    -1
  6
CONTINUOUS
370
    -3
390
173D0
  0
LAYER
  5
DEB6
330
7467
100
AcDbSymbolTableRecord
100
AcDbLayerTableRecord
  2
文字
 70
     0
 62
     7
  6
CONTINUOUS
370
    -3
390
173D0
  0
LAYER
  5
F255
330
7467
100
AcDbSymbolTableRecord
100
AcDbLayerTableRecord
  2
DEFPOINTS
 70
     0
 62
     7
  6
CONTINUOUS
290
     0
370
    -3
390
173D0
  0
LAYER
  5
10B54
330
7467
100
AcDbSymbolTableRecord
100
AcDbLayerTableRecord
  2
仕様書枠
 70
     0
 62
   230
  6
CONTINUOUS
370
    -3
390
173D0
  0
LAYER
  5
1173F
330
7467
100
AcDbSymbolTableRecord
100
AcDbLayerTableRecord
  2
細線
 70
     0
 62
     5
  6
CONTINUOUS
370
    -3
390
173D0
  0
LAYER
  5
12CC4
330
7467
100
AcDbSymbolTableRecord
100
AcDbLayerTableRecord
  2
想像線
 70
     0
 62
     6
  6
PHANTOM
370
    -3
390
173D0
  0
ENDTAB
  0
TABLE
  2
STYLE
  5
7468
330
0
100
AcDbSymbolTable
 70
     4
  0
STYLE
  5
7475
330
7468
100
AcDbSymbolTableRecord
100
AcDbTextStyleTableRecord
  2
STANDARD
 70
     0
 40
0.0
 41
1.0
 50
0.0
 71
     0
 42
4.0
  3
txt
  4
C:\AutoCAD LT\bigfont.shx
  0
STYLE
  5
763C
330
7468
100
AcDbSymbolTableRecord
100
AcDbTextStyleTableRecord
  2
MSMINCHO
 70
     0
 40
0.0
 41
1.0
 50
0.0
 71
     0
 42
1.199999999999999
  3
C:\AutoCAD LT\msminch2.TTF
  4

  0
STYLE
  5
F706
330
7468
100
AcDbSymbolTableRecord
100
AcDbTextStyleTableRecord
  2
STYLE1
 70
     0
 40
0.0
 41
1.0
 50
0.0
 71
     0
 42
4.0
  3
isocp.shx
  4
bigfont.shx
  0
STYLE
  5
103BF
330
7468
100
AcDbSymbolTableRecord
100
AcDbTextStyleTableRecord
  2
STYLE2
 70
     0
 40
0.0
 41
1.0
 50
0.0
 71
     0
 42
100.0
  3
MS PGothic.ttf
  4

1001
ACAD
1000
MS PGothic
1071
    32818
  0
ENDTAB
  0
TABLE
  2
VIEW
  5
746B
330
0
100
AcDbSymbolTable
 70
     0
  0
ENDTAB
  0
TABLE
  2
UCS
  5
746C
330
0
100
AcDbSymbolTable
 70
     0
  0
ENDTAB
  0
TABLE
  2
APPID
  5
746E
330
0
100
AcDbSymbolTable
 70
     6
  0
APPID
  5
7476
330
746E
100
AcDbSymbolTableRecord
100
AcDbRegAppTableRecord
  2
ACAD
 70
     0
  0
APPID
  5
DEA9
330
746E
100
AcDbSymbolTableRecord
100
AcDbRegAppTableRecord
  2
CONTENTBLOCKICON
 70
     0
  0
APPID
  5
DEAA
330
746E
100
AcDbSymbolTableRecord
100
AcDbRegAppTableRecord
  2
CONTENTBLOCKDESCRIPTION
 70
     0
  0
APPID
  5
E71D
330
746E
100
AcDbSymbolTableRecord
100
AcDbRegAppTableRecord
  2
CONTENTTABDATA
 70
     0
  0
APPID
  5
E71E
330
746E
100
AcDbSymbolTableRecord
100
AcDbRegAppTableRecord
  2
CONTENTCURRENTTAB
 70
     0
  0
APPID
  5
F3BA
330
746E
100
AcDbSymbolTableRecord
100
AcDbRegAppTableRecord
  2
DRAWINGVARIABLESXDATA
 70
     0
  0
ENDTAB
  0
TABLE
  2
DIMSTYLE
  5
746F
330
0
100
AcDbSymbolTable
 70
     1
100
AcDbDimStyleTable
 71
     1
340
F71F
  0
DIMSTYLE
105
F71F
102
{ACAD_REACTORS
330
29726
330
2968D
330
29687
330
29685
330
29670
330
2962E
330
2962D
330
2962C
330
2961F
330
2961E
330
2961B
330
2961A
330
29618
330
29617
330
29614
330
29611
330
2960F
330
2960E
330
2960B
330
290E1
330
284F0
330
284E9
330
284BE
330
284BD
330
284BC
330
284BB
330
284BA
330
284B9
330
284AF
330
28493
330
2847A
330
2845D
330
2845C
330
2845B
330
2845A
330
28459
330
28458
330
28457
330
28456
330
28454
330
28242
330
2823F
330
28237
330
28236
330
28233
330
28232
330
28231
330
27D16
330
2701E
330
26F7E
330
26F64
330
26F3F
330
26F1A
330
26F00
330
26236
330
1D2D6
330
1AC2C
330
1AC27
102
}
330
746F
100
AcDbSymbolTableRecord
100
AcDbDimStyleTableRecord
  2
INABA_S40G
 70
     0
 40
40.0
 41
2.5
 42
0.5
 43
7.0
 44
1.5
 73
     0
 74
     0
 77
     3
 78
     8
140
3.0
141
0.0
143
0.0394
147
1.0
172
     1
173
     1
174
     1
178
     7
271
     1
340
F706
341
F770
343
F770
344
F770
  0
ENDTAB
  0
TABLE
  2
BLOCK_RECORD
  5
7466
330
0
100
AcDbSymbolTable
 70
    42
  0
BLOCK_RECORD
  5
747D
330
7466
100
AcDbSymbolTableRecord
100
AcDbBlockTableRecord
  2
*MODEL_SPACE
340
173D5
  0
BLOCK_RECORD
  5
747A
330
7466
100
AcDbSymbolTableRecord
100
AcDbBlockTableRecord
  2
*PAPER_SPACE
340
173D6
  0
BLOCK_RECORD
  5
F770
330
7466
100
AcDbSymbolTableRecord
100
AcDbBlockTableRecord
  2
_DOTSMALL
340
0
102
{BLKREFS
331
2989D
331
2989E
331
298A6
331
298A7
331
298AF
331
298B0
331
298B8
331
298B9
331
298C1
331
298C2
331
298CA
331
298CB
331
298D3
331
298D4
331
298DD
331
298DE
331
298E7
331
298E8
331
298F0
331
298F1
331
298F9
331
298FA
331
29902
331
29903
331
2990B
331
2990C
331
29914
331
29915
331
2991E
331
2991F
331
29927
331
29928
331
29932
331
29933
331
2993C
331
2993D
331
29945
331
29946
331
2994E
331
2994F
331
29958
331
29959
331
29961
331
29962
331
2996A
331
2996B
331
29973
331
29974
331
2997C
331
2997D
331
29986
331
29987
331
29990
331
29991
331
29999
331
2999A
331
299A3
331
299A4
331
299AC
331
299AD
331
299B5
331
299B6
331
299BF
331
299C0
331
299C9
331
299CA
331
299D2
331
299D3
331
299DC
331
299DD
331
299E7
331
299E8
331
299F2
331
299F3
331
299FD
331
299FE
331
29A08
331
29A09
331
29A13
331
29A14
331
29A1C
331
29A1D
102
}
  0
BLOCK_RECORD
  5
265C5
330
7466
100
AcDbSymbolTableRecord
100
AcDbBlockTableRecord
  2
*D1
340
0
  0
BLOCK_RECORD
  5
26F01
330
7466
100
AcDbSymbolTableRecord
100
AcDbBlockTableRecord
  2
*D2
340
0
  0
BLOCK_RECORD
  5
26F1B
330
7466
100
AcDbSymbolTableRecord
100
AcDbBlockTableRecord
  2
*D3
340
0
  0
BLOCK_RECORD
  5
26F40
330
7466
100
AcDbSymbolTableRecord
100
AcDbBlockTableRecord
  2
*D4
340
0
  0
BLOCK_RECORD
  5
26F65
330
7466
100
AcDbSymbolTableRecord
100
AcDbBlockTableRecord
  2
*D5
340
0
  0
BLOCK_RECORD
  5
26F7F
330
7466
100
AcDbSymbolTableRecord
100
AcDbBlockTableRecord
  2
*D6
340
0
  0
BLOCK_RECORD
  5
2701F
330
7466
100
AcDbSymbolTableRecord
100
AcDbBlockTableRecord
  2
*D7
340
0
  0
BLOCK_RECORD
  5
284F6
330
7466
100
AcDbSymbolTableRecord
100
AcDbBlockTableRecord
  2
*D8
340
0
  0
BLOCK_RECORD
  5
28501
330
7466
100
AcDbSymbolTableRecord
100
AcDbBlockTableRecord
  2
*D9
340
0
  0
BLOCK_RECORD
  5
2850E
330
7466
100
AcDbSymbolTableRecord
100
AcDbBlockTableRecord
  2
*D10
340
0
  0
BLOCK_RECORD
  5
2851B
330
7466
100
AcDbSymbolTableRecord
100
AcDbBlockTableRecord
  2
*D11
340
0
  0
BLOCK_RECORD
  5
28526
330
7466
100
AcDbSymbolTableRecord
100
AcDbBlockTableRecord
  2
*D12
340
0
  0
BLOCK_RECORD
  5
28531
330
7466
100
AcDbSymbolTableRecord
100
AcDbBlockTableRecord
  2
*D13
340
0
  0
BLOCK_RECORD
  5
2853E
330
7466
100
AcDbSymbolTableRecord
100
AcDbBlockTableRecord
  2
*D14
340
0
  0
BLOCK_RECORD
  5
28586
330
7466
100
AcDbSymbolTableRecord
100
AcDbBlockTableRecord
  2
*D15
340
0
  0
BLOCK_RECORD
  5
2859D
330
7466
100
AcDbSymbolTableRecord
100
AcDbBlockTableRecord
  2
*D16
340
0
  0
BLOCK_RECORD
  5
285AA
330
7466
100
AcDbSymbolTableRecord
100
AcDbBlockTableRecord
  2
*D17
340
0
  0
BLOCK_RECORD
  5
285B5
330
7466
100
AcDbSymbolTableRecord
100
AcDbBlockTableRecord
  2
*D18
340
0
  0
BLOCK_RECORD
  5
285C1
330
7466
100
AcDbSymbolTableRecord
100
AcDbBlockTableRecord
  2
*D19
340
0
  0
BLOCK_RECORD
  5
285CC
330
7466
100
AcDbSymbolTableRecord
100
AcDbBlockTableRecord
  2
*D20
340
0
  0
BLOCK_RECORD
  5
285D8
330
7466
100
AcDbSymbolTableRecord
100
AcDbBlockTableRecord
  2
*D21
340
0
  0
BLOCK_RECORD
  5
285E5
330
7466
100
AcDbSymbolTableRecord
100
AcDbBlockTableRecord
  2
*D22
340
0
  0
BLOCK_RECORD
  5
285F1
330
7466
100
AcDbSymbolTableRecord
100
AcDbBlockTableRecord
  2
*D23
340
0
  0
BLOCK_RECORD
  5
285FD
330
7466
100
AcDbSymbolTableRecord
100
AcDbBlockTableRecord
  2
*D24
340
0
  0
BLOCK_RECORD
  5
2860A
330
7466
100
AcDbSymbolTableRecord
100
AcDbBlockTableRecord
  2
*D25
340
0
  0
BLOCK_RECORD
  5
28614
330
7466
100
AcDbSymbolTableRecord
100
AcDbBlockTableRecord
  2
*D26
340
0
  0
BLOCK_RECORD
  5
2862D
330
7466
100
AcDbSymbolTableRecord
100
AcDbBlockTableRecord
  2
*D27
340
0
  0
BLOCK_RECORD
  5
2863A
330
7466
100
AcDbSymbolTableRecord
100
AcDbBlockTableRecord
  2
*D28
340
0
  0
BLOCK_RECORD
  5
28646
330
7466
100
AcDbSymbolTableRecord
100
AcDbBlockTableRecord
  2
*D29
340
0
  0
BLOCK_RECORD
  5
28652
330
7466
100
AcDbSymbolTableRecord
100
AcDbBlockTableRecord
  2
*D30
340
0
  0
BLOCK_RECORD
  5
2865E
330
7466
100
AcDbSymbolTableRecord
100
AcDbBlockTableRecord
  2
*D31
340
0
  0
BLOCK_RECORD
  5
2866A
330
7466
100
AcDbSymbolTableRecord
100
AcDbBlockTableRecord
  2
*D32
340
0
  0
BLOCK_RECORD
  5
28675
330
7466
100
AcDbSymbolTableRecord
100
AcDbBlockTableRecord
  2
*D33
340
0
  0
BLOCK_RECORD
  5
28682
330
7466
100
AcDbSymbolTableRecord
100
AcDbBlockTableRecord
  2
*D34
340
0
  0
BLOCK_RECORD
  5
29188
330
7466
100
AcDbSymbolTableRecord
100
AcDbBlockTableRecord
  2
*D35
340
0
  0
BLOCK_RECORD
  5
29736
330
7466
100
AcDbSymbolTableRecord
100
AcDbBlockTableRecord
  2
*D36
340
0
  0
BLOCK_RECORD
  5
29742
330
7466
100
AcDbSymbolTableRecord
100
AcDbBlockTableRecord
  2
*D37
340
0
  0
BLOCK_RECORD
  5
2974E
330
7466
100
AcDbSymbolTableRecord
100
AcDbBlockTableRecord
  2
*D38
340
0
  0
BLOCK_RECORD
  5
2975A
330
7466
100
AcDbSymbolTableRecord
100
AcDbBlockTableRecord
  2
*D39
340
0
  0
BLOCK_RECORD
  5
29766
330
7466
100
AcDbSymbolTableRecord
100
AcDbBlockTableRecord
  2
*D40
340
0
  0
BLOCK_RECORD
  5
29771
330
7466
100
AcDbSymbolTableRecord
100
AcDbBlockTableRecord
  2
*D41
340
0
  0
ENDTAB
  0
ENDSEC
  0
SECTION
  2
BLOCKS
  0
BLOCK
  5
7489
330
747D
100
AcDbEntity
  8
0
100
AcDbBlockBegin
  2
*MODEL_SPACE
 70
     0
 10
0.0
 20
0.0
 30
0.0
  3
*MODEL_SPACE
  1

  0
ENDBLK
  5
748A
330
747D
100
AcDbEntity
  8
0
100
AcDbBlockEnd
  0
BLOCK
  5
7487
330
747A
100
AcDbEntity
 67
     1
  8
0
100
AcDbBlockBegin
  2
*PAPER_SPACE
 70
     0
 10
0.0
 20
0.0
 30
0.0
  3
*PAPER_SPACE
  1

  0
ENDBLK
  5
7488
330
747A
100
AcDbEntity
 67
     1
  8
0
100
AcDbBlockEnd
  0
BLOCK
  5
F771
330
F770
100
AcDbEntity
  8
0
 48
50.0
100
AcDbBlockBegin
  2
_DOTSMALL
 70
     0
 10
0.0
 20
0.0
 30
0.0
  3
_DOTSMALL
  1

  0
LWPOLYLINE
  5
F772
330
F770
100
AcDbEntity
  8
0
  6
ByBlock
 62
     0
 48
50.0
100
AcDbPolyline
 90
        2
 70
     1
 43
0.5
 10
-0.0625
 20
0.0
 42
1.0
 10
0.0625
 20
0.0
 42
1.0
  0
ENDBLK
  5
F776
330
F770
100
AcDbEntity
  8
0
 48
50.0
100
AcDbBlockEnd
  0
BLOCK
  5
265CE
330
265C5
100
AcDbEntity
  8
0
 48
50.0
100
AcDbBlockBegin
  2
*D1
 70
     1
 10
0.0
 20
0.0
 30
0.0
  3
*D1
  1

  0
LINE
  5
29A19
330
265C5
100
AcDbEntity
  8
寸法
 62
     0
 48
50.0
370
    -2
100
AcDbLine
 10
5621.6
 20
5751.342358765258
 30
0.0
 11
5621.6
 21
5226.497344423079
 31
0.0
  0
LINE
  5
29A1A
330
265C5
100
AcDbEntity
  8
寸法
 62
     0
 48
50.0
370
    -2
100
AcDbLine
 10
5168.600000000001
 20
5826.342358765269
 30
0.0
 11
5168.600000000001
 21
5226.497344423079
 31
0.0
  0
LINE
  5
29A1B
330
265C5
100
AcDbEntity
  8
寸法
 62
     0
 48
50.0
370
    -2
100
AcDbLine
 10
5621.6
 20
5286.497344423079
 30
0.0
 11
5168.600000000001
 21
5286.497344423079
 31
0.0
  0
INSERT
  5
29A1C
330
265C5
100
AcDbEntity
  8
寸法
 62
     0
 48
50.0
370
    -2
100
AcDbBlockReference
  2
_DOTSMALL
 10
5621.6
 20
5286.497344423079
 30
0.0
 41
100.0
 42
100.0
 43
100.0
  0
INSERT
  5
29A1D
330
265C5
100
AcDbEntity
  8
寸法
 62
     0
 48
50.0
370
    -2
100
AcDbBlockReference
  2
_DOTSMALL
 10
5168.600000000001
 20
5286.497344423079
 30
0.0
 41
100.0
 42
100.0
 43
100.0
 50
180.0
  0
MTEXT
  5
29A1E
330
265C5
100
AcDbEntity
  8
寸法
 62
     7
 48
50.0
100
AcDbMText
 10
5395.100000000001
 20
5386.497344423079
 30
0.0
 40
120.0
 41
0.0
 71
     5
 72
     1
  1
\A1;453
  7
STYLE1
 73
     1
 44
1.0
1001
ACAD
1000
MTEXTBEGIN
1070
    73
1070
     1
1070
    44
1040
1.0
1070
    74
1070
     0
1000
MTEXTEND
  0
POINT
  5
29A1F
330
265C5
100
AcDbEntity
  8
DEFPOINTS
 62
     0
 48
50.0
100
AcDbPoint
 10
5621.6
 20
5771.342358765258
 30
0.0
  0
POINT
  5
29A20
330
265C5
100
AcDbEntity
  8
DEFPOINTS
 62
     0
 48
50.0
100
AcDbPoint
 10
5168.600000000001
 20
5846.342358765269
 30
0.0
  0
POINT
  5
29A21
330
265C5
100
AcDbEntity
  8
DEFPOINTS
 62
     0
 48
50.0
100
AcDbPoint
 10
5168.600000000001
 20
5286.497344423079
 30
0.0
  0
ENDBLK
  5
265CF
330
265C5
100
AcDbEntity
  8
0
 48
50.0
100
AcDbBlockEnd
  0
BLOCK
  5
26F0D
330
26F01
100
AcDbEntity
  8
0
 48
50.0
100
AcDbBlockBegin
  2
*D2
 70
     1
 10
0.0
 20
0.0
 30
0.0
  3
*D2
  1

  0
LINE
  5
29A0E
330
26F01
100
AcDbEntity
  8
寸法
 62
     0
 48
50.0
370
    -2
100
AcDbLine
 10
7796.600000000001
 20
5771.342358765291
 30
0.0
 11
8103.202780124334
 21
5771.342358765291
 31
0.0
  0
LINE
  5
29A0F
330
26F01
100
AcDbEntity
  8
寸法
 62
     0
 48
50.0
370
    -2
100
AcDbLine
 10
7796.600000000009
 20
5846.342358765293
 30
0.0
 11
8103.202780124334
 21
5846.342358765293
 31
0.0
  0
LINE
  5
29A10
330
26F01
100
AcDbEntity
  8
寸法
 62
     0
 48
50.0
370
    -2
100
AcDbLine
 10
8043.202780124335
 20
5846.342358765293
 30
0.0
 11
8043.202780124335
 21
5946.342358765293
 31
0.0
  0
LINE
  5
29A11
330
26F01
100
AcDbEntity
  8
寸法
 62
     0
 48
50.0
370
    -2
100
AcDbLine
 10
8043.202780124335
 20
5771.342358765291
 30
0.0
 11
8043.202780124335
 21
4904.371796016813
 31
0.0
  0
LINE
  5
29A12
330
26F01
100
AcDbEntity
  8
寸法
 62
     0
 48
50.0
370
    -2
100
AcDbLine
 10
8043.202780124335
 20
5846.342358765293
 30
0.0
 11
8043.202780124335
 21
5771.342358765291
 31
0.0
  0
INSERT
  5
29A13
330
26F01
100
AcDbEntity
  8
寸法
 62
     0
 48
50.0
370
    -2
100
AcDbBlockReference
  2
_DOTSMALL
 10
8043.202780124335
 20
5846.342358765293
 30
0.0
 41
100.0
 42
100.0
 43
100.0
 50
270.0
  0
INSERT
  5
29A14
330
26F01
100
AcDbEntity
  8
寸法
 62
     0
 48
50.0
370
    -2
100
AcDbBlockReference
  2
_DOTSMALL
 10
8043.202780124335
 20
5771.342358765291
 30
0.0
 41
100.0
 42
100.0
 43
100.0
 50
90.0
  0
MTEXT
  5
29A15
330
26F01
100
AcDbEntity
  8
寸法
 62
     7
 48
50.0
100
AcDbMText
 10
7943.202780124334
 20
5237.857077391053
 30
0.0
 40
120.0
 41
0.0
 71
     5
 72
     1
  1
\A1;扉の出75
  7
STYLE1
 11
0.0000000000000001
 21
1.0
 31
0.0
 73
     1
 44
1.0
1001
ACAD
1000
MTEXTBEGIN
1070
    73
1070
     1
1070
    44
1040
1.0
1070
    74
1070
     0
1000
MTEXTEND
  0
POINT
  5
29A16
330
26F01
100
AcDbEntity
  8
DEFPOINTS
 62
     0
 48
50.0
100
AcDbPoint
 10
7776.600000000001
 20
5771.342358765291
 30
0.0
  0
POINT
  5
29A17
330
26F01
100
AcDbEntity
  8
DEFPOINTS
 62
     0
 48
50.0
100
AcDbPoint
 10
7776.600000000009
 20
5846.342358765293
 30
0.0
  0
POINT
  5
29A18
330
26F01
100
AcDbEntity
  8
DEFPOINTS
 62
     0
 48
50.0
100
AcDbPoint
 10
8043.202780124335
 20
5846.342358765293
 30
0.0
  0
ENDBLK
  5
26F0E
330
26F01
100
AcDbEntity
  8
0
 48
50.0
100
AcDbBlockEnd
  0
BLOCK
  5
26F27
330
26F1B
100
AcDbEntity
  8
0
 48
50.0
100
AcDbBlockBegin
  2
*D3
 70
     1
 10
0.0
 20
0.0
 30
0.0
  3
*D3
  1

  0
LINE
  5
29A03
330
26F1B
100
AcDbEntity
  8
寸法
 62
     0
 48
50.0
370
    -2
100
AcDbLine
 10
4652.657733986178
 20
8141.342358765273
 30
0.0
 11
4367.164931848213
 21
8141.342358765273
 31
0.0
  0
LINE
  5
29A04
330
26F1B
100
AcDbEntity
  8
寸法
 62
     0
 48
50.0
370
    -2
100
AcDbLine
 10
5148.600000000002
 20
8066.342358765268
 30
0.0
 11
4367.164931848213
 21
8066.342358765268
 31
0.0
  0
LINE
  5
29A05
330
26F1B
100
AcDbEntity
  8
寸法
 62
     0
 48
50.0
370
    -2
100
AcDbLine
 10
4427.164931848213
 20
8141.342358765273
 30
0.0
 11
4427.164931848213
 21
8241.342358765272
 31
0.0
  0
LINE
  5
29A06
330
26F1B
100
AcDbEntity
  8
寸法
 62
     0
 48
50.0
370
    -2
100
AcDbLine
 10
4427.164931848213
 20
8066.342358765268
 30
0.0
 11
4427.164931848213
 21
7966.342358765269
 31
0.0
  0
LINE
  5
29A07
330
26F1B
100
AcDbEntity
  8
寸法
 62
     0
 48
50.0
370
    -2
100
AcDbLine
 10
4427.164931848213
 20
8141.342358765273
 30
0.0
 11
4427.164931848213
 21
8066.342358765268
 31
0.0
  0
INSERT
  5
29A08
330
26F1B
100
AcDbEntity
  8
寸法
 62
     0
 48
50.0
370
    -2
100
AcDbBlockReference
  2
_DOTSMALL
 10
4427.164931848213
 20
8141.342358765273
 30
0.0
 41
100.0
 42
100.0
 43
100.0
 50
270.0
  0
INSERT
  5
29A09
330
26F1B
100
AcDbEntity
  8
寸法
 62
     0
 48
50.0
370
    -2
100
AcDbBlockReference
  2
_DOTSMALL
 10
4427.164931848213
 20
8066.342358765268
 30
0.0
 41
100.0
 42
100.0
 43
100.0
 50
90.0
  0
MTEXT
  5
29A0A
330
26F1B
100
AcDbEntity
  8
寸法
 62
     7
 48
50.0
100
AcDbMText
 10
4327.164931848212
 20
8103.842358765273
 30
0.0
 40
120.0
 41
0.0
 71
     5
 72
     1
  1
\A1;c
  7
STYLE1
 11
0.0000000000000001
 21
1.0
 31
0.0
 73
     1
 44
1.0
1001
ACAD
1000
MTEXTBEGIN
1070
    73
1070
     1
1070
    44
1040
1.0
1070
    74
1070
     0
1000
MTEXTEND
  0
POINT
  5
29A0B
330
26F1B
100
AcDbEntity
  8
DEFPOINTS
 62
     0
 48
50.0
100
AcDbPoint
 10
4672.657733986179
 20
8141.342358765273
 30
0.0
  0
POINT
  5
29A0C
330
26F1B
100
AcDbEntity
  8
DEFPOINTS
 62
     0
 48
50.0
100
AcDbPoint
 10
5168.600000000002
 20
8066.342358765268
 30
0.0
  0
POINT
  5
29A0D
330
26F1B
100
AcDbEntity
  8
DEFPOINTS
 62
     0
 48
50.0
100
AcDbPoint
 10
4427.164931848213
 20
8066.342358765268
 30
0.0
  0
ENDBLK
  5
26F28
330
26F1B
100
AcDbEntity
  8
0
 48
50.0
100
AcDbBlockEnd
  0
BLOCK
  5
26F4C
330
26F40
100
AcDbEntity
  8
0
 48
50.0
100
AcDbBlockBegin
  2
*D4
 70
     1
 10
0.0
 20
0.0
 30
0.0
  3
*D4
  1

  0
LINE
  5
299F8
330
26F40
100
AcDbEntity
  8
寸法
 62
     0
 48
50.0
370
    -2
100
AcDbLine
 10
5155.050294581425
 20
5846.342358765269
 30
0.0
 11
4367.16493184821
 21
5846.342358765269
 31
0.0
  0
LINE
  5
299F9
330
26F40
100
AcDbEntity
  8
寸法
 62
     0
 48
50.0
370
    -2
100
AcDbLine
 10
4652.657733986178
 20
5791.342358765291
 30
0.0
 11
4367.16493184821
 21
5791.342358765291
 31
0.0
  0
LINE
  5
299FA
330
26F40
100
AcDbEntity
  8
寸法
 62
     0
 48
50.0
370
    -2
100
AcDbLine
 10
4427.16493184821
 20
5846.342358765269
 30
0.0
 11
4427.16493184821
 21
5946.342358765269
 31
0.0
  0
LINE
  5
299FB
330
26F40
100
AcDbEntity
  8
寸法
 62
     0
 48
50.0
370
    -2
100
AcDbLine
 10
4427.16493184821
 20
5791.342358765291
 30
0.0
 11
4427.16493184821
 21
5691.34235876529
 31
0.0
  0
LINE
  5
299FC
330
26F40
100
AcDbEntity
  8
寸法
 62
     0
 48
50.0
370
    -2
100
AcDbLine
 10
4427.16493184821
 20
5846.342358765269
 30
0.0
 11
4427.16493184821
 21
5791.342358765291
 31
0.0
  0
INSERT
  5
299FD
330
26F40
100
AcDbEntity
  8
寸法
 62
     0
 48
50.0
370
    -2
100
AcDbBlockReference
  2
_DOTSMALL
 10
4427.16493184821
 20
5846.342358765269
 30
0.0
 41
100.0
 42
100.0
 43
100.0
 50
270.0
  0
INSERT
  5
299FE
330
26F40
100
AcDbEntity
  8
寸法
 62
     0
 48
50.0
370
    -2
100
AcDbBlockReference
  2
_DOTSMALL
 10
4427.16493184821
 20
5791.342358765291
 30
0.0
 41
100.0
 42
100.0
 43
100.0
 50
90.0
  0
MTEXT
  5
299FF
330
26F40
100
AcDbEntity
  8
寸法
 62
     7
 48
50.0
100
AcDbMText
 10
4327.164931848209
 20
5818.84235876528
 30
0.0
 40
120.0
 41
0.0
 71
     5
 72
     1
  1
\A1;b
  7
STYLE1
 11
0.0000000000000001
 21
1.0
 31
0.0
 73
     1
 44
1.0
1001
ACAD
1000
MTEXTBEGIN
1070
    73
1070
     1
1070
    44
1040
1.0
1070
    74
1070
     0
1000
MTEXTEND
  0
POINT
  5
29A00
330
26F40
100
AcDbEntity
  8
DEFPOINTS
 62
     0
 48
50.0
100
AcDbPoint
 10
5175.050294581424
 20
5846.342358765269
 30
0.0
  0
POINT
  5
29A01
330
26F40
100
AcDbEntity
  8
DEFPOINTS
 62
     0
 48
50.0
100
AcDbPoint
 10
4672.657733986179
 20
5791.342358765291
 30
0.0
  0
POINT
  5
29A02
330
26F40
100
AcDbEntity
  8
DEFPOINTS
 62
     0
 48
50.0
100
AcDbPoint
 10
4427.16493184821
 20
5791.342358765291
 30
0.0
  0
ENDBLK
  5
26F4D
330
26F40
100
AcDbEntity
  8
0
 48
50.0
100
AcDbBlockEnd
  0
BLOCK
  5
26F71
330
26F65
100
AcDbEntity
  8
0
 48
50.0
100
AcDbBlockBegin
  2
*D5
 70
     1
 10
0.0
 20
0.0
 30
0.0
  3
*D5
  1

  0
LINE
  5
299ED
330
26F65
100
AcDbEntity
  8
寸法
 62
     0
 48
50.0
370
    -2
100
AcDbLine
 10
11278.6
 20
8086.342358765266
 30
0.0
 11
11278.6
 21
9084.562680824189
 31
0.0
  0
LINE
  5
299EE
330
26F65
100
AcDbEntity
  8
寸法
 62
     0
 48
50.0
370
    -2
100
AcDbLine
 10
11323.6
 20
8832.101985307351
 30
0.0
 11
11323.6
 21
9084.562680824189
 31
0.0
  0
LINE
  5
299EF
330
26F65
100
AcDbEntity
  8
寸法
 62
     0
 48
50.0
370
    -2
100
AcDbLine
 10
11278.6
 20
9024.562680824189
 30
0.0
 11
11178.6
 21
9024.562680824189
 31
0.0
  0
LINE
  5
299F0
330
26F65
100
AcDbEntity
  8
寸法
 62
     0
 48
50.0
370
    -2
100
AcDbLine
 10
11323.6
 20
9024.562680824189
 30
0.0
 11
11660.94924240491
 21
9024.562680824189
 31
0.0
  0
LINE
  5
299F1
330
26F65
100
AcDbEntity
  8
寸法
 62
     0
 48
50.0
370
    -2
100
AcDbLine
 10
11278.6
 20
9024.562680824189
 30
0.0
 11
11323.6
 21
9024.562680824189
 31
0.0
  0
INSERT
  5
299F2
330
26F65
100
AcDbEntity
  8
寸法
 62
     0
 48
50.0
370
    -2
100
AcDbBlockReference
  2
_DOTSMALL
 10
11278.6
 20
9024.562680824189
 30
0.0
 41
100.0
 42
100.0
 43
100.0
  0
INSERT
  5
299F3
330
26F65
100
AcDbEntity
  8
寸法
 62
     0
 48
50.0
370
    -2
100
AcDbBlockReference
  2
_DOTSMALL
 10
11323.6
 20
9024.562680824189
 30
0.0
 41
100.0
 42
100.0
 43
100.0
 50
180.0
  0
MTEXT
  5
299F4
330
26F65
100
AcDbEntity
  8
寸法
 62
     7
 48
50.0
100
AcDbMText
 10
11594.77462120245
 20
9124.562680824189
 30
0.0
 40
120.0
 41
0.0
 71
     5
 72
     1
  1
\A1;a
  7
STYLE1
 73
     1
 44
1.0
1001
ACAD
1000
MTEXTBEGIN
1070
    73
1070
     1
1070
    44
1040
1.0
1070
    74
1070
     0
1000
MTEXTEND
  0
POINT
  5
299F5
330
26F65
100
AcDbEntity
  8
DEFPOINTS
 62
     0
 48
50.0
100
AcDbPoint
 10
11278.6
 20
8066.342358765266
 30
0.0
  0
POINT
  5
299F6
330
26F65
100
AcDbEntity
  8
DEFPOINTS
 62
     0
 48
50.0
100
AcDbPoint
 10
11323.6
 20
8812.10198530735
 30
0.0
  0
POINT
  5
299F7
330
26F65
100
AcDbEntity
  8
DEFPOINTS
 62
     0
 48
50.0
100
AcDbPoint
 10
11323.6
 20
9024.562680824189
 30
0.0
  0
ENDBLK
  5
26F72
330
26F65
100
AcDbEntity
  8
0
 48
50.0
100
AcDbBlockEnd
  0
BLOCK
  5
26F8B
330
26F7F
100
AcDbEntity
  8
0
 48
50.0
100
AcDbBlockBegin
  2
*D6
 70
     1
 10
0.0
 20
0.0
 30
0.0
  3
*D6
  1

  0
LINE
  5
299E2
330
26F7F
100
AcDbEntity
  8
寸法
 62
     0
 48
50.0
370
    -2
100
AcDbLine
 10
5123.600000000006
 20
8832.101985307351
 30
0.0
 11
5123.600000000006
 21
9084.562680824189
 31
0.0
  0
LINE
  5
299E3
330
26F7F
100
AcDbEntity
  8
寸法
 62
     0
 48
50.0
370
    -2
100
AcDbLine
 10
5168.600000000001
 20
8086.342358765266
 30
0.0
 11
5168.600000000001
 21
9084.562680824189
 31
0.0
  0
LINE
  5
299E4
330
26F7F
100
AcDbEntity
  8
寸法
 62
     0
 48
50.0
370
    -2
100
AcDbLine
 10
5168.600000000001
 20
9024.562680824189
 30
0.0
 11
5268.600000000001
 21
9024.562680824189
 31
0.0
  0
LINE
  5
299E5
330
26F7F
100
AcDbEntity
  8
寸法
 62
     0
 48
50.0
370
    -2
100
AcDbLine
 10
5123.600000000006
 20
9024.562680824189
 30
0.0
 11
4786.250757595083
 21
9024.562680824189
 31
0.0
  0
LINE
  5
299E6
330
26F7F
100
AcDbEntity
  8
寸法
 62
     0
 48
50.0
370
    -2
100
AcDbLine
 10
5168.600000000001
 20
9024.562680824189
 30
0.0
 11
5123.600000000006
 21
9024.562680824189
 31
0.0
  0
INSERT
  5
299E7
330
26F7F
100
AcDbEntity
  8
寸法
 62
     0
 48
50.0
370
    -2
100
AcDbBlockReference
  2
_DOTSMALL
 10
5168.600000000001
 20
9024.562680824189
 30
0.0
 41
100.0
 42
100.0
 43
100.0
 50
180.0
  0
INSERT
  5
299E8
330
26F7F
100
AcDbEntity
  8
寸法
 62
     0
 48
50.0
370
    -2
100
AcDbBlockReference
  2
_DOTSMALL
 10
5123.600000000006
 20
9024.562680824189
 30
0.0
 41
100.0
 42
100.0
 43
100.0
  0
MTEXT
  5
299E9
330
26F7F
100
AcDbEntity
  8
寸法
 62
     7
 48
50.0
100
AcDbMText
 10
4852.425378797541
 20
9124.562680824189
 30
0.0
 40
120.0
 41
0.0
 71
     5
 72
     1
  1
\A1;a
  7
STYLE1
 73
     1
 44
1.0
1001
ACAD
1000
MTEXTBEGIN
1070
    73
1070
     1
1070
    44
1040
1.0
1070
    74
1070
     0
1000
MTEXTEND
  0
POINT
  5
299EA
330
26F7F
100
AcDbEntity
  8
DEFPOINTS
 62
     0
 48
50.0
100
AcDbPoint
 10
5123.600000000006
 20
8812.10198530735
 30
0.0
  0
POINT
  5
299EB
330
26F7F
100
AcDbEntity
  8
DEFPOINTS
 62
     0
 48
50.0
100
AcDbPoint
 10
5168.600000000001
 20
8066.342358765266
 30
0.0
  0
POINT
  5
299EC
330
26F7F
100
AcDbEntity
  8
DEFPOINTS
 62
     0
 48
50.0
100
AcDbPoint
 10
5168.600000000001
 20
9024.562680824189
 30
0.0
  0
ENDBLK
  5
26F8C
330
26F7F
100
AcDbEntity
  8
0
 48
50.0
100
AcDbBlockEnd
  0
BLOCK
  5
2702B
330
2701F
100
AcDbEntity
  8
0
 48
50.0
100
AcDbBlockBegin
  2
*D7
 70
     1
 10
0.0
 20
0.0
 30
0.0
  3
*D7
  1

  0
LINE
  5
299D8
330
2701F
100
AcDbEntity
  8
寸法
 62
     0
 48
50.0
370
    -2
100
AcDbLine
 10
5641.6
 20
5771.342358765258
 30
0.0
 11
5949.18320630424
 21
5771.342358765258
 31
0.0
  0
LINE
  5
299D9
330
2701F
100
AcDbEntity
  8
寸法
 62
     0
 48
50.0
370
    -2
100
AcDbLine
 10
5641.6
 20
5966.342358765274
 30
0.0
 11
5949.18320630424
 21
5966.342358765274
 31
0.0
  0
LINE
  5
299DA
330
2701F
100
AcDbEntity
  8
寸法
 62
     0
 48
50.0
370
    -2
100
AcDbLine
 10
5889.18320630424
 20
5966.342358765274
 30
0.0
 11
5889.18320630424
 21
5771.342358765258
 31
0.0
  0
LINE
  5
299DB
330
2701F
100
AcDbEntity
  8
寸法
 62
     0
 48
50.0
370
    -2
100
AcDbLine
 10
5889.18320630424
 20
5771.342358765258
 30
0.0
 11
5889.18320630424
 21
5393.952476357467
 31
0.0
  0
INSERT
  5
299DC
330
2701F
100
AcDbEntity
  8
寸法
 62
     0
 48
50.0
370
    -2
100
AcDbBlockReference
  2
_DOTSMALL
 10
5889.18320630424
 20
5966.342358765274
 30
0.0
 41
100.0
 42
100.0
 43
100.0
 50
90.0
  0
INSERT
  5
299DD
330
2701F
100
AcDbEntity
  8
寸法
 62
     0
 48
50.0
370
    -2
100
AcDbBlockReference
  2
_DOTSMALL
 10
5889.18320630424
 20
5771.342358765258
 30
0.0
 41
100.0
 42
100.0
 43
100.0
 50
270.0
  0
MTEXT
  5
299DE
330
2701F
100
AcDbEntity
  8
寸法
 62
     7
 48
50.0
100
AcDbMText
 10
5789.183206304239
 20
5532.647417561364
 30
0.0
 40
120.0
 41
0.0
 71
     5
 72
     1
  1
\A1;195
  7
STYLE1
 11
0.0000000000000001
 21
1.0
 31
0.0
 73
     1
 44
1.0
1001
ACAD
1000
MTEXTBEGIN
1070
    73
1070
     1
1070
    44
1040
1.0
1070
    74
1070
     0
1000
MTEXTEND
  0
POINT
  5
299DF
330
2701F
100
AcDbEntity
  8
DEFPOINTS
 62
     0
 48
50.0
100
AcDbPoint
 10
5621.6
 20
5771.342358765258
 30
0.0
  0
POINT
  5
299E0
330
2701F
100
AcDbEntity
  8
DEFPOINTS
 62
     0
 48
50.0
100
AcDbPoint
 10
5621.6
 20
5966.342358765274
 30
0.0
  0
POINT
  5
299E1
330
2701F
100
AcDbEntity
  8
DEFPOINTS
 62
     0
 48
50.0
100
AcDbPoint
 10
5889.18320630424
 20
5966.342358765274
 30
0.0
  0
ENDBLK
  5
2702C
330
2701F
100
AcDbEntity
  8
0
 48
50.0
100
AcDbBlockEnd
  0
BLOCK
  5
284FF
330
284F6
100
AcDbEntity
  8
0
 48
50.0
100
AcDbBlockBegin
  2
*D8
 70
     1
 10
0.0
 20
0.0
 30
0.0
  3
*D8
  1

  0
LINE
  5
299CF
330
284F6
100
AcDbEntity
  8
寸法
 62
     0
 48
50.0
370
    -2
100
AcDbLine
 10
11155.6
 20
8013.342358765269
 30
0.0
 11
11155.6
 21
8872.101985307352
 31
0.0
  0
LINE
  5
299D0
330
284F6
100
AcDbEntity
  8
寸法
 62
     0
 48
50.0
370
    -2
100
AcDbLine
 10
8105.6
 20
8013.342358765269
 30
0.0
 11
8105.6
 21
8872.101985307352
 31
0.0
  0
LINE
  5
299D1
330
284F6
100
AcDbEntity
  8
寸法
 62
     0
 48
50.0
370
    -2
100
AcDbLine
 10
11155.6
 20
8812.101985307352
 30
0.0
 11
8105.6
 21
8812.101985307352
 31
0.0
  0
INSERT
  5
299D2
330
284F6
100
AcDbEntity
  8
寸法
 62
     0
 48
50.0
370
    -2
100
AcDbBlockReference
  2
_DOTSMALL
 10
11155.6
 20
8812.101985307352
 30
0.0
 41
100.0
 42
100.0
 43
100.0
  0
INSERT
  5
299D3
330
284F6
100
AcDbEntity
  8
寸法
 62
     0
 48
50.0
370
    -2
100
AcDbBlockReference
  2
_DOTSMALL
 10
8105.6
 20
8812.101985307352
 30
0.0
 41
100.0
 42
100.0
 43
100.0
 50
180.0
  0
MTEXT
  5
299D4
330
284F6
100
AcDbEntity
  8
寸法
 62
     7
 48
50.0
100
AcDbMText
 10
9630.600000000001
 20
8912.101985307351
 30
0.0
 40
120.0
 41
0.0
 71
     5
 72
     1
  1
\A1;3050
  7
STYLE1
 73
     1
 44
1.0
1001
ACAD
1000
MTEXTBEGIN
1070
    73
1070
     1
1070
    44
1040
1.0
1070
    74
1070
     0
1000
MTEXTEND
  0
POINT
  5
299D5
330
284F6
100
AcDbEntity
  8
DEFPOINTS
 62
     0
 48
50.0
100
AcDbPoint
 10
11155.6
 20
7993.342358765268
 30
0.0
  0
POINT
  5
299D6
330
284F6
100
AcDbEntity
  8
DEFPOINTS
 62
     0
 48
50.0
100
AcDbPoint
 10
8105.6
 20
7993.342358765268
 30
0.0
  0
POINT
  5
299D7
330
284F6
100
AcDbEntity
  8
DEFPOINTS
 62
     0
 48
50.0
100
AcDbPoint
 10
8105.6
 20
8812.101985307352
 30
0.0
  0
ENDBLK
  5
28500
330
284F6
100
AcDbEntity
  8
0
 48
50.0
100
AcDbBlockEnd
  0
BLOCK
  5
2850C
330
28501
100
AcDbEntity
  8
0
 48
50.0
100
AcDbBlockBegin
  2
*D9
 70
     1
 10
0.0
 20
0.0
 30
0.0
  3
*D9
  1

  0
LINE
  5
299C5
330
28501
100
AcDbEntity
  8
寸法
 62
     0
 48
50.0
370
    -2
100
AcDbLine
 10
8338.781783565135
 20
5846.342358765295
 30
0.0
 11
8730.144386142111
 21
5846.342358765295
 31
0.0
  0
LINE
  5
299C6
330
28501
100
AcDbEntity
  8
寸法
 62
     0
 48
50.0
370
    -2
100
AcDbLine
 10
8662.599867447319
 20
5966.34235876528
 30
0.0
 11
8610.14438614211
 21
5966.34235876528
 31
0.0
  0
LINE
  5
299C7
330
28501
100
AcDbEntity
  8
寸法
 62
     0
 48
50.0
370
    -2
100
AcDbLine
 10
8670.14438614211
 20
5966.34235876528
 30
0.0
 11
8670.14438614211
 21
5846.342358765295
 31
0.0
  0
LINE
  5
299C8
330
28501
100
AcDbEntity
  8
寸法
 62
     0
 48
50.0
370
    -2
100
AcDbLine
 10
8670.14438614211
 20
5846.342358765295
 30
0.0
 11
8670.14438614211
 21
5387.463041327692
 31
0.0
  0
INSERT
  5
299C9
330
28501
100
AcDbEntity
  8
寸法
 62
     0
 48
50.0
370
    -2
100
AcDbBlockReference
  2
_DOTSMALL
 10
8670.14438614211
 20
5966.34235876528
 30
0.0
 41
100.0
 42
100.0
 43
100.0
 50
90.0
  0
INSERT
  5
299CA
330
28501
100
AcDbEntity
  8
寸法
 62
     0
 48
50.0
370
    -2
100
AcDbBlockReference
  2
_DOTSMALL
 10
8670.14438614211
 20
5846.342358765295
 30
0.0
 41
100.0
 42
100.0
 43
100.0
 50
270.0
  0
MTEXT
  5
299CB
330
28501
100
AcDbEntity
  8
寸法
 62
     7
 48
50.0
100
AcDbMText
 10
8570.132575118487
 20
5523.510285422181
 30
0.0
 40
120.0
 41
0.0
 71
     5
 72
     1
  1
\A1;120
  7
STYLE1
 11
0.0000000000000001
 21
1.0
 31
0.0
 73
     1
 44
1.0
1001
ACAD
1000
MTEXTBEGIN
1070
    73
1070
     1
1070
    44
1040
1.0
1070
    74
1070
     0
1000
MTEXTEND
  0
POINT
  5
299CC
330
28501
100
AcDbEntity
  8
DEFPOINTS
 62
     0
 48
50.0
100
AcDbPoint
 10
8318.781783565134
 20
5846.342358765295
 30
0.0
  0
POINT
  5
299CD
330
28501
100
AcDbEntity
  8
DEFPOINTS
 62
     0
 48
50.0
100
AcDbPoint
 10
8682.59986744732
 20
5966.34235876528
 30
0.0
  0
POINT
  5
299CE
330
28501
100
AcDbEntity
  8
DEFPOINTS
 62
     0
 48
50.0
100
AcDbPoint
 10
8670.14438614211
 20
5966.34235876528
 30
0.0
  0
ENDBLK
  5
2850D
330
28501
100
AcDbEntity
  8
0
 48
50.0
100
AcDbBlockEnd
  0
BLOCK
  5
28519
330
2850E
100
AcDbEntity
  8
0
 48
50.0
100
AcDbBlockBegin
  2
*D10
 70
     1
 10
0.0
 20
0.0
 30
0.0
  3
*D10
  1

  0
LINE
  5
299BB
330
2850E
100
AcDbEntity
  8
寸法
 62
     0
 48
50.0
370
    -2
100
AcDbLine
 10
8662.599867447319
 20
5966.34235876528
 30
0.0
 11
8610.14438614211
 21
5966.34235876528
 31
0.0
  0
LINE
  5
299BC
330
2850E
100
AcDbEntity
  8
寸法
 62
     0
 48
50.0
370
    -2
100
AcDbLine
 10
8255.600000000001
 20
6076.342358765288
 30
0.0
 11
8730.144386142111
 21
6076.342358765288
 31
0.0
  0
LINE
  5
299BD
330
2850E
100
AcDbEntity
  8
寸法
 62
     0
 48
50.0
370
    -2
100
AcDbLine
 10
8670.14438614211
 20
5966.34235876528
 30
0.0
 11
8670.14438614211
 21
6076.342358765288
 31
0.0
  0
LINE
  5
299BE
330
2850E
100
AcDbEntity
  8
寸法
 62
     0
 48
50.0
370
    -2
100
AcDbLine
 10
8670.14438614211
 20
6076.342358765288
 30
0.0
 11
8670.14438614211
 21
6470.448657977899
 31
0.0
  0
INSERT
  5
299BF
330
2850E
100
AcDbEntity
  8
寸法
 62
     0
 48
50.0
370
    -2
100
AcDbBlockReference
  2
_DOTSMALL
 10
8670.14438614211
 20
5966.34235876528
 30
0.0
 41
100.0
 42
100.0
 43
100.0
 50
270.0
  0
INSERT
  5
299C0
330
2850E
100
AcDbEntity
  8
寸法
 62
     0
 48
50.0
370
    -2
100
AcDbBlockReference
  2
_DOTSMALL
 10
8670.14438614211
 20
6076.342358765288
 30
0.0
 41
100.0
 42
100.0
 43
100.0
 50
90.0
  0
MTEXT
  5
299C1
330
2850E
100
AcDbEntity
  8
寸法
 62
     7
 48
50.0
100
AcDbMText
 10
8570.144386142109
 20
6346.401413883412
 30
0.0
 40
120.0
 41
0.0
 71
     5
 72
     1
  1
\A1;110
  7
STYLE1
 11
0.0000000000000001
 21
1.0
 31
0.0
 73
     1
 44
1.0
1001
ACAD
1000
MTEXTBEGIN
1070
    73
1070
     1
1070
    44
1040
1.0
1070
    74
1070
     0
1000
MTEXTEND
  0
POINT
  5
299C2
330
2850E
100
AcDbEntity
  8
DEFPOINTS
 62
     0
 48
50.0
100
AcDbPoint
 10
8682.59986744732
 20
5966.34235876528
 30
0.0
  0
POINT
  5
299C3
330
2850E
100
AcDbEntity
  8
DEFPOINTS
 62
     0
 48
50.0
100
AcDbPoint
 10
8235.600000000001
 20
6076.342358765288
 30
0.0
  0
POINT
  5
299C4
330
2850E
100
AcDbEntity
  8
DEFPOINTS
 62
     0
 48
50.0
100
AcDbPoint
 10
8670.14438614211
 20
6076.342358765288
 30
0.0
  0
ENDBLK
  5
2851A
330
2850E
100
AcDbEntity
  8
0
 48
50.0
100
AcDbBlockEnd
  0
BLOCK
  5
28524
330
2851B
100
AcDbEntity
  8
0
 48
50.0
100
AcDbBlockBegin
  2
*D11
 70
     1
 10
0.0
 20
0.0
 30
0.0
  3
*D11
  1

  0
LINE
  5
299B2
330
2851B
100
AcDbEntity
  8
寸法
 62
     0
 48
50.0
370
    -2
100
AcDbLine
 10
9021.600000000001
 20
7551.342358765269
 30
0.0
 11
9021.600000000001
 21
8653.252124413596
 31
0.0
  0
LINE
  5
299B3
330
2851B
100
AcDbEntity
  8
寸法
 62
     0
 48
50.0
370
    -2
100
AcDbLine
 10
8223.600000000001
 20
7076.34235876527
 30
0.0
 11
8223.600000000001
 21
8653.252124413596
 31
0.0
  0
LINE
  5
299B4
330
2851B
100
AcDbEntity
  8
寸法
 62
     0
 48
50.0
370
    -2
100
AcDbLine
 10
9021.600000000001
 20
8593.252124413597
 30
0.0
 11
8223.600000000001
 21
8593.252124413597
 31
0.0
  0
INSERT
  5
299B5
330
2851B
100
AcDbEntity
  8
寸法
 62
     0
 48
50.0
370
    -2
100
AcDbBlockReference
  2
_DOTSMALL
 10
9021.600000000001
 20
8593.252124413597
 30
0.0
 41
100.0
 42
100.0
 43
100.0
  0
INSERT
  5
299B6
330
2851B
100
AcDbEntity
  8
寸法
 62
     0
 48
50.0
370
    -2
100
AcDbBlockReference
  2
_DOTSMALL
 10
8223.600000000001
 20
8593.252124413597
 30
0.0
 41
100.0
 42
100.0
 43
100.0
 50
180.0
  0
MTEXT
  5
299B7
330
2851B
100
AcDbEntity
  8
寸法
 62
     7
 48
50.0
100
AcDbMText
 10
8622.6
 20
8693.252124413596
 30
0.0
 40
120.0
 41
0.0
 71
     5
 72
     1
  1
\A1;798
  7
STYLE1
 73
     1
 44
1.0
1001
ACAD
1000
MTEXTBEGIN
1070
    73
1070
     1
1070
    44
1040
1.0
1070
    74
1070
     0
1000
MTEXTEND
  0
POINT
  5
299B8
330
2851B
100
AcDbEntity
  8
DEFPOINTS
 62
     0
 48
50.0
100
AcDbPoint
 10
9021.600000000001
 20
7531.342358765269
 30
0.0
  0
POINT
  5
299B9
330
2851B
100
AcDbEntity
  8
DEFPOINTS
 62
     0
 48
50.0
100
AcDbPoint
 10
8223.600000000001
 20
7056.342358765269
 30
0.0
  0
POINT
  5
299BA
330
2851B
100
AcDbEntity
  8
DEFPOINTS
 62
     0
 48
50.0
100
AcDbPoint
 10
8223.600000000001
 20
8593.252124413597
 30
0.0
  0
ENDBLK
  5
28525
330
2851B
100
AcDbEntity
  8
0
 48
50.0
100
AcDbBlockEnd
  0
BLOCK
  5
2852F
330
28526
100
AcDbEntity
  8
0
 48
50.0
100
AcDbBlockBegin
  2
*D12
 70
     1
 10
0.0
 20
0.0
 30
0.0
  3
*D12
  1

  0
LINE
  5
299A9
330
28526
100
AcDbEntity
  8
寸法
 62
     0
 48
50.0
370
    -2
100
AcDbLine
 10
5168.600000000001
 20
8086.34235876527
 30
0.0
 11
5168.600000000001
 21
9084.562680824189
 31
0.0
  0
LINE
  5
299AA
330
28526
100
AcDbEntity
  8
寸法
 62
     0
 48
50.0
370
    -2
100
AcDbLine
 10
11278.6
 20
8086.34235876527
 30
0.0
 11
11278.6
 21
9084.562680824189
 31
0.0
  0
LINE
  5
299AB
330
28526
100
AcDbEntity
  8
寸法
 62
     0
 48
50.0
370
    -2
100
AcDbLine
 10
5168.600000000001
 20
9024.562680824189
 30
0.0
 11
11278.6
 21
9024.562680824189
 31
0.0
  0
INSERT
  5
299AC
330
28526
100
AcDbEntity
  8
寸法
 62
     0
 48
50.0
370
    -2
100
AcDbBlockReference
  2
_DOTSMALL
 10
5168.600000000001
 20
9024.562680824189
 30
0.0
 41
100.0
 42
100.0
 43
100.0
 50
180.0
  0
INSERT
  5
299AD
330
28526
100
AcDbEntity
  8
寸法
 62
     0
 48
50.0
370
    -2
100
AcDbBlockReference
  2
_DOTSMALL
 10
11278.6
 20
9024.562680824189
 30
0.0
 41
100.0
 42
100.0
 43
100.0
  0
MTEXT
  5
299AE
330
28526
100
AcDbEntity
  8
寸法
 62
     7
 48
50.0
100
AcDbMText
 10
8223.600000000001
 20
9124.562680824189
 30
0.0
 40
120.0
 41
0.0
 71
     5
 72
     1
  1
\A1;6110
  7
STYLE1
 73
     1
 44
1.0
1001
ACAD
1000
MTEXTBEGIN
1070
    73
1070
     1
1070
    44
1040
1.0
1070
    74
1070
     0
1000
MTEXTEND
  0
POINT
  5
299AF
330
28526
100
AcDbEntity
  8
DEFPOINTS
 62
     0
 48
50.0
100
AcDbPoint
 10
5168.600000000001
 20
8066.342358765268
 30
0.0
  0
POINT
  5
299B0
330
28526
100
AcDbEntity
  8
DEFPOINTS
 62
     0
 48
50.0
100
AcDbPoint
 10
11278.6
 20
8066.342358765268
 30
0.0
  0
POINT
  5
299B1
330
28526
100
AcDbEntity
  8
DEFPOINTS
 62
     0
 48
50.0
100
AcDbPoint
 10
11278.6
 20
9024.562680824189
 30
0.0
  0
ENDBLK
  5
28530
330
28526
100
AcDbEntity
  8
0
 48
50.0
100
AcDbBlockEnd
  0
BLOCK
  5
2853C
330
28531
100
AcDbEntity
  8
0
 48
50.0
100
AcDbBlockBegin
  2
*D13
 70
     1
 10
0.0
 20
0.0
 30
0.0
  3
*D13
  1

  0
LINE
  5
2999F
330
28531
100
AcDbEntity
  8
寸法
 62
     0
 48
50.0
370
    -2
100
AcDbLine
 10
5221.600000000008
 20
5969.34235876527
 30
0.0
 11
4612.657733986178
 21
5969.34235876527
 31
0.0
  0
LINE
  5
299A0
330
28531
100
AcDbEntity
  8
寸法
 62
     0
 48
50.0
370
    -2
100
AcDbLine
 10
5148.600000000001
 20
5846.342358765269
 30
0.0
 11
4612.657733986178
 21
5846.342358765269
 31
0.0
  0
LINE
  5
299A1
330
28531
100
AcDbEntity
  8
寸法
 62
     0
 48
50.0
370
    -2
100
AcDbLine
 10
4672.657733986177
 20
5969.34235876527
 30
0.0
 11
4672.657733986177
 21
5846.342358765269
 31
0.0
  0
LINE
  5
299A2
330
28531
100
AcDbEntity
  8
寸法
 62
     0
 48
50.0
370
    -2
100
AcDbLine
 10
4672.657733986177
 20
5846.342358765269
 30
0.0
 11
4672.657733986177
 21
5372.326128548436
 31
0.0
  0
INSERT
  5
299A3
330
28531
100
AcDbEntity
  8
寸法
 62
     0
 48
50.0
370
    -2
100
AcDbBlockReference
  2
_DOTSMALL
 10
4672.657733986177
 20
5969.34235876527
 30
0.0
 41
100.0
 42
100.0
 43
100.0
 50
90.0
  0
INSERT
  5
299A4
330
28531
100
AcDbEntity
  8
寸法
 62
     0
 48
50.0
370
    -2
100
AcDbBlockReference
  2
_DOTSMALL
 10
4672.657733986177
 20
5846.342358765269
 30
0.0
 41
100.0
 42
100.0
 43
100.0
 50
270.0
  0
MTEXT
  5
299A5
330
28531
100
AcDbEntity
  8
寸法
 62
     7
 48
50.0
100
AcDbMText
 10
4572.645922962555
 20
5510.811409922677
 30
0.0
 40
120.0
 41
0.0
 71
     5
 72
     1
  1
\A1;123
  7
STYLE1
 11
0.0000000000000001
 21
1.0
 31
0.0
 73
     1
 44
1.0
1001
ACAD
1000
MTEXTBEGIN
1070
    73
1070
     1
1070
    44
1040
1.0
1070
    74
1070
     0
1000
MTEXTEND
  0
POINT
  5
299A6
330
28531
100
AcDbEntity
  8
DEFPOINTS
 62
     0
 48
50.0
100
AcDbPoint
 10
5241.600000000008
 20
5969.34235876527
 30
0.0
  0
POINT
  5
299A7
330
28531
100
AcDbEntity
  8
DEFPOINTS
 62
     0
 48
50.0
100
AcDbPoint
 10
5168.600000000001
 20
5846.342358765269
 30
0.0
  0
POINT
  5
299A8
330
28531
100
AcDbEntity
  8
DEFPOINTS
 62
     0
 48
50.0
100
AcDbPoint
 10
4672.657733986177
 20
5846.342358765269
 30
0.0
  0
ENDBLK
  5
2853D
330
28531
100
AcDbEntity
  8
0
 48
50.0
100
AcDbBlockEnd
  0
BLOCK
  5
28547
330
2853E
100
AcDbEntity
  8
0
 48
50.0
100
AcDbBlockBegin
  2
*D14
 70
     1
 10
0.0
 20
0.0
 30
0.0
  3
*D14
  1

  0
LINE
  5
29996
330
2853E
100
AcDbEntity
  8
寸法
 62
     0
 48
50.0
370
    -2
100
AcDbLine
 10
5148.600000000001
 20
8066.342358765268
 30
0.0
 11
4367.164931848211
 21
8066.342358765268
 31
0.0
  0
LINE
  5
29997
330
2853E
100
AcDbEntity
  8
寸法
 62
     0
 48
50.0
370
    -2
100
AcDbLine
 10
5148.600000000001
 20
5846.342358765269
 30
0.0
 11
4367.16493184821
 21
5846.342358765269
 31
0.0
  0
LINE
  5
29998
330
2853E
100
AcDbEntity
  8
寸法
 62
     0
 48
50.0
370
    -2
100
AcDbLine
 10
4427.164931848211
 20
8066.342358765268
 30
0.0
 11
4427.16493184821
 21
5846.342358765269
 31
0.0
  0
INSERT
  5
29999
330
2853E
100
AcDbEntity
  8
寸法
 62
     0
 48
50.0
370
    -2
100
AcDbBlockReference
  2
_DOTSMALL
 10
4427.164931848211
 20
8066.342358765268
 30
0.0
 41
100.0
 42
100.0
 43
100.0
 50
90.0
  0
INSERT
  5
2999A
330
2853E
100
AcDbEntity
  8
寸法
 62
     0
 48
50.0
370
    -2
100
AcDbBlockReference
  2
_DOTSMALL
 10
4427.16493184821
 20
5846.342358765269
 30
0.0
 41
100.0
 42
100.0
 43
100.0
 50
270.0
  0
MTEXT
  5
2999B
330
2853E
100
AcDbEntity
  8
寸法
 62
     7
 48
50.0
100
AcDbMText
 10
4327.153120824588
 20
6956.342358765269
 30
0.0
 40
120.0
 41
0.0
 71
     5
 72
     1
  1
\A1;2220
  7
STYLE1
 11
0.0000000000000001
 21
1.0
 31
0.0
 73
     1
 44
1.0
1001
ACAD
1000
MTEXTBEGIN
1070
    73
1070
     1
1070
    44
1040
1.0
1070
    74
1070
     0
1000
MTEXTEND
  0
POINT
  5
2999C
330
2853E
100
AcDbEntity
  8
DEFPOINTS
 62
     0
 48
50.0
100
AcDbPoint
 10
5168.600000000001
 20
8066.342358765268
 30
0.0
  0
POINT
  5
2999D
330
2853E
100
AcDbEntity
  8
DEFPOINTS
 62
     0
 48
50.0
100
AcDbPoint
 10
5168.600000000001
 20
5846.342358765269
 30
0.0
  0
POINT
  5
2999E
330
2853E
100
AcDbEntity
  8
DEFPOINTS
 62
     0
 48
50.0
100
AcDbPoint
 10
4427.16493184821
 20
5846.342358765269
 30
0.0
  0
ENDBLK
  5
28548
330
2853E
100
AcDbEntity
  8
0
 48
50.0
100
AcDbBlockEnd
  0
BLOCK
  5
28591
330
28586
100
AcDbEntity
  8
0
 48
50.0
100
AcDbBlockBegin
  2
*D15
 70
     1
 10
0.0
 20
0.0
 30
0.0
  3
*D15
  1

  0
LINE
  5
2998C
330
28586
100
AcDbEntity
  8
寸法
 62
     0
 48
50.0
370
    -2
100
AcDbLine
 10
5291.6
 20
8013.342358765269
 30
0.0
 11
5291.6
 21
8872.101985307352
 31
0.0
  0
LINE
  5
2998D
330
28586
100
AcDbEntity
  8
寸法
 62
     0
 48
50.0
370
    -2
100
AcDbLine
 10
5168.600000000001
 20
8086.34235876527
 30
0.0
 11
5168.600000000001
 21
8872.101985307352
 31
0.0
  0
LINE
  5
2998E
330
28586
100
AcDbEntity
  8
寸法
 62
     0
 48
50.0
370
    -2
100
AcDbLine
 10
5291.6
 20
8812.101985307352
 30
0.0
 11
5168.600000000001
 21
8812.101985307352
 31
0.0
  0
LINE
  5
2998F
330
28586
100
AcDbEntity
  8
寸法
 62
     0
 48
50.0
370
    -2
100
AcDbLine
 10
5168.600000000001
 20
8812.101985307352
 30
0.0
 11
4757.008116907962
 21
8812.101985307352
 31
0.0
  0
INSERT
  5
29990
330
28586
100
AcDbEntity
  8
寸法
 62
     0
 48
50.0
370
    -2
100
AcDbBlockReference
  2
_DOTSMALL
 10
5291.6
 20
8812.101985307352
 30
0.0
 41
100.0
 42
100.0
 43
100.0
  0
INSERT
  5
29991
330
28586
100
AcDbEntity
  8
寸法
 62
     0
 48
50.0
370
    -2
100
AcDbBlockReference
  2
_DOTSMALL
 10
5168.600000000001
 20
8812.101985307352
 30
0.0
 41
100.0
 42
100.0
 43
100.0
 50
180.0
  0
MTEXT
  5
29992
330
28586
100
AcDbEntity
  8
寸法
 62
     7
 48
50.0
100
AcDbMText
 10
4895.493398282201
 20
8912.113796330974
 30
0.0
 40
120.0
 41
0.0
 71
     5
 72
     1
  1
\A1;123
  7
STYLE1
 73
     1
 44
1.0
1001
ACAD
1000
MTEXTBEGIN
1070
    73
1070
     1
1070
    44
1040
1.0
1070
    74
1070
     0
1000
MTEXTEND
  0
POINT
  5
29993
330
28586
100
AcDbEntity
  8
DEFPOINTS
 62
     0
 48
50.0
100
AcDbPoint
 10
5291.6
 20
7993.342358765268
 30
0.0
  0
POINT
  5
29994
330
28586
100
AcDbEntity
  8
DEFPOINTS
 62
     0
 48
50.0
100
AcDbPoint
 10
5168.600000000001
 20
8066.342358765268
 30
0.0
  0
POINT
  5
29995
330
28586
100
AcDbEntity
  8
DEFPOINTS
 62
     0
 48
50.0
100
AcDbPoint
 10
5168.600000000001
 20
8812.101985307352
 30
0.0
  0
ENDBLK
  5
28592
330
28586
100
AcDbEntity
  8
0
 48
50.0
100
AcDbBlockEnd
  0
BLOCK
  5
285A8
330
2859D
100
AcDbEntity
  8
0
 48
50.0
100
AcDbBlockBegin
  2
*D16
 70
     1
 10
0.0
 20
0.0
 30
0.0
  3
*D16
  1

  0
LINE
  5
29982
330
2859D
100
AcDbEntity
  8
寸法
 62
     0
 48
50.0
370
    -2
100
AcDbLine
 10
5148.600000000001
 20
8066.342358765268
 30
0.0
 11
4612.657733986178
 21
8066.342358765268
 31
0.0
  0
LINE
  5
29983
330
2859D
100
AcDbEntity
  8
寸法
 62
     0
 48
50.0
370
    -2
100
AcDbLine
 10
5221.600000000001
 20
7943.342358765268
 30
0.0
 11
4612.657733986178
 21
7943.342358765268
 31
0.0
  0
LINE
  5
29984
330
2859D
100
AcDbEntity
  8
寸法
 62
     0
 48
50.0
370
    -2
100
AcDbLine
 10
4672.657733986177
 20
7943.342358765268
 30
0.0
 11
4672.657733986177
 21
8066.342358765268
 31
0.0
  0
LINE
  5
29985
330
2859D
100
AcDbEntity
  8
寸法
 62
     0
 48
50.0
370
    -2
100
AcDbLine
 10
4672.657733986177
 20
8066.342358765268
 30
0.0
 11
4672.657733986177
 21
8477.934241857305
 31
0.0
  0
INSERT
  5
29986
330
2859D
100
AcDbEntity
  8
寸法
 62
     0
 48
50.0
370
    -2
100
AcDbBlockReference
  2
_DOTSMALL
 10
4672.657733986177
 20
7943.342358765268
 30
0.0
 41
100.0
 42
100.0
 43
100.0
 50
270.0
  0
INSERT
  5
29987
330
2859D
100
AcDbEntity
  8
寸法
 62
     0
 48
50.0
370
    -2
100
AcDbBlockReference
  2
_DOTSMALL
 10
4672.657733986177
 20
8066.342358765268
 30
0.0
 41
100.0
 42
100.0
 43
100.0
 50
90.0
  0
MTEXT
  5
29988
330
2859D
100
AcDbEntity
  8
寸法
 62
     7
 48
50.0
100
AcDbMText
 10
4572.645922962555
 20
8339.448960483069
 30
0.0
 40
120.0
 41
0.0
 71
     5
 72
     1
  1
\A1;123
  7
STYLE1
 11
0.0000000000000001
 21
1.0
 31
0.0
 73
     1
 44
1.0
1001
ACAD
1000
MTEXTBEGIN
1070
    73
1070
     1
1070
    44
1040
1.0
1070
    74
1070
     0
1000
MTEXTEND
  0
POINT
  5
29989
330
2859D
100
AcDbEntity
  8
DEFPOINTS
 62
     0
 48
50.0
100
AcDbPoint
 10
5168.600000000001
 20
8066.342358765268
 30
0.0
  0
POINT
  5
2998A
330
2859D
100
AcDbEntity
  8
DEFPOINTS
 62
     0
 48
50.0
100
AcDbPoint
 10
5241.6
 20
7943.342358765268
 30
0.0
  0
POINT
  5
2998B
330
2859D
100
AcDbEntity
  8
DEFPOINTS
 62
     0
 48
50.0
100
AcDbPoint
 10
4672.657733986177
 20
7943.342358765268
 30
0.0
  0
ENDBLK
  5
285A9
330
2859D
100
AcDbEntity
  8
0
 48
50.0
100
AcDbBlockEnd
  0
BLOCK
  5
285B3
330
285AA
100
AcDbEntity
  8
0
 48
50.0
100
AcDbBlockBegin
  2
*D17
 70
     1
 10
0.0
 20
0.0
 30
0.0
  3
*D17
  1

  0
LINE
  5
29979
330
285AA
100
AcDbEntity
  8
寸法
 62
     0
 48
50.0
370
    -2
100
AcDbLine
 10
5971.600000000002
 20
7551.342358765269
 30
0.0
 11
5971.600000000002
 21
8653.252124413596
 31
0.0
  0
LINE
  5
2997A
330
285AA
100
AcDbEntity
  8
寸法
 62
     0
 48
50.0
370
    -2
100
AcDbLine
 10
5168.600000000001
 20
8086.34235876527
 30
0.0
 11
5168.600000000001
 21
8653.252124413596
 31
0.0
  0
LINE
  5
2997B
330
285AA
100
AcDbEntity
  8
寸法
 62
     0
 48
50.0
370
    -2
100
AcDbLine
 10
5971.600000000002
 20
8593.252124413597
 30
0.0
 11
5168.600000000001
 21
8593.252124413597
 31
0.0
  0
INSERT
  5
2997C
330
285AA
100
AcDbEntity
  8
寸法
 62
     0
 48
50.0
370
    -2
100
AcDbBlockReference
  2
_DOTSMALL
 10
5971.600000000002
 20
8593.252124413597
 30
0.0
 41
100.0
 42
100.0
 43
100.0
  0
INSERT
  5
2997D
330
285AA
100
AcDbEntity
  8
寸法
 62
     0
 48
50.0
370
    -2
100
AcDbBlockReference
  2
_DOTSMALL
 10
5168.600000000001
 20
8593.252124413597
 30
0.0
 41
100.0
 42
100.0
 43
100.0
 50
180.0
  0
MTEXT
  5
2997E
330
285AA
100
AcDbEntity
  8
寸法
 62
     7
 48
50.0
100
AcDbMText
 10
5570.100000000001
 20
8693.252124413596
 30
0.0
 40
120.0
 41
0.0
 71
     5
 72
     1
  1
\A1;803
  7
STYLE1
 73
     1
 44
1.0
1001
ACAD
1000
MTEXTBEGIN
1070
    73
1070
     1
1070
    44
1040
1.0
1070
    74
1070
     0
1000
MTEXTEND
  0
POINT
  5
2997F
330
285AA
100
AcDbEntity
  8
DEFPOINTS
 62
     0
 48
50.0
100
AcDbPoint
 10
5971.600000000002
 20
7531.342358765269
 30
0.0
  0
POINT
  5
29980
330
285AA
100
AcDbEntity
  8
DEFPOINTS
 62
     0
 48
50.0
100
AcDbPoint
 10
5168.600000000001
 20
8066.342358765268
 30
0.0
  0
POINT
  5
29981
330
285AA
100
AcDbEntity
  8
DEFPOINTS
 62
     0
 48
50.0
100
AcDbPoint
 10
5168.600000000001
 20
8593.252124413597
 30
0.0
  0
ENDBLK
  5
285B4
330
285AA
100
AcDbEntity
  8
0
 48
50.0
100
AcDbBlockEnd
  0
BLOCK
  5
285BF
330
285B5
100
AcDbEntity
  8
0
 48
50.0
100
AcDbBlockBegin
  2
*D18
 70
     1
 10
0.0
 20
0.0
 30
0.0
  3
*D18
  1

  0
LINE
  5
29970
330
285B5
100
AcDbEntity
  8
寸法
 62
     0
 48
50.0
370
    -2
100
AcDbLine
 10
5221.600000000001
 20
7943.342358765268
 30
0.0
 11
4612.657733986178
 21
7943.342358765268
 31
0.0
  0
LINE
  5
29971
330
285B5
100
AcDbEntity
  8
寸法
 62
     0
 48
50.0
370
    -2
100
AcDbLine
 10
5221.600000000008
 20
5969.34235876527
 30
0.0
 11
4612.657733986177
 21
5969.34235876527
 31
0.0
  0
LINE
  5
29972
330
285B5
100
AcDbEntity
  8
寸法
 62
     0
 48
50.0
370
    -2
100
AcDbLine
 10
4672.657733986177
 20
7943.342358765268
 30
0.0
 11
4672.657733986176
 21
5969.34235876527
 31
0.0
  0
INSERT
  5
29973
330
285B5
100
AcDbEntity
  8
寸法
 62
     0
 48
50.0
370
    -2
100
AcDbBlockReference
  2
_DOTSMALL
 10
4672.657733986177
 20
7943.342358765268
 30
0.0
 41
100.0
 42
100.0
 43
100.0
 50
90.0
  0
INSERT
  5
29974
330
285B5
100
AcDbEntity
  8
寸法
 62
     0
 48
50.0
370
    -2
100
AcDbBlockReference
  2
_DOTSMALL
 10
4672.657733986176
 20
5969.34235876527
 30
0.0
 41
100.0
 42
100.0
 43
100.0
 50
270.0
  0
MTEXT
  5
29975
330
285B5
100
AcDbEntity
  8
寸法
 62
     7
 48
50.0
100
AcDbMText
 10
4572.657733986176
 20
6956.342358765271
 30
0.0
 40
120.0
 41
0.0
 71
     5
 72
     1
  1
\A1;1974
  7
STYLE1
 11
0.0000000000000001
 21
1.0
 31
0.0
 73
     1
 44
1.0
1001
ACAD
1000
MTEXTBEGIN
1070
    73
1070
     1
1070
    44
1040
1.0
1070
    74
1070
     0
1000
MTEXTEND
  0
POINT
  5
29976
330
285B5
100
AcDbEntity
  8
DEFPOINTS
 62
     0
 48
50.0
100
AcDbPoint
 10
5241.6
 20
7943.342358765268
 30
0.0
  0
POINT
  5
29977
330
285B5
100
AcDbEntity
  8
DEFPOINTS
 62
     0
 48
50.0
100
AcDbPoint
 10
5241.600000000008
 20
5969.34235876527
 30
0.0
  0
POINT
  5
29978
330
285B5
100
AcDbEntity
  8
DEFPOINTS
 62
     0
 48
50.0
100
AcDbPoint
 10
4672.657733986176
 20
5969.34235876527
 30
0.0
  0
ENDBLK
  5
285C0
330
285B5
100
AcDbEntity
  8
0
 48
50.0
100
AcDbBlockEnd
  0
BLOCK
  5
285CA
330
285C1
100
AcDbEntity
  8
0
 48
50.0
100
AcDbBlockBegin
  2
*D19
 70
     1
 10
0.0
 20
0.0
 30
0.0
  3
*D19
  1

  0
LINE
  5
29967
330
285C1
100
AcDbEntity
  8
寸法
 62
     0
 48
50.0
370
    -2
100
AcDbLine
 10
8223.600000000001
 20
7076.34235876527
 30
0.0
 11
8223.600000000001
 21
8653.252124413596
 31
0.0
  0
LINE
  5
29968
330
285C1
100
AcDbEntity
  8
寸法
 62
     0
 48
50.0
370
    -2
100
AcDbLine
 10
7425.6
 20
7551.342358765269
 30
0.0
 11
7425.6
 21
8653.252124413596
 31
0.0
  0
LINE
  5
29969
330
285C1
100
AcDbEntity
  8
寸法
 62
     0
 48
50.0
370
    -2
100
AcDbLine
 10
8223.600000000001
 20
8593.252124413597
 30
0.0
 11
7425.6
 21
8593.252124413597
 31
0.0
  0
INSERT
  5
2996A
330
285C1
100
AcDbEntity
  8
寸法
 62
     0
 48
50.0
370
    -2
100
AcDbBlockReference
  2
_DOTSMALL
 10
8223.600000000001
 20
8593.252124413597
 30
0.0
 41
100.0
 42
100.0
 43
100.0
  0
INSERT
  5
2996B
330
285C1
100
AcDbEntity
  8
寸法
 62
     0
 48
50.0
370
    -2
100
AcDbBlockReference
  2
_DOTSMALL
 10
7425.6
 20
8593.252124413597
 30
0.0
 41
100.0
 42
100.0
 43
100.0
 50
180.0
  0
MTEXT
  5
2996C
330
285C1
100
AcDbEntity
  8
寸法
 62
     7
 48
50.0
100
AcDbMText
 10
7824.600000000001
 20
8693.252124413596
 30
0.0
 40
120.0
 41
0.0
 71
     5
 72
     1
  1
\A1;798
  7
STYLE1
 73
     1
 44
1.0
1001
ACAD
1000
MTEXTBEGIN
1070
    73
1070
     1
1070
    44
1040
1.0
1070
    74
1070
     0
1000
MTEXTEND
  0
POINT
  5
2996D
330
285C1
100
AcDbEntity
  8
DEFPOINTS
 62
     0
 48
50.0
100
AcDbPoint
 10
8223.600000000001
 20
7056.342358765269
 30
0.0
  0
POINT
  5
2996E
330
285C1
100
AcDbEntity
  8
DEFPOINTS
 62
     0
 48
50.0
100
AcDbPoint
 10
7425.6
 20
7531.342358765269
 30
0.0
  0
POINT
  5
2996F
330
285C1
100
AcDbEntity
  8
DEFPOINTS
 62
     0
 48
50.0
100
AcDbPoint
 10
7425.6
 20
8593.252124413597
 30
0.0
  0
ENDBLK
  5
285CB
330
285C1
100
AcDbEntity
  8
0
 48
50.0
100
AcDbBlockEnd
  0
BLOCK
  5
285D6
330
285CC
100
AcDbEntity
  8
0
 48
50.0
100
AcDbBlockBegin
  2
*D20
 70
     1
 10
0.0
 20
0.0
 30
0.0
  3
*D20
  1

  0
LINE
  5
2995E
330
285CC
100
AcDbEntity
  8
寸法
 62
     0
 48
50.0
370
    -2
100
AcDbLine
 10
7425.6
 20
7551.342358765269
 30
0.0
 11
7425.6
 21
8653.252124413596
 31
0.0
  0
LINE
  5
2995F
330
285CC
100
AcDbEntity
  8
寸法
 62
     0
 48
50.0
370
    -2
100
AcDbLine
 10
6698.6
 20
7551.342358765269
 30
0.0
 11
6698.6
 21
8653.252124413596
 31
0.0
  0
LINE
  5
29960
330
285CC
100
AcDbEntity
  8
寸法
 62
     0
 48
50.0
370
    -2
100
AcDbLine
 10
7425.6
 20
8593.252124413597
 30
0.0
 11
6698.6
 21
8593.252124413597
 31
0.0
  0
INSERT
  5
29961
330
285CC
100
AcDbEntity
  8
寸法
 62
     0
 48
50.0
370
    -2
100
AcDbBlockReference
  2
_DOTSMALL
 10
7425.6
 20
8593.252124413597
 30
0.0
 41
100.0
 42
100.0
 43
100.0
  0
INSERT
  5
29962
330
285CC
100
AcDbEntity
  8
寸法
 62
     0
 48
50.0
370
    -2
100
AcDbBlockReference
  2
_DOTSMALL
 10
6698.6
 20
8593.252124413597
 30
0.0
 41
100.0
 42
100.0
 43
100.0
 50
180.0
  0
MTEXT
  5
29963
330
285CC
100
AcDbEntity
  8
寸法
 62
     7
 48
50.0
100
AcDbMText
 10
7062.1
 20
8693.263935437219
 30
0.0
 40
120.0
 41
0.0
 71
     5
 72
     1
  1
\A1;727
  7
STYLE1
 73
     1
 44
1.0
1001
ACAD
1000
MTEXTBEGIN
1070
    73
1070
     1
1070
    44
1040
1.0
1070
    74
1070
     0
1000
MTEXTEND
  0
POINT
  5
29964
330
285CC
100
AcDbEntity
  8
DEFPOINTS
 62
     0
 48
50.0
100
AcDbPoint
 10
7425.6
 20
7531.342358765269
 30
0.0
  0
POINT
  5
29965
330
285CC
100
AcDbEntity
  8
DEFPOINTS
 62
     0
 48
50.0
100
AcDbPoint
 10
6698.6
 20
7531.342358765269
 30
0.0
  0
POINT
  5
29966
330
285CC
100
AcDbEntity
  8
DEFPOINTS
 62
     0
 48
50.0
100
AcDbPoint
 10
6698.6
 20
8593.252124413597
 30
0.0
  0
ENDBLK
  5
285D7
330
285CC
100
AcDbEntity
  8
0
 48
50.0
100
AcDbBlockEnd
  0
BLOCK
  5
285E3
330
285D8
100
AcDbEntity
  8
0
 48
50.0
100
AcDbBlockBegin
  2
*D21
 70
     1
 10
0.0
 20
0.0
 30
0.0
  3
*D21
  1

  0
LINE
  5
29954
330
285D8
100
AcDbEntity
  8
寸法
 62
     0
 48
50.0
370
    -2
100
AcDbLine
 10
5418.600000000001
 20
7946.342358765267
 30
0.0
 11
5675.307249876098
 21
7946.342358765267
 31
0.0
  0
LINE
  5
29955
330
285D8
100
AcDbEntity
  8
寸法
 62
     0
 48
50.0
370
    -2
100
AcDbLine
 10
5418.600000000002
 20
8066.342358765266
 30
0.0
 11
5675.307249876098
 21
8066.342358765266
 31
0.0
  0
LINE
  5
29956
330
285D8
100
AcDbEntity
  8
寸法
 62
     0
 48
50.0
370
    -2
100
AcDbLine
 10
5615.307249876098
 20
7946.342358765267
 30
0.0
 11
5615.307249876098
 21
8066.342358765266
 31
0.0
  0
LINE
  5
29957
330
285D8
100
AcDbEntity
  8
寸法
 62
     0
 48
50.0
370
    -2
100
AcDbLine
 10
5615.307249876098
 20
8066.342358765266
 30
0.0
 11
5615.307249876098
 21
8480.47314613264
 31
0.0
  0
INSERT
  5
29958
330
285D8
100
AcDbEntity
  8
寸法
 62
     0
 48
50.0
370
    -2
100
AcDbBlockReference
  2
_DOTSMALL
 10
5615.307249876098
 20
7946.342358765267
 30
0.0
 41
100.0
 42
100.0
 43
100.0
 50
270.0
  0
INSERT
  5
29959
330
285D8
100
AcDbEntity
  8
寸法
 62
     0
 48
50.0
370
    -2
100
AcDbBlockReference
  2
_DOTSMALL
 10
5615.307249876098
 20
8066.342358765266
 30
0.0
 41
100.0
 42
100.0
 43
100.0
 50
90.0
  0
MTEXT
  5
2995A
330
285D8
100
AcDbEntity
  8
寸法
 62
     7
 48
50.0
100
AcDbMText
 10
5515.295438852476
 20
8344.425902038151
 30
0.0
 40
120.0
 41
0.0
 71
     5
 72
     1
  1
\A1;120
  7
STYLE1
 11
0.0000000000000001
 21
1.0
 31
0.0
 73
     1
 44
1.0
1001
ACAD
1000
MTEXTBEGIN
1070
    73
1070
     1
1070
    44
1040
1.0
1070
    74
1070
     0
1000
MTEXTEND
  0
POINT
  5
2995B
330
285D8
100
AcDbEntity
  8
DEFPOINTS
 62
     0
 48
50.0
100
AcDbPoint
 10
5398.6
 20
7946.342358765267
 30
0.0
  0
POINT
  5
2995C
330
285D8
100
AcDbEntity
  8
DEFPOINTS
 62
     0
 48
50.0
100
AcDbPoint
 10
5398.600000000002
 20
8066.342358765266
 30
0.0
  0
POINT
  5
2995D
330
285D8
100
AcDbEntity
  8
DEFPOINTS
 62
     0
 48
50.0
100
AcDbPoint
 10
5615.307249876098
 20
8066.342358765266
 30
0.0
  0
ENDBLK
  5
285E4
330
285D8
100
AcDbEntity
  8
0
 48
50.0
100
AcDbBlockEnd
  0
BLOCK
  5
285EF
330
285E5
100
AcDbEntity
  8
0
 48
50.0
100
AcDbBlockBegin
  2
*D22
 70
     1
 10
0.0
 20
0.0
 30
0.0
  3
*D22
  1

  0
LINE
  5
2994B
330
285E5
100
AcDbEntity
  8
寸法
 62
     0
 48
50.0
370
    -2
100
AcDbLine
 10
8105.6
 20
8013.342358765269
 30
0.0
 11
8105.6
 21
8872.101985307352
 31
0.0
  0
LINE
  5
2994C
330
285E5
100
AcDbEntity
  8
寸法
 62
     0
 48
50.0
370
    -2
100
AcDbLine
 10
5291.6
 20
8013.342358765269
 30
0.0
 11
5291.6
 21
8872.101985307352
 31
0.0
  0
LINE
  5
2994D
330
285E5
100
AcDbEntity
  8
寸法
 62
     0
 48
50.0
370
    -2
100
AcDbLine
 10
8105.6
 20
8812.101985307352
 30
0.0
 11
5291.6
 21
8812.101985307352
 31
0.0
  0
INSERT
  5
2994E
330
285E5
100
AcDbEntity
  8
寸法
 62
     0
 48
50.0
370
    -2
100
AcDbBlockReference
  2
_DOTSMALL
 10
8105.6
 20
8812.101985307352
 30
0.0
 41
100.0
 42
100.0
 43
100.0
  0
INSERT
  5
2994F
330
285E5
100
AcDbEntity
  8
寸法
 62
     0
 48
50.0
370
    -2
100
AcDbBlockReference
  2
_DOTSMALL
 10
5291.6
 20
8812.101985307352
 30
0.0
 41
100.0
 42
100.0
 43
100.0
 50
180.0
  0
MTEXT
  5
29950
330
285E5
100
AcDbEntity
  8
寸法
 62
     7
 48
50.0
100
AcDbMText
 10
6698.6
 20
8912.113796330974
 30
0.0
 40
120.0
 41
0.0
 71
     5
 72
     1
  1
\A1;2814
  7
STYLE1
 73
     1
 44
1.0
1001
ACAD
1000
MTEXTBEGIN
1070
    73
1070
     1
1070
    44
1040
1.0
1070
    74
1070
     0
1000
MTEXTEND
  0
POINT
  5
29951
330
285E5
100
AcDbEntity
  8
DEFPOINTS
 62
     0
 48
50.0
100
AcDbPoint
 10
8105.6
 20
7993.342358765268
 30
0.0
  0
POINT
  5
29952
330
285E5
100
AcDbEntity
  8
DEFPOINTS
 62
     0
 48
50.0
100
AcDbPoint
 10
5291.6
 20
7993.342358765268
 30
0.0
  0
POINT
  5
29953
330
285E5
100
AcDbEntity
  8
DEFPOINTS
 62
     0
 48
50.0
100
AcDbPoint
 10
5291.6
 20
8812.101985307352
 30
0.0
  0
ENDBLK
  5
285F0
330
285E5
100
AcDbEntity
  8
0
 48
50.0
100
AcDbBlockEnd
  0
BLOCK
  5
285FB
330
285F1
100
AcDbEntity
  8
0
 48
50.0
100
AcDbBlockBegin
  2
*D23
 70
     1
 10
0.0
 20
0.0
 30
0.0
  3
*D23
  1

  0
LINE
  5
29942
330
285F1
100
AcDbEntity
  8
寸法
 62
     0
 48
50.0
370
    -2
100
AcDbLine
 10
6698.6
 20
7551.342358765269
 30
0.0
 11
6698.6
 21
8653.252124413596
 31
0.0
  0
LINE
  5
29943
330
285F1
100
AcDbEntity
  8
寸法
 62
     0
 48
50.0
370
    -2
100
AcDbLine
 10
5971.600000000002
 20
7551.342358765269
 30
0.0
 11
5971.600000000002
 21
8653.252124413596
 31
0.0
  0
LINE
  5
29944
330
285F1
100
AcDbEntity
  8
寸法
 62
     0
 48
50.0
370
    -2
100
AcDbLine
 10
6698.6
 20
8593.252124413597
 30
0.0
 11
5971.600000000002
 21
8593.252124413597
 31
0.0
  0
INSERT
  5
29945
330
285F1
100
AcDbEntity
  8
寸法
 62
     0
 48
50.0
370
    -2
100
AcDbBlockReference
  2
_DOTSMALL
 10
6698.6
 20
8593.252124413597
 30
0.0
 41
100.0
 42
100.0
 43
100.0
  0
INSERT
  5
29946
330
285F1
100
AcDbEntity
  8
寸法
 62
     0
 48
50.0
370
    -2
100
AcDbBlockReference
  2
_DOTSMALL
 10
5971.600000000002
 20
8593.252124413597
 30
0.0
 41
100.0
 42
100.0
 43
100.0
 50
180.0
  0
MTEXT
  5
29947
330
285F1
100
AcDbEntity
  8
寸法
 62
     7
 48
50.0
100
AcDbMText
 10
6335.1
 20
8693.263935437219
 30
0.0
 40
120.0
 41
0.0
 71
     5
 72
     1
  1
\A1;727
  7
STYLE1
 73
     1
 44
1.0
1001
ACAD
1000
MTEXTBEGIN
1070
    73
1070
     1
1070
    44
1040
1.0
1070
    74
1070
     0
1000
MTEXTEND
  0
POINT
  5
29948
330
285F1
100
AcDbEntity
  8
DEFPOINTS
 62
     0
 48
50.0
100
AcDbPoint
 10
6698.6
 20
7531.342358765269
 30
0.0
  0
POINT
  5
29949
330
285F1
100
AcDbEntity
  8
DEFPOINTS
 62
     0
 48
50.0
100
AcDbPoint
 10
5971.600000000002
 20
7531.342358765269
 30
0.0
  0
POINT
  5
2994A
330
285F1
100
AcDbEntity
  8
DEFPOINTS
 62
     0
 48
50.0
100
AcDbPoint
 10
5971.600000000002
 20
8593.252124413597
 30
0.0
  0
ENDBLK
  5
285FC
330
285F1
100
AcDbEntity
  8
0
 48
50.0
100
AcDbBlockEnd
  0
BLOCK
  5
28608
330
285FD
100
AcDbEntity
  8
0
 48
50.0
100
AcDbBlockBegin
  2
*D24
 70
     1
 10
0.0
 20
0.0
 30
0.0
  3
*D24
  1

  0
LINE
  5
29938
330
285FD
100
AcDbEntity
  8
寸法
 62
     0
 48
50.0
370
    -2
100
AcDbLine
 10
5418.600000000001
 20
7946.342358765268
 30
0.0
 11
5675.307249876098
 21
7946.342358765268
 31
0.0
  0
LINE
  5
29939
330
285FD
100
AcDbEntity
  8
寸法
 62
     0
 48
50.0
370
    -2
100
AcDbLine
 10
5418.600000000001
 20
7836.342358765263
 30
0.0
 11
5675.307249876098
 21
7836.342358765263
 31
0.0
  0
LINE
  5
2993A
330
285FD
100
AcDbEntity
  8
寸法
 62
     0
 48
50.0
370
    -2
100
AcDbLine
 10
5615.307249876098
 20
7946.342358765268
 30
0.0
 11
5615.307249876098
 21
7836.342358765263
 31
0.0
  0
LINE
  5
2993B
330
285FD
100
AcDbEntity
  8
寸法
 62
     0
 48
50.0
370
    -2
100
AcDbLine
 10
5615.307249876098
 20
7836.342358765263
 30
0.0
 11
5615.307249876098
 21
7372.236059552666
 31
0.0
  0
INSERT
  5
2993C
330
285FD
100
AcDbEntity
  8
寸法
 62
     0
 48
50.0
370
    -2
100
AcDbBlockReference
  2
_DOTSMALL
 10
5615.307249876098
 20
7946.342358765268
 30
0.0
 41
100.0
 42
100.0
 43
100.0
 50
90.0
  0
INSERT
  5
2993D
330
285FD
100
AcDbEntity
  8
寸法
 62
     0
 48
50.0
370
    -2
100
AcDbBlockReference
  2
_DOTSMALL
 10
5615.307249876098
 20
7836.342358765263
 30
0.0
 41
100.0
 42
100.0
 43
100.0
 50
270.0
  0
MTEXT
  5
2993E
330
285FD
100
AcDbEntity
  8
寸法
 62
     7
 48
50.0
100
AcDbMText
 10
5515.307249876098
 20
7496.283303647155
 30
0.0
 40
120.0
 41
0.0
 71
     5
 72
     1
  1
\A1;110
  7
STYLE1
 11
0.0000000000000001
 21
1.0
 31
0.0
 73
     1
 44
1.0
1001
ACAD
1000
MTEXTBEGIN
1070
    73
1070
     1
1070
    44
1040
1.0
1070
    74
1070
     0
1000
MTEXTEND
  0
POINT
  5
2993F
330
285FD
100
AcDbEntity
  8
DEFPOINTS
 62
     0
 48
50.0
100
AcDbPoint
 10
5398.6
 20
7946.342358765268
 30
0.0
  0
POINT
  5
29940
330
285FD
100
AcDbEntity
  8
DEFPOINTS
 62
     0
 48
50.0
100
AcDbPoint
 10
5398.6
 20
7836.342358765263
 30
0.0
  0
POINT
  5
29941
330
285FD
100
AcDbEntity
  8
DEFPOINTS
 62
     0
 48
50.0
100
AcDbPoint
 10
5615.307249876098
 20
7836.342358765263
 30
0.0
  0
ENDBLK
  5
28609
330
285FD
100
AcDbEntity
  8
0
 48
50.0
100
AcDbBlockEnd
  0
BLOCK
  5
28612
330
2860A
100
AcDbEntity
  8
0
 48
50.0
100
AcDbBlockBegin
  2
*D25
 70
     1
 10
0.0
 20
0.0
 30
0.0
  3
*D25
  1

  0
LINE
  5
2992D
330
2860A
100
AcDbEntity
  8
寸法
 62
     0
 48
50.0
370
    -2
100
AcDbLine
 10
8235.600000000001
 20
6096.342358765287
 30
0.0
 11
8235.600000000001
 21
6449.499897592426
 31
0.0
  0
LINE
  5
2992E
330
2860A
100
AcDbEntity
  8
寸法
 62
     0
 48
50.0
370
    -2
100
AcDbLine
 10
7975.6
 20
6096.342358765287
 30
0.0
 11
7975.6
 21
6449.499897592426
 31
0.0
  0
LINE
  5
2992F
330
2860A
100
AcDbEntity
  8
寸法
 62
     0
 48
50.0
370
    -2
100
AcDbLine
 10
8235.600000000001
 20
6389.499897592425
 30
0.0
 11
8335.600000000001
 21
6389.499897592425
 31
0.0
  0
LINE
  5
29930
330
2860A
100
AcDbEntity
  8
寸法
 62
     0
 48
50.0
370
    -2
100
AcDbLine
 10
7975.6
 20
6389.499897592425
 30
0.0
 11
7875.6
 21
6389.499897592425
 31
0.0
  0
LINE
  5
29931
330
2860A
100
AcDbEntity
  8
寸法
 62
     0
 48
50.0
370
    -2
100
AcDbLine
 10
8235.600000000001
 20
6389.499897592425
 30
0.0
 11
7975.6
 21
6389.499897592425
 31
0.0
  0
INSERT
  5
29932
330
2860A
100
AcDbEntity
  8
寸法
 62
     0
 48
50.0
370
    -2
100
AcDbBlockReference
  2
_DOTSMALL
 10
8235.600000000001
 20
6389.499897592425
 30
0.0
 41
100.0
 42
100.0
 43
100.0
 50
180.0
  0
INSERT
  5
29933
330
2860A
100
AcDbEntity
  8
寸法
 62
     0
 48
50.0
370
    -2
100
AcDbBlockReference
  2
_DOTSMALL
 10
7975.6
 20
6389.499897592425
 30
0.0
 41
100.0
 42
100.0
 43
100.0
  0
MTEXT
  5
29934
330
2860A
100
AcDbEntity
  8
寸法
 62
     7
 48
50.0
100
AcDbMText
 10
8105.6
 20
6489.511708616046
 30
0.0
 40
120.0
 41
0.0
 71
     5
 72
     1
  1
\A1;260
  7
STYLE1
 73
     1
 44
1.0
1001
ACAD
1000
MTEXTBEGIN
1070
    73
1070
     1
1070
    44
1040
1.0
1070
    74
1070
     0
1000
MTEXTEND
  0
POINT
  5
29935
330
2860A
100
AcDbEntity
  8
DEFPOINTS
 62
     0
 48
50.0
100
AcDbPoint
 10
8235.600000000001
 20
6076.342358765288
 30
0.0
  0
POINT
  5
29936
330
2860A
100
AcDbEntity
  8
DEFPOINTS
 62
     0
 48
50.0
100
AcDbPoint
 10
7975.6
 20
6076.342358765288
 30
0.0
  0
POINT
  5
29937
330
2860A
100
AcDbEntity
  8
DEFPOINTS
 62
     0
 48
50.0
100
AcDbPoint
 10
7975.6
 20
6389.499897592425
 30
0.0
  0
ENDBLK
  5
28613
330
2860A
100
AcDbEntity
  8
0
 48
50.0
100
AcDbBlockEnd
  0
BLOCK
  5
2861E
330
28614
100
AcDbEntity
  8
0
 48
50.0
100
AcDbBlockBegin
  2
*D26
 70
     1
 10
0.0
 20
0.0
 30
0.0
  3
*D26
  1

  0
LINE
  5
29924
330
28614
100
AcDbEntity
  8
寸法
 62
     0
 48
50.0
370
    -2
100
AcDbLine
 10
9929.045939259561
 20
5846.342358765276
 30
0.0
 11
10223.85510029273
 21
5846.342358765276
 31
0.0
  0
LINE
  5
29925
330
28614
100
AcDbEntity
  8
寸法
 62
     0
 48
50.0
370
    -2
100
AcDbLine
 10
10355.6
 20
6581.342358765269
 30
0.0
 11
10103.85510029273
 21
6581.342358765269
 31
0.0
  0
LINE
  5
29926
330
28614
100
AcDbEntity
  8
寸法
 62
     0
 48
50.0
370
    -2
100
AcDbLine
 10
10163.85510029273
 20
5846.342358765276
 30
0.0
 11
10163.85510029273
 21
6581.342358765269
 31
0.0
  0
INSERT
  5
29927
330
28614
100
AcDbEntity
  8
寸法
 62
     0
 48
50.0
370
    -2
100
AcDbBlockReference
  2
_DOTSMALL
 10
10163.85510029273
 20
5846.342358765276
 30
0.0
 41
100.0
 42
100.0
 43
100.0
 50
270.0
  0
INSERT
  5
29928
330
28614
100
AcDbEntity
  8
寸法
 62
     0
 48
50.0
370
    -2
100
AcDbBlockReference
  2
_DOTSMALL
 10
10163.85510029273
 20
6581.342358765269
 30
0.0
 41
100.0
 42
100.0
 43
100.0
 50
90.0
  0
MTEXT
  5
29929
330
28614
100
AcDbEntity
  8
寸法
 62
     7
 48
50.0
100
AcDbMText
 10
10063.85510029272
 20
6213.842358765274
 30
0.0
 40
120.0
 41
0.0
 71
     5
 72
     1
  1
\A1;735
  7
STYLE1
 11
0.0000000000000001
 21
1.0
 31
0.0
 73
     1
 44
1.0
1001
ACAD
1000
MTEXTBEGIN
1070
    73
1070
     1
1070
    44
1040
1.0
1070
    74
1070
     0
1000
MTEXTEND
  0
POINT
  5
2992A
330
28614
100
AcDbEntity
  8
DEFPOINTS
 62
     0
 48
50.0
100
AcDbPoint
 10
9909.045939259561
 20
5846.342358765276
 30
0.0
  0
POINT
  5
2992B
330
28614
100
AcDbEntity
  8
DEFPOINTS
 62
     0
 48
50.0
100
AcDbPoint
 10
10375.6
 20
6581.342358765269
 30
0.0
  0
POINT
  5
2992C
330
28614
100
AcDbEntity
  8
DEFPOINTS
 62
     0
 48
50.0
100
AcDbPoint
 10
10163.85510029273
 20
6581.342358765269
 30
0.0
  0
ENDBLK
  5
2861F
330
28614
100
AcDbEntity
  8
0
 48
50.0
100
AcDbBlockEnd
  0
BLOCK
  5
28638
330
2862D
100
AcDbEntity
  8
0
 48
50.0
100
AcDbBlockBegin
  2
*D27
 70
     1
 10
0.0
 20
0.0
 30
0.0
  3
*D27
  1

  0
LINE
  5
2991A
330
2862D
100
AcDbEntity
  8
寸法
 62
     0
 48
50.0
370
    -2
100
AcDbLine
 10
11278.6
 20
8086.34235876527
 30
0.0
 11
11278.6
 21
8872.101985307352
 31
0.0
  0
LINE
  5
2991B
330
2862D
100
AcDbEntity
  8
寸法
 62
     0
 48
50.0
370
    -2
100
AcDbLine
 10
11155.6
 20
8013.342358765269
 30
0.0
 11
11155.6
 21
8872.101985307352
 31
0.0
  0
LINE
  5
2991C
330
2862D
100
AcDbEntity
  8
寸法
 62
     0
 48
50.0
370
    -2
100
AcDbLine
 10
11155.6
 20
8812.101985307352
 30
0.0
 11
11278.6
 21
8812.101985307352
 31
0.0
  0
LINE
  5
2991D
330
2862D
100
AcDbEntity
  8
寸法
 62
     0
 48
50.0
370
    -2
100
AcDbLine
 10
11278.6
 20
8812.101985307352
 30
0.0
 11
11690.19188309204
 21
8812.101985307352
 31
0.0
  0
INSERT
  5
2991E
330
2862D
100
AcDbEntity
  8
寸法
 62
     0
 48
50.0
370
    -2
100
AcDbBlockReference
  2
_DOTSMALL
 10
11155.6
 20
8812.101985307352
 30
0.0
 41
100.0
 42
100.0
 43
100.0
 50
180.0
  0
INSERT
  5
2991F
330
2862D
100
AcDbEntity
  8
寸法
 62
     0
 48
50.0
370
    -2
100
AcDbBlockReference
  2
_DOTSMALL
 10
11278.6
 20
8812.101985307352
 30
0.0
 41
100.0
 42
100.0
 43
100.0
  0
MTEXT
  5
29920
330
2862D
100
AcDbEntity
  8
寸法
 62
     7
 48
50.0
100
AcDbMText
 10
11551.7066017178
 20
8912.113796330974
 30
0.0
 40
120.0
 41
0.0
 71
     5
 72
     1
  1
\A1;123
  7
STYLE1
 73
     1
 44
1.0
1001
ACAD
1000
MTEXTBEGIN
1070
    73
1070
     1
1070
    44
1040
1.0
1070
    74
1070
     0
1000
MTEXTEND
  0
POINT
  5
29921
330
2862D
100
AcDbEntity
  8
DEFPOINTS
 62
     0
 48
50.0
100
AcDbPoint
 10
11278.6
 20
8066.342358765268
 30
0.0
  0
POINT
  5
29922
330
2862D
100
AcDbEntity
  8
DEFPOINTS
 62
     0
 48
50.0
100
AcDbPoint
 10
11155.6
 20
7993.342358765268
 30
0.0
  0
POINT
  5
29923
330
2862D
100
AcDbEntity
  8
DEFPOINTS
 62
     0
 48
50.0
100
AcDbPoint
 10
11155.6
 20
8812.101985307352
 30
0.0
  0
ENDBLK
  5
28639
330
2862D
100
AcDbEntity
  8
0
 48
50.0
100
AcDbBlockEnd
  0
BLOCK
  5
28644
330
2863A
100
AcDbEntity
  8
0
 48
50.0
100
AcDbBlockBegin
  2
*D28
 70
     1
 10
0.0
 20
0.0
 30
0.0
  3
*D28
  1

  0
LINE
  5
29911
330
2863A
100
AcDbEntity
  8
寸法
 62
     0
 48
50.0
370
    -2
100
AcDbLine
 10
10475.6
 20
7551.342358765269
 30
0.0
 11
10475.6
 21
8653.252124413596
 31
0.0
  0
LINE
  5
29912
330
2863A
100
AcDbEntity
  8
寸法
 62
     0
 48
50.0
370
    -2
100
AcDbLine
 10
9748.600000000001
 20
7551.342358765269
 30
0.0
 11
9748.600000000001
 21
8653.252124413596
 31
0.0
  0
LINE
  5
29913
330
2863A
100
AcDbEntity
  8
寸法
 62
     0
 48
50.0
370
    -2
100
AcDbLine
 10
10475.6
 20
8593.252124413597
 30
0.0
 11
9748.600000000001
 21
8593.252124413597
 31
0.0
  0
INSERT
  5
29914
330
2863A
100
AcDbEntity
  8
寸法
 62
     0
 48
50.0
370
    -2
100
AcDbBlockReference
  2
_DOTSMALL
 10
10475.6
 20
8593.252124413597
 30
0.0
 41
100.0
 42
100.0
 43
100.0
  0
INSERT
  5
29915
330
2863A
100
AcDbEntity
  8
寸法
 62
     0
 48
50.0
370
    -2
100
AcDbBlockReference
  2
_DOTSMALL
 10
9748.600000000001
 20
8593.252124413597
 30
0.0
 41
100.0
 42
100.0
 43
100.0
 50
180.0
  0
MTEXT
  5
29916
330
2863A
100
AcDbEntity
  8
寸法
 62
     7
 48
50.0
100
AcDbMText
 10
10112.1
 20
8693.263935437219
 30
0.0
 40
120.0
 41
0.0
 71
     5
 72
     1
  1
\A1;727
  7
STYLE1
 73
     1
 44
1.0
1001
ACAD
1000
MTEXTBEGIN
1070
    73
1070
     1
1070
    44
1040
1.0
1070
    74
1070
     0
1000
MTEXTEND
  0
POINT
  5
29917
330
2863A
100
AcDbEntity
  8
DEFPOINTS
 62
     0
 48
50.0
100
AcDbPoint
 10
10475.6
 20
7531.342358765269
 30
0.0
  0
POINT
  5
29918
330
2863A
100
AcDbEntity
  8
DEFPOINTS
 62
     0
 48
50.0
100
AcDbPoint
 10
9748.600000000001
 20
7531.342358765269
 30
0.0
  0
POINT
  5
29919
330
2863A
100
AcDbEntity
  8
DEFPOINTS
 62
     0
 48
50.0
100
AcDbPoint
 10
9748.600000000001
 20
8593.252124413597
 30
0.0
  0
ENDBLK
  5
28645
330
2863A
100
AcDbEntity
  8
0
 48
50.0
100
AcDbBlockEnd
  0
BLOCK
  5
28650
330
28646
100
AcDbEntity
  8
0
 48
50.0
100
AcDbBlockBegin
  2
*D29
 70
     1
 10
0.0
 20
0.0
 30
0.0
  3
*D29
  1

  0
LINE
  5
29908
330
28646
100
AcDbEntity
  8
寸法
 62
     0
 48
50.0
370
    -2
100
AcDbLine
 10
11278.6
 20
8086.34235876527
 30
0.0
 11
11278.6
 21
8653.252124413596
 31
0.0
  0
LINE
  5
29909
330
28646
100
AcDbEntity
  8
寸法
 62
     0
 48
50.0
370
    -2
100
AcDbLine
 10
10475.6
 20
7551.342358765269
 30
0.0
 11
10475.6
 21
8653.252124413596
 31
0.0
  0
LINE
  5
2990A
330
28646
100
AcDbEntity
  8
寸法
 62
     0
 48
50.0
370
    -2
100
AcDbLine
 10
11278.6
 20
8593.252124413597
 30
0.0
 11
10475.6
 21
8593.252124413597
 31
0.0
  0
INSERT
  5
2990B
330
28646
100
AcDbEntity
  8
寸法
 62
     0
 48
50.0
370
    -2
100
AcDbBlockReference
  2
_DOTSMALL
 10
11278.6
 20
8593.252124413597
 30
0.0
 41
100.0
 42
100.0
 43
100.0
  0
INSERT
  5
2990C
330
28646
100
AcDbEntity
  8
寸法
 62
     0
 48
50.0
370
    -2
100
AcDbBlockReference
  2
_DOTSMALL
 10
10475.6
 20
8593.252124413597
 30
0.0
 41
100.0
 42
100.0
 43
100.0
 50
180.0
  0
MTEXT
  5
2990D
330
28646
100
AcDbEntity
  8
寸法
 62
     7
 48
50.0
100
AcDbMText
 10
10877.1
 20
8693.252124413596
 30
0.0
 40
120.0
 41
0.0
 71
     5
 72
     1
  1
\A1;803
  7
STYLE1
 73
     1
 44
1.0
1001
ACAD
1000
MTEXTBEGIN
1070
    73
1070
     1
1070
    44
1040
1.0
1070
    74
1070
     0
1000
MTEXTEND
  0
POINT
  5
2990E
330
28646
100
AcDbEntity
  8
DEFPOINTS
 62
     0
 48
50.0
100
AcDbPoint
 10
11278.6
 20
8066.342358765268
 30
0.0
  0
POINT
  5
2990F
330
28646
100
AcDbEntity
  8
DEFPOINTS
 62
     0
 48
50.0
100
AcDbPoint
 10
10475.6
 20
7531.342358765269
 30
0.0
  0
POINT
  5
29910
330
28646
100
AcDbEntity
  8
DEFPOINTS
 62
     0
 48
50.0
100
AcDbPoint
 10
10475.6
 20
8593.252124413597
 30
0.0
  0
ENDBLK
  5
28651
330
28646
100
AcDbEntity
  8
0
 48
50.0
100
AcDbBlockEnd
  0
BLOCK
  5
2865C
330
28652
100
AcDbEntity
  8
0
 48
50.0
100
AcDbBlockBegin
  2
*D30
 70
     1
 10
0.0
 20
0.0
 30
0.0
  3
*D30
  1

  0
LINE
  5
298FF
330
28652
100
AcDbEntity
  8
寸法
 62
     0
 48
50.0
370
    -2
100
AcDbLine
 10
9748.600000000001
 20
7551.342358765269
 30
0.0
 11
9748.600000000001
 21
8653.252124413596
 31
0.0
  0
LINE
  5
29900
330
28652
100
AcDbEntity
  8
寸法
 62
     0
 48
50.0
370
    -2
100
AcDbLine
 10
9021.600000000001
 20
7551.342358765269
 30
0.0
 11
9021.600000000001
 21
8653.252124413596
 31
0.0
  0
LINE
  5
29901
330
28652
100
AcDbEntity
  8
寸法
 62
     0
 48
50.0
370
    -2
100
AcDbLine
 10
9748.600000000001
 20
8593.252124413597
 30
0.0
 11
9021.600000000001
 21
8593.252124413597
 31
0.0
  0
INSERT
  5
29902
330
28652
100
AcDbEntity
  8
寸法
 62
     0
 48
50.0
370
    -2
100
AcDbBlockReference
  2
_DOTSMALL
 10
9748.600000000001
 20
8593.252124413597
 30
0.0
 41
100.0
 42
100.0
 43
100.0
  0
INSERT
  5
29903
330
28652
100
AcDbEntity
  8
寸法
 62
     0
 48
50.0
370
    -2
100
AcDbBlockReference
  2
_DOTSMALL
 10
9021.600000000001
 20
8593.252124413597
 30
0.0
 41
100.0
 42
100.0
 43
100.0
 50
180.0
  0
MTEXT
  5
29904
330
28652
100
AcDbEntity
  8
寸法
 62
     7
 48
50.0
100
AcDbMText
 10
9385.099999999999
 20
8693.263935437219
 30
0.0
 40
120.0
 41
0.0
 71
     5
 72
     1
  1
\A1;727
  7
STYLE1
 73
     1
 44
1.0
1001
ACAD
1000
MTEXTBEGIN
1070
    73
1070
     1
1070
    44
1040
1.0
1070
    74
1070
     0
1000
MTEXTEND
  0
POINT
  5
29905
330
28652
100
AcDbEntity
  8
DEFPOINTS
 62
     0
 48
50.0
100
AcDbPoint
 10
9748.600000000001
 20
7531.342358765269
 30
0.0
  0
POINT
  5
29906
330
28652
100
AcDbEntity
  8
DEFPOINTS
 62
     0
 48
50.0
100
AcDbPoint
 10
9021.600000000001
 20
7531.342358765269
 30
0.0
  0
POINT
  5
29907
330
28652
100
AcDbEntity
  8
DEFPOINTS
 62
     0
 48
50.0
100
AcDbPoint
 10
9021.600000000001
 20
8593.252124413597
 30
0.0
  0
ENDBLK
  5
2865D
330
28652
100
AcDbEntity
  8
0
 48
50.0
100
AcDbBlockEnd
  0
BLOCK
  5
28668
330
2865E
100
AcDbEntity
  8
0
 48
50.0
100
AcDbBlockBegin
  2
*D31
 70
     1
 10
0.0
 20
0.0
 30
0.0
  3
*D31
  1

  0
LINE
  5
298F6
330
2865E
100
AcDbEntity
  8
寸法
 62
     0
 48
50.0
370
    -2
100
AcDbLine
 10
10355.6
 20
6581.342358765279
 30
0.0
 11
10103.85510029273
 21
6581.342358765279
 31
0.0
  0
LINE
  5
298F7
330
2865E
100
AcDbEntity
  8
寸法
 62
     0
 48
50.0
370
    -2
100
AcDbLine
 10
10355.6
 20
7331.342358765269
 30
0.0
 11
10103.85510029273
 21
7331.342358765269
 31
0.0
  0
LINE
  5
298F8
330
2865E
100
AcDbEntity
  8
寸法
 62
     0
 48
50.0
370
    -2
100
AcDbLine
 10
10163.85510029273
 20
6581.342358765279
 30
0.0
 11
10163.85510029273
 21
7331.342358765269
 31
0.0
  0
INSERT
  5
298F9
330
2865E
100
AcDbEntity
  8
寸法
 62
     0
 48
50.0
370
    -2
100
AcDbBlockReference
  2
_DOTSMALL
 10
10163.85510029273
 20
6581.342358765279
 30
0.0
 41
100.0
 42
100.0
 43
100.0
 50
270.0
  0
INSERT
  5
298FA
330
2865E
100
AcDbEntity
  8
寸法
 62
     0
 48
50.0
370
    -2
100
AcDbBlockReference
  2
_DOTSMALL
 10
10163.85510029273
 20
7331.342358765269
 30
0.0
 41
100.0
 42
100.0
 43
100.0
 50
90.0
  0
MTEXT
  5
298FB
330
2865E
100
AcDbEntity
  8
寸法
 62
     7
 48
50.0
100
AcDbMText
 10
10063.85510029272
 20
6956.342358765275
 30
0.0
 40
120.0
 41
0.0
 71
     5
 72
     1
  1
\A1;750
  7
STYLE1
 11
0.0000000000000001
 21
1.0
 31
0.0
 73
     1
 44
1.0
1001
ACAD
1000
MTEXTBEGIN
1070
    73
1070
     1
1070
    44
1040
1.0
1070
    74
1070
     0
1000
MTEXTEND
  0
POINT
  5
298FC
330
2865E
100
AcDbEntity
  8
DEFPOINTS
 62
     0
 48
50.0
100
AcDbPoint
 10
10375.6
 20
6581.342358765279
 30
0.0
  0
POINT
  5
298FD
330
2865E
100
AcDbEntity
  8
DEFPOINTS
 62
     0
 48
50.0
100
AcDbPoint
 10
10375.6
 20
7331.342358765269
 30
0.0
  0
POINT
  5
298FE
330
2865E
100
AcDbEntity
  8
DEFPOINTS
 62
     0
 48
50.0
100
AcDbPoint
 10
10163.85510029273
 20
7331.342358765269
 30
0.0
  0
ENDBLK
  5
28669
330
2865E
100
AcDbEntity
  8
0
 48
50.0
100
AcDbBlockEnd
  0
BLOCK
  5
28673
330
2866A
100
AcDbEntity
  8
0
 48
50.0
100
AcDbBlockBegin
  2
*D32
 70
     1
 10
0.0
 20
0.0
 30
0.0
  3
*D32
  1

  0
LINE
  5
298ED
330
2866A
100
AcDbEntity
  8
寸法
 62
     0
 48
50.0
370
    -2
100
AcDbLine
 10
10355.6
 20
7331.342358765269
 30
0.0
 11
10103.85510029273
 21
7331.342358765269
 31
0.0
  0
LINE
  5
298EE
330
2866A
100
AcDbEntity
  8
寸法
 62
     0
 48
50.0
370
    -2
100
AcDbLine
 10
9833.157431058356
 20
8066.342358765268
 30
0.0
 11
10223.85510029273
 21
8066.342358765268
 31
0.0
  0
LINE
  5
298EF
330
2866A
100
AcDbEntity
  8
寸法
 62
     0
 48
50.0
370
    -2
100
AcDbLine
 10
10163.85510029273
 20
7331.342358765269
 30
0.0
 11
10163.85510029273
 21
8066.342358765268
 31
0.0
  0
INSERT
  5
298F0
330
2866A
100
AcDbEntity
  8
寸法
 62
     0
 48
50.0
370
    -2
100
AcDbBlockReference
  2
_DOTSMALL
 10
10163.85510029273
 20
7331.342358765269
 30
0.0
 41
100.0
 42
100.0
 43
100.0
 50
270.0
  0
INSERT
  5
298F1
330
2866A
100
AcDbEntity
  8
寸法
 62
     0
 48
50.0
370
    -2
100
AcDbBlockReference
  2
_DOTSMALL
 10
10163.85510029273
 20
8066.342358765268
 30
0.0
 41
100.0
 42
100.0
 43
100.0
 50
90.0
  0
MTEXT
  5
298F2
330
2866A
100
AcDbEntity
  8
寸法
 62
     7
 48
50.0
100
AcDbMText
 10
10063.85510029272
 20
7698.84235876527
 30
0.0
 40
120.0
 41
0.0
 71
     5
 72
     1
  1
\A1;735
  7
STYLE1
 11
0.0000000000000001
 21
1.0
 31
0.0
 73
     1
 44
1.0
1001
ACAD
1000
MTEXTBEGIN
1070
    73
1070
     1
1070
    44
1040
1.0
1070
    74
1070
     0
1000
MTEXTEND
  0
POINT
  5
298F3
330
2866A
100
AcDbEntity
  8
DEFPOINTS
 62
     0
 48
50.0
100
AcDbPoint
 10
10375.6
 20
7331.342358765269
 30
0.0
  0
POINT
  5
298F4
330
2866A
100
AcDbEntity
  8
DEFPOINTS
 62
     0
 48
50.0
100
AcDbPoint
 10
9813.157431058357
 20
8066.342358765268
 30
0.0
  0
POINT
  5
298F5
330
2866A
100
AcDbEntity
  8
DEFPOINTS
 62
     0
 48
50.0
100
AcDbPoint
 10
10163.85510029273
 20
8066.342358765268
 30
0.0
  0
ENDBLK
  5
28674
330
2866A
100
AcDbEntity
  8
0
 48
50.0
100
AcDbBlockEnd
  0
BLOCK
  5
28680
330
28675
100
AcDbEntity
  8
0
 48
50.0
100
AcDbBlockBegin
  2
*D33
 70
     1
 10
0.0
 20
0.0
 30
0.0
  3
*D33
  1

  0
LINE
  5
298E3
330
28675
100
AcDbEntity
  8
寸法
 62
     0
 48
50.0
370
    -2
100
AcDbLine
 10
11158.6
 20
7816.342358765268
 30
0.0
 11
11158.6
 21
7548.633691264895
 31
0.0
  0
LINE
  5
298E4
330
28675
100
AcDbEntity
  8
寸法
 62
     0
 48
50.0
370
    -2
100
AcDbLine
 10
11048.6
 20
7816.342358765268
 30
0.0
 11
11048.6
 21
7548.633691264895
 31
0.0
  0
LINE
  5
298E5
330
28675
100
AcDbEntity
  8
寸法
 62
     0
 48
50.0
370
    -2
100
AcDbLine
 10
11158.6
 20
7608.633691264895
 30
0.0
 11
11048.6
 21
7608.633691264895
 31
0.0
  0
LINE
  5
298E6
330
28675
100
AcDbEntity
  8
寸法
 62
     0
 48
50.0
370
    -2
100
AcDbLine
 10
11048.6
 20
7608.633691264895
 30
0.0
 11
10654.4937007874
 21
7608.633691264895
 31
0.0
  0
INSERT
  5
298E7
330
28675
100
AcDbEntity
  8
寸法
 62
     0
 48
50.0
370
    -2
100
AcDbBlockReference
  2
_DOTSMALL
 10
11158.6
 20
7608.633691264895
 30
0.0
 41
100.0
 42
100.0
 43
100.0
  0
INSERT
  5
298E8
330
28675
100
AcDbEntity
  8
寸法
 62
     0
 48
50.0
370
    -2
100
AcDbBlockReference
  2
_DOTSMALL
 10
11048.6
 20
7608.633691264895
 30
0.0
 41
100.0
 42
100.0
 43
100.0
 50
180.0
  0
MTEXT
  5
298E9
330
28675
100
AcDbEntity
  8
寸法
 62
     7
 48
50.0
100
AcDbMText
 10
10778.54094488189
 20
7708.633691264894
 30
0.0
 40
120.0
 41
0.0
 71
     5
 72
     1
  1
\A1;110
  7
STYLE1
 73
     1
 44
1.0
1001
ACAD
1000
MTEXTBEGIN
1070
    73
1070
     1
1070
    44
1040
1.0
1070
    74
1070
     0
1000
MTEXTEND
  0
POINT
  5
298EA
330
28675
100
AcDbEntity
  8
DEFPOINTS
 62
     0
 48
50.0
100
AcDbPoint
 10
11158.6
 20
7836.342358765269
 30
0.0
  0
POINT
  5
298EB
330
28675
100
AcDbEntity
  8
DEFPOINTS
 62
     0
 48
50.0
100
AcDbPoint
 10
11048.6
 20
7836.342358765269
 30
0.0
  0
POINT
  5
298EC
330
28675
100
AcDbEntity
  8
DEFPOINTS
 62
     0
 48
50.0
100
AcDbPoint
 10
11048.6
 20
7608.633691264895
 30
0.0
  0
ENDBLK
  5
28681
330
28675
100
AcDbEntity
  8
0
 48
50.0
100
AcDbBlockEnd
  0
BLOCK
  5
2868D
330
28682
100
AcDbEntity
  8
0
 48
50.0
100
AcDbBlockBegin
  2
*D34
 70
     1
 10
0.0
 20
0.0
 30
0.0
  3
*D34
  1

  0
LINE
  5
298D9
330
28682
100
AcDbEntity
  8
寸法
 62
     0
 48
50.0
370
    -2
100
AcDbLine
 10
11278.6
 20
7605.626955303725
 30
0.0
 11
11278.6
 21
7548.633691264895
 31
0.0
  0
LINE
  5
298DA
330
28682
100
AcDbEntity
  8
寸法
 62
     0
 48
50.0
370
    -2
100
AcDbLine
 10
11158.6
 20
7816.342358765268
 30
0.0
 11
11158.6
 21
7548.633691264895
 31
0.0
  0
LINE
  5
298DB
330
28682
100
AcDbEntity
  8
寸法
 62
     0
 48
50.0
370
    -2
100
AcDbLine
 10
11158.6
 20
7608.633691264895
 30
0.0
 11
11278.6
 21
7608.633691264895
 31
0.0
  0
LINE
  5
298DC
330
28682
100
AcDbEntity
  8
寸法
 62
     0
 48
50.0
370
    -2
100
AcDbLine
 10
11278.6
 20
7608.633691264895
 30
0.0
 11
11684.7062992126
 21
7608.633691264895
 31
0.0
  0
INSERT
  5
298DD
330
28682
100
AcDbEntity
  8
寸法
 62
     0
 48
50.0
370
    -2
100
AcDbBlockReference
  2
_DOTSMALL
 10
11158.6
 20
7608.633691264895
 30
0.0
 41
100.0
 42
100.0
 43
100.0
 50
180.0
  0
INSERT
  5
298DE
330
28682
100
AcDbEntity
  8
寸法
 62
     0
 48
50.0
370
    -2
100
AcDbBlockReference
  2
_DOTSMALL
 10
11278.6
 20
7608.633691264895
 30
0.0
 41
100.0
 42
100.0
 43
100.0
  0
MTEXT
  5
298DF
330
28682
100
AcDbEntity
  8
寸法
 62
     7
 48
50.0
100
AcDbMText
 10
11548.65905511811
 20
7708.645502288516
 30
0.0
 40
120.0
 41
0.0
 71
     5
 72
     1
  1
\A1;120
  7
STYLE1
 73
     1
 44
1.0
1001
ACAD
1000
MTEXTBEGIN
1070
    73
1070
     1
1070
    44
1040
1.0
1070
    74
1070
     0
1000
MTEXTEND
  0
POINT
  5
298E0
330
28682
100
AcDbEntity
  8
DEFPOINTS
 62
     0
 48
50.0
100
AcDbPoint
 10
11278.6
 20
7625.626955303726
 30
0.0
  0
POINT
  5
298E1
330
28682
100
AcDbEntity
  8
DEFPOINTS
 62
     0
 48
50.0
100
AcDbPoint
 10
11158.6
 20
7836.342358765269
 30
0.0
  0
POINT
  5
298E2
330
28682
100
AcDbEntity
  8
DEFPOINTS
 62
     0
 48
50.0
100
AcDbPoint
 10
11158.6
 20
7608.633691264895
 30
0.0
  0
ENDBLK
  5
2868E
330
28682
100
AcDbEntity
  8
0
 48
50.0
100
AcDbBlockEnd
  0
BLOCK
  5
29192
330
29188
100
AcDbEntity
  8
0
 48
50.0
100
AcDbBlockBegin
  2
*D35
 70
     1
 10
0.0
 20
0.0
 30
0.0
  3
*D35
  1

  0
LINE
  5
298D0
330
29188
100
AcDbEntity
  8
寸法
 62
     0
 48
50.0
370
    -2
100
AcDbLine
 10
7776.600000000001
 20
5751.342358765291
 30
0.0
 11
7776.600000000001
 21
5226.497344423079
 31
0.0
  0
LINE
  5
298D1
330
29188
100
AcDbEntity
  8
寸法
 62
     0
 48
50.0
370
    -2
100
AcDbLine
 10
5621.6
 20
5751.342358765273
 30
0.0
 11
5621.6
 21
5226.497344423079
 31
0.0
  0
LINE
  5
298D2
330
29188
100
AcDbEntity
  8
寸法
 62
     0
 48
50.0
370
    -2
100
AcDbLine
 10
7776.600000000001
 20
5286.497344423079
 30
0.0
 11
5621.6
 21
5286.497344423079
 31
0.0
  0
INSERT
  5
298D3
330
29188
100
AcDbEntity
  8
寸法
 62
     0
 48
50.0
370
    -2
100
AcDbBlockReference
  2
_DOTSMALL
 10
7776.600000000001
 20
5286.497344423079
 30
0.0
 41
100.0
 42
100.0
 43
100.0
  0
INSERT
  5
298D4
330
29188
100
AcDbEntity
  8
寸法
 62
     0
 48
50.0
370
    -2
100
AcDbBlockReference
  2
_DOTSMALL
 10
5621.6
 20
5286.497344423079
 30
0.0
 41
100.0
 42
100.0
 43
100.0
 50
180.0
  0
MTEXT
  5
298D5
330
29188
100
AcDbEntity
  8
寸法
 62
     7
 48
50.0
100
AcDbMText
 10
6699.1
 20
5386.509155446701
 30
0.0
 40
120.0
 41
0.0
 71
     5
 72
     1
  1
\A1;扉の幅 2155
  7
STYLE1
 73
     1
 44
1.0
1001
ACAD
1000
MTEXTBEGIN
1070
    73
1070
     1
1070
    44
1040
1.0
1070
    74
1070
     0
1000
MTEXTEND
  0
POINT
  5
298D6
330
29188
100
AcDbEntity
  8
DEFPOINTS
 62
     0
 48
50.0
100
AcDbPoint
 10
7776.600000000001
 20
5771.342358765291
 30
0.0
  0
POINT
  5
298D7
330
29188
100
AcDbEntity
  8
DEFPOINTS
 62
     0
 48
50.0
100
AcDbPoint
 10
5621.6
 20
5771.342358765274
 30
0.0
  0
POINT
  5
298D8
330
29188
100
AcDbEntity
  8
DEFPOINTS
 62
     0
 48
50.0
100
AcDbPoint
 10
5621.6
 20
5286.497344423079
 30
0.0
  0
ENDBLK
  5
29193
330
29188
100
AcDbEntity
  8
0
 48
50.0
100
AcDbBlockEnd
  0
BLOCK
  5
29740
330
29736
100
AcDbEntity
  8
0
 48
50.0
100
AcDbBlockBegin
  2
*D36
 70
     1
 10
0.0
 20
0.0
 30
0.0
  3
*D36
  1

  0
LINE
  5
298C7
330
29736
100
AcDbEntity
  8
寸法
 62
     0
 48
50.0
370
    -2
100
AcDbLine
 10
4350.882207168025
 20
2011.793508734704
 30
0.0
 11
4350.882207168025
 21
2576.378268630179
 31
0.0
  0
LINE
  5
298C8
330
29736
100
AcDbEntity
  8
寸法
 62
     0
 48
50.0
370
    -2
100
AcDbLine
 10
4110.882207168025
 20
2011.793508734704
 30
0.0
 11
4110.882207168025
 21
2576.378268630179
 31
0.0
  0
LINE
  5
298C9
330
29736
100
AcDbEntity
  8
寸法
 62
     0
 48
50.0
370
    -2
100
AcDbLine
 10
4350.882207168025
 20
2516.378268630179
 30
0.0
 11
4110.882207168025
 21
2516.378268630179
 31
0.0
  0
INSERT
  5
298CA
330
29736
100
AcDbEntity
  8
寸法
 62
     0
 48
50.0
370
    -2
100
AcDbBlockReference
  2
_DOTSMALL
 10
4350.882207168025
 20
2516.378268630179
 30
0.0
 41
100.0
 42
100.0
 43
100.0
  0
INSERT
  5
298CB
330
29736
100
AcDbEntity
  8
寸法
 62
     0
 48
50.0
370
    -2
100
AcDbBlockReference
  2
_DOTSMALL
 10
4110.882207168025
 20
2516.378268630179
 30
0.0
 41
100.0
 42
100.0
 43
100.0
 50
180.0
  0
MTEXT
  5
298CC
330
29736
100
AcDbEntity
  8
寸法
 62
     7
 48
50.0
100
AcDbMText
 10
4230.882207168025
 20
2722.419081194983
 30
0.0
 40
120.0
 41
0.0
 71
     5
 72
     1
  1
\A1;120\P(195)
  7
STYLE1
 73
     1
 44
1.0
1001
ACAD
1000
MTEXTBEGIN
1070
    73
1070
     1
1070
    44
1040
1.0
1070
    74
1070
     0
1000
MTEXTEND
  0
POINT
  5
298CD
330
29736
100
AcDbEntity
  8
DEFPOINTS
 62
     0
 48
50.0
100
AcDbPoint
 10
4350.882207168025
 20
1991.793508734704
 30
0.0
  0
POINT
  5
298CE
330
29736
100
AcDbEntity
  8
DEFPOINTS
 62
     0
 48
50.0
100
AcDbPoint
 10
4110.882207168025
 20
1991.793508734704
 30
0.0
  0
POINT
  5
298CF
330
29736
100
AcDbEntity
  8
DEFPOINTS
 62
     0
 48
50.0
100
AcDbPoint
 10
4110.882207168025
 20
2516.378268630179
 30
0.0
  0
ENDBLK
  5
29741
330
29736
100
AcDbEntity
  8
0
 48
50.0
100
AcDbBlockEnd
  0
BLOCK
  5
2974C
330
29742
100
AcDbEntity
  8
0
 48
50.0
100
AcDbBlockBegin
  2
*D37
 70
     1
 10
0.0
 20
0.0
 30
0.0
  3
*D37
  1

  0
LINE
  5
298BE
330
29742
100
AcDbEntity
  8
寸法
 62
     0
 48
50.0
370
    -2
100
AcDbLine
 10
3930.882207168025
 20
1311.793508734703
 30
0.0
 11
3712.856815002452
 21
1311.793508734703
 31
0.0
  0
LINE
  5
298BF
330
29742
100
AcDbEntity
  8
寸法
 62
     0
 48
50.0
370
    -2
100
AcDbLine
 10
3830.88220716803
 20
1011.793508734703
 30
0.0
 11
3712.856815002452
 21
1011.793508734703
 31
0.0
  0
LINE
  5
298C0
330
29742
100
AcDbEntity
  8
寸法
 62
     0
 48
50.0
370
    -2
100
AcDbLine
 10
3772.856815002452
 20
1311.793508734703
 30
0.0
 11
3772.856815002452
 21
1011.793508734703
 31
0.0
  0
INSERT
  5
298C1
330
29742
100
AcDbEntity
  8
寸法
 62
     0
 48
50.0
370
    -2
100
AcDbBlockReference
  2
_DOTSMALL
 10
3772.856815002452
 20
1311.793508734703
 30
0.0
 41
100.0
 42
100.0
 43
100.0
 50
90.0
  0
INSERT
  5
298C2
330
29742
100
AcDbEntity
  8
寸法
 62
     0
 48
50.0
370
    -2
100
AcDbBlockReference
  2
_DOTSMALL
 10
3772.856815002452
 20
1011.793508734703
 30
0.0
 41
100.0
 42
100.0
 43
100.0
 50
270.0
  0
MTEXT
  5
298C3
330
29742
100
AcDbEntity
  8
寸法
 62
     7
 48
50.0
100
AcDbMText
 10
3672.856815002452
 20
1161.793508734703
 30
0.0
 40
120.0
 41
0.0
 71
     5
 72
     1
  1
\A1;150
  7
STYLE1
 11
0.0000000000000001
 21
1.0
 31
0.0
 73
     1
 44
1.0
1001
ACAD
1000
MTEXTBEGIN
1070
    73
1070
     1
1070
    44
1040
1.0
1070
    74
1070
     0
1000
MTEXTEND
  0
POINT
  5
298C4
330
29742
100
AcDbEntity
  8
DEFPOINTS
 62
     0
 48
50.0
100
AcDbPoint
 10
3950.882207168025
 20
1311.793508734703
 30
0.0
  0
POINT
  5
298C5
330
29742
100
AcDbEntity
  8
DEFPOINTS
 62
     0
 48
50.0
100
AcDbPoint
 10
3850.88220716803
 20
1011.793508734703
 30
0.0
  0
POINT
  5
298C6
330
29742
100
AcDbEntity
  8
DEFPOINTS
 62
     0
 48
50.0
100
AcDbPoint
 10
3772.856815002452
 20
1011.793508734703
 30
0.0
  0
ENDBLK
  5
2974D
330
29742
100
AcDbEntity
  8
0
 48
50.0
100
AcDbBlockEnd
  0
BLOCK
  5
29758
330
2974E
100
AcDbEntity
  8
0
 48
50.0
100
AcDbBlockBegin
  2
*D38
 70
     1
 10
0.0
 20
0.0
 30
0.0
  3
*D38
  1

  0
LINE
  5
298B5
330
2974E
100
AcDbEntity
  8
寸法
 62
     0
 48
50.0
370
    -2
100
AcDbLine
 10
4090.882207168025
 20
1991.793508734704
 30
0.0
 11
3290.237269131961
 21
1991.793508734704
 31
0.0
  0
LINE
  5
298B6
330
2974E
100
AcDbEntity
  8
寸法
 62
     0
 48
50.0
370
    -2
100
AcDbLine
 10
3830.88220716803
 20
1011.793508734703
 30
0.0
 11
3290.237269131961
 21
1011.793508734703
 31
0.0
  0
LINE
  5
298B7
330
2974E
100
AcDbEntity
  8
寸法
 62
     0
 48
50.0
370
    -2
100
AcDbLine
 10
3350.237269131961
 20
1991.793508734704
 30
0.0
 11
3350.237269131961
 21
1011.793508734703
 31
0.0
  0
INSERT
  5
298B8
330
2974E
100
AcDbEntity
  8
寸法
 62
     0
 48
50.0
370
    -2
100
AcDbBlockReference
  2
_DOTSMALL
 10
3350.237269131961
 20
1991.793508734704
 30
0.0
 41
100.0
 42
100.0
 43
100.0
 50
90.0
  0
INSERT
  5
298B9
330
2974E
100
AcDbEntity
  8
寸法
 62
     0
 48
50.0
370
    -2
100
AcDbBlockReference
  2
_DOTSMALL
 10
3350.237269131961
 20
1011.793508734703
 30
0.0
 41
100.0
 42
100.0
 43
100.0
 50
270.0
  0
MTEXT
  5
298BA
330
2974E
100
AcDbEntity
  8
寸法
 62
     7
 48
50.0
100
AcDbMText
 10
3250.237269131961
 20
1501.793508734704
 30
0.0
 40
120.0
 41
0.0
 71
     5
 72
     1
  1
\A1;540
  7
STYLE1
 11
0.0000000000000001
 21
1.0
 31
0.0
 73
     1
 44
1.0
1001
ACAD
1000
MTEXTBEGIN
1070
    73
1070
     1
1070
    44
1040
1.0
1070
    74
1070
     0
1000
MTEXTEND
  0
POINT
  5
298BB
330
2974E
100
AcDbEntity
  8
DEFPOINTS
 62
     0
 48
50.0
100
AcDbPoint
 10
4110.882207168025
 20
1991.793508734704
 30
0.0
  0
POINT
  5
298BC
330
2974E
100
AcDbEntity
  8
DEFPOINTS
 62
     0
 48
50.0
100
AcDbPoint
 10
3850.88220716803
 20
1011.793508734703
 30
0.0
  0
POINT
  5
298BD
330
2974E
100
AcDbEntity
  8
DEFPOINTS
 62
     0
 48
50.0
100
AcDbPoint
 10
3350.237269131961
 20
1011.793508734703
 30
0.0
  0
ENDBLK
  5
29759
330
2974E
100
AcDbEntity
  8
0
 48
50.0
100
AcDbBlockEnd
  0
BLOCK
  5
29764
330
2975A
100
AcDbEntity
  8
0
 48
50.0
100
AcDbBlockBegin
  2
*D39
 70
     1
 10
0.0
 20
0.0
 30
0.0
  3
*D39
  1

  0
LINE
  5
298AC
330
2975A
100
AcDbEntity
  8
寸法
 62
     0
 48
50.0
370
    -2
100
AcDbLine
 10
3950.882207168025
 20
831.7935087347025
 30
0.0
 11
3950.882207168025
 21
492.8414022787696
 31
0.0
  0
LINE
  5
298AD
330
2975A
100
AcDbEntity
  8
寸法
 62
     0
 48
50.0
370
    -2
100
AcDbLine
 10
4510.882207168026
 20
831.7935087347025
 30
0.0
 11
4510.882207168026
 21
492.8414022787696
 31
0.0
  0
LINE
  5
298AE
330
2975A
100
AcDbEntity
  8
寸法
 62
     0
 48
50.0
370
    -2
100
AcDbLine
 10
3950.882207168025
 20
552.8414022787695
 30
0.0
 11
4510.882207168026
 21
552.8414022787695
 31
0.0
  0
INSERT
  5
298AF
330
2975A
100
AcDbEntity
  8
寸法
 62
     0
 48
50.0
370
    -2
100
AcDbBlockReference
  2
_DOTSMALL
 10
3950.882207168025
 20
552.8414022787695
 30
0.0
 41
100.0
 42
100.0
 43
100.0
 50
180.0
  0
INSERT
  5
298B0
330
2975A
100
AcDbEntity
  8
寸法
 62
     0
 48
50.0
370
    -2
100
AcDbBlockReference
  2
_DOTSMALL
 10
4510.882207168026
 20
552.8414022787695
 30
0.0
 41
100.0
 42
100.0
 43
100.0
  0
MTEXT
  5
298B1
330
2975A
100
AcDbEntity
  8
寸法
 62
     7
 48
50.0
100
AcDbMText
 10
4230.882207168025
 20
652.8414022787695
 30
0.0
 40
120.0
 41
0.0
 71
     5
 72
     1
  1
\A1;300
  7
STYLE1
 73
     1
 44
1.0
1001
ACAD
1000
MTEXTBEGIN
1070
    73
1070
     1
1070
    44
1040
1.0
1070
    74
1070
     0
1000
MTEXTEND
  0
POINT
  5
298B2
330
2975A
100
AcDbEntity
  8
DEFPOINTS
 62
     0
 48
50.0
100
AcDbPoint
 10
3950.882207168025
 20
851.7935087347026
 30
0.0
  0
POINT
  5
298B3
330
2975A
100
AcDbEntity
  8
DEFPOINTS
 62
     0
 48
50.0
100
AcDbPoint
 10
4510.882207168026
 20
851.7935087347026
 30
0.0
  0
POINT
  5
298B4
330
2975A
100
AcDbEntity
  8
DEFPOINTS
 62
     0
 48
50.0
100
AcDbPoint
 10
4510.882207168026
 20
552.8414022787695
 30
0.0
  0
ENDBLK
  5
29765
330
2975A
100
AcDbEntity
  8
0
 48
50.0
100
AcDbBlockEnd
  0
BLOCK
  5
2976F
330
29766
100
AcDbEntity
  8
0
 48
50.0
100
AcDbBlockBegin
  2
*D40
 70
     1
 10
0.0
 20
0.0
 30
0.0
  3
*D40
  1

  0
LINE
  5
298A3
330
29766
100
AcDbEntity
  8
寸法
 62
     0
 48
50.0
370
    -2
100
AcDbLine
 10
6773.431348639519
 20
1991.793508734704
 30
0.0
 11
7440.767098350574
 21
1991.793508734704
 31
0.0
  0
LINE
  5
298A4
330
29766
100
AcDbEntity
  8
寸法
 62
     0
 48
50.0
370
    -2
100
AcDbLine
 10
6773.431348639519
 20
1586.793508734702
 30
0.0
 11
7440.767098350574
 21
1586.793508734702
 31
0.0
  0
LINE
  5
298A5
330
29766
100
AcDbEntity
  8
寸法
 62
     0
 48
50.0
370
    -2
100
AcDbLine
 10
7380.767098350574
 20
1991.793508734704
 30
0.0
 11
7380.767098350574
 21
1586.793508734702
 31
0.0
  0
INSERT
  5
298A6
330
29766
100
AcDbEntity
  8
寸法
 62
     0
 48
50.0
370
    -2
100
AcDbBlockReference
  2
_DOTSMALL
 10
7380.767098350574
 20
1991.793508734704
 30
0.0
 41
100.0
 42
100.0
 43
100.0
 50
90.0
  0
INSERT
  5
298A7
330
29766
100
AcDbEntity
  8
寸法
 62
     0
 48
50.0
370
    -2
100
AcDbBlockReference
  2
_DOTSMALL
 10
7380.767098350574
 20
1586.793508734702
 30
0.0
 41
100.0
 42
100.0
 43
100.0
 50
270.0
  0
MTEXT
  5
298A8
330
29766
100
AcDbEntity
  8
寸法
 62
     7
 48
50.0
100
AcDbMText
 10
7280.767098350574
 20
1789.293508734704
 30
0.0
 40
120.0
 41
0.0
 71
     5
 72
     1
  1
\A1;180
  7
STYLE1
 11
0.0000000000000001
 21
1.0
 31
0.0
 73
     1
 44
1.0
1001
ACAD
1000
MTEXTBEGIN
1070
    73
1070
     1
1070
    44
1040
1.0
1070
    74
1070
     0
1000
MTEXTEND
  0
POINT
  5
298A9
330
29766
100
AcDbEntity
  8
DEFPOINTS
 62
     0
 48
50.0
100
AcDbPoint
 10
6753.431348639519
 20
1991.793508734704
 30
0.0
  0
POINT
  5
298AA
330
29766
100
AcDbEntity
  8
DEFPOINTS
 62
     0
 48
50.0
100
AcDbPoint
 10
6753.431348639519
 20
1586.793508734702
 30
0.0
  0
POINT
  5
298AB
330
29766
100
AcDbEntity
  8
DEFPOINTS
 62
     0
 48
50.0
100
AcDbPoint
 10
7380.767098350574
 20
1586.793508734702
 30
0.0
  0
ENDBLK
  5
29770
330
29766
100
AcDbEntity
  8
0
 48
50.0
100
AcDbBlockEnd
  0
BLOCK
  5
2977D
330
29771
100
AcDbEntity
  8
0
 48
50.0
100
AcDbBlockBegin
  2
*D41
 70
     1
 10
0.0
 20
0.0
 30
0.0
  3
*D41
  1

  0
LINE
  5
29898
330
29771
100
AcDbEntity
  8
寸法
 62
     0
 48
50.0
370
    -2
100
AcDbLine
 10
6539.431348639519
 20
2057.743508734704
 30
0.0
 11
7785.835430999357
 21
2057.743508734704
 31
0.0
  0
LINE
  5
29899
330
29771
100
AcDbEntity
  8
寸法
 62
     0
 48
50.0
370
    -2
100
AcDbLine
 10
6773.431348639519
 20
1991.793508734704
 30
0.0
 11
7785.835430999357
 21
1991.793508734703
 31
0.0
  0
LINE
  5
2989A
330
29771
100
AcDbEntity
  8
寸法
 62
     0
 48
50.0
370
    -2
100
AcDbLine
 10
7725.835430999357
 20
2057.743508734704
 30
0.0
 11
7725.835430999357
 21
2157.743508734704
 31
0.0
  0
LINE
  5
2989B
330
29771
100
AcDbEntity
  8
寸法
 62
     0
 48
50.0
370
    -2
100
AcDbLine
 10
7725.835430999357
 20
1991.793508734703
 30
0.0
 11
7725.835430999357
 21
1259.775701891738
 31
0.0
  0
LINE
  5
2989C
330
29771
100
AcDbEntity
  8
寸法
 62
     0
 48
50.0
370
    -2
100
AcDbLine
 10
7725.835430999357
 20
2057.743508734704
 30
0.0
 11
7725.835430999357
 21
1991.793508734703
 31
0.0
  0
INSERT
  5
2989D
330
29771
100
AcDbEntity
  8
寸法
 62
     0
 48
50.0
370
    -2
100
AcDbBlockReference
  2
_DOTSMALL
 10
7725.835430999357
 20
2057.743508734704
 30
0.0
 41
100.0
 42
100.0
 43
100.0
 50
270.0
  0
INSERT
  5
2989E
330
29771
100
AcDbEntity
  8
寸法
 62
     0
 48
50.0
370
    -2
100
AcDbBlockReference
  2
_DOTSMALL
 10
7725.835430999357
 20
1991.793508734703
 30
0.0
 41
100.0
 42
100.0
 43
100.0
 50
90.0
  0
MTEXT
  5
2989F
330
29771
100
AcDbEntity
  8
寸法
 62
     7
 48
50.0
100
AcDbMText
 10
7625.823619975735
 20
1525.784605313222
 30
0.0
 40
120.0
 41
0.0
 71
     5
 72
     1
  1
\A1;20～25
  7
STYLE1
 11
0.0000000000000001
 21
1.0
 31
0.0
 73
     1
 44
1.0
1001
ACAD
1000
MTEXTBEGIN
1070
    73
1070
     1
1070
    44
1040
1.0
1070
    74
1070
     0
1000
MTEXTEND
  0
POINT
  5
298A0
330
29771
100
AcDbEntity
  8
DEFPOINTS
 62
     0
 48
50.0
100
AcDbPoint
 10
6519.43134863952
 20
2057.743508734704
 30
0.0
  0
POINT
  5
298A1
330
29771
100
AcDbEntity
  8
DEFPOINTS
 62
     0
 48
50.0
100
AcDbPoint
 10
6753.431348639519
 20
1991.793508734704
 30
0.0
  0
POINT
  5
298A2
330
29771
100
AcDbEntity
  8
DEFPOINTS
 62
     0
 48
50.0
100
AcDbPoint
 10
7725.835430999357
 20
1991.793508734703
 30
0.0
  0
ENDBLK
  5
2977E
330
29771
100
AcDbEntity
  8
0
 48
50.0
100
AcDbBlockEnd
  0
ENDSEC
  0
SECTION
  2
ENTITIES
  0
MTEXT
  5
763F
330
747D
100
AcDbEntity
  8
0
100
AcDbMText
 10
302.846345836809
 20
280.1983726409901
 30
0.0
 40
3.5
 41
5.323721266742722
 71
     1
 72
     5
  1

  7
MSMINCHO
 73
     1
 44
1.0
1001
ACAD
1000
MTEXTBEGIN
1070
    73
1070
     1
1070
    44
1040
1.0
1070
    74
1070
     0
1000
MTEXTEND
  0
LINE
  5
10B57
330
747D
100
AcDbEntity
  8
補助
  6
PHANTOM
 62
   230
 48
50.0
100
AcDbLine
 10
139.9999999999995
 20
11409.6
 30
0.0
 11
16307.2
 21
11409.6
 31
0.0
  0
LINE
  5
10B59
330
747D
100
AcDbEntity
  8
仕様書枠
  6
Continuous
 48
50.0
100
AcDbLine
 10
13107.2
 20
1200.0
 30
0.0
 11
13107.2
 21
-0.0000000000000729
 31
0.0
  0
LINE
  5
10B5D
330
747D
100
AcDbEntity
  8
仕様書枠
 48
50.0
100
AcDbLine
 10
140.0
 20
0.0
 30
0.0
 11
16307.2
 21
-0.0000000000000909
 31
0.0
  0
LINE
  5
10B5E
330
747D
100
AcDbEntity
  8
補助
  6
PHANTOM
 62
   230
 48
50.0
100
AcDbLine
 10
16307.2
 20
11409.6
 30
0.0
 11
16307.2
 21
1200.0
 31
0.0
  0
LINE
  5
10B6C
330
747D
100
AcDbEntity
  8
仕様書枠
 48
50.0
100
AcDbLine
 10
13107.2
 20
1200.0
 30
0.0
 11
16307.2
 21
1200.0
 31
0.0
  0
TEXT
  5
10B73
330
747D
100
AcDbEntity
  8
文字
 62
     7
 48
50.0
100
AcDbText
 10
13162.9790565769
 20
895.0906074299405
 30
0.0
 40
200.0
  1
基 礎 図
  7
STYLE2
100
AcDbText
  0
LINE
  5
10B7B
330
747D
100
AcDbEntity
  8
仕様書枠
 48
50.0
100
AcDbLine
 10
13107.2
 20
800.0
 30
0.0
 11
14251.2
 21
800.0
 31
0.0
  0
LINE
  5
10B88
330
747D
100
AcDbEntity
  8
仕様書枠
  6
Continuous
 48
50.0
100
AcDbLine
 10
14251.2
 20
1200.0
 30
0.0
 11
14251.2
 21
800.0
 31
0.0
  0
LINE
  5
16462
330
747D
100
AcDbEntity
  8
仕様書枠
 48
50.0
100
AcDbLine
 10
16307.2
 20
1200.0
 30
0.0
 11
16307.2
 21
-0.0000000000000909
 31
0.0
  0
LINE
  5
1903B
330
747D
100
AcDbEntity
  8
補助
  6
PHANTOM
 62
   230
 48
50.0
100
AcDbLine
 10
140.0
 20
0.0
 30
0.0
 11
139.9999999999995
 21
11409.6
 31
0.0
  0
LEADER
  5
1AC27
330
747D
100
AcDbEntity
  8
寸法
 48
50.0
100
AcDbLeader
  3
INABA_S40G
 73
     0
 74
     0
 75
     1
 40
120.0
 41
720.0000000000001
 76
     3
 10
11278.695499615
 20
6970.544529347083
 30
0.0
 10
11445.46907400128
 20
6694.53061577925
 30
0.0
 10
11545.46907400128
 20
6694.53061577925
 30
0.0
340
1AC28
1001
ACAD
1000
DSTYLE
1002
{
1070
   341
1005
0
1002
}
  0
MTEXT
  5
1AC28
102
{ACAD_REACTORS
330
1AC27
102
}
330
747D
100
AcDbEntity
  8
部品1
 62
     7
 48
50.0
100
AcDbMText
 10
12305.46907400128
 20
6794.53061577925
 30
0.0
 40
120.0
 41
0.0
 71
     6
 72
     1
  1
\A1;床下換気口
  7
STYLE1
 73
     1
 44
1.0
1001
ACAD
1000
MTEXTBEGIN
1070
    73
1070
     1
1070
    44
1040
1.0
1070
    74
1070
     0
1000
MTEXTEND
  0
TEXT
  5
1AC29
330
747D
100
AcDbEntity
  8
部品1
 48
50.0
100
AcDbText
 10
11622.50116389398
 20
5571.251457428478
 30
0.0
 40
80.0
  1
(a=45,b=55,c=75)
  7
STYLE1
100
AcDbText
  0
TEXT
  5
1AC2A
330
747D
100
AcDbEntity
  8
部品1
 48
50.0
100
AcDbText
 10
11463.92215513968
 20
5678.096678297232
 30
0.0
 40
80.0
  1
※a,b,cは屋根の出幅です。
  7
STYLE1
100
AcDbText
  0
MTEXT
  5
1AC2B
102
{ACAD_REACTORS
330
1AC2C
102
}
330
747D
100
AcDbEntity
  8
部品1
 62
     7
 48
50.0
100
AcDbMText
 10
12261.70935112828
 20
5857.407365230307
 30
0.0
 40
120.0
 41
0.0
 71
     6
 72
     1
  1
\A1;屋根の外寸
  7
STYLE1
 73
     1
 44
1.0
1001
ACAD
1000
MTEXTBEGIN
1070
    73
1070
     1
1070
    44
1040
1.0
1070
    74
1070
     0
1000
MTEXTEND
  0
LEADER
  5
1AC2C
330
747D
100
AcDbEntity
  8
寸法
 48
50.0
100
AcDbLeader
  3
INABA_S40G
 73
     0
 74
     0
 75
     1
 40
120.0
 41
672.0
 76
     3
 10
11323.76933893624
 20
6031.296708693883
 30
0.0
 10
11449.70935112828
 20
5757.407365230307
 30
0.0
 10
11549.70935112828
 20
5757.407365230307
 30
0.0
340
1AC2B
1001
ACAD
1000
DSTYLE
1002
{
1070
   341
1005
0
1002
}
  0
TEXT
  5
1C7A1
330
747D
100
AcDbEntity
  8
文字
 62
     7
 48
50.0
100
AcDbText
 10
13188.16259899338
 20
79.80631269190417
 30
0.0
 40
80.0
  1
※布基礎には換気口を設けてください。
  7
STYLE2
100
AcDbText
  0
TEXT
  5
1C7E7
330
747D
100
AcDbEntity
  8
文字
 62
     7
 48
50.0
100
AcDbText
 10
13188.16259899338
 20
246.7109242801889
 30
0.0
 40
80.0
  1
※寒冷地等は地域の実情に合わせた基礎にして下さい。
  7
STYLE2
100
AcDbText
  0
TEXT
  5
1C7E8
330
747D
100
AcDbEntity
  8
文字
 62
     7
 48
50.0
100
AcDbText
 10
14478.98566430227
 20
499.5983841039506
 30
0.0
 40
160.0
  1
ＮＸＮ－１３６Ｈ
  7
STYLE2
100
AcDbText
  0
TEXT
  5
1C7E9
330
747D
100
AcDbEntity
  8
文字
 62
     7
 48
50.0
100
AcDbText
 10
14641.2525855784
 20
871.1744590657927
 30
0.0
 40
100.0
  1
～一般型・多雪地型～
  7
STYLE2
100
AcDbText
  0
TEXT
  5
1C7EC
330
747D
100
AcDbEntity
  8
文字
 62
     7
 48
50.0
100
AcDbText
 10
14524.131837222
 20
1031.557706291229
 30
0.0
 40
100.0
  1
      <縮尺> S=1/40
  7
STYLE2
100
AcDbText
  0
TEXT
  5
1C7ED
330
747D
100
AcDbEntity
  8
文字
 62
     7
 48
50.0
100
AcDbText
 10
13201.43669998441
 20
477.2740661031257
 30
0.0
 40
160.0
  1
機種名
  7
STYLE2
100
AcDbText
  0
LINE
  5
1C7EF
330
747D
100
AcDbEntity
  8
文字
 62
     7
 48
50.0
100
AcDbLine
 10
13187.2
 20
400.0
 30
0.0
 11
16227.2
 21
400.0
 31
0.0
  0
MTEXT
  5
1D2D5
102
{ACAD_REACTORS
330
1D2D6
102
}
330
747D
100
AcDbEntity
  8
部品1
 62
     7
 48
50.0
100
AcDbMText
 10
12473.99523070988
 20
8332.624706996311
 30
0.0
 40
120.0
 41
0.0
 71
     6
 72
     1
  1
アンカーボルト
  7
STYLE1
 73
     1
 44
1.0
1001
ACAD
1000
MTEXTBEGIN
1070
    73
1070
     1
1070
    44
1040
1.0
1070
    74
1070
     0
1000
MTEXTEND
  0
LEADER
  5
1D2D6
330
747D
100
AcDbEntity
  8
寸法
 48
50.0
100
AcDbLeader
  3
INABA_S40G
 73
     0
 74
     0
 75
     1
 40
120.0
 41
994.3492424049171
 76
     3
 10
11155.680085757
 20
7943.550203123979
 30
0.0
 10
11339.64598830496
 20
8232.624706996311
 30
0.0
 10
11439.64598830496
 20
8232.624706996311
 30
0.0
340
1D2D5
1001
ACAD
1000
DSTYLE
1002
{
1070
   341
1005
0
1002
}
  0
LINE
  5
20992
330
747D
100
AcDbEntity
  8
想像線
 48
10.0
100
AcDbLine
 10
11323.6
 20
5791.342358765287
 30
0.0
 11
11323.6
 21
8141.342358765269
 31
0.0
  0
DIMENSION
  5
26236
330
747D
100
AcDbEntity
  8
寸法
 48
50.0
100
AcDbDimension
  2
*D1
 10
5168.600000000001
 20
5286.497344423079
 30
0.0
 11
5395.100000000001
 21
5386.497344423079
 31
0.0
 70
    32
 71
     5
 42
452.9999999999991
  3
INABA_S40G
100
AcDbAlignedDimension
 13
5621.6
 23
5771.342358765258
 33
0.0
 14
5168.600000000001
 24
5846.342358765269
 34
0.0
100
AcDbRotatedDimension
1001
ACAD
1000
DSTYLE
1002
{
1070
   341
1005
0
1002
}
  0
DIMENSION
  5
26F00
330
747D
100
AcDbEntity
  8
寸法
 48
50.0
100
AcDbDimension
  2
*D2
 10
8043.202780124335
 20
5846.342358765293
 30
0.0
 11
8043.202780124333
 21
5237.857077391053
 31
0.0
 70
   160
  1
扉の出<>
 71
     5
 42
75.00000000000182
  3
INABA_S40G
100
AcDbAlignedDimension
 13
7776.600000000001
 23
5771.342358765291
 33
0.0
 14
7776.600000000009
 24
5846.342358765293
 34
0.0
 50
90.0
100
AcDbRotatedDimension
1001
ACAD
1000
DSTYLE
1002
{
1070
   341
1005
0
1002
}
  0
DIMENSION
  5
26F1A
330
747D
100
AcDbEntity
  8
寸法
 48
50.0
100
AcDbDimension
  2
*D3
 10
4427.164931848213
 20
8066.342358765268
 30
0.0
 11
4327.164931848212
 21
8103.842358765273
 31
0.0
 70
    32
  1
c
 71
     5
 42
75.00000000000454
  3
INABA_S40G
100
AcDbAlignedDimension
 13
4672.657733986179
 23
8141.342358765273
 33
0.0
 14
5168.600000000002
 24
8066.342358765268
 34
0.0
 50
90.0
100
AcDbRotatedDimension
1001
ACAD
1000
DSTYLE
1002
{
1070
   341
1005
0
1002
}
  0
DIMENSION
  5
26F3F
330
747D
100
AcDbEntity
  8
寸法
 48
50.0
100
AcDbDimension
  2
*D4
 10
4427.16493184821
 20
5791.342358765291
 30
0.0
 11
4327.164931848209
 21
5818.84235876528
 31
0.0
 70
    32
  1
b
 71
     5
 42
54.99999999997817
  3
INABA_S40G
100
AcDbAlignedDimension
 13
5175.050294581424
 23
5846.342358765269
 33
0.0
 14
4672.657733986179
 24
5791.342358765291
 34
0.0
 50
90.0
100
AcDbRotatedDimension
1001
ACAD
1000
DSTYLE
1002
{
1070
   341
1005
0
1002
}
  0
DIMENSION
  5
26F64
330
747D
100
AcDbEntity
  8
寸法
 48
50.0
100
AcDbDimension
  2
*D5
 10
11323.6
 20
9024.562680824189
 30
0.0
 11
11594.77462120245
 21
9024.562680824189
 31
0.0
 70
   160
  1
a
 71
     5
 42
45.0
  3
INABA_S40G
100
AcDbAlignedDimension
 13
11278.6
 23
8066.342358765266
 33
0.0
 14
11323.6
 24
8812.10198530735
 34
0.0
100
AcDbRotatedDimension
1001
ACAD
1000
DSTYLE
1002
{
1070
   341
1005
0
1002
}
  0
DIMENSION
  5
26F7E
330
747D
100
AcDbEntity
  8
寸法
 48
50.0
100
AcDbDimension
  2
*D6
 10
5168.600000000001
 20
9024.562680824189
 30
0.0
 11
4852.425378797541
 21
9024.562680824189
 31
0.0
 70
   160
  1
a
 71
     5
 42
44.99999999999454
  3
INABA_S40G
100
AcDbAlignedDimension
 13
5123.600000000006
 23
8812.10198530735
 33
0.0
 14
5168.600000000001
 24
8066.342358765266
 34
0.0
100
AcDbRotatedDimension
1001
ACAD
1000
DSTYLE
1002
{
1070
   341
1005
0
1002
}
  0
DIMENSION
  5
2701E
330
747D
100
AcDbEntity
  8
寸法
 48
50.0
100
AcDbDimension
  2
*D7
 10
5889.18320630424
 20
5966.342358765274
 30
0.0
 11
5889.183206304239
 21
5532.647417561364
 31
0.0
 70
   160
 71
     5
 42
195.0000000000154
  3
INABA_S40G
100
AcDbAlignedDimension
 13
5621.6
 23
5771.342358765258
 33
0.0
 14
5621.6
 24
5966.342358765274
 34
0.0
 50
90.0
100
AcDbRotatedDimension
1001
ACAD
1000
DSTYLE
1002
{
1070
   341
1005
0
1002
}
  0
LEADER
  5
27D16
330
747D
100
AcDbEntity
  8
寸法
 48
50.0
100
AcDbLeader
  3
INABA_S40G
 73
     0
 74
     0
 75
     1
 40
120.0
 41
149.591883092037
 76
     3
 10
5946.565642998738
 20
6419.367036069576
 30
0.0
 10
6083.848445861381
 20
6143.353122501743
 30
0.0
 10
6183.84844586138
 20
6143.353122501743
 30
0.0
340
27D17
1001
ACAD
1000
DSTYLE
1002
{
1070
   341
1005
0
1002
}
  0
MTEXT
  5
27D17
102
{ACAD_REACTORS
330
27D16
102
}
330
747D
100
AcDbEntity
  8
部品1
 62
     7
 48
50.0
100
AcDbMText
 10
6373.440328953417
 20
6243.353122501743
 30
0.0
 40
120.0
 41
0.0
 71
     6
 72
     1
  1
CB
  7
STYLE1
 73
     1
 44
1.0
1001
ACAD
1000
MTEXTBEGIN
1070
    73
1070
     1
1070
    44
1040
1.0
1070
    74
1070
     0
1000
MTEXTEND
  0
LINE
  5
28230
102
{ACAD_REACTORS
330
2986E
102
}
330
747D
100
AcDbEntity
  8
部品1
 48
50.0
100
AcDbLine
 10
11048.6
 20
7946.342358765267
 30
0.0
 11
8235.600000000001
 21
7946.342358765268
 31
0.0
  0
DIMENSION
  5
28231
330
747D
100
AcDbEntity
  8
寸法
 48
50.0
100
AcDbDimension
  2
*D8
 10
8105.6
 20
8812.101985307352
 30
0.0
 11
9630.600000000001
 21
8912.101985307351
 31
0.0
 70
    32
 71
     5
 42
3050.0
  3
INABA_S40G
100
AcDbAlignedDimension
 13
11155.6
 23
7993.342358765268
 33
0.0
 14
8105.6
 24
7993.342358765268
 34
0.0
100
AcDbRotatedDimension
1001
ACAD
1000
DSTYLE
1002
{
1070
   341
1005
0
1002
}
  0
DIMENSION
  5
28232
330
747D
100
AcDbEntity
  8
寸法
 48
50.0
100
AcDbDimension
  2
*D9
 10
8670.14438614211
 20
5966.34235876528
 30
0.0
 11
8670.144386142109
 21
5523.510285422181
 31
0.0
 70
   160
 71
     5
 42
119.9999999999845
  3
INABA_S40G
100
AcDbAlignedDimension
 13
8318.781783565134
 23
5846.342358765295
 33
0.0
 14
8682.59986744732
 24
5966.34235876528
 34
0.0
 50
90.0
100
AcDbRotatedDimension
1001
ACAD
1000
DSTYLE
1002
{
1070
   341
1005
0
1002
}
  0
DIMENSION
  5
28233
330
747D
100
AcDbEntity
  8
寸法
 48
50.0
100
AcDbDimension
  2
*D10
 10
8670.14438614211
 20
6076.342358765288
 30
0.0
 11
8670.144386142109
 21
6346.401413883412
 31
0.0
 70
   160
 71
     5
 42
110.0000000000082
  3
INABA_S40G
100
AcDbAlignedDimension
 13
8682.59986744732
 23
5966.34235876528
 33
0.0
 14
8235.600000000001
 24
6076.342358765288
 34
0.0
 50
90.0
100
AcDbRotatedDimension
1001
ACAD
1000
DSTYLE
1002
{
1070
   341
1005
0
1002
}
  0
LINE
  5
28234
102
{ACAD_REACTORS
330
2986E
102
}
330
747D
100
AcDbEntity
  8
部品1
 48
50.0
100
AcDbLine
 10
11278.6
 20
5846.342358765287
 30
0.0
 11
7776.600000000001
 21
5846.342358765269
 31
0.0
  0
LINE
  5
28235
102
{ACAD_REACTORS
330
2986E
102
}
330
747D
100
AcDbEntity
  8
部品1
 48
50.0
100
AcDbLine
 10
11048.6
 20
5966.342358765285
 30
0.0
 11
8235.600000000001
 21
5966.34235876528
 31
0.0
  0
DIMENSION
  5
28236
330
747D
100
AcDbEntity
  8
寸法
 48
50.0
100
AcDbDimension
  2
*D11
 10
8223.600000000001
 20
8593.252124413597
 30
0.0
 11
8622.6
 21
8693.252124413596
 31
0.0
 70
    32
 71
     5
 42
798.0
  3
INABA_S40G
100
AcDbAlignedDimension
 13
9021.600000000001
 23
7531.342358765269
 33
0.0
 14
8223.600000000001
 24
7056.342358765269
 34
0.0
100
AcDbRotatedDimension
1001
ACAD
1000
DSTYLE
1002
{
1070
   341
1005
0
1002
}
  0
DIMENSION
  5
28237
330
747D
100
AcDbEntity
  8
寸法
 48
50.0
100
AcDbDimension
  2
*D12
 10
11278.6
 20
9024.562680824189
 30
0.0
 11
8223.600000000001
 21
9124.562680824189
 31
0.0
 70
    32
 71
     5
 42
6109.999999999999
  3
INABA_S40G
100
AcDbAlignedDimension
 13
5168.600000000001
 23
8066.342358765268
 33
0.0
 14
11278.6
 24
8066.342358765268
 34
0.0
100
AcDbRotatedDimension
1001
ACAD
1000
DSTYLE
1002
{
1070
   341
1005
0
1002
}
  0
LINE
  5
28238
102
{ACAD_REACTORS
330
2986E
102
}
330
747D
100
AcDbEntity
  8
部品1
 48
50.0
100
AcDbLine
 10
11278.6
 20
8066.342358765268
 30
0.0
 11
5168.600000000001
 21
8066.342358765268
 31
0.0
  0
LINE
  5
2823D
102
{ACAD_REACTORS
330
2986E
102
}
330
747D
100
AcDbEntity
  8
部品1
 48
50.0
100
AcDbLine
 10
6598.600000000002
 20
5966.342358765275
 30
0.0
 11
6598.600000000002
 21
5771.342358765265
 31
0.0
  0
LINE
  5
2823E
102
{ACAD_REACTORS
330
2986E
102
}
330
747D
100
AcDbEntity
  8
部品1
 48
50.0
100
AcDbLine
 10
6798.600000000002
 20
5966.342358765276
 30
0.0
 11
6798.600000000002
 21
5771.342358765265
 31
0.0
  0
DIMENSION
  5
2823F
330
747D
100
AcDbEntity
  8
寸法
 48
50.0
100
AcDbDimension
  2
*D13
 10
4672.657733986177
 20
5846.342358765269
 30
0.0
 11
4672.657733986176
 21
5510.811409922677
 31
0.0
 70
   160
 71
     5
 42
123.0000000000009
  3
INABA_S40G
100
AcDbAlignedDimension
 13
5241.600000000008
 23
5969.34235876527
 33
0.0
 14
5168.600000000001
 24
5846.342358765269
 34
0.0
 50
90.0
100
AcDbRotatedDimension
1001
ACAD
1000
DSTYLE
1002
{
1070
   341
1005
0
1002
}
  0
LINE
  5
28241
102
{ACAD_REACTORS
330
2986E
102
}
330
747D
100
AcDbEntity
  8
部品1
 48
50.0
100
AcDbLine
 10
5168.600000000001
 20
5846.342358765269
 30
0.0
 11
5168.600000000001
 21
8066.342358765268
 31
0.0
  0
DIMENSION
  5
28242
330
747D
100
AcDbEntity
  8
寸法
 48
50.0
100
AcDbDimension
  2
*D14
 10
4427.16493184821
 20
5846.342358765269
 30
0.0
 11
4327.153120824588
 21
6956.342358765269
 31
0.0
 70
    32
 71
     5
 42
2220.0
  3
INABA_S40G
100
AcDbAlignedDimension
 13
5168.600000000001
 23
8066.342358765268
 33
0.0
 14
5168.600000000001
 24
5846.342358765269
 34
0.0
 50
90.0
100
AcDbRotatedDimension
1001
ACAD
1000
DSTYLE
1002
{
1070
   341
1005
0
1002
}
  0
LINE
  5
28247
102
{ACAD_REACTORS
330
2986E
102
}
330
747D
100
AcDbEntity
  8
部品1
 48
50.0
100
AcDbLine
 10
7776.600000000001
 20
5771.342358765274
 30
0.0
 11
5621.6
 21
5771.342358765258
 31
0.0
  0
LINE
  5
2824A
330
747D
100
AcDbEntity
  8
部品1
 48
50.0
100
AcDbLine
 10
5168.600000000001
 20
5846.342358765269
 30
0.0
 11
5621.6
 21
5846.342358765269
 31
0.0
  0
LINE
  5
28255
330
747D
100
AcDbEntity
  8
部品1
 48
50.0
100
AcDbLine
 10
5621.6
 20
5771.342358765274
 30
0.0
 11
5621.6
 21
5846.342358765258
 31
0.0
  0
LINE
  5
28422
330
747D
100
AcDbEntity
  8
部品1
 48
50.0
100
AcDbLine
 10
7776.600000000001
 20
5771.342358765274
 30
0.0
 11
7776.600000000001
 21
5846.342358765269
 31
0.0
  0
DIMENSION
  5
28454
330
747D
100
AcDbEntity
  8
寸法
 48
50.0
100
AcDbDimension
  2
*D15
 10
5168.600000000001
 20
8812.101985307352
 30
0.0
 11
4895.493398282201
 21
8812.101985307352
 31
0.0
 70
   160
 71
     5
 42
122.9999999999991
  3
INABA_S40G
100
AcDbAlignedDimension
 13
5291.6
 23
7993.342358765268
 33
0.0
 14
5168.600000000001
 24
8066.342358765268
 34
0.0
100
AcDbRotatedDimension
1001
ACAD
1000
DSTYLE
1002
{
1070
   341
1005
0
1002
}
  0
DIMENSION
  5
28456
330
747D
100
AcDbEntity
  8
寸法
 48
50.0
100
AcDbDimension
  2
*D16
 10
4672.657733986177
 20
7943.342358765268
 30
0.0
 11
4672.657733986176
 21
8339.448960483069
 31
0.0
 70
   160
 71
     5
 42
123.0
  3
INABA_S40G
100
AcDbAlignedDimension
 13
5168.600000000001
 23
8066.342358765268
 33
0.0
 14
5241.6
 24
7943.342358765268
 34
0.0
 50
90.0
100
AcDbRotatedDimension
1001
ACAD
1000
DSTYLE
1002
{
1070
   341
1005
0
1002
}
  0
DIMENSION
  5
28457
330
747D
100
AcDbEntity
  8
寸法
 48
50.0
100
AcDbDimension
  2
*D17
 10
5168.600000000001
 20
8593.252124413597
 30
0.0
 11
5570.100000000001
 21
8693.252124413596
 31
0.0
 70
    32
 71
     5
 42
803.0
  3
INABA_S40G
100
AcDbAlignedDimension
 13
5971.600000000002
 23
7531.342358765269
 33
0.0
 14
5168.600000000001
 24
8066.342358765268
 34
0.0
100
AcDbRotatedDimension
1001
ACAD
1000
DSTYLE
1002
{
1070
   341
1005
0
1002
}
  0
DIMENSION
  5
28458
330
747D
100
AcDbEntity
  8
寸法
 48
50.0
100
AcDbDimension
  2
*D18
 10
4672.657733986176
 20
5969.34235876527
 30
0.0
 11
4572.657733986176
 21
6956.342358765271
 31
0.0
 70
    32
 71
     5
 42
1973.999999999999
  3
INABA_S40G
100
AcDbAlignedDimension
 13
5241.6
 23
7943.342358765268
 33
0.0
 14
5241.600000000008
 24
5969.34235876527
 34
0.0
 50
90.0
100
AcDbRotatedDimension
1001
ACAD
1000
DSTYLE
1002
{
1070
   341
1005
0
1002
}
  0
DIMENSION
  5
28459
330
747D
100
AcDbEntity
  8
寸法
 48
50.0
100
AcDbDimension
  2
*D19
 10
7425.6
 20
8593.252124413597
 30
0.0
 11
7824.600000000001
 21
8693.252124413596
 31
0.0
 70
    32
 71
     5
 42
798.0
  3
INABA_S40G
100
AcDbAlignedDimension
 13
8223.600000000001
 23
7056.342358765269
 33
0.0
 14
7425.6
 24
7531.342358765269
 34
0.0
100
AcDbRotatedDimension
1001
ACAD
1000
DSTYLE
1002
{
1070
   341
1005
0
1002
}
  0
DIMENSION
  5
2845A
330
747D
100
AcDbEntity
  8
寸法
 48
50.0
100
AcDbDimension
  2
*D20
 10
6698.6
 20
8593.252124413597
 30
0.0
 11
7062.1
 21
8693.263935437219
 31
0.0
 70
    32
 71
     5
 42
727.0
  3
INABA_S40G
100
AcDbAlignedDimension
 13
7425.6
 23
7531.342358765269
 33
0.0
 14
6698.6
 24
7531.342358765269
 34
0.0
100
AcDbRotatedDimension
1001
ACAD
1000
DSTYLE
1002
{
1070
   341
1005
0
1002
}
  0
DIMENSION
  5
2845B
330
747D
100
AcDbEntity
  8
寸法
 48
50.0
100
AcDbDimension
  2
*D21
 10
5615.307249876098
 20
8066.342358765266
 30
0.0
 11
5615.307249876098
 21
8344.425902038151
 31
0.0
 70
   160
 71
     5
 42
119.9999999999991
  3
INABA_S40G
100
AcDbAlignedDimension
 13
5398.6
 23
7946.342358765267
 33
0.0
 14
5398.600000000002
 24
8066.342358765266
 34
0.0
 50
90.0
100
AcDbRotatedDimension
1001
ACAD
1000
DSTYLE
1002
{
1070
   341
1005
0
1002
}
  0
DIMENSION
  5
2845C
330
747D
100
AcDbEntity
  8
寸法
 48
50.0
100
AcDbDimension
  2
*D22
 10
5291.6
 20
8812.101985307352
 30
0.0
 11
6698.6
 21
8912.113796330974
 31
0.0
 70
    32
 71
     5
 42
2814.0
  3
INABA_S40G
100
AcDbAlignedDimension
 13
8105.6
 23
7993.342358765268
 33
0.0
 14
5291.6
 24
7993.342358765268
 34
0.0
100
AcDbRotatedDimension
1001
ACAD
1000
DSTYLE
1002
{
1070
   341
1005
0
1002
}
  0
DIMENSION
  5
2845D
330
747D
100
AcDbEntity
  8
寸法
 48
50.0
100
AcDbDimension
  2
*D23
 10
5971.600000000002
 20
8593.252124413597
 30
0.0
 11
6335.1
 21
8693.263935437219
 31
0.0
 70
    32
 71
     5
 42
726.999999999999
  3
INABA_S40G
100
AcDbAlignedDimension
 13
6698.6
 23
7531.342358765269
 33
0.0
 14
5971.600000000002
 24
7531.342358765269
 34
0.0
100
AcDbRotatedDimension
1001
ACAD
1000
DSTYLE
1002
{
1070
   341
1005
0
1002
}
  0
LINE
  5
2845E
102
{ACAD_REACTORS
330
2986E
102
}
330
747D
100
AcDbEntity
  8
部品1
 48
50.0
100
AcDbLine
 10
7975.6
 20
5966.342358765277
 30
0.0
 11
5398.6
 21
5966.342358765272
 31
0.0
  0
LINE
  5
2845F
102
{ACAD_REACTORS
330
2986E
102
}
330
747D
100
AcDbEntity
  8
部品1
 48
50.0
100
AcDbLine
 10
7975.6
 20
7946.342358765268
 30
0.0
 11
5398.6
 21
7946.342358765268
 31
0.0
  0
LINE
  5
28460
102
{ACAD_REACTORS
330
2986E
102
}
330
747D
100
AcDbEntity
  8
部品1
 48
50.0
100
AcDbLine
 10
5288.6
 20
6076.342358765271
 30
0.0
 11
5288.6
 21
7836.342358765263
 31
0.0
  0
LINE
  5
28463
330
747D
100
AcDbEntity
  8
部品1
 48
50.0
100
AcDbLine
 10
6071.6
 20
6781.342358765269
 30
0.0
 11
5871.6
 21
6781.342358765269
 31
0.0
  0
LINE
  5
28464
330
747D
100
AcDbEntity
  8
センター
 48
2.0
100
AcDbLine
 10
5921.600000000001
 20
6581.342358765269
 30
0.0
 11
6021.600000000002
 21
6581.342358765269
 31
0.0
  0
LINE
  5
28465
330
747D
100
AcDbEntity
  8
部品1
 48
50.0
100
AcDbLine
 10
6071.6
 20
6381.342358765267
 30
0.0
 11
5871.6
 21
6381.342358765267
 31
0.0
  0
LINE
  5
28466
330
747D
100
AcDbEntity
  8
部品1
 48
50.0
100
AcDbLine
 10
5871.6
 20
6381.342358765269
 30
0.0
 11
5871.6
 21
6781.342358765269
 31
0.0
  0
LINE
  5
28467
330
747D
100
AcDbEntity
  8
部品1
 48
50.0
100
AcDbLine
 10
5398.6
 20
6076.342358765272
 30
0.0
 11
5288.600000000002
 21
6076.342358765272
 31
0.0
  0
CIRCLE
  5
28468
330
747D
100
AcDbEntity
  8
部品1
 48
50.0
100
AcDbCircle
 10
5291.600000000006
 20
5969.34235876527
 30
0.0
 40
35.0
  0
LINE
  5
28469
330
747D
100
AcDbEntity
  8
センター
 48
2.0
100
AcDbLine
 10
5291.600000000006
 20
6019.342358765271
 30
0.0
 11
5291.600000000006
 21
5919.342358765271
 31
0.0
  0
LINE
  5
2846A
330
747D
100
AcDbEntity
  8
センター
 48
2.0
100
AcDbLine
 10
5241.600000000008
 20
5969.34235876527
 30
0.0
 11
5341.600000000006
 21
5969.34235876527
 31
0.0
  0
LINE
  5
2846B
330
747D
100
AcDbEntity
  8
部品1
 48
50.0
100
AcDbLine
 10
5398.6
 20
5966.342358765272
 30
0.0
 11
5398.6
 21
6076.342358765272
 31
0.0
  0
LINE
  5
2846C
102
{ACAD_REACTORS
330
2986E
102
}
330
747D
100
AcDbEntity
  8
部品1
 48
50.0
100
AcDbLine
 10
5288.6
 20
7056.342358765269
 30
0.0
 11
5168.600000000001
 21
7056.342358765269
 31
0.0
  0
LINE
  5
2846D
102
{ACAD_REACTORS
330
2986E
102
}
330
747D
100
AcDbEntity
  8
部品1
 48
50.0
100
AcDbLine
 10
5288.6
 20
6856.342358765269
 30
0.0
 11
5168.600000000001
 21
6856.342358765269
 31
0.0
  0
LINE
  5
2846F
330
747D
100
AcDbEntity
  8
センター
 48
2.0
100
AcDbLine
 10
5971.600000000002
 20
6631.34235876527
 30
0.0
 11
5971.600000000002
 21
6531.342358765269
 31
0.0
  0
LINE
  5
28470
330
747D
100
AcDbEntity
  8
部品1
 48
50.0
100
AcDbLine
 10
6598.600000000002
 20
6381.342358765269
 30
0.0
 11
6598.600000000002
 21
6781.342358765269
 31
0.0
  0
LINE
  5
28471
330
747D
100
AcDbEntity
  8
部品1
 48
50.0
100
AcDbLine
 10
6798.6
 20
6381.342358765267
 30
0.0
 11
6798.6
 21
6781.342358765269
 31
0.0
  0
LINE
  5
28472
330
747D
100
AcDbEntity
  8
部品1
 48
50.0
100
AcDbLine
 10
6071.6
 20
6381.342358765267
 30
0.0
 11
6071.6
 21
6781.342358765269
 31
0.0
  0
LINE
  5
28473
330
747D
100
AcDbEntity
  8
部品1
 48
50.0
100
AcDbLine
 10
6798.6
 20
6381.342358765267
 30
0.0
 11
6598.600000000002
 21
6381.342358765267
 31
0.0
  0
LINE
  5
28474
330
747D
100
AcDbEntity
  8
センター
 48
2.0
100
AcDbLine
 10
6648.6
 20
6581.342358765269
 30
0.0
 11
6748.6
 21
6581.342358765269
 31
0.0
  0
LINE
  5
28475
330
747D
100
AcDbEntity
  8
センター
 48
2.0
100
AcDbLine
 10
6698.6
 20
6631.34235876527
 30
0.0
 11
6698.6
 21
6531.342358765269
 31
0.0
  0
LINE
  5
28476
330
747D
100
AcDbEntity
  8
部品1
 48
50.0
100
AcDbLine
 10
6798.6
 20
6781.342358765269
 30
0.0
 11
6598.600000000002
 21
6781.342358765269
 31
0.0
  0
LINE
  5
28477
330
747D
100
AcDbEntity
  8
部品1
 48
50.0
100
AcDbLine
 10
6071.6
 20
7531.342358765269
 30
0.0
 11
5871.6
 21
7531.342358765269
 31
0.0
  0
LINE
  5
28478
330
747D
100
AcDbEntity
  8
部品1
 48
50.0
100
AcDbLine
 10
6071.6
 20
7131.342358765266
 30
0.0
 11
5871.6
 21
7131.342358765266
 31
0.0
  0
LINE
  5
28479
330
747D
100
AcDbEntity
  8
センター
 48
2.0
100
AcDbLine
 10
5921.600000000001
 20
7331.342358765269
 30
0.0
 11
6021.600000000002
 21
7331.342358765269
 31
0.0
  0
DIMENSION
  5
2847A
330
747D
100
AcDbEntity
  8
寸法
 48
50.0
100
AcDbDimension
  2
*D24
 10
5615.307249876098
 20
7836.342358765263
 30
0.0
 11
5615.307249876098
 21
7496.283303647155
 31
0.0
 70
   160
 71
     5
 42
110.0000000000054
  3
INABA_S40G
100
AcDbAlignedDimension
 13
5398.6
 23
7946.342358765268
 33
0.0
 14
5398.6
 24
7836.342358765263
 34
0.0
 50
90.0
100
AcDbRotatedDimension
1001
ACAD
1000
DSTYLE
1002
{
1070
   341
1005
0
1002
}
  0
LINE
  5
2847B
330
747D
100
AcDbEntity
  8
部品1
 48
50.0
100
AcDbLine
 10
5871.6
 20
7131.34235876527
 30
0.0
 11
5871.6
 21
7531.342358765269
 31
0.0
  0
LINE
  5
2847C
330
747D
100
AcDbEntity
  8
センター
 48
2.0
100
AcDbLine
 10
5971.600000000002
 20
7381.34235876527
 30
0.0
 11
5971.600000000002
 21
7281.342358765269
 31
0.0
  0
LINE
  5
2847D
330
747D
100
AcDbEntity
  8
部品1
 48
50.0
100
AcDbLine
 10
5398.599999999999
 20
7836.342358765263
 30
0.0
 11
5398.6
 21
7946.342358765268
 31
0.0
  0
CIRCLE
  5
2847E
330
747D
100
AcDbEntity
  8
部品1
 48
50.0
100
AcDbCircle
 10
5291.6
 20
7943.342358765268
 30
0.0
 40
35.0
  0
LINE
  5
2847F
330
747D
100
AcDbEntity
  8
センター
 48
2.0
100
AcDbLine
 10
5291.6
 20
7993.342358765268
 30
0.0
 11
5291.6
 21
7893.342358765268
 31
0.0
  0
LINE
  5
28480
330
747D
100
AcDbEntity
  8
部品1
 48
50.0
100
AcDbLine
 10
5398.599999999999
 20
7836.342358765263
 30
0.0
 11
5288.6
 21
7836.342358765269
 31
0.0
  0
LINE
  5
28481
330
747D
100
AcDbEntity
  8
部品1
 48
50.0
100
AcDbLine
 10
5567.928907166848
 20
8066.342358765266
 30
0.0
 11
5168.600000000001
 21
8066.342358765268
 31
0.0
  0
LINE
  5
28482
330
747D
100
AcDbEntity
  8
センター
 48
2.0
100
AcDbLine
 10
5241.6
 20
7943.342358765268
 30
0.0
 11
5341.6
 21
7943.342358765268
 31
0.0
  0
LINE
  5
28483
330
747D
100
AcDbEntity
  8
部品1
 48
50.0
100
AcDbLine
 10
6071.6
 20
7131.342358765266
 30
0.0
 11
6071.6
 21
7531.342358765269
 31
0.0
  0
LINE
  5
28484
330
747D
100
AcDbEntity
  8
部品1
 48
50.0
100
AcDbLine
 10
6598.600000000002
 20
7131.34235876527
 30
0.0
 11
6598.600000000002
 21
7531.342358765269
 31
0.0
  0
LINE
  5
28485
330
747D
100
AcDbEntity
  8
部品1
 48
50.0
100
AcDbLine
 10
6798.6
 20
7131.342358765266
 30
0.0
 11
6798.6
 21
7531.342358765269
 31
0.0
  0
LINE
  5
28486
330
747D
100
AcDbEntity
  8
センター
 48
2.0
100
AcDbLine
 10
6698.6
 20
7381.34235876527
 30
0.0
 11
6698.6
 21
7281.342358765269
 31
0.0
  0
LINE
  5
28487
330
747D
100
AcDbEntity
  8
センター
 48
2.0
100
AcDbLine
 10
6648.6
 20
7331.342358765269
 30
0.0
 11
6748.6
 21
7331.342358765269
 31
0.0
  0
LINE
  5
28488
330
747D
100
AcDbEntity
  8
部品1
 48
50.0
100
AcDbLine
 10
6798.6
 20
7131.342358765266
 30
0.0
 11
6598.600000000002
 21
7131.342358765266
 31
0.0
  0
LINE
  5
28489
330
747D
100
AcDbEntity
  8
部品1
 48
50.0
100
AcDbLine
 10
6798.6
 20
7531.342358765269
 30
0.0
 11
6598.600000000002
 21
7531.342358765269
 31
0.0
  0
LINE
  5
2848A
102
{ACAD_REACTORS
330
2986E
102
}
330
747D
100
AcDbEntity
  8
部品1
 48
50.0
100
AcDbLine
 10
6798.6
 20
8066.342358765268
 30
0.0
 11
6798.6
 21
7946.342358765268
 31
0.0
  0
LINE
  5
2848B
102
{ACAD_REACTORS
330
2986E
102
}
330
747D
100
AcDbEntity
  8
部品1
 48
50.0
100
AcDbLine
 10
6598.600000000002
 20
8066.342358765268
 30
0.0
 11
6598.600000000002
 21
7946.342358765268
 31
0.0
  0
LINE
  5
2848D
330
747D
100
AcDbEntity
  8
部品1
 48
50.0
100
AcDbLine
 10
7325.6
 20
6381.342358765269
 30
0.0
 11
7325.6
 21
6781.342358765269
 31
0.0
  0
LINE
  5
2848E
330
747D
100
AcDbEntity
  8
部品1
 48
50.0
100
AcDbLine
 10
7525.6
 20
6381.342358765267
 30
0.0
 11
7525.6
 21
6781.342358765269
 31
0.0
  0
LINE
  5
2848F
330
747D
100
AcDbEntity
  8
部品1
 48
50.0
100
AcDbLine
 10
7525.6
 20
6381.342358765267
 30
0.0
 11
7325.6
 21
6381.342358765267
 31
0.0
  0
LINE
  5
28490
330
747D
100
AcDbEntity
  8
センター
 48
2.0
100
AcDbLine
 10
7375.6
 20
6581.342358765269
 30
0.0
 11
7475.6
 21
6581.342358765269
 31
0.0
  0
LINE
  5
28491
330
747D
100
AcDbEntity
  8
センター
 48
2.0
100
AcDbLine
 10
7425.6
 20
6631.34235876527
 30
0.0
 11
7425.6
 21
6531.342358765269
 31
0.0
  0
LINE
  5
28492
330
747D
100
AcDbEntity
  8
部品1
 48
50.0
100
AcDbLine
 10
7525.6
 20
6781.342358765269
 30
0.0
 11
7325.6
 21
6781.342358765269
 31
0.0
  0
DIMENSION
  5
28493
330
747D
100
AcDbEntity
  8
寸法
 48
50.0
100
AcDbDimension
  2
*D25
 10
7975.6
 20
6389.499897592425
 30
0.0
 11
8105.6
 21
6489.511708616046
 31
0.0
 70
    32
 71
     5
 42
260.0
  3
INABA_S40G
100
AcDbAlignedDimension
 13
8235.600000000001
 23
6076.342358765288
 33
0.0
 14
7975.6
 24
6076.342358765288
 34
0.0
100
AcDbRotatedDimension
1001
ACAD
1000
DSTYLE
1002
{
1070
   341
1005
0
1002
}
  0
LINE
  5
28494
330
747D
100
AcDbEntity
  8
部品1
 48
50.0
100
AcDbLine
 10
8235.600000000001
 20
6076.342358765288
 30
0.0
 11
7975.6
 21
6076.342358765288
 31
0.0
  0
LINE
  5
28495
330
747D
100
AcDbEntity
  8
部品1
 48
50.0
100
AcDbLine
 10
7975.6
 20
5966.342358765277
 30
0.0
 11
7975.6
 21
6076.342358765288
 31
0.0
  0
LINE
  5
28496
330
747D
100
AcDbEntity
  8
部品1
 48
50.0
100
AcDbLine
 10
8235.600000000001
 20
5966.34235876528
 30
0.0
 11
8235.600000000001
 21
6076.342358765288
 31
0.0
  0
LINE
  5
28497
330
747D
100
AcDbEntity
  8
センター
 48
2.0
100
AcDbLine
 10
8055.600000000008
 20
5969.34235876527
 30
0.0
 11
8155.600000000008
 21
5969.34235876527
 31
0.0
  0
CIRCLE
  5
28498
330
747D
100
AcDbEntity
  8
部品1
 48
50.0
100
AcDbCircle
 10
8105.600000000007
 20
5969.34235876527
 30
0.0
 40
35.0
  0
LINE
  5
28499
330
747D
100
AcDbEntity
  8
センター
 48
2.0
100
AcDbLine
 10
8105.600000000007
 20
6019.342358765271
 30
0.0
 11
8105.600000000007
 21
5919.342358765271
 31
0.0
  0
LINE
  5
2849A
330
747D
100
AcDbEntity
  8
部品1
 48
50.0
100
AcDbLine
 10
8323.6
 20
7056.342358765269
 30
0.0
 11
8123.600000000001
 21
7056.342358765269
 31
0.0
  0
LINE
  5
2849B
330
747D
100
AcDbEntity
  8
センター
 48
2.0
100
AcDbLine
 10
8173.6
 20
6956.342358765269
 30
0.0
 11
8273.6
 21
6956.342358765269
 31
0.0
  0
LINE
  5
2849C
330
747D
100
AcDbEntity
  8
部品1
 48
50.0
100
AcDbLine
 10
8323.6
 20
6856.342358765266
 30
0.0
 11
8123.600000000001
 21
6856.342358765266
 31
0.0
  0
LINE
  5
2849D
330
747D
100
AcDbEntity
  8
センター
 48
2.0
100
AcDbLine
 10
8223.600000000001
 20
7006.34235876527
 30
0.0
 11
8223.600000000001
 21
6906.342358765269
 31
0.0
  0
LINE
  5
2849E
330
747D
100
AcDbEntity
  8
部品1
 48
50.0
100
AcDbLine
 10
8123.600000000001
 20
6856.342358765269
 30
0.0
 11
8123.600000000001
 21
7056.342358765269
 31
0.0
  0
LINE
  5
2849F
330
747D
100
AcDbEntity
  8
部品1
 48
50.0
100
AcDbLine
 10
8323.6
 20
6856.342358765266
 30
0.0
 11
8323.6
 21
7056.342358765269
 31
0.0
  0
LINE
  5
284A0
330
747D
100
AcDbEntity
  8
センター
 48
2.0
100
AcDbLine
 10
7425.6
 20
7381.34235876527
 30
0.0
 11
7425.6
 21
7281.342358765269
 31
0.0
  0
LINE
  5
284A1
330
747D
100
AcDbEntity
  8
部品1
 48
50.0
100
AcDbLine
 10
7525.6
 20
7131.342358765266
 30
0.0
 11
7525.6
 21
7531.342358765269
 31
0.0
  0
LINE
  5
284A2
330
747D
100
AcDbEntity
  8
部品1
 48
50.0
100
AcDbLine
 10
7325.6
 20
7131.34235876527
 30
0.0
 11
7325.6
 21
7531.342358765269
 31
0.0
  0
LINE
  5
284A3
330
747D
100
AcDbEntity
  8
部品1
 48
50.0
100
AcDbLine
 10
7525.6
 20
7131.342358765266
 30
0.0
 11
7325.6
 21
7131.342358765266
 31
0.0
  0
LINE
  5
284A4
330
747D
100
AcDbEntity
  8
センター
 48
2.0
100
AcDbLine
 10
7375.6
 20
7331.342358765269
 30
0.0
 11
7475.6
 21
7331.342358765269
 31
0.0
  0
LINE
  5
284A5
330
747D
100
AcDbEntity
  8
部品1
 48
50.0
100
AcDbLine
 10
7525.6
 20
7531.342358765269
 30
0.0
 11
7325.6
 21
7531.342358765269
 31
0.0
  0
LINE
  5
284A6
330
747D
100
AcDbEntity
  8
部品1
 48
50.0
100
AcDbLine
 10
8235.600000000001
 20
7836.34235876525
 30
0.0
 11
7975.6
 21
7836.34235876525
 31
0.0
  0
LINE
  5
284A7
330
747D
100
AcDbEntity
  8
部品1
 48
50.0
100
AcDbLine
 10
7975.6
 20
7946.342358765267
 30
0.0
 11
7975.6
 21
7836.34235876525
 31
0.0
  0
LINE
  5
284A8
330
747D
100
AcDbEntity
  8
部品1
 48
50.0
100
AcDbLine
 10
8235.600000000001
 20
7946.342358765268
 30
0.0
 11
8235.600000000001
 21
7836.34235876525
 31
0.0
  0
CIRCLE
  5
284A9
330
747D
100
AcDbEntity
  8
部品1
 48
50.0
100
AcDbCircle
 10
8105.6
 20
7943.342358765268
 30
0.0
 40
35.0
  0
LINE
  5
284AA
330
747D
100
AcDbEntity
  8
センター
 48
2.0
100
AcDbLine
 10
8105.6
 20
7993.342358765268
 30
0.0
 11
8105.6
 21
7893.342358765268
 31
0.0
  0
LINE
  5
284AB
330
747D
100
AcDbEntity
  8
センター
 48
2.0
100
AcDbLine
 10
8055.600000000001
 20
7943.342358765268
 30
0.0
 11
8155.600000000001
 21
7943.342358765268
 31
0.0
  0
LINE
  5
284AD
102
{ACAD_REACTORS
330
2986E
102
}
330
747D
100
AcDbEntity
  8
部品1
 48
50.0
100
AcDbLine
 10
9648.600000000014
 20
5966.342358765281
 30
0.0
 11
9648.600000000014
 21
5846.34235876528
 31
0.0
  0
LINE
  5
284AE
102
{ACAD_REACTORS
330
2986E
102
}
330
747D
100
AcDbEntity
  8
部品1
 48
50.0
100
AcDbLine
 10
9848.600000000013
 20
5966.342358765282
 30
0.0
 11
9848.600000000013
 21
5846.34235876528
 31
0.0
  0
DIMENSION
  5
284AF
330
747D
100
AcDbEntity
  8
寸法
 48
50.0
100
AcDbDimension
  2
*D26
 10
10163.85510029273
 20
6581.342358765269
 30
0.0
 11
10063.85510029272
 21
6213.842358765274
 31
0.0
 70
    32
 71
     5
 42
734.9999999999927
  3
INABA_S40G
100
AcDbAlignedDimension
 13
9909.045939259561
 23
5846.342358765276
 33
0.0
 14
10375.6
 24
6581.342358765269
 34
0.0
 50
90.0
100
AcDbRotatedDimension
1001
ACAD
1000
DSTYLE
1002
{
1070
   341
1005
0
1002
}
  0
LINE
  5
284B1
102
{ACAD_REACTORS
330
2986E
102
}
330
747D
100
AcDbEntity
  8
部品1
 48
50.0
100
AcDbLine
 10
11278.6
 20
5846.342358765287
 30
0.0
 11
11278.6
 21
8066.342358765268
 31
0.0
  0
DIMENSION
  5
284B9
330
747D
100
AcDbEntity
  8
寸法
 48
50.0
100
AcDbDimension
  2
*D27
 10
11155.6
 20
8812.101985307352
 30
0.0
 11
11551.7066017178
 21
8812.101985307352
 31
0.0
 70
   160
 71
     5
 42
123.0
  3
INABA_S40G
100
AcDbAlignedDimension
 13
11278.6
 23
8066.342358765268
 33
0.0
 14
11155.6
 24
7993.342358765268
 34
0.0
100
AcDbRotatedDimension
1001
ACAD
1000
DSTYLE
1002
{
1070
   341
1005
0
1002
}
  0
DIMENSION
  5
284BA
330
747D
100
AcDbEntity
  8
寸法
 48
50.0
100
AcDbDimension
  2
*D28
 10
9748.600000000001
 20
8593.252124413597
 30
0.0
 11
10112.1
 21
8693.263935437219
 31
0.0
 70
    32
 71
     5
 42
727.0
  3
INABA_S40G
100
AcDbAlignedDimension
 13
10475.6
 23
7531.342358765269
 33
0.0
 14
9748.600000000001
 24
7531.342358765269
 34
0.0
100
AcDbRotatedDimension
1001
ACAD
1000
DSTYLE
1002
{
1070
   341
1005
0
1002
}
  0
DIMENSION
  5
284BB
330
747D
100
AcDbEntity
  8
寸法
 48
50.0
100
AcDbDimension
  2
*D29
 10
10475.6
 20
8593.252124413597
 30
0.0
 11
10877.1
 21
8693.252124413596
 31
0.0
 70
    32
 71
     5
 42
803.0
  3
INABA_S40G
100
AcDbAlignedDimension
 13
11278.6
 23
8066.342358765268
 33
0.0
 14
10475.6
 24
7531.342358765269
 34
0.0
100
AcDbRotatedDimension
1001
ACAD
1000
DSTYLE
1002
{
1070
   341
1005
0
1002
}
  0
DIMENSION
  5
284BC
330
747D
100
AcDbEntity
  8
寸法
 48
50.0
100
AcDbDimension
  2
*D30
 10
9021.600000000001
 20
8593.252124413597
 30
0.0
 11
9385.099999999999
 21
8693.263935437219
 31
0.0
 70
    32
 71
     5
 42
727.0
  3
INABA_S40G
100
AcDbAlignedDimension
 13
9748.600000000001
 23
7531.342358765269
 33
0.0
 14
9021.600000000001
 24
7531.342358765269
 34
0.0
100
AcDbRotatedDimension
1001
ACAD
1000
DSTYLE
1002
{
1070
   341
1005
0
1002
}
  0
DIMENSION
  5
284BD
330
747D
100
AcDbEntity
  8
寸法
 48
50.0
100
AcDbDimension
  2
*D31
 10
10163.85510029273
 20
7331.342358765269
 30
0.0
 11
10063.85510029272
 21
6956.342358765275
 31
0.0
 70
    32
 71
     5
 42
749.99999999999
  3
INABA_S40G
100
AcDbAlignedDimension
 13
10375.6
 23
6581.342358765279
 33
0.0
 14
10375.6
 24
7331.342358765269
 34
0.0
 50
90.0
100
AcDbRotatedDimension
1001
ACAD
1000
DSTYLE
1002
{
1070
   341
1005
0
1002
}
  0
DIMENSION
  5
284BE
330
747D
100
AcDbEntity
  8
寸法
 48
50.0
100
AcDbDimension
  2
*D32
 10
10163.85510029273
 20
8066.342358765268
 30
0.0
 11
10063.85510029272
 21
7698.84235876527
 31
0.0
 70
    32
 71
     5
 42
734.999999999999
  3
INABA_S40G
100
AcDbAlignedDimension
 13
10375.6
 23
7331.342358765269
 33
0.0
 14
9813.157431058357
 24
8066.342358765268
 34
0.0
 50
90.0
100
AcDbRotatedDimension
1001
ACAD
1000
DSTYLE
1002
{
1070
   341
1005
0
1002
}
  0
LINE
  5
284BF
330
747D
100
AcDbEntity
  8
部品1
 48
50.0
100
AcDbLine
 10
8921.600000000001
 20
6381.342358765269
 30
0.0
 11
8921.600000000001
 21
6781.342358765269
 31
0.0
  0
LINE
  5
284C0
330
747D
100
AcDbEntity
  8
部品1
 48
50.0
100
AcDbLine
 10
9121.6
 20
6381.342358765267
 30
0.0
 11
9121.6
 21
6781.342358765269
 31
0.0
  0
LINE
  5
284C1
330
747D
100
AcDbEntity
  8
部品1
 48
50.0
100
AcDbLine
 10
9121.6
 20
6381.342358765267
 30
0.0
 11
8921.600000000001
 21
6381.342358765267
 31
0.0
  0
LINE
  5
284C2
330
747D
100
AcDbEntity
  8
センター
 48
2.0
100
AcDbLine
 10
8971.6
 20
6581.342358765269
 30
0.0
 11
9071.600000000001
 21
6581.342358765269
 31
0.0
  0
LINE
  5
284C3
330
747D
100
AcDbEntity
  8
センター
 48
2.0
100
AcDbLine
 10
9021.600000000001
 20
6631.34235876527
 30
0.0
 11
9021.600000000001
 21
6531.342358765269
 31
0.0
  0
LINE
  5
284C4
330
747D
100
AcDbEntity
  8
部品1
 48
50.0
100
AcDbLine
 10
9121.6
 20
6781.342358765269
 30
0.0
 11
8921.600000000001
 21
6781.342358765269
 31
0.0
  0
LINE
  5
284C5
330
747D
100
AcDbEntity
  8
部品1
 48
50.0
100
AcDbLine
 10
9848.600000000001
 20
6381.342358765267
 30
0.0
 11
9848.600000000001
 21
6781.342358765269
 31
0.0
  0
LINE
  5
284C6
330
747D
100
AcDbEntity
  8
部品1
 48
50.0
100
AcDbLine
 10
9648.600000000001
 20
6381.342358765269
 30
0.0
 11
9648.600000000001
 21
6781.342358765269
 31
0.0
  0
LINE
  5
284C7
330
747D
100
AcDbEntity
  8
部品1
 48
50.0
100
AcDbLine
 10
9848.600000000001
 20
6381.342358765267
 30
0.0
 11
9648.600000000001
 21
6381.342358765267
 31
0.0
  0
LINE
  5
284C8
330
747D
100
AcDbEntity
  8
部品1
 48
50.0
100
AcDbLine
 10
9848.600000000001
 20
6781.342358765269
 30
0.0
 11
9648.600000000001
 21
6781.342358765269
 31
0.0
  0
LINE
  5
284C9
330
747D
100
AcDbEntity
  8
センター
 48
2.0
100
AcDbLine
 10
9698.6
 20
6581.342358765269
 30
0.0
 11
9798.6
 21
6581.342358765269
 31
0.0
  0
LINE
  5
284CA
330
747D
100
AcDbEntity
  8
センター
 48
2.0
100
AcDbLine
 10
9748.600000000001
 20
6631.34235876527
 30
0.0
 11
9748.600000000001
 21
6531.342358765269
 31
0.0
  0
LINE
  5
284CB
330
747D
100
AcDbEntity
  8
部品1
 48
50.0
100
AcDbLine
 10
9121.6
 20
7131.342358765266
 30
0.0
 11
9121.6
 21
7531.342358765269
 31
0.0
  0
LINE
  5
284CC
330
747D
100
AcDbEntity
  8
部品1
 48
50.0
100
AcDbLine
 10
8921.600000000001
 20
7131.34235876527
 30
0.0
 11
8921.600000000001
 21
7531.342358765269
 31
0.0
  0
LINE
  5
284CD
330
747D
100
AcDbEntity
  8
センター
 48
2.0
100
AcDbLine
 10
9021.600000000001
 20
7381.34235876527
 30
0.0
 11
9021.600000000001
 21
7281.342358765269
 31
0.0
  0
LINE
  5
284CE
330
747D
100
AcDbEntity
  8
部品1
 48
50.0
100
AcDbLine
 10
9121.6
 20
7131.342358765266
 30
0.0
 11
8921.600000000001
 21
7131.342358765266
 31
0.0
  0
LINE
  5
284CF
330
747D
100
AcDbEntity
  8
センター
 48
2.0
100
AcDbLine
 10
8971.6
 20
7331.342358765269
 30
0.0
 11
9071.600000000001
 21
7331.342358765269
 31
0.0
  0
LINE
  5
284D0
330
747D
100
AcDbEntity
  8
部品1
 48
50.0
100
AcDbLine
 10
9121.6
 20
7531.342358765269
 30
0.0
 11
8921.600000000001
 21
7531.342358765269
 31
0.0
  0
LINE
  5
284D1
330
747D
100
AcDbEntity
  8
部品1
 48
50.0
100
AcDbLine
 10
9848.600000000001
 20
7531.342358765269
 30
0.0
 11
9648.600000000001
 21
7531.342358765269
 31
0.0
  0
LINE
  5
284D2
330
747D
100
AcDbEntity
  8
部品1
 48
50.0
100
AcDbLine
 10
9848.600000000001
 20
7131.342358765266
 30
0.0
 11
9648.600000000001
 21
7131.342358765266
 31
0.0
  0
LINE
  5
284D3
330
747D
100
AcDbEntity
  8
部品1
 48
50.0
100
AcDbLine
 10
9648.600000000001
 20
7131.34235876527
 30
0.0
 11
9648.600000000001
 21
7531.342358765269
 31
0.0
  0
LINE
  5
284D4
330
747D
100
AcDbEntity
  8
センター
 48
2.0
100
AcDbLine
 10
9748.600000000001
 20
7381.34235876527
 30
0.0
 11
9748.600000000001
 21
7281.342358765269
 31
0.0
  0
LINE
  5
284D5
330
747D
100
AcDbEntity
  8
部品1
 48
50.0
100
AcDbLine
 10
9848.600000000001
 20
7131.342358765266
 30
0.0
 11
9848.600000000001
 21
7531.342358765269
 31
0.0
  0
LINE
  5
284D6
330
747D
100
AcDbEntity
  8
センター
 48
2.0
100
AcDbLine
 10
9698.6
 20
7331.342358765269
 30
0.0
 11
9798.6
 21
7331.342358765269
 31
0.0
  0
LINE
  5
284D8
102
{ACAD_REACTORS
330
2986E
102
}
330
747D
100
AcDbEntity
  8
部品1
 48
50.0
100
AcDbLine
 10
9648.600000000001
 20
8066.342358765266
 30
0.0
 11
9648.600000000001
 21
7946.342358765268
 31
0.0
  0
LINE
  5
284D9
102
{ACAD_REACTORS
330
2986E
102
}
330
747D
100
AcDbEntity
  8
部品1
 48
50.0
100
AcDbLine
 10
9848.600000000001
 20
8066.342358765266
 30
0.0
 11
9848.600000000001
 21
7946.342358765268
 31
0.0
  0
LINE
  5
284DA
102
{ACAD_REACTORS
330
2986E
102
}
330
747D
100
AcDbEntity
  8
部品1
 48
50.0
100
AcDbLine
 10
11158.6
 20
6076.342358765288
 30
0.0
 11
11158.6
 21
7836.342358765269
 31
0.0
  0
LINE
  5
284DB
330
747D
100
AcDbEntity
  8
部品1
 48
50.0
100
AcDbLine
 10
10575.6
 20
6381.342358765267
 30
0.0
 11
10575.6
 21
6781.342358765269
 31
0.0
  0
LINE
  5
284DC
330
747D
100
AcDbEntity
  8
部品1
 48
50.0
100
AcDbLine
 10
10375.6
 20
6381.342358765269
 30
0.0
 11
10375.6
 21
6781.342358765269
 31
0.0
  0
LINE
  5
284DD
330
747D
100
AcDbEntity
  8
部品1
 48
50.0
100
AcDbLine
 10
10575.6
 20
6381.342358765267
 30
0.0
 11
10375.6
 21
6381.342358765267
 31
0.0
  0
LINE
  5
284DE
330
747D
100
AcDbEntity
  8
部品1
 48
50.0
100
AcDbLine
 10
10575.6
 20
6781.342358765269
 30
0.0
 11
10375.6
 21
6781.342358765269
 31
0.0
  0
LINE
  5
284DF
330
747D
100
AcDbEntity
  8
センター
 48
2.0
100
AcDbLine
 10
10425.6
 20
6581.342358765269
 30
0.0
 11
10525.6
 21
6581.342358765269
 31
0.0
  0
LINE
  5
284E0
330
747D
100
AcDbEntity
  8
センター
 48
2.0
100
AcDbLine
 10
10475.6
 20
6631.34235876527
 30
0.0
 11
10475.6
 21
6531.342358765269
 31
0.0
  0
LINE
  5
284E1
330
747D
100
AcDbEntity
  8
センター
 48
2.0
100
AcDbLine
 10
11105.60000000001
 20
5969.34235876527
 30
0.0
 11
11205.60000000001
 21
5969.34235876527
 31
0.0
  0
LINE
  5
284E2
330
747D
100
AcDbEntity
  8
部品1
 48
50.0
100
AcDbLine
 10
11158.6
 20
6076.342358765288
 30
0.0
 11
11048.6
 21
6076.342358765288
 31
0.0
  0
LINE
  5
284E3
330
747D
100
AcDbEntity
  8
部品1
 48
50.0
100
AcDbLine
 10
11048.6
 20
5966.342358765285
 30
0.0
 11
11048.6
 21
6076.342358765288
 31
0.0
  0
LINE
  5
284E4
330
747D
100
AcDbEntity
  8
センター
 48
2.0
100
AcDbLine
 10
11155.6
 20
6019.342358765271
 30
0.0
 11
11155.6
 21
5919.342358765271
 31
0.0
  0
CIRCLE
  5
284E5
330
747D
100
AcDbEntity
  8
部品1
 48
50.0
100
AcDbCircle
 10
11155.6
 20
5969.34235876527
 30
0.0
 40
35.0
  0
LINE
  5
284E6
102
{ACAD_REACTORS
330
2986E
102
}
330
747D
100
AcDbEntity
  8
部品1
 48
50.0
100
AcDbLine
 10
11278.6
 20
7056.342358765269
 30
0.0
 11
11158.6
 21
7056.342358765269
 31
0.0
  0
LINE
  5
284E7
102
{ACAD_REACTORS
330
2986E
102
}
330
747D
100
AcDbEntity
  8
部品1
 48
50.0
100
AcDbLine
 10
11278.6
 20
6856.342358765269
 30
0.0
 11
11158.6
 21
6856.342358765269
 31
0.0
  0
DIMENSION
  5
284E9
330
747D
100
AcDbEntity
  8
寸法
 48
50.0
100
AcDbDimension
  2
*D33
 10
11048.6
 20
7608.633691264895
 30
0.0
 11
10778.54094488189
 21
7608.633691264895
 31
0.0
 70
   160
 71
     5
 42
110.0
  3
INABA_S40G
100
AcDbAlignedDimension
 13
11158.6
 23
7836.342358765269
 33
0.0
 14
11048.6
 24
7836.342358765269
 34
0.0
100
AcDbRotatedDimension
1001
ACAD
1000
DSTYLE
1002
{
1070
   341
1005
0
1002
}
  0
LINE
  5
284EA
330
747D
100
AcDbEntity
  8
部品1
 48
50.0
100
AcDbLine
 10
10575.6
 20
7531.342358765269
 30
0.0
 11
10375.6
 21
7531.342358765269
 31
0.0
  0
LINE
  5
284EB
330
747D
100
AcDbEntity
  8
部品1
 48
50.0
100
AcDbLine
 10
10575.6
 20
7131.342358765266
 30
0.0
 11
10375.6
 21
7131.342358765266
 31
0.0
  0
LINE
  5
284EC
330
747D
100
AcDbEntity
  8
センター
 48
2.0
100
AcDbLine
 10
10425.6
 20
7331.342358765269
 30
0.0
 11
10525.6
 21
7331.342358765269
 31
0.0
  0
LINE
  5
284ED
330
747D
100
AcDbEntity
  8
部品1
 48
50.0
100
AcDbLine
 10
10375.6
 20
7131.34235876527
 30
0.0
 11
10375.6
 21
7531.342358765269
 31
0.0
  0
LINE
  5
284EE
330
747D
100
AcDbEntity
  8
センター
 48
2.0
100
AcDbLine
 10
10475.6
 20
7381.34235876527
 30
0.0
 11
10475.6
 21
7281.342358765269
 31
0.0
  0
LINE
  5
284EF
330
747D
100
AcDbEntity
  8
部品1
 48
50.0
100
AcDbLine
 10
10575.6
 20
7131.342358765266
 30
0.0
 11
10575.6
 21
7531.342358765269
 31
0.0
  0
DIMENSION
  5
284F0
330
747D
100
AcDbEntity
  8
寸法
 48
50.0
100
AcDbDimension
  2
*D34
 10
11158.6
 20
7608.633691264895
 30
0.0
 11
11548.65905511811
 21
7608.633691264895
 31
0.0
 70
   160
 71
     5
 42
120.0
  3
INABA_S40G
100
AcDbAlignedDimension
 13
11278.6
 23
7625.626955303726
 33
0.0
 14
11158.6
 24
7836.342358765269
 34
0.0
100
AcDbRotatedDimension
1001
ACAD
1000
DSTYLE
1002
{
1070
   341
1005
0
1002
}
  0
LINE
  5
284F1
330
747D
100
AcDbEntity
  8
センター
 48
2.0
100
AcDbLine
 10
11155.6
 20
7993.342358765268
 30
0.0
 11
11155.6
 21
7893.342358765268
 31
0.0
  0
CIRCLE
  5
284F2
330
747D
100
AcDbEntity
  8
部品1
 48
50.0
100
AcDbCircle
 10
11155.6
 20
7943.342358765268
 30
0.0
 40
35.0
  0
LINE
  5
284F3
330
747D
100
AcDbEntity
  8
部品1
 48
50.0
100
AcDbLine
 10
11048.6
 20
7836.342358765269
 30
0.0
 11
11048.6
 21
7946.342358765268
 31
0.0
  0
LINE
  5
284F4
330
747D
100
AcDbEntity
  8
部品1
 48
50.0
100
AcDbLine
 10
11158.6
 20
7836.34235876527
 30
0.0
 11
11048.6
 21
7836.342358765269
 31
0.0
  0
LINE
  5
284F5
330
747D
100
AcDbEntity
  8
センター
 48
2.0
100
AcDbLine
 10
11105.6
 20
7943.342358765268
 30
0.0
 11
11205.6
 21
7943.342358765268
 31
0.0
  0
LINE
  5
290DF
330
747D
100
AcDbEntity
  8
想像線
 48
10.0
100
AcDbLine
 10
10098.18265186352
 20
5791.342358765287
 30
0.0
 11
11323.6
 21
5791.342358765287
 31
0.0
  0
LINE
  5
290E0
330
747D
100
AcDbEntity
  8
想像線
 48
10.0
100
AcDbLine
 10
10098.18265186352
 20
8141.342358765269
 30
0.0
 11
11323.6
 21
8141.342358765269
 31
0.0
  0
DIMENSION
  5
290E1
330
747D
100
AcDbEntity
  8
寸法
 48
50.0
100
AcDbDimension
  2
*D35
 10
5621.6
 20
5286.497344423079
 30
0.0
 11
6699.1
 21
5386.509155446701
 31
0.0
 70
    32
  1
扉の幅 <>
 71
     5
 42
2155.000000000001
  3
INABA_S40G
100
AcDbAlignedDimension
 13
7776.600000000001
 23
5771.342358765291
 33
0.0
 14
5621.6
 24
5771.342358765274
 34
0.0
100
AcDbRotatedDimension
1001
ACAD
1000
DSTYLE
1002
{
1070
   341
1005
0
1002
}
  0
TEXT
  5
290E2
330
747D
100
AcDbEntity
  8
寸法
 62
     7
100
AcDbText
 10
6049.918335129418
 20
4687.513846250379
 30
0.0
 40
120.0
  1
扉位置 (2155x75)
  7
STYLE1
100
AcDbText
  0
SOLID
  5
290E3
330
747D
100
AcDbEntity
  8
寸法
 48
50.0
100
AcDbTrace
 10
-6257.40363476905
 20
5645.751329860376
 30
0.0
 11
-6274.312840439037
 21
5771.342358765261
 31
0.0
 12
-6217.585420295573
 22
5658.024100829283
 32
0.0
 13
-6217.585420295573
 23
5658.024100829283
 33
0.0
210
0.0
220
0.0
230
-1.0
1001
ACAD
1000
DSTYLE
1002
{
1070
   341
1005
0
1070
    40
1040
1.0
1070
   343
1005
0
1070
   344
1005
0
1002
}
  0
LWPOLYLINE
  5
290E4
330
747D
100
AcDbEntity
  8
寸法
 48
50.0
100
AcDbPolyline
 90
        3
 70
     0
 43
0.0
 10
-6274.312840439037
 20
5771.342358765261
 10
-5933.302375936666
 20
4665.245898702059
 10
-8747.366788868307
 20
4665.245898702059
210
0.0
220
0.0
230
-1.0
1001
ACAD
1000
DSTYLE
1002
{
1070
   341
1005
0
1070
    40
1040
1.0
1070
   343
1005
0
1070
   344
1005
0
1002
}
  0
TEXT
  5
290E5
330
747D
100
AcDbEntity
  8
寸法
 62
     7
100
AcDbText
 10
6049.918335129418
 20
4515.910083367053
 30
0.0
 40
120.0
  1
扉の位置に合わせた基礎形状として下さい。
  7
STYLE1
100
AcDbText
  0
LINE
  5
29601
330
747D
100
AcDbEntity
  8
細線
100
AcDbLine
 10
8791.336950991114
 20
1691.793508734703
 30
0.0
 11
8548.045283895135
 21
1935.085175830682
 31
0.0
  0
LINE
  5
29602
330
747D
100
AcDbEntity
  8
細線
100
AcDbLine
 10
8727.697340684324
 20
1691.793508734703
 30
0.0
 11
8548.045283895135
 21
1871.445565523894
 31
0.0
  0
LINE
  5
29603
330
747D
100
AcDbEntity
  8
部品1
100
AcDbLine
 10
8548.045283895135
 20
1991.793508734704
 30
0.0
 11
9148.045283895134
 21
1991.793508734704
 31
0.0
  0
LINE
  5
29604
330
747D
100
AcDbEntity
  8
細線
100
AcDbLine
 10
8539.340777019296
 20
1577.169864168016
 30
0.0
 11
8653.964421585987
 21
1691.793508734703
 31
0.0
  0
LWPOLYLINE
  5
29605
330
747D
100
AcDbEntity
  8
部品1
 48
50.0
100
AcDbPolyline
 90
        2
 70
     0
 43
15.0
 10
8067.281206269653
 20
1691.793508734703
 10
9568.646585184184
 20
1691.793508734703
  0
LINE
  5
29606
330
747D
100
AcDbEntity
  8
部品1
100
AcDbLine
 10
8398.045283895134
 20
1577.169864168016
 30
0.0
 11
9298.045283895135
 21
1577.169864168019
 31
0.0
  0
LINE
  5
29607
330
747D
100
AcDbEntity
  8
部品1
100
AcDbLine
 10
8398.045283895134
 20
1417.169864168012
 30
0.0
 11
9298.045283895135
 21
1417.169864168016
 31
0.0
  0
LINE
  5
29608
330
747D
100
AcDbEntity
  8
部品1
100
AcDbLine
 10
2992.081515616244
 20
383.9385341010716
 30
0.0
 11
9888.556211714274
 21
383.9385341010716
 31
0.0
  0
LINE
  5
29609
330
747D
100
AcDbEntity
  8
部品1
100
AcDbLine
 10
9888.556211714274
 20
3343.00803345576
 30
0.0
 11
2992.081515616244
 21
3343.00803345576
 31
0.0
  0
LINE
  5
2960A
330
747D
100
AcDbEntity
  8
部品1
100
AcDbLine
 10
9888.556211714274
 20
3643.008033455759
 30
0.0
 11
2992.081515616244
 21
3643.008033455759
 31
0.0
  0
LEADER
  5
2960B
330
747D
100
AcDbEntity
  8
寸法
 48
50.0
100
AcDbLeader
  3
INABA_S40G
 73
     0
 75
     1
 40
141.4772727272727
 41
760.7954545454546
 76
     3
 10
6473.602286312079
 20
1928.688100432552
 30
0.0
 10
6258.847500447897
 20
2984.16195337815
 30
0.0
 10
6158.847500447897
 20
2984.16195337815
 30
0.0
340
2960C
1001
ACAD
1000
DSTYLE
1002
{
1070
   341
1005
0
1002
}
  0
MTEXT
  5
2960C
102
{ACAD_REACTORS
330
2960B
102
}
330
747D
100
AcDbEntity
  8
寸法
 62
     7
 48
50.0
100
AcDbMText
 10
6118.847500447897
 20
3094.900589741786
 30
0.0
 40
100.0
 41
1.0
 71
     6
 72
     1
  1
\A1;φ70スリーブ
  7
STYLE2
 73
     1
 44
1.0
1001
ACAD
1000
MTEXTBEGIN
1070
    73
1070
     1
1070
    44
1040
1.0
1070
    74
1070
     0
1000
MTEXTEND
  0
LINE
  5
2960D
330
747D
100
AcDbEntity
  8
部品1
100
AcDbLine
 10
2992.081515616247
 20
3643.008033455759
 30
0.0
 11
2992.081515616247
 21
383.9385341010716
 31
0.0
  0
DIMENSION
  5
2960E
330
747D
100
AcDbEntity
  8
寸法
 48
50.0
100
AcDbDimension
  2
*D36
 10
4110.882207168025
 20
2516.378268630179
 30
0.0
 11
4230.882207168025
 21
2516.378268630179
 31
0.0
 70
   160
  1
120\P(195)
 71
     5
 42
240.0
  3
INABA_S40G
100
AcDbAlignedDimension
 13
4350.882207168025
 23
1991.793508734704
 33
0.0
 14
4110.882207168025
 24
1991.793508734704
 34
0.0
100
AcDbRotatedDimension
1001
ACAD
1000
DSTYLE
1002
{
1070
   341
1005
0
1002
}
  0
LEADER
  5
2960F
330
747D
100
AcDbEntity
  8
寸法
 48
50.0
100
AcDbLeader
  3
INABA_S40G
 73
     0
 74
     0
 75
     1
 40
127.8409090909091
 41
1133.522727272727
 76
     3
 10
6562.681348639519
 20
2328.197619290054
 30
0.0
 10
6662.520836600569
 20
2763.492270548325
 30
0.0
 10
6762.520836600569
 20
2763.492270548325
 30
0.0
340
29610
1001
ACAD
1000
DSTYLE
1002
{
1070
   341
1005
0
1002
}
  0
MTEXT
  5
29610
102
{ACAD_REACTORS
330
2960F
102
}
330
747D
100
AcDbEntity
  8
部品1
 62
     7
 48
50.0
100
AcDbMText
 10
6802.52083660057
 20
2867.41272509378
 30
0.0
 40
100.0
 41
1.0
 71
     4
 72
     1
  1
\A1;ワッシャー(市販品)
  7
STYLE2
 73
     1
 44
1.0
1001
ACAD
1000
MTEXTBEGIN
1070
    73
1070
     1
1070
    44
1040
1.0
1070
    74
1070
     0
1000
MTEXTEND
  0
LEADER
  5
29611
330
747D
100
AcDbEntity
  8
寸法
 48
50.0
100
AcDbLeader
  3
INABA_S40G
 73
     0
 74
     0
 75
     1
 40
127.8409090909091
 41
850.0
 76
     3
 10
6532.681348639518
 20
2490.387610121132
 30
0.0
 10
6623.123812531215
 20
2994.703624004309
 30
0.0
 10
6723.123812531214
 20
2994.703624004309
 30
0.0
340
29612
1001
ACAD
1000
DSTYLE
1002
{
1070
   341
1005
0
1002
}
  0
MTEXT
  5
29612
102
{ACAD_REACTORS
330
29611
102
}
330
747D
100
AcDbEntity
  8
部品1
 62
     7
 48
50.0
100
AcDbMText
 10
6763.123812531215
 20
3098.624078549764
 30
0.0
 40
100.0
 41
1.0
 71
     4
 72
     1
  1
\A1;ナット(市販品)
  7
STYLE2
 73
     1
 44
1.0
1001
ACAD
1000
MTEXTBEGIN
1070
    73
1070
     1
1070
    44
1040
1.0
1070
    74
1070
     0
1000
MTEXTEND
  0
MTEXT
  5
29613
102
{ACAD_REACTORS
330
29614
102
}
330
747D
100
AcDbEntity
  8
寸法
 62
     7
 48
50.0
100
AcDbMText
 10
6152.151258208345
 20
2644.045249857392
 30
0.0
 40
100.0
 41
1.0
 71
     6
 72
     1
  1
\A1;アンカープレート L
  7
STYLE2
 73
     1
 44
1.0
1001
ACAD
1000
MTEXTBEGIN
1070
    73
1070
     1
1070
    44
1040
1.0
1070
    74
1070
     0
1000
MTEXTEND
  0
LEADER
  5
29614
330
747D
100
AcDbEntity
  8
寸法
 48
50.0
100
AcDbLeader
  3
INABA_S40G
 73
     0
 75
     1
 40
132.9545454545455
 41
1116.477272727273
 76
     3
 10
6400.181348639519
 20
2078.743508734704
 30
0.0
 10
6292.151258208345
 20
2537.567977130119
 30
0.0
 10
6192.151258208345
 20
2537.567977130119
 30
0.0
340
29613
1001
ACAD
1000
DSTYLE
1002
{
1070
   341
1005
0
1002
}
  0
TEXT
  5
29615
330
747D
100
AcDbEntity
  8
部品1
 48
50.0
100
AcDbText
 10
3593.20732987683
 20
1705.842249088773
 30
0.0
 40
100.0
  1
▽G.L
  7
STYLE2
100
AcDbText
  0
LWPOLYLINE
  5
29616
330
747D
100
AcDbEntity
  8
部品1
 48
50.0
100
AcDbPolyline
 90
        2
 70
     0
 43
10.0
 10
3593.20732987683
 20
1691.793508734704
 10
4110.882207168025
 20
1691.793508734704
  0
DIMENSION
  5
29617
330
747D
100
AcDbEntity
  8
寸法
 48
50.0
100
AcDbDimension
  2
*D37
 10
3772.856815002452
 20
1011.793508734703
 30
0.0
 11
3772.856815002452
 21
1161.793508734703
 31
0.0
 70
   160
  1
150
 71
     5
 42
299.9999999999999
  3
INABA_S40G
100
AcDbAlignedDimension
 13
3950.882207168025
 23
1311.793508734703
 33
0.0
 14
3850.88220716803
 24
1011.793508734703
 34
0.0
 50
90.0
100
AcDbRotatedDimension
1001
ACAD
1000
DSTYLE
1002
{
1070
   341
1005
0
1002
}
  0
DIMENSION
  5
29618
330
747D
100
AcDbEntity
  8
寸法
 48
50.0
100
AcDbDimension
  2
*D38
 10
3350.237269131961
 20
1011.793508734703
 30
0.0
 11
3350.237269131961
 21
1501.793508734704
 31
0.0
 70
   160
  1
540
 71
     5
 42
980.0000000000007
  3
INABA_S40G
100
AcDbAlignedDimension
 13
4110.882207168025
 23
1991.793508734704
 33
0.0
 14
3850.88220716803
 24
1011.793508734703
 34
0.0
 50
90.0
100
AcDbRotatedDimension
1001
ACAD
1000
DSTYLE
1002
{
1070
   341
1005
0
1002
}
  0
MTEXT
  5
29619
102
{ACAD_REACTORS
330
2961A
102
}
330
747D
100
AcDbEntity
  8
寸法
 62
     7
 48
50.0
100
AcDbMText
 10
4026.964207249744
 20
2257.438783737257
 30
0.0
 40
100.0
 41
1.0
 71
     6
 72
     1
  1
\A1;金コテ押エ
  7
STYLE2
 73
     1
 44
1.0
1001
ACAD
1000
MTEXTBEGIN
1070
    73
1070
     1
1070
    44
1040
1.0
1070
    74
1070
     0
1000
MTEXTEND
  0
LEADER
  5
2961A
330
747D
100
AcDbEntity
  8
寸法
 48
50.0
100
AcDbLeader
  3
INABA_S40G
 71
     0
 73
     0
 75
     1
 40
130.1136363636363
 41
651.1363636363636
 76
     3
 10
4210.882207168025
 20
1991.793508734704
 30
0.0
 10
4151.964207249744
 20
2167.381965555438
 30
0.0
 10
4051.964207249744
 20
2167.381965555438
 30
0.0
1001
ACAD
1000
DSTYLE
1002
{
1070
   341
1005
0
1002
}
  0
LEADER
  5
2961B
330
747D
100
AcDbEntity
  8
寸法
 48
50.0
100
AcDbLeader
  3
INABA_S40G
 71
     0
 73
     0
 75
     1
 40
100.0
 41
540.3409090909091
 76
     3
 10
4240.882207168026
 20
1689.452527106106
 30
0.0
 10
4112.154411507153
 20
1412.614616430102
 30
0.0
 10
4012.154411507153
 20
1412.614616430102
 30
0.0
213
-12.16522788236671
223
-5.804645826423211
233
0.0
1001
ACAD
1000
DSTYLE
1002
{
1070
   341
1005
0
1002
}
  0
MTEXT
  5
2961C
102
{ACAD_REACTORS
330
2961B
102
}
330
747D
100
AcDbEntity
  8
寸法
 62
     7
 48
50.0
100
AcDbMText
 10
3999.319639389521
 20
1493.419262256524
 30
0.0
 40
100.0
 41
1.0
 71
     6
 72
     1
  1
\A1;D10@300
  7
STYLE2
 73
     1
 44
1.0
1001
ACAD
1000
MTEXTBEGIN
1070
    73
1070
     1
1070
    44
1040
1.0
1070
    74
1070
     0
1000
MTEXTEND
  0
MTEXT
  5
2961D
102
{ACAD_REACTORS
330
2961E
102
}
330
747D
100
AcDbEntity
  8
寸法
 62
     7
 48
50.0
100
AcDbMText
 10
3772.366833870826
 20
681.994951037354
 30
0.0
 40
100.0
 41
1.0
 71
     6
 72
     1
  1
D13
  7
STYLE2
 73
     1
 44
1.0
1001
ACAD
1000
MTEXTBEGIN
1070
    73
1070
     1
1070
    44
1040
1.0
1070
    74
1070
     0
1000
MTEXTEND
  0
LEADER
  5
2961E
330
747D
100
AcDbEntity
  8
寸法
 48
50.0
100
AcDbLeader
  3
INABA_S40G
 71
     0
 73
     0
 75
     1
 40
100.0
 41
222.7272727272727
 76
     3
 10
4230.882207168025
 20
1161.793508734703
 30
0.0
 10
3897.366833870827
 20
606.994951037354
 30
0.0
 10
3797.366833870827
 20
606.994951037354
 30
0.0
1001
ACAD
1000
DSTYLE
1002
{
1070
   341
1005
0
1002
}
  0
LEADER
  5
2961F
330
747D
100
AcDbEntity
  8
寸法
 48
50.0
100
AcDbLeader
  3
INABA_S40G
 71
     0
 73
     0
 75
     1
 40
100.0
 41
225.0
 76
     3
 10
4070.760897608205
 20
1161.793508734703
 30
0.0
 10
3862.213424424032
 20
832.390141711658
 30
0.0
 10
3762.213424424032
 20
832.390141711658
 30
0.0
1001
ACAD
1000
DSTYLE
1002
{
1070
   341
1005
0
1002
}
  0
MTEXT
  5
29620
102
{ACAD_REACTORS
330
2961F
102
}
330
747D
100
AcDbEntity
  8
寸法
 62
     7
 48
50.0
100
AcDbMText
 10
3737.213424424034
 20
907.390141711658
 30
0.0
 40
100.0
 41
1.0
 71
     6
 72
     1
  1
D10
  7
STYLE2
 73
     1
 44
1.0
1001
ACAD
1000
MTEXTBEGIN
1070
    73
1070
     1
1070
    44
1040
1.0
1070
    74
1070
     0
1000
MTEXTEND
  0
LINE
  5
29621
330
747D
100
AcDbEntity
  8
部品1
 48
50.0
100
AcDbLine
 10
4350.882207168026
 20
1991.793508734704
 30
0.0
 11
4350.882207168026
 21
1311.793508734703
 31
0.0
  0
LINE
  5
29622
330
747D
100
AcDbEntity
  8
細線
 48
50.0
100
AcDbLine
 10
4110.882207168025
 20
1370.351940937417
 30
0.0
 11
4240.882207168032
 21
1500.351940937417
 31
0.0
  0
LINE
  5
29623
330
747D
100
AcDbEntity
  8
細線
 48
50.0
100
AcDbLine
 10
4110.882207168025
 20
1437.703861845436
 30
0.0
 11
4240.882207168026
 21
1567.703861845435
 31
0.0
  0
LINE
  5
29624
330
747D
100
AcDbEntity
  8
細線
 48
50.0
100
AcDbLine
 10
4110.882207168025
 20
1404.027901391426
 30
0.0
 11
4240.882207168032
 21
1534.02790139143
 31
0.0
  0
LINE
  5
29625
330
747D
100
AcDbEntity
  8
部品1
 48
50.0
100
AcDbLine
 10
4110.882207168025
 20
1311.793508734703
 30
0.0
 11
4110.882207168025
 21
1991.793508734704
 31
0.0
  0
LINE
  5
29626
330
747D
100
AcDbEntity
  8
部品1
 48
50.0
100
AcDbLine
 10
4240.882207168032
 20
1161.793508734703
 30
0.0
 11
4240.882207168019
 21
1817.11154547751
 31
0.0
  0
LINE
  5
29627
330
747D
100
AcDbEntity
  8
部品1
 48
50.0
100
AcDbLine
 10
4260.882207168032
 20
1161.793508734703
 30
0.0
 11
4260.882207168026
 21
1817.11154547751
 31
0.0
  0
LINE
  5
29628
330
747D
100
AcDbEntity
  8
部品1
 48
50.0
100
AcDbLine
 10
4350.882207168026
 20
1311.793508734703
 30
0.0
 11
4510.882207168026
 21
1311.793508734703
 31
0.0
  0
LINE
  5
29629
330
747D
100
AcDbEntity
  8
細線
 48
50.0
100
AcDbLine
 10
4397.463181775456
 20
1151.793508734702
 30
0.0
 11
4510.882207168026
 21
1265.212534127277
 31
0.0
  0
LINE
  5
2962A
330
747D
100
AcDbEntity
  8
細線
 48
50.0
100
AcDbLine
 10
4431.139142229461
 20
1151.793508734702
 30
0.0
 11
4510.882207168026
 21
1231.536573673268
 31
0.0
  0
LINE
  5
2962B
330
747D
100
AcDbEntity
  8
細線
 48
50.0
100
AcDbLine
 10
4363.787221321436
 20
1151.793508734702
 30
0.0
 11
4510.882207168026
 21
1298.888494581286
 31
0.0
  0
LEADER
  5
2962C
330
747D
100
AcDbEntity
  8
寸法
 48
50.0
100
AcDbLeader
  3
INABA_S40G
 71
     0
 73
     0
 74
     0
 75
     1
 40
100.0
 41
225.0
 76
     3
 10
4390.760897608203
 20
1161.793508734703
 30
0.0
 10
4515.041781926382
 20
1042.547172555988
 30
0.0
 10
4615.041781926382
 20
1042.547172555988
 30
0.0
1001
ACAD
1000
DSTYLE
1002
{
1070
   341
1005
0
1002
}
  0
DIMENSION
  5
2962D
330
747D
100
AcDbEntity
  8
寸法
 48
50.0
100
AcDbDimension
  2
*D39
 10
4510.882207168026
 20
552.8414022787695
 30
0.0
 11
4230.882207168025
 21
552.8414022787695
 31
0.0
 70
   160
  1
300
 71
     5
 42
560.0000000000013
  3
INABA_S40G
100
AcDbAlignedDimension
 13
3950.882207168025
 23
851.7935087347026
 33
0.0
 14
4510.882207168026
 24
851.7935087347026
 34
0.0
100
AcDbRotatedDimension
1001
ACAD
1000
DSTYLE
1002
{
1070
   341
1005
0
1002
}
  0
LEADER
  5
2962E
330
747D
100
AcDbEntity
  8
寸法
 48
50.0
100
AcDbLeader
  3
INABA_S40G
 71
     0
 73
     0
 74
     0
 75
     1
 40
100.0
 41
540.3409090909091
 76
     3
 10
4323.313668434493
 20
1140.867845717796
 30
0.0
 10
4528.055276994589
 20
713.8293232241748
 30
0.0
 10
4628.055276994589
 20
713.8293232241748
 30
0.0
213
0.0
223
-1.277828345336728
233
0.0
1001
ACAD
1000
DSTYLE
1002
{
1070
   341
1005
0
1002
}
  0
LINE
  5
2962F
330
747D
100
AcDbEntity
  8
部品1
 48
50.0
100
AcDbLine
 10
4610.88220716803
 20
1011.793508734703
 30
0.0
 11
3850.88220716803
 21
1011.793508734703
 31
0.0
  0
LINE
  5
29630
330
747D
100
AcDbEntity
  8
部品1
 48
50.0
100
AcDbLine
 10
4610.88220716803
 20
851.7935087347026
 30
0.0
 11
3850.88220716803
 21
851.7935087347026
 31
0.0
  0
LINE
  5
29631
330
747D
100
AcDbEntity
  8
細線
 48
50.0
100
AcDbLine
 10
4404.580868906162
 20
851.7935087347018
 30
0.0
 11
4447.45273969514
 21
1011.793508734702
 31
0.0
  0
LINE
  5
29632
330
747D
100
AcDbEntity
  8
細線
 48
50.0
100
AcDbLine
 10
4207.360756538043
 20
851.7935087347026
 30
0.0
 11
4250.232627327021
 21
1011.793508734703
 31
0.0
  0
LINE
  5
29633
330
747D
100
AcDbEntity
  8
部品1
 48
50.0
100
AcDbLine
 10
3850.88220716803
 20
851.7935087347026
 30
0.0
 11
3850.88220716803
 21
1011.793508734703
 31
0.0
  0
LINE
  5
29634
330
747D
100
AcDbEntity
  8
細線
 48
50.0
100
AcDbLine
 10
3911.530587985851
 20
851.7935087347018
 30
0.0
 11
3954.402458774828
 21
1011.793508734702
 31
0.0
  0
LINE
  5
29635
330
747D
100
AcDbEntity
  8
細線
 48
50.0
100
AcDbLine
 10
4108.750700353978
 20
851.7935087347018
 30
0.0
 11
4151.622571142957
 21
1011.793508734702
 31
0.0
  0
LINE
  5
29636
330
747D
100
AcDbEntity
  8
細線
 48
50.0
100
AcDbLine
 10
4010.140644169921
 20
851.7935087347026
 30
0.0
 11
4053.0125149589
 21
1011.793508734703
 31
0.0
  0
LINE
  5
29637
330
747D
100
AcDbEntity
  8
細線
 48
50.0
100
AcDbLine
 10
4305.970812722102
 20
851.7935087347026
 30
0.0
 11
4348.842683511084
 21
1011.793508734702
 31
0.0
  0
LINE
  5
29638
330
747D
100
AcDbEntity
  8
細線
 48
50.0
100
AcDbLine
 10
4018.179119942855
 20
881.7935087347027
 30
0.0
 11
4026.217595715787
 21
851.7935087347026
 31
0.0
  0
LINE
  5
29639
330
747D
100
AcDbEntity
  8
細線
 48
50.0
100
AcDbLine
 10
3919.569063758791
 20
881.7935087347027
 30
0.0
 11
3927.607539531724
 21
851.7935087347026
 31
0.0
  0
LINE
  5
2963A
330
747D
100
AcDbEntity
  8
細線
 48
50.0
100
AcDbLine
 10
4215.399232310985
 20
881.7935087347027
 30
0.0
 11
4223.43770808392
 21
851.7935087347026
 31
0.0
  0
LINE
  5
2963B
330
747D
100
AcDbEntity
  8
細線
 48
50.0
100
AcDbLine
 10
4116.78917612692
 20
881.7935087347027
 30
0.0
 11
4124.827651899853
 21
851.7935087347026
 31
0.0
  0
LINE
  5
2963C
330
747D
100
AcDbEntity
  8
細線
 48
50.0
100
AcDbLine
 10
4412.619344679099
 20
881.7935087347027
 30
0.0
 11
4420.657820452034
 21
851.7935087347026
 31
0.0
  0
LINE
  5
2963D
330
747D
100
AcDbEntity
  8
細線
 48
50.0
100
AcDbLine
 10
4314.009288495042
 20
881.7935087347027
 30
0.0
 11
4322.047764267976
 21
851.7935087347026
 31
0.0
  0
LINE
  5
2963E
330
747D
100
AcDbEntity
  8
部品1
 48
50.0
100
AcDbLine
 10
3950.882207168027
 20
1311.793508734703
 30
0.0
 11
4110.882207168025
 21
1311.793508734703
 31
0.0
  0
LINE
  5
2963F
330
747D
100
AcDbEntity
  8
細線
 48
50.0
100
AcDbLine
 10
3954.379537689368
 20
1011.793508734703
 30
0.0
 11
4074.379537689369
 21
1131.793508734703
 31
0.0
  0
LINE
  5
29640
330
747D
100
AcDbEntity
  8
細線
 48
50.0
100
AcDbLine
 10
3988.055498143382
 20
1011.793508734703
 30
0.0
 11
4108.055498143381
 21
1131.793508734703
 31
0.0
  0
CIRCLE
  5
29641
330
747D
100
AcDbEntity
  8
部品1
 48
50.0
100
AcDbCircle
 10
4070.882207168025
 20
1161.793508734703
 30
0.0
 40
10.0
  0
LINE
  5
29642
330
747D
100
AcDbEntity
  8
細線
 48
50.0
100
AcDbLine
 10
4021.731458597387
 20
1011.793508734703
 30
0.0
 11
4141.731458597387
 21
1131.793508734703
 31
0.0
  0
LINE
  5
29643
330
747D
100
AcDbEntity
  8
部品1
 48
50.0
100
AcDbLine
 10
4020.882207168026
 20
1151.793508734702
 30
0.0
 11
4440.882207168026
 21
1151.793508734702
 31
0.0
  0
LINE
  5
29644
330
747D
100
AcDbEntity
  8
部品1
 48
50.0
100
AcDbLine
 10
4020.882207168026
 20
1131.793508734703
 30
0.0
 11
4440.882207168026
 21
1131.793508734703
 31
0.0
  0
LINE
  5
29645
330
747D
100
AcDbEntity
  8
部品1
 48
50.0
100
AcDbLine
 10
3950.882207168027
 20
1011.793508734703
 30
0.0
 11
3950.882207168027
 21
1311.793508734703
 31
0.0
  0
LINE
  5
29646
330
747D
100
AcDbEntity
  8
細線
 48
50.0
100
AcDbLine
 10
3850.882207168027
 20
993.4684099419278
 30
0.0
 11
3855.79240259077
 21
1011.793508734703
 31
0.0
  0
LINE
  5
29647
330
747D
100
AcDbEntity
  8
細線
 48
50.0
100
AcDbLine
 10
3946.363983001902
 20
981.793508734704
 30
0.0
 11
3938.325507228969
 21
1011.793508734703
 31
0.0
  0
LINE
  5
29648
330
747D
100
AcDbEntity
  8
細線
 48
50.0
100
AcDbLine
 10
4044.974039185967
 20
981.793508734704
 30
0.0
 11
4036.935563413034
 21
1011.793508734703
 31
0.0
  0
LINE
  5
29649
330
747D
100
AcDbEntity
  8
部品1
 48
50.0
100
AcDbLine
 10
4020.882207168026
 20
1151.793508734702
 30
0.0
 11
4020.882207168026
 21
1131.793508734703
 31
0.0
  0
LINE
  5
2964A
330
747D
100
AcDbEntity
  8
細線
 48
50.0
100
AcDbLine
 10
3950.882207168019
 20
1210.351940937417
 30
0.0
 11
4052.323774965311
 21
1311.793508734703
 31
0.0
  0
LINE
  5
2964B
330
747D
100
AcDbEntity
  8
細線
 48
50.0
100
AcDbLine
 10
3950.882207168019
 20
1277.703861845435
 30
0.0
 11
3984.971854057294
 21
1311.793508734703
 31
0.0
  0
LINE
  5
2964C
330
747D
100
AcDbEntity
  8
細線
 48
50.0
100
AcDbLine
 10
3950.882207168019
 20
1244.027901391423
 30
0.0
 11
4018.647814511306
 21
1311.793508734703
 31
0.0
  0
LINE
  5
2964D
330
747D
100
AcDbEntity
  8
部品1
 48
50.0
100
AcDbLine
 10
4220.882207168026
 20
1234.452527106107
 30
0.0
 11
4220.882207168026
 21
1161.793508734703
 31
0.0
  0
LINE
  5
2964E
330
747D
100
AcDbEntity
  8
細線
 48
50.0
100
AcDbLine
 10
4128.055498143381
 20
1151.793508734702
 30
0.0
 11
4200.882207168026
 21
1224.620217759352
 31
0.0
  0
LINE
  5
2964F
330
747D
100
AcDbEntity
  8
部品1
 48
50.0
100
AcDbLine
 10
4200.882207168026
 20
1234.452527106107
 30
0.0
 11
4200.882207168026
 21
1161.793508734703
 31
0.0
  0
LINE
  5
29650
330
747D
100
AcDbEntity
  8
細線
 48
50.0
100
AcDbLine
 10
4161.731458597387
 20
1151.793508734702
 30
0.0
 11
4200.882207168026
 21
1190.944257305342
 31
0.0
  0
LINE
  5
29651
330
747D
100
AcDbEntity
  8
細線
 48
50.0
100
AcDbLine
 10
4094.379537689369
 20
1151.793508734702
 30
0.0
 11
4240.882207168026
 21
1298.296178213361
 31
0.0
  0
LINE
  5
29652
330
747D
100
AcDbEntity
  8
細線
 48
50.0
100
AcDbLine
 10
4223.787221321443
 20
1011.793508734703
 30
0.0
 11
4343.787221321443
 21
1131.793508734703
 31
0.0
  0
LINE
  5
29653
330
747D
100
AcDbEntity
  8
細線
 48
50.0
100
AcDbLine
 10
4257.463181775456
 20
1011.793508734703
 30
0.0
 11
4377.463181775456
 21
1131.793508734703
 31
0.0
  0
CIRCLE
  5
29654
330
747D
100
AcDbEntity
  8
部品1
 48
50.0
100
AcDbCircle
 10
4230.882207168026
 20
1161.793508734703
 30
0.0
 40
10.0
  0
LINE
  5
29655
330
747D
100
AcDbEntity
  8
細線
 48
50.0
100
AcDbLine
 10
4143.584095370032
 20
981.793508734704
 30
0.0
 11
4135.545619597097
 21
1011.793508734703
 31
0.0
  0
ARC
  5
29656
330
747D
100
AcDbEntity
  8
部品1
 48
50.0
100
AcDbCircle
 10
4230.882207168026
 20
1161.793508734703
 30
0.0
 40
30.0
100
AcDbArc
 50
180.0
 51
199.471220634529
  0
LINE
  5
29657
330
747D
100
AcDbEntity
  8
細線
 48
50.0
100
AcDbLine
 10
4242.194151554095
 20
981.793508734704
 30
0.0
 11
4234.155675781162
 21
1011.793508734703
 31
0.0
  0
ARC
  5
29658
330
747D
100
AcDbEntity
  8
部品1
 48
50.0
100
AcDbCircle
 10
4230.882207168026
 20
1161.793508734703
 30
0.0
 40
30.0
100
AcDbArc
 50
340.5287793654709
 51
0.0
  0
LINE
  5
29659
330
747D
100
AcDbEntity
  8
細線
 48
50.0
100
AcDbLine
 10
4340.804207738155
 20
981.793508734704
 30
0.0
 11
4332.765731965221
 21
1011.793508734703
 31
0.0
  0
CIRCLE
  5
2965A
330
747D
100
AcDbEntity
  8
部品1
 48
50.0
100
AcDbCircle
 10
4390.882207168026
 20
1161.793508734703
 30
0.0
 40
10.0
  0
LINE
  5
2965B
330
747D
100
AcDbEntity
  8
細線
 48
50.0
100
AcDbLine
 10
4439.414263922212
 20
981.793508734704
 30
0.0
 11
4431.375788149278
 21
1011.793508734703
 31
0.0
  0
LINE
  5
2965C
330
747D
100
AcDbEntity
  8
部品1
 48
50.0
100
AcDbLine
 10
4440.882207168026
 20
1151.793508734702
 30
0.0
 11
4440.882207168026
 21
1131.793508734703
 31
0.0
  0
LINE
  5
2965D
330
747D
100
AcDbEntity
  8
細線
 48
50.0
100
AcDbLine
 10
4291.139142229462
 20
1011.793508734703
 30
0.0
 11
4411.140252035881
 21
1131.794618541128
 31
0.0
  0
LINE
  5
2965E
330
747D
100
AcDbEntity
  8
細線
 48
50.0
100
AcDbLine
 10
4260.882207168032
 20
1250.944257305342
 30
0.0
 11
4350.882207168019
 21
1340.944257305342
 31
0.0
  0
LINE
  5
2965F
330
747D
100
AcDbEntity
  8
細線
 48
50.0
100
AcDbLine
 10
4260.882207168032
 20
1318.296178213365
 30
0.0
 11
4350.882207168019
 21
1408.296178213361
 31
0.0
  0
LINE
  5
29660
330
747D
100
AcDbEntity
  8
細線
 48
50.0
100
AcDbLine
 10
4260.882207168032
 20
1284.620217759355
 30
0.0
 11
4350.882207168019
 21
1374.620217759348
 31
0.0
  0
LINE
  5
29661
330
747D
100
AcDbEntity
  8
細線
 48
50.0
100
AcDbLine
 10
4220.882207168026
 20
1210.944257305342
 30
0.0
 11
4240.882207168032
 21
1230.944257305342
 31
0.0
  0
LINE
  5
29662
330
747D
100
AcDbEntity
  8
細線
 48
50.0
100
AcDbLine
 10
4210.714516514781
 20
1234.452527106107
 30
0.0
 11
4240.882207168032
 21
1264.620217759355
 31
0.0
  0
LINE
  5
29663
330
747D
100
AcDbEntity
  8
部品1
 48
50.0
100
AcDbLine
 10
4220.882207168026
 20
1234.452527106107
 30
0.0
 11
4200.882207168026
 21
1234.452527106107
 31
0.0
  0
LINE
  5
29664
330
747D
100
AcDbEntity
  8
細線
 48
50.0
100
AcDbLine
 10
4503.190925090217
 20
851.7935087347026
 30
0.0
 11
4546.062795879199
 21
1011.793508734702
 31
0.0
  0
LINE
  5
29665
330
747D
100
AcDbEntity
  8
部品1
 48
50.0
100
AcDbLine
 10
4610.88220716803
 20
1011.793508734703
 30
0.0
 11
4610.88220716803
 21
851.7935087347026
 31
0.0
  0
MTEXT
  5
29666
102
{ACAD_REACTORS
330
2962E
102
}
330
747D
100
AcDbEntity
  8
寸法
 62
     7
 48
50.0
100
AcDbMText
 10
4653.05527699459
 20
790.1071515695115
 30
0.0
 40
100.0
 41
1.0
 71
     4
 72
     1
  1
\A1;D10@300
  7
STYLE2
 73
     1
 44
1.0
1001
ACAD
1000
MTEXTBEGIN
1070
    73
1070
     1
1070
    44
1040
1.0
1070
    74
1070
     0
1000
MTEXTEND
  0
LINE
  5
29667
330
747D
100
AcDbEntity
  8
細線
 48
50.0
100
AcDbLine
 10
4601.800981274279
 20
851.7935087347018
 30
0.0
 11
4610.882207168025
 21
885.6851051651887
 31
0.0
  0
LINE
  5
29668
330
747D
100
AcDbEntity
  8
細線
 48
50.0
100
AcDbLine
 10
4609.839457047216
 20
881.7935087347027
 30
0.0
 11
4610.882207168025
 21
877.9019123042472
 31
0.0
  0
LINE
  5
29669
330
747D
100
AcDbEntity
  8
細線
 48
50.0
100
AcDbLine
 10
4511.229400863157
 20
881.7935087347027
 30
0.0
 11
4519.26787663609
 21
851.7935087347026
 31
0.0
  0
LINE
  5
2966A
330
747D
100
AcDbEntity
  8
部品1
 48
50.0
100
AcDbLine
 10
4510.882207168026
 20
1311.793508734703
 30
0.0
 11
4510.882207168026
 21
1011.793508734703
 31
0.0
  0
MTEXT
  5
2966B
102
{ACAD_REACTORS
330
2962C
102
}
330
747D
100
AcDbEntity
  8
寸法
 62
     7
 48
50.0
100
AcDbMText
 10
4640.041781926382
 20
1117.547172555987
 30
0.0
 40
100.0
 41
1.0
 71
     4
 72
     1
  1
D10
  7
STYLE2
 73
     1
 44
1.0
1001
ACAD
1000
MTEXTBEGIN
1070
    73
1070
     1
1070
    44
1040
1.0
1070
    74
1070
     0
1000
MTEXTEND
  0
LINE
  5
2966C
330
747D
100
AcDbEntity
  8
細線
 48
50.0
100
AcDbLine
 10
4493.194904953518
 20
1011.793508734703
 30
0.0
 11
4510.882207168026
 21
1029.480810949212
 31
0.0
  0
LINE
  5
2966D
330
747D
100
AcDbEntity
  8
細線
 48
50.0
100
AcDbLine
 10
4538.02432010627
 20
981.793508734704
 30
0.0
 11
4529.985844333336
 21
1011.793508734703
 31
0.0
  0
MTEXT
  5
2966E
102
{ACAD_REACTORS
330
29670
102
}
330
747D
100
AcDbEntity
  8
寸法
 62
     7
 48
50.0
100
AcDbMText
 10
4454.489628452269
 20
1818.377960358363
 30
0.0
 40
100.0
 41
1.0
 71
     4
 72
     1
  1
D13
  7
STYLE2
 73
     1
 44
1.0
1001
ACAD
1000
MTEXTBEGIN
1070
    73
1070
     1
1070
    44
1040
1.0
1070
    74
1070
     0
1000
MTEXTEND
  0
LWPOLYLINE
  5
2966F
330
747D
100
AcDbEntity
  8
部品1
 48
50.0
100
AcDbPolyline
 90
        2
 70
     0
 43
10.0
 10
4350.882207168025
 20
1691.793508734704
 10
4868.557084459223
 20
1691.793508734704
  0
LEADER
  5
29670
330
747D
100
AcDbEntity
  8
寸法
 48
50.0
100
AcDbLeader
  3
INABA_S40G
 71
     0
 73
     0
 74
     0
 75
     1
 40
100.0
 41
222.7272727272727
 76
     3
 10
4230.882207168025
 20
1817.11154547751
 30
0.0
 10
4329.489628452269
 20
1743.377960358363
 30
0.0
 10
4429.489628452269
 20
1743.377960358363
 30
0.0
1001
ACAD
1000
DSTYLE
1002
{
1070
   341
1005
0
1002
}
  0
LINE
  5
29671
330
747D
100
AcDbEntity
  8
部品1
 48
50.0
100
AcDbLine
 10
4220.882207168026
 20
1744.452527106107
 30
0.0
 11
4220.882207168026
 21
1817.11154547751
 31
0.0
  0
LINE
  5
29672
330
747D
100
AcDbEntity
  8
部品1
 48
50.0
100
AcDbLine
 10
4200.882207168026
 20
1744.452527106111
 30
0.0
 11
4200.882207168026
 21
1817.11154547751
 31
0.0
  0
LINE
  5
29673
330
747D
100
AcDbEntity
  8
細線
 48
50.0
100
AcDbLine
 10
4220.882207168026
 20
1749.759624569492
 30
0.0
 11
4240.882207168026
 21
1769.759624569492
 31
0.0
  0
LINE
  5
29674
330
747D
100
AcDbEntity
  8
細線
 48
50.0
100
AcDbLine
 10
4110.882207168025
 20
1707.11154547751
 30
0.0
 11
4200.882207168026
 21
1797.11154547751
 31
0.0
  0
LINE
  5
29675
330
747D
100
AcDbEntity
  8
細線
 48
50.0
100
AcDbLine
 10
4110.882207168025
 20
1673.435585023501
 30
0.0
 11
4200.882207168026
 21
1763.435585023501
 31
0.0
  0
LINE
  5
29676
330
747D
100
AcDbEntity
  8
細線
 48
50.0
100
AcDbLine
 10
4260.882207168032
 20
1554.02790139143
 30
0.0
 11
4350.882207168019
 21
1644.027901391423
 31
0.0
  0
LINE
  5
29677
330
747D
100
AcDbEntity
  8
細線
 48
50.0
100
AcDbLine
 10
4260.882207168026
 20
1587.703861845435
 30
0.0
 11
4350.882207168026
 21
1677.703861845436
 31
0.0
  0
LINE
  5
29678
330
747D
100
AcDbEntity
  8
細線
 48
50.0
100
AcDbLine
 10
4260.882207168032
 20
1520.351940937417
 30
0.0
 11
4350.882207168019
 21
1610.351940937417
 31
0.0
  0
LINE
  5
29679
330
747D
100
AcDbEntity
  8
部品1
 48
50.0
100
AcDbLine
 10
4220.882207168026
 20
1744.452527106107
 30
0.0
 11
4200.882207168026
 21
1744.452527106111
 31
0.0
  0
LINE
  5
2967A
330
747D
100
AcDbEntity
  8
細線
 48
50.0
100
AcDbLine
 10
4110.882207168025
 20
1639.759624569492
 30
0.0
 11
4215.575109704643
 21
1744.452527106107
 31
0.0
  0
LINE
  5
2967B
330
747D
100
AcDbEntity
  8
部品1
 48
50.0
100
AcDbLine
 10
4110.882207168025
 20
1991.793508734704
 30
0.0
 11
4350.882207168026
 21
1991.793508734704
 31
0.0
  0
LINE
  5
2967C
330
747D
100
AcDbEntity
  8
細線
 48
50.0
100
AcDbLine
 10
4246.497735296114
 20
1842.727073605598
 30
0.0
 11
4350.882207168026
 21
1947.11154547751
 31
0.0
  0
LINE
  5
2967D
330
747D
100
AcDbEntity
  8
細線
 48
50.0
100
AcDbLine
 10
4260.323091250509
 20
1822.876469105981
 30
0.0
 11
4350.882207168026
 21
1913.435585023501
 31
0.0
  0
LINE
  5
2967E
330
747D
100
AcDbEntity
  8
細線
 48
50.0
100
AcDbLine
 10
4260.882207168026
 20
1789.759624569491
 30
0.0
 11
4350.882207168026
 21
1879.759624569492
 31
0.0
  0
LINE
  5
2967F
330
747D
100
AcDbEntity
  8
細線
 48
50.0
100
AcDbLine
 10
4220.882207168026
 20
1783.435585023501
 30
0.0
 11
4240.882207168026
 21
1803.435585023501
 31
0.0
  0
CIRCLE
  5
29680
330
747D
100
AcDbEntity
  8
部品1
 48
50.0
100
AcDbCircle
 10
4230.882207168026
 20
1817.11154547751
 30
0.0
 40
10.0
  0
ARC
  5
29681
330
747D
100
AcDbEntity
  8
部品1
 48
50.0
100
AcDbCircle
 10
4230.882207168026
 20
1817.11154547751
 30
0.0
 40
30.0
100
AcDbArc
 50
0.0
 51
180.0
  0
LINE
  5
29682
330
747D
100
AcDbEntity
  8
細線
 48
50.0
100
AcDbLine
 10
4110.882207168025
 20
1976.519229109585
 30
0.0
 11
4126.156486793145
 21
1991.793508734704
 31
0.0
  0
LINE
  5
29683
330
747D
100
AcDbEntity
  8
細線
 48
50.0
100
AcDbLine
 10
4110.882207168025
 20
1909.167308201566
 30
0.0
 11
4193.508407701162
 21
1991.793508734704
 31
0.0
  0
LINE
  5
29684
330
747D
100
AcDbEntity
  8
細線
 48
50.0
100
AcDbLine
 10
4110.882207168025
 20
1942.843268655576
 30
0.0
 11
4159.832447247157
 21
1991.793508734704
 31
0.0
  0
LEADER
  5
29685
330
747D
100
AcDbEntity
  8
寸法
 48
50.0
100
AcDbLeader
  3
INABA_S40G
 73
     0
 74
     0
 75
     1
 40
100.0
 41
543.75
 76
     3
 10
6523.931348639519
 20
2053.243508734704
 30
0.0
 10
6624.611926663667
 20
2232.272666426242
 30
0.0
 10
6724.611926663667
 20
2232.272666426242
 30
0.0
340
29686
1001
ACAD
1000
DSTYLE
1002
{
1070
   341
1005
0
1002
}
  0
MTEXT
  5
29686
102
{ACAD_REACTORS
330
29685
102
}
330
747D
100
AcDbEntity
  8
部品1
 62
     7
 48
50.0
100
AcDbMText
 10
6764.611926663667
 20
2322.272666426242
 30
0.0
 40
100.0
 41
1.0
 71
     4
 72
     1
  1
M10X160
  7
STYLE2
 73
     1
 44
1.0
1001
ACAD
1000
MTEXTBEGIN
1070
    73
1070
     1
1070
    44
1040
1.0
1070
    74
1070
     0
1000
MTEXTEND
  0
DIMENSION
  5
29687
330
747D
100
AcDbEntity
  8
寸法
 48
50.0
100
AcDbDimension
  2
*D40
 10
7380.767098350574
 20
1586.793508734702
 30
0.0
 11
7280.767098350574
 21
1789.293508734704
 31
0.0
 70
    32
  1
180
 71
     5
 42
405.0000000000018
  3
INABA_S40G
100
AcDbAlignedDimension
 13
6753.431348639519
 23
1991.793508734704
 33
0.0
 14
6753.431348639519
 24
1586.793508734702
 34
0.0
 50
90.0
100
AcDbRotatedDimension
1001
ACAD
1000
DSTYLE
1002
{
1070
   341
1005
0
1002
}
  0
LWPOLYLINE
  5
29688
330
747D
100
AcDbEntity
  8
部品1
 48
50.0
100
AcDbPolyline
 90
        2
 70
     0
 43
10.0
 10
6753.431348639519
 20
1691.793508734704
 10
7120.559427888749
 20
1691.793508734704
  0
LINE
  5
29689
330
747D
100
AcDbEntity
  8
部品1
 48
50.0
100
AcDbLine
 10
7013.431348639523
 20
1011.793508734703
 30
0.0
 11
5975.931348639521
 21
1011.793508734703
 31
0.0
  0
LINE
  5
2968A
330
747D
100
AcDbEntity
  8
細線
 48
50.0
100
AcDbLine
 10
6932.108710886828
 20
881.7935087347017
 30
0.0
 11
6940.147186659761
 21
851.7935087347018
 31
0.0
  0
LINE
  5
2968B
330
747D
100
AcDbEntity
  8
部品1
 48
50.0
100
AcDbLine
 10
7013.431348639523
 20
851.7935087347026
 30
0.0
 11
5975.931348639521
 21
851.7935087347026
 31
0.0
  0
LINE
  5
2968C
330
747D
100
AcDbEntity
  8
細線
 48
50.0
100
AcDbLine
 10
6924.070235113885
 20
851.7935087347018
 30
0.0
 11
6966.942105902868
 21
1011.7935087347
 31
0.0
  0
DIMENSION
  5
2968D
330
747D
100
AcDbEntity
  8
寸法
 48
50.0
100
AcDbDimension
  2
*D41
 10
7725.835430999357
 20
1991.793508734703
 30
0.0
 11
7725.835430999357
 21
1525.784605313222
 31
0.0
 70
   160
  1
20～25
 71
     5
 42
65.94999999999981
  3
INABA_S40G
100
AcDbAlignedDimension
 13
6519.43134863952
 23
2057.743508734704
 33
0.0
 14
6753.431348639519
 24
1991.793508734704
 34
0.0
 50
90.0
100
AcDbRotatedDimension
1001
ACAD
1000
DSTYLE
1002
{
1070
   341
1005
0
1002
}
  0
TEXT
  5
2968E
330
747D
100
AcDbEntity
  8
部品1
 48
50.0
100
AcDbText
 10
6758.873328995054
 20
2436.641859687454
 30
0.0
 40
100.0
  1
基礎ボルト(市販品)
  7
STYLE2
100
AcDbText
  0
LINE
  5
2968F
330
747D
100
AcDbEntity
  8
細線
 48
50.0
100
AcDbLine
 10
6113.104639614872
 20
1011.793508734703
 30
0.0
 11
6753.431348639522
 21
1652.120217759347
 31
0.0
  0
LINE
  5
29690
330
747D
100
AcDbEntity
  8
細線
 48
50.0
100
AcDbLine
 10
6146.780600068879
 20
1011.793508734703
 30
0.0
 11
6753.431348639519
 21
1618.444257305339
 31
0.0
  0
LINE
  5
29691
330
747D
100
AcDbEntity
  8
細線
 48
50.0
100
AcDbLine
 10
6235.931348639518
 20
1437.703861845436
 30
0.0
 11
6433.93134863951
 21
1635.703861845429
 31
0.0
  0
LINE
  5
29692
330
747D
100
AcDbEntity
  8
細線
 48
50.0
100
AcDbLine
 10
6235.931348639518
 20
1370.351940937417
 30
0.0
 11
6452.372916436812
 21
1586.793508734702
 31
0.0
  0
LINE
  5
29693
330
747D
100
AcDbEntity
  8
細線
 48
50.0
100
AcDbLine
 10
6235.931348639518
 20
1404.027901391426
 30
0.0
 11
6433.93134863951
 21
1602.027901391412
 31
0.0
  0
LINE
  5
29694
330
747D
100
AcDbEntity
  8
部品1
 48
50.0
100
AcDbLine
 10
6235.931348639518
 20
1311.793508734703
 30
0.0
 11
6235.931348639518
 21
1991.793508734704
 31
0.0
  0
LINE
  5
29695
330
747D
100
AcDbEntity
  8
部品1
100
AcDbLine
 10
6753.431348639516
 20
1311.793508734703
 30
0.0
 11
6753.431348639519
 21
1991.793508734704
 31
0.0
  0
LINE
  5
29696
330
747D
100
AcDbEntity
  8
細線
 48
50.0
100
AcDbLine
 10
6079.42867916086
 20
1011.793508734703
 30
0.0
 11
6753.431348639516
 21
1685.79617821336
 31
0.0
  0
LINE
  5
29697
330
747D
100
AcDbEntity
  8
部品1
 48
50.0
100
AcDbLine
 10
6075.931348639517
 20
1311.793508734703
 30
0.0
 11
6235.931348639518
 21
1311.793508734703
 31
0.0
  0
LINE
  5
29698
330
747D
100
AcDbEntity
  8
細線
 48
50.0
100
AcDbLine
 10
6075.93134863951
 20
1210.351940937417
 30
0.0
 11
6177.372916436805
 21
1311.793508734703
 31
0.0
  0
LINE
  5
29699
330
747D
100
AcDbEntity
  8
細線
 48
50.0
100
AcDbLine
 10
6075.93134863951
 20
1244.027901391423
 30
0.0
 11
6143.696955982799
 21
1311.793508734703
 31
0.0
  0
LINE
  5
2969A
330
747D
100
AcDbEntity
  8
細線
 48
50.0
100
AcDbLine
 10
6036.579729457343
 20
851.7935087347018
 30
0.0
 11
6079.45160024632
 21
1011.793508734702
 31
0.0
  0
LINE
  5
2969B
330
747D
100
AcDbEntity
  8
部品1
 48
50.0
100
AcDbLine
 10
5975.931348639521
 20
851.7935087347026
 30
0.0
 11
5975.931348639521
 21
1011.793508734703
 31
0.0
  0
LINE
  5
2969C
330
747D
100
AcDbEntity
  8
細線
 48
50.0
100
AcDbLine
 10
6044.618205230283
 20
881.7935087347027
 30
0.0
 11
6052.656681003217
 21
851.7935087347026
 31
0.0
  0
LINE
  5
2969D
330
747D
100
AcDbEntity
  8
部品1
 48
50.0
100
AcDbLine
 10
6075.931348639517
 20
1011.793508734703
 30
0.0
 11
6075.931348639517
 21
1311.793508734703
 31
0.0
  0
LINE
  5
2969E
330
747D
100
AcDbEntity
  8
細線
 48
50.0
100
AcDbLine
 10
6071.413124473393
 20
981.793508734704
 30
0.0
 11
6063.37464870046
 21
1011.793508734703
 31
0.0
  0
LINE
  5
2969F
330
747D
100
AcDbEntity
  8
細線
 48
50.0
100
AcDbLine
 10
5975.93134863952
 20
993.4684099419278
 30
0.0
 11
5980.841544062263
 21
1011.793508734703
 31
0.0
  0
LINE
  5
296A0
330
747D
100
AcDbEntity
  8
細線
 48
50.0
100
AcDbLine
 10
6075.93134863951
 20
1277.703861845435
 30
0.0
 11
6110.020995528786
 21
1311.793508734703
 31
0.0
  0
LINE
  5
296A1
330
747D
100
AcDbEntity
  8
細線
 48
50.0
100
AcDbLine
 10
6233.79984182547
 20
851.7935087347018
 30
0.0
 11
6276.671712614451
 21
1011.793508734702
 31
0.0
  0
LINE
  5
296A2
330
747D
100
AcDbEntity
  8
細線
 48
50.0
100
AcDbLine
 10
6135.189785641415
 20
851.7935087347026
 30
0.0
 11
6178.061656430393
 21
1011.793508734703
 31
0.0
  0
LINE
  5
296A3
330
747D
100
AcDbEntity
  8
細線
 48
50.0
100
AcDbLine
 10
6628.240066561708
 20
851.7935087347026
 30
0.0
 11
6671.111937350691
 21
1011.793508734702
 31
0.0
  0
LINE
  5
296A4
330
747D
100
AcDbEntity
  8
細線
 48
50.0
100
AcDbLine
 10
6431.019954193593
 20
851.7935087347026
 30
0.0
 11
6473.891824982577
 21
1011.793508734702
 31
0.0
  0
LINE
  5
296A5
330
747D
100
AcDbEntity
  8
細線
 48
50.0
100
AcDbLine
 10
6332.409898009538
 20
851.7935087347026
 30
0.0
 11
6375.281768798514
 21
1011.793508734703
 31
0.0
  0
LINE
  5
296A6
330
747D
100
AcDbEntity
  8
細線
 48
50.0
100
AcDbLine
 10
6529.630010377657
 20
851.7935087347018
 30
0.0
 11
6572.501881166636
 21
1011.793508734702
 31
0.0
  0
LINE
  5
296A7
330
747D
100
AcDbEntity
  8
細線
 48
50.0
100
AcDbLine
 10
6825.460178929832
 20
851.7935087347
 30
0.0
 11
6868.332049718809
 21
1011.7935087347
 31
0.0
  0
LINE
  5
296A8
330
747D
100
AcDbEntity
  8
細線
 48
50.0
100
AcDbLine
 10
6726.85012274577
 20
851.7935087347018
 30
0.0
 11
6769.721993534739
 21
1011.793508734703
 31
0.0
  0
LINE
  5
296A9
330
747D
100
AcDbEntity
  8
細線
 48
50.0
100
AcDbLine
 10
6241.838317598412
 20
881.7935087347027
 30
0.0
 11
6249.876793371348
 21
851.7935087347026
 31
0.0
  0
LINE
  5
296AA
330
747D
100
AcDbEntity
  8
細線
 48
50.0
100
AcDbLine
 10
6143.228261414348
 20
881.7935087347027
 30
0.0
 11
6151.266737187281
 21
851.7935087347026
 31
0.0
  0
LINE
  5
296AB
330
747D
100
AcDbEntity
  8
細線
 48
50.0
100
AcDbLine
 10
6439.058429966535
 20
881.7935087347027
 30
0.0
 11
6447.096905739468
 21
851.7935087347026
 31
0.0
  0
LINE
  5
296AC
330
747D
100
AcDbEntity
  8
細線
 48
50.0
100
AcDbLine
 10
6340.448373782478
 20
881.7935087347027
 30
0.0
 11
6348.486849555411
 21
851.7935087347026
 31
0.0
  0
LINE
  5
296AD
330
747D
100
AcDbEntity
  8
細線
 48
50.0
100
AcDbLine
 10
6636.278542334649
 20
881.7935087347027
 30
0.0
 11
6644.317018107584
 21
851.7935087347026
 31
0.0
  0
LINE
  5
296AE
330
747D
100
AcDbEntity
  8
細線
 48
50.0
100
AcDbLine
 10
6537.66848615059
 20
881.7935087347027
 30
0.0
 11
6545.706961923527
 21
851.7935087347026
 31
0.0
  0
LINE
  5
296AF
330
747D
100
AcDbEntity
  8
細線
 48
50.0
100
AcDbLine
 10
6833.498654702768
 20
881.7935087347017
 30
0.0
 11
6841.537130475703
 21
851.7935087347018
 31
0.0
  0
LINE
  5
296B0
330
747D
100
AcDbEntity
  8
細線
 48
50.0
100
AcDbLine
 10
6734.888598518709
 20
881.7935087347027
 30
0.0
 11
6742.927074291657
 21
851.7935087347026
 31
0.0
  0
LINE
  5
296B1
330
747D
100
AcDbEntity
  8
細線
 48
50.0
100
AcDbLine
 10
6416.188283700954
 20
1011.793508734703
 30
0.0
 11
6753.431348639519
 21
1349.036573673275
 31
0.0
  0
LINE
  5
296B2
330
747D
100
AcDbEntity
  8
細線
 48
50.0
100
AcDbLine
 10
6382.512323246947
 20
1011.793508734703
 30
0.0
 11
6753.431348639519
 21
1382.712534127269
 31
0.0
  0
LINE
  5
296B3
330
747D
100
AcDbEntity
  8
細線
 48
50.0
100
AcDbLine
 10
6348.836362792936
 20
1011.793508734703
 30
0.0
 11
6753.431348639516
 21
1416.388494581286
 31
0.0
  0
LINE
  5
296B4
330
747D
100
AcDbEntity
  8
細線
 48
50.0
100
AcDbLine
 10
6268.633236841523
 20
981.793508734704
 30
0.0
 11
6260.594761068592
 21
1011.793508734703
 31
0.0
  0
LINE
  5
296B5
330
747D
100
AcDbEntity
  8
細線
 48
50.0
100
AcDbLine
 10
6170.023180657459
 20
981.793508734704
 30
0.0
 11
6161.984704884527
 21
1011.793508734703
 31
0.0
  0
LINE
  5
296B6
330
747D
100
AcDbEntity
  8
細線
 48
50.0
100
AcDbLine
 10
6465.853349209648
 20
981.793508734704
 30
0.0
 11
6457.814873436714
 21
1011.793508734703
 31
0.0
  0
LINE
  5
296B7
330
747D
100
AcDbEntity
  8
細線
 48
50.0
100
AcDbLine
 10
6367.24329302559
 20
981.793508734704
 30
0.0
 11
6359.204817252657
 21
1011.793508734703
 31
0.0
  0
LINE
  5
296B8
330
747D
100
AcDbEntity
  8
部品1
 48
50.0
100
AcDbLine
 10
6913.43134863952
 20
1311.793508734703
 30
0.0
 11
6913.43134863952
 21
1011.793508734703
 31
0.0
  0
LINE
  5
296B9
330
747D
100
AcDbEntity
  8
細線
 48
50.0
100
AcDbLine
 10
6685.595967333028
 20
1011.793508734703
 30
0.0
 11
6913.43134863952
 21
1239.628890041198
 31
0.0
  0
LINE
  5
296BA
330
747D
100
AcDbEntity
  8
細線
 48
50.0
100
AcDbLine
 10
6651.920006879024
 20
1011.793508734703
 30
0.0
 11
6913.43134863952
 21
1273.304850495196
 31
0.0
  0
LINE
  5
296BB
330
747D
100
AcDbEntity
  8
細線
 48
50.0
100
AcDbLine
 10
6618.244046425011
 20
1011.793508734703
 30
0.0
 11
6913.43134863952
 21
1306.980810949213
 31
0.0
  0
LINE
  5
296BC
330
747D
100
AcDbEntity
  8
細線
 48
50.0
100
AcDbLine
 10
6663.073461577763
 20
981.793508734704
 30
0.0
 11
6655.034985804829
 21
1011.793508734703
 31
0.0
  0
LINE
  5
296BD
330
747D
100
AcDbEntity
  8
細線
 48
50.0
100
AcDbLine
 10
6564.463405393704
 20
981.793508734704
 30
0.0
 11
6556.424929620773
 21
1011.793508734703
 31
0.0
  0
LINE
  5
296BE
330
747D
100
AcDbEntity
  8
細線
 48
50.0
100
AcDbLine
 10
6860.293573945878
 20
981.7935087347017
 30
0.0
 11
6852.255098172948
 21
1011.793508734702
 31
0.0
  0
LINE
  5
296BF
330
747D
100
AcDbEntity
  8
細線
 48
50.0
100
AcDbLine
 10
6761.683517761807
 20
981.793508734704
 30
0.0
 11
6753.645041988874
 21
1011.793508734703
 31
0.0
  0
LINE
  5
296C0
330
747D
100
AcDbEntity
  8
部品1
 48
50.0
100
AcDbLine
 10
6753.431348639519
 20
1311.793508734703
 30
0.0
 11
6913.43134863952
 21
1311.793508734703
 31
0.0
  0
LWPOLYLINE
  5
296C1
330
747D
100
AcDbEntity
  8
部品1
 48
50.0
100
AcDbPolyline
 90
        2
 70
     0
 43
10.0
 10
5718.256471348325
 20
1691.793508734704
 10
6235.931348639518
 20
1691.793508734704
  0
TEXT
  5
296C2
330
747D
100
AcDbEntity
  8
部品1
 48
50.0
100
AcDbText
 10
5718.256471348322
 20
1705.842249088773
 30
0.0
 40
100.0
  1
▽G.L
  7
STYLE2
100
AcDbText
  0
LINE
  5
296C3
330
747D
100
AcDbEntity
  8
部品1
100
AcDbLine
 10
6501.431348639518
 20
1710.543508734703
 30
0.0
 11
6501.431348639515
 21
2053.243508734704
 31
0.0
  0
LINE
  5
296C4
330
747D
100
AcDbEntity
  8
部品1
100
AcDbLine
 10
6523.931348639519
 20
1710.543508734703
 30
0.0
 11
6523.931348639514
 21
2053.243508734704
 31
0.0
  0
LINE
  5
296C5
330
747D
100
AcDbEntity
  8
部品1
100
AcDbLine
 10
6438.756348639521
 20
2075.368508734706
 30
0.0
 11
6438.756348639514
 21
2007.118508734704
 31
0.0
  0
LINE
  5
296C6
330
747D
100
AcDbEntity
  8
部品1
100
AcDbLine
 10
6423.806348639519
 20
2060.418508734704
 30
0.0
 11
6423.806348639519
 21
2007.118508734704
 31
0.0
  0
LINE
  5
296C7
330
747D
100
AcDbEntity
  8
細線
100
AcDbLine
 10
6505.931348639521
 20
2003.743508734704
 30
0.0
 11
6505.931348639518
 21
2057.743508734704
 31
0.0
  0
LINE
  5
296C8
330
747D
100
AcDbEntity
  8
細線
100
AcDbLine
 10
6519.43134863952
 20
2003.743508734704
 30
0.0
 11
6519.43134863952
 21
2057.743508734704
 31
0.0
  0
LINE
  5
296C9
330
747D
100
AcDbEntity
  8
部品1
100
AcDbLine
 10
6243.80634863952
 20
2007.118508734704
 30
0.0
 11
6243.80634863952
 21
2084.783388363089
 31
0.0
  0
LINE
  5
296CA
330
747D
100
AcDbEntity
  8
部品1
100
AcDbLine
 10
6523.931348639519
 20
1710.543508734703
 30
0.0
 11
6568.931348639519
 21
1710.543508734703
 31
0.0
  0
LINE
  5
296CB
330
747D
100
AcDbEntity
  8
部品1
100
AcDbLine
 10
6523.931348639519
 20
1688.043508734702
 30
0.0
 11
6568.931348639519
 21
1688.043508734702
 31
0.0
  0
LINE
  5
296CC
330
747D
100
AcDbEntity
  8
部品1
100
AcDbLine
 10
6442.131348639512
 20
2003.743508734704
 30
0.0
 11
6693.806348639511
 21
2003.743508734704
 31
0.0
  0
LINE
  5
296CD
330
747D
100
AcDbEntity
  8
部品1
 48
50.0
100
AcDbLine
 10
6235.931348639518
 20
1991.793508734704
 30
0.0
 11
6753.431348639522
 21
1991.793508734704
 31
0.0
  0
LINE
  5
296CE
330
747D
100
AcDbEntity
  8
部品1
100
AcDbLine
 10
6591.43134863952
 20
1586.793508734702
 30
0.0
 11
6433.93134863951
 21
1586.793508734702
 31
0.0
  0
LINE
  5
296CF
330
747D
100
AcDbEntity
  8
細線
 48
50.0
100
AcDbLine
 10
6235.931348639518
 20
1673.435585023501
 30
0.0
 11
6433.931348639517
 21
1871.435585023498
 31
0.0
  0
LINE
  5
296D0
330
747D
100
AcDbEntity
  8
細線
 48
50.0
100
AcDbLine
 10
6235.931348639518
 20
1707.11154547751
 30
0.0
 11
6433.931348639517
 21
1905.111545477507
 31
0.0
  0
LINE
  5
296D1
330
747D
100
AcDbEntity
  8
部品1
100
AcDbLine
 10
6433.93134863951
 20
1586.793508734703
 30
0.0
 11
6433.931348639518
 21
1991.793508734704
 31
0.0
  0
LINE
  5
296D2
330
747D
100
AcDbEntity
  8
細線
 48
50.0
100
AcDbLine
 10
6235.931348639518
 20
1639.759624569492
 30
0.0
 11
6433.931348639515
 21
1837.759624569482
 31
0.0
  0
ARC
  5
296D3
330
747D
100
AcDbEntity
  8
部品1
100
AcDbCircle
 10
6523.931348639519
 20
1710.543508734703
 30
0.0
 40
22.5
100
AcDbArc
 50
180.0
 51
270.0
  0
LINE
  5
296D4
330
747D
100
AcDbEntity
  8
細線
 48
50.0
100
AcDbLine
 10
6235.931348639518
 20
1909.167308201566
 30
0.0
 11
6318.557549172655
 21
1991.793508734704
 31
0.0
  0
LINE
  5
296D5
330
747D
100
AcDbEntity
  8
細線
 48
50.0
100
AcDbLine
 10
6235.931348639518
 20
1942.843268655576
 30
0.0
 11
6284.881588718651
 21
1991.793508734704
 31
0.0
  0
LINE
  5
296D6
330
747D
100
AcDbEntity
  8
部品1
100
AcDbLine
 10
6247.181348639518
 20
2003.743508734704
 30
0.0
 11
6261.806348639511
 21
2003.743508734704
 31
0.0
  0
LINE
  5
296D7
330
747D
100
AcDbEntity
  8
細線
 48
50.0
100
AcDbLine
 10
6235.931348639518
 20
1976.519229109585
 30
0.0
 11
6251.205628264638
 21
1991.793508734704
 31
0.0
  0
ARC
  5
296D8
330
747D
100
AcDbEntity
  8
部品1
100
AcDbCircle
 10
6247.181348639518
 20
2007.118508734704
 30
0.0
 40
3.375
100
AcDbArc
 50
180.0
 51
270.0
  0
ARC
  5
296D9
330
747D
100
AcDbEntity
  8
部品1
100
AcDbCircle
 10
6420.431348639519
 20
2007.118508734704
 30
0.0
 40
3.375
100
AcDbArc
 50
270.0
 51
0.0
  0
ARC
  5
296DA
330
747D
100
AcDbEntity
  8
部品1
100
AcDbCircle
 10
6442.131348639512
 20
2007.118508734704
 30
0.0
 40
3.375
100
AcDbArc
 50
180.0
 51
270.0
  0
LINE
  5
296DB
330
747D
100
AcDbEntity
  8
部品1
100
AcDbLine
 10
6405.80634863952
 20
2003.743508734704
 30
0.0
 11
6420.431348639519
 21
2003.743508734704
 31
0.0
  0
LINE
  5
296DC
330
747D
100
AcDbEntity
  8
細線
 48
50.0
100
AcDbLine
 10
6591.43134863952
 20
1725.851940937401
 30
0.0
 11
6753.431348639519
 21
1887.851940937391
 31
0.0
  0
LINE
  5
296DD
330
747D
100
AcDbEntity
  8
部品1
100
AcDbLine
 10
6591.43134863952
 20
1586.793508734703
 30
0.0
 11
6591.43134863952
 21
1991.793508734704
 31
0.0
  0
LINE
  5
296DE
330
747D
100
AcDbEntity
  8
部品1
100
AcDbLine
 10
6568.931348639519
 20
1688.043508734702
 30
0.0
 11
6568.931348639519
 21
1710.543508734703
 31
0.0
  0
LINE
  5
296DF
330
747D
100
AcDbEntity
  8
細線
 48
50.0
100
AcDbLine
 10
6591.43134863952
 20
1759.527901391418
 30
0.0
 11
6753.431348639519
 21
1921.527901391414
 31
0.0
  0
LINE
  5
296E0
330
747D
100
AcDbEntity
  8
細線
 48
50.0
100
AcDbLine
 10
6591.43134863952
 20
1793.203861845439
 30
0.0
 11
6753.431348639519
 21
1955.203861845438
 31
0.0
  0
LINE
  5
296E1
330
747D
100
AcDbEntity
  8
部品1
 48
50.0
100
AcDbLine
 10
6492.681348639519
 20
2470.387610121132
 30
0.0
 11
6532.681348639518
 21
2470.387610121132
 31
0.0
  0
LINE
  5
296E2
330
747D
100
AcDbEntity
  8
部品1
 48
50.0
100
AcDbLine
 10
6492.681348639519
 20
2430.387610121132
 30
0.0
 11
6532.681348639518
 21
2430.387610121132
 31
0.0
  0
ELLIPSE
  5
296E3
330
747D
100
AcDbEntity
  8
細線
 48
50.0
100
AcDbEllipse
 10
6512.681348639519
 20
2480.387610121133
 30
0.0
 11
18.45838483258558
 21
0.0
 31
0.0
210
0.0
220
0.0
230
1.0
 40
0.2071254069489396
 41
0.0
 42
6.283185307179584
  0
LINE
  5
296E4
330
747D
100
AcDbEntity
  8
部品1
 48
50.0
100
AcDbLine
 10
6492.681348639519
 20
2490.387610121132
 30
0.0
 11
6532.681348639518
 21
2490.387610121132
 31
0.0
  0
ELLIPSE
  5
296E5
330
747D
100
AcDbEntity
  8
部品1
 48
50.0
100
AcDbEllipse
 10
6512.681348639519
 20
2316.197619290044
 30
0.0
 11
50.0
 21
0.0
 31
0.0
210
0.0
220
0.0
230
1.0
 40
0.4
 41
3.141592653589792
 42
6.283185307179584
  0
ELLIPSE
  5
296E6
330
747D
100
AcDbEntity
  8
部品1
 48
50.0
100
AcDbEllipse
 10
6512.681348639519
 20
2328.197619290044
 30
0.0
 11
50.0
 21
0.0
 31
0.0
210
0.0
220
0.0
230
1.0
 40
0.4
 41
0.0
 42
6.283185307179584
  0
ELLIPSE
  5
296E7
330
747D
100
AcDbEntity
  8
部品1
 48
50.0
100
AcDbEllipse
 10
6512.681348639519
 20
2328.197619290044
 30
0.0
 11
23.0
 21
0.0
 31
0.0
210
0.0
220
0.0
230
1.0
 40
0.3478260869565217
 41
0.0
 42
6.283185307179584
  0
LINE
  5
296E8
330
747D
100
AcDbEntity
  8
部品1
100
AcDbLine
 10
6314.68134863952
 20
2131.293508734703
 30
0.0
 11
6367.556348639517
 21
2131.2935087347
 31
0.0
  0
LINE
  5
296E9
330
747D
100
AcDbEntity
  8
部品1
100
AcDbLine
 10
6260.681348639518
 20
2104.293508734704
 30
0.0
 11
6307.931348639518
 21
2104.293508734704
 31
0.0
  0
LINE
  5
296EA
330
747D
100
AcDbEntity
  8
部品1
100
AcDbLine
 10
6246.362790905021
 20
2088.057619301079
 30
0.0
 11
6257.306348639517
 21
2090.793508734704
 31
0.0
  0
ARC
  5
296EB
330
747D
100
AcDbEntity
  8
部品1
100
AcDbCircle
 10
6247.181348639518
 20
2084.783388363089
 30
0.0
 40
3.375
100
AcDbArc
 50
104.0362434679075
 51
180.0
  0
ARC
  5
296EC
330
747D
100
AcDbEntity
  8
部品1
100
AcDbCircle
 10
6260.681348639518
 20
2100.918508734704
 30
0.0
 40
3.375
100
AcDbArc
 50
90.0
 51
180.0
  0
LINE
  5
296ED
330
747D
100
AcDbEntity
  8
部品1
100
AcDbLine
 10
6257.306348639517
 20
2090.793508734704
 30
0.0
 11
6257.306348639517
 21
2100.918508734704
 31
0.0
  0
ARC
  5
296EE
330
747D
100
AcDbEntity
  8
部品1
100
AcDbCircle
 10
6311.30634863952
 20
2114.418508734704
 30
0.0
 40
3.375
100
AcDbArc
 50
90.0
 51
180.0
  0
LINE
  5
296EF
330
747D
100
AcDbEntity
  8
部品1
100
AcDbLine
 10
6307.931348639518
 20
2104.293508734704
 30
0.0
 11
6307.931348639518
 21
2114.418508734704
 31
0.0
  0
LINE
  5
296F0
330
747D
100
AcDbEntity
  8
部品1
100
AcDbLine
 10
6311.30634863952
 20
2117.793508734704
 30
0.0
 11
6311.30634863952
 21
2127.918508734704
 31
0.0
  0
LINE
  5
296F1
330
747D
100
AcDbEntity
  8
部品1
100
AcDbLine
 10
6311.30634863952
 20
2117.793508734704
 30
0.0
 11
6311.30634863952
 21
2117.793508734704
 31
0.0
  0
ARC
  5
296F2
330
747D
100
AcDbEntity
  8
部品1
100
AcDbCircle
 10
6314.68134863952
 20
2127.918508734704
 30
0.0
 40
3.375
100
AcDbArc
 50
90.0
 51
180.0
  0
LINE
  5
296F3
330
747D
100
AcDbEntity
  8
部品1
100
AcDbLine
 10
6396.806348639518
 20
2075.368508734706
 30
0.0
 11
6396.806348639518
 21
2053.993508734704
 31
0.0
  0
ARC
  5
296F4
330
747D
100
AcDbEntity
  8
部品1
100
AcDbCircle
 10
6420.431348639519
 20
2060.418508734704
 30
0.0
 40
3.375
100
AcDbArc
 50
0.0
 51
90.0
  0
LINE
  5
296F5
330
747D
100
AcDbEntity
  8
部品1
100
AcDbLine
 10
6505.931348639518
 20
2057.743508734704
 30
0.0
 11
6519.43134863952
 21
2057.743508734704
 31
0.0
  0
LINE
  5
296F6
330
747D
100
AcDbEntity
  8
部品1
100
AcDbLine
 10
6501.431348639518
 20
2053.243508734704
 30
0.0
 11
6523.931348639519
 21
2053.243508734704
 31
0.0
  0
ARC
  5
296F7
330
747D
100
AcDbEntity
  8
部品1
100
AcDbCircle
 10
6435.381348639521
 20
2075.368508734706
 30
0.0
 40
3.375
100
AcDbArc
 50
0.0
 51
90.0
  0
ARC
  5
296F8
330
747D
100
AcDbEntity
  8
部品1
100
AcDbCircle
 10
6400.181348639519
 20
2075.368508734706
 30
0.0
 40
3.375
100
AcDbArc
 50
90.0
 51
180.0
  0
LINE
  5
296F9
330
747D
100
AcDbEntity
  8
部品1
100
AcDbLine
 10
6400.181348639519
 20
2078.743508734704
 30
0.0
 11
6435.381348639521
 21
2078.743508734704
 31
0.0
  0
LINE
  5
296FA
330
747D
100
AcDbEntity
  8
部品1
 48
50.0
100
AcDbLine
 10
6462.681348639519
 20
2328.197619290044
 30
0.0
 11
6462.681348639519
 21
2316.197619290044
 31
0.0
  0
LINE
  5
296FB
330
747D
100
AcDbEntity
  8
部品1
100
AcDbLine
 10
6370.931348639519
 20
2127.9185087347
 30
0.0
 11
6370.931348639519
 21
2063.793508734704
 31
0.0
  0
ARC
  5
296FC
330
747D
100
AcDbEntity
  8
部品1
100
AcDbCircle
 10
6367.556348639517
 20
2127.9185087347
 30
0.0
 40
3.375
100
AcDbArc
 50
0.0
 51
90.0
  0
LINE
  5
296FD
330
747D
100
AcDbEntity
  8
部品1
100
AcDbLine
 10
6370.931348639519
 20
2063.793508734704
 30
0.0
 11
6420.431348639519
 21
2063.793508734704
 31
0.0
  0
LINE
  5
296FE
330
747D
100
AcDbEntity
  8
部品1
 48
50.0
100
AcDbLine
 10
6472.681348639517
 20
2480.387610121133
 30
0.0
 11
6492.681348639519
 21
2490.387610121132
 31
0.0
  0
LINE
  5
296FF
330
747D
100
AcDbEntity
  8
部品1
 48
50.0
100
AcDbLine
 10
6472.681348639517
 20
2440.387610121133
 30
0.0
 11
6492.681348639519
 21
2430.387610121132
 31
0.0
  0
LINE
  5
29700
330
747D
100
AcDbEntity
  8
部品1
 48
50.0
100
AcDbLine
 10
6472.681348639517
 20
2480.387610121133
 30
0.0
 11
6492.681348639519
 21
2470.387610121132
 31
0.0
  0
LINE
  5
29701
330
747D
100
AcDbEntity
  8
部品1
 48
50.0
100
AcDbLine
 10
6472.681348639517
 20
2440.387610121133
 30
0.0
 11
6472.681348639517
 21
2480.387610121133
 31
0.0
  0
LINE
  5
29702
330
747D
100
AcDbEntity
  8
細線
 48
50.0
100
AcDbLine
 10
6492.681348639519
 20
2430.387610121132
 30
0.0
 11
6492.681348639519
 21
2470.387610121132
 31
0.0
  0
LINE
  5
29703
330
747D
100
AcDbEntity
  8
部品1
 48
50.0
100
AcDbLine
 10
6562.681348639519
 20
2316.197619290044
 30
0.0
 11
6562.681348639519
 21
2328.197619290044
 31
0.0
  0
LINE
  5
29704
330
747D
100
AcDbEntity
  8
部品1
 48
50.0
100
AcDbLine
 10
6532.681348639518
 20
2490.387610121132
 30
0.0
 11
6552.681348639518
 21
2480.387610121133
 31
0.0
  0
LINE
  5
29705
330
747D
100
AcDbEntity
  8
部品1
 48
50.0
100
AcDbLine
 10
6552.681348639518
 20
2440.387610121133
 30
0.0
 11
6552.681348639518
 21
2480.387610121133
 31
0.0
  0
LINE
  5
29706
330
747D
100
AcDbEntity
  8
細線
 48
50.0
100
AcDbLine
 10
6532.681348639518
 20
2430.387610121132
 30
0.0
 11
6532.681348639518
 21
2470.387610121132
 31
0.0
  0
LINE
  5
29707
330
747D
100
AcDbEntity
  8
部品1
 48
50.0
100
AcDbLine
 10
6532.681348639518
 20
2470.387610121132
 30
0.0
 11
6552.681348639518
 21
2480.387610121133
 31
0.0
  0
LINE
  5
29708
330
747D
100
AcDbEntity
  8
部品1
 48
50.0
100
AcDbLine
 10
6532.681348639518
 20
2430.387610121132
 30
0.0
 11
6552.681348639518
 21
2440.387610121133
 31
0.0
  0
LINE
  5
29709
330
747D
100
AcDbEntity
  8
細線
 48
50.0
100
AcDbLine
 10
8518.413777081084
 20
1417.169864168014
 30
0.0
 11
8561.285647870063
 21
1577.169864168014
 31
0.0
  0
TEXT
  5
2970A
330
747D
100
AcDbEntity
  8
部品1
 48
50.0
100
AcDbText
 10
7922.703655569836
 20
1358.293832938067
 30
0.0
 40
100.0
  1
ボルトの出
 50
90.0
  7
STYLE2
100
AcDbText
  0
LINE
  5
2970B
330
747D
100
AcDbEntity
  8
部品1
100
AcDbLine
 10
8398.045283895134
 20
1417.169864168012
 30
0.0
 11
8398.045283895134
 21
1691.793508734703
 31
0.0
  0
LINE
  5
2970C
330
747D
100
AcDbEntity
  8
細線
 48
50.0
100
AcDbLine
 10
8419.803720897023
 20
1417.169864168016
 30
0.0
 11
8462.675591686004
 21
1577.169864168016
 31
0.0
  0
LINE
  5
2970D
330
747D
100
AcDbEntity
  8
部品1
 48
50.0
100
AcDbLine
 10
7013.431348639523
 20
1011.793508734703
 30
0.0
 11
7013.431348639523
 21
851.7935087347026
 31
0.0
  0
LINE
  5
2970E
330
747D
100
AcDbEntity
  8
細線
 48
50.0
100
AcDbLine
 10
6958.903630129937
 20
981.7935087347017
 30
0.0
 11
6950.865154357007
 21
1011.793508734702
 31
0.0
  0
LINE
  5
2970F
330
747D
100
AcDbEntity
  8
細線
 48
50.0
100
AcDbLine
 10
8526.452252854024
 20
1447.169864168016
 30
0.0
 11
8534.490728626954
 21
1417.169864168016
 31
0.0
  0
LINE
  5
29710
330
747D
100
AcDbEntity
  8
細線
 48
50.0
100
AcDbLine
 10
8427.842196669962
 20
1447.169864168016
 30
0.0
 11
8435.880672442896
 21
1417.169864168016
 31
0.0
  0
LINE
  5
29711
330
747D
100
AcDbEntity
  8
部品1
100
AcDbLine
 10
8548.045283895135
 20
1691.793508734703
 30
0.0
 11
8548.045283895135
 21
1991.793508734704
 31
0.0
  0
LINE
  5
29712
330
747D
100
AcDbEntity
  8
細線
 48
50.0
100
AcDbLine
 10
8454.637115913074
 20
1547.169864168016
 30
0.0
 11
8446.598640140136
 21
1577.169864168016
 31
0.0
  0
LINE
  5
29713
330
747D
100
AcDbEntity
  8
細線
 48
50.0
100
AcDbLine
 10
8553.247172097135
 20
1547.169864168016
 30
0.0
 11
8545.208696324204
 21
1577.169864168016
 31
0.0
  0
TEXT
  5
29714
330
747D
100
AcDbEntity
  8
部品1
100
AcDbText
 10
5998.01062413289
 20
3418.568118516475
 30
0.0
 40
150.0
  1
基礎詳細
  7
STYLE2
100
AcDbText
  0
LINE
  5
29715
330
747D
100
AcDbEntity
  8
部品1
100
AcDbLine
 10
9888.556211714274
 20
383.9385307076705
 30
0.0
 11
9888.556211714274
 21
3643.008033455759
 31
0.0
  0
LINE
  5
29716
330
747D
100
AcDbEntity
  8
部品1
100
AcDbLine
 10
9298.045283895135
 20
1691.793508734703
 30
0.0
 11
9298.045283895135
 21
1417.169864168016
 31
0.0
  0
LINE
  5
29717
330
747D
100
AcDbEntity
  8
細線
 48
50.0
100
AcDbLine
 10
9110.074114185445
 20
1417.169864168012
 30
0.0
 11
9152.945984974424
 21
1577.169864168012
 31
0.0
  0
LINE
  5
29718
330
747D
100
AcDbEntity
  8
細線
 48
50.0
100
AcDbLine
 10
9208.684170369496
 20
1417.169864168014
 30
0.0
 11
9251.556041158485
 21
1577.169864168012
 31
0.0
  0
LINE
  5
29719
330
747D
100
AcDbEntity
  8
細線
 48
50.0
100
AcDbLine
 10
8912.854001817324
 20
1417.169864168016
 30
0.0
 11
8955.725872606306
 21
1577.169864168014
 31
0.0
  0
LINE
  5
2971A
330
747D
100
AcDbEntity
  8
細線
 48
50.0
100
AcDbLine
 10
9011.464058001385
 20
1417.169864168014
 30
0.0
 11
9054.335928790356
 21
1577.169864168016
 31
0.0
  0
LINE
  5
2971B
330
747D
100
AcDbEntity
  8
細線
 48
50.0
100
AcDbLine
 10
8715.633889449204
 20
1417.169864168016
 30
0.0
 11
8758.505760238186
 21
1577.169864168014
 31
0.0
  0
LINE
  5
2971C
330
747D
100
AcDbEntity
  8
細線
 48
50.0
100
AcDbLine
 10
8617.023833265154
 20
1417.169864168016
 30
0.0
 11
8659.895704054125
 21
1577.169864168016
 31
0.0
  0
LINE
  5
2971D
330
747D
100
AcDbEntity
  8
細線
 48
50.0
100
AcDbLine
 10
8814.243945633265
 20
1417.169864168014
 30
0.0
 11
8857.115816422242
 21
1577.169864168014
 31
0.0
  0
LINE
  5
2971E
330
747D
100
AcDbEntity
  8
細線
 48
50.0
100
AcDbLine
 10
8723.672365222144
 20
1447.169864168016
 30
0.0
 11
8731.710840995082
 21
1417.169864168016
 31
0.0
  0
LINE
  5
2971F
330
747D
100
AcDbEntity
  8
細線
 48
50.0
100
AcDbLine
 10
8625.062309038094
 20
1447.169864168016
 30
0.0
 11
8633.100784811025
 21
1417.169864168016
 31
0.0
  0
LINE
  5
29720
330
747D
100
AcDbEntity
  8
細線
 48
50.0
100
AcDbLine
 10
8920.892477590268
 20
1447.169864168016
 30
0.0
 11
8928.930953363195
 21
1417.169864168016
 31
0.0
  0
LINE
  5
29721
330
747D
100
AcDbEntity
  8
細線
 48
50.0
100
AcDbLine
 10
8822.282421406205
 20
1447.169864168016
 30
0.0
 11
8830.320897179136
 21
1417.169864168016
 31
0.0
  0
LINE
  5
29722
330
747D
100
AcDbEntity
  8
細線
 48
50.0
100
AcDbLine
 10
9118.112589958384
 20
1447.169864168014
 30
0.0
 11
9126.151065731312
 21
1417.169864168014
 31
0.0
  0
LINE
  5
29723
330
747D
100
AcDbEntity
  8
細線
 48
50.0
100
AcDbLine
 10
9019.502533774325
 20
1447.169864168016
 30
0.0
 11
9027.541009547265
 21
1417.169864168016
 31
0.0
  0
LINE
  5
29724
330
747D
100
AcDbEntity
  8
細線
 48
50.0
100
AcDbLine
 10
9216.722646142443
 20
1447.169864168014
 30
0.0
 11
9224.761121915374
 21
1417.169864168014
 31
0.0
  0
MTEXT
  5
29725
102
{ACAD_REACTORS
330
29726
102
}
330
747D
100
AcDbEntity
  8
寸法
 62
     7
 48
50.0
100
AcDbMText
 10
9290.373556707093
 20
2313.226409586126
 30
0.0
 40
150.0
 41
1.0
 71
     4
 72
     1
  1
\A1;C.B
  7
STYLE1
 73
     1
 44
1.0
1001
ACAD
1000
MTEXTBEGIN
1070
    73
1070
     1
1070
    44
1040
1.0
1070
    74
1070
     0
1000
MTEXTEND
  0
LEADER
  5
29726
330
747D
100
AcDbEntity
  8
寸法
 48
50.0
100
AcDbLeader
  3
INABA_S40G
 73
     0
 74
     0
 75
     1
 40
150.0
 41
231.9898538650463
 76
     3
 10
9061.450798415036
 20
1991.793508734704
 30
0.0
 10
9150.373556707092
 20
2198.226409586126
 30
0.0
 10
9250.373556707094
 20
2198.226409586126
 30
0.0
340
29725
1001
ACAD
1000
DSTYLE
1002
{
1070
   341
1005
0
1002
}
  0
LINE
  5
29727
330
747D
100
AcDbEntity
  8
細線
100
AcDbLine
 10
9130.748205960655
 20
1691.793508734704
 30
0.0
 11
8830.748205960665
 21
1991.793508734704
 31
0.0
  0
LINE
  5
29728
330
747D
100
AcDbEntity
  8
細線
100
AcDbLine
 10
9067.108595653875
 20
1691.793508734703
 30
0.0
 11
8767.108595653876
 21
1991.793508734704
 31
0.0
  0
LINE
  5
29729
330
747D
100
AcDbEntity
  8
細線
 48
50.0
100
AcDbLine
 10
8651.857228281206
 20
1547.169864168016
 30
0.0
 11
8643.818752508265
 21
1577.169864168016
 31
0.0
  0
LINE
  5
2972A
330
747D
100
AcDbEntity
  8
細線
 48
50.0
100
AcDbLine
 10
8750.467284465257
 20
1547.169864168016
 30
0.0
 11
8742.428808692324
 21
1577.169864168016
 31
0.0
  0
LINE
  5
2972B
330
747D
100
AcDbEntity
  8
細線
100
AcDbLine
 10
8624.193590761684
 20
1577.169864168017
 30
0.0
 11
8738.817235328367
 21
1691.793508734703
 31
0.0
  0
LINE
  5
2972C
330
747D
100
AcDbEntity
  8
細線
100
AcDbLine
 10
8581.767183890496
 20
1577.169864168017
 30
0.0
 11
8696.390828457174
 21
1691.793508734703
 31
0.0
  0
LINE
  5
2972D
330
747D
100
AcDbEntity
  8
細線
 48
50.0
100
AcDbLine
 10
8947.687396833375
 20
1547.169864168016
 30
0.0
 11
8939.648921060445
 21
1577.169864168016
 31
0.0
  0
LINE
  5
2972E
330
747D
100
AcDbEntity
  8
細線
 48
50.0
100
AcDbLine
 10
8849.077340649314
 20
1547.169864168016
 30
0.0
 11
8841.038864876384
 21
1577.169864168016
 31
0.0
  0
LINE
  5
2972F
330
747D
100
AcDbEntity
  8
部品1
100
AcDbLine
 10
9148.045283895134
 20
1991.793508734704
 30
0.0
 11
9148.045283895134
 21
1691.793508734703
 31
0.0
  0
LINE
  5
29730
330
747D
100
AcDbEntity
  8
細線
 48
50.0
100
AcDbLine
 10
9144.907509201493
 20
1547.169864168014
 30
0.0
 11
9136.869033428553
 21
1577.169864168014
 31
0.0
  0
LINE
  5
29731
330
747D
100
AcDbEntity
  8
細線
 48
50.0
100
AcDbLine
 10
9046.297453017425
 20
1547.169864168016
 30
0.0
 11
9038.258977244485
 21
1577.169864168016
 31
0.0
  0
LINE
  5
29732
330
747D
100
AcDbEntity
  8
細線
100
AcDbLine
 10
9074.193590761685
 20
1577.169864168018
 30
0.0
 11
9188.817235328365
 21
1691.793508734703
 31
0.0
  0
LINE
  5
29733
330
747D
100
AcDbEntity
  8
細線
100
AcDbLine
 10
8989.340777019306
 20
1577.169864168018
 30
0.0
 11
9103.964421585985
 21
1691.793508734703
 31
0.0
  0
LINE
  5
29734
330
747D
100
AcDbEntity
  8
細線
100
AcDbLine
 10
9031.767183890496
 20
1577.169864168018
 30
0.0
 11
9146.390828457171
 21
1691.793508734703
 31
0.0
  0
LINE
  5
29735
330
747D
100
AcDbEntity
  8
細線
 48
50.0
100
AcDbLine
 10
9243.517565385555
 20
1547.169864168014
 30
0.0
 11
9235.479089612615
 21
1577.169864168014
 31
0.0
  0
HATCH
  5
2986E
330
747D
100
AcDbEntity
  8
細線
 48
50.0
100
AcDbHatch
 10
0.0
 20
0.0
 30
0.0
210
0.0
220
0.0
230
1.0
  2
LINE
 70
     0
 71
     1
 91
        6
 92
        7
 72
     0
 73
     1
 93
        4
 10
5288.6
 20
7056.342358765269
 10
5168.599999999998
 20
7056.342358765269
 10
5168.600000000001
 20
6856.342358765269
 10
5288.6
 20
6856.342358765269
 97
        4
330
2846C
330
28241
330
2846D
330
28460
 92
        7
 72
     0
 73
     1
 93
        4
 10
6798.600000000002
 20
5966.342358765276
 10
6598.600000000002
 20
5966.342358765275
 10
6598.600000000002
 20
5771.342358765265
 10
6798.600000000002
 20
5771.342358765265
 97
        4
330
2845E
330
2823D
330
28247
330
2823E
 92
        7
 72
     0
 73
     1
 93
        4
 10
9848.600000000013
 20
5966.342358765285
 10
9648.600000000017
 20
5966.342358765285
 10
9648.600000000014
 20
5846.34235876528
 10
9848.600000000013
 20
5846.342358765284
 97
        4
330
28235
330
284AD
330
28234
330
284AE
 92
        7
 72
     0
 73
     1
 93
        4
 10
11278.59999999999
 20
7056.342358765269
 10
11158.6
 20
7056.342358765269
 10
11158.6
 20
6856.342358765271
 10
11278.6
 20
6856.342358765266
 97
        4
330
284E6
330
284DA
330
284E7
330
284B1
 92
        7
 72
     0
 73
     1
 93
        4
 10
9848.600000000001
 20
8066.342358765266
 10
9648.600000000001
 20
8066.342358765268
 10
9648.600000000001
 20
7946.342358765268
 10
9848.600000000001
 20
7946.342358765268
 97
        4
330
28238
330
284D8
330
28230
330
284D9
 92
        7
 72
     0
 73
     1
 93
        4
 10
6798.6
 20
8066.342358765266
 10
6598.599999999999
 20
8066.342358765266
 10
6598.600000000002
 20
7946.342358765268
 10
6798.6
 20
7946.34235876527
 97
        4
330
28238
330
2848B
330
2845F
330
2848A
 75
     0
 76
     1
 52
45.0
 41
10.0
 77
     0
 78
     1
 53
45.0
 43
0.0
 44
0.0
 45
-22.45064030267288
 46
22.45064030267288
 79
     0
 47
7.664306912613813
 98
        6
 10
5202.112589774937
 20
6974.158089954586
 10
6658.957428022514
 20
5939.476639185436
 10
9664.658377459325
 20
5878.16217371456
 10
11259.52009447468
 20
6943.500837341511
 10
9810.342867413019
 20
8008.839500968454
 10
6704.963095138047
 20
8008.839500968454
  0
ENDSEC
  0
SECTION
  2
OBJECTS
  0
DICTIONARY
  5
7471
330
0
100
AcDbDictionary
281
     1
  3
ACAD_COLOR
350
173D2
  3
ACAD_GROUP
350
7472
  3
ACAD_LAYOUT
350
173D3
  3
ACAD_MATERIAL
350
173D1
  3
ACAD_MLINESTYLE
350
7473
  3
ACAD_PLOTSETTINGS
350
173D4
  3
ACAD_PLOTSTYLENAME
350
173CF
  3
ACDBHEADERROUNDTRIPXREC
350
29A3E
  3
AcDbVariableDictionary
350
2987A
  3
CONTENTDICTIONARY
350
E71C
  3
DRAWINGVARIABLESDICT
350
F3B9
  0
DICTIONARY
  5
1758F
330
7467
100
AcDbDictionary
280
     1
281
     1
  3
ACAD_LAYERSTATES
360
17590
  0
DICTIONARY
  5
173D2
102
{ACAD_REACTORS
330
7471
102
}
330
7471
100
AcDbDictionary
281
     1
  0
DICTIONARY
  5
7472
102
{ACAD_REACTORS
330
7471
102
}
330
7471
100
AcDbDictionary
281
     1
  3
*A1
350
1D2A9
  0
DICTIONARY
  5
173D3
102
{ACAD_REACTORS
330
7471
102
}
330
7471
100
AcDbDictionary
281
     1
  3
Model
350
173D5
  3
レイアウト1
350
173D6
  0
DICTIONARY
  5
173D1
102
{ACAD_REACTORS
330
7471
102
}
330
7471
100
AcDbDictionary
281
     1
  0
DICTIONARY
  5
7473
102
{ACAD_REACTORS
330
7471
102
}
330
7471
100
AcDbDictionary
281
     1
  3
STANDARD
350
7480
  0
DICTIONARY
  5
173D4
102
{ACAD_REACTORS
330
7471
102
}
330
7471
100
AcDbDictionary
281
     1
  0
ACDBDICTIONARYWDFLT
  5
173CF
102
{ACAD_REACTORS
330
7471
102
}
330
7471
100
AcDbDictionary
281
     1
  3
Normal
350
173D0
100
AcDbDictionaryWithDefault
340
173D0
  0
DICTIONARY
  5
29A3E
102
{ACAD_REACTORS
330
7471
102
}
330
7471
100
AcDbDictionary
281
     1
  3
COLORDICT
350
29A40
  3
MATERIALDICT
350
29A3F
  0
DICTIONARY
  5
2987A
102
{ACAD_REACTORS
330
7471
102
}
330
7471
100
AcDbDictionary
281
     1
  3
DIMASSOC
350
2987B
  3
PROJECTNAME
350
2987C
  0
DICTIONARY
  5
E71C
102
{ACAD_REACTORS
330
7471
102
}
330
7471
100
AcDbDictionary
281
     1
  0
DICTIONARY
  5
F3B9
102
{ACAD_REACTORS
330
7471
102
}
330
7471
100
AcDbDictionary
281
     1
1001
DRAWINGVARIABLESXDATA
1000
POLARMODE
1000
1
  0
DICTIONARY
  5
17590
102
{ACAD_REACTORS
330
1758F
102
}
330
1758F
100
AcDbDictionary
281
     1
  0
GROUP
  5
1D2A9
102
{ACAD_REACTORS
330
7472
102
}
330
7472
100
AcDbGroup
300

 70
     1
 71
     1
  0
LAYOUT
  5
173D5
102
{ACAD_XDICTIONARY
360
29A41
102
}
102
{ACAD_REACTORS
330
173D3
102
}
330
173D3
100
AcDbPlotSettings
  1

  2
クセロPDF
  4
A3
  6

 40
3.174999999999999
 41
3.174999999999999
 42
3.174987999999999
 43
3.174987999999999
 44
419.946655
 45
296.925995
 46
0.0
 47
0.0
 48
0.0
 49
0.0
140
0.0
141
0.0
142
1.0
143
40.88431155294937
 70
 11952
 72
     1
 73
     0
 74
     2
  7
inaba.ctb
 75
     0
147
0.0244592598484849
148
0.0
149
0.0
100
AcDbLayout
  1
Model
 70
     1
 71
     0
 10
0.0
 20
0.0
 11
12.0
 21
9.0
 12
0.0
 22
0.0
 32
0.0
 14
0.0
 24
0.0
 34
0.0
 15
0.0
 25
0.0
 35
0.0
146
0.0
 13
0.0
 23
0.0
 33
0.0
 16
1.0
 26
0.0
 36
0.0
 17
0.0
 27
1.0
 37
0.0
 76
     0
330
747D
  0
LAYOUT
  5
173D6
102
{ACAD_XDICTIONARY
360
29A43
102
}
102
{ACAD_REACTORS
330
173D3
102
}
330
173D3
100
AcDbPlotSettings
  1

  2
Microsoft Office Document Image Writer
  4

  6

 40
0.0
 41
0.0
 42
0.0
 43
0.0
 44
0.0
 45
0.0
 46
0.0
 47
0.0
 48
0.0
 49
0.0
140
0.0
141
0.0
142
1.0
143
1.0
 70
   688
 72
     0
 73
     0
 74
     5
  7

 75
    16
147
1.0
148
0.0
149
0.0
100
AcDbLayout
  1
レイアウト1
 70
     0
 71
     1
 10
0.0
 20
0.0
 11
420.0
 21
297.0
 12
0.0
 22
0.0
 32
0.0
 14
1.000000000000000E+20
 24
1.000000000000000E+20
 34
1.000000000000000E+20
 15
-1.000000000000000E+20
 25
-1.000000000000000E+20
 35
-1.000000000000000E+20
146
0.0
 13
0.0
 23
0.0
 33
0.0
 16
1.0
 26
0.0
 36
0.0
 17
0.0
 27
1.0
 37
0.0
 76
     0
330
747A
  0
MLINESTYLE
  5
7480
102
{ACAD_REACTORS
330
7473
102
}
330
7473
100
AcDbMlineStyle
  2
STANDARD
 70
     0
  3

 62
     0
 51
90.0
 52
90.0
 71
     2
 49
0.5
 62
   256
  6
BYLAYER
 49
-0.5
 62
   256
  6
BYLAYER
  0
ACDBPLACEHOLDER
  5
173D0
102
{ACAD_REACTORS
330
173CF
102
}
330
173CF
  0
XRECORD
  5
29A40
102
{ACAD_REACTORS
330
29A3E
102
}
330
29A3E
100
AcDbXrecord
280
     1
340
173D2
  0
XRECORD
  5
29A3F
102
{ACAD_REACTORS
330
29A3E
102
}
330
29A3E
100
AcDbXrecord
280
     1
340
173D1
  0
DICTIONARYVAR
  5
2987B
102
{ACAD_REACTORS
330
2987A
102
}
330
2987A
100
DictionaryVariables
280
     0
  1
1
  0
DICTIONARYVAR
  5
2987C
102
{ACAD_REACTORS
330
2987A
102
}
330
2987A
100
DictionaryVariables
280
     0
  1

  0
DICTIONARY
  5
29A41
330
173D5
100
AcDbDictionary
280
     1
281
     1
  3
ACAD_XREC_ROUNDTRIP
360
29A42
  0
DICTIONARY
  5
29A43
330
173D6
100
AcDbDictionary
280
     1
281
     1
  3
ACAD_XREC_ROUNDTRIP
360
29A44
  0
XRECORD
  5
29A42
102
{ACAD_REACTORS
330
29A41
102
}
330
29A41
100
AcDbXrecord
280
     1
102
SHADEPLOT
 70
     1
102
SHADEPLOTRESLEVEL
 70
     2
102
SHADEPLOTCUSTOMDPI
 70
   300
  0
XRECORD
  5
29A44
102
{ACAD_REACTORS
330
29A43
102
}
330
29A43
100
AcDbXrecord
280
     1
102
SHADEPLOT
 70
     0
102
SHADEPLOTRESLEVEL
 70
     2
102
SHADEPLOTCUSTOMDPI
 70
   300
  0
ENDSEC
  0
EOF
