  0
SECTION
  2
HEADER
  9
$ACADVER
  1
AC1015
  9
$ACADMAINTVER
 70
    20
  9
$DWGCODEPAGE
  3
ANSI_932
  9
$INSBASE
 10
0.0
 20
0.0
 30
0.0
  9
$EXTMIN
 10
139.9999999999995
 20
-0.0000000000000909
 30
0.0
  9
$EXTMAX
 10
16307.2
 20
11409.6
 30
0.0
  9
$LIMMIN
 10
0.0
 20
0.0
  9
$LIMMAX
 10
16800.0
 20
11880.0
  9
$ORTHOMODE
 70
     0
  9
$REGENMODE
 70
     1
  9
$FILLMODE
 70
     1
  9
$QTEXTMODE
 70
     0
  9
$MIRRTEXT
 70
     1
  9
$LTSCALE
 40
20.0
  9
$ATTMODE
 70
     1
  9
$TEXTSIZE
 40
4.0
  9
$TRACEWID
 40
1.0
  9
$TEXTSTYLE
  7
STYLE1
  9
$CLAYER
  8
細線
  9
$CELTYPE
  6
BYLAYER
  9
$CECOLOR
 62
   256
  9
$CELTSCALE
 40
50.0
  9
$DISPSILH
 70
     0
  9
$DIMSCALE
 40
40.0
  9
$DIMASZ
 40
2.5
  9
$DIMEXO
 40
0.5
  9
$DIMDLI
 40
7.0
  9
$DIMRND
 40
0.0
  9
$DIMDLE
 40
0.0
  9
$DIMEXE
 40
1.5
  9
$DIMTP
 40
0.0
  9
$DIMTM
 40
0.0
  9
$DIMTXT
 40
3.0
  9
$DIMCEN
 40
0.0
  9
$DIMTSZ
 40
0.0
  9
$DIMTOL
 70
     0
  9
$DIMLIM
 70
     0
  9
$DIMTIH
 70
     0
  9
$DIMTOH
 70
     0
  9
$DIMSE1
 70
     0
  9
$DIMSE2
 70
     0
  9
$DIMTAD
 70
     3
  9
$DIMZIN
 70
     8
  9
$DIMBLK
  1

  9
$DIMASO
 70
     1
  9
$DIMSHO
 70
     1
  9
$DIMPOST
  1

  9
$DIMAPOST
  1

  9
$DIMALT
 70
     0
  9
$DIMALTD
 70
     2
  9
$DIMALTF
 40
0.0394
  9
$DIMLFAC
 40
1.0
  9
$DIMTOFL
 70
     1
  9
$DIMTVP
 40
0.0
  9
$DIMTIX
 70
     1
  9
$DIMSOXD
 70
     0
  9
$DIMSAH
 70
     1
  9
$DIMBLK1
  1
DOTSMALL
  9
$DIMBLK2
  1
DOTSMALL
  9
$DIMSTYLE
  2
INABA_S40G
  9
$DIMCLRD
 70
     0
  9
$DIMCLRE
 70
     0
  9
$DIMCLRT
 70
     7
  9
$DIMTFAC
 40
1.0
  9
$DIMGAP
 40
1.0
  9
$DIMJUST
 70
     0
  9
$DIMSD1
 70
     0
  9
$DIMSD2
 70
     0
  9
$DIMTOLJ
 70
     1
  9
$DIMTZIN
 70
     0
  9
$DIMALTZ
 70
     0
  9
$DIMALTTZ
 70
     0
  9
$DIMUPT
 70
     0
  9
$DIMDEC
 70
     1
  9
$DIMTDEC
 70
     4
  9
$DIMALTU
 70
     2
  9
$DIMALTTD
 70
     2
  9
$DIMTXSTY
  7
STYLE1
  9
$DIMAUNIT
 70
     0
  9
$DIMADEC
 70
     0
  9
$DIMALTRND
 40
0.0
  9
$DIMAZIN
 70
     0
  9
$DIMDSEP
 70
    46
  9
$DIMATFIT
 70
     3
  9
$DIMFRAC
 70
     0
  9
$DIMLDRBLK
  1

  9
$DIMLUNIT
 70
     2
  9
$DIMLWD
 70
    -2
  9
$DIMLWE
 70
    -2
  9
$DIMTMOVE
 70
     0
  9
$LUNITS
 70
     2
  9
$LUPREC
 70
     1
  9
$SKETCHINC
 40
1.0
  9
$FILLETRAD
 40
3.0
  9
$AUNITS
 70
     0
  9
$AUPREC
 70
     0
  9
$MENU
  1
acad
  9
$ELEVATION
 40
0.0
  9
$PELEVATION
 40
0.0
  9
$THICKNESS
 40
0.0
  9
$LIMCHECK
 70
     0
  9
$CHAMFERA
 40
0.0
  9
$CHAMFERB
 40
0.0
  9
$CHAMFERC
 40
0.0
  9
$CHAMFERD
 40
0.0
  9
$SKPOLY
 70
     0
  9
$TDCREATE
 40
2451368.612993866
  9
$TDUCREATE
 40
2451368.237993866
  9
$TDUPDATE
 40
2455827.764303345
  9
$TDUUPDATE
 40
2455827.389303345
  9
$TDINDWG
 40
0.8482710301
  9
$TDUSRTIMER
 40
0.8482701273
  9
$USRTIMER
 70
     1
  9
$ANGBASE
 50
0.0
  9
$ANGDIR
 70
     0
  9
$PDMODE
 70
     3
  9
$PDSIZE
 40
2.0
  9
$PLINEWID
 40
0.0
  9
$SPLFRAME
 70
     0
  9
$SPLINETYPE
 70
     6
  9
$SPLINESEGS
 70
     8
  9
$HANDSEED
  5
25973
  9
$SURFTAB1
 70
     6
  9
$SURFTAB2
 70
     6
  9
$SURFTYPE
 70
     6
  9
$SURFU
 70
     6
  9
$SURFV
 70
     6
  9
$UCSBASE
  2

  9
$UCSNAME
  2

  9
$UCSORG
 10
0.0
 20
0.0
 30
0.0
  9
$UCSXDIR
 10
1.0
 20
0.0
 30
0.0
  9
$UCSYDIR
 10
0.0
 20
1.0
 30
0.0
  9
$UCSORTHOREF
  2

  9
$UCSORTHOVIEW
 70
     0
  9
$UCSORGTOP
 10
0.0
 20
0.0
 30
0.0
  9
$UCSORGBOTTOM
 10
0.0
 20
0.0
 30
0.0
  9
$UCSORGLEFT
 10
0.0
 20
0.0
 30
0.0
  9
$UCSORGRIGHT
 10
0.0
 20
0.0
 30
0.0
  9
$UCSORGFRONT
 10
0.0
 20
0.0
 30
0.0
  9
$UCSORGBACK
 10
0.0
 20
0.0
 30
0.0
  9
$PUCSBASE
  2

  9
$PUCSNAME
  2

  9
$PUCSORG
 10
0.0
 20
0.0
 30
0.0
  9
$PUCSXDIR
 10
1.0
 20
0.0
 30
0.0
  9
$PUCSYDIR
 10
0.0
 20
1.0
 30
0.0
  9
$PUCSORTHOREF
  2

  9
$PUCSORTHOVIEW
 70
     0
  9
$PUCSORGTOP
 10
0.0
 20
0.0
 30
0.0
  9
$PUCSORGBOTTOM
 10
0.0
 20
0.0
 30
0.0
  9
$PUCSORGLEFT
 10
0.0
 20
0.0
 30
0.0
  9
$PUCSORGRIGHT
 10
0.0
 20
0.0
 30
0.0
  9
$PUCSORGFRONT
 10
0.0
 20
0.0
 30
0.0
  9
$PUCSORGBACK
 10
0.0
 20
0.0
 30
0.0
  9
$USERI1
 70
     0
  9
$USERI2
 70
     0
  9
$USERI3
 70
     0
  9
$USERI4
 70
     0
  9
$USERI5
 70
     0
  9
$USERR1
 40
0.0
  9
$USERR2
 40
0.0
  9
$USERR3
 40
0.0
  9
$USERR4
 40
0.0
  9
$USERR5
 40
0.0
  9
$WORLDVIEW
 70
     1
  9
$SHADEDGE
 70
     3
  9
$SHADEDIF
 70
    70
  9
$TILEMODE
 70
     1
  9
$MAXACTVP
 70
    16
  9
$PINSBASE
 10
0.0
 20
0.0
 30
0.0
  9
$PLIMCHECK
 70
     0
  9
$PEXTMIN
 10
1.000000000000000E+20
 20
1.000000000000000E+20
 30
1.000000000000000E+20
  9
$PEXTMAX
 10
-1.000000000000000E+20
 20
-1.000000000000000E+20
 30
-1.000000000000000E+20
  9
$PLIMMIN
 10
0.0
 20
0.0
  9
$PLIMMAX
 10
420.0
 20
297.0
  9
$UNITMODE
 70
     0
  9
$VISRETAIN
 70
     0
  9
$PLINEGEN
 70
     0
  9
$PSLTSCALE
 70
     0
  9
$TREEDEPTH
 70
  3020
  9
$CMLSTYLE
  2
STANDARD
  9
$CMLJUST
 70
     0
  9
$CMLSCALE
 40
1.0
  9
$PROXYGRAPHICS
 70
     1
  9
$MEASUREMENT
 70
     1
  9
$CELWEIGHT
370
    -1
  9
$ENDCAPS
280
     0
  9
$JOINSTYLE
280
     0
  9
$LWDISPLAY
290
     0
  9
$INSUNITS
 70
     0
  9
$HYPERLINKBASE
  1

  9
$STYLESHEET
  1
inaba.ctb
  9
$XEDIT
290
     1
  9
$CEPSNTYPE
380
     0
  9
$PSTYLEMODE
290
     1
  9
$FINGERPRINTGUID
  2
{5EAC461A-2277-4BF8-9AB0-99C43BB394F0}
  9
$VERSIONGUID
  2
{764920B0-BC15-402B-A72D-4CCEECA82752}
  9
$EXTNAMES
290
     1
  9
$PSVPSCALE
 40
0.0
  9
$OLESTARTUP
290
     0
  0
ENDSEC
  0
SECTION
  2
CLASSES
  0
CLASS
  1
ACDBDICTIONARYWDFLT
  2
AcDbDictionaryWithDefault
  3
ObjectDBX Classes
 90
        0
280
     0
281
     0
  0
CLASS
  1
DICTIONARYVAR
  2
AcDbDictionaryVar
  3
ObjectDBX Classes
 90
        0
280
     0
281
     0
  0
CLASS
  1
ACDBPLACEHOLDER
  2
AcDbPlaceHolder
  3
ObjectDBX Classes
 90
        0
280
     0
281
     0
  0
CLASS
  1
LAYOUT
  2
AcDbLayout
  3
ObjectDBX Classes
 90
        0
280
     0
281
     0
  0
ENDSEC
  0
SECTION
  2
TABLES
  0
TABLE
  2
VPORT
  5
746D
330
0
100
AcDbSymbolTable
 70
     2
  0
VPORT
  5
2596B
330
746D
100
AcDbSymbolTableRecord
100
AcDbViewportTableRecord
  2
*Active
 70
     0
 10
0.0
 20
0.0
 11
1.0
 21
1.0
 12
9850.451919696666
 22
5755.737687086469
 13
0.0
 23
0.0
 14
10.0
 24
10.0
 15
10.0
 25
10.0
 16
0.0
 26
0.0
 36
1.0
 17
0.0
 27
0.0
 37
0.0
 40
11601.50365250591
 41
1.79295154185022
 42
50.0
 43
0.0
 44
0.0
 50
0.0
 51
0.0
 71
     0
 72
     0
 73
     1
 74
     0
 75
     0
 76
     0
 77
     0
 78
     0
281
     0
 65
     1
110
0.0
120
0.0
130
0.0
111
1.0
121
0.0
131
0.0
112
0.0
122
1.0
132
0.0
 79
     0
146
0.0
  0
ENDTAB
  0
TABLE
  2
LTYPE
  5
746A
330
0
100
AcDbSymbolTable
 70
     3
  0
LTYPE
  5
7477
330
746A
100
AcDbSymbolTableRecord
100
AcDbLinetypeTableRecord
  2
BYBLOCK
 70
     0
  3

 72
    65
 73
     0
 40
0.0
  0
LTYPE
  5
7478
330
746A
100
AcDbSymbolTableRecord
100
AcDbLinetypeTableRecord
  2
BYLAYER
 70
     0
  3

 72
    65
 73
     0
 40
0.0
  0
LTYPE
  5
7479
330
746A
100
AcDbSymbolTableRecord
100
AcDbLinetypeTableRecord
  2
CONTINUOUS
 70
     0
  3
Solid line
 72
    65
 73
     0
 40
0.0
  0
LTYPE
  5
7816
330
746A
100
AcDbSymbolTableRecord
100
AcDbLinetypeTableRecord
  2
CENTER
 70
     0
  3
____ _ ____ _ ____ _ ____ _ ____ _ ____ _ ____ 
 72
    65
 73
     4
 40
2.0
 49
1.25
 74
     0
 49
-0.25
 74
     0
 49
0.25
 74
     0
 49
-0.25
 74
     0
  0
LTYPE
  5
781B
330
746A
100
AcDbSymbolTableRecord
100
AcDbLinetypeTableRecord
  2
PHANTOM
 70
     0
  3
______  __  __  ______  __  __  ______  __  __ 
 72
    65
 73
     6
 40
2.5
 49
1.25
 74
     0
 49
-0.25
 74
     0
 49
0.25
 74
     0
 49
-0.25
 74
     0
 49
0.25
 74
     0
 49
-0.25
 74
     0
  0
ENDTAB
  0
TABLE
  2
LAYER
  5
7467
102
{ACAD_XDICTIONARY
360
1758F
102
}
330
0
100
AcDbSymbolTable
 70
    10
  0
LAYER
  5
7474
330
7467
100
AcDbSymbolTableRecord
100
AcDbLayerTableRecord
  2
0
 70
     0
 62
     7
  6
CONTINUOUS
370
    -3
390
173D0
  0
LAYER
  5
DEB2
330
7467
100
AcDbSymbolTableRecord
100
AcDbLayerTableRecord
  2
センター
 70
     0
 62
     3
  6
CENTER
370
    -3
390
173D0
  0
LAYER
  5
DEB3
330
7467
100
AcDbSymbolTableRecord
100
AcDbLayerTableRecord
  2
寸法
 70
     0
 62
     4
  6
CONTINUOUS
370
    -3
390
173D0
  0
LAYER
  5
DEB4
330
7467
100
AcDbSymbolTableRecord
100
AcDbLayerTableRecord
  2
部品1
 70
     0
 62
     7
  6
CONTINUOUS
370
    -3
390
173D0
  0
LAYER
  5
DEB5
330
7467
100
AcDbSymbolTableRecord
100
AcDbLayerTableRecord
  2
補助
 70
     0
 62
    -1
  6
CONTINUOUS
370
    -3
390
173D0
  0
LAYER
  5
DEB6
330
7467
100
AcDbSymbolTableRecord
100
AcDbLayerTableRecord
  2
文字
 70
     0
 62
     7
  6
CONTINUOUS
370
    -3
390
173D0
  0
LAYER
  5
F255
330
7467
100
AcDbSymbolTableRecord
100
AcDbLayerTableRecord
  2
DEFPOINTS
 70
     0
 62
     7
  6
CONTINUOUS
290
     0
370
    -3
390
173D0
  0
LAYER
  5
10B54
330
7467
100
AcDbSymbolTableRecord
100
AcDbLayerTableRecord
  2
仕様書枠
 70
     0
 62
   230
  6
CONTINUOUS
370
    -3
390
173D0
  0
LAYER
  5
1173F
330
7467
100
AcDbSymbolTableRecord
100
AcDbLayerTableRecord
  2
細線
 70
     0
 62
     5
  6
CONTINUOUS
370
    -3
390
173D0
  0
LAYER
  5
12CC4
330
7467
100
AcDbSymbolTableRecord
100
AcDbLayerTableRecord
  2
想像線
 70
     0
 62
     6
  6
PHANTOM
370
    -3
390
173D0
  0
ENDTAB
  0
TABLE
  2
STYLE
  5
7468
330
0
100
AcDbSymbolTable
 70
     4
  0
STYLE
  5
7475
330
7468
100
AcDbSymbolTableRecord
100
AcDbTextStyleTableRecord
  2
STANDARD
 70
     0
 40
0.0
 41
1.0
 50
0.0
 71
     0
 42
4.0
  3
txt
  4
C:\AutoCAD LT\bigfont.shx
  0
STYLE
  5
763C
330
7468
100
AcDbSymbolTableRecord
100
AcDbTextStyleTableRecord
  2
MSMINCHO
 70
     0
 40
0.0
 41
1.0
 50
0.0
 71
     0
 42
1.199999999999999
  3
C:\AutoCAD LT\msminch2.TTF
  4

  0
STYLE
  5
F706
330
7468
100
AcDbSymbolTableRecord
100
AcDbTextStyleTableRecord
  2
STYLE1
 70
     0
 40
0.0
 41
1.0
 50
0.0
 71
     0
 42
4.0
  3
isocp.shx
  4
bigfont.shx
  0
STYLE
  5
103BF
330
7468
100
AcDbSymbolTableRecord
100
AcDbTextStyleTableRecord
  2
STYLE2
 70
     0
 40
0.0
 41
1.0
 50
0.0
 71
     0
 42
100.0
  3
MS PGothic.ttf
  4

1001
ACAD
1000
MS PGothic
1071
    32818
  0
ENDTAB
  0
TABLE
  2
VIEW
  5
746B
330
0
100
AcDbSymbolTable
 70
     0
  0
ENDTAB
  0
TABLE
  2
UCS
  5
746C
330
0
100
AcDbSymbolTable
 70
     0
  0
ENDTAB
  0
TABLE
  2
APPID
  5
746E
330
0
100
AcDbSymbolTable
 70
     6
  0
APPID
  5
7476
330
746E
100
AcDbSymbolTableRecord
100
AcDbRegAppTableRecord
  2
ACAD
 70
     0
  0
APPID
  5
DEA9
330
746E
100
AcDbSymbolTableRecord
100
AcDbRegAppTableRecord
  2
CONTENTBLOCKICON
 70
     0
  0
APPID
  5
DEAA
330
746E
100
AcDbSymbolTableRecord
100
AcDbRegAppTableRecord
  2
CONTENTBLOCKDESCRIPTION
 70
     0
  0
APPID
  5
E71D
330
746E
100
AcDbSymbolTableRecord
100
AcDbRegAppTableRecord
  2
CONTENTTABDATA
 70
     0
  0
APPID
  5
E71E
330
746E
100
AcDbSymbolTableRecord
100
AcDbRegAppTableRecord
  2
CONTENTCURRENTTAB
 70
     0
  0
APPID
  5
F3BA
330
746E
100
AcDbSymbolTableRecord
100
AcDbRegAppTableRecord
  2
DRAWINGVARIABLESXDATA
 70
     0
  0
ENDTAB
  0
TABLE
  2
DIMSTYLE
  5
746F
330
0
100
AcDbSymbolTable
 70
     1
100
AcDbDimStyleTable
 71
     1
340
F71F
  0
DIMSTYLE
105
F71F
102
{ACAD_REACTORS
330
25659
330
25656
330
25655
330
25653
330
25650
330
2564D
330
2564C
330
2564A
330
25649
330
25646
330
25645
330
25638
330
25637
330
25636
330
255F4
330
255DF
330
255DD
330
255D7
330
2553E
330
24FFF
330
24CFE
330
24B74
330
222D5
330
2227B
330
21966
330
21964
330
21959
330
21958
330
21957
330
21942
330
218CC
330
218B2
330
218AA
330
218A9
330
218A8
330
218A6
330
218A5
330
218A4
330
217E5
330
21671
330
2160C
330
21608
330
215F5
330
215F4
330
215F3
330
215EF
330
215ED
330
20E3A
330
20E15
330
20DFB
330
20DE1
330
1F2B5
330
1DAC7
330
1D333
330
1D2D6
330
1AC2C
330
1AC27
102
}
330
746F
100
AcDbSymbolTableRecord
100
AcDbDimStyleTableRecord
  2
INABA_S40G
 70
     0
 40
40.0
 41
2.5
 42
0.5
 43
7.0
 44
1.5
 73
     0
 74
     0
 77
     3
 78
     8
140
3.0
141
0.0
143
0.0394
147
1.0
172
     1
173
     1
174
     1
178
     7
271
     1
340
F706
341
F770
343
F770
344
F770
  0
ENDTAB
  0
TABLE
  2
BLOCK_RECORD
  5
7466
330
0
100
AcDbSymbolTable
 70
    41
  0
BLOCK_RECORD
  5
747D
330
7466
100
AcDbSymbolTableRecord
100
AcDbBlockTableRecord
  2
*MODEL_SPACE
340
173D5
  0
BLOCK_RECORD
  5
747A
330
7466
100
AcDbSymbolTableRecord
100
AcDbBlockTableRecord
  2
*PAPER_SPACE
340
173D6
  0
BLOCK_RECORD
  5
F770
330
7466
100
AcDbSymbolTableRecord
100
AcDbBlockTableRecord
  2
_DOTSMALL
340
0
102
{BLKREFS
331
257D2
331
257D3
331
257DB
331
257DC
331
257E4
331
257E5
331
257ED
331
257EE
331
257F6
331
257F7
331
25801
331
25802
331
2580C
331
2580D
331
25816
331
25817
331
2581F
331
25820
331
25828
331
25829
331
25831
331
25832
331
2583B
331
2583C
331
25845
331
25846
331
2584E
331
2584F
331
25857
331
25858
331
25861
331
25862
331
2586A
331
2586B
331
25873
331
25874
331
2587C
331
2587D
331
25886
331
25887
331
25890
331
25891
331
2589A
331
2589B
331
258A4
331
258A5
331
258AD
331
258AE
331
258B6
331
258B7
331
258BF
331
258C0
331
258C9
331
258CA
331
258D2
331
258D3
331
258DB
331
258DC
331
258E4
331
258E5
331
258ED
331
258EE
331
258F6
331
258F7
331
25900
331
25901
331
2590A
331
2590B
331
25915
331
25916
331
25920
331
25921
331
2592B
331
2592C
331
25936
331
25937
331
2593F
331
25940
331
2594A
331
2594B
102
}
  0
BLOCK_RECORD
  5
1DAD7
330
7466
100
AcDbSymbolTableRecord
100
AcDbBlockTableRecord
  2
*D1
340
0
  0
BLOCK_RECORD
  5
1F627
330
7466
100
AcDbSymbolTableRecord
100
AcDbBlockTableRecord
  2
*D2
340
0
  0
BLOCK_RECORD
  5
20DE2
330
7466
100
AcDbSymbolTableRecord
100
AcDbBlockTableRecord
  2
*D3
340
0
  0
BLOCK_RECORD
  5
20DFC
330
7466
100
AcDbSymbolTableRecord
100
AcDbBlockTableRecord
  2
*D4
340
0
  0
BLOCK_RECORD
  5
20E16
330
7466
100
AcDbSymbolTableRecord
100
AcDbBlockTableRecord
  2
*D5
340
0
  0
BLOCK_RECORD
  5
20E3B
330
7466
100
AcDbSymbolTableRecord
100
AcDbBlockTableRecord
  2
*D6
340
0
  0
BLOCK_RECORD
  5
2196C
330
7466
100
AcDbSymbolTableRecord
100
AcDbBlockTableRecord
  2
*D7
340
0
  0
BLOCK_RECORD
  5
21979
330
7466
100
AcDbSymbolTableRecord
100
AcDbBlockTableRecord
  2
*D8
340
0
  0
BLOCK_RECORD
  5
21986
330
7466
100
AcDbSymbolTableRecord
100
AcDbBlockTableRecord
  2
*D9
340
0
  0
BLOCK_RECORD
  5
21991
330
7466
100
AcDbSymbolTableRecord
100
AcDbBlockTableRecord
  2
*D10
340
0
  0
BLOCK_RECORD
  5
2199D
330
7466
100
AcDbSymbolTableRecord
100
AcDbBlockTableRecord
  2
*D11
340
0
  0
BLOCK_RECORD
  5
219A8
330
7466
100
AcDbSymbolTableRecord
100
AcDbBlockTableRecord
  2
*D12
340
0
  0
BLOCK_RECORD
  5
219B4
330
7466
100
AcDbSymbolTableRecord
100
AcDbBlockTableRecord
  2
*D13
340
0
  0
BLOCK_RECORD
  5
219DD
330
7466
100
AcDbSymbolTableRecord
100
AcDbBlockTableRecord
  2
*D14
340
0
  0
BLOCK_RECORD
  5
219E8
330
7466
100
AcDbSymbolTableRecord
100
AcDbBlockTableRecord
  2
*D15
340
0
  0
BLOCK_RECORD
  5
219F4
330
7466
100
AcDbSymbolTableRecord
100
AcDbBlockTableRecord
  2
*D16
340
0
  0
BLOCK_RECORD
  5
21A0E
330
7466
100
AcDbSymbolTableRecord
100
AcDbBlockTableRecord
  2
*D17
340
0
  0
BLOCK_RECORD
  5
21A1B
330
7466
100
AcDbSymbolTableRecord
100
AcDbBlockTableRecord
  2
*D18
340
0
  0
BLOCK_RECORD
  5
21A28
330
7466
100
AcDbSymbolTableRecord
100
AcDbBlockTableRecord
  2
*D19
340
0
  0
BLOCK_RECORD
  5
21A35
330
7466
100
AcDbSymbolTableRecord
100
AcDbBlockTableRecord
  2
*D20
340
0
  0
BLOCK_RECORD
  5
21A41
330
7466
100
AcDbSymbolTableRecord
100
AcDbBlockTableRecord
  2
*D21
340
0
  0
BLOCK_RECORD
  5
21A66
330
7466
100
AcDbSymbolTableRecord
100
AcDbBlockTableRecord
  2
*D22
340
0
  0
BLOCK_RECORD
  5
21A72
330
7466
100
AcDbSymbolTableRecord
100
AcDbBlockTableRecord
  2
*D23
340
0
  0
BLOCK_RECORD
  5
21A7F
330
7466
100
AcDbSymbolTableRecord
100
AcDbBlockTableRecord
  2
*D24
340
0
  0
BLOCK_RECORD
  5
21A8B
330
7466
100
AcDbSymbolTableRecord
100
AcDbBlockTableRecord
  2
*D25
340
0
  0
BLOCK_RECORD
  5
21AA3
330
7466
100
AcDbSymbolTableRecord
100
AcDbBlockTableRecord
  2
*D26
340
0
  0
BLOCK_RECORD
  5
21AB0
330
7466
100
AcDbSymbolTableRecord
100
AcDbBlockTableRecord
  2
*D27
340
0
  0
BLOCK_RECORD
  5
21AE2
330
7466
100
AcDbSymbolTableRecord
100
AcDbBlockTableRecord
  2
*D28
340
0
  0
BLOCK_RECORD
  5
21AEF
330
7466
100
AcDbSymbolTableRecord
100
AcDbBlockTableRecord
  2
*D29
340
0
  0
BLOCK_RECORD
  5
2227C
330
7466
100
AcDbSymbolTableRecord
100
AcDbBlockTableRecord
  2
*D30
340
0
  0
BLOCK_RECORD
  5
222D6
330
7466
100
AcDbSymbolTableRecord
100
AcDbBlockTableRecord
  2
*D31
340
0
  0
BLOCK_RECORD
  5
24B75
330
7466
100
AcDbSymbolTableRecord
100
AcDbBlockTableRecord
  2
*D32
340
0
  0
BLOCK_RECORD
  5
24CFF
330
7466
100
AcDbSymbolTableRecord
100
AcDbBlockTableRecord
  2
*D33
340
0
  0
BLOCK_RECORD
  5
250A8
330
7466
100
AcDbSymbolTableRecord
100
AcDbBlockTableRecord
  2
*D34
340
0
  0
BLOCK_RECORD
  5
25664
330
7466
100
AcDbSymbolTableRecord
100
AcDbBlockTableRecord
  2
*D35
340
0
  0
BLOCK_RECORD
  5
25672
330
7466
100
AcDbSymbolTableRecord
100
AcDbBlockTableRecord
  2
*D36
340
0
  0
BLOCK_RECORD
  5
2567D
330
7466
100
AcDbSymbolTableRecord
100
AcDbBlockTableRecord
  2
*D37
340
0
  0
BLOCK_RECORD
  5
25689
330
7466
100
AcDbSymbolTableRecord
100
AcDbBlockTableRecord
  2
*D38
340
0
  0
BLOCK_RECORD
  5
25695
330
7466
100
AcDbSymbolTableRecord
100
AcDbBlockTableRecord
  2
*D39
340
0
  0
BLOCK_RECORD
  5
256A1
330
7466
100
AcDbSymbolTableRecord
100
AcDbBlockTableRecord
  2
*D40
340
0
  0
ENDTAB
  0
ENDSEC
  0
SECTION
  2
BLOCKS
  0
BLOCK
  5
7489
330
747D
100
AcDbEntity
  8
0
100
AcDbBlockBegin
  2
*MODEL_SPACE
 70
     0
 10
0.0
 20
0.0
 30
0.0
  3
*MODEL_SPACE
  1

  0
ENDBLK
  5
748A
330
747D
100
AcDbEntity
  8
0
100
AcDbBlockEnd
  0
BLOCK
  5
7487
330
747A
100
AcDbEntity
 67
     1
  8
0
100
AcDbBlockBegin
  2
*PAPER_SPACE
 70
     0
 10
0.0
 20
0.0
 30
0.0
  3
*PAPER_SPACE
  1

  0
ENDBLK
  5
7488
330
747A
100
AcDbEntity
 67
     1
  8
0
100
AcDbBlockEnd
  0
BLOCK
  5
F771
330
F770
100
AcDbEntity
  8
0
 48
50.0
100
AcDbBlockBegin
  2
_DOTSMALL
 70
     0
 10
0.0
 20
0.0
 30
0.0
  3
_DOTSMALL
  1

  0
LWPOLYLINE
  5
F772
330
F770
100
AcDbEntity
  8
0
  6
ByBlock
 62
     0
 48
50.0
100
AcDbPolyline
 90
        2
 70
     1
 43
0.5
 10
-0.0625
 20
0.0
 42
1.0
 10
0.0625
 20
0.0
 42
1.0
  0
ENDBLK
  5
F776
330
F770
100
AcDbEntity
  8
0
 48
50.0
100
AcDbBlockEnd
  0
BLOCK
  5
1DAE3
330
1DAD7
100
AcDbEntity
  8
0
 48
50.0
100
AcDbBlockBegin
  2
*D1
 70
     1
 10
0.0
 20
0.0
 30
0.0
  3
*D1
  1

  0
LINE
  5
25945
330
1DAD7
100
AcDbEntity
  8
寸法
 62
     0
 48
50.0
370
    -2
100
AcDbLine
 10
8216.600000000001
 20
5591.957947811573
 30
0.0
 11
8523.202780124334
 21
5591.957947811573
 31
0.0
  0
LINE
  5
25946
330
1DAD7
100
AcDbEntity
  8
寸法
 62
     0
 48
50.0
370
    -2
100
AcDbLine
 10
8216.600000000008
 20
5666.957947811575
 30
0.0
 11
8523.202780124334
 21
5666.957947811575
 31
0.0
  0
LINE
  5
25947
330
1DAD7
100
AcDbEntity
  8
寸法
 62
     0
 48
50.0
370
    -2
100
AcDbLine
 10
8463.202780124335
 20
5666.957947811575
 30
0.0
 11
8463.202780124335
 21
5766.957947811575
 31
0.0
  0
LINE
  5
25948
330
1DAD7
100
AcDbEntity
  8
寸法
 62
     0
 48
50.0
370
    -2
100
AcDbLine
 10
8463.202780124335
 20
5591.957947811573
 30
0.0
 11
8463.202780124335
 21
4724.987385063097
 31
0.0
  0
LINE
  5
25949
330
1DAD7
100
AcDbEntity
  8
寸法
 62
     0
 48
50.0
370
    -2
100
AcDbLine
 10
8463.202780124335
 20
5666.957947811575
 30
0.0
 11
8463.202780124335
 21
5591.957947811573
 31
0.0
  0
INSERT
  5
2594A
330
1DAD7
100
AcDbEntity
  8
寸法
 62
     0
 48
50.0
370
    -2
100
AcDbBlockReference
  2
_DOTSMALL
 10
8463.202780124335
 20
5666.957947811575
 30
0.0
 41
100.0
 42
100.0
 43
100.0
 50
270.0
  0
INSERT
  5
2594B
330
1DAD7
100
AcDbEntity
  8
寸法
 62
     0
 48
50.0
370
    -2
100
AcDbBlockReference
  2
_DOTSMALL
 10
8463.202780124335
 20
5591.957947811573
 30
0.0
 41
100.0
 42
100.0
 43
100.0
 50
90.0
  0
MTEXT
  5
2594C
330
1DAD7
100
AcDbEntity
  8
寸法
 62
     7
 48
50.0
100
AcDbMText
 10
8363.202780124332
 20
5058.472666437335
 30
0.0
 40
120.0
 41
0.0
 71
     5
 72
     1
  1
\A1;扉の出75
  7
STYLE1
 11
0.0000000000000001
 21
1.0
 31
0.0
 73
     1
 44
1.0
1001
ACAD
1000
MTEXTBEGIN
1070
    73
1070
     1
1070
    44
1040
1.0
1070
    74
1070
     0
1000
MTEXTEND
  0
POINT
  5
2594D
330
1DAD7
100
AcDbEntity
  8
DEFPOINTS
 62
     0
 48
50.0
100
AcDbPoint
 10
8196.600000000001
 20
5591.957947811573
 30
0.0
  0
POINT
  5
2594E
330
1DAD7
100
AcDbEntity
  8
DEFPOINTS
 62
     0
 48
50.0
100
AcDbPoint
 10
8196.600000000008
 20
5666.957947811575
 30
0.0
  0
POINT
  5
2594F
330
1DAD7
100
AcDbEntity
  8
DEFPOINTS
 62
     0
 48
50.0
100
AcDbPoint
 10
8463.202780124335
 20
5666.957947811575
 30
0.0
  0
ENDBLK
  5
1DAE4
330
1DAD7
100
AcDbEntity
  8
0
 48
50.0
100
AcDbBlockEnd
  0
BLOCK
  5
1F631
330
1F627
100
AcDbEntity
  8
0
 48
50.0
100
AcDbBlockBegin
  2
*D2
 70
     1
 10
0.0
 20
0.0
 30
0.0
  3
*D2
  1

  0
LINE
  5
2593C
330
1F627
100
AcDbEntity
  8
寸法
 62
     0
 48
50.0
370
    -2
100
AcDbLine
 10
8196.600000000001
 20
5571.957947811572
 30
0.0
 11
8196.600000000001
 21
5051.222285907241
 31
0.0
  0
LINE
  5
2593D
330
1F627
100
AcDbEntity
  8
寸法
 62
     0
 48
50.0
370
    -2
100
AcDbLine
 10
6008.600000000001
 20
5571.957947811557
 30
0.0
 11
6008.600000000001
 21
5051.222285907241
 31
0.0
  0
LINE
  5
2593E
330
1F627
100
AcDbEntity
  8
寸法
 62
     0
 48
50.0
370
    -2
100
AcDbLine
 10
8196.600000000001
 20
5111.222285907242
 30
0.0
 11
6008.600000000001
 21
5111.222285907242
 31
0.0
  0
INSERT
  5
2593F
330
1F627
100
AcDbEntity
  8
寸法
 62
     0
 48
50.0
370
    -2
100
AcDbBlockReference
  2
_DOTSMALL
 10
8196.600000000001
 20
5111.222285907242
 30
0.0
 41
100.0
 42
100.0
 43
100.0
  0
INSERT
  5
25940
330
1F627
100
AcDbEntity
  8
寸法
 62
     0
 48
50.0
370
    -2
100
AcDbBlockReference
  2
_DOTSMALL
 10
6008.600000000001
 20
5111.222285907242
 30
0.0
 41
100.0
 42
100.0
 43
100.0
 50
180.0
  0
MTEXT
  5
25941
330
1F627
100
AcDbEntity
  8
寸法
 62
     7
 48
50.0
100
AcDbMText
 10
7084.541003256311
 20
5211.234096930863
 30
0.0
 40
120.0
 41
0.0
 71
     5
 72
     1
  1
\A1;2188
  7
STYLE1
 73
     1
 44
1.0
1001
ACAD
1000
MTEXTBEGIN
1070
    73
1070
     1
1070
    44
1040
1.0
1070
    74
1070
     0
1000
MTEXTEND
  0
POINT
  5
25942
330
1F627
100
AcDbEntity
  8
DEFPOINTS
 62
     0
 48
50.0
100
AcDbPoint
 10
8196.600000000001
 20
5591.957947811572
 30
0.0
  0
POINT
  5
25943
330
1F627
100
AcDbEntity
  8
DEFPOINTS
 62
     0
 48
50.0
100
AcDbPoint
 10
6008.600000000001
 20
5591.957947811557
 30
0.0
  0
POINT
  5
25944
330
1F627
100
AcDbEntity
  8
DEFPOINTS
 62
     0
 48
50.0
100
AcDbPoint
 10
6008.600000000001
 20
5111.222285907242
 30
0.0
  0
ENDBLK
  5
1F632
330
1F627
100
AcDbEntity
  8
0
 48
50.0
100
AcDbBlockEnd
  0
BLOCK
  5
20DEE
330
20DE2
100
AcDbEntity
  8
0
 48
50.0
100
AcDbBlockBegin
  2
*D3
 70
     1
 10
0.0
 20
0.0
 30
0.0
  3
*D3
  1

  0
LINE
  5
25931
330
20DE2
100
AcDbEntity
  8
寸法
 62
     0
 48
50.0
370
    -2
100
AcDbLine
 10
10438.6
 20
8746.95794781155
 30
0.0
 11
10438.6
 21
9745.178269870471
 31
0.0
  0
LINE
  5
25932
330
20DE2
100
AcDbEntity
  8
寸法
 62
     0
 48
50.0
370
    -2
100
AcDbLine
 10
10483.6
 20
9492.717574353633
 30
0.0
 11
10483.6
 21
9745.178269870471
 31
0.0
  0
LINE
  5
25933
330
20DE2
100
AcDbEntity
  8
寸法
 62
     0
 48
50.0
370
    -2
100
AcDbLine
 10
10438.6
 20
9685.178269870473
 30
0.0
 11
10338.6
 21
9685.178269870473
 31
0.0
  0
LINE
  5
25934
330
20DE2
100
AcDbEntity
  8
寸法
 62
     0
 48
50.0
370
    -2
100
AcDbLine
 10
10483.6
 20
9685.178269870473
 30
0.0
 11
10820.94924240492
 21
9685.178269870473
 31
0.0
  0
LINE
  5
25935
330
20DE2
100
AcDbEntity
  8
寸法
 62
     0
 48
50.0
370
    -2
100
AcDbLine
 10
10438.6
 20
9685.178269870473
 30
0.0
 11
10483.6
 21
9685.178269870473
 31
0.0
  0
INSERT
  5
25936
330
20DE2
100
AcDbEntity
  8
寸法
 62
     0
 48
50.0
370
    -2
100
AcDbBlockReference
  2
_DOTSMALL
 10
10438.6
 20
9685.178269870473
 30
0.0
 41
100.0
 42
100.0
 43
100.0
  0
INSERT
  5
25937
330
20DE2
100
AcDbEntity
  8
寸法
 62
     0
 48
50.0
370
    -2
100
AcDbBlockReference
  2
_DOTSMALL
 10
10483.6
 20
9685.178269870473
 30
0.0
 41
100.0
 42
100.0
 43
100.0
 50
180.0
  0
MTEXT
  5
25938
330
20DE2
100
AcDbEntity
  8
寸法
 62
     7
 48
50.0
100
AcDbMText
 10
10754.77462120246
 20
9785.178269870472
 30
0.0
 40
120.0
 41
0.0
 71
     5
 72
     1
  1
\A1;a
  7
STYLE1
 73
     1
 44
1.0
1001
ACAD
1000
MTEXTBEGIN
1070
    73
1070
     1
1070
    44
1040
1.0
1070
    74
1070
     0
1000
MTEXTEND
  0
POINT
  5
25939
330
20DE2
100
AcDbEntity
  8
DEFPOINTS
 62
     0
 48
50.0
100
AcDbPoint
 10
10438.6
 20
8726.95794781155
 30
0.0
  0
POINT
  5
2593A
330
20DE2
100
AcDbEntity
  8
DEFPOINTS
 62
     0
 48
50.0
100
AcDbPoint
 10
10483.6
 20
9472.717574353634
 30
0.0
  0
POINT
  5
2593B
330
20DE2
100
AcDbEntity
  8
DEFPOINTS
 62
     0
 48
50.0
100
AcDbPoint
 10
10483.6
 20
9685.178269870473
 30
0.0
  0
ENDBLK
  5
20DEF
330
20DE2
100
AcDbEntity
  8
0
 48
50.0
100
AcDbBlockEnd
  0
BLOCK
  5
20E08
330
20DFC
100
AcDbEntity
  8
0
 48
50.0
100
AcDbBlockBegin
  2
*D4
 70
     1
 10
0.0
 20
0.0
 30
0.0
  3
*D4
  1

  0
LINE
  5
25926
330
20DFC
100
AcDbEntity
  8
寸法
 62
     0
 48
50.0
370
    -2
100
AcDbLine
 10
5963.600000000009
 20
9492.717574353633
 30
0.0
 11
5963.600000000009
 21
9745.178269870471
 31
0.0
  0
LINE
  5
25927
330
20DFC
100
AcDbEntity
  8
寸法
 62
     0
 48
50.0
370
    -2
100
AcDbLine
 10
6008.600000000001
 20
8746.95794781155
 30
0.0
 11
6008.600000000001
 21
9745.178269870471
 31
0.0
  0
LINE
  5
25928
330
20DFC
100
AcDbEntity
  8
寸法
 62
     0
 48
50.0
370
    -2
100
AcDbLine
 10
6008.600000000001
 20
9685.178269870473
 30
0.0
 11
6108.600000000001
 21
9685.178269870473
 31
0.0
  0
LINE
  5
25929
330
20DFC
100
AcDbEntity
  8
寸法
 62
     0
 48
50.0
370
    -2
100
AcDbLine
 10
5963.600000000009
 20
9685.178269870473
 30
0.0
 11
5626.250757595084
 21
9685.178269870473
 31
0.0
  0
LINE
  5
2592A
330
20DFC
100
AcDbEntity
  8
寸法
 62
     0
 48
50.0
370
    -2
100
AcDbLine
 10
6008.600000000001
 20
9685.178269870473
 30
0.0
 11
5963.600000000009
 21
9685.178269870473
 31
0.0
  0
INSERT
  5
2592B
330
20DFC
100
AcDbEntity
  8
寸法
 62
     0
 48
50.0
370
    -2
100
AcDbBlockReference
  2
_DOTSMALL
 10
6008.600000000001
 20
9685.178269870473
 30
0.0
 41
100.0
 42
100.0
 43
100.0
 50
180.0
  0
INSERT
  5
2592C
330
20DFC
100
AcDbEntity
  8
寸法
 62
     0
 48
50.0
370
    -2
100
AcDbBlockReference
  2
_DOTSMALL
 10
5963.600000000009
 20
9685.178269870473
 30
0.0
 41
100.0
 42
100.0
 43
100.0
  0
MTEXT
  5
2592D
330
20DFC
100
AcDbEntity
  8
寸法
 62
     7
 48
50.0
100
AcDbMText
 10
5692.425378797541
 20
9785.178269870472
 30
0.0
 40
120.0
 41
0.0
 71
     5
 72
     1
  1
\A1;a
  7
STYLE1
 73
     1
 44
1.0
1001
ACAD
1000
MTEXTBEGIN
1070
    73
1070
     1
1070
    44
1040
1.0
1070
    74
1070
     0
1000
MTEXTEND
  0
POINT
  5
2592E
330
20DFC
100
AcDbEntity
  8
DEFPOINTS
 62
     0
 48
50.0
100
AcDbPoint
 10
5963.600000000009
 20
9472.717574353634
 30
0.0
  0
POINT
  5
2592F
330
20DFC
100
AcDbEntity
  8
DEFPOINTS
 62
     0
 48
50.0
100
AcDbPoint
 10
6008.600000000001
 20
8726.95794781155
 30
0.0
  0
POINT
  5
25930
330
20DFC
100
AcDbEntity
  8
DEFPOINTS
 62
     0
 48
50.0
100
AcDbPoint
 10
6008.600000000001
 20
9685.178269870473
 30
0.0
  0
ENDBLK
  5
20E09
330
20DFC
100
AcDbEntity
  8
0
 48
50.0
100
AcDbBlockEnd
  0
BLOCK
  5
20E22
330
20E16
100
AcDbEntity
  8
0
 48
50.0
100
AcDbBlockBegin
  2
*D5
 70
     1
 10
0.0
 20
0.0
 30
0.0
  3
*D5
  1

  0
LINE
  5
2591B
330
20E16
100
AcDbEntity
  8
寸法
 62
     0
 48
50.0
370
    -2
100
AcDbLine
 10
5492.657733986181
 20
8801.957947811557
 30
0.0
 11
5207.164931848213
 21
8801.957947811557
 31
0.0
  0
LINE
  5
2591C
330
20E16
100
AcDbEntity
  8
寸法
 62
     0
 48
50.0
370
    -2
100
AcDbLine
 10
5988.600000000004
 20
8726.957947811552
 30
0.0
 11
5207.164931848213
 21
8726.957947811552
 31
0.0
  0
LINE
  5
2591D
330
20E16
100
AcDbEntity
  8
寸法
 62
     0
 48
50.0
370
    -2
100
AcDbLine
 10
5267.164931848213
 20
8801.957947811557
 30
0.0
 11
5267.164931848213
 21
8901.957947811556
 31
0.0
  0
LINE
  5
2591E
330
20E16
100
AcDbEntity
  8
寸法
 62
     0
 48
50.0
370
    -2
100
AcDbLine
 10
5267.164931848213
 20
8726.957947811552
 30
0.0
 11
5267.164931848213
 21
8626.957947811552
 31
0.0
  0
LINE
  5
2591F
330
20E16
100
AcDbEntity
  8
寸法
 62
     0
 48
50.0
370
    -2
100
AcDbLine
 10
5267.164931848213
 20
8801.957947811557
 30
0.0
 11
5267.164931848213
 21
8726.957947811552
 31
0.0
  0
INSERT
  5
25920
330
20E16
100
AcDbEntity
  8
寸法
 62
     0
 48
50.0
370
    -2
100
AcDbBlockReference
  2
_DOTSMALL
 10
5267.164931848213
 20
8801.957947811557
 30
0.0
 41
100.0
 42
100.0
 43
100.0
 50
270.0
  0
INSERT
  5
25921
330
20E16
100
AcDbEntity
  8
寸法
 62
     0
 48
50.0
370
    -2
100
AcDbBlockReference
  2
_DOTSMALL
 10
5267.164931848213
 20
8726.957947811552
 30
0.0
 41
100.0
 42
100.0
 43
100.0
 50
90.0
  0
MTEXT
  5
25922
330
20E16
100
AcDbEntity
  8
寸法
 62
     7
 48
50.0
100
AcDbMText
 10
5167.164931848212
 20
8764.457947811555
 30
0.0
 40
120.0
 41
0.0
 71
     5
 72
     1
  1
\A1;c
  7
STYLE1
 11
0.0000000000000001
 21
1.0
 31
0.0
 73
     1
 44
1.0
1001
ACAD
1000
MTEXTBEGIN
1070
    73
1070
     1
1070
    44
1040
1.0
1070
    74
1070
     0
1000
MTEXTEND
  0
POINT
  5
25923
330
20E16
100
AcDbEntity
  8
DEFPOINTS
 62
     0
 48
50.0
100
AcDbPoint
 10
5512.657733986181
 20
8801.957947811557
 30
0.0
  0
POINT
  5
25924
330
20E16
100
AcDbEntity
  8
DEFPOINTS
 62
     0
 48
50.0
100
AcDbPoint
 10
6008.600000000004
 20
8726.957947811552
 30
0.0
  0
POINT
  5
25925
330
20E16
100
AcDbEntity
  8
DEFPOINTS
 62
     0
 48
50.0
100
AcDbPoint
 10
5267.164931848213
 20
8726.957947811552
 30
0.0
  0
ENDBLK
  5
20E23
330
20E16
100
AcDbEntity
  8
0
 48
50.0
100
AcDbBlockEnd
  0
BLOCK
  5
20E47
330
20E3B
100
AcDbEntity
  8
0
 48
50.0
100
AcDbBlockBegin
  2
*D6
 70
     1
 10
0.0
 20
0.0
 30
0.0
  3
*D6
  1

  0
LINE
  5
25910
330
20E3B
100
AcDbEntity
  8
寸法
 62
     0
 48
50.0
370
    -2
100
AcDbLine
 10
5988.600000000001
 20
5666.95794781154
 30
0.0
 11
5207.164931848213
 21
5666.95794781154
 31
0.0
  0
LINE
  5
25911
330
20E3B
100
AcDbEntity
  8
寸法
 62
     0
 48
50.0
370
    -2
100
AcDbLine
 10
5492.657733986181
 20
5611.957947811563
 30
0.0
 11
5207.164931848213
 21
5611.957947811563
 31
0.0
  0
LINE
  5
25912
330
20E3B
100
AcDbEntity
  8
寸法
 62
     0
 48
50.0
370
    -2
100
AcDbLine
 10
5267.164931848213
 20
5666.95794781154
 30
0.0
 11
5267.164931848213
 21
5766.95794781154
 31
0.0
  0
LINE
  5
25913
330
20E3B
100
AcDbEntity
  8
寸法
 62
     0
 48
50.0
370
    -2
100
AcDbLine
 10
5267.164931848213
 20
5611.957947811563
 30
0.0
 11
5267.164931848213
 21
5511.957947811563
 31
0.0
  0
LINE
  5
25914
330
20E3B
100
AcDbEntity
  8
寸法
 62
     0
 48
50.0
370
    -2
100
AcDbLine
 10
5267.164931848213
 20
5666.95794781154
 30
0.0
 11
5267.164931848213
 21
5611.957947811563
 31
0.0
  0
INSERT
  5
25915
330
20E3B
100
AcDbEntity
  8
寸法
 62
     0
 48
50.0
370
    -2
100
AcDbBlockReference
  2
_DOTSMALL
 10
5267.164931848213
 20
5666.95794781154
 30
0.0
 41
100.0
 42
100.0
 43
100.0
 50
270.0
  0
INSERT
  5
25916
330
20E3B
100
AcDbEntity
  8
寸法
 62
     0
 48
50.0
370
    -2
100
AcDbBlockReference
  2
_DOTSMALL
 10
5267.164931848213
 20
5611.957947811563
 30
0.0
 41
100.0
 42
100.0
 43
100.0
 50
90.0
  0
MTEXT
  5
25917
330
20E3B
100
AcDbEntity
  8
寸法
 62
     7
 48
50.0
100
AcDbMText
 10
5167.164931848212
 20
5639.457947811552
 30
0.0
 40
120.0
 41
0.0
 71
     5
 72
     1
  1
\A1;b
  7
STYLE1
 11
0.0000000000000001
 21
1.0
 31
0.0
 73
     1
 44
1.0
1001
ACAD
1000
MTEXTBEGIN
1070
    73
1070
     1
1070
    44
1040
1.0
1070
    74
1070
     0
1000
MTEXTEND
  0
POINT
  5
25918
330
20E3B
100
AcDbEntity
  8
DEFPOINTS
 62
     0
 48
50.0
100
AcDbPoint
 10
6008.600000000001
 20
5666.95794781154
 30
0.0
  0
POINT
  5
25919
330
20E3B
100
AcDbEntity
  8
DEFPOINTS
 62
     0
 48
50.0
100
AcDbPoint
 10
5512.657733986181
 20
5611.957947811563
 30
0.0
  0
POINT
  5
2591A
330
20E3B
100
AcDbEntity
  8
DEFPOINTS
 62
     0
 48
50.0
100
AcDbPoint
 10
5267.164931848213
 20
5611.957947811563
 30
0.0
  0
ENDBLK
  5
20E48
330
20E3B
100
AcDbEntity
  8
0
 48
50.0
100
AcDbBlockEnd
  0
BLOCK
  5
21977
330
2196C
100
AcDbEntity
  8
0
 48
50.0
100
AcDbBlockBegin
  2
*D7
 70
     1
 10
0.0
 20
0.0
 30
0.0
  3
*D7
  1

  0
LINE
  5
25906
330
2196C
100
AcDbEntity
  8
寸法
 62
     0
 48
50.0
370
    -2
100
AcDbLine
 10
8762.599867447319
 20
5786.957947811565
 30
0.0
 11
8610.14438614211
 21
5786.957947811565
 31
0.0
  0
LINE
  5
25907
330
2196C
100
AcDbEntity
  8
寸法
 62
     0
 48
50.0
370
    -2
100
AcDbLine
 10
8255.600000000001
 20
5896.957947811571
 30
0.0
 11
8730.144386142111
 21
5896.957947811571
 31
0.0
  0
LINE
  5
25908
330
2196C
100
AcDbEntity
  8
寸法
 62
     0
 48
50.0
370
    -2
100
AcDbLine
 10
8670.14438614211
 20
5786.957947811565
 30
0.0
 11
8670.14438614211
 21
5896.957947811571
 31
0.0
  0
LINE
  5
25909
330
2196C
100
AcDbEntity
  8
寸法
 62
     0
 48
50.0
370
    -2
100
AcDbLine
 10
8670.14438614211
 20
5896.957947811571
 30
0.0
 11
8670.14438614211
 21
6291.064247024183
 31
0.0
  0
INSERT
  5
2590A
330
2196C
100
AcDbEntity
  8
寸法
 62
     0
 48
50.0
370
    -2
100
AcDbBlockReference
  2
_DOTSMALL
 10
8670.14438614211
 20
5786.957947811565
 30
0.0
 41
100.0
 42
100.0
 43
100.0
 50
270.0
  0
INSERT
  5
2590B
330
2196C
100
AcDbEntity
  8
寸法
 62
     0
 48
50.0
370
    -2
100
AcDbBlockReference
  2
_DOTSMALL
 10
8670.14438614211
 20
5896.957947811571
 30
0.0
 41
100.0
 42
100.0
 43
100.0
 50
90.0
  0
MTEXT
  5
2590C
330
2196C
100
AcDbEntity
  8
寸法
 62
     7
 48
50.0
100
AcDbMText
 10
8570.144386142109
 20
6167.017002929696
 30
0.0
 40
120.0
 41
0.0
 71
     5
 72
     1
  1
\A1;110
  7
STYLE1
 11
0.0000000000000001
 21
1.0
 31
0.0
 73
     1
 44
1.0
1001
ACAD
1000
MTEXTBEGIN
1070
    73
1070
     1
1070
    44
1040
1.0
1070
    74
1070
     0
1000
MTEXTEND
  0
POINT
  5
2590D
330
2196C
100
AcDbEntity
  8
DEFPOINTS
 62
     0
 48
50.0
100
AcDbPoint
 10
8782.599867447318
 20
5786.957947811565
 30
0.0
  0
POINT
  5
2590E
330
2196C
100
AcDbEntity
  8
DEFPOINTS
 62
     0
 48
50.0
100
AcDbPoint
 10
8235.600000000001
 20
5896.957947811571
 30
0.0
  0
POINT
  5
2590F
330
2196C
100
AcDbEntity
  8
DEFPOINTS
 62
     0
 48
50.0
100
AcDbPoint
 10
8670.14438614211
 20
5896.957947811571
 30
0.0
  0
ENDBLK
  5
21978
330
2196C
100
AcDbEntity
  8
0
 48
50.0
100
AcDbBlockEnd
  0
BLOCK
  5
21984
330
21979
100
AcDbEntity
  8
0
 48
50.0
100
AcDbBlockBegin
  2
*D8
 70
     1
 10
0.0
 20
0.0
 30
0.0
  3
*D8
  1

  0
LINE
  5
258FC
330
21979
100
AcDbEntity
  8
寸法
 62
     0
 48
50.0
370
    -2
100
AcDbLine
 10
8327.41918098816
 20
5666.957947811579
 30
0.0
 11
8730.144386142111
 21
5666.957947811579
 31
0.0
  0
LINE
  5
258FD
330
21979
100
AcDbEntity
  8
寸法
 62
     0
 48
50.0
370
    -2
100
AcDbLine
 10
8762.599867447319
 20
5786.957947811565
 30
0.0
 11
8610.14438614211
 21
5786.957947811565
 31
0.0
  0
LINE
  5
258FE
330
21979
100
AcDbEntity
  8
寸法
 62
     0
 48
50.0
370
    -2
100
AcDbLine
 10
8670.14438614211
 20
5786.957947811565
 30
0.0
 11
8670.14438614211
 21
5666.957947811579
 31
0.0
  0
LINE
  5
258FF
330
21979
100
AcDbEntity
  8
寸法
 62
     0
 48
50.0
370
    -2
100
AcDbLine
 10
8670.14438614211
 20
5666.957947811579
 30
0.0
 11
8670.14438614211
 21
5194.622398749123
 31
0.0
  0
INSERT
  5
25900
330
21979
100
AcDbEntity
  8
寸法
 62
     0
 48
50.0
370
    -2
100
AcDbBlockReference
  2
_DOTSMALL
 10
8670.14438614211
 20
5786.957947811565
 30
0.0
 41
100.0
 42
100.0
 43
100.0
 50
90.0
  0
INSERT
  5
25901
330
21979
100
AcDbEntity
  8
寸法
 62
     0
 48
50.0
370
    -2
100
AcDbBlockReference
  2
_DOTSMALL
 10
8670.14438614211
 20
5666.957947811579
 30
0.0
 41
100.0
 42
100.0
 43
100.0
 50
270.0
  0
MTEXT
  5
25902
330
21979
100
AcDbEntity
  8
寸法
 62
     7
 48
50.0
100
AcDbMText
 10
8570.132575118487
 20
5330.669642843612
 30
0.0
 40
120.0
 41
0.0
 71
     5
 72
     1
  1
\A1;120
  7
STYLE1
 11
0.0000000000000001
 21
1.0
 31
0.0
 73
     1
 44
1.0
1001
ACAD
1000
MTEXTBEGIN
1070
    73
1070
     1
1070
    44
1040
1.0
1070
    74
1070
     0
1000
MTEXTEND
  0
POINT
  5
25903
330
21979
100
AcDbEntity
  8
DEFPOINTS
 62
     0
 48
50.0
100
AcDbPoint
 10
8307.41918098816
 20
5666.957947811579
 30
0.0
  0
POINT
  5
25904
330
21979
100
AcDbEntity
  8
DEFPOINTS
 62
     0
 48
50.0
100
AcDbPoint
 10
8782.599867447318
 20
5786.957947811565
 30
0.0
  0
POINT
  5
25905
330
21979
100
AcDbEntity
  8
DEFPOINTS
 62
     0
 48
50.0
100
AcDbPoint
 10
8670.14438614211
 20
5786.957947811565
 30
0.0
  0
ENDBLK
  5
21985
330
21979
100
AcDbEntity
  8
0
 48
50.0
100
AcDbBlockEnd
  0
BLOCK
  5
2198F
330
21986
100
AcDbEntity
  8
0
 48
50.0
100
AcDbBlockBegin
  2
*D9
 70
     1
 10
0.0
 20
0.0
 30
0.0
  3
*D9
  1

  0
LINE
  5
258F3
330
21986
100
AcDbEntity
  8
寸法
 62
     0
 48
50.0
370
    -2
100
AcDbLine
 10
6008.600000000001
 20
8746.957947811552
 30
0.0
 11
6008.600000000001
 21
9745.178269870471
 31
0.0
  0
LINE
  5
258F4
330
21986
100
AcDbEntity
  8
寸法
 62
     0
 48
50.0
370
    -2
100
AcDbLine
 10
10438.6
 20
8746.957947811552
 30
0.0
 11
10438.6
 21
9745.178269870471
 31
0.0
  0
LINE
  5
258F5
330
21986
100
AcDbEntity
  8
寸法
 62
     0
 48
50.0
370
    -2
100
AcDbLine
 10
6008.600000000001
 20
9685.178269870473
 30
0.0
 11
10438.6
 21
9685.178269870473
 31
0.0
  0
INSERT
  5
258F6
330
21986
100
AcDbEntity
  8
寸法
 62
     0
 48
50.0
370
    -2
100
AcDbBlockReference
  2
_DOTSMALL
 10
6008.600000000001
 20
9685.178269870473
 30
0.0
 41
100.0
 42
100.0
 43
100.0
 50
180.0
  0
INSERT
  5
258F7
330
21986
100
AcDbEntity
  8
寸法
 62
     0
 48
50.0
370
    -2
100
AcDbBlockReference
  2
_DOTSMALL
 10
10438.6
 20
9685.178269870473
 30
0.0
 41
100.0
 42
100.0
 43
100.0
  0
MTEXT
  5
258F8
330
21986
100
AcDbEntity
  8
寸法
 62
     7
 48
50.0
100
AcDbMText
 10
8223.600000000001
 20
9785.178269870472
 30
0.0
 40
120.0
 41
0.0
 71
     5
 72
     1
  1
\A1;4430
  7
STYLE1
 73
     1
 44
1.0
1001
ACAD
1000
MTEXTBEGIN
1070
    73
1070
     1
1070
    44
1040
1.0
1070
    74
1070
     0
1000
MTEXTEND
  0
POINT
  5
258F9
330
21986
100
AcDbEntity
  8
DEFPOINTS
 62
     0
 48
50.0
100
AcDbPoint
 10
6008.600000000001
 20
8726.957947811552
 30
0.0
  0
POINT
  5
258FA
330
21986
100
AcDbEntity
  8
DEFPOINTS
 62
     0
 48
50.0
100
AcDbPoint
 10
10438.6
 20
8726.957947811552
 30
0.0
  0
POINT
  5
258FB
330
21986
100
AcDbEntity
  8
DEFPOINTS
 62
     0
 48
50.0
100
AcDbPoint
 10
10438.6
 20
9685.178269870473
 30
0.0
  0
ENDBLK
  5
21990
330
21986
100
AcDbEntity
  8
0
 48
50.0
100
AcDbBlockEnd
  0
BLOCK
  5
2199B
330
21991
100
AcDbEntity
  8
0
 48
50.0
100
AcDbBlockBegin
  2
*D10
 70
     1
 10
0.0
 20
0.0
 30
0.0
  3
*D10
  1

  0
LINE
  5
258EA
330
21991
100
AcDbEntity
  8
寸法
 62
     0
 48
50.0
370
    -2
100
AcDbLine
 10
8983.6
 20
8116.957947811551
 30
0.0
 11
8983.6
 21
9313.867713459881
 31
0.0
  0
LINE
  5
258EB
330
21991
100
AcDbEntity
  8
寸法
 62
     0
 48
50.0
370
    -2
100
AcDbLine
 10
8223.600000000001
 20
8116.957947811551
 30
0.0
 11
8223.600000000001
 21
9313.867713459881
 31
0.0
  0
LINE
  5
258EC
330
21991
100
AcDbEntity
  8
寸法
 62
     0
 48
50.0
370
    -2
100
AcDbLine
 10
8983.6
 20
9253.867713459881
 30
0.0
 11
8223.600000000001
 21
9253.867713459881
 31
0.0
  0
INSERT
  5
258ED
330
21991
100
AcDbEntity
  8
寸法
 62
     0
 48
50.0
370
    -2
100
AcDbBlockReference
  2
_DOTSMALL
 10
8983.6
 20
9253.867713459881
 30
0.0
 41
100.0
 42
100.0
 43
100.0
  0
INSERT
  5
258EE
330
21991
100
AcDbEntity
  8
寸法
 62
     0
 48
50.0
370
    -2
100
AcDbBlockReference
  2
_DOTSMALL
 10
8223.600000000001
 20
9253.867713459881
 30
0.0
 41
100.0
 42
100.0
 43
100.0
 50
180.0
  0
MTEXT
  5
258EF
330
21991
100
AcDbEntity
  8
寸法
 62
     7
 48
50.0
100
AcDbMText
 10
8603.6
 20
9353.86771345988
 30
0.0
 40
120.0
 41
0.0
 71
     5
 72
     1
  1
\A1;760
  7
STYLE1
 73
     1
 44
1.0
1001
ACAD
1000
MTEXTBEGIN
1070
    73
1070
     1
1070
    44
1040
1.0
1070
    74
1070
     0
1000
MTEXTEND
  0
POINT
  5
258F0
330
21991
100
AcDbEntity
  8
DEFPOINTS
 62
     0
 48
50.0
100
AcDbPoint
 10
8983.6
 20
8096.957947811551
 30
0.0
  0
POINT
  5
258F1
330
21991
100
AcDbEntity
  8
DEFPOINTS
 62
     0
 48
50.0
100
AcDbPoint
 10
8223.600000000001
 20
8096.957947811551
 30
0.0
  0
POINT
  5
258F2
330
21991
100
AcDbEntity
  8
DEFPOINTS
 62
     0
 48
50.0
100
AcDbPoint
 10
8223.600000000001
 20
9253.867713459881
 30
0.0
  0
ENDBLK
  5
2199C
330
21991
100
AcDbEntity
  8
0
 48
50.0
100
AcDbBlockEnd
  0
BLOCK
  5
219A6
330
2199D
100
AcDbEntity
  8
0
 48
50.0
100
AcDbBlockBegin
  2
*D11
 70
     1
 10
0.0
 20
0.0
 30
0.0
  3
*D11
  1

  0
LINE
  5
258E1
330
2199D
100
AcDbEntity
  8
寸法
 62
     0
 48
50.0
370
    -2
100
AcDbLine
 10
10315.6
 20
8673.957947811551
 30
0.0
 11
10315.6
 21
9532.717574353638
 31
0.0
  0
LINE
  5
258E2
330
2199D
100
AcDbEntity
  8
寸法
 62
     0
 48
50.0
370
    -2
100
AcDbLine
 10
8105.6
 20
8673.957947811551
 30
0.0
 11
8105.6
 21
9532.717574353638
 31
0.0
  0
LINE
  5
258E3
330
2199D
100
AcDbEntity
  8
寸法
 62
     0
 48
50.0
370
    -2
100
AcDbLine
 10
10315.6
 20
9472.717574353637
 30
0.0
 11
8105.6
 21
9472.717574353637
 31
0.0
  0
INSERT
  5
258E4
330
2199D
100
AcDbEntity
  8
寸法
 62
     0
 48
50.0
370
    -2
100
AcDbBlockReference
  2
_DOTSMALL
 10
10315.6
 20
9472.717574353637
 30
0.0
 41
100.0
 42
100.0
 43
100.0
  0
INSERT
  5
258E5
330
2199D
100
AcDbEntity
  8
寸法
 62
     0
 48
50.0
370
    -2
100
AcDbBlockReference
  2
_DOTSMALL
 10
8105.6
 20
9472.717574353637
 30
0.0
 41
100.0
 42
100.0
 43
100.0
 50
180.0
  0
MTEXT
  5
258E6
330
2199D
100
AcDbEntity
  8
寸法
 62
     7
 48
50.0
100
AcDbMText
 10
9210.600000000001
 20
9572.729385377259
 30
0.0
 40
120.0
 41
0.0
 71
     5
 72
     1
  1
\A1;2210
  7
STYLE1
 73
     1
 44
1.0
1001
ACAD
1000
MTEXTBEGIN
1070
    73
1070
     1
1070
    44
1040
1.0
1070
    74
1070
     0
1000
MTEXTEND
  0
POINT
  5
258E7
330
2199D
100
AcDbEntity
  8
DEFPOINTS
 62
     0
 48
50.0
100
AcDbPoint
 10
10315.6
 20
8653.957947811553
 30
0.0
  0
POINT
  5
258E8
330
2199D
100
AcDbEntity
  8
DEFPOINTS
 62
     0
 48
50.0
100
AcDbPoint
 10
8105.6
 20
8653.957947811553
 30
0.0
  0
POINT
  5
258E9
330
2199D
100
AcDbEntity
  8
DEFPOINTS
 62
     0
 48
50.0
100
AcDbPoint
 10
8105.6
 20
9472.717574353637
 30
0.0
  0
ENDBLK
  5
219A7
330
2199D
100
AcDbEntity
  8
0
 48
50.0
100
AcDbBlockEnd
  0
BLOCK
  5
219B2
330
219A8
100
AcDbEntity
  8
0
 48
50.0
100
AcDbBlockBegin
  2
*D12
 70
     1
 10
0.0
 20
0.0
 30
0.0
  3
*D12
  1

  0
LINE
  5
258D8
330
219A8
100
AcDbEntity
  8
寸法
 62
     0
 48
50.0
370
    -2
100
AcDbLine
 10
6061.600000000001
 20
8603.957947811553
 30
0.0
 11
5452.657733986178
 21
8603.957947811553
 31
0.0
  0
LINE
  5
258D9
330
219A8
100
AcDbEntity
  8
寸法
 62
     0
 48
50.0
370
    -2
100
AcDbLine
 10
6061.600000000009
 20
5789.957947811554
 30
0.0
 11
5452.657733986177
 21
5789.957947811554
 31
0.0
  0
LINE
  5
258DA
330
219A8
100
AcDbEntity
  8
寸法
 62
     0
 48
50.0
370
    -2
100
AcDbLine
 10
5512.657733986178
 20
8603.957947811553
 30
0.0
 11
5512.657733986177
 21
5789.957947811554
 31
0.0
  0
INSERT
  5
258DB
330
219A8
100
AcDbEntity
  8
寸法
 62
     0
 48
50.0
370
    -2
100
AcDbBlockReference
  2
_DOTSMALL
 10
5512.657733986178
 20
8603.957947811553
 30
0.0
 41
100.0
 42
100.0
 43
100.0
 50
90.0
  0
INSERT
  5
258DC
330
219A8
100
AcDbEntity
  8
寸法
 62
     0
 48
50.0
370
    -2
100
AcDbBlockReference
  2
_DOTSMALL
 10
5512.657733986177
 20
5789.957947811554
 30
0.0
 41
100.0
 42
100.0
 43
100.0
 50
270.0
  0
MTEXT
  5
258DD
330
219A8
100
AcDbEntity
  8
寸法
 62
     7
 48
50.0
100
AcDbMText
 10
5412.645922962554
 20
7196.957947811553
 30
0.0
 40
120.0
 41
0.0
 71
     5
 72
     1
  1
\A1;2814
  7
STYLE1
 11
0.0000000000000001
 21
1.0
 31
0.0
 73
     1
 44
1.0
1001
ACAD
1000
MTEXTBEGIN
1070
    73
1070
     1
1070
    44
1040
1.0
1070
    74
1070
     0
1000
MTEXTEND
  0
POINT
  5
258DE
330
219A8
100
AcDbEntity
  8
DEFPOINTS
 62
     0
 48
50.0
100
AcDbPoint
 10
6081.6
 20
8603.957947811553
 30
0.0
  0
POINT
  5
258DF
330
219A8
100
AcDbEntity
  8
DEFPOINTS
 62
     0
 48
50.0
100
AcDbPoint
 10
6081.600000000008
 20
5789.957947811554
 30
0.0
  0
POINT
  5
258E0
330
219A8
100
AcDbEntity
  8
DEFPOINTS
 62
     0
 48
50.0
100
AcDbPoint
 10
5512.657733986177
 20
5789.957947811554
 30
0.0
  0
ENDBLK
  5
219B3
330
219A8
100
AcDbEntity
  8
0
 48
50.0
100
AcDbBlockEnd
  0
BLOCK
  5
219BD
330
219B4
100
AcDbEntity
  8
0
 48
50.0
100
AcDbBlockBegin
  2
*D13
 70
     1
 10
0.0
 20
0.0
 30
0.0
  3
*D13
  1

  0
LINE
  5
258CF
330
219B4
100
AcDbEntity
  8
寸法
 62
     0
 48
50.0
370
    -2
100
AcDbLine
 10
5988.600000000001
 20
8726.957947811552
 30
0.0
 11
5207.164931848211
 21
8726.957947811552
 31
0.0
  0
LINE
  5
258D0
330
219B4
100
AcDbEntity
  8
寸法
 62
     0
 48
50.0
370
    -2
100
AcDbLine
 10
5988.600000000001
 20
5666.957947811551
 30
0.0
 11
5207.164931848211
 21
5666.957947811551
 31
0.0
  0
LINE
  5
258D1
330
219B4
100
AcDbEntity
  8
寸法
 62
     0
 48
50.0
370
    -2
100
AcDbLine
 10
5267.164931848212
 20
8726.957947811552
 30
0.0
 11
5267.16493184821
 21
5666.957947811551
 31
0.0
  0
INSERT
  5
258D2
330
219B4
100
AcDbEntity
  8
寸法
 62
     0
 48
50.0
370
    -2
100
AcDbBlockReference
  2
_DOTSMALL
 10
5267.164931848212
 20
8726.957947811552
 30
0.0
 41
100.0
 42
100.0
 43
100.0
 50
90.0
  0
INSERT
  5
258D3
330
219B4
100
AcDbEntity
  8
寸法
 62
     0
 48
50.0
370
    -2
100
AcDbBlockReference
  2
_DOTSMALL
 10
5267.16493184821
 20
5666.957947811551
 30
0.0
 41
100.0
 42
100.0
 43
100.0
 50
270.0
  0
MTEXT
  5
258D4
330
219B4
100
AcDbEntity
  8
寸法
 62
     7
 48
50.0
100
AcDbMText
 10
5167.164931848209
 20
7196.957947811553
 30
0.0
 40
120.0
 41
0.0
 71
     5
 72
     1
  1
\A1;3060
  7
STYLE1
 11
0.0000000000000001
 21
1.0
 31
0.0
 73
     1
 44
1.0
1001
ACAD
1000
MTEXTBEGIN
1070
    73
1070
     1
1070
    44
1040
1.0
1070
    74
1070
     0
1000
MTEXTEND
  0
POINT
  5
258D5
330
219B4
100
AcDbEntity
  8
DEFPOINTS
 62
     0
 48
50.0
100
AcDbPoint
 10
6008.600000000001
 20
8726.957947811552
 30
0.0
  0
POINT
  5
258D6
330
219B4
100
AcDbEntity
  8
DEFPOINTS
 62
     0
 48
50.0
100
AcDbPoint
 10
6008.600000000001
 20
5666.957947811551
 30
0.0
  0
POINT
  5
258D7
330
219B4
100
AcDbEntity
  8
DEFPOINTS
 62
     0
 48
50.0
100
AcDbPoint
 10
5267.16493184821
 20
5666.957947811551
 30
0.0
  0
ENDBLK
  5
219BE
330
219B4
100
AcDbEntity
  8
0
 48
50.0
100
AcDbBlockEnd
  0
BLOCK
  5
219E6
330
219DD
100
AcDbEntity
  8
0
 48
50.0
100
AcDbBlockBegin
  2
*D14
 70
     1
 10
0.0
 20
0.0
 30
0.0
  3
*D14
  1

  0
LINE
  5
258B3
330
219DD
100
AcDbEntity
  8
寸法
 62
     0
 48
50.0
370
    -2
100
AcDbLine
 10
6773.6
 20
8116.957947811551
 30
0.0
 11
6773.6
 21
9313.867713459881
 31
0.0
  0
LINE
  5
258B4
330
219DD
100
AcDbEntity
  8
寸法
 62
     0
 48
50.0
370
    -2
100
AcDbLine
 10
6008.600000000001
 20
8746.957947811552
 30
0.0
 11
6008.600000000001
 21
9313.867713459881
 31
0.0
  0
LINE
  5
258B5
330
219DD
100
AcDbEntity
  8
寸法
 62
     0
 48
50.0
370
    -2
100
AcDbLine
 10
6773.6
 20
9253.867713459881
 30
0.0
 11
6008.600000000001
 21
9253.867713459881
 31
0.0
  0
INSERT
  5
258B6
330
219DD
100
AcDbEntity
  8
寸法
 62
     0
 48
50.0
370
    -2
100
AcDbBlockReference
  2
_DOTSMALL
 10
6773.6
 20
9253.867713459881
 30
0.0
 41
100.0
 42
100.0
 43
100.0
  0
INSERT
  5
258B7
330
219DD
100
AcDbEntity
  8
寸法
 62
     0
 48
50.0
370
    -2
100
AcDbBlockReference
  2
_DOTSMALL
 10
6008.600000000001
 20
9253.867713459881
 30
0.0
 41
100.0
 42
100.0
 43
100.0
 50
180.0
  0
MTEXT
  5
258B8
330
219DD
100
AcDbEntity
  8
寸法
 62
     7
 48
50.0
100
AcDbMText
 10
6391.100000000001
 20
9353.86771345988
 30
0.0
 40
120.0
 41
0.0
 71
     5
 72
     1
  1
\A1;765
  7
STYLE1
 73
     1
 44
1.0
1001
ACAD
1000
MTEXTBEGIN
1070
    73
1070
     1
1070
    44
1040
1.0
1070
    74
1070
     0
1000
MTEXTEND
  0
POINT
  5
258B9
330
219DD
100
AcDbEntity
  8
DEFPOINTS
 62
     0
 48
50.0
100
AcDbPoint
 10
6773.6
 20
8096.957947811551
 30
0.0
  0
POINT
  5
258BA
330
219DD
100
AcDbEntity
  8
DEFPOINTS
 62
     0
 48
50.0
100
AcDbPoint
 10
6008.600000000001
 20
8726.957947811552
 30
0.0
  0
POINT
  5
258BB
330
219DD
100
AcDbEntity
  8
DEFPOINTS
 62
     0
 48
50.0
100
AcDbPoint
 10
6008.600000000001
 20
9253.867713459881
 30
0.0
  0
ENDBLK
  5
219E7
330
219DD
100
AcDbEntity
  8
0
 48
50.0
100
AcDbBlockEnd
  0
BLOCK
  5
219F2
330
219E8
100
AcDbEntity
  8
0
 48
50.0
100
AcDbBlockBegin
  2
*D15
 70
     1
 10
0.0
 20
0.0
 30
0.0
  3
*D15
  1

  0
LINE
  5
258AA
330
219E8
100
AcDbEntity
  8
寸法
 62
     0
 48
50.0
370
    -2
100
AcDbLine
 10
8105.6
 20
8673.957947811551
 30
0.0
 11
8105.6
 21
9532.717574353638
 31
0.0
  0
LINE
  5
258AB
330
219E8
100
AcDbEntity
  8
寸法
 62
     0
 48
50.0
370
    -2
100
AcDbLine
 10
6131.6
 20
8673.957947811551
 30
0.0
 11
6131.6
 21
9532.717574353638
 31
0.0
  0
LINE
  5
258AC
330
219E8
100
AcDbEntity
  8
寸法
 62
     0
 48
50.0
370
    -2
100
AcDbLine
 10
8105.6
 20
9472.717574353637
 30
0.0
 11
6131.6
 21
9472.717574353637
 31
0.0
  0
INSERT
  5
258AD
330
219E8
100
AcDbEntity
  8
寸法
 62
     0
 48
50.0
370
    -2
100
AcDbBlockReference
  2
_DOTSMALL
 10
8105.6
 20
9472.717574353637
 30
0.0
 41
100.0
 42
100.0
 43
100.0
  0
INSERT
  5
258AE
330
219E8
100
AcDbEntity
  8
寸法
 62
     0
 48
50.0
370
    -2
100
AcDbBlockReference
  2
_DOTSMALL
 10
6131.6
 20
9472.717574353637
 30
0.0
 41
100.0
 42
100.0
 43
100.0
 50
180.0
  0
MTEXT
  5
258AF
330
219E8
100
AcDbEntity
  8
寸法
 62
     7
 48
50.0
100
AcDbMText
 10
7118.6
 20
9572.717574353637
 30
0.0
 40
120.0
 41
0.0
 71
     5
 72
     1
  1
\A1;1974
  7
STYLE1
 73
     1
 44
1.0
1001
ACAD
1000
MTEXTBEGIN
1070
    73
1070
     1
1070
    44
1040
1.0
1070
    74
1070
     0
1000
MTEXTEND
  0
POINT
  5
258B0
330
219E8
100
AcDbEntity
  8
DEFPOINTS
 62
     0
 48
50.0
100
AcDbPoint
 10
8105.6
 20
8653.957947811553
 30
0.0
  0
POINT
  5
258B1
330
219E8
100
AcDbEntity
  8
DEFPOINTS
 62
     0
 48
50.0
100
AcDbPoint
 10
6131.6
 20
8653.957947811553
 30
0.0
  0
POINT
  5
258B2
330
219E8
100
AcDbEntity
  8
DEFPOINTS
 62
     0
 48
50.0
100
AcDbPoint
 10
6131.6
 20
9472.717574353637
 30
0.0
  0
ENDBLK
  5
219F3
330
219E8
100
AcDbEntity
  8
0
 48
50.0
100
AcDbBlockEnd
  0
BLOCK
  5
219FF
330
219F4
100
AcDbEntity
  8
0
 48
50.0
100
AcDbBlockBegin
  2
*D16
 70
     1
 10
0.0
 20
0.0
 30
0.0
  3
*D16
  1

  0
LINE
  5
258A0
330
219F4
100
AcDbEntity
  8
寸法
 62
     0
 48
50.0
370
    -2
100
AcDbLine
 10
6131.6
 20
8673.957947811551
 30
0.0
 11
6131.6
 21
9532.717574353638
 31
0.0
  0
LINE
  5
258A1
330
219F4
100
AcDbEntity
  8
寸法
 62
     0
 48
50.0
370
    -2
100
AcDbLine
 10
6008.600000000001
 20
8746.957947811552
 30
0.0
 11
6008.600000000001
 21
9532.717574353638
 31
0.0
  0
LINE
  5
258A2
330
219F4
100
AcDbEntity
  8
寸法
 62
     0
 48
50.0
370
    -2
100
AcDbLine
 10
6131.6
 20
9472.717574353637
 30
0.0
 11
6008.600000000001
 21
9472.717574353637
 31
0.0
  0
LINE
  5
258A3
330
219F4
100
AcDbEntity
  8
寸法
 62
     0
 48
50.0
370
    -2
100
AcDbLine
 10
6008.600000000001
 20
9472.717574353637
 30
0.0
 11
5597.008116907967
 21
9472.717574353637
 31
0.0
  0
INSERT
  5
258A4
330
219F4
100
AcDbEntity
  8
寸法
 62
     0
 48
50.0
370
    -2
100
AcDbBlockReference
  2
_DOTSMALL
 10
6131.6
 20
9472.717574353637
 30
0.0
 41
100.0
 42
100.0
 43
100.0
  0
INSERT
  5
258A5
330
219F4
100
AcDbEntity
  8
寸法
 62
     0
 48
50.0
370
    -2
100
AcDbBlockReference
  2
_DOTSMALL
 10
6008.600000000001
 20
9472.717574353637
 30
0.0
 41
100.0
 42
100.0
 43
100.0
 50
180.0
  0
MTEXT
  5
258A6
330
219F4
100
AcDbEntity
  8
寸法
 62
     7
 48
50.0
100
AcDbMText
 10
5735.493398282206
 20
9572.729385377259
 30
0.0
 40
120.0
 41
0.0
 71
     5
 72
     1
  1
\A1;123
  7
STYLE1
 73
     1
 44
1.0
1001
ACAD
1000
MTEXTBEGIN
1070
    73
1070
     1
1070
    44
1040
1.0
1070
    74
1070
     0
1000
MTEXTEND
  0
POINT
  5
258A7
330
219F4
100
AcDbEntity
  8
DEFPOINTS
 62
     0
 48
50.0
100
AcDbPoint
 10
6131.6
 20
8653.957947811553
 30
0.0
  0
POINT
  5
258A8
330
219F4
100
AcDbEntity
  8
DEFPOINTS
 62
     0
 48
50.0
100
AcDbPoint
 10
6008.600000000001
 20
8726.957947811552
 30
0.0
  0
POINT
  5
258A9
330
219F4
100
AcDbEntity
  8
DEFPOINTS
 62
     0
 48
50.0
100
AcDbPoint
 10
6008.600000000001
 20
9472.717574353637
 30
0.0
  0
ENDBLK
  5
21A00
330
219F4
100
AcDbEntity
  8
0
 48
50.0
100
AcDbBlockEnd
  0
BLOCK
  5
21A19
330
21A0E
100
AcDbEntity
  8
0
 48
50.0
100
AcDbBlockBegin
  2
*D17
 70
     1
 10
0.0
 20
0.0
 30
0.0
  3
*D17
  1

  0
LINE
  5
25896
330
21A0E
100
AcDbEntity
  8
寸法
 62
     0
 48
50.0
370
    -2
100
AcDbLine
 10
5988.600000000001
 20
8726.957947811552
 30
0.0
 11
5452.657733986178
 21
8726.957947811552
 31
0.0
  0
LINE
  5
25897
330
21A0E
100
AcDbEntity
  8
寸法
 62
     0
 48
50.0
370
    -2
100
AcDbLine
 10
6061.600000000001
 20
8603.957947811553
 30
0.0
 11
5452.657733986178
 21
8603.957947811553
 31
0.0
  0
LINE
  5
25898
330
21A0E
100
AcDbEntity
  8
寸法
 62
     0
 48
50.0
370
    -2
100
AcDbLine
 10
5512.657733986179
 20
8603.957947811553
 30
0.0
 11
5512.657733986179
 21
8726.957947811552
 31
0.0
  0
LINE
  5
25899
330
21A0E
100
AcDbEntity
  8
寸法
 62
     0
 48
50.0
370
    -2
100
AcDbLine
 10
5512.657733986179
 20
8726.957947811552
 30
0.0
 11
5512.657733986179
 21
9138.54983090359
 31
0.0
  0
INSERT
  5
2589A
330
21A0E
100
AcDbEntity
  8
寸法
 62
     0
 48
50.0
370
    -2
100
AcDbBlockReference
  2
_DOTSMALL
 10
5512.657733986179
 20
8603.957947811553
 30
0.0
 41
100.0
 42
100.0
 43
100.0
 50
270.0
  0
INSERT
  5
2589B
330
21A0E
100
AcDbEntity
  8
寸法
 62
     0
 48
50.0
370
    -2
100
AcDbBlockReference
  2
_DOTSMALL
 10
5512.657733986179
 20
8726.957947811552
 30
0.0
 41
100.0
 42
100.0
 43
100.0
 50
90.0
  0
MTEXT
  5
2589C
330
21A0E
100
AcDbEntity
  8
寸法
 62
     7
 48
50.0
100
AcDbMText
 10
5412.645922962556
 20
9000.064549529353
 30
0.0
 40
120.0
 41
0.0
 71
     5
 72
     1
  1
\A1;123
  7
STYLE1
 11
0.0000000000000001
 21
1.0
 31
0.0
 73
     1
 44
1.0
1001
ACAD
1000
MTEXTBEGIN
1070
    73
1070
     1
1070
    44
1040
1.0
1070
    74
1070
     0
1000
MTEXTEND
  0
POINT
  5
2589D
330
21A0E
100
AcDbEntity
  8
DEFPOINTS
 62
     0
 48
50.0
100
AcDbPoint
 10
6008.600000000001
 20
8726.957947811552
 30
0.0
  0
POINT
  5
2589E
330
21A0E
100
AcDbEntity
  8
DEFPOINTS
 62
     0
 48
50.0
100
AcDbPoint
 10
6081.6
 20
8603.957947811553
 30
0.0
  0
POINT
  5
2589F
330
21A0E
100
AcDbEntity
  8
DEFPOINTS
 62
     0
 48
50.0
100
AcDbPoint
 10
5512.657733986179
 20
8603.957947811553
 30
0.0
  0
ENDBLK
  5
21A1A
330
21A0E
100
AcDbEntity
  8
0
 48
50.0
100
AcDbBlockEnd
  0
BLOCK
  5
21A26
330
21A1B
100
AcDbEntity
  8
0
 48
50.0
100
AcDbBlockBegin
  2
*D18
 70
     1
 10
0.0
 20
0.0
 30
0.0
  3
*D18
  1

  0
LINE
  5
2588C
330
21A1B
100
AcDbEntity
  8
寸法
 62
     0
 48
50.0
370
    -2
100
AcDbLine
 10
6258.599999999998
 20
8606.957947811553
 30
0.0
 11
6515.307249876099
 21
8606.957947811553
 31
0.0
  0
LINE
  5
2588D
330
21A1B
100
AcDbEntity
  8
寸法
 62
     0
 48
50.0
370
    -2
100
AcDbLine
 10
6258.600000000001
 20
8726.95794781155
 30
0.0
 11
6515.307249876099
 21
8726.95794781155
 31
0.0
  0
LINE
  5
2588E
330
21A1B
100
AcDbEntity
  8
寸法
 62
     0
 48
50.0
370
    -2
100
AcDbLine
 10
6455.307249876098
 20
8606.957947811553
 30
0.0
 11
6455.307249876098
 21
8726.95794781155
 31
0.0
  0
LINE
  5
2588F
330
21A1B
100
AcDbEntity
  8
寸法
 62
     0
 48
50.0
370
    -2
100
AcDbLine
 10
6455.307249876098
 20
8726.95794781155
 30
0.0
 11
6455.307249876098
 21
9141.088735178925
 31
0.0
  0
INSERT
  5
25890
330
21A1B
100
AcDbEntity
  8
寸法
 62
     0
 48
50.0
370
    -2
100
AcDbBlockReference
  2
_DOTSMALL
 10
6455.307249876098
 20
8606.957947811553
 30
0.0
 41
100.0
 42
100.0
 43
100.0
 50
270.0
  0
INSERT
  5
25891
330
21A1B
100
AcDbEntity
  8
寸法
 62
     0
 48
50.0
370
    -2
100
AcDbBlockReference
  2
_DOTSMALL
 10
6455.307249876098
 20
8726.95794781155
 30
0.0
 41
100.0
 42
100.0
 43
100.0
 50
90.0
  0
MTEXT
  5
25892
330
21A1B
100
AcDbEntity
  8
寸法
 62
     7
 48
50.0
100
AcDbMText
 10
6355.295438852476
 20
9005.041491084439
 30
0.0
 40
120.0
 41
0.0
 71
     5
 72
     1
  1
\A1;120
  7
STYLE1
 11
0.0000000000000001
 21
1.0
 31
0.0
 73
     1
 44
1.0
1001
ACAD
1000
MTEXTBEGIN
1070
    73
1070
     1
1070
    44
1040
1.0
1070
    74
1070
     0
1000
MTEXTEND
  0
POINT
  5
25893
330
21A1B
100
AcDbEntity
  8
DEFPOINTS
 62
     0
 48
50.0
100
AcDbPoint
 10
6238.599999999999
 20
8606.957947811553
 30
0.0
  0
POINT
  5
25894
330
21A1B
100
AcDbEntity
  8
DEFPOINTS
 62
     0
 48
50.0
100
AcDbPoint
 10
6238.6
 20
8726.95794781155
 30
0.0
  0
POINT
  5
25895
330
21A1B
100
AcDbEntity
  8
DEFPOINTS
 62
     0
 48
50.0
100
AcDbPoint
 10
6455.307249876098
 20
8726.95794781155
 30
0.0
  0
ENDBLK
  5
21A27
330
21A1B
100
AcDbEntity
  8
0
 48
50.0
100
AcDbBlockEnd
  0
BLOCK
  5
21A33
330
21A28
100
AcDbEntity
  8
0
 48
50.0
100
AcDbBlockBegin
  2
*D19
 70
     1
 10
0.0
 20
0.0
 30
0.0
  3
*D19
  1

  0
LINE
  5
25882
330
21A28
100
AcDbEntity
  8
寸法
 62
     0
 48
50.0
370
    -2
100
AcDbLine
 10
6258.599999999998
 20
8606.957947811554
 30
0.0
 11
6515.307249876099
 21
8606.957947811554
 31
0.0
  0
LINE
  5
25883
330
21A28
100
AcDbEntity
  8
寸法
 62
     0
 48
50.0
370
    -2
100
AcDbLine
 10
6258.600000000001
 20
8496.95794781155
 30
0.0
 11
6515.307249876099
 21
8496.95794781155
 31
0.0
  0
LINE
  5
25884
330
21A28
100
AcDbEntity
  8
寸法
 62
     0
 48
50.0
370
    -2
100
AcDbLine
 10
6455.307249876098
 20
8606.957947811554
 30
0.0
 11
6455.307249876098
 21
8496.95794781155
 31
0.0
  0
LINE
  5
25885
330
21A28
100
AcDbEntity
  8
寸法
 62
     0
 48
50.0
370
    -2
100
AcDbLine
 10
6455.307249876098
 20
8496.95794781155
 30
0.0
 11
6455.307249876098
 21
8032.851648598947
 31
0.0
  0
INSERT
  5
25886
330
21A28
100
AcDbEntity
  8
寸法
 62
     0
 48
50.0
370
    -2
100
AcDbBlockReference
  2
_DOTSMALL
 10
6455.307249876098
 20
8606.957947811554
 30
0.0
 41
100.0
 42
100.0
 43
100.0
 50
90.0
  0
INSERT
  5
25887
330
21A28
100
AcDbEntity
  8
寸法
 62
     0
 48
50.0
370
    -2
100
AcDbBlockReference
  2
_DOTSMALL
 10
6455.307249876098
 20
8496.95794781155
 30
0.0
 41
100.0
 42
100.0
 43
100.0
 50
270.0
  0
MTEXT
  5
25888
330
21A28
100
AcDbEntity
  8
寸法
 62
     7
 48
50.0
100
AcDbMText
 10
6355.307249876098
 20
8156.898892693439
 30
0.0
 40
120.0
 41
0.0
 71
     5
 72
     1
  1
\A1;110
  7
STYLE1
 11
0.0000000000000001
 21
1.0
 31
0.0
 73
     1
 44
1.0
1001
ACAD
1000
MTEXTBEGIN
1070
    73
1070
     1
1070
    44
1040
1.0
1070
    74
1070
     0
1000
MTEXTEND
  0
POINT
  5
25889
330
21A28
100
AcDbEntity
  8
DEFPOINTS
 62
     0
 48
50.0
100
AcDbPoint
 10
6238.599999999999
 20
8606.957947811554
 30
0.0
  0
POINT
  5
2588A
330
21A28
100
AcDbEntity
  8
DEFPOINTS
 62
     0
 48
50.0
100
AcDbPoint
 10
6238.6
 20
8496.95794781155
 30
0.0
  0
POINT
  5
2588B
330
21A28
100
AcDbEntity
  8
DEFPOINTS
 62
     0
 48
50.0
100
AcDbPoint
 10
6455.307249876098
 20
8496.95794781155
 30
0.0
  0
ENDBLK
  5
21A34
330
21A28
100
AcDbEntity
  8
0
 48
50.0
100
AcDbBlockEnd
  0
BLOCK
  5
21A3F
330
21A35
100
AcDbEntity
  8
0
 48
50.0
100
AcDbBlockBegin
  2
*D20
 70
     1
 10
0.0
 20
0.0
 30
0.0
  3
*D20
  1

  0
LINE
  5
25879
330
21A35
100
AcDbEntity
  8
寸法
 62
     0
 48
50.0
370
    -2
100
AcDbLine
 10
8223.600000000001
 20
8116.957947811551
 30
0.0
 11
8223.600000000001
 21
9313.867713459881
 31
0.0
  0
LINE
  5
2587A
330
21A35
100
AcDbEntity
  8
寸法
 62
     0
 48
50.0
370
    -2
100
AcDbLine
 10
7463.600000000001
 20
8116.957947811551
 30
0.0
 11
7463.600000000001
 21
9313.867713459881
 31
0.0
  0
LINE
  5
2587B
330
21A35
100
AcDbEntity
  8
寸法
 62
     0
 48
50.0
370
    -2
100
AcDbLine
 10
8223.600000000001
 20
9253.867713459881
 30
0.0
 11
7463.600000000001
 21
9253.867713459881
 31
0.0
  0
INSERT
  5
2587C
330
21A35
100
AcDbEntity
  8
寸法
 62
     0
 48
50.0
370
    -2
100
AcDbBlockReference
  2
_DOTSMALL
 10
8223.600000000001
 20
9253.867713459881
 30
0.0
 41
100.0
 42
100.0
 43
100.0
  0
INSERT
  5
2587D
330
21A35
100
AcDbEntity
  8
寸法
 62
     0
 48
50.0
370
    -2
100
AcDbBlockReference
  2
_DOTSMALL
 10
7463.600000000001
 20
9253.867713459881
 30
0.0
 41
100.0
 42
100.0
 43
100.0
 50
180.0
  0
MTEXT
  5
2587E
330
21A35
100
AcDbEntity
  8
寸法
 62
     7
 48
50.0
100
AcDbMText
 10
7843.600000000001
 20
9353.86771345988
 30
0.0
 40
120.0
 41
0.0
 71
     5
 72
     1
  1
\A1;760
  7
STYLE1
 73
     1
 44
1.0
1001
ACAD
1000
MTEXTBEGIN
1070
    73
1070
     1
1070
    44
1040
1.0
1070
    74
1070
     0
1000
MTEXTEND
  0
POINT
  5
2587F
330
21A35
100
AcDbEntity
  8
DEFPOINTS
 62
     0
 48
50.0
100
AcDbPoint
 10
8223.600000000001
 20
8096.957947811551
 30
0.0
  0
POINT
  5
25880
330
21A35
100
AcDbEntity
  8
DEFPOINTS
 62
     0
 48
50.0
100
AcDbPoint
 10
7463.600000000001
 20
8096.957947811551
 30
0.0
  0
POINT
  5
25881
330
21A35
100
AcDbEntity
  8
DEFPOINTS
 62
     0
 48
50.0
100
AcDbPoint
 10
7463.600000000001
 20
9253.867713459881
 30
0.0
  0
ENDBLK
  5
21A40
330
21A35
100
AcDbEntity
  8
0
 48
50.0
100
AcDbBlockEnd
  0
BLOCK
  5
21A4B
330
21A41
100
AcDbEntity
  8
0
 48
50.0
100
AcDbBlockBegin
  2
*D21
 70
     1
 10
0.0
 20
0.0
 30
0.0
  3
*D21
  1

  0
LINE
  5
25870
330
21A41
100
AcDbEntity
  8
寸法
 62
     0
 48
50.0
370
    -2
100
AcDbLine
 10
9553.600000000001
 20
7996.957947811551
 30
0.0
 11
9249.531448609053
 21
7996.957947811551
 31
0.0
  0
LINE
  5
25871
330
21A41
100
AcDbEntity
  8
寸法
 62
     0
 48
50.0
370
    -2
100
AcDbLine
 10
9553.600000000001
 20
7196.957947811569
 30
0.0
 11
9249.531448609053
 21
7196.957947811569
 31
0.0
  0
LINE
  5
25872
330
21A41
100
AcDbEntity
  8
寸法
 62
     0
 48
50.0
370
    -2
100
AcDbLine
 10
9309.531448609051
 20
7996.957947811551
 30
0.0
 11
9309.531448609051
 21
7196.957947811569
 31
0.0
  0
INSERT
  5
25873
330
21A41
100
AcDbEntity
  8
寸法
 62
     0
 48
50.0
370
    -2
100
AcDbBlockReference
  2
_DOTSMALL
 10
9309.531448609051
 20
7996.957947811551
 30
0.0
 41
100.0
 42
100.0
 43
100.0
 50
90.0
  0
INSERT
  5
25874
330
21A41
100
AcDbEntity
  8
寸法
 62
     0
 48
50.0
370
    -2
100
AcDbBlockReference
  2
_DOTSMALL
 10
9309.531448609051
 20
7196.957947811569
 30
0.0
 41
100.0
 42
100.0
 43
100.0
 50
270.0
  0
MTEXT
  5
25875
330
21A41
100
AcDbEntity
  8
寸法
 62
     7
 48
50.0
100
AcDbMText
 10
9209.53144860905
 20
7596.95794781156
 30
0.0
 40
120.0
 41
0.0
 71
     5
 72
     1
  1
\A1;800
  7
STYLE1
 11
0.0000000000000001
 21
1.0
 31
0.0
 73
     1
 44
1.0
1001
ACAD
1000
MTEXTBEGIN
1070
    73
1070
     1
1070
    44
1040
1.0
1070
    74
1070
     0
1000
MTEXTEND
  0
POINT
  5
25876
330
21A41
100
AcDbEntity
  8
DEFPOINTS
 62
     0
 48
50.0
100
AcDbPoint
 10
9573.6
 20
7996.957947811551
 30
0.0
  0
POINT
  5
25877
330
21A41
100
AcDbEntity
  8
DEFPOINTS
 62
     0
 48
50.0
100
AcDbPoint
 10
9573.6
 20
7196.957947811569
 30
0.0
  0
POINT
  5
25878
330
21A41
100
AcDbEntity
  8
DEFPOINTS
 62
     0
 48
50.0
100
AcDbPoint
 10
9309.531448609051
 20
7196.957947811569
 30
0.0
  0
ENDBLK
  5
21A4C
330
21A41
100
AcDbEntity
  8
0
 48
50.0
100
AcDbBlockEnd
  0
BLOCK
  5
21A70
330
21A66
100
AcDbEntity
  8
0
 48
50.0
100
AcDbBlockBegin
  2
*D22
 70
     1
 10
0.0
 20
0.0
 30
0.0
  3
*D22
  1

  0
LINE
  5
25867
330
21A66
100
AcDbEntity
  8
寸法
 62
     0
 48
50.0
370
    -2
100
AcDbLine
 10
9230.045939259559
 20
5666.957947811563
 30
0.0
 11
9369.531448609052
 21
5666.957947811563
 31
0.0
  0
LINE
  5
25868
330
21A66
100
AcDbEntity
  8
寸法
 62
     0
 48
50.0
370
    -2
100
AcDbLine
 10
9553.600000000001
 20
6396.957947811568
 30
0.0
 11
9249.531448609053
 21
6396.957947811568
 31
0.0
  0
LINE
  5
25869
330
21A66
100
AcDbEntity
  8
寸法
 62
     0
 48
50.0
370
    -2
100
AcDbLine
 10
9309.531448609051
 20
5666.957947811563
 30
0.0
 11
9309.531448609051
 21
6396.957947811568
 31
0.0
  0
INSERT
  5
2586A
330
21A66
100
AcDbEntity
  8
寸法
 62
     0
 48
50.0
370
    -2
100
AcDbBlockReference
  2
_DOTSMALL
 10
9309.531448609051
 20
5666.957947811563
 30
0.0
 41
100.0
 42
100.0
 43
100.0
 50
270.0
  0
INSERT
  5
2586B
330
21A66
100
AcDbEntity
  8
寸法
 62
     0
 48
50.0
370
    -2
100
AcDbBlockReference
  2
_DOTSMALL
 10
9309.531448609051
 20
6396.957947811568
 30
0.0
 41
100.0
 42
100.0
 43
100.0
 50
90.0
  0
MTEXT
  5
2586C
330
21A66
100
AcDbEntity
  8
寸法
 62
     7
 48
50.0
100
AcDbMText
 10
9209.53144860905
 20
6031.957947811566
 30
0.0
 40
120.0
 41
0.0
 71
     5
 72
     1
  1
\A1;730
  7
STYLE1
 11
0.0000000000000001
 21
1.0
 31
0.0
 73
     1
 44
1.0
1001
ACAD
1000
MTEXTBEGIN
1070
    73
1070
     1
1070
    44
1040
1.0
1070
    74
1070
     0
1000
MTEXTEND
  0
POINT
  5
2586D
330
21A66
100
AcDbEntity
  8
DEFPOINTS
 62
     0
 48
50.0
100
AcDbPoint
 10
9210.045939259561
 20
5666.957947811563
 30
0.0
  0
POINT
  5
2586E
330
21A66
100
AcDbEntity
  8
DEFPOINTS
 62
     0
 48
50.0
100
AcDbPoint
 10
9573.6
 20
6396.957947811568
 30
0.0
  0
POINT
  5
2586F
330
21A66
100
AcDbEntity
  8
DEFPOINTS
 62
     0
 48
50.0
100
AcDbPoint
 10
9309.531448609051
 20
6396.957947811568
 30
0.0
  0
ENDBLK
  5
21A71
330
21A66
100
AcDbEntity
  8
0
 48
50.0
100
AcDbBlockEnd
  0
BLOCK
  5
21A7D
330
21A72
100
AcDbEntity
  8
0
 48
50.0
100
AcDbBlockBegin
  2
*D23
 70
     1
 10
0.0
 20
0.0
 30
0.0
  3
*D23
  1

  0
LINE
  5
2585D
330
21A72
100
AcDbEntity
  8
寸法
 62
     0
 48
50.0
370
    -2
100
AcDbLine
 10
10318.6
 20
8476.957947811552
 30
0.0
 11
10318.6
 21
8161.066703136828
 31
0.0
  0
LINE
  5
2585E
330
21A72
100
AcDbEntity
  8
寸法
 62
     0
 48
50.0
370
    -2
100
AcDbLine
 10
10208.6
 20
8476.95794781155
 30
0.0
 11
10208.6
 21
8161.066703136828
 31
0.0
  0
LINE
  5
2585F
330
21A72
100
AcDbEntity
  8
寸法
 62
     0
 48
50.0
370
    -2
100
AcDbLine
 10
10318.6
 20
8221.066703136829
 30
0.0
 11
10208.6
 21
8221.066703136829
 31
0.0
  0
LINE
  5
25860
330
21A72
100
AcDbEntity
  8
寸法
 62
     0
 48
50.0
370
    -2
100
AcDbLine
 10
10208.6
 20
8221.066703136829
 30
0.0
 11
9848.505511811024
 21
8221.066703136829
 31
0.0
  0
INSERT
  5
25861
330
21A72
100
AcDbEntity
  8
寸法
 62
     0
 48
50.0
370
    -2
100
AcDbBlockReference
  2
_DOTSMALL
 10
10318.6
 20
8221.066703136829
 30
0.0
 41
100.0
 42
100.0
 43
100.0
  0
INSERT
  5
25862
330
21A72
100
AcDbEntity
  8
寸法
 62
     0
 48
50.0
370
    -2
100
AcDbBlockReference
  2
_DOTSMALL
 10
10208.6
 20
8221.066703136829
 30
0.0
 41
100.0
 42
100.0
 43
100.0
 50
180.0
  0
MTEXT
  5
25863
330
21A72
100
AcDbEntity
  8
寸法
 62
     7
 48
50.0
100
AcDbMText
 10
9972.552755905512
 20
8321.066703136828
 30
0.0
 40
120.0
 41
0.0
 71
     5
 72
     1
  1
\A1;110
  7
STYLE1
 73
     1
 44
1.0
1001
ACAD
1000
MTEXTBEGIN
1070
    73
1070
     1
1070
    44
1040
1.0
1070
    74
1070
     0
1000
MTEXTEND
  0
POINT
  5
25864
330
21A72
100
AcDbEntity
  8
DEFPOINTS
 62
     0
 48
50.0
100
AcDbPoint
 10
10318.6
 20
8496.957947811552
 30
0.0
  0
POINT
  5
25865
330
21A72
100
AcDbEntity
  8
DEFPOINTS
 62
     0
 48
50.0
100
AcDbPoint
 10
10208.6
 20
8496.95794781155
 30
0.0
  0
POINT
  5
25866
330
21A72
100
AcDbEntity
  8
DEFPOINTS
 62
     0
 48
50.0
100
AcDbPoint
 10
10208.6
 20
8221.066703136829
 30
0.0
  0
ENDBLK
  5
21A7E
330
21A72
100
AcDbEntity
  8
0
 48
50.0
100
AcDbBlockEnd
  0
BLOCK
  5
21A89
330
21A7F
100
AcDbEntity
  8
0
 48
50.0
100
AcDbBlockBegin
  2
*D24
 70
     1
 10
0.0
 20
0.0
 30
0.0
  3
*D24
  1

  0
LINE
  5
25854
330
21A7F
100
AcDbEntity
  8
寸法
 62
     0
 48
50.0
370
    -2
100
AcDbLine
 10
10438.6
 20
8746.957947811552
 30
0.0
 11
10438.6
 21
9313.867713459881
 31
0.0
  0
LINE
  5
25855
330
21A7F
100
AcDbEntity
  8
寸法
 62
     0
 48
50.0
370
    -2
100
AcDbLine
 10
9673.6
 20
8116.957947811551
 30
0.0
 11
9673.6
 21
9313.867713459881
 31
0.0
  0
LINE
  5
25856
330
21A7F
100
AcDbEntity
  8
寸法
 62
     0
 48
50.0
370
    -2
100
AcDbLine
 10
10438.6
 20
9253.867713459881
 30
0.0
 11
9673.6
 21
9253.867713459881
 31
0.0
  0
INSERT
  5
25857
330
21A7F
100
AcDbEntity
  8
寸法
 62
     0
 48
50.0
370
    -2
100
AcDbBlockReference
  2
_DOTSMALL
 10
10438.6
 20
9253.867713459881
 30
0.0
 41
100.0
 42
100.0
 43
100.0
  0
INSERT
  5
25858
330
21A7F
100
AcDbEntity
  8
寸法
 62
     0
 48
50.0
370
    -2
100
AcDbBlockReference
  2
_DOTSMALL
 10
9673.6
 20
9253.867713459881
 30
0.0
 41
100.0
 42
100.0
 43
100.0
 50
180.0
  0
MTEXT
  5
25859
330
21A7F
100
AcDbEntity
  8
寸法
 62
     7
 48
50.0
100
AcDbMText
 10
10056.1
 20
9353.86771345988
 30
0.0
 40
120.0
 41
0.0
 71
     5
 72
     1
  1
\A1;765
  7
STYLE1
 73
     1
 44
1.0
1001
ACAD
1000
MTEXTBEGIN
1070
    73
1070
     1
1070
    44
1040
1.0
1070
    74
1070
     0
1000
MTEXTEND
  0
POINT
  5
2585A
330
21A7F
100
AcDbEntity
  8
DEFPOINTS
 62
     0
 48
50.0
100
AcDbPoint
 10
10438.6
 20
8726.957947811552
 30
0.0
  0
POINT
  5
2585B
330
21A7F
100
AcDbEntity
  8
DEFPOINTS
 62
     0
 48
50.0
100
AcDbPoint
 10
9673.6
 20
8096.957947811551
 30
0.0
  0
POINT
  5
2585C
330
21A7F
100
AcDbEntity
  8
DEFPOINTS
 62
     0
 48
50.0
100
AcDbPoint
 10
9673.6
 20
9253.867713459881
 30
0.0
  0
ENDBLK
  5
21A8A
330
21A7F
100
AcDbEntity
  8
0
 48
50.0
100
AcDbBlockEnd
  0
BLOCK
  5
21A94
330
21A8B
100
AcDbEntity
  8
0
 48
50.0
100
AcDbBlockBegin
  2
*D25
 70
     1
 10
0.0
 20
0.0
 30
0.0
  3
*D25
  1

  0
LINE
  5
2584B
330
21A8B
100
AcDbEntity
  8
寸法
 62
     0
 48
50.0
370
    -2
100
AcDbLine
 10
9553.600000000001
 20
7996.957947811551
 30
0.0
 11
9249.531448609053
 21
7996.957947811551
 31
0.0
  0
LINE
  5
2584C
330
21A8B
100
AcDbEntity
  8
寸法
 62
     0
 48
50.0
370
    -2
100
AcDbLine
 10
9134.157431058357
 20
8726.957947811554
 30
0.0
 11
9369.531448609052
 21
8726.957947811554
 31
0.0
  0
LINE
  5
2584D
330
21A8B
100
AcDbEntity
  8
寸法
 62
     0
 48
50.0
370
    -2
100
AcDbLine
 10
9309.531448609051
 20
7996.957947811551
 30
0.0
 11
9309.531448609051
 21
8726.957947811554
 31
0.0
  0
INSERT
  5
2584E
330
21A8B
100
AcDbEntity
  8
寸法
 62
     0
 48
50.0
370
    -2
100
AcDbBlockReference
  2
_DOTSMALL
 10
9309.531448609051
 20
7996.957947811551
 30
0.0
 41
100.0
 42
100.0
 43
100.0
 50
270.0
  0
INSERT
  5
2584F
330
21A8B
100
AcDbEntity
  8
寸法
 62
     0
 48
50.0
370
    -2
100
AcDbBlockReference
  2
_DOTSMALL
 10
9309.531448609051
 20
8726.957947811554
 30
0.0
 41
100.0
 42
100.0
 43
100.0
 50
90.0
  0
MTEXT
  5
25850
330
21A8B
100
AcDbEntity
  8
寸法
 62
     7
 48
50.0
100
AcDbMText
 10
9209.53144860905
 20
8361.957947811553
 30
0.0
 40
120.0
 41
0.0
 71
     5
 72
     1
  1
\A1;730
  7
STYLE1
 11
0.0000000000000001
 21
1.0
 31
0.0
 73
     1
 44
1.0
1001
ACAD
1000
MTEXTBEGIN
1070
    73
1070
     1
1070
    44
1040
1.0
1070
    74
1070
     0
1000
MTEXTEND
  0
POINT
  5
25851
330
21A8B
100
AcDbEntity
  8
DEFPOINTS
 62
     0
 48
50.0
100
AcDbPoint
 10
9573.6
 20
7996.957947811551
 30
0.0
  0
POINT
  5
25852
330
21A8B
100
AcDbEntity
  8
DEFPOINTS
 62
     0
 48
50.0
100
AcDbPoint
 10
9114.157431058357
 20
8726.957947811554
 30
0.0
  0
POINT
  5
25853
330
21A8B
100
AcDbEntity
  8
DEFPOINTS
 62
     0
 48
50.0
100
AcDbPoint
 10
9309.531448609051
 20
8726.957947811554
 30
0.0
  0
ENDBLK
  5
21A95
330
21A8B
100
AcDbEntity
  8
0
 48
50.0
100
AcDbBlockEnd
  0
BLOCK
  5
21AAE
330
21AA3
100
AcDbEntity
  8
0
 48
50.0
100
AcDbBlockBegin
  2
*D26
 70
     1
 10
0.0
 20
0.0
 30
0.0
  3
*D26
  1

  0
LINE
  5
25841
330
21AA3
100
AcDbEntity
  8
寸法
 62
     0
 48
50.0
370
    -2
100
AcDbLine
 10
10438.6
 20
8746.957947811552
 30
0.0
 11
10438.6
 21
9532.717574353638
 31
0.0
  0
LINE
  5
25842
330
21AA3
100
AcDbEntity
  8
寸法
 62
     0
 48
50.0
370
    -2
100
AcDbLine
 10
10315.6
 20
8673.957947811551
 30
0.0
 11
10315.6
 21
9532.717574353638
 31
0.0
  0
LINE
  5
25843
330
21AA3
100
AcDbEntity
  8
寸法
 62
     0
 48
50.0
370
    -2
100
AcDbLine
 10
10315.6
 20
9472.717574353637
 30
0.0
 11
10438.6
 21
9472.717574353637
 31
0.0
  0
LINE
  5
25844
330
21AA3
100
AcDbEntity
  8
寸法
 62
     0
 48
50.0
370
    -2
100
AcDbLine
 10
10438.6
 20
9472.717574353637
 30
0.0
 11
10850.19188309204
 21
9472.717574353637
 31
0.0
  0
INSERT
  5
25845
330
21AA3
100
AcDbEntity
  8
寸法
 62
     0
 48
50.0
370
    -2
100
AcDbBlockReference
  2
_DOTSMALL
 10
10315.6
 20
9472.717574353637
 30
0.0
 41
100.0
 42
100.0
 43
100.0
 50
180.0
  0
INSERT
  5
25846
330
21AA3
100
AcDbEntity
  8
寸法
 62
     0
 48
50.0
370
    -2
100
AcDbBlockReference
  2
_DOTSMALL
 10
10438.6
 20
9472.717574353637
 30
0.0
 41
100.0
 42
100.0
 43
100.0
  0
MTEXT
  5
25847
330
21AA3
100
AcDbEntity
  8
寸法
 62
     7
 48
50.0
100
AcDbMText
 10
10711.7066017178
 20
9572.729385377259
 30
0.0
 40
120.0
 41
0.0
 71
     5
 72
     1
  1
\A1;123
  7
STYLE1
 73
     1
 44
1.0
1001
ACAD
1000
MTEXTBEGIN
1070
    73
1070
     1
1070
    44
1040
1.0
1070
    74
1070
     0
1000
MTEXTEND
  0
POINT
  5
25848
330
21AA3
100
AcDbEntity
  8
DEFPOINTS
 62
     0
 48
50.0
100
AcDbPoint
 10
10438.6
 20
8726.957947811552
 30
0.0
  0
POINT
  5
25849
330
21AA3
100
AcDbEntity
  8
DEFPOINTS
 62
     0
 48
50.0
100
AcDbPoint
 10
10315.6
 20
8653.957947811553
 30
0.0
  0
POINT
  5
2584A
330
21AA3
100
AcDbEntity
  8
DEFPOINTS
 62
     0
 48
50.0
100
AcDbPoint
 10
10315.6
 20
9472.717574353637
 30
0.0
  0
ENDBLK
  5
21AAF
330
21AA3
100
AcDbEntity
  8
0
 48
50.0
100
AcDbBlockEnd
  0
BLOCK
  5
21ABB
330
21AB0
100
AcDbEntity
  8
0
 48
50.0
100
AcDbBlockBegin
  2
*D27
 70
     1
 10
0.0
 20
0.0
 30
0.0
  3
*D27
  1

  0
LINE
  5
25837
330
21AB0
100
AcDbEntity
  8
寸法
 62
     0
 48
50.0
370
    -2
100
AcDbLine
 10
10438.6
 20
8476.957947811552
 30
0.0
 11
10438.6
 21
8161.066703136828
 31
0.0
  0
LINE
  5
25838
330
21AB0
100
AcDbEntity
  8
寸法
 62
     0
 48
50.0
370
    -2
100
AcDbLine
 10
10318.6
 20
8476.957947811552
 30
0.0
 11
10318.6
 21
8161.066703136828
 31
0.0
  0
LINE
  5
25839
330
21AB0
100
AcDbEntity
  8
寸法
 62
     0
 48
50.0
370
    -2
100
AcDbLine
 10
10318.6
 20
8221.066703136829
 30
0.0
 11
10438.6
 21
8221.066703136829
 31
0.0
  0
LINE
  5
2583A
330
21AB0
100
AcDbEntity
  8
寸法
 62
     0
 48
50.0
370
    -2
100
AcDbLine
 10
10438.6
 20
8221.066703136829
 30
0.0
 11
10844.7062992126
 21
8221.066703136829
 31
0.0
  0
INSERT
  5
2583B
330
21AB0
100
AcDbEntity
  8
寸法
 62
     0
 48
50.0
370
    -2
100
AcDbBlockReference
  2
_DOTSMALL
 10
10318.6
 20
8221.066703136829
 30
0.0
 41
100.0
 42
100.0
 43
100.0
 50
180.0
  0
INSERT
  5
2583C
330
21AB0
100
AcDbEntity
  8
寸法
 62
     0
 48
50.0
370
    -2
100
AcDbBlockReference
  2
_DOTSMALL
 10
10438.6
 20
8221.066703136829
 30
0.0
 41
100.0
 42
100.0
 43
100.0
  0
MTEXT
  5
2583D
330
21AB0
100
AcDbEntity
  8
寸法
 62
     7
 48
50.0
100
AcDbMText
 10
10708.65905511811
 20
8321.078514160451
 30
0.0
 40
120.0
 41
0.0
 71
     5
 72
     1
  1
\A1;120
  7
STYLE1
 73
     1
 44
1.0
1001
ACAD
1000
MTEXTBEGIN
1070
    73
1070
     1
1070
    44
1040
1.0
1070
    74
1070
     0
1000
MTEXTEND
  0
POINT
  5
2583E
330
21AB0
100
AcDbEntity
  8
DEFPOINTS
 62
     0
 48
50.0
100
AcDbPoint
 10
10438.6
 20
8496.957947811552
 30
0.0
  0
POINT
  5
2583F
330
21AB0
100
AcDbEntity
  8
DEFPOINTS
 62
     0
 48
50.0
100
AcDbPoint
 10
10318.6
 20
8496.957947811552
 30
0.0
  0
POINT
  5
25840
330
21AB0
100
AcDbEntity
  8
DEFPOINTS
 62
     0
 48
50.0
100
AcDbPoint
 10
10318.6
 20
8221.066703136829
 30
0.0
  0
ENDBLK
  5
21ABC
330
21AB0
100
AcDbEntity
  8
0
 48
50.0
100
AcDbBlockEnd
  0
BLOCK
  5
21AED
330
21AE2
100
AcDbEntity
  8
0
 48
50.0
100
AcDbBlockBegin
  2
*D28
 70
     1
 10
0.0
 20
0.0
 30
0.0
  3
*D28
  1

  0
LINE
  5
258C5
330
21AE2
100
AcDbEntity
  8
寸法
 62
     0
 48
50.0
370
    -2
100
AcDbLine
 10
6061.600000000009
 20
5789.957947811554
 30
0.0
 11
5452.657733986178
 21
5789.957947811554
 31
0.0
  0
LINE
  5
258C6
330
21AE2
100
AcDbEntity
  8
寸法
 62
     0
 48
50.0
370
    -2
100
AcDbLine
 10
5988.600000000001
 20
5666.957947811551
 30
0.0
 11
5452.657733986178
 21
5666.957947811551
 31
0.0
  0
LINE
  5
258C7
330
21AE2
100
AcDbEntity
  8
寸法
 62
     0
 48
50.0
370
    -2
100
AcDbLine
 10
5512.657733986179
 20
5789.957947811554
 30
0.0
 11
5512.657733986179
 21
5666.957947811551
 31
0.0
  0
LINE
  5
258C8
330
21AE2
100
AcDbEntity
  8
寸法
 62
     0
 48
50.0
370
    -2
100
AcDbLine
 10
5512.657733986179
 20
5666.957947811551
 30
0.0
 11
5512.657733986179
 21
5192.94171759472
 31
0.0
  0
INSERT
  5
258C9
330
21AE2
100
AcDbEntity
  8
寸法
 62
     0
 48
50.0
370
    -2
100
AcDbBlockReference
  2
_DOTSMALL
 10
5512.657733986179
 20
5789.957947811554
 30
0.0
 41
100.0
 42
100.0
 43
100.0
 50
90.0
  0
INSERT
  5
258CA
330
21AE2
100
AcDbEntity
  8
寸法
 62
     0
 48
50.0
370
    -2
100
AcDbBlockReference
  2
_DOTSMALL
 10
5512.657733986179
 20
5666.957947811551
 30
0.0
 41
100.0
 42
100.0
 43
100.0
 50
270.0
  0
MTEXT
  5
258CB
330
21AE2
100
AcDbEntity
  8
寸法
 62
     7
 48
50.0
100
AcDbMText
 10
5412.645922962556
 20
5331.42699896896
 30
0.0
 40
120.0
 41
0.0
 71
     5
 72
     1
  1
\A1;123
  7
STYLE1
 11
0.0000000000000001
 21
1.0
 31
0.0
 73
     1
 44
1.0
1001
ACAD
1000
MTEXTBEGIN
1070
    73
1070
     1
1070
    44
1040
1.0
1070
    74
1070
     0
1000
MTEXTEND
  0
POINT
  5
258CC
330
21AE2
100
AcDbEntity
  8
DEFPOINTS
 62
     0
 48
50.0
100
AcDbPoint
 10
6081.600000000008
 20
5789.957947811554
 30
0.0
  0
POINT
  5
258CD
330
21AE2
100
AcDbEntity
  8
DEFPOINTS
 62
     0
 48
50.0
100
AcDbPoint
 10
6008.600000000001
 20
5666.957947811551
 30
0.0
  0
POINT
  5
258CE
330
21AE2
100
AcDbEntity
  8
DEFPOINTS
 62
     0
 48
50.0
100
AcDbPoint
 10
5512.657733986179
 20
5666.957947811551
 30
0.0
  0
ENDBLK
  5
21AEE
330
21AE2
100
AcDbEntity
  8
0
 48
50.0
100
AcDbBlockEnd
  0
BLOCK
  5
21AF7
330
21AEF
100
AcDbEntity
  8
0
 48
50.0
100
AcDbBlockBegin
  2
*D29
 70
     1
 10
0.0
 20
0.0
 30
0.0
  3
*D29
  1

  0
LINE
  5
258BC
330
21AEF
100
AcDbEntity
  8
寸法
 62
     0
 48
50.0
370
    -2
100
AcDbLine
 10
8235.600000000001
 20
5916.957947811571
 30
0.0
 11
8235.600000000001
 21
6129.190527259599
 31
0.0
  0
LINE
  5
258BD
330
21AEF
100
AcDbEntity
  8
寸法
 62
     0
 48
50.0
370
    -2
100
AcDbLine
 10
7975.6
 20
5916.957947811571
 30
0.0
 11
7975.6
 21
6129.190527259599
 31
0.0
  0
LINE
  5
258BE
330
21AEF
100
AcDbEntity
  8
寸法
 62
     0
 48
50.0
370
    -2
100
AcDbLine
 10
8235.600000000001
 20
6069.190527259599
 30
0.0
 11
7975.6
 21
6069.190527259599
 31
0.0
  0
INSERT
  5
258BF
330
21AEF
100
AcDbEntity
  8
寸法
 62
     0
 48
50.0
370
    -2
100
AcDbBlockReference
  2
_DOTSMALL
 10
8235.600000000001
 20
6069.190527259599
 30
0.0
 41
100.0
 42
100.0
 43
100.0
  0
INSERT
  5
258C0
330
21AEF
100
AcDbEntity
  8
寸法
 62
     0
 48
50.0
370
    -2
100
AcDbBlockReference
  2
_DOTSMALL
 10
7975.6
 20
6069.190527259599
 30
0.0
 41
100.0
 42
100.0
 43
100.0
 50
180.0
  0
MTEXT
  5
258C1
330
21AEF
100
AcDbEntity
  8
寸法
 62
     7
 48
50.0
100
AcDbMText
 10
8105.6
 20
6169.20233828322
 30
0.0
 40
120.0
 41
0.0
 71
     5
 72
     1
  1
\A1;260
  7
STYLE1
 73
     1
 44
1.0
1001
ACAD
1000
MTEXTBEGIN
1070
    73
1070
     1
1070
    44
1040
1.0
1070
    74
1070
     0
1000
MTEXTEND
  0
POINT
  5
258C2
330
21AEF
100
AcDbEntity
  8
DEFPOINTS
 62
     0
 48
50.0
100
AcDbPoint
 10
8235.600000000001
 20
5896.957947811571
 30
0.0
  0
POINT
  5
258C3
330
21AEF
100
AcDbEntity
  8
DEFPOINTS
 62
     0
 48
50.0
100
AcDbPoint
 10
7975.6
 20
5896.957947811571
 30
0.0
  0
POINT
  5
258C4
330
21AEF
100
AcDbEntity
  8
DEFPOINTS
 62
     0
 48
50.0
100
AcDbPoint
 10
7975.6
 20
6069.190527259599
 30
0.0
  0
ENDBLK
  5
21AF8
330
21AEF
100
AcDbEntity
  8
0
 48
50.0
100
AcDbBlockEnd
  0
BLOCK
  5
22286
330
2227C
100
AcDbEntity
  8
0
 48
50.0
100
AcDbBlockBegin
  2
*D30
 70
     1
 10
0.0
 20
0.0
 30
0.0
  3
*D30
  1

  0
LINE
  5
2582E
330
2227C
100
AcDbEntity
  8
寸法
 62
     0
 48
50.0
370
    -2
100
AcDbLine
 10
7463.600000000001
 20
8116.957947811551
 30
0.0
 11
7463.600000000001
 21
9313.867713459881
 31
0.0
  0
LINE
  5
2582F
330
2227C
100
AcDbEntity
  8
寸法
 62
     0
 48
50.0
370
    -2
100
AcDbLine
 10
6773.6
 20
8116.957947811551
 30
0.0
 11
6773.6
 21
9313.867713459881
 31
0.0
  0
LINE
  5
25830
330
2227C
100
AcDbEntity
  8
寸法
 62
     0
 48
50.0
370
    -2
100
AcDbLine
 10
7463.600000000001
 20
9253.867713459881
 30
0.0
 11
6773.6
 21
9253.867713459881
 31
0.0
  0
INSERT
  5
25831
330
2227C
100
AcDbEntity
  8
寸法
 62
     0
 48
50.0
370
    -2
100
AcDbBlockReference
  2
_DOTSMALL
 10
7463.600000000001
 20
9253.867713459881
 30
0.0
 41
100.0
 42
100.0
 43
100.0
  0
INSERT
  5
25832
330
2227C
100
AcDbEntity
  8
寸法
 62
     0
 48
50.0
370
    -2
100
AcDbBlockReference
  2
_DOTSMALL
 10
6773.6
 20
9253.867713459881
 30
0.0
 41
100.0
 42
100.0
 43
100.0
 50
180.0
  0
MTEXT
  5
25833
330
2227C
100
AcDbEntity
  8
寸法
 62
     7
 48
50.0
100
AcDbMText
 10
7118.6
 20
9353.86771345988
 30
0.0
 40
120.0
 41
0.0
 71
     5
 72
     1
  1
\A1;690
  7
STYLE1
 73
     1
 44
1.0
1001
ACAD
1000
MTEXTBEGIN
1070
    73
1070
     1
1070
    44
1040
1.0
1070
    74
1070
     0
1000
MTEXTEND
  0
POINT
  5
25834
330
2227C
100
AcDbEntity
  8
DEFPOINTS
 62
     0
 48
50.0
100
AcDbPoint
 10
7463.600000000001
 20
8096.957947811551
 30
0.0
  0
POINT
  5
25835
330
2227C
100
AcDbEntity
  8
DEFPOINTS
 62
     0
 48
50.0
100
AcDbPoint
 10
6773.6
 20
8096.957947811551
 30
0.0
  0
POINT
  5
25836
330
2227C
100
AcDbEntity
  8
DEFPOINTS
 62
     0
 48
50.0
100
AcDbPoint
 10
6773.6
 20
9253.867713459881
 30
0.0
  0
ENDBLK
  5
22287
330
2227C
100
AcDbEntity
  8
0
 48
50.0
100
AcDbBlockEnd
  0
BLOCK
  5
222E0
330
222D6
100
AcDbEntity
  8
0
 48
50.0
100
AcDbBlockBegin
  2
*D31
 70
     1
 10
0.0
 20
0.0
 30
0.0
  3
*D31
  1

  0
LINE
  5
25825
330
222D6
100
AcDbEntity
  8
寸法
 62
     0
 48
50.0
370
    -2
100
AcDbLine
 10
9673.6
 20
8116.957947811551
 30
0.0
 11
9673.6
 21
9313.867713459881
 31
0.0
  0
LINE
  5
25826
330
222D6
100
AcDbEntity
  8
寸法
 62
     0
 48
50.0
370
    -2
100
AcDbLine
 10
8983.6
 20
8116.957947811551
 30
0.0
 11
8983.6
 21
9313.867713459881
 31
0.0
  0
LINE
  5
25827
330
222D6
100
AcDbEntity
  8
寸法
 62
     0
 48
50.0
370
    -2
100
AcDbLine
 10
9673.6
 20
9253.867713459881
 30
0.0
 11
8983.6
 21
9253.867713459881
 31
0.0
  0
INSERT
  5
25828
330
222D6
100
AcDbEntity
  8
寸法
 62
     0
 48
50.0
370
    -2
100
AcDbBlockReference
  2
_DOTSMALL
 10
9673.6
 20
9253.867713459881
 30
0.0
 41
100.0
 42
100.0
 43
100.0
  0
INSERT
  5
25829
330
222D6
100
AcDbEntity
  8
寸法
 62
     0
 48
50.0
370
    -2
100
AcDbBlockReference
  2
_DOTSMALL
 10
8983.6
 20
9253.867713459881
 30
0.0
 41
100.0
 42
100.0
 43
100.0
 50
180.0
  0
MTEXT
  5
2582A
330
222D6
100
AcDbEntity
  8
寸法
 62
     7
 48
50.0
100
AcDbMText
 10
9328.599999999999
 20
9353.86771345988
 30
0.0
 40
120.0
 41
0.0
 71
     5
 72
     1
  1
\A1;690
  7
STYLE1
 73
     1
 44
1.0
1001
ACAD
1000
MTEXTBEGIN
1070
    73
1070
     1
1070
    44
1040
1.0
1070
    74
1070
     0
1000
MTEXTEND
  0
POINT
  5
2582B
330
222D6
100
AcDbEntity
  8
DEFPOINTS
 62
     0
 48
50.0
100
AcDbPoint
 10
9673.6
 20
8096.957947811551
 30
0.0
  0
POINT
  5
2582C
330
222D6
100
AcDbEntity
  8
DEFPOINTS
 62
     0
 48
50.0
100
AcDbPoint
 10
8983.6
 20
8096.957947811551
 30
0.0
  0
POINT
  5
2582D
330
222D6
100
AcDbEntity
  8
DEFPOINTS
 62
     0
 48
50.0
100
AcDbPoint
 10
8983.6
 20
9253.867713459881
 30
0.0
  0
ENDBLK
  5
222E1
330
222D6
100
AcDbEntity
  8
0
 48
50.0
100
AcDbBlockEnd
  0
BLOCK
  5
24B7F
330
24B75
100
AcDbEntity
  8
0
 48
50.0
100
AcDbBlockBegin
  2
*D32
 70
     1
 10
0.0
 20
0.0
 30
0.0
  3
*D32
  1

  0
LINE
  5
2581C
330
24B75
100
AcDbEntity
  8
寸法
 62
     0
 48
50.0
370
    -2
100
AcDbLine
 10
9553.600000000006
 20
7196.957947811546
 30
0.0
 11
9249.531448609056
 21
7196.957947811546
 31
0.0
  0
LINE
  5
2581D
330
24B75
100
AcDbEntity
  8
寸法
 62
     0
 48
50.0
370
    -2
100
AcDbLine
 10
9553.600000000006
 20
6396.957947811563
 30
0.0
 11
9249.531448609056
 21
6396.957947811563
 31
0.0
  0
LINE
  5
2581E
330
24B75
100
AcDbEntity
  8
寸法
 62
     0
 48
50.0
370
    -2
100
AcDbLine
 10
9309.531448609055
 20
7196.957947811546
 30
0.0
 11
9309.531448609055
 21
6396.957947811563
 31
0.0
  0
INSERT
  5
2581F
330
24B75
100
AcDbEntity
  8
寸法
 62
     0
 48
50.0
370
    -2
100
AcDbBlockReference
  2
_DOTSMALL
 10
9309.531448609055
 20
7196.957947811546
 30
0.0
 41
100.0
 42
100.0
 43
100.0
 50
90.0
  0
INSERT
  5
25820
330
24B75
100
AcDbEntity
  8
寸法
 62
     0
 48
50.0
370
    -2
100
AcDbBlockReference
  2
_DOTSMALL
 10
9309.531448609055
 20
6396.957947811563
 30
0.0
 41
100.0
 42
100.0
 43
100.0
 50
270.0
  0
MTEXT
  5
25821
330
24B75
100
AcDbEntity
  8
寸法
 62
     7
 48
50.0
100
AcDbMText
 10
9209.531448609054
 20
6796.957947811555
 30
0.0
 40
120.0
 41
0.0
 71
     5
 72
     1
  1
\A1;800
  7
STYLE1
 11
0.0000000000000001
 21
1.0
 31
0.0
 73
     1
 44
1.0
1001
ACAD
1000
MTEXTBEGIN
1070
    73
1070
     1
1070
    44
1040
1.0
1070
    74
1070
     0
1000
MTEXTEND
  0
POINT
  5
25822
330
24B75
100
AcDbEntity
  8
DEFPOINTS
 62
     0
 48
50.0
100
AcDbPoint
 10
9573.600000000006
 20
7196.957947811546
 30
0.0
  0
POINT
  5
25823
330
24B75
100
AcDbEntity
  8
DEFPOINTS
 62
     0
 48
50.0
100
AcDbPoint
 10
9573.600000000006
 20
6396.957947811563
 30
0.0
  0
POINT
  5
25824
330
24B75
100
AcDbEntity
  8
DEFPOINTS
 62
     0
 48
50.0
100
AcDbPoint
 10
9309.531448609055
 20
6396.957947811563
 30
0.0
  0
ENDBLK
  5
24B80
330
24B75
100
AcDbEntity
  8
0
 48
50.0
100
AcDbBlockEnd
  0
BLOCK
  5
24D0B
330
24CFF
100
AcDbEntity
  8
0
 48
50.0
100
AcDbBlockBegin
  2
*D33
 70
     1
 10
0.0
 20
0.0
 30
0.0
  3
*D33
  1

  0
LINE
  5
25812
330
24CFF
100
AcDbEntity
  8
寸法
 62
     0
 48
50.0
370
    -2
100
AcDbLine
 10
6258.600000000001
 20
5786.957947811554
 30
0.0
 11
6541.961837289711
 21
5786.957947811554
 31
0.0
  0
LINE
  5
25813
330
24CFF
100
AcDbEntity
  8
寸法
 62
     0
 48
50.0
370
    -2
100
AcDbLine
 10
6258.600000000001
 20
5591.957947811543
 30
0.0
 11
6541.961837289711
 21
5591.957947811543
 31
0.0
  0
LINE
  5
25814
330
24CFF
100
AcDbEntity
  8
寸法
 62
     0
 48
50.0
370
    -2
100
AcDbLine
 10
6481.961837289711
 20
5786.957947811554
 30
0.0
 11
6481.961837289711
 21
5591.957947811543
 31
0.0
  0
LINE
  5
25815
330
24CFF
100
AcDbEntity
  8
寸法
 62
     0
 48
50.0
370
    -2
100
AcDbLine
 10
6481.961837289711
 20
5591.957947811543
 30
0.0
 11
6481.961837289711
 21
5214.568065403753
 31
0.0
  0
INSERT
  5
25816
330
24CFF
100
AcDbEntity
  8
寸法
 62
     0
 48
50.0
370
    -2
100
AcDbBlockReference
  2
_DOTSMALL
 10
6481.961837289711
 20
5786.957947811554
 30
0.0
 41
100.0
 42
100.0
 43
100.0
 50
90.0
  0
INSERT
  5
25817
330
24CFF
100
AcDbEntity
  8
寸法
 62
     0
 48
50.0
370
    -2
100
AcDbBlockReference
  2
_DOTSMALL
 10
6481.961837289711
 20
5591.957947811543
 30
0.0
 41
100.0
 42
100.0
 43
100.0
 50
270.0
  0
MTEXT
  5
25818
330
24CFF
100
AcDbEntity
  8
寸法
 62
     7
 48
50.0
100
AcDbMText
 10
6381.96183728971
 20
5353.26300660765
 30
0.0
 40
120.0
 41
0.0
 71
     5
 72
     1
  1
\A1;195
  7
STYLE1
 11
0.0000000000000001
 21
1.0
 31
0.0
 73
     1
 44
1.0
1001
ACAD
1000
MTEXTBEGIN
1070
    73
1070
     1
1070
    44
1040
1.0
1070
    74
1070
     0
1000
MTEXTEND
  0
POINT
  5
25819
330
24CFF
100
AcDbEntity
  8
DEFPOINTS
 62
     0
 48
50.0
100
AcDbPoint
 10
6238.600000000001
 20
5786.957947811554
 30
0.0
  0
POINT
  5
2581A
330
24CFF
100
AcDbEntity
  8
DEFPOINTS
 62
     0
 48
50.0
100
AcDbPoint
 10
6238.600000000001
 20
5591.957947811543
 30
0.0
  0
POINT
  5
2581B
330
24CFF
100
AcDbEntity
  8
DEFPOINTS
 62
     0
 48
50.0
100
AcDbPoint
 10
6481.961837289711
 20
5591.957947811543
 30
0.0
  0
ENDBLK
  5
24D0C
330
24CFF
100
AcDbEntity
  8
0
 48
50.0
100
AcDbBlockEnd
  0
BLOCK
  5
250B4
330
250A8
100
AcDbEntity
  8
0
 48
50.0
100
AcDbBlockBegin
  2
*D34
 70
     1
 10
0.0
 20
0.0
 30
0.0
  3
*D34
  1

  0
LINE
  5
25807
330
250A8
100
AcDbEntity
  8
寸法
 62
     0
 48
50.0
370
    -2
100
AcDbLine
 10
5988.600000000001
 20
5591.957947811575
 30
0.0
 11
5712.312481891146
 21
5591.957947811575
 31
0.0
  0
LINE
  5
25808
330
250A8
100
AcDbEntity
  8
寸法
 62
     0
 48
50.0
370
    -2
100
AcDbLine
 10
5988.600000000008
 20
5666.957947811575
 30
0.0
 11
5712.312481891146
 21
5666.957947811575
 31
0.0
  0
LINE
  5
25809
330
250A8
100
AcDbEntity
  8
寸法
 62
     0
 48
50.0
370
    -2
100
AcDbLine
 10
5772.312481891145
 20
5666.957947811575
 30
0.0
 11
5772.312481891145
 21
5766.957947811576
 31
0.0
  0
LINE
  5
2580A
330
250A8
100
AcDbEntity
  8
寸法
 62
     0
 48
50.0
370
    -2
100
AcDbLine
 10
5772.312481891145
 20
5591.957947811575
 30
0.0
 11
5772.312481891145
 21
4724.987385063097
 31
0.0
  0
LINE
  5
2580B
330
250A8
100
AcDbEntity
  8
寸法
 62
     0
 48
50.0
370
    -2
100
AcDbLine
 10
5772.312481891145
 20
5666.957947811575
 30
0.0
 11
5772.312481891145
 21
5591.957947811575
 31
0.0
  0
INSERT
  5
2580C
330
250A8
100
AcDbEntity
  8
寸法
 62
     0
 48
50.0
370
    -2
100
AcDbBlockReference
  2
_DOTSMALL
 10
5772.312481891145
 20
5666.957947811575
 30
0.0
 41
100.0
 42
100.0
 43
100.0
 50
270.0
  0
INSERT
  5
2580D
330
250A8
100
AcDbEntity
  8
寸法
 62
     0
 48
50.0
370
    -2
100
AcDbBlockReference
  2
_DOTSMALL
 10
5772.312481891145
 20
5591.957947811575
 30
0.0
 41
100.0
 42
100.0
 43
100.0
 50
90.0
  0
MTEXT
  5
2580E
330
250A8
100
AcDbEntity
  8
寸法
 62
     7
 48
50.0
100
AcDbMText
 10
5672.312481891145
 20
5058.472666437338
 30
0.0
 40
120.0
 41
0.0
 71
     5
 72
     1
  1
\A1;扉の出75
  7
STYLE1
 11
0.0000000000000001
 21
1.0
 31
0.0
 73
     1
 44
1.0
1001
ACAD
1000
MTEXTBEGIN
1070
    73
1070
     1
1070
    44
1040
1.0
1070
    74
1070
     0
1000
MTEXTEND
  0
POINT
  5
2580F
330
250A8
100
AcDbEntity
  8
DEFPOINTS
 62
     0
 48
50.0
100
AcDbPoint
 10
6008.600000000001
 20
5591.957947811575
 30
0.0
  0
POINT
  5
25810
330
250A8
100
AcDbEntity
  8
DEFPOINTS
 62
     0
 48
50.0
100
AcDbPoint
 10
6008.600000000008
 20
5666.957947811575
 30
0.0
  0
POINT
  5
25811
330
250A8
100
AcDbEntity
  8
DEFPOINTS
 62
     0
 48
50.0
100
AcDbPoint
 10
5772.312481891145
 20
5666.957947811575
 30
0.0
  0
ENDBLK
  5
250B5
330
250A8
100
AcDbEntity
  8
0
 48
50.0
100
AcDbBlockEnd
  0
BLOCK
  5
25670
330
25664
100
AcDbEntity
  8
0
 48
50.0
100
AcDbBlockBegin
  2
*D35
 70
     1
 10
0.0
 20
0.0
 30
0.0
  3
*D35
  1

  0
LINE
  5
257FC
330
25664
100
AcDbEntity
  8
寸法
 62
     0
 48
50.0
370
    -2
100
AcDbLine
 10
7116.501749896089
 20
1918.107409609602
 30
0.0
 11
8362.905832255929
 21
1918.107409609602
 31
0.0
  0
LINE
  5
257FD
330
25664
100
AcDbEntity
  8
寸法
 62
     0
 48
50.0
370
    -2
100
AcDbLine
 10
7350.501749896089
 20
1852.157409609603
 30
0.0
 11
8362.905832255929
 21
1852.157409609603
 31
0.0
  0
LINE
  5
257FE
330
25664
100
AcDbEntity
  8
寸法
 62
     0
 48
50.0
370
    -2
100
AcDbLine
 10
8302.905832255929
 20
1918.107409609602
 30
0.0
 11
8302.905832255929
 21
2018.107409609602
 31
0.0
  0
LINE
  5
257FF
330
25664
100
AcDbEntity
  8
寸法
 62
     0
 48
50.0
370
    -2
100
AcDbLine
 10
8302.905832255929
 20
1852.157409609603
 30
0.0
 11
8302.905832255929
 21
1120.139602766637
 31
0.0
  0
LINE
  5
25800
330
25664
100
AcDbEntity
  8
寸法
 62
     0
 48
50.0
370
    -2
100
AcDbLine
 10
8302.905832255929
 20
1918.107409609602
 30
0.0
 11
8302.905832255929
 21
1852.157409609603
 31
0.0
  0
INSERT
  5
25801
330
25664
100
AcDbEntity
  8
寸法
 62
     0
 48
50.0
370
    -2
100
AcDbBlockReference
  2
_DOTSMALL
 10
8302.905832255929
 20
1918.107409609602
 30
0.0
 41
100.0
 42
100.0
 43
100.0
 50
270.0
  0
INSERT
  5
25802
330
25664
100
AcDbEntity
  8
寸法
 62
     0
 48
50.0
370
    -2
100
AcDbBlockReference
  2
_DOTSMALL
 10
8302.905832255929
 20
1852.157409609603
 30
0.0
 41
100.0
 42
100.0
 43
100.0
 50
90.0
  0
MTEXT
  5
25803
330
25664
100
AcDbEntity
  8
寸法
 62
     7
 48
50.0
100
AcDbMText
 10
8202.894021232307
 20
1386.148506188121
 30
0.0
 40
120.0
 41
0.0
 71
     5
 72
     1
  1
\A1;20～25
  7
STYLE1
 11
0.0000000000000001
 21
1.0
 31
0.0
 73
     1
 44
1.0
1001
ACAD
1000
MTEXTBEGIN
1070
    73
1070
     1
1070
    44
1040
1.0
1070
    74
1070
     0
1000
MTEXTEND
  0
POINT
  5
25804
330
25664
100
AcDbEntity
  8
DEFPOINTS
 62
     0
 48
50.0
100
AcDbPoint
 10
7096.50174989609
 20
1918.107409609602
 30
0.0
  0
POINT
  5
25805
330
25664
100
AcDbEntity
  8
DEFPOINTS
 62
     0
 48
50.0
100
AcDbPoint
 10
7330.50174989609
 20
1852.157409609603
 30
0.0
  0
POINT
  5
25806
330
25664
100
AcDbEntity
  8
DEFPOINTS
 62
     0
 48
50.0
100
AcDbPoint
 10
8302.905832255929
 20
1852.157409609603
 30
0.0
  0
ENDBLK
  5
25671
330
25664
100
AcDbEntity
  8
0
 48
50.0
100
AcDbBlockEnd
  0
BLOCK
  5
2567B
330
25672
100
AcDbEntity
  8
0
 48
50.0
100
AcDbBlockBegin
  2
*D36
 70
     1
 10
0.0
 20
0.0
 30
0.0
  3
*D36
  1

  0
LINE
  5
257F3
330
25672
100
AcDbEntity
  8
寸法
 62
     0
 48
50.0
370
    -2
100
AcDbLine
 10
7350.501749896089
 20
1852.157409609603
 30
0.0
 11
8017.837499607146
 21
1852.157409609603
 31
0.0
  0
LINE
  5
257F4
330
25672
100
AcDbEntity
  8
寸法
 62
     0
 48
50.0
370
    -2
100
AcDbLine
 10
7350.501749896089
 20
1447.1574096096
 30
0.0
 11
8017.837499607146
 21
1447.1574096096
 31
0.0
  0
LINE
  5
257F5
330
25672
100
AcDbEntity
  8
寸法
 62
     0
 48
50.0
370
    -2
100
AcDbLine
 10
7957.837499607146
 20
1852.157409609603
 30
0.0
 11
7957.837499607146
 21
1447.1574096096
 31
0.0
  0
INSERT
  5
257F6
330
25672
100
AcDbEntity
  8
寸法
 62
     0
 48
50.0
370
    -2
100
AcDbBlockReference
  2
_DOTSMALL
 10
7957.837499607146
 20
1852.157409609603
 30
0.0
 41
100.0
 42
100.0
 43
100.0
 50
90.0
  0
INSERT
  5
257F7
330
25672
100
AcDbEntity
  8
寸法
 62
     0
 48
50.0
370
    -2
100
AcDbBlockReference
  2
_DOTSMALL
 10
7957.837499607146
 20
1447.1574096096
 30
0.0
 41
100.0
 42
100.0
 43
100.0
 50
270.0
  0
MTEXT
  5
257F8
330
25672
100
AcDbEntity
  8
寸法
 62
     7
 48
50.0
100
AcDbMText
 10
7857.837499607146
 20
1649.657409609602
 30
0.0
 40
120.0
 41
0.0
 71
     5
 72
     1
  1
\A1;180
  7
STYLE1
 11
0.0000000000000001
 21
1.0
 31
0.0
 73
     1
 44
1.0
1001
ACAD
1000
MTEXTBEGIN
1070
    73
1070
     1
1070
    44
1040
1.0
1070
    74
1070
     0
1000
MTEXTEND
  0
POINT
  5
257F9
330
25672
100
AcDbEntity
  8
DEFPOINTS
 62
     0
 48
50.0
100
AcDbPoint
 10
7330.50174989609
 20
1852.157409609603
 30
0.0
  0
POINT
  5
257FA
330
25672
100
AcDbEntity
  8
DEFPOINTS
 62
     0
 48
50.0
100
AcDbPoint
 10
7330.50174989609
 20
1447.1574096096
 30
0.0
  0
POINT
  5
257FB
330
25672
100
AcDbEntity
  8
DEFPOINTS
 62
     0
 48
50.0
100
AcDbPoint
 10
7957.837499607146
 20
1447.1574096096
 30
0.0
  0
ENDBLK
  5
2567C
330
25672
100
AcDbEntity
  8
0
 48
50.0
100
AcDbBlockEnd
  0
BLOCK
  5
25687
330
2567D
100
AcDbEntity
  8
0
 48
50.0
100
AcDbBlockBegin
  2
*D37
 70
     1
 10
0.0
 20
0.0
 30
0.0
  3
*D37
  1

  0
LINE
  5
257EA
330
2567D
100
AcDbEntity
  8
寸法
 62
     0
 48
50.0
370
    -2
100
AcDbLine
 10
4527.952608424596
 20
692.1574096096015
 30
0.0
 11
4527.952608424596
 21
353.2053031536684
 31
0.0
  0
LINE
  5
257EB
330
2567D
100
AcDbEntity
  8
寸法
 62
     0
 48
50.0
370
    -2
100
AcDbLine
 10
5087.952608424597
 20
692.1574096096015
 30
0.0
 11
5087.952608424597
 21
353.2053031536684
 31
0.0
  0
LINE
  5
257EC
330
2567D
100
AcDbEntity
  8
寸法
 62
     0
 48
50.0
370
    -2
100
AcDbLine
 10
4527.952608424596
 20
413.2053031536683
 30
0.0
 11
5087.952608424597
 21
413.2053031536683
 31
0.0
  0
INSERT
  5
257ED
330
2567D
100
AcDbEntity
  8
寸法
 62
     0
 48
50.0
370
    -2
100
AcDbBlockReference
  2
_DOTSMALL
 10
4527.952608424596
 20
413.2053031536683
 30
0.0
 41
100.0
 42
100.0
 43
100.0
 50
180.0
  0
INSERT
  5
257EE
330
2567D
100
AcDbEntity
  8
寸法
 62
     0
 48
50.0
370
    -2
100
AcDbBlockReference
  2
_DOTSMALL
 10
5087.952608424597
 20
413.2053031536683
 30
0.0
 41
100.0
 42
100.0
 43
100.0
  0
MTEXT
  5
257EF
330
2567D
100
AcDbEntity
  8
寸法
 62
     7
 48
50.0
100
AcDbMText
 10
4807.952608424596
 20
513.2053031536684
 30
0.0
 40
120.0
 41
0.0
 71
     5
 72
     1
  1
\A1;300
  7
STYLE1
 73
     1
 44
1.0
1001
ACAD
1000
MTEXTBEGIN
1070
    73
1070
     1
1070
    44
1040
1.0
1070
    74
1070
     0
1000
MTEXTEND
  0
POINT
  5
257F0
330
2567D
100
AcDbEntity
  8
DEFPOINTS
 62
     0
 48
50.0
100
AcDbPoint
 10
4527.952608424596
 20
712.1574096096014
 30
0.0
  0
POINT
  5
257F1
330
2567D
100
AcDbEntity
  8
DEFPOINTS
 62
     0
 48
50.0
100
AcDbPoint
 10
5087.952608424597
 20
712.1574096096014
 30
0.0
  0
POINT
  5
257F2
330
2567D
100
AcDbEntity
  8
DEFPOINTS
 62
     0
 48
50.0
100
AcDbPoint
 10
5087.952608424597
 20
413.2053031536683
 30
0.0
  0
ENDBLK
  5
25688
330
2567D
100
AcDbEntity
  8
0
 48
50.0
100
AcDbBlockEnd
  0
BLOCK
  5
25693
330
25689
100
AcDbEntity
  8
0
 48
50.0
100
AcDbBlockBegin
  2
*D38
 70
     1
 10
0.0
 20
0.0
 30
0.0
  3
*D38
  1

  0
LINE
  5
257E1
330
25689
100
AcDbEntity
  8
寸法
 62
     0
 48
50.0
370
    -2
100
AcDbLine
 10
4667.952608424597
 20
1852.157409609603
 30
0.0
 11
3867.307670388533
 21
1852.157409609603
 31
0.0
  0
LINE
  5
257E2
330
25689
100
AcDbEntity
  8
寸法
 62
     0
 48
50.0
370
    -2
100
AcDbLine
 10
4407.9526084246
 20
872.1574096096015
 30
0.0
 11
3867.307670388533
 21
872.1574096096016
 31
0.0
  0
LINE
  5
257E3
330
25689
100
AcDbEntity
  8
寸法
 62
     0
 48
50.0
370
    -2
100
AcDbLine
 10
3927.307670388533
 20
1852.157409609603
 30
0.0
 11
3927.307670388533
 21
872.1574096096016
 31
0.0
  0
INSERT
  5
257E4
330
25689
100
AcDbEntity
  8
寸法
 62
     0
 48
50.0
370
    -2
100
AcDbBlockReference
  2
_DOTSMALL
 10
3927.307670388533
 20
1852.157409609603
 30
0.0
 41
100.0
 42
100.0
 43
100.0
 50
90.0
  0
INSERT
  5
257E5
330
25689
100
AcDbEntity
  8
寸法
 62
     0
 48
50.0
370
    -2
100
AcDbBlockReference
  2
_DOTSMALL
 10
3927.307670388533
 20
872.1574096096016
 30
0.0
 41
100.0
 42
100.0
 43
100.0
 50
270.0
  0
MTEXT
  5
257E6
330
25689
100
AcDbEntity
  8
寸法
 62
     7
 48
50.0
100
AcDbMText
 10
3827.307670388533
 20
1362.157409609602
 30
0.0
 40
120.0
 41
0.0
 71
     5
 72
     1
  1
\A1;540
  7
STYLE1
 11
0.0000000000000001
 21
1.0
 31
0.0
 73
     1
 44
1.0
1001
ACAD
1000
MTEXTBEGIN
1070
    73
1070
     1
1070
    44
1040
1.0
1070
    74
1070
     0
1000
MTEXTEND
  0
POINT
  5
257E7
330
25689
100
AcDbEntity
  8
DEFPOINTS
 62
     0
 48
50.0
100
AcDbPoint
 10
4687.952608424597
 20
1852.157409609603
 30
0.0
  0
POINT
  5
257E8
330
25689
100
AcDbEntity
  8
DEFPOINTS
 62
     0
 48
50.0
100
AcDbPoint
 10
4427.952608424599
 20
872.1574096096015
 30
0.0
  0
POINT
  5
257E9
330
25689
100
AcDbEntity
  8
DEFPOINTS
 62
     0
 48
50.0
100
AcDbPoint
 10
3927.307670388533
 20
872.1574096096016
 30
0.0
  0
ENDBLK
  5
25694
330
25689
100
AcDbEntity
  8
0
 48
50.0
100
AcDbBlockEnd
  0
BLOCK
  5
2569F
330
25695
100
AcDbEntity
  8
0
 48
50.0
100
AcDbBlockBegin
  2
*D39
 70
     1
 10
0.0
 20
0.0
 30
0.0
  3
*D39
  1

  0
LINE
  5
257D8
330
25695
100
AcDbEntity
  8
寸法
 62
     0
 48
50.0
370
    -2
100
AcDbLine
 10
4507.952608424596
 20
1172.157409609601
 30
0.0
 11
4289.927216259022
 21
1172.157409609601
 31
0.0
  0
LINE
  5
257D9
330
25695
100
AcDbEntity
  8
寸法
 62
     0
 48
50.0
370
    -2
100
AcDbLine
 10
4407.9526084246
 20
872.1574096096015
 30
0.0
 11
4289.927216259022
 21
872.1574096096016
 31
0.0
  0
LINE
  5
257DA
330
25695
100
AcDbEntity
  8
寸法
 62
     0
 48
50.0
370
    -2
100
AcDbLine
 10
4349.927216259022
 20
1172.157409609601
 30
0.0
 11
4349.927216259022
 21
872.1574096096016
 31
0.0
  0
INSERT
  5
257DB
330
25695
100
AcDbEntity
  8
寸法
 62
     0
 48
50.0
370
    -2
100
AcDbBlockReference
  2
_DOTSMALL
 10
4349.927216259022
 20
1172.157409609601
 30
0.0
 41
100.0
 42
100.0
 43
100.0
 50
90.0
  0
INSERT
  5
257DC
330
25695
100
AcDbEntity
  8
寸法
 62
     0
 48
50.0
370
    -2
100
AcDbBlockReference
  2
_DOTSMALL
 10
4349.927216259022
 20
872.1574096096016
 30
0.0
 41
100.0
 42
100.0
 43
100.0
 50
270.0
  0
MTEXT
  5
257DD
330
25695
100
AcDbEntity
  8
寸法
 62
     7
 48
50.0
100
AcDbMText
 10
4249.927216259022
 20
1022.157409609601
 30
0.0
 40
120.0
 41
0.0
 71
     5
 72
     1
  1
\A1;150
  7
STYLE1
 11
0.0000000000000001
 21
1.0
 31
0.0
 73
     1
 44
1.0
1001
ACAD
1000
MTEXTBEGIN
1070
    73
1070
     1
1070
    44
1040
1.0
1070
    74
1070
     0
1000
MTEXTEND
  0
POINT
  5
257DE
330
25695
100
AcDbEntity
  8
DEFPOINTS
 62
     0
 48
50.0
100
AcDbPoint
 10
4527.952608424596
 20
1172.157409609601
 30
0.0
  0
POINT
  5
257DF
330
25695
100
AcDbEntity
  8
DEFPOINTS
 62
     0
 48
50.0
100
AcDbPoint
 10
4427.952608424599
 20
872.1574096096015
 30
0.0
  0
POINT
  5
257E0
330
25695
100
AcDbEntity
  8
DEFPOINTS
 62
     0
 48
50.0
100
AcDbPoint
 10
4349.927216259022
 20
872.1574096096016
 30
0.0
  0
ENDBLK
  5
256A0
330
25695
100
AcDbEntity
  8
0
 48
50.0
100
AcDbBlockEnd
  0
BLOCK
  5
256AB
330
256A1
100
AcDbEntity
  8
0
 48
50.0
100
AcDbBlockBegin
  2
*D40
 70
     1
 10
0.0
 20
0.0
 30
0.0
  3
*D40
  1

  0
LINE
  5
257CF
330
256A1
100
AcDbEntity
  8
寸法
 62
     0
 48
50.0
370
    -2
100
AcDbLine
 10
4927.952608424597
 20
1872.157409609603
 30
0.0
 11
4927.952608424597
 21
2436.742169505078
 31
0.0
  0
LINE
  5
257D0
330
256A1
100
AcDbEntity
  8
寸法
 62
     0
 48
50.0
370
    -2
100
AcDbLine
 10
4687.952608424597
 20
1872.157409609603
 30
0.0
 11
4687.952608424597
 21
2436.742169505078
 31
0.0
  0
LINE
  5
257D1
330
256A1
100
AcDbEntity
  8
寸法
 62
     0
 48
50.0
370
    -2
100
AcDbLine
 10
4927.952608424597
 20
2376.742169505078
 30
0.0
 11
4687.952608424597
 21
2376.742169505078
 31
0.0
  0
INSERT
  5
257D2
330
256A1
100
AcDbEntity
  8
寸法
 62
     0
 48
50.0
370
    -2
100
AcDbBlockReference
  2
_DOTSMALL
 10
4927.952608424597
 20
2376.742169505078
 30
0.0
 41
100.0
 42
100.0
 43
100.0
  0
INSERT
  5
257D3
330
256A1
100
AcDbEntity
  8
寸法
 62
     0
 48
50.0
370
    -2
100
AcDbBlockReference
  2
_DOTSMALL
 10
4687.952608424597
 20
2376.742169505078
 30
0.0
 41
100.0
 42
100.0
 43
100.0
 50
180.0
  0
MTEXT
  5
257D4
330
256A1
100
AcDbEntity
  8
寸法
 62
     7
 48
50.0
100
AcDbMText
 10
4807.952608424597
 20
2582.782982069882
 30
0.0
 40
120.0
 41
0.0
 71
     5
 72
     1
  1
\A1;120\P(195)
  7
STYLE1
 73
     1
 44
1.0
1001
ACAD
1000
MTEXTBEGIN
1070
    73
1070
     1
1070
    44
1040
1.0
1070
    74
1070
     0
1000
MTEXTEND
  0
POINT
  5
257D5
330
256A1
100
AcDbEntity
  8
DEFPOINTS
 62
     0
 48
50.0
100
AcDbPoint
 10
4927.952608424597
 20
1852.157409609603
 30
0.0
  0
POINT
  5
257D6
330
256A1
100
AcDbEntity
  8
DEFPOINTS
 62
     0
 48
50.0
100
AcDbPoint
 10
4687.952608424597
 20
1852.157409609603
 30
0.0
  0
POINT
  5
257D7
330
256A1
100
AcDbEntity
  8
DEFPOINTS
 62
     0
 48
50.0
100
AcDbPoint
 10
4687.952608424597
 20
2376.742169505078
 30
0.0
  0
ENDBLK
  5
256AC
330
256A1
100
AcDbEntity
  8
0
 48
50.0
100
AcDbBlockEnd
  0
ENDSEC
  0
SECTION
  2
ENTITIES
  0
MTEXT
  5
763F
330
747D
100
AcDbEntity
  8
0
100
AcDbMText
 10
302.846345836809
 20
280.1983726409901
 30
0.0
 40
3.5
 41
5.323721266742722
 71
     1
 72
     5
  1

  7
MSMINCHO
 73
     1
 44
1.0
1001
ACAD
1000
MTEXTBEGIN
1070
    73
1070
     1
1070
    44
1040
1.0
1070
    74
1070
     0
1000
MTEXTEND
  0
LINE
  5
10B57
330
747D
100
AcDbEntity
  8
補助
  6
PHANTOM
 62
   230
 48
50.0
100
AcDbLine
 10
139.9999999999995
 20
11409.6
 30
0.0
 11
16307.2
 21
11409.6
 31
0.0
  0
LINE
  5
10B59
330
747D
100
AcDbEntity
  8
仕様書枠
  6
Continuous
 48
50.0
100
AcDbLine
 10
13107.2
 20
1200.0
 30
0.0
 11
13107.2
 21
-0.0000000000000729
 31
0.0
  0
LINE
  5
10B5D
330
747D
100
AcDbEntity
  8
仕様書枠
 48
50.0
100
AcDbLine
 10
140.0
 20
0.0
 30
0.0
 11
16307.2
 21
-0.0000000000000909
 31
0.0
  0
LINE
  5
10B5E
330
747D
100
AcDbEntity
  8
補助
  6
PHANTOM
 62
   230
 48
50.0
100
AcDbLine
 10
16307.2
 20
11409.6
 30
0.0
 11
16307.2
 21
1200.0
 31
0.0
  0
LINE
  5
10B6C
330
747D
100
AcDbEntity
  8
仕様書枠
 48
50.0
100
AcDbLine
 10
13107.2
 20
1200.0
 30
0.0
 11
16307.2
 21
1200.0
 31
0.0
  0
TEXT
  5
10B73
330
747D
100
AcDbEntity
  8
文字
 62
     7
 48
50.0
100
AcDbText
 10
13162.9790565769
 20
895.0906074299405
 30
0.0
 40
200.0
  1
基 礎 図
  7
STYLE2
100
AcDbText
  0
LINE
  5
10B7B
330
747D
100
AcDbEntity
  8
仕様書枠
 48
50.0
100
AcDbLine
 10
13107.2
 20
800.0
 30
0.0
 11
14251.2
 21
800.0
 31
0.0
  0
LINE
  5
10B88
330
747D
100
AcDbEntity
  8
仕様書枠
  6
Continuous
 48
50.0
100
AcDbLine
 10
14251.2
 20
1200.0
 30
0.0
 11
14251.2
 21
800.0
 31
0.0
  0
LINE
  5
16462
330
747D
100
AcDbEntity
  8
仕様書枠
 48
50.0
100
AcDbLine
 10
16307.2
 20
1200.0
 30
0.0
 11
16307.2
 21
-0.0000000000000909
 31
0.0
  0
LINE
  5
1903B
330
747D
100
AcDbEntity
  8
補助
  6
PHANTOM
 62
   230
 48
50.0
100
AcDbLine
 10
140.0
 20
0.0
 30
0.0
 11
139.9999999999995
 21
11409.6
 31
0.0
  0
LEADER
  5
1AC27
330
747D
100
AcDbEntity
  8
寸法
 48
50.0
100
AcDbLeader
  3
INABA_S40G
 73
     0
 74
     0
 75
     1
 40
120.0
 41
720.0000000000001
 76
     3
 10
10438.69549961499
 20
7211.160118393362
 30
0.0
 10
10605.46907400128
 20
6935.146204825528
 30
0.0
 10
10705.46907400128
 20
6935.146204825528
 30
0.0
340
1AC28
1001
ACAD
1000
DSTYLE
1002
{
1070
   341
1005
0
1002
}
  0
MTEXT
  5
1AC28
102
{ACAD_REACTORS
330
1AC27
102
}
330
747D
100
AcDbEntity
  8
部品1
 62
     7
 48
50.0
100
AcDbMText
 10
11465.46907400128
 20
7035.146204825529
 30
0.0
 40
120.0
 41
0.0
 71
     6
 72
     1
  1
\A1;床下換気口
  7
STYLE1
 73
     1
 44
1.0
1001
ACAD
1000
MTEXTBEGIN
1070
    73
1070
     1
1070
    44
1040
1.0
1070
    74
1070
     0
1000
MTEXTEND
  0
TEXT
  5
1AC29
330
747D
100
AcDbEntity
  8
部品1
 48
50.0
100
AcDbText
 10
10782.50116389398
 20
5391.867046474761
 30
0.0
 40
80.0
  1
(a=45,b=55,c=75)
  7
STYLE1
100
AcDbText
  0
TEXT
  5
1AC2A
330
747D
100
AcDbEntity
  8
部品1
 48
50.0
100
AcDbText
 10
10623.92215513968
 20
5498.712267343514
 30
0.0
 40
80.0
  1
※a,b,cは屋根の出幅です。
  7
STYLE1
100
AcDbText
  0
MTEXT
  5
1AC2B
102
{ACAD_REACTORS
330
1AC2C
102
}
330
747D
100
AcDbEntity
  8
部品1
 62
     7
 48
50.0
100
AcDbMText
 10
11421.70935112828
 20
5678.022954276589
 30
0.0
 40
120.0
 41
0.0
 71
     6
 72
     1
  1
\A1;屋根の外寸
  7
STYLE1
 73
     1
 44
1.0
1001
ACAD
1000
MTEXTBEGIN
1070
    73
1070
     1
1070
    44
1040
1.0
1070
    74
1070
     0
1000
MTEXTEND
  0
LEADER
  5
1AC2C
330
747D
100
AcDbEntity
  8
寸法
 48
50.0
100
AcDbLeader
  3
INABA_S40G
 73
     0
 74
     0
 75
     1
 40
120.0
 41
672.0
 76
     3
 10
10483.76933893624
 20
5851.912297740166
 30
0.0
 10
10609.70935112828
 20
5578.02295427659
 30
0.0
 10
10709.70935112828
 20
5578.02295427659
 30
0.0
340
1AC2B
1001
ACAD
1000
DSTYLE
1002
{
1070
   341
1005
0
1002
}
  0
TEXT
  5
1C7A1
330
747D
100
AcDbEntity
  8
文字
 62
     7
 48
50.0
100
AcDbText
 10
13188.16259899338
 20
79.80631269190417
 30
0.0
 40
80.0
  1
※布基礎には換気口を設けてください。
  7
STYLE2
100
AcDbText
  0
TEXT
  5
1C7E7
330
747D
100
AcDbEntity
  8
文字
 62
     7
 48
50.0
100
AcDbText
 10
13188.16259899338
 20
246.7109242801889
 30
0.0
 40
80.0
  1
※寒冷地等は地域の実情に合わせた基礎にして下さい。
  7
STYLE2
100
AcDbText
  0
TEXT
  5
1C7E8
330
747D
100
AcDbEntity
  8
文字
 62
     7
 48
50.0
100
AcDbText
 10
14478.98566430227
 20
499.5983841039506
 30
0.0
 40
160.0
  1
ＮＸＮ－１３５Ｈ
  7
STYLE2
100
AcDbText
  0
TEXT
  5
1C7E9
330
747D
100
AcDbEntity
  8
文字
 62
     7
 48
50.0
100
AcDbText
 10
14641.2525855784
 20
871.1744590657927
 30
0.0
 40
100.0
  1
～一般型・多雪地型～
  7
STYLE2
100
AcDbText
  0
TEXT
  5
1C7EC
330
747D
100
AcDbEntity
  8
文字
 62
     7
 48
50.0
100
AcDbText
 10
14524.131837222
 20
1031.557706291229
 30
0.0
 40
100.0
  1
      <縮尺> S=1/40
  7
STYLE2
100
AcDbText
  0
TEXT
  5
1C7ED
330
747D
100
AcDbEntity
  8
文字
 62
     7
 48
50.0
100
AcDbText
 10
13201.43669998441
 20
477.2740661031257
 30
0.0
 40
160.0
  1
機種名
  7
STYLE2
100
AcDbText
  0
LINE
  5
1C7EF
330
747D
100
AcDbEntity
  8
文字
 62
     7
 48
50.0
100
AcDbLine
 10
13187.2
 20
400.0
 30
0.0
 11
16227.2
 21
400.0
 31
0.0
  0
MTEXT
  5
1D2D5
102
{ACAD_REACTORS
330
1D2D6
102
}
330
747D
100
AcDbEntity
  8
部品1
 62
     7
 48
50.0
100
AcDbMText
 10
11633.99523070988
 20
9065.880237751578
 30
0.0
 40
120.0
 41
0.0
 71
     6
 72
     1
  1
アンカーボルト
  7
STYLE1
 73
     1
 44
1.0
1001
ACAD
1000
MTEXTBEGIN
1070
    73
1070
     1
1070
    44
1040
1.0
1070
    74
1070
     0
1000
MTEXTEND
  0
LEADER
  5
1D2D6
330
747D
100
AcDbEntity
  8
寸法
 48
50.0
100
AcDbLeader
  3
INABA_S40G
 73
     0
 74
     0
 75
     1
 40
120.0
 41
994.3492424049171
 76
     3
 10
10315.680085757
 20
8604.165792170261
 30
0.0
 10
10499.64598830496
 20
8965.880237751578
 30
0.0
 10
10599.64598830496
 20
8965.880237751578
 30
0.0
340
1D2D5
1001
ACAD
1000
DSTYLE
1002
{
1070
   341
1005
0
1002
}
  0
MTEXT
  5
1D332
102
{ACAD_REACTORS
330
1D333
102
}
330
747D
100
AcDbEntity
  8
部品1
 62
     7
 48
50.0
100
AcDbMText
 10
7175.440328953422
 20
6858.968711548037
 30
0.0
 40
120.0
 41
0.0
 71
     6
 72
     1
  1
CB
  7
STYLE1
 73
     1
 44
1.0
1001
ACAD
1000
MTEXTBEGIN
1070
    73
1070
     1
1070
    44
1040
1.0
1070
    74
1070
     0
1000
MTEXTEND
  0
LEADER
  5
1D333
330
747D
100
AcDbEntity
  8
寸法
 48
50.0
100
AcDbLeader
  3
INABA_S40G
 73
     0
 74
     0
 75
     1
 40
120.0
 41
149.591883092037
 76
     3
 10
6748.565642998741
 20
7134.982625115869
 30
0.0
 10
6885.848445861384
 20
6758.968711548037
 30
0.0
 10
6985.848445861384
 20
6758.968711548037
 30
0.0
340
1D332
1001
ACAD
1000
DSTYLE
1002
{
1070
   341
1005
0
1002
}
  0
DIMENSION
  5
1DAC7
330
747D
100
AcDbEntity
  8
寸法
 48
50.0
100
AcDbDimension
  2
*D1
 10
8463.202780124335
 20
5666.957947811575
 30
0.0
 11
8463.202780124332
 21
5058.472666437335
 31
0.0
 70
   160
  1
扉の出<>
 71
     5
 42
75.00000000000091
  3
INABA_S40G
100
AcDbAlignedDimension
 13
8196.600000000001
 23
5591.957947811573
 33
0.0
 14
8196.600000000008
 24
5666.957947811575
 34
0.0
 50
90.0
100
AcDbRotatedDimension
1001
ACAD
1000
DSTYLE
1002
{
1070
   341
1005
0
1002
}
  0
DIMENSION
  5
1F2B5
330
747D
100
AcDbEntity
  8
寸法
 48
50.0
100
AcDbDimension
  2
*D2
 10
6008.600000000001
 20
5111.222285907242
 30
0.0
 11
7084.541003256311
 21
5111.222285907242
 31
0.0
 70
   160
 71
     5
 42
2187.999999999999
  3
INABA_S40G
100
AcDbAlignedDimension
 13
8196.600000000001
 23
5591.957947811572
 33
0.0
 14
6008.600000000001
 24
5591.957947811557
 34
0.0
100
AcDbRotatedDimension
1001
ACAD
1000
DSTYLE
1002
{
1070
   341
1005
0
1002
}
  0
LINE
  5
20992
330
747D
100
AcDbEntity
  8
想像線
 48
10.0
100
AcDbLine
 10
10483.6
 20
5611.957947811557
 30
0.0
 11
10483.6
 21
8801.957947811549
 31
0.0
  0
DIMENSION
  5
20DE1
330
747D
100
AcDbEntity
  8
寸法
 48
50.0
100
AcDbDimension
  2
*D3
 10
10483.6
 20
9685.178269870473
 30
0.0
 11
10754.77462120246
 21
9685.178269870473
 31
0.0
 70
   160
  1
a
 71
     5
 42
45.0
  3
INABA_S40G
100
AcDbAlignedDimension
 13
10438.6
 23
8726.95794781155
 33
0.0
 14
10483.6
 24
9472.717574353634
 34
0.0
100
AcDbRotatedDimension
1001
ACAD
1000
DSTYLE
1002
{
1070
   341
1005
0
1002
}
  0
DIMENSION
  5
20DFB
330
747D
100
AcDbEntity
  8
寸法
 48
50.0
100
AcDbDimension
  2
*D4
 10
6008.600000000001
 20
9685.178269870473
 30
0.0
 11
5692.425378797541
 21
9685.178269870473
 31
0.0
 70
   160
  1
a
 71
     5
 42
44.99999999999272
  3
INABA_S40G
100
AcDbAlignedDimension
 13
5963.600000000009
 23
9472.717574353634
 33
0.0
 14
6008.600000000001
 24
8726.95794781155
 34
0.0
100
AcDbRotatedDimension
1001
ACAD
1000
DSTYLE
1002
{
1070
   341
1005
0
1002
}
  0
DIMENSION
  5
20E15
330
747D
100
AcDbEntity
  8
寸法
 48
50.0
100
AcDbDimension
  2
*D5
 10
5267.164931848213
 20
8726.957947811552
 30
0.0
 11
5167.164931848212
 21
8764.457947811555
 31
0.0
 70
    32
  1
c
 71
     5
 42
75.00000000000364
  3
INABA_S40G
100
AcDbAlignedDimension
 13
5512.657733986181
 23
8801.957947811557
 33
0.0
 14
6008.600000000004
 24
8726.957947811552
 34
0.0
 50
90.0
100
AcDbRotatedDimension
1001
ACAD
1000
DSTYLE
1002
{
1070
   341
1005
0
1002
}
  0
DIMENSION
  5
20E3A
330
747D
100
AcDbEntity
  8
寸法
 48
50.0
100
AcDbDimension
  2
*D6
 10
5267.164931848213
 20
5611.957947811563
 30
0.0
 11
5167.164931848212
 21
5639.457947811552
 31
0.0
 70
    32
  1
b
 71
     5
 42
54.99999999997726
  3
INABA_S40G
100
AcDbAlignedDimension
 13
6008.600000000001
 23
5666.95794781154
 33
0.0
 14
5512.657733986181
 24
5611.957947811563
 34
0.0
 50
90.0
100
AcDbRotatedDimension
1001
ACAD
1000
DSTYLE
1002
{
1070
   341
1005
0
1002
}
  0
LINE
  5
215EC
102
{ACAD_REACTORS
330
257A5
102
}
330
747D
100
AcDbEntity
  8
部品1
 48
50.0
100
AcDbLine
 10
10208.6
 20
5786.957947811568
 30
0.0
 11
8235.600000000001
 21
5786.957947811563
 31
0.0
  0
DIMENSION
  5
215ED
330
747D
100
AcDbEntity
  8
寸法
 48
50.0
100
AcDbDimension
  2
*D7
 10
8670.14438614211
 20
5896.957947811571
 30
0.0
 11
8670.144386142109
 21
6167.017002929696
 31
0.0
 70
   160
 71
     5
 42
110.0000000000063
  3
INABA_S40G
100
AcDbAlignedDimension
 13
8782.599867447318
 23
5786.957947811565
 33
0.0
 14
8235.600000000001
 24
5896.957947811571
 34
0.0
 50
90.0
100
AcDbRotatedDimension
1001
ACAD
1000
DSTYLE
1002
{
1070
   341
1005
0
1002
}
  0
LINE
  5
215EE
102
{ACAD_REACTORS
330
257A5
102
}
330
747D
100
AcDbEntity
  8
部品1
 48
50.0
100
AcDbLine
 10
10208.6
 20
8606.957947811549
 30
0.0
 11
8235.600000000001
 21
8606.957947811553
 31
0.0
  0
DIMENSION
  5
215EF
330
747D
100
AcDbEntity
  8
寸法
 48
50.0
100
AcDbDimension
  2
*D8
 10
8670.14438614211
 20
5786.957947811565
 30
0.0
 11
8670.144386142109
 21
5330.669642843612
 31
0.0
 70
   160
 71
     5
 42
119.9999999999854
  3
INABA_S40G
100
AcDbAlignedDimension
 13
8307.41918098816
 23
5666.957947811579
 33
0.0
 14
8782.599867447318
 24
5786.957947811565
 34
0.0
 50
90.0
100
AcDbRotatedDimension
1001
ACAD
1000
DSTYLE
1002
{
1070
   341
1005
0
1002
}
  0
LINE
  5
215F0
102
{ACAD_REACTORS
330
257A5
102
}
330
747D
100
AcDbEntity
  8
部品1
 48
50.0
100
AcDbLine
 10
10438.6
 20
5666.95794781157
 30
0.0
 11
8196.600000000001
 21
5666.95794781155
 31
0.0
  0
LINE
  5
215F2
102
{ACAD_REACTORS
330
257A5
102
}
330
747D
100
AcDbEntity
  8
部品1
 48
50.0
100
AcDbLine
 10
10438.6
 20
8726.957947811552
 30
0.0
 11
6008.600000000001
 21
8726.957947811552
 31
0.0
  0
DIMENSION
  5
215F3
330
747D
100
AcDbEntity
  8
寸法
 48
50.0
100
AcDbDimension
  2
*D9
 10
10438.6
 20
9685.178269870473
 30
0.0
 11
8223.600000000001
 21
9785.178269870472
 31
0.0
 70
    32
 71
     5
 42
4429.999999999998
  3
INABA_S40G
100
AcDbAlignedDimension
 13
6008.600000000001
 23
8726.957947811552
 33
0.0
 14
10438.6
 24
8726.957947811552
 34
0.0
100
AcDbRotatedDimension
1001
ACAD
1000
DSTYLE
1002
{
1070
   341
1005
0
1002
}
  0
DIMENSION
  5
215F4
330
747D
100
AcDbEntity
  8
寸法
 48
50.0
100
AcDbDimension
  2
*D10
 10
8223.600000000001
 20
9253.867713459881
 30
0.0
 11
8603.6
 21
9353.86771345988
 31
0.0
 70
    32
 71
     5
 42
760.0
  3
INABA_S40G
100
AcDbAlignedDimension
 13
8983.6
 23
8096.957947811551
 33
0.0
 14
8223.600000000001
 24
8096.957947811551
 34
0.0
100
AcDbRotatedDimension
1001
ACAD
1000
DSTYLE
1002
{
1070
   341
1005
0
1002
}
  0
DIMENSION
  5
215F5
330
747D
100
AcDbEntity
  8
寸法
 48
50.0
100
AcDbDimension
  2
*D11
 10
8105.6
 20
9472.717574353637
 30
0.0
 11
9210.600000000001
 21
9572.729385377259
 31
0.0
 70
    32
 71
     5
 42
2210.0
  3
INABA_S40G
100
AcDbAlignedDimension
 13
10315.6
 23
8653.957947811553
 33
0.0
 14
8105.6
 24
8653.957947811553
 34
0.0
100
AcDbRotatedDimension
1001
ACAD
1000
DSTYLE
1002
{
1070
   341
1005
0
1002
}
  0
LINE
  5
21605
330
747D
100
AcDbEntity
  8
部品1
 48
50.0
100
AcDbLine
 10
8123.600000000001
 20
7896.95794781155
 30
0.0
 11
8123.600000000001
 21
8096.957947811551
 31
0.0
  0
LINE
  5
21606
330
747D
100
AcDbEntity
  8
センター
 48
2.0
100
AcDbLine
 10
8223.600000000001
 20
8046.95794781155
 30
0.0
 11
8223.600000000001
 21
7946.957947811551
 31
0.0
  0
LINE
  5
21607
330
747D
100
AcDbEntity
  8
部品1
 48
50.0
100
AcDbLine
 10
8323.6
 20
7896.95794781155
 30
0.0
 11
8323.6
 21
8096.957947811551
 31
0.0
  0
DIMENSION
  5
21608
330
747D
100
AcDbEntity
  8
寸法
 48
50.0
100
AcDbDimension
  2
*D12
 10
5512.657733986177
 20
5789.957947811554
 30
0.0
 11
5412.645922962554
 21
7196.957947811553
 31
0.0
 70
    32
 71
     5
 42
2813.999999999999
  3
INABA_S40G
100
AcDbAlignedDimension
 13
6081.6
 23
8603.957947811553
 33
0.0
 14
6081.600000000008
 24
5789.957947811554
 34
0.0
 50
90.0
100
AcDbRotatedDimension
1001
ACAD
1000
DSTYLE
1002
{
1070
   341
1005
0
1002
}
  0
LINE
  5
21609
102
{ACAD_REACTORS
330
257A5
102
}
330
747D
100
AcDbEntity
  8
部品1
 48
50.0
100
AcDbLine
 10
6128.6
 20
5896.957947811554
 30
0.0
 11
6128.6
 21
8496.95794781155
 31
0.0
  0
LINE
  5
2160A
102
{ACAD_REACTORS
330
257A5
102
}
330
747D
100
AcDbEntity
  8
部品1
 48
50.0
100
AcDbLine
 10
6008.600000000001
 20
5666.957947811551
 30
0.0
 11
6008.600000000001
 21
8726.957947811552
 31
0.0
  0
DIMENSION
  5
2160C
330
747D
100
AcDbEntity
  8
寸法
 48
50.0
100
AcDbDimension
  2
*D13
 10
5267.16493184821
 20
5666.957947811551
 30
0.0
 11
5167.164931848209
 21
7196.957947811553
 31
0.0
 70
    32
 71
     5
 42
3060.000000000002
  3
INABA_S40G
100
AcDbAlignedDimension
 13
6008.600000000001
 23
8726.957947811552
 33
0.0
 14
6008.600000000001
 24
5666.957947811551
 34
0.0
 50
90.0
100
AcDbRotatedDimension
1001
ACAD
1000
DSTYLE
1002
{
1070
   341
1005
0
1002
}
  0
LINE
  5
2166C
102
{ACAD_REACTORS
330
257A5
102
}
330
747D
100
AcDbEntity
  8
部品1
 48
50.0
100
AcDbLine
 10
7975.6
 20
5786.957947811561
 30
0.0
 11
6238.6
 21
5786.957947811554
 31
0.0
  0
LINE
  5
2166D
102
{ACAD_REACTORS
330
257A5
102
}
330
747D
100
AcDbEntity
  8
部品1
 48
50.0
100
AcDbLine
 10
8196.600000000001
 20
5591.957947811557
 30
0.0
 11
6008.600000000001
 21
5591.95794781154
 31
0.0
  0
DIMENSION
  5
21671
330
747D
100
AcDbEntity
  8
寸法
 48
50.0
100
AcDbDimension
  2
*D28
 10
5512.657733986179
 20
5666.957947811551
 30
0.0
 11
5512.657733986178
 21
5331.42699896896
 31
0.0
 70
   160
 71
     5
 42
123.0000000000027
  3
INABA_S40G
100
AcDbAlignedDimension
 13
6081.600000000008
 23
5789.957947811554
 33
0.0
 14
6008.600000000001
 24
5666.957947811551
 34
0.0
 50
90.0
100
AcDbRotatedDimension
1001
ACAD
1000
DSTYLE
1002
{
1070
   341
1005
0
1002
}
  0
LINE
  5
21673
330
747D
100
AcDbEntity
  8
部品1
 48
50.0
100
AcDbLine
 10
6238.6
 20
5786.957947811557
 30
0.0
 11
6238.6
 21
5896.957947811555
 31
0.0
  0
LINE
  5
2167B
330
747D
100
AcDbEntity
  8
センター
 48
2.0
100
AcDbLine
 10
6131.600000000009
 20
5839.957947811554
 30
0.0
 11
6131.600000000009
 21
5739.957947811554
 31
0.0
  0
LINE
  5
216AC
330
747D
100
AcDbEntity
  8
センター
 48
2.0
100
AcDbLine
 10
6081.600000000008
 20
5789.957947811554
 30
0.0
 11
6181.600000000009
 21
5789.957947811554
 31
0.0
  0
CIRCLE
  5
216AD
330
747D
100
AcDbEntity
  8
部品1
 48
50.0
100
AcDbCircle
 10
6131.600000000009
 20
5789.957947811554
 30
0.0
 40
35.0
  0
LINE
  5
216AE
330
747D
100
AcDbEntity
  8
部品1
 48
50.0
100
AcDbLine
 10
6008.600000000001
 20
5591.957947811557
 30
0.0
 11
6008.600000000001
 21
5666.95794781154
 31
0.0
  0
LINE
  5
216F0
330
747D
100
AcDbEntity
  8
部品1
 48
50.0
100
AcDbLine
 10
6238.6
 20
5896.957947811555
 30
0.0
 11
6128.600000000002
 21
5896.957947811555
 31
0.0
  0
LINE
  5
2175A
102
{ACAD_REACTORS
330
257A5
102
}
330
747D
100
AcDbEntity
  8
部品1
 48
50.0
100
AcDbLine
 10
6128.600000000002
 20
7096.95794781155
 30
0.0
 11
6008.600000000001
 21
7096.95794781155
 31
0.0
  0
LINE
  5
2175D
102
{ACAD_REACTORS
330
257A5
102
}
330
747D
100
AcDbEntity
  8
部品1
 48
50.0
100
AcDbLine
 10
7018.599999999999
 20
5786.957947811558
 30
0.0
 11
7018.600000000002
 21
5591.957947811546
 31
0.0
  0
LINE
  5
2179D
102
{ACAD_REACTORS
330
257A5
102
}
330
747D
100
AcDbEntity
  8
部品1
 48
50.0
100
AcDbLine
 10
7218.600000000002
 20
5786.95794781156
 30
0.0
 11
7218.600000000002
 21
5591.957947811549
 31
0.0
  0
DIMENSION
  5
217E5
330
747D
100
AcDbEntity
  8
寸法
 48
50.0
100
AcDbDimension
  2
*D29
 10
7975.6
 20
6069.190527259599
 30
0.0
 11
8105.6
 21
6069.190527259599
 31
0.0
 70
   160
 71
     5
 42
260.0
  3
INABA_S40G
100
AcDbAlignedDimension
 13
8235.600000000001
 23
5896.957947811571
 33
0.0
 14
7975.6
 24
5896.957947811571
 34
0.0
100
AcDbRotatedDimension
1001
ACAD
1000
DSTYLE
1002
{
1070
   341
1005
0
1002
}
  0
LINE
  5
217E6
330
747D
100
AcDbEntity
  8
部品1
 48
50.0
100
AcDbLine
 10
8235.600000000001
 20
5896.957947811571
 30
0.0
 11
7975.6
 21
5896.957947811571
 31
0.0
  0
LINE
  5
217E7
330
747D
100
AcDbEntity
  8
部品1
 48
50.0
100
AcDbLine
 10
7975.6
 20
5786.957947811561
 30
0.0
 11
7975.6
 21
5896.957947811571
 31
0.0
  0
LINE
  5
2186A
330
747D
100
AcDbEntity
  8
部品1
 48
50.0
100
AcDbLine
 10
8235.600000000003
 20
5786.957947811565
 30
0.0
 11
8235.600000000001
 21
5896.957947811571
 31
0.0
  0
LINE
  5
2186B
330
747D
100
AcDbEntity
  8
センター
 48
2.0
100
AcDbLine
 10
8055.600000000008
 20
5789.957947811554
 30
0.0
 11
8155.600000000008
 21
5789.957947811554
 31
0.0
  0
CIRCLE
  5
2186C
330
747D
100
AcDbEntity
  8
部品1
 48
50.0
100
AcDbCircle
 10
8105.600000000007
 20
5789.957947811554
 30
0.0
 40
35.0
  0
LINE
  5
2186D
330
747D
100
AcDbEntity
  8
センター
 48
2.0
100
AcDbLine
 10
8105.600000000007
 20
5839.957947811554
 30
0.0
 11
8105.600000000007
 21
5739.957947811554
 31
0.0
  0
LINE
  5
218A0
330
747D
100
AcDbEntity
  8
部品1
 48
50.0
100
AcDbLine
 10
8196.600000000001
 20
5591.957947811557
 30
0.0
 11
8196.600000000001
 21
5666.957947811553
 31
0.0
  0
LINE
  5
218A1
330
747D
100
AcDbEntity
  8
部品1
 48
50.0
100
AcDbLine
 10
8323.6
 20
7896.95794781155
 30
0.0
 11
8123.600000000001
 21
7896.95794781155
 31
0.0
  0
LINE
  5
218A3
102
{ACAD_REACTORS
330
257A5
102
}
330
747D
100
AcDbEntity
  8
部品1
 48
50.0
100
AcDbLine
 10
7975.6
 20
8606.957947811553
 30
0.0
 11
6238.6
 21
8606.957947811553
 31
0.0
  0
DIMENSION
  5
218A4
330
747D
100
AcDbEntity
  8
寸法
 48
50.0
100
AcDbDimension
  2
*D14
 10
6008.600000000001
 20
9253.867713459881
 30
0.0
 11
6391.100000000001
 21
9353.86771345988
 31
0.0
 70
    32
 71
     5
 42
764.9999999999991
  3
INABA_S40G
100
AcDbAlignedDimension
 13
6773.6
 23
8096.957947811551
 33
0.0
 14
6008.600000000001
 24
8726.957947811552
 34
0.0
100
AcDbRotatedDimension
1001
ACAD
1000
DSTYLE
1002
{
1070
   341
1005
0
1002
}
  0
DIMENSION
  5
218A5
330
747D
100
AcDbEntity
  8
寸法
 48
50.0
100
AcDbDimension
  2
*D15
 10
6131.6
 20
9472.717574353637
 30
0.0
 11
7118.6
 21
9572.717574353637
 31
0.0
 70
    32
 71
     5
 42
1974.0
  3
INABA_S40G
100
AcDbAlignedDimension
 13
8105.6
 23
8653.957947811553
 33
0.0
 14
6131.6
 24
8653.957947811553
 34
0.0
100
AcDbRotatedDimension
1001
ACAD
1000
DSTYLE
1002
{
1070
   341
1005
0
1002
}
  0
DIMENSION
  5
218A6
330
747D
100
AcDbEntity
  8
寸法
 48
50.0
100
AcDbDimension
  2
*D16
 10
6008.600000000001
 20
9472.717574353637
 30
0.0
 11
5735.493398282206
 21
9472.717574353637
 31
0.0
 70
   160
 71
     5
 42
122.9999999999991
  3
INABA_S40G
100
AcDbAlignedDimension
 13
6131.6
 23
8653.957947811553
 33
0.0
 14
6008.600000000001
 24
8726.957947811552
 34
0.0
100
AcDbRotatedDimension
1001
ACAD
1000
DSTYLE
1002
{
1070
   341
1005
0
1002
}
  0
DIMENSION
  5
218A8
330
747D
100
AcDbEntity
  8
寸法
 48
50.0
100
AcDbDimension
  2
*D17
 10
5512.657733986179
 20
8603.957947811553
 30
0.0
 11
5512.657733986178
 21
9000.064549529353
 31
0.0
 70
   160
 71
     5
 42
123.0
  3
INABA_S40G
100
AcDbAlignedDimension
 13
6008.600000000001
 23
8726.957947811552
 33
0.0
 14
6081.6
 24
8603.957947811553
 34
0.0
 50
90.0
100
AcDbRotatedDimension
1001
ACAD
1000
DSTYLE
1002
{
1070
   341
1005
0
1002
}
  0
DIMENSION
  5
218A9
330
747D
100
AcDbEntity
  8
寸法
 48
50.0
100
AcDbDimension
  2
*D18
 10
6455.307249876098
 20
8726.95794781155
 30
0.0
 11
6455.307249876098
 21
9005.041491084439
 31
0.0
 70
   160
 71
     5
 42
119.9999999999981
  3
INABA_S40G
100
AcDbAlignedDimension
 13
6238.599999999999
 23
8606.957947811553
 33
0.0
 14
6238.6
 24
8726.95794781155
 34
0.0
 50
90.0
100
AcDbRotatedDimension
1001
ACAD
1000
DSTYLE
1002
{
1070
   341
1005
0
1002
}
  0
DIMENSION
  5
218AA
330
747D
100
AcDbEntity
  8
寸法
 48
50.0
100
AcDbDimension
  2
*D19
 10
6455.307249876098
 20
8496.95794781155
 30
0.0
 11
6455.307249876098
 21
8156.898892693439
 31
0.0
 70
   160
 71
     5
 42
110.0000000000036
  3
INABA_S40G
100
AcDbAlignedDimension
 13
6238.599999999999
 23
8606.957947811554
 33
0.0
 14
6238.6
 24
8496.95794781155
 34
0.0
 50
90.0
100
AcDbRotatedDimension
1001
ACAD
1000
DSTYLE
1002
{
1070
   341
1005
0
1002
}
  0
LINE
  5
218AB
102
{ACAD_REACTORS
330
257A5
102
}
330
747D
100
AcDbEntity
  8
部品1
 48
50.0
100
AcDbLine
 10
6128.600000000002
 20
7296.95794781155
 30
0.0
 11
6008.600000000001
 21
7296.95794781155
 31
0.0
  0
LINE
  5
218AC
330
747D
100
AcDbEntity
  8
部品1
 48
50.0
100
AcDbLine
 10
6407.928907166848
 20
8726.957947811548
 30
0.0
 11
6008.600000000001
 21
8726.957947811552
 31
0.0
  0
LINE
  5
218AD
330
747D
100
AcDbEntity
  8
部品1
 48
50.0
100
AcDbLine
 10
6238.6
 20
8496.95794781155
 30
0.0
 11
6128.600000000002
 21
8496.957947811552
 31
0.0
  0
LINE
  5
218AE
330
747D
100
AcDbEntity
  8
センター
 48
2.0
100
AcDbLine
 10
6131.6
 20
8653.957947811553
 30
0.0
 11
6131.6
 21
8553.957947811552
 31
0.0
  0
LINE
  5
218AF
330
747D
100
AcDbEntity
  8
センター
 48
2.0
100
AcDbLine
 10
6081.6
 20
8603.957947811553
 30
0.0
 11
6181.6
 21
8603.957947811553
 31
0.0
  0
CIRCLE
  5
218B0
330
747D
100
AcDbEntity
  8
部品1
 48
50.0
100
AcDbCircle
 10
6131.6
 20
8603.957947811553
 30
0.0
 40
35.0
  0
LINE
  5
218B1
330
747D
100
AcDbEntity
  8
部品1
 48
50.0
100
AcDbLine
 10
6238.6
 20
8496.95794781155
 30
0.0
 11
6238.599999999999
 21
8606.957947811554
 31
0.0
  0
DIMENSION
  5
218B2
330
747D
100
AcDbEntity
  8
寸法
 48
50.0
100
AcDbDimension
  2
*D20
 10
7463.600000000001
 20
9253.867713459881
 30
0.0
 11
7843.600000000001
 21
9353.86771345988
 31
0.0
 70
    32
 71
     5
 42
759.999999999999
  3
INABA_S40G
100
AcDbAlignedDimension
 13
8223.600000000001
 23
8096.957947811551
 33
0.0
 14
7463.600000000001
 24
8096.957947811551
 34
0.0
100
AcDbRotatedDimension
1001
ACAD
1000
DSTYLE
1002
{
1070
   341
1005
0
1002
}
  0
LINE
  5
218BD
102
{ACAD_REACTORS
330
257A5
102
}
330
747D
100
AcDbEntity
  8
部品1
 48
50.0
100
AcDbLine
 10
7018.600000000009
 20
8726.957947811552
 30
0.0
 11
7018.600000000009
 21
8606.957947811553
 31
0.0
  0
LINE
  5
218BE
102
{ACAD_REACTORS
330
257A5
102
}
330
747D
100
AcDbEntity
  8
部品1
 48
50.0
100
AcDbLine
 10
7218.600000000009
 20
8726.957947811552
 30
0.0
 11
7218.600000000009
 21
8606.957947811553
 31
0.0
  0
LINE
  5
218BF
330
747D
100
AcDbEntity
  8
センター
 48
2.0
100
AcDbLine
 10
8173.6
 20
7996.957947811551
 30
0.0
 11
8273.6
 21
7996.957947811551
 31
0.0
  0
LINE
  5
218C0
330
747D
100
AcDbEntity
  8
部品1
 48
50.0
100
AcDbLine
 10
8323.6
 20
8096.957947811551
 30
0.0
 11
8123.600000000001
 21
8096.957947811551
 31
0.0
  0
LINE
  5
218C1
330
747D
100
AcDbEntity
  8
部品1
 48
50.0
100
AcDbLine
 10
8235.600000000001
 20
8496.957947811534
 30
0.0
 11
7975.6
 21
8496.957947811534
 31
0.0
  0
LINE
  5
218C2
330
747D
100
AcDbEntity
  8
部品1
 48
50.0
100
AcDbLine
 10
7975.6
 20
8606.957947811554
 30
0.0
 11
7975.6
 21
8496.957947811534
 31
0.0
  0
LINE
  5
218C3
330
747D
100
AcDbEntity
  8
部品1
 48
50.0
100
AcDbLine
 10
8235.600000000003
 20
8606.957947811554
 30
0.0
 11
8235.600000000001
 21
8496.957947811534
 31
0.0
  0
CIRCLE
  5
218C4
330
747D
100
AcDbEntity
  8
部品1
 48
50.0
100
AcDbCircle
 10
8105.6
 20
8603.957947811553
 30
0.0
 40
35.0
  0
LINE
  5
218C5
330
747D
100
AcDbEntity
  8
センター
 48
2.0
100
AcDbLine
 10
8105.6
 20
8653.957947811553
 30
0.0
 11
8105.6
 21
8553.957947811552
 31
0.0
  0
LINE
  5
218C6
330
747D
100
AcDbEntity
  8
センター
 48
2.0
100
AcDbLine
 10
8055.600000000001
 20
8603.957947811553
 30
0.0
 11
8155.600000000001
 21
8603.957947811553
 31
0.0
  0
LINE
  5
218C7
102
{ACAD_REACTORS
330
257A5
102
}
330
747D
100
AcDbEntity
  8
部品1
 48
50.0
100
AcDbLine
 10
10438.6
 20
5666.95794781157
 30
0.0
 11
10438.6
 21
8726.957947811552
 31
0.0
  0
LINE
  5
218C8
102
{ACAD_REACTORS
330
257A5
102
}
330
747D
100
AcDbEntity
  8
部品1
 48
50.0
100
AcDbLine
 10
10318.6
 20
5896.957947811571
 30
0.0
 11
10318.6
 21
8496.957947811552
 31
0.0
  0
DIMENSION
  5
218CC
330
747D
100
AcDbEntity
  8
寸法
 48
50.0
100
AcDbDimension
  2
*D21
 10
9309.531448609051
 20
7196.957947811569
 30
0.0
 11
9209.53144860905
 21
7596.95794781156
 31
0.0
 70
    32
 71
     5
 42
799.9999999999827
  3
INABA_S40G
100
AcDbAlignedDimension
 13
9573.6
 23
7996.957947811551
 33
0.0
 14
9573.6
 24
7196.957947811569
 34
0.0
 50
90.0
100
AcDbRotatedDimension
1001
ACAD
1000
DSTYLE
1002
{
1070
   341
1005
0
1002
}
  0
DIMENSION
  5
21942
330
747D
100
AcDbEntity
  8
寸法
 48
50.0
100
AcDbDimension
  2
*D22
 10
9309.531448609051
 20
6396.957947811568
 30
0.0
 11
9209.53144860905
 21
6031.957947811566
 31
0.0
 70
    32
 71
     5
 42
730.0000000000054
  3
INABA_S40G
100
AcDbAlignedDimension
 13
9210.045939259561
 23
5666.957947811563
 33
0.0
 14
9573.6
 24
6396.957947811568
 34
0.0
 50
90.0
100
AcDbRotatedDimension
1001
ACAD
1000
DSTYLE
1002
{
1070
   341
1005
0
1002
}
  0
LINE
  5
21943
102
{ACAD_REACTORS
330
257A5
102
}
330
747D
100
AcDbEntity
  8
部品1
 48
50.0
100
AcDbLine
 10
9228.600000000017
 20
5786.957947811567
 30
0.0
 11
9228.600000000017
 21
5666.957947811567
 31
0.0
  0
LINE
  5
21945
102
{ACAD_REACTORS
330
257A5
102
}
330
747D
100
AcDbEntity
  8
部品1
 48
50.0
100
AcDbLine
 10
9428.600000000017
 20
5786.957947811568
 30
0.0
 11
9428.600000000017
 21
5666.957947811567
 31
0.0
  0
LINE
  5
2194D
330
747D
100
AcDbEntity
  8
部品1
 48
50.0
100
AcDbLine
 10
10208.6
 20
5786.957947811568
 30
0.0
 11
10208.6
 21
5896.957947811571
 31
0.0
  0
CIRCLE
  5
2194E
330
747D
100
AcDbEntity
  8
部品1
 48
50.0
100
AcDbCircle
 10
10315.60000000001
 20
5789.957947811554
 30
0.0
 40
35.0
  0
LINE
  5
2194F
330
747D
100
AcDbEntity
  8
センター
 48
2.0
100
AcDbLine
 10
10265.60000000001
 20
5789.957947811554
 30
0.0
 11
10365.60000000001
 21
5789.957947811554
 31
0.0
  0
LINE
  5
21950
330
747D
100
AcDbEntity
  8
センター
 48
2.0
100
AcDbLine
 10
10315.60000000001
 20
5839.957947811554
 30
0.0
 11
10315.60000000001
 21
5739.957947811554
 31
0.0
  0
LINE
  5
21951
330
747D
100
AcDbEntity
  8
部品1
 48
50.0
100
AcDbLine
 10
10318.6
 20
5896.957947811571
 30
0.0
 11
10208.6
 21
5896.957947811571
 31
0.0
  0
LINE
  5
21952
102
{ACAD_REACTORS
330
257A5
102
}
330
747D
100
AcDbEntity
  8
部品1
 48
50.0
100
AcDbLine
 10
10438.6
 20
7096.95794781155
 30
0.0
 11
10318.6
 21
7096.95794781155
 31
0.0
  0
DIMENSION
  5
21957
330
747D
100
AcDbEntity
  8
寸法
 48
50.0
100
AcDbDimension
  2
*D23
 10
10208.6
 20
8221.066703136829
 30
0.0
 11
9972.552755905512
 21
8221.066703136829
 31
0.0
 70
   160
 71
     5
 42
110.0
  3
INABA_S40G
100
AcDbAlignedDimension
 13
10318.6
 23
8496.957947811552
 33
0.0
 14
10208.6
 24
8496.95794781155
 34
0.0
100
AcDbRotatedDimension
1001
ACAD
1000
DSTYLE
1002
{
1070
   341
1005
0
1002
}
  0
DIMENSION
  5
21958
330
747D
100
AcDbEntity
  8
寸法
 48
50.0
100
AcDbDimension
  2
*D24
 10
9673.6
 20
9253.867713459881
 30
0.0
 11
10056.1
 21
9353.86771345988
 31
0.0
 70
    32
 71
     5
 42
765.0
  3
INABA_S40G
100
AcDbAlignedDimension
 13
10438.6
 23
8726.957947811552
 33
0.0
 14
9673.6
 24
8096.957947811551
 34
0.0
100
AcDbRotatedDimension
1001
ACAD
1000
DSTYLE
1002
{
1070
   341
1005
0
1002
}
  0
DIMENSION
  5
21959
330
747D
100
AcDbEntity
  8
寸法
 48
50.0
100
AcDbDimension
  2
*D25
 10
9309.531448609051
 20
8726.957947811554
 30
0.0
 11
9209.53144860905
 21
8361.957947811553
 31
0.0
 70
    32
 71
     5
 42
730.0000000000027
  3
INABA_S40G
100
AcDbAlignedDimension
 13
9573.6
 23
7996.957947811551
 33
0.0
 14
9114.157431058357
 24
8726.957947811554
 34
0.0
 50
90.0
100
AcDbRotatedDimension
1001
ACAD
1000
DSTYLE
1002
{
1070
   341
1005
0
1002
}
  0
LINE
  5
2195E
102
{ACAD_REACTORS
330
257A5
102
}
330
747D
100
AcDbEntity
  8
部品1
 48
50.0
100
AcDbLine
 10
9228.600000000007
 20
8726.95794781155
 30
0.0
 11
9228.600000000007
 21
8606.957947811553
 31
0.0
  0
LINE
  5
21962
102
{ACAD_REACTORS
330
257A5
102
}
330
747D
100
AcDbEntity
  8
部品1
 48
50.0
100
AcDbLine
 10
9428.600000000008
 20
8726.95794781155
 30
0.0
 11
9428.600000000008
 21
8606.957947811553
 31
0.0
  0
DIMENSION
  5
21964
330
747D
100
AcDbEntity
  8
寸法
 48
50.0
100
AcDbDimension
  2
*D26
 10
10315.6
 20
9472.717574353637
 30
0.0
 11
10711.7066017178
 21
9472.717574353637
 31
0.0
 70
   160
 71
     5
 42
123.0
  3
INABA_S40G
100
AcDbAlignedDimension
 13
10438.6
 23
8726.957947811552
 33
0.0
 14
10315.6
 24
8653.957947811553
 34
0.0
100
AcDbRotatedDimension
1001
ACAD
1000
DSTYLE
1002
{
1070
   341
1005
0
1002
}
  0
LINE
  5
21965
102
{ACAD_REACTORS
330
257A5
102
}
330
747D
100
AcDbEntity
  8
部品1
 48
50.0
100
AcDbLine
 10
10438.6
 20
7296.95794781155
 30
0.0
 11
10318.6
 21
7296.95794781155
 31
0.0
  0
DIMENSION
  5
21966
330
747D
100
AcDbEntity
  8
寸法
 48
50.0
100
AcDbDimension
  2
*D27
 10
10318.6
 20
8221.066703136829
 30
0.0
 11
10708.65905511811
 21
8221.066703136829
 31
0.0
 70
   160
 71
     5
 42
120.0
  3
INABA_S40G
100
AcDbAlignedDimension
 13
10438.6
 23
8496.957947811552
 33
0.0
 14
10318.6
 24
8496.957947811552
 34
0.0
100
AcDbRotatedDimension
1001
ACAD
1000
DSTYLE
1002
{
1070
   341
1005
0
1002
}
  0
CIRCLE
  5
21967
330
747D
100
AcDbEntity
  8
部品1
 48
50.0
100
AcDbCircle
 10
10315.6
 20
8603.957947811553
 30
0.0
 40
35.0
  0
LINE
  5
21968
330
747D
100
AcDbEntity
  8
センター
 48
2.0
100
AcDbLine
 10
10265.6
 20
8603.957947811553
 30
0.0
 11
10365.6
 21
8603.957947811553
 31
0.0
  0
LINE
  5
21969
330
747D
100
AcDbEntity
  8
部品1
 48
50.0
100
AcDbLine
 10
10318.6
 20
8496.957947811552
 30
0.0
 11
10208.6
 21
8496.95794781155
 31
0.0
  0
LINE
  5
2196A
330
747D
100
AcDbEntity
  8
部品1
 48
50.0
100
AcDbLine
 10
10208.6
 20
8496.95794781155
 30
0.0
 11
10208.6
 21
8606.957947811553
 31
0.0
  0
LINE
  5
2196B
330
747D
100
AcDbEntity
  8
センター
 48
2.0
100
AcDbLine
 10
10315.6
 20
8653.957947811553
 30
0.0
 11
10315.6
 21
8553.957947811552
 31
0.0
  0
DIMENSION
  5
2227B
330
747D
100
AcDbEntity
  8
寸法
 48
50.0
100
AcDbDimension
  2
*D30
 10
6773.6
 20
9253.867713459881
 30
0.0
 11
7118.6
 21
9353.86771345988
 31
0.0
 70
    32
 71
     5
 42
690.0000000000009
  3
INABA_S40G
100
AcDbAlignedDimension
 13
7463.600000000001
 23
8096.957947811551
 33
0.0
 14
6773.6
 24
8096.957947811551
 34
0.0
100
AcDbRotatedDimension
1001
ACAD
1000
DSTYLE
1002
{
1070
   341
1005
0
1002
}
  0
DIMENSION
  5
222D5
330
747D
100
AcDbEntity
  8
寸法
 48
50.0
100
AcDbDimension
  2
*D31
 10
8983.6
 20
9253.867713459881
 30
0.0
 11
9328.599999999999
 21
9353.86771345988
 31
0.0
 70
    32
 71
     5
 42
690.0
  3
INABA_S40G
100
AcDbAlignedDimension
 13
9673.6
 23
8096.957947811551
 33
0.0
 14
8983.6
 24
8096.957947811551
 34
0.0
100
AcDbRotatedDimension
1001
ACAD
1000
DSTYLE
1002
{
1070
   341
1005
0
1002
}
  0
LINE
  5
23A5A
330
747D
100
AcDbEntity
  8
部品1
 48
50.0
100
AcDbLine
 10
8323.600000000006
 20
6496.957947811563
 30
0.0
 11
8123.600000000006
 21
6496.957947811563
 31
0.0
  0
LINE
  5
23A5B
330
747D
100
AcDbEntity
  8
センター
 48
2.0
100
AcDbLine
 10
8173.600000000005
 20
6396.957947811563
 30
0.0
 11
8273.600000000007
 21
6396.957947811563
 31
0.0
  0
LINE
  5
23A5C
330
747D
100
AcDbEntity
  8
部品1
 48
50.0
100
AcDbLine
 10
8323.600000000006
 20
6296.957947811563
 30
0.0
 11
8123.600000000006
 21
6296.957947811563
 31
0.0
  0
LINE
  5
23A5D
330
747D
100
AcDbEntity
  8
部品1
 48
50.0
100
AcDbLine
 10
8323.600000000006
 20
6296.957947811563
 30
0.0
 11
8323.600000000006
 21
6496.957947811563
 31
0.0
  0
LINE
  5
23A5E
330
747D
100
AcDbEntity
  8
センター
 48
2.0
100
AcDbLine
 10
8223.600000000006
 20
6446.957947811561
 30
0.0
 11
8223.600000000006
 21
6346.957947811564
 31
0.0
  0
LINE
  5
23A5F
330
747D
100
AcDbEntity
  8
部品1
 48
50.0
100
AcDbLine
 10
8123.600000000006
 20
6296.957947811563
 30
0.0
 11
8123.600000000006
 21
6496.957947811563
 31
0.0
  0
LINE
  5
24AB8
330
747D
100
AcDbEntity
  8
部品1
 48
50.0
100
AcDbLine
 10
7563.6
 20
8096.957947811551
 30
0.0
 11
7363.600000000001
 21
8096.957947811551
 31
0.0
  0
LINE
  5
24AB9
330
747D
100
AcDbEntity
  8
センター
 48
2.0
100
AcDbLine
 10
7413.600000000001
 20
7996.957947811551
 30
0.0
 11
7513.600000000001
 21
7996.957947811551
 31
0.0
  0
LINE
  5
24ABA
330
747D
100
AcDbEntity
  8
部品1
 48
50.0
100
AcDbLine
 10
7563.6
 20
7896.95794781155
 30
0.0
 11
7363.600000000001
 21
7896.95794781155
 31
0.0
  0
LINE
  5
24ABB
330
747D
100
AcDbEntity
  8
部品1
 48
50.0
100
AcDbLine
 10
7563.6
 20
7896.95794781155
 30
0.0
 11
7563.6
 21
8096.957947811551
 31
0.0
  0
LINE
  5
24ABC
330
747D
100
AcDbEntity
  8
センター
 48
2.0
100
AcDbLine
 10
7463.600000000001
 20
8046.95794781155
 30
0.0
 11
7463.600000000001
 21
7946.957947811551
 31
0.0
  0
LINE
  5
24ABD
330
747D
100
AcDbEntity
  8
部品1
 48
50.0
100
AcDbLine
 10
7363.600000000001
 20
7896.95794781155
 30
0.0
 11
7363.600000000001
 21
8096.957947811551
 31
0.0
  0
LINE
  5
24AD0
330
747D
100
AcDbEntity
  8
部品1
 48
50.0
100
AcDbLine
 10
6673.6
 20
7896.95794781155
 30
0.0
 11
6673.6
 21
8096.957947811551
 31
0.0
  0
LINE
  5
24AD1
330
747D
100
AcDbEntity
  8
センター
 48
2.0
100
AcDbLine
 10
6773.6
 20
8046.95794781155
 30
0.0
 11
6773.6
 21
7946.957947811551
 31
0.0
  0
LINE
  5
24AD2
330
747D
100
AcDbEntity
  8
部品1
 48
50.0
100
AcDbLine
 10
6873.6
 20
7896.95794781155
 30
0.0
 11
6873.6
 21
8096.957947811551
 31
0.0
  0
LINE
  5
24AD3
330
747D
100
AcDbEntity
  8
部品1
 48
50.0
100
AcDbLine
 10
6873.6
 20
7896.95794781155
 30
0.0
 11
6673.6
 21
7896.95794781155
 31
0.0
  0
LINE
  5
24AD4
330
747D
100
AcDbEntity
  8
センター
 48
2.0
100
AcDbLine
 10
6723.600000000002
 20
7996.957947811551
 30
0.0
 11
6823.6
 21
7996.957947811551
 31
0.0
  0
LINE
  5
24AD5
330
747D
100
AcDbEntity
  8
部品1
 48
50.0
100
AcDbLine
 10
6873.6
 20
8096.957947811551
 30
0.0
 11
6673.6
 21
8096.957947811551
 31
0.0
  0
LINE
  5
24AE8
330
747D
100
AcDbEntity
  8
部品1
 48
50.0
100
AcDbLine
 10
6873.600000000006
 20
6496.957947811563
 30
0.0
 11
6673.600000000006
 21
6496.957947811563
 31
0.0
  0
LINE
  5
24AE9
330
747D
100
AcDbEntity
  8
センター
 48
2.0
100
AcDbLine
 10
6723.600000000006
 20
6396.957947811563
 30
0.0
 11
6823.600000000006
 21
6396.957947811563
 31
0.0
  0
LINE
  5
24AEA
330
747D
100
AcDbEntity
  8
部品1
 48
50.0
100
AcDbLine
 10
6873.600000000006
 20
6296.957947811563
 30
0.0
 11
6673.600000000006
 21
6296.957947811563
 31
0.0
  0
LINE
  5
24AEB
330
747D
100
AcDbEntity
  8
部品1
 48
50.0
100
AcDbLine
 10
6873.600000000006
 20
6296.957947811563
 30
0.0
 11
6873.600000000006
 21
6496.957947811563
 31
0.0
  0
LINE
  5
24AEC
330
747D
100
AcDbEntity
  8
センター
 48
2.0
100
AcDbLine
 10
6773.600000000006
 20
6446.957947811561
 30
0.0
 11
6773.600000000006
 21
6346.957947811564
 31
0.0
  0
LINE
  5
24AED
330
747D
100
AcDbEntity
  8
部品1
 48
50.0
100
AcDbLine
 10
6673.600000000006
 20
6296.957947811563
 30
0.0
 11
6673.600000000006
 21
6496.957947811563
 31
0.0
  0
LINE
  5
24AEE
330
747D
100
AcDbEntity
  8
部品1
 48
50.0
100
AcDbLine
 10
7363.600000000008
 20
6296.957947811563
 30
0.0
 11
7363.600000000008
 21
6496.957947811563
 31
0.0
  0
LINE
  5
24AEF
330
747D
100
AcDbEntity
  8
センター
 48
2.0
100
AcDbLine
 10
7463.600000000006
 20
6446.957947811561
 30
0.0
 11
7463.600000000006
 21
6346.957947811564
 31
0.0
  0
LINE
  5
24AF0
330
747D
100
AcDbEntity
  8
部品1
 48
50.0
100
AcDbLine
 10
7563.600000000008
 20
6296.957947811563
 30
0.0
 11
7563.600000000008
 21
6496.957947811563
 31
0.0
  0
LINE
  5
24AF1
330
747D
100
AcDbEntity
  8
部品1
 48
50.0
100
AcDbLine
 10
7563.600000000008
 20
6296.957947811563
 30
0.0
 11
7363.600000000008
 21
6296.957947811563
 31
0.0
  0
LINE
  5
24AF2
330
747D
100
AcDbEntity
  8
センター
 48
2.0
100
AcDbLine
 10
7413.600000000006
 20
6396.957947811563
 30
0.0
 11
7513.600000000008
 21
6396.957947811563
 31
0.0
  0
LINE
  5
24AF3
330
747D
100
AcDbEntity
  8
部品1
 48
50.0
100
AcDbLine
 10
7563.600000000008
 20
6496.957947811563
 30
0.0
 11
7363.600000000008
 21
6496.957947811563
 31
0.0
  0
LINE
  5
24AF5
330
747D
100
AcDbEntity
  8
部品1
 48
50.0
100
AcDbLine
 10
7563.600000000004
 20
7396.957947811563
 30
0.0
 11
7363.600000000004
 21
7396.957947811563
 31
0.0
  0
LINE
  5
24AF6
330
747D
100
AcDbEntity
  8
センター
 48
2.0
100
AcDbLine
 10
7413.600000000004
 20
7196.957947811561
 30
0.0
 11
7513.600000000002
 21
7196.957947811561
 31
0.0
  0
LINE
  5
24AF7
330
747D
100
AcDbEntity
  8
部品1
 48
50.0
100
AcDbLine
 10
7563.600000000004
 20
6996.957947811563
 30
0.0
 11
7363.600000000004
 21
6996.957947811563
 31
0.0
  0
LINE
  5
24AF8
330
747D
100
AcDbEntity
  8
部品1
 48
50.0
100
AcDbLine
 10
7563.600000000004
 20
6996.957947811563
 30
0.0
 11
7563.600000000004
 21
7396.957947811563
 31
0.0
  0
LINE
  5
24AF9
330
747D
100
AcDbEntity
  8
センター
 48
2.0
100
AcDbLine
 10
7463.600000000004
 20
7246.957947811563
 30
0.0
 11
7463.600000000004
 21
7146.957947811563
 31
0.0
  0
LINE
  5
24AFA
330
747D
100
AcDbEntity
  8
部品1
 48
50.0
100
AcDbLine
 10
7363.600000000004
 20
6996.957947811563
 30
0.0
 11
7363.600000000004
 21
7396.957947811563
 31
0.0
  0
LINE
  5
24AFB
330
747D
100
AcDbEntity
  8
部品1
 48
50.0
100
AcDbLine
 10
6673.600000000004
 20
6996.957947811563
 30
0.0
 11
6673.600000000004
 21
7396.957947811563
 31
0.0
  0
LINE
  5
24AFC
330
747D
100
AcDbEntity
  8
センター
 48
2.0
100
AcDbLine
 10
6773.600000000005
 20
7246.957947811563
 30
0.0
 11
6773.600000000005
 21
7146.957947811563
 31
0.0
  0
LINE
  5
24AFD
330
747D
100
AcDbEntity
  8
部品1
 48
50.0
100
AcDbLine
 10
6873.600000000005
 20
6996.957947811563
 30
0.0
 11
6873.600000000005
 21
7396.957947811563
 31
0.0
  0
LINE
  5
24AFE
330
747D
100
AcDbEntity
  8
部品1
 48
50.0
100
AcDbLine
 10
6873.600000000005
 20
6996.957947811563
 30
0.0
 11
6673.600000000004
 21
6996.957947811563
 31
0.0
  0
LINE
  5
24AFF
330
747D
100
AcDbEntity
  8
センター
 48
2.0
100
AcDbLine
 10
6723.600000000004
 20
7196.957947811561
 30
0.0
 11
6823.600000000005
 21
7196.957947811561
 31
0.0
  0
LINE
  5
24B00
330
747D
100
AcDbEntity
  8
部品1
 48
50.0
100
AcDbLine
 10
6873.600000000005
 20
7396.957947811563
 30
0.0
 11
6673.600000000004
 21
7396.957947811563
 31
0.0
  0
LINE
  5
24B01
330
747D
100
AcDbEntity
  8
部品1
 48
50.0
100
AcDbLine
 10
8123.600000000005
 20
7096.957947811564
 30
0.0
 11
8123.600000000005
 21
7296.957947811563
 31
0.0
  0
LINE
  5
24B02
330
747D
100
AcDbEntity
  8
センター
 48
2.0
100
AcDbLine
 10
8223.600000000004
 20
7246.957947811563
 30
0.0
 11
8223.600000000004
 21
7146.957947811563
 31
0.0
  0
LINE
  5
24B03
330
747D
100
AcDbEntity
  8
部品1
 48
50.0
100
AcDbLine
 10
8323.600000000004
 20
7096.957947811564
 30
0.0
 11
8323.600000000004
 21
7296.957947811563
 31
0.0
  0
LINE
  5
24B04
330
747D
100
AcDbEntity
  8
部品1
 48
50.0
100
AcDbLine
 10
8323.600000000004
 20
7096.957947811564
 30
0.0
 11
8123.600000000005
 21
7096.957947811564
 31
0.0
  0
LINE
  5
24B05
330
747D
100
AcDbEntity
  8
センター
 48
2.0
100
AcDbLine
 10
8173.600000000005
 20
7196.957947811561
 30
0.0
 11
8273.600000000005
 21
7196.957947811561
 31
0.0
  0
LINE
  5
24B06
330
747D
100
AcDbEntity
  8
部品1
 48
50.0
100
AcDbLine
 10
8323.600000000004
 20
7296.957947811563
 30
0.0
 11
8123.600000000005
 21
7296.957947811563
 31
0.0
  0
LINE
  5
24B11
330
747D
100
AcDbEntity
  8
部品1
 48
50.0
100
AcDbLine
 10
9083.600000000004
 20
7396.957947811563
 30
0.0
 11
8883.600000000004
 21
7396.957947811563
 31
0.0
  0
LINE
  5
24B12
330
747D
100
AcDbEntity
  8
センター
 48
2.0
100
AcDbLine
 10
8933.600000000003
 20
7196.957947811561
 30
0.0
 11
9033.600000000005
 21
7196.957947811561
 31
0.0
  0
LINE
  5
24B13
330
747D
100
AcDbEntity
  8
部品1
 48
50.0
100
AcDbLine
 10
9083.600000000004
 20
6996.957947811563
 30
0.0
 11
8883.600000000004
 21
6996.957947811563
 31
0.0
  0
LINE
  5
24B14
330
747D
100
AcDbEntity
  8
部品1
 48
50.0
100
AcDbLine
 10
9083.600000000004
 20
6996.957947811563
 30
0.0
 11
9083.600000000004
 21
7396.957947811563
 31
0.0
  0
LINE
  5
24B15
330
747D
100
AcDbEntity
  8
センター
 48
2.0
100
AcDbLine
 10
8983.600000000004
 20
7246.957947811563
 30
0.0
 11
8983.600000000004
 21
7146.957947811563
 31
0.0
  0
LINE
  5
24B16
330
747D
100
AcDbEntity
  8
部品1
 48
50.0
100
AcDbLine
 10
8883.600000000004
 20
6996.957947811563
 30
0.0
 11
8883.600000000004
 21
7396.957947811563
 31
0.0
  0
LINE
  5
24B17
330
747D
100
AcDbEntity
  8
部品1
 48
50.0
100
AcDbLine
 10
8883.600000000006
 20
6296.957947811563
 30
0.0
 11
8883.600000000006
 21
6496.957947811563
 31
0.0
  0
LINE
  5
24B18
330
747D
100
AcDbEntity
  8
センター
 48
2.0
100
AcDbLine
 10
8983.600000000006
 20
6446.957947811561
 30
0.0
 11
8983.600000000006
 21
6346.957947811564
 31
0.0
  0
LINE
  5
24B19
330
747D
100
AcDbEntity
  8
部品1
 48
50.0
100
AcDbLine
 10
9083.600000000004
 20
6296.957947811563
 30
0.0
 11
9083.600000000004
 21
6496.957947811563
 31
0.0
  0
LINE
  5
24B1A
330
747D
100
AcDbEntity
  8
部品1
 48
50.0
100
AcDbLine
 10
9083.600000000004
 20
6296.957947811563
 30
0.0
 11
8883.600000000006
 21
6296.957947811563
 31
0.0
  0
LINE
  5
24B1B
330
747D
100
AcDbEntity
  8
センター
 48
2.0
100
AcDbLine
 10
8933.600000000003
 20
6396.957947811563
 30
0.0
 11
9033.600000000005
 21
6396.957947811563
 31
0.0
  0
LINE
  5
24B1C
330
747D
100
AcDbEntity
  8
部品1
 48
50.0
100
AcDbLine
 10
9083.600000000004
 20
6496.957947811563
 30
0.0
 11
8883.600000000006
 21
6496.957947811563
 31
0.0
  0
LINE
  5
24B1D
330
747D
100
AcDbEntity
  8
部品1
 48
50.0
100
AcDbLine
 10
9083.6
 20
8096.957947811551
 30
0.0
 11
8883.599999999999
 21
8096.957947811551
 31
0.0
  0
LINE
  5
24B1E
330
747D
100
AcDbEntity
  8
センター
 48
2.0
100
AcDbLine
 10
8933.6
 20
7996.957947811551
 30
0.0
 11
9033.599999999999
 21
7996.957947811551
 31
0.0
  0
LINE
  5
24B1F
330
747D
100
AcDbEntity
  8
部品1
 48
50.0
100
AcDbLine
 10
9083.6
 20
7896.95794781155
 30
0.0
 11
8883.599999999999
 21
7896.95794781155
 31
0.0
  0
LINE
  5
24B20
330
747D
100
AcDbEntity
  8
部品1
 48
50.0
100
AcDbLine
 10
9083.6
 20
7896.95794781155
 30
0.0
 11
9083.6
 21
8096.957947811551
 31
0.0
  0
LINE
  5
24B21
330
747D
100
AcDbEntity
  8
センター
 48
2.0
100
AcDbLine
 10
8983.6
 20
8046.95794781155
 30
0.0
 11
8983.6
 21
7946.957947811551
 31
0.0
  0
LINE
  5
24B22
330
747D
100
AcDbEntity
  8
部品1
 48
50.0
100
AcDbLine
 10
8883.599999999999
 20
7896.95794781155
 30
0.0
 11
8883.599999999999
 21
8096.957947811551
 31
0.0
  0
LINE
  5
24B35
330
747D
100
AcDbEntity
  8
部品1
 48
50.0
100
AcDbLine
 10
9573.6
 20
7896.95794781155
 30
0.0
 11
9573.6
 21
8096.957947811551
 31
0.0
  0
LINE
  5
24B36
330
747D
100
AcDbEntity
  8
センター
 48
2.0
100
AcDbLine
 10
9673.6
 20
8046.95794781155
 30
0.0
 11
9673.6
 21
7946.957947811551
 31
0.0
  0
LINE
  5
24B37
330
747D
100
AcDbEntity
  8
部品1
 48
50.0
100
AcDbLine
 10
9773.600000000001
 20
7896.95794781155
 30
0.0
 11
9773.600000000001
 21
8096.957947811551
 31
0.0
  0
LINE
  5
24B38
330
747D
100
AcDbEntity
  8
部品1
 48
50.0
100
AcDbLine
 10
9773.600000000001
 20
7896.95794781155
 30
0.0
 11
9573.6
 21
7896.95794781155
 31
0.0
  0
LINE
  5
24B39
330
747D
100
AcDbEntity
  8
センター
 48
2.0
100
AcDbLine
 10
9623.600000000001
 20
7996.957947811551
 30
0.0
 11
9723.600000000001
 21
7996.957947811551
 31
0.0
  0
LINE
  5
24B3A
330
747D
100
AcDbEntity
  8
部品1
 48
50.0
100
AcDbLine
 10
9773.600000000001
 20
8096.957947811551
 30
0.0
 11
9573.6
 21
8096.957947811551
 31
0.0
  0
LINE
  5
24B3B
330
747D
100
AcDbEntity
  8
部品1
 48
50.0
100
AcDbLine
 10
9773.600000000008
 20
6496.957947811563
 30
0.0
 11
9573.600000000006
 21
6496.957947811563
 31
0.0
  0
LINE
  5
24B3C
330
747D
100
AcDbEntity
  8
センター
 48
2.0
100
AcDbLine
 10
9623.600000000006
 20
6396.957947811563
 30
0.0
 11
9723.600000000006
 21
6396.957947811563
 31
0.0
  0
LINE
  5
24B3D
330
747D
100
AcDbEntity
  8
部品1
 48
50.0
100
AcDbLine
 10
9773.600000000008
 20
6296.957947811563
 30
0.0
 11
9573.600000000006
 21
6296.957947811563
 31
0.0
  0
LINE
  5
24B3E
330
747D
100
AcDbEntity
  8
部品1
 48
50.0
100
AcDbLine
 10
9773.600000000008
 20
6296.957947811563
 30
0.0
 11
9773.600000000008
 21
6496.957947811563
 31
0.0
  0
LINE
  5
24B3F
330
747D
100
AcDbEntity
  8
センター
 48
2.0
100
AcDbLine
 10
9673.600000000007
 20
6446.957947811561
 30
0.0
 11
9673.600000000007
 21
6346.957947811564
 31
0.0
  0
LINE
  5
24B40
330
747D
100
AcDbEntity
  8
部品1
 48
50.0
100
AcDbLine
 10
9573.600000000006
 20
6296.957947811563
 30
0.0
 11
9573.600000000006
 21
6496.957947811563
 31
0.0
  0
LINE
  5
24B41
330
747D
100
AcDbEntity
  8
部品1
 48
50.0
100
AcDbLine
 10
9573.600000000004
 20
6996.957947811563
 30
0.0
 11
9573.600000000004
 21
7396.957947811563
 31
0.0
  0
LINE
  5
24B42
330
747D
100
AcDbEntity
  8
センター
 48
2.0
100
AcDbLine
 10
9673.600000000005
 20
7246.957947811563
 30
0.0
 11
9673.600000000005
 21
7146.957947811563
 31
0.0
  0
LINE
  5
24B43
330
747D
100
AcDbEntity
  8
部品1
 48
50.0
100
AcDbLine
 10
9773.600000000005
 20
6996.957947811563
 30
0.0
 11
9773.600000000005
 21
7396.957947811563
 31
0.0
  0
LINE
  5
24B44
330
747D
100
AcDbEntity
  8
部品1
 48
50.0
100
AcDbLine
 10
9773.600000000005
 20
6996.957947811563
 30
0.0
 11
9573.600000000004
 21
6996.957947811563
 31
0.0
  0
LINE
  5
24B45
330
747D
100
AcDbEntity
  8
センター
 48
2.0
100
AcDbLine
 10
9623.600000000005
 20
7196.957947811561
 30
0.0
 11
9723.600000000004
 21
7196.957947811561
 31
0.0
  0
LINE
  5
24B46
330
747D
100
AcDbEntity
  8
部品1
 48
50.0
100
AcDbLine
 10
9773.600000000005
 20
7396.957947811563
 30
0.0
 11
9573.600000000004
 21
7396.957947811563
 31
0.0
  0
DIMENSION
  5
24B74
330
747D
100
AcDbEntity
  8
寸法
 48
50.0
100
AcDbDimension
  2
*D32
 10
9309.531448609055
 20
6396.957947811563
 30
0.0
 11
9209.531448609054
 21
6796.957947811555
 31
0.0
 70
    32
 71
     5
 42
799.9999999999827
  3
INABA_S40G
100
AcDbAlignedDimension
 13
9573.600000000006
 23
7196.957947811546
 33
0.0
 14
9573.600000000006
 24
6396.957947811563
 34
0.0
 50
90.0
100
AcDbRotatedDimension
1001
ACAD
1000
DSTYLE
1002
{
1070
   341
1005
0
1002
}
  0
DIMENSION
  5
24CFE
330
747D
100
AcDbEntity
  8
寸法
 48
50.0
100
AcDbDimension
  2
*D33
 10
6481.961837289711
 20
5591.957947811543
 30
0.0
 11
6481.961837289709
 21
5353.26300660765
 31
0.0
 70
   160
 71
     5
 42
195.0000000000118
  3
INABA_S40G
100
AcDbAlignedDimension
 13
6238.600000000001
 23
5786.957947811554
 33
0.0
 14
6238.600000000001
 24
5591.957947811543
 34
0.0
 50
90.0
100
AcDbRotatedDimension
1001
ACAD
1000
DSTYLE
1002
{
1070
   341
1005
0
1002
}
  0
DIMENSION
  5
24FFF
330
747D
100
AcDbEntity
  8
寸法
 48
50.0
100
AcDbDimension
  2
*D34
 10
5772.312481891145
 20
5666.957947811575
 30
0.0
 11
5772.312481891145
 21
5058.472666437338
 31
0.0
 70
   160
  1
扉の出<>
 71
     5
 42
75.00000000000091
  3
INABA_S40G
100
AcDbAlignedDimension
 13
6008.600000000001
 23
5591.957947811575
 33
0.0
 14
6008.600000000008
 24
5666.957947811575
 34
0.0
 50
90.0
100
AcDbRotatedDimension
1001
ACAD
1000
DSTYLE
1002
{
1070
   341
1005
0
1002
}
  0
TEXT
  5
25001
330
747D
100
AcDbEntity
  8
寸法
 62
     7
100
AcDbText
 10
6533.456352585791
 20
4336.52567241334
 30
0.0
 40
120.0
  1
扉の位置に合わせた基礎形状として下さい。
  7
STYLE1
100
AcDbText
  0
LWPOLYLINE
  5
25002
330
747D
100
AcDbEntity
  8
寸法
 48
50.0
100
AcDbPolyline
 90
        3
 70
     0
 43
0.0
 10
-6757.850857895411
 20
5591.957947811547
 10
-6416.840393393039
 20
4485.861487748343
 10
-9230.90480632468
 20
4485.861487748343
210
0.0
220
0.0
230
-1.0
1001
ACAD
1000
DSTYLE
1002
{
1070
   341
1005
0
1070
    40
1040
1.0
1070
   343
1005
0
1070
   344
1005
0
1002
}
  0
SOLID
  5
25003
330
747D
100
AcDbEntity
  8
寸法
 48
50.0
100
AcDbTrace
 10
-6740.941652225425
 20
5466.36691890666
 30
0.0
 11
-6757.850857895411
 21
5591.957947811547
 31
0.0
 12
-6701.123437751947
 22
5478.639689875571
 32
0.0
 13
-6701.123437751947
 23
5478.639689875571
 33
0.0
210
0.0
220
0.0
230
-1.0
1001
ACAD
1000
DSTYLE
1002
{
1070
   341
1005
0
1070
    40
1040
1.0
1070
   343
1005
0
1070
   344
1005
0
1002
}
  0
TEXT
  5
25004
330
747D
100
AcDbEntity
  8
寸法
 62
     7
100
AcDbText
 10
6533.456352585791
 20
4508.129435296664
 30
0.0
 40
120.0
  1
扉位置 (2188x75)
  7
STYLE1
100
AcDbText
  0
LINE
  5
25005
330
747D
100
AcDbEntity
  8
想像線
 48
10.0
100
AcDbLine
 10
9147.16214885316
 20
8801.957947811551
 30
0.0
 11
10483.6
 21
8801.957947811549
 31
0.0
  0
LINE
  5
2538B
330
747D
100
AcDbEntity
  8
想像線
 48
10.0
100
AcDbLine
 10
9147.16214885316
 20
5611.957947811561
 30
0.0
 11
10483.6
 21
5611.957947811557
 31
0.0
  0
LINE
  5
2552F
330
747D
100
AcDbEntity
  8
細線
 48
50.0
100
AcDbLine
 10
9820.587966642129
 20
1407.533765042912
 30
0.0
 11
9812.549490869185
 21
1437.533765042912
 31
0.0
  0
LINE
  5
25530
330
747D
100
AcDbEntity
  8
細線
100
AcDbLine
 10
9608.837585147069
 20
1437.533765042917
 30
0.0
 11
9723.461229713745
 21
1552.157409609602
 31
0.0
  0
LINE
  5
25531
330
747D
100
AcDbEntity
  8
細線
100
AcDbLine
 10
9566.411178275878
 20
1437.533765042917
 30
0.0
 11
9681.034822842555
 21
1552.157409609602
 31
0.0
  0
LINE
  5
25532
330
747D
100
AcDbEntity
  8
細線
100
AcDbLine
 10
9651.263992018256
 20
1437.533765042917
 30
0.0
 11
9765.887636584938
 21
1552.157409609602
 31
0.0
  0
LINE
  5
25533
330
747D
100
AcDbEntity
  8
細線
 48
50.0
100
AcDbLine
 10
9623.367854273997
 20
1407.533765042914
 30
0.0
 11
9615.329378501057
 21
1437.533765042914
 31
0.0
  0
LINE
  5
25534
330
747D
100
AcDbEntity
  8
細線
 48
50.0
100
AcDbLine
 10
9721.977910458065
 20
1407.533765042912
 30
0.0
 11
9713.939434685126
 21
1437.533765042912
 31
0.0
  0
LINE
  5
25535
330
747D
100
AcDbEntity
  8
部品1
100
AcDbLine
 10
9725.115685151706
 20
1852.157409609603
 30
0.0
 11
9725.115685151706
 21
1552.157409609602
 31
0.0
  0
LINE
  5
25536
330
747D
100
AcDbEntity
  8
細線
 48
50.0
100
AcDbLine
 10
9426.147741905884
 20
1407.533765042914
 30
0.0
 11
9418.109266132956
 21
1437.533765042914
 31
0.0
  0
LINE
  5
25537
330
747D
100
AcDbEntity
  8
細線
 48
50.0
100
AcDbLine
 10
9524.757798089948
 20
1407.533765042914
 30
0.0
 11
9516.719322317015
 21
1437.533765042914
 31
0.0
  0
LINE
  5
25538
330
747D
100
AcDbEntity
  8
細線
100
AcDbLine
 10
9158.837585147065
 20
1437.533765042915
 30
0.0
 11
9273.461229713744
 21
1552.157409609602
 31
0.0
  0
LINE
  5
25539
330
747D
100
AcDbEntity
  8
細線
100
AcDbLine
 10
9201.263992018255
 20
1437.533765042915
 30
0.0
 11
9315.887636584937
 21
1552.157409609602
 31
0.0
  0
LINE
  5
2553A
330
747D
100
AcDbEntity
  8
細線
 48
50.0
100
AcDbLine
 10
9327.537685721823
 20
1407.533765042914
 30
0.0
 11
9319.499209948897
 21
1437.533765042914
 31
0.0
  0
LINE
  5
2553B
330
747D
100
AcDbEntity
  8
細線
 48
50.0
100
AcDbLine
 10
9228.927629537777
 20
1407.533765042914
 30
0.0
 11
9220.889153764835
 21
1437.533765042914
 31
0.0
  0
LINE
  5
2553C
330
747D
100
AcDbEntity
  8
細線
100
AcDbLine
 10
9644.178996910449
 20
1552.157409609602
 30
0.0
 11
9344.178996910445
 21
1852.157409609603
 31
0.0
  0
LINE
  5
2553D
330
747D
100
AcDbEntity
  8
細線
100
AcDbLine
 10
9707.818607217229
 20
1552.157409609604
 30
0.0
 11
9407.818607217235
 21
1852.157409609603
 31
0.0
  0
LEADER
  5
2553E
330
747D
100
AcDbEntity
  8
寸法
 48
50.0
100
AcDbLeader
  3
INABA_S40G
 73
     0
 74
     0
 75
     1
 40
150.0
 41
231.9898538650463
 76
     3
 10
9638.521199671608
 20
1852.157409609603
 30
0.0
 10
9727.443957963664
 20
2058.590310461025
 30
0.0
 10
9827.443957963664
 20
2058.590310461025
 30
0.0
340
2553F
1001
ACAD
1000
DSTYLE
1002
{
1070
   341
1005
0
1002
}
  0
MTEXT
  5
2553F
102
{ACAD_REACTORS
330
2553E
102
}
330
747D
100
AcDbEntity
  8
寸法
 62
     7
 48
50.0
100
AcDbMText
 10
9867.443957963665
 20
2173.590310461025
 30
0.0
 40
150.0
 41
1.0
 71
     4
 72
     1
  1
\A1;C.B
  7
STYLE1
 73
     1
 44
1.0
1001
ACAD
1000
MTEXTBEGIN
1070
    73
1070
     1
1070
    44
1040
1.0
1070
    74
1070
     0
1000
MTEXTEND
  0
LINE
  5
25540
330
747D
100
AcDbEntity
  8
細線
 48
50.0
100
AcDbLine
 10
9793.793047399017
 20
1307.533765042912
 30
0.0
 11
9801.831523171944
 21
1277.533765042912
 31
0.0
  0
LINE
  5
25541
330
747D
100
AcDbEntity
  8
細線
 48
50.0
100
AcDbLine
 10
9596.572935030897
 20
1307.533765042914
 30
0.0
 11
9604.611410803835
 21
1277.533765042915
 31
0.0
  0
LINE
  5
25542
330
747D
100
AcDbEntity
  8
細線
 48
50.0
100
AcDbLine
 10
9695.182991214958
 20
1307.533765042912
 30
0.0
 11
9703.221466987885
 21
1277.533765042912
 31
0.0
  0
LINE
  5
25543
330
747D
100
AcDbEntity
  8
細線
 48
50.0
100
AcDbLine
 10
9399.352822662775
 20
1307.533765042914
 30
0.0
 11
9407.391298435705
 21
1277.533765042915
 31
0.0
  0
LINE
  5
25544
330
747D
100
AcDbEntity
  8
細線
 48
50.0
100
AcDbLine
 10
9497.962878846836
 20
1307.533765042914
 30
0.0
 11
9506.001354619767
 21
1277.533765042915
 31
0.0
  0
LINE
  5
25545
330
747D
100
AcDbEntity
  8
細線
 48
50.0
100
AcDbLine
 10
9202.132710294666
 20
1307.533765042914
 30
0.0
 11
9210.171186067597
 21
1277.533765042915
 31
0.0
  0
LINE
  5
25546
330
747D
100
AcDbEntity
  8
細線
 48
50.0
100
AcDbLine
 10
9300.742766478716
 20
1307.533765042914
 30
0.0
 11
9308.781242251656
 21
1277.533765042915
 31
0.0
  0
LINE
  5
25547
330
747D
100
AcDbEntity
  8
細線
 48
50.0
100
AcDbLine
 10
9391.314346889837
 20
1277.533765042912
 30
0.0
 11
9434.186217678812
 21
1437.533765042912
 31
0.0
  0
LINE
  5
25548
330
747D
100
AcDbEntity
  8
細線
 48
50.0
100
AcDbLine
 10
9194.094234521726
 20
1277.533765042915
 30
0.0
 11
9236.966105310695
 21
1437.533765042914
 31
0.0
  0
LINE
  5
25549
330
747D
100
AcDbEntity
  8
細線
 48
50.0
100
AcDbLine
 10
9292.704290705776
 20
1277.533765042915
 30
0.0
 11
9335.576161494754
 21
1437.533765042912
 31
0.0
  0
LINE
  5
2554A
330
747D
100
AcDbEntity
  8
細線
 48
50.0
100
AcDbLine
 10
9588.534459257957
 20
1277.533765042912
 30
0.0
 11
9631.406330046926
 21
1437.533765042914
 31
0.0
  0
LINE
  5
2554B
330
747D
100
AcDbEntity
  8
細線
 48
50.0
100
AcDbLine
 10
9489.924403073898
 20
1277.533765042915
 30
0.0
 11
9532.796273862876
 21
1437.533765042912
 31
0.0
  0
LINE
  5
2554C
330
747D
100
AcDbEntity
  8
細線
 48
50.0
100
AcDbLine
 10
9785.754571626069
 20
1277.533765042912
 30
0.0
 11
9828.626442415057
 21
1437.53376504291
 31
0.0
  0
LINE
  5
2554D
330
747D
100
AcDbEntity
  8
細線
 48
50.0
100
AcDbLine
 10
9687.144515442016
 20
1277.533765042911
 30
0.0
 11
9730.016386230992
 21
1437.53376504291
 31
0.0
  0
LINE
  5
2554E
330
747D
100
AcDbEntity
  8
部品1
100
AcDbLine
 10
9875.115685151708
 20
1552.157409609602
 30
0.0
 11
9875.115685151708
 21
1277.533765042915
 31
0.0
  0
LINE
  5
2554F
330
747D
100
AcDbEntity
  8
部品1
100
AcDbLine
 10
10465.62661297084
 20
244.3024315825692
 30
0.0
 11
10465.62661297084
 21
3503.371934330659
 31
0.0
  0
TEXT
  5
25550
330
747D
100
AcDbEntity
  8
部品1
100
AcDbText
 10
6575.081025389462
 20
3278.932019391373
 30
0.0
 40
150.0
  1
基礎詳細
  7
STYLE2
100
AcDbText
  0
LINE
  5
25551
330
747D
100
AcDbEntity
  8
細線
 48
50.0
100
AcDbLine
 10
9130.317573353703
 20
1407.533765042914
 30
0.0
 11
9122.279097580777
 21
1437.533765042914
 31
0.0
  0
LINE
  5
25552
330
747D
100
AcDbEntity
  8
細線
 48
50.0
100
AcDbLine
 10
9031.707517169646
 20
1407.533765042914
 30
0.0
 11
9023.669041396706
 21
1437.533765042914
 31
0.0
  0
LINE
  5
25553
330
747D
100
AcDbEntity
  8
部品1
100
AcDbLine
 10
9125.115685151708
 20
1552.157409609602
 30
0.0
 11
9125.115685151708
 21
1852.157409609603
 31
0.0
  0
LINE
  5
25554
330
747D
100
AcDbEntity
  8
細線
 48
50.0
100
AcDbLine
 10
9004.912597926534
 20
1307.533765042914
 30
0.0
 11
9012.951073699467
 21
1277.533765042915
 31
0.0
  0
LINE
  5
25555
330
747D
100
AcDbEntity
  8
細線
 48
50.0
100
AcDbLine
 10
9103.522654110596
 20
1307.533765042914
 30
0.0
 11
9111.561129883524
 21
1277.533765042915
 31
0.0
  0
LINE
  5
25556
330
747D
100
AcDbEntity
  8
細線
 48
50.0
100
AcDbLine
 10
7535.974031386508
 20
842.1574096096005
 30
0.0
 11
7527.935555613578
 21
872.1574096096006
 31
0.0
  0
LINE
  5
25557
330
747D
100
AcDbEntity
  8
部品1
 48
50.0
100
AcDbLine
 10
7590.501749896093
 20
872.1574096096015
 30
0.0
 11
7590.501749896093
 21
712.1574096096014
 31
0.0
  0
LINE
  5
25558
330
747D
100
AcDbEntity
  8
細線
 48
50.0
100
AcDbLine
 10
8996.874122153595
 20
1277.533765042915
 30
0.0
 11
9039.745992942576
 21
1437.533765042914
 31
0.0
  0
LINE
  5
25559
330
747D
100
AcDbEntity
  8
部品1
100
AcDbLine
 10
8975.115685151706
 20
1277.533765042911
 30
0.0
 11
8975.115685151706
 21
1552.157409609602
 31
0.0
  0
TEXT
  5
2555A
330
747D
100
AcDbEntity
  8
部品1
 48
50.0
100
AcDbText
 10
8499.774056826408
 20
1218.657733812966
 30
0.0
 40
100.0
  1
ボルトの出
 50
90.0
  7
STYLE2
100
AcDbText
  0
LINE
  5
2555B
330
747D
100
AcDbEntity
  8
細線
 48
50.0
100
AcDbLine
 10
9095.484178337656
 20
1277.533765042912
 30
0.0
 11
9138.356049126636
 21
1437.533765042912
 31
0.0
  0
LINE
  5
2555C
330
747D
100
AcDbEntity
  8
部品1
 48
50.0
100
AcDbLine
 10
7109.75174989609
 20
2290.751510996031
 30
0.0
 11
7129.75174989609
 21
2300.751510996031
 31
0.0
  0
LINE
  5
2555D
330
747D
100
AcDbEntity
  8
部品1
 48
50.0
100
AcDbLine
 10
7109.75174989609
 20
2330.751510996031
 30
0.0
 11
7129.75174989609
 21
2340.751510996032
 31
0.0
  0
LINE
  5
2555E
330
747D
100
AcDbEntity
  8
細線
 48
50.0
100
AcDbLine
 10
7109.75174989609
 20
2290.751510996031
 30
0.0
 11
7109.75174989609
 21
2330.751510996031
 31
0.0
  0
LINE
  5
2555F
330
747D
100
AcDbEntity
  8
部品1
 48
50.0
100
AcDbLine
 10
7129.75174989609
 20
2300.751510996031
 30
0.0
 11
7129.75174989609
 21
2340.751510996032
 31
0.0
  0
LINE
  5
25560
330
747D
100
AcDbEntity
  8
部品1
 48
50.0
100
AcDbLine
 10
7109.75174989609
 20
2350.751510996031
 30
0.0
 11
7129.75174989609
 21
2340.751510996032
 31
0.0
  0
LINE
  5
25561
330
747D
100
AcDbEntity
  8
部品1
 48
50.0
100
AcDbLine
 10
7139.751749896089
 20
2176.561520164943
 30
0.0
 11
7139.751749896089
 21
2188.561520164943
 31
0.0
  0
LINE
  5
25562
330
747D
100
AcDbEntity
  8
細線
 48
50.0
100
AcDbLine
 10
7069.751749896089
 20
2290.751510996031
 30
0.0
 11
7069.751749896089
 21
2330.751510996031
 31
0.0
  0
LINE
  5
25563
330
747D
100
AcDbEntity
  8
部品1
 48
50.0
100
AcDbLine
 10
7049.75174989609
 20
2300.751510996031
 30
0.0
 11
7049.75174989609
 21
2340.751510996032
 31
0.0
  0
LINE
  5
25564
330
747D
100
AcDbEntity
  8
部品1
 48
50.0
100
AcDbLine
 10
7049.75174989609
 20
2340.751510996032
 30
0.0
 11
7069.751749896089
 21
2330.751510996031
 31
0.0
  0
LINE
  5
25565
330
747D
100
AcDbEntity
  8
部品1
 48
50.0
100
AcDbLine
 10
7049.75174989609
 20
2300.751510996031
 30
0.0
 11
7069.751749896089
 21
2290.751510996031
 31
0.0
  0
LINE
  5
25566
330
747D
100
AcDbEntity
  8
部品1
 48
50.0
100
AcDbLine
 10
7049.75174989609
 20
2340.751510996032
 30
0.0
 11
7069.751749896089
 21
2350.751510996031
 31
0.0
  0
LINE
  5
25567
330
747D
100
AcDbEntity
  8
部品1
100
AcDbLine
 10
6948.00174989609
 20
1924.157409609603
 30
0.0
 11
6997.501749896089
 21
1924.157409609603
 31
0.0
  0
ARC
  5
25568
330
747D
100
AcDbEntity
  8
部品1
100
AcDbCircle
 10
6944.626749896089
 20
1988.282409609599
 30
0.0
 40
3.375
100
AcDbArc
 50
0.0
 51
90.0
  0
LINE
  5
25569
330
747D
100
AcDbEntity
  8
部品1
100
AcDbLine
 10
6948.00174989609
 20
1988.282409609599
 30
0.0
 11
6948.00174989609
 21
1924.157409609603
 31
0.0
  0
LINE
  5
2556A
330
747D
100
AcDbEntity
  8
部品1
 48
50.0
100
AcDbLine
 10
7039.751749896089
 20
2188.561520164943
 30
0.0
 11
7039.751749896089
 21
2176.561520164943
 31
0.0
  0
LINE
  5
2556B
330
747D
100
AcDbEntity
  8
部品1
100
AcDbLine
 10
6977.251749896089
 20
1939.107409609603
 30
0.0
 11
7012.451749896093
 21
1939.107409609603
 31
0.0
  0
ARC
  5
2556C
330
747D
100
AcDbEntity
  8
部品1
100
AcDbCircle
 10
6977.251749896089
 20
1935.732409609604
 30
0.0
 40
3.375
100
AcDbArc
 50
90.0
 51
180.0
  0
ARC
  5
2556D
330
747D
100
AcDbEntity
  8
部品1
100
AcDbCircle
 10
7012.451749896093
 20
1935.732409609604
 30
0.0
 40
3.375
100
AcDbArc
 50
0.0
 51
90.0
  0
LINE
  5
2556E
330
747D
100
AcDbEntity
  8
部品1
100
AcDbLine
 10
7078.50174989609
 20
1913.607409609603
 30
0.0
 11
7101.001749896089
 21
1913.607409609603
 31
0.0
  0
LINE
  5
2556F
330
747D
100
AcDbEntity
  8
部品1
100
AcDbLine
 10
7083.00174989609
 20
1918.107409609602
 30
0.0
 11
7096.50174989609
 21
1918.107409609602
 31
0.0
  0
ARC
  5
25570
330
747D
100
AcDbEntity
  8
部品1
100
AcDbCircle
 10
6997.501749896089
 20
1920.782409609603
 30
0.0
 40
3.375
100
AcDbArc
 50
0.0
 51
90.0
  0
LINE
  5
25571
330
747D
100
AcDbEntity
  8
部品1
100
AcDbLine
 10
6973.876749896088
 20
1935.732409609604
 30
0.0
 11
6973.876749896088
 21
1914.357409609603
 31
0.0
  0
ARC
  5
25572
330
747D
100
AcDbEntity
  8
部品1
100
AcDbCircle
 10
6891.751749896092
 20
1988.282409609603
 30
0.0
 40
3.375
100
AcDbArc
 50
90.0
 51
180.0
  0
LINE
  5
25573
330
747D
100
AcDbEntity
  8
部品1
100
AcDbLine
 10
6888.376749896089
 20
1978.157409609603
 30
0.0
 11
6888.376749896089
 21
1978.157409609603
 31
0.0
  0
LINE
  5
25574
330
747D
100
AcDbEntity
  8
部品1
100
AcDbLine
 10
6888.376749896089
 20
1978.157409609603
 30
0.0
 11
6888.376749896089
 21
1988.282409609603
 31
0.0
  0
LINE
  5
25575
330
747D
100
AcDbEntity
  8
部品1
100
AcDbLine
 10
6885.00174989609
 20
1964.657409609603
 30
0.0
 11
6885.00174989609
 21
1974.782409609603
 31
0.0
  0
ARC
  5
25576
330
747D
100
AcDbEntity
  8
部品1
100
AcDbCircle
 10
6888.376749896089
 20
1974.782409609603
 30
0.0
 40
3.375
100
AcDbArc
 50
90.0
 51
180.0
  0
LINE
  5
25577
330
747D
100
AcDbEntity
  8
部品1
100
AcDbLine
 10
6834.37674989609
 20
1951.157409609603
 30
0.0
 11
6834.37674989609
 21
1961.282409609603
 31
0.0
  0
ARC
  5
25578
330
747D
100
AcDbEntity
  8
部品1
100
AcDbCircle
 10
6837.75174989609
 20
1961.282409609603
 30
0.0
 40
3.375
100
AcDbArc
 50
90.0
 51
180.0
  0
ARC
  5
25579
330
747D
100
AcDbEntity
  8
部品1
100
AcDbCircle
 10
6824.251749896089
 20
1945.147289237987
 30
0.0
 40
3.375
100
AcDbArc
 50
104.0362434679075
 51
180.0
  0
LINE
  5
2557A
330
747D
100
AcDbEntity
  8
部品1
100
AcDbLine
 10
6823.433192161591
 20
1948.421520175978
 30
0.0
 11
6834.37674989609
 21
1951.157409609603
 31
0.0
  0
LINE
  5
2557B
330
747D
100
AcDbEntity
  8
部品1
100
AcDbLine
 10
6837.75174989609
 20
1964.657409609603
 30
0.0
 11
6885.00174989609
 21
1964.657409609603
 31
0.0
  0
LINE
  5
2557C
330
747D
100
AcDbEntity
  8
部品1
100
AcDbLine
 10
6891.751749896092
 20
1991.657409609602
 30
0.0
 11
6944.626749896089
 21
1991.657409609599
 31
0.0
  0
ELLIPSE
  5
2557D
330
747D
100
AcDbEntity
  8
部品1
 48
50.0
100
AcDbEllipse
 10
7089.751749896089
 20
2188.561520164943
 30
0.0
 11
23.0
 21
0.0
 31
0.0
210
0.0
220
0.0
230
1.0
 40
0.3478260869565217
 41
0.0
 42
6.283185307179584
  0
ELLIPSE
  5
2557E
330
747D
100
AcDbEntity
  8
部品1
 48
50.0
100
AcDbEllipse
 10
7089.751749896089
 20
2188.561520164943
 30
0.0
 11
50.0
 21
0.0
 31
0.0
210
0.0
220
0.0
230
1.0
 40
0.4
 41
0.0
 42
6.283185307179584
  0
ELLIPSE
  5
2557F
330
747D
100
AcDbEntity
  8
部品1
 48
50.0
100
AcDbEllipse
 10
7089.751749896089
 20
2176.561520164943
 30
0.0
 11
50.0
 21
0.0
 31
0.0
210
0.0
220
0.0
230
1.0
 40
0.4
 41
3.141592653589792
 42
6.283185307179584
  0
LINE
  5
25580
330
747D
100
AcDbEntity
  8
部品1
 48
50.0
100
AcDbLine
 10
7069.751749896089
 20
2350.751510996031
 30
0.0
 11
7109.75174989609
 21
2350.751510996031
 31
0.0
  0
ELLIPSE
  5
25581
330
747D
100
AcDbEntity
  8
細線
 48
50.0
100
AcDbEllipse
 10
7089.751749896089
 20
2340.751510996032
 30
0.0
 11
18.45838483258558
 21
0.0
 31
0.0
210
0.0
220
0.0
230
1.0
 40
0.2071254069489396
 41
0.0
 42
6.283185307179584
  0
LINE
  5
25582
330
747D
100
AcDbEntity
  8
部品1
 48
50.0
100
AcDbLine
 10
7069.751749896089
 20
2290.751510996031
 30
0.0
 11
7109.75174989609
 21
2290.751510996031
 31
0.0
  0
LINE
  5
25583
330
747D
100
AcDbEntity
  8
部品1
 48
50.0
100
AcDbLine
 10
7069.751749896089
 20
2330.751510996031
 30
0.0
 11
7109.75174989609
 21
2330.751510996031
 31
0.0
  0
LINE
  5
25584
330
747D
100
AcDbEntity
  8
細線
 48
50.0
100
AcDbLine
 10
7168.501749896091
 20
1653.567762720338
 30
0.0
 11
7330.50174989609
 21
1815.567762720337
 31
0.0
  0
LINE
  5
25585
330
747D
100
AcDbEntity
  8
細線
 48
50.0
100
AcDbLine
 10
7168.501749896091
 20
1619.891802266317
 30
0.0
 11
7330.50174989609
 21
1781.891802266313
 31
0.0
  0
LINE
  5
25586
330
747D
100
AcDbEntity
  8
部品1
100
AcDbLine
 10
7146.00174989609
 20
1548.407409609601
 30
0.0
 11
7146.00174989609
 21
1570.907409609602
 31
0.0
  0
LINE
  5
25587
330
747D
100
AcDbEntity
  8
部品1
100
AcDbLine
 10
7168.501749896091
 20
1447.157409609601
 30
0.0
 11
7168.501749896091
 21
1852.157409609603
 31
0.0
  0
LINE
  5
25588
330
747D
100
AcDbEntity
  8
細線
 48
50.0
100
AcDbLine
 10
7168.501749896091
 20
1586.2158418123
 30
0.0
 11
7330.50174989609
 21
1748.215841812289
 31
0.0
  0
LINE
  5
25589
330
747D
100
AcDbEntity
  8
部品1
100
AcDbLine
 10
6982.87674989609
 20
1864.107409609603
 30
0.0
 11
6997.501749896089
 21
1864.107409609603
 31
0.0
  0
ARC
  5
2558A
330
747D
100
AcDbEntity
  8
部品1
100
AcDbCircle
 10
7019.201749896083
 20
1867.482409609603
 30
0.0
 40
3.375
100
AcDbArc
 50
180.0
 51
270.0
  0
ARC
  5
2558B
330
747D
100
AcDbEntity
  8
部品1
100
AcDbCircle
 10
6997.501749896089
 20
1867.482409609603
 30
0.0
 40
3.375
100
AcDbArc
 50
270.0
 51
0.0
  0
ARC
  5
2558C
330
747D
100
AcDbEntity
  8
部品1
100
AcDbCircle
 10
6824.251749896089
 20
1867.482409609603
 30
0.0
 40
3.375
100
AcDbArc
 50
180.0
 51
270.0
  0
LINE
  5
2558D
330
747D
100
AcDbEntity
  8
細線
 48
50.0
100
AcDbLine
 10
6813.001749896088
 20
1836.883129984484
 30
0.0
 11
6828.276029521209
 21
1852.157409609603
 31
0.0
  0
LINE
  5
2558E
330
747D
100
AcDbEntity
  8
部品1
100
AcDbLine
 10
6824.251749896089
 20
1864.107409609603
 30
0.0
 11
6838.876749896083
 21
1864.107409609603
 31
0.0
  0
LINE
  5
2558F
330
747D
100
AcDbEntity
  8
細線
 48
50.0
100
AcDbLine
 10
6813.001749896088
 20
1803.207169530475
 30
0.0
 11
6861.951989975222
 21
1852.157409609603
 31
0.0
  0
LINE
  5
25590
330
747D
100
AcDbEntity
  8
細線
 48
50.0
100
AcDbLine
 10
6813.001749896088
 20
1769.531209076465
 30
0.0
 11
6895.627950429227
 21
1852.157409609603
 31
0.0
  0
ARC
  5
25591
330
747D
100
AcDbEntity
  8
部品1
100
AcDbCircle
 10
7101.001749896089
 20
1570.907409609602
 30
0.0
 40
22.5
100
AcDbArc
 50
180.0
 51
270.0
  0
LINE
  5
25592
330
747D
100
AcDbEntity
  8
細線
 48
50.0
100
AcDbLine
 10
6813.001749896088
 20
1500.123525444391
 30
0.0
 11
7011.001749896085
 21
1698.123525444381
 31
0.0
  0
LINE
  5
25593
330
747D
100
AcDbEntity
  8
部品1
100
AcDbLine
 10
7011.001749896083
 20
1447.157409609601
 30
0.0
 11
7011.00174989609
 21
1852.157409609603
 31
0.0
  0
LINE
  5
25594
330
747D
100
AcDbEntity
  8
細線
 48
50.0
100
AcDbLine
 10
6813.001749896088
 20
1567.475446352409
 30
0.0
 11
7011.001749896088
 21
1765.475446352406
 31
0.0
  0
LINE
  5
25595
330
747D
100
AcDbEntity
  8
細線
 48
50.0
100
AcDbLine
 10
6813.001749896088
 20
1533.7994858984
 30
0.0
 11
7011.001749896088
 21
1731.799485898396
 31
0.0
  0
LINE
  5
25596
330
747D
100
AcDbEntity
  8
部品1
100
AcDbLine
 10
7168.501749896091
 20
1447.1574096096
 30
0.0
 11
7011.001749896083
 21
1447.1574096096
 31
0.0
  0
LINE
  5
25597
330
747D
100
AcDbEntity
  8
部品1
 48
50.0
100
AcDbLine
 10
6813.001749896088
 20
1852.157409609603
 30
0.0
 11
7330.501749896092
 21
1852.157409609603
 31
0.0
  0
LINE
  5
25598
330
747D
100
AcDbEntity
  8
部品1
100
AcDbLine
 10
7019.201749896083
 20
1864.107409609603
 30
0.0
 11
7270.876749896081
 21
1864.107409609603
 31
0.0
  0
LINE
  5
25599
330
747D
100
AcDbEntity
  8
部品1
100
AcDbLine
 10
7101.001749896089
 20
1548.407409609601
 30
0.0
 11
7146.00174989609
 21
1548.407409609601
 31
0.0
  0
LINE
  5
2559A
330
747D
100
AcDbEntity
  8
部品1
100
AcDbLine
 10
7101.001749896089
 20
1570.907409609602
 30
0.0
 11
7146.00174989609
 21
1570.907409609602
 31
0.0
  0
LINE
  5
2559B
330
747D
100
AcDbEntity
  8
部品1
100
AcDbLine
 10
6820.87674989609
 20
1867.482409609603
 30
0.0
 11
6820.87674989609
 21
1945.147289237987
 31
0.0
  0
LINE
  5
2559C
330
747D
100
AcDbEntity
  8
細線
100
AcDbLine
 10
7096.50174989609
 20
1864.107409609603
 30
0.0
 11
7096.50174989609
 21
1918.107409609602
 31
0.0
  0
LINE
  5
2559D
330
747D
100
AcDbEntity
  8
細線
100
AcDbLine
 10
7083.001749896094
 20
1864.107409609603
 30
0.0
 11
7083.00174989609
 21
1918.107409609602
 31
0.0
  0
LINE
  5
2559E
330
747D
100
AcDbEntity
  8
部品1
100
AcDbLine
 10
7000.876749896089
 20
1920.782409609603
 30
0.0
 11
7000.876749896089
 21
1867.482409609603
 31
0.0
  0
LINE
  5
2559F
330
747D
100
AcDbEntity
  8
部品1
100
AcDbLine
 10
7015.826749896092
 20
1935.732409609604
 30
0.0
 11
7015.826749896085
 21
1867.482409609603
 31
0.0
  0
LINE
  5
255A0
330
747D
100
AcDbEntity
  8
部品1
100
AcDbLine
 10
7101.001749896089
 20
1570.907409609602
 30
0.0
 11
7101.001749896086
 21
1913.607409609603
 31
0.0
  0
LINE
  5
255A1
330
747D
100
AcDbEntity
  8
部品1
100
AcDbLine
 10
7078.50174989609
 20
1570.907409609602
 30
0.0
 11
7078.501749896087
 21
1913.607409609603
 31
0.0
  0
TEXT
  5
255A2
330
747D
100
AcDbEntity
  8
部品1
 48
50.0
100
AcDbText
 10
6295.326872604894
 20
1566.206149963671
 30
0.0
 40
100.0
  1
▽G.L
  7
STYLE2
100
AcDbText
  0
LWPOLYLINE
  5
255A3
330
747D
100
AcDbEntity
  8
部品1
 48
50.0
100
AcDbPolyline
 90
        2
 70
     0
 43
10.0
 10
6295.326872604896
 20
1552.157409609604
 10
6813.001749896088
 20
1552.157409609604
  0
LINE
  5
255A4
330
747D
100
AcDbEntity
  8
部品1
 48
50.0
100
AcDbLine
 10
7330.50174989609
 20
1172.157409609601
 30
0.0
 11
7490.50174989609
 21
1172.157409609601
 31
0.0
  0
LINE
  5
255A5
330
747D
100
AcDbEntity
  8
細線
 48
50.0
100
AcDbLine
 10
7338.753919018379
 20
842.1574096096028
 30
0.0
 11
7330.715443245447
 21
872.1574096096015
 31
0.0
  0
LINE
  5
255A6
330
747D
100
AcDbEntity
  8
細線
 48
50.0
100
AcDbLine
 10
7437.36397520245
 20
842.1574096096005
 30
0.0
 11
7429.325499429518
 21
872.1574096096006
 31
0.0
  0
LINE
  5
255A7
330
747D
100
AcDbEntity
  8
細線
 48
50.0
100
AcDbLine
 10
7141.533806650276
 20
842.1574096096028
 30
0.0
 11
7133.495330877344
 21
872.1574096096015
 31
0.0
  0
LINE
  5
255A8
330
747D
100
AcDbEntity
  8
細線
 48
50.0
100
AcDbLine
 10
7240.143862834333
 20
842.1574096096028
 30
0.0
 11
7232.105387061399
 21
872.1574096096015
 31
0.0
  0
LINE
  5
255A9
330
747D
100
AcDbEntity
  8
細線
 48
50.0
100
AcDbLine
 10
7195.314447681582
 20
872.1574096096015
 30
0.0
 11
7490.50174989609
 21
1167.344711824111
 31
0.0
  0
LINE
  5
255AA
330
747D
100
AcDbEntity
  8
細線
 48
50.0
100
AcDbLine
 10
7228.990408135594
 20
872.1574096096015
 30
0.0
 11
7490.50174989609
 21
1133.668751370095
 31
0.0
  0
LINE
  5
255AB
330
747D
100
AcDbEntity
  8
細線
 48
50.0
100
AcDbLine
 10
7262.666368589599
 20
872.1574096096015
 30
0.0
 11
7490.50174989609
 21
1099.992790916097
 31
0.0
  0
LINE
  5
255AC
330
747D
100
AcDbEntity
  8
部品1
 48
50.0
100
AcDbLine
 10
7490.50174989609
 20
1172.157409609601
 30
0.0
 11
7490.50174989609
 21
872.1574096096015
 31
0.0
  0
LINE
  5
255AD
330
747D
100
AcDbEntity
  8
細線
 48
50.0
100
AcDbLine
 10
6944.313694282161
 20
842.1574096096028
 30
0.0
 11
6936.275218509229
 21
872.1574096096015
 31
0.0
  0
LINE
  5
255AE
330
747D
100
AcDbEntity
  8
細線
 48
50.0
100
AcDbLine
 10
7042.923750466218
 20
842.1574096096028
 30
0.0
 11
7034.885274693285
 21
872.1574096096015
 31
0.0
  0
LINE
  5
255AF
330
747D
100
AcDbEntity
  8
細線
 48
50.0
100
AcDbLine
 10
6747.093581914031
 20
842.1574096096028
 30
0.0
 11
6739.055106141098
 21
872.1574096096015
 31
0.0
  0
LINE
  5
255B0
330
747D
100
AcDbEntity
  8
細線
 48
50.0
100
AcDbLine
 10
6845.703638098095
 20
842.1574096096028
 30
0.0
 11
6837.665162325163
 21
872.1574096096015
 31
0.0
  0
LINE
  5
255B1
330
747D
100
AcDbEntity
  8
細線
 48
50.0
100
AcDbLine
 10
6925.906764049507
 20
872.1574096096015
 30
0.0
 11
7330.501749896088
 21
1276.752395456185
 31
0.0
  0
LINE
  5
255B2
330
747D
100
AcDbEntity
  8
細線
 48
50.0
100
AcDbLine
 10
6959.582724503518
 20
872.1574096096015
 30
0.0
 11
7330.50174989609
 21
1243.076435002168
 31
0.0
  0
LINE
  5
255B3
330
747D
100
AcDbEntity
  8
細線
 48
50.0
100
AcDbLine
 10
6993.258684957526
 20
872.1574096096015
 30
0.0
 11
7330.50174989609
 21
1209.400474548174
 31
0.0
  0
LINE
  5
255B4
330
747D
100
AcDbEntity
  8
細線
 48
50.0
100
AcDbLine
 10
7311.95899977528
 20
742.1574096096015
 30
0.0
 11
7319.997475548227
 21
712.1574096096014
 31
0.0
  0
LINE
  5
255B5
330
747D
100
AcDbEntity
  8
細線
 48
50.0
100
AcDbLine
 10
7410.569055959341
 20
742.1574096096005
 30
0.0
 11
7418.607531732274
 21
712.1574096096005
 31
0.0
  0
LINE
  5
255B6
330
747D
100
AcDbEntity
  8
細線
 48
50.0
100
AcDbLine
 10
7114.738887407162
 20
742.1574096096015
 30
0.0
 11
7122.777363180097
 21
712.1574096096014
 31
0.0
  0
LINE
  5
255B7
330
747D
100
AcDbEntity
  8
細線
 48
50.0
100
AcDbLine
 10
7213.348943591221
 20
742.1574096096015
 30
0.0
 11
7221.387419364155
 21
712.1574096096014
 31
0.0
  0
LINE
  5
255B8
330
747D
100
AcDbEntity
  8
細線
 48
50.0
100
AcDbLine
 10
6917.518775039049
 20
742.1574096096015
 30
0.0
 11
6925.557250811983
 21
712.1574096096014
 31
0.0
  0
LINE
  5
255B9
330
747D
100
AcDbEntity
  8
細線
 48
50.0
100
AcDbLine
 10
7016.128831223105
 20
742.1574096096015
 30
0.0
 11
7024.16730699604
 21
712.1574096096014
 31
0.0
  0
LINE
  5
255BA
330
747D
100
AcDbEntity
  8
細線
 48
50.0
100
AcDbLine
 10
6720.298662670919
 20
742.1574096096015
 30
0.0
 11
6728.337138443852
 21
712.1574096096014
 31
0.0
  0
LINE
  5
255BB
330
747D
100
AcDbEntity
  8
細線
 48
50.0
100
AcDbLine
 10
6818.908718854983
 20
742.1574096096015
 30
0.0
 11
6826.947194627919
 21
712.1574096096014
 31
0.0
  0
LINE
  5
255BC
330
747D
100
AcDbEntity
  8
細線
 48
50.0
100
AcDbLine
 10
7303.920524002343
 20
712.1574096096005
 30
0.0
 11
7346.792394791309
 21
872.1574096096015
 31
0.0
  0
LINE
  5
255BD
330
747D
100
AcDbEntity
  8
細線
 48
50.0
100
AcDbLine
 10
7402.530580186405
 20
712.1574096095987
 30
0.0
 11
7445.402450975382
 21
872.1574096095988
 31
0.0
  0
LINE
  5
255BE
330
747D
100
AcDbEntity
  8
細線
 48
50.0
100
AcDbLine
 10
7106.700411634228
 20
712.1574096096005
 30
0.0
 11
7149.572282423207
 21
872.1574096096006
 31
0.0
  0
LINE
  5
255BF
330
747D
100
AcDbEntity
  8
細線
 48
50.0
100
AcDbLine
 10
6909.480299266109
 20
712.1574096096014
 30
0.0
 11
6952.352170055085
 21
872.1574096096015
 31
0.0
  0
LINE
  5
255C0
330
747D
100
AcDbEntity
  8
細線
 48
50.0
100
AcDbLine
 10
7008.090355450166
 20
712.1574096096014
 30
0.0
 11
7050.962226239147
 21
872.1574096096006
 31
0.0
  0
LINE
  5
255C1
330
747D
100
AcDbEntity
  8
細線
 48
50.0
100
AcDbLine
 10
7205.310467818279
 20
712.1574096096014
 30
0.0
 11
7248.182338607263
 21
872.1574096096006
 31
0.0
  0
LINE
  5
255C2
330
747D
100
AcDbEntity
  8
細線
 48
50.0
100
AcDbLine
 10
6712.260186897984
 20
712.1574096096014
 30
0.0
 11
6755.132057686964
 21
872.1574096096015
 31
0.0
  0
LINE
  5
255C3
330
747D
100
AcDbEntity
  8
細線
 48
50.0
100
AcDbLine
 10
6810.870243082042
 20
712.1574096096005
 30
0.0
 11
6853.74211387102
 21
872.1574096096006
 31
0.0
  0
LINE
  5
255C4
330
747D
100
AcDbEntity
  8
細線
 48
50.0
100
AcDbLine
 10
6653.001749896083
 20
1138.067762720334
 30
0.0
 11
6687.091396785358
 21
1172.157409609601
 31
0.0
  0
LINE
  5
255C5
330
747D
100
AcDbEntity
  8
細線
 48
50.0
100
AcDbLine
 10
6553.00174989609
 20
853.8323108168265
 30
0.0
 11
6557.911945318834
 21
872.1574096096015
 31
0.0
  0
LINE
  5
255C6
330
747D
100
AcDbEntity
  8
細線
 48
50.0
100
AcDbLine
 10
6648.483525729965
 20
842.1574096096028
 30
0.0
 11
6640.445049957031
 21
872.1574096096015
 31
0.0
  0
LINE
  5
255C7
330
747D
100
AcDbEntity
  8
部品1
 48
50.0
100
AcDbLine
 10
6653.00174989609
 20
872.1574096096015
 30
0.0
 11
6653.00174989609
 21
1172.157409609601
 31
0.0
  0
LINE
  5
255C8
330
747D
100
AcDbEntity
  8
細線
 48
50.0
100
AcDbLine
 10
6621.688606486856
 20
742.1574096096015
 30
0.0
 11
6629.727082259788
 21
712.1574096096014
 31
0.0
  0
LINE
  5
255C9
330
747D
100
AcDbEntity
  8
部品1
 48
50.0
100
AcDbLine
 10
6553.001749896093
 20
712.1574096096014
 30
0.0
 11
6553.001749896093
 21
872.1574096096015
 31
0.0
  0
LINE
  5
255CA
330
747D
100
AcDbEntity
  8
細線
 48
50.0
100
AcDbLine
 10
6613.650130713913
 20
712.1574096096005
 30
0.0
 11
6656.522001502891
 21
872.1574096096006
 31
0.0
  0
LINE
  5
255CB
330
747D
100
AcDbEntity
  8
細線
 48
50.0
100
AcDbLine
 10
6653.001749896083
 20
1104.391802266321
 30
0.0
 11
6720.76735723937
 21
1172.157409609601
 31
0.0
  0
LINE
  5
255CC
330
747D
100
AcDbEntity
  8
細線
 48
50.0
100
AcDbLine
 10
6653.001749896083
 20
1070.715841812316
 30
0.0
 11
6754.443317693376
 21
1172.157409609601
 31
0.0
  0
LINE
  5
255CD
330
747D
100
AcDbEntity
  8
部品1
 48
50.0
100
AcDbLine
 10
6653.00174989609
 20
1172.157409609601
 30
0.0
 11
6813.001749896088
 21
1172.157409609601
 31
0.0
  0
LINE
  5
255CE
330
747D
100
AcDbEntity
  8
細線
 48
50.0
100
AcDbLine
 10
6656.499080417431
 20
872.1574096096015
 30
0.0
 11
7330.501749896088
 21
1546.160079088259
 31
0.0
  0
LINE
  5
255CF
330
747D
100
AcDbEntity
  8
部品1
100
AcDbLine
 10
7330.501749896088
 20
1172.157409609601
 30
0.0
 11
7330.50174989609
 21
1852.157409609603
 31
0.0
  0
LINE
  5
255D0
330
747D
100
AcDbEntity
  8
部品1
 48
50.0
100
AcDbLine
 10
6813.001749896088
 20
1172.157409609601
 30
0.0
 11
6813.001749896088
 21
1852.157409609603
 31
0.0
  0
LINE
  5
255D1
330
747D
100
AcDbEntity
  8
細線
 48
50.0
100
AcDbLine
 10
6813.001749896088
 20
1264.391802266324
 30
0.0
 11
7011.001749896078
 21
1462.39180226631
 31
0.0
  0
LINE
  5
255D2
330
747D
100
AcDbEntity
  8
細線
 48
50.0
100
AcDbLine
 10
6813.001749896088
 20
1230.715841812316
 30
0.0
 11
7029.443317693384
 21
1447.1574096096
 31
0.0
  0
LINE
  5
255D3
330
747D
100
AcDbEntity
  8
細線
 48
50.0
100
AcDbLine
 10
6813.001749896088
 20
1298.067762720334
 30
0.0
 11
7011.001749896078
 21
1496.067762720327
 31
0.0
  0
LINE
  5
255D4
330
747D
100
AcDbEntity
  8
細線
 48
50.0
100
AcDbLine
 10
6723.851001325451
 20
872.1574096096015
 30
0.0
 11
7330.50174989609
 21
1478.808158180237
 31
0.0
  0
LINE
  5
255D5
330
747D
100
AcDbEntity
  8
細線
 48
50.0
100
AcDbLine
 10
6690.175040871442
 20
872.1574096096015
 30
0.0
 11
7330.501749896092
 21
1512.484118634245
 31
0.0
  0
TEXT
  5
255D6
330
747D
100
AcDbEntity
  8
部品1
 48
50.0
100
AcDbText
 10
7335.943730251624
 20
2297.005760562353
 30
0.0
 40
100.0
  1
基礎ボルト(市販品)
  7
STYLE2
100
AcDbText
  0
DIMENSION
  5
255D7
330
747D
100
AcDbEntity
  8
寸法
 48
50.0
100
AcDbDimension
  2
*D35
 10
8302.905832255929
 20
1852.157409609603
 30
0.0
 11
8302.905832255929
 21
1386.148506188121
 31
0.0
 70
   160
  1
20～25
 71
     5
 42
65.94999999999891
  3
INABA_S40G
100
AcDbAlignedDimension
 13
7096.50174989609
 23
1918.107409609602
 33
0.0
 14
7330.50174989609
 24
1852.157409609603
 34
0.0
 50
90.0
100
AcDbRotatedDimension
1001
ACAD
1000
DSTYLE
1002
{
1070
   341
1005
0
1002
}
  0
LINE
  5
255D8
330
747D
100
AcDbEntity
  8
細線
 48
50.0
100
AcDbLine
 10
7501.140636370458
 20
712.1574096096005
 30
0.0
 11
7544.012507159441
 21
872.1574096095988
 31
0.0
  0
LINE
  5
255D9
330
747D
100
AcDbEntity
  8
部品1
 48
50.0
100
AcDbLine
 10
7590.501749896093
 20
712.1574096096014
 30
0.0
 11
6553.001749896093
 21
712.1574096096014
 31
0.0
  0
LINE
  5
255DA
330
747D
100
AcDbEntity
  8
細線
 48
50.0
100
AcDbLine
 10
7509.179112143399
 20
742.1574096096005
 30
0.0
 11
7517.217587916332
 21
712.1574096096005
 31
0.0
  0
LINE
  5
255DB
330
747D
100
AcDbEntity
  8
部品1
 48
50.0
100
AcDbLine
 10
7590.501749896093
 20
872.1574096096015
 30
0.0
 11
6553.001749896093
 21
872.1574096096015
 31
0.0
  0
LWPOLYLINE
  5
255DC
330
747D
100
AcDbEntity
  8
部品1
 48
50.0
100
AcDbPolyline
 90
        2
 70
     0
 43
10.0
 10
7330.50174989609
 20
1552.157409609604
 10
7697.629829145319
 20
1552.157409609604
  0
DIMENSION
  5
255DD
330
747D
100
AcDbEntity
  8
寸法
 48
50.0
100
AcDbDimension
  2
*D36
 10
7957.837499607146
 20
1447.1574096096
 30
0.0
 11
7857.837499607146
 21
1649.657409609602
 31
0.0
 70
    32
  1
180
 71
     5
 42
405.0000000000031
  3
INABA_S40G
100
AcDbAlignedDimension
 13
7330.50174989609
 23
1852.157409609603
 33
0.0
 14
7330.50174989609
 24
1447.1574096096
 34
0.0
 50
90.0
100
AcDbRotatedDimension
1001
ACAD
1000
DSTYLE
1002
{
1070
   341
1005
0
1002
}
  0
MTEXT
  5
255DE
102
{ACAD_REACTORS
330
255DF
102
}
330
747D
100
AcDbEntity
  8
部品1
 62
     7
 48
50.0
100
AcDbMText
 10
7341.682327920238
 20
2182.636567301141
 30
0.0
 40
100.0
 41
1.0
 71
     4
 72
     1
  1
M10X160
  7
STYLE2
 73
     1
 44
1.0
1001
ACAD
1000
MTEXTBEGIN
1070
    73
1070
     1
1070
    44
1040
1.0
1070
    74
1070
     0
1000
MTEXTEND
  0
LEADER
  5
255DF
330
747D
100
AcDbEntity
  8
寸法
 48
50.0
100
AcDbLeader
  3
INABA_S40G
 73
     0
 74
     0
 75
     1
 40
100.0
 41
543.75
 76
     3
 10
7101.001749896089
 20
1913.607409609603
 30
0.0
 10
7201.682327920238
 20
2092.636567301141
 30
0.0
 10
7301.682327920238
 20
2092.636567301141
 30
0.0
340
255DE
1001
ACAD
1000
DSTYLE
1002
{
1070
   341
1005
0
1002
}
  0
LINE
  5
255E0
330
747D
100
AcDbEntity
  8
細線
 48
50.0
100
AcDbLine
 10
4687.952608424597
 20
1803.207169530475
 30
0.0
 11
4736.902848503729
 21
1852.157409609603
 31
0.0
  0
LINE
  5
255E1
330
747D
100
AcDbEntity
  8
細線
 48
50.0
100
AcDbLine
 10
4687.952608424597
 20
1769.531209076465
 30
0.0
 11
4770.578808957735
 21
1852.157409609603
 31
0.0
  0
LINE
  5
255E2
330
747D
100
AcDbEntity
  8
細線
 48
50.0
100
AcDbLine
 10
4687.952608424597
 20
1836.883129984484
 30
0.0
 11
4703.226888049715
 21
1852.157409609603
 31
0.0
  0
ARC
  5
255E3
330
747D
100
AcDbEntity
  8
部品1
 48
50.0
100
AcDbCircle
 10
4807.952608424597
 20
1677.475446352408
 30
0.0
 40
30.0
100
AcDbArc
 50
0.0
 51
180.0
  0
CIRCLE
  5
255E4
330
747D
100
AcDbEntity
  8
部品1
 48
50.0
100
AcDbCircle
 10
4807.952608424597
 20
1677.475446352408
 30
0.0
 40
10.0
  0
LINE
  5
255E5
330
747D
100
AcDbEntity
  8
細線
 48
50.0
100
AcDbLine
 10
4797.952608424597
 20
1643.7994858984
 30
0.0
 11
4817.952608424597
 21
1663.799485898399
 31
0.0
  0
LINE
  5
255E6
330
747D
100
AcDbEntity
  8
細線
 48
50.0
100
AcDbLine
 10
4837.952608424597
 20
1650.123525444389
 30
0.0
 11
4927.952608424597
 21
1740.123525444391
 31
0.0
  0
LINE
  5
255E7
330
747D
100
AcDbEntity
  8
細線
 48
50.0
100
AcDbLine
 10
4837.39349250708
 20
1683.24036998088
 30
0.0
 11
4927.952608424597
 21
1773.7994858984
 31
0.0
  0
LINE
  5
255E8
330
747D
100
AcDbEntity
  8
細線
 48
50.0
100
AcDbLine
 10
4823.568136552685
 20
1703.090974480497
 30
0.0
 11
4927.952608424597
 21
1807.475446352409
 31
0.0
  0
LINE
  5
255E9
330
747D
100
AcDbEntity
  8
部品1
 48
50.0
100
AcDbLine
 10
4687.952608424597
 20
1852.157409609603
 30
0.0
 11
4927.952608424597
 21
1852.157409609603
 31
0.0
  0
LINE
  5
255EA
330
747D
100
AcDbEntity
  8
細線
 48
50.0
100
AcDbLine
 10
4687.952608424597
 20
1500.123525444391
 30
0.0
 11
4792.645510961216
 21
1604.816427981006
 31
0.0
  0
LINE
  5
255EB
330
747D
100
AcDbEntity
  8
部品1
 48
50.0
100
AcDbLine
 10
4797.952608424597
 20
1604.816427981006
 30
0.0
 11
4777.952608424597
 21
1604.81642798101
 31
0.0
  0
LINE
  5
255EC
330
747D
100
AcDbEntity
  8
細線
 48
50.0
100
AcDbLine
 10
4837.952608424604
 20
1380.715841812316
 30
0.0
 11
4927.95260842459
 21
1470.715841812316
 31
0.0
  0
LINE
  5
255ED
330
747D
100
AcDbEntity
  8
細線
 48
50.0
100
AcDbLine
 10
4837.952608424597
 20
1448.067762720333
 30
0.0
 11
4927.952608424597
 21
1538.067762720334
 31
0.0
  0
LINE
  5
255EE
330
747D
100
AcDbEntity
  8
細線
 48
50.0
100
AcDbLine
 10
4837.952608424604
 20
1414.391802266329
 30
0.0
 11
4927.95260842459
 21
1504.391802266321
 31
0.0
  0
LINE
  5
255EF
330
747D
100
AcDbEntity
  8
細線
 48
50.0
100
AcDbLine
 10
4687.952608424597
 20
1533.7994858984
 30
0.0
 11
4777.952608424597
 21
1623.7994858984
 31
0.0
  0
LINE
  5
255F0
330
747D
100
AcDbEntity
  8
細線
 48
50.0
100
AcDbLine
 10
4687.952608424597
 20
1567.475446352409
 30
0.0
 11
4777.952608424597
 21
1657.475446352409
 31
0.0
  0
LINE
  5
255F1
330
747D
100
AcDbEntity
  8
細線
 48
50.0
100
AcDbLine
 10
4797.952608424597
 20
1610.123525444391
 30
0.0
 11
4817.952608424597
 21
1630.123525444391
 31
0.0
  0
LINE
  5
255F2
330
747D
100
AcDbEntity
  8
部品1
 48
50.0
100
AcDbLine
 10
4777.952608424597
 20
1604.81642798101
 30
0.0
 11
4777.952608424597
 21
1677.475446352408
 31
0.0
  0
LINE
  5
255F3
330
747D
100
AcDbEntity
  8
部品1
 48
50.0
100
AcDbLine
 10
4797.952608424597
 20
1604.816427981006
 30
0.0
 11
4797.952608424597
 21
1677.475446352408
 31
0.0
  0
LEADER
  5
255F4
330
747D
100
AcDbEntity
  8
寸法
 48
50.0
100
AcDbLeader
  3
INABA_S40G
 71
     0
 73
     0
 74
     0
 75
     1
 40
100.0
 41
222.7272727272727
 76
     3
 10
4807.952608424596
 20
1677.475446352408
 30
0.0
 10
4906.560029708839
 20
1603.741861233262
 30
0.0
 10
5006.56002970884
 20
1603.741861233262
 30
0.0
1001
ACAD
1000
DSTYLE
1002
{
1070
   341
1005
0
1002
}
  0
LWPOLYLINE
  5
255F5
330
747D
100
AcDbEntity
  8
部品1
 48
50.0
100
AcDbPolyline
 90
        2
 70
     0
 43
10.0
 10
4927.952608424597
 20
1552.157409609604
 10
5445.627485715794
 20
1552.157409609604
  0
MTEXT
  5
255F6
102
{ACAD_REACTORS
330
255F4
102
}
330
747D
100
AcDbEntity
  8
寸法
 62
     7
 48
50.0
100
AcDbMText
 10
5031.560029708839
 20
1678.741861233262
 30
0.0
 40
100.0
 41
1.0
 71
     4
 72
     1
  1
D13
  7
STYLE2
 73
     1
 44
1.0
1001
ACAD
1000
MTEXTBEGIN
1070
    73
1070
     1
1070
    44
1040
1.0
1070
    74
1070
     0
1000
MTEXTEND
  0
LINE
  5
255F7
330
747D
100
AcDbEntity
  8
細線
 48
50.0
100
AcDbLine
 10
5115.094721362844
 20
842.1574096096028
 30
0.0
 11
5107.056245589907
 21
872.1574096096015
 31
0.0
  0
LINE
  5
255F8
330
747D
100
AcDbEntity
  8
細線
 48
50.0
100
AcDbLine
 10
5070.265306210089
 20
872.1574096096015
 30
0.0
 11
5087.952608424597
 21
889.8447118241106
 31
0.0
  0
MTEXT
  5
255F9
102
{ACAD_REACTORS
330
25638
102
}
330
747D
100
AcDbEntity
  8
寸法
 62
     7
 48
50.0
100
AcDbMText
 10
5217.112183182953
 20
977.9110734308856
 30
0.0
 40
100.0
 41
1.0
 71
     4
 72
     1
  1
D10
  7
STYLE2
 73
     1
 44
1.0
1001
ACAD
1000
MTEXTBEGIN
1070
    73
1070
     1
1070
    44
1040
1.0
1070
    74
1070
     0
1000
MTEXTEND
  0
LINE
  5
255FA
330
747D
100
AcDbEntity
  8
部品1
 48
50.0
100
AcDbLine
 10
5087.952608424597
 20
1172.157409609601
 30
0.0
 11
5087.952608424597
 21
872.1574096096015
 31
0.0
  0
LINE
  5
255FB
330
747D
100
AcDbEntity
  8
細線
 48
50.0
100
AcDbLine
 10
5088.299802119729
 20
742.1574096096015
 30
0.0
 11
5096.338277892662
 21
712.1574096096014
 31
0.0
  0
LINE
  5
255FC
330
747D
100
AcDbEntity
  8
細線
 48
50.0
100
AcDbLine
 10
5186.909858303788
 20
742.1574096096015
 30
0.0
 11
5187.952608424597
 21
738.2658131791457
 31
0.0
  0
LINE
  5
255FD
330
747D
100
AcDbEntity
  8
細線
 48
50.0
100
AcDbLine
 10
5178.87138253085
 20
712.1574096096005
 30
0.0
 11
5187.952608424597
 21
746.0490060400874
 31
0.0
  0
MTEXT
  5
255FE
102
{ACAD_REACTORS
330
25636
102
}
330
747D
100
AcDbEntity
  8
寸法
 62
     7
 48
50.0
100
AcDbMText
 10
5230.125678251161
 20
650.4710524444102
 30
0.0
 40
100.0
 41
1.0
 71
     4
 72
     1
  1
\A1;D10@300
  7
STYLE2
 73
     1
 44
1.0
1001
ACAD
1000
MTEXTBEGIN
1070
    73
1070
     1
1070
    44
1040
1.0
1070
    74
1070
     0
1000
MTEXTEND
  0
LINE
  5
255FF
330
747D
100
AcDbEntity
  8
部品1
 48
50.0
100
AcDbLine
 10
5187.952608424601
 20
872.1574096096015
 30
0.0
 11
5187.952608424601
 21
712.1574096096014
 31
0.0
  0
LINE
  5
25600
330
747D
100
AcDbEntity
  8
細線
 48
50.0
100
AcDbLine
 10
5080.261326346787
 20
712.1574096096014
 30
0.0
 11
5123.13319713577
 21
872.1574096096006
 31
0.0
  0
LINE
  5
25601
330
747D
100
AcDbEntity
  8
部品1
 48
50.0
100
AcDbLine
 10
4797.952608424597
 20
1094.816427981005
 30
0.0
 11
4777.952608424597
 21
1094.816427981005
 31
0.0
  0
LINE
  5
25602
330
747D
100
AcDbEntity
  8
細線
 48
50.0
100
AcDbLine
 10
4787.784917771353
 20
1094.816427981005
 30
0.0
 11
4817.952608424604
 21
1124.984118634254
 31
0.0
  0
LINE
  5
25603
330
747D
100
AcDbEntity
  8
細線
 48
50.0
100
AcDbLine
 10
4797.952608424597
 20
1071.308158180241
 30
0.0
 11
4817.952608424604
 21
1091.308158180241
 31
0.0
  0
LINE
  5
25604
330
747D
100
AcDbEntity
  8
細線
 48
50.0
100
AcDbLine
 10
4837.952608424604
 20
1144.984118634254
 30
0.0
 11
4927.95260842459
 21
1234.984118634247
 31
0.0
  0
LINE
  5
25605
330
747D
100
AcDbEntity
  8
細線
 48
50.0
100
AcDbLine
 10
4837.952608424604
 20
1178.660079088264
 30
0.0
 11
4927.95260842459
 21
1268.66007908826
 31
0.0
  0
LINE
  5
25606
330
747D
100
AcDbEntity
  8
細線
 48
50.0
100
AcDbLine
 10
4837.952608424604
 20
1111.308158180241
 30
0.0
 11
4927.95260842459
 21
1201.308158180241
 31
0.0
  0
LINE
  5
25607
330
747D
100
AcDbEntity
  8
細線
 48
50.0
100
AcDbLine
 10
4868.209543486033
 20
872.1574096096015
 30
0.0
 11
4988.210653292455
 21
992.1585194160266
 31
0.0
  0
LINE
  5
25608
330
747D
100
AcDbEntity
  8
部品1
 48
50.0
100
AcDbLine
 10
5017.952608424597
 20
1012.157409609601
 30
0.0
 11
5017.952608424597
 21
992.1574096096014
 31
0.0
  0
LINE
  5
25609
330
747D
100
AcDbEntity
  8
細線
 48
50.0
100
AcDbLine
 10
5016.484665178783
 20
842.1574096096028
 30
0.0
 11
5008.446189405851
 21
872.1574096096015
 31
0.0
  0
CIRCLE
  5
2560A
330
747D
100
AcDbEntity
  8
部品1
 48
50.0
100
AcDbCircle
 10
4967.952608424597
 20
1022.157409609601
 30
0.0
 40
10.0
  0
LINE
  5
2560B
330
747D
100
AcDbEntity
  8
細線
 48
50.0
100
AcDbLine
 10
4917.874608994726
 20
842.1574096096028
 30
0.0
 11
4909.836133221792
 21
872.1574096096015
 31
0.0
  0
ARC
  5
2560C
330
747D
100
AcDbEntity
  8
部品1
 48
50.0
100
AcDbCircle
 10
4807.952608424597
 20
1022.157409609601
 30
0.0
 40
30.0
100
AcDbArc
 50
340.5287793654709
 51
0.0
  0
LINE
  5
2560D
330
747D
100
AcDbEntity
  8
細線
 48
50.0
100
AcDbLine
 10
4819.264552810668
 20
842.1574096096028
 30
0.0
 11
4811.226077037733
 21
872.1574096096015
 31
0.0
  0
ARC
  5
2560E
330
747D
100
AcDbEntity
  8
部品1
 48
50.0
100
AcDbCircle
 10
4807.952608424597
 20
1022.157409609601
 30
0.0
 40
30.0
100
AcDbArc
 50
180.0
 51
199.471220634529
  0
LINE
  5
2560F
330
747D
100
AcDbEntity
  8
細線
 48
50.0
100
AcDbLine
 10
4720.654496626603
 20
842.1574096096028
 30
0.0
 11
4712.616020853668
 21
872.1574096096015
 31
0.0
  0
CIRCLE
  5
25610
330
747D
100
AcDbEntity
  8
部品1
 48
50.0
100
AcDbCircle
 10
4807.952608424597
 20
1022.157409609601
 30
0.0
 40
10.0
  0
LINE
  5
25611
330
747D
100
AcDbEntity
  8
細線
 48
50.0
100
AcDbLine
 10
4834.533583032027
 20
872.1574096096015
 30
0.0
 11
4954.533583032027
 21
992.1574096096014
 31
0.0
  0
LINE
  5
25612
330
747D
100
AcDbEntity
  8
細線
 48
50.0
100
AcDbLine
 10
4800.857622578014
 20
872.1574096096015
 30
0.0
 11
4920.857622578014
 21
992.1574096096014
 31
0.0
  0
LINE
  5
25613
330
747D
100
AcDbEntity
  8
細線
 48
50.0
100
AcDbLine
 10
4671.449938945939
 20
1012.157409609601
 30
0.0
 11
4817.952608424597
 21
1158.66007908826
 31
0.0
  0
LINE
  5
25614
330
747D
100
AcDbEntity
  8
細線
 48
50.0
100
AcDbLine
 10
4738.801859853958
 20
1012.157409609601
 30
0.0
 11
4777.952608424597
 21
1051.308158180241
 31
0.0
  0
LINE
  5
25615
330
747D
100
AcDbEntity
  8
部品1
 48
50.0
100
AcDbLine
 10
4777.952608424597
 20
1094.816427981005
 30
0.0
 11
4777.952608424597
 21
1022.157409609601
 31
0.0
  0
LINE
  5
25616
330
747D
100
AcDbEntity
  8
細線
 48
50.0
100
AcDbLine
 10
4705.125899399951
 20
1012.157409609601
 30
0.0
 11
4777.952608424597
 21
1084.98411863425
 31
0.0
  0
LINE
  5
25617
330
747D
100
AcDbEntity
  8
部品1
 48
50.0
100
AcDbLine
 10
4797.952608424597
 20
1094.816427981005
 30
0.0
 11
4797.952608424597
 21
1022.157409609601
 31
0.0
  0
LINE
  5
25618
330
747D
100
AcDbEntity
  8
細線
 48
50.0
100
AcDbLine
 10
4527.95260842459
 20
1104.391802266321
 30
0.0
 11
4595.718215767877
 21
1172.157409609601
 31
0.0
  0
LINE
  5
25619
330
747D
100
AcDbEntity
  8
細線
 48
50.0
100
AcDbLine
 10
4527.95260842459
 20
1138.067762720334
 30
0.0
 11
4562.042255313865
 21
1172.157409609601
 31
0.0
  0
LINE
  5
2561A
330
747D
100
AcDbEntity
  8
細線
 48
50.0
100
AcDbLine
 10
4527.95260842459
 20
1070.715841812316
 30
0.0
 11
4629.394176221882
 21
1172.157409609601
 31
0.0
  0
LINE
  5
2561B
330
747D
100
AcDbEntity
  8
部品1
 48
50.0
100
AcDbLine
 10
4597.952608424598
 20
1012.157409609601
 30
0.0
 11
4597.952608424598
 21
992.1574096096014
 31
0.0
  0
LINE
  5
2561C
330
747D
100
AcDbEntity
  8
細線
 48
50.0
100
AcDbLine
 10
4622.044440442538
 20
842.1574096096028
 30
0.0
 11
4614.005964669604
 21
872.1574096096015
 31
0.0
  0
LINE
  5
2561D
330
747D
100
AcDbEntity
  8
細線
 48
50.0
100
AcDbLine
 10
4523.434384258472
 20
842.1574096096028
 30
0.0
 11
4515.395908485539
 21
872.1574096096015
 31
0.0
  0
LINE
  5
2561E
330
747D
100
AcDbEntity
  8
細線
 48
50.0
100
AcDbLine
 10
4427.952608424597
 20
853.8323108168265
 30
0.0
 11
4432.862803847341
 21
872.1574096096015
 31
0.0
  0
LINE
  5
2561F
330
747D
100
AcDbEntity
  8
部品1
 48
50.0
100
AcDbLine
 10
4527.952608424597
 20
872.1574096096015
 30
0.0
 11
4527.952608424597
 21
1172.157409609601
 31
0.0
  0
LINE
  5
25620
330
747D
100
AcDbEntity
  8
部品1
 48
50.0
100
AcDbLine
 10
4597.952608424598
 20
992.1574096096014
 30
0.0
 11
5017.952608424597
 21
992.1574096096014
 31
0.0
  0
LINE
  5
25621
330
747D
100
AcDbEntity
  8
部品1
 48
50.0
100
AcDbLine
 10
4597.952608424598
 20
1012.157409609601
 30
0.0
 11
5017.952608424597
 21
1012.157409609601
 31
0.0
  0
LINE
  5
25622
330
747D
100
AcDbEntity
  8
細線
 48
50.0
100
AcDbLine
 10
4598.801859853958
 20
872.1574096096015
 30
0.0
 11
4718.801859853958
 21
992.1574096096014
 31
0.0
  0
CIRCLE
  5
25623
330
747D
100
AcDbEntity
  8
部品1
 48
50.0
100
AcDbCircle
 10
4647.952608424597
 20
1022.157409609601
 30
0.0
 40
10.0
  0
LINE
  5
25624
330
747D
100
AcDbEntity
  8
細線
 48
50.0
100
AcDbLine
 10
4565.125899399951
 20
872.1574096096015
 30
0.0
 11
4685.125899399952
 21
992.1574096096014
 31
0.0
  0
LINE
  5
25625
330
747D
100
AcDbEntity
  8
細線
 48
50.0
100
AcDbLine
 10
4531.449938945939
 20
872.1574096096015
 30
0.0
 11
4651.44993894594
 21
992.1574096096014
 31
0.0
  0
LINE
  5
25626
330
747D
100
AcDbEntity
  8
部品1
 48
50.0
100
AcDbLine
 10
4527.952608424597
 20
1172.157409609601
 30
0.0
 11
4687.952608424597
 21
1172.157409609601
 31
0.0
  0
LINE
  5
25627
330
747D
100
AcDbEntity
  8
細線
 48
50.0
100
AcDbLine
 10
4891.079689751614
 20
742.1574096096015
 30
0.0
 11
4899.118165524548
 21
712.1574096096014
 31
0.0
  0
LINE
  5
25628
330
747D
100
AcDbEntity
  8
細線
 48
50.0
100
AcDbLine
 10
4989.68974593567
 20
742.1574096096015
 30
0.0
 11
4997.728221708605
 21
712.1574096096014
 31
0.0
  0
LINE
  5
25629
330
747D
100
AcDbEntity
  8
細線
 48
50.0
100
AcDbLine
 10
4693.859577383491
 20
742.1574096096015
 30
0.0
 11
4701.898053156424
 21
712.1574096096014
 31
0.0
  0
LINE
  5
2562A
330
747D
100
AcDbEntity
  8
細線
 48
50.0
100
AcDbLine
 10
4792.469633567556
 20
742.1574096096015
 30
0.0
 11
4800.50810934049
 21
712.1574096096014
 31
0.0
  0
LINE
  5
2562B
330
747D
100
AcDbEntity
  8
細線
 48
50.0
100
AcDbLine
 10
4496.639465015362
 20
742.1574096096015
 30
0.0
 11
4504.677940788295
 21
712.1574096096014
 31
0.0
  0
LINE
  5
2562C
330
747D
100
AcDbEntity
  8
細線
 48
50.0
100
AcDbLine
 10
4595.249521199426
 20
742.1574096096015
 30
0.0
 11
4603.28799697236
 21
712.1574096096014
 31
0.0
  0
LINE
  5
2562D
330
747D
100
AcDbEntity
  8
細線
 48
50.0
100
AcDbLine
 10
4883.041213978673
 20
712.1574096096014
 30
0.0
 11
4925.913084767655
 21
872.1574096096006
 31
0.0
  0
LINE
  5
2562E
330
747D
100
AcDbEntity
  8
細線
 48
50.0
100
AcDbLine
 10
4587.211045426493
 20
712.1574096096014
 30
0.0
 11
4630.082916215471
 21
872.1574096096015
 31
0.0
  0
LINE
  5
2562F
330
747D
100
AcDbEntity
  8
細線
 48
50.0
100
AcDbLine
 10
4685.821101610549
 20
712.1574096096005
 30
0.0
 11
4728.692972399529
 21
872.1574096096006
 31
0.0
  0
LINE
  5
25630
330
747D
100
AcDbEntity
  8
細線
 48
50.0
100
AcDbLine
 10
4488.600989242421
 20
712.1574096096005
 30
0.0
 11
4531.472860031398
 21
872.1574096096006
 31
0.0
  0
LINE
  5
25631
330
747D
100
AcDbEntity
  8
部品1
 48
50.0
100
AcDbLine
 10
4427.952608424599
 20
712.1574096096014
 30
0.0
 11
4427.952608424599
 21
872.1574096096015
 31
0.0
  0
LINE
  5
25632
330
747D
100
AcDbEntity
  8
細線
 48
50.0
100
AcDbLine
 10
4784.431157794617
 20
712.1574096096014
 30
0.0
 11
4827.303028583594
 21
872.1574096096015
 31
0.0
  0
LINE
  5
25633
330
747D
100
AcDbEntity
  8
細線
 48
50.0
100
AcDbLine
 10
4981.651270162736
 20
712.1574096096005
 30
0.0
 11
5024.523140951714
 21
872.1574096096006
 31
0.0
  0
LINE
  5
25634
330
747D
100
AcDbEntity
  8
部品1
 48
50.0
100
AcDbLine
 10
5187.952608424601
 20
712.1574096096014
 30
0.0
 11
4427.952608424599
 21
712.1574096096014
 31
0.0
  0
LINE
  5
25635
330
747D
100
AcDbEntity
  8
部品1
 48
50.0
100
AcDbLine
 10
5187.952608424601
 20
872.1574096096015
 30
0.0
 11
4427.952608424599
 21
872.1574096096015
 31
0.0
  0
LEADER
  5
25636
330
747D
100
AcDbEntity
  8
寸法
 48
50.0
100
AcDbLeader
  3
INABA_S40G
 71
     0
 73
     0
 74
     0
 75
     1
 40
100.0
 41
540.3409090909091
 76
     3
 10
4900.384069691065
 20
1001.231746592695
 30
0.0
 10
5105.12567825116
 20
574.1932240990736
 30
0.0
 10
5205.12567825116
 20
574.1932240990736
 30
0.0
213
0.0
223
-1.277828345336728
233
0.0
1001
ACAD
1000
DSTYLE
1002
{
1070
   341
1005
0
1002
}
  0
DIMENSION
  5
25637
330
747D
100
AcDbEntity
  8
寸法
 48
50.0
100
AcDbDimension
  2
*D37
 10
5087.952608424597
 20
413.2053031536683
 30
0.0
 11
4807.952608424596
 21
413.2053031536683
 31
0.0
 70
   160
  1
300
 71
     5
 42
560.0000000000009
  3
INABA_S40G
100
AcDbAlignedDimension
 13
4527.952608424596
 23
712.1574096096014
 33
0.0
 14
5087.952608424597
 24
712.1574096096014
 34
0.0
100
AcDbRotatedDimension
1001
ACAD
1000
DSTYLE
1002
{
1070
   341
1005
0
1002
}
  0
LEADER
  5
25638
330
747D
100
AcDbEntity
  8
寸法
 48
50.0
100
AcDbLeader
  3
INABA_S40G
 71
     0
 73
     0
 74
     0
 75
     1
 40
100.0
 41
225.0
 76
     3
 10
4967.831298864776
 20
1022.157409609601
 30
0.0
 10
5092.112183182953
 20
902.9110734308863
 30
0.0
 10
5192.112183182953
 20
902.9110734308863
 30
0.0
1001
ACAD
1000
DSTYLE
1002
{
1070
   341
1005
0
1002
}
  0
LINE
  5
25639
330
747D
100
AcDbEntity
  8
細線
 48
50.0
100
AcDbLine
 10
4940.857622578008
 20
1012.157409609601
 30
0.0
 11
5087.952608424597
 21
1159.252395456185
 31
0.0
  0
LINE
  5
2563A
330
747D
100
AcDbEntity
  8
細線
 48
50.0
100
AcDbLine
 10
5008.209543486032
 20
1012.157409609601
 30
0.0
 11
5087.952608424597
 21
1091.900474548166
 31
0.0
  0
LINE
  5
2563B
330
747D
100
AcDbEntity
  8
細線
 48
50.0
100
AcDbLine
 10
4974.533583032027
 20
1012.157409609601
 30
0.0
 11
5087.952608424597
 21
1125.576435002176
 31
0.0
  0
LINE
  5
2563C
330
747D
100
AcDbEntity
  8
部品1
 48
50.0
100
AcDbLine
 10
4927.952608424597
 20
1172.157409609601
 30
0.0
 11
5087.952608424597
 21
1172.157409609601
 31
0.0
  0
LINE
  5
2563D
330
747D
100
AcDbEntity
  8
部品1
 48
50.0
100
AcDbLine
 10
4837.952608424604
 20
1022.157409609601
 30
0.0
 11
4837.952608424597
 21
1677.475446352408
 31
0.0
  0
LINE
  5
2563E
330
747D
100
AcDbEntity
  8
部品1
 48
50.0
100
AcDbLine
 10
4817.952608424604
 20
1022.157409609601
 30
0.0
 11
4817.95260842459
 21
1677.475446352408
 31
0.0
  0
LINE
  5
2563F
330
747D
100
AcDbEntity
  8
部品1
 48
50.0
100
AcDbLine
 10
4687.952608424597
 20
1172.157409609601
 30
0.0
 11
4687.952608424597
 21
1852.157409609603
 31
0.0
  0
LINE
  5
25640
330
747D
100
AcDbEntity
  8
細線
 48
50.0
100
AcDbLine
 10
4687.952608424597
 20
1264.391802266324
 30
0.0
 11
4817.952608424604
 21
1394.391802266329
 31
0.0
  0
LINE
  5
25641
330
747D
100
AcDbEntity
  8
細線
 48
50.0
100
AcDbLine
 10
4687.952608424597
 20
1298.067762720334
 30
0.0
 11
4817.952608424597
 21
1428.067762720334
 31
0.0
  0
LINE
  5
25642
330
747D
100
AcDbEntity
  8
細線
 48
50.0
100
AcDbLine
 10
4687.952608424597
 20
1230.715841812316
 30
0.0
 11
4817.952608424604
 21
1360.715841812316
 31
0.0
  0
LINE
  5
25643
330
747D
100
AcDbEntity
  8
部品1
 48
50.0
100
AcDbLine
 10
4927.952608424597
 20
1852.157409609603
 30
0.0
 11
4927.952608424597
 21
1172.157409609601
 31
0.0
  0
MTEXT
  5
25644
102
{ACAD_REACTORS
330
25645
102
}
330
747D
100
AcDbEntity
  8
寸法
 62
     7
 48
50.0
100
AcDbMText
 10
4314.283825680604
 20
767.7540425865567
 30
0.0
 40
100.0
 41
1.0
 71
     6
 72
     1
  1
D10
  7
STYLE2
 73
     1
 44
1.0
1001
ACAD
1000
MTEXTBEGIN
1070
    73
1070
     1
1070
    44
1040
1.0
1070
    74
1070
     0
1000
MTEXTEND
  0
LEADER
  5
25645
330
747D
100
AcDbEntity
  8
寸法
 48
50.0
100
AcDbLeader
  3
INABA_S40G
 71
     0
 73
     0
 75
     1
 40
100.0
 41
225.0
 76
     3
 10
4647.831298864775
 20
1022.157409609601
 30
0.0
 10
4439.283825680603
 20
692.7540425865567
 30
0.0
 10
4339.283825680603
 20
692.7540425865567
 30
0.0
1001
ACAD
1000
DSTYLE
1002
{
1070
   341
1005
0
1002
}
  0
LEADER
  5
25646
330
747D
100
AcDbEntity
  8
寸法
 48
50.0
100
AcDbLeader
  3
INABA_S40G
 71
     0
 73
     0
 75
     1
 40
100.0
 41
222.7272727272727
 76
     3
 10
4807.952608424596
 20
1022.157409609601
 30
0.0
 10
4474.437235127396
 20
467.3588519122526
 30
0.0
 10
4374.437235127397
 20
467.3588519122526
 30
0.0
1001
ACAD
1000
DSTYLE
1002
{
1070
   341
1005
0
1002
}
  0
MTEXT
  5
25647
102
{ACAD_REACTORS
330
25646
102
}
330
747D
100
AcDbEntity
  8
寸法
 62
     7
 48
50.0
100
AcDbMText
 10
4349.437235127398
 20
542.3588519122526
 30
0.0
 40
100.0
 41
1.0
 71
     6
 72
     1
  1
D13
  7
STYLE2
 73
     1
 44
1.0
1001
ACAD
1000
MTEXTBEGIN
1070
    73
1070
     1
1070
    44
1040
1.0
1070
    74
1070
     0
1000
MTEXTEND
  0
MTEXT
  5
25648
102
{ACAD_REACTORS
330
25649
102
}
330
747D
100
AcDbEntity
  8
寸法
 62
     7
 48
50.0
100
AcDbMText
 10
4576.39004064609
 20
1353.783163131422
 30
0.0
 40
100.0
 41
1.0
 71
     6
 72
     1
  1
\A1;D10@300
  7
STYLE2
 73
     1
 44
1.0
1001
ACAD
1000
MTEXTBEGIN
1070
    73
1070
     1
1070
    44
1040
1.0
1070
    74
1070
     0
1000
MTEXTEND
  0
LEADER
  5
25649
330
747D
100
AcDbEntity
  8
寸法
 48
50.0
100
AcDbLeader
  3
INABA_S40G
 71
     0
 73
     0
 75
     1
 40
100.0
 41
540.3409090909091
 76
     3
 10
4817.952608424597
 20
1549.816427981006
 30
0.0
 10
4689.224812763725
 20
1272.978517305001
 30
0.0
 10
4589.224812763725
 20
1272.978517305001
 30
0.0
213
-12.16522788236671
223
-5.804645826423211
233
0.0
1001
ACAD
1000
DSTYLE
1002
{
1070
   341
1005
0
1002
}
  0
LEADER
  5
2564A
330
747D
100
AcDbEntity
  8
寸法
 48
50.0
100
AcDbLeader
  3
INABA_S40G
 71
     0
 73
     0
 75
     1
 40
130.1136363636363
 41
651.1363636363636
 76
     3
 10
4787.952608424597
 20
1852.157409609603
 30
0.0
 10
4729.034608506315
 20
2027.745866430337
 30
0.0
 10
4629.034608506315
 20
2027.745866430337
 30
0.0
1001
ACAD
1000
DSTYLE
1002
{
1070
   341
1005
0
1002
}
  0
MTEXT
  5
2564B
102
{ACAD_REACTORS
330
2564A
102
}
330
747D
100
AcDbEntity
  8
寸法
 62
     7
 48
50.0
100
AcDbMText
 10
4604.034608506315
 20
2117.802684612156
 30
0.0
 40
100.0
 41
1.0
 71
     6
 72
     1
  1
\A1;金コテ押エ
  7
STYLE2
 73
     1
 44
1.0
1001
ACAD
1000
MTEXTBEGIN
1070
    73
1070
     1
1070
    44
1040
1.0
1070
    74
1070
     0
1000
MTEXTEND
  0
DIMENSION
  5
2564C
330
747D
100
AcDbEntity
  8
寸法
 48
50.0
100
AcDbDimension
  2
*D38
 10
3927.307670388533
 20
872.1574096096016
 30
0.0
 11
3927.307670388533
 21
1362.157409609602
 31
0.0
 70
   160
  1
540
 71
     5
 42
980.0000000000016
  3
INABA_S40G
100
AcDbAlignedDimension
 13
4687.952608424597
 23
1852.157409609603
 33
0.0
 14
4427.952608424599
 24
872.1574096096015
 34
0.0
 50
90.0
100
AcDbRotatedDimension
1001
ACAD
1000
DSTYLE
1002
{
1070
   341
1005
0
1002
}
  0
DIMENSION
  5
2564D
330
747D
100
AcDbEntity
  8
寸法
 48
50.0
100
AcDbDimension
  2
*D39
 10
4349.927216259022
 20
872.1574096096016
 30
0.0
 11
4349.927216259022
 21
1022.157409609601
 31
0.0
 70
   160
  1
150
 71
     5
 42
299.9999999999994
  3
INABA_S40G
100
AcDbAlignedDimension
 13
4527.952608424596
 23
1172.157409609601
 33
0.0
 14
4427.952608424599
 24
872.1574096096015
 34
0.0
 50
90.0
100
AcDbRotatedDimension
1001
ACAD
1000
DSTYLE
1002
{
1070
   341
1005
0
1002
}
  0
LWPOLYLINE
  5
2564E
330
747D
100
AcDbEntity
  8
部品1
 48
50.0
100
AcDbPolyline
 90
        2
 70
     0
 43
10.0
 10
4170.277731133401
 20
1552.157409609604
 10
4687.952608424597
 20
1552.157409609604
  0
TEXT
  5
2564F
330
747D
100
AcDbEntity
  8
部品1
 48
50.0
100
AcDbText
 10
4170.277731133401
 20
1566.206149963671
 30
0.0
 40
100.0
  1
▽G.L
  7
STYLE2
100
AcDbText
  0
LEADER
  5
25650
330
747D
100
AcDbEntity
  8
寸法
 48
50.0
100
AcDbLeader
  3
INABA_S40G
 73
     0
 75
     1
 40
132.9545454545455
 41
1116.477272727273
 76
     3
 10
6977.251749896089
 20
1939.107409609603
 30
0.0
 10
6869.221659464916
 20
2397.931878005018
 30
0.0
 10
6769.221659464915
 20
2397.931878005018
 30
0.0
340
25651
1001
ACAD
1000
DSTYLE
1002
{
1070
   341
1005
0
1002
}
  0
MTEXT
  5
25651
102
{ACAD_REACTORS
330
25650
102
}
330
747D
100
AcDbEntity
  8
寸法
 62
     7
 48
50.0
100
AcDbMText
 10
6729.221659464915
 20
2504.409150732291
 30
0.0
 40
100.0
 41
1.0
 71
     6
 72
     1
  1
\A1;アンカープレート L
  7
STYLE2
 73
     1
 44
1.0
1001
ACAD
1000
MTEXTBEGIN
1070
    73
1070
     1
1070
    44
1040
1.0
1070
    74
1070
     0
1000
MTEXTEND
  0
MTEXT
  5
25652
102
{ACAD_REACTORS
330
25653
102
}
330
747D
100
AcDbEntity
  8
部品1
 62
     7
 48
50.0
100
AcDbMText
 10
7340.194213787786
 20
2958.987979424663
 30
0.0
 40
100.0
 41
1.0
 71
     4
 72
     1
  1
\A1;ナット(市販品)
  7
STYLE2
 73
     1
 44
1.0
1001
ACAD
1000
MTEXTBEGIN
1070
    73
1070
     1
1070
    44
1040
1.0
1070
    74
1070
     0
1000
MTEXTEND
  0
LEADER
  5
25653
330
747D
100
AcDbEntity
  8
寸法
 48
50.0
100
AcDbLeader
  3
INABA_S40G
 73
     0
 74
     0
 75
     1
 40
127.8409090909091
 41
850.0
 76
     3
 10
7109.75174989609
 20
2350.751510996031
 30
0.0
 10
7200.194213787786
 20
2855.067524879208
 30
0.0
 10
7300.194213787786
 20
2855.067524879208
 30
0.0
340
25652
1001
ACAD
1000
DSTYLE
1002
{
1070
   341
1005
0
1002
}
  0
MTEXT
  5
25654
102
{ACAD_REACTORS
330
25655
102
}
330
747D
100
AcDbEntity
  8
部品1
 62
     7
 48
50.0
100
AcDbMText
 10
7379.591237857141
 20
2727.776625968678
 30
0.0
 40
100.0
 41
1.0
 71
     4
 72
     1
  1
\A1;ワッシャー(市販品)
  7
STYLE2
 73
     1
 44
1.0
1001
ACAD
1000
MTEXTBEGIN
1070
    73
1070
     1
1070
    44
1040
1.0
1070
    74
1070
     0
1000
MTEXTEND
  0
LEADER
  5
25655
330
747D
100
AcDbEntity
  8
寸法
 48
50.0
100
AcDbLeader
  3
INABA_S40G
 73
     0
 74
     0
 75
     1
 40
127.8409090909091
 41
1133.522727272727
 76
     3
 10
7139.751749896089
 20
2188.561520164952
 30
0.0
 10
7239.59123785714
 20
2623.856171423224
 30
0.0
 10
7339.591237857141
 20
2623.856171423224
 30
0.0
340
25654
1001
ACAD
1000
DSTYLE
1002
{
1070
   341
1005
0
1002
}
  0
DIMENSION
  5
25656
330
747D
100
AcDbEntity
  8
寸法
 48
50.0
100
AcDbDimension
  2
*D40
 10
4687.952608424597
 20
2376.742169505078
 30
0.0
 11
4807.952608424597
 21
2376.742169505078
 31
0.0
 70
   160
  1
120\P(195)
 71
     5
 42
240.0
  3
INABA_S40G
100
AcDbAlignedDimension
 13
4927.952608424597
 23
1852.157409609603
 33
0.0
 14
4687.952608424597
 24
1852.157409609603
 34
0.0
100
AcDbRotatedDimension
1001
ACAD
1000
DSTYLE
1002
{
1070
   341
1005
0
1002
}
  0
LINE
  5
25657
330
747D
100
AcDbEntity
  8
部品1
100
AcDbLine
 10
3569.151916872819
 20
3503.371934330658
 30
0.0
 11
3569.151916872819
 21
244.3024349759703
 31
0.0
  0
MTEXT
  5
25658
102
{ACAD_REACTORS
330
25659
102
}
330
747D
100
AcDbEntity
  8
寸法
 62
     7
 48
50.0
100
AcDbMText
 10
6695.917901704468
 20
2955.264490616685
 30
0.0
 40
100.0
 41
1.0
 71
     6
 72
     1
  1
\A1;φ70スリーブ
  7
STYLE2
 73
     1
 44
1.0
1001
ACAD
1000
MTEXTBEGIN
1070
    73
1070
     1
1070
    44
1040
1.0
1070
    74
1070
     0
1000
MTEXTEND
  0
LEADER
  5
25659
330
747D
100
AcDbEntity
  8
寸法
 48
50.0
100
AcDbLeader
  3
INABA_S40G
 73
     0
 75
     1
 40
141.4772727272727
 41
760.7954545454546
 76
     3
 10
7050.672687568651
 20
1789.052001307451
 30
0.0
 10
6835.917901704468
 20
2844.525854253049
 30
0.0
 10
6735.917901704468
 20
2844.525854253049
 30
0.0
340
25658
1001
ACAD
1000
DSTYLE
1002
{
1070
   341
1005
0
1002
}
  0
LINE
  5
2565A
330
747D
100
AcDbEntity
  8
部品1
100
AcDbLine
 10
10465.62661297084
 20
3503.371934330659
 30
0.0
 11
3569.151916872814
 21
3503.371934330658
 31
0.0
  0
LINE
  5
2565B
330
747D
100
AcDbEntity
  8
部品1
100
AcDbLine
 10
10465.62661297084
 20
3203.371934330657
 30
0.0
 11
3569.151916872814
 21
3203.371934330657
 31
0.0
  0
LINE
  5
2565C
330
747D
100
AcDbEntity
  8
部品1
100
AcDbLine
 10
3569.151916872814
 20
244.3024349759703
 30
0.0
 11
10465.62661297084
 21
244.3024349759703
 31
0.0
  0
LINE
  5
2565D
330
747D
100
AcDbEntity
  8
部品1
100
AcDbLine
 10
8975.115685151706
 20
1277.533765042911
 30
0.0
 11
9875.115685151708
 21
1277.533765042915
 31
0.0
  0
LINE
  5
2565E
330
747D
100
AcDbEntity
  8
部品1
100
AcDbLine
 10
8975.115685151706
 20
1437.533765042914
 30
0.0
 11
9875.115685151708
 21
1437.533765042918
 31
0.0
  0
LWPOLYLINE
  5
2565F
330
747D
100
AcDbEntity
  8
部品1
 48
50.0
100
AcDbPolyline
 90
        2
 70
     0
 43
15.0
 10
8644.351607526223
 20
1552.157409609602
 10
10145.71698644075
 20
1552.157409609602
  0
LINE
  5
25660
330
747D
100
AcDbEntity
  8
細線
100
AcDbLine
 10
9116.411178275866
 20
1437.533765042914
 30
0.0
 11
9231.034822842556
 21
1552.157409609601
 31
0.0
  0
LINE
  5
25661
330
747D
100
AcDbEntity
  8
部品1
100
AcDbLine
 10
9125.115685151708
 20
1852.157409609603
 30
0.0
 11
9725.115685151706
 21
1852.157409609603
 31
0.0
  0
LINE
  5
25662
330
747D
100
AcDbEntity
  8
細線
100
AcDbLine
 10
9304.767741940896
 20
1552.157409609602
 30
0.0
 11
9125.115685151708
 21
1731.809466398793
 31
0.0
  0
LINE
  5
25663
330
747D
100
AcDbEntity
  8
細線
100
AcDbLine
 10
9368.407352247684
 20
1552.157409609602
 30
0.0
 11
9125.115685151708
 21
1795.449076705581
 31
0.0
  0
HATCH
  5
257A5
330
747D
100
AcDbEntity
  8
細線
 48
50.0
100
AcDbHatch
 10
0.0
 20
0.0
 30
0.0
210
0.0
220
0.0
230
1.0
  2
LINE
 70
     0
 71
     1
 91
        6
 92
        7
 72
     0
 73
     1
 93
        4
 10
7218.600000000009
 20
8726.957947811552
 10
7018.600000000009
 20
8726.957947811552
 10
7018.600000000009
 20
8606.957947811553
 10
7218.600000000009
 20
8606.957947811553
 97
        4
330
215F2
330
218BD
330
218A3
330
218BE
 92
        7
 72
     0
 73
     1
 93
        4
 10
6128.600000000002
 20
7296.95794781155
 10
6008.600000000001
 20
7296.957947811549
 10
6008.600000000001
 20
7096.957947811549
 10
6128.600000000002
 20
7096.95794781155
 97
        4
330
218AB
330
2160A
330
2175A
330
21609
 92
        7
 72
     0
 73
     1
 93
        4
 10
7218.600000000002
 20
5786.95794781156
 10
7018.599999999999
 20
5786.95794781156
 10
7018.600000000002
 20
5591.957947811547
 10
7218.600000000002
 20
5591.957947811549
 97
        4
330
2166C
330
2175D
330
2166D
330
2179D
 92
        7
 72
     0
 73
     1
 93
        4
 10
9428.600000000013
 20
5786.957947811568
 10
9228.600000000017
 20
5786.957947811568
 10
9228.600000000017
 20
5666.957947811559
 10
9428.600000000017
 20
5666.957947811563
 97
        4
330
215EC
330
21943
330
215F0
330
21945
 92
        7
 72
     0
 73
     1
 93
        4
 10
10438.6
 20
7296.957947811553
 10
10318.6
 20
7296.95794781155
 10
10318.6
 20
7096.95794781155
 10
10438.6
 20
7096.957947811553
 97
        4
330
21965
330
218C8
330
21952
330
218C7
 92
        7
 72
     0
 73
     1
 93
        4
 10
9428.600000000008
 20
8726.957947811552
 10
9228.600000000007
 20
8726.957947811552
 10
9228.600000000007
 20
8606.957947811553
 10
9428.600000000006
 20
8606.957947811553
 97
        4
330
215F2
330
2195E
330
215EE
330
21962
 75
     0
 76
     1
 52
45.0
 41
10.0
 77
     0
 78
     1
 53
45.0
 43
0.0
 44
0.0
 45
-22.45064030267288
 46
22.45064030267288
 79
     0
 47
7.030191325663882
 98
        6
 10
7062.717178897044
 20
8623.546763588915
 10
6099.166579413097
 20
7147.206537237646
 10
7126.016052944469
 20
5727.107872900852
 10
9292.24665907229
 20
5741.168299244257
 10
10389.42834584867
 20
7182.357531416585
 10
9264.113744306028
 20
8651.667520702963
  0
ENDSEC
  0
SECTION
  2
OBJECTS
  0
DICTIONARY
  5
7471
330
0
100
AcDbDictionary
281
     1
  3
ACAD_COLOR
350
173D2
  3
ACAD_GROUP
350
7472
  3
ACAD_LAYOUT
350
173D3
  3
ACAD_MATERIAL
350
173D1
  3
ACAD_MLINESTYLE
350
7473
  3
ACAD_PLOTSETTINGS
350
173D4
  3
ACAD_PLOTSTYLENAME
350
173CF
  3
ACDBHEADERROUNDTRIPXREC
350
2596C
  3
AcDbVariableDictionary
350
257B1
  3
CONTENTDICTIONARY
350
E71C
  3
DRAWINGVARIABLESDICT
350
F3B9
  0
DICTIONARY
  5
1758F
330
7467
100
AcDbDictionary
280
     1
281
     1
  3
ACAD_LAYERSTATES
360
17590
  0
DICTIONARY
  5
173D2
102
{ACAD_REACTORS
330
7471
102
}
330
7471
100
AcDbDictionary
281
     1
  0
DICTIONARY
  5
7472
102
{ACAD_REACTORS
330
7471
102
}
330
7471
100
AcDbDictionary
281
     1
  3
*A1
350
1D2A9
  0
DICTIONARY
  5
173D3
102
{ACAD_REACTORS
330
7471
102
}
330
7471
100
AcDbDictionary
281
     1
  3
Model
350
173D5
  3
レイアウト1
350
173D6
  0
DICTIONARY
  5
173D1
102
{ACAD_REACTORS
330
7471
102
}
330
7471
100
AcDbDictionary
281
     1
  0
DICTIONARY
  5
7473
102
{ACAD_REACTORS
330
7471
102
}
330
7471
100
AcDbDictionary
281
     1
  3
STANDARD
350
7480
  0
DICTIONARY
  5
173D4
102
{ACAD_REACTORS
330
7471
102
}
330
7471
100
AcDbDictionary
281
     1
  0
ACDBDICTIONARYWDFLT
  5
173CF
102
{ACAD_REACTORS
330
7471
102
}
330
7471
100
AcDbDictionary
281
     1
  3
Normal
350
173D0
100
AcDbDictionaryWithDefault
340
173D0
  0
DICTIONARY
  5
2596C
102
{ACAD_REACTORS
330
7471
102
}
330
7471
100
AcDbDictionary
281
     1
  3
COLORDICT
350
2596E
  3
MATERIALDICT
350
2596D
  0
DICTIONARY
  5
257B1
102
{ACAD_REACTORS
330
7471
102
}
330
7471
100
AcDbDictionary
281
     1
  3
DIMASSOC
350
257B2
  3
PROJECTNAME
350
257B3
  0
DICTIONARY
  5
E71C
102
{ACAD_REACTORS
330
7471
102
}
330
7471
100
AcDbDictionary
281
     1
  0
DICTIONARY
  5
F3B9
102
{ACAD_REACTORS
330
7471
102
}
330
7471
100
AcDbDictionary
281
     1
1001
DRAWINGVARIABLESXDATA
1000
POLARMODE
1000
1
  0
DICTIONARY
  5
17590
102
{ACAD_REACTORS
330
1758F
102
}
330
1758F
100
AcDbDictionary
281
     1
  0
GROUP
  5
1D2A9
102
{ACAD_REACTORS
330
7472
102
}
330
7472
100
AcDbGroup
300

 70
     1
 71
     1
  0
LAYOUT
  5
173D5
102
{ACAD_XDICTIONARY
360
2596F
102
}
102
{ACAD_REACTORS
330
173D3
102
}
330
173D3
100
AcDbPlotSettings
  1

  2
クセロPDF
  4
A3
  6

 40
3.174999999999999
 41
3.174999999999999
 42
3.174987999999999
 43
3.174987999999999
 44
419.946655
 45
296.925995
 46
0.0
 47
0.0
 48
0.0
 49
0.0
140
0.0
141
0.0
142
1.0
143
40.88431155294937
 70
 11952
 72
     1
 73
     0
 74
     2
  7
inaba.ctb
 75
     0
147
0.0244592598484849
148
0.0
149
0.0
100
AcDbLayout
  1
Model
 70
     1
 71
     0
 10
0.0
 20
0.0
 11
12.0
 21
9.0
 12
0.0
 22
0.0
 32
0.0
 14
0.0
 24
0.0
 34
0.0
 15
0.0
 25
0.0
 35
0.0
146
0.0
 13
0.0
 23
0.0
 33
0.0
 16
1.0
 26
0.0
 36
0.0
 17
0.0
 27
1.0
 37
0.0
 76
     0
330
747D
  0
LAYOUT
  5
173D6
102
{ACAD_XDICTIONARY
360
25971
102
}
102
{ACAD_REACTORS
330
173D3
102
}
330
173D3
100
AcDbPlotSettings
  1

  2
Microsoft Office Document Image Writer
  4

  6

 40
0.0
 41
0.0
 42
0.0
 43
0.0
 44
0.0
 45
0.0
 46
0.0
 47
0.0
 48
0.0
 49
0.0
140
0.0
141
0.0
142
1.0
143
1.0
 70
   688
 72
     0
 73
     0
 74
     5
  7

 75
    16
147
1.0
148
0.0
149
0.0
100
AcDbLayout
  1
レイアウト1
 70
     0
 71
     1
 10
0.0
 20
0.0
 11
420.0
 21
297.0
 12
0.0
 22
0.0
 32
0.0
 14
1.000000000000000E+20
 24
1.000000000000000E+20
 34
1.000000000000000E+20
 15
-1.000000000000000E+20
 25
-1.000000000000000E+20
 35
-1.000000000000000E+20
146
0.0
 13
0.0
 23
0.0
 33
0.0
 16
1.0
 26
0.0
 36
0.0
 17
0.0
 27
1.0
 37
0.0
 76
     0
330
747A
  0
MLINESTYLE
  5
7480
102
{ACAD_REACTORS
330
7473
102
}
330
7473
100
AcDbMlineStyle
  2
STANDARD
 70
     0
  3

 62
     0
 51
90.0
 52
90.0
 71
     2
 49
0.5
 62
   256
  6
BYLAYER
 49
-0.5
 62
   256
  6
BYLAYER
  0
ACDBPLACEHOLDER
  5
173D0
102
{ACAD_REACTORS
330
173CF
102
}
330
173CF
  0
XRECORD
  5
2596E
102
{ACAD_REACTORS
330
2596C
102
}
330
2596C
100
AcDbXrecord
280
     1
340
173D2
  0
XRECORD
  5
2596D
102
{ACAD_REACTORS
330
2596C
102
}
330
2596C
100
AcDbXrecord
280
     1
340
173D1
  0
DICTIONARYVAR
  5
257B2
102
{ACAD_REACTORS
330
257B1
102
}
330
257B1
100
DictionaryVariables
280
     0
  1
1
  0
DICTIONARYVAR
  5
257B3
102
{ACAD_REACTORS
330
257B1
102
}
330
257B1
100
DictionaryVariables
280
     0
  1

  0
DICTIONARY
  5
2596F
330
173D5
100
AcDbDictionary
280
     1
281
     1
  3
ACAD_XREC_ROUNDTRIP
360
25970
  0
DICTIONARY
  5
25971
330
173D6
100
AcDbDictionary
280
     1
281
     1
  3
ACAD_XREC_ROUNDTRIP
360
25972
  0
XRECORD
  5
25970
102
{ACAD_REACTORS
330
2596F
102
}
330
2596F
100
AcDbXrecord
280
     1
102
SHADEPLOT
 70
     1
102
SHADEPLOTRESLEVEL
 70
     2
102
SHADEPLOTCUSTOMDPI
 70
   300
  0
XRECORD
  5
25972
102
{ACAD_REACTORS
330
25971
102
}
330
25971
100
AcDbXrecord
280
     1
102
SHADEPLOT
 70
     0
102
SHADEPLOTRESLEVEL
 70
     2
102
SHADEPLOTCUSTOMDPI
 70
   300
  0
ENDSEC
  0
EOF
