  0
SECTION
  2
HEADER
  9
$ACADVER
  1
AC1015
  9
$ACADMAINTVER
 70
    20
  9
$DWGCODEPAGE
  3
ANSI_932
  9
$INSBASE
 10
0.0
 20
0.0
 30
0.0
  9
$EXTMIN
 10
139.9999999999995
 20
-0.0000000000000909
 30
0.0
  9
$EXTMAX
 10
16307.2
 20
11409.6
 30
0.0
  9
$LIMMIN
 10
0.0
 20
0.0
  9
$LIMMAX
 10
16800.0
 20
11880.0
  9
$ORTHOMODE
 70
     0
  9
$REGENMODE
 70
     1
  9
$FILLMODE
 70
     1
  9
$QTEXTMODE
 70
     0
  9
$MIRRTEXT
 70
     1
  9
$LTSCALE
 40
20.0
  9
$ATTMODE
 70
     1
  9
$TEXTSIZE
 40
100.0
  9
$TRACEWID
 40
1.0
  9
$TEXTSTYLE
  7
STYLE2
  9
$CLAYER
  8
寸法
  9
$CELTYPE
  6
BYLAYER
  9
$CECOLOR
 62
   256
  9
$CELTSCALE
 40
50.0
  9
$DISPSILH
 70
     0
  9
$DIMSCALE
 40
40.0
  9
$DIMASZ
 40
2.5
  9
$DIMEXO
 40
0.5
  9
$DIMDLI
 40
7.0
  9
$DIMRND
 40
0.0
  9
$DIMDLE
 40
0.0
  9
$DIMEXE
 40
1.5
  9
$DIMTP
 40
0.0
  9
$DIMTM
 40
0.0
  9
$DIMTXT
 40
3.0
  9
$DIMCEN
 40
0.0
  9
$DIMTSZ
 40
0.0
  9
$DIMTOL
 70
     0
  9
$DIMLIM
 70
     0
  9
$DIMTIH
 70
     0
  9
$DIMTOH
 70
     0
  9
$DIMSE1
 70
     0
  9
$DIMSE2
 70
     0
  9
$DIMTAD
 70
     3
  9
$DIMZIN
 70
     8
  9
$DIMBLK
  1

  9
$DIMASO
 70
     1
  9
$DIMSHO
 70
     1
  9
$DIMPOST
  1

  9
$DIMAPOST
  1

  9
$DIMALT
 70
     0
  9
$DIMALTD
 70
     2
  9
$DIMALTF
 40
0.0394
  9
$DIMLFAC
 40
1.0
  9
$DIMTOFL
 70
     1
  9
$DIMTVP
 40
0.0
  9
$DIMTIX
 70
     1
  9
$DIMSOXD
 70
     0
  9
$DIMSAH
 70
     1
  9
$DIMBLK1
  1
DOTSMALL
  9
$DIMBLK2
  1
DOTSMALL
  9
$DIMSTYLE
  2
INABA_S40G
  9
$DIMCLRD
 70
     0
  9
$DIMCLRE
 70
     0
  9
$DIMCLRT
 70
     7
  9
$DIMTFAC
 40
1.0
  9
$DIMGAP
 40
1.0
  9
$DIMJUST
 70
     0
  9
$DIMSD1
 70
     0
  9
$DIMSD2
 70
     0
  9
$DIMTOLJ
 70
     1
  9
$DIMTZIN
 70
     0
  9
$DIMALTZ
 70
     0
  9
$DIMALTTZ
 70
     0
  9
$DIMUPT
 70
     0
  9
$DIMDEC
 70
     1
  9
$DIMTDEC
 70
     4
  9
$DIMALTU
 70
     2
  9
$DIMALTTD
 70
     2
  9
$DIMTXSTY
  7
STYLE1
  9
$DIMAUNIT
 70
     0
  9
$DIMADEC
 70
     0
  9
$DIMALTRND
 40
0.0
  9
$DIMAZIN
 70
     0
  9
$DIMDSEP
 70
    46
  9
$DIMATFIT
 70
     3
  9
$DIMFRAC
 70
     0
  9
$DIMLDRBLK
  1

  9
$DIMLUNIT
 70
     2
  9
$DIMLWD
 70
    -2
  9
$DIMLWE
 70
    -2
  9
$DIMTMOVE
 70
     2
  9
$LUNITS
 70
     2
  9
$LUPREC
 70
     1
  9
$SKETCHINC
 40
1.0
  9
$FILLETRAD
 40
3.0
  9
$AUNITS
 70
     0
  9
$AUPREC
 70
     0
  9
$MENU
  1
acad
  9
$ELEVATION
 40
0.0
  9
$PELEVATION
 40
0.0
  9
$THICKNESS
 40
0.0
  9
$LIMCHECK
 70
     0
  9
$CHAMFERA
 40
0.0
  9
$CHAMFERB
 40
0.0
  9
$CHAMFERC
 40
0.0
  9
$CHAMFERD
 40
0.0
  9
$SKPOLY
 70
     0
  9
$TDCREATE
 40
2451368.612993866
  9
$TDUCREATE
 40
2451368.237993866
  9
$TDUPDATE
 40
2455569.628325729
  9
$TDUUPDATE
 40
2455569.253325729
  9
$TDINDWG
 40
0.9676305671
  9
$TDUSRTIMER
 40
0.9676305671
  9
$USRTIMER
 70
     1
  9
$ANGBASE
 50
0.0
  9
$ANGDIR
 70
     0
  9
$PDMODE
 70
     3
  9
$PDSIZE
 40
2.0
  9
$PLINEWID
 40
0.0
  9
$SPLFRAME
 70
     0
  9
$SPLINETYPE
 70
     6
  9
$SPLINESEGS
 70
     8
  9
$HANDSEED
  5
1B5F0
  9
$SURFTAB1
 70
     6
  9
$SURFTAB2
 70
     6
  9
$SURFTYPE
 70
     6
  9
$SURFU
 70
     6
  9
$SURFV
 70
     6
  9
$UCSBASE
  2

  9
$UCSNAME
  2

  9
$UCSORG
 10
0.0
 20
0.0
 30
0.0
  9
$UCSXDIR
 10
1.0
 20
0.0
 30
0.0
  9
$UCSYDIR
 10
0.0
 20
1.0
 30
0.0
  9
$UCSORTHOREF
  2

  9
$UCSORTHOVIEW
 70
     0
  9
$UCSORGTOP
 10
0.0
 20
0.0
 30
0.0
  9
$UCSORGBOTTOM
 10
0.0
 20
0.0
 30
0.0
  9
$UCSORGLEFT
 10
0.0
 20
0.0
 30
0.0
  9
$UCSORGRIGHT
 10
0.0
 20
0.0
 30
0.0
  9
$UCSORGFRONT
 10
0.0
 20
0.0
 30
0.0
  9
$UCSORGBACK
 10
0.0
 20
0.0
 30
0.0
  9
$PUCSBASE
  2

  9
$PUCSNAME
  2

  9
$PUCSORG
 10
0.0
 20
0.0
 30
0.0
  9
$PUCSXDIR
 10
1.0
 20
0.0
 30
0.0
  9
$PUCSYDIR
 10
0.0
 20
1.0
 30
0.0
  9
$PUCSORTHOREF
  2

  9
$PUCSORTHOVIEW
 70
     0
  9
$PUCSORGTOP
 10
0.0
 20
0.0
 30
0.0
  9
$PUCSORGBOTTOM
 10
0.0
 20
0.0
 30
0.0
  9
$PUCSORGLEFT
 10
0.0
 20
0.0
 30
0.0
  9
$PUCSORGRIGHT
 10
0.0
 20
0.0
 30
0.0
  9
$PUCSORGFRONT
 10
0.0
 20
0.0
 30
0.0
  9
$PUCSORGBACK
 10
0.0
 20
0.0
 30
0.0
  9
$USERI1
 70
     0
  9
$USERI2
 70
     0
  9
$USERI3
 70
     0
  9
$USERI4
 70
     0
  9
$USERI5
 70
     0
  9
$USERR1
 40
0.0
  9
$USERR2
 40
0.0
  9
$USERR3
 40
0.0
  9
$USERR4
 40
0.0
  9
$USERR5
 40
0.0
  9
$WORLDVIEW
 70
     1
  9
$SHADEDGE
 70
     3
  9
$SHADEDIF
 70
    70
  9
$TILEMODE
 70
     1
  9
$MAXACTVP
 70
    16
  9
$PINSBASE
 10
0.0
 20
0.0
 30
0.0
  9
$PLIMCHECK
 70
     0
  9
$PEXTMIN
 10
1.000000000000000E+20
 20
1.000000000000000E+20
 30
1.000000000000000E+20
  9
$PEXTMAX
 10
-1.000000000000000E+20
 20
-1.000000000000000E+20
 30
-1.000000000000000E+20
  9
$PLIMMIN
 10
0.0
 20
0.0
  9
$PLIMMAX
 10
420.0
 20
297.0
  9
$UNITMODE
 70
     0
  9
$VISRETAIN
 70
     0
  9
$PLINEGEN
 70
     0
  9
$PSLTSCALE
 70
     0
  9
$TREEDEPTH
 70
  3020
  9
$CMLSTYLE
  2
STANDARD
  9
$CMLJUST
 70
     0
  9
$CMLSCALE
 40
1.0
  9
$PROXYGRAPHICS
 70
     1
  9
$MEASUREMENT
 70
     1
  9
$CELWEIGHT
370
    -1
  9
$ENDCAPS
280
     0
  9
$JOINSTYLE
280
     0
  9
$LWDISPLAY
290
     0
  9
$INSUNITS
 70
     0
  9
$HYPERLINKBASE
  1

  9
$STYLESHEET
  1

  9
$XEDIT
290
     1
  9
$CEPSNTYPE
380
     0
  9
$PSTYLEMODE
290
     1
  9
$FINGERPRINTGUID
  2
{6BF1443D-6023-434B-B14C-413E0641FC2A}
  9
$VERSIONGUID
  2
{E4C7CC8C-4E1B-438B-A52F-5B8151332B20}
  9
$EXTNAMES
290
     1
  9
$PSVPSCALE
 40
0.0
  9
$OLESTARTUP
290
     0
  0
ENDSEC
  0
SECTION
  2
CLASSES
  0
CLASS
  1
DICTIONARYVAR
  2
AcDbDictionaryVar
  3
ObjectDBX Classes
 90
        0
280
     0
281
     0
  0
CLASS
  1
ACDBDICTIONARYWDFLT
  2
AcDbDictionaryWithDefault
  3
ObjectDBX Classes
 90
        0
280
     0
281
     0
  0
CLASS
  1
ACDBPLACEHOLDER
  2
AcDbPlaceHolder
  3
ObjectDBX Classes
 90
        0
280
     0
281
     0
  0
CLASS
  1
LAYOUT
  2
AcDbLayout
  3
ObjectDBX Classes
 90
        0
280
     0
281
     0
  0
ENDSEC
  0
SECTION
  2
TABLES
  0
TABLE
  2
VPORT
  5
746D
330
0
100
AcDbSymbolTable
 70
     2
  0
VPORT
  5
1B5E8
330
746D
100
AcDbSymbolTableRecord
100
AcDbViewportTableRecord
  2
*Active
 70
     0
 10
0.0
 20
0.0
 11
1.0
 21
1.0
 12
8223.761025238502
 22
5958.735805892718
 13
0.0
 23
0.0
 14
10.0
 24
10.0
 15
10.0
 25
10.0
 16
0.0
 26
0.0
 36
1.0
 17
0.0
 27
0.0
 37
0.0
 40
12025.84116348629
 41
1.627450980392156
 42
50.0
 43
0.0
 44
0.0
 50
0.0
 51
0.0
 71
     0
 72
     0
 73
     1
 74
     0
 75
     0
 76
     0
 77
     0
 78
     0
281
     0
 65
     1
110
0.0
120
0.0
130
0.0
111
1.0
121
0.0
131
0.0
112
0.0
122
1.0
132
0.0
 79
     0
146
0.0
  0
ENDTAB
  0
TABLE
  2
LTYPE
  5
746A
330
0
100
AcDbSymbolTable
 70
     3
  0
LTYPE
  5
7477
330
746A
100
AcDbSymbolTableRecord
100
AcDbLinetypeTableRecord
  2
BYBLOCK
 70
     0
  3

 72
    65
 73
     0
 40
0.0
  0
LTYPE
  5
7478
330
746A
100
AcDbSymbolTableRecord
100
AcDbLinetypeTableRecord
  2
BYLAYER
 70
     0
  3

 72
    65
 73
     0
 40
0.0
  0
LTYPE
  5
7479
330
746A
100
AcDbSymbolTableRecord
100
AcDbLinetypeTableRecord
  2
CONTINUOUS
 70
     0
  3
Solid line
 72
    65
 73
     0
 40
0.0
  0
LTYPE
  5
781A
330
746A
100
AcDbSymbolTableRecord
100
AcDbLinetypeTableRecord
  2
HIDDEN
 70
     0
  3
__ __ __ __ __ __ __ __ __ __ __ __ __ __ __ __
 72
    65
 73
     2
 40
0.375
 49
0.25
 74
     0
 49
-0.125
 74
     0
  0
LTYPE
  5
781B
330
746A
100
AcDbSymbolTableRecord
100
AcDbLinetypeTableRecord
  2
PHANTOM
 70
     0
  3
______  __  __  ______  __  __  ______  __  __ 
 72
    65
 73
     6
 40
2.5
 49
1.25
 74
     0
 49
-0.25
 74
     0
 49
0.25
 74
     0
 49
-0.25
 74
     0
 49
0.25
 74
     0
 49
-0.25
 74
     0
  0
ENDTAB
  0
TABLE
  2
LAYER
  5
7467
102
{ACAD_XDICTIONARY
360
197CC
102
}
330
0
100
AcDbSymbolTable
 70
    10
  0
LAYER
  5
7474
330
7467
100
AcDbSymbolTableRecord
100
AcDbLayerTableRecord
  2
0
 70
     0
 62
     7
  6
CONTINUOUS
370
    -3
390
192FF
  0
LAYER
  5
DEB3
330
7467
100
AcDbSymbolTableRecord
100
AcDbLayerTableRecord
  2
寸法
 70
     0
 62
     4
  6
CONTINUOUS
370
    -3
390
192FF
  0
LAYER
  5
DEB4
330
7467
100
AcDbSymbolTableRecord
100
AcDbLayerTableRecord
  2
部品1
 70
     0
 62
     7
  6
CONTINUOUS
370
    -3
390
192FF
  0
LAYER
  5
DEB5
330
7467
100
AcDbSymbolTableRecord
100
AcDbLayerTableRecord
  2
補助
 70
     0
 62
    -1
  6
CONTINUOUS
370
    -3
390
192FF
  0
LAYER
  5
DEB6
330
7467
100
AcDbSymbolTableRecord
100
AcDbLayerTableRecord
  2
文字
 70
     0
 62
     7
  6
CONTINUOUS
370
    -3
390
192FF
  0
LAYER
  5
F255
330
7467
100
AcDbSymbolTableRecord
100
AcDbLayerTableRecord
  2
DEFPOINTS
 70
     0
 62
     7
  6
CONTINUOUS
290
     0
370
    -3
390
192FF
  0
LAYER
  5
10B54
330
7467
100
AcDbSymbolTableRecord
100
AcDbLayerTableRecord
  2
仕様書枠
 70
     0
 62
   230
  6
CONTINUOUS
370
    -3
390
192FF
  0
LAYER
  5
11729
330
7467
100
AcDbSymbolTableRecord
100
AcDbLayerTableRecord
  2
Ｇ．Ｌ
 70
     0
 62
    30
  6
CONTINUOUS
370
    -3
390
192FF
  0
LAYER
  5
1173F
330
7467
100
AcDbSymbolTableRecord
100
AcDbLayerTableRecord
  2
細線
 70
     0
 62
     5
  6
CONTINUOUS
370
    -3
390
192FF
  0
LAYER
  5
142E2
330
7467
100
AcDbSymbolTableRecord
100
AcDbLayerTableRecord
  2
破線
 70
     0
 62
     2
  6
HIDDEN
370
    -3
390
192FF
  0
ENDTAB
  0
TABLE
  2
STYLE
  5
7468
330
0
100
AcDbSymbolTable
 70
     4
  0
STYLE
  5
7475
330
7468
100
AcDbSymbolTableRecord
100
AcDbTextStyleTableRecord
  2
STANDARD
 70
     0
 40
0.0
 41
1.0
 50
0.0
 71
     0
 42
4.0
  3
txt
  4
C:\AutoCAD LT\bigfont.shx
  0
STYLE
  5
763C
330
7468
100
AcDbSymbolTableRecord
100
AcDbTextStyleTableRecord
  2
MSMINCHO
 70
     0
 40
0.0
 41
1.0
 50
0.0
 71
     0
 42
1.199999999999999
  3
C:\AutoCAD LT\msminch2.TTF
  4

  0
STYLE
  5
F706
330
7468
100
AcDbSymbolTableRecord
100
AcDbTextStyleTableRecord
  2
STYLE1
 70
     0
 40
0.0
 41
1.0
 50
0.0
 71
     0
 42
4.0
  3
isocp.shx
  4
bigfont.shx
  0
STYLE
  5
103BF
330
7468
100
AcDbSymbolTableRecord
100
AcDbTextStyleTableRecord
  2
STYLE2
 70
     0
 40
0.0
 41
1.0
 50
0.0
 71
     0
 42
100.0
  3
MS PGothic.ttf
  4

1001
ACAD
1000
MS PGothic
1071
    32818
  0
ENDTAB
  0
TABLE
  2
VIEW
  5
746B
330
0
100
AcDbSymbolTable
 70
     0
  0
ENDTAB
  0
TABLE
  2
UCS
  5
746C
330
0
100
AcDbSymbolTable
 70
     0
  0
ENDTAB
  0
TABLE
  2
APPID
  5
746E
330
0
100
AcDbSymbolTable
 70
     6
  0
APPID
  5
7476
330
746E
100
AcDbSymbolTableRecord
100
AcDbRegAppTableRecord
  2
ACAD
 70
     0
  0
APPID
  5
DEA9
330
746E
100
AcDbSymbolTableRecord
100
AcDbRegAppTableRecord
  2
CONTENTBLOCKICON
 70
     0
  0
APPID
  5
DEAA
330
746E
100
AcDbSymbolTableRecord
100
AcDbRegAppTableRecord
  2
CONTENTBLOCKDESCRIPTION
 70
     0
  0
APPID
  5
E71D
330
746E
100
AcDbSymbolTableRecord
100
AcDbRegAppTableRecord
  2
CONTENTTABDATA
 70
     0
  0
APPID
  5
E71E
330
746E
100
AcDbSymbolTableRecord
100
AcDbRegAppTableRecord
  2
CONTENTCURRENTTAB
 70
     0
  0
APPID
  5
F3BA
330
746E
100
AcDbSymbolTableRecord
100
AcDbRegAppTableRecord
  2
DRAWINGVARIABLESXDATA
 70
     0
  0
ENDTAB
  0
TABLE
  2
DIMSTYLE
  5
746F
330
0
100
AcDbSymbolTable
 70
     1
100
AcDbDimStyleTable
 71
     1
340
F71F
  0
DIMSTYLE
105
F71F
102
{ACAD_REACTORS
330
162CD
330
162CE
330
162CF
330
162D0
330
162E4
330
162E7
330
162EA
330
162EB
330
16301
330
16302
330
1631F
330
16320
330
16333
330
1659C
330
1659A
330
165E9
330
166DD
330
16913
330
183E5
330
183E4
330
183E2
330
183E3
330
18445
330
18446
330
18444
330
18FF3
330
19B74
330
19B75
330
19BCC
330
19DB1
330
19DB2
330
19DC0
330
19DF8
330
19E16
330
19E17
330
19E18
330
19E19
330
19E4A
330
19E50
330
1AC7F
330
1AC82
330
1AFD0
330
1AFD1
330
1AFD2
330
1B418
102
}
330
746F
100
AcDbSymbolTableRecord
100
AcDbDimStyleTableRecord
  2
INABA_S40G
 70
     0
 40
40.0
 41
2.5
 42
0.5
 43
7.0
 44
1.5
 73
     0
 74
     0
 77
     3
 78
     8
140
3.0
141
0.0
143
0.0394
147
1.0
172
     1
173
     1
174
     1
178
     7
271
     1
340
F706
341
F770
343
F770
344
F770
  0
ENDTAB
  0
TABLE
  2
BLOCK_RECORD
  5
7466
330
0
100
AcDbSymbolTable
 70
    48
  0
BLOCK_RECORD
  5
747D
330
7466
100
AcDbSymbolTableRecord
100
AcDbBlockTableRecord
  2
*MODEL_SPACE
340
19304
  0
BLOCK_RECORD
  5
747A
330
7466
100
AcDbSymbolTableRecord
100
AcDbBlockTableRecord
  2
*PAPER_SPACE
340
19305
  0
BLOCK_RECORD
  5
F770
330
7466
100
AcDbSymbolTableRecord
100
AcDbBlockTableRecord
  2
_DOTSMALL
340
0
102
{BLKREFS
331
1A570
331
1A571
331
1A579
331
1A57A
331
1A59D
331
1A59E
331
1A5A6
331
1A5A7
331
1A5B1
331
1A5B2
331
1A5B9
331
1A5BA
331
1A5D6
331
1A5D7
331
1A5E2
331
1A5E3
331
1A5F6
331
1A5F7
331
1A601
331
1A602
331
1A60C
331
1A60D
331
1A617
331
1A618
331
1A622
331
1A623
331
1A62B
331
1A62C
331
1A64B
331
1A64C
331
1A65D
331
1A65E
331
1A666
331
1A667
331
1A671
331
1A672
331
1A67D
331
1A67E
331
1A687
331
1A688
331
1A692
331
1A693
331
1A6CC
331
1A6CD
331
1A70F
331
1A710
331
1A718
331
1A719
331
1A723
331
1A724
331
1A72D
331
1A72E
331
1A736
331
1A737
331
1A740
331
1A741
331
1ADFA
331
1ADFB
331
1AE03
331
1AE04
331
1AE0C
331
1AE0D
331
1AE15
331
1AE16
331
1AE20
331
1AE21
331
1AE2B
331
1AE2C
331
1AE34
331
1AE35
331
1AE3D
331
1AE3E
331
1AE48
331
1AE49
331
1AE53
331
1AE54
331
1AE66
331
1AE67
331
1B0F4
331
1B0F5
331
1B428
331
1B429
331
1B48F
331
1B490
331
1B498
331
1B499
331
1B5CC
331
1B5CD
331
1B5D8
331
1B5D9
102
}
  0
BLOCK_RECORD
  5
16338
330
7466
100
AcDbSymbolTableRecord
100
AcDbBlockTableRecord
  2
*D1
340
0
  0
BLOCK_RECORD
  5
16344
330
7466
100
AcDbSymbolTableRecord
100
AcDbBlockTableRecord
  2
*D2
340
0
  0
BLOCK_RECORD
  5
16352
330
7466
100
AcDbSymbolTableRecord
100
AcDbBlockTableRecord
  2
*D3
340
0
  0
BLOCK_RECORD
  5
16360
330
7466
100
AcDbSymbolTableRecord
100
AcDbBlockTableRecord
  2
*D4
340
0
  0
BLOCK_RECORD
  5
16384
330
7466
100
AcDbSymbolTableRecord
100
AcDbBlockTableRecord
  2
*D5
340
0
  0
BLOCK_RECORD
  5
1638F
330
7466
100
AcDbSymbolTableRecord
100
AcDbBlockTableRecord
  2
*D6
340
0
  0
BLOCK_RECORD
  5
1639B
330
7466
100
AcDbSymbolTableRecord
100
AcDbBlockTableRecord
  2
*D7
340
0
  0
BLOCK_RECORD
  5
163A9
330
7466
100
AcDbSymbolTableRecord
100
AcDbBlockTableRecord
  2
*D8
340
0
  0
BLOCK_RECORD
  5
163B8
330
7466
100
AcDbSymbolTableRecord
100
AcDbBlockTableRecord
  2
*D9
340
0
  0
BLOCK_RECORD
  5
163C7
330
7466
100
AcDbSymbolTableRecord
100
AcDbBlockTableRecord
  2
*D10
340
0
  0
BLOCK_RECORD
  5
163E1
330
7466
100
AcDbSymbolTableRecord
100
AcDbBlockTableRecord
  2
*D11
340
0
  0
BLOCK_RECORD
  5
163ED
330
7466
100
AcDbSymbolTableRecord
100
AcDbBlockTableRecord
  2
*D12
340
0
  0
BLOCK_RECORD
  5
163FB
330
7466
100
AcDbSymbolTableRecord
100
AcDbBlockTableRecord
  2
*D13
340
0
  0
BLOCK_RECORD
  5
165B5
330
7466
100
AcDbSymbolTableRecord
100
AcDbBlockTableRecord
  2
*D14
340
0
  0
BLOCK_RECORD
  5
165C4
330
7466
100
AcDbSymbolTableRecord
100
AcDbBlockTableRecord
  2
*D15
340
0
  0
BLOCK_RECORD
  5
165EA
330
7466
100
AcDbSymbolTableRecord
100
AcDbBlockTableRecord
  2
*D16
340
0
  0
BLOCK_RECORD
  5
166CF
330
7466
100
AcDbSymbolTableRecord
100
AcDbBlockTableRecord
  2
*D17
340
0
  0
BLOCK_RECORD
  5
16908
330
7466
100
AcDbSymbolTableRecord
100
AcDbBlockTableRecord
  2
*D18
340
0
  0
BLOCK_RECORD
  5
183F8
330
7466
100
AcDbSymbolTableRecord
100
AcDbBlockTableRecord
  2
*D19
340
0
  0
BLOCK_RECORD
  5
18407
330
7466
100
AcDbSymbolTableRecord
100
AcDbBlockTableRecord
  2
*D20
340
0
  0
BLOCK_RECORD
  5
18416
330
7466
100
AcDbSymbolTableRecord
100
AcDbBlockTableRecord
  2
*D21
340
0
  0
BLOCK_RECORD
  5
18421
330
7466
100
AcDbSymbolTableRecord
100
AcDbBlockTableRecord
  2
*D22
340
0
  0
BLOCK_RECORD
  5
18447
330
7466
100
AcDbSymbolTableRecord
100
AcDbBlockTableRecord
  2
*D23
340
0
  0
BLOCK_RECORD
  5
18453
330
7466
100
AcDbSymbolTableRecord
100
AcDbBlockTableRecord
  2
*D24
340
0
  0
BLOCK_RECORD
  5
18461
330
7466
100
AcDbSymbolTableRecord
100
AcDbBlockTableRecord
  2
*D25
340
0
  0
BLOCK_RECORD
  5
18FE7
330
7466
100
AcDbSymbolTableRecord
100
AcDbBlockTableRecord
  2
*D26
340
0
  0
BLOCK_RECORD
  5
19ED2
330
7466
100
AcDbSymbolTableRecord
100
AcDbBlockTableRecord
  2
*D27
340
0
  0
BLOCK_RECORD
  5
19EDE
330
7466
100
AcDbSymbolTableRecord
100
AcDbBlockTableRecord
  2
*D28
340
0
  0
BLOCK_RECORD
  5
19F19
330
7466
100
AcDbSymbolTableRecord
100
AcDbBlockTableRecord
  2
*D29
340
0
  0
BLOCK_RECORD
  5
19FEC
330
7466
100
AcDbSymbolTableRecord
100
AcDbBlockTableRecord
  2
*D30
340
0
  0
BLOCK_RECORD
  5
19FF8
330
7466
100
AcDbSymbolTableRecord
100
AcDbBlockTableRecord
  2
*D31
340
0
  0
BLOCK_RECORD
  5
1A004
330
7466
100
AcDbSymbolTableRecord
100
AcDbBlockTableRecord
  2
*D32
340
0
  0
BLOCK_RECORD
  5
1A05E
330
7466
100
AcDbSymbolTableRecord
100
AcDbBlockTableRecord
  2
*D33
340
0
  0
BLOCK_RECORD
  5
1A06C
330
7466
100
AcDbSymbolTableRecord
100
AcDbBlockTableRecord
  2
*D34
340
0
  0
BLOCK_RECORD
  5
1A078
330
7466
100
AcDbSymbolTableRecord
100
AcDbBlockTableRecord
  2
*D35
340
0
  0
BLOCK_RECORD
  5
1A084
330
7466
100
AcDbSymbolTableRecord
100
AcDbBlockTableRecord
  2
*D36
340
0
  0
BLOCK_RECORD
  5
1A091
330
7466
100
AcDbSymbolTableRecord
100
AcDbBlockTableRecord
  2
*D37
340
0
  0
BLOCK_RECORD
  5
1A09F
330
7466
100
AcDbSymbolTableRecord
100
AcDbBlockTableRecord
  2
*D38
340
0
  0
BLOCK_RECORD
  5
1A0AB
330
7466
100
AcDbSymbolTableRecord
100
AcDbBlockTableRecord
  2
*D39
340
0
  0
BLOCK_RECORD
  5
1AD28
330
7466
100
AcDbSymbolTableRecord
100
AcDbBlockTableRecord
  2
*D40
340
0
  0
BLOCK_RECORD
  5
1AD34
330
7466
100
AcDbSymbolTableRecord
100
AcDbBlockTableRecord
  2
*D41
340
0
  0
BLOCK_RECORD
  5
1B03B
330
7466
100
AcDbSymbolTableRecord
100
AcDbBlockTableRecord
  2
*D42
340
0
  0
BLOCK_RECORD
  5
1B047
330
7466
100
AcDbSymbolTableRecord
100
AcDbBlockTableRecord
  2
*D43
340
0
  0
BLOCK_RECORD
  5
1B055
330
7466
100
AcDbSymbolTableRecord
100
AcDbBlockTableRecord
  2
*D44
340
0
  0
BLOCK_RECORD
  5
1B3E4
330
7466
100
AcDbSymbolTableRecord
100
AcDbBlockTableRecord
  2
A$C1D6D5853
340
0
  0
BLOCK_RECORD
  5
1B3F7
330
7466
100
AcDbSymbolTableRecord
100
AcDbBlockTableRecord
  2
A$C7CB06ECC
340
0
  0
BLOCK_RECORD
  5
1B419
330
7466
100
AcDbSymbolTableRecord
100
AcDbBlockTableRecord
  2
*D47
340
0
  0
ENDTAB
  0
ENDSEC
  0
SECTION
  2
BLOCKS
  0
BLOCK
  5
7489
330
747D
100
AcDbEntity
  8
0
100
AcDbBlockBegin
  2
*MODEL_SPACE
 70
     0
 10
0.0
 20
0.0
 30
0.0
  3
*MODEL_SPACE
  1

  0
ENDBLK
  5
748A
330
747D
100
AcDbEntity
  8
0
100
AcDbBlockEnd
  0
BLOCK
  5
7487
330
747A
100
AcDbEntity
 67
     1
  8
0
100
AcDbBlockBegin
  2
*PAPER_SPACE
 70
     0
 10
0.0
 20
0.0
 30
0.0
  3
*PAPER_SPACE
  1

  0
ENDBLK
  5
7488
330
747A
100
AcDbEntity
 67
     1
  8
0
100
AcDbBlockEnd
  0
BLOCK
  5
F771
330
F770
100
AcDbEntity
  8
0
 48
50.0
100
AcDbBlockBegin
  2
_DOTSMALL
 70
     0
 10
0.0
 20
0.0
 30
0.0
  3
_DOTSMALL
  1

  0
LWPOLYLINE
  5
F772
330
F770
100
AcDbEntity
  8
0
  6
ByBlock
 62
     0
 48
50.0
100
AcDbPolyline
 90
        2
 70
     1
 43
0.5
 10
-0.0625
 20
0.0
 42
1.0
 10
0.0625
 20
0.0
 42
1.0
  0
ENDBLK
  5
F776
330
F770
100
AcDbEntity
  8
0
 48
50.0
100
AcDbBlockEnd
  0
BLOCK
  5
18F53
330
16338
100
AcDbEntity
  8
0
 48
50.0
100
AcDbBlockBegin
  2
*D1
 70
     1
 10
0.0
 20
0.0
 30
0.0
  3
*D1
  1

  0
LINE
  5
1A65A
330
16338
100
AcDbEntity
  8
寸法
 62
     0
 48
50.0
370
    -2
100
AcDbLine
 10
10212.34952419878
 20
9862.963687641121
 30
0.0
 11
11090.62602232871
 21
9862.963687641121
 31
0.0
  0
LINE
  5
1A65B
330
16338
100
AcDbEntity
  8
寸法
 62
     0
 48
50.0
370
    -2
100
AcDbLine
 10
10212.34952419875
 20
6922.963687641106
 30
0.0
 11
11090.62602232871
 21
6922.963687641105
 31
0.0
  0
LINE
  5
1A65C
330
16338
100
AcDbEntity
  8
寸法
 62
     0
 48
50.0
370
    -2
100
AcDbLine
 10
11030.62602232871
 20
9862.963687641121
 30
0.0
 11
11030.62602232871
 21
6922.963687641105
 31
0.0
  0
INSERT
  5
1A65D
330
16338
100
AcDbEntity
  8
寸法
 62
     0
 48
50.0
370
    -2
100
AcDbBlockReference
  2
_DOTSMALL
 10
11030.62602232871
 20
9862.963687641121
 30
0.0
 41
100.0
 42
100.0
 43
100.0
 50
90.0
  0
INSERT
  5
1A65E
330
16338
100
AcDbEntity
  8
寸法
 62
     0
 48
50.0
370
    -2
100
AcDbBlockReference
  2
_DOTSMALL
 10
11030.62602232871
 20
6922.963687641105
 30
0.0
 41
100.0
 42
100.0
 43
100.0
 50
270.0
  0
MTEXT
  5
1A65F
330
16338
100
AcDbEntity
  8
寸法
 62
     7
 48
50.0
100
AcDbMText
 10
10930.61421130509
 20
8392.963687641115
 30
0.0
 40
120.0
 41
0.0
 71
     5
 72
     1
  1
\A1;7X420=2940
  7
STYLE1
 11
0.0000000000000001
 21
1.0
 31
0.0
 73
     1
 44
1.0
1001
ACAD
1000
MTEXTBEGIN
1070
    73
1070
     1
1070
    44
1040
1.0
1070
    74
1070
     0
1000
MTEXTEND
  0
POINT
  5
1A660
330
16338
100
AcDbEntity
  8
DEFPOINTS
 62
     0
 48
50.0
100
AcDbPoint
 10
10192.34952419878
 20
9862.963687641121
 30
0.0
  0
POINT
  5
1A661
330
16338
100
AcDbEntity
  8
DEFPOINTS
 62
     0
 48
50.0
100
AcDbPoint
 10
10192.34952419875
 20
6922.963687641106
 30
0.0
  0
POINT
  5
1A662
330
16338
100
AcDbEntity
  8
DEFPOINTS
 62
     0
 48
50.0
100
AcDbPoint
 10
11030.62602232871
 20
6922.963687641105
 30
0.0
  0
ENDBLK
  5
18F5D
330
16338
100
AcDbEntity
  8
0
 48
50.0
100
AcDbBlockEnd
  0
BLOCK
  5
18F69
330
16344
100
AcDbEntity
  8
0
 48
50.0
100
AcDbBlockBegin
  2
*D2
 70
     1
 10
0.0
 20
0.0
 30
0.0
  3
*D2
  1

  0
LINE
  5
1A66C
330
16344
100
AcDbEntity
  8
寸法
 62
     0
 48
50.0
370
    -2
100
AcDbLine
 10
10212.34952419875
 20
6922.963687641106
 30
0.0
 11
11090.62602232869
 21
6922.963687641105
 31
0.0
  0
LINE
  5
1A66D
330
16344
100
AcDbEntity
  8
寸法
 62
     0
 48
50.0
370
    -2
100
AcDbLine
 10
10212.34952419875
 20
6867.963687641109
 30
0.0
 11
11090.62602232869
 21
6867.963687641109
 31
0.0
  0
LINE
  5
1A66E
330
16344
100
AcDbEntity
  8
寸法
 62
     0
 48
50.0
370
    -2
100
AcDbLine
 10
11030.62602232869
 20
6922.963687641105
 30
0.0
 11
11030.62602232869
 21
7022.963687641105
 31
0.0
  0
LINE
  5
1A66F
330
16344
100
AcDbEntity
  8
寸法
 62
     0
 48
50.0
370
    -2
100
AcDbLine
 10
11030.62602232869
 20
6867.963687641109
 30
0.0
 11
11030.62602232869
 21
6381.616939362007
 31
0.0
  0
LINE
  5
1A670
330
16344
100
AcDbEntity
  8
寸法
 62
     0
 48
50.0
370
    -2
100
AcDbLine
 10
11030.62602232869
 20
6922.963687641105
 30
0.0
 11
11030.62602232869
 21
6867.963687641109
 31
0.0
  0
INSERT
  5
1A671
330
16344
100
AcDbEntity
  8
寸法
 62
     0
 48
50.0
370
    -2
100
AcDbBlockReference
  2
_DOTSMALL
 10
11030.62602232869
 20
6922.963687641105
 30
0.0
 41
100.0
 42
100.0
 43
100.0
 50
270.0
  0
INSERT
  5
1A672
330
16344
100
AcDbEntity
  8
寸法
 62
     0
 48
50.0
370
    -2
100
AcDbBlockReference
  2
_DOTSMALL
 10
11030.62602232869
 20
6867.963687641109
 30
0.0
 41
100.0
 42
100.0
 43
100.0
 50
90.0
  0
MTEXT
  5
1A673
330
16344
100
AcDbEntity
  8
寸法
 62
     7
 48
50.0
100
AcDbMText
 10
10930.62602232869
 20
6490.102220736247
 30
0.0
 40
120.0
 41
0.0
 71
     5
 72
     1
  1
\A1;55
  7
STYLE1
 11
0.0000000000000001
 21
1.0
 31
0.0
 73
     1
 44
1.0
1001
ACAD
1000
MTEXTBEGIN
1070
    73
1070
     1
1070
    44
1040
1.0
1070
    74
1070
     0
1000
MTEXTEND
  0
POINT
  5
1A674
330
16344
100
AcDbEntity
  8
DEFPOINTS
 62
     0
 48
50.0
100
AcDbPoint
 10
10192.34952419875
 20
6922.963687641106
 30
0.0
  0
POINT
  5
1A675
330
16344
100
AcDbEntity
  8
DEFPOINTS
 62
     0
 48
50.0
100
AcDbPoint
 10
10192.34952419875
 20
6867.963687641109
 30
0.0
  0
POINT
  5
1A676
330
16344
100
AcDbEntity
  8
DEFPOINTS
 62
     0
 48
50.0
100
AcDbPoint
 10
11030.62602232869
 20
6867.963687641109
 30
0.0
  0
ENDBLK
  5
18F75
330
16344
100
AcDbEntity
  8
0
 48
50.0
100
AcDbBlockEnd
  0
BLOCK
  5
18F76
330
16352
100
AcDbEntity
  8
0
 48
50.0
100
AcDbBlockBegin
  2
*D3
 70
     1
 10
0.0
 20
0.0
 30
0.0
  3
*D3
  1

  0
LINE
  5
1A68D
330
16352
100
AcDbEntity
  8
寸法
 62
     0
 48
50.0
370
    -2
100
AcDbLine
 10
10212.34952419878
 20
9917.963687641117
 30
0.0
 11
11090.62602232872
 21
9917.963687641117
 31
0.0
  0
LINE
  5
1A68E
330
16352
100
AcDbEntity
  8
寸法
 62
     0
 48
50.0
370
    -2
100
AcDbLine
 10
10212.34952419878
 20
9862.963687641121
 30
0.0
 11
11090.62602232872
 21
9862.963687641121
 31
0.0
  0
LINE
  5
1A68F
330
16352
100
AcDbEntity
  8
寸法
 62
     0
 48
50.0
370
    -2
100
AcDbLine
 10
11030.62602232872
 20
9862.963687641121
 30
0.0
 11
11030.62602232872
 21
9762.963687641121
 31
0.0
  0
LINE
  5
1A690
330
16352
100
AcDbEntity
  8
寸法
 62
     0
 48
50.0
370
    -2
100
AcDbLine
 10
11030.62602232872
 20
9917.963687641117
 30
0.0
 11
11030.62602232872
 21
10334.93425038959
 31
0.0
  0
LINE
  5
1A691
330
16352
100
AcDbEntity
  8
寸法
 62
     0
 48
50.0
370
    -2
100
AcDbLine
 10
11030.62602232872
 20
9862.963687641121
 30
0.0
 11
11030.62602232872
 21
9917.963687641117
 31
0.0
  0
INSERT
  5
1A692
330
16352
100
AcDbEntity
  8
寸法
 62
     0
 48
50.0
370
    -2
100
AcDbBlockReference
  2
_DOTSMALL
 10
11030.62602232872
 20
9862.963687641121
 30
0.0
 41
100.0
 42
100.0
 43
100.0
 50
90.0
  0
INSERT
  5
1A693
330
16352
100
AcDbEntity
  8
寸法
 62
     0
 48
50.0
370
    -2
100
AcDbBlockReference
  2
_DOTSMALL
 10
11030.62602232872
 20
9917.963687641117
 30
0.0
 41
100.0
 42
100.0
 43
100.0
 50
270.0
  0
MTEXT
  5
1A694
330
16352
100
AcDbEntity
  8
寸法
 62
     7
 48
50.0
100
AcDbMText
 10
10930.62602232871
 20
10226.44896901536
 30
0.0
 40
120.0
 41
0.0
 71
     5
 72
     1
  1
\A1;55
  7
STYLE1
 11
0.0000000000000001
 21
1.0
 31
0.0
 73
     1
 44
1.0
1001
ACAD
1000
MTEXTBEGIN
1070
    73
1070
     1
1070
    44
1040
1.0
1070
    74
1070
     0
1000
MTEXTEND
  0
POINT
  5
1A695
330
16352
100
AcDbEntity
  8
DEFPOINTS
 62
     0
 48
50.0
100
AcDbPoint
 10
10192.34952419878
 20
9917.963687641117
 30
0.0
  0
POINT
  5
1A696
330
16352
100
AcDbEntity
  8
DEFPOINTS
 62
     0
 48
50.0
100
AcDbPoint
 10
10192.34952419878
 20
9862.963687641121
 30
0.0
  0
POINT
  5
1A697
330
16352
100
AcDbEntity
  8
DEFPOINTS
 62
     0
 48
50.0
100
AcDbPoint
 10
11030.62602232872
 20
9862.963687641121
 30
0.0
  0
ENDBLK
  5
18F82
330
16352
100
AcDbEntity
  8
0
 48
50.0
100
AcDbBlockEnd
  0
BLOCK
  5
18F5E
330
16360
100
AcDbEntity
  8
0
 48
50.0
100
AcDbBlockBegin
  2
*D4
 70
     1
 10
0.0
 20
0.0
 30
0.0
  3
*D4
  1

  0
LINE
  5
1A663
330
16360
100
AcDbEntity
  8
寸法
 62
     0
 48
50.0
370
    -2
100
AcDbLine
 10
10212.34952419878
 20
9917.963687641117
 30
0.0
 11
11455.73296406835
 21
9917.963687641117
 31
0.0
  0
LINE
  5
1A664
330
16360
100
AcDbEntity
  8
寸法
 62
     0
 48
50.0
370
    -2
100
AcDbLine
 10
10212.34952419875
 20
6867.963687641109
 30
0.0
 11
11455.73296406835
 21
6867.963687641109
 31
0.0
  0
LINE
  5
1A665
330
16360
100
AcDbEntity
  8
寸法
 62
     0
 48
50.0
370
    -2
100
AcDbLine
 10
11395.73296406835
 20
9917.963687641117
 30
0.0
 11
11395.73296406835
 21
6867.963687641109
 31
0.0
  0
INSERT
  5
1A666
330
16360
100
AcDbEntity
  8
寸法
 62
     0
 48
50.0
370
    -2
100
AcDbBlockReference
  2
_DOTSMALL
 10
11395.73296406835
 20
9917.963687641117
 30
0.0
 41
100.0
 42
100.0
 43
100.0
 50
90.0
  0
INSERT
  5
1A667
330
16360
100
AcDbEntity
  8
寸法
 62
     0
 48
50.0
370
    -2
100
AcDbBlockReference
  2
_DOTSMALL
 10
11395.73296406835
 20
6867.963687641109
 30
0.0
 41
100.0
 42
100.0
 43
100.0
 50
270.0
  0
MTEXT
  5
1A668
330
16360
100
AcDbEntity
  8
寸法
 62
     7
 48
50.0
100
AcDbMText
 10
11295.73296406835
 20
8392.963687641115
 30
0.0
 40
120.0
 41
0.0
 71
     5
 72
     1
  1
\A1;3050
  7
STYLE1
 11
0.0000000000000001
 21
1.0
 31
0.0
 73
     1
 44
1.0
1001
ACAD
1000
MTEXTBEGIN
1070
    73
1070
     1
1070
    44
1040
1.0
1070
    74
1070
     0
1000
MTEXTEND
  0
POINT
  5
1A669
330
16360
100
AcDbEntity
  8
DEFPOINTS
 62
     0
 48
50.0
100
AcDbPoint
 10
10192.34952419878
 20
9917.963687641117
 30
0.0
  0
POINT
  5
1A66A
330
16360
100
AcDbEntity
  8
DEFPOINTS
 62
     0
 48
50.0
100
AcDbPoint
 10
10192.34952419875
 20
6867.963687641109
 30
0.0
  0
POINT
  5
1A66B
330
16360
100
AcDbEntity
  8
DEFPOINTS
 62
     0
 48
50.0
100
AcDbPoint
 10
11395.73296406835
 20
6867.963687641109
 30
0.0
  0
ENDBLK
  5
18F68
330
16360
100
AcDbEntity
  8
0
 48
50.0
100
AcDbBlockEnd
  0
BLOCK
  5
171E3
330
16384
100
AcDbEntity
  8
0
 48
50.0
100
AcDbBlockBegin
  2
*D5
 70
     1
 10
0.0
 20
0.0
 30
0.0
  3
*D5
  1

  0
LINE
  5
1A56E
330
16384
100
AcDbEntity
  8
寸法
 62
     0
 48
50.0
370
    -2
100
AcDbLine
 10
7245.349524198771
 20
6873.963687641019
 30
0.0
 11
7245.349524198771
 21
6273.532916874854
 31
0.0
  0
LINE
  5
1A56F
330
16384
100
AcDbEntity
  8
寸法
 62
     0
 48
50.0
370
    -2
100
AcDbLine
 10
10089.34952419875
 20
6333.532916874855
 30
0.0
 11
7245.349524198771
 21
6333.532916874855
 31
0.0
  0
INSERT
  5
1A570
330
16384
100
AcDbEntity
  8
寸法
 62
     0
 48
50.0
370
    -2
100
AcDbBlockReference
  2
_DOTSMALL
 10
10089.34952419875
 20
6333.532916874855
 30
0.0
 41
100.0
 42
100.0
 43
100.0
  0
INSERT
  5
1A571
330
16384
100
AcDbEntity
  8
寸法
 62
     0
 48
50.0
370
    -2
100
AcDbBlockReference
  2
_DOTSMALL
 10
7245.349524198771
 20
6333.532916874855
 30
0.0
 41
100.0
 42
100.0
 43
100.0
 50
180.0
  0
MTEXT
  5
1A572
330
16384
100
AcDbEntity
  8
寸法
 62
     7
 48
50.0
100
AcDbMText
 10
8667.349524198762
 20
6433.544727898476
 30
0.0
 40
120.0
 41
0.0
 71
     5
 72
     1
  1
\A1;有効開口部間口 2844
  7
STYLE1
 73
     1
 44
1.0
1001
ACAD
1000
MTEXTBEGIN
1070
    73
1070
     1
1070
    44
1040
1.0
1070
    74
1070
     0
1000
MTEXTEND
  0
POINT
  5
1A573
330
16384
100
AcDbEntity
  8
DEFPOINTS
 62
     0
 48
50.0
100
AcDbPoint
 10
10089.34952419875
 20
6893.963687641019
 30
0.0
  0
POINT
  5
1A574
330
16384
100
AcDbEntity
  8
DEFPOINTS
 62
     0
 48
50.0
100
AcDbPoint
 10
7245.349524198771
 20
6893.963687641019
 30
0.0
  0
POINT
  5
1A575
330
16384
100
AcDbEntity
  8
DEFPOINTS
 62
     0
 48
50.0
100
AcDbPoint
 10
7245.349524198771
 20
6333.532916874855
 30
0.0
  0
ENDBLK
  5
171EC
330
16384
100
AcDbEntity
  8
0
 48
50.0
100
AcDbBlockEnd
  0
BLOCK
  5
19289
330
1638F
100
AcDbEntity
  8
0
 48
50.0
100
AcDbBlockBegin
  2
*D6
 70
     1
 10
0.0
 20
0.0
 30
0.0
  3
*D6
  1

  0
LINE
  5
1A576
330
1638F
100
AcDbEntity
  8
寸法
 62
     0
 48
50.0
370
    -2
100
AcDbLine
 10
1042.349524198771
 20
6847.963687641016
 30
0.0
 11
1042.349524198771
 21
5827.35992128398
 31
0.0
  0
LINE
  5
1A577
330
1638F
100
AcDbEntity
  8
寸法
 62
     0
 48
50.0
370
    -2
100
AcDbLine
 10
10192.34952419874
 20
6847.963687641109
 30
0.0
 11
10192.34952419874
 21
5827.35992128398
 31
0.0
  0
LINE
  5
1A578
330
1638F
100
AcDbEntity
  8
寸法
 62
     0
 48
50.0
370
    -2
100
AcDbLine
 10
1042.349524198771
 20
5887.35992128398
 30
0.0
 11
10192.34952419874
 21
5887.35992128398
 31
0.0
  0
INSERT
  5
1A579
330
1638F
100
AcDbEntity
  8
寸法
 62
     0
 48
50.0
370
    -2
100
AcDbBlockReference
  2
_DOTSMALL
 10
1042.349524198771
 20
5887.35992128398
 30
0.0
 41
100.0
 42
100.0
 43
100.0
 50
180.0
  0
INSERT
  5
1A57A
330
1638F
100
AcDbEntity
  8
寸法
 62
     0
 48
50.0
370
    -2
100
AcDbBlockReference
  2
_DOTSMALL
 10
10192.34952419874
 20
5887.35992128398
 30
0.0
 41
100.0
 42
100.0
 43
100.0
  0
MTEXT
  5
1A57B
330
1638F
100
AcDbEntity
  8
寸法
 62
     7
 48
50.0
100
AcDbMText
 10
5617.349524198757
 20
5987.35992128398
 30
0.0
 40
120.0
 41
0.0
 71
     5
 72
     1
  1
\A1;N X 3050
  7
STYLE1
 73
     1
 44
1.0
1001
ACAD
1000
MTEXTBEGIN
1070
    73
1070
     1
1070
    44
1040
1.0
1070
    74
1070
     0
1000
MTEXTEND
  0
POINT
  5
1A57C
330
1638F
100
AcDbEntity
  8
DEFPOINTS
 62
     0
 48
50.0
100
AcDbPoint
 10
1042.349524198771
 20
6867.963687641015
 30
0.0
  0
POINT
  5
1A57D
330
1638F
100
AcDbEntity
  8
DEFPOINTS
 62
     0
 48
50.0
100
AcDbPoint
 10
10192.34952419874
 20
6867.963687641109
 30
0.0
  0
POINT
  5
1A57E
330
1638F
100
AcDbEntity
  8
DEFPOINTS
 62
     0
 48
50.0
100
AcDbPoint
 10
10192.34952419874
 20
5887.35992128398
 30
0.0
  0
ENDBLK
  5
19293
330
1638F
100
AcDbEntity
  8
0
 48
50.0
100
AcDbBlockEnd
  0
BLOCK
  5
16464
330
1639B
100
AcDbEntity
  8
0
 48
50.0
100
AcDbBlockBegin
  2
*D7
 70
     1
 10
0.0
 20
0.0
 30
0.0
  3
*D7
  1

  0
LINE
  5
1A5D1
330
1639B
100
AcDbEntity
  8
寸法
 62
     0
 48
50.0
370
    -2
100
AcDbLine
 10
1097.349524198767
 20
6847.963687641018
 30
0.0
 11
1097.349524198767
 21
6273.532916874854
 31
0.0
  0
LINE
  5
1A5D2
330
1639B
100
AcDbEntity
  8
寸法
 62
     0
 48
50.0
370
    -2
100
AcDbLine
 10
1042.349524198771
 20
6847.963687641016
 30
0.0
 11
1042.349524198771
 21
6273.532916874854
 31
0.0
  0
LINE
  5
1A5D3
330
1639B
100
AcDbEntity
  8
寸法
 62
     0
 48
50.0
370
    -2
100
AcDbLine
 10
1097.349524198767
 20
6333.532916874855
 30
0.0
 11
1197.349524198767
 21
6333.532916874855
 31
0.0
  0
LINE
  5
1A5D4
330
1639B
100
AcDbEntity
  8
寸法
 62
     0
 48
50.0
370
    -2
100
AcDbLine
 10
1042.349524198771
 20
6333.532916874855
 30
0.0
 11
625.378961450294
 21
6333.532916874855
 31
0.0
  0
LINE
  5
1A5D5
330
1639B
100
AcDbEntity
  8
寸法
 62
     0
 48
50.0
370
    -2
100
AcDbLine
 10
1097.349524198767
 20
6333.532916874855
 30
0.0
 11
1042.349524198771
 21
6333.532916874855
 31
0.0
  0
INSERT
  5
1A5D6
330
1639B
100
AcDbEntity
  8
寸法
 62
     0
 48
50.0
370
    -2
100
AcDbBlockReference
  2
_DOTSMALL
 10
1097.349524198767
 20
6333.532916874855
 30
0.0
 41
100.0
 42
100.0
 43
100.0
 50
180.0
  0
INSERT
  5
1A5D7
330
1639B
100
AcDbEntity
  8
寸法
 62
     0
 48
50.0
370
    -2
100
AcDbBlockReference
  2
_DOTSMALL
 10
1042.349524198771
 20
6333.532916874855
 30
0.0
 41
100.0
 42
100.0
 43
100.0
  0
MTEXT
  5
1A5D8
330
1639B
100
AcDbEntity
  8
寸法
 62
     7
 48
50.0
100
AcDbMText
 10
733.8642428245325
 20
6433.532916874854
 30
0.0
 40
120.0
 41
0.0
 71
     5
 72
     1
  1
\A1;55
  7
STYLE1
 73
     1
 44
1.0
1001
ACAD
1000
MTEXTBEGIN
1070
    73
1070
     1
1070
    44
1040
1.0
1070
    74
1070
     0
1000
MTEXTEND
  0
POINT
  5
1A5D9
330
1639B
100
AcDbEntity
  8
DEFPOINTS
 62
     0
 48
50.0
100
AcDbPoint
 10
1097.349524198767
 20
6867.963687641019
 30
0.0
  0
POINT
  5
1A5DA
330
1639B
100
AcDbEntity
  8
DEFPOINTS
 62
     0
 48
50.0
100
AcDbPoint
 10
1042.349524198771
 20
6867.963687641015
 30
0.0
  0
POINT
  5
1A5DB
330
1639B
100
AcDbEntity
  8
DEFPOINTS
 62
     0
 48
50.0
100
AcDbPoint
 10
1042.349524198771
 20
6333.532916874855
 30
0.0
  0
ENDBLK
  5
16470
330
1639B
100
AcDbEntity
  8
0
 48
50.0
100
AcDbBlockEnd
  0
BLOCK
  5
16471
330
163A9
100
AcDbEntity
  8
0
 48
50.0
100
AcDbBlockBegin
  2
*D8
 70
     1
 10
0.0
 20
0.0
 30
0.0
  3
*D8
  1

  0
LINE
  5
1A611
330
163A9
100
AcDbEntity
  8
寸法
 62
     0
 48
50.0
370
    -2
100
AcDbLine
 10
7245.349524198771
 20
6873.963687641019
 30
0.0
 11
7245.349524198771
 21
6273.532916874854
 31
0.0
  0
LINE
  5
1A612
330
163A9
100
AcDbEntity
  8
寸法
 62
     0
 48
50.0
370
    -2
100
AcDbLine
 10
7197.349524198767
 20
6847.963687641018
 30
0.0
 11
7197.349524198767
 21
6273.532916874854
 31
0.0
  0
LINE
  5
1A613
330
163A9
100
AcDbEntity
  8
寸法
 62
     0
 48
50.0
370
    -2
100
AcDbLine
 10
7245.349524198771
 20
6333.532916874855
 30
0.0
 11
7345.349524198771
 21
6333.532916874855
 31
0.0
  0
LINE
  5
1A614
330
163A9
100
AcDbEntity
  8
寸法
 62
     0
 48
50.0
370
    -2
100
AcDbLine
 10
7197.349524198767
 20
6333.532916874855
 30
0.0
 11
7097.349524198768
 21
6333.532916874855
 31
0.0
  0
MTEXT
  5
1A615
330
163A9
100
AcDbEntity
  8
寸法
 62
     7
 48
50.0
100
AcDbMText
 10
7358.251495198828
 20
6433.532916874854
 30
0.0
 40
120.0
 41
0.0
 71
     5
 72
     1
  1
\A1;48
  7
STYLE1
 73
     1
 44
1.0
1001
ACAD
1000
MTEXTBEGIN
1070
    73
1070
     1
1070
    44
1040
1.0
1070
    74
1070
     0
1000
MTEXTEND
  0
LINE
  5
1A616
330
163A9
100
AcDbEntity
  8
寸法
 62
     0
 48
50.0
370
    -2
100
AcDbLine
 10
7245.349524198771
 20
6333.532916874855
 30
0.0
 11
7197.349524198767
 21
6333.532916874855
 31
0.0
  0
INSERT
  5
1A617
330
163A9
100
AcDbEntity
  8
寸法
 62
     0
 48
50.0
370
    -2
100
AcDbBlockReference
  2
_DOTSMALL
 10
7245.349524198771
 20
6333.532916874855
 30
0.0
 41
100.0
 42
100.0
 43
100.0
 50
180.0
  0
INSERT
  5
1A618
330
163A9
100
AcDbEntity
  8
寸法
 62
     0
 48
50.0
370
    -2
100
AcDbBlockReference
  2
_DOTSMALL
 10
7197.349524198767
 20
6333.532916874855
 30
0.0
 41
100.0
 42
100.0
 43
100.0
  0
POINT
  5
1A619
330
163A9
100
AcDbEntity
  8
DEFPOINTS
 62
     0
 48
50.0
100
AcDbPoint
 10
7245.349524198771
 20
6893.963687641019
 30
0.0
  0
POINT
  5
1A61A
330
163A9
100
AcDbEntity
  8
DEFPOINTS
 62
     0
 48
50.0
100
AcDbPoint
 10
7197.349524198767
 20
6867.963687641019
 30
0.0
  0
POINT
  5
1A61B
330
163A9
100
AcDbEntity
  8
DEFPOINTS
 62
     0
 48
50.0
100
AcDbPoint
 10
7197.349524198767
 20
6333.532916874855
 30
0.0
  0
ENDBLK
  5
1647E
330
163A9
100
AcDbEntity
  8
0
 48
50.0
100
AcDbBlockEnd
  0
BLOCK
  5
1647F
330
163B8
100
AcDbEntity
  8
0
 48
50.0
100
AcDbBlockBegin
  2
*D9
 70
     1
 10
0.0
 20
0.0
 30
0.0
  3
*D9
  1

  0
LINE
  5
1A677
330
163B8
100
AcDbEntity
  8
寸法
 62
     0
 48
50.0
370
    -2
100
AcDbLine
 10
10137.34952419875
 20
6847.963687641106
 30
0.0
 11
10137.34952419875
 21
6273.532916874854
 31
0.0
  0
LINE
  5
1A678
330
163B8
100
AcDbEntity
  8
寸法
 62
     0
 48
50.0
370
    -2
100
AcDbLine
 10
10089.34952419875
 20
6873.963687641019
 30
0.0
 11
10089.34952419875
 21
6273.532916874854
 31
0.0
  0
LINE
  5
1A679
330
163B8
100
AcDbEntity
  8
寸法
 62
     0
 48
50.0
370
    -2
100
AcDbLine
 10
10137.34952419875
 20
6333.532916874855
 30
0.0
 11
10237.34952419875
 21
6333.532916874855
 31
0.0
  0
LINE
  5
1A67A
330
163B8
100
AcDbEntity
  8
寸法
 62
     0
 48
50.0
370
    -2
100
AcDbLine
 10
10089.34952419875
 20
6333.532916874855
 30
0.0
 11
9989.349524198754
 21
6333.532916874855
 31
0.0
  0
MTEXT
  5
1A67B
330
163B8
100
AcDbEntity
  8
寸法
 62
     7
 48
50.0
100
AcDbMText
 10
9978.386626550005
 20
6433.532916874854
 30
0.0
 40
120.0
 41
0.0
 71
     5
 72
     1
  1
\A1;48
  7
STYLE1
 73
     1
 44
1.0
1001
ACAD
1000
MTEXTBEGIN
1070
    73
1070
     1
1070
    44
1040
1.0
1070
    74
1070
     0
1000
MTEXTEND
  0
LINE
  5
1A67C
330
163B8
100
AcDbEntity
  8
寸法
 62
     0
 48
50.0
370
    -2
100
AcDbLine
 10
10137.34952419875
 20
6333.532916874855
 30
0.0
 11
10089.34952419875
 21
6333.532916874855
 31
0.0
  0
INSERT
  5
1A67D
330
163B8
100
AcDbEntity
  8
寸法
 62
     0
 48
50.0
370
    -2
100
AcDbBlockReference
  2
_DOTSMALL
 10
10137.34952419875
 20
6333.532916874855
 30
0.0
 41
100.0
 42
100.0
 43
100.0
 50
180.0
  0
INSERT
  5
1A67E
330
163B8
100
AcDbEntity
  8
寸法
 62
     0
 48
50.0
370
    -2
100
AcDbBlockReference
  2
_DOTSMALL
 10
10089.34952419875
 20
6333.532916874855
 30
0.0
 41
100.0
 42
100.0
 43
100.0
  0
POINT
  5
1A67F
330
163B8
100
AcDbEntity
  8
DEFPOINTS
 62
     0
 48
50.0
100
AcDbPoint
 10
10137.34952419875
 20
6867.963687641107
 30
0.0
  0
POINT
  5
1A680
330
163B8
100
AcDbEntity
  8
DEFPOINTS
 62
     0
 48
50.0
100
AcDbPoint
 10
10089.34952419875
 20
6893.963687641019
 30
0.0
  0
POINT
  5
1A681
330
163B8
100
AcDbEntity
  8
DEFPOINTS
 62
     0
 48
50.0
100
AcDbPoint
 10
10089.34952419875
 20
6333.532916874855
 30
0.0
  0
ENDBLK
  5
1648C
330
163B8
100
AcDbEntity
  8
0
 48
50.0
100
AcDbBlockEnd
  0
BLOCK
  5
1648D
330
163C7
100
AcDbEntity
  8
0
 48
50.0
100
AcDbBlockBegin
  2
*D10
 70
     1
 10
0.0
 20
0.0
 30
0.0
  3
*D10
  1

  0
LINE
  5
1A682
330
163C7
100
AcDbEntity
  8
寸法
 62
     0
 48
50.0
370
    -2
100
AcDbLine
 10
10192.34952419875
 20
6847.963687641109
 30
0.0
 11
10192.34952419875
 21
6273.532916874855
 31
0.0
  0
LINE
  5
1A683
330
163C7
100
AcDbEntity
  8
寸法
 62
     0
 48
50.0
370
    -2
100
AcDbLine
 10
10137.34952419875
 20
6847.963687641106
 30
0.0
 11
10137.34952419875
 21
6273.532916874855
 31
0.0
  0
LINE
  5
1A684
330
163C7
100
AcDbEntity
  8
寸法
 62
     0
 48
50.0
370
    -2
100
AcDbLine
 10
10137.34952419875
 20
6333.532916874855
 30
0.0
 11
10037.34952419875
 21
6333.532916874855
 31
0.0
  0
LINE
  5
1A685
330
163C7
100
AcDbEntity
  8
寸法
 62
     0
 48
50.0
370
    -2
100
AcDbLine
 10
10192.34952419875
 20
6333.532916874855
 30
0.0
 11
10609.32008694723
 21
6333.532916874855
 31
0.0
  0
LINE
  5
1A686
330
163C7
100
AcDbEntity
  8
寸法
 62
     0
 48
50.0
370
    -2
100
AcDbLine
 10
10137.34952419875
 20
6333.532916874855
 30
0.0
 11
10192.34952419875
 21
6333.532916874855
 31
0.0
  0
INSERT
  5
1A687
330
163C7
100
AcDbEntity
  8
寸法
 62
     0
 48
50.0
370
    -2
100
AcDbBlockReference
  2
_DOTSMALL
 10
10137.34952419875
 20
6333.532916874855
 30
0.0
 41
100.0
 42
100.0
 43
100.0
  0
INSERT
  5
1A688
330
163C7
100
AcDbEntity
  8
寸法
 62
     0
 48
50.0
370
    -2
100
AcDbBlockReference
  2
_DOTSMALL
 10
10192.34952419875
 20
6333.532916874855
 30
0.0
 41
100.0
 42
100.0
 43
100.0
 50
180.0
  0
MTEXT
  5
1A689
330
163C7
100
AcDbEntity
  8
寸法
 62
     7
 48
50.0
100
AcDbMText
 10
10500.83480557299
 20
6433.532916874854
 30
0.0
 40
120.0
 41
0.0
 71
     5
 72
     1
  1
\A1;55
  7
STYLE1
 73
     1
 44
1.0
1001
ACAD
1000
MTEXTBEGIN
1070
    73
1070
     1
1070
    44
1040
1.0
1070
    74
1070
     0
1000
MTEXTEND
  0
POINT
  5
1A68A
330
163C7
100
AcDbEntity
  8
DEFPOINTS
 62
     0
 48
50.0
100
AcDbPoint
 10
10192.34952419875
 20
6867.963687641109
 30
0.0
  0
POINT
  5
1A68B
330
163C7
100
AcDbEntity
  8
DEFPOINTS
 62
     0
 48
50.0
100
AcDbPoint
 10
10137.34952419875
 20
6867.963687641107
 30
0.0
  0
POINT
  5
1A68C
330
163C7
100
AcDbEntity
  8
DEFPOINTS
 62
     0
 48
50.0
100
AcDbPoint
 10
10137.34952419875
 20
6333.532916874855
 30
0.0
  0
ENDBLK
  5
16499
330
163C7
100
AcDbEntity
  8
0
 48
50.0
100
AcDbBlockEnd
  0
BLOCK
  5
18EE8
330
163E1
100
AcDbEntity
  8
0
 48
50.0
100
AcDbBlockBegin
  2
*D11
 70
     1
 10
0.0
 20
0.0
 30
0.0
  3
*D11
  1

  0
LINE
  5
1AE3A
330
163E1
100
AcDbEntity
  8
寸法
 62
     0
 48
50.0
370
    -2
100
AcDbLine
 10
7197.349524198777
 20
9937.963687641023
 30
0.0
 11
7197.349524198777
 21
10358.5379167915
 31
0.0
  0
LINE
  5
1AE3B
330
163E1
100
AcDbEntity
  8
寸法
 62
     0
 48
50.0
370
    -2
100
AcDbLine
 10
10137.34952419878
 20
9937.963687641117
 30
0.0
 11
10137.34952419878
 21
10358.5379167915
 31
0.0
  0
LINE
  5
1AE3C
330
163E1
100
AcDbEntity
  8
寸法
 62
     0
 48
50.0
370
    -2
100
AcDbLine
 10
7197.349524198777
 20
10298.5379167915
 30
0.0
 11
10137.34952419878
 21
10298.5379167915
 31
0.0
  0
INSERT
  5
1AE3D
330
163E1
100
AcDbEntity
  8
寸法
 62
     0
 48
50.0
370
    -2
100
AcDbBlockReference
  2
_DOTSMALL
 10
7197.349524198777
 20
10298.5379167915
 30
0.0
 41
100.0
 42
100.0
 43
100.0
 50
180.0
  0
INSERT
  5
1AE3E
330
163E1
100
AcDbEntity
  8
寸法
 62
     0
 48
50.0
370
    -2
100
AcDbBlockReference
  2
_DOTSMALL
 10
10137.34952419878
 20
10298.5379167915
 30
0.0
 41
100.0
 42
100.0
 43
100.0
  0
MTEXT
  5
1AE3F
330
163E1
100
AcDbEntity
  8
寸法
 62
     7
 48
50.0
100
AcDbMText
 10
8667.349524198778
 20
10398.54972781512
 30
0.0
 40
120.0
 41
0.0
 71
     5
 72
     1
  1
\A1;7X420=2940
  7
STYLE1
 73
     1
 44
1.0
1001
ACAD
1000
MTEXTBEGIN
1070
    73
1070
     1
1070
    44
1040
1.0
1070
    74
1070
     0
1000
MTEXTEND
  0
POINT
  5
1AE40
330
163E1
100
AcDbEntity
  8
DEFPOINTS
 62
     0
 48
50.0
100
AcDbPoint
 10
7197.349524198777
 20
9917.963687641023
 30
0.0
  0
POINT
  5
1AE41
330
163E1
100
AcDbEntity
  8
DEFPOINTS
 62
     0
 48
50.0
100
AcDbPoint
 10
10137.34952419878
 20
9917.963687641117
 30
0.0
  0
POINT
  5
1AE42
330
163E1
100
AcDbEntity
  8
DEFPOINTS
 62
     0
 48
50.0
100
AcDbPoint
 10
10137.34952419878
 20
10298.5379167915
 30
0.0
  0
ENDBLK
  5
18EF2
330
163E1
100
AcDbEntity
  8
0
 48
50.0
100
AcDbBlockEnd
  0
BLOCK
  5
18F09
330
163ED
100
AcDbEntity
  8
0
 48
50.0
100
AcDbBlockBegin
  2
*D12
 70
     1
 10
0.0
 20
0.0
 30
0.0
  3
*D12
  1

  0
LINE
  5
1AE1B
330
163ED
100
AcDbEntity
  8
寸法
 62
     0
 48
50.0
370
    -2
100
AcDbLine
 10
1042.349524198744
 20
9937.963687641023
 30
0.0
 11
1042.349524198744
 21
10358.53791679138
 31
0.0
  0
LINE
  5
1AE1C
330
163ED
100
AcDbEntity
  8
寸法
 62
     0
 48
50.0
370
    -2
100
AcDbLine
 10
1097.349524198778
 20
9937.963687641023
 30
0.0
 11
1097.349524198778
 21
10358.53791679138
 31
0.0
  0
LINE
  5
1AE1D
330
163ED
100
AcDbEntity
  8
寸法
 62
     0
 48
50.0
370
    -2
100
AcDbLine
 10
1097.349524198778
 20
10298.53791679138
 30
0.0
 11
1197.349524198778
 21
10298.53791679138
 31
0.0
  0
LINE
  5
1AE1E
330
163ED
100
AcDbEntity
  8
寸法
 62
     0
 48
50.0
370
    -2
100
AcDbLine
 10
1042.349524198744
 20
10298.53791679138
 30
0.0
 11
625.3789614502667
 21
10298.53791679138
 31
0.0
  0
LINE
  5
1AE1F
330
163ED
100
AcDbEntity
  8
寸法
 62
     0
 48
50.0
370
    -2
100
AcDbLine
 10
1097.349524198778
 20
10298.53791679138
 30
0.0
 11
1042.349524198744
 21
10298.53791679138
 31
0.0
  0
INSERT
  5
1AE20
330
163ED
100
AcDbEntity
  8
寸法
 62
     0
 48
50.0
370
    -2
100
AcDbBlockReference
  2
_DOTSMALL
 10
1097.349524198778
 20
10298.53791679138
 30
0.0
 41
100.0
 42
100.0
 43
100.0
 50
180.0
  0
INSERT
  5
1AE21
330
163ED
100
AcDbEntity
  8
寸法
 62
     0
 48
50.0
370
    -2
100
AcDbBlockReference
  2
_DOTSMALL
 10
1042.349524198744
 20
10298.53791679138
 30
0.0
 41
100.0
 42
100.0
 43
100.0
  0
MTEXT
  5
1AE22
330
163ED
100
AcDbEntity
  8
寸法
 62
     7
 48
50.0
100
AcDbMText
 10
733.8642428245052
 20
10398.53791679138
 30
0.0
 40
120.0
 41
0.0
 71
     5
 72
     1
  1
\A1;55
  7
STYLE1
 73
     1
 44
1.0
1001
ACAD
1000
MTEXTBEGIN
1070
    73
1070
     1
1070
    44
1040
1.0
1070
    74
1070
     0
1000
MTEXTEND
  0
POINT
  5
1AE23
330
163ED
100
AcDbEntity
  8
DEFPOINTS
 62
     0
 48
50.0
100
AcDbPoint
 10
1042.349524198744
 20
9917.963687641023
 30
0.0
  0
POINT
  5
1AE24
330
163ED
100
AcDbEntity
  8
DEFPOINTS
 62
     0
 48
50.0
100
AcDbPoint
 10
1097.349524198778
 20
9917.963687641023
 30
0.0
  0
POINT
  5
1AE25
330
163ED
100
AcDbEntity
  8
DEFPOINTS
 62
     0
 48
50.0
100
AcDbPoint
 10
1097.349524198778
 20
10298.53791679138
 30
0.0
  0
ENDBLK
  5
18F15
330
163ED
100
AcDbEntity
  8
0
 48
50.0
100
AcDbBlockEnd
  0
BLOCK
  5
18F46
330
163FB
100
AcDbEntity
  8
0
 48
50.0
100
AcDbBlockBegin
  2
*D13
 70
     1
 10
0.0
 20
0.0
 30
0.0
  3
*D13
  1

  0
LINE
  5
1AE4E
330
163FB
100
AcDbEntity
  8
寸法
 62
     0
 48
50.0
370
    -2
100
AcDbLine
 10
10137.34952419878
 20
9937.963687641117
 30
0.0
 11
10137.34952419878
 21
10358.53791679148
 31
0.0
  0
LINE
  5
1AE4F
330
163FB
100
AcDbEntity
  8
寸法
 62
     0
 48
50.0
370
    -2
100
AcDbLine
 10
10192.34952419878
 20
9937.963687641117
 30
0.0
 11
10192.34952419878
 21
10358.53791679148
 31
0.0
  0
LINE
  5
1AE50
330
163FB
100
AcDbEntity
  8
寸法
 62
     0
 48
50.0
370
    -2
100
AcDbLine
 10
10137.34952419878
 20
10298.53791679148
 30
0.0
 11
10037.34952419878
 21
10298.53791679148
 31
0.0
  0
LINE
  5
1AE51
330
163FB
100
AcDbEntity
  8
寸法
 62
     0
 48
50.0
370
    -2
100
AcDbLine
 10
10192.34952419878
 20
10298.53791679148
 30
0.0
 11
10609.32008694725
 21
10298.53791679148
 31
0.0
  0
LINE
  5
1AE52
330
163FB
100
AcDbEntity
  8
寸法
 62
     0
 48
50.0
370
    -2
100
AcDbLine
 10
10137.34952419878
 20
10298.53791679148
 30
0.0
 11
10192.34952419878
 21
10298.53791679148
 31
0.0
  0
INSERT
  5
1AE53
330
163FB
100
AcDbEntity
  8
寸法
 62
     0
 48
50.0
370
    -2
100
AcDbBlockReference
  2
_DOTSMALL
 10
10137.34952419878
 20
10298.53791679148
 30
0.0
 41
100.0
 42
100.0
 43
100.0
  0
INSERT
  5
1AE54
330
163FB
100
AcDbEntity
  8
寸法
 62
     0
 48
50.0
370
    -2
100
AcDbBlockReference
  2
_DOTSMALL
 10
10192.34952419878
 20
10298.53791679148
 30
0.0
 41
100.0
 42
100.0
 43
100.0
 50
180.0
  0
MTEXT
  5
1AE55
330
163FB
100
AcDbEntity
  8
寸法
 62
     7
 48
50.0
100
AcDbMText
 10
10500.83480557301
 20
10398.53791679148
 30
0.0
 40
120.0
 41
0.0
 71
     5
 72
     1
  1
\A1;55
  7
STYLE1
 73
     1
 44
1.0
1001
ACAD
1000
MTEXTBEGIN
1070
    73
1070
     1
1070
    44
1040
1.0
1070
    74
1070
     0
1000
MTEXTEND
  0
POINT
  5
1AE56
330
163FB
100
AcDbEntity
  8
DEFPOINTS
 62
     0
 48
50.0
100
AcDbPoint
 10
10137.34952419878
 20
9917.963687641117
 30
0.0
  0
POINT
  5
1AE57
330
163FB
100
AcDbEntity
  8
DEFPOINTS
 62
     0
 48
50.0
100
AcDbPoint
 10
10192.34952419878
 20
9917.963687641117
 30
0.0
  0
POINT
  5
1AE58
330
163FB
100
AcDbEntity
  8
DEFPOINTS
 62
     0
 48
50.0
100
AcDbPoint
 10
10192.34952419878
 20
10298.53791679148
 30
0.0
  0
ENDBLK
  5
18F52
330
163FB
100
AcDbEntity
  8
0
 48
50.0
100
AcDbBlockEnd
  0
BLOCK
  5
165B6
330
165B5
100
AcDbEntity
  8
0
 48
50.0
100
AcDbBlockBegin
  2
*D14
 70
     1
 10
0.0
 20
0.0
 30
0.0
  3
*D14
  1

  0
LINE
  5
1A5DC
330
165B5
100
AcDbEntity
  8
寸法
 62
     0
 48
50.0
370
    -2
100
AcDbLine
 10
1145.349524198771
 20
6873.963687641019
 30
0.0
 11
1145.349524198771
 21
6273.532916874854
 31
0.0
  0
LINE
  5
1A5DD
330
165B5
100
AcDbEntity
  8
寸法
 62
     0
 48
50.0
370
    -2
100
AcDbLine
 10
1097.349524198767
 20
6847.963687641018
 30
0.0
 11
1097.349524198767
 21
6273.532916874854
 31
0.0
  0
LINE
  5
1A5DE
330
165B5
100
AcDbEntity
  8
寸法
 62
     0
 48
50.0
370
    -2
100
AcDbLine
 10
1145.349524198771
 20
6333.532916874855
 30
0.0
 11
1245.349524198771
 21
6333.532916874855
 31
0.0
  0
LINE
  5
1A5DF
330
165B5
100
AcDbEntity
  8
寸法
 62
     0
 48
50.0
370
    -2
100
AcDbLine
 10
1097.349524198767
 20
6333.532916874855
 30
0.0
 11
997.3495241987675
 21
6333.532916874855
 31
0.0
  0
MTEXT
  5
1A5E0
330
165B5
100
AcDbEntity
  8
寸法
 62
     7
 48
50.0
100
AcDbMText
 10
1258.251495198829
 20
6433.532916874854
 30
0.0
 40
120.0
 41
0.0
 71
     5
 72
     1
  1
\A1;48
  7
STYLE1
 73
     1
 44
1.0
1001
ACAD
1000
MTEXTBEGIN
1070
    73
1070
     1
1070
    44
1040
1.0
1070
    74
1070
     0
1000
MTEXTEND
  0
LINE
  5
1A5E1
330
165B5
100
AcDbEntity
  8
寸法
 62
     0
 48
50.0
370
    -2
100
AcDbLine
 10
1145.349524198771
 20
6333.532916874855
 30
0.0
 11
1097.349524198767
 21
6333.532916874855
 31
0.0
  0
INSERT
  5
1A5E2
330
165B5
100
AcDbEntity
  8
寸法
 62
     0
 48
50.0
370
    -2
100
AcDbBlockReference
  2
_DOTSMALL
 10
1145.349524198771
 20
6333.532916874855
 30
0.0
 41
100.0
 42
100.0
 43
100.0
 50
180.0
  0
INSERT
  5
1A5E3
330
165B5
100
AcDbEntity
  8
寸法
 62
     0
 48
50.0
370
    -2
100
AcDbBlockReference
  2
_DOTSMALL
 10
1097.349524198767
 20
6333.532916874855
 30
0.0
 41
100.0
 42
100.0
 43
100.0
  0
POINT
  5
1A5E4
330
165B5
100
AcDbEntity
  8
DEFPOINTS
 62
     0
 48
50.0
100
AcDbPoint
 10
1145.349524198771
 20
6893.963687641019
 30
0.0
  0
POINT
  5
1A5E5
330
165B5
100
AcDbEntity
  8
DEFPOINTS
 62
     0
 48
50.0
100
AcDbPoint
 10
1097.349524198767
 20
6867.963687641019
 30
0.0
  0
POINT
  5
1A5E6
330
165B5
100
AcDbEntity
  8
DEFPOINTS
 62
     0
 48
50.0
100
AcDbPoint
 10
1097.349524198767
 20
6333.532916874855
 30
0.0
  0
ENDBLK
  5
165C3
330
165B5
100
AcDbEntity
  8
0
 48
50.0
100
AcDbBlockEnd
  0
BLOCK
  5
165C5
330
165C4
100
AcDbEntity
  8
0
 48
50.0
100
AcDbBlockBegin
  2
*D15
 70
     1
 10
0.0
 20
0.0
 30
0.0
  3
*D15
  1

  0
LINE
  5
1A61C
330
165C4
100
AcDbEntity
  8
寸法
 62
     0
 48
50.0
370
    -2
100
AcDbLine
 10
7087.349524198756
 20
6847.963687641106
 30
0.0
 11
7087.349524198756
 21
6273.532916874854
 31
0.0
  0
LINE
  5
1A61D
330
165C4
100
AcDbEntity
  8
寸法
 62
     0
 48
50.0
370
    -2
100
AcDbLine
 10
7039.349524198754
 20
6873.963687641019
 30
0.0
 11
7039.349524198754
 21
6273.532916874854
 31
0.0
  0
LINE
  5
1A61E
330
165C4
100
AcDbEntity
  8
寸法
 62
     0
 48
50.0
370
    -2
100
AcDbLine
 10
7087.349524198756
 20
6333.532916874855
 30
0.0
 11
7187.349524198755
 21
6333.532916874855
 31
0.0
  0
LINE
  5
1A61F
330
165C4
100
AcDbEntity
  8
寸法
 62
     0
 48
50.0
370
    -2
100
AcDbLine
 10
7039.349524198754
 20
6333.532916874855
 30
0.0
 11
6939.349524198753
 21
6333.532916874855
 31
0.0
  0
MTEXT
  5
1A620
330
165C4
100
AcDbEntity
  8
寸法
 62
     7
 48
50.0
100
AcDbMText
 10
6928.386626550005
 20
6433.532916874854
 30
0.0
 40
120.0
 41
0.0
 71
     5
 72
     1
  1
\A1;48
  7
STYLE1
 73
     1
 44
1.0
1001
ACAD
1000
MTEXTBEGIN
1070
    73
1070
     1
1070
    44
1040
1.0
1070
    74
1070
     0
1000
MTEXTEND
  0
LINE
  5
1A621
330
165C4
100
AcDbEntity
  8
寸法
 62
     0
 48
50.0
370
    -2
100
AcDbLine
 10
7087.349524198756
 20
6333.532916874855
 30
0.0
 11
7039.349524198754
 21
6333.532916874855
 31
0.0
  0
INSERT
  5
1A622
330
165C4
100
AcDbEntity
  8
寸法
 62
     0
 48
50.0
370
    -2
100
AcDbBlockReference
  2
_DOTSMALL
 10
7087.349524198756
 20
6333.532916874855
 30
0.0
 41
100.0
 42
100.0
 43
100.0
 50
180.0
  0
INSERT
  5
1A623
330
165C4
100
AcDbEntity
  8
寸法
 62
     0
 48
50.0
370
    -2
100
AcDbBlockReference
  2
_DOTSMALL
 10
7039.349524198754
 20
6333.532916874855
 30
0.0
 41
100.0
 42
100.0
 43
100.0
  0
POINT
  5
1A624
330
165C4
100
AcDbEntity
  8
DEFPOINTS
 62
     0
 48
50.0
100
AcDbPoint
 10
7087.349524198756
 20
6867.963687641107
 30
0.0
  0
POINT
  5
1A625
330
165C4
100
AcDbEntity
  8
DEFPOINTS
 62
     0
 48
50.0
100
AcDbPoint
 10
7039.349524198754
 20
6893.963687641019
 30
0.0
  0
POINT
  5
1A626
330
165C4
100
AcDbEntity
  8
DEFPOINTS
 62
     0
 48
50.0
100
AcDbPoint
 10
7039.349524198754
 20
6333.532916874855
 30
0.0
  0
ENDBLK
  5
165D2
330
165C4
100
AcDbEntity
  8
0
 48
50.0
100
AcDbBlockEnd
  0
BLOCK
  5
1663F
330
165EA
100
AcDbEntity
  8
0
 48
50.0
100
AcDbBlockBegin
  2
*D16
 70
     1
 10
0.0
 20
0.0
 30
0.0
  3
*D16
  1

  0
LINE
  5
1A627
330
165EA
100
AcDbEntity
  8
寸法
 62
     0
 48
50.0
370
    -2
100
AcDbLine
 10
7197.349524198767
 20
6847.963687641018
 30
0.0
 11
7197.349524198767
 21
6273.532916874855
 31
0.0
  0
LINE
  5
1A628
330
165EA
100
AcDbEntity
  8
寸法
 62
     0
 48
50.0
370
    -2
100
AcDbLine
 10
7087.349524198756
 20
6847.963687641106
 30
0.0
 11
7087.349524198756
 21
6273.532916874855
 31
0.0
  0
LINE
  5
1A629
330
165EA
100
AcDbEntity
  8
寸法
 62
     0
 48
50.0
370
    -2
100
AcDbLine
 10
7197.349524198767
 20
6333.532916874855
 30
0.0
 11
7087.349524198756
 21
6333.532916874855
 31
0.0
  0
MTEXT
  5
1A62A
330
165EA
100
AcDbEntity
  8
寸法
 62
     7
 48
50.0
100
AcDbMText
 10
7142.349524198761
 20
6181.841021838623
 30
0.0
 40
120.0
 41
0.0
 71
     5
 72
     1
  1
\A1;110
  7
STYLE1
 73
     1
 44
1.0
1001
ACAD
1000
MTEXTBEGIN
1070
    73
1070
     1
1070
    44
1040
1.0
1070
    74
1070
     0
1000
MTEXTEND
  0
INSERT
  5
1A62B
330
165EA
100
AcDbEntity
  8
寸法
 62
     0
 48
50.0
370
    -2
100
AcDbBlockReference
  2
_DOTSMALL
 10
7197.349524198767
 20
6333.532916874855
 30
0.0
 41
100.0
 42
100.0
 43
100.0
  0
INSERT
  5
1A62C
330
165EA
100
AcDbEntity
  8
寸法
 62
     0
 48
50.0
370
    -2
100
AcDbBlockReference
  2
_DOTSMALL
 10
7087.349524198756
 20
6333.532916874855
 30
0.0
 41
100.0
 42
100.0
 43
100.0
 50
180.0
  0
POINT
  5
1A62D
330
165EA
100
AcDbEntity
  8
DEFPOINTS
 62
     0
 48
50.0
100
AcDbPoint
 10
7197.349524198767
 20
6867.963687641019
 30
0.0
  0
POINT
  5
1A62E
330
165EA
100
AcDbEntity
  8
DEFPOINTS
 62
     0
 48
50.0
100
AcDbPoint
 10
7087.349524198756
 20
6867.963687641107
 30
0.0
  0
POINT
  5
1A62F
330
165EA
100
AcDbEntity
  8
DEFPOINTS
 62
     0
 48
50.0
100
AcDbPoint
 10
7087.349524198756
 20
6333.532916874855
 30
0.0
  0
ENDBLK
  5
16649
330
165EA
100
AcDbEntity
  8
0
 48
50.0
100
AcDbBlockEnd
  0
BLOCK
  5
18F39
330
166CF
100
AcDbEntity
  8
0
 48
50.0
100
AcDbBlockBegin
  2
*D17
 70
     1
 10
0.0
 20
0.0
 30
0.0
  3
*D17
  1

  0
LINE
  5
1AE43
330
166CF
100
AcDbEntity
  8
寸法
 62
     0
 48
50.0
370
    -2
100
AcDbLine
 10
7197.349524198777
 20
9937.963687641072
 30
0.0
 11
7197.349524198777
 21
10358.5379167915
 31
0.0
  0
LINE
  5
1AE44
330
166CF
100
AcDbEntity
  8
寸法
 62
     0
 48
50.0
370
    -2
100
AcDbLine
 10
7087.349524198778
 20
9937.963687641069
 30
0.0
 11
7087.349524198778
 21
10358.5379167915
 31
0.0
  0
LINE
  5
1AE45
330
166CF
100
AcDbEntity
  8
寸法
 62
     0
 48
50.0
370
    -2
100
AcDbLine
 10
7197.349524198777
 20
10298.5379167915
 30
0.0
 11
7297.349524198778
 21
10298.5379167915
 31
0.0
  0
LINE
  5
1AE46
330
166CF
100
AcDbEntity
  8
寸法
 62
     0
 48
50.0
370
    -2
100
AcDbLine
 10
7087.349524198778
 20
10298.5379167915
 30
0.0
 11
6987.349524198778
 21
10298.5379167915
 31
0.0
  0
LINE
  5
1AE47
330
166CF
100
AcDbEntity
  8
寸法
 62
     0
 48
50.0
370
    -2
100
AcDbLine
 10
7197.349524198777
 20
10298.5379167915
 30
0.0
 11
7087.349524198778
 21
10298.5379167915
 31
0.0
  0
INSERT
  5
1AE48
330
166CF
100
AcDbEntity
  8
寸法
 62
     0
 48
50.0
370
    -2
100
AcDbBlockReference
  2
_DOTSMALL
 10
7197.349524198777
 20
10298.5379167915
 30
0.0
 41
100.0
 42
100.0
 43
100.0
 50
180.0
  0
INSERT
  5
1AE49
330
166CF
100
AcDbEntity
  8
寸法
 62
     0
 48
50.0
370
    -2
100
AcDbBlockReference
  2
_DOTSMALL
 10
7087.349524198778
 20
10298.5379167915
 30
0.0
 41
100.0
 42
100.0
 43
100.0
  0
MTEXT
  5
1AE4A
330
166CF
100
AcDbEntity
  8
寸法
 62
     7
 48
50.0
100
AcDbMText
 10
7142.349524198777
 20
10398.5379167915
 30
0.0
 40
120.0
 41
0.0
 71
     5
 72
     1
  1
\A1;110
  7
STYLE1
 73
     1
 44
1.0
1001
ACAD
1000
MTEXTBEGIN
1070
    73
1070
     1
1070
    44
1040
1.0
1070
    74
1070
     0
1000
MTEXTEND
  0
POINT
  5
1AE4B
330
166CF
100
AcDbEntity
  8
DEFPOINTS
 62
     0
 48
50.0
100
AcDbPoint
 10
7197.349524198777
 20
9917.963687641071
 30
0.0
  0
POINT
  5
1AE4C
330
166CF
100
AcDbEntity
  8
DEFPOINTS
 62
     0
 48
50.0
100
AcDbPoint
 10
7087.349524198778
 20
9917.963687641069
 30
0.0
  0
POINT
  5
1AE4D
330
166CF
100
AcDbEntity
  8
DEFPOINTS
 62
     0
 48
50.0
100
AcDbPoint
 10
7087.349524198778
 20
10298.5379167915
 30
0.0
  0
ENDBLK
  5
18F45
330
166CF
100
AcDbEntity
  8
0
 48
50.0
100
AcDbBlockEnd
  0
BLOCK
  5
192E8
330
16908
100
AcDbEntity
  8
0
 48
50.0
100
AcDbBlockBegin
  2
*D18
 70
     1
 10
0.0
 20
0.0
 30
0.0
  3
*D18
  1

  0
LINE
  5
1AE31
330
16908
100
AcDbEntity
  8
寸法
 62
     0
 48
50.0
370
    -2
100
AcDbLine
 10
7142.349524198777
 20
10478.5379167915
 30
0.0
 11
7142.349524198777
 21
10607.85939034779
 31
0.0
  0
LINE
  5
1AE32
330
16908
100
AcDbEntity
  8
寸法
 62
     0
 48
50.0
370
    -2
100
AcDbLine
 10
10192.34952419878
 20
9937.963687641117
 30
0.0
 11
10192.34952419878
 21
10607.85939034779
 31
0.0
  0
LINE
  5
1AE33
330
16908
100
AcDbEntity
  8
寸法
 62
     0
 48
50.0
370
    -2
100
AcDbLine
 10
7142.349524198777
 20
10547.85939034779
 30
0.0
 11
10192.34952419878
 21
10547.85939034779
 31
0.0
  0
INSERT
  5
1AE34
330
16908
100
AcDbEntity
  8
寸法
 62
     0
 48
50.0
370
    -2
100
AcDbBlockReference
  2
_DOTSMALL
 10
7142.349524198777
 20
10547.85939034779
 30
0.0
 41
100.0
 42
100.0
 43
100.0
 50
180.0
  0
INSERT
  5
1AE35
330
16908
100
AcDbEntity
  8
寸法
 62
     0
 48
50.0
370
    -2
100
AcDbBlockReference
  2
_DOTSMALL
 10
10192.34952419878
 20
10547.85939034779
 30
0.0
 41
100.0
 42
100.0
 43
100.0
  0
MTEXT
  5
1AE36
330
16908
100
AcDbEntity
  8
寸法
 62
     7
 48
50.0
100
AcDbMText
 10
8667.349524198778
 20
10647.85939034779
 30
0.0
 40
120.0
 41
0.0
 71
     5
 72
     1
  1
\A1;3050
  7
STYLE1
 73
     1
 44
1.0
1001
ACAD
1000
MTEXTBEGIN
1070
    73
1070
     1
1070
    44
1040
1.0
1070
    74
1070
     0
1000
MTEXTEND
  0
POINT
  5
1AE37
330
16908
100
AcDbEntity
  8
DEFPOINTS
 62
     0
 48
50.0
100
AcDbPoint
 10
7142.349524198777
 20
10458.5379167915
 30
0.0
  0
POINT
  5
1AE38
330
16908
100
AcDbEntity
  8
DEFPOINTS
 62
     0
 48
50.0
100
AcDbPoint
 10
10192.34952419878
 20
9917.963687641117
 30
0.0
  0
POINT
  5
1AE39
330
16908
100
AcDbEntity
  8
DEFPOINTS
 62
     0
 48
50.0
100
AcDbPoint
 10
10192.34952419878
 20
10547.85939034779
 30
0.0
  0
ENDBLK
  5
192F2
330
16908
100
AcDbEntity
  8
0
 48
50.0
100
AcDbBlockEnd
  0
BLOCK
  5
183F9
330
183F8
100
AcDbEntity
  8
0
 48
50.0
100
AcDbBlockBegin
  2
*D19
 70
     1
 10
0.0
 20
0.0
 30
0.0
  3
*D19
  1

  0
LINE
  5
1A606
330
183F8
100
AcDbEntity
  8
寸法
 62
     0
 48
50.0
370
    -2
100
AcDbLine
 10
4195.34952419877
 20
6873.963687641019
 30
0.0
 11
4195.34952419877
 21
6273.532916874854
 31
0.0
  0
LINE
  5
1A607
330
183F8
100
AcDbEntity
  8
寸法
 62
     0
 48
50.0
370
    -2
100
AcDbLine
 10
4147.349524198768
 20
6847.963687641018
 30
0.0
 11
4147.349524198768
 21
6273.532916874854
 31
0.0
  0
LINE
  5
1A608
330
183F8
100
AcDbEntity
  8
寸法
 62
     0
 48
50.0
370
    -2
100
AcDbLine
 10
4195.34952419877
 20
6333.532916874855
 30
0.0
 11
4295.349524198771
 21
6333.532916874855
 31
0.0
  0
LINE
  5
1A609
330
183F8
100
AcDbEntity
  8
寸法
 62
     0
 48
50.0
370
    -2
100
AcDbLine
 10
4147.349524198768
 20
6333.532916874855
 30
0.0
 11
4047.349524198767
 21
6333.532916874855
 31
0.0
  0
MTEXT
  5
1A60A
330
183F8
100
AcDbEntity
  8
寸法
 62
     7
 48
50.0
100
AcDbMText
 10
4308.251495198828
 20
6433.532916874854
 30
0.0
 40
120.0
 41
0.0
 71
     5
 72
     1
  1
\A1;48
  7
STYLE1
 73
     1
 44
1.0
1001
ACAD
1000
MTEXTBEGIN
1070
    73
1070
     1
1070
    44
1040
1.0
1070
    74
1070
     0
1000
MTEXTEND
  0
LINE
  5
1A60B
330
183F8
100
AcDbEntity
  8
寸法
 62
     0
 48
50.0
370
    -2
100
AcDbLine
 10
4195.34952419877
 20
6333.532916874855
 30
0.0
 11
4147.349524198768
 21
6333.532916874855
 31
0.0
  0
INSERT
  5
1A60C
330
183F8
100
AcDbEntity
  8
寸法
 62
     0
 48
50.0
370
    -2
100
AcDbBlockReference
  2
_DOTSMALL
 10
4195.34952419877
 20
6333.532916874855
 30
0.0
 41
100.0
 42
100.0
 43
100.0
 50
180.0
  0
INSERT
  5
1A60D
330
183F8
100
AcDbEntity
  8
寸法
 62
     0
 48
50.0
370
    -2
100
AcDbBlockReference
  2
_DOTSMALL
 10
4147.349524198768
 20
6333.532916874855
 30
0.0
 41
100.0
 42
100.0
 43
100.0
  0
POINT
  5
1A60E
330
183F8
100
AcDbEntity
  8
DEFPOINTS
 62
     0
 48
50.0
100
AcDbPoint
 10
4195.34952419877
 20
6893.963687641019
 30
0.0
  0
POINT
  5
1A60F
330
183F8
100
AcDbEntity
  8
DEFPOINTS
 62
     0
 48
50.0
100
AcDbPoint
 10
4147.349524198768
 20
6867.963687641019
 30
0.0
  0
POINT
  5
1A610
330
183F8
100
AcDbEntity
  8
DEFPOINTS
 62
     0
 48
50.0
100
AcDbPoint
 10
4147.349524198768
 20
6333.532916874855
 30
0.0
  0
ENDBLK
  5
18406
330
183F8
100
AcDbEntity
  8
0
 48
50.0
100
AcDbBlockEnd
  0
BLOCK
  5
18408
330
18407
100
AcDbEntity
  8
0
 48
50.0
100
AcDbBlockBegin
  2
*D20
 70
     1
 10
0.0
 20
0.0
 30
0.0
  3
*D20
  1

  0
LINE
  5
1A5FB
330
18407
100
AcDbEntity
  8
寸法
 62
     0
 48
50.0
370
    -2
100
AcDbLine
 10
4037.349524198755
 20
6847.963687641106
 30
0.0
 11
4037.349524198755
 21
6273.532916874854
 31
0.0
  0
LINE
  5
1A5FC
330
18407
100
AcDbEntity
  8
寸法
 62
     0
 48
50.0
370
    -2
100
AcDbLine
 10
3989.349524198753
 20
6873.963687641019
 30
0.0
 11
3989.349524198753
 21
6273.532916874854
 31
0.0
  0
LINE
  5
1A5FD
330
18407
100
AcDbEntity
  8
寸法
 62
     0
 48
50.0
370
    -2
100
AcDbLine
 10
4037.349524198755
 20
6333.532916874855
 30
0.0
 11
4137.349524198755
 21
6333.532916874855
 31
0.0
  0
LINE
  5
1A5FE
330
18407
100
AcDbEntity
  8
寸法
 62
     0
 48
50.0
370
    -2
100
AcDbLine
 10
3989.349524198753
 20
6333.532916874855
 30
0.0
 11
3889.349524198753
 21
6333.532916874855
 31
0.0
  0
MTEXT
  5
1A5FF
330
18407
100
AcDbEntity
  8
寸法
 62
     7
 48
50.0
100
AcDbMText
 10
3878.386626550006
 20
6433.532916874854
 30
0.0
 40
120.0
 41
0.0
 71
     5
 72
     1
  1
\A1;48
  7
STYLE1
 73
     1
 44
1.0
1001
ACAD
1000
MTEXTBEGIN
1070
    73
1070
     1
1070
    44
1040
1.0
1070
    74
1070
     0
1000
MTEXTEND
  0
LINE
  5
1A600
330
18407
100
AcDbEntity
  8
寸法
 62
     0
 48
50.0
370
    -2
100
AcDbLine
 10
4037.349524198755
 20
6333.532916874855
 30
0.0
 11
3989.349524198753
 21
6333.532916874855
 31
0.0
  0
INSERT
  5
1A601
330
18407
100
AcDbEntity
  8
寸法
 62
     0
 48
50.0
370
    -2
100
AcDbBlockReference
  2
_DOTSMALL
 10
4037.349524198755
 20
6333.532916874855
 30
0.0
 41
100.0
 42
100.0
 43
100.0
 50
180.0
  0
INSERT
  5
1A602
330
18407
100
AcDbEntity
  8
寸法
 62
     0
 48
50.0
370
    -2
100
AcDbBlockReference
  2
_DOTSMALL
 10
3989.349524198753
 20
6333.532916874855
 30
0.0
 41
100.0
 42
100.0
 43
100.0
  0
POINT
  5
1A603
330
18407
100
AcDbEntity
  8
DEFPOINTS
 62
     0
 48
50.0
100
AcDbPoint
 10
4037.349524198755
 20
6867.963687641107
 30
0.0
  0
POINT
  5
1A604
330
18407
100
AcDbEntity
  8
DEFPOINTS
 62
     0
 48
50.0
100
AcDbPoint
 10
3989.349524198753
 20
6893.963687641019
 30
0.0
  0
POINT
  5
1A605
330
18407
100
AcDbEntity
  8
DEFPOINTS
 62
     0
 48
50.0
100
AcDbPoint
 10
3989.349524198753
 20
6333.532916874855
 30
0.0
  0
ENDBLK
  5
18415
330
18407
100
AcDbEntity
  8
0
 48
50.0
100
AcDbBlockEnd
  0
BLOCK
  5
18417
330
18416
100
AcDbEntity
  8
0
 48
50.0
100
AcDbBlockBegin
  2
*D21
 70
     1
 10
0.0
 20
0.0
 30
0.0
  3
*D21
  1

  0
LINE
  5
1A5B7
330
18416
100
AcDbEntity
  8
寸法
 62
     0
 48
50.0
370
    -2
100
AcDbLine
 10
1145.349524198771
 20
6873.963687641019
 30
0.0
 11
1145.349524198771
 21
6273.532916874854
 31
0.0
  0
LINE
  5
1A5B8
330
18416
100
AcDbEntity
  8
寸法
 62
     0
 48
50.0
370
    -2
100
AcDbLine
 10
3989.349524198753
 20
6333.532916874855
 30
0.0
 11
1145.349524198771
 21
6333.532916874855
 31
0.0
  0
INSERT
  5
1A5B9
330
18416
100
AcDbEntity
  8
寸法
 62
     0
 48
50.0
370
    -2
100
AcDbBlockReference
  2
_DOTSMALL
 10
3989.349524198753
 20
6333.532916874855
 30
0.0
 41
100.0
 42
100.0
 43
100.0
  0
INSERT
  5
1A5BA
330
18416
100
AcDbEntity
  8
寸法
 62
     0
 48
50.0
370
    -2
100
AcDbBlockReference
  2
_DOTSMALL
 10
1145.349524198771
 20
6333.532916874855
 30
0.0
 41
100.0
 42
100.0
 43
100.0
 50
180.0
  0
MTEXT
  5
1A5BB
330
18416
100
AcDbEntity
  8
寸法
 62
     7
 48
50.0
100
AcDbMText
 10
2567.349524198762
 20
6433.544727898476
 30
0.0
 40
120.0
 41
0.0
 71
     5
 72
     1
  1
\A1;有効開口部間口 2844
  7
STYLE1
 73
     1
 44
1.0
1001
ACAD
1000
MTEXTBEGIN
1070
    73
1070
     1
1070
    44
1040
1.0
1070
    74
1070
     0
1000
MTEXTEND
  0
POINT
  5
1A5BC
330
18416
100
AcDbEntity
  8
DEFPOINTS
 62
     0
 48
50.0
100
AcDbPoint
 10
3989.349524198753
 20
6893.963687641019
 30
0.0
  0
POINT
  5
1A5BD
330
18416
100
AcDbEntity
  8
DEFPOINTS
 62
     0
 48
50.0
100
AcDbPoint
 10
1145.349524198771
 20
6893.963687641019
 30
0.0
  0
POINT
  5
1A5BE
330
18416
100
AcDbEntity
  8
DEFPOINTS
 62
     0
 48
50.0
100
AcDbPoint
 10
1145.349524198771
 20
6333.532916874855
 30
0.0
  0
ENDBLK
  5
18420
330
18416
100
AcDbEntity
  8
0
 48
50.0
100
AcDbBlockEnd
  0
BLOCK
  5
18422
330
18421
100
AcDbEntity
  8
0
 48
50.0
100
AcDbBlockBegin
  2
*D22
 70
     1
 10
0.0
 20
0.0
 30
0.0
  3
*D22
  1

  0
LINE
  5
1A5F2
330
18421
100
AcDbEntity
  8
寸法
 62
     0
 48
50.0
370
    -2
100
AcDbLine
 10
4147.349524198768
 20
6847.963687641018
 30
0.0
 11
4147.349524198768
 21
6273.532916874855
 31
0.0
  0
LINE
  5
1A5F3
330
18421
100
AcDbEntity
  8
寸法
 62
     0
 48
50.0
370
    -2
100
AcDbLine
 10
4037.349524198755
 20
6847.963687641106
 30
0.0
 11
4037.349524198755
 21
6273.532916874855
 31
0.0
  0
LINE
  5
1A5F4
330
18421
100
AcDbEntity
  8
寸法
 62
     0
 48
50.0
370
    -2
100
AcDbLine
 10
4147.349524198768
 20
6333.532916874855
 30
0.0
 11
4037.349524198755
 21
6333.532916874855
 31
0.0
  0
MTEXT
  5
1A5F5
330
18421
100
AcDbEntity
  8
寸法
 62
     7
 48
50.0
100
AcDbMText
 10
4092.349524198762
 20
6181.841021838623
 30
0.0
 40
120.0
 41
0.0
 71
     5
 72
     1
  1
\A1;110
  7
STYLE1
 73
     1
 44
1.0
1001
ACAD
1000
MTEXTBEGIN
1070
    73
1070
     1
1070
    44
1040
1.0
1070
    74
1070
     0
1000
MTEXTEND
  0
INSERT
  5
1A5F6
330
18421
100
AcDbEntity
  8
寸法
 62
     0
 48
50.0
370
    -2
100
AcDbBlockReference
  2
_DOTSMALL
 10
4147.349524198768
 20
6333.532916874855
 30
0.0
 41
100.0
 42
100.0
 43
100.0
  0
INSERT
  5
1A5F7
330
18421
100
AcDbEntity
  8
寸法
 62
     0
 48
50.0
370
    -2
100
AcDbBlockReference
  2
_DOTSMALL
 10
4037.349524198755
 20
6333.532916874855
 30
0.0
 41
100.0
 42
100.0
 43
100.0
 50
180.0
  0
POINT
  5
1A5F8
330
18421
100
AcDbEntity
  8
DEFPOINTS
 62
     0
 48
50.0
100
AcDbPoint
 10
4147.349524198768
 20
6867.963687641019
 30
0.0
  0
POINT
  5
1A5F9
330
18421
100
AcDbEntity
  8
DEFPOINTS
 62
     0
 48
50.0
100
AcDbPoint
 10
4037.349524198755
 20
6867.963687641107
 30
0.0
  0
POINT
  5
1A5FA
330
18421
100
AcDbEntity
  8
DEFPOINTS
 62
     0
 48
50.0
100
AcDbPoint
 10
4037.349524198755
 20
6333.532916874855
 30
0.0
  0
ENDBLK
  5
1842C
330
18421
100
AcDbEntity
  8
0
 48
50.0
100
AcDbBlockEnd
  0
BLOCK
  5
18EF3
330
18447
100
AcDbEntity
  8
0
 48
50.0
100
AcDbBlockBegin
  2
*D23
 70
     1
 10
0.0
 20
0.0
 30
0.0
  3
*D23
  1

  0
LINE
  5
1AE09
330
18447
100
AcDbEntity
  8
寸法
 62
     0
 48
50.0
370
    -2
100
AcDbLine
 10
1097.349524198778
 20
9937.963687641023
 30
0.0
 11
1097.349524198778
 21
10358.5379167915
 31
0.0
  0
LINE
  5
1AE0A
330
18447
100
AcDbEntity
  8
寸法
 62
     0
 48
50.0
370
    -2
100
AcDbLine
 10
4037.349524198778
 20
9937.963687641117
 30
0.0
 11
4037.349524198778
 21
10358.5379167915
 31
0.0
  0
LINE
  5
1AE0B
330
18447
100
AcDbEntity
  8
寸法
 62
     0
 48
50.0
370
    -2
100
AcDbLine
 10
1097.349524198778
 20
10298.5379167915
 30
0.0
 11
4037.349524198778
 21
10298.5379167915
 31
0.0
  0
INSERT
  5
1AE0C
330
18447
100
AcDbEntity
  8
寸法
 62
     0
 48
50.0
370
    -2
100
AcDbBlockReference
  2
_DOTSMALL
 10
1097.349524198778
 20
10298.5379167915
 30
0.0
 41
100.0
 42
100.0
 43
100.0
 50
180.0
  0
INSERT
  5
1AE0D
330
18447
100
AcDbEntity
  8
寸法
 62
     0
 48
50.0
370
    -2
100
AcDbBlockReference
  2
_DOTSMALL
 10
4037.349524198778
 20
10298.5379167915
 30
0.0
 41
100.0
 42
100.0
 43
100.0
  0
MTEXT
  5
1AE0E
330
18447
100
AcDbEntity
  8
寸法
 62
     7
 48
50.0
100
AcDbMText
 10
2567.349524198779
 20
10398.54972781512
 30
0.0
 40
120.0
 41
0.0
 71
     5
 72
     1
  1
\A1;7X420=2940
  7
STYLE1
 73
     1
 44
1.0
1001
ACAD
1000
MTEXTBEGIN
1070
    73
1070
     1
1070
    44
1040
1.0
1070
    74
1070
     0
1000
MTEXTEND
  0
POINT
  5
1AE0F
330
18447
100
AcDbEntity
  8
DEFPOINTS
 62
     0
 48
50.0
100
AcDbPoint
 10
1097.349524198778
 20
9917.963687641023
 30
0.0
  0
POINT
  5
1AE10
330
18447
100
AcDbEntity
  8
DEFPOINTS
 62
     0
 48
50.0
100
AcDbPoint
 10
4037.349524198778
 20
9917.963687641117
 30
0.0
  0
POINT
  5
1AE11
330
18447
100
AcDbEntity
  8
DEFPOINTS
 62
     0
 48
50.0
100
AcDbPoint
 10
4037.349524198778
 20
10298.5379167915
 30
0.0
  0
ENDBLK
  5
18EFD
330
18447
100
AcDbEntity
  8
0
 48
50.0
100
AcDbBlockEnd
  0
BLOCK
  5
18F2C
330
18453
100
AcDbEntity
  8
0
 48
50.0
100
AcDbBlockBegin
  2
*D24
 70
     1
 10
0.0
 20
0.0
 30
0.0
  3
*D24
  1

  0
LINE
  5
1AE26
330
18453
100
AcDbEntity
  8
寸法
 62
     0
 48
50.0
370
    -2
100
AcDbLine
 10
4147.349524198778
 20
9937.963687641072
 30
0.0
 11
4147.349524198778
 21
10358.5379167915
 31
0.0
  0
LINE
  5
1AE27
330
18453
100
AcDbEntity
  8
寸法
 62
     0
 48
50.0
370
    -2
100
AcDbLine
 10
4037.349524198778
 20
9937.963687641069
 30
0.0
 11
4037.349524198778
 21
10358.5379167915
 31
0.0
  0
LINE
  5
1AE28
330
18453
100
AcDbEntity
  8
寸法
 62
     0
 48
50.0
370
    -2
100
AcDbLine
 10
4147.349524198778
 20
10298.5379167915
 30
0.0
 11
4247.349524198778
 21
10298.5379167915
 31
0.0
  0
LINE
  5
1AE29
330
18453
100
AcDbEntity
  8
寸法
 62
     0
 48
50.0
370
    -2
100
AcDbLine
 10
4037.349524198778
 20
10298.5379167915
 30
0.0
 11
3937.349524198778
 21
10298.5379167915
 31
0.0
  0
LINE
  5
1AE2A
330
18453
100
AcDbEntity
  8
寸法
 62
     0
 48
50.0
370
    -2
100
AcDbLine
 10
4147.349524198778
 20
10298.5379167915
 30
0.0
 11
4037.349524198778
 21
10298.5379167915
 31
0.0
  0
INSERT
  5
1AE2B
330
18453
100
AcDbEntity
  8
寸法
 62
     0
 48
50.0
370
    -2
100
AcDbBlockReference
  2
_DOTSMALL
 10
4147.349524198778
 20
10298.5379167915
 30
0.0
 41
100.0
 42
100.0
 43
100.0
 50
180.0
  0
INSERT
  5
1AE2C
330
18453
100
AcDbEntity
  8
寸法
 62
     0
 48
50.0
370
    -2
100
AcDbBlockReference
  2
_DOTSMALL
 10
4037.349524198778
 20
10298.5379167915
 30
0.0
 41
100.0
 42
100.0
 43
100.0
  0
MTEXT
  5
1AE2D
330
18453
100
AcDbEntity
  8
寸法
 62
     7
 48
50.0
100
AcDbMText
 10
4092.349524198779
 20
10398.5379167915
 30
0.0
 40
120.0
 41
0.0
 71
     5
 72
     1
  1
\A1;110
  7
STYLE1
 73
     1
 44
1.0
1001
ACAD
1000
MTEXTBEGIN
1070
    73
1070
     1
1070
    44
1040
1.0
1070
    74
1070
     0
1000
MTEXTEND
  0
POINT
  5
1AE2E
330
18453
100
AcDbEntity
  8
DEFPOINTS
 62
     0
 48
50.0
100
AcDbPoint
 10
4147.349524198778
 20
9917.963687641071
 30
0.0
  0
POINT
  5
1AE2F
330
18453
100
AcDbEntity
  8
DEFPOINTS
 62
     0
 48
50.0
100
AcDbPoint
 10
4037.349524198778
 20
9917.963687641069
 30
0.0
  0
POINT
  5
1AE30
330
18453
100
AcDbEntity
  8
DEFPOINTS
 62
     0
 48
50.0
100
AcDbPoint
 10
4037.349524198778
 20
10298.5379167915
 30
0.0
  0
ENDBLK
  5
18F38
330
18453
100
AcDbEntity
  8
0
 48
50.0
100
AcDbBlockEnd
  0
BLOCK
  5
18EFE
330
18461
100
AcDbEntity
  8
0
 48
50.0
100
AcDbBlockBegin
  2
*D25
 70
     1
 10
0.0
 20
0.0
 30
0.0
  3
*D25
  1

  0
LINE
  5
1AE12
330
18461
100
AcDbEntity
  8
寸法
 62
     0
 48
50.0
370
    -2
100
AcDbLine
 10
1042.349524198744
 20
9937.963687640991
 30
0.0
 11
1042.349524198744
 21
10607.85939034779
 31
0.0
  0
LINE
  5
1AE13
330
18461
100
AcDbEntity
  8
寸法
 62
     0
 48
50.0
370
    -2
100
AcDbLine
 10
4092.349524198779
 20
10477.52583114945
 30
0.0
 11
4092.349524198779
 21
10607.85939034779
 31
0.0
  0
LINE
  5
1AE14
330
18461
100
AcDbEntity
  8
寸法
 62
     0
 48
50.0
370
    -2
100
AcDbLine
 10
1042.349524198744
 20
10547.85939034779
 30
0.0
 11
4092.349524198779
 21
10547.85939034779
 31
0.0
  0
INSERT
  5
1AE15
330
18461
100
AcDbEntity
  8
寸法
 62
     0
 48
50.0
370
    -2
100
AcDbBlockReference
  2
_DOTSMALL
 10
1042.349524198744
 20
10547.85939034779
 30
0.0
 41
100.0
 42
100.0
 43
100.0
 50
180.0
  0
INSERT
  5
1AE16
330
18461
100
AcDbEntity
  8
寸法
 62
     0
 48
50.0
370
    -2
100
AcDbBlockReference
  2
_DOTSMALL
 10
4092.349524198779
 20
10547.85939034779
 30
0.0
 41
100.0
 42
100.0
 43
100.0
  0
MTEXT
  5
1AE17
330
18461
100
AcDbEntity
  8
寸法
 62
     7
 48
50.0
100
AcDbMText
 10
2567.349524198761
 20
10647.85939034779
 30
0.0
 40
120.0
 41
0.0
 71
     5
 72
     1
  1
\A1;3050
  7
STYLE1
 73
     1
 44
1.0
1001
ACAD
1000
MTEXTBEGIN
1070
    73
1070
     1
1070
    44
1040
1.0
1070
    74
1070
     0
1000
MTEXTEND
  0
POINT
  5
1AE18
330
18461
100
AcDbEntity
  8
DEFPOINTS
 62
     0
 48
50.0
100
AcDbPoint
 10
1042.349524198744
 20
9917.963687640991
 30
0.0
  0
POINT
  5
1AE19
330
18461
100
AcDbEntity
  8
DEFPOINTS
 62
     0
 48
50.0
100
AcDbPoint
 10
4092.349524198779
 20
10457.52583114945
 30
0.0
  0
POINT
  5
1AE1A
330
18461
100
AcDbEntity
  8
DEFPOINTS
 62
     0
 48
50.0
100
AcDbPoint
 10
4092.349524198779
 20
10547.85939034779
 30
0.0
  0
ENDBLK
  5
18F08
330
18461
100
AcDbEntity
  8
0
 48
50.0
100
AcDbBlockEnd
  0
BLOCK
  5
18FF4
330
18FE7
100
AcDbEntity
  8
0
 48
50.0
100
AcDbBlockBegin
  2
*D26
 70
     1
 10
0.0
 20
0.0
 30
0.0
  3
*D26
  1

  0
LINE
  5
1AE62
330
18FE7
100
AcDbEntity
  8
寸法
 62
     0
 48
50.0
370
    -2
100
AcDbLine
 10
10183.84952419878
 20
9893.322671489645
 30
0.0
 11
10637.71421054153
 21
10014.93534766819
 31
0.0
  0
LINE
  5
1AE63
330
18FE7
100
AcDbEntity
  8
寸法
 62
     0
 48
50.0
370
    -2
100
AcDbLine
 10
10183.84952419878
 20
9443.322671489644
 30
0.0
 11
10637.71421054153
 21
9564.935347668193
 31
0.0
  0
LINE
  5
1AE64
330
18FE7
100
AcDbEntity
  8
寸法
 62
     0
 48
50.0
370
    -2
100
AcDbLine
 10
10577.71421054153
 20
9998.858396122322
 30
0.0
 11
10577.71421054153
 21
9548.858396122323
 31
0.0
  0
MTEXT
  5
1AE65
330
18FE7
100
AcDbEntity
  8
寸法
 62
     7
 48
50.0
100
AcDbMText
 10
10477.32018245922
 20
9720.774389129992
 30
0.0
 40
120.0
 41
0.0
 71
     5
 72
     1
  1
\A1;450
  7
STYLE1
 11
0.0000000000000001
 21
1.0
 31
0.0
 73
     1
 44
1.0
1001
ACAD
1000
MTEXTBEGIN
1070
    73
1070
     1
1070
    44
1040
1.0
1070
    74
1070
     0
1000
MTEXTEND
  0
INSERT
  5
1AE66
330
18FE7
100
AcDbEntity
  8
寸法
 62
     0
 48
50.0
370
    -2
100
AcDbBlockReference
  2
_DOTSMALL
 10
10577.71421054153
 20
9998.858396122322
 30
0.0
 41
100.0
 42
100.0
 43
100.0
 50
90.0
  0
INSERT
  5
1AE67
330
18FE7
100
AcDbEntity
  8
寸法
 62
     0
 48
50.0
370
    -2
100
AcDbBlockReference
  2
_DOTSMALL
 10
10577.71421054153
 20
9548.858396122323
 30
0.0
 41
100.0
 42
100.0
 43
100.0
 50
270.0
  0
POINT
  5
1AE68
330
18FE7
100
AcDbEntity
  8
DEFPOINTS
 62
     0
 48
50.0
100
AcDbPoint
 10
10163.84952419878
 20
9887.963687641024
 30
0.0
  0
POINT
  5
1AE69
330
18FE7
100
AcDbEntity
  8
DEFPOINTS
 62
     0
 48
50.0
100
AcDbPoint
 10
10163.84952419878
 20
9437.963687641023
 30
0.0
  0
POINT
  5
1AE6A
330
18FE7
100
AcDbEntity
  8
DEFPOINTS
 62
     0
 48
50.0
100
AcDbPoint
 10
10577.71421054153
 20
9548.858396122323
 30
0.0
  0
ENDBLK
  5
18FFE
330
18FE7
100
AcDbEntity
  8
0
 48
50.0
100
AcDbBlockEnd
  0
BLOCK
  5
19EDC
330
19ED2
100
AcDbEntity
  8
0
 48
50.0
100
AcDbBlockBegin
  2
*D27
 70
     1
 10
0.0
 20
0.0
 30
0.0
  3
*D27
  1

  0
LINE
  5
1A5A3
330
19ED2
100
AcDbEntity
  8
寸法
 62
     0
 48
50.0
370
    -2
100
AcDbLine
 10
992.3495241987621
 20
4658.39786180842
 30
0.0
 11
992.3495241987621
 21
5131.84474754041
 31
0.0
  0
LINE
  5
1A5A4
330
19ED2
100
AcDbEntity
  8
寸法
 62
     0
 48
50.0
370
    -2
100
AcDbLine
 10
10242.3495241988
 20
4658.397861808417
 30
0.0
 11
10242.3495241988
 21
5131.84474754041
 31
0.0
  0
LINE
  5
1A5A5
330
19ED2
100
AcDbEntity
  8
寸法
 62
     0
 48
50.0
370
    -2
100
AcDbLine
 10
992.3495241987621
 20
5071.84474754041
 30
0.0
 11
10242.3495241988
 21
5071.84474754041
 31
0.0
  0
INSERT
  5
1A5A6
330
19ED2
100
AcDbEntity
  8
寸法
 62
     0
 48
50.0
370
    -2
100
AcDbBlockReference
  2
_DOTSMALL
 10
992.3495241987621
 20
5071.84474754041
 30
0.0
 41
100.0
 42
100.0
 43
100.0
 50
180.0
  0
INSERT
  5
1A5A7
330
19ED2
100
AcDbEntity
  8
寸法
 62
     0
 48
50.0
370
    -2
100
AcDbBlockReference
  2
_DOTSMALL
 10
10242.3495241988
 20
5071.84474754041
 30
0.0
 41
100.0
 42
100.0
 43
100.0
  0
MTEXT
  5
1A5A8
330
19ED2
100
AcDbEntity
  8
寸法
 62
     7
 48
50.0
100
AcDbMText
 10
5617.349524198783
 20
5171.844747540411
 30
0.0
 40
120.0
 41
0.0
 71
     5
 72
     1
  1
\A1;N X 3050+100
  7
STYLE1
 73
     1
 44
1.0
1001
ACAD
1000
MTEXTBEGIN
1070
    73
1070
     1
1070
    44
1040
1.0
1070
    74
1070
     0
1000
MTEXTEND
  0
POINT
  5
1A5A9
330
19ED2
100
AcDbEntity
  8
DEFPOINTS
 62
     0
 48
50.0
100
AcDbPoint
 10
992.3495241987621
 20
4638.39786180842
 30
0.0
  0
POINT
  5
1A5AA
330
19ED2
100
AcDbEntity
  8
DEFPOINTS
 62
     0
 48
50.0
100
AcDbPoint
 10
10242.3495241988
 20
4638.397861808417
 30
0.0
  0
POINT
  5
1A5AB
330
19ED2
100
AcDbEntity
  8
DEFPOINTS
 62
     0
 48
50.0
100
AcDbPoint
 10
10242.3495241988
 20
5071.84474754041
 30
0.0
  0
ENDBLK
  5
19EDD
330
19ED2
100
AcDbEntity
  8
0
 48
50.0
100
AcDbBlockEnd
  0
BLOCK
  5
19EE8
330
19EDE
100
AcDbEntity
  8
0
 48
50.0
100
AcDbBlockBegin
  2
*D28
 70
     1
 10
0.0
 20
0.0
 30
0.0
  3
*D28
  1

  0
LINE
  5
1A59A
330
19EDE
100
AcDbEntity
  8
寸法
 62
     0
 48
50.0
370
    -2
100
AcDbLine
 10
10192.34952419876
 20
4671.319187630941
 30
0.0
 11
10192.34952419876
 21
4910.93944706666
 31
0.0
  0
LINE
  5
1A59B
330
19EDE
100
AcDbEntity
  8
寸法
 62
     0
 48
50.0
370
    -2
100
AcDbLine
 10
1042.349524198762
 20
4671.319187639408
 30
0.0
 11
1042.349524198762
 21
4910.93944706666
 31
0.0
  0
LINE
  5
1A59C
330
19EDE
100
AcDbEntity
  8
寸法
 62
     0
 48
50.0
370
    -2
100
AcDbLine
 10
10192.34952419876
 20
4850.939447066659
 30
0.0
 11
1042.349524198762
 21
4850.939447066659
 31
0.0
  0
INSERT
  5
1A59D
330
19EDE
100
AcDbEntity
  8
寸法
 62
     0
 48
50.0
370
    -2
100
AcDbBlockReference
  2
_DOTSMALL
 10
10192.34952419876
 20
4850.939447066659
 30
0.0
 41
100.0
 42
100.0
 43
100.0
  0
INSERT
  5
1A59E
330
19EDE
100
AcDbEntity
  8
寸法
 62
     0
 48
50.0
370
    -2
100
AcDbBlockReference
  2
_DOTSMALL
 10
1042.349524198762
 20
4850.939447066659
 30
0.0
 41
100.0
 42
100.0
 43
100.0
 50
180.0
  0
MTEXT
  5
1A59F
330
19EDE
100
AcDbEntity
  8
寸法
 62
     7
 48
50.0
100
AcDbMText
 10
5617.349524198762
 20
4950.939447066659
 30
0.0
 40
120.0
 41
0.0
 71
     5
 72
     1
  1
\A1;柱外寸法 N X 3050
  7
STYLE1
 73
     1
 44
1.0
1001
ACAD
1000
MTEXTBEGIN
1070
    73
1070
     1
1070
    44
1040
1.0
1070
    74
1070
     0
1000
MTEXTEND
  0
POINT
  5
1A5A0
330
19EDE
100
AcDbEntity
  8
DEFPOINTS
 62
     0
 48
50.0
100
AcDbPoint
 10
10192.34952419876
 20
4651.319187630941
 30
0.0
  0
POINT
  5
1A5A1
330
19EDE
100
AcDbEntity
  8
DEFPOINTS
 62
     0
 48
50.0
100
AcDbPoint
 10
1042.349524198762
 20
4651.319187639408
 30
0.0
  0
POINT
  5
1A5A2
330
19EDE
100
AcDbEntity
  8
DEFPOINTS
 62
     0
 48
50.0
100
AcDbPoint
 10
1042.349524198762
 20
4850.939447066659
 30
0.0
  0
ENDBLK
  5
19EE9
330
19EDE
100
AcDbEntity
  8
0
 48
50.0
100
AcDbBlockEnd
  0
BLOCK
  5
19F25
330
19F19
100
AcDbEntity
  8
0
 48
50.0
100
AcDbBlockBegin
  2
*D29
 70
     1
 10
0.0
 20
0.0
 30
0.0
  3
*D29
  1

  0
LINE
  5
1A5AC
330
19F19
100
AcDbEntity
  8
寸法
 62
     0
 48
50.0
370
    -2
100
AcDbLine
 10
1042.349524198762
 20
4658.397861808422
 30
0.0
 11
1042.349524198762
 21
4910.93944706666
 31
0.0
  0
LINE
  5
1A5AD
330
19F19
100
AcDbEntity
  8
寸法
 62
     0
 48
50.0
370
    -2
100
AcDbLine
 10
992.3495241987621
 20
4658.39786180842
 30
0.0
 11
992.3495241987621
 21
4910.93944706666
 31
0.0
  0
LINE
  5
1A5AE
330
19F19
100
AcDbEntity
  8
寸法
 62
     0
 48
50.0
370
    -2
100
AcDbLine
 10
1042.349524198762
 20
4850.939447066659
 30
0.0
 11
1142.349524198762
 21
4850.939447066659
 31
0.0
  0
LINE
  5
1A5AF
330
19F19
100
AcDbEntity
  8
寸法
 62
     0
 48
50.0
370
    -2
100
AcDbLine
 10
992.3495241987621
 20
4850.939447066659
 30
0.0
 11
572.8169987300266
 21
4850.939447066659
 31
0.0
  0
LINE
  5
1A5B0
330
19F19
100
AcDbEntity
  8
寸法
 62
     0
 48
50.0
370
    -2
100
AcDbLine
 10
1042.349524198762
 20
4850.939447066659
 30
0.0
 11
992.3495241987621
 21
4850.939447066659
 31
0.0
  0
INSERT
  5
1A5B1
330
19F19
100
AcDbEntity
  8
寸法
 62
     0
 48
50.0
370
    -2
100
AcDbBlockReference
  2
_DOTSMALL
 10
1042.349524198762
 20
4850.939447066659
 30
0.0
 41
100.0
 42
100.0
 43
100.0
 50
180.0
  0
INSERT
  5
1A5B2
330
19F19
100
AcDbEntity
  8
寸法
 62
     0
 48
50.0
370
    -2
100
AcDbBlockReference
  2
_DOTSMALL
 10
992.3495241987621
 20
4850.939447066659
 30
0.0
 41
100.0
 42
100.0
 43
100.0
  0
MTEXT
  5
1A5B3
330
19F19
100
AcDbEntity
  8
寸法
 62
     7
 48
50.0
100
AcDbMText
 10
678.8642428245148
 20
4950.939447066659
 30
0.0
 40
120.0
 41
0.0
 71
     5
 72
     1
  1
\A1;50
  7
STYLE1
 73
     1
 44
1.0
1001
ACAD
1000
MTEXTBEGIN
1070
    73
1070
     1
1070
    44
1040
1.0
1070
    74
1070
     0
1000
MTEXTEND
  0
POINT
  5
1A5B4
330
19F19
100
AcDbEntity
  8
DEFPOINTS
 62
     0
 48
50.0
100
AcDbPoint
 10
1042.349524198762
 20
4638.397861808422
 30
0.0
  0
POINT
  5
1A5B5
330
19F19
100
AcDbEntity
  8
DEFPOINTS
 62
     0
 48
50.0
100
AcDbPoint
 10
992.3495241987621
 20
4638.39786180842
 30
0.0
  0
POINT
  5
1A5B6
330
19F19
100
AcDbEntity
  8
DEFPOINTS
 62
     0
 48
50.0
100
AcDbPoint
 10
992.3495241987621
 20
4850.939447066659
 30
0.0
  0
ENDBLK
  5
19F26
330
19F19
100
AcDbEntity
  8
0
 48
50.0
100
AcDbBlockEnd
  0
BLOCK
  5
19FF6
330
19FEC
100
AcDbEntity
  8
0
 48
50.0
100
AcDbBlockBegin
  2
*D30
 70
     1
 10
0.0
 20
0.0
 30
0.0
  3
*D30
  1

  0
LINE
  5
1B48C
330
19FEC
100
AcDbEntity
  8
寸法
 62
     0
 48
50.0
370
    -2
100
AcDbLine
 10
15407.50678036883
 20
4603.397861808416
 30
0.0
 11
15407.50678036883
 21
5327.168908173997
 31
0.0
  0
LINE
  5
1B48D
330
19FEC
100
AcDbEntity
  8
寸法
 62
     0
 48
50.0
370
    -2
100
AcDbLine
 10
12217.50678036883
 20
4658.39786180842
 30
0.0
 11
12217.50678036883
 21
5327.168908173997
 31
0.0
  0
LINE
  5
1B48E
330
19FEC
100
AcDbEntity
  8
寸法
 62
     0
 48
50.0
370
    -2
100
AcDbLine
 10
15407.50678036883
 20
5267.168908173997
 30
0.0
 11
12217.50678036883
 21
5267.168908173997
 31
0.0
  0
INSERT
  5
1B48F
330
19FEC
100
AcDbEntity
  8
寸法
 62
     0
 48
50.0
370
    -2
100
AcDbBlockReference
  2
_DOTSMALL
 10
15407.50678036883
 20
5267.168908173997
 30
0.0
 41
100.0
 42
100.0
 43
100.0
  0
INSERT
  5
1B490
330
19FEC
100
AcDbEntity
  8
寸法
 62
     0
 48
50.0
370
    -2
100
AcDbBlockReference
  2
_DOTSMALL
 10
12217.50678036883
 20
5267.168908173997
 30
0.0
 41
100.0
 42
100.0
 43
100.0
 50
180.0
  0
MTEXT
  5
1B491
330
19FEC
100
AcDbEntity
  8
寸法
 62
     7
 48
50.0
100
AcDbMText
 10
13812.50678036883
 20
5367.168908173997
 30
0.0
 40
120.0
 41
0.0
 71
     5
 72
     1
  1
\A1;3190
  7
STYLE1
 73
     1
 44
1.0
1001
ACAD
1000
MTEXTBEGIN
1070
    73
1070
     1
1070
    44
1040
1.0
1070
    74
1070
     0
1000
MTEXTEND
  0
POINT
  5
1B492
330
19FEC
100
AcDbEntity
  8
DEFPOINTS
 62
     0
 48
50.0
100
AcDbPoint
 10
15407.50678036883
 20
4583.397861808417
 30
0.0
  0
POINT
  5
1B493
330
19FEC
100
AcDbEntity
  8
DEFPOINTS
 62
     0
 48
50.0
100
AcDbPoint
 10
12217.50678036883
 20
4638.397861808419
 30
0.0
  0
POINT
  5
1B494
330
19FEC
100
AcDbEntity
  8
DEFPOINTS
 62
     0
 48
50.0
100
AcDbPoint
 10
12217.50678036883
 20
5267.168908173997
 30
0.0
  0
ENDBLK
  5
19FF7
330
19FEC
100
AcDbEntity
  8
0
 48
50.0
100
AcDbBlockEnd
  0
BLOCK
  5
1A002
330
19FF8
100
AcDbEntity
  8
0
 48
50.0
100
AcDbBlockBegin
  2
*D31
 70
     1
 10
0.0
 20
0.0
 30
0.0
  3
*D31
  1

  0
LINE
  5
1B495
330
19FF8
100
AcDbEntity
  8
寸法
 62
     0
 48
50.0
370
    -2
100
AcDbLine
 10
15327.50678036883
 20
4605.20854142007
 30
0.0
 11
15327.50678036883
 21
5097.055315387721
 31
0.0
  0
LINE
  5
1B496
330
19FF8
100
AcDbEntity
  8
寸法
 62
     0
 48
50.0
370
    -2
100
AcDbLine
 10
12277.50678036883
 20
4654.399479931391
 30
0.0
 11
12277.50678036883
 21
5097.055315387721
 31
0.0
  0
LINE
  5
1B497
330
19FF8
100
AcDbEntity
  8
寸法
 62
     0
 48
50.0
370
    -2
100
AcDbLine
 10
15327.50678036883
 20
5037.055315387721
 30
0.0
 11
12277.50678036883
 21
5037.055315387721
 31
0.0
  0
INSERT
  5
1B498
330
19FF8
100
AcDbEntity
  8
寸法
 62
     0
 48
50.0
370
    -2
100
AcDbBlockReference
  2
_DOTSMALL
 10
15327.50678036883
 20
5037.055315387721
 30
0.0
 41
100.0
 42
100.0
 43
100.0
  0
INSERT
  5
1B499
330
19FF8
100
AcDbEntity
  8
寸法
 62
     0
 48
50.0
370
    -2
100
AcDbBlockReference
  2
_DOTSMALL
 10
12277.50678036883
 20
5037.055315387721
 30
0.0
 41
100.0
 42
100.0
 43
100.0
 50
180.0
  0
MTEXT
  5
1B49A
330
19FF8
100
AcDbEntity
  8
寸法
 62
     7
 48
50.0
100
AcDbMText
 10
13802.50678036883
 20
5137.055315387721
 30
0.0
 40
120.0
 41
0.0
 71
     5
 72
     1
  1
\A1;柱外寸法3050
  7
STYLE1
 73
     1
 44
1.0
1001
ACAD
1000
MTEXTBEGIN
1070
    73
1070
     1
1070
    44
1040
1.0
1070
    74
1070
     0
1000
MTEXTEND
  0
POINT
  5
1B49B
330
19FF8
100
AcDbEntity
  8
DEFPOINTS
 62
     0
 48
50.0
100
AcDbPoint
 10
15327.50678036883
 20
4585.20854142007
 30
0.0
  0
POINT
  5
1B49C
330
19FF8
100
AcDbEntity
  8
DEFPOINTS
 62
     0
 48
50.0
100
AcDbPoint
 10
12277.50678036883
 20
4634.399479931391
 30
0.0
  0
POINT
  5
1B49D
330
19FF8
100
AcDbEntity
  8
DEFPOINTS
 62
     0
 48
50.0
100
AcDbPoint
 10
12277.50678036883
 20
5037.055315387721
 30
0.0
  0
ENDBLK
  5
1A003
330
19FF8
100
AcDbEntity
  8
0
 48
50.0
100
AcDbBlockEnd
  0
BLOCK
  5
1A010
330
1A004
100
AcDbEntity
  8
0
 48
50.0
100
AcDbBlockBegin
  2
*D32
 70
     1
 10
0.0
 20
0.0
 30
0.0
  3
*D32
  1

  0
LINE
  5
1A6C7
330
1A004
100
AcDbEntity
  8
寸法
 62
     0
 48
50.0
370
    -2
100
AcDbLine
 10
12257.50678036883
 20
2313.397861808415
 30
0.0
 11
11373.75665118557
 21
2313.397861808415
 31
0.0
  0
LINE
  5
1A6C8
330
1A004
100
AcDbEntity
  8
寸法
 62
     0
 48
50.0
370
    -2
100
AcDbLine
 10
12202.50678036883
 20
2263.397861808415
 30
0.0
 11
11373.75665118557
 21
2263.397861808415
 31
0.0
  0
LINE
  5
1A6C9
330
1A004
100
AcDbEntity
  8
寸法
 62
     0
 48
50.0
370
    -2
100
AcDbLine
 10
11433.75665118557
 20
2313.397861808415
 30
0.0
 11
11433.75665118557
 21
2413.397861808415
 31
0.0
  0
LINE
  5
1A6CA
330
1A004
100
AcDbEntity
  8
寸法
 62
     0
 48
50.0
370
    -2
100
AcDbLine
 10
11433.75665118557
 20
2263.397861808415
 30
0.0
 11
11433.75665118557
 21
1851.303373619435
 31
0.0
  0
LINE
  5
1A6CB
330
1A004
100
AcDbEntity
  8
寸法
 62
     0
 48
50.0
370
    -2
100
AcDbLine
 10
11433.75665118557
 20
2313.397861808415
 30
0.0
 11
11433.75665118557
 21
2263.397861808415
 31
0.0
  0
INSERT
  5
1A6CC
330
1A004
100
AcDbEntity
  8
寸法
 62
     0
 48
50.0
370
    -2
100
AcDbBlockReference
  2
_DOTSMALL
 10
11433.75665118557
 20
2313.397861808415
 30
0.0
 41
100.0
 42
100.0
 43
100.0
 50
270.0
  0
INSERT
  5
1A6CD
330
1A004
100
AcDbEntity
  8
寸法
 62
     0
 48
50.0
370
    -2
100
AcDbBlockReference
  2
_DOTSMALL
 10
11433.75665118557
 20
2263.397861808415
 30
0.0
 41
100.0
 42
100.0
 43
100.0
 50
90.0
  0
MTEXT
  5
1A6CE
330
1A004
100
AcDbEntity
  8
寸法
 62
     7
 48
50.0
100
AcDbMText
 10
11333.75665118557
 20
1957.350617713925
 30
0.0
 40
120.0
 41
0.0
 71
     5
 72
     1
  1
\A1;50
  7
STYLE1
 11
0.0000000000000001
 21
1.0
 31
0.0
 73
     1
 44
1.0
1001
ACAD
1000
MTEXTBEGIN
1070
    73
1070
     1
1070
    44
1040
1.0
1070
    74
1070
     0
1000
MTEXTEND
  0
POINT
  5
1A6CF
330
1A004
100
AcDbEntity
  8
DEFPOINTS
 62
     0
 48
50.0
100
AcDbPoint
 10
12277.50678036883
 20
2313.397861808415
 30
0.0
  0
POINT
  5
1A6D0
330
1A004
100
AcDbEntity
  8
DEFPOINTS
 62
     0
 48
50.0
100
AcDbPoint
 10
12222.50678036883
 20
2263.397861808415
 30
0.0
  0
POINT
  5
1A6D1
330
1A004
100
AcDbEntity
  8
DEFPOINTS
 62
     0
 48
50.0
100
AcDbPoint
 10
11433.75665118557
 20
2263.397861808415
 30
0.0
  0
ENDBLK
  5
1A011
330
1A004
100
AcDbEntity
  8
0
 48
50.0
100
AcDbBlockEnd
  0
BLOCK
  5
1A06A
330
1A05E
100
AcDbEntity
  8
0
 48
50.0
100
AcDbBlockBegin
  2
*D33
 70
     1
 10
0.0
 20
0.0
 30
0.0
  3
*D33
  1

  0
LINE
  5
1A646
330
1A05E
100
AcDbEntity
  8
寸法
 62
     0
 48
50.0
370
    -2
100
AcDbLine
 10
10242.3495241988
 20
4658.397861808417
 30
0.0
 11
10242.3495241988
 21
4910.93944706666
 31
0.0
  0
LINE
  5
1A647
330
1A05E
100
AcDbEntity
  8
寸法
 62
     0
 48
50.0
370
    -2
100
AcDbLine
 10
10192.3495241988
 20
4658.39786180842
 30
0.0
 11
10192.3495241988
 21
4910.93944706666
 31
0.0
  0
LINE
  5
1A648
330
1A05E
100
AcDbEntity
  8
寸法
 62
     0
 48
50.0
370
    -2
100
AcDbLine
 10
10192.3495241988
 20
4850.939447066659
 30
0.0
 11
10092.3495241988
 21
4850.939447066659
 31
0.0
  0
LINE
  5
1A649
330
1A05E
100
AcDbEntity
  8
寸法
 62
     0
 48
50.0
370
    -2
100
AcDbLine
 10
10242.3495241988
 20
4850.939447066659
 30
0.0
 11
10661.88204966753
 21
4850.939447066659
 31
0.0
  0
LINE
  5
1A64A
330
1A05E
100
AcDbEntity
  8
寸法
 62
     0
 48
50.0
370
    -2
100
AcDbLine
 10
10192.3495241988
 20
4850.939447066659
 30
0.0
 11
10242.3495241988
 21
4850.939447066659
 31
0.0
  0
INSERT
  5
1A64B
330
1A05E
100
AcDbEntity
  8
寸法
 62
     0
 48
50.0
370
    -2
100
AcDbBlockReference
  2
_DOTSMALL
 10
10192.3495241988
 20
4850.939447066659
 30
0.0
 41
100.0
 42
100.0
 43
100.0
  0
INSERT
  5
1A64C
330
1A05E
100
AcDbEntity
  8
寸法
 62
     0
 48
50.0
370
    -2
100
AcDbBlockReference
  2
_DOTSMALL
 10
10242.3495241988
 20
4850.939447066659
 30
0.0
 41
100.0
 42
100.0
 43
100.0
 50
180.0
  0
MTEXT
  5
1A64D
330
1A05E
100
AcDbEntity
  8
寸法
 62
     7
 48
50.0
100
AcDbMText
 10
10555.83480557304
 20
4950.939447066659
 30
0.0
 40
120.0
 41
0.0
 71
     5
 72
     1
  1
\A1;50
  7
STYLE1
 73
     1
 44
1.0
1001
ACAD
1000
MTEXTBEGIN
1070
    73
1070
     1
1070
    44
1040
1.0
1070
    74
1070
     0
1000
MTEXTEND
  0
POINT
  5
1A64E
330
1A05E
100
AcDbEntity
  8
DEFPOINTS
 62
     0
 48
50.0
100
AcDbPoint
 10
10242.3495241988
 20
4638.397861808417
 30
0.0
  0
POINT
  5
1A64F
330
1A05E
100
AcDbEntity
  8
DEFPOINTS
 62
     0
 48
50.0
100
AcDbPoint
 10
10192.3495241988
 20
4638.397861808419
 30
0.0
  0
POINT
  5
1A650
330
1A05E
100
AcDbEntity
  8
DEFPOINTS
 62
     0
 48
50.0
100
AcDbPoint
 10
10192.3495241988
 20
4850.939447066659
 30
0.0
  0
ENDBLK
  5
1A06B
330
1A05E
100
AcDbEntity
  8
0
 48
50.0
100
AcDbBlockEnd
  0
BLOCK
  5
1A076
330
1A06C
100
AcDbEntity
  8
0
 48
50.0
100
AcDbBlockBegin
  2
*D34
 70
     1
 10
0.0
 20
0.0
 30
0.0
  3
*D34
  1

  0
LINE
  5
1A715
330
1A06C
100
AcDbEntity
  8
寸法
 62
     0
 48
50.0
370
    -2
100
AcDbLine
 10
12257.50678036883
 20
2263.39786180841
 30
0.0
 11
11073.75665118557
 21
2263.397861808411
 31
0.0
  0
LINE
  5
1A716
330
1A06C
100
AcDbEntity
  8
寸法
 62
     0
 48
50.0
370
    -2
100
AcDbLine
 10
12197.50678036883
 20
4638.397861808415
 30
0.0
 11
11073.75665118557
 21
4638.397861808415
 31
0.0
  0
LINE
  5
1A717
330
1A06C
100
AcDbEntity
  8
寸法
 62
     0
 48
50.0
370
    -2
100
AcDbLine
 10
11133.75665118557
 20
2263.397861808411
 30
0.0
 11
11133.75665118557
 21
4638.397861808415
 31
0.0
  0
INSERT
  5
1A718
330
1A06C
100
AcDbEntity
  8
寸法
 62
     0
 48
50.0
370
    -2
100
AcDbBlockReference
  2
_DOTSMALL
 10
11133.75665118557
 20
2263.397861808411
 30
0.0
 41
100.0
 42
100.0
 43
100.0
 50
270.0
  0
INSERT
  5
1A719
330
1A06C
100
AcDbEntity
  8
寸法
 62
     0
 48
50.0
370
    -2
100
AcDbBlockReference
  2
_DOTSMALL
 10
11133.75665118557
 20
4638.397861808415
 30
0.0
 41
100.0
 42
100.0
 43
100.0
 50
90.0
  0
MTEXT
  5
1A71A
330
1A06C
100
AcDbEntity
  8
寸法
 62
     7
 48
50.0
100
AcDbMText
 10
11033.74484016195
 20
3450.897861808415
 30
0.0
 40
120.0
 41
0.0
 71
     5
 72
     1
  1
\A1;2375
  7
STYLE1
 11
0.0000000000000001
 21
1.0
 31
0.0
 73
     1
 44
1.0
1001
ACAD
1000
MTEXTBEGIN
1070
    73
1070
     1
1070
    44
1040
1.0
1070
    74
1070
     0
1000
MTEXTEND
  0
POINT
  5
1A71B
330
1A06C
100
AcDbEntity
  8
DEFPOINTS
 62
     0
 48
50.0
100
AcDbPoint
 10
12277.50678036883
 20
2263.39786180841
 30
0.0
  0
POINT
  5
1A71C
330
1A06C
100
AcDbEntity
  8
DEFPOINTS
 62
     0
 48
50.0
100
AcDbPoint
 10
12217.50678036883
 20
4638.397861808415
 30
0.0
  0
POINT
  5
1A71D
330
1A06C
100
AcDbEntity
  8
DEFPOINTS
 62
     0
 48
50.0
100
AcDbPoint
 10
11133.75665118557
 20
4638.397861808415
 30
0.0
  0
ENDBLK
  5
1A077
330
1A06C
100
AcDbEntity
  8
0
 48
50.0
100
AcDbBlockEnd
  0
BLOCK
  5
1A082
330
1A078
100
AcDbEntity
  8
0
 48
50.0
100
AcDbBlockBegin
  2
*D35
 70
     1
 10
0.0
 20
0.0
 30
0.0
  3
*D35
  1

  0
LINE
  5
1A70C
330
1A078
100
AcDbEntity
  8
寸法
 62
     0
 48
50.0
370
    -2
100
AcDbLine
 10
12257.50678036883
 20
4403.397861808411
 30
0.0
 11
11373.75665118557
 21
4403.397861808411
 31
0.0
  0
LINE
  5
1A70D
330
1A078
100
AcDbEntity
  8
寸法
 62
     0
 48
50.0
370
    -2
100
AcDbLine
 10
12257.50678036883
 20
2313.397861808411
 30
0.0
 11
11373.75665118557
 21
2313.397861808411
 31
0.0
  0
LINE
  5
1A70E
330
1A078
100
AcDbEntity
  8
寸法
 62
     0
 48
50.0
370
    -2
100
AcDbLine
 10
11433.75665118557
 20
4403.397861808411
 30
0.0
 11
11433.75665118557
 21
2313.397861808411
 31
0.0
  0
INSERT
  5
1A70F
330
1A078
100
AcDbEntity
  8
寸法
 62
     0
 48
50.0
370
    -2
100
AcDbBlockReference
  2
_DOTSMALL
 10
11433.75665118557
 20
4403.397861808411
 30
0.0
 41
100.0
 42
100.0
 43
100.0
 50
90.0
  0
INSERT
  5
1A710
330
1A078
100
AcDbEntity
  8
寸法
 62
     0
 48
50.0
370
    -2
100
AcDbBlockReference
  2
_DOTSMALL
 10
11433.75665118557
 20
2313.397861808411
 30
0.0
 41
100.0
 42
100.0
 43
100.0
 50
270.0
  0
MTEXT
  5
1A711
330
1A078
100
AcDbEntity
  8
寸法
 62
     7
 48
50.0
100
AcDbMText
 10
11333.74484016195
 20
3358.397861808413
 30
0.0
 40
120.0
 41
0.0
 71
     5
 72
     1
  1
\A1;2090
  7
STYLE1
 11
0.0000000000000001
 21
1.0
 31
0.0
 73
     1
 44
1.0
1001
ACAD
1000
MTEXTBEGIN
1070
    73
1070
     1
1070
    44
1040
1.0
1070
    74
1070
     0
1000
MTEXTEND
  0
POINT
  5
1A712
330
1A078
100
AcDbEntity
  8
DEFPOINTS
 62
     0
 48
50.0
100
AcDbPoint
 10
12277.50678036883
 20
4403.397861808411
 30
0.0
  0
POINT
  5
1A713
330
1A078
100
AcDbEntity
  8
DEFPOINTS
 62
     0
 48
50.0
100
AcDbPoint
 10
12277.50678036883
 20
2313.397861808411
 30
0.0
  0
POINT
  5
1A714
330
1A078
100
AcDbEntity
  8
DEFPOINTS
 62
     0
 48
50.0
100
AcDbPoint
 10
11433.75665118557
 20
2313.397861808411
 30
0.0
  0
ENDBLK
  5
1A083
330
1A078
100
AcDbEntity
  8
0
 48
50.0
100
AcDbBlockEnd
  0
BLOCK
  5
1A08F
330
1A084
100
AcDbEntity
  8
0
 48
50.0
100
AcDbBlockBegin
  2
*D36
 70
     1
 10
0.0
 20
0.0
 30
0.0
  3
*D36
  1

  0
LINE
  5
1A729
330
1A084
100
AcDbEntity
  8
寸法
 62
     0
 48
50.0
370
    -2
100
AcDbLine
 10
12216.91106665993
 20
4637.695568878077
 30
0.0
 11
11600.97662755462
 21
4655.409719152408
 31
0.0
  0
LINE
  5
1A72A
330
1A084
100
AcDbEntity
  8
寸法
 62
     0
 48
50.0
370
    -2
100
AcDbLine
 10
12212.8576111033
 20
4496.753845112364
 30
0.0
 11
11596.923171998
 21
4514.467995386695
 31
0.0
  0
LINE
  5
1A72B
330
1A084
100
AcDbEntity
  8
寸法
 62
     0
 48
50.0
370
    -2
100
AcDbLine
 10
11656.89837360043
 20
4512.743120681747
 30
0.0
 11
11660.95182915706
 21
4653.68484444746
 31
0.0
  0
LINE
  5
1A72C
330
1A084
100
AcDbEntity
  8
寸法
 62
     0
 48
50.0
370
    -2
100
AcDbLine
 10
11660.95182915706
 20
4653.68484444746
 30
0.0
 11
11671.30107738674
 21
5013.536054062045
 31
0.0
  0
INSERT
  5
1A72D
330
1A084
100
AcDbEntity
  8
寸法
 62
     0
 48
50.0
370
    -2
100
AcDbBlockReference
  2
_DOTSMALL
 10
11656.89837360043
 20
4512.743120681747
 30
0.0
 41
100.0
 42
100.0
 43
100.0
 50
268.3526390256378
  0
INSERT
  5
1A72E
330
1A084
100
AcDbEntity
  8
寸法
 62
     0
 48
50.0
370
    -2
100
AcDbBlockReference
  2
_DOTSMALL
 10
11660.95182915706
 20
4653.68484444746
 30
0.0
 41
100.0
 42
100.0
 43
100.0
 50
88.35263902563776
  0
MTEXT
  5
1A72F
330
1A084
100
AcDbEntity
  8
寸法
 62
     7
 48
50.0
100
AcDbMText
 10
11567.60517952197
 20
4886.464575098358
 30
0.0
 40
120.0
 41
0.0
 71
     5
 72
     1
  1
\A1;141
  7
STYLE1
 11
0.0287479117491237
 21
0.9995866933738488
 31
0.0
 73
     1
 44
1.0
1001
ACAD
1000
MTEXTBEGIN
1070
    73
1070
     1
1070
    44
1040
1.0
1070
    74
1070
     0
1000
MTEXTEND
  0
POINT
  5
1A730
330
1A084
100
AcDbEntity
  8
DEFPOINTS
 62
     0
 48
50.0
100
AcDbPoint
 10
12236.90280052741
 20
4637.120610643094
 30
0.0
  0
POINT
  5
1A731
330
1A084
100
AcDbEntity
  8
DEFPOINTS
 62
     0
 48
50.0
100
AcDbPoint
 10
12232.84934497078
 20
4496.178886877382
 30
0.0
  0
POINT
  5
1A732
330
1A084
100
AcDbEntity
  8
DEFPOINTS
 62
     0
 48
50.0
100
AcDbPoint
 10
11656.89837360043
 20
4512.743120681747
 30
0.0
  0
ENDBLK
  5
1A090
330
1A084
100
AcDbEntity
  8
0
 48
50.0
100
AcDbBlockEnd
  0
BLOCK
  5
1A09D
330
1A091
100
AcDbEntity
  8
0
 48
50.0
100
AcDbBlockBegin
  2
*D37
 70
     1
 10
0.0
 20
0.0
 30
0.0
  3
*D37
  1

  0
LINE
  5
1A71E
330
1A091
100
AcDbEntity
  8
寸法
 62
     0
 48
50.0
370
    -2
100
AcDbLine
 10
12277.50678036883
 20
4654.399479931391
 30
0.0
 11
12277.50678036883
 21
5097.055315387719
 31
0.0
  0
LINE
  5
1A71F
330
1A091
100
AcDbEntity
  8
寸法
 62
     0
 48
50.0
370
    -2
100
AcDbLine
 10
12217.50678036883
 20
4658.39786180842
 30
0.0
 11
12217.50678036883
 21
5097.055315387719
 31
0.0
  0
LINE
  5
1A720
330
1A091
100
AcDbEntity
  8
寸法
 62
     0
 48
50.0
370
    -2
100
AcDbLine
 10
12277.50678036883
 20
5037.055315387719
 30
0.0
 11
12377.50678036883
 21
5037.055315387719
 31
0.0
  0
LINE
  5
1A721
330
1A091
100
AcDbEntity
  8
寸法
 62
     0
 48
50.0
370
    -2
100
AcDbLine
 10
12217.50678036883
 20
5037.055315387719
 30
0.0
 11
11798.23118981765
 21
5037.055315387719
 31
0.0
  0
LINE
  5
1A722
330
1A091
100
AcDbEntity
  8
寸法
 62
     0
 48
50.0
370
    -2
100
AcDbLine
 10
12277.50678036883
 20
5037.055315387719
 30
0.0
 11
12217.50678036883
 21
5037.055315387719
 31
0.0
  0
INSERT
  5
1A723
330
1A091
100
AcDbEntity
  8
寸法
 62
     0
 48
50.0
370
    -2
100
AcDbBlockReference
  2
_DOTSMALL
 10
12277.50678036883
 20
5037.055315387719
 30
0.0
 41
100.0
 42
100.0
 43
100.0
 50
180.0
  0
INSERT
  5
1A724
330
1A091
100
AcDbEntity
  8
寸法
 62
     0
 48
50.0
370
    -2
100
AcDbBlockReference
  2
_DOTSMALL
 10
12217.50678036883
 20
5037.055315387719
 30
0.0
 41
100.0
 42
100.0
 43
100.0
  0
MTEXT
  5
1A725
330
1A091
100
AcDbEntity
  8
寸法
 62
     7
 48
50.0
100
AcDbMText
 10
11907.86898509324
 20
5137.055315387719
 30
0.0
 40
120.0
 41
0.0
 71
     5
 72
     1
  1
\A1;60
  7
STYLE1
 73
     1
 44
1.0
1001
ACAD
1000
MTEXTBEGIN
1070
    73
1070
     1
1070
    44
1040
1.0
1070
    74
1070
     0
1000
MTEXTEND
  0
POINT
  5
1A726
330
1A091
100
AcDbEntity
  8
DEFPOINTS
 62
     0
 48
50.0
100
AcDbPoint
 10
12277.50678036883
 20
4634.399479931391
 30
0.0
  0
POINT
  5
1A727
330
1A091
100
AcDbEntity
  8
DEFPOINTS
 62
     0
 48
50.0
100
AcDbPoint
 10
12217.50678036883
 20
4638.397861808419
 30
0.0
  0
POINT
  5
1A728
330
1A091
100
AcDbEntity
  8
DEFPOINTS
 62
     0
 48
50.0
100
AcDbPoint
 10
12217.50678036883
 20
5037.055315387719
 30
0.0
  0
ENDBLK
  5
1A09E
330
1A091
100
AcDbEntity
  8
0
 48
50.0
100
AcDbBlockEnd
  0
BLOCK
  5
1A0A9
330
1A09F
100
AcDbEntity
  8
0
 48
50.0
100
AcDbBlockBegin
  2
*D38
 70
     1
 10
0.0
 20
0.0
 30
0.0
  3
*D38
  1

  0
LINE
  5
1A733
330
1A09F
100
AcDbEntity
  8
寸法
 62
     0
 48
50.0
370
    -2
100
AcDbLine
 10
15347.50678036883
 20
2263.397861808417
 30
0.0
 11
15833.90212245725
 21
2263.397861808416
 31
0.0
  0
LINE
  5
1A734
330
1A09F
100
AcDbEntity
  8
寸法
 62
     0
 48
50.0
370
    -2
100
AcDbLine
 10
15427.50678036883
 20
4583.397861808417
 30
0.0
 11
15833.90212245725
 21
4583.397861808417
 31
0.0
  0
LINE
  5
1A735
330
1A09F
100
AcDbEntity
  8
寸法
 62
     0
 48
50.0
370
    -2
100
AcDbLine
 10
15773.90212245725
 20
2263.397861808416
 30
0.0
 11
15773.90212245725
 21
4583.397861808417
 31
0.0
  0
INSERT
  5
1A736
330
1A09F
100
AcDbEntity
  8
寸法
 62
     0
 48
50.0
370
    -2
100
AcDbBlockReference
  2
_DOTSMALL
 10
15773.90212245725
 20
2263.397861808416
 30
0.0
 41
100.0
 42
100.0
 43
100.0
 50
270.0
  0
INSERT
  5
1A737
330
1A09F
100
AcDbEntity
  8
寸法
 62
     0
 48
50.0
370
    -2
100
AcDbBlockReference
  2
_DOTSMALL
 10
15773.90212245725
 20
4583.397861808417
 30
0.0
 41
100.0
 42
100.0
 43
100.0
 50
90.0
  0
MTEXT
  5
1A738
330
1A09F
100
AcDbEntity
  8
寸法
 62
     7
 48
50.0
100
AcDbMText
 10
15673.89031143363
 20
3407.888647147301
 30
0.0
 40
120.0
 41
0.0
 71
     5
 72
     1
  1
\A1;2320
  7
STYLE1
 11
0.0000000000000001
 21
1.0
 31
0.0
 73
     1
 44
1.0
1001
ACAD
1000
MTEXTBEGIN
1070
    73
1070
     1
1070
    44
1040
1.0
1070
    74
1070
     0
1000
MTEXTEND
  0
POINT
  5
1A739
330
1A09F
100
AcDbEntity
  8
DEFPOINTS
 62
     0
 48
50.0
100
AcDbPoint
 10
15327.50678036883
 20
2263.397861808417
 30
0.0
  0
POINT
  5
1A73A
330
1A09F
100
AcDbEntity
  8
DEFPOINTS
 62
     0
 48
50.0
100
AcDbPoint
 10
15407.50678036883
 20
4583.397861808417
 30
0.0
  0
POINT
  5
1A73B
330
1A09F
100
AcDbEntity
  8
DEFPOINTS
 62
     0
 48
50.0
100
AcDbPoint
 10
15773.90212245725
 20
4583.397861808417
 30
0.0
  0
ENDBLK
  5
1A0AA
330
1A09F
100
AcDbEntity
  8
0
 48
50.0
100
AcDbBlockEnd
  0
BLOCK
  5
1A0B6
330
1A0AB
100
AcDbEntity
  8
0
 48
50.0
100
AcDbBlockBegin
  2
*D39
 70
     1
 10
0.0
 20
0.0
 30
0.0
  3
*D39
  1

  0
LINE
  5
1A73C
330
1A0AB
100
AcDbEntity
  8
寸法
 62
     0
 48
50.0
370
    -2
100
AcDbLine
 10
15327.50678036883
 20
4605.20854142007
 30
0.0
 11
15327.50678036883
 21
5097.055315387721
 31
0.0
  0
LINE
  5
1A73D
330
1A0AB
100
AcDbEntity
  8
寸法
 62
     0
 48
50.0
370
    -2
100
AcDbLine
 10
15407.50678036883
 20
4603.397861808418
 30
0.0
 11
15407.50678036883
 21
5097.055315387721
 31
0.0
  0
LINE
  5
1A73E
330
1A0AB
100
AcDbEntity
  8
寸法
 62
     0
 48
50.0
370
    -2
100
AcDbLine
 10
15327.50678036883
 20
5037.055315387721
 30
0.0
 11
15407.50678036883
 21
5037.055315387721
 31
0.0
  0
LINE
  5
1A73F
330
1A0AB
100
AcDbEntity
  8
寸法
 62
     0
 48
50.0
370
    -2
100
AcDbLine
 10
15407.50678036883
 20
5037.055315387721
 30
0.0
 11
15719.60126855781
 21
5037.055315387721
 31
0.0
  0
INSERT
  5
1A740
330
1A0AB
100
AcDbEntity
  8
寸法
 62
     0
 48
50.0
370
    -2
100
AcDbBlockReference
  2
_DOTSMALL
 10
15327.50678036883
 20
5037.055315387721
 30
0.0
 41
100.0
 42
100.0
 43
100.0
 50
180.0
  0
INSERT
  5
1A741
330
1A0AB
100
AcDbEntity
  8
寸法
 62
     0
 48
50.0
370
    -2
100
AcDbBlockReference
  2
_DOTSMALL
 10
15407.50678036883
 20
5037.055315387721
 30
0.0
 41
100.0
 42
100.0
 43
100.0
  0
MTEXT
  5
1A742
330
1A0AB
100
AcDbEntity
  8
寸法
 62
     7
 48
50.0
100
AcDbMText
 10
15613.55402446332
 20
5137.055315387721
 30
0.0
 40
120.0
 41
0.0
 71
     5
 72
     1
  1
\A1;80
  7
STYLE1
 73
     1
 44
1.0
1001
ACAD
1000
MTEXTBEGIN
1070
    73
1070
     1
1070
    44
1040
1.0
1070
    74
1070
     0
1000
MTEXTEND
  0
POINT
  5
1A743
330
1A0AB
100
AcDbEntity
  8
DEFPOINTS
 62
     0
 48
50.0
100
AcDbPoint
 10
15327.50678036883
 20
4585.20854142007
 30
0.0
  0
POINT
  5
1A744
330
1A0AB
100
AcDbEntity
  8
DEFPOINTS
 62
     0
 48
50.0
100
AcDbPoint
 10
15407.50678036883
 20
4583.397861808418
 30
0.0
  0
POINT
  5
1A745
330
1A0AB
100
AcDbEntity
  8
DEFPOINTS
 62
     0
 48
50.0
100
AcDbPoint
 10
15407.50678036883
 20
5037.055315387721
 30
0.0
  0
ENDBLK
  5
1A0B7
330
1A0AB
100
AcDbEntity
  8
0
 48
50.0
100
AcDbBlockEnd
  0
BLOCK
  5
1AD32
330
1AD28
100
AcDbEntity
  8
0
 48
50.0
100
AcDbBlockBegin
  2
*D40
 70
     1
 10
0.0
 20
0.0
 30
0.0
  3
*D40
  1

  0
LINE
  5
1AE00
330
1AD28
100
AcDbEntity
  8
寸法
 62
     0
 48
50.0
370
    -2
100
AcDbLine
 10
7165.490540350154
 20
9417.96368764092
 30
0.0
 11
7062.748726391584
 21
9034.526017885751
 31
0.0
  0
LINE
  5
1AE01
330
1AD28
100
AcDbEntity
  8
寸法
 62
     0
 48
50.0
370
    -2
100
AcDbLine
 10
8648.490540350165
 20
9417.963687640913
 30
0.0
 11
8545.748726391598
 21
9034.526017885751
 31
0.0
  0
LINE
  5
1AE02
330
1AD28
100
AcDbEntity
  8
寸法
 62
     0
 48
50.0
370
    -2
100
AcDbLine
 10
7078.825677937452
 20
9094.526017885749
 30
0.0
 11
8561.825677937465
 21
9094.526017885749
 31
0.0
  0
INSERT
  5
1AE03
330
1AD28
100
AcDbEntity
  8
寸法
 62
     0
 48
50.0
370
    -2
100
AcDbBlockReference
  2
_DOTSMALL
 10
7078.825677937452
 20
9094.526017885749
 30
0.0
 41
100.0
 42
100.0
 43
100.0
 50
180.0
  0
INSERT
  5
1AE04
330
1AD28
100
AcDbEntity
  8
寸法
 62
     0
 48
50.0
370
    -2
100
AcDbBlockReference
  2
_DOTSMALL
 10
8561.825677937465
 20
9094.526017885749
 30
0.0
 41
100.0
 42
100.0
 43
100.0
  0
MTEXT
  5
1AE05
330
1AD28
100
AcDbEntity
  8
寸法
 62
     7
 48
50.0
100
AcDbMText
 10
7758.640827606789
 20
9194.526017885749
 30
0.0
 40
120.0
 41
0.0
 71
     5
 72
     1
  1
\A1;1483
  7
STYLE1
 73
     1
 44
1.0
1001
ACAD
1000
MTEXTBEGIN
1070
    73
1070
     1
1070
    44
1040
1.0
1070
    74
1070
     0
1000
MTEXTEND
  0
POINT
  5
1AE06
330
1AD28
100
AcDbEntity
  8
DEFPOINTS
 62
     0
 48
50.0
100
AcDbPoint
 10
7170.849524198776
 20
9437.963687640921
 30
0.0
  0
POINT
  5
1AE07
330
1AD28
100
AcDbEntity
  8
DEFPOINTS
 62
     0
 48
50.0
100
AcDbPoint
 10
8653.849524198788
 20
9437.963687640914
 30
0.0
  0
POINT
  5
1AE08
330
1AD28
100
AcDbEntity
  8
DEFPOINTS
 62
     0
 48
50.0
100
AcDbPoint
 10
8561.825677937465
 20
9094.526017885749
 30
0.0
  0
ENDBLK
  5
1AD33
330
1AD28
100
AcDbEntity
  8
0
 48
50.0
100
AcDbBlockEnd
  0
BLOCK
  5
1AD3E
330
1AD34
100
AcDbEntity
  8
0
 48
50.0
100
AcDbBlockBegin
  2
*D41
 70
     1
 10
0.0
 20
0.0
 30
0.0
  3
*D41
  1

  0
LINE
  5
1ADF7
330
1AD34
100
AcDbEntity
  8
寸法
 62
     0
 48
50.0
370
    -2
100
AcDbLine
 10
8675.490540350153
 20
9417.963687641025
 30
0.0
 11
8572.748726391585
 21
9034.526017885859
 31
0.0
  0
LINE
  5
1ADF8
330
1AD34
100
AcDbEntity
  8
寸法
 62
     0
 48
50.0
370
    -2
100
AcDbLine
 10
10158.49054035016
 20
9417.963687641018
 30
0.0
 11
10055.7487263916
 21
9034.526017885859
 31
0.0
  0
LINE
  5
1ADF9
330
1AD34
100
AcDbEntity
  8
寸法
 62
     0
 48
50.0
370
    -2
100
AcDbLine
 10
8588.825677937453
 20
9094.52601788586
 30
0.0
 11
10071.82567793746
 21
9094.52601788586
 31
0.0
  0
INSERT
  5
1ADFA
330
1AD34
100
AcDbEntity
  8
寸法
 62
     0
 48
50.0
370
    -2
100
AcDbBlockReference
  2
_DOTSMALL
 10
8588.825677937453
 20
9094.52601788586
 30
0.0
 41
100.0
 42
100.0
 43
100.0
 50
180.0
  0
INSERT
  5
1ADFB
330
1AD34
100
AcDbEntity
  8
寸法
 62
     0
 48
50.0
370
    -2
100
AcDbBlockReference
  2
_DOTSMALL
 10
10071.82567793746
 20
9094.52601788586
 30
0.0
 41
100.0
 42
100.0
 43
100.0
  0
MTEXT
  5
1ADFC
330
1AD34
100
AcDbEntity
  8
寸法
 62
     7
 48
50.0
100
AcDbMText
 10
9205.287680115622
 20
9194.526017885859
 30
0.0
 40
120.0
 41
0.0
 71
     5
 72
     1
  1
\A1;1483
  7
STYLE1
 73
     1
 44
1.0
1001
ACAD
1000
MTEXTBEGIN
1070
    73
1070
     1
1070
    44
1040
1.0
1070
    74
1070
     0
1000
MTEXTEND
  0
POINT
  5
1ADFD
330
1AD34
100
AcDbEntity
  8
DEFPOINTS
 62
     0
 48
50.0
100
AcDbPoint
 10
8680.849524198777
 20
9437.963687641026
 30
0.0
  0
POINT
  5
1ADFE
330
1AD34
100
AcDbEntity
  8
DEFPOINTS
 62
     0
 48
50.0
100
AcDbPoint
 10
10163.84952419878
 20
9437.963687641019
 30
0.0
  0
POINT
  5
1ADFF
330
1AD34
100
AcDbEntity
  8
DEFPOINTS
 62
     0
 48
50.0
100
AcDbPoint
 10
10071.82567793746
 20
9094.52601788586
 30
0.0
  0
ENDBLK
  5
1AD3F
330
1AD34
100
AcDbEntity
  8
0
 48
50.0
100
AcDbBlockEnd
  0
BLOCK
  5
1B045
330
1B03B
100
AcDbEntity
  8
0
 48
50.0
100
AcDbBlockBegin
  2
*D42
 70
     1
 10
0.0
 20
0.0
 30
0.0
  3
*D42
  1

  0
LINE
  5
1B0F1
330
1B03B
100
AcDbEntity
  8
寸法
 62
     0
 48
50.0
370
    -2
100
AcDbLine
 10
10212.34952419877
 20
2325.397861808415
 30
0.0
 11
10539.89262652051
 21
2325.397861808415
 31
0.0
  0
LINE
  5
1B0F2
330
1B03B
100
AcDbEntity
  8
寸法
 62
     0
 48
50.0
370
    -2
100
AcDbLine
 10
10212.34952419877
 20
4211.397861808413
 30
0.0
 11
10539.89262652051
 21
4211.397861808413
 31
0.0
  0
LINE
  5
1B0F3
330
1B03B
100
AcDbEntity
  8
寸法
 62
     0
 48
50.0
370
    -2
100
AcDbLine
 10
10479.89262652051
 20
2325.397861808415
 30
0.0
 11
10479.89262652051
 21
4211.397861808413
 31
0.0
  0
INSERT
  5
1B0F4
330
1B03B
100
AcDbEntity
  8
寸法
 62
     0
 48
50.0
370
    -2
100
AcDbBlockReference
  2
_DOTSMALL
 10
10479.89262652051
 20
2325.397861808415
 30
0.0
 41
100.0
 42
100.0
 43
100.0
 50
270.0
  0
INSERT
  5
1B0F5
330
1B03B
100
AcDbEntity
  8
寸法
 62
     0
 48
50.0
370
    -2
100
AcDbBlockReference
  2
_DOTSMALL
 10
10479.89262652051
 20
4211.397861808413
 30
0.0
 41
100.0
 42
100.0
 43
100.0
 50
90.0
  0
MTEXT
  5
1B0F6
330
1B03B
100
AcDbEntity
  8
寸法
 62
     7
 48
50.0
100
AcDbMText
 10
10379.89262652051
 20
3268.397861808416
 30
0.0
 40
120.0
 41
0.0
 71
     5
 72
     1
  1
\A1;有効開口部高サ 1886
  7
STYLE1
 11
0.0000000000000001
 21
1.0
 31
0.0
 73
     1
 44
1.0
1001
ACAD
1000
MTEXTBEGIN
1070
    73
1070
     1
1070
    44
1040
1.0
1070
    74
1070
     0
1000
MTEXTEND
  0
POINT
  5
1B0F7
330
1B03B
100
AcDbEntity
  8
DEFPOINTS
 62
     0
 48
50.0
100
AcDbPoint
 10
10192.34952419877
 20
2325.397861808415
 30
0.0
  0
POINT
  5
1B0F8
330
1B03B
100
AcDbEntity
  8
DEFPOINTS
 62
     0
 48
50.0
100
AcDbPoint
 10
10192.34952419877
 20
4211.397861808413
 30
0.0
  0
POINT
  5
1B0F9
330
1B03B
100
AcDbEntity
  8
DEFPOINTS
 62
     0
 48
50.0
100
AcDbPoint
 10
10479.89262652051
 20
4211.397861808413
 30
0.0
  0
ENDBLK
  5
1B046
330
1B03B
100
AcDbEntity
  8
0
 48
50.0
100
AcDbBlockEnd
  0
BLOCK
  5
1B053
330
1B047
100
AcDbEntity
  8
0
 48
50.0
100
AcDbBlockBegin
  2
*D43
 70
     1
 10
0.0
 20
0.0
 30
0.0
  3
*D43
  1

  0
LINE
  5
1B5D2
330
1B047
100
AcDbEntity
  8
寸法
 62
     0
 48
50.0
370
    -2
100
AcDbLine
 10
10212.34952419877
 20
4211.397861808413
 30
0.0
 11
10539.89262652051
 21
4211.397861808413
 31
0.0
  0
LINE
  5
1B5D3
330
1B047
100
AcDbEntity
  8
寸法
 62
     0
 48
50.0
370
    -2
100
AcDbLine
 10
10212.34952419877
 20
4238.397861808415
 30
0.0
 11
10539.89262652051
 21
4238.397861808414
 31
0.0
  0
LINE
  5
1B5D4
330
1B047
100
AcDbEntity
  8
寸法
 62
     0
 48
50.0
370
    -2
100
AcDbLine
 10
10479.89262652051
 20
4211.397861808413
 30
0.0
 11
10479.89262652051
 21
4111.397861808413
 31
0.0
  0
LINE
  5
1B5D5
330
1B047
100
AcDbEntity
  8
寸法
 62
     0
 48
50.0
370
    -2
100
AcDbLine
 10
10479.89262652051
 20
4238.397861808414
 30
0.0
 11
10479.89262652051
 21
4338.397861808415
 31
0.0
  0
MTEXT
  5
1B5D6
330
1B047
100
AcDbEntity
  8
寸法
 62
     7
 48
50.0
100
AcDbMText
 10
10620.06244976688
 20
4239.365061648073
 30
0.0
 40
120.0
 41
0.0
 71
     5
 72
     1
  1
\A1;27
  7
STYLE1
 11
0.0000000000000001
 21
1.0
 31
0.0
 73
     1
 44
1.0
1001
ACAD
1000
MTEXTBEGIN
1070
    73
1070
     1
1070
    44
1040
1.0
1070
    74
1070
     0
1000
MTEXTEND
  0
LINE
  5
1B5D7
330
1B047
100
AcDbEntity
  8
寸法
 62
     0
 48
50.0
370
    -2
100
AcDbLine
 10
10479.89262652051
 20
4211.397861808413
 30
0.0
 11
10479.89262652051
 21
4238.397861808414
 31
0.0
  0
INSERT
  5
1B5D8
330
1B047
100
AcDbEntity
  8
寸法
 62
     0
 48
50.0
370
    -2
100
AcDbBlockReference
  2
_DOTSMALL
 10
10479.89262652051
 20
4211.397861808413
 30
0.0
 41
100.0
 42
100.0
 43
100.0
 50
90.0
  0
INSERT
  5
1B5D9
330
1B047
100
AcDbEntity
  8
寸法
 62
     0
 48
50.0
370
    -2
100
AcDbBlockReference
  2
_DOTSMALL
 10
10479.89262652051
 20
4238.397861808414
 30
0.0
 41
100.0
 42
100.0
 43
100.0
 50
270.0
  0
POINT
  5
1B5DA
330
1B047
100
AcDbEntity
  8
DEFPOINTS
 62
     0
 48
50.0
100
AcDbPoint
 10
10192.34952419877
 20
4211.397861808413
 30
0.0
  0
POINT
  5
1B5DB
330
1B047
100
AcDbEntity
  8
DEFPOINTS
 62
     0
 48
50.0
100
AcDbPoint
 10
10192.34952419877
 20
4238.397861808415
 30
0.0
  0
POINT
  5
1B5DC
330
1B047
100
AcDbEntity
  8
DEFPOINTS
 62
     0
 48
50.0
100
AcDbPoint
 10
10479.89262652051
 20
4238.397861808414
 30
0.0
  0
ENDBLK
  5
1B054
330
1B047
100
AcDbEntity
  8
0
 48
50.0
100
AcDbBlockEnd
  0
BLOCK
  5
1B060
330
1B055
100
AcDbEntity
  8
0
 48
50.0
100
AcDbBlockBegin
  2
*D44
 70
     1
 10
0.0
 20
0.0
 30
0.0
  3
*D44
  1

  0
LINE
  5
1B5C8
330
1B055
100
AcDbEntity
  8
寸法
 62
     0
 48
50.0
370
    -2
100
AcDbLine
 10
10212.34952419877
 20
4238.397861808415
 30
0.0
 11
10539.89262652052
 21
4238.397861808414
 31
0.0
  0
LINE
  5
1B5C9
330
1B055
100
AcDbEntity
  8
寸法
 62
     0
 48
50.0
370
    -2
100
AcDbLine
 10
10212.34952419877
 20
4403.397861808414
 30
0.0
 11
10539.89262652052
 21
4403.397861808413
 31
0.0
  0
LINE
  5
1B5CA
330
1B055
100
AcDbEntity
  8
寸法
 62
     0
 48
50.0
370
    -2
100
AcDbLine
 10
10479.89262652052
 20
4238.397861808414
 30
0.0
 11
10479.89262652052
 21
4403.397861808413
 31
0.0
  0
LINE
  5
1B5CB
330
1B055
100
AcDbEntity
  8
寸法
 62
     0
 48
50.0
370
    -2
100
AcDbLine
 10
10479.89262652052
 20
4403.397861808413
 30
0.0
 11
10479.89262652052
 21
4780.368424556892
 31
0.0
  0
INSERT
  5
1B5CC
330
1B055
100
AcDbEntity
  8
寸法
 62
     0
 48
50.0
370
    -2
100
AcDbBlockReference
  2
_DOTSMALL
 10
10479.89262652052
 20
4238.397861808414
 30
0.0
 41
100.0
 42
100.0
 43
100.0
 50
270.0
  0
INSERT
  5
1B5CD
330
1B055
100
AcDbEntity
  8
寸法
 62
     0
 48
50.0
370
    -2
100
AcDbBlockReference
  2
_DOTSMALL
 10
10479.89262652052
 20
4403.397861808413
 30
0.0
 41
100.0
 42
100.0
 43
100.0
 50
90.0
  0
MTEXT
  5
1B5CE
330
1B055
100
AcDbEntity
  8
寸法
 62
     7
 48
50.0
100
AcDbMText
 10
10379.89262652051
 20
4641.883143182655
 30
0.0
 40
120.0
 41
0.0
 71
     5
 72
     1
  1
\A1;165
  7
STYLE1
 11
0.0000000000000001
 21
1.0
 31
0.0
 73
     1
 44
1.0
1001
ACAD
1000
MTEXTBEGIN
1070
    73
1070
     1
1070
    44
1040
1.0
1070
    74
1070
     0
1000
MTEXTEND
  0
POINT
  5
1B5CF
330
1B055
100
AcDbEntity
  8
DEFPOINTS
 62
     0
 48
50.0
100
AcDbPoint
 10
10192.34952419877
 20
4238.397861808415
 30
0.0
  0
POINT
  5
1B5D0
330
1B055
100
AcDbEntity
  8
DEFPOINTS
 62
     0
 48
50.0
100
AcDbPoint
 10
10192.34952419877
 20
4403.397861808414
 30
0.0
  0
POINT
  5
1B5D1
330
1B055
100
AcDbEntity
  8
DEFPOINTS
 62
     0
 48
50.0
100
AcDbPoint
 10
10479.89262652052
 20
4403.397861808413
 30
0.0
  0
ENDBLK
  5
1B061
330
1B055
100
AcDbEntity
  8
0
 48
50.0
100
AcDbBlockEnd
  0
BLOCK
  5
1B3E6
330
1B3E4
100
AcDbEntity
  8
0
 48
50.0
100
AcDbBlockBegin
  2
A$C1D6D5853
 70
     0
 10
0.0
 20
0.0
 30
0.0
  3
A$C1D6D5853
  1

  0
TEXT
  5
1B3E5
330
1B3E4
100
AcDbEntity
  8
文字
 62
     7
 48
50.0
100
AcDbText
 10
237.4396547451652
 20
-139.5862541162733
 30
0.0
 40
100.0
  1
F12         0.7,1.2
  7
STYLE1
100
AcDbText
  0
ENDBLK
  5
1B3E7
330
1B3E4
100
AcDbEntity
  8
0
 48
50.0
100
AcDbBlockEnd
  0
BLOCK
  5
1B3F9
330
1B3F7
100
AcDbEntity
  8
0
 48
50.0
100
AcDbBlockBegin
  2
A$C7CB06ECC
 70
     0
 10
0.0
 20
0.0
 30
0.0
  3
A$C7CB06ECC
  1

  0
TEXT
  5
1B3F8
330
1B3F7
100
AcDbEntity
  8
文字
 62
     7
 48
50.0
100
AcDbText
 10
17.45452747081072
 20
34.7537888297245
 30
0.0
 40
100.0
  1
～多雪地型～
  7
STYLE2
100
AcDbText
  0
ENDBLK
  5
1B3FA
330
1B3F7
100
AcDbEntity
  8
0
 48
50.0
100
AcDbBlockEnd
  0
BLOCK
  5
1B423
330
1B419
100
AcDbEntity
  8
0
 48
50.0
100
AcDbBlockBegin
  2
*D47
 70
     1
 10
0.0
 20
0.0
 30
0.0
  3
*D47
  1

  0
LINE
  5
1B425
330
1B419
100
AcDbEntity
  8
寸法
 62
     0
 48
50.0
370
    -2
100
AcDbLine
 10
4137.349524198813
 20
9201.463686763013
 30
0.0
 11
4489.190884459651
 21
9201.463686763013
 31
0.0
  0
LINE
  5
1B426
330
1B419
100
AcDbEntity
  8
寸法
 62
     0
 48
50.0
370
    -2
100
AcDbLine
 10
4167.349524199049
 20
9917.963690340188
 30
0.0
 11
4489.190884459651
 21
9917.963690340188
 31
0.0
  0
LINE
  5
1B427
330
1B419
100
AcDbEntity
  8
寸法
 62
     0
 48
50.0
370
    -2
100
AcDbLine
 10
4429.190884459652
 20
9201.463686763013
 30
0.0
 11
4429.190884459652
 21
9917.963690340188
 31
0.0
  0
INSERT
  5
1B428
330
1B419
100
AcDbEntity
  8
寸法
 62
     0
 48
50.0
370
    -2
100
AcDbBlockReference
  2
_DOTSMALL
 10
4429.190884459652
 20
9201.463686763013
 30
0.0
 41
100.0
 42
100.0
 43
100.0
 50
270.0
  0
INSERT
  5
1B429
330
1B419
100
AcDbEntity
  8
寸法
 62
     0
 48
50.0
370
    -2
100
AcDbBlockReference
  2
_DOTSMALL
 10
4429.190884459652
 20
9917.963690340188
 30
0.0
 41
100.0
 42
100.0
 43
100.0
 50
90.0
  0
MTEXT
  5
1B42A
330
1B419
100
AcDbEntity
  8
寸法
 62
     7
 48
50.0
100
AcDbMText
 10
4329.190884459651
 20
9648.463050231827
 30
0.0
 40
120.0
 41
0.0
 71
     5
 72
     1
  1
\A1;716.5
  7
STYLE1
 11
0.0000000000000001
 21
1.0
 31
0.0
 73
     1
 44
1.0
1001
ACAD
1000
MTEXTBEGIN
1070
    73
1070
     1
1070
    44
1040
1.0
1070
    74
1070
     0
1000
MTEXTEND
  0
POINT
  5
1B42B
330
1B419
100
AcDbEntity
  8
DEFPOINTS
 62
     0
 48
50.0
100
AcDbPoint
 10
4117.349524198814
 20
9201.463686763013
 30
0.0
  0
POINT
  5
1B42C
330
1B419
100
AcDbEntity
  8
DEFPOINTS
 62
     0
 48
50.0
100
AcDbPoint
 10
4147.349524199049
 20
9917.963690340188
 30
0.0
  0
POINT
  5
1B42D
330
1B419
100
AcDbEntity
  8
DEFPOINTS
 62
     0
 48
50.0
100
AcDbPoint
 10
4429.190884459652
 20
9917.963690340188
 30
0.0
  0
ENDBLK
  5
1B424
330
1B419
100
AcDbEntity
  8
0
 48
50.0
100
AcDbBlockEnd
  0
ENDSEC
  0
SECTION
  2
ENTITIES
  0
MTEXT
  5
763F
330
747D
100
AcDbEntity
  8
0
100
AcDbMText
 10
302.846345836809
 20
280.1983726409901
 30
0.0
 40
3.5
 41
5.323721266742722
 71
     1
 72
     5
  1

  7
MSMINCHO
 73
     1
 44
1.0
1001
ACAD
1000
MTEXTBEGIN
1070
    73
1070
     1
1070
    44
1040
1.0
1070
    74
1070
     0
1000
MTEXTEND
  0
LINE
  5
10B57
330
747D
100
AcDbEntity
  8
補助
  6
PHANTOM
 62
   230
 48
50.0
100
AcDbLine
 10
139.9999999999995
 20
11409.6
 30
0.0
 11
16307.2
 21
11409.6
 31
0.0
  0
LINE
  5
10B59
330
747D
100
AcDbEntity
  8
仕様書枠
  6
Continuous
 48
50.0
100
AcDbLine
 10
13107.2
 20
1200.0
 30
0.0
 11
13107.2
 21
-0.0000000000000729
 31
0.0
  0
LINE
  5
10B5C
330
747D
100
AcDbEntity
  8
仕様書枠
 48
50.0
100
AcDbLine
 10
16307.2
 20
1200.0
 30
0.0
 11
16307.2
 21
-0.0000000000000909
 31
0.0
  0
LINE
  5
10B5D
330
747D
100
AcDbEntity
  8
仕様書枠
 48
50.0
100
AcDbLine
 10
140.0
 20
0.0
 30
0.0
 11
16307.2
 21
-0.0000000000000909
 31
0.0
  0
LINE
  5
10B5E
330
747D
100
AcDbEntity
  8
補助
  6
PHANTOM
 62
   230
 48
50.0
100
AcDbLine
 10
16307.2
 20
11409.6
 30
0.0
 11
16307.2
 21
1200.0
 31
0.0
  0
LINE
  5
10B6C
330
747D
100
AcDbEntity
  8
仕様書枠
 48
50.0
100
AcDbLine
 10
13107.2
 20
1200.0
 30
0.0
 11
16307.2
 21
1200.0
 31
0.0
  0
LINE
  5
10B6D
330
747D
100
AcDbEntity
  8
補助
  6
PHANTOM
 62
   230
 48
50.0
100
AcDbLine
 10
13107.2
 20
11409.6
 30
0.0
 11
13107.2
 21
4800.0
 31
0.0
  0
LINE
  5
10B6F
330
747D
100
AcDbEntity
  8
補助
  6
PHANTOM
 62
   230
 48
50.0
100
AcDbLine
 10
13107.2
 20
4800.0
 30
0.0
 11
16307.2
 21
4800.0
 31
0.0
  0
LINE
  5
10B72
330
747D
100
AcDbEntity
  8
文字
 62
     7
 48
50.0
100
AcDbLine
 10
13187.2
 20
400.0
 30
0.0
 11
16227.2
 21
400.0
 31
0.0
  0
TEXT
  5
10B73
330
747D
100
AcDbEntity
  8
文字
 62
     7
 48
50.0
100
AcDbText
 10
13162.9790565769
 20
895.0906074299405
 30
0.0
 40
200.0
  1
外 形 図
  7
STYLE2
100
AcDbText
  0
TEXT
  5
10B74
330
747D
100
AcDbEntity
  8
文字
 62
     7
 48
50.0
100
AcDbText
 10
13201.43669998441
 20
477.2740661031255
 30
0.0
 40
160.0
  1
機種名
  7
STYLE2
100
AcDbText
  0
TEXT
  5
10B75
330
747D
100
AcDbEntity
  8
文字
 62
     7
 48
50.0
100
AcDbText
 10
13209.4053442172
 20
228.5435242569016
 30
0.0
 40
100.0
  1
○有効開口寸法 ： 2844×1886(mm)
  7
STYLE2
100
AcDbText
  0
TEXT
  5
10B76
330
747D
100
AcDbEntity
  8
文字
 62
     7
 48
50.0
100
AcDbText
 10
13209.4053442172
 20
76.09434707649343
 30
0.0
 40
100.0
  1
○床面積 ： N［連続数］×9.30㎡(2.82坪) 　
  7
STYLE2
100
AcDbText
  0
TEXT
  5
10B79
330
747D
100
AcDbEntity
  8
文字
 62
     7
 48
50.0
100
AcDbText
 10
14524.131837222
 20
1031.557706291228
 30
0.0
 40
100.0
  1
NO.64      <縮尺> S=1/40
  7
STYLE2
100
AcDbText
  0
LINE
  5
10B7B
330
747D
100
AcDbEntity
  8
仕様書枠
 48
50.0
100
AcDbLine
 10
13107.2
 20
800.0
 30
0.0
 11
14251.2
 21
800.0
 31
0.0
  0
LINE
  5
10B88
330
747D
100
AcDbEntity
  8
仕様書枠
  6
Continuous
 48
50.0
100
AcDbLine
 10
14251.2
 20
1200.0
 30
0.0
 11
14251.2
 21
800.0
 31
0.0
  0
DIMENSION
  5
162CD
330
747D
100
AcDbEntity
  8
寸法
100
AcDbDimension
  2
*D1
 10
11030.62602232871
 20
6922.963687641105
 30
0.0
 11
10930.61421130509
 21
8392.963687641115
 31
0.0
 70
    32
  1
7X420=<>
 71
     5
 42
2940.000000000015
  3
INABA_S40G
100
AcDbAlignedDimension
 13
10192.34952419878
 23
9862.963687641121
 33
0.0
 14
10192.34952419875
 24
6922.963687641106
 34
0.0
 50
90.0
100
AcDbRotatedDimension
1001
ACAD
1000
DSTYLE
1002
{
1002
}
  0
DIMENSION
  5
162CE
330
747D
100
AcDbEntity
  8
寸法
100
AcDbDimension
  2
*D2
 10
11030.62602232869
 20
6867.963687641109
 30
0.0
 11
11030.62602232869
 21
6490.102220736247
 31
0.0
 70
   160
 71
     5
 42
54.99999999999636
  3
INABA_S40G
100
AcDbAlignedDimension
 13
10192.34952419875
 23
6922.963687641106
 33
0.0
 14
10192.34952419875
 24
6867.963687641109
 34
0.0
 50
90.0
100
AcDbRotatedDimension
1001
ACAD
1000
DSTYLE
1002
{
1002
}
  0
DIMENSION
  5
162CF
330
747D
100
AcDbEntity
  8
寸法
100
AcDbDimension
  2
*D3
 10
11030.62602232872
 20
9862.963687641121
 30
0.0
 11
11030.62602232871
 21
10226.44896901536
 31
0.0
 70
   160
 71
     5
 42
54.99999999999636
  3
INABA_S40G
100
AcDbAlignedDimension
 13
10192.34952419878
 23
9917.963687641117
 33
0.0
 14
10192.34952419878
 24
9862.963687641121
 34
0.0
 50
90.0
100
AcDbRotatedDimension
1001
ACAD
1000
DSTYLE
1002
{
1002
}
  0
DIMENSION
  5
162D0
330
747D
100
AcDbEntity
  8
寸法
100
AcDbDimension
  2
*D4
 10
11395.73296406835
 20
6867.963687641109
 30
0.0
 11
11295.73296406835
 21
8392.963687641115
 31
0.0
 70
    32
 71
     5
 42
3050.000000000008
  3
INABA_S40G
100
AcDbAlignedDimension
 13
10192.34952419878
 23
9917.963687641117
 33
0.0
 14
10192.34952419875
 24
6867.963687641109
 34
0.0
 50
90.0
100
AcDbRotatedDimension
1001
ACAD
1000
DSTYLE
1002
{
1002
}
  0
LINE
  5
162DC
330
747D
100
AcDbEntity
  8
部品1
100
AcDbLine
 10
10164.34952419876
 20
9889.963687641117
 30
0.0
 11
10164.34952419875
 21
6922.963687641106
 31
0.0
  0
LINE
  5
162DD
330
747D
100
AcDbEntity
  8
部品1
100
AcDbLine
 10
1070.349524198755
 20
6922.963687640976
 30
0.0
 11
1070.349524198762
 21
9889.963687641024
 31
0.0
  0
LINE
  5
162DE
330
747D
100
AcDbEntity
  8
部品1
100
AcDbLine
 10
10192.34952419878
 20
9917.963687641117
 30
0.0
 11
10192.34952419875
 21
6867.963687641109
 31
0.0
  0
LINE
  5
162DF
330
747D
100
AcDbEntity
  8
部品1
100
AcDbLine
 10
1042.349524198744
 20
9917.963687640991
 30
0.0
 11
1042.349524198769
 21
6867.963687640979
 31
0.0
  0
DIMENSION
  5
162E4
330
747D
100
AcDbEntity
  8
寸法
 48
50.0
100
AcDbDimension
  2
*D5
 10
7245.349524198771
 20
6333.532916874855
 30
0.0
 11
8667.349524198762
 21
6433.544727898476
 31
0.0
 70
    32
  1
有効開口部間口 <>
 71
     5
 42
2843.999999999982
  3
INABA_S40G
100
AcDbAlignedDimension
 13
10089.34952419875
 23
6893.963687641019
 33
0.0
 14
7245.349524198771
 24
6893.963687641019
 34
0.0
100
AcDbRotatedDimension
1001
ACAD
1000
DSTYLE
1002
{
1070
    75
1070
     1
1070
   279
1070
     2
1002
}
  0
LINE
  5
162E6
330
747D
100
AcDbEntity
  8
部品1
 48
50.0
100
AcDbLine
 10
7209.34952419877
 20
6913.463687641017
 30
0.0
 11
10125.34952419875
 21
6913.463687641017
 31
0.0
  0
DIMENSION
  5
162E7
330
747D
100
AcDbEntity
  8
寸法
100
AcDbDimension
  2
*D6
 10
10192.34952419874
 20
5887.35992128398
 30
0.0
 11
5617.349524198757
 21
5987.35992128398
 31
0.0
 70
    32
  1
N X 3050
 71
     5
 42
9149.999999999971
  3
INABA_S40G
100
AcDbAlignedDimension
 13
1042.349524198771
 23
6867.963687641015
 33
0.0
 14
10192.34952419874
 24
6867.963687641109
 34
0.0
100
AcDbRotatedDimension
1001
ACAD
1000
DSTYLE
1002
{
1002
}
  0
LINE
  5
162E8
330
747D
100
AcDbEntity
  8
部品1
100
AcDbLine
 10
1097.349524198758
 20
9437.963687641024
 30
0.0
 11
1097.349524198769
 21
6932.963687641017
 31
0.0
  0
LINE
  5
162E9
330
747D
100
AcDbEntity
  8
破線
 48
10.0
100
AcDbLine
 10
1122.349524198769
 20
9437.963687641028
 30
0.0
 11
1122.349524198769
 21
7022.963687641015
 31
0.0
  0
DIMENSION
  5
162EA
330
747D
100
AcDbEntity
  8
寸法
 48
50.0
100
AcDbDimension
  2
*D7
 10
1042.349524198771
 20
6333.532916874855
 30
0.0
 11
733.8642428245325
 21
6333.532916874855
 31
0.0
 70
   160
 71
     5
 42
54.99999999999636
  3
INABA_S40G
100
AcDbAlignedDimension
 13
1097.349524198767
 23
6867.963687641019
 33
0.0
 14
1042.349524198771
 24
6867.963687641015
 34
0.0
100
AcDbRotatedDimension
1001
ACAD
1000
DSTYLE
1002
{
1002
}
  0
DIMENSION
  5
162EB
330
747D
100
AcDbEntity
  8
寸法
 48
50.0
100
AcDbDimension
  2
*D8
 10
7197.349524198767
 20
6333.532916874855
 30
0.0
 11
7358.251495198828
 21
6433.532916874854
 31
0.0
 70
   160
 71
     5
 42
48.00000000000363
  3
INABA_S40G
100
AcDbAlignedDimension
 13
7245.349524198771
 23
6893.963687641019
 33
0.0
 14
7197.349524198767
 24
6867.963687641019
 34
0.0
100
AcDbRotatedDimension
1001
ACAD
1000
DSTYLE
1002
{
1070
   279
1070
     2
1002
}
  0
LINE
  5
162EC
330
747D
100
AcDbEntity
  8
部品1
100
AcDbLine
 10
1097.349524198769
 20
6867.963687641019
 30
0.0
 11
1042.349524198769
 21
6867.963687641015
 31
0.0
  0
LINE
  5
162ED
330
747D
100
AcDbEntity
  8
部品1
 48
50.0
100
AcDbLine
 10
1097.349524198769
 20
6903.963687641017
 30
0.0
 11
1074.349524198769
 21
6903.963687641017
 31
0.0
  0
LINE
  5
162EE
330
747D
100
AcDbEntity
  8
部品1
 48
50.0
100
AcDbLine
 10
1107.349524198769
 20
6893.963687641019
 30
0.0
 11
1097.349524198769
 21
6872.963687641018
 31
0.0
  0
LINE
  5
162EF
330
747D
100
AcDbEntity
  8
部品1
 48
50.0
100
AcDbLine
 10
1097.349524198769
 20
6932.963687641017
 30
0.0
 11
1097.349524198769
 21
6867.963687641019
 31
0.0
  0
LINE
  5
162F0
330
747D
100
AcDbEntity
  8
部品1
 48
50.0
100
AcDbLine
 10
1145.349524198769
 20
6893.963687641019
 30
0.0
 11
1145.349524198769
 21
6902.963687641019
 31
0.0
  0
LINE
  5
162F1
330
747D
100
AcDbEntity
  8
部品1
 48
50.0
100
AcDbLine
 10
1145.349524198769
 20
6932.963687641019
 30
0.0
 11
1145.349524198769
 21
6923.963687641019
 31
0.0
  0
LINE
  5
162F2
330
747D
100
AcDbEntity
  8
部品1
100
AcDbLine
 10
1145.349524198769
 20
6932.963687641019
 30
0.0
 11
1097.349524198769
 21
6932.963687641019
 31
0.0
  0
LINE
  5
162F3
330
747D
100
AcDbEntity
  8
部品1
100
AcDbLine
 10
1145.349524198769
 20
6893.963687641019
 30
0.0
 11
1097.349524198769
 21
6893.963687641019
 31
0.0
  0
LINE
  5
162F4
330
747D
100
AcDbEntity
  8
部品1
100
AcDbLine
 10
1097.349524198769
 20
6903.963687641017
 30
0.0
 11
1074.349524198769
 21
6903.963687641017
 31
0.0
  0
LINE
  5
162F5
330
747D
100
AcDbEntity
  8
部品1
100
AcDbLine
 10
1097.349524198769
 20
6922.963687640943
 30
0.0
 11
1042.349524198769
 21
6922.963687640943
 31
0.0
  0
LINE
  5
162F6
330
747D
100
AcDbEntity
  8
部品1
100
AcDbLine
 10
1070.349524198755
 20
6922.963687640979
 30
0.0
 11
1042.349524198769
 21
6922.963687640979
 31
0.0
  0
LINE
  5
162F7
330
747D
100
AcDbEntity
  8
部品1
100
AcDbLine
 10
1070.349524198769
 20
6922.963687640993
 30
0.0
 11
1042.349524198769
 21
6922.963687640993
 31
0.0
  0
LINE
  5
162FB
330
747D
100
AcDbEntity
  8
部品1
100
AcDbLine
 10
1070.349524198758
 20
8602.963687640993
 30
0.0
 11
1042.349524198758
 21
8602.963687640993
 31
0.0
  0
LINE
  5
162FC
330
747D
100
AcDbEntity
  8
部品1
100
AcDbLine
 10
1070.349524198758
 20
9022.963687640993
 30
0.0
 11
1042.349524198758
 21
9022.963687640993
 31
0.0
  0
LINE
  5
162FE
330
747D
100
AcDbEntity
  8
部品1
100
AcDbLine
 10
1070.349524198755
 20
9442.963687640993
 30
0.0
 11
1042.349524198755
 21
9442.963687640993
 31
0.0
  0
LINE
  5
162FF
330
747D
100
AcDbEntity
  8
部品1
100
AcDbLine
 10
10137.34952419876
 20
9437.963687641024
 30
0.0
 11
10137.34952419875
 21
6867.963687641107
 31
0.0
  0
DIMENSION
  5
16301
330
747D
100
AcDbEntity
  8
寸法
 48
50.0
100
AcDbDimension
  2
*D9
 10
10089.34952419875
 20
6333.532916874855
 30
0.0
 11
9978.386626550005
 21
6433.532916874854
 31
0.0
 70
   160
 71
     5
 42
48.00000000000181
  3
INABA_S40G
100
AcDbAlignedDimension
 13
10137.34952419875
 23
6867.963687641107
 33
0.0
 14
10089.34952419875
 24
6893.963687641019
 34
0.0
100
AcDbRotatedDimension
1001
ACAD
1000
DSTYLE
1002
{
1070
   279
1070
     2
1002
}
  0
DIMENSION
  5
16302
330
747D
100
AcDbEntity
  8
寸法
 48
50.0
100
AcDbDimension
  2
*D10
 10
10137.34952419875
 20
6333.532916874855
 30
0.0
 11
10500.83480557299
 21
6333.532916874855
 31
0.0
 70
   160
 71
     5
 42
54.99999999999818
  3
INABA_S40G
100
AcDbAlignedDimension
 13
10192.34952419875
 23
6867.963687641109
 33
0.0
 14
10137.34952419875
 24
6867.963687641107
 34
0.0
100
AcDbRotatedDimension
1001
ACAD
1000
DSTYLE
1002
{
1002
}
  0
LINE
  5
16303
330
747D
100
AcDbEntity
  8
部品1
 48
50.0
100
AcDbLine
 10
10127.34952419875
 20
6893.963687641019
 30
0.0
 11
10137.34952419875
 21
6872.963687641018
 31
0.0
  0
LINE
  5
16304
330
747D
100
AcDbEntity
  8
部品1
100
AcDbLine
 10
10089.34952419875
 20
6932.963687641019
 30
0.0
 11
10137.34952419875
 21
6932.963687641019
 31
0.0
  0
LINE
  5
16305
330
747D
100
AcDbEntity
  8
部品1
100
AcDbLine
 10
10089.34952419875
 20
6893.963687641019
 30
0.0
 11
10137.34952419875
 21
6893.963687641019
 31
0.0
  0
LINE
  5
16306
330
747D
100
AcDbEntity
  8
部品1
 48
50.0
100
AcDbLine
 10
10089.34952419875
 20
6932.963687641019
 30
0.0
 11
10089.34952419875
 21
6923.963687641019
 31
0.0
  0
LINE
  5
16307
330
747D
100
AcDbEntity
  8
部品1
 48
50.0
100
AcDbLine
 10
10089.34952419875
 20
6893.963687641019
 30
0.0
 11
10089.34952419875
 21
6902.963687641019
 31
0.0
  0
LINE
  5
16308
330
747D
100
AcDbEntity
  8
部品1
100
AcDbLine
 10
10137.34952419875
 20
6903.963687641016
 30
0.0
 11
10160.34952419875
 21
6903.963687641017
 31
0.0
  0
LINE
  5
16309
330
747D
100
AcDbEntity
  8
部品1
100
AcDbLine
 10
10137.34952419875
 20
6922.963687641121
 30
0.0
 11
10192.34952419878
 21
6922.963687641121
 31
0.0
  0
LINE
  5
1630A
330
747D
100
AcDbEntity
  8
部品1
100
AcDbLine
 10
10192.34952419875
 20
6867.963687641109
 30
0.0
 11
10137.34952419875
 21
6867.963687641107
 31
0.0
  0
LINE
  5
16317
330
747D
100
AcDbEntity
  8
部品1
100
AcDbLine
 10
10164.34952419878
 20
8602.963687641119
 30
0.0
 11
10192.34952419878
 21
8602.963687641119
 31
0.0
  0
LINE
  5
16319
330
747D
100
AcDbEntity
  8
部品1
100
AcDbLine
 10
10164.34952419878
 20
9022.963687641121
 30
0.0
 11
10192.34952419878
 21
9022.963687641121
 31
0.0
  0
LINE
  5
1631A
330
747D
100
AcDbEntity
  8
部品1
100
AcDbLine
 10
10164.34952419878
 20
9442.963687641121
 30
0.0
 11
10192.34952419878
 21
9442.963687641121
 31
0.0
  0
LINE
  5
1631C
330
747D
100
AcDbEntity
  8
部品1
100
AcDbLine
 10
7170.349524198776
 20
9889.963687641023
 30
0.0
 11
8654.849524198775
 21
9889.963687641023
 31
0.0
  0
LINE
  5
1631D
330
747D
100
AcDbEntity
  8
部品1
100
AcDbLine
 10
1042.349524198776
 20
9917.963687641023
 30
0.0
 11
10192.34952419877
 21
9917.963687641115
 31
0.0
  0
DIMENSION
  5
1631F
330
747D
100
AcDbEntity
  8
寸法
100
AcDbDimension
  2
*D11
 10
10137.34952419878
 20
10298.5379167915
 30
0.0
 11
8667.349524198778
 21
10398.54972781512
 31
0.0
 70
    32
  1
7X420=<>
 71
     5
 42
2940.000000000001
  3
INABA_S40G
100
AcDbAlignedDimension
 13
7197.349524198777
 23
9917.963687641023
 33
0.0
 14
10137.34952419878
 24
9917.963687641117
 34
0.0
100
AcDbRotatedDimension
1001
ACAD
1000
DSTYLE
1002
{
1002
}
  0
DIMENSION
  5
16320
330
747D
100
AcDbEntity
  8
寸法
100
AcDbDimension
  2
*D12
 10
1097.349524198778
 20
10298.53791679138
 30
0.0
 11
733.8642428245052
 21
10298.53791679138
 31
0.0
 70
   160
 71
     5
 42
55.00000000003456
  3
INABA_S40G
100
AcDbAlignedDimension
 13
1042.349524198744
 23
9917.963687641023
 33
0.0
 14
1097.349524198778
 24
9917.963687641023
 34
0.0
100
AcDbRotatedDimension
1001
ACAD
1000
DSTYLE
1002
{
1002
}
  0
LINE
  5
16321
330
747D
100
AcDbEntity
  8
部品1
100
AcDbLine
 10
1097.349524198744
 20
9917.963687640991
 30
0.0
 11
1097.349524198747
 21
9889.963687640991
 31
0.0
  0
LINE
  5
16322
330
747D
100
AcDbEntity
  8
部品1
100
AcDbLine
 10
1097.349524198776
 20
9917.963687641023
 30
0.0
 11
1097.349524198776
 21
9889.963687641023
 31
0.0
  0
LINE
  5
16323
330
747D
100
AcDbEntity
  8
部品1
100
AcDbLine
 10
1070.349524198747
 20
9862.963687640993
 30
0.0
 11
1042.349524198747
 21
9862.963687640993
 31
0.0
  0
LINE
  5
16324
330
747D
100
AcDbEntity
  8
部品1
100
AcDbLine
 10
8037.349524198777
 20
9917.96368764114
 30
0.0
 11
8037.349524198777
 21
9889.96368764114
 31
0.0
  0
LINE
  5
16325
330
747D
100
AcDbEntity
  8
部品1
100
AcDbLine
 10
8037.349524198777
 20
9917.963687641023
 30
0.0
 11
8037.349524198777
 21
9889.963687641023
 31
0.0
  0
LINE
  5
16326
330
747D
100
AcDbEntity
  8
部品1
100
AcDbLine
 10
8037.349524198777
 20
9917.963687641023
 30
0.0
 11
8037.349524198777
 21
9889.963687641023
 31
0.0
  0
LINE
  5
16329
330
747D
100
AcDbEntity
  8
部品1
100
AcDbLine
 10
8457.349524198777
 20
9917.96368764114
 30
0.0
 11
8457.349524198777
 21
9889.96368764114
 31
0.0
  0
LINE
  5
1632A
330
747D
100
AcDbEntity
  8
部品1
100
AcDbLine
 10
8457.349524198777
 20
9917.963687641023
 30
0.0
 11
8457.349524198777
 21
9889.963687641023
 31
0.0
  0
LINE
  5
1632B
330
747D
100
AcDbEntity
  8
部品1
100
AcDbLine
 10
8457.349524198777
 20
9917.963687641023
 30
0.0
 11
8457.349524198777
 21
9889.963687641023
 31
0.0
  0
LINE
  5
1632C
330
747D
100
AcDbEntity
  8
部品1
100
AcDbLine
 10
8877.349524198777
 20
9917.96368764114
 30
0.0
 11
8877.349524198777
 21
9889.96368764114
 31
0.0
  0
LINE
  5
16332
330
747D
100
AcDbEntity
  8
部品1
100
AcDbLine
 10
9297.349524198777
 20
9917.96368764114
 30
0.0
 11
9297.349524198777
 21
9889.96368764114
 31
0.0
  0
DIMENSION
  5
16333
330
747D
100
AcDbEntity
  8
寸法
100
AcDbDimension
  2
*D13
 10
10192.34952419878
 20
10298.53791679148
 30
0.0
 11
10500.83480557301
 21
10298.53791679148
 31
0.0
 70
   160
 71
     5
 42
55.0
  3
INABA_S40G
100
AcDbAlignedDimension
 13
10137.34952419878
 23
9917.963687641117
 33
0.0
 14
10192.34952419878
 24
9917.963687641117
 34
0.0
100
AcDbRotatedDimension
1001
ACAD
1000
DSTYLE
1002
{
1002
}
  0
LINE
  5
16334
330
747D
100
AcDbEntity
  8
部品1
100
AcDbLine
 10
9717.349524198777
 20
9917.96368764114
 30
0.0
 11
9717.349524198777
 21
9889.96368764114
 31
0.0
  0
LINE
  5
16335
330
747D
100
AcDbEntity
  8
部品1
100
AcDbLine
 10
10137.34952419878
 20
9917.963687641117
 30
0.0
 11
10137.34952419878
 21
9889.963687641117
 31
0.0
  0
LINE
  5
16336
330
747D
100
AcDbEntity
  8
部品1
100
AcDbLine
 10
10137.34952419878
 20
9917.96368764114
 30
0.0
 11
10137.34952419878
 21
9889.96368764114
 31
0.0
  0
LINE
  5
16337
330
747D
100
AcDbEntity
  8
部品1
100
AcDbLine
 10
10164.34952419878
 20
9862.963687641121
 30
0.0
 11
10192.34952419878
 21
9862.963687641121
 31
0.0
  0
DIMENSION
  5
1659A
330
747D
100
AcDbEntity
  8
寸法
 48
50.0
100
AcDbDimension
  2
*D15
 10
7039.349524198754
 20
6333.532916874855
 30
0.0
 11
6928.386626550005
 21
6433.532916874854
 31
0.0
 70
   160
 71
     5
 42
48.00000000000181
  3
INABA_S40G
100
AcDbAlignedDimension
 13
7087.349524198756
 23
6867.963687641107
 33
0.0
 14
7039.349524198754
 24
6893.963687641019
 34
0.0
100
AcDbRotatedDimension
1001
ACAD
1000
DSTYLE
1002
{
1070
   279
1070
     2
1002
}
  0
DIMENSION
  5
1659C
330
747D
100
AcDbEntity
  8
寸法
 48
50.0
100
AcDbDimension
  2
*D14
 10
1097.349524198767
 20
6333.532916874855
 30
0.0
 11
1258.251495198829
 21
6433.532916874854
 31
0.0
 70
   160
 71
     5
 42
48.00000000000363
  3
INABA_S40G
100
AcDbAlignedDimension
 13
1145.349524198771
 23
6893.963687641019
 33
0.0
 14
1097.349524198767
 24
6867.963687641019
 34
0.0
100
AcDbRotatedDimension
1001
ACAD
1000
DSTYLE
1002
{
1070
   279
1070
     2
1002
}
  0
DIMENSION
  5
165E9
330
747D
100
AcDbEntity
  8
寸法
 48
50.0
100
AcDbDimension
  2
*D16
 10
7087.349524198756
 20
6333.532916874855
 30
0.0
 11
7142.349524198761
 21
6181.841021838623
 31
0.0
 70
   160
 71
     5
 42
110.0000000000127
  3
INABA_S40G
100
AcDbAlignedDimension
 13
7197.349524198767
 23
6867.963687641019
 33
0.0
 14
7087.349524198756
 24
6867.963687641107
 34
0.0
100
AcDbRotatedDimension
1001
ACAD
1000
DSTYLE
1002
{
1070
   279
1070
     2
1002
}
  0
LINE
  5
16656
330
747D
100
AcDbEntity
  8
部品1
100
AcDbLine
 10
7039.349524198754
 20
6932.963687641019
 30
0.0
 11
7087.349524198756
 21
6932.963687641019
 31
0.0
  0
LINE
  5
16657
330
747D
100
AcDbEntity
  8
部品1
 48
50.0
100
AcDbLine
 10
7039.349524198754
 20
6932.963687641019
 30
0.0
 11
7039.349524198754
 21
6923.963687641019
 31
0.0
  0
LINE
  5
16658
330
747D
100
AcDbEntity
  8
部品1
100
AcDbLine
 10
7039.349524198754
 20
6893.963687641019
 30
0.0
 11
7087.349524198753
 21
6893.963687641019
 31
0.0
  0
LINE
  5
16659
330
747D
100
AcDbEntity
  8
部品1
 48
50.0
100
AcDbLine
 10
7039.349524198754
 20
6893.963687641019
 30
0.0
 11
7039.349524198754
 21
6902.963687641019
 31
0.0
  0
LINE
  5
1665A
330
747D
100
AcDbEntity
  8
部品1
 48
50.0
100
AcDbLine
 10
7077.349524198753
 20
6893.963687641019
 30
0.0
 11
7087.349524198753
 21
6872.963687641018
 31
0.0
  0
LINE
  5
1665B
330
747D
100
AcDbEntity
  8
部品1
100
AcDbLine
 10
7087.349524198753
 20
6903.963687641016
 30
0.0
 11
7110.349524198753
 21
6903.963687641017
 31
0.0
  0
LINE
  5
1665C
330
747D
100
AcDbEntity
  8
部品1
100
AcDbLine
 10
7245.349524198771
 20
6932.963687641019
 30
0.0
 11
7197.349524198772
 21
6932.963687641019
 31
0.0
  0
LINE
  5
1665D
330
747D
100
AcDbEntity
  8
部品1
 48
50.0
100
AcDbLine
 10
7245.349524198771
 20
6932.963687641019
 30
0.0
 11
7245.349524198771
 21
6923.963687641019
 31
0.0
  0
LINE
  5
1665E
330
747D
100
AcDbEntity
  8
部品1
100
AcDbLine
 10
7245.349524198771
 20
6893.963687641019
 30
0.0
 11
7197.349524198772
 21
6893.963687641019
 31
0.0
  0
LINE
  5
1665F
330
747D
100
AcDbEntity
  8
部品1
 48
50.0
100
AcDbLine
 10
7207.349524198772
 20
6893.963687641019
 30
0.0
 11
7197.349524198772
 21
6872.963687641018
 31
0.0
  0
LINE
  5
16660
330
747D
100
AcDbEntity
  8
部品1
100
AcDbLine
 10
7197.349524198769
 20
6903.963687641017
 30
0.0
 11
7174.349524198771
 21
6903.963687641017
 31
0.0
  0
LINE
  5
16661
330
747D
100
AcDbEntity
  8
部品1
 48
50.0
100
AcDbLine
 10
7197.349524198772
 20
6932.963687641017
 30
0.0
 11
7197.349524198767
 21
6867.963687641019
 31
0.0
  0
LINE
  5
16662
330
747D
100
AcDbEntity
  8
部品1
 48
50.0
100
AcDbLine
 10
7245.349524198771
 20
6893.963687641019
 30
0.0
 11
7245.349524198771
 21
6902.963687641019
 31
0.0
  0
LINE
  5
16663
330
747D
100
AcDbEntity
  8
部品1
100
AcDbLine
 10
7197.349524198767
 20
6867.963687641019
 30
0.0
 11
7087.349524198756
 21
6867.963687641012
 31
0.0
  0
LINE
  5
16664
330
747D
100
AcDbEntity
  8
部品1
 48
50.0
100
AcDbLine
 10
7087.349524198758
 20
6932.963687641105
 30
0.0
 11
7087.349524198756
 21
6867.963687641107
 31
0.0
  0
LINE
  5
16666
330
747D
100
AcDbEntity
  8
部品1
100
AcDbLine
 10
7197.349524198776
 20
9917.963687641023
 30
0.0
 11
7197.349524198776
 21
9889.963687641023
 31
0.0
  0
LINE
  5
16680
330
747D
100
AcDbEntity
  8
部品1
100
AcDbLine
 10
5827.349524198776
 20
9917.96368764114
 30
0.0
 11
5827.349524198776
 21
9889.96368764114
 31
0.0
  0
LINE
  5
16686
330
747D
100
AcDbEntity
  8
部品1
100
AcDbLine
 10
4120.349524198764
 20
9889.963687641149
 30
0.0
 11
5604.849524198776
 21
9889.963687641134
 31
0.0
  0
LINE
  5
1668A
330
747D
100
AcDbEntity
  8
部品1
100
AcDbLine
 10
4987.349524198776
 20
9917.96368764114
 30
0.0
 11
4987.349524198776
 21
9889.96368764114
 31
0.0
  0
LINE
  5
1668B
330
747D
100
AcDbEntity
  8
部品1
100
AcDbLine
 10
4987.349524198776
 20
9917.963687641023
 30
0.0
 11
4987.349524198776
 21
9889.963687641023
 31
0.0
  0
LINE
  5
1668C
330
747D
100
AcDbEntity
  8
部品1
100
AcDbLine
 10
4987.349524198776
 20
9917.963687641023
 30
0.0
 11
4987.349524198776
 21
9889.963687641023
 31
0.0
  0
LINE
  5
1668D
330
747D
100
AcDbEntity
  8
部品1
100
AcDbLine
 10
5407.349524198776
 20
9917.96368764114
 30
0.0
 11
5407.349524198776
 21
9889.96368764114
 31
0.0
  0
LINE
  5
1668E
330
747D
100
AcDbEntity
  8
部品1
100
AcDbLine
 10
5407.349524198776
 20
9917.963687641023
 30
0.0
 11
5407.349524198776
 21
9889.963687641023
 31
0.0
  0
LINE
  5
1668F
330
747D
100
AcDbEntity
  8
部品1
100
AcDbLine
 10
5407.349524198776
 20
9917.963687641023
 30
0.0
 11
5407.349524198776
 21
9889.963687641023
 31
0.0
  0
LINE
  5
16690
330
747D
100
AcDbEntity
  8
部品1
100
AcDbLine
 10
6247.349524198777
 20
9917.96368764114
 30
0.0
 11
6247.349524198777
 21
9889.96368764114
 31
0.0
  0
LINE
  5
16691
330
747D
100
AcDbEntity
  8
部品1
100
AcDbLine
 10
6667.349524198776
 20
9917.96368764114
 30
0.0
 11
6667.349524198776
 21
9889.96368764114
 31
0.0
  0
LINE
  5
16692
330
747D
100
AcDbEntity
  8
部品1
100
AcDbLine
 10
7087.349524198778
 20
9917.963687641117
 30
0.0
 11
7087.349524198778
 21
9889.963687641117
 31
0.0
  0
DIMENSION
  5
166DD
330
747D
100
AcDbEntity
  8
寸法
 48
50.0
100
AcDbDimension
  2
*D17
 10
7087.349524198778
 20
10298.5379167915
 30
0.0
 11
7142.349524198777
 21
10398.5379167915
 31
0.0
 70
    32
 71
     5
 42
109.9999999999991
  3
INABA_S40G
100
AcDbAlignedDimension
 13
7197.349524198777
 23
9917.963687641071
 33
0.0
 14
7087.349524198778
 24
9917.963687641069
 34
0.0
100
AcDbRotatedDimension
1001
ACAD
1000
DSTYLE
1002
{
1070
   279
1070
     2
1002
}
  0
LINE
  5
16760
330
747D
100
AcDbEntity
  8
部品1
 48
50.0
100
AcDbLine
 10
7142.349524198744
 20
9889.963687641063
 30
0.0
 11
7114.349524198745
 21
9917.963687641119
 31
0.0
  0
LINE
  5
16761
330
747D
100
AcDbEntity
  8
部品1
100
AcDbLine
 10
7170.349524198745
 20
9862.963687641039
 30
0.0
 11
7114.349524198745
 21
9862.963687641039
 31
0.0
  0
LINE
  5
16762
330
747D
100
AcDbEntity
  8
部品1
 48
50.0
100
AcDbLine
 10
7114.349524198745
 20
9889.96368764117
 30
0.0
 11
7114.349524198743
 21
9917.963687641119
 31
0.0
  0
LINE
  5
16763
330
747D
100
AcDbEntity
  8
部品1
 48
50.0
100
AcDbLine
 10
7114.349524198745
 20
9889.963687641063
 30
0.0
 11
7142.349524198744
 21
9889.963687641067
 31
0.0
  0
LINE
  5
168C3
330
747D
100
AcDbEntity
  8
部品1
100
AcDbLine
 10
7166.349524198762
 20
6922.963687641015
 30
0.0
 11
7118.349524198762
 21
6922.963687641014
 31
0.0
  0
LINE
  5
168C4
330
747D
100
AcDbEntity
  8
部品1
 48
50.0
100
AcDbLine
 10
7118.349524198762
 20
6922.963687641015
 30
0.0
 11
7118.349524198766
 21
6867.963687641015
 31
0.0
  0
LINE
  5
168C5
330
747D
100
AcDbEntity
  8
部品1
 48
50.0
100
AcDbLine
 10
7166.349524198762
 20
6922.963687641015
 30
0.0
 11
7166.349524198766
 21
6867.963687641015
 31
0.0
  0
DIMENSION
  5
16913
330
747D
100
AcDbEntity
  8
寸法
 48
50.0
100
AcDbDimension
  2
*D18
 10
10192.34952419878
 20
10547.85939034779
 30
0.0
 11
8667.349524198778
 21
10647.85939034779
 31
0.0
 70
    32
 71
     5
 42
3050.0
  3
INABA_S40G
100
AcDbAlignedDimension
 13
7142.349524198777
 23
10458.5379167915
 33
0.0
 14
10192.34952419878
 24
9917.963687641117
 34
0.0
100
AcDbRotatedDimension
1001
ACAD
1000
DSTYLE
1002
{
1070
   279
1070
     2
1002
}
  0
LINE
  5
16C81
330
747D
100
AcDbEntity
  8
部品1
100
AcDbLine
 10
1070.349524198758
 20
8182.963687640993
 30
0.0
 11
1042.349524198758
 21
8182.963687640993
 31
0.0
  0
LINE
  5
16C82
330
747D
100
AcDbEntity
  8
部品1
100
AcDbLine
 10
10164.34952419878
 20
8182.96368764112
 30
0.0
 11
10192.34952419878
 21
8182.96368764112
 31
0.0
  0
LINE
  5
16FDA
330
747D
100
AcDbEntity
  8
部品1
100
AcDbLine
 10
1070.349524198758
 20
7762.963687640993
 30
0.0
 11
1042.349524198758
 21
7762.963687640993
 31
0.0
  0
LINE
  5
16FDB
330
747D
100
AcDbEntity
  8
部品1
100
AcDbLine
 10
10164.34952419878
 20
7762.963687641121
 30
0.0
 11
10192.34952419878
 21
7762.963687641121
 31
0.0
  0
LINE
  5
1743E
330
747D
100
AcDbEntity
  8
部品1
100
AcDbLine
 10
7617.349524198776
 20
9917.963687641023
 30
0.0
 11
7617.349524198776
 21
9889.963687641023
 31
0.0
  0
LINE
  5
1743F
330
747D
100
AcDbEntity
  8
部品1
100
AcDbLine
 10
7617.349524198776
 20
9917.963687641023
 30
0.0
 11
7617.349524198776
 21
9889.963687641023
 31
0.0
  0
LINE
  5
17440
330
747D
100
AcDbEntity
  8
部品1
100
AcDbLine
 10
7617.349524198776
 20
9917.96368764114
 30
0.0
 11
7617.349524198776
 21
9889.96368764114
 31
0.0
  0
LINE
  5
17441
330
747D
100
AcDbEntity
  8
部品1
100
AcDbLine
 10
4567.349524198776
 20
9917.96368764114
 30
0.0
 11
4567.349524198776
 21
9889.96368764114
 31
0.0
  0
LINE
  5
17442
330
747D
100
AcDbEntity
  8
部品1
100
AcDbLine
 10
4567.349524198776
 20
9917.963687641023
 30
0.0
 11
4567.349524198776
 21
9889.963687641023
 31
0.0
  0
LINE
  5
17443
330
747D
100
AcDbEntity
  8
部品1
100
AcDbLine
 10
4567.349524198776
 20
9917.963687641023
 30
0.0
 11
4567.349524198776
 21
9889.963687641023
 31
0.0
  0
LINE
  5
17799
330
747D
100
AcDbEntity
  8
部品1
100
AcDbLine
 10
1070.349524198758
 20
7342.963687640993
 30
0.0
 11
1042.349524198758
 21
7342.963687640993
 31
0.0
  0
LINE
  5
1779A
330
747D
100
AcDbEntity
  8
部品1
100
AcDbLine
 10
10164.34952419878
 20
7342.963687641121
 30
0.0
 11
10192.34952419878
 21
7342.963687641121
 31
0.0
  0
LINE
  5
177CD
330
747D
100
AcDbEntity
  8
部品1
 48
50.0
100
AcDbLine
 10
7170.349524198745
 20
9862.963687641039
 30
0.0
 11
7170.349524198809
 21
9917.963687641069
 31
0.0
  0
LINE
  5
177CE
330
747D
100
AcDbEntity
  8
部品1
 48
50.0
100
AcDbLine
 10
7114.349524198745
 20
9862.963687641039
 30
0.0
 11
7114.349524198745
 21
9889.963687641063
 31
0.0
  0
LINE
  5
183E1
330
747D
100
AcDbEntity
  8
部品1
 48
50.0
100
AcDbLine
 10
1109.349524198769
 20
6913.463687641017
 30
0.0
 11
4025.349524198754
 21
6913.463687641017
 31
0.0
  0
DIMENSION
  5
183E2
330
747D
100
AcDbEntity
  8
寸法
 48
50.0
100
AcDbDimension
  2
*D21
 10
1145.349524198771
 20
6333.532916874855
 30
0.0
 11
2567.349524198762
 21
6433.544727898476
 31
0.0
 70
    32
  1
有効開口部間口 <>
 71
     5
 42
2843.999999999982
  3
INABA_S40G
100
AcDbAlignedDimension
 13
3989.349524198753
 23
6893.963687641019
 33
0.0
 14
1145.349524198771
 24
6893.963687641019
 34
0.0
100
AcDbRotatedDimension
1001
ACAD
1000
DSTYLE
1002
{
1070
    75
1070
     1
1070
   279
1070
     2
1002
}
  0
DIMENSION
  5
183E3
330
747D
100
AcDbEntity
  8
寸法
 48
50.0
100
AcDbDimension
  2
*D22
 10
4037.349524198755
 20
6333.532916874855
 30
0.0
 11
4092.349524198762
 21
6181.841021838623
 31
0.0
 70
   160
 71
     5
 42
110.0000000000127
  3
INABA_S40G
100
AcDbAlignedDimension
 13
4147.349524198768
 23
6867.963687641019
 33
0.0
 14
4037.349524198755
 24
6867.963687641107
 34
0.0
100
AcDbRotatedDimension
1001
ACAD
1000
DSTYLE
1002
{
1070
   279
1070
     2
1002
}
  0
DIMENSION
  5
183E4
330
747D
100
AcDbEntity
  8
寸法
 48
50.0
100
AcDbDimension
  2
*D20
 10
3989.349524198753
 20
6333.532916874855
 30
0.0
 11
3878.386626550006
 21
6433.532916874854
 31
0.0
 70
   160
 71
     5
 42
48.00000000000181
  3
INABA_S40G
100
AcDbAlignedDimension
 13
4037.349524198755
 23
6867.963687641107
 33
0.0
 14
3989.349524198753
 24
6893.963687641019
 34
0.0
100
AcDbRotatedDimension
1001
ACAD
1000
DSTYLE
1002
{
1070
   279
1070
     2
1002
}
  0
DIMENSION
  5
183E5
330
747D
100
AcDbEntity
  8
寸法
 48
50.0
100
AcDbDimension
  2
*D19
 10
4147.349524198768
 20
6333.532916874855
 30
0.0
 11
4308.251495198828
 21
6433.532916874854
 31
0.0
 70
   160
 71
     5
 42
48.00000000000363
  3
INABA_S40G
100
AcDbAlignedDimension
 13
4195.34952419877
 23
6893.963687641019
 33
0.0
 14
4147.349524198768
 24
6867.963687641019
 34
0.0
100
AcDbRotatedDimension
1001
ACAD
1000
DSTYLE
1002
{
1070
   279
1070
     2
1002
}
  0
LINE
  5
183E6
330
747D
100
AcDbEntity
  8
部品1
100
AcDbLine
 10
4147.349524198765
 20
6867.963687641019
 30
0.0
 11
4037.349524198757
 21
6867.963687641012
 31
0.0
  0
LINE
  5
183E7
330
747D
100
AcDbEntity
  8
部品1
 48
50.0
100
AcDbLine
 10
4116.349524198762
 20
6922.963687641015
 30
0.0
 11
4116.349524198766
 21
6867.963687641015
 31
0.0
  0
LINE
  5
183E8
330
747D
100
AcDbEntity
  8
部品1
 48
50.0
100
AcDbLine
 10
4068.349524198762
 20
6922.963687641015
 30
0.0
 11
4068.349524198765
 21
6867.963687641015
 31
0.0
  0
LINE
  5
183E9
330
747D
100
AcDbEntity
  8
部品1
100
AcDbLine
 10
4116.349524198762
 20
6922.963687641015
 30
0.0
 11
4068.349524198762
 21
6922.963687641014
 31
0.0
  0
LINE
  5
183EA
330
747D
100
AcDbEntity
  8
部品1
 48
50.0
100
AcDbLine
 10
4037.349524198758
 20
6932.963687641105
 30
0.0
 11
4037.349524198755
 21
6867.963687641107
 31
0.0
  0
LINE
  5
183EB
330
747D
100
AcDbEntity
  8
部品1
100
AcDbLine
 10
4037.349524198753
 20
6903.963687641016
 30
0.0
 11
4060.349524198753
 21
6903.963687641017
 31
0.0
  0
LINE
  5
183EC
330
747D
100
AcDbEntity
  8
部品1
 48
50.0
100
AcDbLine
 10
4027.349524198753
 20
6893.963687641019
 30
0.0
 11
4037.349524198753
 21
6872.963687641018
 31
0.0
  0
LINE
  5
183ED
330
747D
100
AcDbEntity
  8
部品1
 48
50.0
100
AcDbLine
 10
3989.349524198753
 20
6893.963687641019
 30
0.0
 11
3989.349524198753
 21
6902.963687641019
 31
0.0
  0
LINE
  5
183EE
330
747D
100
AcDbEntity
  8
部品1
100
AcDbLine
 10
3989.349524198753
 20
6893.963687641019
 30
0.0
 11
4037.349524198753
 21
6893.963687641019
 31
0.0
  0
LINE
  5
183EF
330
747D
100
AcDbEntity
  8
部品1
 48
50.0
100
AcDbLine
 10
3989.349524198753
 20
6932.963687641019
 30
0.0
 11
3989.349524198753
 21
6923.963687641019
 31
0.0
  0
LINE
  5
183F0
330
747D
100
AcDbEntity
  8
部品1
100
AcDbLine
 10
3989.349524198753
 20
6932.963687641019
 30
0.0
 11
4037.349524198755
 21
6932.963687641019
 31
0.0
  0
LINE
  5
183F1
330
747D
100
AcDbEntity
  8
部品1
 48
50.0
100
AcDbLine
 10
4195.34952419877
 20
6893.963687641019
 30
0.0
 11
4195.34952419877
 21
6902.963687641019
 31
0.0
  0
LINE
  5
183F2
330
747D
100
AcDbEntity
  8
部品1
 48
50.0
100
AcDbLine
 10
4147.349524198771
 20
6932.963687641017
 30
0.0
 11
4147.349524198768
 21
6867.963687641019
 31
0.0
  0
LINE
  5
183F3
330
747D
100
AcDbEntity
  8
部品1
100
AcDbLine
 10
4147.349524198769
 20
6903.963687641017
 30
0.0
 11
4124.349524198771
 21
6903.963687641017
 31
0.0
  0
LINE
  5
183F4
330
747D
100
AcDbEntity
  8
部品1
 48
50.0
100
AcDbLine
 10
4157.349524198771
 20
6893.963687641019
 30
0.0
 11
4147.349524198771
 21
6872.963687641018
 31
0.0
  0
LINE
  5
183F5
330
747D
100
AcDbEntity
  8
部品1
100
AcDbLine
 10
4195.34952419877
 20
6893.963687641019
 30
0.0
 11
4147.349524198771
 21
6893.963687641019
 31
0.0
  0
LINE
  5
183F6
330
747D
100
AcDbEntity
  8
部品1
 48
50.0
100
AcDbLine
 10
4195.34952419877
 20
6932.963687641019
 30
0.0
 11
4195.34952419877
 21
6923.963687641019
 31
0.0
  0
LINE
  5
183F7
330
747D
100
AcDbEntity
  8
部品1
100
AcDbLine
 10
4195.34952419877
 20
6932.963687641019
 30
0.0
 11
4147.349524198771
 21
6932.963687641019
 31
0.0
  0
LINE
  5
1842D
330
747D
100
AcDbEntity
  8
部品1
100
AcDbLine
 10
1070.349524198762
 20
9889.963687641149
 30
0.0
 11
2554.849524198777
 21
9889.963687641134
 31
0.0
  0
LINE
  5
1842E
330
747D
100
AcDbEntity
  8
部品1
100
AcDbLine
 10
1517.349524198776
 20
9917.963687641023
 30
0.0
 11
1517.349524198776
 21
9889.963687641023
 31
0.0
  0
LINE
  5
1842F
330
747D
100
AcDbEntity
  8
部品1
100
AcDbLine
 10
1517.349524198776
 20
9917.963687641023
 30
0.0
 11
1517.349524198776
 21
9889.963687641023
 31
0.0
  0
LINE
  5
18430
330
747D
100
AcDbEntity
  8
部品1
100
AcDbLine
 10
1517.349524198776
 20
9917.96368764114
 30
0.0
 11
1517.349524198776
 21
9889.96368764114
 31
0.0
  0
LINE
  5
18431
330
747D
100
AcDbEntity
  8
部品1
100
AcDbLine
 10
1937.349524198776
 20
9917.963687641023
 30
0.0
 11
1937.349524198776
 21
9889.963687641023
 31
0.0
  0
LINE
  5
18432
330
747D
100
AcDbEntity
  8
部品1
100
AcDbLine
 10
1937.349524198776
 20
9917.963687641023
 30
0.0
 11
1937.349524198776
 21
9889.963687641023
 31
0.0
  0
LINE
  5
18433
330
747D
100
AcDbEntity
  8
部品1
100
AcDbLine
 10
1937.349524198776
 20
9917.96368764114
 30
0.0
 11
1937.349524198776
 21
9889.96368764114
 31
0.0
  0
LINE
  5
18436
330
747D
100
AcDbEntity
  8
部品1
100
AcDbLine
 10
2357.349524198777
 20
9917.96368764114
 30
0.0
 11
2357.349524198777
 21
9889.96368764114
 31
0.0
  0
LINE
  5
18437
330
747D
100
AcDbEntity
  8
部品1
100
AcDbLine
 10
2777.349524198777
 20
9917.96368764114
 30
0.0
 11
2777.349524198777
 21
9889.96368764114
 31
0.0
  0
LINE
  5
18438
330
747D
100
AcDbEntity
  8
部品1
100
AcDbLine
 10
3197.349524198777
 20
9917.96368764114
 30
0.0
 11
3197.349524198777
 21
9889.96368764114
 31
0.0
  0
LINE
  5
18439
330
747D
100
AcDbEntity
  8
部品1
100
AcDbLine
 10
3617.349524198777
 20
9917.96368764114
 30
0.0
 11
3617.349524198777
 21
9889.96368764114
 31
0.0
  0
LINE
  5
1843C
330
747D
100
AcDbEntity
  8
部品1
100
AcDbLine
 10
4120.349524198746
 20
9862.963687641039
 30
0.0
 11
4064.349524198745
 21
9862.963687641039
 31
0.0
  0
LINE
  5
1843D
330
747D
100
AcDbEntity
  8
部品1
 48
50.0
100
AcDbLine
 10
4064.349524198745
 20
9862.963687641039
 30
0.0
 11
4064.349524198745
 21
9889.963687641063
 31
0.0
  0
LINE
  5
1843E
330
747D
100
AcDbEntity
  8
部品1
 48
50.0
100
AcDbLine
 10
4064.349524198745
 20
9889.963687641063
 30
0.0
 11
4092.349524198744
 21
9889.963687641067
 31
0.0
  0
LINE
  5
1843F
330
747D
100
AcDbEntity
  8
部品1
 48
50.0
100
AcDbLine
 10
4064.349524198745
 20
9889.96368764117
 30
0.0
 11
4064.349524198743
 21
9917.963687641119
 31
0.0
  0
LINE
  5
18440
330
747D
100
AcDbEntity
  8
部品1
 48
50.0
100
AcDbLine
 10
4092.349524198744
 20
9889.963687641063
 30
0.0
 11
4064.349524198745
 21
9917.963687641119
 31
0.0
  0
LINE
  5
18441
330
747D
100
AcDbEntity
  8
部品1
100
AcDbLine
 10
4037.349524198778
 20
9917.963687641117
 30
0.0
 11
4037.349524198778
 21
9889.963687641117
 31
0.0
  0
LINE
  5
18442
330
747D
100
AcDbEntity
  8
部品1
 48
50.0
100
AcDbLine
 10
4120.349524198746
 20
9862.963687641039
 30
0.0
 11
4120.349524198809
 21
9917.963687641069
 31
0.0
  0
LINE
  5
18443
330
747D
100
AcDbEntity
  8
部品1
100
AcDbLine
 10
4147.349524198777
 20
9917.963687641023
 30
0.0
 11
4147.349524198777
 21
9889.963687641023
 31
0.0
  0
DIMENSION
  5
18444
330
747D
100
AcDbEntity
  8
寸法
 48
50.0
100
AcDbDimension
  2
*D25
 10
4092.349524198779
 20
10547.85939034779
 30
0.0
 11
2567.349524198761
 21
10647.85939034779
 31
0.0
 70
    32
 71
     5
 42
3050.000000000034
  3
INABA_S40G
100
AcDbAlignedDimension
 13
1042.349524198744
 23
9917.963687640991
 33
0.0
 14
4092.349524198779
 24
10457.52583114945
 34
0.0
100
AcDbRotatedDimension
1001
ACAD
1000
DSTYLE
1002
{
1070
   279
1070
     2
1002
}
  0
DIMENSION
  5
18445
330
747D
100
AcDbEntity
  8
寸法
100
AcDbDimension
  2
*D23
 10
4037.349524198778
 20
10298.5379167915
 30
0.0
 11
2567.349524198779
 21
10398.54972781512
 31
0.0
 70
    32
  1
7X420=<>
 71
     5
 42
2940.0
  3
INABA_S40G
100
AcDbAlignedDimension
 13
1097.349524198778
 23
9917.963687641023
 33
0.0
 14
4037.349524198778
 24
9917.963687641117
 34
0.0
100
AcDbRotatedDimension
1001
ACAD
1000
DSTYLE
1002
{
1002
}
  0
DIMENSION
  5
18446
330
747D
100
AcDbEntity
  8
寸法
 48
50.0
100
AcDbDimension
  2
*D24
 10
4037.349524198778
 20
10298.5379167915
 30
0.0
 11
4092.349524198779
 21
10398.5379167915
 31
0.0
 70
    32
 71
     5
 42
110.0
  3
INABA_S40G
100
AcDbAlignedDimension
 13
4147.349524198778
 23
9917.963687641071
 33
0.0
 14
4037.349524198778
 24
9917.963687641069
 34
0.0
100
AcDbRotatedDimension
1001
ACAD
1000
DSTYLE
1002
{
1070
   279
1070
     2
1002
}
  0
LINE
  5
1846D
330
747D
100
AcDbEntity
  8
部品1
100
AcDbLine
 10
4064.349524198727
 20
9889.963687641037
 30
0.0
 11
4064.349524198714
 21
6867.963687640932
 31
0.0
  0
LINE
  5
1846E
330
747D
100
AcDbEntity
  8
部品1
100
AcDbLine
 10
4120.349524198704
 20
6867.963687640937
 30
0.0
 11
4120.349524198728
 21
9917.963687640988
 31
0.0
  0
LINE
  5
1846F
330
747D
100
AcDbEntity
  8
部品1
100
AcDbLine
 10
4037.349524198738
 20
6932.963687640937
 30
0.0
 11
4037.349524198741
 21
9437.963687641026
 31
0.0
  0
LINE
  5
18470
330
747D
100
AcDbEntity
  8
部品1
100
AcDbLine
 10
4147.349524198754
 20
6932.963687640938
 30
0.0
 11
4147.349524198744
 21
9437.963687641024
 31
0.0
  0
LINE
  5
18471
330
747D
100
AcDbEntity
  8
破線
 48
10.0
100
AcDbLine
 10
4012.349524198609
 20
7022.963687640796
 30
0.0
 11
4012.349524198724
 21
9437.963687641028
 31
0.0
  0
LINE
  5
18473
330
747D
100
AcDbEntity
  8
部品1
 48
50.0
100
AcDbLine
 10
1097.349524198769
 20
6867.963687641019
 30
0.0
 11
4037.349524198755
 21
6867.963687640877
 31
0.0
  0
LINE
  5
18474
330
747D
100
AcDbEntity
  8
部品1
 48
50.0
100
AcDbLine
 10
1097.349524198769
 20
6952.963687641018
 30
0.0
 11
4037.349524198755
 21
6952.963687640878
 31
0.0
  0
LINE
  5
18475
330
747D
100
AcDbEntity
  8
部品1
 48
50.0
100
AcDbLine
 10
1097.349524198769
 20
6997.963687641018
 30
0.0
 11
4037.349524198755
 21
6997.963687640877
 31
0.0
  0
LINE
  5
18476
330
747D
100
AcDbEntity
  8
破線
 48
10.0
100
AcDbLine
 10
1122.349524198631
 20
7022.963687641016
 30
0.0
 11
1814.849524198718
 21
7022.963687640977
 31
0.0
  0
LINE
  5
18477
330
747D
100
AcDbEntity
  8
部品1
 48
50.0
100
AcDbLine
 10
1097.349524198769
 20
7342.963687640993
 30
0.0
 11
4037.349524198736
 21
7342.963687640988
 31
0.0
  0
LINE
  5
18478
330
747D
100
AcDbEntity
  8
部品1
 48
50.0
100
AcDbLine
 10
1097.349524198769
 20
7762.963687640994
 30
0.0
 11
4037.349524198738
 21
7762.963687640989
 31
0.0
  0
LINE
  5
18479
330
747D
100
AcDbEntity
  8
部品1
 48
50.0
100
AcDbLine
 10
1097.349524198766
 20
8182.963687640992
 30
0.0
 11
4037.349524198736
 21
8182.963687640988
 31
0.0
  0
LINE
  5
1847A
330
747D
100
AcDbEntity
  8
部品1
 48
50.0
100
AcDbLine
 10
1097.349524198762
 20
8602.963687640993
 30
0.0
 11
4037.349524198736
 21
8602.96368764099
 31
0.0
  0
LINE
  5
1847B
330
747D
100
AcDbEntity
  8
部品1
 48
50.0
100
AcDbLine
 10
1097.349524198762
 20
9022.963687640993
 30
0.0
 11
4037.349524198738
 21
9022.96368764099
 31
0.0
  0
LINE
  5
1847C
330
747D
100
AcDbEntity
  8
細線
 48
50.0
100
AcDbLine
 10
2553.849524198777
 20
9437.963687641127
 30
0.0
 11
1070.849524198776
 21
9887.963687641024
 31
0.0
  0
LINE
  5
1847D
330
747D
100
AcDbEntity
  8
細線
 48
50.0
100
AcDbLine
 10
2553.849524198777
 20
9887.963687641125
 30
0.0
 11
1070.849524198776
 21
9437.963687641023
 31
0.0
  0
LINE
  5
1847E
330
747D
100
AcDbEntity
  8
部品1
100
AcDbLine
 10
1070.849524198776
 20
9437.963687641023
 30
0.0
 11
2553.849524198777
 21
9437.963687641127
 31
0.0
  0
LINE
  5
1847F
330
747D
100
AcDbEntity
  8
部品1
 48
50.0
100
AcDbLine
 10
1070.849524198776
 20
9887.963687641018
 30
0.0
 11
1070.849524198776
 21
9437.963687641019
 31
0.0
  0
LINE
  5
18480
330
747D
100
AcDbEntity
  8
部品1
100
AcDbLine
 10
1070.849524198776
 20
9887.963687641024
 30
0.0
 11
2553.849524198777
 21
9887.963687641128
 31
0.0
  0
LINE
  5
18481
330
747D
100
AcDbEntity
  8
部品1
 48
50.0
100
AcDbLine
 10
2553.849524198777
 20
9887.963687641125
 30
0.0
 11
2553.849524198777
 21
9437.963687641127
 31
0.0
  0
LINE
  5
18482
330
747D
100
AcDbEntity
  8
部品1
 48
50.0
100
AcDbLine
 10
2580.849524198777
 20
9887.963687641121
 30
0.0
 11
2580.849524198777
 21
9437.963687641127
 31
0.0
  0
LINE
  5
18483
330
747D
100
AcDbEntity
  8
部品1
 48
50.0
100
AcDbLine
 10
2554.849524198777
 20
9889.963687641133
 30
0.0
 11
2554.849524198777
 21
9437.963687641127
 31
0.0
  0
LINE
  5
18484
330
747D
100
AcDbEntity
  8
部品1
 48
50.0
100
AcDbLine
 10
2579.849524198777
 20
9889.963687641127
 30
0.0
 11
2579.849524198777
 21
9437.963687641127
 31
0.0
  0
LINE
  5
18485
330
747D
100
AcDbEntity
  8
部品1
100
AcDbLine
 10
2554.849524198777
 20
9437.963687641127
 30
0.0
 11
2579.849524198777
 21
9437.963687641127
 31
0.0
  0
LINE
  5
18486
330
747D
100
AcDbEntity
  8
部品1
100
AcDbLine
 10
2554.849524198777
 20
9881.963687641121
 30
0.0
 11
2579.849524198777
 21
9881.963687641125
 31
0.0
  0
LINE
  5
18487
330
747D
100
AcDbEntity
  8
部品1
100
AcDbLine
 10
2596.349524198777
 20
9907.963687641125
 30
0.0
 11
2602.349524198777
 21
9907.963687641125
 31
0.0
  0
LINE
  5
18488
330
747D
100
AcDbEntity
  8
部品1
100
AcDbLine
 10
2602.349524198777
 20
9907.963687641125
 30
0.0
 11
2602.349524198777
 21
9889.963687641126
 31
0.0
  0
LINE
  5
18489
330
747D
100
AcDbEntity
  8
部品1
100
AcDbLine
 10
2532.349524198777
 20
9907.963687641125
 30
0.0
 11
2538.349524198777
 21
9907.963687641125
 31
0.0
  0
LINE
  5
1848A
330
747D
100
AcDbEntity
  8
部品1
100
AcDbLine
 10
2532.349524198777
 20
9907.963687641125
 30
0.0
 11
2532.349524198777
 21
9889.963687641126
 31
0.0
  0
LINE
  5
1848C
330
747D
100
AcDbEntity
  8
部品1
100
AcDbLine
 10
2579.849524198777
 20
9889.963687641134
 30
0.0
 11
4064.349524198778
 21
9889.963687641117
 31
0.0
  0
LINE
  5
187E7
330
747D
100
AcDbEntity
  8
部品1
100
AcDbLine
 10
4063.849524198777
 20
9437.963687641023
 30
0.0
 11
2580.849524198779
 21
9437.963687641127
 31
0.0
  0
LINE
  5
187E8
330
747D
100
AcDbEntity
  8
細線
 48
50.0
100
AcDbLine
 10
2580.849524198777
 20
9887.963687641125
 30
0.0
 11
4063.849524198778
 21
9437.963687641023
 31
0.0
  0
LINE
  5
187E9
330
747D
100
AcDbEntity
  8
細線
 48
50.0
100
AcDbLine
 10
2580.849524198779
 20
9437.963687641127
 30
0.0
 11
4063.849524198778
 21
9887.963687641024
 31
0.0
  0
LINE
  5
187EA
330
747D
100
AcDbEntity
  8
部品1
 48
50.0
100
AcDbLine
 10
4063.849524198778
 20
9887.963687641018
 30
0.0
 11
4063.849524198778
 21
9437.963687641019
 31
0.0
  0
LINE
  5
187EB
330
747D
100
AcDbEntity
  8
部品1
100
AcDbLine
 10
4063.849524198778
 20
9887.963687641024
 30
0.0
 11
2580.849524198777
 21
9887.963687641128
 31
0.0
  0
LINE
  5
187EC
330
747D
100
AcDbEntity
  8
破線
 48
10.0
100
AcDbLine
 10
2542.349524198718
 20
6997.963687640949
 30
0.0
 11
2542.349524198706
 21
9437.963687641076
 31
0.0
  0
LINE
  5
187ED
330
747D
100
AcDbEntity
  8
破線
 48
10.0
100
AcDbLine
 10
2592.349524198717
 20
6997.963687640946
 30
0.0
 11
2592.349524198706
 21
9437.963687641076
 31
0.0
  0
LINE
  5
187EE
330
747D
100
AcDbEntity
  8
破線
 48
10.0
100
AcDbLine
 10
1814.849524198718
 20
6997.963687640986
 30
0.0
 11
1814.849524198704
 21
9437.963687641076
 31
0.0
  0
LINE
  5
187EF
330
747D
100
AcDbEntity
  8
破線
 48
10.0
100
AcDbLine
 10
1864.849524198718
 20
6997.96368764098
 30
0.0
 11
1864.849524198704
 21
9437.963687641076
 31
0.0
  0
LINE
  5
187F0
330
747D
100
AcDbEntity
  8
破線
 48
10.0
100
AcDbLine
 10
3269.849524198718
 20
6997.963687640915
 30
0.0
 11
3269.849524198706
 21
9437.963687641076
 31
0.0
  0
LINE
  5
187F1
330
747D
100
AcDbEntity
  8
破線
 48
10.0
100
AcDbLine
 10
3319.849524198717
 20
6997.963687640911
 30
0.0
 11
3319.849524198706
 21
9437.963687641076
 31
0.0
  0
LINE
  5
187F2
330
747D
100
AcDbEntity
  8
部品1
 48
50.0
100
AcDbLine
 10
2567.349524198729
 20
9437.963687641076
 30
0.0
 11
2567.34952419877
 21
6997.963687640947
 31
0.0
  0
LINE
  5
187F3
330
747D
100
AcDbEntity
  8
破線
 48
10.0
100
AcDbLine
 10
1864.849524198718
 20
7022.963687640973
 30
0.0
 11
2542.349524198718
 21
7022.963687640949
 31
0.0
  0
LINE
  5
187F4
330
747D
100
AcDbEntity
  8
破線
 48
10.0
100
AcDbLine
 10
3269.849524198821
 20
7022.963687640973
 30
0.0
 11
2592.349524198817
 21
7022.963687640949
 31
0.0
  0
LINE
  5
187F5
330
747D
100
AcDbEntity
  8
破線
 48
10.0
100
AcDbLine
 10
4012.349524198906
 20
7022.963687641016
 30
0.0
 11
3319.849524198819
 21
7022.963687640977
 31
0.0
  0
LINE
  5
18816
330
747D
100
AcDbEntity
  8
部品1
100
AcDbLine
 10
7113.849524198776
 20
9437.963687641023
 30
0.0
 11
5630.849524198776
 21
9437.963687641127
 31
0.0
  0
LINE
  5
18817
330
747D
100
AcDbEntity
  8
部品1
 48
50.0
100
AcDbLine
 10
7113.849524198778
 20
9887.963687641018
 30
0.0
 11
7113.849524198778
 21
9437.963687641019
 31
0.0
  0
LINE
  5
18818
330
747D
100
AcDbEntity
  8
部品1
100
AcDbLine
 10
5582.349524198776
 20
9907.963687641125
 30
0.0
 11
5582.349524198776
 21
9889.963687641126
 31
0.0
  0
LINE
  5
18819
330
747D
100
AcDbEntity
  8
部品1
100
AcDbLine
 10
5582.349524198776
 20
9907.963687641125
 30
0.0
 11
5588.349524198776
 21
9907.963687641125
 31
0.0
  0
LINE
  5
1881A
330
747D
100
AcDbEntity
  8
部品1
100
AcDbLine
 10
5652.349524198776
 20
9907.963687641125
 30
0.0
 11
5652.349524198776
 21
9889.963687641126
 31
0.0
  0
LINE
  5
1881B
330
747D
100
AcDbEntity
  8
部品1
100
AcDbLine
 10
5646.349524198776
 20
9907.963687641125
 30
0.0
 11
5652.349524198776
 21
9907.963687641125
 31
0.0
  0
LINE
  5
1881C
330
747D
100
AcDbEntity
  8
部品1
100
AcDbLine
 10
5604.849524198776
 20
9881.963687641121
 30
0.0
 11
5629.849524198776
 21
9881.963687641125
 31
0.0
  0
LINE
  5
1881D
330
747D
100
AcDbEntity
  8
部品1
 48
50.0
100
AcDbLine
 10
5629.849524198776
 20
9889.963687641127
 30
0.0
 11
5629.849524198776
 21
9437.963687641127
 31
0.0
  0
LINE
  5
1881E
330
747D
100
AcDbEntity
  8
部品1
 48
50.0
100
AcDbLine
 10
5604.849524198776
 20
9889.963687641133
 30
0.0
 11
5604.849524198776
 21
9437.963687641127
 31
0.0
  0
LINE
  5
1881F
330
747D
100
AcDbEntity
  8
部品1
 48
50.0
100
AcDbLine
 10
5630.849524198777
 20
9887.963687641121
 30
0.0
 11
5630.849524198777
 21
9437.963687641127
 31
0.0
  0
LINE
  5
18820
330
747D
100
AcDbEntity
  8
部品1
 48
50.0
100
AcDbLine
 10
5603.849524198777
 20
9887.963687641125
 30
0.0
 11
5603.849524198777
 21
9437.963687641127
 31
0.0
  0
LINE
  5
18821
330
747D
100
AcDbEntity
  8
部品1
100
AcDbLine
 10
5604.849524198776
 20
9437.963687641127
 30
0.0
 11
5629.849524198776
 21
9437.963687641127
 31
0.0
  0
LINE
  5
18822
330
747D
100
AcDbEntity
  8
部品1
100
AcDbLine
 10
4120.849524198778
 20
9437.963687641023
 30
0.0
 11
5603.849524198777
 21
9437.963687641127
 31
0.0
  0
LINE
  5
18823
330
747D
100
AcDbEntity
  8
細線
 48
50.0
100
AcDbLine
 10
5603.849524198777
 20
9887.963687641125
 30
0.0
 11
4120.849524198777
 21
9437.963687641023
 31
0.0
  0
LINE
  5
18824
330
747D
100
AcDbEntity
  8
細線
 48
50.0
100
AcDbLine
 10
5603.849524198777
 20
9437.963687641127
 30
0.0
 11
4120.849524198777
 21
9887.963687641024
 31
0.0
  0
LINE
  5
18825
330
747D
100
AcDbEntity
  8
部品1
100
AcDbLine
 10
7113.849524198778
 20
9887.963687641024
 30
0.0
 11
5630.849524198778
 21
9887.963687641127
 31
0.0
  0
LINE
  5
18826
330
747D
100
AcDbEntity
  8
部品1
100
AcDbLine
 10
4120.849524198777
 20
9887.963687641024
 30
0.0
 11
5603.849524198777
 21
9887.963687641128
 31
0.0
  0
LINE
  5
18827
330
747D
100
AcDbEntity
  8
部品1
 48
50.0
100
AcDbLine
 10
4120.849524198777
 20
9887.963687641018
 30
0.0
 11
4120.849524198777
 21
9437.963687641019
 31
0.0
  0
LINE
  5
18828
330
747D
100
AcDbEntity
  8
細線
 48
50.0
100
AcDbLine
 10
8680.849524198777
 20
9437.963687641127
 30
0.0
 11
10163.84952419878
 21
9887.963687641024
 31
0.0
  0
LINE
  5
18829
330
747D
100
AcDbEntity
  8
細線
 48
50.0
100
AcDbLine
 10
8680.849524198777
 20
9887.963687641125
 30
0.0
 11
10163.84952419878
 21
9437.963687641023
 31
0.0
  0
LINE
  5
1882A
330
747D
100
AcDbEntity
  8
部品1
100
AcDbLine
 10
10163.84952419878
 20
9437.963687641023
 30
0.0
 11
8680.849524198777
 21
9437.963687641127
 31
0.0
  0
LINE
  5
1882B
330
747D
100
AcDbEntity
  8
部品1
 48
50.0
100
AcDbLine
 10
10163.84952419878
 20
9887.963687641018
 30
0.0
 11
10163.84952419878
 21
9437.963687641019
 31
0.0
  0
LINE
  5
1882C
330
747D
100
AcDbEntity
  8
部品1
100
AcDbLine
 10
8632.349524198778
 20
9907.963687641125
 30
0.0
 11
8632.349524198778
 21
9889.963687641126
 31
0.0
  0
LINE
  5
1882D
330
747D
100
AcDbEntity
  8
部品1
100
AcDbLine
 10
8632.349524198778
 20
9907.963687641125
 30
0.0
 11
8638.349524198778
 21
9907.963687641125
 31
0.0
  0
LINE
  5
1882E
330
747D
100
AcDbEntity
  8
部品1
100
AcDbLine
 10
8702.349524198778
 20
9907.963687641125
 30
0.0
 11
8702.349524198778
 21
9889.963687641126
 31
0.0
  0
LINE
  5
1882F
330
747D
100
AcDbEntity
  8
部品1
100
AcDbLine
 10
8696.349524198778
 20
9907.963687641125
 30
0.0
 11
8702.349524198778
 21
9907.963687641125
 31
0.0
  0
LINE
  5
18830
330
747D
100
AcDbEntity
  8
部品1
100
AcDbLine
 10
8654.849524198777
 20
9881.963687641121
 30
0.0
 11
8679.849524198777
 21
9881.963687641125
 31
0.0
  0
LINE
  5
18831
330
747D
100
AcDbEntity
  8
部品1
 48
50.0
100
AcDbLine
 10
8679.849524198777
 20
9889.963687641127
 30
0.0
 11
8679.849524198777
 21
9437.963687641127
 31
0.0
  0
LINE
  5
18832
330
747D
100
AcDbEntity
  8
部品1
 48
50.0
100
AcDbLine
 10
8654.849524198777
 20
9889.963687641133
 30
0.0
 11
8654.849524198777
 21
9437.963687641127
 31
0.0
  0
LINE
  5
18833
330
747D
100
AcDbEntity
  8
部品1
 48
50.0
100
AcDbLine
 10
8680.849524198777
 20
9887.963687641121
 30
0.0
 11
8680.849524198777
 21
9437.963687641127
 31
0.0
  0
LINE
  5
18834
330
747D
100
AcDbEntity
  8
部品1
 48
50.0
100
AcDbLine
 10
8653.849524198777
 20
9887.963687641125
 30
0.0
 11
8653.849524198777
 21
9437.963687641127
 31
0.0
  0
LINE
  5
18835
330
747D
100
AcDbEntity
  8
部品1
100
AcDbLine
 10
8654.849524198777
 20
9437.963687641127
 30
0.0
 11
8679.849524198777
 21
9437.963687641127
 31
0.0
  0
LINE
  5
18836
330
747D
100
AcDbEntity
  8
部品1
100
AcDbLine
 10
7170.849524198776
 20
9437.963687641023
 30
0.0
 11
8653.849524198777
 21
9437.963687641127
 31
0.0
  0
LINE
  5
18837
330
747D
100
AcDbEntity
  8
細線
 48
50.0
100
AcDbLine
 10
8653.849524198777
 20
9887.963687641125
 30
0.0
 11
7170.849524198776
 21
9437.963687641023
 31
0.0
  0
LINE
  5
18838
330
747D
100
AcDbEntity
  8
細線
 48
50.0
100
AcDbLine
 10
8653.849524198777
 20
9437.963687641127
 30
0.0
 11
7170.849524198776
 21
9887.963687641024
 31
0.0
  0
LINE
  5
18839
330
747D
100
AcDbEntity
  8
部品1
100
AcDbLine
 10
10163.84952419878
 20
9887.963687641024
 30
0.0
 11
8680.849524198777
 21
9887.963687641128
 31
0.0
  0
LINE
  5
1883A
330
747D
100
AcDbEntity
  8
部品1
100
AcDbLine
 10
7170.849524198776
 20
9887.963687641024
 30
0.0
 11
8653.849524198777
 21
9887.963687641128
 31
0.0
  0
LINE
  5
1883B
330
747D
100
AcDbEntity
  8
部品1
 48
50.0
100
AcDbLine
 10
7170.849524198776
 20
9887.963687641018
 30
0.0
 11
7170.849524198776
 21
9437.963687641019
 31
0.0
  0
LINE
  5
18924
330
747D
100
AcDbEntity
  8
部品1
100
AcDbLine
 10
8679.849524198777
 20
9889.96368764114
 30
0.0
 11
10164.34952419876
 21
9889.963687641142
 31
0.0
  0
LINE
  5
18E32
330
747D
100
AcDbEntity
  8
部品1
100
AcDbLine
 10
7114.349524198762
 20
9889.963687641069
 30
0.0
 11
7114.349524198743
 21
6867.963687641012
 31
0.0
  0
LINE
  5
18E33
330
747D
100
AcDbEntity
  8
部品1
100
AcDbLine
 10
7170.34952419874
 20
6867.963687641014
 30
0.0
 11
7170.349524198764
 21
9917.963687641019
 31
0.0
  0
LINE
  5
18E35
330
747D
100
AcDbEntity
  8
部品1
100
AcDbLine
 10
7087.349524198775
 20
6932.963687641019
 30
0.0
 11
7087.349524198775
 21
9437.963687641071
 31
0.0
  0
LINE
  5
18E36
330
747D
100
AcDbEntity
  8
部品1
100
AcDbLine
 10
7197.349524198799
 20
6932.963687641019
 30
0.0
 11
7197.349524198776
 21
9437.963687640975
 31
0.0
  0
DIMENSION
  5
18FF3
330
747D
100
AcDbEntity
  8
寸法
 48
50.0
100
AcDbDimension
  2
*D26
 10
10577.71421054153
 20
9548.858396122323
 30
0.0
 11
10477.32018245922
 21
9720.774389129992
 31
0.0
 70
   160
 71
     5
 42
450.0
  3
INABA_S40G
100
AcDbAlignedDimension
 13
10163.84952419878
 23
9887.963687641024
 33
0.0
 14
10163.84952419878
 24
9437.963687641023
 34
0.0
 50
90.0
100
AcDbRotatedDimension
1001
ACAD
1000
DSTYLE
1002
{
1070
   279
1070
     2
1002
}
  0
LINE
  5
191D5
330
747D
100
AcDbEntity
  8
破線
 48
10.0
100
AcDbLine
 10
4914.849524198718
 20
6997.963687640809
 30
0.0
 11
4914.849524198707
 21
9437.963687640904
 31
0.0
  0
LINE
  5
191D6
330
747D
100
AcDbEntity
  8
破線
 48
10.0
100
AcDbLine
 10
4864.849524198718
 20
6997.963687640814
 30
0.0
 11
4864.849524198707
 21
9437.963687640904
 31
0.0
  0
LINE
  5
191D9
330
747D
100
AcDbEntity
  8
破線
 48
10.0
100
AcDbLine
 10
4172.349524198631
 20
7022.963687640846
 30
0.0
 11
4864.849524198718
 21
7022.963687640807
 31
0.0
  0
LINE
  5
191DB
330
747D
100
AcDbEntity
  8
破線
 48
10.0
100
AcDbLine
 10
6369.849524198719
 20
6997.963687640741
 30
0.0
 11
6369.849524198707
 21
9437.963687640904
 31
0.0
  0
LINE
  5
191DC
330
747D
100
AcDbEntity
  8
破線
 48
10.0
100
AcDbLine
 10
6319.849524198719
 20
6997.963687640742
 30
0.0
 11
6319.849524198708
 21
9437.963687640904
 31
0.0
  0
LINE
  5
191DD
330
747D
100
AcDbEntity
  8
破線
 48
10.0
100
AcDbLine
 10
7062.349524198907
 20
7022.963687640846
 30
0.0
 11
6369.84952419882
 21
7022.963687640807
 31
0.0
  0
LINE
  5
191DE
330
747D
100
AcDbEntity
  8
破線
 48
10.0
100
AcDbLine
 10
7062.349524198609
 20
7022.963687640626
 30
0.0
 11
7062.349524198726
 21
9437.963687640857
 31
0.0
  0
LINE
  5
191DF
330
747D
100
AcDbEntity
  8
破線
 48
10.0
100
AcDbLine
 10
4172.349524198769
 20
9437.963687640857
 30
0.0
 11
4172.349524198769
 21
7022.963687640845
 31
0.0
  0
LINE
  5
191E2
330
747D
100
AcDbEntity
  8
破線
 48
10.0
100
AcDbLine
 10
10112.34952419861
 20
7022.963687640626
 30
0.0
 11
10112.34952419872
 21
9437.963687640857
 31
0.0
  0
LINE
  5
191E3
330
747D
100
AcDbEntity
  8
破線
 48
10.0
100
AcDbLine
 10
7222.349524198769
 20
9437.963687640857
 30
0.0
 11
7222.349524198769
 21
7022.963687640845
 31
0.0
  0
LINE
  5
191E4
330
747D
100
AcDbEntity
  8
破線
 48
10.0
100
AcDbLine
 10
9369.849524198718
 20
6997.963687640742
 30
0.0
 11
9369.849524198707
 21
9437.963687640904
 31
0.0
  0
LINE
  5
191E5
330
747D
100
AcDbEntity
  8
破線
 48
10.0
100
AcDbLine
 10
9419.849524198719
 20
6997.963687640741
 30
0.0
 11
9419.849524198708
 21
9437.963687640904
 31
0.0
  0
LINE
  5
191E6
330
747D
100
AcDbEntity
  8
破線
 48
10.0
100
AcDbLine
 10
8642.349524198719
 20
6997.963687640778
 30
0.0
 11
8642.349524198708
 21
9437.963687640904
 31
0.0
  0
LINE
  5
191E7
330
747D
100
AcDbEntity
  8
破線
 48
10.0
100
AcDbLine
 10
8692.349524198718
 20
6997.963687640775
 30
0.0
 11
8692.349524198709
 21
9437.963687640904
 31
0.0
  0
LINE
  5
191E8
330
747D
100
AcDbEntity
  8
破線
 48
10.0
100
AcDbLine
 10
7914.849524198719
 20
6997.963687640814
 30
0.0
 11
7914.849524198707
 21
9437.963687640904
 31
0.0
  0
LINE
  5
191E9
330
747D
100
AcDbEntity
  8
破線
 48
10.0
100
AcDbLine
 10
7964.849524198719
 20
6997.963687640809
 30
0.0
 11
7964.849524198708
 21
9437.963687640904
 31
0.0
  0
LINE
  5
191EA
330
747D
100
AcDbEntity
  8
部品1
 48
50.0
100
AcDbLine
 10
8667.34952419873
 20
9437.963687640904
 30
0.0
 11
8667.349524198769
 21
6997.963687640775
 31
0.0
  0
LINE
  5
191EB
330
747D
100
AcDbEntity
  8
部品1
 48
50.0
100
AcDbLine
 10
7197.349524198769
 20
6952.963687640847
 30
0.0
 11
10137.34952419875
 21
6952.963687640705
 31
0.0
  0
LINE
  5
191EC
330
747D
100
AcDbEntity
  8
破線
 48
10.0
100
AcDbLine
 10
7964.849524198719
 20
7022.963687640802
 30
0.0
 11
8642.349524198719
 21
7022.963687640778
 31
0.0
  0
LINE
  5
191ED
330
747D
100
AcDbEntity
  8
部品1
 48
50.0
100
AcDbLine
 10
7197.349524198769
 20
6997.963687640846
 30
0.0
 11
10137.34952419875
 21
6997.963687640705
 31
0.0
  0
LINE
  5
191EE
330
747D
100
AcDbEntity
  8
部品1
 48
50.0
100
AcDbLine
 10
7197.349524198769
 20
7342.963687640821
 30
0.0
 11
10137.34952419874
 21
7342.963687640818
 31
0.0
  0
LINE
  5
191EF
330
747D
100
AcDbEntity
  8
部品1
 48
50.0
100
AcDbLine
 10
7197.349524198769
 20
7762.963687640823
 30
0.0
 11
10137.34952419874
 21
7762.963687640819
 31
0.0
  0
LINE
  5
191F0
330
747D
100
AcDbEntity
  8
部品1
 48
50.0
100
AcDbLine
 10
7197.349524198767
 20
8182.963687640819
 30
0.0
 11
10137.34952419874
 21
8182.963687640818
 31
0.0
  0
LINE
  5
191F1
330
747D
100
AcDbEntity
  8
部品1
 48
50.0
100
AcDbLine
 10
7197.349524198767
 20
8602.963687640821
 30
0.0
 11
10137.34952419874
 21
8602.963687640819
 31
0.0
  0
LINE
  5
191F2
330
747D
100
AcDbEntity
  8
部品1
 48
50.0
100
AcDbLine
 10
7197.349524198762
 20
9022.963687640823
 30
0.0
 11
10137.34952419874
 21
9022.963687640819
 31
0.0
  0
LINE
  5
191F3
330
747D
100
AcDbEntity
  8
破線
 48
10.0
100
AcDbLine
 10
7222.349524198631
 20
7022.963687640846
 30
0.0
 11
7914.849524198719
 21
7022.963687640807
 31
0.0
  0
LINE
  5
191F4
330
747D
100
AcDbEntity
  8
破線
 48
10.0
100
AcDbLine
 10
10112.3495241989
 20
7022.963687640846
 30
0.0
 11
9419.84952419882
 21
7022.963687640807
 31
0.0
  0
LINE
  5
191F5
330
747D
100
AcDbEntity
  8
破線
 48
10.0
100
AcDbLine
 10
9369.849524198819
 20
7022.963687640802
 30
0.0
 11
8692.349524198816
 21
7022.963687640778
 31
0.0
  0
LINE
  5
191F6
330
747D
100
AcDbEntity
  8
部品1
 48
50.0
100
AcDbLine
 10
7197.349524198769
 20
6867.963687640846
 30
0.0
 11
10137.34952419875
 21
6867.963687640706
 31
0.0
  0
LINE
  5
19225
330
747D
100
AcDbEntity
  8
部品1
100
AcDbLine
 10
5629.849524198776
 20
9889.963687641134
 30
0.0
 11
7114.349524198779
 21
9889.963687641117
 31
0.0
  0
LINE
  5
19227
330
747D
100
AcDbEntity
  8
細線
 48
50.0
100
AcDbLine
 10
5630.849524198769
 20
9887.963687641128
 30
0.0
 11
7113.849524198778
 21
9437.963687641023
 31
0.0
  0
LINE
  5
19228
330
747D
100
AcDbEntity
  8
細線
 48
50.0
100
AcDbLine
 10
5630.849524198777
 20
9437.963687641127
 30
0.0
 11
7113.849524198778
 21
9887.963687641024
 31
0.0
  0
LINE
  5
19272
330
747D
100
AcDbEntity
  8
寸法
 48
50.0
100
AcDbLine
 10
4195.34952419877
 20
6333.532916874855
 30
0.0
 11
5185.349524198771
 21
6333.532916874855
 31
0.0
  0
TEXT
  5
19273
330
747D
100
AcDbEntity
  8
文字
 48
50.0
100
AcDbText
 10
4817.530697415723
 20
6373.185744921531
 30
0.0
 40
120.0
  1
2844
  7
STYLE1
100
AcDbText
  0
LINE
  5
19274
330
747D
100
AcDbEntity
  8
寸法
 48
50.0
100
AcDbLine
 10
6049.349524198751
 20
6333.532916874855
 30
0.0
 11
7039.349524198751
 21
6333.532916874855
 31
0.0
  0
TEXT
  5
19275
330
747D
100
AcDbEntity
  8
文字
 48
50.0
100
AcDbText
 10
6079.699085542241
 20
6373.185744921531
 30
0.0
 40
120.0
  1
2844
  7
STYLE1
100
AcDbText
  0
LINE
  5
19276
330
747D
100
AcDbEntity
  8
寸法
 48
50.0
100
AcDbLine
 10
6247.349524198778
 20
10298.5379167915
 30
0.0
 11
7087.349524198778
 21
10298.5379167915
 31
0.0
  0
LINE
  5
19277
330
747D
100
AcDbEntity
  8
寸法
 48
50.0
100
AcDbLine
 10
6254.349524198778
 20
10547.85939034779
 30
0.0
 11
7142.349524198777
 21
10547.85939034779
 31
0.0
  0
TEXT
  5
19278
330
747D
100
AcDbEntity
  8
文字
 48
50.0
100
AcDbText
 10
6277.699085542268
 20
10338.19074483818
 30
0.0
 40
120.0
  1
2940
  7
STYLE1
100
AcDbText
  0
TEXT
  5
19279
330
747D
100
AcDbEntity
  8
文字
 48
50.0
100
AcDbText
 10
6284.699085542268
 20
10587.51221839447
 30
0.0
 40
120.0
  1
3050
  7
STYLE1
100
AcDbText
  0
LINE
  5
1927A
330
747D
100
AcDbEntity
  8
寸法
 48
50.0
100
AcDbLine
 10
4147.349524198778
 20
10298.5379167915
 30
0.0
 11
4987.349524198778
 21
10298.5379167915
 31
0.0
  0
TEXT
  5
1927B
330
747D
100
AcDbEntity
  8
文字
 48
50.0
100
AcDbText
 10
4619.53069741573
 20
10338.19074483818
 30
0.0
 40
120.0
  1
2940
  7
STYLE1
100
AcDbText
  0
LINE
  5
1927C
330
747D
100
AcDbEntity
  8
寸法
 48
50.0
100
AcDbLine
 10
4098.599524198778
 20
10547.85939034779
 30
0.0
 11
4986.599524198778
 21
10547.85939034779
 31
0.0
  0
TEXT
  5
1927D
330
747D
100
AcDbEntity
  8
文字
 48
50.0
100
AcDbText
 10
4618.78069741573
 20
10587.51221839447
 30
0.0
 40
120.0
  1
3050
  7
STYLE1
100
AcDbText
  0
LINE
  5
1952F
330
747D
100
AcDbEntity
  8
仕様書枠
 48
50.0
100
AcDbLine
 10
16307.19999999998
 20
8519.600000000002
 30
0.0
 11
13127.19999999999
 21
8519.600000000002
 31
0.0
  0
TEXT
  5
19530
330
747D
100
AcDbEntity
  8
文字
 62
     7
 48
50.0
100
AcDbText
 10
13248.77747366447
 20
8380.013745883728
 30
0.0
 40
100.0
  1
16
  7
STYLE1
100
AcDbText
  0
TEXT
  5
19531
330
747D
100
AcDbEntity
  8
文字
 62
     7
 48
50.0
100
AcDbText
 10
15022.63965474515
 20
8210.013745883726
 30
0.0
 40
100.0
  1
F12            0.6
  7
STYLE1
100
AcDbText
  0
TEXT
  5
19532
330
747D
100
AcDbEntity
  8
文字
 62
     7
 48
50.0
100
AcDbText
 10
13583.11819016568
 20
8210.013745883733
 30
0.0
 40
100.0
  1
棚板
 41
0.9
  7
STYLE1
100
AcDbText
  0
TEXT
  5
19533
330
747D
100
AcDbEntity
  8
文字
 62
     7
 48
50.0
100
AcDbText
 10
13583.11819016569
 20
8380.013745883733
 30
0.0
 40
100.0
  1
床パネル
 41
0.9
  7
STYLE1
100
AcDbText
  0
TEXT
  5
19534
330
747D
100
AcDbEntity
  8
文字
 62
     7
 48
50.0
100
AcDbText
 10
15022.63965474516
 20
8380.013745883728
 30
0.0
 40
100.0
  1
F12            1.0
  7
STYLE1
100
AcDbText
  0
TEXT
  5
19535
330
747D
100
AcDbEntity
  8
文字
 62
     7
 48
50.0
100
AcDbText
 10
13248.77747366448
 20
8550.013745883729
 30
0.0
 40
100.0
  1
15
  7
STYLE1
100
AcDbText
  0
LINE
  5
19536
330
747D
100
AcDbEntity
  8
仕様書枠
 48
50.0
100
AcDbLine
 10
16307.19999999999
 20
9879.599999999999
 30
0.0
 11
13127.19999999999
 21
9879.600000000001
 31
0.0
  0
LINE
  5
19537
330
747D
100
AcDbEntity
  8
仕様書枠
 48
50.0
100
AcDbLine
 10
16307.19999999999
 20
11239.6
 30
0.0
 11
13127.2
 21
11239.6
 31
0.0
  0
LINE
  5
19538
330
747D
100
AcDbEntity
  8
仕様書枠
 48
50.0
100
AcDbLine
 10
16307.19999999999
 20
7669.600000000015
 30
0.0
 11
16307.2
 21
11239.6
 31
0.0
  0
LINE
  5
19539
330
747D
100
AcDbEntity
  8
仕様書枠
 48
50.0
100
AcDbLine
 10
14785.2
 20
11239.59999999999
 30
0.0
 11
14785.19999999999
 21
8179.600000000014
 31
0.0
  0
LINE
  5
1953A
330
747D
100
AcDbEntity
  8
仕様書枠
 48
50.0
100
AcDbLine
 10
13490.2
 20
11239.6
 30
0.0
 11
13490.2
 21
8179.600000000016
 31
0.0
  0
LINE
  5
1953B
330
747D
100
AcDbEntity
  8
仕様書枠
 48
50.0
100
AcDbLine
 10
16307.19999999999
 20
11069.6
 30
0.0
 11
13127.2
 21
11069.6
 31
0.0
  0
LINE
  5
1953C
330
747D
100
AcDbEntity
  8
仕様書枠
 48
50.0
100
AcDbLine
 10
16307.19999999999
 20
10729.6
 30
0.0
 11
13127.2
 21
10729.6
 31
0.0
  0
LINE
  5
1953D
330
747D
100
AcDbEntity
  8
仕様書枠
 48
50.0
100
AcDbLine
 10
16307.19999999999
 20
10899.6
 30
0.0
 11
13127.2
 21
10899.6
 31
0.0
  0
LINE
  5
1953E
330
747D
100
AcDbEntity
  8
仕様書枠
 48
50.0
100
AcDbLine
 10
16307.19999999999
 20
10389.6
 30
0.0
 11
13127.19999999999
 21
10389.6
 31
0.0
  0
LINE
  5
1953F
330
747D
100
AcDbEntity
  8
仕様書枠
 48
50.0
100
AcDbLine
 10
16307.19999999999
 20
10219.6
 30
0.0
 11
13127.19999999999
 21
10219.6
 31
0.0
  0
LINE
  5
19540
330
747D
100
AcDbEntity
  8
仕様書枠
 48
50.0
100
AcDbLine
 10
16307.19999999999
 20
10559.6
 30
0.0
 11
13127.19999999999
 21
10559.6
 31
0.0
  0
TEXT
  5
19541
330
747D
100
AcDbEntity
  8
文字
 62
     7
 48
50.0
100
AcDbText
 10
13197.42518560407
 20
11100.01374588373
 30
0.0
 40
100.0
  1
品番
  7
STYLE1
100
AcDbText
  0
TEXT
  5
19542
330
747D
100
AcDbEntity
  8
文字
 62
     7
 48
50.0
100
AcDbText
 10
13271.19032244792
 20
10930.01374588373
 30
0.0
 40
100.0
  1
1
  7
STYLE1
100
AcDbText
  0
TEXT
  5
19543
330
747D
100
AcDbEntity
  8
文字
 62
     7
 48
50.0
100
AcDbText
 10
13271.19032244792
 20
10760.01374588373
 30
0.0
 40
100.0
  1
2
  7
STYLE1
100
AcDbText
  0
TEXT
  5
19544
330
747D
100
AcDbEntity
  8
文字
 62
     7
 48
50.0
100
AcDbText
 10
13271.19032244792
 20
10420.01374588373
 30
0.0
 40
100.0
  1
4
  7
STYLE1
100
AcDbText
  0
TEXT
  5
19545
330
747D
100
AcDbEntity
  8
文字
 62
     7
 48
50.0
100
AcDbText
 10
13271.19032244792
 20
10590.01374588373
 30
0.0
 40
100.0
  1
3
  7
STYLE1
100
AcDbText
  0
TEXT
  5
19546
330
747D
100
AcDbEntity
  8
文字
 62
     7
 48
50.0
100
AcDbText
 10
13732.03840939434
 20
11100.01374588373
 30
0.0
 40
100.0
  1
部　　品　　名
  7
STYLE1
100
AcDbText
  0
TEXT
  5
19547
330
747D
100
AcDbEntity
  8
文字
 62
     7
 48
50.0
100
AcDbText
 10
14859.79774614482
 20
11100.01374588373
 30
0.0
 40
100.0
  1
材料（材質）　　単位mm
  7
STYLE1
100
AcDbText
  0
TEXT
  5
19548
330
747D
100
AcDbEntity
  8
文字
 62
     7
 48
50.0
100
AcDbText
 10
13583.11819016569
 20
10930.01374588372
 30
0.0
 40
100.0
  1
土台枠
  7
STYLE1
100
AcDbText
  0
TEXT
  5
19549
330
747D
100
AcDbEntity
  8
文字
 62
     7
 48
50.0
100
AcDbText
 10
13583.11819016569
 20
10760.01374588372
 30
0.0
 40
100.0
  1
柱
  7
STYLE1
100
AcDbText
  0
TEXT
  5
1954A
330
747D
100
AcDbEntity
  8
文字
 62
     7
 48
50.0
100
AcDbText
 10
13583.11819016569
 20
10590.01374588373
 30
0.0
 40
100.0
  1
桁前
  7
STYLE1
100
AcDbText
  0
TEXT
  5
1954B
330
747D
100
AcDbEntity
  8
文字
 62
     7
 48
50.0
100
AcDbText
 10
13583.11819016569
 20
10420.01374588373
 30
0.0
 40
100.0
  1
桁後
  7
STYLE1
100
AcDbText
  0
TEXT
  5
1954C
330
747D
100
AcDbEntity
  8
文字
 62
     7
 48
50.0
100
AcDbText
 10
13271.19032244792
 20
10250.01374588373
 30
0.0
 40
100.0
  1
5
  7
STYLE1
100
AcDbText
  0
TEXT
  5
1954D
330
747D
100
AcDbEntity
  8
文字
 62
     7
 48
50.0
100
AcDbText
 10
13583.11819016569
 20
10250.01374588373
 30
0.0
 40
100.0
  1
妻板左右
  7
STYLE1
100
AcDbText
  0
TEXT
  5
1954E
330
747D
100
AcDbEntity
  8
文字
 62
     7
 48
50.0
100
AcDbText
 10
13583.11819016569
 20
8720.013745883731
 30
0.0
 40
100.0
  1
シャッターレール
  7
STYLE1
100
AcDbText
  0
TEXT
  5
1954F
330
747D
100
AcDbEntity
  8
文字
 62
     7
 48
50.0
100
AcDbText
 10
13248.77747366448
 20
9400.013745883727
 30
0.0
 40
100.0
  1
10
  7
STYLE1
100
AcDbText
  0
TEXT
  5
19550
330
747D
100
AcDbEntity
  8
文字
 62
     7
 48
50.0
100
AcDbText
 10
13583.11819016569
 20
9400.013745883731
 30
0.0
 40
100.0
  1
壁パネル
  7
STYLE1
100
AcDbText
  0
TEXT
  5
19551
330
747D
100
AcDbEntity
  8
文字
 62
     7
 48
50.0
100
AcDbText
 10
13583.11819016569
 20
9570.013745883729
 30
0.0
 40
100.0
  1
屋根パネル
  7
STYLE1
100
AcDbText
  0
TEXT
  5
19552
330
747D
100
AcDbEntity
  8
文字
 62
     7
 48
50.0
100
AcDbText
 10
13583.11819016569
 20
9740.013745883729
 30
0.0
 40
100.0
  1
母屋中
  7
STYLE1
100
AcDbText
  0
TEXT
  5
19553
330
747D
100
AcDbEntity
  8
文字
 62
     7
 48
50.0
100
AcDbText
 10
13583.11819016569
 20
10080.01374588372
 30
0.0
 40
100.0
  1
鼻隠シ前後
  7
STYLE1
100
AcDbText
  0
TEXT
  5
19554
330
747D
100
AcDbEntity
  8
文字
 62
     7
 48
50.0
100
AcDbText
 10
13271.19032244792
 20
9740.013745883729
 30
0.0
 40
100.0
  1
8
  7
STYLE1
100
AcDbText
  0
TEXT
  5
19555
330
747D
100
AcDbEntity
  8
文字
 62
     7
 48
50.0
100
AcDbText
 10
13271.19032244792
 20
9570.013745883729
 30
0.0
 40
100.0
  1
9
  7
STYLE1
100
AcDbText
  0
TEXT
  5
19556
330
747D
100
AcDbEntity
  8
文字
 62
     7
 48
50.0
100
AcDbText
 10
13271.19032244792
 20
9910.01374588373
 30
0.0
 40
100.0
  1
7
  7
STYLE1
100
AcDbText
  0
TEXT
  5
19557
330
747D
100
AcDbEntity
  8
文字
 62
     7
 48
50.0
100
AcDbText
 10
13271.19032244792
 20
10080.01374588373
 30
0.0
 40
100.0
  1
6
  7
STYLE1
100
AcDbText
  0
LINE
  5
19558
330
747D
100
AcDbEntity
  8
仕様書枠
 48
50.0
100
AcDbLine
 10
16307.19999999999
 20
9539.599999999998
 30
0.0
 11
13127.19999999999
 21
9539.6
 31
0.0
  0
LINE
  5
19559
330
747D
100
AcDbEntity
  8
仕様書枠
 48
50.0
100
AcDbLine
 10
16307.19999999999
 20
9199.599999999998
 30
0.0
 11
13127.19999999999
 21
9199.600000000001
 31
0.0
  0
LINE
  5
1955A
330
747D
100
AcDbEntity
  8
仕様書枠
 48
50.0
100
AcDbLine
 10
16307.19999999999
 20
9369.599999999998
 30
0.0
 11
13127.19999999999
 21
9369.600000000001
 31
0.0
  0
LINE
  5
1955B
330
747D
100
AcDbEntity
  8
仕様書枠
 48
50.0
100
AcDbLine
 10
16307.19999999999
 20
10049.6
 30
0.0
 11
13127.2
 21
10049.6
 31
0.0
  0
LINE
  5
1955C
330
747D
100
AcDbEntity
  8
仕様書枠
 48
50.0
100
AcDbLine
 10
16307.19999999999
 20
9709.6
 30
0.0
 11
13127.19999999999
 21
9709.600000000001
 31
0.0
  0
TEXT
  5
1955D
330
747D
100
AcDbEntity
  8
文字
 62
     7
 48
50.0
100
AcDbText
 10
13248.77747366448
 20
9230.013745883727
 30
0.0
 40
100.0
  1
11
  7
STYLE1
100
AcDbText
  0
TEXT
  5
1955E
330
747D
100
AcDbEntity
  8
文字
 62
     7
 48
50.0
100
AcDbText
 10
13583.11819016569
 20
8890.013745883729
 30
0.0
 40
100.0
  1
シャッターカバー
 41
0.9
  7
STYLE1
100
AcDbText
  0
LINE
  5
1955F
330
747D
100
AcDbEntity
  8
仕様書枠
 48
50.0
100
AcDbLine
 10
16307.19999999999
 20
9029.6
 30
0.0
 11
13127.19999999999
 21
9029.6
 31
0.0
  0
TEXT
  5
19560
330
747D
100
AcDbEntity
  8
文字
 62
     7
 48
50.0
100
AcDbText
 10
13583.11819016569
 20
9060.013745883731
 30
0.0
 40
100.0
  1
シャッター
  7
STYLE1
100
AcDbText
  0
TEXT
  5
19561
330
747D
100
AcDbEntity
  8
文字
 62
     7
 48
50.0
100
AcDbText
 10
13248.77747366448
 20
8890.013745883729
 30
0.0
 40
100.0
  1
13
  7
STYLE1
100
AcDbText
  0
TEXT
  5
19562
330
747D
100
AcDbEntity
  8
文字
 62
     7
 48
50.0
100
AcDbText
 10
13248.77747366448
 20
9060.013745883729
 30
0.0
 40
100.0
  1
12
  7
STYLE1
100
AcDbText
  0
TEXT
  5
19563
330
747D
100
AcDbEntity
  8
文字
 62
     7
 48
50.0
100
AcDbText
 10
15022.63965474517
 20
10930.01374588372
 30
0.0
 40
100.0
  1
F12            1.2
  7
STYLE1
100
AcDbText
  0
TEXT
  5
19564
330
747D
100
AcDbEntity
  8
文字
 62
     7
 48
50.0
100
AcDbText
 10
15022.63965474517
 20
10760.01374588372
 30
0.0
 40
100.0
  1
F12         1.0,1.2
  7
STYLE1
100
AcDbText
  0
TEXT
  5
19565
330
747D
100
AcDbEntity
  8
文字
 62
     7
 48
50.0
100
AcDbText
 10
15022.63965474516
 20
10590.01374588372
 30
0.0
 40
100.0
  1
Y10            1.0
  7
STYLE1
100
AcDbText
  0
TEXT
  5
19566
330
747D
100
AcDbEntity
  8
文字
 62
     7
 48
50.0
100
AcDbText
 10
15022.63965474516
 20
10420.01374588372
 30
0.0
 40
100.0
  1
Y10            1.0
  7
STYLE1
100
AcDbText
  0
TEXT
  5
19567
330
747D
100
AcDbEntity
  8
文字
 62
     7
 48
50.0
100
AcDbText
 10
15022.63965474516
 20
10250.01374588372
 30
0.0
 40
100.0
  1
Y10            0.7
  7
STYLE1
100
AcDbText
  0
TEXT
  5
19568
330
747D
100
AcDbEntity
  8
文字
 62
     7
 48
50.0
100
AcDbText
 10
15022.63965474516
 20
10080.01374588372
 30
0.0
 40
100.0
  1
Y10            0.7
  7
STYLE1
100
AcDbText
  0
TEXT
  5
19569
330
747D
100
AcDbEntity
  8
文字
 62
     7
 48
50.0
100
AcDbText
 10
15022.63965474516
 20
9570.013745883727
 30
0.0
 40
100.0
  1
Y10            0.5
  7
STYLE1
100
AcDbText
  0
TEXT
  5
1956A
330
747D
100
AcDbEntity
  8
文字
 62
     7
 48
50.0
100
AcDbText
 10
15022.63965474516
 20
9400.013745883727
 30
0.0
 40
100.0
  1
F12            0.7
  7
STYLE1
100
AcDbText
  0
TEXT
  5
1956B
330
747D
100
AcDbEntity
  8
文字
 62
     7
 48
50.0
100
AcDbText
 10
14850.83183167176
 20
8720.013745883729
 30
0.0
 40
100.0
  1
アルミニウム合金押出形材
  7
STYLE1
100
AcDbText
  0
TEXT
  5
1956D
330
747D
100
AcDbEntity
  8
文字
 62
     7
 48
50.0
100
AcDbText
 10
15022.63965474516
 20
9060.013745883727
 30
0.0
 40
100.0
  1
Z08            0.5
  7
STYLE1
100
AcDbText
  0
LINE
  5
1956E
330
747D
100
AcDbEntity
  8
仕様書枠
 48
50.0
100
AcDbLine
 10
16307.19999999998
 20
8009.600000000018
 30
0.0
 11
13127.19999999999
 21
8009.600000000018
 31
0.0
  0
LINE
  5
1956F
330
747D
100
AcDbEntity
  8
仕様書枠
 48
50.0
100
AcDbLine
 10
16307.19999999998
 20
7839.600000000017
 30
0.0
 11
13127.19999999999
 21
7839.600000000018
 31
0.0
  0
LINE
  5
19570
330
747D
100
AcDbEntity
  8
仕様書枠
 48
50.0
100
AcDbLine
 10
16307.19999999998
 20
7669.600000000016
 30
0.0
 11
13127.19999999999
 21
7669.600000000018
 31
0.0
  0
TEXT
  5
19571
330
747D
100
AcDbEntity
  8
文字
 62
     7
 48
50.0
100
AcDbText
 10
13229.83081656554
 20
8040.013745883745
 30
0.0
 40
100.0
  1
F12→溶融亜鉛めっき鋼板(JIS G 3302)
  7
STYLE1
100
AcDbText
  0
TEXT
  5
19572
330
747D
100
AcDbEntity
  8
文字
 62
     7
 48
50.0
100
AcDbText
 10
13229.83081656554
 20
7870.013745883746
 30
0.0
 40
100.0
  1
Y10→溶融亜鉛-5％アルミニウム合金めっき鋼板(JIS G 3317)
 41
0.9
  7
STYLE1
100
AcDbText
  0
TEXT
  5
19573
330
747D
100
AcDbEntity
  8
文字
 62
     7
 48
50.0
100
AcDbText
 10
13229.83081656554
 20
7700.013745883747
 30
0.0
 40
100.0
  1
Z08→塗装溶融亜鉛めっき鋼板(JIS G 3313)
  7
STYLE1
100
AcDbText
  0
LINE
  5
19574
330
747D
100
AcDbEntity
  8
仕様書枠
 48
50.0
100
AcDbLine
 10
13127.2
 20
11239.6
 30
0.0
 11
13127.19999999999
 21
7669.600000000018
 31
0.0
  0
LINE
  5
19575
330
747D
100
AcDbEntity
  8
仕様書枠
 48
50.0
100
AcDbLine
 10
16307.19999999999
 20
8689.6
 30
0.0
 11
13127.19999999999
 21
8689.600000000003
 31
0.0
  0
LINE
  5
19576
330
747D
100
AcDbEntity
  8
仕様書枠
 48
50.0
100
AcDbLine
 10
16307.19999999999
 20
8859.6
 30
0.0
 11
13127.19999999999
 21
8859.600000000002
 31
0.0
  0
TEXT
  5
19577
330
747D
100
AcDbEntity
  8
文字
 62
     7
 48
50.0
100
AcDbText
 10
13583.11819016569
 20
8550.013745883731
 30
0.0
 40
100.0
  1
根太
  7
STYLE1
100
AcDbText
  0
TEXT
  5
19578
330
747D
100
AcDbEntity
  8
文字
 62
     7
 48
50.0
100
AcDbText
 10
13248.77747366448
 20
8720.013745883729
 30
0.0
 40
100.0
  1
14
  7
STYLE1
100
AcDbText
  0
TEXT
  5
19579
330
747D
100
AcDbEntity
  8
文字
 62
     7
 48
50.0
100
AcDbText
 10
15022.63965474516
 20
8550.013745883727
 30
0.0
 40
100.0
  1
F12            1.2
  7
STYLE1
100
AcDbText
  0
TEXT
  5
1957A
330
747D
100
AcDbEntity
  8
文字
 62
     7
 48
50.0
100
AcDbText
 10
13583.11819016569
 20
9910.01374588373
 30
0.0
 40
100.0
  1
梁中
  7
STYLE1
100
AcDbText
  0
TEXT
  5
1957B
330
747D
100
AcDbEntity
  8
文字
 62
     7
 48
50.0
100
AcDbText
 10
15022.63965474516
 20
9910.013745883727
 30
0.0
 40
100.0
  1
F12,Y10      1.2+1.6
  7
STYLE1
100
AcDbText
  0
LINE
  5
1957C
330
747D
100
AcDbEntity
  8
仕様書枠
 48
50.0
100
AcDbLine
 10
16307.19999999998
 20
8349.600000000014
 30
0.0
 11
13127.19999999999
 21
8349.600000000016
 31
0.0
  0
TEXT
  5
1957D
330
747D
100
AcDbEntity
  8
文字
 62
     7
 48
50.0
100
AcDbText
 10
15022.63965474517
 20
9740.013745883725
 30
0.0
 40
100.0
  1
F12            2.3
  7
STYLE1
100
AcDbText
  0
LINE
  5
19B52
330
747D
100
AcDbEntity
  8
細線
100
AcDbLine
 10
7245.349524198768
 20
3948.397861808415
 30
0.0
 11
10089.34952419877
 21
3948.397861808415
 31
0.0
  0
LINE
  5
19B53
330
747D
100
AcDbEntity
  8
細線
100
AcDbLine
 10
7245.349524198768
 20
4013.397861808415
 30
0.0
 11
10089.34952419877
 21
4013.397861808415
 31
0.0
  0
LINE
  5
19B54
330
747D
100
AcDbEntity
  8
細線
100
AcDbLine
 10
7245.349524198768
 20
4078.397861808414
 30
0.0
 11
10089.34952419877
 21
4078.397861808414
 31
0.0
  0
LINE
  5
19B55
330
747D
100
AcDbEntity
  8
細線
100
AcDbLine
 10
7245.349524198768
 20
3558.397861808415
 30
0.0
 11
10089.34952419877
 21
3558.397861808415
 31
0.0
  0
LINE
  5
19B56
330
747D
100
AcDbEntity
  8
細線
100
AcDbLine
 10
7245.349524198768
 20
3623.397861808415
 30
0.0
 11
10089.34952419877
 21
3623.397861808415
 31
0.0
  0
LINE
  5
19B57
330
747D
100
AcDbEntity
  8
細線
100
AcDbLine
 10
7245.349524198768
 20
3688.397861808415
 30
0.0
 11
10089.34952419877
 21
3688.397861808415
 31
0.0
  0
LINE
  5
19B58
330
747D
100
AcDbEntity
  8
細線
100
AcDbLine
 10
7245.349524198768
 20
3753.397861808415
 30
0.0
 11
10089.34952419877
 21
3753.397861808415
 31
0.0
  0
LINE
  5
19B59
330
747D
100
AcDbEntity
  8
細線
100
AcDbLine
 10
7245.349524198768
 20
3818.397861808415
 30
0.0
 11
10089.34952419877
 21
3818.397861808415
 31
0.0
  0
LINE
  5
19B5A
330
747D
100
AcDbEntity
  8
細線
100
AcDbLine
 10
7245.349524198768
 20
3883.397861808415
 30
0.0
 11
10089.34952419877
 21
3883.397861808415
 31
0.0
  0
LINE
  5
19B5B
330
747D
100
AcDbEntity
  8
細線
100
AcDbLine
 10
7245.349524198768
 20
2908.397861808415
 30
0.0
 11
10089.34952419877
 21
2908.397861808415
 31
0.0
  0
LINE
  5
19B5C
330
747D
100
AcDbEntity
  8
細線
100
AcDbLine
 10
7245.349524198768
 20
2973.397861808415
 30
0.0
 11
10089.34952419877
 21
2973.397861808415
 31
0.0
  0
LINE
  5
19B5D
330
747D
100
AcDbEntity
  8
細線
100
AcDbLine
 10
7245.349524198768
 20
3038.397861808415
 30
0.0
 11
10089.34952419877
 21
3038.397861808415
 31
0.0
  0
LINE
  5
19B5E
330
747D
100
AcDbEntity
  8
細線
100
AcDbLine
 10
7245.349524198768
 20
3103.397861808415
 30
0.0
 11
10089.34952419877
 21
3103.397861808415
 31
0.0
  0
LINE
  5
19B5F
330
747D
100
AcDbEntity
  8
細線
100
AcDbLine
 10
7245.349524198768
 20
3168.397861808415
 30
0.0
 11
10089.34952419877
 21
3168.397861808415
 31
0.0
  0
LINE
  5
19B60
330
747D
100
AcDbEntity
  8
細線
100
AcDbLine
 10
7245.349524198768
 20
3233.397861808415
 30
0.0
 11
10089.34952419877
 21
3233.397861808415
 31
0.0
  0
LINE
  5
19B61
330
747D
100
AcDbEntity
  8
細線
100
AcDbLine
 10
7245.349524198768
 20
3298.397861808415
 30
0.0
 11
10089.34952419877
 21
3298.397861808415
 31
0.0
  0
LINE
  5
19B62
330
747D
100
AcDbEntity
  8
細線
100
AcDbLine
 10
7245.349524198768
 20
3363.397861808415
 30
0.0
 11
10089.34952419877
 21
3363.397861808415
 31
0.0
  0
LINE
  5
19B63
330
747D
100
AcDbEntity
  8
細線
100
AcDbLine
 10
7245.349524198768
 20
3428.397861808415
 30
0.0
 11
10089.34952419877
 21
3428.397861808415
 31
0.0
  0
LINE
  5
19B64
330
747D
100
AcDbEntity
  8
細線
100
AcDbLine
 10
7245.349524198768
 20
3493.397861808415
 30
0.0
 11
10089.34952419877
 21
3493.397861808415
 31
0.0
  0
LINE
  5
19B65
330
747D
100
AcDbEntity
  8
細線
100
AcDbLine
 10
7245.349524198768
 20
4208.397861808414
 30
0.0
 11
10089.34952419877
 21
4208.397861808414
 31
0.0
  0
LINE
  5
19B66
330
747D
100
AcDbEntity
  8
細線
100
AcDbLine
 10
7245.349524198768
 20
4143.397861808415
 30
0.0
 11
10089.34952419877
 21
4143.397861808415
 31
0.0
  0
LINE
  5
19B67
330
747D
100
AcDbEntity
  8
細線
100
AcDbLine
 10
7245.349524198768
 20
2388.397861808415
 30
0.0
 11
10089.34952419877
 21
2388.397861808415
 31
0.0
  0
LINE
  5
19B68
330
747D
100
AcDbEntity
  8
細線
100
AcDbLine
 10
7245.349524198768
 20
2453.397861808415
 30
0.0
 11
10089.34952419877
 21
2453.397861808415
 31
0.0
  0
LINE
  5
19B69
330
747D
100
AcDbEntity
  8
細線
100
AcDbLine
 10
7245.349524198768
 20
2518.397861808415
 30
0.0
 11
10089.34952419877
 21
2518.397861808415
 31
0.0
  0
LINE
  5
19B6A
330
747D
100
AcDbEntity
  8
細線
100
AcDbLine
 10
7245.349524198768
 20
2583.397861808415
 30
0.0
 11
10089.34952419877
 21
2583.397861808415
 31
0.0
  0
LINE
  5
19B6B
330
747D
100
AcDbEntity
  8
細線
100
AcDbLine
 10
7245.349524198768
 20
2648.397861808415
 30
0.0
 11
10089.34952419877
 21
2648.397861808415
 31
0.0
  0
LINE
  5
19B6C
330
747D
100
AcDbEntity
  8
細線
100
AcDbLine
 10
7245.349524198768
 20
2713.397861808415
 30
0.0
 11
10089.34952419877
 21
2713.397861808415
 31
0.0
  0
LINE
  5
19B6D
330
747D
100
AcDbEntity
  8
細線
100
AcDbLine
 10
7245.349524198768
 20
2778.397861808415
 30
0.0
 11
10089.34952419877
 21
2778.397861808415
 31
0.0
  0
LINE
  5
19B6E
330
747D
100
AcDbEntity
  8
細線
100
AcDbLine
 10
7245.349524198768
 20
2843.397861808415
 30
0.0
 11
10089.34952419877
 21
2843.397861808415
 31
0.0
  0
LINE
  5
19B6F
330
747D
100
AcDbEntity
  8
細線
100
AcDbLine
 10
10089.34952419877
 20
2323.397861808415
 30
0.0
 11
7245.349524198765
 21
2323.397861808415
 31
0.0
  0
LINE
  5
19B70
330
747D
100
AcDbEntity
  8
部品1
100
AcDbLine
 10
7197.349524198772
 20
4238.397861808414
 30
0.0
 11
10192.34952419877
 21
4238.397861808415
 31
0.0
  0
LINE
  5
19B71
330
747D
100
AcDbEntity
  8
Ｇ．Ｌ
100
AcDbLine
 10
366.3379004147208
 20
2163.397861808415
 30
0.0
 11
16033.83232683896
 21
2163.397861808415
 31
0.0
  0
LINE
  5
19B72
330
747D
100
AcDbEntity
  8
部品1
100
AcDbLine
 10
7197.349524198774
 20
2313.397861808415
 30
0.0
 11
10137.34952419877
 21
2313.397861808415
 31
0.0
  0
LINE
  5
19B73
330
747D
100
AcDbEntity
  8
部品1
100
AcDbLine
 10
7197.349524198774
 20
2263.397861808415
 30
0.0
 11
10137.34952419877
 21
2263.397861808415
 31
0.0
  0
DIMENSION
  5
19B74
330
747D
100
AcDbEntity
  8
寸法
 48
50.0
100
AcDbDimension
  2
*D27
 10
10242.3495241988
 20
5071.84474754041
 30
0.0
 11
5617.349524198783
 21
5171.844747540411
 31
0.0
 70
    32
  1
N X 3050+100
 71
     5
 42
9250.000000000044
  3
INABA_S40G
100
AcDbAlignedDimension
 13
992.3495241987621
 23
4638.39786180842
 33
0.0
 14
10242.3495241988
 24
4638.397861808417
 34
0.0
100
AcDbRotatedDimension
  0
DIMENSION
  5
19B75
330
747D
100
AcDbEntity
  8
寸法
 48
50.0
100
AcDbDimension
  2
*D28
 10
1042.349524198762
 20
4850.939447066659
 30
0.0
 11
5617.349524198762
 21
4950.939447066659
 31
0.0
 70
    32
  1
柱外寸法 N X 3050
 71
     5
 42
9150.0
  3
INABA_S40G
100
AcDbAlignedDimension
 13
10192.34952419876
 23
4651.319187630941
 33
0.0
 14
1042.349524198762
 24
4651.319187639408
 34
0.0
100
AcDbRotatedDimension
  0
LINE
  5
19B76
330
747D
100
AcDbEntity
  8
部品1
100
AcDbLine
 10
7142.349524198796
 20
4403.397861808414
 30
0.0
 11
10192.34952419879
 21
4403.397861808414
 31
0.0
  0
LINE
  5
19B77
330
747D
100
AcDbEntity
  8
部品1
 48
50.0
100
AcDbLine
 10
10234.94110309237
 20
4638.397861808417
 30
0.0
 11
7132.349524198797
 21
4638.397861808417
 31
0.0
  0
LINE
  5
19B78
330
747D
100
AcDbEntity
  8
部品1
 48
50.0
100
AcDbLine
 10
10221.72577963134
 20
4497.397861808419
 30
0.0
 11
7142.349524198796
 21
4497.397861808419
 31
0.0
  0
LINE
  5
19B79
330
747D
100
AcDbEntity
  8
細線
 48
50.0
100
AcDbLine
 10
10240.19087318689
 20
4610.371104371886
 30
0.0
 11
7132.349524198797
 21
4610.371104371892
 31
0.0
  0
LINE
  5
19B7A
330
747D
100
AcDbEntity
  8
細線
 48
50.0
100
AcDbLine
 10
10231.95484266204
 20
4518.171104371885
 30
0.0
 11
7132.349524198797
 21
4518.171104372251
 31
0.0
  0
LINE
  5
19B90
330
747D
100
AcDbEntity
  8
部品1
100
AcDbLine
 10
1097.349524198773
 20
2263.397861808415
 30
0.0
 11
4037.349524198769
 21
2263.397861808415
 31
0.0
  0
LINE
  5
19B91
330
747D
100
AcDbEntity
  8
部品1
100
AcDbLine
 10
1042.349524198773
 20
4238.397861808413
 30
0.0
 11
4147.349524198772
 21
4238.397861808413
 31
0.0
  0
LINE
  5
19B92
330
747D
100
AcDbEntity
  8
細線
100
AcDbLine
 10
1145.349524198765
 20
2843.397861808415
 30
0.0
 11
3989.34952419877
 21
2843.397861808415
 31
0.0
  0
LINE
  5
19B93
330
747D
100
AcDbEntity
  8
細線
100
AcDbLine
 10
1145.349524198765
 20
2778.397861808415
 30
0.0
 11
3989.34952419877
 21
2778.397861808415
 31
0.0
  0
LINE
  5
19B94
330
747D
100
AcDbEntity
  8
細線
100
AcDbLine
 10
1145.349524198765
 20
2713.397861808415
 30
0.0
 11
3989.34952419877
 21
2713.397861808415
 31
0.0
  0
LINE
  5
19B95
330
747D
100
AcDbEntity
  8
細線
100
AcDbLine
 10
1145.349524198765
 20
2648.397861808415
 30
0.0
 11
3989.34952419877
 21
2648.397861808415
 31
0.0
  0
LINE
  5
19B96
330
747D
100
AcDbEntity
  8
細線
100
AcDbLine
 10
1145.349524198765
 20
2583.397861808415
 30
0.0
 11
3989.34952419877
 21
2583.397861808415
 31
0.0
  0
LINE
  5
19B97
330
747D
100
AcDbEntity
  8
細線
100
AcDbLine
 10
1145.349524198765
 20
2518.397861808415
 30
0.0
 11
3989.34952419877
 21
2518.397861808415
 31
0.0
  0
LINE
  5
19B98
330
747D
100
AcDbEntity
  8
細線
100
AcDbLine
 10
1145.349524198765
 20
2453.397861808415
 30
0.0
 11
3989.34952419877
 21
2453.397861808415
 31
0.0
  0
LINE
  5
19B99
330
747D
100
AcDbEntity
  8
細線
100
AcDbLine
 10
1145.349524198765
 20
2388.397861808415
 30
0.0
 11
3989.34952419877
 21
2388.397861808415
 31
0.0
  0
LINE
  5
19B9A
330
747D
100
AcDbEntity
  8
細線
100
AcDbLine
 10
1145.349524198765
 20
4143.397861808415
 30
0.0
 11
3989.34952419877
 21
4143.397861808415
 31
0.0
  0
LINE
  5
19B9B
330
747D
100
AcDbEntity
  8
細線
100
AcDbLine
 10
1145.349524198765
 20
4208.397861808414
 30
0.0
 11
3989.34952419877
 21
4208.397861808414
 31
0.0
  0
LINE
  5
19B9C
330
747D
100
AcDbEntity
  8
細線
100
AcDbLine
 10
1145.349524198765
 20
3493.397861808415
 30
0.0
 11
3989.34952419877
 21
3493.397861808415
 31
0.0
  0
LINE
  5
19B9D
330
747D
100
AcDbEntity
  8
細線
100
AcDbLine
 10
1145.349524198765
 20
3428.397861808415
 30
0.0
 11
3989.34952419877
 21
3428.397861808415
 31
0.0
  0
LINE
  5
19B9E
330
747D
100
AcDbEntity
  8
細線
100
AcDbLine
 10
1145.349524198765
 20
3363.397861808415
 30
0.0
 11
3989.34952419877
 21
3363.397861808415
 31
0.0
  0
LINE
  5
19B9F
330
747D
100
AcDbEntity
  8
細線
100
AcDbLine
 10
1145.349524198765
 20
3298.397861808415
 30
0.0
 11
3989.34952419877
 21
3298.397861808415
 31
0.0
  0
LINE
  5
19BA0
330
747D
100
AcDbEntity
  8
細線
100
AcDbLine
 10
1145.349524198765
 20
3233.397861808415
 30
0.0
 11
3989.34952419877
 21
3233.397861808415
 31
0.0
  0
LINE
  5
19BA1
330
747D
100
AcDbEntity
  8
細線
100
AcDbLine
 10
1145.349524198765
 20
3168.397861808415
 30
0.0
 11
3989.34952419877
 21
3168.397861808415
 31
0.0
  0
LINE
  5
19BA2
330
747D
100
AcDbEntity
  8
細線
100
AcDbLine
 10
1145.349524198765
 20
3103.397861808415
 30
0.0
 11
3989.34952419877
 21
3103.397861808415
 31
0.0
  0
LINE
  5
19BA3
330
747D
100
AcDbEntity
  8
細線
100
AcDbLine
 10
1145.349524198765
 20
3038.397861808415
 30
0.0
 11
3989.34952419877
 21
3038.397861808415
 31
0.0
  0
LINE
  5
19BA4
330
747D
100
AcDbEntity
  8
細線
100
AcDbLine
 10
1145.349524198765
 20
2973.397861808415
 30
0.0
 11
3989.34952419877
 21
2973.397861808415
 31
0.0
  0
LINE
  5
19BA5
330
747D
100
AcDbEntity
  8
細線
100
AcDbLine
 10
1145.349524198765
 20
2908.397861808415
 30
0.0
 11
3989.34952419877
 21
2908.397861808415
 31
0.0
  0
LINE
  5
19BA6
330
747D
100
AcDbEntity
  8
細線
100
AcDbLine
 10
1145.349524198765
 20
3883.397861808415
 30
0.0
 11
3989.34952419877
 21
3883.397861808415
 31
0.0
  0
LINE
  5
19BA7
330
747D
100
AcDbEntity
  8
細線
100
AcDbLine
 10
1145.349524198765
 20
3818.397861808415
 30
0.0
 11
3989.34952419877
 21
3818.397861808415
 31
0.0
  0
LINE
  5
19BA8
330
747D
100
AcDbEntity
  8
細線
100
AcDbLine
 10
1145.349524198765
 20
3753.397861808415
 30
0.0
 11
3989.34952419877
 21
3753.397861808415
 31
0.0
  0
LINE
  5
19BA9
330
747D
100
AcDbEntity
  8
細線
100
AcDbLine
 10
1145.349524198765
 20
3688.397861808415
 30
0.0
 11
3989.34952419877
 21
3688.397861808415
 31
0.0
  0
LINE
  5
19BAA
330
747D
100
AcDbEntity
  8
細線
100
AcDbLine
 10
1145.349524198765
 20
3623.397861808415
 30
0.0
 11
3989.34952419877
 21
3623.397861808415
 31
0.0
  0
LINE
  5
19BAB
330
747D
100
AcDbEntity
  8
細線
100
AcDbLine
 10
1145.349524198765
 20
3558.397861808415
 30
0.0
 11
3989.34952419877
 21
3558.397861808415
 31
0.0
  0
LINE
  5
19BAC
330
747D
100
AcDbEntity
  8
細線
100
AcDbLine
 10
1145.349524198765
 20
4078.397861808414
 30
0.0
 11
3989.34952419877
 21
4078.397861808414
 31
0.0
  0
LINE
  5
19BAD
330
747D
100
AcDbEntity
  8
細線
100
AcDbLine
 10
1145.349524198765
 20
4013.397861808415
 30
0.0
 11
3989.34952419877
 21
4013.397861808415
 31
0.0
  0
LINE
  5
19BAE
330
747D
100
AcDbEntity
  8
細線
100
AcDbLine
 10
1145.349524198765
 20
3948.397861808415
 30
0.0
 11
3989.34952419877
 21
3948.397861808415
 31
0.0
  0
LINE
  5
19BAF
330
747D
100
AcDbEntity
  8
細線
100
AcDbLine
 10
3989.349524198773
 20
2323.397861808415
 30
0.0
 11
1145.349524198765
 21
2323.397861808415
 31
0.0
  0
LINE
  5
19BB0
330
747D
100
AcDbEntity
  8
部品1
100
AcDbLine
 10
1097.349524198773
 20
2313.397861808415
 30
0.0
 11
4037.349524198769
 21
2313.397861808415
 31
0.0
  0
LINE
  5
19BB1
330
747D
100
AcDbEntity
  8
部品1
100
AcDbLine
 10
1042.349524198769
 20
4403.397861808414
 30
0.0
 11
4092.349524198769
 21
4403.397861808414
 31
0.0
  0
LINE
  5
19BB2
330
747D
100
AcDbEntity
  8
部品1
 48
50.0
100
AcDbLine
 10
4082.349524198784
 20
4638.397861808417
 30
0.0
 11
999.7579453051912
 21
4638.397861808417
 31
0.0
  0
LINE
  5
19BB3
330
747D
100
AcDbEntity
  8
部品1
 48
50.0
100
AcDbLine
 10
4092.349524198783
 20
4497.397861808419
 30
0.0
 11
1012.973268766225
 21
4497.397861808419
 31
0.0
  0
LINE
  5
19BB4
330
747D
100
AcDbEntity
  8
細線
 48
50.0
100
AcDbLine
 10
4082.349524198784
 20
4610.371104371886
 30
0.0
 11
994.5081752103615
 21
4610.371104372256
 31
0.0
  0
LINE
  5
19BB5
330
747D
100
AcDbEntity
  8
細線
 48
50.0
100
AcDbLine
 10
4082.349524198784
 20
4518.171104371885
 30
0.0
 11
1002.744205735191
 21
4518.171104372254
 31
0.0
  0
LINE
  5
19BB6
330
747D
100
AcDbEntity
  8
部品1
100
AcDbLine
 10
478.0695945065999
 20
2163.397861808415
 30
0.0
 11
403.0695945065999
 21
2293.301672376079
 31
0.0
  0
TEXT
  5
19BB7
330
747D
100
AcDbEntity
  8
部品1
100
AcDbText
 10
581.1745366313735
 20
2199.504765414316
 30
0.0
 40
125.0
  1
G.L
  7
STYLE2
100
AcDbText
  0
LINE
  5
19BB8
330
747D
100
AcDbEntity
  8
部品1
100
AcDbLine
 10
553.0695945065999
 20
2293.301672376079
 30
0.0
 11
478.0695945065999
 21
2163.397861808415
 31
0.0
  0
LINE
  5
19BB9
330
747D
100
AcDbEntity
  8
部品1
100
AcDbLine
 10
1042.349524198773
 20
4497.397861808419
 30
0.0
 11
1042.349524198773
 21
2163.397861808415
 31
0.0
  0
LINE
  5
19BBA
330
747D
100
AcDbEntity
  8
部品1
100
AcDbLine
 10
1097.349524198773
 20
4238.397861808413
 30
0.0
 11
1097.349524198773
 21
2163.397861808415
 31
0.0
  0
LINE
  5
19BBC
330
747D
100
AcDbEntity
  8
破線
 48
5.0
100
AcDbLine
 10
1097.349524198769
 20
1913.397861808422
 30
0.0
 11
1042.349524198769
 21
1913.397861808422
 31
0.0
  0
LINE
  5
19BBE
330
747D
100
AcDbEntity
  8
破線
 48
5.0
100
AcDbLine
 10
1042.349524198773
 20
2163.397861808415
 30
0.0
 11
1042.349524198769
 21
1913.397861808414
 31
0.0
  0
LINE
  5
19BC0
330
747D
100
AcDbEntity
  8
破線
 48
5.0
100
AcDbLine
 10
1097.349524198773
 20
2163.397861808415
 30
0.0
 11
1097.349524198769
 21
1913.397861808414
 31
0.0
  0
LINE
  5
19BC1
330
747D
100
AcDbEntity
  8
部品1
100
AcDbLine
 10
1145.349524198773
 20
4238.397861808414
 30
0.0
 11
1145.349524198773
 21
2313.397861808415
 31
0.0
  0
LINE
  5
19BC2
330
747D
100
AcDbEntity
  8
部品1
100
AcDbLine
 10
403.0695945065999
 20
2293.301672376079
 30
0.0
 11
553.0695945065999
 21
2293.301672376079
 31
0.0
  0
LINE
  5
19BC3
330
747D
100
AcDbEntity
  8
細線
 48
50.0
100
AcDbLine
 10
2267.34952419877
 20
2890.897861808415
 30
0.0
 11
2367.34952419877
 21
2890.897861808415
 31
0.0
  0
LINE
  5
19BC4
330
747D
100
AcDbEntity
  8
細線
 48
50.0
100
AcDbLine
 10
2367.34952419877
 20
2860.897861808415
 30
0.0
 11
2267.34952419877
 21
2860.897861808415
 31
0.0
  0
ARC
  5
19BC5
330
747D
100
AcDbEntity
  8
細線
 48
50.0
100
AcDbCircle
 10
2267.34952419877
 20
2875.897861808415
 30
0.0
 40
15.0
100
AcDbArc
 50
90.0
 51
270.0
  0
ARC
  5
19BC6
330
747D
100
AcDbEntity
  8
細線
 48
50.0
100
AcDbCircle
 10
2367.34952419877
 20
2875.897861808415
 30
0.0
 40
15.0
100
AcDbArc
 50
270.0
 51
90.0
  0
LINE
  5
19BC7
330
747D
100
AcDbEntity
  8
細線
 48
50.0
100
AcDbLine
 10
2867.34952419877
 20
2860.897861808415
 30
0.0
 11
2767.34952419877
 21
2860.897861808415
 31
0.0
  0
LINE
  5
19BC8
330
747D
100
AcDbEntity
  8
細線
 48
50.0
100
AcDbLine
 10
2767.34952419877
 20
2890.897861808415
 30
0.0
 11
2867.34952419877
 21
2890.897861808415
 31
0.0
  0
ARC
  5
19BC9
330
747D
100
AcDbEntity
  8
細線
 48
50.0
100
AcDbCircle
 10
2767.34952419877
 20
2875.897861808415
 30
0.0
 40
15.0
100
AcDbArc
 50
90.0
 51
270.0
  0
ARC
  5
19BCA
330
747D
100
AcDbEntity
  8
細線
 48
50.0
100
AcDbCircle
 10
2867.34952419877
 20
2875.897861808415
 30
0.0
 40
15.0
100
AcDbArc
 50
270.0
 51
90.0
  0
CIRCLE
  5
19BCB
330
747D
100
AcDbEntity
  8
細線
 48
50.0
100
AcDbCircle
 10
2567.34952419877
 20
3200.897861808415
 30
0.0
 40
18.0
  0
DIMENSION
  5
19BCC
330
747D
100
AcDbEntity
  8
寸法
 48
50.0
100
AcDbDimension
  2
*D29
 10
992.3495241987621
 20
4850.939447066659
 30
0.0
 11
678.8642428245148
 21
4850.939447066659
 31
0.0
 70
   160
 71
     5
 42
50.0
  3
INABA_S40G
100
AcDbAlignedDimension
 13
1042.349524198762
 23
4638.397861808422
 33
0.0
 14
992.3495241987621
 24
4638.39786180842
 34
0.0
100
AcDbRotatedDimension
1001
ACAD
1000
DSTYLE
1002
{
1002
}
  0
LINE
  5
19BCD
330
747D
100
AcDbEntity
  8
細線
 48
50.0
100
AcDbLine
 10
1025.349524198762
 20
4638.397861808418
 30
0.0
 11
1025.349524198762
 21
4497.397861808418
 31
0.0
  0
LINE
  5
19BCE
330
747D
100
AcDbEntity
  8
部品1
100
AcDbLine
 10
997.1035723431706
 20
4607.567801263521
 30
0.0
 11
1002.138613071282
 21
4518.825208430579
 31
0.0
  0
ARC
  5
19BCF
330
747D
100
AcDbEntity
  8
部品1
100
AcDbCircle
 10
1012.973268766225
 20
4504.39786180842
 30
0.0
 40
7.0
100
AcDbArc
 50
183.2473427903377
 51
270.0
  0
ARC
  5
19BD0
330
747D
100
AcDbEntity
  8
部品1
 48
50.0
100
AcDbCircle
 10
1002.837489080389
 20
4518.864860970101
 30
0.0
 40
0.7
100
AcDbArc
 50
183.2473427903116
 51
262.3418727926349
  0
ARC
  5
19BD1
330
747D
100
AcDbEntity
  8
部品1
 48
50.0
100
AcDbCircle
 10
1002.344419971828
 20
4515.197861808418
 30
0.0
 40
3.0
100
AcDbArc
 50
3.247342790337682
 51
82.3418727926348
  0
LINE
  5
19BD2
330
747D
100
AcDbEntity
  8
部品1
100
AcDbLine
 10
1005.339602868018
 20
4515.367801263521
 30
0.0
 11
1005.984508675126
 21
4504.001336413181
 31
0.0
  0
ARC
  5
19BD3
330
747D
100
AcDbEntity
  8
部品1
100
AcDbCircle
 10
999.7579453051912
 20
4631.397861808419
 30
0.0
 40
7.0
100
AcDbArc
 50
90.0
 51
183.2473427903377
  0
ARC
  5
19BD4
330
747D
100
AcDbEntity
  8
部品1
 48
50.0
100
AcDbCircle
 10
994.6014585555495
 20
4611.064860970105
 30
0.0
 40
0.7
100
AcDbArc
 50
183.2473427903897
 51
262.3418727926349
  0
ARC
  5
19BD5
330
747D
100
AcDbEntity
  8
部品1
 48
50.0
100
AcDbCircle
 10
994.1083894469848
 20
4607.39786180842
 30
0.0
 40
3.0
100
AcDbArc
 50
3.247342790337682
 51
82.3418727926348
  0
LINE
  5
19BD6
330
747D
100
AcDbEntity
  8
部品1
100
AcDbLine
 10
992.7691852140924
 20
4631.001336413179
 30
0.0
 11
993.9025825464414
 21
4611.025208430579
 31
0.0
  0
LINE
  5
19BED
330
747D
100
AcDbEntity
  8
部品1
100
AcDbLine
 10
7087.349524198771
 20
4238.397861808413
 30
0.0
 11
7087.34952419877
 21
2163.397861808415
 31
0.0
  0
LINE
  5
19BEE
330
747D
100
AcDbEntity
  8
部品1
100
AcDbLine
 10
7197.349524198772
 20
4238.397861808413
 30
0.0
 11
7197.349524198769
 21
2163.397861808415
 31
0.0
  0
LINE
  5
19BEF
330
747D
100
AcDbEntity
  8
部品1
100
AcDbLine
 10
4147.349524198772
 20
4238.397861808413
 30
0.0
 11
4147.349524198772
 21
2163.397861808415
 31
0.0
  0
LINE
  5
19BF0
330
747D
100
AcDbEntity
  8
部品1
100
AcDbLine
 10
4037.349524198773
 20
4238.397861808413
 30
0.0
 11
4037.349524198769
 21
2163.397861808415
 31
0.0
  0
TEXT
  5
19BF3
330
747D
100
AcDbEntity
  8
部品1
100
AcDbText
 10
5326.139594822492
 20
1420.504332589891
 30
0.0
 40
135.0
  1
正面図
  7
STYLE2
100
AcDbText
  0
LWPOLYLINE
  5
19BF4
330
747D
100
AcDbEntity
  8
部品1
100
AcDbPolyline
 90
        4
 70
     1
 43
0.0
 10
5235.61419108454
 20
1613.397861808415
 10
5235.61419108454
 20
1373.505540262882
 10
5999.084857312976
 20
1373.505540262882
 10
5999.084857312976
 20
1613.397861808415
  0
LWPOLYLINE
  5
19C24
330
747D
100
AcDbEntity
  8
部品1
100
AcDbPolyline
 90
        4
 70
     1
 43
0.0
 10
5235.61419108455
 20
5667.369219061395
 10
5235.61419108455
 20
5427.476897515862
 10
5999.084857312992
 20
5427.476897515862
 10
5999.084857312992
 20
5667.369219061395
  0
TEXT
  5
19C25
330
747D
100
AcDbEntity
  8
部品1
100
AcDbText
 10
5325.533800913588
 20
5474.475689842871
 30
0.0
 40
135.0
  1
平面図
  7
STYLE2
100
AcDbText
  0
LINE
  5
19C26
330
747D
100
AcDbEntity
  8
部品1
 48
50.0
100
AcDbLine
 10
7142.349524198796
 20
4497.397861808417
 30
0.0
 11
4092.349524198783
 21
4497.397861808419
 31
0.0
  0
LINE
  5
19C27
330
747D
100
AcDbEntity
  8
細線
 48
50.0
100
AcDbLine
 10
7132.349524198797
 20
4518.171104371886
 30
0.0
 11
4082.349524198784
 21
4518.171104371885
 31
0.0
  0
LINE
  5
19C28
330
747D
100
AcDbEntity
  8
細線
 48
50.0
100
AcDbLine
 10
7132.349524198797
 20
4610.371104371885
 30
0.0
 11
4082.349524198784
 21
4610.371104372256
 31
0.0
  0
LINE
  5
19C29
330
747D
100
AcDbEntity
  8
部品1
 48
50.0
100
AcDbLine
 10
7132.349524198795
 20
4638.397861808416
 30
0.0
 11
4082.349524198784
 21
4638.397861808417
 31
0.0
  0
LINE
  5
19C2A
330
747D
100
AcDbEntity
  8
部品1
100
AcDbLine
 10
4092.349524198783
 20
4403.397861808414
 30
0.0
 11
7142.349524198796
 21
4403.397861808414
 31
0.0
  0
LINE
  5
19C2B
330
747D
100
AcDbEntity
  8
部品1
100
AcDbLine
 10
4195.349524198773
 20
4238.397861808414
 30
0.0
 11
4195.349524198773
 21
2313.397861808415
 31
0.0
  0
LINE
  5
19C2C
330
747D
100
AcDbEntity
  8
部品1
100
AcDbLine
 10
3989.349524198773
 20
4238.397861808415
 30
0.0
 11
3989.34952419877
 21
2313.397861808415
 31
0.0
  0
LINE
  5
19C61
330
747D
100
AcDbEntity
  8
部品1
 48
50.0
100
AcDbLine
 10
4082.349524198784
 20
4497.397861808419
 30
0.0
 11
4082.349524198784
 21
4638.397861808417
 31
0.0
  0
LINE
  5
19C62
330
747D
100
AcDbEntity
  8
部品1
 48
50.0
100
AcDbLine
 10
4092.349524198783
 20
4238.397861808414
 30
0.0
 11
4092.349524198783
 21
4497.397861808419
 31
0.0
  0
LINE
  5
19C79
330
747D
100
AcDbEntity
  8
部品1
100
AcDbLine
 10
7039.349524198773
 20
4238.397861808415
 30
0.0
 11
7039.349524198769
 21
2313.397861808415
 31
0.0
  0
LINE
  5
19C7A
330
747D
100
AcDbEntity
  8
部品1
100
AcDbLine
 10
7245.349524198771
 20
4238.397861808414
 30
0.0
 11
7245.349524198771
 21
2313.397861808415
 31
0.0
  0
LINE
  5
19CA9
330
747D
100
AcDbEntity
  8
部品1
 48
50.0
100
AcDbLine
 10
7132.349524198797
 20
4497.397861808419
 30
0.0
 11
7132.349524198797
 21
4638.397861808417
 31
0.0
  0
LINE
  5
19CAA
330
747D
100
AcDbEntity
  8
部品1
 48
50.0
100
AcDbLine
 10
7142.349524198796
 20
4238.397861808413
 30
0.0
 11
7142.349524198796
 21
4497.397861808419
 31
0.0
  0
LWPOLYLINE
  5
19DAF
330
747D
100
AcDbEntity
  8
部品1
100
AcDbPolyline
 90
        4
 70
     1
 43
0.0
 10
13420.77144725461
 20
1613.397861808415
 10
13420.77144725461
 20
1373.505540262882
 10
14184.24211348305
 20
1373.505540262882
 10
14184.24211348305
 20
1613.397861808415
  0
LINE
  5
19DB0
330
747D
100
AcDbEntity
  8
部品1
100
AcDbLine
 10
12332.50678036884
 20
2263.397861808415
 30
0.0
 11
15327.50678036883
 21
2263.397861808415
 31
0.0
  0
DIMENSION
  5
19DB1
330
747D
100
AcDbEntity
  8
寸法
 48
50.0
100
AcDbDimension
  2
*D30
 10
12217.50678036883
 20
5267.168908173997
 30
0.0
 11
13812.50678036883
 21
5267.168908173997
 31
0.0
 70
   160
 71
     5
 42
3189.999999999996
  3
INABA_S40G
100
AcDbAlignedDimension
 13
15407.50678036883
 23
4583.397861808417
 33
0.0
 14
12217.50678036883
 24
4638.397861808419
 34
0.0
100
AcDbRotatedDimension
1001
ACAD
1000
DSTYLE
1002
{
1070
   174
1070
     0
1070
   272
1070
     1
1070
   288
1070
     0
1070
   341
1005
0
1002
}
  0
DIMENSION
  5
19DB2
330
747D
100
AcDbEntity
  8
寸法
 48
50.0
100
AcDbDimension
  2
*D31
 10
12277.50678036883
 20
5037.055315387721
 30
0.0
 11
13802.50678036883
 21
5037.055315387721
 31
0.0
 70
   160
  1
柱外寸法<>
 71
     5
 42
3049.999999999997
  3
INABA_S40G
100
AcDbAlignedDimension
 13
15327.50678036883
 23
4585.20854142007
 33
0.0
 14
12277.50678036883
 24
4634.399479931391
 34
0.0
100
AcDbRotatedDimension
1001
ACAD
1000
DSTYLE
1002
{
1070
   174
1070
     0
1070
   272
1070
     1
1070
   288
1070
     0
1070
   341
1005
0
1002
}
  0
LINE
  5
19DB3
330
747D
100
AcDbEntity
  8
部品1
100
AcDbLine
 10
12332.50678036884
 20
2313.397861808415
 30
0.0
 11
15327.50678036883
 21
2313.397861808417
 31
0.0
  0
LINE
  5
19DB4
330
747D
100
AcDbEntity
  8
部品1
100
AcDbLine
 10
12277.50678036883
 20
4403.397861808414
 30
0.0
 11
15327.50678036883
 21
4403.397861808414
 31
0.0
  0
LINE
  5
19DB5
330
747D
100
AcDbEntity
  8
部品1
100
AcDbLine
 10
12225.05176672579
 20
4637.115597142681
 30
0.0
 11
15400.1186572303
 21
4582.038659517554
 31
0.0
  0
LINE
  5
19DB6
330
747D
100
AcDbEntity
  8
部品1
100
AcDbLine
 10
12232.84934497078
 20
4496.178886877382
 30
0.0
 11
15382.17048090868
 21
4457.150461643176
 31
0.0
  0
LINE
  5
19DB7
330
747D
100
AcDbEntity
  8
細線
 48
50.0
100
AcDbLine
 10
12218.54620346964
 20
4609.414943649777
 30
0.0
 11
15404.18218821482
 21
4553.790739008948
 31
0.0
  0
LINE
  5
19DB8
330
747D
100
AcDbEntity
  8
細線
 48
50.0
100
AcDbLine
 10
12223.30667870693
 20
4516.553431951913
 30
0.0
 11
15393.31034313758
 21
4476.74411297742
 31
0.0
  0
DIMENSION
  5
19DC0
330
747D
100
AcDbEntity
  8
寸法
100
AcDbDimension
  2
*D32
 10
11433.75665118557
 20
2263.397861808415
 30
0.0
 11
11433.75665118557
 21
1957.350617713925
 31
0.0
 70
   160
 71
     5
 42
50.0
  3
INABA_S40G
100
AcDbAlignedDimension
 13
12277.50678036883
 23
2313.397861808415
 33
0.0
 14
12222.50678036883
 24
2263.397861808415
 34
0.0
 50
90.0
100
AcDbRotatedDimension
1001
ACAD
1000
DSTYLE
1002
{
1070
   174
1070
     0
1070
   272
1070
     1
1070
   288
1070
     0
1070
   341
1005
0
1002
}
  0
LINE
  5
19DC2
330
747D
100
AcDbEntity
  8
部品1
100
AcDbLine
 10
12277.50678036883
 20
4495.540299737292
 30
0.0
 11
12277.50678036883
 21
2163.397861808415
 31
0.0
  0
LINE
  5
19DC3
330
747D
100
AcDbEntity
  8
部品1
100
AcDbLine
 10
12332.50678036883
 20
4403.397861808414
 30
0.0
 11
12332.50678036884
 21
2163.397861808415
 31
0.0
  0
LINE
  5
19DC4
330
747D
100
AcDbEntity
  8
部品1
100
AcDbLine
 10
10137.34952419877
 20
4238.397861808413
 30
0.0
 11
10137.34952419877
 21
2163.397861808415
 31
0.0
  0
LINE
  5
19DC5
330
747D
100
AcDbEntity
  8
部品1
100
AcDbLine
 10
10192.34952419877
 20
4497.397861808419
 30
0.0
 11
10192.34952419877
 21
2163.397861808415
 31
0.0
  0
LINE
  5
19DC9
330
747D
100
AcDbEntity
  8
破線
 48
5.0
100
AcDbLine
 10
10192.34952419877
 20
2163.397861808415
 30
0.0
 11
10192.34952419877
 21
1913.397861808414
 31
0.0
  0
LINE
  5
19DCA
330
747D
100
AcDbEntity
  8
破線
 48
5.0
100
AcDbLine
 10
10137.34952419877
 20
2163.397861808415
 30
0.0
 11
10137.34952419877
 21
1913.397861808414
 31
0.0
  0
LINE
  5
19DCB
330
747D
100
AcDbEntity
  8
破線
 48
5.0
100
AcDbLine
 10
10192.34952419877
 20
1913.397861808414
 30
0.0
 11
10137.34952419877
 21
1913.397861808414
 31
0.0
  0
LINE
  5
19DD2
330
747D
100
AcDbEntity
  8
破線
 48
5.0
100
AcDbLine
 10
12277.50678036883
 20
2163.397861808415
 30
0.0
 11
12277.50678036883
 21
1913.397861808414
 31
0.0
  0
LINE
  5
19DD3
330
747D
100
AcDbEntity
  8
破線
 48
5.0
100
AcDbLine
 10
12332.50678036883
 20
2163.397861808415
 30
0.0
 11
12332.50678036883
 21
1913.397861808414
 31
0.0
  0
LINE
  5
19DD4
330
747D
100
AcDbEntity
  8
破線
 48
5.0
100
AcDbLine
 10
12277.50678036883
 20
1913.397861808414
 30
0.0
 11
12332.50678036883
 21
1913.397861808414
 31
0.0
  0
LINE
  5
19DD5
330
747D
100
AcDbEntity
  8
部品1
100
AcDbLine
 10
10089.34952419877
 20
4238.397861808415
 30
0.0
 11
10089.34952419876
 21
2313.397861808415
 31
0.0
  0
LINE
  5
19DD7
330
747D
100
AcDbEntity
  8
細線
 48
50.0
100
AcDbLine
 10
8867.34952419877
 20
2890.897861808415
 30
0.0
 11
8967.34952419877
 21
2890.897861808415
 31
0.0
  0
LINE
  5
19DD8
330
747D
100
AcDbEntity
  8
細線
 48
50.0
100
AcDbLine
 10
8967.34952419877
 20
2860.897861808415
 30
0.0
 11
8867.34952419877
 21
2860.897861808415
 31
0.0
  0
LINE
  5
19DD9
330
747D
100
AcDbEntity
  8
細線
 48
50.0
100
AcDbLine
 10
8467.34952419877
 20
2860.897861808415
 30
0.0
 11
8367.34952419877
 21
2860.897861808415
 31
0.0
  0
LINE
  5
19DDA
330
747D
100
AcDbEntity
  8
細線
 48
50.0
100
AcDbLine
 10
8367.34952419877
 20
2890.897861808415
 30
0.0
 11
8467.34952419877
 21
2890.897861808415
 31
0.0
  0
ARC
  5
19DDB
330
747D
100
AcDbEntity
  8
細線
 48
50.0
100
AcDbCircle
 10
8367.34952419877
 20
2875.897861808415
 30
0.0
 40
15.0
100
AcDbArc
 50
90.0
 51
270.0
  0
ARC
  5
19DDC
330
747D
100
AcDbEntity
  8
細線
 48
50.0
100
AcDbCircle
 10
8467.34952419877
 20
2875.897861808415
 30
0.0
 40
15.0
100
AcDbArc
 50
270.0
 51
90.0
  0
ARC
  5
19DDD
330
747D
100
AcDbEntity
  8
細線
 48
50.0
100
AcDbCircle
 10
8867.34952419877
 20
2875.897861808415
 30
0.0
 40
15.0
100
AcDbArc
 50
90.0
 51
270.0
  0
ARC
  5
19DDE
330
747D
100
AcDbEntity
  8
細線
 48
50.0
100
AcDbCircle
 10
8967.34952419877
 20
2875.897861808415
 30
0.0
 40
15.0
100
AcDbArc
 50
270.0
 51
90.0
  0
CIRCLE
  5
19DDF
330
747D
100
AcDbEntity
  8
細線
 48
50.0
100
AcDbCircle
 10
8667.349524198769
 20
3200.897861808415
 30
0.0
 40
18.0
  0
DIMENSION
  5
19DF8
330
747D
100
AcDbEntity
  8
寸法
 48
50.0
100
AcDbDimension
  2
*D33
 10
10192.3495241988
 20
4850.939447066659
 30
0.0
 11
10555.83480557304
 21
4850.939447066659
 31
0.0
 70
   160
 71
     5
 42
50.0
  3
INABA_S40G
100
AcDbAlignedDimension
 13
10242.3495241988
 23
4638.397861808417
 33
0.0
 14
10192.3495241988
 24
4638.397861808419
 34
0.0
100
AcDbRotatedDimension
  0
LINE
  5
19DF9
330
747D
100
AcDbEntity
  8
部品1
100
AcDbLine
 10
10237.59547605439
 20
4607.56780126352
 30
0.0
 11
10232.56043532628
 21
4518.825208430578
 31
0.0
  0
ARC
  5
19DFA
330
747D
100
AcDbEntity
  8
部品1
 48
50.0
100
AcDbCircle
 10
10240.59065895058
 20
4607.397861808419
 30
0.0
 40
3.0
100
AcDbArc
 50
97.65812720736519
 51
176.7526572096623
  0
ARC
  5
19DFB
330
747D
100
AcDbEntity
  8
部品1
100
AcDbCircle
 10
10234.94110309237
 20
4631.397861808418
 30
0.0
 40
7.0
100
AcDbArc
 50
356.7526572096623
 51
90.0
  0
LINE
  5
19DFC
330
747D
100
AcDbEntity
  8
細線
 48
50.0
100
AcDbLine
 10
10209.3495241988
 20
4638.397861808417
 30
0.0
 11
10209.3495241988
 21
4497.397861808417
 31
0.0
  0
LINE
  5
19DFD
330
747D
100
AcDbEntity
  8
部品1
100
AcDbLine
 10
10229.35944552955
 20
4515.36780126352
 30
0.0
 11
10228.71453972244
 21
4504.00133641318
 31
0.0
  0
ARC
  5
19DFE
330
747D
100
AcDbEntity
  8
部品1
 48
50.0
100
AcDbCircle
 10
10232.35462842573
 20
4515.197861808416
 30
0.0
 40
3.0
100
AcDbArc
 50
97.65812720736519
 51
176.7526572096623
  0
ARC
  5
19DFF
330
747D
100
AcDbEntity
  8
部品1
 48
50.0
100
AcDbCircle
 10
10231.86155931717
 20
4518.8648609701
 30
0.0
 40
0.7
100
AcDbArc
 50
277.6581272073652
 51
356.7526572096883
  0
ARC
  5
19E00
330
747D
100
AcDbEntity
  8
部品1
100
AcDbCircle
 10
10221.72577963134
 20
4504.39786180842
 30
0.0
 40
7.0
100
AcDbArc
 50
270.0
 51
356.7526572096623
  0
LINE
  5
19E01
330
747D
100
AcDbEntity
  8
部品1
100
AcDbLine
 10
10241.92986318347
 20
4631.001336413178
 30
0.0
 11
10240.79646585112
 21
4611.025208430578
 31
0.0
  0
ARC
  5
19E02
330
747D
100
AcDbEntity
  8
部品1
 48
50.0
100
AcDbCircle
 10
10240.09758984202
 20
4611.064860970105
 30
0.0
 40
0.7
100
AcDbArc
 50
277.6581272073652
 51
356.7526572096103
  0
LINE
  5
19E03
330
747D
100
AcDbEntity
  8
細線
 48
50.0
100
AcDbLine
 10
13250.00678036883
 20
4403.397861808414
 30
0.0
 11
13250.00678036883
 21
2313.397861808415
 31
0.0
  0
LINE
  5
19E04
330
747D
100
AcDbEntity
  8
細線
 48
50.0
100
AcDbLine
 10
13235.00678036883
 20
4403.397861808414
 30
0.0
 11
13235.00678036883
 21
2313.397861808415
 31
0.0
  0
LINE
  5
19E05
330
747D
100
AcDbEntity
  8
細線
 48
50.0
100
AcDbLine
 10
13375.00678036883
 20
4403.397861808414
 30
0.0
 11
13375.00678036883
 21
2313.397861808415
 31
0.0
  0
LINE
  5
19E06
330
747D
100
AcDbEntity
  8
細線
 48
50.0
100
AcDbLine
 10
13390.00678036883
 20
4403.397861808414
 30
0.0
 11
13390.00678036883
 21
2313.397861808415
 31
0.0
  0
LINE
  5
19E07
330
747D
100
AcDbEntity
  8
細線
 48
50.0
100
AcDbLine
 10
13515.00678036883
 20
4403.397861808414
 30
0.0
 11
13515.00678036883
 21
2313.397861808415
 31
0.0
  0
LINE
  5
19E08
330
747D
100
AcDbEntity
  8
部品1
100
AcDbLine
 10
13172.50678036883
 20
4403.397861808414
 30
0.0
 11
13172.50678036883
 21
2313.397861808415
 31
0.0
  0
LINE
  5
19E09
330
747D
100
AcDbEntity
  8
細線
 48
50.0
100
AcDbLine
 10
12410.00678036883
 20
4403.397861808414
 30
0.0
 11
12410.00678036883
 21
2313.397861808415
 31
0.0
  0
LINE
  5
19E0A
330
747D
100
AcDbEntity
  8
細線
 48
50.0
100
AcDbLine
 10
12395.00678036883
 20
4403.397861808414
 30
0.0
 11
12395.00678036883
 21
2313.397861808415
 31
0.0
  0
LINE
  5
19E0B
330
747D
100
AcDbEntity
  8
細線
 48
50.0
100
AcDbLine
 10
12535.00678036883
 20
4403.397861808414
 30
0.0
 11
12535.00678036883
 21
2313.397861808415
 31
0.0
  0
LINE
  5
19E0C
330
747D
100
AcDbEntity
  8
細線
 48
50.0
100
AcDbLine
 10
12550.00678036883
 20
4403.397861808414
 30
0.0
 11
12550.00678036883
 21
2313.397861808415
 31
0.0
  0
LINE
  5
19E0D
330
747D
100
AcDbEntity
  8
細線
 48
50.0
100
AcDbLine
 10
12690.00678036883
 20
4403.397861808414
 30
0.0
 11
12690.00678036883
 21
2313.397861808415
 31
0.0
  0
LINE
  5
19E0E
330
747D
100
AcDbEntity
  8
細線
 48
50.0
100
AcDbLine
 10
12675.00678036883
 20
4403.397861808414
 30
0.0
 11
12675.00678036883
 21
2313.397861808415
 31
0.0
  0
LINE
  5
19E0F
330
747D
100
AcDbEntity
  8
細線
 48
50.0
100
AcDbLine
 10
13095.00678036883
 20
4403.397861808414
 30
0.0
 11
13095.00678036883
 21
2313.397861808415
 31
0.0
  0
LINE
  5
19E10
330
747D
100
AcDbEntity
  8
細線
 48
50.0
100
AcDbLine
 10
13110.00678036883
 20
4403.397861808414
 30
0.0
 11
13110.00678036883
 21
2313.397861808415
 31
0.0
  0
LINE
  5
19E11
330
747D
100
AcDbEntity
  8
細線
 48
50.0
100
AcDbLine
 10
12970.00678036883
 20
4403.397861808414
 30
0.0
 11
12970.00678036883
 21
2313.397861808415
 31
0.0
  0
LINE
  5
19E12
330
747D
100
AcDbEntity
  8
細線
 48
50.0
100
AcDbLine
 10
12955.00678036883
 20
4403.397861808414
 30
0.0
 11
12955.00678036883
 21
2313.397861808415
 31
0.0
  0
LINE
  5
19E13
330
747D
100
AcDbEntity
  8
細線
 48
50.0
100
AcDbLine
 10
12815.00678036883
 20
4403.397861808414
 30
0.0
 11
12815.00678036883
 21
2313.397861808415
 31
0.0
  0
LINE
  5
19E14
330
747D
100
AcDbEntity
  8
細線
 48
50.0
100
AcDbLine
 10
12830.00678036883
 20
4403.397861808414
 30
0.0
 11
12830.00678036883
 21
2313.397861808415
 31
0.0
  0
LINE
  5
19E15
330
747D
100
AcDbEntity
  8
部品1
100
AcDbLine
 10
12752.50678036883
 20
4403.397861808414
 30
0.0
 11
12752.50678036883
 21
2313.397861808415
 31
0.0
  0
DIMENSION
  5
19E16
330
747D
100
AcDbEntity
  8
寸法
100
AcDbDimension
  2
*D34
 10
11133.75665118557
 20
4638.397861808415
 30
0.0
 11
11033.74484016195
 21
3450.897861808415
 31
0.0
 70
    32
 71
     5
 42
2375.000000000005
  3
INABA_S40G
100
AcDbAlignedDimension
 13
12277.50678036883
 23
2263.39786180841
 33
0.0
 14
12217.50678036883
 24
4638.397861808415
 34
0.0
 50
90.0
100
AcDbRotatedDimension
1001
ACAD
1000
DSTYLE
1002
{
1070
   174
1070
     0
1070
   272
1070
     1
1070
   288
1070
     0
1070
   341
1005
0
1002
}
  0
DIMENSION
  5
19E17
330
747D
100
AcDbEntity
  8
寸法
100
AcDbDimension
  2
*D35
 10
11433.75665118557
 20
2313.397861808411
 30
0.0
 11
11333.74484016195
 21
3358.397861808413
 31
0.0
 70
    32
 71
     5
 42
2090.000000000001
  3
INABA_S40G
100
AcDbAlignedDimension
 13
12277.50678036883
 23
4403.397861808411
 33
0.0
 14
12277.50678036883
 24
2313.397861808411
 34
0.0
 50
90.0
100
AcDbRotatedDimension
1001
ACAD
1000
DSTYLE
1002
{
1070
   174
1070
     0
1070
   272
1070
     1
1070
   288
1070
     0
1070
   341
1005
0
1002
}
  0
DIMENSION
  5
19E18
330
747D
100
AcDbEntity
  8
寸法
 48
50.0
100
AcDbDimension
  2
*D36
 10
11656.89837360043
 20
4512.743120681747
 30
0.0
 11
11667.56384885935
 21
4883.589783923446
 31
0.0
 70
   161
 71
     5
 42
141.0
  3
INABA_S40G
100
AcDbAlignedDimension
 13
12236.90280052741
 23
4637.120610643094
 33
0.0
 14
12232.84934497078
 24
4496.178886877382
 34
0.0
1001
ACAD
1000
DSTYLE
1002
{
1070
   174
1070
     0
1070
   272
1070
     1
1070
   288
1070
     0
1070
   341
1005
0
1002
}
  0
DIMENSION
  5
19E19
330
747D
100
AcDbEntity
  8
寸法
 48
50.0
100
AcDbDimension
  2
*D37
 10
12217.50678036883
 20
5037.055315387719
 30
0.0
 11
11907.86898509324
 21
5037.055315387719
 31
0.0
 70
   160
 71
     5
 42
60.0
  3
INABA_S40G
100
AcDbAlignedDimension
 13
12277.50678036883
 23
4634.399479931391
 33
0.0
 14
12217.50678036883
 24
4638.397861808419
 34
0.0
100
AcDbRotatedDimension
1001
ACAD
1000
DSTYLE
1002
{
1070
   174
1070
     0
1070
   272
1070
     1
1070
   288
1070
     0
1070
   341
1005
0
1002
}
  0
LINE
  5
19E1A
330
747D
100
AcDbEntity
  8
細線
 48
50.0
100
AcDbLine
 10
12250.50678036883
 20
4635.797538183819
 30
0.0
 11
12245.21767881332
 21
4495.711905556465
 31
0.0
  0
LINE
  5
19E1B
330
747D
100
AcDbEntity
  8
部品1
 48
50.0
100
AcDbLine
 10
12221.14009816599
 20
4606.489162033224
 30
0.0
 11
12222.84399965736
 21
4517.198665326577
 31
0.0
  0
LINE
  5
19E1C
330
747D
100
AcDbEntity
  8
部品1
 48
50.0
100
AcDbLine
 10
12225.9127717636
 20
4513.623383833104
 30
0.0
 11
12226.11472438403
 21
4503.040348440012
 31
0.0
  0
ARC
  5
19E1D
330
747D
100
AcDbEntity
  8
部品1
 48
50.0
100
AcDbCircle
 10
12233.11345021237
 20
4503.17390284744
 30
0.0
 40
7.0
100
AcDbArc
 50
181.0932240293156
 51
267.8377559869492
  0
ARC
  5
19E1E
330
747D
100
AcDbEntity
  8
部品1
100
AcDbCircle
 10
12222.91331783717
 20
4513.566146229921
 30
0.0
 40
3.0
100
AcDbArc
 50
1.093224029315636
 51
80.18775403169875
  0
ARC
  5
19E1F
330
747D
100
AcDbEntity
  8
部品1
100
AcDbCircle
 10
12223.5438722402
 20
4517.212020767319
 30
0.0
 40
0.7
100
AcDbArc
 50
181.0932240292635
 51
260.1877540314845
  0
LINE
  5
19E20
330
747D
100
AcDbEntity
  8
部品1
 48
50.0
100
AcDbLine
 10
12217.69106628194
 20
4629.991407973108
 30
0.0
 11
12218.07132605975
 21
4610.064443526695
 31
0.0
  0
ARC
  5
19E21
330
747D
100
AcDbEntity
  8
部品1
 48
50.0
100
AcDbCircle
 10
12224.68979211028
 20
4630.124962380535
 30
0.0
 40
7.0
100
AcDbArc
 50
87.03587545283093
 51
181.0932240293156
  0
ARC
  5
19E22
330
747D
100
AcDbEntity
  8
部品1
100
AcDbCircle
 10
12218.14064423957
 20
4606.43192443004
 30
0.0
 40
3.0
100
AcDbArc
 50
1.093224029315636
 51
80.18775403169875
  0
ARC
  5
19E23
330
747D
100
AcDbEntity
  8
部品1
100
AcDbCircle
 10
12218.77119864259
 20
4610.077798967437
 30
0.0
 40
0.7
100
AcDbArc
 50
181.0932240292114
 51
260.1877540314845
  0
LINE
  5
19E24
330
747D
100
AcDbEntity
  8
部品1
100
AcDbLine
 10
15327.50678036883
 20
4457.827889589536
 30
0.0
 11
15327.50678036883
 21
2163.397861808417
 31
0.0
  0
TEXT
  5
19E29
330
747D
100
AcDbEntity
  8
部品1
100
AcDbText
 10
13510.21754867822
 20
1420.504332589891
 30
0.0
 40
135.0
  1
側面図
  7
STYLE2
100
AcDbText
  0
LINE
  5
19E2B
330
747D
100
AcDbEntity
  8
部品1
100
AcDbLine
 10
14852.50678036881
 20
4403.397861808417
 30
0.0
 11
14852.50678036881
 21
2313.397861808418
 31
0.0
  0
LINE
  5
19E2C
330
747D
100
AcDbEntity
  8
細線
 48
50.0
100
AcDbLine
 10
14775.00678036883
 20
4403.397861808414
 30
0.0
 11
14775.00678036883
 21
2313.397861808417
 31
0.0
  0
LINE
  5
19E2D
330
747D
100
AcDbEntity
  8
細線
 48
50.0
100
AcDbLine
 10
14790.00678036883
 20
4403.397861808414
 30
0.0
 11
14790.00678036883
 21
2313.397861808417
 31
0.0
  0
LINE
  5
19E2E
330
747D
100
AcDbEntity
  8
細線
 48
50.0
100
AcDbLine
 10
14650.00678036883
 20
4403.397861808414
 30
0.0
 11
14650.00678036883
 21
2313.397861808417
 31
0.0
  0
LINE
  5
19E2F
330
747D
100
AcDbEntity
  8
細線
 48
50.0
100
AcDbLine
 10
14635.00678036883
 20
4403.397861808414
 30
0.0
 11
14635.00678036883
 21
2313.397861808417
 31
0.0
  0
LINE
  5
19E30
330
747D
100
AcDbEntity
  8
細線
 48
50.0
100
AcDbLine
 10
14495.00678036883
 20
4403.397861808414
 30
0.0
 11
14495.00678036883
 21
2313.397861808417
 31
0.0
  0
LINE
  5
19E31
330
747D
100
AcDbEntity
  8
細線
 48
50.0
100
AcDbLine
 10
14510.00678036883
 20
4403.397861808414
 30
0.0
 11
14510.00678036883
 21
2313.397861808417
 31
0.0
  0
LINE
  5
19E32
330
747D
100
AcDbEntity
  8
部品1
100
AcDbLine
 10
14432.50678036882
 20
4403.397861808414
 30
0.0
 11
14432.50678036882
 21
2313.397861808417
 31
0.0
  0
LINE
  5
19E33
330
747D
100
AcDbEntity
  8
細線
 48
50.0
100
AcDbLine
 10
15195.00678036883
 20
4403.397861808417
 30
0.0
 11
15195.00678036883
 21
2313.397861808417
 31
0.0
  0
LINE
  5
19E34
330
747D
100
AcDbEntity
  8
細線
 48
50.0
100
AcDbLine
 10
15210.00678036883
 20
4403.397861808417
 30
0.0
 11
15210.00678036883
 21
2313.397861808417
 31
0.0
  0
LINE
  5
19E35
330
747D
100
AcDbEntity
  8
細線
 48
50.0
100
AcDbLine
 10
15070.00678036883
 20
4403.397861808417
 30
0.0
 11
15070.00678036883
 21
2313.397861808417
 31
0.0
  0
LINE
  5
19E36
330
747D
100
AcDbEntity
  8
細線
 48
50.0
100
AcDbLine
 10
15055.00678036883
 20
4403.397861808417
 30
0.0
 11
15055.00678036883
 21
2313.397861808417
 31
0.0
  0
LINE
  5
19E37
330
747D
100
AcDbEntity
  8
細線
 48
50.0
100
AcDbLine
 10
14915.00678036883
 20
4403.397861808417
 30
0.0
 11
14915.00678036883
 21
2313.397861808417
 31
0.0
  0
LINE
  5
19E38
330
747D
100
AcDbEntity
  8
細線
 48
50.0
100
AcDbLine
 10
14930.00678036883
 20
4403.397861808417
 30
0.0
 11
14930.00678036883
 21
2313.397861808417
 31
0.0
  0
LINE
  5
19E39
330
747D
100
AcDbEntity
  8
部品1
100
AcDbLine
 10
13592.50678036883
 20
4403.397861808414
 30
0.0
 11
13592.50678036883
 21
2313.397861808415
 31
0.0
  0
LINE
  5
19E3A
330
747D
100
AcDbEntity
  8
細線
 48
50.0
100
AcDbLine
 10
13530.00678036883
 20
4403.397861808414
 30
0.0
 11
13530.00678036883
 21
2313.397861808415
 31
0.0
  0
LINE
  5
19E3B
330
747D
100
AcDbEntity
  8
部品1
100
AcDbLine
 10
15272.50678036883
 20
4403.397861808417
 30
0.0
 11
15272.50678036883
 21
2313.397861808417
 31
0.0
  0
LINE
  5
19E3C
330
747D
100
AcDbEntity
  8
部品1
100
AcDbLine
 10
15272.50678036883
 20
4403.397861808418
 30
0.0
 11
15272.50678036883
 21
2313.397861808418
 31
0.0
  0
LINE
  5
19E3D
330
747D
100
AcDbEntity
  8
細線
 48
50.0
100
AcDbLine
 10
13935.00678036883
 20
4403.397861808414
 30
0.0
 11
13935.00678036883
 21
2313.397861808415
 31
0.0
  0
LINE
  5
19E3E
330
747D
100
AcDbEntity
  8
細線
 48
50.0
100
AcDbLine
 10
13950.00678036883
 20
4403.397861808414
 30
0.0
 11
13950.00678036883
 21
2313.397861808415
 31
0.0
  0
LINE
  5
19E3F
330
747D
100
AcDbEntity
  8
細線
 48
50.0
100
AcDbLine
 10
13810.00678036883
 20
4403.397861808414
 30
0.0
 11
13810.00678036883
 21
2313.397861808415
 31
0.0
  0
LINE
  5
19E40
330
747D
100
AcDbEntity
  8
細線
 48
50.0
100
AcDbLine
 10
13795.00678036883
 20
4403.397861808414
 30
0.0
 11
13795.00678036883
 21
2313.397861808415
 31
0.0
  0
LINE
  5
19E41
330
747D
100
AcDbEntity
  8
細線
 48
50.0
100
AcDbLine
 10
13655.00678036883
 20
4403.397861808414
 30
0.0
 11
13655.00678036883
 21
2313.397861808415
 31
0.0
  0
LINE
  5
19E42
330
747D
100
AcDbEntity
  8
細線
 48
50.0
100
AcDbLine
 10
13670.00678036883
 20
4403.397861808414
 30
0.0
 11
13670.00678036883
 21
2313.397861808415
 31
0.0
  0
LINE
  5
19E43
330
747D
100
AcDbEntity
  8
部品1
100
AcDbLine
 10
14012.50678036883
 20
4403.397861808414
 30
0.0
 11
14012.50678036883
 21
2313.397861808417
 31
0.0
  0
LINE
  5
19E44
330
747D
100
AcDbEntity
  8
細線
 48
50.0
100
AcDbLine
 10
14090.00678036883
 20
4403.397861808414
 30
0.0
 11
14090.00678036883
 21
2313.397861808417
 31
0.0
  0
LINE
  5
19E45
330
747D
100
AcDbEntity
  8
細線
 48
50.0
100
AcDbLine
 10
14075.00678036883
 20
4403.397861808414
 30
0.0
 11
14075.00678036883
 21
2313.397861808417
 31
0.0
  0
LINE
  5
19E46
330
747D
100
AcDbEntity
  8
細線
 48
50.0
100
AcDbLine
 10
14215.00678036883
 20
4403.397861808414
 30
0.0
 11
14215.00678036883
 21
2313.397861808417
 31
0.0
  0
LINE
  5
19E47
330
747D
100
AcDbEntity
  8
細線
 48
50.0
100
AcDbLine
 10
14230.00678036883
 20
4403.397861808414
 30
0.0
 11
14230.00678036883
 21
2313.397861808417
 31
0.0
  0
LINE
  5
19E48
330
747D
100
AcDbEntity
  8
細線
 48
50.0
100
AcDbLine
 10
14370.00678036883
 20
4403.397861808414
 30
0.0
 11
14370.00678036883
 21
2313.397861808417
 31
0.0
  0
LINE
  5
19E49
330
747D
100
AcDbEntity
  8
細線
 48
50.0
100
AcDbLine
 10
14355.00678036883
 20
4403.397861808414
 30
0.0
 11
14355.00678036883
 21
2313.397861808417
 31
0.0
  0
DIMENSION
  5
19E4A
330
747D
100
AcDbEntity
  8
寸法
100
AcDbDimension
  2
*D38
 10
15773.90212245725
 20
4583.397861808417
 30
0.0
 11
15773.90212245725
 21
3407.888647147301
 31
0.0
 70
   160
 71
     5
 42
2320.000000000001
  3
INABA_S40G
100
AcDbAlignedDimension
 13
15327.50678036883
 23
2263.397861808417
 33
0.0
 14
15407.50678036883
 24
4583.397861808417
 34
0.0
 50
90.0
100
AcDbRotatedDimension
1001
ACAD
1000
DSTYLE
1002
{
1070
   174
1070
     0
1070
   272
1070
     1
1070
   288
1070
     0
1070
   341
1005
0
1002
}
  0
TEXT
  5
19E4B
330
747D
100
AcDbEntity
  8
部品1
 48
50.0
100
AcDbText
 10
13669.74290175911
 20
4798.168212965004
 30
0.0
 40
120.0
  1
1000
  7
STYLE1
100
AcDbText
  0
LINE
  5
19E4C
330
747D
100
AcDbEntity
  8
部品1
 48
50.0
100
AcDbLine
 10
13681.47506653538
 20
4762.28419081257
 30
0.0
 11
13981.47506653538
 21
4762.28419081257
 31
0.0
  0
LINE
  5
19E4D
330
747D
100
AcDbEntity
  8
部品1
100
AcDbLine
 10
13656.02005289235
 20
4763.602249771433
 30
0.0
 11
13981.47506653538
 21
4746.084190812573
 31
0.0
  0
TEXT
  5
19E4E
330
747D
100
AcDbEntity
  8
部品1
 48
50.0
100
AcDbText
 10
14147.3759244242
 20
4660.666954746721
 30
0.0
 40
120.0
  1
32
 50
90.0
  7
STYLE1
100
AcDbText
  0
LINE
  5
19E4F
330
747D
100
AcDbEntity
  8
部品1
 48
50.0
100
AcDbLine
 10
13981.47506653538
 20
4762.28419081257
 30
0.0
 11
13981.47506653538
 21
4746.084190812573
 31
0.0
  0
DIMENSION
  5
19E50
330
747D
100
AcDbEntity
  8
寸法
 48
50.0
100
AcDbDimension
  2
*D39
 10
15407.50678036883
 20
5037.055315387721
 30
0.0
 11
15613.55402446332
 21
5037.055315387721
 31
0.0
 70
   160
 71
     5
 42
80.0
  3
INABA_S40G
100
AcDbAlignedDimension
 13
15327.50678036883
 23
4585.20854142007
 33
0.0
 14
15407.50678036883
 24
4583.397861808418
 34
0.0
100
AcDbRotatedDimension
1001
ACAD
1000
DSTYLE
1002
{
1070
   174
1070
     0
1070
   272
1070
     1
1070
   288
1070
     0
1070
   341
1005
0
1002
}
  0
LINE
  5
19E51
330
747D
100
AcDbEntity
  8
細線
 48
50.0
100
AcDbLine
 10
15374.47606356252
 20
4582.551284287884
 30
0.0
 11
15369.75909748084
 21
4457.619068352967
 31
0.0
  0
LINE
  5
19E52
330
747D
100
AcDbEntity
  8
部品1
 48
50.0
100
AcDbLine
 10
15401.33749550408
 20
4551.083338751945
 30
0.0
 11
15393.83071623924
 21
4477.350718006933
 31
0.0
  0
LINE
  5
19E53
330
747D
100
AcDbEntity
  8
部品1
 48
50.0
100
AcDbLine
 10
15390.47814975476
 20
4474.040083934021
 30
0.0
 11
15389.39858671502
 21
4463.436466940462
 31
0.0
  0
ARC
  5
19E54
330
747D
100
AcDbEntity
  8
部品1
 48
50.0
100
AcDbCircle
 10
15382.43458615026
 20
4464.145477613236
 30
0.0
 40
7.0
100
AcDbArc
 50
267.8377559869492
 51
354.1866997665532
  0
ARC
  5
19E55
330
747D
100
AcDbEntity
  8
部品1
100
AcDbCircle
 10
15393.46272142537
 20
4473.736222217118
 30
0.0
 40
3.0
100
AcDbArc
 50
95.0921697642102
 51
174.1866997665532
  0
ARC
  5
19E56
330
747D
100
AcDbEntity
  8
部品1
100
AcDbCircle
 10
15393.13431618277
 20
4477.421619074208
 30
0.0
 40
0.7
100
AcDbArc
 50
275.0921697642102
 51
354.1866997667087
  0
LINE
  5
19E57
330
747D
100
AcDbEntity
  8
部品1
 48
50.0
100
AcDbLine
 10
15406.72068317953
 20
4574.339014082634
 30
0.0
 11
15404.69006198857
 21
4554.393972824854
 31
0.0
  0
ARC
  5
19E58
330
747D
100
AcDbEntity
  8
部品1
 48
50.0
100
AcDbCircle
 10
15399.75668261478
 20
4575.048024755409
 30
0.0
 40
7.0
100
AcDbArc
 50
354.1866997665532
 51
87.03587545283093
  0
ARC
  5
19E59
330
747D
100
AcDbEntity
  8
部品1
100
AcDbCircle
 10
15404.3220671747
 20
4550.779477035042
 30
0.0
 40
3.0
100
AcDbArc
 50
95.0921697642102
 51
174.1866997665532
  0
ARC
  5
19E5A
330
747D
100
AcDbEntity
  8
部品1
100
AcDbCircle
 10
15403.99366193209
 20
4554.464873892132
 30
0.0
 40
0.7
100
AcDbArc
 50
275.0921697642102
 51
354.1866997665532
  0
MTEXT
  5
1A8D7
330
747D
100
AcDbEntity
  8
寸法
 62
     7
 48
50.0
100
AcDbMText
 10
1825.064722271412
 20
9502.369956608154
 30
0.0
 40
96.0
 41
0.0
 71
     5
 72
     1
  1
棚 3段
  7
STYLE1
 73
     1
 44
1.0
1001
ACAD
1000
MTEXTBEGIN
1070
    73
1070
     1
1070
    44
1040
1.0
1070
    74
1070
     0
1000
MTEXTEND
  0
MTEXT
  5
1AAB7
330
747D
100
AcDbEntity
  8
寸法
 62
     7
 48
50.0
100
AcDbMText
 10
3335.064722271408
 20
9502.369956608154
 30
0.0
 40
96.0
 41
0.0
 71
     5
 72
     1
  1
棚 3段
  7
STYLE1
 73
     1
 44
1.0
1001
ACAD
1000
MTEXTBEGIN
1070
    73
1070
     1
1070
    44
1040
1.0
1070
    74
1070
     0
1000
MTEXTEND
  0
MTEXT
  5
1AAB8
330
747D
100
AcDbEntity
  8
寸法
 62
     7
 48
50.0
100
AcDbMText
 10
6385.064722271407
 20
9502.369956608154
 30
0.0
 40
96.0
 41
0.0
 71
     5
 72
     1
  1
棚 3段
  7
STYLE1
 73
     1
 44
1.0
1001
ACAD
1000
MTEXTBEGIN
1070
    73
1070
     1
1070
    44
1040
1.0
1070
    74
1070
     0
1000
MTEXTEND
  0
MTEXT
  5
1AAB9
330
747D
100
AcDbEntity
  8
寸法
 62
     7
 48
50.0
100
AcDbMText
 10
4875.064722271411
 20
9502.369956608154
 30
0.0
 40
96.0
 41
0.0
 71
     5
 72
     1
  1
棚 3段
  7
STYLE1
 73
     1
 44
1.0
1001
ACAD
1000
MTEXTBEGIN
1070
    73
1070
     1
1070
    44
1040
1.0
1070
    74
1070
     0
1000
MTEXTEND
  0
MTEXT
  5
1AABA
330
747D
100
AcDbEntity
  8
寸法
 62
     7
 48
50.0
100
AcDbMText
 10
9435.064722271407
 20
9502.369956608154
 30
0.0
 40
96.0
 41
0.0
 71
     5
 72
     1
  1
棚 3段
  7
STYLE1
 73
     1
 44
1.0
1001
ACAD
1000
MTEXTBEGIN
1070
    73
1070
     1
1070
    44
1040
1.0
1070
    74
1070
     0
1000
MTEXTEND
  0
MTEXT
  5
1AABB
330
747D
100
AcDbEntity
  8
寸法
 62
     7
 48
50.0
100
AcDbMText
 10
7925.064722271411
 20
9502.369956608154
 30
0.0
 40
96.0
 41
0.0
 71
     5
 72
     1
  1
棚 3段
  7
STYLE1
 73
     1
 44
1.0
1001
ACAD
1000
MTEXTBEGIN
1070
    73
1070
     1
1070
    44
1040
1.0
1070
    74
1070
     0
1000
MTEXTEND
  0
DIMENSION
  5
1AC7F
330
747D
100
AcDbEntity
  8
寸法
100
AcDbDimension
  2
*D40
 10
8561.825677937465
 20
9094.526017885749
 30
0.0
 11
7758.640827606789
 21
9094.526017885749
 31
0.0
 70
   160
 71
     5
 42
1483.000000000011
  3
INABA_S40G
100
AcDbAlignedDimension
 13
7170.849524198776
 23
9437.963687640921
 33
0.0
 14
8653.849524198788
 24
9437.963687640914
 34
0.0
100
AcDbRotatedDimension
1001
ACAD
1000
DSTYLE
1002
{
1002
}
  0
DIMENSION
  5
1AC82
330
747D
100
AcDbEntity
  8
寸法
100
AcDbDimension
  2
*D41
 10
10071.82567793746
 20
9094.52601788586
 30
0.0
 11
9205.287680115622
 21
9094.52601788586
 31
0.0
 70
   160
 71
     5
 42
1483.000000000011
  3
INABA_S40G
100
AcDbAlignedDimension
 13
8680.849524198777
 23
9437.963687641026
 33
0.0
 14
10163.84952419878
 24
9437.963687641019
 34
0.0
100
AcDbRotatedDimension
1001
ACAD
1000
DSTYLE
1002
{
1002
}
  0
LINE
  5
1AE75
330
747D
100
AcDbEntity
  8
補助
  6
PHANTOM
 62
   230
 48
50.0
100
AcDbLine
 10
140.0
 20
0.0
 30
0.0
 11
139.9999999999995
 21
11409.6
 31
0.0
  0
TEXT
  5
1AE93
330
747D
100
AcDbEntity
  8
文字
 62
     7
 48
50.0
100
AcDbText
 10
14367.434267901
 20
483.8967129911414
 30
0.0
 40
160.0
  1
FXN-95HYL-N
  7
STYLE2
100
AcDbText
  0
DIMENSION
  5
1AFD0
330
747D
100
AcDbEntity
  8
寸法
 48
50.0
100
AcDbDimension
  2
*D42
 10
10479.89262652051
 20
4211.397861808413
 30
0.0
 11
10379.89262652051
 21
3268.397861808416
 31
0.0
 70
    32
  1
有効開口部高サ <>
 71
     5
 42
1885.999999999998
  3
INABA_S40G
100
AcDbAlignedDimension
 13
10192.34952419877
 23
2325.397861808415
 33
0.0
 14
10192.34952419877
 24
4211.397861808413
 34
0.0
 50
90.0
100
AcDbRotatedDimension
  0
DIMENSION
  5
1AFD1
330
747D
100
AcDbEntity
  8
寸法
 48
50.0
100
AcDbDimension
  2
*D43
 10
10479.89262652051
 20
4238.397861808414
 30
0.0
 11
10620.06244976688
 21
4239.365061648073
 31
0.0
 70
   160
 71
     5
 42
27.00000000000182
  3
INABA_S40G
100
AcDbAlignedDimension
 13
10192.34952419877
 23
4211.397861808413
 33
0.0
 14
10192.34952419877
 24
4238.397861808415
 34
0.0
 50
90.0
100
AcDbRotatedDimension
1001
ACAD
1000
DSTYLE
1002
{
1070
   279
1070
     2
1002
}
  0
DIMENSION
  5
1AFD2
330
747D
100
AcDbEntity
  8
寸法
 48
50.0
100
AcDbDimension
  2
*D44
 10
10479.89262652052
 20
4403.397861808413
 30
0.0
 11
10479.89262652051
 21
4641.883143182655
 31
0.0
 70
   160
 71
     5
 42
164.9999999999991
  3
INABA_S40G
100
AcDbAlignedDimension
 13
10192.34952419877
 23
4238.397861808415
 33
0.0
 14
10192.34952419877
 24
4403.397861808414
 34
0.0
 50
90.0
100
AcDbRotatedDimension
1001
ACAD
1000
DSTYLE
1002
{
1002
}
  0
ARC
  5
1B21E
330
747D
100
AcDbEntity
  8
部品1
 48
0.01
100
AcDbCircle
 10
3094.349524198775
 20
4435.897861808412
 30
0.0
 40
2.0
100
AcDbArc
 50
180.0
 51
270.0
  0
ARC
  5
1B21F
330
747D
100
AcDbEntity
  8
部品1
 48
0.01
100
AcDbCircle
 10
3270.349524198775
 20
4435.897861808412
 30
0.0
 40
2.0
100
AcDbArc
 50
270.0
 51
0.0
  0
LINE
  5
1B220
330
747D
100
AcDbEntity
  8
部品1
 48
0.01
100
AcDbLine
 10
3270.349524198775
 20
4433.897861808413
 30
0.0
 11
3094.349524198775
 21
4433.897861808413
 31
0.0
  0
LINE
  5
1B221
330
747D
100
AcDbEntity
  8
部品1
 48
0.01
100
AcDbLine
 10
1864.349524198775
 20
4433.897861808413
 30
0.0
 11
2040.349524198771
 21
4433.897861808413
 31
0.0
  0
ARC
  5
1B222
330
747D
100
AcDbEntity
  8
部品1
 48
0.01
100
AcDbCircle
 10
1864.349524198775
 20
4435.897861808412
 30
0.0
 40
2.0
100
AcDbArc
 50
180.0
 51
270.0
  0
ARC
  5
1B223
330
747D
100
AcDbEntity
  8
部品1
 48
0.01
100
AcDbCircle
 10
2040.349524198771
 20
4435.897861808412
 30
0.0
 40
2.0
100
AcDbArc
 50
270.0
 51
0.0
  0
ARC
  5
1B224
330
747D
100
AcDbEntity
  8
部品1
 48
0.01
100
AcDbCircle
 10
3094.349524198775
 20
4467.397861808413
 30
0.0
 40
2.0
100
AcDbArc
 50
90.0
 51
180.0
  0
ARC
  5
1B225
330
747D
100
AcDbEntity
  8
部品1
 48
0.01
100
AcDbCircle
 10
3270.349524198775
 20
4467.397861808413
 30
0.0
 40
2.0
100
AcDbArc
 50
0.0
 51
90.0
  0
LINE
  5
1B226
330
747D
100
AcDbEntity
  8
細線
100
AcDbLine
 10
3182.349524198775
 20
4439.897861808413
 30
0.0
 11
3108.349524198775
 21
4439.897861808413
 31
0.0
  0
LINE
  5
1B227
330
747D
100
AcDbEntity
  8
細線
100
AcDbLine
 10
3182.349524198775
 20
4462.897861808413
 30
0.0
 11
3256.349524198775
 21
4462.897861808413
 31
0.0
  0
LINE
  5
1B228
330
747D
100
AcDbEntity
  8
細線
100
AcDbLine
 10
3256.349524198775
 20
4439.897861808413
 30
0.0
 11
3182.349524198775
 21
4439.897861808413
 31
0.0
  0
LINE
  5
1B229
330
747D
100
AcDbEntity
  8
細線
100
AcDbLine
 10
3108.349524198775
 20
4462.897861808413
 30
0.0
 11
3182.349524198775
 21
4462.897861808413
 31
0.0
  0
LINE
  5
1B22A
330
747D
100
AcDbEntity
  8
細線
100
AcDbLine
 10
3108.349524198775
 20
4439.897861808413
 30
0.0
 11
3108.349524198775
 21
4462.897861808413
 31
0.0
  0
LINE
  5
1B22B
330
747D
100
AcDbEntity
  8
細線
100
AcDbLine
 10
3256.349524198775
 20
4462.897861808413
 30
0.0
 11
3256.349524198775
 21
4439.897861808413
 31
0.0
  0
LINE
  5
1B22C
330
747D
100
AcDbEntity
  8
部品1
 48
0.01
100
AcDbLine
 10
3092.349524198775
 20
4435.897861808412
 30
0.0
 11
3092.349524198775
 21
4467.397861808413
 31
0.0
  0
LINE
  5
1B22D
330
747D
100
AcDbEntity
  8
部品1
 48
0.01
100
AcDbLine
 10
3272.349524198775
 20
4467.397861808413
 30
0.0
 11
3272.349524198775
 21
4435.897861808412
 31
0.0
  0
LINE
  5
1B22E
330
747D
100
AcDbEntity
  8
部品1
 48
0.01
100
AcDbLine
 10
3094.349524198775
 20
4469.397861808412
 30
0.0
 11
3270.349524198775
 21
4469.397861808412
 31
0.0
  0
LINE
  5
1B22F
330
747D
100
AcDbEntity
  8
細線
100
AcDbLine
 10
3256.349524198775
 20
4456.897861808413
 30
0.0
 11
3182.349524198775
 21
4456.897861808413
 31
0.0
  0
LINE
  5
1B230
330
747D
100
AcDbEntity
  8
細線
100
AcDbLine
 10
3256.349524198775
 20
4450.897861808413
 30
0.0
 11
3182.349524198775
 21
4450.897861808413
 31
0.0
  0
LINE
  5
1B231
330
747D
100
AcDbEntity
  8
細線
100
AcDbLine
 10
3256.349524198775
 20
4444.897861808413
 30
0.0
 11
3182.349524198775
 21
4444.897861808413
 31
0.0
  0
LINE
  5
1B232
330
747D
100
AcDbEntity
  8
細線
100
AcDbLine
 10
3256.349524198775
 20
4456.897861808413
 30
0.0
 11
3187.349524198775
 21
4456.897861808413
 31
0.0
  0
LINE
  5
1B233
330
747D
100
AcDbEntity
  8
細線
100
AcDbLine
 10
3108.349524198775
 20
4456.897861808413
 30
0.0
 11
3182.349524198775
 21
4456.897861808413
 31
0.0
  0
LINE
  5
1B234
330
747D
100
AcDbEntity
  8
細線
100
AcDbLine
 10
3108.349524198775
 20
4444.897861808413
 30
0.0
 11
3182.349524198775
 21
4444.897861808413
 31
0.0
  0
LINE
  5
1B235
330
747D
100
AcDbEntity
  8
細線
100
AcDbLine
 10
3108.349524198775
 20
4450.897861808413
 30
0.0
 11
3182.349524198775
 21
4450.897861808413
 31
0.0
  0
LINE
  5
1B236
330
747D
100
AcDbEntity
  8
細線
100
AcDbLine
 10
3182.349524198775
 20
4462.897861808413
 30
0.0
 11
3182.349524198775
 21
4439.897861808413
 31
0.0
  0
LINE
  5
1B237
330
747D
100
AcDbEntity
  8
細線
100
AcDbLine
 10
1952.349524198775
 20
4462.897861808413
 30
0.0
 11
1952.349524198771
 21
4439.897861808413
 31
0.0
  0
LINE
  5
1B238
330
747D
100
AcDbEntity
  8
細線
100
AcDbLine
 10
2026.349524198771
 20
4450.897861808413
 30
0.0
 11
1952.349524198775
 21
4450.897861808413
 31
0.0
  0
LINE
  5
1B239
330
747D
100
AcDbEntity
  8
細線
100
AcDbLine
 10
2026.349524198771
 20
4444.897861808413
 30
0.0
 11
1952.349524198775
 21
4444.897861808413
 31
0.0
  0
LINE
  5
1B23A
330
747D
100
AcDbEntity
  8
細線
100
AcDbLine
 10
2026.349524198771
 20
4456.897861808413
 30
0.0
 11
1952.349524198775
 21
4456.897861808413
 31
0.0
  0
LINE
  5
1B23B
330
747D
100
AcDbEntity
  8
細線
100
AcDbLine
 10
1878.349524198775
 20
4456.897861808413
 30
0.0
 11
1947.349524198775
 21
4456.897861808413
 31
0.0
  0
LINE
  5
1B23C
330
747D
100
AcDbEntity
  8
細線
100
AcDbLine
 10
1878.349524198771
 20
4444.897861808413
 30
0.0
 11
1952.349524198775
 21
4444.897861808413
 31
0.0
  0
LINE
  5
1B23D
330
747D
100
AcDbEntity
  8
細線
100
AcDbLine
 10
1878.349524198775
 20
4450.897861808413
 30
0.0
 11
1952.349524198775
 21
4450.897861808413
 31
0.0
  0
LINE
  5
1B23E
330
747D
100
AcDbEntity
  8
細線
100
AcDbLine
 10
1878.349524198775
 20
4456.897861808413
 30
0.0
 11
1952.349524198775
 21
4456.897861808413
 31
0.0
  0
LINE
  5
1B23F
330
747D
100
AcDbEntity
  8
部品1
 48
0.01
100
AcDbLine
 10
2040.349524198775
 20
4469.397861808412
 30
0.0
 11
1864.349524198775
 21
4469.397861808412
 31
0.0
  0
LINE
  5
1B240
330
747D
100
AcDbEntity
  8
部品1
 48
0.01
100
AcDbLine
 10
1862.349524198775
 20
4467.397861808413
 30
0.0
 11
1862.349524198775
 21
4435.897861808412
 31
0.0
  0
LINE
  5
1B241
330
747D
100
AcDbEntity
  8
部品1
 48
0.01
100
AcDbLine
 10
2042.349524198771
 20
4435.897861808412
 30
0.0
 11
2042.349524198775
 21
4467.397861808413
 31
0.0
  0
LINE
  5
1B242
330
747D
100
AcDbEntity
  8
細線
100
AcDbLine
 10
1878.349524198775
 20
4462.897861808413
 30
0.0
 11
1878.349524198775
 21
4439.897861808413
 31
0.0
  0
LINE
  5
1B243
330
747D
100
AcDbEntity
  8
細線
100
AcDbLine
 10
2026.349524198775
 20
4439.897861808413
 30
0.0
 11
2026.349524198775
 21
4462.897861808413
 31
0.0
  0
LINE
  5
1B244
330
747D
100
AcDbEntity
  8
細線
100
AcDbLine
 10
2026.349524198775
 20
4462.897861808413
 30
0.0
 11
1952.349524198775
 21
4462.897861808413
 31
0.0
  0
LINE
  5
1B245
330
747D
100
AcDbEntity
  8
細線
100
AcDbLine
 10
1878.349524198775
 20
4439.897861808413
 30
0.0
 11
1952.349524198775
 21
4439.897861808413
 31
0.0
  0
LINE
  5
1B246
330
747D
100
AcDbEntity
  8
細線
100
AcDbLine
 10
1952.349524198775
 20
4462.897861808413
 30
0.0
 11
1878.349524198775
 21
4462.897861808413
 31
0.0
  0
LINE
  5
1B247
330
747D
100
AcDbEntity
  8
細線
100
AcDbLine
 10
1952.349524198771
 20
4439.897861808413
 30
0.0
 11
2026.349524198775
 21
4439.897861808413
 31
0.0
  0
ARC
  5
1B248
330
747D
100
AcDbEntity
  8
部品1
 48
0.01
100
AcDbCircle
 10
1864.349524198775
 20
4467.397861808413
 30
0.0
 40
2.0
100
AcDbArc
 50
90.0
 51
180.0
  0
ARC
  5
1B249
330
747D
100
AcDbEntity
  8
部品1
 48
0.01
100
AcDbCircle
 10
2040.349524198775
 20
4467.397861808413
 30
0.0
 40
2.0
100
AcDbArc
 50
0.0
 51
90.0
  0
LINE
  5
1B36E
330
747D
100
AcDbEntity
  8
細線
100
AcDbLine
 10
6232.349524198773
 20
4439.897861808413
 30
0.0
 11
6158.349524198773
 21
4439.897861808413
 31
0.0
  0
LINE
  5
1B36F
330
747D
100
AcDbEntity
  8
細線
100
AcDbLine
 10
6158.349524198773
 20
4462.897861808413
 30
0.0
 11
6232.349524198773
 21
4462.897861808413
 31
0.0
  0
LINE
  5
1B370
330
747D
100
AcDbEntity
  8
細線
100
AcDbLine
 10
6158.349524198773
 20
4456.897861808413
 30
0.0
 11
6232.349524198773
 21
4456.897861808413
 31
0.0
  0
LINE
  5
1B371
330
747D
100
AcDbEntity
  8
細線
100
AcDbLine
 10
6158.349524198773
 20
4444.897861808413
 30
0.0
 11
6232.349524198773
 21
4444.897861808413
 31
0.0
  0
LINE
  5
1B372
330
747D
100
AcDbEntity
  8
細線
100
AcDbLine
 10
6158.349524198773
 20
4450.897861808413
 30
0.0
 11
6232.349524198773
 21
4450.897861808413
 31
0.0
  0
LINE
  5
1B373
330
747D
100
AcDbEntity
  8
部品1
 48
0.01
100
AcDbLine
 10
6320.349524198773
 20
4433.897861808413
 30
0.0
 11
6144.349524198773
 21
4433.897861808413
 31
0.0
  0
LINE
  5
1B374
330
747D
100
AcDbEntity
  8
部品1
 48
0.01
100
AcDbLine
 10
6144.349524198773
 20
4469.397861808412
 30
0.0
 11
6320.349524198773
 21
4469.397861808412
 31
0.0
  0
LINE
  5
1B375
330
747D
100
AcDbEntity
  8
部品1
 48
0.01
100
AcDbLine
 10
4914.349524198772
 20
4433.897861808413
 30
0.0
 11
5090.349524198769
 21
4433.897861808413
 31
0.0
  0
LINE
  5
1B376
330
747D
100
AcDbEntity
  8
細線
100
AcDbLine
 10
4928.349524198773
 20
4456.897861808413
 30
0.0
 11
4997.349524198773
 21
4456.897861808413
 31
0.0
  0
LINE
  5
1B377
330
747D
100
AcDbEntity
  8
細線
100
AcDbLine
 10
4928.349524198769
 20
4444.897861808413
 30
0.0
 11
5002.349524198773
 21
4444.897861808413
 31
0.0
  0
LINE
  5
1B378
330
747D
100
AcDbEntity
  8
細線
100
AcDbLine
 10
4928.349524198773
 20
4450.897861808413
 30
0.0
 11
5002.349524198773
 21
4450.897861808413
 31
0.0
  0
LINE
  5
1B379
330
747D
100
AcDbEntity
  8
細線
100
AcDbLine
 10
4928.349524198773
 20
4456.897861808413
 30
0.0
 11
5002.349524198773
 21
4456.897861808413
 31
0.0
  0
LINE
  5
1B37A
330
747D
100
AcDbEntity
  8
部品1
 48
0.01
100
AcDbLine
 10
5090.349524198773
 20
4469.397861808412
 30
0.0
 11
4914.349524198772
 21
4469.397861808412
 31
0.0
  0
LINE
  5
1B37B
330
747D
100
AcDbEntity
  8
細線
100
AcDbLine
 10
4928.349524198773
 20
4439.897861808413
 30
0.0
 11
5002.349524198773
 21
4439.897861808413
 31
0.0
  0
LINE
  5
1B37C
330
747D
100
AcDbEntity
  8
細線
100
AcDbLine
 10
5002.349524198773
 20
4462.897861808413
 30
0.0
 11
4928.349524198773
 21
4462.897861808413
 31
0.0
  0
ARC
  5
1B37D
330
747D
100
AcDbEntity
  8
部品1
 48
0.01
100
AcDbCircle
 10
4914.349524198772
 20
4435.897861808412
 30
0.0
 40
2.0
100
AcDbArc
 50
180.0
 51
270.0
  0
LINE
  5
1B37E
330
747D
100
AcDbEntity
  8
部品1
 48
0.01
100
AcDbLine
 10
4912.349524198774
 20
4467.397861808413
 30
0.0
 11
4912.349524198774
 21
4435.897861808412
 31
0.0
  0
LINE
  5
1B37F
330
747D
100
AcDbEntity
  8
細線
100
AcDbLine
 10
4928.349524198773
 20
4462.897861808413
 30
0.0
 11
4928.349524198773
 21
4439.897861808413
 31
0.0
  0
ARC
  5
1B380
330
747D
100
AcDbEntity
  8
部品1
 48
0.01
100
AcDbCircle
 10
4914.349524198772
 20
4467.397861808413
 30
0.0
 40
2.0
100
AcDbArc
 50
90.0
 51
180.0
  0
ARC
  5
1B381
330
747D
100
AcDbEntity
  8
部品1
 48
0.01
100
AcDbCircle
 10
5090.349524198769
 20
4435.897861808412
 30
0.0
 40
2.0
100
AcDbArc
 50
270.0
 51
0.0
  0
LINE
  5
1B382
330
747D
100
AcDbEntity
  8
細線
100
AcDbLine
 10
5002.349524198773
 20
4462.897861808413
 30
0.0
 11
5002.34952419877
 21
4439.897861808413
 31
0.0
  0
LINE
  5
1B383
330
747D
100
AcDbEntity
  8
細線
100
AcDbLine
 10
5076.34952419877
 20
4450.897861808413
 30
0.0
 11
5002.349524198773
 21
4450.897861808413
 31
0.0
  0
LINE
  5
1B384
330
747D
100
AcDbEntity
  8
細線
100
AcDbLine
 10
5076.34952419877
 20
4444.897861808413
 30
0.0
 11
5002.349524198773
 21
4444.897861808413
 31
0.0
  0
LINE
  5
1B385
330
747D
100
AcDbEntity
  8
細線
100
AcDbLine
 10
5076.34952419877
 20
4456.897861808413
 30
0.0
 11
5002.349524198773
 21
4456.897861808413
 31
0.0
  0
LINE
  5
1B386
330
747D
100
AcDbEntity
  8
部品1
 48
0.01
100
AcDbLine
 10
5092.34952419877
 20
4435.897861808412
 30
0.0
 11
5092.349524198773
 21
4467.397861808413
 31
0.0
  0
LINE
  5
1B387
330
747D
100
AcDbEntity
  8
細線
100
AcDbLine
 10
5076.349524198773
 20
4439.897861808413
 30
0.0
 11
5076.349524198773
 21
4462.897861808413
 31
0.0
  0
LINE
  5
1B388
330
747D
100
AcDbEntity
  8
細線
100
AcDbLine
 10
5076.349524198773
 20
4462.897861808413
 30
0.0
 11
5002.349524198773
 21
4462.897861808413
 31
0.0
  0
LINE
  5
1B389
330
747D
100
AcDbEntity
  8
細線
100
AcDbLine
 10
5002.34952419877
 20
4439.897861808413
 30
0.0
 11
5076.349524198773
 21
4439.897861808413
 31
0.0
  0
ARC
  5
1B38A
330
747D
100
AcDbEntity
  8
部品1
 48
0.01
100
AcDbCircle
 10
5090.349524198773
 20
4467.397861808413
 30
0.0
 40
2.0
100
AcDbArc
 50
0.0
 51
90.0
  0
LINE
  5
1B38B
330
747D
100
AcDbEntity
  8
細線
100
AcDbLine
 10
6158.349524198773
 20
4439.897861808413
 30
0.0
 11
6158.349524198773
 21
4462.897861808413
 31
0.0
  0
ARC
  5
1B38C
330
747D
100
AcDbEntity
  8
部品1
 48
0.01
100
AcDbCircle
 10
6144.349524198773
 20
4435.897861808412
 30
0.0
 40
2.0
100
AcDbArc
 50
180.0
 51
270.0
  0
ARC
  5
1B38D
330
747D
100
AcDbEntity
  8
部品1
 48
0.01
100
AcDbCircle
 10
6144.349524198773
 20
4467.397861808413
 30
0.0
 40
2.0
100
AcDbArc
 50
90.0
 51
180.0
  0
LINE
  5
1B38E
330
747D
100
AcDbEntity
  8
部品1
 48
0.01
100
AcDbLine
 10
6142.349524198773
 20
4435.897861808412
 30
0.0
 11
6142.349524198773
 21
4467.397861808413
 31
0.0
  0
ARC
  5
1B38F
330
747D
100
AcDbEntity
  8
部品1
 48
0.01
100
AcDbCircle
 10
6320.349524198773
 20
4435.897861808412
 30
0.0
 40
2.0
100
AcDbArc
 50
270.0
 51
0.0
  0
ARC
  5
1B390
330
747D
100
AcDbEntity
  8
部品1
 48
0.01
100
AcDbCircle
 10
6320.349524198773
 20
4467.397861808413
 30
0.0
 40
2.0
100
AcDbArc
 50
0.0
 51
90.0
  0
LINE
  5
1B391
330
747D
100
AcDbEntity
  8
細線
100
AcDbLine
 10
6232.349524198773
 20
4462.897861808413
 30
0.0
 11
6306.349524198773
 21
4462.897861808413
 31
0.0
  0
LINE
  5
1B392
330
747D
100
AcDbEntity
  8
細線
100
AcDbLine
 10
6306.349524198773
 20
4439.897861808413
 30
0.0
 11
6232.349524198773
 21
4439.897861808413
 31
0.0
  0
LINE
  5
1B393
330
747D
100
AcDbEntity
  8
細線
100
AcDbLine
 10
6306.349524198773
 20
4462.897861808413
 30
0.0
 11
6306.349524198773
 21
4439.897861808413
 31
0.0
  0
LINE
  5
1B394
330
747D
100
AcDbEntity
  8
部品1
 48
0.01
100
AcDbLine
 10
6322.349524198774
 20
4467.397861808413
 30
0.0
 11
6322.349524198774
 21
4435.897861808412
 31
0.0
  0
LINE
  5
1B395
330
747D
100
AcDbEntity
  8
細線
100
AcDbLine
 10
6306.349524198773
 20
4456.897861808413
 30
0.0
 11
6232.349524198773
 21
4456.897861808413
 31
0.0
  0
LINE
  5
1B396
330
747D
100
AcDbEntity
  8
細線
100
AcDbLine
 10
6306.349524198773
 20
4450.897861808413
 30
0.0
 11
6232.349524198773
 21
4450.897861808413
 31
0.0
  0
LINE
  5
1B397
330
747D
100
AcDbEntity
  8
細線
100
AcDbLine
 10
6306.349524198773
 20
4444.897861808413
 30
0.0
 11
6232.349524198773
 21
4444.897861808413
 31
0.0
  0
LINE
  5
1B398
330
747D
100
AcDbEntity
  8
細線
100
AcDbLine
 10
6306.349524198773
 20
4456.897861808413
 30
0.0
 11
6237.349524198773
 21
4456.897861808413
 31
0.0
  0
LINE
  5
1B399
330
747D
100
AcDbEntity
  8
細線
100
AcDbLine
 10
6232.349524198773
 20
4462.897861808413
 30
0.0
 11
6232.349524198773
 21
4439.897861808413
 31
0.0
  0
LINE
  5
1B39A
330
747D
100
AcDbEntity
  8
細線
100
AcDbLine
 10
8052.349524198772
 20
4462.897861808413
 30
0.0
 11
7978.349524198773
 21
4462.897861808413
 31
0.0
  0
LINE
  5
1B39B
330
747D
100
AcDbEntity
  8
細線
100
AcDbLine
 10
7978.349524198773
 20
4439.897861808413
 30
0.0
 11
8052.349524198772
 21
4439.897861808413
 31
0.0
  0
LINE
  5
1B39C
330
747D
100
AcDbEntity
  8
部品1
 48
0.01
100
AcDbLine
 10
8140.349524198773
 20
4469.397861808412
 30
0.0
 11
7964.349524198773
 21
4469.397861808412
 31
0.0
  0
LINE
  5
1B39D
330
747D
100
AcDbEntity
  8
細線
100
AcDbLine
 10
7978.349524198773
 20
4456.897861808413
 30
0.0
 11
8052.349524198772
 21
4456.897861808413
 31
0.0
  0
LINE
  5
1B39E
330
747D
100
AcDbEntity
  8
細線
100
AcDbLine
 10
7978.349524198773
 20
4450.897861808413
 30
0.0
 11
8052.349524198772
 21
4450.897861808413
 31
0.0
  0
LINE
  5
1B39F
330
747D
100
AcDbEntity
  8
細線
100
AcDbLine
 10
7978.349524198769
 20
4444.897861808413
 30
0.0
 11
8052.349524198772
 21
4444.897861808413
 31
0.0
  0
LINE
  5
1B3A0
330
747D
100
AcDbEntity
  8
細線
100
AcDbLine
 10
7978.349524198773
 20
4456.897861808413
 30
0.0
 11
8047.349524198773
 21
4456.897861808413
 31
0.0
  0
LINE
  5
1B3A1
330
747D
100
AcDbEntity
  8
部品1
 48
0.01
100
AcDbLine
 10
7964.349524198773
 20
4433.897861808413
 30
0.0
 11
8140.34952419877
 21
4433.897861808413
 31
0.0
  0
ARC
  5
1B3A2
330
747D
100
AcDbEntity
  8
部品1
 48
0.01
100
AcDbCircle
 10
7964.349524198773
 20
4467.397861808413
 30
0.0
 40
2.0
100
AcDbArc
 50
90.0
 51
180.0
  0
LINE
  5
1B3A3
330
747D
100
AcDbEntity
  8
細線
100
AcDbLine
 10
7978.349524198773
 20
4462.897861808413
 30
0.0
 11
7978.349524198773
 21
4439.897861808413
 31
0.0
  0
LINE
  5
1B3A4
330
747D
100
AcDbEntity
  8
部品1
 48
0.01
100
AcDbLine
 10
7962.349524198772
 20
4467.397861808413
 30
0.0
 11
7962.349524198772
 21
4435.897861808412
 31
0.0
  0
ARC
  5
1B3A5
330
747D
100
AcDbEntity
  8
部品1
 48
0.01
100
AcDbCircle
 10
7964.349524198773
 20
4435.897861808412
 30
0.0
 40
2.0
100
AcDbArc
 50
180.0
 51
270.0
  0
ARC
  5
1B3A6
330
747D
100
AcDbEntity
  8
部品1
 48
0.01
100
AcDbCircle
 10
8140.349524198773
 20
4467.397861808413
 30
0.0
 40
2.0
100
AcDbArc
 50
0.0
 51
90.0
  0
LINE
  5
1B3A7
330
747D
100
AcDbEntity
  8
細線
100
AcDbLine
 10
8052.349524198769
 20
4439.897861808413
 30
0.0
 11
8126.349524198772
 21
4439.897861808413
 31
0.0
  0
LINE
  5
1B3A8
330
747D
100
AcDbEntity
  8
細線
100
AcDbLine
 10
8126.349524198772
 20
4462.897861808413
 30
0.0
 11
8052.349524198772
 21
4462.897861808413
 31
0.0
  0
LINE
  5
1B3A9
330
747D
100
AcDbEntity
  8
細線
100
AcDbLine
 10
8126.349524198772
 20
4439.897861808413
 30
0.0
 11
8126.349524198772
 21
4462.897861808413
 31
0.0
  0
LINE
  5
1B3AA
330
747D
100
AcDbEntity
  8
部品1
 48
0.01
100
AcDbLine
 10
8142.349524198769
 20
4435.897861808412
 30
0.0
 11
8142.349524198774
 21
4467.397861808413
 31
0.0
  0
LINE
  5
1B3AB
330
747D
100
AcDbEntity
  8
細線
100
AcDbLine
 10
8126.34952419877
 20
4456.897861808413
 30
0.0
 11
8052.349524198772
 21
4456.897861808413
 31
0.0
  0
LINE
  5
1B3AC
330
747D
100
AcDbEntity
  8
細線
100
AcDbLine
 10
8126.34952419877
 20
4444.897861808413
 30
0.0
 11
8052.349524198772
 21
4444.897861808413
 31
0.0
  0
LINE
  5
1B3AD
330
747D
100
AcDbEntity
  8
細線
100
AcDbLine
 10
8126.34952419877
 20
4450.897861808413
 30
0.0
 11
8052.349524198772
 21
4450.897861808413
 31
0.0
  0
LINE
  5
1B3AE
330
747D
100
AcDbEntity
  8
細線
100
AcDbLine
 10
8052.349524198772
 20
4462.897861808413
 30
0.0
 11
8052.349524198769
 21
4439.897861808413
 31
0.0
  0
ARC
  5
1B3AF
330
747D
100
AcDbEntity
  8
部品1
 48
0.01
100
AcDbCircle
 10
8140.34952419877
 20
4435.897861808412
 30
0.0
 40
2.0
100
AcDbArc
 50
270.0
 51
0.0
  0
LINE
  5
1B3B0
330
747D
100
AcDbEntity
  8
部品1
 48
0.01
100
AcDbLine
 10
9194.349524198774
 20
4469.397861808412
 30
0.0
 11
9370.349524198774
 21
4469.397861808412
 31
0.0
  0
LINE
  5
1B3B1
330
747D
100
AcDbEntity
  8
部品1
 48
0.01
100
AcDbLine
 10
9370.349524198774
 20
4433.897861808413
 30
0.0
 11
9194.349524198774
 21
4433.897861808413
 31
0.0
  0
LINE
  5
1B3B2
330
747D
100
AcDbEntity
  8
細線
100
AcDbLine
 10
9208.349524198773
 20
4450.897861808413
 30
0.0
 11
9282.349524198773
 21
4450.897861808413
 31
0.0
  0
LINE
  5
1B3B3
330
747D
100
AcDbEntity
  8
細線
100
AcDbLine
 10
9208.349524198773
 20
4444.897861808413
 30
0.0
 11
9282.349524198773
 21
4444.897861808413
 31
0.0
  0
LINE
  5
1B3B4
330
747D
100
AcDbEntity
  8
細線
100
AcDbLine
 10
9208.349524198773
 20
4456.897861808413
 30
0.0
 11
9282.349524198773
 21
4456.897861808413
 31
0.0
  0
LINE
  5
1B3B5
330
747D
100
AcDbEntity
  8
細線
100
AcDbLine
 10
9208.349524198773
 20
4462.897861808413
 30
0.0
 11
9282.349524198773
 21
4462.897861808413
 31
0.0
  0
LINE
  5
1B3B6
330
747D
100
AcDbEntity
  8
細線
100
AcDbLine
 10
9282.349524198773
 20
4439.897861808413
 30
0.0
 11
9208.349524198773
 21
4439.897861808413
 31
0.0
  0
LINE
  5
1B3B7
330
747D
100
AcDbEntity
  8
部品1
 48
0.01
100
AcDbLine
 10
9192.349524198773
 20
4435.897861808412
 30
0.0
 11
9192.349524198773
 21
4467.397861808413
 31
0.0
  0
ARC
  5
1B3B8
330
747D
100
AcDbEntity
  8
部品1
 48
0.01
100
AcDbCircle
 10
9194.349524198774
 20
4467.397861808413
 30
0.0
 40
2.0
100
AcDbArc
 50
90.0
 51
180.0
  0
ARC
  5
1B3B9
330
747D
100
AcDbEntity
  8
部品1
 48
0.01
100
AcDbCircle
 10
9194.349524198774
 20
4435.897861808412
 30
0.0
 40
2.0
100
AcDbArc
 50
180.0
 51
270.0
  0
LINE
  5
1B3BA
330
747D
100
AcDbEntity
  8
細線
100
AcDbLine
 10
9208.349524198773
 20
4439.897861808413
 30
0.0
 11
9208.349524198773
 21
4462.897861808413
 31
0.0
  0
LINE
  5
1B3BB
330
747D
100
AcDbEntity
  8
細線
100
AcDbLine
 10
9282.349524198773
 20
4462.897861808413
 30
0.0
 11
9282.349524198773
 21
4439.897861808413
 31
0.0
  0
LINE
  5
1B3BC
330
747D
100
AcDbEntity
  8
細線
100
AcDbLine
 10
9356.349524198774
 20
4456.897861808413
 30
0.0
 11
9287.349524198772
 21
4456.897861808413
 31
0.0
  0
LINE
  5
1B3BD
330
747D
100
AcDbEntity
  8
細線
100
AcDbLine
 10
9356.349524198774
 20
4444.897861808413
 30
0.0
 11
9282.349524198773
 21
4444.897861808413
 31
0.0
  0
LINE
  5
1B3BE
330
747D
100
AcDbEntity
  8
細線
100
AcDbLine
 10
9356.349524198774
 20
4450.897861808413
 30
0.0
 11
9282.349524198773
 21
4450.897861808413
 31
0.0
  0
LINE
  5
1B3BF
330
747D
100
AcDbEntity
  8
細線
100
AcDbLine
 10
9356.349524198774
 20
4456.897861808413
 30
0.0
 11
9282.349524198773
 21
4456.897861808413
 31
0.0
  0
LINE
  5
1B3C0
330
747D
100
AcDbEntity
  8
部品1
 48
0.01
100
AcDbLine
 10
9372.349524198773
 20
4467.397861808413
 30
0.0
 11
9372.349524198773
 21
4435.897861808412
 31
0.0
  0
LINE
  5
1B3C1
330
747D
100
AcDbEntity
  8
細線
100
AcDbLine
 10
9356.349524198774
 20
4462.897861808413
 30
0.0
 11
9356.349524198774
 21
4439.897861808413
 31
0.0
  0
LINE
  5
1B3C2
330
747D
100
AcDbEntity
  8
細線
100
AcDbLine
 10
9356.349524198774
 20
4439.897861808413
 30
0.0
 11
9282.349524198773
 21
4439.897861808413
 31
0.0
  0
LINE
  5
1B3C3
330
747D
100
AcDbEntity
  8
細線
100
AcDbLine
 10
9282.349524198773
 20
4462.897861808413
 30
0.0
 11
9356.349524198774
 21
4462.897861808413
 31
0.0
  0
ARC
  5
1B3C4
330
747D
100
AcDbEntity
  8
部品1
 48
0.01
100
AcDbCircle
 10
9370.349524198774
 20
4467.397861808413
 30
0.0
 40
2.0
100
AcDbArc
 50
0.0
 51
90.0
  0
ARC
  5
1B3C5
330
747D
100
AcDbEntity
  8
部品1
 48
0.01
100
AcDbCircle
 10
9370.349524198774
 20
4435.897861808412
 30
0.0
 40
2.0
100
AcDbArc
 50
270.0
 51
0.0
  0
LINE
  5
1B3E8
330
747D
100
AcDbEntity
  8
仕様書枠
 48
50.0
100
AcDbLine
 10
16307.19999999998
 20
8179.600000000014
 30
0.0
 11
13127.19999999999
 21
8179.600000000016
 31
0.0
  0
TEXT
  5
1B3EA
330
747D
100
AcDbEntity
  8
文字
 62
     7
 48
50.0
100
AcDbText
 10
13248.77747366447
 20
8210.013745883731
 30
0.0
 40
100.0
  1
17
  7
STYLE1
100
AcDbText
  0
TEXT
  5
1B3EB
330
747D
100
AcDbEntity
  8
文字
 62
     7
 48
50.0
100
AcDbText
 10
15022.63965474516
 20
9230.013745883727
 30
0.0
 40
100.0
  1
F12         0.7+1.2
  7
STYLE1
100
AcDbText
  0
TEXT
  5
1B3EC
330
747D
100
AcDbEntity
  8
文字
 62
     7
 48
50.0
100
AcDbText
 10
13583.11819016569
 20
9230.013745883731
 30
0.0
 40
100.0
  1
梁中補強パネル
  7
STYLE1
100
AcDbText
  0
LINE
  5
1B412
330
747D
100
AcDbEntity
  8
部品1
 48
50.0
100
AcDbLine
 10
4067.349524198815
 20
9862.963686763013
 30
0.0
 11
4067.349524198814
 21
9201.463686763013
 31
0.0
  0
LINE
  5
1B413
330
747D
100
AcDbEntity
  8
部品1
 48
50.0
100
AcDbLine
 10
4117.349524198814
 20
9201.463686763013
 30
0.0
 11
4117.349524198814
 21
9862.963686763013
 31
0.0
  0
LINE
  5
1B414
330
747D
100
AcDbEntity
  8
部品1
100
AcDbLine
 10
4117.349524198814
 20
9478.639670199866
 30
0.0
 11
4067.349524198813
 21
9473.463686763013
 31
0.0
  0
LINE
  5
1B415
330
747D
100
AcDbEntity
  8
部品1
100
AcDbLine
 10
4117.349524198814
 20
9438.287703326158
 30
0.0
 11
4067.349524198813
 21
9443.463686763013
 31
0.0
  0
LINE
  5
1B416
330
747D
100
AcDbEntity
  8
部品1
100
AcDbLine
 10
4067.349524198815
 20
9283.463686763012
 30
0.0
 11
4117.349524198813
 21
9296.17555116979
 31
0.0
  0
LINE
  5
1B417
330
747D
100
AcDbEntity
  8
部品1
 48
50.0
100
AcDbLine
 10
4067.349524198815
 20
9201.463686763013
 30
0.0
 11
4117.349524198814
 21
9201.463686763013
 31
0.0
  0
DIMENSION
  5
1B418
330
747D
100
AcDbEntity
  8
寸法
 48
50.0
100
AcDbDimension
  2
*D47
 10
4429.190884459652
 20
9917.963690340188
 30
0.0
 11
4429.190884459651
 21
9648.463050231827
 31
0.0
 70
   160
 71
     5
 42
716.5000035771754
  3
INABA_S40G
100
AcDbAlignedDimension
 13
4117.349524198814
 23
9201.463686763013
 33
0.0
 14
4147.349524199049
 24
9917.963690340188
 34
0.0
 50
90.0
100
AcDbRotatedDimension
1001
ACAD
1000
DSTYLE
1002
{
1070
   174
1070
     0
1070
   272
1070
     1
1070
   341
1005
0
1002
}
  0
LINE
  5
1B445
330
747D
100
AcDbEntity
  8
部品1
 48
50.0
100
AcDbLine
 10
7117.349524198816
 20
9862.963686763011
 30
0.0
 11
7117.349524198816
 21
9201.463686763011
 31
0.0
  0
LINE
  5
1B446
330
747D
100
AcDbEntity
  8
部品1
 48
50.0
100
AcDbLine
 10
7167.349524198816
 20
9201.463686763011
 30
0.0
 11
7167.349524198816
 21
9862.963686763011
 31
0.0
  0
LINE
  5
1B447
330
747D
100
AcDbEntity
  8
部品1
100
AcDbLine
 10
7167.349524198816
 20
9478.639670199866
 30
0.0
 11
7117.349524198814
 21
9473.463686763009
 31
0.0
  0
LINE
  5
1B448
330
747D
100
AcDbEntity
  8
部品1
100
AcDbLine
 10
7167.349524198816
 20
9438.287703326158
 30
0.0
 11
7117.349524198814
 21
9443.46368676301
 31
0.0
  0
LINE
  5
1B449
330
747D
100
AcDbEntity
  8
部品1
100
AcDbLine
 10
7117.349524198816
 20
9283.463686763012
 30
0.0
 11
7167.349524198815
 21
9296.175551169788
 31
0.0
  0
LINE
  5
1B44A
330
747D
100
AcDbEntity
  8
部品1
 48
50.0
100
AcDbLine
 10
7117.349524198816
 20
9201.463686763011
 30
0.0
 11
7167.349524198816
 21
9201.463686763011
 31
0.0
  0
TEXT
  5
1B46F
330
747D
100
AcDbEntity
  8
文字
 62
     7
 48
50.0
100
AcDbText
 10
14646.46056207479
 20
871.9640646083623
 30
0.0
 40
100.0
  1
～多雪地型～
  7
STYLE2
100
AcDbText
  0
LINE
  5
1B4A1
330
747D
100
AcDbEntity
  8
部品1
100
AcDbLine
 10
4147.349524198772
 20
2313.397861808415
 30
0.0
 11
7087.34952419877
 21
2313.397861808415
 31
0.0
  0
LINE
  5
1B4A2
330
747D
100
AcDbEntity
  8
細線
100
AcDbLine
 10
7039.349524198773
 20
2323.397861808415
 30
0.0
 11
4195.349524198766
 21
2323.397861808415
 31
0.0
  0
LINE
  5
1B4A3
330
747D
100
AcDbEntity
  8
細線
100
AcDbLine
 10
4195.349524198766
 20
3948.397861808415
 30
0.0
 11
7039.349524198769
 21
3948.397861808415
 31
0.0
  0
LINE
  5
1B4A4
330
747D
100
AcDbEntity
  8
細線
100
AcDbLine
 10
4195.349524198766
 20
4013.397861808415
 30
0.0
 11
7039.349524198769
 21
4013.397861808415
 31
0.0
  0
LINE
  5
1B4A5
330
747D
100
AcDbEntity
  8
細線
100
AcDbLine
 10
4195.349524198766
 20
4078.397861808414
 30
0.0
 11
7039.349524198769
 21
4078.397861808414
 31
0.0
  0
LINE
  5
1B4A6
330
747D
100
AcDbEntity
  8
細線
100
AcDbLine
 10
4195.349524198766
 20
3558.397861808415
 30
0.0
 11
7039.349524198769
 21
3558.397861808415
 31
0.0
  0
LINE
  5
1B4A7
330
747D
100
AcDbEntity
  8
細線
100
AcDbLine
 10
4195.349524198766
 20
3623.397861808415
 30
0.0
 11
7039.349524198769
 21
3623.397861808415
 31
0.0
  0
LINE
  5
1B4A8
330
747D
100
AcDbEntity
  8
細線
100
AcDbLine
 10
4195.349524198766
 20
3688.397861808415
 30
0.0
 11
7039.349524198769
 21
3688.397861808415
 31
0.0
  0
LINE
  5
1B4A9
330
747D
100
AcDbEntity
  8
細線
100
AcDbLine
 10
4195.349524198766
 20
3753.397861808415
 30
0.0
 11
7039.349524198769
 21
3753.397861808415
 31
0.0
  0
LINE
  5
1B4AA
330
747D
100
AcDbEntity
  8
細線
100
AcDbLine
 10
4195.349524198766
 20
3818.397861808415
 30
0.0
 11
7039.349524198769
 21
3818.397861808415
 31
0.0
  0
LINE
  5
1B4AB
330
747D
100
AcDbEntity
  8
細線
100
AcDbLine
 10
4195.349524198766
 20
3883.397861808415
 30
0.0
 11
7039.349524198769
 21
3883.397861808415
 31
0.0
  0
LINE
  5
1B4AC
330
747D
100
AcDbEntity
  8
細線
100
AcDbLine
 10
4195.349524198766
 20
2908.397861808415
 30
0.0
 11
7039.349524198769
 21
2908.397861808415
 31
0.0
  0
LINE
  5
1B4AD
330
747D
100
AcDbEntity
  8
細線
100
AcDbLine
 10
4195.349524198766
 20
2973.397861808415
 30
0.0
 11
7039.349524198769
 21
2973.397861808415
 31
0.0
  0
LINE
  5
1B4AE
330
747D
100
AcDbEntity
  8
細線
100
AcDbLine
 10
4195.349524198766
 20
3038.397861808415
 30
0.0
 11
7039.349524198769
 21
3038.397861808415
 31
0.0
  0
LINE
  5
1B4AF
330
747D
100
AcDbEntity
  8
細線
100
AcDbLine
 10
4195.349524198766
 20
3103.397861808415
 30
0.0
 11
7039.349524198769
 21
3103.397861808415
 31
0.0
  0
LINE
  5
1B4B0
330
747D
100
AcDbEntity
  8
細線
100
AcDbLine
 10
4195.349524198766
 20
3168.397861808415
 30
0.0
 11
7039.349524198769
 21
3168.397861808415
 31
0.0
  0
LINE
  5
1B4B1
330
747D
100
AcDbEntity
  8
細線
100
AcDbLine
 10
4195.349524198766
 20
3233.397861808415
 30
0.0
 11
7039.349524198769
 21
3233.397861808415
 31
0.0
  0
LINE
  5
1B4B2
330
747D
100
AcDbEntity
  8
細線
100
AcDbLine
 10
4195.349524198766
 20
3298.397861808415
 30
0.0
 11
7039.349524198769
 21
3298.397861808415
 31
0.0
  0
LINE
  5
1B4B3
330
747D
100
AcDbEntity
  8
細線
100
AcDbLine
 10
4195.349524198766
 20
3363.397861808415
 30
0.0
 11
7039.349524198769
 21
3363.397861808415
 31
0.0
  0
LINE
  5
1B4B4
330
747D
100
AcDbEntity
  8
細線
100
AcDbLine
 10
4195.349524198766
 20
3428.397861808415
 30
0.0
 11
7039.349524198769
 21
3428.397861808415
 31
0.0
  0
LINE
  5
1B4B5
330
747D
100
AcDbEntity
  8
細線
100
AcDbLine
 10
4195.349524198766
 20
3493.397861808415
 30
0.0
 11
7039.349524198769
 21
3493.397861808415
 31
0.0
  0
LINE
  5
1B4B6
330
747D
100
AcDbEntity
  8
細線
100
AcDbLine
 10
4195.349524198766
 20
4208.397861808414
 30
0.0
 11
7039.349524198769
 21
4208.397861808414
 31
0.0
  0
LINE
  5
1B4B7
330
747D
100
AcDbEntity
  8
細線
100
AcDbLine
 10
4195.349524198766
 20
4143.397861808415
 30
0.0
 11
7039.349524198769
 21
4143.397861808415
 31
0.0
  0
LINE
  5
1B4B8
330
747D
100
AcDbEntity
  8
細線
100
AcDbLine
 10
4195.349524198766
 20
2388.397861808415
 30
0.0
 11
7039.349524198769
 21
2388.397861808415
 31
0.0
  0
LINE
  5
1B4B9
330
747D
100
AcDbEntity
  8
細線
100
AcDbLine
 10
4195.349524198766
 20
2453.397861808415
 30
0.0
 11
7039.349524198769
 21
2453.397861808415
 31
0.0
  0
LINE
  5
1B4BA
330
747D
100
AcDbEntity
  8
細線
100
AcDbLine
 10
4195.349524198766
 20
2518.397861808415
 30
0.0
 11
7039.349524198769
 21
2518.397861808415
 31
0.0
  0
LINE
  5
1B4BB
330
747D
100
AcDbEntity
  8
細線
100
AcDbLine
 10
4195.349524198766
 20
2583.397861808415
 30
0.0
 11
7039.349524198769
 21
2583.397861808415
 31
0.0
  0
LINE
  5
1B4BC
330
747D
100
AcDbEntity
  8
細線
100
AcDbLine
 10
4195.349524198766
 20
2648.397861808415
 30
0.0
 11
7039.349524198769
 21
2648.397861808415
 31
0.0
  0
LINE
  5
1B4BD
330
747D
100
AcDbEntity
  8
細線
100
AcDbLine
 10
4195.349524198766
 20
2713.397861808415
 30
0.0
 11
7039.349524198769
 21
2713.397861808415
 31
0.0
  0
LINE
  5
1B4BE
330
747D
100
AcDbEntity
  8
細線
100
AcDbLine
 10
4195.349524198766
 20
2778.397861808415
 30
0.0
 11
7039.349524198769
 21
2778.397861808415
 31
0.0
  0
LINE
  5
1B4BF
330
747D
100
AcDbEntity
  8
細線
100
AcDbLine
 10
4195.349524198766
 20
2843.397861808415
 30
0.0
 11
7039.349524198769
 21
2843.397861808415
 31
0.0
  0
LINE
  5
1B4C0
330
747D
100
AcDbEntity
  8
部品1
100
AcDbLine
 10
4147.349524198772
 20
4238.397861808414
 30
0.0
 11
7197.349524198772
 21
4238.397861808413
 31
0.0
  0
LINE
  5
1B4C1
330
747D
100
AcDbEntity
  8
部品1
100
AcDbLine
 10
4147.349524198772
 20
2263.397861808415
 30
0.0
 11
7087.34952419877
 21
2263.397861808415
 31
0.0
  0
LINE
  5
1B4C2
330
747D
100
AcDbEntity
  8
細線
 48
50.0
100
AcDbLine
 10
5417.349524198769
 20
2860.897861808415
 30
0.0
 11
5317.349524198769
 21
2860.897861808415
 31
0.0
  0
LINE
  5
1B4C3
330
747D
100
AcDbEntity
  8
細線
 48
50.0
100
AcDbLine
 10
5317.349524198769
 20
2890.897861808415
 30
0.0
 11
5417.349524198769
 21
2890.897861808415
 31
0.0
  0
ARC
  5
1B4C4
330
747D
100
AcDbEntity
  8
細線
 48
50.0
100
AcDbCircle
 10
5317.349524198769
 20
2875.897861808415
 30
0.0
 40
15.0
100
AcDbArc
 50
90.0
 51
270.0
  0
ARC
  5
1B4C5
330
747D
100
AcDbEntity
  8
細線
 48
50.0
100
AcDbCircle
 10
5417.349524198769
 20
2875.897861808415
 30
0.0
 40
15.0
100
AcDbArc
 50
270.0
 51
90.0
  0
LINE
  5
1B4C6
330
747D
100
AcDbEntity
  8
細線
 48
50.0
100
AcDbLine
 10
5817.349524198769
 20
2890.897861808415
 30
0.0
 11
5917.349524198769
 21
2890.897861808415
 31
0.0
  0
LINE
  5
1B4C7
330
747D
100
AcDbEntity
  8
細線
 48
50.0
100
AcDbLine
 10
5917.349524198769
 20
2860.897861808415
 30
0.0
 11
5817.349524198769
 21
2860.897861808415
 31
0.0
  0
ARC
  5
1B4C8
330
747D
100
AcDbEntity
  8
細線
 48
50.0
100
AcDbCircle
 10
5817.349524198769
 20
2875.897861808415
 30
0.0
 40
15.0
100
AcDbArc
 50
90.0
 51
270.0
  0
ARC
  5
1B4C9
330
747D
100
AcDbEntity
  8
細線
 48
50.0
100
AcDbCircle
 10
5917.349524198769
 20
2875.897861808415
 30
0.0
 40
15.0
100
AcDbArc
 50
270.0
 51
90.0
  0
CIRCLE
  5
1B4CA
330
747D
100
AcDbEntity
  8
細線
 48
50.0
100
AcDbCircle
 10
5617.349524198769
 20
3200.897861808415
 30
0.0
 40
18.0
  0
LINE
  5
1B4CB
330
747D
100
AcDbEntity
  8
破線
 48
10.0
100
AcDbLine
 10
6319.84952419882
 20
7022.963687640973
 30
0.0
 11
5642.349524198817
 21
7022.963687640949
 31
0.0
  0
LINE
  5
1B4CC
330
747D
100
AcDbEntity
  8
部品1
 48
50.0
100
AcDbLine
 10
4147.349524198761
 20
9022.963687640993
 30
0.0
 11
7087.349524198739
 21
9022.96368764099
 31
0.0
  0
LINE
  5
1B4CD
330
747D
100
AcDbEntity
  8
部品1
 48
50.0
100
AcDbLine
 10
4147.349524198761
 20
8602.963687640993
 30
0.0
 11
7087.349524198737
 21
8602.96368764099
 31
0.0
  0
LINE
  5
1B4CE
330
747D
100
AcDbEntity
  8
部品1
 48
50.0
100
AcDbLine
 10
4147.349524198765
 20
8182.963687640992
 30
0.0
 11
7087.349524198737
 21
8182.963687640988
 31
0.0
  0
LINE
  5
1B4CF
330
747D
100
AcDbEntity
  8
部品1
 48
50.0
100
AcDbLine
 10
4147.349524198769
 20
7762.963687640994
 30
0.0
 11
7087.349524198739
 21
7762.963687640989
 31
0.0
  0
LINE
  5
1B4D0
330
747D
100
AcDbEntity
  8
部品1
 48
50.0
100
AcDbLine
 10
4147.349524198769
 20
7342.963687640993
 30
0.0
 11
7087.349524198737
 21
7342.963687640988
 31
0.0
  0
LINE
  5
1B4D1
330
747D
100
AcDbEntity
  8
部品1
 48
50.0
100
AcDbLine
 10
4147.349524198769
 20
6997.963687641018
 30
0.0
 11
7087.349524198756
 21
6997.963687640877
 31
0.0
  0
LINE
  5
1B4D2
330
747D
100
AcDbEntity
  8
部品1
 48
50.0
100
AcDbLine
 10
4147.349524198769
 20
6952.963687641018
 30
0.0
 11
7087.349524198756
 21
6952.963687640878
 31
0.0
  0
LINE
  5
1B4D3
330
747D
100
AcDbEntity
  8
部品1
 48
50.0
100
AcDbLine
 10
4147.349524198769
 20
6867.963687641019
 30
0.0
 11
7087.349524198756
 21
6867.963687640877
 31
0.0
  0
LINE
  5
1B4D4
330
747D
100
AcDbEntity
  8
部品1
 48
50.0
100
AcDbLine
 10
4159.349524198769
 20
6913.463687641017
 30
0.0
 11
7075.349524198755
 21
6913.463687641017
 31
0.0
  0
LINE
  5
1B4D5
330
747D
100
AcDbEntity
  8
部品1
 48
50.0
100
AcDbLine
 10
5617.349524198729
 20
9437.963687641076
 30
0.0
 11
5617.349524198769
 21
6997.963687640947
 31
0.0
  0
LINE
  5
1B4D6
330
747D
100
AcDbEntity
  8
破線
 48
10.0
100
AcDbLine
 10
5642.349524198717
 20
6997.963687640946
 30
0.0
 11
5642.349524198706
 21
9437.963687641076
 31
0.0
  0
LINE
  5
1B4D7
330
747D
100
AcDbEntity
  8
破線
 48
10.0
100
AcDbLine
 10
5592.349524198718
 20
6997.963687640949
 30
0.0
 11
5592.349524198706
 21
9437.963687641076
 31
0.0
  0
LINE
  5
1B4D8
330
747D
100
AcDbEntity
  8
破線
 48
10.0
100
AcDbLine
 10
4914.849524198718
 20
7022.963687640973
 30
0.0
 11
5592.349524198718
 21
7022.963687640949
 31
0.0
  0
LINE
  5
1B4DF
330
747D
100
AcDbEntity
  8
部品1
 48
50.0
100
AcDbLine
 10
6042.718867183177
 20
4788.397861808418
 30
0.0
 11
5272.3649389437
 21
1913.397861808415
 31
0.0
  0
SPLINE
  5
1B4E0
330
747D
100
AcDbEntity
  8
部品1
 48
50.0
100
AcDbSpline
210
0.0
220
0.0
230
1.0
 70
     8
 71
     3
 72
    10
 73
     6
 74
     4
 42
0.0000000001
 43
0.0000000001
 44
0.0000000001
 40
0.0
 40
0.0
 40
0.0
 40
0.0
 40
147.8767566010009
 40
301.8091093202477
 40
466.5049223087734
 40
466.5049223087734
 40
466.5049223087734
 40
466.5049223087734
 10
5684.919851931821
 20
3282.139014334209
 30
0.0
 10
5608.038169436986
 20
3273.23458067637
 30
0.0
 10
5451.126477226858
 20
3255.061074217039
 30
0.0
 10
5773.939887171204
 20
3152.540489577697
 30
0.0
 10
5604.097267501829
 20
3133.905400865493
 30
0.0
 10
5516.307262294935
 20
3124.273103988183
 30
0.0
 11
5684.919851931821
 21
3282.139014334209
 31
0.0
 11
5542.081873623052
 21
3243.86569339788
 31
0.0
 11
5675.391201542226
 21
3166.899517038257
 31
0.0
 11
5516.307262294935
 21
3124.273103988183
 31
0.0
  0
LINE
  5
1B4E7
330
747D
100
AcDbEntity
  8
部品1
 48
50.0
100
AcDbLine
 10
6069.513786426272
 20
10080.463687641
 30
0.0
 11
5145.08907253885
 21
6630.463687640821
 31
0.0
  0
SPLINE
  5
1B4E8
330
747D
100
AcDbEntity
  8
部品1
 48
50.0
100
AcDbSpline
210
0.0
220
0.0
230
1.0
 70
     8
 71
     3
 72
    10
 73
     6
 74
     4
 42
0.0000000001
 43
0.0000000001
 44
0.0000000001
 40
0.0
 40
0.0
 40
0.0
 40
0.0
 40
147.8767566010009
 40
301.8091093202477
 40
466.5049223087734
 40
466.5049223087734
 40
466.5049223087734
 40
466.5049223087734
 10
5684.919851931804
 20
8474.204840166795
 30
0.0
 10
5608.038169436968
 20
8465.300406508957
 30
0.0
 10
5451.12647722684
 20
8447.126900049624
 30
0.0
 10
5773.939887171184
 20
8344.606315410283
 30
0.0
 10
5604.09726750181
 20
8325.971226698078
 30
0.0
 10
5516.307262294916
 20
8316.338929820769
 30
0.0
 11
5684.919851931804
 21
8474.204840166795
 31
0.0
 11
5542.081873623033
 21
8435.931519230466
 31
0.0
 11
5675.391201542208
 21
8358.965342870844
 31
0.0
 11
5516.307262294916
 21
8316.338929820769
 31
0.0
  0
TEXT
  5
1B4F2
330
747D
100
AcDbEntity
  8
文字
 62
     7
 48
50.0
100
AcDbText
 10
15022.63965474516
 20
8890.013745883727
 30
0.0
 40
100.0
  1
F12            0.7
  7
STYLE1
100
AcDbText
  0
LINE
  5
1B4FB
330
747D
100
AcDbEntity
  8
破線
 48
5.0
100
AcDbLine
 10
4147.349524198769
 20
1988.397861808415
 30
0.0
 11
4037.349524198771
 21
1988.397861808415
 31
0.0
  0
LINE
  5
1B4FC
330
747D
100
AcDbEntity
  8
破線
 48
5.0
100
AcDbLine
 10
4037.349524198769
 20
2163.397861808415
 30
0.0
 11
4037.349524198771
 21
1988.397861808415
 31
0.0
  0
LINE
  5
1B4FD
330
747D
100
AcDbEntity
  8
破線
 48
5.0
100
AcDbLine
 10
4147.349524198771
 20
2163.397861808415
 30
0.0
 11
4147.349524198771
 21
1988.397861808415
 31
0.0
  0
LINE
  5
1B4FE
330
747D
100
AcDbEntity
  8
破線
 48
5.0
100
AcDbLine
 10
4092.349524198771
 20
1988.397861808415
 30
0.0
 11
4092.349524198771
 21
1913.397861808414
 31
0.0
  0
LINE
  5
1B507
330
747D
100
AcDbEntity
  8
破線
 48
5.0
100
AcDbLine
 10
7197.349524198769
 20
1988.397861808415
 30
0.0
 11
7087.349524198771
 21
1988.397861808415
 31
0.0
  0
LINE
  5
1B508
330
747D
100
AcDbEntity
  8
破線
 48
5.0
100
AcDbLine
 10
7087.34952419877
 20
2163.397861808415
 30
0.0
 11
7087.349524198771
 21
1988.397861808415
 31
0.0
  0
LINE
  5
1B509
330
747D
100
AcDbEntity
  8
破線
 48
5.0
100
AcDbLine
 10
7197.349524198772
 20
2163.397861808415
 30
0.0
 11
7197.349524198772
 21
1988.397861808415
 31
0.0
  0
LINE
  5
1B50A
330
747D
100
AcDbEntity
  8
破線
 48
5.0
100
AcDbLine
 10
7142.34952419877
 20
1988.397861808415
 30
0.0
 11
7142.34952419877
 21
1913.397861808414
 31
0.0
  0
ENDSEC
  0
SECTION
  2
OBJECTS
  0
DICTIONARY
  5
7471
330
0
100
AcDbDictionary
281
     1
  3
ACAD_COLOR
350
19301
  3
ACAD_GROUP
350
7472
  3
ACAD_LAYOUT
350
19302
  3
ACAD_MATERIAL
350
19300
  3
ACAD_MLINESTYLE
350
7473
  3
ACAD_PLOTSETTINGS
350
19303
  3
ACAD_PLOTSTYLENAME
350
192FE
  3
ACDBHEADERROUNDTRIPXREC
350
1B5E9
  3
ACDBVARIABLEDICTIONARY
350
18D77
  3
CONTENTDICTIONARY
350
E71C
  3
DRAWINGVARIABLESDICT
350
F3B9
  0
DICTIONARY
  5
197CC
330
7467
100
AcDbDictionary
280
     1
281
     1
  3
ACAD_LAYERSTATES
360
197CD
  0
DICTIONARY
  5
19301
102
{ACAD_REACTORS
330
7471
102
}
330
7471
100
AcDbDictionary
281
     1
  0
DICTIONARY
  5
7472
102
{ACAD_REACTORS
330
7471
102
}
330
7471
100
AcDbDictionary
281
     1
  0
DICTIONARY
  5
19302
102
{ACAD_REACTORS
330
7471
102
}
330
7471
100
AcDbDictionary
281
     1
  3
Model
350
19304
  3
レイアウト1
350
19305
  0
DICTIONARY
  5
19300
102
{ACAD_REACTORS
330
7471
102
}
330
7471
100
AcDbDictionary
281
     1
  0
DICTIONARY
  5
7473
102
{ACAD_REACTORS
330
7471
102
}
330
7471
100
AcDbDictionary
281
     1
  3
STANDARD
350
7480
  0
DICTIONARY
  5
19303
102
{ACAD_REACTORS
330
7471
102
}
330
7471
100
AcDbDictionary
281
     1
  0
ACDBDICTIONARYWDFLT
  5
192FE
102
{ACAD_REACTORS
330
7471
102
}
330
7471
100
AcDbDictionary
281
     1
  3
Normal
350
192FF
100
AcDbDictionaryWithDefault
340
192FF
  0
DICTIONARY
  5
1B5E9
102
{ACAD_REACTORS
330
7471
102
}
330
7471
100
AcDbDictionary
281
     1
  3
COLORDICT
350
1B5EB
  3
MATERIALDICT
350
1B5EA
  0
DICTIONARY
  5
18D77
102
{ACAD_REACTORS
330
7471
102
}
330
7471
100
AcDbDictionary
281
     1
  3
DIMASSOC
350
1B5E6
  3
PROJECTNAME
350
1B5E7
  3
SORTENTS
350
18D78
  0
DICTIONARY
  5
E71C
102
{ACAD_REACTORS
330
7471
102
}
330
7471
100
AcDbDictionary
281
     1
  0
DICTIONARY
  5
F3B9
102
{ACAD_REACTORS
330
7471
102
}
330
7471
100
AcDbDictionary
281
     1
1001
DRAWINGVARIABLESXDATA
1000
POLARMODE
1000
1
  0
DICTIONARY
  5
197CD
102
{ACAD_REACTORS
330
197CC
102
}
330
197CC
100
AcDbDictionary
281
     1
  0
LAYOUT
  5
19304
102
{ACAD_XDICTIONARY
360
1B5EC
102
}
102
{ACAD_REACTORS
330
19302
102
}
330
19302
100
AcDbPlotSettings
  1

  2
none_device
  4
Letter_(8.50_x_11.00_Inches)
  6

 40
6.349999904632568
 41
6.349999904632568
 42
6.350006103515625
 43
6.350006103515625
 44
215.8999938964844
 45
279.3999938964844
 46
0.0
 47
0.0
 48
0.0
 49
0.0
140
0.0
141
0.0
142
1.0
143
1.0
 70
 11952
 72
     1
 73
     1
 74
     0
  7
inaba.ctb
 75
     0
147
1.0
148
-2464.779774247707
149
54.18477585042729
100
AcDbLayout
  1
Model
 70
     1
 71
     0
 10
0.0
 20
0.0
 11
12.0
 21
9.0
 12
0.0
 22
0.0
 32
0.0
 14
0.0
 24
0.0
 34
0.0
 15
0.0
 25
0.0
 35
0.0
146
0.0
 13
0.0
 23
0.0
 33
0.0
 16
1.0
 26
0.0
 36
0.0
 17
0.0
 27
1.0
 37
0.0
 76
     0
330
747D
  0
LAYOUT
  5
19305
102
{ACAD_XDICTIONARY
360
1B5EE
102
}
102
{ACAD_REACTORS
330
19302
102
}
330
19302
100
AcDbPlotSettings
  1

  2
EPSON LP-8300
  4

  6

 40
0.0
 41
0.0
 42
0.0
 43
0.0
 44
0.0
 45
0.0
 46
0.0
 47
0.0
 48
0.0
 49
0.0
140
0.0
141
0.0
142
1.0
143
1.0
 70
   688
 72
     0
 73
     0
 74
     5
  7
inaba.ctb
 75
    16
147
1.0
148
0.0
149
0.0
100
AcDbLayout
  1
レイアウト1
 70
     0
 71
     1
 10
0.0
 20
0.0
 11
420.0
 21
297.0
 12
0.0
 22
0.0
 32
0.0
 14
1.000000000000000E+20
 24
1.000000000000000E+20
 34
1.000000000000000E+20
 15
-1.000000000000000E+20
 25
-1.000000000000000E+20
 35
-1.000000000000000E+20
146
0.0
 13
0.0
 23
0.0
 33
0.0
 16
1.0
 26
0.0
 36
0.0
 17
0.0
 27
1.0
 37
0.0
 76
     0
330
747A
  0
MLINESTYLE
  5
7480
102
{ACAD_REACTORS
330
7473
102
}
330
7473
100
AcDbMlineStyle
  2
STANDARD
 70
     0
  3

 62
     0
 51
90.0
 52
90.0
 71
     2
 49
0.5
 62
   256
  6
BYLAYER
 49
-0.5
 62
   256
  6
BYLAYER
  0
ACDBPLACEHOLDER
  5
192FF
102
{ACAD_REACTORS
330
192FE
102
}
330
192FE
  0
XRECORD
  5
1B5EB
102
{ACAD_REACTORS
330
1B5E9
102
}
330
1B5E9
100
AcDbXrecord
280
     1
340
19301
  0
XRECORD
  5
1B5EA
102
{ACAD_REACTORS
330
1B5E9
102
}
330
1B5E9
100
AcDbXrecord
280
     1
340
19300
  0
DICTIONARYVAR
  5
1B5E6
102
{ACAD_REACTORS
330
18D77
102
}
330
18D77
100
DictionaryVariables
280
     0
  1
1
  0
DICTIONARYVAR
  5
1B5E7
102
{ACAD_REACTORS
330
18D77
102
}
330
18D77
100
DictionaryVariables
280
     0
  1

  0
DICTIONARYVAR
  5
18D78
102
{ACAD_REACTORS
330
18D77
102
}
330
18D77
100
DictionaryVariables
280
     0
  1
96
  0
DICTIONARY
  5
1B5EC
330
19304
100
AcDbDictionary
280
     1
281
     1
  3
ACAD_XREC_ROUNDTRIP
360
1B5ED
  0
DICTIONARY
  5
1B5EE
330
19305
100
AcDbDictionary
280
     1
281
     1
  3
ACAD_XREC_ROUNDTRIP
360
1B5EF
  0
XRECORD
  5
1B5ED
102
{ACAD_REACTORS
330
1B5EC
102
}
330
1B5EC
100
AcDbXrecord
280
     1
102
SHADEPLOT
 70
     0
102
SHADEPLOTRESLEVEL
 70
     2
102
SHADEPLOTCUSTOMDPI
 70
   300
  0
XRECORD
  5
1B5EF
102
{ACAD_REACTORS
330
1B5EE
102
}
330
1B5EE
100
AcDbXrecord
280
     1
102
SHADEPLOT
 70
     0
102
SHADEPLOTRESLEVEL
 70
     2
102
SHADEPLOTCUSTOMDPI
 70
   300
  0
ENDSEC
  0
EOF
