  0
SECTION
  2
HEADER
  9
$ACADVER
  1
AC1015
  9
$ACADMAINTVER
 70
    20
  9
$DWGCODEPAGE
  3
ANSI_932
  9
$INSBASE
 10
0.0
 20
0.0
 30
0.0
  9
$EXTMIN
 10
139.9999999999995
 20
-0.0000000000000909
 30
0.0
  9
$EXTMAX
 10
16307.2
 20
11409.6
 30
0.0
  9
$LIMMIN
 10
0.0
 20
0.0
  9
$LIMMAX
 10
16800.0
 20
11880.0
  9
$ORTHOMODE
 70
     0
  9
$REGENMODE
 70
     1
  9
$FILLMODE
 70
     1
  9
$QTEXTMODE
 70
     0
  9
$MIRRTEXT
 70
     1
  9
$LTSCALE
 40
20.0
  9
$ATTMODE
 70
     1
  9
$TEXTSIZE
 40
100.0
  9
$TRACEWID
 40
1.0
  9
$TEXTSTYLE
  7
STYLE2
  9
$CLAYER
  8
寸法
  9
$CELTYPE
  6
BYLAYER
  9
$CECOLOR
 62
   256
  9
$CELTSCALE
 40
50.0
  9
$DISPSILH
 70
     0
  9
$DIMSCALE
 40
40.0
  9
$DIMASZ
 40
2.5
  9
$DIMEXO
 40
0.5
  9
$DIMDLI
 40
7.0
  9
$DIMRND
 40
0.0
  9
$DIMDLE
 40
0.0
  9
$DIMEXE
 40
1.5
  9
$DIMTP
 40
0.0
  9
$DIMTM
 40
0.0
  9
$DIMTXT
 40
3.0
  9
$DIMCEN
 40
0.0
  9
$DIMTSZ
 40
0.0
  9
$DIMTOL
 70
     0
  9
$DIMLIM
 70
     0
  9
$DIMTIH
 70
     0
  9
$DIMTOH
 70
     0
  9
$DIMSE1
 70
     0
  9
$DIMSE2
 70
     0
  9
$DIMTAD
 70
     3
  9
$DIMZIN
 70
     8
  9
$DIMBLK
  1

  9
$DIMASO
 70
     1
  9
$DIMSHO
 70
     1
  9
$DIMPOST
  1

  9
$DIMAPOST
  1

  9
$DIMALT
 70
     0
  9
$DIMALTD
 70
     2
  9
$DIMALTF
 40
0.0394
  9
$DIMLFAC
 40
1.0
  9
$DIMTOFL
 70
     1
  9
$DIMTVP
 40
0.0
  9
$DIMTIX
 70
     1
  9
$DIMSOXD
 70
     0
  9
$DIMSAH
 70
     1
  9
$DIMBLK1
  1
DOTSMALL
  9
$DIMBLK2
  1
DOTSMALL
  9
$DIMSTYLE
  2
INABA_S40G
  9
$DIMCLRD
 70
     0
  9
$DIMCLRE
 70
     0
  9
$DIMCLRT
 70
     7
  9
$DIMTFAC
 40
1.0
  9
$DIMGAP
 40
1.0
  9
$DIMJUST
 70
     0
  9
$DIMSD1
 70
     0
  9
$DIMSD2
 70
     0
  9
$DIMTOLJ
 70
     1
  9
$DIMTZIN
 70
     0
  9
$DIMALTZ
 70
     0
  9
$DIMALTTZ
 70
     0
  9
$DIMUPT
 70
     0
  9
$DIMDEC
 70
     1
  9
$DIMTDEC
 70
     4
  9
$DIMALTU
 70
     2
  9
$DIMALTTD
 70
     2
  9
$DIMTXSTY
  7
STYLE1
  9
$DIMAUNIT
 70
     0
  9
$DIMADEC
 70
     0
  9
$DIMALTRND
 40
0.0
  9
$DIMAZIN
 70
     0
  9
$DIMDSEP
 70
    46
  9
$DIMATFIT
 70
     3
  9
$DIMFRAC
 70
     0
  9
$DIMLDRBLK
  1

  9
$DIMLUNIT
 70
     2
  9
$DIMLWD
 70
    -2
  9
$DIMLWE
 70
    -2
  9
$DIMTMOVE
 70
     2
  9
$LUNITS
 70
     2
  9
$LUPREC
 70
     1
  9
$SKETCHINC
 40
1.0
  9
$FILLETRAD
 40
3.0
  9
$AUNITS
 70
     0
  9
$AUPREC
 70
     0
  9
$MENU
  1
acad
  9
$ELEVATION
 40
0.0
  9
$PELEVATION
 40
0.0
  9
$THICKNESS
 40
0.0
  9
$LIMCHECK
 70
     0
  9
$CHAMFERA
 40
0.0
  9
$CHAMFERB
 40
0.0
  9
$CHAMFERC
 40
0.0
  9
$CHAMFERD
 40
0.0
  9
$SKPOLY
 70
     0
  9
$TDCREATE
 40
2451368.612993866
  9
$TDUCREATE
 40
2451368.237993866
  9
$TDUPDATE
 40
2455569.628106551
  9
$TDUUPDATE
 40
2455569.253106551
  9
$TDINDWG
 40
0.7962304398
  9
$TDUSRTIMER
 40
0.7962304398
  9
$USRTIMER
 70
     1
  9
$ANGBASE
 50
0.0
  9
$ANGDIR
 70
     0
  9
$PDMODE
 70
     3
  9
$PDSIZE
 40
2.0
  9
$PLINEWID
 40
0.0
  9
$SPLFRAME
 70
     0
  9
$SPLINETYPE
 70
     6
  9
$SPLINESEGS
 70
     8
  9
$HANDSEED
  5
1964F
  9
$SURFTAB1
 70
     6
  9
$SURFTAB2
 70
     6
  9
$SURFTYPE
 70
     6
  9
$SURFU
 70
     6
  9
$SURFV
 70
     6
  9
$UCSBASE
  2

  9
$UCSNAME
  2

  9
$UCSORG
 10
0.0
 20
0.0
 30
0.0
  9
$UCSXDIR
 10
1.0
 20
0.0
 30
0.0
  9
$UCSYDIR
 10
0.0
 20
1.0
 30
0.0
  9
$UCSORTHOREF
  2

  9
$UCSORTHOVIEW
 70
     0
  9
$UCSORGTOP
 10
0.0
 20
0.0
 30
0.0
  9
$UCSORGBOTTOM
 10
0.0
 20
0.0
 30
0.0
  9
$UCSORGLEFT
 10
0.0
 20
0.0
 30
0.0
  9
$UCSORGRIGHT
 10
0.0
 20
0.0
 30
0.0
  9
$UCSORGFRONT
 10
0.0
 20
0.0
 30
0.0
  9
$UCSORGBACK
 10
0.0
 20
0.0
 30
0.0
  9
$PUCSBASE
  2

  9
$PUCSNAME
  2

  9
$PUCSORG
 10
0.0
 20
0.0
 30
0.0
  9
$PUCSXDIR
 10
1.0
 20
0.0
 30
0.0
  9
$PUCSYDIR
 10
0.0
 20
1.0
 30
0.0
  9
$PUCSORTHOREF
  2

  9
$PUCSORTHOVIEW
 70
     0
  9
$PUCSORGTOP
 10
0.0
 20
0.0
 30
0.0
  9
$PUCSORGBOTTOM
 10
0.0
 20
0.0
 30
0.0
  9
$PUCSORGLEFT
 10
0.0
 20
0.0
 30
0.0
  9
$PUCSORGRIGHT
 10
0.0
 20
0.0
 30
0.0
  9
$PUCSORGFRONT
 10
0.0
 20
0.0
 30
0.0
  9
$PUCSORGBACK
 10
0.0
 20
0.0
 30
0.0
  9
$USERI1
 70
     0
  9
$USERI2
 70
     0
  9
$USERI3
 70
     0
  9
$USERI4
 70
     0
  9
$USERI5
 70
     0
  9
$USERR1
 40
0.0
  9
$USERR2
 40
0.0
  9
$USERR3
 40
0.0
  9
$USERR4
 40
0.0
  9
$USERR5
 40
0.0
  9
$WORLDVIEW
 70
     1
  9
$SHADEDGE
 70
     3
  9
$SHADEDIF
 70
    70
  9
$TILEMODE
 70
     1
  9
$MAXACTVP
 70
    16
  9
$PINSBASE
 10
0.0
 20
0.0
 30
0.0
  9
$PLIMCHECK
 70
     0
  9
$PEXTMIN
 10
1.000000000000000E+20
 20
1.000000000000000E+20
 30
1.000000000000000E+20
  9
$PEXTMAX
 10
-1.000000000000000E+20
 20
-1.000000000000000E+20
 30
-1.000000000000000E+20
  9
$PLIMMIN
 10
0.0
 20
0.0
  9
$PLIMMAX
 10
420.0
 20
297.0
  9
$UNITMODE
 70
     0
  9
$VISRETAIN
 70
     0
  9
$PLINEGEN
 70
     0
  9
$PSLTSCALE
 70
     0
  9
$TREEDEPTH
 70
  3020
  9
$CMLSTYLE
  2
STANDARD
  9
$CMLJUST
 70
     0
  9
$CMLSCALE
 40
1.0
  9
$PROXYGRAPHICS
 70
     1
  9
$MEASUREMENT
 70
     1
  9
$CELWEIGHT
370
    -1
  9
$ENDCAPS
280
     0
  9
$JOINSTYLE
280
     0
  9
$LWDISPLAY
290
     0
  9
$INSUNITS
 70
     0
  9
$HYPERLINKBASE
  1

  9
$STYLESHEET
  1

  9
$XEDIT
290
     1
  9
$CEPSNTYPE
380
     0
  9
$PSTYLEMODE
290
     1
  9
$FINGERPRINTGUID
  2
{5A5D3176-18B0-4491-9451-25D668A43CEB}
  9
$VERSIONGUID
  2
{6C650D4A-BF5D-4BCA-B898-A7192A69716F}
  9
$EXTNAMES
290
     1
  9
$PSVPSCALE
 40
0.0
  9
$OLESTARTUP
290
     0
  0
ENDSEC
  0
SECTION
  2
CLASSES
  0
CLASS
  1
ACDBDICTIONARYWDFLT
  2
AcDbDictionaryWithDefault
  3
ObjectDBX Classes
 90
        0
280
     0
281
     0
  0
CLASS
  1
DICTIONARYVAR
  2
AcDbDictionaryVar
  3
ObjectDBX Classes
 90
        0
280
     0
281
     0
  0
CLASS
  1
ACDBPLACEHOLDER
  2
AcDbPlaceHolder
  3
ObjectDBX Classes
 90
        0
280
     0
281
     0
  0
CLASS
  1
LAYOUT
  2
AcDbLayout
  3
ObjectDBX Classes
 90
        0
280
     0
281
     0
  0
ENDSEC
  0
SECTION
  2
TABLES
  0
TABLE
  2
VPORT
  5
746D
330
0
100
AcDbSymbolTable
 70
     2
  0
VPORT
  5
19647
330
746D
100
AcDbSymbolTableRecord
100
AcDbViewportTableRecord
  2
*Active
 70
     0
 10
0.0
 20
0.0
 11
1.0
 21
1.0
 12
8223.761025238502
 22
5958.64559657468
 13
0.0
 23
0.0
 14
10.0
 24
10.0
 15
10.0
 25
10.0
 16
0.0
 26
0.0
 36
1.0
 17
0.0
 27
0.0
 37
0.0
 40
12026.02437485716
 41
1.627450980392156
 42
50.0
 43
0.0
 44
0.0
 50
0.0
 51
0.0
 71
     0
 72
     0
 73
     1
 74
     0
 75
     0
 76
     0
 77
     0
 78
     0
281
     0
 65
     1
110
0.0
120
0.0
130
0.0
111
1.0
121
0.0
131
0.0
112
0.0
122
1.0
132
0.0
 79
     0
146
0.0
  0
ENDTAB
  0
TABLE
  2
LTYPE
  5
746A
330
0
100
AcDbSymbolTable
 70
     3
  0
LTYPE
  5
7477
330
746A
100
AcDbSymbolTableRecord
100
AcDbLinetypeTableRecord
  2
BYBLOCK
 70
     0
  3

 72
    65
 73
     0
 40
0.0
  0
LTYPE
  5
7478
330
746A
100
AcDbSymbolTableRecord
100
AcDbLinetypeTableRecord
  2
BYLAYER
 70
     0
  3

 72
    65
 73
     0
 40
0.0
  0
LTYPE
  5
7479
330
746A
100
AcDbSymbolTableRecord
100
AcDbLinetypeTableRecord
  2
CONTINUOUS
 70
     0
  3
Solid line
 72
    65
 73
     0
 40
0.0
  0
LTYPE
  5
781A
330
746A
100
AcDbSymbolTableRecord
100
AcDbLinetypeTableRecord
  2
HIDDEN
 70
     0
  3
__ __ __ __ __ __ __ __ __ __ __ __ __ __ __ __
 72
    65
 73
     2
 40
0.375
 49
0.25
 74
     0
 49
-0.125
 74
     0
  0
LTYPE
  5
781B
330
746A
100
AcDbSymbolTableRecord
100
AcDbLinetypeTableRecord
  2
PHANTOM
 70
     0
  3
______  __  __  ______  __  __  ______  __  __ 
 72
    65
 73
     6
 40
2.5
 49
1.25
 74
     0
 49
-0.25
 74
     0
 49
0.25
 74
     0
 49
-0.25
 74
     0
 49
0.25
 74
     0
 49
-0.25
 74
     0
  0
ENDTAB
  0
TABLE
  2
LAYER
  5
7467
102
{ACAD_XDICTIONARY
360
17FF4
102
}
330
0
100
AcDbSymbolTable
 70
    10
  0
LAYER
  5
7474
330
7467
100
AcDbSymbolTableRecord
100
AcDbLayerTableRecord
  2
0
 70
     0
 62
     7
  6
CONTINUOUS
370
    -3
390
17ADC
  0
LAYER
  5
DEB3
330
7467
100
AcDbSymbolTableRecord
100
AcDbLayerTableRecord
  2
寸法
 70
     0
 62
     4
  6
CONTINUOUS
370
    -3
390
17ADC
  0
LAYER
  5
DEB4
330
7467
100
AcDbSymbolTableRecord
100
AcDbLayerTableRecord
  2
部品1
 70
     0
 62
     7
  6
CONTINUOUS
370
    -3
390
17ADC
  0
LAYER
  5
DEB5
330
7467
100
AcDbSymbolTableRecord
100
AcDbLayerTableRecord
  2
補助
 70
     0
 62
    -1
  6
CONTINUOUS
370
    -3
390
17ADC
  0
LAYER
  5
DEB6
330
7467
100
AcDbSymbolTableRecord
100
AcDbLayerTableRecord
  2
文字
 70
     0
 62
     7
  6
CONTINUOUS
370
    -3
390
17ADC
  0
LAYER
  5
F255
330
7467
100
AcDbSymbolTableRecord
100
AcDbLayerTableRecord
  2
DEFPOINTS
 70
     0
 62
     7
  6
CONTINUOUS
290
     0
370
    -3
390
17ADC
  0
LAYER
  5
10B54
330
7467
100
AcDbSymbolTableRecord
100
AcDbLayerTableRecord
  2
仕様書枠
 70
     0
 62
   230
  6
CONTINUOUS
370
    -3
390
17ADC
  0
LAYER
  5
11729
330
7467
100
AcDbSymbolTableRecord
100
AcDbLayerTableRecord
  2
Ｇ．Ｌ
 70
     0
 62
    30
  6
CONTINUOUS
370
    -3
390
17ADC
  0
LAYER
  5
1173F
330
7467
100
AcDbSymbolTableRecord
100
AcDbLayerTableRecord
  2
細線
 70
     0
 62
     5
  6
CONTINUOUS
370
    -3
390
17ADC
  0
LAYER
  5
142E2
330
7467
100
AcDbSymbolTableRecord
100
AcDbLayerTableRecord
  2
破線
 70
     0
 62
     2
  6
HIDDEN
370
    -3
390
17ADC
  0
ENDTAB
  0
TABLE
  2
STYLE
  5
7468
330
0
100
AcDbSymbolTable
 70
     4
  0
STYLE
  5
7475
330
7468
100
AcDbSymbolTableRecord
100
AcDbTextStyleTableRecord
  2
STANDARD
 70
     0
 40
0.0
 41
1.0
 50
0.0
 71
     0
 42
4.0
  3
txt
  4
C:\AutoCAD LT\bigfont.shx
  0
STYLE
  5
763C
330
7468
100
AcDbSymbolTableRecord
100
AcDbTextStyleTableRecord
  2
MSMINCHO
 70
     0
 40
0.0
 41
1.0
 50
0.0
 71
     0
 42
1.199999999999999
  3
C:\AutoCAD LT\msminch2.TTF
  4

  0
STYLE
  5
F706
330
7468
100
AcDbSymbolTableRecord
100
AcDbTextStyleTableRecord
  2
STYLE1
 70
     0
 40
0.0
 41
1.0
 50
0.0
 71
     0
 42
4.0
  3
isocp.shx
  4
bigfont.shx
  0
STYLE
  5
103BF
330
7468
100
AcDbSymbolTableRecord
100
AcDbTextStyleTableRecord
  2
STYLE2
 70
     0
 40
0.0
 41
1.0
 50
0.0
 71
     0
 42
100.0
  3
MS PGothic.ttf
  4

1001
ACAD
1000
MS PGothic
1071
    32818
  0
ENDTAB
  0
TABLE
  2
VIEW
  5
746B
330
0
100
AcDbSymbolTable
 70
     0
  0
ENDTAB
  0
TABLE
  2
UCS
  5
746C
330
0
100
AcDbSymbolTable
 70
     0
  0
ENDTAB
  0
TABLE
  2
APPID
  5
746E
330
0
100
AcDbSymbolTable
 70
     6
  0
APPID
  5
7476
330
746E
100
AcDbSymbolTableRecord
100
AcDbRegAppTableRecord
  2
ACAD
 70
     0
  0
APPID
  5
DEA9
330
746E
100
AcDbSymbolTableRecord
100
AcDbRegAppTableRecord
  2
CONTENTBLOCKICON
 70
     0
  0
APPID
  5
DEAA
330
746E
100
AcDbSymbolTableRecord
100
AcDbRegAppTableRecord
  2
CONTENTBLOCKDESCRIPTION
 70
     0
  0
APPID
  5
E71D
330
746E
100
AcDbSymbolTableRecord
100
AcDbRegAppTableRecord
  2
CONTENTTABDATA
 70
     0
  0
APPID
  5
E71E
330
746E
100
AcDbSymbolTableRecord
100
AcDbRegAppTableRecord
  2
CONTENTCURRENTTAB
 70
     0
  0
APPID
  5
F3BA
330
746E
100
AcDbSymbolTableRecord
100
AcDbRegAppTableRecord
  2
DRAWINGVARIABLESXDATA
 70
     0
  0
ENDTAB
  0
TABLE
  2
DIMSTYLE
  5
746F
330
0
100
AcDbSymbolTable
 70
     1
100
AcDbDimStyleTable
 71
     1
340
F71F
  0
DIMSTYLE
105
F71F
102
{ACAD_REACTORS
330
162CD
330
162CE
330
162CF
330
162D0
330
162DA
330
162E4
330
162E7
330
162EA
330
162EB
330
16301
330
16302
330
1631F
330
16320
330
16333
330
1659B
330
1659C
330
1659A
330
165E9
330
16667
330
166DD
330
16907
330
16913
330
182AC
330
182AD
330
182B0
330
182B1
330
182FA
330
18309
330
18317
330
18318
330
18319
330
1831D
330
1834E
330
1834F
330
18350
330
18E8F
330
18E92
330
191CC
330
191CD
330
191CE
102
}
330
746F
100
AcDbSymbolTableRecord
100
AcDbDimStyleTableRecord
  2
INABA_S40G
 70
     0
 40
40.0
 41
2.5
 42
0.5
 43
7.0
 44
1.5
 73
     0
 74
     0
 77
     3
 78
     8
140
3.0
141
0.0
143
0.0394
147
1.0
172
     1
173
     1
174
     1
178
     7
271
     1
340
F706
341
F770
343
F770
344
F770
  0
ENDTAB
  0
TABLE
  2
BLOCK_RECORD
  5
7466
330
0
100
AcDbSymbolTable
 70
    41
  0
BLOCK_RECORD
  5
747D
330
7466
100
AcDbSymbolTableRecord
100
AcDbBlockTableRecord
  2
*MODEL_SPACE
340
17AE1
  0
BLOCK_RECORD
  5
747A
330
7466
100
AcDbSymbolTableRecord
100
AcDbBlockTableRecord
  2
*PAPER_SPACE
340
17AE2
  0
BLOCK_RECORD
  5
F770
330
7466
100
AcDbSymbolTableRecord
100
AcDbBlockTableRecord
  2
_DOTSMALL
340
0
102
{BLKREFS
331
1779F
331
177A0
331
1641A
331
1641B
331
16427
331
16428
331
17787
331
17788
331
1662B
331
1662C
331
171E6
331
171E7
331
171C7
331
171C8
331
1646A
331
1646B
331
16479
331
1647A
331
16487
331
16488
331
16493
331
16494
331
171A6
331
171A7
331
165BE
331
165BF
331
165CD
331
165CE
331
16644
331
16645
331
188D4
331
188D5
331
188DD
331
188DE
331
188E6
331
188E7
331
188FB
331
188FC
331
1890F
331
18910
331
18922
331
18923
331
1892C
331
1892D
331
18940
331
18941
331
18949
331
1894A
331
18954
331
18955
331
1900A
331
1900B
331
19013
331
19014
331
19025
331
19026
331
1902E
331
1902F
331
19039
331
1903A
331
19042
331
19043
331
1904D
331
1904E
331
19058
331
19059
331
19061
331
19062
331
19305
331
19306
331
195E2
331
195E3
331
195EB
331
195EC
331
195FF
331
19600
331
1962A
331
1962B
331
19636
331
19637
102
}
  0
BLOCK_RECORD
  5
16338
330
7466
100
AcDbSymbolTableRecord
100
AcDbBlockTableRecord
  2
*D1
340
0
  0
BLOCK_RECORD
  5
16344
330
7466
100
AcDbSymbolTableRecord
100
AcDbBlockTableRecord
  2
*D2
340
0
  0
BLOCK_RECORD
  5
16352
330
7466
100
AcDbSymbolTableRecord
100
AcDbBlockTableRecord
  2
*D3
340
0
  0
BLOCK_RECORD
  5
16360
330
7466
100
AcDbSymbolTableRecord
100
AcDbBlockTableRecord
  2
*D4
340
0
  0
BLOCK_RECORD
  5
1636C
330
7466
100
AcDbSymbolTableRecord
100
AcDbBlockTableRecord
  2
*D5
340
0
  0
BLOCK_RECORD
  5
16384
330
7466
100
AcDbSymbolTableRecord
100
AcDbBlockTableRecord
  2
*D6
340
0
  0
BLOCK_RECORD
  5
1638F
330
7466
100
AcDbSymbolTableRecord
100
AcDbBlockTableRecord
  2
*D7
340
0
  0
BLOCK_RECORD
  5
1639B
330
7466
100
AcDbSymbolTableRecord
100
AcDbBlockTableRecord
  2
*D8
340
0
  0
BLOCK_RECORD
  5
163A9
330
7466
100
AcDbSymbolTableRecord
100
AcDbBlockTableRecord
  2
*D9
340
0
  0
BLOCK_RECORD
  5
163B8
330
7466
100
AcDbSymbolTableRecord
100
AcDbBlockTableRecord
  2
*D10
340
0
  0
BLOCK_RECORD
  5
163C7
330
7466
100
AcDbSymbolTableRecord
100
AcDbBlockTableRecord
  2
*D11
340
0
  0
BLOCK_RECORD
  5
163E1
330
7466
100
AcDbSymbolTableRecord
100
AcDbBlockTableRecord
  2
*D12
340
0
  0
BLOCK_RECORD
  5
163ED
330
7466
100
AcDbSymbolTableRecord
100
AcDbBlockTableRecord
  2
*D13
340
0
  0
BLOCK_RECORD
  5
163FB
330
7466
100
AcDbSymbolTableRecord
100
AcDbBlockTableRecord
  2
*D14
340
0
  0
BLOCK_RECORD
  5
1659E
330
7466
100
AcDbSymbolTableRecord
100
AcDbBlockTableRecord
  2
*D15
340
0
  0
BLOCK_RECORD
  5
165B5
330
7466
100
AcDbSymbolTableRecord
100
AcDbBlockTableRecord
  2
*D16
340
0
  0
BLOCK_RECORD
  5
165C4
330
7466
100
AcDbSymbolTableRecord
100
AcDbBlockTableRecord
  2
*D17
340
0
  0
BLOCK_RECORD
  5
165EA
330
7466
100
AcDbSymbolTableRecord
100
AcDbBlockTableRecord
  2
*D18
340
0
  0
BLOCK_RECORD
  5
166AD
330
7466
100
AcDbSymbolTableRecord
100
AcDbBlockTableRecord
  2
*D19
340
0
  0
BLOCK_RECORD
  5
166CF
330
7466
100
AcDbSymbolTableRecord
100
AcDbBlockTableRecord
  2
*D20
340
0
  0
BLOCK_RECORD
  5
168FB
330
7466
100
AcDbSymbolTableRecord
100
AcDbBlockTableRecord
  2
*D21
340
0
  0
BLOCK_RECORD
  5
16908
330
7466
100
AcDbSymbolTableRecord
100
AcDbBlockTableRecord
  2
*D22
340
0
  0
BLOCK_RECORD
  5
184F0
330
7466
100
AcDbSymbolTableRecord
100
AcDbBlockTableRecord
  2
*D23
340
0
  0
BLOCK_RECORD
  5
184FE
330
7466
100
AcDbSymbolTableRecord
100
AcDbBlockTableRecord
  2
*D24
340
0
  0
BLOCK_RECORD
  5
1850A
330
7466
100
AcDbSymbolTableRecord
100
AcDbBlockTableRecord
  2
*D25
340
0
  0
BLOCK_RECORD
  5
18518
330
7466
100
AcDbSymbolTableRecord
100
AcDbBlockTableRecord
  2
*D26
340
0
  0
BLOCK_RECORD
  5
18524
330
7466
100
AcDbSymbolTableRecord
100
AcDbBlockTableRecord
  2
*D27
340
0
  0
BLOCK_RECORD
  5
18531
330
7466
100
AcDbSymbolTableRecord
100
AcDbBlockTableRecord
  2
*D28
340
0
  0
BLOCK_RECORD
  5
1853E
330
7466
100
AcDbSymbolTableRecord
100
AcDbBlockTableRecord
  2
*D29
340
0
  0
BLOCK_RECORD
  5
1854A
330
7466
100
AcDbSymbolTableRecord
100
AcDbBlockTableRecord
  2
*D30
340
0
  0
BLOCK_RECORD
  5
18558
330
7466
100
AcDbSymbolTableRecord
100
AcDbBlockTableRecord
  2
*D31
340
0
  0
BLOCK_RECORD
  5
18564
330
7466
100
AcDbSymbolTableRecord
100
AcDbBlockTableRecord
  2
*D32
340
0
  0
BLOCK_RECORD
  5
1857F
330
7466
100
AcDbSymbolTableRecord
100
AcDbBlockTableRecord
  2
*D33
340
0
  0
BLOCK_RECORD
  5
1858B
330
7466
100
AcDbSymbolTableRecord
100
AcDbBlockTableRecord
  2
*D34
340
0
  0
BLOCK_RECORD
  5
18597
330
7466
100
AcDbSymbolTableRecord
100
AcDbBlockTableRecord
  2
*D35
340
0
  0
BLOCK_RECORD
  5
18F38
330
7466
100
AcDbSymbolTableRecord
100
AcDbBlockTableRecord
  2
*D36
340
0
  0
BLOCK_RECORD
  5
18F44
330
7466
100
AcDbSymbolTableRecord
100
AcDbBlockTableRecord
  2
*D37
340
0
  0
BLOCK_RECORD
  5
19237
330
7466
100
AcDbSymbolTableRecord
100
AcDbBlockTableRecord
  2
*D38
340
0
  0
BLOCK_RECORD
  5
19243
330
7466
100
AcDbSymbolTableRecord
100
AcDbBlockTableRecord
  2
*D39
340
0
  0
BLOCK_RECORD
  5
19251
330
7466
100
AcDbSymbolTableRecord
100
AcDbBlockTableRecord
  2
*D40
340
0
  0
ENDTAB
  0
ENDSEC
  0
SECTION
  2
BLOCKS
  0
BLOCK
  5
7489
330
747D
100
AcDbEntity
  8
0
100
AcDbBlockBegin
  2
*MODEL_SPACE
 70
     0
 10
0.0
 20
0.0
 30
0.0
  3
*MODEL_SPACE
  1

  0
ENDBLK
  5
748A
330
747D
100
AcDbEntity
  8
0
100
AcDbBlockEnd
  0
BLOCK
  5
7487
330
747A
100
AcDbEntity
 67
     1
  8
0
100
AcDbBlockBegin
  2
*PAPER_SPACE
 70
     0
 10
0.0
 20
0.0
 30
0.0
  3
*PAPER_SPACE
  1

  0
ENDBLK
  5
7488
330
747A
100
AcDbEntity
 67
     1
  8
0
100
AcDbBlockEnd
  0
BLOCK
  5
F771
330
F770
100
AcDbEntity
  8
0
 48
50.0
100
AcDbBlockBegin
  2
_DOTSMALL
 70
     0
 10
0.0
 20
0.0
 30
0.0
  3
_DOTSMALL
  1

  0
LWPOLYLINE
  5
F772
330
F770
100
AcDbEntity
  8
0
  6
ByBlock
 62
     0
 48
50.0
100
AcDbPolyline
 90
        2
 70
     1
 43
0.5
 10
-0.0625
 20
0.0
 42
1.0
 10
0.0625
 20
0.0
 42
1.0
  0
ENDBLK
  5
F776
330
F770
100
AcDbEntity
  8
0
 48
50.0
100
AcDbBlockEnd
  0
BLOCK
  5
1779B
330
16338
100
AcDbEntity
  8
0
 48
50.0
100
AcDbBlockBegin
  2
*D1
 70
     1
 10
0.0
 20
0.0
 30
0.0
  3
*D1
  1

  0
LINE
  5
1779C
330
16338
100
AcDbEntity
  8
0
  6
ByBlock
 62
     0
 48
50.0
100
AcDbLine
 10
8709.673057123664
 20
10137.49742454596
 30
0.0
 11
9397.099402858071
 21
10137.49742454596
 31
0.0
  0
LINE
  5
1779D
330
16338
100
AcDbEntity
  8
0
  6
ByBlock
 62
     0
 48
50.0
100
AcDbLine
 10
8709.673057123639
 20
7197.497424545952
 30
0.0
 11
9397.099402858071
 21
7197.497424545952
 31
0.0
  0
LINE
  5
1779E
330
16338
100
AcDbEntity
  8
0
  6
ByBlock
 62
     0
 48
50.0
100
AcDbLine
 10
9337.09940285807
 20
10137.49742454596
 30
0.0
 11
9337.09940285807
 21
7197.497424545952
 31
0.0
  0
INSERT
  5
1779F
330
16338
100
AcDbEntity
  8
0
  6
ByBlock
 62
     0
 48
50.0
100
AcDbBlockReference
  2
_DOTSMALL
 10
9337.09940285807
 20
10137.49742454596
 30
0.0
 41
100.0
 42
100.0
 43
100.0
 50
90.0
  0
INSERT
  5
177A0
330
16338
100
AcDbEntity
  8
0
  6
ByBlock
 62
     0
 48
50.0
100
AcDbBlockReference
  2
_DOTSMALL
 10
9337.09940285807
 20
7197.497424545952
 30
0.0
 41
100.0
 42
100.0
 43
100.0
 50
270.0
  0
MTEXT
  5
177A1
330
16338
100
AcDbEntity
  8
0
  6
ByBlock
 62
     7
 48
50.0
100
AcDbMText
 10
9237.087591834448
 20
8667.49742454596
 30
0.0
 40
120.0
 41
0.0
 71
     5
 72
     1
  1
\A1;7X420=2940
  7
STYLE1
 11
0.0000000000000001
 21
1.0
 31
0.0
 73
     1
 44
1.0
1001
ACAD
1000
MTEXTBEGIN
1070
    73
1070
     1
1070
    44
1040
1.0
1070
    74
1070
     0
1000
MTEXTEND
  0
POINT
  5
177A2
330
16338
100
AcDbEntity
  8
DEFPOINTS
  6
ByBlock
 62
     0
 48
50.0
100
AcDbPoint
 10
8689.673057123664
 20
10137.49742454596
 30
0.0
  0
POINT
  5
177A3
330
16338
100
AcDbEntity
  8
DEFPOINTS
  6
ByBlock
 62
     0
 48
50.0
100
AcDbPoint
 10
8689.67305712364
 20
7197.497424545952
 30
0.0
  0
POINT
  5
177A4
330
16338
100
AcDbEntity
  8
DEFPOINTS
  6
ByBlock
 62
     0
 48
50.0
100
AcDbPoint
 10
9337.09940285807
 20
7197.497424545952
 30
0.0
  0
ENDBLK
  5
177A5
330
16338
100
AcDbEntity
  8
0
 48
50.0
100
AcDbBlockEnd
  0
BLOCK
  5
16414
330
16344
100
AcDbEntity
  8
0
 48
50.0
100
AcDbBlockBegin
  2
*D2
 70
     1
 10
0.0
 20
0.0
 30
0.0
  3
*D2
  1

  0
LINE
  5
16415
330
16344
100
AcDbEntity
  8
0
  6
ByBlock
 62
     0
 48
50.0
100
AcDbLine
 10
7394.673057123639
 20
7037.497424545953
 30
0.0
 11
8082.099402858048
 21
7037.497424545951
 31
0.0
  0
LINE
  5
16416
330
16344
100
AcDbEntity
  8
0
  6
ByBlock
 62
     0
 48
50.0
100
AcDbLine
 10
7394.673057123639
 20
6982.497424545956
 30
0.0
 11
8082.099402858048
 21
6982.497424545956
 31
0.0
  0
LINE
  5
16417
330
16344
100
AcDbEntity
  8
0
  6
ByBlock
 62
     0
 48
50.0
100
AcDbLine
 10
8022.099402858048
 20
7037.497424545951
 30
0.0
 11
8022.099402858048
 21
7137.497424545951
 31
0.0
  0
LINE
  5
16418
330
16344
100
AcDbEntity
  8
0
  6
ByBlock
 62
     0
 48
50.0
100
AcDbLine
 10
8022.099402858048
 20
6982.497424545956
 30
0.0
 11
8022.099402858048
 21
6496.150676266855
 31
0.0
  0
LINE
  5
16419
330
16344
100
AcDbEntity
  8
0
  6
ByBlock
 62
     0
 48
50.0
100
AcDbLine
 10
8022.099402858048
 20
7037.497424545951
 30
0.0
 11
8022.099402858048
 21
6982.497424545956
 31
0.0
  0
INSERT
  5
1641A
330
16344
100
AcDbEntity
  8
0
  6
ByBlock
 62
     0
 48
50.0
100
AcDbBlockReference
  2
_DOTSMALL
 10
8022.099402858048
 20
7037.497424545951
 30
0.0
 41
100.0
 42
100.0
 43
100.0
 50
270.0
  0
INSERT
  5
1641B
330
16344
100
AcDbEntity
  8
0
  6
ByBlock
 62
     0
 48
50.0
100
AcDbBlockReference
  2
_DOTSMALL
 10
8022.099402858048
 20
6982.497424545956
 30
0.0
 41
100.0
 42
100.0
 43
100.0
 50
90.0
  0
MTEXT
  5
1641C
330
16344
100
AcDbEntity
  8
0
  6
ByBlock
 62
     7
 48
50.0
100
AcDbMText
 10
7922.099402858048
 20
6604.635957641093
 30
0.0
 40
120.0
 41
0.0
 71
     5
 72
     1
  1
\A1;55
  7
STYLE1
 11
0.0000000000000001
 21
1.0
 31
0.0
 73
     1
 44
1.0
1001
ACAD
1000
MTEXTBEGIN
1070
    73
1070
     1
1070
    44
1040
1.0
1070
    74
1070
     0
1000
MTEXTEND
  0
POINT
  5
1641D
330
16344
100
AcDbEntity
  8
DEFPOINTS
  6
ByBlock
 62
     0
 48
50.0
100
AcDbPoint
 10
7374.673057123638
 20
7037.497424545953
 30
0.0
  0
POINT
  5
1641E
330
16344
100
AcDbEntity
  8
DEFPOINTS
  6
ByBlock
 62
     0
 48
50.0
100
AcDbPoint
 10
7374.673057123638
 20
6982.497424545956
 30
0.0
  0
POINT
  5
1641F
330
16344
100
AcDbEntity
  8
DEFPOINTS
  6
ByBlock
 62
     0
 48
50.0
100
AcDbPoint
 10
8022.099402858048
 20
6982.497424545956
 30
0.0
  0
ENDBLK
  5
16420
330
16344
100
AcDbEntity
  8
0
 48
50.0
100
AcDbBlockEnd
  0
BLOCK
  5
16421
330
16352
100
AcDbEntity
  8
0
 48
50.0
100
AcDbBlockBegin
  2
*D3
 70
     1
 10
0.0
 20
0.0
 30
0.0
  3
*D3
  1

  0
LINE
  5
16422
330
16352
100
AcDbEntity
  8
0
  6
ByBlock
 62
     0
 48
50.0
100
AcDbLine
 10
7394.673057123664
 20
10032.49742454596
 30
0.0
 11
8082.099402858075
 21
10032.49742454596
 31
0.0
  0
LINE
  5
16423
330
16352
100
AcDbEntity
  8
0
  6
ByBlock
 62
     0
 48
50.0
100
AcDbLine
 10
7394.673057123664
 20
9977.497424545967
 30
0.0
 11
8082.099402858075
 21
9977.497424545967
 31
0.0
  0
LINE
  5
16424
330
16352
100
AcDbEntity
  8
0
  6
ByBlock
 62
     0
 48
50.0
100
AcDbLine
 10
8022.099402858072
 20
9977.497424545967
 30
0.0
 11
8022.099402858072
 21
9877.497424545968
 31
0.0
  0
LINE
  5
16425
330
16352
100
AcDbEntity
  8
0
  6
ByBlock
 62
     0
 48
50.0
100
AcDbLine
 10
8022.099402858072
 20
10032.49742454596
 30
0.0
 11
8022.099402858072
 21
10449.46798729444
 31
0.0
  0
LINE
  5
16426
330
16352
100
AcDbEntity
  8
0
  6
ByBlock
 62
     0
 48
50.0
100
AcDbLine
 10
8022.099402858072
 20
9977.497424545967
 30
0.0
 11
8022.099402858072
 21
10032.49742454596
 31
0.0
  0
INSERT
  5
16427
330
16352
100
AcDbEntity
  8
0
  6
ByBlock
 62
     0
 48
50.0
100
AcDbBlockReference
  2
_DOTSMALL
 10
8022.099402858072
 20
9977.497424545967
 30
0.0
 41
100.0
 42
100.0
 43
100.0
 50
90.0
  0
INSERT
  5
16428
330
16352
100
AcDbEntity
  8
0
  6
ByBlock
 62
     0
 48
50.0
100
AcDbBlockReference
  2
_DOTSMALL
 10
8022.099402858072
 20
10032.49742454596
 30
0.0
 41
100.0
 42
100.0
 43
100.0
 50
270.0
  0
MTEXT
  5
16429
330
16352
100
AcDbEntity
  8
0
  6
ByBlock
 62
     7
 48
50.0
100
AcDbMText
 10
7922.099402858073
 20
10340.9827059202
 30
0.0
 40
120.0
 41
0.0
 71
     5
 72
     1
  1
\A1;55
  7
STYLE1
 11
0.0000000000000001
 21
1.0
 31
0.0
 73
     1
 44
1.0
1001
ACAD
1000
MTEXTBEGIN
1070
    73
1070
     1
1070
    44
1040
1.0
1070
    74
1070
     0
1000
MTEXTEND
  0
POINT
  5
1642A
330
16352
100
AcDbEntity
  8
DEFPOINTS
  6
ByBlock
 62
     0
 48
50.0
100
AcDbPoint
 10
7374.673057123664
 20
10032.49742454596
 30
0.0
  0
POINT
  5
1642B
330
16352
100
AcDbEntity
  8
DEFPOINTS
  6
ByBlock
 62
     0
 48
50.0
100
AcDbPoint
 10
7374.673057123664
 20
9977.497424545967
 30
0.0
  0
POINT
  5
1642C
330
16352
100
AcDbEntity
  8
DEFPOINTS
  6
ByBlock
 62
     0
 48
50.0
100
AcDbPoint
 10
8022.099402858072
 20
9977.497424545967
 30
0.0
  0
ENDBLK
  5
1642D
330
16352
100
AcDbEntity
  8
0
 48
50.0
100
AcDbBlockEnd
  0
BLOCK
  5
17783
330
16360
100
AcDbEntity
  8
0
 48
50.0
100
AcDbBlockBegin
  2
*D4
 70
     1
 10
0.0
 20
0.0
 30
0.0
  3
*D4
  1

  0
LINE
  5
17784
330
16360
100
AcDbEntity
  8
0
  6
ByBlock
 62
     0
 48
50.0
100
AcDbLine
 10
8709.673057123664
 20
10192.49742454596
 30
0.0
 11
9762.206344597709
 21
10192.49742454596
 31
0.0
  0
LINE
  5
17785
330
16360
100
AcDbEntity
  8
0
  6
ByBlock
 62
     0
 48
50.0
100
AcDbLine
 10
8709.673057123639
 20
7142.497424545957
 30
0.0
 11
9762.206344597709
 21
7142.497424545957
 31
0.0
  0
LINE
  5
17786
330
16360
100
AcDbEntity
  8
0
  6
ByBlock
 62
     0
 48
50.0
100
AcDbLine
 10
9702.20634459771
 20
10192.49742454596
 30
0.0
 11
9702.20634459771
 21
7142.497424545957
 31
0.0
  0
INSERT
  5
17787
330
16360
100
AcDbEntity
  8
0
  6
ByBlock
 62
     0
 48
50.0
100
AcDbBlockReference
  2
_DOTSMALL
 10
9702.20634459771
 20
10192.49742454596
 30
0.0
 41
100.0
 42
100.0
 43
100.0
 50
90.0
  0
INSERT
  5
17788
330
16360
100
AcDbEntity
  8
0
  6
ByBlock
 62
     0
 48
50.0
100
AcDbBlockReference
  2
_DOTSMALL
 10
9702.20634459771
 20
7142.497424545957
 30
0.0
 41
100.0
 42
100.0
 43
100.0
 50
270.0
  0
MTEXT
  5
17789
330
16360
100
AcDbEntity
  8
0
  6
ByBlock
 62
     7
 48
50.0
100
AcDbMText
 10
9602.206344597711
 20
8667.49742454596
 30
0.0
 40
120.0
 41
0.0
 71
     5
 72
     1
  1
\A1;3050
  7
STYLE1
 11
0.0000000000000001
 21
1.0
 31
0.0
 73
     1
 44
1.0
1001
ACAD
1000
MTEXTBEGIN
1070
    73
1070
     1
1070
    44
1040
1.0
1070
    74
1070
     0
1000
MTEXTEND
  0
POINT
  5
1778A
330
16360
100
AcDbEntity
  8
DEFPOINTS
  6
ByBlock
 62
     0
 48
50.0
100
AcDbPoint
 10
8689.673057123664
 20
10192.49742454596
 30
0.0
  0
POINT
  5
1778B
330
16360
100
AcDbEntity
  8
DEFPOINTS
  6
ByBlock
 62
     0
 48
50.0
100
AcDbPoint
 10
8689.67305712364
 20
7142.497424545957
 30
0.0
  0
POINT
  5
1778C
330
16360
100
AcDbEntity
  8
DEFPOINTS
  6
ByBlock
 62
     0
 48
50.0
100
AcDbPoint
 10
9702.20634459771
 20
7142.497424545957
 30
0.0
  0
ENDBLK
  5
1778D
330
16360
100
AcDbEntity
  8
0
 48
50.0
100
AcDbBlockEnd
  0
BLOCK
  5
16627
330
1636C
100
AcDbEntity
  8
0
 48
50.0
100
AcDbBlockBegin
  2
*D5
 70
     1
 10
0.0
 20
0.0
 30
0.0
  3
*D5
  1

  0
LINE
  5
16628
330
1636C
100
AcDbEntity
  8
0
  6
ByBlock
 62
     0
 48
50.0
100
AcDbLine
 10
8681.173057123663
 20
8997.138440697341
 30
0.0
 11
9076.530782985688
 21
8891.202657331207
 31
0.0
  0
LINE
  5
16629
330
1636C
100
AcDbEntity
  8
0
  6
ByBlock
 62
     0
 48
50.0
100
AcDbLine
 10
8681.173057123663
 20
8547.138440697345
 30
0.0
 11
9076.530782985688
 21
8441.20265733121
 31
0.0
  0
LINE
  5
1662A
330
1636C
100
AcDbEntity
  8
0
  6
ByBlock
 62
     0
 48
50.0
100
AcDbLine
 10
9016.530782985688
 20
8907.279608877074
 30
0.0
 11
9016.530782985688
 21
8457.279608877078
 31
0.0
  0
INSERT
  5
1662B
330
1636C
100
AcDbEntity
  8
0
  6
ByBlock
 62
     0
 48
50.0
100
AcDbBlockReference
  2
_DOTSMALL
 10
9016.530782985688
 20
8907.279608877074
 30
0.0
 41
100.0
 42
100.0
 43
100.0
 50
90.0
  0
INSERT
  5
1662C
330
1636C
100
AcDbEntity
  8
0
  6
ByBlock
 62
     0
 48
50.0
100
AcDbBlockReference
  2
_DOTSMALL
 10
9016.530782985688
 20
8457.279608877078
 30
0.0
 41
100.0
 42
100.0
 43
100.0
 50
270.0
  0
MTEXT
  5
1662D
330
1636C
100
AcDbEntity
  8
0
  6
ByBlock
 62
     7
 48
50.0
100
AcDbMText
 10
8916.530782985688
 20
8682.279608877076
 30
0.0
 40
120.0
 41
0.0
 71
     5
 72
     1
  1
\A1;450
  7
STYLE1
 11
0.0000000000000001
 21
1.0
 31
0.0
 73
     1
 44
1.0
1001
ACAD
1000
MTEXTBEGIN
1070
    73
1070
     1
1070
    44
1040
1.0
1070
    74
1070
     0
1000
MTEXTEND
  0
POINT
  5
1662E
330
1636C
100
AcDbEntity
  8
DEFPOINTS
  6
ByBlock
 62
     0
 48
50.0
100
AcDbPoint
 10
8661.173057123663
 20
9002.497424545962
 30
0.0
  0
POINT
  5
1662F
330
1636C
100
AcDbEntity
  8
DEFPOINTS
  6
ByBlock
 62
     0
 48
50.0
100
AcDbPoint
 10
8661.173057123663
 20
8552.497424545967
 30
0.0
  0
POINT
  5
16630
330
1636C
100
AcDbEntity
  8
DEFPOINTS
  6
ByBlock
 62
     0
 48
50.0
100
AcDbPoint
 10
9016.530782985688
 20
8457.279608877078
 30
0.0
  0
ENDBLK
  5
16631
330
1636C
100
AcDbEntity
  8
0
 48
50.0
100
AcDbBlockEnd
  0
BLOCK
  5
171E3
330
16384
100
AcDbEntity
  8
0
 48
50.0
100
AcDbBlockBegin
  2
*D6
 70
     1
 10
0.0
 20
0.0
 30
0.0
  3
*D6
  1

  0
LINE
  5
171E4
330
16384
100
AcDbEntity
  8
0
  6
ByBlock
 62
     0
 48
50.0
100
AcDbLine
 10
5742.673057123656
 20
7148.497424545865
 30
0.0
 11
5742.673057123656
 21
6548.0666537797
 31
0.0
  0
LINE
  5
171E5
330
16384
100
AcDbEntity
  8
0
  6
ByBlock
 62
     0
 48
50.0
100
AcDbLine
 10
8586.673057123638
 20
6608.0666537797
 30
0.0
 11
5742.673057123656
 21
6608.0666537797
 31
0.0
  0
INSERT
  5
171E6
330
16384
100
AcDbEntity
  8
0
  6
ByBlock
 62
     0
 48
50.0
100
AcDbBlockReference
  2
_DOTSMALL
 10
8586.673057123638
 20
6608.0666537797
 30
0.0
 41
100.0
 42
100.0
 43
100.0
  0
INSERT
  5
171E7
330
16384
100
AcDbEntity
  8
0
  6
ByBlock
 62
     0
 48
50.0
100
AcDbBlockReference
  2
_DOTSMALL
 10
5742.673057123656
 20
6608.0666537797
 30
0.0
 41
100.0
 42
100.0
 43
100.0
 50
180.0
  0
MTEXT
  5
171E8
330
16384
100
AcDbEntity
  8
0
  6
ByBlock
 62
     7
 48
50.0
100
AcDbMText
 10
7164.673057123647
 20
6708.078464803323
 30
0.0
 40
120.0
 41
0.0
 71
     5
 72
     1
  1
\A1;有効開口部間口 2844
  7
STYLE1
 73
     1
 44
1.0
1001
ACAD
1000
MTEXTBEGIN
1070
    73
1070
     1
1070
    44
1040
1.0
1070
    74
1070
     0
1000
MTEXTEND
  0
POINT
  5
171E9
330
16384
100
AcDbEntity
  8
DEFPOINTS
  6
ByBlock
 62
     0
 48
50.0
100
AcDbPoint
 10
8586.673057123638
 20
7168.497424545865
 30
0.0
  0
POINT
  5
171EA
330
16384
100
AcDbEntity
  8
DEFPOINTS
  6
ByBlock
 62
     0
 48
50.0
100
AcDbPoint
 10
5742.673057123656
 20
7168.497424545865
 30
0.0
  0
POINT
  5
171EB
330
16384
100
AcDbEntity
  8
DEFPOINTS
  6
ByBlock
 62
     0
 48
50.0
100
AcDbPoint
 10
5742.673057123656
 20
6608.0666537797
 30
0.0
  0
ENDBLK
  5
171EC
330
16384
100
AcDbEntity
  8
0
 48
50.0
100
AcDbBlockEnd
  0
BLOCK
  5
171C3
330
1638F
100
AcDbEntity
  8
0
 48
50.0
100
AcDbBlockBegin
  2
*D7
 70
     1
 10
0.0
 20
0.0
 30
0.0
  3
*D7
  1

  0
LINE
  5
171C4
330
1638F
100
AcDbEntity
  8
0
  6
ByBlock
 62
     0
 48
50.0
100
AcDbLine
 10
2589.673057123657
 20
7122.497424545861
 30
0.0
 11
2589.673057123657
 21
6101.893658188827
 31
0.0
  0
LINE
  5
171C5
330
1638F
100
AcDbEntity
  8
0
  6
ByBlock
 62
     0
 48
50.0
100
AcDbLine
 10
8689.673057123627
 20
7122.497424545956
 30
0.0
 11
8689.673057123627
 21
6101.893658188827
 31
0.0
  0
LINE
  5
171C6
330
1638F
100
AcDbEntity
  8
0
  6
ByBlock
 62
     0
 48
50.0
100
AcDbLine
 10
2589.673057123657
 20
6161.893658188827
 30
0.0
 11
8689.673057123627
 21
6161.893658188827
 31
0.0
  0
INSERT
  5
171C7
330
1638F
100
AcDbEntity
  8
0
  6
ByBlock
 62
     0
 48
50.0
100
AcDbBlockReference
  2
_DOTSMALL
 10
2589.673057123657
 20
6161.893658188827
 30
0.0
 41
100.0
 42
100.0
 43
100.0
 50
180.0
  0
INSERT
  5
171C8
330
1638F
100
AcDbEntity
  8
0
  6
ByBlock
 62
     0
 48
50.0
100
AcDbBlockReference
  2
_DOTSMALL
 10
8689.673057123627
 20
6161.893658188827
 30
0.0
 41
100.0
 42
100.0
 43
100.0
  0
MTEXT
  5
171C9
330
1638F
100
AcDbEntity
  8
0
  6
ByBlock
 62
     7
 48
50.0
100
AcDbMText
 10
5639.673057123642
 20
6261.893658188826
 30
0.0
 40
120.0
 41
0.0
 71
     5
 72
     1
  1
\A1;6100
  7
STYLE1
 73
     1
 44
1.0
1001
ACAD
1000
MTEXTBEGIN
1070
    73
1070
     1
1070
    44
1040
1.0
1070
    74
1070
     0
1000
MTEXTEND
  0
POINT
  5
171CA
330
1638F
100
AcDbEntity
  8
DEFPOINTS
  6
ByBlock
 62
     0
 48
50.0
100
AcDbPoint
 10
2589.673057123657
 20
7142.497424545862
 30
0.0
  0
POINT
  5
171CB
330
1638F
100
AcDbEntity
  8
DEFPOINTS
  6
ByBlock
 62
     0
 48
50.0
100
AcDbPoint
 10
8689.673057123627
 20
7142.497424545957
 30
0.0
  0
POINT
  5
171CC
330
1638F
100
AcDbEntity
  8
DEFPOINTS
  6
ByBlock
 62
     0
 48
50.0
100
AcDbPoint
 10
8689.673057123627
 20
6161.893658188827
 30
0.0
  0
ENDBLK
  5
171CD
330
1638F
100
AcDbEntity
  8
0
 48
50.0
100
AcDbBlockEnd
  0
BLOCK
  5
16464
330
1639B
100
AcDbEntity
  8
0
 48
50.0
100
AcDbBlockBegin
  2
*D8
 70
     1
 10
0.0
 20
0.0
 30
0.0
  3
*D8
  1

  0
LINE
  5
16465
330
1639B
100
AcDbEntity
  8
0
  6
ByBlock
 62
     0
 48
50.0
100
AcDbLine
 10
4799.673057123653
 20
6962.497424545865
 30
0.0
 11
4799.673057123653
 21
6388.0666537797
 31
0.0
  0
LINE
  5
16466
330
1639B
100
AcDbEntity
  8
0
  6
ByBlock
 62
     0
 48
50.0
100
AcDbLine
 10
4744.673057123656
 20
6962.497424545862
 30
0.0
 11
4744.673057123656
 21
6388.0666537797
 31
0.0
  0
LINE
  5
16467
330
1639B
100
AcDbEntity
  8
0
  6
ByBlock
 62
     0
 48
50.0
100
AcDbLine
 10
4799.673057123653
 20
6448.066653779701
 30
0.0
 11
4899.673057123653
 21
6448.066653779701
 31
0.0
  0
LINE
  5
16468
330
1639B
100
AcDbEntity
  8
0
  6
ByBlock
 62
     0
 48
50.0
100
AcDbLine
 10
4744.673057123656
 20
6448.066653779701
 30
0.0
 11
4327.70249437518
 21
6448.066653779701
 31
0.0
  0
LINE
  5
16469
330
1639B
100
AcDbEntity
  8
0
  6
ByBlock
 62
     0
 48
50.0
100
AcDbLine
 10
4799.673057123653
 20
6448.066653779701
 30
0.0
 11
4744.673057123656
 21
6448.066653779701
 31
0.0
  0
INSERT
  5
1646A
330
1639B
100
AcDbEntity
  8
0
  6
ByBlock
 62
     0
 48
50.0
100
AcDbBlockReference
  2
_DOTSMALL
 10
4799.673057123653
 20
6448.066653779701
 30
0.0
 41
100.0
 42
100.0
 43
100.0
 50
180.0
  0
INSERT
  5
1646B
330
1639B
100
AcDbEntity
  8
0
  6
ByBlock
 62
     0
 48
50.0
100
AcDbBlockReference
  2
_DOTSMALL
 10
4744.673057123656
 20
6448.066653779701
 30
0.0
 41
100.0
 42
100.0
 43
100.0
  0
MTEXT
  5
1646C
330
1639B
100
AcDbEntity
  8
0
  6
ByBlock
 62
     7
 48
50.0
100
AcDbMText
 10
4436.187775749418
 20
6548.0666537797
 30
0.0
 40
120.0
 41
0.0
 71
     5
 72
     1
  1
\A1;55
  7
STYLE1
 73
     1
 44
1.0
1001
ACAD
1000
MTEXTBEGIN
1070
    73
1070
     1
1070
    44
1040
1.0
1070
    74
1070
     0
1000
MTEXTEND
  0
POINT
  5
1646D
330
1639B
100
AcDbEntity
  8
DEFPOINTS
  6
ByBlock
 62
     0
 48
50.0
100
AcDbPoint
 10
4799.673057123653
 20
6982.497424545865
 30
0.0
  0
POINT
  5
1646E
330
1639B
100
AcDbEntity
  8
DEFPOINTS
  6
ByBlock
 62
     0
 48
50.0
100
AcDbPoint
 10
4744.673057123656
 20
6982.497424545861
 30
0.0
  0
POINT
  5
1646F
330
1639B
100
AcDbEntity
  8
DEFPOINTS
  6
ByBlock
 62
     0
 48
50.0
100
AcDbPoint
 10
4744.673057123656
 20
6448.066653779701
 30
0.0
  0
ENDBLK
  5
16470
330
1639B
100
AcDbEntity
  8
0
 48
50.0
100
AcDbBlockEnd
  0
BLOCK
  5
16471
330
163A9
100
AcDbEntity
  8
0
 48
50.0
100
AcDbBlockBegin
  2
*D9
 70
     1
 10
0.0
 20
0.0
 30
0.0
  3
*D9
  1

  0
LINE
  5
16472
330
163A9
100
AcDbEntity
  8
0
  6
ByBlock
 62
     0
 48
50.0
100
AcDbLine
 10
4847.673057123657
 20
6988.497424545865
 30
0.0
 11
4847.673057123657
 21
6388.0666537797
 31
0.0
  0
LINE
  5
16473
330
163A9
100
AcDbEntity
  8
0
  6
ByBlock
 62
     0
 48
50.0
100
AcDbLine
 10
4799.673057123653
 20
6962.497424545865
 30
0.0
 11
4799.673057123653
 21
6388.0666537797
 31
0.0
  0
LINE
  5
16474
330
163A9
100
AcDbEntity
  8
0
  6
ByBlock
 62
     0
 48
50.0
100
AcDbLine
 10
4847.673057123657
 20
6448.066653779701
 30
0.0
 11
4947.673057123656
 21
6448.066653779701
 31
0.0
  0
LINE
  5
16475
330
163A9
100
AcDbEntity
  8
0
  6
ByBlock
 62
     0
 48
50.0
100
AcDbLine
 10
4799.673057123653
 20
6448.066653779701
 30
0.0
 11
4699.673057123653
 21
6448.066653779701
 31
0.0
  0
MTEXT
  5
16476
330
163A9
100
AcDbEntity
  8
0
  6
ByBlock
 62
     7
 48
50.0
100
AcDbMText
 10
4960.575028123714
 20
6548.0666537797
 30
0.0
 40
120.0
 41
0.0
 71
     5
 72
     1
  1
\A1;48
  7
STYLE1
 73
     1
 44
1.0
1001
ACAD
1000
MTEXTBEGIN
1070
    73
1070
     1
1070
    44
1040
1.0
1070
    74
1070
     0
1000
MTEXTEND
  0
LINE
  5
16477
330
163A9
100
AcDbEntity
  8
0
  6
ByBlock
 62
     0
 48
50.0
100
AcDbLine
 10
4847.673057123657
 20
6448.066653779701
 30
0.0
 11
4799.673057123653
 21
6448.066653779701
 31
0.0
  0
LINE
  5
16478
330
163A9
100
AcDbEntity
  8
0
  6
ByBlock
 62
     0
 48
50.0
100
AcDbLine
 10
4847.673057123657
 20
6448.066653779701
 30
0.0
 11
4799.673057123653
 21
6448.066653779701
 31
0.0
  0
INSERT
  5
16479
330
163A9
100
AcDbEntity
  8
0
  6
ByBlock
 62
     0
 48
50.0
100
AcDbBlockReference
  2
_DOTSMALL
 10
4847.673057123657
 20
6448.066653779701
 30
0.0
 41
100.0
 42
100.0
 43
100.0
 50
180.0
  0
INSERT
  5
1647A
330
163A9
100
AcDbEntity
  8
0
  6
ByBlock
 62
     0
 48
50.0
100
AcDbBlockReference
  2
_DOTSMALL
 10
4799.673057123653
 20
6448.066653779701
 30
0.0
 41
100.0
 42
100.0
 43
100.0
  0
POINT
  5
1647B
330
163A9
100
AcDbEntity
  8
DEFPOINTS
  6
ByBlock
 62
     0
 48
50.0
100
AcDbPoint
 10
4847.673057123657
 20
7008.497424545864
 30
0.0
  0
POINT
  5
1647C
330
163A9
100
AcDbEntity
  8
DEFPOINTS
  6
ByBlock
 62
     0
 48
50.0
100
AcDbPoint
 10
4799.673057123653
 20
6982.497424545865
 30
0.0
  0
POINT
  5
1647D
330
163A9
100
AcDbEntity
  8
DEFPOINTS
  6
ByBlock
 62
     0
 48
50.0
100
AcDbPoint
 10
4799.673057123653
 20
6448.066653779701
 30
0.0
  0
ENDBLK
  5
1647E
330
163A9
100
AcDbEntity
  8
0
 48
50.0
100
AcDbBlockEnd
  0
BLOCK
  5
1647F
330
163B8
100
AcDbEntity
  8
0
 48
50.0
100
AcDbBlockBegin
  2
*D10
 70
     1
 10
0.0
 20
0.0
 30
0.0
  3
*D10
  1

  0
LINE
  5
16480
330
163B8
100
AcDbEntity
  8
0
  6
ByBlock
 62
     0
 48
50.0
100
AcDbLine
 10
7319.67305712364
 20
6962.497424545952
 30
0.0
 11
7319.67305712364
 21
6388.0666537797
 31
0.0
  0
LINE
  5
16481
330
163B8
100
AcDbEntity
  8
0
  6
ByBlock
 62
     0
 48
50.0
100
AcDbLine
 10
7271.673057123638
 20
6988.497424545865
 30
0.0
 11
7271.673057123638
 21
6388.0666537797
 31
0.0
  0
LINE
  5
16482
330
163B8
100
AcDbEntity
  8
0
  6
ByBlock
 62
     0
 48
50.0
100
AcDbLine
 10
7319.67305712364
 20
6448.066653779701
 30
0.0
 11
7419.67305712364
 21
6448.066653779701
 31
0.0
  0
LINE
  5
16483
330
163B8
100
AcDbEntity
  8
0
  6
ByBlock
 62
     0
 48
50.0
100
AcDbLine
 10
7271.673057123638
 20
6448.066653779701
 30
0.0
 11
7171.673057123638
 21
6448.066653779701
 31
0.0
  0
MTEXT
  5
16484
330
163B8
100
AcDbEntity
  8
0
  6
ByBlock
 62
     7
 48
50.0
100
AcDbMText
 10
7160.710159474891
 20
6548.0666537797
 30
0.0
 40
120.0
 41
0.0
 71
     5
 72
     1
  1
\A1;48
  7
STYLE1
 73
     1
 44
1.0
1001
ACAD
1000
MTEXTBEGIN
1070
    73
1070
     1
1070
    44
1040
1.0
1070
    74
1070
     0
1000
MTEXTEND
  0
LINE
  5
16485
330
163B8
100
AcDbEntity
  8
0
  6
ByBlock
 62
     0
 48
50.0
100
AcDbLine
 10
7319.67305712364
 20
6448.066653779701
 30
0.0
 11
7271.673057123638
 21
6448.066653779701
 31
0.0
  0
LINE
  5
16486
330
163B8
100
AcDbEntity
  8
0
  6
ByBlock
 62
     0
 48
50.0
100
AcDbLine
 10
7319.67305712364
 20
6448.066653779701
 30
0.0
 11
7271.673057123638
 21
6448.066653779701
 31
0.0
  0
INSERT
  5
16487
330
163B8
100
AcDbEntity
  8
0
  6
ByBlock
 62
     0
 48
50.0
100
AcDbBlockReference
  2
_DOTSMALL
 10
7319.67305712364
 20
6448.066653779701
 30
0.0
 41
100.0
 42
100.0
 43
100.0
 50
180.0
  0
INSERT
  5
16488
330
163B8
100
AcDbEntity
  8
0
  6
ByBlock
 62
     0
 48
50.0
100
AcDbBlockReference
  2
_DOTSMALL
 10
7271.673057123638
 20
6448.066653779701
 30
0.0
 41
100.0
 42
100.0
 43
100.0
  0
POINT
  5
16489
330
163B8
100
AcDbEntity
  8
DEFPOINTS
  6
ByBlock
 62
     0
 48
50.0
100
AcDbPoint
 10
7319.67305712364
 20
6982.497424545953
 30
0.0
  0
POINT
  5
1648A
330
163B8
100
AcDbEntity
  8
DEFPOINTS
  6
ByBlock
 62
     0
 48
50.0
100
AcDbPoint
 10
7271.673057123638
 20
7008.497424545865
 30
0.0
  0
POINT
  5
1648B
330
163B8
100
AcDbEntity
  8
DEFPOINTS
  6
ByBlock
 62
     0
 48
50.0
100
AcDbPoint
 10
7271.673057123638
 20
6448.066653779701
 30
0.0
  0
ENDBLK
  5
1648C
330
163B8
100
AcDbEntity
  8
0
 48
50.0
100
AcDbBlockEnd
  0
BLOCK
  5
1648D
330
163C7
100
AcDbEntity
  8
0
 48
50.0
100
AcDbBlockBegin
  2
*D11
 70
     1
 10
0.0
 20
0.0
 30
0.0
  3
*D11
  1

  0
LINE
  5
1648E
330
163C7
100
AcDbEntity
  8
0
  6
ByBlock
 62
     0
 48
50.0
100
AcDbLine
 10
7374.673057123638
 20
6962.497424545957
 30
0.0
 11
7374.673057123638
 21
6388.066653779702
 31
0.0
  0
LINE
  5
1648F
330
163C7
100
AcDbEntity
  8
0
  6
ByBlock
 62
     0
 48
50.0
100
AcDbLine
 10
7319.67305712364
 20
6962.497424545952
 30
0.0
 11
7319.67305712364
 21
6388.066653779702
 31
0.0
  0
LINE
  5
16490
330
163C7
100
AcDbEntity
  8
0
  6
ByBlock
 62
     0
 48
50.0
100
AcDbLine
 10
7319.67305712364
 20
6448.066653779702
 30
0.0
 11
7219.67305712364
 21
6448.066653779702
 31
0.0
  0
LINE
  5
16491
330
163C7
100
AcDbEntity
  8
0
  6
ByBlock
 62
     0
 48
50.0
100
AcDbLine
 10
7374.673057123638
 20
6448.066653779702
 30
0.0
 11
7791.643619872115
 21
6448.066653779702
 31
0.0
  0
LINE
  5
16492
330
163C7
100
AcDbEntity
  8
0
  6
ByBlock
 62
     0
 48
50.0
100
AcDbLine
 10
7319.67305712364
 20
6448.066653779702
 30
0.0
 11
7374.673057123638
 21
6448.066653779702
 31
0.0
  0
INSERT
  5
16493
330
163C7
100
AcDbEntity
  8
0
  6
ByBlock
 62
     0
 48
50.0
100
AcDbBlockReference
  2
_DOTSMALL
 10
7319.67305712364
 20
6448.066653779702
 30
0.0
 41
100.0
 42
100.0
 43
100.0
  0
INSERT
  5
16494
330
163C7
100
AcDbEntity
  8
0
  6
ByBlock
 62
     0
 48
50.0
100
AcDbBlockReference
  2
_DOTSMALL
 10
7374.673057123638
 20
6448.066653779702
 30
0.0
 41
100.0
 42
100.0
 43
100.0
 50
180.0
  0
MTEXT
  5
16495
330
163C7
100
AcDbEntity
  8
0
  6
ByBlock
 62
     7
 48
50.0
100
AcDbMText
 10
7683.158338497877
 20
6548.066653779702
 30
0.0
 40
120.0
 41
0.0
 71
     5
 72
     1
  1
\A1;55
  7
STYLE1
 73
     1
 44
1.0
1001
ACAD
1000
MTEXTBEGIN
1070
    73
1070
     1
1070
    44
1040
1.0
1070
    74
1070
     0
1000
MTEXTEND
  0
POINT
  5
16496
330
163C7
100
AcDbEntity
  8
DEFPOINTS
  6
ByBlock
 62
     0
 48
50.0
100
AcDbPoint
 10
7374.673057123638
 20
6982.497424545956
 30
0.0
  0
POINT
  5
16497
330
163C7
100
AcDbEntity
  8
DEFPOINTS
  6
ByBlock
 62
     0
 48
50.0
100
AcDbPoint
 10
7319.67305712364
 20
6982.497424545953
 30
0.0
  0
POINT
  5
16498
330
163C7
100
AcDbEntity
  8
DEFPOINTS
  6
ByBlock
 62
     0
 48
50.0
100
AcDbPoint
 10
7319.67305712364
 20
6448.066653779702
 30
0.0
  0
ENDBLK
  5
16499
330
163C7
100
AcDbEntity
  8
0
 48
50.0
100
AcDbBlockEnd
  0
BLOCK
  5
17431
330
163E1
100
AcDbEntity
  8
0
 48
50.0
100
AcDbBlockBegin
  2
*D12
 70
     1
 10
0.0
 20
0.0
 30
0.0
  3
*D12
  1

  0
LINE
  5
1905E
330
163E1
100
AcDbEntity
  8
寸法
 62
     0
 48
50.0
370
    -2
100
AcDbLine
 10
6114.673057123663
 20
10212.49742454587
 30
0.0
 11
6114.673057123663
 21
10768.30564417097
 31
0.0
  0
LINE
  5
1905F
330
163E1
100
AcDbEntity
  8
寸法
 62
     0
 48
50.0
370
    -2
100
AcDbLine
 10
9054.673057123663
 20
10212.49742454596
 30
0.0
 11
9054.673057123663
 21
10768.30564417097
 31
0.0
  0
LINE
  5
19060
330
163E1
100
AcDbEntity
  8
寸法
 62
     0
 48
50.0
370
    -2
100
AcDbLine
 10
6114.673057123663
 20
10708.30564417097
 30
0.0
 11
9054.673057123663
 21
10708.30564417097
 31
0.0
  0
INSERT
  5
19061
330
163E1
100
AcDbEntity
  8
寸法
 62
     0
 48
50.0
370
    -2
100
AcDbBlockReference
  2
_DOTSMALL
 10
6114.673057123663
 20
10708.30564417097
 30
0.0
 41
100.0
 42
100.0
 43
100.0
 50
180.0
  0
INSERT
  5
19062
330
163E1
100
AcDbEntity
  8
寸法
 62
     0
 48
50.0
370
    -2
100
AcDbBlockReference
  2
_DOTSMALL
 10
9054.673057123663
 20
10708.30564417097
 30
0.0
 41
100.0
 42
100.0
 43
100.0
  0
MTEXT
  5
19063
330
163E1
100
AcDbEntity
  8
寸法
 62
     7
 48
50.0
100
AcDbMText
 10
7584.673057123665
 20
10808.31745519459
 30
0.0
 40
120.0
 41
0.0
 71
     5
 72
     1
  1
\A1;7X420=2940
  7
STYLE1
 73
     1
 44
1.0
1001
ACAD
1000
MTEXTBEGIN
1070
    73
1070
     1
1070
    44
1040
1.0
1070
    74
1070
     0
1000
MTEXTEND
  0
POINT
  5
19064
330
163E1
100
AcDbEntity
  8
DEFPOINTS
 62
     0
 48
50.0
100
AcDbPoint
 10
6114.673057123663
 20
10192.49742454587
 30
0.0
  0
POINT
  5
19065
330
163E1
100
AcDbEntity
  8
DEFPOINTS
 62
     0
 48
50.0
100
AcDbPoint
 10
9054.673057123663
 20
10192.49742454596
 30
0.0
  0
POINT
  5
19066
330
163E1
100
AcDbEntity
  8
DEFPOINTS
 62
     0
 48
50.0
100
AcDbPoint
 10
9054.673057123663
 20
10708.30564417097
 30
0.0
  0
ENDBLK
  5
1743B
330
163E1
100
AcDbEntity
  8
0
 48
50.0
100
AcDbBlockEnd
  0
BLOCK
  5
164B0
330
163ED
100
AcDbEntity
  8
0
 48
50.0
100
AcDbBlockBegin
  2
*D13
 70
     1
 10
0.0
 20
0.0
 30
0.0
  3
*D13
  1

  0
LINE
  5
19053
330
163ED
100
AcDbEntity
  8
寸法
 62
     0
 48
50.0
370
    -2
100
AcDbLine
 10
3009.673057123629
 20
10212.49742454587
 30
0.0
 11
3009.673057123629
 21
10768.30564417085
 31
0.0
  0
LINE
  5
19054
330
163ED
100
AcDbEntity
  8
寸法
 62
     0
 48
50.0
370
    -2
100
AcDbLine
 10
3064.673057123663
 20
10212.49742454587
 30
0.0
 11
3064.673057123663
 21
10768.30564417085
 31
0.0
  0
LINE
  5
19055
330
163ED
100
AcDbEntity
  8
寸法
 62
     0
 48
50.0
370
    -2
100
AcDbLine
 10
3064.673057123663
 20
10708.30564417085
 30
0.0
 11
3164.673057123663
 21
10708.30564417085
 31
0.0
  0
LINE
  5
19056
330
163ED
100
AcDbEntity
  8
寸法
 62
     0
 48
50.0
370
    -2
100
AcDbLine
 10
3009.673057123629
 20
10708.30564417085
 30
0.0
 11
2592.702494375151
 21
10708.30564417085
 31
0.0
  0
LINE
  5
19057
330
163ED
100
AcDbEntity
  8
寸法
 62
     0
 48
50.0
370
    -2
100
AcDbLine
 10
3064.673057123663
 20
10708.30564417085
 30
0.0
 11
3009.673057123629
 21
10708.30564417085
 31
0.0
  0
INSERT
  5
19058
330
163ED
100
AcDbEntity
  8
寸法
 62
     0
 48
50.0
370
    -2
100
AcDbBlockReference
  2
_DOTSMALL
 10
3064.673057123663
 20
10708.30564417085
 30
0.0
 41
100.0
 42
100.0
 43
100.0
 50
180.0
  0
INSERT
  5
19059
330
163ED
100
AcDbEntity
  8
寸法
 62
     0
 48
50.0
370
    -2
100
AcDbBlockReference
  2
_DOTSMALL
 10
3009.673057123629
 20
10708.30564417085
 30
0.0
 41
100.0
 42
100.0
 43
100.0
  0
MTEXT
  5
1905A
330
163ED
100
AcDbEntity
  8
寸法
 62
     7
 48
50.0
100
AcDbMText
 10
2701.18777574939
 20
10808.30564417085
 30
0.0
 40
120.0
 41
0.0
 71
     5
 72
     1
  1
\A1;55
  7
STYLE1
 73
     1
 44
1.0
1001
ACAD
1000
MTEXTBEGIN
1070
    73
1070
     1
1070
    44
1040
1.0
1070
    74
1070
     0
1000
MTEXTEND
  0
POINT
  5
1905B
330
163ED
100
AcDbEntity
  8
DEFPOINTS
 62
     0
 48
50.0
100
AcDbPoint
 10
3009.673057123629
 20
10192.49742454587
 30
0.0
  0
POINT
  5
1905C
330
163ED
100
AcDbEntity
  8
DEFPOINTS
 62
     0
 48
50.0
100
AcDbPoint
 10
3064.673057123663
 20
10192.49742454587
 30
0.0
  0
POINT
  5
1905D
330
163ED
100
AcDbEntity
  8
DEFPOINTS
 62
     0
 48
50.0
100
AcDbPoint
 10
3064.673057123663
 20
10708.30564417085
 30
0.0
  0
ENDBLK
  5
164BC
330
163ED
100
AcDbEntity
  8
0
 48
50.0
100
AcDbBlockEnd
  0
BLOCK
  5
164BD
330
163FB
100
AcDbEntity
  8
0
 48
50.0
100
AcDbBlockBegin
  2
*D14
 70
     1
 10
0.0
 20
0.0
 30
0.0
  3
*D14
  1

  0
LINE
  5
19048
330
163FB
100
AcDbEntity
  8
寸法
 62
     0
 48
50.0
370
    -2
100
AcDbLine
 10
9054.673057123663
 20
10212.49742454596
 30
0.0
 11
9054.673057123663
 21
10768.30564417095
 31
0.0
  0
LINE
  5
19049
330
163FB
100
AcDbEntity
  8
寸法
 62
     0
 48
50.0
370
    -2
100
AcDbLine
 10
9109.673057123664
 20
10212.49742454596
 30
0.0
 11
9109.673057123664
 21
10768.30564417095
 31
0.0
  0
LINE
  5
1904A
330
163FB
100
AcDbEntity
  8
寸法
 62
     0
 48
50.0
370
    -2
100
AcDbLine
 10
9054.673057123663
 20
10708.30564417095
 30
0.0
 11
8954.673057123663
 21
10708.30564417095
 31
0.0
  0
LINE
  5
1904B
330
163FB
100
AcDbEntity
  8
寸法
 62
     0
 48
50.0
370
    -2
100
AcDbLine
 10
9109.673057123664
 20
10708.30564417095
 30
0.0
 11
9526.643619872141
 21
10708.30564417095
 31
0.0
  0
LINE
  5
1904C
330
163FB
100
AcDbEntity
  8
寸法
 62
     0
 48
50.0
370
    -2
100
AcDbLine
 10
9054.673057123663
 20
10708.30564417095
 30
0.0
 11
9109.673057123664
 21
10708.30564417095
 31
0.0
  0
INSERT
  5
1904D
330
163FB
100
AcDbEntity
  8
寸法
 62
     0
 48
50.0
370
    -2
100
AcDbBlockReference
  2
_DOTSMALL
 10
9054.673057123663
 20
10708.30564417095
 30
0.0
 41
100.0
 42
100.0
 43
100.0
  0
INSERT
  5
1904E
330
163FB
100
AcDbEntity
  8
寸法
 62
     0
 48
50.0
370
    -2
100
AcDbBlockReference
  2
_DOTSMALL
 10
9109.673057123664
 20
10708.30564417095
 30
0.0
 41
100.0
 42
100.0
 43
100.0
 50
180.0
  0
MTEXT
  5
1904F
330
163FB
100
AcDbEntity
  8
寸法
 62
     7
 48
50.0
100
AcDbMText
 10
9418.158338497901
 20
10808.30564417095
 30
0.0
 40
120.0
 41
0.0
 71
     5
 72
     1
  1
\A1;55
  7
STYLE1
 73
     1
 44
1.0
1001
ACAD
1000
MTEXTBEGIN
1070
    73
1070
     1
1070
    44
1040
1.0
1070
    74
1070
     0
1000
MTEXTEND
  0
POINT
  5
19050
330
163FB
100
AcDbEntity
  8
DEFPOINTS
 62
     0
 48
50.0
100
AcDbPoint
 10
9054.673057123663
 20
10192.49742454596
 30
0.0
  0
POINT
  5
19051
330
163FB
100
AcDbEntity
  8
DEFPOINTS
 62
     0
 48
50.0
100
AcDbPoint
 10
9109.673057123664
 20
10192.49742454596
 30
0.0
  0
POINT
  5
19052
330
163FB
100
AcDbEntity
  8
DEFPOINTS
 62
     0
 48
50.0
100
AcDbPoint
 10
9109.673057123664
 20
10708.30564417095
 30
0.0
  0
ENDBLK
  5
164C9
330
163FB
100
AcDbEntity
  8
0
 48
50.0
100
AcDbBlockEnd
  0
BLOCK
  5
171A3
330
1659E
100
AcDbEntity
  8
0
 48
50.0
100
AcDbBlockBegin
  2
*D15
 70
     1
 10
0.0
 20
0.0
 30
0.0
  3
*D15
  1

  0
LINE
  5
171A4
330
1659E
100
AcDbEntity
  8
0
  6
ByBlock
 62
     0
 48
50.0
100
AcDbLine
 10
3112.673057123657
 20
7148.497424545865
 30
0.0
 11
3112.673057123657
 21
6548.0666537797
 31
0.0
  0
LINE
  5
171A5
330
1659E
100
AcDbEntity
  8
0
  6
ByBlock
 62
     0
 48
50.0
100
AcDbLine
 10
5956.673057123638
 20
6608.0666537797
 30
0.0
 11
3112.673057123657
 21
6608.0666537797
 31
0.0
  0
INSERT
  5
171A6
330
1659E
100
AcDbEntity
  8
0
  6
ByBlock
 62
     0
 48
50.0
100
AcDbBlockReference
  2
_DOTSMALL
 10
5956.673057123638
 20
6608.0666537797
 30
0.0
 41
100.0
 42
100.0
 43
100.0
  0
INSERT
  5
171A7
330
1659E
100
AcDbEntity
  8
0
  6
ByBlock
 62
     0
 48
50.0
100
AcDbBlockReference
  2
_DOTSMALL
 10
3112.673057123657
 20
6608.0666537797
 30
0.0
 41
100.0
 42
100.0
 43
100.0
 50
180.0
  0
MTEXT
  5
171A8
330
1659E
100
AcDbEntity
  8
0
  6
ByBlock
 62
     7
 48
50.0
100
AcDbMText
 10
4534.673057123647
 20
6708.078464803323
 30
0.0
 40
120.0
 41
0.0
 71
     5
 72
     1
  1
\A1;有効開口部間口 2844
  7
STYLE1
 73
     1
 44
1.0
1001
ACAD
1000
MTEXTBEGIN
1070
    73
1070
     1
1070
    44
1040
1.0
1070
    74
1070
     0
1000
MTEXTEND
  0
POINT
  5
171A9
330
1659E
100
AcDbEntity
  8
DEFPOINTS
  6
ByBlock
 62
     0
 48
50.0
100
AcDbPoint
 10
5956.673057123638
 20
7168.497424545865
 30
0.0
  0
POINT
  5
171AA
330
1659E
100
AcDbEntity
  8
DEFPOINTS
  6
ByBlock
 62
     0
 48
50.0
100
AcDbPoint
 10
3112.673057123657
 20
7168.497424545865
 30
0.0
  0
POINT
  5
171AB
330
1659E
100
AcDbEntity
  8
DEFPOINTS
  6
ByBlock
 62
     0
 48
50.0
100
AcDbPoint
 10
3112.673057123657
 20
6608.0666537797
 30
0.0
  0
ENDBLK
  5
171AC
330
1659E
100
AcDbEntity
  8
0
 48
50.0
100
AcDbBlockEnd
  0
BLOCK
  5
165B6
330
165B5
100
AcDbEntity
  8
0
 48
50.0
100
AcDbBlockBegin
  2
*D16
 70
     1
 10
0.0
 20
0.0
 30
0.0
  3
*D16
  1

  0
LINE
  5
165B7
330
165B5
100
AcDbEntity
  8
0
  6
ByBlock
 62
     0
 48
50.0
100
AcDbLine
 10
6162.673057123657
 20
6988.497424545865
 30
0.0
 11
6162.673057123657
 21
6388.0666537797
 31
0.0
  0
LINE
  5
165B8
330
165B5
100
AcDbEntity
  8
0
  6
ByBlock
 62
     0
 48
50.0
100
AcDbLine
 10
6114.673057123653
 20
6962.497424545865
 30
0.0
 11
6114.673057123653
 21
6388.0666537797
 31
0.0
  0
LINE
  5
165B9
330
165B5
100
AcDbEntity
  8
0
  6
ByBlock
 62
     0
 48
50.0
100
AcDbLine
 10
6162.673057123657
 20
6448.066653779701
 30
0.0
 11
6262.673057123657
 21
6448.066653779701
 31
0.0
  0
LINE
  5
165BA
330
165B5
100
AcDbEntity
  8
0
  6
ByBlock
 62
     0
 48
50.0
100
AcDbLine
 10
6114.673057123653
 20
6448.066653779701
 30
0.0
 11
6014.673057123653
 21
6448.066653779701
 31
0.0
  0
MTEXT
  5
165BB
330
165B5
100
AcDbEntity
  8
0
  6
ByBlock
 62
     7
 48
50.0
100
AcDbMText
 10
6275.575028123714
 20
6548.0666537797
 30
0.0
 40
120.0
 41
0.0
 71
     5
 72
     1
  1
\A1;48
  7
STYLE1
 73
     1
 44
1.0
1001
ACAD
1000
MTEXTBEGIN
1070
    73
1070
     1
1070
    44
1040
1.0
1070
    74
1070
     0
1000
MTEXTEND
  0
LINE
  5
165BC
330
165B5
100
AcDbEntity
  8
0
  6
ByBlock
 62
     0
 48
50.0
100
AcDbLine
 10
6162.673057123657
 20
6448.066653779701
 30
0.0
 11
6114.673057123653
 21
6448.066653779701
 31
0.0
  0
LINE
  5
165BD
330
165B5
100
AcDbEntity
  8
0
  6
ByBlock
 62
     0
 48
50.0
100
AcDbLine
 10
6162.673057123657
 20
6448.066653779701
 30
0.0
 11
6114.673057123653
 21
6448.066653779701
 31
0.0
  0
INSERT
  5
165BE
330
165B5
100
AcDbEntity
  8
0
  6
ByBlock
 62
     0
 48
50.0
100
AcDbBlockReference
  2
_DOTSMALL
 10
6162.673057123657
 20
6448.066653779701
 30
0.0
 41
100.0
 42
100.0
 43
100.0
 50
180.0
  0
INSERT
  5
165BF
330
165B5
100
AcDbEntity
  8
0
  6
ByBlock
 62
     0
 48
50.0
100
AcDbBlockReference
  2
_DOTSMALL
 10
6114.673057123653
 20
6448.066653779701
 30
0.0
 41
100.0
 42
100.0
 43
100.0
  0
POINT
  5
165C0
330
165B5
100
AcDbEntity
  8
DEFPOINTS
  6
ByBlock
 62
     0
 48
50.0
100
AcDbPoint
 10
6162.673057123657
 20
7008.497424545864
 30
0.0
  0
POINT
  5
165C1
330
165B5
100
AcDbEntity
  8
DEFPOINTS
  6
ByBlock
 62
     0
 48
50.0
100
AcDbPoint
 10
6114.673057123653
 20
6982.497424545865
 30
0.0
  0
POINT
  5
165C2
330
165B5
100
AcDbEntity
  8
DEFPOINTS
  6
ByBlock
 62
     0
 48
50.0
100
AcDbPoint
 10
6114.673057123653
 20
6448.066653779701
 30
0.0
  0
ENDBLK
  5
165C3
330
165B5
100
AcDbEntity
  8
0
 48
50.0
100
AcDbBlockEnd
  0
BLOCK
  5
165C5
330
165C4
100
AcDbEntity
  8
0
 48
50.0
100
AcDbBlockBegin
  2
*D17
 70
     1
 10
0.0
 20
0.0
 30
0.0
  3
*D17
  1

  0
LINE
  5
165C6
330
165C4
100
AcDbEntity
  8
0
  6
ByBlock
 62
     0
 48
50.0
100
AcDbLine
 10
8634.67305712364
 20
6962.497424545952
 30
0.0
 11
8634.67305712364
 21
6388.0666537797
 31
0.0
  0
LINE
  5
165C7
330
165C4
100
AcDbEntity
  8
0
  6
ByBlock
 62
     0
 48
50.0
100
AcDbLine
 10
8586.673057123638
 20
6988.497424545865
 30
0.0
 11
8586.673057123638
 21
6388.0666537797
 31
0.0
  0
LINE
  5
165C8
330
165C4
100
AcDbEntity
  8
0
  6
ByBlock
 62
     0
 48
50.0
100
AcDbLine
 10
8634.67305712364
 20
6448.066653779701
 30
0.0
 11
8734.673057123641
 21
6448.066653779701
 31
0.0
  0
LINE
  5
165C9
330
165C4
100
AcDbEntity
  8
0
  6
ByBlock
 62
     0
 48
50.0
100
AcDbLine
 10
8586.673057123638
 20
6448.066653779701
 30
0.0
 11
8486.673057123638
 21
6448.066653779701
 31
0.0
  0
MTEXT
  5
165CA
330
165C4
100
AcDbEntity
  8
0
  6
ByBlock
 62
     7
 48
50.0
100
AcDbMText
 10
8475.710159474891
 20
6548.0666537797
 30
0.0
 40
120.0
 41
0.0
 71
     5
 72
     1
  1
\A1;48
  7
STYLE1
 73
     1
 44
1.0
1001
ACAD
1000
MTEXTBEGIN
1070
    73
1070
     1
1070
    44
1040
1.0
1070
    74
1070
     0
1000
MTEXTEND
  0
LINE
  5
165CB
330
165C4
100
AcDbEntity
  8
0
  6
ByBlock
 62
     0
 48
50.0
100
AcDbLine
 10
8634.67305712364
 20
6448.066653779701
 30
0.0
 11
8586.673057123638
 21
6448.066653779701
 31
0.0
  0
LINE
  5
165CC
330
165C4
100
AcDbEntity
  8
0
  6
ByBlock
 62
     0
 48
50.0
100
AcDbLine
 10
8634.67305712364
 20
6448.066653779701
 30
0.0
 11
8586.673057123638
 21
6448.066653779701
 31
0.0
  0
INSERT
  5
165CD
330
165C4
100
AcDbEntity
  8
0
  6
ByBlock
 62
     0
 48
50.0
100
AcDbBlockReference
  2
_DOTSMALL
 10
8634.67305712364
 20
6448.066653779701
 30
0.0
 41
100.0
 42
100.0
 43
100.0
 50
180.0
  0
INSERT
  5
165CE
330
165C4
100
AcDbEntity
  8
0
  6
ByBlock
 62
     0
 48
50.0
100
AcDbBlockReference
  2
_DOTSMALL
 10
8586.673057123638
 20
6448.066653779701
 30
0.0
 41
100.0
 42
100.0
 43
100.0
  0
POINT
  5
165CF
330
165C4
100
AcDbEntity
  8
DEFPOINTS
  6
ByBlock
 62
     0
 48
50.0
100
AcDbPoint
 10
8634.67305712364
 20
6982.497424545953
 30
0.0
  0
POINT
  5
165D0
330
165C4
100
AcDbEntity
  8
DEFPOINTS
  6
ByBlock
 62
     0
 48
50.0
100
AcDbPoint
 10
8586.673057123638
 20
7008.497424545865
 30
0.0
  0
POINT
  5
165D1
330
165C4
100
AcDbEntity
  8
DEFPOINTS
  6
ByBlock
 62
     0
 48
50.0
100
AcDbPoint
 10
8586.673057123638
 20
6448.066653779701
 30
0.0
  0
ENDBLK
  5
165D2
330
165C4
100
AcDbEntity
  8
0
 48
50.0
100
AcDbBlockEnd
  0
BLOCK
  5
1663F
330
165EA
100
AcDbEntity
  8
0
 48
50.0
100
AcDbBlockBegin
  2
*D18
 70
     1
 10
0.0
 20
0.0
 30
0.0
  3
*D18
  1

  0
LINE
  5
16640
330
165EA
100
AcDbEntity
  8
0
  6
ByBlock
 62
     0
 48
50.0
100
AcDbLine
 10
6114.673057123653
 20
7222.497424545863
 30
0.0
 11
6114.673057123653
 21
6648.066653779702
 31
0.0
  0
LINE
  5
16641
330
165EA
100
AcDbEntity
  8
0
  6
ByBlock
 62
     0
 48
50.0
100
AcDbLine
 10
6004.67305712364
 20
7222.497424545952
 30
0.0
 11
6004.67305712364
 21
6648.066653779702
 31
0.0
  0
LINE
  5
16642
330
165EA
100
AcDbEntity
  8
0
  6
ByBlock
 62
     0
 48
50.0
100
AcDbLine
 10
6114.673057123653
 20
6708.066653779702
 30
0.0
 11
6004.67305712364
 21
6708.066653779702
 31
0.0
  0
MTEXT
  5
16643
330
165EA
100
AcDbEntity
  8
0
  6
ByBlock
 62
     7
 48
50.0
100
AcDbMText
 10
6059.673057123647
 20
6556.37475874347
 30
0.0
 40
120.0
 41
0.0
 71
     5
 72
     1
  1
\A1;110
  7
STYLE1
 73
     1
 44
1.0
1001
ACAD
1000
MTEXTBEGIN
1070
    73
1070
     1
1070
    44
1040
1.0
1070
    74
1070
     0
1000
MTEXTEND
  0
INSERT
  5
16644
330
165EA
100
AcDbEntity
  8
0
  6
ByBlock
 62
     0
 48
50.0
100
AcDbBlockReference
  2
_DOTSMALL
 10
6114.673057123653
 20
6708.066653779702
 30
0.0
 41
100.0
 42
100.0
 43
100.0
  0
INSERT
  5
16645
330
165EA
100
AcDbEntity
  8
0
  6
ByBlock
 62
     0
 48
50.0
100
AcDbBlockReference
  2
_DOTSMALL
 10
6004.67305712364
 20
6708.066653779702
 30
0.0
 41
100.0
 42
100.0
 43
100.0
 50
180.0
  0
POINT
  5
16646
330
165EA
100
AcDbEntity
  8
DEFPOINTS
  6
ByBlock
 62
     0
 48
50.0
100
AcDbPoint
 10
6114.673057123653
 20
7242.497424545864
 30
0.0
  0
POINT
  5
16647
330
165EA
100
AcDbEntity
  8
DEFPOINTS
  6
ByBlock
 62
     0
 48
50.0
100
AcDbPoint
 10
6004.67305712364
 20
7242.497424545952
 30
0.0
  0
POINT
  5
16648
330
165EA
100
AcDbEntity
  8
DEFPOINTS
  6
ByBlock
 62
     0
 48
50.0
100
AcDbPoint
 10
6004.67305712364
 20
6708.066653779702
 30
0.0
  0
ENDBLK
  5
16649
330
165EA
100
AcDbEntity
  8
0
 48
50.0
100
AcDbBlockEnd
  0
BLOCK
  5
17426
330
166AD
100
AcDbEntity
  8
0
 48
50.0
100
AcDbBlockBegin
  2
*D19
 70
     1
 10
0.0
 20
0.0
 30
0.0
  3
*D19
  1

  0
LINE
  5
1903F
330
166AD
100
AcDbEntity
  8
寸法
 62
     0
 48
50.0
370
    -2
100
AcDbLine
 10
3064.673057123663
 20
10212.49742454587
 30
0.0
 11
3064.673057123663
 21
10768.30564417097
 31
0.0
  0
LINE
  5
19040
330
166AD
100
AcDbEntity
  8
寸法
 62
     0
 48
50.0
370
    -2
100
AcDbLine
 10
6004.673057123664
 20
10212.49742454596
 30
0.0
 11
6004.673057123664
 21
10768.30564417097
 31
0.0
  0
LINE
  5
19041
330
166AD
100
AcDbEntity
  8
寸法
 62
     0
 48
50.0
370
    -2
100
AcDbLine
 10
3064.673057123663
 20
10708.30564417097
 30
0.0
 11
6004.673057123664
 21
10708.30564417097
 31
0.0
  0
INSERT
  5
19042
330
166AD
100
AcDbEntity
  8
寸法
 62
     0
 48
50.0
370
    -2
100
AcDbBlockReference
  2
_DOTSMALL
 10
3064.673057123663
 20
10708.30564417097
 30
0.0
 41
100.0
 42
100.0
 43
100.0
 50
180.0
  0
INSERT
  5
19043
330
166AD
100
AcDbEntity
  8
寸法
 62
     0
 48
50.0
370
    -2
100
AcDbBlockReference
  2
_DOTSMALL
 10
6004.673057123664
 20
10708.30564417097
 30
0.0
 41
100.0
 42
100.0
 43
100.0
  0
MTEXT
  5
19044
330
166AD
100
AcDbEntity
  8
寸法
 62
     7
 48
50.0
100
AcDbMText
 10
4534.673057123664
 20
10808.31745519459
 30
0.0
 40
120.0
 41
0.0
 71
     5
 72
     1
  1
\A1;7X420=2940
  7
STYLE1
 73
     1
 44
1.0
1001
ACAD
1000
MTEXTBEGIN
1070
    73
1070
     1
1070
    44
1040
1.0
1070
    74
1070
     0
1000
MTEXTEND
  0
POINT
  5
19045
330
166AD
100
AcDbEntity
  8
DEFPOINTS
 62
     0
 48
50.0
100
AcDbPoint
 10
3064.673057123663
 20
10192.49742454587
 30
0.0
  0
POINT
  5
19046
330
166AD
100
AcDbEntity
  8
DEFPOINTS
 62
     0
 48
50.0
100
AcDbPoint
 10
6004.673057123664
 20
10192.49742454596
 30
0.0
  0
POINT
  5
19047
330
166AD
100
AcDbEntity
  8
DEFPOINTS
 62
     0
 48
50.0
100
AcDbPoint
 10
6004.673057123664
 20
10708.30564417097
 30
0.0
  0
ENDBLK
  5
17430
330
166AD
100
AcDbEntity
  8
0
 48
50.0
100
AcDbBlockEnd
  0
BLOCK
  5
166D0
330
166CF
100
AcDbEntity
  8
0
 48
50.0
100
AcDbBlockBegin
  2
*D20
 70
     1
 10
0.0
 20
0.0
 30
0.0
  3
*D20
  1

  0
LINE
  5
19034
330
166CF
100
AcDbEntity
  8
寸法
 62
     0
 48
50.0
370
    -2
100
AcDbLine
 10
6114.673057123663
 20
10212.49742454592
 30
0.0
 11
6114.673057123663
 21
10768.30564417097
 31
0.0
  0
LINE
  5
19035
330
166CF
100
AcDbEntity
  8
寸法
 62
     0
 48
50.0
370
    -2
100
AcDbLine
 10
6004.673057123664
 20
10212.49742454591
 30
0.0
 11
6004.673057123664
 21
10768.30564417097
 31
0.0
  0
LINE
  5
19036
330
166CF
100
AcDbEntity
  8
寸法
 62
     0
 48
50.0
370
    -2
100
AcDbLine
 10
6114.673057123663
 20
10708.30564417097
 30
0.0
 11
6214.673057123663
 21
10708.30564417097
 31
0.0
  0
LINE
  5
19037
330
166CF
100
AcDbEntity
  8
寸法
 62
     0
 48
50.0
370
    -2
100
AcDbLine
 10
6004.673057123664
 20
10708.30564417097
 30
0.0
 11
5904.673057123664
 21
10708.30564417097
 31
0.0
  0
LINE
  5
19038
330
166CF
100
AcDbEntity
  8
寸法
 62
     0
 48
50.0
370
    -2
100
AcDbLine
 10
6114.673057123663
 20
10708.30564417097
 30
0.0
 11
6004.673057123664
 21
10708.30564417097
 31
0.0
  0
INSERT
  5
19039
330
166CF
100
AcDbEntity
  8
寸法
 62
     0
 48
50.0
370
    -2
100
AcDbBlockReference
  2
_DOTSMALL
 10
6114.673057123663
 20
10708.30564417097
 30
0.0
 41
100.0
 42
100.0
 43
100.0
 50
180.0
  0
INSERT
  5
1903A
330
166CF
100
AcDbEntity
  8
寸法
 62
     0
 48
50.0
370
    -2
100
AcDbBlockReference
  2
_DOTSMALL
 10
6004.673057123664
 20
10708.30564417097
 30
0.0
 41
100.0
 42
100.0
 43
100.0
  0
MTEXT
  5
1903B
330
166CF
100
AcDbEntity
  8
寸法
 62
     7
 48
50.0
100
AcDbMText
 10
6059.673057123664
 20
10808.30564417097
 30
0.0
 40
120.0
 41
0.0
 71
     5
 72
     1
  1
\A1;110
  7
STYLE1
 73
     1
 44
1.0
1001
ACAD
1000
MTEXTBEGIN
1070
    73
1070
     1
1070
    44
1040
1.0
1070
    74
1070
     0
1000
MTEXTEND
  0
POINT
  5
1903C
330
166CF
100
AcDbEntity
  8
DEFPOINTS
 62
     0
 48
50.0
100
AcDbPoint
 10
6114.673057123663
 20
10192.49742454592
 30
0.0
  0
POINT
  5
1903D
330
166CF
100
AcDbEntity
  8
DEFPOINTS
 62
     0
 48
50.0
100
AcDbPoint
 10
6004.673057123664
 20
10192.49742454591
 30
0.0
  0
POINT
  5
1903E
330
166CF
100
AcDbEntity
  8
DEFPOINTS
 62
     0
 48
50.0
100
AcDbPoint
 10
6004.673057123664
 20
10708.30564417097
 30
0.0
  0
ENDBLK
  5
166DC
330
166CF
100
AcDbEntity
  8
0
 48
50.0
100
AcDbBlockEnd
  0
BLOCK
  5
171AD
330
168FB
100
AcDbEntity
  8
0
 48
50.0
100
AcDbBlockBegin
  2
*D21
 70
     1
 10
0.0
 20
0.0
 30
0.0
  3
*D21
  1

  0
LINE
  5
1902B
330
168FB
100
AcDbEntity
  8
寸法
 62
     0
 48
50.0
370
    -2
100
AcDbLine
 10
3009.673057123629
 20
10212.49742454583
 30
0.0
 11
3009.673057123629
 21
11017.62711772726
 31
0.0
  0
LINE
  5
1902C
330
168FB
100
AcDbEntity
  8
寸法
 62
     0
 48
50.0
370
    -2
100
AcDbLine
 10
6059.673057123664
 20
10887.29355852891
 30
0.0
 11
6059.673057123664
 21
11017.62711772726
 31
0.0
  0
LINE
  5
1902D
330
168FB
100
AcDbEntity
  8
寸法
 62
     0
 48
50.0
370
    -2
100
AcDbLine
 10
3009.673057123629
 20
10957.62711772726
 30
0.0
 11
6059.673057123664
 21
10957.62711772726
 31
0.0
  0
INSERT
  5
1902E
330
168FB
100
AcDbEntity
  8
寸法
 62
     0
 48
50.0
370
    -2
100
AcDbBlockReference
  2
_DOTSMALL
 10
3009.673057123629
 20
10957.62711772726
 30
0.0
 41
100.0
 42
100.0
 43
100.0
 50
180.0
  0
INSERT
  5
1902F
330
168FB
100
AcDbEntity
  8
寸法
 62
     0
 48
50.0
370
    -2
100
AcDbBlockReference
  2
_DOTSMALL
 10
6059.673057123664
 20
10957.62711772726
 30
0.0
 41
100.0
 42
100.0
 43
100.0
  0
MTEXT
  5
19030
330
168FB
100
AcDbEntity
  8
寸法
 62
     7
 48
50.0
100
AcDbMText
 10
4534.673057123645
 20
11057.62711772726
 30
0.0
 40
120.0
 41
0.0
 71
     5
 72
     1
  1
\A1;3050
  7
STYLE1
 73
     1
 44
1.0
1001
ACAD
1000
MTEXTBEGIN
1070
    73
1070
     1
1070
    44
1040
1.0
1070
    74
1070
     0
1000
MTEXTEND
  0
POINT
  5
19031
330
168FB
100
AcDbEntity
  8
DEFPOINTS
 62
     0
 48
50.0
100
AcDbPoint
 10
3009.673057123629
 20
10192.49742454583
 30
0.0
  0
POINT
  5
19032
330
168FB
100
AcDbEntity
  8
DEFPOINTS
 62
     0
 48
50.0
100
AcDbPoint
 10
6059.673057123664
 20
10867.29355852891
 30
0.0
  0
POINT
  5
19033
330
168FB
100
AcDbEntity
  8
DEFPOINTS
 62
     0
 48
50.0
100
AcDbPoint
 10
6059.673057123664
 20
10957.62711772726
 30
0.0
  0
ENDBLK
  5
171B7
330
168FB
100
AcDbEntity
  8
0
 48
50.0
100
AcDbBlockEnd
  0
BLOCK
  5
171CE
330
16908
100
AcDbEntity
  8
0
 48
50.0
100
AcDbBlockBegin
  2
*D22
 70
     1
 10
0.0
 20
0.0
 30
0.0
  3
*D22
  1

  0
LINE
  5
19023
330
16908
100
AcDbEntity
  8
寸法
 62
     0
 48
50.0
370
    -2
100
AcDbLine
 10
9109.673057123664
 20
10212.49742454596
 30
0.0
 11
9109.673057123664
 21
11017.62711772726
 31
0.0
  0
LINE
  5
19024
330
16908
100
AcDbEntity
  8
寸法
 62
     0
 48
50.0
370
    -2
100
AcDbLine
 10
6059.673057123664
 20
10957.62711772726
 30
0.0
 11
9109.673057123664
 21
10957.62711772726
 31
0.0
  0
INSERT
  5
19025
330
16908
100
AcDbEntity
  8
寸法
 62
     0
 48
50.0
370
    -2
100
AcDbBlockReference
  2
_DOTSMALL
 10
6059.673057123664
 20
10957.62711772726
 30
0.0
 41
100.0
 42
100.0
 43
100.0
 50
180.0
  0
INSERT
  5
19026
330
16908
100
AcDbEntity
  8
寸法
 62
     0
 48
50.0
370
    -2
100
AcDbBlockReference
  2
_DOTSMALL
 10
9109.673057123664
 20
10957.62711772726
 30
0.0
 41
100.0
 42
100.0
 43
100.0
  0
MTEXT
  5
19027
330
16908
100
AcDbEntity
  8
寸法
 62
     7
 48
50.0
100
AcDbMText
 10
7584.673057123665
 20
11057.62711772726
 30
0.0
 40
120.0
 41
0.0
 71
     5
 72
     1
  1
\A1;3050
  7
STYLE1
 73
     1
 44
1.0
1001
ACAD
1000
MTEXTBEGIN
1070
    73
1070
     1
1070
    44
1040
1.0
1070
    74
1070
     0
1000
MTEXTEND
  0
POINT
  5
19028
330
16908
100
AcDbEntity
  8
DEFPOINTS
 62
     0
 48
50.0
100
AcDbPoint
 10
6059.673057123664
 20
10867.29355852891
 30
0.0
  0
POINT
  5
19029
330
16908
100
AcDbEntity
  8
DEFPOINTS
 62
     0
 48
50.0
100
AcDbPoint
 10
9109.673057123664
 20
10192.49742454596
 30
0.0
  0
POINT
  5
1902A
330
16908
100
AcDbEntity
  8
DEFPOINTS
 62
     0
 48
50.0
100
AcDbPoint
 10
9109.673057123664
 20
10957.62711772726
 30
0.0
  0
ENDBLK
  5
171D7
330
16908
100
AcDbEntity
  8
0
 48
50.0
100
AcDbBlockEnd
  0
BLOCK
  5
184FC
330
184F0
100
AcDbEntity
  8
0
 48
50.0
100
AcDbBlockBegin
  2
*D23
 70
     1
 10
0.0
 20
0.0
 30
0.0
  3
*D23
  1

  0
LINE
  5
1894F
330
184F0
100
AcDbEntity
  8
寸法
 62
     0
 48
50.0
370
    -2
100
AcDbLine
 10
9159.673057123667
 20
4932.931598713264
 30
0.0
 11
9159.673057123667
 21
5185.473183971505
 31
0.0
  0
LINE
  5
18950
330
184F0
100
AcDbEntity
  8
寸法
 62
     0
 48
50.0
370
    -2
100
AcDbLine
 10
9109.673057123666
 20
4932.931598713266
 30
0.0
 11
9109.673057123666
 21
5185.473183971505
 31
0.0
  0
LINE
  5
18951
330
184F0
100
AcDbEntity
  8
寸法
 62
     0
 48
50.0
370
    -2
100
AcDbLine
 10
9109.673057123666
 20
5125.473183971505
 30
0.0
 11
9009.673057123666
 21
5125.473183971505
 31
0.0
  0
LINE
  5
18952
330
184F0
100
AcDbEntity
  8
寸法
 62
     0
 48
50.0
370
    -2
100
AcDbLine
 10
9159.673057123667
 20
5125.473183971505
 30
0.0
 11
9579.20558259239
 21
5125.473183971505
 31
0.0
  0
LINE
  5
18953
330
184F0
100
AcDbEntity
  8
寸法
 62
     0
 48
50.0
370
    -2
100
AcDbLine
 10
9109.673057123666
 20
5125.473183971505
 30
0.0
 11
9159.673057123667
 21
5125.473183971505
 31
0.0
  0
INSERT
  5
18954
330
184F0
100
AcDbEntity
  8
寸法
 62
     0
 48
50.0
370
    -2
100
AcDbBlockReference
  2
_DOTSMALL
 10
9109.673057123666
 20
5125.473183971505
 30
0.0
 41
100.0
 42
100.0
 43
100.0
  0
INSERT
  5
18955
330
184F0
100
AcDbEntity
  8
寸法
 62
     0
 48
50.0
370
    -2
100
AcDbBlockReference
  2
_DOTSMALL
 10
9159.673057123667
 20
5125.473183971505
 30
0.0
 41
100.0
 42
100.0
 43
100.0
 50
180.0
  0
MTEXT
  5
18956
330
184F0
100
AcDbEntity
  8
寸法
 62
     7
 48
50.0
100
AcDbMText
 10
9473.158338497901
 20
5225.473183971505
 30
0.0
 40
120.0
 41
0.0
 71
     5
 72
     1
  1
\A1;50
  7
STYLE1
 73
     1
 44
1.0
1001
ACAD
1000
MTEXTBEGIN
1070
    73
1070
     1
1070
    44
1040
1.0
1070
    74
1070
     0
1000
MTEXTEND
  0
POINT
  5
18957
330
184F0
100
AcDbEntity
  8
DEFPOINTS
 62
     0
 48
50.0
100
AcDbPoint
 10
9159.673057123667
 20
4912.931598713264
 30
0.0
  0
POINT
  5
18958
330
184F0
100
AcDbEntity
  8
DEFPOINTS
 62
     0
 48
50.0
100
AcDbPoint
 10
9109.673057123666
 20
4912.931598713266
 30
0.0
  0
POINT
  5
18959
330
184F0
100
AcDbEntity
  8
DEFPOINTS
 62
     0
 48
50.0
100
AcDbPoint
 10
9109.673057123666
 20
5125.473183971505
 30
0.0
  0
ENDBLK
  5
184FD
330
184F0
100
AcDbEntity
  8
0
 48
50.0
100
AcDbBlockEnd
  0
BLOCK
  5
18508
330
184FE
100
AcDbEntity
  8
0
 48
50.0
100
AcDbBlockBegin
  2
*D24
 70
     1
 10
0.0
 20
0.0
 30
0.0
  3
*D24
  1

  0
LINE
  5
18946
330
184FE
100
AcDbEntity
  8
寸法
 62
     0
 48
50.0
370
    -2
100
AcDbLine
 10
2959.673057123637
 20
4932.931598713267
 30
0.0
 11
2959.673057123637
 21
5406.378484445255
 31
0.0
  0
LINE
  5
18947
330
184FE
100
AcDbEntity
  8
寸法
 62
     0
 48
50.0
370
    -2
100
AcDbLine
 10
9159.673057123667
 20
4932.931598713264
 30
0.0
 11
9159.673057123667
 21
5406.378484445255
 31
0.0
  0
LINE
  5
18948
330
184FE
100
AcDbEntity
  8
寸法
 62
     0
 48
50.0
370
    -2
100
AcDbLine
 10
2959.673057123637
 20
5346.378484445256
 30
0.0
 11
9159.673057123667
 21
5346.378484445256
 31
0.0
  0
INSERT
  5
18949
330
184FE
100
AcDbEntity
  8
寸法
 62
     0
 48
50.0
370
    -2
100
AcDbBlockReference
  2
_DOTSMALL
 10
2959.673057123637
 20
5346.378484445256
 30
0.0
 41
100.0
 42
100.0
 43
100.0
 50
180.0
  0
INSERT
  5
1894A
330
184FE
100
AcDbEntity
  8
寸法
 62
     0
 48
50.0
370
    -2
100
AcDbBlockReference
  2
_DOTSMALL
 10
9159.673057123667
 20
5346.378484445256
 30
0.0
 41
100.0
 42
100.0
 43
100.0
  0
MTEXT
  5
1894B
330
184FE
100
AcDbEntity
  8
寸法
 62
     7
 48
50.0
100
AcDbMText
 10
6059.673057123651
 20
5446.390295468877
 30
0.0
 40
120.0
 41
0.0
 71
     5
 72
     1
  1
\A1;6200
  7
STYLE1
 73
     1
 44
1.0
1001
ACAD
1000
MTEXTBEGIN
1070
    73
1070
     1
1070
    44
1040
1.0
1070
    74
1070
     0
1000
MTEXTEND
  0
POINT
  5
1894C
330
184FE
100
AcDbEntity
  8
DEFPOINTS
 62
     0
 48
50.0
100
AcDbPoint
 10
2959.673057123637
 20
4912.931598713267
 30
0.0
  0
POINT
  5
1894D
330
184FE
100
AcDbEntity
  8
DEFPOINTS
 62
     0
 48
50.0
100
AcDbPoint
 10
9159.673057123667
 20
4912.931598713264
 30
0.0
  0
POINT
  5
1894E
330
184FE
100
AcDbEntity
  8
DEFPOINTS
 62
     0
 48
50.0
100
AcDbPoint
 10
9159.673057123667
 20
5346.378484445256
 30
0.0
  0
ENDBLK
  5
18509
330
184FE
100
AcDbEntity
  8
0
 48
50.0
100
AcDbBlockEnd
  0
BLOCK
  5
18516
330
1850A
100
AcDbEntity
  8
0
 48
50.0
100
AcDbBlockBegin
  2
*D25
 70
     1
 10
0.0
 20
0.0
 30
0.0
  3
*D25
  1

  0
LINE
  5
1893B
330
1850A
100
AcDbEntity
  8
寸法
 62
     0
 48
50.0
370
    -2
100
AcDbLine
 10
3009.673057123637
 20
4932.931598713269
 30
0.0
 11
3009.673057123637
 21
5185.473183971506
 31
0.0
  0
LINE
  5
1893C
330
1850A
100
AcDbEntity
  8
寸法
 62
     0
 48
50.0
370
    -2
100
AcDbLine
 10
2959.673057123637
 20
4932.931598713267
 30
0.0
 11
2959.673057123637
 21
5185.473183971506
 31
0.0
  0
LINE
  5
1893D
330
1850A
100
AcDbEntity
  8
寸法
 62
     0
 48
50.0
370
    -2
100
AcDbLine
 10
3009.673057123637
 20
5125.473183971506
 30
0.0
 11
3109.673057123637
 21
5125.473183971506
 31
0.0
  0
LINE
  5
1893E
330
1850A
100
AcDbEntity
  8
寸法
 62
     0
 48
50.0
370
    -2
100
AcDbLine
 10
2959.673057123637
 20
5125.473183971506
 30
0.0
 11
2540.140531654901
 21
5125.473183971506
 31
0.0
  0
LINE
  5
1893F
330
1850A
100
AcDbEntity
  8
寸法
 62
     0
 48
50.0
370
    -2
100
AcDbLine
 10
3009.673057123637
 20
5125.473183971506
 30
0.0
 11
2959.673057123637
 21
5125.473183971506
 31
0.0
  0
INSERT
  5
18940
330
1850A
100
AcDbEntity
  8
寸法
 62
     0
 48
50.0
370
    -2
100
AcDbBlockReference
  2
_DOTSMALL
 10
3009.673057123637
 20
5125.473183971506
 30
0.0
 41
100.0
 42
100.0
 43
100.0
 50
180.0
  0
INSERT
  5
18941
330
1850A
100
AcDbEntity
  8
寸法
 62
     0
 48
50.0
370
    -2
100
AcDbBlockReference
  2
_DOTSMALL
 10
2959.673057123637
 20
5125.473183971506
 30
0.0
 41
100.0
 42
100.0
 43
100.0
  0
MTEXT
  5
18942
330
1850A
100
AcDbEntity
  8
寸法
 62
     7
 48
50.0
100
AcDbMText
 10
2646.187775749389
 20
5225.473183971506
 30
0.0
 40
120.0
 41
0.0
 71
     5
 72
     1
  1
\A1;50
  7
STYLE1
 73
     1
 44
1.0
1001
ACAD
1000
MTEXTBEGIN
1070
    73
1070
     1
1070
    44
1040
1.0
1070
    74
1070
     0
1000
MTEXTEND
  0
POINT
  5
18943
330
1850A
100
AcDbEntity
  8
DEFPOINTS
 62
     0
 48
50.0
100
AcDbPoint
 10
3009.673057123637
 20
4912.931598713268
 30
0.0
  0
POINT
  5
18944
330
1850A
100
AcDbEntity
  8
DEFPOINTS
 62
     0
 48
50.0
100
AcDbPoint
 10
2959.673057123637
 20
4912.931598713267
 30
0.0
  0
POINT
  5
18945
330
1850A
100
AcDbEntity
  8
DEFPOINTS
 62
     0
 48
50.0
100
AcDbPoint
 10
2959.673057123637
 20
5125.473183971506
 30
0.0
  0
ENDBLK
  5
18517
330
1850A
100
AcDbEntity
  8
0
 48
50.0
100
AcDbBlockEnd
  0
BLOCK
  5
18522
330
18518
100
AcDbEntity
  8
0
 48
50.0
100
AcDbBlockBegin
  2
*D26
 70
     1
 10
0.0
 20
0.0
 30
0.0
  3
*D26
  1

  0
LINE
  5
195FC
330
18518
100
AcDbEntity
  8
寸法
 62
     0
 48
50.0
370
    -2
100
AcDbLine
 10
9109.673057123652
 20
4932.931598713266
 30
0.0
 11
9109.673057123652
 21
5185.473183971506
 31
0.0
  0
LINE
  5
195FD
330
18518
100
AcDbEntity
  8
寸法
 62
     0
 48
50.0
370
    -2
100
AcDbLine
 10
3009.673057123637
 20
4932.931598713269
 30
0.0
 11
3009.673057123637
 21
5185.473183971506
 31
0.0
  0
LINE
  5
195FE
330
18518
100
AcDbEntity
  8
寸法
 62
     0
 48
50.0
370
    -2
100
AcDbLine
 10
9109.673057123652
 20
5125.473183971506
 30
0.0
 11
3009.673057123637
 21
5125.473183971506
 31
0.0
  0
INSERT
  5
195FF
330
18518
100
AcDbEntity
  8
寸法
 62
     0
 48
50.0
370
    -2
100
AcDbBlockReference
  2
_DOTSMALL
 10
9109.673057123652
 20
5125.473183971506
 30
0.0
 41
100.0
 42
100.0
 43
100.0
  0
INSERT
  5
19600
330
18518
100
AcDbEntity
  8
寸法
 62
     0
 48
50.0
370
    -2
100
AcDbBlockReference
  2
_DOTSMALL
 10
3009.673057123637
 20
5125.473183971506
 30
0.0
 41
100.0
 42
100.0
 43
100.0
 50
180.0
  0
MTEXT
  5
19601
330
18518
100
AcDbEntity
  8
寸法
 62
     7
 48
50.0
100
AcDbMText
 10
6059.673057123644
 20
5225.473183971506
 30
0.0
 40
120.0
 41
0.0
 71
     5
 72
     1
  1
\A1;柱外寸法6100
  7
STYLE1
 73
     1
 44
1.0
1001
ACAD
1000
MTEXTBEGIN
1070
    73
1070
     1
1070
    44
1040
1.0
1070
    74
1070
     0
1000
MTEXTEND
  0
POINT
  5
19602
330
18518
100
AcDbEntity
  8
DEFPOINTS
 62
     0
 48
50.0
100
AcDbPoint
 10
9109.673057123652
 20
4912.931598713266
 30
0.0
  0
POINT
  5
19603
330
18518
100
AcDbEntity
  8
DEFPOINTS
 62
     0
 48
50.0
100
AcDbPoint
 10
3009.673057123637
 20
4912.931598713268
 30
0.0
  0
POINT
  5
19604
330
18518
100
AcDbEntity
  8
DEFPOINTS
 62
     0
 48
50.0
100
AcDbPoint
 10
3009.673057123637
 20
5125.473183971506
 30
0.0
  0
ENDBLK
  5
18523
330
18518
100
AcDbEntity
  8
0
 48
50.0
100
AcDbBlockEnd
  0
BLOCK
  5
1852F
330
18524
100
AcDbEntity
  8
0
 48
50.0
100
AcDbBlockBegin
  2
*D27
 70
     1
 10
0.0
 20
0.0
 30
0.0
  3
*D27
  1

  0
LINE
  5
18928
330
18524
100
AcDbEntity
  8
寸法
 62
     0
 48
50.0
370
    -2
100
AcDbLine
 10
11767.41323435716
 20
4912.229305782924
 30
0.0
 11
11151.47879525186
 21
4929.943456057253
 31
0.0
  0
LINE
  5
18929
330
18524
100
AcDbEntity
  8
寸法
 62
     0
 48
50.0
370
    -2
100
AcDbLine
 10
11763.35977880053
 20
4771.28758201721
 30
0.0
 11
11147.42533969524
 21
4789.001732291541
 31
0.0
  0
LINE
  5
1892A
330
18524
100
AcDbEntity
  8
寸法
 62
     0
 48
50.0
370
    -2
100
AcDbLine
 10
11207.40054129767
 20
4787.276857586593
 30
0.0
 11
11211.45399685429
 21
4928.218581352306
 31
0.0
  0
LINE
  5
1892B
330
18524
100
AcDbEntity
  8
寸法
 62
     0
 48
50.0
370
    -2
100
AcDbLine
 10
11211.45399685429
 20
4928.218581352306
 30
0.0
 11
11221.80324508398
 21
5288.069790966893
 31
0.0
  0
INSERT
  5
1892C
330
18524
100
AcDbEntity
  8
寸法
 62
     0
 48
50.0
370
    -2
100
AcDbBlockReference
  2
_DOTSMALL
 10
11207.40054129767
 20
4787.276857586593
 30
0.0
 41
100.0
 42
100.0
 43
100.0
 50
268.3526390256378
  0
INSERT
  5
1892D
330
18524
100
AcDbEntity
  8
寸法
 62
     0
 48
50.0
370
    -2
100
AcDbBlockReference
  2
_DOTSMALL
 10
11211.45399685429
 20
4928.218581352306
 30
0.0
 41
100.0
 42
100.0
 43
100.0
 50
88.35263902563776
  0
MTEXT
  5
1892E
330
18524
100
AcDbEntity
  8
寸法
 62
     7
 48
50.0
100
AcDbMText
 10
11118.10734721921
 20
5160.998312003204
 30
0.0
 40
120.0
 41
0.0
 71
     5
 72
     1
  1
\A1;141
  7
STYLE1
 11
0.0287479117491237
 21
0.9995866933738488
 31
0.0
 73
     1
 44
1.0
1001
ACAD
1000
MTEXTBEGIN
1070
    73
1070
     1
1070
    44
1040
1.0
1070
    74
1070
     0
1000
MTEXTEND
  0
POINT
  5
1892F
330
18524
100
AcDbEntity
  8
DEFPOINTS
 62
     0
 48
50.0
100
AcDbPoint
 10
11787.40496822463
 20
4911.654347547941
 30
0.0
  0
POINT
  5
18930
330
18524
100
AcDbEntity
  8
DEFPOINTS
 62
     0
 48
50.0
100
AcDbPoint
 10
11783.35151266801
 20
4770.712623782228
 30
0.0
  0
POINT
  5
18931
330
18524
100
AcDbEntity
  8
DEFPOINTS
 62
     0
 48
50.0
100
AcDbPoint
 10
11207.40054129767
 20
4787.276857586593
 30
0.0
  0
ENDBLK
  5
18530
330
18524
100
AcDbEntity
  8
0
 48
50.0
100
AcDbBlockEnd
  0
BLOCK
  5
1853C
330
18531
100
AcDbEntity
  8
0
 48
50.0
100
AcDbBlockBegin
  2
*D28
 70
     1
 10
0.0
 20
0.0
 30
0.0
  3
*D28
  1

  0
LINE
  5
1891E
330
18531
100
AcDbEntity
  8
寸法
 62
     0
 48
50.0
370
    -2
100
AcDbLine
 10
14878.00894806605
 20
4879.742278324917
 30
0.0
 11
14878.00894806605
 21
5371.589052292567
 31
0.0
  0
LINE
  5
1891F
330
18531
100
AcDbEntity
  8
寸法
 62
     0
 48
50.0
370
    -2
100
AcDbLine
 10
14958.00894806605
 20
4877.931598713264
 30
0.0
 11
14958.00894806605
 21
5371.589052292567
 31
0.0
  0
LINE
  5
18920
330
18531
100
AcDbEntity
  8
寸法
 62
     0
 48
50.0
370
    -2
100
AcDbLine
 10
14878.00894806605
 20
5311.589052292568
 30
0.0
 11
14958.00894806605
 21
5311.589052292568
 31
0.0
  0
LINE
  5
18921
330
18531
100
AcDbEntity
  8
寸法
 62
     0
 48
50.0
370
    -2
100
AcDbLine
 10
14958.00894806605
 20
5311.589052292568
 30
0.0
 11
15270.10343625503
 21
5311.589052292568
 31
0.0
  0
INSERT
  5
18922
330
18531
100
AcDbEntity
  8
寸法
 62
     0
 48
50.0
370
    -2
100
AcDbBlockReference
  2
_DOTSMALL
 10
14878.00894806605
 20
5311.589052292568
 30
0.0
 41
100.0
 42
100.0
 43
100.0
 50
180.0
  0
INSERT
  5
18923
330
18531
100
AcDbEntity
  8
寸法
 62
     0
 48
50.0
370
    -2
100
AcDbBlockReference
  2
_DOTSMALL
 10
14958.00894806605
 20
5311.589052292568
 30
0.0
 41
100.0
 42
100.0
 43
100.0
  0
MTEXT
  5
18924
330
18531
100
AcDbEntity
  8
寸法
 62
     7
 48
50.0
100
AcDbMText
 10
15164.05619216055
 20
5411.589052292567
 30
0.0
 40
120.0
 41
0.0
 71
     5
 72
     1
  1
\A1;80
  7
STYLE1
 73
     1
 44
1.0
1001
ACAD
1000
MTEXTBEGIN
1070
    73
1070
     1
1070
    44
1040
1.0
1070
    74
1070
     0
1000
MTEXTEND
  0
POINT
  5
18925
330
18531
100
AcDbEntity
  8
DEFPOINTS
 62
     0
 48
50.0
100
AcDbPoint
 10
14878.00894806605
 20
4859.742278324916
 30
0.0
  0
POINT
  5
18926
330
18531
100
AcDbEntity
  8
DEFPOINTS
 62
     0
 48
50.0
100
AcDbPoint
 10
14958.00894806605
 20
4857.931598713265
 30
0.0
  0
POINT
  5
18927
330
18531
100
AcDbEntity
  8
DEFPOINTS
 62
     0
 48
50.0
100
AcDbPoint
 10
14958.00894806605
 20
5311.589052292568
 30
0.0
  0
ENDBLK
  5
1853D
330
18531
100
AcDbEntity
  8
0
 48
50.0
100
AcDbBlockEnd
  0
BLOCK
  5
18548
330
1853E
100
AcDbEntity
  8
0
 48
50.0
100
AcDbBlockBegin
  2
*D29
 70
     1
 10
0.0
 20
0.0
 30
0.0
  3
*D29
  1

  0
LINE
  5
195DF
330
1853E
100
AcDbEntity
  8
寸法
 62
     0
 48
50.0
370
    -2
100
AcDbLine
 10
14958.00894806605
 20
4877.931598713264
 30
0.0
 11
14958.00894806605
 21
5601.702645078844
 31
0.0
  0
LINE
  5
195E0
330
1853E
100
AcDbEntity
  8
寸法
 62
     0
 48
50.0
370
    -2
100
AcDbLine
 10
11768.00894806605
 20
4932.931598713266
 30
0.0
 11
11768.00894806605
 21
5601.702645078844
 31
0.0
  0
LINE
  5
195E1
330
1853E
100
AcDbEntity
  8
寸法
 62
     0
 48
50.0
370
    -2
100
AcDbLine
 10
14958.00894806605
 20
5541.702645078843
 30
0.0
 11
11768.00894806605
 21
5541.702645078843
 31
0.0
  0
INSERT
  5
195E2
330
1853E
100
AcDbEntity
  8
寸法
 62
     0
 48
50.0
370
    -2
100
AcDbBlockReference
  2
_DOTSMALL
 10
14958.00894806605
 20
5541.702645078843
 30
0.0
 41
100.0
 42
100.0
 43
100.0
  0
INSERT
  5
195E3
330
1853E
100
AcDbEntity
  8
寸法
 62
     0
 48
50.0
370
    -2
100
AcDbBlockReference
  2
_DOTSMALL
 10
11768.00894806605
 20
5541.702645078843
 30
0.0
 41
100.0
 42
100.0
 43
100.0
 50
180.0
  0
MTEXT
  5
195E4
330
1853E
100
AcDbEntity
  8
寸法
 62
     7
 48
50.0
100
AcDbMText
 10
13363.00894806605
 20
5641.702645078844
 30
0.0
 40
120.0
 41
0.0
 71
     5
 72
     1
  1
\A1;3190
  7
STYLE1
 73
     1
 44
1.0
1001
ACAD
1000
MTEXTBEGIN
1070
    73
1070
     1
1070
    44
1040
1.0
1070
    74
1070
     0
1000
MTEXTEND
  0
POINT
  5
195E5
330
1853E
100
AcDbEntity
  8
DEFPOINTS
 62
     0
 48
50.0
100
AcDbPoint
 10
14958.00894806605
 20
4857.931598713263
 30
0.0
  0
POINT
  5
195E6
330
1853E
100
AcDbEntity
  8
DEFPOINTS
 62
     0
 48
50.0
100
AcDbPoint
 10
11768.00894806605
 20
4912.931598713266
 30
0.0
  0
POINT
  5
195E7
330
1853E
100
AcDbEntity
  8
DEFPOINTS
 62
     0
 48
50.0
100
AcDbPoint
 10
11768.00894806605
 20
5541.702645078843
 30
0.0
  0
ENDBLK
  5
18549
330
1853E
100
AcDbEntity
  8
0
 48
50.0
100
AcDbBlockEnd
  0
BLOCK
  5
18556
330
1854A
100
AcDbEntity
  8
0
 48
50.0
100
AcDbBlockBegin
  2
*D30
 70
     1
 10
0.0
 20
0.0
 30
0.0
  3
*D30
  1

  0
LINE
  5
1890A
330
1854A
100
AcDbEntity
  8
寸法
 62
     0
 48
50.0
370
    -2
100
AcDbLine
 10
11828.00894806605
 20
4928.933216836238
 30
0.0
 11
11828.00894806605
 21
5371.589052292566
 31
0.0
  0
LINE
  5
1890B
330
1854A
100
AcDbEntity
  8
寸法
 62
     0
 48
50.0
370
    -2
100
AcDbLine
 10
11768.00894806605
 20
4932.931598713266
 30
0.0
 11
11768.00894806605
 21
5371.589052292566
 31
0.0
  0
LINE
  5
1890C
330
1854A
100
AcDbEntity
  8
寸法
 62
     0
 48
50.0
370
    -2
100
AcDbLine
 10
11828.00894806605
 20
5311.589052292566
 30
0.0
 11
11928.00894806605
 21
5311.589052292566
 31
0.0
  0
LINE
  5
1890D
330
1854A
100
AcDbEntity
  8
寸法
 62
     0
 48
50.0
370
    -2
100
AcDbLine
 10
11768.00894806605
 20
5311.589052292566
 30
0.0
 11
11348.73335751487
 21
5311.589052292566
 31
0.0
  0
LINE
  5
1890E
330
1854A
100
AcDbEntity
  8
寸法
 62
     0
 48
50.0
370
    -2
100
AcDbLine
 10
11828.00894806605
 20
5311.589052292566
 30
0.0
 11
11768.00894806605
 21
5311.589052292566
 31
0.0
  0
INSERT
  5
1890F
330
1854A
100
AcDbEntity
  8
寸法
 62
     0
 48
50.0
370
    -2
100
AcDbBlockReference
  2
_DOTSMALL
 10
11828.00894806605
 20
5311.589052292566
 30
0.0
 41
100.0
 42
100.0
 43
100.0
 50
180.0
  0
INSERT
  5
18910
330
1854A
100
AcDbEntity
  8
寸法
 62
     0
 48
50.0
370
    -2
100
AcDbBlockReference
  2
_DOTSMALL
 10
11768.00894806605
 20
5311.589052292566
 30
0.0
 41
100.0
 42
100.0
 43
100.0
  0
MTEXT
  5
18911
330
1854A
100
AcDbEntity
  8
寸法
 62
     7
 48
50.0
100
AcDbMText
 10
11458.37115279046
 20
5411.589052292566
 30
0.0
 40
120.0
 41
0.0
 71
     5
 72
     1
  1
\A1;60
  7
STYLE1
 73
     1
 44
1.0
1001
ACAD
1000
MTEXTBEGIN
1070
    73
1070
     1
1070
    44
1040
1.0
1070
    74
1070
     0
1000
MTEXTEND
  0
POINT
  5
18912
330
1854A
100
AcDbEntity
  8
DEFPOINTS
 62
     0
 48
50.0
100
AcDbPoint
 10
11828.00894806605
 20
4908.933216836238
 30
0.0
  0
POINT
  5
18913
330
1854A
100
AcDbEntity
  8
DEFPOINTS
 62
     0
 48
50.0
100
AcDbPoint
 10
11768.00894806605
 20
4912.931598713266
 30
0.0
  0
POINT
  5
18914
330
1854A
100
AcDbEntity
  8
DEFPOINTS
 62
     0
 48
50.0
100
AcDbPoint
 10
11768.00894806605
 20
5311.589052292566
 30
0.0
  0
ENDBLK
  5
18557
330
1854A
100
AcDbEntity
  8
0
 48
50.0
100
AcDbBlockEnd
  0
BLOCK
  5
18562
330
18558
100
AcDbEntity
  8
0
 48
50.0
100
AcDbBlockBegin
  2
*D31
 70
     1
 10
0.0
 20
0.0
 30
0.0
  3
*D31
  1

  0
LINE
  5
195E8
330
18558
100
AcDbEntity
  8
寸法
 62
     0
 48
50.0
370
    -2
100
AcDbLine
 10
14878.00894806605
 20
4879.742278324917
 30
0.0
 11
14878.00894806605
 21
5371.589052292567
 31
0.0
  0
LINE
  5
195E9
330
18558
100
AcDbEntity
  8
寸法
 62
     0
 48
50.0
370
    -2
100
AcDbLine
 10
11828.00894806605
 20
4928.933216836238
 30
0.0
 11
11828.00894806605
 21
5371.589052292567
 31
0.0
  0
LINE
  5
195EA
330
18558
100
AcDbEntity
  8
寸法
 62
     0
 48
50.0
370
    -2
100
AcDbLine
 10
14878.00894806605
 20
5311.589052292568
 30
0.0
 11
11828.00894806605
 21
5311.589052292568
 31
0.0
  0
INSERT
  5
195EB
330
18558
100
AcDbEntity
  8
寸法
 62
     0
 48
50.0
370
    -2
100
AcDbBlockReference
  2
_DOTSMALL
 10
14878.00894806605
 20
5311.589052292568
 30
0.0
 41
100.0
 42
100.0
 43
100.0
  0
INSERT
  5
195EC
330
18558
100
AcDbEntity
  8
寸法
 62
     0
 48
50.0
370
    -2
100
AcDbBlockReference
  2
_DOTSMALL
 10
11828.00894806605
 20
5311.589052292568
 30
0.0
 41
100.0
 42
100.0
 43
100.0
 50
180.0
  0
MTEXT
  5
195ED
330
18558
100
AcDbEntity
  8
寸法
 62
     7
 48
50.0
100
AcDbMText
 10
13353.00894806605
 20
5411.589052292567
 30
0.0
 40
120.0
 41
0.0
 71
     5
 72
     1
  1
\A1;柱外寸法3050
  7
STYLE1
 73
     1
 44
1.0
1001
ACAD
1000
MTEXTBEGIN
1070
    73
1070
     1
1070
    44
1040
1.0
1070
    74
1070
     0
1000
MTEXTEND
  0
POINT
  5
195EE
330
18558
100
AcDbEntity
  8
DEFPOINTS
 62
     0
 48
50.0
100
AcDbPoint
 10
14878.00894806605
 20
4859.742278324916
 30
0.0
  0
POINT
  5
195EF
330
18558
100
AcDbEntity
  8
DEFPOINTS
 62
     0
 48
50.0
100
AcDbPoint
 10
11828.00894806605
 20
4908.933216836238
 30
0.0
  0
POINT
  5
195F0
330
18558
100
AcDbEntity
  8
DEFPOINTS
 62
     0
 48
50.0
100
AcDbPoint
 10
11828.00894806605
 20
5311.589052292568
 30
0.0
  0
ENDBLK
  5
18563
330
18558
100
AcDbEntity
  8
0
 48
50.0
100
AcDbBlockEnd
  0
BLOCK
  5
18570
330
18564
100
AcDbEntity
  8
0
 48
50.0
100
AcDbBlockBegin
  2
*D32
 70
     1
 10
0.0
 20
0.0
 30
0.0
  3
*D32
  1

  0
LINE
  5
188F6
330
18564
100
AcDbEntity
  8
寸法
 62
     0
 48
50.0
370
    -2
100
AcDbLine
 10
11808.00894806606
 20
2587.931598713261
 30
0.0
 11
10924.25881888279
 21
2587.931598713262
 31
0.0
  0
LINE
  5
188F7
330
18564
100
AcDbEntity
  8
寸法
 62
     0
 48
50.0
370
    -2
100
AcDbLine
 10
11753.00894806605
 20
2537.931598713262
 30
0.0
 11
10924.25881888279
 21
2537.931598713262
 31
0.0
  0
LINE
  5
188F8
330
18564
100
AcDbEntity
  8
寸法
 62
     0
 48
50.0
370
    -2
100
AcDbLine
 10
10984.25881888279
 20
2587.931598713262
 30
0.0
 11
10984.25881888279
 21
2687.931598713262
 31
0.0
  0
LINE
  5
188F9
330
18564
100
AcDbEntity
  8
寸法
 62
     0
 48
50.0
370
    -2
100
AcDbLine
 10
10984.25881888279
 20
2537.931598713262
 30
0.0
 11
10984.25881888279
 21
2125.837110524282
 31
0.0
  0
LINE
  5
188FA
330
18564
100
AcDbEntity
  8
寸法
 62
     0
 48
50.0
370
    -2
100
AcDbLine
 10
10984.25881888279
 20
2587.931598713262
 30
0.0
 11
10984.25881888279
 21
2537.931598713262
 31
0.0
  0
INSERT
  5
188FB
330
18564
100
AcDbEntity
  8
寸法
 62
     0
 48
50.0
370
    -2
100
AcDbBlockReference
  2
_DOTSMALL
 10
10984.25881888279
 20
2587.931598713262
 30
0.0
 41
100.0
 42
100.0
 43
100.0
 50
270.0
  0
INSERT
  5
188FC
330
18564
100
AcDbEntity
  8
寸法
 62
     0
 48
50.0
370
    -2
100
AcDbBlockReference
  2
_DOTSMALL
 10
10984.25881888279
 20
2537.931598713262
 30
0.0
 41
100.0
 42
100.0
 43
100.0
 50
90.0
  0
MTEXT
  5
188FD
330
18564
100
AcDbEntity
  8
寸法
 62
     7
 48
50.0
100
AcDbMText
 10
10884.25881888279
 20
2231.884354618772
 30
0.0
 40
120.0
 41
0.0
 71
     5
 72
     1
  1
\A1;50
  7
STYLE1
 11
0.0000000000000001
 21
1.0
 31
0.0
 73
     1
 44
1.0
1001
ACAD
1000
MTEXTBEGIN
1070
    73
1070
     1
1070
    44
1040
1.0
1070
    74
1070
     0
1000
MTEXTEND
  0
POINT
  5
188FE
330
18564
100
AcDbEntity
  8
DEFPOINTS
 62
     0
 48
50.0
100
AcDbPoint
 10
11828.00894806605
 20
2587.931598713261
 30
0.0
  0
POINT
  5
188FF
330
18564
100
AcDbEntity
  8
DEFPOINTS
 62
     0
 48
50.0
100
AcDbPoint
 10
11773.00894806605
 20
2537.931598713262
 30
0.0
  0
POINT
  5
18900
330
18564
100
AcDbEntity
  8
DEFPOINTS
 62
     0
 48
50.0
100
AcDbPoint
 10
10984.25881888279
 20
2537.931598713262
 30
0.0
  0
ENDBLK
  5
18571
330
18564
100
AcDbEntity
  8
0
 48
50.0
100
AcDbBlockEnd
  0
BLOCK
  5
18589
330
1857F
100
AcDbEntity
  8
0
 48
50.0
100
AcDbBlockBegin
  2
*D33
 70
     1
 10
0.0
 20
0.0
 30
0.0
  3
*D33
  1

  0
LINE
  5
188E3
330
1857F
100
AcDbEntity
  8
寸法
 62
     0
 48
50.0
370
    -2
100
AcDbLine
 10
14898.00894806605
 20
2537.931598713263
 30
0.0
 11
15642.93610603817
 21
2537.931598713263
 31
0.0
  0
LINE
  5
188E4
330
1857F
100
AcDbEntity
  8
寸法
 62
     0
 48
50.0
370
    -2
100
AcDbLine
 10
14978.00894806605
 20
4857.931598713263
 30
0.0
 11
15642.93610603818
 21
4857.931598713263
 31
0.0
  0
LINE
  5
188E5
330
1857F
100
AcDbEntity
  8
寸法
 62
     0
 48
50.0
370
    -2
100
AcDbLine
 10
15582.93610603817
 20
2537.931598713263
 30
0.0
 11
15582.93610603818
 21
4857.931598713263
 31
0.0
  0
INSERT
  5
188E6
330
1857F
100
AcDbEntity
  8
寸法
 62
     0
 48
50.0
370
    -2
100
AcDbBlockReference
  2
_DOTSMALL
 10
15582.93610603817
 20
2537.931598713263
 30
0.0
 41
100.0
 42
100.0
 43
100.0
 50
270.0
  0
INSERT
  5
188E7
330
1857F
100
AcDbEntity
  8
寸法
 62
     0
 48
50.0
370
    -2
100
AcDbBlockReference
  2
_DOTSMALL
 10
15582.93610603818
 20
4857.931598713263
 30
0.0
 41
100.0
 42
100.0
 43
100.0
 50
90.0
  0
MTEXT
  5
188E8
330
1857F
100
AcDbEntity
  8
寸法
 62
     7
 48
50.0
100
AcDbMText
 10
15482.92429501455
 20
3697.931598713266
 30
0.0
 40
120.0
 41
0.0
 71
     5
 72
     1
  1
\A1;2320
  7
STYLE1
 11
0.0000000000000001
 21
1.0
 31
0.0
 73
     1
 44
1.0
1001
ACAD
1000
MTEXTBEGIN
1070
    73
1070
     1
1070
    44
1040
1.0
1070
    74
1070
     0
1000
MTEXTEND
  0
POINT
  5
188E9
330
1857F
100
AcDbEntity
  8
DEFPOINTS
 62
     0
 48
50.0
100
AcDbPoint
 10
14878.00894806605
 20
2537.931598713263
 30
0.0
  0
POINT
  5
188EA
330
1857F
100
AcDbEntity
  8
DEFPOINTS
 62
     0
 48
50.0
100
AcDbPoint
 10
14958.00894806605
 20
4857.931598713263
 30
0.0
  0
POINT
  5
188EB
330
1857F
100
AcDbEntity
  8
DEFPOINTS
 62
     0
 48
50.0
100
AcDbPoint
 10
15582.93610603818
 20
4857.931598713263
 30
0.0
  0
ENDBLK
  5
1858A
330
1857F
100
AcDbEntity
  8
0
 48
50.0
100
AcDbBlockEnd
  0
BLOCK
  5
18595
330
1858B
100
AcDbEntity
  8
0
 48
50.0
100
AcDbBlockBegin
  2
*D34
 70
     1
 10
0.0
 20
0.0
 30
0.0
  3
*D34
  1

  0
LINE
  5
188DA
330
1858B
100
AcDbEntity
  8
寸法
 62
     0
 48
50.0
370
    -2
100
AcDbLine
 10
11808.00894806606
 20
2537.931598713257
 30
0.0
 11
10624.25881888279
 21
2537.931598713257
 31
0.0
  0
LINE
  5
188DB
330
1858B
100
AcDbEntity
  8
寸法
 62
     0
 48
50.0
370
    -2
100
AcDbLine
 10
11748.00894806605
 20
4912.931598713261
 30
0.0
 11
10624.2588188828
 21
4912.931598713261
 31
0.0
  0
LINE
  5
188DC
330
1858B
100
AcDbEntity
  8
寸法
 62
     0
 48
50.0
370
    -2
100
AcDbLine
 10
10684.25881888279
 20
2537.931598713257
 30
0.0
 11
10684.2588188828
 21
4912.931598713261
 31
0.0
  0
INSERT
  5
188DD
330
1858B
100
AcDbEntity
  8
寸法
 62
     0
 48
50.0
370
    -2
100
AcDbBlockReference
  2
_DOTSMALL
 10
10684.25881888279
 20
2537.931598713257
 30
0.0
 41
100.0
 42
100.0
 43
100.0
 50
270.0
  0
INSERT
  5
188DE
330
1858B
100
AcDbEntity
  8
寸法
 62
     0
 48
50.0
370
    -2
100
AcDbBlockReference
  2
_DOTSMALL
 10
10684.2588188828
 20
4912.931598713261
 30
0.0
 41
100.0
 42
100.0
 43
100.0
 50
90.0
  0
MTEXT
  5
188DF
330
1858B
100
AcDbEntity
  8
寸法
 62
     7
 48
50.0
100
AcDbMText
 10
10584.24700785917
 20
3725.431598713262
 30
0.0
 40
120.0
 41
0.0
 71
     5
 72
     1
  1
\A1;2375
  7
STYLE1
 11
0.0000000000000001
 21
1.0
 31
0.0
 73
     1
 44
1.0
1001
ACAD
1000
MTEXTBEGIN
1070
    73
1070
     1
1070
    44
1040
1.0
1070
    74
1070
     0
1000
MTEXTEND
  0
POINT
  5
188E0
330
1858B
100
AcDbEntity
  8
DEFPOINTS
 62
     0
 48
50.0
100
AcDbPoint
 10
11828.00894806605
 20
2537.931598713257
 30
0.0
  0
POINT
  5
188E1
330
1858B
100
AcDbEntity
  8
DEFPOINTS
 62
     0
 48
50.0
100
AcDbPoint
 10
11768.00894806605
 20
4912.931598713261
 30
0.0
  0
POINT
  5
188E2
330
1858B
100
AcDbEntity
  8
DEFPOINTS
 62
     0
 48
50.0
100
AcDbPoint
 10
10684.2588188828
 20
4912.931598713261
 30
0.0
  0
ENDBLK
  5
18596
330
1858B
100
AcDbEntity
  8
0
 48
50.0
100
AcDbBlockEnd
  0
BLOCK
  5
185A1
330
18597
100
AcDbEntity
  8
0
 48
50.0
100
AcDbBlockBegin
  2
*D35
 70
     1
 10
0.0
 20
0.0
 30
0.0
  3
*D35
  1

  0
LINE
  5
188D1
330
18597
100
AcDbEntity
  8
寸法
 62
     0
 48
50.0
370
    -2
100
AcDbLine
 10
11808.00894806606
 20
4677.931598713257
 30
0.0
 11
10924.2588188828
 21
4677.931598713257
 31
0.0
  0
LINE
  5
188D2
330
18597
100
AcDbEntity
  8
寸法
 62
     0
 48
50.0
370
    -2
100
AcDbLine
 10
11808.00894806606
 20
2587.931598713257
 30
0.0
 11
10924.25881888279
 21
2587.931598713257
 31
0.0
  0
LINE
  5
188D3
330
18597
100
AcDbEntity
  8
寸法
 62
     0
 48
50.0
370
    -2
100
AcDbLine
 10
10984.2588188828
 20
4677.931598713257
 30
0.0
 11
10984.25881888279
 21
2587.931598713257
 31
0.0
  0
INSERT
  5
188D4
330
18597
100
AcDbEntity
  8
寸法
 62
     0
 48
50.0
370
    -2
100
AcDbBlockReference
  2
_DOTSMALL
 10
10984.2588188828
 20
4677.931598713257
 30
0.0
 41
100.0
 42
100.0
 43
100.0
 50
90.0
  0
INSERT
  5
188D5
330
18597
100
AcDbEntity
  8
寸法
 62
     0
 48
50.0
370
    -2
100
AcDbBlockReference
  2
_DOTSMALL
 10
10984.25881888279
 20
2587.931598713257
 30
0.0
 41
100.0
 42
100.0
 43
100.0
 50
270.0
  0
MTEXT
  5
188D6
330
18597
100
AcDbEntity
  8
寸法
 62
     7
 48
50.0
100
AcDbMText
 10
10884.24700785917
 20
3632.931598713259
 30
0.0
 40
120.0
 41
0.0
 71
     5
 72
     1
  1
\A1;2090
  7
STYLE1
 11
0.0000000000000001
 21
1.0
 31
0.0
 73
     1
 44
1.0
1001
ACAD
1000
MTEXTBEGIN
1070
    73
1070
     1
1070
    44
1040
1.0
1070
    74
1070
     0
1000
MTEXTEND
  0
POINT
  5
188D7
330
18597
100
AcDbEntity
  8
DEFPOINTS
 62
     0
 48
50.0
100
AcDbPoint
 10
11828.00894806605
 20
4677.931598713257
 30
0.0
  0
POINT
  5
188D8
330
18597
100
AcDbEntity
  8
DEFPOINTS
 62
     0
 48
50.0
100
AcDbPoint
 10
11828.00894806605
 20
2587.931598713257
 30
0.0
  0
POINT
  5
188D9
330
18597
100
AcDbEntity
  8
DEFPOINTS
 62
     0
 48
50.0
100
AcDbPoint
 10
10984.25881888279
 20
2587.931598713257
 30
0.0
  0
ENDBLK
  5
185A2
330
18597
100
AcDbEntity
  8
0
 48
50.0
100
AcDbBlockEnd
  0
BLOCK
  5
18F42
330
18F38
100
AcDbEntity
  8
0
 48
50.0
100
AcDbBlockBegin
  2
*D36
 70
     1
 10
0.0
 20
0.0
 30
0.0
  3
*D36
  1

  0
LINE
  5
19010
330
18F38
100
AcDbEntity
  8
寸法
 62
     0
 48
50.0
370
    -2
100
AcDbLine
 10
6082.814073275041
 20
9692.497424545869
 30
0.0
 11
5980.072259316472
 21
9309.059754790698
 31
0.0
  0
LINE
  5
19011
330
18F38
100
AcDbEntity
  8
寸法
 62
     0
 48
50.0
370
    -2
100
AcDbLine
 10
7565.814073275054
 20
9692.497424545862
 30
0.0
 11
7463.072259316486
 21
9309.059754790698
 31
0.0
  0
LINE
  5
19012
330
18F38
100
AcDbEntity
  8
寸法
 62
     0
 48
50.0
370
    -2
100
AcDbLine
 10
5996.149210862339
 20
9369.059754790699
 30
0.0
 11
7479.149210862352
 21
9369.059754790699
 31
0.0
  0
INSERT
  5
19013
330
18F38
100
AcDbEntity
  8
寸法
 62
     0
 48
50.0
370
    -2
100
AcDbBlockReference
  2
_DOTSMALL
 10
5996.149210862339
 20
9369.059754790699
 30
0.0
 41
100.0
 42
100.0
 43
100.0
 50
180.0
  0
INSERT
  5
19014
330
18F38
100
AcDbEntity
  8
寸法
 62
     0
 48
50.0
370
    -2
100
AcDbBlockReference
  2
_DOTSMALL
 10
7479.149210862352
 20
9369.059754790699
 30
0.0
 41
100.0
 42
100.0
 43
100.0
  0
MTEXT
  5
19015
330
18F38
100
AcDbEntity
  8
寸法
 62
     7
 48
50.0
100
AcDbMText
 10
6675.964360531678
 20
9469.059754790698
 30
0.0
 40
120.0
 41
0.0
 71
     5
 72
     1
  1
\A1;1483
  7
STYLE1
 73
     1
 44
1.0
1001
ACAD
1000
MTEXTBEGIN
1070
    73
1070
     1
1070
    44
1040
1.0
1070
    74
1070
     0
1000
MTEXTEND
  0
POINT
  5
19016
330
18F38
100
AcDbEntity
  8
DEFPOINTS
 62
     0
 48
50.0
100
AcDbPoint
 10
6088.173057123664
 20
9712.497424545869
 30
0.0
  0
POINT
  5
19017
330
18F38
100
AcDbEntity
  8
DEFPOINTS
 62
     0
 48
50.0
100
AcDbPoint
 10
7571.173057123676
 20
9712.497424545862
 30
0.0
  0
POINT
  5
19018
330
18F38
100
AcDbEntity
  8
DEFPOINTS
 62
     0
 48
50.0
100
AcDbPoint
 10
7479.149210862352
 20
9369.059754790699
 30
0.0
  0
ENDBLK
  5
18F43
330
18F38
100
AcDbEntity
  8
0
 48
50.0
100
AcDbBlockEnd
  0
BLOCK
  5
18F4E
330
18F44
100
AcDbEntity
  8
0
 48
50.0
100
AcDbBlockBegin
  2
*D37
 70
     1
 10
0.0
 20
0.0
 30
0.0
  3
*D37
  1

  0
LINE
  5
19007
330
18F44
100
AcDbEntity
  8
寸法
 62
     0
 48
50.0
370
    -2
100
AcDbLine
 10
7592.81407327504
 20
9692.497424545976
 30
0.0
 11
7490.072259316471
 21
9309.059754790807
 31
0.0
  0
LINE
  5
19008
330
18F44
100
AcDbEntity
  8
寸法
 62
     0
 48
50.0
370
    -2
100
AcDbLine
 10
9075.814073275052
 20
9692.497424545969
 30
0.0
 11
8973.072259316484
 21
9309.059754790807
 31
0.0
  0
LINE
  5
19009
330
18F44
100
AcDbEntity
  8
寸法
 62
     0
 48
50.0
370
    -2
100
AcDbLine
 10
7506.149210862338
 20
9369.059754790807
 30
0.0
 11
8989.149210862354
 21
9369.059754790807
 31
0.0
  0
INSERT
  5
1900A
330
18F44
100
AcDbEntity
  8
寸法
 62
     0
 48
50.0
370
    -2
100
AcDbBlockReference
  2
_DOTSMALL
 10
7506.149210862338
 20
9369.059754790807
 30
0.0
 41
100.0
 42
100.0
 43
100.0
 50
180.0
  0
INSERT
  5
1900B
330
18F44
100
AcDbEntity
  8
寸法
 62
     0
 48
50.0
370
    -2
100
AcDbBlockReference
  2
_DOTSMALL
 10
8989.149210862354
 20
9369.059754790807
 30
0.0
 41
100.0
 42
100.0
 43
100.0
  0
MTEXT
  5
1900C
330
18F44
100
AcDbEntity
  8
寸法
 62
     7
 48
50.0
100
AcDbMText
 10
8122.611213040512
 20
9469.059754790807
 30
0.0
 40
120.0
 41
0.0
 71
     5
 72
     1
  1
\A1;1483
  7
STYLE1
 73
     1
 44
1.0
1001
ACAD
1000
MTEXTBEGIN
1070
    73
1070
     1
1070
    44
1040
1.0
1070
    74
1070
     0
1000
MTEXTEND
  0
POINT
  5
1900D
330
18F44
100
AcDbEntity
  8
DEFPOINTS
 62
     0
 48
50.0
100
AcDbPoint
 10
7598.173057123664
 20
9712.497424545974
 30
0.0
  0
POINT
  5
1900E
330
18F44
100
AcDbEntity
  8
DEFPOINTS
 62
     0
 48
50.0
100
AcDbPoint
 10
9081.173057123676
 20
9712.497424545967
 30
0.0
  0
POINT
  5
1900F
330
18F44
100
AcDbEntity
  8
DEFPOINTS
 62
     0
 48
50.0
100
AcDbPoint
 10
8989.149210862354
 20
9369.059754790807
 30
0.0
  0
ENDBLK
  5
18F4F
330
18F44
100
AcDbEntity
  8
0
 48
50.0
100
AcDbBlockEnd
  0
BLOCK
  5
19241
330
19237
100
AcDbEntity
  8
0
 48
50.0
100
AcDbBlockBegin
  2
*D38
 70
     1
 10
0.0
 20
0.0
 30
0.0
  3
*D38
  1

  0
LINE
  5
19302
330
19237
100
AcDbEntity
  8
寸法
 62
     0
 48
50.0
370
    -2
100
AcDbLine
 10
9129.673057123657
 20
2599.931598713262
 30
0.0
 11
9457.216159445401
 21
2599.931598713261
 31
0.0
  0
LINE
  5
19303
330
19237
100
AcDbEntity
  8
寸法
 62
     0
 48
50.0
370
    -2
100
AcDbLine
 10
9129.673057123659
 20
4485.93159871326
 30
0.0
 11
9457.216159445403
 21
4485.93159871326
 31
0.0
  0
LINE
  5
19304
330
19237
100
AcDbEntity
  8
寸法
 62
     0
 48
50.0
370
    -2
100
AcDbLine
 10
9397.216159445401
 20
2599.931598713261
 30
0.0
 11
9397.216159445404
 21
4485.93159871326
 31
0.0
  0
INSERT
  5
19305
330
19237
100
AcDbEntity
  8
寸法
 62
     0
 48
50.0
370
    -2
100
AcDbBlockReference
  2
_DOTSMALL
 10
9397.216159445401
 20
2599.931598713261
 30
0.0
 41
100.0
 42
100.0
 43
100.0
 50
270.0
  0
INSERT
  5
19306
330
19237
100
AcDbEntity
  8
寸法
 62
     0
 48
50.0
370
    -2
100
AcDbBlockReference
  2
_DOTSMALL
 10
9397.216159445404
 20
4485.93159871326
 30
0.0
 41
100.0
 42
100.0
 43
100.0
 50
90.0
  0
MTEXT
  5
19307
330
19237
100
AcDbEntity
  8
寸法
 62
     7
 48
50.0
100
AcDbMText
 10
9297.216159445401
 20
3542.931598713263
 30
0.0
 40
120.0
 41
0.0
 71
     5
 72
     1
  1
\A1;有効開口部高サ 1886
  7
STYLE1
 11
0.0000000000000001
 21
1.0
 31
0.0
 73
     1
 44
1.0
1001
ACAD
1000
MTEXTBEGIN
1070
    73
1070
     1
1070
    44
1040
1.0
1070
    74
1070
     0
1000
MTEXTEND
  0
POINT
  5
19308
330
19237
100
AcDbEntity
  8
DEFPOINTS
 62
     0
 48
50.0
100
AcDbPoint
 10
9109.673057123655
 20
2599.931598713262
 30
0.0
  0
POINT
  5
19309
330
19237
100
AcDbEntity
  8
DEFPOINTS
 62
     0
 48
50.0
100
AcDbPoint
 10
9109.673057123659
 20
4485.93159871326
 30
0.0
  0
POINT
  5
1930A
330
19237
100
AcDbEntity
  8
DEFPOINTS
 62
     0
 48
50.0
100
AcDbPoint
 10
9397.216159445404
 20
4485.93159871326
 30
0.0
  0
ENDBLK
  5
19242
330
19237
100
AcDbEntity
  8
0
 48
50.0
100
AcDbBlockEnd
  0
BLOCK
  5
1924F
330
19243
100
AcDbEntity
  8
0
 48
50.0
100
AcDbBlockBegin
  2
*D39
 70
     1
 10
0.0
 20
0.0
 30
0.0
  3
*D39
  1

  0
LINE
  5
19630
330
19243
100
AcDbEntity
  8
寸法
 62
     0
 48
50.0
370
    -2
100
AcDbLine
 10
9129.673057123659
 20
4485.93159871326
 30
0.0
 11
9457.216159445403
 21
4485.93159871326
 31
0.0
  0
LINE
  5
19631
330
19243
100
AcDbEntity
  8
寸法
 62
     0
 48
50.0
370
    -2
100
AcDbLine
 10
9129.673057123657
 20
4512.931598713262
 30
0.0
 11
9457.216159445403
 21
4512.931598713262
 31
0.0
  0
LINE
  5
19632
330
19243
100
AcDbEntity
  8
寸法
 62
     0
 48
50.0
370
    -2
100
AcDbLine
 10
9397.216159445404
 20
4485.93159871326
 30
0.0
 11
9397.216159445404
 21
4385.93159871326
 31
0.0
  0
LINE
  5
19633
330
19243
100
AcDbEntity
  8
寸法
 62
     0
 48
50.0
370
    -2
100
AcDbLine
 10
9397.216159445404
 20
4512.931598713262
 30
0.0
 11
9397.216159445404
 21
4612.931598713262
 31
0.0
  0
MTEXT
  5
19634
330
19243
100
AcDbEntity
  8
寸法
 62
     7
 48
50.0
100
AcDbMText
 10
9537.38598269177
 20
4513.89879855292
 30
0.0
 40
120.0
 41
0.0
 71
     5
 72
     1
  1
\A1;27
  7
STYLE1
 11
0.0000000000000001
 21
1.0
 31
0.0
 73
     1
 44
1.0
1001
ACAD
1000
MTEXTBEGIN
1070
    73
1070
     1
1070
    44
1040
1.0
1070
    74
1070
     0
1000
MTEXTEND
  0
LINE
  5
19635
330
19243
100
AcDbEntity
  8
寸法
 62
     0
 48
50.0
370
    -2
100
AcDbLine
 10
9397.216159445404
 20
4485.93159871326
 30
0.0
 11
9397.216159445404
 21
4512.931598713262
 31
0.0
  0
INSERT
  5
19636
330
19243
100
AcDbEntity
  8
寸法
 62
     0
 48
50.0
370
    -2
100
AcDbBlockReference
  2
_DOTSMALL
 10
9397.216159445404
 20
4485.93159871326
 30
0.0
 41
100.0
 42
100.0
 43
100.0
 50
90.0
  0
INSERT
  5
19637
330
19243
100
AcDbEntity
  8
寸法
 62
     0
 48
50.0
370
    -2
100
AcDbBlockReference
  2
_DOTSMALL
 10
9397.216159445404
 20
4512.931598713262
 30
0.0
 41
100.0
 42
100.0
 43
100.0
 50
270.0
  0
POINT
  5
19638
330
19243
100
AcDbEntity
  8
DEFPOINTS
 62
     0
 48
50.0
100
AcDbPoint
 10
9109.673057123659
 20
4485.93159871326
 30
0.0
  0
POINT
  5
19639
330
19243
100
AcDbEntity
  8
DEFPOINTS
 62
     0
 48
50.0
100
AcDbPoint
 10
9109.673057123655
 20
4512.931598713262
 30
0.0
  0
POINT
  5
1963A
330
19243
100
AcDbEntity
  8
DEFPOINTS
 62
     0
 48
50.0
100
AcDbPoint
 10
9397.216159445404
 20
4512.931598713262
 30
0.0
  0
ENDBLK
  5
19250
330
19243
100
AcDbEntity
  8
0
 48
50.0
100
AcDbBlockEnd
  0
BLOCK
  5
1925C
330
19251
100
AcDbEntity
  8
0
 48
50.0
100
AcDbBlockBegin
  2
*D40
 70
     1
 10
0.0
 20
0.0
 30
0.0
  3
*D40
  1

  0
LINE
  5
19626
330
19251
100
AcDbEntity
  8
寸法
 62
     0
 48
50.0
370
    -2
100
AcDbLine
 10
9129.673057123657
 20
4512.931598713262
 30
0.0
 11
9457.216159445405
 21
4512.931598713262
 31
0.0
  0
LINE
  5
19627
330
19251
100
AcDbEntity
  8
寸法
 62
     0
 48
50.0
370
    -2
100
AcDbLine
 10
9129.673057123657
 20
4677.931598713261
 30
0.0
 11
9457.216159445405
 21
4677.931598713261
 31
0.0
  0
LINE
  5
19628
330
19251
100
AcDbEntity
  8
寸法
 62
     0
 48
50.0
370
    -2
100
AcDbLine
 10
9397.216159445404
 20
4512.931598713262
 30
0.0
 11
9397.216159445404
 21
4677.931598713261
 31
0.0
  0
LINE
  5
19629
330
19251
100
AcDbEntity
  8
寸法
 62
     0
 48
50.0
370
    -2
100
AcDbLine
 10
9397.216159445404
 20
4677.931598713261
 30
0.0
 11
9397.216159445404
 21
5054.90216146174
 31
0.0
  0
INSERT
  5
1962A
330
19251
100
AcDbEntity
  8
寸法
 62
     0
 48
50.0
370
    -2
100
AcDbBlockReference
  2
_DOTSMALL
 10
9397.216159445404
 20
4512.931598713262
 30
0.0
 41
100.0
 42
100.0
 43
100.0
 50
270.0
  0
INSERT
  5
1962B
330
19251
100
AcDbEntity
  8
寸法
 62
     0
 48
50.0
370
    -2
100
AcDbBlockReference
  2
_DOTSMALL
 10
9397.216159445404
 20
4677.931598713261
 30
0.0
 41
100.0
 42
100.0
 43
100.0
 50
90.0
  0
MTEXT
  5
1962C
330
19251
100
AcDbEntity
  8
寸法
 62
     7
 48
50.0
100
AcDbMText
 10
9297.216159445403
 20
4916.416880087502
 30
0.0
 40
120.0
 41
0.0
 71
     5
 72
     1
  1
\A1;165
  7
STYLE1
 11
0.0000000000000001
 21
1.0
 31
0.0
 73
     1
 44
1.0
1001
ACAD
1000
MTEXTBEGIN
1070
    73
1070
     1
1070
    44
1040
1.0
1070
    74
1070
     0
1000
MTEXTEND
  0
POINT
  5
1962D
330
19251
100
AcDbEntity
  8
DEFPOINTS
 62
     0
 48
50.0
100
AcDbPoint
 10
9109.673057123655
 20
4512.931598713262
 30
0.0
  0
POINT
  5
1962E
330
19251
100
AcDbEntity
  8
DEFPOINTS
 62
     0
 48
50.0
100
AcDbPoint
 10
9109.673057123655
 20
4677.931598713261
 30
0.0
  0
POINT
  5
1962F
330
19251
100
AcDbEntity
  8
DEFPOINTS
 62
     0
 48
50.0
100
AcDbPoint
 10
9397.216159445404
 20
4677.931598713261
 30
0.0
  0
ENDBLK
  5
1925D
330
19251
100
AcDbEntity
  8
0
 48
50.0
100
AcDbBlockEnd
  0
ENDSEC
  0
SECTION
  2
ENTITIES
  0
MTEXT
  5
763F
330
747D
100
AcDbEntity
  8
0
100
AcDbMText
 10
302.846345836809
 20
280.1983726409901
 30
0.0
 40
3.5
 41
5.323721266742722
 71
     1
 72
     5
  1

  7
MSMINCHO
 73
     1
 44
1.0
1001
ACAD
1000
MTEXTBEGIN
1070
    73
1070
     1
1070
    44
1040
1.0
1070
    74
1070
     0
1000
MTEXTEND
  0
LINE
  5
10B57
330
747D
100
AcDbEntity
  8
補助
  6
PHANTOM
 62
   230
 48
50.0
100
AcDbLine
 10
139.9999999999995
 20
11409.6
 30
0.0
 11
16307.2
 21
11409.6
 31
0.0
  0
LINE
  5
10B59
330
747D
100
AcDbEntity
  8
仕様書枠
  6
Continuous
 48
50.0
100
AcDbLine
 10
13107.2
 20
1200.0
 30
0.0
 11
13107.2
 21
-0.0000000000000729
 31
0.0
  0
LINE
  5
10B5C
330
747D
100
AcDbEntity
  8
仕様書枠
 48
50.0
100
AcDbLine
 10
16307.2
 20
1200.0
 30
0.0
 11
16307.2
 21
-0.0000000000000909
 31
0.0
  0
LINE
  5
10B5D
330
747D
100
AcDbEntity
  8
仕様書枠
 48
50.0
100
AcDbLine
 10
140.0
 20
0.0
 30
0.0
 11
16307.2
 21
-0.0000000000000909
 31
0.0
  0
LINE
  5
10B5E
330
747D
100
AcDbEntity
  8
補助
  6
PHANTOM
 62
   230
 48
50.0
100
AcDbLine
 10
16307.2
 20
11409.6
 30
0.0
 11
16307.2
 21
1200.0
 31
0.0
  0
LINE
  5
10B6C
330
747D
100
AcDbEntity
  8
仕様書枠
 48
50.0
100
AcDbLine
 10
13107.2
 20
1200.0
 30
0.0
 11
16307.2
 21
1200.0
 31
0.0
  0
LINE
  5
10B6D
330
747D
100
AcDbEntity
  8
補助
  6
PHANTOM
 62
   230
 48
50.0
100
AcDbLine
 10
13107.2
 20
11409.6
 30
0.0
 11
13107.2
 21
4800.0
 31
0.0
  0
LINE
  5
10B6F
330
747D
100
AcDbEntity
  8
補助
  6
PHANTOM
 62
   230
 48
50.0
100
AcDbLine
 10
13107.2
 20
4800.0
 30
0.0
 11
16307.2
 21
4800.0
 31
0.0
  0
LINE
  5
10B72
330
747D
100
AcDbEntity
  8
文字
 62
     7
 48
50.0
100
AcDbLine
 10
13187.2
 20
400.0
 30
0.0
 11
16227.2
 21
400.0
 31
0.0
  0
TEXT
  5
10B73
330
747D
100
AcDbEntity
  8
文字
 62
     7
 48
50.0
100
AcDbText
 10
13162.9790565769
 20
895.0906074299405
 30
0.0
 40
200.0
  1
外 形 図
  7
STYLE2
100
AcDbText
  0
TEXT
  5
10B74
330
747D
100
AcDbEntity
  8
文字
 62
     7
 48
50.0
100
AcDbText
 10
13201.43669998441
 20
477.2740661031255
 30
0.0
 40
160.0
  1
機種名
  7
STYLE2
100
AcDbText
  0
TEXT
  5
10B75
330
747D
100
AcDbEntity
  8
文字
 62
     7
 48
50.0
100
AcDbText
 10
13209.4053442172
 20
228.5435242569016
 30
0.0
 40
100.0
  1
○有効開口寸法 ： 2844×1886(mm)
  7
STYLE2
100
AcDbText
  0
TEXT
  5
10B76
330
747D
100
AcDbEntity
  8
文字
 62
     7
 48
50.0
100
AcDbText
 10
13209.4053442172
 20
76.09434707649343
 30
0.0
 40
100.0
  1
○床面積 ： 18.61㎡(5.64坪) 　
  7
STYLE2
100
AcDbText
  0
TEXT
  5
10B79
330
747D
100
AcDbEntity
  8
文字
 62
     7
 48
50.0
100
AcDbText
 10
14524.131837222
 20
1031.557706291228
 30
0.0
 40
100.0
  1
NO.59      <縮尺> S=1/40
  7
STYLE2
100
AcDbText
  0
LINE
  5
10B7B
330
747D
100
AcDbEntity
  8
仕様書枠
 48
50.0
100
AcDbLine
 10
13107.2
 20
800.0
 30
0.0
 11
14251.2
 21
800.0
 31
0.0
  0
LINE
  5
10B88
330
747D
100
AcDbEntity
  8
仕様書枠
  6
Continuous
 48
50.0
100
AcDbLine
 10
14251.2
 20
1200.0
 30
0.0
 11
14251.2
 21
800.0
 31
0.0
  0
DIMENSION
  5
162CD
330
747D
100
AcDbEntity
  8
寸法
100
AcDbDimension
  2
*D1
 10
9757.09940285807
 20
7197.497424545952
 30
0.0
 11
9657.087591834448
 21
8667.49742454596
 31
0.0
 12
420.0
 22
0.0
 32
0.0
 70
    32
  1
7X420=<>
 71
     5
 42
-1.0
  3
INABA_S40G
100
AcDbAlignedDimension
 13
9109.673057123664
 23
10137.49742454596
 33
0.0
 14
9109.673057123639
 24
7197.497424545952
 34
0.0
 50
90.0
100
AcDbRotatedDimension
1001
ACAD
1000
DSTYLE
1002
{
1002
}
  0
DIMENSION
  5
162CE
330
747D
100
AcDbEntity
  8
寸法
100
AcDbDimension
  2
*D2
 10
9757.099402858049
 20
7142.497424545957
 30
0.0
 11
9757.099402858049
 21
6764.635957641094
 31
0.0
 12
1735.0
 22
160.0
 32
0.0
 70
   160
 71
     5
 42
-1.0
  3
INABA_S40G
100
AcDbAlignedDimension
 13
9109.673057123639
 23
7197.497424545952
 33
0.0
 14
9109.673057123639
 24
7142.497424545957
 34
0.0
 50
90.0
100
AcDbRotatedDimension
1001
ACAD
1000
DSTYLE
1002
{
1002
}
  0
DIMENSION
  5
162CF
330
747D
100
AcDbEntity
  8
寸法
100
AcDbDimension
  2
*D3
 10
9757.099402858074
 20
10137.49742454596
 30
0.0
 11
9757.099402858074
 21
10500.9827059202
 31
0.0
 12
1735.0
 22
160.0
 32
0.0
 70
   160
 71
     5
 42
-1.0
  3
INABA_S40G
100
AcDbAlignedDimension
 13
9109.673057123664
 23
10192.49742454596
 33
0.0
 14
9109.673057123664
 24
10137.49742454596
 34
0.0
 50
90.0
100
AcDbRotatedDimension
1001
ACAD
1000
DSTYLE
1002
{
1002
}
  0
DIMENSION
  5
162D0
330
747D
100
AcDbEntity
  8
寸法
100
AcDbDimension
  2
*D4
 10
10122.20634459771
 20
7142.497424545957
 30
0.0
 11
10022.20634459771
 21
8667.49742454596
 31
0.0
 12
420.0
 22
0.0
 32
0.0
 70
    32
 71
     5
 42
-1.0
  3
INABA_S40G
100
AcDbAlignedDimension
 13
9109.673057123664
 23
10192.49742454596
 33
0.0
 14
9109.673057123639
 24
7142.497424545957
 34
0.0
 50
90.0
100
AcDbRotatedDimension
1001
ACAD
1000
DSTYLE
1002
{
1002
}
  0
LINE
  5
162D1
330
747D
100
AcDbEntity
  8
細線
 48
50.0
100
AcDbLine
 10
7571.173057123663
 20
9712.497424545974
 30
0.0
 11
6088.173057123662
 21
10162.49742454587
 31
0.0
  0
LINE
  5
162D2
330
747D
100
AcDbEntity
  8
細線
 48
50.0
100
AcDbLine
 10
7571.173057123663
 20
10162.49742454597
 30
0.0
 11
6088.173057123663
 21
9712.497424545869
 31
0.0
  0
LINE
  5
162D3
330
747D
100
AcDbEntity
  8
部品1
 48
50.0
100
AcDbLine
 10
3038.173057123663
 20
10162.49742454586
 30
0.0
 11
3038.173057123663
 21
9712.497424545865
 31
0.0
  0
LINE
  5
162D4
330
747D
100
AcDbEntity
  8
細線
 48
50.0
100
AcDbLine
 10
9081.173057123663
 20
10162.49742454596
 30
0.0
 11
7598.173057123663
 21
9712.497424545974
 31
0.0
  0
LINE
  5
162D5
330
747D
100
AcDbEntity
  8
細線
 48
50.0
100
AcDbLine
 10
9081.173057123663
 20
9712.497424545967
 30
0.0
 11
7598.173057123664
 21
10162.49742454596
 31
0.0
  0
LINE
  5
162D6
330
747D
100
AcDbEntity
  8
部品1
 48
50.0
100
AcDbLine
 10
7571.173057123663
 20
10162.49742454597
 30
0.0
 11
7571.173057123663
 21
9712.497424545974
 31
0.0
  0
LINE
  5
162D7
330
747D
100
AcDbEntity
  8
部品1
 48
50.0
100
AcDbLine
 10
7598.173057123664
 20
10162.49742454596
 30
0.0
 11
7598.173057123664
 21
9712.497424545974
 31
0.0
  0
LINE
  5
162D8
330
747D
100
AcDbEntity
  8
部品1
 48
50.0
100
AcDbLine
 10
7572.173057123662
 20
10164.49742454597
 30
0.0
 11
7572.173057123663
 21
9712.497424545974
 31
0.0
  0
LINE
  5
162D9
330
747D
100
AcDbEntity
  8
部品1
 48
50.0
100
AcDbLine
 10
7597.173057123663
 20
10164.49742454597
 30
0.0
 11
7597.173057123663
 21
9712.497424545974
 31
0.0
  0
DIMENSION
  5
162DA
330
747D
100
AcDbEntity
  8
寸法
100
AcDbDimension
  2
*D5
 10
9436.530782985689
 20
9617.279608877078
 30
0.0
 11
9336.530782985688
 21
8682.279608877076
 31
0.0
 12
420.0
 22
1160.0
 32
0.0
 70
    32
 71
     5
 42
-1.0
  3
INABA_S40G
100
AcDbAlignedDimension
 13
9081.173057123663
 23
10162.49742454596
 33
0.0
 14
9081.173057123663
 24
9712.497424545967
 34
0.0
 50
90.0
100
AcDbRotatedDimension
1001
ACAD
1000
DSTYLE
1002
{
1002
}
  0
LINE
  5
162DB
330
747D
100
AcDbEntity
  8
部品1
100
AcDbLine
 10
9081.173057123663
 20
10162.49742454596
 30
0.0
 11
9081.173057123663
 21
9712.497424545967
 31
0.0
  0
LINE
  5
162DC
330
747D
100
AcDbEntity
  8
部品1
100
AcDbLine
 10
9081.673057123648
 20
10164.49742454596
 30
0.0
 11
9081.673057123641
 21
7197.497424545952
 31
0.0
  0
LINE
  5
162DD
330
747D
100
AcDbEntity
  8
部品1
100
AcDbLine
 10
3037.673057123639
 20
7197.497424545821
 30
0.0
 11
3037.67305712365
 21
10164.49742454587
 31
0.0
  0
LINE
  5
162DE
330
747D
100
AcDbEntity
  8
部品1
100
AcDbLine
 10
9109.673057123664
 20
10192.49742454596
 30
0.0
 11
9109.673057123639
 21
7142.497424545957
 31
0.0
  0
LINE
  5
162DF
330
747D
100
AcDbEntity
  8
部品1
100
AcDbLine
 10
3009.673057123629
 20
10192.49742454583
 30
0.0
 11
3009.673057123657
 21
7142.497424545826
 31
0.0
  0
LINE
  5
162E3
330
747D
100
AcDbEntity
  8
部品1
100
AcDbLine
 10
6088.173057123664
 20
9712.497424545869
 30
0.0
 11
7571.173057123663
 21
9712.497424545974
 31
0.0
  0
DIMENSION
  5
162E4
330
747D
100
AcDbEntity
  8
寸法
 48
50.0
100
AcDbDimension
  2
*D6
 10
6162.673057123657
 20
6608.0666537797
 30
0.0
 11
7584.673057123648
 21
6708.078464803323
 31
0.0
 12
420.0
 22
0.0
 32
0.0
 70
    32
  1
有効開口部間口 <>
 71
     5
 42
-1.0
  3
INABA_S40G
100
AcDbAlignedDimension
 13
9006.67305712364
 23
7168.497424545865
 33
0.0
 14
6162.673057123657
 24
7168.497424545865
 34
0.0
100
AcDbRotatedDimension
1001
ACAD
1000
DSTYLE
1002
{
1070
    75
1070
     1
1070
   279
1070
     2
1002
}
  0
LINE
  5
162E6
330
747D
100
AcDbEntity
  8
部品1
 48
50.0
100
AcDbLine
 10
6126.673057123656
 20
7187.997424545864
 30
0.0
 11
9042.673057123641
 21
7187.997424545864
 31
0.0
  0
DIMENSION
  5
162E7
330
747D
100
AcDbEntity
  8
寸法
100
AcDbDimension
  2
*D7
 10
9109.673057123627
 20
6161.893658188827
 30
0.0
 11
6059.673057123642
 21
6261.893658188826
 31
0.0
 12
420.0
 22
0.0
 32
0.0
 70
    32
 71
     5
 42
-1.0
  3
INABA_S40G
100
AcDbAlignedDimension
 13
3009.673057123657
 23
7142.497424545862
 33
0.0
 14
9109.673057123627
 24
7142.497424545957
 34
0.0
100
AcDbRotatedDimension
1001
ACAD
1000
DSTYLE
1002
{
1002
}
  0
LINE
  5
162E8
330
747D
100
AcDbEntity
  8
部品1
100
AcDbLine
 10
3064.67305712364
 20
9712.497424545871
 30
0.0
 11
3064.673057123656
 21
7207.497424545863
 31
0.0
  0
DIMENSION
  5
162EA
330
747D
100
AcDbEntity
  8
寸法
 48
50.0
100
AcDbDimension
  2
*D8
 10
3009.673057123657
 20
6608.0666537797
 30
0.0
 11
2701.187775749419
 21
6608.0666537797
 31
0.0
 12
-1735.0
 22
160.0
 32
0.0
 70
   160
 71
     5
 42
-1.0
  3
INABA_S40G
100
AcDbAlignedDimension
 13
3064.673057123653
 23
7142.497424545865
 33
0.0
 14
3009.673057123657
 24
7142.497424545862
 34
0.0
100
AcDbRotatedDimension
1001
ACAD
1000
DSTYLE
1002
{
1002
}
  0
DIMENSION
  5
162EB
330
747D
100
AcDbEntity
  8
寸法
 48
50.0
100
AcDbDimension
  2
*D9
 10
6114.673057123653
 20
6608.0666537797
 30
0.0
 11
6275.575028123714
 21
6708.0666537797
 31
0.0
 12
1315.0
 22
160.0
 32
0.0
 70
   160
 71
     5
 42
-1.0
  3
INABA_S40G
100
AcDbAlignedDimension
 13
6162.673057123657
 23
7168.497424545865
 33
0.0
 14
6114.673057123653
 24
7142.497424545865
 34
0.0
100
AcDbRotatedDimension
1001
ACAD
1000
DSTYLE
1002
{
1070
   279
1070
     2
1002
}
  0
LINE
  5
162EC
330
747D
100
AcDbEntity
  8
部品1
100
AcDbLine
 10
3064.673057123652
 20
7142.497424545865
 30
0.0
 11
3009.673057123657
 21
7142.497424545862
 31
0.0
  0
LINE
  5
162ED
330
747D
100
AcDbEntity
  8
部品1
 48
50.0
100
AcDbLine
 10
3064.673057123657
 20
7178.497424545864
 30
0.0
 11
3041.673057123657
 21
7178.497424545864
 31
0.0
  0
LINE
  5
162EE
330
747D
100
AcDbEntity
  8
部品1
 48
50.0
100
AcDbLine
 10
3074.673057123657
 20
7168.497424545865
 30
0.0
 11
3064.673057123657
 21
7147.497424545865
 31
0.0
  0
LINE
  5
162EF
330
747D
100
AcDbEntity
  8
部品1
 48
50.0
100
AcDbLine
 10
3064.673057123657
 20
7207.497424545863
 30
0.0
 11
3064.673057123653
 21
7142.497424545865
 31
0.0
  0
LINE
  5
162F0
330
747D
100
AcDbEntity
  8
部品1
 48
50.0
100
AcDbLine
 10
3112.673057123657
 20
7168.497424545865
 30
0.0
 11
3112.673057123657
 21
7177.497424545865
 31
0.0
  0
LINE
  5
162F1
330
747D
100
AcDbEntity
  8
部品1
 48
50.0
100
AcDbLine
 10
3112.673057123657
 20
7207.497424545865
 30
0.0
 11
3112.673057123657
 21
7198.497424545866
 31
0.0
  0
LINE
  5
162F2
330
747D
100
AcDbEntity
  8
部品1
100
AcDbLine
 10
3112.673057123657
 20
7207.497424545865
 30
0.0
 11
3064.673057123657
 21
7207.497424545865
 31
0.0
  0
LINE
  5
162F3
330
747D
100
AcDbEntity
  8
部品1
100
AcDbLine
 10
3112.673057123657
 20
7168.497424545865
 30
0.0
 11
3064.673057123657
 21
7168.497424545865
 31
0.0
  0
LINE
  5
162F4
330
747D
100
AcDbEntity
  8
部品1
100
AcDbLine
 10
3064.673057123656
 20
7178.497424545864
 30
0.0
 11
3041.673057123657
 21
7178.497424545864
 31
0.0
  0
LINE
  5
162F5
330
747D
100
AcDbEntity
  8
部品1
100
AcDbLine
 10
3064.673057123656
 20
7197.497424545789
 30
0.0
 11
3009.673057123655
 21
7197.497424545789
 31
0.0
  0
LINE
  5
162F6
330
747D
100
AcDbEntity
  8
部品1
100
AcDbLine
 10
3037.673057123639
 20
7197.497424545826
 30
0.0
 11
3009.673057123655
 21
7197.497424545826
 31
0.0
  0
LINE
  5
162F7
330
747D
100
AcDbEntity
  8
部品1
100
AcDbLine
 10
3037.673057123655
 20
7197.49742454584
 30
0.0
 11
3009.673057123655
 21
7197.49742454584
 31
0.0
  0
LINE
  5
162FB
330
747D
100
AcDbEntity
  8
部品1
100
AcDbLine
 10
3037.673057123643
 20
8877.49742454584
 30
0.0
 11
3009.673057123643
 21
8877.49742454584
 31
0.0
  0
LINE
  5
162FC
330
747D
100
AcDbEntity
  8
部品1
100
AcDbLine
 10
3037.673057123643
 20
9297.49742454584
 30
0.0
 11
3009.673057123643
 21
9297.49742454584
 31
0.0
  0
LINE
  5
162FE
330
747D
100
AcDbEntity
  8
部品1
100
AcDbLine
 10
3037.673057123638
 20
9717.49742454584
 30
0.0
 11
3009.673057123638
 21
9717.49742454584
 31
0.0
  0
LINE
  5
162FF
330
747D
100
AcDbEntity
  8
部品1
100
AcDbLine
 10
9054.673057123656
 20
9712.49742454597
 30
0.0
 11
9054.673057123642
 21
7142.497424545952
 31
0.0
  0
DIMENSION
  5
16301
330
747D
100
AcDbEntity
  8
寸法
 48
50.0
100
AcDbDimension
  2
*D10
 10
9006.67305712364
 20
6608.0666537797
 30
0.0
 11
8895.710159474891
 21
6708.0666537797
 31
0.0
 12
1735.0
 22
160.0
 32
0.0
 70
   160
 71
     5
 42
-1.0
  3
INABA_S40G
100
AcDbAlignedDimension
 13
9054.673057123642
 23
7142.497424545952
 33
0.0
 14
9006.67305712364
 24
7168.497424545865
 34
0.0
100
AcDbRotatedDimension
1001
ACAD
1000
DSTYLE
1002
{
1070
   279
1070
     2
1002
}
  0
DIMENSION
  5
16302
330
747D
100
AcDbEntity
  8
寸法
 48
50.0
100
AcDbDimension
  2
*D11
 10
9054.673057123642
 20
6608.066653779701
 30
0.0
 11
9418.158338497876
 21
6608.066653779701
 31
0.0
 12
1735.0
 22
160.0
 32
0.0
 70
   160
 71
     5
 42
-1.0
  3
INABA_S40G
100
AcDbAlignedDimension
 13
9109.673057123639
 23
7142.497424545957
 33
0.0
 14
9054.673057123642
 24
7142.497424545952
 34
0.0
100
AcDbRotatedDimension
1001
ACAD
1000
DSTYLE
1002
{
1002
}
  0
LINE
  5
16303
330
747D
100
AcDbEntity
  8
部品1
 48
50.0
100
AcDbLine
 10
9044.673057123638
 20
7168.497424545865
 30
0.0
 11
9054.673057123638
 21
7147.497424545865
 31
0.0
  0
LINE
  5
16304
330
747D
100
AcDbEntity
  8
部品1
100
AcDbLine
 10
9006.67305712364
 20
7207.497424545865
 30
0.0
 11
9054.673057123642
 21
7207.497424545865
 31
0.0
  0
LINE
  5
16305
330
747D
100
AcDbEntity
  8
部品1
100
AcDbLine
 10
9006.67305712364
 20
7168.497424545865
 30
0.0
 11
9054.673057123638
 21
7168.497424545865
 31
0.0
  0
LINE
  5
16306
330
747D
100
AcDbEntity
  8
部品1
 48
50.0
100
AcDbLine
 10
9006.67305712364
 20
7207.497424545865
 30
0.0
 11
9006.67305712364
 21
7198.497424545866
 31
0.0
  0
LINE
  5
16307
330
747D
100
AcDbEntity
  8
部品1
 48
50.0
100
AcDbLine
 10
9006.67305712364
 20
7168.497424545865
 30
0.0
 11
9006.67305712364
 21
7177.497424545865
 31
0.0
  0
LINE
  5
16308
330
747D
100
AcDbEntity
  8
部品1
100
AcDbLine
 10
9054.673057123638
 20
7178.497424545861
 30
0.0
 11
9077.673057123638
 21
7178.497424545864
 31
0.0
  0
LINE
  5
16309
330
747D
100
AcDbEntity
  8
部品1
100
AcDbLine
 10
9054.673057123638
 20
7197.497424545968
 30
0.0
 11
9109.673057123671
 21
7197.497424545968
 31
0.0
  0
LINE
  5
1630A
330
747D
100
AcDbEntity
  8
部品1
100
AcDbLine
 10
9109.673057123639
 20
7142.497424545957
 30
0.0
 11
9054.673057123642
 21
7142.497424545952
 31
0.0
  0
LINE
  5
1630E
330
747D
100
AcDbEntity
  8
部品1
100
AcDbLine
 10
7598.173057123663
 20
9712.497424545974
 30
0.0
 11
9081.173057123663
 21
9712.497424545967
 31
0.0
  0
LINE
  5
16312
330
747D
100
AcDbEntity
  8
部品1
100
AcDbLine
 10
7572.173057123663
 20
9712.497424545974
 30
0.0
 11
7597.173057123663
 21
9712.497424545974
 31
0.0
  0
LINE
  5
16317
330
747D
100
AcDbEntity
  8
部品1
100
AcDbLine
 10
9081.673057123667
 20
8877.497424545968
 30
0.0
 11
9109.673057123668
 21
8877.497424545968
 31
0.0
  0
LINE
  5
16319
330
747D
100
AcDbEntity
  8
部品1
100
AcDbLine
 10
9081.673057123667
 20
9297.497424545968
 30
0.0
 11
9109.673057123668
 21
9297.497424545968
 31
0.0
  0
LINE
  5
1631A
330
747D
100
AcDbEntity
  8
部品1
100
AcDbLine
 10
9081.673057123664
 20
9717.497424545967
 30
0.0
 11
9109.673057123664
 21
9717.497424545967
 31
0.0
  0
LINE
  5
1631B
330
747D
100
AcDbEntity
  8
部品1
100
AcDbLine
 10
6087.673057123648
 20
10164.49742454598
 30
0.0
 11
7572.173057123662
 21
10164.49742454598
 31
0.0
  0
LINE
  5
1631D
330
747D
100
AcDbEntity
  8
部品1
100
AcDbLine
 10
3009.673057123663
 20
10192.49742454587
 30
0.0
 11
9109.673057123664
 21
10192.49742454596
 31
0.0
  0
LINE
  5
1631E
330
747D
100
AcDbEntity
  8
部品1
100
AcDbLine
 10
6088.173057123662
 20
10162.49742454587
 30
0.0
 11
7571.173057123663
 21
10162.49742454597
 31
0.0
  0
DIMENSION
  5
1631F
330
747D
100
AcDbEntity
  8
寸法
100
AcDbDimension
  2
*D12
 10
9054.673057123663
 20
10708.30564417097
 30
0.0
 11
7584.673057123665
 21
10808.31745519459
 31
0.0
 70
    32
  1
7X420=<>
 71
     5
 42
2940.000000000001
  3
INABA_S40G
100
AcDbAlignedDimension
 13
6114.673057123663
 23
10192.49742454587
 33
0.0
 14
9054.673057123663
 24
10192.49742454596
 34
0.0
100
AcDbRotatedDimension
1001
ACAD
1000
DSTYLE
1002
{
1002
}
  0
DIMENSION
  5
16320
330
747D
100
AcDbEntity
  8
寸法
100
AcDbDimension
  2
*D13
 10
3064.673057123663
 20
10708.30564417085
 30
0.0
 11
2701.18777574939
 21
10708.30564417085
 31
0.0
 70
   160
 71
     5
 42
55.00000000003456
  3
INABA_S40G
100
AcDbAlignedDimension
 13
3009.673057123629
 23
10192.49742454587
 33
0.0
 14
3064.673057123663
 24
10192.49742454587
 34
0.0
100
AcDbRotatedDimension
1001
ACAD
1000
DSTYLE
1002
{
1002
}
  0
LINE
  5
16321
330
747D
100
AcDbEntity
  8
部品1
100
AcDbLine
 10
3064.673057123629
 20
10192.49742454583
 30
0.0
 11
3064.673057123631
 21
10164.49742454583
 31
0.0
  0
LINE
  5
16322
330
747D
100
AcDbEntity
  8
部品1
100
AcDbLine
 10
3064.673057123663
 20
10192.49742454587
 30
0.0
 11
3064.673057123663
 21
10164.49742454587
 31
0.0
  0
LINE
  5
16323
330
747D
100
AcDbEntity
  8
部品1
100
AcDbLine
 10
3037.673057123631
 20
10137.49742454584
 30
0.0
 11
3009.67305712363
 21
10137.49742454584
 31
0.0
  0
LINE
  5
16324
330
747D
100
AcDbEntity
  8
部品1
100
AcDbLine
 10
6954.673057123663
 20
10192.49742454598
 30
0.0
 11
6954.673057123663
 21
10164.49742454598
 31
0.0
  0
LINE
  5
16325
330
747D
100
AcDbEntity
  8
部品1
100
AcDbLine
 10
6954.673057123663
 20
10192.49742454587
 30
0.0
 11
6954.673057123663
 21
10164.49742454587
 31
0.0
  0
LINE
  5
16326
330
747D
100
AcDbEntity
  8
部品1
100
AcDbLine
 10
6954.673057123663
 20
10192.49742454587
 30
0.0
 11
6954.673057123663
 21
10164.49742454587
 31
0.0
  0
LINE
  5
16327
330
747D
100
AcDbEntity
  8
部品1
100
AcDbLine
 10
7597.173057123663
 20
10164.49742454598
 30
0.0
 11
9081.673057123664
 21
10164.49742454596
 31
0.0
  0
LINE
  5
16328
330
747D
100
AcDbEntity
  8
部品1
100
AcDbLine
 10
7598.173057123664
 20
10162.49742454597
 30
0.0
 11
9081.173057123663
 21
10162.49742454596
 31
0.0
  0
LINE
  5
16329
330
747D
100
AcDbEntity
  8
部品1
100
AcDbLine
 10
7374.673057123662
 20
10192.49742454598
 30
0.0
 11
7374.673057123662
 21
10164.49742454598
 31
0.0
  0
LINE
  5
1632A
330
747D
100
AcDbEntity
  8
部品1
100
AcDbLine
 10
7374.673057123662
 20
10192.49742454587
 30
0.0
 11
7374.673057123662
 21
10164.49742454587
 31
0.0
  0
LINE
  5
1632B
330
747D
100
AcDbEntity
  8
部品1
100
AcDbLine
 10
7374.673057123662
 20
10192.49742454587
 30
0.0
 11
7374.673057123662
 21
10164.49742454587
 31
0.0
  0
LINE
  5
1632C
330
747D
100
AcDbEntity
  8
部品1
100
AcDbLine
 10
7794.673057123663
 20
10192.49742454598
 30
0.0
 11
7794.673057123663
 21
10164.49742454598
 31
0.0
  0
LINE
  5
1632D
330
747D
100
AcDbEntity
  8
部品1
100
AcDbLine
 10
7572.173057123663
 20
10156.49742454596
 30
0.0
 11
7597.173057123663
 21
10156.49742454597
 31
0.0
  0
LINE
  5
1632E
330
747D
100
AcDbEntity
  8
部品1
100
AcDbLine
 10
7613.673057123662
 20
10182.49742454597
 30
0.0
 11
7619.673057123662
 21
10182.49742454597
 31
0.0
  0
LINE
  5
1632F
330
747D
100
AcDbEntity
  8
部品1
100
AcDbLine
 10
7619.673057123662
 20
10182.49742454597
 30
0.0
 11
7619.673057123662
 21
10164.49742454597
 31
0.0
  0
LINE
  5
16330
330
747D
100
AcDbEntity
  8
部品1
100
AcDbLine
 10
7549.673057123662
 20
10182.49742454597
 30
0.0
 11
7555.673057123662
 21
10182.49742454597
 31
0.0
  0
LINE
  5
16331
330
747D
100
AcDbEntity
  8
部品1
100
AcDbLine
 10
7549.673057123662
 20
10182.49742454597
 30
0.0
 11
7549.673057123662
 21
10164.49742454597
 31
0.0
  0
LINE
  5
16332
330
747D
100
AcDbEntity
  8
部品1
100
AcDbLine
 10
8214.673057123661
 20
10192.49742454598
 30
0.0
 11
8214.673057123661
 21
10164.49742454598
 31
0.0
  0
DIMENSION
  5
16333
330
747D
100
AcDbEntity
  8
寸法
100
AcDbDimension
  2
*D14
 10
9109.673057123664
 20
10708.30564417095
 30
0.0
 11
9418.158338497901
 21
10708.30564417095
 31
0.0
 70
   160
 71
     5
 42
55.0
  3
INABA_S40G
100
AcDbAlignedDimension
 13
9054.673057123663
 23
10192.49742454596
 33
0.0
 14
9109.673057123664
 24
10192.49742454596
 34
0.0
100
AcDbRotatedDimension
1001
ACAD
1000
DSTYLE
1002
{
1002
}
  0
LINE
  5
16334
330
747D
100
AcDbEntity
  8
部品1
100
AcDbLine
 10
8634.673057123661
 20
10192.49742454598
 30
0.0
 11
8634.673057123661
 21
10164.49742454598
 31
0.0
  0
LINE
  5
16335
330
747D
100
AcDbEntity
  8
部品1
100
AcDbLine
 10
9054.673057123663
 20
10192.49742454596
 30
0.0
 11
9054.673057123663
 21
10164.49742454596
 31
0.0
  0
LINE
  5
16336
330
747D
100
AcDbEntity
  8
部品1
100
AcDbLine
 10
9054.673057123663
 20
10192.49742454598
 30
0.0
 11
9054.673057123663
 21
10164.49742454598
 31
0.0
  0
LINE
  5
16337
330
747D
100
AcDbEntity
  8
部品1
100
AcDbLine
 10
9081.673057123664
 20
10137.49742454596
 30
0.0
 11
9109.673057123664
 21
10137.49742454596
 31
0.0
  0
DIMENSION
  5
1659A
330
747D
100
AcDbEntity
  8
寸法
 48
50.0
100
AcDbDimension
  2
*D17
 10
5956.673057123638
 20
6608.0666537797
 30
0.0
 11
5845.710159474891
 21
6708.0666537797
 31
0.0
 12
-2630.0
 22
160.0
 32
0.0
 70
   160
 71
     5
 42
-1.0
  3
INABA_S40G
100
AcDbAlignedDimension
 13
6004.67305712364
 23
7142.497424545952
 33
0.0
 14
5956.673057123638
 24
7168.497424545865
 34
0.0
100
AcDbRotatedDimension
1001
ACAD
1000
DSTYLE
1002
{
1070
   279
1070
     2
1002
}
  0
DIMENSION
  5
1659B
330
747D
100
AcDbEntity
  8
寸法
 48
50.0
100
AcDbDimension
  2
*D15
 10
3112.673057123657
 20
6608.0666537797
 30
0.0
 11
4954.673057123648
 21
6708.078464803323
 31
0.0
 70
    32
  1
有効開口部間口 <>
 71
     5
 42
-1.0
  3
INABA_S40G
100
AcDbAlignedDimension
 13
5956.673057123638
 23
7168.497424545865
 33
0.0
 14
3112.673057123657
 24
7168.497424545865
 34
0.0
100
AcDbRotatedDimension
1001
ACAD
1000
DSTYLE
1002
{
1070
    75
1070
     1
1070
   279
1070
     2
1002
}
  0
DIMENSION
  5
1659C
330
747D
100
AcDbEntity
  8
寸法
 48
50.0
100
AcDbDimension
  2
*D16
 10
3064.673057123653
 20
6608.0666537797
 30
0.0
 11
3225.575028123714
 21
6708.0666537797
 31
0.0
 12
-3050.0
 22
160.0
 32
0.0
 70
   160
 71
     5
 42
-1.0
  3
INABA_S40G
100
AcDbAlignedDimension
 13
3112.673057123657
 23
7168.497424545865
 33
0.0
 14
3064.673057123653
 24
7142.497424545865
 34
0.0
100
AcDbRotatedDimension
1001
ACAD
1000
DSTYLE
1002
{
1070
   279
1070
     2
1002
}
  0
DIMENSION
  5
165E9
330
747D
100
AcDbEntity
  8
寸法
 48
50.0
100
AcDbDimension
  2
*D18
 10
6004.67305712364
 20
6608.066653779701
 30
0.0
 11
6059.673057123647
 21
6456.37475874347
 31
0.0
 12
0.0
 22
-100.0
 32
0.0
 70
   160
 71
     5
 42
-1.0
  3
INABA_S40G
100
AcDbAlignedDimension
 13
6114.673057123653
 23
7142.497424545865
 33
0.0
 14
6004.67305712364
 24
7142.497424545952
 34
0.0
100
AcDbRotatedDimension
1001
ACAD
1000
DSTYLE
1002
{
1070
   279
1070
     2
1002
}
  0
LINE
  5
16655
330
747D
100
AcDbEntity
  8
部品1
 48
50.0
100
AcDbLine
 10
3076.673057123656
 20
7187.997424545864
 30
0.0
 11
5992.67305712364
 21
7187.997424545864
 31
0.0
  0
LINE
  5
16656
330
747D
100
AcDbEntity
  8
部品1
100
AcDbLine
 10
5956.673057123638
 20
7207.497424545865
 30
0.0
 11
6004.67305712364
 21
7207.497424545865
 31
0.0
  0
LINE
  5
16657
330
747D
100
AcDbEntity
  8
部品1
 48
50.0
100
AcDbLine
 10
5956.673057123638
 20
7207.497424545865
 30
0.0
 11
5956.673057123638
 21
7198.497424545866
 31
0.0
  0
LINE
  5
16658
330
747D
100
AcDbEntity
  8
部品1
100
AcDbLine
 10
5956.673057123638
 20
7168.497424545865
 30
0.0
 11
6004.673057123639
 21
7168.497424545865
 31
0.0
  0
LINE
  5
16659
330
747D
100
AcDbEntity
  8
部品1
 48
50.0
100
AcDbLine
 10
5956.673057123638
 20
7168.497424545865
 30
0.0
 11
5956.673057123638
 21
7177.497424545865
 31
0.0
  0
LINE
  5
1665A
330
747D
100
AcDbEntity
  8
部品1
 48
50.0
100
AcDbLine
 10
5994.673057123638
 20
7168.497424545865
 30
0.0
 11
6004.673057123639
 21
7147.497424545865
 31
0.0
  0
LINE
  5
1665B
330
747D
100
AcDbEntity
  8
部品1
100
AcDbLine
 10
6004.673057123639
 20
7178.497424545861
 30
0.0
 11
6027.673057123639
 21
7178.497424545864
 31
0.0
  0
LINE
  5
1665C
330
747D
100
AcDbEntity
  8
部品1
100
AcDbLine
 10
6162.673057123657
 20
7207.497424545865
 30
0.0
 11
6114.673057123656
 21
7207.497424545865
 31
0.0
  0
LINE
  5
1665D
330
747D
100
AcDbEntity
  8
部品1
 48
50.0
100
AcDbLine
 10
6162.673057123657
 20
7207.497424545865
 30
0.0
 11
6162.673057123657
 21
7198.497424545866
 31
0.0
  0
LINE
  5
1665E
330
747D
100
AcDbEntity
  8
部品1
100
AcDbLine
 10
6162.673057123657
 20
7168.497424545865
 30
0.0
 11
6114.673057123656
 21
7168.497424545865
 31
0.0
  0
LINE
  5
1665F
330
747D
100
AcDbEntity
  8
部品1
 48
50.0
100
AcDbLine
 10
6124.673057123657
 20
7168.497424545865
 30
0.0
 11
6114.673057123656
 21
7147.497424545865
 31
0.0
  0
LINE
  5
16660
330
747D
100
AcDbEntity
  8
部品1
100
AcDbLine
 10
6114.673057123656
 20
7178.497424545864
 30
0.0
 11
6091.673057123657
 21
7178.497424545864
 31
0.0
  0
LINE
  5
16661
330
747D
100
AcDbEntity
  8
部品1
 48
50.0
100
AcDbLine
 10
6114.673057123656
 20
7207.497424545863
 30
0.0
 11
6114.673057123653
 21
7142.497424545865
 31
0.0
  0
LINE
  5
16662
330
747D
100
AcDbEntity
  8
部品1
 48
50.0
100
AcDbLine
 10
6162.673057123657
 20
7168.497424545865
 30
0.0
 11
6162.673057123657
 21
7177.497424545865
 31
0.0
  0
LINE
  5
16663
330
747D
100
AcDbEntity
  8
部品1
100
AcDbLine
 10
6114.673057123653
 20
7142.497424545865
 30
0.0
 11
6004.673057123643
 21
7142.497424545858
 31
0.0
  0
LINE
  5
16664
330
747D
100
AcDbEntity
  8
部品1
 48
50.0
100
AcDbLine
 10
6004.673057123645
 20
7207.497424545953
 30
0.0
 11
6004.673057123642
 21
7142.497424545952
 31
0.0
  0
LINE
  5
16665
330
747D
100
AcDbEntity
  8
部品1
 48
50.0
100
AcDbLine
 10
6088.173057123662
 20
10162.49742454586
 30
0.0
 11
6088.173057123663
 21
9712.497424545865
 31
0.0
  0
LINE
  5
16666
330
747D
100
AcDbEntity
  8
部品1
100
AcDbLine
 10
6114.673057123663
 20
10192.49742454587
 30
0.0
 11
6114.673057123663
 21
10164.49742454587
 31
0.0
  0
DIMENSION
  5
16667
330
747D
100
AcDbEntity
  8
寸法
100
AcDbDimension
  2
*D19
 10
6004.673057123664
 20
10708.30564417097
 30
0.0
 11
4534.673057123664
 21
10808.31745519459
 31
0.0
 70
    32
  1
7X420=<>
 71
     5
 42
2940.000000000001
  3
INABA_S40G
100
AcDbAlignedDimension
 13
3064.673057123663
 23
10192.49742454587
 33
0.0
 14
6004.673057123664
 24
10192.49742454596
 34
0.0
100
AcDbRotatedDimension
1001
ACAD
1000
DSTYLE
1002
{
1002
}
  0
LINE
  5
16668
330
747D
100
AcDbEntity
  8
細線
 48
50.0
100
AcDbLine
 10
6031.173057123663
 20
10162.49742454596
 30
0.0
 11
4548.173057123662
 21
9712.497424545974
 31
0.0
  0
LINE
  5
16669
330
747D
100
AcDbEntity
  8
細線
 48
50.0
100
AcDbLine
 10
6031.173057123663
 20
9712.497424545967
 30
0.0
 11
4548.173057123663
 21
10162.49742454596
 31
0.0
  0
LINE
  5
1666B
330
747D
100
AcDbEntity
  8
部品1
100
AcDbLine
 10
4548.173057123662
 20
9712.497424545974
 30
0.0
 11
6031.173057123663
 21
9712.497424545967
 31
0.0
  0
LINE
  5
16670
330
747D
100
AcDbEntity
  8
細線
 48
50.0
100
AcDbLine
 10
4521.173057123662
 20
9712.497424545974
 30
0.0
 11
3038.173057123663
 21
10162.49742454587
 31
0.0
  0
LINE
  5
16671
330
747D
100
AcDbEntity
  8
細線
 48
50.0
100
AcDbLine
 10
4521.173057123663
 20
10162.49742454597
 30
0.0
 11
3038.173057123663
 21
9712.497424545869
 31
0.0
  0
LINE
  5
16672
330
747D
100
AcDbEntity
  8
部品1
100
AcDbLine
 10
3038.173057123664
 20
9712.497424545869
 30
0.0
 11
4521.173057123662
 21
9712.497424545974
 31
0.0
  0
LINE
  5
16677
330
747D
100
AcDbEntity
  8
部品1
 48
50.0
100
AcDbLine
 10
4521.173057123663
 20
10162.49742454597
 30
0.0
 11
4521.173057123663
 21
9712.497424545974
 31
0.0
  0
LINE
  5
16678
330
747D
100
AcDbEntity
  8
部品1
 48
50.0
100
AcDbLine
 10
4548.173057123663
 20
10162.49742454596
 30
0.0
 11
4548.173057123663
 21
9712.497424545974
 31
0.0
  0
LINE
  5
16679
330
747D
100
AcDbEntity
  8
部品1
 48
50.0
100
AcDbLine
 10
4522.173057123661
 20
10164.49742454597
 30
0.0
 11
4522.173057123663
 21
9712.497424545974
 31
0.0
  0
LINE
  5
1667A
330
747D
100
AcDbEntity
  8
部品1
 48
50.0
100
AcDbLine
 10
4547.173057123663
 20
10164.49742454597
 30
0.0
 11
4547.173057123663
 21
9712.497424545974
 31
0.0
  0
LINE
  5
1667B
330
747D
100
AcDbEntity
  8
部品1
100
AcDbLine
 10
4522.173057123663
 20
9712.497424545974
 30
0.0
 11
4547.173057123663
 21
9712.497424545974
 31
0.0
  0
LINE
  5
1667E
330
747D
100
AcDbEntity
  8
部品1
 48
50.0
100
AcDbLine
 10
3038.173057123663
 20
10162.49742454586
 30
0.0
 11
3038.173057123663
 21
9712.497424545865
 31
0.0
  0
LINE
  5
16680
330
747D
100
AcDbEntity
  8
部品1
100
AcDbLine
 10
4744.673057123662
 20
10192.49742454598
 30
0.0
 11
4744.673057123662
 21
10164.49742454598
 31
0.0
  0
LINE
  5
16681
330
747D
100
AcDbEntity
  8
部品1
100
AcDbLine
 10
4522.173057123663
 20
10156.49742454596
 30
0.0
 11
4547.173057123663
 21
10156.49742454597
 31
0.0
  0
LINE
  5
16682
330
747D
100
AcDbEntity
  8
部品1
100
AcDbLine
 10
4563.673057123663
 20
10182.49742454597
 30
0.0
 11
4569.673057123663
 21
10182.49742454597
 31
0.0
  0
LINE
  5
16683
330
747D
100
AcDbEntity
  8
部品1
100
AcDbLine
 10
4569.673057123663
 20
10182.49742454597
 30
0.0
 11
4569.673057123663
 21
10164.49742454597
 31
0.0
  0
LINE
  5
16684
330
747D
100
AcDbEntity
  8
部品1
100
AcDbLine
 10
4499.673057123663
 20
10182.49742454597
 30
0.0
 11
4505.673057123663
 21
10182.49742454597
 31
0.0
  0
LINE
  5
16685
330
747D
100
AcDbEntity
  8
部品1
100
AcDbLine
 10
4499.673057123663
 20
10182.49742454597
 30
0.0
 11
4499.673057123663
 21
10164.49742454597
 31
0.0
  0
LINE
  5
16686
330
747D
100
AcDbEntity
  8
部品1
100
AcDbLine
 10
4547.173057123663
 20
10164.49742454598
 30
0.0
 11
6031.673057123664
 21
10164.49742454596
 31
0.0
  0
LINE
  5
16687
330
747D
100
AcDbEntity
  8
部品1
100
AcDbLine
 10
4548.173057123663
 20
10162.49742454597
 30
0.0
 11
6031.173057123663
 21
10162.49742454596
 31
0.0
  0
LINE
  5
16688
330
747D
100
AcDbEntity
  8
部品1
100
AcDbLine
 10
3037.67305712365
 20
10164.49742454598
 30
0.0
 11
4522.173057123661
 21
10164.49742454598
 31
0.0
  0
LINE
  5
16689
330
747D
100
AcDbEntity
  8
部品1
100
AcDbLine
 10
3038.173057123663
 20
10162.49742454587
 30
0.0
 11
4521.173057123663
 21
10162.49742454597
 31
0.0
  0
LINE
  5
1668A
330
747D
100
AcDbEntity
  8
部品1
100
AcDbLine
 10
3904.673057123663
 20
10192.49742454598
 30
0.0
 11
3904.673057123663
 21
10164.49742454598
 31
0.0
  0
LINE
  5
1668B
330
747D
100
AcDbEntity
  8
部品1
100
AcDbLine
 10
3904.673057123663
 20
10192.49742454587
 30
0.0
 11
3904.673057123663
 21
10164.49742454587
 31
0.0
  0
LINE
  5
1668C
330
747D
100
AcDbEntity
  8
部品1
100
AcDbLine
 10
3904.673057123663
 20
10192.49742454587
 30
0.0
 11
3904.673057123663
 21
10164.49742454587
 31
0.0
  0
LINE
  5
1668D
330
747D
100
AcDbEntity
  8
部品1
100
AcDbLine
 10
4324.673057123663
 20
10192.49742454598
 30
0.0
 11
4324.673057123663
 21
10164.49742454598
 31
0.0
  0
LINE
  5
1668E
330
747D
100
AcDbEntity
  8
部品1
100
AcDbLine
 10
4324.673057123663
 20
10192.49742454587
 30
0.0
 11
4324.673057123663
 21
10164.49742454587
 31
0.0
  0
LINE
  5
1668F
330
747D
100
AcDbEntity
  8
部品1
100
AcDbLine
 10
4324.673057123663
 20
10192.49742454587
 30
0.0
 11
4324.673057123663
 21
10164.49742454587
 31
0.0
  0
LINE
  5
16690
330
747D
100
AcDbEntity
  8
部品1
100
AcDbLine
 10
5164.673057123663
 20
10192.49742454598
 30
0.0
 11
5164.673057123663
 21
10164.49742454598
 31
0.0
  0
LINE
  5
16691
330
747D
100
AcDbEntity
  8
部品1
100
AcDbLine
 10
5584.673057123662
 20
10192.49742454598
 30
0.0
 11
5584.673057123662
 21
10164.49742454598
 31
0.0
  0
LINE
  5
16692
330
747D
100
AcDbEntity
  8
部品1
100
AcDbLine
 10
6004.673057123664
 20
10192.49742454596
 30
0.0
 11
6004.673057123664
 21
10164.49742454596
 31
0.0
  0
LINE
  5
16693
330
747D
100
AcDbEntity
  8
部品1
100
AcDbLine
 10
6031.173057123663
 20
10162.49742454596
 30
0.0
 11
6031.173057123663
 21
9712.497424545967
 31
0.0
  0
DIMENSION
  5
166DD
330
747D
100
AcDbEntity
  8
寸法
 48
50.0
100
AcDbDimension
  2
*D20
 10
6004.673057123664
 20
10708.30564417097
 30
0.0
 11
6059.673057123664
 21
10808.30564417097
 31
0.0
 70
    32
 71
     5
 42
109.9999999999991
  3
INABA_S40G
100
AcDbAlignedDimension
 13
6114.673057123663
 23
10192.49742454592
 33
0.0
 14
6004.673057123664
 24
10192.49742454591
 34
0.0
100
AcDbRotatedDimension
1001
ACAD
1000
DSTYLE
1002
{
1070
   279
1070
     2
1002
}
  0
LINE
  5
16760
330
747D
100
AcDbEntity
  8
部品1
 48
50.0
100
AcDbLine
 10
6059.673057123629
 20
10164.49742454591
 30
0.0
 11
6031.673057123631
 21
10192.49742454596
 31
0.0
  0
LINE
  5
16761
330
747D
100
AcDbEntity
  8
部品1
100
AcDbLine
 10
6087.673057123631
 20
10137.49742454588
 30
0.0
 11
6031.673057123631
 21
10137.49742454588
 31
0.0
  0
LINE
  5
16762
330
747D
100
AcDbEntity
  8
部品1
 48
50.0
100
AcDbLine
 10
6031.673057123631
 20
10164.49742454601
 30
0.0
 11
6031.67305712363
 21
10192.49742454596
 31
0.0
  0
LINE
  5
16763
330
747D
100
AcDbEntity
  8
部品1
 48
50.0
100
AcDbLine
 10
6031.673057123631
 20
10164.49742454591
 30
0.0
 11
6059.673057123629
 21
10164.49742454591
 31
0.0
  0
LINE
  5
16764
330
747D
100
AcDbEntity
  8
部品1
100
AcDbLine
 10
6031.673057123647
 20
10164.49742454596
 30
0.0
 11
6031.673057123635
 21
7142.497424545858
 31
0.0
  0
LINE
  5
16765
330
747D
100
AcDbEntity
  8
部品1
100
AcDbLine
 10
6087.673057123625
 20
7142.497424545864
 30
0.0
 11
6087.673057123649
 21
10192.49742454591
 31
0.0
  0
LINE
  5
16878
330
747D
100
AcDbEntity
  8
部品1
 48
50.0
100
AcDbLine
 10
6085.173057123705
 20
9720.497424546008
 30
0.0
 11
6034.173057123705
 21
9720.497424546003
 31
0.0
  0
LINE
  5
16879
330
747D
100
AcDbEntity
  8
部品1
 48
50.0
100
AcDbLine
 10
6040.173057123706
 20
9758.497424546
 30
0.0
 11
6034.173057123705
 21
9758.497424546003
 31
0.0
  0
LINE
  5
1687A
330
747D
100
AcDbEntity
  8
部品1
100
AcDbLine
 10
6034.173057123705
 20
9720.497424546003
 30
0.0
 11
6034.173057123705
 21
9758.497424546003
 31
0.0
  0
LINE
  5
1687B
330
747D
100
AcDbEntity
  8
部品1
100
AcDbLine
 10
6085.173057123705
 20
9720.497424546008
 30
0.0
 11
6085.173057123705
 21
9758.497424546007
 31
0.0
  0
LINE
  5
1687C
330
747D
100
AcDbEntity
  8
部品1
 48
50.0
100
AcDbLine
 10
6085.173057123705
 20
9758.497424546007
 30
0.0
 11
6079.173057123705
 21
9758.497424546003
 31
0.0
  0
LINE
  5
168C3
330
747D
100
AcDbEntity
  8
部品1
100
AcDbLine
 10
6083.673057123648
 20
7197.497424545861
 30
0.0
 11
6035.673057123647
 21
7197.49742454586
 31
0.0
  0
LINE
  5
168C4
330
747D
100
AcDbEntity
  8
部品1
 48
50.0
100
AcDbLine
 10
6035.673057123648
 20
7197.497424545861
 30
0.0
 11
6035.67305712365
 21
7142.497424545862
 31
0.0
  0
LINE
  5
168C5
330
747D
100
AcDbEntity
  8
部品1
 48
50.0
100
AcDbLine
 10
6083.673057123648
 20
7197.497424545861
 30
0.0
 11
6083.67305712365
 21
7142.497424545862
 31
0.0
  0
DIMENSION
  5
16907
330
747D
100
AcDbEntity
  8
寸法
 48
50.0
100
AcDbDimension
  2
*D21
 10
6059.673057123664
 20
10957.62711772726
 30
0.0
 11
4534.673057123645
 21
11057.62711772726
 31
0.0
 70
    32
 71
     5
 42
3050.000000000036
  3
INABA_S40G
100
AcDbAlignedDimension
 13
3009.673057123629
 23
10192.49742454583
 33
0.0
 14
6059.673057123664
 24
10867.29355852891
 34
0.0
100
AcDbRotatedDimension
1001
ACAD
1000
DSTYLE
1002
{
1070
   279
1070
     2
1002
}
  0
DIMENSION
  5
16913
330
747D
100
AcDbEntity
  8
寸法
 48
50.0
100
AcDbDimension
  2
*D22
 10
9109.673057123664
 20
10957.62711772726
 30
0.0
 11
7584.673057123665
 21
11057.62711772726
 31
0.0
 70
    32
 71
     5
 42
3050.0
  3
INABA_S40G
100
AcDbAlignedDimension
 13
6059.673057123664
 23
10867.29355852891
 33
0.0
 14
9109.673057123664
 24
10192.49742454596
 34
0.0
100
AcDbRotatedDimension
1001
ACAD
1000
DSTYLE
1002
{
1070
    75
1070
     1
1070
   279
1070
     2
1002
}
  0
LINE
  5
16C81
330
747D
100
AcDbEntity
  8
部品1
100
AcDbLine
 10
3037.673057123643
 20
8457.49742454584
 30
0.0
 11
3009.673057123643
 21
8457.49742454584
 31
0.0
  0
LINE
  5
16C82
330
747D
100
AcDbEntity
  8
部品1
100
AcDbLine
 10
9081.673057123667
 20
8457.497424545968
 30
0.0
 11
9109.673057123668
 21
8457.497424545968
 31
0.0
  0
LINE
  5
16FDA
330
747D
100
AcDbEntity
  8
部品1
100
AcDbLine
 10
3037.673057123643
 20
8037.49742454584
 30
0.0
 11
3009.673057123643
 21
8037.49742454584
 31
0.0
  0
LINE
  5
16FDB
330
747D
100
AcDbEntity
  8
部品1
100
AcDbLine
 10
9081.673057123667
 20
8037.497424545966
 30
0.0
 11
9109.673057123668
 21
8037.497424545966
 31
0.0
  0
LINE
  5
1743E
330
747D
100
AcDbEntity
  8
部品1
100
AcDbLine
 10
6534.673057123663
 20
10192.49742454587
 30
0.0
 11
6534.673057123663
 21
10164.49742454587
 31
0.0
  0
LINE
  5
1743F
330
747D
100
AcDbEntity
  8
部品1
100
AcDbLine
 10
6534.673057123663
 20
10192.49742454587
 30
0.0
 11
6534.673057123663
 21
10164.49742454587
 31
0.0
  0
LINE
  5
17440
330
747D
100
AcDbEntity
  8
部品1
100
AcDbLine
 10
6534.673057123663
 20
10192.49742454598
 30
0.0
 11
6534.673057123663
 21
10164.49742454598
 31
0.0
  0
LINE
  5
17441
330
747D
100
AcDbEntity
  8
部品1
100
AcDbLine
 10
3484.673057123663
 20
10192.49742454598
 30
0.0
 11
3484.673057123663
 21
10164.49742454598
 31
0.0
  0
LINE
  5
17442
330
747D
100
AcDbEntity
  8
部品1
100
AcDbLine
 10
3484.673057123663
 20
10192.49742454587
 30
0.0
 11
3484.673057123663
 21
10164.49742454587
 31
0.0
  0
LINE
  5
17443
330
747D
100
AcDbEntity
  8
部品1
100
AcDbLine
 10
3484.673057123663
 20
10192.49742454587
 30
0.0
 11
3484.673057123663
 21
10164.49742454587
 31
0.0
  0
LINE
  5
17799
330
747D
100
AcDbEntity
  8
部品1
100
AcDbLine
 10
3037.673057123644
 20
7617.49742454584
 30
0.0
 11
3009.673057123644
 21
7617.49742454584
 31
0.0
  0
LINE
  5
1779A
330
747D
100
AcDbEntity
  8
部品1
100
AcDbLine
 10
9081.673057123667
 20
7617.497424545966
 30
0.0
 11
9109.673057123668
 21
7617.497424545966
 31
0.0
  0
LINE
  5
17A77
330
747D
100
AcDbEntity
  8
破線
 48
10.0
100
AcDbLine
 10
3089.67305712352
 20
7297.497424545861
 30
0.0
 11
3089.673057123645
 21
9712.497424545871
 31
0.0
  0
LINE
  5
17A78
330
747D
100
AcDbEntity
  8
破線
 48
10.0
100
AcDbLine
 10
3832.173057123762
 20
7272.497424545896
 30
0.0
 11
3832.17305712375
 21
9712.497424545992
 31
0.0
  0
LINE
  5
17A79
330
747D
100
AcDbEntity
  8
破線
 48
10.0
100
AcDbLine
 10
3782.173057123763
 20
7272.497424545901
 30
0.0
 11
3782.17305712375
 21
9712.497424545992
 31
0.0
  0
LINE
  5
17A7A
330
747D
100
AcDbEntity
  8
部品1
100
AcDbLine
 10
6004.673057123671
 20
9297.497424545968
 30
0.0
 11
3064.673057123645
 21
9297.497424545969
 31
0.0
  0
LINE
  5
17A7B
330
747D
100
AcDbEntity
  8
破線
 48
10.0
100
AcDbLine
 10
4559.673057123761
 20
7272.497424545861
 30
0.0
 11
4559.673057123751
 21
9712.497424545992
 31
0.0
  0
LINE
  5
17A7C
330
747D
100
AcDbEntity
  8
破線
 48
10.0
100
AcDbLine
 10
4509.673057123762
 20
7272.497424545864
 30
0.0
 11
4509.673057123751
 21
9712.497424545992
 31
0.0
  0
LINE
  5
17A7D
330
747D
100
AcDbEntity
  8
部品1
 48
50.0
100
AcDbLine
 10
4534.673057123728
 20
9712.497424545977
 30
0.0
 11
4534.673057123763
 21
7272.497424545864
 31
0.0
  0
LINE
  5
17A7E
330
747D
100
AcDbEntity
  8
破線
 48
10.0
100
AcDbLine
 10
5287.173057123761
 20
7272.497424545827
 30
0.0
 11
5287.173057123751
 21
9712.497424545992
 31
0.0
  0
LINE
  5
17A7F
330
747D
100
AcDbEntity
  8
破線
 48
10.0
100
AcDbLine
 10
5237.173057123763
 20
7272.49742454583
 30
0.0
 11
5237.173057123751
 21
9712.497424545992
 31
0.0
  0
LINE
  5
17A80
330
747D
100
AcDbEntity
  8
破線
 48
10.0
100
AcDbLine
 10
5979.673057123795
 20
7297.497424545861
 30
0.0
 11
5979.673057123671
 21
9712.497424545871
 31
0.0
  0
LINE
  5
17A81
330
747D
100
AcDbEntity
  8
部品1
100
AcDbLine
 10
6004.673057123653
 20
9712.49742454597
 30
0.0
 11
6004.673057123642
 21
7142.497424545952
 31
0.0
  0
LINE
  5
17A82
330
747D
100
AcDbEntity
  8
部品1
100
AcDbLine
 10
6004.673057123671
 20
8037.497424545966
 30
0.0
 11
3064.673057123645
 21
8037.49742454597
 31
0.0
  0
LINE
  5
17A83
330
747D
100
AcDbEntity
  8
部品1
100
AcDbLine
 10
6004.673057123671
 20
8457.497424545968
 30
0.0
 11
3064.673057123645
 21
8457.497424545968
 31
0.0
  0
LINE
  5
17A84
330
747D
100
AcDbEntity
  8
部品1
100
AcDbLine
 10
6004.673057123671
 20
8877.497424545968
 30
0.0
 11
3064.673057123645
 21
8877.497424545969
 31
0.0
  0
LINE
  5
17A85
330
747D
100
AcDbEntity
  8
部品1
100
AcDbLine
 10
3064.673057123642
 20
9712.497424545871
 30
0.0
 11
3064.673057123657
 21
7207.497424545863
 31
0.0
  0
LINE
  5
17A86
330
747D
100
AcDbEntity
  8
破線
 48
10.0
100
AcDbLine
 10
3832.17305712376
 20
7297.49742454582
 30
0.0
 11
4509.673057123762
 21
7297.497424545781
 31
0.0
  0
LINE
  5
17A87
330
747D
100
AcDbEntity
  8
破線
 48
10.0
100
AcDbLine
 10
4559.673057123762
 20
7297.497424545778
 30
0.0
 11
5237.173057123763
 21
7297.49742454574
 31
0.0
  0
LINE
  5
17A88
330
747D
100
AcDbEntity
  8
部品1
 48
50.0
100
AcDbLine
 10
3064.673057123657
 20
7272.497424545864
 30
0.0
 11
6004.673057123643
 21
7272.497424545864
 31
0.0
  0
LINE
  5
17A89
330
747D
100
AcDbEntity
  8
部品1
 48
50.0
100
AcDbLine
 10
3064.673057123657
 20
7227.497424545863
 30
0.0
 11
6004.673057123642
 21
7227.497424545863
 31
0.0
  0
LINE
  5
17A8A
330
747D
100
AcDbEntity
  8
破線
 48
10.0
100
AcDbLine
 10
5287.173057123761
 20
7297.497424545736
 30
0.0
 11
5979.673057123795
 21
7297.497424545696
 31
0.0
  0
LINE
  5
17A8B
330
747D
100
AcDbEntity
  8
部品1
 48
50.0
100
AcDbLine
 10
3064.673057123653
 20
7142.497424545864
 30
0.0
 11
6004.673057123642
 21
7142.497424545848
 31
0.0
  0
LINE
  5
17A8C
330
747D
100
AcDbEntity
  8
破線
 48
10.0
100
AcDbLine
 10
3089.67305712352
 20
7297.497424545861
 30
0.0
 11
3782.173057123765
 21
7297.497424545821
 31
0.0
  0
LINE
  5
17A8D
330
747D
100
AcDbEntity
  8
部品1
100
AcDbLine
 10
6004.673057123672
 20
7617.497424545966
 30
0.0
 11
3064.673057123647
 21
7617.49742454597
 31
0.0
  0
LINE
  5
17A8E
330
747D
100
AcDbEntity
  8
破線
 48
10.0
100
AcDbLine
 10
6139.67305712352
 20
7297.497424545863
 30
0.0
 11
6139.673057123644
 21
9712.497424545873
 31
0.0
  0
LINE
  5
17A8F
330
747D
100
AcDbEntity
  8
破線
 48
10.0
100
AcDbLine
 10
6882.173057123761
 20
7272.497424545896
 30
0.0
 11
6882.17305712375
 21
9712.497424545993
 31
0.0
  0
LINE
  5
17A90
330
747D
100
AcDbEntity
  8
破線
 48
10.0
100
AcDbLine
 10
6832.173057123762
 20
7272.497424545902
 30
0.0
 11
6832.17305712375
 21
9712.497424545993
 31
0.0
  0
LINE
  5
17A91
330
747D
100
AcDbEntity
  8
部品1
100
AcDbLine
 10
9054.67305712367
 20
9297.497424545968
 30
0.0
 11
6114.673057123644
 21
9297.497424545971
 31
0.0
  0
LINE
  5
17A92
330
747D
100
AcDbEntity
  8
破線
 48
10.0
100
AcDbLine
 10
7609.67305712376
 20
7272.497424545862
 30
0.0
 11
7609.67305712375
 21
9712.497424545993
 31
0.0
  0
LINE
  5
17A93
330
747D
100
AcDbEntity
  8
破線
 48
10.0
100
AcDbLine
 10
7559.673057123763
 20
7272.497424545865
 30
0.0
 11
7559.67305712375
 21
9712.497424545993
 31
0.0
  0
LINE
  5
17A94
330
747D
100
AcDbEntity
  8
部品1
 48
50.0
100
AcDbLine
 10
7584.673057123727
 20
9712.497424545979
 30
0.0
 11
7584.673057123763
 21
7272.497424545864
 31
0.0
  0
LINE
  5
17A95
330
747D
100
AcDbEntity
  8
破線
 48
10.0
100
AcDbLine
 10
8337.173057123761
 20
7272.497424545829
 30
0.0
 11
8337.173057123749
 21
9712.497424545993
 31
0.0
  0
LINE
  5
17A96
330
747D
100
AcDbEntity
  8
破線
 48
10.0
100
AcDbLine
 10
8287.173057123762
 20
7272.497424545831
 30
0.0
 11
8287.17305712375
 21
9712.497424545993
 31
0.0
  0
LINE
  5
17A97
330
747D
100
AcDbEntity
  8
破線
 48
10.0
100
AcDbLine
 10
9029.673057123792
 20
7297.497424545863
 30
0.0
 11
9029.67305712367
 21
9712.497424545873
 31
0.0
  0
LINE
  5
17A98
330
747D
100
AcDbEntity
  8
部品1
100
AcDbLine
 10
9054.673057123654
 20
9712.497424545972
 30
0.0
 11
9054.673057123642
 21
7142.497424545954
 31
0.0
  0
LINE
  5
17A99
330
747D
100
AcDbEntity
  8
部品1
100
AcDbLine
 10
9054.67305712367
 20
8037.497424545968
 30
0.0
 11
6114.673057123644
 21
8037.49742454597
 31
0.0
  0
LINE
  5
17A9A
330
747D
100
AcDbEntity
  8
部品1
100
AcDbLine
 10
9054.67305712367
 20
8457.497424545968
 30
0.0
 11
6114.673057123644
 21
8457.497424545971
 31
0.0
  0
LINE
  5
17A9B
330
747D
100
AcDbEntity
  8
部品1
100
AcDbLine
 10
9054.67305712367
 20
8877.497424545968
 30
0.0
 11
6114.673057123644
 21
8877.497424545969
 31
0.0
  0
LINE
  5
17A9C
330
747D
100
AcDbEntity
  8
部品1
100
AcDbLine
 10
6114.673057123641
 20
9712.497424545873
 30
0.0
 11
6114.673057123656
 21
7207.497424545865
 31
0.0
  0
LINE
  5
17A9D
330
747D
100
AcDbEntity
  8
破線
 48
10.0
100
AcDbLine
 10
6882.173057123759
 20
7297.497424545821
 30
0.0
 11
7559.673057123763
 21
7297.497424545783
 31
0.0
  0
LINE
  5
17A9E
330
747D
100
AcDbEntity
  8
破線
 48
10.0
100
AcDbLine
 10
7609.673057123761
 20
7297.497424545778
 30
0.0
 11
8287.173057123762
 21
7297.49742454574
 31
0.0
  0
LINE
  5
17A9F
330
747D
100
AcDbEntity
  8
部品1
 48
50.0
100
AcDbLine
 10
6114.673057123656
 20
7272.497424545864
 30
0.0
 11
9054.673057123642
 21
7272.497424545864
 31
0.0
  0
LINE
  5
17AA0
330
747D
100
AcDbEntity
  8
部品1
 48
50.0
100
AcDbLine
 10
6114.673057123656
 20
7227.497424545865
 30
0.0
 11
9054.673057123642
 21
7227.497424545865
 31
0.0
  0
LINE
  5
17AA1
330
747D
100
AcDbEntity
  8
破線
 48
10.0
100
AcDbLine
 10
8337.173057123761
 20
7297.497424545738
 30
0.0
 11
9029.673057123792
 21
7297.497424545698
 31
0.0
  0
LINE
  5
17AA2
330
747D
100
AcDbEntity
  8
部品1
 48
50.0
100
AcDbLine
 10
6114.673057123653
 20
7142.497424545865
 30
0.0
 11
9054.673057123642
 21
7142.49742454585
 31
0.0
  0
LINE
  5
17AA3
330
747D
100
AcDbEntity
  8
破線
 48
10.0
100
AcDbLine
 10
6139.67305712352
 20
7297.497424545863
 30
0.0
 11
6832.173057123764
 21
7297.497424545823
 31
0.0
  0
LINE
  5
17AA4
330
747D
100
AcDbEntity
  8
部品1
100
AcDbLine
 10
9054.67305712367
 20
7617.497424545968
 30
0.0
 11
6114.673057123646
 21
7617.49742454597
 31
0.0
  0
LINE
  5
17D7D
330
747D
100
AcDbEntity
  8
仕様書枠
 48
50.0
100
AcDbLine
 10
16307.19999999998
 20
8519.600000000002
 30
0.0
 11
13127.19999999999
 21
8519.600000000004
 31
0.0
  0
TEXT
  5
17D7E
330
747D
100
AcDbEntity
  8
文字
 62
     7
 48
50.0
100
AcDbText
 10
13248.77747366447
 20
8380.013745883731
 30
0.0
 40
100.0
  1
16
  7
STYLE1
100
AcDbText
  0
TEXT
  5
17D7F
330
747D
100
AcDbEntity
  8
文字
 62
     7
 48
50.0
100
AcDbText
 10
15022.63965474515
 20
8380.013745883728
 30
0.0
 40
100.0
  1
F12            0.6
  7
STYLE1
100
AcDbText
  0
TEXT
  5
17D80
330
747D
100
AcDbEntity
  8
文字
 62
     7
 48
50.0
100
AcDbText
 10
13583.11819016568
 20
8380.013745883735
 30
0.0
 40
100.0
  1
棚板
 41
0.9
  7
STYLE1
100
AcDbText
  0
TEXT
  5
17D81
330
747D
100
AcDbEntity
  8
文字
 62
     7
 48
50.0
100
AcDbText
 10
13583.11819016569
 20
8550.013745883735
 30
0.0
 40
100.0
  1
床パネル
 41
0.9
  7
STYLE1
100
AcDbText
  0
TEXT
  5
17D82
330
747D
100
AcDbEntity
  8
文字
 62
     7
 48
50.0
100
AcDbText
 10
15022.63965474516
 20
8550.013745883729
 30
0.0
 40
100.0
  1
F12            1.0
  7
STYLE1
100
AcDbText
  0
TEXT
  5
17D83
330
747D
100
AcDbEntity
  8
文字
 62
     7
 48
50.0
100
AcDbText
 10
13248.77747366448
 20
8550.013745883731
 30
0.0
 40
100.0
  1
15
  7
STYLE1
100
AcDbText
  0
LINE
  5
17D84
330
747D
100
AcDbEntity
  8
仕様書枠
 48
50.0
100
AcDbLine
 10
16307.19999999999
 20
9879.600000000001
 30
0.0
 11
13127.19999999999
 21
9879.600000000003
 31
0.0
  0
LINE
  5
17D85
330
747D
100
AcDbEntity
  8
仕様書枠
 48
50.0
100
AcDbLine
 10
16307.19999999999
 20
11239.6
 30
0.0
 11
13127.2
 21
11239.6
 31
0.0
  0
LINE
  5
17D86
330
747D
100
AcDbEntity
  8
仕様書枠
 48
50.0
100
AcDbLine
 10
16307.19999999999
 20
7839.60000000002
 30
0.0
 11
16307.2
 21
11239.6
 31
0.0
  0
LINE
  5
17D87
330
747D
100
AcDbEntity
  8
仕様書枠
 48
50.0
100
AcDbLine
 10
14785.2
 20
11239.6
 30
0.0
 11
14785.19999999999
 21
8349.600000000014
 31
0.0
  0
LINE
  5
17D88
330
747D
100
AcDbEntity
  8
仕様書枠
 48
50.0
100
AcDbLine
 10
13490.2
 20
11239.6
 30
0.0
 11
13490.2
 21
8349.600000000014
 31
0.0
  0
LINE
  5
17D89
330
747D
100
AcDbEntity
  8
仕様書枠
 48
50.0
100
AcDbLine
 10
16307.19999999999
 20
11069.6
 30
0.0
 11
13127.2
 21
11069.6
 31
0.0
  0
LINE
  5
17D8A
330
747D
100
AcDbEntity
  8
仕様書枠
 48
50.0
100
AcDbLine
 10
16307.19999999999
 20
10729.6
 30
0.0
 11
13127.2
 21
10729.6
 31
0.0
  0
LINE
  5
17D8B
330
747D
100
AcDbEntity
  8
仕様書枠
 48
50.0
100
AcDbLine
 10
16307.19999999999
 20
10899.6
 30
0.0
 11
13127.2
 21
10899.6
 31
0.0
  0
LINE
  5
17D8C
330
747D
100
AcDbEntity
  8
仕様書枠
 48
50.0
100
AcDbLine
 10
16307.19999999999
 20
10389.6
 30
0.0
 11
13127.19999999999
 21
10389.6
 31
0.0
  0
LINE
  5
17D8D
330
747D
100
AcDbEntity
  8
仕様書枠
 48
50.0
100
AcDbLine
 10
16307.19999999999
 20
10219.6
 30
0.0
 11
13127.19999999999
 21
10219.6
 31
0.0
  0
LINE
  5
17D8E
330
747D
100
AcDbEntity
  8
仕様書枠
 48
50.0
100
AcDbLine
 10
16307.19999999999
 20
10559.6
 30
0.0
 11
13127.19999999999
 21
10559.6
 31
0.0
  0
TEXT
  5
17D8F
330
747D
100
AcDbEntity
  8
文字
 62
     7
 48
50.0
100
AcDbText
 10
13197.42518560407
 20
11100.01374588373
 30
0.0
 40
100.0
  1
品番
  7
STYLE1
100
AcDbText
  0
TEXT
  5
17D90
330
747D
100
AcDbEntity
  8
文字
 62
     7
 48
50.0
100
AcDbText
 10
13271.19032244792
 20
10930.01374588373
 30
0.0
 40
100.0
  1
1
  7
STYLE1
100
AcDbText
  0
TEXT
  5
17D91
330
747D
100
AcDbEntity
  8
文字
 62
     7
 48
50.0
100
AcDbText
 10
13271.19032244792
 20
10760.01374588373
 30
0.0
 40
100.0
  1
2
  7
STYLE1
100
AcDbText
  0
TEXT
  5
17D92
330
747D
100
AcDbEntity
  8
文字
 62
     7
 48
50.0
100
AcDbText
 10
13271.19032244792
 20
10420.01374588373
 30
0.0
 40
100.0
  1
4
  7
STYLE1
100
AcDbText
  0
TEXT
  5
17D93
330
747D
100
AcDbEntity
  8
文字
 62
     7
 48
50.0
100
AcDbText
 10
13271.19032244792
 20
10590.01374588373
 30
0.0
 40
100.0
  1
3
  7
STYLE1
100
AcDbText
  0
TEXT
  5
17D94
330
747D
100
AcDbEntity
  8
文字
 62
     7
 48
50.0
100
AcDbText
 10
13732.03840939434
 20
11100.01374588373
 30
0.0
 40
100.0
  1
部　　品　　名
  7
STYLE1
100
AcDbText
  0
TEXT
  5
17D95
330
747D
100
AcDbEntity
  8
文字
 62
     7
 48
50.0
100
AcDbText
 10
14859.79774614482
 20
11100.01374588373
 30
0.0
 40
100.0
  1
材料（材質）　　単位mm
  7
STYLE1
100
AcDbText
  0
TEXT
  5
17D96
330
747D
100
AcDbEntity
  8
文字
 62
     7
 48
50.0
100
AcDbText
 10
13583.11819016569
 20
10930.01374588373
 30
0.0
 40
100.0
  1
土台枠
  7
STYLE1
100
AcDbText
  0
TEXT
  5
17D97
330
747D
100
AcDbEntity
  8
文字
 62
     7
 48
50.0
100
AcDbText
 10
13583.11819016569
 20
10760.01374588373
 30
0.0
 40
100.0
  1
柱
  7
STYLE1
100
AcDbText
  0
TEXT
  5
17D98
330
747D
100
AcDbEntity
  8
文字
 62
     7
 48
50.0
100
AcDbText
 10
13583.11819016569
 20
10590.01374588373
 30
0.0
 40
100.0
  1
桁前
  7
STYLE1
100
AcDbText
  0
TEXT
  5
17D99
330
747D
100
AcDbEntity
  8
文字
 62
     7
 48
50.0
100
AcDbText
 10
13583.11819016569
 20
10420.01374588373
 30
0.0
 40
100.0
  1
桁後
  7
STYLE1
100
AcDbText
  0
TEXT
  5
17D9A
330
747D
100
AcDbEntity
  8
文字
 62
     7
 48
50.0
100
AcDbText
 10
13271.19032244792
 20
10250.01374588373
 30
0.0
 40
100.0
  1
5
  7
STYLE1
100
AcDbText
  0
TEXT
  5
17D9B
330
747D
100
AcDbEntity
  8
文字
 62
     7
 48
50.0
100
AcDbText
 10
13583.11819016569
 20
10250.01374588373
 30
0.0
 40
100.0
  1
妻板左右
  7
STYLE1
100
AcDbText
  0
TEXT
  5
17D9C
330
747D
100
AcDbEntity
  8
文字
 62
     7
 48
50.0
100
AcDbText
 10
13583.11819016569
 20
8890.013745883731
 30
0.0
 40
100.0
  1
シャッターレール
  7
STYLE1
100
AcDbText
  0
TEXT
  5
17D9D
330
747D
100
AcDbEntity
  8
文字
 62
     7
 48
50.0
100
AcDbText
 10
13248.77747366448
 20
9400.013745883729
 30
0.0
 40
100.0
  1
10
  7
STYLE1
100
AcDbText
  0
TEXT
  5
17D9E
330
747D
100
AcDbEntity
  8
文字
 62
     7
 48
50.0
100
AcDbText
 10
13583.11819016569
 20
9400.013745883732
 30
0.0
 40
100.0
  1
壁パネル
  7
STYLE1
100
AcDbText
  0
TEXT
  5
17D9F
330
747D
100
AcDbEntity
  8
文字
 62
     7
 48
50.0
100
AcDbText
 10
13583.11819016569
 20
9570.013745883731
 30
0.0
 40
100.0
  1
屋根パネル
  7
STYLE1
100
AcDbText
  0
TEXT
  5
17DA0
330
747D
100
AcDbEntity
  8
文字
 62
     7
 48
50.0
100
AcDbText
 10
13583.11819016569
 20
9740.013745883731
 30
0.0
 40
100.0
  1
母屋中
  7
STYLE1
100
AcDbText
  0
TEXT
  5
17DA1
330
747D
100
AcDbEntity
  8
文字
 62
     7
 48
50.0
100
AcDbText
 10
13583.11819016569
 20
10080.01374588373
 30
0.0
 40
100.0
  1
鼻隠シ前後
  7
STYLE1
100
AcDbText
  0
TEXT
  5
17DA2
330
747D
100
AcDbEntity
  8
文字
 62
     7
 48
50.0
100
AcDbText
 10
13271.19032244792
 20
9740.013745883731
 30
0.0
 40
100.0
  1
8
  7
STYLE1
100
AcDbText
  0
TEXT
  5
17DA3
330
747D
100
AcDbEntity
  8
文字
 62
     7
 48
50.0
100
AcDbText
 10
13271.19032244792
 20
9570.013745883731
 30
0.0
 40
100.0
  1
9
  7
STYLE1
100
AcDbText
  0
TEXT
  5
17DA4
330
747D
100
AcDbEntity
  8
文字
 62
     7
 48
50.0
100
AcDbText
 10
13271.19032244792
 20
9910.01374588373
 30
0.0
 40
100.0
  1
7
  7
STYLE1
100
AcDbText
  0
TEXT
  5
17DA5
330
747D
100
AcDbEntity
  8
文字
 62
     7
 48
50.0
100
AcDbText
 10
13271.19032244792
 20
10080.01374588373
 30
0.0
 40
100.0
  1
6
  7
STYLE1
100
AcDbText
  0
LINE
  5
17DA6
330
747D
100
AcDbEntity
  8
仕様書枠
 48
50.0
100
AcDbLine
 10
16307.19999999999
 20
9539.6
 30
0.0
 11
13127.19999999999
 21
9539.600000000003
 31
0.0
  0
LINE
  5
17DA7
330
747D
100
AcDbEntity
  8
仕様書枠
 48
50.0
100
AcDbLine
 10
16307.19999999999
 20
9199.600000000001
 30
0.0
 11
13127.19999999999
 21
9199.600000000001
 31
0.0
  0
LINE
  5
17DA8
330
747D
100
AcDbEntity
  8
仕様書枠
 48
50.0
100
AcDbLine
 10
16307.19999999999
 20
9369.600000000001
 30
0.0
 11
13127.19999999999
 21
9369.600000000003
 31
0.0
  0
LINE
  5
17DA9
330
747D
100
AcDbEntity
  8
仕様書枠
 48
50.0
100
AcDbLine
 10
16307.19999999999
 20
10049.6
 30
0.0
 11
13127.2
 21
10049.6
 31
0.0
  0
LINE
  5
17DAA
330
747D
100
AcDbEntity
  8
仕様書枠
 48
50.0
100
AcDbLine
 10
16307.19999999999
 20
9709.600000000001
 30
0.0
 11
13127.19999999999
 21
9709.600000000001
 31
0.0
  0
TEXT
  5
17DAB
330
747D
100
AcDbEntity
  8
文字
 62
     7
 48
50.0
100
AcDbText
 10
13248.77747366448
 20
9230.013745883729
 30
0.0
 40
100.0
  1
11
  7
STYLE1
100
AcDbText
  0
TEXT
  5
17DAC
330
747D
100
AcDbEntity
  8
文字
 62
     7
 48
50.0
100
AcDbText
 10
13583.11819016569
 20
9060.013745883731
 30
0.0
 40
100.0
  1
シャッターカバー
 41
0.9
  7
STYLE1
100
AcDbText
  0
LINE
  5
17DAD
330
747D
100
AcDbEntity
  8
仕様書枠
 48
50.0
100
AcDbLine
 10
16307.19999999999
 20
9029.6
 30
0.0
 11
13127.19999999999
 21
9029.600000000002
 31
0.0
  0
TEXT
  5
17DAE
330
747D
100
AcDbEntity
  8
文字
 62
     7
 48
50.0
100
AcDbText
 10
13583.11819016569
 20
9230.013745883733
 30
0.0
 40
100.0
  1
シャッター
  7
STYLE1
100
AcDbText
  0
TEXT
  5
17DAF
330
747D
100
AcDbEntity
  8
文字
 62
     7
 48
50.0
100
AcDbText
 10
13248.77747366448
 20
8890.013745883731
 30
0.0
 40
100.0
  1
13
  7
STYLE1
100
AcDbText
  0
TEXT
  5
17DB0
330
747D
100
AcDbEntity
  8
文字
 62
     7
 48
50.0
100
AcDbText
 10
13248.77747366448
 20
9060.013745883731
 30
0.0
 40
100.0
  1
12
  7
STYLE1
100
AcDbText
  0
TEXT
  5
17DB1
330
747D
100
AcDbEntity
  8
文字
 62
     7
 48
50.0
100
AcDbText
 10
15022.63965474517
 20
10930.01374588372
 30
0.0
 40
100.0
  1
F12            1.2
  7
STYLE1
100
AcDbText
  0
TEXT
  5
17DB2
330
747D
100
AcDbEntity
  8
文字
 62
     7
 48
50.0
100
AcDbText
 10
15022.63965474517
 20
10760.01374588372
 30
0.0
 40
100.0
  1
F12         1.0,1.2
  7
STYLE1
100
AcDbText
  0
TEXT
  5
17DB3
330
747D
100
AcDbEntity
  8
文字
 62
     7
 48
50.0
100
AcDbText
 10
15022.63965474516
 20
10590.01374588373
 30
0.0
 40
100.0
  1
Y10            1.0
  7
STYLE1
100
AcDbText
  0
TEXT
  5
17DB4
330
747D
100
AcDbEntity
  8
文字
 62
     7
 48
50.0
100
AcDbText
 10
15022.63965474516
 20
10420.01374588372
 30
0.0
 40
100.0
  1
Y10            1.0
  7
STYLE1
100
AcDbText
  0
TEXT
  5
17DB5
330
747D
100
AcDbEntity
  8
文字
 62
     7
 48
50.0
100
AcDbText
 10
15022.63965474516
 20
10250.01374588373
 30
0.0
 40
100.0
  1
Y10            0.7
  7
STYLE1
100
AcDbText
  0
TEXT
  5
17DB6
330
747D
100
AcDbEntity
  8
文字
 62
     7
 48
50.0
100
AcDbText
 10
15022.63965474516
 20
10080.01374588372
 30
0.0
 40
100.0
  1
Y10            0.7
  7
STYLE1
100
AcDbText
  0
TEXT
  5
17DB7
330
747D
100
AcDbEntity
  8
文字
 62
     7
 48
50.0
100
AcDbText
 10
15022.63965474516
 20
9570.013745883729
 30
0.0
 40
100.0
  1
Y10            0.5
  7
STYLE1
100
AcDbText
  0
TEXT
  5
17DB8
330
747D
100
AcDbEntity
  8
文字
 62
     7
 48
50.0
100
AcDbText
 10
15022.63965474516
 20
9400.013745883729
 30
0.0
 40
100.0
  1
F12            0.7
  7
STYLE1
100
AcDbText
  0
TEXT
  5
17DB9
330
747D
100
AcDbEntity
  8
文字
 62
     7
 48
50.0
100
AcDbText
 10
14850.83183167176
 20
8890.013745883729
 30
0.0
 40
100.0
  1
アルミニウム合金押出形材
  7
STYLE1
100
AcDbText
  0
TEXT
  5
17DBB
330
747D
100
AcDbEntity
  8
文字
 62
     7
 48
50.0
100
AcDbText
 10
15022.63965474516
 20
9230.013745883729
 30
0.0
 40
100.0
  1
Z08            0.5
  7
STYLE1
100
AcDbText
  0
LINE
  5
17DBC
330
747D
100
AcDbEntity
  8
仕様書枠
 48
50.0
100
AcDbLine
 10
16307.19999999998
 20
8179.60000000002
 30
0.0
 11
13127.19999999999
 21
8179.60000000002
 31
0.0
  0
LINE
  5
17DBD
330
747D
100
AcDbEntity
  8
仕様書枠
 48
50.0
100
AcDbLine
 10
16307.19999999998
 20
8009.600000000018
 30
0.0
 11
13127.19999999999
 21
8009.60000000002
 31
0.0
  0
LINE
  5
17DBE
330
747D
100
AcDbEntity
  8
仕様書枠
 48
50.0
100
AcDbLine
 10
16307.19999999998
 20
7839.600000000018
 30
0.0
 11
13127.19999999999
 21
7839.60000000002
 31
0.0
  0
TEXT
  5
17DBF
330
747D
100
AcDbEntity
  8
文字
 62
     7
 48
50.0
100
AcDbText
 10
13229.83081656554
 20
8210.013745883747
 30
0.0
 40
100.0
  1
F12→溶融亜鉛めっき鋼板(JIS G 3302)
  7
STYLE1
100
AcDbText
  0
TEXT
  5
17DC0
330
747D
100
AcDbEntity
  8
文字
 62
     7
 48
50.0
100
AcDbText
 10
13229.83081656554
 20
8040.013745883747
 30
0.0
 40
100.0
  1
Y10→溶融亜鉛-5％アルミニウム合金めっき鋼板(JIS G 3317)
 41
0.9
  7
STYLE1
100
AcDbText
  0
TEXT
  5
17DC1
330
747D
100
AcDbEntity
  8
文字
 62
     7
 48
50.0
100
AcDbText
 10
13229.83081656554
 20
7870.013745883749
 30
0.0
 40
100.0
  1
Z08→塗装溶融亜鉛めっき鋼板(JIS G 3313)
  7
STYLE1
100
AcDbText
  0
LINE
  5
17DC2
330
747D
100
AcDbEntity
  8
仕様書枠
 48
50.0
100
AcDbLine
 10
13127.2
 20
11239.6
 30
0.0
 11
13127.19999999999
 21
7839.60000000002
 31
0.0
  0
LINE
  5
17DC3
330
747D
100
AcDbEntity
  8
仕様書枠
 48
50.0
100
AcDbLine
 10
16307.19999999999
 20
8689.600000000003
 30
0.0
 11
13127.19999999999
 21
8689.600000000003
 31
0.0
  0
LINE
  5
17DC4
330
747D
100
AcDbEntity
  8
仕様書枠
 48
50.0
100
AcDbLine
 10
16307.19999999999
 20
8859.600000000002
 30
0.0
 11
13127.19999999999
 21
8859.600000000005
 31
0.0
  0
TEXT
  5
17DC5
330
747D
100
AcDbEntity
  8
文字
 62
     7
 48
50.0
100
AcDbText
 10
13583.11819016569
 20
8720.013745883733
 30
0.0
 40
100.0
  1
根太
  7
STYLE1
100
AcDbText
  0
TEXT
  5
17DC6
330
747D
100
AcDbEntity
  8
文字
 62
     7
 48
50.0
100
AcDbText
 10
13248.77747366448
 20
8720.013745883731
 30
0.0
 40
100.0
  1
14
  7
STYLE1
100
AcDbText
  0
TEXT
  5
17DC7
330
747D
100
AcDbEntity
  8
文字
 62
     7
 48
50.0
100
AcDbText
 10
15022.63965474516
 20
8720.013745883729
 30
0.0
 40
100.0
  1
F12            1.2
  7
STYLE1
100
AcDbText
  0
TEXT
  5
17DC8
330
747D
100
AcDbEntity
  8
文字
 62
     7
 48
50.0
100
AcDbText
 10
13583.11819016569
 20
9910.01374588373
 30
0.0
 40
100.0
  1
梁中
  7
STYLE1
100
AcDbText
  0
TEXT
  5
17DC9
330
747D
100
AcDbEntity
  8
文字
 62
     7
 48
50.0
100
AcDbText
 10
15022.63965474516
 20
9910.01374588373
 30
0.0
 40
100.0
  1
F12,Y10      1.2+1.6
  7
STYLE1
100
AcDbText
  0
LINE
  5
17DCA
330
747D
100
AcDbEntity
  8
仕様書枠
 48
50.0
100
AcDbLine
 10
16307.19999999998
 20
8349.600000000016
 30
0.0
 11
13127.19999999999
 21
8349.60000000002
 31
0.0
  0
TEXT
  5
17DCB
330
747D
100
AcDbEntity
  8
文字
 62
     7
 48
50.0
100
AcDbText
 10
15022.63965474517
 20
9740.013745883729
 30
0.0
 40
100.0
  1
F12            1.0
  7
STYLE1
100
AcDbText
  0
LINE
  5
1826F
330
747D
100
AcDbEntity
  8
部品1
 48
50.0
100
AcDbLine
 10
6059.673057123656
 20
4512.931598713261
 30
0.0
 11
6059.673057123657
 21
4771.931598713265
 31
0.0
  0
LINE
  5
18270
330
747D
100
AcDbEntity
  8
部品1
 48
50.0
100
AcDbLine
 10
6049.673057123657
 20
4771.931598713265
 30
0.0
 11
6049.673057123657
 21
4912.931598713264
 31
0.0
  0
ARC
  5
18271
330
747D
100
AcDbEntity
  8
部品1
100
AcDbCircle
 10
9152.264636017234
 20
4905.931598713264
 30
0.0
 40
7.0
100
AcDbArc
 50
356.752657209659
 51
90.0
  0
ARC
  5
18272
330
747D
100
AcDbEntity
  8
部品1
100
AcDbCircle
 10
9139.049312556199
 20
4778.931598713266
 30
0.0
 40
7.0
100
AcDbArc
 50
270.0
 51
356.752657209659
  0
ARC
  5
18273
330
747D
100
AcDbEntity
  8
部品1
 48
50.0
100
AcDbCircle
 10
9157.421122766878
 20
4885.598597874952
 30
0.0
 40
0.7
100
AcDbArc
 50
277.6581272073639
 51
356.752657209607
  0
ARC
  5
18274
330
747D
100
AcDbEntity
  8
部品1
 48
50.0
100
AcDbCircle
 10
9149.185092242033
 20
4793.398597874946
 30
0.0
 40
0.7
100
AcDbArc
 50
277.6581272073639
 51
356.7526572096981
  0
ARC
  5
18275
330
747D
100
AcDbEntity
  8
部品1
 48
50.0
100
AcDbCircle
 10
9149.678161350596
 20
4789.731598713263
 30
0.0
 40
3.0
100
AcDbArc
 50
97.6581272073639
 51
176.752657209659
  0
ARC
  5
18276
330
747D
100
AcDbEntity
  8
部品1
 48
50.0
100
AcDbCircle
 10
9157.914191875439
 20
4881.931598713266
 30
0.0
 40
3.0
100
AcDbArc
 50
97.6581272073639
 51
176.752657209659
  0
LINE
  5
18277
330
747D
100
AcDbEntity
  8
部品1
100
AcDbLine
 10
9154.919008979254
 20
4882.101538168367
 30
0.0
 11
9149.883968251144
 21
4793.358945335424
 31
0.0
  0
LINE
  5
18278
330
747D
100
AcDbEntity
  8
部品1
100
AcDbLine
 10
9146.682978454411
 20
4789.901538168367
 30
0.0
 11
9146.038072647298
 21
4778.535073318026
 31
0.0
  0
LINE
  5
18279
330
747D
100
AcDbEntity
  8
細線
 48
50.0
100
AcDbLine
 10
9126.673057123666
 20
4912.931598713264
 30
0.0
 11
9126.673057123666
 21
4771.931598713264
 31
0.0
  0
LINE
  5
1827A
330
747D
100
AcDbEntity
  8
部品1
100
AcDbLine
 10
9159.253396108331
 20
4905.535073318024
 30
0.0
 11
9158.119998775985
 21
4885.558945335425
 31
0.0
  0
LINE
  5
1827B
330
747D
100
AcDbEntity
  8
細線
 48
50.0
100
AcDbLine
 10
9149.278375586906
 20
4792.704841276732
 30
0.0
 11
6049.673057123657
 21
4792.704841277097
 31
0.0
  0
LINE
  5
1827C
330
747D
100
AcDbEntity
  8
細線
 48
50.0
100
AcDbLine
 10
9157.514406111749
 20
4884.904841276732
 30
0.0
 11
6049.673057123657
 21
4884.904841276739
 31
0.0
  0
LINE
  5
1827D
330
747D
100
AcDbEntity
  8
部品1
 48
50.0
100
AcDbLine
 10
9139.049312556199
 20
4771.931598713265
 30
0.0
 11
6059.673057123657
 21
4771.931598713265
 31
0.0
  0
LINE
  5
1827E
330
747D
100
AcDbEntity
  8
部品1
 48
50.0
100
AcDbLine
 10
9152.264636017234
 20
4912.931598713264
 30
0.0
 11
6049.673057123657
 21
4912.931598713264
 31
0.0
  0
DIMENSION
  5
182AC
330
747D
100
AcDbEntity
  8
寸法
 48
50.0
100
AcDbDimension
  2
*D23
 10
9109.673057123666
 20
5125.473183971505
 30
0.0
 11
9473.158338497901
 21
5125.473183971505
 31
0.0
 70
   160
 71
     5
 42
50.0
  3
INABA_S40G
100
AcDbAlignedDimension
 13
9159.673057123667
 23
4912.931598713264
 33
0.0
 14
9109.673057123666
 24
4912.931598713266
 34
0.0
100
AcDbRotatedDimension
  0
DIMENSION
  5
182AD
330
747D
100
AcDbEntity
  8
寸法
 48
50.0
100
AcDbDimension
  2
*D24
 10
9159.673057123667
 20
5346.378484445256
 30
0.0
 11
6059.673057123651
 21
5346.378484445256
 31
0.0
 70
   160
 71
     5
 42
6200.000000000029
  3
INABA_S40G
100
AcDbAlignedDimension
 13
2959.673057123637
 23
4912.931598713267
 33
0.0
 14
9159.673057123667
 24
4912.931598713264
 34
0.0
100
AcDbRotatedDimension
  0
LINE
  5
182AE
330
747D
100
AcDbEntity
  8
部品1
100
AcDbLine
 10
6059.673057123657
 20
4677.931598713261
 30
0.0
 11
9109.673057123655
 21
4677.931598713261
 31
0.0
  0
LINE
  5
182AF
330
747D
100
AcDbEntity
  8
部品1
100
AcDbLine
 10
3009.67305712364
 20
4677.931598713261
 30
0.0
 11
6059.673057123642
 21
4677.931598713261
 31
0.0
  0
DIMENSION
  5
182B0
330
747D
100
AcDbEntity
  8
寸法
 48
50.0
100
AcDbDimension
  2
*D25
 10
2959.673057123637
 20
5125.473183971506
 30
0.0
 11
2646.187775749389
 21
5125.473183971506
 31
0.0
 70
   160
 71
     5
 42
50.0
  3
INABA_S40G
100
AcDbAlignedDimension
 13
3009.673057123637
 23
4912.931598713268
 33
0.0
 14
2959.673057123637
 24
4912.931598713267
 34
0.0
100
AcDbRotatedDimension
1001
ACAD
1000
DSTYLE
1002
{
1002
}
  0
DIMENSION
  5
182B1
330
747D
100
AcDbEntity
  8
寸法
 48
50.0
100
AcDbDimension
  2
*D26
 10
3009.673057123637
 20
5125.473183971506
 30
0.0
 11
6059.673057123644
 21
5125.473183971506
 31
0.0
 70
   160
  1
柱外寸法<>
 71
     5
 42
6100.000000000015
  3
INABA_S40G
100
AcDbAlignedDimension
 13
9109.673057123652
 23
4912.931598713266
 33
0.0
 14
3009.673057123637
 24
4912.931598713268
 34
0.0
100
AcDbRotatedDimension
  0
LINE
  5
182DE
330
747D
100
AcDbEntity
  8
部品1
 48
50.0
100
AcDbLine
 10
6049.673057123657
 20
4912.931598713264
 30
0.0
 11
2967.081478230066
 21
4912.931598713264
 31
0.0
  0
LINE
  5
182DF
330
747D
100
AcDbEntity
  8
部品1
 48
50.0
100
AcDbLine
 10
6059.673057123657
 20
4771.931598713265
 30
0.0
 11
2980.2968016911
 21
4771.931598713265
 31
0.0
  0
LINE
  5
182E0
330
747D
100
AcDbEntity
  8
細線
 48
50.0
100
AcDbLine
 10
6049.673057123658
 20
4884.904841276732
 30
0.0
 11
2961.831708135236
 21
4884.904841277102
 31
0.0
  0
LINE
  5
182E1
330
747D
100
AcDbEntity
  8
細線
 48
50.0
100
AcDbLine
 10
6049.673057123658
 20
4792.704841276732
 30
0.0
 11
2970.067738660066
 21
4792.7048412771
 31
0.0
  0
LINE
  5
182E2
330
747D
100
AcDbEntity
  8
細線
 48
50.0
100
AcDbLine
 10
2992.673057123637
 20
4912.931598713265
 30
0.0
 11
2992.673057123637
 21
4771.931598713265
 31
0.0
  0
ARC
  5
182E3
330
747D
100
AcDbEntity
  8
部品1
100
AcDbCircle
 10
2967.081478230066
 20
4905.931598713265
 30
0.0
 40
7.0
100
AcDbArc
 50
90.0
 51
183.247342790341
  0
ARC
  5
182E4
330
747D
100
AcDbEntity
  8
部品1
100
AcDbCircle
 10
2980.2968016911
 20
4778.931598713266
 30
0.0
 40
7.0
100
AcDbArc
 50
183.247342790341
 51
270.0
  0
ARC
  5
182E5
330
747D
100
AcDbEntity
  8
部品1
 48
50.0
100
AcDbCircle
 10
2961.924991480425
 20
4885.598597874952
 30
0.0
 40
0.7
100
AcDbArc
 50
183.2473427903929
 51
262.3418727926361
  0
ARC
  5
182E6
330
747D
100
AcDbEntity
  8
部品1
 48
50.0
100
AcDbCircle
 10
2970.161022005264
 20
4793.398597874948
 30
0.0
 40
0.7
100
AcDbArc
 50
183.2473427903019
 51
262.3418727926361
  0
ARC
  5
182E7
330
747D
100
AcDbEntity
  8
部品1
 48
50.0
100
AcDbCircle
 10
2969.667952896704
 20
4789.731598713264
 30
0.0
 40
3.0
100
AcDbArc
 50
3.247342790340932
 51
82.34187279263609
  0
ARC
  5
182E8
330
747D
100
AcDbEntity
  8
部品1
 48
50.0
100
AcDbCircle
 10
2961.43192237186
 20
4881.931598713267
 30
0.0
 40
3.0
100
AcDbArc
 50
3.247342790340932
 51
82.34187279263609
  0
LINE
  5
182E9
330
747D
100
AcDbEntity
  8
部品1
100
AcDbLine
 10
2964.427105268045
 20
4882.101538168369
 30
0.0
 11
2969.462145996157
 21
4793.358945335425
 31
0.0
  0
LINE
  5
182EA
330
747D
100
AcDbEntity
  8
部品1
100
AcDbLine
 10
2972.663135792893
 20
4789.901538168368
 30
0.0
 11
2973.308041600001
 21
4778.535073318027
 31
0.0
  0
LINE
  5
182EB
330
747D
100
AcDbEntity
  8
部品1
100
AcDbLine
 10
2960.092718138967
 20
4905.535073318026
 30
0.0
 11
2961.226115471316
 21
4885.558945335426
 31
0.0
  0
LWPOLYLINE
  5
182EC
330
747D
100
AcDbEntity
  8
部品1
100
AcDbPolyline
 90
        4
 70
     1
 43
0.0
 10
5677.937724009439
 20
1787.931598713261
 10
5677.937724009439
 20
1548.039277167729
 10
6441.408390237878
 20
1548.039277167729
 10
6441.408390237878
 20
1787.931598713261
  0
TEXT
  5
182ED
330
747D
100
AcDbEntity
  8
部品1
100
AcDbText
 10
5768.463127747392
 20
1595.038069494738
 30
0.0
 40
135.0
  1
正面図
  7
STYLE2
100
AcDbText
  0
TEXT
  5
182EE
330
747D
100
AcDbEntity
  8
部品1
100
AcDbText
 10
5767.857333838477
 20
5838.697580928881
 30
0.0
 40
135.0
  1
平面図
  7
STYLE2
100
AcDbText
  0
LWPOLYLINE
  5
182EF
330
747D
100
AcDbEntity
  8
部品1
100
AcDbPolyline
 90
        4
 70
     1
 43
0.0
 10
5677.937724009439
 20
6031.591110147405
 10
5677.937724009439
 20
5791.698788601872
 10
6441.408390237881
 20
5791.698788601872
 10
6441.408390237881
 20
6031.591110147405
  0
TEXT
  5
182F0
330
747D
100
AcDbEntity
  8
部品1
100
AcDbText
 10
13060.71971637544
 20
1595.038069494738
 30
0.0
 40
135.0
  1
側面図
  7
STYLE2
100
AcDbText
  0
LWPOLYLINE
  5
182F1
330
747D
100
AcDbEntity
  8
部品1
100
AcDbPolyline
 90
        4
 70
     1
 43
0.0
 10
12971.27361495183
 20
1787.931598713261
 10
12971.27361495183
 20
1548.039277167729
 10
13734.74428118027
 20
1548.039277167729
 10
13734.74428118027
 20
1787.931598713261
  0
LINE
  5
182F2
330
747D
100
AcDbEntity
  8
部品1
100
AcDbLine
 10
14403.00894806604
 20
4677.931598713263
 30
0.0
 11
14403.00894806604
 21
2587.931598713265
 31
0.0
  0
LINE
  5
182F3
330
747D
100
AcDbEntity
  8
細線
 48
50.0
100
AcDbLine
 10
14325.50894806605
 20
4677.931598713261
 30
0.0
 11
14325.50894806605
 21
2587.931598713263
 31
0.0
  0
LINE
  5
182F4
330
747D
100
AcDbEntity
  8
細線
 48
50.0
100
AcDbLine
 10
14340.50894806605
 20
4677.931598713261
 30
0.0
 11
14340.50894806605
 21
2587.931598713263
 31
0.0
  0
LINE
  5
182F5
330
747D
100
AcDbEntity
  8
細線
 48
50.0
100
AcDbLine
 10
14200.50894806605
 20
4677.931598713261
 30
0.0
 11
14200.50894806605
 21
2587.931598713263
 31
0.0
  0
LINE
  5
182F6
330
747D
100
AcDbEntity
  8
細線
 48
50.0
100
AcDbLine
 10
14185.50894806605
 20
4677.931598713261
 30
0.0
 11
14185.50894806605
 21
2587.931598713263
 31
0.0
  0
LINE
  5
182F7
330
747D
100
AcDbEntity
  8
細線
 48
50.0
100
AcDbLine
 10
14045.50894806606
 20
4677.931598713261
 30
0.0
 11
14045.50894806606
 21
2587.931598713263
 31
0.0
  0
LINE
  5
182F8
330
747D
100
AcDbEntity
  8
細線
 48
50.0
100
AcDbLine
 10
14060.50894806605
 20
4677.931598713261
 30
0.0
 11
14060.50894806605
 21
2587.931598713263
 31
0.0
  0
LINE
  5
182F9
330
747D
100
AcDbEntity
  8
部品1
100
AcDbLine
 10
13983.00894806605
 20
4677.931598713261
 30
0.0
 11
13983.00894806605
 21
2587.931598713263
 31
0.0
  0
DIMENSION
  5
182FA
330
747D
100
AcDbEntity
  8
寸法
 48
50.0
100
AcDbDimension
  2
*D27
 10
11207.40054129767
 20
4787.276857586593
 30
0.0
 11
11218.06601655659
 21
5158.123520828293
 31
0.0
 70
   161
 71
     5
 42
141.0000000000009
  3
INABA_S40G
100
AcDbAlignedDimension
 13
11787.40496822463
 23
4911.654347547941
 33
0.0
 14
11783.35151266801
 24
4770.712623782229
 34
0.0
1001
ACAD
1000
DSTYLE
1002
{
1070
   174
1070
     0
1070
   272
1070
     1
1070
   288
1070
     0
1070
   341
1005
0
1002
}
  0
LINE
  5
182FB
330
747D
100
AcDbEntity
  8
細線
 48
50.0
100
AcDbLine
 10
14745.50894806605
 20
4677.931598713263
 30
0.0
 11
14745.50894806605
 21
2587.931598713263
 31
0.0
  0
LINE
  5
182FC
330
747D
100
AcDbEntity
  8
細線
 48
50.0
100
AcDbLine
 10
14760.50894806605
 20
4677.931598713263
 30
0.0
 11
14760.50894806605
 21
2587.931598713263
 31
0.0
  0
LINE
  5
182FD
330
747D
100
AcDbEntity
  8
細線
 48
50.0
100
AcDbLine
 10
14620.50894806605
 20
4677.931598713263
 30
0.0
 11
14620.50894806605
 21
2587.931598713263
 31
0.0
  0
LINE
  5
182FE
330
747D
100
AcDbEntity
  8
細線
 48
50.0
100
AcDbLine
 10
14605.50894806605
 20
4677.931598713263
 30
0.0
 11
14605.50894806605
 21
2587.931598713263
 31
0.0
  0
LINE
  5
182FF
330
747D
100
AcDbEntity
  8
細線
 48
50.0
100
AcDbLine
 10
14465.50894806605
 20
4677.931598713263
 30
0.0
 11
14465.50894806605
 21
2587.931598713263
 31
0.0
  0
LINE
  5
18300
330
747D
100
AcDbEntity
  8
細線
 48
50.0
100
AcDbLine
 10
14480.50894806605
 20
4677.931598713263
 30
0.0
 11
14480.50894806605
 21
2587.931598713263
 31
0.0
  0
LINE
  5
18301
330
747D
100
AcDbEntity
  8
部品1
100
AcDbLine
 10
13143.00894806605
 20
4677.931598713261
 30
0.0
 11
13143.00894806605
 21
2587.931598713261
 31
0.0
  0
LINE
  5
18302
330
747D
100
AcDbEntity
  8
細線
 48
50.0
100
AcDbLine
 10
12800.50894806606
 20
4677.931598713261
 30
0.0
 11
12800.50894806606
 21
2587.931598713261
 31
0.0
  0
LINE
  5
18303
330
747D
100
AcDbEntity
  8
細線
 48
50.0
100
AcDbLine
 10
12785.50894806605
 20
4677.931598713261
 30
0.0
 11
12785.50894806606
 21
2587.931598713261
 31
0.0
  0
LINE
  5
18304
330
747D
100
AcDbEntity
  8
細線
 48
50.0
100
AcDbLine
 10
12925.50894806606
 20
4677.931598713261
 30
0.0
 11
12925.50894806606
 21
2587.931598713261
 31
0.0
  0
LINE
  5
18305
330
747D
100
AcDbEntity
  8
細線
 48
50.0
100
AcDbLine
 10
12940.50894806606
 20
4677.931598713261
 30
0.0
 11
12940.50894806606
 21
2587.931598713261
 31
0.0
  0
LINE
  5
18306
330
747D
100
AcDbEntity
  8
細線
 48
50.0
100
AcDbLine
 10
13080.50894806606
 20
4677.931598713261
 30
0.0
 11
13080.50894806606
 21
2587.931598713261
 31
0.0
  0
LINE
  5
18307
330
747D
100
AcDbEntity
  8
細線
 48
50.0
100
AcDbLine
 10
13065.50894806606
 20
4677.931598713261
 30
0.0
 11
13065.50894806606
 21
2587.931598713261
 31
0.0
  0
LINE
  5
18308
330
747D
100
AcDbEntity
  8
部品1
100
AcDbLine
 10
12723.00894806605
 20
4677.931598713261
 30
0.0
 11
12723.00894806605
 21
2587.931598713261
 31
0.0
  0
DIMENSION
  5
18309
330
747D
100
AcDbEntity
  8
寸法
 48
50.0
100
AcDbDimension
  2
*D28
 10
14958.00894806605
 20
5311.589052292568
 30
0.0
 11
15164.05619216055
 21
5311.589052292568
 31
0.0
 70
   160
 71
     5
 42
80.0
  3
INABA_S40G
100
AcDbAlignedDimension
 13
14878.00894806605
 23
4859.742278324916
 33
0.0
 14
14958.00894806605
 24
4857.931598713265
 34
0.0
100
AcDbRotatedDimension
1001
ACAD
1000
DSTYLE
1002
{
1070
   174
1070
     0
1070
   272
1070
     1
1070
   288
1070
     0
1070
   341
1005
0
1002
}
  0
LINE
  5
1830A
330
747D
100
AcDbEntity
  8
細線
 48
50.0
100
AcDbLine
 10
11960.50894806605
 20
4677.931598713261
 30
0.0
 11
11960.50894806605
 21
2587.931598713261
 31
0.0
  0
LINE
  5
1830B
330
747D
100
AcDbEntity
  8
細線
 48
50.0
100
AcDbLine
 10
11945.50894806605
 20
4677.931598713261
 30
0.0
 11
11945.50894806605
 21
2587.931598713261
 31
0.0
  0
LINE
  5
1830C
330
747D
100
AcDbEntity
  8
細線
 48
50.0
100
AcDbLine
 10
12085.50894806605
 20
4677.931598713261
 30
0.0
 11
12085.50894806605
 21
2587.931598713261
 31
0.0
  0
LINE
  5
1830D
330
747D
100
AcDbEntity
  8
細線
 48
50.0
100
AcDbLine
 10
12100.50894806605
 20
4677.931598713261
 30
0.0
 11
12100.50894806605
 21
2587.931598713261
 31
0.0
  0
LINE
  5
1830E
330
747D
100
AcDbEntity
  8
細線
 48
50.0
100
AcDbLine
 10
12240.50894806606
 20
4677.931598713261
 30
0.0
 11
12240.50894806606
 21
2587.931598713261
 31
0.0
  0
LINE
  5
1830F
330
747D
100
AcDbEntity
  8
細線
 48
50.0
100
AcDbLine
 10
12225.50894806605
 20
4677.931598713261
 30
0.0
 11
12225.50894806605
 21
2587.931598713261
 31
0.0
  0
LINE
  5
18310
330
747D
100
AcDbEntity
  8
細線
 48
50.0
100
AcDbLine
 10
12645.50894806605
 20
4677.931598713261
 30
0.0
 11
12645.50894806605
 21
2587.931598713261
 31
0.0
  0
LINE
  5
18311
330
747D
100
AcDbEntity
  8
細線
 48
50.0
100
AcDbLine
 10
12660.50894806606
 20
4677.931598713261
 30
0.0
 11
12660.50894806606
 21
2587.931598713261
 31
0.0
  0
LINE
  5
18312
330
747D
100
AcDbEntity
  8
細線
 48
50.0
100
AcDbLine
 10
12520.50894806606
 20
4677.931598713261
 30
0.0
 11
12520.50894806606
 21
2587.931598713261
 31
0.0
  0
LINE
  5
18313
330
747D
100
AcDbEntity
  8
細線
 48
50.0
100
AcDbLine
 10
12505.50894806605
 20
4677.931598713261
 30
0.0
 11
12505.50894806605
 21
2587.931598713261
 31
0.0
  0
LINE
  5
18314
330
747D
100
AcDbEntity
  8
細線
 48
50.0
100
AcDbLine
 10
12365.50894806605
 20
4677.931598713261
 30
0.0
 11
12365.50894806605
 21
2587.931598713261
 31
0.0
  0
LINE
  5
18315
330
747D
100
AcDbEntity
  8
細線
 48
50.0
100
AcDbLine
 10
12380.50894806606
 20
4677.931598713261
 30
0.0
 11
12380.50894806606
 21
2587.931598713261
 31
0.0
  0
LINE
  5
18316
330
747D
100
AcDbEntity
  8
部品1
100
AcDbLine
 10
11883.00894806606
 20
2537.931598713262
 30
0.0
 11
14878.00894806605
 21
2537.931598713262
 31
0.0
  0
DIMENSION
  5
18317
330
747D
100
AcDbEntity
  8
寸法
 48
50.0
100
AcDbDimension
  2
*D29
 10
11768.00894806605
 20
5541.702645078843
 30
0.0
 11
13363.00894806605
 21
5541.702645078843
 31
0.0
 70
   160
 71
     5
 42
3189.999999999996
  3
INABA_S40G
100
AcDbAlignedDimension
 13
14958.00894806605
 23
4857.931598713263
 33
0.0
 14
11768.00894806605
 24
4912.931598713266
 34
0.0
100
AcDbRotatedDimension
1001
ACAD
1000
DSTYLE
1002
{
1070
   174
1070
     0
1070
   272
1070
     1
1070
   288
1070
     0
1070
   341
1005
0
1002
}
  0
DIMENSION
  5
18318
330
747D
100
AcDbEntity
  8
寸法
 48
50.0
100
AcDbDimension
  2
*D30
 10
11768.00894806605
 20
5311.589052292566
 30
0.0
 11
11458.37115279046
 21
5311.589052292566
 31
0.0
 70
   160
 71
     5
 42
60.0
  3
INABA_S40G
100
AcDbAlignedDimension
 13
11828.00894806605
 23
4908.933216836238
 33
0.0
 14
11768.00894806605
 24
4912.931598713266
 34
0.0
100
AcDbRotatedDimension
1001
ACAD
1000
DSTYLE
1002
{
1070
   174
1070
     0
1070
   272
1070
     1
1070
   288
1070
     0
1070
   341
1005
0
1002
}
  0
DIMENSION
  5
18319
330
747D
100
AcDbEntity
  8
寸法
 48
50.0
100
AcDbDimension
  2
*D31
 10
11828.00894806605
 20
5311.589052292568
 30
0.0
 11
13353.00894806605
 21
5311.589052292568
 31
0.0
 70
   160
  1
柱外寸法<>
 71
     5
 42
3049.999999999997
  3
INABA_S40G
100
AcDbAlignedDimension
 13
14878.00894806605
 23
4859.742278324916
 33
0.0
 14
11828.00894806605
 24
4908.933216836238
 34
0.0
100
AcDbRotatedDimension
1001
ACAD
1000
DSTYLE
1002
{
1070
   174
1070
     0
1070
   272
1070
     1
1070
   288
1070
     0
1070
   341
1005
0
1002
}
  0
LINE
  5
1831A
330
747D
100
AcDbEntity
  8
部品1
100
AcDbLine
 10
14823.00894806605
 20
4677.931598713263
 30
0.0
 11
14823.00894806605
 21
2587.931598713263
 31
0.0
  0
LINE
  5
1831B
330
747D
100
AcDbEntity
  8
部品1
100
AcDbLine
 10
14878.00894806605
 20
4732.361626494382
 30
0.0
 11
14878.00894806605
 21
2437.931598713263
 31
0.0
  0
LINE
  5
1831C
330
747D
100
AcDbEntity
  8
部品1
100
AcDbLine
 10
12303.00894806606
 20
4677.931598713261
 30
0.0
 11
12303.00894806606
 21
2587.931598713261
 31
0.0
  0
DIMENSION
  5
1831D
330
747D
100
AcDbEntity
  8
寸法
100
AcDbDimension
  2
*D32
 10
10984.25881888279
 20
2537.931598713262
 30
0.0
 11
10984.25881888279
 21
2231.884354618772
 31
0.0
 70
   160
 71
     5
 42
50.0
  3
INABA_S40G
100
AcDbAlignedDimension
 13
11828.00894806605
 23
2587.931598713261
 33
0.0
 14
11773.00894806605
 24
2537.931598713262
 34
0.0
 50
90.0
100
AcDbRotatedDimension
1001
ACAD
1000
DSTYLE
1002
{
1070
   174
1070
     0
1070
   272
1070
     1
1070
   288
1070
     0
1070
   341
1005
0
1002
}
  0
LINE
  5
1831F
330
747D
100
AcDbEntity
  8
部品1
100
AcDbLine
 10
11828.00894806605
 20
4770.07403664214
 30
0.0
 11
11828.00894806605
 21
2437.931598713261
 31
0.0
  0
LINE
  5
18320
330
747D
100
AcDbEntity
  8
部品1
100
AcDbLine
 10
11883.00894806606
 20
4677.931598713261
 30
0.0
 11
11883.00894806606
 21
2437.931598713261
 31
0.0
  0
LINE
  5
18321
330
747D
100
AcDbEntity
  8
部品1
100
AcDbLine
 10
11883.00894806606
 20
2587.931598713261
 30
0.0
 11
14878.00894806605
 21
2587.931598713263
 31
0.0
  0
LINE
  5
18322
330
747D
100
AcDbEntity
  8
部品1
100
AcDbLine
 10
11828.00894806605
 20
4677.931598713261
 30
0.0
 11
14878.00894806605
 21
4677.931598713261
 31
0.0
  0
LINE
  5
18323
330
747D
100
AcDbEntity
  8
部品1
100
AcDbLine
 10
14823.00894806605
 20
4677.931598713264
 30
0.0
 11
14823.00894806605
 21
2587.931598713265
 31
0.0
  0
LINE
  5
18324
330
747D
100
AcDbEntity
  8
細線
 48
50.0
100
AcDbLine
 10
13485.50894806606
 20
4677.931598713261
 30
0.0
 11
13485.50894806606
 21
2587.931598713261
 31
0.0
  0
LINE
  5
18325
330
747D
100
AcDbEntity
  8
細線
 48
50.0
100
AcDbLine
 10
13500.50894806606
 20
4677.931598713261
 30
0.0
 11
13500.50894806606
 21
2587.931598713261
 31
0.0
  0
LINE
  5
18326
330
747D
100
AcDbEntity
  8
細線
 48
50.0
100
AcDbLine
 10
13360.50894806606
 20
4677.931598713261
 30
0.0
 11
13360.50894806606
 21
2587.931598713261
 31
0.0
  0
LINE
  5
18327
330
747D
100
AcDbEntity
  8
細線
 48
50.0
100
AcDbLine
 10
13345.50894806606
 20
4677.931598713261
 30
0.0
 11
13345.50894806606
 21
2587.931598713261
 31
0.0
  0
LINE
  5
18328
330
747D
100
AcDbEntity
  8
細線
 48
50.0
100
AcDbLine
 10
13205.50894806606
 20
4677.931598713261
 30
0.0
 11
13205.50894806606
 21
2587.931598713261
 31
0.0
  0
LINE
  5
18329
330
747D
100
AcDbEntity
  8
細線
 48
50.0
100
AcDbLine
 10
13220.50894806606
 20
4677.931598713261
 30
0.0
 11
13220.50894806606
 21
2587.931598713261
 31
0.0
  0
TEXT
  5
1832A
330
747D
100
AcDbEntity
  8
部品1
 48
50.0
100
AcDbText
 10
13697.87809212142
 20
4935.200691651568
 30
0.0
 40
120.0
  1
32
 50
90.0
  7
STYLE1
100
AcDbText
  0
TEXT
  5
1832B
330
747D
100
AcDbEntity
  8
部品1
 48
50.0
100
AcDbText
 10
13220.24506945633
 20
5072.701949869851
 30
0.0
 40
120.0
  1
1000
  7
STYLE1
100
AcDbText
  0
LINE
  5
1832C
330
747D
100
AcDbEntity
  8
部品1
 48
50.0
100
AcDbLine
 10
13531.97723423261
 20
5036.817927717418
 30
0.0
 11
13531.97723423261
 21
5020.617927717418
 31
0.0
  0
LINE
  5
1832D
330
747D
100
AcDbEntity
  8
部品1
 48
50.0
100
AcDbLine
 10
13231.97723423261
 20
5036.817927717418
 30
0.0
 11
13531.97723423261
 21
5036.817927717418
 31
0.0
  0
LINE
  5
1832E
330
747D
100
AcDbEntity
  8
部品1
100
AcDbLine
 10
11775.55393442302
 20
4911.649334047528
 30
0.0
 11
14950.62082492752
 21
4856.5723964224
 31
0.0
  0
LINE
  5
1832F
330
747D
100
AcDbEntity
  8
部品1
100
AcDbLine
 10
11783.35151266801
 20
4770.712623782229
 30
0.0
 11
14932.6726486059
 21
4731.684198548022
 31
0.0
  0
LINE
  5
18330
330
747D
100
AcDbEntity
  8
細線
 48
50.0
100
AcDbLine
 10
11801.00894806606
 20
4910.331275088666
 30
0.0
 11
11795.71984651055
 21
4770.245642461311
 31
0.0
  0
LINE
  5
18331
330
747D
100
AcDbEntity
  8
細線
 48
50.0
100
AcDbLine
 10
14924.97823125975
 20
4857.08502119273
 30
0.0
 11
14920.26126517806
 21
4732.152805257814
 31
0.0
  0
LINE
  5
18332
330
747D
100
AcDbEntity
  8
部品1
 48
50.0
100
AcDbLine
 10
11768.19323397916
 20
4904.525144877954
 30
0.0
 11
11768.57349375697
 21
4884.598180431543
 31
0.0
  0
LINE
  5
18333
330
747D
100
AcDbEntity
  8
部品1
 48
50.0
100
AcDbLine
 10
11771.64226586322
 20
4881.02289893807
 30
0.0
 11
11773.34616735458
 21
4791.732402231423
 31
0.0
  0
LINE
  5
18334
330
747D
100
AcDbEntity
  8
細線
 48
50.0
100
AcDbLine
 10
11769.04837116687
 20
4883.948680554623
 30
0.0
 11
14954.68435591204
 21
4828.324475913795
 31
0.0
  0
LINE
  5
18335
330
747D
100
AcDbEntity
  8
細線
 48
50.0
100
AcDbLine
 10
11773.80884640416
 20
4791.087168856759
 30
0.0
 11
14943.8125108348
 21
4751.277849882266
 31
0.0
  0
LINE
  5
18336
330
747D
100
AcDbEntity
  8
部品1
 48
50.0
100
AcDbLine
 10
11776.41493946083
 20
4788.157120737952
 30
0.0
 11
11776.61689208126
 21
4777.574085344858
 31
0.0
  0
ARC
  5
18337
330
747D
100
AcDbEntity
  8
部品1
 48
50.0
100
AcDbCircle
 10
11775.1919598075
 20
4904.658699285382
 30
0.0
 40
7.0
100
AcDbArc
 50
87.03587545283093
 51
181.0932240293156
  0
ARC
  5
18338
330
747D
100
AcDbEntity
  8
部品1
 48
50.0
100
AcDbCircle
 10
11783.6156179096
 20
4777.707639752287
 30
0.0
 40
7.0
100
AcDbArc
 50
181.0932240293156
 51
267.8377559869488
  0
ARC
  5
18339
330
747D
100
AcDbEntity
  8
部品1
100
AcDbCircle
 10
11773.4154855344
 20
4788.099883134768
 30
0.0
 40
3.0
100
AcDbArc
 50
1.093224029315636
 51
80.18775403169708
  0
ARC
  5
1833A
330
747D
100
AcDbEntity
  8
部品1
100
AcDbCircle
 10
11768.64281193679
 20
4880.965661334887
 30
0.0
 40
3.0
100
AcDbArc
 50
1.093224029315636
 51
80.18775403169708
  0
ARC
  5
1833B
330
747D
100
AcDbEntity
  8
部品1
100
AcDbCircle
 10
11769.27336633981
 20
4884.611535872284
 30
0.0
 40
0.7
100
AcDbArc
 50
181.0932240292114
 51
260.1877540314855
  0
ARC
  5
1833C
330
747D
100
AcDbEntity
  8
部品1
100
AcDbCircle
 10
11774.04603993742
 20
4791.745757672165
 30
0.0
 40
0.7
100
AcDbArc
 50
181.0932240292635
 51
260.1877540314855
  0
LINE
  5
1833D
330
747D
100
AcDbEntity
  8
部品1
 48
50.0
100
AcDbLine
 10
14957.22285087676
 20
4848.872750987481
 30
0.0
 11
14955.19222968579
 21
4828.9277097297
 31
0.0
  0
LINE
  5
1833E
330
747D
100
AcDbEntity
  8
部品1
 48
50.0
100
AcDbLine
 10
14951.8396632013
 20
4825.617075656792
 30
0.0
 11
14944.33288393647
 21
4751.884454911779
 31
0.0
  0
LINE
  5
1833F
330
747D
100
AcDbEntity
  8
部品1
 48
50.0
100
AcDbLine
 10
14940.98031745199
 20
4748.573820838867
 30
0.0
 11
14939.90075441224
 21
4737.970203845309
 31
0.0
  0
ARC
  5
18340
330
747D
100
AcDbEntity
  8
部品1
 48
50.0
100
AcDbCircle
 10
14950.258850312
 20
4849.581761660255
 30
0.0
 40
7.0
100
AcDbArc
 50
354.1866997665565
 51
87.03587545283093
  0
ARC
  5
18341
330
747D
100
AcDbEntity
  8
部品1
 48
50.0
100
AcDbCircle
 10
14932.93675384749
 20
4738.679214518082
 30
0.0
 40
7.0
100
AcDbArc
 50
267.8377559869488
 51
354.1866997665565
  0
ARC
  5
18342
330
747D
100
AcDbEntity
  8
部品1
100
AcDbCircle
 10
14943.96488912259
 20
4748.269959121964
 30
0.0
 40
3.0
100
AcDbArc
 50
95.0921697642102
 51
174.1866997665564
  0
ARC
  5
18343
330
747D
100
AcDbEntity
  8
部品1
100
AcDbCircle
 10
14954.82423487192
 20
4825.313213939889
 30
0.0
 40
3.0
100
AcDbArc
 50
95.0921697642102
 51
174.1866997665564
  0
ARC
  5
18344
330
747D
100
AcDbEntity
  8
部品1
100
AcDbCircle
 10
14954.49582962932
 20
4828.998610796978
 30
0.0
 40
0.7
100
AcDbArc
 50
275.0921697642102
 51
354.1866997665565
  0
ARC
  5
18345
330
747D
100
AcDbEntity
  8
部品1
100
AcDbCircle
 10
14943.63648387999
 20
4751.955355979054
 30
0.0
 40
0.7
100
AcDbArc
 50
275.0921697642102
 51
354.186699766712
  0
LINE
  5
18346
330
747D
100
AcDbEntity
  8
部品1
100
AcDbLine
 10
13206.52222058957
 20
5038.13598667628
 30
0.0
 11
13531.97723423261
 21
5020.617927717418
 31
0.0
  0
LINE
  5
18347
330
747D
100
AcDbEntity
  8
部品1
100
AcDbLine
 10
13563.00894806605
 20
4677.931598713261
 30
0.0
 11
13563.00894806605
 21
2587.931598713263
 31
0.0
  0
LINE
  5
18348
330
747D
100
AcDbEntity
  8
細線
 48
50.0
100
AcDbLine
 10
13640.50894806605
 20
4677.931598713261
 30
0.0
 11
13640.50894806605
 21
2587.931598713263
 31
0.0
  0
LINE
  5
18349
330
747D
100
AcDbEntity
  8
細線
 48
50.0
100
AcDbLine
 10
13625.50894806606
 20
4677.931598713261
 30
0.0
 11
13625.50894806606
 21
2587.931598713263
 31
0.0
  0
LINE
  5
1834A
330
747D
100
AcDbEntity
  8
細線
 48
50.0
100
AcDbLine
 10
13765.50894806606
 20
4677.931598713261
 30
0.0
 11
13765.50894806606
 21
2587.931598713263
 31
0.0
  0
LINE
  5
1834B
330
747D
100
AcDbEntity
  8
細線
 48
50.0
100
AcDbLine
 10
13780.50894806605
 20
4677.931598713261
 30
0.0
 11
13780.50894806605
 21
2587.931598713263
 31
0.0
  0
LINE
  5
1834C
330
747D
100
AcDbEntity
  8
細線
 48
50.0
100
AcDbLine
 10
13920.50894806605
 20
4677.931598713261
 30
0.0
 11
13920.50894806605
 21
2587.931598713263
 31
0.0
  0
LINE
  5
1834D
330
747D
100
AcDbEntity
  8
細線
 48
50.0
100
AcDbLine
 10
13905.50894806606
 20
4677.931598713261
 30
0.0
 11
13905.50894806606
 21
2587.931598713263
 31
0.0
  0
DIMENSION
  5
1834E
330
747D
100
AcDbEntity
  8
寸法
100
AcDbDimension
  2
*D33
 10
15582.93610603818
 20
4857.931598713263
 30
0.0
 11
15482.92429501455
 21
3697.931598713266
 31
0.0
 70
    32
 71
     5
 42
2320.000000000001
  3
INABA_S40G
100
AcDbAlignedDimension
 13
14878.00894806605
 23
2537.931598713263
 33
0.0
 14
14958.00894806605
 24
4857.931598713263
 34
0.0
 50
90.0
100
AcDbRotatedDimension
1001
ACAD
1000
DSTYLE
1002
{
1070
   174
1070
     0
1070
   272
1070
     1
1070
   288
1070
     0
1070
   341
1005
0
1002
}
  0
DIMENSION
  5
1834F
330
747D
100
AcDbEntity
  8
寸法
100
AcDbDimension
  2
*D34
 10
10684.2588188828
 20
4912.931598713261
 30
0.0
 11
10584.24700785917
 21
3725.431598713262
 31
0.0
 70
    32
 71
     5
 42
2375.000000000005
  3
INABA_S40G
100
AcDbAlignedDimension
 13
11828.00894806605
 23
2537.931598713257
 33
0.0
 14
11768.00894806605
 24
4912.931598713261
 34
0.0
 50
90.0
100
AcDbRotatedDimension
1001
ACAD
1000
DSTYLE
1002
{
1070
   174
1070
     0
1070
   272
1070
     1
1070
   288
1070
     0
1070
   341
1005
0
1002
}
  0
DIMENSION
  5
18350
330
747D
100
AcDbEntity
  8
寸法
100
AcDbDimension
  2
*D35
 10
10984.25881888279
 20
2587.931598713257
 30
0.0
 11
10884.24700785917
 21
3632.931598713259
 31
0.0
 70
    32
 71
     5
 42
2090.000000000001
  3
INABA_S40G
100
AcDbAlignedDimension
 13
11828.00894806605
 23
4677.931598713257
 33
0.0
 14
11828.00894806605
 24
2587.931598713257
 34
0.0
 50
90.0
100
AcDbRotatedDimension
1001
ACAD
1000
DSTYLE
1002
{
1070
   174
1070
     0
1070
   272
1070
     1
1070
   288
1070
     0
1070
   341
1005
0
1002
}
  0
LINE
  5
18355
330
747D
100
AcDbEntity
  8
破線
 48
5.0
100
AcDbLine
 10
11828.00894806606
 20
2437.931598713261
 30
0.0
 11
11828.00894806606
 21
2187.931598713261
 31
0.0
  0
LINE
  5
18356
330
747D
100
AcDbEntity
  8
破線
 48
5.0
100
AcDbLine
 10
11883.00894806606
 20
2437.931598713261
 30
0.0
 11
11883.00894806606
 21
2187.931598713261
 31
0.0
  0
LINE
  5
18357
330
747D
100
AcDbEntity
  8
破線
 48
5.0
100
AcDbLine
 10
11828.00894806606
 20
2187.931598713261
 30
0.0
 11
11883.00894806606
 21
2187.931598713261
 31
0.0
  0
LINE
  5
183E1
330
747D
100
AcDbEntity
  8
部品1
100
AcDbLine
 10
6114.673057123656
 20
2537.931598713262
 30
0.0
 11
9054.673057123656
 21
2537.931598713261
 31
0.0
  0
LINE
  5
183E2
330
747D
100
AcDbEntity
  8
部品1
100
AcDbLine
 10
6114.673057123656
 20
2587.931598713262
 30
0.0
 11
9054.673057123656
 21
2587.931598713261
 31
0.0
  0
LINE
  5
183E3
330
747D
100
AcDbEntity
  8
部品1
100
AcDbLine
 10
3064.673057123655
 20
2587.931598713262
 30
0.0
 11
6004.673057123655
 21
2587.931598713262
 31
0.0
  0
LINE
  5
183F2
330
747D
100
AcDbEntity
  8
細線
100
AcDbLine
 10
5956.673057123657
 20
2597.931598713262
 30
0.0
 11
3112.673057123652
 21
2597.931598713262
 31
0.0
  0
LINE
  5
18423
330
747D
100
AcDbEntity
  8
部品1
100
AcDbLine
 10
6114.673057123656
 20
4512.931598713261
 30
0.0
 11
9109.673057123655
 21
4512.931598713262
 31
0.0
  0
LINE
  5
18424
330
747D
100
AcDbEntity
  8
部品1
100
AcDbLine
 10
6114.673057123656
 20
4512.931598713262
 30
0.0
 11
6114.673057123655
 21
2437.931598713261
 31
0.0
  0
LINE
  5
18426
330
747D
100
AcDbEntity
  8
部品1
100
AcDbLine
 10
6162.673057123657
 20
4512.931598713261
 30
0.0
 11
6162.673057123657
 21
2587.931598713262
 31
0.0
  0
LINE
  5
18429
330
747D
100
AcDbEntity
  8
部品1
100
AcDbLine
 10
6004.673057123656
 20
4512.931598713262
 30
0.0
 11
6004.673057123655
 21
2437.931598713261
 31
0.0
  0
LINE
  5
1842A
330
747D
100
AcDbEntity
  8
部品1
100
AcDbLine
 10
5956.673057123659
 20
4512.931598713262
 30
0.0
 11
5956.673057123655
 21
2587.931598713262
 31
0.0
  0
CIRCLE
  5
1842B
330
747D
100
AcDbEntity
  8
細線
 48
50.0
100
AcDbCircle
 10
4534.673057123654
 20
3475.431598713262
 30
0.0
 40
18.0
  0
ARC
  5
1842C
330
747D
100
AcDbEntity
  8
細線
 48
50.0
100
AcDbCircle
 10
4834.673057123655
 20
3150.431598713261
 30
0.0
 40
15.0
100
AcDbArc
 50
270.0
 51
90.0
  0
ARC
  5
1842D
330
747D
100
AcDbEntity
  8
細線
 48
50.0
100
AcDbCircle
 10
4734.673057123655
 20
3150.431598713261
 30
0.0
 40
15.0
100
AcDbArc
 50
90.0
 51
270.0
  0
LINE
  5
1842E
330
747D
100
AcDbEntity
  8
細線
 48
50.0
100
AcDbLine
 10
4734.673057123655
 20
3165.431598713261
 30
0.0
 11
4834.673057123655
 21
3165.431598713261
 31
0.0
  0
LINE
  5
1842F
330
747D
100
AcDbEntity
  8
細線
 48
50.0
100
AcDbLine
 10
4834.673057123655
 20
3135.431598713262
 30
0.0
 11
4734.673057123655
 21
3135.431598713262
 31
0.0
  0
ARC
  5
18430
330
747D
100
AcDbEntity
  8
細線
 48
50.0
100
AcDbCircle
 10
4334.673057123654
 20
3150.431598713261
 30
0.0
 40
15.0
100
AcDbArc
 50
270.0
 51
90.0
  0
ARC
  5
18431
330
747D
100
AcDbEntity
  8
細線
 48
50.0
100
AcDbCircle
 10
4234.673057123655
 20
3150.431598713261
 30
0.0
 40
15.0
100
AcDbArc
 50
90.0
 51
270.0
  0
LINE
  5
18432
330
747D
100
AcDbEntity
  8
細線
100
AcDbLine
 10
3112.673057123655
 20
4222.931598713262
 30
0.0
 11
5956.673057123655
 21
4222.931598713262
 31
0.0
  0
LINE
  5
18433
330
747D
100
AcDbEntity
  8
細線
100
AcDbLine
 10
3112.673057123655
 20
4287.931598713261
 30
0.0
 11
5956.673057123655
 21
4287.931598713261
 31
0.0
  0
LINE
  5
18434
330
747D
100
AcDbEntity
  8
細線
100
AcDbLine
 10
3112.673057123655
 20
4352.931598713261
 30
0.0
 11
5956.673057123655
 21
4352.931598713261
 31
0.0
  0
LINE
  5
18435
330
747D
100
AcDbEntity
  8
細線
100
AcDbLine
 10
3112.673057123655
 20
3832.931598713262
 30
0.0
 11
5956.673057123655
 21
3832.931598713262
 31
0.0
  0
LINE
  5
18436
330
747D
100
AcDbEntity
  8
細線
100
AcDbLine
 10
3112.673057123655
 20
3897.931598713262
 30
0.0
 11
5956.673057123655
 21
3897.931598713262
 31
0.0
  0
LINE
  5
18437
330
747D
100
AcDbEntity
  8
細線
100
AcDbLine
 10
3112.673057123655
 20
3962.931598713261
 30
0.0
 11
5956.673057123655
 21
3962.931598713261
 31
0.0
  0
LINE
  5
18438
330
747D
100
AcDbEntity
  8
細線
100
AcDbLine
 10
3112.673057123655
 20
4027.931598713261
 30
0.0
 11
5956.673057123655
 21
4027.931598713261
 31
0.0
  0
LINE
  5
18439
330
747D
100
AcDbEntity
  8
細線
100
AcDbLine
 10
3112.673057123655
 20
4092.931598713261
 30
0.0
 11
5956.673057123655
 21
4092.931598713261
 31
0.0
  0
LINE
  5
1843A
330
747D
100
AcDbEntity
  8
細線
100
AcDbLine
 10
3112.673057123655
 20
4157.931598713261
 30
0.0
 11
5956.673057123655
 21
4157.931598713261
 31
0.0
  0
LINE
  5
1843B
330
747D
100
AcDbEntity
  8
細線
100
AcDbLine
 10
3112.673057123655
 20
3182.931598713262
 30
0.0
 11
5956.673057123655
 21
3182.931598713262
 31
0.0
  0
LINE
  5
1843C
330
747D
100
AcDbEntity
  8
細線
100
AcDbLine
 10
3112.673057123655
 20
3247.931598713261
 30
0.0
 11
5956.673057123655
 21
3247.931598713261
 31
0.0
  0
LINE
  5
1843D
330
747D
100
AcDbEntity
  8
細線
100
AcDbLine
 10
3112.673057123655
 20
3312.931598713261
 30
0.0
 11
5956.673057123655
 21
3312.931598713261
 31
0.0
  0
LINE
  5
1843E
330
747D
100
AcDbEntity
  8
細線
100
AcDbLine
 10
3112.673057123655
 20
3377.931598713261
 30
0.0
 11
5956.673057123655
 21
3377.931598713261
 31
0.0
  0
LINE
  5
1843F
330
747D
100
AcDbEntity
  8
細線
100
AcDbLine
 10
3112.673057123655
 20
3442.931598713261
 30
0.0
 11
5956.673057123655
 21
3442.931598713261
 31
0.0
  0
LINE
  5
18440
330
747D
100
AcDbEntity
  8
細線
100
AcDbLine
 10
3112.673057123655
 20
3507.931598713262
 30
0.0
 11
5956.673057123655
 21
3507.931598713262
 31
0.0
  0
LINE
  5
18441
330
747D
100
AcDbEntity
  8
細線
100
AcDbLine
 10
3112.673057123655
 20
3572.931598713262
 30
0.0
 11
5956.673057123655
 21
3572.931598713262
 31
0.0
  0
LINE
  5
18442
330
747D
100
AcDbEntity
  8
細線
100
AcDbLine
 10
3112.673057123655
 20
3637.931598713262
 30
0.0
 11
5956.673057123655
 21
3637.931598713262
 31
0.0
  0
LINE
  5
18443
330
747D
100
AcDbEntity
  8
細線
100
AcDbLine
 10
3112.673057123655
 20
3702.931598713262
 30
0.0
 11
5956.673057123655
 21
3702.931598713262
 31
0.0
  0
LINE
  5
18444
330
747D
100
AcDbEntity
  8
細線
100
AcDbLine
 10
3112.673057123655
 20
3767.931598713261
 30
0.0
 11
5956.673057123655
 21
3767.931598713261
 31
0.0
  0
LINE
  5
18445
330
747D
100
AcDbEntity
  8
細線
100
AcDbLine
 10
3112.673057123655
 20
4482.931598713261
 30
0.0
 11
5956.673057123655
 21
4482.931598713261
 31
0.0
  0
LINE
  5
18446
330
747D
100
AcDbEntity
  8
細線
100
AcDbLine
 10
3112.673057123655
 20
4417.931598713261
 30
0.0
 11
5956.673057123655
 21
4417.931598713261
 31
0.0
  0
LINE
  5
18447
330
747D
100
AcDbEntity
  8
細線
100
AcDbLine
 10
3112.673057123655
 20
2662.931598713262
 30
0.0
 11
5956.673057123655
 21
2662.931598713262
 31
0.0
  0
LINE
  5
18448
330
747D
100
AcDbEntity
  8
細線
100
AcDbLine
 10
3112.673057123655
 20
2727.931598713261
 30
0.0
 11
5956.673057123655
 21
2727.931598713261
 31
0.0
  0
LINE
  5
18449
330
747D
100
AcDbEntity
  8
細線
100
AcDbLine
 10
3112.673057123655
 20
2792.931598713261
 30
0.0
 11
5956.673057123655
 21
2792.931598713261
 31
0.0
  0
LINE
  5
1844A
330
747D
100
AcDbEntity
  8
細線
100
AcDbLine
 10
3112.673057123655
 20
2857.931598713261
 30
0.0
 11
5956.673057123655
 21
2857.931598713261
 31
0.0
  0
LINE
  5
1844B
330
747D
100
AcDbEntity
  8
細線
100
AcDbLine
 10
3112.673057123655
 20
2922.931598713262
 30
0.0
 11
5956.673057123655
 21
2922.931598713262
 31
0.0
  0
LINE
  5
1844C
330
747D
100
AcDbEntity
  8
細線
100
AcDbLine
 10
3112.673057123655
 20
2987.931598713262
 30
0.0
 11
5956.673057123655
 21
2987.931598713262
 31
0.0
  0
LINE
  5
1844D
330
747D
100
AcDbEntity
  8
細線
100
AcDbLine
 10
3112.673057123655
 20
3052.931598713261
 30
0.0
 11
5956.673057123655
 21
3052.931598713261
 31
0.0
  0
LINE
  5
1844E
330
747D
100
AcDbEntity
  8
細線
100
AcDbLine
 10
3112.673057123655
 20
3117.931598713262
 30
0.0
 11
5956.673057123655
 21
3117.931598713262
 31
0.0
  0
LINE
  5
1844F
330
747D
100
AcDbEntity
  8
細線
 48
50.0
100
AcDbLine
 10
4334.673057123654
 20
3135.431598713262
 30
0.0
 11
4234.673057123655
 21
3135.431598713262
 31
0.0
  0
LINE
  5
18450
330
747D
100
AcDbEntity
  8
細線
 48
50.0
100
AcDbLine
 10
4234.673057123655
 20
3165.431598713261
 30
0.0
 11
4334.673057123654
 21
3165.431598713261
 31
0.0
  0
ARC
  5
18492
330
747D
100
AcDbEntity
  8
細線
 48
50.0
100
AcDbCircle
 10
7284.673057123654
 20
3150.431598713261
 30
0.0
 40
15.0
100
AcDbArc
 50
90.0
 51
270.0
  0
ARC
  5
18493
330
747D
100
AcDbEntity
  8
細線
 48
50.0
100
AcDbCircle
 10
7384.673057123655
 20
3150.431598713261
 30
0.0
 40
15.0
100
AcDbArc
 50
270.0
 51
90.0
  0
LINE
  5
18494
330
747D
100
AcDbEntity
  8
細線
 48
50.0
100
AcDbLine
 10
7284.673057123654
 20
3165.431598713261
 30
0.0
 11
7384.673057123655
 21
3165.431598713261
 31
0.0
  0
LINE
  5
18495
330
747D
100
AcDbEntity
  8
細線
 48
50.0
100
AcDbLine
 10
7384.673057123655
 20
3135.431598713262
 30
0.0
 11
7284.673057123654
 21
3135.431598713262
 31
0.0
  0
LINE
  5
18496
330
747D
100
AcDbEntity
  8
細線
 48
50.0
100
AcDbLine
 10
7884.673057123655
 20
3135.431598713262
 30
0.0
 11
7784.673057123654
 21
3135.431598713262
 31
0.0
  0
LINE
  5
18497
330
747D
100
AcDbEntity
  8
細線
 48
50.0
100
AcDbLine
 10
7784.673057123654
 20
3165.431598713261
 30
0.0
 11
7884.673057123655
 21
3165.431598713261
 31
0.0
  0
ARC
  5
18498
330
747D
100
AcDbEntity
  8
細線
 48
50.0
100
AcDbCircle
 10
7784.673057123654
 20
3150.431598713261
 30
0.0
 40
15.0
100
AcDbArc
 50
90.0
 51
270.0
  0
ARC
  5
18499
330
747D
100
AcDbEntity
  8
細線
 48
50.0
100
AcDbCircle
 10
7884.673057123655
 20
3150.431598713261
 30
0.0
 40
15.0
100
AcDbArc
 50
270.0
 51
90.0
  0
CIRCLE
  5
1849A
330
747D
100
AcDbEntity
  8
細線
 48
50.0
100
AcDbCircle
 10
7584.673057123655
 20
3475.431598713262
 30
0.0
 40
18.0
  0
LINE
  5
1849E
330
747D
100
AcDbEntity
  8
細線
100
AcDbLine
 10
9006.673057123656
 20
2597.931598713262
 30
0.0
 11
6162.673057123651
 21
2597.931598713262
 31
0.0
  0
LINE
  5
1849F
330
747D
100
AcDbEntity
  8
細線
100
AcDbLine
 10
6162.673057123653
 20
3117.931598713262
 30
0.0
 11
9006.673057123654
 21
3117.931598713262
 31
0.0
  0
LINE
  5
184A0
330
747D
100
AcDbEntity
  8
細線
100
AcDbLine
 10
6162.673057123653
 20
3052.931598713261
 30
0.0
 11
9006.673057123654
 21
3052.931598713261
 31
0.0
  0
LINE
  5
184A1
330
747D
100
AcDbEntity
  8
細線
100
AcDbLine
 10
6162.673057123653
 20
2987.931598713262
 30
0.0
 11
9006.673057123654
 21
2987.931598713262
 31
0.0
  0
LINE
  5
184A2
330
747D
100
AcDbEntity
  8
細線
100
AcDbLine
 10
6162.673057123653
 20
2922.931598713262
 30
0.0
 11
9006.673057123654
 21
2922.931598713262
 31
0.0
  0
LINE
  5
184A3
330
747D
100
AcDbEntity
  8
細線
100
AcDbLine
 10
6162.673057123653
 20
2857.931598713261
 30
0.0
 11
9006.673057123654
 21
2857.931598713261
 31
0.0
  0
LINE
  5
184A4
330
747D
100
AcDbEntity
  8
細線
100
AcDbLine
 10
6162.673057123653
 20
2792.931598713261
 30
0.0
 11
9006.673057123654
 21
2792.931598713261
 31
0.0
  0
LINE
  5
184A5
330
747D
100
AcDbEntity
  8
細線
100
AcDbLine
 10
6162.673057123653
 20
2727.931598713261
 30
0.0
 11
9006.673057123654
 21
2727.931598713261
 31
0.0
  0
LINE
  5
184A6
330
747D
100
AcDbEntity
  8
細線
100
AcDbLine
 10
6162.673057123653
 20
2662.931598713262
 30
0.0
 11
9006.673057123654
 21
2662.931598713262
 31
0.0
  0
LINE
  5
184A7
330
747D
100
AcDbEntity
  8
細線
100
AcDbLine
 10
6162.673057123653
 20
4417.931598713261
 30
0.0
 11
9006.673057123654
 21
4417.931598713261
 31
0.0
  0
LINE
  5
184A8
330
747D
100
AcDbEntity
  8
細線
100
AcDbLine
 10
6162.673057123653
 20
4482.931598713261
 30
0.0
 11
9006.673057123654
 21
4482.931598713261
 31
0.0
  0
LINE
  5
184A9
330
747D
100
AcDbEntity
  8
細線
100
AcDbLine
 10
6162.673057123653
 20
3767.931598713261
 30
0.0
 11
9006.673057123654
 21
3767.931598713261
 31
0.0
  0
LINE
  5
184AA
330
747D
100
AcDbEntity
  8
細線
100
AcDbLine
 10
6162.673057123653
 20
3702.931598713262
 30
0.0
 11
9006.673057123654
 21
3702.931598713262
 31
0.0
  0
LINE
  5
184AB
330
747D
100
AcDbEntity
  8
細線
100
AcDbLine
 10
6162.673057123653
 20
3637.931598713262
 30
0.0
 11
9006.673057123654
 21
3637.931598713262
 31
0.0
  0
LINE
  5
184AC
330
747D
100
AcDbEntity
  8
細線
100
AcDbLine
 10
6162.673057123653
 20
3572.931598713262
 30
0.0
 11
9006.673057123654
 21
3572.931598713262
 31
0.0
  0
LINE
  5
184AD
330
747D
100
AcDbEntity
  8
細線
100
AcDbLine
 10
6162.673057123653
 20
3507.931598713262
 30
0.0
 11
9006.673057123654
 21
3507.931598713262
 31
0.0
  0
LINE
  5
184AE
330
747D
100
AcDbEntity
  8
細線
100
AcDbLine
 10
6162.673057123653
 20
3442.931598713261
 30
0.0
 11
9006.673057123654
 21
3442.931598713261
 31
0.0
  0
LINE
  5
184AF
330
747D
100
AcDbEntity
  8
細線
100
AcDbLine
 10
6162.673057123653
 20
3377.931598713261
 30
0.0
 11
9006.673057123654
 21
3377.931598713261
 31
0.0
  0
LINE
  5
184B0
330
747D
100
AcDbEntity
  8
細線
100
AcDbLine
 10
6162.673057123653
 20
3312.931598713261
 30
0.0
 11
9006.673057123654
 21
3312.931598713261
 31
0.0
  0
LINE
  5
184B1
330
747D
100
AcDbEntity
  8
細線
100
AcDbLine
 10
6162.673057123653
 20
3247.931598713261
 30
0.0
 11
9006.673057123654
 21
3247.931598713261
 31
0.0
  0
LINE
  5
184B2
330
747D
100
AcDbEntity
  8
細線
100
AcDbLine
 10
6162.673057123653
 20
3182.931598713262
 30
0.0
 11
9006.673057123654
 21
3182.931598713262
 31
0.0
  0
LINE
  5
184B3
330
747D
100
AcDbEntity
  8
細線
100
AcDbLine
 10
6162.673057123653
 20
4157.931598713261
 30
0.0
 11
9006.673057123654
 21
4157.931598713261
 31
0.0
  0
LINE
  5
184B4
330
747D
100
AcDbEntity
  8
細線
100
AcDbLine
 10
6162.673057123653
 20
4092.931598713261
 30
0.0
 11
9006.673057123654
 21
4092.931598713261
 31
0.0
  0
LINE
  5
184B5
330
747D
100
AcDbEntity
  8
細線
100
AcDbLine
 10
6162.673057123653
 20
4027.931598713261
 30
0.0
 11
9006.673057123654
 21
4027.931598713261
 31
0.0
  0
LINE
  5
184B6
330
747D
100
AcDbEntity
  8
細線
100
AcDbLine
 10
6162.673057123653
 20
3962.931598713261
 30
0.0
 11
9006.673057123654
 21
3962.931598713261
 31
0.0
  0
LINE
  5
184B7
330
747D
100
AcDbEntity
  8
細線
100
AcDbLine
 10
6162.673057123653
 20
3897.931598713262
 30
0.0
 11
9006.673057123654
 21
3897.931598713262
 31
0.0
  0
LINE
  5
184B8
330
747D
100
AcDbEntity
  8
細線
100
AcDbLine
 10
6162.673057123653
 20
3832.931598713262
 30
0.0
 11
9006.673057123654
 21
3832.931598713262
 31
0.0
  0
LINE
  5
184B9
330
747D
100
AcDbEntity
  8
細線
100
AcDbLine
 10
6162.673057123653
 20
4352.931598713261
 30
0.0
 11
9006.673057123654
 21
4352.931598713261
 31
0.0
  0
LINE
  5
184BA
330
747D
100
AcDbEntity
  8
細線
100
AcDbLine
 10
6162.673057123653
 20
4287.931598713261
 30
0.0
 11
9006.673057123654
 21
4287.931598713261
 31
0.0
  0
LINE
  5
184BB
330
747D
100
AcDbEntity
  8
細線
100
AcDbLine
 10
6162.673057123653
 20
4222.931598713262
 30
0.0
 11
9006.673057123654
 21
4222.931598713262
 31
0.0
  0
LINE
  5
184BC
330
747D
100
AcDbEntity
  8
部品1
100
AcDbLine
 10
3009.673057123658
 20
4512.931598713262
 30
0.0
 11
6114.673057123656
 21
4512.931598713262
 31
0.0
  0
LINE
  5
184BD
330
747D
100
AcDbEntity
  8
部品1
100
AcDbLine
 10
9006.673057123659
 20
4512.931598713262
 30
0.0
 11
9006.673057123656
 21
2587.931598713261
 31
0.0
  0
LINE
  5
184BE
330
747D
100
AcDbEntity
  8
部品1
100
AcDbLine
 10
3112.673057123655
 20
4512.931598713261
 30
0.0
 11
3112.673057123655
 21
2587.931598713262
 31
0.0
  0
LINE
  5
184BF
330
747D
100
AcDbEntity
  8
破線
 48
5.0
100
AcDbLine
 10
3064.673057123655
 20
2187.931598713269
 30
0.0
 11
3009.673057123655
 21
2187.931598713269
 31
0.0
  0
LINE
  5
184C0
330
747D
100
AcDbEntity
  8
破線
 48
5.0
100
AcDbLine
 10
9109.673057123655
 20
2187.931598713261
 30
0.0
 11
9054.673057123656
 21
2187.931598713261
 31
0.0
  0
LINE
  5
184C1
330
747D
100
AcDbEntity
  8
破線
 48
5.0
100
AcDbLine
 10
3064.673057123659
 20
2437.931598713261
 30
0.0
 11
3064.673057123655
 21
2187.931598713261
 31
0.0
  0
LINE
  5
184C2
330
747D
100
AcDbEntity
  8
破線
 48
5.0
100
AcDbLine
 10
9054.673057123656
 20
2437.931598713261
 30
0.0
 11
9054.673057123656
 21
2187.931598713261
 31
0.0
  0
LINE
  5
184C5
330
747D
100
AcDbEntity
  8
破線
 48
5.0
100
AcDbLine
 10
3009.673057123655
 20
2437.931598713261
 30
0.0
 11
3009.673057123655
 21
2187.931598713261
 31
0.0
  0
LINE
  5
184C6
330
747D
100
AcDbEntity
  8
破線
 48
5.0
100
AcDbLine
 10
9109.673057123655
 20
2437.931598713261
 30
0.0
 11
9109.673057123655
 21
2187.931598713261
 31
0.0
  0
LINE
  5
184CD
330
747D
100
AcDbEntity
  8
部品1
100
AcDbLine
 10
9109.673057123655
 20
4771.931598713265
 30
0.0
 11
9109.673057123655
 21
2437.931598713261
 31
0.0
  0
LINE
  5
184CE
330
747D
100
AcDbEntity
  8
部品1
100
AcDbLine
 10
3064.673057123655
 20
4512.931598713262
 30
0.0
 11
3064.673057123659
 21
2437.931598713261
 31
0.0
  0
LINE
  5
184CF
330
747D
100
AcDbEntity
  8
部品1
100
AcDbLine
 10
9054.673057123656
 20
4512.931598713262
 30
0.0
 11
9054.673057123656
 21
2437.931598713261
 31
0.0
  0
LINE
  5
184D0
330
747D
100
AcDbEntity
  8
部品1
100
AcDbLine
 10
3009.673057123658
 20
4771.931598713265
 30
0.0
 11
3009.673057123655
 21
2437.931598713261
 31
0.0
  0
LINE
  5
184D1
330
747D
100
AcDbEntity
  8
部品1
100
AcDbLine
 10
3064.673057123655
 20
2537.931598713262
 30
0.0
 11
6004.673057123655
 21
2537.931598713262
 31
0.0
  0
LINE
  5
184D2
330
747D
100
AcDbEntity
  8
部品1
100
AcDbLine
 10
2170.903465777272
 20
2567.835409280926
 30
0.0
 11
2095.903465777272
 21
2437.931598713261
 31
0.0
  0
TEXT
  5
184D3
330
747D
100
AcDbEntity
  8
部品1
100
AcDbText
 10
2199.008407902045
 20
2474.038502319163
 30
0.0
 40
125.0
  1
G.L
  7
STYLE2
100
AcDbText
  0
LINE
  5
184D4
330
747D
100
AcDbEntity
  8
部品1
100
AcDbLine
 10
2095.903465777272
 20
2437.931598713261
 30
0.0
 11
2020.903465777272
 21
2567.835409280926
 31
0.0
  0
LINE
  5
184D5
330
747D
100
AcDbEntity
  8
部品1
100
AcDbLine
 10
2020.903465777272
 20
2567.835409280926
 30
0.0
 11
2170.903465777272
 21
2567.835409280926
 31
0.0
  0
LINE
  5
184D6
330
747D
100
AcDbEntity
  8
Ｇ．Ｌ
100
AcDbLine
 10
1921.406454453172
 20
2437.931598713261
 30
0.0
 11
15365.79354554683
 21
2437.931598713261
 31
0.0
  0
MTEXT
  5
18AE9
330
747D
100
AcDbEntity
  8
寸法
 62
     7
 48
50.0
100
AcDbMText
 10
3792.388255196303
 20
9776.903693512998
 30
0.0
 40
96.0
 41
0.0
 71
     5
 72
     1
  1
棚 3段
  7
STYLE1
 73
     1
 44
1.0
1001
ACAD
1000
MTEXTBEGIN
1070
    73
1070
     1
1070
    44
1040
1.0
1070
    74
1070
     0
1000
MTEXTEND
  0
MTEXT
  5
18CC9
330
747D
100
AcDbEntity
  8
寸法
 62
     7
 48
50.0
100
AcDbMText
 10
5302.388255196301
 20
9776.903693513045
 30
0.0
 40
96.0
 41
0.0
 71
     5
 72
     1
  1
棚 3段
  7
STYLE1
 73
     1
 44
1.0
1001
ACAD
1000
MTEXTBEGIN
1070
    73
1070
     1
1070
    44
1040
1.0
1070
    74
1070
     0
1000
MTEXTEND
  0
MTEXT
  5
18CCA
330
747D
100
AcDbEntity
  8
寸法
 62
     7
 48
50.0
100
AcDbMText
 10
8352.3882551963
 20
9776.903693513045
 30
0.0
 40
96.0
 41
0.0
 71
     5
 72
     1
  1
棚 3段
  7
STYLE1
 73
     1
 44
1.0
1001
ACAD
1000
MTEXTBEGIN
1070
    73
1070
     1
1070
    44
1040
1.0
1070
    74
1070
     0
1000
MTEXTEND
  0
MTEXT
  5
18CCB
330
747D
100
AcDbEntity
  8
寸法
 62
     7
 48
50.0
100
AcDbMText
 10
6842.388255196303
 20
9776.903693512998
 30
0.0
 40
96.0
 41
0.0
 71
     5
 72
     1
  1
棚 3段
  7
STYLE1
 73
     1
 44
1.0
1001
ACAD
1000
MTEXTBEGIN
1070
    73
1070
     1
1070
    44
1040
1.0
1070
    74
1070
     0
1000
MTEXTEND
  0
DIMENSION
  5
18E8F
330
747D
100
AcDbEntity
  8
寸法
100
AcDbDimension
  2
*D36
 10
7479.149210862352
 20
9369.059754790699
 30
0.0
 11
6675.964360531678
 21
9369.059754790699
 31
0.0
 70
   160
 71
     5
 42
1483.000000000012
  3
INABA_S40G
100
AcDbAlignedDimension
 13
6088.173057123664
 23
9712.497424545869
 33
0.0
 14
7571.173057123676
 24
9712.497424545862
 34
0.0
100
AcDbRotatedDimension
1001
ACAD
1000
DSTYLE
1002
{
1002
}
  0
DIMENSION
  5
18E92
330
747D
100
AcDbEntity
  8
寸法
100
AcDbDimension
  2
*D37
 10
8989.149210862354
 20
9369.059754790807
 30
0.0
 11
8122.611213040512
 21
9369.059754790807
 31
0.0
 70
   160
 71
     5
 42
1483.000000000012
  3
INABA_S40G
100
AcDbAlignedDimension
 13
7598.173057123664
 23
9712.497424545974
 33
0.0
 14
9081.173057123676
 24
9712.497424545967
 34
0.0
100
AcDbRotatedDimension
1001
ACAD
1000
DSTYLE
1002
{
1002
}
  0
LINE
  5
19071
330
747D
100
AcDbEntity
  8
補助
  6
PHANTOM
 62
   230
 48
50.0
100
AcDbLine
 10
140.0
 20
0.0
 30
0.0
 11
140.0
 21
11409.6
 31
0.0
  0
TEXT
  5
1908F
330
747D
100
AcDbEntity
  8
文字
 62
     7
 48
50.0
100
AcDbText
 10
14495.10523887733
 20
483.8967129911414
 30
0.0
 40
160.0
  1
FXN-95HYL-2
  7
STYLE2
100
AcDbText
  0
DIMENSION
  5
191CC
330
747D
100
AcDbEntity
  8
寸法
 48
50.0
100
AcDbDimension
  2
*D38
 10
9397.216159445404
 20
4485.93159871326
 30
0.0
 11
9297.216159445401
 21
3542.931598713263
 31
0.0
 70
    32
  1
有効開口部高サ <>
 71
     5
 42
1885.999999999999
  3
INABA_S40G
100
AcDbAlignedDimension
 13
9109.673057123655
 23
2599.931598713262
 33
0.0
 14
9109.673057123659
 24
4485.93159871326
 34
0.0
 50
90.0
100
AcDbRotatedDimension
  0
DIMENSION
  5
191CD
330
747D
100
AcDbEntity
  8
寸法
 48
50.0
100
AcDbDimension
  2
*D39
 10
9397.216159445404
 20
4512.931598713262
 30
0.0
 11
9537.38598269177
 21
4513.89879855292
 31
0.0
 70
   160
 71
     5
 42
27.00000000000182
  3
INABA_S40G
100
AcDbAlignedDimension
 13
9109.673057123659
 23
4485.93159871326
 33
0.0
 14
9109.673057123655
 24
4512.931598713262
 34
0.0
 50
90.0
100
AcDbRotatedDimension
1001
ACAD
1000
DSTYLE
1002
{
1070
   279
1070
     2
1002
}
  0
DIMENSION
  5
191CE
330
747D
100
AcDbEntity
  8
寸法
 48
50.0
100
AcDbDimension
  2
*D40
 10
9397.216159445404
 20
4677.931598713261
 30
0.0
 11
9397.216159445404
 21
4916.416880087502
 31
0.0
 70
   160
 71
     5
 42
164.9999999999991
  3
INABA_S40G
100
AcDbAlignedDimension
 13
9109.673057123655
 23
4512.931598713262
 33
0.0
 14
9109.673057123655
 24
4677.931598713261
 34
0.0
 50
90.0
100
AcDbRotatedDimension
1001
ACAD
1000
DSTYLE
1002
{
1002
}
  0
ARC
  5
1941A
330
747D
100
AcDbEntity
  8
部品1
 48
0.01
100
AcDbCircle
 10
5061.673057123659
 20
4710.431598713259
 30
0.0
 40
2.0
100
AcDbArc
 50
180.0
 51
270.0
  0
ARC
  5
1941B
330
747D
100
AcDbEntity
  8
部品1
 48
0.01
100
AcDbCircle
 10
5237.673057123658
 20
4710.431598713259
 30
0.0
 40
2.0
100
AcDbArc
 50
270.0
 51
0.0
  0
LINE
  5
1941C
330
747D
100
AcDbEntity
  8
部品1
 48
0.01
100
AcDbLine
 10
5237.673057123658
 20
4708.43159871326
 30
0.0
 11
5061.673057123659
 21
4708.43159871326
 31
0.0
  0
LINE
  5
1941D
330
747D
100
AcDbEntity
  8
部品1
 48
0.01
100
AcDbLine
 10
3831.673057123659
 20
4708.43159871326
 30
0.0
 11
4007.673057123655
 21
4708.43159871326
 31
0.0
  0
ARC
  5
1941E
330
747D
100
AcDbEntity
  8
部品1
 48
0.01
100
AcDbCircle
 10
3831.673057123659
 20
4710.431598713259
 30
0.0
 40
2.0
100
AcDbArc
 50
180.0
 51
270.0
  0
ARC
  5
1941F
330
747D
100
AcDbEntity
  8
部品1
 48
0.01
100
AcDbCircle
 10
4007.673057123655
 20
4710.431598713259
 30
0.0
 40
2.0
100
AcDbArc
 50
270.0
 51
0.0
  0
ARC
  5
19420
330
747D
100
AcDbEntity
  8
部品1
 48
0.01
100
AcDbCircle
 10
5061.673057123659
 20
4741.93159871326
 30
0.0
 40
2.0
100
AcDbArc
 50
90.0
 51
180.0
  0
ARC
  5
19421
330
747D
100
AcDbEntity
  8
部品1
 48
0.01
100
AcDbCircle
 10
5237.673057123658
 20
4741.93159871326
 30
0.0
 40
2.0
100
AcDbArc
 50
0.0
 51
90.0
  0
LINE
  5
19422
330
747D
100
AcDbEntity
  8
細線
100
AcDbLine
 10
5149.673057123658
 20
4714.431598713259
 30
0.0
 11
5075.673057123658
 21
4714.431598713259
 31
0.0
  0
LINE
  5
19423
330
747D
100
AcDbEntity
  8
細線
100
AcDbLine
 10
5149.673057123658
 20
4737.43159871326
 30
0.0
 11
5223.673057123658
 21
4737.43159871326
 31
0.0
  0
LINE
  5
19424
330
747D
100
AcDbEntity
  8
細線
100
AcDbLine
 10
5223.673057123658
 20
4714.431598713259
 30
0.0
 11
5149.673057123658
 21
4714.431598713259
 31
0.0
  0
LINE
  5
19425
330
747D
100
AcDbEntity
  8
細線
100
AcDbLine
 10
5075.673057123658
 20
4737.43159871326
 30
0.0
 11
5149.673057123658
 21
4737.43159871326
 31
0.0
  0
LINE
  5
19426
330
747D
100
AcDbEntity
  8
細線
100
AcDbLine
 10
5075.673057123658
 20
4714.431598713259
 30
0.0
 11
5075.673057123658
 21
4737.43159871326
 31
0.0
  0
LINE
  5
19427
330
747D
100
AcDbEntity
  8
細線
100
AcDbLine
 10
5223.673057123658
 20
4737.43159871326
 30
0.0
 11
5223.673057123658
 21
4714.431598713259
 31
0.0
  0
LINE
  5
19428
330
747D
100
AcDbEntity
  8
部品1
 48
0.01
100
AcDbLine
 10
5059.673057123658
 20
4710.431598713259
 30
0.0
 11
5059.673057123658
 21
4741.93159871326
 31
0.0
  0
LINE
  5
19429
330
747D
100
AcDbEntity
  8
部品1
 48
0.01
100
AcDbLine
 10
5239.673057123659
 20
4741.93159871326
 30
0.0
 11
5239.673057123659
 21
4710.431598713259
 31
0.0
  0
LINE
  5
1942A
330
747D
100
AcDbEntity
  8
部品1
 48
0.01
100
AcDbLine
 10
5061.673057123659
 20
4743.931598713259
 30
0.0
 11
5237.673057123658
 21
4743.931598713259
 31
0.0
  0
LINE
  5
1942B
330
747D
100
AcDbEntity
  8
細線
100
AcDbLine
 10
5223.673057123658
 20
4731.43159871326
 30
0.0
 11
5149.673057123658
 21
4731.43159871326
 31
0.0
  0
LINE
  5
1942C
330
747D
100
AcDbEntity
  8
細線
100
AcDbLine
 10
5223.673057123658
 20
4725.431598713259
 30
0.0
 11
5149.673057123658
 21
4725.431598713259
 31
0.0
  0
LINE
  5
1942D
330
747D
100
AcDbEntity
  8
細線
100
AcDbLine
 10
5223.673057123658
 20
4719.431598713259
 30
0.0
 11
5149.673057123658
 21
4719.431598713259
 31
0.0
  0
LINE
  5
1942E
330
747D
100
AcDbEntity
  8
細線
100
AcDbLine
 10
5223.673057123658
 20
4731.43159871326
 30
0.0
 11
5154.673057123659
 21
4731.43159871326
 31
0.0
  0
LINE
  5
1942F
330
747D
100
AcDbEntity
  8
細線
100
AcDbLine
 10
5075.673057123658
 20
4731.43159871326
 30
0.0
 11
5149.673057123658
 21
4731.43159871326
 31
0.0
  0
LINE
  5
19430
330
747D
100
AcDbEntity
  8
細線
100
AcDbLine
 10
5075.673057123658
 20
4719.431598713259
 30
0.0
 11
5149.673057123658
 21
4719.431598713259
 31
0.0
  0
LINE
  5
19431
330
747D
100
AcDbEntity
  8
細線
100
AcDbLine
 10
5075.673057123658
 20
4725.431598713259
 30
0.0
 11
5149.673057123658
 21
4725.431598713259
 31
0.0
  0
LINE
  5
19432
330
747D
100
AcDbEntity
  8
細線
100
AcDbLine
 10
5149.673057123658
 20
4737.43159871326
 30
0.0
 11
5149.673057123658
 21
4714.431598713259
 31
0.0
  0
LINE
  5
19433
330
747D
100
AcDbEntity
  8
細線
100
AcDbLine
 10
3919.673057123659
 20
4737.43159871326
 30
0.0
 11
3919.673057123655
 21
4714.431598713259
 31
0.0
  0
LINE
  5
19434
330
747D
100
AcDbEntity
  8
細線
100
AcDbLine
 10
3993.673057123655
 20
4725.431598713259
 30
0.0
 11
3919.673057123659
 21
4725.431598713259
 31
0.0
  0
LINE
  5
19435
330
747D
100
AcDbEntity
  8
細線
100
AcDbLine
 10
3993.673057123655
 20
4719.431598713259
 30
0.0
 11
3919.673057123659
 21
4719.431598713259
 31
0.0
  0
LINE
  5
19436
330
747D
100
AcDbEntity
  8
細線
100
AcDbLine
 10
3993.673057123655
 20
4731.43159871326
 30
0.0
 11
3919.673057123659
 21
4731.43159871326
 31
0.0
  0
LINE
  5
19437
330
747D
100
AcDbEntity
  8
細線
100
AcDbLine
 10
3845.673057123658
 20
4731.43159871326
 30
0.0
 11
3914.673057123659
 21
4731.43159871326
 31
0.0
  0
LINE
  5
19438
330
747D
100
AcDbEntity
  8
細線
100
AcDbLine
 10
3845.673057123655
 20
4719.431598713259
 30
0.0
 11
3919.673057123659
 21
4719.431598713259
 31
0.0
  0
LINE
  5
19439
330
747D
100
AcDbEntity
  8
細線
100
AcDbLine
 10
3845.673057123658
 20
4725.431598713259
 30
0.0
 11
3919.673057123659
 21
4725.431598713259
 31
0.0
  0
LINE
  5
1943A
330
747D
100
AcDbEntity
  8
細線
100
AcDbLine
 10
3845.673057123658
 20
4731.43159871326
 30
0.0
 11
3919.673057123659
 21
4731.43159871326
 31
0.0
  0
LINE
  5
1943B
330
747D
100
AcDbEntity
  8
部品1
 48
0.01
100
AcDbLine
 10
4007.673057123659
 20
4743.931598713259
 30
0.0
 11
3831.673057123659
 21
4743.931598713259
 31
0.0
  0
LINE
  5
1943C
330
747D
100
AcDbEntity
  8
部品1
 48
0.01
100
AcDbLine
 10
3829.673057123659
 20
4741.93159871326
 30
0.0
 11
3829.673057123659
 21
4710.431598713259
 31
0.0
  0
LINE
  5
1943D
330
747D
100
AcDbEntity
  8
部品1
 48
0.01
100
AcDbLine
 10
4009.673057123655
 20
4710.431598713259
 30
0.0
 11
4009.673057123658
 21
4741.93159871326
 31
0.0
  0
LINE
  5
1943E
330
747D
100
AcDbEntity
  8
細線
100
AcDbLine
 10
3845.673057123658
 20
4737.43159871326
 30
0.0
 11
3845.673057123658
 21
4714.431598713259
 31
0.0
  0
LINE
  5
1943F
330
747D
100
AcDbEntity
  8
細線
100
AcDbLine
 10
3993.673057123659
 20
4714.431598713259
 30
0.0
 11
3993.673057123659
 21
4737.43159871326
 31
0.0
  0
LINE
  5
19440
330
747D
100
AcDbEntity
  8
細線
100
AcDbLine
 10
3993.673057123659
 20
4737.43159871326
 30
0.0
 11
3919.673057123659
 21
4737.43159871326
 31
0.0
  0
LINE
  5
19441
330
747D
100
AcDbEntity
  8
細線
100
AcDbLine
 10
3845.673057123658
 20
4714.431598713259
 30
0.0
 11
3919.673057123659
 21
4714.431598713259
 31
0.0
  0
LINE
  5
19442
330
747D
100
AcDbEntity
  8
細線
100
AcDbLine
 10
3919.673057123659
 20
4737.43159871326
 30
0.0
 11
3845.673057123658
 21
4737.43159871326
 31
0.0
  0
LINE
  5
19443
330
747D
100
AcDbEntity
  8
細線
100
AcDbLine
 10
3919.673057123655
 20
4714.431598713259
 30
0.0
 11
3993.673057123659
 21
4714.431598713259
 31
0.0
  0
ARC
  5
19444
330
747D
100
AcDbEntity
  8
部品1
 48
0.01
100
AcDbCircle
 10
3831.673057123659
 20
4741.93159871326
 30
0.0
 40
2.0
100
AcDbArc
 50
90.0
 51
180.0
  0
ARC
  5
19445
330
747D
100
AcDbEntity
  8
部品1
 48
0.01
100
AcDbCircle
 10
4007.673057123659
 20
4741.93159871326
 30
0.0
 40
2.0
100
AcDbArc
 50
0.0
 51
90.0
  0
ARC
  5
1956A
330
747D
100
AcDbEntity
  8
部品1
 48
0.01
100
AcDbCircle
 10
7057.673057123658
 20
4741.93159871326
 30
0.0
 40
2.0
100
AcDbArc
 50
0.0
 51
90.0
  0
ARC
  5
1956B
330
747D
100
AcDbEntity
  8
部品1
 48
0.01
100
AcDbCircle
 10
6881.673057123659
 20
4741.93159871326
 30
0.0
 40
2.0
100
AcDbArc
 50
90.0
 51
180.0
  0
LINE
  5
1956C
330
747D
100
AcDbEntity
  8
細線
100
AcDbLine
 10
6969.673057123656
 20
4714.431598713259
 30
0.0
 11
7043.673057123658
 21
4714.431598713259
 31
0.0
  0
LINE
  5
1956D
330
747D
100
AcDbEntity
  8
細線
100
AcDbLine
 10
6969.673057123658
 20
4737.43159871326
 30
0.0
 11
6895.673057123659
 21
4737.43159871326
 31
0.0
  0
LINE
  5
1956E
330
747D
100
AcDbEntity
  8
細線
100
AcDbLine
 10
6895.673057123659
 20
4714.431598713259
 30
0.0
 11
6969.673057123658
 21
4714.431598713259
 31
0.0
  0
LINE
  5
1956F
330
747D
100
AcDbEntity
  8
細線
100
AcDbLine
 10
7043.673057123658
 20
4737.43159871326
 30
0.0
 11
6969.673057123658
 21
4737.43159871326
 31
0.0
  0
LINE
  5
19570
330
747D
100
AcDbEntity
  8
細線
100
AcDbLine
 10
7043.673057123658
 20
4714.431598713259
 30
0.0
 11
7043.673057123658
 21
4737.43159871326
 31
0.0
  0
LINE
  5
19571
330
747D
100
AcDbEntity
  8
細線
100
AcDbLine
 10
6895.673057123659
 20
4737.43159871326
 30
0.0
 11
6895.673057123659
 21
4714.431598713259
 31
0.0
  0
LINE
  5
19572
330
747D
100
AcDbEntity
  8
部品1
 48
0.01
100
AcDbLine
 10
7059.673057123655
 20
4710.431598713259
 30
0.0
 11
7059.673057123659
 21
4741.93159871326
 31
0.0
  0
LINE
  5
19573
330
747D
100
AcDbEntity
  8
部品1
 48
0.01
100
AcDbLine
 10
6879.673057123658
 20
4741.93159871326
 30
0.0
 11
6879.673057123658
 21
4710.431598713259
 31
0.0
  0
LINE
  5
19574
330
747D
100
AcDbEntity
  8
部品1
 48
0.01
100
AcDbLine
 10
7057.673057123658
 20
4743.931598713259
 30
0.0
 11
6881.673057123659
 21
4743.931598713259
 31
0.0
  0
LINE
  5
19575
330
747D
100
AcDbEntity
  8
細線
100
AcDbLine
 10
6895.673057123659
 20
4731.43159871326
 30
0.0
 11
6969.673057123658
 21
4731.43159871326
 31
0.0
  0
LINE
  5
19576
330
747D
100
AcDbEntity
  8
細線
100
AcDbLine
 10
6895.673057123659
 20
4725.431598713259
 30
0.0
 11
6969.673057123658
 21
4725.431598713259
 31
0.0
  0
LINE
  5
19577
330
747D
100
AcDbEntity
  8
細線
100
AcDbLine
 10
6895.673057123655
 20
4719.431598713259
 30
0.0
 11
6969.673057123658
 21
4719.431598713259
 31
0.0
  0
LINE
  5
19578
330
747D
100
AcDbEntity
  8
細線
100
AcDbLine
 10
6895.673057123659
 20
4731.43159871326
 30
0.0
 11
6964.673057123659
 21
4731.43159871326
 31
0.0
  0
LINE
  5
19579
330
747D
100
AcDbEntity
  8
細線
100
AcDbLine
 10
7043.673057123655
 20
4731.43159871326
 30
0.0
 11
6969.673057123658
 21
4731.43159871326
 31
0.0
  0
LINE
  5
1957A
330
747D
100
AcDbEntity
  8
細線
100
AcDbLine
 10
7043.673057123655
 20
4719.431598713259
 30
0.0
 11
6969.673057123658
 21
4719.431598713259
 31
0.0
  0
LINE
  5
1957B
330
747D
100
AcDbEntity
  8
細線
100
AcDbLine
 10
7043.673057123655
 20
4725.431598713259
 30
0.0
 11
6969.673057123658
 21
4725.431598713259
 31
0.0
  0
LINE
  5
1957C
330
747D
100
AcDbEntity
  8
細線
100
AcDbLine
 10
6969.673057123658
 20
4737.43159871326
 30
0.0
 11
6969.673057123656
 21
4714.431598713259
 31
0.0
  0
LINE
  5
1957D
330
747D
100
AcDbEntity
  8
細線
100
AcDbLine
 10
8199.673057123659
 20
4737.43159871326
 30
0.0
 11
8199.673057123659
 21
4714.431598713259
 31
0.0
  0
LINE
  5
1957E
330
747D
100
AcDbEntity
  8
細線
100
AcDbLine
 10
8125.673057123659
 20
4725.431598713259
 30
0.0
 11
8199.673057123659
 21
4725.431598713259
 31
0.0
  0
LINE
  5
1957F
330
747D
100
AcDbEntity
  8
細線
100
AcDbLine
 10
8125.673057123659
 20
4719.431598713259
 30
0.0
 11
8199.673057123659
 21
4719.431598713259
 31
0.0
  0
LINE
  5
19580
330
747D
100
AcDbEntity
  8
細線
100
AcDbLine
 10
8125.673057123659
 20
4731.43159871326
 30
0.0
 11
8199.673057123659
 21
4731.43159871326
 31
0.0
  0
LINE
  5
19581
330
747D
100
AcDbEntity
  8
細線
100
AcDbLine
 10
8273.673057123659
 20
4731.43159871326
 30
0.0
 11
8204.673057123658
 21
4731.43159871326
 31
0.0
  0
LINE
  5
19582
330
747D
100
AcDbEntity
  8
細線
100
AcDbLine
 10
8273.673057123659
 20
4719.431598713259
 30
0.0
 11
8199.673057123659
 21
4719.431598713259
 31
0.0
  0
LINE
  5
19583
330
747D
100
AcDbEntity
  8
細線
100
AcDbLine
 10
8273.673057123659
 20
4725.431598713259
 30
0.0
 11
8199.673057123659
 21
4725.431598713259
 31
0.0
  0
LINE
  5
19584
330
747D
100
AcDbEntity
  8
細線
100
AcDbLine
 10
8273.673057123659
 20
4731.43159871326
 30
0.0
 11
8199.673057123659
 21
4731.43159871326
 31
0.0
  0
LINE
  5
19585
330
747D
100
AcDbEntity
  8
部品1
 48
0.01
100
AcDbLine
 10
8111.673057123658
 20
4743.931598713259
 30
0.0
 11
8287.67305712366
 21
4743.931598713259
 31
0.0
  0
LINE
  5
19586
330
747D
100
AcDbEntity
  8
部品1
 48
0.01
100
AcDbLine
 10
8289.673057123659
 20
4741.93159871326
 30
0.0
 11
8289.673057123659
 21
4710.431598713259
 31
0.0
  0
LINE
  5
19587
330
747D
100
AcDbEntity
  8
部品1
 48
0.01
100
AcDbLine
 10
8109.673057123659
 20
4710.431598713259
 30
0.0
 11
8109.673057123659
 21
4741.93159871326
 31
0.0
  0
LINE
  5
19588
330
747D
100
AcDbEntity
  8
細線
100
AcDbLine
 10
8273.673057123659
 20
4737.43159871326
 30
0.0
 11
8273.673057123659
 21
4714.431598713259
 31
0.0
  0
LINE
  5
19589
330
747D
100
AcDbEntity
  8
細線
100
AcDbLine
 10
8125.673057123659
 20
4714.431598713259
 30
0.0
 11
8125.673057123659
 21
4737.43159871326
 31
0.0
  0
LINE
  5
1958A
330
747D
100
AcDbEntity
  8
細線
100
AcDbLine
 10
8125.673057123659
 20
4737.43159871326
 30
0.0
 11
8199.673057123659
 21
4737.43159871326
 31
0.0
  0
LINE
  5
1958B
330
747D
100
AcDbEntity
  8
細線
100
AcDbLine
 10
8273.673057123659
 20
4714.431598713259
 30
0.0
 11
8199.673057123659
 21
4714.431598713259
 31
0.0
  0
LINE
  5
1958C
330
747D
100
AcDbEntity
  8
細線
100
AcDbLine
 10
8199.673057123659
 20
4737.43159871326
 30
0.0
 11
8273.673057123659
 21
4737.43159871326
 31
0.0
  0
LINE
  5
1958D
330
747D
100
AcDbEntity
  8
細線
100
AcDbLine
 10
8199.673057123659
 20
4714.431598713259
 30
0.0
 11
8125.673057123659
 21
4714.431598713259
 31
0.0
  0
ARC
  5
1958E
330
747D
100
AcDbEntity
  8
部品1
 48
0.01
100
AcDbCircle
 10
8287.67305712366
 20
4741.93159871326
 30
0.0
 40
2.0
100
AcDbArc
 50
0.0
 51
90.0
  0
ARC
  5
1958F
330
747D
100
AcDbEntity
  8
部品1
 48
0.01
100
AcDbCircle
 10
8111.673057123658
 20
4741.93159871326
 30
0.0
 40
2.0
100
AcDbArc
 50
90.0
 51
180.0
  0
ARC
  5
19590
330
747D
100
AcDbEntity
  8
部品1
 48
0.01
100
AcDbCircle
 10
7057.673057123655
 20
4710.431598713259
 30
0.0
 40
2.0
100
AcDbArc
 50
270.0
 51
0.0
  0
ARC
  5
19591
330
747D
100
AcDbEntity
  8
部品1
 48
0.01
100
AcDbCircle
 10
6881.673057123659
 20
4710.431598713259
 30
0.0
 40
2.0
100
AcDbArc
 50
180.0
 51
270.0
  0
LINE
  5
19592
330
747D
100
AcDbEntity
  8
部品1
 48
0.01
100
AcDbLine
 10
6881.673057123659
 20
4708.43159871326
 30
0.0
 11
7057.673057123655
 21
4708.43159871326
 31
0.0
  0
LINE
  5
19593
330
747D
100
AcDbEntity
  8
部品1
 48
0.01
100
AcDbLine
 10
8287.67305712366
 20
4708.43159871326
 30
0.0
 11
8111.673057123658
 21
4708.43159871326
 31
0.0
  0
ARC
  5
19594
330
747D
100
AcDbEntity
  8
部品1
 48
0.01
100
AcDbCircle
 10
8287.67305712366
 20
4710.431598713259
 30
0.0
 40
2.0
100
AcDbArc
 50
270.0
 51
0.0
  0
ARC
  5
19595
330
747D
100
AcDbEntity
  8
部品1
 48
0.01
100
AcDbCircle
 10
8111.673057123658
 20
4710.431598713259
 30
0.0
 40
2.0
100
AcDbArc
 50
180.0
 51
270.0
  0
TEXT
  5
195C2
330
747D
100
AcDbEntity
  8
文字
 62
     7
 48
50.0
100
AcDbText
 10
14646.46056207479
 20
871.9640646083623
 30
0.0
 40
100.0
  1
～一般型～
  7
STYLE2
100
AcDbText
  0
TEXT
  5
195DE
330
747D
100
AcDbEntity
  8
文字
 62
     7
 48
50.0
100
AcDbText
 10
15022.63965474516
 20
9060.013745883729
 30
0.0
 40
100.0
  1
F12            0.7
  7
STYLE1
100
AcDbText
  0
LINE
  5
19619
330
747D
100
AcDbEntity
  8
破線
 48
5.0
100
AcDbLine
 10
6114.673057123655
 20
2262.931598713262
 30
0.0
 11
6004.673057123657
 21
2262.931598713262
 31
0.0
  0
LINE
  5
1961A
330
747D
100
AcDbEntity
  8
破線
 48
5.0
100
AcDbLine
 10
6004.673057123655
 20
2437.931598713262
 30
0.0
 11
6004.673057123657
 21
2262.931598713262
 31
0.0
  0
LINE
  5
1961B
330
747D
100
AcDbEntity
  8
破線
 48
5.0
100
AcDbLine
 10
6114.673057123656
 20
2437.931598713262
 30
0.0
 11
6114.673057123656
 21
2262.931598713262
 31
0.0
  0
LINE
  5
1961C
330
747D
100
AcDbEntity
  8
破線
 48
5.0
100
AcDbLine
 10
6059.673057123657
 20
2262.931598713262
 30
0.0
 11
6059.673057123657
 21
2187.931598713262
 31
0.0
  0
ENDSEC
  0
SECTION
  2
OBJECTS
  0
DICTIONARY
  5
7471
330
0
100
AcDbDictionary
281
     1
  3
ACAD_COLOR
350
17ADE
  3
ACAD_GROUP
350
7472
  3
ACAD_LAYOUT
350
17ADF
  3
ACAD_MATERIAL
350
17ADD
  3
ACAD_MLINESTYLE
350
7473
  3
ACAD_PLOTSETTINGS
350
17AE0
  3
ACAD_PLOTSTYLENAME
350
17ADB
  3
ACDBHEADERROUNDTRIPXREC
350
19648
  3
AcDbVariableDictionary
350
19644
  3
CONTENTDICTIONARY
350
E71C
  3
DRAWINGVARIABLESDICT
350
F3B9
  0
DICTIONARY
  5
17FF4
330
7467
100
AcDbDictionary
280
     1
281
     1
  3
ACAD_LAYERSTATES
360
17FF5
  0
DICTIONARY
  5
17ADE
102
{ACAD_REACTORS
330
7471
102
}
330
7471
100
AcDbDictionary
281
     1
  0
DICTIONARY
  5
7472
102
{ACAD_REACTORS
330
7471
102
}
330
7471
100
AcDbDictionary
281
     1
  0
DICTIONARY
  5
17ADF
102
{ACAD_REACTORS
330
7471
102
}
330
7471
100
AcDbDictionary
281
     1
  3
Model
350
17AE1
  3
レイアウト1
350
17AE2
  0
DICTIONARY
  5
17ADD
102
{ACAD_REACTORS
330
7471
102
}
330
7471
100
AcDbDictionary
281
     1
  0
DICTIONARY
  5
7473
102
{ACAD_REACTORS
330
7471
102
}
330
7471
100
AcDbDictionary
281
     1
  3
STANDARD
350
7480
  0
DICTIONARY
  5
17AE0
102
{ACAD_REACTORS
330
7471
102
}
330
7471
100
AcDbDictionary
281
     1
  0
ACDBDICTIONARYWDFLT
  5
17ADB
102
{ACAD_REACTORS
330
7471
102
}
330
7471
100
AcDbDictionary
281
     1
  3
Normal
350
17ADC
100
AcDbDictionaryWithDefault
340
17ADC
  0
DICTIONARY
  5
19648
102
{ACAD_REACTORS
330
7471
102
}
330
7471
100
AcDbDictionary
281
     1
  3
COLORDICT
350
1964A
  3
MATERIALDICT
350
19649
  0
DICTIONARY
  5
19644
102
{ACAD_REACTORS
330
7471
102
}
330
7471
100
AcDbDictionary
281
     1
  3
DIMASSOC
350
19645
  3
PROJECTNAME
350
19646
  0
DICTIONARY
  5
E71C
102
{ACAD_REACTORS
330
7471
102
}
330
7471
100
AcDbDictionary
281
     1
  0
DICTIONARY
  5
F3B9
102
{ACAD_REACTORS
330
7471
102
}
330
7471
100
AcDbDictionary
281
     1
1001
DRAWINGVARIABLESXDATA
1000
POLARMODE
1000
1
  0
DICTIONARY
  5
17FF5
102
{ACAD_REACTORS
330
17FF4
102
}
330
17FF4
100
AcDbDictionary
281
     1
  0
LAYOUT
  5
17AE1
102
{ACAD_XDICTIONARY
360
1964B
102
}
102
{ACAD_REACTORS
330
17ADF
102
}
330
17ADF
100
AcDbPlotSettings
  1

  2
none_device
  4
Letter_(8.50_x_11.00_Inches)
  6

 40
6.349999904632568
 41
6.349999904632568
 42
6.350006103515625
 43
6.350006103515625
 44
215.8999938964844
 45
279.3999938964844
 46
0.0
 47
0.0
 48
0.0
 49
0.0
140
0.0
141
0.0
142
1.0
143
1.0
 70
 11952
 72
     1
 73
     1
 74
     0
  7
inaba.ctb
 75
     0
147
1.0
148
-2464.692037279003
149
54.36659085389965
100
AcDbLayout
  1
Model
 70
     1
 71
     0
 10
0.0
 20
0.0
 11
12.0
 21
9.0
 12
0.0
 22
0.0
 32
0.0
 14
0.0
 24
0.0
 34
0.0
 15
0.0
 25
0.0
 35
0.0
146
0.0
 13
0.0
 23
0.0
 33
0.0
 16
1.0
 26
0.0
 36
0.0
 17
0.0
 27
1.0
 37
0.0
 76
     0
330
747D
  0
LAYOUT
  5
17AE2
102
{ACAD_XDICTIONARY
360
1964D
102
}
102
{ACAD_REACTORS
330
17ADF
102
}
330
17ADF
100
AcDbPlotSettings
  1

  2
EPSON LP-8300
  4

  6

 40
0.0
 41
0.0
 42
0.0
 43
0.0
 44
0.0
 45
0.0
 46
0.0
 47
0.0
 48
0.0
 49
0.0
140
0.0
141
0.0
142
1.0
143
1.0
 70
   688
 72
     0
 73
     0
 74
     5
  7
inaba.ctb
 75
    16
147
1.0
148
0.0
149
0.0
100
AcDbLayout
  1
レイアウト1
 70
     0
 71
     1
 10
0.0
 20
0.0
 11
420.0
 21
297.0
 12
0.0
 22
0.0
 32
0.0
 14
1.000000000000000E+20
 24
1.000000000000000E+20
 34
1.000000000000000E+20
 15
-1.000000000000000E+20
 25
-1.000000000000000E+20
 35
-1.000000000000000E+20
146
0.0
 13
0.0
 23
0.0
 33
0.0
 16
1.0
 26
0.0
 36
0.0
 17
0.0
 27
1.0
 37
0.0
 76
     0
330
747A
  0
MLINESTYLE
  5
7480
102
{ACAD_REACTORS
330
7473
102
}
330
7473
100
AcDbMlineStyle
  2
STANDARD
 70
     0
  3

 62
     0
 51
90.0
 52
90.0
 71
     2
 49
0.5
 62
   256
  6
BYLAYER
 49
-0.5
 62
   256
  6
BYLAYER
  0
ACDBPLACEHOLDER
  5
17ADC
102
{ACAD_REACTORS
330
17ADB
102
}
330
17ADB
  0
XRECORD
  5
1964A
102
{ACAD_REACTORS
330
19648
102
}
330
19648
100
AcDbXrecord
280
     1
340
17ADE
  0
XRECORD
  5
19649
102
{ACAD_REACTORS
330
19648
102
}
330
19648
100
AcDbXrecord
280
     1
340
17ADD
  0
DICTIONARYVAR
  5
19645
102
{ACAD_REACTORS
330
19644
102
}
330
19644
100
DictionaryVariables
280
     0
  1
1
  0
DICTIONARYVAR
  5
19646
102
{ACAD_REACTORS
330
19644
102
}
330
19644
100
DictionaryVariables
280
     0
  1

  0
DICTIONARY
  5
1964B
330
17AE1
100
AcDbDictionary
280
     1
281
     1
  3
ACAD_XREC_ROUNDTRIP
360
1964C
  0
DICTIONARY
  5
1964D
330
17AE2
100
AcDbDictionary
280
     1
281
     1
  3
ACAD_XREC_ROUNDTRIP
360
1964E
  0
XRECORD
  5
1964C
102
{ACAD_REACTORS
330
1964B
102
}
330
1964B
100
AcDbXrecord
280
     1
102
SHADEPLOT
 70
     0
102
SHADEPLOTRESLEVEL
 70
     2
102
SHADEPLOTCUSTOMDPI
 70
   300
  0
XRECORD
  5
1964E
102
{ACAD_REACTORS
330
1964D
102
}
330
1964D
100
AcDbXrecord
280
     1
102
SHADEPLOT
 70
     0
102
SHADEPLOTRESLEVEL
 70
     2
102
SHADEPLOTCUSTOMDPI
 70
   300
  0
ENDSEC
  0
EOF
