  0
SECTION
  2
HEADER
  9
$ACADVER
  1
AC1015
  9
$ACADMAINTVER
 70
    20
  9
$DWGCODEPAGE
  3
ANSI_932
  9
$INSBASE
 10
0.0
 20
0.0
 30
0.0
  9
$EXTMIN
 10
139.9999999999995
 20
-0.0000000000000909
 30
0.0
  9
$EXTMAX
 10
16307.2
 20
11409.6
 30
0.0
  9
$LIMMIN
 10
0.0
 20
0.0
  9
$LIMMAX
 10
16800.0
 20
11880.0
  9
$ORTHOMODE
 70
     0
  9
$REGENMODE
 70
     1
  9
$FILLMODE
 70
     1
  9
$QTEXTMODE
 70
     0
  9
$MIRRTEXT
 70
     1
  9
$LTSCALE
 40
20.0
  9
$ATTMODE
 70
     1
  9
$TEXTSIZE
 40
100.0
  9
$TRACEWID
 40
1.0
  9
$TEXTSTYLE
  7
STYLE2
  9
$CLAYER
  8
部品1
  9
$CELTYPE
  6
BYLAYER
  9
$CECOLOR
 62
   256
  9
$CELTSCALE
 40
50.0
  9
$DISPSILH
 70
     0
  9
$DIMSCALE
 40
40.0
  9
$DIMASZ
 40
2.5
  9
$DIMEXO
 40
0.5
  9
$DIMDLI
 40
7.0
  9
$DIMRND
 40
0.0
  9
$DIMDLE
 40
0.0
  9
$DIMEXE
 40
1.5
  9
$DIMTP
 40
0.0
  9
$DIMTM
 40
0.0
  9
$DIMTXT
 40
3.0
  9
$DIMCEN
 40
0.0
  9
$DIMTSZ
 40
0.0
  9
$DIMTOL
 70
     0
  9
$DIMLIM
 70
     0
  9
$DIMTIH
 70
     0
  9
$DIMTOH
 70
     0
  9
$DIMSE1
 70
     0
  9
$DIMSE2
 70
     0
  9
$DIMTAD
 70
     3
  9
$DIMZIN
 70
     8
  9
$DIMBLK
  1

  9
$DIMASO
 70
     1
  9
$DIMSHO
 70
     1
  9
$DIMPOST
  1

  9
$DIMAPOST
  1

  9
$DIMALT
 70
     0
  9
$DIMALTD
 70
     2
  9
$DIMALTF
 40
0.0394
  9
$DIMLFAC
 40
1.0
  9
$DIMTOFL
 70
     1
  9
$DIMTVP
 40
0.0
  9
$DIMTIX
 70
     1
  9
$DIMSOXD
 70
     0
  9
$DIMSAH
 70
     1
  9
$DIMBLK1
  1
DOTSMALL
  9
$DIMBLK2
  1
DOTSMALL
  9
$DIMSTYLE
  2
INABA_S40G
  9
$DIMCLRD
 70
     0
  9
$DIMCLRE
 70
     0
  9
$DIMCLRT
 70
     7
  9
$DIMTFAC
 40
1.0
  9
$DIMGAP
 40
1.0
  9
$DIMJUST
 70
     0
  9
$DIMSD1
 70
     0
  9
$DIMSD2
 70
     0
  9
$DIMTOLJ
 70
     1
  9
$DIMTZIN
 70
     0
  9
$DIMALTZ
 70
     0
  9
$DIMALTTZ
 70
     0
  9
$DIMUPT
 70
     0
  9
$DIMDEC
 70
     1
  9
$DIMTDEC
 70
     4
  9
$DIMALTU
 70
     2
  9
$DIMALTTD
 70
     2
  9
$DIMTXSTY
  7
STYLE1
  9
$DIMAUNIT
 70
     0
  9
$DIMADEC
 70
     0
  9
$DIMALTRND
 40
0.0
  9
$DIMAZIN
 70
     0
  9
$DIMDSEP
 70
    46
  9
$DIMATFIT
 70
     3
  9
$DIMFRAC
 70
     0
  9
$DIMLDRBLK
  1

  9
$DIMLUNIT
 70
     2
  9
$DIMLWD
 70
    -2
  9
$DIMLWE
 70
    -2
  9
$DIMTMOVE
 70
     0
  9
$LUNITS
 70
     2
  9
$LUPREC
 70
     1
  9
$SKETCHINC
 40
1.0
  9
$FILLETRAD
 40
3.0
  9
$AUNITS
 70
     0
  9
$AUPREC
 70
     0
  9
$MENU
  1
acad
  9
$ELEVATION
 40
0.0
  9
$PELEVATION
 40
0.0
  9
$THICKNESS
 40
0.0
  9
$LIMCHECK
 70
     0
  9
$CHAMFERA
 40
0.0
  9
$CHAMFERB
 40
0.0
  9
$CHAMFERC
 40
0.0
  9
$CHAMFERD
 40
0.0
  9
$SKPOLY
 70
     0
  9
$TDCREATE
 40
2451368.612993866
  9
$TDUCREATE
 40
2451368.237993866
  9
$TDUPDATE
 40
2455569.627977431
  9
$TDUUPDATE
 40
2455569.252977431
  9
$TDINDWG
 40
0.8348695486
  9
$TDUSRTIMER
 40
0.8348695486
  9
$USRTIMER
 70
     1
  9
$ANGBASE
 50
0.0
  9
$ANGDIR
 70
     0
  9
$PDMODE
 70
     3
  9
$PDSIZE
 40
2.0
  9
$PLINEWID
 40
0.0
  9
$SPLFRAME
 70
     0
  9
$SPLINETYPE
 70
     6
  9
$SPLINESEGS
 70
     8
  9
$HANDSEED
  5
1804D
  9
$SURFTAB1
 70
     6
  9
$SURFTAB2
 70
     6
  9
$SURFTYPE
 70
     6
  9
$SURFU
 70
     6
  9
$SURFV
 70
     6
  9
$UCSBASE
  2

  9
$UCSNAME
  2

  9
$UCSORG
 10
0.0
 20
0.0
 30
0.0
  9
$UCSXDIR
 10
1.0
 20
0.0
 30
0.0
  9
$UCSYDIR
 10
0.0
 20
1.0
 30
0.0
  9
$UCSORTHOREF
  2

  9
$UCSORTHOVIEW
 70
     0
  9
$UCSORGTOP
 10
0.0
 20
0.0
 30
0.0
  9
$UCSORGBOTTOM
 10
0.0
 20
0.0
 30
0.0
  9
$UCSORGLEFT
 10
0.0
 20
0.0
 30
0.0
  9
$UCSORGRIGHT
 10
0.0
 20
0.0
 30
0.0
  9
$UCSORGFRONT
 10
0.0
 20
0.0
 30
0.0
  9
$UCSORGBACK
 10
0.0
 20
0.0
 30
0.0
  9
$PUCSBASE
  2

  9
$PUCSNAME
  2

  9
$PUCSORG
 10
0.0
 20
0.0
 30
0.0
  9
$PUCSXDIR
 10
1.0
 20
0.0
 30
0.0
  9
$PUCSYDIR
 10
0.0
 20
1.0
 30
0.0
  9
$PUCSORTHOREF
  2

  9
$PUCSORTHOVIEW
 70
     0
  9
$PUCSORGTOP
 10
0.0
 20
0.0
 30
0.0
  9
$PUCSORGBOTTOM
 10
0.0
 20
0.0
 30
0.0
  9
$PUCSORGLEFT
 10
0.0
 20
0.0
 30
0.0
  9
$PUCSORGRIGHT
 10
0.0
 20
0.0
 30
0.0
  9
$PUCSORGFRONT
 10
0.0
 20
0.0
 30
0.0
  9
$PUCSORGBACK
 10
0.0
 20
0.0
 30
0.0
  9
$USERI1
 70
     0
  9
$USERI2
 70
     0
  9
$USERI3
 70
     0
  9
$USERI4
 70
     0
  9
$USERI5
 70
     0
  9
$USERR1
 40
0.0
  9
$USERR2
 40
0.0
  9
$USERR3
 40
0.0
  9
$USERR4
 40
0.0
  9
$USERR5
 40
0.0
  9
$WORLDVIEW
 70
     1
  9
$SHADEDGE
 70
     3
  9
$SHADEDIF
 70
    70
  9
$TILEMODE
 70
     1
  9
$MAXACTVP
 70
    16
  9
$PINSBASE
 10
0.0
 20
0.0
 30
0.0
  9
$PLIMCHECK
 70
     0
  9
$PEXTMIN
 10
1.000000000000000E+20
 20
1.000000000000000E+20
 30
1.000000000000000E+20
  9
$PEXTMAX
 10
-1.000000000000000E+20
 20
-1.000000000000000E+20
 30
-1.000000000000000E+20
  9
$PLIMMIN
 10
0.0
 20
0.0
  9
$PLIMMAX
 10
420.0
 20
297.0
  9
$UNITMODE
 70
     0
  9
$VISRETAIN
 70
     0
  9
$PLINEGEN
 70
     0
  9
$PSLTSCALE
 70
     0
  9
$TREEDEPTH
 70
  3020
  9
$CMLSTYLE
  2
STANDARD
  9
$CMLJUST
 70
     0
  9
$CMLSCALE
 40
1.0
  9
$PROXYGRAPHICS
 70
     1
  9
$MEASUREMENT
 70
     1
  9
$CELWEIGHT
370
    -1
  9
$ENDCAPS
280
     0
  9
$JOINSTYLE
280
     0
  9
$LWDISPLAY
290
     0
  9
$INSUNITS
 70
     0
  9
$HYPERLINKBASE
  1

  9
$STYLESHEET
  1

  9
$XEDIT
290
     1
  9
$CEPSNTYPE
380
     0
  9
$PSTYLEMODE
290
     1
  9
$FINGERPRINTGUID
  2
{ABE58A61-0002-4A59-A2F6-3CD59AA3883A}
  9
$VERSIONGUID
  2
{9AA34B12-3D88-43D0-AFB4-AD57C4E6878F}
  9
$EXTNAMES
290
     1
  9
$PSVPSCALE
 40
0.0
  9
$OLESTARTUP
290
     0
  0
ENDSEC
  0
SECTION
  2
CLASSES
  0
CLASS
  1
ACDBDICTIONARYWDFLT
  2
AcDbDictionaryWithDefault
  3
ObjectDBX Classes
 90
        0
280
     0
281
     0
  0
CLASS
  1
DICTIONARYVAR
  2
AcDbDictionaryVar
  3
ObjectDBX Classes
 90
        0
280
     0
281
     0
  0
CLASS
  1
ACDBPLACEHOLDER
  2
AcDbPlaceHolder
  3
ObjectDBX Classes
 90
        0
280
     0
281
     0
  0
CLASS
  1
LAYOUT
  2
AcDbLayout
  3
ObjectDBX Classes
 90
        0
280
     0
281
     0
  0
ENDSEC
  0
SECTION
  2
TABLES
  0
TABLE
  2
VPORT
  5
746D
330
0
100
AcDbSymbolTable
 70
     2
  0
VPORT
  5
18045
330
746D
100
AcDbSymbolTableRecord
100
AcDbViewportTableRecord
  2
*Active
 70
     0
 10
0.0
 20
0.0
 11
1.0
 21
1.0
 12
8223.761025238502
 22
5958.555206651703
 13
0.0
 23
0.0
 14
10.0
 24
10.0
 15
10.0
 25
10.0
 16
0.0
 26
0.0
 36
1.0
 17
0.0
 27
0.0
 37
0.0
 40
12026.20795302914
 41
1.627450980392156
 42
50.0
 43
0.0
 44
0.0
 50
0.0
 51
0.0
 71
     0
 72
     0
 73
     1
 74
     0
 75
     0
 76
     0
 77
     0
 78
     0
281
     0
 65
     1
110
0.0
120
0.0
130
0.0
111
1.0
121
0.0
131
0.0
112
0.0
122
1.0
132
0.0
 79
     0
146
0.0
  0
ENDTAB
  0
TABLE
  2
LTYPE
  5
746A
330
0
100
AcDbSymbolTable
 70
     3
  0
LTYPE
  5
7477
330
746A
100
AcDbSymbolTableRecord
100
AcDbLinetypeTableRecord
  2
BYBLOCK
 70
     0
  3

 72
    65
 73
     0
 40
0.0
  0
LTYPE
  5
7478
330
746A
100
AcDbSymbolTableRecord
100
AcDbLinetypeTableRecord
  2
BYLAYER
 70
     0
  3

 72
    65
 73
     0
 40
0.0
  0
LTYPE
  5
7479
330
746A
100
AcDbSymbolTableRecord
100
AcDbLinetypeTableRecord
  2
CONTINUOUS
 70
     0
  3
Solid line
 72
    65
 73
     0
 40
0.0
  0
LTYPE
  5
781A
330
746A
100
AcDbSymbolTableRecord
100
AcDbLinetypeTableRecord
  2
HIDDEN
 70
     0
  3
__ __ __ __ __ __ __ __ __ __ __ __ __ __ __ __
 72
    65
 73
     2
 40
0.375
 49
0.25
 74
     0
 49
-0.125
 74
     0
  0
LTYPE
  5
781B
330
746A
100
AcDbSymbolTableRecord
100
AcDbLinetypeTableRecord
  2
PHANTOM
 70
     0
  3
______  __  __  ______  __  __  ______  __  __ 
 72
    65
 73
     6
 40
2.5
 49
1.25
 74
     0
 49
-0.25
 74
     0
 49
0.25
 74
     0
 49
-0.25
 74
     0
 49
0.25
 74
     0
 49
-0.25
 74
     0
  0
ENDTAB
  0
TABLE
  2
LAYER
  5
7467
102
{ACAD_XDICTIONARY
360
16BFC
102
}
330
0
100
AcDbSymbolTable
 70
    10
  0
LAYER
  5
7474
330
7467
100
AcDbSymbolTableRecord
100
AcDbLayerTableRecord
  2
0
 70
     0
 62
     7
  6
CONTINUOUS
370
    -3
390
16989
  0
LAYER
  5
DEB3
330
7467
100
AcDbSymbolTableRecord
100
AcDbLayerTableRecord
  2
寸法
 70
     0
 62
     4
  6
CONTINUOUS
370
    -3
390
16989
  0
LAYER
  5
DEB4
330
7467
100
AcDbSymbolTableRecord
100
AcDbLayerTableRecord
  2
部品1
 70
     0
 62
     7
  6
CONTINUOUS
370
    -3
390
16989
  0
LAYER
  5
DEB5
330
7467
100
AcDbSymbolTableRecord
100
AcDbLayerTableRecord
  2
補助
 70
     0
 62
    -1
  6
CONTINUOUS
370
    -3
390
16989
  0
LAYER
  5
DEB6
330
7467
100
AcDbSymbolTableRecord
100
AcDbLayerTableRecord
  2
文字
 70
     0
 62
     7
  6
CONTINUOUS
370
    -3
390
16989
  0
LAYER
  5
F255
330
7467
100
AcDbSymbolTableRecord
100
AcDbLayerTableRecord
  2
DEFPOINTS
 70
     0
 62
     7
  6
CONTINUOUS
290
     0
370
    -3
390
16989
  0
LAYER
  5
10B54
330
7467
100
AcDbSymbolTableRecord
100
AcDbLayerTableRecord
  2
仕様書枠
 70
     0
 62
   230
  6
CONTINUOUS
370
    -3
390
16989
  0
LAYER
  5
11729
330
7467
100
AcDbSymbolTableRecord
100
AcDbLayerTableRecord
  2
Ｇ．Ｌ
 70
     0
 62
    30
  6
CONTINUOUS
370
    -3
390
16989
  0
LAYER
  5
1173F
330
7467
100
AcDbSymbolTableRecord
100
AcDbLayerTableRecord
  2
細線
 70
     0
 62
     5
  6
CONTINUOUS
370
    -3
390
16989
  0
LAYER
  5
142E2
330
7467
100
AcDbSymbolTableRecord
100
AcDbLayerTableRecord
  2
破線
 70
     0
 62
     2
  6
HIDDEN
370
    -3
390
16989
  0
ENDTAB
  0
TABLE
  2
STYLE
  5
7468
330
0
100
AcDbSymbolTable
 70
     4
  0
STYLE
  5
7475
330
7468
100
AcDbSymbolTableRecord
100
AcDbTextStyleTableRecord
  2
STANDARD
 70
     0
 40
0.0
 41
1.0
 50
0.0
 71
     0
 42
4.0
  3
txt
  4
C:\AutoCAD LT\bigfont.shx
  0
STYLE
  5
763C
330
7468
100
AcDbSymbolTableRecord
100
AcDbTextStyleTableRecord
  2
MSMINCHO
 70
     0
 40
0.0
 41
1.0
 50
0.0
 71
     0
 42
1.199999999999999
  3
C:\AutoCAD LT\msminch2.TTF
  4

  0
STYLE
  5
F706
330
7468
100
AcDbSymbolTableRecord
100
AcDbTextStyleTableRecord
  2
STYLE1
 70
     0
 40
0.0
 41
1.0
 50
0.0
 71
     0
 42
4.0
  3
isocp.shx
  4
bigfont.shx
  0
STYLE
  5
103BF
330
7468
100
AcDbSymbolTableRecord
100
AcDbTextStyleTableRecord
  2
STYLE2
 70
     0
 40
0.0
 41
1.0
 50
0.0
 71
     0
 42
100.0
  3
MS PGothic.ttf
  4

1001
ACAD
1000
MS PGothic
1071
    32818
  0
ENDTAB
  0
TABLE
  2
VIEW
  5
746B
330
0
100
AcDbSymbolTable
 70
     0
  0
ENDTAB
  0
TABLE
  2
UCS
  5
746C
330
0
100
AcDbSymbolTable
 70
     0
  0
ENDTAB
  0
TABLE
  2
APPID
  5
746E
330
0
100
AcDbSymbolTable
 70
     6
  0
APPID
  5
7476
330
746E
100
AcDbSymbolTableRecord
100
AcDbRegAppTableRecord
  2
ACAD
 70
     0
  0
APPID
  5
DEA9
330
746E
100
AcDbSymbolTableRecord
100
AcDbRegAppTableRecord
  2
CONTENTBLOCKICON
 70
     0
  0
APPID
  5
DEAA
330
746E
100
AcDbSymbolTableRecord
100
AcDbRegAppTableRecord
  2
CONTENTBLOCKDESCRIPTION
 70
     0
  0
APPID
  5
E71D
330
746E
100
AcDbSymbolTableRecord
100
AcDbRegAppTableRecord
  2
CONTENTTABDATA
 70
     0
  0
APPID
  5
E71E
330
746E
100
AcDbSymbolTableRecord
100
AcDbRegAppTableRecord
  2
CONTENTCURRENTTAB
 70
     0
  0
APPID
  5
F3BA
330
746E
100
AcDbSymbolTableRecord
100
AcDbRegAppTableRecord
  2
DRAWINGVARIABLESXDATA
 70
     0
  0
ENDTAB
  0
TABLE
  2
DIMSTYLE
  5
746F
330
0
100
AcDbSymbolTable
 70
     1
100
AcDbDimStyleTable
 71
     1
340
F71F
  0
DIMSTYLE
105
F71F
102
{ACAD_REACTORS
330
164EB
330
164F2
330
164F7
330
164F9
330
164FA
330
164FB
330
1650E
330
1650F
330
16510
330
16528
330
1652B
330
16556
330
16557
330
16558
330
16DEC
330
16E18
330
16E19
330
16E1A
330
16E27
330
16E36
330
16ED4
330
16ED5
330
16ED6
330
16ED7
330
16FBA
330
16FBD
330
16FBE
330
16FBF
330
178C8
330
178CB
330
17BE0
330
17BE1
330
17BE2
102
}
330
746F
100
AcDbSymbolTableRecord
100
AcDbDimStyleTableRecord
  2
INABA_S40G
 70
     0
 40
40.0
 41
2.5
 42
0.5
 43
7.0
 44
1.5
 73
     0
 74
     0
 77
     3
 78
     8
140
3.0
141
0.0
143
0.0394
147
1.0
172
     1
173
     1
174
     1
178
     7
271
     1
340
F706
341
F770
343
F770
344
F770
  0
ENDTAB
  0
TABLE
  2
BLOCK_RECORD
  5
7466
330
0
100
AcDbSymbolTable
 70
    34
  0
BLOCK_RECORD
  5
747D
330
7466
100
AcDbSymbolTableRecord
100
AcDbBlockTableRecord
  2
*MODEL_SPACE
340
1698E
  0
BLOCK_RECORD
  5
747A
330
7466
100
AcDbSymbolTableRecord
100
AcDbBlockTableRecord
  2
*PAPER_SPACE
340
1698F
  0
BLOCK_RECORD
  5
F770
330
7466
100
AcDbSymbolTableRecord
100
AcDbBlockTableRecord
  2
_DOTSMALL
340
0
102
{BLKREFS
331
16700
331
16701
331
1670B
331
1670C
331
1665F
331
16660
331
1666A
331
1666B
331
16677
331
16678
331
16686
331
16687
331
16694
331
16695
331
166A0
331
166A1
331
166AD
331
166AE
331
166D2
331
166D3
331
166EA
331
166EB
331
172DE
331
172DF
331
172E8
331
172E9
331
172F3
331
172F4
331
172FC
331
172FD
331
1732D
331
1732E
331
17338
331
17339
331
17372
331
17373
331
1737C
331
1737D
331
17390
331
17391
331
173A2
331
173A3
331
17A43
331
17A44
331
17A4C
331
17A4D
331
17A61
331
17A62
331
17A6C
331
17A6D
331
17A75
331
17A76
331
17D19
331
17D1A
331
17FDC
331
17FDD
331
17FE5
331
17FE6
331
18003
331
18004
331
1800C
331
1800D
331
18028
331
18029
331
18034
331
18035
102
}
  0
BLOCK_RECORD
  5
1655F
330
7466
100
AcDbSymbolTableRecord
100
AcDbBlockTableRecord
  2
*D1
340
0
  0
BLOCK_RECORD
  5
1656B
330
7466
100
AcDbSymbolTableRecord
100
AcDbBlockTableRecord
  2
*D2
340
0
  0
BLOCK_RECORD
  5
1658F
330
7466
100
AcDbSymbolTableRecord
100
AcDbBlockTableRecord
  2
*D3
340
0
  0
BLOCK_RECORD
  5
1659A
330
7466
100
AcDbSymbolTableRecord
100
AcDbBlockTableRecord
  2
*D4
340
0
  0
BLOCK_RECORD
  5
165A6
330
7466
100
AcDbSymbolTableRecord
100
AcDbBlockTableRecord
  2
*D5
340
0
  0
BLOCK_RECORD
  5
165B4
330
7466
100
AcDbSymbolTableRecord
100
AcDbBlockTableRecord
  2
*D6
340
0
  0
BLOCK_RECORD
  5
165C3
330
7466
100
AcDbSymbolTableRecord
100
AcDbBlockTableRecord
  2
*D7
340
0
  0
BLOCK_RECORD
  5
165D2
330
7466
100
AcDbSymbolTableRecord
100
AcDbBlockTableRecord
  2
*D8
340
0
  0
BLOCK_RECORD
  5
165E0
330
7466
100
AcDbSymbolTableRecord
100
AcDbBlockTableRecord
  2
*D9
340
0
  0
BLOCK_RECORD
  5
165EE
330
7466
100
AcDbSymbolTableRecord
100
AcDbBlockTableRecord
  2
*D10
340
0
  0
BLOCK_RECORD
  5
165FA
330
7466
100
AcDbSymbolTableRecord
100
AcDbBlockTableRecord
  2
*D11
340
0
  0
BLOCK_RECORD
  5
16608
330
7466
100
AcDbSymbolTableRecord
100
AcDbBlockTableRecord
  2
*D12
340
0
  0
BLOCK_RECORD
  5
16616
330
7466
100
AcDbSymbolTableRecord
100
AcDbBlockTableRecord
  2
*D13
340
0
  0
BLOCK_RECORD
  5
16624
330
7466
100
AcDbSymbolTableRecord
100
AcDbBlockTableRecord
  2
*D14
340
0
  0
BLOCK_RECORD
  5
16FD2
330
7466
100
AcDbSymbolTableRecord
100
AcDbBlockTableRecord
  2
*D15
340
0
  0
BLOCK_RECORD
  5
16FDE
330
7466
100
AcDbSymbolTableRecord
100
AcDbBlockTableRecord
  2
*D16
340
0
  0
BLOCK_RECORD
  5
16FEA
330
7466
100
AcDbSymbolTableRecord
100
AcDbBlockTableRecord
  2
*D17
340
0
  0
BLOCK_RECORD
  5
16FF8
330
7466
100
AcDbSymbolTableRecord
100
AcDbBlockTableRecord
  2
*D18
340
0
  0
BLOCK_RECORD
  5
17004
330
7466
100
AcDbSymbolTableRecord
100
AcDbBlockTableRecord
  2
*D19
340
0
  0
BLOCK_RECORD
  5
17011
330
7466
100
AcDbSymbolTableRecord
100
AcDbBlockTableRecord
  2
*D20
340
0
  0
BLOCK_RECORD
  5
17051
330
7466
100
AcDbSymbolTableRecord
100
AcDbBlockTableRecord
  2
*D21
340
0
  0
BLOCK_RECORD
  5
1705D
330
7466
100
AcDbSymbolTableRecord
100
AcDbBlockTableRecord
  2
*D22
340
0
  0
BLOCK_RECORD
  5
1706B
330
7466
100
AcDbSymbolTableRecord
100
AcDbBlockTableRecord
  2
*D23
340
0
  0
BLOCK_RECORD
  5
17079
330
7466
100
AcDbSymbolTableRecord
100
AcDbBlockTableRecord
  2
*D24
340
0
  0
BLOCK_RECORD
  5
17156
330
7466
100
AcDbSymbolTableRecord
100
AcDbBlockTableRecord
  2
*D25
340
0
  0
BLOCK_RECORD
  5
17162
330
7466
100
AcDbSymbolTableRecord
100
AcDbBlockTableRecord
  2
*D26
340
0
  0
BLOCK_RECORD
  5
17170
330
7466
100
AcDbSymbolTableRecord
100
AcDbBlockTableRecord
  2
*D27
340
0
  0
BLOCK_RECORD
  5
1717D
330
7466
100
AcDbSymbolTableRecord
100
AcDbBlockTableRecord
  2
*D28
340
0
  0
BLOCK_RECORD
  5
17971
330
7466
100
AcDbSymbolTableRecord
100
AcDbBlockTableRecord
  2
*D29
340
0
  0
BLOCK_RECORD
  5
1797D
330
7466
100
AcDbSymbolTableRecord
100
AcDbBlockTableRecord
  2
*D30
340
0
  0
BLOCK_RECORD
  5
17C4B
330
7466
100
AcDbSymbolTableRecord
100
AcDbBlockTableRecord
  2
*D31
340
0
  0
BLOCK_RECORD
  5
17C57
330
7466
100
AcDbSymbolTableRecord
100
AcDbBlockTableRecord
  2
*D32
340
0
  0
BLOCK_RECORD
  5
17C65
330
7466
100
AcDbSymbolTableRecord
100
AcDbBlockTableRecord
  2
*D33
340
0
  0
ENDTAB
  0
ENDSEC
  0
SECTION
  2
BLOCKS
  0
BLOCK
  5
7489
330
747D
100
AcDbEntity
  8
0
100
AcDbBlockBegin
  2
*MODEL_SPACE
 70
     0
 10
0.0
 20
0.0
 30
0.0
  3
*MODEL_SPACE
  1

  0
ENDBLK
  5
748A
330
747D
100
AcDbEntity
  8
0
100
AcDbBlockEnd
  0
BLOCK
  5
7487
330
747A
100
AcDbEntity
 67
     1
  8
0
100
AcDbBlockBegin
  2
*PAPER_SPACE
 70
     0
 10
0.0
 20
0.0
 30
0.0
  3
*PAPER_SPACE
  1

  0
ENDBLK
  5
7488
330
747A
100
AcDbEntity
 67
     1
  8
0
100
AcDbBlockEnd
  0
BLOCK
  5
F771
330
F770
100
AcDbEntity
  8
0
 48
50.0
100
AcDbBlockBegin
  2
_DOTSMALL
 70
     0
 10
0.0
 20
0.0
 30
0.0
  3
_DOTSMALL
  1

  0
LWPOLYLINE
  5
F772
330
F770
100
AcDbEntity
  8
0
  6
ByBlock
 62
     0
 48
50.0
100
AcDbPolyline
 90
        2
 70
     1
 43
0.5
 10
-0.0625
 20
0.0
 42
1.0
 10
0.0625
 20
0.0
 42
1.0
  0
ENDBLK
  5
F776
330
F770
100
AcDbEntity
  8
0
 48
50.0
100
AcDbBlockEnd
  0
BLOCK
  5
166FC
330
1655F
100
AcDbEntity
  8
0
 48
50.0
100
AcDbBlockBegin
  2
*D1
 70
     1
 10
0.0
 20
0.0
 30
0.0
  3
*D1
  1

  0
LINE
  5
166FD
330
1655F
100
AcDbEntity
  8
0
  6
ByBlock
 62
     0
 48
50.0
100
AcDbLine
 10
7394.673057123664
 20
10032.49742454593
 30
0.0
 11
8447.206344597709
 21
10032.49742454593
 31
0.0
  0
LINE
  5
166FE
330
1655F
100
AcDbEntity
  8
0
  6
ByBlock
 62
     0
 48
50.0
100
AcDbLine
 10
7394.673057123639
 20
6982.497424545923
 30
0.0
 11
8447.206344597709
 21
6982.497424545923
 31
0.0
  0
LINE
  5
166FF
330
1655F
100
AcDbEntity
  8
0
  6
ByBlock
 62
     0
 48
50.0
100
AcDbLine
 10
8387.206344597709
 20
10032.49742454593
 30
0.0
 11
8387.206344597709
 21
6982.497424545923
 31
0.0
  0
INSERT
  5
16700
330
1655F
100
AcDbEntity
  8
0
  6
ByBlock
 62
     0
 48
50.0
100
AcDbBlockReference
  2
_DOTSMALL
 10
8387.206344597709
 20
10032.49742454593
 30
0.0
 41
100.0
 42
100.0
 43
100.0
 50
90.0
  0
INSERT
  5
16701
330
1655F
100
AcDbEntity
  8
0
  6
ByBlock
 62
     0
 48
50.0
100
AcDbBlockReference
  2
_DOTSMALL
 10
8387.206344597709
 20
6982.497424545923
 30
0.0
 41
100.0
 42
100.0
 43
100.0
 50
270.0
  0
MTEXT
  5
16702
330
1655F
100
AcDbEntity
  8
0
  6
ByBlock
 62
     7
 48
50.0
100
AcDbMText
 10
8287.206344597709
 20
8507.497424545928
 30
0.0
 40
120.0
 41
0.0
 71
     5
 72
     1
  1
\A1;3050
  7
STYLE1
 11
0.0000000000000001
 21
1.0
 31
0.0
 73
     1
 44
1.0
1001
ACAD
1000
MTEXTBEGIN
1070
    73
1070
     1
1070
    44
1040
1.0
1070
    74
1070
     0
1000
MTEXTEND
  0
POINT
  5
16703
330
1655F
100
AcDbEntity
  8
DEFPOINTS
  6
ByBlock
 62
     0
 48
50.0
100
AcDbPoint
 10
7374.673057123664
 20
10032.49742454593
 30
0.0
  0
POINT
  5
16704
330
1655F
100
AcDbEntity
  8
DEFPOINTS
  6
ByBlock
 62
     0
 48
50.0
100
AcDbPoint
 10
7374.673057123638
 20
6982.497424545923
 30
0.0
  0
POINT
  5
16705
330
1655F
100
AcDbEntity
  8
DEFPOINTS
  6
ByBlock
 62
     0
 48
50.0
100
AcDbPoint
 10
8387.206344597709
 20
6982.497424545923
 30
0.0
  0
ENDBLK
  5
16706
330
1655F
100
AcDbEntity
  8
0
 48
50.0
100
AcDbBlockEnd
  0
BLOCK
  5
16707
330
1656B
100
AcDbEntity
  8
0
 48
50.0
100
AcDbBlockBegin
  2
*D2
 70
     1
 10
0.0
 20
0.0
 30
0.0
  3
*D2
  1

  0
LINE
  5
16708
330
1656B
100
AcDbEntity
  8
0
  6
ByBlock
 62
     0
 48
50.0
100
AcDbLine
 10
7394.673057123664
 20
9977.497424545935
 30
0.0
 11
8082.099402858075
 21
9977.497424545935
 31
0.0
  0
LINE
  5
16709
330
1656B
100
AcDbEntity
  8
0
  6
ByBlock
 62
     0
 48
50.0
100
AcDbLine
 10
7394.673057123639
 20
7037.49742454592
 30
0.0
 11
8082.099402858073
 21
7037.497424545918
 31
0.0
  0
LINE
  5
1670A
330
1656B
100
AcDbEntity
  8
0
  6
ByBlock
 62
     0
 48
50.0
100
AcDbLine
 10
8022.099402858072
 20
9977.497424545935
 30
0.0
 11
8022.099402858072
 21
7037.497424545918
 31
0.0
  0
INSERT
  5
1670B
330
1656B
100
AcDbEntity
  8
0
  6
ByBlock
 62
     0
 48
50.0
100
AcDbBlockReference
  2
_DOTSMALL
 10
8022.099402858072
 20
9977.497424545935
 30
0.0
 41
100.0
 42
100.0
 43
100.0
 50
90.0
  0
INSERT
  5
1670C
330
1656B
100
AcDbEntity
  8
0
  6
ByBlock
 62
     0
 48
50.0
100
AcDbBlockReference
  2
_DOTSMALL
 10
8022.099402858072
 20
7037.497424545918
 30
0.0
 41
100.0
 42
100.0
 43
100.0
 50
270.0
  0
MTEXT
  5
1670D
330
1656B
100
AcDbEntity
  8
0
  6
ByBlock
 62
     7
 48
50.0
100
AcDbMText
 10
7922.087591834451
 20
8507.497424545928
 30
0.0
 40
120.0
 41
0.0
 71
     5
 72
     1
  1
\A1;7X420=2940
  7
STYLE1
 11
0.0000000000000001
 21
1.0
 31
0.0
 73
     1
 44
1.0
1001
ACAD
1000
MTEXTBEGIN
1070
    73
1070
     1
1070
    44
1040
1.0
1070
    74
1070
     0
1000
MTEXTEND
  0
POINT
  5
1670E
330
1656B
100
AcDbEntity
  8
DEFPOINTS
  6
ByBlock
 62
     0
 48
50.0
100
AcDbPoint
 10
7374.673057123664
 20
9977.497424545935
 30
0.0
  0
POINT
  5
1670F
330
1656B
100
AcDbEntity
  8
DEFPOINTS
  6
ByBlock
 62
     0
 48
50.0
100
AcDbPoint
 10
7374.673057123638
 20
7037.49742454592
 30
0.0
  0
POINT
  5
16710
330
1656B
100
AcDbEntity
  8
DEFPOINTS
  6
ByBlock
 62
     0
 48
50.0
100
AcDbPoint
 10
8022.099402858072
 20
7037.497424545918
 30
0.0
  0
ENDBLK
  5
16711
330
1656B
100
AcDbEntity
  8
0
 48
50.0
100
AcDbBlockEnd
  0
BLOCK
  5
1665C
330
1658F
100
AcDbEntity
  8
0
 48
50.0
100
AcDbBlockBegin
  2
*D3
 70
     1
 10
0.0
 20
0.0
 30
0.0
  3
*D3
  1

  0
LINE
  5
1665D
330
1658F
100
AcDbEntity
  8
0
  6
ByBlock
 62
     0
 48
50.0
100
AcDbLine
 10
4427.673057123657
 20
6988.497424545832
 30
0.0
 11
4427.673057123657
 21
6388.066653779667
 31
0.0
  0
LINE
  5
1665E
330
1658F
100
AcDbEntity
  8
0
  6
ByBlock
 62
     0
 48
50.0
100
AcDbLine
 10
7271.673057123638
 20
6448.066653779668
 30
0.0
 11
4427.673057123657
 21
6448.066653779668
 31
0.0
  0
INSERT
  5
1665F
330
1658F
100
AcDbEntity
  8
0
  6
ByBlock
 62
     0
 48
50.0
100
AcDbBlockReference
  2
_DOTSMALL
 10
7271.673057123638
 20
6448.066653779668
 30
0.0
 41
100.0
 42
100.0
 43
100.0
  0
INSERT
  5
16660
330
1658F
100
AcDbEntity
  8
0
  6
ByBlock
 62
     0
 48
50.0
100
AcDbBlockReference
  2
_DOTSMALL
 10
4427.673057123657
 20
6448.066653779668
 30
0.0
 41
100.0
 42
100.0
 43
100.0
 50
180.0
  0
MTEXT
  5
16661
330
1658F
100
AcDbEntity
  8
0
  6
ByBlock
 62
     7
 48
50.0
100
AcDbMText
 10
5849.673057123648
 20
6548.078464803289
 30
0.0
 40
120.0
 41
0.0
 71
     5
 72
     1
  1
\A1;有効開口部間口 2844
  7
STYLE1
 73
     1
 44
1.0
1001
ACAD
1000
MTEXTBEGIN
1070
    73
1070
     1
1070
    44
1040
1.0
1070
    74
1070
     0
1000
MTEXTEND
  0
POINT
  5
16662
330
1658F
100
AcDbEntity
  8
DEFPOINTS
  6
ByBlock
 62
     0
 48
50.0
100
AcDbPoint
 10
7271.673057123638
 20
7008.497424545833
 30
0.0
  0
POINT
  5
16663
330
1658F
100
AcDbEntity
  8
DEFPOINTS
  6
ByBlock
 62
     0
 48
50.0
100
AcDbPoint
 10
4427.673057123657
 20
7008.497424545831
 30
0.0
  0
POINT
  5
16664
330
1658F
100
AcDbEntity
  8
DEFPOINTS
  6
ByBlock
 62
     0
 48
50.0
100
AcDbPoint
 10
4427.673057123657
 20
6448.066653779668
 30
0.0
  0
ENDBLK
  5
16665
330
1658F
100
AcDbEntity
  8
0
 48
50.0
100
AcDbBlockEnd
  0
BLOCK
  5
16666
330
1659A
100
AcDbEntity
  8
0
 48
50.0
100
AcDbBlockBegin
  2
*D4
 70
     1
 10
0.0
 20
0.0
 30
0.0
  3
*D4
  1

  0
LINE
  5
16667
330
1659A
100
AcDbEntity
  8
0
  6
ByBlock
 62
     0
 48
50.0
100
AcDbLine
 10
4324.673057123656
 20
6962.497424545759
 30
0.0
 11
4324.673057123656
 21
6101.893658188794
 31
0.0
  0
LINE
  5
16668
330
1659A
100
AcDbEntity
  8
0
  6
ByBlock
 62
     0
 48
50.0
100
AcDbLine
 10
7374.673057123638
 20
6962.497424545887
 30
0.0
 11
7374.673057123638
 21
6101.893658188794
 31
0.0
  0
LINE
  5
16669
330
1659A
100
AcDbEntity
  8
0
  6
ByBlock
 62
     0
 48
50.0
100
AcDbLine
 10
4324.673057123656
 20
6161.893658188794
 30
0.0
 11
7374.673057123638
 21
6161.893658188794
 31
0.0
  0
INSERT
  5
1666A
330
1659A
100
AcDbEntity
  8
0
  6
ByBlock
 62
     0
 48
50.0
100
AcDbBlockReference
  2
_DOTSMALL
 10
4324.673057123656
 20
6161.893658188794
 30
0.0
 41
100.0
 42
100.0
 43
100.0
 50
180.0
  0
INSERT
  5
1666B
330
1659A
100
AcDbEntity
  8
0
  6
ByBlock
 62
     0
 48
50.0
100
AcDbBlockReference
  2
_DOTSMALL
 10
7374.673057123638
 20
6161.893658188794
 30
0.0
 41
100.0
 42
100.0
 43
100.0
  0
MTEXT
  5
1666C
330
1659A
100
AcDbEntity
  8
0
  6
ByBlock
 62
     7
 48
50.0
100
AcDbMText
 10
5849.673057123648
 20
6261.893658188793
 30
0.0
 40
120.0
 41
0.0
 71
     5
 72
     1
  1
\A1;3050
  7
STYLE1
 73
     1
 44
1.0
1001
ACAD
1000
MTEXTBEGIN
1070
    73
1070
     1
1070
    44
1040
1.0
1070
    74
1070
     0
1000
MTEXTEND
  0
POINT
  5
1666D
330
1659A
100
AcDbEntity
  8
DEFPOINTS
  6
ByBlock
 62
     0
 48
50.0
100
AcDbPoint
 10
4324.673057123656
 20
6982.497424545759
 30
0.0
  0
POINT
  5
1666E
330
1659A
100
AcDbEntity
  8
DEFPOINTS
  6
ByBlock
 62
     0
 48
50.0
100
AcDbPoint
 10
7374.673057123638
 20
6982.497424545887
 30
0.0
  0
POINT
  5
1666F
330
1659A
100
AcDbEntity
  8
DEFPOINTS
  6
ByBlock
 62
     0
 48
50.0
100
AcDbPoint
 10
7374.673057123638
 20
6161.893658188794
 30
0.0
  0
ENDBLK
  5
16670
330
1659A
100
AcDbEntity
  8
0
 48
50.0
100
AcDbBlockEnd
  0
BLOCK
  5
16671
330
165A6
100
AcDbEntity
  8
0
 48
50.0
100
AcDbBlockBegin
  2
*D5
 70
     1
 10
0.0
 20
0.0
 30
0.0
  3
*D5
  1

  0
LINE
  5
16672
330
165A6
100
AcDbEntity
  8
0
  6
ByBlock
 62
     0
 48
50.0
100
AcDbLine
 10
4379.673057123652
 20
6962.497424545832
 30
0.0
 11
4379.673057123652
 21
6388.066653779667
 31
0.0
  0
LINE
  5
16673
330
165A6
100
AcDbEntity
  8
0
  6
ByBlock
 62
     0
 48
50.0
100
AcDbLine
 10
4324.673057123656
 20
6962.497424545829
 30
0.0
 11
4324.673057123656
 21
6388.066653779667
 31
0.0
  0
LINE
  5
16674
330
165A6
100
AcDbEntity
  8
0
  6
ByBlock
 62
     0
 48
50.0
100
AcDbLine
 10
4379.673057123652
 20
6448.066653779668
 30
0.0
 11
4479.673057123653
 21
6448.066653779668
 31
0.0
  0
LINE
  5
16675
330
165A6
100
AcDbEntity
  8
0
  6
ByBlock
 62
     0
 48
50.0
100
AcDbLine
 10
4324.673057123656
 20
6448.066653779668
 30
0.0
 11
3907.702494375179
 21
6448.066653779668
 31
0.0
  0
LINE
  5
16676
330
165A6
100
AcDbEntity
  8
0
  6
ByBlock
 62
     0
 48
50.0
100
AcDbLine
 10
4379.673057123652
 20
6448.066653779668
 30
0.0
 11
4324.673057123656
 21
6448.066653779668
 31
0.0
  0
INSERT
  5
16677
330
165A6
100
AcDbEntity
  8
0
  6
ByBlock
 62
     0
 48
50.0
100
AcDbBlockReference
  2
_DOTSMALL
 10
4379.673057123652
 20
6448.066653779668
 30
0.0
 41
100.0
 42
100.0
 43
100.0
 50
180.0
  0
INSERT
  5
16678
330
165A6
100
AcDbEntity
  8
0
  6
ByBlock
 62
     0
 48
50.0
100
AcDbBlockReference
  2
_DOTSMALL
 10
4324.673057123656
 20
6448.066653779668
 30
0.0
 41
100.0
 42
100.0
 43
100.0
  0
MTEXT
  5
16679
330
165A6
100
AcDbEntity
  8
0
  6
ByBlock
 62
     7
 48
50.0
100
AcDbMText
 10
4016.187775749417
 20
6548.066653779668
 30
0.0
 40
120.0
 41
0.0
 71
     5
 72
     1
  1
\A1;55
  7
STYLE1
 73
     1
 44
1.0
1001
ACAD
1000
MTEXTBEGIN
1070
    73
1070
     1
1070
    44
1040
1.0
1070
    74
1070
     0
1000
MTEXTEND
  0
POINT
  5
1667A
330
165A6
100
AcDbEntity
  8
DEFPOINTS
  6
ByBlock
 62
     0
 48
50.0
100
AcDbPoint
 10
4379.673057123652
 20
6982.497424545832
 30
0.0
  0
POINT
  5
1667B
330
165A6
100
AcDbEntity
  8
DEFPOINTS
  6
ByBlock
 62
     0
 48
50.0
100
AcDbPoint
 10
4324.673057123656
 20
6982.49742454583
 30
0.0
  0
POINT
  5
1667C
330
165A6
100
AcDbEntity
  8
DEFPOINTS
  6
ByBlock
 62
     0
 48
50.0
100
AcDbPoint
 10
4324.673057123656
 20
6448.066653779668
 30
0.0
  0
ENDBLK
  5
1667D
330
165A6
100
AcDbEntity
  8
0
 48
50.0
100
AcDbBlockEnd
  0
BLOCK
  5
1667E
330
165B4
100
AcDbEntity
  8
0
 48
50.0
100
AcDbBlockBegin
  2
*D6
 70
     1
 10
0.0
 20
0.0
 30
0.0
  3
*D6
  1

  0
LINE
  5
1667F
330
165B4
100
AcDbEntity
  8
0
  6
ByBlock
 62
     0
 48
50.0
100
AcDbLine
 10
4427.673057123657
 20
6988.497424545832
 30
0.0
 11
4427.673057123657
 21
6388.066653779667
 31
0.0
  0
LINE
  5
16680
330
165B4
100
AcDbEntity
  8
0
  6
ByBlock
 62
     0
 48
50.0
100
AcDbLine
 10
4379.673057123652
 20
6962.497424545832
 30
0.0
 11
4379.673057123652
 21
6388.066653779667
 31
0.0
  0
LINE
  5
16681
330
165B4
100
AcDbEntity
  8
0
  6
ByBlock
 62
     0
 48
50.0
100
AcDbLine
 10
4427.673057123657
 20
6448.066653779668
 30
0.0
 11
4527.673057123656
 21
6448.066653779668
 31
0.0
  0
LINE
  5
16682
330
165B4
100
AcDbEntity
  8
0
  6
ByBlock
 62
     0
 48
50.0
100
AcDbLine
 10
4379.673057123652
 20
6448.066653779668
 30
0.0
 11
4279.673057123653
 21
6448.066653779668
 31
0.0
  0
MTEXT
  5
16683
330
165B4
100
AcDbEntity
  8
0
  6
ByBlock
 62
     7
 48
50.0
100
AcDbMText
 10
4540.575028123714
 20
6548.066653779668
 30
0.0
 40
120.0
 41
0.0
 71
     5
 72
     1
  1
\A1;48
  7
STYLE1
 73
     1
 44
1.0
1001
ACAD
1000
MTEXTBEGIN
1070
    73
1070
     1
1070
    44
1040
1.0
1070
    74
1070
     0
1000
MTEXTEND
  0
LINE
  5
16684
330
165B4
100
AcDbEntity
  8
0
  6
ByBlock
 62
     0
 48
50.0
100
AcDbLine
 10
4427.673057123657
 20
6448.066653779668
 30
0.0
 11
4379.673057123652
 21
6448.066653779668
 31
0.0
  0
LINE
  5
16685
330
165B4
100
AcDbEntity
  8
0
  6
ByBlock
 62
     0
 48
50.0
100
AcDbLine
 10
4427.673057123657
 20
6448.066653779668
 30
0.0
 11
4379.673057123652
 21
6448.066653779668
 31
0.0
  0
INSERT
  5
16686
330
165B4
100
AcDbEntity
  8
0
  6
ByBlock
 62
     0
 48
50.0
100
AcDbBlockReference
  2
_DOTSMALL
 10
4427.673057123657
 20
6448.066653779668
 30
0.0
 41
100.0
 42
100.0
 43
100.0
 50
180.0
  0
INSERT
  5
16687
330
165B4
100
AcDbEntity
  8
0
  6
ByBlock
 62
     0
 48
50.0
100
AcDbBlockReference
  2
_DOTSMALL
 10
4379.673057123652
 20
6448.066653779668
 30
0.0
 41
100.0
 42
100.0
 43
100.0
  0
POINT
  5
16688
330
165B4
100
AcDbEntity
  8
DEFPOINTS
  6
ByBlock
 62
     0
 48
50.0
100
AcDbPoint
 10
4427.673057123657
 20
7008.497424545831
 30
0.0
  0
POINT
  5
16689
330
165B4
100
AcDbEntity
  8
DEFPOINTS
  6
ByBlock
 62
     0
 48
50.0
100
AcDbPoint
 10
4379.673057123652
 20
6982.497424545832
 30
0.0
  0
POINT
  5
1668A
330
165B4
100
AcDbEntity
  8
DEFPOINTS
  6
ByBlock
 62
     0
 48
50.0
100
AcDbPoint
 10
4379.673057123652
 20
6448.066653779668
 30
0.0
  0
ENDBLK
  5
1668B
330
165B4
100
AcDbEntity
  8
0
 48
50.0
100
AcDbBlockEnd
  0
BLOCK
  5
1668C
330
165C3
100
AcDbEntity
  8
0
 48
50.0
100
AcDbBlockBegin
  2
*D7
 70
     1
 10
0.0
 20
0.0
 30
0.0
  3
*D7
  1

  0
LINE
  5
1668D
330
165C3
100
AcDbEntity
  8
0
  6
ByBlock
 62
     0
 48
50.0
100
AcDbLine
 10
7319.67305712364
 20
6962.49742454592
 30
0.0
 11
7319.67305712364
 21
6388.066653779667
 31
0.0
  0
LINE
  5
1668E
330
165C3
100
AcDbEntity
  8
0
  6
ByBlock
 62
     0
 48
50.0
100
AcDbLine
 10
7271.673057123638
 20
6988.497424545832
 30
0.0
 11
7271.673057123638
 21
6388.066653779667
 31
0.0
  0
LINE
  5
1668F
330
165C3
100
AcDbEntity
  8
0
  6
ByBlock
 62
     0
 48
50.0
100
AcDbLine
 10
7319.67305712364
 20
6448.066653779668
 30
0.0
 11
7419.67305712364
 21
6448.066653779668
 31
0.0
  0
LINE
  5
16690
330
165C3
100
AcDbEntity
  8
0
  6
ByBlock
 62
     0
 48
50.0
100
AcDbLine
 10
7271.673057123638
 20
6448.066653779668
 30
0.0
 11
7171.673057123638
 21
6448.066653779668
 31
0.0
  0
MTEXT
  5
16691
330
165C3
100
AcDbEntity
  8
0
  6
ByBlock
 62
     7
 48
50.0
100
AcDbMText
 10
7160.710159474891
 20
6548.066653779668
 30
0.0
 40
120.0
 41
0.0
 71
     5
 72
     1
  1
\A1;48
  7
STYLE1
 73
     1
 44
1.0
1001
ACAD
1000
MTEXTBEGIN
1070
    73
1070
     1
1070
    44
1040
1.0
1070
    74
1070
     0
1000
MTEXTEND
  0
LINE
  5
16692
330
165C3
100
AcDbEntity
  8
0
  6
ByBlock
 62
     0
 48
50.0
100
AcDbLine
 10
7319.67305712364
 20
6448.066653779668
 30
0.0
 11
7271.673057123638
 21
6448.066653779668
 31
0.0
  0
LINE
  5
16693
330
165C3
100
AcDbEntity
  8
0
  6
ByBlock
 62
     0
 48
50.0
100
AcDbLine
 10
7319.67305712364
 20
6448.066653779668
 30
0.0
 11
7271.673057123638
 21
6448.066653779668
 31
0.0
  0
INSERT
  5
16694
330
165C3
100
AcDbEntity
  8
0
  6
ByBlock
 62
     0
 48
50.0
100
AcDbBlockReference
  2
_DOTSMALL
 10
7319.67305712364
 20
6448.066653779668
 30
0.0
 41
100.0
 42
100.0
 43
100.0
 50
180.0
  0
INSERT
  5
16695
330
165C3
100
AcDbEntity
  8
0
  6
ByBlock
 62
     0
 48
50.0
100
AcDbBlockReference
  2
_DOTSMALL
 10
7271.673057123638
 20
6448.066653779668
 30
0.0
 41
100.0
 42
100.0
 43
100.0
  0
POINT
  5
16696
330
165C3
100
AcDbEntity
  8
DEFPOINTS
  6
ByBlock
 62
     0
 48
50.0
100
AcDbPoint
 10
7319.67305712364
 20
6982.49742454592
 30
0.0
  0
POINT
  5
16697
330
165C3
100
AcDbEntity
  8
DEFPOINTS
  6
ByBlock
 62
     0
 48
50.0
100
AcDbPoint
 10
7271.673057123638
 20
7008.497424545833
 30
0.0
  0
POINT
  5
16698
330
165C3
100
AcDbEntity
  8
DEFPOINTS
  6
ByBlock
 62
     0
 48
50.0
100
AcDbPoint
 10
7271.673057123638
 20
6448.066653779668
 30
0.0
  0
ENDBLK
  5
16699
330
165C3
100
AcDbEntity
  8
0
 48
50.0
100
AcDbBlockEnd
  0
BLOCK
  5
1669A
330
165D2
100
AcDbEntity
  8
0
 48
50.0
100
AcDbBlockBegin
  2
*D8
 70
     1
 10
0.0
 20
0.0
 30
0.0
  3
*D8
  1

  0
LINE
  5
1669B
330
165D2
100
AcDbEntity
  8
0
  6
ByBlock
 62
     0
 48
50.0
100
AcDbLine
 10
7374.673057123638
 20
6962.497424545924
 30
0.0
 11
7374.673057123638
 21
6388.066653779669
 31
0.0
  0
LINE
  5
1669C
330
165D2
100
AcDbEntity
  8
0
  6
ByBlock
 62
     0
 48
50.0
100
AcDbLine
 10
7319.67305712364
 20
6962.49742454592
 30
0.0
 11
7319.67305712364
 21
6388.066653779669
 31
0.0
  0
LINE
  5
1669D
330
165D2
100
AcDbEntity
  8
0
  6
ByBlock
 62
     0
 48
50.0
100
AcDbLine
 10
7319.67305712364
 20
6448.066653779669
 30
0.0
 11
7219.67305712364
 21
6448.066653779669
 31
0.0
  0
LINE
  5
1669E
330
165D2
100
AcDbEntity
  8
0
  6
ByBlock
 62
     0
 48
50.0
100
AcDbLine
 10
7374.673057123638
 20
6448.066653779669
 30
0.0
 11
7791.643619872115
 21
6448.066653779669
 31
0.0
  0
LINE
  5
1669F
330
165D2
100
AcDbEntity
  8
0
  6
ByBlock
 62
     0
 48
50.0
100
AcDbLine
 10
7319.67305712364
 20
6448.066653779669
 30
0.0
 11
7374.673057123638
 21
6448.066653779669
 31
0.0
  0
INSERT
  5
166A0
330
165D2
100
AcDbEntity
  8
0
  6
ByBlock
 62
     0
 48
50.0
100
AcDbBlockReference
  2
_DOTSMALL
 10
7319.67305712364
 20
6448.066653779669
 30
0.0
 41
100.0
 42
100.0
 43
100.0
  0
INSERT
  5
166A1
330
165D2
100
AcDbEntity
  8
0
  6
ByBlock
 62
     0
 48
50.0
100
AcDbBlockReference
  2
_DOTSMALL
 10
7374.673057123638
 20
6448.066653779669
 30
0.0
 41
100.0
 42
100.0
 43
100.0
 50
180.0
  0
MTEXT
  5
166A2
330
165D2
100
AcDbEntity
  8
0
  6
ByBlock
 62
     7
 48
50.0
100
AcDbMText
 10
7683.158338497877
 20
6548.066653779669
 30
0.0
 40
120.0
 41
0.0
 71
     5
 72
     1
  1
\A1;55
  7
STYLE1
 73
     1
 44
1.0
1001
ACAD
1000
MTEXTBEGIN
1070
    73
1070
     1
1070
    44
1040
1.0
1070
    74
1070
     0
1000
MTEXTEND
  0
POINT
  5
166A3
330
165D2
100
AcDbEntity
  8
DEFPOINTS
  6
ByBlock
 62
     0
 48
50.0
100
AcDbPoint
 10
7374.673057123638
 20
6982.497424545923
 30
0.0
  0
POINT
  5
166A4
330
165D2
100
AcDbEntity
  8
DEFPOINTS
  6
ByBlock
 62
     0
 48
50.0
100
AcDbPoint
 10
7319.67305712364
 20
6982.49742454592
 30
0.0
  0
POINT
  5
166A5
330
165D2
100
AcDbEntity
  8
DEFPOINTS
  6
ByBlock
 62
     0
 48
50.0
100
AcDbPoint
 10
7319.67305712364
 20
6448.066653779669
 30
0.0
  0
ENDBLK
  5
166A6
330
165D2
100
AcDbEntity
  8
0
 48
50.0
100
AcDbBlockEnd
  0
BLOCK
  5
166A7
330
165E0
100
AcDbEntity
  8
0
 48
50.0
100
AcDbBlockBegin
  2
*D9
 70
     1
 10
0.0
 20
0.0
 30
0.0
  3
*D9
  1

  0
LINE
  5
166A8
330
165E0
100
AcDbEntity
  8
0
  6
ByBlock
 62
     0
 48
50.0
100
AcDbLine
 10
7394.673057123639
 20
7037.49742454592
 30
0.0
 11
8082.099402858048
 21
7037.497424545918
 31
0.0
  0
LINE
  5
166A9
330
165E0
100
AcDbEntity
  8
0
  6
ByBlock
 62
     0
 48
50.0
100
AcDbLine
 10
7394.673057123639
 20
6982.497424545923
 30
0.0
 11
8082.099402858048
 21
6982.497424545923
 31
0.0
  0
LINE
  5
166AA
330
165E0
100
AcDbEntity
  8
0
  6
ByBlock
 62
     0
 48
50.0
100
AcDbLine
 10
8022.099402858048
 20
7037.497424545918
 30
0.0
 11
8022.099402858048
 21
7137.497424545919
 31
0.0
  0
LINE
  5
166AB
330
165E0
100
AcDbEntity
  8
0
  6
ByBlock
 62
     0
 48
50.0
100
AcDbLine
 10
8022.099402858048
 20
6982.497424545923
 30
0.0
 11
8022.099402858048
 21
6496.150676266822
 31
0.0
  0
LINE
  5
166AC
330
165E0
100
AcDbEntity
  8
0
  6
ByBlock
 62
     0
 48
50.0
100
AcDbLine
 10
8022.099402858048
 20
7037.497424545918
 30
0.0
 11
8022.099402858048
 21
6982.497424545923
 31
0.0
  0
INSERT
  5
166AD
330
165E0
100
AcDbEntity
  8
0
  6
ByBlock
 62
     0
 48
50.0
100
AcDbBlockReference
  2
_DOTSMALL
 10
8022.099402858048
 20
7037.497424545918
 30
0.0
 41
100.0
 42
100.0
 43
100.0
 50
270.0
  0
INSERT
  5
166AE
330
165E0
100
AcDbEntity
  8
0
  6
ByBlock
 62
     0
 48
50.0
100
AcDbBlockReference
  2
_DOTSMALL
 10
8022.099402858048
 20
6982.497424545923
 30
0.0
 41
100.0
 42
100.0
 43
100.0
 50
90.0
  0
MTEXT
  5
166AF
330
165E0
100
AcDbEntity
  8
0
  6
ByBlock
 62
     7
 48
50.0
100
AcDbMText
 10
7922.099402858048
 20
6604.635957641061
 30
0.0
 40
120.0
 41
0.0
 71
     5
 72
     1
  1
\A1;55
  7
STYLE1
 11
0.0000000000000001
 21
1.0
 31
0.0
 73
     1
 44
1.0
1001
ACAD
1000
MTEXTBEGIN
1070
    73
1070
     1
1070
    44
1040
1.0
1070
    74
1070
     0
1000
MTEXTEND
  0
POINT
  5
166B0
330
165E0
100
AcDbEntity
  8
DEFPOINTS
  6
ByBlock
 62
     0
 48
50.0
100
AcDbPoint
 10
7374.673057123638
 20
7037.49742454592
 30
0.0
  0
POINT
  5
166B1
330
165E0
100
AcDbEntity
  8
DEFPOINTS
  6
ByBlock
 62
     0
 48
50.0
100
AcDbPoint
 10
7374.673057123638
 20
6982.497424545923
 30
0.0
  0
POINT
  5
166B2
330
165E0
100
AcDbEntity
  8
DEFPOINTS
  6
ByBlock
 62
     0
 48
50.0
100
AcDbPoint
 10
8022.099402858048
 20
6982.497424545923
 30
0.0
  0
ENDBLK
  5
166B3
330
165E0
100
AcDbEntity
  8
0
 48
50.0
100
AcDbBlockEnd
  0
BLOCK
  5
166B4
330
165EE
100
AcDbEntity
  8
0
 48
50.0
100
AcDbBlockBegin
  2
*D10
 70
     1
 10
0.0
 20
0.0
 30
0.0
  3
*D10
  1

  0
LINE
  5
17A72
330
165EE
100
AcDbEntity
  8
寸法
 62
     0
 48
50.0
370
    -2
100
AcDbLine
 10
4379.673057123663
 20
10052.49742454583
 30
0.0
 11
4379.673057123663
 21
10608.30564417093
 31
0.0
  0
LINE
  5
17A73
330
165EE
100
AcDbEntity
  8
寸法
 62
     0
 48
50.0
370
    -2
100
AcDbLine
 10
7319.673057123664
 20
10052.49742454593
 30
0.0
 11
7319.673057123664
 21
10608.30564417093
 31
0.0
  0
LINE
  5
17A74
330
165EE
100
AcDbEntity
  8
寸法
 62
     0
 48
50.0
370
    -2
100
AcDbLine
 10
4379.673057123663
 20
10548.30564417093
 30
0.0
 11
7319.673057123664
 21
10548.30564417093
 31
0.0
  0
INSERT
  5
17A75
330
165EE
100
AcDbEntity
  8
寸法
 62
     0
 48
50.0
370
    -2
100
AcDbBlockReference
  2
_DOTSMALL
 10
4379.673057123663
 20
10548.30564417093
 30
0.0
 41
100.0
 42
100.0
 43
100.0
 50
180.0
  0
INSERT
  5
17A76
330
165EE
100
AcDbEntity
  8
寸法
 62
     0
 48
50.0
370
    -2
100
AcDbBlockReference
  2
_DOTSMALL
 10
7319.673057123664
 20
10548.30564417093
 30
0.0
 41
100.0
 42
100.0
 43
100.0
  0
MTEXT
  5
17A77
330
165EE
100
AcDbEntity
  8
寸法
 62
     7
 48
50.0
100
AcDbMText
 10
5849.673057123664
 20
10648.31745519455
 30
0.0
 40
120.0
 41
0.0
 71
     5
 72
     1
  1
\A1;7X420=2940
  7
STYLE1
 73
     1
 44
1.0
1001
ACAD
1000
MTEXTBEGIN
1070
    73
1070
     1
1070
    44
1040
1.0
1070
    74
1070
     0
1000
MTEXTEND
  0
POINT
  5
17A78
330
165EE
100
AcDbEntity
  8
DEFPOINTS
 62
     0
 48
50.0
100
AcDbPoint
 10
4379.673057123663
 20
10032.49742454583
 30
0.0
  0
POINT
  5
17A79
330
165EE
100
AcDbEntity
  8
DEFPOINTS
 62
     0
 48
50.0
100
AcDbPoint
 10
7319.673057123664
 20
10032.49742454593
 30
0.0
  0
POINT
  5
17A7A
330
165EE
100
AcDbEntity
  8
DEFPOINTS
 62
     0
 48
50.0
100
AcDbPoint
 10
7319.673057123664
 20
10548.30564417093
 30
0.0
  0
ENDBLK
  5
166BE
330
165EE
100
AcDbEntity
  8
0
 48
50.0
100
AcDbBlockEnd
  0
BLOCK
  5
166BF
330
165FA
100
AcDbEntity
  8
0
 48
50.0
100
AcDbBlockBegin
  2
*D11
 70
     1
 10
0.0
 20
0.0
 30
0.0
  3
*D11
  1

  0
LINE
  5
17A67
330
165FA
100
AcDbEntity
  8
寸法
 62
     0
 48
50.0
370
    -2
100
AcDbLine
 10
4324.673057123628
 20
10052.49742454583
 30
0.0
 11
4324.673057123628
 21
10608.30564417082
 31
0.0
  0
LINE
  5
17A68
330
165FA
100
AcDbEntity
  8
寸法
 62
     0
 48
50.0
370
    -2
100
AcDbLine
 10
4379.673057123663
 20
10052.49742454583
 30
0.0
 11
4379.673057123663
 21
10608.30564417082
 31
0.0
  0
LINE
  5
17A69
330
165FA
100
AcDbEntity
  8
寸法
 62
     0
 48
50.0
370
    -2
100
AcDbLine
 10
4379.673057123663
 20
10548.30564417082
 30
0.0
 11
4479.673057123663
 21
10548.30564417082
 31
0.0
  0
LINE
  5
17A6A
330
165FA
100
AcDbEntity
  8
寸法
 62
     0
 48
50.0
370
    -2
100
AcDbLine
 10
4324.673057123628
 20
10548.30564417082
 30
0.0
 11
3907.702494375151
 21
10548.30564417082
 31
0.0
  0
LINE
  5
17A6B
330
165FA
100
AcDbEntity
  8
寸法
 62
     0
 48
50.0
370
    -2
100
AcDbLine
 10
4379.673057123663
 20
10548.30564417082
 30
0.0
 11
4324.673057123628
 21
10548.30564417082
 31
0.0
  0
INSERT
  5
17A6C
330
165FA
100
AcDbEntity
  8
寸法
 62
     0
 48
50.0
370
    -2
100
AcDbBlockReference
  2
_DOTSMALL
 10
4379.673057123663
 20
10548.30564417082
 30
0.0
 41
100.0
 42
100.0
 43
100.0
 50
180.0
  0
INSERT
  5
17A6D
330
165FA
100
AcDbEntity
  8
寸法
 62
     0
 48
50.0
370
    -2
100
AcDbBlockReference
  2
_DOTSMALL
 10
4324.673057123628
 20
10548.30564417082
 30
0.0
 41
100.0
 42
100.0
 43
100.0
  0
MTEXT
  5
17A6E
330
165FA
100
AcDbEntity
  8
寸法
 62
     7
 48
50.0
100
AcDbMText
 10
4016.187775749389
 20
10648.30564417082
 30
0.0
 40
120.0
 41
0.0
 71
     5
 72
     1
  1
\A1;55
  7
STYLE1
 73
     1
 44
1.0
1001
ACAD
1000
MTEXTBEGIN
1070
    73
1070
     1
1070
    44
1040
1.0
1070
    74
1070
     0
1000
MTEXTEND
  0
POINT
  5
17A6F
330
165FA
100
AcDbEntity
  8
DEFPOINTS
 62
     0
 48
50.0
100
AcDbPoint
 10
4324.673057123628
 20
10032.49742454583
 30
0.0
  0
POINT
  5
17A70
330
165FA
100
AcDbEntity
  8
DEFPOINTS
 62
     0
 48
50.0
100
AcDbPoint
 10
4379.673057123663
 20
10032.49742454583
 30
0.0
  0
POINT
  5
17A71
330
165FA
100
AcDbEntity
  8
DEFPOINTS
 62
     0
 48
50.0
100
AcDbPoint
 10
4379.673057123663
 20
10548.30564417082
 30
0.0
  0
ENDBLK
  5
166CB
330
165FA
100
AcDbEntity
  8
0
 48
50.0
100
AcDbBlockEnd
  0
BLOCK
  5
166CC
330
16608
100
AcDbEntity
  8
0
 48
50.0
100
AcDbBlockBegin
  2
*D12
 70
     1
 10
0.0
 20
0.0
 30
0.0
  3
*D12
  1

  0
LINE
  5
166CD
330
16608
100
AcDbEntity
  8
0
  6
ByBlock
 62
     0
 48
50.0
100
AcDbLine
 10
7394.673057123664
 20
10452.49742454593
 30
0.0
 11
8082.099402858075
 21
10452.49742454593
 31
0.0
  0
LINE
  5
166CE
330
16608
100
AcDbEntity
  8
0
  6
ByBlock
 62
     0
 48
50.0
100
AcDbLine
 10
7394.673057123664
 20
10397.49742454593
 30
0.0
 11
8082.099402858075
 21
10397.49742454593
 31
0.0
  0
LINE
  5
166CF
330
16608
100
AcDbEntity
  8
0
  6
ByBlock
 62
     0
 48
50.0
100
AcDbLine
 10
8022.099402858072
 20
10397.49742454593
 30
0.0
 11
8022.099402858072
 21
10297.49742454593
 31
0.0
  0
LINE
  5
166D0
330
16608
100
AcDbEntity
  8
0
  6
ByBlock
 62
     0
 48
50.0
100
AcDbLine
 10
8022.099402858072
 20
10452.49742454593
 30
0.0
 11
8022.099402858072
 21
10869.46798729441
 31
0.0
  0
LINE
  5
166D1
330
16608
100
AcDbEntity
  8
0
  6
ByBlock
 62
     0
 48
50.0
100
AcDbLine
 10
8022.099402858072
 20
10397.49742454593
 30
0.0
 11
8022.099402858072
 21
10452.49742454593
 31
0.0
  0
INSERT
  5
166D2
330
16608
100
AcDbEntity
  8
0
  6
ByBlock
 62
     0
 48
50.0
100
AcDbBlockReference
  2
_DOTSMALL
 10
8022.099402858072
 20
10397.49742454593
 30
0.0
 41
100.0
 42
100.0
 43
100.0
 50
90.0
  0
INSERT
  5
166D3
330
16608
100
AcDbEntity
  8
0
  6
ByBlock
 62
     0
 48
50.0
100
AcDbBlockReference
  2
_DOTSMALL
 10
8022.099402858072
 20
10452.49742454593
 30
0.0
 41
100.0
 42
100.0
 43
100.0
 50
270.0
  0
MTEXT
  5
166D4
330
16608
100
AcDbEntity
  8
0
  6
ByBlock
 62
     7
 48
50.0
100
AcDbMText
 10
7922.099402858073
 20
10760.98270592017
 30
0.0
 40
120.0
 41
0.0
 71
     5
 72
     1
  1
\A1;55
  7
STYLE1
 11
0.0000000000000001
 21
1.0
 31
0.0
 73
     1
 44
1.0
1001
ACAD
1000
MTEXTBEGIN
1070
    73
1070
     1
1070
    44
1040
1.0
1070
    74
1070
     0
1000
MTEXTEND
  0
POINT
  5
166D5
330
16608
100
AcDbEntity
  8
DEFPOINTS
  6
ByBlock
 62
     0
 48
50.0
100
AcDbPoint
 10
7374.673057123664
 20
10452.49742454593
 30
0.0
  0
POINT
  5
166D6
330
16608
100
AcDbEntity
  8
DEFPOINTS
  6
ByBlock
 62
     0
 48
50.0
100
AcDbPoint
 10
7374.673057123664
 20
10397.49742454593
 30
0.0
  0
POINT
  5
166D7
330
16608
100
AcDbEntity
  8
DEFPOINTS
  6
ByBlock
 62
     0
 48
50.0
100
AcDbPoint
 10
8022.099402858072
 20
10397.49742454593
 30
0.0
  0
ENDBLK
  5
166D8
330
16608
100
AcDbEntity
  8
0
 48
50.0
100
AcDbBlockEnd
  0
BLOCK
  5
166D9
330
16616
100
AcDbEntity
  8
0
 48
50.0
100
AcDbBlockBegin
  2
*D13
 70
     1
 10
0.0
 20
0.0
 30
0.0
  3
*D13
  1

  0
LINE
  5
17A5C
330
16616
100
AcDbEntity
  8
寸法
 62
     0
 48
50.0
370
    -2
100
AcDbLine
 10
7319.673057123664
 20
10052.49742454593
 30
0.0
 11
7319.673057123664
 21
10608.30564417091
 31
0.0
  0
LINE
  5
17A5D
330
16616
100
AcDbEntity
  8
寸法
 62
     0
 48
50.0
370
    -2
100
AcDbLine
 10
7374.673057123664
 20
10052.49742454593
 30
0.0
 11
7374.673057123664
 21
10608.30564417091
 31
0.0
  0
LINE
  5
17A5E
330
16616
100
AcDbEntity
  8
寸法
 62
     0
 48
50.0
370
    -2
100
AcDbLine
 10
7319.673057123664
 20
10548.30564417091
 30
0.0
 11
7219.673057123664
 21
10548.30564417091
 31
0.0
  0
LINE
  5
17A5F
330
16616
100
AcDbEntity
  8
寸法
 62
     0
 48
50.0
370
    -2
100
AcDbLine
 10
7374.673057123664
 20
10548.30564417091
 30
0.0
 11
7791.643619872141
 21
10548.30564417091
 31
0.0
  0
LINE
  5
17A60
330
16616
100
AcDbEntity
  8
寸法
 62
     0
 48
50.0
370
    -2
100
AcDbLine
 10
7319.673057123664
 20
10548.30564417091
 30
0.0
 11
7374.673057123664
 21
10548.30564417091
 31
0.0
  0
INSERT
  5
17A61
330
16616
100
AcDbEntity
  8
寸法
 62
     0
 48
50.0
370
    -2
100
AcDbBlockReference
  2
_DOTSMALL
 10
7319.673057123664
 20
10548.30564417091
 30
0.0
 41
100.0
 42
100.0
 43
100.0
  0
INSERT
  5
17A62
330
16616
100
AcDbEntity
  8
寸法
 62
     0
 48
50.0
370
    -2
100
AcDbBlockReference
  2
_DOTSMALL
 10
7374.673057123664
 20
10548.30564417091
 30
0.0
 41
100.0
 42
100.0
 43
100.0
 50
180.0
  0
MTEXT
  5
17A63
330
16616
100
AcDbEntity
  8
寸法
 62
     7
 48
50.0
100
AcDbMText
 10
7683.158338497903
 20
10648.30564417091
 30
0.0
 40
120.0
 41
0.0
 71
     5
 72
     1
  1
\A1;55
  7
STYLE1
 73
     1
 44
1.0
1001
ACAD
1000
MTEXTBEGIN
1070
    73
1070
     1
1070
    44
1040
1.0
1070
    74
1070
     0
1000
MTEXTEND
  0
POINT
  5
17A64
330
16616
100
AcDbEntity
  8
DEFPOINTS
 62
     0
 48
50.0
100
AcDbPoint
 10
7319.673057123664
 20
10032.49742454593
 30
0.0
  0
POINT
  5
17A65
330
16616
100
AcDbEntity
  8
DEFPOINTS
 62
     0
 48
50.0
100
AcDbPoint
 10
7374.673057123664
 20
10032.49742454593
 30
0.0
  0
POINT
  5
17A66
330
16616
100
AcDbEntity
  8
DEFPOINTS
 62
     0
 48
50.0
100
AcDbPoint
 10
7374.673057123664
 20
10548.30564417091
 30
0.0
  0
ENDBLK
  5
166E5
330
16616
100
AcDbEntity
  8
0
 48
50.0
100
AcDbBlockEnd
  0
BLOCK
  5
166E6
330
16624
100
AcDbEntity
  8
0
 48
50.0
100
AcDbBlockBegin
  2
*D14
 70
     1
 10
0.0
 20
0.0
 30
0.0
  3
*D14
  1

  0
LINE
  5
166E7
330
16624
100
AcDbEntity
  8
0
  6
ByBlock
 62
     0
 48
50.0
100
AcDbLine
 10
7366.173057123664
 20
10417.13844069731
 30
0.0
 11
7761.530782985689
 21
10311.20265733117
 31
0.0
  0
LINE
  5
166E8
330
16624
100
AcDbEntity
  8
0
  6
ByBlock
 62
     0
 48
50.0
100
AcDbLine
 10
7366.173057123664
 20
9967.138440697311
 30
0.0
 11
7761.530782985689
 21
9861.202657331178
 31
0.0
  0
LINE
  5
166E9
330
16624
100
AcDbEntity
  8
0
  6
ByBlock
 62
     0
 48
50.0
100
AcDbLine
 10
7701.530782985688
 20
10327.27960887704
 30
0.0
 11
7701.530782985688
 21
9877.279608877046
 31
0.0
  0
INSERT
  5
166EA
330
16624
100
AcDbEntity
  8
0
  6
ByBlock
 62
     0
 48
50.0
100
AcDbBlockReference
  2
_DOTSMALL
 10
7701.530782985688
 20
10327.27960887704
 30
0.0
 41
100.0
 42
100.0
 43
100.0
 50
90.0
  0
INSERT
  5
166EB
330
16624
100
AcDbEntity
  8
0
  6
ByBlock
 62
     0
 48
50.0
100
AcDbBlockReference
  2
_DOTSMALL
 10
7701.530782985688
 20
9877.279608877046
 30
0.0
 41
100.0
 42
100.0
 43
100.0
 50
270.0
  0
MTEXT
  5
166EC
330
16624
100
AcDbEntity
  8
0
  6
ByBlock
 62
     7
 48
50.0
100
AcDbMText
 10
7601.530782985688
 20
10102.27960887704
 30
0.0
 40
120.0
 41
0.0
 71
     5
 72
     1
  1
\A1;450
  7
STYLE1
 11
0.0000000000000001
 21
1.0
 31
0.0
 73
     1
 44
1.0
1001
ACAD
1000
MTEXTBEGIN
1070
    73
1070
     1
1070
    44
1040
1.0
1070
    74
1070
     0
1000
MTEXTEND
  0
POINT
  5
166ED
330
16624
100
AcDbEntity
  8
DEFPOINTS
  6
ByBlock
 62
     0
 48
50.0
100
AcDbPoint
 10
7346.173057123664
 20
10422.49742454593
 30
0.0
  0
POINT
  5
166EE
330
16624
100
AcDbEntity
  8
DEFPOINTS
  6
ByBlock
 62
     0
 48
50.0
100
AcDbPoint
 10
7346.173057123664
 20
9972.497424545935
 30
0.0
  0
POINT
  5
166EF
330
16624
100
AcDbEntity
  8
DEFPOINTS
  6
ByBlock
 62
     0
 48
50.0
100
AcDbPoint
 10
7701.530782985688
 20
9877.279608877046
 30
0.0
  0
ENDBLK
  5
166F0
330
16624
100
AcDbEntity
  8
0
 48
50.0
100
AcDbBlockEnd
  0
BLOCK
  5
16FDC
330
16FD2
100
AcDbEntity
  8
0
 48
50.0
100
AcDbBlockBegin
  2
*D15
 70
     1
 10
0.0
 20
0.0
 30
0.0
  3
*D15
  1

  0
LINE
  5
1739F
330
16FD2
100
AcDbEntity
  8
寸法
 62
     0
 48
50.0
370
    -2
100
AcDbLine
 10
9877.576444440691
 20
2537.931598713254
 30
0.0
 11
8693.82631525743
 21
2537.931598713254
 31
0.0
  0
LINE
  5
173A0
330
16FD2
100
AcDbEntity
  8
寸法
 62
     0
 48
50.0
370
    -2
100
AcDbLine
 10
9817.576444440691
 20
4912.931598713258
 30
0.0
 11
8693.82631525743
 21
4912.931598713258
 31
0.0
  0
LINE
  5
173A1
330
16FD2
100
AcDbEntity
  8
寸法
 62
     0
 48
50.0
370
    -2
100
AcDbLine
 10
8753.826315257429
 20
2537.931598713254
 30
0.0
 11
8753.826315257432
 21
4912.931598713258
 31
0.0
  0
INSERT
  5
173A2
330
16FD2
100
AcDbEntity
  8
寸法
 62
     0
 48
50.0
370
    -2
100
AcDbBlockReference
  2
_DOTSMALL
 10
8753.826315257429
 20
2537.931598713254
 30
0.0
 41
100.0
 42
100.0
 43
100.0
 50
270.0
  0
INSERT
  5
173A3
330
16FD2
100
AcDbEntity
  8
寸法
 62
     0
 48
50.0
370
    -2
100
AcDbBlockReference
  2
_DOTSMALL
 10
8753.826315257432
 20
4912.931598713258
 30
0.0
 41
100.0
 42
100.0
 43
100.0
 50
90.0
  0
MTEXT
  5
173A4
330
16FD2
100
AcDbEntity
  8
寸法
 62
     7
 48
50.0
100
AcDbMText
 10
8653.814504233807
 20
3725.431598713257
 30
0.0
 40
120.0
 41
0.0
 71
     5
 72
     1
  1
\A1;2375
  7
STYLE1
 11
0.0000000000000001
 21
1.0
 31
0.0
 73
     1
 44
1.0
1001
ACAD
1000
MTEXTBEGIN
1070
    73
1070
     1
1070
    44
1040
1.0
1070
    74
1070
     0
1000
MTEXTEND
  0
POINT
  5
173A5
330
16FD2
100
AcDbEntity
  8
DEFPOINTS
 62
     0
 48
50.0
100
AcDbPoint
 10
9897.576444440691
 20
2537.931598713254
 30
0.0
  0
POINT
  5
173A6
330
16FD2
100
AcDbEntity
  8
DEFPOINTS
 62
     0
 48
50.0
100
AcDbPoint
 10
9837.576444440692
 20
4912.931598713258
 30
0.0
  0
POINT
  5
173A7
330
16FD2
100
AcDbEntity
  8
DEFPOINTS
 62
     0
 48
50.0
100
AcDbPoint
 10
8753.826315257432
 20
4912.931598713258
 30
0.0
  0
ENDBLK
  5
16FDD
330
16FD2
100
AcDbEntity
  8
0
 48
50.0
100
AcDbBlockEnd
  0
BLOCK
  5
16FE8
330
16FDE
100
AcDbEntity
  8
0
 48
50.0
100
AcDbBlockBegin
  2
*D16
 70
     1
 10
0.0
 20
0.0
 30
0.0
  3
*D16
  1

  0
LINE
  5
17FE2
330
16FDE
100
AcDbEntity
  8
寸法
 62
     0
 48
50.0
370
    -2
100
AcDbLine
 10
12947.57644444069
 20
4879.742278324913
 30
0.0
 11
12947.57644444069
 21
5371.589052292564
 31
0.0
  0
LINE
  5
17FE3
330
16FDE
100
AcDbEntity
  8
寸法
 62
     0
 48
50.0
370
    -2
100
AcDbLine
 10
9897.576444440691
 20
4928.933216836234
 30
0.0
 11
9897.576444440691
 21
5371.589052292564
 31
0.0
  0
LINE
  5
17FE4
330
16FDE
100
AcDbEntity
  8
寸法
 62
     0
 48
50.0
370
    -2
100
AcDbLine
 10
12947.57644444069
 20
5311.589052292564
 30
0.0
 11
9897.576444440691
 21
5311.589052292564
 31
0.0
  0
INSERT
  5
17FE5
330
16FDE
100
AcDbEntity
  8
寸法
 62
     0
 48
50.0
370
    -2
100
AcDbBlockReference
  2
_DOTSMALL
 10
12947.57644444069
 20
5311.589052292564
 30
0.0
 41
100.0
 42
100.0
 43
100.0
  0
INSERT
  5
17FE6
330
16FDE
100
AcDbEntity
  8
寸法
 62
     0
 48
50.0
370
    -2
100
AcDbBlockReference
  2
_DOTSMALL
 10
9897.576444440691
 20
5311.589052292564
 30
0.0
 41
100.0
 42
100.0
 43
100.0
 50
180.0
  0
MTEXT
  5
17FE7
330
16FDE
100
AcDbEntity
  8
寸法
 62
     7
 48
50.0
100
AcDbMText
 10
11422.57644444069
 20
5411.589052292564
 30
0.0
 40
120.0
 41
0.0
 71
     5
 72
     1
  1
\A1;柱外寸法3050
  7
STYLE1
 73
     1
 44
1.0
1001
ACAD
1000
MTEXTBEGIN
1070
    73
1070
     1
1070
    44
1040
1.0
1070
    74
1070
     0
1000
MTEXTEND
  0
POINT
  5
17FE8
330
16FDE
100
AcDbEntity
  8
DEFPOINTS
 62
     0
 48
50.0
100
AcDbPoint
 10
12947.57644444069
 20
4859.742278324913
 30
0.0
  0
POINT
  5
17FE9
330
16FDE
100
AcDbEntity
  8
DEFPOINTS
 62
     0
 48
50.0
100
AcDbPoint
 10
9897.576444440691
 20
4908.933216836235
 30
0.0
  0
POINT
  5
17FEA
330
16FDE
100
AcDbEntity
  8
DEFPOINTS
 62
     0
 48
50.0
100
AcDbPoint
 10
9897.576444440691
 20
5311.589052292564
 30
0.0
  0
ENDBLK
  5
16FE9
330
16FDE
100
AcDbEntity
  8
0
 48
50.0
100
AcDbBlockEnd
  0
BLOCK
  5
16FF6
330
16FEA
100
AcDbEntity
  8
0
 48
50.0
100
AcDbBlockBegin
  2
*D17
 70
     1
 10
0.0
 20
0.0
 30
0.0
  3
*D17
  1

  0
LINE
  5
1738B
330
16FEA
100
AcDbEntity
  8
寸法
 62
     0
 48
50.0
370
    -2
100
AcDbLine
 10
9897.576444440691
 20
4928.933216836234
 30
0.0
 11
9897.576444440691
 21
5371.589052292562
 31
0.0
  0
LINE
  5
1738C
330
16FEA
100
AcDbEntity
  8
寸法
 62
     0
 48
50.0
370
    -2
100
AcDbLine
 10
9837.576444440692
 20
4932.931598713262
 30
0.0
 11
9837.576444440692
 21
5371.589052292562
 31
0.0
  0
LINE
  5
1738D
330
16FEA
100
AcDbEntity
  8
寸法
 62
     0
 48
50.0
370
    -2
100
AcDbLine
 10
9897.576444440691
 20
5311.589052292561
 30
0.0
 11
9997.57644444069
 21
5311.589052292561
 31
0.0
  0
LINE
  5
1738E
330
16FEA
100
AcDbEntity
  8
寸法
 62
     0
 48
50.0
370
    -2
100
AcDbLine
 10
9837.576444440692
 20
5311.589052292561
 30
0.0
 11
9418.30085388951
 21
5311.589052292561
 31
0.0
  0
LINE
  5
1738F
330
16FEA
100
AcDbEntity
  8
寸法
 62
     0
 48
50.0
370
    -2
100
AcDbLine
 10
9897.576444440691
 20
5311.589052292561
 30
0.0
 11
9837.576444440692
 21
5311.589052292561
 31
0.0
  0
INSERT
  5
17390
330
16FEA
100
AcDbEntity
  8
寸法
 62
     0
 48
50.0
370
    -2
100
AcDbBlockReference
  2
_DOTSMALL
 10
9897.576444440691
 20
5311.589052292561
 30
0.0
 41
100.0
 42
100.0
 43
100.0
 50
180.0
  0
INSERT
  5
17391
330
16FEA
100
AcDbEntity
  8
寸法
 62
     0
 48
50.0
370
    -2
100
AcDbBlockReference
  2
_DOTSMALL
 10
9837.576444440692
 20
5311.589052292561
 30
0.0
 41
100.0
 42
100.0
 43
100.0
  0
MTEXT
  5
17392
330
16FEA
100
AcDbEntity
  8
寸法
 62
     7
 48
50.0
100
AcDbMText
 10
9527.938649165101
 20
5411.589052292562
 30
0.0
 40
120.0
 41
0.0
 71
     5
 72
     1
  1
\A1;60
  7
STYLE1
 73
     1
 44
1.0
1001
ACAD
1000
MTEXTBEGIN
1070
    73
1070
     1
1070
    44
1040
1.0
1070
    74
1070
     0
1000
MTEXTEND
  0
POINT
  5
17393
330
16FEA
100
AcDbEntity
  8
DEFPOINTS
 62
     0
 48
50.0
100
AcDbPoint
 10
9897.576444440691
 20
4908.933216836235
 30
0.0
  0
POINT
  5
17394
330
16FEA
100
AcDbEntity
  8
DEFPOINTS
 62
     0
 48
50.0
100
AcDbPoint
 10
9837.576444440692
 20
4912.931598713262
 30
0.0
  0
POINT
  5
17395
330
16FEA
100
AcDbEntity
  8
DEFPOINTS
 62
     0
 48
50.0
100
AcDbPoint
 10
9837.576444440692
 20
5311.589052292561
 30
0.0
  0
ENDBLK
  5
16FF7
330
16FEA
100
AcDbEntity
  8
0
 48
50.0
100
AcDbBlockEnd
  0
BLOCK
  5
17002
330
16FF8
100
AcDbEntity
  8
0
 48
50.0
100
AcDbBlockBegin
  2
*D18
 70
     1
 10
0.0
 20
0.0
 30
0.0
  3
*D18
  1

  0
LINE
  5
17FD9
330
16FF8
100
AcDbEntity
  8
寸法
 62
     0
 48
50.0
370
    -2
100
AcDbLine
 10
13027.57644444069
 20
4877.93159871326
 30
0.0
 11
13027.57644444069
 21
5601.70264507884
 31
0.0
  0
LINE
  5
17FDA
330
16FF8
100
AcDbEntity
  8
寸法
 62
     0
 48
50.0
370
    -2
100
AcDbLine
 10
9837.576444440692
 20
4932.931598713262
 30
0.0
 11
9837.576444440692
 21
5601.70264507884
 31
0.0
  0
LINE
  5
17FDB
330
16FF8
100
AcDbEntity
  8
寸法
 62
     0
 48
50.0
370
    -2
100
AcDbLine
 10
13027.57644444069
 20
5541.70264507884
 30
0.0
 11
9837.576444440692
 21
5541.70264507884
 31
0.0
  0
INSERT
  5
17FDC
330
16FF8
100
AcDbEntity
  8
寸法
 62
     0
 48
50.0
370
    -2
100
AcDbBlockReference
  2
_DOTSMALL
 10
13027.57644444069
 20
5541.70264507884
 30
0.0
 41
100.0
 42
100.0
 43
100.0
  0
INSERT
  5
17FDD
330
16FF8
100
AcDbEntity
  8
寸法
 62
     0
 48
50.0
370
    -2
100
AcDbBlockReference
  2
_DOTSMALL
 10
9837.576444440692
 20
5541.70264507884
 30
0.0
 41
100.0
 42
100.0
 43
100.0
 50
180.0
  0
MTEXT
  5
17FDE
330
16FF8
100
AcDbEntity
  8
寸法
 62
     7
 48
50.0
100
AcDbMText
 10
11432.57644444069
 20
5641.70264507884
 30
0.0
 40
120.0
 41
0.0
 71
     5
 72
     1
  1
\A1;3190
  7
STYLE1
 73
     1
 44
1.0
1001
ACAD
1000
MTEXTBEGIN
1070
    73
1070
     1
1070
    44
1040
1.0
1070
    74
1070
     0
1000
MTEXTEND
  0
POINT
  5
17FDF
330
16FF8
100
AcDbEntity
  8
DEFPOINTS
 62
     0
 48
50.0
100
AcDbPoint
 10
13027.57644444069
 20
4857.93159871326
 30
0.0
  0
POINT
  5
17FE0
330
16FF8
100
AcDbEntity
  8
DEFPOINTS
 62
     0
 48
50.0
100
AcDbPoint
 10
9837.576444440692
 20
4912.931598713262
 30
0.0
  0
POINT
  5
17FE1
330
16FF8
100
AcDbEntity
  8
DEFPOINTS
 62
     0
 48
50.0
100
AcDbPoint
 10
9837.576444440692
 20
5541.70264507884
 30
0.0
  0
ENDBLK
  5
17003
330
16FF8
100
AcDbEntity
  8
0
 48
50.0
100
AcDbBlockEnd
  0
BLOCK
  5
1700F
330
17004
100
AcDbEntity
  8
0
 48
50.0
100
AcDbBlockBegin
  2
*D19
 70
     1
 10
0.0
 20
0.0
 30
0.0
  3
*D19
  1

  0
LINE
  5
17378
330
17004
100
AcDbEntity
  8
寸法
 62
     0
 48
50.0
370
    -2
100
AcDbLine
 10
12947.57644444069
 20
4879.742278324913
 30
0.0
 11
12947.57644444069
 21
5371.589052292564
 31
0.0
  0
LINE
  5
17379
330
17004
100
AcDbEntity
  8
寸法
 62
     0
 48
50.0
370
    -2
100
AcDbLine
 10
13027.57644444069
 20
4877.931598713261
 30
0.0
 11
13027.57644444069
 21
5371.589052292564
 31
0.0
  0
LINE
  5
1737A
330
17004
100
AcDbEntity
  8
寸法
 62
     0
 48
50.0
370
    -2
100
AcDbLine
 10
12947.57644444069
 20
5311.589052292564
 30
0.0
 11
13027.57644444069
 21
5311.589052292564
 31
0.0
  0
LINE
  5
1737B
330
17004
100
AcDbEntity
  8
寸法
 62
     0
 48
50.0
370
    -2
100
AcDbLine
 10
13027.57644444069
 20
5311.589052292564
 30
0.0
 11
13339.67093262967
 21
5311.589052292564
 31
0.0
  0
INSERT
  5
1737C
330
17004
100
AcDbEntity
  8
寸法
 62
     0
 48
50.0
370
    -2
100
AcDbBlockReference
  2
_DOTSMALL
 10
12947.57644444069
 20
5311.589052292564
 30
0.0
 41
100.0
 42
100.0
 43
100.0
 50
180.0
  0
INSERT
  5
1737D
330
17004
100
AcDbEntity
  8
寸法
 62
     0
 48
50.0
370
    -2
100
AcDbBlockReference
  2
_DOTSMALL
 10
13027.57644444069
 20
5311.589052292564
 30
0.0
 41
100.0
 42
100.0
 43
100.0
  0
MTEXT
  5
1737E
330
17004
100
AcDbEntity
  8
寸法
 62
     7
 48
50.0
100
AcDbMText
 10
13233.62368853518
 20
5411.589052292564
 30
0.0
 40
120.0
 41
0.0
 71
     5
 72
     1
  1
\A1;80
  7
STYLE1
 73
     1
 44
1.0
1001
ACAD
1000
MTEXTBEGIN
1070
    73
1070
     1
1070
    44
1040
1.0
1070
    74
1070
     0
1000
MTEXTEND
  0
POINT
  5
1737F
330
17004
100
AcDbEntity
  8
DEFPOINTS
 62
     0
 48
50.0
100
AcDbPoint
 10
12947.57644444069
 20
4859.742278324913
 30
0.0
  0
POINT
  5
17380
330
17004
100
AcDbEntity
  8
DEFPOINTS
 62
     0
 48
50.0
100
AcDbPoint
 10
13027.57644444069
 20
4857.931598713261
 30
0.0
  0
POINT
  5
17381
330
17004
100
AcDbEntity
  8
DEFPOINTS
 62
     0
 48
50.0
100
AcDbPoint
 10
13027.57644444069
 20
5311.589052292564
 30
0.0
  0
ENDBLK
  5
17010
330
17004
100
AcDbEntity
  8
0
 48
50.0
100
AcDbBlockEnd
  0
BLOCK
  5
1701C
330
17011
100
AcDbEntity
  8
0
 48
50.0
100
AcDbBlockBegin
  2
*D20
 70
     1
 10
0.0
 20
0.0
 30
0.0
  3
*D20
  1

  0
LINE
  5
1736E
330
17011
100
AcDbEntity
  8
寸法
 62
     0
 48
50.0
370
    -2
100
AcDbLine
 10
9836.980730731792
 20
4912.229305782919
 30
0.0
 11
9221.046291626512
 21
4929.943456057249
 31
0.0
  0
LINE
  5
1736F
330
17011
100
AcDbEntity
  8
寸法
 62
     0
 48
50.0
370
    -2
100
AcDbLine
 10
9832.927275175165
 20
4771.287582017206
 30
0.0
 11
9216.992836069888
 21
4789.001732291536
 31
0.0
  0
LINE
  5
17370
330
17011
100
AcDbEntity
  8
寸法
 62
     0
 48
50.0
370
    -2
100
AcDbLine
 10
9276.968037672316
 20
4787.276857586588
 30
0.0
 11
9281.021493228944
 21
4928.218581352301
 31
0.0
  0
LINE
  5
17371
330
17011
100
AcDbEntity
  8
寸法
 62
     0
 48
50.0
370
    -2
100
AcDbLine
 10
9281.021493228944
 20
4928.218581352301
 30
0.0
 11
9291.37074145863
 21
5288.069790966886
 31
0.0
  0
INSERT
  5
17372
330
17011
100
AcDbEntity
  8
寸法
 62
     0
 48
50.0
370
    -2
100
AcDbBlockReference
  2
_DOTSMALL
 10
9276.968037672316
 20
4787.276857586588
 30
0.0
 41
100.0
 42
100.0
 43
100.0
 50
268.3526390256378
  0
INSERT
  5
17373
330
17011
100
AcDbEntity
  8
寸法
 62
     0
 48
50.0
370
    -2
100
AcDbBlockReference
  2
_DOTSMALL
 10
9281.021493228944
 20
4928.218581352301
 30
0.0
 41
100.0
 42
100.0
 43
100.0
 50
88.35263902563776
  0
MTEXT
  5
17374
330
17011
100
AcDbEntity
  8
寸法
 62
     7
 48
50.0
100
AcDbMText
 10
9187.674843593857
 20
5160.998312003201
 30
0.0
 40
120.0
 41
0.0
 71
     5
 72
     1
  1
\A1;141
  7
STYLE1
 11
0.0287479117491237
 21
0.9995866933738488
 31
0.0
 73
     1
 44
1.0
1001
ACAD
1000
MTEXTBEGIN
1070
    73
1070
     1
1070
    44
1040
1.0
1070
    74
1070
     0
1000
MTEXTEND
  0
POINT
  5
17375
330
17011
100
AcDbEntity
  8
DEFPOINTS
 62
     0
 48
50.0
100
AcDbPoint
 10
9856.972464599268
 20
4911.654347547937
 30
0.0
  0
POINT
  5
17376
330
17011
100
AcDbEntity
  8
DEFPOINTS
 62
     0
 48
50.0
100
AcDbPoint
 10
9852.919009042643
 20
4770.712623782224
 30
0.0
  0
POINT
  5
17377
330
17011
100
AcDbEntity
  8
DEFPOINTS
 62
     0
 48
50.0
100
AcDbPoint
 10
9276.968037672316
 20
4787.276857586588
 30
0.0
  0
ENDBLK
  5
1701D
330
17011
100
AcDbEntity
  8
0
 48
50.0
100
AcDbBlockEnd
  0
BLOCK
  5
1705B
330
17051
100
AcDbEntity
  8
0
 48
50.0
100
AcDbBlockBegin
  2
*D21
 70
     1
 10
0.0
 20
0.0
 30
0.0
  3
*D21
  1

  0
LINE
  5
18009
330
17051
100
AcDbEntity
  8
寸法
 62
     0
 48
50.0
370
    -2
100
AcDbLine
 10
7374.673057123665
 20
4932.931598713266
 30
0.0
 11
7374.673057123665
 21
5185.473183971506
 31
0.0
  0
LINE
  5
1800A
330
17051
100
AcDbEntity
  8
寸法
 62
     0
 48
50.0
370
    -2
100
AcDbLine
 10
4324.673057123651
 20
4932.931598713269
 30
0.0
 11
4324.673057123651
 21
5185.473183971506
 31
0.0
  0
LINE
  5
1800B
330
17051
100
AcDbEntity
  8
寸法
 62
     0
 48
50.0
370
    -2
100
AcDbLine
 10
7374.673057123665
 20
5125.473183971506
 30
0.0
 11
4324.673057123651
 21
5125.473183971506
 31
0.0
  0
INSERT
  5
1800C
330
17051
100
AcDbEntity
  8
寸法
 62
     0
 48
50.0
370
    -2
100
AcDbBlockReference
  2
_DOTSMALL
 10
7374.673057123665
 20
5125.473183971506
 30
0.0
 41
100.0
 42
100.0
 43
100.0
  0
INSERT
  5
1800D
330
17051
100
AcDbEntity
  8
寸法
 62
     0
 48
50.0
370
    -2
100
AcDbBlockReference
  2
_DOTSMALL
 10
4324.673057123651
 20
5125.473183971506
 30
0.0
 41
100.0
 42
100.0
 43
100.0
 50
180.0
  0
MTEXT
  5
1800E
330
17051
100
AcDbEntity
  8
寸法
 62
     7
 48
50.0
100
AcDbMText
 10
5849.673057123658
 20
5225.473183971506
 30
0.0
 40
120.0
 41
0.0
 71
     5
 72
     1
  1
\A1;柱外寸法3050
  7
STYLE1
 73
     1
 44
1.0
1001
ACAD
1000
MTEXTBEGIN
1070
    73
1070
     1
1070
    44
1040
1.0
1070
    74
1070
     0
1000
MTEXTEND
  0
POINT
  5
1800F
330
17051
100
AcDbEntity
  8
DEFPOINTS
 62
     0
 48
50.0
100
AcDbPoint
 10
7374.673057123665
 20
4912.931598713266
 30
0.0
  0
POINT
  5
18010
330
17051
100
AcDbEntity
  8
DEFPOINTS
 62
     0
 48
50.0
100
AcDbPoint
 10
4324.673057123651
 20
4912.931598713268
 30
0.0
  0
POINT
  5
18011
330
17051
100
AcDbEntity
  8
DEFPOINTS
 62
     0
 48
50.0
100
AcDbPoint
 10
4324.673057123651
 20
5125.473183971506
 30
0.0
  0
ENDBLK
  5
1705C
330
17051
100
AcDbEntity
  8
0
 48
50.0
100
AcDbBlockEnd
  0
BLOCK
  5
17069
330
1705D
100
AcDbEntity
  8
0
 48
50.0
100
AcDbBlockBegin
  2
*D22
 70
     1
 10
0.0
 20
0.0
 30
0.0
  3
*D22
  1

  0
LINE
  5
17333
330
1705D
100
AcDbEntity
  8
寸法
 62
     0
 48
50.0
370
    -2
100
AcDbLine
 10
4324.673057123651
 20
4932.931598713269
 30
0.0
 11
4324.673057123651
 21
5185.473183971506
 31
0.0
  0
LINE
  5
17334
330
1705D
100
AcDbEntity
  8
寸法
 62
     0
 48
50.0
370
    -2
100
AcDbLine
 10
4274.673057123651
 20
4932.931598713267
 30
0.0
 11
4274.673057123651
 21
5185.473183971506
 31
0.0
  0
LINE
  5
17335
330
1705D
100
AcDbEntity
  8
寸法
 62
     0
 48
50.0
370
    -2
100
AcDbLine
 10
4324.673057123651
 20
5125.473183971506
 30
0.0
 11
4424.67305712365
 21
5125.473183971506
 31
0.0
  0
LINE
  5
17336
330
1705D
100
AcDbEntity
  8
寸法
 62
     0
 48
50.0
370
    -2
100
AcDbLine
 10
4274.673057123651
 20
5125.473183971506
 30
0.0
 11
3855.140531654916
 21
5125.473183971506
 31
0.0
  0
LINE
  5
17337
330
1705D
100
AcDbEntity
  8
寸法
 62
     0
 48
50.0
370
    -2
100
AcDbLine
 10
4324.673057123651
 20
5125.473183971506
 30
0.0
 11
4274.673057123651
 21
5125.473183971506
 31
0.0
  0
INSERT
  5
17338
330
1705D
100
AcDbEntity
  8
寸法
 62
     0
 48
50.0
370
    -2
100
AcDbBlockReference
  2
_DOTSMALL
 10
4324.673057123651
 20
5125.473183971506
 30
0.0
 41
100.0
 42
100.0
 43
100.0
 50
180.0
  0
INSERT
  5
17339
330
1705D
100
AcDbEntity
  8
寸法
 62
     0
 48
50.0
370
    -2
100
AcDbBlockReference
  2
_DOTSMALL
 10
4274.673057123651
 20
5125.473183971506
 30
0.0
 41
100.0
 42
100.0
 43
100.0
  0
MTEXT
  5
1733A
330
1705D
100
AcDbEntity
  8
寸法
 62
     7
 48
50.0
100
AcDbMText
 10
3961.187775749404
 20
5225.473183971506
 30
0.0
 40
120.0
 41
0.0
 71
     5
 72
     1
  1
\A1;50
  7
STYLE1
 73
     1
 44
1.0
1001
ACAD
1000
MTEXTBEGIN
1070
    73
1070
     1
1070
    44
1040
1.0
1070
    74
1070
     0
1000
MTEXTEND
  0
POINT
  5
1733B
330
1705D
100
AcDbEntity
  8
DEFPOINTS
 62
     0
 48
50.0
100
AcDbPoint
 10
4324.673057123651
 20
4912.931598713268
 30
0.0
  0
POINT
  5
1733C
330
1705D
100
AcDbEntity
  8
DEFPOINTS
 62
     0
 48
50.0
100
AcDbPoint
 10
4274.673057123651
 20
4912.931598713267
 30
0.0
  0
POINT
  5
1733D
330
1705D
100
AcDbEntity
  8
DEFPOINTS
 62
     0
 48
50.0
100
AcDbPoint
 10
4274.673057123651
 20
5125.473183971506
 30
0.0
  0
ENDBLK
  5
1706A
330
1705D
100
AcDbEntity
  8
0
 48
50.0
100
AcDbBlockEnd
  0
BLOCK
  5
17077
330
1706B
100
AcDbEntity
  8
0
 48
50.0
100
AcDbBlockBegin
  2
*D23
 70
     1
 10
0.0
 20
0.0
 30
0.0
  3
*D23
  1

  0
LINE
  5
17328
330
1706B
100
AcDbEntity
  8
寸法
 62
     0
 48
50.0
370
    -2
100
AcDbLine
 10
7424.673057123666
 20
4932.931598713264
 30
0.0
 11
7424.673057123666
 21
5185.473183971505
 31
0.0
  0
LINE
  5
17329
330
1706B
100
AcDbEntity
  8
寸法
 62
     0
 48
50.0
370
    -2
100
AcDbLine
 10
7374.673057123665
 20
4932.931598713266
 30
0.0
 11
7374.673057123665
 21
5185.473183971505
 31
0.0
  0
LINE
  5
1732A
330
1706B
100
AcDbEntity
  8
寸法
 62
     0
 48
50.0
370
    -2
100
AcDbLine
 10
7374.673057123665
 20
5125.473183971505
 30
0.0
 11
7274.673057123665
 21
5125.473183971505
 31
0.0
  0
LINE
  5
1732B
330
1706B
100
AcDbEntity
  8
寸法
 62
     0
 48
50.0
370
    -2
100
AcDbLine
 10
7424.673057123666
 20
5125.473183971505
 30
0.0
 11
7844.20558259239
 21
5125.473183971505
 31
0.0
  0
LINE
  5
1732C
330
1706B
100
AcDbEntity
  8
寸法
 62
     0
 48
50.0
370
    -2
100
AcDbLine
 10
7374.673057123665
 20
5125.473183971505
 30
0.0
 11
7424.673057123666
 21
5125.473183971505
 31
0.0
  0
INSERT
  5
1732D
330
1706B
100
AcDbEntity
  8
寸法
 62
     0
 48
50.0
370
    -2
100
AcDbBlockReference
  2
_DOTSMALL
 10
7374.673057123665
 20
5125.473183971505
 30
0.0
 41
100.0
 42
100.0
 43
100.0
  0
INSERT
  5
1732E
330
1706B
100
AcDbEntity
  8
寸法
 62
     0
 48
50.0
370
    -2
100
AcDbBlockReference
  2
_DOTSMALL
 10
7424.673057123666
 20
5125.473183971505
 30
0.0
 41
100.0
 42
100.0
 43
100.0
 50
180.0
  0
MTEXT
  5
1732F
330
1706B
100
AcDbEntity
  8
寸法
 62
     7
 48
50.0
100
AcDbMText
 10
7738.158338497902
 20
5225.473183971505
 30
0.0
 40
120.0
 41
0.0
 71
     5
 72
     1
  1
\A1;50
  7
STYLE1
 73
     1
 44
1.0
1001
ACAD
1000
MTEXTBEGIN
1070
    73
1070
     1
1070
    44
1040
1.0
1070
    74
1070
     0
1000
MTEXTEND
  0
POINT
  5
17330
330
1706B
100
AcDbEntity
  8
DEFPOINTS
 62
     0
 48
50.0
100
AcDbPoint
 10
7424.673057123666
 20
4912.931598713264
 30
0.0
  0
POINT
  5
17331
330
1706B
100
AcDbEntity
  8
DEFPOINTS
 62
     0
 48
50.0
100
AcDbPoint
 10
7374.673057123665
 20
4912.931598713266
 30
0.0
  0
POINT
  5
17332
330
1706B
100
AcDbEntity
  8
DEFPOINTS
 62
     0
 48
50.0
100
AcDbPoint
 10
7374.673057123665
 20
5125.473183971505
 30
0.0
  0
ENDBLK
  5
17078
330
1706B
100
AcDbEntity
  8
0
 48
50.0
100
AcDbBlockEnd
  0
BLOCK
  5
17083
330
17079
100
AcDbEntity
  8
0
 48
50.0
100
AcDbBlockBegin
  2
*D24
 70
     1
 10
0.0
 20
0.0
 30
0.0
  3
*D24
  1

  0
LINE
  5
18000
330
17079
100
AcDbEntity
  8
寸法
 62
     0
 48
50.0
370
    -2
100
AcDbLine
 10
4274.673057123651
 20
4932.931598713267
 30
0.0
 11
4274.673057123651
 21
5406.378484445255
 31
0.0
  0
LINE
  5
18001
330
17079
100
AcDbEntity
  8
寸法
 62
     0
 48
50.0
370
    -2
100
AcDbLine
 10
7424.673057123666
 20
4932.931598713264
 30
0.0
 11
7424.673057123666
 21
5406.378484445255
 31
0.0
  0
LINE
  5
18002
330
17079
100
AcDbEntity
  8
寸法
 62
     0
 48
50.0
370
    -2
100
AcDbLine
 10
4274.673057123651
 20
5346.378484445256
 30
0.0
 11
7424.673057123666
 21
5346.378484445256
 31
0.0
  0
INSERT
  5
18003
330
17079
100
AcDbEntity
  8
寸法
 62
     0
 48
50.0
370
    -2
100
AcDbBlockReference
  2
_DOTSMALL
 10
4274.673057123651
 20
5346.378484445256
 30
0.0
 41
100.0
 42
100.0
 43
100.0
 50
180.0
  0
INSERT
  5
18004
330
17079
100
AcDbEntity
  8
寸法
 62
     0
 48
50.0
370
    -2
100
AcDbBlockReference
  2
_DOTSMALL
 10
7424.673057123666
 20
5346.378484445256
 30
0.0
 41
100.0
 42
100.0
 43
100.0
  0
MTEXT
  5
18005
330
17079
100
AcDbEntity
  8
寸法
 62
     7
 48
50.0
100
AcDbMText
 10
5849.673057123658
 20
5446.378484445256
 30
0.0
 40
120.0
 41
0.0
 71
     5
 72
     1
  1
\A1;3150
  7
STYLE1
 73
     1
 44
1.0
1001
ACAD
1000
MTEXTBEGIN
1070
    73
1070
     1
1070
    44
1040
1.0
1070
    74
1070
     0
1000
MTEXTEND
  0
POINT
  5
18006
330
17079
100
AcDbEntity
  8
DEFPOINTS
 62
     0
 48
50.0
100
AcDbPoint
 10
4274.673057123651
 20
4912.931598713267
 30
0.0
  0
POINT
  5
18007
330
17079
100
AcDbEntity
  8
DEFPOINTS
 62
     0
 48
50.0
100
AcDbPoint
 10
7424.673057123666
 20
4912.931598713264
 30
0.0
  0
POINT
  5
18008
330
17079
100
AcDbEntity
  8
DEFPOINTS
 62
     0
 48
50.0
100
AcDbPoint
 10
7424.673057123666
 20
5346.378484445256
 30
0.0
  0
ENDBLK
  5
17084
330
17079
100
AcDbEntity
  8
0
 48
50.0
100
AcDbBlockEnd
  0
BLOCK
  5
17160
330
17156
100
AcDbEntity
  8
0
 48
50.0
100
AcDbBlockBegin
  2
*D25
 70
     1
 10
0.0
 20
0.0
 30
0.0
  3
*D25
  1

  0
LINE
  5
172F9
330
17156
100
AcDbEntity
  8
寸法
 62
     0
 48
50.0
370
    -2
100
AcDbLine
 10
12967.57644444068
 20
2537.931598713262
 30
0.0
 11
13712.50360241281
 21
2537.931598713261
 31
0.0
  0
LINE
  5
172FA
330
17156
100
AcDbEntity
  8
寸法
 62
     0
 48
50.0
370
    -2
100
AcDbLine
 10
13062.57644444068
 20
4857.931598713261
 30
0.0
 11
13712.50360241281
 21
4857.931598713261
 31
0.0
  0
LINE
  5
172FB
330
17156
100
AcDbEntity
  8
寸法
 62
     0
 48
50.0
370
    -2
100
AcDbLine
 10
13652.50360241281
 20
2537.931598713261
 30
0.0
 11
13652.50360241281
 21
4857.931598713261
 31
0.0
  0
INSERT
  5
172FC
330
17156
100
AcDbEntity
  8
寸法
 62
     0
 48
50.0
370
    -2
100
AcDbBlockReference
  2
_DOTSMALL
 10
13652.50360241281
 20
2537.931598713261
 30
0.0
 41
100.0
 42
100.0
 43
100.0
 50
270.0
  0
INSERT
  5
172FD
330
17156
100
AcDbEntity
  8
寸法
 62
     0
 48
50.0
370
    -2
100
AcDbBlockReference
  2
_DOTSMALL
 10
13652.50360241281
 20
4857.931598713261
 30
0.0
 41
100.0
 42
100.0
 43
100.0
 50
90.0
  0
MTEXT
  5
172FE
330
17156
100
AcDbEntity
  8
寸法
 62
     7
 48
50.0
100
AcDbMText
 10
13552.49179138918
 20
3692.931598713261
 30
0.0
 40
120.0
 41
0.0
 71
     5
 72
     1
  1
\A1;2320
  7
STYLE1
 11
0.0000000000000001
 21
1.0
 31
0.0
 73
     1
 44
1.0
1001
ACAD
1000
MTEXTBEGIN
1070
    73
1070
     1
1070
    44
1040
1.0
1070
    74
1070
     0
1000
MTEXTEND
  0
POINT
  5
172FF
330
17156
100
AcDbEntity
  8
DEFPOINTS
 62
     0
 48
50.0
100
AcDbPoint
 10
12947.57644444068
 20
2537.931598713262
 30
0.0
  0
POINT
  5
17300
330
17156
100
AcDbEntity
  8
DEFPOINTS
 62
     0
 48
50.0
100
AcDbPoint
 10
13042.57644444068
 20
4857.931598713261
 30
0.0
  0
POINT
  5
17301
330
17156
100
AcDbEntity
  8
DEFPOINTS
 62
     0
 48
50.0
100
AcDbPoint
 10
13652.50360241281
 20
4857.931598713261
 30
0.0
  0
ENDBLK
  5
17161
330
17156
100
AcDbEntity
  8
0
 48
50.0
100
AcDbBlockEnd
  0
BLOCK
  5
1716E
330
17162
100
AcDbEntity
  8
0
 48
50.0
100
AcDbBlockBegin
  2
*D26
 70
     1
 10
0.0
 20
0.0
 30
0.0
  3
*D26
  1

  0
LINE
  5
172EE
330
17162
100
AcDbEntity
  8
寸法
 62
     0
 48
50.0
370
    -2
100
AcDbLine
 10
9877.576444440684
 20
2587.931598713261
 30
0.0
 11
8993.826315257424
 21
2587.931598713262
 31
0.0
  0
LINE
  5
172EF
330
17162
100
AcDbEntity
  8
寸法
 62
     0
 48
50.0
370
    -2
100
AcDbLine
 10
9822.576444440684
 20
2537.931598713262
 30
0.0
 11
8993.826315257424
 21
2537.931598713262
 31
0.0
  0
LINE
  5
172F0
330
17162
100
AcDbEntity
  8
寸法
 62
     0
 48
50.0
370
    -2
100
AcDbLine
 10
9053.826315257422
 20
2587.931598713262
 30
0.0
 11
9053.826315257422
 21
2687.931598713262
 31
0.0
  0
LINE
  5
172F1
330
17162
100
AcDbEntity
  8
寸法
 62
     0
 48
50.0
370
    -2
100
AcDbLine
 10
9053.826315257422
 20
2537.931598713262
 30
0.0
 11
9053.826315257422
 21
2048.134354618772
 31
0.0
  0
LINE
  5
172F2
330
17162
100
AcDbEntity
  8
寸法
 62
     0
 48
50.0
370
    -2
100
AcDbLine
 10
9053.826315257422
 20
2587.931598713262
 30
0.0
 11
9053.826315257422
 21
2537.931598713262
 31
0.0
  0
INSERT
  5
172F3
330
17162
100
AcDbEntity
  8
寸法
 62
     0
 48
50.0
370
    -2
100
AcDbBlockReference
  2
_DOTSMALL
 10
9053.826315257422
 20
2587.931598713262
 30
0.0
 41
100.0
 42
100.0
 43
100.0
 50
270.0
  0
INSERT
  5
172F4
330
17162
100
AcDbEntity
  8
寸法
 62
     0
 48
50.0
370
    -2
100
AcDbBlockReference
  2
_DOTSMALL
 10
9053.826315257422
 20
2537.931598713262
 30
0.0
 41
100.0
 42
100.0
 43
100.0
 50
90.0
  0
MTEXT
  5
172F5
330
17162
100
AcDbEntity
  8
寸法
 62
     7
 48
50.0
100
AcDbMText
 10
8953.826315257423
 20
2154.181598713261
 30
0.0
 40
120.0
 41
0.0
 71
     5
 72
     1
  1
\A1;50
  7
STYLE1
 11
0.0000000000000001
 21
1.0
 31
0.0
 73
     1
 44
1.0
1001
ACAD
1000
MTEXTBEGIN
1070
    73
1070
     1
1070
    44
1040
1.0
1070
    74
1070
     0
1000
MTEXTEND
  0
POINT
  5
172F6
330
17162
100
AcDbEntity
  8
DEFPOINTS
 62
     0
 48
50.0
100
AcDbPoint
 10
9897.576444440684
 20
2587.931598713261
 30
0.0
  0
POINT
  5
172F7
330
17162
100
AcDbEntity
  8
DEFPOINTS
 62
     0
 48
50.0
100
AcDbPoint
 10
9842.576444440684
 20
2537.931598713262
 30
0.0
  0
POINT
  5
172F8
330
17162
100
AcDbEntity
  8
DEFPOINTS
 62
     0
 48
50.0
100
AcDbPoint
 10
9053.826315257422
 20
2537.931598713262
 30
0.0
  0
ENDBLK
  5
1716F
330
17162
100
AcDbEntity
  8
0
 48
50.0
100
AcDbBlockEnd
  0
BLOCK
  5
1717B
330
17170
100
AcDbEntity
  8
0
 48
50.0
100
AcDbBlockBegin
  2
*D27
 70
     1
 10
0.0
 20
0.0
 30
0.0
  3
*D27
  1

  0
LINE
  5
172E4
330
17170
100
AcDbEntity
  8
寸法
 62
     0
 48
50.0
370
    -2
100
AcDbLine
 10
9822.576444440684
 20
2537.931598713262
 30
0.0
 11
8693.826315257423
 21
2537.931598713262
 31
0.0
  0
LINE
  5
172E5
330
17170
100
AcDbEntity
  8
寸法
 62
     0
 48
50.0
370
    -2
100
AcDbLine
 10
8821.075368545551
 20
2437.931598713261
 30
0.0
 11
8693.826315257423
 21
2437.931598713261
 31
0.0
  0
LINE
  5
172E6
330
17170
100
AcDbEntity
  8
寸法
 62
     0
 48
50.0
370
    -2
100
AcDbLine
 10
8753.826315257423
 20
2537.931598713262
 30
0.0
 11
8753.826315257423
 21
2437.931598713261
 31
0.0
  0
LINE
  5
172E7
330
17170
100
AcDbEntity
  8
寸法
 62
     0
 48
50.0
370
    -2
100
AcDbLine
 10
8753.826315257423
 20
2437.931598713261
 30
0.0
 11
8753.826315257423
 21
1886.884354618771
 31
0.0
  0
INSERT
  5
172E8
330
17170
100
AcDbEntity
  8
寸法
 62
     0
 48
50.0
370
    -2
100
AcDbBlockReference
  2
_DOTSMALL
 10
8753.826315257423
 20
2537.931598713262
 30
0.0
 41
100.0
 42
100.0
 43
100.0
 50
90.0
  0
INSERT
  5
172E9
330
17170
100
AcDbEntity
  8
寸法
 62
     0
 48
50.0
370
    -2
100
AcDbBlockReference
  2
_DOTSMALL
 10
8753.826315257423
 20
2437.931598713261
 30
0.0
 41
100.0
 42
100.0
 43
100.0
 50
270.0
  0
MTEXT
  5
172EA
330
17170
100
AcDbEntity
  8
寸法
 62
     7
 48
50.0
100
AcDbMText
 10
8653.826315257424
 20
2022.931598713261
 30
0.0
 40
120.0
 41
0.0
 71
     5
 72
     1
  1
\A1;100
  7
STYLE1
 11
0.0000000000000001
 21
1.0
 31
0.0
 73
     1
 44
1.0
1001
ACAD
1000
MTEXTBEGIN
1070
    73
1070
     1
1070
    44
1040
1.0
1070
    74
1070
     0
1000
MTEXTEND
  0
POINT
  5
172EB
330
17170
100
AcDbEntity
  8
DEFPOINTS
 62
     0
 48
50.0
100
AcDbPoint
 10
9842.576444440684
 20
2537.931598713262
 30
0.0
  0
POINT
  5
172EC
330
17170
100
AcDbEntity
  8
DEFPOINTS
 62
     0
 48
50.0
100
AcDbPoint
 10
8841.075368545551
 20
2437.931598713261
 30
0.0
  0
POINT
  5
172ED
330
17170
100
AcDbEntity
  8
DEFPOINTS
 62
     0
 48
50.0
100
AcDbPoint
 10
8753.826315257423
 20
2437.931598713261
 30
0.0
  0
ENDBLK
  5
1717C
330
17170
100
AcDbEntity
  8
0
 48
50.0
100
AcDbBlockEnd
  0
BLOCK
  5
17187
330
1717D
100
AcDbEntity
  8
0
 48
50.0
100
AcDbBlockBegin
  2
*D28
 70
     1
 10
0.0
 20
0.0
 30
0.0
  3
*D28
  1

  0
LINE
  5
172DB
330
1717D
100
AcDbEntity
  8
寸法
 62
     0
 48
50.0
370
    -2
100
AcDbLine
 10
9877.576444440684
 20
4677.931598713261
 30
0.0
 11
8993.826315257425
 21
4677.931598713261
 31
0.0
  0
LINE
  5
172DC
330
1717D
100
AcDbEntity
  8
寸法
 62
     0
 48
50.0
370
    -2
100
AcDbLine
 10
9877.576444440684
 20
2587.931598713261
 30
0.0
 11
8993.826315257424
 21
2587.931598713262
 31
0.0
  0
LINE
  5
172DD
330
1717D
100
AcDbEntity
  8
寸法
 62
     0
 48
50.0
370
    -2
100
AcDbLine
 10
9053.826315257426
 20
4677.931598713261
 30
0.0
 11
9053.826315257422
 21
2587.931598713262
 31
0.0
  0
INSERT
  5
172DE
330
1717D
100
AcDbEntity
  8
寸法
 62
     0
 48
50.0
370
    -2
100
AcDbBlockReference
  2
_DOTSMALL
 10
9053.826315257426
 20
4677.931598713261
 30
0.0
 41
100.0
 42
100.0
 43
100.0
 50
90.0
  0
INSERT
  5
172DF
330
1717D
100
AcDbEntity
  8
寸法
 62
     0
 48
50.0
370
    -2
100
AcDbBlockReference
  2
_DOTSMALL
 10
9053.826315257422
 20
2587.931598713262
 30
0.0
 41
100.0
 42
100.0
 43
100.0
 50
270.0
  0
MTEXT
  5
172E0
330
1717D
100
AcDbEntity
  8
寸法
 62
     7
 48
50.0
100
AcDbMText
 10
8953.814504233802
 20
3632.931598713263
 30
0.0
 40
120.0
 41
0.0
 71
     5
 72
     1
  1
\A1;2090
  7
STYLE1
 11
0.0000000000000001
 21
1.0
 31
0.0
 73
     1
 44
1.0
1001
ACAD
1000
MTEXTBEGIN
1070
    73
1070
     1
1070
    44
1040
1.0
1070
    74
1070
     0
1000
MTEXTEND
  0
POINT
  5
172E1
330
1717D
100
AcDbEntity
  8
DEFPOINTS
 62
     0
 48
50.0
100
AcDbPoint
 10
9897.576444440684
 20
4677.931598713261
 30
0.0
  0
POINT
  5
172E2
330
1717D
100
AcDbEntity
  8
DEFPOINTS
 62
     0
 48
50.0
100
AcDbPoint
 10
9897.576444440684
 20
2587.931598713261
 30
0.0
  0
POINT
  5
172E3
330
1717D
100
AcDbEntity
  8
DEFPOINTS
 62
     0
 48
50.0
100
AcDbPoint
 10
9053.826315257422
 20
2587.931598713262
 30
0.0
  0
ENDBLK
  5
17188
330
1717D
100
AcDbEntity
  8
0
 48
50.0
100
AcDbBlockEnd
  0
BLOCK
  5
1797B
330
17971
100
AcDbEntity
  8
0
 48
50.0
100
AcDbBlockBegin
  2
*D29
 70
     1
 10
0.0
 20
0.0
 30
0.0
  3
*D29
  1

  0
LINE
  5
17A49
330
17971
100
AcDbEntity
  8
寸法
 62
     0
 48
50.0
370
    -2
100
AcDbLine
 10
4347.814073275041
 20
9532.497424545836
 30
0.0
 11
4245.072259316471
 21
9149.059754790666
 31
0.0
  0
LINE
  5
17A4A
330
17971
100
AcDbEntity
  8
寸法
 62
     0
 48
50.0
370
    -2
100
AcDbLine
 10
5830.814073275053
 20
9532.497424545828
 30
0.0
 11
5728.072259316485
 21
9149.059754790666
 31
0.0
  0
LINE
  5
17A4B
330
17971
100
AcDbEntity
  8
寸法
 62
     0
 48
50.0
370
    -2
100
AcDbLine
 10
4261.149210862338
 20
9209.059754790665
 30
0.0
 11
5744.149210862353
 21
9209.059754790665
 31
0.0
  0
INSERT
  5
17A4C
330
17971
100
AcDbEntity
  8
寸法
 62
     0
 48
50.0
370
    -2
100
AcDbBlockReference
  2
_DOTSMALL
 10
4261.149210862338
 20
9209.059754790665
 30
0.0
 41
100.0
 42
100.0
 43
100.0
 50
180.0
  0
INSERT
  5
17A4D
330
17971
100
AcDbEntity
  8
寸法
 62
     0
 48
50.0
370
    -2
100
AcDbBlockReference
  2
_DOTSMALL
 10
5744.149210862353
 20
9209.059754790665
 30
0.0
 41
100.0
 42
100.0
 43
100.0
  0
MTEXT
  5
17A4E
330
17971
100
AcDbEntity
  8
寸法
 62
     7
 48
50.0
100
AcDbMText
 10
4940.964360531678
 20
9309.059754790665
 30
0.0
 40
120.0
 41
0.0
 71
     5
 72
     1
  1
\A1;1483
  7
STYLE1
 73
     1
 44
1.0
1001
ACAD
1000
MTEXTBEGIN
1070
    73
1070
     1
1070
    44
1040
1.0
1070
    74
1070
     0
1000
MTEXTEND
  0
POINT
  5
17A4F
330
17971
100
AcDbEntity
  8
DEFPOINTS
 62
     0
 48
50.0
100
AcDbPoint
 10
4353.173057123664
 20
9552.497424545837
 30
0.0
  0
POINT
  5
17A50
330
17971
100
AcDbEntity
  8
DEFPOINTS
 62
     0
 48
50.0
100
AcDbPoint
 10
5836.173057123676
 20
9552.49742454583
 30
0.0
  0
POINT
  5
17A51
330
17971
100
AcDbEntity
  8
DEFPOINTS
 62
     0
 48
50.0
100
AcDbPoint
 10
5744.149210862353
 20
9209.059754790665
 30
0.0
  0
ENDBLK
  5
1797C
330
17971
100
AcDbEntity
  8
0
 48
50.0
100
AcDbBlockEnd
  0
BLOCK
  5
17987
330
1797D
100
AcDbEntity
  8
0
 48
50.0
100
AcDbBlockBegin
  2
*D30
 70
     1
 10
0.0
 20
0.0
 30
0.0
  3
*D30
  1

  0
LINE
  5
17A40
330
1797D
100
AcDbEntity
  8
寸法
 62
     0
 48
50.0
370
    -2
100
AcDbLine
 10
5857.81407327504
 20
9532.497424545942
 30
0.0
 11
5755.072259316471
 21
9149.059754790775
 31
0.0
  0
LINE
  5
17A41
330
1797D
100
AcDbEntity
  8
寸法
 62
     0
 48
50.0
370
    -2
100
AcDbLine
 10
7340.814073275052
 20
9532.497424545935
 30
0.0
 11
7238.072259316486
 21
9149.059754790775
 31
0.0
  0
LINE
  5
17A42
330
1797D
100
AcDbEntity
  8
寸法
 62
     0
 48
50.0
370
    -2
100
AcDbLine
 10
5771.149210862339
 20
9209.059754790775
 30
0.0
 11
7254.149210862353
 21
9209.059754790775
 31
0.0
  0
INSERT
  5
17A43
330
1797D
100
AcDbEntity
  8
寸法
 62
     0
 48
50.0
370
    -2
100
AcDbBlockReference
  2
_DOTSMALL
 10
5771.149210862339
 20
9209.059754790775
 30
0.0
 41
100.0
 42
100.0
 43
100.0
 50
180.0
  0
INSERT
  5
17A44
330
1797D
100
AcDbEntity
  8
寸法
 62
     0
 48
50.0
370
    -2
100
AcDbBlockReference
  2
_DOTSMALL
 10
7254.149210862353
 20
9209.059754790775
 30
0.0
 41
100.0
 42
100.0
 43
100.0
  0
MTEXT
  5
17A45
330
1797D
100
AcDbEntity
  8
寸法
 62
     7
 48
50.0
100
AcDbMText
 10
6387.611213040511
 20
9309.059754790775
 30
0.0
 40
120.0
 41
0.0
 71
     5
 72
     1
  1
\A1;1483
  7
STYLE1
 73
     1
 44
1.0
1001
ACAD
1000
MTEXTBEGIN
1070
    73
1070
     1
1070
    44
1040
1.0
1070
    74
1070
     0
1000
MTEXTEND
  0
POINT
  5
17A46
330
1797D
100
AcDbEntity
  8
DEFPOINTS
 62
     0
 48
50.0
100
AcDbPoint
 10
5863.173057123663
 20
9552.497424545942
 30
0.0
  0
POINT
  5
17A47
330
1797D
100
AcDbEntity
  8
DEFPOINTS
 62
     0
 48
50.0
100
AcDbPoint
 10
7346.173057123675
 20
9552.497424545935
 30
0.0
  0
POINT
  5
17A48
330
1797D
100
AcDbEntity
  8
DEFPOINTS
 62
     0
 48
50.0
100
AcDbPoint
 10
7254.149210862353
 20
9209.059754790775
 30
0.0
  0
ENDBLK
  5
17988
330
1797D
100
AcDbEntity
  8
0
 48
50.0
100
AcDbBlockEnd
  0
BLOCK
  5
17C55
330
17C4B
100
AcDbEntity
  8
0
 48
50.0
100
AcDbBlockBegin
  2
*D31
 70
     1
 10
0.0
 20
0.0
 30
0.0
  3
*D31
  1

  0
LINE
  5
17D16
330
17C4B
100
AcDbEntity
  8
寸法
 62
     0
 48
50.0
370
    -2
100
AcDbLine
 10
7394.673057123657
 20
2599.931598713262
 30
0.0
 11
7722.216159445403
 21
2599.931598713262
 31
0.0
  0
LINE
  5
17D17
330
17C4B
100
AcDbEntity
  8
寸法
 62
     0
 48
50.0
370
    -2
100
AcDbLine
 10
7394.673057123657
 20
4485.93159871326
 30
0.0
 11
7722.216159445403
 21
4485.93159871326
 31
0.0
  0
LINE
  5
17D18
330
17C4B
100
AcDbEntity
  8
寸法
 62
     0
 48
50.0
370
    -2
100
AcDbLine
 10
7662.216159445403
 20
2599.931598713262
 30
0.0
 11
7662.216159445403
 21
4485.93159871326
 31
0.0
  0
INSERT
  5
17D19
330
17C4B
100
AcDbEntity
  8
寸法
 62
     0
 48
50.0
370
    -2
100
AcDbBlockReference
  2
_DOTSMALL
 10
7662.216159445403
 20
2599.931598713262
 30
0.0
 41
100.0
 42
100.0
 43
100.0
 50
270.0
  0
INSERT
  5
17D1A
330
17C4B
100
AcDbEntity
  8
寸法
 62
     0
 48
50.0
370
    -2
100
AcDbBlockReference
  2
_DOTSMALL
 10
7662.216159445403
 20
4485.93159871326
 30
0.0
 41
100.0
 42
100.0
 43
100.0
 50
90.0
  0
MTEXT
  5
17D1B
330
17C4B
100
AcDbEntity
  8
寸法
 62
     7
 48
50.0
100
AcDbMText
 10
7562.216159445402
 20
3542.931598713263
 30
0.0
 40
120.0
 41
0.0
 71
     5
 72
     1
  1
\A1;有効開口部高サ 1886
  7
STYLE1
 11
0.0000000000000001
 21
1.0
 31
0.0
 73
     1
 44
1.0
1001
ACAD
1000
MTEXTBEGIN
1070
    73
1070
     1
1070
    44
1040
1.0
1070
    74
1070
     0
1000
MTEXTEND
  0
POINT
  5
17D1C
330
17C4B
100
AcDbEntity
  8
DEFPOINTS
 62
     0
 48
50.0
100
AcDbPoint
 10
7374.673057123657
 20
2599.931598713262
 30
0.0
  0
POINT
  5
17D1D
330
17C4B
100
AcDbEntity
  8
DEFPOINTS
 62
     0
 48
50.0
100
AcDbPoint
 10
7374.673057123658
 20
4485.93159871326
 30
0.0
  0
POINT
  5
17D1E
330
17C4B
100
AcDbEntity
  8
DEFPOINTS
 62
     0
 48
50.0
100
AcDbPoint
 10
7662.216159445403
 20
4485.93159871326
 30
0.0
  0
ENDBLK
  5
17C56
330
17C4B
100
AcDbEntity
  8
0
 48
50.0
100
AcDbBlockEnd
  0
BLOCK
  5
17C63
330
17C57
100
AcDbEntity
  8
0
 48
50.0
100
AcDbBlockBegin
  2
*D32
 70
     1
 10
0.0
 20
0.0
 30
0.0
  3
*D32
  1

  0
LINE
  5
1802E
330
17C57
100
AcDbEntity
  8
寸法
 62
     0
 48
50.0
370
    -2
100
AcDbLine
 10
7394.673057123657
 20
4485.93159871326
 30
0.0
 11
7722.216159445403
 21
4485.93159871326
 31
0.0
  0
LINE
  5
1802F
330
17C57
100
AcDbEntity
  8
寸法
 62
     0
 48
50.0
370
    -2
100
AcDbLine
 10
7394.673057123656
 20
4512.931598713263
 30
0.0
 11
7722.216159445403
 21
4512.931598713263
 31
0.0
  0
LINE
  5
18030
330
17C57
100
AcDbEntity
  8
寸法
 62
     0
 48
50.0
370
    -2
100
AcDbLine
 10
7662.216159445403
 20
4485.93159871326
 30
0.0
 11
7662.216159445403
 21
4385.93159871326
 31
0.0
  0
LINE
  5
18031
330
17C57
100
AcDbEntity
  8
寸法
 62
     0
 48
50.0
370
    -2
100
AcDbLine
 10
7662.216159445403
 20
4512.931598713263
 30
0.0
 11
7662.216159445403
 21
4612.931598713263
 31
0.0
  0
MTEXT
  5
18032
330
17C57
100
AcDbEntity
  8
寸法
 62
     7
 48
50.0
100
AcDbMText
 10
7802.385982691768
 20
4513.89879855292
 30
0.0
 40
120.0
 41
0.0
 71
     5
 72
     1
  1
\A1;27
  7
STYLE1
 11
0.0000000000000001
 21
1.0
 31
0.0
 73
     1
 44
1.0
1001
ACAD
1000
MTEXTBEGIN
1070
    73
1070
     1
1070
    44
1040
1.0
1070
    74
1070
     0
1000
MTEXTEND
  0
LINE
  5
18033
330
17C57
100
AcDbEntity
  8
寸法
 62
     0
 48
50.0
370
    -2
100
AcDbLine
 10
7662.216159445403
 20
4485.93159871326
 30
0.0
 11
7662.216159445403
 21
4512.931598713263
 31
0.0
  0
INSERT
  5
18034
330
17C57
100
AcDbEntity
  8
寸法
 62
     0
 48
50.0
370
    -2
100
AcDbBlockReference
  2
_DOTSMALL
 10
7662.216159445403
 20
4485.93159871326
 30
0.0
 41
100.0
 42
100.0
 43
100.0
 50
90.0
  0
INSERT
  5
18035
330
17C57
100
AcDbEntity
  8
寸法
 62
     0
 48
50.0
370
    -2
100
AcDbBlockReference
  2
_DOTSMALL
 10
7662.216159445403
 20
4512.931598713263
 30
0.0
 41
100.0
 42
100.0
 43
100.0
 50
270.0
  0
POINT
  5
18036
330
17C57
100
AcDbEntity
  8
DEFPOINTS
 62
     0
 48
50.0
100
AcDbPoint
 10
7374.673057123658
 20
4485.93159871326
 30
0.0
  0
POINT
  5
18037
330
17C57
100
AcDbEntity
  8
DEFPOINTS
 62
     0
 48
50.0
100
AcDbPoint
 10
7374.673057123655
 20
4512.931598713263
 30
0.0
  0
POINT
  5
18038
330
17C57
100
AcDbEntity
  8
DEFPOINTS
 62
     0
 48
50.0
100
AcDbPoint
 10
7662.216159445403
 20
4512.931598713263
 30
0.0
  0
ENDBLK
  5
17C64
330
17C57
100
AcDbEntity
  8
0
 48
50.0
100
AcDbBlockEnd
  0
BLOCK
  5
17C70
330
17C65
100
AcDbEntity
  8
0
 48
50.0
100
AcDbBlockBegin
  2
*D33
 70
     1
 10
0.0
 20
0.0
 30
0.0
  3
*D33
  1

  0
LINE
  5
18024
330
17C65
100
AcDbEntity
  8
寸法
 62
     0
 48
50.0
370
    -2
100
AcDbLine
 10
7394.673057123656
 20
4512.931598713263
 30
0.0
 11
7722.216159445403
 21
4512.931598713263
 31
0.0
  0
LINE
  5
18025
330
17C65
100
AcDbEntity
  8
寸法
 62
     0
 48
50.0
370
    -2
100
AcDbLine
 10
7394.673057123657
 20
4677.931598713261
 30
0.0
 11
7722.216159445403
 21
4677.931598713261
 31
0.0
  0
LINE
  5
18026
330
17C65
100
AcDbEntity
  8
寸法
 62
     0
 48
50.0
370
    -2
100
AcDbLine
 10
7662.216159445404
 20
4512.931598713263
 30
0.0
 11
7662.216159445404
 21
4677.931598713261
 31
0.0
  0
LINE
  5
18027
330
17C65
100
AcDbEntity
  8
寸法
 62
     0
 48
50.0
370
    -2
100
AcDbLine
 10
7662.216159445404
 20
4677.931598713261
 30
0.0
 11
7662.216159445404
 21
5054.90216146174
 31
0.0
  0
INSERT
  5
18028
330
17C65
100
AcDbEntity
  8
寸法
 62
     0
 48
50.0
370
    -2
100
AcDbBlockReference
  2
_DOTSMALL
 10
7662.216159445404
 20
4512.931598713263
 30
0.0
 41
100.0
 42
100.0
 43
100.0
 50
270.0
  0
INSERT
  5
18029
330
17C65
100
AcDbEntity
  8
寸法
 62
     0
 48
50.0
370
    -2
100
AcDbBlockReference
  2
_DOTSMALL
 10
7662.216159445404
 20
4677.931598713261
 30
0.0
 41
100.0
 42
100.0
 43
100.0
 50
90.0
  0
MTEXT
  5
1802A
330
17C65
100
AcDbEntity
  8
寸法
 62
     7
 48
50.0
100
AcDbMText
 10
7562.216159445402
 20
4916.416880087502
 30
0.0
 40
120.0
 41
0.0
 71
     5
 72
     1
  1
\A1;165
  7
STYLE1
 11
0.0000000000000001
 21
1.0
 31
0.0
 73
     1
 44
1.0
1001
ACAD
1000
MTEXTBEGIN
1070
    73
1070
     1
1070
    44
1040
1.0
1070
    74
1070
     0
1000
MTEXTEND
  0
POINT
  5
1802B
330
17C65
100
AcDbEntity
  8
DEFPOINTS
 62
     0
 48
50.0
100
AcDbPoint
 10
7374.673057123655
 20
4512.931598713263
 30
0.0
  0
POINT
  5
1802C
330
17C65
100
AcDbEntity
  8
DEFPOINTS
 62
     0
 48
50.0
100
AcDbPoint
 10
7374.673057123657
 20
4677.931598713261
 30
0.0
  0
POINT
  5
1802D
330
17C65
100
AcDbEntity
  8
DEFPOINTS
 62
     0
 48
50.0
100
AcDbPoint
 10
7662.216159445404
 20
4677.931598713261
 30
0.0
  0
ENDBLK
  5
17C71
330
17C65
100
AcDbEntity
  8
0
 48
50.0
100
AcDbBlockEnd
  0
ENDSEC
  0
SECTION
  2
ENTITIES
  0
MTEXT
  5
763F
330
747D
100
AcDbEntity
  8
0
100
AcDbMText
 10
302.846345836809
 20
280.1983726409901
 30
0.0
 40
3.5
 41
5.323721266742722
 71
     1
 72
     5
  1

  7
MSMINCHO
 73
     1
 44
1.0
1001
ACAD
1000
MTEXTBEGIN
1070
    73
1070
     1
1070
    44
1040
1.0
1070
    74
1070
     0
1000
MTEXTEND
  0
LINE
  5
10B57
330
747D
100
AcDbEntity
  8
補助
  6
PHANTOM
 62
   230
 48
50.0
100
AcDbLine
 10
139.9999999999995
 20
11409.6
 30
0.0
 11
16307.2
 21
11409.6
 31
0.0
  0
LINE
  5
10B59
330
747D
100
AcDbEntity
  8
仕様書枠
  6
Continuous
 48
50.0
100
AcDbLine
 10
13107.2
 20
1200.0
 30
0.0
 11
13107.2
 21
-0.0000000000000729
 31
0.0
  0
LINE
  5
10B5C
330
747D
100
AcDbEntity
  8
仕様書枠
 48
50.0
100
AcDbLine
 10
16307.2
 20
1200.0
 30
0.0
 11
16307.2
 21
-0.0000000000000909
 31
0.0
  0
LINE
  5
10B5D
330
747D
100
AcDbEntity
  8
仕様書枠
 48
50.0
100
AcDbLine
 10
140.0
 20
0.0
 30
0.0
 11
16307.2
 21
-0.0000000000000909
 31
0.0
  0
LINE
  5
10B5E
330
747D
100
AcDbEntity
  8
補助
  6
PHANTOM
 62
   230
 48
50.0
100
AcDbLine
 10
16307.2
 20
11409.6
 30
0.0
 11
16307.2
 21
1200.0
 31
0.0
  0
LINE
  5
10B6C
330
747D
100
AcDbEntity
  8
仕様書枠
 48
50.0
100
AcDbLine
 10
13107.2
 20
1200.0
 30
0.0
 11
16307.2
 21
1200.0
 31
0.0
  0
LINE
  5
10B6D
330
747D
100
AcDbEntity
  8
補助
  6
PHANTOM
 62
   230
 48
50.0
100
AcDbLine
 10
13107.2
 20
11409.6
 30
0.0
 11
13107.2
 21
4800.0
 31
0.0
  0
LINE
  5
10B6F
330
747D
100
AcDbEntity
  8
補助
  6
PHANTOM
 62
   230
 48
50.0
100
AcDbLine
 10
13107.2
 20
4800.0
 30
0.0
 11
16307.2
 21
4800.0
 31
0.0
  0
LINE
  5
10B72
330
747D
100
AcDbEntity
  8
文字
 62
     7
 48
50.0
100
AcDbLine
 10
13187.2
 20
400.0
 30
0.0
 11
16227.2
 21
400.0
 31
0.0
  0
TEXT
  5
10B73
330
747D
100
AcDbEntity
  8
文字
 62
     7
 48
50.0
100
AcDbText
 10
13162.9790565769
 20
895.0906074299405
 30
0.0
 40
200.0
  1
外 形 図
  7
STYLE2
100
AcDbText
  0
TEXT
  5
10B74
330
747D
100
AcDbEntity
  8
文字
 62
     7
 48
50.0
100
AcDbText
 10
13201.43669998441
 20
477.2740661031255
 30
0.0
 40
160.0
  1
機種名
  7
STYLE2
100
AcDbText
  0
TEXT
  5
10B75
330
747D
100
AcDbEntity
  8
文字
 62
     7
 48
50.0
100
AcDbText
 10
13209.4053442172
 20
228.5435242569016
 30
0.0
 40
100.0
  1
○有効開口寸法 ： 2844×1886(mm)
  7
STYLE2
100
AcDbText
  0
TEXT
  5
10B76
330
747D
100
AcDbEntity
  8
文字
 62
     7
 48
50.0
100
AcDbText
 10
13209.4053442172
 20
76.09434707649343
 30
0.0
 40
100.0
  1
○床面積 ： 9.30㎡(2.82坪) 　
  7
STYLE2
100
AcDbText
  0
TEXT
  5
10B79
330
747D
100
AcDbEntity
  8
文字
 62
     7
 48
50.0
100
AcDbText
 10
14524.131837222
 20
1031.557706291228
 30
0.0
 40
100.0
  1
NO.56      <縮尺> S=1/40
  7
STYLE2
100
AcDbText
  0
LINE
  5
10B7B
330
747D
100
AcDbEntity
  8
仕様書枠
 48
50.0
100
AcDbLine
 10
13107.2
 20
800.0
 30
0.0
 11
14251.2
 21
800.0
 31
0.0
  0
LINE
  5
10B88
330
747D
100
AcDbEntity
  8
仕様書枠
  6
Continuous
 48
50.0
100
AcDbLine
 10
14251.2
 20
1200.0
 30
0.0
 11
14251.2
 21
800.0
 31
0.0
  0
DIMENSION
  5
164EB
330
747D
100
AcDbEntity
  8
寸法
100
AcDbDimension
  2
*D1
 10
8387.206344597709
 20
6982.497424545923
 30
0.0
 11
8287.206344597709
 21
8507.497424545928
 31
0.0
 70
    32
 71
     5
 42
-1.0
  3
INABA_S40G
100
AcDbAlignedDimension
 13
7374.673057123664
 23
10032.49742454593
 33
0.0
 14
7374.673057123638
 24
6982.497424545923
 34
0.0
 50
90.0
100
AcDbRotatedDimension
1001
ACAD
1000
DSTYLE
1002
{
1002
}
  0
LINE
  5
164EE
330
747D
100
AcDbEntity
  8
部品1
100
AcDbLine
 10
4379.673057123642
 20
9552.497424545839
 30
0.0
 11
4379.673057123656
 21
7047.497424545831
 31
0.0
  0
LINE
  5
164EF
330
747D
100
AcDbEntity
  8
部品1
100
AcDbLine
 10
7319.673057123653
 20
9552.497424545936
 30
0.0
 11
7319.67305712364
 21
6982.49742454592
 31
0.0
  0
LINE
  5
164F0
330
747D
100
AcDbEntity
  8
部品1
100
AcDbLine
 10
7346.673057123651
 20
10004.49742454593
 30
0.0
 11
7346.673057123641
 21
7037.49742454592
 31
0.0
  0
LINE
  5
164F1
330
747D
100
AcDbEntity
  8
部品1
100
AcDbLine
 10
7374.673057123664
 20
10032.49742454593
 30
0.0
 11
7374.673057123638
 21
6982.497424545923
 31
0.0
  0
DIMENSION
  5
164F2
330
747D
100
AcDbEntity
  8
寸法
100
AcDbDimension
  2
*D2
 10
8022.099402858072
 20
7037.497424545918
 30
0.0
 11
7922.087591834451
 21
8507.497424545928
 31
0.0
 70
    32
  1
7X420=<>
 71
     5
 42
-1.0
  3
INABA_S40G
100
AcDbAlignedDimension
 13
7374.673057123664
 23
9977.497424545935
 33
0.0
 14
7374.673057123638
 24
7037.49742454592
 34
0.0
 50
90.0
100
AcDbRotatedDimension
1001
ACAD
1000
DSTYLE
1002
{
1002
}
  0
LINE
  5
164F4
330
747D
100
AcDbEntity
  8
部品1
100
AcDbLine
 10
4324.673057123628
 20
10032.4974245458
 30
0.0
 11
4324.673057123656
 21
6982.497424545792
 31
0.0
  0
LINE
  5
164F5
330
747D
100
AcDbEntity
  8
部品1
100
AcDbLine
 10
4352.673057123638
 20
7037.497424545789
 30
0.0
 11
4352.673057123651
 21
10004.49742454583
 31
0.0
  0
DIMENSION
  5
164F7
330
747D
100
AcDbEntity
  8
寸法
 48
50.0
100
AcDbDimension
  2
*D3
 10
4427.673057123657
 20
6448.066653779668
 30
0.0
 11
5849.673057123648
 21
6548.078464803289
 31
0.0
 70
    32
  1
有効開口部間口 <>
 71
     5
 42
-1.0
  3
INABA_S40G
100
AcDbAlignedDimension
 13
7271.673057123638
 23
7008.497424545833
 33
0.0
 14
4427.673057123657
 24
7008.497424545831
 34
0.0
100
AcDbRotatedDimension
1001
ACAD
1000
DSTYLE
1002
{
1070
    75
1070
     1
1070
   279
1070
     2
1002
}
  0
LINE
  5
164F8
330
747D
100
AcDbEntity
  8
部品1
 48
50.0
100
AcDbLine
 10
4391.673057123655
 20
7027.99742454583
 30
0.0
 11
7307.67305712364
 21
7027.99742454583
 31
0.0
  0
DIMENSION
  5
164F9
330
747D
100
AcDbEntity
  8
寸法
100
AcDbDimension
  2
*D4
 10
7374.673057123638
 20
6161.893658188794
 30
0.0
 11
5849.673057123648
 21
6261.893658188793
 31
0.0
 70
    32
 71
     5
 42
-1.0
  3
INABA_S40G
100
AcDbAlignedDimension
 13
4324.673057123656
 23
6982.497424545759
 33
0.0
 14
7374.673057123638
 24
6982.497424545887
 34
0.0
100
AcDbRotatedDimension
1001
ACAD
1000
DSTYLE
1002
{
1002
}
  0
DIMENSION
  5
164FA
330
747D
100
AcDbEntity
  8
寸法
 48
50.0
100
AcDbDimension
  2
*D5
 10
4324.673057123656
 20
6448.066653779668
 30
0.0
 11
4016.187775749417
 21
6448.066653779668
 31
0.0
 70
   160
 71
     5
 42
-1.0
  3
INABA_S40G
100
AcDbAlignedDimension
 13
4379.673057123652
 23
6982.497424545832
 33
0.0
 14
4324.673057123656
 24
6982.49742454583
 34
0.0
100
AcDbRotatedDimension
1001
ACAD
1000
DSTYLE
1002
{
1002
}
  0
DIMENSION
  5
164FB
330
747D
100
AcDbEntity
  8
寸法
 48
50.0
100
AcDbDimension
  2
*D6
 10
4379.673057123652
 20
6448.066653779668
 30
0.0
 11
4540.575028123714
 21
6548.066653779668
 31
0.0
 70
   160
 71
     5
 42
-1.0
  3
INABA_S40G
100
AcDbAlignedDimension
 13
4427.673057123657
 23
7008.497424545831
 33
0.0
 14
4379.673057123652
 24
6982.497424545832
 34
0.0
100
AcDbRotatedDimension
1001
ACAD
1000
DSTYLE
1002
{
1070
   279
1070
     2
1002
}
  0
LINE
  5
164FC
330
747D
100
AcDbEntity
  8
部品1
100
AcDbLine
 10
4379.673057123652
 20
6982.497424545832
 30
0.0
 11
4324.673057123656
 21
6982.49742454583
 31
0.0
  0
LINE
  5
164FD
330
747D
100
AcDbEntity
  8
部品1
 48
50.0
100
AcDbLine
 10
4379.673057123656
 20
7018.497424545831
 30
0.0
 11
4356.673057123656
 21
7018.497424545831
 31
0.0
  0
LINE
  5
164FE
330
747D
100
AcDbEntity
  8
部品1
 48
50.0
100
AcDbLine
 10
4389.673057123657
 20
7008.497424545831
 30
0.0
 11
4379.673057123656
 21
6987.497424545832
 31
0.0
  0
LINE
  5
164FF
330
747D
100
AcDbEntity
  8
部品1
 48
50.0
100
AcDbLine
 10
4379.673057123656
 20
7047.497424545831
 30
0.0
 11
4379.673057123652
 21
6982.497424545832
 31
0.0
  0
LINE
  5
16500
330
747D
100
AcDbEntity
  8
部品1
 48
50.0
100
AcDbLine
 10
4427.673057123657
 20
7008.497424545833
 30
0.0
 11
4427.673057123657
 21
7017.497424545833
 31
0.0
  0
LINE
  5
16501
330
747D
100
AcDbEntity
  8
部品1
 48
50.0
100
AcDbLine
 10
4427.673057123657
 20
7047.497424545833
 30
0.0
 11
4427.673057123657
 21
7038.497424545832
 31
0.0
  0
LINE
  5
16502
330
747D
100
AcDbEntity
  8
部品1
100
AcDbLine
 10
4427.673057123657
 20
7047.497424545833
 30
0.0
 11
4379.673057123656
 21
7047.497424545831
 31
0.0
  0
LINE
  5
16503
330
747D
100
AcDbEntity
  8
部品1
100
AcDbLine
 10
4427.673057123657
 20
7008.497424545833
 30
0.0
 11
4379.673057123656
 21
7008.497424545831
 31
0.0
  0
LINE
  5
16504
330
747D
100
AcDbEntity
  8
部品1
100
AcDbLine
 10
4379.673057123656
 20
7018.497424545831
 30
0.0
 11
4356.673057123656
 21
7018.497424545831
 31
0.0
  0
LINE
  5
16505
330
747D
100
AcDbEntity
  8
部品1
100
AcDbLine
 10
4379.673057123656
 20
7037.497424545756
 30
0.0
 11
4324.673057123654
 21
7037.497424545756
 31
0.0
  0
LINE
  5
16506
330
747D
100
AcDbEntity
  8
部品1
100
AcDbLine
 10
4352.673057123638
 20
7037.497424545792
 30
0.0
 11
4324.673057123654
 21
7037.497424545792
 31
0.0
  0
LINE
  5
16507
330
747D
100
AcDbEntity
  8
部品1
100
AcDbLine
 10
4352.673057123655
 20
7037.497424545808
 30
0.0
 11
4324.673057123654
 21
7037.497424545808
 31
0.0
  0
LINE
  5
16508
330
747D
100
AcDbEntity
  8
部品1
100
AcDbLine
 10
4324.67305712364
 20
7457.497424545945
 30
0.0
 11
4352.673057123641
 21
7457.497424545945
 31
0.0
  0
LINE
  5
1650A
330
747D
100
AcDbEntity
  8
部品1
100
AcDbLine
 10
4324.67305712364
 20
7877.497424545946
 30
0.0
 11
4352.673057123641
 21
7877.497424545946
 31
0.0
  0
LINE
  5
1650B
330
747D
100
AcDbEntity
  8
部品1
100
AcDbLine
 10
4324.67305712364
 20
8297.497424545944
 30
0.0
 11
4352.673057123641
 21
8297.497424545944
 31
0.0
  0
LINE
  5
1650C
330
747D
100
AcDbEntity
  8
部品1
100
AcDbLine
 10
4324.67305712364
 20
8717.497424545944
 30
0.0
 11
4352.673057123641
 21
8717.497424545944
 31
0.0
  0
LINE
  5
1650D
330
747D
100
AcDbEntity
  8
部品1
100
AcDbLine
 10
4352.673057123643
 20
9137.497424545808
 30
0.0
 11
4324.673057123643
 21
9137.497424545808
 31
0.0
  0
DIMENSION
  5
1650E
330
747D
100
AcDbEntity
  8
寸法
 48
50.0
100
AcDbDimension
  2
*D7
 10
7271.673057123638
 20
6448.066653779668
 30
0.0
 11
7160.710159474891
 21
6548.066653779668
 31
0.0
 70
   160
 71
     5
 42
-1.0
  3
INABA_S40G
100
AcDbAlignedDimension
 13
7319.67305712364
 23
6982.49742454592
 33
0.0
 14
7271.673057123638
 24
7008.497424545833
 34
0.0
100
AcDbRotatedDimension
1001
ACAD
1000
DSTYLE
1002
{
1070
   279
1070
     2
1002
}
  0
DIMENSION
  5
1650F
330
747D
100
AcDbEntity
  8
寸法
 48
50.0
100
AcDbDimension
  2
*D8
 10
7319.67305712364
 20
6448.066653779669
 30
0.0
 11
7683.158338497877
 21
6448.066653779669
 31
0.0
 70
   160
 71
     5
 42
-1.0
  3
INABA_S40G
100
AcDbAlignedDimension
 13
7374.673057123638
 23
6982.497424545923
 33
0.0
 14
7319.67305712364
 24
6982.49742454592
 34
0.0
100
AcDbRotatedDimension
1001
ACAD
1000
DSTYLE
1002
{
1002
}
  0
DIMENSION
  5
16510
330
747D
100
AcDbEntity
  8
寸法
100
AcDbDimension
  2
*D9
 10
8022.099402858048
 20
6982.497424545923
 30
0.0
 11
8022.099402858048
 21
6604.635957641061
 31
0.0
 70
   160
 71
     5
 42
-1.0
  3
INABA_S40G
100
AcDbAlignedDimension
 13
7374.673057123638
 23
7037.49742454592
 33
0.0
 14
7374.673057123638
 24
6982.497424545923
 34
0.0
 50
90.0
100
AcDbRotatedDimension
1001
ACAD
1000
DSTYLE
1002
{
1002
}
  0
LINE
  5
16511
330
747D
100
AcDbEntity
  8
部品1
 48
50.0
100
AcDbLine
 10
7309.673057123639
 20
7008.497424545831
 30
0.0
 11
7319.673057123639
 21
6987.497424545832
 31
0.0
  0
LINE
  5
16512
330
747D
100
AcDbEntity
  8
部品1
100
AcDbLine
 10
7319.673057123639
 20
7018.497424545829
 30
0.0
 11
7342.673057123639
 21
7018.497424545831
 31
0.0
  0
LINE
  5
16513
330
747D
100
AcDbEntity
  8
部品1
 48
50.0
100
AcDbLine
 10
7271.673057123638
 20
7047.497424545833
 30
0.0
 11
7271.673057123638
 21
7038.497424545832
 31
0.0
  0
LINE
  5
16514
330
747D
100
AcDbEntity
  8
部品1
100
AcDbLine
 10
7271.673057123638
 20
7047.497424545833
 30
0.0
 11
7319.67305712364
 21
7047.497424545831
 31
0.0
  0
LINE
  5
16515
330
747D
100
AcDbEntity
  8
部品1
 48
50.0
100
AcDbLine
 10
7271.673057123638
 20
7008.497424545833
 30
0.0
 11
7271.673057123638
 21
7017.497424545833
 31
0.0
  0
LINE
  5
16516
330
747D
100
AcDbEntity
  8
部品1
100
AcDbLine
 10
7271.673057123638
 20
7008.497424545833
 30
0.0
 11
7319.673057123639
 21
7008.497424545831
 31
0.0
  0
LINE
  5
16517
330
747D
100
AcDbEntity
  8
部品1
100
AcDbLine
 10
7319.673057123639
 20
7037.497424545934
 30
0.0
 11
7374.673057123671
 21
7037.497424545934
 31
0.0
  0
LINE
  5
16518
330
747D
100
AcDbEntity
  8
部品1
100
AcDbLine
 10
7374.673057123638
 20
6982.497424545923
 30
0.0
 11
7319.67305712364
 21
6982.49742454592
 31
0.0
  0
LINE
  5
16519
330
747D
100
AcDbEntity
  8
部品1
100
AcDbLine
 10
7346.673057123668
 20
7457.497424545934
 30
0.0
 11
7374.673057123668
 21
7457.497424545934
 31
0.0
  0
LINE
  5
1651B
330
747D
100
AcDbEntity
  8
部品1
100
AcDbLine
 10
7346.673057123668
 20
7877.497424545935
 30
0.0
 11
7374.673057123668
 21
7877.497424545935
 31
0.0
  0
LINE
  5
1651C
330
747D
100
AcDbEntity
  8
部品1
100
AcDbLine
 10
7346.673057123668
 20
8297.497424545936
 30
0.0
 11
7374.673057123668
 21
8297.497424545936
 31
0.0
  0
LINE
  5
1651D
330
747D
100
AcDbEntity
  8
部品1
100
AcDbLine
 10
7346.673057123668
 20
8717.497424545934
 30
0.0
 11
7374.673057123668
 21
8717.497424545934
 31
0.0
  0
LINE
  5
1651E
330
747D
100
AcDbEntity
  8
部品1
100
AcDbLine
 10
7346.673057123668
 20
9137.497424545934
 30
0.0
 11
7374.673057123668
 21
9137.497424545934
 31
0.0
  0
LINE
  5
16521
330
747D
100
AcDbEntity
  8
部品1
100
AcDbLine
 10
7319.67305712367
 20
9137.497424545934
 30
0.0
 11
4379.673057123643
 21
9137.497424545937
 31
0.0
  0
LINE
  5
16522
330
747D
100
AcDbEntity
  8
部品1
100
AcDbLine
 10
4352.673057123651
 20
10004.49742454595
 30
0.0
 11
5837.173057123661
 21
10004.49742454595
 31
0.0
  0
LINE
  5
16523
330
747D
100
AcDbEntity
  8
部品1
100
AcDbLine
 10
4324.673057123663
 20
10032.49742454583
 30
0.0
 11
7374.673057123664
 21
10032.49742454593
 31
0.0
  0
LINE
  5
16524
330
747D
100
AcDbEntity
  8
部品1
100
AcDbLine
 10
4353.173057123664
 20
9552.497424545837
 30
0.0
 11
5836.173057123662
 21
9552.497424545942
 31
0.0
  0
LINE
  5
16525
330
747D
100
AcDbEntity
  8
細線
 48
50.0
100
AcDbLine
 10
5836.173057123663
 20
10002.49742454593
 30
0.0
 11
4353.173057123663
 21
9552.497424545837
 31
0.0
  0
LINE
  5
16526
330
747D
100
AcDbEntity
  8
部品1
100
AcDbLine
 10
4353.173057123662
 20
10002.49742454583
 30
0.0
 11
5836.173057123663
 21
10002.49742454594
 31
0.0
  0
LINE
  5
16527
330
747D
100
AcDbEntity
  8
細線
 48
50.0
100
AcDbLine
 10
5836.173057123662
 20
9552.497424545942
 30
0.0
 11
4353.173057123662
 21
10002.49742454583
 31
0.0
  0
DIMENSION
  5
16528
330
747D
100
AcDbEntity
  8
寸法
100
AcDbDimension
  2
*D10
 10
7319.673057123664
 20
10548.30564417093
 30
0.0
 11
5849.673057123664
 21
10648.31745519455
 31
0.0
 70
    32
  1
7X420=<>
 71
     5
 42
2940.000000000001
  3
INABA_S40G
100
AcDbAlignedDimension
 13
4379.673057123663
 23
10032.49742454583
 33
0.0
 14
7319.673057123664
 24
10032.49742454593
 34
0.0
100
AcDbRotatedDimension
1001
ACAD
1000
DSTYLE
1002
{
1002
}
  0
DIMENSION
  5
1652B
330
747D
100
AcDbEntity
  8
寸法
100
AcDbDimension
  2
*D11
 10
4379.673057123663
 20
10548.30564417082
 30
0.0
 11
4016.187775749389
 21
10548.30564417082
 31
0.0
 70
   160
 71
     5
 42
55.00000000003456
  3
INABA_S40G
100
AcDbAlignedDimension
 13
4324.673057123628
 23
10032.49742454583
 33
0.0
 14
4379.673057123663
 24
10032.49742454583
 34
0.0
100
AcDbRotatedDimension
1001
ACAD
1000
DSTYLE
1002
{
1002
}
  0
LINE
  5
1652C
330
747D
100
AcDbEntity
  8
部品1
 48
50.0
100
AcDbLine
 10
4353.173057123662
 20
10002.49742454583
 30
0.0
 11
4353.173057123663
 21
9552.497424545832
 31
0.0
  0
LINE
  5
1652E
330
747D
100
AcDbEntity
  8
部品1
100
AcDbLine
 10
4352.673057123637
 20
9557.497424545806
 30
0.0
 11
4324.673057123638
 21
9557.497424545806
 31
0.0
  0
LINE
  5
1652F
330
747D
100
AcDbEntity
  8
部品1
100
AcDbLine
 10
4379.673057123628
 20
10032.4974245458
 30
0.0
 11
4379.67305712363
 21
10004.4974245458
 31
0.0
  0
LINE
  5
16530
330
747D
100
AcDbEntity
  8
部品1
100
AcDbLine
 10
4379.673057123663
 20
10032.49742454583
 30
0.0
 11
4379.673057123663
 21
10004.49742454583
 31
0.0
  0
LINE
  5
16531
330
747D
100
AcDbEntity
  8
部品1
100
AcDbLine
 10
4352.67305712363
 20
9977.497424545807
 30
0.0
 11
4324.67305712363
 21
9977.497424545807
 31
0.0
  0
LINE
  5
16533
330
747D
100
AcDbEntity
  8
部品1
100
AcDbLine
 10
4799.673057123663
 20
10032.49742454595
 30
0.0
 11
4799.673057123663
 21
10004.49742454595
 31
0.0
  0
LINE
  5
16534
330
747D
100
AcDbEntity
  8
部品1
100
AcDbLine
 10
4799.673057123663
 20
10032.49742454583
 30
0.0
 11
4799.673057123663
 21
10004.49742454583
 31
0.0
  0
LINE
  5
16535
330
747D
100
AcDbEntity
  8
部品1
100
AcDbLine
 10
4799.673057123663
 20
10032.49742454583
 30
0.0
 11
4799.673057123663
 21
10004.49742454583
 31
0.0
  0
LINE
  5
16537
330
747D
100
AcDbEntity
  8
部品1
100
AcDbLine
 10
5219.673057123663
 20
10032.49742454595
 30
0.0
 11
5219.673057123663
 21
10004.49742454595
 31
0.0
  0
LINE
  5
16538
330
747D
100
AcDbEntity
  8
部品1
100
AcDbLine
 10
5219.673057123663
 20
10032.49742454583
 30
0.0
 11
5219.673057123663
 21
10004.49742454583
 31
0.0
  0
LINE
  5
16539
330
747D
100
AcDbEntity
  8
部品1
100
AcDbLine
 10
5219.673057123663
 20
10032.49742454583
 30
0.0
 11
5219.673057123663
 21
10004.49742454583
 31
0.0
  0
LINE
  5
1653A
330
747D
100
AcDbEntity
  8
部品1
100
AcDbLine
 10
5639.673057123663
 20
10032.49742454583
 30
0.0
 11
5639.673057123663
 21
10004.49742454583
 31
0.0
  0
LINE
  5
1653B
330
747D
100
AcDbEntity
  8
部品1
100
AcDbLine
 10
5639.673057123663
 20
10032.49742454583
 30
0.0
 11
5639.673057123663
 21
10004.49742454583
 31
0.0
  0
LINE
  5
1653C
330
747D
100
AcDbEntity
  8
部品1
100
AcDbLine
 10
5639.673057123663
 20
10032.49742454595
 30
0.0
 11
5639.673057123663
 21
10004.49742454595
 31
0.0
  0
LINE
  5
1653E
330
747D
100
AcDbEntity
  8
部品1
100
AcDbLine
 10
5862.173057123663
 20
10004.49742454595
 30
0.0
 11
7346.673057123664
 21
10004.49742454593
 31
0.0
  0
LINE
  5
1653F
330
747D
100
AcDbEntity
  8
細線
 48
50.0
100
AcDbLine
 10
7346.173057123664
 20
9552.497424545935
 30
0.0
 11
5863.173057123663
 21
10002.49742454593
 31
0.0
  0
LINE
  5
16540
330
747D
100
AcDbEntity
  8
部品1
100
AcDbLine
 10
5863.173057123662
 20
9552.497424545942
 30
0.0
 11
7346.173057123664
 21
9552.497424545935
 31
0.0
  0
LINE
  5
16541
330
747D
100
AcDbEntity
  8
部品1
100
AcDbLine
 10
5863.173057123663
 20
10002.49742454593
 30
0.0
 11
7346.173057123664
 21
10002.49742454593
 31
0.0
  0
LINE
  5
16542
330
747D
100
AcDbEntity
  8
細線
 48
50.0
100
AcDbLine
 10
7346.173057123664
 20
10002.49742454593
 30
0.0
 11
5863.173057123662
 21
9552.497424545942
 31
0.0
  0
LINE
  5
16544
330
747D
100
AcDbEntity
  8
部品1
 48
50.0
100
AcDbLine
 10
5862.173057123663
 20
10004.49742454594
 30
0.0
 11
5862.173057123663
 21
9552.497424545942
 31
0.0
  0
LINE
  5
16545
330
747D
100
AcDbEntity
  8
部品1
 48
50.0
100
AcDbLine
 10
5837.173057123663
 20
10004.49742454594
 30
0.0
 11
5837.173057123663
 21
9552.497424545942
 31
0.0
  0
LINE
  5
16546
330
747D
100
AcDbEntity
  8
部品1
 48
50.0
100
AcDbLine
 10
5863.173057123663
 20
10002.49742454593
 30
0.0
 11
5863.173057123663
 21
9552.497424545942
 31
0.0
  0
LINE
  5
16547
330
747D
100
AcDbEntity
  8
部品1
 48
50.0
100
AcDbLine
 10
5836.173057123663
 20
10002.49742454593
 30
0.0
 11
5836.173057123663
 21
9552.497424545942
 31
0.0
  0
LINE
  5
16548
330
747D
100
AcDbEntity
  8
部品1
 48
50.0
100
AcDbLine
 10
5849.673057123727
 20
9552.497424545943
 30
0.0
 11
5849.673057123762
 21
7112.49742454583
 31
0.0
  0
LINE
  5
1654B
330
747D
100
AcDbEntity
  8
部品1
100
AcDbLine
 10
5837.173057123663
 20
9552.497424545942
 30
0.0
 11
5862.173057123663
 21
9552.497424545942
 31
0.0
  0
LINE
  5
1654C
330
747D
100
AcDbEntity
  8
部品1
100
AcDbLine
 10
5837.173057123663
 20
9996.497424545935
 30
0.0
 11
5862.173057123663
 21
9996.497424545939
 31
0.0
  0
LINE
  5
1654D
330
747D
100
AcDbEntity
  8
部品1
100
AcDbLine
 10
5878.673057123663
 20
10022.49742454593
 30
0.0
 11
5884.673057123663
 21
10022.49742454593
 31
0.0
  0
LINE
  5
1654E
330
747D
100
AcDbEntity
  8
部品1
100
AcDbLine
 10
5884.673057123663
 20
10022.49742454593
 30
0.0
 11
5884.673057123663
 21
10004.49742454594
 31
0.0
  0
LINE
  5
1654F
330
747D
100
AcDbEntity
  8
部品1
100
AcDbLine
 10
5814.673057123663
 20
10022.49742454593
 30
0.0
 11
5820.673057123663
 21
10022.49742454593
 31
0.0
  0
LINE
  5
16550
330
747D
100
AcDbEntity
  8
部品1
100
AcDbLine
 10
5814.673057123663
 20
10022.49742454593
 30
0.0
 11
5814.673057123663
 21
10004.49742454594
 31
0.0
  0
LINE
  5
16551
330
747D
100
AcDbEntity
  8
部品1
100
AcDbLine
 10
6059.673057123664
 20
10032.49742454595
 30
0.0
 11
6059.673057123664
 21
10004.49742454595
 31
0.0
  0
LINE
  5
16554
330
747D
100
AcDbEntity
  8
部品1
100
AcDbLine
 10
6479.673057123664
 20
10032.49742454595
 30
0.0
 11
6479.673057123664
 21
10004.49742454595
 31
0.0
  0
LINE
  5
16555
330
747D
100
AcDbEntity
  8
部品1
100
AcDbLine
 10
6899.673057123663
 20
10032.49742454595
 30
0.0
 11
6899.673057123663
 21
10004.49742454595
 31
0.0
  0
DIMENSION
  5
16556
330
747D
100
AcDbEntity
  8
寸法
100
AcDbDimension
  2
*D12
 10
8022.099402858072
 20
9977.497424545935
 30
0.0
 11
8022.099402858072
 21
10340.98270592017
 31
0.0
 12
0.0
 22
-420.0
 32
0.0
 70
   160
 71
     5
 42
-1.0
  3
INABA_S40G
100
AcDbAlignedDimension
 13
7374.673057123664
 23
10032.49742454593
 33
0.0
 14
7374.673057123664
 24
9977.497424545935
 34
0.0
 50
90.0
100
AcDbRotatedDimension
1001
ACAD
1000
DSTYLE
1002
{
1002
}
  0
DIMENSION
  5
16557
330
747D
100
AcDbEntity
  8
寸法
100
AcDbDimension
  2
*D13
 10
7374.673057123664
 20
10548.30564417091
 30
0.0
 11
7683.158338497903
 21
10548.30564417091
 31
0.0
 70
   160
 71
     5
 42
55.0
  3
INABA_S40G
100
AcDbAlignedDimension
 13
7319.673057123664
 23
10032.49742454593
 33
0.0
 14
7374.673057123664
 24
10032.49742454593
 34
0.0
100
AcDbRotatedDimension
1001
ACAD
1000
DSTYLE
1002
{
1002
}
  0
DIMENSION
  5
16558
330
747D
100
AcDbEntity
  8
寸法
100
AcDbDimension
  2
*D14
 10
7701.530782985688
 20
9457.279608877044
 30
0.0
 11
7601.530782985688
 21
10102.27960887704
 31
0.0
 12
0.0
 22
-420.0
 32
0.0
 70
    32
 71
     5
 42
-1.0
  3
INABA_S40G
100
AcDbAlignedDimension
 13
7346.173057123664
 23
10002.49742454593
 33
0.0
 14
7346.173057123664
 24
9552.497424545935
 34
0.0
 50
90.0
100
AcDbRotatedDimension
1001
ACAD
1000
DSTYLE
1002
{
1002
}
  0
LINE
  5
16559
330
747D
100
AcDbEntity
  8
部品1
100
AcDbLine
 10
7346.173057123664
 20
10002.49742454593
 30
0.0
 11
7346.173057123664
 21
9552.497424545935
 31
0.0
  0
LINE
  5
1655B
330
747D
100
AcDbEntity
  8
部品1
100
AcDbLine
 10
7346.673057123664
 20
9557.497424545934
 30
0.0
 11
7374.673057123664
 21
9557.497424545934
 31
0.0
  0
LINE
  5
1655C
330
747D
100
AcDbEntity
  8
部品1
100
AcDbLine
 10
7319.673057123664
 20
10032.49742454593
 30
0.0
 11
7319.673057123664
 21
10004.49742454593
 31
0.0
  0
LINE
  5
1655D
330
747D
100
AcDbEntity
  8
部品1
100
AcDbLine
 10
7319.673057123664
 20
10032.49742454595
 30
0.0
 11
7319.673057123664
 21
10004.49742454595
 31
0.0
  0
LINE
  5
1655E
330
747D
100
AcDbEntity
  8
部品1
100
AcDbLine
 10
7346.673057123664
 20
9977.497424545935
 30
0.0
 11
7374.673057123664
 21
9977.497424545935
 31
0.0
  0
LINE
  5
16843
330
747D
100
AcDbEntity
  8
部品1
100
AcDbLine
 10
7319.67305712367
 20
8717.497424545934
 30
0.0
 11
4379.673057123643
 21
8717.497424545937
 31
0.0
  0
LINE
  5
16844
330
747D
100
AcDbEntity
  8
部品1
100
AcDbLine
 10
7319.67305712367
 20
8297.497424545936
 30
0.0
 11
4379.673057123643
 21
8297.497424545936
 31
0.0
  0
LINE
  5
16845
330
747D
100
AcDbEntity
  8
部品1
100
AcDbLine
 10
7319.67305712367
 20
7457.497424545934
 30
0.0
 11
4379.673057123643
 21
7457.497424545936
 31
0.0
  0
LINE
  5
16846
330
747D
100
AcDbEntity
  8
部品1
100
AcDbLine
 10
7319.67305712367
 20
7877.497424545935
 30
0.0
 11
4379.673057123643
 21
7877.497424545936
 31
0.0
  0
LINE
  5
16848
330
747D
100
AcDbEntity
  8
部品1
 48
50.0
100
AcDbLine
 10
4379.673057123652
 20
6982.497424545832
 30
0.0
 11
7319.67305712364
 21
6982.497424545816
 31
0.0
  0
LINE
  5
16859
330
747D
100
AcDbEntity
  8
部品1
 48
50.0
100
AcDbLine
 10
4379.673057123656
 20
7067.49742454583
 30
0.0
 11
7319.67305712364
 21
7067.49742454583
 31
0.0
  0
LINE
  5
1685A
330
747D
100
AcDbEntity
  8
部品1
 48
50.0
100
AcDbLine
 10
4379.673057123656
 20
7112.49742454583
 30
0.0
 11
7319.673057123641
 21
7112.49742454583
 31
0.0
  0
LINE
  5
16863
330
747D
100
AcDbEntity
  8
破線
 48
10.0
100
AcDbLine
 10
4404.673057123519
 20
7137.497424545829
 30
0.0
 11
5097.173057123763
 21
7137.497424545789
 31
0.0
  0
LINE
  5
16865
330
747D
100
AcDbEntity
  8
破線
 48
10.0
100
AcDbLine
 10
4404.673057123519
 20
7137.497424545829
 30
0.0
 11
4404.673057123644
 21
9552.497424545839
 31
0.0
  0
LINE
  5
16867
330
747D
100
AcDbEntity
  8
破線
 48
10.0
100
AcDbLine
 10
7294.673057123794
 20
7137.497424545829
 30
0.0
 11
7294.67305712367
 21
9552.497424545839
 31
0.0
  0
LINE
  5
16872
330
747D
100
AcDbEntity
  8
破線
 48
10.0
100
AcDbLine
 10
5097.173057123762
 20
7112.497424545868
 30
0.0
 11
5097.173057123749
 21
9552.497424545958
 31
0.0
  0
LINE
  5
16873
330
747D
100
AcDbEntity
  8
破線
 48
10.0
100
AcDbLine
 10
5147.173057123761
 20
7112.497424545863
 30
0.0
 11
5147.173057123749
 21
9552.497424545958
 31
0.0
  0
LINE
  5
16874
330
747D
100
AcDbEntity
  8
破線
 48
10.0
100
AcDbLine
 10
5824.673057123762
 20
7112.497424545832
 30
0.0
 11
5824.673057123749
 21
9552.497424545958
 31
0.0
  0
LINE
  5
16875
330
747D
100
AcDbEntity
  8
破線
 48
10.0
100
AcDbLine
 10
5874.673057123761
 20
7112.497424545829
 30
0.0
 11
5874.673057123749
 21
9552.497424545958
 31
0.0
  0
LINE
  5
16876
330
747D
100
AcDbEntity
  8
破線
 48
10.0
100
AcDbLine
 10
6552.173057123763
 20
7112.497424545797
 30
0.0
 11
6552.173057123749
 21
9552.497424545958
 31
0.0
  0
LINE
  5
16877
330
747D
100
AcDbEntity
  8
破線
 48
10.0
100
AcDbLine
 10
6602.173057123761
 20
7112.497424545795
 30
0.0
 11
6602.173057123749
 21
9552.497424545958
 31
0.0
  0
LINE
  5
16879
330
747D
100
AcDbEntity
  8
破線
 48
10.0
100
AcDbLine
 10
5147.173057123759
 20
7137.497424545788
 30
0.0
 11
5824.673057123762
 21
7137.497424545749
 31
0.0
  0
LINE
  5
1687A
330
747D
100
AcDbEntity
  8
破線
 48
10.0
100
AcDbLine
 10
5874.673057123761
 20
7137.497424545745
 30
0.0
 11
6552.173057123763
 21
7137.497424545706
 31
0.0
  0
LINE
  5
1687B
330
747D
100
AcDbEntity
  8
破線
 48
10.0
100
AcDbLine
 10
6602.173057123761
 20
7137.497424545704
 30
0.0
 11
7294.673057123794
 21
7137.497424545664
 31
0.0
  0
TEXT
  5
169EA
330
747D
100
AcDbEntity
  8
文字
 62
     7
 48
50.0
100
AcDbText
 10
13248.77747366448
 20
8380.013745883731
 30
0.0
 40
100.0
  1
16
  7
STYLE1
100
AcDbText
  0
LINE
  5
169EB
330
747D
100
AcDbEntity
  8
仕様書枠
 48
50.0
100
AcDbLine
 10
16307.19999999999
 20
8519.600000000002
 30
0.0
 11
13127.19999999999
 21
8519.600000000002
 31
0.0
  0
TEXT
  5
169EC
330
747D
100
AcDbEntity
  8
文字
 62
     7
 48
50.0
100
AcDbText
 10
15022.63965474516
 20
8550.013745883727
 30
0.0
 40
100.0
  1
F12            0.6
  7
STYLE1
100
AcDbText
  0
TEXT
  5
169ED
330
747D
100
AcDbEntity
  8
文字
 62
     7
 48
50.0
100
AcDbText
 10
13583.11819016569
 20
8550.013745883729
 30
0.0
 40
100.0
  1
棚板
 41
0.9
  7
STYLE1
100
AcDbText
  0
TEXT
  5
169EE
330
747D
100
AcDbEntity
  8
文字
 62
     7
 48
50.0
100
AcDbText
 10
13583.11819016569
 20
8380.013745883731
 30
0.0
 40
100.0
  1
アンカープレート
  7
STYLE1
100
AcDbText
  0
TEXT
  5
169EF
330
747D
100
AcDbEntity
  8
文字
 62
     7
 48
50.0
100
AcDbText
 10
15022.63965474515
 20
8380.013745883726
 30
0.0
 40
100.0
  1
F12            2.3
  7
STYLE1
100
AcDbText
  0
LINE
  5
169F0
330
747D
100
AcDbEntity
  8
仕様書枠
 48
50.0
100
AcDbLine
 10
16307.19999999999
 20
9879.599999999999
 30
0.0
 11
13127.19999999999
 21
9879.600000000001
 31
0.0
  0
LINE
  5
169F1
330
747D
100
AcDbEntity
  8
仕様書枠
 48
50.0
100
AcDbLine
 10
16307.19999999999
 20
11239.6
 30
0.0
 11
13127.2
 21
11239.6
 31
0.0
  0
LINE
  5
169F2
330
747D
100
AcDbEntity
  8
仕様書枠
 48
50.0
100
AcDbLine
 10
16307.19999999999
 20
7839.600000000007
 30
0.0
 11
16307.2
 21
11239.6
 31
0.0
  0
LINE
  5
169F3
330
747D
100
AcDbEntity
  8
仕様書枠
 48
50.0
100
AcDbLine
 10
14785.2
 20
11239.59999999999
 30
0.0
 11
14785.2
 21
8349.600000000007
 31
0.0
  0
LINE
  5
169F4
330
747D
100
AcDbEntity
  8
仕様書枠
 48
50.0
100
AcDbLine
 10
13490.2
 20
11239.6
 30
0.0
 11
13490.20000000001
 21
8349.600000000007
 31
0.0
  0
LINE
  5
169F5
330
747D
100
AcDbEntity
  8
仕様書枠
 48
50.0
100
AcDbLine
 10
16307.19999999999
 20
11069.6
 30
0.0
 11
13127.2
 21
11069.6
 31
0.0
  0
LINE
  5
169F6
330
747D
100
AcDbEntity
  8
仕様書枠
 48
50.0
100
AcDbLine
 10
16307.19999999999
 20
10729.6
 30
0.0
 11
13127.2
 21
10729.6
 31
0.0
  0
LINE
  5
169F7
330
747D
100
AcDbEntity
  8
仕様書枠
 48
50.0
100
AcDbLine
 10
16307.19999999999
 20
10899.6
 30
0.0
 11
13127.2
 21
10899.6
 31
0.0
  0
LINE
  5
169F8
330
747D
100
AcDbEntity
  8
仕様書枠
 48
50.0
100
AcDbLine
 10
16307.19999999999
 20
10389.6
 30
0.0
 11
13127.19999999999
 21
10389.6
 31
0.0
  0
LINE
  5
169F9
330
747D
100
AcDbEntity
  8
仕様書枠
 48
50.0
100
AcDbLine
 10
16307.19999999999
 20
10219.6
 30
0.0
 11
13127.19999999999
 21
10219.6
 31
0.0
  0
LINE
  5
169FA
330
747D
100
AcDbEntity
  8
仕様書枠
 48
50.0
100
AcDbLine
 10
16307.19999999999
 20
10559.6
 30
0.0
 11
13127.19999999999
 21
10559.6
 31
0.0
  0
TEXT
  5
169FB
330
747D
100
AcDbEntity
  8
文字
 62
     7
 48
50.0
100
AcDbText
 10
13197.42518560407
 20
11100.01374588373
 30
0.0
 40
100.0
  1
品番
  7
STYLE1
100
AcDbText
  0
TEXT
  5
169FC
330
747D
100
AcDbEntity
  8
文字
 62
     7
 48
50.0
100
AcDbText
 10
13271.19032244792
 20
10930.01374588373
 30
0.0
 40
100.0
  1
1
  7
STYLE1
100
AcDbText
  0
TEXT
  5
169FD
330
747D
100
AcDbEntity
  8
文字
 62
     7
 48
50.0
100
AcDbText
 10
13271.19032244792
 20
10760.01374588373
 30
0.0
 40
100.0
  1
2
  7
STYLE1
100
AcDbText
  0
TEXT
  5
169FE
330
747D
100
AcDbEntity
  8
文字
 62
     7
 48
50.0
100
AcDbText
 10
13271.19032244792
 20
10420.01374588373
 30
0.0
 40
100.0
  1
4
  7
STYLE1
100
AcDbText
  0
TEXT
  5
169FF
330
747D
100
AcDbEntity
  8
文字
 62
     7
 48
50.0
100
AcDbText
 10
13271.19032244792
 20
10590.01374588373
 30
0.0
 40
100.0
  1
3
  7
STYLE1
100
AcDbText
  0
TEXT
  5
16A00
330
747D
100
AcDbEntity
  8
文字
 62
     7
 48
50.0
100
AcDbText
 10
13732.03840939434
 20
11100.01374588373
 30
0.0
 40
100.0
  1
部　　品　　名
  7
STYLE1
100
AcDbText
  0
TEXT
  5
16A01
330
747D
100
AcDbEntity
  8
文字
 62
     7
 48
50.0
100
AcDbText
 10
14859.79774614482
 20
11100.01374588373
 30
0.0
 40
100.0
  1
材料（材質）　　単位mm
  7
STYLE1
100
AcDbText
  0
TEXT
  5
16A02
330
747D
100
AcDbEntity
  8
文字
 62
     7
 48
50.0
100
AcDbText
 10
13583.11819016569
 20
10930.01374588372
 30
0.0
 40
100.0
  1
土台枠
  7
STYLE1
100
AcDbText
  0
TEXT
  5
16A03
330
747D
100
AcDbEntity
  8
文字
 62
     7
 48
50.0
100
AcDbText
 10
13583.11819016569
 20
10760.01374588372
 30
0.0
 40
100.0
  1
柱
  7
STYLE1
100
AcDbText
  0
TEXT
  5
16A04
330
747D
100
AcDbEntity
  8
文字
 62
     7
 48
50.0
100
AcDbText
 10
13583.11819016569
 20
10590.01374588373
 30
0.0
 40
100.0
  1
桁前
  7
STYLE1
100
AcDbText
  0
TEXT
  5
16A05
330
747D
100
AcDbEntity
  8
文字
 62
     7
 48
50.0
100
AcDbText
 10
13583.11819016569
 20
10420.01374588373
 30
0.0
 40
100.0
  1
桁後
  7
STYLE1
100
AcDbText
  0
TEXT
  5
16A06
330
747D
100
AcDbEntity
  8
文字
 62
     7
 48
50.0
100
AcDbText
 10
13271.19032244792
 20
10250.01374588373
 30
0.0
 40
100.0
  1
5
  7
STYLE1
100
AcDbText
  0
TEXT
  5
16A07
330
747D
100
AcDbEntity
  8
文字
 62
     7
 48
50.0
100
AcDbText
 10
13583.11819016569
 20
10250.01374588373
 30
0.0
 40
100.0
  1
妻板左右
  7
STYLE1
100
AcDbText
  0
TEXT
  5
16A08
330
747D
100
AcDbEntity
  8
文字
 62
     7
 48
50.0
100
AcDbText
 10
13583.11819016569
 20
9060.013745883727
 30
0.0
 40
100.0
  1
シャッターレール
  7
STYLE1
100
AcDbText
  0
TEXT
  5
16A09
330
747D
100
AcDbEntity
  8
文字
 62
     7
 48
50.0
100
AcDbText
 10
13248.77747366448
 20
9400.013745883727
 30
0.0
 40
100.0
  1
10
  7
STYLE1
100
AcDbText
  0
TEXT
  5
16A0A
330
747D
100
AcDbEntity
  8
文字
 62
     7
 48
50.0
100
AcDbText
 10
13583.11819016569
 20
9570.013745883729
 30
0.0
 40
100.0
  1
壁パネル
  7
STYLE1
100
AcDbText
  0
TEXT
  5
16A0B
330
747D
100
AcDbEntity
  8
文字
 62
     7
 48
50.0
100
AcDbText
 10
13583.11819016569
 20
9740.013745883729
 30
0.0
 40
100.0
  1
屋根パネル
  7
STYLE1
100
AcDbText
  0
TEXT
  5
16A0C
330
747D
100
AcDbEntity
  8
文字
 62
     7
 48
50.0
100
AcDbText
 10
13583.11819016569
 20
9910.013745883727
 30
0.0
 40
100.0
  1
母屋中
  7
STYLE1
100
AcDbText
  0
TEXT
  5
16A0D
330
747D
100
AcDbEntity
  8
文字
 62
     7
 48
50.0
100
AcDbText
 10
13583.11819016569
 20
10080.01374588372
 30
0.0
 40
100.0
  1
鼻隠シ前後
  7
STYLE1
100
AcDbText
  0
TEXT
  5
16A0E
330
747D
100
AcDbEntity
  8
文字
 62
     7
 48
50.0
100
AcDbText
 10
13271.19032244792
 20
9740.013745883729
 30
0.0
 40
100.0
  1
8
  7
STYLE1
100
AcDbText
  0
TEXT
  5
16A0F
330
747D
100
AcDbEntity
  8
文字
 62
     7
 48
50.0
100
AcDbText
 10
13271.19032244792
 20
9570.013745883729
 30
0.0
 40
100.0
  1
9
  7
STYLE1
100
AcDbText
  0
TEXT
  5
16A10
330
747D
100
AcDbEntity
  8
文字
 62
     7
 48
50.0
100
AcDbText
 10
13271.19032244792
 20
9910.01374588373
 30
0.0
 40
100.0
  1
7
  7
STYLE1
100
AcDbText
  0
TEXT
  5
16A11
330
747D
100
AcDbEntity
  8
文字
 62
     7
 48
50.0
100
AcDbText
 10
13271.19032244792
 20
10080.01374588373
 30
0.0
 40
100.0
  1
6
  7
STYLE1
100
AcDbText
  0
LINE
  5
16A12
330
747D
100
AcDbEntity
  8
仕様書枠
 48
50.0
100
AcDbLine
 10
16307.19999999999
 20
9539.599999999998
 30
0.0
 11
13127.19999999999
 21
9539.6
 31
0.0
  0
LINE
  5
16A13
330
747D
100
AcDbEntity
  8
仕様書枠
 48
50.0
100
AcDbLine
 10
16307.19999999999
 20
9199.599999999998
 30
0.0
 11
13127.19999999999
 21
9199.600000000001
 31
0.0
  0
LINE
  5
16A14
330
747D
100
AcDbEntity
  8
仕様書枠
 48
50.0
100
AcDbLine
 10
16307.19999999999
 20
9369.599999999998
 30
0.0
 11
13127.19999999999
 21
9369.600000000001
 31
0.0
  0
LINE
  5
16A15
330
747D
100
AcDbEntity
  8
仕様書枠
 48
50.0
100
AcDbLine
 10
16307.19999999999
 20
10049.6
 30
0.0
 11
13127.2
 21
10049.6
 31
0.0
  0
LINE
  5
16A16
330
747D
100
AcDbEntity
  8
仕様書枠
 48
50.0
100
AcDbLine
 10
16307.19999999999
 20
9709.6
 30
0.0
 11
13127.19999999999
 21
9709.600000000001
 31
0.0
  0
TEXT
  5
16A17
330
747D
100
AcDbEntity
  8
文字
 62
     7
 48
50.0
100
AcDbText
 10
13248.77747366448
 20
9230.013745883727
 30
0.0
 40
100.0
  1
11
  7
STYLE1
100
AcDbText
  0
TEXT
  5
16A18
330
747D
100
AcDbEntity
  8
文字
 62
     7
 48
50.0
100
AcDbText
 10
13583.11819016569
 20
9230.013745883727
 30
0.0
 40
100.0
  1
シャッターカバー
 41
0.9
  7
STYLE1
100
AcDbText
  0
LINE
  5
16A19
330
747D
100
AcDbEntity
  8
仕様書枠
 48
50.0
100
AcDbLine
 10
16307.19999999999
 20
9029.6
 30
0.0
 11
13127.19999999999
 21
9029.6
 31
0.0
  0
LINE
  5
16A1A
330
747D
100
AcDbEntity
  8
仕様書枠
 48
50.0
100
AcDbLine
 10
16307.19999999999
 20
8349.600000000004
 30
0.0
 11
13127.19999999999
 21
8349.600000000007
 31
0.0
  0
TEXT
  5
16A1B
330
747D
100
AcDbEntity
  8
文字
 62
     7
 48
50.0
100
AcDbText
 10
13583.11819016569
 20
9400.013745883734
 30
0.0
 40
100.0
  1
シャッター
  7
STYLE1
100
AcDbText
  0
TEXT
  5
16A1C
330
747D
100
AcDbEntity
  8
文字
 62
     7
 48
50.0
100
AcDbText
 10
13248.77747366448
 20
8890.013745883729
 30
0.0
 40
100.0
  1
13
  7
STYLE1
100
AcDbText
  0
TEXT
  5
16A1D
330
747D
100
AcDbEntity
  8
文字
 62
     7
 48
50.0
100
AcDbText
 10
13248.77747366448
 20
9060.013745883729
 30
0.0
 40
100.0
  1
12
  7
STYLE1
100
AcDbText
  0
TEXT
  5
16A1E
330
747D
100
AcDbEntity
  8
文字
 62
     7
 48
50.0
100
AcDbText
 10
15022.63965474517
 20
10930.01374588372
 30
0.0
 40
100.0
  1
F12            1.2
  7
STYLE1
100
AcDbText
  0
TEXT
  5
16A1F
330
747D
100
AcDbEntity
  8
文字
 62
     7
 48
50.0
100
AcDbText
 10
15022.63965474517
 20
10760.01374588372
 30
0.0
 40
100.0
  1
F12         1.0,1.2
  7
STYLE1
100
AcDbText
  0
TEXT
  5
16A20
330
747D
100
AcDbEntity
  8
文字
 62
     7
 48
50.0
100
AcDbText
 10
15022.63965474516
 20
10590.01374588372
 30
0.0
 40
100.0
  1
Y10            1.0
  7
STYLE1
100
AcDbText
  0
TEXT
  5
16A21
330
747D
100
AcDbEntity
  8
文字
 62
     7
 48
50.0
100
AcDbText
 10
15022.63965474516
 20
10420.01374588372
 30
0.0
 40
100.0
  1
Y10            1.0
  7
STYLE1
100
AcDbText
  0
TEXT
  5
16A22
330
747D
100
AcDbEntity
  8
文字
 62
     7
 48
50.0
100
AcDbText
 10
15022.63965474516
 20
10250.01374588372
 30
0.0
 40
100.0
  1
Y10            0.7
  7
STYLE1
100
AcDbText
  0
TEXT
  5
16A23
330
747D
100
AcDbEntity
  8
文字
 62
     7
 48
50.0
100
AcDbText
 10
15022.63965474516
 20
10080.01374588372
 30
0.0
 40
100.0
  1
Y10            0.7
  7
STYLE1
100
AcDbText
  0
TEXT
  5
16A24
330
747D
100
AcDbEntity
  8
文字
 62
     7
 48
50.0
100
AcDbText
 10
15022.63965474516
 20
9740.013745883725
 30
0.0
 40
100.0
  1
Y10            0.5
  7
STYLE1
100
AcDbText
  0
TEXT
  5
16A25
330
747D
100
AcDbEntity
  8
文字
 62
     7
 48
50.0
100
AcDbText
 10
15022.63965474516
 20
9570.013745883725
 30
0.0
 40
100.0
  1
F12            0.7
  7
STYLE1
100
AcDbText
  0
TEXT
  5
16A26
330
747D
100
AcDbEntity
  8
文字
 62
     7
 48
50.0
100
AcDbText
 10
14850.83183167176
 20
9060.013745883725
 30
0.0
 40
100.0
  1
アルミニウム合金押出形材
  7
STYLE1
100
AcDbText
  0
TEXT
  5
16A28
330
747D
100
AcDbEntity
  8
文字
 62
     7
 48
50.0
100
AcDbText
 10
15022.63965474515
 20
9400.013745883731
 30
0.0
 40
100.0
  1
Z08            0.5
  7
STYLE1
100
AcDbText
  0
LINE
  5
16A29
330
747D
100
AcDbEntity
  8
仕様書枠
 48
50.0
100
AcDbLine
 10
16307.19999999998
 20
8179.600000000005
 30
0.0
 11
13127.19999999999
 21
8179.600000000007
 31
0.0
  0
LINE
  5
16A2A
330
747D
100
AcDbEntity
  8
仕様書枠
 48
50.0
100
AcDbLine
 10
16307.19999999998
 20
8009.600000000006
 30
0.0
 11
13127.19999999999
 21
8009.600000000007
 31
0.0
  0
LINE
  5
16A2B
330
747D
100
AcDbEntity
  8
仕様書枠
 48
50.0
100
AcDbLine
 10
16307.19999999998
 20
7839.600000000006
 30
0.0
 11
13127.19999999999
 21
7839.600000000007
 31
0.0
  0
TEXT
  5
16A2C
330
747D
100
AcDbEntity
  8
文字
 62
     7
 48
50.0
100
AcDbText
 10
13229.83081656554
 20
8210.013745883735
 30
0.0
 40
100.0
  1
F12→溶融亜鉛めっき鋼板(JIS G 3302)
  7
STYLE1
100
AcDbText
  0
TEXT
  5
16A2D
330
747D
100
AcDbEntity
  8
文字
 62
     7
 48
50.0
100
AcDbText
 10
13229.83081656554
 20
8040.013745883735
 30
0.0
 40
100.0
  1
Y10→溶融亜鉛-5％アルミニウム合金めっき鋼板(JIS G 3317)
 41
0.9
  7
STYLE1
100
AcDbText
  0
TEXT
  5
16A2E
330
747D
100
AcDbEntity
  8
文字
 62
     7
 48
50.0
100
AcDbText
 10
13229.83081656554
 20
7870.013745883736
 30
0.0
 40
100.0
  1
Z08→塗装溶融亜鉛めっき鋼板(JIS G 3313)
  7
STYLE1
100
AcDbText
  0
LINE
  5
16A2F
330
747D
100
AcDbEntity
  8
仕様書枠
 48
50.0
100
AcDbLine
 10
13127.2
 20
11239.6
 30
0.0
 11
13127.19999999999
 21
7839.600000000007
 31
0.0
  0
LINE
  5
16A30
330
747D
100
AcDbEntity
  8
仕様書枠
 48
50.0
100
AcDbLine
 10
16307.19999999999
 20
8689.6
 30
0.0
 11
13127.19999999999
 21
8689.600000000003
 31
0.0
  0
LINE
  5
16A31
330
747D
100
AcDbEntity
  8
仕様書枠
 48
50.0
100
AcDbLine
 10
16307.19999999999
 20
8859.6
 30
0.0
 11
13127.19999999999
 21
8859.600000000002
 31
0.0
  0
TEXT
  5
16A32
330
747D
100
AcDbEntity
  8
文字
 62
     7
 48
50.0
100
AcDbText
 10
13583.11819016569
 20
8720.013745883729
 30
0.0
 40
100.0
  1
床パネル
 41
0.9
  7
STYLE1
100
AcDbText
  0
TEXT
  5
16A33
330
747D
100
AcDbEntity
  8
文字
 62
     7
 48
50.0
100
AcDbText
 10
13583.11819016569
 20
8890.013745883729
 30
0.0
 40
100.0
  1
根太
  7
STYLE1
100
AcDbText
  0
TEXT
  5
16A34
330
747D
100
AcDbEntity
  8
文字
 62
     7
 48
50.0
100
AcDbText
 10
13248.77747366448
 20
8720.013745883729
 30
0.0
 40
100.0
  1
14
  7
STYLE1
100
AcDbText
  0
TEXT
  5
16A35
330
747D
100
AcDbEntity
  8
文字
 62
     7
 48
50.0
100
AcDbText
 10
13248.77747366448
 20
8550.013745883731
 30
0.0
 40
100.0
  1
15
  7
STYLE1
100
AcDbText
  0
TEXT
  5
16A36
330
747D
100
AcDbEntity
  8
文字
 62
     7
 48
50.0
100
AcDbText
 10
15022.63965474516
 20
8890.013745883726
 30
0.0
 40
100.0
  1
F12            1.2
  7
STYLE1
100
AcDbText
  0
TEXT
  5
16A37
330
747D
100
AcDbEntity
  8
文字
 62
     7
 48
50.0
100
AcDbText
 10
15022.63965474516
 20
8720.013745883727
 30
0.0
 40
100.0
  1
F12            1.0
  7
STYLE1
100
AcDbText
  0
LWPOLYLINE
  5
16DEA
330
747D
100
AcDbEntity
  8
部品1
100
AcDbPolyline
 90
        4
 70
     1
 43
0.0
 10
11040.84111132647
 20
1787.931598713268
 10
11040.84111132647
 20
1548.039277167736
 10
11804.31177755491
 20
1548.039277167736
 10
11804.31177755491
 20
1787.931598713268
  0
TEXT
  5
16DEB
330
747D
100
AcDbEntity
  8
部品1
100
AcDbText
 10
11130.28721275008
 20
1595.038069494745
 30
0.0
 40
135.0
  1
側面図
  7
STYLE2
100
AcDbText
  0
DIMENSION
  5
16DEC
330
747D
100
AcDbEntity
  8
寸法
100
AcDbDimension
  2
*D15
 10
8753.826315257432
 20
4912.931598713258
 30
0.0
 11
8653.814504233807
 21
3725.431598713257
 31
0.0
 70
    32
 71
     5
 42
2375.000000000004
  3
INABA_S40G
100
AcDbAlignedDimension
 13
9897.576444440691
 23
2537.931598713254
 33
0.0
 14
9837.576444440692
 24
4912.931598713258
 34
0.0
 50
90.0
100
AcDbRotatedDimension
1001
ACAD
1000
DSTYLE
1002
{
1070
   174
1070
     0
1070
   272
1070
     1
1070
   288
1070
     0
1070
   341
1005
0
1002
}
  0
LINE
  5
16DED
330
747D
100
AcDbEntity
  8
細線
 48
50.0
100
AcDbLine
 10
11975.07644444069
 20
4677.931598713257
 30
0.0
 11
11975.07644444069
 21
2587.93159871326
 31
0.0
  0
LINE
  5
16DEE
330
747D
100
AcDbEntity
  8
細線
 48
50.0
100
AcDbLine
 10
11990.07644444069
 20
4677.931598713257
 30
0.0
 11
11990.07644444069
 21
2587.93159871326
 31
0.0
  0
LINE
  5
16DEF
330
747D
100
AcDbEntity
  8
細線
 48
50.0
100
AcDbLine
 10
11850.07644444069
 20
4677.931598713257
 30
0.0
 11
11850.07644444069
 21
2587.93159871326
 31
0.0
  0
LINE
  5
16DF0
330
747D
100
AcDbEntity
  8
細線
 48
50.0
100
AcDbLine
 10
11835.07644444069
 20
4677.931598713257
 30
0.0
 11
11835.07644444069
 21
2587.93159871326
 31
0.0
  0
LINE
  5
16DF1
330
747D
100
AcDbEntity
  8
細線
 48
50.0
100
AcDbLine
 10
11695.07644444069
 20
4677.931598713257
 30
0.0
 11
11695.07644444069
 21
2587.93159871326
 31
0.0
  0
LINE
  5
16DF2
330
747D
100
AcDbEntity
  8
細線
 48
50.0
100
AcDbLine
 10
11710.07644444069
 20
4677.931598713257
 30
0.0
 11
11710.07644444069
 21
2587.93159871326
 31
0.0
  0
LINE
  5
16DF3
330
747D
100
AcDbEntity
  8
部品1
100
AcDbLine
 10
11632.57644444069
 20
4677.931598713257
 30
0.0
 11
11632.57644444069
 21
2587.93159871326
 31
0.0
  0
LINE
  5
16DF4
330
747D
100
AcDbEntity
  8
部品1
100
AcDbLine
 10
11276.08971696421
 20
5038.135986676276
 30
0.0
 11
11601.54473060724
 21
5020.617927717415
 31
0.0
  0
ARC
  5
16DF5
330
747D
100
AcDbEntity
  8
部品1
100
AcDbCircle
 10
13013.20398025463
 20
4751.955355979051
 30
0.0
 40
0.7
100
AcDbArc
 50
275.0921697642102
 51
354.1866997667087
  0
ARC
  5
16DF6
330
747D
100
AcDbEntity
  8
部品1
100
AcDbCircle
 10
13024.06332600395
 20
4828.998610796975
 30
0.0
 40
0.7
100
AcDbArc
 50
275.0921697642102
 51
354.1866997665532
  0
ARC
  5
16DF7
330
747D
100
AcDbEntity
  8
部品1
100
AcDbCircle
 10
13024.39173124656
 20
4825.313213939885
 30
0.0
 40
3.0
100
AcDbArc
 50
95.0921697642102
 51
174.1866997665532
  0
ARC
  5
16DF8
330
747D
100
AcDbEntity
  8
部品1
100
AcDbCircle
 10
13013.53238549723
 20
4748.269959121961
 30
0.0
 40
3.0
100
AcDbArc
 50
95.0921697642102
 51
174.1866997665532
  0
ARC
  5
16DF9
330
747D
100
AcDbEntity
  8
部品1
 48
50.0
100
AcDbCircle
 10
13002.50425022213
 20
4738.679214518079
 30
0.0
 40
7.0
100
AcDbArc
 50
267.8377559869492
 51
354.1866997665532
  0
ARC
  5
16DFA
330
747D
100
AcDbEntity
  8
部品1
 48
50.0
100
AcDbCircle
 10
13019.82634668664
 20
4849.581761660251
 30
0.0
 40
7.0
100
AcDbArc
 50
354.1866997665532
 51
87.03587545283093
  0
LINE
  5
16DFB
330
747D
100
AcDbEntity
  8
部品1
 48
50.0
100
AcDbLine
 10
13010.54781382662
 20
4748.573820838863
 30
0.0
 11
13009.46825078688
 21
4737.970203845305
 31
0.0
  0
LINE
  5
16DFC
330
747D
100
AcDbEntity
  8
部品1
 48
50.0
100
AcDbLine
 10
13021.40715957594
 20
4825.617075656788
 30
0.0
 11
13013.9003803111
 21
4751.884454911776
 31
0.0
  0
LINE
  5
16DFD
330
747D
100
AcDbEntity
  8
部品1
 48
50.0
100
AcDbLine
 10
13026.79034725139
 20
4848.872750987477
 30
0.0
 11
13024.75972606042
 21
4828.927709729697
 31
0.0
  0
ARC
  5
16DFE
330
747D
100
AcDbEntity
  8
部品1
100
AcDbCircle
 10
9843.613536312057
 20
4791.745757672162
 30
0.0
 40
0.7
100
AcDbArc
 50
181.0932240292635
 51
260.1877540314845
  0
ARC
  5
16DFF
330
747D
100
AcDbEntity
  8
部品1
100
AcDbCircle
 10
9838.840862714448
 20
4884.611535872281
 30
0.0
 40
0.7
100
AcDbArc
 50
181.0932240292114
 51
260.1877540314845
  0
ARC
  5
16E00
330
747D
100
AcDbEntity
  8
部品1
100
AcDbCircle
 10
9838.210308311426
 20
4880.965661334883
 30
0.0
 40
3.0
100
AcDbArc
 50
1.093224029315636
 51
80.18775403169875
  0
ARC
  5
16E01
330
747D
100
AcDbEntity
  8
部品1
100
AcDbCircle
 10
9842.982981909031
 20
4788.099883134765
 30
0.0
 40
3.0
100
AcDbArc
 50
1.093224029315636
 51
80.18775403169875
  0
ARC
  5
16E02
330
747D
100
AcDbEntity
  8
部品1
 48
50.0
100
AcDbCircle
 10
9853.183114284234
 20
4777.707639752283
 30
0.0
 40
7.0
100
AcDbArc
 50
181.0932240293156
 51
267.8377559869492
  0
ARC
  5
16E03
330
747D
100
AcDbEntity
  8
部品1
 48
50.0
100
AcDbCircle
 10
9844.759456182138
 20
4904.658699285378
 30
0.0
 40
7.0
100
AcDbArc
 50
87.03587545283093
 51
181.0932240293156
  0
LINE
  5
16E04
330
747D
100
AcDbEntity
  8
部品1
 48
50.0
100
AcDbLine
 10
9845.982435835463
 20
4788.157120737947
 30
0.0
 11
9846.184388455894
 21
4777.574085344855
 31
0.0
  0
LINE
  5
16E05
330
747D
100
AcDbEntity
  8
細線
 48
50.0
100
AcDbLine
 10
9843.376342778791
 20
4791.087168856756
 30
0.0
 11
13013.38000720943
 21
4751.277849882263
 31
0.0
  0
LINE
  5
16E06
330
747D
100
AcDbEntity
  8
細線
 48
50.0
100
AcDbLine
 10
9838.615867541506
 20
4883.948680554619
 30
0.0
 11
13024.25185228667
 21
4828.324475913792
 31
0.0
  0
LINE
  5
16E07
330
747D
100
AcDbEntity
  8
部品1
 48
50.0
100
AcDbLine
 10
9841.209762237856
 20
4881.022898938066
 30
0.0
 11
9842.91366372922
 21
4791.73240223142
 31
0.0
  0
LINE
  5
16E08
330
747D
100
AcDbEntity
  8
部品1
 48
50.0
100
AcDbLine
 10
9837.760730353798
 20
4904.52514487795
 30
0.0
 11
9838.140990131609
 21
4884.598180431538
 31
0.0
  0
LINE
  5
16E09
330
747D
100
AcDbEntity
  8
細線
 48
50.0
100
AcDbLine
 10
12994.54572763438
 20
4857.085021192727
 30
0.0
 11
12989.82876155269
 21
4732.15280525781
 31
0.0
  0
LINE
  5
16E0A
330
747D
100
AcDbEntity
  8
細線
 48
50.0
100
AcDbLine
 10
9870.576444440692
 20
4910.331275088663
 30
0.0
 11
9865.287342885183
 21
4770.245642461308
 31
0.0
  0
LINE
  5
16E0B
330
747D
100
AcDbEntity
  8
部品1
100
AcDbLine
 10
9852.919009042643
 20
4770.712623782225
 30
0.0
 11
13002.24014498054
 21
4731.684198548019
 31
0.0
  0
LINE
  5
16E0C
330
747D
100
AcDbEntity
  8
部品1
100
AcDbLine
 10
9845.121430797654
 20
4911.649334047524
 30
0.0
 11
13020.18832130216
 21
4856.572396422397
 31
0.0
  0
LINE
  5
16E0D
330
747D
100
AcDbEntity
  8
部品1
 48
50.0
100
AcDbLine
 10
11301.54473060724
 20
5036.817927717414
 30
0.0
 11
11601.54473060724
 21
5036.817927717414
 31
0.0
  0
LINE
  5
16E0E
330
747D
100
AcDbEntity
  8
部品1
 48
50.0
100
AcDbLine
 10
11601.54473060724
 20
5036.817927717414
 30
0.0
 11
11601.54473060724
 21
5020.617927717415
 31
0.0
  0
TEXT
  5
16E0F
330
747D
100
AcDbEntity
  8
部品1
 48
50.0
100
AcDbText
 10
11289.81256583097
 20
5072.701949869848
 30
0.0
 40
120.0
  1
1000
  7
STYLE1
100
AcDbText
  0
TEXT
  5
16E10
330
747D
100
AcDbEntity
  8
部品1
 48
50.0
100
AcDbText
 10
11767.44558849605
 20
4935.200691651565
 30
0.0
 40
120.0
  1
32
 50
90.0
  7
STYLE1
100
AcDbText
  0
LINE
  5
16E11
330
747D
100
AcDbEntity
  8
細線
 48
50.0
100
AcDbLine
 10
11290.07644444069
 20
4677.931598713257
 30
0.0
 11
11290.07644444069
 21
2587.931598713258
 31
0.0
  0
LINE
  5
16E12
330
747D
100
AcDbEntity
  8
細線
 48
50.0
100
AcDbLine
 10
11275.07644444069
 20
4677.931598713257
 30
0.0
 11
11275.07644444069
 21
2587.931598713258
 31
0.0
  0
LINE
  5
16E13
330
747D
100
AcDbEntity
  8
細線
 48
50.0
100
AcDbLine
 10
11415.07644444069
 20
4677.931598713257
 30
0.0
 11
11415.07644444069
 21
2587.931598713258
 31
0.0
  0
LINE
  5
16E14
330
747D
100
AcDbEntity
  8
細線
 48
50.0
100
AcDbLine
 10
11430.07644444069
 20
4677.931598713257
 30
0.0
 11
11430.07644444069
 21
2587.931598713258
 31
0.0
  0
LINE
  5
16E15
330
747D
100
AcDbEntity
  8
細線
 48
50.0
100
AcDbLine
 10
11570.07644444069
 20
4677.931598713257
 30
0.0
 11
11570.07644444069
 21
2587.931598713258
 31
0.0
  0
LINE
  5
16E16
330
747D
100
AcDbEntity
  8
細線
 48
50.0
100
AcDbLine
 10
11555.07644444069
 20
4677.931598713257
 30
0.0
 11
11555.07644444069
 21
2587.931598713258
 31
0.0
  0
LINE
  5
16E17
330
747D
100
AcDbEntity
  8
部品1
100
AcDbLine
 10
10372.57644444069
 20
4677.931598713257
 30
0.0
 11
10372.57644444069
 21
2587.931598713258
 31
0.0
  0
DIMENSION
  5
16E18
330
747D
100
AcDbEntity
  8
寸法
 48
50.0
100
AcDbDimension
  2
*D16
 10
9897.576444440691
 20
5311.589052292564
 30
0.0
 11
11422.57644444069
 21
5311.589052292564
 31
0.0
 70
   160
  1
柱外寸法<>
 71
     5
 42
3050.0
  3
INABA_S40G
100
AcDbAlignedDimension
 13
12947.57644444069
 23
4859.742278324913
 33
0.0
 14
9897.576444440691
 24
4908.933216836235
 34
0.0
100
AcDbRotatedDimension
1001
ACAD
1000
DSTYLE
1002
{
1070
   174
1070
     0
1070
   272
1070
     1
1070
   288
1070
     0
1070
   341
1005
0
1002
}
  0
DIMENSION
  5
16E19
330
747D
100
AcDbEntity
  8
寸法
 48
50.0
100
AcDbDimension
  2
*D17
 10
9837.576444440692
 20
5311.589052292561
 30
0.0
 11
9527.938649165101
 21
5311.589052292561
 31
0.0
 70
   160
 71
     5
 42
60.0
  3
INABA_S40G
100
AcDbAlignedDimension
 13
9897.576444440691
 23
4908.933216836235
 33
0.0
 14
9837.576444440692
 24
4912.931598713262
 34
0.0
100
AcDbRotatedDimension
1001
ACAD
1000
DSTYLE
1002
{
1070
   174
1070
     0
1070
   272
1070
     1
1070
   288
1070
     0
1070
   341
1005
0
1002
}
  0
DIMENSION
  5
16E1A
330
747D
100
AcDbEntity
  8
寸法
 48
50.0
100
AcDbDimension
  2
*D18
 10
9837.576444440692
 20
5541.70264507884
 30
0.0
 11
11432.57644444069
 21
5541.70264507884
 31
0.0
 70
   160
 71
     5
 42
3190.0
  3
INABA_S40G
100
AcDbAlignedDimension
 13
13027.57644444069
 23
4857.93159871326
 33
0.0
 14
9837.576444440692
 24
4912.931598713262
 34
0.0
100
AcDbRotatedDimension
1001
ACAD
1000
DSTYLE
1002
{
1070
   174
1070
     0
1070
   272
1070
     1
1070
   288
1070
     0
1070
   341
1005
0
1002
}
  0
LINE
  5
16E1B
330
747D
100
AcDbEntity
  8
細線
 48
50.0
100
AcDbLine
 10
10450.07644444069
 20
4677.931598713257
 30
0.0
 11
10450.07644444069
 21
2587.931598713258
 31
0.0
  0
LINE
  5
16E1C
330
747D
100
AcDbEntity
  8
細線
 48
50.0
100
AcDbLine
 10
10435.07644444069
 20
4677.931598713257
 30
0.0
 11
10435.07644444069
 21
2587.931598713258
 31
0.0
  0
LINE
  5
16E1D
330
747D
100
AcDbEntity
  8
細線
 48
50.0
100
AcDbLine
 10
10575.07644444069
 20
4677.931598713257
 30
0.0
 11
10575.07644444069
 21
2587.931598713258
 31
0.0
  0
LINE
  5
16E1E
330
747D
100
AcDbEntity
  8
細線
 48
50.0
100
AcDbLine
 10
10590.07644444069
 20
4677.931598713257
 30
0.0
 11
10590.07644444069
 21
2587.931598713258
 31
0.0
  0
LINE
  5
16E1F
330
747D
100
AcDbEntity
  8
細線
 48
50.0
100
AcDbLine
 10
10730.07644444069
 20
4677.931598713257
 30
0.0
 11
10730.07644444069
 21
2587.931598713258
 31
0.0
  0
LINE
  5
16E20
330
747D
100
AcDbEntity
  8
細線
 48
50.0
100
AcDbLine
 10
10715.07644444069
 20
4677.931598713257
 30
0.0
 11
10715.07644444069
 21
2587.931598713258
 31
0.0
  0
LINE
  5
16E21
330
747D
100
AcDbEntity
  8
細線
 48
50.0
100
AcDbLine
 10
10295.07644444069
 20
4677.931598713257
 30
0.0
 11
10295.07644444069
 21
2587.931598713258
 31
0.0
  0
LINE
  5
16E22
330
747D
100
AcDbEntity
  8
細線
 48
50.0
100
AcDbLine
 10
10310.07644444069
 20
4677.931598713257
 30
0.0
 11
10310.07644444069
 21
2587.931598713258
 31
0.0
  0
LINE
  5
16E23
330
747D
100
AcDbEntity
  8
細線
 48
50.0
100
AcDbLine
 10
10170.07644444069
 20
4677.931598713257
 30
0.0
 11
10170.07644444069
 21
2587.931598713258
 31
0.0
  0
LINE
  5
16E24
330
747D
100
AcDbEntity
  8
細線
 48
50.0
100
AcDbLine
 10
10155.07644444069
 20
4677.931598713257
 30
0.0
 11
10155.07644444069
 21
2587.931598713258
 31
0.0
  0
LINE
  5
16E25
330
747D
100
AcDbEntity
  8
細線
 48
50.0
100
AcDbLine
 10
10015.07644444069
 20
4677.931598713257
 30
0.0
 11
10015.07644444069
 21
2587.931598713258
 31
0.0
  0
LINE
  5
16E26
330
747D
100
AcDbEntity
  8
細線
 48
50.0
100
AcDbLine
 10
10030.07644444069
 20
4677.931598713257
 30
0.0
 11
10030.07644444069
 21
2587.931598713258
 31
0.0
  0
DIMENSION
  5
16E27
330
747D
100
AcDbEntity
  8
寸法
 48
50.0
100
AcDbDimension
  2
*D19
 10
13027.57644444069
 20
5311.589052292564
 30
0.0
 11
13233.62368853518
 21
5311.589052292564
 31
0.0
 70
   160
 71
     5
 42
80.0
  3
INABA_S40G
100
AcDbAlignedDimension
 13
12947.57644444069
 23
4859.742278324913
 33
0.0
 14
13027.57644444069
 24
4857.931598713261
 34
0.0
100
AcDbRotatedDimension
1001
ACAD
1000
DSTYLE
1002
{
1070
   174
1070
     0
1070
   272
1070
     1
1070
   288
1070
     0
1070
   341
1005
0
1002
}
  0
LINE
  5
16E28
330
747D
100
AcDbEntity
  8
部品1
100
AcDbLine
 10
10792.57644444069
 20
4677.931598713257
 30
0.0
 11
10792.57644444069
 21
2587.931598713258
 31
0.0
  0
LINE
  5
16E29
330
747D
100
AcDbEntity
  8
細線
 48
50.0
100
AcDbLine
 10
11135.07644444069
 20
4677.931598713257
 30
0.0
 11
11135.07644444069
 21
2587.931598713258
 31
0.0
  0
LINE
  5
16E2A
330
747D
100
AcDbEntity
  8
細線
 48
50.0
100
AcDbLine
 10
11150.07644444069
 20
4677.931598713257
 30
0.0
 11
11150.07644444069
 21
2587.931598713258
 31
0.0
  0
LINE
  5
16E2B
330
747D
100
AcDbEntity
  8
細線
 48
50.0
100
AcDbLine
 10
11010.07644444069
 20
4677.931598713257
 30
0.0
 11
11010.07644444069
 21
2587.931598713258
 31
0.0
  0
LINE
  5
16E2C
330
747D
100
AcDbEntity
  8
細線
 48
50.0
100
AcDbLine
 10
10995.07644444069
 20
4677.931598713257
 30
0.0
 11
10995.07644444069
 21
2587.931598713258
 31
0.0
  0
LINE
  5
16E2D
330
747D
100
AcDbEntity
  8
細線
 48
50.0
100
AcDbLine
 10
10855.07644444069
 20
4677.931598713257
 30
0.0
 11
10855.07644444069
 21
2587.931598713258
 31
0.0
  0
LINE
  5
16E2E
330
747D
100
AcDbEntity
  8
細線
 48
50.0
100
AcDbLine
 10
10870.07644444069
 20
4677.931598713257
 30
0.0
 11
10870.07644444069
 21
2587.931598713258
 31
0.0
  0
LINE
  5
16E2F
330
747D
100
AcDbEntity
  8
部品1
100
AcDbLine
 10
11212.57644444069
 20
4677.931598713257
 30
0.0
 11
11212.57644444069
 21
2587.931598713258
 31
0.0
  0
LINE
  5
16E30
330
747D
100
AcDbEntity
  8
細線
 48
50.0
100
AcDbLine
 10
12550.07644444069
 20
4677.93159871326
 30
0.0
 11
12550.07644444069
 21
2587.93159871326
 31
0.0
  0
LINE
  5
16E31
330
747D
100
AcDbEntity
  8
細線
 48
50.0
100
AcDbLine
 10
12535.07644444069
 20
4677.93159871326
 30
0.0
 11
12535.07644444069
 21
2587.93159871326
 31
0.0
  0
LINE
  5
16E32
330
747D
100
AcDbEntity
  8
細線
 48
50.0
100
AcDbLine
 10
12675.07644444069
 20
4677.93159871326
 30
0.0
 11
12675.07644444069
 21
2587.93159871326
 31
0.0
  0
LINE
  5
16E33
330
747D
100
AcDbEntity
  8
細線
 48
50.0
100
AcDbLine
 10
12690.07644444069
 20
4677.93159871326
 30
0.0
 11
12690.07644444069
 21
2587.93159871326
 31
0.0
  0
LINE
  5
16E34
330
747D
100
AcDbEntity
  8
細線
 48
50.0
100
AcDbLine
 10
12830.07644444069
 20
4677.93159871326
 30
0.0
 11
12830.07644444069
 21
2587.93159871326
 31
0.0
  0
LINE
  5
16E35
330
747D
100
AcDbEntity
  8
細線
 48
50.0
100
AcDbLine
 10
12815.07644444069
 20
4677.93159871326
 30
0.0
 11
12815.07644444069
 21
2587.93159871326
 31
0.0
  0
DIMENSION
  5
16E36
330
747D
100
AcDbEntity
  8
寸法
 48
50.0
100
AcDbDimension
  2
*D20
 10
9276.968037672316
 20
4787.276857586588
 30
0.0
 11
9287.633512931243
 21
5158.123520828287
 31
0.0
 70
   161
 71
     5
 42
141.0
  3
INABA_S40G
100
AcDbAlignedDimension
 13
9856.972464599271
 23
4911.654347547937
 33
0.0
 14
9852.919009042643
 24
4770.712623782225
 34
0.0
1001
ACAD
1000
DSTYLE
1002
{
1070
   174
1070
     0
1070
   272
1070
     1
1070
   288
1070
     0
1070
   341
1005
0
1002
}
  0
LINE
  5
16E37
330
747D
100
AcDbEntity
  8
部品1
100
AcDbLine
 10
12052.57644444068
 20
4677.931598713257
 30
0.0
 11
12052.57644444068
 21
2587.93159871326
 31
0.0
  0
LINE
  5
16E38
330
747D
100
AcDbEntity
  8
細線
 48
50.0
100
AcDbLine
 10
12130.07644444069
 20
4677.931598713257
 30
0.0
 11
12130.07644444069
 21
2587.93159871326
 31
0.0
  0
LINE
  5
16E39
330
747D
100
AcDbEntity
  8
細線
 48
50.0
100
AcDbLine
 10
12115.07644444069
 20
4677.931598713257
 30
0.0
 11
12115.07644444069
 21
2587.93159871326
 31
0.0
  0
LINE
  5
16E3A
330
747D
100
AcDbEntity
  8
細線
 48
50.0
100
AcDbLine
 10
12255.07644444069
 20
4677.931598713257
 30
0.0
 11
12255.07644444069
 21
2587.93159871326
 31
0.0
  0
LINE
  5
16E3B
330
747D
100
AcDbEntity
  8
細線
 48
50.0
100
AcDbLine
 10
12270.07644444069
 20
4677.931598713257
 30
0.0
 11
12270.07644444069
 21
2587.93159871326
 31
0.0
  0
LINE
  5
16E3C
330
747D
100
AcDbEntity
  8
細線
 48
50.0
100
AcDbLine
 10
12410.07644444069
 20
4677.931598713257
 30
0.0
 11
12410.07644444069
 21
2587.93159871326
 31
0.0
  0
LINE
  5
16E3D
330
747D
100
AcDbEntity
  8
細線
 48
50.0
100
AcDbLine
 10
12395.07644444069
 20
4677.931598713257
 30
0.0
 11
12395.07644444069
 21
2587.93159871326
 31
0.0
  0
LINE
  5
16E3E
330
747D
100
AcDbEntity
  8
部品1
100
AcDbLine
 10
12472.57644444067
 20
4677.93159871326
 30
0.0
 11
12472.57644444067
 21
2587.931598713261
 31
0.0
  0
LINE
  5
16E3F
330
747D
100
AcDbEntity
  8
部品1
100
AcDbLine
 10
3335.903465777274
 20
2567.835409280926
 30
0.0
 11
3485.903465777274
 21
2567.835409280926
 31
0.0
  0
LINE
  5
16E40
330
747D
100
AcDbEntity
  8
部品1
100
AcDbLine
 10
3410.903465777274
 20
2437.931598713261
 30
0.0
 11
3335.903465777274
 21
2567.835409280926
 31
0.0
  0
TEXT
  5
16E41
330
747D
100
AcDbEntity
  8
部品1
100
AcDbText
 10
3514.008407902048
 20
2474.038502319163
 30
0.0
 40
125.0
  1
G.L
  7
STYLE2
100
AcDbText
  0
LINE
  5
16E42
330
747D
100
AcDbEntity
  8
部品1
100
AcDbLine
 10
3485.903465777274
 20
2567.835409280926
 30
0.0
 11
3410.903465777274
 21
2437.931598713261
 31
0.0
  0
LINE
  5
16E43
330
747D
100
AcDbEntity
  8
部品1
100
AcDbLine
 10
4379.673057123656
 20
2537.931598713262
 30
0.0
 11
7319.673057123655
 21
2537.931598713262
 31
0.0
  0
LINE
  5
16E44
330
747D
100
AcDbEntity
  8
部品1
100
AcDbLine
 10
4324.673057123656
 20
4771.931598713265
 30
0.0
 11
4324.673057123656
 21
2437.931598713261
 31
0.0
  0
LINE
  5
16E45
330
747D
100
AcDbEntity
  8
部品1
100
AcDbLine
 10
7319.673057123657
 20
4512.931598713263
 30
0.0
 11
7319.673057123655
 21
2437.931598713261
 31
0.0
  0
LINE
  5
16E46
330
747D
100
AcDbEntity
  8
部品1
100
AcDbLine
 10
4379.673057123656
 20
4512.931598713262
 30
0.0
 11
4379.673057123656
 21
2437.931598713261
 31
0.0
  0
LINE
  5
16E47
330
747D
100
AcDbEntity
  8
部品1
100
AcDbLine
 10
7374.673057123657
 20
4771.931598713265
 30
0.0
 11
7374.673057123657
 21
2437.931598713261
 31
0.0
  0
LINE
  5
16E4E
330
747D
100
AcDbEntity
  8
破線
  6
HIDDEN
 48
5.0
100
AcDbLine
 10
7374.673057123657
 20
2437.931598713261
 30
0.0
 11
7374.673057123657
 21
2187.931598713261
 31
0.0
  0
LINE
  5
16E4F
330
747D
100
AcDbEntity
  8
破線
  6
HIDDEN
 48
5.0
100
AcDbLine
 10
4324.673057123656
 20
2437.931598713261
 30
0.0
 11
4324.673057123654
 21
2187.931598713261
 31
0.0
  0
LINE
  5
16E51
330
747D
100
AcDbEntity
  8
破線
  6
HIDDEN
 48
5.0
100
AcDbLine
 10
7319.673057123657
 20
2437.931598713261
 30
0.0
 11
7319.673057123657
 21
2187.931598713261
 31
0.0
  0
LINE
  5
16E52
330
747D
100
AcDbEntity
  8
破線
  6
HIDDEN
 48
5.0
100
AcDbLine
 10
4379.673057123656
 20
2437.931598713261
 30
0.0
 11
4379.673057123655
 21
2187.931598713261
 31
0.0
  0
LINE
  5
16E53
330
747D
100
AcDbEntity
  8
破線
  6
HIDDEN
 48
5.0
100
AcDbLine
 10
7374.673057123655
 20
2187.931598713261
 30
0.0
 11
7319.673057123657
 21
2187.931598713261
 31
0.0
  0
LINE
  5
16E54
330
747D
100
AcDbEntity
  8
破線
  6
HIDDEN
 48
5.0
100
AcDbLine
 10
4379.673057123655
 20
2187.931598713269
 30
0.0
 11
4324.673057123654
 21
2187.931598713269
 31
0.0
  0
LINE
  5
16E55
330
747D
100
AcDbEntity
  8
部品1
100
AcDbLine
 10
4427.673057123657
 20
4512.931598713261
 30
0.0
 11
4427.673057123657
 21
2587.931598713261
 31
0.0
  0
LINE
  5
16E56
330
747D
100
AcDbEntity
  8
部品1
100
AcDbLine
 10
7271.673057123658
 20
4512.931598713262
 30
0.0
 11
7271.673057123658
 21
2587.931598713261
 31
0.0
  0
LINE
  5
16E57
330
747D
100
AcDbEntity
  8
部品1
100
AcDbLine
 10
4324.673057123656
 20
4512.931598713262
 30
0.0
 11
7374.673057123655
 21
4512.931598713263
 31
0.0
  0
LINE
  5
16E58
330
747D
100
AcDbEntity
  8
細線
100
AcDbLine
 10
4427.673057123653
 20
4222.931598713262
 30
0.0
 11
7271.673057123655
 21
4222.931598713262
 31
0.0
  0
LINE
  5
16E59
330
747D
100
AcDbEntity
  8
細線
100
AcDbLine
 10
4427.673057123653
 20
4287.931598713261
 30
0.0
 11
7271.673057123655
 21
4287.931598713261
 31
0.0
  0
LINE
  5
16E5A
330
747D
100
AcDbEntity
  8
細線
100
AcDbLine
 10
4427.673057123653
 20
4352.931598713261
 30
0.0
 11
7271.673057123655
 21
4352.931598713261
 31
0.0
  0
LINE
  5
16E5B
330
747D
100
AcDbEntity
  8
細線
100
AcDbLine
 10
4427.673057123653
 20
3832.931598713262
 30
0.0
 11
7271.673057123655
 21
3832.931598713262
 31
0.0
  0
LINE
  5
16E5C
330
747D
100
AcDbEntity
  8
細線
100
AcDbLine
 10
4427.673057123653
 20
3897.931598713262
 30
0.0
 11
7271.673057123655
 21
3897.931598713262
 31
0.0
  0
LINE
  5
16E5D
330
747D
100
AcDbEntity
  8
細線
100
AcDbLine
 10
4427.673057123653
 20
3962.931598713261
 30
0.0
 11
7271.673057123655
 21
3962.931598713261
 31
0.0
  0
LINE
  5
16E5E
330
747D
100
AcDbEntity
  8
細線
100
AcDbLine
 10
4427.673057123653
 20
4027.931598713261
 30
0.0
 11
7271.673057123655
 21
4027.931598713261
 31
0.0
  0
LINE
  5
16E5F
330
747D
100
AcDbEntity
  8
細線
100
AcDbLine
 10
4427.673057123653
 20
4092.931598713261
 30
0.0
 11
7271.673057123655
 21
4092.931598713261
 31
0.0
  0
LINE
  5
16E60
330
747D
100
AcDbEntity
  8
細線
100
AcDbLine
 10
4427.673057123653
 20
4157.931598713261
 30
0.0
 11
7271.673057123655
 21
4157.931598713261
 31
0.0
  0
LINE
  5
16E61
330
747D
100
AcDbEntity
  8
細線
100
AcDbLine
 10
4427.673057123653
 20
3182.931598713262
 30
0.0
 11
7271.673057123655
 21
3182.931598713262
 31
0.0
  0
LINE
  5
16E62
330
747D
100
AcDbEntity
  8
細線
100
AcDbLine
 10
4427.673057123653
 20
3247.931598713261
 30
0.0
 11
7271.673057123655
 21
3247.931598713261
 31
0.0
  0
LINE
  5
16E63
330
747D
100
AcDbEntity
  8
細線
100
AcDbLine
 10
4427.673057123653
 20
3312.931598713261
 30
0.0
 11
7271.673057123655
 21
3312.931598713261
 31
0.0
  0
LINE
  5
16E64
330
747D
100
AcDbEntity
  8
細線
100
AcDbLine
 10
4427.673057123653
 20
3377.931598713261
 30
0.0
 11
7271.673057123655
 21
3377.931598713261
 31
0.0
  0
LINE
  5
16E65
330
747D
100
AcDbEntity
  8
細線
100
AcDbLine
 10
4427.673057123653
 20
3442.931598713261
 30
0.0
 11
7271.673057123655
 21
3442.931598713261
 31
0.0
  0
LINE
  5
16E66
330
747D
100
AcDbEntity
  8
細線
100
AcDbLine
 10
4427.673057123653
 20
3507.931598713262
 30
0.0
 11
7271.673057123655
 21
3507.931598713262
 31
0.0
  0
LINE
  5
16E67
330
747D
100
AcDbEntity
  8
細線
100
AcDbLine
 10
4427.673057123653
 20
3572.931598713262
 30
0.0
 11
7271.673057123655
 21
3572.931598713262
 31
0.0
  0
LINE
  5
16E68
330
747D
100
AcDbEntity
  8
細線
100
AcDbLine
 10
4427.673057123653
 20
3637.931598713262
 30
0.0
 11
7271.673057123655
 21
3637.931598713262
 31
0.0
  0
LINE
  5
16E69
330
747D
100
AcDbEntity
  8
細線
100
AcDbLine
 10
4427.673057123653
 20
3702.931598713262
 30
0.0
 11
7271.673057123655
 21
3702.931598713262
 31
0.0
  0
LINE
  5
16E6A
330
747D
100
AcDbEntity
  8
細線
100
AcDbLine
 10
4427.673057123653
 20
3767.931598713261
 30
0.0
 11
7271.673057123655
 21
3767.931598713261
 31
0.0
  0
LINE
  5
16E6B
330
747D
100
AcDbEntity
  8
細線
100
AcDbLine
 10
4427.673057123653
 20
4482.931598713261
 30
0.0
 11
7271.673057123655
 21
4482.931598713261
 31
0.0
  0
LINE
  5
16E6C
330
747D
100
AcDbEntity
  8
細線
100
AcDbLine
 10
4427.673057123653
 20
4417.931598713261
 30
0.0
 11
7271.673057123655
 21
4417.931598713261
 31
0.0
  0
LINE
  5
16E6D
330
747D
100
AcDbEntity
  8
細線
100
AcDbLine
 10
4427.673057123653
 20
2662.931598713262
 30
0.0
 11
7271.673057123655
 21
2662.931598713262
 31
0.0
  0
LINE
  5
16E6E
330
747D
100
AcDbEntity
  8
細線
100
AcDbLine
 10
4427.673057123653
 20
2727.931598713261
 30
0.0
 11
7271.673057123655
 21
2727.931598713261
 31
0.0
  0
LINE
  5
16E6F
330
747D
100
AcDbEntity
  8
細線
100
AcDbLine
 10
4427.673057123653
 20
2792.931598713261
 30
0.0
 11
7271.673057123655
 21
2792.931598713261
 31
0.0
  0
LINE
  5
16E70
330
747D
100
AcDbEntity
  8
細線
100
AcDbLine
 10
4427.673057123653
 20
2857.931598713261
 30
0.0
 11
7271.673057123655
 21
2857.931598713261
 31
0.0
  0
LINE
  5
16E71
330
747D
100
AcDbEntity
  8
細線
100
AcDbLine
 10
4427.673057123653
 20
2922.931598713262
 30
0.0
 11
7271.673057123655
 21
2922.931598713262
 31
0.0
  0
LINE
  5
16E72
330
747D
100
AcDbEntity
  8
細線
100
AcDbLine
 10
4427.673057123653
 20
2987.931598713262
 30
0.0
 11
7271.673057123655
 21
2987.931598713262
 31
0.0
  0
LINE
  5
16E73
330
747D
100
AcDbEntity
  8
細線
100
AcDbLine
 10
4427.673057123653
 20
3052.931598713261
 30
0.0
 11
7271.673057123655
 21
3052.931598713261
 31
0.0
  0
LINE
  5
16E74
330
747D
100
AcDbEntity
  8
細線
100
AcDbLine
 10
4427.673057123653
 20
3117.931598713262
 30
0.0
 11
7271.673057123655
 21
3117.931598713262
 31
0.0
  0
LINE
  5
16E75
330
747D
100
AcDbEntity
  8
細線
100
AcDbLine
 10
7271.673057123656
 20
2597.931598713262
 30
0.0
 11
4427.673057123651
 21
2597.931598713262
 31
0.0
  0
CIRCLE
  5
16E79
330
747D
100
AcDbEntity
  8
細線
 48
50.0
100
AcDbCircle
 10
5849.673057123655
 20
3475.431598713262
 30
0.0
 40
18.0
  0
ARC
  5
16E7A
330
747D
100
AcDbEntity
  8
細線
 48
50.0
100
AcDbCircle
 10
6149.673057123655
 20
3150.431598713261
 30
0.0
 40
15.0
100
AcDbArc
 50
270.0
 51
90.0
  0
ARC
  5
16E7B
330
747D
100
AcDbEntity
  8
細線
 48
50.0
100
AcDbCircle
 10
6049.673057123655
 20
3150.431598713261
 30
0.0
 40
15.0
100
AcDbArc
 50
90.0
 51
270.0
  0
LINE
  5
16E7C
330
747D
100
AcDbEntity
  8
細線
 48
50.0
100
AcDbLine
 10
6049.673057123655
 20
3165.431598713261
 30
0.0
 11
6149.673057123655
 21
3165.431598713261
 31
0.0
  0
LINE
  5
16E7D
330
747D
100
AcDbEntity
  8
細線
 48
50.0
100
AcDbLine
 10
6149.673057123655
 20
3135.431598713262
 30
0.0
 11
6049.673057123655
 21
3135.431598713262
 31
0.0
  0
LINE
  5
16E7E
330
747D
100
AcDbEntity
  8
細線
 48
50.0
100
AcDbLine
 10
5649.673057123655
 20
3135.431598713262
 30
0.0
 11
5549.673057123655
 21
3135.431598713262
 31
0.0
  0
LINE
  5
16E7F
330
747D
100
AcDbEntity
  8
細線
 48
50.0
100
AcDbLine
 10
5549.673057123655
 20
3165.431598713261
 30
0.0
 11
5649.673057123655
 21
3165.431598713261
 31
0.0
  0
ARC
  5
16E80
330
747D
100
AcDbEntity
  8
細線
 48
50.0
100
AcDbCircle
 10
5649.673057123655
 20
3150.431598713261
 30
0.0
 40
15.0
100
AcDbArc
 50
270.0
 51
90.0
  0
ARC
  5
16E81
330
747D
100
AcDbEntity
  8
細線
 48
50.0
100
AcDbCircle
 10
5549.673057123655
 20
3150.431598713261
 30
0.0
 40
15.0
100
AcDbArc
 50
90.0
 51
270.0
  0
LINE
  5
16E82
330
747D
100
AcDbEntity
  8
部品1
100
AcDbLine
 10
4524.673057123655
 20
2537.931598713262
 30
0.0
 11
4524.673057123656
 21
2437.931598713261
 31
0.0
  0
LINE
  5
16E83
330
747D
100
AcDbEntity
  8
部品1
100
AcDbLine
 10
7174.673057123655
 20
2537.931598713262
 30
0.0
 11
7174.673057123657
 21
2437.931598713261
 31
0.0
  0
LINE
  5
16E84
330
747D
100
AcDbEntity
  8
部品1
100
AcDbLine
 10
4724.673057123655
 20
2537.931598713263
 30
0.0
 11
4724.673057123657
 21
2437.931598713263
 31
0.0
  0
LINE
  5
16E85
330
747D
100
AcDbEntity
  8
部品1
100
AcDbLine
 10
7374.673057123655
 20
2537.931598713263
 30
0.0
 11
7374.673057123657
 21
2437.931598713263
 31
0.0
  0
LINE
  5
16E86
330
747D
100
AcDbEntity
  8
部品1
100
AcDbLine
 10
6974.673057123656
 20
2537.93159871326
 30
0.0
 11
6974.673057123657
 21
2437.93159871326
 31
0.0
  0
LINE
  5
16E87
330
747D
100
AcDbEntity
  8
部品1
100
AcDbLine
 10
5023.673057123657
 20
2537.931598713262
 30
0.0
 11
5023.673057123657
 21
2437.931598713261
 31
0.0
  0
LINE
  5
16E88
330
747D
100
AcDbEntity
  8
部品1
100
AcDbLine
 10
6675.673057123657
 20
2537.931598713262
 30
0.0
 11
6675.673057123657
 21
2437.931598713261
 31
0.0
  0
LINE
  5
16E89
330
747D
100
AcDbEntity
  8
部品1
100
AcDbLine
 10
5223.673057123657
 20
2537.931598713262
 30
0.0
 11
5223.673057123657
 21
2437.931598713261
 31
0.0
  0
LINE
  5
16E8A
330
747D
100
AcDbEntity
  8
部品1
100
AcDbLine
 10
6475.673057123657
 20
2537.931598713262
 30
0.0
 11
6475.673057123657
 21
2437.931598713261
 31
0.0
  0
LINE
  5
16E8B
330
747D
100
AcDbEntity
  8
部品1
100
AcDbLine
 10
5749.673057123657
 20
2537.931598713262
 30
0.0
 11
5749.673057123657
 21
2437.931598713261
 31
0.0
  0
LINE
  5
16E8C
330
747D
100
AcDbEntity
  8
部品1
100
AcDbLine
 10
5949.673057123657
 20
2537.931598713262
 30
0.0
 11
5949.673057123657
 21
2437.931598713261
 31
0.0
  0
LINE
  5
16E8D
330
747D
100
AcDbEntity
  8
部品1
100
AcDbLine
 10
4379.673057123656
 20
2587.931598713261
 30
0.0
 11
7319.673057123657
 21
2587.931598713261
 31
0.0
  0
LWPOLYLINE
  5
16E8E
330
747D
100
AcDbEntity
  8
部品1
100
AcDbPolyline
 90
        4
 70
     1
 43
0.0
 10
5467.937724009444
 20
5941.902955966209
 10
5467.937724009444
 20
5702.010634420676
 10
6231.408390237884
 20
5702.010634420676
 10
6231.408390237884
 20
5941.902955966209
  0
TEXT
  5
16E8F
330
747D
100
AcDbEntity
  8
部品1
100
AcDbText
 10
5557.857333838481
 20
5749.009426747686
 30
0.0
 40
135.0
  1
平面図
  7
STYLE2
100
AcDbText
  0
LINE
  5
16E90
330
747D
100
AcDbEntity
  8
部品1
100
AcDbLine
 10
4275.092718138981
 20
4905.535073318026
 30
0.0
 11
4276.22611547133
 21
4885.558945335426
 31
0.0
  0
LINE
  5
16E91
330
747D
100
AcDbEntity
  8
部品1
100
AcDbLine
 10
4287.663135792906
 20
4789.901538168368
 30
0.0
 11
4288.308041600015
 21
4778.535073318027
 31
0.0
  0
LINE
  5
16E92
330
747D
100
AcDbEntity
  8
部品1
100
AcDbLine
 10
4279.42710526806
 20
4882.101538168369
 30
0.0
 11
4284.462145996171
 21
4793.358945335425
 31
0.0
  0
ARC
  5
16E93
330
747D
100
AcDbEntity
  8
部品1
 48
50.0
100
AcDbCircle
 10
4276.431922371874
 20
4881.931598713267
 30
0.0
 40
3.0
100
AcDbArc
 50
3.247342790331777
 51
82.3418727926348
  0
ARC
  5
16E94
330
747D
100
AcDbEntity
  8
部品1
 48
50.0
100
AcDbCircle
 10
4284.667952896717
 20
4789.731598713264
 30
0.0
 40
3.0
100
AcDbArc
 50
3.247342790331777
 51
82.3418727926348
  0
ARC
  5
16E95
330
747D
100
AcDbEntity
  8
部品1
 48
50.0
100
AcDbCircle
 10
4285.161022005278
 20
4793.398597874948
 30
0.0
 40
0.7
100
AcDbArc
 50
183.2473427902797
 51
262.3418727926349
  0
ARC
  5
16E96
330
747D
100
AcDbEntity
  8
部品1
 48
50.0
100
AcDbCircle
 10
4276.924991480438
 20
4885.598597874952
 30
0.0
 40
0.7
100
AcDbArc
 50
183.2473427903838
 51
262.3418727926349
  0
ARC
  5
16E97
330
747D
100
AcDbEntity
  8
部品1
100
AcDbCircle
 10
4295.296801691114
 20
4778.931598713266
 30
0.0
 40
7.0
100
AcDbArc
 50
183.2473427903317
 51
270.0
  0
ARC
  5
16E98
330
747D
100
AcDbEntity
  8
部品1
100
AcDbCircle
 10
4282.081478230081
 20
4905.931598713265
 30
0.0
 40
7.0
100
AcDbArc
 50
90.0
 51
183.2473427903317
  0
ARC
  5
16E99
330
747D
100
AcDbEntity
  8
部品1
100
AcDbCircle
 10
7417.264636017233
 20
4905.931598713264
 30
0.0
 40
7.0
100
AcDbArc
 50
356.7526572096682
 51
90.0
  0
ARC
  5
16E9A
330
747D
100
AcDbEntity
  8
部品1
100
AcDbCircle
 10
7404.0493125562
 20
4778.931598713266
 30
0.0
 40
7.0
100
AcDbArc
 50
270.0
 51
356.7526572096682
  0
ARC
  5
16E9B
330
747D
100
AcDbEntity
  8
部品1
 48
50.0
100
AcDbCircle
 10
7422.421122766879
 20
4885.598597874952
 30
0.0
 40
0.7
100
AcDbArc
 50
277.6581272073652
 51
356.7526572096162
  0
ARC
  5
16E9C
330
747D
100
AcDbEntity
  8
部品1
 48
50.0
100
AcDbCircle
 10
7414.185092242035
 20
4793.398597874946
 30
0.0
 40
0.7
100
AcDbArc
 50
277.6581272073652
 51
356.7526572097202
  0
ARC
  5
16E9D
330
747D
100
AcDbEntity
  8
部品1
 48
50.0
100
AcDbCircle
 10
7414.678161350595
 20
4789.731598713263
 30
0.0
 40
3.0
100
AcDbArc
 50
97.65812720736519
 51
176.7526572096682
  0
ARC
  5
16E9E
330
747D
100
AcDbEntity
  8
部品1
 48
50.0
100
AcDbCircle
 10
7422.914191875439
 20
4881.931598713266
 30
0.0
 40
3.0
100
AcDbArc
 50
97.65812720736519
 51
176.7526572096682
  0
LINE
  5
16E9F
330
747D
100
AcDbEntity
  8
部品1
100
AcDbLine
 10
7419.919008979253
 20
4882.101538168367
 30
0.0
 11
7414.883968251142
 21
4793.358945335424
 31
0.0
  0
LINE
  5
16EA0
330
747D
100
AcDbEntity
  8
部品1
100
AcDbLine
 10
7411.682978454409
 20
4789.901538168367
 30
0.0
 11
7411.038072647298
 21
4778.535073318026
 31
0.0
  0
LINE
  5
16EA1
330
747D
100
AcDbEntity
  8
細線
 48
50.0
100
AcDbLine
 10
4307.673057123651
 20
4912.931598713265
 30
0.0
 11
4307.673057123651
 21
4771.931598713265
 31
0.0
  0
LINE
  5
16EA2
330
747D
100
AcDbEntity
  8
細線
 48
50.0
100
AcDbLine
 10
7391.673057123665
 20
4912.931598713264
 30
0.0
 11
7391.673057123665
 21
4771.931598713264
 31
0.0
  0
LINE
  5
16EA3
330
747D
100
AcDbEntity
  8
部品1
100
AcDbLine
 10
7424.253396108333
 20
4905.535073318024
 30
0.0
 11
7423.119998775987
 21
4885.558945335425
 31
0.0
  0
LINE
  5
16EA4
330
747D
100
AcDbEntity
  8
細線
 48
50.0
100
AcDbLine
 10
7414.278375586906
 20
4792.704841276732
 30
0.0
 11
4285.06773866008
 21
4792.7048412771
 31
0.0
  0
LINE
  5
16EA5
330
747D
100
AcDbEntity
  8
細線
 48
50.0
100
AcDbLine
 10
7422.51440611175
 20
4884.904841276732
 30
0.0
 11
4276.83170813525
 21
4884.904841277102
 31
0.0
  0
LINE
  5
16EA6
330
747D
100
AcDbEntity
  8
部品1
 48
50.0
100
AcDbLine
 10
7404.0493125562
 20
4771.931598713265
 30
0.0
 11
4295.296801691114
 21
4771.931598713265
 31
0.0
  0
LINE
  5
16EA7
330
747D
100
AcDbEntity
  8
部品1
 48
50.0
100
AcDbLine
 10
7417.264636017233
 20
4912.931598713264
 30
0.0
 11
4282.081478230081
 21
4912.931598713264
 31
0.0
  0
DIMENSION
  5
16ED4
330
747D
100
AcDbEntity
  8
寸法
 48
50.0
100
AcDbDimension
  2
*D21
 10
4324.673057123651
 20
5125.473183971506
 30
0.0
 11
5849.673057123658
 21
5125.473183971506
 31
0.0
 70
   160
  1
柱外寸法<>
 71
     5
 42
3050.000000000015
  3
INABA_S40G
100
AcDbAlignedDimension
 13
7374.673057123665
 23
4912.931598713266
 33
0.0
 14
4324.673057123651
 24
4912.931598713268
 34
0.0
100
AcDbRotatedDimension
  0
DIMENSION
  5
16ED5
330
747D
100
AcDbEntity
  8
寸法
 48
50.0
100
AcDbDimension
  2
*D22
 10
4274.673057123651
 20
5125.473183971506
 30
0.0
 11
3961.187775749404
 21
5125.473183971506
 31
0.0
 70
   160
 71
     5
 42
50.0
  3
INABA_S40G
100
AcDbAlignedDimension
 13
4324.673057123651
 23
4912.931598713268
 33
0.0
 14
4274.673057123651
 24
4912.931598713267
 34
0.0
100
AcDbRotatedDimension
1001
ACAD
1000
DSTYLE
1002
{
1002
}
  0
DIMENSION
  5
16ED6
330
747D
100
AcDbEntity
  8
寸法
 48
50.0
100
AcDbDimension
  2
*D23
 10
7374.673057123665
 20
5125.473183971505
 30
0.0
 11
7738.158338497902
 21
5125.473183971505
 31
0.0
 70
   160
 71
     5
 42
50.0
  3
INABA_S40G
100
AcDbAlignedDimension
 13
7424.673057123666
 23
4912.931598713264
 33
0.0
 14
7374.673057123665
 24
4912.931598713266
 34
0.0
100
AcDbRotatedDimension
  0
DIMENSION
  5
16ED7
330
747D
100
AcDbEntity
  8
寸法
 48
50.0
100
AcDbDimension
  2
*D24
 10
7424.673057123666
 20
5346.378484445256
 30
0.0
 11
5849.673057123658
 21
5346.378484445256
 31
0.0
 70
   160
 71
     5
 42
3150.000000000015
  3
INABA_S40G
100
AcDbAlignedDimension
 13
4274.673057123651
 23
4912.931598713267
 33
0.0
 14
7424.673057123666
 24
4912.931598713264
 34
0.0
100
AcDbRotatedDimension
  0
LINE
  5
16ED8
330
747D
100
AcDbEntity
  8
部品1
100
AcDbLine
 10
4324.673057123656
 20
4677.931598713261
 30
0.0
 11
7374.673057123657
 21
4677.931598713261
 31
0.0
  0
TEXT
  5
16ED9
330
747D
100
AcDbEntity
  8
部品1
100
AcDbText
 10
5558.463127747381
 20
1595.038069494745
 30
0.0
 40
135.0
  1
正面図
  7
STYLE2
100
AcDbText
  0
LWPOLYLINE
  5
16EDA
330
747D
100
AcDbEntity
  8
部品1
100
AcDbPolyline
 90
        4
 70
     1
 43
0.0
 10
5467.937724009428
 20
1787.931598713268
 10
5467.937724009428
 20
1548.039277167736
 10
6231.408390237866
 20
1548.039277167736
 10
6231.408390237866
 20
1787.931598713268
  0
LINE
  5
16F43
330
747D
100
AcDbEntity
  8
部品1
100
AcDbLine
 10
11422.57644444068
 20
2537.931598713262
 30
0.0
 11
11422.57644444068
 21
2437.931598713261
 31
0.0
  0
LINE
  5
16F44
330
747D
100
AcDbEntity
  8
部品1
100
AcDbLine
 10
11222.57644444068
 20
2537.931598713262
 30
0.0
 11
11222.57644444068
 21
2437.931598713261
 31
0.0
  0
LINE
  5
16F45
330
747D
100
AcDbEntity
  8
部品1
100
AcDbLine
 10
12134.57644444068
 20
2537.931598713262
 30
0.0
 11
12134.57644444068
 21
2437.931598713261
 31
0.0
  0
LINE
  5
16F47
330
747D
100
AcDbEntity
  8
破線
  6
HIDDEN
 48
5.0
100
AcDbLine
 10
12955.07644444068
 20
2285.231598713261
 30
0.0
 11
12955.07644444068
 21
2282.931598713261
 31
0.0
  0
LINE
  5
16F49
330
747D
100
AcDbEntity
  8
破線
  6
HIDDEN
 48
5.0
100
AcDbLine
 10
12885.07644444067
 20
2285.231598713261
 30
0.0
 11
12885.07644444067
 21
2282.931598713261
 31
0.0
  0
LINE
  5
16F9D
330
747D
100
AcDbEntity
  8
部品1
100
AcDbLine
 10
12747.57644444068
 20
2537.931598713262
 30
0.0
 11
12747.57644444068
 21
2437.931598713261
 31
0.0
  0
LINE
  5
16F9E
330
747D
100
AcDbEntity
  8
部品1
100
AcDbLine
 10
11934.57644444068
 20
2537.931598713262
 30
0.0
 11
11934.57644444068
 21
2437.931598713261
 31
0.0
  0
LINE
  5
16F9F
330
747D
100
AcDbEntity
  8
部品1
100
AcDbLine
 10
10710.57644444068
 20
2537.931598713271
 30
0.0
 11
10710.57644444068
 21
2437.931598713271
 31
0.0
  0
LINE
  5
16FA0
330
747D
100
AcDbEntity
  8
破線
 48
5.0
100
AcDbLine
 10
9897.576444440684
 20
2437.931598713261
 30
0.0
 11
9897.576444440684
 21
2187.931598713261
 31
0.0
  0
LINE
  5
16FA1
330
747D
100
AcDbEntity
  8
破線
 48
5.0
100
AcDbLine
 10
9952.576444440683
 20
2437.931598713261
 30
0.0
 11
9952.576444440683
 21
2187.931598713261
 31
0.0
  0
LINE
  5
16FA3
330
747D
100
AcDbEntity
  8
破線
 48
5.0
100
AcDbLine
 10
9897.576444440684
 20
2187.931598713261
 30
0.0
 11
9952.576444440682
 21
2187.931598713261
 31
0.0
  0
LINE
  5
16FA4
330
747D
100
AcDbEntity
  8
部品1
100
AcDbLine
 10
10297.57644444068
 20
2537.931598713262
 30
0.0
 11
10297.57644444068
 21
2437.931598713261
 31
0.0
  0
LINE
  5
16FA8
330
747D
100
AcDbEntity
  8
部品1
100
AcDbLine
 10
9952.576444440683
 20
2537.931598713262
 30
0.0
 11
12900.07644444068
 21
2537.931598713262
 31
0.0
  0
LINE
  5
16FA9
330
747D
100
AcDbEntity
  8
部品1
100
AcDbLine
 10
12940.07644444068
 20
2537.931598713262
 30
0.0
 11
12947.57644444068
 21
2537.931598713262
 31
0.0
  0
LINE
  5
16FAA
330
747D
100
AcDbEntity
  8
破線
  6
HIDDEN
 48
5.0
100
AcDbLine
 10
12940.07644444068
 20
2437.931598713261
 30
0.0
 11
12940.07644444068
 21
2432.931598713262
 31
0.0
  0
LINE
  5
16FAB
330
747D
100
AcDbEntity
  8
破線
  6
HIDDEN
 48
5.0
100
AcDbLine
 10
12900.07644444068
 20
2437.931598713261
 30
0.0
 11
12900.07644444068
 21
2432.931598713262
 31
0.0
  0
ARC
  5
16FAC
330
747D
100
AcDbEntity
  8
部品1
 48
50.0
100
AcDbCircle
 10
12935.07644444068
 20
2577.931598713262
 30
0.0
 40
5.0
100
AcDbArc
 50
0.0
 51
90.0
  0
ARC
  5
16FAD
330
747D
100
AcDbEntity
  8
部品1
 48
50.0
100
AcDbCircle
 10
12905.07644444067
 20
2577.931598713262
 30
0.0
 40
5.0
100
AcDbArc
 50
90.0
 51
180.0
  0
LINE
  5
16FAE
330
747D
100
AcDbEntity
  8
部品1
100
AcDbLine
 10
12935.07644444068
 20
2582.931598713261
 30
0.0
 11
12905.07644444067
 21
2582.931598713261
 31
0.0
  0
LINE
  5
16FAF
330
747D
100
AcDbEntity
  8
部品1
 48
50.0
100
AcDbLine
 10
12940.07644444068
 20
2577.931598713262
 30
0.0
 11
12940.07644444068
 21
2437.931598713261
 31
0.0
  0
LINE
  5
16FB0
330
747D
100
AcDbEntity
  8
部品1
 48
50.0
100
AcDbLine
 10
12900.07644444068
 20
2577.931598713262
 30
0.0
 11
12900.07644444068
 21
2437.931598713261
 31
0.0
  0
LINE
  5
16FB4
330
747D
100
AcDbEntity
  8
破線
  6
HIDDEN
 48
5.0
100
AcDbLine
 10
12955.07644444068
 20
2285.231598713261
 30
0.0
 11
12955.07644444068
 21
2282.931598713261
 31
0.0
  0
LINE
  5
16FB5
330
747D
100
AcDbEntity
  8
破線
  6
HIDDEN
 48
5.0
100
AcDbLine
 10
12940.07644444068
 20
2432.931598713262
 30
0.0
 11
12955.07644444068
 21
2285.231598713261
 31
0.0
  0
LINE
  5
16FB6
330
747D
100
AcDbEntity
  8
破線
  6
HIDDEN
 48
5.0
100
AcDbLine
 10
12885.07644444068
 20
2285.231598713261
 30
0.0
 11
12885.07644444068
 21
2282.931598713261
 31
0.0
  0
LINE
  5
16FB7
330
747D
100
AcDbEntity
  8
破線
  6
HIDDEN
 48
5.0
100
AcDbLine
 10
12900.07644444068
 20
2432.931598713262
 30
0.0
 11
12885.07644444068
 21
2285.231598713261
 31
0.0
  0
LINE
  5
16FB8
330
747D
100
AcDbEntity
  8
破線
  6
HIDDEN
 48
5.0
100
AcDbLine
 10
12955.07644444068
 20
2282.931598713261
 30
0.0
 11
12885.07644444068
 21
2282.931598713261
 31
0.0
  0
LINE
  5
16FB9
330
747D
100
AcDbEntity
  8
部品1
100
AcDbLine
 10
10510.57644444068
 20
2537.931598713262
 30
0.0
 11
10510.57644444068
 21
2437.931598713261
 31
0.0
  0
DIMENSION
  5
16FBA
330
747D
100
AcDbEntity
  8
寸法
100
AcDbDimension
  2
*D25
 10
13652.50360241281
 20
4857.931598713261
 30
0.0
 11
13652.50360241281
 21
3692.931598713261
 31
0.0
 70
   160
 71
     5
 42
2320.0
  3
INABA_S40G
100
AcDbAlignedDimension
 13
12947.57644444068
 23
2537.931598713262
 33
0.0
 14
13042.57644444068
 24
4857.931598713261
 34
0.0
 50
90.0
100
AcDbRotatedDimension
1001
ACAD
1000
DSTYLE
1002
{
1070
   288
1070
     1
1002
}
  0
LINE
  5
16FBB
330
747D
100
AcDbEntity
  8
部品1
100
AcDbLine
 10
12892.57644444068
 20
4677.931598713261
 30
0.0
 11
12892.57644444068
 21
2587.931598713261
 31
0.0
  0
LINE
  5
16FBC
330
747D
100
AcDbEntity
  8
部品1
100
AcDbLine
 10
12947.57644444068
 20
4732.361626494379
 30
0.0
 11
12947.57644444068
 21
2437.931598713261
 31
0.0
  0
DIMENSION
  5
16FBD
330
747D
100
AcDbEntity
  8
寸法
100
AcDbDimension
  2
*D26
 10
9053.826315257422
 20
2537.931598713262
 30
0.0
 11
9053.826315257422
 21
2154.181598713261
 31
0.0
 70
   160
 71
     5
 42
50.0
  3
INABA_S40G
100
AcDbAlignedDimension
 13
9897.576444440684
 23
2587.931598713261
 33
0.0
 14
9842.576444440684
 24
2537.931598713262
 34
0.0
 50
90.0
100
AcDbRotatedDimension
1001
ACAD
1000
DSTYLE
1002
{
1070
   288
1070
     1
1002
}
  0
DIMENSION
  5
16FBE
330
747D
100
AcDbEntity
  8
寸法
100
AcDbDimension
  2
*D27
 10
8753.826315257423
 20
2437.931598713261
 30
0.0
 11
8753.826315257423
 21
2022.931598713261
 31
0.0
 70
   160
 71
     5
 42
100.0000000000004
  3
INABA_S40G
100
AcDbAlignedDimension
 13
9842.576444440684
 23
2537.931598713262
 33
0.0
 14
8841.075368545551
 24
2437.931598713261
 34
0.0
 50
90.0
100
AcDbRotatedDimension
1001
ACAD
1000
DSTYLE
1002
{
1070
   288
1070
     1
1002
}
  0
DIMENSION
  5
16FBF
330
747D
100
AcDbEntity
  8
寸法
100
AcDbDimension
  2
*D28
 10
9053.826315257422
 20
2587.931598713262
 30
0.0
 11
8953.814504233802
 21
3632.931598713263
 31
0.0
 70
    32
 71
     5
 42
2089.999999999999
  3
INABA_S40G
100
AcDbAlignedDimension
 13
9897.576444440684
 23
4677.931598713261
 33
0.0
 14
9897.576444440684
 24
2587.931598713261
 34
0.0
 50
90.0
100
AcDbRotatedDimension
1001
ACAD
1000
DSTYLE
1002
{
1070
   288
1070
     1
1002
}
  0
LINE
  5
16FC0
330
747D
100
AcDbEntity
  8
部品1
100
AcDbLine
 10
9897.576444440685
 20
4770.159199947896
 30
0.0
 11
9897.576444440684
 21
2437.931598713261
 31
0.0
  0
LINE
  5
16FC1
330
747D
100
AcDbEntity
  8
部品1
100
AcDbLine
 10
9952.576444440683
 20
4677.931598713261
 30
0.0
 11
9952.576444440683
 21
2437.931598713261
 31
0.0
  0
LINE
  5
16FC2
330
747D
100
AcDbEntity
  8
部品1
100
AcDbLine
 10
9952.576444440683
 20
2587.931598713261
 30
0.0
 11
12947.57644444068
 21
2587.931598713261
 31
0.0
  0
LINE
  5
16FC3
330
747D
100
AcDbEntity
  8
部品1
100
AcDbLine
 10
9897.576444440684
 20
4677.931598713261
 30
0.0
 11
12947.57644444068
 21
4677.931598713261
 31
0.0
  0
LINE
  5
16FC4
330
747D
100
AcDbEntity
  8
Ｇ．Ｌ
100
AcDbLine
 10
3236.406454453174
 20
2437.931598713261
 30
0.0
 11
14050.79354554682
 21
2437.931598713261
 31
0.0
  0
MTEXT
  5
17524
330
747D
100
AcDbEntity
  8
寸法
 62
     7
 48
50.0
100
AcDbMText
 10
5107.388255196301
 20
9616.903693512968
 30
0.0
 40
96.0
 41
0.0
 71
     5
 72
     1
  1
棚 3段
  7
STYLE1
 73
     1
 44
1.0
1001
ACAD
1000
MTEXTBEGIN
1070
    73
1070
     1
1070
    44
1040
1.0
1070
    74
1070
     0
1000
MTEXTEND
  0
MTEXT
  5
17704
330
747D
100
AcDbEntity
  8
寸法
 62
     7
 48
50.0
100
AcDbMText
 10
6617.3882551963
 20
9616.903693513016
 30
0.0
 40
96.0
 41
0.0
 71
     5
 72
     1
  1
棚 3段
  7
STYLE1
 73
     1
 44
1.0
1001
ACAD
1000
MTEXTBEGIN
1070
    73
1070
     1
1070
    44
1040
1.0
1070
    74
1070
     0
1000
MTEXTEND
  0
DIMENSION
  5
178C8
330
747D
100
AcDbEntity
  8
寸法
100
AcDbDimension
  2
*D29
 10
5744.149210862353
 20
9209.059754790665
 30
0.0
 11
4940.964360531678
 21
9209.059754790665
 31
0.0
 70
   160
 71
     5
 42
1483.000000000012
  3
INABA_S40G
100
AcDbAlignedDimension
 13
4353.173057123664
 23
9552.497424545837
 33
0.0
 14
5836.173057123676
 24
9552.49742454583
 34
0.0
100
AcDbRotatedDimension
1001
ACAD
1000
DSTYLE
1002
{
1002
}
  0
DIMENSION
  5
178CB
330
747D
100
AcDbEntity
  8
寸法
100
AcDbDimension
  2
*D30
 10
7254.149210862353
 20
9209.059754790775
 30
0.0
 11
6387.611213040511
 21
9209.059754790775
 31
0.0
 70
   160
 71
     5
 42
1483.000000000012
  3
INABA_S40G
100
AcDbAlignedDimension
 13
5863.173057123663
 23
9552.497424545942
 33
0.0
 14
7346.173057123675
 24
9552.497424545935
 34
0.0
100
AcDbRotatedDimension
1001
ACAD
1000
DSTYLE
1002
{
1002
}
  0
LINE
  5
17A85
330
747D
100
AcDbEntity
  8
補助
  6
PHANTOM
 62
   230
 48
50.0
100
AcDbLine
 10
140.0
 20
0.0
 30
0.0
 11
139.9999999999995
 21
11409.6
 31
0.0
  0
TEXT
  5
17AA3
330
747D
100
AcDbEntity
  8
文字
 62
     7
 48
50.0
100
AcDbText
 10
14590.20998178218
 20
483.8967129911414
 30
0.0
 40
160.0
  1
FXN-95HY
  7
STYLE2
100
AcDbText
  0
DIMENSION
  5
17BE0
330
747D
100
AcDbEntity
  8
寸法
 48
50.0
100
AcDbDimension
  2
*D31
 10
7662.216159445403
 20
4485.93159871326
 30
0.0
 11
7562.216159445402
 21
3542.931598713263
 31
0.0
 70
    32
  1
有効開口部高サ <>
 71
     5
 42
1885.999999999999
  3
INABA_S40G
100
AcDbAlignedDimension
 13
7374.673057123657
 23
2599.931598713262
 33
0.0
 14
7374.673057123658
 24
4485.93159871326
 34
0.0
 50
90.0
100
AcDbRotatedDimension
  0
DIMENSION
  5
17BE1
330
747D
100
AcDbEntity
  8
寸法
 48
50.0
100
AcDbDimension
  2
*D32
 10
7662.216159445403
 20
4512.931598713263
 30
0.0
 11
7802.385982691768
 21
4513.89879855292
 31
0.0
 70
   160
 71
     5
 42
27.00000000000273
  3
INABA_S40G
100
AcDbAlignedDimension
 13
7374.673057123658
 23
4485.93159871326
 33
0.0
 14
7374.673057123655
 24
4512.931598713263
 34
0.0
 50
90.0
100
AcDbRotatedDimension
1001
ACAD
1000
DSTYLE
1002
{
1070
   279
1070
     2
1002
}
  0
DIMENSION
  5
17BE2
330
747D
100
AcDbEntity
  8
寸法
 48
50.0
100
AcDbDimension
  2
*D33
 10
7662.216159445404
 20
4677.931598713261
 30
0.0
 11
7662.216159445403
 21
4916.416880087502
 31
0.0
 70
   160
 71
     5
 42
164.9999999999982
  3
INABA_S40G
100
AcDbAlignedDimension
 13
7374.673057123655
 23
4512.931598713263
 33
0.0
 14
7374.673057123657
 24
4677.931598713261
 34
0.0
 50
90.0
100
AcDbRotatedDimension
1001
ACAD
1000
DSTYLE
1002
{
1002
}
  0
ARC
  5
17E2E
330
747D
100
AcDbEntity
  8
部品1
 48
0.01
100
AcDbCircle
 10
6376.673057123658
 20
4710.431598713259
 30
0.0
 40
2.0
100
AcDbArc
 50
180.0
 51
270.0
  0
ARC
  5
17E2F
330
747D
100
AcDbEntity
  8
部品1
 48
0.01
100
AcDbCircle
 10
6552.673057123659
 20
4710.431598713259
 30
0.0
 40
2.0
100
AcDbArc
 50
270.0
 51
0.0
  0
LINE
  5
17E30
330
747D
100
AcDbEntity
  8
部品1
 48
0.01
100
AcDbLine
 10
6552.673057123659
 20
4708.43159871326
 30
0.0
 11
6376.673057123658
 21
4708.43159871326
 31
0.0
  0
LINE
  5
17E31
330
747D
100
AcDbEntity
  8
部品1
 48
0.01
100
AcDbLine
 10
5146.673057123659
 20
4708.43159871326
 30
0.0
 11
5322.673057123655
 21
4708.43159871326
 31
0.0
  0
ARC
  5
17E32
330
747D
100
AcDbEntity
  8
部品1
 48
0.01
100
AcDbCircle
 10
5146.673057123659
 20
4710.431598713259
 30
0.0
 40
2.0
100
AcDbArc
 50
180.0
 51
270.0
  0
ARC
  5
17E33
330
747D
100
AcDbEntity
  8
部品1
 48
0.01
100
AcDbCircle
 10
5322.673057123655
 20
4710.431598713259
 30
0.0
 40
2.0
100
AcDbArc
 50
270.0
 51
0.0
  0
ARC
  5
17E34
330
747D
100
AcDbEntity
  8
部品1
 48
0.01
100
AcDbCircle
 10
6376.673057123658
 20
4741.93159871326
 30
0.0
 40
2.0
100
AcDbArc
 50
90.0
 51
180.0
  0
ARC
  5
17E35
330
747D
100
AcDbEntity
  8
部品1
 48
0.01
100
AcDbCircle
 10
6552.673057123659
 20
4741.93159871326
 30
0.0
 40
2.0
100
AcDbArc
 50
0.0
 51
90.0
  0
LINE
  5
17E36
330
747D
100
AcDbEntity
  8
細線
100
AcDbLine
 10
6464.673057123659
 20
4714.431598713259
 30
0.0
 11
6390.673057123659
 21
4714.431598713259
 31
0.0
  0
LINE
  5
17E37
330
747D
100
AcDbEntity
  8
細線
100
AcDbLine
 10
6464.673057123659
 20
4737.43159871326
 30
0.0
 11
6538.673057123658
 21
4737.43159871326
 31
0.0
  0
LINE
  5
17E38
330
747D
100
AcDbEntity
  8
細線
100
AcDbLine
 10
6538.673057123658
 20
4714.431598713259
 30
0.0
 11
6464.673057123659
 21
4714.431598713259
 31
0.0
  0
LINE
  5
17E39
330
747D
100
AcDbEntity
  8
細線
100
AcDbLine
 10
6390.673057123659
 20
4737.43159871326
 30
0.0
 11
6464.673057123659
 21
4737.43159871326
 31
0.0
  0
LINE
  5
17E3A
330
747D
100
AcDbEntity
  8
細線
100
AcDbLine
 10
6390.673057123659
 20
4714.431598713259
 30
0.0
 11
6390.673057123659
 21
4737.43159871326
 31
0.0
  0
LINE
  5
17E3B
330
747D
100
AcDbEntity
  8
細線
100
AcDbLine
 10
6538.673057123658
 20
4737.43159871326
 30
0.0
 11
6538.673057123658
 21
4714.431598713259
 31
0.0
  0
LINE
  5
17E3C
330
747D
100
AcDbEntity
  8
部品1
 48
0.01
100
AcDbLine
 10
6374.673057123659
 20
4710.431598713259
 30
0.0
 11
6374.673057123659
 21
4741.93159871326
 31
0.0
  0
LINE
  5
17E3D
330
747D
100
AcDbEntity
  8
部品1
 48
0.01
100
AcDbLine
 10
6554.673057123657
 20
4741.93159871326
 30
0.0
 11
6554.673057123657
 21
4710.431598713259
 31
0.0
  0
LINE
  5
17E3E
330
747D
100
AcDbEntity
  8
部品1
 48
0.01
100
AcDbLine
 10
6376.673057123658
 20
4743.931598713259
 30
0.0
 11
6552.673057123659
 21
4743.931598713259
 31
0.0
  0
LINE
  5
17E3F
330
747D
100
AcDbEntity
  8
細線
100
AcDbLine
 10
6538.673057123658
 20
4731.43159871326
 30
0.0
 11
6464.673057123659
 21
4731.43159871326
 31
0.0
  0
LINE
  5
17E40
330
747D
100
AcDbEntity
  8
細線
100
AcDbLine
 10
6538.673057123658
 20
4725.431598713259
 30
0.0
 11
6464.673057123659
 21
4725.431598713259
 31
0.0
  0
LINE
  5
17E41
330
747D
100
AcDbEntity
  8
細線
100
AcDbLine
 10
6538.673057123658
 20
4719.431598713259
 30
0.0
 11
6464.673057123659
 21
4719.431598713259
 31
0.0
  0
LINE
  5
17E42
330
747D
100
AcDbEntity
  8
細線
100
AcDbLine
 10
6538.673057123658
 20
4731.43159871326
 30
0.0
 11
6469.673057123658
 21
4731.43159871326
 31
0.0
  0
LINE
  5
17E43
330
747D
100
AcDbEntity
  8
細線
100
AcDbLine
 10
6390.673057123659
 20
4731.43159871326
 30
0.0
 11
6464.673057123659
 21
4731.43159871326
 31
0.0
  0
LINE
  5
17E44
330
747D
100
AcDbEntity
  8
細線
100
AcDbLine
 10
6390.673057123659
 20
4719.431598713259
 30
0.0
 11
6464.673057123659
 21
4719.431598713259
 31
0.0
  0
LINE
  5
17E45
330
747D
100
AcDbEntity
  8
細線
100
AcDbLine
 10
6390.673057123659
 20
4725.431598713259
 30
0.0
 11
6464.673057123659
 21
4725.431598713259
 31
0.0
  0
LINE
  5
17E46
330
747D
100
AcDbEntity
  8
細線
100
AcDbLine
 10
6464.673057123659
 20
4737.43159871326
 30
0.0
 11
6464.673057123659
 21
4714.431598713259
 31
0.0
  0
LINE
  5
17E47
330
747D
100
AcDbEntity
  8
細線
100
AcDbLine
 10
5234.673057123658
 20
4737.43159871326
 30
0.0
 11
5234.673057123655
 21
4714.431598713259
 31
0.0
  0
LINE
  5
17E48
330
747D
100
AcDbEntity
  8
細線
100
AcDbLine
 10
5308.673057123655
 20
4725.431598713259
 30
0.0
 11
5234.673057123658
 21
4725.431598713259
 31
0.0
  0
LINE
  5
17E49
330
747D
100
AcDbEntity
  8
細線
100
AcDbLine
 10
5308.673057123655
 20
4719.431598713259
 30
0.0
 11
5234.673057123658
 21
4719.431598713259
 31
0.0
  0
LINE
  5
17E4A
330
747D
100
AcDbEntity
  8
細線
100
AcDbLine
 10
5308.673057123655
 20
4731.43159871326
 30
0.0
 11
5234.673057123658
 21
4731.43159871326
 31
0.0
  0
LINE
  5
17E4B
330
747D
100
AcDbEntity
  8
細線
100
AcDbLine
 10
5160.673057123659
 20
4731.43159871326
 30
0.0
 11
5229.673057123658
 21
4731.43159871326
 31
0.0
  0
LINE
  5
17E4C
330
747D
100
AcDbEntity
  8
細線
100
AcDbLine
 10
5160.673057123655
 20
4719.431598713259
 30
0.0
 11
5234.673057123658
 21
4719.431598713259
 31
0.0
  0
LINE
  5
17E4D
330
747D
100
AcDbEntity
  8
細線
100
AcDbLine
 10
5160.673057123659
 20
4725.431598713259
 30
0.0
 11
5234.673057123658
 21
4725.431598713259
 31
0.0
  0
LINE
  5
17E4E
330
747D
100
AcDbEntity
  8
細線
100
AcDbLine
 10
5160.673057123659
 20
4731.43159871326
 30
0.0
 11
5234.673057123658
 21
4731.43159871326
 31
0.0
  0
LINE
  5
17E4F
330
747D
100
AcDbEntity
  8
部品1
 48
0.01
100
AcDbLine
 10
5322.673057123658
 20
4743.931598713259
 30
0.0
 11
5146.673057123659
 21
4743.931598713259
 31
0.0
  0
LINE
  5
17E50
330
747D
100
AcDbEntity
  8
部品1
 48
0.01
100
AcDbLine
 10
5144.673057123658
 20
4741.93159871326
 30
0.0
 11
5144.673057123658
 21
4710.431598713259
 31
0.0
  0
LINE
  5
17E51
330
747D
100
AcDbEntity
  8
部品1
 48
0.01
100
AcDbLine
 10
5324.673057123654
 20
4710.431598713259
 30
0.0
 11
5324.673057123658
 21
4741.93159871326
 31
0.0
  0
LINE
  5
17E52
330
747D
100
AcDbEntity
  8
細線
100
AcDbLine
 10
5160.673057123659
 20
4737.43159871326
 30
0.0
 11
5160.673057123659
 21
4714.431598713259
 31
0.0
  0
LINE
  5
17E53
330
747D
100
AcDbEntity
  8
細線
100
AcDbLine
 10
5308.673057123659
 20
4714.431598713259
 30
0.0
 11
5308.673057123659
 21
4737.43159871326
 31
0.0
  0
LINE
  5
17E54
330
747D
100
AcDbEntity
  8
細線
100
AcDbLine
 10
5308.673057123659
 20
4737.43159871326
 30
0.0
 11
5234.673057123658
 21
4737.43159871326
 31
0.0
  0
LINE
  5
17E55
330
747D
100
AcDbEntity
  8
細線
100
AcDbLine
 10
5160.673057123659
 20
4714.431598713259
 30
0.0
 11
5234.673057123658
 21
4714.431598713259
 31
0.0
  0
LINE
  5
17E56
330
747D
100
AcDbEntity
  8
細線
100
AcDbLine
 10
5234.673057123658
 20
4737.43159871326
 30
0.0
 11
5160.673057123659
 21
4737.43159871326
 31
0.0
  0
LINE
  5
17E57
330
747D
100
AcDbEntity
  8
細線
100
AcDbLine
 10
5234.673057123655
 20
4714.431598713259
 30
0.0
 11
5308.673057123659
 21
4714.431598713259
 31
0.0
  0
ARC
  5
17E58
330
747D
100
AcDbEntity
  8
部品1
 48
0.01
100
AcDbCircle
 10
5146.673057123659
 20
4741.93159871326
 30
0.0
 40
2.0
100
AcDbArc
 50
90.0
 51
180.0
  0
ARC
  5
17E59
330
747D
100
AcDbEntity
  8
部品1
 48
0.01
100
AcDbCircle
 10
5322.673057123658
 20
4741.93159871326
 30
0.0
 40
2.0
100
AcDbArc
 50
0.0
 51
90.0
  0
TEXT
  5
17FAB
330
747D
100
AcDbEntity
  8
文字
 62
     7
 48
50.0
100
AcDbText
 10
14833.43123277338
 20
9915.516434800332
 30
0.0
 40
100.0
  1
F12    1.0(多雪地型  2.3)
  7
STYLE1
100
AcDbText
  0
TEXT
  5
17FBA
330
747D
100
AcDbEntity
  8
文字
 62
     7
 48
50.0
100
AcDbText
 10
14646.46056207479
 20
871.9640646083623
 30
0.0
 40
100.0
  1
～一般型・多雪地型～
  7
STYLE2
100
AcDbText
  0
TEXT
  5
17FD7
330
747D
100
AcDbEntity
  8
文字
 62
     7
 48
50.0
100
AcDbText
 10
15022.63965474516
 20
9230.013745883725
 30
0.0
 40
100.0
  1
F12            0.7
  7
STYLE1
100
AcDbText
  0
ENDSEC
  0
SECTION
  2
OBJECTS
  0
DICTIONARY
  5
7471
330
0
100
AcDbDictionary
281
     1
  3
ACAD_COLOR
350
1698B
  3
ACAD_GROUP
350
7472
  3
ACAD_LAYOUT
350
1698C
  3
ACAD_MATERIAL
350
1698A
  3
ACAD_MLINESTYLE
350
7473
  3
ACAD_PLOTSETTINGS
350
1698D
  3
ACAD_PLOTSTYLENAME
350
16988
  3
ACDBHEADERROUNDTRIPXREC
350
18046
  3
AcDbVariableDictionary
350
18042
  3
CONTENTDICTIONARY
350
E71C
  3
DRAWINGVARIABLESDICT
350
F3B9
  0
DICTIONARY
  5
16BFC
330
7467
100
AcDbDictionary
280
     1
281
     1
  3
ACAD_LAYERSTATES
360
16BFD
  0
DICTIONARY
  5
1698B
102
{ACAD_REACTORS
330
7471
102
}
330
7471
100
AcDbDictionary
281
     1
  0
DICTIONARY
  5
7472
102
{ACAD_REACTORS
330
7471
102
}
330
7471
100
AcDbDictionary
281
     1
  0
DICTIONARY
  5
1698C
102
{ACAD_REACTORS
330
7471
102
}
330
7471
100
AcDbDictionary
281
     1
  3
Model
350
1698E
  3
レイアウト1
350
1698F
  0
DICTIONARY
  5
1698A
102
{ACAD_REACTORS
330
7471
102
}
330
7471
100
AcDbDictionary
281
     1
  0
DICTIONARY
  5
7473
102
{ACAD_REACTORS
330
7471
102
}
330
7471
100
AcDbDictionary
281
     1
  3
STANDARD
350
7480
  0
DICTIONARY
  5
1698D
102
{ACAD_REACTORS
330
7471
102
}
330
7471
100
AcDbDictionary
281
     1
  0
ACDBDICTIONARYWDFLT
  5
16988
102
{ACAD_REACTORS
330
7471
102
}
330
7471
100
AcDbDictionary
281
     1
  3
Normal
350
16989
100
AcDbDictionaryWithDefault
340
16989
  0
DICTIONARY
  5
18046
102
{ACAD_REACTORS
330
7471
102
}
330
7471
100
AcDbDictionary
281
     1
  3
COLORDICT
350
18048
  3
MATERIALDICT
350
18047
  0
DICTIONARY
  5
18042
102
{ACAD_REACTORS
330
7471
102
}
330
7471
100
AcDbDictionary
281
     1
  3
DIMASSOC
350
18043
  3
PROJECTNAME
350
18044
  0
DICTIONARY
  5
E71C
102
{ACAD_REACTORS
330
7471
102
}
330
7471
100
AcDbDictionary
281
     1
  0
DICTIONARY
  5
F3B9
102
{ACAD_REACTORS
330
7471
102
}
330
7471
100
AcDbDictionary
281
     1
1001
DRAWINGVARIABLESXDATA
1000
POLARMODE
1000
1
  0
DICTIONARY
  5
16BFD
102
{ACAD_REACTORS
330
16BFC
102
}
330
16BFC
100
AcDbDictionary
281
     1
  0
LAYOUT
  5
1698E
102
{ACAD_XDICTIONARY
360
18049
102
}
102
{ACAD_REACTORS
330
1698C
102
}
330
1698C
100
AcDbPlotSettings
  1

  2
none_device
  4
Letter_(8.50_x_11.00_Inches)
  6

 40
6.349999904632568
 41
6.349999904632568
 42
6.350006103515625
 43
6.350006103515625
 44
215.8999938964844
 45
279.3999938964844
 46
0.0
 47
0.0
 48
0.0
 49
0.0
140
0.0
141
0.0
142
1.0
143
1.0
 70
 11952
 72
     1
 73
     1
 74
     0
  7
inaba.ctb
 75
     0
147
1.0
148
-2464.604124655163
149
54.54876986287036
100
AcDbLayout
  1
Model
 70
     1
 71
     0
 10
0.0
 20
0.0
 11
12.0
 21
9.0
 12
0.0
 22
0.0
 32
0.0
 14
0.0
 24
0.0
 34
0.0
 15
0.0
 25
0.0
 35
0.0
146
0.0
 13
0.0
 23
0.0
 33
0.0
 16
1.0
 26
0.0
 36
0.0
 17
0.0
 27
1.0
 37
0.0
 76
     0
330
747D
  0
LAYOUT
  5
1698F
102
{ACAD_XDICTIONARY
360
1804B
102
}
102
{ACAD_REACTORS
330
1698C
102
}
330
1698C
100
AcDbPlotSettings
  1

  2
EPSON LP-8300
  4

  6

 40
0.0
 41
0.0
 42
0.0
 43
0.0
 44
0.0
 45
0.0
 46
0.0
 47
0.0
 48
0.0
 49
0.0
140
0.0
141
0.0
142
1.0
143
1.0
 70
   688
 72
     0
 73
     0
 74
     5
  7
inaba.ctb
 75
    16
147
1.0
148
0.0
149
0.0
100
AcDbLayout
  1
レイアウト1
 70
     0
 71
     1
 10
0.0
 20
0.0
 11
420.0
 21
297.0
 12
0.0
 22
0.0
 32
0.0
 14
1.000000000000000E+20
 24
1.000000000000000E+20
 34
1.000000000000000E+20
 15
-1.000000000000000E+20
 25
-1.000000000000000E+20
 35
-1.000000000000000E+20
146
0.0
 13
0.0
 23
0.0
 33
0.0
 16
1.0
 26
0.0
 36
0.0
 17
0.0
 27
1.0
 37
0.0
 76
     0
330
747A
  0
MLINESTYLE
  5
7480
102
{ACAD_REACTORS
330
7473
102
}
330
7473
100
AcDbMlineStyle
  2
STANDARD
 70
     0
  3

 62
     0
 51
90.0
 52
90.0
 71
     2
 49
0.5
 62
   256
  6
BYLAYER
 49
-0.5
 62
   256
  6
BYLAYER
  0
ACDBPLACEHOLDER
  5
16989
102
{ACAD_REACTORS
330
16988
102
}
330
16988
  0
XRECORD
  5
18048
102
{ACAD_REACTORS
330
18046
102
}
330
18046
100
AcDbXrecord
280
     1
340
1698B
  0
XRECORD
  5
18047
102
{ACAD_REACTORS
330
18046
102
}
330
18046
100
AcDbXrecord
280
     1
340
1698A
  0
DICTIONARYVAR
  5
18043
102
{ACAD_REACTORS
330
18042
102
}
330
18042
100
DictionaryVariables
280
     0
  1
1
  0
DICTIONARYVAR
  5
18044
102
{ACAD_REACTORS
330
18042
102
}
330
18042
100
DictionaryVariables
280
     0
  1

  0
DICTIONARY
  5
18049
330
1698E
100
AcDbDictionary
280
     1
281
     1
  3
ACAD_XREC_ROUNDTRIP
360
1804A
  0
DICTIONARY
  5
1804B
330
1698F
100
AcDbDictionary
280
     1
281
     1
  3
ACAD_XREC_ROUNDTRIP
360
1804C
  0
XRECORD
  5
1804A
102
{ACAD_REACTORS
330
18049
102
}
330
18049
100
AcDbXrecord
280
     1
102
SHADEPLOT
 70
     0
102
SHADEPLOTRESLEVEL
 70
     2
102
SHADEPLOTCUSTOMDPI
 70
   300
  0
XRECORD
  5
1804C
102
{ACAD_REACTORS
330
1804B
102
}
330
1804B
100
AcDbXrecord
280
     1
102
SHADEPLOT
 70
     0
102
SHADEPLOTRESLEVEL
 70
     2
102
SHADEPLOTCUSTOMDPI
 70
   300
  0
ENDSEC
  0
EOF
