  0
SECTION
  2
HEADER
  9
$ACADVER
  1
AC1015
  9
$ACADMAINTVER
 70
    20
  9
$DWGCODEPAGE
  3
ANSI_932
  9
$INSBASE
 10
0.0
 20
0.0
 30
0.0
  9
$EXTMIN
 10
139.9999999999995
 20
-0.0000000000000909
 30
0.0
  9
$EXTMAX
 10
16307.2
 20
11409.6
 30
0.0
  9
$LIMMIN
 10
-183.0179068595971
 20
-160.3342785227505
  9
$LIMMAX
 10
16374.07536659319
 20
11592.19044584975
  9
$ORTHOMODE
 70
     0
  9
$REGENMODE
 70
     1
  9
$FILLMODE
 70
     1
  9
$QTEXTMODE
 70
     0
  9
$MIRRTEXT
 70
     1
  9
$LTSCALE
 40
20.0
  9
$ATTMODE
 70
     1
  9
$TEXTSIZE
 40
100.0
  9
$TRACEWID
 40
1.0
  9
$TEXTSTYLE
  7
STYLE2
  9
$CLAYER
  8
部品1
  9
$CELTYPE
  6
BYLAYER
  9
$CECOLOR
 62
   256
  9
$CELTSCALE
 40
50.0
  9
$DISPSILH
 70
     0
  9
$DIMSCALE
 40
40.0
  9
$DIMASZ
 40
2.5
  9
$DIMEXO
 40
0.5
  9
$DIMDLI
 40
7.0
  9
$DIMRND
 40
0.0
  9
$DIMDLE
 40
0.0
  9
$DIMEXE
 40
1.5
  9
$DIMTP
 40
0.0
  9
$DIMTM
 40
0.0
  9
$DIMTXT
 40
3.0
  9
$DIMCEN
 40
0.0
  9
$DIMTSZ
 40
0.0
  9
$DIMTOL
 70
     0
  9
$DIMLIM
 70
     0
  9
$DIMTIH
 70
     0
  9
$DIMTOH
 70
     0
  9
$DIMSE1
 70
     0
  9
$DIMSE2
 70
     0
  9
$DIMTAD
 70
     3
  9
$DIMZIN
 70
     8
  9
$DIMBLK
  1

  9
$DIMASO
 70
     1
  9
$DIMSHO
 70
     1
  9
$DIMPOST
  1

  9
$DIMAPOST
  1

  9
$DIMALT
 70
     0
  9
$DIMALTD
 70
     2
  9
$DIMALTF
 40
0.0394
  9
$DIMLFAC
 40
1.0
  9
$DIMTOFL
 70
     1
  9
$DIMTVP
 40
0.0
  9
$DIMTIX
 70
     1
  9
$DIMSOXD
 70
     0
  9
$DIMSAH
 70
     1
  9
$DIMBLK1
  1
DOTSMALL
  9
$DIMBLK2
  1
DOTSMALL
  9
$DIMSTYLE
  2
INABA_S40G
  9
$DIMCLRD
 70
     0
  9
$DIMCLRE
 70
     0
  9
$DIMCLRT
 70
     7
  9
$DIMTFAC
 40
1.0
  9
$DIMGAP
 40
1.0
  9
$DIMJUST
 70
     0
  9
$DIMSD1
 70
     0
  9
$DIMSD2
 70
     0
  9
$DIMTOLJ
 70
     1
  9
$DIMTZIN
 70
     0
  9
$DIMALTZ
 70
     0
  9
$DIMALTTZ
 70
     0
  9
$DIMUPT
 70
     0
  9
$DIMDEC
 70
     1
  9
$DIMTDEC
 70
     4
  9
$DIMALTU
 70
     2
  9
$DIMALTTD
 70
     2
  9
$DIMTXSTY
  7
STYLE1
  9
$DIMAUNIT
 70
     0
  9
$DIMADEC
 70
     0
  9
$DIMALTRND
 40
0.0
  9
$DIMAZIN
 70
     0
  9
$DIMDSEP
 70
    46
  9
$DIMATFIT
 70
     3
  9
$DIMFRAC
 70
     0
  9
$DIMLDRBLK
  1

  9
$DIMLUNIT
 70
     2
  9
$DIMLWD
 70
    -2
  9
$DIMLWE
 70
    -2
  9
$DIMTMOVE
 70
     2
  9
$LUNITS
 70
     2
  9
$LUPREC
 70
     1
  9
$SKETCHINC
 40
1.0
  9
$FILLETRAD
 40
3.0
  9
$AUNITS
 70
     0
  9
$AUPREC
 70
     0
  9
$MENU
  1
acad
  9
$ELEVATION
 40
0.0
  9
$PELEVATION
 40
0.0
  9
$THICKNESS
 40
0.0
  9
$LIMCHECK
 70
     0
  9
$CHAMFERA
 40
0.0
  9
$CHAMFERB
 40
0.0
  9
$CHAMFERC
 40
0.0
  9
$CHAMFERD
 40
0.0
  9
$SKPOLY
 70
     0
  9
$TDCREATE
 40
2451368.612993866
  9
$TDUCREATE
 40
2451368.237993866
  9
$TDUPDATE
 40
2455569.632447373
  9
$TDUUPDATE
 40
2455569.257447373
  9
$TDINDWG
 40
0.8003473495
  9
$TDUSRTIMER
 40
0.8003473495
  9
$USRTIMER
 70
     1
  9
$ANGBASE
 50
0.0
  9
$ANGDIR
 70
     0
  9
$PDMODE
 70
     3
  9
$PDSIZE
 40
2.0
  9
$PLINEWID
 40
0.0
  9
$SPLFRAME
 70
     0
  9
$SPLINETYPE
 70
     6
  9
$SPLINESEGS
 70
     8
  9
$HANDSEED
  5
19735
  9
$SURFTAB1
 70
     6
  9
$SURFTAB2
 70
     6
  9
$SURFTYPE
 70
     6
  9
$SURFU
 70
     6
  9
$SURFV
 70
     6
  9
$UCSBASE
  2

  9
$UCSNAME
  2

  9
$UCSORG
 10
0.0
 20
0.0
 30
0.0
  9
$UCSXDIR
 10
1.0
 20
0.0
 30
0.0
  9
$UCSYDIR
 10
0.0
 20
1.0
 30
0.0
  9
$UCSORTHOREF
  2

  9
$UCSORTHOVIEW
 70
     0
  9
$UCSORGTOP
 10
0.0
 20
0.0
 30
0.0
  9
$UCSORGBOTTOM
 10
0.0
 20
0.0
 30
0.0
  9
$UCSORGLEFT
 10
0.0
 20
0.0
 30
0.0
  9
$UCSORGRIGHT
 10
0.0
 20
0.0
 30
0.0
  9
$UCSORGFRONT
 10
0.0
 20
0.0
 30
0.0
  9
$UCSORGBACK
 10
0.0
 20
0.0
 30
0.0
  9
$PUCSBASE
  2

  9
$PUCSNAME
  2

  9
$PUCSORG
 10
0.0
 20
0.0
 30
0.0
  9
$PUCSXDIR
 10
1.0
 20
0.0
 30
0.0
  9
$PUCSYDIR
 10
0.0
 20
1.0
 30
0.0
  9
$PUCSORTHOREF
  2

  9
$PUCSORTHOVIEW
 70
     0
  9
$PUCSORGTOP
 10
0.0
 20
0.0
 30
0.0
  9
$PUCSORGBOTTOM
 10
0.0
 20
0.0
 30
0.0
  9
$PUCSORGLEFT
 10
0.0
 20
0.0
 30
0.0
  9
$PUCSORGRIGHT
 10
0.0
 20
0.0
 30
0.0
  9
$PUCSORGFRONT
 10
0.0
 20
0.0
 30
0.0
  9
$PUCSORGBACK
 10
0.0
 20
0.0
 30
0.0
  9
$USERI1
 70
     0
  9
$USERI2
 70
     0
  9
$USERI3
 70
     0
  9
$USERI4
 70
     0
  9
$USERI5
 70
     0
  9
$USERR1
 40
0.0
  9
$USERR2
 40
0.0
  9
$USERR3
 40
0.0
  9
$USERR4
 40
0.0
  9
$USERR5
 40
0.0
  9
$WORLDVIEW
 70
     1
  9
$SHADEDGE
 70
     3
  9
$SHADEDIF
 70
    70
  9
$TILEMODE
 70
     1
  9
$MAXACTVP
 70
    16
  9
$PINSBASE
 10
0.0
 20
0.0
 30
0.0
  9
$PLIMCHECK
 70
     0
  9
$PEXTMIN
 10
1.000000000000000E+20
 20
1.000000000000000E+20
 30
1.000000000000000E+20
  9
$PEXTMAX
 10
-1.000000000000000E+20
 20
-1.000000000000000E+20
 30
-1.000000000000000E+20
  9
$PLIMMIN
 10
0.0
 20
0.0
  9
$PLIMMAX
 10
420.0
 20
297.0
  9
$UNITMODE
 70
     0
  9
$VISRETAIN
 70
     0
  9
$PLINEGEN
 70
     0
  9
$PSLTSCALE
 70
     0
  9
$TREEDEPTH
 70
  3020
  9
$CMLSTYLE
  2
STANDARD
  9
$CMLJUST
 70
     0
  9
$CMLSCALE
 40
1.0
  9
$PROXYGRAPHICS
 70
     1
  9
$MEASUREMENT
 70
     1
  9
$CELWEIGHT
370
    -1
  9
$ENDCAPS
280
     0
  9
$JOINSTYLE
280
     0
  9
$LWDISPLAY
290
     0
  9
$INSUNITS
 70
     0
  9
$HYPERLINKBASE
  1

  9
$STYLESHEET
  1
inaba.ctb
  9
$XEDIT
290
     1
  9
$CEPSNTYPE
380
     0
  9
$PSTYLEMODE
290
     1
  9
$FINGERPRINTGUID
  2
{1D7D5DEB-7A86-471F-AF5D-C61D728631C0}
  9
$VERSIONGUID
  2
{93B9A9AC-B86C-46D5-9310-380DE1078320}
  9
$EXTNAMES
290
     1
  9
$PSVPSCALE
 40
0.0
  9
$OLESTARTUP
290
     0
  0
ENDSEC
  0
SECTION
  2
CLASSES
  0
CLASS
  1
ACDBDICTIONARYWDFLT
  2
AcDbDictionaryWithDefault
  3
ObjectDBX Classes
 90
        0
280
     0
281
     0
  0
CLASS
  1
DICTIONARYVAR
  2
AcDbDictionaryVar
  3
ObjectDBX Classes
 90
        0
280
     0
281
     0
  0
CLASS
  1
ACDBPLACEHOLDER
  2
AcDbPlaceHolder
  3
ObjectDBX Classes
 90
        0
280
     0
281
     0
  0
CLASS
  1
LAYOUT
  2
AcDbLayout
  3
ObjectDBX Classes
 90
        0
280
     0
281
     0
  0
ENDSEC
  0
SECTION
  2
TABLES
  0
TABLE
  2
VPORT
  5
746D
330
0
100
AcDbSymbolTable
 70
     2
  0
VPORT
  5
1972D
330
746D
100
AcDbSymbolTableRecord
100
AcDbViewportTableRecord
  2
*Active
 70
     0
 10
0.0
 20
0.0
 11
1.0
 21
1.0
 12
8807.280585082221
 22
5704.60831763757
 13
0.0
 23
0.0
 14
10.0
 24
10.0
 15
10.0
 25
10.0
 16
0.0
 26
0.0
 36
1.0
 17
0.0
 27
0.0
 37
0.0
 40
11495.08489134193
 41
1.627450980392156
 42
50.0
 43
0.0
 44
0.0
 50
0.0
 51
0.0
 71
     0
 72
     0
 73
     1
 74
     0
 75
     0
 76
     0
 77
     0
 78
     0
281
     0
 65
     1
110
0.0
120
0.0
130
0.0
111
1.0
121
0.0
131
0.0
112
0.0
122
1.0
132
0.0
 79
     0
146
0.0
  0
ENDTAB
  0
TABLE
  2
LTYPE
  5
746A
330
0
100
AcDbSymbolTable
 70
     3
  0
LTYPE
  5
7477
330
746A
100
AcDbSymbolTableRecord
100
AcDbLinetypeTableRecord
  2
BYBLOCK
 70
     0
  3

 72
    65
 73
     0
 40
0.0
  0
LTYPE
  5
7478
330
746A
100
AcDbSymbolTableRecord
100
AcDbLinetypeTableRecord
  2
BYLAYER
 70
     0
  3

 72
    65
 73
     0
 40
0.0
  0
LTYPE
  5
7479
330
746A
100
AcDbSymbolTableRecord
100
AcDbLinetypeTableRecord
  2
CONTINUOUS
 70
     0
  3
Solid line
 72
    65
 73
     0
 40
0.0
  0
LTYPE
  5
781A
330
746A
100
AcDbSymbolTableRecord
100
AcDbLinetypeTableRecord
  2
HIDDEN
 70
     0
  3
__ __ __ __ __ __ __ __ __ __ __ __ __ __ __ __
 72
    65
 73
     2
 40
0.375
 49
0.25
 74
     0
 49
-0.125
 74
     0
  0
LTYPE
  5
781B
330
746A
100
AcDbSymbolTableRecord
100
AcDbLinetypeTableRecord
  2
PHANTOM
 70
     0
  3
______  __  __  ______  __  __  ______  __  __ 
 72
    65
 73
     6
 40
2.5
 49
1.25
 74
     0
 49
-0.25
 74
     0
 49
0.25
 74
     0
 49
-0.25
 74
     0
 49
0.25
 74
     0
 49
-0.25
 74
     0
  0
ENDTAB
  0
TABLE
  2
LAYER
  5
7467
102
{ACAD_XDICTIONARY
360
17CBD
102
}
330
0
100
AcDbSymbolTable
 70
    10
  0
LAYER
  5
7474
330
7467
100
AcDbSymbolTableRecord
100
AcDbLayerTableRecord
  2
0
 70
     0
 62
     7
  6
CONTINUOUS
370
    -3
390
179AF
  0
LAYER
  5
DEB3
330
7467
100
AcDbSymbolTableRecord
100
AcDbLayerTableRecord
  2
寸法
 70
     0
 62
     4
  6
CONTINUOUS
370
    -3
390
179AF
  0
LAYER
  5
DEB4
330
7467
100
AcDbSymbolTableRecord
100
AcDbLayerTableRecord
  2
部品1
 70
     0
 62
     7
  6
CONTINUOUS
370
    -3
390
179AF
  0
LAYER
  5
DEB5
330
7467
100
AcDbSymbolTableRecord
100
AcDbLayerTableRecord
  2
補助
 70
     0
 62
    -1
  6
CONTINUOUS
370
    -3
390
179AF
  0
LAYER
  5
DEB6
330
7467
100
AcDbSymbolTableRecord
100
AcDbLayerTableRecord
  2
文字
 70
     0
 62
     7
  6
CONTINUOUS
370
    -3
390
179AF
  0
LAYER
  5
F255
330
7467
100
AcDbSymbolTableRecord
100
AcDbLayerTableRecord
  2
DEFPOINTS
 70
     0
 62
     7
  6
CONTINUOUS
290
     0
370
    -3
390
179AF
  0
LAYER
  5
10B54
330
7467
100
AcDbSymbolTableRecord
100
AcDbLayerTableRecord
  2
仕様書枠
 70
     0
 62
   230
  6
CONTINUOUS
370
    -3
390
179AF
  0
LAYER
  5
11729
330
7467
100
AcDbSymbolTableRecord
100
AcDbLayerTableRecord
  2
Ｇ．Ｌ
 70
     0
 62
    30
  6
CONTINUOUS
370
    -3
390
179AF
  0
LAYER
  5
1173F
330
7467
100
AcDbSymbolTableRecord
100
AcDbLayerTableRecord
  2
細線
 70
     0
 62
     5
  6
CONTINUOUS
370
    -3
390
179AF
  0
LAYER
  5
142E2
330
7467
100
AcDbSymbolTableRecord
100
AcDbLayerTableRecord
  2
破線
 70
     0
 62
     2
  6
HIDDEN
370
    -3
390
179AF
  0
ENDTAB
  0
TABLE
  2
STYLE
  5
7468
330
0
100
AcDbSymbolTable
 70
     4
  0
STYLE
  5
7475
330
7468
100
AcDbSymbolTableRecord
100
AcDbTextStyleTableRecord
  2
STANDARD
 70
     0
 40
0.0
 41
1.0
 50
0.0
 71
     0
 42
4.0
  3
txt
  4
C:\AutoCAD LT\bigfont.shx
  0
STYLE
  5
763C
330
7468
100
AcDbSymbolTableRecord
100
AcDbTextStyleTableRecord
  2
MSMINCHO
 70
     0
 40
0.0
 41
1.0
 50
0.0
 71
     0
 42
1.199999999999999
  3
C:\AutoCAD LT\msminch2.TTF
  4

  0
STYLE
  5
F706
330
7468
100
AcDbSymbolTableRecord
100
AcDbTextStyleTableRecord
  2
STYLE1
 70
     0
 40
0.0
 41
1.0
 50
0.0
 71
     0
 42
4.0
  3
isocp.shx
  4
bigfont.shx
  0
STYLE
  5
103BF
330
7468
100
AcDbSymbolTableRecord
100
AcDbTextStyleTableRecord
  2
STYLE2
 70
     0
 40
0.0
 41
1.0
 50
0.0
 71
     0
 42
100.0
  3
MS PGothic.ttf
  4

1001
ACAD
1000
MS PGothic
1071
    32818
  0
ENDTAB
  0
TABLE
  2
VIEW
  5
746B
330
0
100
AcDbSymbolTable
 70
     0
  0
ENDTAB
  0
TABLE
  2
UCS
  5
746C
330
0
100
AcDbSymbolTable
 70
     0
  0
ENDTAB
  0
TABLE
  2
APPID
  5
746E
330
0
100
AcDbSymbolTable
 70
     6
  0
APPID
  5
7476
330
746E
100
AcDbSymbolTableRecord
100
AcDbRegAppTableRecord
  2
ACAD
 70
     0
  0
APPID
  5
DEA9
330
746E
100
AcDbSymbolTableRecord
100
AcDbRegAppTableRecord
  2
CONTENTBLOCKICON
 70
     0
  0
APPID
  5
DEAA
330
746E
100
AcDbSymbolTableRecord
100
AcDbRegAppTableRecord
  2
CONTENTBLOCKDESCRIPTION
 70
     0
  0
APPID
  5
E71D
330
746E
100
AcDbSymbolTableRecord
100
AcDbRegAppTableRecord
  2
CONTENTTABDATA
 70
     0
  0
APPID
  5
E71E
330
746E
100
AcDbSymbolTableRecord
100
AcDbRegAppTableRecord
  2
CONTENTCURRENTTAB
 70
     0
  0
APPID
  5
F3BA
330
746E
100
AcDbSymbolTableRecord
100
AcDbRegAppTableRecord
  2
DRAWINGVARIABLESXDATA
 70
     0
  0
ENDTAB
  0
TABLE
  2
DIMSTYLE
  5
746F
330
0
100
AcDbSymbolTable
 70
     1
100
AcDbDimStyleTable
 71
     1
340
F71F
  0
DIMSTYLE
105
F71F
102
{ACAD_REACTORS
330
162CD
330
162CE
330
162CF
330
162D0
330
162E4
330
162E7
330
162EA
330
162EB
330
16301
330
16302
330
1631F
330
16320
330
16333
330
1659C
330
1659A
330
165E9
330
166DD
330
16913
330
17826
330
17824
330
17823
330
17825
330
178C4
330
178D3
330
178C2
330
181AC
330
18025
330
18026
330
18070
330
18AEE
330
18AFD
330
18B0B
330
18B0C
330
18B0D
330
18B11
330
18B42
330
18B43
330
18B44
330
191BF
330
191C0
330
191C1
102
}
330
746F
100
AcDbSymbolTableRecord
100
AcDbDimStyleTableRecord
  2
INABA_S40G
 70
     0
 40
40.0
 41
2.5
 42
0.5
 43
7.0
 44
1.5
 73
     0
 74
     0
 77
     3
 78
     8
140
3.0
141
0.0
143
0.0394
147
1.0
172
     1
173
     1
174
     1
178
     7
271
     1
340
F706
341
F770
343
F770
344
F770
  0
ENDTAB
  0
TABLE
  2
BLOCK_RECORD
  5
7466
330
0
100
AcDbSymbolTable
 70
    42
  0
BLOCK_RECORD
  5
747D
330
7466
100
AcDbSymbolTableRecord
100
AcDbBlockTableRecord
  2
*MODEL_SPACE
340
179B4
  0
BLOCK_RECORD
  5
747A
330
7466
100
AcDbSymbolTableRecord
100
AcDbBlockTableRecord
  2
*PAPER_SPACE
340
179B5
  0
BLOCK_RECORD
  5
F770
330
7466
100
AcDbSymbolTableRecord
100
AcDbBlockTableRecord
  2
_DOTSMALL
340
0
102
{BLKREFS
331
1779F
331
177A0
331
1641A
331
1641B
331
16427
331
16428
331
17787
331
17788
331
171E6
331
171E7
331
17985
331
17986
331
1646A
331
1646B
331
16479
331
1647A
331
16487
331
16488
331
16493
331
16494
331
17435
331
17436
331
164B6
331
164B7
331
164C3
331
164C4
331
165BE
331
165BF
331
165CD
331
165CE
331
16644
331
16645
331
166D6
331
166D7
331
1794E
331
1794F
331
17896
331
17897
331
178A5
331
178A6
331
178AF
331
178B0
331
178BC
331
178BD
331
178E1
331
178E2
331
178EF
331
178F0
331
178FB
331
178FC
331
18755
331
18756
331
18787
331
18788
331
18799
331
1879A
331
187A2
331
187A3
331
18FCF
331
18FD0
331
18FD8
331
18FD9
331
18FF6
331
18FF7
331
1900A
331
1900B
331
1901D
331
1901E
331
19027
331
19028
331
19039
331
1903A
331
192B9
331
192BA
331
196E4
331
196E5
331
196ED
331
196EE
331
19702
331
19703
331
1970B
331
1970C
102
}
  0
BLOCK_RECORD
  5
16338
330
7466
100
AcDbSymbolTableRecord
100
AcDbBlockTableRecord
  2
*D1
340
0
  0
BLOCK_RECORD
  5
16344
330
7466
100
AcDbSymbolTableRecord
100
AcDbBlockTableRecord
  2
*D2
340
0
  0
BLOCK_RECORD
  5
16352
330
7466
100
AcDbSymbolTableRecord
100
AcDbBlockTableRecord
  2
*D3
340
0
  0
BLOCK_RECORD
  5
16360
330
7466
100
AcDbSymbolTableRecord
100
AcDbBlockTableRecord
  2
*D4
340
0
  0
BLOCK_RECORD
  5
16384
330
7466
100
AcDbSymbolTableRecord
100
AcDbBlockTableRecord
  2
*D5
340
0
  0
BLOCK_RECORD
  5
1638F
330
7466
100
AcDbSymbolTableRecord
100
AcDbBlockTableRecord
  2
*D6
340
0
  0
BLOCK_RECORD
  5
1639B
330
7466
100
AcDbSymbolTableRecord
100
AcDbBlockTableRecord
  2
*D7
340
0
  0
BLOCK_RECORD
  5
163A9
330
7466
100
AcDbSymbolTableRecord
100
AcDbBlockTableRecord
  2
*D8
340
0
  0
BLOCK_RECORD
  5
163B8
330
7466
100
AcDbSymbolTableRecord
100
AcDbBlockTableRecord
  2
*D9
340
0
  0
BLOCK_RECORD
  5
163C7
330
7466
100
AcDbSymbolTableRecord
100
AcDbBlockTableRecord
  2
*D10
340
0
  0
BLOCK_RECORD
  5
163E1
330
7466
100
AcDbSymbolTableRecord
100
AcDbBlockTableRecord
  2
*D11
340
0
  0
BLOCK_RECORD
  5
163ED
330
7466
100
AcDbSymbolTableRecord
100
AcDbBlockTableRecord
  2
*D12
340
0
  0
BLOCK_RECORD
  5
163FB
330
7466
100
AcDbSymbolTableRecord
100
AcDbBlockTableRecord
  2
*D13
340
0
  0
BLOCK_RECORD
  5
165B5
330
7466
100
AcDbSymbolTableRecord
100
AcDbBlockTableRecord
  2
*D14
340
0
  0
BLOCK_RECORD
  5
165C4
330
7466
100
AcDbSymbolTableRecord
100
AcDbBlockTableRecord
  2
*D15
340
0
  0
BLOCK_RECORD
  5
165EA
330
7466
100
AcDbSymbolTableRecord
100
AcDbBlockTableRecord
  2
*D16
340
0
  0
BLOCK_RECORD
  5
166CF
330
7466
100
AcDbSymbolTableRecord
100
AcDbBlockTableRecord
  2
*D17
340
0
  0
BLOCK_RECORD
  5
16908
330
7466
100
AcDbSymbolTableRecord
100
AcDbBlockTableRecord
  2
*D18
340
0
  0
BLOCK_RECORD
  5
1788D
330
7466
100
AcDbSymbolTableRecord
100
AcDbBlockTableRecord
  2
*D19
340
0
  0
BLOCK_RECORD
  5
1789C
330
7466
100
AcDbSymbolTableRecord
100
AcDbBlockTableRecord
  2
*D20
340
0
  0
BLOCK_RECORD
  5
178AB
330
7466
100
AcDbSymbolTableRecord
100
AcDbBlockTableRecord
  2
*D21
340
0
  0
BLOCK_RECORD
  5
178B6
330
7466
100
AcDbSymbolTableRecord
100
AcDbBlockTableRecord
  2
*D22
340
0
  0
BLOCK_RECORD
  5
178DC
330
7466
100
AcDbSymbolTableRecord
100
AcDbBlockTableRecord
  2
*D23
340
0
  0
BLOCK_RECORD
  5
178E8
330
7466
100
AcDbSymbolTableRecord
100
AcDbBlockTableRecord
  2
*D24
340
0
  0
BLOCK_RECORD
  5
178F6
330
7466
100
AcDbSymbolTableRecord
100
AcDbBlockTableRecord
  2
*D25
340
0
  0
BLOCK_RECORD
  5
18342
330
7466
100
AcDbSymbolTableRecord
100
AcDbBlockTableRecord
  2
*D26
340
0
  0
BLOCK_RECORD
  5
184A2
330
7466
100
AcDbSymbolTableRecord
100
AcDbBlockTableRecord
  2
*D27
340
0
  0
BLOCK_RECORD
  5
184AE
330
7466
100
AcDbSymbolTableRecord
100
AcDbBlockTableRecord
  2
*D28
340
0
  0
BLOCK_RECORD
  5
184C6
330
7466
100
AcDbSymbolTableRecord
100
AcDbBlockTableRecord
  2
*D29
340
0
  0
BLOCK_RECORD
  5
18C7F
330
7466
100
AcDbSymbolTableRecord
100
AcDbBlockTableRecord
  2
*D30
340
0
  0
BLOCK_RECORD
  5
18C8C
330
7466
100
AcDbSymbolTableRecord
100
AcDbBlockTableRecord
  2
*D31
340
0
  0
BLOCK_RECORD
  5
18C99
330
7466
100
AcDbSymbolTableRecord
100
AcDbBlockTableRecord
  2
*D32
340
0
  0
BLOCK_RECORD
  5
18CA5
330
7466
100
AcDbSymbolTableRecord
100
AcDbBlockTableRecord
  2
*D33
340
0
  0
BLOCK_RECORD
  5
18CB3
330
7466
100
AcDbSymbolTableRecord
100
AcDbBlockTableRecord
  2
*D34
340
0
  0
BLOCK_RECORD
  5
18CBF
330
7466
100
AcDbSymbolTableRecord
100
AcDbBlockTableRecord
  2
*D35
340
0
  0
BLOCK_RECORD
  5
18CDA
330
7466
100
AcDbSymbolTableRecord
100
AcDbBlockTableRecord
  2
*D36
340
0
  0
BLOCK_RECORD
  5
18CE6
330
7466
100
AcDbSymbolTableRecord
100
AcDbBlockTableRecord
  2
*D37
340
0
  0
BLOCK_RECORD
  5
18CF2
330
7466
100
AcDbSymbolTableRecord
100
AcDbBlockTableRecord
  2
*D38
340
0
  0
BLOCK_RECORD
  5
19234
330
7466
100
AcDbSymbolTableRecord
100
AcDbBlockTableRecord
  2
*D39
340
0
  0
BLOCK_RECORD
  5
19241
330
7466
100
AcDbSymbolTableRecord
100
AcDbBlockTableRecord
  2
*D40
340
0
  0
BLOCK_RECORD
  5
1924F
330
7466
100
AcDbSymbolTableRecord
100
AcDbBlockTableRecord
  2
*D41
340
0
  0
ENDTAB
  0
ENDSEC
  0
SECTION
  2
BLOCKS
  0
BLOCK
  5
7489
330
747D
100
AcDbEntity
  8
0
100
AcDbBlockBegin
  2
*MODEL_SPACE
 70
     0
 10
0.0
 20
0.0
 30
0.0
  3
*MODEL_SPACE
  1

  0
ENDBLK
  5
748A
330
747D
100
AcDbEntity
  8
0
100
AcDbBlockEnd
  0
BLOCK
  5
7487
330
747A
100
AcDbEntity
 67
     1
  8
0
100
AcDbBlockBegin
  2
*PAPER_SPACE
 70
     0
 10
0.0
 20
0.0
 30
0.0
  3
*PAPER_SPACE
  1

  0
ENDBLK
  5
7488
330
747A
100
AcDbEntity
 67
     1
  8
0
100
AcDbBlockEnd
  0
BLOCK
  5
F771
330
F770
100
AcDbEntity
  8
0
 48
50.0
100
AcDbBlockBegin
  2
_DOTSMALL
 70
     0
 10
0.0
 20
0.0
 30
0.0
  3
_DOTSMALL
  1

  0
LWPOLYLINE
  5
F772
330
F770
100
AcDbEntity
  8
0
  6
ByBlock
 62
     0
 48
50.0
100
AcDbPolyline
 90
        2
 70
     1
 43
0.5
 10
-0.0625
 20
0.0
 42
1.0
 10
0.0625
 20
0.0
 42
1.0
  0
ENDBLK
  5
F776
330
F770
100
AcDbEntity
  8
0
 48
50.0
100
AcDbBlockEnd
  0
BLOCK
  5
1779B
330
16338
100
AcDbEntity
  8
0
 48
50.0
100
AcDbBlockBegin
  2
*D1
 70
     1
 10
0.0
 20
0.0
 30
0.0
  3
*D1
  1

  0
LINE
  5
1779C
330
16338
100
AcDbEntity
  8
0
  6
ByBlock
 62
     0
 48
50.0
100
AcDbLine
 10
8709.673057123664
 20
10137.49742454596
 30
0.0
 11
9397.099402858071
 21
10137.49742454596
 31
0.0
  0
LINE
  5
1779D
330
16338
100
AcDbEntity
  8
0
  6
ByBlock
 62
     0
 48
50.0
100
AcDbLine
 10
8709.673057123639
 20
7197.497424545952
 30
0.0
 11
9397.099402858071
 21
7197.497424545952
 31
0.0
  0
LINE
  5
1779E
330
16338
100
AcDbEntity
  8
0
  6
ByBlock
 62
     0
 48
50.0
100
AcDbLine
 10
9337.09940285807
 20
10137.49742454596
 30
0.0
 11
9337.09940285807
 21
7197.497424545952
 31
0.0
  0
INSERT
  5
1779F
330
16338
100
AcDbEntity
  8
0
  6
ByBlock
 62
     0
 48
50.0
100
AcDbBlockReference
  2
_DOTSMALL
 10
9337.09940285807
 20
10137.49742454596
 30
0.0
 41
100.0
 42
100.0
 43
100.0
 50
90.0
  0
INSERT
  5
177A0
330
16338
100
AcDbEntity
  8
0
  6
ByBlock
 62
     0
 48
50.0
100
AcDbBlockReference
  2
_DOTSMALL
 10
9337.09940285807
 20
7197.497424545952
 30
0.0
 41
100.0
 42
100.0
 43
100.0
 50
270.0
  0
MTEXT
  5
177A1
330
16338
100
AcDbEntity
  8
0
  6
ByBlock
 62
     7
 48
50.0
100
AcDbMText
 10
9237.087591834448
 20
8667.49742454596
 30
0.0
 40
120.0
 41
0.0
 71
     5
 72
     1
  1
\A1;7X420=2940
  7
STYLE1
 11
0.0000000000000001
 21
1.0
 31
0.0
 73
     1
 44
1.0
1001
ACAD
1000
MTEXTBEGIN
1070
    73
1070
     1
1070
    44
1040
1.0
1070
    74
1070
     0
1000
MTEXTEND
  0
POINT
  5
177A2
330
16338
100
AcDbEntity
  8
DEFPOINTS
  6
ByBlock
 62
     0
 48
50.0
100
AcDbPoint
 10
8689.673057123664
 20
10137.49742454596
 30
0.0
  0
POINT
  5
177A3
330
16338
100
AcDbEntity
  8
DEFPOINTS
  6
ByBlock
 62
     0
 48
50.0
100
AcDbPoint
 10
8689.67305712364
 20
7197.497424545952
 30
0.0
  0
POINT
  5
177A4
330
16338
100
AcDbEntity
  8
DEFPOINTS
  6
ByBlock
 62
     0
 48
50.0
100
AcDbPoint
 10
9337.09940285807
 20
7197.497424545952
 30
0.0
  0
ENDBLK
  5
177A5
330
16338
100
AcDbEntity
  8
0
 48
50.0
100
AcDbBlockEnd
  0
BLOCK
  5
16414
330
16344
100
AcDbEntity
  8
0
 48
50.0
100
AcDbBlockBegin
  2
*D2
 70
     1
 10
0.0
 20
0.0
 30
0.0
  3
*D2
  1

  0
LINE
  5
16415
330
16344
100
AcDbEntity
  8
0
  6
ByBlock
 62
     0
 48
50.0
100
AcDbLine
 10
7394.673057123639
 20
7037.497424545953
 30
0.0
 11
8082.099402858048
 21
7037.497424545951
 31
0.0
  0
LINE
  5
16416
330
16344
100
AcDbEntity
  8
0
  6
ByBlock
 62
     0
 48
50.0
100
AcDbLine
 10
7394.673057123639
 20
6982.497424545956
 30
0.0
 11
8082.099402858048
 21
6982.497424545956
 31
0.0
  0
LINE
  5
16417
330
16344
100
AcDbEntity
  8
0
  6
ByBlock
 62
     0
 48
50.0
100
AcDbLine
 10
8022.099402858048
 20
7037.497424545951
 30
0.0
 11
8022.099402858048
 21
7137.497424545951
 31
0.0
  0
LINE
  5
16418
330
16344
100
AcDbEntity
  8
0
  6
ByBlock
 62
     0
 48
50.0
100
AcDbLine
 10
8022.099402858048
 20
6982.497424545956
 30
0.0
 11
8022.099402858048
 21
6496.150676266855
 31
0.0
  0
LINE
  5
16419
330
16344
100
AcDbEntity
  8
0
  6
ByBlock
 62
     0
 48
50.0
100
AcDbLine
 10
8022.099402858048
 20
7037.497424545951
 30
0.0
 11
8022.099402858048
 21
6982.497424545956
 31
0.0
  0
INSERT
  5
1641A
330
16344
100
AcDbEntity
  8
0
  6
ByBlock
 62
     0
 48
50.0
100
AcDbBlockReference
  2
_DOTSMALL
 10
8022.099402858048
 20
7037.497424545951
 30
0.0
 41
100.0
 42
100.0
 43
100.0
 50
270.0
  0
INSERT
  5
1641B
330
16344
100
AcDbEntity
  8
0
  6
ByBlock
 62
     0
 48
50.0
100
AcDbBlockReference
  2
_DOTSMALL
 10
8022.099402858048
 20
6982.497424545956
 30
0.0
 41
100.0
 42
100.0
 43
100.0
 50
90.0
  0
MTEXT
  5
1641C
330
16344
100
AcDbEntity
  8
0
  6
ByBlock
 62
     7
 48
50.0
100
AcDbMText
 10
7922.099402858048
 20
6604.635957641093
 30
0.0
 40
120.0
 41
0.0
 71
     5
 72
     1
  1
\A1;55
  7
STYLE1
 11
0.0000000000000001
 21
1.0
 31
0.0
 73
     1
 44
1.0
1001
ACAD
1000
MTEXTBEGIN
1070
    73
1070
     1
1070
    44
1040
1.0
1070
    74
1070
     0
1000
MTEXTEND
  0
POINT
  5
1641D
330
16344
100
AcDbEntity
  8
DEFPOINTS
  6
ByBlock
 62
     0
 48
50.0
100
AcDbPoint
 10
7374.673057123638
 20
7037.497424545953
 30
0.0
  0
POINT
  5
1641E
330
16344
100
AcDbEntity
  8
DEFPOINTS
  6
ByBlock
 62
     0
 48
50.0
100
AcDbPoint
 10
7374.673057123638
 20
6982.497424545956
 30
0.0
  0
POINT
  5
1641F
330
16344
100
AcDbEntity
  8
DEFPOINTS
  6
ByBlock
 62
     0
 48
50.0
100
AcDbPoint
 10
8022.099402858048
 20
6982.497424545956
 30
0.0
  0
ENDBLK
  5
16420
330
16344
100
AcDbEntity
  8
0
 48
50.0
100
AcDbBlockEnd
  0
BLOCK
  5
16421
330
16352
100
AcDbEntity
  8
0
 48
50.0
100
AcDbBlockBegin
  2
*D3
 70
     1
 10
0.0
 20
0.0
 30
0.0
  3
*D3
  1

  0
LINE
  5
16422
330
16352
100
AcDbEntity
  8
0
  6
ByBlock
 62
     0
 48
50.0
100
AcDbLine
 10
7394.673057123664
 20
10032.49742454596
 30
0.0
 11
8082.099402858075
 21
10032.49742454596
 31
0.0
  0
LINE
  5
16423
330
16352
100
AcDbEntity
  8
0
  6
ByBlock
 62
     0
 48
50.0
100
AcDbLine
 10
7394.673057123664
 20
9977.497424545967
 30
0.0
 11
8082.099402858075
 21
9977.497424545967
 31
0.0
  0
LINE
  5
16424
330
16352
100
AcDbEntity
  8
0
  6
ByBlock
 62
     0
 48
50.0
100
AcDbLine
 10
8022.099402858072
 20
9977.497424545967
 30
0.0
 11
8022.099402858072
 21
9877.497424545968
 31
0.0
  0
LINE
  5
16425
330
16352
100
AcDbEntity
  8
0
  6
ByBlock
 62
     0
 48
50.0
100
AcDbLine
 10
8022.099402858072
 20
10032.49742454596
 30
0.0
 11
8022.099402858072
 21
10449.46798729444
 31
0.0
  0
LINE
  5
16426
330
16352
100
AcDbEntity
  8
0
  6
ByBlock
 62
     0
 48
50.0
100
AcDbLine
 10
8022.099402858072
 20
9977.497424545967
 30
0.0
 11
8022.099402858072
 21
10032.49742454596
 31
0.0
  0
INSERT
  5
16427
330
16352
100
AcDbEntity
  8
0
  6
ByBlock
 62
     0
 48
50.0
100
AcDbBlockReference
  2
_DOTSMALL
 10
8022.099402858072
 20
9977.497424545967
 30
0.0
 41
100.0
 42
100.0
 43
100.0
 50
90.0
  0
INSERT
  5
16428
330
16352
100
AcDbEntity
  8
0
  6
ByBlock
 62
     0
 48
50.0
100
AcDbBlockReference
  2
_DOTSMALL
 10
8022.099402858072
 20
10032.49742454596
 30
0.0
 41
100.0
 42
100.0
 43
100.0
 50
270.0
  0
MTEXT
  5
16429
330
16352
100
AcDbEntity
  8
0
  6
ByBlock
 62
     7
 48
50.0
100
AcDbMText
 10
7922.099402858073
 20
10340.9827059202
 30
0.0
 40
120.0
 41
0.0
 71
     5
 72
     1
  1
\A1;55
  7
STYLE1
 11
0.0000000000000001
 21
1.0
 31
0.0
 73
     1
 44
1.0
1001
ACAD
1000
MTEXTBEGIN
1070
    73
1070
     1
1070
    44
1040
1.0
1070
    74
1070
     0
1000
MTEXTEND
  0
POINT
  5
1642A
330
16352
100
AcDbEntity
  8
DEFPOINTS
  6
ByBlock
 62
     0
 48
50.0
100
AcDbPoint
 10
7374.673057123664
 20
10032.49742454596
 30
0.0
  0
POINT
  5
1642B
330
16352
100
AcDbEntity
  8
DEFPOINTS
  6
ByBlock
 62
     0
 48
50.0
100
AcDbPoint
 10
7374.673057123664
 20
9977.497424545967
 30
0.0
  0
POINT
  5
1642C
330
16352
100
AcDbEntity
  8
DEFPOINTS
  6
ByBlock
 62
     0
 48
50.0
100
AcDbPoint
 10
8022.099402858072
 20
9977.497424545967
 30
0.0
  0
ENDBLK
  5
1642D
330
16352
100
AcDbEntity
  8
0
 48
50.0
100
AcDbBlockEnd
  0
BLOCK
  5
17783
330
16360
100
AcDbEntity
  8
0
 48
50.0
100
AcDbBlockBegin
  2
*D4
 70
     1
 10
0.0
 20
0.0
 30
0.0
  3
*D4
  1

  0
LINE
  5
17784
330
16360
100
AcDbEntity
  8
0
  6
ByBlock
 62
     0
 48
50.0
100
AcDbLine
 10
8709.673057123664
 20
10192.49742454596
 30
0.0
 11
9762.206344597709
 21
10192.49742454596
 31
0.0
  0
LINE
  5
17785
330
16360
100
AcDbEntity
  8
0
  6
ByBlock
 62
     0
 48
50.0
100
AcDbLine
 10
8709.673057123639
 20
7142.497424545957
 30
0.0
 11
9762.206344597709
 21
7142.497424545957
 31
0.0
  0
LINE
  5
17786
330
16360
100
AcDbEntity
  8
0
  6
ByBlock
 62
     0
 48
50.0
100
AcDbLine
 10
9702.20634459771
 20
10192.49742454596
 30
0.0
 11
9702.20634459771
 21
7142.497424545957
 31
0.0
  0
INSERT
  5
17787
330
16360
100
AcDbEntity
  8
0
  6
ByBlock
 62
     0
 48
50.0
100
AcDbBlockReference
  2
_DOTSMALL
 10
9702.20634459771
 20
10192.49742454596
 30
0.0
 41
100.0
 42
100.0
 43
100.0
 50
90.0
  0
INSERT
  5
17788
330
16360
100
AcDbEntity
  8
0
  6
ByBlock
 62
     0
 48
50.0
100
AcDbBlockReference
  2
_DOTSMALL
 10
9702.20634459771
 20
7142.497424545957
 30
0.0
 41
100.0
 42
100.0
 43
100.0
 50
270.0
  0
MTEXT
  5
17789
330
16360
100
AcDbEntity
  8
0
  6
ByBlock
 62
     7
 48
50.0
100
AcDbMText
 10
9602.206344597711
 20
8667.49742454596
 30
0.0
 40
120.0
 41
0.0
 71
     5
 72
     1
  1
\A1;3050
  7
STYLE1
 11
0.0000000000000001
 21
1.0
 31
0.0
 73
     1
 44
1.0
1001
ACAD
1000
MTEXTBEGIN
1070
    73
1070
     1
1070
    44
1040
1.0
1070
    74
1070
     0
1000
MTEXTEND
  0
POINT
  5
1778A
330
16360
100
AcDbEntity
  8
DEFPOINTS
  6
ByBlock
 62
     0
 48
50.0
100
AcDbPoint
 10
8689.673057123664
 20
10192.49742454596
 30
0.0
  0
POINT
  5
1778B
330
16360
100
AcDbEntity
  8
DEFPOINTS
  6
ByBlock
 62
     0
 48
50.0
100
AcDbPoint
 10
8689.67305712364
 20
7142.497424545957
 30
0.0
  0
POINT
  5
1778C
330
16360
100
AcDbEntity
  8
DEFPOINTS
  6
ByBlock
 62
     0
 48
50.0
100
AcDbPoint
 10
9702.20634459771
 20
7142.497424545957
 30
0.0
  0
ENDBLK
  5
1778D
330
16360
100
AcDbEntity
  8
0
 48
50.0
100
AcDbBlockEnd
  0
BLOCK
  5
171E3
330
16384
100
AcDbEntity
  8
0
 48
50.0
100
AcDbBlockBegin
  2
*D5
 70
     1
 10
0.0
 20
0.0
 30
0.0
  3
*D5
  1

  0
LINE
  5
171E4
330
16384
100
AcDbEntity
  8
0
  6
ByBlock
 62
     0
 48
50.0
100
AcDbLine
 10
5742.673057123656
 20
7148.497424545865
 30
0.0
 11
5742.673057123656
 21
6548.0666537797
 31
0.0
  0
LINE
  5
171E5
330
16384
100
AcDbEntity
  8
0
  6
ByBlock
 62
     0
 48
50.0
100
AcDbLine
 10
8586.673057123638
 20
6608.0666537797
 30
0.0
 11
5742.673057123656
 21
6608.0666537797
 31
0.0
  0
INSERT
  5
171E6
330
16384
100
AcDbEntity
  8
0
  6
ByBlock
 62
     0
 48
50.0
100
AcDbBlockReference
  2
_DOTSMALL
 10
8586.673057123638
 20
6608.0666537797
 30
0.0
 41
100.0
 42
100.0
 43
100.0
  0
INSERT
  5
171E7
330
16384
100
AcDbEntity
  8
0
  6
ByBlock
 62
     0
 48
50.0
100
AcDbBlockReference
  2
_DOTSMALL
 10
5742.673057123656
 20
6608.0666537797
 30
0.0
 41
100.0
 42
100.0
 43
100.0
 50
180.0
  0
MTEXT
  5
171E8
330
16384
100
AcDbEntity
  8
0
  6
ByBlock
 62
     7
 48
50.0
100
AcDbMText
 10
7164.673057123647
 20
6708.078464803323
 30
0.0
 40
120.0
 41
0.0
 71
     5
 72
     1
  1
\A1;有効開口部間口 2844
  7
STYLE1
 73
     1
 44
1.0
1001
ACAD
1000
MTEXTBEGIN
1070
    73
1070
     1
1070
    44
1040
1.0
1070
    74
1070
     0
1000
MTEXTEND
  0
POINT
  5
171E9
330
16384
100
AcDbEntity
  8
DEFPOINTS
  6
ByBlock
 62
     0
 48
50.0
100
AcDbPoint
 10
8586.673057123638
 20
7168.497424545865
 30
0.0
  0
POINT
  5
171EA
330
16384
100
AcDbEntity
  8
DEFPOINTS
  6
ByBlock
 62
     0
 48
50.0
100
AcDbPoint
 10
5742.673057123656
 20
7168.497424545865
 30
0.0
  0
POINT
  5
171EB
330
16384
100
AcDbEntity
  8
DEFPOINTS
  6
ByBlock
 62
     0
 48
50.0
100
AcDbPoint
 10
5742.673057123656
 20
6608.0666537797
 30
0.0
  0
ENDBLK
  5
171EC
330
16384
100
AcDbEntity
  8
0
 48
50.0
100
AcDbBlockEnd
  0
BLOCK
  5
17981
330
1638F
100
AcDbEntity
  8
0
 48
50.0
100
AcDbBlockBegin
  2
*D6
 70
     1
 10
0.0
 20
0.0
 30
0.0
  3
*D6
  1

  0
LINE
  5
17982
330
1638F
100
AcDbEntity
  8
0
  6
ByBlock
 62
     0
 48
50.0
100
AcDbLine
 10
901.0795115768305
 20
7122.497424545861
 30
0.0
 11
901.0795115768305
 21
6101.893658188827
 31
0.0
  0
LINE
  5
17983
330
1638F
100
AcDbEntity
  8
0
  6
ByBlock
 62
     0
 48
50.0
100
AcDbLine
 10
10051.0795115768
 20
7122.497424545956
 30
0.0
 11
10051.0795115768
 21
6101.893658188827
 31
0.0
  0
LINE
  5
17984
330
1638F
100
AcDbEntity
  8
0
  6
ByBlock
 62
     0
 48
50.0
100
AcDbLine
 10
901.0795115768305
 20
6161.893658188827
 30
0.0
 11
10051.0795115768
 21
6161.893658188827
 31
0.0
  0
INSERT
  5
17985
330
1638F
100
AcDbEntity
  8
0
  6
ByBlock
 62
     0
 48
50.0
100
AcDbBlockReference
  2
_DOTSMALL
 10
901.0795115768305
 20
6161.893658188827
 30
0.0
 41
100.0
 42
100.0
 43
100.0
 50
180.0
  0
INSERT
  5
17986
330
1638F
100
AcDbEntity
  8
0
  6
ByBlock
 62
     0
 48
50.0
100
AcDbBlockReference
  2
_DOTSMALL
 10
10051.0795115768
 20
6161.893658188827
 30
0.0
 41
100.0
 42
100.0
 43
100.0
  0
MTEXT
  5
17987
330
1638F
100
AcDbEntity
  8
0
  6
ByBlock
 62
     7
 48
50.0
100
AcDbMText
 10
5476.079511576816
 20
6261.893658188826
 30
0.0
 40
120.0
 41
0.0
 71
     5
 72
     1
  1
\A1;N X 3050
  7
STYLE1
 73
     1
 44
1.0
1001
ACAD
1000
MTEXTBEGIN
1070
    73
1070
     1
1070
    44
1040
1.0
1070
    74
1070
     0
1000
MTEXTEND
  0
POINT
  5
17988
330
1638F
100
AcDbEntity
  8
DEFPOINTS
  6
ByBlock
 62
     0
 48
50.0
100
AcDbPoint
 10
901.0795115768305
 20
7142.497424545862
 30
0.0
  0
POINT
  5
17989
330
1638F
100
AcDbEntity
  8
DEFPOINTS
  6
ByBlock
 62
     0
 48
50.0
100
AcDbPoint
 10
10051.0795115768
 20
7142.497424545957
 30
0.0
  0
POINT
  5
1798A
330
1638F
100
AcDbEntity
  8
DEFPOINTS
  6
ByBlock
 62
     0
 48
50.0
100
AcDbPoint
 10
10051.0795115768
 20
6161.893658188827
 30
0.0
  0
ENDBLK
  5
1798B
330
1638F
100
AcDbEntity
  8
0
 48
50.0
100
AcDbBlockEnd
  0
BLOCK
  5
16464
330
1639B
100
AcDbEntity
  8
0
 48
50.0
100
AcDbBlockBegin
  2
*D7
 70
     1
 10
0.0
 20
0.0
 30
0.0
  3
*D7
  1

  0
LINE
  5
16465
330
1639B
100
AcDbEntity
  8
0
  6
ByBlock
 62
     0
 48
50.0
100
AcDbLine
 10
4799.673057123653
 20
6962.497424545865
 30
0.0
 11
4799.673057123653
 21
6388.0666537797
 31
0.0
  0
LINE
  5
16466
330
1639B
100
AcDbEntity
  8
0
  6
ByBlock
 62
     0
 48
50.0
100
AcDbLine
 10
4744.673057123656
 20
6962.497424545862
 30
0.0
 11
4744.673057123656
 21
6388.0666537797
 31
0.0
  0
LINE
  5
16467
330
1639B
100
AcDbEntity
  8
0
  6
ByBlock
 62
     0
 48
50.0
100
AcDbLine
 10
4799.673057123653
 20
6448.066653779701
 30
0.0
 11
4899.673057123653
 21
6448.066653779701
 31
0.0
  0
LINE
  5
16468
330
1639B
100
AcDbEntity
  8
0
  6
ByBlock
 62
     0
 48
50.0
100
AcDbLine
 10
4744.673057123656
 20
6448.066653779701
 30
0.0
 11
4327.70249437518
 21
6448.066653779701
 31
0.0
  0
LINE
  5
16469
330
1639B
100
AcDbEntity
  8
0
  6
ByBlock
 62
     0
 48
50.0
100
AcDbLine
 10
4799.673057123653
 20
6448.066653779701
 30
0.0
 11
4744.673057123656
 21
6448.066653779701
 31
0.0
  0
INSERT
  5
1646A
330
1639B
100
AcDbEntity
  8
0
  6
ByBlock
 62
     0
 48
50.0
100
AcDbBlockReference
  2
_DOTSMALL
 10
4799.673057123653
 20
6448.066653779701
 30
0.0
 41
100.0
 42
100.0
 43
100.0
 50
180.0
  0
INSERT
  5
1646B
330
1639B
100
AcDbEntity
  8
0
  6
ByBlock
 62
     0
 48
50.0
100
AcDbBlockReference
  2
_DOTSMALL
 10
4744.673057123656
 20
6448.066653779701
 30
0.0
 41
100.0
 42
100.0
 43
100.0
  0
MTEXT
  5
1646C
330
1639B
100
AcDbEntity
  8
0
  6
ByBlock
 62
     7
 48
50.0
100
AcDbMText
 10
4436.187775749418
 20
6548.0666537797
 30
0.0
 40
120.0
 41
0.0
 71
     5
 72
     1
  1
\A1;55
  7
STYLE1
 73
     1
 44
1.0
1001
ACAD
1000
MTEXTBEGIN
1070
    73
1070
     1
1070
    44
1040
1.0
1070
    74
1070
     0
1000
MTEXTEND
  0
POINT
  5
1646D
330
1639B
100
AcDbEntity
  8
DEFPOINTS
  6
ByBlock
 62
     0
 48
50.0
100
AcDbPoint
 10
4799.673057123653
 20
6982.497424545865
 30
0.0
  0
POINT
  5
1646E
330
1639B
100
AcDbEntity
  8
DEFPOINTS
  6
ByBlock
 62
     0
 48
50.0
100
AcDbPoint
 10
4744.673057123656
 20
6982.497424545861
 30
0.0
  0
POINT
  5
1646F
330
1639B
100
AcDbEntity
  8
DEFPOINTS
  6
ByBlock
 62
     0
 48
50.0
100
AcDbPoint
 10
4744.673057123656
 20
6448.066653779701
 30
0.0
  0
ENDBLK
  5
16470
330
1639B
100
AcDbEntity
  8
0
 48
50.0
100
AcDbBlockEnd
  0
BLOCK
  5
16471
330
163A9
100
AcDbEntity
  8
0
 48
50.0
100
AcDbBlockBegin
  2
*D8
 70
     1
 10
0.0
 20
0.0
 30
0.0
  3
*D8
  1

  0
LINE
  5
16472
330
163A9
100
AcDbEntity
  8
0
  6
ByBlock
 62
     0
 48
50.0
100
AcDbLine
 10
4847.673057123657
 20
6988.497424545865
 30
0.0
 11
4847.673057123657
 21
6388.0666537797
 31
0.0
  0
LINE
  5
16473
330
163A9
100
AcDbEntity
  8
0
  6
ByBlock
 62
     0
 48
50.0
100
AcDbLine
 10
4799.673057123653
 20
6962.497424545865
 30
0.0
 11
4799.673057123653
 21
6388.0666537797
 31
0.0
  0
LINE
  5
16474
330
163A9
100
AcDbEntity
  8
0
  6
ByBlock
 62
     0
 48
50.0
100
AcDbLine
 10
4847.673057123657
 20
6448.066653779701
 30
0.0
 11
4947.673057123656
 21
6448.066653779701
 31
0.0
  0
LINE
  5
16475
330
163A9
100
AcDbEntity
  8
0
  6
ByBlock
 62
     0
 48
50.0
100
AcDbLine
 10
4799.673057123653
 20
6448.066653779701
 30
0.0
 11
4699.673057123653
 21
6448.066653779701
 31
0.0
  0
MTEXT
  5
16476
330
163A9
100
AcDbEntity
  8
0
  6
ByBlock
 62
     7
 48
50.0
100
AcDbMText
 10
4960.575028123714
 20
6548.0666537797
 30
0.0
 40
120.0
 41
0.0
 71
     5
 72
     1
  1
\A1;48
  7
STYLE1
 73
     1
 44
1.0
1001
ACAD
1000
MTEXTBEGIN
1070
    73
1070
     1
1070
    44
1040
1.0
1070
    74
1070
     0
1000
MTEXTEND
  0
LINE
  5
16477
330
163A9
100
AcDbEntity
  8
0
  6
ByBlock
 62
     0
 48
50.0
100
AcDbLine
 10
4847.673057123657
 20
6448.066653779701
 30
0.0
 11
4799.673057123653
 21
6448.066653779701
 31
0.0
  0
LINE
  5
16478
330
163A9
100
AcDbEntity
  8
0
  6
ByBlock
 62
     0
 48
50.0
100
AcDbLine
 10
4847.673057123657
 20
6448.066653779701
 30
0.0
 11
4799.673057123653
 21
6448.066653779701
 31
0.0
  0
INSERT
  5
16479
330
163A9
100
AcDbEntity
  8
0
  6
ByBlock
 62
     0
 48
50.0
100
AcDbBlockReference
  2
_DOTSMALL
 10
4847.673057123657
 20
6448.066653779701
 30
0.0
 41
100.0
 42
100.0
 43
100.0
 50
180.0
  0
INSERT
  5
1647A
330
163A9
100
AcDbEntity
  8
0
  6
ByBlock
 62
     0
 48
50.0
100
AcDbBlockReference
  2
_DOTSMALL
 10
4799.673057123653
 20
6448.066653779701
 30
0.0
 41
100.0
 42
100.0
 43
100.0
  0
POINT
  5
1647B
330
163A9
100
AcDbEntity
  8
DEFPOINTS
  6
ByBlock
 62
     0
 48
50.0
100
AcDbPoint
 10
4847.673057123657
 20
7008.497424545864
 30
0.0
  0
POINT
  5
1647C
330
163A9
100
AcDbEntity
  8
DEFPOINTS
  6
ByBlock
 62
     0
 48
50.0
100
AcDbPoint
 10
4799.673057123653
 20
6982.497424545865
 30
0.0
  0
POINT
  5
1647D
330
163A9
100
AcDbEntity
  8
DEFPOINTS
  6
ByBlock
 62
     0
 48
50.0
100
AcDbPoint
 10
4799.673057123653
 20
6448.066653779701
 30
0.0
  0
ENDBLK
  5
1647E
330
163A9
100
AcDbEntity
  8
0
 48
50.0
100
AcDbBlockEnd
  0
BLOCK
  5
1647F
330
163B8
100
AcDbEntity
  8
0
 48
50.0
100
AcDbBlockBegin
  2
*D9
 70
     1
 10
0.0
 20
0.0
 30
0.0
  3
*D9
  1

  0
LINE
  5
16480
330
163B8
100
AcDbEntity
  8
0
  6
ByBlock
 62
     0
 48
50.0
100
AcDbLine
 10
7319.67305712364
 20
6962.497424545952
 30
0.0
 11
7319.67305712364
 21
6388.0666537797
 31
0.0
  0
LINE
  5
16481
330
163B8
100
AcDbEntity
  8
0
  6
ByBlock
 62
     0
 48
50.0
100
AcDbLine
 10
7271.673057123638
 20
6988.497424545865
 30
0.0
 11
7271.673057123638
 21
6388.0666537797
 31
0.0
  0
LINE
  5
16482
330
163B8
100
AcDbEntity
  8
0
  6
ByBlock
 62
     0
 48
50.0
100
AcDbLine
 10
7319.67305712364
 20
6448.066653779701
 30
0.0
 11
7419.67305712364
 21
6448.066653779701
 31
0.0
  0
LINE
  5
16483
330
163B8
100
AcDbEntity
  8
0
  6
ByBlock
 62
     0
 48
50.0
100
AcDbLine
 10
7271.673057123638
 20
6448.066653779701
 30
0.0
 11
7171.673057123638
 21
6448.066653779701
 31
0.0
  0
MTEXT
  5
16484
330
163B8
100
AcDbEntity
  8
0
  6
ByBlock
 62
     7
 48
50.0
100
AcDbMText
 10
7160.710159474891
 20
6548.0666537797
 30
0.0
 40
120.0
 41
0.0
 71
     5
 72
     1
  1
\A1;48
  7
STYLE1
 73
     1
 44
1.0
1001
ACAD
1000
MTEXTBEGIN
1070
    73
1070
     1
1070
    44
1040
1.0
1070
    74
1070
     0
1000
MTEXTEND
  0
LINE
  5
16485
330
163B8
100
AcDbEntity
  8
0
  6
ByBlock
 62
     0
 48
50.0
100
AcDbLine
 10
7319.67305712364
 20
6448.066653779701
 30
0.0
 11
7271.673057123638
 21
6448.066653779701
 31
0.0
  0
LINE
  5
16486
330
163B8
100
AcDbEntity
  8
0
  6
ByBlock
 62
     0
 48
50.0
100
AcDbLine
 10
7319.67305712364
 20
6448.066653779701
 30
0.0
 11
7271.673057123638
 21
6448.066653779701
 31
0.0
  0
INSERT
  5
16487
330
163B8
100
AcDbEntity
  8
0
  6
ByBlock
 62
     0
 48
50.0
100
AcDbBlockReference
  2
_DOTSMALL
 10
7319.67305712364
 20
6448.066653779701
 30
0.0
 41
100.0
 42
100.0
 43
100.0
 50
180.0
  0
INSERT
  5
16488
330
163B8
100
AcDbEntity
  8
0
  6
ByBlock
 62
     0
 48
50.0
100
AcDbBlockReference
  2
_DOTSMALL
 10
7271.673057123638
 20
6448.066653779701
 30
0.0
 41
100.0
 42
100.0
 43
100.0
  0
POINT
  5
16489
330
163B8
100
AcDbEntity
  8
DEFPOINTS
  6
ByBlock
 62
     0
 48
50.0
100
AcDbPoint
 10
7319.67305712364
 20
6982.497424545953
 30
0.0
  0
POINT
  5
1648A
330
163B8
100
AcDbEntity
  8
DEFPOINTS
  6
ByBlock
 62
     0
 48
50.0
100
AcDbPoint
 10
7271.673057123638
 20
7008.497424545865
 30
0.0
  0
POINT
  5
1648B
330
163B8
100
AcDbEntity
  8
DEFPOINTS
  6
ByBlock
 62
     0
 48
50.0
100
AcDbPoint
 10
7271.673057123638
 20
6448.066653779701
 30
0.0
  0
ENDBLK
  5
1648C
330
163B8
100
AcDbEntity
  8
0
 48
50.0
100
AcDbBlockEnd
  0
BLOCK
  5
1648D
330
163C7
100
AcDbEntity
  8
0
 48
50.0
100
AcDbBlockBegin
  2
*D10
 70
     1
 10
0.0
 20
0.0
 30
0.0
  3
*D10
  1

  0
LINE
  5
1648E
330
163C7
100
AcDbEntity
  8
0
  6
ByBlock
 62
     0
 48
50.0
100
AcDbLine
 10
7374.673057123638
 20
6962.497424545957
 30
0.0
 11
7374.673057123638
 21
6388.066653779702
 31
0.0
  0
LINE
  5
1648F
330
163C7
100
AcDbEntity
  8
0
  6
ByBlock
 62
     0
 48
50.0
100
AcDbLine
 10
7319.67305712364
 20
6962.497424545952
 30
0.0
 11
7319.67305712364
 21
6388.066653779702
 31
0.0
  0
LINE
  5
16490
330
163C7
100
AcDbEntity
  8
0
  6
ByBlock
 62
     0
 48
50.0
100
AcDbLine
 10
7319.67305712364
 20
6448.066653779702
 30
0.0
 11
7219.67305712364
 21
6448.066653779702
 31
0.0
  0
LINE
  5
16491
330
163C7
100
AcDbEntity
  8
0
  6
ByBlock
 62
     0
 48
50.0
100
AcDbLine
 10
7374.673057123638
 20
6448.066653779702
 30
0.0
 11
7791.643619872115
 21
6448.066653779702
 31
0.0
  0
LINE
  5
16492
330
163C7
100
AcDbEntity
  8
0
  6
ByBlock
 62
     0
 48
50.0
100
AcDbLine
 10
7319.67305712364
 20
6448.066653779702
 30
0.0
 11
7374.673057123638
 21
6448.066653779702
 31
0.0
  0
INSERT
  5
16493
330
163C7
100
AcDbEntity
  8
0
  6
ByBlock
 62
     0
 48
50.0
100
AcDbBlockReference
  2
_DOTSMALL
 10
7319.67305712364
 20
6448.066653779702
 30
0.0
 41
100.0
 42
100.0
 43
100.0
  0
INSERT
  5
16494
330
163C7
100
AcDbEntity
  8
0
  6
ByBlock
 62
     0
 48
50.0
100
AcDbBlockReference
  2
_DOTSMALL
 10
7374.673057123638
 20
6448.066653779702
 30
0.0
 41
100.0
 42
100.0
 43
100.0
 50
180.0
  0
MTEXT
  5
16495
330
163C7
100
AcDbEntity
  8
0
  6
ByBlock
 62
     7
 48
50.0
100
AcDbMText
 10
7683.158338497877
 20
6548.066653779702
 30
0.0
 40
120.0
 41
0.0
 71
     5
 72
     1
  1
\A1;55
  7
STYLE1
 73
     1
 44
1.0
1001
ACAD
1000
MTEXTBEGIN
1070
    73
1070
     1
1070
    44
1040
1.0
1070
    74
1070
     0
1000
MTEXTEND
  0
POINT
  5
16496
330
163C7
100
AcDbEntity
  8
DEFPOINTS
  6
ByBlock
 62
     0
 48
50.0
100
AcDbPoint
 10
7374.673057123638
 20
6982.497424545956
 30
0.0
  0
POINT
  5
16497
330
163C7
100
AcDbEntity
  8
DEFPOINTS
  6
ByBlock
 62
     0
 48
50.0
100
AcDbPoint
 10
7319.67305712364
 20
6982.497424545953
 30
0.0
  0
POINT
  5
16498
330
163C7
100
AcDbEntity
  8
DEFPOINTS
  6
ByBlock
 62
     0
 48
50.0
100
AcDbPoint
 10
7319.67305712364
 20
6448.066653779702
 30
0.0
  0
ENDBLK
  5
16499
330
163C7
100
AcDbEntity
  8
0
 48
50.0
100
AcDbBlockEnd
  0
BLOCK
  5
17431
330
163E1
100
AcDbEntity
  8
0
 48
50.0
100
AcDbBlockBegin
  2
*D11
 70
     1
 10
0.0
 20
0.0
 30
0.0
  3
*D11
  1

  0
LINE
  5
17432
330
163E1
100
AcDbEntity
  8
0
  6
ByBlock
 62
     0
 48
50.0
100
AcDbLine
 10
5694.673057123663
 20
9792.497424545869
 30
0.0
 11
5694.673057123663
 21
10048.30564417096
 31
0.0
  0
LINE
  5
17433
330
163E1
100
AcDbEntity
  8
0
  6
ByBlock
 62
     0
 48
50.0
100
AcDbLine
 10
8634.673057123665
 20
9792.497424545963
 30
0.0
 11
8634.673057123665
 21
10048.30564417096
 31
0.0
  0
LINE
  5
17434
330
163E1
100
AcDbEntity
  8
0
  6
ByBlock
 62
     0
 48
50.0
100
AcDbLine
 10
5694.673057123663
 20
9988.305644170967
 30
0.0
 11
8634.673057123665
 21
9988.305644170967
 31
0.0
  0
INSERT
  5
17435
330
163E1
100
AcDbEntity
  8
0
  6
ByBlock
 62
     0
 48
50.0
100
AcDbBlockReference
  2
_DOTSMALL
 10
5694.673057123663
 20
9988.305644170967
 30
0.0
 41
100.0
 42
100.0
 43
100.0
 50
180.0
  0
INSERT
  5
17436
330
163E1
100
AcDbEntity
  8
0
  6
ByBlock
 62
     0
 48
50.0
100
AcDbBlockReference
  2
_DOTSMALL
 10
8634.673057123665
 20
9988.305644170967
 30
0.0
 41
100.0
 42
100.0
 43
100.0
  0
MTEXT
  5
17437
330
163E1
100
AcDbEntity
  8
0
  6
ByBlock
 62
     7
 48
50.0
100
AcDbMText
 10
7164.673057123664
 20
10088.31745519459
 30
0.0
 40
120.0
 41
0.0
 71
     5
 72
     1
  1
\A1;7X420=2940
  7
STYLE1
 73
     1
 44
1.0
1001
ACAD
1000
MTEXTBEGIN
1070
    73
1070
     1
1070
    44
1040
1.0
1070
    74
1070
     0
1000
MTEXTEND
  0
POINT
  5
17438
330
163E1
100
AcDbEntity
  8
DEFPOINTS
  6
ByBlock
 62
     0
 48
50.0
100
AcDbPoint
 10
5694.673057123663
 20
9772.49742454587
 30
0.0
  0
POINT
  5
17439
330
163E1
100
AcDbEntity
  8
DEFPOINTS
  6
ByBlock
 62
     0
 48
50.0
100
AcDbPoint
 10
8634.673057123665
 20
9772.497424545964
 30
0.0
  0
POINT
  5
1743A
330
163E1
100
AcDbEntity
  8
DEFPOINTS
  6
ByBlock
 62
     0
 48
50.0
100
AcDbPoint
 10
8634.673057123665
 20
9988.305644170967
 30
0.0
  0
ENDBLK
  5
1743B
330
163E1
100
AcDbEntity
  8
0
 48
50.0
100
AcDbBlockEnd
  0
BLOCK
  5
164B0
330
163ED
100
AcDbEntity
  8
0
 48
50.0
100
AcDbBlockBegin
  2
*D12
 70
     1
 10
0.0
 20
0.0
 30
0.0
  3
*D12
  1

  0
LINE
  5
164B1
330
163ED
100
AcDbEntity
  8
0
  6
ByBlock
 62
     0
 48
50.0
100
AcDbLine
 10
4744.673057123629
 20
10052.49742454587
 30
0.0
 11
4744.673057123629
 21
10308.30564417085
 31
0.0
  0
LINE
  5
164B2
330
163ED
100
AcDbEntity
  8
0
  6
ByBlock
 62
     0
 48
50.0
100
AcDbLine
 10
4799.673057123663
 20
10052.49742454587
 30
0.0
 11
4799.673057123663
 21
10308.30564417085
 31
0.0
  0
LINE
  5
164B3
330
163ED
100
AcDbEntity
  8
0
  6
ByBlock
 62
     0
 48
50.0
100
AcDbLine
 10
4799.673057123663
 20
10248.30564417085
 30
0.0
 11
4899.673057123663
 21
10248.30564417085
 31
0.0
  0
LINE
  5
164B4
330
163ED
100
AcDbEntity
  8
0
  6
ByBlock
 62
     0
 48
50.0
100
AcDbLine
 10
4744.673057123629
 20
10248.30564417085
 30
0.0
 11
4327.702494375151
 21
10248.30564417085
 31
0.0
  0
LINE
  5
164B5
330
163ED
100
AcDbEntity
  8
0
  6
ByBlock
 62
     0
 48
50.0
100
AcDbLine
 10
4799.673057123663
 20
10248.30564417085
 30
0.0
 11
4744.673057123629
 21
10248.30564417085
 31
0.0
  0
INSERT
  5
164B6
330
163ED
100
AcDbEntity
  8
0
  6
ByBlock
 62
     0
 48
50.0
100
AcDbBlockReference
  2
_DOTSMALL
 10
4799.673057123663
 20
10248.30564417085
 30
0.0
 41
100.0
 42
100.0
 43
100.0
 50
180.0
  0
INSERT
  5
164B7
330
163ED
100
AcDbEntity
  8
0
  6
ByBlock
 62
     0
 48
50.0
100
AcDbBlockReference
  2
_DOTSMALL
 10
4744.673057123629
 20
10248.30564417085
 30
0.0
 41
100.0
 42
100.0
 43
100.0
  0
MTEXT
  5
164B8
330
163ED
100
AcDbEntity
  8
0
  6
ByBlock
 62
     7
 48
50.0
100
AcDbMText
 10
4436.187775749391
 20
10348.30564417085
 30
0.0
 40
120.0
 41
0.0
 71
     5
 72
     1
  1
\A1;55
  7
STYLE1
 73
     1
 44
1.0
1001
ACAD
1000
MTEXTBEGIN
1070
    73
1070
     1
1070
    44
1040
1.0
1070
    74
1070
     0
1000
MTEXTEND
  0
POINT
  5
164B9
330
163ED
100
AcDbEntity
  8
DEFPOINTS
  6
ByBlock
 62
     0
 48
50.0
100
AcDbPoint
 10
4744.673057123629
 20
10032.49742454587
 30
0.0
  0
POINT
  5
164BA
330
163ED
100
AcDbEntity
  8
DEFPOINTS
  6
ByBlock
 62
     0
 48
50.0
100
AcDbPoint
 10
4799.673057123663
 20
10032.49742454587
 30
0.0
  0
POINT
  5
164BB
330
163ED
100
AcDbEntity
  8
DEFPOINTS
  6
ByBlock
 62
     0
 48
50.0
100
AcDbPoint
 10
4799.673057123663
 20
10248.30564417085
 30
0.0
  0
ENDBLK
  5
164BC
330
163ED
100
AcDbEntity
  8
0
 48
50.0
100
AcDbBlockEnd
  0
BLOCK
  5
164BD
330
163FB
100
AcDbEntity
  8
0
 48
50.0
100
AcDbBlockBegin
  2
*D13
 70
     1
 10
0.0
 20
0.0
 30
0.0
  3
*D13
  1

  0
LINE
  5
164BE
330
163FB
100
AcDbEntity
  8
0
  6
ByBlock
 62
     0
 48
50.0
100
AcDbLine
 10
7319.673057123664
 20
10052.49742454596
 30
0.0
 11
7319.673057123664
 21
10308.30564417095
 31
0.0
  0
LINE
  5
164BF
330
163FB
100
AcDbEntity
  8
0
  6
ByBlock
 62
     0
 48
50.0
100
AcDbLine
 10
7374.673057123664
 20
10052.49742454596
 30
0.0
 11
7374.673057123664
 21
10308.30564417095
 31
0.0
  0
LINE
  5
164C0
330
163FB
100
AcDbEntity
  8
0
  6
ByBlock
 62
     0
 48
50.0
100
AcDbLine
 10
7319.673057123664
 20
10248.30564417095
 30
0.0
 11
7219.673057123664
 21
10248.30564417095
 31
0.0
  0
LINE
  5
164C1
330
163FB
100
AcDbEntity
  8
0
  6
ByBlock
 62
     0
 48
50.0
100
AcDbLine
 10
7374.673057123664
 20
10248.30564417095
 30
0.0
 11
7791.643619872141
 21
10248.30564417095
 31
0.0
  0
LINE
  5
164C2
330
163FB
100
AcDbEntity
  8
0
  6
ByBlock
 62
     0
 48
50.0
100
AcDbLine
 10
7319.673057123664
 20
10248.30564417095
 30
0.0
 11
7374.673057123664
 21
10248.30564417095
 31
0.0
  0
INSERT
  5
164C3
330
163FB
100
AcDbEntity
  8
0
  6
ByBlock
 62
     0
 48
50.0
100
AcDbBlockReference
  2
_DOTSMALL
 10
7319.673057123664
 20
10248.30564417095
 30
0.0
 41
100.0
 42
100.0
 43
100.0
  0
INSERT
  5
164C4
330
163FB
100
AcDbEntity
  8
0
  6
ByBlock
 62
     0
 48
50.0
100
AcDbBlockReference
  2
_DOTSMALL
 10
7374.673057123664
 20
10248.30564417095
 30
0.0
 41
100.0
 42
100.0
 43
100.0
 50
180.0
  0
MTEXT
  5
164C5
330
163FB
100
AcDbEntity
  8
0
  6
ByBlock
 62
     7
 48
50.0
100
AcDbMText
 10
7683.158338497903
 20
10348.30564417095
 30
0.0
 40
120.0
 41
0.0
 71
     5
 72
     1
  1
\A1;55
  7
STYLE1
 73
     1
 44
1.0
1001
ACAD
1000
MTEXTBEGIN
1070
    73
1070
     1
1070
    44
1040
1.0
1070
    74
1070
     0
1000
MTEXTEND
  0
POINT
  5
164C6
330
163FB
100
AcDbEntity
  8
DEFPOINTS
  6
ByBlock
 62
     0
 48
50.0
100
AcDbPoint
 10
7319.673057123664
 20
10032.49742454596
 30
0.0
  0
POINT
  5
164C7
330
163FB
100
AcDbEntity
  8
DEFPOINTS
  6
ByBlock
 62
     0
 48
50.0
100
AcDbPoint
 10
7374.673057123664
 20
10032.49742454596
 30
0.0
  0
POINT
  5
164C8
330
163FB
100
AcDbEntity
  8
DEFPOINTS
  6
ByBlock
 62
     0
 48
50.0
100
AcDbPoint
 10
7374.673057123664
 20
10248.30564417095
 30
0.0
  0
ENDBLK
  5
164C9
330
163FB
100
AcDbEntity
  8
0
 48
50.0
100
AcDbBlockEnd
  0
BLOCK
  5
165B6
330
165B5
100
AcDbEntity
  8
0
 48
50.0
100
AcDbBlockBegin
  2
*D14
 70
     1
 10
0.0
 20
0.0
 30
0.0
  3
*D14
  1

  0
LINE
  5
165B7
330
165B5
100
AcDbEntity
  8
0
  6
ByBlock
 62
     0
 48
50.0
100
AcDbLine
 10
6162.673057123657
 20
6988.497424545865
 30
0.0
 11
6162.673057123657
 21
6388.0666537797
 31
0.0
  0
LINE
  5
165B8
330
165B5
100
AcDbEntity
  8
0
  6
ByBlock
 62
     0
 48
50.0
100
AcDbLine
 10
6114.673057123653
 20
6962.497424545865
 30
0.0
 11
6114.673057123653
 21
6388.0666537797
 31
0.0
  0
LINE
  5
165B9
330
165B5
100
AcDbEntity
  8
0
  6
ByBlock
 62
     0
 48
50.0
100
AcDbLine
 10
6162.673057123657
 20
6448.066653779701
 30
0.0
 11
6262.673057123657
 21
6448.066653779701
 31
0.0
  0
LINE
  5
165BA
330
165B5
100
AcDbEntity
  8
0
  6
ByBlock
 62
     0
 48
50.0
100
AcDbLine
 10
6114.673057123653
 20
6448.066653779701
 30
0.0
 11
6014.673057123653
 21
6448.066653779701
 31
0.0
  0
MTEXT
  5
165BB
330
165B5
100
AcDbEntity
  8
0
  6
ByBlock
 62
     7
 48
50.0
100
AcDbMText
 10
6275.575028123714
 20
6548.0666537797
 30
0.0
 40
120.0
 41
0.0
 71
     5
 72
     1
  1
\A1;48
  7
STYLE1
 73
     1
 44
1.0
1001
ACAD
1000
MTEXTBEGIN
1070
    73
1070
     1
1070
    44
1040
1.0
1070
    74
1070
     0
1000
MTEXTEND
  0
LINE
  5
165BC
330
165B5
100
AcDbEntity
  8
0
  6
ByBlock
 62
     0
 48
50.0
100
AcDbLine
 10
6162.673057123657
 20
6448.066653779701
 30
0.0
 11
6114.673057123653
 21
6448.066653779701
 31
0.0
  0
LINE
  5
165BD
330
165B5
100
AcDbEntity
  8
0
  6
ByBlock
 62
     0
 48
50.0
100
AcDbLine
 10
6162.673057123657
 20
6448.066653779701
 30
0.0
 11
6114.673057123653
 21
6448.066653779701
 31
0.0
  0
INSERT
  5
165BE
330
165B5
100
AcDbEntity
  8
0
  6
ByBlock
 62
     0
 48
50.0
100
AcDbBlockReference
  2
_DOTSMALL
 10
6162.673057123657
 20
6448.066653779701
 30
0.0
 41
100.0
 42
100.0
 43
100.0
 50
180.0
  0
INSERT
  5
165BF
330
165B5
100
AcDbEntity
  8
0
  6
ByBlock
 62
     0
 48
50.0
100
AcDbBlockReference
  2
_DOTSMALL
 10
6114.673057123653
 20
6448.066653779701
 30
0.0
 41
100.0
 42
100.0
 43
100.0
  0
POINT
  5
165C0
330
165B5
100
AcDbEntity
  8
DEFPOINTS
  6
ByBlock
 62
     0
 48
50.0
100
AcDbPoint
 10
6162.673057123657
 20
7008.497424545864
 30
0.0
  0
POINT
  5
165C1
330
165B5
100
AcDbEntity
  8
DEFPOINTS
  6
ByBlock
 62
     0
 48
50.0
100
AcDbPoint
 10
6114.673057123653
 20
6982.497424545865
 30
0.0
  0
POINT
  5
165C2
330
165B5
100
AcDbEntity
  8
DEFPOINTS
  6
ByBlock
 62
     0
 48
50.0
100
AcDbPoint
 10
6114.673057123653
 20
6448.066653779701
 30
0.0
  0
ENDBLK
  5
165C3
330
165B5
100
AcDbEntity
  8
0
 48
50.0
100
AcDbBlockEnd
  0
BLOCK
  5
165C5
330
165C4
100
AcDbEntity
  8
0
 48
50.0
100
AcDbBlockBegin
  2
*D15
 70
     1
 10
0.0
 20
0.0
 30
0.0
  3
*D15
  1

  0
LINE
  5
165C6
330
165C4
100
AcDbEntity
  8
0
  6
ByBlock
 62
     0
 48
50.0
100
AcDbLine
 10
8634.67305712364
 20
6962.497424545952
 30
0.0
 11
8634.67305712364
 21
6388.0666537797
 31
0.0
  0
LINE
  5
165C7
330
165C4
100
AcDbEntity
  8
0
  6
ByBlock
 62
     0
 48
50.0
100
AcDbLine
 10
8586.673057123638
 20
6988.497424545865
 30
0.0
 11
8586.673057123638
 21
6388.0666537797
 31
0.0
  0
LINE
  5
165C8
330
165C4
100
AcDbEntity
  8
0
  6
ByBlock
 62
     0
 48
50.0
100
AcDbLine
 10
8634.67305712364
 20
6448.066653779701
 30
0.0
 11
8734.673057123641
 21
6448.066653779701
 31
0.0
  0
LINE
  5
165C9
330
165C4
100
AcDbEntity
  8
0
  6
ByBlock
 62
     0
 48
50.0
100
AcDbLine
 10
8586.673057123638
 20
6448.066653779701
 30
0.0
 11
8486.673057123638
 21
6448.066653779701
 31
0.0
  0
MTEXT
  5
165CA
330
165C4
100
AcDbEntity
  8
0
  6
ByBlock
 62
     7
 48
50.0
100
AcDbMText
 10
8475.710159474891
 20
6548.0666537797
 30
0.0
 40
120.0
 41
0.0
 71
     5
 72
     1
  1
\A1;48
  7
STYLE1
 73
     1
 44
1.0
1001
ACAD
1000
MTEXTBEGIN
1070
    73
1070
     1
1070
    44
1040
1.0
1070
    74
1070
     0
1000
MTEXTEND
  0
LINE
  5
165CB
330
165C4
100
AcDbEntity
  8
0
  6
ByBlock
 62
     0
 48
50.0
100
AcDbLine
 10
8634.67305712364
 20
6448.066653779701
 30
0.0
 11
8586.673057123638
 21
6448.066653779701
 31
0.0
  0
LINE
  5
165CC
330
165C4
100
AcDbEntity
  8
0
  6
ByBlock
 62
     0
 48
50.0
100
AcDbLine
 10
8634.67305712364
 20
6448.066653779701
 30
0.0
 11
8586.673057123638
 21
6448.066653779701
 31
0.0
  0
INSERT
  5
165CD
330
165C4
100
AcDbEntity
  8
0
  6
ByBlock
 62
     0
 48
50.0
100
AcDbBlockReference
  2
_DOTSMALL
 10
8634.67305712364
 20
6448.066653779701
 30
0.0
 41
100.0
 42
100.0
 43
100.0
 50
180.0
  0
INSERT
  5
165CE
330
165C4
100
AcDbEntity
  8
0
  6
ByBlock
 62
     0
 48
50.0
100
AcDbBlockReference
  2
_DOTSMALL
 10
8586.673057123638
 20
6448.066653779701
 30
0.0
 41
100.0
 42
100.0
 43
100.0
  0
POINT
  5
165CF
330
165C4
100
AcDbEntity
  8
DEFPOINTS
  6
ByBlock
 62
     0
 48
50.0
100
AcDbPoint
 10
8634.67305712364
 20
6982.497424545953
 30
0.0
  0
POINT
  5
165D0
330
165C4
100
AcDbEntity
  8
DEFPOINTS
  6
ByBlock
 62
     0
 48
50.0
100
AcDbPoint
 10
8586.673057123638
 20
7008.497424545865
 30
0.0
  0
POINT
  5
165D1
330
165C4
100
AcDbEntity
  8
DEFPOINTS
  6
ByBlock
 62
     0
 48
50.0
100
AcDbPoint
 10
8586.673057123638
 20
6448.066653779701
 30
0.0
  0
ENDBLK
  5
165D2
330
165C4
100
AcDbEntity
  8
0
 48
50.0
100
AcDbBlockEnd
  0
BLOCK
  5
1663F
330
165EA
100
AcDbEntity
  8
0
 48
50.0
100
AcDbBlockBegin
  2
*D16
 70
     1
 10
0.0
 20
0.0
 30
0.0
  3
*D16
  1

  0
LINE
  5
16640
330
165EA
100
AcDbEntity
  8
0
  6
ByBlock
 62
     0
 48
50.0
100
AcDbLine
 10
6114.673057123653
 20
7222.497424545863
 30
0.0
 11
6114.673057123653
 21
6648.066653779702
 31
0.0
  0
LINE
  5
16641
330
165EA
100
AcDbEntity
  8
0
  6
ByBlock
 62
     0
 48
50.0
100
AcDbLine
 10
6004.67305712364
 20
7222.497424545952
 30
0.0
 11
6004.67305712364
 21
6648.066653779702
 31
0.0
  0
LINE
  5
16642
330
165EA
100
AcDbEntity
  8
0
  6
ByBlock
 62
     0
 48
50.0
100
AcDbLine
 10
6114.673057123653
 20
6708.066653779702
 30
0.0
 11
6004.67305712364
 21
6708.066653779702
 31
0.0
  0
MTEXT
  5
16643
330
165EA
100
AcDbEntity
  8
0
  6
ByBlock
 62
     7
 48
50.0
100
AcDbMText
 10
6059.673057123647
 20
6556.37475874347
 30
0.0
 40
120.0
 41
0.0
 71
     5
 72
     1
  1
\A1;110
  7
STYLE1
 73
     1
 44
1.0
1001
ACAD
1000
MTEXTBEGIN
1070
    73
1070
     1
1070
    44
1040
1.0
1070
    74
1070
     0
1000
MTEXTEND
  0
INSERT
  5
16644
330
165EA
100
AcDbEntity
  8
0
  6
ByBlock
 62
     0
 48
50.0
100
AcDbBlockReference
  2
_DOTSMALL
 10
6114.673057123653
 20
6708.066653779702
 30
0.0
 41
100.0
 42
100.0
 43
100.0
  0
INSERT
  5
16645
330
165EA
100
AcDbEntity
  8
0
  6
ByBlock
 62
     0
 48
50.0
100
AcDbBlockReference
  2
_DOTSMALL
 10
6004.67305712364
 20
6708.066653779702
 30
0.0
 41
100.0
 42
100.0
 43
100.0
 50
180.0
  0
POINT
  5
16646
330
165EA
100
AcDbEntity
  8
DEFPOINTS
  6
ByBlock
 62
     0
 48
50.0
100
AcDbPoint
 10
6114.673057123653
 20
7242.497424545864
 30
0.0
  0
POINT
  5
16647
330
165EA
100
AcDbEntity
  8
DEFPOINTS
  6
ByBlock
 62
     0
 48
50.0
100
AcDbPoint
 10
6004.67305712364
 20
7242.497424545952
 30
0.0
  0
POINT
  5
16648
330
165EA
100
AcDbEntity
  8
DEFPOINTS
  6
ByBlock
 62
     0
 48
50.0
100
AcDbPoint
 10
6004.67305712364
 20
6708.066653779702
 30
0.0
  0
ENDBLK
  5
16649
330
165EA
100
AcDbEntity
  8
0
 48
50.0
100
AcDbBlockEnd
  0
BLOCK
  5
166D0
330
166CF
100
AcDbEntity
  8
0
 48
50.0
100
AcDbBlockBegin
  2
*D17
 70
     1
 10
0.0
 20
0.0
 30
0.0
  3
*D17
  1

  0
LINE
  5
166D1
330
166CF
100
AcDbEntity
  8
0
  6
ByBlock
 62
     0
 48
50.0
100
AcDbLine
 10
6114.673057123663
 20
8952.497424545917
 30
0.0
 11
6114.673057123663
 21
9208.305644170968
 31
0.0
  0
LINE
  5
166D2
330
166CF
100
AcDbEntity
  8
0
  6
ByBlock
 62
     0
 48
50.0
100
AcDbLine
 10
6004.673057123664
 20
8952.497424545915
 30
0.0
 11
6004.673057123664
 21
9208.305644170968
 31
0.0
  0
LINE
  5
166D3
330
166CF
100
AcDbEntity
  8
0
  6
ByBlock
 62
     0
 48
50.0
100
AcDbLine
 10
6114.673057123663
 20
9148.305644170966
 30
0.0
 11
6214.673057123663
 21
9148.305644170966
 31
0.0
  0
LINE
  5
166D4
330
166CF
100
AcDbEntity
  8
0
  6
ByBlock
 62
     0
 48
50.0
100
AcDbLine
 10
6004.673057123664
 20
9148.305644170966
 30
0.0
 11
5904.673057123664
 21
9148.305644170966
 31
0.0
  0
LINE
  5
166D5
330
166CF
100
AcDbEntity
  8
0
  6
ByBlock
 62
     0
 48
50.0
100
AcDbLine
 10
6114.673057123663
 20
9148.305644170966
 30
0.0
 11
6004.673057123664
 21
9148.305644170966
 31
0.0
  0
INSERT
  5
166D6
330
166CF
100
AcDbEntity
  8
0
  6
ByBlock
 62
     0
 48
50.0
100
AcDbBlockReference
  2
_DOTSMALL
 10
6114.673057123663
 20
9148.305644170966
 30
0.0
 41
100.0
 42
100.0
 43
100.0
 50
180.0
  0
INSERT
  5
166D7
330
166CF
100
AcDbEntity
  8
0
  6
ByBlock
 62
     0
 48
50.0
100
AcDbBlockReference
  2
_DOTSMALL
 10
6004.673057123664
 20
9148.305644170966
 30
0.0
 41
100.0
 42
100.0
 43
100.0
  0
MTEXT
  5
166D8
330
166CF
100
AcDbEntity
  8
0
  6
ByBlock
 62
     7
 48
50.0
100
AcDbMText
 10
6059.673057123664
 20
9248.305644170967
 30
0.0
 40
120.0
 41
0.0
 71
     5
 72
     1
  1
\A1;110
  7
STYLE1
 73
     1
 44
1.0
1001
ACAD
1000
MTEXTBEGIN
1070
    73
1070
     1
1070
    44
1040
1.0
1070
    74
1070
     0
1000
MTEXTEND
  0
POINT
  5
166D9
330
166CF
100
AcDbEntity
  8
DEFPOINTS
  6
ByBlock
 62
     0
 48
50.0
100
AcDbPoint
 10
6114.673057123663
 20
8932.497424545919
 30
0.0
  0
POINT
  5
166DA
330
166CF
100
AcDbEntity
  8
DEFPOINTS
  6
ByBlock
 62
     0
 48
50.0
100
AcDbPoint
 10
6004.673057123664
 20
8932.497424545914
 30
0.0
  0
POINT
  5
166DB
330
166CF
100
AcDbEntity
  8
DEFPOINTS
  6
ByBlock
 62
     0
 48
50.0
100
AcDbPoint
 10
6004.673057123664
 20
9148.305644170966
 30
0.0
  0
ENDBLK
  5
166DC
330
166CF
100
AcDbEntity
  8
0
 48
50.0
100
AcDbBlockEnd
  0
BLOCK
  5
1794A
330
16908
100
AcDbEntity
  8
0
 48
50.0
100
AcDbBlockBegin
  2
*D18
 70
     1
 10
0.0
 20
0.0
 30
0.0
  3
*D18
  1

  0
LINE
  5
1794B
330
16908
100
AcDbEntity
  8
0
  6
ByBlock
 62
     0
 48
50.0
100
AcDbLine
 10
7001.079511576837
 20
10587.29355852891
 30
0.0
 11
7001.079511576837
 21
10717.62711772726
 31
0.0
  0
LINE
  5
1794C
330
16908
100
AcDbEntity
  8
0
  6
ByBlock
 62
     0
 48
50.0
100
AcDbLine
 10
10051.07951157684
 20
10212.49742454596
 30
0.0
 11
10051.07951157684
 21
10717.62711772726
 31
0.0
  0
LINE
  5
1794D
330
16908
100
AcDbEntity
  8
0
  6
ByBlock
 62
     0
 48
50.0
100
AcDbLine
 10
7001.079511576837
 20
10657.62711772726
 30
0.0
 11
10051.07951157684
 21
10657.62711772726
 31
0.0
  0
INSERT
  5
1794E
330
16908
100
AcDbEntity
  8
0
  6
ByBlock
 62
     0
 48
50.0
100
AcDbBlockReference
  2
_DOTSMALL
 10
7001.079511576837
 20
10657.62711772726
 30
0.0
 41
100.0
 42
100.0
 43
100.0
 50
180.0
  0
INSERT
  5
1794F
330
16908
100
AcDbEntity
  8
0
  6
ByBlock
 62
     0
 48
50.0
100
AcDbBlockReference
  2
_DOTSMALL
 10
10051.07951157684
 20
10657.62711772726
 30
0.0
 41
100.0
 42
100.0
 43
100.0
  0
MTEXT
  5
17950
330
16908
100
AcDbEntity
  8
0
  6
ByBlock
 62
     7
 48
50.0
100
AcDbMText
 10
8526.079511576837
 20
10757.62711772726
 30
0.0
 40
120.0
 41
0.0
 71
     5
 72
     1
  1
\A1;3050
  7
STYLE1
 73
     1
 44
1.0
1001
ACAD
1000
MTEXTBEGIN
1070
    73
1070
     1
1070
    44
1040
1.0
1070
    74
1070
     0
1000
MTEXTEND
  0
POINT
  5
17951
330
16908
100
AcDbEntity
  8
DEFPOINTS
  6
ByBlock
 62
     0
 48
50.0
100
AcDbPoint
 10
7001.079511576837
 20
10567.29355852891
 30
0.0
  0
POINT
  5
17952
330
16908
100
AcDbEntity
  8
DEFPOINTS
  6
ByBlock
 62
     0
 48
50.0
100
AcDbPoint
 10
10051.07951157684
 20
10192.49742454596
 30
0.0
  0
POINT
  5
17953
330
16908
100
AcDbEntity
  8
DEFPOINTS
  6
ByBlock
 62
     0
 48
50.0
100
AcDbPoint
 10
10051.07951157684
 20
10657.62711772726
 30
0.0
  0
ENDBLK
  5
17954
330
16908
100
AcDbEntity
  8
0
 48
50.0
100
AcDbBlockEnd
  0
BLOCK
  5
1788E
330
1788D
100
AcDbEntity
  8
0
 48
50.0
100
AcDbBlockBegin
  2
*D19
 70
     1
 10
0.0
 20
0.0
 30
0.0
  3
*D19
  1

  0
LINE
  5
1788F
330
1788D
100
AcDbEntity
  8
0
  6
ByBlock
 62
     0
 48
50.0
100
AcDbLine
 10
6162.673057123657
 20
7148.497424545865
 30
0.0
 11
6162.673057123657
 21
6548.0666537797
 31
0.0
  0
LINE
  5
17890
330
1788D
100
AcDbEntity
  8
0
  6
ByBlock
 62
     0
 48
50.0
100
AcDbLine
 10
6114.673057123653
 20
7122.497424545866
 30
0.0
 11
6114.673057123653
 21
6548.0666537797
 31
0.0
  0
LINE
  5
17891
330
1788D
100
AcDbEntity
  8
0
  6
ByBlock
 62
     0
 48
50.0
100
AcDbLine
 10
6162.673057123657
 20
6608.0666537797
 30
0.0
 11
6262.673057123657
 21
6608.0666537797
 31
0.0
  0
LINE
  5
17892
330
1788D
100
AcDbEntity
  8
0
  6
ByBlock
 62
     0
 48
50.0
100
AcDbLine
 10
6114.673057123653
 20
6608.0666537797
 30
0.0
 11
6014.673057123653
 21
6608.0666537797
 31
0.0
  0
MTEXT
  5
17893
330
1788D
100
AcDbEntity
  8
0
  6
ByBlock
 62
     7
 48
50.0
100
AcDbMText
 10
6275.575028123714
 20
6708.0666537797
 30
0.0
 40
120.0
 41
0.0
 71
     5
 72
     1
  1
\A1;48
  7
STYLE1
 73
     1
 44
1.0
1001
ACAD
1000
MTEXTBEGIN
1070
    73
1070
     1
1070
    44
1040
1.0
1070
    74
1070
     0
1000
MTEXTEND
  0
LINE
  5
17894
330
1788D
100
AcDbEntity
  8
0
  6
ByBlock
 62
     0
 48
50.0
100
AcDbLine
 10
6162.673057123657
 20
6608.0666537797
 30
0.0
 11
6114.673057123653
 21
6608.0666537797
 31
0.0
  0
LINE
  5
17895
330
1788D
100
AcDbEntity
  8
0
  6
ByBlock
 62
     0
 48
50.0
100
AcDbLine
 10
6162.673057123657
 20
6608.0666537797
 30
0.0
 11
6114.673057123653
 21
6608.0666537797
 31
0.0
  0
INSERT
  5
17896
330
1788D
100
AcDbEntity
  8
0
  6
ByBlock
 62
     0
 48
50.0
100
AcDbBlockReference
  2
_DOTSMALL
 10
6162.673057123657
 20
6608.0666537797
 30
0.0
 41
100.0
 42
100.0
 43
100.0
 50
180.0
  0
INSERT
  5
17897
330
1788D
100
AcDbEntity
  8
0
  6
ByBlock
 62
     0
 48
50.0
100
AcDbBlockReference
  2
_DOTSMALL
 10
6114.673057123653
 20
6608.0666537797
 30
0.0
 41
100.0
 42
100.0
 43
100.0
  0
POINT
  5
17898
330
1788D
100
AcDbEntity
  8
DEFPOINTS
  6
ByBlock
 62
     0
 48
50.0
100
AcDbPoint
 10
6162.673057123657
 20
7168.497424545865
 30
0.0
  0
POINT
  5
17899
330
1788D
100
AcDbEntity
  8
DEFPOINTS
  6
ByBlock
 62
     0
 48
50.0
100
AcDbPoint
 10
6114.673057123653
 20
7142.497424545865
 30
0.0
  0
POINT
  5
1789A
330
1788D
100
AcDbEntity
  8
DEFPOINTS
  6
ByBlock
 62
     0
 48
50.0
100
AcDbPoint
 10
6114.673057123653
 20
6608.0666537797
 30
0.0
  0
ENDBLK
  5
1789B
330
1788D
100
AcDbEntity
  8
0
 48
50.0
100
AcDbBlockEnd
  0
BLOCK
  5
1789D
330
1789C
100
AcDbEntity
  8
0
 48
50.0
100
AcDbBlockBegin
  2
*D20
 70
     1
 10
0.0
 20
0.0
 30
0.0
  3
*D20
  1

  0
LINE
  5
1789E
330
1789C
100
AcDbEntity
  8
0
  6
ByBlock
 62
     0
 48
50.0
100
AcDbLine
 10
6004.67305712364
 20
7122.497424545952
 30
0.0
 11
6004.67305712364
 21
6548.0666537797
 31
0.0
  0
LINE
  5
1789F
330
1789C
100
AcDbEntity
  8
0
  6
ByBlock
 62
     0
 48
50.0
100
AcDbLine
 10
5956.673057123638
 20
7148.497424545865
 30
0.0
 11
5956.673057123638
 21
6548.0666537797
 31
0.0
  0
LINE
  5
178A0
330
1789C
100
AcDbEntity
  8
0
  6
ByBlock
 62
     0
 48
50.0
100
AcDbLine
 10
6004.67305712364
 20
6608.0666537797
 30
0.0
 11
6104.67305712364
 21
6608.0666537797
 31
0.0
  0
LINE
  5
178A1
330
1789C
100
AcDbEntity
  8
0
  6
ByBlock
 62
     0
 48
50.0
100
AcDbLine
 10
5956.673057123638
 20
6608.0666537797
 30
0.0
 11
5856.673057123638
 21
6608.0666537797
 31
0.0
  0
MTEXT
  5
178A2
330
1789C
100
AcDbEntity
  8
0
  6
ByBlock
 62
     7
 48
50.0
100
AcDbMText
 10
5845.710159474891
 20
6708.0666537797
 30
0.0
 40
120.0
 41
0.0
 71
     5
 72
     1
  1
\A1;48
  7
STYLE1
 73
     1
 44
1.0
1001
ACAD
1000
MTEXTBEGIN
1070
    73
1070
     1
1070
    44
1040
1.0
1070
    74
1070
     0
1000
MTEXTEND
  0
LINE
  5
178A3
330
1789C
100
AcDbEntity
  8
0
  6
ByBlock
 62
     0
 48
50.0
100
AcDbLine
 10
6004.67305712364
 20
6608.0666537797
 30
0.0
 11
5956.673057123638
 21
6608.0666537797
 31
0.0
  0
LINE
  5
178A4
330
1789C
100
AcDbEntity
  8
0
  6
ByBlock
 62
     0
 48
50.0
100
AcDbLine
 10
6004.67305712364
 20
6608.0666537797
 30
0.0
 11
5956.673057123638
 21
6608.0666537797
 31
0.0
  0
INSERT
  5
178A5
330
1789C
100
AcDbEntity
  8
0
  6
ByBlock
 62
     0
 48
50.0
100
AcDbBlockReference
  2
_DOTSMALL
 10
6004.67305712364
 20
6608.0666537797
 30
0.0
 41
100.0
 42
100.0
 43
100.0
 50
180.0
  0
INSERT
  5
178A6
330
1789C
100
AcDbEntity
  8
0
  6
ByBlock
 62
     0
 48
50.0
100
AcDbBlockReference
  2
_DOTSMALL
 10
5956.673057123638
 20
6608.0666537797
 30
0.0
 41
100.0
 42
100.0
 43
100.0
  0
POINT
  5
178A7
330
1789C
100
AcDbEntity
  8
DEFPOINTS
  6
ByBlock
 62
     0
 48
50.0
100
AcDbPoint
 10
6004.67305712364
 20
7142.497424545952
 30
0.0
  0
POINT
  5
178A8
330
1789C
100
AcDbEntity
  8
DEFPOINTS
  6
ByBlock
 62
     0
 48
50.0
100
AcDbPoint
 10
5956.673057123638
 20
7168.497424545865
 30
0.0
  0
POINT
  5
178A9
330
1789C
100
AcDbEntity
  8
DEFPOINTS
  6
ByBlock
 62
     0
 48
50.0
100
AcDbPoint
 10
5956.673057123638
 20
6608.0666537797
 30
0.0
  0
ENDBLK
  5
178AA
330
1789C
100
AcDbEntity
  8
0
 48
50.0
100
AcDbBlockEnd
  0
BLOCK
  5
178AC
330
178AB
100
AcDbEntity
  8
0
 48
50.0
100
AcDbBlockBegin
  2
*D21
 70
     1
 10
0.0
 20
0.0
 30
0.0
  3
*D21
  1

  0
LINE
  5
178AD
330
178AB
100
AcDbEntity
  8
0
  6
ByBlock
 62
     0
 48
50.0
100
AcDbLine
 10
3112.673057123657
 20
7148.497424545865
 30
0.0
 11
3112.673057123657
 21
6548.0666537797
 31
0.0
  0
LINE
  5
178AE
330
178AB
100
AcDbEntity
  8
0
  6
ByBlock
 62
     0
 48
50.0
100
AcDbLine
 10
5956.673057123638
 20
6608.0666537797
 30
0.0
 11
3112.673057123657
 21
6608.0666537797
 31
0.0
  0
INSERT
  5
178AF
330
178AB
100
AcDbEntity
  8
0
  6
ByBlock
 62
     0
 48
50.0
100
AcDbBlockReference
  2
_DOTSMALL
 10
5956.673057123638
 20
6608.0666537797
 30
0.0
 41
100.0
 42
100.0
 43
100.0
  0
INSERT
  5
178B0
330
178AB
100
AcDbEntity
  8
0
  6
ByBlock
 62
     0
 48
50.0
100
AcDbBlockReference
  2
_DOTSMALL
 10
3112.673057123657
 20
6608.0666537797
 30
0.0
 41
100.0
 42
100.0
 43
100.0
 50
180.0
  0
MTEXT
  5
178B1
330
178AB
100
AcDbEntity
  8
0
  6
ByBlock
 62
     7
 48
50.0
100
AcDbMText
 10
4534.673057123647
 20
6708.078464803323
 30
0.0
 40
120.0
 41
0.0
 71
     5
 72
     1
  1
\A1;有効開口部間口 2844
  7
STYLE1
 73
     1
 44
1.0
1001
ACAD
1000
MTEXTBEGIN
1070
    73
1070
     1
1070
    44
1040
1.0
1070
    74
1070
     0
1000
MTEXTEND
  0
POINT
  5
178B2
330
178AB
100
AcDbEntity
  8
DEFPOINTS
  6
ByBlock
 62
     0
 48
50.0
100
AcDbPoint
 10
5956.673057123638
 20
7168.497424545865
 30
0.0
  0
POINT
  5
178B3
330
178AB
100
AcDbEntity
  8
DEFPOINTS
  6
ByBlock
 62
     0
 48
50.0
100
AcDbPoint
 10
3112.673057123657
 20
7168.497424545865
 30
0.0
  0
POINT
  5
178B4
330
178AB
100
AcDbEntity
  8
DEFPOINTS
  6
ByBlock
 62
     0
 48
50.0
100
AcDbPoint
 10
3112.673057123657
 20
6608.0666537797
 30
0.0
  0
ENDBLK
  5
178B5
330
178AB
100
AcDbEntity
  8
0
 48
50.0
100
AcDbBlockEnd
  0
BLOCK
  5
178B7
330
178B6
100
AcDbEntity
  8
0
 48
50.0
100
AcDbBlockBegin
  2
*D22
 70
     1
 10
0.0
 20
0.0
 30
0.0
  3
*D22
  1

  0
LINE
  5
178B8
330
178B6
100
AcDbEntity
  8
0
  6
ByBlock
 62
     0
 48
50.0
100
AcDbLine
 10
6114.673057123653
 20
7122.497424545866
 30
0.0
 11
6114.673057123653
 21
6548.066653779702
 31
0.0
  0
LINE
  5
178B9
330
178B6
100
AcDbEntity
  8
0
  6
ByBlock
 62
     0
 48
50.0
100
AcDbLine
 10
6004.67305712364
 20
7122.497424545952
 30
0.0
 11
6004.67305712364
 21
6548.066653779702
 31
0.0
  0
LINE
  5
178BA
330
178B6
100
AcDbEntity
  8
0
  6
ByBlock
 62
     0
 48
50.0
100
AcDbLine
 10
6114.673057123653
 20
6608.066653779701
 30
0.0
 11
6004.67305712364
 21
6608.066653779701
 31
0.0
  0
MTEXT
  5
178BB
330
178B6
100
AcDbEntity
  8
0
  6
ByBlock
 62
     7
 48
50.0
100
AcDbMText
 10
6059.673057123647
 20
6456.37475874347
 30
0.0
 40
120.0
 41
0.0
 71
     5
 72
     1
  1
\A1;110
  7
STYLE1
 73
     1
 44
1.0
1001
ACAD
1000
MTEXTBEGIN
1070
    73
1070
     1
1070
    44
1040
1.0
1070
    74
1070
     0
1000
MTEXTEND
  0
INSERT
  5
178BC
330
178B6
100
AcDbEntity
  8
0
  6
ByBlock
 62
     0
 48
50.0
100
AcDbBlockReference
  2
_DOTSMALL
 10
6114.673057123653
 20
6608.066653779701
 30
0.0
 41
100.0
 42
100.0
 43
100.0
  0
INSERT
  5
178BD
330
178B6
100
AcDbEntity
  8
0
  6
ByBlock
 62
     0
 48
50.0
100
AcDbBlockReference
  2
_DOTSMALL
 10
6004.67305712364
 20
6608.066653779701
 30
0.0
 41
100.0
 42
100.0
 43
100.0
 50
180.0
  0
POINT
  5
178BE
330
178B6
100
AcDbEntity
  8
DEFPOINTS
  6
ByBlock
 62
     0
 48
50.0
100
AcDbPoint
 10
6114.673057123653
 20
7142.497424545865
 30
0.0
  0
POINT
  5
178BF
330
178B6
100
AcDbEntity
  8
DEFPOINTS
  6
ByBlock
 62
     0
 48
50.0
100
AcDbPoint
 10
6004.67305712364
 20
7142.497424545952
 30
0.0
  0
POINT
  5
178C0
330
178B6
100
AcDbEntity
  8
DEFPOINTS
  6
ByBlock
 62
     0
 48
50.0
100
AcDbPoint
 10
6004.67305712364
 20
6608.066653779701
 30
0.0
  0
ENDBLK
  5
178C1
330
178B6
100
AcDbEntity
  8
0
 48
50.0
100
AcDbBlockEnd
  0
BLOCK
  5
178DD
330
178DC
100
AcDbEntity
  8
0
 48
50.0
100
AcDbBlockBegin
  2
*D23
 70
     1
 10
0.0
 20
0.0
 30
0.0
  3
*D23
  1

  0
LINE
  5
178DE
330
178DC
100
AcDbEntity
  8
0
  6
ByBlock
 62
     0
 48
50.0
100
AcDbLine
 10
3064.673057123663
 20
10212.49742454587
 30
0.0
 11
3064.673057123663
 21
10468.30564417096
 31
0.0
  0
LINE
  5
178DF
330
178DC
100
AcDbEntity
  8
0
  6
ByBlock
 62
     0
 48
50.0
100
AcDbLine
 10
6004.673057123664
 20
10212.49742454596
 30
0.0
 11
6004.673057123664
 21
10468.30564417096
 31
0.0
  0
LINE
  5
178E0
330
178DC
100
AcDbEntity
  8
0
  6
ByBlock
 62
     0
 48
50.0
100
AcDbLine
 10
3064.673057123663
 20
10408.30564417096
 30
0.0
 11
6004.673057123664
 21
10408.30564417096
 31
0.0
  0
INSERT
  5
178E1
330
178DC
100
AcDbEntity
  8
0
  6
ByBlock
 62
     0
 48
50.0
100
AcDbBlockReference
  2
_DOTSMALL
 10
3064.673057123663
 20
10408.30564417096
 30
0.0
 41
100.0
 42
100.0
 43
100.0
 50
180.0
  0
INSERT
  5
178E2
330
178DC
100
AcDbEntity
  8
0
  6
ByBlock
 62
     0
 48
50.0
100
AcDbBlockReference
  2
_DOTSMALL
 10
6004.673057123664
 20
10408.30564417096
 30
0.0
 41
100.0
 42
100.0
 43
100.0
  0
MTEXT
  5
178E3
330
178DC
100
AcDbEntity
  8
0
  6
ByBlock
 62
     7
 48
50.0
100
AcDbMText
 10
4534.673057123664
 20
10508.31745519459
 30
0.0
 40
120.0
 41
0.0
 71
     5
 72
     1
  1
\A1;7X420=2940
  7
STYLE1
 73
     1
 44
1.0
1001
ACAD
1000
MTEXTBEGIN
1070
    73
1070
     1
1070
    44
1040
1.0
1070
    74
1070
     0
1000
MTEXTEND
  0
POINT
  5
178E4
330
178DC
100
AcDbEntity
  8
DEFPOINTS
  6
ByBlock
 62
     0
 48
50.0
100
AcDbPoint
 10
3064.673057123663
 20
10192.49742454587
 30
0.0
  0
POINT
  5
178E5
330
178DC
100
AcDbEntity
  8
DEFPOINTS
  6
ByBlock
 62
     0
 48
50.0
100
AcDbPoint
 10
6004.673057123664
 20
10192.49742454596
 30
0.0
  0
POINT
  5
178E6
330
178DC
100
AcDbEntity
  8
DEFPOINTS
  6
ByBlock
 62
     0
 48
50.0
100
AcDbPoint
 10
6004.673057123664
 20
10408.30564417096
 30
0.0
  0
ENDBLK
  5
178E7
330
178DC
100
AcDbEntity
  8
0
 48
50.0
100
AcDbBlockEnd
  0
BLOCK
  5
178E9
330
178E8
100
AcDbEntity
  8
0
 48
50.0
100
AcDbBlockBegin
  2
*D24
 70
     1
 10
0.0
 20
0.0
 30
0.0
  3
*D24
  1

  0
LINE
  5
178EA
330
178E8
100
AcDbEntity
  8
0
  6
ByBlock
 62
     0
 48
50.0
100
AcDbLine
 10
6114.673057123663
 20
10212.49742454592
 30
0.0
 11
6114.673057123663
 21
10468.30564417096
 31
0.0
  0
LINE
  5
178EB
330
178E8
100
AcDbEntity
  8
0
  6
ByBlock
 62
     0
 48
50.0
100
AcDbLine
 10
6004.673057123664
 20
10212.49742454591
 30
0.0
 11
6004.673057123664
 21
10468.30564417096
 31
0.0
  0
LINE
  5
178EC
330
178E8
100
AcDbEntity
  8
0
  6
ByBlock
 62
     0
 48
50.0
100
AcDbLine
 10
6114.673057123663
 20
10408.30564417096
 30
0.0
 11
6214.673057123663
 21
10408.30564417096
 31
0.0
  0
LINE
  5
178ED
330
178E8
100
AcDbEntity
  8
0
  6
ByBlock
 62
     0
 48
50.0
100
AcDbLine
 10
6004.673057123664
 20
10408.30564417096
 30
0.0
 11
5904.673057123664
 21
10408.30564417096
 31
0.0
  0
LINE
  5
178EE
330
178E8
100
AcDbEntity
  8
0
  6
ByBlock
 62
     0
 48
50.0
100
AcDbLine
 10
6114.673057123663
 20
10408.30564417096
 30
0.0
 11
6004.673057123664
 21
10408.30564417096
 31
0.0
  0
INSERT
  5
178EF
330
178E8
100
AcDbEntity
  8
0
  6
ByBlock
 62
     0
 48
50.0
100
AcDbBlockReference
  2
_DOTSMALL
 10
6114.673057123663
 20
10408.30564417096
 30
0.0
 41
100.0
 42
100.0
 43
100.0
 50
180.0
  0
INSERT
  5
178F0
330
178E8
100
AcDbEntity
  8
0
  6
ByBlock
 62
     0
 48
50.0
100
AcDbBlockReference
  2
_DOTSMALL
 10
6004.673057123664
 20
10408.30564417096
 30
0.0
 41
100.0
 42
100.0
 43
100.0
  0
MTEXT
  5
178F1
330
178E8
100
AcDbEntity
  8
0
  6
ByBlock
 62
     7
 48
50.0
100
AcDbMText
 10
6059.673057123664
 20
10508.30564417096
 30
0.0
 40
120.0
 41
0.0
 71
     5
 72
     1
  1
\A1;110
  7
STYLE1
 73
     1
 44
1.0
1001
ACAD
1000
MTEXTBEGIN
1070
    73
1070
     1
1070
    44
1040
1.0
1070
    74
1070
     0
1000
MTEXTEND
  0
POINT
  5
178F2
330
178E8
100
AcDbEntity
  8
DEFPOINTS
  6
ByBlock
 62
     0
 48
50.0
100
AcDbPoint
 10
6114.673057123663
 20
10192.49742454592
 30
0.0
  0
POINT
  5
178F3
330
178E8
100
AcDbEntity
  8
DEFPOINTS
  6
ByBlock
 62
     0
 48
50.0
100
AcDbPoint
 10
6004.673057123664
 20
10192.49742454591
 30
0.0
  0
POINT
  5
178F4
330
178E8
100
AcDbEntity
  8
DEFPOINTS
  6
ByBlock
 62
     0
 48
50.0
100
AcDbPoint
 10
6004.673057123664
 20
10408.30564417096
 30
0.0
  0
ENDBLK
  5
178F5
330
178E8
100
AcDbEntity
  8
0
 48
50.0
100
AcDbBlockEnd
  0
BLOCK
  5
178F7
330
178F6
100
AcDbEntity
  8
0
 48
50.0
100
AcDbBlockBegin
  2
*D25
 70
     1
 10
0.0
 20
0.0
 30
0.0
  3
*D25
  1

  0
LINE
  5
178F8
330
178F6
100
AcDbEntity
  8
0
  6
ByBlock
 62
     0
 48
50.0
100
AcDbLine
 10
3009.673057123629
 20
10212.49742454583
 30
0.0
 11
3009.673057123629
 21
10717.62711772726
 31
0.0
  0
LINE
  5
178F9
330
178F6
100
AcDbEntity
  8
0
  6
ByBlock
 62
     0
 48
50.0
100
AcDbLine
 10
6059.673057123664
 20
10587.29355852891
 30
0.0
 11
6059.673057123664
 21
10717.62711772726
 31
0.0
  0
LINE
  5
178FA
330
178F6
100
AcDbEntity
  8
0
  6
ByBlock
 62
     0
 48
50.0
100
AcDbLine
 10
3009.673057123629
 20
10657.62711772726
 30
0.0
 11
6059.673057123664
 21
10657.62711772726
 31
0.0
  0
INSERT
  5
178FB
330
178F6
100
AcDbEntity
  8
0
  6
ByBlock
 62
     0
 48
50.0
100
AcDbBlockReference
  2
_DOTSMALL
 10
3009.673057123629
 20
10657.62711772726
 30
0.0
 41
100.0
 42
100.0
 43
100.0
 50
180.0
  0
INSERT
  5
178FC
330
178F6
100
AcDbEntity
  8
0
  6
ByBlock
 62
     0
 48
50.0
100
AcDbBlockReference
  2
_DOTSMALL
 10
6059.673057123664
 20
10657.62711772726
 30
0.0
 41
100.0
 42
100.0
 43
100.0
  0
MTEXT
  5
178FD
330
178F6
100
AcDbEntity
  8
0
  6
ByBlock
 62
     7
 48
50.0
100
AcDbMText
 10
4534.673057123645
 20
10757.62711772726
 30
0.0
 40
120.0
 41
0.0
 71
     5
 72
     1
  1
\A1;3050
  7
STYLE1
 73
     1
 44
1.0
1001
ACAD
1000
MTEXTBEGIN
1070
    73
1070
     1
1070
    44
1040
1.0
1070
    74
1070
     0
1000
MTEXTEND
  0
POINT
  5
178FE
330
178F6
100
AcDbEntity
  8
DEFPOINTS
  6
ByBlock
 62
     0
 48
50.0
100
AcDbPoint
 10
3009.673057123629
 20
10192.49742454583
 30
0.0
  0
POINT
  5
178FF
330
178F6
100
AcDbEntity
  8
DEFPOINTS
  6
ByBlock
 62
     0
 48
50.0
100
AcDbPoint
 10
6059.673057123664
 20
10567.29355852891
 30
0.0
  0
POINT
  5
17900
330
178F6
100
AcDbEntity
  8
DEFPOINTS
  6
ByBlock
 62
     0
 48
50.0
100
AcDbPoint
 10
6059.673057123664
 20
10657.62711772726
 30
0.0
  0
ENDBLK
  5
17901
330
178F6
100
AcDbEntity
  8
0
 48
50.0
100
AcDbBlockEnd
  0
BLOCK
  5
1834E
330
18342
100
AcDbEntity
  8
0
 48
50.0
100
AcDbBlockBegin
  2
*D26
 70
     1
 10
0.0
 20
0.0
 30
0.0
  3
*D26
  1

  0
LINE
  5
18750
330
18342
100
AcDbEntity
  8
寸法
 62
     0
 48
50.0
370
    -2
100
AcDbLine
 10
10101.07951157684
 20
4932.931598713264
 30
0.0
 11
10101.07951157684
 21
5185.473183971505
 31
0.0
  0
LINE
  5
18751
330
18342
100
AcDbEntity
  8
寸法
 62
     0
 48
50.0
370
    -2
100
AcDbLine
 10
10051.07951157684
 20
4932.931598713266
 30
0.0
 11
10051.07951157684
 21
5185.473183971505
 31
0.0
  0
LINE
  5
18752
330
18342
100
AcDbEntity
  8
寸法
 62
     0
 48
50.0
370
    -2
100
AcDbLine
 10
10051.07951157684
 20
5125.473183971505
 30
0.0
 11
9951.079511576837
 21
5125.473183971505
 31
0.0
  0
LINE
  5
18753
330
18342
100
AcDbEntity
  8
寸法
 62
     0
 48
50.0
370
    -2
100
AcDbLine
 10
10101.07951157684
 20
5125.473183971505
 30
0.0
 11
10520.61203704556
 21
5125.473183971505
 31
0.0
  0
LINE
  5
18754
330
18342
100
AcDbEntity
  8
寸法
 62
     0
 48
50.0
370
    -2
100
AcDbLine
 10
10051.07951157684
 20
5125.473183971505
 30
0.0
 11
10101.07951157684
 21
5125.473183971505
 31
0.0
  0
INSERT
  5
18755
330
18342
100
AcDbEntity
  8
寸法
 62
     0
 48
50.0
370
    -2
100
AcDbBlockReference
  2
_DOTSMALL
 10
10051.07951157684
 20
5125.473183971505
 30
0.0
 41
100.0
 42
100.0
 43
100.0
  0
INSERT
  5
18756
330
18342
100
AcDbEntity
  8
寸法
 62
     0
 48
50.0
370
    -2
100
AcDbBlockReference
  2
_DOTSMALL
 10
10101.07951157684
 20
5125.473183971505
 30
0.0
 41
100.0
 42
100.0
 43
100.0
 50
180.0
  0
MTEXT
  5
18757
330
18342
100
AcDbEntity
  8
寸法
 62
     7
 48
50.0
100
AcDbMText
 10
10414.56479295107
 20
5225.473183971505
 30
0.0
 40
120.0
 41
0.0
 71
     5
 72
     1
  1
\A1;50
  7
STYLE1
 73
     1
 44
1.0
1001
ACAD
1000
MTEXTBEGIN
1070
    73
1070
     1
1070
    44
1040
1.0
1070
    74
1070
     0
1000
MTEXTEND
  0
POINT
  5
18758
330
18342
100
AcDbEntity
  8
DEFPOINTS
 62
     0
 48
50.0
100
AcDbPoint
 10
10101.07951157684
 20
4912.931598713264
 30
0.0
  0
POINT
  5
18759
330
18342
100
AcDbEntity
  8
DEFPOINTS
 62
     0
 48
50.0
100
AcDbPoint
 10
10051.07951157684
 20
4912.931598713266
 30
0.0
  0
POINT
  5
1875A
330
18342
100
AcDbEntity
  8
DEFPOINTS
 62
     0
 48
50.0
100
AcDbPoint
 10
10051.07951157684
 20
5125.473183971505
 30
0.0
  0
ENDBLK
  5
1834F
330
18342
100
AcDbEntity
  8
0
 48
50.0
100
AcDbBlockEnd
  0
BLOCK
  5
184AC
330
184A2
100
AcDbEntity
  8
0
 48
50.0
100
AcDbBlockBegin
  2
*D27
 70
     1
 10
0.0
 20
0.0
 30
0.0
  3
*D27
  1

  0
LINE
  5
1879F
330
184A2
100
AcDbEntity
  8
寸法
 62
     0
 48
50.0
370
    -2
100
AcDbLine
 10
851.0795115767942
 20
4932.931598713267
 30
0.0
 11
851.0795115767942
 21
5406.378484445255
 31
0.0
  0
LINE
  5
187A0
330
184A2
100
AcDbEntity
  8
寸法
 62
     0
 48
50.0
370
    -2
100
AcDbLine
 10
10101.07951157684
 20
4932.931598713264
 30
0.0
 11
10101.07951157684
 21
5406.378484445255
 31
0.0
  0
LINE
  5
187A1
330
184A2
100
AcDbEntity
  8
寸法
 62
     0
 48
50.0
370
    -2
100
AcDbLine
 10
851.0795115767942
 20
5346.378484445256
 30
0.0
 11
10101.07951157684
 21
5346.378484445256
 31
0.0
  0
INSERT
  5
187A2
330
184A2
100
AcDbEntity
  8
寸法
 62
     0
 48
50.0
370
    -2
100
AcDbBlockReference
  2
_DOTSMALL
 10
851.0795115767942
 20
5346.378484445256
 30
0.0
 41
100.0
 42
100.0
 43
100.0
 50
180.0
  0
INSERT
  5
187A3
330
184A2
100
AcDbEntity
  8
寸法
 62
     0
 48
50.0
370
    -2
100
AcDbBlockReference
  2
_DOTSMALL
 10
10101.07951157684
 20
5346.378484445256
 30
0.0
 41
100.0
 42
100.0
 43
100.0
  0
MTEXT
  5
187A4
330
184A2
100
AcDbEntity
  8
寸法
 62
     7
 48
50.0
100
AcDbMText
 10
5476.079511576816
 20
5446.378484445256
 30
0.0
 40
120.0
 41
0.0
 71
     5
 72
     1
  1
\A1;N X 3050+100
  7
STYLE1
 73
     1
 44
1.0
1001
ACAD
1000
MTEXTBEGIN
1070
    73
1070
     1
1070
    44
1040
1.0
1070
    74
1070
     0
1000
MTEXTEND
  0
POINT
  5
187A5
330
184A2
100
AcDbEntity
  8
DEFPOINTS
 62
     0
 48
50.0
100
AcDbPoint
 10
851.0795115767942
 20
4912.931598713267
 30
0.0
  0
POINT
  5
187A6
330
184A2
100
AcDbEntity
  8
DEFPOINTS
 62
     0
 48
50.0
100
AcDbPoint
 10
10101.07951157684
 20
4912.931598713264
 30
0.0
  0
POINT
  5
187A7
330
184A2
100
AcDbEntity
  8
DEFPOINTS
 62
     0
 48
50.0
100
AcDbPoint
 10
10101.07951157684
 20
5346.378484445256
 30
0.0
  0
ENDBLK
  5
184AD
330
184A2
100
AcDbEntity
  8
0
 48
50.0
100
AcDbBlockEnd
  0
BLOCK
  5
184B8
330
184AE
100
AcDbEntity
  8
0
 48
50.0
100
AcDbBlockBegin
  2
*D28
 70
     1
 10
0.0
 20
0.0
 30
0.0
  3
*D28
  1

  0
LINE
  5
18796
330
184AE
100
AcDbEntity
  8
寸法
 62
     0
 48
50.0
370
    -2
100
AcDbLine
 10
10051.07951157679
 20
4945.852924535788
 30
0.0
 11
10051.07951157679
 21
5185.473183971506
 31
0.0
  0
LINE
  5
18797
330
184AE
100
AcDbEntity
  8
寸法
 62
     0
 48
50.0
370
    -2
100
AcDbLine
 10
901.0795115767942
 20
4945.852924544254
 30
0.0
 11
901.0795115767942
 21
5185.473183971506
 31
0.0
  0
LINE
  5
18798
330
184AE
100
AcDbEntity
  8
寸法
 62
     0
 48
50.0
370
    -2
100
AcDbLine
 10
10051.07951157679
 20
5125.473183971506
 30
0.0
 11
901.0795115767942
 21
5125.473183971506
 31
0.0
  0
INSERT
  5
18799
330
184AE
100
AcDbEntity
  8
寸法
 62
     0
 48
50.0
370
    -2
100
AcDbBlockReference
  2
_DOTSMALL
 10
10051.07951157679
 20
5125.473183971506
 30
0.0
 41
100.0
 42
100.0
 43
100.0
  0
INSERT
  5
1879A
330
184AE
100
AcDbEntity
  8
寸法
 62
     0
 48
50.0
370
    -2
100
AcDbBlockReference
  2
_DOTSMALL
 10
901.0795115767942
 20
5125.473183971506
 30
0.0
 41
100.0
 42
100.0
 43
100.0
 50
180.0
  0
MTEXT
  5
1879B
330
184AE
100
AcDbEntity
  8
寸法
 62
     7
 48
50.0
100
AcDbMText
 10
5476.079511576794
 20
5225.473183971506
 30
0.0
 40
120.0
 41
0.0
 71
     5
 72
     1
  1
\A1;柱外寸法 N X 3050
  7
STYLE1
 73
     1
 44
1.0
1001
ACAD
1000
MTEXTBEGIN
1070
    73
1070
     1
1070
    44
1040
1.0
1070
    74
1070
     0
1000
MTEXTEND
  0
POINT
  5
1879C
330
184AE
100
AcDbEntity
  8
DEFPOINTS
 62
     0
 48
50.0
100
AcDbPoint
 10
10051.07951157679
 20
4925.852924535788
 30
0.0
  0
POINT
  5
1879D
330
184AE
100
AcDbEntity
  8
DEFPOINTS
 62
     0
 48
50.0
100
AcDbPoint
 10
901.0795115767942
 20
4925.852924544255
 30
0.0
  0
POINT
  5
1879E
330
184AE
100
AcDbEntity
  8
DEFPOINTS
 62
     0
 48
50.0
100
AcDbPoint
 10
901.0795115767942
 20
5125.473183971506
 30
0.0
  0
ENDBLK
  5
184B9
330
184AE
100
AcDbEntity
  8
0
 48
50.0
100
AcDbBlockEnd
  0
BLOCK
  5
184D2
330
184C6
100
AcDbEntity
  8
0
 48
50.0
100
AcDbBlockBegin
  2
*D29
 70
     1
 10
0.0
 20
0.0
 30
0.0
  3
*D29
  1

  0
LINE
  5
18782
330
184C6
100
AcDbEntity
  8
寸法
 62
     0
 48
50.0
370
    -2
100
AcDbLine
 10
901.0795115767942
 20
4932.931598713269
 30
0.0
 11
901.0795115767942
 21
5185.473183971506
 31
0.0
  0
LINE
  5
18783
330
184C6
100
AcDbEntity
  8
寸法
 62
     0
 48
50.0
370
    -2
100
AcDbLine
 10
851.0795115767942
 20
4932.931598713267
 30
0.0
 11
851.0795115767942
 21
5185.473183971506
 31
0.0
  0
LINE
  5
18784
330
184C6
100
AcDbEntity
  8
寸法
 62
     0
 48
50.0
370
    -2
100
AcDbLine
 10
901.0795115767942
 20
5125.473183971506
 30
0.0
 11
1001.079511576794
 21
5125.473183971506
 31
0.0
  0
LINE
  5
18785
330
184C6
100
AcDbEntity
  8
寸法
 62
     0
 48
50.0
370
    -2
100
AcDbLine
 10
851.0795115767942
 20
5125.473183971506
 30
0.0
 11
431.5469861080587
 21
5125.473183971506
 31
0.0
  0
LINE
  5
18786
330
184C6
100
AcDbEntity
  8
寸法
 62
     0
 48
50.0
370
    -2
100
AcDbLine
 10
901.0795115767942
 20
5125.473183971506
 30
0.0
 11
851.0795115767942
 21
5125.473183971506
 31
0.0
  0
INSERT
  5
18787
330
184C6
100
AcDbEntity
  8
寸法
 62
     0
 48
50.0
370
    -2
100
AcDbBlockReference
  2
_DOTSMALL
 10
901.0795115767942
 20
5125.473183971506
 30
0.0
 41
100.0
 42
100.0
 43
100.0
 50
180.0
  0
INSERT
  5
18788
330
184C6
100
AcDbEntity
  8
寸法
 62
     0
 48
50.0
370
    -2
100
AcDbBlockReference
  2
_DOTSMALL
 10
851.0795115767942
 20
5125.473183971506
 30
0.0
 41
100.0
 42
100.0
 43
100.0
  0
MTEXT
  5
18789
330
184C6
100
AcDbEntity
  8
寸法
 62
     7
 48
50.0
100
AcDbMText
 10
537.5942302025468
 20
5225.473183971506
 30
0.0
 40
120.0
 41
0.0
 71
     5
 72
     1
  1
\A1;50
  7
STYLE1
 73
     1
 44
1.0
1001
ACAD
1000
MTEXTBEGIN
1070
    73
1070
     1
1070
    44
1040
1.0
1070
    74
1070
     0
1000
MTEXTEND
  0
POINT
  5
1878A
330
184C6
100
AcDbEntity
  8
DEFPOINTS
 62
     0
 48
50.0
100
AcDbPoint
 10
901.0795115767942
 20
4912.931598713268
 30
0.0
  0
POINT
  5
1878B
330
184C6
100
AcDbEntity
  8
DEFPOINTS
 62
     0
 48
50.0
100
AcDbPoint
 10
851.0795115767942
 20
4912.931598713267
 30
0.0
  0
POINT
  5
1878C
330
184C6
100
AcDbEntity
  8
DEFPOINTS
 62
     0
 48
50.0
100
AcDbPoint
 10
851.0795115767942
 20
5125.473183971506
 30
0.0
  0
ENDBLK
  5
184D3
330
184C6
100
AcDbEntity
  8
0
 48
50.0
100
AcDbBlockEnd
  0
BLOCK
  5
18C8A
330
18C7F
100
AcDbEntity
  8
0
 48
50.0
100
AcDbBlockBegin
  2
*D30
 70
     1
 10
0.0
 20
0.0
 30
0.0
  3
*D30
  1

  0
LINE
  5
19023
330
18C7F
100
AcDbEntity
  8
寸法
 62
     0
 48
50.0
370
    -2
100
AcDbLine
 10
12271.61845798246
 20
4912.229305782924
 30
0.0
 11
11655.68401887717
 21
4929.943456057253
 31
0.0
  0
LINE
  5
19024
330
18C7F
100
AcDbEntity
  8
寸法
 62
     0
 48
50.0
370
    -2
100
AcDbLine
 10
12267.56500242583
 20
4771.28758201721
 30
0.0
 11
11651.63056332054
 21
4789.001732291541
 31
0.0
  0
LINE
  5
19025
330
18C7F
100
AcDbEntity
  8
寸法
 62
     0
 48
50.0
370
    -2
100
AcDbLine
 10
11711.60576492298
 20
4787.276857586593
 30
0.0
 11
11715.6592204796
 21
4928.218581352306
 31
0.0
  0
LINE
  5
19026
330
18C7F
100
AcDbEntity
  8
寸法
 62
     0
 48
50.0
370
    -2
100
AcDbLine
 10
11715.6592204796
 20
4928.218581352306
 30
0.0
 11
11726.00846870929
 21
5288.069790966892
 31
0.0
  0
INSERT
  5
19027
330
18C7F
100
AcDbEntity
  8
寸法
 62
     0
 48
50.0
370
    -2
100
AcDbBlockReference
  2
_DOTSMALL
 10
11711.60576492298
 20
4787.276857586593
 30
0.0
 41
100.0
 42
100.0
 43
100.0
 50
268.3526390256378
  0
INSERT
  5
19028
330
18C7F
100
AcDbEntity
  8
寸法
 62
     0
 48
50.0
370
    -2
100
AcDbBlockReference
  2
_DOTSMALL
 10
11715.6592204796
 20
4928.218581352306
 30
0.0
 41
100.0
 42
100.0
 43
100.0
 50
88.35263902563776
  0
MTEXT
  5
19029
330
18C7F
100
AcDbEntity
  8
寸法
 62
     7
 48
50.0
100
AcDbMText
 10
11622.31257084452
 20
5160.998312003204
 30
0.0
 40
120.0
 41
0.0
 71
     5
 72
     1
  1
\A1;141
  7
STYLE1
 11
0.0287479117491237
 21
0.9995866933738488
 31
0.0
 73
     1
 44
1.0
1001
ACAD
1000
MTEXTBEGIN
1070
    73
1070
     1
1070
    44
1040
1.0
1070
    74
1070
     0
1000
MTEXTEND
  0
POINT
  5
1902A
330
18C7F
100
AcDbEntity
  8
DEFPOINTS
 62
     0
 48
50.0
100
AcDbPoint
 10
12291.61019184993
 20
4911.654347547941
 30
0.0
  0
POINT
  5
1902B
330
18C7F
100
AcDbEntity
  8
DEFPOINTS
 62
     0
 48
50.0
100
AcDbPoint
 10
12287.55673629331
 20
4770.712623782228
 30
0.0
  0
POINT
  5
1902C
330
18C7F
100
AcDbEntity
  8
DEFPOINTS
 62
     0
 48
50.0
100
AcDbPoint
 10
11711.60576492298
 20
4787.276857586593
 30
0.0
  0
ENDBLK
  5
18C8B
330
18C7F
100
AcDbEntity
  8
0
 48
50.0
100
AcDbBlockEnd
  0
BLOCK
  5
18C97
330
18C8C
100
AcDbEntity
  8
0
 48
50.0
100
AcDbBlockBegin
  2
*D31
 70
     1
 10
0.0
 20
0.0
 30
0.0
  3
*D31
  1

  0
LINE
  5
19019
330
18C8C
100
AcDbEntity
  8
寸法
 62
     0
 48
50.0
370
    -2
100
AcDbLine
 10
15382.21417169135
 20
4879.742278324917
 30
0.0
 11
15382.21417169135
 21
5371.589052292567
 31
0.0
  0
LINE
  5
1901A
330
18C8C
100
AcDbEntity
  8
寸法
 62
     0
 48
50.0
370
    -2
100
AcDbLine
 10
15462.21417169135
 20
4877.931598713264
 30
0.0
 11
15462.21417169135
 21
5371.589052292567
 31
0.0
  0
LINE
  5
1901B
330
18C8C
100
AcDbEntity
  8
寸法
 62
     0
 48
50.0
370
    -2
100
AcDbLine
 10
15382.21417169135
 20
5311.589052292568
 30
0.0
 11
15462.21417169135
 21
5311.589052292568
 31
0.0
  0
LINE
  5
1901C
330
18C8C
100
AcDbEntity
  8
寸法
 62
     0
 48
50.0
370
    -2
100
AcDbLine
 10
15462.21417169135
 20
5311.589052292568
 30
0.0
 11
15774.30865988034
 21
5311.589052292568
 31
0.0
  0
INSERT
  5
1901D
330
18C8C
100
AcDbEntity
  8
寸法
 62
     0
 48
50.0
370
    -2
100
AcDbBlockReference
  2
_DOTSMALL
 10
15382.21417169135
 20
5311.589052292568
 30
0.0
 41
100.0
 42
100.0
 43
100.0
 50
180.0
  0
INSERT
  5
1901E
330
18C8C
100
AcDbEntity
  8
寸法
 62
     0
 48
50.0
370
    -2
100
AcDbBlockReference
  2
_DOTSMALL
 10
15462.21417169135
 20
5311.589052292568
 30
0.0
 41
100.0
 42
100.0
 43
100.0
  0
MTEXT
  5
1901F
330
18C8C
100
AcDbEntity
  8
寸法
 62
     7
 48
50.0
100
AcDbMText
 10
15668.26141578585
 20
5411.589052292567
 30
0.0
 40
120.0
 41
0.0
 71
     5
 72
     1
  1
\A1;80
  7
STYLE1
 73
     1
 44
1.0
1001
ACAD
1000
MTEXTBEGIN
1070
    73
1070
     1
1070
    44
1040
1.0
1070
    74
1070
     0
1000
MTEXTEND
  0
POINT
  5
19020
330
18C8C
100
AcDbEntity
  8
DEFPOINTS
 62
     0
 48
50.0
100
AcDbPoint
 10
15382.21417169135
 20
4859.742278324916
 30
0.0
  0
POINT
  5
19021
330
18C8C
100
AcDbEntity
  8
DEFPOINTS
 62
     0
 48
50.0
100
AcDbPoint
 10
15462.21417169135
 20
4857.931598713265
 30
0.0
  0
POINT
  5
19022
330
18C8C
100
AcDbEntity
  8
DEFPOINTS
 62
     0
 48
50.0
100
AcDbPoint
 10
15462.21417169135
 20
5311.589052292568
 30
0.0
  0
ENDBLK
  5
18C98
330
18C8C
100
AcDbEntity
  8
0
 48
50.0
100
AcDbBlockEnd
  0
BLOCK
  5
18CA3
330
18C99
100
AcDbEntity
  8
0
 48
50.0
100
AcDbBlockBegin
  2
*D32
 70
     1
 10
0.0
 20
0.0
 30
0.0
  3
*D32
  1

  0
LINE
  5
196E1
330
18C99
100
AcDbEntity
  8
寸法
 62
     0
 48
50.0
370
    -2
100
AcDbLine
 10
15462.21417169135
 20
4877.931598713264
 30
0.0
 11
15462.21417169135
 21
5601.702645078844
 31
0.0
  0
LINE
  5
196E2
330
18C99
100
AcDbEntity
  8
寸法
 62
     0
 48
50.0
370
    -2
100
AcDbLine
 10
12272.21417169136
 20
4932.931598713266
 30
0.0
 11
12272.21417169136
 21
5601.702645078844
 31
0.0
  0
LINE
  5
196E3
330
18C99
100
AcDbEntity
  8
寸法
 62
     0
 48
50.0
370
    -2
100
AcDbLine
 10
15462.21417169135
 20
5541.702645078843
 30
0.0
 11
12272.21417169136
 21
5541.702645078843
 31
0.0
  0
INSERT
  5
196E4
330
18C99
100
AcDbEntity
  8
寸法
 62
     0
 48
50.0
370
    -2
100
AcDbBlockReference
  2
_DOTSMALL
 10
15462.21417169135
 20
5541.702645078843
 30
0.0
 41
100.0
 42
100.0
 43
100.0
  0
INSERT
  5
196E5
330
18C99
100
AcDbEntity
  8
寸法
 62
     0
 48
50.0
370
    -2
100
AcDbBlockReference
  2
_DOTSMALL
 10
12272.21417169136
 20
5541.702645078843
 30
0.0
 41
100.0
 42
100.0
 43
100.0
 50
180.0
  0
MTEXT
  5
196E6
330
18C99
100
AcDbEntity
  8
寸法
 62
     7
 48
50.0
100
AcDbMText
 10
13867.21417169136
 20
5641.702645078844
 30
0.0
 40
120.0
 41
0.0
 71
     5
 72
     1
  1
\A1;3190
  7
STYLE1
 73
     1
 44
1.0
1001
ACAD
1000
MTEXTBEGIN
1070
    73
1070
     1
1070
    44
1040
1.0
1070
    74
1070
     0
1000
MTEXTEND
  0
POINT
  5
196E7
330
18C99
100
AcDbEntity
  8
DEFPOINTS
 62
     0
 48
50.0
100
AcDbPoint
 10
15462.21417169135
 20
4857.931598713263
 30
0.0
  0
POINT
  5
196E8
330
18C99
100
AcDbEntity
  8
DEFPOINTS
 62
     0
 48
50.0
100
AcDbPoint
 10
12272.21417169136
 20
4912.931598713266
 30
0.0
  0
POINT
  5
196E9
330
18C99
100
AcDbEntity
  8
DEFPOINTS
 62
     0
 48
50.0
100
AcDbPoint
 10
12272.21417169136
 20
5541.702645078843
 30
0.0
  0
ENDBLK
  5
18CA4
330
18C99
100
AcDbEntity
  8
0
 48
50.0
100
AcDbBlockEnd
  0
BLOCK
  5
18CB1
330
18CA5
100
AcDbEntity
  8
0
 48
50.0
100
AcDbBlockBegin
  2
*D33
 70
     1
 10
0.0
 20
0.0
 30
0.0
  3
*D33
  1

  0
LINE
  5
19005
330
18CA5
100
AcDbEntity
  8
寸法
 62
     0
 48
50.0
370
    -2
100
AcDbLine
 10
12332.21417169136
 20
4928.933216836238
 30
0.0
 11
12332.21417169136
 21
5371.589052292566
 31
0.0
  0
LINE
  5
19006
330
18CA5
100
AcDbEntity
  8
寸法
 62
     0
 48
50.0
370
    -2
100
AcDbLine
 10
12272.21417169136
 20
4932.931598713266
 30
0.0
 11
12272.21417169136
 21
5371.589052292566
 31
0.0
  0
LINE
  5
19007
330
18CA5
100
AcDbEntity
  8
寸法
 62
     0
 48
50.0
370
    -2
100
AcDbLine
 10
12332.21417169136
 20
5311.589052292566
 30
0.0
 11
12432.21417169136
 21
5311.589052292566
 31
0.0
  0
LINE
  5
19008
330
18CA5
100
AcDbEntity
  8
寸法
 62
     0
 48
50.0
370
    -2
100
AcDbLine
 10
12272.21417169136
 20
5311.589052292566
 30
0.0
 11
11852.93858114017
 21
5311.589052292566
 31
0.0
  0
LINE
  5
19009
330
18CA5
100
AcDbEntity
  8
寸法
 62
     0
 48
50.0
370
    -2
100
AcDbLine
 10
12332.21417169136
 20
5311.589052292566
 30
0.0
 11
12272.21417169136
 21
5311.589052292566
 31
0.0
  0
INSERT
  5
1900A
330
18CA5
100
AcDbEntity
  8
寸法
 62
     0
 48
50.0
370
    -2
100
AcDbBlockReference
  2
_DOTSMALL
 10
12332.21417169136
 20
5311.589052292566
 30
0.0
 41
100.0
 42
100.0
 43
100.0
 50
180.0
  0
INSERT
  5
1900B
330
18CA5
100
AcDbEntity
  8
寸法
 62
     0
 48
50.0
370
    -2
100
AcDbBlockReference
  2
_DOTSMALL
 10
12272.21417169136
 20
5311.589052292566
 30
0.0
 41
100.0
 42
100.0
 43
100.0
  0
MTEXT
  5
1900C
330
18CA5
100
AcDbEntity
  8
寸法
 62
     7
 48
50.0
100
AcDbMText
 10
11962.57637641576
 20
5411.589052292566
 30
0.0
 40
120.0
 41
0.0
 71
     5
 72
     1
  1
\A1;60
  7
STYLE1
 73
     1
 44
1.0
1001
ACAD
1000
MTEXTBEGIN
1070
    73
1070
     1
1070
    44
1040
1.0
1070
    74
1070
     0
1000
MTEXTEND
  0
POINT
  5
1900D
330
18CA5
100
AcDbEntity
  8
DEFPOINTS
 62
     0
 48
50.0
100
AcDbPoint
 10
12332.21417169136
 20
4908.933216836238
 30
0.0
  0
POINT
  5
1900E
330
18CA5
100
AcDbEntity
  8
DEFPOINTS
 62
     0
 48
50.0
100
AcDbPoint
 10
12272.21417169136
 20
4912.931598713266
 30
0.0
  0
POINT
  5
1900F
330
18CA5
100
AcDbEntity
  8
DEFPOINTS
 62
     0
 48
50.0
100
AcDbPoint
 10
12272.21417169136
 20
5311.589052292566
 30
0.0
  0
ENDBLK
  5
18CB2
330
18CA5
100
AcDbEntity
  8
0
 48
50.0
100
AcDbBlockEnd
  0
BLOCK
  5
18CBD
330
18CB3
100
AcDbEntity
  8
0
 48
50.0
100
AcDbBlockBegin
  2
*D34
 70
     1
 10
0.0
 20
0.0
 30
0.0
  3
*D34
  1

  0
LINE
  5
196EA
330
18CB3
100
AcDbEntity
  8
寸法
 62
     0
 48
50.0
370
    -2
100
AcDbLine
 10
15382.21417169135
 20
4879.742278324917
 30
0.0
 11
15382.21417169135
 21
5371.589052292567
 31
0.0
  0
LINE
  5
196EB
330
18CB3
100
AcDbEntity
  8
寸法
 62
     0
 48
50.0
370
    -2
100
AcDbLine
 10
12332.21417169136
 20
4928.933216836238
 30
0.0
 11
12332.21417169136
 21
5371.589052292567
 31
0.0
  0
LINE
  5
196EC
330
18CB3
100
AcDbEntity
  8
寸法
 62
     0
 48
50.0
370
    -2
100
AcDbLine
 10
15382.21417169135
 20
5311.589052292568
 30
0.0
 11
12332.21417169136
 21
5311.589052292568
 31
0.0
  0
INSERT
  5
196ED
330
18CB3
100
AcDbEntity
  8
寸法
 62
     0
 48
50.0
370
    -2
100
AcDbBlockReference
  2
_DOTSMALL
 10
15382.21417169135
 20
5311.589052292568
 30
0.0
 41
100.0
 42
100.0
 43
100.0
  0
INSERT
  5
196EE
330
18CB3
100
AcDbEntity
  8
寸法
 62
     0
 48
50.0
370
    -2
100
AcDbBlockReference
  2
_DOTSMALL
 10
12332.21417169136
 20
5311.589052292568
 30
0.0
 41
100.0
 42
100.0
 43
100.0
 50
180.0
  0
MTEXT
  5
196EF
330
18CB3
100
AcDbEntity
  8
寸法
 62
     7
 48
50.0
100
AcDbMText
 10
13857.21417169136
 20
5411.589052292567
 30
0.0
 40
120.0
 41
0.0
 71
     5
 72
     1
  1
\A1;柱外寸法3050
  7
STYLE1
 73
     1
 44
1.0
1001
ACAD
1000
MTEXTBEGIN
1070
    73
1070
     1
1070
    44
1040
1.0
1070
    74
1070
     0
1000
MTEXTEND
  0
POINT
  5
196F0
330
18CB3
100
AcDbEntity
  8
DEFPOINTS
 62
     0
 48
50.0
100
AcDbPoint
 10
15382.21417169135
 20
4859.742278324916
 30
0.0
  0
POINT
  5
196F1
330
18CB3
100
AcDbEntity
  8
DEFPOINTS
 62
     0
 48
50.0
100
AcDbPoint
 10
12332.21417169136
 20
4908.933216836238
 30
0.0
  0
POINT
  5
196F2
330
18CB3
100
AcDbEntity
  8
DEFPOINTS
 62
     0
 48
50.0
100
AcDbPoint
 10
12332.21417169136
 20
5311.589052292568
 30
0.0
  0
ENDBLK
  5
18CBE
330
18CB3
100
AcDbEntity
  8
0
 48
50.0
100
AcDbBlockEnd
  0
BLOCK
  5
18CCB
330
18CBF
100
AcDbEntity
  8
0
 48
50.0
100
AcDbBlockBegin
  2
*D35
 70
     1
 10
0.0
 20
0.0
 30
0.0
  3
*D35
  1

  0
LINE
  5
18FF1
330
18CBF
100
AcDbEntity
  8
寸法
 62
     0
 48
50.0
370
    -2
100
AcDbLine
 10
12312.21417169136
 20
2587.931598713261
 30
0.0
 11
11428.46404250809
 21
2587.931598713261
 31
0.0
  0
LINE
  5
18FF2
330
18CBF
100
AcDbEntity
  8
寸法
 62
     0
 48
50.0
370
    -2
100
AcDbLine
 10
12257.21417169135
 20
2537.931598713262
 30
0.0
 11
11428.46404250809
 21
2537.931598713262
 31
0.0
  0
LINE
  5
18FF3
330
18CBF
100
AcDbEntity
  8
寸法
 62
     0
 48
50.0
370
    -2
100
AcDbLine
 10
11488.46404250809
 20
2587.931598713261
 30
0.0
 11
11488.46404250809
 21
2687.931598713261
 31
0.0
  0
LINE
  5
18FF4
330
18CBF
100
AcDbEntity
  8
寸法
 62
     0
 48
50.0
370
    -2
100
AcDbLine
 10
11488.46404250809
 20
2537.931598713262
 30
0.0
 11
11488.46404250809
 21
2125.837110524281
 31
0.0
  0
LINE
  5
18FF5
330
18CBF
100
AcDbEntity
  8
寸法
 62
     0
 48
50.0
370
    -2
100
AcDbLine
 10
11488.46404250809
 20
2587.931598713261
 30
0.0
 11
11488.46404250809
 21
2537.931598713262
 31
0.0
  0
INSERT
  5
18FF6
330
18CBF
100
AcDbEntity
  8
寸法
 62
     0
 48
50.0
370
    -2
100
AcDbBlockReference
  2
_DOTSMALL
 10
11488.46404250809
 20
2587.931598713261
 30
0.0
 41
100.0
 42
100.0
 43
100.0
 50
270.0
  0
INSERT
  5
18FF7
330
18CBF
100
AcDbEntity
  8
寸法
 62
     0
 48
50.0
370
    -2
100
AcDbBlockReference
  2
_DOTSMALL
 10
11488.46404250809
 20
2537.931598713262
 30
0.0
 41
100.0
 42
100.0
 43
100.0
 50
90.0
  0
MTEXT
  5
18FF8
330
18CBF
100
AcDbEntity
  8
寸法
 62
     7
 48
50.0
100
AcDbMText
 10
11388.46404250809
 20
2231.884354618772
 30
0.0
 40
120.0
 41
0.0
 71
     5
 72
     1
  1
\A1;50
  7
STYLE1
 11
0.0000000000000001
 21
1.0
 31
0.0
 73
     1
 44
1.0
1001
ACAD
1000
MTEXTBEGIN
1070
    73
1070
     1
1070
    44
1040
1.0
1070
    74
1070
     0
1000
MTEXTEND
  0
POINT
  5
18FF9
330
18CBF
100
AcDbEntity
  8
DEFPOINTS
 62
     0
 48
50.0
100
AcDbPoint
 10
12332.21417169136
 20
2587.931598713261
 30
0.0
  0
POINT
  5
18FFA
330
18CBF
100
AcDbEntity
  8
DEFPOINTS
 62
     0
 48
50.0
100
AcDbPoint
 10
12277.21417169135
 20
2537.931598713262
 30
0.0
  0
POINT
  5
18FFB
330
18CBF
100
AcDbEntity
  8
DEFPOINTS
 62
     0
 48
50.0
100
AcDbPoint
 10
11488.46404250809
 20
2537.931598713262
 30
0.0
  0
ENDBLK
  5
18CCC
330
18CBF
100
AcDbEntity
  8
0
 48
50.0
100
AcDbBlockEnd
  0
BLOCK
  5
18CE4
330
18CDA
100
AcDbEntity
  8
0
 48
50.0
100
AcDbBlockBegin
  2
*D36
 70
     1
 10
0.0
 20
0.0
 30
0.0
  3
*D36
  1

  0
LINE
  5
19036
330
18CDA
100
AcDbEntity
  8
寸法
 62
     0
 48
50.0
370
    -2
100
AcDbLine
 10
15402.21417169135
 20
2537.931598713264
 30
0.0
 11
15979.53462919753
 21
2537.931598713264
 31
0.0
  0
LINE
  5
19037
330
18CDA
100
AcDbEntity
  8
寸法
 62
     0
 48
50.0
370
    -2
100
AcDbLine
 10
15482.21417169135
 20
4857.931598713263
 30
0.0
 11
15979.53462919753
 21
4857.931598713263
 31
0.0
  0
LINE
  5
19038
330
18CDA
100
AcDbEntity
  8
寸法
 62
     0
 48
50.0
370
    -2
100
AcDbLine
 10
15919.53462919753
 20
2537.931598713264
 30
0.0
 11
15919.53462919753
 21
4857.931598713263
 31
0.0
  0
INSERT
  5
19039
330
18CDA
100
AcDbEntity
  8
寸法
 62
     0
 48
50.0
370
    -2
100
AcDbBlockReference
  2
_DOTSMALL
 10
15919.53462919753
 20
2537.931598713264
 30
0.0
 41
100.0
 42
100.0
 43
100.0
 50
270.0
  0
INSERT
  5
1903A
330
18CDA
100
AcDbEntity
  8
寸法
 62
     0
 48
50.0
370
    -2
100
AcDbBlockReference
  2
_DOTSMALL
 10
15919.53462919753
 20
4857.931598713263
 30
0.0
 41
100.0
 42
100.0
 43
100.0
 50
90.0
  0
MTEXT
  5
1903B
330
18CDA
100
AcDbEntity
  8
寸法
 62
     7
 48
50.0
100
AcDbMText
 10
15819.52281817391
 20
3643.965039237399
 30
0.0
 40
120.0
 41
0.0
 71
     5
 72
     1
  1
\A1;2320
  7
STYLE1
 11
0.0000000000000001
 21
1.0
 31
0.0
 73
     1
 44
1.0
1001
ACAD
1000
MTEXTBEGIN
1070
    73
1070
     1
1070
    44
1040
1.0
1070
    74
1070
     0
1000
MTEXTEND
  0
POINT
  5
1903C
330
18CDA
100
AcDbEntity
  8
DEFPOINTS
 62
     0
 48
50.0
100
AcDbPoint
 10
15382.21417169135
 20
2537.931598713264
 30
0.0
  0
POINT
  5
1903D
330
18CDA
100
AcDbEntity
  8
DEFPOINTS
 62
     0
 48
50.0
100
AcDbPoint
 10
15462.21417169135
 20
4857.931598713263
 30
0.0
  0
POINT
  5
1903E
330
18CDA
100
AcDbEntity
  8
DEFPOINTS
 62
     0
 48
50.0
100
AcDbPoint
 10
15919.53462919753
 20
4857.931598713263
 30
0.0
  0
ENDBLK
  5
18CE5
330
18CDA
100
AcDbEntity
  8
0
 48
50.0
100
AcDbBlockEnd
  0
BLOCK
  5
18CF0
330
18CE6
100
AcDbEntity
  8
0
 48
50.0
100
AcDbBlockBegin
  2
*D37
 70
     1
 10
0.0
 20
0.0
 30
0.0
  3
*D37
  1

  0
LINE
  5
18FD5
330
18CE6
100
AcDbEntity
  8
寸法
 62
     0
 48
50.0
370
    -2
100
AcDbLine
 10
12312.21417169136
 20
2537.931598713257
 30
0.0
 11
11128.46404250809
 21
2537.931598713257
 31
0.0
  0
LINE
  5
18FD6
330
18CE6
100
AcDbEntity
  8
寸法
 62
     0
 48
50.0
370
    -2
100
AcDbLine
 10
12252.21417169136
 20
4912.931598713261
 30
0.0
 11
11128.4640425081
 21
4912.931598713261
 31
0.0
  0
LINE
  5
18FD7
330
18CE6
100
AcDbEntity
  8
寸法
 62
     0
 48
50.0
370
    -2
100
AcDbLine
 10
11188.46404250809
 20
2537.931598713257
 30
0.0
 11
11188.4640425081
 21
4912.931598713261
 31
0.0
  0
INSERT
  5
18FD8
330
18CE6
100
AcDbEntity
  8
寸法
 62
     0
 48
50.0
370
    -2
100
AcDbBlockReference
  2
_DOTSMALL
 10
11188.46404250809
 20
2537.931598713257
 30
0.0
 41
100.0
 42
100.0
 43
100.0
 50
270.0
  0
INSERT
  5
18FD9
330
18CE6
100
AcDbEntity
  8
寸法
 62
     0
 48
50.0
370
    -2
100
AcDbBlockReference
  2
_DOTSMALL
 10
11188.4640425081
 20
4912.931598713261
 30
0.0
 41
100.0
 42
100.0
 43
100.0
 50
90.0
  0
MTEXT
  5
18FDA
330
18CE6
100
AcDbEntity
  8
寸法
 62
     7
 48
50.0
100
AcDbMText
 10
11088.45223148447
 20
3725.431598713262
 30
0.0
 40
120.0
 41
0.0
 71
     5
 72
     1
  1
\A1;2375
  7
STYLE1
 11
0.0000000000000001
 21
1.0
 31
0.0
 73
     1
 44
1.0
1001
ACAD
1000
MTEXTBEGIN
1070
    73
1070
     1
1070
    44
1040
1.0
1070
    74
1070
     0
1000
MTEXTEND
  0
POINT
  5
18FDB
330
18CE6
100
AcDbEntity
  8
DEFPOINTS
 62
     0
 48
50.0
100
AcDbPoint
 10
12332.21417169136
 20
2537.931598713257
 30
0.0
  0
POINT
  5
18FDC
330
18CE6
100
AcDbEntity
  8
DEFPOINTS
 62
     0
 48
50.0
100
AcDbPoint
 10
12272.21417169136
 20
4912.931598713261
 30
0.0
  0
POINT
  5
18FDD
330
18CE6
100
AcDbEntity
  8
DEFPOINTS
 62
     0
 48
50.0
100
AcDbPoint
 10
11188.4640425081
 20
4912.931598713261
 30
0.0
  0
ENDBLK
  5
18CF1
330
18CE6
100
AcDbEntity
  8
0
 48
50.0
100
AcDbBlockEnd
  0
BLOCK
  5
18CFC
330
18CF2
100
AcDbEntity
  8
0
 48
50.0
100
AcDbBlockBegin
  2
*D38
 70
     1
 10
0.0
 20
0.0
 30
0.0
  3
*D38
  1

  0
LINE
  5
18FCC
330
18CF2
100
AcDbEntity
  8
寸法
 62
     0
 48
50.0
370
    -2
100
AcDbLine
 10
12312.21417169136
 20
4677.931598713257
 30
0.0
 11
11428.4640425081
 21
4677.931598713257
 31
0.0
  0
LINE
  5
18FCD
330
18CF2
100
AcDbEntity
  8
寸法
 62
     0
 48
50.0
370
    -2
100
AcDbLine
 10
12312.21417169136
 20
2587.931598713257
 30
0.0
 11
11428.46404250809
 21
2587.931598713257
 31
0.0
  0
LINE
  5
18FCE
330
18CF2
100
AcDbEntity
  8
寸法
 62
     0
 48
50.0
370
    -2
100
AcDbLine
 10
11488.4640425081
 20
4677.931598713257
 30
0.0
 11
11488.46404250809
 21
2587.931598713257
 31
0.0
  0
INSERT
  5
18FCF
330
18CF2
100
AcDbEntity
  8
寸法
 62
     0
 48
50.0
370
    -2
100
AcDbBlockReference
  2
_DOTSMALL
 10
11488.4640425081
 20
4677.931598713257
 30
0.0
 41
100.0
 42
100.0
 43
100.0
 50
90.0
  0
INSERT
  5
18FD0
330
18CF2
100
AcDbEntity
  8
寸法
 62
     0
 48
50.0
370
    -2
100
AcDbBlockReference
  2
_DOTSMALL
 10
11488.46404250809
 20
2587.931598713257
 30
0.0
 41
100.0
 42
100.0
 43
100.0
 50
270.0
  0
MTEXT
  5
18FD1
330
18CF2
100
AcDbEntity
  8
寸法
 62
     7
 48
50.0
100
AcDbMText
 10
11388.45223148447
 20
3632.931598713259
 30
0.0
 40
120.0
 41
0.0
 71
     5
 72
     1
  1
\A1;2090
  7
STYLE1
 11
0.0000000000000001
 21
1.0
 31
0.0
 73
     1
 44
1.0
1001
ACAD
1000
MTEXTBEGIN
1070
    73
1070
     1
1070
    44
1040
1.0
1070
    74
1070
     0
1000
MTEXTEND
  0
POINT
  5
18FD2
330
18CF2
100
AcDbEntity
  8
DEFPOINTS
 62
     0
 48
50.0
100
AcDbPoint
 10
12332.21417169136
 20
4677.931598713257
 30
0.0
  0
POINT
  5
18FD3
330
18CF2
100
AcDbEntity
  8
DEFPOINTS
 62
     0
 48
50.0
100
AcDbPoint
 10
12332.21417169136
 20
2587.931598713257
 30
0.0
  0
POINT
  5
18FD4
330
18CF2
100
AcDbEntity
  8
DEFPOINTS
 62
     0
 48
50.0
100
AcDbPoint
 10
11488.46404250809
 20
2587.931598713257
 30
0.0
  0
ENDBLK
  5
18CFD
330
18CF2
100
AcDbEntity
  8
0
 48
50.0
100
AcDbBlockEnd
  0
BLOCK
  5
1923F
330
19234
100
AcDbEntity
  8
0
 48
50.0
100
AcDbBlockBegin
  2
*D39
 70
     1
 10
0.0
 20
0.0
 30
0.0
  3
*D39
  1

  0
LINE
  5
19707
330
19234
100
AcDbEntity
  8
寸法
 62
     0
 48
50.0
370
    -2
100
AcDbLine
 10
10071.07951157683
 20
4512.931598713262
 30
0.0
 11
10398.62261389858
 21
4512.931598713261
 31
0.0
  0
LINE
  5
19708
330
19234
100
AcDbEntity
  8
寸法
 62
     0
 48
50.0
370
    -2
100
AcDbLine
 10
10071.07951157683
 20
4677.931598713261
 30
0.0
 11
10398.62261389858
 21
4677.93159871326
 31
0.0
  0
LINE
  5
19709
330
19234
100
AcDbEntity
  8
寸法
 62
     0
 48
50.0
370
    -2
100
AcDbLine
 10
10338.62261389858
 20
4512.931598713261
 30
0.0
 11
10338.62261389858
 21
4677.93159871326
 31
0.0
  0
LINE
  5
1970A
330
19234
100
AcDbEntity
  8
寸法
 62
     0
 48
50.0
370
    -2
100
AcDbLine
 10
10338.62261389858
 20
4677.93159871326
 30
0.0
 11
10338.62261389858
 21
5054.902161461739
 31
0.0
  0
INSERT
  5
1970B
330
19234
100
AcDbEntity
  8
寸法
 62
     0
 48
50.0
370
    -2
100
AcDbBlockReference
  2
_DOTSMALL
 10
10338.62261389858
 20
4512.931598713261
 30
0.0
 41
100.0
 42
100.0
 43
100.0
 50
270.0
  0
INSERT
  5
1970C
330
19234
100
AcDbEntity
  8
寸法
 62
     0
 48
50.0
370
    -2
100
AcDbBlockReference
  2
_DOTSMALL
 10
10338.62261389858
 20
4677.93159871326
 30
0.0
 41
100.0
 42
100.0
 43
100.0
 50
90.0
  0
MTEXT
  5
1970D
330
19234
100
AcDbEntity
  8
寸法
 62
     7
 48
50.0
100
AcDbMText
 10
10238.62261389857
 20
4916.416880087502
 30
0.0
 40
120.0
 41
0.0
 71
     5
 72
     1
  1
\A1;165
  7
STYLE1
 11
0.0000000000000001
 21
1.0
 31
0.0
 73
     1
 44
1.0
1001
ACAD
1000
MTEXTBEGIN
1070
    73
1070
     1
1070
    44
1040
1.0
1070
    74
1070
     0
1000
MTEXTEND
  0
POINT
  5
1970E
330
19234
100
AcDbEntity
  8
DEFPOINTS
 62
     0
 48
50.0
100
AcDbPoint
 10
10051.07951157683
 20
4512.931598713262
 30
0.0
  0
POINT
  5
1970F
330
19234
100
AcDbEntity
  8
DEFPOINTS
 62
     0
 48
50.0
100
AcDbPoint
 10
10051.07951157683
 20
4677.931598713261
 30
0.0
  0
POINT
  5
19710
330
19234
100
AcDbEntity
  8
DEFPOINTS
 62
     0
 48
50.0
100
AcDbPoint
 10
10338.62261389858
 20
4677.93159871326
 30
0.0
  0
ENDBLK
  5
19240
330
19234
100
AcDbEntity
  8
0
 48
50.0
100
AcDbBlockEnd
  0
BLOCK
  5
1924D
330
19241
100
AcDbEntity
  8
0
 48
50.0
100
AcDbBlockBegin
  2
*D40
 70
     1
 10
0.0
 20
0.0
 30
0.0
  3
*D40
  1

  0
LINE
  5
196FC
330
19241
100
AcDbEntity
  8
寸法
 62
     0
 48
50.0
370
    -2
100
AcDbLine
 10
10071.07951157683
 20
4485.93159871326
 30
0.0
 11
10398.62261389857
 21
4485.93159871326
 31
0.0
  0
LINE
  5
196FD
330
19241
100
AcDbEntity
  8
寸法
 62
     0
 48
50.0
370
    -2
100
AcDbLine
 10
10071.07951157683
 20
4512.931598713262
 30
0.0
 11
10398.62261389857
 21
4512.931598713261
 31
0.0
  0
LINE
  5
196FE
330
19241
100
AcDbEntity
  8
寸法
 62
     0
 48
50.0
370
    -2
100
AcDbLine
 10
10338.62261389857
 20
4485.93159871326
 30
0.0
 11
10338.62261389857
 21
4385.931598713259
 31
0.0
  0
LINE
  5
196FF
330
19241
100
AcDbEntity
  8
寸法
 62
     0
 48
50.0
370
    -2
100
AcDbLine
 10
10338.62261389857
 20
4512.931598713261
 30
0.0
 11
10338.62261389857
 21
4612.931598713261
 31
0.0
  0
MTEXT
  5
19700
330
19241
100
AcDbEntity
  8
寸法
 62
     7
 48
50.0
100
AcDbMText
 10
10478.79243714494
 20
4513.89879855292
 30
0.0
 40
120.0
 41
0.0
 71
     5
 72
     1
  1
\A1;27
  7
STYLE1
 11
0.0000000000000001
 21
1.0
 31
0.0
 73
     1
 44
1.0
1001
ACAD
1000
MTEXTBEGIN
1070
    73
1070
     1
1070
    44
1040
1.0
1070
    74
1070
     0
1000
MTEXTEND
  0
LINE
  5
19701
330
19241
100
AcDbEntity
  8
寸法
 62
     0
 48
50.0
370
    -2
100
AcDbLine
 10
10338.62261389857
 20
4485.93159871326
 30
0.0
 11
10338.62261389857
 21
4512.931598713261
 31
0.0
  0
INSERT
  5
19702
330
19241
100
AcDbEntity
  8
寸法
 62
     0
 48
50.0
370
    -2
100
AcDbBlockReference
  2
_DOTSMALL
 10
10338.62261389857
 20
4485.93159871326
 30
0.0
 41
100.0
 42
100.0
 43
100.0
 50
90.0
  0
INSERT
  5
19703
330
19241
100
AcDbEntity
  8
寸法
 62
     0
 48
50.0
370
    -2
100
AcDbBlockReference
  2
_DOTSMALL
 10
10338.62261389857
 20
4512.931598713261
 30
0.0
 41
100.0
 42
100.0
 43
100.0
 50
270.0
  0
POINT
  5
19704
330
19241
100
AcDbEntity
  8
DEFPOINTS
 62
     0
 48
50.0
100
AcDbPoint
 10
10051.07951157683
 20
4485.93159871326
 30
0.0
  0
POINT
  5
19705
330
19241
100
AcDbEntity
  8
DEFPOINTS
 62
     0
 48
50.0
100
AcDbPoint
 10
10051.07951157683
 20
4512.931598713262
 30
0.0
  0
POINT
  5
19706
330
19241
100
AcDbEntity
  8
DEFPOINTS
 62
     0
 48
50.0
100
AcDbPoint
 10
10338.62261389857
 20
4512.931598713261
 30
0.0
  0
ENDBLK
  5
1924E
330
19241
100
AcDbEntity
  8
0
 48
50.0
100
AcDbBlockEnd
  0
BLOCK
  5
19259
330
1924F
100
AcDbEntity
  8
0
 48
50.0
100
AcDbBlockBegin
  2
*D41
 70
     1
 10
0.0
 20
0.0
 30
0.0
  3
*D41
  1

  0
LINE
  5
192B6
330
1924F
100
AcDbEntity
  8
寸法
 62
     0
 48
50.0
370
    -2
100
AcDbLine
 10
10071.07951157683
 20
2537.931598713262
 30
0.0
 11
10398.62261389857
 21
2537.931598713262
 31
0.0
  0
LINE
  5
192B7
330
1924F
100
AcDbEntity
  8
寸法
 62
     0
 48
50.0
370
    -2
100
AcDbLine
 10
10071.07951157683
 20
4485.93159871326
 30
0.0
 11
10398.62261389857
 21
4485.93159871326
 31
0.0
  0
LINE
  5
192B8
330
1924F
100
AcDbEntity
  8
寸法
 62
     0
 48
50.0
370
    -2
100
AcDbLine
 10
10338.62261389857
 20
2537.931598713262
 30
0.0
 11
10338.62261389857
 21
4485.93159871326
 31
0.0
  0
INSERT
  5
192B9
330
1924F
100
AcDbEntity
  8
寸法
 62
     0
 48
50.0
370
    -2
100
AcDbBlockReference
  2
_DOTSMALL
 10
10338.62261389857
 20
2537.931598713262
 30
0.0
 41
100.0
 42
100.0
 43
100.0
 50
270.0
  0
INSERT
  5
192BA
330
1924F
100
AcDbEntity
  8
寸法
 62
     0
 48
50.0
370
    -2
100
AcDbBlockReference
  2
_DOTSMALL
 10
10338.62261389857
 20
4485.93159871326
 30
0.0
 41
100.0
 42
100.0
 43
100.0
 50
90.0
  0
MTEXT
  5
192BB
330
1924F
100
AcDbEntity
  8
寸法
 62
     7
 48
50.0
100
AcDbMText
 10
10238.62261389857
 20
3511.931598713263
 30
0.0
 40
120.0
 41
0.0
 71
     5
 72
     1
  1
\A1;有効開口部高サ 1948
  7
STYLE1
 11
0.0000000000000001
 21
1.0
 31
0.0
 73
     1
 44
1.0
1001
ACAD
1000
MTEXTBEGIN
1070
    73
1070
     1
1070
    44
1040
1.0
1070
    74
1070
     0
1000
MTEXTEND
  0
POINT
  5
192BC
330
1924F
100
AcDbEntity
  8
DEFPOINTS
 62
     0
 48
50.0
100
AcDbPoint
 10
10051.07951157683
 20
2537.931598713262
 30
0.0
  0
POINT
  5
192BD
330
1924F
100
AcDbEntity
  8
DEFPOINTS
 62
     0
 48
50.0
100
AcDbPoint
 10
10051.07951157683
 20
4485.93159871326
 30
0.0
  0
POINT
  5
192BE
330
1924F
100
AcDbEntity
  8
DEFPOINTS
 62
     0
 48
50.0
100
AcDbPoint
 10
10338.62261389857
 20
4485.93159871326
 30
0.0
  0
ENDBLK
  5
1925A
330
1924F
100
AcDbEntity
  8
0
 48
50.0
100
AcDbBlockEnd
  0
ENDSEC
  0
SECTION
  2
ENTITIES
  0
MTEXT
  5
763F
330
747D
100
AcDbEntity
  8
0
100
AcDbMText
 10
302.846345836809
 20
280.1983726409901
 30
0.0
 40
3.5
 41
5.323721266742722
 71
     1
 72
     5
  1

  7
MSMINCHO
 73
     1
 44
1.0
1001
ACAD
1000
MTEXTBEGIN
1070
    73
1070
     1
1070
    44
1040
1.0
1070
    74
1070
     0
1000
MTEXTEND
  0
LINE
  5
10B57
330
747D
100
AcDbEntity
  8
補助
  6
PHANTOM
 62
   230
 48
50.0
100
AcDbLine
 10
139.9999999999995
 20
11409.6
 30
0.0
 11
16307.2
 21
11409.6
 31
0.0
  0
LINE
  5
10B59
330
747D
100
AcDbEntity
  8
仕様書枠
  6
Continuous
 48
50.0
100
AcDbLine
 10
13107.2
 20
1200.0
 30
0.0
 11
13107.2
 21
-0.0000000000000729
 31
0.0
  0
LINE
  5
10B5C
330
747D
100
AcDbEntity
  8
仕様書枠
 48
50.0
100
AcDbLine
 10
16307.2
 20
1200.0
 30
0.0
 11
16307.2
 21
-0.0000000000000909
 31
0.0
  0
LINE
  5
10B5D
330
747D
100
AcDbEntity
  8
仕様書枠
 48
50.0
100
AcDbLine
 10
140.0
 20
0.0
 30
0.0
 11
16307.2
 21
-0.0000000000000909
 31
0.0
  0
LINE
  5
10B5E
330
747D
100
AcDbEntity
  8
補助
  6
PHANTOM
 62
   230
 48
50.0
100
AcDbLine
 10
16307.2
 20
11409.6
 30
0.0
 11
16307.2
 21
1200.0
 31
0.0
  0
LINE
  5
10B6C
330
747D
100
AcDbEntity
  8
仕様書枠
 48
50.0
100
AcDbLine
 10
13107.2
 20
1200.0
 30
0.0
 11
16307.2
 21
1200.0
 31
0.0
  0
LINE
  5
10B6D
330
747D
100
AcDbEntity
  8
補助
  6
PHANTOM
 62
   230
 48
50.0
100
AcDbLine
 10
13107.2
 20
11409.6
 30
0.0
 11
13107.2
 21
4800.0
 31
0.0
  0
LINE
  5
10B6F
330
747D
100
AcDbEntity
  8
補助
  6
PHANTOM
 62
   230
 48
50.0
100
AcDbLine
 10
13107.2
 20
4800.0
 30
0.0
 11
16307.2
 21
4800.0
 31
0.0
  0
LINE
  5
10B72
330
747D
100
AcDbEntity
  8
文字
 62
     7
 48
50.0
100
AcDbLine
 10
13187.2
 20
400.0
 30
0.0
 11
16227.2
 21
400.0
 31
0.0
  0
TEXT
  5
10B73
330
747D
100
AcDbEntity
  8
文字
 62
     7
 48
50.0
100
AcDbText
 10
13162.9790565769
 20
895.0906074299405
 30
0.0
 40
200.0
  1
外 形 図
  7
STYLE2
100
AcDbText
  0
TEXT
  5
10B74
330
747D
100
AcDbEntity
  8
文字
 62
     7
 48
50.0
100
AcDbText
 10
13201.43669998441
 20
477.2740661031255
 30
0.0
 40
160.0
  1
機種名
  7
STYLE2
100
AcDbText
  0
TEXT
  5
10B75
330
747D
100
AcDbEntity
  8
文字
 62
     7
 48
50.0
100
AcDbText
 10
13209.4053442172
 20
228.5435242569016
 30
0.0
 40
100.0
  1
○有効開口寸法 ： 2844×1948(mm)
  7
STYLE2
100
AcDbText
  0
TEXT
  5
10B79
330
747D
100
AcDbEntity
  8
文字
 62
     7
 48
50.0
100
AcDbText
 10
14524.131837222
 20
1031.557706291228
 30
0.0
 40
100.0
  1
NO.31      <縮尺> S=1/40
  7
STYLE2
100
AcDbText
  0
LINE
  5
10B7B
330
747D
100
AcDbEntity
  8
仕様書枠
 48
50.0
100
AcDbLine
 10
13107.2
 20
800.0
 30
0.0
 11
14251.2
 21
800.0
 31
0.0
  0
LINE
  5
10B88
330
747D
100
AcDbEntity
  8
仕様書枠
  6
Continuous
 48
50.0
100
AcDbLine
 10
14251.2
 20
1200.0
 30
0.0
 11
14251.2
 21
800.0
 31
0.0
  0
TEXT
  5
10BB0
330
747D
100
AcDbEntity
  8
文字
 62
     7
 48
50.0
100
AcDbText
 10
14302.57975890745
 20
483.8967129911414
 30
0.0
 40
160.0
  1
FXN-95HDL-N
  7
STYLE2
100
AcDbText
  0
DIMENSION
  5
162CD
330
747D
100
AcDbEntity
  8
寸法
100
AcDbDimension
  2
*D1
 10
10698.50585731124
 20
7197.497424545952
 30
0.0
 11
10598.49404628762
 21
8667.49742454596
 31
0.0
 12
1361.406454453174
 22
0.0
 32
0.0
 70
    32
  1
7X420=<>
 71
     5
 42
-1.0
  3
INABA_S40G
100
AcDbAlignedDimension
 13
10051.07951157684
 23
10137.49742454596
 33
0.0
 14
10051.07951157681
 24
7197.497424545952
 34
0.0
 50
90.0
100
AcDbRotatedDimension
1001
ACAD
1000
DSTYLE
1002
{
1002
}
  0
DIMENSION
  5
162CE
330
747D
100
AcDbEntity
  8
寸法
100
AcDbDimension
  2
*D2
 10
10698.50585731122
 20
7142.497424545957
 30
0.0
 11
10698.50585731122
 21
6764.635957641094
 31
0.0
 12
2676.406454453174
 22
160.0
 32
0.0
 70
   160
 71
     5
 42
-1.0
  3
INABA_S40G
100
AcDbAlignedDimension
 13
10051.07951157681
 23
7197.497424545952
 33
0.0
 14
10051.07951157681
 24
7142.497424545957
 34
0.0
 50
90.0
100
AcDbRotatedDimension
1001
ACAD
1000
DSTYLE
1002
{
1002
}
  0
DIMENSION
  5
162CF
330
747D
100
AcDbEntity
  8
寸法
100
AcDbDimension
  2
*D3
 10
10698.50585731124
 20
10137.49742454596
 30
0.0
 11
10698.50585731124
 21
10500.9827059202
 31
0.0
 12
2676.406454453174
 22
160.0
 32
0.0
 70
   160
 71
     5
 42
-1.0
  3
INABA_S40G
100
AcDbAlignedDimension
 13
10051.07951157684
 23
10192.49742454596
 33
0.0
 14
10051.07951157684
 24
10137.49742454596
 34
0.0
 50
90.0
100
AcDbRotatedDimension
1001
ACAD
1000
DSTYLE
1002
{
1002
}
  0
DIMENSION
  5
162D0
330
747D
100
AcDbEntity
  8
寸法
100
AcDbDimension
  2
*D4
 10
11063.61279905088
 20
7142.497424545957
 30
0.0
 11
10963.61279905088
 21
8667.49742454596
 31
0.0
 12
1361.406454453174
 22
0.0
 32
0.0
 70
    32
 71
     5
 42
-1.0
  3
INABA_S40G
100
AcDbAlignedDimension
 13
10051.07951157684
 23
10192.49742454596
 33
0.0
 14
10051.07951157681
 24
7142.497424545957
 34
0.0
 50
90.0
100
AcDbRotatedDimension
1001
ACAD
1000
DSTYLE
1002
{
1002
}
  0
LINE
  5
162DC
330
747D
100
AcDbEntity
  8
部品1
100
AcDbLine
 10
10023.07951157682
 20
10164.49742454596
 30
0.0
 11
10023.07951157681
 21
7197.497424545952
 31
0.0
  0
LINE
  5
162DD
330
747D
100
AcDbEntity
  8
部品1
100
AcDbLine
 10
929.0795115768123
 20
7197.497424545821
 30
0.0
 11
929.0795115768233
 21
10164.49742454587
 31
0.0
  0
LINE
  5
162DE
330
747D
100
AcDbEntity
  8
部品1
100
AcDbLine
 10
10051.07951157684
 20
10192.49742454596
 30
0.0
 11
10051.07951157681
 21
7142.497424545957
 31
0.0
  0
LINE
  5
162DF
330
747D
100
AcDbEntity
  8
部品1
100
AcDbLine
 10
901.0795115768015
 20
10192.49742454583
 30
0.0
 11
901.0795115768305
 21
7142.497424545826
 31
0.0
  0
DIMENSION
  5
162E4
330
747D
100
AcDbEntity
  8
寸法
 48
50.0
100
AcDbDimension
  2
*D5
 10
7104.079511576831
 20
6608.0666537797
 30
0.0
 11
8526.079511576822
 21
6708.078464803323
 31
0.0
 12
1361.406454453174
 22
0.0
 32
0.0
 70
    32
  1
有効開口部間口 <>
 71
     5
 42
-1.0
  3
INABA_S40G
100
AcDbAlignedDimension
 13
9948.079511576814
 23
7168.497424545865
 33
0.0
 14
7104.079511576831
 24
7168.497424545865
 34
0.0
100
AcDbRotatedDimension
1001
ACAD
1000
DSTYLE
1002
{
1070
    75
1070
     1
1070
   279
1070
     2
1002
}
  0
LINE
  5
162E6
330
747D
100
AcDbEntity
  8
部品1
 48
50.0
100
AcDbLine
 10
7068.07951157683
 20
7187.997424545864
 30
0.0
 11
9984.079511576815
 21
7187.997424545864
 31
0.0
  0
DIMENSION
  5
162E7
330
747D
100
AcDbEntity
  8
寸法
100
AcDbDimension
  2
*D6
 10
10051.0795115768
 20
6161.893658188827
 30
0.0
 11
5476.079511576816
 21
6261.893658188826
 31
0.0
 70
    32
  1
N X 3050
 71
     5
 42
-1.0
  3
INABA_S40G
100
AcDbAlignedDimension
 13
901.0795115768305
 23
7142.497424545862
 33
0.0
 14
10051.0795115768
 24
7142.497424545957
 34
0.0
100
AcDbRotatedDimension
1001
ACAD
1000
DSTYLE
1002
{
1002
}
  0
LINE
  5
162E8
330
747D
100
AcDbEntity
  8
部品1
100
AcDbLine
 10
956.0795115768124
 20
10137.49742454588
 30
0.0
 11
956.0795115768305
 21
7207.497424545863
 31
0.0
  0
LINE
  5
162E9
330
747D
100
AcDbEntity
  8
部品1
100
AcDbLine
 10
981.0795115768124
 20
10137.49742454588
 30
0.0
 11
981.0795115768305
 21
7207.497424545863
 31
0.0
  0
DIMENSION
  5
162EA
330
747D
100
AcDbEntity
  8
寸法
 48
50.0
100
AcDbDimension
  2
*D7
 10
901.0795115768305
 20
6608.0666537797
 30
0.0
 11
592.5942302025923
 21
6608.0666537797
 31
0.0
 12
-3843.593545546825
 22
160.0
 32
0.0
 70
   160
 71
     5
 42
-1.0
  3
INABA_S40G
100
AcDbAlignedDimension
 13
956.079511576827
 23
7142.497424545865
 33
0.0
 14
901.0795115768305
 24
7142.497424545862
 34
0.0
100
AcDbRotatedDimension
1001
ACAD
1000
DSTYLE
1002
{
1002
}
  0
DIMENSION
  5
162EB
330
747D
100
AcDbEntity
  8
寸法
 48
50.0
100
AcDbDimension
  2
*D8
 10
7056.079511576827
 20
6608.0666537797
 30
0.0
 11
7216.981482576888
 21
6708.0666537797
 31
0.0
 12
2256.406454453174
 22
160.0
 32
0.0
 70
   160
 71
     5
 42
-1.0
  3
INABA_S40G
100
AcDbAlignedDimension
 13
7104.079511576831
 23
7168.497424545865
 33
0.0
 14
7056.079511576827
 24
7142.497424545865
 34
0.0
100
AcDbRotatedDimension
1001
ACAD
1000
DSTYLE
1002
{
1070
   279
1070
     2
1002
}
  0
LINE
  5
162EC
330
747D
100
AcDbEntity
  8
部品1
100
AcDbLine
 10
956.079511576827
 20
7142.497424545865
 30
0.0
 11
901.0795115768305
 21
7142.497424545862
 31
0.0
  0
LINE
  5
162ED
330
747D
100
AcDbEntity
  8
部品1
 48
50.0
100
AcDbLine
 10
956.0795115768305
 20
7178.497424545864
 30
0.0
 11
933.0795115768305
 21
7178.497424545864
 31
0.0
  0
LINE
  5
162EE
330
747D
100
AcDbEntity
  8
部品1
 48
50.0
100
AcDbLine
 10
966.0795115768305
 20
7168.497424545865
 30
0.0
 11
956.0795115768305
 21
7147.497424545865
 31
0.0
  0
LINE
  5
162EF
330
747D
100
AcDbEntity
  8
部品1
 48
50.0
100
AcDbLine
 10
956.0795115768305
 20
7207.497424545863
 30
0.0
 11
956.079511576827
 21
7142.497424545865
 31
0.0
  0
LINE
  5
162F0
330
747D
100
AcDbEntity
  8
部品1
 48
50.0
100
AcDbLine
 10
1004.07951157683
 20
7168.497424545865
 30
0.0
 11
1004.07951157683
 21
7177.497424545865
 31
0.0
  0
LINE
  5
162F1
330
747D
100
AcDbEntity
  8
部品1
 48
50.0
100
AcDbLine
 10
1004.07951157683
 20
7207.497424545865
 30
0.0
 11
1004.07951157683
 21
7198.497424545866
 31
0.0
  0
LINE
  5
162F2
330
747D
100
AcDbEntity
  8
部品1
100
AcDbLine
 10
1004.07951157683
 20
7207.497424545865
 30
0.0
 11
956.0795115768305
 21
7207.497424545865
 31
0.0
  0
LINE
  5
162F3
330
747D
100
AcDbEntity
  8
部品1
100
AcDbLine
 10
1004.07951157683
 20
7168.497424545865
 30
0.0
 11
956.0795115768305
 21
7168.497424545865
 31
0.0
  0
LINE
  5
162F4
330
747D
100
AcDbEntity
  8
部品1
100
AcDbLine
 10
956.0795115768305
 20
7178.497424545864
 30
0.0
 11
933.0795115768305
 21
7178.497424545864
 31
0.0
  0
LINE
  5
162F5
330
747D
100
AcDbEntity
  8
部品1
100
AcDbLine
 10
956.0795115768305
 20
7197.497424545789
 30
0.0
 11
901.0795115768287
 21
7197.497424545789
 31
0.0
  0
LINE
  5
162F6
330
747D
100
AcDbEntity
  8
部品1
100
AcDbLine
 10
929.0795115768123
 20
7197.497424545826
 30
0.0
 11
901.0795115768287
 21
7197.497424545826
 31
0.0
  0
LINE
  5
162F7
330
747D
100
AcDbEntity
  8
部品1
100
AcDbLine
 10
929.0795115768288
 20
7197.49742454584
 30
0.0
 11
901.0795115768287
 21
7197.49742454584
 31
0.0
  0
LINE
  5
162FB
330
747D
100
AcDbEntity
  8
部品1
100
AcDbLine
 10
929.079511576816
 20
8877.49742454584
 30
0.0
 11
901.0795115768159
 21
8877.49742454584
 31
0.0
  0
LINE
  5
162FC
330
747D
100
AcDbEntity
  8
部品1
100
AcDbLine
 10
929.079511576816
 20
9297.49742454584
 30
0.0
 11
901.0795115768159
 21
9297.49742454584
 31
0.0
  0
LINE
  5
162FE
330
747D
100
AcDbEntity
  8
部品1
100
AcDbLine
 10
929.0795115768123
 20
9717.49742454584
 30
0.0
 11
901.0795115768123
 21
9717.49742454584
 31
0.0
  0
LINE
  5
162FF
330
747D
100
AcDbEntity
  8
部品1
100
AcDbLine
 10
9996.079511576832
 20
10137.49742454584
 30
0.0
 11
9996.079511576816
 21
7142.497424545952
 31
0.0
  0
LINE
  5
16300
330
747D
100
AcDbEntity
  8
部品1
100
AcDbLine
 10
9971.079511576835
 20
10137.49742454584
 30
0.0
 11
9971.079511576816
 21
7207.497424545865
 31
0.0
  0
DIMENSION
  5
16301
330
747D
100
AcDbEntity
  8
寸法
 48
50.0
100
AcDbDimension
  2
*D9
 10
9948.079511576814
 20
6608.0666537797
 30
0.0
 11
9837.116613928065
 21
6708.0666537797
 31
0.0
 12
2676.406454453174
 22
160.0
 32
0.0
 70
   160
 71
     5
 42
-1.0
  3
INABA_S40G
100
AcDbAlignedDimension
 13
9996.079511576816
 23
7142.497424545952
 33
0.0
 14
9948.079511576814
 24
7168.497424545865
 34
0.0
100
AcDbRotatedDimension
1001
ACAD
1000
DSTYLE
1002
{
1070
   279
1070
     2
1002
}
  0
DIMENSION
  5
16302
330
747D
100
AcDbEntity
  8
寸法
 48
50.0
100
AcDbDimension
  2
*D10
 10
9996.079511576816
 20
6608.066653779701
 30
0.0
 11
10359.56479295105
 21
6608.066653779701
 31
0.0
 12
2676.406454453174
 22
160.0
 32
0.0
 70
   160
 71
     5
 42
-1.0
  3
INABA_S40G
100
AcDbAlignedDimension
 13
10051.07951157681
 23
7142.497424545957
 33
0.0
 14
9996.079511576816
 24
7142.497424545952
 34
0.0
100
AcDbRotatedDimension
1001
ACAD
1000
DSTYLE
1002
{
1002
}
  0
LINE
  5
16303
330
747D
100
AcDbEntity
  8
部品1
 48
50.0
100
AcDbLine
 10
9986.079511576813
 20
7168.497424545865
 30
0.0
 11
9996.079511576812
 21
7147.497424545865
 31
0.0
  0
LINE
  5
16304
330
747D
100
AcDbEntity
  8
部品1
100
AcDbLine
 10
9948.079511576814
 20
7207.497424545865
 30
0.0
 11
9996.079511576816
 21
7207.497424545865
 31
0.0
  0
LINE
  5
16305
330
747D
100
AcDbEntity
  8
部品1
100
AcDbLine
 10
9948.079511576814
 20
7168.497424545865
 30
0.0
 11
9996.079511576812
 21
7168.497424545865
 31
0.0
  0
LINE
  5
16306
330
747D
100
AcDbEntity
  8
部品1
 48
50.0
100
AcDbLine
 10
9948.079511576814
 20
7207.497424545865
 30
0.0
 11
9948.079511576814
 21
7198.497424545866
 31
0.0
  0
LINE
  5
16307
330
747D
100
AcDbEntity
  8
部品1
 48
50.0
100
AcDbLine
 10
9948.079511576814
 20
7168.497424545865
 30
0.0
 11
9948.079511576814
 21
7177.497424545865
 31
0.0
  0
LINE
  5
16308
330
747D
100
AcDbEntity
  8
部品1
100
AcDbLine
 10
9996.079511576812
 20
7178.497424545861
 30
0.0
 11
10019.07951157681
 21
7178.497424545864
 31
0.0
  0
LINE
  5
16309
330
747D
100
AcDbEntity
  8
部品1
100
AcDbLine
 10
9996.079511576812
 20
7197.497424545968
 30
0.0
 11
10051.07951157684
 21
7197.497424545968
 31
0.0
  0
LINE
  5
1630A
330
747D
100
AcDbEntity
  8
部品1
100
AcDbLine
 10
10051.07951157681
 20
7142.497424545957
 30
0.0
 11
9996.079511576816
 21
7142.497424545952
 31
0.0
  0
LINE
  5
16317
330
747D
100
AcDbEntity
  8
部品1
100
AcDbLine
 10
10023.07951157684
 20
8877.497424545968
 30
0.0
 11
10051.07951157684
 21
8877.497424545968
 31
0.0
  0
LINE
  5
16319
330
747D
100
AcDbEntity
  8
部品1
100
AcDbLine
 10
10023.07951157684
 20
9297.497424545968
 30
0.0
 11
10051.07951157684
 21
9297.497424545968
 31
0.0
  0
LINE
  5
1631A
330
747D
100
AcDbEntity
  8
部品1
100
AcDbLine
 10
10023.07951157684
 20
9717.497424545967
 30
0.0
 11
10051.07951157684
 21
9717.497424545967
 31
0.0
  0
LINE
  5
1631B
330
747D
100
AcDbEntity
  8
部品1
100
AcDbLine
 10
7029.079511576836
 20
10164.49742454598
 30
0.0
 11
10023.07951157682
 21
10164.49742454599
 31
0.0
  0
LINE
  5
1631D
330
747D
100
AcDbEntity
  8
部品1
100
AcDbLine
 10
901.0795115768377
 20
10192.49742454587
 30
0.0
 11
10051.07951157684
 21
10192.49742454597
 31
0.0
  0
DIMENSION
  5
1631F
330
747D
100
AcDbEntity
  8
寸法
100
AcDbDimension
  2
*D11
 10
9996.079511576837
 20
10408.30564417096
 30
0.0
 11
8526.079511576837
 21
10088.31745519459
 31
0.0
 12
1361.406454453174
 22
420.0
 32
0.0
 70
    32
  1
7X420=<>
 71
     5
 42
-1.0
  3
INABA_S40G
100
AcDbAlignedDimension
 13
7056.079511576839
 23
10192.49742454587
 33
0.0
 14
9996.079511576837
 24
10192.49742454596
 34
0.0
100
AcDbRotatedDimension
1001
ACAD
1000
DSTYLE
1002
{
1002
}
  0
DIMENSION
  5
16320
330
747D
100
AcDbEntity
  8
寸法
100
AcDbDimension
  2
*D12
 10
956.0795115768378
 20
10408.30564417085
 30
0.0
 11
592.594230202565
 21
10408.30564417085
 31
0.0
 12
-3843.593545546825
 22
160.0
 32
0.0
 70
   160
 71
     5
 42
-1.0
  3
INABA_S40G
100
AcDbAlignedDimension
 13
901.0795115768015
 23
10192.49742454587
 33
0.0
 14
956.0795115768378
 24
10192.49742454587
 34
0.0
100
AcDbRotatedDimension
1001
ACAD
1000
DSTYLE
1002
{
1002
}
  0
LINE
  5
16321
330
747D
100
AcDbEntity
  8
部品1
100
AcDbLine
 10
956.0795115768014
 20
10192.49742454583
 30
0.0
 11
956.0795115768051
 21
10164.49742454583
 31
0.0
  0
LINE
  5
16322
330
747D
100
AcDbEntity
  8
部品1
100
AcDbLine
 10
956.0795115768378
 20
10192.49742454587
 30
0.0
 11
956.0795115768378
 21
10164.49742454587
 31
0.0
  0
LINE
  5
16323
330
747D
100
AcDbEntity
  8
部品1
100
AcDbLine
 10
929.079511576805
 20
10137.49742454584
 30
0.0
 11
901.0795115768051
 21
10137.49742454584
 31
0.0
  0
LINE
  5
16324
330
747D
100
AcDbEntity
  8
部品1
100
AcDbLine
 10
7896.079511576838
 20
10192.49742454598
 30
0.0
 11
7896.079511576838
 21
10164.49742454598
 31
0.0
  0
LINE
  5
16325
330
747D
100
AcDbEntity
  8
部品1
100
AcDbLine
 10
7896.079511576838
 20
10192.49742454587
 30
0.0
 11
7896.079511576838
 21
10164.49742454587
 31
0.0
  0
LINE
  5
16326
330
747D
100
AcDbEntity
  8
部品1
100
AcDbLine
 10
7896.079511576838
 20
10192.49742454587
 30
0.0
 11
7896.079511576838
 21
10164.49742454587
 31
0.0
  0
LINE
  5
16329
330
747D
100
AcDbEntity
  8
部品1
100
AcDbLine
 10
8316.079511576838
 20
10192.49742454598
 30
0.0
 11
8316.079511576838
 21
10164.49742454598
 31
0.0
  0
LINE
  5
1632A
330
747D
100
AcDbEntity
  8
部品1
100
AcDbLine
 10
8316.079511576838
 20
10192.49742454587
 30
0.0
 11
8316.079511576838
 21
10164.49742454587
 31
0.0
  0
LINE
  5
1632B
330
747D
100
AcDbEntity
  8
部品1
100
AcDbLine
 10
8316.079511576838
 20
10192.49742454587
 30
0.0
 11
8316.079511576838
 21
10164.49742454587
 31
0.0
  0
LINE
  5
1632C
330
747D
100
AcDbEntity
  8
部品1
100
AcDbLine
 10
8736.079511576837
 20
10192.49742454598
 30
0.0
 11
8736.079511576837
 21
10164.49742454598
 31
0.0
  0
LINE
  5
16332
330
747D
100
AcDbEntity
  8
部品1
100
AcDbLine
 10
9156.079511576836
 20
10192.49742454598
 30
0.0
 11
9156.079511576836
 21
10164.49742454598
 31
0.0
  0
DIMENSION
  5
16333
330
747D
100
AcDbEntity
  8
寸法
100
AcDbDimension
  2
*D13
 10
10051.07951157684
 20
10408.30564417095
 30
0.0
 11
10359.56479295107
 21
10408.30564417095
 31
0.0
 12
2676.406454453174
 22
160.0
 32
0.0
 70
   160
 71
     5
 42
-1.0
  3
INABA_S40G
100
AcDbAlignedDimension
 13
9996.079511576837
 23
10192.49742454596
 33
0.0
 14
10051.07951157684
 24
10192.49742454596
 34
0.0
100
AcDbRotatedDimension
1001
ACAD
1000
DSTYLE
1002
{
1002
}
  0
LINE
  5
16334
330
747D
100
AcDbEntity
  8
部品1
100
AcDbLine
 10
9576.079511576836
 20
10192.49742454598
 30
0.0
 11
9576.079511576836
 21
10164.49742454598
 31
0.0
  0
LINE
  5
16335
330
747D
100
AcDbEntity
  8
部品1
100
AcDbLine
 10
9996.079511576837
 20
10192.49742454596
 30
0.0
 11
9996.079511576837
 21
10164.49742454596
 31
0.0
  0
LINE
  5
16336
330
747D
100
AcDbEntity
  8
部品1
100
AcDbLine
 10
9996.079511576837
 20
10192.49742454598
 30
0.0
 11
9996.079511576837
 21
10164.49742454598
 31
0.0
  0
LINE
  5
16337
330
747D
100
AcDbEntity
  8
部品1
100
AcDbLine
 10
10023.07951157684
 20
10137.49742454596
 30
0.0
 11
10051.07951157684
 21
10137.49742454596
 31
0.0
  0
DIMENSION
  5
1659A
330
747D
100
AcDbEntity
  8
寸法
 48
50.0
100
AcDbDimension
  2
*D15
 10
6898.079511576813
 20
6608.0666537797
 30
0.0
 11
6787.116613928064
 21
6708.0666537797
 31
0.0
 12
-1688.593545546824
 22
160.0
 32
0.0
 70
   160
 71
     5
 42
-1.0
  3
INABA_S40G
100
AcDbAlignedDimension
 13
6946.079511576815
 23
7142.497424545952
 33
0.0
 14
6898.079511576813
 24
7168.497424545865
 34
0.0
100
AcDbRotatedDimension
1001
ACAD
1000
DSTYLE
1002
{
1070
   279
1070
     2
1002
}
  0
DIMENSION
  5
1659C
330
747D
100
AcDbEntity
  8
寸法
 48
50.0
100
AcDbDimension
  2
*D14
 10
956.079511576827
 20
6608.0666537797
 30
0.0
 11
1116.981482576888
 21
6708.0666537797
 31
0.0
 12
-5158.593545546825
 22
160.0
 32
0.0
 70
   160
 71
     5
 42
-1.0
  3
INABA_S40G
100
AcDbAlignedDimension
 13
1004.07951157683
 23
7168.497424545865
 33
0.0
 14
956.079511576827
 24
7142.497424545865
 34
0.0
100
AcDbRotatedDimension
1001
ACAD
1000
DSTYLE
1002
{
1070
   279
1070
     2
1002
}
  0
DIMENSION
  5
165E9
330
747D
100
AcDbEntity
  8
寸法
 48
50.0
100
AcDbDimension
  2
*D16
 10
6946.079511576815
 20
6608.066653779701
 30
0.0
 11
7001.07951157682
 21
6456.37475874347
 31
0.0
 12
941.4064544531738
 22
-100.0
 32
0.0
 70
   160
 71
     5
 42
-1.0
  3
INABA_S40G
100
AcDbAlignedDimension
 13
7056.079511576827
 23
7142.497424545865
 33
0.0
 14
6946.079511576815
 24
7142.497424545952
 34
0.0
100
AcDbRotatedDimension
1001
ACAD
1000
DSTYLE
1002
{
1070
   279
1070
     2
1002
}
  0
LINE
  5
16656
330
747D
100
AcDbEntity
  8
部品1
100
AcDbLine
 10
6898.079511576813
 20
7207.497424545865
 30
0.0
 11
6946.079511576815
 21
7207.497424545865
 31
0.0
  0
LINE
  5
16657
330
747D
100
AcDbEntity
  8
部品1
 48
50.0
100
AcDbLine
 10
6898.079511576813
 20
7207.497424545865
 30
0.0
 11
6898.079511576813
 21
7198.497424545866
 31
0.0
  0
LINE
  5
16658
330
747D
100
AcDbEntity
  8
部品1
100
AcDbLine
 10
6898.079511576813
 20
7168.497424545865
 30
0.0
 11
6946.079511576812
 21
7168.497424545865
 31
0.0
  0
LINE
  5
16659
330
747D
100
AcDbEntity
  8
部品1
 48
50.0
100
AcDbLine
 10
6898.079511576813
 20
7168.497424545865
 30
0.0
 11
6898.079511576813
 21
7177.497424545865
 31
0.0
  0
LINE
  5
1665A
330
747D
100
AcDbEntity
  8
部品1
 48
50.0
100
AcDbLine
 10
6936.079511576813
 20
7168.497424545865
 30
0.0
 11
6946.079511576812
 21
7147.497424545865
 31
0.0
  0
LINE
  5
1665B
330
747D
100
AcDbEntity
  8
部品1
100
AcDbLine
 10
6946.079511576812
 20
7178.497424545861
 30
0.0
 11
6969.079511576812
 21
7178.497424545864
 31
0.0
  0
LINE
  5
1665C
330
747D
100
AcDbEntity
  8
部品1
100
AcDbLine
 10
7104.079511576831
 20
7207.497424545865
 30
0.0
 11
7056.07951157683
 21
7207.497424545865
 31
0.0
  0
LINE
  5
1665D
330
747D
100
AcDbEntity
  8
部品1
 48
50.0
100
AcDbLine
 10
7104.079511576831
 20
7207.497424545865
 30
0.0
 11
7104.079511576831
 21
7198.497424545866
 31
0.0
  0
LINE
  5
1665E
330
747D
100
AcDbEntity
  8
部品1
100
AcDbLine
 10
7104.079511576831
 20
7168.497424545865
 30
0.0
 11
7056.07951157683
 21
7168.497424545865
 31
0.0
  0
LINE
  5
1665F
330
747D
100
AcDbEntity
  8
部品1
 48
50.0
100
AcDbLine
 10
7066.07951157683
 20
7168.497424545865
 30
0.0
 11
7056.07951157683
 21
7147.497424545865
 31
0.0
  0
LINE
  5
16660
330
747D
100
AcDbEntity
  8
部品1
100
AcDbLine
 10
7056.07951157683
 20
7178.497424545864
 30
0.0
 11
7033.079511576831
 21
7178.497424545864
 31
0.0
  0
LINE
  5
16661
330
747D
100
AcDbEntity
  8
部品1
 48
50.0
100
AcDbLine
 10
7056.07951157683
 20
7207.497424545863
 30
0.0
 11
7056.079511576827
 21
7142.497424545865
 31
0.0
  0
LINE
  5
16662
330
747D
100
AcDbEntity
  8
部品1
 48
50.0
100
AcDbLine
 10
7104.079511576831
 20
7168.497424545865
 30
0.0
 11
7104.079511576831
 21
7177.497424545865
 31
0.0
  0
LINE
  5
16663
330
747D
100
AcDbEntity
  8
部品1
100
AcDbLine
 10
7056.079511576827
 20
7142.497424545865
 30
0.0
 11
6946.079511576816
 21
7142.497424545858
 31
0.0
  0
LINE
  5
16664
330
747D
100
AcDbEntity
  8
部品1
 48
50.0
100
AcDbLine
 10
6946.079511576819
 20
7207.497424545953
 30
0.0
 11
6946.079511576816
 21
7142.497424545952
 31
0.0
  0
LINE
  5
16666
330
747D
100
AcDbEntity
  8
部品1
100
AcDbLine
 10
7056.079511576839
 20
10192.49742454587
 30
0.0
 11
7056.079511576839
 21
10164.49742454587
 31
0.0
  0
LINE
  5
16680
330
747D
100
AcDbEntity
  8
部品1
100
AcDbLine
 10
5686.079511576838
 20
10192.49742454598
 30
0.0
 11
5686.079511576838
 21
10164.49742454598
 31
0.0
  0
LINE
  5
16686
330
747D
100
AcDbEntity
  8
部品1
100
AcDbLine
 10
3979.079511576824
 20
10164.49742454599
 30
0.0
 11
6973.079511576806
 21
10164.49742454596
 31
0.0
  0
LINE
  5
1668A
330
747D
100
AcDbEntity
  8
部品1
100
AcDbLine
 10
4846.079511576838
 20
10192.49742454598
 30
0.0
 11
4846.079511576838
 21
10164.49742454598
 31
0.0
  0
LINE
  5
1668B
330
747D
100
AcDbEntity
  8
部品1
100
AcDbLine
 10
4846.079511576838
 20
10192.49742454587
 30
0.0
 11
4846.079511576838
 21
10164.49742454587
 31
0.0
  0
LINE
  5
1668C
330
747D
100
AcDbEntity
  8
部品1
100
AcDbLine
 10
4846.079511576838
 20
10192.49742454587
 30
0.0
 11
4846.079511576838
 21
10164.49742454587
 31
0.0
  0
LINE
  5
1668D
330
747D
100
AcDbEntity
  8
部品1
100
AcDbLine
 10
5266.079511576838
 20
10192.49742454598
 30
0.0
 11
5266.079511576838
 21
10164.49742454598
 31
0.0
  0
LINE
  5
1668E
330
747D
100
AcDbEntity
  8
部品1
100
AcDbLine
 10
5266.079511576838
 20
10192.49742454587
 30
0.0
 11
5266.079511576838
 21
10164.49742454587
 31
0.0
  0
LINE
  5
1668F
330
747D
100
AcDbEntity
  8
部品1
100
AcDbLine
 10
5266.079511576838
 20
10192.49742454587
 30
0.0
 11
5266.079511576838
 21
10164.49742454587
 31
0.0
  0
LINE
  5
16690
330
747D
100
AcDbEntity
  8
部品1
100
AcDbLine
 10
6106.079511576838
 20
10192.49742454598
 30
0.0
 11
6106.079511576838
 21
10164.49742454598
 31
0.0
  0
LINE
  5
16691
330
747D
100
AcDbEntity
  8
部品1
100
AcDbLine
 10
6526.079511576836
 20
10192.49742454598
 30
0.0
 11
6526.079511576836
 21
10164.49742454598
 31
0.0
  0
LINE
  5
16692
330
747D
100
AcDbEntity
  8
部品1
100
AcDbLine
 10
6946.079511576837
 20
10192.49742454596
 30
0.0
 11
6946.079511576837
 21
10164.49742454596
 31
0.0
  0
DIMENSION
  5
166DD
330
747D
100
AcDbEntity
  8
寸法
 48
50.0
100
AcDbDimension
  2
*D17
 10
6946.079511576837
 20
10408.30564417096
 30
0.0
 11
7421.079511576838
 21
9248.305644170967
 31
0.0
 12
941.4064544531738
 22
1260.0
 32
0.0
 70
    32
 71
     5
 42
-1.0
  3
INABA_S40G
100
AcDbAlignedDimension
 13
7056.079511576839
 23
10192.49742454592
 33
0.0
 14
6946.079511576837
 24
10192.49742454591
 34
0.0
100
AcDbRotatedDimension
1001
ACAD
1000
DSTYLE
1002
{
1070
   279
1070
     2
1002
}
  0
LINE
  5
16760
330
747D
100
AcDbEntity
  8
部品1
 48
50.0
100
AcDbLine
 10
7001.079511576803
 20
10164.49742454591
 30
0.0
 11
6973.079511576805
 21
10192.49742454596
 31
0.0
  0
LINE
  5
16762
330
747D
100
AcDbEntity
  8
部品1
 48
50.0
100
AcDbLine
 10
6973.079511576805
 20
10164.49742454601
 30
0.0
 11
6973.079511576805
 21
10192.49742454596
 31
0.0
  0
LINE
  5
16763
330
747D
100
AcDbEntity
  8
部品1
 48
50.0
100
AcDbLine
 10
6973.079511576805
 20
10164.49742454591
 30
0.0
 11
7001.079511576803
 21
10164.49742454591
 31
0.0
  0
LINE
  5
168C3
330
747D
100
AcDbEntity
  8
部品1
100
AcDbLine
 10
7025.079511576821
 20
7197.497424545861
 30
0.0
 11
6977.079511576819
 21
7197.49742454586
 31
0.0
  0
LINE
  5
168C4
330
747D
100
AcDbEntity
  8
部品1
 48
50.0
100
AcDbLine
 10
6977.079511576822
 20
7197.497424545861
 30
0.0
 11
6977.079511576824
 21
7142.497424545862
 31
0.0
  0
LINE
  5
168C5
330
747D
100
AcDbEntity
  8
部品1
 48
50.0
100
AcDbLine
 10
7025.079511576821
 20
7197.497424545861
 30
0.0
 11
7025.079511576824
 21
7142.497424545862
 31
0.0
  0
DIMENSION
  5
16913
330
747D
100
AcDbEntity
  8
寸法
 48
50.0
100
AcDbDimension
  2
*D18
 10
10051.07951157684
 20
10657.62711772726
 30
0.0
 11
8526.079511576837
 21
10757.62711772726
 31
0.0
 70
    32
 71
     5
 42
-1.0
  3
INABA_S40G
100
AcDbAlignedDimension
 13
7001.079511576837
 23
10567.29355852891
 33
0.0
 14
10051.07951157684
 24
10192.49742454596
 34
0.0
100
AcDbRotatedDimension
1001
ACAD
1000
DSTYLE
1002
{
1070
   279
1070
     2
1002
}
  0
LINE
  5
16C81
330
747D
100
AcDbEntity
  8
部品1
100
AcDbLine
 10
929.079511576816
 20
8457.49742454584
 30
0.0
 11
901.0795115768159
 21
8457.49742454584
 31
0.0
  0
LINE
  5
16C82
330
747D
100
AcDbEntity
  8
部品1
100
AcDbLine
 10
10023.07951157684
 20
8457.497424545968
 30
0.0
 11
10051.07951157684
 21
8457.497424545968
 31
0.0
  0
LINE
  5
16FDA
330
747D
100
AcDbEntity
  8
部品1
100
AcDbLine
 10
929.079511576816
 20
8037.49742454584
 30
0.0
 11
901.0795115768159
 21
8037.49742454584
 31
0.0
  0
LINE
  5
16FDB
330
747D
100
AcDbEntity
  8
部品1
100
AcDbLine
 10
10023.07951157684
 20
8037.497424545966
 30
0.0
 11
10051.07951157684
 21
8037.497424545966
 31
0.0
  0
LINE
  5
1743E
330
747D
100
AcDbEntity
  8
部品1
100
AcDbLine
 10
7476.079511576838
 20
10192.49742454587
 30
0.0
 11
7476.079511576838
 21
10164.49742454587
 31
0.0
  0
LINE
  5
1743F
330
747D
100
AcDbEntity
  8
部品1
100
AcDbLine
 10
7476.079511576838
 20
10192.49742454587
 30
0.0
 11
7476.079511576838
 21
10164.49742454587
 31
0.0
  0
LINE
  5
17440
330
747D
100
AcDbEntity
  8
部品1
100
AcDbLine
 10
7476.079511576838
 20
10192.49742454598
 30
0.0
 11
7476.079511576838
 21
10164.49742454598
 31
0.0
  0
LINE
  5
17441
330
747D
100
AcDbEntity
  8
部品1
100
AcDbLine
 10
4426.079511576838
 20
10192.49742454598
 30
0.0
 11
4426.079511576838
 21
10164.49742454598
 31
0.0
  0
LINE
  5
17442
330
747D
100
AcDbEntity
  8
部品1
100
AcDbLine
 10
4426.079511576838
 20
10192.49742454587
 30
0.0
 11
4426.079511576838
 21
10164.49742454587
 31
0.0
  0
LINE
  5
17443
330
747D
100
AcDbEntity
  8
部品1
100
AcDbLine
 10
4426.079511576838
 20
10192.49742454587
 30
0.0
 11
4426.079511576838
 21
10164.49742454587
 31
0.0
  0
LINE
  5
17799
330
747D
100
AcDbEntity
  8
部品1
100
AcDbLine
 10
929.0795115768178
 20
7617.49742454584
 30
0.0
 11
901.0795115768178
 21
7617.49742454584
 31
0.0
  0
LINE
  5
1779A
330
747D
100
AcDbEntity
  8
部品1
100
AcDbLine
 10
10023.07951157684
 20
7617.497424545966
 30
0.0
 11
10051.07951157684
 21
7617.497424545966
 31
0.0
  0
LINE
  5
177CD
330
747D
100
AcDbEntity
  8
部品1
 48
50.0
100
AcDbLine
 10
7029.079511576805
 20
10137.49742454588
 30
0.0
 11
7029.07951157687
 21
10192.49742454591
 31
0.0
  0
LINE
  5
177CE
330
747D
100
AcDbEntity
  8
部品1
 48
50.0
100
AcDbLine
 10
6973.079511576805
 20
10137.49742454588
 30
0.0
 11
6973.079511576805
 21
10164.49742454591
 31
0.0
  0
LINE
  5
177CF
330
747D
100
AcDbEntity
  8
部品1
 48
50.0
100
AcDbLine
 10
929.0795115768233
 20
10164.49742454587
 30
0.0
 11
956.0795115768124
 21
10137.49742454588
 31
0.0
  0
LINE
  5
177D0
330
747D
100
AcDbEntity
  8
部品1
 48
50.0
100
AcDbLine
 10
956.0795115768105
 20
10137.49742454588
 30
0.0
 11
9996.079511576832
 21
10137.49742454585
 31
0.0
  0
LINE
  5
177D1
330
747D
100
AcDbEntity
  8
部品1
 48
50.0
100
AcDbLine
 10
981.0795115768124
 20
10112.49742454588
 30
0.0
 11
9971.079511576835
 21
10112.49742454584
 31
0.0
  0
LINE
  5
177D2
330
747D
100
AcDbEntity
  8
部品1
 48
50.0
100
AcDbLine
 10
10023.07951157682
 20
10164.49742454596
 30
0.0
 11
9996.079511576832
 21
10137.49742454584
 31
0.0
  0
LINE
  5
177D5
330
747D
100
AcDbEntity
  8
部品1
 48
50.0
100
AcDbLine
 10
6916.079511576838
 20
10164.49742454596
 30
0.0
 11
6916.079511576838
 21
10112.49742454586
 31
0.0
  0
LINE
  5
177D6
330
747D
100
AcDbEntity
  8
部品1
 48
50.0
100
AcDbLine
 10
7086.079511576838
 20
10164.49742454587
 30
0.0
 11
7086.079511576838
 21
10112.49742454586
 31
0.0
  0
TEXT
  5
17800
330
747D
100
AcDbEntity
  8
文字
 62
     7
 48
50.0
100
AcDbText
 10
13213.858357509
 20
76.09434707649343
 30
0.0
 40
100.0
  1
○床面積 ： Ｎ［連続数］×9.30㎡(2.82坪)
  7
STYLE2
100
AcDbText
  0
LINE
  5
17822
330
747D
100
AcDbEntity
  8
部品1
 48
50.0
100
AcDbLine
 10
968.0795115768304
 20
7187.997424545864
 30
0.0
 11
3884.079511576814
 21
7187.997424545864
 31
0.0
  0
DIMENSION
  5
17823
330
747D
100
AcDbEntity
  8
寸法
 48
50.0
100
AcDbDimension
  2
*D21
 10
1004.07951157683
 20
6608.0666537797
 30
0.0
 11
2426.079511576821
 21
6708.078464803323
 31
0.0
 12
-2108.593545546824
 22
0.0
 32
0.0
 70
    32
  1
有効開口部間口 <>
 71
     5
 42
-1.0
  3
INABA_S40G
100
AcDbAlignedDimension
 13
3848.079511576813
 23
7168.497424545865
 33
0.0
 14
1004.07951157683
 24
7168.497424545865
 34
0.0
100
AcDbRotatedDimension
1001
ACAD
1000
DSTYLE
1002
{
1070
    75
1070
     1
1070
   279
1070
     2
1002
}
  0
DIMENSION
  5
17824
330
747D
100
AcDbEntity
  8
寸法
 48
50.0
100
AcDbDimension
  2
*D20
 10
3848.079511576813
 20
6608.0666537797
 30
0.0
 11
3737.116613928066
 21
6708.0666537797
 31
0.0
 12
-2108.593545546824
 22
0.0
 32
0.0
 70
   160
 71
     5
 42
-1.0
  3
INABA_S40G
100
AcDbAlignedDimension
 13
3896.079511576814
 23
7142.497424545952
 33
0.0
 14
3848.079511576813
 24
7168.497424545865
 34
0.0
100
AcDbRotatedDimension
1001
ACAD
1000
DSTYLE
1002
{
1070
   279
1070
     2
1002
}
  0
DIMENSION
  5
17825
330
747D
100
AcDbEntity
  8
寸法
 48
50.0
100
AcDbDimension
  2
*D22
 10
3896.079511576814
 20
6608.066653779701
 30
0.0
 11
3951.07951157682
 21
6456.37475874347
 31
0.0
 12
-2108.593545546824
 22
0.0
 32
0.0
 70
   160
 71
     5
 42
-1.0
  3
INABA_S40G
100
AcDbAlignedDimension
 13
4006.079511576827
 23
7142.497424545865
 33
0.0
 14
3896.079511576814
 24
7142.497424545952
 34
0.0
100
AcDbRotatedDimension
1001
ACAD
1000
DSTYLE
1002
{
1070
   279
1070
     2
1002
}
  0
DIMENSION
  5
17826
330
747D
100
AcDbEntity
  8
寸法
 48
50.0
100
AcDbDimension
  2
*D19
 10
4006.079511576827
 20
6608.0666537797
 30
0.0
 11
4166.981482576888
 21
6708.0666537797
 31
0.0
 12
-2108.593545546824
 22
0.0
 32
0.0
 70
   160
 71
     5
 42
-1.0
  3
INABA_S40G
100
AcDbAlignedDimension
 13
4054.07951157683
 23
7168.497424545865
 33
0.0
 14
4006.079511576827
 24
7142.497424545865
 34
0.0
100
AcDbRotatedDimension
1001
ACAD
1000
DSTYLE
1002
{
1070
   279
1070
     2
1002
}
  0
LINE
  5
17827
330
747D
100
AcDbEntity
  8
部品1
100
AcDbLine
 10
4006.079511576827
 20
7142.497424545865
 30
0.0
 11
3896.079511576817
 21
7142.497424545858
 31
0.0
  0
LINE
  5
17828
330
747D
100
AcDbEntity
  8
部品1
100
AcDbLine
 10
4006.079511576831
 20
7178.497424545864
 30
0.0
 11
3983.079511576831
 21
7178.497424545864
 31
0.0
  0
LINE
  5
17829
330
747D
100
AcDbEntity
  8
部品1
 48
50.0
100
AcDbLine
 10
3975.079511576821
 20
7197.497424545861
 30
0.0
 11
3975.079511576824
 21
7142.497424545862
 31
0.0
  0
LINE
  5
1782A
330
747D
100
AcDbEntity
  8
部品1
 48
50.0
100
AcDbLine
 10
3927.079511576822
 20
7197.497424545861
 30
0.0
 11
3927.079511576823
 21
7142.497424545862
 31
0.0
  0
LINE
  5
1782B
330
747D
100
AcDbEntity
  8
部品1
100
AcDbLine
 10
3975.079511576821
 20
7197.497424545861
 30
0.0
 11
3927.07951157682
 21
7197.49742454586
 31
0.0
  0
LINE
  5
1782C
330
747D
100
AcDbEntity
  8
部品1
 48
50.0
100
AcDbLine
 10
3896.07951157682
 20
7207.497424545953
 30
0.0
 11
3896.079511576817
 21
7142.497424545952
 31
0.0
  0
LINE
  5
1782D
330
747D
100
AcDbEntity
  8
部品1
100
AcDbLine
 10
3896.079511576812
 20
7178.497424545861
 30
0.0
 11
3919.079511576813
 21
7178.497424545864
 31
0.0
  0
LINE
  5
1782E
330
747D
100
AcDbEntity
  8
部品1
 48
50.0
100
AcDbLine
 10
3886.079511576813
 20
7168.497424545865
 30
0.0
 11
3896.079511576812
 21
7147.497424545865
 31
0.0
  0
LINE
  5
1782F
330
747D
100
AcDbEntity
  8
部品1
 48
50.0
100
AcDbLine
 10
3848.079511576813
 20
7168.497424545865
 30
0.0
 11
3848.079511576813
 21
7177.497424545865
 31
0.0
  0
LINE
  5
17830
330
747D
100
AcDbEntity
  8
部品1
100
AcDbLine
 10
3848.079511576813
 20
7168.497424545865
 30
0.0
 11
3896.079511576812
 21
7168.497424545865
 31
0.0
  0
LINE
  5
17831
330
747D
100
AcDbEntity
  8
部品1
 48
50.0
100
AcDbLine
 10
3848.079511576813
 20
7207.497424545865
 30
0.0
 11
3848.079511576813
 21
7198.497424545866
 31
0.0
  0
LINE
  5
17832
330
747D
100
AcDbEntity
  8
部品1
100
AcDbLine
 10
3848.079511576813
 20
7207.497424545865
 30
0.0
 11
3896.079511576814
 21
7207.497424545865
 31
0.0
  0
LINE
  5
17833
330
747D
100
AcDbEntity
  8
部品1
 48
50.0
100
AcDbLine
 10
4054.07951157683
 20
7168.497424545865
 30
0.0
 11
4054.07951157683
 21
7177.497424545865
 31
0.0
  0
LINE
  5
17834
330
747D
100
AcDbEntity
  8
部品1
 48
50.0
100
AcDbLine
 10
4006.079511576831
 20
7207.497424545863
 30
0.0
 11
4006.079511576827
 21
7142.497424545865
 31
0.0
  0
LINE
  5
17835
330
747D
100
AcDbEntity
  8
部品1
 48
50.0
100
AcDbLine
 10
4016.079511576831
 20
7168.497424545865
 30
0.0
 11
4006.079511576831
 21
7147.497424545865
 31
0.0
  0
LINE
  5
17836
330
747D
100
AcDbEntity
  8
部品1
100
AcDbLine
 10
4054.07951157683
 20
7168.497424545865
 30
0.0
 11
4006.079511576831
 21
7168.497424545865
 31
0.0
  0
LINE
  5
17837
330
747D
100
AcDbEntity
  8
部品1
 48
50.0
100
AcDbLine
 10
4054.07951157683
 20
7207.497424545865
 30
0.0
 11
4054.07951157683
 21
7198.497424545866
 31
0.0
  0
LINE
  5
17838
330
747D
100
AcDbEntity
  8
部品1
100
AcDbLine
 10
4054.07951157683
 20
7207.497424545865
 30
0.0
 11
4006.079511576831
 21
7207.497424545865
 31
0.0
  0
DIMENSION
  5
178C2
330
747D
100
AcDbEntity
  8
寸法
 48
50.0
100
AcDbDimension
  2
*D25
 10
3951.079511576838
 20
10657.62711772726
 30
0.0
 11
2426.07951157682
 21
10757.62711772726
 31
0.0
 12
-2108.593545546824
 22
0.0
 32
0.0
 70
    32
 71
     5
 42
-1.0
  3
INABA_S40G
100
AcDbAlignedDimension
 13
901.0795115768015
 23
10192.49742454583
 33
0.0
 14
3951.079511576838
 24
10567.29355852891
 34
0.0
100
AcDbRotatedDimension
1001
ACAD
1000
DSTYLE
1002
{
1070
   279
1070
     2
1002
}
  0
LINE
  5
178C3
330
747D
100
AcDbEntity
  8
部品1
100
AcDbLine
 10
929.0795115768233
 20
10164.49742454599
 30
0.0
 11
3923.079511576838
 21
10164.49742454596
 31
0.0
  0
DIMENSION
  5
178C4
330
747D
100
AcDbEntity
  8
寸法
100
AcDbDimension
  2
*D23
 10
3896.079511576838
 20
10408.30564417096
 30
0.0
 11
2426.079511576838
 21
10508.31745519459
 31
0.0
 12
-2108.593545546824
 22
0.0
 32
0.0
 70
    32
  1
7X420=<>
 71
     5
 42
-1.0
  3
INABA_S40G
100
AcDbAlignedDimension
 13
956.0795115768378
 23
10192.49742454587
 33
0.0
 14
3896.079511576838
 24
10192.49742454596
 34
0.0
100
AcDbRotatedDimension
1001
ACAD
1000
DSTYLE
1002
{
1002
}
  0
LINE
  5
178C5
330
747D
100
AcDbEntity
  8
部品1
100
AcDbLine
 10
1376.079511576838
 20
10192.49742454587
 30
0.0
 11
1376.079511576838
 21
10164.49742454587
 31
0.0
  0
LINE
  5
178C6
330
747D
100
AcDbEntity
  8
部品1
100
AcDbLine
 10
1376.079511576838
 20
10192.49742454587
 30
0.0
 11
1376.079511576838
 21
10164.49742454587
 31
0.0
  0
LINE
  5
178C7
330
747D
100
AcDbEntity
  8
部品1
100
AcDbLine
 10
1376.079511576838
 20
10192.49742454598
 30
0.0
 11
1376.079511576838
 21
10164.49742454598
 31
0.0
  0
LINE
  5
178C8
330
747D
100
AcDbEntity
  8
部品1
100
AcDbLine
 10
1796.079511576837
 20
10192.49742454587
 30
0.0
 11
1796.079511576837
 21
10164.49742454587
 31
0.0
  0
LINE
  5
178C9
330
747D
100
AcDbEntity
  8
部品1
100
AcDbLine
 10
1796.079511576837
 20
10192.49742454587
 30
0.0
 11
1796.079511576837
 21
10164.49742454587
 31
0.0
  0
LINE
  5
178CA
330
747D
100
AcDbEntity
  8
部品1
100
AcDbLine
 10
1796.079511576837
 20
10192.49742454598
 30
0.0
 11
1796.079511576837
 21
10164.49742454598
 31
0.0
  0
LINE
  5
178CB
330
747D
100
AcDbEntity
  8
部品1
100
AcDbLine
 10
2216.079511576838
 20
10192.49742454587
 30
0.0
 11
2216.079511576838
 21
10164.49742454587
 31
0.0
  0
LINE
  5
178CC
330
747D
100
AcDbEntity
  8
部品1
100
AcDbLine
 10
2216.079511576838
 20
10192.49742454587
 30
0.0
 11
2216.079511576838
 21
10164.49742454587
 31
0.0
  0
LINE
  5
178CD
330
747D
100
AcDbEntity
  8
部品1
100
AcDbLine
 10
2216.079511576838
 20
10192.49742454598
 30
0.0
 11
2216.079511576838
 21
10164.49742454598
 31
0.0
  0
LINE
  5
178CE
330
747D
100
AcDbEntity
  8
部品1
100
AcDbLine
 10
2636.079511576838
 20
10192.49742454598
 30
0.0
 11
2636.079511576838
 21
10164.49742454598
 31
0.0
  0
LINE
  5
178CF
330
747D
100
AcDbEntity
  8
部品1
100
AcDbLine
 10
3056.079511576838
 20
10192.49742454598
 30
0.0
 11
3056.079511576838
 21
10164.49742454598
 31
0.0
  0
LINE
  5
178D0
330
747D
100
AcDbEntity
  8
部品1
100
AcDbLine
 10
3476.079511576836
 20
10192.49742454598
 30
0.0
 11
3476.079511576836
 21
10164.49742454598
 31
0.0
  0
LINE
  5
178D1
330
747D
100
AcDbEntity
  8
部品1
 48
50.0
100
AcDbLine
 10
4036.079511576837
 20
10164.49742454587
 30
0.0
 11
4036.079511576837
 21
10112.49742454586
 31
0.0
  0
LINE
  5
178D2
330
747D
100
AcDbEntity
  8
部品1
 48
50.0
100
AcDbLine
 10
3866.079511576838
 20
10164.49742454596
 30
0.0
 11
3866.079511576838
 21
10112.49742454586
 31
0.0
  0
DIMENSION
  5
178D3
330
747D
100
AcDbEntity
  8
寸法
 48
50.0
100
AcDbDimension
  2
*D24
 10
3896.079511576838
 20
10408.30564417096
 30
0.0
 11
3951.079511576838
 21
10508.30564417096
 31
0.0
 12
-2108.593545546824
 22
0.0
 32
0.0
 70
    32
 71
     5
 42
-1.0
  3
INABA_S40G
100
AcDbAlignedDimension
 13
4006.079511576838
 23
10192.49742454592
 33
0.0
 14
3896.079511576838
 24
10192.49742454591
 34
0.0
100
AcDbRotatedDimension
1001
ACAD
1000
DSTYLE
1002
{
1070
   279
1070
     2
1002
}
  0
LINE
  5
178D4
330
747D
100
AcDbEntity
  8
部品1
 48
50.0
100
AcDbLine
 10
3923.079511576805
 20
10137.49742454588
 30
0.0
 11
3923.079511576805
 21
10164.49742454591
 31
0.0
  0
LINE
  5
178D5
330
747D
100
AcDbEntity
  8
部品1
 48
50.0
100
AcDbLine
 10
3979.079511576805
 20
10137.49742454588
 30
0.0
 11
3979.079511576871
 21
10192.49742454591
 31
0.0
  0
LINE
  5
178D6
330
747D
100
AcDbEntity
  8
部品1
 48
50.0
100
AcDbLine
 10
3923.079511576805
 20
10164.49742454591
 30
0.0
 11
3951.079511576804
 21
10164.49742454591
 31
0.0
  0
LINE
  5
178D7
330
747D
100
AcDbEntity
  8
部品1
 48
50.0
100
AcDbLine
 10
3923.079511576805
 20
10164.49742454601
 30
0.0
 11
3923.079511576805
 21
10192.49742454596
 31
0.0
  0
LINE
  5
178D8
330
747D
100
AcDbEntity
  8
部品1
100
AcDbLine
 10
3979.079511576805
 20
10137.49742454588
 30
0.0
 11
3923.079511576805
 21
10137.49742454588
 31
0.0
  0
LINE
  5
178D9
330
747D
100
AcDbEntity
  8
部品1
 48
50.0
100
AcDbLine
 10
3951.079511576804
 20
10164.49742454591
 30
0.0
 11
3923.079511576805
 21
10192.49742454596
 31
0.0
  0
LINE
  5
178DA
330
747D
100
AcDbEntity
  8
部品1
100
AcDbLine
 10
3896.079511576838
 20
10192.49742454596
 30
0.0
 11
3896.079511576838
 21
10164.49742454596
 31
0.0
  0
LINE
  5
178DB
330
747D
100
AcDbEntity
  8
部品1
100
AcDbLine
 10
4006.079511576838
 20
10192.49742454587
 30
0.0
 11
4006.079511576838
 21
10164.49742454587
 31
0.0
  0
LINE
  5
1790D
330
747D
100
AcDbEntity
  8
補助
  6
PHANTOM
 62
   230
 48
50.0
100
AcDbLine
 10
140.0
 20
11409.6
 30
0.0
 11
140.0
 21
0.0
 31
0.0
  0
LINE
  5
1793C
330
747D
100
AcDbEntity
  8
寸法
 48
50.0
100
AcDbLine
 10
3951.079511576838
 20
10657.62711772726
 30
0.0
 11
5049.079511576838
 21
10657.62711772726
 31
0.0
  0
LINE
  5
1793D
330
747D
100
AcDbEntity
  8
寸法
 48
50.0
100
AcDbLine
 10
4006.079511576836
 20
10408.30564417096
 30
0.0
 11
5056.079511576836
 21
10408.30564417096
 31
0.0
  0
TEXT
  5
1793E
330
747D
100
AcDbEntity
  8
文字
 48
50.0
100
AcDbText
 10
4681.260684793789
 20
10697.27994577394
 30
0.0
 40
120.0
  1
3050
  7
STYLE1
100
AcDbText
  0
TEXT
  5
1793F
330
747D
100
AcDbEntity
  8
文字
 48
50.0
100
AcDbText
 10
4688.260684793788
 20
10447.95847221764
 30
0.0
 40
120.0
  1
2940
  7
STYLE1
100
AcDbText
  0
LINE
  5
17940
330
747D
100
AcDbEntity
  8
寸法
 48
50.0
100
AcDbLine
 10
5903.079511576837
 20
10657.62711772726
 30
0.0
 11
7001.079511576837
 21
10657.62711772726
 31
0.0
  0
LINE
  5
17941
330
747D
100
AcDbEntity
  8
寸法
 48
50.0
100
AcDbLine
 10
5896.079511576838
 20
10408.30564417096
 30
0.0
 11
6946.079511576837
 21
10408.30564417096
 31
0.0
  0
TEXT
  5
17942
330
747D
100
AcDbEntity
  8
文字
 48
50.0
100
AcDbText
 10
5933.429072920327
 20
10697.27994577394
 30
0.0
 40
120.0
  1
3050
  7
STYLE1
100
AcDbText
  0
TEXT
  5
17943
330
747D
100
AcDbEntity
  8
文字
 48
50.0
100
AcDbText
 10
5926.429072920328
 20
10447.95847221764
 30
0.0
 40
120.0
  1
2940
  7
STYLE1
100
AcDbText
  0
LINE
  5
17946
330
747D
100
AcDbEntity
  8
寸法
 48
50.0
100
AcDbLine
 10
4054.07951157683
 20
6608.0666537797
 30
0.0
 11
5254.07951157683
 21
6608.0666537797
 31
0.0
  0
TEXT
  5
17947
330
747D
100
AcDbEntity
  8
文字
 48
50.0
100
AcDbText
 10
4886.260684793782
 20
6647.719481826378
 30
0.0
 40
120.0
  1
2844
  7
STYLE1
100
AcDbText
  0
LINE
  5
17948
330
747D
100
AcDbEntity
  8
寸法
 48
50.0
100
AcDbLine
 10
5698.079511576812
 20
6608.0666537797
 30
0.0
 11
6898.079511576813
 21
6608.0666537797
 31
0.0
  0
TEXT
  5
17949
330
747D
100
AcDbEntity
  8
文字
 48
50.0
100
AcDbText
 10
5728.429072920302
 20
6647.719481826378
 30
0.0
 40
120.0
  1
2844
  7
STYLE1
100
AcDbText
  0
LINE
  5
1797C
330
747D
100
AcDbEntity
  8
Ｇ．Ｌ
100
AcDbLine
 10
195.8770228842127
 20
2437.931598713261
 30
0.0
 11
16107.2
 21
2437.931598713261
 31
0.0
  0
TEXT
  5
17A0E
330
747D
100
AcDbEntity
  8
文字
 62
     7
 48
50.0
100
AcDbText
 10
15022.63965474517
 20
9740.013745883725
 30
0.0
 40
100.0
  1
F12            1.0
  7
STYLE1
100
AcDbText
  0
LINE
  5
17A0F
330
747D
100
AcDbEntity
  8
仕様書枠
 48
50.0
100
AcDbLine
 10
13127.2
 20
11239.6
 30
0.0
 11
13127.19999999999
 21
8349.600000000004
 31
0.0
  0
TEXT
  5
17A10
330
747D
100
AcDbEntity
  8
文字
 62
     7
 48
50.0
100
AcDbText
 10
13229.83081656554
 20
8380.013745883733
 30
0.0
 40
100.0
  1
Z08→塗装溶融亜鉛めっき鋼板(JIS G 3313)
  7
STYLE1
100
AcDbText
  0
TEXT
  5
17A11
330
747D
100
AcDbEntity
  8
文字
 62
     7
 48
50.0
100
AcDbText
 10
13229.83081656554
 20
8550.013745883731
 30
0.0
 40
100.0
  1
Y10→溶融亜鉛-5％アルミニウム合金めっき鋼板(JIS G 3317)
 41
0.9
  7
STYLE1
100
AcDbText
  0
TEXT
  5
17A12
330
747D
100
AcDbEntity
  8
文字
 62
     7
 48
50.0
100
AcDbText
 10
13229.83081656554
 20
8720.013745883731
 30
0.0
 40
100.0
  1
F12→溶融亜鉛めっき鋼板(JIS G 3302)
  7
STYLE1
100
AcDbText
  0
LINE
  5
17A13
330
747D
100
AcDbEntity
  8
仕様書枠
 48
50.0
100
AcDbLine
 10
16307.19999999998
 20
8349.600000000002
 30
0.0
 11
13127.19999999999
 21
8349.600000000004
 31
0.0
  0
LINE
  5
17A14
330
747D
100
AcDbEntity
  8
仕様書枠
 48
50.0
100
AcDbLine
 10
16307.19999999998
 20
8519.600000000002
 30
0.0
 11
13127.19999999999
 21
8519.600000000004
 31
0.0
  0
LINE
  5
17A15
330
747D
100
AcDbEntity
  8
仕様書枠
 48
50.0
100
AcDbLine
 10
16307.19999999998
 20
8689.600000000003
 30
0.0
 11
13127.19999999999
 21
8689.600000000003
 31
0.0
  0
TEXT
  5
17A18
330
747D
100
AcDbEntity
  8
文字
 62
     7
 48
50.0
100
AcDbText
 10
14850.83183167176
 20
8890.013745883726
 30
0.0
 40
100.0
  1
アルミニウム合金押出形材
  7
STYLE1
100
AcDbText
  0
TEXT
  5
17A19
330
747D
100
AcDbEntity
  8
文字
 62
     7
 48
50.0
100
AcDbText
 10
15022.63965474516
 20
9400.013745883725
 30
0.0
 40
100.0
  1
F12            0.7
  7
STYLE1
100
AcDbText
  0
TEXT
  5
17A1A
330
747D
100
AcDbEntity
  8
文字
 62
     7
 48
50.0
100
AcDbText
 10
15022.63965474516
 20
9570.013745883725
 30
0.0
 40
100.0
  1
Y10            0.5
  7
STYLE1
100
AcDbText
  0
TEXT
  5
17A1B
330
747D
100
AcDbEntity
  8
文字
 62
     7
 48
50.0
100
AcDbText
 10
15022.63965474516
 20
10080.01374588372
 30
0.0
 40
100.0
  1
Y10            0.7
  7
STYLE1
100
AcDbText
  0
TEXT
  5
17A1C
330
747D
100
AcDbEntity
  8
文字
 62
     7
 48
50.0
100
AcDbText
 10
15022.63965474516
 20
10250.01374588372
 30
0.0
 40
100.0
  1
Y10            0.7
  7
STYLE1
100
AcDbText
  0
TEXT
  5
17A1D
330
747D
100
AcDbEntity
  8
文字
 62
     7
 48
50.0
100
AcDbText
 10
15022.63965474516
 20
10420.01374588372
 30
0.0
 40
100.0
  1
Y10            1.0
  7
STYLE1
100
AcDbText
  0
TEXT
  5
17A1E
330
747D
100
AcDbEntity
  8
文字
 62
     7
 48
50.0
100
AcDbText
 10
15022.63965474516
 20
10590.01374588372
 30
0.0
 40
100.0
  1
Y10            1.0
  7
STYLE1
100
AcDbText
  0
TEXT
  5
17A1F
330
747D
100
AcDbEntity
  8
文字
 62
     7
 48
50.0
100
AcDbText
 10
15022.63965474517
 20
10760.01374588372
 30
0.0
 40
100.0
  1
F12         1.0,1.2
  7
STYLE1
100
AcDbText
  0
TEXT
  5
17A20
330
747D
100
AcDbEntity
  8
文字
 62
     7
 48
50.0
100
AcDbText
 10
15022.63965474517
 20
10930.01374588372
 30
0.0
 40
100.0
  1
F12            1.2
  7
STYLE1
100
AcDbText
  0
TEXT
  5
17A21
330
747D
100
AcDbEntity
  8
文字
 62
     7
 48
50.0
100
AcDbText
 10
13248.77747366448
 20
9060.013745883729
 30
0.0
 40
100.0
  1
12
  7
STYLE1
100
AcDbText
  0
TEXT
  5
17A22
330
747D
100
AcDbEntity
  8
文字
 62
     7
 48
50.0
100
AcDbText
 10
13248.77747366448
 20
8890.013745883729
 30
0.0
 40
100.0
  1
13
  7
STYLE1
100
AcDbText
  0
LINE
  5
17A24
330
747D
100
AcDbEntity
  8
仕様書枠
 48
50.0
100
AcDbLine
 10
16307.19999999999
 20
8859.6
 30
0.0
 11
13127.19999999999
 21
8859.600000000002
 31
0.0
  0
LINE
  5
17A25
330
747D
100
AcDbEntity
  8
仕様書枠
 48
50.0
100
AcDbLine
 10
16307.19999999999
 20
9029.6
 30
0.0
 11
13127.19999999999
 21
9029.6
 31
0.0
  0
TEXT
  5
17A26
330
747D
100
AcDbEntity
  8
文字
 62
     7
 48
50.0
100
AcDbText
 10
13583.11819016569
 20
9060.013745883727
 30
0.0
 40
100.0
  1
シャッターカバー
 41
0.9
  7
STYLE1
100
AcDbText
  0
TEXT
  5
17A27
330
747D
100
AcDbEntity
  8
文字
 62
     7
 48
50.0
100
AcDbText
 10
13248.77747366448
 20
9230.013745883727
 30
0.0
 40
100.0
  1
11
  7
STYLE1
100
AcDbText
  0
LINE
  5
17A28
330
747D
100
AcDbEntity
  8
仕様書枠
 48
50.0
100
AcDbLine
 10
16307.19999999999
 20
9709.6
 30
0.0
 11
13127.19999999999
 21
9709.600000000001
 31
0.0
  0
LINE
  5
17A29
330
747D
100
AcDbEntity
  8
仕様書枠
 48
50.0
100
AcDbLine
 10
16307.19999999999
 20
10049.6
 30
0.0
 11
13127.2
 21
10049.6
 31
0.0
  0
LINE
  5
17A2A
330
747D
100
AcDbEntity
  8
仕様書枠
 48
50.0
100
AcDbLine
 10
16307.19999999999
 20
9369.599999999998
 30
0.0
 11
13127.19999999999
 21
9369.600000000001
 31
0.0
  0
LINE
  5
17A2B
330
747D
100
AcDbEntity
  8
仕様書枠
 48
50.0
100
AcDbLine
 10
16307.19999999999
 20
9199.599999999998
 30
0.0
 11
13127.19999999999
 21
9199.600000000001
 31
0.0
  0
LINE
  5
17A2C
330
747D
100
AcDbEntity
  8
仕様書枠
 48
50.0
100
AcDbLine
 10
16307.19999999999
 20
9539.599999999998
 30
0.0
 11
13127.19999999999
 21
9539.6
 31
0.0
  0
TEXT
  5
17A2D
330
747D
100
AcDbEntity
  8
文字
 62
     7
 48
50.0
100
AcDbText
 10
13271.19032244792
 20
10080.01374588373
 30
0.0
 40
100.0
  1
6
  7
STYLE1
100
AcDbText
  0
TEXT
  5
17A2E
330
747D
100
AcDbEntity
  8
文字
 62
     7
 48
50.0
100
AcDbText
 10
13271.19032244792
 20
9910.01374588373
 30
0.0
 40
100.0
  1
7
  7
STYLE1
100
AcDbText
  0
TEXT
  5
17A2F
330
747D
100
AcDbEntity
  8
文字
 62
     7
 48
50.0
100
AcDbText
 10
13271.19032244792
 20
9570.013745883729
 30
0.0
 40
100.0
  1
9
  7
STYLE1
100
AcDbText
  0
TEXT
  5
17A30
330
747D
100
AcDbEntity
  8
文字
 62
     7
 48
50.0
100
AcDbText
 10
13271.19032244792
 20
9740.013745883729
 30
0.0
 40
100.0
  1
8
  7
STYLE1
100
AcDbText
  0
TEXT
  5
17A31
330
747D
100
AcDbEntity
  8
文字
 62
     7
 48
50.0
100
AcDbText
 10
13583.11819016569
 20
10080.01374588372
 30
0.0
 40
100.0
  1
鼻隠シ前後
  7
STYLE1
100
AcDbText
  0
TEXT
  5
17A32
330
747D
100
AcDbEntity
  8
文字
 62
     7
 48
50.0
100
AcDbText
 10
13583.11819016569
 20
9740.013745883729
 30
0.0
 40
100.0
  1
母屋中
  7
STYLE1
100
AcDbText
  0
TEXT
  5
17A33
330
747D
100
AcDbEntity
  8
文字
 62
     7
 48
50.0
100
AcDbText
 10
13583.11819016569
 20
9570.013745883727
 30
0.0
 40
100.0
  1
屋根パネル
  7
STYLE1
100
AcDbText
  0
TEXT
  5
17A34
330
747D
100
AcDbEntity
  8
文字
 62
     7
 48
50.0
100
AcDbText
 10
13583.11819016569
 20
9400.013745883729
 30
0.0
 40
100.0
  1
壁パネル
  7
STYLE1
100
AcDbText
  0
TEXT
  5
17A35
330
747D
100
AcDbEntity
  8
文字
 62
     7
 48
50.0
100
AcDbText
 10
13248.77747366448
 20
9400.013745883727
 30
0.0
 40
100.0
  1
10
  7
STYLE1
100
AcDbText
  0
TEXT
  5
17A36
330
747D
100
AcDbEntity
  8
文字
 62
     7
 48
50.0
100
AcDbText
 10
13583.11819016569
 20
8890.013745883727
 30
0.0
 40
100.0
  1
シャッターレール
  7
STYLE1
100
AcDbText
  0
TEXT
  5
17A37
330
747D
100
AcDbEntity
  8
文字
 62
     7
 48
50.0
100
AcDbText
 10
13583.11819016569
 20
10250.01374588373
 30
0.0
 40
100.0
  1
妻板左右
  7
STYLE1
100
AcDbText
  0
TEXT
  5
17A38
330
747D
100
AcDbEntity
  8
文字
 62
     7
 48
50.0
100
AcDbText
 10
13271.19032244792
 20
10250.01374588373
 30
0.0
 40
100.0
  1
5
  7
STYLE1
100
AcDbText
  0
TEXT
  5
17A39
330
747D
100
AcDbEntity
  8
文字
 62
     7
 48
50.0
100
AcDbText
 10
13583.11819016569
 20
10420.01374588373
 30
0.0
 40
100.0
  1
桁後
  7
STYLE1
100
AcDbText
  0
TEXT
  5
17A3A
330
747D
100
AcDbEntity
  8
文字
 62
     7
 48
50.0
100
AcDbText
 10
13583.11819016569
 20
10590.01374588373
 30
0.0
 40
100.0
  1
桁前
  7
STYLE1
100
AcDbText
  0
TEXT
  5
17A3B
330
747D
100
AcDbEntity
  8
文字
 62
     7
 48
50.0
100
AcDbText
 10
13583.11819016569
 20
10760.01374588372
 30
0.0
 40
100.0
  1
柱
  7
STYLE1
100
AcDbText
  0
TEXT
  5
17A3C
330
747D
100
AcDbEntity
  8
文字
 62
     7
 48
50.0
100
AcDbText
 10
13583.11819016569
 20
10930.01374588372
 30
0.0
 40
100.0
  1
土台枠
  7
STYLE1
100
AcDbText
  0
TEXT
  5
17A3D
330
747D
100
AcDbEntity
  8
文字
 62
     7
 48
50.0
100
AcDbText
 10
14859.79774614482
 20
11100.01374588373
 30
0.0
 40
100.0
  1
材料（材質）　　単位mm
  7
STYLE1
100
AcDbText
  0
TEXT
  5
17A3E
330
747D
100
AcDbEntity
  8
文字
 62
     7
 48
50.0
100
AcDbText
 10
13732.03840939434
 20
11100.01374588373
 30
0.0
 40
100.0
  1
部　　品　　名
  7
STYLE1
100
AcDbText
  0
TEXT
  5
17A3F
330
747D
100
AcDbEntity
  8
文字
 62
     7
 48
50.0
100
AcDbText
 10
13271.19032244792
 20
10590.01374588373
 30
0.0
 40
100.0
  1
3
  7
STYLE1
100
AcDbText
  0
TEXT
  5
17A40
330
747D
100
AcDbEntity
  8
文字
 62
     7
 48
50.0
100
AcDbText
 10
13271.19032244792
 20
10420.01374588373
 30
0.0
 40
100.0
  1
4
  7
STYLE1
100
AcDbText
  0
TEXT
  5
17A41
330
747D
100
AcDbEntity
  8
文字
 62
     7
 48
50.0
100
AcDbText
 10
13271.19032244792
 20
10760.01374588373
 30
0.0
 40
100.0
  1
2
  7
STYLE1
100
AcDbText
  0
TEXT
  5
17A42
330
747D
100
AcDbEntity
  8
文字
 62
     7
 48
50.0
100
AcDbText
 10
13271.19032244792
 20
10930.01374588373
 30
0.0
 40
100.0
  1
1
  7
STYLE1
100
AcDbText
  0
TEXT
  5
17A43
330
747D
100
AcDbEntity
  8
文字
 62
     7
 48
50.0
100
AcDbText
 10
13197.42518560407
 20
11100.01374588373
 30
0.0
 40
100.0
  1
品番
  7
STYLE1
100
AcDbText
  0
LINE
  5
17A44
330
747D
100
AcDbEntity
  8
仕様書枠
 48
50.0
100
AcDbLine
 10
16307.19999999999
 20
10559.6
 30
0.0
 11
13127.19999999999
 21
10559.6
 31
0.0
  0
LINE
  5
17A45
330
747D
100
AcDbEntity
  8
仕様書枠
 48
50.0
100
AcDbLine
 10
16307.19999999999
 20
10219.6
 30
0.0
 11
13127.19999999999
 21
10219.6
 31
0.0
  0
LINE
  5
17A46
330
747D
100
AcDbEntity
  8
仕様書枠
 48
50.0
100
AcDbLine
 10
16307.19999999999
 20
10389.6
 30
0.0
 11
13127.19999999999
 21
10389.6
 31
0.0
  0
LINE
  5
17A47
330
747D
100
AcDbEntity
  8
仕様書枠
 48
50.0
100
AcDbLine
 10
16307.19999999999
 20
10899.6
 30
0.0
 11
13127.2
 21
10899.6
 31
0.0
  0
LINE
  5
17A48
330
747D
100
AcDbEntity
  8
仕様書枠
 48
50.0
100
AcDbLine
 10
16307.19999999999
 20
10729.6
 30
0.0
 11
13127.2
 21
10729.6
 31
0.0
  0
LINE
  5
17A49
330
747D
100
AcDbEntity
  8
仕様書枠
 48
50.0
100
AcDbLine
 10
16307.19999999999
 20
11069.6
 30
0.0
 11
13127.2
 21
11069.6
 31
0.0
  0
LINE
  5
17A4A
330
747D
100
AcDbEntity
  8
仕様書枠
 48
50.0
100
AcDbLine
 10
13490.2
 20
11239.6
 30
0.0
 11
13490.20000000001
 21
8859.600000000002
 31
0.0
  0
LINE
  5
17A4B
330
747D
100
AcDbEntity
  8
仕様書枠
 48
50.0
100
AcDbLine
 10
14785.2
 20
11239.59999999999
 30
0.0
 11
14785.2
 21
8859.600000000002
 31
0.0
  0
LINE
  5
17A4C
330
747D
100
AcDbEntity
  8
仕様書枠
 48
50.0
100
AcDbLine
 10
16307.19999999999
 20
8349.600000000004
 30
0.0
 11
16307.2
 21
11239.6
 31
0.0
  0
LINE
  5
17A4D
330
747D
100
AcDbEntity
  8
仕様書枠
 48
50.0
100
AcDbLine
 10
16307.19999999999
 20
11239.6
 30
0.0
 11
13127.2
 21
11239.6
 31
0.0
  0
LINE
  5
17A4E
330
747D
100
AcDbEntity
  8
仕様書枠
 48
50.0
100
AcDbLine
 10
16307.19999999999
 20
9879.599999999999
 30
0.0
 11
13127.19999999999
 21
9879.600000000001
 31
0.0
  0
TEXT
  5
17A4F
330
747D
100
AcDbEntity
  8
文字
 62
     7
 48
50.0
100
AcDbText
 10
13583.11819016569
 20
9910.01374588373
 30
0.0
 40
100.0
  1
梁中
  7
STYLE1
100
AcDbText
  0
TEXT
  5
17A50
330
747D
100
AcDbEntity
  8
文字
 62
     7
 48
50.0
100
AcDbText
 10
15022.63965474516
 20
9910.013745883727
 30
0.0
 40
100.0
  1
F12,Y10      1.2+1.6
  7
STYLE1
100
AcDbText
  0
TEXT
  5
17FEF
330
747D
100
AcDbEntity
  8
部品1
100
AcDbText
 10
5184.263788291653
 20
5847.315484750295
 30
0.0
 40
135.0
  1
平面図
  7
STYLE2
100
AcDbText
  0
LWPOLYLINE
  5
17FF0
330
747D
100
AcDbEntity
  8
部品1
100
AcDbPolyline
 90
        4
 70
     1
 43
0.0
 10
5094.344178462616
 20
6040.209013968819
 10
5094.344178462616
 20
5800.316692423287
 10
5857.814844691056
 20
5800.316692423287
 10
5857.814844691056
 20
6040.209013968819
  0
LINE
  5
17FF3
330
747D
100
AcDbEntity
  8
部品1
 48
50.0
100
AcDbLine
 10
7001.079511576827
 20
4771.931598713263
 30
0.0
 11
3951.079511576816
 21
4771.931598713265
 31
0.0
  0
LINE
  5
17FF4
330
747D
100
AcDbEntity
  8
細線
 48
50.0
100
AcDbLine
 10
6991.079511576827
 20
4792.704841276733
 30
0.0
 11
3941.079511576816
 21
4792.704841276732
 31
0.0
  0
LINE
  5
17FF5
330
747D
100
AcDbEntity
  8
細線
 48
50.0
100
AcDbLine
 10
6991.079511576827
 20
4884.904841276728
 30
0.0
 11
3941.079511576816
 21
4884.904841277102
 31
0.0
  0
LINE
  5
17FF6
330
747D
100
AcDbEntity
  8
部品1
 48
50.0
100
AcDbLine
 10
6991.079511576827
 20
4912.931598713261
 30
0.0
 11
3941.079511576816
 21
4912.931598713264
 31
0.0
  0
LINE
  5
1800D
330
747D
100
AcDbEntity
  8
部品1
100
AcDbLine
 10
901.0795115768027
 20
2537.931598713262
 30
0.0
 11
10051.07951157683
 21
2537.931598713262
 31
0.0
  0
DIMENSION
  5
18025
330
747D
100
AcDbEntity
  8
寸法
 48
50.0
100
AcDbDimension
  2
*D27
 10
10101.07951157684
 20
5346.378484445256
 30
0.0
 11
5476.079511576816
 21
5446.378484445256
 31
0.0
 70
    32
  1
N X 3050+100
 71
     5
 42
9250.000000000044
  3
INABA_S40G
100
AcDbAlignedDimension
 13
851.0795115767942
 23
4912.931598713267
 33
0.0
 14
10101.07951157684
 24
4912.931598713264
 34
0.0
100
AcDbRotatedDimension
  0
DIMENSION
  5
18026
330
747D
100
AcDbEntity
  8
寸法
 48
50.0
100
AcDbDimension
  2
*D28
 10
901.0795115767942
 20
5125.473183971506
 30
0.0
 11
5476.079511576794
 21
5225.473183971506
 31
0.0
 70
    32
  1
柱外寸法 N X 3050
 71
     5
 42
9150.0
  3
INABA_S40G
100
AcDbAlignedDimension
 13
10051.07951157679
 23
4925.852924535788
 33
0.0
 14
901.0795115767942
 24
4925.852924544255
 34
0.0
100
AcDbRotatedDimension
  0
LINE
  5
18032
330
747D
100
AcDbEntity
  8
部品1
 48
50.0
100
AcDbLine
 10
3951.079511576816
 20
4512.931598713261
 30
0.0
 11
3951.079511576816
 21
4771.931598713265
 31
0.0
  0
LINE
  5
18033
330
747D
100
AcDbEntity
  8
部品1
 48
50.0
100
AcDbLine
 10
3941.079511576816
 20
4771.931598713265
 30
0.0
 11
3941.079511576816
 21
4912.931598713264
 31
0.0
  0
LINE
  5
18034
330
747D
100
AcDbEntity
  8
部品1
100
AcDbLine
 10
263.8849467076543
 20
2567.835409280926
 30
0.0
 11
413.8849467076543
 21
2567.835409280926
 31
0.0
  0
LINE
  5
18035
330
747D
100
AcDbEntity
  8
部品1
100
AcDbLine
 10
338.8849467076543
 20
2437.931598713261
 30
0.0
 11
263.8849467076543
 21
2567.835409280926
 31
0.0
  0
TEXT
  5
18036
330
747D
100
AcDbEntity
  8
部品1
100
AcDbText
 10
441.9898888324278
 20
2474.038502319163
 30
0.0
 40
125.0
  1
G.L
  7
STYLE2
100
AcDbText
  0
LINE
  5
18037
330
747D
100
AcDbEntity
  8
部品1
100
AcDbLine
 10
413.8849467076543
 20
2567.835409280926
 30
0.0
 11
338.8849467076543
 21
2437.931598713261
 31
0.0
  0
LINE
  5
18038
330
747D
100
AcDbEntity
  8
部品1
100
AcDbLine
 10
901.0795115768015
 20
4677.931598713261
 30
0.0
 11
3951.079511576801
 21
4677.931598713261
 31
0.0
  0
LINE
  5
18039
330
747D
100
AcDbEntity
  8
部品1
100
AcDbLine
 10
901.0795115768015
 20
4771.931598713266
 30
0.0
 11
901.0795115768015
 21
2437.931598713261
 31
0.0
  0
LINE
  5
1803A
330
747D
100
AcDbEntity
  8
部品1
100
AcDbLine
 10
3896.079511576802
 20
4512.931598713263
 30
0.0
 11
3896.079511576798
 21
2537.931598713262
 31
0.0
  0
LINE
  5
1803B
330
747D
100
AcDbEntity
  8
部品1
100
AcDbLine
 10
956.0795115768014
 20
4512.931598713263
 30
0.0
 11
956.0795115768014
 21
2537.931598713262
 31
0.0
  0
LINE
  5
18042
330
747D
100
AcDbEntity
  8
部品1
100
AcDbLine
 10
1004.079511576801
 20
4512.931598713261
 30
0.0
 11
1004.079511576801
 21
2537.931598713262
 31
0.0
  0
LINE
  5
18044
330
747D
100
AcDbEntity
  8
部品1
100
AcDbLine
 10
3848.079511576802
 20
4512.931598713262
 30
0.0
 11
3848.079511576798
 21
2537.931598713262
 31
0.0
  0
LINE
  5
18046
330
747D
100
AcDbEntity
  8
部品1
100
AcDbLine
 10
901.0795115768015
 20
4512.931598713262
 30
0.0
 11
4006.079511576816
 21
4512.931598713262
 31
0.0
  0
LINE
  5
18047
330
747D
100
AcDbEntity
  8
細線
100
AcDbLine
 10
1004.079511576794
 20
4172.931598713261
 30
0.0
 11
3848.079511576798
 21
4172.931598713261
 31
0.0
  0
LINE
  5
18048
330
747D
100
AcDbEntity
  8
細線
100
AcDbLine
 10
1004.079511576794
 20
4237.931598713261
 30
0.0
 11
3848.079511576798
 21
4237.931598713261
 31
0.0
  0
LINE
  5
18049
330
747D
100
AcDbEntity
  8
細線
100
AcDbLine
 10
1004.079511576794
 20
4302.931598713261
 30
0.0
 11
3848.079511576798
 21
4302.931598713261
 31
0.0
  0
LINE
  5
1804A
330
747D
100
AcDbEntity
  8
細線
100
AcDbLine
 10
1004.079511576794
 20
3782.931598713262
 30
0.0
 11
3848.079511576798
 21
3782.931598713262
 31
0.0
  0
LINE
  5
1804B
330
747D
100
AcDbEntity
  8
細線
100
AcDbLine
 10
1004.079511576794
 20
3847.931598713262
 30
0.0
 11
3848.079511576798
 21
3847.931598713262
 31
0.0
  0
LINE
  5
1804C
330
747D
100
AcDbEntity
  8
細線
100
AcDbLine
 10
1004.079511576794
 20
3912.931598713262
 30
0.0
 11
3848.079511576798
 21
3912.931598713262
 31
0.0
  0
LINE
  5
1804D
330
747D
100
AcDbEntity
  8
細線
100
AcDbLine
 10
1004.079511576794
 20
3977.931598713261
 30
0.0
 11
3848.079511576798
 21
3977.931598713261
 31
0.0
  0
LINE
  5
1804E
330
747D
100
AcDbEntity
  8
細線
100
AcDbLine
 10
1004.079511576794
 20
4042.931598713261
 30
0.0
 11
3848.079511576798
 21
4042.931598713261
 31
0.0
  0
LINE
  5
1804F
330
747D
100
AcDbEntity
  8
細線
100
AcDbLine
 10
1004.079511576794
 20
4107.931598713261
 30
0.0
 11
3848.079511576798
 21
4107.931598713261
 31
0.0
  0
LINE
  5
18050
330
747D
100
AcDbEntity
  8
細線
100
AcDbLine
 10
1004.079511576794
 20
3132.931598713261
 30
0.0
 11
3848.079511576798
 21
3132.931598713261
 31
0.0
  0
LINE
  5
18051
330
747D
100
AcDbEntity
  8
細線
100
AcDbLine
 10
1004.079511576794
 20
3197.931598713262
 30
0.0
 11
3848.079511576798
 21
3197.931598713262
 31
0.0
  0
LINE
  5
18052
330
747D
100
AcDbEntity
  8
細線
100
AcDbLine
 10
1004.079511576794
 20
3262.931598713262
 30
0.0
 11
3848.079511576798
 21
3262.931598713262
 31
0.0
  0
LINE
  5
18053
330
747D
100
AcDbEntity
  8
細線
100
AcDbLine
 10
1004.079511576794
 20
3327.931598713262
 30
0.0
 11
3848.079511576798
 21
3327.931598713262
 31
0.0
  0
LINE
  5
18054
330
747D
100
AcDbEntity
  8
細線
100
AcDbLine
 10
1004.079511576794
 20
3392.931598713261
 30
0.0
 11
3848.079511576798
 21
3392.931598713261
 31
0.0
  0
LINE
  5
18055
330
747D
100
AcDbEntity
  8
細線
100
AcDbLine
 10
1004.079511576794
 20
3457.931598713262
 30
0.0
 11
3848.079511576798
 21
3457.931598713262
 31
0.0
  0
LINE
  5
18056
330
747D
100
AcDbEntity
  8
細線
100
AcDbLine
 10
1004.079511576794
 20
3522.931598713262
 30
0.0
 11
3848.079511576798
 21
3522.931598713262
 31
0.0
  0
LINE
  5
18057
330
747D
100
AcDbEntity
  8
細線
100
AcDbLine
 10
1004.079511576794
 20
3587.931598713261
 30
0.0
 11
3848.079511576798
 21
3587.931598713261
 31
0.0
  0
LINE
  5
18058
330
747D
100
AcDbEntity
  8
細線
100
AcDbLine
 10
1004.079511576794
 20
3652.931598713261
 30
0.0
 11
3848.079511576798
 21
3652.931598713261
 31
0.0
  0
LINE
  5
18059
330
747D
100
AcDbEntity
  8
細線
100
AcDbLine
 10
1004.079511576794
 20
3717.931598713261
 30
0.0
 11
3848.079511576798
 21
3717.931598713261
 31
0.0
  0
LINE
  5
1805A
330
747D
100
AcDbEntity
  8
細線
100
AcDbLine
 10
1004.079511576794
 20
4432.931598713262
 30
0.0
 11
3848.079511576798
 21
4432.931598713262
 31
0.0
  0
LINE
  5
1805B
330
747D
100
AcDbEntity
  8
細線
100
AcDbLine
 10
1004.079511576794
 20
4497.931598713261
 30
0.0
 11
3848.079511576798
 21
4497.931598713261
 31
0.0
  0
LINE
  5
1805C
330
747D
100
AcDbEntity
  8
細線
100
AcDbLine
 10
1004.079511576794
 20
4367.931598713261
 30
0.0
 11
3848.079511576798
 21
4367.931598713261
 31
0.0
  0
LINE
  5
1805D
330
747D
100
AcDbEntity
  8
細線
100
AcDbLine
 10
1004.079511576794
 20
2547.931598713262
 30
0.0
 11
3848.079511576798
 21
2547.931598713262
 31
0.0
  0
LINE
  5
1805E
330
747D
100
AcDbEntity
  8
細線
100
AcDbLine
 10
1004.079511576794
 20
2612.931598713262
 30
0.0
 11
3848.079511576798
 21
2612.931598713262
 31
0.0
  0
LINE
  5
1805F
330
747D
100
AcDbEntity
  8
細線
100
AcDbLine
 10
1004.079511576794
 20
2677.931598713261
 30
0.0
 11
3848.079511576798
 21
2677.931598713261
 31
0.0
  0
LINE
  5
18060
330
747D
100
AcDbEntity
  8
細線
100
AcDbLine
 10
1004.079511576794
 20
2742.931598713262
 30
0.0
 11
3848.079511576798
 21
2742.931598713262
 31
0.0
  0
LINE
  5
18061
330
747D
100
AcDbEntity
  8
細線
100
AcDbLine
 10
1004.079511576794
 20
2807.931598713262
 30
0.0
 11
3848.079511576798
 21
2807.931598713262
 31
0.0
  0
LINE
  5
18062
330
747D
100
AcDbEntity
  8
細線
100
AcDbLine
 10
1004.079511576794
 20
2872.931598713261
 30
0.0
 11
3848.079511576798
 21
2872.931598713261
 31
0.0
  0
LINE
  5
18063
330
747D
100
AcDbEntity
  8
細線
100
AcDbLine
 10
1004.079511576794
 20
2937.931598713261
 30
0.0
 11
3848.079511576798
 21
2937.931598713261
 31
0.0
  0
LINE
  5
18064
330
747D
100
AcDbEntity
  8
細線
100
AcDbLine
 10
1004.079511576794
 20
3002.931598713261
 30
0.0
 11
3848.079511576798
 21
3002.931598713261
 31
0.0
  0
LINE
  5
18065
330
747D
100
AcDbEntity
  8
細線
100
AcDbLine
 10
1004.079511576794
 20
3067.931598713262
 30
0.0
 11
3848.079511576798
 21
3067.931598713262
 31
0.0
  0
LINE
  5
18066
330
747D
100
AcDbEntity
  8
細線
100
AcDbLine
 10
3848.079511576802
 20
2547.931598713262
 30
0.0
 11
1004.079511576794
 21
2547.931598713262
 31
0.0
  0
CIRCLE
  5
18067
330
747D
100
AcDbEntity
  8
細線
 48
50.0
100
AcDbCircle
 10
2426.079511576798
 20
3425.431598713262
 30
0.0
 40
18.0
  0
ARC
  5
18068
330
747D
100
AcDbEntity
  8
細線
 48
50.0
100
AcDbCircle
 10
2726.079511576798
 20
3100.431598713262
 30
0.0
 40
15.0
100
AcDbArc
 50
270.0
 51
90.0
  0
ARC
  5
18069
330
747D
100
AcDbEntity
  8
細線
 48
50.0
100
AcDbCircle
 10
2626.079511576798
 20
3100.431598713262
 30
0.0
 40
15.0
100
AcDbArc
 50
90.0
 51
270.0
  0
LINE
  5
1806A
330
747D
100
AcDbEntity
  8
細線
 48
50.0
100
AcDbLine
 10
2626.079511576798
 20
3115.431598713261
 30
0.0
 11
2726.079511576798
 21
3115.431598713261
 31
0.0
  0
LINE
  5
1806B
330
747D
100
AcDbEntity
  8
細線
 48
50.0
100
AcDbLine
 10
2726.079511576798
 20
3085.431598713262
 30
0.0
 11
2626.079511576798
 21
3085.431598713262
 31
0.0
  0
LINE
  5
1806C
330
747D
100
AcDbEntity
  8
細線
 48
50.0
100
AcDbLine
 10
2226.079511576798
 20
3085.431598713262
 30
0.0
 11
2126.079511576798
 21
3085.431598713262
 31
0.0
  0
LINE
  5
1806D
330
747D
100
AcDbEntity
  8
細線
 48
50.0
100
AcDbLine
 10
2126.079511576798
 20
3115.431598713261
 30
0.0
 11
2226.079511576798
 21
3115.431598713261
 31
0.0
  0
ARC
  5
1806E
330
747D
100
AcDbEntity
  8
細線
 48
50.0
100
AcDbCircle
 10
2226.079511576798
 20
3100.431598713262
 30
0.0
 40
15.0
100
AcDbArc
 50
270.0
 51
90.0
  0
ARC
  5
1806F
330
747D
100
AcDbEntity
  8
細線
 48
50.0
100
AcDbCircle
 10
2126.079511576798
 20
3100.431598713262
 30
0.0
 40
15.0
100
AcDbArc
 50
90.0
 51
270.0
  0
DIMENSION
  5
18070
330
747D
100
AcDbEntity
  8
寸法
 48
50.0
100
AcDbDimension
  2
*D29
 10
851.0795115767942
 20
5125.473183971506
 30
0.0
 11
537.5942302025468
 21
5125.473183971506
 31
0.0
 70
   160
 71
     5
 42
50.0
  3
INABA_S40G
100
AcDbAlignedDimension
 13
901.0795115767942
 23
4912.931598713268
 33
0.0
 14
851.0795115767942
 24
4912.931598713267
 34
0.0
100
AcDbRotatedDimension
1001
ACAD
1000
DSTYLE
1002
{
1002
}
  0
LINE
  5
1809D
330
747D
100
AcDbEntity
  8
部品1
 48
50.0
100
AcDbLine
 10
3941.079511576816
 20
4912.931598713264
 30
0.0
 11
858.4879326832233
 21
4912.931598713264
 31
0.0
  0
LINE
  5
1809E
330
747D
100
AcDbEntity
  8
部品1
 48
50.0
100
AcDbLine
 10
3951.079511576816
 20
4771.931598713265
 30
0.0
 11
871.7032561442575
 21
4771.931598713265
 31
0.0
  0
LINE
  5
1809F
330
747D
100
AcDbEntity
  8
細線
 48
50.0
100
AcDbLine
 10
3941.079511576816
 20
4884.904841276732
 30
0.0
 11
853.2381625883935
 21
4884.904841277102
 31
0.0
  0
LINE
  5
180A0
330
747D
100
AcDbEntity
  8
細線
 48
50.0
100
AcDbLine
 10
3941.079511576816
 20
4792.704841276732
 30
0.0
 11
861.4741931132229
 21
4792.7048412771
 31
0.0
  0
LINE
  5
180A1
330
747D
100
AcDbEntity
  8
細線
 48
50.0
100
AcDbLine
 10
884.0795115767942
 20
4912.931598713265
 30
0.0
 11
884.0795115767942
 21
4771.931598713265
 31
0.0
  0
ARC
  5
180A2
330
747D
100
AcDbEntity
  8
部品1
100
AcDbCircle
 10
858.4879326832233
 20
4905.931598713265
 30
0.0
 40
7.0
100
AcDbArc
 50
90.0
 51
183.2473427903377
  0
ARC
  5
180A3
330
747D
100
AcDbEntity
  8
部品1
100
AcDbCircle
 10
871.7032561442575
 20
4778.931598713266
 30
0.0
 40
7.0
100
AcDbArc
 50
183.2473427903377
 51
270.0
  0
ARC
  5
180A4
330
747D
100
AcDbEntity
  8
部品1
 48
50.0
100
AcDbCircle
 10
853.3314459335816
 20
4885.598597874952
 30
0.0
 40
0.7
100
AcDbArc
 50
183.2473427903897
 51
262.3418727926349
  0
ARC
  5
180A5
330
747D
100
AcDbEntity
  8
部品1
 48
50.0
100
AcDbCircle
 10
861.5674764584218
 20
4793.398597874948
 30
0.0
 40
0.7
100
AcDbArc
 50
183.2473427902856
 51
262.3418727926349
  0
ARC
  5
180A6
330
747D
100
AcDbEntity
  8
部品1
 48
50.0
100
AcDbCircle
 10
861.0744073498608
 20
4789.731598713264
 30
0.0
 40
3.0
100
AcDbArc
 50
3.247342790337682
 51
82.3418727926348
  0
ARC
  5
180A7
330
747D
100
AcDbEntity
  8
部品1
 48
50.0
100
AcDbCircle
 10
852.8383768250169
 20
4881.931598713267
 30
0.0
 40
3.0
100
AcDbArc
 50
3.247342790337682
 51
82.3418727926348
  0
LINE
  5
180A8
330
747D
100
AcDbEntity
  8
部品1
100
AcDbLine
 10
855.8335597212026
 20
4882.101538168369
 30
0.0
 11
860.8686004493138
 21
4793.358945335425
 31
0.0
  0
LINE
  5
180A9
330
747D
100
AcDbEntity
  8
部品1
100
AcDbLine
 10
864.0695902460501
 20
4789.901538168368
 30
0.0
 11
864.7144960531587
 21
4778.535073318027
 31
0.0
  0
LINE
  5
180AA
330
747D
100
AcDbEntity
  8
部品1
100
AcDbLine
 10
851.4991725921245
 20
4905.535073318026
 30
0.0
 11
852.6325699244734
 21
4885.558945335426
 31
0.0
  0
TEXT
  5
180AC
330
747D
100
AcDbEntity
  8
部品1
100
AcDbText
 10
5184.86958220055
 20
1595.038069494738
 30
0.0
 40
135.0
  1
正面図
  7
STYLE2
100
AcDbText
  0
LWPOLYLINE
  5
180AD
330
747D
100
AcDbEntity
  8
部品1
100
AcDbPolyline
 90
        4
 70
     1
 43
0.0
 10
5094.344178462598
 20
1787.931598713261
 10
5094.344178462598
 20
1548.039277167729
 10
5857.814844691034
 20
1548.039277167729
 10
5857.814844691034
 20
1787.931598713261
  0
LINE
  5
1816A
330
747D
100
AcDbEntity
  8
部品1
100
AcDbLine
 10
6898.079511576816
 20
4512.931598713262
 30
0.0
 11
6898.079511576813
 21
2537.931598713262
 31
0.0
  0
LINE
  5
1816B
330
747D
100
AcDbEntity
  8
部品1
100
AcDbLine
 10
4054.079511576816
 20
4512.931598713261
 30
0.0
 11
4054.079511576816
 21
2537.931598713262
 31
0.0
  0
LINE
  5
1816C
330
747D
100
AcDbEntity
  8
部品1
100
AcDbLine
 10
4006.079511576817
 20
4512.931598713263
 30
0.0
 11
4006.079511576816
 21
2537.931598713262
 31
0.0
  0
LINE
  5
1816D
330
747D
100
AcDbEntity
  8
部品1
100
AcDbLine
 10
6946.079511576813
 20
4512.931598713263
 30
0.0
 11
6946.079511576812
 21
2537.931598713262
 31
0.0
  0
LINE
  5
1816E
330
747D
100
AcDbEntity
  8
部品1
100
AcDbLine
 10
3951.079511576816
 20
4677.931598713261
 30
0.0
 11
7001.079511576827
 21
4677.931598713261
 31
0.0
  0
LINE
  5
18170
330
747D
100
AcDbEntity
  8
部品1
100
AcDbLine
 10
7001.079511576827
 20
4677.931598713261
 30
0.0
 11
10051.07951157683
 21
4677.931598713261
 31
0.0
  0
LINE
  5
18171
330
747D
100
AcDbEntity
  8
部品1
100
AcDbLine
 10
9996.07951157683
 20
4512.931598713263
 30
0.0
 11
9996.079511576828
 21
2537.931598713262
 31
0.0
  0
LINE
  5
18172
330
747D
100
AcDbEntity
  8
部品1
100
AcDbLine
 10
7056.079511576829
 20
4512.931598713263
 30
0.0
 11
7056.079511576827
 21
2537.931598713262
 31
0.0
  0
LINE
  5
18173
330
747D
100
AcDbEntity
  8
部品1
100
AcDbLine
 10
10051.07951157683
 20
4771.931598713266
 30
0.0
 11
10051.07951157683
 21
2437.931598713261
 31
0.0
  0
LINE
  5
1817B
330
747D
100
AcDbEntity
  8
部品1
100
AcDbLine
 10
7104.079511576827
 20
4512.931598713261
 30
0.0
 11
7104.079511576827
 21
2537.931598713262
 31
0.0
  0
LINE
  5
1817C
330
747D
100
AcDbEntity
  8
部品1
100
AcDbLine
 10
9948.07951157683
 20
4512.931598713262
 30
0.0
 11
9948.079511576828
 21
2537.931598713262
 31
0.0
  0
LINE
  5
1817F
330
747D
100
AcDbEntity
  8
部品1
100
AcDbLine
 10
7056.079511576827
 20
4512.931598713261
 30
0.0
 11
10051.07951157683
 21
4512.931598713262
 31
0.0
  0
LINE
  5
18180
330
747D
100
AcDbEntity
  8
細線
100
AcDbLine
 10
7104.079511576827
 20
4172.931598713261
 30
0.0
 11
9948.079511576828
 21
4172.931598713261
 31
0.0
  0
LINE
  5
18181
330
747D
100
AcDbEntity
  8
細線
100
AcDbLine
 10
7104.079511576827
 20
4237.931598713261
 30
0.0
 11
9948.079511576828
 21
4237.931598713261
 31
0.0
  0
LINE
  5
18182
330
747D
100
AcDbEntity
  8
細線
100
AcDbLine
 10
7104.079511576827
 20
4302.931598713261
 30
0.0
 11
9948.079511576828
 21
4302.931598713261
 31
0.0
  0
LINE
  5
18183
330
747D
100
AcDbEntity
  8
細線
100
AcDbLine
 10
7104.079511576827
 20
3782.931598713262
 30
0.0
 11
9948.079511576828
 21
3782.931598713262
 31
0.0
  0
LINE
  5
18184
330
747D
100
AcDbEntity
  8
細線
100
AcDbLine
 10
7104.079511576827
 20
3847.931598713262
 30
0.0
 11
9948.079511576828
 21
3847.931598713262
 31
0.0
  0
LINE
  5
18185
330
747D
100
AcDbEntity
  8
細線
100
AcDbLine
 10
7104.079511576827
 20
3912.931598713262
 30
0.0
 11
9948.079511576828
 21
3912.931598713262
 31
0.0
  0
LINE
  5
18186
330
747D
100
AcDbEntity
  8
細線
100
AcDbLine
 10
7104.079511576827
 20
3977.931598713261
 30
0.0
 11
9948.079511576828
 21
3977.931598713261
 31
0.0
  0
LINE
  5
18187
330
747D
100
AcDbEntity
  8
細線
100
AcDbLine
 10
7104.079511576827
 20
4042.931598713261
 30
0.0
 11
9948.079511576828
 21
4042.931598713261
 31
0.0
  0
LINE
  5
18188
330
747D
100
AcDbEntity
  8
細線
100
AcDbLine
 10
7104.079511576827
 20
4107.931598713261
 30
0.0
 11
9948.079511576828
 21
4107.931598713261
 31
0.0
  0
LINE
  5
18189
330
747D
100
AcDbEntity
  8
細線
100
AcDbLine
 10
7104.079511576827
 20
3132.931598713261
 30
0.0
 11
9948.079511576828
 21
3132.931598713261
 31
0.0
  0
LINE
  5
1818A
330
747D
100
AcDbEntity
  8
細線
100
AcDbLine
 10
7104.079511576827
 20
3197.931598713262
 30
0.0
 11
9948.079511576828
 21
3197.931598713262
 31
0.0
  0
LINE
  5
1818B
330
747D
100
AcDbEntity
  8
細線
100
AcDbLine
 10
7104.079511576827
 20
3262.931598713262
 30
0.0
 11
9948.079511576828
 21
3262.931598713262
 31
0.0
  0
LINE
  5
1818C
330
747D
100
AcDbEntity
  8
細線
100
AcDbLine
 10
7104.079511576827
 20
3327.931598713262
 30
0.0
 11
9948.079511576828
 21
3327.931598713262
 31
0.0
  0
LINE
  5
1818D
330
747D
100
AcDbEntity
  8
細線
100
AcDbLine
 10
7104.079511576827
 20
3392.931598713261
 30
0.0
 11
9948.079511576828
 21
3392.931598713261
 31
0.0
  0
LINE
  5
1818E
330
747D
100
AcDbEntity
  8
細線
100
AcDbLine
 10
7104.079511576827
 20
3457.931598713262
 30
0.0
 11
9948.079511576828
 21
3457.931598713262
 31
0.0
  0
LINE
  5
1818F
330
747D
100
AcDbEntity
  8
細線
100
AcDbLine
 10
7104.079511576827
 20
3522.931598713262
 30
0.0
 11
9948.079511576828
 21
3522.931598713262
 31
0.0
  0
LINE
  5
18190
330
747D
100
AcDbEntity
  8
細線
100
AcDbLine
 10
7104.079511576827
 20
3587.931598713261
 30
0.0
 11
9948.079511576828
 21
3587.931598713261
 31
0.0
  0
LINE
  5
18191
330
747D
100
AcDbEntity
  8
細線
100
AcDbLine
 10
7104.079511576827
 20
3652.931598713261
 30
0.0
 11
9948.079511576828
 21
3652.931598713261
 31
0.0
  0
LINE
  5
18192
330
747D
100
AcDbEntity
  8
細線
100
AcDbLine
 10
7104.079511576827
 20
3717.931598713261
 30
0.0
 11
9948.079511576828
 21
3717.931598713261
 31
0.0
  0
LINE
  5
18193
330
747D
100
AcDbEntity
  8
細線
100
AcDbLine
 10
7104.079511576827
 20
4432.931598713262
 30
0.0
 11
9948.079511576828
 21
4432.931598713262
 31
0.0
  0
LINE
  5
18194
330
747D
100
AcDbEntity
  8
細線
100
AcDbLine
 10
7104.079511576827
 20
4497.931598713261
 30
0.0
 11
9948.079511576828
 21
4497.931598713261
 31
0.0
  0
LINE
  5
18195
330
747D
100
AcDbEntity
  8
細線
100
AcDbLine
 10
7104.079511576827
 20
4367.931598713261
 30
0.0
 11
9948.079511576828
 21
4367.931598713261
 31
0.0
  0
LINE
  5
18196
330
747D
100
AcDbEntity
  8
細線
100
AcDbLine
 10
7104.079511576827
 20
2547.931598713262
 30
0.0
 11
9948.079511576828
 21
2547.931598713262
 31
0.0
  0
LINE
  5
18197
330
747D
100
AcDbEntity
  8
細線
100
AcDbLine
 10
7104.079511576827
 20
2612.931598713262
 30
0.0
 11
9948.079511576828
 21
2612.931598713262
 31
0.0
  0
LINE
  5
18198
330
747D
100
AcDbEntity
  8
細線
100
AcDbLine
 10
7104.079511576827
 20
2677.931598713261
 30
0.0
 11
9948.079511576828
 21
2677.931598713261
 31
0.0
  0
LINE
  5
18199
330
747D
100
AcDbEntity
  8
細線
100
AcDbLine
 10
7104.079511576827
 20
2742.931598713262
 30
0.0
 11
9948.079511576828
 21
2742.931598713262
 31
0.0
  0
LINE
  5
1819A
330
747D
100
AcDbEntity
  8
細線
100
AcDbLine
 10
7104.079511576827
 20
2807.931598713262
 30
0.0
 11
9948.079511576828
 21
2807.931598713262
 31
0.0
  0
LINE
  5
1819B
330
747D
100
AcDbEntity
  8
細線
100
AcDbLine
 10
7104.079511576827
 20
2872.931598713261
 30
0.0
 11
9948.079511576828
 21
2872.931598713261
 31
0.0
  0
LINE
  5
1819C
330
747D
100
AcDbEntity
  8
細線
100
AcDbLine
 10
7104.079511576827
 20
2937.931598713261
 30
0.0
 11
9948.079511576828
 21
2937.931598713261
 31
0.0
  0
LINE
  5
1819D
330
747D
100
AcDbEntity
  8
細線
100
AcDbLine
 10
7104.079511576827
 20
3002.931598713261
 30
0.0
 11
9948.079511576828
 21
3002.931598713261
 31
0.0
  0
LINE
  5
1819E
330
747D
100
AcDbEntity
  8
細線
100
AcDbLine
 10
7104.079511576827
 20
3067.931598713262
 30
0.0
 11
9948.079511576828
 21
3067.931598713262
 31
0.0
  0
LINE
  5
1819F
330
747D
100
AcDbEntity
  8
細線
100
AcDbLine
 10
9948.079511576828
 20
2547.931598713262
 30
0.0
 11
7104.079511576824
 21
2547.931598713262
 31
0.0
  0
CIRCLE
  5
181A3
330
747D
100
AcDbEntity
  8
細線
 48
50.0
100
AcDbCircle
 10
8526.079511576828
 20
3425.431598713262
 30
0.0
 40
18.0
  0
ARC
  5
181A4
330
747D
100
AcDbEntity
  8
細線
 48
50.0
100
AcDbCircle
 10
8826.079511576827
 20
3100.431598713262
 30
0.0
 40
15.0
100
AcDbArc
 50
270.0
 51
90.0
  0
ARC
  5
181A5
330
747D
100
AcDbEntity
  8
細線
 48
50.0
100
AcDbCircle
 10
8726.079511576827
 20
3100.431598713262
 30
0.0
 40
15.0
100
AcDbArc
 50
90.0
 51
270.0
  0
LINE
  5
181A6
330
747D
100
AcDbEntity
  8
細線
 48
50.0
100
AcDbLine
 10
8726.079511576827
 20
3115.431598713261
 30
0.0
 11
8826.079511576827
 21
3115.431598713261
 31
0.0
  0
LINE
  5
181A7
330
747D
100
AcDbEntity
  8
細線
 48
50.0
100
AcDbLine
 10
8826.079511576827
 20
3085.431598713262
 30
0.0
 11
8726.079511576827
 21
3085.431598713262
 31
0.0
  0
LINE
  5
181A8
330
747D
100
AcDbEntity
  8
細線
 48
50.0
100
AcDbLine
 10
8326.079511576827
 20
3085.431598713262
 30
0.0
 11
8226.079511576827
 21
3085.431598713262
 31
0.0
  0
LINE
  5
181A9
330
747D
100
AcDbEntity
  8
細線
 48
50.0
100
AcDbLine
 10
8226.079511576827
 20
3115.431598713261
 30
0.0
 11
8326.079511576827
 21
3115.431598713261
 31
0.0
  0
ARC
  5
181AA
330
747D
100
AcDbEntity
  8
細線
 48
50.0
100
AcDbCircle
 10
8326.079511576827
 20
3100.431598713262
 30
0.0
 40
15.0
100
AcDbArc
 50
270.0
 51
90.0
  0
ARC
  5
181AB
330
747D
100
AcDbEntity
  8
細線
 48
50.0
100
AcDbCircle
 10
8226.079511576827
 20
3100.431598713262
 30
0.0
 40
15.0
100
AcDbArc
 50
90.0
 51
270.0
  0
DIMENSION
  5
181AC
330
747D
100
AcDbEntity
  8
寸法
 48
50.0
100
AcDbDimension
  2
*D26
 10
10051.07951157684
 20
5125.473183971505
 30
0.0
 11
10414.56479295107
 21
5125.473183971505
 31
0.0
 70
   160
 71
     5
 42
50.0
  3
INABA_S40G
100
AcDbAlignedDimension
 13
10101.07951157684
 23
4912.931598713264
 33
0.0
 14
10051.07951157684
 24
4912.931598713266
 34
0.0
100
AcDbRotatedDimension
  0
LINE
  5
181D9
330
747D
100
AcDbEntity
  8
部品1
 48
50.0
100
AcDbLine
 10
10093.6710904704
 20
4912.931598713264
 30
0.0
 11
6991.079511576827
 21
4912.931598713264
 31
0.0
  0
LINE
  5
181DA
330
747D
100
AcDbEntity
  8
部品1
 48
50.0
100
AcDbLine
 10
10080.45576700937
 20
4771.931598713265
 30
0.0
 11
7001.079511576827
 21
4771.931598713265
 31
0.0
  0
LINE
  5
181DB
330
747D
100
AcDbEntity
  8
細線
 48
50.0
100
AcDbLine
 10
10098.92086056492
 20
4884.904841276732
 30
0.0
 11
6991.079511576827
 21
4884.904841276739
 31
0.0
  0
LINE
  5
181DC
330
747D
100
AcDbEntity
  8
細線
 48
50.0
100
AcDbLine
 10
10090.68483004007
 20
4792.704841276732
 30
0.0
 11
6991.079511576827
 21
4792.704841277097
 31
0.0
  0
LINE
  5
181DD
330
747D
100
AcDbEntity
  8
部品1
100
AcDbLine
 10
10100.6598505615
 20
4905.535073318024
 30
0.0
 11
10099.52645322916
 21
4885.558945335425
 31
0.0
  0
LINE
  5
181DE
330
747D
100
AcDbEntity
  8
細線
 48
50.0
100
AcDbLine
 10
10068.07951157683
 20
4912.931598713264
 30
0.0
 11
10068.07951157683
 21
4771.931598713264
 31
0.0
  0
LINE
  5
181DF
330
747D
100
AcDbEntity
  8
部品1
100
AcDbLine
 10
10088.08943290758
 20
4789.901538168367
 30
0.0
 11
10087.44452710047
 21
4778.535073318026
 31
0.0
  0
LINE
  5
181E0
330
747D
100
AcDbEntity
  8
部品1
100
AcDbLine
 10
10096.32546343242
 20
4882.101538168367
 30
0.0
 11
10091.29042270431
 21
4793.358945335424
 31
0.0
  0
ARC
  5
181E1
330
747D
100
AcDbEntity
  8
部品1
 48
50.0
100
AcDbCircle
 10
10099.32064632861
 20
4881.931598713266
 30
0.0
 40
3.0
100
AcDbArc
 50
97.65812720736519
 51
176.7526572096623
  0
ARC
  5
181E2
330
747D
100
AcDbEntity
  8
部品1
 48
50.0
100
AcDbCircle
 10
10091.08461580376
 20
4789.731598713263
 30
0.0
 40
3.0
100
AcDbArc
 50
97.65812720736519
 51
176.7526572096623
  0
ARC
  5
181E3
330
747D
100
AcDbEntity
  8
部品1
 48
50.0
100
AcDbCircle
 10
10090.5915466952
 20
4793.398597874946
 30
0.0
 40
0.7
100
AcDbArc
 50
277.6581272073652
 51
356.7526572097143
  0
ARC
  5
181E4
330
747D
100
AcDbEntity
  8
部品1
 48
50.0
100
AcDbCircle
 10
10098.82757722005
 20
4885.598597874952
 30
0.0
 40
0.7
100
AcDbArc
 50
277.6581272073652
 51
356.7526572096103
  0
ARC
  5
181E5
330
747D
100
AcDbEntity
  8
部品1
100
AcDbCircle
 10
10080.45576700937
 20
4778.931598713266
 30
0.0
 40
7.0
100
AcDbArc
 50
270.0
 51
356.7526572096623
  0
ARC
  5
181E6
330
747D
100
AcDbEntity
  8
部品1
100
AcDbCircle
 10
10093.6710904704
 20
4905.931598713264
 30
0.0
 40
7.0
100
AcDbArc
 50
356.7526572096623
 51
90.0
  0
LINE
  5
181E7
330
747D
100
AcDbEntity
  8
部品1
 48
50.0
100
AcDbLine
 10
6991.079511576827
 20
4771.931598713265
 30
0.0
 11
6991.079511576827
 21
4912.931598713264
 31
0.0
  0
LINE
  5
181E8
330
747D
100
AcDbEntity
  8
部品1
 48
50.0
100
AcDbLine
 10
7001.079511576826
 20
4512.931598713262
 30
0.0
 11
7001.079511576827
 21
4771.931598713265
 31
0.0
  0
TEXT
  5
18AE4
330
747D
100
AcDbEntity
  8
部品1
100
AcDbText
 10
13564.92494000074
 20
1595.038069494738
 30
0.0
 40
135.0
  1
側面図
  7
STYLE2
100
AcDbText
  0
LWPOLYLINE
  5
18AE5
330
747D
100
AcDbEntity
  8
部品1
100
AcDbPolyline
 90
        4
 70
     1
 43
0.0
 10
13475.47883857713
 20
1787.931598713261
 10
13475.47883857713
 20
1548.039277167729
 10
14238.94950480557
 20
1548.039277167729
 10
14238.94950480557
 20
1787.931598713261
  0
LINE
  5
18AE6
330
747D
100
AcDbEntity
  8
部品1
100
AcDbLine
 10
14907.21417169134
 20
4677.931598713263
 30
0.0
 11
14907.21417169134
 21
2587.931598713265
 31
0.0
  0
LINE
  5
18AE7
330
747D
100
AcDbEntity
  8
細線
 48
50.0
100
AcDbLine
 10
14829.71417169135
 20
4677.931598713261
 30
0.0
 11
14829.71417169135
 21
2587.931598713263
 31
0.0
  0
LINE
  5
18AE8
330
747D
100
AcDbEntity
  8
細線
 48
50.0
100
AcDbLine
 10
14844.71417169135
 20
4677.931598713261
 30
0.0
 11
14844.71417169135
 21
2587.931598713263
 31
0.0
  0
LINE
  5
18AE9
330
747D
100
AcDbEntity
  8
細線
 48
50.0
100
AcDbLine
 10
14704.71417169135
 20
4677.931598713261
 30
0.0
 11
14704.71417169135
 21
2587.931598713263
 31
0.0
  0
LINE
  5
18AEA
330
747D
100
AcDbEntity
  8
細線
 48
50.0
100
AcDbLine
 10
14689.71417169136
 20
4677.931598713261
 30
0.0
 11
14689.71417169136
 21
2587.931598713263
 31
0.0
  0
LINE
  5
18AEB
330
747D
100
AcDbEntity
  8
細線
 48
50.0
100
AcDbLine
 10
14549.71417169136
 20
4677.931598713261
 30
0.0
 11
14549.71417169136
 21
2587.931598713263
 31
0.0
  0
LINE
  5
18AEC
330
747D
100
AcDbEntity
  8
細線
 48
50.0
100
AcDbLine
 10
14564.71417169136
 20
4677.931598713261
 30
0.0
 11
14564.71417169136
 21
2587.931598713263
 31
0.0
  0
LINE
  5
18AED
330
747D
100
AcDbEntity
  8
部品1
100
AcDbLine
 10
14487.21417169135
 20
4677.931598713261
 30
0.0
 11
14487.21417169135
 21
2587.931598713263
 31
0.0
  0
DIMENSION
  5
18AEE
330
747D
100
AcDbEntity
  8
寸法
 48
50.0
100
AcDbDimension
  2
*D30
 10
11711.60576492298
 20
4787.276857586593
 30
0.0
 11
11722.2712401819
 21
5158.123520828293
 31
0.0
 70
   161
 71
     5
 42
141.0000000000009
  3
INABA_S40G
100
AcDbAlignedDimension
 13
12291.61019184993
 23
4911.654347547941
 33
0.0
 14
12287.55673629331
 24
4770.712623782229
 34
0.0
1001
ACAD
1000
DSTYLE
1002
{
1070
   174
1070
     0
1070
   272
1070
     1
1070
   288
1070
     0
1070
   341
1005
0
1002
}
  0
LINE
  5
18AEF
330
747D
100
AcDbEntity
  8
細線
 48
50.0
100
AcDbLine
 10
15249.71417169135
 20
4677.931598713263
 30
0.0
 11
15249.71417169135
 21
2587.931598713264
 31
0.0
  0
LINE
  5
18AF0
330
747D
100
AcDbEntity
  8
細線
 48
50.0
100
AcDbLine
 10
15264.71417169136
 20
4677.931598713263
 30
0.0
 11
15264.71417169136
 21
2587.931598713264
 31
0.0
  0
LINE
  5
18AF1
330
747D
100
AcDbEntity
  8
細線
 48
50.0
100
AcDbLine
 10
15124.71417169136
 20
4677.931598713263
 30
0.0
 11
15124.71417169136
 21
2587.931598713264
 31
0.0
  0
LINE
  5
18AF2
330
747D
100
AcDbEntity
  8
細線
 48
50.0
100
AcDbLine
 10
15109.71417169136
 20
4677.931598713263
 30
0.0
 11
15109.71417169136
 21
2587.931598713264
 31
0.0
  0
LINE
  5
18AF3
330
747D
100
AcDbEntity
  8
細線
 48
50.0
100
AcDbLine
 10
14969.71417169135
 20
4677.931598713263
 30
0.0
 11
14969.71417169135
 21
2587.931598713264
 31
0.0
  0
LINE
  5
18AF4
330
747D
100
AcDbEntity
  8
細線
 48
50.0
100
AcDbLine
 10
14984.71417169136
 20
4677.931598713263
 30
0.0
 11
14984.71417169136
 21
2587.931598713264
 31
0.0
  0
LINE
  5
18AF5
330
747D
100
AcDbEntity
  8
部品1
100
AcDbLine
 10
13647.21417169135
 20
4677.931598713261
 30
0.0
 11
13647.21417169135
 21
2587.931598713261
 31
0.0
  0
LINE
  5
18AF6
330
747D
100
AcDbEntity
  8
細線
 48
50.0
100
AcDbLine
 10
13304.71417169136
 20
4677.931598713261
 30
0.0
 11
13304.71417169136
 21
2587.931598713261
 31
0.0
  0
LINE
  5
18AF7
330
747D
100
AcDbEntity
  8
細線
 48
50.0
100
AcDbLine
 10
13289.71417169136
 20
4677.931598713261
 30
0.0
 11
13289.71417169136
 21
2587.931598713261
 31
0.0
  0
LINE
  5
18AF8
330
747D
100
AcDbEntity
  8
細線
 48
50.0
100
AcDbLine
 10
13429.71417169136
 20
4677.931598713261
 30
0.0
 11
13429.71417169136
 21
2587.931598713261
 31
0.0
  0
LINE
  5
18AF9
330
747D
100
AcDbEntity
  8
細線
 48
50.0
100
AcDbLine
 10
13444.71417169136
 20
4677.931598713261
 30
0.0
 11
13444.71417169136
 21
2587.931598713261
 31
0.0
  0
LINE
  5
18AFA
330
747D
100
AcDbEntity
  8
細線
 48
50.0
100
AcDbLine
 10
13584.71417169136
 20
4677.931598713261
 30
0.0
 11
13584.71417169136
 21
2587.931598713261
 31
0.0
  0
LINE
  5
18AFB
330
747D
100
AcDbEntity
  8
細線
 48
50.0
100
AcDbLine
 10
13569.71417169136
 20
4677.931598713261
 30
0.0
 11
13569.71417169136
 21
2587.931598713261
 31
0.0
  0
LINE
  5
18AFC
330
747D
100
AcDbEntity
  8
部品1
100
AcDbLine
 10
13227.21417169135
 20
4677.931598713261
 30
0.0
 11
13227.21417169135
 21
2587.931598713261
 31
0.0
  0
DIMENSION
  5
18AFD
330
747D
100
AcDbEntity
  8
寸法
 48
50.0
100
AcDbDimension
  2
*D31
 10
15462.21417169135
 20
5311.589052292568
 30
0.0
 11
15668.26141578585
 21
5311.589052292568
 31
0.0
 70
   160
 71
     5
 42
80.0
  3
INABA_S40G
100
AcDbAlignedDimension
 13
15382.21417169135
 23
4859.742278324916
 33
0.0
 14
15462.21417169135
 24
4857.931598713265
 34
0.0
100
AcDbRotatedDimension
1001
ACAD
1000
DSTYLE
1002
{
1070
   174
1070
     0
1070
   272
1070
     1
1070
   288
1070
     0
1070
   341
1005
0
1002
}
  0
LINE
  5
18AFE
330
747D
100
AcDbEntity
  8
細線
 48
50.0
100
AcDbLine
 10
12464.71417169136
 20
4677.931598713261
 30
0.0
 11
12464.71417169136
 21
2587.931598713261
 31
0.0
  0
LINE
  5
18AFF
330
747D
100
AcDbEntity
  8
細線
 48
50.0
100
AcDbLine
 10
12449.71417169135
 20
4677.931598713261
 30
0.0
 11
12449.71417169135
 21
2587.931598713261
 31
0.0
  0
LINE
  5
18B00
330
747D
100
AcDbEntity
  8
細線
 48
50.0
100
AcDbLine
 10
12589.71417169135
 20
4677.931598713261
 30
0.0
 11
12589.71417169135
 21
2587.931598713261
 31
0.0
  0
LINE
  5
18B01
330
747D
100
AcDbEntity
  8
細線
 48
50.0
100
AcDbLine
 10
12604.71417169136
 20
4677.931598713261
 30
0.0
 11
12604.71417169136
 21
2587.931598713261
 31
0.0
  0
LINE
  5
18B02
330
747D
100
AcDbEntity
  8
細線
 48
50.0
100
AcDbLine
 10
12744.71417169136
 20
4677.931598713261
 30
0.0
 11
12744.71417169136
 21
2587.931598713261
 31
0.0
  0
LINE
  5
18B03
330
747D
100
AcDbEntity
  8
細線
 48
50.0
100
AcDbLine
 10
12729.71417169135
 20
4677.931598713261
 30
0.0
 11
12729.71417169135
 21
2587.931598713261
 31
0.0
  0
LINE
  5
18B04
330
747D
100
AcDbEntity
  8
細線
 48
50.0
100
AcDbLine
 10
13149.71417169136
 20
4677.931598713261
 30
0.0
 11
13149.71417169136
 21
2587.931598713261
 31
0.0
  0
LINE
  5
18B05
330
747D
100
AcDbEntity
  8
細線
 48
50.0
100
AcDbLine
 10
13164.71417169136
 20
4677.931598713261
 30
0.0
 11
13164.71417169136
 21
2587.931598713261
 31
0.0
  0
LINE
  5
18B06
330
747D
100
AcDbEntity
  8
細線
 48
50.0
100
AcDbLine
 10
13024.71417169136
 20
4677.931598713261
 30
0.0
 11
13024.71417169136
 21
2587.931598713261
 31
0.0
  0
LINE
  5
18B07
330
747D
100
AcDbEntity
  8
細線
 48
50.0
100
AcDbLine
 10
13009.71417169136
 20
4677.931598713261
 30
0.0
 11
13009.71417169136
 21
2587.931598713261
 31
0.0
  0
LINE
  5
18B08
330
747D
100
AcDbEntity
  8
細線
 48
50.0
100
AcDbLine
 10
12869.71417169135
 20
4677.931598713261
 30
0.0
 11
12869.71417169135
 21
2587.931598713261
 31
0.0
  0
LINE
  5
18B09
330
747D
100
AcDbEntity
  8
細線
 48
50.0
100
AcDbLine
 10
12884.71417169136
 20
4677.931598713261
 30
0.0
 11
12884.71417169136
 21
2587.931598713261
 31
0.0
  0
LINE
  5
18B0A
330
747D
100
AcDbEntity
  8
部品1
100
AcDbLine
 10
12387.21417169136
 20
2537.931598713262
 30
0.0
 11
15382.21417169135
 21
2537.931598713262
 31
0.0
  0
DIMENSION
  5
18B0B
330
747D
100
AcDbEntity
  8
寸法
 48
50.0
100
AcDbDimension
  2
*D32
 10
12272.21417169136
 20
5541.702645078843
 30
0.0
 11
13867.21417169136
 21
5541.702645078843
 31
0.0
 70
   160
 71
     5
 42
3190.0
  3
INABA_S40G
100
AcDbAlignedDimension
 13
15462.21417169135
 23
4857.931598713263
 33
0.0
 14
12272.21417169136
 24
4912.931598713266
 34
0.0
100
AcDbRotatedDimension
1001
ACAD
1000
DSTYLE
1002
{
1070
   174
1070
     0
1070
   272
1070
     1
1070
   288
1070
     0
1070
   341
1005
0
1002
}
  0
DIMENSION
  5
18B0C
330
747D
100
AcDbEntity
  8
寸法
 48
50.0
100
AcDbDimension
  2
*D33
 10
12272.21417169136
 20
5311.589052292566
 30
0.0
 11
11962.57637641576
 21
5311.589052292566
 31
0.0
 70
   160
 71
     5
 42
60.0
  3
INABA_S40G
100
AcDbAlignedDimension
 13
12332.21417169136
 23
4908.933216836238
 33
0.0
 14
12272.21417169136
 24
4912.931598713266
 34
0.0
100
AcDbRotatedDimension
1001
ACAD
1000
DSTYLE
1002
{
1070
   174
1070
     0
1070
   272
1070
     1
1070
   288
1070
     0
1070
   341
1005
0
1002
}
  0
DIMENSION
  5
18B0D
330
747D
100
AcDbEntity
  8
寸法
 48
50.0
100
AcDbDimension
  2
*D34
 10
12332.21417169136
 20
5311.589052292568
 30
0.0
 11
13857.21417169136
 21
5311.589052292568
 31
0.0
 70
   160
  1
柱外寸法<>
 71
     5
 42
3050.0
  3
INABA_S40G
100
AcDbAlignedDimension
 13
15382.21417169135
 23
4859.742278324916
 33
0.0
 14
12332.21417169136
 24
4908.933216836238
 34
0.0
100
AcDbRotatedDimension
1001
ACAD
1000
DSTYLE
1002
{
1070
   174
1070
     0
1070
   272
1070
     1
1070
   288
1070
     0
1070
   341
1005
0
1002
}
  0
LINE
  5
18B0E
330
747D
100
AcDbEntity
  8
部品1
100
AcDbLine
 10
15327.21417169136
 20
4677.931598713263
 30
0.0
 11
15327.21417169136
 21
2587.931598713264
 31
0.0
  0
LINE
  5
18B0F
330
747D
100
AcDbEntity
  8
部品1
100
AcDbLine
 10
15382.21417169135
 20
4732.361626494382
 30
0.0
 11
15382.21417169135
 21
2437.931598713264
 31
0.0
  0
LINE
  5
18B10
330
747D
100
AcDbEntity
  8
部品1
100
AcDbLine
 10
12807.21417169136
 20
4677.931598713261
 30
0.0
 11
12807.21417169136
 21
2587.931598713261
 31
0.0
  0
DIMENSION
  5
18B11
330
747D
100
AcDbEntity
  8
寸法
100
AcDbDimension
  2
*D35
 10
11488.46404250809
 20
2537.931598713262
 30
0.0
 11
11488.46404250809
 21
2231.884354618772
 31
0.0
 70
   160
 71
     5
 42
50.0
  3
INABA_S40G
100
AcDbAlignedDimension
 13
12332.21417169136
 23
2587.931598713261
 33
0.0
 14
12277.21417169135
 24
2537.931598713262
 34
0.0
 50
90.0
100
AcDbRotatedDimension
1001
ACAD
1000
DSTYLE
1002
{
1070
   174
1070
     0
1070
   272
1070
     1
1070
   288
1070
     0
1070
   341
1005
0
1002
}
  0
LINE
  5
18B13
330
747D
100
AcDbEntity
  8
部品1
100
AcDbLine
 10
12332.21417169136
 20
4770.07403664214
 30
0.0
 11
12332.21417169136
 21
2437.931598713261
 31
0.0
  0
LINE
  5
18B14
330
747D
100
AcDbEntity
  8
部品1
100
AcDbLine
 10
12387.21417169136
 20
4677.931598713261
 30
0.0
 11
12387.21417169136
 21
2437.931598713261
 31
0.0
  0
LINE
  5
18B15
330
747D
100
AcDbEntity
  8
部品1
100
AcDbLine
 10
12387.21417169136
 20
2587.931598713261
 30
0.0
 11
15382.21417169135
 21
2587.931598713263
 31
0.0
  0
LINE
  5
18B16
330
747D
100
AcDbEntity
  8
部品1
100
AcDbLine
 10
12332.21417169136
 20
4677.931598713261
 30
0.0
 11
15382.21417169135
 21
4677.931598713261
 31
0.0
  0
LINE
  5
18B17
330
747D
100
AcDbEntity
  8
部品1
100
AcDbLine
 10
15327.21417169135
 20
4677.931598713264
 30
0.0
 11
15327.21417169135
 21
2587.931598713265
 31
0.0
  0
LINE
  5
18B18
330
747D
100
AcDbEntity
  8
細線
 48
50.0
100
AcDbLine
 10
13989.71417169136
 20
4677.931598713261
 30
0.0
 11
13989.71417169136
 21
2587.931598713261
 31
0.0
  0
LINE
  5
18B19
330
747D
100
AcDbEntity
  8
細線
 48
50.0
100
AcDbLine
 10
14004.71417169136
 20
4677.931598713261
 30
0.0
 11
14004.71417169136
 21
2587.931598713261
 31
0.0
  0
LINE
  5
18B1A
330
747D
100
AcDbEntity
  8
細線
 48
50.0
100
AcDbLine
 10
13864.71417169136
 20
4677.931598713261
 30
0.0
 11
13864.71417169136
 21
2587.931598713261
 31
0.0
  0
LINE
  5
18B1B
330
747D
100
AcDbEntity
  8
細線
 48
50.0
100
AcDbLine
 10
13849.71417169136
 20
4677.931598713261
 30
0.0
 11
13849.71417169136
 21
2587.931598713261
 31
0.0
  0
LINE
  5
18B1C
330
747D
100
AcDbEntity
  8
細線
 48
50.0
100
AcDbLine
 10
13709.71417169136
 20
4677.931598713261
 30
0.0
 11
13709.71417169136
 21
2587.931598713261
 31
0.0
  0
LINE
  5
18B1D
330
747D
100
AcDbEntity
  8
細線
 48
50.0
100
AcDbLine
 10
13724.71417169136
 20
4677.931598713261
 30
0.0
 11
13724.71417169136
 21
2587.931598713261
 31
0.0
  0
TEXT
  5
18B1E
330
747D
100
AcDbEntity
  8
部品1
 48
50.0
100
AcDbText
 10
14202.08331574672
 20
4935.200691651568
 30
0.0
 40
120.0
  1
32
 50
90.0
  7
STYLE1
100
AcDbText
  0
TEXT
  5
18B1F
330
747D
100
AcDbEntity
  8
部品1
 48
50.0
100
AcDbText
 10
13724.45029308163
 20
5072.701949869851
 30
0.0
 40
120.0
  1
1000
  7
STYLE1
100
AcDbText
  0
LINE
  5
18B20
330
747D
100
AcDbEntity
  8
部品1
 48
50.0
100
AcDbLine
 10
14036.18245785791
 20
5036.817927717418
 30
0.0
 11
14036.18245785791
 21
5020.617927717418
 31
0.0
  0
LINE
  5
18B21
330
747D
100
AcDbEntity
  8
部品1
 48
50.0
100
AcDbLine
 10
13736.18245785791
 20
5036.817927717418
 30
0.0
 11
14036.18245785791
 21
5036.817927717418
 31
0.0
  0
LINE
  5
18B22
330
747D
100
AcDbEntity
  8
部品1
100
AcDbLine
 10
12279.75915804832
 20
4911.649334047528
 30
0.0
 11
15454.82604855282
 21
4856.5723964224
 31
0.0
  0
LINE
  5
18B23
330
747D
100
AcDbEntity
  8
部品1
100
AcDbLine
 10
12287.55673629331
 20
4770.712623782229
 30
0.0
 11
15436.87787223121
 21
4731.684198548022
 31
0.0
  0
LINE
  5
18B24
330
747D
100
AcDbEntity
  8
細線
 48
50.0
100
AcDbLine
 10
12305.21417169136
 20
4910.331275088666
 30
0.0
 11
12299.92507013585
 21
4770.245642461311
 31
0.0
  0
LINE
  5
18B25
330
747D
100
AcDbEntity
  8
細線
 48
50.0
100
AcDbLine
 10
15429.18345488505
 20
4857.08502119273
 30
0.0
 11
15424.46648880336
 21
4732.152805257814
 31
0.0
  0
LINE
  5
18B26
330
747D
100
AcDbEntity
  8
部品1
 48
50.0
100
AcDbLine
 10
12272.39845760446
 20
4904.525144877954
 30
0.0
 11
12272.77871738227
 21
4884.598180431543
 31
0.0
  0
LINE
  5
18B27
330
747D
100
AcDbEntity
  8
部品1
 48
50.0
100
AcDbLine
 10
12275.84748948852
 20
4881.02289893807
 30
0.0
 11
12277.55139097988
 21
4791.732402231423
 31
0.0
  0
LINE
  5
18B28
330
747D
100
AcDbEntity
  8
細線
 48
50.0
100
AcDbLine
 10
12273.25359479217
 20
4883.948680554623
 30
0.0
 11
15458.88957953734
 21
4828.324475913795
 31
0.0
  0
LINE
  5
18B29
330
747D
100
AcDbEntity
  8
細線
 48
50.0
100
AcDbLine
 10
12278.01407002946
 20
4791.087168856759
 30
0.0
 11
15448.0177344601
 21
4751.277849882266
 31
0.0
  0
LINE
  5
18B2A
330
747D
100
AcDbEntity
  8
部品1
 48
50.0
100
AcDbLine
 10
12280.62016308613
 20
4788.157120737952
 30
0.0
 11
12280.82211570656
 21
4777.574085344858
 31
0.0
  0
ARC
  5
18B2B
330
747D
100
AcDbEntity
  8
部品1
 48
50.0
100
AcDbCircle
 10
12279.3971834328
 20
4904.658699285382
 30
0.0
 40
7.0
100
AcDbArc
 50
87.03587545283228
 51
181.0932240293156
  0
ARC
  5
18B2C
330
747D
100
AcDbEntity
  8
部品1
 48
50.0
100
AcDbCircle
 10
12287.8208415349
 20
4777.707639752287
 30
0.0
 40
7.0
100
AcDbArc
 50
181.0932240293156
 51
267.8377559869492
  0
ARC
  5
18B2D
330
747D
100
AcDbEntity
  8
部品1
100
AcDbCircle
 10
12277.6207091597
 20
4788.099883134768
 30
0.0
 40
3.0
100
AcDbArc
 50
1.093224029315636
 51
80.18775403169875
  0
ARC
  5
18B2E
330
747D
100
AcDbEntity
  8
部品1
100
AcDbCircle
 10
12272.84803556209
 20
4880.965661334887
 30
0.0
 40
3.0
100
AcDbArc
 50
1.093224029315636
 51
80.18775403169875
  0
ARC
  5
18B2F
330
747D
100
AcDbEntity
  8
部品1
100
AcDbCircle
 10
12273.47858996511
 20
4884.611535872284
 30
0.0
 40
0.7
100
AcDbArc
 50
181.0932240292114
 51
260.1877540314845
  0
ARC
  5
18B30
330
747D
100
AcDbEntity
  8
部品1
100
AcDbCircle
 10
12278.25126356272
 20
4791.745757672165
 30
0.0
 40
0.7
100
AcDbArc
 50
181.0932240292635
 51
260.1877540314845
  0
LINE
  5
18B31
330
747D
100
AcDbEntity
  8
部品1
 48
50.0
100
AcDbLine
 10
15461.42807450206
 20
4848.872750987481
 30
0.0
 11
15459.39745331109
 21
4828.9277097297
 31
0.0
  0
LINE
  5
18B32
330
747D
100
AcDbEntity
  8
部品1
 48
50.0
100
AcDbLine
 10
15456.0448868266
 20
4825.617075656792
 30
0.0
 11
15448.53810756177
 21
4751.884454911779
 31
0.0
  0
LINE
  5
18B33
330
747D
100
AcDbEntity
  8
部品1
 48
50.0
100
AcDbLine
 10
15445.18554107729
 20
4748.573820838867
 30
0.0
 11
15444.10597803755
 21
4737.970203845309
 31
0.0
  0
ARC
  5
18B34
330
747D
100
AcDbEntity
  8
部品1
 48
50.0
100
AcDbCircle
 10
15454.46407393731
 20
4849.581761660255
 30
0.0
 40
7.0
100
AcDbArc
 50
354.1866997665532
 51
87.03587545283228
  0
ARC
  5
18B35
330
747D
100
AcDbEntity
  8
部品1
 48
50.0
100
AcDbCircle
 10
15437.14197747279
 20
4738.679214518082
 30
0.0
 40
7.0
100
AcDbArc
 50
267.8377559869492
 51
354.1866997665532
  0
ARC
  5
18B36
330
747D
100
AcDbEntity
  8
部品1
100
AcDbCircle
 10
15448.1701127479
 20
4748.269959121964
 30
0.0
 40
3.0
100
AcDbArc
 50
95.09216976420788
 51
174.1866997665532
  0
ARC
  5
18B37
330
747D
100
AcDbEntity
  8
部品1
100
AcDbCircle
 10
15459.02945849722
 20
4825.313213939889
 30
0.0
 40
3.0
100
AcDbArc
 50
95.09216976420788
 51
174.1866997665532
  0
ARC
  5
18B38
330
747D
100
AcDbEntity
  8
部品1
100
AcDbCircle
 10
15458.70105325462
 20
4828.998610796978
 30
0.0
 40
0.7
100
AcDbArc
 50
275.0921697642079
 51
354.1866997665532
  0
ARC
  5
18B39
330
747D
100
AcDbEntity
  8
部品1
100
AcDbCircle
 10
15447.84170750529
 20
4751.955355979054
 30
0.0
 40
0.7
100
AcDbArc
 50
275.0921697642079
 51
354.1866997667087
  0
LINE
  5
18B3A
330
747D
100
AcDbEntity
  8
部品1
100
AcDbLine
 10
13710.72744421487
 20
5038.13598667628
 30
0.0
 11
14036.18245785791
 21
5020.617927717418
 31
0.0
  0
LINE
  5
18B3B
330
747D
100
AcDbEntity
  8
部品1
100
AcDbLine
 10
14067.21417169135
 20
4677.931598713261
 30
0.0
 11
14067.21417169135
 21
2587.931598713263
 31
0.0
  0
LINE
  5
18B3C
330
747D
100
AcDbEntity
  8
細線
 48
50.0
100
AcDbLine
 10
14144.71417169135
 20
4677.931598713261
 30
0.0
 11
14144.71417169135
 21
2587.931598713263
 31
0.0
  0
LINE
  5
18B3D
330
747D
100
AcDbEntity
  8
細線
 48
50.0
100
AcDbLine
 10
14129.71417169136
 20
4677.931598713261
 30
0.0
 11
14129.71417169136
 21
2587.931598713263
 31
0.0
  0
LINE
  5
18B3E
330
747D
100
AcDbEntity
  8
細線
 48
50.0
100
AcDbLine
 10
14269.71417169136
 20
4677.931598713261
 30
0.0
 11
14269.71417169136
 21
2587.931598713263
 31
0.0
  0
LINE
  5
18B3F
330
747D
100
AcDbEntity
  8
細線
 48
50.0
100
AcDbLine
 10
14284.71417169135
 20
4677.931598713261
 30
0.0
 11
14284.71417169135
 21
2587.931598713263
 31
0.0
  0
LINE
  5
18B40
330
747D
100
AcDbEntity
  8
細線
 48
50.0
100
AcDbLine
 10
14424.71417169135
 20
4677.931598713261
 30
0.0
 11
14424.71417169135
 21
2587.931598713263
 31
0.0
  0
LINE
  5
18B41
330
747D
100
AcDbEntity
  8
細線
 48
50.0
100
AcDbLine
 10
14409.71417169136
 20
4677.931598713261
 30
0.0
 11
14409.71417169136
 21
2587.931598713263
 31
0.0
  0
DIMENSION
  5
18B42
330
747D
100
AcDbEntity
  8
寸法
100
AcDbDimension
  2
*D36
 10
15919.53462919753
 20
4857.931598713263
 30
0.0
 11
15919.53462919753
 21
3643.965039237399
 31
0.0
 70
   160
 71
     5
 42
2320.0
  3
INABA_S40G
100
AcDbAlignedDimension
 13
15382.21417169135
 23
2537.931598713264
 33
0.0
 14
15462.21417169135
 24
4857.931598713263
 34
0.0
 50
90.0
100
AcDbRotatedDimension
1001
ACAD
1000
DSTYLE
1002
{
1070
   174
1070
     0
1070
   272
1070
     1
1070
   288
1070
     0
1070
   341
1005
0
1002
}
  0
DIMENSION
  5
18B43
330
747D
100
AcDbEntity
  8
寸法
100
AcDbDimension
  2
*D37
 10
11188.4640425081
 20
4912.931598713261
 30
0.0
 11
11088.45223148447
 21
3725.431598713262
 31
0.0
 70
    32
 71
     5
 42
2375.000000000005
  3
INABA_S40G
100
AcDbAlignedDimension
 13
12332.21417169136
 23
2537.931598713257
 33
0.0
 14
12272.21417169136
 24
4912.931598713261
 34
0.0
 50
90.0
100
AcDbRotatedDimension
1001
ACAD
1000
DSTYLE
1002
{
1070
   174
1070
     0
1070
   272
1070
     1
1070
   288
1070
     0
1070
   341
1005
0
1002
}
  0
DIMENSION
  5
18B44
330
747D
100
AcDbEntity
  8
寸法
100
AcDbDimension
  2
*D38
 10
11488.46404250809
 20
2587.931598713257
 30
0.0
 11
11388.45223148447
 21
3632.931598713259
 31
0.0
 70
    32
 71
     5
 42
2090.000000000001
  3
INABA_S40G
100
AcDbAlignedDimension
 13
12332.21417169136
 23
4677.931598713257
 33
0.0
 14
12332.21417169136
 24
2587.931598713257
 34
0.0
 50
90.0
100
AcDbRotatedDimension
1001
ACAD
1000
DSTYLE
1002
{
1070
   174
1070
     0
1070
   272
1070
     1
1070
   288
1070
     0
1070
   341
1005
0
1002
}
  0
LINE
  5
18B49
330
747D
100
AcDbEntity
  8
破線
 48
5.0
100
AcDbLine
 10
12332.21417169136
 20
2437.931598713261
 30
0.0
 11
12332.21417169136
 21
2187.931598713261
 31
0.0
  0
LINE
  5
18B4A
330
747D
100
AcDbEntity
  8
破線
 48
5.0
100
AcDbLine
 10
12387.21417169136
 20
2437.931598713261
 30
0.0
 11
12387.21417169136
 21
2187.931598713261
 31
0.0
  0
LINE
  5
18B4B
330
747D
100
AcDbEntity
  8
破線
 48
5.0
100
AcDbLine
 10
12332.21417169136
 20
2187.931598713261
 30
0.0
 11
12387.21417169136
 21
2187.931598713261
 31
0.0
  0
LINE
  5
18B4C
330
747D
100
AcDbEntity
  8
部品1
100
AcDbLine
 10
12332.21417169136
 20
2537.931598713262
 30
0.0
 11
11939.21695748251
 21
2437.931598713261
 31
0.0
  0
DIMENSION
  5
191BF
330
747D
100
AcDbEntity
  8
寸法
 48
50.0
100
AcDbDimension
  2
*D39
 10
10338.62261389858
 20
4677.93159871326
 30
0.0
 11
10338.62261389857
 21
4916.416880087502
 31
0.0
 70
   160
 71
     5
 42
164.9999999999991
  3
INABA_S40G
100
AcDbAlignedDimension
 13
10051.07951157683
 23
4512.931598713262
 33
0.0
 14
10051.07951157683
 24
4677.931598713261
 34
0.0
 50
90.0
100
AcDbRotatedDimension
1001
ACAD
1000
DSTYLE
1002
{
1002
}
  0
DIMENSION
  5
191C0
330
747D
100
AcDbEntity
  8
寸法
 48
50.0
100
AcDbDimension
  2
*D40
 10
10338.62261389857
 20
4512.931598713261
 30
0.0
 11
10478.79243714494
 21
4513.89879855292
 31
0.0
 70
   160
 71
     5
 42
27.00000000000182
  3
INABA_S40G
100
AcDbAlignedDimension
 13
10051.07951157683
 23
4485.93159871326
 33
0.0
 14
10051.07951157683
 24
4512.931598713262
 34
0.0
 50
90.0
100
AcDbRotatedDimension
1001
ACAD
1000
DSTYLE
1002
{
1070
   279
1070
     2
1002
}
  0
DIMENSION
  5
191C1
330
747D
100
AcDbEntity
  8
寸法
 48
50.0
100
AcDbDimension
  2
*D41
 10
10338.62261389857
 20
4485.93159871326
 30
0.0
 11
10238.62261389857
 21
3511.931598713263
 31
0.0
 70
    32
  1
有効開口部高サ <>
 71
     5
 42
1947.999999999998
  3
INABA_S40G
100
AcDbAlignedDimension
 13
10051.07951157683
 23
2537.931598713262
 33
0.0
 14
10051.07951157683
 24
4485.93159871326
 34
0.0
 50
90.0
100
AcDbRotatedDimension
  0
ARC
  5
19527
330
747D
100
AcDbEntity
  8
部品1
 48
0.01
100
AcDbCircle
 10
1899.079511576805
 20
4741.931598713261
 30
0.0
 40
2.0
100
AcDbArc
 50
0.0
 51
90.0
  0
ARC
  5
19528
330
747D
100
AcDbEntity
  8
部品1
 48
0.01
100
AcDbCircle
 10
1723.079511576805
 20
4741.931598713261
 30
0.0
 40
2.0
100
AcDbArc
 50
90.0
 51
180.0
  0
LINE
  5
19529
330
747D
100
AcDbEntity
  8
細線
100
AcDbLine
 10
1811.079511576801
 20
4714.431598713261
 30
0.0
 11
1885.079511576805
 21
4714.431598713261
 31
0.0
  0
LINE
  5
1952A
330
747D
100
AcDbEntity
  8
細線
100
AcDbLine
 10
1811.079511576805
 20
4737.431598713261
 30
0.0
 11
1737.079511576805
 21
4737.431598713261
 31
0.0
  0
LINE
  5
1952B
330
747D
100
AcDbEntity
  8
細線
100
AcDbLine
 10
1737.079511576805
 20
4714.431598713261
 30
0.0
 11
1811.079511576805
 21
4714.431598713261
 31
0.0
  0
LINE
  5
1952C
330
747D
100
AcDbEntity
  8
細線
100
AcDbLine
 10
1885.079511576805
 20
4737.431598713261
 30
0.0
 11
1811.079511576805
 21
4737.431598713261
 31
0.0
  0
LINE
  5
1952D
330
747D
100
AcDbEntity
  8
細線
100
AcDbLine
 10
1885.079511576805
 20
4714.431598713261
 30
0.0
 11
1885.079511576805
 21
4737.431598713261
 31
0.0
  0
LINE
  5
1952E
330
747D
100
AcDbEntity
  8
細線
100
AcDbLine
 10
1737.079511576805
 20
4737.431598713261
 30
0.0
 11
1737.079511576805
 21
4714.431598713261
 31
0.0
  0
LINE
  5
1952F
330
747D
100
AcDbEntity
  8
部品1
 48
0.01
100
AcDbLine
 10
1901.079511576801
 20
4710.431598713261
 30
0.0
 11
1901.079511576805
 21
4741.931598713261
 31
0.0
  0
LINE
  5
19530
330
747D
100
AcDbEntity
  8
部品1
 48
0.01
100
AcDbLine
 10
1721.079511576805
 20
4741.931598713261
 30
0.0
 11
1721.079511576805
 21
4710.431598713261
 31
0.0
  0
LINE
  5
19531
330
747D
100
AcDbEntity
  8
部品1
 48
0.01
100
AcDbLine
 10
1899.079511576805
 20
4743.931598713261
 30
0.0
 11
1723.079511576805
 21
4743.931598713261
 31
0.0
  0
LINE
  5
19532
330
747D
100
AcDbEntity
  8
細線
100
AcDbLine
 10
1737.079511576805
 20
4731.431598713261
 30
0.0
 11
1811.079511576805
 21
4731.431598713261
 31
0.0
  0
LINE
  5
19533
330
747D
100
AcDbEntity
  8
細線
100
AcDbLine
 10
1737.079511576805
 20
4725.431598713261
 30
0.0
 11
1811.079511576805
 21
4725.431598713261
 31
0.0
  0
LINE
  5
19534
330
747D
100
AcDbEntity
  8
細線
100
AcDbLine
 10
1737.079511576801
 20
4719.431598713261
 30
0.0
 11
1811.079511576805
 21
4719.431598713261
 31
0.0
  0
LINE
  5
19535
330
747D
100
AcDbEntity
  8
細線
100
AcDbLine
 10
1737.079511576805
 20
4731.431598713261
 30
0.0
 11
1806.079511576805
 21
4731.431598713261
 31
0.0
  0
LINE
  5
19536
330
747D
100
AcDbEntity
  8
細線
100
AcDbLine
 10
1885.079511576801
 20
4731.431598713261
 30
0.0
 11
1811.079511576805
 21
4731.431598713261
 31
0.0
  0
LINE
  5
19537
330
747D
100
AcDbEntity
  8
細線
100
AcDbLine
 10
1885.079511576801
 20
4719.431598713261
 30
0.0
 11
1811.079511576805
 21
4719.431598713261
 31
0.0
  0
LINE
  5
19538
330
747D
100
AcDbEntity
  8
細線
100
AcDbLine
 10
1885.079511576801
 20
4725.431598713261
 30
0.0
 11
1811.079511576805
 21
4725.431598713261
 31
0.0
  0
LINE
  5
19539
330
747D
100
AcDbEntity
  8
細線
100
AcDbLine
 10
1811.079511576805
 20
4737.431598713261
 30
0.0
 11
1811.079511576801
 21
4714.431598713261
 31
0.0
  0
LINE
  5
1953A
330
747D
100
AcDbEntity
  8
細線
100
AcDbLine
 10
3041.079511576806
 20
4737.431598713261
 30
0.0
 11
3041.079511576806
 21
4714.431598713261
 31
0.0
  0
LINE
  5
1953B
330
747D
100
AcDbEntity
  8
細線
100
AcDbLine
 10
2967.079511576805
 20
4725.431598713261
 30
0.0
 11
3041.079511576806
 21
4725.431598713261
 31
0.0
  0
LINE
  5
1953C
330
747D
100
AcDbEntity
  8
細線
100
AcDbLine
 10
2967.079511576805
 20
4719.431598713261
 30
0.0
 11
3041.079511576806
 21
4719.431598713261
 31
0.0
  0
LINE
  5
1953D
330
747D
100
AcDbEntity
  8
細線
100
AcDbLine
 10
2967.079511576805
 20
4731.431598713261
 30
0.0
 11
3041.079511576806
 21
4731.431598713261
 31
0.0
  0
LINE
  5
1953E
330
747D
100
AcDbEntity
  8
細線
100
AcDbLine
 10
3115.079511576805
 20
4731.431598713261
 30
0.0
 11
3046.079511576805
 21
4731.431598713261
 31
0.0
  0
LINE
  5
1953F
330
747D
100
AcDbEntity
  8
細線
100
AcDbLine
 10
3115.079511576805
 20
4719.431598713261
 30
0.0
 11
3041.079511576806
 21
4719.431598713261
 31
0.0
  0
LINE
  5
19540
330
747D
100
AcDbEntity
  8
細線
100
AcDbLine
 10
3115.079511576805
 20
4725.431598713261
 30
0.0
 11
3041.079511576806
 21
4725.431598713261
 31
0.0
  0
LINE
  5
19541
330
747D
100
AcDbEntity
  8
細線
100
AcDbLine
 10
3115.079511576805
 20
4731.431598713261
 30
0.0
 11
3041.079511576806
 21
4731.431598713261
 31
0.0
  0
LINE
  5
19542
330
747D
100
AcDbEntity
  8
部品1
 48
0.01
100
AcDbLine
 10
2953.079511576805
 20
4743.931598713261
 30
0.0
 11
3129.079511576805
 21
4743.931598713261
 31
0.0
  0
LINE
  5
19543
330
747D
100
AcDbEntity
  8
部品1
 48
0.01
100
AcDbLine
 10
3131.079511576805
 20
4741.931598713261
 30
0.0
 11
3131.079511576805
 21
4710.431598713261
 31
0.0
  0
LINE
  5
19544
330
747D
100
AcDbEntity
  8
部品1
 48
0.01
100
AcDbLine
 10
2951.079511576805
 20
4710.431598713261
 30
0.0
 11
2951.079511576805
 21
4741.931598713261
 31
0.0
  0
LINE
  5
19545
330
747D
100
AcDbEntity
  8
細線
100
AcDbLine
 10
3115.079511576805
 20
4737.431598713261
 30
0.0
 11
3115.079511576805
 21
4714.431598713261
 31
0.0
  0
LINE
  5
19546
330
747D
100
AcDbEntity
  8
細線
100
AcDbLine
 10
2967.079511576805
 20
4714.431598713261
 30
0.0
 11
2967.079511576805
 21
4737.431598713261
 31
0.0
  0
LINE
  5
19547
330
747D
100
AcDbEntity
  8
細線
100
AcDbLine
 10
2967.079511576805
 20
4737.431598713261
 30
0.0
 11
3041.079511576806
 21
4737.431598713261
 31
0.0
  0
LINE
  5
19548
330
747D
100
AcDbEntity
  8
細線
100
AcDbLine
 10
3115.079511576805
 20
4714.431598713261
 30
0.0
 11
3041.079511576806
 21
4714.431598713261
 31
0.0
  0
LINE
  5
19549
330
747D
100
AcDbEntity
  8
細線
100
AcDbLine
 10
3041.079511576806
 20
4737.431598713261
 30
0.0
 11
3115.079511576805
 21
4737.431598713261
 31
0.0
  0
LINE
  5
1954A
330
747D
100
AcDbEntity
  8
細線
100
AcDbLine
 10
3041.079511576806
 20
4714.431598713261
 30
0.0
 11
2967.079511576805
 21
4714.431598713261
 31
0.0
  0
ARC
  5
1954B
330
747D
100
AcDbEntity
  8
部品1
 48
0.01
100
AcDbCircle
 10
3129.079511576805
 20
4741.931598713261
 30
0.0
 40
2.0
100
AcDbArc
 50
0.0
 51
90.0
  0
ARC
  5
1954C
330
747D
100
AcDbEntity
  8
部品1
 48
0.01
100
AcDbCircle
 10
2953.079511576805
 20
4741.931598713261
 30
0.0
 40
2.0
100
AcDbArc
 50
90.0
 51
180.0
  0
ARC
  5
1954D
330
747D
100
AcDbEntity
  8
部品1
 48
0.01
100
AcDbCircle
 10
1899.079511576801
 20
4710.431598713261
 30
0.0
 40
2.0
100
AcDbArc
 50
270.0
 51
0.0
  0
ARC
  5
1954E
330
747D
100
AcDbEntity
  8
部品1
 48
0.01
100
AcDbCircle
 10
1723.079511576805
 20
4710.431598713261
 30
0.0
 40
2.0
100
AcDbArc
 50
180.0
 51
270.0
  0
LINE
  5
1954F
330
747D
100
AcDbEntity
  8
部品1
 48
0.01
100
AcDbLine
 10
1723.079511576805
 20
4708.431598713261
 30
0.0
 11
1899.079511576801
 21
4708.431598713261
 31
0.0
  0
LINE
  5
19550
330
747D
100
AcDbEntity
  8
部品1
 48
0.01
100
AcDbLine
 10
3129.079511576805
 20
4708.431598713261
 30
0.0
 11
2953.079511576805
 21
4708.431598713261
 31
0.0
  0
ARC
  5
19551
330
747D
100
AcDbEntity
  8
部品1
 48
0.01
100
AcDbCircle
 10
3129.079511576805
 20
4710.431598713261
 30
0.0
 40
2.0
100
AcDbArc
 50
270.0
 51
0.0
  0
ARC
  5
19552
330
747D
100
AcDbEntity
  8
部品1
 48
0.01
100
AcDbCircle
 10
2953.079511576805
 20
4710.431598713261
 30
0.0
 40
2.0
100
AcDbArc
 50
180.0
 51
270.0
  0
ARC
  5
19553
330
747D
100
AcDbEntity
  8
部品1
 48
0.01
100
AcDbCircle
 10
6003.079511576816
 20
4710.431598713261
 30
0.0
 40
2.0
100
AcDbArc
 50
180.0
 51
270.0
  0
ARC
  5
19554
330
747D
100
AcDbEntity
  8
部品1
 48
0.01
100
AcDbCircle
 10
6179.079511576816
 20
4710.431598713261
 30
0.0
 40
2.0
100
AcDbArc
 50
270.0
 51
0.0
  0
LINE
  5
19555
330
747D
100
AcDbEntity
  8
部品1
 48
0.01
100
AcDbLine
 10
6179.079511576816
 20
4708.431598713261
 30
0.0
 11
6003.079511576816
 21
4708.431598713261
 31
0.0
  0
LINE
  5
19556
330
747D
100
AcDbEntity
  8
部品1
 48
0.01
100
AcDbLine
 10
4773.079511576816
 20
4708.431598713261
 30
0.0
 11
4949.079511576812
 21
4708.431598713261
 31
0.0
  0
ARC
  5
19557
330
747D
100
AcDbEntity
  8
部品1
 48
0.01
100
AcDbCircle
 10
4773.079511576816
 20
4710.431598713261
 30
0.0
 40
2.0
100
AcDbArc
 50
180.0
 51
270.0
  0
ARC
  5
19558
330
747D
100
AcDbEntity
  8
部品1
 48
0.01
100
AcDbCircle
 10
4949.079511576812
 20
4710.431598713261
 30
0.0
 40
2.0
100
AcDbArc
 50
270.0
 51
0.0
  0
ARC
  5
19559
330
747D
100
AcDbEntity
  8
部品1
 48
0.01
100
AcDbCircle
 10
6003.079511576816
 20
4741.931598713261
 30
0.0
 40
2.0
100
AcDbArc
 50
90.0
 51
180.0
  0
ARC
  5
1955A
330
747D
100
AcDbEntity
  8
部品1
 48
0.01
100
AcDbCircle
 10
6179.079511576816
 20
4741.931598713261
 30
0.0
 40
2.0
100
AcDbArc
 50
0.0
 51
90.0
  0
LINE
  5
1955B
330
747D
100
AcDbEntity
  8
細線
100
AcDbLine
 10
6091.079511576816
 20
4714.431598713261
 30
0.0
 11
6017.079511576816
 21
4714.431598713261
 31
0.0
  0
LINE
  5
1955C
330
747D
100
AcDbEntity
  8
細線
100
AcDbLine
 10
6091.079511576816
 20
4737.431598713261
 30
0.0
 11
6165.079511576816
 21
4737.431598713261
 31
0.0
  0
LINE
  5
1955D
330
747D
100
AcDbEntity
  8
細線
100
AcDbLine
 10
6165.079511576816
 20
4714.431598713261
 30
0.0
 11
6091.079511576816
 21
4714.431598713261
 31
0.0
  0
LINE
  5
1955E
330
747D
100
AcDbEntity
  8
細線
100
AcDbLine
 10
6017.079511576816
 20
4737.431598713261
 30
0.0
 11
6091.079511576816
 21
4737.431598713261
 31
0.0
  0
LINE
  5
1955F
330
747D
100
AcDbEntity
  8
細線
100
AcDbLine
 10
6017.079511576816
 20
4714.431598713261
 30
0.0
 11
6017.079511576816
 21
4737.431598713261
 31
0.0
  0
LINE
  5
19560
330
747D
100
AcDbEntity
  8
細線
100
AcDbLine
 10
6165.079511576816
 20
4737.431598713261
 30
0.0
 11
6165.079511576816
 21
4714.431598713261
 31
0.0
  0
LINE
  5
19561
330
747D
100
AcDbEntity
  8
部品1
 48
0.01
100
AcDbLine
 10
6001.079511576816
 20
4710.431598713261
 30
0.0
 11
6001.079511576816
 21
4741.931598713261
 31
0.0
  0
LINE
  5
19562
330
747D
100
AcDbEntity
  8
部品1
 48
0.01
100
AcDbLine
 10
6181.079511576816
 20
4741.931598713261
 30
0.0
 11
6181.079511576816
 21
4710.431598713261
 31
0.0
  0
LINE
  5
19563
330
747D
100
AcDbEntity
  8
部品1
 48
0.01
100
AcDbLine
 10
6003.079511576816
 20
4743.931598713261
 30
0.0
 11
6179.079511576816
 21
4743.931598713261
 31
0.0
  0
LINE
  5
19564
330
747D
100
AcDbEntity
  8
細線
100
AcDbLine
 10
6165.079511576816
 20
4731.431598713261
 30
0.0
 11
6091.079511576816
 21
4731.431598713261
 31
0.0
  0
LINE
  5
19565
330
747D
100
AcDbEntity
  8
細線
100
AcDbLine
 10
6165.079511576816
 20
4725.431598713261
 30
0.0
 11
6091.079511576816
 21
4725.431598713261
 31
0.0
  0
LINE
  5
19566
330
747D
100
AcDbEntity
  8
細線
100
AcDbLine
 10
6165.079511576816
 20
4719.431598713261
 30
0.0
 11
6091.079511576816
 21
4719.431598713261
 31
0.0
  0
LINE
  5
19567
330
747D
100
AcDbEntity
  8
細線
100
AcDbLine
 10
6165.079511576816
 20
4731.431598713261
 30
0.0
 11
6096.079511576816
 21
4731.431598713261
 31
0.0
  0
LINE
  5
19568
330
747D
100
AcDbEntity
  8
細線
100
AcDbLine
 10
6017.079511576816
 20
4731.431598713261
 30
0.0
 11
6091.079511576816
 21
4731.431598713261
 31
0.0
  0
LINE
  5
19569
330
747D
100
AcDbEntity
  8
細線
100
AcDbLine
 10
6017.079511576816
 20
4719.431598713261
 30
0.0
 11
6091.079511576816
 21
4719.431598713261
 31
0.0
  0
LINE
  5
1956A
330
747D
100
AcDbEntity
  8
細線
100
AcDbLine
 10
6017.079511576816
 20
4725.431598713261
 30
0.0
 11
6091.079511576816
 21
4725.431598713261
 31
0.0
  0
LINE
  5
1956B
330
747D
100
AcDbEntity
  8
細線
100
AcDbLine
 10
6091.079511576816
 20
4737.431598713261
 30
0.0
 11
6091.079511576816
 21
4714.431598713261
 31
0.0
  0
LINE
  5
1956C
330
747D
100
AcDbEntity
  8
細線
100
AcDbLine
 10
4861.079511576816
 20
4737.431598713261
 30
0.0
 11
4861.079511576813
 21
4714.431598713261
 31
0.0
  0
LINE
  5
1956D
330
747D
100
AcDbEntity
  8
細線
100
AcDbLine
 10
4935.079511576812
 20
4725.431598713261
 30
0.0
 11
4861.079511576816
 21
4725.431598713261
 31
0.0
  0
LINE
  5
1956E
330
747D
100
AcDbEntity
  8
細線
100
AcDbLine
 10
4935.079511576812
 20
4719.431598713261
 30
0.0
 11
4861.079511576816
 21
4719.431598713261
 31
0.0
  0
LINE
  5
1956F
330
747D
100
AcDbEntity
  8
細線
100
AcDbLine
 10
4935.079511576812
 20
4731.431598713261
 30
0.0
 11
4861.079511576816
 21
4731.431598713261
 31
0.0
  0
LINE
  5
19570
330
747D
100
AcDbEntity
  8
細線
100
AcDbLine
 10
4787.079511576815
 20
4731.431598713261
 30
0.0
 11
4856.079511576815
 21
4731.431598713261
 31
0.0
  0
LINE
  5
19571
330
747D
100
AcDbEntity
  8
細線
100
AcDbLine
 10
4787.079511576812
 20
4719.431598713261
 30
0.0
 11
4861.079511576816
 21
4719.431598713261
 31
0.0
  0
LINE
  5
19572
330
747D
100
AcDbEntity
  8
細線
100
AcDbLine
 10
4787.079511576815
 20
4725.431598713261
 30
0.0
 11
4861.079511576816
 21
4725.431598713261
 31
0.0
  0
LINE
  5
19573
330
747D
100
AcDbEntity
  8
細線
100
AcDbLine
 10
4787.079511576815
 20
4731.431598713261
 30
0.0
 11
4861.079511576816
 21
4731.431598713261
 31
0.0
  0
LINE
  5
19574
330
747D
100
AcDbEntity
  8
部品1
 48
0.01
100
AcDbLine
 10
4949.079511576815
 20
4743.931598713261
 30
0.0
 11
4773.079511576816
 21
4743.931598713261
 31
0.0
  0
LINE
  5
19575
330
747D
100
AcDbEntity
  8
部品1
 48
0.01
100
AcDbLine
 10
4771.079511576816
 20
4741.931598713261
 30
0.0
 11
4771.079511576816
 21
4710.431598713261
 31
0.0
  0
LINE
  5
19576
330
747D
100
AcDbEntity
  8
部品1
 48
0.01
100
AcDbLine
 10
4951.079511576812
 20
4710.431598713261
 30
0.0
 11
4951.079511576816
 21
4741.931598713261
 31
0.0
  0
LINE
  5
19577
330
747D
100
AcDbEntity
  8
細線
100
AcDbLine
 10
4787.079511576815
 20
4737.431598713261
 30
0.0
 11
4787.079511576815
 21
4714.431598713261
 31
0.0
  0
LINE
  5
19578
330
747D
100
AcDbEntity
  8
細線
100
AcDbLine
 10
4935.079511576816
 20
4714.431598713261
 30
0.0
 11
4935.079511576816
 21
4737.431598713261
 31
0.0
  0
LINE
  5
19579
330
747D
100
AcDbEntity
  8
細線
100
AcDbLine
 10
4935.079511576816
 20
4737.431598713261
 30
0.0
 11
4861.079511576816
 21
4737.431598713261
 31
0.0
  0
LINE
  5
1957A
330
747D
100
AcDbEntity
  8
細線
100
AcDbLine
 10
4787.079511576815
 20
4714.431598713261
 30
0.0
 11
4861.079511576816
 21
4714.431598713261
 31
0.0
  0
LINE
  5
1957B
330
747D
100
AcDbEntity
  8
細線
100
AcDbLine
 10
4861.079511576816
 20
4737.431598713261
 30
0.0
 11
4787.079511576815
 21
4737.431598713261
 31
0.0
  0
LINE
  5
1957C
330
747D
100
AcDbEntity
  8
細線
100
AcDbLine
 10
4861.079511576813
 20
4714.431598713261
 30
0.0
 11
4935.079511576816
 21
4714.431598713261
 31
0.0
  0
ARC
  5
1957D
330
747D
100
AcDbEntity
  8
部品1
 48
0.01
100
AcDbCircle
 10
4773.079511576816
 20
4741.931598713261
 30
0.0
 40
2.0
100
AcDbArc
 50
90.0
 51
180.0
  0
ARC
  5
1957E
330
747D
100
AcDbEntity
  8
部品1
 48
0.01
100
AcDbCircle
 10
4949.079511576815
 20
4741.931598713261
 30
0.0
 40
2.0
100
AcDbArc
 50
0.0
 51
90.0
  0
ARC
  5
1957F
330
747D
100
AcDbEntity
  8
部品1
 48
0.01
100
AcDbCircle
 10
7999.079511576832
 20
4741.931598713261
 30
0.0
 40
2.0
100
AcDbArc
 50
0.0
 51
90.0
  0
ARC
  5
19580
330
747D
100
AcDbEntity
  8
部品1
 48
0.01
100
AcDbCircle
 10
7823.079511576833
 20
4741.931598713261
 30
0.0
 40
2.0
100
AcDbArc
 50
90.0
 51
180.0
  0
LINE
  5
19581
330
747D
100
AcDbEntity
  8
細線
100
AcDbLine
 10
7911.079511576828
 20
4714.431598713261
 30
0.0
 11
7985.079511576832
 21
4714.431598713261
 31
0.0
  0
LINE
  5
19582
330
747D
100
AcDbEntity
  8
細線
100
AcDbLine
 10
7911.079511576833
 20
4737.431598713261
 30
0.0
 11
7837.079511576833
 21
4737.431598713261
 31
0.0
  0
LINE
  5
19583
330
747D
100
AcDbEntity
  8
細線
100
AcDbLine
 10
7837.079511576833
 20
4714.431598713261
 30
0.0
 11
7911.079511576833
 21
4714.431598713261
 31
0.0
  0
LINE
  5
19584
330
747D
100
AcDbEntity
  8
細線
100
AcDbLine
 10
7985.079511576832
 20
4737.431598713261
 30
0.0
 11
7911.079511576833
 21
4737.431598713261
 31
0.0
  0
LINE
  5
19585
330
747D
100
AcDbEntity
  8
細線
100
AcDbLine
 10
7985.079511576832
 20
4714.431598713261
 30
0.0
 11
7985.079511576832
 21
4737.431598713261
 31
0.0
  0
LINE
  5
19586
330
747D
100
AcDbEntity
  8
細線
100
AcDbLine
 10
7837.079511576833
 20
4737.431598713261
 30
0.0
 11
7837.079511576833
 21
4714.431598713261
 31
0.0
  0
LINE
  5
19587
330
747D
100
AcDbEntity
  8
部品1
 48
0.01
100
AcDbLine
 10
8001.079511576829
 20
4710.431598713261
 30
0.0
 11
8001.079511576833
 21
4741.931598713261
 31
0.0
  0
LINE
  5
19588
330
747D
100
AcDbEntity
  8
部品1
 48
0.01
100
AcDbLine
 10
7821.079511576832
 20
4741.931598713261
 30
0.0
 11
7821.079511576832
 21
4710.431598713261
 31
0.0
  0
LINE
  5
19589
330
747D
100
AcDbEntity
  8
部品1
 48
0.01
100
AcDbLine
 10
7999.079511576832
 20
4743.931598713261
 30
0.0
 11
7823.079511576833
 21
4743.931598713261
 31
0.0
  0
LINE
  5
1958A
330
747D
100
AcDbEntity
  8
細線
100
AcDbLine
 10
7837.079511576833
 20
4731.431598713261
 30
0.0
 11
7911.079511576833
 21
4731.431598713261
 31
0.0
  0
LINE
  5
1958B
330
747D
100
AcDbEntity
  8
細線
100
AcDbLine
 10
7837.079511576833
 20
4725.431598713261
 30
0.0
 11
7911.079511576833
 21
4725.431598713261
 31
0.0
  0
LINE
  5
1958C
330
747D
100
AcDbEntity
  8
細線
100
AcDbLine
 10
7837.079511576829
 20
4719.431598713261
 30
0.0
 11
7911.079511576833
 21
4719.431598713261
 31
0.0
  0
LINE
  5
1958D
330
747D
100
AcDbEntity
  8
細線
100
AcDbLine
 10
7837.079511576833
 20
4731.431598713261
 30
0.0
 11
7906.079511576833
 21
4731.431598713261
 31
0.0
  0
LINE
  5
1958E
330
747D
100
AcDbEntity
  8
細線
100
AcDbLine
 10
7985.079511576829
 20
4731.431598713261
 30
0.0
 11
7911.079511576833
 21
4731.431598713261
 31
0.0
  0
LINE
  5
1958F
330
747D
100
AcDbEntity
  8
細線
100
AcDbLine
 10
7985.079511576829
 20
4719.431598713261
 30
0.0
 11
7911.079511576833
 21
4719.431598713261
 31
0.0
  0
LINE
  5
19590
330
747D
100
AcDbEntity
  8
細線
100
AcDbLine
 10
7985.079511576829
 20
4725.431598713261
 30
0.0
 11
7911.079511576833
 21
4725.431598713261
 31
0.0
  0
LINE
  5
19591
330
747D
100
AcDbEntity
  8
細線
100
AcDbLine
 10
7911.079511576833
 20
4737.431598713261
 30
0.0
 11
7911.079511576828
 21
4714.431598713261
 31
0.0
  0
LINE
  5
19592
330
747D
100
AcDbEntity
  8
細線
100
AcDbLine
 10
9141.079511576831
 20
4737.431598713261
 30
0.0
 11
9141.079511576831
 21
4714.431598713261
 31
0.0
  0
LINE
  5
19593
330
747D
100
AcDbEntity
  8
細線
100
AcDbLine
 10
9067.079511576833
 20
4725.431598713261
 30
0.0
 11
9141.079511576831
 21
4725.431598713261
 31
0.0
  0
LINE
  5
19594
330
747D
100
AcDbEntity
  8
細線
100
AcDbLine
 10
9067.079511576833
 20
4719.431598713261
 30
0.0
 11
9141.079511576831
 21
4719.431598713261
 31
0.0
  0
LINE
  5
19595
330
747D
100
AcDbEntity
  8
細線
100
AcDbLine
 10
9067.079511576833
 20
4731.431598713261
 30
0.0
 11
9141.079511576831
 21
4731.431598713261
 31
0.0
  0
LINE
  5
19596
330
747D
100
AcDbEntity
  8
細線
100
AcDbLine
 10
9215.079511576833
 20
4731.431598713261
 30
0.0
 11
9146.079511576832
 21
4731.431598713261
 31
0.0
  0
LINE
  5
19597
330
747D
100
AcDbEntity
  8
細線
100
AcDbLine
 10
9215.079511576833
 20
4719.431598713261
 30
0.0
 11
9141.079511576831
 21
4719.431598713261
 31
0.0
  0
LINE
  5
19598
330
747D
100
AcDbEntity
  8
細線
100
AcDbLine
 10
9215.079511576833
 20
4725.431598713261
 30
0.0
 11
9141.079511576831
 21
4725.431598713261
 31
0.0
  0
LINE
  5
19599
330
747D
100
AcDbEntity
  8
細線
100
AcDbLine
 10
9215.079511576833
 20
4731.431598713261
 30
0.0
 11
9141.079511576831
 21
4731.431598713261
 31
0.0
  0
LINE
  5
1959A
330
747D
100
AcDbEntity
  8
部品1
 48
0.01
100
AcDbLine
 10
9053.079511576832
 20
4743.931598713261
 30
0.0
 11
9229.079511576832
 21
4743.931598713261
 31
0.0
  0
LINE
  5
1959B
330
747D
100
AcDbEntity
  8
部品1
 48
0.01
100
AcDbLine
 10
9231.079511576833
 20
4741.931598713261
 30
0.0
 11
9231.079511576833
 21
4710.431598713261
 31
0.0
  0
LINE
  5
1959C
330
747D
100
AcDbEntity
  8
部品1
 48
0.01
100
AcDbLine
 10
9051.079511576833
 20
4710.431598713261
 30
0.0
 11
9051.079511576833
 21
4741.931598713261
 31
0.0
  0
LINE
  5
1959D
330
747D
100
AcDbEntity
  8
細線
100
AcDbLine
 10
9215.079511576833
 20
4737.431598713261
 30
0.0
 11
9215.079511576833
 21
4714.431598713261
 31
0.0
  0
LINE
  5
1959E
330
747D
100
AcDbEntity
  8
細線
100
AcDbLine
 10
9067.079511576833
 20
4714.431598713261
 30
0.0
 11
9067.079511576833
 21
4737.431598713261
 31
0.0
  0
LINE
  5
1959F
330
747D
100
AcDbEntity
  8
細線
100
AcDbLine
 10
9067.079511576833
 20
4737.431598713261
 30
0.0
 11
9141.079511576831
 21
4737.431598713261
 31
0.0
  0
LINE
  5
195A0
330
747D
100
AcDbEntity
  8
細線
100
AcDbLine
 10
9215.079511576833
 20
4714.431598713261
 30
0.0
 11
9141.079511576831
 21
4714.431598713261
 31
0.0
  0
LINE
  5
195A1
330
747D
100
AcDbEntity
  8
細線
100
AcDbLine
 10
9141.079511576831
 20
4737.431598713261
 30
0.0
 11
9215.079511576833
 21
4737.431598713261
 31
0.0
  0
LINE
  5
195A2
330
747D
100
AcDbEntity
  8
細線
100
AcDbLine
 10
9141.079511576831
 20
4714.431598713261
 30
0.0
 11
9067.079511576833
 21
4714.431598713261
 31
0.0
  0
ARC
  5
195A3
330
747D
100
AcDbEntity
  8
部品1
 48
0.01
100
AcDbCircle
 10
9229.079511576832
 20
4741.931598713261
 30
0.0
 40
2.0
100
AcDbArc
 50
0.0
 51
90.0
  0
ARC
  5
195A4
330
747D
100
AcDbEntity
  8
部品1
 48
0.01
100
AcDbCircle
 10
9053.079511576832
 20
4741.931598713261
 30
0.0
 40
2.0
100
AcDbArc
 50
90.0
 51
180.0
  0
ARC
  5
195A5
330
747D
100
AcDbEntity
  8
部品1
 48
0.01
100
AcDbCircle
 10
7999.079511576829
 20
4710.431598713261
 30
0.0
 40
2.0
100
AcDbArc
 50
270.0
 51
0.0
  0
ARC
  5
195A6
330
747D
100
AcDbEntity
  8
部品1
 48
0.01
100
AcDbCircle
 10
7823.079511576833
 20
4710.431598713261
 30
0.0
 40
2.0
100
AcDbArc
 50
180.0
 51
270.0
  0
LINE
  5
195A7
330
747D
100
AcDbEntity
  8
部品1
 48
0.01
100
AcDbLine
 10
7823.079511576833
 20
4708.431598713261
 30
0.0
 11
7999.079511576829
 21
4708.431598713261
 31
0.0
  0
LINE
  5
195A8
330
747D
100
AcDbEntity
  8
部品1
 48
0.01
100
AcDbLine
 10
9229.079511576832
 20
4708.431598713261
 30
0.0
 11
9053.079511576832
 21
4708.431598713261
 31
0.0
  0
ARC
  5
195A9
330
747D
100
AcDbEntity
  8
部品1
 48
0.01
100
AcDbCircle
 10
9229.079511576832
 20
4710.431598713261
 30
0.0
 40
2.0
100
AcDbArc
 50
270.0
 51
0.0
  0
ARC
  5
195AA
330
747D
100
AcDbEntity
  8
部品1
 48
0.01
100
AcDbCircle
 10
9053.079511576832
 20
4710.431598713261
 30
0.0
 40
2.0
100
AcDbArc
 50
180.0
 51
270.0
  0
TEXT
  5
195D5
330
747D
100
AcDbEntity
  8
文字
 62
     7
 48
50.0
100
AcDbText
 10
14646.46056207479
 20
871.9640646083623
 30
0.0
 40
100.0
  1
～一般型～
  7
STYLE2
100
AcDbText
  0
LINE
  5
19607
330
747D
100
AcDbEntity
  8
破線
 48
5.0
100
AcDbLine
 10
3901.079511576803
 20
2187.931598713261
 30
0.0
 11
4001.079511576802
 21
2187.931598713261
 31
0.0
  0
LINE
  5
19608
330
747D
100
AcDbEntity
  8
破線
 48
5.0
100
AcDbLine
 10
3951.079511576803
 20
2262.931598713262
 30
0.0
 11
3951.079511576803
 21
2187.931598713261
 31
0.0
  0
LINE
  5
19609
330
747D
100
AcDbEntity
  8
破線
 48
5.0
100
AcDbLine
 10
3848.079511576802
 20
2537.931598713262
 30
0.0
 11
3848.079511576803
 21
2287.931598713262
 31
0.0
  0
LINE
  5
1960A
330
747D
100
AcDbEntity
  8
破線
 48
5.0
100
AcDbLine
 10
3896.079511576805
 20
2287.931598713262
 30
0.0
 11
3848.079511576803
 21
2287.931598713262
 31
0.0
  0
LINE
  5
1960B
330
747D
100
AcDbEntity
  8
破線
 48
5.0
100
AcDbLine
 10
3896.079511576802
 20
2537.931598713262
 30
0.0
 11
3896.079511576804
 21
2262.931598713262
 31
0.0
  0
LINE
  5
1960C
330
747D
100
AcDbEntity
  8
破線
 48
5.0
100
AcDbLine
 10
4006.079511576801
 20
2262.931598713262
 30
0.0
 11
3896.079511576804
 21
2262.931598713262
 31
0.0
  0
LINE
  5
1960D
330
747D
100
AcDbEntity
  8
破線
 48
5.0
100
AcDbLine
 10
4054.079511576803
 20
2537.931598713262
 30
0.0
 11
4054.079511576801
 21
2287.931598713267
 31
0.0
  0
LINE
  5
1960E
330
747D
100
AcDbEntity
  8
破線
 48
5.0
100
AcDbLine
 10
4054.079511576801
 20
2287.931598713267
 30
0.0
 11
4006.079511576801
 21
2287.931598713267
 31
0.0
  0
LINE
  5
1960F
330
747D
100
AcDbEntity
  8
破線
 48
5.0
100
AcDbLine
 10
4006.079511576802
 20
2537.931598713262
 30
0.0
 11
4006.079511576802
 21
2262.931598713262
 31
0.0
  0
LINE
  5
1961D
330
747D
100
AcDbEntity
  8
破線
 48
5.0
100
AcDbLine
 10
6951.079511576813
 20
2187.931598713261
 30
0.0
 11
7051.079511576813
 21
2187.931598713261
 31
0.0
  0
LINE
  5
1961E
330
747D
100
AcDbEntity
  8
破線
 48
5.0
100
AcDbLine
 10
7001.079511576813
 20
2262.931598713262
 30
0.0
 11
7001.079511576813
 21
2187.931598713261
 31
0.0
  0
LINE
  5
1961F
330
747D
100
AcDbEntity
  8
破線
 48
5.0
100
AcDbLine
 10
6898.079511576813
 20
2537.931598713262
 30
0.0
 11
6898.079511576814
 21
2287.931598713262
 31
0.0
  0
LINE
  5
19620
330
747D
100
AcDbEntity
  8
破線
 48
5.0
100
AcDbLine
 10
6946.079511576816
 20
2287.931598713262
 30
0.0
 11
6898.079511576814
 21
2287.931598713262
 31
0.0
  0
LINE
  5
19621
330
747D
100
AcDbEntity
  8
破線
 48
5.0
100
AcDbLine
 10
6946.079511576812
 20
2537.931598713262
 30
0.0
 11
6946.079511576815
 21
2262.931598713262
 31
0.0
  0
LINE
  5
19622
330
747D
100
AcDbEntity
  8
破線
 48
5.0
100
AcDbLine
 10
7056.079511576813
 20
2262.931598713262
 30
0.0
 11
6946.079511576815
 21
2262.931598713262
 31
0.0
  0
LINE
  5
19623
330
747D
100
AcDbEntity
  8
破線
 48
5.0
100
AcDbLine
 10
7104.079511576815
 20
2537.931598713262
 30
0.0
 11
7104.079511576812
 21
2287.931598713267
 31
0.0
  0
LINE
  5
19624
330
747D
100
AcDbEntity
  8
破線
 48
5.0
100
AcDbLine
 10
7104.079511576812
 20
2287.931598713267
 30
0.0
 11
7056.079511576813
 21
2287.931598713267
 31
0.0
  0
LINE
  5
19625
330
747D
100
AcDbEntity
  8
破線
 48
5.0
100
AcDbLine
 10
7056.079511576815
 20
2537.931598713262
 30
0.0
 11
7056.079511576813
 21
2262.931598713262
 31
0.0
  0
LINE
  5
1963B
330
747D
100
AcDbEntity
  8
破線
 48
5.0
100
AcDbLine
 10
1004.079511576801
 20
2537.931598713262
 30
0.0
 11
1004.079511576801
 21
2287.931598713267
 31
0.0
  0
LINE
  5
1963C
330
747D
100
AcDbEntity
  8
破線
 48
5.0
100
AcDbLine
 10
1004.079511576801
 20
2537.931598713262
 30
0.0
 11
1004.079511576801
 21
2287.931598713267
 31
0.0
  0
LINE
  5
1963D
330
747D
100
AcDbEntity
  8
破線
 48
5.0
100
AcDbLine
 10
1004.079511576801
 20
2287.931598713267
 30
0.0
 11
956.0795115768014
 21
2287.931598713267
 31
0.0
  0
LINE
  5
1963E
330
747D
100
AcDbEntity
  8
破線
 48
5.0
100
AcDbLine
 10
1004.079511576801
 20
2287.931598713267
 30
0.0
 11
956.0795115768014
 21
2287.931598713267
 31
0.0
  0
LINE
  5
1963F
330
747D
100
AcDbEntity
  8
破線
 48
5.0
100
AcDbLine
 10
956.0795115768014
 20
2187.931598713269
 30
0.0
 11
901.0795115768015
 21
2187.931598713269
 31
0.0
  0
LINE
  5
19640
330
747D
100
AcDbEntity
  8
破線
 48
5.0
100
AcDbLine
 10
901.0795115768015
 20
2437.931598713261
 30
0.0
 11
901.0795115768015
 21
2187.931598713261
 31
0.0
  0
LINE
  5
19641
330
747D
100
AcDbEntity
  8
破線
 48
5.0
100
AcDbLine
 10
956.0795115768014
 20
2537.931598713262
 30
0.0
 11
956.0795115768014
 21
2187.931598713261
 31
0.0
  0
LINE
  5
19642
330
747D
100
AcDbEntity
  8
破線
 48
5.0
100
AcDbLine
 10
956.0795115768014
 20
2537.931598713262
 30
0.0
 11
956.0795115768014
 21
2187.931598713261
 31
0.0
  0
LINE
  5
19655
330
747D
100
AcDbEntity
  8
破線
 48
5.0
100
AcDbLine
 10
9996.07951157683
 20
2537.931598713262
 30
0.0
 11
9996.07951157683
 21
2187.931598713261
 31
0.0
  0
LINE
  5
19656
330
747D
100
AcDbEntity
  8
破線
 48
5.0
100
AcDbLine
 10
10051.07951157683
 20
2437.931598713261
 30
0.0
 11
10051.07951157683
 21
2187.931598713261
 31
0.0
  0
LINE
  5
19657
330
747D
100
AcDbEntity
  8
破線
 48
5.0
100
AcDbLine
 10
10051.07951157683
 20
2187.931598713261
 30
0.0
 11
9996.07951157683
 21
2187.931598713261
 31
0.0
  0
LINE
  5
19658
330
747D
100
AcDbEntity
  8
破線
 48
5.0
100
AcDbLine
 10
9948.079511576828
 20
2537.931598713262
 30
0.0
 11
9948.079511576828
 21
2287.931598713262
 31
0.0
  0
LINE
  5
19659
330
747D
100
AcDbEntity
  8
破線
 48
5.0
100
AcDbLine
 10
9996.079511576832
 20
2287.931598713262
 30
0.0
 11
9948.079511576828
 21
2287.931598713262
 31
0.0
  0
LINE
  5
19663
330
747D
100
AcDbEntity
  8
部品1
 48
50.0
100
AcDbLine
 10
4018.07951157683
 20
7187.997424545864
 30
0.0
 11
6934.079511576815
 21
7187.997424545864
 31
0.0
  0
LINE
  5
19665
330
747D
100
AcDbEntity
  8
細線
100
AcDbLine
 10
4054.079511576794
 20
4497.931598713261
 30
0.0
 11
6898.079511576797
 21
4497.931598713261
 31
0.0
  0
ARC
  5
19666
330
747D
100
AcDbEntity
  8
細線
 48
50.0
100
AcDbCircle
 10
5176.079511576798
 20
3100.431598713262
 30
0.0
 40
15.0
100
AcDbArc
 50
90.0
 51
270.0
  0
ARC
  5
19667
330
747D
100
AcDbEntity
  8
細線
 48
50.0
100
AcDbCircle
 10
5276.079511576797
 20
3100.431598713262
 30
0.0
 40
15.0
100
AcDbArc
 50
270.0
 51
90.0
  0
LINE
  5
19668
330
747D
100
AcDbEntity
  8
細線
 48
50.0
100
AcDbLine
 10
5176.079511576798
 20
3115.431598713261
 30
0.0
 11
5276.079511576797
 21
3115.431598713261
 31
0.0
  0
LINE
  5
19669
330
747D
100
AcDbEntity
  8
細線
 48
50.0
100
AcDbLine
 10
5276.079511576797
 20
3085.431598713262
 30
0.0
 11
5176.079511576798
 21
3085.431598713262
 31
0.0
  0
LINE
  5
1966A
330
747D
100
AcDbEntity
  8
細線
 48
50.0
100
AcDbLine
 10
5776.079511576797
 20
3085.431598713262
 30
0.0
 11
5676.079511576798
 21
3085.431598713262
 31
0.0
  0
LINE
  5
1966B
330
747D
100
AcDbEntity
  8
細線
 48
50.0
100
AcDbLine
 10
5676.079511576798
 20
3115.431598713261
 30
0.0
 11
5776.079511576797
 21
3115.431598713261
 31
0.0
  0
ARC
  5
1966C
330
747D
100
AcDbEntity
  8
細線
 48
50.0
100
AcDbCircle
 10
5676.079511576798
 20
3100.431598713262
 30
0.0
 40
15.0
100
AcDbArc
 50
90.0
 51
270.0
  0
ARC
  5
1966D
330
747D
100
AcDbEntity
  8
細線
 48
50.0
100
AcDbCircle
 10
5776.079511576797
 20
3100.431598713262
 30
0.0
 40
15.0
100
AcDbArc
 50
270.0
 51
90.0
  0
CIRCLE
  5
1966E
330
747D
100
AcDbEntity
  8
細線
 48
50.0
100
AcDbCircle
 10
5476.079511576798
 20
3425.431598713262
 30
0.0
 40
18.0
  0
LINE
  5
1966F
330
747D
100
AcDbEntity
  8
細線
100
AcDbLine
 10
4054.079511576794
 20
3067.931598713262
 30
0.0
 11
6898.079511576797
 21
3067.931598713262
 31
0.0
  0
LINE
  5
19670
330
747D
100
AcDbEntity
  8
細線
100
AcDbLine
 10
4054.079511576794
 20
3002.931598713261
 30
0.0
 11
6898.079511576797
 21
3002.931598713261
 31
0.0
  0
LINE
  5
19671
330
747D
100
AcDbEntity
  8
細線
100
AcDbLine
 10
4054.079511576794
 20
2937.931598713261
 30
0.0
 11
6898.079511576797
 21
2937.931598713261
 31
0.0
  0
LINE
  5
19672
330
747D
100
AcDbEntity
  8
細線
100
AcDbLine
 10
4054.079511576794
 20
2872.931598713261
 30
0.0
 11
6898.079511576797
 21
2872.931598713261
 31
0.0
  0
LINE
  5
19673
330
747D
100
AcDbEntity
  8
細線
100
AcDbLine
 10
4054.079511576794
 20
2807.931598713262
 30
0.0
 11
6898.079511576797
 21
2807.931598713262
 31
0.0
  0
LINE
  5
19674
330
747D
100
AcDbEntity
  8
細線
100
AcDbLine
 10
4054.079511576794
 20
2742.931598713262
 30
0.0
 11
6898.079511576797
 21
2742.931598713262
 31
0.0
  0
LINE
  5
19675
330
747D
100
AcDbEntity
  8
細線
100
AcDbLine
 10
4054.079511576794
 20
4367.931598713261
 30
0.0
 11
6898.079511576797
 21
4367.931598713261
 31
0.0
  0
LINE
  5
19676
330
747D
100
AcDbEntity
  8
細線
100
AcDbLine
 10
4054.079511576794
 20
4432.931598713262
 30
0.0
 11
6898.079511576797
 21
4432.931598713262
 31
0.0
  0
LINE
  5
19677
330
747D
100
AcDbEntity
  8
細線
100
AcDbLine
 10
4054.079511576794
 20
3717.931598713261
 30
0.0
 11
6898.079511576797
 21
3717.931598713261
 31
0.0
  0
LINE
  5
19678
330
747D
100
AcDbEntity
  8
細線
100
AcDbLine
 10
4054.079511576794
 20
3652.931598713261
 30
0.0
 11
6898.079511576797
 21
3652.931598713261
 31
0.0
  0
LINE
  5
19679
330
747D
100
AcDbEntity
  8
細線
100
AcDbLine
 10
4054.079511576794
 20
3587.931598713261
 30
0.0
 11
6898.079511576797
 21
3587.931598713261
 31
0.0
  0
LINE
  5
1967A
330
747D
100
AcDbEntity
  8
細線
100
AcDbLine
 10
4054.079511576794
 20
3522.931598713262
 30
0.0
 11
6898.079511576797
 21
3522.931598713262
 31
0.0
  0
LINE
  5
1967B
330
747D
100
AcDbEntity
  8
細線
100
AcDbLine
 10
4054.079511576794
 20
3457.931598713262
 30
0.0
 11
6898.079511576797
 21
3457.931598713262
 31
0.0
  0
LINE
  5
1967C
330
747D
100
AcDbEntity
  8
細線
100
AcDbLine
 10
4054.079511576794
 20
3392.931598713261
 30
0.0
 11
6898.079511576797
 21
3392.931598713261
 31
0.0
  0
LINE
  5
1967D
330
747D
100
AcDbEntity
  8
細線
100
AcDbLine
 10
4054.079511576794
 20
3327.931598713262
 30
0.0
 11
6898.079511576797
 21
3327.931598713262
 31
0.0
  0
LINE
  5
1967E
330
747D
100
AcDbEntity
  8
細線
100
AcDbLine
 10
4054.079511576794
 20
3262.931598713262
 30
0.0
 11
6898.079511576797
 21
3262.931598713262
 31
0.0
  0
LINE
  5
1967F
330
747D
100
AcDbEntity
  8
細線
100
AcDbLine
 10
4054.079511576794
 20
3197.931598713262
 30
0.0
 11
6898.079511576797
 21
3197.931598713262
 31
0.0
  0
LINE
  5
19680
330
747D
100
AcDbEntity
  8
細線
100
AcDbLine
 10
4054.079511576794
 20
3132.931598713261
 30
0.0
 11
6898.079511576797
 21
3132.931598713261
 31
0.0
  0
LINE
  5
19681
330
747D
100
AcDbEntity
  8
細線
100
AcDbLine
 10
4054.079511576794
 20
4107.931598713261
 30
0.0
 11
6898.079511576797
 21
4107.931598713261
 31
0.0
  0
LINE
  5
19682
330
747D
100
AcDbEntity
  8
細線
100
AcDbLine
 10
4054.079511576794
 20
4042.931598713261
 30
0.0
 11
6898.079511576797
 21
4042.931598713261
 31
0.0
  0
LINE
  5
19683
330
747D
100
AcDbEntity
  8
細線
100
AcDbLine
 10
4054.079511576794
 20
3977.931598713261
 30
0.0
 11
6898.079511576797
 21
3977.931598713261
 31
0.0
  0
LINE
  5
19684
330
747D
100
AcDbEntity
  8
細線
100
AcDbLine
 10
4054.079511576794
 20
3912.931598713262
 30
0.0
 11
6898.079511576797
 21
3912.931598713262
 31
0.0
  0
LINE
  5
19685
330
747D
100
AcDbEntity
  8
細線
100
AcDbLine
 10
4054.079511576794
 20
3847.931598713262
 30
0.0
 11
6898.079511576797
 21
3847.931598713262
 31
0.0
  0
LINE
  5
19686
330
747D
100
AcDbEntity
  8
細線
100
AcDbLine
 10
4054.079511576794
 20
3782.931598713262
 30
0.0
 11
6898.079511576797
 21
3782.931598713262
 31
0.0
  0
LINE
  5
19687
330
747D
100
AcDbEntity
  8
細線
100
AcDbLine
 10
4054.079511576794
 20
4302.931598713261
 30
0.0
 11
6898.079511576797
 21
4302.931598713261
 31
0.0
  0
LINE
  5
19688
330
747D
100
AcDbEntity
  8
細線
100
AcDbLine
 10
4054.079511576794
 20
4237.931598713261
 30
0.0
 11
6898.079511576797
 21
4237.931598713261
 31
0.0
  0
LINE
  5
19689
330
747D
100
AcDbEntity
  8
細線
100
AcDbLine
 10
4054.079511576794
 20
4172.931598713261
 30
0.0
 11
6898.079511576797
 21
4172.931598713261
 31
0.0
  0
LINE
  5
1968A
330
747D
100
AcDbEntity
  8
細線
100
AcDbLine
 10
4054.079511576794
 20
2677.931598713261
 30
0.0
 11
6898.079511576797
 21
2677.931598713261
 31
0.0
  0
LINE
  5
1968B
330
747D
100
AcDbEntity
  8
細線
100
AcDbLine
 10
4054.079511576794
 20
2612.931598713262
 30
0.0
 11
6898.079511576797
 21
2612.931598713262
 31
0.0
  0
LINE
  5
1968C
330
747D
100
AcDbEntity
  8
細線
100
AcDbLine
 10
6898.079511576802
 20
2547.931598713262
 30
0.0
 11
4054.079511576794
 21
2547.931598713262
 31
0.0
  0
LINE
  5
1968D
330
747D
100
AcDbEntity
  8
部品1
100
AcDbLine
 10
4006.079511576801
 20
4512.931598713261
 30
0.0
 11
7056.079511576825
 21
4512.931598713262
 31
0.0
  0
TEXT
  5
196A2
330
747D
100
AcDbEntity
  8
文字
 62
     7
 48
50.0
100
AcDbText
 10
15022.63965474516
 20
9060.013745883725
 30
0.0
 40
100.0
  1
F12            0.7
  7
STYLE1
100
AcDbText
  0
TEXT
  5
196A3
330
747D
100
AcDbEntity
  8
文字
 62
     7
 48
50.0
100
AcDbText
 10
13583.11819016569
 20
9230.013745883729
 30
0.0
 40
100.0
  1
シャッター
  7
STYLE1
100
AcDbText
  0
TEXT
  5
196A4
330
747D
100
AcDbEntity
  8
文字
 62
     7
 48
50.0
100
AcDbText
 10
15022.63965474516
 20
9230.013745883725
 30
0.0
 40
100.0
  1
Z08            0.5
  7
STYLE1
100
AcDbText
  0
LINE
  5
196B4
330
747D
100
AcDbEntity
  8
部品1
 48
50.0
100
AcDbLine
 10
5522.612251132366
 20
10324.65997278266
 30
0.0
 11
5429.546772021264
 21
9977.334876309299
 31
0.0
  0
SPLINE
  5
196B5
330
747D
100
AcDbEntity
  8
部品1
 48
50.0
100
AcDbSpline
210
0.0
220
0.0
230
1.0
 70
     8
 71
     3
 72
    10
 73
     6
 74
     4
 42
0.0000000001
 43
0.0000000001
 44
0.0000000001
 40
0.0
 40
0.0
 40
0.0
 40
0.0
 40
147.8767566010009
 40
301.8091093202477
 40
466.5049223087716
 40
466.5049223087716
 40
466.5049223087716
 40
466.5049223087716
 10
5543.649839309865
 20
10232.23857707177
 30
0.0
 10
5466.768156815032
 20
10223.33414341393
 30
0.0
 10
5309.856464604902
 20
10205.1606369546
 30
0.0
 10
5632.669874549247
 20
10102.64005231526
 30
0.0
 10
5462.827254879873
 20
10084.00496360305
 30
0.0
 10
5375.037249672981
 20
10074.37266672575
 30
0.0
 11
5543.649839309865
 21
10232.23857707177
 31
0.0
 11
5400.811861001096
 21
10193.96525613544
 31
0.0
 11
5534.12118892027
 21
10116.99907977582
 31
0.0
 11
5375.037249672981
 21
10074.37266672575
 31
0.0
  0
LINE
  5
196BC
330
747D
100
AcDbEntity
  8
部品1
 48
50.0
100
AcDbLine
 10
5522.612251132374
 20
7361.659972782547
 30
0.0
 11
5429.546772021272
 21
7014.334876309182
 31
0.0
  0
SPLINE
  5
196BD
330
747D
100
AcDbEntity
  8
部品1
 48
50.0
100
AcDbSpline
210
0.0
220
0.0
230
1.0
 70
     8
 71
     3
 72
    10
 73
     6
 74
     4
 42
0.0000000001
 43
0.0000000001
 44
0.0000000001
 40
0.0
 40
0.0
 40
0.0
 40
0.0
 40
147.8767566010009
 40
301.8091093202477
 40
466.5049223087716
 40
466.5049223087716
 40
466.5049223087716
 40
466.5049223087716
 10
5543.649839309874
 20
7269.238577071657
 30
0.0
 10
5466.768156815039
 20
7260.33414341382
 30
0.0
 10
5309.856464604911
 20
7242.160636954487
 30
0.0
 10
5632.669874549254
 20
7139.640052315144
 30
0.0
 10
5462.82725487988
 20
7121.004963602941
 30
0.0
 10
5375.037249672988
 20
7111.372666725633
 30
0.0
 11
5543.649839309874
 21
7269.238577071657
 31
0.0
 11
5400.811861001105
 21
7230.965256135329
 31
0.0
 11
5534.121188920279
 21
7153.999079775705
 31
0.0
 11
5375.037249672988
 21
7111.372666725633
 31
0.0
  0
LINE
  5
196CD
330
747D
100
AcDbEntity
  8
部品1
 48
50.0
100
AcDbLine
 10
5928.243773804318
 20
5112.931598713265
 30
0.0
 11
5104.300007078617
 21
2037.931598713262
 31
0.0
  0
SPLINE
  5
196CE
330
747D
100
AcDbEntity
  8
部品1
 48
50.0
100
AcDbSpline
210
0.0
220
0.0
230
1.0
 70
     8
 71
     3
 72
    10
 73
     6
 74
     4
 42
0.0000000001
 43
0.0000000001
 44
0.0000000001
 40
0.0
 40
0.0
 40
0.0
 40
0.0
 40
147.8767566010009
 40
301.8091093202477
 40
466.5049223087734
 40
466.5049223087734
 40
466.5049223087734
 40
466.5049223087734
 10
5543.64983930985
 20
3506.672751239055
 30
0.0
 10
5466.768156815016
 20
3497.768317581217
 30
0.0
 10
5309.856464604888
 20
3479.594811121885
 30
0.0
 10
5632.669874549231
 20
3377.074226482542
 30
0.0
 10
5462.827254879858
 20
3358.439137770339
 30
0.0
 10
5375.037249672963
 20
3348.80684089303
 30
0.0
 11
5543.64983930985
 21
3506.672751239055
 31
0.0
 11
5400.811861001081
 21
3468.399430302727
 31
0.0
 11
5534.121188920256
 21
3391.433253943103
 31
0.0
 11
5375.037249672963
 21
3348.80684089303
 31
0.0
  0
ENDSEC
  0
SECTION
  2
OBJECTS
  0
DICTIONARY
  5
7471
330
0
100
AcDbDictionary
281
     1
  3
ACAD_COLOR
350
179B1
  3
ACAD_GROUP
350
7472
  3
ACAD_LAYOUT
350
179B2
  3
ACAD_MATERIAL
350
179B0
  3
ACAD_MLINESTYLE
350
7473
  3
ACAD_PLOTSETTINGS
350
179B3
  3
ACAD_PLOTSTYLENAME
350
179AE
  3
ACDBHEADERROUNDTRIPXREC
350
1972E
  3
AcDbVariableDictionary
350
1972A
  3
CONTENTDICTIONARY
350
E71C
  3
DRAWINGVARIABLESDICT
350
F3B9
  0
DICTIONARY
  5
17CBD
330
7467
100
AcDbDictionary
280
     1
281
     1
  3
ACAD_LAYERSTATES
360
17CBE
  0
DICTIONARY
  5
179B1
102
{ACAD_REACTORS
330
7471
102
}
330
7471
100
AcDbDictionary
281
     1
  0
DICTIONARY
  5
7472
102
{ACAD_REACTORS
330
7471
102
}
330
7471
100
AcDbDictionary
281
     1
  0
DICTIONARY
  5
179B2
102
{ACAD_REACTORS
330
7471
102
}
330
7471
100
AcDbDictionary
281
     1
  3
Model
350
179B4
  3
レイアウト1
350
179B5
  0
DICTIONARY
  5
179B0
102
{ACAD_REACTORS
330
7471
102
}
330
7471
100
AcDbDictionary
281
     1
  0
DICTIONARY
  5
7473
102
{ACAD_REACTORS
330
7471
102
}
330
7471
100
AcDbDictionary
281
     1
  3
STANDARD
350
7480
  0
DICTIONARY
  5
179B3
102
{ACAD_REACTORS
330
7471
102
}
330
7471
100
AcDbDictionary
281
     1
  0
ACDBDICTIONARYWDFLT
  5
179AE
102
{ACAD_REACTORS
330
7471
102
}
330
7471
100
AcDbDictionary
281
     1
  3
Normal
350
179AF
100
AcDbDictionaryWithDefault
340
179AF
  0
DICTIONARY
  5
1972E
102
{ACAD_REACTORS
330
7471
102
}
330
7471
100
AcDbDictionary
281
     1
  3
COLORDICT
350
19730
  3
MATERIALDICT
350
1972F
  0
DICTIONARY
  5
1972A
102
{ACAD_REACTORS
330
7471
102
}
330
7471
100
AcDbDictionary
281
     1
  3
DIMASSOC
350
1972B
  3
PROJECTNAME
350
1972C
  0
DICTIONARY
  5
E71C
102
{ACAD_REACTORS
330
7471
102
}
330
7471
100
AcDbDictionary
281
     1
  0
DICTIONARY
  5
F3B9
102
{ACAD_REACTORS
330
7471
102
}
330
7471
100
AcDbDictionary
281
     1
1001
DRAWINGVARIABLESXDATA
1000
POLARMODE
1000
1
  0
DICTIONARY
  5
17CBE
102
{ACAD_REACTORS
330
17CBD
102
}
330
17CBD
100
AcDbDictionary
281
     1
  0
LAYOUT
  5
179B4
102
{ACAD_XDICTIONARY
360
19731
102
}
102
{ACAD_REACTORS
330
179B2
102
}
330
179B2
100
AcDbPlotSettings
  1

  2
クセロPDF
  4
A3
  6

 40
3.174999999999999
 41
3.174999999999999
 42
3.174987999999999
 43
3.174987999999999
 44
419.946655
 45
296.925995
 46
0.0
 47
0.0
 48
0.0
 49
0.0
140
0.0
141
0.0
142
1.0
143
40.44561299368567
 70
 11952
 72
     1
 73
     0
 74
     2
  7
inaba.ctb
 75
     0
147
0.0247245603659442
148
183.0179068595971
149
160.3342785227505
100
AcDbLayout
  1
Model
 70
     1
 71
     0
 10
0.0
 20
0.0
 11
12.0
 21
9.0
 12
0.0
 22
0.0
 32
0.0
 14
0.0
 24
0.0
 34
0.0
 15
0.0
 25
0.0
 35
0.0
146
0.0
 13
0.0
 23
0.0
 33
0.0
 16
1.0
 26
0.0
 36
0.0
 17
0.0
 27
1.0
 37
0.0
 76
     0
330
747D
  0
LAYOUT
  5
179B5
102
{ACAD_XDICTIONARY
360
19733
102
}
102
{ACAD_REACTORS
330
179B2
102
}
330
179B2
100
AcDbPlotSettings
  1

  2
EPSON LP-8300
  4

  6

 40
0.0
 41
0.0
 42
0.0
 43
0.0
 44
0.0
 45
0.0
 46
0.0
 47
0.0
 48
0.0
 49
0.0
140
0.0
141
0.0
142
1.0
143
1.0
 70
   688
 72
     0
 73
     0
 74
     5
  7
inaba.ctb
 75
    16
147
1.0
148
0.0
149
0.0
100
AcDbLayout
  1
レイアウト1
 70
     0
 71
     1
 10
0.0
 20
0.0
 11
420.0
 21
297.0
 12
0.0
 22
0.0
 32
0.0
 14
1.000000000000000E+20
 24
1.000000000000000E+20
 34
1.000000000000000E+20
 15
-1.000000000000000E+20
 25
-1.000000000000000E+20
 35
-1.000000000000000E+20
146
0.0
 13
0.0
 23
0.0
 33
0.0
 16
1.0
 26
0.0
 36
0.0
 17
0.0
 27
1.0
 37
0.0
 76
     0
330
747A
  0
MLINESTYLE
  5
7480
102
{ACAD_REACTORS
330
7473
102
}
330
7473
100
AcDbMlineStyle
  2
STANDARD
 70
     0
  3

 62
     0
 51
90.0
 52
90.0
 71
     2
 49
0.5
 62
   256
  6
BYLAYER
 49
-0.5
 62
   256
  6
BYLAYER
  0
ACDBPLACEHOLDER
  5
179AF
102
{ACAD_REACTORS
330
179AE
102
}
330
179AE
  0
XRECORD
  5
19730
102
{ACAD_REACTORS
330
1972E
102
}
330
1972E
100
AcDbXrecord
280
     1
340
179B1
  0
XRECORD
  5
1972F
102
{ACAD_REACTORS
330
1972E
102
}
330
1972E
100
AcDbXrecord
280
     1
340
179B0
  0
DICTIONARYVAR
  5
1972B
102
{ACAD_REACTORS
330
1972A
102
}
330
1972A
100
DictionaryVariables
280
     0
  1
1
  0
DICTIONARYVAR
  5
1972C
102
{ACAD_REACTORS
330
1972A
102
}
330
1972A
100
DictionaryVariables
280
     0
  1

  0
DICTIONARY
  5
19731
330
179B4
100
AcDbDictionary
280
     1
281
     1
  3
ACAD_XREC_ROUNDTRIP
360
19732
  0
DICTIONARY
  5
19733
330
179B5
100
AcDbDictionary
280
     1
281
     1
  3
ACAD_XREC_ROUNDTRIP
360
19734
  0
XRECORD
  5
19732
102
{ACAD_REACTORS
330
19731
102
}
330
19731
100
AcDbXrecord
280
     1
102
SHADEPLOT
 70
     1
102
SHADEPLOTRESLEVEL
 70
     2
102
SHADEPLOTCUSTOMDPI
 70
   300
  0
XRECORD
  5
19734
102
{ACAD_REACTORS
330
19733
102
}
330
19733
100
AcDbXrecord
280
     1
102
SHADEPLOT
 70
     0
102
SHADEPLOTRESLEVEL
 70
     2
102
SHADEPLOTCUSTOMDPI
 70
   300
  0
ENDSEC
  0
EOF
