  0
SECTION
  2
HEADER
  9
$ACADVER
  1
AC1015
  9
$ACADMAINTVER
 70
    20
  9
$DWGCODEPAGE
  3
ANSI_932
  9
$INSBASE
 10
0.0
 20
0.0
 30
0.0
  9
$EXTMIN
 10
139.9999999999995
 20
-0.0000000000000909
 30
0.0
  9
$EXTMAX
 10
16307.2
 20
11409.6
 30
0.0
  9
$LIMMIN
 10
-183.0179068595971
 20
-160.3342785227505
  9
$LIMMAX
 10
16374.07536659319
 20
11592.19044584975
  9
$ORTHOMODE
 70
     0
  9
$REGENMODE
 70
     1
  9
$FILLMODE
 70
     1
  9
$QTEXTMODE
 70
     0
  9
$MIRRTEXT
 70
     1
  9
$LTSCALE
 40
20.0
  9
$ATTMODE
 70
     1
  9
$TEXTSIZE
 40
100.0
  9
$TRACEWID
 40
1.0
  9
$TEXTSTYLE
  7
STYLE2
  9
$CLAYER
  8
部品1
  9
$CELTYPE
  6
BYLAYER
  9
$CECOLOR
 62
   256
  9
$CELTSCALE
 40
50.0
  9
$DISPSILH
 70
     0
  9
$DIMSCALE
 40
40.0
  9
$DIMASZ
 40
2.5
  9
$DIMEXO
 40
0.5
  9
$DIMDLI
 40
7.0
  9
$DIMRND
 40
0.0
  9
$DIMDLE
 40
0.0
  9
$DIMEXE
 40
1.5
  9
$DIMTP
 40
0.0
  9
$DIMTM
 40
0.0
  9
$DIMTXT
 40
3.0
  9
$DIMCEN
 40
0.0
  9
$DIMTSZ
 40
0.0
  9
$DIMTOL
 70
     0
  9
$DIMLIM
 70
     0
  9
$DIMTIH
 70
     0
  9
$DIMTOH
 70
     0
  9
$DIMSE1
 70
     0
  9
$DIMSE2
 70
     0
  9
$DIMTAD
 70
     3
  9
$DIMZIN
 70
     8
  9
$DIMBLK
  1

  9
$DIMASO
 70
     1
  9
$DIMSHO
 70
     1
  9
$DIMPOST
  1

  9
$DIMAPOST
  1

  9
$DIMALT
 70
     0
  9
$DIMALTD
 70
     2
  9
$DIMALTF
 40
0.0394
  9
$DIMLFAC
 40
1.0
  9
$DIMTOFL
 70
     1
  9
$DIMTVP
 40
0.0
  9
$DIMTIX
 70
     1
  9
$DIMSOXD
 70
     0
  9
$DIMSAH
 70
     1
  9
$DIMBLK1
  1
DOTSMALL
  9
$DIMBLK2
  1
DOTSMALL
  9
$DIMSTYLE
  2
INABA_S40G
  9
$DIMCLRD
 70
     0
  9
$DIMCLRE
 70
     0
  9
$DIMCLRT
 70
     7
  9
$DIMTFAC
 40
1.0
  9
$DIMGAP
 40
1.0
  9
$DIMJUST
 70
     0
  9
$DIMSD1
 70
     0
  9
$DIMSD2
 70
     0
  9
$DIMTOLJ
 70
     1
  9
$DIMTZIN
 70
     0
  9
$DIMALTZ
 70
     0
  9
$DIMALTTZ
 70
     0
  9
$DIMUPT
 70
     0
  9
$DIMDEC
 70
     1
  9
$DIMTDEC
 70
     4
  9
$DIMALTU
 70
     2
  9
$DIMALTTD
 70
     2
  9
$DIMTXSTY
  7
STYLE1
  9
$DIMAUNIT
 70
     0
  9
$DIMADEC
 70
     0
  9
$DIMALTRND
 40
0.0
  9
$DIMAZIN
 70
     0
  9
$DIMDSEP
 70
    46
  9
$DIMATFIT
 70
     3
  9
$DIMFRAC
 70
     0
  9
$DIMLDRBLK
  1

  9
$DIMLUNIT
 70
     2
  9
$DIMLWD
 70
    -2
  9
$DIMLWE
 70
    -2
  9
$DIMTMOVE
 70
     0
  9
$LUNITS
 70
     2
  9
$LUPREC
 70
     1
  9
$SKETCHINC
 40
1.0
  9
$FILLETRAD
 40
3.0
  9
$AUNITS
 70
     0
  9
$AUPREC
 70
     0
  9
$MENU
  1
acad
  9
$ELEVATION
 40
0.0
  9
$PELEVATION
 40
0.0
  9
$THICKNESS
 40
0.0
  9
$LIMCHECK
 70
     0
  9
$CHAMFERA
 40
0.0
  9
$CHAMFERB
 40
0.0
  9
$CHAMFERC
 40
0.0
  9
$CHAMFERD
 40
0.0
  9
$SKPOLY
 70
     0
  9
$TDCREATE
 40
2451368.612993866
  9
$TDUCREATE
 40
2451368.237993866
  9
$TDUPDATE
 40
2455569.632200521
  9
$TDUUPDATE
 40
2455569.257200521
  9
$TDINDWG
 40
0.7548766551
  9
$TDUSRTIMER
 40
0.7548766551
  9
$USRTIMER
 70
     1
  9
$ANGBASE
 50
0.0
  9
$ANGDIR
 70
     0
  9
$PDMODE
 70
     3
  9
$PDSIZE
 40
2.0
  9
$PLINEWID
 40
0.0
  9
$SPLFRAME
 70
     0
  9
$SPLINETYPE
 70
     6
  9
$SPLINESEGS
 70
     8
  9
$HANDSEED
  5
18264
  9
$SURFTAB1
 70
     6
  9
$SURFTAB2
 70
     6
  9
$SURFTYPE
 70
     6
  9
$SURFU
 70
     6
  9
$SURFV
 70
     6
  9
$UCSBASE
  2

  9
$UCSNAME
  2

  9
$UCSORG
 10
0.0
 20
0.0
 30
0.0
  9
$UCSXDIR
 10
1.0
 20
0.0
 30
0.0
  9
$UCSYDIR
 10
0.0
 20
1.0
 30
0.0
  9
$UCSORTHOREF
  2

  9
$UCSORTHOVIEW
 70
     0
  9
$UCSORGTOP
 10
0.0
 20
0.0
 30
0.0
  9
$UCSORGBOTTOM
 10
0.0
 20
0.0
 30
0.0
  9
$UCSORGLEFT
 10
0.0
 20
0.0
 30
0.0
  9
$UCSORGRIGHT
 10
0.0
 20
0.0
 30
0.0
  9
$UCSORGFRONT
 10
0.0
 20
0.0
 30
0.0
  9
$UCSORGBACK
 10
0.0
 20
0.0
 30
0.0
  9
$PUCSBASE
  2

  9
$PUCSNAME
  2

  9
$PUCSORG
 10
0.0
 20
0.0
 30
0.0
  9
$PUCSXDIR
 10
1.0
 20
0.0
 30
0.0
  9
$PUCSYDIR
 10
0.0
 20
1.0
 30
0.0
  9
$PUCSORTHOREF
  2

  9
$PUCSORTHOVIEW
 70
     0
  9
$PUCSORGTOP
 10
0.0
 20
0.0
 30
0.0
  9
$PUCSORGBOTTOM
 10
0.0
 20
0.0
 30
0.0
  9
$PUCSORGLEFT
 10
0.0
 20
0.0
 30
0.0
  9
$PUCSORGRIGHT
 10
0.0
 20
0.0
 30
0.0
  9
$PUCSORGFRONT
 10
0.0
 20
0.0
 30
0.0
  9
$PUCSORGBACK
 10
0.0
 20
0.0
 30
0.0
  9
$USERI1
 70
     0
  9
$USERI2
 70
     0
  9
$USERI3
 70
     0
  9
$USERI4
 70
     0
  9
$USERI5
 70
     0
  9
$USERR1
 40
0.0
  9
$USERR2
 40
0.0
  9
$USERR3
 40
0.0
  9
$USERR4
 40
0.0
  9
$USERR5
 40
0.0
  9
$WORLDVIEW
 70
     1
  9
$SHADEDGE
 70
     3
  9
$SHADEDIF
 70
    70
  9
$TILEMODE
 70
     1
  9
$MAXACTVP
 70
    16
  9
$PINSBASE
 10
0.0
 20
0.0
 30
0.0
  9
$PLIMCHECK
 70
     0
  9
$PEXTMIN
 10
1.000000000000000E+20
 20
1.000000000000000E+20
 30
1.000000000000000E+20
  9
$PEXTMAX
 10
-1.000000000000000E+20
 20
-1.000000000000000E+20
 30
-1.000000000000000E+20
  9
$PLIMMIN
 10
0.0
 20
0.0
  9
$PLIMMAX
 10
420.0
 20
297.0
  9
$UNITMODE
 70
     0
  9
$VISRETAIN
 70
     0
  9
$PLINEGEN
 70
     0
  9
$PSLTSCALE
 70
     0
  9
$TREEDEPTH
 70
  3020
  9
$CMLSTYLE
  2
STANDARD
  9
$CMLJUST
 70
     0
  9
$CMLSCALE
 40
1.0
  9
$PROXYGRAPHICS
 70
     1
  9
$MEASUREMENT
 70
     1
  9
$CELWEIGHT
370
    -1
  9
$ENDCAPS
280
     0
  9
$JOINSTYLE
280
     0
  9
$LWDISPLAY
290
     0
  9
$INSUNITS
 70
     0
  9
$HYPERLINKBASE
  1

  9
$STYLESHEET
  1
inaba.ctb
  9
$XEDIT
290
     1
  9
$CEPSNTYPE
380
     0
  9
$PSTYLEMODE
290
     1
  9
$FINGERPRINTGUID
  2
{CB9331A6-A89E-4666-9DDF-C42AC41901C3}
  9
$VERSIONGUID
  2
{75ED5A9B-58DC-46C9-9B83-164C0544190E}
  9
$EXTNAMES
290
     1
  9
$PSVPSCALE
 40
0.0
  9
$OLESTARTUP
290
     0
  0
ENDSEC
  0
SECTION
  2
CLASSES
  0
CLASS
  1
ACDBDICTIONARYWDFLT
  2
AcDbDictionaryWithDefault
  3
ObjectDBX Classes
 90
        0
280
     0
281
     0
  0
CLASS
  1
DICTIONARYVAR
  2
AcDbDictionaryVar
  3
ObjectDBX Classes
 90
        0
280
     0
281
     0
  0
CLASS
  1
ACDBPLACEHOLDER
  2
AcDbPlaceHolder
  3
ObjectDBX Classes
 90
        0
280
     0
281
     0
  0
CLASS
  1
LAYOUT
  2
AcDbLayout
  3
ObjectDBX Classes
 90
        0
280
     0
281
     0
  0
ENDSEC
  0
SECTION
  2
TABLES
  0
TABLE
  2
VPORT
  5
746D
330
0
100
AcDbSymbolTable
 70
     2
  0
VPORT
  5
1825C
330
746D
100
AcDbSymbolTableRecord
100
AcDbViewportTableRecord
  2
*Active
 70
     0
 10
0.0
 20
0.0
 11
1.0
 21
1.0
 12
8807.271686578827
 22
5704.702490562726
 13
0.0
 23
0.0
 14
10.0
 24
10.0
 15
10.0
 25
10.0
 16
0.0
 26
0.0
 36
1.0
 17
0.0
 27
0.0
 37
0.0
 40
11494.90959464419
 41
1.627450980392156
 42
50.0
 43
0.0
 44
0.0
 50
0.0
 51
0.0
 71
     0
 72
     0
 73
     1
 74
     0
 75
     0
 76
     0
 77
     0
 78
     0
281
     0
 65
     1
110
0.0
120
0.0
130
0.0
111
1.0
121
0.0
131
0.0
112
0.0
122
1.0
132
0.0
 79
     0
146
0.0
  0
ENDTAB
  0
TABLE
  2
LTYPE
  5
746A
330
0
100
AcDbSymbolTable
 70
     3
  0
LTYPE
  5
7477
330
746A
100
AcDbSymbolTableRecord
100
AcDbLinetypeTableRecord
  2
BYBLOCK
 70
     0
  3

 72
    65
 73
     0
 40
0.0
  0
LTYPE
  5
7478
330
746A
100
AcDbSymbolTableRecord
100
AcDbLinetypeTableRecord
  2
BYLAYER
 70
     0
  3

 72
    65
 73
     0
 40
0.0
  0
LTYPE
  5
7479
330
746A
100
AcDbSymbolTableRecord
100
AcDbLinetypeTableRecord
  2
CONTINUOUS
 70
     0
  3
Solid line
 72
    65
 73
     0
 40
0.0
  0
LTYPE
  5
781A
330
746A
100
AcDbSymbolTableRecord
100
AcDbLinetypeTableRecord
  2
HIDDEN
 70
     0
  3
__ __ __ __ __ __ __ __ __ __ __ __ __ __ __ __
 72
    65
 73
     2
 40
0.375
 49
0.25
 74
     0
 49
-0.125
 74
     0
  0
LTYPE
  5
781B
330
746A
100
AcDbSymbolTableRecord
100
AcDbLinetypeTableRecord
  2
PHANTOM
 70
     0
  3
______  __  __  ______  __  __  ______  __  __ 
 72
    65
 73
     6
 40
2.5
 49
1.25
 74
     0
 49
-0.25
 74
     0
 49
0.25
 74
     0
 49
-0.25
 74
     0
 49
0.25
 74
     0
 49
-0.25
 74
     0
  0
ENDTAB
  0
TABLE
  2
LAYER
  5
7467
102
{ACAD_XDICTIONARY
360
16B73
102
}
330
0
100
AcDbSymbolTable
 70
    10
  0
LAYER
  5
7474
330
7467
100
AcDbSymbolTableRecord
100
AcDbLayerTableRecord
  2
0
 70
     0
 62
     7
  6
CONTINUOUS
370
    -3
390
1675D
  0
LAYER
  5
DEB3
330
7467
100
AcDbSymbolTableRecord
100
AcDbLayerTableRecord
  2
寸法
 70
     0
 62
     4
  6
CONTINUOUS
370
    -3
390
1675D
  0
LAYER
  5
DEB4
330
7467
100
AcDbSymbolTableRecord
100
AcDbLayerTableRecord
  2
部品1
 70
     0
 62
     7
  6
CONTINUOUS
370
    -3
390
1675D
  0
LAYER
  5
DEB5
330
7467
100
AcDbSymbolTableRecord
100
AcDbLayerTableRecord
  2
補助
 70
     0
 62
    -1
  6
CONTINUOUS
370
    -3
390
1675D
  0
LAYER
  5
DEB6
330
7467
100
AcDbSymbolTableRecord
100
AcDbLayerTableRecord
  2
文字
 70
     0
 62
     7
  6
CONTINUOUS
370
    -3
390
1675D
  0
LAYER
  5
F255
330
7467
100
AcDbSymbolTableRecord
100
AcDbLayerTableRecord
  2
DEFPOINTS
 70
     0
 62
     7
  6
CONTINUOUS
290
     0
370
    -3
390
1675D
  0
LAYER
  5
10B54
330
7467
100
AcDbSymbolTableRecord
100
AcDbLayerTableRecord
  2
仕様書枠
 70
     0
 62
   230
  6
CONTINUOUS
370
    -3
390
1675D
  0
LAYER
  5
11729
330
7467
100
AcDbSymbolTableRecord
100
AcDbLayerTableRecord
  2
Ｇ．Ｌ
 70
     0
 62
    30
  6
CONTINUOUS
370
    -3
390
1675D
  0
LAYER
  5
1173F
330
7467
100
AcDbSymbolTableRecord
100
AcDbLayerTableRecord
  2
細線
 70
     0
 62
     5
  6
CONTINUOUS
370
    -3
390
1675D
  0
LAYER
  5
142E2
330
7467
100
AcDbSymbolTableRecord
100
AcDbLayerTableRecord
  2
破線
 70
     0
 62
     2
  6
HIDDEN
370
    -3
390
1675D
  0
ENDTAB
  0
TABLE
  2
STYLE
  5
7468
330
0
100
AcDbSymbolTable
 70
     4
  0
STYLE
  5
7475
330
7468
100
AcDbSymbolTableRecord
100
AcDbTextStyleTableRecord
  2
STANDARD
 70
     0
 40
0.0
 41
1.0
 50
0.0
 71
     0
 42
4.0
  3
txt
  4
C:\AutoCAD LT\bigfont.shx
  0
STYLE
  5
763C
330
7468
100
AcDbSymbolTableRecord
100
AcDbTextStyleTableRecord
  2
MSMINCHO
 70
     0
 40
0.0
 41
1.0
 50
0.0
 71
     0
 42
1.199999999999999
  3
C:\AutoCAD LT\msminch2.TTF
  4

  0
STYLE
  5
F706
330
7468
100
AcDbSymbolTableRecord
100
AcDbTextStyleTableRecord
  2
STYLE1
 70
     0
 40
0.0
 41
1.0
 50
0.0
 71
     0
 42
4.0
  3
isocp.shx
  4
bigfont.shx
  0
STYLE
  5
103BF
330
7468
100
AcDbSymbolTableRecord
100
AcDbTextStyleTableRecord
  2
STYLE2
 70
     0
 40
0.0
 41
1.0
 50
0.0
 71
     0
 42
100.0
  3
MS PGothic.ttf
  4

1001
ACAD
1000
MS PGothic
1071
    32818
  0
ENDTAB
  0
TABLE
  2
VIEW
  5
746B
330
0
100
AcDbSymbolTable
 70
     0
  0
ENDTAB
  0
TABLE
  2
UCS
  5
746C
330
0
100
AcDbSymbolTable
 70
     0
  0
ENDTAB
  0
TABLE
  2
APPID
  5
746E
330
0
100
AcDbSymbolTable
 70
     6
  0
APPID
  5
7476
330
746E
100
AcDbSymbolTableRecord
100
AcDbRegAppTableRecord
  2
ACAD
 70
     0
  0
APPID
  5
DEA9
330
746E
100
AcDbSymbolTableRecord
100
AcDbRegAppTableRecord
  2
CONTENTBLOCKICON
 70
     0
  0
APPID
  5
DEAA
330
746E
100
AcDbSymbolTableRecord
100
AcDbRegAppTableRecord
  2
CONTENTBLOCKDESCRIPTION
 70
     0
  0
APPID
  5
E71D
330
746E
100
AcDbSymbolTableRecord
100
AcDbRegAppTableRecord
  2
CONTENTTABDATA
 70
     0
  0
APPID
  5
E71E
330
746E
100
AcDbSymbolTableRecord
100
AcDbRegAppTableRecord
  2
CONTENTCURRENTTAB
 70
     0
  0
APPID
  5
F3BA
330
746E
100
AcDbSymbolTableRecord
100
AcDbRegAppTableRecord
  2
DRAWINGVARIABLESXDATA
 70
     0
  0
ENDTAB
  0
TABLE
  2
DIMSTYLE
  5
746F
330
0
100
AcDbSymbolTable
 70
     1
100
AcDbDimStyleTable
 71
     1
340
F71F
  0
DIMSTYLE
105
F71F
102
{ACAD_REACTORS
330
164EB
330
164F2
330
164F7
330
164F9
330
164FA
330
164FB
330
1650E
330
1650F
330
16510
330
16528
330
1652B
330
16556
330
16557
330
16DBE
330
16DBF
330
16DC0
330
16DC1
330
17538
330
17539
330
1753A
330
1756B
330
1756F
330
17570
330
17571
330
1757F
330
1758E
330
17B96
330
17B97
330
17B98
102
}
330
746F
100
AcDbSymbolTableRecord
100
AcDbDimStyleTableRecord
  2
INABA_S40G
 70
     0
 40
40.0
 41
2.5
 42
0.5
 43
7.0
 44
1.5
 73
     0
 74
     0
 77
     3
 78
     8
140
3.0
141
0.0
143
0.0394
147
1.0
172
     1
173
     1
174
     1
178
     7
271
     1
340
F706
341
F770
343
F770
344
F770
  0
ENDTAB
  0
TABLE
  2
BLOCK_RECORD
  5
7466
330
0
100
AcDbSymbolTable
 70
    32
  0
BLOCK_RECORD
  5
747D
330
7466
100
AcDbSymbolTableRecord
100
AcDbBlockTableRecord
  2
*MODEL_SPACE
340
16762
  0
BLOCK_RECORD
  5
747A
330
7466
100
AcDbSymbolTableRecord
100
AcDbBlockTableRecord
  2
*PAPER_SPACE
340
16763
  0
BLOCK_RECORD
  5
F770
330
7466
100
AcDbSymbolTableRecord
100
AcDbBlockTableRecord
  2
_DOTSMALL
340
0
102
{BLKREFS
331
167EB
331
167EC
331
167F6
331
167F7
331
16801
331
16802
331
1680A
331
1680B
331
16815
331
16816
331
16820
331
16821
331
1682C
331
1682D
331
16837
331
16838
331
16841
331
16842
331
1684A
331
1684B
331
16852
331
16853
331
1685B
331
1685C
331
16864
331
16865
331
171D4
331
171D5
331
171DF
331
171E0
331
179AF
331
179B0
331
179B9
331
179BA
331
179CD
331
179CE
331
179E1
331
179E2
331
179F4
331
179F5
331
179FD
331
179FE
331
17A06
331
17A07
331
17C90
331
17C91
331
181EF
331
181F0
331
181F8
331
181F9
331
18213
331
18214
331
1821C
331
1821D
331
18231
331
18232
331
1823A
331
1823B
102
}
  0
BLOCK_RECORD
  5
1655F
330
7466
100
AcDbSymbolTableRecord
100
AcDbBlockTableRecord
  2
*D1
340
0
  0
BLOCK_RECORD
  5
1656B
330
7466
100
AcDbSymbolTableRecord
100
AcDbBlockTableRecord
  2
*D2
340
0
  0
BLOCK_RECORD
  5
1658F
330
7466
100
AcDbSymbolTableRecord
100
AcDbBlockTableRecord
  2
*D3
340
0
  0
BLOCK_RECORD
  5
1659A
330
7466
100
AcDbSymbolTableRecord
100
AcDbBlockTableRecord
  2
*D4
340
0
  0
BLOCK_RECORD
  5
165A6
330
7466
100
AcDbSymbolTableRecord
100
AcDbBlockTableRecord
  2
*D5
340
0
  0
BLOCK_RECORD
  5
165B4
330
7466
100
AcDbSymbolTableRecord
100
AcDbBlockTableRecord
  2
*D6
340
0
  0
BLOCK_RECORD
  5
165C3
330
7466
100
AcDbSymbolTableRecord
100
AcDbBlockTableRecord
  2
*D7
340
0
  0
BLOCK_RECORD
  5
165D2
330
7466
100
AcDbSymbolTableRecord
100
AcDbBlockTableRecord
  2
*D8
340
0
  0
BLOCK_RECORD
  5
165E0
330
7466
100
AcDbSymbolTableRecord
100
AcDbBlockTableRecord
  2
*D9
340
0
  0
BLOCK_RECORD
  5
165EE
330
7466
100
AcDbSymbolTableRecord
100
AcDbBlockTableRecord
  2
*D10
340
0
  0
BLOCK_RECORD
  5
165FA
330
7466
100
AcDbSymbolTableRecord
100
AcDbBlockTableRecord
  2
*D11
340
0
  0
BLOCK_RECORD
  5
16608
330
7466
100
AcDbSymbolTableRecord
100
AcDbBlockTableRecord
  2
*D12
340
0
  0
BLOCK_RECORD
  5
16616
330
7466
100
AcDbSymbolTableRecord
100
AcDbBlockTableRecord
  2
*D13
340
0
  0
BLOCK_RECORD
  5
16F22
330
7466
100
AcDbSymbolTableRecord
100
AcDbBlockTableRecord
  2
*D14
340
0
  0
BLOCK_RECORD
  5
16F2E
330
7466
100
AcDbSymbolTableRecord
100
AcDbBlockTableRecord
  2
*D15
340
0
  0
BLOCK_RECORD
  5
16F3C
330
7466
100
AcDbSymbolTableRecord
100
AcDbBlockTableRecord
  2
*D16
340
0
  0
BLOCK_RECORD
  5
16F4A
330
7466
100
AcDbSymbolTableRecord
100
AcDbBlockTableRecord
  2
*D17
340
0
  0
BLOCK_RECORD
  5
17745
330
7466
100
AcDbSymbolTableRecord
100
AcDbBlockTableRecord
  2
*D18
340
0
  0
BLOCK_RECORD
  5
17751
330
7466
100
AcDbSymbolTableRecord
100
AcDbBlockTableRecord
  2
*D19
340
0
  0
BLOCK_RECORD
  5
1775D
330
7466
100
AcDbSymbolTableRecord
100
AcDbBlockTableRecord
  2
*D20
340
0
  0
BLOCK_RECORD
  5
17776
330
7466
100
AcDbSymbolTableRecord
100
AcDbBlockTableRecord
  2
*D21
340
0
  0
BLOCK_RECORD
  5
17784
330
7466
100
AcDbSymbolTableRecord
100
AcDbBlockTableRecord
  2
*D22
340
0
  0
BLOCK_RECORD
  5
17790
330
7466
100
AcDbSymbolTableRecord
100
AcDbBlockTableRecord
  2
*D23
340
0
  0
BLOCK_RECORD
  5
1779E
330
7466
100
AcDbSymbolTableRecord
100
AcDbBlockTableRecord
  2
*D24
340
0
  0
BLOCK_RECORD
  5
177AA
330
7466
100
AcDbSymbolTableRecord
100
AcDbBlockTableRecord
  2
*D25
340
0
  0
BLOCK_RECORD
  5
177B7
330
7466
100
AcDbSymbolTableRecord
100
AcDbBlockTableRecord
  2
*D26
340
0
  0
BLOCK_RECORD
  5
17C0B
330
7466
100
AcDbSymbolTableRecord
100
AcDbBlockTableRecord
  2
*D27
340
0
  0
BLOCK_RECORD
  5
17C18
330
7466
100
AcDbSymbolTableRecord
100
AcDbBlockTableRecord
  2
*D28
340
0
  0
BLOCK_RECORD
  5
17C26
330
7466
100
AcDbSymbolTableRecord
100
AcDbBlockTableRecord
  2
*D29
340
0
  0
BLOCK_RECORD
  5
18043
330
7466
100
AcDbSymbolTableRecord
100
AcDbBlockTableRecord
  2
A$C557B291E
340
0
  0
BLOCK_RECORD
  5
1817B
330
7466
100
AcDbSymbolTableRecord
100
AcDbBlockTableRecord
  2
A$C79FC173F
340
0
  0
ENDTAB
  0
ENDSEC
  0
SECTION
  2
BLOCKS
  0
BLOCK
  5
7489
330
747D
100
AcDbEntity
  8
0
100
AcDbBlockBegin
  2
*MODEL_SPACE
 70
     0
 10
0.0
 20
0.0
 30
0.0
  3
*MODEL_SPACE
  1

  0
ENDBLK
  5
748A
330
747D
100
AcDbEntity
  8
0
100
AcDbBlockEnd
  0
BLOCK
  5
7487
330
747A
100
AcDbEntity
 67
     1
  8
0
100
AcDbBlockBegin
  2
*PAPER_SPACE
 70
     0
 10
0.0
 20
0.0
 30
0.0
  3
*PAPER_SPACE
  1

  0
ENDBLK
  5
7488
330
747A
100
AcDbEntity
 67
     1
  8
0
100
AcDbBlockEnd
  0
BLOCK
  5
F771
330
F770
100
AcDbEntity
  8
0
 48
50.0
100
AcDbBlockBegin
  2
_DOTSMALL
 70
     0
 10
0.0
 20
0.0
 30
0.0
  3
_DOTSMALL
  1

  0
LWPOLYLINE
  5
F772
330
F770
100
AcDbEntity
  8
0
  6
ByBlock
 62
     0
 48
50.0
100
AcDbPolyline
 90
        2
 70
     1
 43
0.5
 10
-0.0625
 20
0.0
 42
1.0
 10
0.0625
 20
0.0
 42
1.0
  0
ENDBLK
  5
F776
330
F770
100
AcDbEntity
  8
0
 48
50.0
100
AcDbBlockEnd
  0
BLOCK
  5
166FC
330
1655F
100
AcDbEntity
  8
0
 48
50.0
100
AcDbBlockBegin
  2
*D1
 70
     1
 10
0.0
 20
0.0
 30
0.0
  3
*D1
  1

  0
LINE
  5
16861
330
1655F
100
AcDbEntity
  8
寸法
 62
     0
 48
50.0
370
    -2
100
AcDbLine
 10
7985.355796420839
 20
10032.49742454593
 30
0.0
 11
9037.889083894885
 21
10032.49742454593
 31
0.0
  0
LINE
  5
16862
330
1655F
100
AcDbEntity
  8
寸法
 62
     0
 48
50.0
370
    -2
100
AcDbLine
 10
7985.355796420813
 20
6982.497424545923
 30
0.0
 11
9037.889083894885
 21
6982.497424545923
 31
0.0
  0
LINE
  5
16863
330
1655F
100
AcDbEntity
  8
寸法
 62
     0
 48
50.0
370
    -2
100
AcDbLine
 10
8977.889083894885
 20
10032.49742454593
 30
0.0
 11
8977.889083894885
 21
6982.497424545923
 31
0.0
  0
INSERT
  5
16864
330
1655F
100
AcDbEntity
  8
寸法
 62
     0
 48
50.0
370
    -2
100
AcDbBlockReference
  2
_DOTSMALL
 10
8977.889083894885
 20
10032.49742454593
 30
0.0
 41
100.0
 42
100.0
 43
100.0
 50
90.0
  0
INSERT
  5
16865
330
1655F
100
AcDbEntity
  8
寸法
 62
     0
 48
50.0
370
    -2
100
AcDbBlockReference
  2
_DOTSMALL
 10
8977.889083894885
 20
6982.497424545923
 30
0.0
 41
100.0
 42
100.0
 43
100.0
 50
270.0
  0
MTEXT
  5
16866
330
1655F
100
AcDbEntity
  8
寸法
 62
     7
 48
50.0
100
AcDbMText
 10
8877.889083894883
 20
8507.497424545929
 30
0.0
 40
120.0
 41
0.0
 71
     5
 72
     1
  1
\A1;3050
  7
STYLE1
 11
0.0000000000000001
 21
1.0
 31
0.0
 73
     1
 44
1.0
1001
ACAD
1000
MTEXTBEGIN
1070
    73
1070
     1
1070
    44
1040
1.0
1070
    74
1070
     0
1000
MTEXTEND
  0
POINT
  5
16867
330
1655F
100
AcDbEntity
  8
DEFPOINTS
 62
     0
 48
50.0
100
AcDbPoint
 10
7965.355796420839
 20
10032.49742454593
 30
0.0
  0
POINT
  5
16868
330
1655F
100
AcDbEntity
  8
DEFPOINTS
 62
     0
 48
50.0
100
AcDbPoint
 10
7965.355796420815
 20
6982.497424545923
 30
0.0
  0
POINT
  5
16869
330
1655F
100
AcDbEntity
  8
DEFPOINTS
 62
     0
 48
50.0
100
AcDbPoint
 10
8977.889083894885
 20
6982.497424545923
 30
0.0
  0
ENDBLK
  5
16706
330
1655F
100
AcDbEntity
  8
0
 48
50.0
100
AcDbBlockEnd
  0
BLOCK
  5
16707
330
1656B
100
AcDbEntity
  8
0
 48
50.0
100
AcDbBlockBegin
  2
*D2
 70
     1
 10
0.0
 20
0.0
 30
0.0
  3
*D2
  1

  0
LINE
  5
16858
330
1656B
100
AcDbEntity
  8
寸法
 62
     0
 48
50.0
370
    -2
100
AcDbLine
 10
7985.355796420839
 20
9977.497424545935
 30
0.0
 11
8672.782142155247
 21
9977.497424545935
 31
0.0
  0
LINE
  5
16859
330
1656B
100
AcDbEntity
  8
寸法
 62
     0
 48
50.0
370
    -2
100
AcDbLine
 10
7985.355796420813
 20
7037.49742454592
 30
0.0
 11
8672.782142155247
 21
7037.49742454592
 31
0.0
  0
LINE
  5
1685A
330
1656B
100
AcDbEntity
  8
寸法
 62
     0
 48
50.0
370
    -2
100
AcDbLine
 10
8612.782142155246
 20
9977.497424545935
 30
0.0
 11
8612.782142155246
 21
7037.49742454592
 31
0.0
  0
INSERT
  5
1685B
330
1656B
100
AcDbEntity
  8
寸法
 62
     0
 48
50.0
370
    -2
100
AcDbBlockReference
  2
_DOTSMALL
 10
8612.782142155246
 20
9977.497424545935
 30
0.0
 41
100.0
 42
100.0
 43
100.0
 50
90.0
  0
INSERT
  5
1685C
330
1656B
100
AcDbEntity
  8
寸法
 62
     0
 48
50.0
370
    -2
100
AcDbBlockReference
  2
_DOTSMALL
 10
8612.782142155246
 20
7037.49742454592
 30
0.0
 41
100.0
 42
100.0
 43
100.0
 50
270.0
  0
MTEXT
  5
1685D
330
1656B
100
AcDbEntity
  8
寸法
 62
     7
 48
50.0
100
AcDbMText
 10
8512.770331131624
 20
8507.497424545929
 30
0.0
 40
120.0
 41
0.0
 71
     5
 72
     1
  1
\A1;7X420=2940
  7
STYLE1
 11
0.0000000000000001
 21
1.0
 31
0.0
 73
     1
 44
1.0
1001
ACAD
1000
MTEXTBEGIN
1070
    73
1070
     1
1070
    44
1040
1.0
1070
    74
1070
     0
1000
MTEXTEND
  0
POINT
  5
1685E
330
1656B
100
AcDbEntity
  8
DEFPOINTS
 62
     0
 48
50.0
100
AcDbPoint
 10
7965.355796420839
 20
9977.497424545935
 30
0.0
  0
POINT
  5
1685F
330
1656B
100
AcDbEntity
  8
DEFPOINTS
 62
     0
 48
50.0
100
AcDbPoint
 10
7965.355796420815
 20
7037.49742454592
 30
0.0
  0
POINT
  5
16860
330
1656B
100
AcDbEntity
  8
DEFPOINTS
 62
     0
 48
50.0
100
AcDbPoint
 10
8612.782142155246
 20
7037.49742454592
 30
0.0
  0
ENDBLK
  5
16711
330
1656B
100
AcDbEntity
  8
0
 48
50.0
100
AcDbBlockEnd
  0
BLOCK
  5
1665C
330
1658F
100
AcDbEntity
  8
0
 48
50.0
100
AcDbBlockBegin
  2
*D3
 70
     1
 10
0.0
 20
0.0
 30
0.0
  3
*D3
  1

  0
LINE
  5
16850
330
1658F
100
AcDbEntity
  8
寸法
 62
     0
 48
50.0
370
    -2
100
AcDbLine
 10
5018.355796420832
 20
6988.497424545832
 30
0.0
 11
5018.355796420832
 21
6388.066653779667
 31
0.0
  0
LINE
  5
16851
330
1658F
100
AcDbEntity
  8
寸法
 62
     0
 48
50.0
370
    -2
100
AcDbLine
 10
7862.355796420814
 20
6448.066653779668
 30
0.0
 11
5018.355796420832
 21
6448.066653779668
 31
0.0
  0
INSERT
  5
16852
330
1658F
100
AcDbEntity
  8
寸法
 62
     0
 48
50.0
370
    -2
100
AcDbBlockReference
  2
_DOTSMALL
 10
7862.355796420814
 20
6448.066653779668
 30
0.0
 41
100.0
 42
100.0
 43
100.0
  0
INSERT
  5
16853
330
1658F
100
AcDbEntity
  8
寸法
 62
     0
 48
50.0
370
    -2
100
AcDbBlockReference
  2
_DOTSMALL
 10
5018.355796420832
 20
6448.066653779668
 30
0.0
 41
100.0
 42
100.0
 43
100.0
 50
180.0
  0
MTEXT
  5
16854
330
1658F
100
AcDbEntity
  8
寸法
 62
     7
 48
50.0
100
AcDbMText
 10
6440.355796420823
 20
6548.078464803289
 30
0.0
 40
120.0
 41
0.0
 71
     5
 72
     1
  1
\A1;有効開口部間口 2844
  7
STYLE1
 73
     1
 44
1.0
1001
ACAD
1000
MTEXTBEGIN
1070
    73
1070
     1
1070
    44
1040
1.0
1070
    74
1070
     0
1000
MTEXTEND
  0
POINT
  5
16855
330
1658F
100
AcDbEntity
  8
DEFPOINTS
 62
     0
 48
50.0
100
AcDbPoint
 10
7862.355796420814
 20
7008.497424545833
 30
0.0
  0
POINT
  5
16856
330
1658F
100
AcDbEntity
  8
DEFPOINTS
 62
     0
 48
50.0
100
AcDbPoint
 10
5018.355796420832
 20
7008.497424545831
 30
0.0
  0
POINT
  5
16857
330
1658F
100
AcDbEntity
  8
DEFPOINTS
 62
     0
 48
50.0
100
AcDbPoint
 10
5018.355796420832
 20
6448.066653779668
 30
0.0
  0
ENDBLK
  5
16665
330
1658F
100
AcDbEntity
  8
0
 48
50.0
100
AcDbBlockEnd
  0
BLOCK
  5
16666
330
1659A
100
AcDbEntity
  8
0
 48
50.0
100
AcDbBlockBegin
  2
*D4
 70
     1
 10
0.0
 20
0.0
 30
0.0
  3
*D4
  1

  0
LINE
  5
16847
330
1659A
100
AcDbEntity
  8
寸法
 62
     0
 48
50.0
370
    -2
100
AcDbLine
 10
4915.355796420833
 20
6962.497424545759
 30
0.0
 11
4915.355796420833
 21
6101.893658188794
 31
0.0
  0
LINE
  5
16848
330
1659A
100
AcDbEntity
  8
寸法
 62
     0
 48
50.0
370
    -2
100
AcDbLine
 10
7965.355796420815
 20
6962.497424545887
 30
0.0
 11
7965.355796420815
 21
6101.893658188794
 31
0.0
  0
LINE
  5
16849
330
1659A
100
AcDbEntity
  8
寸法
 62
     0
 48
50.0
370
    -2
100
AcDbLine
 10
4915.355796420833
 20
6161.893658188794
 30
0.0
 11
7965.355796420815
 21
6161.893658188794
 31
0.0
  0
INSERT
  5
1684A
330
1659A
100
AcDbEntity
  8
寸法
 62
     0
 48
50.0
370
    -2
100
AcDbBlockReference
  2
_DOTSMALL
 10
4915.355796420833
 20
6161.893658188794
 30
0.0
 41
100.0
 42
100.0
 43
100.0
 50
180.0
  0
INSERT
  5
1684B
330
1659A
100
AcDbEntity
  8
寸法
 62
     0
 48
50.0
370
    -2
100
AcDbBlockReference
  2
_DOTSMALL
 10
7965.355796420815
 20
6161.893658188794
 30
0.0
 41
100.0
 42
100.0
 43
100.0
  0
MTEXT
  5
1684C
330
1659A
100
AcDbEntity
  8
寸法
 62
     7
 48
50.0
100
AcDbMText
 10
6440.355796420823
 20
6261.893658188793
 30
0.0
 40
120.0
 41
0.0
 71
     5
 72
     1
  1
\A1;3050
  7
STYLE1
 73
     1
 44
1.0
1001
ACAD
1000
MTEXTBEGIN
1070
    73
1070
     1
1070
    44
1040
1.0
1070
    74
1070
     0
1000
MTEXTEND
  0
POINT
  5
1684D
330
1659A
100
AcDbEntity
  8
DEFPOINTS
 62
     0
 48
50.0
100
AcDbPoint
 10
4915.355796420833
 20
6982.497424545759
 30
0.0
  0
POINT
  5
1684E
330
1659A
100
AcDbEntity
  8
DEFPOINTS
 62
     0
 48
50.0
100
AcDbPoint
 10
7965.355796420815
 20
6982.497424545887
 30
0.0
  0
POINT
  5
1684F
330
1659A
100
AcDbEntity
  8
DEFPOINTS
 62
     0
 48
50.0
100
AcDbPoint
 10
7965.355796420815
 20
6161.893658188794
 30
0.0
  0
ENDBLK
  5
16670
330
1659A
100
AcDbEntity
  8
0
 48
50.0
100
AcDbBlockEnd
  0
BLOCK
  5
16671
330
165A6
100
AcDbEntity
  8
0
 48
50.0
100
AcDbBlockBegin
  2
*D5
 70
     1
 10
0.0
 20
0.0
 30
0.0
  3
*D5
  1

  0
LINE
  5
1683C
330
165A6
100
AcDbEntity
  8
寸法
 62
     0
 48
50.0
370
    -2
100
AcDbLine
 10
4970.355796420829
 20
6962.497424545832
 30
0.0
 11
4970.355796420829
 21
6388.066653779667
 31
0.0
  0
LINE
  5
1683D
330
165A6
100
AcDbEntity
  8
寸法
 62
     0
 48
50.0
370
    -2
100
AcDbLine
 10
4915.355796420833
 20
6962.497424545829
 30
0.0
 11
4915.355796420833
 21
6388.066653779667
 31
0.0
  0
LINE
  5
1683E
330
165A6
100
AcDbEntity
  8
寸法
 62
     0
 48
50.0
370
    -2
100
AcDbLine
 10
4970.355796420829
 20
6448.066653779668
 30
0.0
 11
5070.355796420829
 21
6448.066653779668
 31
0.0
  0
LINE
  5
1683F
330
165A6
100
AcDbEntity
  8
寸法
 62
     0
 48
50.0
370
    -2
100
AcDbLine
 10
4915.355796420833
 20
6448.066653779668
 30
0.0
 11
4498.385233672355
 21
6448.066653779668
 31
0.0
  0
LINE
  5
16840
330
165A6
100
AcDbEntity
  8
寸法
 62
     0
 48
50.0
370
    -2
100
AcDbLine
 10
4970.355796420829
 20
6448.066653779668
 30
0.0
 11
4915.355796420833
 21
6448.066653779668
 31
0.0
  0
INSERT
  5
16841
330
165A6
100
AcDbEntity
  8
寸法
 62
     0
 48
50.0
370
    -2
100
AcDbBlockReference
  2
_DOTSMALL
 10
4970.355796420829
 20
6448.066653779668
 30
0.0
 41
100.0
 42
100.0
 43
100.0
 50
180.0
  0
INSERT
  5
16842
330
165A6
100
AcDbEntity
  8
寸法
 62
     0
 48
50.0
370
    -2
100
AcDbBlockReference
  2
_DOTSMALL
 10
4915.355796420833
 20
6448.066653779668
 30
0.0
 41
100.0
 42
100.0
 43
100.0
  0
MTEXT
  5
16843
330
165A6
100
AcDbEntity
  8
寸法
 62
     7
 48
50.0
100
AcDbMText
 10
4606.870515046593
 20
6548.066653779668
 30
0.0
 40
120.0
 41
0.0
 71
     5
 72
     1
  1
\A1;55
  7
STYLE1
 73
     1
 44
1.0
1001
ACAD
1000
MTEXTBEGIN
1070
    73
1070
     1
1070
    44
1040
1.0
1070
    74
1070
     0
1000
MTEXTEND
  0
POINT
  5
16844
330
165A6
100
AcDbEntity
  8
DEFPOINTS
 62
     0
 48
50.0
100
AcDbPoint
 10
4970.355796420829
 20
6982.497424545832
 30
0.0
  0
POINT
  5
16845
330
165A6
100
AcDbEntity
  8
DEFPOINTS
 62
     0
 48
50.0
100
AcDbPoint
 10
4915.355796420833
 20
6982.49742454583
 30
0.0
  0
POINT
  5
16846
330
165A6
100
AcDbEntity
  8
DEFPOINTS
 62
     0
 48
50.0
100
AcDbPoint
 10
4915.355796420833
 20
6448.066653779668
 30
0.0
  0
ENDBLK
  5
1667D
330
165A6
100
AcDbEntity
  8
0
 48
50.0
100
AcDbBlockEnd
  0
BLOCK
  5
1667E
330
165B4
100
AcDbEntity
  8
0
 48
50.0
100
AcDbBlockBegin
  2
*D6
 70
     1
 10
0.0
 20
0.0
 30
0.0
  3
*D6
  1

  0
LINE
  5
16831
330
165B4
100
AcDbEntity
  8
寸法
 62
     0
 48
50.0
370
    -2
100
AcDbLine
 10
5018.355796420832
 20
6988.497424545832
 30
0.0
 11
5018.355796420832
 21
6388.066653779667
 31
0.0
  0
LINE
  5
16832
330
165B4
100
AcDbEntity
  8
寸法
 62
     0
 48
50.0
370
    -2
100
AcDbLine
 10
4970.355796420829
 20
6962.497424545832
 30
0.0
 11
4970.355796420829
 21
6388.066653779667
 31
0.0
  0
LINE
  5
16833
330
165B4
100
AcDbEntity
  8
寸法
 62
     0
 48
50.0
370
    -2
100
AcDbLine
 10
5018.355796420832
 20
6448.066653779668
 30
0.0
 11
5118.355796420832
 21
6448.066653779668
 31
0.0
  0
LINE
  5
16834
330
165B4
100
AcDbEntity
  8
寸法
 62
     0
 48
50.0
370
    -2
100
AcDbLine
 10
4970.355796420829
 20
6448.066653779668
 30
0.0
 11
4870.355796420828
 21
6448.066653779668
 31
0.0
  0
MTEXT
  5
16835
330
165B4
100
AcDbEntity
  8
寸法
 62
     7
 48
50.0
100
AcDbMText
 10
5131.25776742089
 20
6548.066653779668
 30
0.0
 40
120.0
 41
0.0
 71
     5
 72
     1
  1
\A1;48
  7
STYLE1
 73
     1
 44
1.0
1001
ACAD
1000
MTEXTBEGIN
1070
    73
1070
     1
1070
    44
1040
1.0
1070
    74
1070
     0
1000
MTEXTEND
  0
LINE
  5
16836
330
165B4
100
AcDbEntity
  8
寸法
 62
     0
 48
50.0
370
    -2
100
AcDbLine
 10
5018.355796420832
 20
6448.066653779668
 30
0.0
 11
4970.355796420829
 21
6448.066653779668
 31
0.0
  0
INSERT
  5
16837
330
165B4
100
AcDbEntity
  8
寸法
 62
     0
 48
50.0
370
    -2
100
AcDbBlockReference
  2
_DOTSMALL
 10
5018.355796420832
 20
6448.066653779668
 30
0.0
 41
100.0
 42
100.0
 43
100.0
 50
180.0
  0
INSERT
  5
16838
330
165B4
100
AcDbEntity
  8
寸法
 62
     0
 48
50.0
370
    -2
100
AcDbBlockReference
  2
_DOTSMALL
 10
4970.355796420829
 20
6448.066653779668
 30
0.0
 41
100.0
 42
100.0
 43
100.0
  0
POINT
  5
16839
330
165B4
100
AcDbEntity
  8
DEFPOINTS
 62
     0
 48
50.0
100
AcDbPoint
 10
5018.355796420832
 20
7008.497424545831
 30
0.0
  0
POINT
  5
1683A
330
165B4
100
AcDbEntity
  8
DEFPOINTS
 62
     0
 48
50.0
100
AcDbPoint
 10
4970.355796420829
 20
6982.497424545832
 30
0.0
  0
POINT
  5
1683B
330
165B4
100
AcDbEntity
  8
DEFPOINTS
 62
     0
 48
50.0
100
AcDbPoint
 10
4970.355796420829
 20
6448.066653779668
 30
0.0
  0
ENDBLK
  5
1668B
330
165B4
100
AcDbEntity
  8
0
 48
50.0
100
AcDbBlockEnd
  0
BLOCK
  5
1668C
330
165C3
100
AcDbEntity
  8
0
 48
50.0
100
AcDbBlockBegin
  2
*D7
 70
     1
 10
0.0
 20
0.0
 30
0.0
  3
*D7
  1

  0
LINE
  5
16826
330
165C3
100
AcDbEntity
  8
寸法
 62
     0
 48
50.0
370
    -2
100
AcDbLine
 10
7910.355796420816
 20
6962.49742454592
 30
0.0
 11
7910.355796420816
 21
6388.066653779667
 31
0.0
  0
LINE
  5
16827
330
165C3
100
AcDbEntity
  8
寸法
 62
     0
 48
50.0
370
    -2
100
AcDbLine
 10
7862.355796420814
 20
6988.497424545832
 30
0.0
 11
7862.355796420814
 21
6388.066653779667
 31
0.0
  0
LINE
  5
16828
330
165C3
100
AcDbEntity
  8
寸法
 62
     0
 48
50.0
370
    -2
100
AcDbLine
 10
7910.355796420816
 20
6448.066653779668
 30
0.0
 11
8010.355796420816
 21
6448.066653779668
 31
0.0
  0
LINE
  5
16829
330
165C3
100
AcDbEntity
  8
寸法
 62
     0
 48
50.0
370
    -2
100
AcDbLine
 10
7862.355796420814
 20
6448.066653779668
 30
0.0
 11
7762.355796420814
 21
6448.066653779668
 31
0.0
  0
MTEXT
  5
1682A
330
165C3
100
AcDbEntity
  8
寸法
 62
     7
 48
50.0
100
AcDbMText
 10
7751.392898772066
 20
6548.066653779668
 30
0.0
 40
120.0
 41
0.0
 71
     5
 72
     1
  1
\A1;48
  7
STYLE1
 73
     1
 44
1.0
1001
ACAD
1000
MTEXTBEGIN
1070
    73
1070
     1
1070
    44
1040
1.0
1070
    74
1070
     0
1000
MTEXTEND
  0
LINE
  5
1682B
330
165C3
100
AcDbEntity
  8
寸法
 62
     0
 48
50.0
370
    -2
100
AcDbLine
 10
7910.355796420816
 20
6448.066653779668
 30
0.0
 11
7862.355796420814
 21
6448.066653779668
 31
0.0
  0
INSERT
  5
1682C
330
165C3
100
AcDbEntity
  8
寸法
 62
     0
 48
50.0
370
    -2
100
AcDbBlockReference
  2
_DOTSMALL
 10
7910.355796420816
 20
6448.066653779668
 30
0.0
 41
100.0
 42
100.0
 43
100.0
 50
180.0
  0
INSERT
  5
1682D
330
165C3
100
AcDbEntity
  8
寸法
 62
     0
 48
50.0
370
    -2
100
AcDbBlockReference
  2
_DOTSMALL
 10
7862.355796420814
 20
6448.066653779668
 30
0.0
 41
100.0
 42
100.0
 43
100.0
  0
POINT
  5
1682E
330
165C3
100
AcDbEntity
  8
DEFPOINTS
 62
     0
 48
50.0
100
AcDbPoint
 10
7910.355796420816
 20
6982.49742454592
 30
0.0
  0
POINT
  5
1682F
330
165C3
100
AcDbEntity
  8
DEFPOINTS
 62
     0
 48
50.0
100
AcDbPoint
 10
7862.355796420814
 20
7008.497424545833
 30
0.0
  0
POINT
  5
16830
330
165C3
100
AcDbEntity
  8
DEFPOINTS
 62
     0
 48
50.0
100
AcDbPoint
 10
7862.355796420814
 20
6448.066653779668
 30
0.0
  0
ENDBLK
  5
16699
330
165C3
100
AcDbEntity
  8
0
 48
50.0
100
AcDbBlockEnd
  0
BLOCK
  5
1669A
330
165D2
100
AcDbEntity
  8
0
 48
50.0
100
AcDbBlockBegin
  2
*D8
 70
     1
 10
0.0
 20
0.0
 30
0.0
  3
*D8
  1

  0
LINE
  5
1681B
330
165D2
100
AcDbEntity
  8
寸法
 62
     0
 48
50.0
370
    -2
100
AcDbLine
 10
7965.355796420815
 20
6962.497424545924
 30
0.0
 11
7965.355796420815
 21
6388.066653779669
 31
0.0
  0
LINE
  5
1681C
330
165D2
100
AcDbEntity
  8
寸法
 62
     0
 48
50.0
370
    -2
100
AcDbLine
 10
7910.355796420816
 20
6962.49742454592
 30
0.0
 11
7910.355796420816
 21
6388.066653779669
 31
0.0
  0
LINE
  5
1681D
330
165D2
100
AcDbEntity
  8
寸法
 62
     0
 48
50.0
370
    -2
100
AcDbLine
 10
7910.355796420816
 20
6448.066653779669
 30
0.0
 11
7810.355796420816
 21
6448.066653779669
 31
0.0
  0
LINE
  5
1681E
330
165D2
100
AcDbEntity
  8
寸法
 62
     0
 48
50.0
370
    -2
100
AcDbLine
 10
7965.355796420815
 20
6448.066653779669
 30
0.0
 11
8382.32635916929
 21
6448.066653779669
 31
0.0
  0
LINE
  5
1681F
330
165D2
100
AcDbEntity
  8
寸法
 62
     0
 48
50.0
370
    -2
100
AcDbLine
 10
7910.355796420816
 20
6448.066653779669
 30
0.0
 11
7965.355796420815
 21
6448.066653779669
 31
0.0
  0
INSERT
  5
16820
330
165D2
100
AcDbEntity
  8
寸法
 62
     0
 48
50.0
370
    -2
100
AcDbBlockReference
  2
_DOTSMALL
 10
7910.355796420816
 20
6448.066653779669
 30
0.0
 41
100.0
 42
100.0
 43
100.0
  0
INSERT
  5
16821
330
165D2
100
AcDbEntity
  8
寸法
 62
     0
 48
50.0
370
    -2
100
AcDbBlockReference
  2
_DOTSMALL
 10
7965.355796420815
 20
6448.066653779669
 30
0.0
 41
100.0
 42
100.0
 43
100.0
 50
180.0
  0
MTEXT
  5
16822
330
165D2
100
AcDbEntity
  8
寸法
 62
     7
 48
50.0
100
AcDbMText
 10
8273.841077795053
 20
6548.066653779669
 30
0.0
 40
120.0
 41
0.0
 71
     5
 72
     1
  1
\A1;55
  7
STYLE1
 73
     1
 44
1.0
1001
ACAD
1000
MTEXTBEGIN
1070
    73
1070
     1
1070
    44
1040
1.0
1070
    74
1070
     0
1000
MTEXTEND
  0
POINT
  5
16823
330
165D2
100
AcDbEntity
  8
DEFPOINTS
 62
     0
 48
50.0
100
AcDbPoint
 10
7965.355796420815
 20
6982.497424545923
 30
0.0
  0
POINT
  5
16824
330
165D2
100
AcDbEntity
  8
DEFPOINTS
 62
     0
 48
50.0
100
AcDbPoint
 10
7910.355796420816
 20
6982.49742454592
 30
0.0
  0
POINT
  5
16825
330
165D2
100
AcDbEntity
  8
DEFPOINTS
 62
     0
 48
50.0
100
AcDbPoint
 10
7910.355796420816
 20
6448.066653779669
 30
0.0
  0
ENDBLK
  5
166A6
330
165D2
100
AcDbEntity
  8
0
 48
50.0
100
AcDbBlockEnd
  0
BLOCK
  5
166A7
330
165E0
100
AcDbEntity
  8
0
 48
50.0
100
AcDbBlockBegin
  2
*D9
 70
     1
 10
0.0
 20
0.0
 30
0.0
  3
*D9
  1

  0
LINE
  5
16810
330
165E0
100
AcDbEntity
  8
寸法
 62
     0
 48
50.0
370
    -2
100
AcDbLine
 10
7985.355796420813
 20
7037.49742454592
 30
0.0
 11
8672.782142155226
 21
7037.49742454592
 31
0.0
  0
LINE
  5
16811
330
165E0
100
AcDbEntity
  8
寸法
 62
     0
 48
50.0
370
    -2
100
AcDbLine
 10
7985.355796420813
 20
6982.497424545923
 30
0.0
 11
8672.782142155226
 21
6982.497424545923
 31
0.0
  0
LINE
  5
16812
330
165E0
100
AcDbEntity
  8
寸法
 62
     0
 48
50.0
370
    -2
100
AcDbLine
 10
8612.782142155225
 20
7037.49742454592
 30
0.0
 11
8612.782142155225
 21
7137.497424545919
 31
0.0
  0
LINE
  5
16813
330
165E0
100
AcDbEntity
  8
寸法
 62
     0
 48
50.0
370
    -2
100
AcDbLine
 10
8612.782142155225
 20
6982.497424545923
 30
0.0
 11
8612.782142155225
 21
6496.150676266822
 31
0.0
  0
LINE
  5
16814
330
165E0
100
AcDbEntity
  8
寸法
 62
     0
 48
50.0
370
    -2
100
AcDbLine
 10
8612.782142155225
 20
7037.49742454592
 30
0.0
 11
8612.782142155225
 21
6982.497424545923
 31
0.0
  0
INSERT
  5
16815
330
165E0
100
AcDbEntity
  8
寸法
 62
     0
 48
50.0
370
    -2
100
AcDbBlockReference
  2
_DOTSMALL
 10
8612.782142155225
 20
7037.49742454592
 30
0.0
 41
100.0
 42
100.0
 43
100.0
 50
270.0
  0
INSERT
  5
16816
330
165E0
100
AcDbEntity
  8
寸法
 62
     0
 48
50.0
370
    -2
100
AcDbBlockReference
  2
_DOTSMALL
 10
8612.782142155225
 20
6982.497424545923
 30
0.0
 41
100.0
 42
100.0
 43
100.0
 50
90.0
  0
MTEXT
  5
16817
330
165E0
100
AcDbEntity
  8
寸法
 62
     7
 48
50.0
100
AcDbMText
 10
8512.782142155224
 20
6604.635957641061
 30
0.0
 40
120.0
 41
0.0
 71
     5
 72
     1
  1
\A1;55
  7
STYLE1
 11
0.0000000000000001
 21
1.0
 31
0.0
 73
     1
 44
1.0
1001
ACAD
1000
MTEXTBEGIN
1070
    73
1070
     1
1070
    44
1040
1.0
1070
    74
1070
     0
1000
MTEXTEND
  0
POINT
  5
16818
330
165E0
100
AcDbEntity
  8
DEFPOINTS
 62
     0
 48
50.0
100
AcDbPoint
 10
7965.355796420815
 20
7037.49742454592
 30
0.0
  0
POINT
  5
16819
330
165E0
100
AcDbEntity
  8
DEFPOINTS
 62
     0
 48
50.0
100
AcDbPoint
 10
7965.355796420815
 20
6982.497424545923
 30
0.0
  0
POINT
  5
1681A
330
165E0
100
AcDbEntity
  8
DEFPOINTS
 62
     0
 48
50.0
100
AcDbPoint
 10
8612.782142155225
 20
6982.497424545923
 30
0.0
  0
ENDBLK
  5
166B3
330
165E0
100
AcDbEntity
  8
0
 48
50.0
100
AcDbBlockEnd
  0
BLOCK
  5
166B4
330
165EE
100
AcDbEntity
  8
0
 48
50.0
100
AcDbBlockBegin
  2
*D10
 70
     1
 10
0.0
 20
0.0
 30
0.0
  3
*D10
  1

  0
LINE
  5
16807
330
165EE
100
AcDbEntity
  8
寸法
 62
     0
 48
50.0
370
    -2
100
AcDbLine
 10
4970.355796420839
 20
10052.49742454583
 30
0.0
 11
4970.355796420839
 21
10308.30564417093
 31
0.0
  0
LINE
  5
16808
330
165EE
100
AcDbEntity
  8
寸法
 62
     0
 48
50.0
370
    -2
100
AcDbLine
 10
7910.355796420839
 20
10052.49742454593
 30
0.0
 11
7910.355796420839
 21
10308.30564417093
 31
0.0
  0
LINE
  5
16809
330
165EE
100
AcDbEntity
  8
寸法
 62
     0
 48
50.0
370
    -2
100
AcDbLine
 10
4970.355796420839
 20
10248.30564417093
 30
0.0
 11
7910.355796420839
 21
10248.30564417093
 31
0.0
  0
INSERT
  5
1680A
330
165EE
100
AcDbEntity
  8
寸法
 62
     0
 48
50.0
370
    -2
100
AcDbBlockReference
  2
_DOTSMALL
 10
4970.355796420839
 20
10248.30564417093
 30
0.0
 41
100.0
 42
100.0
 43
100.0
 50
180.0
  0
INSERT
  5
1680B
330
165EE
100
AcDbEntity
  8
寸法
 62
     0
 48
50.0
370
    -2
100
AcDbBlockReference
  2
_DOTSMALL
 10
7910.355796420839
 20
10248.30564417093
 30
0.0
 41
100.0
 42
100.0
 43
100.0
  0
MTEXT
  5
1680C
330
165EE
100
AcDbEntity
  8
寸法
 62
     7
 48
50.0
100
AcDbMText
 10
6440.355796420838
 20
10348.31745519455
 30
0.0
 40
120.0
 41
0.0
 71
     5
 72
     1
  1
\A1;7X420=2940
  7
STYLE1
 73
     1
 44
1.0
1001
ACAD
1000
MTEXTBEGIN
1070
    73
1070
     1
1070
    44
1040
1.0
1070
    74
1070
     0
1000
MTEXTEND
  0
POINT
  5
1680D
330
165EE
100
AcDbEntity
  8
DEFPOINTS
 62
     0
 48
50.0
100
AcDbPoint
 10
4970.355796420839
 20
10032.49742454583
 30
0.0
  0
POINT
  5
1680E
330
165EE
100
AcDbEntity
  8
DEFPOINTS
 62
     0
 48
50.0
100
AcDbPoint
 10
7910.355796420839
 20
10032.49742454593
 30
0.0
  0
POINT
  5
1680F
330
165EE
100
AcDbEntity
  8
DEFPOINTS
 62
     0
 48
50.0
100
AcDbPoint
 10
7910.355796420839
 20
10248.30564417093
 30
0.0
  0
ENDBLK
  5
166BE
330
165EE
100
AcDbEntity
  8
0
 48
50.0
100
AcDbBlockEnd
  0
BLOCK
  5
166BF
330
165FA
100
AcDbEntity
  8
0
 48
50.0
100
AcDbBlockBegin
  2
*D11
 70
     1
 10
0.0
 20
0.0
 30
0.0
  3
*D11
  1

  0
LINE
  5
167FC
330
165FA
100
AcDbEntity
  8
寸法
 62
     0
 48
50.0
370
    -2
100
AcDbLine
 10
4915.355796420804
 20
10052.49742454583
 30
0.0
 11
4915.355796420804
 21
10308.30564417082
 31
0.0
  0
LINE
  5
167FD
330
165FA
100
AcDbEntity
  8
寸法
 62
     0
 48
50.0
370
    -2
100
AcDbLine
 10
4970.355796420839
 20
10052.49742454583
 30
0.0
 11
4970.355796420839
 21
10308.30564417082
 31
0.0
  0
LINE
  5
167FE
330
165FA
100
AcDbEntity
  8
寸法
 62
     0
 48
50.0
370
    -2
100
AcDbLine
 10
4970.355796420839
 20
10248.30564417082
 30
0.0
 11
5070.355796420838
 21
10248.30564417082
 31
0.0
  0
LINE
  5
167FF
330
165FA
100
AcDbEntity
  8
寸法
 62
     0
 48
50.0
370
    -2
100
AcDbLine
 10
4915.355796420804
 20
10248.30564417082
 30
0.0
 11
4498.385233672325
 21
10248.30564417082
 31
0.0
  0
LINE
  5
16800
330
165FA
100
AcDbEntity
  8
寸法
 62
     0
 48
50.0
370
    -2
100
AcDbLine
 10
4970.355796420839
 20
10248.30564417082
 30
0.0
 11
4915.355796420804
 21
10248.30564417082
 31
0.0
  0
INSERT
  5
16801
330
165FA
100
AcDbEntity
  8
寸法
 62
     0
 48
50.0
370
    -2
100
AcDbBlockReference
  2
_DOTSMALL
 10
4970.355796420839
 20
10248.30564417082
 30
0.0
 41
100.0
 42
100.0
 43
100.0
 50
180.0
  0
INSERT
  5
16802
330
165FA
100
AcDbEntity
  8
寸法
 62
     0
 48
50.0
370
    -2
100
AcDbBlockReference
  2
_DOTSMALL
 10
4915.355796420804
 20
10248.30564417082
 30
0.0
 41
100.0
 42
100.0
 43
100.0
  0
MTEXT
  5
16803
330
165FA
100
AcDbEntity
  8
寸法
 62
     7
 48
50.0
100
AcDbMText
 10
4606.870515046565
 20
10348.30564417082
 30
0.0
 40
120.0
 41
0.0
 71
     5
 72
     1
  1
\A1;55
  7
STYLE1
 73
     1
 44
1.0
1001
ACAD
1000
MTEXTBEGIN
1070
    73
1070
     1
1070
    44
1040
1.0
1070
    74
1070
     0
1000
MTEXTEND
  0
POINT
  5
16804
330
165FA
100
AcDbEntity
  8
DEFPOINTS
 62
     0
 48
50.0
100
AcDbPoint
 10
4915.355796420804
 20
10032.49742454583
 30
0.0
  0
POINT
  5
16805
330
165FA
100
AcDbEntity
  8
DEFPOINTS
 62
     0
 48
50.0
100
AcDbPoint
 10
4970.355796420839
 20
10032.49742454583
 30
0.0
  0
POINT
  5
16806
330
165FA
100
AcDbEntity
  8
DEFPOINTS
 62
     0
 48
50.0
100
AcDbPoint
 10
4970.355796420839
 20
10248.30564417082
 30
0.0
  0
ENDBLK
  5
166CB
330
165FA
100
AcDbEntity
  8
0
 48
50.0
100
AcDbBlockEnd
  0
BLOCK
  5
166CC
330
16608
100
AcDbEntity
  8
0
 48
50.0
100
AcDbBlockBegin
  2
*D12
 70
     1
 10
0.0
 20
0.0
 30
0.0
  3
*D12
  1

  0
LINE
  5
167F1
330
16608
100
AcDbEntity
  8
寸法
 62
     0
 48
50.0
370
    -2
100
AcDbLine
 10
7985.355796420839
 20
10032.49742454593
 30
0.0
 11
8672.78214215525
 21
10032.49742454593
 31
0.0
  0
LINE
  5
167F2
330
16608
100
AcDbEntity
  8
寸法
 62
     0
 48
50.0
370
    -2
100
AcDbLine
 10
7985.355796420839
 20
9977.497424545935
 30
0.0
 11
8672.78214215525
 21
9977.497424545935
 31
0.0
  0
LINE
  5
167F3
330
16608
100
AcDbEntity
  8
寸法
 62
     0
 48
50.0
370
    -2
100
AcDbLine
 10
8612.782142155252
 20
9977.497424545935
 30
0.0
 11
8612.782142155252
 21
9877.497424545936
 31
0.0
  0
LINE
  5
167F4
330
16608
100
AcDbEntity
  8
寸法
 62
     0
 48
50.0
370
    -2
100
AcDbLine
 10
8612.782142155252
 20
10032.49742454593
 30
0.0
 11
8612.782142155252
 21
10449.4679872944
 31
0.0
  0
LINE
  5
167F5
330
16608
100
AcDbEntity
  8
寸法
 62
     0
 48
50.0
370
    -2
100
AcDbLine
 10
8612.782142155252
 20
9977.497424545935
 30
0.0
 11
8612.782142155252
 21
10032.49742454593
 31
0.0
  0
INSERT
  5
167F6
330
16608
100
AcDbEntity
  8
寸法
 62
     0
 48
50.0
370
    -2
100
AcDbBlockReference
  2
_DOTSMALL
 10
8612.782142155252
 20
9977.497424545935
 30
0.0
 41
100.0
 42
100.0
 43
100.0
 50
90.0
  0
INSERT
  5
167F7
330
16608
100
AcDbEntity
  8
寸法
 62
     0
 48
50.0
370
    -2
100
AcDbBlockReference
  2
_DOTSMALL
 10
8612.782142155252
 20
10032.49742454593
 30
0.0
 41
100.0
 42
100.0
 43
100.0
 50
270.0
  0
MTEXT
  5
167F8
330
16608
100
AcDbEntity
  8
寸法
 62
     7
 48
50.0
100
AcDbMText
 10
8512.78214215525
 20
10340.98270592017
 30
0.0
 40
120.0
 41
0.0
 71
     5
 72
     1
  1
\A1;55
  7
STYLE1
 11
0.0000000000000001
 21
1.0
 31
0.0
 73
     1
 44
1.0
1001
ACAD
1000
MTEXTBEGIN
1070
    73
1070
     1
1070
    44
1040
1.0
1070
    74
1070
     0
1000
MTEXTEND
  0
POINT
  5
167F9
330
16608
100
AcDbEntity
  8
DEFPOINTS
 62
     0
 48
50.0
100
AcDbPoint
 10
7965.355796420839
 20
10032.49742454593
 30
0.0
  0
POINT
  5
167FA
330
16608
100
AcDbEntity
  8
DEFPOINTS
 62
     0
 48
50.0
100
AcDbPoint
 10
7965.355796420839
 20
9977.497424545935
 30
0.0
  0
POINT
  5
167FB
330
16608
100
AcDbEntity
  8
DEFPOINTS
 62
     0
 48
50.0
100
AcDbPoint
 10
8612.782142155252
 20
9977.497424545935
 30
0.0
  0
ENDBLK
  5
166D8
330
16608
100
AcDbEntity
  8
0
 48
50.0
100
AcDbBlockEnd
  0
BLOCK
  5
166D9
330
16616
100
AcDbEntity
  8
0
 48
50.0
100
AcDbBlockBegin
  2
*D13
 70
     1
 10
0.0
 20
0.0
 30
0.0
  3
*D13
  1

  0
LINE
  5
167E6
330
16616
100
AcDbEntity
  8
寸法
 62
     0
 48
50.0
370
    -2
100
AcDbLine
 10
7910.355796420839
 20
10052.49742454593
 30
0.0
 11
7910.355796420839
 21
10308.30564417091
 31
0.0
  0
LINE
  5
167E7
330
16616
100
AcDbEntity
  8
寸法
 62
     0
 48
50.0
370
    -2
100
AcDbLine
 10
7965.355796420839
 20
10052.49742454593
 30
0.0
 11
7965.355796420839
 21
10308.30564417091
 31
0.0
  0
LINE
  5
167E8
330
16616
100
AcDbEntity
  8
寸法
 62
     0
 48
50.0
370
    -2
100
AcDbLine
 10
7910.355796420839
 20
10248.30564417091
 30
0.0
 11
7810.355796420839
 21
10248.30564417091
 31
0.0
  0
LINE
  5
167E9
330
16616
100
AcDbEntity
  8
寸法
 62
     0
 48
50.0
370
    -2
100
AcDbLine
 10
7965.355796420839
 20
10248.30564417091
 30
0.0
 11
8382.326359169317
 21
10248.30564417091
 31
0.0
  0
LINE
  5
167EA
330
16616
100
AcDbEntity
  8
寸法
 62
     0
 48
50.0
370
    -2
100
AcDbLine
 10
7910.355796420839
 20
10248.30564417091
 30
0.0
 11
7965.355796420839
 21
10248.30564417091
 31
0.0
  0
INSERT
  5
167EB
330
16616
100
AcDbEntity
  8
寸法
 62
     0
 48
50.0
370
    -2
100
AcDbBlockReference
  2
_DOTSMALL
 10
7910.355796420839
 20
10248.30564417091
 30
0.0
 41
100.0
 42
100.0
 43
100.0
  0
INSERT
  5
167EC
330
16616
100
AcDbEntity
  8
寸法
 62
     0
 48
50.0
370
    -2
100
AcDbBlockReference
  2
_DOTSMALL
 10
7965.355796420839
 20
10248.30564417091
 30
0.0
 41
100.0
 42
100.0
 43
100.0
 50
180.0
  0
MTEXT
  5
167ED
330
16616
100
AcDbEntity
  8
寸法
 62
     7
 48
50.0
100
AcDbMText
 10
8273.841077795077
 20
10348.30564417091
 30
0.0
 40
120.0
 41
0.0
 71
     5
 72
     1
  1
\A1;55
  7
STYLE1
 73
     1
 44
1.0
1001
ACAD
1000
MTEXTBEGIN
1070
    73
1070
     1
1070
    44
1040
1.0
1070
    74
1070
     0
1000
MTEXTEND
  0
POINT
  5
167EE
330
16616
100
AcDbEntity
  8
DEFPOINTS
 62
     0
 48
50.0
100
AcDbPoint
 10
7910.355796420839
 20
10032.49742454593
 30
0.0
  0
POINT
  5
167EF
330
16616
100
AcDbEntity
  8
DEFPOINTS
 62
     0
 48
50.0
100
AcDbPoint
 10
7965.355796420839
 20
10032.49742454593
 30
0.0
  0
POINT
  5
167F0
330
16616
100
AcDbEntity
  8
DEFPOINTS
 62
     0
 48
50.0
100
AcDbPoint
 10
7965.355796420839
 20
10248.30564417091
 30
0.0
  0
ENDBLK
  5
166E5
330
16616
100
AcDbEntity
  8
0
 48
50.0
100
AcDbBlockEnd
  0
BLOCK
  5
16F2C
330
16F22
100
AcDbEntity
  8
0
 48
50.0
100
AcDbBlockBegin
  2
*D14
 70
     1
 10
0.0
 20
0.0
 30
0.0
  3
*D14
  1

  0
LINE
  5
181F5
330
16F22
100
AcDbEntity
  8
寸法
 62
     0
 48
50.0
370
    -2
100
AcDbLine
 10
7965.355796420841
 20
4932.931598713266
 30
0.0
 11
7965.355796420841
 21
5185.473183971506
 31
0.0
  0
LINE
  5
181F6
330
16F22
100
AcDbEntity
  8
寸法
 62
     0
 48
50.0
370
    -2
100
AcDbLine
 10
4915.355796420826
 20
4932.931598713269
 30
0.0
 11
4915.355796420826
 21
5185.473183971506
 31
0.0
  0
LINE
  5
181F7
330
16F22
100
AcDbEntity
  8
寸法
 62
     0
 48
50.0
370
    -2
100
AcDbLine
 10
7965.355796420841
 20
5125.473183971506
 30
0.0
 11
4915.355796420826
 21
5125.473183971506
 31
0.0
  0
INSERT
  5
181F8
330
16F22
100
AcDbEntity
  8
寸法
 62
     0
 48
50.0
370
    -2
100
AcDbBlockReference
  2
_DOTSMALL
 10
7965.355796420841
 20
5125.473183971506
 30
0.0
 41
100.0
 42
100.0
 43
100.0
  0
INSERT
  5
181F9
330
16F22
100
AcDbEntity
  8
寸法
 62
     0
 48
50.0
370
    -2
100
AcDbBlockReference
  2
_DOTSMALL
 10
4915.355796420826
 20
5125.473183971506
 30
0.0
 41
100.0
 42
100.0
 43
100.0
 50
180.0
  0
MTEXT
  5
181FA
330
16F22
100
AcDbEntity
  8
寸法
 62
     7
 48
50.0
100
AcDbMText
 10
6440.355796420835
 20
5225.473183971506
 30
0.0
 40
120.0
 41
0.0
 71
     5
 72
     1
  1
\A1;柱外寸法3050
  7
STYLE1
 73
     1
 44
1.0
1001
ACAD
1000
MTEXTBEGIN
1070
    73
1070
     1
1070
    44
1040
1.0
1070
    74
1070
     0
1000
MTEXTEND
  0
POINT
  5
181FB
330
16F22
100
AcDbEntity
  8
DEFPOINTS
 62
     0
 48
50.0
100
AcDbPoint
 10
7965.355796420841
 20
4912.931598713266
 30
0.0
  0
POINT
  5
181FC
330
16F22
100
AcDbEntity
  8
DEFPOINTS
 62
     0
 48
50.0
100
AcDbPoint
 10
4915.355796420826
 20
4912.931598713268
 30
0.0
  0
POINT
  5
181FD
330
16F22
100
AcDbEntity
  8
DEFPOINTS
 62
     0
 48
50.0
100
AcDbPoint
 10
4915.355796420826
 20
5125.473183971506
 30
0.0
  0
ENDBLK
  5
16F2D
330
16F22
100
AcDbEntity
  8
0
 48
50.0
100
AcDbBlockEnd
  0
BLOCK
  5
16F3A
330
16F2E
100
AcDbEntity
  8
0
 48
50.0
100
AcDbBlockBegin
  2
*D15
 70
     1
 10
0.0
 20
0.0
 30
0.0
  3
*D15
  1

  0
LINE
  5
171DA
330
16F2E
100
AcDbEntity
  8
寸法
 62
     0
 48
50.0
370
    -2
100
AcDbLine
 10
4915.355796420826
 20
4932.931598713269
 30
0.0
 11
4915.355796420826
 21
5185.473183971506
 31
0.0
  0
LINE
  5
171DB
330
16F2E
100
AcDbEntity
  8
寸法
 62
     0
 48
50.0
370
    -2
100
AcDbLine
 10
4865.355796420827
 20
4932.931598713267
 30
0.0
 11
4865.355796420827
 21
5185.473183971506
 31
0.0
  0
LINE
  5
171DC
330
16F2E
100
AcDbEntity
  8
寸法
 62
     0
 48
50.0
370
    -2
100
AcDbLine
 10
4915.355796420826
 20
5125.473183971506
 30
0.0
 11
5015.355796420827
 21
5125.473183971506
 31
0.0
  0
LINE
  5
171DD
330
16F2E
100
AcDbEntity
  8
寸法
 62
     0
 48
50.0
370
    -2
100
AcDbLine
 10
4865.355796420827
 20
5125.473183971506
 30
0.0
 11
4445.823270952092
 21
5125.473183971506
 31
0.0
  0
LINE
  5
171DE
330
16F2E
100
AcDbEntity
  8
寸法
 62
     0
 48
50.0
370
    -2
100
AcDbLine
 10
4915.355796420826
 20
5125.473183971506
 30
0.0
 11
4865.355796420827
 21
5125.473183971506
 31
0.0
  0
INSERT
  5
171DF
330
16F2E
100
AcDbEntity
  8
寸法
 62
     0
 48
50.0
370
    -2
100
AcDbBlockReference
  2
_DOTSMALL
 10
4915.355796420826
 20
5125.473183971506
 30
0.0
 41
100.0
 42
100.0
 43
100.0
 50
180.0
  0
INSERT
  5
171E0
330
16F2E
100
AcDbEntity
  8
寸法
 62
     0
 48
50.0
370
    -2
100
AcDbBlockReference
  2
_DOTSMALL
 10
4865.355796420827
 20
5125.473183971506
 30
0.0
 41
100.0
 42
100.0
 43
100.0
  0
MTEXT
  5
171E1
330
16F2E
100
AcDbEntity
  8
寸法
 62
     7
 48
50.0
100
AcDbMText
 10
4551.870515046579
 20
5225.473183971506
 30
0.0
 40
120.0
 41
0.0
 71
     5
 72
     1
  1
\A1;50
  7
STYLE1
 73
     1
 44
1.0
1001
ACAD
1000
MTEXTBEGIN
1070
    73
1070
     1
1070
    44
1040
1.0
1070
    74
1070
     0
1000
MTEXTEND
  0
POINT
  5
171E2
330
16F2E
100
AcDbEntity
  8
DEFPOINTS
 62
     0
 48
50.0
100
AcDbPoint
 10
4915.355796420826
 20
4912.931598713268
 30
0.0
  0
POINT
  5
171E3
330
16F2E
100
AcDbEntity
  8
DEFPOINTS
 62
     0
 48
50.0
100
AcDbPoint
 10
4865.355796420827
 20
4912.931598713267
 30
0.0
  0
POINT
  5
171E4
330
16F2E
100
AcDbEntity
  8
DEFPOINTS
 62
     0
 48
50.0
100
AcDbPoint
 10
4865.355796420827
 20
5125.473183971506
 30
0.0
  0
ENDBLK
  5
16F3B
330
16F2E
100
AcDbEntity
  8
0
 48
50.0
100
AcDbBlockEnd
  0
BLOCK
  5
16F48
330
16F3C
100
AcDbEntity
  8
0
 48
50.0
100
AcDbBlockBegin
  2
*D16
 70
     1
 10
0.0
 20
0.0
 30
0.0
  3
*D16
  1

  0
LINE
  5
171CF
330
16F3C
100
AcDbEntity
  8
寸法
 62
     0
 48
50.0
370
    -2
100
AcDbLine
 10
8015.355796420841
 20
4932.931598713264
 30
0.0
 11
8015.355796420841
 21
5185.473183971505
 31
0.0
  0
LINE
  5
171D0
330
16F3C
100
AcDbEntity
  8
寸法
 62
     0
 48
50.0
370
    -2
100
AcDbLine
 10
7965.355796420841
 20
4932.931598713266
 30
0.0
 11
7965.355796420841
 21
5185.473183971505
 31
0.0
  0
LINE
  5
171D1
330
16F3C
100
AcDbEntity
  8
寸法
 62
     0
 48
50.0
370
    -2
100
AcDbLine
 10
7965.355796420841
 20
5125.473183971505
 30
0.0
 11
7865.355796420842
 21
5125.473183971505
 31
0.0
  0
LINE
  5
171D2
330
16F3C
100
AcDbEntity
  8
寸法
 62
     0
 48
50.0
370
    -2
100
AcDbLine
 10
8015.355796420841
 20
5125.473183971505
 30
0.0
 11
8434.888321889564
 21
5125.473183971505
 31
0.0
  0
LINE
  5
171D3
330
16F3C
100
AcDbEntity
  8
寸法
 62
     0
 48
50.0
370
    -2
100
AcDbLine
 10
7965.355796420841
 20
5125.473183971505
 30
0.0
 11
8015.355796420841
 21
5125.473183971505
 31
0.0
  0
INSERT
  5
171D4
330
16F3C
100
AcDbEntity
  8
寸法
 62
     0
 48
50.0
370
    -2
100
AcDbBlockReference
  2
_DOTSMALL
 10
7965.355796420841
 20
5125.473183971505
 30
0.0
 41
100.0
 42
100.0
 43
100.0
  0
INSERT
  5
171D5
330
16F3C
100
AcDbEntity
  8
寸法
 62
     0
 48
50.0
370
    -2
100
AcDbBlockReference
  2
_DOTSMALL
 10
8015.355796420841
 20
5125.473183971505
 30
0.0
 41
100.0
 42
100.0
 43
100.0
 50
180.0
  0
MTEXT
  5
171D6
330
16F3C
100
AcDbEntity
  8
寸法
 62
     7
 48
50.0
100
AcDbMText
 10
8328.841077795077
 20
5225.473183971505
 30
0.0
 40
120.0
 41
0.0
 71
     5
 72
     1
  1
\A1;50
  7
STYLE1
 73
     1
 44
1.0
1001
ACAD
1000
MTEXTBEGIN
1070
    73
1070
     1
1070
    44
1040
1.0
1070
    74
1070
     0
1000
MTEXTEND
  0
POINT
  5
171D7
330
16F3C
100
AcDbEntity
  8
DEFPOINTS
 62
     0
 48
50.0
100
AcDbPoint
 10
8015.355796420841
 20
4912.931598713264
 30
0.0
  0
POINT
  5
171D8
330
16F3C
100
AcDbEntity
  8
DEFPOINTS
 62
     0
 48
50.0
100
AcDbPoint
 10
7965.355796420841
 20
4912.931598713266
 30
0.0
  0
POINT
  5
171D9
330
16F3C
100
AcDbEntity
  8
DEFPOINTS
 62
     0
 48
50.0
100
AcDbPoint
 10
7965.355796420841
 20
5125.473183971505
 30
0.0
  0
ENDBLK
  5
16F49
330
16F3C
100
AcDbEntity
  8
0
 48
50.0
100
AcDbBlockEnd
  0
BLOCK
  5
16F54
330
16F4A
100
AcDbEntity
  8
0
 48
50.0
100
AcDbBlockBegin
  2
*D17
 70
     1
 10
0.0
 20
0.0
 30
0.0
  3
*D17
  1

  0
LINE
  5
181EC
330
16F4A
100
AcDbEntity
  8
寸法
 62
     0
 48
50.0
370
    -2
100
AcDbLine
 10
4865.355796420827
 20
4932.931598713267
 30
0.0
 11
4865.355796420827
 21
5406.378484445255
 31
0.0
  0
LINE
  5
181ED
330
16F4A
100
AcDbEntity
  8
寸法
 62
     0
 48
50.0
370
    -2
100
AcDbLine
 10
8015.355796420841
 20
4932.931598713264
 30
0.0
 11
8015.355796420841
 21
5406.378484445255
 31
0.0
  0
LINE
  5
181EE
330
16F4A
100
AcDbEntity
  8
寸法
 62
     0
 48
50.0
370
    -2
100
AcDbLine
 10
4865.355796420827
 20
5346.378484445256
 30
0.0
 11
8015.355796420841
 21
5346.378484445256
 31
0.0
  0
INSERT
  5
181EF
330
16F4A
100
AcDbEntity
  8
寸法
 62
     0
 48
50.0
370
    -2
100
AcDbBlockReference
  2
_DOTSMALL
 10
4865.355796420827
 20
5346.378484445256
 30
0.0
 41
100.0
 42
100.0
 43
100.0
 50
180.0
  0
INSERT
  5
181F0
330
16F4A
100
AcDbEntity
  8
寸法
 62
     0
 48
50.0
370
    -2
100
AcDbBlockReference
  2
_DOTSMALL
 10
8015.355796420841
 20
5346.378484445256
 30
0.0
 41
100.0
 42
100.0
 43
100.0
  0
MTEXT
  5
181F1
330
16F4A
100
AcDbEntity
  8
寸法
 62
     7
 48
50.0
100
AcDbMText
 10
6440.355796420835
 20
5446.378484445256
 30
0.0
 40
120.0
 41
0.0
 71
     5
 72
     1
  1
\A1;3150
  7
STYLE1
 73
     1
 44
1.0
1001
ACAD
1000
MTEXTBEGIN
1070
    73
1070
     1
1070
    44
1040
1.0
1070
    74
1070
     0
1000
MTEXTEND
  0
POINT
  5
181F2
330
16F4A
100
AcDbEntity
  8
DEFPOINTS
 62
     0
 48
50.0
100
AcDbPoint
 10
4865.355796420827
 20
4912.931598713267
 30
0.0
  0
POINT
  5
181F3
330
16F4A
100
AcDbEntity
  8
DEFPOINTS
 62
     0
 48
50.0
100
AcDbPoint
 10
8015.355796420841
 20
4912.931598713264
 30
0.0
  0
POINT
  5
181F4
330
16F4A
100
AcDbEntity
  8
DEFPOINTS
 62
     0
 48
50.0
100
AcDbPoint
 10
8015.355796420841
 20
5346.378484445256
 30
0.0
  0
ENDBLK
  5
16F55
330
16F4A
100
AcDbEntity
  8
0
 48
50.0
100
AcDbBlockEnd
  0
BLOCK
  5
1774F
330
17745
100
AcDbEntity
  8
0
 48
50.0
100
AcDbBlockBegin
  2
*D18
 70
     1
 10
0.0
 20
0.0
 30
0.0
  3
*D18
  1

  0
LINE
  5
17A03
330
17745
100
AcDbEntity
  8
寸法
 62
     0
 48
50.0
370
    -2
100
AcDbLine
 10
10636.19168736323
 20
4677.931598713257
 30
0.0
 11
9752.441558179976
 21
4677.931598713258
 31
0.0
  0
LINE
  5
17A04
330
17745
100
AcDbEntity
  8
寸法
 62
     0
 48
50.0
370
    -2
100
AcDbLine
 10
10636.19168736323
 20
2587.931598713257
 30
0.0
 11
9752.441558179974
 21
2587.931598713257
 31
0.0
  0
LINE
  5
17A05
330
17745
100
AcDbEntity
  8
寸法
 62
     0
 48
50.0
370
    -2
100
AcDbLine
 10
9812.441558179976
 20
4677.931598713258
 30
0.0
 11
9812.441558179974
 21
2587.931598713257
 31
0.0
  0
INSERT
  5
17A06
330
17745
100
AcDbEntity
  8
寸法
 62
     0
 48
50.0
370
    -2
100
AcDbBlockReference
  2
_DOTSMALL
 10
9812.441558179976
 20
4677.931598713258
 30
0.0
 41
100.0
 42
100.0
 43
100.0
 50
90.0
  0
INSERT
  5
17A07
330
17745
100
AcDbEntity
  8
寸法
 62
     0
 48
50.0
370
    -2
100
AcDbBlockReference
  2
_DOTSMALL
 10
9812.441558179974
 20
2587.931598713257
 30
0.0
 41
100.0
 42
100.0
 43
100.0
 50
270.0
  0
MTEXT
  5
17A08
330
17745
100
AcDbEntity
  8
寸法
 62
     7
 48
50.0
100
AcDbMText
 10
9712.429747156352
 20
3632.931598713259
 30
0.0
 40
120.0
 41
0.0
 71
     5
 72
     1
  1
\A1;2090
  7
STYLE1
 11
0.0000000000000001
 21
1.0
 31
0.0
 73
     1
 44
1.0
1001
ACAD
1000
MTEXTBEGIN
1070
    73
1070
     1
1070
    44
1040
1.0
1070
    74
1070
     0
1000
MTEXTEND
  0
POINT
  5
17A09
330
17745
100
AcDbEntity
  8
DEFPOINTS
 62
     0
 48
50.0
100
AcDbPoint
 10
10656.19168736323
 20
4677.931598713257
 30
0.0
  0
POINT
  5
17A0A
330
17745
100
AcDbEntity
  8
DEFPOINTS
 62
     0
 48
50.0
100
AcDbPoint
 10
10656.19168736323
 20
2587.931598713257
 30
0.0
  0
POINT
  5
17A0B
330
17745
100
AcDbEntity
  8
DEFPOINTS
 62
     0
 48
50.0
100
AcDbPoint
 10
9812.441558179974
 20
2587.931598713257
 30
0.0
  0
ENDBLK
  5
17750
330
17745
100
AcDbEntity
  8
0
 48
50.0
100
AcDbBlockEnd
  0
BLOCK
  5
1775B
330
17751
100
AcDbEntity
  8
0
 48
50.0
100
AcDbBlockBegin
  2
*D19
 70
     1
 10
0.0
 20
0.0
 30
0.0
  3
*D19
  1

  0
LINE
  5
179FA
330
17751
100
AcDbEntity
  8
寸法
 62
     0
 48
50.0
370
    -2
100
AcDbLine
 10
10636.19168736323
 20
2537.931598713257
 30
0.0
 11
9452.441558179971
 21
2537.931598713257
 31
0.0
  0
LINE
  5
179FB
330
17751
100
AcDbEntity
  8
寸法
 62
     0
 48
50.0
370
    -2
100
AcDbLine
 10
10576.19168736323
 20
4912.931598713261
 30
0.0
 11
9452.441558179973
 21
4912.931598713262
 31
0.0
  0
LINE
  5
179FC
330
17751
100
AcDbEntity
  8
寸法
 62
     0
 48
50.0
370
    -2
100
AcDbLine
 10
9512.44155817997
 20
2537.931598713257
 30
0.0
 11
9512.441558179974
 21
4912.931598713262
 31
0.0
  0
INSERT
  5
179FD
330
17751
100
AcDbEntity
  8
寸法
 62
     0
 48
50.0
370
    -2
100
AcDbBlockReference
  2
_DOTSMALL
 10
9512.44155817997
 20
2537.931598713257
 30
0.0
 41
100.0
 42
100.0
 43
100.0
 50
270.0
  0
INSERT
  5
179FE
330
17751
100
AcDbEntity
  8
寸法
 62
     0
 48
50.0
370
    -2
100
AcDbBlockReference
  2
_DOTSMALL
 10
9512.441558179974
 20
4912.931598713262
 30
0.0
 41
100.0
 42
100.0
 43
100.0
 50
90.0
  0
MTEXT
  5
179FF
330
17751
100
AcDbEntity
  8
寸法
 62
     7
 48
50.0
100
AcDbMText
 10
9412.42974715635
 20
3725.431598713261
 30
0.0
 40
120.0
 41
0.0
 71
     5
 72
     1
  1
\A1;2375
  7
STYLE1
 11
0.0000000000000001
 21
1.0
 31
0.0
 73
     1
 44
1.0
1001
ACAD
1000
MTEXTBEGIN
1070
    73
1070
     1
1070
    44
1040
1.0
1070
    74
1070
     0
1000
MTEXTEND
  0
POINT
  5
17A00
330
17751
100
AcDbEntity
  8
DEFPOINTS
 62
     0
 48
50.0
100
AcDbPoint
 10
10656.19168736323
 20
2537.931598713257
 30
0.0
  0
POINT
  5
17A01
330
17751
100
AcDbEntity
  8
DEFPOINTS
 62
     0
 48
50.0
100
AcDbPoint
 10
10596.19168736323
 20
4912.931598713261
 30
0.0
  0
POINT
  5
17A02
330
17751
100
AcDbEntity
  8
DEFPOINTS
 62
     0
 48
50.0
100
AcDbPoint
 10
9512.441558179974
 20
4912.931598713262
 30
0.0
  0
ENDBLK
  5
1775C
330
17751
100
AcDbEntity
  8
0
 48
50.0
100
AcDbBlockEnd
  0
BLOCK
  5
17767
330
1775D
100
AcDbEntity
  8
0
 48
50.0
100
AcDbBlockBegin
  2
*D20
 70
     1
 10
0.0
 20
0.0
 30
0.0
  3
*D20
  1

  0
LINE
  5
179F1
330
1775D
100
AcDbEntity
  8
寸法
 62
     0
 48
50.0
370
    -2
100
AcDbLine
 10
13726.19168736323
 20
2537.931598713264
 30
0.0
 11
14471.11884533535
 21
2537.931598713264
 31
0.0
  0
LINE
  5
179F2
330
1775D
100
AcDbEntity
  8
寸法
 62
     0
 48
50.0
370
    -2
100
AcDbLine
 10
13806.19168736323
 20
4857.931598713263
 30
0.0
 11
14471.11884533535
 21
4857.931598713262
 31
0.0
  0
LINE
  5
179F3
330
1775D
100
AcDbEntity
  8
寸法
 62
     0
 48
50.0
370
    -2
100
AcDbLine
 10
14411.11884533535
 20
2537.931598713264
 30
0.0
 11
14411.11884533536
 21
4857.931598713262
 31
0.0
  0
INSERT
  5
179F4
330
1775D
100
AcDbEntity
  8
寸法
 62
     0
 48
50.0
370
    -2
100
AcDbBlockReference
  2
_DOTSMALL
 10
14411.11884533535
 20
2537.931598713264
 30
0.0
 41
100.0
 42
100.0
 43
100.0
 50
270.0
  0
INSERT
  5
179F5
330
1775D
100
AcDbEntity
  8
寸法
 62
     0
 48
50.0
370
    -2
100
AcDbBlockReference
  2
_DOTSMALL
 10
14411.11884533536
 20
4857.931598713262
 30
0.0
 41
100.0
 42
100.0
 43
100.0
 50
90.0
  0
MTEXT
  5
179F6
330
1775D
100
AcDbEntity
  8
寸法
 62
     7
 48
50.0
100
AcDbMText
 10
14311.10703431173
 20
3697.931598713266
 30
0.0
 40
120.0
 41
0.0
 71
     5
 72
     1
  1
\A1;2320
  7
STYLE1
 11
0.0000000000000001
 21
1.0
 31
0.0
 73
     1
 44
1.0
1001
ACAD
1000
MTEXTBEGIN
1070
    73
1070
     1
1070
    44
1040
1.0
1070
    74
1070
     0
1000
MTEXTEND
  0
POINT
  5
179F7
330
1775D
100
AcDbEntity
  8
DEFPOINTS
 62
     0
 48
50.0
100
AcDbPoint
 10
13706.19168736323
 20
2537.931598713264
 30
0.0
  0
POINT
  5
179F8
330
1775D
100
AcDbEntity
  8
DEFPOINTS
 62
     0
 48
50.0
100
AcDbPoint
 10
13786.19168736323
 20
4857.931598713263
 30
0.0
  0
POINT
  5
179F9
330
1775D
100
AcDbEntity
  8
DEFPOINTS
 62
     0
 48
50.0
100
AcDbPoint
 10
14411.11884533536
 20
4857.931598713262
 30
0.0
  0
ENDBLK
  5
17768
330
1775D
100
AcDbEntity
  8
0
 48
50.0
100
AcDbBlockEnd
  0
BLOCK
  5
17782
330
17776
100
AcDbEntity
  8
0
 48
50.0
100
AcDbBlockBegin
  2
*D21
 70
     1
 10
0.0
 20
0.0
 30
0.0
  3
*D21
  1

  0
LINE
  5
179DC
330
17776
100
AcDbEntity
  8
寸法
 62
     0
 48
50.0
370
    -2
100
AcDbLine
 10
10636.19168736323
 20
2587.931598713261
 30
0.0
 11
9752.441558179974
 21
2587.931598713261
 31
0.0
  0
LINE
  5
179DD
330
17776
100
AcDbEntity
  8
寸法
 62
     0
 48
50.0
370
    -2
100
AcDbLine
 10
10581.19168736323
 20
2537.931598713262
 30
0.0
 11
9752.441558179974
 21
2537.931598713262
 31
0.0
  0
LINE
  5
179DE
330
17776
100
AcDbEntity
  8
寸法
 62
     0
 48
50.0
370
    -2
100
AcDbLine
 10
9812.441558179974
 20
2587.931598713261
 30
0.0
 11
9812.441558179974
 21
2687.931598713261
 31
0.0
  0
LINE
  5
179DF
330
17776
100
AcDbEntity
  8
寸法
 62
     0
 48
50.0
370
    -2
100
AcDbLine
 10
9812.441558179974
 20
2537.931598713262
 30
0.0
 11
9812.441558179974
 21
2125.837110524282
 31
0.0
  0
LINE
  5
179E0
330
17776
100
AcDbEntity
  8
寸法
 62
     0
 48
50.0
370
    -2
100
AcDbLine
 10
9812.441558179974
 20
2587.931598713261
 30
0.0
 11
9812.441558179974
 21
2537.931598713262
 31
0.0
  0
INSERT
  5
179E1
330
17776
100
AcDbEntity
  8
寸法
 62
     0
 48
50.0
370
    -2
100
AcDbBlockReference
  2
_DOTSMALL
 10
9812.441558179974
 20
2587.931598713261
 30
0.0
 41
100.0
 42
100.0
 43
100.0
 50
270.0
  0
INSERT
  5
179E2
330
17776
100
AcDbEntity
  8
寸法
 62
     0
 48
50.0
370
    -2
100
AcDbBlockReference
  2
_DOTSMALL
 10
9812.441558179974
 20
2537.931598713262
 30
0.0
 41
100.0
 42
100.0
 43
100.0
 50
90.0
  0
MTEXT
  5
179E3
330
17776
100
AcDbEntity
  8
寸法
 62
     7
 48
50.0
100
AcDbMText
 10
9712.441558179975
 20
2231.884354618772
 30
0.0
 40
120.0
 41
0.0
 71
     5
 72
     1
  1
\A1;50
  7
STYLE1
 11
0.0000000000000001
 21
1.0
 31
0.0
 73
     1
 44
1.0
1001
ACAD
1000
MTEXTBEGIN
1070
    73
1070
     1
1070
    44
1040
1.0
1070
    74
1070
     0
1000
MTEXTEND
  0
POINT
  5
179E4
330
17776
100
AcDbEntity
  8
DEFPOINTS
 62
     0
 48
50.0
100
AcDbPoint
 10
10656.19168736323
 20
2587.931598713261
 30
0.0
  0
POINT
  5
179E5
330
17776
100
AcDbEntity
  8
DEFPOINTS
 62
     0
 48
50.0
100
AcDbPoint
 10
10601.19168736323
 20
2537.931598713262
 30
0.0
  0
POINT
  5
179E6
330
17776
100
AcDbEntity
  8
DEFPOINTS
 62
     0
 48
50.0
100
AcDbPoint
 10
9812.441558179974
 20
2537.931598713262
 30
0.0
  0
ENDBLK
  5
17783
330
17776
100
AcDbEntity
  8
0
 48
50.0
100
AcDbBlockEnd
  0
BLOCK
  5
1778E
330
17784
100
AcDbEntity
  8
0
 48
50.0
100
AcDbBlockBegin
  2
*D22
 70
     1
 10
0.0
 20
0.0
 30
0.0
  3
*D22
  1

  0
LINE
  5
18219
330
17784
100
AcDbEntity
  8
寸法
 62
     0
 48
50.0
370
    -2
100
AcDbLine
 10
13706.19168736323
 20
4879.742278324917
 30
0.0
 11
13706.19168736323
 21
5371.589052292567
 31
0.0
  0
LINE
  5
1821A
330
17784
100
AcDbEntity
  8
寸法
 62
     0
 48
50.0
370
    -2
100
AcDbLine
 10
10656.19168736323
 20
4928.933216836238
 30
0.0
 11
10656.19168736323
 21
5371.589052292567
 31
0.0
  0
LINE
  5
1821B
330
17784
100
AcDbEntity
  8
寸法
 62
     0
 48
50.0
370
    -2
100
AcDbLine
 10
13706.19168736323
 20
5311.589052292568
 30
0.0
 11
10656.19168736323
 21
5311.589052292568
 31
0.0
  0
INSERT
  5
1821C
330
17784
100
AcDbEntity
  8
寸法
 62
     0
 48
50.0
370
    -2
100
AcDbBlockReference
  2
_DOTSMALL
 10
13706.19168736323
 20
5311.589052292568
 30
0.0
 41
100.0
 42
100.0
 43
100.0
  0
INSERT
  5
1821D
330
17784
100
AcDbEntity
  8
寸法
 62
     0
 48
50.0
370
    -2
100
AcDbBlockReference
  2
_DOTSMALL
 10
10656.19168736323
 20
5311.589052292568
 30
0.0
 41
100.0
 42
100.0
 43
100.0
 50
180.0
  0
MTEXT
  5
1821E
330
17784
100
AcDbEntity
  8
寸法
 62
     7
 48
50.0
100
AcDbMText
 10
12181.19168736323
 20
5411.589052292567
 30
0.0
 40
120.0
 41
0.0
 71
     5
 72
     1
  1
\A1;柱外寸法3050
  7
STYLE1
 73
     1
 44
1.0
1001
ACAD
1000
MTEXTBEGIN
1070
    73
1070
     1
1070
    44
1040
1.0
1070
    74
1070
     0
1000
MTEXTEND
  0
POINT
  5
1821F
330
17784
100
AcDbEntity
  8
DEFPOINTS
 62
     0
 48
50.0
100
AcDbPoint
 10
13706.19168736323
 20
4859.742278324916
 30
0.0
  0
POINT
  5
18220
330
17784
100
AcDbEntity
  8
DEFPOINTS
 62
     0
 48
50.0
100
AcDbPoint
 10
10656.19168736323
 20
4908.933216836238
 30
0.0
  0
POINT
  5
18221
330
17784
100
AcDbEntity
  8
DEFPOINTS
 62
     0
 48
50.0
100
AcDbPoint
 10
10656.19168736323
 20
5311.589052292568
 30
0.0
  0
ENDBLK
  5
1778F
330
17784
100
AcDbEntity
  8
0
 48
50.0
100
AcDbBlockEnd
  0
BLOCK
  5
1779C
330
17790
100
AcDbEntity
  8
0
 48
50.0
100
AcDbBlockBegin
  2
*D23
 70
     1
 10
0.0
 20
0.0
 30
0.0
  3
*D23
  1

  0
LINE
  5
179C8
330
17790
100
AcDbEntity
  8
寸法
 62
     0
 48
50.0
370
    -2
100
AcDbLine
 10
10656.19168736323
 20
4928.933216836238
 30
0.0
 11
10656.19168736323
 21
5371.589052292566
 31
0.0
  0
LINE
  5
179C9
330
17790
100
AcDbEntity
  8
寸法
 62
     0
 48
50.0
370
    -2
100
AcDbLine
 10
10596.19168736323
 20
4932.931598713266
 30
0.0
 11
10596.19168736323
 21
5371.589052292566
 31
0.0
  0
LINE
  5
179CA
330
17790
100
AcDbEntity
  8
寸法
 62
     0
 48
50.0
370
    -2
100
AcDbLine
 10
10656.19168736323
 20
5311.589052292566
 30
0.0
 11
10756.19168736323
 21
5311.589052292566
 31
0.0
  0
LINE
  5
179CB
330
17790
100
AcDbEntity
  8
寸法
 62
     0
 48
50.0
370
    -2
100
AcDbLine
 10
10596.19168736323
 20
5311.589052292566
 30
0.0
 11
10176.91609681205
 21
5311.589052292566
 31
0.0
  0
LINE
  5
179CC
330
17790
100
AcDbEntity
  8
寸法
 62
     0
 48
50.0
370
    -2
100
AcDbLine
 10
10656.19168736323
 20
5311.589052292566
 30
0.0
 11
10596.19168736323
 21
5311.589052292566
 31
0.0
  0
INSERT
  5
179CD
330
17790
100
AcDbEntity
  8
寸法
 62
     0
 48
50.0
370
    -2
100
AcDbBlockReference
  2
_DOTSMALL
 10
10656.19168736323
 20
5311.589052292566
 30
0.0
 41
100.0
 42
100.0
 43
100.0
 50
180.0
  0
INSERT
  5
179CE
330
17790
100
AcDbEntity
  8
寸法
 62
     0
 48
50.0
370
    -2
100
AcDbBlockReference
  2
_DOTSMALL
 10
10596.19168736323
 20
5311.589052292566
 30
0.0
 41
100.0
 42
100.0
 43
100.0
  0
MTEXT
  5
179CF
330
17790
100
AcDbEntity
  8
寸法
 62
     7
 48
50.0
100
AcDbMText
 10
10286.55389208764
 20
5411.589052292566
 30
0.0
 40
120.0
 41
0.0
 71
     5
 72
     1
  1
\A1;60
  7
STYLE1
 73
     1
 44
1.0
1001
ACAD
1000
MTEXTBEGIN
1070
    73
1070
     1
1070
    44
1040
1.0
1070
    74
1070
     0
1000
MTEXTEND
  0
POINT
  5
179D0
330
17790
100
AcDbEntity
  8
DEFPOINTS
 62
     0
 48
50.0
100
AcDbPoint
 10
10656.19168736323
 20
4908.933216836238
 30
0.0
  0
POINT
  5
179D1
330
17790
100
AcDbEntity
  8
DEFPOINTS
 62
     0
 48
50.0
100
AcDbPoint
 10
10596.19168736323
 20
4912.931598713266
 30
0.0
  0
POINT
  5
179D2
330
17790
100
AcDbEntity
  8
DEFPOINTS
 62
     0
 48
50.0
100
AcDbPoint
 10
10596.19168736323
 20
5311.589052292566
 30
0.0
  0
ENDBLK
  5
1779D
330
17790
100
AcDbEntity
  8
0
 48
50.0
100
AcDbBlockEnd
  0
BLOCK
  5
177A8
330
1779E
100
AcDbEntity
  8
0
 48
50.0
100
AcDbBlockBegin
  2
*D24
 70
     1
 10
0.0
 20
0.0
 30
0.0
  3
*D24
  1

  0
LINE
  5
18210
330
1779E
100
AcDbEntity
  8
寸法
 62
     0
 48
50.0
370
    -2
100
AcDbLine
 10
13786.19168736323
 20
4877.931598713264
 30
0.0
 11
13786.19168736323
 21
5601.702645078844
 31
0.0
  0
LINE
  5
18211
330
1779E
100
AcDbEntity
  8
寸法
 62
     0
 48
50.0
370
    -2
100
AcDbLine
 10
10596.19168736323
 20
4932.931598713266
 30
0.0
 11
10596.19168736323
 21
5601.702645078844
 31
0.0
  0
LINE
  5
18212
330
1779E
100
AcDbEntity
  8
寸法
 62
     0
 48
50.0
370
    -2
100
AcDbLine
 10
13786.19168736323
 20
5541.702645078843
 30
0.0
 11
10596.19168736323
 21
5541.702645078843
 31
0.0
  0
INSERT
  5
18213
330
1779E
100
AcDbEntity
  8
寸法
 62
     0
 48
50.0
370
    -2
100
AcDbBlockReference
  2
_DOTSMALL
 10
13786.19168736323
 20
5541.702645078843
 30
0.0
 41
100.0
 42
100.0
 43
100.0
  0
INSERT
  5
18214
330
1779E
100
AcDbEntity
  8
寸法
 62
     0
 48
50.0
370
    -2
100
AcDbBlockReference
  2
_DOTSMALL
 10
10596.19168736323
 20
5541.702645078843
 30
0.0
 41
100.0
 42
100.0
 43
100.0
 50
180.0
  0
MTEXT
  5
18215
330
1779E
100
AcDbEntity
  8
寸法
 62
     7
 48
50.0
100
AcDbMText
 10
12191.19168736323
 20
5641.702645078844
 30
0.0
 40
120.0
 41
0.0
 71
     5
 72
     1
  1
\A1;3190
  7
STYLE1
 73
     1
 44
1.0
1001
ACAD
1000
MTEXTBEGIN
1070
    73
1070
     1
1070
    44
1040
1.0
1070
    74
1070
     0
1000
MTEXTEND
  0
POINT
  5
18216
330
1779E
100
AcDbEntity
  8
DEFPOINTS
 62
     0
 48
50.0
100
AcDbPoint
 10
13786.19168736323
 20
4857.931598713263
 30
0.0
  0
POINT
  5
18217
330
1779E
100
AcDbEntity
  8
DEFPOINTS
 62
     0
 48
50.0
100
AcDbPoint
 10
10596.19168736323
 20
4912.931598713266
 30
0.0
  0
POINT
  5
18218
330
1779E
100
AcDbEntity
  8
DEFPOINTS
 62
     0
 48
50.0
100
AcDbPoint
 10
10596.19168736323
 20
5541.702645078843
 30
0.0
  0
ENDBLK
  5
177A9
330
1779E
100
AcDbEntity
  8
0
 48
50.0
100
AcDbBlockEnd
  0
BLOCK
  5
177B5
330
177AA
100
AcDbEntity
  8
0
 48
50.0
100
AcDbBlockBegin
  2
*D25
 70
     1
 10
0.0
 20
0.0
 30
0.0
  3
*D25
  1

  0
LINE
  5
179B5
330
177AA
100
AcDbEntity
  8
寸法
 62
     0
 48
50.0
370
    -2
100
AcDbLine
 10
13706.19168736323
 20
4879.742278324917
 30
0.0
 11
13706.19168736323
 21
5371.589052292567
 31
0.0
  0
LINE
  5
179B6
330
177AA
100
AcDbEntity
  8
寸法
 62
     0
 48
50.0
370
    -2
100
AcDbLine
 10
13786.19168736323
 20
4877.931598713264
 30
0.0
 11
13786.19168736323
 21
5371.589052292567
 31
0.0
  0
LINE
  5
179B7
330
177AA
100
AcDbEntity
  8
寸法
 62
     0
 48
50.0
370
    -2
100
AcDbLine
 10
13706.19168736323
 20
5311.589052292568
 30
0.0
 11
13786.19168736323
 21
5311.589052292568
 31
0.0
  0
LINE
  5
179B8
330
177AA
100
AcDbEntity
  8
寸法
 62
     0
 48
50.0
370
    -2
100
AcDbLine
 10
13786.19168736323
 20
5311.589052292568
 30
0.0
 11
14098.28617555221
 21
5311.589052292568
 31
0.0
  0
INSERT
  5
179B9
330
177AA
100
AcDbEntity
  8
寸法
 62
     0
 48
50.0
370
    -2
100
AcDbBlockReference
  2
_DOTSMALL
 10
13706.19168736323
 20
5311.589052292568
 30
0.0
 41
100.0
 42
100.0
 43
100.0
 50
180.0
  0
INSERT
  5
179BA
330
177AA
100
AcDbEntity
  8
寸法
 62
     0
 48
50.0
370
    -2
100
AcDbBlockReference
  2
_DOTSMALL
 10
13786.19168736323
 20
5311.589052292568
 30
0.0
 41
100.0
 42
100.0
 43
100.0
  0
MTEXT
  5
179BB
330
177AA
100
AcDbEntity
  8
寸法
 62
     7
 48
50.0
100
AcDbMText
 10
13992.23893145772
 20
5411.589052292567
 30
0.0
 40
120.0
 41
0.0
 71
     5
 72
     1
  1
\A1;80
  7
STYLE1
 73
     1
 44
1.0
1001
ACAD
1000
MTEXTBEGIN
1070
    73
1070
     1
1070
    44
1040
1.0
1070
    74
1070
     0
1000
MTEXTEND
  0
POINT
  5
179BC
330
177AA
100
AcDbEntity
  8
DEFPOINTS
 62
     0
 48
50.0
100
AcDbPoint
 10
13706.19168736323
 20
4859.742278324916
 30
0.0
  0
POINT
  5
179BD
330
177AA
100
AcDbEntity
  8
DEFPOINTS
 62
     0
 48
50.0
100
AcDbPoint
 10
13786.19168736323
 20
4857.931598713265
 30
0.0
  0
POINT
  5
179BE
330
177AA
100
AcDbEntity
  8
DEFPOINTS
 62
     0
 48
50.0
100
AcDbPoint
 10
13786.19168736323
 20
5311.589052292568
 30
0.0
  0
ENDBLK
  5
177B6
330
177AA
100
AcDbEntity
  8
0
 48
50.0
100
AcDbBlockEnd
  0
BLOCK
  5
177C2
330
177B7
100
AcDbEntity
  8
0
 48
50.0
100
AcDbBlockBegin
  2
*D26
 70
     1
 10
0.0
 20
0.0
 30
0.0
  3
*D26
  1

  0
LINE
  5
179AB
330
177B7
100
AcDbEntity
  8
寸法
 62
     0
 48
50.0
370
    -2
100
AcDbLine
 10
10595.59597365433
 20
4912.229305782924
 30
0.0
 11
9979.661534549054
 21
4929.943456057253
 31
0.0
  0
LINE
  5
179AC
330
177B7
100
AcDbEntity
  8
寸法
 62
     0
 48
50.0
370
    -2
100
AcDbLine
 10
10591.54251809771
 20
4771.28758201721
 30
0.0
 11
9975.608078992427
 21
4789.001732291541
 31
0.0
  0
LINE
  5
179AD
330
177B7
100
AcDbEntity
  8
寸法
 62
     0
 48
50.0
370
    -2
100
AcDbLine
 10
10035.58328059485
 20
4787.276857586593
 30
0.0
 11
10039.63673615148
 21
4928.218581352306
 31
0.0
  0
LINE
  5
179AE
330
177B7
100
AcDbEntity
  8
寸法
 62
     0
 48
50.0
370
    -2
100
AcDbLine
 10
10039.63673615148
 20
4928.218581352306
 30
0.0
 11
10049.98598438117
 21
5288.069790966893
 31
0.0
  0
INSERT
  5
179AF
330
177B7
100
AcDbEntity
  8
寸法
 62
     0
 48
50.0
370
    -2
100
AcDbBlockReference
  2
_DOTSMALL
 10
10035.58328059485
 20
4787.276857586593
 30
0.0
 41
100.0
 42
100.0
 43
100.0
 50
268.3526390256378
  0
INSERT
  5
179B0
330
177B7
100
AcDbEntity
  8
寸法
 62
     0
 48
50.0
370
    -2
100
AcDbBlockReference
  2
_DOTSMALL
 10
10039.63673615148
 20
4928.218581352306
 30
0.0
 41
100.0
 42
100.0
 43
100.0
 50
88.35263902563776
  0
MTEXT
  5
179B1
330
177B7
100
AcDbEntity
  8
寸法
 62
     7
 48
50.0
100
AcDbMText
 10
9946.290086516398
 20
5160.998312003205
 30
0.0
 40
120.0
 41
0.0
 71
     5
 72
     1
  1
\A1;141
  7
STYLE1
 11
0.0287479117491237
 21
0.9995866933738488
 31
0.0
 73
     1
 44
1.0
1001
ACAD
1000
MTEXTBEGIN
1070
    73
1070
     1
1070
    44
1040
1.0
1070
    74
1070
     0
1000
MTEXTEND
  0
POINT
  5
179B2
330
177B7
100
AcDbEntity
  8
DEFPOINTS
 62
     0
 48
50.0
100
AcDbPoint
 10
10615.58770752181
 20
4911.654347547941
 30
0.0
  0
POINT
  5
179B3
330
177B7
100
AcDbEntity
  8
DEFPOINTS
 62
     0
 48
50.0
100
AcDbPoint
 10
10611.53425196519
 20
4770.712623782228
 30
0.0
  0
POINT
  5
179B4
330
177B7
100
AcDbEntity
  8
DEFPOINTS
 62
     0
 48
50.0
100
AcDbPoint
 10
10035.58328059485
 20
4787.276857586593
 30
0.0
  0
ENDBLK
  5
177C3
330
177B7
100
AcDbEntity
  8
0
 48
50.0
100
AcDbBlockEnd
  0
BLOCK
  5
17C16
330
17C0B
100
AcDbEntity
  8
0
 48
50.0
100
AcDbBlockBegin
  2
*D27
 70
     1
 10
0.0
 20
0.0
 30
0.0
  3
*D27
  1

  0
LINE
  5
18236
330
17C0B
100
AcDbEntity
  8
寸法
 62
     0
 48
50.0
370
    -2
100
AcDbLine
 10
7985.355796420832
 20
4512.931598713263
 30
0.0
 11
8312.898898742579
 21
4512.931598713263
 31
0.0
  0
LINE
  5
18237
330
17C0B
100
AcDbEntity
  8
寸法
 62
     0
 48
50.0
370
    -2
100
AcDbLine
 10
7985.355796420832
 20
4677.931598713261
 30
0.0
 11
8312.898898742579
 21
4677.931598713261
 31
0.0
  0
LINE
  5
18238
330
17C0B
100
AcDbEntity
  8
寸法
 62
     0
 48
50.0
370
    -2
100
AcDbLine
 10
8252.89889874258
 20
4512.931598713263
 30
0.0
 11
8252.89889874258
 21
4677.931598713261
 31
0.0
  0
LINE
  5
18239
330
17C0B
100
AcDbEntity
  8
寸法
 62
     0
 48
50.0
370
    -2
100
AcDbLine
 10
8252.89889874258
 20
4677.931598713261
 30
0.0
 11
8252.89889874258
 21
5054.90216146174
 31
0.0
  0
INSERT
  5
1823A
330
17C0B
100
AcDbEntity
  8
寸法
 62
     0
 48
50.0
370
    -2
100
AcDbBlockReference
  2
_DOTSMALL
 10
8252.89889874258
 20
4512.931598713263
 30
0.0
 41
100.0
 42
100.0
 43
100.0
 50
270.0
  0
INSERT
  5
1823B
330
17C0B
100
AcDbEntity
  8
寸法
 62
     0
 48
50.0
370
    -2
100
AcDbBlockReference
  2
_DOTSMALL
 10
8252.89889874258
 20
4677.931598713261
 30
0.0
 41
100.0
 42
100.0
 43
100.0
 50
90.0
  0
MTEXT
  5
1823C
330
17C0B
100
AcDbEntity
  8
寸法
 62
     7
 48
50.0
100
AcDbMText
 10
8152.898898742579
 20
4916.416880087502
 30
0.0
 40
120.0
 41
0.0
 71
     5
 72
     1
  1
\A1;165
  7
STYLE1
 11
0.0000000000000001
 21
1.0
 31
0.0
 73
     1
 44
1.0
1001
ACAD
1000
MTEXTBEGIN
1070
    73
1070
     1
1070
    44
1040
1.0
1070
    74
1070
     0
1000
MTEXTEND
  0
POINT
  5
1823D
330
17C0B
100
AcDbEntity
  8
DEFPOINTS
 62
     0
 48
50.0
100
AcDbPoint
 10
7965.355796420832
 20
4512.931598713263
 30
0.0
  0
POINT
  5
1823E
330
17C0B
100
AcDbEntity
  8
DEFPOINTS
 62
     0
 48
50.0
100
AcDbPoint
 10
7965.355796420832
 20
4677.931598713261
 30
0.0
  0
POINT
  5
1823F
330
17C0B
100
AcDbEntity
  8
DEFPOINTS
 62
     0
 48
50.0
100
AcDbPoint
 10
8252.89889874258
 20
4677.931598713261
 30
0.0
  0
ENDBLK
  5
17C17
330
17C0B
100
AcDbEntity
  8
0
 48
50.0
100
AcDbBlockEnd
  0
BLOCK
  5
17C24
330
17C18
100
AcDbEntity
  8
0
 48
50.0
100
AcDbBlockBegin
  2
*D28
 70
     1
 10
0.0
 20
0.0
 30
0.0
  3
*D28
  1

  0
LINE
  5
1822B
330
17C18
100
AcDbEntity
  8
寸法
 62
     0
 48
50.0
370
    -2
100
AcDbLine
 10
7985.355796420833
 20
4485.93159871326
 30
0.0
 11
8312.898898742579
 21
4485.93159871326
 31
0.0
  0
LINE
  5
1822C
330
17C18
100
AcDbEntity
  8
寸法
 62
     0
 48
50.0
370
    -2
100
AcDbLine
 10
7985.355796420832
 20
4512.931598713263
 30
0.0
 11
8312.898898742579
 21
4512.931598713263
 31
0.0
  0
LINE
  5
1822D
330
17C18
100
AcDbEntity
  8
寸法
 62
     0
 48
50.0
370
    -2
100
AcDbLine
 10
8252.898898742579
 20
4485.93159871326
 30
0.0
 11
8252.898898742579
 21
4385.93159871326
 31
0.0
  0
LINE
  5
1822E
330
17C18
100
AcDbEntity
  8
寸法
 62
     0
 48
50.0
370
    -2
100
AcDbLine
 10
8252.898898742579
 20
4512.931598713263
 30
0.0
 11
8252.898898742579
 21
4612.931598713263
 31
0.0
  0
MTEXT
  5
1822F
330
17C18
100
AcDbEntity
  8
寸法
 62
     7
 48
50.0
100
AcDbMText
 10
8393.068721988944
 20
4513.89879855292
 30
0.0
 40
120.0
 41
0.0
 71
     5
 72
     1
  1
\A1;27
  7
STYLE1
 11
0.0000000000000001
 21
1.0
 31
0.0
 73
     1
 44
1.0
1001
ACAD
1000
MTEXTBEGIN
1070
    73
1070
     1
1070
    44
1040
1.0
1070
    74
1070
     0
1000
MTEXTEND
  0
LINE
  5
18230
330
17C18
100
AcDbEntity
  8
寸法
 62
     0
 48
50.0
370
    -2
100
AcDbLine
 10
8252.898898742579
 20
4485.93159871326
 30
0.0
 11
8252.898898742579
 21
4512.931598713263
 31
0.0
  0
INSERT
  5
18231
330
17C18
100
AcDbEntity
  8
寸法
 62
     0
 48
50.0
370
    -2
100
AcDbBlockReference
  2
_DOTSMALL
 10
8252.898898742579
 20
4485.93159871326
 30
0.0
 41
100.0
 42
100.0
 43
100.0
 50
90.0
  0
INSERT
  5
18232
330
17C18
100
AcDbEntity
  8
寸法
 62
     0
 48
50.0
370
    -2
100
AcDbBlockReference
  2
_DOTSMALL
 10
8252.898898742579
 20
4512.931598713263
 30
0.0
 41
100.0
 42
100.0
 43
100.0
 50
270.0
  0
POINT
  5
18233
330
17C18
100
AcDbEntity
  8
DEFPOINTS
 62
     0
 48
50.0
100
AcDbPoint
 10
7965.355796420833
 20
4485.93159871326
 30
0.0
  0
POINT
  5
18234
330
17C18
100
AcDbEntity
  8
DEFPOINTS
 62
     0
 48
50.0
100
AcDbPoint
 10
7965.355796420832
 20
4512.931598713263
 30
0.0
  0
POINT
  5
18235
330
17C18
100
AcDbEntity
  8
DEFPOINTS
 62
     0
 48
50.0
100
AcDbPoint
 10
8252.898898742579
 20
4512.931598713263
 30
0.0
  0
ENDBLK
  5
17C25
330
17C18
100
AcDbEntity
  8
0
 48
50.0
100
AcDbBlockEnd
  0
BLOCK
  5
17C30
330
17C26
100
AcDbEntity
  8
0
 48
50.0
100
AcDbBlockBegin
  2
*D29
 70
     1
 10
0.0
 20
0.0
 30
0.0
  3
*D29
  1

  0
LINE
  5
17C8D
330
17C26
100
AcDbEntity
  8
寸法
 62
     0
 48
50.0
370
    -2
100
AcDbLine
 10
7985.355796420832
 20
2537.931598713262
 30
0.0
 11
8312.898898742577
 21
2537.931598713262
 31
0.0
  0
LINE
  5
17C8E
330
17C26
100
AcDbEntity
  8
寸法
 62
     0
 48
50.0
370
    -2
100
AcDbLine
 10
7985.355796420833
 20
4485.93159871326
 30
0.0
 11
8312.898898742579
 21
4485.93159871326
 31
0.0
  0
LINE
  5
17C8F
330
17C26
100
AcDbEntity
  8
寸法
 62
     0
 48
50.0
370
    -2
100
AcDbLine
 10
8252.898898742577
 20
2537.931598713262
 30
0.0
 11
8252.898898742579
 21
4485.93159871326
 31
0.0
  0
INSERT
  5
17C90
330
17C26
100
AcDbEntity
  8
寸法
 62
     0
 48
50.0
370
    -2
100
AcDbBlockReference
  2
_DOTSMALL
 10
8252.898898742577
 20
2537.931598713262
 30
0.0
 41
100.0
 42
100.0
 43
100.0
 50
270.0
  0
INSERT
  5
17C91
330
17C26
100
AcDbEntity
  8
寸法
 62
     0
 48
50.0
370
    -2
100
AcDbBlockReference
  2
_DOTSMALL
 10
8252.898898742579
 20
4485.93159871326
 30
0.0
 41
100.0
 42
100.0
 43
100.0
 50
90.0
  0
MTEXT
  5
17C92
330
17C26
100
AcDbEntity
  8
寸法
 62
     7
 48
50.0
100
AcDbMText
 10
8152.898898742575
 20
3511.931598713263
 30
0.0
 40
120.0
 41
0.0
 71
     5
 72
     1
  1
\A1;有効開口部高サ 1948
  7
STYLE1
 11
0.0000000000000001
 21
1.0
 31
0.0
 73
     1
 44
1.0
1001
ACAD
1000
MTEXTBEGIN
1070
    73
1070
     1
1070
    44
1040
1.0
1070
    74
1070
     0
1000
MTEXTEND
  0
POINT
  5
17C93
330
17C26
100
AcDbEntity
  8
DEFPOINTS
 62
     0
 48
50.0
100
AcDbPoint
 10
7965.355796420832
 20
2537.931598713262
 30
0.0
  0
POINT
  5
17C94
330
17C26
100
AcDbEntity
  8
DEFPOINTS
 62
     0
 48
50.0
100
AcDbPoint
 10
7965.355796420833
 20
4485.93159871326
 30
0.0
  0
POINT
  5
17C95
330
17C26
100
AcDbEntity
  8
DEFPOINTS
 62
     0
 48
50.0
100
AcDbPoint
 10
8252.898898742579
 20
4485.93159871326
 30
0.0
  0
ENDBLK
  5
17C31
330
17C26
100
AcDbEntity
  8
0
 48
50.0
100
AcDbBlockEnd
  0
BLOCK
  5
18045
330
18043
100
AcDbEntity
  8
0
 48
50.0
100
AcDbBlockBegin
  2
A$C557B291E
 70
     0
 10
0.0
 20
0.0
 30
0.0
  3
A$C557B291E
  1

  0
TEXT
  5
18044
330
18043
100
AcDbEntity
  8
文字
 62
     7
 48
50.0
100
AcDbText
 10
49.19215341524796
 20
-139.5862541162733
 30
0.0
 40
100.0
  1
F12    1.2(多雪地型  2.3)
  7
STYLE1
100
AcDbText
  0
ENDBLK
  5
18046
330
18043
100
AcDbEntity
  8
0
 48
50.0
100
AcDbBlockEnd
  0
BLOCK
  5
1817D
330
1817B
100
AcDbEntity
  8
0
 48
50.0
100
AcDbBlockBegin
  2
A$C79FC173F
 70
     0
 10
0.0
 20
0.0
 30
0.0
  3
A$C79FC173F
  1

  0
TEXT
  5
1817C
330
1817B
100
AcDbEntity
  8
文字
 62
     7
 48
50.0
100
AcDbText
 10
-1660.739437925211
 20
-328.0359353916376
 30
0.0
 40
100.0
  1
～一般型・多雪地型～
  7
STYLE2
100
AcDbText
  0
ENDBLK
  5
1817E
330
1817B
100
AcDbEntity
  8
0
 48
50.0
100
AcDbBlockEnd
  0
ENDSEC
  0
SECTION
  2
ENTITIES
  0
MTEXT
  5
763F
330
747D
100
AcDbEntity
  8
0
100
AcDbMText
 10
302.846345836809
 20
280.1983726409901
 30
0.0
 40
3.5
 41
5.323721266742722
 71
     1
 72
     5
  1

  7
MSMINCHO
 73
     1
 44
1.0
1001
ACAD
1000
MTEXTBEGIN
1070
    73
1070
     1
1070
    44
1040
1.0
1070
    74
1070
     0
1000
MTEXTEND
  0
LINE
  5
10B57
330
747D
100
AcDbEntity
  8
補助
  6
PHANTOM
 62
   230
 48
50.0
100
AcDbLine
 10
139.9999999999995
 20
11409.6
 30
0.0
 11
16307.2
 21
11409.6
 31
0.0
  0
LINE
  5
10B59
330
747D
100
AcDbEntity
  8
仕様書枠
  6
Continuous
 48
50.0
100
AcDbLine
 10
13107.2
 20
1200.0
 30
0.0
 11
13107.2
 21
-0.0000000000000729
 31
0.0
  0
LINE
  5
10B5C
330
747D
100
AcDbEntity
  8
仕様書枠
 48
50.0
100
AcDbLine
 10
16307.2
 20
1200.0
 30
0.0
 11
16307.2
 21
-0.0000000000000909
 31
0.0
  0
LINE
  5
10B5D
330
747D
100
AcDbEntity
  8
仕様書枠
 48
50.0
100
AcDbLine
 10
140.0
 20
0.0
 30
0.0
 11
16307.2
 21
-0.0000000000000909
 31
0.0
  0
LINE
  5
10B5E
330
747D
100
AcDbEntity
  8
補助
  6
PHANTOM
 62
   230
 48
50.0
100
AcDbLine
 10
16307.2
 20
11409.6
 30
0.0
 11
16307.2
 21
1200.0
 31
0.0
  0
LINE
  5
10B6C
330
747D
100
AcDbEntity
  8
仕様書枠
 48
50.0
100
AcDbLine
 10
13107.2
 20
1200.0
 30
0.0
 11
16307.2
 21
1200.0
 31
0.0
  0
LINE
  5
10B6D
330
747D
100
AcDbEntity
  8
補助
  6
PHANTOM
 62
   230
 48
50.0
100
AcDbLine
 10
13107.2
 20
11409.6
 30
0.0
 11
13107.2
 21
4800.0
 31
0.0
  0
LINE
  5
10B6F
330
747D
100
AcDbEntity
  8
補助
  6
PHANTOM
 62
   230
 48
50.0
100
AcDbLine
 10
13107.2
 20
4800.0
 30
0.0
 11
16307.2
 21
4800.0
 31
0.0
  0
LINE
  5
10B72
330
747D
100
AcDbEntity
  8
文字
 62
     7
 48
50.0
100
AcDbLine
 10
13187.2
 20
400.0
 30
0.0
 11
16227.2
 21
400.0
 31
0.0
  0
TEXT
  5
10B73
330
747D
100
AcDbEntity
  8
文字
 62
     7
 48
50.0
100
AcDbText
 10
13162.9790565769
 20
895.0906074299405
 30
0.0
 40
200.0
  1
外 形 図
  7
STYLE2
100
AcDbText
  0
TEXT
  5
10B74
330
747D
100
AcDbEntity
  8
文字
 62
     7
 48
50.0
100
AcDbText
 10
13201.43669998441
 20
477.2740661031255
 30
0.0
 40
160.0
  1
機種名
  7
STYLE2
100
AcDbText
  0
TEXT
  5
10B75
330
747D
100
AcDbEntity
  8
文字
 62
     7
 48
50.0
100
AcDbText
 10
13209.4053442172
 20
228.5435242569016
 30
0.0
 40
100.0
  1
○有効開口寸法 ： 2844×1948(mm)
  7
STYLE2
100
AcDbText
  0
TEXT
  5
10B76
330
747D
100
AcDbEntity
  8
文字
 62
     7
 48
50.0
100
AcDbText
 10
13209.4053442172
 20
76.09434707649343
 30
0.0
 40
100.0
  1
○床面積 ： 9.30㎡(2.82坪) 　
  7
STYLE2
100
AcDbText
  0
TEXT
  5
10B79
330
747D
100
AcDbEntity
  8
文字
 62
     7
 48
50.0
100
AcDbText
 10
14524.131837222
 20
1031.557706291228
 30
0.0
 40
100.0
  1
NO.28      <縮尺> S=1/40
  7
STYLE2
100
AcDbText
  0
LINE
  5
10B7B
330
747D
100
AcDbEntity
  8
仕様書枠
 48
50.0
100
AcDbLine
 10
13107.2
 20
800.0
 30
0.0
 11
14251.2
 21
800.0
 31
0.0
  0
LINE
  5
10B88
330
747D
100
AcDbEntity
  8
仕様書枠
  6
Continuous
 48
50.0
100
AcDbLine
 10
14251.2
 20
1200.0
 30
0.0
 11
14251.2
 21
800.0
 31
0.0
  0
TEXT
  5
10BB0
330
747D
100
AcDbEntity
  8
文字
 62
     7
 48
50.0
100
AcDbText
 10
14475.04888767973
 20
483.8967129911414
 30
0.0
 40
160.0
  1
FXN-95HD
  7
STYLE2
100
AcDbText
  0
LINE
  5
12765
330
747D
100
AcDbEntity
  8
Ｇ．Ｌ
100
AcDbLine
 10
3827.089193750349
 20
2437.931598713261
 30
0.0
 11
14641.476284844
 21
2437.931598713261
 31
0.0
  0
DIMENSION
  5
164EB
330
747D
100
AcDbEntity
  8
寸法
100
AcDbDimension
  2
*D1
 10
8977.889083894885
 20
6982.497424545923
 30
0.0
 11
8877.889083894883
 21
8507.497424545929
 31
0.0
 70
    32
 71
     5
 42
3050.000000000008
  3
INABA_S40G
100
AcDbAlignedDimension
 13
7965.355796420839
 23
10032.49742454593
 33
0.0
 14
7965.355796420815
 24
6982.497424545923
 34
0.0
 50
90.0
100
AcDbRotatedDimension
1001
ACAD
1000
DSTYLE
1002
{
1002
}
  0
LINE
  5
164EC
330
747D
100
AcDbEntity
  8
部品1
100
AcDbLine
 10
7885.355796420831
 20
9977.497424545935
 30
0.0
 11
7885.355796420815
 21
7047.497424545831
 31
0.0
  0
LINE
  5
164ED
330
747D
100
AcDbEntity
  8
部品1
100
AcDbLine
 10
4995.355796420813
 20
9977.497424545935
 30
0.0
 11
4995.35579642083
 21
7047.497424545831
 31
0.0
  0
LINE
  5
164EE
330
747D
100
AcDbEntity
  8
部品1
100
AcDbLine
 10
4970.355796420816
 20
9977.497424545971
 30
0.0
 11
4970.35579642083
 21
7047.497424545831
 31
0.0
  0
LINE
  5
164EF
330
747D
100
AcDbEntity
  8
部品1
100
AcDbLine
 10
7910.355796420829
 20
9977.497424545935
 30
0.0
 11
7910.355796420816
 21
6982.49742454592
 31
0.0
  0
LINE
  5
164F0
330
747D
100
AcDbEntity
  8
部品1
100
AcDbLine
 10
7937.355796420826
 20
10004.49742454593
 30
0.0
 11
7937.355796420816
 21
7037.49742454592
 31
0.0
  0
LINE
  5
164F1
330
747D
100
AcDbEntity
  8
部品1
100
AcDbLine
 10
7965.355796420839
 20
10032.49742454593
 30
0.0
 11
7965.355796420815
 21
6982.497424545923
 31
0.0
  0
DIMENSION
  5
164F2
330
747D
100
AcDbEntity
  8
寸法
100
AcDbDimension
  2
*D2
 10
8612.782142155246
 20
7037.49742454592
 30
0.0
 11
8512.770331131624
 21
8507.497424545929
 31
0.0
 70
    32
  1
7X420=<>
 71
     5
 42
2940.000000000015
  3
INABA_S40G
100
AcDbAlignedDimension
 13
7965.355796420839
 23
9977.497424545935
 33
0.0
 14
7965.355796420815
 24
7037.49742454592
 34
0.0
 50
90.0
100
AcDbRotatedDimension
1001
ACAD
1000
DSTYLE
1002
{
1002
}
  0
LINE
  5
164F4
330
747D
100
AcDbEntity
  8
部品1
100
AcDbLine
 10
4915.355796420804
 20
10032.4974245458
 30
0.0
 11
4915.355796420833
 21
6982.497424545792
 31
0.0
  0
LINE
  5
164F5
330
747D
100
AcDbEntity
  8
部品1
100
AcDbLine
 10
4943.355796420814
 20
7037.497424545789
 30
0.0
 11
4943.355796420827
 21
10004.49742454583
 31
0.0
  0
DIMENSION
  5
164F7
330
747D
100
AcDbEntity
  8
寸法
 48
50.0
100
AcDbDimension
  2
*D3
 10
5018.355796420832
 20
6448.066653779668
 30
0.0
 11
6440.355796420823
 21
6548.078464803289
 31
0.0
 70
    32
  1
有効開口部間口 <>
 71
     5
 42
2843.999999999982
  3
INABA_S40G
100
AcDbAlignedDimension
 13
7862.355796420814
 23
7008.497424545833
 33
0.0
 14
5018.355796420832
 24
7008.497424545831
 34
0.0
100
AcDbRotatedDimension
1001
ACAD
1000
DSTYLE
1002
{
1070
    75
1070
     1
1070
   279
1070
     2
1002
}
  0
LINE
  5
164F8
330
747D
100
AcDbEntity
  8
部品1
 48
50.0
100
AcDbLine
 10
4982.35579642083
 20
7027.99742454583
 30
0.0
 11
7898.355796420815
 21
7027.99742454583
 31
0.0
  0
DIMENSION
  5
164F9
330
747D
100
AcDbEntity
  8
寸法
100
AcDbDimension
  2
*D4
 10
7965.355796420815
 20
6161.893658188794
 30
0.0
 11
6440.355796420823
 21
6261.893658188793
 31
0.0
 70
    32
 71
     5
 42
3049.999999999982
  3
INABA_S40G
100
AcDbAlignedDimension
 13
4915.355796420833
 23
6982.497424545759
 33
0.0
 14
7965.355796420815
 24
6982.497424545887
 34
0.0
100
AcDbRotatedDimension
1001
ACAD
1000
DSTYLE
1002
{
1002
}
  0
DIMENSION
  5
164FA
330
747D
100
AcDbEntity
  8
寸法
 48
50.0
100
AcDbDimension
  2
*D5
 10
4915.355796420833
 20
6448.066653779668
 30
0.0
 11
4606.870515046593
 21
6448.066653779668
 31
0.0
 70
   160
 71
     5
 42
54.99999999999636
  3
INABA_S40G
100
AcDbAlignedDimension
 13
4970.355796420829
 23
6982.497424545832
 33
0.0
 14
4915.355796420833
 24
6982.49742454583
 34
0.0
100
AcDbRotatedDimension
1001
ACAD
1000
DSTYLE
1002
{
1002
}
  0
DIMENSION
  5
164FB
330
747D
100
AcDbEntity
  8
寸法
 48
50.0
100
AcDbDimension
  2
*D6
 10
4970.355796420829
 20
6448.066653779668
 30
0.0
 11
5131.25776742089
 21
6548.066653779668
 31
0.0
 70
   160
 71
     5
 42
48.00000000000363
  3
INABA_S40G
100
AcDbAlignedDimension
 13
5018.355796420832
 23
7008.497424545831
 33
0.0
 14
4970.355796420829
 24
6982.497424545832
 34
0.0
100
AcDbRotatedDimension
1001
ACAD
1000
DSTYLE
1002
{
1070
   279
1070
     2
1002
}
  0
LINE
  5
164FC
330
747D
100
AcDbEntity
  8
部品1
100
AcDbLine
 10
4970.355796420826
 20
6982.497424545832
 30
0.0
 11
4915.355796420833
 21
6982.49742454583
 31
0.0
  0
LINE
  5
164FD
330
747D
100
AcDbEntity
  8
部品1
 48
50.0
100
AcDbLine
 10
4970.355796420832
 20
7018.497424545831
 30
0.0
 11
4947.355796420833
 21
7018.497424545831
 31
0.0
  0
LINE
  5
164FE
330
747D
100
AcDbEntity
  8
部品1
 48
50.0
100
AcDbLine
 10
4980.355796420832
 20
7008.497424545831
 30
0.0
 11
4970.355796420832
 21
6987.497424545832
 31
0.0
  0
LINE
  5
164FF
330
747D
100
AcDbEntity
  8
部品1
 48
50.0
100
AcDbLine
 10
4970.355796420832
 20
7047.497424545831
 30
0.0
 11
4970.355796420829
 21
6982.497424545832
 31
0.0
  0
LINE
  5
16500
330
747D
100
AcDbEntity
  8
部品1
 48
50.0
100
AcDbLine
 10
5018.355796420832
 20
7008.497424545833
 30
0.0
 11
5018.355796420832
 21
7017.497424545833
 31
0.0
  0
LINE
  5
16501
330
747D
100
AcDbEntity
  8
部品1
 48
50.0
100
AcDbLine
 10
5018.355796420832
 20
7047.497424545833
 30
0.0
 11
5018.355796420832
 21
7038.497424545832
 31
0.0
  0
LINE
  5
16502
330
747D
100
AcDbEntity
  8
部品1
100
AcDbLine
 10
5018.355796420832
 20
7047.497424545833
 30
0.0
 11
4970.355796420832
 21
7047.497424545831
 31
0.0
  0
LINE
  5
16503
330
747D
100
AcDbEntity
  8
部品1
100
AcDbLine
 10
5018.355796420832
 20
7008.497424545833
 30
0.0
 11
4970.355796420832
 21
7008.497424545831
 31
0.0
  0
LINE
  5
16504
330
747D
100
AcDbEntity
  8
部品1
100
AcDbLine
 10
4970.35579642083
 20
7018.497424545831
 30
0.0
 11
4947.355796420833
 21
7018.497424545831
 31
0.0
  0
LINE
  5
16505
330
747D
100
AcDbEntity
  8
部品1
100
AcDbLine
 10
4970.35579642083
 20
7037.497424545756
 30
0.0
 11
4915.35579642083
 21
7037.497424545756
 31
0.0
  0
LINE
  5
16506
330
747D
100
AcDbEntity
  8
部品1
100
AcDbLine
 10
4943.355796420814
 20
7037.497424545792
 30
0.0
 11
4915.35579642083
 21
7037.497424545792
 31
0.0
  0
LINE
  5
16507
330
747D
100
AcDbEntity
  8
部品1
100
AcDbLine
 10
4943.355796420831
 20
7037.497424545808
 30
0.0
 11
4915.35579642083
 21
7037.497424545808
 31
0.0
  0
LINE
  5
16508
330
747D
100
AcDbEntity
  8
部品1
100
AcDbLine
 10
4915.355796420816
 20
7457.497424545945
 30
0.0
 11
4943.355796420815
 21
7457.497424545945
 31
0.0
  0
LINE
  5
1650A
330
747D
100
AcDbEntity
  8
部品1
100
AcDbLine
 10
4915.355796420816
 20
7877.497424545946
 30
0.0
 11
4943.355796420815
 21
7877.497424545946
 31
0.0
  0
LINE
  5
1650B
330
747D
100
AcDbEntity
  8
部品1
100
AcDbLine
 10
4915.355796420816
 20
8297.497424545944
 30
0.0
 11
4943.355796420815
 21
8297.497424545944
 31
0.0
  0
LINE
  5
1650C
330
747D
100
AcDbEntity
  8
部品1
100
AcDbLine
 10
4915.355796420816
 20
8717.497424545944
 30
0.0
 11
4943.355796420815
 21
8717.497424545944
 31
0.0
  0
LINE
  5
1650D
330
747D
100
AcDbEntity
  8
部品1
100
AcDbLine
 10
4943.35579642082
 20
9137.497424545808
 30
0.0
 11
4915.355796420819
 21
9137.497424545808
 31
0.0
  0
DIMENSION
  5
1650E
330
747D
100
AcDbEntity
  8
寸法
 48
50.0
100
AcDbDimension
  2
*D7
 10
7862.355796420814
 20
6448.066653779668
 30
0.0
 11
7751.392898772066
 21
6548.066653779668
 31
0.0
 70
   160
 71
     5
 42
48.00000000000181
  3
INABA_S40G
100
AcDbAlignedDimension
 13
7910.355796420816
 23
6982.49742454592
 33
0.0
 14
7862.355796420814
 24
7008.497424545833
 34
0.0
100
AcDbRotatedDimension
1001
ACAD
1000
DSTYLE
1002
{
1070
   279
1070
     2
1002
}
  0
DIMENSION
  5
1650F
330
747D
100
AcDbEntity
  8
寸法
 48
50.0
100
AcDbDimension
  2
*D8
 10
7910.355796420816
 20
6448.066653779669
 30
0.0
 11
8273.841077795053
 21
6448.066653779669
 31
0.0
 70
   160
 71
     5
 42
54.99999999999818
  3
INABA_S40G
100
AcDbAlignedDimension
 13
7965.355796420815
 23
6982.497424545923
 33
0.0
 14
7910.355796420816
 24
6982.49742454592
 34
0.0
100
AcDbRotatedDimension
1001
ACAD
1000
DSTYLE
1002
{
1002
}
  0
DIMENSION
  5
16510
330
747D
100
AcDbEntity
  8
寸法
100
AcDbDimension
  2
*D9
 10
8612.782142155225
 20
6982.497424545923
 30
0.0
 11
8612.782142155223
 21
6604.635957641061
 31
0.0
 70
   160
 71
     5
 42
54.99999999999636
  3
INABA_S40G
100
AcDbAlignedDimension
 13
7965.355796420815
 23
7037.49742454592
 33
0.0
 14
7965.355796420815
 24
6982.497424545923
 34
0.0
 50
90.0
100
AcDbRotatedDimension
1001
ACAD
1000
DSTYLE
1002
{
1002
}
  0
LINE
  5
16511
330
747D
100
AcDbEntity
  8
部品1
 48
50.0
100
AcDbLine
 10
7900.355796420814
 20
7008.497424545831
 30
0.0
 11
7910.355796420813
 21
6987.497424545832
 31
0.0
  0
LINE
  5
16512
330
747D
100
AcDbEntity
  8
部品1
100
AcDbLine
 10
7910.355796420813
 20
7018.497424545829
 30
0.0
 11
7933.355796420814
 21
7018.497424545831
 31
0.0
  0
LINE
  5
16513
330
747D
100
AcDbEntity
  8
部品1
 48
50.0
100
AcDbLine
 10
7862.355796420814
 20
7047.497424545833
 30
0.0
 11
7862.355796420814
 21
7038.497424545832
 31
0.0
  0
LINE
  5
16514
330
747D
100
AcDbEntity
  8
部品1
100
AcDbLine
 10
7862.355796420814
 20
7047.497424545833
 30
0.0
 11
7910.355796420815
 21
7047.497424545831
 31
0.0
  0
LINE
  5
16515
330
747D
100
AcDbEntity
  8
部品1
 48
50.0
100
AcDbLine
 10
7862.355796420814
 20
7008.497424545833
 30
0.0
 11
7862.355796420814
 21
7017.497424545833
 31
0.0
  0
LINE
  5
16516
330
747D
100
AcDbEntity
  8
部品1
100
AcDbLine
 10
7862.355796420814
 20
7008.497424545833
 30
0.0
 11
7910.355796420813
 21
7008.497424545831
 31
0.0
  0
LINE
  5
16517
330
747D
100
AcDbEntity
  8
部品1
100
AcDbLine
 10
7910.355796420813
 20
7037.497424545934
 30
0.0
 11
7965.355796420848
 21
7037.497424545934
 31
0.0
  0
LINE
  5
16518
330
747D
100
AcDbEntity
  8
部品1
100
AcDbLine
 10
7965.355796420815
 20
6982.497424545923
 30
0.0
 11
7910.355796420816
 21
6982.49742454592
 31
0.0
  0
LINE
  5
16519
330
747D
100
AcDbEntity
  8
部品1
100
AcDbLine
 10
7937.355796420843
 20
7457.497424545934
 30
0.0
 11
7965.355796420843
 21
7457.497424545934
 31
0.0
  0
LINE
  5
1651B
330
747D
100
AcDbEntity
  8
部品1
100
AcDbLine
 10
7937.355796420843
 20
7877.497424545935
 30
0.0
 11
7965.355796420843
 21
7877.497424545935
 31
0.0
  0
LINE
  5
1651C
330
747D
100
AcDbEntity
  8
部品1
100
AcDbLine
 10
7937.355796420843
 20
8297.497424545936
 30
0.0
 11
7965.355796420843
 21
8297.497424545936
 31
0.0
  0
LINE
  5
1651D
330
747D
100
AcDbEntity
  8
部品1
100
AcDbLine
 10
7937.355796420843
 20
8717.497424545934
 30
0.0
 11
7965.355796420843
 21
8717.497424545934
 31
0.0
  0
LINE
  5
1651E
330
747D
100
AcDbEntity
  8
部品1
100
AcDbLine
 10
7937.355796420843
 20
9137.497424545934
 30
0.0
 11
7965.355796420843
 21
9137.497424545934
 31
0.0
  0
LINE
  5
16523
330
747D
100
AcDbEntity
  8
部品1
100
AcDbLine
 10
4915.355796420837
 20
10032.49742454583
 30
0.0
 11
7965.355796420839
 21
10032.49742454593
 31
0.0
  0
DIMENSION
  5
16528
330
747D
100
AcDbEntity
  8
寸法
100
AcDbDimension
  2
*D10
 10
7910.355796420839
 20
10248.30564417093
 30
0.0
 11
6440.355796420838
 21
10348.31745519455
 31
0.0
 70
    32
  1
7X420=<>
 71
     5
 42
2940.000000000001
  3
INABA_S40G
100
AcDbAlignedDimension
 13
4970.355796420839
 23
10032.49742454583
 33
0.0
 14
7910.355796420839
 24
10032.49742454593
 34
0.0
100
AcDbRotatedDimension
1001
ACAD
1000
DSTYLE
1002
{
1002
}
  0
DIMENSION
  5
1652B
330
747D
100
AcDbEntity
  8
寸法
100
AcDbDimension
  2
*D11
 10
4970.355796420839
 20
10248.30564417082
 30
0.0
 11
4606.870515046565
 21
10248.30564417082
 31
0.0
 70
   160
 71
     5
 42
55.00000000003456
  3
INABA_S40G
100
AcDbAlignedDimension
 13
4915.355796420804
 23
10032.49742454583
 33
0.0
 14
4970.355796420839
 24
10032.49742454583
 34
0.0
100
AcDbRotatedDimension
1001
ACAD
1000
DSTYLE
1002
{
1002
}
  0
LINE
  5
1652E
330
747D
100
AcDbEntity
  8
部品1
100
AcDbLine
 10
4943.355796420812
 20
9557.497424545806
 30
0.0
 11
4915.355796420811
 21
9557.497424545806
 31
0.0
  0
LINE
  5
1652F
330
747D
100
AcDbEntity
  8
部品1
100
AcDbLine
 10
4970.355796420805
 20
10032.4974245458
 30
0.0
 11
4970.355796420805
 21
10004.4974245458
 31
0.0
  0
LINE
  5
16530
330
747D
100
AcDbEntity
  8
部品1
100
AcDbLine
 10
4970.355796420838
 20
10032.49742454583
 30
0.0
 11
4970.355796420838
 21
10004.49742454583
 31
0.0
  0
LINE
  5
16531
330
747D
100
AcDbEntity
  8
部品1
100
AcDbLine
 10
4943.355796420805
 20
9977.497424545807
 30
0.0
 11
4915.355796420804
 21
9977.497424545807
 31
0.0
  0
LINE
  5
16533
330
747D
100
AcDbEntity
  8
部品1
100
AcDbLine
 10
5390.355796420839
 20
10032.49742454595
 30
0.0
 11
5390.355796420839
 21
10004.49742454595
 31
0.0
  0
LINE
  5
16534
330
747D
100
AcDbEntity
  8
部品1
100
AcDbLine
 10
5390.355796420839
 20
10032.49742454583
 30
0.0
 11
5390.355796420839
 21
10004.49742454583
 31
0.0
  0
LINE
  5
16535
330
747D
100
AcDbEntity
  8
部品1
100
AcDbLine
 10
5390.355796420839
 20
10032.49742454583
 30
0.0
 11
5390.355796420839
 21
10004.49742454583
 31
0.0
  0
LINE
  5
16537
330
747D
100
AcDbEntity
  8
部品1
100
AcDbLine
 10
5810.355796420838
 20
10032.49742454595
 30
0.0
 11
5810.355796420838
 21
10004.49742454595
 31
0.0
  0
LINE
  5
16538
330
747D
100
AcDbEntity
  8
部品1
100
AcDbLine
 10
5810.355796420838
 20
10032.49742454583
 30
0.0
 11
5810.355796420838
 21
10004.49742454583
 31
0.0
  0
LINE
  5
16539
330
747D
100
AcDbEntity
  8
部品1
100
AcDbLine
 10
5810.355796420838
 20
10032.49742454583
 30
0.0
 11
5810.355796420838
 21
10004.49742454583
 31
0.0
  0
LINE
  5
1653A
330
747D
100
AcDbEntity
  8
部品1
100
AcDbLine
 10
6230.355796420838
 20
10032.49742454583
 30
0.0
 11
6230.355796420838
 21
10004.49742454583
 31
0.0
  0
LINE
  5
1653B
330
747D
100
AcDbEntity
  8
部品1
100
AcDbLine
 10
6230.355796420838
 20
10032.49742454583
 30
0.0
 11
6230.355796420838
 21
10004.49742454583
 31
0.0
  0
LINE
  5
1653C
330
747D
100
AcDbEntity
  8
部品1
100
AcDbLine
 10
6230.355796420838
 20
10032.49742454595
 30
0.0
 11
6230.355796420838
 21
10004.49742454595
 31
0.0
  0
LINE
  5
1653E
330
747D
100
AcDbEntity
  8
部品1
100
AcDbLine
 10
4943.355796420836
 20
10004.49742454595
 30
0.0
 11
7937.35579642084
 21
10004.49742454593
 31
0.0
  0
LINE
  5
16551
330
747D
100
AcDbEntity
  8
部品1
100
AcDbLine
 10
6650.355796420838
 20
10032.49742454595
 30
0.0
 11
6650.355796420838
 21
10004.49742454595
 31
0.0
  0
LINE
  5
16554
330
747D
100
AcDbEntity
  8
部品1
100
AcDbLine
 10
7070.355796420838
 20
10032.49742454595
 30
0.0
 11
7070.355796420838
 21
10004.49742454595
 31
0.0
  0
LINE
  5
16555
330
747D
100
AcDbEntity
  8
部品1
100
AcDbLine
 10
7490.355796420839
 20
10032.49742454595
 30
0.0
 11
7490.355796420839
 21
10004.49742454595
 31
0.0
  0
DIMENSION
  5
16556
330
747D
100
AcDbEntity
  8
寸法
100
AcDbDimension
  2
*D12
 10
8612.782142155252
 20
9977.497424545935
 30
0.0
 11
8612.78214215525
 21
10340.98270592017
 31
0.0
 70
   160
 71
     5
 42
54.99999999999636
  3
INABA_S40G
100
AcDbAlignedDimension
 13
7965.355796420839
 23
10032.49742454593
 33
0.0
 14
7965.355796420839
 24
9977.497424545935
 34
0.0
 50
90.0
100
AcDbRotatedDimension
1001
ACAD
1000
DSTYLE
1002
{
1002
}
  0
DIMENSION
  5
16557
330
747D
100
AcDbEntity
  8
寸法
100
AcDbDimension
  2
*D13
 10
7965.355796420839
 20
10248.30564417091
 30
0.0
 11
8273.841077795077
 21
10248.30564417091
 31
0.0
 70
   160
 71
     5
 42
55.0
  3
INABA_S40G
100
AcDbAlignedDimension
 13
7910.355796420839
 23
10032.49742454593
 33
0.0
 14
7965.355796420839
 24
10032.49742454593
 34
0.0
100
AcDbRotatedDimension
1001
ACAD
1000
DSTYLE
1002
{
1002
}
  0
LINE
  5
1655B
330
747D
100
AcDbEntity
  8
部品1
100
AcDbLine
 10
7937.35579642084
 20
9557.497424545934
 30
0.0
 11
7965.355796420839
 21
9557.497424545934
 31
0.0
  0
LINE
  5
1655C
330
747D
100
AcDbEntity
  8
部品1
100
AcDbLine
 10
7910.355796420839
 20
10032.49742454593
 30
0.0
 11
7910.355796420839
 21
10004.49742454593
 31
0.0
  0
LINE
  5
1655D
330
747D
100
AcDbEntity
  8
部品1
100
AcDbLine
 10
7910.355796420839
 20
10032.49742454595
 30
0.0
 11
7910.355796420839
 21
10004.49742454595
 31
0.0
  0
LINE
  5
1655E
330
747D
100
AcDbEntity
  8
部品1
100
AcDbLine
 10
7937.35579642084
 20
9977.497424545935
 30
0.0
 11
7965.355796420839
 21
9977.497424545935
 31
0.0
  0
LINE
  5
1673B
330
747D
100
AcDbEntity
  8
部品1
 48
50.0
100
AcDbLine
 10
7937.355796420826
 20
10004.49742454593
 30
0.0
 11
7910.355796420829
 21
9977.497424545935
 31
0.0
  0
LINE
  5
1673C
330
747D
100
AcDbEntity
  8
部品1
 48
50.0
100
AcDbLine
 10
4995.355796420813
 20
9952.497424545937
 30
0.0
 11
7885.355796420832
 21
9952.497424545937
 31
0.0
  0
LINE
  5
1673D
330
747D
100
AcDbEntity
  8
部品1
 48
50.0
100
AcDbLine
 10
4943.355796420853
 20
10004.49742454593
 30
0.0
 11
4970.35579642085
 21
9977.497424545935
 31
0.0
  0
LINE
  5
1673E
330
747D
100
AcDbEntity
  8
部品1
 48
50.0
100
AcDbLine
 10
4970.35579642085
 20
9977.497424545935
 30
0.0
 11
7910.355796420829
 21
9977.497424545935
 31
0.0
  0
LINE
  5
16982
330
747D
100
AcDbEntity
  8
仕様書枠
 48
50.0
100
AcDbLine
 10
16307.19999999999
 20
9709.6
 30
0.0
 11
13127.19999999999
 21
9709.600000000001
 31
0.0
  0
TEXT
  5
16983
330
747D
100
AcDbEntity
  8
文字
 62
     7
 48
50.0
100
AcDbText
 10
13229.83081656555
 20
8550.013745883729
 30
0.0
 40
100.0
  1
Z08→塗装溶融亜鉛めっき鋼板(JIS G 3313)
  7
STYLE1
100
AcDbText
  0
TEXT
  5
16984
330
747D
100
AcDbEntity
  8
文字
 62
     7
 48
50.0
100
AcDbText
 10
13229.83081656555
 20
8720.013745883727
 30
0.0
 40
100.0
  1
Y10→溶融亜鉛-5％アルミニウム合金めっき鋼板(JIS G 3317)
 41
0.9
  7
STYLE1
100
AcDbText
  0
TEXT
  5
16985
330
747D
100
AcDbEntity
  8
文字
 62
     7
 48
50.0
100
AcDbText
 10
13229.83081656555
 20
8890.013745883727
 30
0.0
 40
100.0
  1
F12→溶融亜鉛めっき鋼板(JIS G 3302)
  7
STYLE1
100
AcDbText
  0
LINE
  5
16986
330
747D
100
AcDbEntity
  8
仕様書枠
 48
50.0
100
AcDbLine
 10
16307.19999999999
 20
8519.599999999998
 30
0.0
 11
13127.19999999999
 21
8519.600000000002
 31
0.0
  0
LINE
  5
16987
330
747D
100
AcDbEntity
  8
仕様書枠
 48
50.0
100
AcDbLine
 10
16307.19999999999
 20
8689.599999999998
 30
0.0
 11
13127.19999999999
 21
8689.6
 31
0.0
  0
LINE
  5
16988
330
747D
100
AcDbEntity
  8
仕様書枠
 48
50.0
100
AcDbLine
 10
16307.19999999999
 20
8859.599999999998
 30
0.0
 11
13127.19999999999
 21
8859.6
 31
0.0
  0
TEXT
  5
1698C
330
747D
100
AcDbEntity
  8
文字
 62
     7
 48
50.0
100
AcDbText
 10
15022.63965474516
 20
9570.013745883725
 30
0.0
 40
100.0
  1
F12            0.7
  7
STYLE1
100
AcDbText
  0
TEXT
  5
1698D
330
747D
100
AcDbEntity
  8
文字
 62
     7
 48
50.0
100
AcDbText
 10
15022.63965474517
 20
9740.013745883725
 30
0.0
 40
100.0
  1
Y10            0.5
  7
STYLE1
100
AcDbText
  0
TEXT
  5
1698F
330
747D
100
AcDbEntity
  8
文字
 62
     7
 48
50.0
100
AcDbText
 10
15022.63965474516
 20
10250.01374588372
 30
0.0
 40
100.0
  1
Y10            0.7
  7
STYLE1
100
AcDbText
  0
TEXT
  5
16990
330
747D
100
AcDbEntity
  8
文字
 62
     7
 48
50.0
100
AcDbText
 10
15022.63965474516
 20
10420.01374588372
 30
0.0
 40
100.0
  1
Y10            1.0
  7
STYLE1
100
AcDbText
  0
TEXT
  5
16991
330
747D
100
AcDbEntity
  8
文字
 62
     7
 48
50.0
100
AcDbText
 10
15022.63965474516
 20
10590.01374588372
 30
0.0
 40
100.0
  1
Y10            1.0
  7
STYLE1
100
AcDbText
  0
TEXT
  5
16992
330
747D
100
AcDbEntity
  8
文字
 62
     7
 48
50.0
100
AcDbText
 10
15022.63965474517
 20
10760.01374588372
 30
0.0
 40
100.0
  1
F12         1.0,1.2
  7
STYLE1
100
AcDbText
  0
TEXT
  5
16993
330
747D
100
AcDbEntity
  8
文字
 62
     7
 48
50.0
100
AcDbText
 10
15022.63965474517
 20
10930.01374588372
 30
0.0
 40
100.0
  1
F12            1.2
  7
STYLE1
100
AcDbText
  0
TEXT
  5
16994
330
747D
100
AcDbEntity
  8
文字
 62
     7
 48
50.0
100
AcDbText
 10
13248.77747366448
 20
9060.013745883729
 30
0.0
 40
100.0
  1
12
  7
STYLE1
100
AcDbText
  0
LINE
  5
16996
330
747D
100
AcDbEntity
  8
仕様書枠
 48
50.0
100
AcDbLine
 10
16307.19999999999
 20
9029.6
 30
0.0
 11
13127.19999999999
 21
9029.600000000002
 31
0.0
  0
LINE
  5
16997
330
747D
100
AcDbEntity
  8
仕様書枠
 48
50.0
100
AcDbLine
 10
16307.19999999999
 20
9199.599999999998
 30
0.0
 11
13127.19999999999
 21
9199.600000000001
 31
0.0
  0
TEXT
  5
16998
330
747D
100
AcDbEntity
  8
文字
 62
     7
 48
50.0
100
AcDbText
 10
13583.11819016569
 20
9230.013745883727
 30
0.0
 40
100.0
  1
シャッターカバー
 41
0.9
  7
STYLE1
100
AcDbText
  0
TEXT
  5
16999
330
747D
100
AcDbEntity
  8
文字
 62
     7
 48
50.0
100
AcDbText
 10
13248.77747366448
 20
9230.013745883727
 30
0.0
 40
100.0
  1
11
  7
STYLE1
100
AcDbText
  0
LINE
  5
1699A
330
747D
100
AcDbEntity
  8
仕様書枠
 48
50.0
100
AcDbLine
 10
16307.19999999999
 20
9879.599999999999
 30
0.0
 11
13127.2
 21
9879.600000000001
 31
0.0
  0
LINE
  5
1699B
330
747D
100
AcDbEntity
  8
仕様書枠
 48
50.0
100
AcDbLine
 10
16307.19999999999
 20
10049.6
 30
0.0
 11
13127.2
 21
10049.6
 31
0.0
  0
LINE
  5
1699C
330
747D
100
AcDbEntity
  8
仕様書枠
 48
50.0
100
AcDbLine
 10
16307.19999999999
 20
9539.599999999998
 30
0.0
 11
13127.19999999999
 21
9539.6
 31
0.0
  0
LINE
  5
1699D
330
747D
100
AcDbEntity
  8
仕様書枠
 48
50.0
100
AcDbLine
 10
16307.19999999999
 20
9369.599999999998
 30
0.0
 11
13127.19999999999
 21
9369.600000000001
 31
0.0
  0
TEXT
  5
1699E
330
747D
100
AcDbEntity
  8
文字
 62
     7
 48
50.0
100
AcDbText
 10
13271.19032244792
 20
10080.01374588373
 30
0.0
 40
100.0
  1
6
  7
STYLE1
100
AcDbText
  0
TEXT
  5
1699F
330
747D
100
AcDbEntity
  8
文字
 62
     7
 48
50.0
100
AcDbText
 10
13271.19032244792
 20
9910.01374588373
 30
0.0
 40
100.0
  1
7
  7
STYLE1
100
AcDbText
  0
TEXT
  5
169A0
330
747D
100
AcDbEntity
  8
文字
 62
     7
 48
50.0
100
AcDbText
 10
13271.19032244792
 20
9570.013745883729
 30
0.0
 40
100.0
  1
9
  7
STYLE1
100
AcDbText
  0
TEXT
  5
169A1
330
747D
100
AcDbEntity
  8
文字
 62
     7
 48
50.0
100
AcDbText
 10
13271.19032244792
 20
9740.013745883729
 30
0.0
 40
100.0
  1
8
  7
STYLE1
100
AcDbText
  0
TEXT
  5
169A2
330
747D
100
AcDbEntity
  8
文字
 62
     7
 48
50.0
100
AcDbText
 10
13583.11819016569
 20
10080.01374588372
 30
0.0
 40
100.0
  1
鼻隠シ前後
  7
STYLE1
100
AcDbText
  0
TEXT
  5
169A3
330
747D
100
AcDbEntity
  8
文字
 62
     7
 48
50.0
100
AcDbText
 10
13583.11819016569
 20
9910.013745883727
 30
0.0
 40
100.0
  1
母屋中
  7
STYLE1
100
AcDbText
  0
TEXT
  5
169A4
330
747D
100
AcDbEntity
  8
文字
 62
     7
 48
50.0
100
AcDbText
 10
13583.11819016569
 20
9740.013745883729
 30
0.0
 40
100.0
  1
屋根パネル
  7
STYLE1
100
AcDbText
  0
TEXT
  5
169A5
330
747D
100
AcDbEntity
  8
文字
 62
     7
 48
50.0
100
AcDbText
 10
13583.11819016569
 20
9570.013745883729
 30
0.0
 40
100.0
  1
壁パネル
  7
STYLE1
100
AcDbText
  0
TEXT
  5
169A6
330
747D
100
AcDbEntity
  8
文字
 62
     7
 48
50.0
100
AcDbText
 10
13248.77747366448
 20
9400.013745883727
 30
0.0
 40
100.0
  1
10
  7
STYLE1
100
AcDbText
  0
TEXT
  5
169A8
330
747D
100
AcDbEntity
  8
文字
 62
     7
 48
50.0
100
AcDbText
 10
13583.11819016569
 20
10250.01374588373
 30
0.0
 40
100.0
  1
妻板左右
  7
STYLE1
100
AcDbText
  0
TEXT
  5
169A9
330
747D
100
AcDbEntity
  8
文字
 62
     7
 48
50.0
100
AcDbText
 10
13271.19032244792
 20
10250.01374588373
 30
0.0
 40
100.0
  1
5
  7
STYLE1
100
AcDbText
  0
TEXT
  5
169AA
330
747D
100
AcDbEntity
  8
文字
 62
     7
 48
50.0
100
AcDbText
 10
13583.11819016569
 20
10420.01374588373
 30
0.0
 40
100.0
  1
桁後
  7
STYLE1
100
AcDbText
  0
TEXT
  5
169AB
330
747D
100
AcDbEntity
  8
文字
 62
     7
 48
50.0
100
AcDbText
 10
13583.11819016569
 20
10590.01374588373
 30
0.0
 40
100.0
  1
桁前
  7
STYLE1
100
AcDbText
  0
TEXT
  5
169AC
330
747D
100
AcDbEntity
  8
文字
 62
     7
 48
50.0
100
AcDbText
 10
13583.11819016569
 20
10760.01374588372
 30
0.0
 40
100.0
  1
柱
  7
STYLE1
100
AcDbText
  0
TEXT
  5
169AD
330
747D
100
AcDbEntity
  8
文字
 62
     7
 48
50.0
100
AcDbText
 10
13583.11819016569
 20
10930.01374588372
 30
0.0
 40
100.0
  1
土台枠
  7
STYLE1
100
AcDbText
  0
TEXT
  5
169AE
330
747D
100
AcDbEntity
  8
文字
 62
     7
 48
50.0
100
AcDbText
 10
14859.79774614482
 20
11100.01374588373
 30
0.0
 40
100.0
  1
材料（材質）　　単位mm
  7
STYLE1
100
AcDbText
  0
TEXT
  5
169AF
330
747D
100
AcDbEntity
  8
文字
 62
     7
 48
50.0
100
AcDbText
 10
13732.03840939434
 20
11100.01374588373
 30
0.0
 40
100.0
  1
部　　品　　名
  7
STYLE1
100
AcDbText
  0
TEXT
  5
169B0
330
747D
100
AcDbEntity
  8
文字
 62
     7
 48
50.0
100
AcDbText
 10
13271.19032244792
 20
10590.01374588373
 30
0.0
 40
100.0
  1
3
  7
STYLE1
100
AcDbText
  0
TEXT
  5
169B1
330
747D
100
AcDbEntity
  8
文字
 62
     7
 48
50.0
100
AcDbText
 10
13271.19032244792
 20
10420.01374588373
 30
0.0
 40
100.0
  1
4
  7
STYLE1
100
AcDbText
  0
TEXT
  5
169B2
330
747D
100
AcDbEntity
  8
文字
 62
     7
 48
50.0
100
AcDbText
 10
13271.19032244792
 20
10760.01374588373
 30
0.0
 40
100.0
  1
2
  7
STYLE1
100
AcDbText
  0
TEXT
  5
169B3
330
747D
100
AcDbEntity
  8
文字
 62
     7
 48
50.0
100
AcDbText
 10
13271.19032244792
 20
10930.01374588373
 30
0.0
 40
100.0
  1
1
  7
STYLE1
100
AcDbText
  0
TEXT
  5
169B4
330
747D
100
AcDbEntity
  8
文字
 62
     7
 48
50.0
100
AcDbText
 10
13197.42518560407
 20
11100.01374588373
 30
0.0
 40
100.0
  1
品番
  7
STYLE1
100
AcDbText
  0
LINE
  5
169B5
330
747D
100
AcDbEntity
  8
仕様書枠
 48
50.0
100
AcDbLine
 10
16307.19999999999
 20
10559.6
 30
0.0
 11
13127.19999999999
 21
10559.6
 31
0.0
  0
LINE
  5
169B6
330
747D
100
AcDbEntity
  8
仕様書枠
 48
50.0
100
AcDbLine
 10
16307.19999999999
 20
10219.6
 30
0.0
 11
13127.19999999999
 21
10219.6
 31
0.0
  0
LINE
  5
169B7
330
747D
100
AcDbEntity
  8
仕様書枠
 48
50.0
100
AcDbLine
 10
16307.19999999999
 20
10389.6
 30
0.0
 11
13127.19999999999
 21
10389.6
 31
0.0
  0
LINE
  5
169B8
330
747D
100
AcDbEntity
  8
仕様書枠
 48
50.0
100
AcDbLine
 10
16307.19999999999
 20
10899.6
 30
0.0
 11
13127.2
 21
10899.6
 31
0.0
  0
LINE
  5
169B9
330
747D
100
AcDbEntity
  8
仕様書枠
 48
50.0
100
AcDbLine
 10
16307.19999999999
 20
10729.6
 30
0.0
 11
13127.2
 21
10729.6
 31
0.0
  0
LINE
  5
169BA
330
747D
100
AcDbEntity
  8
仕様書枠
 48
50.0
100
AcDbLine
 10
16307.19999999999
 20
11069.6
 30
0.0
 11
13127.2
 21
11069.6
 31
0.0
  0
LINE
  5
169BB
330
747D
100
AcDbEntity
  8
仕様書枠
 48
50.0
100
AcDbLine
 10
13490.2
 20
11239.6
 30
0.0
 11
13490.2
 21
9029.600000000002
 31
0.0
  0
LINE
  5
169BC
330
747D
100
AcDbEntity
  8
仕様書枠
 48
50.0
100
AcDbLine
 10
14785.2
 20
11239.59999999999
 30
0.0
 11
14785.2
 21
9029.6
 31
0.0
  0
LINE
  5
169BD
330
747D
100
AcDbEntity
  8
仕様書枠
 48
50.0
100
AcDbLine
 10
16307.19999999999
 20
8519.599999999996
 30
0.0
 11
16307.2
 21
11239.6
 31
0.0
  0
LINE
  5
169BE
330
747D
100
AcDbEntity
  8
仕様書枠
 48
50.0
100
AcDbLine
 10
13127.2
 20
11239.6
 30
0.0
 11
13127.2
 21
8519.600000000002
 31
0.0
  0
LINE
  5
169BF
330
747D
100
AcDbEntity
  8
仕様書枠
 48
50.0
100
AcDbLine
 10
16307.19999999999
 20
11239.6
 30
0.0
 11
13127.2
 21
11239.6
 31
0.0
  0
LWPOLYLINE
  5
16D14
330
747D
100
AcDbEntity
  8
部品1
100
AcDbPolyline
 90
        4
 70
     1
 43
0.0
 10
6058.620463306619
 20
5941.902955966209
 10
6058.620463306619
 20
5702.010634420676
 10
6822.09112953506
 20
5702.010634420676
 10
6822.09112953506
 20
5941.902955966209
  0
TEXT
  5
16D15
330
747D
100
AcDbEntity
  8
部品1
100
AcDbText
 10
6148.540073135657
 20
5749.009426747686
 30
0.0
 40
135.0
  1
平面図
  7
STYLE2
100
AcDbText
  0
TEXT
  5
16D16
330
747D
100
AcDbEntity
  8
部品1
100
AcDbText
 10
6149.145867044568
 20
1595.038069494738
 30
0.0
 40
135.0
  1
正面図
  7
STYLE2
100
AcDbText
  0
LWPOLYLINE
  5
16D17
330
747D
100
AcDbEntity
  8
部品1
100
AcDbPolyline
 90
        4
 70
     1
 43
0.0
 10
6058.620463306615
 20
1787.931598713261
 10
6058.620463306615
 20
1548.039277167729
 10
6822.091129535053
 20
1548.039277167729
 10
6822.091129535053
 20
1787.931598713261
  0
LINE
  5
16D7A
330
747D
100
AcDbEntity
  8
部品1
100
AcDbLine
 10
4865.775457436157
 20
4905.535073318026
 30
0.0
 11
4866.908854768507
 21
4885.558945335426
 31
0.0
  0
LINE
  5
16D7B
330
747D
100
AcDbEntity
  8
部品1
100
AcDbLine
 10
4878.345875090083
 20
4789.901538168368
 30
0.0
 11
4878.990780897191
 21
4778.535073318027
 31
0.0
  0
LINE
  5
16D7C
330
747D
100
AcDbEntity
  8
部品1
100
AcDbLine
 10
4870.109844565234
 20
4882.101538168369
 30
0.0
 11
4875.144885293346
 21
4793.358945335425
 31
0.0
  0
ARC
  5
16D7D
330
747D
100
AcDbEntity
  8
部品1
 48
50.0
100
AcDbCircle
 10
4867.114661669049
 20
4881.931598713267
 30
0.0
 40
3.0
100
AcDbArc
 50
3.247342790337682
 51
82.34187279263654
  0
ARC
  5
16D7E
330
747D
100
AcDbEntity
  8
部品1
 48
50.0
100
AcDbCircle
 10
4875.350692193894
 20
4789.731598713264
 30
0.0
 40
3.0
100
AcDbArc
 50
3.247342790337682
 51
82.34187279263654
  0
ARC
  5
16D7F
330
747D
100
AcDbEntity
  8
部品1
 48
50.0
100
AcDbCircle
 10
4875.843761302455
 20
4793.398597874948
 30
0.0
 40
0.7
100
AcDbArc
 50
183.2473427902856
 51
262.3418727926365
  0
ARC
  5
16D80
330
747D
100
AcDbEntity
  8
部品1
 48
50.0
100
AcDbCircle
 10
4867.607730777613
 20
4885.598597874952
 30
0.0
 40
0.7
100
AcDbArc
 50
183.2473427903897
 51
262.3418727926365
  0
ARC
  5
16D81
330
747D
100
AcDbEntity
  8
部品1
100
AcDbCircle
 10
4885.97954098829
 20
4778.931598713266
 30
0.0
 40
7.0
100
AcDbArc
 50
183.2473427903377
 51
270.0
  0
ARC
  5
16D82
330
747D
100
AcDbEntity
  8
部品1
100
AcDbCircle
 10
4872.764217527255
 20
4905.931598713265
 30
0.0
 40
7.0
100
AcDbArc
 50
90.0
 51
183.2473427903377
  0
ARC
  5
16D83
330
747D
100
AcDbEntity
  8
部品1
100
AcDbCircle
 10
8007.947375314408
 20
4905.931598713264
 30
0.0
 40
7.0
100
AcDbArc
 50
356.7526572096623
 51
90.0
  0
ARC
  5
16D84
330
747D
100
AcDbEntity
  8
部品1
100
AcDbCircle
 10
7994.732051853374
 20
4778.931598713266
 30
0.0
 40
7.0
100
AcDbArc
 50
270.0
 51
356.7526572096623
  0
ARC
  5
16D85
330
747D
100
AcDbEntity
  8
部品1
 48
50.0
100
AcDbCircle
 10
8013.103862064054
 20
4885.598597874952
 30
0.0
 40
0.7
100
AcDbArc
 50
277.6581272073635
 51
356.7526572096103
  0
ARC
  5
16D86
330
747D
100
AcDbEntity
  8
部品1
 48
50.0
100
AcDbCircle
 10
8004.867831539209
 20
4793.398597874946
 30
0.0
 40
0.7
100
AcDbArc
 50
277.6581272073635
 51
356.7526572097143
  0
ARC
  5
16D87
330
747D
100
AcDbEntity
  8
部品1
 48
50.0
100
AcDbCircle
 10
8005.360900647771
 20
4789.731598713263
 30
0.0
 40
3.0
100
AcDbArc
 50
97.65812720736347
 51
176.7526572096623
  0
ARC
  5
16D88
330
747D
100
AcDbEntity
  8
部品1
 48
50.0
100
AcDbCircle
 10
8013.596931172616
 20
4881.931598713266
 30
0.0
 40
3.0
100
AcDbArc
 50
97.65812720736347
 51
176.7526572096623
  0
LINE
  5
16D89
330
747D
100
AcDbEntity
  8
部品1
100
AcDbLine
 10
8010.601748276428
 20
4882.101538168367
 30
0.0
 11
8005.566707548318
 21
4793.358945335424
 31
0.0
  0
LINE
  5
16D8A
330
747D
100
AcDbEntity
  8
部品1
100
AcDbLine
 10
8002.365717751585
 20
4789.901538168367
 30
0.0
 11
8001.720811944473
 21
4778.535073318026
 31
0.0
  0
LINE
  5
16D8B
330
747D
100
AcDbEntity
  8
細線
 48
50.0
100
AcDbLine
 10
4898.355796420826
 20
4912.931598713265
 30
0.0
 11
4898.355796420826
 21
4771.931598713265
 31
0.0
  0
LINE
  5
16D8C
330
747D
100
AcDbEntity
  8
細線
 48
50.0
100
AcDbLine
 10
7982.355796420842
 20
4912.931598713264
 30
0.0
 11
7982.355796420842
 21
4771.931598713264
 31
0.0
  0
LINE
  5
16D8D
330
747D
100
AcDbEntity
  8
部品1
100
AcDbLine
 10
8014.936135405507
 20
4905.535073318024
 30
0.0
 11
8013.802738073161
 21
4885.558945335425
 31
0.0
  0
LINE
  5
16D8E
330
747D
100
AcDbEntity
  8
細線
 48
50.0
100
AcDbLine
 10
8004.96111488408
 20
4792.704841276732
 30
0.0
 11
4875.750477957256
 21
4792.7048412771
 31
0.0
  0
LINE
  5
16D8F
330
747D
100
AcDbEntity
  8
細線
 48
50.0
100
AcDbLine
 10
8013.197145408925
 20
4884.904841276732
 30
0.0
 11
4867.514447432427
 21
4884.904841277102
 31
0.0
  0
LINE
  5
16D90
330
747D
100
AcDbEntity
  8
部品1
 48
50.0
100
AcDbLine
 10
7994.732051853374
 20
4771.931598713265
 30
0.0
 11
4885.97954098829
 21
4771.931598713265
 31
0.0
  0
LINE
  5
16D91
330
747D
100
AcDbEntity
  8
部品1
 48
50.0
100
AcDbLine
 10
8007.947375314408
 20
4912.931598713264
 30
0.0
 11
4872.764217527255
 21
4912.931598713264
 31
0.0
  0
DIMENSION
  5
16DBE
330
747D
100
AcDbEntity
  8
寸法
 48
50.0
100
AcDbDimension
  2
*D14
 10
4915.355796420826
 20
5125.473183971506
 30
0.0
 11
6440.355796420835
 21
5125.473183971506
 31
0.0
 70
   160
  1
柱外寸法<>
 71
     5
 42
3050.000000000015
  3
INABA_S40G
100
AcDbAlignedDimension
 13
7965.355796420841
 23
4912.931598713266
 33
0.0
 14
4915.355796420826
 24
4912.931598713268
 34
0.0
100
AcDbRotatedDimension
  0
DIMENSION
  5
16DBF
330
747D
100
AcDbEntity
  8
寸法
 48
50.0
100
AcDbDimension
  2
*D15
 10
4865.355796420827
 20
5125.473183971506
 30
0.0
 11
4551.870515046579
 21
5125.473183971506
 31
0.0
 70
   160
 71
     5
 42
50.0
  3
INABA_S40G
100
AcDbAlignedDimension
 13
4915.355796420826
 23
4912.931598713268
 33
0.0
 14
4865.355796420827
 24
4912.931598713267
 34
0.0
100
AcDbRotatedDimension
1001
ACAD
1000
DSTYLE
1002
{
1002
}
  0
DIMENSION
  5
16DC0
330
747D
100
AcDbEntity
  8
寸法
 48
50.0
100
AcDbDimension
  2
*D16
 10
7965.355796420841
 20
5125.473183971505
 30
0.0
 11
8328.841077795077
 21
5125.473183971505
 31
0.0
 70
   160
 71
     5
 42
50.0
  3
INABA_S40G
100
AcDbAlignedDimension
 13
8015.355796420841
 23
4912.931598713264
 33
0.0
 14
7965.355796420841
 24
4912.931598713266
 34
0.0
100
AcDbRotatedDimension
  0
DIMENSION
  5
16DC1
330
747D
100
AcDbEntity
  8
寸法
 48
50.0
100
AcDbDimension
  2
*D17
 10
8015.355796420841
 20
5346.378484445256
 30
0.0
 11
6440.355796420835
 21
5346.378484445256
 31
0.0
 70
   160
 71
     5
 42
3150.000000000015
  3
INABA_S40G
100
AcDbAlignedDimension
 13
4865.355796420827
 23
4912.931598713267
 33
0.0
 14
8015.355796420841
 24
4912.931598713264
 34
0.0
100
AcDbRotatedDimension
  0
ARC
  5
16E56
330
747D
100
AcDbEntity
  8
細線
 48
50.0
100
AcDbCircle
 10
6140.355796420831
 20
3100.431598713262
 30
0.0
 40
15.0
100
AcDbArc
 50
90.0
 51
270.0
  0
ARC
  5
16E57
330
747D
100
AcDbEntity
  8
細線
 48
50.0
100
AcDbCircle
 10
6240.35579642083
 20
3100.431598713262
 30
0.0
 40
15.0
100
AcDbArc
 50
270.0
 51
90.0
  0
LINE
  5
16E58
330
747D
100
AcDbEntity
  8
細線
 48
50.0
100
AcDbLine
 10
6140.355796420831
 20
3115.431598713261
 30
0.0
 11
6240.35579642083
 21
3115.431598713261
 31
0.0
  0
LINE
  5
16E59
330
747D
100
AcDbEntity
  8
細線
 48
50.0
100
AcDbLine
 10
6240.35579642083
 20
3085.431598713262
 30
0.0
 11
6140.355796420831
 21
3085.431598713262
 31
0.0
  0
LINE
  5
16E5A
330
747D
100
AcDbEntity
  8
細線
 48
50.0
100
AcDbLine
 10
6740.35579642083
 20
3085.431598713262
 30
0.0
 11
6640.355796420831
 21
3085.431598713262
 31
0.0
  0
LINE
  5
16E5B
330
747D
100
AcDbEntity
  8
細線
 48
50.0
100
AcDbLine
 10
6640.355796420831
 20
3115.431598713261
 30
0.0
 11
6740.35579642083
 21
3115.431598713261
 31
0.0
  0
ARC
  5
16E5C
330
747D
100
AcDbEntity
  8
細線
 48
50.0
100
AcDbCircle
 10
6640.355796420831
 20
3100.431598713262
 30
0.0
 40
15.0
100
AcDbArc
 50
90.0
 51
270.0
  0
ARC
  5
16E5D
330
747D
100
AcDbEntity
  8
細線
 48
50.0
100
AcDbCircle
 10
6740.35579642083
 20
3100.431598713262
 30
0.0
 40
15.0
100
AcDbArc
 50
270.0
 51
90.0
  0
CIRCLE
  5
16E5E
330
747D
100
AcDbEntity
  8
細線
 48
50.0
100
AcDbCircle
 10
6440.35579642083
 20
3425.431598713262
 30
0.0
 40
18.0
  0
LINE
  5
16E62
330
747D
100
AcDbEntity
  8
細線
100
AcDbLine
 10
7862.355796420832
 20
2547.931598713262
 30
0.0
 11
5018.355796420827
 21
2547.931598713262
 31
0.0
  0
LINE
  5
16E63
330
747D
100
AcDbEntity
  8
細線
100
AcDbLine
 10
5018.355796420828
 20
3067.931598713262
 30
0.0
 11
7862.35579642083
 21
3067.931598713262
 31
0.0
  0
LINE
  5
16E64
330
747D
100
AcDbEntity
  8
細線
100
AcDbLine
 10
5018.355796420828
 20
3002.931598713261
 30
0.0
 11
7862.35579642083
 21
3002.931598713261
 31
0.0
  0
LINE
  5
16E65
330
747D
100
AcDbEntity
  8
細線
100
AcDbLine
 10
5018.355796420828
 20
2937.931598713261
 30
0.0
 11
7862.35579642083
 21
2937.931598713261
 31
0.0
  0
LINE
  5
16E66
330
747D
100
AcDbEntity
  8
細線
100
AcDbLine
 10
5018.355796420828
 20
2872.931598713261
 30
0.0
 11
7862.35579642083
 21
2872.931598713261
 31
0.0
  0
LINE
  5
16E67
330
747D
100
AcDbEntity
  8
細線
100
AcDbLine
 10
5018.355796420828
 20
2807.931598713262
 30
0.0
 11
7862.35579642083
 21
2807.931598713262
 31
0.0
  0
LINE
  5
16E68
330
747D
100
AcDbEntity
  8
細線
100
AcDbLine
 10
5018.355796420828
 20
2742.931598713262
 30
0.0
 11
7862.35579642083
 21
2742.931598713262
 31
0.0
  0
LINE
  5
16E69
330
747D
100
AcDbEntity
  8
細線
100
AcDbLine
 10
5018.355796420828
 20
2677.931598713261
 30
0.0
 11
7862.35579642083
 21
2677.931598713261
 31
0.0
  0
LINE
  5
16E6A
330
747D
100
AcDbEntity
  8
細線
100
AcDbLine
 10
5018.355796420828
 20
2612.931598713262
 30
0.0
 11
7862.35579642083
 21
2612.931598713262
 31
0.0
  0
LINE
  5
16E6B
330
747D
100
AcDbEntity
  8
細線
100
AcDbLine
 10
5018.355796420828
 20
2547.931598713262
 30
0.0
 11
7862.35579642083
 21
2547.931598713262
 31
0.0
  0
LINE
  5
16E6C
330
747D
100
AcDbEntity
  8
細線
100
AcDbLine
 10
5018.355796420828
 20
4367.931598713261
 30
0.0
 11
7862.35579642083
 21
4367.931598713261
 31
0.0
  0
LINE
  5
16E6D
330
747D
100
AcDbEntity
  8
細線
100
AcDbLine
 10
5018.355796420828
 20
4497.931598713261
 30
0.0
 11
7862.35579642083
 21
4497.931598713261
 31
0.0
  0
LINE
  5
16E6E
330
747D
100
AcDbEntity
  8
細線
100
AcDbLine
 10
5018.355796420828
 20
4432.931598713262
 30
0.0
 11
7862.35579642083
 21
4432.931598713262
 31
0.0
  0
LINE
  5
16E6F
330
747D
100
AcDbEntity
  8
細線
100
AcDbLine
 10
5018.355796420828
 20
3717.931598713261
 30
0.0
 11
7862.35579642083
 21
3717.931598713261
 31
0.0
  0
LINE
  5
16E70
330
747D
100
AcDbEntity
  8
細線
100
AcDbLine
 10
5018.355796420828
 20
3652.931598713261
 30
0.0
 11
7862.35579642083
 21
3652.931598713261
 31
0.0
  0
LINE
  5
16E71
330
747D
100
AcDbEntity
  8
細線
100
AcDbLine
 10
5018.355796420828
 20
3587.931598713261
 30
0.0
 11
7862.35579642083
 21
3587.931598713261
 31
0.0
  0
LINE
  5
16E72
330
747D
100
AcDbEntity
  8
細線
100
AcDbLine
 10
5018.355796420828
 20
3522.931598713262
 30
0.0
 11
7862.35579642083
 21
3522.931598713262
 31
0.0
  0
LINE
  5
16E73
330
747D
100
AcDbEntity
  8
細線
100
AcDbLine
 10
5018.355796420828
 20
3457.931598713262
 30
0.0
 11
7862.35579642083
 21
3457.931598713262
 31
0.0
  0
LINE
  5
16E74
330
747D
100
AcDbEntity
  8
細線
100
AcDbLine
 10
5018.355796420828
 20
3392.931598713261
 30
0.0
 11
7862.35579642083
 21
3392.931598713261
 31
0.0
  0
LINE
  5
16E75
330
747D
100
AcDbEntity
  8
細線
100
AcDbLine
 10
5018.355796420828
 20
3327.931598713262
 30
0.0
 11
7862.35579642083
 21
3327.931598713262
 31
0.0
  0
LINE
  5
16E76
330
747D
100
AcDbEntity
  8
細線
100
AcDbLine
 10
5018.355796420828
 20
3262.931598713262
 30
0.0
 11
7862.35579642083
 21
3262.931598713262
 31
0.0
  0
LINE
  5
16E77
330
747D
100
AcDbEntity
  8
細線
100
AcDbLine
 10
5018.355796420828
 20
3197.931598713262
 30
0.0
 11
7862.35579642083
 21
3197.931598713262
 31
0.0
  0
LINE
  5
16E78
330
747D
100
AcDbEntity
  8
細線
100
AcDbLine
 10
5018.355796420828
 20
3132.931598713261
 30
0.0
 11
7862.35579642083
 21
3132.931598713261
 31
0.0
  0
LINE
  5
16E79
330
747D
100
AcDbEntity
  8
細線
100
AcDbLine
 10
5018.355796420828
 20
4107.931598713261
 30
0.0
 11
7862.35579642083
 21
4107.931598713261
 31
0.0
  0
LINE
  5
16E7A
330
747D
100
AcDbEntity
  8
細線
100
AcDbLine
 10
5018.355796420828
 20
4042.931598713261
 30
0.0
 11
7862.35579642083
 21
4042.931598713261
 31
0.0
  0
LINE
  5
16E7B
330
747D
100
AcDbEntity
  8
細線
100
AcDbLine
 10
5018.355796420828
 20
3977.931598713261
 30
0.0
 11
7862.35579642083
 21
3977.931598713261
 31
0.0
  0
LINE
  5
16E7C
330
747D
100
AcDbEntity
  8
細線
100
AcDbLine
 10
5018.355796420828
 20
3912.931598713262
 30
0.0
 11
7862.35579642083
 21
3912.931598713262
 31
0.0
  0
LINE
  5
16E7D
330
747D
100
AcDbEntity
  8
細線
100
AcDbLine
 10
5018.355796420828
 20
3847.931598713262
 30
0.0
 11
7862.35579642083
 21
3847.931598713262
 31
0.0
  0
LINE
  5
16E7E
330
747D
100
AcDbEntity
  8
細線
100
AcDbLine
 10
5018.355796420828
 20
3782.931598713262
 30
0.0
 11
7862.35579642083
 21
3782.931598713262
 31
0.0
  0
LINE
  5
16E7F
330
747D
100
AcDbEntity
  8
細線
100
AcDbLine
 10
5018.355796420828
 20
4302.931598713261
 30
0.0
 11
7862.35579642083
 21
4302.931598713261
 31
0.0
  0
LINE
  5
16E80
330
747D
100
AcDbEntity
  8
細線
100
AcDbLine
 10
5018.355796420828
 20
4237.931598713261
 30
0.0
 11
7862.35579642083
 21
4237.931598713261
 31
0.0
  0
LINE
  5
16E81
330
747D
100
AcDbEntity
  8
細線
100
AcDbLine
 10
5018.355796420828
 20
4172.931598713261
 30
0.0
 11
7862.35579642083
 21
4172.931598713261
 31
0.0
  0
LINE
  5
16E82
330
747D
100
AcDbEntity
  8
部品1
100
AcDbLine
 10
4915.355796420831
 20
4512.931598713261
 30
0.0
 11
7965.355796420833
 21
4512.931598713263
 31
0.0
  0
LINE
  5
16E86
330
747D
100
AcDbEntity
  8
部品1
100
AcDbLine
 10
7862.355796420835
 20
4512.931598713262
 30
0.0
 11
7862.35579642083
 21
2537.931598713262
 31
0.0
  0
LINE
  5
16E88
330
747D
100
AcDbEntity
  8
部品1
100
AcDbLine
 10
5018.355796420832
 20
4512.931598713261
 30
0.0
 11
5018.355796420832
 21
2537.931598713262
 31
0.0
  0
LINE
  5
16E97
330
747D
100
AcDbEntity
  8
部品1
100
AcDbLine
 10
7965.355796420832
 20
4771.931598713266
 30
0.0
 11
7965.355796420832
 21
2437.931598713261
 31
0.0
  0
LINE
  5
16E98
330
747D
100
AcDbEntity
  8
部品1
100
AcDbLine
 10
4970.355796420832
 20
4512.931598713261
 30
0.0
 11
4970.355796420832
 21
2537.931598713262
 31
0.0
  0
LINE
  5
16E99
330
747D
100
AcDbEntity
  8
部品1
100
AcDbLine
 10
7910.355796420832
 20
4512.931598713263
 30
0.0
 11
7910.35579642083
 21
2537.931598713262
 31
0.0
  0
LINE
  5
16E9A
330
747D
100
AcDbEntity
  8
部品1
100
AcDbLine
 10
4915.355796420833
 20
4771.931598713266
 30
0.0
 11
4915.355796420833
 21
2437.931598713261
 31
0.0
  0
LINE
  5
16E9B
330
747D
100
AcDbEntity
  8
部品1
100
AcDbLine
 10
4915.355796420833
 20
4677.931598713261
 30
0.0
 11
7965.355796420832
 21
4677.931598713261
 31
0.0
  0
LINE
  5
16E9C
330
747D
100
AcDbEntity
  8
部品1
100
AcDbLine
 10
4915.355796420833
 20
2537.931598713262
 30
0.0
 11
7965.355796420832
 21
2537.931598713262
 31
0.0
  0
LINE
  5
16E9D
330
747D
100
AcDbEntity
  8
部品1
100
AcDbLine
 10
4076.586205074448
 20
2567.835409280926
 30
0.0
 11
4001.586205074448
 21
2437.931598713261
 31
0.0
  0
TEXT
  5
16E9E
330
747D
100
AcDbEntity
  8
部品1
100
AcDbText
 10
4104.691147199222
 20
2474.038502319163
 30
0.0
 40
125.0
  1
G.L
  7
STYLE2
100
AcDbText
  0
LINE
  5
16E9F
330
747D
100
AcDbEntity
  8
部品1
100
AcDbLine
 10
4001.586205074448
 20
2437.931598713261
 30
0.0
 11
3926.586205074449
 21
2567.835409280926
 31
0.0
  0
LINE
  5
16EA0
330
747D
100
AcDbEntity
  8
部品1
100
AcDbLine
 10
3926.586205074449
 20
2567.835409280926
 30
0.0
 11
4076.586205074448
 21
2567.835409280926
 31
0.0
  0
LINE
  5
17530
330
747D
100
AcDbEntity
  8
部品1
100
AcDbLine
 10
10656.19168736323
 20
2537.931598713262
 30
0.0
 11
10263.19447315439
 21
2437.931598713261
 31
0.0
  0
LINE
  5
17531
330
747D
100
AcDbEntity
  8
破線
 48
5.0
100
AcDbLine
 10
10656.19168736323
 20
2187.931598713261
 30
0.0
 11
10711.19168736323
 21
2187.931598713261
 31
0.0
  0
LINE
  5
17532
330
747D
100
AcDbEntity
  8
破線
 48
5.0
100
AcDbLine
 10
10711.19168736323
 20
2437.931598713261
 30
0.0
 11
10711.19168736323
 21
2187.931598713261
 31
0.0
  0
LINE
  5
17533
330
747D
100
AcDbEntity
  8
破線
 48
5.0
100
AcDbLine
 10
10656.19168736323
 20
2437.931598713261
 30
0.0
 11
10656.19168736323
 21
2187.931598713261
 31
0.0
  0
DIMENSION
  5
17538
330
747D
100
AcDbEntity
  8
寸法
100
AcDbDimension
  2
*D18
 10
9812.441558179974
 20
2587.931598713257
 30
0.0
 11
9712.429747156352
 21
3632.931598713259
 31
0.0
 70
    32
 71
     5
 42
2090.000000000001
  3
INABA_S40G
100
AcDbAlignedDimension
 13
10656.19168736323
 23
4677.931598713257
 33
0.0
 14
10656.19168736323
 24
2587.931598713257
 34
0.0
 50
90.0
100
AcDbRotatedDimension
1001
ACAD
1000
DSTYLE
1002
{
1070
   174
1070
     0
1070
   272
1070
     1
1070
   288
1070
     0
1070
   341
1005
0
1002
}
  0
DIMENSION
  5
17539
330
747D
100
AcDbEntity
  8
寸法
100
AcDbDimension
  2
*D19
 10
9512.441558179974
 20
4912.931598713262
 30
0.0
 11
9412.42974715635
 21
3725.431598713261
 31
0.0
 70
    32
 71
     5
 42
2375.000000000005
  3
INABA_S40G
100
AcDbAlignedDimension
 13
10656.19168736323
 23
2537.931598713257
 33
0.0
 14
10596.19168736323
 24
4912.931598713261
 34
0.0
 50
90.0
100
AcDbRotatedDimension
1001
ACAD
1000
DSTYLE
1002
{
1070
   174
1070
     0
1070
   272
1070
     1
1070
   288
1070
     0
1070
   341
1005
0
1002
}
  0
DIMENSION
  5
1753A
330
747D
100
AcDbEntity
  8
寸法
100
AcDbDimension
  2
*D20
 10
14411.11884533536
 20
4857.931598713262
 30
0.0
 11
14311.10703431173
 21
3697.931598713266
 31
0.0
 70
    32
 71
     5
 42
2319.999999999999
  3
INABA_S40G
100
AcDbAlignedDimension
 13
13706.19168736323
 23
2537.931598713264
 33
0.0
 14
13786.19168736323
 24
4857.931598713263
 34
0.0
 50
90.0
100
AcDbRotatedDimension
1001
ACAD
1000
DSTYLE
1002
{
1070
   174
1070
     0
1070
   272
1070
     1
1070
   288
1070
     0
1070
   341
1005
0
1002
}
  0
LINE
  5
1753B
330
747D
100
AcDbEntity
  8
細線
 48
50.0
100
AcDbLine
 10
12733.69168736323
 20
4677.931598713261
 30
0.0
 11
12733.69168736323
 21
2587.931598713263
 31
0.0
  0
LINE
  5
1753C
330
747D
100
AcDbEntity
  8
細線
 48
50.0
100
AcDbLine
 10
12748.69168736323
 20
4677.931598713261
 30
0.0
 11
12748.69168736323
 21
2587.931598713263
 31
0.0
  0
LINE
  5
1753D
330
747D
100
AcDbEntity
  8
細線
 48
50.0
100
AcDbLine
 10
12608.69168736323
 20
4677.931598713261
 30
0.0
 11
12608.69168736323
 21
2587.931598713263
 31
0.0
  0
LINE
  5
1753E
330
747D
100
AcDbEntity
  8
細線
 48
50.0
100
AcDbLine
 10
12593.69168736323
 20
4677.931598713261
 30
0.0
 11
12593.69168736323
 21
2587.931598713263
 31
0.0
  0
LINE
  5
1753F
330
747D
100
AcDbEntity
  8
細線
 48
50.0
100
AcDbLine
 10
12453.69168736323
 20
4677.931598713261
 30
0.0
 11
12453.69168736323
 21
2587.931598713263
 31
0.0
  0
LINE
  5
17540
330
747D
100
AcDbEntity
  8
細線
 48
50.0
100
AcDbLine
 10
12468.69168736323
 20
4677.931598713261
 30
0.0
 11
12468.69168736323
 21
2587.931598713263
 31
0.0
  0
LINE
  5
17541
330
747D
100
AcDbEntity
  8
部品1
100
AcDbLine
 10
12391.19168736323
 20
4677.931598713261
 30
0.0
 11
12391.19168736323
 21
2587.931598713263
 31
0.0
  0
LINE
  5
17542
330
747D
100
AcDbEntity
  8
部品1
100
AcDbLine
 10
12034.70495988675
 20
5038.13598667628
 30
0.0
 11
12360.15997352978
 21
5020.617927717418
 31
0.0
  0
ARC
  5
17543
330
747D
100
AcDbEntity
  8
部品1
100
AcDbCircle
 10
13771.81922317717
 20
4751.955355979054
 30
0.0
 40
0.7
100
AcDbArc
 50
275.0921697642079
 51
354.1866997667087
  0
ARC
  5
17544
330
747D
100
AcDbEntity
  8
部品1
100
AcDbCircle
 10
13782.6785689265
 20
4828.998610796978
 30
0.0
 40
0.7
100
AcDbArc
 50
275.0921697642079
 51
354.1866997665532
  0
ARC
  5
17545
330
747D
100
AcDbEntity
  8
部品1
100
AcDbCircle
 10
13783.0069741691
 20
4825.313213939889
 30
0.0
 40
3.0
100
AcDbArc
 50
95.09216976420788
 51
174.1866997665532
  0
ARC
  5
17546
330
747D
100
AcDbEntity
  8
部品1
100
AcDbCircle
 10
13772.14762841977
 20
4748.269959121964
 30
0.0
 40
3.0
100
AcDbArc
 50
95.09216976420788
 51
174.1866997665532
  0
ARC
  5
17547
330
747D
100
AcDbEntity
  8
部品1
 48
50.0
100
AcDbCircle
 10
13761.11949314467
 20
4738.679214518082
 30
0.0
 40
7.0
100
AcDbArc
 50
267.8377559869492
 51
354.1866997665532
  0
ARC
  5
17548
330
747D
100
AcDbEntity
  8
部品1
 48
50.0
100
AcDbCircle
 10
13778.44158960918
 20
4849.581761660255
 30
0.0
 40
7.0
100
AcDbArc
 50
354.1866997665532
 51
87.03587545283228
  0
LINE
  5
17549
330
747D
100
AcDbEntity
  8
部品1
 48
50.0
100
AcDbLine
 10
13769.16305674916
 20
4748.573820838867
 30
0.0
 11
13768.08349370942
 21
4737.970203845309
 31
0.0
  0
LINE
  5
1754A
330
747D
100
AcDbEntity
  8
部品1
 48
50.0
100
AcDbLine
 10
13780.02240249848
 20
4825.617075656792
 30
0.0
 11
13772.51562323365
 21
4751.884454911779
 31
0.0
  0
LINE
  5
1754B
330
747D
100
AcDbEntity
  8
部品1
 48
50.0
100
AcDbLine
 10
13785.40559017394
 20
4848.872750987481
 30
0.0
 11
13783.37496898297
 21
4828.9277097297
 31
0.0
  0
ARC
  5
1754C
330
747D
100
AcDbEntity
  8
部品1
100
AcDbCircle
 10
10602.2287792346
 20
4791.745757672165
 30
0.0
 40
0.7
100
AcDbArc
 50
181.0932240292635
 51
260.1877540314845
  0
ARC
  5
1754D
330
747D
100
AcDbEntity
  8
部品1
100
AcDbCircle
 10
10597.45610563699
 20
4884.611535872284
 30
0.0
 40
0.7
100
AcDbArc
 50
181.0932240292114
 51
260.1877540314845
  0
ARC
  5
1754E
330
747D
100
AcDbEntity
  8
部品1
100
AcDbCircle
 10
10596.82555123397
 20
4880.965661334887
 30
0.0
 40
3.0
100
AcDbArc
 50
1.093224029315636
 51
80.18775403169875
  0
ARC
  5
1754F
330
747D
100
AcDbEntity
  8
部品1
100
AcDbCircle
 10
10601.59822483157
 20
4788.099883134768
 30
0.0
 40
3.0
100
AcDbArc
 50
1.093224029315636
 51
80.18775403169875
  0
ARC
  5
17550
330
747D
100
AcDbEntity
  8
部品1
 48
50.0
100
AcDbCircle
 10
10611.79835720677
 20
4777.707639752287
 30
0.0
 40
7.0
100
AcDbArc
 50
181.0932240293156
 51
267.8377559869492
  0
ARC
  5
17551
330
747D
100
AcDbEntity
  8
部品1
 48
50.0
100
AcDbCircle
 10
10603.37469910468
 20
4904.658699285382
 30
0.0
 40
7.0
100
AcDbArc
 50
87.03587545283228
 51
181.0932240293156
  0
LINE
  5
17552
330
747D
100
AcDbEntity
  8
部品1
 48
50.0
100
AcDbLine
 10
10604.597678758
 20
4788.157120737952
 30
0.0
 11
10604.79963137843
 21
4777.574085344858
 31
0.0
  0
LINE
  5
17553
330
747D
100
AcDbEntity
  8
細線
 48
50.0
100
AcDbLine
 10
10601.99158570133
 20
4791.087168856759
 30
0.0
 11
13771.99525013197
 21
4751.277849882266
 31
0.0
  0
LINE
  5
17554
330
747D
100
AcDbEntity
  8
細線
 48
50.0
100
AcDbLine
 10
10597.23111046404
 20
4883.948680554623
 30
0.0
 11
13782.86709520922
 21
4828.324475913795
 31
0.0
  0
LINE
  5
17555
330
747D
100
AcDbEntity
  8
部品1
 48
50.0
100
AcDbLine
 10
10599.82500516039
 20
4881.02289893807
 30
0.0
 11
10601.52890665176
 21
4791.732402231423
 31
0.0
  0
LINE
  5
17556
330
747D
100
AcDbEntity
  8
部品1
 48
50.0
100
AcDbLine
 10
10596.37597327634
 20
4904.525144877954
 30
0.0
 11
10596.75623305415
 21
4884.598180431543
 31
0.0
  0
LINE
  5
17557
330
747D
100
AcDbEntity
  8
細線
 48
50.0
100
AcDbLine
 10
13753.16097055692
 20
4857.08502119273
 30
0.0
 11
13748.44400447523
 21
4732.152805257814
 31
0.0
  0
LINE
  5
17558
330
747D
100
AcDbEntity
  8
細線
 48
50.0
100
AcDbLine
 10
10629.19168736323
 20
4910.331275088666
 30
0.0
 11
10623.90258580772
 21
4770.245642461311
 31
0.0
  0
LINE
  5
17559
330
747D
100
AcDbEntity
  8
部品1
100
AcDbLine
 10
10611.53425196518
 20
4770.712623782229
 30
0.0
 11
13760.85538790308
 21
4731.684198548022
 31
0.0
  0
LINE
  5
1755A
330
747D
100
AcDbEntity
  8
部品1
100
AcDbLine
 10
10603.73667372019
 20
4911.649334047528
 30
0.0
 11
13778.8035642247
 21
4856.5723964224
 31
0.0
  0
LINE
  5
1755B
330
747D
100
AcDbEntity
  8
部品1
 48
50.0
100
AcDbLine
 10
12060.15997352978
 20
5036.817927717418
 30
0.0
 11
12360.15997352978
 21
5036.817927717418
 31
0.0
  0
LINE
  5
1755C
330
747D
100
AcDbEntity
  8
部品1
 48
50.0
100
AcDbLine
 10
12360.15997352978
 20
5036.817927717418
 30
0.0
 11
12360.15997352978
 21
5020.617927717418
 31
0.0
  0
TEXT
  5
1755D
330
747D
100
AcDbEntity
  8
部品1
 48
50.0
100
AcDbText
 10
12048.42780875351
 20
5072.701949869851
 30
0.0
 40
120.0
  1
1000
  7
STYLE1
100
AcDbText
  0
TEXT
  5
1755E
330
747D
100
AcDbEntity
  8
部品1
 48
50.0
100
AcDbText
 10
12526.0608314186
 20
4935.200691651568
 30
0.0
 40
120.0
  1
32
 50
90.0
  7
STYLE1
100
AcDbText
  0
LINE
  5
1755F
330
747D
100
AcDbEntity
  8
細線
 48
50.0
100
AcDbLine
 10
12048.69168736323
 20
4677.931598713261
 30
0.0
 11
12048.69168736323
 21
2587.931598713261
 31
0.0
  0
LINE
  5
17560
330
747D
100
AcDbEntity
  8
細線
 48
50.0
100
AcDbLine
 10
12033.69168736323
 20
4677.931598713261
 30
0.0
 11
12033.69168736323
 21
2587.931598713261
 31
0.0
  0
LINE
  5
17561
330
747D
100
AcDbEntity
  8
細線
 48
50.0
100
AcDbLine
 10
12173.69168736323
 20
4677.931598713261
 30
0.0
 11
12173.69168736323
 21
2587.931598713261
 31
0.0
  0
LINE
  5
17562
330
747D
100
AcDbEntity
  8
細線
 48
50.0
100
AcDbLine
 10
12188.69168736323
 20
4677.931598713261
 30
0.0
 11
12188.69168736323
 21
2587.931598713261
 31
0.0
  0
LINE
  5
17563
330
747D
100
AcDbEntity
  8
細線
 48
50.0
100
AcDbLine
 10
12328.69168736323
 20
4677.931598713261
 30
0.0
 11
12328.69168736323
 21
2587.931598713261
 31
0.0
  0
LINE
  5
17564
330
747D
100
AcDbEntity
  8
細線
 48
50.0
100
AcDbLine
 10
12313.69168736323
 20
4677.931598713261
 30
0.0
 11
12313.69168736323
 21
2587.931598713261
 31
0.0
  0
LINE
  5
17565
330
747D
100
AcDbEntity
  8
部品1
100
AcDbLine
 10
13651.19168736322
 20
4677.931598713264
 30
0.0
 11
13651.19168736322
 21
2587.931598713265
 31
0.0
  0
LINE
  5
17566
330
747D
100
AcDbEntity
  8
部品1
100
AcDbLine
 10
10656.19168736323
 20
4677.931598713261
 30
0.0
 11
13706.19168736322
 21
4677.931598713261
 31
0.0
  0
LINE
  5
17567
330
747D
100
AcDbEntity
  8
部品1
100
AcDbLine
 10
10711.19168736324
 20
2587.931598713261
 30
0.0
 11
13706.19168736323
 21
2587.931598713263
 31
0.0
  0
LINE
  5
17568
330
747D
100
AcDbEntity
  8
部品1
100
AcDbLine
 10
10711.19168736323
 20
4677.931598713261
 30
0.0
 11
10711.19168736324
 21
2437.931598713261
 31
0.0
  0
LINE
  5
17569
330
747D
100
AcDbEntity
  8
部品1
100
AcDbLine
 10
10656.19168736323
 20
4770.07403664214
 30
0.0
 11
10656.19168736323
 21
2437.931598713261
 31
0.0
  0
DIMENSION
  5
1756B
330
747D
100
AcDbEntity
  8
寸法
100
AcDbDimension
  2
*D21
 10
9812.441558179974
 20
2537.931598713262
 30
0.0
 11
9812.441558179974
 21
2231.884354618772
 31
0.0
 70
   160
 71
     5
 42
50.0
  3
INABA_S40G
100
AcDbAlignedDimension
 13
10656.19168736323
 23
2587.931598713261
 33
0.0
 14
10601.19168736323
 24
2537.931598713262
 34
0.0
 50
90.0
100
AcDbRotatedDimension
1001
ACAD
1000
DSTYLE
1002
{
1070
   174
1070
     0
1070
   272
1070
     1
1070
   288
1070
     0
1070
   341
1005
0
1002
}
  0
LINE
  5
1756C
330
747D
100
AcDbEntity
  8
部品1
100
AcDbLine
 10
11131.19168736323
 20
4677.931598713261
 30
0.0
 11
11131.19168736323
 21
2587.931598713261
 31
0.0
  0
LINE
  5
1756D
330
747D
100
AcDbEntity
  8
部品1
100
AcDbLine
 10
13706.19168736323
 20
4732.361626494382
 30
0.0
 11
13706.19168736323
 21
2437.931598713264
 31
0.0
  0
LINE
  5
1756E
330
747D
100
AcDbEntity
  8
部品1
100
AcDbLine
 10
13651.19168736323
 20
4677.931598713263
 30
0.0
 11
13651.19168736323
 21
2587.931598713264
 31
0.0
  0
DIMENSION
  5
1756F
330
747D
100
AcDbEntity
  8
寸法
 48
50.0
100
AcDbDimension
  2
*D22
 10
10656.19168736323
 20
5311.589052292568
 30
0.0
 11
12181.19168736323
 21
5311.589052292568
 31
0.0
 70
   160
  1
柱外寸法<>
 71
     5
 42
3050.0
  3
INABA_S40G
100
AcDbAlignedDimension
 13
13706.19168736323
 23
4859.742278324916
 33
0.0
 14
10656.19168736323
 24
4908.933216836238
 34
0.0
100
AcDbRotatedDimension
1001
ACAD
1000
DSTYLE
1002
{
1070
   174
1070
     0
1070
   272
1070
     1
1070
   288
1070
     0
1070
   341
1005
0
1002
}
  0
DIMENSION
  5
17570
330
747D
100
AcDbEntity
  8
寸法
 48
50.0
100
AcDbDimension
  2
*D23
 10
10596.19168736323
 20
5311.589052292566
 30
0.0
 11
10286.55389208764
 21
5311.589052292566
 31
0.0
 70
   160
 71
     5
 42
60.0
  3
INABA_S40G
100
AcDbAlignedDimension
 13
10656.19168736323
 23
4908.933216836238
 33
0.0
 14
10596.19168736323
 24
4912.931598713266
 34
0.0
100
AcDbRotatedDimension
1001
ACAD
1000
DSTYLE
1002
{
1070
   174
1070
     0
1070
   272
1070
     1
1070
   288
1070
     0
1070
   341
1005
0
1002
}
  0
DIMENSION
  5
17571
330
747D
100
AcDbEntity
  8
寸法
 48
50.0
100
AcDbDimension
  2
*D24
 10
10596.19168736323
 20
5541.702645078843
 30
0.0
 11
12191.19168736323
 21
5541.702645078843
 31
0.0
 70
   160
 71
     5
 42
3190.0
  3
INABA_S40G
100
AcDbAlignedDimension
 13
13786.19168736323
 23
4857.931598713263
 33
0.0
 14
10596.19168736323
 24
4912.931598713266
 34
0.0
100
AcDbRotatedDimension
1001
ACAD
1000
DSTYLE
1002
{
1070
   174
1070
     0
1070
   272
1070
     1
1070
   288
1070
     0
1070
   341
1005
0
1002
}
  0
LINE
  5
17572
330
747D
100
AcDbEntity
  8
部品1
100
AcDbLine
 10
10711.19168736324
 20
2537.931598713262
 30
0.0
 11
13706.19168736323
 21
2537.931598713262
 31
0.0
  0
LINE
  5
17573
330
747D
100
AcDbEntity
  8
細線
 48
50.0
100
AcDbLine
 10
11208.69168736323
 20
4677.931598713261
 30
0.0
 11
11208.69168736323
 21
2587.931598713261
 31
0.0
  0
LINE
  5
17574
330
747D
100
AcDbEntity
  8
細線
 48
50.0
100
AcDbLine
 10
11193.69168736323
 20
4677.931598713261
 30
0.0
 11
11193.69168736323
 21
2587.931598713261
 31
0.0
  0
LINE
  5
17575
330
747D
100
AcDbEntity
  8
細線
 48
50.0
100
AcDbLine
 10
11333.69168736323
 20
4677.931598713261
 30
0.0
 11
11333.69168736323
 21
2587.931598713261
 31
0.0
  0
LINE
  5
17576
330
747D
100
AcDbEntity
  8
細線
 48
50.0
100
AcDbLine
 10
11348.69168736323
 20
4677.931598713261
 30
0.0
 11
11348.69168736323
 21
2587.931598713261
 31
0.0
  0
LINE
  5
17577
330
747D
100
AcDbEntity
  8
細線
 48
50.0
100
AcDbLine
 10
11488.69168736323
 20
4677.931598713261
 30
0.0
 11
11488.69168736323
 21
2587.931598713261
 31
0.0
  0
LINE
  5
17578
330
747D
100
AcDbEntity
  8
細線
 48
50.0
100
AcDbLine
 10
11473.69168736323
 20
4677.931598713261
 30
0.0
 11
11473.69168736323
 21
2587.931598713261
 31
0.0
  0
LINE
  5
17579
330
747D
100
AcDbEntity
  8
細線
 48
50.0
100
AcDbLine
 10
11053.69168736323
 20
4677.931598713261
 30
0.0
 11
11053.69168736323
 21
2587.931598713261
 31
0.0
  0
LINE
  5
1757A
330
747D
100
AcDbEntity
  8
細線
 48
50.0
100
AcDbLine
 10
11068.69168736323
 20
4677.931598713261
 30
0.0
 11
11068.69168736323
 21
2587.931598713261
 31
0.0
  0
LINE
  5
1757B
330
747D
100
AcDbEntity
  8
細線
 48
50.0
100
AcDbLine
 10
10928.69168736323
 20
4677.931598713261
 30
0.0
 11
10928.69168736323
 21
2587.931598713261
 31
0.0
  0
LINE
  5
1757C
330
747D
100
AcDbEntity
  8
細線
 48
50.0
100
AcDbLine
 10
10913.69168736323
 20
4677.931598713261
 30
0.0
 11
10913.69168736323
 21
2587.931598713261
 31
0.0
  0
LINE
  5
1757D
330
747D
100
AcDbEntity
  8
細線
 48
50.0
100
AcDbLine
 10
10773.69168736323
 20
4677.931598713261
 30
0.0
 11
10773.69168736323
 21
2587.931598713261
 31
0.0
  0
LINE
  5
1757E
330
747D
100
AcDbEntity
  8
細線
 48
50.0
100
AcDbLine
 10
10788.69168736323
 20
4677.931598713261
 30
0.0
 11
10788.69168736323
 21
2587.931598713261
 31
0.0
  0
DIMENSION
  5
1757F
330
747D
100
AcDbEntity
  8
寸法
 48
50.0
100
AcDbDimension
  2
*D25
 10
13786.19168736323
 20
5311.589052292568
 30
0.0
 11
13992.23893145772
 21
5311.589052292568
 31
0.0
 70
   160
 71
     5
 42
80.0
  3
INABA_S40G
100
AcDbAlignedDimension
 13
13706.19168736323
 23
4859.742278324916
 33
0.0
 14
13786.19168736323
 24
4857.931598713265
 34
0.0
100
AcDbRotatedDimension
1001
ACAD
1000
DSTYLE
1002
{
1070
   174
1070
     0
1070
   272
1070
     1
1070
   288
1070
     0
1070
   341
1005
0
1002
}
  0
LINE
  5
17580
330
747D
100
AcDbEntity
  8
部品1
100
AcDbLine
 10
11551.19168736323
 20
4677.931598713261
 30
0.0
 11
11551.19168736323
 21
2587.931598713261
 31
0.0
  0
LINE
  5
17581
330
747D
100
AcDbEntity
  8
細線
 48
50.0
100
AcDbLine
 10
11893.69168736323
 20
4677.931598713261
 30
0.0
 11
11893.69168736323
 21
2587.931598713261
 31
0.0
  0
LINE
  5
17582
330
747D
100
AcDbEntity
  8
細線
 48
50.0
100
AcDbLine
 10
11908.69168736323
 20
4677.931598713261
 30
0.0
 11
11908.69168736323
 21
2587.931598713261
 31
0.0
  0
LINE
  5
17583
330
747D
100
AcDbEntity
  8
細線
 48
50.0
100
AcDbLine
 10
11768.69168736323
 20
4677.931598713261
 30
0.0
 11
11768.69168736323
 21
2587.931598713261
 31
0.0
  0
LINE
  5
17584
330
747D
100
AcDbEntity
  8
細線
 48
50.0
100
AcDbLine
 10
11753.69168736323
 20
4677.931598713261
 30
0.0
 11
11753.69168736323
 21
2587.931598713261
 31
0.0
  0
LINE
  5
17585
330
747D
100
AcDbEntity
  8
細線
 48
50.0
100
AcDbLine
 10
11613.69168736323
 20
4677.931598713261
 30
0.0
 11
11613.69168736323
 21
2587.931598713261
 31
0.0
  0
LINE
  5
17586
330
747D
100
AcDbEntity
  8
細線
 48
50.0
100
AcDbLine
 10
11628.69168736323
 20
4677.931598713261
 30
0.0
 11
11628.69168736323
 21
2587.931598713261
 31
0.0
  0
LINE
  5
17587
330
747D
100
AcDbEntity
  8
部品1
100
AcDbLine
 10
11971.19168736323
 20
4677.931598713261
 30
0.0
 11
11971.19168736323
 21
2587.931598713261
 31
0.0
  0
LINE
  5
17588
330
747D
100
AcDbEntity
  8
細線
 48
50.0
100
AcDbLine
 10
13308.69168736323
 20
4677.931598713263
 30
0.0
 11
13308.69168736323
 21
2587.931598713264
 31
0.0
  0
LINE
  5
17589
330
747D
100
AcDbEntity
  8
細線
 48
50.0
100
AcDbLine
 10
13293.69168736323
 20
4677.931598713263
 30
0.0
 11
13293.69168736323
 21
2587.931598713264
 31
0.0
  0
LINE
  5
1758A
330
747D
100
AcDbEntity
  8
細線
 48
50.0
100
AcDbLine
 10
13433.69168736323
 20
4677.931598713263
 30
0.0
 11
13433.69168736323
 21
2587.931598713264
 31
0.0
  0
LINE
  5
1758B
330
747D
100
AcDbEntity
  8
細線
 48
50.0
100
AcDbLine
 10
13448.69168736323
 20
4677.931598713263
 30
0.0
 11
13448.69168736323
 21
2587.931598713264
 31
0.0
  0
LINE
  5
1758C
330
747D
100
AcDbEntity
  8
細線
 48
50.0
100
AcDbLine
 10
13588.69168736323
 20
4677.931598713263
 30
0.0
 11
13588.69168736323
 21
2587.931598713264
 31
0.0
  0
LINE
  5
1758D
330
747D
100
AcDbEntity
  8
細線
 48
50.0
100
AcDbLine
 10
13573.69168736323
 20
4677.931598713263
 30
0.0
 11
13573.69168736323
 21
2587.931598713264
 31
0.0
  0
DIMENSION
  5
1758E
330
747D
100
AcDbEntity
  8
寸法
 48
50.0
100
AcDbDimension
  2
*D26
 10
10035.58328059485
 20
4787.276857586593
 30
0.0
 11
10046.24875585378
 21
5158.123520828294
 31
0.0
 70
   161
 71
     5
 42
141.0000000000009
  3
INABA_S40G
100
AcDbAlignedDimension
 13
10615.58770752181
 23
4911.654347547941
 33
0.0
 14
10611.53425196518
 24
4770.712623782229
 34
0.0
1001
ACAD
1000
DSTYLE
1002
{
1070
   174
1070
     0
1070
   272
1070
     1
1070
   288
1070
     0
1070
   341
1005
0
1002
}
  0
LINE
  5
1758F
330
747D
100
AcDbEntity
  8
部品1
100
AcDbLine
 10
12811.19168736322
 20
4677.931598713261
 30
0.0
 11
12811.19168736322
 21
2587.931598713263
 31
0.0
  0
LINE
  5
17590
330
747D
100
AcDbEntity
  8
細線
 48
50.0
100
AcDbLine
 10
12888.69168736323
 20
4677.931598713261
 30
0.0
 11
12888.69168736323
 21
2587.931598713263
 31
0.0
  0
LINE
  5
17591
330
747D
100
AcDbEntity
  8
細線
 48
50.0
100
AcDbLine
 10
12873.69168736323
 20
4677.931598713261
 30
0.0
 11
12873.69168736323
 21
2587.931598713263
 31
0.0
  0
LINE
  5
17592
330
747D
100
AcDbEntity
  8
細線
 48
50.0
100
AcDbLine
 10
13013.69168736323
 20
4677.931598713261
 30
0.0
 11
13013.69168736323
 21
2587.931598713263
 31
0.0
  0
LINE
  5
17593
330
747D
100
AcDbEntity
  8
細線
 48
50.0
100
AcDbLine
 10
13028.69168736323
 20
4677.931598713261
 30
0.0
 11
13028.69168736323
 21
2587.931598713263
 31
0.0
  0
LINE
  5
17594
330
747D
100
AcDbEntity
  8
細線
 48
50.0
100
AcDbLine
 10
13168.69168736323
 20
4677.931598713261
 30
0.0
 11
13168.69168736323
 21
2587.931598713263
 31
0.0
  0
LINE
  5
17595
330
747D
100
AcDbEntity
  8
細線
 48
50.0
100
AcDbLine
 10
13153.69168736323
 20
4677.931598713261
 30
0.0
 11
13153.69168736323
 21
2587.931598713263
 31
0.0
  0
LINE
  5
17596
330
747D
100
AcDbEntity
  8
部品1
100
AcDbLine
 10
13231.19168736322
 20
4677.931598713263
 30
0.0
 11
13231.19168736322
 21
2587.931598713265
 31
0.0
  0
LWPOLYLINE
  5
175E3
330
747D
100
AcDbEntity
  8
部品1
100
AcDbPolyline
 90
        4
 70
     1
 43
0.0
 10
11799.45635424901
 20
1787.931598713261
 10
11799.45635424901
 20
1548.039277167729
 10
12562.92702047745
 20
1548.039277167729
 10
12562.92702047745
 20
1787.931598713261
  0
TEXT
  5
175E4
330
747D
100
AcDbEntity
  8
部品1
100
AcDbText
 10
11888.90245567262
 20
1595.038069494738
 30
0.0
 40
135.0
  1
側面図
  7
STYLE2
100
AcDbText
  0
LINE
  5
17A35
330
747D
100
AcDbEntity
  8
補助
  6
PHANTOM
 62
   230
 48
50.0
100
AcDbLine
 10
140.0
 20
0.0
 30
0.0
 11
139.9999999999995
 21
11409.6
 31
0.0
  0
DIMENSION
  5
17B96
330
747D
100
AcDbEntity
  8
寸法
 48
50.0
100
AcDbDimension
  2
*D27
 10
8252.89889874258
 20
4677.931598713261
 30
0.0
 11
8252.898898742579
 21
4916.416880087502
 31
0.0
 70
   160
 71
     5
 42
164.9999999999982
  3
INABA_S40G
100
AcDbAlignedDimension
 13
7965.355796420832
 23
4512.931598713263
 33
0.0
 14
7965.355796420832
 24
4677.931598713261
 34
0.0
 50
90.0
100
AcDbRotatedDimension
1001
ACAD
1000
DSTYLE
1002
{
1002
}
  0
DIMENSION
  5
17B97
330
747D
100
AcDbEntity
  8
寸法
 48
50.0
100
AcDbDimension
  2
*D28
 10
8252.898898742579
 20
4512.931598713263
 30
0.0
 11
8393.068721988944
 21
4513.89879855292
 31
0.0
 70
   160
 71
     5
 42
27.00000000000273
  3
INABA_S40G
100
AcDbAlignedDimension
 13
7965.355796420833
 23
4485.93159871326
 33
0.0
 14
7965.355796420832
 24
4512.931598713263
 34
0.0
 50
90.0
100
AcDbRotatedDimension
1001
ACAD
1000
DSTYLE
1002
{
1070
   279
1070
     2
1002
}
  0
DIMENSION
  5
17B98
330
747D
100
AcDbEntity
  8
寸法
 48
50.0
100
AcDbDimension
  2
*D29
 10
8252.898898742579
 20
4485.93159871326
 30
0.0
 11
8152.898898742575
 21
3511.931598713263
 31
0.0
 70
    32
  1
有効開口部高サ <>
 71
     5
 42
1947.999999999999
  3
INABA_S40G
100
AcDbAlignedDimension
 13
7965.355796420832
 23
2537.931598713262
 33
0.0
 14
7965.355796420833
 24
4485.93159871326
 34
0.0
 50
90.0
100
AcDbRotatedDimension
  0
ARC
  5
17FFB
330
747D
100
AcDbEntity
  8
部品1
 48
0.01
100
AcDbCircle
 10
5913.355796420836
 20
4741.931598713261
 30
0.0
 40
2.0
100
AcDbArc
 50
0.0
 51
90.0
  0
ARC
  5
17FFC
330
747D
100
AcDbEntity
  8
部品1
 48
0.01
100
AcDbCircle
 10
5737.355796420835
 20
4741.931598713261
 30
0.0
 40
2.0
100
AcDbArc
 50
90.0
 51
180.0
  0
LINE
  5
17FFD
330
747D
100
AcDbEntity
  8
細線
100
AcDbLine
 10
5825.355796420832
 20
4714.431598713261
 30
0.0
 11
5899.355796420835
 21
4714.431598713261
 31
0.0
  0
LINE
  5
17FFE
330
747D
100
AcDbEntity
  8
細線
100
AcDbLine
 10
5825.355796420836
 20
4737.431598713261
 30
0.0
 11
5751.355796420836
 21
4737.431598713261
 31
0.0
  0
LINE
  5
17FFF
330
747D
100
AcDbEntity
  8
細線
100
AcDbLine
 10
5751.355796420836
 20
4714.431598713261
 30
0.0
 11
5825.355796420836
 21
4714.431598713261
 31
0.0
  0
LINE
  5
18000
330
747D
100
AcDbEntity
  8
細線
100
AcDbLine
 10
5899.355796420835
 20
4737.431598713261
 30
0.0
 11
5825.355796420836
 21
4737.431598713261
 31
0.0
  0
LINE
  5
18001
330
747D
100
AcDbEntity
  8
細線
100
AcDbLine
 10
5899.355796420835
 20
4714.431598713261
 30
0.0
 11
5899.355796420835
 21
4737.431598713261
 31
0.0
  0
LINE
  5
18002
330
747D
100
AcDbEntity
  8
細線
100
AcDbLine
 10
5751.355796420836
 20
4737.431598713261
 30
0.0
 11
5751.355796420836
 21
4714.431598713261
 31
0.0
  0
LINE
  5
18003
330
747D
100
AcDbEntity
  8
部品1
 48
0.01
100
AcDbLine
 10
5915.355796420833
 20
4710.431598713261
 30
0.0
 11
5915.355796420836
 21
4741.931598713261
 31
0.0
  0
LINE
  5
18004
330
747D
100
AcDbEntity
  8
部品1
 48
0.01
100
AcDbLine
 10
5735.355796420836
 20
4741.931598713261
 30
0.0
 11
5735.355796420836
 21
4710.431598713261
 31
0.0
  0
LINE
  5
18005
330
747D
100
AcDbEntity
  8
部品1
 48
0.01
100
AcDbLine
 10
5913.355796420836
 20
4743.931598713261
 30
0.0
 11
5737.355796420835
 21
4743.931598713261
 31
0.0
  0
LINE
  5
18006
330
747D
100
AcDbEntity
  8
細線
100
AcDbLine
 10
5751.355796420836
 20
4731.431598713261
 30
0.0
 11
5825.355796420836
 21
4731.431598713261
 31
0.0
  0
LINE
  5
18007
330
747D
100
AcDbEntity
  8
細線
100
AcDbLine
 10
5751.355796420836
 20
4725.431598713261
 30
0.0
 11
5825.355796420836
 21
4725.431598713261
 31
0.0
  0
LINE
  5
18008
330
747D
100
AcDbEntity
  8
細線
100
AcDbLine
 10
5751.355796420832
 20
4719.431598713261
 30
0.0
 11
5825.355796420836
 21
4719.431598713261
 31
0.0
  0
LINE
  5
18009
330
747D
100
AcDbEntity
  8
細線
100
AcDbLine
 10
5751.355796420836
 20
4731.431598713261
 30
0.0
 11
5820.355796420836
 21
4731.431598713261
 31
0.0
  0
LINE
  5
1800A
330
747D
100
AcDbEntity
  8
細線
100
AcDbLine
 10
5899.355796420832
 20
4731.431598713261
 30
0.0
 11
5825.355796420836
 21
4731.431598713261
 31
0.0
  0
LINE
  5
1800B
330
747D
100
AcDbEntity
  8
細線
100
AcDbLine
 10
5899.355796420832
 20
4719.431598713261
 30
0.0
 11
5825.355796420836
 21
4719.431598713261
 31
0.0
  0
LINE
  5
1800C
330
747D
100
AcDbEntity
  8
細線
100
AcDbLine
 10
5899.355796420832
 20
4725.431598713261
 30
0.0
 11
5825.355796420836
 21
4725.431598713261
 31
0.0
  0
LINE
  5
1800D
330
747D
100
AcDbEntity
  8
細線
100
AcDbLine
 10
5825.355796420836
 20
4737.431598713261
 30
0.0
 11
5825.355796420832
 21
4714.431598713261
 31
0.0
  0
LINE
  5
1800E
330
747D
100
AcDbEntity
  8
細線
100
AcDbLine
 10
7055.355796420837
 20
4737.431598713261
 30
0.0
 11
7055.355796420837
 21
4714.431598713261
 31
0.0
  0
LINE
  5
1800F
330
747D
100
AcDbEntity
  8
細線
100
AcDbLine
 10
6981.355796420835
 20
4725.431598713261
 30
0.0
 11
7055.355796420837
 21
4725.431598713261
 31
0.0
  0
LINE
  5
18010
330
747D
100
AcDbEntity
  8
細線
100
AcDbLine
 10
6981.355796420835
 20
4719.431598713261
 30
0.0
 11
7055.355796420837
 21
4719.431598713261
 31
0.0
  0
LINE
  5
18011
330
747D
100
AcDbEntity
  8
細線
100
AcDbLine
 10
6981.355796420835
 20
4731.431598713261
 30
0.0
 11
7055.355796420837
 21
4731.431598713261
 31
0.0
  0
LINE
  5
18012
330
747D
100
AcDbEntity
  8
細線
100
AcDbLine
 10
7129.355796420836
 20
4731.431598713261
 30
0.0
 11
7060.355796420836
 21
4731.431598713261
 31
0.0
  0
LINE
  5
18013
330
747D
100
AcDbEntity
  8
細線
100
AcDbLine
 10
7129.355796420836
 20
4719.431598713261
 30
0.0
 11
7055.355796420837
 21
4719.431598713261
 31
0.0
  0
LINE
  5
18014
330
747D
100
AcDbEntity
  8
細線
100
AcDbLine
 10
7129.355796420836
 20
4725.431598713261
 30
0.0
 11
7055.355796420837
 21
4725.431598713261
 31
0.0
  0
LINE
  5
18015
330
747D
100
AcDbEntity
  8
細線
100
AcDbLine
 10
7129.355796420836
 20
4731.431598713261
 30
0.0
 11
7055.355796420837
 21
4731.431598713261
 31
0.0
  0
LINE
  5
18016
330
747D
100
AcDbEntity
  8
部品1
 48
0.01
100
AcDbLine
 10
6967.355796420836
 20
4743.931598713261
 30
0.0
 11
7143.355796420836
 21
4743.931598713261
 31
0.0
  0
LINE
  5
18017
330
747D
100
AcDbEntity
  8
部品1
 48
0.01
100
AcDbLine
 10
7145.355796420836
 20
4741.931598713261
 30
0.0
 11
7145.355796420836
 21
4710.431598713261
 31
0.0
  0
LINE
  5
18018
330
747D
100
AcDbEntity
  8
部品1
 48
0.01
100
AcDbLine
 10
6965.355796420836
 20
4710.431598713261
 30
0.0
 11
6965.355796420836
 21
4741.931598713261
 31
0.0
  0
LINE
  5
18019
330
747D
100
AcDbEntity
  8
細線
100
AcDbLine
 10
7129.355796420836
 20
4737.431598713261
 30
0.0
 11
7129.355796420836
 21
4714.431598713261
 31
0.0
  0
LINE
  5
1801A
330
747D
100
AcDbEntity
  8
細線
100
AcDbLine
 10
6981.355796420835
 20
4714.431598713261
 30
0.0
 11
6981.355796420835
 21
4737.431598713261
 31
0.0
  0
LINE
  5
1801B
330
747D
100
AcDbEntity
  8
細線
100
AcDbLine
 10
6981.355796420835
 20
4737.431598713261
 30
0.0
 11
7055.355796420837
 21
4737.431598713261
 31
0.0
  0
LINE
  5
1801C
330
747D
100
AcDbEntity
  8
細線
100
AcDbLine
 10
7129.355796420836
 20
4714.431598713261
 30
0.0
 11
7055.355796420837
 21
4714.431598713261
 31
0.0
  0
LINE
  5
1801D
330
747D
100
AcDbEntity
  8
細線
100
AcDbLine
 10
7055.355796420837
 20
4737.431598713261
 30
0.0
 11
7129.355796420836
 21
4737.431598713261
 31
0.0
  0
LINE
  5
1801E
330
747D
100
AcDbEntity
  8
細線
100
AcDbLine
 10
7055.355796420837
 20
4714.431598713261
 30
0.0
 11
6981.355796420835
 21
4714.431598713261
 31
0.0
  0
ARC
  5
1801F
330
747D
100
AcDbEntity
  8
部品1
 48
0.01
100
AcDbCircle
 10
7143.355796420836
 20
4741.931598713261
 30
0.0
 40
2.0
100
AcDbArc
 50
0.0
 51
90.0
  0
ARC
  5
18020
330
747D
100
AcDbEntity
  8
部品1
 48
0.01
100
AcDbCircle
 10
6967.355796420836
 20
4741.931598713261
 30
0.0
 40
2.0
100
AcDbArc
 50
90.0
 51
180.0
  0
ARC
  5
18021
330
747D
100
AcDbEntity
  8
部品1
 48
0.01
100
AcDbCircle
 10
5913.355796420832
 20
4710.431598713261
 30
0.0
 40
2.0
100
AcDbArc
 50
270.0
 51
0.0
  0
ARC
  5
18022
330
747D
100
AcDbEntity
  8
部品1
 48
0.01
100
AcDbCircle
 10
5737.355796420835
 20
4710.431598713261
 30
0.0
 40
2.0
100
AcDbArc
 50
180.0
 51
270.0
  0
LINE
  5
18023
330
747D
100
AcDbEntity
  8
部品1
 48
0.01
100
AcDbLine
 10
5737.355796420835
 20
4708.431598713261
 30
0.0
 11
5913.355796420832
 21
4708.431598713261
 31
0.0
  0
LINE
  5
18024
330
747D
100
AcDbEntity
  8
部品1
 48
0.01
100
AcDbLine
 10
7143.355796420836
 20
4708.431598713261
 30
0.0
 11
6967.355796420836
 21
4708.431598713261
 31
0.0
  0
ARC
  5
18025
330
747D
100
AcDbEntity
  8
部品1
 48
0.01
100
AcDbCircle
 10
7143.355796420836
 20
4710.431598713261
 30
0.0
 40
2.0
100
AcDbArc
 50
270.0
 51
0.0
  0
ARC
  5
18026
330
747D
100
AcDbEntity
  8
部品1
 48
0.01
100
AcDbCircle
 10
6967.355796420836
 20
4710.431598713261
 30
0.0
 40
2.0
100
AcDbArc
 50
180.0
 51
270.0
  0
TEXT
  5
18066
330
747D
100
AcDbEntity
  8
文字
 62
     7
 48
50.0
100
AcDbText
 10
14834.39215341524
 20
9910.013745883725
 30
0.0
 40
100.0
  1
F12    1.0(多雪地型  2.3)
  7
STYLE1
100
AcDbText
  0
TEXT
  5
180E9
330
747D
100
AcDbEntity
  8
文字
 62
     7
 48
50.0
100
AcDbText
 10
15022.63965474516
 20
10080.01374588372
 30
0.0
 40
100.0
  1
Y10            0.7
  7
STYLE1
100
AcDbText
  0
TEXT
  5
1817A
330
747D
100
AcDbEntity
  8
文字
 62
     7
 48
50.0
100
AcDbText
 10
14646.46056207479
 20
871.9640646083623
 30
0.0
 40
100.0
  1
～一般型・多雪地型～
  7
STYLE2
100
AcDbText
  0
LINE
  5
181B4
330
747D
100
AcDbEntity
  8
破線
 48
5.0
100
AcDbLine
 10
5018.355796420833
 20
2537.931598713262
 30
0.0
 11
5018.355796420831
 21
2287.931598713267
 31
0.0
  0
LINE
  5
181B5
330
747D
100
AcDbEntity
  8
破線
 48
5.0
100
AcDbLine
 10
5018.355796420833
 20
2537.931598713262
 30
0.0
 11
5018.355796420831
 21
2287.931598713267
 31
0.0
  0
LINE
  5
181B6
330
747D
100
AcDbEntity
  8
破線
 48
5.0
100
AcDbLine
 10
5018.355796420832
 20
2287.931598713267
 30
0.0
 11
4970.355796420832
 21
2287.931598713267
 31
0.0
  0
LINE
  5
181B7
330
747D
100
AcDbEntity
  8
破線
 48
5.0
100
AcDbLine
 10
5018.355796420832
 20
2287.931598713267
 30
0.0
 11
4970.355796420832
 21
2287.931598713267
 31
0.0
  0
LINE
  5
181B8
330
747D
100
AcDbEntity
  8
破線
 48
5.0
100
AcDbLine
 10
4970.355796420832
 20
2187.931598713269
 30
0.0
 11
4915.355796420833
 21
2187.931598713269
 31
0.0
  0
LINE
  5
181B9
330
747D
100
AcDbEntity
  8
破線
 48
5.0
100
AcDbLine
 10
4915.355796420833
 20
2437.931598713261
 30
0.0
 11
4915.355796420833
 21
2187.931598713261
 31
0.0
  0
LINE
  5
181BA
330
747D
100
AcDbEntity
  8
破線
 48
5.0
100
AcDbLine
 10
4970.355796420832
 20
2537.931598713262
 30
0.0
 11
4970.355796420832
 21
2187.931598713261
 31
0.0
  0
LINE
  5
181BB
330
747D
100
AcDbEntity
  8
破線
 48
5.0
100
AcDbLine
 10
4970.355796420832
 20
2537.931598713262
 30
0.0
 11
4970.355796420832
 21
2187.931598713261
 31
0.0
  0
LINE
  5
181BC
330
747D
100
AcDbEntity
  8
破線
 48
5.0
100
AcDbLine
 10
7910.355796420835
 20
2287.931598713262
 30
0.0
 11
7862.355796420833
 21
2287.931598713262
 31
0.0
  0
LINE
  5
181BD
330
747D
100
AcDbEntity
  8
破線
 48
5.0
100
AcDbLine
 10
7862.355796420832
 20
2537.931598713262
 30
0.0
 11
7862.355796420835
 21
2287.931598713262
 31
0.0
  0
LINE
  5
181BE
330
747D
100
AcDbEntity
  8
破線
 48
5.0
100
AcDbLine
 10
7965.355796420832
 20
2187.931598713261
 30
0.0
 11
7910.355796420834
 21
2187.931598713261
 31
0.0
  0
LINE
  5
181BF
330
747D
100
AcDbEntity
  8
破線
 48
5.0
100
AcDbLine
 10
7965.355796420833
 20
2437.931598713261
 30
0.0
 11
7965.355796420833
 21
2187.931598713261
 31
0.0
  0
LINE
  5
181C0
330
747D
100
AcDbEntity
  8
破線
 48
5.0
100
AcDbLine
 10
7910.355796420832
 20
2537.931598713262
 30
0.0
 11
7910.355796420834
 21
2187.931598713261
 31
0.0
  0
TEXT
  5
181E7
330
747D
100
AcDbEntity
  8
文字
 62
     7
 48
50.0
100
AcDbText
 10
15022.63965474516
 20
9230.013745883725
 30
0.0
 40
100.0
  1
F12            0.7
  7
STYLE1
100
AcDbText
  0
TEXT
  5
181E8
330
747D
100
AcDbEntity
  8
文字
 62
     7
 48
50.0
100
AcDbText
 10
13583.11819016569
 20
9400.013745883729
 30
0.0
 40
100.0
  1
シャッター
  7
STYLE1
100
AcDbText
  0
TEXT
  5
181E9
330
747D
100
AcDbEntity
  8
文字
 62
     7
 48
50.0
100
AcDbText
 10
15022.63965474515
 20
9400.013745883725
 30
0.0
 40
100.0
  1
Z08            0.5
  7
STYLE1
100
AcDbText
  0
TEXT
  5
181EA
330
747D
100
AcDbEntity
  8
文字
 62
     7
 48
50.0
100
AcDbText
 10
14850.83183167176
 20
9060.013745883725
 30
0.0
 40
100.0
  1
アルミニウム合金押出形材
  7
STYLE1
100
AcDbText
  0
TEXT
  5
181EB
330
747D
100
AcDbEntity
  8
文字
 62
     7
 48
50.0
100
AcDbText
 10
13583.11819016569
 20
9060.013745883727
 30
0.0
 40
100.0
  1
シャッターレール
  7
STYLE1
100
AcDbText
  0
ENDSEC
  0
SECTION
  2
OBJECTS
  0
DICTIONARY
  5
7471
330
0
100
AcDbDictionary
281
     1
  3
ACAD_COLOR
350
1675F
  3
ACAD_GROUP
350
7472
  3
ACAD_LAYOUT
350
16760
  3
ACAD_MATERIAL
350
1675E
  3
ACAD_MLINESTYLE
350
7473
  3
ACAD_PLOTSETTINGS
350
16761
  3
ACAD_PLOTSTYLENAME
350
1675C
  3
ACDBHEADERROUNDTRIPXREC
350
1825D
  3
AcDbVariableDictionary
350
18259
  3
CONTENTDICTIONARY
350
E71C
  3
DRAWINGVARIABLESDICT
350
F3B9
  0
DICTIONARY
  5
16B73
330
7467
100
AcDbDictionary
280
     1
281
     1
  3
ACAD_LAYERSTATES
360
16B74
  0
DICTIONARY
  5
1675F
102
{ACAD_REACTORS
330
7471
102
}
330
7471
100
AcDbDictionary
281
     1
  0
DICTIONARY
  5
7472
102
{ACAD_REACTORS
330
7471
102
}
330
7471
100
AcDbDictionary
281
     1
  0
DICTIONARY
  5
16760
102
{ACAD_REACTORS
330
7471
102
}
330
7471
100
AcDbDictionary
281
     1
  3
Model
350
16762
  3
レイアウト1
350
16763
  0
DICTIONARY
  5
1675E
102
{ACAD_REACTORS
330
7471
102
}
330
7471
100
AcDbDictionary
281
     1
  0
DICTIONARY
  5
7473
102
{ACAD_REACTORS
330
7471
102
}
330
7471
100
AcDbDictionary
281
     1
  3
STANDARD
350
7480
  0
DICTIONARY
  5
16761
102
{ACAD_REACTORS
330
7471
102
}
330
7471
100
AcDbDictionary
281
     1
  0
ACDBDICTIONARYWDFLT
  5
1675C
102
{ACAD_REACTORS
330
7471
102
}
330
7471
100
AcDbDictionary
281
     1
  3
Normal
350
1675D
100
AcDbDictionaryWithDefault
340
1675D
  0
DICTIONARY
  5
1825D
102
{ACAD_REACTORS
330
7471
102
}
330
7471
100
AcDbDictionary
281
     1
  3
COLORDICT
350
1825F
  3
MATERIALDICT
350
1825E
  0
DICTIONARY
  5
18259
102
{ACAD_REACTORS
330
7471
102
}
330
7471
100
AcDbDictionary
281
     1
  3
DIMASSOC
350
1825A
  3
PROJECTNAME
350
1825B
  0
DICTIONARY
  5
E71C
102
{ACAD_REACTORS
330
7471
102
}
330
7471
100
AcDbDictionary
281
     1
  0
DICTIONARY
  5
F3B9
102
{ACAD_REACTORS
330
7471
102
}
330
7471
100
AcDbDictionary
281
     1
1001
DRAWINGVARIABLESXDATA
1000
POLARMODE
1000
1
  0
DICTIONARY
  5
16B74
102
{ACAD_REACTORS
330
16B73
102
}
330
16B73
100
AcDbDictionary
281
     1
  0
LAYOUT
  5
16762
102
{ACAD_XDICTIONARY
360
18260
102
}
102
{ACAD_REACTORS
330
16760
102
}
330
16760
100
AcDbPlotSettings
  1

  2
クセロPDF
  4
A3
  6

 40
3.174999999999999
 41
3.174999999999999
 42
3.174987999999999
 43
3.174987999999999
 44
419.946655
 45
296.925995
 46
0.0
 47
0.0
 48
0.0
 49
0.0
140
0.0
141
0.0
142
1.0
143
40.44561299368567
 70
 11952
 72
     1
 73
     0
 74
     2
  7
inaba.ctb
 75
     0
147
0.0247245603659442
148
183.0179068595971
149
160.3342785227505
100
AcDbLayout
  1
Model
 70
     1
 71
     0
 10
0.0
 20
0.0
 11
12.0
 21
9.0
 12
0.0
 22
0.0
 32
0.0
 14
0.0
 24
0.0
 34
0.0
 15
0.0
 25
0.0
 35
0.0
146
0.0
 13
0.0
 23
0.0
 33
0.0
 16
1.0
 26
0.0
 36
0.0
 17
0.0
 27
1.0
 37
0.0
 76
     0
330
747D
  0
LAYOUT
  5
16763
102
{ACAD_XDICTIONARY
360
18262
102
}
102
{ACAD_REACTORS
330
16760
102
}
330
16760
100
AcDbPlotSettings
  1

  2
EPSON LP-8300
  4

  6

 40
0.0
 41
0.0
 42
0.0
 43
0.0
 44
0.0
 45
0.0
 46
0.0
 47
0.0
 48
0.0
 49
0.0
140
0.0
141
0.0
142
1.0
143
1.0
 70
   688
 72
     0
 73
     0
 74
     5
  7
inaba.ctb
 75
    16
147
1.0
148
0.0
149
0.0
100
AcDbLayout
  1
レイアウト1
 70
     0
 71
     1
 10
0.0
 20
0.0
 11
420.0
 21
297.0
 12
0.0
 22
0.0
 32
0.0
 14
1.000000000000000E+20
 24
1.000000000000000E+20
 34
1.000000000000000E+20
 15
-1.000000000000000E+20
 25
-1.000000000000000E+20
 35
-1.000000000000000E+20
146
0.0
 13
0.0
 23
0.0
 33
0.0
 16
1.0
 26
0.0
 36
0.0
 17
0.0
 27
1.0
 37
0.0
 76
     0
330
747A
  0
MLINESTYLE
  5
7480
102
{ACAD_REACTORS
330
7473
102
}
330
7473
100
AcDbMlineStyle
  2
STANDARD
 70
     0
  3

 62
     0
 51
90.0
 52
90.0
 71
     2
 49
0.5
 62
   256
  6
BYLAYER
 49
-0.5
 62
   256
  6
BYLAYER
  0
ACDBPLACEHOLDER
  5
1675D
102
{ACAD_REACTORS
330
1675C
102
}
330
1675C
  0
XRECORD
  5
1825F
102
{ACAD_REACTORS
330
1825D
102
}
330
1825D
100
AcDbXrecord
280
     1
340
1675F
  0
XRECORD
  5
1825E
102
{ACAD_REACTORS
330
1825D
102
}
330
1825D
100
AcDbXrecord
280
     1
340
1675E
  0
DICTIONARYVAR
  5
1825A
102
{ACAD_REACTORS
330
18259
102
}
330
18259
100
DictionaryVariables
280
     0
  1
1
  0
DICTIONARYVAR
  5
1825B
102
{ACAD_REACTORS
330
18259
102
}
330
18259
100
DictionaryVariables
280
     0
  1

  0
DICTIONARY
  5
18260
330
16762
100
AcDbDictionary
280
     1
281
     1
  3
ACAD_XREC_ROUNDTRIP
360
18261
  0
DICTIONARY
  5
18262
330
16763
100
AcDbDictionary
280
     1
281
     1
  3
ACAD_XREC_ROUNDTRIP
360
18263
  0
XRECORD
  5
18261
102
{ACAD_REACTORS
330
18260
102
}
330
18260
100
AcDbXrecord
280
     1
102
SHADEPLOT
 70
     1
102
SHADEPLOTRESLEVEL
 70
     2
102
SHADEPLOTCUSTOMDPI
 70
   300
  0
XRECORD
  5
18263
102
{ACAD_REACTORS
330
18262
102
}
330
18262
100
AcDbXrecord
280
     1
102
SHADEPLOT
 70
     0
102
SHADEPLOTRESLEVEL
 70
     2
102
SHADEPLOTCUSTOMDPI
 70
   300
  0
ENDSEC
  0
EOF
