  0
SECTION
  2
HEADER
  9
$ACADVER
  1
AC1015
  9
$ACADMAINTVER
 70
    20
  9
$DWGCODEPAGE
  3
ANSI_932
  9
$INSBASE
 10
0.0
 20
0.0
 30
0.0
  9
$EXTMIN
 10
139.9999999999995
 20
-0.0000000000000909
 30
0.0
  9
$EXTMAX
 10
16307.2
 20
11409.6
 30
0.0
  9
$LIMMIN
 10
0.0
 20
0.0
  9
$LIMMAX
 10
16800.0
 20
11880.0
  9
$ORTHOMODE
 70
     0
  9
$REGENMODE
 70
     1
  9
$FILLMODE
 70
     1
  9
$QTEXTMODE
 70
     0
  9
$MIRRTEXT
 70
     1
  9
$LTSCALE
 40
20.0
  9
$ATTMODE
 70
     1
  9
$TEXTSIZE
 40
100.0
  9
$TRACEWID
 40
1.0
  9
$TEXTSTYLE
  7
STYLE2
  9
$CLAYER
  8
部品1
  9
$CELTYPE
  6
BYLAYER
  9
$CECOLOR
 62
   256
  9
$CELTSCALE
 40
50.0
  9
$DISPSILH
 70
     0
  9
$DIMSCALE
 40
40.0
  9
$DIMASZ
 40
2.5
  9
$DIMEXO
 40
0.5
  9
$DIMDLI
 40
7.0
  9
$DIMRND
 40
0.0
  9
$DIMDLE
 40
0.0
  9
$DIMEXE
 40
1.5
  9
$DIMTP
 40
0.0
  9
$DIMTM
 40
0.0
  9
$DIMTXT
 40
3.0
  9
$DIMCEN
 40
0.0
  9
$DIMTSZ
 40
0.0
  9
$DIMTOL
 70
     0
  9
$DIMLIM
 70
     0
  9
$DIMTIH
 70
     0
  9
$DIMTOH
 70
     0
  9
$DIMSE1
 70
     0
  9
$DIMSE2
 70
     0
  9
$DIMTAD
 70
     3
  9
$DIMZIN
 70
     8
  9
$DIMBLK
  1

  9
$DIMASO
 70
     1
  9
$DIMSHO
 70
     1
  9
$DIMPOST
  1

  9
$DIMAPOST
  1

  9
$DIMALT
 70
     0
  9
$DIMALTD
 70
     2
  9
$DIMALTF
 40
0.0394
  9
$DIMLFAC
 40
1.0
  9
$DIMTOFL
 70
     1
  9
$DIMTVP
 40
0.0
  9
$DIMTIX
 70
     1
  9
$DIMSOXD
 70
     0
  9
$DIMSAH
 70
     1
  9
$DIMBLK1
  1
DOTSMALL
  9
$DIMBLK2
  1
DOTSMALL
  9
$DIMSTYLE
  2
INABA_S40G
  9
$DIMCLRD
 70
     0
  9
$DIMCLRE
 70
     0
  9
$DIMCLRT
 70
     7
  9
$DIMTFAC
 40
1.0
  9
$DIMGAP
 40
1.0
  9
$DIMJUST
 70
     0
  9
$DIMSD1
 70
     0
  9
$DIMSD2
 70
     0
  9
$DIMTOLJ
 70
     1
  9
$DIMTZIN
 70
     0
  9
$DIMALTZ
 70
     0
  9
$DIMALTTZ
 70
     0
  9
$DIMUPT
 70
     0
  9
$DIMDEC
 70
     1
  9
$DIMTDEC
 70
     4
  9
$DIMALTU
 70
     2
  9
$DIMALTTD
 70
     2
  9
$DIMTXSTY
  7
STYLE1
  9
$DIMAUNIT
 70
     0
  9
$DIMADEC
 70
     0
  9
$DIMALTRND
 40
0.0
  9
$DIMAZIN
 70
     0
  9
$DIMDSEP
 70
    46
  9
$DIMATFIT
 70
     3
  9
$DIMFRAC
 70
     0
  9
$DIMLDRBLK
  1

  9
$DIMLUNIT
 70
     2
  9
$DIMLWD
 70
    -2
  9
$DIMLWE
 70
    -2
  9
$DIMTMOVE
 70
     2
  9
$LUNITS
 70
     2
  9
$LUPREC
 70
     1
  9
$SKETCHINC
 40
1.0
  9
$FILLETRAD
 40
3.0
  9
$AUNITS
 70
     0
  9
$AUPREC
 70
     0
  9
$MENU
  1
acad
  9
$ELEVATION
 40
0.0
  9
$PELEVATION
 40
0.0
  9
$THICKNESS
 40
0.0
  9
$LIMCHECK
 70
     0
  9
$CHAMFERA
 40
0.0
  9
$CHAMFERB
 40
0.0
  9
$CHAMFERC
 40
0.0
  9
$CHAMFERD
 40
0.0
  9
$SKPOLY
 70
     0
  9
$TDCREATE
 40
2451368.612993866
  9
$TDUCREATE
 40
2451368.237993866
  9
$TDUPDATE
 40
2455569.627891528
  9
$TDUUPDATE
 40
2455569.252891528
  9
$TDINDWG
 40
0.8755283565
  9
$TDUSRTIMER
 40
0.8755283565
  9
$USRTIMER
 70
     1
  9
$ANGBASE
 50
0.0
  9
$ANGDIR
 70
     0
  9
$PDMODE
 70
     3
  9
$PDSIZE
 40
2.0
  9
$PLINEWID
 40
0.0
  9
$SPLFRAME
 70
     0
  9
$SPLINETYPE
 70
     6
  9
$SPLINESEGS
 70
     8
  9
$HANDSEED
  5
1A9DC
  9
$SURFTAB1
 70
     6
  9
$SURFTAB2
 70
     6
  9
$SURFTYPE
 70
     6
  9
$SURFU
 70
     6
  9
$SURFV
 70
     6
  9
$UCSBASE
  2

  9
$UCSNAME
  2

  9
$UCSORG
 10
0.0
 20
0.0
 30
0.0
  9
$UCSXDIR
 10
1.0
 20
0.0
 30
0.0
  9
$UCSYDIR
 10
0.0
 20
1.0
 30
0.0
  9
$UCSORTHOREF
  2

  9
$UCSORTHOVIEW
 70
     0
  9
$UCSORGTOP
 10
0.0
 20
0.0
 30
0.0
  9
$UCSORGBOTTOM
 10
0.0
 20
0.0
 30
0.0
  9
$UCSORGLEFT
 10
0.0
 20
0.0
 30
0.0
  9
$UCSORGRIGHT
 10
0.0
 20
0.0
 30
0.0
  9
$UCSORGFRONT
 10
0.0
 20
0.0
 30
0.0
  9
$UCSORGBACK
 10
0.0
 20
0.0
 30
0.0
  9
$PUCSBASE
  2

  9
$PUCSNAME
  2

  9
$PUCSORG
 10
0.0
 20
0.0
 30
0.0
  9
$PUCSXDIR
 10
1.0
 20
0.0
 30
0.0
  9
$PUCSYDIR
 10
0.0
 20
1.0
 30
0.0
  9
$PUCSORTHOREF
  2

  9
$PUCSORTHOVIEW
 70
     0
  9
$PUCSORGTOP
 10
0.0
 20
0.0
 30
0.0
  9
$PUCSORGBOTTOM
 10
0.0
 20
0.0
 30
0.0
  9
$PUCSORGLEFT
 10
0.0
 20
0.0
 30
0.0
  9
$PUCSORGRIGHT
 10
0.0
 20
0.0
 30
0.0
  9
$PUCSORGFRONT
 10
0.0
 20
0.0
 30
0.0
  9
$PUCSORGBACK
 10
0.0
 20
0.0
 30
0.0
  9
$USERI1
 70
     0
  9
$USERI2
 70
     0
  9
$USERI3
 70
     0
  9
$USERI4
 70
     0
  9
$USERI5
 70
     0
  9
$USERR1
 40
0.0
  9
$USERR2
 40
0.0
  9
$USERR3
 40
0.0
  9
$USERR4
 40
0.0
  9
$USERR5
 40
0.0
  9
$WORLDVIEW
 70
     1
  9
$SHADEDGE
 70
     3
  9
$SHADEDIF
 70
    70
  9
$TILEMODE
 70
     1
  9
$MAXACTVP
 70
    16
  9
$PINSBASE
 10
0.0
 20
0.0
 30
0.0
  9
$PLIMCHECK
 70
     0
  9
$PEXTMIN
 10
1.000000000000000E+20
 20
1.000000000000000E+20
 30
1.000000000000000E+20
  9
$PEXTMAX
 10
-1.000000000000000E+20
 20
-1.000000000000000E+20
 30
-1.000000000000000E+20
  9
$PLIMMIN
 10
0.0
 20
0.0
  9
$PLIMMAX
 10
420.0
 20
297.0
  9
$UNITMODE
 70
     0
  9
$VISRETAIN
 70
     0
  9
$PLINEGEN
 70
     0
  9
$PSLTSCALE
 70
     0
  9
$TREEDEPTH
 70
  3020
  9
$CMLSTYLE
  2
STANDARD
  9
$CMLJUST
 70
     0
  9
$CMLSCALE
 40
1.0
  9
$PROXYGRAPHICS
 70
     1
  9
$MEASUREMENT
 70
     1
  9
$CELWEIGHT
370
    -1
  9
$ENDCAPS
280
     0
  9
$JOINSTYLE
280
     0
  9
$LWDISPLAY
290
     0
  9
$INSUNITS
 70
     0
  9
$HYPERLINKBASE
  1

  9
$STYLESHEET
  1

  9
$XEDIT
290
     1
  9
$CEPSNTYPE
380
     0
  9
$PSTYLEMODE
290
     1
  9
$FINGERPRINTGUID
  2
{B4FE0D0C-B9EA-48BA-8BB5-68BEED06B205}
  9
$VERSIONGUID
  2
{1AB6B11D-FE8C-48B2-9669-875C5AD9F0F7}
  9
$EXTNAMES
290
     1
  9
$PSVPSCALE
 40
0.0
  9
$OLESTARTUP
290
     0
  0
ENDSEC
  0
SECTION
  2
CLASSES
  0
CLASS
  1
ACDBDICTIONARYWDFLT
  2
AcDbDictionaryWithDefault
  3
ObjectDBX Classes
 90
        0
280
     0
281
     0
  0
CLASS
  1
DICTIONARYVAR
  2
AcDbDictionaryVar
  3
ObjectDBX Classes
 90
        0
280
     0
281
     0
  0
CLASS
  1
ACDBPLACEHOLDER
  2
AcDbPlaceHolder
  3
ObjectDBX Classes
 90
        0
280
     0
281
     0
  0
CLASS
  1
LAYOUT
  2
AcDbLayout
  3
ObjectDBX Classes
 90
        0
280
     0
281
     0
  0
ENDSEC
  0
SECTION
  2
TABLES
  0
TABLE
  2
VPORT
  5
746D
330
0
100
AcDbSymbolTable
 70
     2
  0
VPORT
  5
1A9D4
330
746D
100
AcDbSymbolTableRecord
100
AcDbViewportTableRecord
  2
*Active
 70
     0
 10
0.0
 20
0.0
 11
1.0
 21
1.0
 12
8223.761025238504
 22
5958.464904965584
 13
0.0
 23
0.0
 14
10.0
 24
10.0
 15
10.0
 25
10.0
 16
0.0
 26
0.0
 36
1.0
 17
0.0
 27
0.0
 37
0.0
 40
12026.39135199571
 41
1.627450980392156
 42
50.0
 43
0.0
 44
0.0
 50
0.0
 51
0.0
 71
     0
 72
     0
 73
     1
 74
     0
 75
     0
 76
     0
 77
     0
 78
     0
281
     0
 65
     1
110
0.0
120
0.0
130
0.0
111
1.0
121
0.0
131
0.0
112
0.0
122
1.0
132
0.0
 79
     0
146
0.0
  0
ENDTAB
  0
TABLE
  2
LTYPE
  5
746A
330
0
100
AcDbSymbolTable
 70
     3
  0
LTYPE
  5
7477
330
746A
100
AcDbSymbolTableRecord
100
AcDbLinetypeTableRecord
  2
BYBLOCK
 70
     0
  3

 72
    65
 73
     0
 40
0.0
  0
LTYPE
  5
7478
330
746A
100
AcDbSymbolTableRecord
100
AcDbLinetypeTableRecord
  2
BYLAYER
 70
     0
  3

 72
    65
 73
     0
 40
0.0
  0
LTYPE
  5
7479
330
746A
100
AcDbSymbolTableRecord
100
AcDbLinetypeTableRecord
  2
CONTINUOUS
 70
     0
  3
Solid line
 72
    65
 73
     0
 40
0.0
  0
LTYPE
  5
781A
330
746A
100
AcDbSymbolTableRecord
100
AcDbLinetypeTableRecord
  2
HIDDEN
 70
     0
  3
__ __ __ __ __ __ __ __ __ __ __ __ __ __ __ __
 72
    65
 73
     2
 40
0.375
 49
0.25
 74
     0
 49
-0.125
 74
     0
  0
LTYPE
  5
781B
330
746A
100
AcDbSymbolTableRecord
100
AcDbLinetypeTableRecord
  2
PHANTOM
 70
     0
  3
______  __  __  ______  __  __  ______  __  __ 
 72
    65
 73
     6
 40
2.5
 49
1.25
 74
     0
 49
-0.25
 74
     0
 49
0.25
 74
     0
 49
-0.25
 74
     0
 49
0.25
 74
     0
 49
-0.25
 74
     0
  0
ENDTAB
  0
TABLE
  2
LAYER
  5
7467
102
{ACAD_XDICTIONARY
360
18CF7
102
}
330
0
100
AcDbSymbolTable
 70
    10
  0
LAYER
  5
7474
330
7467
100
AcDbSymbolTableRecord
100
AcDbLayerTableRecord
  2
0
 70
     0
 62
     7
  6
CONTINUOUS
370
    -3
390
189D5
  0
LAYER
  5
DEB3
330
7467
100
AcDbSymbolTableRecord
100
AcDbLayerTableRecord
  2
寸法
 70
     0
 62
     4
  6
CONTINUOUS
370
    -3
390
189D5
  0
LAYER
  5
DEB4
330
7467
100
AcDbSymbolTableRecord
100
AcDbLayerTableRecord
  2
部品1
 70
     0
 62
     7
  6
CONTINUOUS
370
    -3
390
189D5
  0
LAYER
  5
DEB5
330
7467
100
AcDbSymbolTableRecord
100
AcDbLayerTableRecord
  2
補助
 70
     0
 62
    -1
  6
CONTINUOUS
370
    -3
390
189D5
  0
LAYER
  5
DEB6
330
7467
100
AcDbSymbolTableRecord
100
AcDbLayerTableRecord
  2
文字
 70
     0
 62
     7
  6
CONTINUOUS
370
    -3
390
189D5
  0
LAYER
  5
F255
330
7467
100
AcDbSymbolTableRecord
100
AcDbLayerTableRecord
  2
DEFPOINTS
 70
     0
 62
     7
  6
CONTINUOUS
290
     0
370
    -3
390
189D5
  0
LAYER
  5
10B54
330
7467
100
AcDbSymbolTableRecord
100
AcDbLayerTableRecord
  2
仕様書枠
 70
     0
 62
   230
  6
CONTINUOUS
370
    -3
390
189D5
  0
LAYER
  5
11729
330
7467
100
AcDbSymbolTableRecord
100
AcDbLayerTableRecord
  2
Ｇ．Ｌ
 70
     0
 62
    30
  6
CONTINUOUS
370
    -3
390
189D5
  0
LAYER
  5
1173F
330
7467
100
AcDbSymbolTableRecord
100
AcDbLayerTableRecord
  2
細線
 70
     0
 62
     5
  6
CONTINUOUS
370
    -3
390
189D5
  0
LAYER
  5
142E2
330
7467
100
AcDbSymbolTableRecord
100
AcDbLayerTableRecord
  2
破線
 70
     0
 62
     2
  6
HIDDEN
370
    -3
390
189D5
  0
ENDTAB
  0
TABLE
  2
STYLE
  5
7468
330
0
100
AcDbSymbolTable
 70
     4
  0
STYLE
  5
7475
330
7468
100
AcDbSymbolTableRecord
100
AcDbTextStyleTableRecord
  2
STANDARD
 70
     0
 40
0.0
 41
1.0
 50
0.0
 71
     0
 42
4.0
  3
txt
  4
C:\AutoCAD LT\bigfont.shx
  0
STYLE
  5
763C
330
7468
100
AcDbSymbolTableRecord
100
AcDbTextStyleTableRecord
  2
MSMINCHO
 70
     0
 40
0.0
 41
1.0
 50
0.0
 71
     0
 42
1.199999999999999
  3
C:\AutoCAD LT\msminch2.TTF
  4

  0
STYLE
  5
F706
330
7468
100
AcDbSymbolTableRecord
100
AcDbTextStyleTableRecord
  2
STYLE1
 70
     0
 40
0.0
 41
1.0
 50
0.0
 71
     0
 42
120.0
  3
isocp.shx
  4
bigfont.shx
  0
STYLE
  5
103BF
330
7468
100
AcDbSymbolTableRecord
100
AcDbTextStyleTableRecord
  2
STYLE2
 70
     0
 40
0.0
 41
1.0
 50
0.0
 71
     0
 42
100.0
  3
MS PGothic.ttf
  4

1001
ACAD
1000
MS PGothic
1071
    32818
  0
ENDTAB
  0
TABLE
  2
VIEW
  5
746B
330
0
100
AcDbSymbolTable
 70
     0
  0
ENDTAB
  0
TABLE
  2
UCS
  5
746C
330
0
100
AcDbSymbolTable
 70
     0
  0
ENDTAB
  0
TABLE
  2
APPID
  5
746E
330
0
100
AcDbSymbolTable
 70
     6
  0
APPID
  5
7476
330
746E
100
AcDbSymbolTableRecord
100
AcDbRegAppTableRecord
  2
ACAD
 70
     0
  0
APPID
  5
DEA9
330
746E
100
AcDbSymbolTableRecord
100
AcDbRegAppTableRecord
  2
CONTENTBLOCKICON
 70
     0
  0
APPID
  5
DEAA
330
746E
100
AcDbSymbolTableRecord
100
AcDbRegAppTableRecord
  2
CONTENTBLOCKDESCRIPTION
 70
     0
  0
APPID
  5
E71D
330
746E
100
AcDbSymbolTableRecord
100
AcDbRegAppTableRecord
  2
CONTENTTABDATA
 70
     0
  0
APPID
  5
E71E
330
746E
100
AcDbSymbolTableRecord
100
AcDbRegAppTableRecord
  2
CONTENTCURRENTTAB
 70
     0
  0
APPID
  5
F3BA
330
746E
100
AcDbSymbolTableRecord
100
AcDbRegAppTableRecord
  2
DRAWINGVARIABLESXDATA
 70
     0
  0
ENDTAB
  0
TABLE
  2
DIMSTYLE
  5
746F
330
0
100
AcDbSymbolTable
 70
     1
100
AcDbDimStyleTable
 71
     1
340
F71F
  0
DIMSTYLE
105
F71F
102
{ACAD_REACTORS
330
162CD
330
162CE
330
162CF
330
162D0
330
162DA
330
162E4
330
162E7
330
162EA
330
162EB
330
16301
330
16302
330
1631F
330
16320
330
16333
330
1659C
330
1659A
330
165E9
330
166DD
330
16913
330
17C9E
330
17C9D
330
17C9B
330
17C9F
330
17C5D
330
17C95
330
17C60
330
190C5
330
19134
330
19138
330
19139
330
19188
330
19189
330
1918A
330
1918B
330
1918C
330
1918D
330
191B0
330
191B3
330
191B5
330
1A1E8
330
1A1E7
330
1A3D2
330
1A3D3
330
1A3D4
330
1A7FD
102
}
330
746F
100
AcDbSymbolTableRecord
100
AcDbDimStyleTableRecord
  2
INABA_S40G
 70
     0
 40
40.0
 41
2.5
 42
0.5
 43
7.0
 44
1.5
 73
     0
 74
     0
 77
     3
 78
     8
140
3.0
141
0.0
143
0.0394
147
1.0
172
     1
173
     1
174
     1
178
     7
271
     1
340
F706
341
F770
343
F770
344
F770
  0
ENDTAB
  0
TABLE
  2
BLOCK_RECORD
  5
7466
330
0
100
AcDbSymbolTable
 70
    48
  0
BLOCK_RECORD
  5
747D
330
7466
100
AcDbSymbolTableRecord
100
AcDbBlockTableRecord
  2
*MODEL_SPACE
340
189DA
  0
BLOCK_RECORD
  5
747A
330
7466
100
AcDbSymbolTableRecord
100
AcDbBlockTableRecord
  2
*PAPER_SPACE
340
189DB
  0
BLOCK_RECORD
  5
F770
330
7466
100
AcDbSymbolTableRecord
100
AcDbBlockTableRecord
  2
_DOTSMALL
340
0
102
{BLKREFS
331
1994D
331
1994E
331
19962
331
19963
331
1996B
331
1996C
331
19992
331
19993
331
199AF
331
199B0
331
199B9
331
199BA
331
199C2
331
199C3
331
199CB
331
199CC
331
199D4
331
199D5
331
199DF
331
199E0
331
199EA
331
199EB
331
199F4
331
199F5
331
199FF
331
19A00
331
19A0A
331
19A0B
331
19A11
331
19A12
331
19A4C
331
19A4D
331
19A57
331
19A58
331
19A62
331
19A63
331
19A94
331
19A95
331
19AA0
331
19AA1
331
19AAB
331
19AAC
331
19AB5
331
19AB6
331
19ABE
331
19ABF
331
19AC6
331
19AC7
331
19AD8
331
19AD9
331
19AE1
331
19AE2
331
19AEC
331
19AED
331
19AF7
331
19AF8
331
19B00
331
19B01
331
1A204
331
1A205
331
1A20D
331
1A20E
331
1A222
331
1A223
331
1A22B
331
1A22C
331
1A234
331
1A235
331
1A23D
331
1A23E
331
1A248
331
1A249
331
1A253
331
1A254
331
1A25E
331
1A25F
331
1A267
331
1A268
331
1A50B
331
1A50C
331
1A7EB
331
1A7EC
331
1A813
331
1A814
331
1A938
331
1A939
331
1A941
331
1A942
331
1A9B6
331
1A9B7
331
1A9C2
331
1A9C3
102
}
  0
BLOCK_RECORD
  5
16338
330
7466
100
AcDbSymbolTableRecord
100
AcDbBlockTableRecord
  2
*D1
340
0
  0
BLOCK_RECORD
  5
16344
330
7466
100
AcDbSymbolTableRecord
100
AcDbBlockTableRecord
  2
*D2
340
0
  0
BLOCK_RECORD
  5
16352
330
7466
100
AcDbSymbolTableRecord
100
AcDbBlockTableRecord
  2
*D3
340
0
  0
BLOCK_RECORD
  5
16360
330
7466
100
AcDbSymbolTableRecord
100
AcDbBlockTableRecord
  2
*D4
340
0
  0
BLOCK_RECORD
  5
1636C
330
7466
100
AcDbSymbolTableRecord
100
AcDbBlockTableRecord
  2
*D5
340
0
  0
BLOCK_RECORD
  5
16384
330
7466
100
AcDbSymbolTableRecord
100
AcDbBlockTableRecord
  2
*D6
340
0
  0
BLOCK_RECORD
  5
1638F
330
7466
100
AcDbSymbolTableRecord
100
AcDbBlockTableRecord
  2
*D7
340
0
  0
BLOCK_RECORD
  5
1639B
330
7466
100
AcDbSymbolTableRecord
100
AcDbBlockTableRecord
  2
*D8
340
0
  0
BLOCK_RECORD
  5
163A9
330
7466
100
AcDbSymbolTableRecord
100
AcDbBlockTableRecord
  2
*D9
340
0
  0
BLOCK_RECORD
  5
163B8
330
7466
100
AcDbSymbolTableRecord
100
AcDbBlockTableRecord
  2
*D10
340
0
  0
BLOCK_RECORD
  5
163C7
330
7466
100
AcDbSymbolTableRecord
100
AcDbBlockTableRecord
  2
*D11
340
0
  0
BLOCK_RECORD
  5
163E1
330
7466
100
AcDbSymbolTableRecord
100
AcDbBlockTableRecord
  2
*D12
340
0
  0
BLOCK_RECORD
  5
163ED
330
7466
100
AcDbSymbolTableRecord
100
AcDbBlockTableRecord
  2
*D13
340
0
  0
BLOCK_RECORD
  5
163FB
330
7466
100
AcDbSymbolTableRecord
100
AcDbBlockTableRecord
  2
*D14
340
0
  0
BLOCK_RECORD
  5
165B5
330
7466
100
AcDbSymbolTableRecord
100
AcDbBlockTableRecord
  2
*D15
340
0
  0
BLOCK_RECORD
  5
165C4
330
7466
100
AcDbSymbolTableRecord
100
AcDbBlockTableRecord
  2
*D16
340
0
  0
BLOCK_RECORD
  5
165EA
330
7466
100
AcDbSymbolTableRecord
100
AcDbBlockTableRecord
  2
*D17
340
0
  0
BLOCK_RECORD
  5
166CF
330
7466
100
AcDbSymbolTableRecord
100
AcDbBlockTableRecord
  2
*D18
340
0
  0
BLOCK_RECORD
  5
16908
330
7466
100
AcDbSymbolTableRecord
100
AcDbBlockTableRecord
  2
*D19
340
0
  0
BLOCK_RECORD
  5
17CB2
330
7466
100
AcDbSymbolTableRecord
100
AcDbBlockTableRecord
  2
*D20
340
0
  0
BLOCK_RECORD
  5
17CC1
330
7466
100
AcDbSymbolTableRecord
100
AcDbBlockTableRecord
  2
*D21
340
0
  0
BLOCK_RECORD
  5
17CD0
330
7466
100
AcDbSymbolTableRecord
100
AcDbBlockTableRecord
  2
*D22
340
0
  0
BLOCK_RECORD
  5
17CDB
330
7466
100
AcDbSymbolTableRecord
100
AcDbBlockTableRecord
  2
*D23
340
0
  0
BLOCK_RECORD
  5
17CE7
330
7466
100
AcDbSymbolTableRecord
100
AcDbBlockTableRecord
  2
*D24
340
0
  0
BLOCK_RECORD
  5
17CF3
330
7466
100
AcDbSymbolTableRecord
100
AcDbBlockTableRecord
  2
*D25
340
0
  0
BLOCK_RECORD
  5
17D01
330
7466
100
AcDbSymbolTableRecord
100
AcDbBlockTableRecord
  2
*D26
340
0
  0
BLOCK_RECORD
  5
19415
330
7466
100
AcDbSymbolTableRecord
100
AcDbBlockTableRecord
  2
*D27
340
0
  0
BLOCK_RECORD
  5
19423
330
7466
100
AcDbSymbolTableRecord
100
AcDbBlockTableRecord
  2
*D28
340
0
  0
BLOCK_RECORD
  5
19431
330
7466
100
AcDbSymbolTableRecord
100
AcDbBlockTableRecord
  2
*D29
340
0
  0
BLOCK_RECORD
  5
1943D
330
7466
100
AcDbSymbolTableRecord
100
AcDbBlockTableRecord
  2
*D30
340
0
  0
BLOCK_RECORD
  5
19449
330
7466
100
AcDbSymbolTableRecord
100
AcDbBlockTableRecord
  2
*D31
340
0
  0
BLOCK_RECORD
  5
19455
330
7466
100
AcDbSymbolTableRecord
100
AcDbBlockTableRecord
  2
*D32
340
0
  0
BLOCK_RECORD
  5
19462
330
7466
100
AcDbSymbolTableRecord
100
AcDbBlockTableRecord
  2
*D33
340
0
  0
BLOCK_RECORD
  5
19470
330
7466
100
AcDbSymbolTableRecord
100
AcDbBlockTableRecord
  2
*D34
340
0
  0
BLOCK_RECORD
  5
1947C
330
7466
100
AcDbSymbolTableRecord
100
AcDbBlockTableRecord
  2
*D35
340
0
  0
BLOCK_RECORD
  5
19488
330
7466
100
AcDbSymbolTableRecord
100
AcDbBlockTableRecord
  2
*D36
340
0
  0
BLOCK_RECORD
  5
194BB
330
7466
100
AcDbSymbolTableRecord
100
AcDbBlockTableRecord
  2
*D37
340
0
  0
BLOCK_RECORD
  5
194C7
330
7466
100
AcDbSymbolTableRecord
100
AcDbBlockTableRecord
  2
*D38
340
0
  0
BLOCK_RECORD
  5
194E2
330
7466
100
AcDbSymbolTableRecord
100
AcDbBlockTableRecord
  2
*D39
340
0
  0
BLOCK_RECORD
  5
1A1E9
330
7466
100
AcDbSymbolTableRecord
100
AcDbBlockTableRecord
  2
*D40
340
0
  0
BLOCK_RECORD
  5
1A1F5
330
7466
100
AcDbSymbolTableRecord
100
AcDbBlockTableRecord
  2
*D41
340
0
  0
BLOCK_RECORD
  5
1A43D
330
7466
100
AcDbSymbolTableRecord
100
AcDbBlockTableRecord
  2
*D42
340
0
  0
BLOCK_RECORD
  5
1A449
330
7466
100
AcDbSymbolTableRecord
100
AcDbBlockTableRecord
  2
*D43
340
0
  0
BLOCK_RECORD
  5
1A457
330
7466
100
AcDbSymbolTableRecord
100
AcDbBlockTableRecord
  2
*D44
340
0
  0
BLOCK_RECORD
  5
1A7E6
330
7466
100
AcDbSymbolTableRecord
100
AcDbBlockTableRecord
  2
*D45
340
0
  0
BLOCK_RECORD
  5
1A7F2
330
7466
100
AcDbSymbolTableRecord
100
AcDbBlockTableRecord
  2
A$C503D65AF
340
0
  0
BLOCK_RECORD
  5
1A804
330
7466
100
AcDbSymbolTableRecord
100
AcDbBlockTableRecord
  2
*D47
340
0
  0
ENDTAB
  0
ENDSEC
  0
SECTION
  2
BLOCKS
  0
BLOCK
  5
7489
330
747D
100
AcDbEntity
  8
0
100
AcDbBlockBegin
  2
*MODEL_SPACE
 70
     0
 10
0.0
 20
0.0
 30
0.0
  3
*MODEL_SPACE
  1

  0
ENDBLK
  5
748A
330
747D
100
AcDbEntity
  8
0
100
AcDbBlockEnd
  0
BLOCK
  5
7487
330
747A
100
AcDbEntity
 67
     1
  8
0
100
AcDbBlockBegin
  2
*PAPER_SPACE
 70
     0
 10
0.0
 20
0.0
 30
0.0
  3
*PAPER_SPACE
  1

  0
ENDBLK
  5
7488
330
747A
100
AcDbEntity
 67
     1
  8
0
100
AcDbBlockEnd
  0
BLOCK
  5
F771
330
F770
100
AcDbEntity
  8
0
 48
50.0
100
AcDbBlockBegin
  2
_DOTSMALL
 70
     0
 10
0.0
 20
0.0
 30
0.0
  3
_DOTSMALL
  1

  0
LWPOLYLINE
  5
F772
330
F770
100
AcDbEntity
  8
0
  6
ByBlock
 62
     0
 48
50.0
100
AcDbPolyline
 90
        2
 70
     1
 43
0.5
 10
-0.0625
 20
0.0
 42
1.0
 10
0.0625
 20
0.0
 42
1.0
  0
ENDBLK
  5
F776
330
F770
100
AcDbEntity
  8
0
 48
50.0
100
AcDbBlockEnd
  0
BLOCK
  5
18528
330
16338
100
AcDbEntity
  8
0
 48
50.0
100
AcDbBlockBegin
  2
*D1
 70
     1
 10
0.0
 20
0.0
 30
0.0
  3
*D1
  1

  0
LINE
  5
19AFD
330
16338
100
AcDbEntity
  8
寸法
 62
     0
 48
50.0
370
    -2
100
AcDbLine
 10
10358.19383040678
 20
9717.497424545967
 30
0.0
 11
11045.62017614119
 21
9717.497424545967
 31
0.0
  0
LINE
  5
19AFE
330
16338
100
AcDbEntity
  8
寸法
 62
     0
 48
50.0
370
    -2
100
AcDbLine
 10
10358.19383040675
 20
7197.497424545952
 30
0.0
 11
11045.62017614119
 21
7197.497424545952
 31
0.0
  0
LINE
  5
19AFF
330
16338
100
AcDbEntity
  8
寸法
 62
     0
 48
50.0
370
    -2
100
AcDbLine
 10
10985.62017614119
 20
9717.497424545967
 30
0.0
 11
10985.62017614119
 21
7197.497424545952
 31
0.0
  0
INSERT
  5
19B00
330
16338
100
AcDbEntity
  8
寸法
 62
     0
 48
50.0
370
    -2
100
AcDbBlockReference
  2
_DOTSMALL
 10
10985.62017614119
 20
9717.497424545967
 30
0.0
 41
100.0
 42
100.0
 43
100.0
 50
90.0
  0
INSERT
  5
19B01
330
16338
100
AcDbEntity
  8
寸法
 62
     0
 48
50.0
370
    -2
100
AcDbBlockReference
  2
_DOTSMALL
 10
10985.62017614119
 20
7197.497424545952
 30
0.0
 41
100.0
 42
100.0
 43
100.0
 50
270.0
  0
MTEXT
  5
19B02
330
16338
100
AcDbEntity
  8
寸法
 62
     7
 48
50.0
100
AcDbMText
 10
10885.60836511756
 20
8457.497424545961
 30
0.0
 40
120.0
 41
0.0
 71
     5
 72
     1
  1
\A1;6X420=2520
  7
STYLE1
 11
0.0000000000000001
 21
1.0
 31
0.0
 73
     1
 44
1.0
1001
ACAD
1000
MTEXTBEGIN
1070
    73
1070
     1
1070
    44
1040
1.0
1070
    74
1070
     0
1000
MTEXTEND
  0
POINT
  5
19B03
330
16338
100
AcDbEntity
  8
DEFPOINTS
 62
     0
 48
50.0
100
AcDbPoint
 10
10338.19383040678
 20
9717.497424545967
 30
0.0
  0
POINT
  5
19B04
330
16338
100
AcDbEntity
  8
DEFPOINTS
 62
     0
 48
50.0
100
AcDbPoint
 10
10338.19383040675
 20
7197.497424545952
 30
0.0
  0
POINT
  5
19B05
330
16338
100
AcDbEntity
  8
DEFPOINTS
 62
     0
 48
50.0
100
AcDbPoint
 10
10985.62017614119
 20
7197.497424545952
 30
0.0
  0
ENDBLK
  5
18532
330
16338
100
AcDbEntity
  8
0
 48
50.0
100
AcDbBlockEnd
  0
BLOCK
  5
16414
330
16344
100
AcDbEntity
  8
0
 48
50.0
100
AcDbBlockBegin
  2
*D2
 70
     1
 10
0.0
 20
0.0
 30
0.0
  3
*D2
  1

  0
LINE
  5
19AF2
330
16344
100
AcDbEntity
  8
寸法
 62
     0
 48
50.0
370
    -2
100
AcDbLine
 10
10358.19383040675
 20
7197.497424545952
 30
0.0
 11
11045.62017614117
 21
7197.497424545952
 31
0.0
  0
LINE
  5
19AF3
330
16344
100
AcDbEntity
  8
寸法
 62
     0
 48
50.0
370
    -2
100
AcDbLine
 10
10358.19383040675
 20
7142.497424545957
 30
0.0
 11
11045.62017614117
 21
7142.497424545957
 31
0.0
  0
LINE
  5
19AF4
330
16344
100
AcDbEntity
  8
寸法
 62
     0
 48
50.0
370
    -2
100
AcDbLine
 10
10985.62017614117
 20
7197.497424545952
 30
0.0
 11
10985.62017614117
 21
7297.497424545952
 31
0.0
  0
LINE
  5
19AF5
330
16344
100
AcDbEntity
  8
寸法
 62
     0
 48
50.0
370
    -2
100
AcDbLine
 10
10985.62017614117
 20
7142.497424545957
 30
0.0
 11
10985.62017614117
 21
6656.150676266853
 31
0.0
  0
LINE
  5
19AF6
330
16344
100
AcDbEntity
  8
寸法
 62
     0
 48
50.0
370
    -2
100
AcDbLine
 10
10985.62017614117
 20
7197.497424545952
 30
0.0
 11
10985.62017614117
 21
7142.497424545957
 31
0.0
  0
INSERT
  5
19AF7
330
16344
100
AcDbEntity
  8
寸法
 62
     0
 48
50.0
370
    -2
100
AcDbBlockReference
  2
_DOTSMALL
 10
10985.62017614117
 20
7197.497424545952
 30
0.0
 41
100.0
 42
100.0
 43
100.0
 50
270.0
  0
INSERT
  5
19AF8
330
16344
100
AcDbEntity
  8
寸法
 62
     0
 48
50.0
370
    -2
100
AcDbBlockReference
  2
_DOTSMALL
 10
10985.62017614117
 20
7142.497424545957
 30
0.0
 41
100.0
 42
100.0
 43
100.0
 50
90.0
  0
MTEXT
  5
19AF9
330
16344
100
AcDbEntity
  8
寸法
 62
     7
 48
50.0
100
AcDbMText
 10
10885.62017614116
 20
6764.635957641094
 30
0.0
 40
120.0
 41
0.0
 71
     5
 72
     1
  1
\A1;55
  7
STYLE1
 11
0.0000000000000001
 21
1.0
 31
0.0
 73
     1
 44
1.0
1001
ACAD
1000
MTEXTBEGIN
1070
    73
1070
     1
1070
    44
1040
1.0
1070
    74
1070
     0
1000
MTEXTEND
  0
POINT
  5
19AFA
330
16344
100
AcDbEntity
  8
DEFPOINTS
 62
     0
 48
50.0
100
AcDbPoint
 10
10338.19383040675
 20
7197.497424545952
 30
0.0
  0
POINT
  5
19AFB
330
16344
100
AcDbEntity
  8
DEFPOINTS
 62
     0
 48
50.0
100
AcDbPoint
 10
10338.19383040675
 20
7142.497424545957
 30
0.0
  0
POINT
  5
19AFC
330
16344
100
AcDbEntity
  8
DEFPOINTS
 62
     0
 48
50.0
100
AcDbPoint
 10
10985.62017614117
 20
7142.497424545957
 30
0.0
  0
ENDBLK
  5
16420
330
16344
100
AcDbEntity
  8
0
 48
50.0
100
AcDbBlockEnd
  0
BLOCK
  5
16421
330
16352
100
AcDbEntity
  8
0
 48
50.0
100
AcDbBlockBegin
  2
*D3
 70
     1
 10
0.0
 20
0.0
 30
0.0
  3
*D3
  1

  0
LINE
  5
19AE7
330
16352
100
AcDbEntity
  8
寸法
 62
     0
 48
50.0
370
    -2
100
AcDbLine
 10
10358.19383040678
 20
9772.497424545964
 30
0.0
 11
11045.62017614119
 21
9772.497424545964
 31
0.0
  0
LINE
  5
19AE8
330
16352
100
AcDbEntity
  8
寸法
 62
     0
 48
50.0
370
    -2
100
AcDbLine
 10
10358.19383040678
 20
9717.497424545967
 30
0.0
 11
11045.62017614119
 21
9717.497424545967
 31
0.0
  0
LINE
  5
19AE9
330
16352
100
AcDbEntity
  8
寸法
 62
     0
 48
50.0
370
    -2
100
AcDbLine
 10
10985.62017614119
 20
9717.497424545967
 30
0.0
 11
10985.62017614119
 21
9617.497424545968
 31
0.0
  0
LINE
  5
19AEA
330
16352
100
AcDbEntity
  8
寸法
 62
     0
 48
50.0
370
    -2
100
AcDbLine
 10
10985.62017614119
 20
9772.497424545964
 30
0.0
 11
10985.62017614119
 21
10189.46798729444
 31
0.0
  0
LINE
  5
19AEB
330
16352
100
AcDbEntity
  8
寸法
 62
     0
 48
50.0
370
    -2
100
AcDbLine
 10
10985.62017614119
 20
9717.497424545967
 30
0.0
 11
10985.62017614119
 21
9772.497424545964
 31
0.0
  0
INSERT
  5
19AEC
330
16352
100
AcDbEntity
  8
寸法
 62
     0
 48
50.0
370
    -2
100
AcDbBlockReference
  2
_DOTSMALL
 10
10985.62017614119
 20
9717.497424545967
 30
0.0
 41
100.0
 42
100.0
 43
100.0
 50
90.0
  0
INSERT
  5
19AED
330
16352
100
AcDbEntity
  8
寸法
 62
     0
 48
50.0
370
    -2
100
AcDbBlockReference
  2
_DOTSMALL
 10
10985.62017614119
 20
9772.497424545964
 30
0.0
 41
100.0
 42
100.0
 43
100.0
 50
270.0
  0
MTEXT
  5
19AEE
330
16352
100
AcDbEntity
  8
寸法
 62
     7
 48
50.0
100
AcDbMText
 10
10885.62017614119
 20
10080.9827059202
 30
0.0
 40
120.0
 41
0.0
 71
     5
 72
     1
  1
\A1;55
  7
STYLE1
 11
0.0000000000000001
 21
1.0
 31
0.0
 73
     1
 44
1.0
1001
ACAD
1000
MTEXTBEGIN
1070
    73
1070
     1
1070
    44
1040
1.0
1070
    74
1070
     0
1000
MTEXTEND
  0
POINT
  5
19AEF
330
16352
100
AcDbEntity
  8
DEFPOINTS
 62
     0
 48
50.0
100
AcDbPoint
 10
10338.19383040678
 20
9772.497424545964
 30
0.0
  0
POINT
  5
19AF0
330
16352
100
AcDbEntity
  8
DEFPOINTS
 62
     0
 48
50.0
100
AcDbPoint
 10
10338.19383040678
 20
9717.497424545967
 30
0.0
  0
POINT
  5
19AF1
330
16352
100
AcDbEntity
  8
DEFPOINTS
 62
     0
 48
50.0
100
AcDbPoint
 10
10985.62017614119
 20
9717.497424545967
 30
0.0
  0
ENDBLK
  5
1642D
330
16352
100
AcDbEntity
  8
0
 48
50.0
100
AcDbBlockEnd
  0
BLOCK
  5
1851D
330
16360
100
AcDbEntity
  8
0
 48
50.0
100
AcDbBlockBegin
  2
*D4
 70
     1
 10
0.0
 20
0.0
 30
0.0
  3
*D4
  1

  0
LINE
  5
19ADE
330
16360
100
AcDbEntity
  8
寸法
 62
     0
 48
50.0
370
    -2
100
AcDbLine
 10
10358.19383040678
 20
9772.497424545964
 30
0.0
 11
11410.72711788083
 21
9772.497424545964
 31
0.0
  0
LINE
  5
19ADF
330
16360
100
AcDbEntity
  8
寸法
 62
     0
 48
50.0
370
    -2
100
AcDbLine
 10
10358.19383040675
 20
7142.497424545957
 30
0.0
 11
11410.72711788083
 21
7142.497424545957
 31
0.0
  0
LINE
  5
19AE0
330
16360
100
AcDbEntity
  8
寸法
 62
     0
 48
50.0
370
    -2
100
AcDbLine
 10
11350.72711788082
 20
9772.497424545964
 30
0.0
 11
11350.72711788082
 21
7142.497424545957
 31
0.0
  0
INSERT
  5
19AE1
330
16360
100
AcDbEntity
  8
寸法
 62
     0
 48
50.0
370
    -2
100
AcDbBlockReference
  2
_DOTSMALL
 10
11350.72711788082
 20
9772.497424545964
 30
0.0
 41
100.0
 42
100.0
 43
100.0
 50
90.0
  0
INSERT
  5
19AE2
330
16360
100
AcDbEntity
  8
寸法
 62
     0
 48
50.0
370
    -2
100
AcDbBlockReference
  2
_DOTSMALL
 10
11350.72711788082
 20
7142.497424545957
 30
0.0
 41
100.0
 42
100.0
 43
100.0
 50
270.0
  0
MTEXT
  5
19AE3
330
16360
100
AcDbEntity
  8
寸法
 62
     7
 48
50.0
100
AcDbMText
 10
11250.7153068572
 20
8457.497424545961
 30
0.0
 40
120.0
 41
0.0
 71
     5
 72
     1
  1
\A1;2630
  7
STYLE1
 11
0.0000000000000001
 21
1.0
 31
0.0
 73
     1
 44
1.0
1001
ACAD
1000
MTEXTBEGIN
1070
    73
1070
     1
1070
    44
1040
1.0
1070
    74
1070
     0
1000
MTEXTEND
  0
POINT
  5
19AE4
330
16360
100
AcDbEntity
  8
DEFPOINTS
 62
     0
 48
50.0
100
AcDbPoint
 10
10338.19383040678
 20
9772.497424545964
 30
0.0
  0
POINT
  5
19AE5
330
16360
100
AcDbEntity
  8
DEFPOINTS
 62
     0
 48
50.0
100
AcDbPoint
 10
10338.19383040675
 20
7142.497424545957
 30
0.0
  0
POINT
  5
19AE6
330
16360
100
AcDbEntity
  8
DEFPOINTS
 62
     0
 48
50.0
100
AcDbPoint
 10
11350.72711788082
 20
7142.497424545957
 30
0.0
  0
ENDBLK
  5
18527
330
16360
100
AcDbEntity
  8
0
 48
50.0
100
AcDbBlockEnd
  0
BLOCK
  5
16627
330
1636C
100
AcDbEntity
  8
0
 48
50.0
100
AcDbBlockBegin
  2
*D5
 70
     1
 10
0.0
 20
0.0
 30
0.0
  3
*D5
  1

  0
LINE
  5
19AD5
330
1636C
100
AcDbEntity
  8
寸法
 62
     0
 48
50.0
370
    -2
100
AcDbLine
 10
10329.69383040678
 20
9737.138440697343
 30
0.0
 11
10725.0515562688
 21
9631.202657331208
 31
0.0
  0
LINE
  5
19AD6
330
1636C
100
AcDbEntity
  8
寸法
 62
     0
 48
50.0
370
    -2
100
AcDbLine
 10
10329.69383040678
 20
9287.138440697345
 30
0.0
 11
10725.0515562688
 21
9181.20265733121
 31
0.0
  0
LINE
  5
19AD7
330
1636C
100
AcDbEntity
  8
寸法
 62
     0
 48
50.0
370
    -2
100
AcDbLine
 10
10665.0515562688
 20
9647.279608877074
 30
0.0
 11
10665.0515562688
 21
9197.279608877078
 31
0.0
  0
INSERT
  5
19AD8
330
1636C
100
AcDbEntity
  8
寸法
 62
     0
 48
50.0
370
    -2
100
AcDbBlockReference
  2
_DOTSMALL
 10
10665.0515562688
 20
9647.279608877074
 30
0.0
 41
100.0
 42
100.0
 43
100.0
 50
90.0
  0
INSERT
  5
19AD9
330
1636C
100
AcDbEntity
  8
寸法
 62
     0
 48
50.0
370
    -2
100
AcDbBlockReference
  2
_DOTSMALL
 10
10665.0515562688
 20
9197.279608877078
 30
0.0
 41
100.0
 42
100.0
 43
100.0
 50
270.0
  0
MTEXT
  5
19ADA
330
1636C
100
AcDbEntity
  8
寸法
 62
     7
 48
50.0
100
AcDbMText
 10
10565.0515562688
 20
9422.279608877078
 30
0.0
 40
120.0
 41
0.0
 71
     5
 72
     1
  1
\A1;450
  7
STYLE1
 11
0.0000000000000001
 21
1.0
 31
0.0
 73
     1
 44
1.0
1001
ACAD
1000
MTEXTBEGIN
1070
    73
1070
     1
1070
    44
1040
1.0
1070
    74
1070
     0
1000
MTEXTEND
  0
POINT
  5
19ADB
330
1636C
100
AcDbEntity
  8
DEFPOINTS
 62
     0
 48
50.0
100
AcDbPoint
 10
10309.69383040678
 20
9742.497424545964
 30
0.0
  0
POINT
  5
19ADC
330
1636C
100
AcDbEntity
  8
DEFPOINTS
 62
     0
 48
50.0
100
AcDbPoint
 10
10309.69383040678
 20
9292.497424545967
 30
0.0
  0
POINT
  5
19ADD
330
1636C
100
AcDbEntity
  8
DEFPOINTS
 62
     0
 48
50.0
100
AcDbPoint
 10
10665.0515562688
 20
9197.279608877078
 30
0.0
  0
ENDBLK
  5
16631
330
1636C
100
AcDbEntity
  8
0
 48
50.0
100
AcDbBlockEnd
  0
BLOCK
  5
171E3
330
16384
100
AcDbEntity
  8
0
 48
50.0
100
AcDbBlockBegin
  2
*D6
 70
     1
 10
0.0
 20
0.0
 30
0.0
  3
*D6
  1

  0
LINE
  5
19AC4
330
16384
100
AcDbEntity
  8
寸法
 62
     0
 48
50.0
370
    -2
100
AcDbLine
 10
7391.193830406776
 20
7148.497424545865
 30
0.0
 11
7391.193830406776
 21
6548.0666537797
 31
0.0
  0
LINE
  5
19AC5
330
16384
100
AcDbEntity
  8
寸法
 62
     0
 48
50.0
370
    -2
100
AcDbLine
 10
10235.19383040675
 20
6608.0666537797
 30
0.0
 11
7391.193830406776
 21
6608.0666537797
 31
0.0
  0
INSERT
  5
19AC6
330
16384
100
AcDbEntity
  8
寸法
 62
     0
 48
50.0
370
    -2
100
AcDbBlockReference
  2
_DOTSMALL
 10
10235.19383040675
 20
6608.0666537797
 30
0.0
 41
100.0
 42
100.0
 43
100.0
  0
INSERT
  5
19AC7
330
16384
100
AcDbEntity
  8
寸法
 62
     0
 48
50.0
370
    -2
100
AcDbBlockReference
  2
_DOTSMALL
 10
7391.193830406776
 20
6608.0666537797
 30
0.0
 41
100.0
 42
100.0
 43
100.0
 50
180.0
  0
MTEXT
  5
19AC8
330
16384
100
AcDbEntity
  8
寸法
 62
     7
 48
50.0
100
AcDbMText
 10
8813.193830406765
 20
6708.078464803323
 30
0.0
 40
120.0
 41
0.0
 71
     5
 72
     1
  1
\A1;有効開口部間口 2844
  7
STYLE1
 73
     1
 44
1.0
1001
ACAD
1000
MTEXTBEGIN
1070
    73
1070
     1
1070
    44
1040
1.0
1070
    74
1070
     0
1000
MTEXTEND
  0
POINT
  5
19AC9
330
16384
100
AcDbEntity
  8
DEFPOINTS
 62
     0
 48
50.0
100
AcDbPoint
 10
10235.19383040675
 20
7168.497424545865
 30
0.0
  0
POINT
  5
19ACA
330
16384
100
AcDbEntity
  8
DEFPOINTS
 62
     0
 48
50.0
100
AcDbPoint
 10
7391.193830406776
 20
7168.497424545865
 30
0.0
  0
POINT
  5
19ACB
330
16384
100
AcDbEntity
  8
DEFPOINTS
 62
     0
 48
50.0
100
AcDbPoint
 10
7391.193830406776
 20
6608.0666537797
 30
0.0
  0
ENDBLK
  5
171EC
330
16384
100
AcDbEntity
  8
0
 48
50.0
100
AcDbBlockEnd
  0
BLOCK
  5
17DAC
330
1638F
100
AcDbEntity
  8
0
 48
50.0
100
AcDbBlockBegin
  2
*D7
 70
     1
 10
0.0
 20
0.0
 30
0.0
  3
*D7
  1

  0
LINE
  5
19ABB
330
1638F
100
AcDbEntity
  8
寸法
 62
     0
 48
50.0
370
    -2
100
AcDbLine
 10
1188.193830406775
 20
7122.497424545861
 30
0.0
 11
1188.193830406775
 21
6101.893658188827
 31
0.0
  0
LINE
  5
19ABC
330
1638F
100
AcDbEntity
  8
寸法
 62
     0
 48
50.0
370
    -2
100
AcDbLine
 10
10338.19383040674
 20
7122.497424545956
 30
0.0
 11
10338.19383040674
 21
6101.893658188827
 31
0.0
  0
LINE
  5
19ABD
330
1638F
100
AcDbEntity
  8
寸法
 62
     0
 48
50.0
370
    -2
100
AcDbLine
 10
1188.193830406775
 20
6161.893658188827
 30
0.0
 11
10338.19383040674
 21
6161.893658188827
 31
0.0
  0
INSERT
  5
19ABE
330
1638F
100
AcDbEntity
  8
寸法
 62
     0
 48
50.0
370
    -2
100
AcDbBlockReference
  2
_DOTSMALL
 10
1188.193830406775
 20
6161.893658188827
 30
0.0
 41
100.0
 42
100.0
 43
100.0
 50
180.0
  0
INSERT
  5
19ABF
330
1638F
100
AcDbEntity
  8
寸法
 62
     0
 48
50.0
370
    -2
100
AcDbBlockReference
  2
_DOTSMALL
 10
10338.19383040674
 20
6161.893658188827
 30
0.0
 41
100.0
 42
100.0
 43
100.0
  0
MTEXT
  5
19AC0
330
1638F
100
AcDbEntity
  8
寸法
 62
     7
 48
50.0
100
AcDbMText
 10
5763.193830406761
 20
6261.893658188826
 30
0.0
 40
120.0
 41
0.0
 71
     5
 72
     1
  1
\A1;N X 3050
  7
STYLE1
 73
     1
 44
1.0
1001
ACAD
1000
MTEXTBEGIN
1070
    73
1070
     1
1070
    44
1040
1.0
1070
    74
1070
     0
1000
MTEXTEND
  0
POINT
  5
19AC1
330
1638F
100
AcDbEntity
  8
DEFPOINTS
 62
     0
 48
50.0
100
AcDbPoint
 10
1188.193830406775
 20
7142.497424545862
 30
0.0
  0
POINT
  5
19AC2
330
1638F
100
AcDbEntity
  8
DEFPOINTS
 62
     0
 48
50.0
100
AcDbPoint
 10
10338.19383040674
 20
7142.497424545957
 30
0.0
  0
POINT
  5
19AC3
330
1638F
100
AcDbEntity
  8
DEFPOINTS
 62
     0
 48
50.0
100
AcDbPoint
 10
10338.19383040674
 20
6161.893658188827
 30
0.0
  0
ENDBLK
  5
17DB6
330
1638F
100
AcDbEntity
  8
0
 48
50.0
100
AcDbBlockEnd
  0
BLOCK
  5
16464
330
1639B
100
AcDbEntity
  8
0
 48
50.0
100
AcDbBlockBegin
  2
*D8
 70
     1
 10
0.0
 20
0.0
 30
0.0
  3
*D8
  1

  0
LINE
  5
19AB0
330
1639B
100
AcDbEntity
  8
寸法
 62
     0
 48
50.0
370
    -2
100
AcDbLine
 10
1243.193830406772
 20
7122.497424545866
 30
0.0
 11
1243.193830406772
 21
6548.0666537797
 31
0.0
  0
LINE
  5
19AB1
330
1639B
100
AcDbEntity
  8
寸法
 62
     0
 48
50.0
370
    -2
100
AcDbLine
 10
1188.193830406775
 20
7122.497424545861
 30
0.0
 11
1188.193830406775
 21
6548.0666537797
 31
0.0
  0
LINE
  5
19AB2
330
1639B
100
AcDbEntity
  8
寸法
 62
     0
 48
50.0
370
    -2
100
AcDbLine
 10
1243.193830406772
 20
6608.0666537797
 30
0.0
 11
1343.193830406772
 21
6608.0666537797
 31
0.0
  0
LINE
  5
19AB3
330
1639B
100
AcDbEntity
  8
寸法
 62
     0
 48
50.0
370
    -2
100
AcDbLine
 10
1188.193830406775
 20
6608.0666537797
 30
0.0
 11
771.2232676582981
 21
6608.0666537797
 31
0.0
  0
LINE
  5
19AB4
330
1639B
100
AcDbEntity
  8
寸法
 62
     0
 48
50.0
370
    -2
100
AcDbLine
 10
1243.193830406772
 20
6608.0666537797
 30
0.0
 11
1188.193830406775
 21
6608.0666537797
 31
0.0
  0
INSERT
  5
19AB5
330
1639B
100
AcDbEntity
  8
寸法
 62
     0
 48
50.0
370
    -2
100
AcDbBlockReference
  2
_DOTSMALL
 10
1243.193830406772
 20
6608.0666537797
 30
0.0
 41
100.0
 42
100.0
 43
100.0
 50
180.0
  0
INSERT
  5
19AB6
330
1639B
100
AcDbEntity
  8
寸法
 62
     0
 48
50.0
370
    -2
100
AcDbBlockReference
  2
_DOTSMALL
 10
1188.193830406775
 20
6608.0666537797
 30
0.0
 41
100.0
 42
100.0
 43
100.0
  0
MTEXT
  5
19AB7
330
1639B
100
AcDbEntity
  8
寸法
 62
     7
 48
50.0
100
AcDbMText
 10
879.7085490325367
 20
6708.0666537797
 30
0.0
 40
120.0
 41
0.0
 71
     5
 72
     1
  1
\A1;55
  7
STYLE1
 73
     1
 44
1.0
1001
ACAD
1000
MTEXTBEGIN
1070
    73
1070
     1
1070
    44
1040
1.0
1070
    74
1070
     0
1000
MTEXTEND
  0
POINT
  5
19AB8
330
1639B
100
AcDbEntity
  8
DEFPOINTS
 62
     0
 48
50.0
100
AcDbPoint
 10
1243.193830406772
 20
7142.497424545865
 30
0.0
  0
POINT
  5
19AB9
330
1639B
100
AcDbEntity
  8
DEFPOINTS
 62
     0
 48
50.0
100
AcDbPoint
 10
1188.193830406775
 20
7142.497424545862
 30
0.0
  0
POINT
  5
19ABA
330
1639B
100
AcDbEntity
  8
DEFPOINTS
 62
     0
 48
50.0
100
AcDbPoint
 10
1188.193830406775
 20
6608.0666537797
 30
0.0
  0
ENDBLK
  5
16470
330
1639B
100
AcDbEntity
  8
0
 48
50.0
100
AcDbBlockEnd
  0
BLOCK
  5
16471
330
163A9
100
AcDbEntity
  8
0
 48
50.0
100
AcDbBlockBegin
  2
*D9
 70
     1
 10
0.0
 20
0.0
 30
0.0
  3
*D9
  1

  0
LINE
  5
19AA5
330
163A9
100
AcDbEntity
  8
寸法
 62
     0
 48
50.0
370
    -2
100
AcDbLine
 10
7391.193830406776
 20
7148.497424545865
 30
0.0
 11
7391.193830406776
 21
6548.0666537797
 31
0.0
  0
LINE
  5
19AA6
330
163A9
100
AcDbEntity
  8
寸法
 62
     0
 48
50.0
370
    -2
100
AcDbLine
 10
7343.193830406772
 20
7122.497424545866
 30
0.0
 11
7343.193830406772
 21
6548.0666537797
 31
0.0
  0
LINE
  5
19AA7
330
163A9
100
AcDbEntity
  8
寸法
 62
     0
 48
50.0
370
    -2
100
AcDbLine
 10
7391.193830406776
 20
6608.0666537797
 30
0.0
 11
7491.193830406776
 21
6608.0666537797
 31
0.0
  0
LINE
  5
19AA8
330
163A9
100
AcDbEntity
  8
寸法
 62
     0
 48
50.0
370
    -2
100
AcDbLine
 10
7343.193830406772
 20
6608.0666537797
 30
0.0
 11
7243.193830406771
 21
6608.0666537797
 31
0.0
  0
MTEXT
  5
19AA9
330
163A9
100
AcDbEntity
  8
寸法
 62
     7
 48
50.0
100
AcDbMText
 10
7504.095801406832
 20
6708.0666537797
 30
0.0
 40
120.0
 41
0.0
 71
     5
 72
     1
  1
\A1;48
  7
STYLE1
 73
     1
 44
1.0
1001
ACAD
1000
MTEXTBEGIN
1070
    73
1070
     1
1070
    44
1040
1.0
1070
    74
1070
     0
1000
MTEXTEND
  0
LINE
  5
19AAA
330
163A9
100
AcDbEntity
  8
寸法
 62
     0
 48
50.0
370
    -2
100
AcDbLine
 10
7391.193830406776
 20
6608.0666537797
 30
0.0
 11
7343.193830406772
 21
6608.0666537797
 31
0.0
  0
INSERT
  5
19AAB
330
163A9
100
AcDbEntity
  8
寸法
 62
     0
 48
50.0
370
    -2
100
AcDbBlockReference
  2
_DOTSMALL
 10
7391.193830406776
 20
6608.0666537797
 30
0.0
 41
100.0
 42
100.0
 43
100.0
 50
180.0
  0
INSERT
  5
19AAC
330
163A9
100
AcDbEntity
  8
寸法
 62
     0
 48
50.0
370
    -2
100
AcDbBlockReference
  2
_DOTSMALL
 10
7343.193830406772
 20
6608.0666537797
 30
0.0
 41
100.0
 42
100.0
 43
100.0
  0
POINT
  5
19AAD
330
163A9
100
AcDbEntity
  8
DEFPOINTS
 62
     0
 48
50.0
100
AcDbPoint
 10
7391.193830406776
 20
7168.497424545865
 30
0.0
  0
POINT
  5
19AAE
330
163A9
100
AcDbEntity
  8
DEFPOINTS
 62
     0
 48
50.0
100
AcDbPoint
 10
7343.193830406772
 20
7142.497424545865
 30
0.0
  0
POINT
  5
19AAF
330
163A9
100
AcDbEntity
  8
DEFPOINTS
 62
     0
 48
50.0
100
AcDbPoint
 10
7343.193830406772
 20
6608.0666537797
 30
0.0
  0
ENDBLK
  5
1647E
330
163A9
100
AcDbEntity
  8
0
 48
50.0
100
AcDbBlockEnd
  0
BLOCK
  5
1647F
330
163B8
100
AcDbEntity
  8
0
 48
50.0
100
AcDbBlockBegin
  2
*D10
 70
     1
 10
0.0
 20
0.0
 30
0.0
  3
*D10
  1

  0
LINE
  5
19A9A
330
163B8
100
AcDbEntity
  8
寸法
 62
     0
 48
50.0
370
    -2
100
AcDbLine
 10
10283.19383040676
 20
7122.497424545952
 30
0.0
 11
10283.19383040676
 21
6548.0666537797
 31
0.0
  0
LINE
  5
19A9B
330
163B8
100
AcDbEntity
  8
寸法
 62
     0
 48
50.0
370
    -2
100
AcDbLine
 10
10235.19383040675
 20
7148.497424545865
 30
0.0
 11
10235.19383040675
 21
6548.0666537797
 31
0.0
  0
LINE
  5
19A9C
330
163B8
100
AcDbEntity
  8
寸法
 62
     0
 48
50.0
370
    -2
100
AcDbLine
 10
10283.19383040676
 20
6608.0666537797
 30
0.0
 11
10383.19383040676
 21
6608.0666537797
 31
0.0
  0
LINE
  5
19A9D
330
163B8
100
AcDbEntity
  8
寸法
 62
     0
 48
50.0
370
    -2
100
AcDbLine
 10
10235.19383040675
 20
6608.0666537797
 30
0.0
 11
10135.19383040675
 21
6608.0666537797
 31
0.0
  0
MTEXT
  5
19A9E
330
163B8
100
AcDbEntity
  8
寸法
 62
     7
 48
50.0
100
AcDbMText
 10
10124.23093275801
 20
6708.0666537797
 30
0.0
 40
120.0
 41
0.0
 71
     5
 72
     1
  1
\A1;48
  7
STYLE1
 73
     1
 44
1.0
1001
ACAD
1000
MTEXTBEGIN
1070
    73
1070
     1
1070
    44
1040
1.0
1070
    74
1070
     0
1000
MTEXTEND
  0
LINE
  5
19A9F
330
163B8
100
AcDbEntity
  8
寸法
 62
     0
 48
50.0
370
    -2
100
AcDbLine
 10
10283.19383040676
 20
6608.0666537797
 30
0.0
 11
10235.19383040675
 21
6608.0666537797
 31
0.0
  0
INSERT
  5
19AA0
330
163B8
100
AcDbEntity
  8
寸法
 62
     0
 48
50.0
370
    -2
100
AcDbBlockReference
  2
_DOTSMALL
 10
10283.19383040676
 20
6608.0666537797
 30
0.0
 41
100.0
 42
100.0
 43
100.0
 50
180.0
  0
INSERT
  5
19AA1
330
163B8
100
AcDbEntity
  8
寸法
 62
     0
 48
50.0
370
    -2
100
AcDbBlockReference
  2
_DOTSMALL
 10
10235.19383040675
 20
6608.0666537797
 30
0.0
 41
100.0
 42
100.0
 43
100.0
  0
POINT
  5
19AA2
330
163B8
100
AcDbEntity
  8
DEFPOINTS
 62
     0
 48
50.0
100
AcDbPoint
 10
10283.19383040676
 20
7142.497424545952
 30
0.0
  0
POINT
  5
19AA3
330
163B8
100
AcDbEntity
  8
DEFPOINTS
 62
     0
 48
50.0
100
AcDbPoint
 10
10235.19383040675
 20
7168.497424545865
 30
0.0
  0
POINT
  5
19AA4
330
163B8
100
AcDbEntity
  8
DEFPOINTS
 62
     0
 48
50.0
100
AcDbPoint
 10
10235.19383040675
 20
6608.0666537797
 30
0.0
  0
ENDBLK
  5
1648C
330
163B8
100
AcDbEntity
  8
0
 48
50.0
100
AcDbBlockEnd
  0
BLOCK
  5
1648D
330
163C7
100
AcDbEntity
  8
0
 48
50.0
100
AcDbBlockBegin
  2
*D11
 70
     1
 10
0.0
 20
0.0
 30
0.0
  3
*D11
  1

  0
LINE
  5
19A8F
330
163C7
100
AcDbEntity
  8
寸法
 62
     0
 48
50.0
370
    -2
100
AcDbLine
 10
10338.19383040675
 20
7122.497424545956
 30
0.0
 11
10338.19383040675
 21
6548.066653779702
 31
0.0
  0
LINE
  5
19A90
330
163C7
100
AcDbEntity
  8
寸法
 62
     0
 48
50.0
370
    -2
100
AcDbLine
 10
10283.19383040676
 20
7122.497424545952
 30
0.0
 11
10283.19383040676
 21
6548.066653779702
 31
0.0
  0
LINE
  5
19A91
330
163C7
100
AcDbEntity
  8
寸法
 62
     0
 48
50.0
370
    -2
100
AcDbLine
 10
10283.19383040676
 20
6608.066653779701
 30
0.0
 11
10183.19383040676
 21
6608.066653779701
 31
0.0
  0
LINE
  5
19A92
330
163C7
100
AcDbEntity
  8
寸法
 62
     0
 48
50.0
370
    -2
100
AcDbLine
 10
10338.19383040675
 20
6608.066653779701
 30
0.0
 11
10755.16439315523
 21
6608.066653779701
 31
0.0
  0
LINE
  5
19A93
330
163C7
100
AcDbEntity
  8
寸法
 62
     0
 48
50.0
370
    -2
100
AcDbLine
 10
10283.19383040676
 20
6608.066653779701
 30
0.0
 11
10338.19383040675
 21
6608.066653779701
 31
0.0
  0
INSERT
  5
19A94
330
163C7
100
AcDbEntity
  8
寸法
 62
     0
 48
50.0
370
    -2
100
AcDbBlockReference
  2
_DOTSMALL
 10
10283.19383040676
 20
6608.066653779701
 30
0.0
 41
100.0
 42
100.0
 43
100.0
  0
INSERT
  5
19A95
330
163C7
100
AcDbEntity
  8
寸法
 62
     0
 48
50.0
370
    -2
100
AcDbBlockReference
  2
_DOTSMALL
 10
10338.19383040675
 20
6608.066653779701
 30
0.0
 41
100.0
 42
100.0
 43
100.0
 50
180.0
  0
MTEXT
  5
19A96
330
163C7
100
AcDbEntity
  8
寸法
 62
     7
 48
50.0
100
AcDbMText
 10
10646.67911178099
 20
6708.066653779702
 30
0.0
 40
120.0
 41
0.0
 71
     5
 72
     1
  1
\A1;55
  7
STYLE1
 73
     1
 44
1.0
1001
ACAD
1000
MTEXTBEGIN
1070
    73
1070
     1
1070
    44
1040
1.0
1070
    74
1070
     0
1000
MTEXTEND
  0
POINT
  5
19A97
330
163C7
100
AcDbEntity
  8
DEFPOINTS
 62
     0
 48
50.0
100
AcDbPoint
 10
10338.19383040675
 20
7142.497424545957
 30
0.0
  0
POINT
  5
19A98
330
163C7
100
AcDbEntity
  8
DEFPOINTS
 62
     0
 48
50.0
100
AcDbPoint
 10
10283.19383040676
 20
7142.497424545952
 30
0.0
  0
POINT
  5
19A99
330
163C7
100
AcDbEntity
  8
DEFPOINTS
 62
     0
 48
50.0
100
AcDbPoint
 10
10283.19383040676
 20
6608.066653779701
 30
0.0
  0
ENDBLK
  5
16499
330
163C7
100
AcDbEntity
  8
0
 48
50.0
100
AcDbBlockEnd
  0
BLOCK
  5
17431
330
163E1
100
AcDbEntity
  8
0
 48
50.0
100
AcDbBlockBegin
  2
*D12
 70
     1
 10
0.0
 20
0.0
 30
0.0
  3
*D12
  1

  0
LINE
  5
1A264
330
163E1
100
AcDbEntity
  8
寸法
 62
     0
 48
50.0
370
    -2
100
AcDbLine
 10
7343.193830406781
 20
9792.497424545869
 30
0.0
 11
7343.193830406781
 21
10248.30564417096
 31
0.0
  0
LINE
  5
1A265
330
163E1
100
AcDbEntity
  8
寸法
 62
     0
 48
50.0
370
    -2
100
AcDbLine
 10
10283.19383040678
 20
9792.497424545963
 30
0.0
 11
10283.19383040678
 21
10248.30564417096
 31
0.0
  0
LINE
  5
1A266
330
163E1
100
AcDbEntity
  8
寸法
 62
     0
 48
50.0
370
    -2
100
AcDbLine
 10
7343.193830406781
 20
10188.30564417096
 30
0.0
 11
10283.19383040678
 21
10188.30564417096
 31
0.0
  0
INSERT
  5
1A267
330
163E1
100
AcDbEntity
  8
寸法
 62
     0
 48
50.0
370
    -2
100
AcDbBlockReference
  2
_DOTSMALL
 10
7343.193830406781
 20
10188.30564417096
 30
0.0
 41
100.0
 42
100.0
 43
100.0
 50
180.0
  0
INSERT
  5
1A268
330
163E1
100
AcDbEntity
  8
寸法
 62
     0
 48
50.0
370
    -2
100
AcDbBlockReference
  2
_DOTSMALL
 10
10283.19383040678
 20
10188.30564417096
 30
0.0
 41
100.0
 42
100.0
 43
100.0
  0
MTEXT
  5
1A269
330
163E1
100
AcDbEntity
  8
寸法
 62
     7
 48
50.0
100
AcDbMText
 10
8813.193830406781
 20
10288.31745519459
 30
0.0
 40
120.0
 41
0.0
 71
     5
 72
     1
  1
\A1;7X420=2940
  7
STYLE1
 73
     1
 44
1.0
1001
ACAD
1000
MTEXTBEGIN
1070
    73
1070
     1
1070
    44
1040
1.0
1070
    74
1070
     0
1000
MTEXTEND
  0
POINT
  5
1A26A
330
163E1
100
AcDbEntity
  8
DEFPOINTS
 62
     0
 48
50.0
100
AcDbPoint
 10
7343.193830406781
 20
9772.49742454587
 30
0.0
  0
POINT
  5
1A26B
330
163E1
100
AcDbEntity
  8
DEFPOINTS
 62
     0
 48
50.0
100
AcDbPoint
 10
10283.19383040678
 20
9772.497424545964
 30
0.0
  0
POINT
  5
1A26C
330
163E1
100
AcDbEntity
  8
DEFPOINTS
 62
     0
 48
50.0
100
AcDbPoint
 10
10283.19383040678
 20
10188.30564417096
 30
0.0
  0
ENDBLK
  5
1743B
330
163E1
100
AcDbEntity
  8
0
 48
50.0
100
AcDbBlockEnd
  0
BLOCK
  5
164B0
330
163ED
100
AcDbEntity
  8
0
 48
50.0
100
AcDbBlockBegin
  2
*D13
 70
     1
 10
0.0
 20
0.0
 30
0.0
  3
*D13
  1

  0
LINE
  5
1A259
330
163ED
100
AcDbEntity
  8
寸法
 62
     0
 48
50.0
370
    -2
100
AcDbLine
 10
1188.193830406748
 20
9792.497424545869
 30
0.0
 11
1188.193830406748
 21
10248.30564417085
 31
0.0
  0
LINE
  5
1A25A
330
163ED
100
AcDbEntity
  8
寸法
 62
     0
 48
50.0
370
    -2
100
AcDbLine
 10
1243.193830406781
 20
9792.497424545869
 30
0.0
 11
1243.193830406781
 21
10248.30564417085
 31
0.0
  0
LINE
  5
1A25B
330
163ED
100
AcDbEntity
  8
寸法
 62
     0
 48
50.0
370
    -2
100
AcDbLine
 10
1243.193830406781
 20
10188.30564417085
 30
0.0
 11
1343.193830406781
 21
10188.30564417085
 31
0.0
  0
LINE
  5
1A25C
330
163ED
100
AcDbEntity
  8
寸法
 62
     0
 48
50.0
370
    -2
100
AcDbLine
 10
1188.193830406748
 20
10188.30564417085
 30
0.0
 11
771.2232676582694
 21
10188.30564417085
 31
0.0
  0
LINE
  5
1A25D
330
163ED
100
AcDbEntity
  8
寸法
 62
     0
 48
50.0
370
    -2
100
AcDbLine
 10
1243.193830406781
 20
10188.30564417085
 30
0.0
 11
1188.193830406748
 21
10188.30564417085
 31
0.0
  0
INSERT
  5
1A25E
330
163ED
100
AcDbEntity
  8
寸法
 62
     0
 48
50.0
370
    -2
100
AcDbBlockReference
  2
_DOTSMALL
 10
1243.193830406781
 20
10188.30564417085
 30
0.0
 41
100.0
 42
100.0
 43
100.0
 50
180.0
  0
INSERT
  5
1A25F
330
163ED
100
AcDbEntity
  8
寸法
 62
     0
 48
50.0
370
    -2
100
AcDbBlockReference
  2
_DOTSMALL
 10
1188.193830406748
 20
10188.30564417085
 30
0.0
 41
100.0
 42
100.0
 43
100.0
  0
MTEXT
  5
1A260
330
163ED
100
AcDbEntity
  8
寸法
 62
     7
 48
50.0
100
AcDbMText
 10
879.7085490325081
 20
10288.30564417085
 30
0.0
 40
120.0
 41
0.0
 71
     5
 72
     1
  1
\A1;55
  7
STYLE1
 73
     1
 44
1.0
1001
ACAD
1000
MTEXTBEGIN
1070
    73
1070
     1
1070
    44
1040
1.0
1070
    74
1070
     0
1000
MTEXTEND
  0
POINT
  5
1A261
330
163ED
100
AcDbEntity
  8
DEFPOINTS
 62
     0
 48
50.0
100
AcDbPoint
 10
1188.193830406748
 20
9772.49742454587
 30
0.0
  0
POINT
  5
1A262
330
163ED
100
AcDbEntity
  8
DEFPOINTS
 62
     0
 48
50.0
100
AcDbPoint
 10
1243.193830406781
 20
9772.49742454587
 30
0.0
  0
POINT
  5
1A263
330
163ED
100
AcDbEntity
  8
DEFPOINTS
 62
     0
 48
50.0
100
AcDbPoint
 10
1243.193830406781
 20
10188.30564417085
 30
0.0
  0
ENDBLK
  5
164BC
330
163ED
100
AcDbEntity
  8
0
 48
50.0
100
AcDbBlockEnd
  0
BLOCK
  5
164BD
330
163FB
100
AcDbEntity
  8
0
 48
50.0
100
AcDbBlockBegin
  2
*D14
 70
     1
 10
0.0
 20
0.0
 30
0.0
  3
*D14
  1

  0
LINE
  5
1A24E
330
163FB
100
AcDbEntity
  8
寸法
 62
     0
 48
50.0
370
    -2
100
AcDbLine
 10
10283.19383040678
 20
9792.497424545963
 30
0.0
 11
10283.19383040678
 21
10248.30564417095
 31
0.0
  0
LINE
  5
1A24F
330
163FB
100
AcDbEntity
  8
寸法
 62
     0
 48
50.0
370
    -2
100
AcDbLine
 10
10338.19383040678
 20
9792.497424545963
 30
0.0
 11
10338.19383040678
 21
10248.30564417095
 31
0.0
  0
LINE
  5
1A250
330
163FB
100
AcDbEntity
  8
寸法
 62
     0
 48
50.0
370
    -2
100
AcDbLine
 10
10283.19383040678
 20
10188.30564417095
 30
0.0
 11
10183.19383040678
 21
10188.30564417095
 31
0.0
  0
LINE
  5
1A251
330
163FB
100
AcDbEntity
  8
寸法
 62
     0
 48
50.0
370
    -2
100
AcDbLine
 10
10338.19383040678
 20
10188.30564417095
 30
0.0
 11
10755.16439315526
 21
10188.30564417095
 31
0.0
  0
LINE
  5
1A252
330
163FB
100
AcDbEntity
  8
寸法
 62
     0
 48
50.0
370
    -2
100
AcDbLine
 10
10283.19383040678
 20
10188.30564417095
 30
0.0
 11
10338.19383040678
 21
10188.30564417095
 31
0.0
  0
INSERT
  5
1A253
330
163FB
100
AcDbEntity
  8
寸法
 62
     0
 48
50.0
370
    -2
100
AcDbBlockReference
  2
_DOTSMALL
 10
10283.19383040678
 20
10188.30564417095
 30
0.0
 41
100.0
 42
100.0
 43
100.0
  0
INSERT
  5
1A254
330
163FB
100
AcDbEntity
  8
寸法
 62
     0
 48
50.0
370
    -2
100
AcDbBlockReference
  2
_DOTSMALL
 10
10338.19383040678
 20
10188.30564417095
 30
0.0
 41
100.0
 42
100.0
 43
100.0
 50
180.0
  0
MTEXT
  5
1A255
330
163FB
100
AcDbEntity
  8
寸法
 62
     7
 48
50.0
100
AcDbMText
 10
10646.67911178102
 20
10288.30564417095
 30
0.0
 40
120.0
 41
0.0
 71
     5
 72
     1
  1
\A1;55
  7
STYLE1
 73
     1
 44
1.0
1001
ACAD
1000
MTEXTBEGIN
1070
    73
1070
     1
1070
    44
1040
1.0
1070
    74
1070
     0
1000
MTEXTEND
  0
POINT
  5
1A256
330
163FB
100
AcDbEntity
  8
DEFPOINTS
 62
     0
 48
50.0
100
AcDbPoint
 10
10283.19383040678
 20
9772.497424545964
 30
0.0
  0
POINT
  5
1A257
330
163FB
100
AcDbEntity
  8
DEFPOINTS
 62
     0
 48
50.0
100
AcDbPoint
 10
10338.19383040678
 20
9772.497424545964
 30
0.0
  0
POINT
  5
1A258
330
163FB
100
AcDbEntity
  8
DEFPOINTS
 62
     0
 48
50.0
100
AcDbPoint
 10
10338.19383040678
 20
10188.30564417095
 30
0.0
  0
ENDBLK
  5
164C9
330
163FB
100
AcDbEntity
  8
0
 48
50.0
100
AcDbBlockEnd
  0
BLOCK
  5
165B6
330
165B5
100
AcDbEntity
  8
0
 48
50.0
100
AcDbBlockBegin
  2
*D15
 70
     1
 10
0.0
 20
0.0
 30
0.0
  3
*D15
  1

  0
LINE
  5
19A51
330
165B5
100
AcDbEntity
  8
寸法
 62
     0
 48
50.0
370
    -2
100
AcDbLine
 10
1291.193830406775
 20
7148.497424545865
 30
0.0
 11
1291.193830406775
 21
6548.0666537797
 31
0.0
  0
LINE
  5
19A52
330
165B5
100
AcDbEntity
  8
寸法
 62
     0
 48
50.0
370
    -2
100
AcDbLine
 10
1243.193830406772
 20
7122.497424545866
 30
0.0
 11
1243.193830406772
 21
6548.0666537797
 31
0.0
  0
LINE
  5
19A53
330
165B5
100
AcDbEntity
  8
寸法
 62
     0
 48
50.0
370
    -2
100
AcDbLine
 10
1291.193830406775
 20
6608.0666537797
 30
0.0
 11
1391.193830406775
 21
6608.0666537797
 31
0.0
  0
LINE
  5
19A54
330
165B5
100
AcDbEntity
  8
寸法
 62
     0
 48
50.0
370
    -2
100
AcDbLine
 10
1243.193830406772
 20
6608.0666537797
 30
0.0
 11
1143.193830406771
 21
6608.0666537797
 31
0.0
  0
MTEXT
  5
19A55
330
165B5
100
AcDbEntity
  8
寸法
 62
     7
 48
50.0
100
AcDbMText
 10
1404.095801406833
 20
6708.0666537797
 30
0.0
 40
120.0
 41
0.0
 71
     5
 72
     1
  1
\A1;48
  7
STYLE1
 73
     1
 44
1.0
1001
ACAD
1000
MTEXTBEGIN
1070
    73
1070
     1
1070
    44
1040
1.0
1070
    74
1070
     0
1000
MTEXTEND
  0
LINE
  5
19A56
330
165B5
100
AcDbEntity
  8
寸法
 62
     0
 48
50.0
370
    -2
100
AcDbLine
 10
1291.193830406775
 20
6608.0666537797
 30
0.0
 11
1243.193830406772
 21
6608.0666537797
 31
0.0
  0
INSERT
  5
19A57
330
165B5
100
AcDbEntity
  8
寸法
 62
     0
 48
50.0
370
    -2
100
AcDbBlockReference
  2
_DOTSMALL
 10
1291.193830406775
 20
6608.0666537797
 30
0.0
 41
100.0
 42
100.0
 43
100.0
 50
180.0
  0
INSERT
  5
19A58
330
165B5
100
AcDbEntity
  8
寸法
 62
     0
 48
50.0
370
    -2
100
AcDbBlockReference
  2
_DOTSMALL
 10
1243.193830406772
 20
6608.0666537797
 30
0.0
 41
100.0
 42
100.0
 43
100.0
  0
POINT
  5
19A59
330
165B5
100
AcDbEntity
  8
DEFPOINTS
 62
     0
 48
50.0
100
AcDbPoint
 10
1291.193830406775
 20
7168.497424545865
 30
0.0
  0
POINT
  5
19A5A
330
165B5
100
AcDbEntity
  8
DEFPOINTS
 62
     0
 48
50.0
100
AcDbPoint
 10
1243.193830406772
 20
7142.497424545865
 30
0.0
  0
POINT
  5
19A5B
330
165B5
100
AcDbEntity
  8
DEFPOINTS
 62
     0
 48
50.0
100
AcDbPoint
 10
1243.193830406772
 20
6608.0666537797
 30
0.0
  0
ENDBLK
  5
165C3
330
165B5
100
AcDbEntity
  8
0
 48
50.0
100
AcDbBlockEnd
  0
BLOCK
  5
165C5
330
165C4
100
AcDbEntity
  8
0
 48
50.0
100
AcDbBlockBegin
  2
*D16
 70
     1
 10
0.0
 20
0.0
 30
0.0
  3
*D16
  1

  0
LINE
  5
19A5C
330
165C4
100
AcDbEntity
  8
寸法
 62
     0
 48
50.0
370
    -2
100
AcDbLine
 10
7233.193830406759
 20
7122.497424545952
 30
0.0
 11
7233.193830406759
 21
6548.0666537797
 31
0.0
  0
LINE
  5
19A5D
330
165C4
100
AcDbEntity
  8
寸法
 62
     0
 48
50.0
370
    -2
100
AcDbLine
 10
7185.193830406757
 20
7148.497424545865
 30
0.0
 11
7185.193830406757
 21
6548.0666537797
 31
0.0
  0
LINE
  5
19A5E
330
165C4
100
AcDbEntity
  8
寸法
 62
     0
 48
50.0
370
    -2
100
AcDbLine
 10
7233.193830406759
 20
6608.0666537797
 30
0.0
 11
7333.193830406759
 21
6608.0666537797
 31
0.0
  0
LINE
  5
19A5F
330
165C4
100
AcDbEntity
  8
寸法
 62
     0
 48
50.0
370
    -2
100
AcDbLine
 10
7185.193830406757
 20
6608.0666537797
 30
0.0
 11
7085.193830406757
 21
6608.0666537797
 31
0.0
  0
MTEXT
  5
19A60
330
165C4
100
AcDbEntity
  8
寸法
 62
     7
 48
50.0
100
AcDbMText
 10
7074.23093275801
 20
6708.0666537797
 30
0.0
 40
120.0
 41
0.0
 71
     5
 72
     1
  1
\A1;48
  7
STYLE1
 73
     1
 44
1.0
1001
ACAD
1000
MTEXTBEGIN
1070
    73
1070
     1
1070
    44
1040
1.0
1070
    74
1070
     0
1000
MTEXTEND
  0
LINE
  5
19A61
330
165C4
100
AcDbEntity
  8
寸法
 62
     0
 48
50.0
370
    -2
100
AcDbLine
 10
7233.193830406759
 20
6608.0666537797
 30
0.0
 11
7185.193830406757
 21
6608.0666537797
 31
0.0
  0
INSERT
  5
19A62
330
165C4
100
AcDbEntity
  8
寸法
 62
     0
 48
50.0
370
    -2
100
AcDbBlockReference
  2
_DOTSMALL
 10
7233.193830406759
 20
6608.0666537797
 30
0.0
 41
100.0
 42
100.0
 43
100.0
 50
180.0
  0
INSERT
  5
19A63
330
165C4
100
AcDbEntity
  8
寸法
 62
     0
 48
50.0
370
    -2
100
AcDbBlockReference
  2
_DOTSMALL
 10
7185.193830406757
 20
6608.0666537797
 30
0.0
 41
100.0
 42
100.0
 43
100.0
  0
POINT
  5
19A64
330
165C4
100
AcDbEntity
  8
DEFPOINTS
 62
     0
 48
50.0
100
AcDbPoint
 10
7233.193830406759
 20
7142.497424545952
 30
0.0
  0
POINT
  5
19A65
330
165C4
100
AcDbEntity
  8
DEFPOINTS
 62
     0
 48
50.0
100
AcDbPoint
 10
7185.193830406757
 20
7168.497424545865
 30
0.0
  0
POINT
  5
19A66
330
165C4
100
AcDbEntity
  8
DEFPOINTS
 62
     0
 48
50.0
100
AcDbPoint
 10
7185.193830406757
 20
6608.0666537797
 30
0.0
  0
ENDBLK
  5
165D2
330
165C4
100
AcDbEntity
  8
0
 48
50.0
100
AcDbBlockEnd
  0
BLOCK
  5
1663F
330
165EA
100
AcDbEntity
  8
0
 48
50.0
100
AcDbBlockBegin
  2
*D17
 70
     1
 10
0.0
 20
0.0
 30
0.0
  3
*D17
  1

  0
LINE
  5
19A48
330
165EA
100
AcDbEntity
  8
寸法
 62
     0
 48
50.0
370
    -2
100
AcDbLine
 10
7343.193830406772
 20
7122.497424545866
 30
0.0
 11
7343.193830406772
 21
6548.066653779702
 31
0.0
  0
LINE
  5
19A49
330
165EA
100
AcDbEntity
  8
寸法
 62
     0
 48
50.0
370
    -2
100
AcDbLine
 10
7233.193830406759
 20
7122.497424545952
 30
0.0
 11
7233.193830406759
 21
6548.066653779702
 31
0.0
  0
LINE
  5
19A4A
330
165EA
100
AcDbEntity
  8
寸法
 62
     0
 48
50.0
370
    -2
100
AcDbLine
 10
7343.193830406772
 20
6608.066653779701
 30
0.0
 11
7233.193830406759
 21
6608.066653779701
 31
0.0
  0
MTEXT
  5
19A4B
330
165EA
100
AcDbEntity
  8
寸法
 62
     7
 48
50.0
100
AcDbMText
 10
7288.193830406766
 20
6456.37475874347
 30
0.0
 40
120.0
 41
0.0
 71
     5
 72
     1
  1
\A1;110
  7
STYLE1
 73
     1
 44
1.0
1001
ACAD
1000
MTEXTBEGIN
1070
    73
1070
     1
1070
    44
1040
1.0
1070
    74
1070
     0
1000
MTEXTEND
  0
INSERT
  5
19A4C
330
165EA
100
AcDbEntity
  8
寸法
 62
     0
 48
50.0
370
    -2
100
AcDbBlockReference
  2
_DOTSMALL
 10
7343.193830406772
 20
6608.066653779701
 30
0.0
 41
100.0
 42
100.0
 43
100.0
  0
INSERT
  5
19A4D
330
165EA
100
AcDbEntity
  8
寸法
 62
     0
 48
50.0
370
    -2
100
AcDbBlockReference
  2
_DOTSMALL
 10
7233.193830406759
 20
6608.066653779701
 30
0.0
 41
100.0
 42
100.0
 43
100.0
 50
180.0
  0
POINT
  5
19A4E
330
165EA
100
AcDbEntity
  8
DEFPOINTS
 62
     0
 48
50.0
100
AcDbPoint
 10
7343.193830406772
 20
7142.497424545865
 30
0.0
  0
POINT
  5
19A4F
330
165EA
100
AcDbEntity
  8
DEFPOINTS
 62
     0
 48
50.0
100
AcDbPoint
 10
7233.193830406759
 20
7142.497424545952
 30
0.0
  0
POINT
  5
19A50
330
165EA
100
AcDbEntity
  8
DEFPOINTS
 62
     0
 48
50.0
100
AcDbPoint
 10
7233.193830406759
 20
6608.066653779701
 30
0.0
  0
ENDBLK
  5
16649
330
165EA
100
AcDbEntity
  8
0
 48
50.0
100
AcDbBlockEnd
  0
BLOCK
  5
166D0
330
166CF
100
AcDbEntity
  8
0
 48
50.0
100
AcDbBlockBegin
  2
*D18
 70
     1
 10
0.0
 20
0.0
 30
0.0
  3
*D18
  1

  0
LINE
  5
1A243
330
166CF
100
AcDbEntity
  8
寸法
 62
     0
 48
50.0
370
    -2
100
AcDbLine
 10
7343.193830406781
 20
9792.497424545919
 30
0.0
 11
7343.193830406781
 21
10248.30564417096
 31
0.0
  0
LINE
  5
1A244
330
166CF
100
AcDbEntity
  8
寸法
 62
     0
 48
50.0
370
    -2
100
AcDbLine
 10
7233.193830406783
 20
9792.497424545913
 30
0.0
 11
7233.193830406783
 21
10248.30564417096
 31
0.0
  0
LINE
  5
1A245
330
166CF
100
AcDbEntity
  8
寸法
 62
     0
 48
50.0
370
    -2
100
AcDbLine
 10
7343.193830406781
 20
10188.30564417096
 30
0.0
 11
7443.193830406781
 21
10188.30564417096
 31
0.0
  0
LINE
  5
1A246
330
166CF
100
AcDbEntity
  8
寸法
 62
     0
 48
50.0
370
    -2
100
AcDbLine
 10
7233.193830406783
 20
10188.30564417096
 30
0.0
 11
7133.193830406783
 21
10188.30564417096
 31
0.0
  0
LINE
  5
1A247
330
166CF
100
AcDbEntity
  8
寸法
 62
     0
 48
50.0
370
    -2
100
AcDbLine
 10
7343.193830406781
 20
10188.30564417096
 30
0.0
 11
7233.193830406783
 21
10188.30564417096
 31
0.0
  0
INSERT
  5
1A248
330
166CF
100
AcDbEntity
  8
寸法
 62
     0
 48
50.0
370
    -2
100
AcDbBlockReference
  2
_DOTSMALL
 10
7343.193830406781
 20
10188.30564417096
 30
0.0
 41
100.0
 42
100.0
 43
100.0
 50
180.0
  0
INSERT
  5
1A249
330
166CF
100
AcDbEntity
  8
寸法
 62
     0
 48
50.0
370
    -2
100
AcDbBlockReference
  2
_DOTSMALL
 10
7233.193830406783
 20
10188.30564417096
 30
0.0
 41
100.0
 42
100.0
 43
100.0
  0
MTEXT
  5
1A24A
330
166CF
100
AcDbEntity
  8
寸法
 62
     7
 48
50.0
100
AcDbMText
 10
7288.193830406782
 20
10288.30564417096
 30
0.0
 40
120.0
 41
0.0
 71
     5
 72
     1
  1
\A1;110
  7
STYLE1
 73
     1
 44
1.0
1001
ACAD
1000
MTEXTBEGIN
1070
    73
1070
     1
1070
    44
1040
1.0
1070
    74
1070
     0
1000
MTEXTEND
  0
POINT
  5
1A24B
330
166CF
100
AcDbEntity
  8
DEFPOINTS
 62
     0
 48
50.0
100
AcDbPoint
 10
7343.193830406781
 20
9772.497424545917
 30
0.0
  0
POINT
  5
1A24C
330
166CF
100
AcDbEntity
  8
DEFPOINTS
 62
     0
 48
50.0
100
AcDbPoint
 10
7233.193830406783
 20
9772.497424545916
 30
0.0
  0
POINT
  5
1A24D
330
166CF
100
AcDbEntity
  8
DEFPOINTS
 62
     0
 48
50.0
100
AcDbPoint
 10
7233.193830406783
 20
10188.30564417096
 30
0.0
  0
ENDBLK
  5
166DC
330
166CF
100
AcDbEntity
  8
0
 48
50.0
100
AcDbBlockEnd
  0
BLOCK
  5
17D9D
330
16908
100
AcDbEntity
  8
0
 48
50.0
100
AcDbBlockBegin
  2
*D19
 70
     1
 10
0.0
 20
0.0
 30
0.0
  3
*D19
  1

  0
LINE
  5
1A23A
330
16908
100
AcDbEntity
  8
寸法
 62
     0
 48
50.0
370
    -2
100
AcDbLine
 10
7288.193830406783
 20
10367.29355852891
 30
0.0
 11
7288.193830406783
 21
10497.62711772726
 31
0.0
  0
LINE
  5
1A23B
330
16908
100
AcDbEntity
  8
寸法
 62
     0
 48
50.0
370
    -2
100
AcDbLine
 10
10338.19383040678
 20
9792.497424545963
 30
0.0
 11
10338.19383040678
 21
10497.62711772726
 31
0.0
  0
LINE
  5
1A23C
330
16908
100
AcDbEntity
  8
寸法
 62
     0
 48
50.0
370
    -2
100
AcDbLine
 10
7288.193830406783
 20
10437.62711772726
 30
0.0
 11
10338.19383040678
 21
10437.62711772726
 31
0.0
  0
INSERT
  5
1A23D
330
16908
100
AcDbEntity
  8
寸法
 62
     0
 48
50.0
370
    -2
100
AcDbBlockReference
  2
_DOTSMALL
 10
7288.193830406783
 20
10437.62711772726
 30
0.0
 41
100.0
 42
100.0
 43
100.0
 50
180.0
  0
INSERT
  5
1A23E
330
16908
100
AcDbEntity
  8
寸法
 62
     0
 48
50.0
370
    -2
100
AcDbBlockReference
  2
_DOTSMALL
 10
10338.19383040678
 20
10437.62711772726
 30
0.0
 41
100.0
 42
100.0
 43
100.0
  0
MTEXT
  5
1A23F
330
16908
100
AcDbEntity
  8
寸法
 62
     7
 48
50.0
100
AcDbMText
 10
8813.193830406783
 20
10537.62711772726
 30
0.0
 40
120.0
 41
0.0
 71
     5
 72
     1
  1
\A1;3050
  7
STYLE1
 73
     1
 44
1.0
1001
ACAD
1000
MTEXTBEGIN
1070
    73
1070
     1
1070
    44
1040
1.0
1070
    74
1070
     0
1000
MTEXTEND
  0
POINT
  5
1A240
330
16908
100
AcDbEntity
  8
DEFPOINTS
 62
     0
 48
50.0
100
AcDbPoint
 10
7288.193830406783
 20
10347.29355852891
 30
0.0
  0
POINT
  5
1A241
330
16908
100
AcDbEntity
  8
DEFPOINTS
 62
     0
 48
50.0
100
AcDbPoint
 10
10338.19383040678
 20
9772.497424545964
 30
0.0
  0
POINT
  5
1A242
330
16908
100
AcDbEntity
  8
DEFPOINTS
 62
     0
 48
50.0
100
AcDbPoint
 10
10338.19383040678
 20
10437.62711772726
 30
0.0
  0
ENDBLK
  5
17DA7
330
16908
100
AcDbEntity
  8
0
 48
50.0
100
AcDbBlockEnd
  0
BLOCK
  5
17CB3
330
17CB2
100
AcDbEntity
  8
0
 48
50.0
100
AcDbBlockBegin
  2
*D20
 70
     1
 10
0.0
 20
0.0
 30
0.0
  3
*D20
  1

  0
LINE
  5
199F9
330
17CB2
100
AcDbEntity
  8
寸法
 62
     0
 48
50.0
370
    -2
100
AcDbLine
 10
4341.193830406775
 20
7148.497424545865
 30
0.0
 11
4341.193830406775
 21
6548.0666537797
 31
0.0
  0
LINE
  5
199FA
330
17CB2
100
AcDbEntity
  8
寸法
 62
     0
 48
50.0
370
    -2
100
AcDbLine
 10
4293.193830406772
 20
7122.497424545866
 30
0.0
 11
4293.193830406772
 21
6548.0666537797
 31
0.0
  0
LINE
  5
199FB
330
17CB2
100
AcDbEntity
  8
寸法
 62
     0
 48
50.0
370
    -2
100
AcDbLine
 10
4341.193830406775
 20
6608.0666537797
 30
0.0
 11
4441.193830406775
 21
6608.0666537797
 31
0.0
  0
LINE
  5
199FC
330
17CB2
100
AcDbEntity
  8
寸法
 62
     0
 48
50.0
370
    -2
100
AcDbLine
 10
4293.193830406772
 20
6608.0666537797
 30
0.0
 11
4193.193830406772
 21
6608.0666537797
 31
0.0
  0
MTEXT
  5
199FD
330
17CB2
100
AcDbEntity
  8
寸法
 62
     7
 48
50.0
100
AcDbMText
 10
4454.095801406833
 20
6708.0666537797
 30
0.0
 40
120.0
 41
0.0
 71
     5
 72
     1
  1
\A1;48
  7
STYLE1
 73
     1
 44
1.0
1001
ACAD
1000
MTEXTBEGIN
1070
    73
1070
     1
1070
    44
1040
1.0
1070
    74
1070
     0
1000
MTEXTEND
  0
LINE
  5
199FE
330
17CB2
100
AcDbEntity
  8
寸法
 62
     0
 48
50.0
370
    -2
100
AcDbLine
 10
4341.193830406775
 20
6608.0666537797
 30
0.0
 11
4293.193830406772
 21
6608.0666537797
 31
0.0
  0
INSERT
  5
199FF
330
17CB2
100
AcDbEntity
  8
寸法
 62
     0
 48
50.0
370
    -2
100
AcDbBlockReference
  2
_DOTSMALL
 10
4341.193830406775
 20
6608.0666537797
 30
0.0
 41
100.0
 42
100.0
 43
100.0
 50
180.0
  0
INSERT
  5
19A00
330
17CB2
100
AcDbEntity
  8
寸法
 62
     0
 48
50.0
370
    -2
100
AcDbBlockReference
  2
_DOTSMALL
 10
4293.193830406772
 20
6608.0666537797
 30
0.0
 41
100.0
 42
100.0
 43
100.0
  0
POINT
  5
19A01
330
17CB2
100
AcDbEntity
  8
DEFPOINTS
 62
     0
 48
50.0
100
AcDbPoint
 10
4341.193830406775
 20
7168.497424545865
 30
0.0
  0
POINT
  5
19A02
330
17CB2
100
AcDbEntity
  8
DEFPOINTS
 62
     0
 48
50.0
100
AcDbPoint
 10
4293.193830406772
 20
7142.497424545865
 30
0.0
  0
POINT
  5
19A03
330
17CB2
100
AcDbEntity
  8
DEFPOINTS
 62
     0
 48
50.0
100
AcDbPoint
 10
4293.193830406772
 20
6608.0666537797
 30
0.0
  0
ENDBLK
  5
17CC0
330
17CB2
100
AcDbEntity
  8
0
 48
50.0
100
AcDbBlockEnd
  0
BLOCK
  5
17CC2
330
17CC1
100
AcDbEntity
  8
0
 48
50.0
100
AcDbBlockBegin
  2
*D21
 70
     1
 10
0.0
 20
0.0
 30
0.0
  3
*D21
  1

  0
LINE
  5
19A04
330
17CC1
100
AcDbEntity
  8
寸法
 62
     0
 48
50.0
370
    -2
100
AcDbLine
 10
4183.193830406759
 20
7122.497424545952
 30
0.0
 11
4183.193830406759
 21
6548.0666537797
 31
0.0
  0
LINE
  5
19A05
330
17CC1
100
AcDbEntity
  8
寸法
 62
     0
 48
50.0
370
    -2
100
AcDbLine
 10
4135.193830406757
 20
7148.497424545865
 30
0.0
 11
4135.193830406757
 21
6548.0666537797
 31
0.0
  0
LINE
  5
19A06
330
17CC1
100
AcDbEntity
  8
寸法
 62
     0
 48
50.0
370
    -2
100
AcDbLine
 10
4183.193830406759
 20
6608.0666537797
 30
0.0
 11
4283.193830406759
 21
6608.0666537797
 31
0.0
  0
LINE
  5
19A07
330
17CC1
100
AcDbEntity
  8
寸法
 62
     0
 48
50.0
370
    -2
100
AcDbLine
 10
4135.193830406757
 20
6608.0666537797
 30
0.0
 11
4035.193830406757
 21
6608.0666537797
 31
0.0
  0
MTEXT
  5
19A08
330
17CC1
100
AcDbEntity
  8
寸法
 62
     7
 48
50.0
100
AcDbMText
 10
4024.230932758009
 20
6708.0666537797
 30
0.0
 40
120.0
 41
0.0
 71
     5
 72
     1
  1
\A1;48
  7
STYLE1
 73
     1
 44
1.0
1001
ACAD
1000
MTEXTBEGIN
1070
    73
1070
     1
1070
    44
1040
1.0
1070
    74
1070
     0
1000
MTEXTEND
  0
LINE
  5
19A09
330
17CC1
100
AcDbEntity
  8
寸法
 62
     0
 48
50.0
370
    -2
100
AcDbLine
 10
4183.193830406759
 20
6608.0666537797
 30
0.0
 11
4135.193830406757
 21
6608.0666537797
 31
0.0
  0
INSERT
  5
19A0A
330
17CC1
100
AcDbEntity
  8
寸法
 62
     0
 48
50.0
370
    -2
100
AcDbBlockReference
  2
_DOTSMALL
 10
4183.193830406759
 20
6608.0666537797
 30
0.0
 41
100.0
 42
100.0
 43
100.0
 50
180.0
  0
INSERT
  5
19A0B
330
17CC1
100
AcDbEntity
  8
寸法
 62
     0
 48
50.0
370
    -2
100
AcDbBlockReference
  2
_DOTSMALL
 10
4135.193830406757
 20
6608.0666537797
 30
0.0
 41
100.0
 42
100.0
 43
100.0
  0
POINT
  5
19A0C
330
17CC1
100
AcDbEntity
  8
DEFPOINTS
 62
     0
 48
50.0
100
AcDbPoint
 10
4183.193830406759
 20
7142.497424545952
 30
0.0
  0
POINT
  5
19A0D
330
17CC1
100
AcDbEntity
  8
DEFPOINTS
 62
     0
 48
50.0
100
AcDbPoint
 10
4135.193830406757
 20
7168.497424545865
 30
0.0
  0
POINT
  5
19A0E
330
17CC1
100
AcDbEntity
  8
DEFPOINTS
 62
     0
 48
50.0
100
AcDbPoint
 10
4135.193830406757
 20
6608.0666537797
 30
0.0
  0
ENDBLK
  5
17CCF
330
17CC1
100
AcDbEntity
  8
0
 48
50.0
100
AcDbBlockEnd
  0
BLOCK
  5
17CD1
330
17CD0
100
AcDbEntity
  8
0
 48
50.0
100
AcDbBlockBegin
  2
*D22
 70
     1
 10
0.0
 20
0.0
 30
0.0
  3
*D22
  1

  0
LINE
  5
19A0F
330
17CD0
100
AcDbEntity
  8
寸法
 62
     0
 48
50.0
370
    -2
100
AcDbLine
 10
1291.193830406775
 20
7148.497424545865
 30
0.0
 11
1291.193830406775
 21
6548.0666537797
 31
0.0
  0
LINE
  5
19A10
330
17CD0
100
AcDbEntity
  8
寸法
 62
     0
 48
50.0
370
    -2
100
AcDbLine
 10
4135.193830406757
 20
6608.0666537797
 30
0.0
 11
1291.193830406775
 21
6608.0666537797
 31
0.0
  0
INSERT
  5
19A11
330
17CD0
100
AcDbEntity
  8
寸法
 62
     0
 48
50.0
370
    -2
100
AcDbBlockReference
  2
_DOTSMALL
 10
4135.193830406757
 20
6608.0666537797
 30
0.0
 41
100.0
 42
100.0
 43
100.0
  0
INSERT
  5
19A12
330
17CD0
100
AcDbEntity
  8
寸法
 62
     0
 48
50.0
370
    -2
100
AcDbBlockReference
  2
_DOTSMALL
 10
1291.193830406775
 20
6608.0666537797
 30
0.0
 41
100.0
 42
100.0
 43
100.0
 50
180.0
  0
MTEXT
  5
19A13
330
17CD0
100
AcDbEntity
  8
寸法
 62
     7
 48
50.0
100
AcDbMText
 10
2713.193830406766
 20
6708.078464803323
 30
0.0
 40
120.0
 41
0.0
 71
     5
 72
     1
  1
\A1;有効開口部間口 2844
  7
STYLE1
 73
     1
 44
1.0
1001
ACAD
1000
MTEXTBEGIN
1070
    73
1070
     1
1070
    44
1040
1.0
1070
    74
1070
     0
1000
MTEXTEND
  0
POINT
  5
19A14
330
17CD0
100
AcDbEntity
  8
DEFPOINTS
 62
     0
 48
50.0
100
AcDbPoint
 10
4135.193830406757
 20
7168.497424545865
 30
0.0
  0
POINT
  5
19A15
330
17CD0
100
AcDbEntity
  8
DEFPOINTS
 62
     0
 48
50.0
100
AcDbPoint
 10
1291.193830406775
 20
7168.497424545865
 30
0.0
  0
POINT
  5
19A16
330
17CD0
100
AcDbEntity
  8
DEFPOINTS
 62
     0
 48
50.0
100
AcDbPoint
 10
1291.193830406775
 20
6608.0666537797
 30
0.0
  0
ENDBLK
  5
17CDA
330
17CD0
100
AcDbEntity
  8
0
 48
50.0
100
AcDbBlockEnd
  0
BLOCK
  5
17CDC
330
17CDB
100
AcDbEntity
  8
0
 48
50.0
100
AcDbBlockBegin
  2
*D23
 70
     1
 10
0.0
 20
0.0
 30
0.0
  3
*D23
  1

  0
LINE
  5
199F0
330
17CDB
100
AcDbEntity
  8
寸法
 62
     0
 48
50.0
370
    -2
100
AcDbLine
 10
4293.193830406772
 20
7122.497424545866
 30
0.0
 11
4293.193830406772
 21
6548.066653779702
 31
0.0
  0
LINE
  5
199F1
330
17CDB
100
AcDbEntity
  8
寸法
 62
     0
 48
50.0
370
    -2
100
AcDbLine
 10
4183.193830406759
 20
7122.497424545952
 30
0.0
 11
4183.193830406759
 21
6548.066653779702
 31
0.0
  0
LINE
  5
199F2
330
17CDB
100
AcDbEntity
  8
寸法
 62
     0
 48
50.0
370
    -2
100
AcDbLine
 10
4293.193830406772
 20
6608.066653779701
 30
0.0
 11
4183.193830406759
 21
6608.066653779701
 31
0.0
  0
MTEXT
  5
199F3
330
17CDB
100
AcDbEntity
  8
寸法
 62
     7
 48
50.0
100
AcDbMText
 10
4238.193830406766
 20
6456.37475874347
 30
0.0
 40
120.0
 41
0.0
 71
     5
 72
     1
  1
\A1;110
  7
STYLE1
 73
     1
 44
1.0
1001
ACAD
1000
MTEXTBEGIN
1070
    73
1070
     1
1070
    44
1040
1.0
1070
    74
1070
     0
1000
MTEXTEND
  0
INSERT
  5
199F4
330
17CDB
100
AcDbEntity
  8
寸法
 62
     0
 48
50.0
370
    -2
100
AcDbBlockReference
  2
_DOTSMALL
 10
4293.193830406772
 20
6608.066653779701
 30
0.0
 41
100.0
 42
100.0
 43
100.0
  0
INSERT
  5
199F5
330
17CDB
100
AcDbEntity
  8
寸法
 62
     0
 48
50.0
370
    -2
100
AcDbBlockReference
  2
_DOTSMALL
 10
4183.193830406759
 20
6608.066653779701
 30
0.0
 41
100.0
 42
100.0
 43
100.0
 50
180.0
  0
POINT
  5
199F6
330
17CDB
100
AcDbEntity
  8
DEFPOINTS
 62
     0
 48
50.0
100
AcDbPoint
 10
4293.193830406772
 20
7142.497424545865
 30
0.0
  0
POINT
  5
199F7
330
17CDB
100
AcDbEntity
  8
DEFPOINTS
 62
     0
 48
50.0
100
AcDbPoint
 10
4183.193830406759
 20
7142.497424545952
 30
0.0
  0
POINT
  5
199F8
330
17CDB
100
AcDbEntity
  8
DEFPOINTS
 62
     0
 48
50.0
100
AcDbPoint
 10
4183.193830406759
 20
6608.066653779701
 30
0.0
  0
ENDBLK
  5
17CE6
330
17CDB
100
AcDbEntity
  8
0
 48
50.0
100
AcDbBlockEnd
  0
BLOCK
  5
17CE8
330
17CE7
100
AcDbEntity
  8
0
 48
50.0
100
AcDbBlockBegin
  2
*D24
 70
     1
 10
0.0
 20
0.0
 30
0.0
  3
*D24
  1

  0
LINE
  5
1A231
330
17CE7
100
AcDbEntity
  8
寸法
 62
     0
 48
50.0
370
    -2
100
AcDbLine
 10
1243.193830406781
 20
9792.497424545869
 30
0.0
 11
1243.193830406781
 21
10248.30564417096
 31
0.0
  0
LINE
  5
1A232
330
17CE7
100
AcDbEntity
  8
寸法
 62
     0
 48
50.0
370
    -2
100
AcDbLine
 10
4183.193830406782
 20
9792.497424545963
 30
0.0
 11
4183.193830406782
 21
10248.30564417096
 31
0.0
  0
LINE
  5
1A233
330
17CE7
100
AcDbEntity
  8
寸法
 62
     0
 48
50.0
370
    -2
100
AcDbLine
 10
1243.193830406781
 20
10188.30564417096
 30
0.0
 11
4183.193830406782
 21
10188.30564417096
 31
0.0
  0
INSERT
  5
1A234
330
17CE7
100
AcDbEntity
  8
寸法
 62
     0
 48
50.0
370
    -2
100
AcDbBlockReference
  2
_DOTSMALL
 10
1243.193830406781
 20
10188.30564417096
 30
0.0
 41
100.0
 42
100.0
 43
100.0
 50
180.0
  0
INSERT
  5
1A235
330
17CE7
100
AcDbEntity
  8
寸法
 62
     0
 48
50.0
370
    -2
100
AcDbBlockReference
  2
_DOTSMALL
 10
4183.193830406782
 20
10188.30564417096
 30
0.0
 41
100.0
 42
100.0
 43
100.0
  0
MTEXT
  5
1A236
330
17CE7
100
AcDbEntity
  8
寸法
 62
     7
 48
50.0
100
AcDbMText
 10
2713.193830406782
 20
10288.31745519459
 30
0.0
 40
120.0
 41
0.0
 71
     5
 72
     1
  1
\A1;7X420=2940
  7
STYLE1
 73
     1
 44
1.0
1001
ACAD
1000
MTEXTBEGIN
1070
    73
1070
     1
1070
    44
1040
1.0
1070
    74
1070
     0
1000
MTEXTEND
  0
POINT
  5
1A237
330
17CE7
100
AcDbEntity
  8
DEFPOINTS
 62
     0
 48
50.0
100
AcDbPoint
 10
1243.193830406781
 20
9772.49742454587
 30
0.0
  0
POINT
  5
1A238
330
17CE7
100
AcDbEntity
  8
DEFPOINTS
 62
     0
 48
50.0
100
AcDbPoint
 10
4183.193830406782
 20
9772.497424545964
 30
0.0
  0
POINT
  5
1A239
330
17CE7
100
AcDbEntity
  8
DEFPOINTS
 62
     0
 48
50.0
100
AcDbPoint
 10
4183.193830406782
 20
10188.30564417096
 30
0.0
  0
ENDBLK
  5
17CF2
330
17CE7
100
AcDbEntity
  8
0
 48
50.0
100
AcDbBlockEnd
  0
BLOCK
  5
17CF4
330
17CF3
100
AcDbEntity
  8
0
 48
50.0
100
AcDbBlockBegin
  2
*D25
 70
     1
 10
0.0
 20
0.0
 30
0.0
  3
*D25
  1

  0
LINE
  5
1A21D
330
17CF3
100
AcDbEntity
  8
寸法
 62
     0
 48
50.0
370
    -2
100
AcDbLine
 10
4293.193830406781
 20
9792.497424545919
 30
0.0
 11
4293.193830406781
 21
10248.30564417096
 31
0.0
  0
LINE
  5
1A21E
330
17CF3
100
AcDbEntity
  8
寸法
 62
     0
 48
50.0
370
    -2
100
AcDbLine
 10
4183.193830406782
 20
9792.497424545913
 30
0.0
 11
4183.193830406782
 21
10248.30564417096
 31
0.0
  0
LINE
  5
1A21F
330
17CF3
100
AcDbEntity
  8
寸法
 62
     0
 48
50.0
370
    -2
100
AcDbLine
 10
4293.193830406781
 20
10188.30564417096
 30
0.0
 11
4393.19383040678
 21
10188.30564417096
 31
0.0
  0
LINE
  5
1A220
330
17CF3
100
AcDbEntity
  8
寸法
 62
     0
 48
50.0
370
    -2
100
AcDbLine
 10
4183.193830406782
 20
10188.30564417096
 30
0.0
 11
4083.193830406782
 21
10188.30564417096
 31
0.0
  0
LINE
  5
1A221
330
17CF3
100
AcDbEntity
  8
寸法
 62
     0
 48
50.0
370
    -2
100
AcDbLine
 10
4293.193830406781
 20
10188.30564417096
 30
0.0
 11
4183.193830406782
 21
10188.30564417096
 31
0.0
  0
INSERT
  5
1A222
330
17CF3
100
AcDbEntity
  8
寸法
 62
     0
 48
50.0
370
    -2
100
AcDbBlockReference
  2
_DOTSMALL
 10
4293.193830406781
 20
10188.30564417096
 30
0.0
 41
100.0
 42
100.0
 43
100.0
 50
180.0
  0
INSERT
  5
1A223
330
17CF3
100
AcDbEntity
  8
寸法
 62
     0
 48
50.0
370
    -2
100
AcDbBlockReference
  2
_DOTSMALL
 10
4183.193830406782
 20
10188.30564417096
 30
0.0
 41
100.0
 42
100.0
 43
100.0
  0
MTEXT
  5
1A224
330
17CF3
100
AcDbEntity
  8
寸法
 62
     7
 48
50.0
100
AcDbMText
 10
4238.193830406781
 20
10288.30564417096
 30
0.0
 40
120.0
 41
0.0
 71
     5
 72
     1
  1
\A1;110
  7
STYLE1
 73
     1
 44
1.0
1001
ACAD
1000
MTEXTBEGIN
1070
    73
1070
     1
1070
    44
1040
1.0
1070
    74
1070
     0
1000
MTEXTEND
  0
POINT
  5
1A225
330
17CF3
100
AcDbEntity
  8
DEFPOINTS
 62
     0
 48
50.0
100
AcDbPoint
 10
4293.193830406781
 20
9772.497424545917
 30
0.0
  0
POINT
  5
1A226
330
17CF3
100
AcDbEntity
  8
DEFPOINTS
 62
     0
 48
50.0
100
AcDbPoint
 10
4183.193830406782
 20
9772.497424545916
 30
0.0
  0
POINT
  5
1A227
330
17CF3
100
AcDbEntity
  8
DEFPOINTS
 62
     0
 48
50.0
100
AcDbPoint
 10
4183.193830406782
 20
10188.30564417096
 30
0.0
  0
ENDBLK
  5
17D00
330
17CF3
100
AcDbEntity
  8
0
 48
50.0
100
AcDbBlockEnd
  0
BLOCK
  5
17D02
330
17D01
100
AcDbEntity
  8
0
 48
50.0
100
AcDbBlockBegin
  2
*D26
 70
     1
 10
0.0
 20
0.0
 30
0.0
  3
*D26
  1

  0
LINE
  5
1A228
330
17D01
100
AcDbEntity
  8
寸法
 62
     0
 48
50.0
370
    -2
100
AcDbLine
 10
1188.193830406748
 20
9792.497424545835
 30
0.0
 11
1188.193830406748
 21
10497.62711772726
 31
0.0
  0
LINE
  5
1A229
330
17D01
100
AcDbEntity
  8
寸法
 62
     0
 48
50.0
370
    -2
100
AcDbLine
 10
4238.193830406782
 20
10367.29355852891
 30
0.0
 11
4238.193830406782
 21
10497.62711772726
 31
0.0
  0
LINE
  5
1A22A
330
17D01
100
AcDbEntity
  8
寸法
 62
     0
 48
50.0
370
    -2
100
AcDbLine
 10
1188.193830406748
 20
10437.62711772726
 30
0.0
 11
4238.193830406782
 21
10437.62711772726
 31
0.0
  0
INSERT
  5
1A22B
330
17D01
100
AcDbEntity
  8
寸法
 62
     0
 48
50.0
370
    -2
100
AcDbBlockReference
  2
_DOTSMALL
 10
1188.193830406748
 20
10437.62711772726
 30
0.0
 41
100.0
 42
100.0
 43
100.0
 50
180.0
  0
INSERT
  5
1A22C
330
17D01
100
AcDbEntity
  8
寸法
 62
     0
 48
50.0
370
    -2
100
AcDbBlockReference
  2
_DOTSMALL
 10
4238.193830406782
 20
10437.62711772726
 30
0.0
 41
100.0
 42
100.0
 43
100.0
  0
MTEXT
  5
1A22D
330
17D01
100
AcDbEntity
  8
寸法
 62
     7
 48
50.0
100
AcDbMText
 10
2713.193830406765
 20
10537.62711772726
 30
0.0
 40
120.0
 41
0.0
 71
     5
 72
     1
  1
\A1;3050
  7
STYLE1
 73
     1
 44
1.0
1001
ACAD
1000
MTEXTBEGIN
1070
    73
1070
     1
1070
    44
1040
1.0
1070
    74
1070
     0
1000
MTEXTEND
  0
POINT
  5
1A22E
330
17D01
100
AcDbEntity
  8
DEFPOINTS
 62
     0
 48
50.0
100
AcDbPoint
 10
1188.193830406748
 20
9772.497424545838
 30
0.0
  0
POINT
  5
1A22F
330
17D01
100
AcDbEntity
  8
DEFPOINTS
 62
     0
 48
50.0
100
AcDbPoint
 10
4238.193830406782
 20
10347.29355852891
 30
0.0
  0
POINT
  5
1A230
330
17D01
100
AcDbEntity
  8
DEFPOINTS
 62
     0
 48
50.0
100
AcDbPoint
 10
4238.193830406782
 20
10437.62711772726
 30
0.0
  0
ENDBLK
  5
17D0C
330
17D01
100
AcDbEntity
  8
0
 48
50.0
100
AcDbBlockEnd
  0
BLOCK
  5
19421
330
19415
100
AcDbEntity
  8
0
 48
50.0
100
AcDbBlockBegin
  2
*D27
 70
     1
 10
0.0
 20
0.0
 30
0.0
  3
*D27
  1

  0
LINE
  5
199E5
330
19415
100
AcDbEntity
  8
寸法
 62
     0
 48
50.0
370
    -2
100
AcDbLine
 10
10388.19383040681
 20
4932.931598713264
 30
0.0
 11
10388.19383040681
 21
5185.473183971505
 31
0.0
  0
LINE
  5
199E6
330
19415
100
AcDbEntity
  8
寸法
 62
     0
 48
50.0
370
    -2
100
AcDbLine
 10
10338.19383040681
 20
4932.931598713266
 30
0.0
 11
10338.19383040681
 21
5185.473183971505
 31
0.0
  0
LINE
  5
199E7
330
19415
100
AcDbEntity
  8
寸法
 62
     0
 48
50.0
370
    -2
100
AcDbLine
 10
10338.19383040681
 20
5125.473183971505
 30
0.0
 11
10238.19383040681
 21
5125.473183971505
 31
0.0
  0
LINE
  5
199E8
330
19415
100
AcDbEntity
  8
寸法
 62
     0
 48
50.0
370
    -2
100
AcDbLine
 10
10388.19383040681
 20
5125.473183971505
 30
0.0
 11
10807.72635587553
 21
5125.473183971505
 31
0.0
  0
LINE
  5
199E9
330
19415
100
AcDbEntity
  8
寸法
 62
     0
 48
50.0
370
    -2
100
AcDbLine
 10
10338.19383040681
 20
5125.473183971505
 30
0.0
 11
10388.19383040681
 21
5125.473183971505
 31
0.0
  0
INSERT
  5
199EA
330
19415
100
AcDbEntity
  8
寸法
 62
     0
 48
50.0
370
    -2
100
AcDbBlockReference
  2
_DOTSMALL
 10
10338.19383040681
 20
5125.473183971505
 30
0.0
 41
100.0
 42
100.0
 43
100.0
  0
INSERT
  5
199EB
330
19415
100
AcDbEntity
  8
寸法
 62
     0
 48
50.0
370
    -2
100
AcDbBlockReference
  2
_DOTSMALL
 10
10388.19383040681
 20
5125.473183971505
 30
0.0
 41
100.0
 42
100.0
 43
100.0
 50
180.0
  0
MTEXT
  5
199EC
330
19415
100
AcDbEntity
  8
寸法
 62
     7
 48
50.0
100
AcDbMText
 10
10701.67911178104
 20
5225.473183971505
 30
0.0
 40
120.0
 41
0.0
 71
     5
 72
     1
  1
\A1;50
  7
STYLE1
 73
     1
 44
1.0
1001
ACAD
1000
MTEXTBEGIN
1070
    73
1070
     1
1070
    44
1040
1.0
1070
    74
1070
     0
1000
MTEXTEND
  0
POINT
  5
199ED
330
19415
100
AcDbEntity
  8
DEFPOINTS
 62
     0
 48
50.0
100
AcDbPoint
 10
10388.19383040681
 20
4912.931598713264
 30
0.0
  0
POINT
  5
199EE
330
19415
100
AcDbEntity
  8
DEFPOINTS
 62
     0
 48
50.0
100
AcDbPoint
 10
10338.19383040681
 20
4912.931598713266
 30
0.0
  0
POINT
  5
199EF
330
19415
100
AcDbEntity
  8
DEFPOINTS
 62
     0
 48
50.0
100
AcDbPoint
 10
10338.19383040681
 20
5125.473183971505
 30
0.0
  0
ENDBLK
  5
19422
330
19415
100
AcDbEntity
  8
0
 48
50.0
100
AcDbBlockEnd
  0
BLOCK
  5
1942F
330
19423
100
AcDbEntity
  8
0
 48
50.0
100
AcDbBlockBegin
  2
*D28
 70
     1
 10
0.0
 20
0.0
 30
0.0
  3
*D28
  1

  0
LINE
  5
199DA
330
19423
100
AcDbEntity
  8
寸法
 62
     0
 48
50.0
370
    -2
100
AcDbLine
 10
1188.193830406766
 20
4932.931598713269
 30
0.0
 11
1188.193830406766
 21
5185.473183971506
 31
0.0
  0
LINE
  5
199DB
330
19423
100
AcDbEntity
  8
寸法
 62
     0
 48
50.0
370
    -2
100
AcDbLine
 10
1138.193830406766
 20
4932.931598713267
 30
0.0
 11
1138.193830406766
 21
5185.473183971506
 31
0.0
  0
LINE
  5
199DC
330
19423
100
AcDbEntity
  8
寸法
 62
     0
 48
50.0
370
    -2
100
AcDbLine
 10
1188.193830406766
 20
5125.473183971506
 30
0.0
 11
1288.193830406766
 21
5125.473183971506
 31
0.0
  0
LINE
  5
199DD
330
19423
100
AcDbEntity
  8
寸法
 62
     0
 48
50.0
370
    -2
100
AcDbLine
 10
1138.193830406766
 20
5125.473183971506
 30
0.0
 11
718.6613049380307
 21
5125.473183971506
 31
0.0
  0
LINE
  5
199DE
330
19423
100
AcDbEntity
  8
寸法
 62
     0
 48
50.0
370
    -2
100
AcDbLine
 10
1188.193830406766
 20
5125.473183971506
 30
0.0
 11
1138.193830406766
 21
5125.473183971506
 31
0.0
  0
INSERT
  5
199DF
330
19423
100
AcDbEntity
  8
寸法
 62
     0
 48
50.0
370
    -2
100
AcDbBlockReference
  2
_DOTSMALL
 10
1188.193830406766
 20
5125.473183971506
 30
0.0
 41
100.0
 42
100.0
 43
100.0
 50
180.0
  0
INSERT
  5
199E0
330
19423
100
AcDbEntity
  8
寸法
 62
     0
 48
50.0
370
    -2
100
AcDbBlockReference
  2
_DOTSMALL
 10
1138.193830406766
 20
5125.473183971506
 30
0.0
 41
100.0
 42
100.0
 43
100.0
  0
MTEXT
  5
199E1
330
19423
100
AcDbEntity
  8
寸法
 62
     7
 48
50.0
100
AcDbMText
 10
824.7085490325188
 20
5225.473183971506
 30
0.0
 40
120.0
 41
0.0
 71
     5
 72
     1
  1
\A1;50
  7
STYLE1
 73
     1
 44
1.0
1001
ACAD
1000
MTEXTBEGIN
1070
    73
1070
     1
1070
    44
1040
1.0
1070
    74
1070
     0
1000
MTEXTEND
  0
POINT
  5
199E2
330
19423
100
AcDbEntity
  8
DEFPOINTS
 62
     0
 48
50.0
100
AcDbPoint
 10
1188.193830406766
 20
4912.931598713268
 30
0.0
  0
POINT
  5
199E3
330
19423
100
AcDbEntity
  8
DEFPOINTS
 62
     0
 48
50.0
100
AcDbPoint
 10
1138.193830406766
 20
4912.931598713267
 30
0.0
  0
POINT
  5
199E4
330
19423
100
AcDbEntity
  8
DEFPOINTS
 62
     0
 48
50.0
100
AcDbPoint
 10
1138.193830406766
 20
5125.473183971506
 30
0.0
  0
ENDBLK
  5
19430
330
19423
100
AcDbEntity
  8
0
 48
50.0
100
AcDbBlockEnd
  0
BLOCK
  5
1943B
330
19431
100
AcDbEntity
  8
0
 48
50.0
100
AcDbBlockBegin
  2
*D29
 70
     1
 10
0.0
 20
0.0
 30
0.0
  3
*D29
  1

  0
LINE
  5
199D1
330
19431
100
AcDbEntity
  8
寸法
 62
     0
 48
50.0
370
    -2
100
AcDbLine
 10
10338.19383040676
 20
4945.852924535788
 30
0.0
 11
10338.19383040676
 21
5185.473183971506
 31
0.0
  0
LINE
  5
199D2
330
19431
100
AcDbEntity
  8
寸法
 62
     0
 48
50.0
370
    -2
100
AcDbLine
 10
1188.193830406766
 20
4945.852924544254
 30
0.0
 11
1188.193830406766
 21
5185.473183971506
 31
0.0
  0
LINE
  5
199D3
330
19431
100
AcDbEntity
  8
寸法
 62
     0
 48
50.0
370
    -2
100
AcDbLine
 10
10338.19383040676
 20
5125.473183971506
 30
0.0
 11
1188.193830406766
 21
5125.473183971506
 31
0.0
  0
INSERT
  5
199D4
330
19431
100
AcDbEntity
  8
寸法
 62
     0
 48
50.0
370
    -2
100
AcDbBlockReference
  2
_DOTSMALL
 10
10338.19383040676
 20
5125.473183971506
 30
0.0
 41
100.0
 42
100.0
 43
100.0
  0
INSERT
  5
199D5
330
19431
100
AcDbEntity
  8
寸法
 62
     0
 48
50.0
370
    -2
100
AcDbBlockReference
  2
_DOTSMALL
 10
1188.193830406766
 20
5125.473183971506
 30
0.0
 41
100.0
 42
100.0
 43
100.0
 50
180.0
  0
MTEXT
  5
199D6
330
19431
100
AcDbEntity
  8
寸法
 62
     7
 48
50.0
100
AcDbMText
 10
5763.193830406766
 20
5225.473183971506
 30
0.0
 40
120.0
 41
0.0
 71
     5
 72
     1
  1
\A1;柱外寸法 N X 3050
  7
STYLE1
 73
     1
 44
1.0
1001
ACAD
1000
MTEXTBEGIN
1070
    73
1070
     1
1070
    44
1040
1.0
1070
    74
1070
     0
1000
MTEXTEND
  0
POINT
  5
199D7
330
19431
100
AcDbEntity
  8
DEFPOINTS
 62
     0
 48
50.0
100
AcDbPoint
 10
10338.19383040676
 20
4925.852924535788
 30
0.0
  0
POINT
  5
199D8
330
19431
100
AcDbEntity
  8
DEFPOINTS
 62
     0
 48
50.0
100
AcDbPoint
 10
1188.193830406766
 20
4925.852924544255
 30
0.0
  0
POINT
  5
199D9
330
19431
100
AcDbEntity
  8
DEFPOINTS
 62
     0
 48
50.0
100
AcDbPoint
 10
1188.193830406766
 20
5125.473183971506
 30
0.0
  0
ENDBLK
  5
1943C
330
19431
100
AcDbEntity
  8
0
 48
50.0
100
AcDbBlockEnd
  0
BLOCK
  5
19447
330
1943D
100
AcDbEntity
  8
0
 48
50.0
100
AcDbBlockBegin
  2
*D30
 70
     1
 10
0.0
 20
0.0
 30
0.0
  3
*D30
  1

  0
LINE
  5
199C8
330
1943D
100
AcDbEntity
  8
寸法
 62
     0
 48
50.0
370
    -2
100
AcDbLine
 10
1138.193830406766
 20
4932.931598713267
 30
0.0
 11
1138.193830406766
 21
5406.378484445255
 31
0.0
  0
LINE
  5
199C9
330
1943D
100
AcDbEntity
  8
寸法
 62
     0
 48
50.0
370
    -2
100
AcDbLine
 10
10388.19383040681
 20
4932.931598713264
 30
0.0
 11
10388.19383040681
 21
5406.378484445255
 31
0.0
  0
LINE
  5
199CA
330
1943D
100
AcDbEntity
  8
寸法
 62
     0
 48
50.0
370
    -2
100
AcDbLine
 10
1138.193830406766
 20
5346.378484445256
 30
0.0
 11
10388.19383040681
 21
5346.378484445256
 31
0.0
  0
INSERT
  5
199CB
330
1943D
100
AcDbEntity
  8
寸法
 62
     0
 48
50.0
370
    -2
100
AcDbBlockReference
  2
_DOTSMALL
 10
1138.193830406766
 20
5346.378484445256
 30
0.0
 41
100.0
 42
100.0
 43
100.0
 50
180.0
  0
INSERT
  5
199CC
330
1943D
100
AcDbEntity
  8
寸法
 62
     0
 48
50.0
370
    -2
100
AcDbBlockReference
  2
_DOTSMALL
 10
10388.19383040681
 20
5346.378484445256
 30
0.0
 41
100.0
 42
100.0
 43
100.0
  0
MTEXT
  5
199CD
330
1943D
100
AcDbEntity
  8
寸法
 62
     7
 48
50.0
100
AcDbMText
 10
5763.193830406788
 20
5446.378484445256
 30
0.0
 40
120.0
 41
0.0
 71
     5
 72
     1
  1
\A1;N X 3050+100
  7
STYLE1
 73
     1
 44
1.0
1001
ACAD
1000
MTEXTBEGIN
1070
    73
1070
     1
1070
    44
1040
1.0
1070
    74
1070
     0
1000
MTEXTEND
  0
POINT
  5
199CE
330
1943D
100
AcDbEntity
  8
DEFPOINTS
 62
     0
 48
50.0
100
AcDbPoint
 10
1138.193830406766
 20
4912.931598713267
 30
0.0
  0
POINT
  5
199CF
330
1943D
100
AcDbEntity
  8
DEFPOINTS
 62
     0
 48
50.0
100
AcDbPoint
 10
10388.19383040681
 20
4912.931598713264
 30
0.0
  0
POINT
  5
199D0
330
1943D
100
AcDbEntity
  8
DEFPOINTS
 62
     0
 48
50.0
100
AcDbPoint
 10
10388.19383040681
 20
5346.378484445256
 30
0.0
  0
ENDBLK
  5
19448
330
1943D
100
AcDbEntity
  8
0
 48
50.0
100
AcDbBlockEnd
  0
BLOCK
  5
19453
330
19449
100
AcDbEntity
  8
0
 48
50.0
100
AcDbBlockBegin
  2
*D31
 70
     1
 10
0.0
 20
0.0
 30
0.0
  3
*D31
  1

  0
LINE
  5
199BF
330
19449
100
AcDbEntity
  8
寸法
 62
     0
 48
50.0
370
    -2
100
AcDbLine
 10
12662.02045091179
 20
2537.931598713255
 30
0.0
 11
11478.27032172853
 21
2537.931598713255
 31
0.0
  0
LINE
  5
199C0
330
19449
100
AcDbEntity
  8
寸法
 62
     0
 48
50.0
370
    -2
100
AcDbLine
 10
12602.02045091179
 20
4912.931598713261
 30
0.0
 11
11478.27032172853
 21
4912.931598713261
 31
0.0
  0
LINE
  5
199C1
330
19449
100
AcDbEntity
  8
寸法
 62
     0
 48
50.0
370
    -2
100
AcDbLine
 10
11538.27032172853
 20
2537.931598713255
 30
0.0
 11
11538.27032172853
 21
4912.931598713261
 31
0.0
  0
INSERT
  5
199C2
330
19449
100
AcDbEntity
  8
寸法
 62
     0
 48
50.0
370
    -2
100
AcDbBlockReference
  2
_DOTSMALL
 10
11538.27032172853
 20
2537.931598713255
 30
0.0
 41
100.0
 42
100.0
 43
100.0
 50
270.0
  0
INSERT
  5
199C3
330
19449
100
AcDbEntity
  8
寸法
 62
     0
 48
50.0
370
    -2
100
AcDbBlockReference
  2
_DOTSMALL
 10
11538.27032172853
 20
4912.931598713261
 30
0.0
 41
100.0
 42
100.0
 43
100.0
 50
90.0
  0
MTEXT
  5
199C4
330
19449
100
AcDbEntity
  8
寸法
 62
     7
 48
50.0
100
AcDbMText
 10
11438.25851070491
 20
3725.43159871326
 30
0.0
 40
120.0
 41
0.0
 71
     5
 72
     1
  1
\A1;2375
  7
STYLE1
 11
0.0000000000000001
 21
1.0
 31
0.0
 73
     1
 44
1.0
1001
ACAD
1000
MTEXTBEGIN
1070
    73
1070
     1
1070
    44
1040
1.0
1070
    74
1070
     0
1000
MTEXTEND
  0
POINT
  5
199C5
330
19449
100
AcDbEntity
  8
DEFPOINTS
 62
     0
 48
50.0
100
AcDbPoint
 10
12682.02045091179
 20
2537.931598713255
 30
0.0
  0
POINT
  5
199C6
330
19449
100
AcDbEntity
  8
DEFPOINTS
 62
     0
 48
50.0
100
AcDbPoint
 10
12622.02045091179
 20
4912.931598713261
 30
0.0
  0
POINT
  5
199C7
330
19449
100
AcDbEntity
  8
DEFPOINTS
 62
     0
 48
50.0
100
AcDbPoint
 10
11538.27032172853
 20
4912.931598713261
 30
0.0
  0
ENDBLK
  5
19454
330
19449
100
AcDbEntity
  8
0
 48
50.0
100
AcDbBlockEnd
  0
BLOCK
  5
19460
330
19455
100
AcDbEntity
  8
0
 48
50.0
100
AcDbBlockBegin
  2
*D32
 70
     1
 10
0.0
 20
0.0
 30
0.0
  3
*D32
  1

  0
LINE
  5
199B5
330
19455
100
AcDbEntity
  8
寸法
 62
     0
 48
50.0
370
    -2
100
AcDbLine
 10
12621.42473720289
 20
4912.229305782923
 30
0.0
 11
12005.49029809759
 21
4929.943456057253
 31
0.0
  0
LINE
  5
199B6
330
19455
100
AcDbEntity
  8
寸法
 62
     0
 48
50.0
370
    -2
100
AcDbLine
 10
12617.37128164627
 20
4771.28758201721
 30
0.0
 11
12001.43684254096
 21
4789.001732291541
 31
0.0
  0
LINE
  5
199B7
330
19455
100
AcDbEntity
  8
寸法
 62
     0
 48
50.0
370
    -2
100
AcDbLine
 10
12061.4120441434
 20
4787.276857586593
 30
0.0
 11
12065.46549970002
 21
4928.218581352306
 31
0.0
  0
LINE
  5
199B8
330
19455
100
AcDbEntity
  8
寸法
 62
     0
 48
50.0
370
    -2
100
AcDbLine
 10
12065.46549970002
 20
4928.218581352306
 30
0.0
 11
12075.81474792971
 21
5288.069790966892
 31
0.0
  0
INSERT
  5
199B9
330
19455
100
AcDbEntity
  8
寸法
 62
     0
 48
50.0
370
    -2
100
AcDbBlockReference
  2
_DOTSMALL
 10
12061.4120441434
 20
4787.276857586593
 30
0.0
 41
100.0
 42
100.0
 43
100.0
 50
268.3526390256378
  0
INSERT
  5
199BA
330
19455
100
AcDbEntity
  8
寸法
 62
     0
 48
50.0
370
    -2
100
AcDbBlockReference
  2
_DOTSMALL
 10
12065.46549970002
 20
4928.218581352306
 30
0.0
 41
100.0
 42
100.0
 43
100.0
 50
88.35263902563776
  0
MTEXT
  5
199BB
330
19455
100
AcDbEntity
  8
寸法
 62
     7
 48
50.0
100
AcDbMText
 10
11972.11885006493
 20
5160.998312003204
 30
0.0
 40
120.0
 41
0.0
 71
     5
 72
     1
  1
\A1;141
  7
STYLE1
 11
0.0287479117491237
 21
0.9995866933738488
 31
0.0
 73
     1
 44
1.0
1001
ACAD
1000
MTEXTBEGIN
1070
    73
1070
     1
1070
    44
1040
1.0
1070
    74
1070
     0
1000
MTEXTEND
  0
POINT
  5
199BC
330
19455
100
AcDbEntity
  8
DEFPOINTS
 62
     0
 48
50.0
100
AcDbPoint
 10
12641.41647107037
 20
4911.654347547941
 30
0.0
  0
POINT
  5
199BD
330
19455
100
AcDbEntity
  8
DEFPOINTS
 62
     0
 48
50.0
100
AcDbPoint
 10
12637.36301551374
 20
4770.712623782229
 30
0.0
  0
POINT
  5
199BE
330
19455
100
AcDbEntity
  8
DEFPOINTS
 62
     0
 48
50.0
100
AcDbPoint
 10
12061.4120441434
 20
4787.276857586593
 30
0.0
  0
ENDBLK
  5
19461
330
19455
100
AcDbEntity
  8
0
 48
50.0
100
AcDbBlockEnd
  0
BLOCK
  5
1946E
330
19462
100
AcDbEntity
  8
0
 48
50.0
100
AcDbBlockBegin
  2
*D33
 70
     1
 10
0.0
 20
0.0
 30
0.0
  3
*D33
  1

  0
LINE
  5
199AA
330
19462
100
AcDbEntity
  8
寸法
 62
     0
 48
50.0
370
    -2
100
AcDbLine
 10
12682.02045091179
 20
4928.933216836238
 30
0.0
 11
12682.02045091179
 21
5371.589052292566
 31
0.0
  0
LINE
  5
199AB
330
19462
100
AcDbEntity
  8
寸法
 62
     0
 48
50.0
370
    -2
100
AcDbLine
 10
12622.02045091179
 20
4932.931598713267
 30
0.0
 11
12622.02045091179
 21
5371.589052292566
 31
0.0
  0
LINE
  5
199AC
330
19462
100
AcDbEntity
  8
寸法
 62
     0
 48
50.0
370
    -2
100
AcDbLine
 10
12682.02045091179
 20
5311.589052292566
 30
0.0
 11
12782.02045091179
 21
5311.589052292566
 31
0.0
  0
LINE
  5
199AD
330
19462
100
AcDbEntity
  8
寸法
 62
     0
 48
50.0
370
    -2
100
AcDbLine
 10
12622.02045091179
 20
5311.589052292566
 30
0.0
 11
12202.7448603606
 21
5311.589052292566
 31
0.0
  0
LINE
  5
199AE
330
19462
100
AcDbEntity
  8
寸法
 62
     0
 48
50.0
370
    -2
100
AcDbLine
 10
12682.02045091179
 20
5311.589052292566
 30
0.0
 11
12622.02045091179
 21
5311.589052292566
 31
0.0
  0
INSERT
  5
199AF
330
19462
100
AcDbEntity
  8
寸法
 62
     0
 48
50.0
370
    -2
100
AcDbBlockReference
  2
_DOTSMALL
 10
12682.02045091179
 20
5311.589052292566
 30
0.0
 41
100.0
 42
100.0
 43
100.0
 50
180.0
  0
INSERT
  5
199B0
330
19462
100
AcDbEntity
  8
寸法
 62
     0
 48
50.0
370
    -2
100
AcDbBlockReference
  2
_DOTSMALL
 10
12622.02045091179
 20
5311.589052292566
 30
0.0
 41
100.0
 42
100.0
 43
100.0
  0
MTEXT
  5
199B1
330
19462
100
AcDbEntity
  8
寸法
 62
     7
 48
50.0
100
AcDbMText
 10
12312.38265563619
 20
5411.589052292566
 30
0.0
 40
120.0
 41
0.0
 71
     5
 72
     1
  1
\A1;60
  7
STYLE1
 73
     1
 44
1.0
1001
ACAD
1000
MTEXTBEGIN
1070
    73
1070
     1
1070
    44
1040
1.0
1070
    74
1070
     0
1000
MTEXTEND
  0
POINT
  5
199B2
330
19462
100
AcDbEntity
  8
DEFPOINTS
 62
     0
 48
50.0
100
AcDbPoint
 10
12682.02045091179
 20
4908.933216836238
 30
0.0
  0
POINT
  5
199B3
330
19462
100
AcDbEntity
  8
DEFPOINTS
 62
     0
 48
50.0
100
AcDbPoint
 10
12622.02045091179
 20
4912.931598713267
 30
0.0
  0
POINT
  5
199B4
330
19462
100
AcDbEntity
  8
DEFPOINTS
 62
     0
 48
50.0
100
AcDbPoint
 10
12622.02045091179
 20
5311.589052292566
 30
0.0
  0
ENDBLK
  5
1946F
330
19462
100
AcDbEntity
  8
0
 48
50.0
100
AcDbBlockEnd
  0
BLOCK
  5
1947A
330
19470
100
AcDbEntity
  8
0
 48
50.0
100
AcDbBlockBegin
  2
*D34
 70
     1
 10
0.0
 20
0.0
 30
0.0
  3
*D34
  1

  0
LINE
  5
1A93E
330
19470
100
AcDbEntity
  8
寸法
 62
     0
 48
50.0
370
    -2
100
AcDbLine
 10
15312.02045091179
 20
4879.742278324915
 30
0.0
 11
15312.02045091179
 21
5371.589052292567
 31
0.0
  0
LINE
  5
1A93F
330
19470
100
AcDbEntity
  8
寸法
 62
     0
 48
50.0
370
    -2
100
AcDbLine
 10
12682.02045091179
 20
4928.933216836238
 30
0.0
 11
12682.02045091179
 21
5371.589052292567
 31
0.0
  0
LINE
  5
1A940
330
19470
100
AcDbEntity
  8
寸法
 62
     0
 48
50.0
370
    -2
100
AcDbLine
 10
15312.02045091179
 20
5311.589052292568
 30
0.0
 11
12682.02045091179
 21
5311.589052292568
 31
0.0
  0
INSERT
  5
1A941
330
19470
100
AcDbEntity
  8
寸法
 62
     0
 48
50.0
370
    -2
100
AcDbBlockReference
  2
_DOTSMALL
 10
15312.02045091179
 20
5311.589052292568
 30
0.0
 41
100.0
 42
100.0
 43
100.0
  0
INSERT
  5
1A942
330
19470
100
AcDbEntity
  8
寸法
 62
     0
 48
50.0
370
    -2
100
AcDbBlockReference
  2
_DOTSMALL
 10
12682.02045091179
 20
5311.589052292568
 30
0.0
 41
100.0
 42
100.0
 43
100.0
 50
180.0
  0
MTEXT
  5
1A943
330
19470
100
AcDbEntity
  8
寸法
 62
     7
 48
50.0
100
AcDbMText
 10
13997.02045091179
 20
5411.600863316189
 30
0.0
 40
120.0
 41
0.0
 71
     5
 72
     1
  1
\A1;柱外寸法2630
  7
STYLE1
 73
     1
 44
1.0
1001
ACAD
1000
MTEXTBEGIN
1070
    73
1070
     1
1070
    44
1040
1.0
1070
    74
1070
     0
1000
MTEXTEND
  0
POINT
  5
1A944
330
19470
100
AcDbEntity
  8
DEFPOINTS
 62
     0
 48
50.0
100
AcDbPoint
 10
15312.02045091179
 20
4859.742278324915
 30
0.0
  0
POINT
  5
1A945
330
19470
100
AcDbEntity
  8
DEFPOINTS
 62
     0
 48
50.0
100
AcDbPoint
 10
12682.02045091179
 20
4908.933216836238
 30
0.0
  0
POINT
  5
1A946
330
19470
100
AcDbEntity
  8
DEFPOINTS
 62
     0
 48
50.0
100
AcDbPoint
 10
12682.02045091179
 20
5311.589052292568
 30
0.0
  0
ENDBLK
  5
1947B
330
19470
100
AcDbEntity
  8
0
 48
50.0
100
AcDbBlockEnd
  0
BLOCK
  5
19486
330
1947C
100
AcDbEntity
  8
0
 48
50.0
100
AcDbBlockBegin
  2
*D35
 70
     1
 10
0.0
 20
0.0
 30
0.0
  3
*D35
  1

  0
LINE
  5
1A935
330
1947C
100
AcDbEntity
  8
寸法
 62
     0
 48
50.0
370
    -2
100
AcDbLine
 10
15392.02045091179
 20
4877.931598713264
 30
0.0
 11
15392.02045091179
 21
5591.799739024184
 31
0.0
  0
LINE
  5
1A936
330
1947C
100
AcDbEntity
  8
寸法
 62
     0
 48
50.0
370
    -2
100
AcDbLine
 10
12622.02045091179
 20
4932.931598713267
 30
0.0
 11
12622.02045091179
 21
5591.799739024184
 31
0.0
  0
LINE
  5
1A937
330
1947C
100
AcDbEntity
  8
寸法
 62
     0
 48
50.0
370
    -2
100
AcDbLine
 10
15392.02045091179
 20
5531.799739024183
 30
0.0
 11
12622.02045091179
 21
5531.799739024183
 31
0.0
  0
INSERT
  5
1A938
330
1947C
100
AcDbEntity
  8
寸法
 62
     0
 48
50.0
370
    -2
100
AcDbBlockReference
  2
_DOTSMALL
 10
15392.02045091179
 20
5531.799739024183
 30
0.0
 41
100.0
 42
100.0
 43
100.0
  0
INSERT
  5
1A939
330
1947C
100
AcDbEntity
  8
寸法
 62
     0
 48
50.0
370
    -2
100
AcDbBlockReference
  2
_DOTSMALL
 10
12622.02045091179
 20
5531.799739024183
 30
0.0
 41
100.0
 42
100.0
 43
100.0
 50
180.0
  0
MTEXT
  5
1A93A
330
1947C
100
AcDbEntity
  8
寸法
 62
     7
 48
50.0
100
AcDbMText
 10
14007.02045091179
 20
5631.811550047805
 30
0.0
 40
120.0
 41
0.0
 71
     5
 72
     1
  1
\A1;2770
  7
STYLE1
 73
     1
 44
1.0
1001
ACAD
1000
MTEXTBEGIN
1070
    73
1070
     1
1070
    44
1040
1.0
1070
    74
1070
     0
1000
MTEXTEND
  0
POINT
  5
1A93B
330
1947C
100
AcDbEntity
  8
DEFPOINTS
 62
     0
 48
50.0
100
AcDbPoint
 10
15392.02045091179
 20
4857.931598713263
 30
0.0
  0
POINT
  5
1A93C
330
1947C
100
AcDbEntity
  8
DEFPOINTS
 62
     0
 48
50.0
100
AcDbPoint
 10
12622.02045091179
 20
4912.931598713267
 30
0.0
  0
POINT
  5
1A93D
330
1947C
100
AcDbEntity
  8
DEFPOINTS
 62
     0
 48
50.0
100
AcDbPoint
 10
12622.02045091179
 20
5531.799739024183
 30
0.0
  0
ENDBLK
  5
19487
330
1947C
100
AcDbEntity
  8
0
 48
50.0
100
AcDbBlockEnd
  0
BLOCK
  5
19493
330
19488
100
AcDbEntity
  8
0
 48
50.0
100
AcDbBlockBegin
  2
*D36
 70
     1
 10
0.0
 20
0.0
 30
0.0
  3
*D36
  1

  0
LINE
  5
1998E
330
19488
100
AcDbEntity
  8
寸法
 62
     0
 48
50.0
370
    -2
100
AcDbLine
 10
15312.02045091179
 20
4879.742278324915
 30
0.0
 11
15312.02045091179
 21
5371.589052292567
 31
0.0
  0
LINE
  5
1998F
330
19488
100
AcDbEntity
  8
寸法
 62
     0
 48
50.0
370
    -2
100
AcDbLine
 10
15392.02045091179
 20
4877.931598713264
 30
0.0
 11
15392.02045091179
 21
5371.589052292567
 31
0.0
  0
LINE
  5
19990
330
19488
100
AcDbEntity
  8
寸法
 62
     0
 48
50.0
370
    -2
100
AcDbLine
 10
15312.02045091179
 20
5311.589052292568
 30
0.0
 11
15392.02045091179
 21
5311.589052292568
 31
0.0
  0
LINE
  5
19991
330
19488
100
AcDbEntity
  8
寸法
 62
     0
 48
50.0
370
    -2
100
AcDbLine
 10
15392.02045091179
 20
5311.589052292568
 30
0.0
 11
15704.11493910077
 21
5311.589052292568
 31
0.0
  0
INSERT
  5
19992
330
19488
100
AcDbEntity
  8
寸法
 62
     0
 48
50.0
370
    -2
100
AcDbBlockReference
  2
_DOTSMALL
 10
15312.02045091179
 20
5311.589052292568
 30
0.0
 41
100.0
 42
100.0
 43
100.0
 50
180.0
  0
INSERT
  5
19993
330
19488
100
AcDbEntity
  8
寸法
 62
     0
 48
50.0
370
    -2
100
AcDbBlockReference
  2
_DOTSMALL
 10
15392.02045091179
 20
5311.589052292568
 30
0.0
 41
100.0
 42
100.0
 43
100.0
  0
MTEXT
  5
19994
330
19488
100
AcDbEntity
  8
寸法
 62
     7
 48
50.0
100
AcDbMText
 10
15598.06769500628
 20
5411.589052292567
 30
0.0
 40
120.0
 41
0.0
 71
     5
 72
     1
  1
\A1;80
  7
STYLE1
 73
     1
 44
1.0
1001
ACAD
1000
MTEXTBEGIN
1070
    73
1070
     1
1070
    44
1040
1.0
1070
    74
1070
     0
1000
MTEXTEND
  0
POINT
  5
19995
330
19488
100
AcDbEntity
  8
DEFPOINTS
 62
     0
 48
50.0
100
AcDbPoint
 10
15312.02045091179
 20
4859.742278324915
 30
0.0
  0
POINT
  5
19996
330
19488
100
AcDbEntity
  8
DEFPOINTS
 62
     0
 48
50.0
100
AcDbPoint
 10
15392.02045091179
 20
4857.931598713263
 30
0.0
  0
POINT
  5
19997
330
19488
100
AcDbEntity
  8
DEFPOINTS
 62
     0
 48
50.0
100
AcDbPoint
 10
15392.02045091179
 20
5311.589052292568
 30
0.0
  0
ENDBLK
  5
19494
330
19488
100
AcDbEntity
  8
0
 48
50.0
100
AcDbBlockEnd
  0
BLOCK
  5
194C5
330
194BB
100
AcDbEntity
  8
0
 48
50.0
100
AcDbBlockBegin
  2
*D37
 70
     1
 10
0.0
 20
0.0
 30
0.0
  3
*D37
  1

  0
LINE
  5
19968
330
194BB
100
AcDbEntity
  8
寸法
 62
     0
 48
50.0
370
    -2
100
AcDbLine
 10
15332.02045091179
 20
2537.931598713262
 30
0.0
 11
16076.94760888391
 21
2537.931598713261
 31
0.0
  0
LINE
  5
19969
330
194BB
100
AcDbEntity
  8
寸法
 62
     0
 48
50.0
370
    -2
100
AcDbLine
 10
15427.02045091179
 20
4857.931598713261
 30
0.0
 11
16076.94760888391
 21
4857.931598713261
 31
0.0
  0
LINE
  5
1996A
330
194BB
100
AcDbEntity
  8
寸法
 62
     0
 48
50.0
370
    -2
100
AcDbLine
 10
16016.94760888391
 20
2537.931598713261
 30
0.0
 11
16016.94760888392
 21
4857.931598713261
 31
0.0
  0
INSERT
  5
1996B
330
194BB
100
AcDbEntity
  8
寸法
 62
     0
 48
50.0
370
    -2
100
AcDbBlockReference
  2
_DOTSMALL
 10
16016.94760888391
 20
2537.931598713261
 30
0.0
 41
100.0
 42
100.0
 43
100.0
 50
270.0
  0
INSERT
  5
1996C
330
194BB
100
AcDbEntity
  8
寸法
 62
     0
 48
50.0
370
    -2
100
AcDbBlockReference
  2
_DOTSMALL
 10
16016.94760888392
 20
4857.931598713261
 30
0.0
 41
100.0
 42
100.0
 43
100.0
 50
90.0
  0
MTEXT
  5
1996D
330
194BB
100
AcDbEntity
  8
寸法
 62
     7
 48
50.0
100
AcDbMText
 10
15916.93579786029
 20
3692.931598713261
 30
0.0
 40
120.0
 41
0.0
 71
     5
 72
     1
  1
\A1;2320
  7
STYLE1
 11
0.0000000000000001
 21
1.0
 31
0.0
 73
     1
 44
1.0
1001
ACAD
1000
MTEXTBEGIN
1070
    73
1070
     1
1070
    44
1040
1.0
1070
    74
1070
     0
1000
MTEXTEND
  0
POINT
  5
1996E
330
194BB
100
AcDbEntity
  8
DEFPOINTS
 62
     0
 48
50.0
100
AcDbPoint
 10
15312.02045091179
 20
2537.931598713262
 30
0.0
  0
POINT
  5
1996F
330
194BB
100
AcDbEntity
  8
DEFPOINTS
 62
     0
 48
50.0
100
AcDbPoint
 10
15407.02045091179
 20
4857.931598713261
 30
0.0
  0
POINT
  5
19970
330
194BB
100
AcDbEntity
  8
DEFPOINTS
 62
     0
 48
50.0
100
AcDbPoint
 10
16016.94760888392
 20
4857.931598713261
 30
0.0
  0
ENDBLK
  5
194C6
330
194BB
100
AcDbEntity
  8
0
 48
50.0
100
AcDbBlockEnd
  0
BLOCK
  5
194D3
330
194C7
100
AcDbEntity
  8
0
 48
50.0
100
AcDbBlockBegin
  2
*D38
 70
     1
 10
0.0
 20
0.0
 30
0.0
  3
*D38
  1

  0
LINE
  5
1995D
330
194C7
100
AcDbEntity
  8
寸法
 62
     0
 48
50.0
370
    -2
100
AcDbLine
 10
12662.02045091179
 20
2587.931598713261
 30
0.0
 11
11778.27032172853
 21
2587.931598713261
 31
0.0
  0
LINE
  5
1995E
330
194C7
100
AcDbEntity
  8
寸法
 62
     0
 48
50.0
370
    -2
100
AcDbLine
 10
12607.02045091179
 20
2537.931598713262
 30
0.0
 11
11778.27032172853
 21
2537.931598713262
 31
0.0
  0
LINE
  5
1995F
330
194C7
100
AcDbEntity
  8
寸法
 62
     0
 48
50.0
370
    -2
100
AcDbLine
 10
11838.27032172853
 20
2587.931598713261
 30
0.0
 11
11838.27032172853
 21
2687.931598713261
 31
0.0
  0
LINE
  5
19960
330
194C7
100
AcDbEntity
  8
寸法
 62
     0
 48
50.0
370
    -2
100
AcDbLine
 10
11838.27032172853
 20
2537.931598713262
 30
0.0
 11
11838.27032172853
 21
2048.134354618771
 31
0.0
  0
LINE
  5
19961
330
194C7
100
AcDbEntity
  8
寸法
 62
     0
 48
50.0
370
    -2
100
AcDbLine
 10
11838.27032172853
 20
2587.931598713261
 30
0.0
 11
11838.27032172853
 21
2537.931598713262
 31
0.0
  0
INSERT
  5
19962
330
194C7
100
AcDbEntity
  8
寸法
 62
     0
 48
50.0
370
    -2
100
AcDbBlockReference
  2
_DOTSMALL
 10
11838.27032172853
 20
2587.931598713261
 30
0.0
 41
100.0
 42
100.0
 43
100.0
 50
270.0
  0
INSERT
  5
19963
330
194C7
100
AcDbEntity
  8
寸法
 62
     0
 48
50.0
370
    -2
100
AcDbBlockReference
  2
_DOTSMALL
 10
11838.27032172853
 20
2537.931598713262
 30
0.0
 41
100.0
 42
100.0
 43
100.0
 50
90.0
  0
MTEXT
  5
19964
330
194C7
100
AcDbEntity
  8
寸法
 62
     7
 48
50.0
100
AcDbMText
 10
11738.27032172853
 20
2154.181598713261
 30
0.0
 40
120.0
 41
0.0
 71
     5
 72
     1
  1
\A1;50
  7
STYLE1
 11
0.0000000000000001
 21
1.0
 31
0.0
 73
     1
 44
1.0
1001
ACAD
1000
MTEXTBEGIN
1070
    73
1070
     1
1070
    44
1040
1.0
1070
    74
1070
     0
1000
MTEXTEND
  0
POINT
  5
19965
330
194C7
100
AcDbEntity
  8
DEFPOINTS
 62
     0
 48
50.0
100
AcDbPoint
 10
12682.02045091179
 20
2587.931598713261
 30
0.0
  0
POINT
  5
19966
330
194C7
100
AcDbEntity
  8
DEFPOINTS
 62
     0
 48
50.0
100
AcDbPoint
 10
12627.02045091179
 20
2537.931598713262
 30
0.0
  0
POINT
  5
19967
330
194C7
100
AcDbEntity
  8
DEFPOINTS
 62
     0
 48
50.0
100
AcDbPoint
 10
11838.27032172853
 20
2537.931598713262
 30
0.0
  0
ENDBLK
  5
194D4
330
194C7
100
AcDbEntity
  8
0
 48
50.0
100
AcDbBlockEnd
  0
BLOCK
  5
194EC
330
194E2
100
AcDbEntity
  8
0
 48
50.0
100
AcDbBlockBegin
  2
*D39
 70
     1
 10
0.0
 20
0.0
 30
0.0
  3
*D39
  1

  0
LINE
  5
1994A
330
194E2
100
AcDbEntity
  8
寸法
 62
     0
 48
50.0
370
    -2
100
AcDbLine
 10
12662.02045091179
 20
4677.931598713261
 30
0.0
 11
11778.27032172853
 21
4677.931598713261
 31
0.0
  0
LINE
  5
1994B
330
194E2
100
AcDbEntity
  8
寸法
 62
     0
 48
50.0
370
    -2
100
AcDbLine
 10
12662.02045091179
 20
2587.931598713261
 30
0.0
 11
11778.27032172853
 21
2587.931598713261
 31
0.0
  0
LINE
  5
1994C
330
194E2
100
AcDbEntity
  8
寸法
 62
     0
 48
50.0
370
    -2
100
AcDbLine
 10
11838.27032172853
 20
4677.931598713261
 30
0.0
 11
11838.27032172853
 21
2587.931598713261
 31
0.0
  0
INSERT
  5
1994D
330
194E2
100
AcDbEntity
  8
寸法
 62
     0
 48
50.0
370
    -2
100
AcDbBlockReference
  2
_DOTSMALL
 10
11838.27032172853
 20
4677.931598713261
 30
0.0
 41
100.0
 42
100.0
 43
100.0
 50
90.0
  0
INSERT
  5
1994E
330
194E2
100
AcDbEntity
  8
寸法
 62
     0
 48
50.0
370
    -2
100
AcDbBlockReference
  2
_DOTSMALL
 10
11838.27032172853
 20
2587.931598713261
 30
0.0
 41
100.0
 42
100.0
 43
100.0
 50
270.0
  0
MTEXT
  5
1994F
330
194E2
100
AcDbEntity
  8
寸法
 62
     7
 48
50.0
100
AcDbMText
 10
11738.25851070491
 20
3632.931598713263
 30
0.0
 40
120.0
 41
0.0
 71
     5
 72
     1
  1
\A1;2090
  7
STYLE1
 11
0.0000000000000001
 21
1.0
 31
0.0
 73
     1
 44
1.0
1001
ACAD
1000
MTEXTBEGIN
1070
    73
1070
     1
1070
    44
1040
1.0
1070
    74
1070
     0
1000
MTEXTEND
  0
POINT
  5
19950
330
194E2
100
AcDbEntity
  8
DEFPOINTS
 62
     0
 48
50.0
100
AcDbPoint
 10
12682.02045091179
 20
4677.931598713261
 30
0.0
  0
POINT
  5
19951
330
194E2
100
AcDbEntity
  8
DEFPOINTS
 62
     0
 48
50.0
100
AcDbPoint
 10
12682.02045091179
 20
2587.931598713261
 30
0.0
  0
POINT
  5
19952
330
194E2
100
AcDbEntity
  8
DEFPOINTS
 62
     0
 48
50.0
100
AcDbPoint
 10
11838.27032172853
 20
2587.931598713261
 30
0.0
  0
ENDBLK
  5
194ED
330
194E2
100
AcDbEntity
  8
0
 48
50.0
100
AcDbBlockEnd
  0
BLOCK
  5
1A1F3
330
1A1E9
100
AcDbEntity
  8
0
 48
50.0
100
AcDbBlockBegin
  2
*D40
 70
     1
 10
0.0
 20
0.0
 30
0.0
  3
*D40
  1

  0
LINE
  5
1A201
330
1A1E9
100
AcDbEntity
  8
寸法
 62
     0
 48
50.0
370
    -2
100
AcDbLine
 10
7311.33484655816
 20
9272.49742454587
 30
0.0
 11
7208.593032599591
 21
8889.059754790698
 31
0.0
  0
LINE
  5
1A202
330
1A1E9
100
AcDbEntity
  8
寸法
 62
     0
 48
50.0
370
    -2
100
AcDbLine
 10
8794.334846558173
 20
9272.497424545861
 30
0.0
 11
8691.593032599605
 21
8889.059754790698
 31
0.0
  0
LINE
  5
1A203
330
1A1E9
100
AcDbEntity
  8
寸法
 62
     0
 48
50.0
370
    -2
100
AcDbLine
 10
7224.669984145457
 20
8949.059754790699
 30
0.0
 11
8707.669984145473
 21
8949.059754790699
 31
0.0
  0
INSERT
  5
1A204
330
1A1E9
100
AcDbEntity
  8
寸法
 62
     0
 48
50.0
370
    -2
100
AcDbBlockReference
  2
_DOTSMALL
 10
7224.669984145457
 20
8949.059754790699
 30
0.0
 41
100.0
 42
100.0
 43
100.0
 50
180.0
  0
INSERT
  5
1A205
330
1A1E9
100
AcDbEntity
  8
寸法
 62
     0
 48
50.0
370
    -2
100
AcDbBlockReference
  2
_DOTSMALL
 10
8707.669984145473
 20
8949.059754790699
 30
0.0
 41
100.0
 42
100.0
 43
100.0
  0
MTEXT
  5
1A206
330
1A1E9
100
AcDbEntity
  8
寸法
 62
     7
 48
50.0
100
AcDbMText
 10
7904.485133814796
 20
9049.059754790699
 30
0.0
 40
120.0
 41
0.0
 71
     5
 72
     1
  1
\A1;1483
  7
STYLE1
 73
     1
 44
1.0
1001
ACAD
1000
MTEXTBEGIN
1070
    73
1070
     1
1070
    44
1040
1.0
1070
    74
1070
     0
1000
MTEXTEND
  0
POINT
  5
1A207
330
1A1E9
100
AcDbEntity
  8
DEFPOINTS
 62
     0
 48
50.0
100
AcDbPoint
 10
7316.693830406783
 20
9292.497424545869
 30
0.0
  0
POINT
  5
1A208
330
1A1E9
100
AcDbEntity
  8
DEFPOINTS
 62
     0
 48
50.0
100
AcDbPoint
 10
8799.693830406795
 20
9292.497424545862
 30
0.0
  0
POINT
  5
1A209
330
1A1E9
100
AcDbEntity
  8
DEFPOINTS
 62
     0
 48
50.0
100
AcDbPoint
 10
8707.669984145473
 20
8949.059754790699
 30
0.0
  0
ENDBLK
  5
1A1F4
330
1A1E9
100
AcDbEntity
  8
0
 48
50.0
100
AcDbBlockEnd
  0
BLOCK
  5
1A1FF
330
1A1F5
100
AcDbEntity
  8
0
 48
50.0
100
AcDbBlockBegin
  2
*D41
 70
     1
 10
0.0
 20
0.0
 30
0.0
  3
*D41
  1

  0
LINE
  5
1A20A
330
1A1F5
100
AcDbEntity
  8
寸法
 62
     0
 48
50.0
370
    -2
100
AcDbLine
 10
8821.334846558158
 20
9272.497424545974
 30
0.0
 11
8718.593032599589
 21
8889.059754790807
 31
0.0
  0
LINE
  5
1A20B
330
1A1F5
100
AcDbEntity
  8
寸法
 62
     0
 48
50.0
370
    -2
100
AcDbLine
 10
10304.33484655817
 20
9272.497424545967
 30
0.0
 11
10201.5930325996
 21
8889.059754790807
 31
0.0
  0
LINE
  5
1A20C
330
1A1F5
100
AcDbEntity
  8
寸法
 62
     0
 48
50.0
370
    -2
100
AcDbLine
 10
8734.669984145458
 20
8949.059754790807
 30
0.0
 11
10217.66998414547
 21
8949.059754790807
 31
0.0
  0
INSERT
  5
1A20D
330
1A1F5
100
AcDbEntity
  8
寸法
 62
     0
 48
50.0
370
    -2
100
AcDbBlockReference
  2
_DOTSMALL
 10
8734.669984145458
 20
8949.059754790807
 30
0.0
 41
100.0
 42
100.0
 43
100.0
 50
180.0
  0
INSERT
  5
1A20E
330
1A1F5
100
AcDbEntity
  8
寸法
 62
     0
 48
50.0
370
    -2
100
AcDbBlockReference
  2
_DOTSMALL
 10
10217.66998414547
 20
8949.059754790807
 30
0.0
 41
100.0
 42
100.0
 43
100.0
  0
MTEXT
  5
1A20F
330
1A1F5
100
AcDbEntity
  8
寸法
 62
     7
 48
50.0
100
AcDbMText
 10
9351.131986323629
 20
9049.059754790809
 30
0.0
 40
120.0
 41
0.0
 71
     5
 72
     1
  1
\A1;1483
  7
STYLE1
 73
     1
 44
1.0
1001
ACAD
1000
MTEXTBEGIN
1070
    73
1070
     1
1070
    44
1040
1.0
1070
    74
1070
     0
1000
MTEXTEND
  0
POINT
  5
1A210
330
1A1F5
100
AcDbEntity
  8
DEFPOINTS
 62
     0
 48
50.0
100
AcDbPoint
 10
8826.69383040678
 20
9292.497424545976
 30
0.0
  0
POINT
  5
1A211
330
1A1F5
100
AcDbEntity
  8
DEFPOINTS
 62
     0
 48
50.0
100
AcDbPoint
 10
10309.69383040679
 20
9292.497424545967
 30
0.0
  0
POINT
  5
1A212
330
1A1F5
100
AcDbEntity
  8
DEFPOINTS
 62
     0
 48
50.0
100
AcDbPoint
 10
10217.66998414547
 20
8949.059754790807
 30
0.0
  0
ENDBLK
  5
1A200
330
1A1F5
100
AcDbEntity
  8
0
 48
50.0
100
AcDbBlockEnd
  0
BLOCK
  5
1A447
330
1A43D
100
AcDbEntity
  8
0
 48
50.0
100
AcDbBlockBegin
  2
*D42
 70
     1
 10
0.0
 20
0.0
 30
0.0
  3
*D42
  1

  0
LINE
  5
1A508
330
1A43D
100
AcDbEntity
  8
寸法
 62
     0
 48
50.0
370
    -2
100
AcDbLine
 10
10358.19383040677
 20
2599.931598713262
 30
0.0
 11
10685.73693272852
 21
2599.931598713262
 31
0.0
  0
LINE
  5
1A509
330
1A43D
100
AcDbEntity
  8
寸法
 62
     0
 48
50.0
370
    -2
100
AcDbLine
 10
10358.19383040677
 20
4485.93159871326
 30
0.0
 11
10685.73693272852
 21
4485.93159871326
 31
0.0
  0
LINE
  5
1A50A
330
1A43D
100
AcDbEntity
  8
寸法
 62
     0
 48
50.0
370
    -2
100
AcDbLine
 10
10625.73693272852
 20
2599.931598713262
 30
0.0
 11
10625.73693272852
 21
4485.93159871326
 31
0.0
  0
INSERT
  5
1A50B
330
1A43D
100
AcDbEntity
  8
寸法
 62
     0
 48
50.0
370
    -2
100
AcDbBlockReference
  2
_DOTSMALL
 10
10625.73693272852
 20
2599.931598713262
 30
0.0
 41
100.0
 42
100.0
 43
100.0
 50
270.0
  0
INSERT
  5
1A50C
330
1A43D
100
AcDbEntity
  8
寸法
 62
     0
 48
50.0
370
    -2
100
AcDbBlockReference
  2
_DOTSMALL
 10
10625.73693272852
 20
4485.93159871326
 30
0.0
 41
100.0
 42
100.0
 43
100.0
 50
90.0
  0
MTEXT
  5
1A50D
330
1A43D
100
AcDbEntity
  8
寸法
 62
     7
 48
50.0
100
AcDbMText
 10
10525.73693272852
 20
3542.931598713263
 30
0.0
 40
120.0
 41
0.0
 71
     5
 72
     1
  1
\A1;有効開口部高サ 1886
  7
STYLE1
 11
0.0000000000000001
 21
1.0
 31
0.0
 73
     1
 44
1.0
1001
ACAD
1000
MTEXTBEGIN
1070
    73
1070
     1
1070
    44
1040
1.0
1070
    74
1070
     0
1000
MTEXTEND
  0
POINT
  5
1A50E
330
1A43D
100
AcDbEntity
  8
DEFPOINTS
 62
     0
 48
50.0
100
AcDbPoint
 10
10338.19383040677
 20
2599.931598713262
 30
0.0
  0
POINT
  5
1A50F
330
1A43D
100
AcDbEntity
  8
DEFPOINTS
 62
     0
 48
50.0
100
AcDbPoint
 10
10338.19383040677
 20
4485.93159871326
 30
0.0
  0
POINT
  5
1A510
330
1A43D
100
AcDbEntity
  8
DEFPOINTS
 62
     0
 48
50.0
100
AcDbPoint
 10
10625.73693272852
 20
4485.93159871326
 30
0.0
  0
ENDBLK
  5
1A448
330
1A43D
100
AcDbEntity
  8
0
 48
50.0
100
AcDbBlockEnd
  0
BLOCK
  5
1A455
330
1A449
100
AcDbEntity
  8
0
 48
50.0
100
AcDbBlockBegin
  2
*D43
 70
     1
 10
0.0
 20
0.0
 30
0.0
  3
*D43
  1

  0
LINE
  5
1A9BC
330
1A449
100
AcDbEntity
  8
寸法
 62
     0
 48
50.0
370
    -2
100
AcDbLine
 10
10358.19383040677
 20
4485.93159871326
 30
0.0
 11
10685.73693272852
 21
4485.93159871326
 31
0.0
  0
LINE
  5
1A9BD
330
1A449
100
AcDbEntity
  8
寸法
 62
     0
 48
50.0
370
    -2
100
AcDbLine
 10
10358.19383040677
 20
4512.931598713262
 30
0.0
 11
10685.73693272852
 21
4512.931598713262
 31
0.0
  0
LINE
  5
1A9BE
330
1A449
100
AcDbEntity
  8
寸法
 62
     0
 48
50.0
370
    -2
100
AcDbLine
 10
10625.73693272852
 20
4485.93159871326
 30
0.0
 11
10625.73693272852
 21
4385.93159871326
 31
0.0
  0
LINE
  5
1A9BF
330
1A449
100
AcDbEntity
  8
寸法
 62
     0
 48
50.0
370
    -2
100
AcDbLine
 10
10625.73693272852
 20
4512.931598713262
 30
0.0
 11
10625.73693272852
 21
4612.931598713262
 31
0.0
  0
MTEXT
  5
1A9C0
330
1A449
100
AcDbEntity
  8
寸法
 62
     7
 48
50.0
100
AcDbMText
 10
10765.90675597488
 20
4513.89879855292
 30
0.0
 40
120.0
 41
0.0
 71
     5
 72
     1
  1
\A1;27
  7
STYLE1
 11
0.0000000000000001
 21
1.0
 31
0.0
 73
     1
 44
1.0
1001
ACAD
1000
MTEXTBEGIN
1070
    73
1070
     1
1070
    44
1040
1.0
1070
    74
1070
     0
1000
MTEXTEND
  0
LINE
  5
1A9C1
330
1A449
100
AcDbEntity
  8
寸法
 62
     0
 48
50.0
370
    -2
100
AcDbLine
 10
10625.73693272852
 20
4485.93159871326
 30
0.0
 11
10625.73693272852
 21
4512.931598713262
 31
0.0
  0
INSERT
  5
1A9C2
330
1A449
100
AcDbEntity
  8
寸法
 62
     0
 48
50.0
370
    -2
100
AcDbBlockReference
  2
_DOTSMALL
 10
10625.73693272852
 20
4485.93159871326
 30
0.0
 41
100.0
 42
100.0
 43
100.0
 50
90.0
  0
INSERT
  5
1A9C3
330
1A449
100
AcDbEntity
  8
寸法
 62
     0
 48
50.0
370
    -2
100
AcDbBlockReference
  2
_DOTSMALL
 10
10625.73693272852
 20
4512.931598713262
 30
0.0
 41
100.0
 42
100.0
 43
100.0
 50
270.0
  0
POINT
  5
1A9C4
330
1A449
100
AcDbEntity
  8
DEFPOINTS
 62
     0
 48
50.0
100
AcDbPoint
 10
10338.19383040677
 20
4485.93159871326
 30
0.0
  0
POINT
  5
1A9C5
330
1A449
100
AcDbEntity
  8
DEFPOINTS
 62
     0
 48
50.0
100
AcDbPoint
 10
10338.19383040677
 20
4512.931598713262
 30
0.0
  0
POINT
  5
1A9C6
330
1A449
100
AcDbEntity
  8
DEFPOINTS
 62
     0
 48
50.0
100
AcDbPoint
 10
10625.73693272852
 20
4512.931598713262
 30
0.0
  0
ENDBLK
  5
1A456
330
1A449
100
AcDbEntity
  8
0
 48
50.0
100
AcDbBlockEnd
  0
BLOCK
  5
1A462
330
1A457
100
AcDbEntity
  8
0
 48
50.0
100
AcDbBlockBegin
  2
*D44
 70
     1
 10
0.0
 20
0.0
 30
0.0
  3
*D44
  1

  0
LINE
  5
1A9B2
330
1A457
100
AcDbEntity
  8
寸法
 62
     0
 48
50.0
370
    -2
100
AcDbLine
 10
10358.19383040677
 20
4512.931598713262
 30
0.0
 11
10685.73693272852
 21
4512.931598713262
 31
0.0
  0
LINE
  5
1A9B3
330
1A457
100
AcDbEntity
  8
寸法
 62
     0
 48
50.0
370
    -2
100
AcDbLine
 10
10358.19383040677
 20
4677.931598713261
 30
0.0
 11
10685.73693272852
 21
4677.931598713261
 31
0.0
  0
LINE
  5
1A9B4
330
1A457
100
AcDbEntity
  8
寸法
 62
     0
 48
50.0
370
    -2
100
AcDbLine
 10
10625.73693272852
 20
4512.931598713262
 30
0.0
 11
10625.73693272852
 21
4677.931598713261
 31
0.0
  0
LINE
  5
1A9B5
330
1A457
100
AcDbEntity
  8
寸法
 62
     0
 48
50.0
370
    -2
100
AcDbLine
 10
10625.73693272852
 20
4677.931598713261
 30
0.0
 11
10625.73693272852
 21
5054.902161461739
 31
0.0
  0
INSERT
  5
1A9B6
330
1A457
100
AcDbEntity
  8
寸法
 62
     0
 48
50.0
370
    -2
100
AcDbBlockReference
  2
_DOTSMALL
 10
10625.73693272852
 20
4512.931598713262
 30
0.0
 41
100.0
 42
100.0
 43
100.0
 50
270.0
  0
INSERT
  5
1A9B7
330
1A457
100
AcDbEntity
  8
寸法
 62
     0
 48
50.0
370
    -2
100
AcDbBlockReference
  2
_DOTSMALL
 10
10625.73693272852
 20
4677.931598713261
 30
0.0
 41
100.0
 42
100.0
 43
100.0
 50
90.0
  0
MTEXT
  5
1A9B8
330
1A457
100
AcDbEntity
  8
寸法
 62
     7
 48
50.0
100
AcDbMText
 10
10525.73693272852
 20
4916.416880087502
 30
0.0
 40
120.0
 41
0.0
 71
     5
 72
     1
  1
\A1;165
  7
STYLE1
 11
0.0000000000000001
 21
1.0
 31
0.0
 73
     1
 44
1.0
1001
ACAD
1000
MTEXTBEGIN
1070
    73
1070
     1
1070
    44
1040
1.0
1070
    74
1070
     0
1000
MTEXTEND
  0
POINT
  5
1A9B9
330
1A457
100
AcDbEntity
  8
DEFPOINTS
 62
     0
 48
50.0
100
AcDbPoint
 10
10338.19383040677
 20
4512.931598713262
 30
0.0
  0
POINT
  5
1A9BA
330
1A457
100
AcDbEntity
  8
DEFPOINTS
 62
     0
 48
50.0
100
AcDbPoint
 10
10338.19383040677
 20
4677.931598713261
 30
0.0
  0
POINT
  5
1A9BB
330
1A457
100
AcDbEntity
  8
DEFPOINTS
 62
     0
 48
50.0
100
AcDbPoint
 10
10625.73693272852
 20
4677.931598713261
 30
0.0
  0
ENDBLK
  5
1A463
330
1A457
100
AcDbEntity
  8
0
 48
50.0
100
AcDbBlockEnd
  0
BLOCK
  5
1A7E7
330
1A7E6
100
AcDbEntity
  8
0
 48
50.0
100
AcDbBlockBegin
  2
*D45
 70
     1
 10
0.0
 20
0.0
 30
0.0
  3
*D45
  1

  0
LINE
  5
1A7E8
330
1A7E6
100
AcDbEntity
  8
寸法
 62
     0
 48
50.0
370
    -2
100
AcDbLine
 10
4635.137356964972
 20
9475.997427244898
 30
0.0
 11
4986.978717225809
 21
9475.997427244898
 31
0.0
  0
LINE
  5
1A7E9
330
1A7E6
100
AcDbEntity
  8
寸法
 62
     0
 48
50.0
370
    -2
100
AcDbLine
 10
4665.137356965207
 20
10192.49742724505
 30
0.0
 11
4986.978717225809
 21
10192.49742724505
 31
0.0
  0
LINE
  5
1A7EA
330
1A7E6
100
AcDbEntity
  8
寸法
 62
     0
 48
50.0
370
    -2
100
AcDbLine
 10
4926.978717225809
 20
9475.997427244898
 30
0.0
 11
4926.978717225809
 21
10192.49742724505
 31
0.0
  0
INSERT
  5
1A7EB
330
1A7E6
100
AcDbEntity
  8
寸法
 62
     0
 48
50.0
370
    -2
100
AcDbBlockReference
  2
_DOTSMALL
 10
4926.978717225809
 20
9475.997427244898
 30
0.0
 41
100.0
 42
100.0
 43
100.0
 50
270.0
  0
INSERT
  5
1A7EC
330
1A7E6
100
AcDbEntity
  8
寸法
 62
     0
 48
50.0
370
    -2
100
AcDbBlockReference
  2
_DOTSMALL
 10
4926.978717225809
 20
10192.49742724505
 30
0.0
 41
100.0
 42
100.0
 43
100.0
 50
90.0
  0
MTEXT
  5
1A7ED
330
1A7E6
100
AcDbEntity
  8
寸法
 62
     7
 48
50.0
100
AcDbMText
 10
4826.978717225808
 20
9931.583688491402
 30
0.0
 40
120.0
 41
0.0
 71
     5
 72
     1
  1
\A1;716.5
  7
STYLE1
 11
0.0000000000000001
 21
1.0
 31
0.0
 73
     1
 44
1.0
1001
ACAD
1000
MTEXTBEGIN
1070
    73
1070
     1
1070
    44
1040
1.0
1070
    74
1070
     0
1000
MTEXTEND
  0
POINT
  5
1A7EE
330
1A7E6
100
AcDbEntity
  8
DEFPOINTS
 62
     0
 48
50.0
100
AcDbPoint
 10
4615.137356964972
 20
9475.997427244898
 30
0.0
  0
POINT
  5
1A7EF
330
1A7E6
100
AcDbEntity
  8
DEFPOINTS
 62
     0
 48
50.0
100
AcDbPoint
 10
4645.137356965206
 20
10192.49742724505
 30
0.0
  0
POINT
  5
1A7F0
330
1A7E6
100
AcDbEntity
  8
DEFPOINTS
 62
     0
 48
50.0
100
AcDbPoint
 10
4926.978717225809
 20
10192.49742724505
 30
0.0
  0
ENDBLK
  5
1A7F1
330
1A7E6
100
AcDbEntity
  8
0
 48
50.0
100
AcDbBlockEnd
  0
BLOCK
  5
1A7FA
330
1A7F2
100
AcDbEntity
  8
0
 48
50.0
100
AcDbBlockBegin
  2
A$C503D65AF
 70
     0
 10
0.0
 20
0.0
 30
0.0
  3
A$C503D65AF
  1

  0
DIMENSION
  5
1A7F3
330
1A7F2
100
AcDbEntity
  8
寸法
 48
50.0
100
AcDbDimension
  2
*D45
 10
336.8413602606288
 20
28.00000269908378
 30
0.0
 11
336.8413602606279
 21
-232.9137360545665
 31
0.0
 12
-4590.13735696518
 22
-10164.49742454597
 32
0.0
 70
   128
 71
     5
 42
716.5000000001546
  3
INABA_S40G
100
AcDbAlignedDimension
 13
24.99999999979173
 23
-688.4999973010708
 33
0.0
 14
55.00000000002637
 24
28.00000269908378
 34
0.0
 50
90.0
100
AcDbRotatedDimension
1001
ACAD
1000
DSTYLE
1002
{
1070
   174
1070
     0
1070
   272
1070
     1
1070
   341
1005
0
1002
}
  0
LINE
  5
1A7F4
330
1A7F2
100
AcDbEntity
  8
部品1
 48
50.0
100
AcDbLine
 10
-25.00000000020828
 20
-27.00000087809167
 30
0.0
 11
-25.00000000020828
 21
-688.5000008780917
 31
0.0
  0
LINE
  5
1A7F5
330
1A7F2
100
AcDbEntity
  8
部品1
 48
50.0
100
AcDbLine
 10
24.99999999979173
 20
-688.5000008780917
 30
0.0
 11
24.99999999979173
 21
-27.00000087809167
 31
0.0
  0
LINE
  5
1A7F6
330
1A7F2
100
AcDbEntity
  8
部品1
100
AcDbLine
 10
24.99999999979173
 20
-451.6759843149448
 30
0.0
 11
-25.00000000021009
 21
-446.5000008780917
 31
0.0
  0
LINE
  5
1A7F7
330
1A7F2
100
AcDbEntity
  8
部品1
100
AcDbLine
 10
24.99999999979173
 20
-411.3240174412367
 30
0.0
 11
-25.00000000021009
 21
-416.5000008780916
 31
0.0
  0
LINE
  5
1A7F8
330
1A7F2
100
AcDbEntity
  8
部品1
100
AcDbLine
 10
-25.00000000020828
 20
-606.5000008780916
 30
0.0
 11
24.99999999978991
 21
-593.7881364713139
 31
0.0
  0
LINE
  5
1A7F9
330
1A7F2
100
AcDbEntity
  8
部品1
 48
50.0
100
AcDbLine
 10
-25.00000000020828
 20
-688.5000008780917
 30
0.0
 11
24.99999999979173
 21
-688.5000008780917
 31
0.0
  0
ENDBLK
  5
1A7FB
330
1A7F2
100
AcDbEntity
  8
0
 48
50.0
100
AcDbBlockEnd
  0
BLOCK
  5
1A80E
330
1A804
100
AcDbEntity
  8
0
 48
50.0
100
AcDbBlockBegin
  2
*D47
 70
     1
 10
0.0
 20
0.0
 30
0.0
  3
*D47
  1

  0
LINE
  5
1A810
330
1A804
100
AcDbEntity
  8
寸法
 62
     0
 48
50.0
370
    -2
100
AcDbLine
 10
4283.193830406538
 20
9055.997427244841
 30
0.0
 11
4635.035190667375
 21
9055.997427244841
 31
0.0
  0
LINE
  5
1A811
330
1A804
100
AcDbEntity
  8
寸法
 62
     0
 48
50.0
370
    -2
100
AcDbLine
 10
4313.193830406772
 20
9772.497427244998
 30
0.0
 11
4635.035190667375
 21
9772.497427244998
 31
0.0
  0
LINE
  5
1A812
330
1A804
100
AcDbEntity
  8
寸法
 62
     0
 48
50.0
370
    -2
100
AcDbLine
 10
4575.035190667374
 20
9055.997427244841
 30
0.0
 11
4575.035190667374
 21
9772.497427244998
 31
0.0
  0
INSERT
  5
1A813
330
1A804
100
AcDbEntity
  8
寸法
 62
     0
 48
50.0
370
    -2
100
AcDbBlockReference
  2
_DOTSMALL
 10
4575.035190667374
 20
9055.997427244841
 30
0.0
 41
100.0
 42
100.0
 43
100.0
 50
270.0
  0
INSERT
  5
1A814
330
1A804
100
AcDbEntity
  8
寸法
 62
     0
 48
50.0
370
    -2
100
AcDbBlockReference
  2
_DOTSMALL
 10
4575.035190667374
 20
9772.497427244998
 30
0.0
 41
100.0
 42
100.0
 43
100.0
 50
90.0
  0
MTEXT
  5
1A815
330
1A804
100
AcDbEntity
  8
寸法
 62
     7
 48
50.0
100
AcDbMText
 10
4475.035190667374
 20
9511.583688491347
 30
0.0
 40
120.0
 41
0.0
 71
     5
 72
     1
  1
\A1;716.5
  7
STYLE1
 11
0.0000000000000001
 21
1.0
 31
0.0
 73
     1
 44
1.0
1001
ACAD
1000
MTEXTBEGIN
1070
    73
1070
     1
1070
    44
1040
1.0
1070
    74
1070
     0
1000
MTEXTEND
  0
POINT
  5
1A816
330
1A804
100
AcDbEntity
  8
DEFPOINTS
 62
     0
 48
50.0
100
AcDbPoint
 10
4263.193830406538
 20
9055.997427244841
 30
0.0
  0
POINT
  5
1A817
330
1A804
100
AcDbEntity
  8
DEFPOINTS
 62
     0
 48
50.0
100
AcDbPoint
 10
4293.193830406773
 20
9772.497427244998
 30
0.0
  0
POINT
  5
1A818
330
1A804
100
AcDbEntity
  8
DEFPOINTS
 62
     0
 48
50.0
100
AcDbPoint
 10
4575.035190667374
 20
9772.497427244998
 30
0.0
  0
ENDBLK
  5
1A80F
330
1A804
100
AcDbEntity
  8
0
 48
50.0
100
AcDbBlockEnd
  0
ENDSEC
  0
SECTION
  2
ENTITIES
  0
MTEXT
  5
763F
330
747D
100
AcDbEntity
  8
0
100
AcDbMText
 10
302.846345836809
 20
280.1983726409901
 30
0.0
 40
3.5
 41
5.323721266742722
 71
     1
 72
     5
  1

  7
MSMINCHO
 73
     1
 44
1.0
1001
ACAD
1000
MTEXTBEGIN
1070
    73
1070
     1
1070
    44
1040
1.0
1070
    74
1070
     0
1000
MTEXTEND
  0
LINE
  5
10B57
330
747D
100
AcDbEntity
  8
補助
  6
PHANTOM
 62
   230
 48
50.0
100
AcDbLine
 10
139.9999999999995
 20
11409.6
 30
0.0
 11
16307.2
 21
11409.6
 31
0.0
  0
LINE
  5
10B59
330
747D
100
AcDbEntity
  8
仕様書枠
  6
Continuous
 48
50.0
100
AcDbLine
 10
13107.2
 20
1200.0
 30
0.0
 11
13107.2
 21
-0.0000000000000729
 31
0.0
  0
LINE
  5
10B5C
330
747D
100
AcDbEntity
  8
仕様書枠
 48
50.0
100
AcDbLine
 10
16307.2
 20
1200.0
 30
0.0
 11
16307.2
 21
-0.0000000000000909
 31
0.0
  0
LINE
  5
10B5D
330
747D
100
AcDbEntity
  8
仕様書枠
 48
50.0
100
AcDbLine
 10
140.0
 20
0.0
 30
0.0
 11
16307.2
 21
-0.0000000000000909
 31
0.0
  0
LINE
  5
10B5E
330
747D
100
AcDbEntity
  8
補助
  6
PHANTOM
 62
   230
 48
50.0
100
AcDbLine
 10
16307.2
 20
11409.6
 30
0.0
 11
16307.2
 21
1200.0
 31
0.0
  0
LINE
  5
10B6C
330
747D
100
AcDbEntity
  8
仕様書枠
 48
50.0
100
AcDbLine
 10
13107.2
 20
1200.0
 30
0.0
 11
16307.2
 21
1200.0
 31
0.0
  0
LINE
  5
10B6D
330
747D
100
AcDbEntity
  8
補助
  6
PHANTOM
 62
   230
 48
50.0
100
AcDbLine
 10
13107.2
 20
11409.6
 30
0.0
 11
13107.2
 21
4800.0
 31
0.0
  0
LINE
  5
10B6F
330
747D
100
AcDbEntity
  8
補助
  6
PHANTOM
 62
   230
 48
50.0
100
AcDbLine
 10
13107.2
 20
4800.0
 30
0.0
 11
16307.2
 21
4800.0
 31
0.0
  0
LINE
  5
10B72
330
747D
100
AcDbEntity
  8
文字
 62
     7
 48
50.0
100
AcDbLine
 10
13187.2
 20
400.0
 30
0.0
 11
16227.2
 21
400.0
 31
0.0
  0
TEXT
  5
10B73
330
747D
100
AcDbEntity
  8
文字
 62
     7
 48
50.0
100
AcDbText
 10
13162.9790565769
 20
895.0906074299405
 30
0.0
 40
200.0
  1
外 形 図
  7
STYLE2
100
AcDbText
  0
TEXT
  5
10B74
330
747D
100
AcDbEntity
  8
文字
 62
     7
 48
50.0
100
AcDbText
 10
13201.43669998441
 20
477.2740661031255
 30
0.0
 40
160.0
  1
機種名
  7
STYLE2
100
AcDbText
  0
TEXT
  5
10B75
330
747D
100
AcDbEntity
  8
文字
 62
     7
 48
50.0
100
AcDbText
 10
13209.4053442172
 20
228.5435242569016
 30
0.0
 40
100.0
  1
○有効開口寸法 ： 2844×1886(mm)
  7
STYLE2
100
AcDbText
  0
TEXT
  5
10B76
330
747D
100
AcDbEntity
  8
文字
 62
     7
 48
50.0
100
AcDbText
 10
13209.4053442172
 20
76.09434707649343
 30
0.0
 40
100.0
  1
○床面積 ： Ｎ［連続数］×8.02㎡(2.43坪)
  7
STYLE2
100
AcDbText
  0
TEXT
  5
10B79
330
747D
100
AcDbEntity
  8
文字
 62
     7
 48
50.0
100
AcDbText
 10
14524.131837222
 20
1031.557706291228
 30
0.0
 40
100.0
  1
NO.54      <縮尺> S=1/40
  7
STYLE2
100
AcDbText
  0
LINE
  5
10B7B
330
747D
100
AcDbEntity
  8
仕様書枠
 48
50.0
100
AcDbLine
 10
13107.2
 20
800.0
 30
0.0
 11
14251.2
 21
800.0
 31
0.0
  0
LINE
  5
10B88
330
747D
100
AcDbEntity
  8
仕様書枠
  6
Continuous
 48
50.0
100
AcDbLine
 10
14251.2
 20
1200.0
 30
0.0
 11
14251.2
 21
800.0
 31
0.0
  0
DIMENSION
  5
162CD
330
747D
100
AcDbEntity
  8
寸法
100
AcDbDimension
  2
*D1
 10
10985.62017614119
 20
7197.497424545952
 30
0.0
 11
10885.60836511756
 21
8457.497424545961
 31
0.0
 70
    32
  1
6X420=<>
 71
     5
 42
2520.000000000014
  3
INABA_S40G
100
AcDbAlignedDimension
 13
10338.19383040678
 23
9717.497424545967
 33
0.0
 14
10338.19383040675
 24
7197.497424545952
 34
0.0
 50
90.0
100
AcDbRotatedDimension
1001
ACAD
1000
DSTYLE
1002
{
1002
}
  0
DIMENSION
  5
162CE
330
747D
100
AcDbEntity
  8
寸法
100
AcDbDimension
  2
*D2
 10
10985.62017614117
 20
7142.497424545957
 30
0.0
 11
10985.62017614116
 21
6764.635957641094
 31
0.0
 70
   160
 71
     5
 42
54.99999999999636
  3
INABA_S40G
100
AcDbAlignedDimension
 13
10338.19383040675
 23
7197.497424545952
 33
0.0
 14
10338.19383040675
 24
7142.497424545957
 34
0.0
 50
90.0
100
AcDbRotatedDimension
1001
ACAD
1000
DSTYLE
1002
{
1002
}
  0
DIMENSION
  5
162CF
330
747D
100
AcDbEntity
  8
寸法
100
AcDbDimension
  2
*D3
 10
10985.62017614119
 20
9717.497424545967
 30
0.0
 11
10985.62017614119
 21
10080.9827059202
 31
0.0
 70
   160
 71
     5
 42
54.99999999999636
  3
INABA_S40G
100
AcDbAlignedDimension
 13
10338.19383040678
 23
9772.497424545964
 33
0.0
 14
10338.19383040678
 24
9717.497424545967
 34
0.0
 50
90.0
100
AcDbRotatedDimension
1001
ACAD
1000
DSTYLE
1002
{
1002
}
  0
DIMENSION
  5
162D0
330
747D
100
AcDbEntity
  8
寸法
100
AcDbDimension
  2
*D4
 10
11350.72711788082
 20
7142.497424545957
 30
0.0
 11
11250.7153068572
 21
8457.497424545961
 31
0.0
 70
    32
 71
     5
 42
2630.000000000006
  3
INABA_S40G
100
AcDbAlignedDimension
 13
10338.19383040678
 23
9772.497424545964
 33
0.0
 14
10338.19383040675
 24
7142.497424545957
 34
0.0
 50
90.0
100
AcDbRotatedDimension
1001
ACAD
1000
DSTYLE
1002
{
1002
}
  0
LINE
  5
162D1
330
747D
100
AcDbEntity
  8
細線
 48
50.0
100
AcDbLine
 10
8799.693830406781
 20
9292.497424545976
 30
0.0
 11
7316.693830406781
 21
9742.497424545868
 31
0.0
  0
LINE
  5
162D2
330
747D
100
AcDbEntity
  8
細線
 48
50.0
100
AcDbLine
 10
8799.693830406781
 20
9742.497424545971
 30
0.0
 11
7316.693830406781
 21
9292.497424545869
 31
0.0
  0
LINE
  5
162D3
330
747D
100
AcDbEntity
  8
部品1
 48
50.0
100
AcDbLine
 10
1216.693830406781
 20
9742.497424545867
 30
0.0
 11
1216.693830406781
 21
9292.497424545866
 31
0.0
  0
LINE
  5
162D4
330
747D
100
AcDbEntity
  8
細線
 48
50.0
100
AcDbLine
 10
10309.69383040678
 20
9742.497424545964
 30
0.0
 11
8826.69383040678
 21
9292.497424545976
 31
0.0
  0
LINE
  5
162D5
330
747D
100
AcDbEntity
  8
細線
 48
50.0
100
AcDbLine
 10
10309.69383040678
 20
9292.497424545967
 30
0.0
 11
8826.69383040678
 21
9742.497424545968
 31
0.0
  0
LINE
  5
162D6
330
747D
100
AcDbEntity
  8
部品1
 48
50.0
100
AcDbLine
 10
8799.693830406781
 20
9742.497424545971
 30
0.0
 11
8799.693830406781
 21
9292.497424545976
 31
0.0
  0
LINE
  5
162D7
330
747D
100
AcDbEntity
  8
部品1
 48
50.0
100
AcDbLine
 10
8826.69383040678
 20
9742.497424545968
 30
0.0
 11
8826.69383040678
 21
9292.497424545976
 31
0.0
  0
LINE
  5
162D8
330
747D
100
AcDbEntity
  8
部品1
 48
50.0
100
AcDbLine
 10
8800.693830406782
 20
9744.497424545977
 30
0.0
 11
8800.693830406782
 21
9292.497424545976
 31
0.0
  0
LINE
  5
162D9
330
747D
100
AcDbEntity
  8
部品1
 48
50.0
100
AcDbLine
 10
8825.693830406782
 20
9744.497424545976
 30
0.0
 11
8825.693830406782
 21
9292.497424545976
 31
0.0
  0
DIMENSION
  5
162DA
330
747D
100
AcDbEntity
  8
寸法
100
AcDbDimension
  2
*D5
 10
10665.0515562688
 20
9197.279608877078
 30
0.0
 11
10565.0515562688
 21
9422.279608877078
 31
0.0
 70
    32
 71
     5
 42
449.9999999999963
  3
INABA_S40G
100
AcDbAlignedDimension
 13
10309.69383040678
 23
9742.497424545964
 33
0.0
 14
10309.69383040678
 24
9292.497424545967
 34
0.0
 50
90.0
100
AcDbRotatedDimension
1001
ACAD
1000
DSTYLE
1002
{
1002
}
  0
LINE
  5
162DB
330
747D
100
AcDbEntity
  8
部品1
100
AcDbLine
 10
10309.69383040678
 20
9742.497424545964
 30
0.0
 11
10309.69383040678
 21
9292.497424545967
 31
0.0
  0
LINE
  5
162DC
330
747D
100
AcDbEntity
  8
部品1
100
AcDbLine
 10
10310.19383040676
 20
9744.497424545963
 30
0.0
 11
10310.19383040676
 21
7197.497424545952
 31
0.0
  0
LINE
  5
162DD
330
747D
100
AcDbEntity
  8
部品1
100
AcDbLine
 10
1216.193830406757
 20
7197.497424545821
 30
0.0
 11
1216.193830406768
 21
9744.497424545871
 31
0.0
  0
LINE
  5
162DE
330
747D
100
AcDbEntity
  8
部品1
100
AcDbLine
 10
10338.19383040678
 20
9772.497424545964
 30
0.0
 11
10338.19383040675
 21
7142.497424545957
 31
0.0
  0
LINE
  5
162DF
330
747D
100
AcDbEntity
  8
部品1
100
AcDbLine
 10
1188.193830406748
 20
9772.497424545838
 30
0.0
 11
1188.193830406775
 21
7142.497424545826
 31
0.0
  0
LINE
  5
162E3
330
747D
100
AcDbEntity
  8
部品1
100
AcDbLine
 10
7316.693830406783
 20
9292.497424545869
 30
0.0
 11
8799.693830406781
 21
9292.497424545976
 31
0.0
  0
DIMENSION
  5
162E4
330
747D
100
AcDbEntity
  8
寸法
 48
50.0
100
AcDbDimension
  2
*D6
 10
7391.193830406776
 20
6608.0666537797
 30
0.0
 11
8813.193830406765
 21
6708.078464803323
 31
0.0
 70
    32
  1
有効開口部間口 <>
 71
     5
 42
2843.999999999982
  3
INABA_S40G
100
AcDbAlignedDimension
 13
10235.19383040675
 23
7168.497424545865
 33
0.0
 14
7391.193830406776
 24
7168.497424545865
 34
0.0
100
AcDbRotatedDimension
1001
ACAD
1000
DSTYLE
1002
{
1070
    75
1070
     1
1070
   279
1070
     2
1002
}
  0
LINE
  5
162E6
330
747D
100
AcDbEntity
  8
部品1
 48
50.0
100
AcDbLine
 10
7355.193830406773
 20
7187.997424545864
 30
0.0
 11
10271.19383040676
 21
7187.997424545864
 31
0.0
  0
DIMENSION
  5
162E7
330
747D
100
AcDbEntity
  8
寸法
100
AcDbDimension
  2
*D7
 10
10338.19383040674
 20
6161.893658188827
 30
0.0
 11
5763.193830406761
 21
6261.893658188826
 31
0.0
 70
    32
  1
N X 3050
 71
     5
 42
9149.999999999971
  3
INABA_S40G
100
AcDbAlignedDimension
 13
1188.193830406775
 23
7142.497424545862
 33
0.0
 14
10338.19383040674
 24
7142.497424545957
 34
0.0
100
AcDbRotatedDimension
1001
ACAD
1000
DSTYLE
1002
{
1002
}
  0
LINE
  5
162E8
330
747D
100
AcDbEntity
  8
部品1
100
AcDbLine
 10
1243.193830406759
 20
9292.497424545871
 30
0.0
 11
1243.193830406773
 21
7207.497424545863
 31
0.0
  0
DIMENSION
  5
162EA
330
747D
100
AcDbEntity
  8
寸法
 48
50.0
100
AcDbDimension
  2
*D8
 10
1188.193830406775
 20
6608.0666537797
 30
0.0
 11
879.7085490325367
 21
6608.0666537797
 31
0.0
 70
   160
 71
     5
 42
54.99999999999636
  3
INABA_S40G
100
AcDbAlignedDimension
 13
1243.193830406772
 23
7142.497424545865
 33
0.0
 14
1188.193830406775
 24
7142.497424545862
 34
0.0
100
AcDbRotatedDimension
1001
ACAD
1000
DSTYLE
1002
{
1002
}
  0
DIMENSION
  5
162EB
330
747D
100
AcDbEntity
  8
寸法
 48
50.0
100
AcDbDimension
  2
*D9
 10
7343.193830406772
 20
6608.0666537797
 30
0.0
 11
7504.095801406832
 21
6708.0666537797
 31
0.0
 70
   160
 71
     5
 42
48.00000000000363
  3
INABA_S40G
100
AcDbAlignedDimension
 13
7391.193830406776
 23
7168.497424545865
 33
0.0
 14
7343.193830406772
 24
7142.497424545865
 34
0.0
100
AcDbRotatedDimension
1001
ACAD
1000
DSTYLE
1002
{
1070
   279
1070
     2
1002
}
  0
LINE
  5
162EC
330
747D
100
AcDbEntity
  8
部品1
100
AcDbLine
 10
1243.19383040677
 20
7142.497424545865
 30
0.0
 11
1188.193830406775
 21
7142.497424545862
 31
0.0
  0
LINE
  5
162ED
330
747D
100
AcDbEntity
  8
部品1
 48
50.0
100
AcDbLine
 10
1243.193830406775
 20
7178.497424545864
 30
0.0
 11
1220.193830406775
 21
7178.497424545864
 31
0.0
  0
LINE
  5
162EE
330
747D
100
AcDbEntity
  8
部品1
 48
50.0
100
AcDbLine
 10
1253.193830406775
 20
7168.497424545865
 30
0.0
 11
1243.193830406775
 21
7147.497424545865
 31
0.0
  0
LINE
  5
162EF
330
747D
100
AcDbEntity
  8
部品1
 48
50.0
100
AcDbLine
 10
1243.193830406775
 20
7207.497424545863
 30
0.0
 11
1243.193830406772
 21
7142.497424545865
 31
0.0
  0
LINE
  5
162F0
330
747D
100
AcDbEntity
  8
部品1
 48
50.0
100
AcDbLine
 10
1291.193830406775
 20
7168.497424545865
 30
0.0
 11
1291.193830406775
 21
7177.497424545865
 31
0.0
  0
LINE
  5
162F1
330
747D
100
AcDbEntity
  8
部品1
 48
50.0
100
AcDbLine
 10
1291.193830406775
 20
7207.497424545865
 30
0.0
 11
1291.193830406775
 21
7198.497424545866
 31
0.0
  0
LINE
  5
162F2
330
747D
100
AcDbEntity
  8
部品1
100
AcDbLine
 10
1291.193830406775
 20
7207.497424545865
 30
0.0
 11
1243.193830406775
 21
7207.497424545865
 31
0.0
  0
LINE
  5
162F3
330
747D
100
AcDbEntity
  8
部品1
100
AcDbLine
 10
1291.193830406775
 20
7168.497424545865
 30
0.0
 11
1243.193830406775
 21
7168.497424545865
 31
0.0
  0
LINE
  5
162F4
330
747D
100
AcDbEntity
  8
部品1
100
AcDbLine
 10
1243.193830406773
 20
7178.497424545864
 30
0.0
 11
1220.193830406775
 21
7178.497424545864
 31
0.0
  0
LINE
  5
162F5
330
747D
100
AcDbEntity
  8
部品1
100
AcDbLine
 10
1243.193830406773
 20
7197.497424545789
 30
0.0
 11
1188.193830406773
 21
7197.497424545789
 31
0.0
  0
LINE
  5
162F6
330
747D
100
AcDbEntity
  8
部品1
100
AcDbLine
 10
1216.193830406757
 20
7197.497424545826
 30
0.0
 11
1188.193830406773
 21
7197.497424545826
 31
0.0
  0
LINE
  5
162F7
330
747D
100
AcDbEntity
  8
部品1
100
AcDbLine
 10
1216.193830406773
 20
7197.49742454584
 30
0.0
 11
1188.193830406773
 21
7197.49742454584
 31
0.0
  0
LINE
  5
162FB
330
747D
100
AcDbEntity
  8
部品1
100
AcDbLine
 10
1216.193830406762
 20
8457.49742454584
 30
0.0
 11
1188.193830406762
 21
8457.49742454584
 31
0.0
  0
LINE
  5
162FC
330
747D
100
AcDbEntity
  8
部品1
100
AcDbLine
 10
1216.193830406762
 20
8877.49742454584
 30
0.0
 11
1188.193830406762
 21
8877.49742454584
 31
0.0
  0
LINE
  5
162FE
330
747D
100
AcDbEntity
  8
部品1
100
AcDbLine
 10
1216.193830406755
 20
9297.49742454584
 30
0.0
 11
1188.193830406755
 21
9297.49742454584
 31
0.0
  0
LINE
  5
162FF
330
747D
100
AcDbEntity
  8
部品1
100
AcDbLine
 10
10283.19383040677
 20
9292.497424545969
 30
0.0
 11
10283.19383040676
 21
7142.497424545952
 31
0.0
  0
DIMENSION
  5
16301
330
747D
100
AcDbEntity
  8
寸法
 48
50.0
100
AcDbDimension
  2
*D10
 10
10235.19383040675
 20
6608.0666537797
 30
0.0
 11
10124.23093275801
 21
6708.0666537797
 31
0.0
 70
   160
 71
     5
 42
48.00000000000181
  3
INABA_S40G
100
AcDbAlignedDimension
 13
10283.19383040676
 23
7142.497424545952
 33
0.0
 14
10235.19383040675
 24
7168.497424545865
 34
0.0
100
AcDbRotatedDimension
1001
ACAD
1000
DSTYLE
1002
{
1070
   279
1070
     2
1002
}
  0
DIMENSION
  5
16302
330
747D
100
AcDbEntity
  8
寸法
 48
50.0
100
AcDbDimension
  2
*D11
 10
10283.19383040676
 20
6608.066653779701
 30
0.0
 11
10646.67911178099
 21
6608.066653779701
 31
0.0
 70
   160
 71
     5
 42
54.99999999999818
  3
INABA_S40G
100
AcDbAlignedDimension
 13
10338.19383040675
 23
7142.497424545957
 33
0.0
 14
10283.19383040676
 24
7142.497424545952
 34
0.0
100
AcDbRotatedDimension
1001
ACAD
1000
DSTYLE
1002
{
1002
}
  0
LINE
  5
16303
330
747D
100
AcDbEntity
  8
部品1
 48
50.0
100
AcDbLine
 10
10273.19383040675
 20
7168.497424545865
 30
0.0
 11
10283.19383040676
 21
7147.497424545865
 31
0.0
  0
LINE
  5
16304
330
747D
100
AcDbEntity
  8
部品1
100
AcDbLine
 10
10235.19383040675
 20
7207.497424545865
 30
0.0
 11
10283.19383040676
 21
7207.497424545865
 31
0.0
  0
LINE
  5
16305
330
747D
100
AcDbEntity
  8
部品1
100
AcDbLine
 10
10235.19383040675
 20
7168.497424545865
 30
0.0
 11
10283.19383040676
 21
7168.497424545865
 31
0.0
  0
LINE
  5
16306
330
747D
100
AcDbEntity
  8
部品1
 48
50.0
100
AcDbLine
 10
10235.19383040675
 20
7207.497424545865
 30
0.0
 11
10235.19383040675
 21
7198.497424545866
 31
0.0
  0
LINE
  5
16307
330
747D
100
AcDbEntity
  8
部品1
 48
50.0
100
AcDbLine
 10
10235.19383040675
 20
7168.497424545865
 30
0.0
 11
10235.19383040675
 21
7177.497424545865
 31
0.0
  0
LINE
  5
16308
330
747D
100
AcDbEntity
  8
部品1
100
AcDbLine
 10
10283.19383040676
 20
7178.497424545861
 30
0.0
 11
10306.19383040676
 21
7178.497424545864
 31
0.0
  0
LINE
  5
16309
330
747D
100
AcDbEntity
  8
部品1
100
AcDbLine
 10
10283.19383040676
 20
7197.497424545968
 30
0.0
 11
10338.19383040679
 21
7197.497424545968
 31
0.0
  0
LINE
  5
1630A
330
747D
100
AcDbEntity
  8
部品1
100
AcDbLine
 10
10338.19383040675
 20
7142.497424545957
 30
0.0
 11
10283.19383040676
 21
7142.497424545952
 31
0.0
  0
LINE
  5
1630E
330
747D
100
AcDbEntity
  8
部品1
100
AcDbLine
 10
8826.69383040678
 20
9292.497424545976
 30
0.0
 11
10309.69383040678
 21
9292.497424545967
 31
0.0
  0
LINE
  5
16312
330
747D
100
AcDbEntity
  8
部品1
100
AcDbLine
 10
8800.693830406782
 20
9292.497424545976
 30
0.0
 11
8825.693830406782
 21
9292.497424545976
 31
0.0
  0
LINE
  5
16317
330
747D
100
AcDbEntity
  8
部品1
100
AcDbLine
 10
10310.19383040678
 20
8457.497424545968
 30
0.0
 11
10338.19383040678
 21
8457.497424545968
 31
0.0
  0
LINE
  5
16319
330
747D
100
AcDbEntity
  8
部品1
100
AcDbLine
 10
10310.19383040678
 20
8877.497424545968
 30
0.0
 11
10338.19383040678
 21
8877.497424545968
 31
0.0
  0
LINE
  5
1631A
330
747D
100
AcDbEntity
  8
部品1
100
AcDbLine
 10
10310.19383040678
 20
9297.497424545968
 30
0.0
 11
10338.19383040678
 21
9297.497424545968
 31
0.0
  0
LINE
  5
1631B
330
747D
100
AcDbEntity
  8
部品1
100
AcDbLine
 10
7316.193830406767
 20
9744.497424545983
 30
0.0
 11
8800.693830406782
 21
9744.497424545986
 31
0.0
  0
LINE
  5
1631D
330
747D
100
AcDbEntity
  8
部品1
100
AcDbLine
 10
1188.19383040678
 20
9772.49742454587
 30
0.0
 11
10338.19383040678
 21
9772.497424545965
 31
0.0
  0
LINE
  5
1631E
330
747D
100
AcDbEntity
  8
部品1
100
AcDbLine
 10
7316.693830406781
 20
9742.497424545868
 30
0.0
 11
8799.693830406781
 21
9742.497424545975
 31
0.0
  0
DIMENSION
  5
1631F
330
747D
100
AcDbEntity
  8
寸法
100
AcDbDimension
  2
*D12
 10
10283.19383040678
 20
10188.30564417096
 30
0.0
 11
8813.193830406781
 21
10288.31745519459
 31
0.0
 70
    32
  1
7X420=<>
 71
     5
 42
2940.000000000002
  3
INABA_S40G
100
AcDbAlignedDimension
 13
7343.193830406781
 23
9772.49742454587
 33
0.0
 14
10283.19383040678
 24
9772.497424545964
 34
0.0
100
AcDbRotatedDimension
1001
ACAD
1000
DSTYLE
1002
{
1002
}
  0
DIMENSION
  5
16320
330
747D
100
AcDbEntity
  8
寸法
100
AcDbDimension
  2
*D13
 10
1243.193830406781
 20
10188.30564417085
 30
0.0
 11
879.7085490325081
 21
10188.30564417085
 31
0.0
 70
   160
 71
     5
 42
55.00000000003274
  3
INABA_S40G
100
AcDbAlignedDimension
 13
1188.193830406748
 23
9772.49742454587
 33
0.0
 14
1243.193830406781
 24
9772.49742454587
 34
0.0
100
AcDbRotatedDimension
1001
ACAD
1000
DSTYLE
1002
{
1002
}
  0
LINE
  5
16321
330
747D
100
AcDbEntity
  8
部品1
100
AcDbLine
 10
1243.193830406748
 20
9772.497424545838
 30
0.0
 11
1243.193830406748
 21
9744.497424545837
 31
0.0
  0
LINE
  5
16322
330
747D
100
AcDbEntity
  8
部品1
100
AcDbLine
 10
1243.193830406781
 20
9772.49742454587
 30
0.0
 11
1243.193830406781
 21
9744.497424545869
 31
0.0
  0
LINE
  5
16323
330
747D
100
AcDbEntity
  8
部品1
100
AcDbLine
 10
1216.193830406748
 20
9717.49742454584
 30
0.0
 11
1188.193830406748
 21
9717.49742454584
 31
0.0
  0
LINE
  5
16324
330
747D
100
AcDbEntity
  8
部品1
100
AcDbLine
 10
8183.19383040678
 20
9772.497424545987
 30
0.0
 11
8183.19383040678
 21
9744.497424545986
 31
0.0
  0
LINE
  5
16325
330
747D
100
AcDbEntity
  8
部品1
100
AcDbLine
 10
8183.19383040678
 20
9772.49742454587
 30
0.0
 11
8183.19383040678
 21
9744.497424545869
 31
0.0
  0
LINE
  5
16326
330
747D
100
AcDbEntity
  8
部品1
100
AcDbLine
 10
8183.19383040678
 20
9772.49742454587
 30
0.0
 11
8183.19383040678
 21
9744.497424545869
 31
0.0
  0
LINE
  5
16327
330
747D
100
AcDbEntity
  8
部品1
100
AcDbLine
 10
8825.693830406782
 20
9744.497424545983
 30
0.0
 11
10310.19383040678
 21
9744.497424545963
 31
0.0
  0
LINE
  5
16328
330
747D
100
AcDbEntity
  8
部品1
100
AcDbLine
 10
8826.69383040678
 20
9742.497424545971
 30
0.0
 11
10309.69383040678
 21
9742.497424545964
 31
0.0
  0
LINE
  5
16329
330
747D
100
AcDbEntity
  8
部品1
100
AcDbLine
 10
8603.19383040678
 20
9772.497424545987
 30
0.0
 11
8603.19383040678
 21
9744.497424545986
 31
0.0
  0
LINE
  5
1632A
330
747D
100
AcDbEntity
  8
部品1
100
AcDbLine
 10
8603.19383040678
 20
9772.49742454587
 30
0.0
 11
8603.19383040678
 21
9744.497424545869
 31
0.0
  0
LINE
  5
1632B
330
747D
100
AcDbEntity
  8
部品1
100
AcDbLine
 10
8603.19383040678
 20
9772.49742454587
 30
0.0
 11
8603.19383040678
 21
9744.497424545869
 31
0.0
  0
LINE
  5
1632C
330
747D
100
AcDbEntity
  8
部品1
100
AcDbLine
 10
9023.19383040678
 20
9772.497424545987
 30
0.0
 11
9023.19383040678
 21
9744.497424545986
 31
0.0
  0
LINE
  5
1632D
330
747D
100
AcDbEntity
  8
部品1
100
AcDbLine
 10
8800.693830406782
 20
9736.497424545968
 30
0.0
 11
8825.693830406782
 21
9736.497424545971
 31
0.0
  0
LINE
  5
1632E
330
747D
100
AcDbEntity
  8
部品1
100
AcDbLine
 10
8842.193830406781
 20
9762.497424545971
 30
0.0
 11
8848.193830406781
 21
9762.497424545971
 31
0.0
  0
LINE
  5
1632F
330
747D
100
AcDbEntity
  8
部品1
100
AcDbLine
 10
8848.193830406781
 20
9762.497424545971
 30
0.0
 11
8848.193830406781
 21
9744.49742454597
 31
0.0
  0
LINE
  5
16330
330
747D
100
AcDbEntity
  8
部品1
100
AcDbLine
 10
8778.193830406781
 20
9762.497424545971
 30
0.0
 11
8784.193830406781
 21
9762.497424545971
 31
0.0
  0
LINE
  5
16331
330
747D
100
AcDbEntity
  8
部品1
100
AcDbLine
 10
8778.193830406781
 20
9762.497424545971
 30
0.0
 11
8778.193830406781
 21
9744.49742454597
 31
0.0
  0
LINE
  5
16332
330
747D
100
AcDbEntity
  8
部品1
100
AcDbLine
 10
9443.193830406782
 20
9772.497424545987
 30
0.0
 11
9443.193830406782
 21
9744.497424545986
 31
0.0
  0
DIMENSION
  5
16333
330
747D
100
AcDbEntity
  8
寸法
100
AcDbDimension
  2
*D14
 10
10338.19383040678
 20
10188.30564417095
 30
0.0
 11
10646.67911178102
 21
10188.30564417095
 31
0.0
 70
   160
 71
     5
 42
55.0
  3
INABA_S40G
100
AcDbAlignedDimension
 13
10283.19383040678
 23
9772.497424545964
 33
0.0
 14
10338.19383040678
 24
9772.497424545964
 34
0.0
100
AcDbRotatedDimension
1001
ACAD
1000
DSTYLE
1002
{
1002
}
  0
LINE
  5
16334
330
747D
100
AcDbEntity
  8
部品1
100
AcDbLine
 10
9863.193830406782
 20
9772.497424545987
 30
0.0
 11
9863.193830406782
 21
9744.497424545986
 31
0.0
  0
LINE
  5
16335
330
747D
100
AcDbEntity
  8
部品1
100
AcDbLine
 10
10283.19383040678
 20
9772.497424545964
 30
0.0
 11
10283.19383040678
 21
9744.497424545963
 31
0.0
  0
LINE
  5
16336
330
747D
100
AcDbEntity
  8
部品1
100
AcDbLine
 10
10283.19383040678
 20
9772.497424545987
 30
0.0
 11
10283.19383040678
 21
9744.497424545986
 31
0.0
  0
LINE
  5
16337
330
747D
100
AcDbEntity
  8
部品1
100
AcDbLine
 10
10310.19383040678
 20
9717.497424545967
 30
0.0
 11
10338.19383040678
 21
9717.497424545967
 31
0.0
  0
DIMENSION
  5
1659A
330
747D
100
AcDbEntity
  8
寸法
 48
50.0
100
AcDbDimension
  2
*D16
 10
7185.193830406757
 20
6608.0666537797
 30
0.0
 11
7074.23093275801
 21
6708.0666537797
 31
0.0
 70
   160
 71
     5
 42
48.00000000000181
  3
INABA_S40G
100
AcDbAlignedDimension
 13
7233.193830406759
 23
7142.497424545952
 33
0.0
 14
7185.193830406757
 24
7168.497424545865
 34
0.0
100
AcDbRotatedDimension
1001
ACAD
1000
DSTYLE
1002
{
1070
   279
1070
     2
1002
}
  0
DIMENSION
  5
1659C
330
747D
100
AcDbEntity
  8
寸法
 48
50.0
100
AcDbDimension
  2
*D15
 10
1243.193830406772
 20
6608.0666537797
 30
0.0
 11
1404.095801406833
 21
6708.0666537797
 31
0.0
 70
   160
 71
     5
 42
48.00000000000363
  3
INABA_S40G
100
AcDbAlignedDimension
 13
1291.193830406775
 23
7168.497424545865
 33
0.0
 14
1243.193830406772
 24
7142.497424545865
 34
0.0
100
AcDbRotatedDimension
1001
ACAD
1000
DSTYLE
1002
{
1070
   279
1070
     2
1002
}
  0
DIMENSION
  5
165E9
330
747D
100
AcDbEntity
  8
寸法
 48
50.0
100
AcDbDimension
  2
*D17
 10
7233.193830406759
 20
6608.066653779701
 30
0.0
 11
7288.193830406766
 21
6456.37475874347
 31
0.0
 70
   160
 71
     5
 42
110.0000000000127
  3
INABA_S40G
100
AcDbAlignedDimension
 13
7343.193830406772
 23
7142.497424545865
 33
0.0
 14
7233.193830406759
 24
7142.497424545952
 34
0.0
100
AcDbRotatedDimension
1001
ACAD
1000
DSTYLE
1002
{
1070
   279
1070
     2
1002
}
  0
LINE
  5
16656
330
747D
100
AcDbEntity
  8
部品1
100
AcDbLine
 10
7185.193830406757
 20
7207.497424545865
 30
0.0
 11
7233.193830406759
 21
7207.497424545865
 31
0.0
  0
LINE
  5
16657
330
747D
100
AcDbEntity
  8
部品1
 48
50.0
100
AcDbLine
 10
7185.193830406757
 20
7207.497424545865
 30
0.0
 11
7185.193830406757
 21
7198.497424545866
 31
0.0
  0
LINE
  5
16658
330
747D
100
AcDbEntity
  8
部品1
100
AcDbLine
 10
7185.193830406757
 20
7168.497424545865
 30
0.0
 11
7233.193830406758
 21
7168.497424545865
 31
0.0
  0
LINE
  5
16659
330
747D
100
AcDbEntity
  8
部品1
 48
50.0
100
AcDbLine
 10
7185.193830406757
 20
7168.497424545865
 30
0.0
 11
7185.193830406757
 21
7177.497424545865
 31
0.0
  0
LINE
  5
1665A
330
747D
100
AcDbEntity
  8
部品1
 48
50.0
100
AcDbLine
 10
7223.193830406756
 20
7168.497424545865
 30
0.0
 11
7233.193830406758
 21
7147.497424545865
 31
0.0
  0
LINE
  5
1665B
330
747D
100
AcDbEntity
  8
部品1
100
AcDbLine
 10
7233.193830406758
 20
7178.497424545861
 30
0.0
 11
7256.193830406757
 21
7178.497424545864
 31
0.0
  0
LINE
  5
1665C
330
747D
100
AcDbEntity
  8
部品1
100
AcDbLine
 10
7391.193830406776
 20
7207.497424545865
 30
0.0
 11
7343.193830406775
 21
7207.497424545865
 31
0.0
  0
LINE
  5
1665D
330
747D
100
AcDbEntity
  8
部品1
 48
50.0
100
AcDbLine
 10
7391.193830406776
 20
7207.497424545865
 30
0.0
 11
7391.193830406776
 21
7198.497424545866
 31
0.0
  0
LINE
  5
1665E
330
747D
100
AcDbEntity
  8
部品1
100
AcDbLine
 10
7391.193830406776
 20
7168.497424545865
 30
0.0
 11
7343.193830406775
 21
7168.497424545865
 31
0.0
  0
LINE
  5
1665F
330
747D
100
AcDbEntity
  8
部品1
 48
50.0
100
AcDbLine
 10
7353.193830406775
 20
7168.497424545865
 30
0.0
 11
7343.193830406775
 21
7147.497424545865
 31
0.0
  0
LINE
  5
16660
330
747D
100
AcDbEntity
  8
部品1
100
AcDbLine
 10
7343.193830406774
 20
7178.497424545864
 30
0.0
 11
7320.193830406775
 21
7178.497424545864
 31
0.0
  0
LINE
  5
16661
330
747D
100
AcDbEntity
  8
部品1
 48
50.0
100
AcDbLine
 10
7343.193830406775
 20
7207.497424545863
 30
0.0
 11
7343.193830406772
 21
7142.497424545865
 31
0.0
  0
LINE
  5
16662
330
747D
100
AcDbEntity
  8
部品1
 48
50.0
100
AcDbLine
 10
7391.193830406776
 20
7168.497424545865
 30
0.0
 11
7391.193830406776
 21
7177.497424545865
 31
0.0
  0
LINE
  5
16663
330
747D
100
AcDbEntity
  8
部品1
100
AcDbLine
 10
7343.19383040677
 20
7142.497424545865
 30
0.0
 11
7233.193830406761
 21
7142.497424545858
 31
0.0
  0
LINE
  5
16664
330
747D
100
AcDbEntity
  8
部品1
 48
50.0
100
AcDbLine
 10
7233.193830406763
 20
7207.497424545953
 30
0.0
 11
7233.193830406759
 21
7142.497424545952
 31
0.0
  0
LINE
  5
16665
330
747D
100
AcDbEntity
  8
部品1
 48
50.0
100
AcDbLine
 10
7316.693830406781
 20
9742.497424545867
 30
0.0
 11
7316.693830406781
 21
9292.497424545866
 31
0.0
  0
LINE
  5
16666
330
747D
100
AcDbEntity
  8
部品1
100
AcDbLine
 10
7343.193830406781
 20
9772.49742454587
 30
0.0
 11
7343.193830406781
 21
9744.497424545869
 31
0.0
  0
LINE
  5
16668
330
747D
100
AcDbEntity
  8
細線
 48
50.0
100
AcDbLine
 10
7259.693830406783
 20
9742.497424545964
 30
0.0
 11
5776.693830406782
 21
9292.497424545976
 31
0.0
  0
LINE
  5
16669
330
747D
100
AcDbEntity
  8
細線
 48
50.0
100
AcDbLine
 10
7259.693830406783
 20
9292.497424545967
 30
0.0
 11
5776.693830406782
 21
9742.49742454597
 31
0.0
  0
LINE
  5
16670
330
747D
100
AcDbEntity
  8
細線
 48
50.0
100
AcDbLine
 10
5749.693830406781
 20
9292.497424545976
 30
0.0
 11
4266.69383040678
 21
9742.497424545868
 31
0.0
  0
LINE
  5
16671
330
747D
100
AcDbEntity
  8
細線
 48
50.0
100
AcDbLine
 10
5749.693830406781
 20
9742.497424545971
 30
0.0
 11
4266.69383040678
 21
9292.497424545869
 31
0.0
  0
LINE
  5
16672
330
747D
100
AcDbEntity
  8
部品1
100
AcDbLine
 10
4266.693830406782
 20
9292.497424545869
 30
0.0
 11
5749.693830406781
 21
9292.497424545976
 31
0.0
  0
LINE
  5
16677
330
747D
100
AcDbEntity
  8
部品1
 48
50.0
100
AcDbLine
 10
5749.693830406781
 20
9742.497424545971
 30
0.0
 11
5749.693830406781
 21
9292.497424545976
 31
0.0
  0
LINE
  5
16678
330
747D
100
AcDbEntity
  8
部品1
 48
50.0
100
AcDbLine
 10
5776.693830406781
 20
9742.497424545968
 30
0.0
 11
5776.693830406781
 21
9292.497424545976
 31
0.0
  0
LINE
  5
16679
330
747D
100
AcDbEntity
  8
部品1
 48
50.0
100
AcDbLine
 10
5750.693830406781
 20
9744.497424545977
 30
0.0
 11
5750.693830406781
 21
9292.497424545976
 31
0.0
  0
LINE
  5
1667A
330
747D
100
AcDbEntity
  8
部品1
 48
50.0
100
AcDbLine
 10
5775.693830406781
 20
9744.497424545976
 30
0.0
 11
5775.693830406781
 21
9292.497424545976
 31
0.0
  0
LINE
  5
1667B
330
747D
100
AcDbEntity
  8
部品1
100
AcDbLine
 10
5750.693830406781
 20
9292.497424545976
 30
0.0
 11
5775.693830406781
 21
9292.497424545976
 31
0.0
  0
LINE
  5
1667E
330
747D
100
AcDbEntity
  8
部品1
 48
50.0
100
AcDbLine
 10
1216.693830406781
 20
9742.497424545867
 30
0.0
 11
1216.693830406781
 21
9292.497424545866
 31
0.0
  0
LINE
  5
16680
330
747D
100
AcDbEntity
  8
部品1
100
AcDbLine
 10
5973.193830406781
 20
9772.497424545987
 30
0.0
 11
5973.193830406781
 21
9744.497424545986
 31
0.0
  0
LINE
  5
16681
330
747D
100
AcDbEntity
  8
部品1
100
AcDbLine
 10
5750.693830406781
 20
9736.497424545968
 30
0.0
 11
5775.693830406781
 21
9736.497424545971
 31
0.0
  0
LINE
  5
16682
330
747D
100
AcDbEntity
  8
部品1
100
AcDbLine
 10
5792.19383040678
 20
9762.497424545971
 30
0.0
 11
5798.193830406781
 21
9762.497424545971
 31
0.0
  0
LINE
  5
16683
330
747D
100
AcDbEntity
  8
部品1
100
AcDbLine
 10
5798.193830406781
 20
9762.497424545971
 30
0.0
 11
5798.193830406781
 21
9744.49742454597
 31
0.0
  0
LINE
  5
16684
330
747D
100
AcDbEntity
  8
部品1
100
AcDbLine
 10
5728.19383040678
 20
9762.497424545971
 30
0.0
 11
5734.19383040678
 21
9762.497424545971
 31
0.0
  0
LINE
  5
16685
330
747D
100
AcDbEntity
  8
部品1
100
AcDbLine
 10
5728.19383040678
 20
9762.497424545971
 30
0.0
 11
5728.19383040678
 21
9744.49742454597
 31
0.0
  0
LINE
  5
16688
330
747D
100
AcDbEntity
  8
部品1
100
AcDbLine
 10
4266.193830406768
 20
9744.497424545986
 30
0.0
 11
5750.693830406781
 21
9744.497424545986
 31
0.0
  0
LINE
  5
16689
330
747D
100
AcDbEntity
  8
部品1
100
AcDbLine
 10
4266.69383040678
 20
9742.497424545868
 30
0.0
 11
5749.693830406781
 21
9742.497424545975
 31
0.0
  0
LINE
  5
1668A
330
747D
100
AcDbEntity
  8
部品1
100
AcDbLine
 10
5133.193830406781
 20
9772.497424545987
 30
0.0
 11
5133.193830406781
 21
9744.497424545986
 31
0.0
  0
LINE
  5
1668B
330
747D
100
AcDbEntity
  8
部品1
100
AcDbLine
 10
5133.193830406781
 20
9772.49742454587
 30
0.0
 11
5133.193830406781
 21
9744.497424545869
 31
0.0
  0
LINE
  5
1668C
330
747D
100
AcDbEntity
  8
部品1
100
AcDbLine
 10
5133.193830406781
 20
9772.49742454587
 30
0.0
 11
5133.193830406781
 21
9744.497424545869
 31
0.0
  0
LINE
  5
1668D
330
747D
100
AcDbEntity
  8
部品1
100
AcDbLine
 10
5553.19383040678
 20
9772.497424545987
 30
0.0
 11
5553.19383040678
 21
9744.497424545986
 31
0.0
  0
LINE
  5
1668E
330
747D
100
AcDbEntity
  8
部品1
100
AcDbLine
 10
5553.19383040678
 20
9772.49742454587
 30
0.0
 11
5553.19383040678
 21
9744.497424545869
 31
0.0
  0
LINE
  5
1668F
330
747D
100
AcDbEntity
  8
部品1
100
AcDbLine
 10
5553.19383040678
 20
9772.49742454587
 30
0.0
 11
5553.19383040678
 21
9744.497424545869
 31
0.0
  0
LINE
  5
16690
330
747D
100
AcDbEntity
  8
部品1
100
AcDbLine
 10
6393.19383040678
 20
9772.497424545987
 30
0.0
 11
6393.19383040678
 21
9744.497424545986
 31
0.0
  0
LINE
  5
16691
330
747D
100
AcDbEntity
  8
部品1
100
AcDbLine
 10
6813.19383040678
 20
9772.497424545987
 30
0.0
 11
6813.19383040678
 21
9744.497424545986
 31
0.0
  0
LINE
  5
16692
330
747D
100
AcDbEntity
  8
部品1
100
AcDbLine
 10
7233.193830406783
 20
9772.497424545964
 30
0.0
 11
7233.193830406783
 21
9744.497424545963
 31
0.0
  0
LINE
  5
16693
330
747D
100
AcDbEntity
  8
部品1
100
AcDbLine
 10
7259.693830406783
 20
9742.497424545964
 30
0.0
 11
7259.693830406783
 21
9292.497424545967
 31
0.0
  0
DIMENSION
  5
166DD
330
747D
100
AcDbEntity
  8
寸法
 48
50.0
100
AcDbDimension
  2
*D18
 10
7233.193830406783
 20
10188.30564417096
 30
0.0
 11
7288.193830406782
 21
10288.30564417096
 31
0.0
 70
    32
 71
     5
 42
109.9999999999982
  3
INABA_S40G
100
AcDbAlignedDimension
 13
7343.193830406781
 23
9772.497424545917
 33
0.0
 14
7233.193830406783
 24
9772.497424545916
 34
0.0
100
AcDbRotatedDimension
1001
ACAD
1000
DSTYLE
1002
{
1070
   279
1070
     2
1002
}
  0
LINE
  5
16760
330
747D
100
AcDbEntity
  8
部品1
 48
50.0
100
AcDbLine
 10
7288.193830406747
 20
9744.497424545912
 30
0.0
 11
7260.19383040675
 21
9772.497424545965
 31
0.0
  0
LINE
  5
16761
330
747D
100
AcDbEntity
  8
部品1
100
AcDbLine
 10
7316.19383040675
 20
9717.497424545886
 30
0.0
 11
7260.19383040675
 21
9717.497424545886
 31
0.0
  0
LINE
  5
16762
330
747D
100
AcDbEntity
  8
部品1
 48
50.0
100
AcDbLine
 10
7260.19383040675
 20
9744.497424546016
 30
0.0
 11
7260.193830406748
 21
9772.497424545965
 31
0.0
  0
LINE
  5
16763
330
747D
100
AcDbEntity
  8
部品1
 48
50.0
100
AcDbLine
 10
7260.19383040675
 20
9744.497424545912
 30
0.0
 11
7288.193830406747
 21
9744.497424545912
 31
0.0
  0
LINE
  5
16764
330
747D
100
AcDbEntity
  8
部品1
100
AcDbLine
 10
7260.193830406766
 20
9744.497424545963
 30
0.0
 11
7260.193830406753
 21
7142.49742454586
 31
0.0
  0
LINE
  5
16765
330
747D
100
AcDbEntity
  8
部品1
100
AcDbLine
 10
7316.193830406747
 20
7142.497424545865
 30
0.0
 11
7316.193830406767
 21
9772.497424545916
 31
0.0
  0
LINE
  5
16880
330
747D
100
AcDbEntity
  8
部品1
100
AcDbLine
 10
7233.193830406779
 20
7207.497424545865
 30
0.0
 11
7233.193830406779
 21
9292.497424545967
 31
0.0
  0
LINE
  5
16883
330
747D
100
AcDbEntity
  8
部品1
100
AcDbLine
 10
7343.1938304068
 20
7207.497424545865
 30
0.0
 11
7343.193830406781
 21
9292.497424545871
 31
0.0
  0
LINE
  5
168C3
330
747D
100
AcDbEntity
  8
部品1
100
AcDbLine
 10
7312.193830406767
 20
7197.497424545861
 30
0.0
 11
7264.193830406767
 21
7197.49742454586
 31
0.0
  0
LINE
  5
168C4
330
747D
100
AcDbEntity
  8
部品1
 48
50.0
100
AcDbLine
 10
7264.193830406767
 20
7197.497424545861
 30
0.0
 11
7264.193830406769
 21
7142.497424545862
 31
0.0
  0
LINE
  5
168C5
330
747D
100
AcDbEntity
  8
部品1
 48
50.0
100
AcDbLine
 10
7312.193830406767
 20
7197.497424545861
 30
0.0
 11
7312.193830406769
 21
7142.497424545862
 31
0.0
  0
DIMENSION
  5
16913
330
747D
100
AcDbEntity
  8
寸法
 48
50.0
100
AcDbDimension
  2
*D19
 10
10338.19383040678
 20
10437.62711772726
 30
0.0
 11
8813.193830406783
 21
10537.62711772726
 31
0.0
 70
    32
 71
     5
 42
3050.0
  3
INABA_S40G
100
AcDbAlignedDimension
 13
7288.193830406783
 23
10347.29355852891
 33
0.0
 14
10338.19383040678
 24
9772.497424545964
 34
0.0
100
AcDbRotatedDimension
1001
ACAD
1000
DSTYLE
1002
{
1070
   279
1070
     2
1002
}
  0
LINE
  5
16C81
330
747D
100
AcDbEntity
  8
部品1
100
AcDbLine
 10
1216.193830406762
 20
8037.49742454584
 30
0.0
 11
1188.193830406762
 21
8037.49742454584
 31
0.0
  0
LINE
  5
16C82
330
747D
100
AcDbEntity
  8
部品1
100
AcDbLine
 10
10310.19383040678
 20
8037.497424545966
 30
0.0
 11
10338.19383040678
 21
8037.497424545966
 31
0.0
  0
LINE
  5
16FDA
330
747D
100
AcDbEntity
  8
部品1
100
AcDbLine
 10
1216.193830406762
 20
7617.49742454584
 30
0.0
 11
1188.193830406762
 21
7617.49742454584
 31
0.0
  0
LINE
  5
16FDB
330
747D
100
AcDbEntity
  8
部品1
100
AcDbLine
 10
10310.19383040678
 20
7617.497424545966
 30
0.0
 11
10338.19383040678
 21
7617.497424545966
 31
0.0
  0
LINE
  5
1743E
330
747D
100
AcDbEntity
  8
部品1
100
AcDbLine
 10
7763.193830406781
 20
9772.49742454587
 30
0.0
 11
7763.193830406781
 21
9744.497424545869
 31
0.0
  0
LINE
  5
1743F
330
747D
100
AcDbEntity
  8
部品1
100
AcDbLine
 10
7763.193830406781
 20
9772.49742454587
 30
0.0
 11
7763.193830406781
 21
9744.497424545869
 31
0.0
  0
LINE
  5
17440
330
747D
100
AcDbEntity
  8
部品1
100
AcDbLine
 10
7763.193830406781
 20
9772.497424545987
 30
0.0
 11
7763.193830406781
 21
9744.497424545986
 31
0.0
  0
LINE
  5
17441
330
747D
100
AcDbEntity
  8
部品1
100
AcDbLine
 10
4713.193830406781
 20
9772.497424545987
 30
0.0
 11
4713.193830406781
 21
9744.497424545986
 31
0.0
  0
LINE
  5
17442
330
747D
100
AcDbEntity
  8
部品1
100
AcDbLine
 10
4713.193830406781
 20
9772.49742454587
 30
0.0
 11
4713.193830406781
 21
9744.497424545869
 31
0.0
  0
LINE
  5
17443
330
747D
100
AcDbEntity
  8
部品1
100
AcDbLine
 10
4713.193830406781
 20
9772.49742454587
 30
0.0
 11
4713.193830406781
 21
9744.497424545869
 31
0.0
  0
LINE
  5
17C58
330
747D
100
AcDbEntity
  8
細線
 48
50.0
100
AcDbLine
 10
2699.693830406781
 20
9292.497424545976
 30
0.0
 11
1216.693830406781
 21
9742.497424545868
 31
0.0
  0
LINE
  5
17C59
330
747D
100
AcDbEntity
  8
細線
 48
50.0
100
AcDbLine
 10
2699.693830406781
 20
9742.497424545971
 30
0.0
 11
1216.693830406781
 21
9292.497424545869
 31
0.0
  0
LINE
  5
17C5A
330
747D
100
AcDbEntity
  8
部品1
100
AcDbLine
 10
1216.693830406782
 20
9292.497424545869
 30
0.0
 11
2699.693830406781
 21
9292.497424545976
 31
0.0
  0
LINE
  5
17C5B
330
747D
100
AcDbEntity
  8
部品1
100
AcDbLine
 10
1216.193830406768
 20
9744.497424545986
 30
0.0
 11
2700.693830406781
 21
9744.497424545986
 31
0.0
  0
LINE
  5
17C5C
330
747D
100
AcDbEntity
  8
部品1
100
AcDbLine
 10
1216.693830406781
 20
9742.497424545868
 30
0.0
 11
2699.693830406781
 21
9742.497424545975
 31
0.0
  0
DIMENSION
  5
17C5D
330
747D
100
AcDbEntity
  8
寸法
100
AcDbDimension
  2
*D24
 10
4183.193830406782
 20
10188.30564417096
 30
0.0
 11
2713.193830406782
 21
10288.31745519459
 31
0.0
 70
    32
  1
7X420=<>
 71
     5
 42
2940.000000000002
  3
INABA_S40G
100
AcDbAlignedDimension
 13
1243.193830406781
 23
9772.49742454587
 33
0.0
 14
4183.193830406782
 24
9772.497424545964
 34
0.0
100
AcDbRotatedDimension
1001
ACAD
1000
DSTYLE
1002
{
1002
}
  0
DIMENSION
  5
17C60
330
747D
100
AcDbEntity
  8
寸法
 48
50.0
100
AcDbDimension
  2
*D26
 10
4238.193830406782
 20
10437.62711772726
 30
0.0
 11
2713.193830406765
 21
10537.62711772726
 31
0.0
 70
    32
 71
     5
 42
3050.000000000034
  3
INABA_S40G
100
AcDbAlignedDimension
 13
1188.193830406748
 23
9772.497424545838
 33
0.0
 14
4238.193830406782
 24
10347.29355852891
 34
0.0
100
AcDbRotatedDimension
1001
ACAD
1000
DSTYLE
1002
{
1070
   279
1070
     2
1002
}
  0
LINE
  5
17C64
330
747D
100
AcDbEntity
  8
部品1
100
AcDbLine
 10
1663.193830406781
 20
9772.497424545987
 30
0.0
 11
1663.193830406781
 21
9744.497424545986
 31
0.0
  0
LINE
  5
17C65
330
747D
100
AcDbEntity
  8
部品1
100
AcDbLine
 10
1663.193830406781
 20
9772.49742454587
 30
0.0
 11
1663.193830406781
 21
9744.497424545869
 31
0.0
  0
LINE
  5
17C66
330
747D
100
AcDbEntity
  8
部品1
100
AcDbLine
 10
1663.193830406781
 20
9772.49742454587
 30
0.0
 11
1663.193830406781
 21
9744.497424545869
 31
0.0
  0
LINE
  5
17C67
330
747D
100
AcDbEntity
  8
部品1
100
AcDbLine
 10
2083.193830406781
 20
9772.497424545987
 30
0.0
 11
2083.193830406781
 21
9744.497424545986
 31
0.0
  0
LINE
  5
17C68
330
747D
100
AcDbEntity
  8
部品1
100
AcDbLine
 10
2083.193830406781
 20
9772.49742454587
 30
0.0
 11
2083.193830406781
 21
9744.497424545869
 31
0.0
  0
LINE
  5
17C69
330
747D
100
AcDbEntity
  8
部品1
100
AcDbLine
 10
2083.193830406781
 20
9772.49742454587
 30
0.0
 11
2083.193830406781
 21
9744.497424545869
 31
0.0
  0
LINE
  5
17C6A
330
747D
100
AcDbEntity
  8
部品1
100
AcDbLine
 10
2503.193830406781
 20
9772.497424545987
 30
0.0
 11
2503.193830406781
 21
9744.497424545986
 31
0.0
  0
LINE
  5
17C6B
330
747D
100
AcDbEntity
  8
部品1
100
AcDbLine
 10
2503.193830406781
 20
9772.49742454587
 30
0.0
 11
2503.193830406781
 21
9744.497424545869
 31
0.0
  0
LINE
  5
17C6C
330
747D
100
AcDbEntity
  8
部品1
100
AcDbLine
 10
2503.193830406781
 20
9772.49742454587
 30
0.0
 11
2503.193830406781
 21
9744.497424545869
 31
0.0
  0
LINE
  5
17C6E
330
747D
100
AcDbEntity
  8
細線
 48
50.0
100
AcDbLine
 10
4209.693830406783
 20
9742.497424545964
 30
0.0
 11
2726.693830406781
 21
9292.497424545976
 31
0.0
  0
LINE
  5
17C6F
330
747D
100
AcDbEntity
  8
細線
 48
50.0
100
AcDbLine
 10
4209.693830406783
 20
9292.497424545967
 30
0.0
 11
2726.693830406781
 21
9742.497424545968
 31
0.0
  0
LINE
  5
17C70
330
747D
100
AcDbEntity
  8
部品1
100
AcDbLine
 10
2726.693830406781
 20
9292.497424545976
 30
0.0
 11
4209.693830406783
 21
9292.497424545967
 31
0.0
  0
LINE
  5
17C71
330
747D
100
AcDbEntity
  8
部品1
100
AcDbLine
 10
2725.693830406781
 20
9744.497424545983
 30
0.0
 11
4210.193830406782
 21
9744.497424545963
 31
0.0
  0
LINE
  5
17C72
330
747D
100
AcDbEntity
  8
部品1
100
AcDbLine
 10
2726.693830406781
 20
9742.497424545971
 30
0.0
 11
4209.693830406783
 21
9742.497424545964
 31
0.0
  0
LINE
  5
17C73
330
747D
100
AcDbEntity
  8
部品1
 48
50.0
100
AcDbLine
 10
2699.693830406781
 20
9742.497424545971
 30
0.0
 11
2699.693830406781
 21
9292.497424545976
 31
0.0
  0
LINE
  5
17C74
330
747D
100
AcDbEntity
  8
部品1
 48
50.0
100
AcDbLine
 10
2726.693830406781
 20
9742.497424545968
 30
0.0
 11
2726.693830406781
 21
9292.497424545976
 31
0.0
  0
LINE
  5
17C75
330
747D
100
AcDbEntity
  8
部品1
 48
50.0
100
AcDbLine
 10
2700.693830406781
 20
9744.497424545977
 30
0.0
 11
2700.693830406781
 21
9292.497424545976
 31
0.0
  0
LINE
  5
17C76
330
747D
100
AcDbEntity
  8
部品1
 48
50.0
100
AcDbLine
 10
2725.693830406781
 20
9744.497424545976
 30
0.0
 11
2725.693830406781
 21
9292.497424545976
 31
0.0
  0
LINE
  5
17C7B
330
747D
100
AcDbEntity
  8
部品1
100
AcDbLine
 10
2700.693830406781
 20
9292.497424545976
 30
0.0
 11
2725.693830406781
 21
9292.497424545976
 31
0.0
  0
LINE
  5
17C7C
330
747D
100
AcDbEntity
  8
部品1
100
AcDbLine
 10
2700.693830406781
 20
9736.497424545968
 30
0.0
 11
2725.693830406781
 21
9736.497424545971
 31
0.0
  0
LINE
  5
17C7F
330
747D
100
AcDbEntity
  8
部品1
100
AcDbLine
 10
2678.193830406781
 20
9762.497424545971
 30
0.0
 11
2684.193830406781
 21
9762.497424545971
 31
0.0
  0
LINE
  5
17C80
330
747D
100
AcDbEntity
  8
部品1
100
AcDbLine
 10
2678.193830406781
 20
9762.497424545971
 30
0.0
 11
2678.193830406781
 21
9744.49742454597
 31
0.0
  0
LINE
  5
17C81
330
747D
100
AcDbEntity
  8
部品1
100
AcDbLine
 10
2742.193830406781
 20
9762.497424545971
 30
0.0
 11
2748.193830406781
 21
9762.497424545971
 31
0.0
  0
LINE
  5
17C82
330
747D
100
AcDbEntity
  8
部品1
100
AcDbLine
 10
2748.193830406781
 20
9762.497424545971
 30
0.0
 11
2748.193830406781
 21
9744.49742454597
 31
0.0
  0
LINE
  5
17C83
330
747D
100
AcDbEntity
  8
部品1
100
AcDbLine
 10
2923.193830406781
 20
9772.497424545987
 30
0.0
 11
2923.193830406781
 21
9744.497424545986
 31
0.0
  0
LINE
  5
17C84
330
747D
100
AcDbEntity
  8
部品1
100
AcDbLine
 10
3343.193830406781
 20
9772.497424545987
 30
0.0
 11
3343.193830406781
 21
9744.497424545986
 31
0.0
  0
LINE
  5
17C85
330
747D
100
AcDbEntity
  8
部品1
100
AcDbLine
 10
3763.193830406781
 20
9772.497424545987
 30
0.0
 11
3763.193830406781
 21
9744.497424545986
 31
0.0
  0
LINE
  5
17C86
330
747D
100
AcDbEntity
  8
部品1
 48
50.0
100
AcDbLine
 10
4266.69383040678
 20
9742.497424545867
 30
0.0
 11
4266.69383040678
 21
9292.497424545866
 31
0.0
  0
LINE
  5
17C87
330
747D
100
AcDbEntity
  8
部品1
100
AcDbLine
 10
4209.693830406783
 20
9742.497424545964
 30
0.0
 11
4209.693830406783
 21
9292.497424545967
 31
0.0
  0
LINE
  5
17C88
330
747D
100
AcDbEntity
  8
部品1
100
AcDbLine
 10
4210.193830406766
 20
9744.497424545963
 30
0.0
 11
4210.193830406751
 21
7142.497424545858
 31
0.0
  0
LINE
  5
17C89
330
747D
100
AcDbEntity
  8
部品1
100
AcDbLine
 10
4266.193830406748
 20
7142.497424545864
 30
0.0
 11
4266.193830406768
 21
9772.497424545916
 31
0.0
  0
LINE
  5
17C8C
330
747D
100
AcDbEntity
  8
部品1
100
AcDbLine
 10
4183.193830406779
 20
7207.497424545865
 30
0.0
 11
4183.193830406779
 21
9292.497424545967
 31
0.0
  0
LINE
  5
17C8D
330
747D
100
AcDbEntity
  8
部品1
100
AcDbLine
 10
4293.193830406798
 20
7207.497424545865
 30
0.0
 11
4293.193830406781
 21
9292.497424545871
 31
0.0
  0
LINE
  5
17C94
330
747D
100
AcDbEntity
  8
部品1
100
AcDbLine
 10
4266.193830406749
 20
9717.497424545886
 30
0.0
 11
4210.19383040675
 21
9717.497424545886
 31
0.0
  0
DIMENSION
  5
17C95
330
747D
100
AcDbEntity
  8
寸法
 48
50.0
100
AcDbDimension
  2
*D25
 10
4183.193830406782
 20
10188.30564417096
 30
0.0
 11
4238.193830406781
 21
10288.30564417096
 31
0.0
 70
    32
 71
     5
 42
109.9999999999982
  3
INABA_S40G
100
AcDbAlignedDimension
 13
4293.193830406781
 23
9772.497424545917
 33
0.0
 14
4183.193830406782
 24
9772.497424545916
 34
0.0
100
AcDbRotatedDimension
1001
ACAD
1000
DSTYLE
1002
{
1070
   279
1070
     2
1002
}
  0
LINE
  5
17C96
330
747D
100
AcDbEntity
  8
部品1
100
AcDbLine
 10
4293.193830406781
 20
9772.49742454587
 30
0.0
 11
4293.193830406781
 21
9744.497424545869
 31
0.0
  0
LINE
  5
17C97
330
747D
100
AcDbEntity
  8
部品1
100
AcDbLine
 10
4183.193830406782
 20
9772.497424545964
 30
0.0
 11
4183.193830406782
 21
9744.497424545963
 31
0.0
  0
LINE
  5
17C98
330
747D
100
AcDbEntity
  8
部品1
 48
50.0
100
AcDbLine
 10
4238.193830406748
 20
9744.497424545912
 30
0.0
 11
4210.19383040675
 21
9772.497424545965
 31
0.0
  0
LINE
  5
17C99
330
747D
100
AcDbEntity
  8
部品1
 48
50.0
100
AcDbLine
 10
4210.19383040675
 20
9744.497424546016
 30
0.0
 11
4210.193830406748
 21
9772.497424545965
 31
0.0
  0
LINE
  5
17C9A
330
747D
100
AcDbEntity
  8
部品1
 48
50.0
100
AcDbLine
 10
4210.19383040675
 20
9744.497424545912
 30
0.0
 11
4238.193830406748
 21
9744.497424545912
 31
0.0
  0
DIMENSION
  5
17C9B
330
747D
100
AcDbEntity
  8
寸法
 48
50.0
100
AcDbDimension
  2
*D22
 10
1291.193830406775
 20
6608.0666537797
 30
0.0
 11
2713.193830406766
 21
6708.078464803323
 31
0.0
 70
    32
  1
有効開口部間口 <>
 71
     5
 42
2843.999999999982
  3
INABA_S40G
100
AcDbAlignedDimension
 13
4135.193830406757
 23
7168.497424545865
 33
0.0
 14
1291.193830406775
 24
7168.497424545865
 34
0.0
100
AcDbRotatedDimension
1001
ACAD
1000
DSTYLE
1002
{
1070
    75
1070
     1
1070
   279
1070
     2
1002
}
  0
LINE
  5
17C9C
330
747D
100
AcDbEntity
  8
部品1
 48
50.0
100
AcDbLine
 10
1255.193830406773
 20
7187.997424545864
 30
0.0
 11
4171.193830406759
 21
7187.997424545864
 31
0.0
  0
DIMENSION
  5
17C9D
330
747D
100
AcDbEntity
  8
寸法
 48
50.0
100
AcDbDimension
  2
*D21
 10
4135.193830406757
 20
6608.0666537797
 30
0.0
 11
4024.230932758009
 21
6708.0666537797
 31
0.0
 70
   160
 71
     5
 42
48.00000000000181
  3
INABA_S40G
100
AcDbAlignedDimension
 13
4183.193830406759
 23
7142.497424545952
 33
0.0
 14
4135.193830406757
 24
7168.497424545865
 34
0.0
100
AcDbRotatedDimension
1001
ACAD
1000
DSTYLE
1002
{
1070
   279
1070
     2
1002
}
  0
DIMENSION
  5
17C9E
330
747D
100
AcDbEntity
  8
寸法
 48
50.0
100
AcDbDimension
  2
*D20
 10
4293.193830406772
 20
6608.0666537797
 30
0.0
 11
4454.095801406833
 21
6708.0666537797
 31
0.0
 70
   160
 71
     5
 42
48.00000000000363
  3
INABA_S40G
100
AcDbAlignedDimension
 13
4341.193830406775
 23
7168.497424545865
 33
0.0
 14
4293.193830406772
 24
7142.497424545865
 34
0.0
100
AcDbRotatedDimension
1001
ACAD
1000
DSTYLE
1002
{
1070
   279
1070
     2
1002
}
  0
DIMENSION
  5
17C9F
330
747D
100
AcDbEntity
  8
寸法
 48
50.0
100
AcDbDimension
  2
*D23
 10
4183.193830406759
 20
6608.066653779701
 30
0.0
 11
4238.193830406766
 21
6456.37475874347
 31
0.0
 70
   160
 71
     5
 42
110.0000000000127
  3
INABA_S40G
100
AcDbAlignedDimension
 13
4293.193830406772
 23
7142.497424545865
 33
0.0
 14
4183.193830406759
 24
7142.497424545952
 34
0.0
100
AcDbRotatedDimension
1001
ACAD
1000
DSTYLE
1002
{
1070
   279
1070
     2
1002
}
  0
LINE
  5
17CA0
330
747D
100
AcDbEntity
  8
部品1
100
AcDbLine
 10
4341.193830406775
 20
7207.497424545865
 30
0.0
 11
4293.193830406775
 21
7207.497424545865
 31
0.0
  0
LINE
  5
17CA1
330
747D
100
AcDbEntity
  8
部品1
100
AcDbLine
 10
4341.193830406775
 20
7168.497424545865
 30
0.0
 11
4293.193830406775
 21
7168.497424545865
 31
0.0
  0
LINE
  5
17CA2
330
747D
100
AcDbEntity
  8
部品1
100
AcDbLine
 10
4135.193830406757
 20
7207.497424545865
 30
0.0
 11
4183.193830406759
 21
7207.497424545865
 31
0.0
  0
LINE
  5
17CA3
330
747D
100
AcDbEntity
  8
部品1
100
AcDbLine
 10
4135.193830406757
 20
7168.497424545865
 30
0.0
 11
4183.193830406756
 21
7168.497424545865
 31
0.0
  0
LINE
  5
17CA4
330
747D
100
AcDbEntity
  8
部品1
 48
50.0
100
AcDbLine
 10
4135.193830406757
 20
7207.497424545865
 30
0.0
 11
4135.193830406757
 21
7198.497424545866
 31
0.0
  0
LINE
  5
17CA5
330
747D
100
AcDbEntity
  8
部品1
 48
50.0
100
AcDbLine
 10
4135.193830406757
 20
7168.497424545865
 30
0.0
 11
4135.193830406757
 21
7177.497424545865
 31
0.0
  0
LINE
  5
17CA6
330
747D
100
AcDbEntity
  8
部品1
 48
50.0
100
AcDbLine
 10
4173.193830406757
 20
7168.497424545865
 30
0.0
 11
4183.193830406756
 21
7147.497424545865
 31
0.0
  0
LINE
  5
17CA7
330
747D
100
AcDbEntity
  8
部品1
 48
50.0
100
AcDbLine
 10
4303.193830406775
 20
7168.497424545865
 30
0.0
 11
4293.193830406775
 21
7147.497424545865
 31
0.0
  0
LINE
  5
17CA8
330
747D
100
AcDbEntity
  8
部品1
 48
50.0
100
AcDbLine
 10
4293.193830406775
 20
7207.497424545863
 30
0.0
 11
4293.193830406772
 21
7142.497424545865
 31
0.0
  0
LINE
  5
17CA9
330
747D
100
AcDbEntity
  8
部品1
100
AcDbLine
 10
4183.193830406756
 20
7178.497424545861
 30
0.0
 11
4206.193830406757
 21
7178.497424545864
 31
0.0
  0
LINE
  5
17CAA
330
747D
100
AcDbEntity
  8
部品1
 48
50.0
100
AcDbLine
 10
4183.193830406763
 20
7207.497424545953
 30
0.0
 11
4183.193830406759
 21
7142.497424545952
 31
0.0
  0
LINE
  5
17CAB
330
747D
100
AcDbEntity
  8
部品1
100
AcDbLine
 10
4262.193830406766
 20
7197.497424545861
 30
0.0
 11
4214.193830406766
 21
7197.49742454586
 31
0.0
  0
LINE
  5
17CAC
330
747D
100
AcDbEntity
  8
部品1
 48
50.0
100
AcDbLine
 10
4214.193830406766
 20
7197.497424545861
 30
0.0
 11
4214.193830406769
 21
7142.497424545862
 31
0.0
  0
LINE
  5
17CAD
330
747D
100
AcDbEntity
  8
部品1
 48
50.0
100
AcDbLine
 10
4262.193830406766
 20
7197.497424545861
 30
0.0
 11
4262.193830406769
 21
7142.497424545862
 31
0.0
  0
LINE
  5
17CAE
330
747D
100
AcDbEntity
  8
部品1
100
AcDbLine
 10
4293.193830406774
 20
7178.497424545864
 30
0.0
 11
4270.193830406775
 21
7178.497424545864
 31
0.0
  0
LINE
  5
17CAF
330
747D
100
AcDbEntity
  8
部品1
100
AcDbLine
 10
4293.19383040677
 20
7142.497424545865
 30
0.0
 11
4183.19383040676
 21
7142.497424545858
 31
0.0
  0
LINE
  5
17CB0
330
747D
100
AcDbEntity
  8
部品1
 48
50.0
100
AcDbLine
 10
4341.193830406775
 20
7207.497424545865
 30
0.0
 11
4341.193830406775
 21
7198.497424545866
 31
0.0
  0
LINE
  5
17CB1
330
747D
100
AcDbEntity
  8
部品1
 48
50.0
100
AcDbLine
 10
4341.193830406775
 20
7168.497424545865
 30
0.0
 11
4341.193830406775
 21
7177.497424545865
 31
0.0
  0
LINE
  5
17D6E
330
747D
100
AcDbEntity
  8
部品1
100
AcDbLine
 10
5776.69383040679
 20
9292.497424545977
 30
0.0
 11
7259.693830406783
 21
9292.497424545967
 31
0.0
  0
LINE
  5
17D71
330
747D
100
AcDbEntity
  8
部品1
100
AcDbLine
 10
5776.69383040677
 20
9742.497424545971
 30
0.0
 11
7259.693830406783
 21
9742.497424545964
 31
0.0
  0
LINE
  5
17D72
330
747D
100
AcDbEntity
  8
部品1
100
AcDbLine
 10
5775.693830406779
 20
9744.497424545977
 30
0.0
 11
7260.193830406783
 21
9744.497424545963
 31
0.0
  0
LINE
  5
17D95
330
747D
100
AcDbEntity
  8
寸法
 48
50.0
100
AcDbLine
 10
4341.193830406775
 20
6608.0666537797
 30
0.0
 11
5541.193830406776
 21
6608.0666537797
 31
0.0
  0
LINE
  5
17D96
330
747D
100
AcDbEntity
  8
寸法
 48
50.0
100
AcDbLine
 10
5985.193830406757
 20
6608.0666537797
 30
0.0
 11
7185.193830406757
 21
6608.0666537797
 31
0.0
  0
TEXT
  5
17D97
330
747D
100
AcDbEntity
  8
文字
 48
50.0
100
AcDbText
 10
5173.375003623727
 20
6647.719481826378
 30
0.0
 40
120.0
  1
2844
  7
STYLE1
100
AcDbText
  0
TEXT
  5
17D98
330
747D
100
AcDbEntity
  8
文字
 48
50.0
100
AcDbText
 10
6015.543391750247
 20
6647.719481826378
 30
0.0
 40
120.0
  1
2844
  7
STYLE1
100
AcDbText
  0
LINE
  5
17D99
330
747D
100
AcDbEntity
  8
寸法
 48
50.0
100
AcDbLine
 10
4293.193830406781
 20
10188.30564417096
 30
0.0
 11
5343.19383040678
 21
10188.30564417096
 31
0.0
  0
TEXT
  5
17D9A
330
747D
100
AcDbEntity
  8
文字
 48
50.0
100
AcDbText
 10
4975.375003623732
 20
10227.95847221764
 30
0.0
 40
120.0
  1
2940
  7
STYLE1
100
AcDbText
  0
LINE
  5
17D9B
330
747D
100
AcDbEntity
  8
寸法
 48
50.0
100
AcDbLine
 10
6183.193830406782
 20
10188.30564417096
 30
0.0
 11
7233.193830406783
 21
10188.30564417096
 31
0.0
  0
TEXT
  5
17D9C
330
747D
100
AcDbEntity
  8
文字
 48
50.0
100
AcDbText
 10
6213.543391750272
 20
10227.95847221764
 30
0.0
 40
120.0
  1
2940
  7
STYLE1
100
AcDbText
  0
LINE
  5
17DA8
330
747D
100
AcDbEntity
  8
寸法
 48
50.0
100
AcDbLine
 10
6190.193830406783
 20
10437.62711772726
 30
0.0
 11
7288.193830406783
 21
10437.62711772726
 31
0.0
  0
TEXT
  5
17DA9
330
747D
100
AcDbEntity
  8
文字
 48
50.0
100
AcDbText
 10
6220.543391750272
 20
10477.27994577394
 30
0.0
 40
120.0
  1
3050
  7
STYLE1
100
AcDbText
  0
LINE
  5
17DAA
330
747D
100
AcDbEntity
  8
寸法
 48
50.0
100
AcDbLine
 10
4238.193830406782
 20
10437.62711772726
 30
0.0
 11
5336.193830406783
 21
10437.62711772726
 31
0.0
  0
TEXT
  5
17DAB
330
747D
100
AcDbEntity
  8
文字
 48
50.0
100
AcDbText
 10
4968.375003623734
 20
10477.27994577394
 30
0.0
 40
120.0
  1
3050
  7
STYLE1
100
AcDbText
  0
LINE
  5
188AC
330
747D
100
AcDbEntity
  8
部品1
 48
50.0
100
AcDbLine
 10
1243.19383040677
 20
7142.497424545865
 30
0.0
 11
4183.193830406759
 21
7142.497424545952
 31
0.0
  0
LINE
  5
188EC
330
747D
100
AcDbEntity
  8
部品1
 48
50.0
100
AcDbLine
 10
1243.193830406774
 20
7227.497424545879
 30
0.0
 11
4183.19383040676
 21
7227.497424545714
 31
0.0
  0
LINE
  5
188ED
330
747D
100
AcDbEntity
  8
部品1
 48
50.0
100
AcDbLine
 10
1243.193830406774
 20
7272.497424545879
 30
0.0
 11
4158.19383040676
 21
7272.497424545716
 31
0.0
  0
LINE
  5
188EE
330
747D
100
AcDbEntity
  8
部品1
 48
50.0
100
AcDbLine
 10
1243.193830406775
 20
7617.497424545994
 30
0.0
 11
4183.193830406763
 21
7617.497424545982
 31
0.0
  0
LINE
  5
188EF
330
747D
100
AcDbEntity
  8
部品1
 48
50.0
100
AcDbLine
 10
1243.193830406781
 20
8877.497424545996
 30
0.0
 11
4183.193830406768
 21
8877.497424545982
 31
0.0
  0
LINE
  5
188F0
330
747D
100
AcDbEntity
  8
部品1
 48
50.0
100
AcDbLine
 10
1243.193830406779
 20
8457.497424545996
 30
0.0
 11
4183.193830406768
 21
8457.497424545982
 31
0.0
  0
LINE
  5
188F1
330
747D
100
AcDbEntity
  8
部品1
 48
50.0
100
AcDbLine
 10
1243.193830406777
 20
8037.497424545994
 30
0.0
 11
4183.193830406763
 21
8037.497424545982
 31
0.0
  0
LINE
  5
188F2
330
747D
100
AcDbEntity
  8
破線
 48
10.0
100
AcDbLine
 10
3415.693830406699
 20
7272.497424545811
 30
0.0
 11
3415.693830406803
 21
9292.497424545997
 31
0.0
  0
LINE
  5
188F3
330
747D
100
AcDbEntity
  8
破線
 48
10.0
100
AcDbLine
 10
3465.693830406697
 20
7272.497424545814
 30
0.0
 11
3465.693830406801
 21
9292.497424545997
 31
0.0
  0
LINE
  5
188F4
330
747D
100
AcDbEntity
  8
破線
 48
10.0
100
AcDbLine
 10
1268.19383040671
 20
7295.997424545749
 30
0.0
 11
1268.19383040677
 21
9292.497424545897
 31
0.0
  0
LINE
  5
188F5
330
747D
100
AcDbEntity
  8
破線
 48
10.0
100
AcDbLine
 10
2010.693830406697
 20
7272.497424545814
 30
0.0
 11
2010.693830406801
 21
9292.497424545949
 31
0.0
  0
LINE
  5
188F6
330
747D
100
AcDbEntity
  8
破線
 48
10.0
100
AcDbLine
 10
1960.693830406699
 20
7272.497424545811
 30
0.0
 11
1960.693830406802
 21
9292.497424545947
 31
0.0
  0
LINE
  5
188F7
330
747D
100
AcDbEntity
  8
破線
 48
10.0
100
AcDbLine
 10
2688.193830406699
 20
7272.497424545811
 30
0.0
 11
2688.193830406802
 21
9292.497424545997
 31
0.0
  0
LINE
  5
188F8
330
747D
100
AcDbEntity
  8
破線
 48
10.0
100
AcDbLine
 10
2738.193830406697
 20
7272.497424545814
 30
0.0
 11
2738.193830406799
 21
9292.497424546001
 31
0.0
  0
LINE
  5
188F9
330
747D
100
AcDbEntity
  8
部品1
 48
50.0
100
AcDbLine
 10
2713.193830406848
 20
9292.497424546001
 30
0.0
 11
2713.193830406748
 21
7272.497424545796
 31
0.0
  0
LINE
  5
188FA
330
747D
100
AcDbEntity
  8
破線
 48
10.0
100
AcDbLine
 10
4158.193830406673
 20
7272.497424545796
 30
0.0
 11
4158.193830406776
 21
9292.497424545992
 31
0.0
  0
LINE
  5
188FB
330
747D
100
AcDbEntity
  8
部品1
100
AcDbLine
 10
4183.193830406673
 20
7272.497424545796
 30
0.0
 11
1243.193830406647
 21
7272.4974245458
 31
0.0
  0
LINE
  5
188FC
330
747D
100
AcDbEntity
  8
破線
 48
10.0
100
AcDbLine
 10
4158.193830406702
 20
7295.997424545844
 30
0.0
 11
3465.693830406697
 21
7295.997424545825
 31
0.0
  0
LINE
  5
188FD
330
747D
100
AcDbEntity
  8
破線
 48
10.0
100
AcDbLine
 10
2688.193830406699
 20
7295.997424545804
 30
0.0
 11
2010.693830406697
 21
7295.997424545778
 31
0.0
  0
LINE
  5
188FE
330
747D
100
AcDbEntity
  8
破線
 48
10.0
100
AcDbLine
 10
1960.693830406699
 20
7295.997424545774
 30
0.0
 11
1268.19383040671
 21
7295.997424545749
 31
0.0
  0
LINE
  5
188FF
330
747D
100
AcDbEntity
  8
破線
 48
10.0
100
AcDbLine
 10
3415.693830406699
 20
7295.997424545825
 30
0.0
 11
2738.193830406699
 21
7295.997424545807
 31
0.0
  0
LINE
  5
18918
330
747D
100
AcDbEntity
  8
破線
 48
10.0
100
AcDbLine
 10
4318.193830406708
 20
7295.997424545845
 30
0.0
 11
4318.193830406768
 21
9292.497424545992
 31
0.0
  0
LINE
  5
18919
330
747D
100
AcDbEntity
  8
破線
 48
10.0
100
AcDbLine
 10
5060.693830406695
 20
7272.497424545909
 30
0.0
 11
5060.693830406798
 21
9292.497424546047
 31
0.0
  0
LINE
  5
1891A
330
747D
100
AcDbEntity
  8
破線
 48
10.0
100
AcDbLine
 10
5010.693830406697
 20
7272.497424545907
 30
0.0
 11
5010.6938304068
 21
9292.497424546041
 31
0.0
  0
LINE
  5
1891B
330
747D
100
AcDbEntity
  8
破線
 48
10.0
100
AcDbLine
 10
6465.693830406697
 20
7272.497424545907
 30
0.0
 11
6465.693830406801
 21
9292.497424546091
 31
0.0
  0
LINE
  5
1891C
330
747D
100
AcDbEntity
  8
破線
 48
10.0
100
AcDbLine
 10
6515.693830406696
 20
7272.497424545909
 30
0.0
 11
6515.693830406798
 21
9292.497424546091
 31
0.0
  0
LINE
  5
18920
330
747D
100
AcDbEntity
  8
破線
 48
10.0
100
AcDbLine
 10
7208.193830406672
 20
7272.497424545893
 30
0.0
 11
7208.193830406774
 21
9292.497424546088
 31
0.0
  0
LINE
  5
18921
330
747D
100
AcDbEntity
  8
部品1
 48
50.0
100
AcDbLine
 10
7343.193830406772
 20
7227.497424545974
 30
0.0
 11
10283.19383040676
 21
7227.497424545809
 31
0.0
  0
LINE
  5
18922
330
747D
100
AcDbEntity
  8
部品1
 48
50.0
100
AcDbLine
 10
7343.193830406772
 20
7272.497424545974
 30
0.0
 11
10258.19383040676
 21
7272.497424545811
 31
0.0
  0
LINE
  5
18923
330
747D
100
AcDbEntity
  8
部品1
 48
50.0
100
AcDbLine
 10
7343.193830406774
 20
7617.497424546089
 30
0.0
 11
10283.19383040676
 21
7617.497424546076
 31
0.0
  0
LINE
  5
18924
330
747D
100
AcDbEntity
  8
部品1
 48
50.0
100
AcDbLine
 10
7343.193830406779
 20
8877.49742454609
 30
0.0
 11
10283.19383040676
 21
8877.497424546076
 31
0.0
  0
LINE
  5
18925
330
747D
100
AcDbEntity
  8
部品1
 48
50.0
100
AcDbLine
 10
7343.193830406777
 20
8457.49742454609
 30
0.0
 11
10283.19383040676
 21
8457.497424546076
 31
0.0
  0
LINE
  5
18926
330
747D
100
AcDbEntity
  8
部品1
 48
50.0
100
AcDbLine
 10
7343.193830406775
 20
8037.497424546089
 30
0.0
 11
10283.19383040676
 21
8037.497424546076
 31
0.0
  0
LINE
  5
18927
330
747D
100
AcDbEntity
  8
破線
 48
10.0
100
AcDbLine
 10
9515.693830406696
 20
7272.497424545905
 30
0.0
 11
9515.693830406801
 21
9292.497424546091
 31
0.0
  0
LINE
  5
18928
330
747D
100
AcDbEntity
  8
破線
 48
10.0
100
AcDbLine
 10
9565.693830406695
 20
7272.497424545909
 30
0.0
 11
9565.693830406798
 21
9292.497424546091
 31
0.0
  0
LINE
  5
18929
330
747D
100
AcDbEntity
  8
破線
 48
10.0
100
AcDbLine
 10
7368.193830406709
 20
7295.997424545844
 30
0.0
 11
7368.193830406768
 21
9292.497424545992
 31
0.0
  0
LINE
  5
1892A
330
747D
100
AcDbEntity
  8
破線
 48
10.0
100
AcDbLine
 10
8110.693830406695
 20
7272.497424545909
 30
0.0
 11
8110.6938304068
 21
9292.497424546043
 31
0.0
  0
LINE
  5
1892B
330
747D
100
AcDbEntity
  8
破線
 48
10.0
100
AcDbLine
 10
8060.693830406696
 20
7272.497424545905
 30
0.0
 11
8060.693830406799
 21
9292.497424546041
 31
0.0
  0
LINE
  5
1892C
330
747D
100
AcDbEntity
  8
破線
 48
10.0
100
AcDbLine
 10
8788.193830406697
 20
7272.497424545905
 30
0.0
 11
8788.193830406799
 21
9292.497424546093
 31
0.0
  0
LINE
  5
1892D
330
747D
100
AcDbEntity
  8
破線
 48
10.0
100
AcDbLine
 10
8838.193830406694
 20
7272.497424545909
 30
0.0
 11
8838.193830406797
 21
9292.497424546095
 31
0.0
  0
LINE
  5
1892E
330
747D
100
AcDbEntity
  8
部品1
 48
50.0
100
AcDbLine
 10
8813.193830406847
 20
9292.497424546095
 30
0.0
 11
8813.193830406746
 21
7272.497424545891
 31
0.0
  0
LINE
  5
1892F
330
747D
100
AcDbEntity
  8
破線
 48
10.0
100
AcDbLine
 10
10258.19383040667
 20
7272.497424545891
 30
0.0
 11
10258.19383040677
 21
9292.497424546088
 31
0.0
  0
LINE
  5
18930
330
747D
100
AcDbEntity
  8
部品1
100
AcDbLine
 10
10283.19383040667
 20
7272.497424545891
 30
0.0
 11
7343.193830406645
 21
7272.497424545893
 31
0.0
  0
LINE
  5
18931
330
747D
100
AcDbEntity
  8
破線
 48
10.0
100
AcDbLine
 10
10258.1938304067
 20
7295.997424545937
 30
0.0
 11
9565.693830406695
 21
7295.99742454592
 31
0.0
  0
LINE
  5
18932
330
747D
100
AcDbEntity
  8
破線
 48
10.0
100
AcDbLine
 10
8788.193830406697
 20
7295.997424545898
 30
0.0
 11
8110.693830406695
 21
7295.997424545872
 31
0.0
  0
LINE
  5
18933
330
747D
100
AcDbEntity
  8
破線
 48
10.0
100
AcDbLine
 10
8060.693830406696
 20
7295.99742454587
 30
0.0
 11
7368.193830406709
 21
7295.997424545844
 31
0.0
  0
LINE
  5
18934
330
747D
100
AcDbEntity
  8
破線
 48
10.0
100
AcDbLine
 10
9515.693830406696
 20
7295.99742454592
 30
0.0
 11
8838.193830406698
 21
7295.997424545902
 31
0.0
  0
LINE
  5
18936
330
747D
100
AcDbEntity
  8
破線
 48
10.0
100
AcDbLine
 10
5010.693830406697
 20
7295.997424545871
 30
0.0
 11
4318.193830406708
 21
7295.997424545845
 31
0.0
  0
LINE
  5
18937
330
747D
100
AcDbEntity
  8
破線
 48
10.0
100
AcDbLine
 10
7208.193830406701
 20
7295.997424545941
 30
0.0
 11
6515.693830406696
 21
7295.997424545922
 31
0.0
  0
LINE
  5
1893A
330
747D
100
AcDbEntity
  8
部品1
 48
50.0
100
AcDbLine
 10
7343.193830406772
 20
7142.497424545975
 30
0.0
 11
10283.19383040676
 21
7142.497424545952
 31
0.0
  0
LINE
  5
18A40
330
747D
100
AcDbEntity
  8
仕様書枠
 48
50.0
100
AcDbLine
 10
16307.19999999998
 20
8519.600000000002
 30
0.0
 11
13127.19999999999
 21
8519.600000000002
 31
0.0
  0
TEXT
  5
18A41
330
747D
100
AcDbEntity
  8
文字
 62
     7
 48
50.0
100
AcDbText
 10
13248.77747366447
 20
8380.013745883728
 30
0.0
 40
100.0
  1
16
  7
STYLE1
100
AcDbText
  0
TEXT
  5
18A42
330
747D
100
AcDbEntity
  8
文字
 62
     7
 48
50.0
100
AcDbText
 10
15022.63965474515
 20
8210.013745883729
 30
0.0
 40
100.0
  1
F12            0.6
  7
STYLE1
100
AcDbText
  0
TEXT
  5
18A43
330
747D
100
AcDbEntity
  8
文字
 62
     7
 48
50.0
100
AcDbText
 10
13583.11819016568
 20
8210.013745883735
 30
0.0
 40
100.0
  1
棚板
 41
0.9
  7
STYLE1
100
AcDbText
  0
TEXT
  5
18A44
330
747D
100
AcDbEntity
  8
文字
 62
     7
 48
50.0
100
AcDbText
 10
13583.11819016569
 20
8380.013745883735
 30
0.0
 40
100.0
  1
床パネル
 41
0.9
  7
STYLE1
100
AcDbText
  0
TEXT
  5
18A45
330
747D
100
AcDbEntity
  8
文字
 62
     7
 48
50.0
100
AcDbText
 10
15022.63965474516
 20
8380.013745883728
 30
0.0
 40
100.0
  1
F12            1.0
  7
STYLE1
100
AcDbText
  0
TEXT
  5
18A46
330
747D
100
AcDbEntity
  8
文字
 62
     7
 48
50.0
100
AcDbText
 10
13248.77747366448
 20
8550.013745883729
 30
0.0
 40
100.0
  1
15
  7
STYLE1
100
AcDbText
  0
LINE
  5
18A47
330
747D
100
AcDbEntity
  8
仕様書枠
 48
50.0
100
AcDbLine
 10
16307.19999999999
 20
9879.599999999999
 30
0.0
 11
13127.19999999999
 21
9879.600000000001
 31
0.0
  0
LINE
  5
18A48
330
747D
100
AcDbEntity
  8
仕様書枠
 48
50.0
100
AcDbLine
 10
16307.19999999999
 20
11239.6
 30
0.0
 11
13127.2
 21
11239.6
 31
0.0
  0
LINE
  5
18A49
330
747D
100
AcDbEntity
  8
仕様書枠
 48
50.0
100
AcDbLine
 10
16307.19999999999
 20
7669.600000000018
 30
0.0
 11
16307.2
 21
11239.6
 31
0.0
  0
LINE
  5
18A4A
330
747D
100
AcDbEntity
  8
仕様書枠
 48
50.0
100
AcDbLine
 10
14785.2
 20
11239.59999999999
 30
0.0
 11
14785.19999999999
 21
8179.600000000032
 31
0.0
  0
LINE
  5
18A4B
330
747D
100
AcDbEntity
  8
仕様書枠
 48
50.0
100
AcDbLine
 10
13490.2
 20
11239.6
 30
0.0
 11
13490.2
 21
8179.600000000032
 31
0.0
  0
LINE
  5
18A4C
330
747D
100
AcDbEntity
  8
仕様書枠
 48
50.0
100
AcDbLine
 10
16307.19999999999
 20
11069.6
 30
0.0
 11
13127.2
 21
11069.6
 31
0.0
  0
LINE
  5
18A4D
330
747D
100
AcDbEntity
  8
仕様書枠
 48
50.0
100
AcDbLine
 10
16307.19999999999
 20
10729.6
 30
0.0
 11
13127.2
 21
10729.6
 31
0.0
  0
LINE
  5
18A4E
330
747D
100
AcDbEntity
  8
仕様書枠
 48
50.0
100
AcDbLine
 10
16307.19999999999
 20
10899.6
 30
0.0
 11
13127.2
 21
10899.6
 31
0.0
  0
LINE
  5
18A4F
330
747D
100
AcDbEntity
  8
仕様書枠
 48
50.0
100
AcDbLine
 10
16307.19999999999
 20
10389.6
 30
0.0
 11
13127.19999999999
 21
10389.6
 31
0.0
  0
LINE
  5
18A50
330
747D
100
AcDbEntity
  8
仕様書枠
 48
50.0
100
AcDbLine
 10
16307.19999999999
 20
10219.6
 30
0.0
 11
13127.19999999999
 21
10219.6
 31
0.0
  0
LINE
  5
18A51
330
747D
100
AcDbEntity
  8
仕様書枠
 48
50.0
100
AcDbLine
 10
16307.19999999999
 20
10559.6
 30
0.0
 11
13127.19999999999
 21
10559.6
 31
0.0
  0
TEXT
  5
18A52
330
747D
100
AcDbEntity
  8
文字
 62
     7
 48
50.0
100
AcDbText
 10
13197.42518560407
 20
11100.01374588373
 30
0.0
 40
100.0
  1
品番
  7
STYLE1
100
AcDbText
  0
TEXT
  5
18A53
330
747D
100
AcDbEntity
  8
文字
 62
     7
 48
50.0
100
AcDbText
 10
13271.19032244792
 20
10930.01374588373
 30
0.0
 40
100.0
  1
1
  7
STYLE1
100
AcDbText
  0
TEXT
  5
18A54
330
747D
100
AcDbEntity
  8
文字
 62
     7
 48
50.0
100
AcDbText
 10
13271.19032244792
 20
10760.01374588373
 30
0.0
 40
100.0
  1
2
  7
STYLE1
100
AcDbText
  0
TEXT
  5
18A55
330
747D
100
AcDbEntity
  8
文字
 62
     7
 48
50.0
100
AcDbText
 10
13271.19032244792
 20
10420.01374588373
 30
0.0
 40
100.0
  1
4
  7
STYLE1
100
AcDbText
  0
TEXT
  5
18A56
330
747D
100
AcDbEntity
  8
文字
 62
     7
 48
50.0
100
AcDbText
 10
13271.19032244792
 20
10590.01374588373
 30
0.0
 40
100.0
  1
3
  7
STYLE1
100
AcDbText
  0
TEXT
  5
18A57
330
747D
100
AcDbEntity
  8
文字
 62
     7
 48
50.0
100
AcDbText
 10
13732.03840939434
 20
11100.01374588373
 30
0.0
 40
100.0
  1
部　　品　　名
  7
STYLE1
100
AcDbText
  0
TEXT
  5
18A58
330
747D
100
AcDbEntity
  8
文字
 62
     7
 48
50.0
100
AcDbText
 10
14859.79774614482
 20
11100.01374588373
 30
0.0
 40
100.0
  1
材料（材質）　　単位mm
  7
STYLE1
100
AcDbText
  0
TEXT
  5
18A59
330
747D
100
AcDbEntity
  8
文字
 62
     7
 48
50.0
100
AcDbText
 10
13583.11819016569
 20
10930.01374588372
 30
0.0
 40
100.0
  1
土台枠
  7
STYLE1
100
AcDbText
  0
TEXT
  5
18A5A
330
747D
100
AcDbEntity
  8
文字
 62
     7
 48
50.0
100
AcDbText
 10
13583.11819016569
 20
10760.01374588372
 30
0.0
 40
100.0
  1
柱
  7
STYLE1
100
AcDbText
  0
TEXT
  5
18A5B
330
747D
100
AcDbEntity
  8
文字
 62
     7
 48
50.0
100
AcDbText
 10
13583.11819016569
 20
10590.01374588373
 30
0.0
 40
100.0
  1
桁前
  7
STYLE1
100
AcDbText
  0
TEXT
  5
18A5C
330
747D
100
AcDbEntity
  8
文字
 62
     7
 48
50.0
100
AcDbText
 10
13583.11819016569
 20
10420.01374588373
 30
0.0
 40
100.0
  1
桁後
  7
STYLE1
100
AcDbText
  0
TEXT
  5
18A5D
330
747D
100
AcDbEntity
  8
文字
 62
     7
 48
50.0
100
AcDbText
 10
13271.19032244792
 20
10250.01374588373
 30
0.0
 40
100.0
  1
5
  7
STYLE1
100
AcDbText
  0
TEXT
  5
18A5E
330
747D
100
AcDbEntity
  8
文字
 62
     7
 48
50.0
100
AcDbText
 10
13583.11819016569
 20
10250.01374588373
 30
0.0
 40
100.0
  1
妻板左右
  7
STYLE1
100
AcDbText
  0
TEXT
  5
18A5F
330
747D
100
AcDbEntity
  8
文字
 62
     7
 48
50.0
100
AcDbText
 10
13583.11819016569
 20
8720.013745883735
 30
0.0
 40
100.0
  1
シャッターレール
  7
STYLE1
100
AcDbText
  0
TEXT
  5
18A60
330
747D
100
AcDbEntity
  8
文字
 62
     7
 48
50.0
100
AcDbText
 10
13248.77747366448
 20
9400.013745883727
 30
0.0
 40
100.0
  1
10
  7
STYLE1
100
AcDbText
  0
TEXT
  5
18A61
330
747D
100
AcDbEntity
  8
文字
 62
     7
 48
50.0
100
AcDbText
 10
13583.11819016569
 20
9400.013745883731
 30
0.0
 40
100.0
  1
壁パネル
  7
STYLE1
100
AcDbText
  0
TEXT
  5
18A62
330
747D
100
AcDbEntity
  8
文字
 62
     7
 48
50.0
100
AcDbText
 10
13583.11819016569
 20
9570.013745883729
 30
0.0
 40
100.0
  1
屋根パネル
  7
STYLE1
100
AcDbText
  0
TEXT
  5
18A63
330
747D
100
AcDbEntity
  8
文字
 62
     7
 48
50.0
100
AcDbText
 10
13583.11819016569
 20
9740.013745883729
 30
0.0
 40
100.0
  1
母屋中
  7
STYLE1
100
AcDbText
  0
TEXT
  5
18A64
330
747D
100
AcDbEntity
  8
文字
 62
     7
 48
50.0
100
AcDbText
 10
13583.11819016569
 20
10080.01374588372
 30
0.0
 40
100.0
  1
鼻隠シ前後
  7
STYLE1
100
AcDbText
  0
TEXT
  5
18A65
330
747D
100
AcDbEntity
  8
文字
 62
     7
 48
50.0
100
AcDbText
 10
13271.19032244792
 20
9740.013745883729
 30
0.0
 40
100.0
  1
8
  7
STYLE1
100
AcDbText
  0
TEXT
  5
18A66
330
747D
100
AcDbEntity
  8
文字
 62
     7
 48
50.0
100
AcDbText
 10
13271.19032244792
 20
9570.013745883729
 30
0.0
 40
100.0
  1
9
  7
STYLE1
100
AcDbText
  0
TEXT
  5
18A67
330
747D
100
AcDbEntity
  8
文字
 62
     7
 48
50.0
100
AcDbText
 10
13271.19032244792
 20
9910.01374588373
 30
0.0
 40
100.0
  1
7
  7
STYLE1
100
AcDbText
  0
TEXT
  5
18A68
330
747D
100
AcDbEntity
  8
文字
 62
     7
 48
50.0
100
AcDbText
 10
13271.19032244792
 20
10080.01374588373
 30
0.0
 40
100.0
  1
6
  7
STYLE1
100
AcDbText
  0
LINE
  5
18A69
330
747D
100
AcDbEntity
  8
仕様書枠
 48
50.0
100
AcDbLine
 10
16307.19999999999
 20
9539.599999999998
 30
0.0
 11
13127.19999999999
 21
9539.6
 31
0.0
  0
LINE
  5
18A6A
330
747D
100
AcDbEntity
  8
仕様書枠
 48
50.0
100
AcDbLine
 10
16307.19999999999
 20
9199.599999999998
 30
0.0
 11
13127.19999999999
 21
9199.600000000001
 31
0.0
  0
LINE
  5
18A6B
330
747D
100
AcDbEntity
  8
仕様書枠
 48
50.0
100
AcDbLine
 10
16307.19999999999
 20
9369.599999999998
 30
0.0
 11
13127.19999999999
 21
9369.600000000001
 31
0.0
  0
LINE
  5
18A6C
330
747D
100
AcDbEntity
  8
仕様書枠
 48
50.0
100
AcDbLine
 10
16307.19999999999
 20
10049.6
 30
0.0
 11
13127.2
 21
10049.6
 31
0.0
  0
LINE
  5
18A6D
330
747D
100
AcDbEntity
  8
仕様書枠
 48
50.0
100
AcDbLine
 10
16307.19999999999
 20
9709.6
 30
0.0
 11
13127.19999999999
 21
9709.600000000001
 31
0.0
  0
TEXT
  5
18A6E
330
747D
100
AcDbEntity
  8
文字
 62
     7
 48
50.0
100
AcDbText
 10
13248.77747366448
 20
9230.013745883727
 30
0.0
 40
100.0
  1
11
  7
STYLE1
100
AcDbText
  0
TEXT
  5
18A6F
330
747D
100
AcDbEntity
  8
文字
 62
     7
 48
50.0
100
AcDbText
 10
13583.11819016569
 20
8890.013745883731
 30
0.0
 40
100.0
  1
シャッターカバー
 41
0.9
  7
STYLE1
100
AcDbText
  0
LINE
  5
18A70
330
747D
100
AcDbEntity
  8
仕様書枠
 48
50.0
100
AcDbLine
 10
16307.19999999999
 20
9029.6
 30
0.0
 11
13127.19999999999
 21
9029.6
 31
0.0
  0
TEXT
  5
18A71
330
747D
100
AcDbEntity
  8
文字
 62
     7
 48
50.0
100
AcDbText
 10
13583.11819016569
 20
9060.013745883731
 30
0.0
 40
100.0
  1
シャッター
  7
STYLE1
100
AcDbText
  0
TEXT
  5
18A72
330
747D
100
AcDbEntity
  8
文字
 62
     7
 48
50.0
100
AcDbText
 10
13248.77747366448
 20
8890.013745883729
 30
0.0
 40
100.0
  1
13
  7
STYLE1
100
AcDbText
  0
TEXT
  5
18A73
330
747D
100
AcDbEntity
  8
文字
 62
     7
 48
50.0
100
AcDbText
 10
13248.77747366448
 20
9060.013745883729
 30
0.0
 40
100.0
  1
12
  7
STYLE1
100
AcDbText
  0
TEXT
  5
18A74
330
747D
100
AcDbEntity
  8
文字
 62
     7
 48
50.0
100
AcDbText
 10
15022.63965474517
 20
10930.01374588372
 30
0.0
 40
100.0
  1
F12            1.2
  7
STYLE1
100
AcDbText
  0
TEXT
  5
18A75
330
747D
100
AcDbEntity
  8
文字
 62
     7
 48
50.0
100
AcDbText
 10
15022.63965474517
 20
10760.01374588372
 30
0.0
 40
100.0
  1
F12         1.0,1.2
  7
STYLE1
100
AcDbText
  0
TEXT
  5
18A76
330
747D
100
AcDbEntity
  8
文字
 62
     7
 48
50.0
100
AcDbText
 10
15022.63965474516
 20
10590.01374588372
 30
0.0
 40
100.0
  1
Y10            1.0
  7
STYLE1
100
AcDbText
  0
TEXT
  5
18A77
330
747D
100
AcDbEntity
  8
文字
 62
     7
 48
50.0
100
AcDbText
 10
15022.63965474516
 20
10420.01374588372
 30
0.0
 40
100.0
  1
Y10            1.0
  7
STYLE1
100
AcDbText
  0
TEXT
  5
18A78
330
747D
100
AcDbEntity
  8
文字
 62
     7
 48
50.0
100
AcDbText
 10
15022.63965474516
 20
10250.01374588372
 30
0.0
 40
100.0
  1
Y10            0.7
  7
STYLE1
100
AcDbText
  0
TEXT
  5
18A79
330
747D
100
AcDbEntity
  8
文字
 62
     7
 48
50.0
100
AcDbText
 10
15022.63965474516
 20
10080.01374588372
 30
0.0
 40
100.0
  1
Y10            0.7
  7
STYLE1
100
AcDbText
  0
TEXT
  5
18A7A
330
747D
100
AcDbEntity
  8
文字
 62
     7
 48
50.0
100
AcDbText
 10
15022.63965474516
 20
9570.013745883727
 30
0.0
 40
100.0
  1
Y10            0.5
  7
STYLE1
100
AcDbText
  0
TEXT
  5
18A7B
330
747D
100
AcDbEntity
  8
文字
 62
     7
 48
50.0
100
AcDbText
 10
15022.63965474516
 20
9400.013745883727
 30
0.0
 40
100.0
  1
F12            0.7
  7
STYLE1
100
AcDbText
  0
TEXT
  5
18A7C
330
747D
100
AcDbEntity
  8
文字
 62
     7
 48
50.0
100
AcDbText
 10
14850.83183167176
 20
8720.013745883733
 30
0.0
 40
100.0
  1
アルミニウム合金押出形材
  7
STYLE1
100
AcDbText
  0
TEXT
  5
18A7E
330
747D
100
AcDbEntity
  8
文字
 62
     7
 48
50.0
100
AcDbText
 10
15022.63965474515
 20
9060.013745883727
 30
0.0
 40
100.0
  1
Z08            0.5
  7
STYLE1
100
AcDbText
  0
LINE
  5
18A7F
330
747D
100
AcDbEntity
  8
仕様書枠
 48
50.0
100
AcDbLine
 10
16307.19999999998
 20
8009.600000000018
 30
0.0
 11
13127.19999999998
 21
8009.60000000002
 31
0.0
  0
LINE
  5
18A80
330
747D
100
AcDbEntity
  8
仕様書枠
 48
50.0
100
AcDbLine
 10
16307.19999999998
 20
7839.600000000018
 30
0.0
 11
13127.19999999998
 21
7839.60000000002
 31
0.0
  0
LINE
  5
18A81
330
747D
100
AcDbEntity
  8
仕様書枠
 48
50.0
100
AcDbLine
 10
16307.19999999998
 20
7669.600000000018
 30
0.0
 11
13127.19999999998
 21
7669.600000000021
 31
0.0
  0
TEXT
  5
18A82
330
747D
100
AcDbEntity
  8
文字
 62
     7
 48
50.0
100
AcDbText
 10
13229.83081656553
 20
8040.013745883747
 30
0.0
 40
100.0
  1
F12→溶融亜鉛めっき鋼板(JIS G 3302)
  7
STYLE1
100
AcDbText
  0
TEXT
  5
18A83
330
747D
100
AcDbEntity
  8
文字
 62
     7
 48
50.0
100
AcDbText
 10
13229.83081656553
 20
7870.013745883747
 30
0.0
 40
100.0
  1
Y10→溶融亜鉛-5％アルミニウム合金めっき鋼板(JIS G 3317)
 41
0.9
  7
STYLE1
100
AcDbText
  0
TEXT
  5
18A84
330
747D
100
AcDbEntity
  8
文字
 62
     7
 48
50.0
100
AcDbText
 10
13229.83081656553
 20
7700.013745883748
 30
0.0
 40
100.0
  1
Z08→塗装溶融亜鉛めっき鋼板(JIS G 3313)
  7
STYLE1
100
AcDbText
  0
LINE
  5
18A85
330
747D
100
AcDbEntity
  8
仕様書枠
 48
50.0
100
AcDbLine
 10
13127.2
 20
11239.6
 30
0.0
 11
13127.19999999999
 21
7669.600000000021
 31
0.0
  0
LINE
  5
18A86
330
747D
100
AcDbEntity
  8
仕様書枠
 48
50.0
100
AcDbLine
 10
16307.19999999999
 20
8689.6
 30
0.0
 11
13127.19999999999
 21
8689.600000000003
 31
0.0
  0
LINE
  5
18A87
330
747D
100
AcDbEntity
  8
仕様書枠
 48
50.0
100
AcDbLine
 10
16307.19999999999
 20
8859.6
 30
0.0
 11
13127.19999999999
 21
8859.600000000002
 31
0.0
  0
TEXT
  5
18A88
330
747D
100
AcDbEntity
  8
文字
 62
     7
 48
50.0
100
AcDbText
 10
13583.11819016569
 20
8550.013745883733
 30
0.0
 40
100.0
  1
根太
  7
STYLE1
100
AcDbText
  0
TEXT
  5
18A89
330
747D
100
AcDbEntity
  8
文字
 62
     7
 48
50.0
100
AcDbText
 10
13248.77747366448
 20
8720.013745883729
 30
0.0
 40
100.0
  1
14
  7
STYLE1
100
AcDbText
  0
TEXT
  5
18A8A
330
747D
100
AcDbEntity
  8
文字
 62
     7
 48
50.0
100
AcDbText
 10
15022.63965474516
 20
8550.013745883729
 30
0.0
 40
100.0
  1
F12            1.2
  7
STYLE1
100
AcDbText
  0
TEXT
  5
18A8B
330
747D
100
AcDbEntity
  8
文字
 62
     7
 48
50.0
100
AcDbText
 10
13583.11819016569
 20
9910.01374588373
 30
0.0
 40
100.0
  1
梁中
  7
STYLE1
100
AcDbText
  0
TEXT
  5
18A8C
330
747D
100
AcDbEntity
  8
文字
 62
     7
 48
50.0
100
AcDbText
 10
15022.63965474516
 20
9910.013745883727
 30
0.0
 40
100.0
  1
F12,Y10        1.0
  7
STYLE1
100
AcDbText
  0
LINE
  5
18A8D
330
747D
100
AcDbEntity
  8
仕様書枠
 48
50.0
100
AcDbLine
 10
16307.19999999998
 20
8349.600000000014
 30
0.0
 11
13127.19999999999
 21
8349.600000000016
 31
0.0
  0
TEXT
  5
18A8E
330
747D
100
AcDbEntity
  8
文字
 62
     7
 48
50.0
100
AcDbText
 10
15022.63965474517
 20
9740.013745883725
 30
0.0
 40
100.0
  1
F12            2.3
  7
STYLE1
100
AcDbText
  0
LINE
  5
19089
330
747D
100
AcDbEntity
  8
部品1
 48
50.0
100
AcDbLine
 10
7288.1938304068
 20
4512.931598713259
 30
0.0
 11
7288.193830406801
 21
4771.931598713265
 31
0.0
  0
LINE
  5
1908A
330
747D
100
AcDbEntity
  8
部品1
 48
50.0
100
AcDbLine
 10
7278.193830406801
 20
4771.931598713265
 30
0.0
 11
7278.193830406801
 21
4912.931598713264
 31
0.0
  0
ARC
  5
1908B
330
747D
100
AcDbEntity
  8
部品1
100
AcDbCircle
 10
10380.78540930037
 20
4905.931598713264
 30
0.0
 40
7.0
100
AcDbArc
 50
356.7526572096623
 51
90.0
  0
ARC
  5
1908C
330
747D
100
AcDbEntity
  8
部品1
100
AcDbCircle
 10
10367.57008583934
 20
4778.931598713266
 30
0.0
 40
7.0
100
AcDbArc
 50
270.0
 51
356.7526572096623
  0
ARC
  5
1908D
330
747D
100
AcDbEntity
  8
部品1
 48
50.0
100
AcDbCircle
 10
10385.94189605002
 20
4885.598597874952
 30
0.0
 40
0.7
100
AcDbArc
 50
277.6581272073635
 51
356.7526572096103
  0
ARC
  5
1908E
330
747D
100
AcDbEntity
  8
部品1
 48
50.0
100
AcDbCircle
 10
10377.70586552518
 20
4793.398597874946
 30
0.0
 40
0.7
100
AcDbArc
 50
277.6581272073635
 51
356.7526572097013
  0
ARC
  5
1908F
330
747D
100
AcDbEntity
  8
部品1
 48
50.0
100
AcDbCircle
 10
10378.19893463374
 20
4789.731598713263
 30
0.0
 40
3.0
100
AcDbArc
 50
97.65812720736347
 51
176.7526572096623
  0
ARC
  5
19090
330
747D
100
AcDbEntity
  8
部品1
 48
50.0
100
AcDbCircle
 10
10386.43496515858
 20
4881.931598713266
 30
0.0
 40
3.0
100
AcDbArc
 50
97.65812720736347
 51
176.7526572096623
  0
LINE
  5
19091
330
747D
100
AcDbEntity
  8
部品1
100
AcDbLine
 10
10383.4397822624
 20
4882.101538168367
 30
0.0
 11
10378.40474153428
 21
4793.358945335424
 31
0.0
  0
LINE
  5
19092
330
747D
100
AcDbEntity
  8
部品1
100
AcDbLine
 10
10375.20375173755
 20
4789.901538168367
 30
0.0
 11
10374.55884593044
 21
4778.535073318026
 31
0.0
  0
LINE
  5
19093
330
747D
100
AcDbEntity
  8
細線
 48
50.0
100
AcDbLine
 10
10355.19383040681
 20
4912.931598713264
 30
0.0
 11
10355.19383040681
 21
4771.931598713264
 31
0.0
  0
LINE
  5
19094
330
747D
100
AcDbEntity
  8
部品1
100
AcDbLine
 10
10387.77416939147
 20
4905.535073318024
 30
0.0
 11
10386.64077205913
 21
4885.558945335425
 31
0.0
  0
LINE
  5
19095
330
747D
100
AcDbEntity
  8
細線
 48
50.0
100
AcDbLine
 10
10377.79914887005
 20
4792.704841276732
 30
0.0
 11
7278.193830406801
 21
4792.704841277097
 31
0.0
  0
LINE
  5
19096
330
747D
100
AcDbEntity
  8
細線
 48
50.0
100
AcDbLine
 10
10386.03517939489
 20
4884.904841276732
 30
0.0
 11
7278.193830406801
 21
4884.904841276739
 31
0.0
  0
LINE
  5
19097
330
747D
100
AcDbEntity
  8
部品1
 48
50.0
100
AcDbLine
 10
10367.57008583934
 20
4771.931598713265
 30
0.0
 11
7288.193830406801
 21
4771.931598713265
 31
0.0
  0
LINE
  5
19098
330
747D
100
AcDbEntity
  8
部品1
 48
50.0
100
AcDbLine
 10
10380.78540930037
 20
4912.931598713264
 30
0.0
 11
7278.193830406801
 21
4912.931598713264
 31
0.0
  0
DIMENSION
  5
190C5
330
747D
100
AcDbEntity
  8
寸法
 48
50.0
100
AcDbDimension
  2
*D27
 10
10338.19383040681
 20
5125.473183971505
 30
0.0
 11
10701.67911178104
 21
5125.473183971505
 31
0.0
 70
   160
 71
     5
 42
50.0
  3
INABA_S40G
100
AcDbAlignedDimension
 13
10388.19383040681
 23
4912.931598713264
 33
0.0
 14
10338.19383040681
 24
4912.931598713266
 34
0.0
100
AcDbRotatedDimension
  0
LINE
  5
190C6
330
747D
100
AcDbEntity
  8
部品1
100
AcDbLine
 10
7288.193830406801
 20
4677.931598713261
 30
0.0
 11
10338.1938304068
 21
4677.931598713261
 31
0.0
  0
LINE
  5
190C7
330
747D
100
AcDbEntity
  8
部品1
100
AcDbLine
 10
4238.193830406788
 20
4677.931598713261
 30
0.0
 11
7288.193830406801
 21
4677.931598713261
 31
0.0
  0
LWPOLYLINE
  5
190F8
330
747D
100
AcDbEntity
  8
部品1
100
AcDbPolyline
 90
        4
 70
     1
 43
0.0
 10
5381.458497292545
 20
1787.931598713261
 10
5381.458497292545
 20
1548.039277167729
 10
6144.929163520981
 20
1548.039277167729
 10
6144.929163520981
 20
1787.931598713261
  0
TEXT
  5
190F9
330
747D
100
AcDbEntity
  8
部品1
100
AcDbText
 10
5471.983901030497
 20
1595.038069494738
 30
0.0
 40
135.0
  1
正面図
  7
STYLE2
100
AcDbText
  0
LINE
  5
190FA
330
747D
100
AcDbEntity
  8
部品1
100
AcDbLine
 10
1138.613491422096
 20
4905.535073318026
 30
0.0
 11
1139.746888754445
 21
4885.558945335426
 31
0.0
  0
LINE
  5
190FB
330
747D
100
AcDbEntity
  8
部品1
100
AcDbLine
 10
1151.183909076022
 20
4789.901538168368
 30
0.0
 11
1151.82881488313
 21
4778.535073318027
 31
0.0
  0
LINE
  5
190FC
330
747D
100
AcDbEntity
  8
部品1
100
AcDbLine
 10
1142.947878551174
 20
4882.101538168369
 30
0.0
 11
1147.982919279286
 21
4793.358945335425
 31
0.0
  0
ARC
  5
190FD
330
747D
100
AcDbEntity
  8
部品1
 48
50.0
100
AcDbCircle
 10
1139.952695654989
 20
4881.931598713267
 30
0.0
 40
3.0
100
AcDbArc
 50
3.247342790337682
 51
82.34187279263654
  0
ARC
  5
190FE
330
747D
100
AcDbEntity
  8
部品1
 48
50.0
100
AcDbCircle
 10
1148.188726179833
 20
4789.731598713264
 30
0.0
 40
3.0
100
AcDbArc
 50
3.247342790337682
 51
82.34187279263654
  0
ARC
  5
190FF
330
747D
100
AcDbEntity
  8
部品1
 48
50.0
100
AcDbCircle
 10
1148.681795288394
 20
4793.398597874948
 30
0.0
 40
0.7
100
AcDbArc
 50
183.2473427902987
 51
262.3418727926365
  0
ARC
  5
19100
330
747D
100
AcDbEntity
  8
部品1
 48
50.0
100
AcDbCircle
 10
1140.445764763553
 20
4885.598597874952
 30
0.0
 40
0.7
100
AcDbArc
 50
183.2473427903897
 51
262.3418727926365
  0
ARC
  5
19101
330
747D
100
AcDbEntity
  8
部品1
100
AcDbCircle
 10
1158.817574974229
 20
4778.931598713266
 30
0.0
 40
7.0
100
AcDbArc
 50
183.2473427903377
 51
270.0
  0
ARC
  5
19102
330
747D
100
AcDbEntity
  8
部品1
100
AcDbCircle
 10
1145.602251513195
 20
4905.931598713265
 30
0.0
 40
7.0
100
AcDbArc
 50
90.0
 51
183.2473427903377
  0
LINE
  5
19103
330
747D
100
AcDbEntity
  8
細線
 48
50.0
100
AcDbLine
 10
1171.193830406766
 20
4912.931598713265
 30
0.0
 11
1171.193830406766
 21
4771.931598713265
 31
0.0
  0
LINE
  5
19104
330
747D
100
AcDbEntity
  8
細線
 48
50.0
100
AcDbLine
 10
4228.193830406787
 20
4792.704841276732
 30
0.0
 11
1148.588511943195
 21
4792.7048412771
 31
0.0
  0
LINE
  5
19105
330
747D
100
AcDbEntity
  8
細線
 48
50.0
100
AcDbLine
 10
4228.193830406787
 20
4884.904841276732
 30
0.0
 11
1140.352481418365
 21
4884.904841277102
 31
0.0
  0
LINE
  5
19106
330
747D
100
AcDbEntity
  8
部品1
 48
50.0
100
AcDbLine
 10
4238.193830406788
 20
4771.931598713265
 30
0.0
 11
1158.817574974229
 21
4771.931598713265
 31
0.0
  0
LINE
  5
19107
330
747D
100
AcDbEntity
  8
部品1
 48
50.0
100
AcDbLine
 10
4228.193830406787
 20
4912.931598713264
 30
0.0
 11
1145.602251513195
 21
4912.931598713264
 31
0.0
  0
DIMENSION
  5
19134
330
747D
100
AcDbEntity
  8
寸法
 48
50.0
100
AcDbDimension
  2
*D28
 10
1138.193830406766
 20
5125.473183971506
 30
0.0
 11
824.7085490325188
 21
5125.473183971506
 31
0.0
 70
   160
 71
     5
 42
50.0
  3
INABA_S40G
100
AcDbAlignedDimension
 13
1188.193830406766
 23
4912.931598713268
 33
0.0
 14
1138.193830406766
 24
4912.931598713267
 34
0.0
100
AcDbRotatedDimension
1001
ACAD
1000
DSTYLE
1002
{
1002
}
  0
LINE
  5
19135
330
747D
100
AcDbEntity
  8
部品1
100
AcDbLine
 10
1188.193830406773
 20
4677.931598713261
 30
0.0
 11
4238.193830406774
 21
4677.931598713261
 31
0.0
  0
LINE
  5
19136
330
747D
100
AcDbEntity
  8
部品1
 48
50.0
100
AcDbLine
 10
4228.193830406787
 20
4771.931598713265
 30
0.0
 11
4228.193830406787
 21
4912.931598713264
 31
0.0
  0
LINE
  5
19137
330
747D
100
AcDbEntity
  8
部品1
 48
50.0
100
AcDbLine
 10
4238.193830406788
 20
4512.931598713261
 30
0.0
 11
4238.193830406788
 21
4771.931598713265
 31
0.0
  0
DIMENSION
  5
19138
330
747D
100
AcDbEntity
  8
寸法
 48
50.0
100
AcDbDimension
  2
*D29
 10
1188.193830406766
 20
5125.473183971506
 30
0.0
 11
5763.193830406766
 21
5225.473183971506
 31
0.0
 70
    32
  1
柱外寸法 N X 3050
 71
     5
 42
9150.0
  3
INABA_S40G
100
AcDbAlignedDimension
 13
10338.19383040676
 23
4925.852924535788
 33
0.0
 14
1188.193830406766
 24
4925.852924544255
 34
0.0
100
AcDbRotatedDimension
  0
DIMENSION
  5
19139
330
747D
100
AcDbEntity
  8
寸法
 48
50.0
100
AcDbDimension
  2
*D30
 10
10388.19383040681
 20
5346.378484445256
 30
0.0
 11
5763.193830406788
 21
5446.378484445256
 31
0.0
 70
    32
  1
N X 3050+100
 71
     5
 42
9250.000000000044
  3
INABA_S40G
100
AcDbAlignedDimension
 13
1138.193830406766
 23
4912.931598713267
 33
0.0
 14
10388.19383040681
 24
4912.931598713264
 34
0.0
100
AcDbRotatedDimension
  0
LINE
  5
1913A
330
747D
100
AcDbEntity
  8
部品1
 48
50.0
100
AcDbLine
 10
7278.193830406801
 20
4912.931598713262
 30
0.0
 11
4228.193830406787
 21
4912.931598713264
 31
0.0
  0
LINE
  5
1913B
330
747D
100
AcDbEntity
  8
細線
 48
50.0
100
AcDbLine
 10
7278.193830406802
 20
4884.904841276732
 30
0.0
 11
4228.193830406787
 21
4884.904841277102
 31
0.0
  0
LINE
  5
1913C
330
747D
100
AcDbEntity
  8
細線
 48
50.0
100
AcDbLine
 10
7278.193830406802
 20
4792.704841276733
 30
0.0
 11
4228.193830406787
 21
4792.704841276732
 31
0.0
  0
LINE
  5
1913D
330
747D
100
AcDbEntity
  8
部品1
 48
50.0
100
AcDbLine
 10
7288.1938304068
 20
4771.931598713262
 30
0.0
 11
4238.193830406788
 21
4771.931598713265
 31
0.0
  0
TEXT
  5
19140
330
747D
100
AcDbEntity
  8
部品1
100
AcDbText
 10
13704.73121922118
 20
1595.038069494738
 30
0.0
 40
135.0
  1
側面図
  7
STYLE2
100
AcDbText
  0
LWPOLYLINE
  5
19141
330
747D
100
AcDbEntity
  8
部品1
100
AcDbPolyline
 90
        4
 70
     1
 43
0.0
 10
13615.28511779757
 20
1787.931598713261
 10
13615.28511779757
 20
1548.039277167729
 10
14378.75578402601
 20
1548.039277167729
 10
14378.75578402601
 20
1787.931598713261
  0
LINE
  5
19142
330
747D
100
AcDbEntity
  8
細線
 48
50.0
100
AcDbLine
 10
14759.52045091179
 20
4677.931598713261
 30
0.0
 11
14759.52045091179
 21
2587.931598713263
 31
0.0
  0
LINE
  5
19143
330
747D
100
AcDbEntity
  8
細線
 48
50.0
100
AcDbLine
 10
14774.52045091179
 20
4677.931598713261
 30
0.0
 11
14774.52045091179
 21
2587.931598713263
 31
0.0
  0
LINE
  5
19144
330
747D
100
AcDbEntity
  8
細線
 48
50.0
100
AcDbLine
 10
14634.52045091179
 20
4677.931598713261
 30
0.0
 11
14634.52045091179
 21
2587.931598713263
 31
0.0
  0
LINE
  5
19145
330
747D
100
AcDbEntity
  8
細線
 48
50.0
100
AcDbLine
 10
14619.52045091179
 20
4677.931598713261
 30
0.0
 11
14619.52045091179
 21
2587.931598713263
 31
0.0
  0
LINE
  5
19146
330
747D
100
AcDbEntity
  8
細線
 48
50.0
100
AcDbLine
 10
14479.52045091179
 20
4677.931598713261
 30
0.0
 11
14479.52045091179
 21
2587.931598713263
 31
0.0
  0
LINE
  5
19147
330
747D
100
AcDbEntity
  8
細線
 48
50.0
100
AcDbLine
 10
14494.52045091179
 20
4677.931598713261
 30
0.0
 11
14494.52045091179
 21
2587.931598713263
 31
0.0
  0
LINE
  5
19148
330
747D
100
AcDbEntity
  8
部品1
100
AcDbLine
 10
14417.02045091178
 20
4677.931598713261
 30
0.0
 11
14417.02045091178
 21
2587.931598713263
 31
0.0
  0
LINE
  5
19149
330
747D
100
AcDbEntity
  8
細線
 48
50.0
100
AcDbLine
 10
14074.52045091179
 20
4677.931598713261
 30
0.0
 11
14074.52045091179
 21
2587.931598713263
 31
0.0
  0
LINE
  5
1914A
330
747D
100
AcDbEntity
  8
細線
 48
50.0
100
AcDbLine
 10
14059.52045091179
 20
4677.931598713261
 30
0.0
 11
14059.52045091179
 21
2587.931598713263
 31
0.0
  0
LINE
  5
1914B
330
747D
100
AcDbEntity
  8
細線
 48
50.0
100
AcDbLine
 10
14199.52045091179
 20
4677.931598713261
 30
0.0
 11
14199.52045091179
 21
2587.931598713263
 31
0.0
  0
LINE
  5
1914C
330
747D
100
AcDbEntity
  8
細線
 48
50.0
100
AcDbLine
 10
14214.52045091179
 20
4677.931598713261
 30
0.0
 11
14214.52045091179
 21
2587.931598713263
 31
0.0
  0
LINE
  5
1914D
330
747D
100
AcDbEntity
  8
細線
 48
50.0
100
AcDbLine
 10
14354.52045091179
 20
4677.931598713261
 30
0.0
 11
14354.52045091179
 21
2587.931598713263
 31
0.0
  0
LINE
  5
1914E
330
747D
100
AcDbEntity
  8
細線
 48
50.0
100
AcDbLine
 10
14339.52045091179
 20
4677.931598713261
 30
0.0
 11
14339.52045091179
 21
2587.931598713263
 31
0.0
  0
LINE
  5
1914F
330
747D
100
AcDbEntity
  8
部品1
100
AcDbLine
 10
14837.02045091179
 20
4677.931598713261
 30
0.0
 11
14837.02045091179
 21
2587.931598713263
 31
0.0
  0
LINE
  5
19150
330
747D
100
AcDbEntity
  8
部品1
100
AcDbLine
 10
13157.02045091179
 20
4677.931598713261
 30
0.0
 11
13157.02045091179
 21
2587.931598713263
 31
0.0
  0
LINE
  5
19151
330
747D
100
AcDbEntity
  8
細線
 48
50.0
100
AcDbLine
 10
13234.52045091179
 20
4677.931598713261
 30
0.0
 11
13234.52045091179
 21
2587.931598713263
 31
0.0
  0
LINE
  5
19152
330
747D
100
AcDbEntity
  8
細線
 48
50.0
100
AcDbLine
 10
13219.52045091179
 20
4677.931598713261
 30
0.0
 11
13219.52045091179
 21
2587.931598713263
 31
0.0
  0
LINE
  5
19153
330
747D
100
AcDbEntity
  8
細線
 48
50.0
100
AcDbLine
 10
13359.52045091179
 20
4677.931598713261
 30
0.0
 11
13359.52045091179
 21
2587.931598713263
 31
0.0
  0
LINE
  5
19154
330
747D
100
AcDbEntity
  8
細線
 48
50.0
100
AcDbLine
 10
13374.52045091179
 20
4677.931598713261
 30
0.0
 11
13374.52045091179
 21
2587.931598713263
 31
0.0
  0
LINE
  5
19155
330
747D
100
AcDbEntity
  8
細線
 48
50.0
100
AcDbLine
 10
13514.52045091179
 20
4677.931598713261
 30
0.0
 11
13514.52045091179
 21
2587.931598713263
 31
0.0
  0
LINE
  5
19156
330
747D
100
AcDbEntity
  8
細線
 48
50.0
100
AcDbLine
 10
13499.52045091179
 20
4677.931598713261
 30
0.0
 11
13499.52045091179
 21
2587.931598713263
 31
0.0
  0
LINE
  5
19157
330
747D
100
AcDbEntity
  8
細線
 48
50.0
100
AcDbLine
 10
13079.52045091179
 20
4677.931598713261
 30
0.0
 11
13079.52045091179
 21
2587.931598713263
 31
0.0
  0
LINE
  5
19158
330
747D
100
AcDbEntity
  8
細線
 48
50.0
100
AcDbLine
 10
13094.52045091179
 20
4677.931598713261
 30
0.0
 11
13094.52045091179
 21
2587.931598713263
 31
0.0
  0
LINE
  5
19159
330
747D
100
AcDbEntity
  8
細線
 48
50.0
100
AcDbLine
 10
12954.52045091179
 20
4677.931598713261
 30
0.0
 11
12954.52045091179
 21
2587.931598713263
 31
0.0
  0
LINE
  5
1915A
330
747D
100
AcDbEntity
  8
細線
 48
50.0
100
AcDbLine
 10
12939.52045091179
 20
4677.931598713261
 30
0.0
 11
12939.52045091179
 21
2587.931598713263
 31
0.0
  0
LINE
  5
1915B
330
747D
100
AcDbEntity
  8
細線
 48
50.0
100
AcDbLine
 10
12799.52045091179
 20
4677.931598713261
 30
0.0
 11
12799.52045091179
 21
2587.931598713263
 31
0.0
  0
LINE
  5
1915C
330
747D
100
AcDbEntity
  8
細線
 48
50.0
100
AcDbLine
 10
12814.52045091179
 20
4677.931598713261
 30
0.0
 11
12814.52045091179
 21
2587.931598713263
 31
0.0
  0
LINE
  5
1915D
330
747D
100
AcDbEntity
  8
部品1
100
AcDbLine
 10
13577.02045091179
 20
4677.931598713261
 30
0.0
 11
13577.02045091179
 21
2587.931598713263
 31
0.0
  0
LINE
  5
1915E
330
747D
100
AcDbEntity
  8
細線
 48
50.0
100
AcDbLine
 10
13919.52045091179
 20
4677.931598713261
 30
0.0
 11
13919.52045091179
 21
2587.931598713263
 31
0.0
  0
LINE
  5
1915F
330
747D
100
AcDbEntity
  8
細線
 48
50.0
100
AcDbLine
 10
13934.52045091179
 20
4677.931598713261
 30
0.0
 11
13934.52045091179
 21
2587.931598713263
 31
0.0
  0
LINE
  5
19160
330
747D
100
AcDbEntity
  8
細線
 48
50.0
100
AcDbLine
 10
13794.52045091179
 20
4677.931598713261
 30
0.0
 11
13794.52045091179
 21
2587.931598713263
 31
0.0
  0
LINE
  5
19161
330
747D
100
AcDbEntity
  8
細線
 48
50.0
100
AcDbLine
 10
13779.52045091179
 20
4677.931598713261
 30
0.0
 11
13779.52045091179
 21
2587.931598713263
 31
0.0
  0
LINE
  5
19162
330
747D
100
AcDbEntity
  8
細線
 48
50.0
100
AcDbLine
 10
13639.52045091179
 20
4677.931598713261
 30
0.0
 11
13639.52045091179
 21
2587.931598713263
 31
0.0
  0
LINE
  5
19163
330
747D
100
AcDbEntity
  8
細線
 48
50.0
100
AcDbLine
 10
13654.52045091179
 20
4677.931598713261
 30
0.0
 11
13654.52045091179
 21
2587.931598713263
 31
0.0
  0
LINE
  5
19164
330
747D
100
AcDbEntity
  8
部品1
100
AcDbLine
 10
13997.02045091179
 20
4677.931598713261
 30
0.0
 11
13997.02045091179
 21
2587.931598713263
 31
0.0
  0
LINE
  5
19165
330
747D
100
AcDbEntity
  8
細線
 48
50.0
100
AcDbLine
 10
14914.5204509118
 20
4677.931598713261
 30
0.0
 11
14914.5204509118
 21
2587.931598713263
 31
0.0
  0
LINE
  5
19166
330
747D
100
AcDbEntity
  8
細線
 48
50.0
100
AcDbLine
 10
14899.5204509118
 20
4677.931598713261
 30
0.0
 11
14899.5204509118
 21
2587.931598713263
 31
0.0
  0
LINE
  5
19167
330
747D
100
AcDbEntity
  8
細線
 48
50.0
100
AcDbLine
 10
15039.5204509118
 20
4677.931598713261
 30
0.0
 11
15039.5204509118
 21
2587.931598713263
 31
0.0
  0
LINE
  5
19168
330
747D
100
AcDbEntity
  8
細線
 48
50.0
100
AcDbLine
 10
15054.5204509118
 20
4677.931598713261
 30
0.0
 11
15054.5204509118
 21
2587.931598713263
 31
0.0
  0
LINE
  5
19169
330
747D
100
AcDbEntity
  8
細線
 48
50.0
100
AcDbLine
 10
15194.5204509118
 20
4677.931598713261
 30
0.0
 11
15194.5204509118
 21
2587.931598713263
 31
0.0
  0
LINE
  5
1916A
330
747D
100
AcDbEntity
  8
細線
 48
50.0
100
AcDbLine
 10
15179.5204509118
 20
4677.931598713261
 30
0.0
 11
15179.5204509118
 21
2587.931598713263
 31
0.0
  0
LINE
  5
1916B
330
747D
100
AcDbEntity
  8
部品1
100
AcDbLine
 10
13857.24558134102
 20
5038.13598667628
 30
0.0
 11
14182.70059498406
 21
5020.617927717418
 31
0.0
  0
ARC
  5
1916C
330
747D
100
AcDbEntity
  8
部品1
100
AcDbCircle
 10
15377.64798672573
 20
4751.955355979054
 30
0.0
 40
0.7
100
AcDbArc
 50
275.0921697642102
 51
354.1866997667606
  0
ARC
  5
1916D
330
747D
100
AcDbEntity
  8
部品1
100
AcDbCircle
 10
15388.50733247505
 20
4828.998610796978
 30
0.0
 40
0.7
100
AcDbArc
 50
275.0921697642102
 51
354.1866997665532
  0
ARC
  5
1916E
330
747D
100
AcDbEntity
  8
部品1
100
AcDbCircle
 10
15388.83573771765
 20
4825.313213939889
 30
0.0
 40
3.0
100
AcDbArc
 50
95.0921697642102
 51
174.1866997665532
  0
ARC
  5
1916F
330
747D
100
AcDbEntity
  8
部品1
100
AcDbCircle
 10
15377.97639196832
 20
4748.269959121964
 30
0.0
 40
3.0
100
AcDbArc
 50
95.0921697642102
 51
174.1866997665532
  0
ARC
  5
19170
330
747D
100
AcDbEntity
  8
部品1
 48
50.0
100
AcDbCircle
 10
15366.94825669322
 20
4738.679214518082
 30
0.0
 40
7.0
100
AcDbArc
 50
267.8377559869487
 51
354.1866997665532
  0
ARC
  5
19171
330
747D
100
AcDbEntity
  8
部品1
 48
50.0
100
AcDbCircle
 10
15384.27035315773
 20
4849.581761660257
 30
0.0
 40
7.0
100
AcDbArc
 50
354.1866997665532
 51
87.03587545283093
  0
LINE
  5
19172
330
747D
100
AcDbEntity
  8
部品1
 48
50.0
100
AcDbLine
 10
15374.99182029772
 20
4748.573820838866
 30
0.0
 11
15373.91225725798
 21
4737.970203845309
 31
0.0
  0
LINE
  5
19173
330
747D
100
AcDbEntity
  8
部品1
 48
50.0
100
AcDbLine
 10
15385.85116604704
 20
4825.617075656792
 30
0.0
 11
15378.34438678221
 21
4751.88445491178
 31
0.0
  0
LINE
  5
19174
330
747D
100
AcDbEntity
  8
部品1
 48
50.0
100
AcDbLine
 10
15391.23435372249
 20
4848.872750987481
 30
0.0
 11
15389.20373253152
 21
4828.9277097297
 31
0.0
  0
ARC
  5
19175
330
747D
100
AcDbEntity
  8
部品1
100
AcDbCircle
 10
12628.05754278315
 20
4791.745757672166
 30
0.0
 40
0.7
100
AcDbArc
 50
181.0932240293156
 51
260.1877540314867
  0
ARC
  5
19176
330
747D
100
AcDbEntity
  8
部品1
100
AcDbCircle
 10
12623.28486918554
 20
4884.611535872284
 30
0.0
 40
0.7
100
AcDbArc
 50
181.0932240292114
 51
260.1877540314867
  0
ARC
  5
19177
330
747D
100
AcDbEntity
  8
部品1
100
AcDbCircle
 10
12622.65431478252
 20
4880.965661334887
 30
0.0
 40
3.0
100
AcDbArc
 50
1.093224029315636
 51
80.18775403169653
  0
ARC
  5
19178
330
747D
100
AcDbEntity
  8
部品1
100
AcDbCircle
 10
12627.42698838013
 20
4788.099883134768
 30
0.0
 40
3.0
100
AcDbArc
 50
1.093224029315636
 51
80.18775403169653
  0
ARC
  5
19179
330
747D
100
AcDbEntity
  8
部品1
 48
50.0
100
AcDbCircle
 10
12637.62712075533
 20
4777.707639752287
 30
0.0
 40
7.0
100
AcDbArc
 50
181.0932240293156
 51
267.8377559869487
  0
ARC
  5
1917A
330
747D
100
AcDbEntity
  8
部品1
 48
50.0
100
AcDbCircle
 10
12629.20346265323
 20
4904.658699285382
 30
0.0
 40
7.0
100
AcDbArc
 50
87.03587545283093
 51
181.0932240293156
  0
LINE
  5
1917B
330
747D
100
AcDbEntity
  8
部品1
 48
50.0
100
AcDbLine
 10
12630.42644230656
 20
4788.157120737952
 30
0.0
 11
12630.62839492699
 21
4777.574085344858
 31
0.0
  0
LINE
  5
1917C
330
747D
100
AcDbEntity
  8
細線
 48
50.0
100
AcDbLine
 10
12627.82034924988
 20
4791.087168856758
 30
0.0
 11
15377.82401368053
 21
4751.277849882266
 31
0.0
  0
LINE
  5
1917D
330
747D
100
AcDbEntity
  8
細線
 48
50.0
100
AcDbLine
 10
12623.0598740126
 20
4883.948680554624
 30
0.0
 11
15388.69585875777
 21
4828.324475913794
 31
0.0
  0
LINE
  5
1917E
330
747D
100
AcDbEntity
  8
部品1
 48
50.0
100
AcDbLine
 10
12625.65376870895
 20
4881.02289893807
 30
0.0
 11
12627.35767020032
 21
4791.732402231422
 31
0.0
  0
LINE
  5
1917F
330
747D
100
AcDbEntity
  8
部品1
 48
50.0
100
AcDbLine
 10
12622.2047368249
 20
4904.525144877954
 30
0.0
 11
12622.58499660271
 21
4884.598180431543
 31
0.0
  0
LINE
  5
19180
330
747D
100
AcDbEntity
  8
細線
 48
50.0
100
AcDbLine
 10
15358.98973410548
 20
4857.08502119273
 30
0.0
 11
15354.27276802379
 21
4732.152805257814
 31
0.0
  0
LINE
  5
19181
330
747D
100
AcDbEntity
  8
細線
 48
50.0
100
AcDbLine
 10
12655.02045091179
 20
4910.331275088667
 30
0.0
 11
12649.73134935628
 21
4770.245642461311
 31
0.0
  0
LINE
  5
19182
330
747D
100
AcDbEntity
  8
部品1
100
AcDbLine
 10
12637.36301551374
 20
4770.712623782229
 30
0.0
 11
15366.68415145164
 21
4731.684198548022
 31
0.0
  0
LINE
  5
19183
330
747D
100
AcDbEntity
  8
部品1
100
AcDbLine
 10
12629.56543726875
 20
4911.649334047528
 30
0.0
 11
15384.63232777326
 21
4856.5723964224
 31
0.0
  0
LINE
  5
19184
330
747D
100
AcDbEntity
  8
部品1
 48
50.0
100
AcDbLine
 10
13882.70059498406
 20
5036.817927717418
 30
0.0
 11
14182.70059498406
 21
5036.817927717418
 31
0.0
  0
LINE
  5
19185
330
747D
100
AcDbEntity
  8
部品1
 48
50.0
100
AcDbLine
 10
14182.70059498406
 20
5036.817927717418
 30
0.0
 11
14182.70059498406
 21
5020.617927717418
 31
0.0
  0
TEXT
  5
19186
330
747D
100
AcDbEntity
  8
部品1
 48
50.0
100
AcDbText
 10
13870.96843020779
 20
5072.701949869852
 30
0.0
 40
120.0
  1
1000
  7
STYLE1
100
AcDbText
  0
TEXT
  5
19187
330
747D
100
AcDbEntity
  8
部品1
 48
50.0
100
AcDbText
 10
14348.60145287288
 20
4935.200691651569
 30
0.0
 40
120.0
  1
37
 50
90.0
  7
STYLE1
100
AcDbText
  0
DIMENSION
  5
19188
330
747D
100
AcDbEntity
  8
寸法
100
AcDbDimension
  2
*D31
 10
11538.27032172853
 20
4912.931598713261
 30
0.0
 11
11438.25851070491
 21
3725.43159871326
 31
0.0
 70
    32
 71
     5
 42
2375.000000000007
  3
INABA_S40G
100
AcDbAlignedDimension
 13
12682.02045091179
 23
2537.931598713255
 33
0.0
 14
12622.02045091179
 24
4912.931598713261
 34
0.0
 50
90.0
100
AcDbRotatedDimension
1001
ACAD
1000
DSTYLE
1002
{
1070
   174
1070
     0
1070
   272
1070
     1
1070
   288
1070
     0
1070
   341
1005
0
1002
}
  0
DIMENSION
  5
19189
330
747D
100
AcDbEntity
  8
寸法
 48
50.0
100
AcDbDimension
  2
*D32
 10
12061.4120441434
 20
4787.276857586593
 30
0.0
 11
12072.07751940232
 21
5158.123520828293
 31
0.0
 70
   161
 71
     5
 42
141.0
  3
INABA_S40G
100
AcDbAlignedDimension
 13
12641.41647107037
 23
4911.654347547941
 33
0.0
 14
12637.36301551374
 24
4770.712623782229
 34
0.0
1001
ACAD
1000
DSTYLE
1002
{
1070
   174
1070
     0
1070
   272
1070
     1
1070
   288
1070
     0
1070
   341
1005
0
1002
}
  0
DIMENSION
  5
1918A
330
747D
100
AcDbEntity
  8
寸法
 48
50.0
100
AcDbDimension
  2
*D33
 10
12622.02045091179
 20
5311.589052292566
 30
0.0
 11
12312.38265563619
 21
5311.589052292566
 31
0.0
 70
   160
 71
     5
 42
60.0
  3
INABA_S40G
100
AcDbAlignedDimension
 13
12682.02045091179
 23
4908.933216836238
 33
0.0
 14
12622.02045091179
 24
4912.931598713267
 34
0.0
100
AcDbRotatedDimension
1001
ACAD
1000
DSTYLE
1002
{
1070
   174
1070
     0
1070
   272
1070
     1
1070
   288
1070
     0
1070
   341
1005
0
1002
}
  0
DIMENSION
  5
1918B
330
747D
100
AcDbEntity
  8
寸法
 48
50.0
100
AcDbDimension
  2
*D34
 10
12682.02045091179
 20
5311.589052292568
 30
0.0
 11
13997.02045091179
 21
5311.589052292568
 31
0.0
 70
   160
  1
柱外寸法<>
 71
     5
 42
2630.0
  3
INABA_S40G
100
AcDbAlignedDimension
 13
15312.02045091179
 23
4859.742278324915
 33
0.0
 14
12682.02045091179
 24
4908.933216836238
 34
0.0
100
AcDbRotatedDimension
1001
ACAD
1000
DSTYLE
1002
{
1070
   174
1070
     0
1070
   272
1070
     1
1070
   288
1070
     0
1070
   341
1005
0
1002
}
  0
DIMENSION
  5
1918C
330
747D
100
AcDbEntity
  8
寸法
 48
50.0
100
AcDbDimension
  2
*D35
 10
12622.02045091179
 20
5531.799739024183
 30
0.0
 11
14007.02045091179
 21
5531.799739024183
 31
0.0
 70
   160
 71
     5
 42
2770.0
  3
INABA_S40G
100
AcDbAlignedDimension
 13
15392.02045091179
 23
4857.931598713263
 33
0.0
 14
12622.02045091179
 24
4912.931598713267
 34
0.0
100
AcDbRotatedDimension
1001
ACAD
1000
DSTYLE
1002
{
1070
   174
1070
     0
1070
   272
1070
     1
1070
   288
1070
     0
1070
   341
1005
0
1002
}
  0
DIMENSION
  5
1918D
330
747D
100
AcDbEntity
  8
寸法
 48
50.0
100
AcDbDimension
  2
*D36
 10
15392.02045091179
 20
5311.589052292568
 30
0.0
 11
15598.06769500628
 21
5311.589052292568
 31
0.0
 70
   160
 71
     5
 42
80.0
  3
INABA_S40G
100
AcDbAlignedDimension
 13
15312.02045091179
 23
4859.742278324915
 33
0.0
 14
15392.02045091179
 24
4857.931598713263
 34
0.0
100
AcDbRotatedDimension
1001
ACAD
1000
DSTYLE
1002
{
1070
   174
1070
     0
1070
   272
1070
     1
1070
   288
1070
     0
1070
   341
1005
0
1002
}
  0
TEXT
  5
1918E
330
747D
100
AcDbEntity
  8
部品1
100
AcDbText
 10
5471.378107121589
 20
5749.009426747718
 30
0.0
 40
135.0
  1
平面図
  7
STYLE2
100
AcDbText
  0
LWPOLYLINE
  5
1918F
330
747D
100
AcDbEntity
  8
部品1
100
AcDbPolyline
 90
        4
 70
     1
 43
0.0
 10
5381.458497292552
 20
5941.902955966241
 10
5381.458497292552
 20
5702.010634420709
 10
6144.929163520992
 20
5702.010634420709
 10
6144.929163520992
 20
5941.902955966241
  0
LINE
  5
19197
330
747D
100
AcDbEntity
  8
破線
  6
HIDDEN
 48
5.0
100
AcDbLine
 10
12682.02045091179
 20
2437.931598713261
 30
0.0
 11
12682.02045091179
 21
2187.931598713261
 31
0.0
  0
LINE
  5
19198
330
747D
100
AcDbEntity
  8
破線
  6
HIDDEN
 48
5.0
100
AcDbLine
 10
12737.02045091179
 20
2437.931598713261
 30
0.0
 11
12737.02045091179
 21
2187.931598713261
 31
0.0
  0
LINE
  5
19199
330
747D
100
AcDbEntity
  8
破線
  6
HIDDEN
 48
5.0
100
AcDbLine
 10
12682.02045091179
 20
2187.931598713261
 30
0.0
 11
12737.02045091179
 21
2187.931598713261
 31
0.0
  0
LINE
  5
1919C
330
747D
100
AcDbEntity
  8
部品1
100
AcDbLine
 10
12737.02045091179
 20
2537.931598713262
 30
0.0
 11
15312.02045091179
 21
2537.931598713262
 31
0.0
  0
DIMENSION
  5
191B0
330
747D
100
AcDbEntity
  8
寸法
100
AcDbDimension
  2
*D37
 10
16016.94760888392
 20
4857.931598713261
 30
0.0
 11
16016.94760888391
 21
3692.931598713261
 31
0.0
 70
   160
 71
     5
 42
2320.000000000001
  3
INABA_S40G
100
AcDbAlignedDimension
 13
15312.02045091179
 23
2537.931598713262
 33
0.0
 14
15407.02045091179
 24
4857.931598713261
 34
0.0
 50
90.0
100
AcDbRotatedDimension
1001
ACAD
1000
DSTYLE
1002
{
1070
   288
1070
     1
1002
}
  0
LINE
  5
191B1
330
747D
100
AcDbEntity
  8
部品1
100
AcDbLine
 10
15257.02045091179
 20
4677.931598713261
 30
0.0
 11
15257.02045091179
 21
2587.931598713261
 31
0.0
  0
LINE
  5
191B2
330
747D
100
AcDbEntity
  8
部品1
100
AcDbLine
 10
15312.02045091179
 20
4732.465872101
 30
0.0
 11
15312.02045091179
 21
2437.931598713261
 31
0.0
  0
DIMENSION
  5
191B3
330
747D
100
AcDbEntity
  8
寸法
100
AcDbDimension
  2
*D38
 10
11838.27032172853
 20
2537.931598713262
 30
0.0
 11
11838.27032172853
 21
2154.181598713261
 31
0.0
 70
   160
 71
     5
 42
50.0
  3
INABA_S40G
100
AcDbAlignedDimension
 13
12682.02045091179
 23
2587.931598713261
 33
0.0
 14
12627.02045091179
 24
2537.931598713262
 34
0.0
 50
90.0
100
AcDbRotatedDimension
1001
ACAD
1000
DSTYLE
1002
{
1070
   288
1070
     1
1002
}
  0
DIMENSION
  5
191B5
330
747D
100
AcDbEntity
  8
寸法
100
AcDbDimension
  2
*D39
 10
11838.27032172853
 20
2587.931598713261
 30
0.0
 11
11738.25851070491
 21
3632.931598713263
 31
0.0
 70
    32
 71
     5
 42
2090.0
  3
INABA_S40G
100
AcDbAlignedDimension
 13
12682.02045091179
 23
4677.931598713261
 33
0.0
 14
12682.02045091179
 24
2587.931598713261
 34
0.0
 50
90.0
100
AcDbRotatedDimension
1001
ACAD
1000
DSTYLE
1002
{
1070
   288
1070
     1
1002
}
  0
LINE
  5
191B6
330
747D
100
AcDbEntity
  8
部品1
100
AcDbLine
 10
12682.02045091179
 20
4770.07403664214
 30
0.0
 11
12682.02045091179
 21
2437.931598713261
 31
0.0
  0
LINE
  5
191B7
330
747D
100
AcDbEntity
  8
部品1
100
AcDbLine
 10
12737.02045091179
 20
4677.931598713261
 30
0.0
 11
12737.02045091179
 21
2437.931598713261
 31
0.0
  0
LINE
  5
191B8
330
747D
100
AcDbEntity
  8
部品1
100
AcDbLine
 10
12737.02045091179
 20
2587.931598713261
 30
0.0
 11
15312.02045091179
 21
2587.931598713261
 31
0.0
  0
LINE
  5
191B9
330
747D
100
AcDbEntity
  8
部品1
100
AcDbLine
 10
12682.02045091179
 20
4677.931598713261
 30
0.0
 11
15312.02045091179
 21
4677.931598713261
 31
0.0
  0
LINE
  5
1927C
330
747D
100
AcDbEntity
  8
部品1
100
AcDbLine
 10
1243.193830406777
 20
2587.931598713261
 30
0.0
 11
4183.193830406773
 21
2587.931598713261
 31
0.0
  0
LINE
  5
1927D
330
747D
100
AcDbEntity
  8
部品1
100
AcDbLine
 10
7343.193830406777
 20
2537.931598713262
 30
0.0
 11
10283.19383040677
 21
2537.931598713262
 31
0.0
  0
LINE
  5
1927E
330
747D
100
AcDbEntity
  8
部品1
100
AcDbLine
 10
7343.193830406777
 20
2587.931598713261
 30
0.0
 11
10283.19383040677
 21
2587.931598713261
 31
0.0
  0
LINE
  5
192B0
330
747D
100
AcDbEntity
  8
Ｇ．Ｌ
100
AcDbLine
 10
512.1822066227252
 20
2437.931598713261
 30
0.0
 11
16179.67663304697
 21
2437.931598713261
 31
0.0
  0
LINE
  5
19313
330
747D
100
AcDbEntity
  8
部品1
100
AcDbLine
 10
4135.193830406777
 20
4512.931598713262
 30
0.0
 11
4135.193830406773
 21
2587.931598713261
 31
0.0
  0
LINE
  5
19314
330
747D
100
AcDbEntity
  8
部品1
100
AcDbLine
 10
4183.193830406777
 20
4512.931598713261
 30
0.0
 11
4183.193830406773
 21
2437.931598713261
 31
0.0
  0
LINE
  5
19315
330
747D
100
AcDbEntity
  8
部品1
100
AcDbLine
 10
4341.193830406777
 20
4512.931598713261
 30
0.0
 11
4341.193830406777
 21
2587.931598713261
 31
0.0
  0
LINE
  5
19316
330
747D
100
AcDbEntity
  8
部品1
100
AcDbLine
 10
4293.193830406777
 20
4512.931598713261
 30
0.0
 11
4293.193830406777
 21
2437.931598713261
 31
0.0
  0
LINE
  5
19328
330
747D
100
AcDbEntity
  8
細線
100
AcDbLine
 10
4135.193830406777
 20
2597.931598713262
 30
0.0
 11
1291.19383040677
 21
2597.931598713262
 31
0.0
  0
LINE
  5
19357
330
747D
100
AcDbEntity
  8
部品1
100
AcDbLine
 10
7343.193830406775
 20
4512.931598713261
 30
0.0
 11
10338.19383040677
 21
4512.931598713262
 31
0.0
  0
LINE
  5
19358
330
747D
100
AcDbEntity
  8
部品1
100
AcDbLine
 10
7343.193830406775
 20
4512.931598713261
 30
0.0
 11
7343.193830406774
 21
2437.931598713261
 31
0.0
  0
LINE
  5
1935A
330
747D
100
AcDbEntity
  8
部品1
100
AcDbLine
 10
7391.193830406776
 20
4512.931598713261
 30
0.0
 11
7391.193830406776
 21
2587.931598713261
 31
0.0
  0
LINE
  5
1935D
330
747D
100
AcDbEntity
  8
部品1
100
AcDbLine
 10
7233.193830406775
 20
4512.931598713261
 30
0.0
 11
7233.193830406773
 21
2437.931598713261
 31
0.0
  0
LINE
  5
1935E
330
747D
100
AcDbEntity
  8
部品1
100
AcDbLine
 10
7185.193830406777
 20
4512.931598713262
 30
0.0
 11
7185.193830406773
 21
2587.931598713261
 31
0.0
  0
CIRCLE
  5
1935F
330
747D
100
AcDbEntity
  8
細線
 48
50.0
100
AcDbCircle
 10
2713.193830406773
 20
3475.431598713262
 30
0.0
 40
18.0
  0
ARC
  5
19360
330
747D
100
AcDbEntity
  8
細線
 48
50.0
100
AcDbCircle
 10
3013.193830406774
 20
3150.431598713261
 30
0.0
 40
15.0
100
AcDbArc
 50
270.0
 51
90.0
  0
ARC
  5
19361
330
747D
100
AcDbEntity
  8
細線
 48
50.0
100
AcDbCircle
 10
2913.193830406774
 20
3150.431598713261
 30
0.0
 40
15.0
100
AcDbArc
 50
90.0
 51
270.0
  0
LINE
  5
19362
330
747D
100
AcDbEntity
  8
細線
 48
50.0
100
AcDbLine
 10
2913.193830406774
 20
3165.431598713261
 30
0.0
 11
3013.193830406774
 21
3165.431598713261
 31
0.0
  0
LINE
  5
19363
330
747D
100
AcDbEntity
  8
細線
 48
50.0
100
AcDbLine
 10
3013.193830406774
 20
3135.431598713262
 30
0.0
 11
2913.193830406774
 21
3135.431598713262
 31
0.0
  0
ARC
  5
19364
330
747D
100
AcDbEntity
  8
細線
 48
50.0
100
AcDbCircle
 10
2513.193830406774
 20
3150.431598713261
 30
0.0
 40
15.0
100
AcDbArc
 50
270.0
 51
90.0
  0
ARC
  5
19365
330
747D
100
AcDbEntity
  8
細線
 48
50.0
100
AcDbCircle
 10
2413.193830406774
 20
3150.431598713261
 30
0.0
 40
15.0
100
AcDbArc
 50
90.0
 51
270.0
  0
LINE
  5
19366
330
747D
100
AcDbEntity
  8
細線
100
AcDbLine
 10
1291.19383040677
 20
4222.931598713262
 30
0.0
 11
4135.193830406773
 21
4222.931598713262
 31
0.0
  0
LINE
  5
19367
330
747D
100
AcDbEntity
  8
細線
100
AcDbLine
 10
1291.19383040677
 20
4287.931598713261
 30
0.0
 11
4135.193830406773
 21
4287.931598713261
 31
0.0
  0
LINE
  5
19368
330
747D
100
AcDbEntity
  8
細線
100
AcDbLine
 10
1291.19383040677
 20
4352.931598713261
 30
0.0
 11
4135.193830406773
 21
4352.931598713261
 31
0.0
  0
LINE
  5
19369
330
747D
100
AcDbEntity
  8
細線
100
AcDbLine
 10
1291.19383040677
 20
3832.931598713262
 30
0.0
 11
4135.193830406773
 21
3832.931598713262
 31
0.0
  0
LINE
  5
1936A
330
747D
100
AcDbEntity
  8
細線
100
AcDbLine
 10
1291.19383040677
 20
3897.931598713262
 30
0.0
 11
4135.193830406773
 21
3897.931598713262
 31
0.0
  0
LINE
  5
1936B
330
747D
100
AcDbEntity
  8
細線
100
AcDbLine
 10
1291.19383040677
 20
3962.931598713261
 30
0.0
 11
4135.193830406773
 21
3962.931598713261
 31
0.0
  0
LINE
  5
1936C
330
747D
100
AcDbEntity
  8
細線
100
AcDbLine
 10
1291.19383040677
 20
4027.931598713261
 30
0.0
 11
4135.193830406773
 21
4027.931598713261
 31
0.0
  0
LINE
  5
1936D
330
747D
100
AcDbEntity
  8
細線
100
AcDbLine
 10
1291.19383040677
 20
4092.931598713261
 30
0.0
 11
4135.193830406773
 21
4092.931598713261
 31
0.0
  0
LINE
  5
1936E
330
747D
100
AcDbEntity
  8
細線
100
AcDbLine
 10
1291.19383040677
 20
4157.931598713261
 30
0.0
 11
4135.193830406773
 21
4157.931598713261
 31
0.0
  0
LINE
  5
1936F
330
747D
100
AcDbEntity
  8
細線
100
AcDbLine
 10
1291.19383040677
 20
3182.931598713262
 30
0.0
 11
4135.193830406773
 21
3182.931598713262
 31
0.0
  0
LINE
  5
19370
330
747D
100
AcDbEntity
  8
細線
100
AcDbLine
 10
1291.19383040677
 20
3247.931598713261
 30
0.0
 11
4135.193830406773
 21
3247.931598713261
 31
0.0
  0
LINE
  5
19371
330
747D
100
AcDbEntity
  8
細線
100
AcDbLine
 10
1291.19383040677
 20
3312.931598713261
 30
0.0
 11
4135.193830406773
 21
3312.931598713261
 31
0.0
  0
LINE
  5
19372
330
747D
100
AcDbEntity
  8
細線
100
AcDbLine
 10
1291.19383040677
 20
3377.931598713261
 30
0.0
 11
4135.193830406773
 21
3377.931598713261
 31
0.0
  0
LINE
  5
19373
330
747D
100
AcDbEntity
  8
細線
100
AcDbLine
 10
1291.19383040677
 20
3442.931598713261
 30
0.0
 11
4135.193830406773
 21
3442.931598713261
 31
0.0
  0
LINE
  5
19374
330
747D
100
AcDbEntity
  8
細線
100
AcDbLine
 10
1291.19383040677
 20
3507.931598713262
 30
0.0
 11
4135.193830406773
 21
3507.931598713262
 31
0.0
  0
LINE
  5
19375
330
747D
100
AcDbEntity
  8
細線
100
AcDbLine
 10
1291.19383040677
 20
3572.931598713262
 30
0.0
 11
4135.193830406773
 21
3572.931598713262
 31
0.0
  0
LINE
  5
19376
330
747D
100
AcDbEntity
  8
細線
100
AcDbLine
 10
1291.19383040677
 20
3637.931598713262
 30
0.0
 11
4135.193830406773
 21
3637.931598713262
 31
0.0
  0
LINE
  5
19377
330
747D
100
AcDbEntity
  8
細線
100
AcDbLine
 10
1291.19383040677
 20
3702.931598713262
 30
0.0
 11
4135.193830406773
 21
3702.931598713262
 31
0.0
  0
LINE
  5
19378
330
747D
100
AcDbEntity
  8
細線
100
AcDbLine
 10
1291.19383040677
 20
3767.931598713261
 30
0.0
 11
4135.193830406773
 21
3767.931598713261
 31
0.0
  0
LINE
  5
19379
330
747D
100
AcDbEntity
  8
細線
100
AcDbLine
 10
1291.19383040677
 20
4482.931598713261
 30
0.0
 11
4135.193830406773
 21
4482.931598713261
 31
0.0
  0
LINE
  5
1937A
330
747D
100
AcDbEntity
  8
細線
100
AcDbLine
 10
1291.19383040677
 20
4417.931598713261
 30
0.0
 11
4135.193830406773
 21
4417.931598713261
 31
0.0
  0
LINE
  5
1937B
330
747D
100
AcDbEntity
  8
細線
100
AcDbLine
 10
1291.19383040677
 20
2662.931598713262
 30
0.0
 11
4135.193830406773
 21
2662.931598713262
 31
0.0
  0
LINE
  5
1937C
330
747D
100
AcDbEntity
  8
細線
100
AcDbLine
 10
1291.19383040677
 20
2727.931598713261
 30
0.0
 11
4135.193830406773
 21
2727.931598713261
 31
0.0
  0
LINE
  5
1937D
330
747D
100
AcDbEntity
  8
細線
100
AcDbLine
 10
1291.19383040677
 20
2792.931598713261
 30
0.0
 11
4135.193830406773
 21
2792.931598713261
 31
0.0
  0
LINE
  5
1937E
330
747D
100
AcDbEntity
  8
細線
100
AcDbLine
 10
1291.19383040677
 20
2857.931598713261
 30
0.0
 11
4135.193830406773
 21
2857.931598713261
 31
0.0
  0
LINE
  5
1937F
330
747D
100
AcDbEntity
  8
細線
100
AcDbLine
 10
1291.19383040677
 20
2922.931598713262
 30
0.0
 11
4135.193830406773
 21
2922.931598713262
 31
0.0
  0
LINE
  5
19380
330
747D
100
AcDbEntity
  8
細線
100
AcDbLine
 10
1291.19383040677
 20
2987.931598713262
 30
0.0
 11
4135.193830406773
 21
2987.931598713262
 31
0.0
  0
LINE
  5
19381
330
747D
100
AcDbEntity
  8
細線
100
AcDbLine
 10
1291.19383040677
 20
3052.931598713261
 30
0.0
 11
4135.193830406773
 21
3052.931598713261
 31
0.0
  0
LINE
  5
19382
330
747D
100
AcDbEntity
  8
細線
100
AcDbLine
 10
1291.19383040677
 20
3117.931598713262
 30
0.0
 11
4135.193830406773
 21
3117.931598713262
 31
0.0
  0
LINE
  5
19383
330
747D
100
AcDbEntity
  8
細線
 48
50.0
100
AcDbLine
 10
2513.193830406774
 20
3135.431598713262
 30
0.0
 11
2413.193830406774
 21
3135.431598713262
 31
0.0
  0
LINE
  5
19384
330
747D
100
AcDbEntity
  8
細線
 48
50.0
100
AcDbLine
 10
2413.193830406774
 20
3165.431598713261
 30
0.0
 11
2513.193830406774
 21
3165.431598713261
 31
0.0
  0
ARC
  5
193C4
330
747D
100
AcDbEntity
  8
細線
 48
50.0
100
AcDbCircle
 10
8513.193830406773
 20
3150.431598713261
 30
0.0
 40
15.0
100
AcDbArc
 50
90.0
 51
270.0
  0
ARC
  5
193C5
330
747D
100
AcDbEntity
  8
細線
 48
50.0
100
AcDbCircle
 10
8613.193830406773
 20
3150.431598713261
 30
0.0
 40
15.0
100
AcDbArc
 50
270.0
 51
90.0
  0
LINE
  5
193C6
330
747D
100
AcDbEntity
  8
細線
 48
50.0
100
AcDbLine
 10
8513.193830406773
 20
3165.431598713261
 30
0.0
 11
8613.193830406773
 21
3165.431598713261
 31
0.0
  0
LINE
  5
193C7
330
747D
100
AcDbEntity
  8
細線
 48
50.0
100
AcDbLine
 10
8613.193830406773
 20
3135.431598713262
 30
0.0
 11
8513.193830406773
 21
3135.431598713262
 31
0.0
  0
LINE
  5
193C8
330
747D
100
AcDbEntity
  8
細線
 48
50.0
100
AcDbLine
 10
9113.193830406773
 20
3135.431598713262
 30
0.0
 11
9013.193830406773
 21
3135.431598713262
 31
0.0
  0
LINE
  5
193C9
330
747D
100
AcDbEntity
  8
細線
 48
50.0
100
AcDbLine
 10
9013.193830406773
 20
3165.431598713261
 30
0.0
 11
9113.193830406773
 21
3165.431598713261
 31
0.0
  0
ARC
  5
193CA
330
747D
100
AcDbEntity
  8
細線
 48
50.0
100
AcDbCircle
 10
9013.193830406773
 20
3150.431598713261
 30
0.0
 40
15.0
100
AcDbArc
 50
90.0
 51
270.0
  0
ARC
  5
193CB
330
747D
100
AcDbEntity
  8
細線
 48
50.0
100
AcDbCircle
 10
9113.193830406773
 20
3150.431598713261
 30
0.0
 40
15.0
100
AcDbArc
 50
270.0
 51
90.0
  0
CIRCLE
  5
193CC
330
747D
100
AcDbEntity
  8
細線
 48
50.0
100
AcDbCircle
 10
8813.193830406772
 20
3475.431598713262
 30
0.0
 40
18.0
  0
LINE
  5
193D0
330
747D
100
AcDbEntity
  8
細線
100
AcDbLine
 10
10235.19383040677
 20
2597.931598713262
 30
0.0
 11
7391.19383040677
 21
2597.931598713262
 31
0.0
  0
LINE
  5
193D1
330
747D
100
AcDbEntity
  8
細線
100
AcDbLine
 10
7391.193830406772
 20
3117.931598713262
 30
0.0
 11
10235.19383040677
 21
3117.931598713262
 31
0.0
  0
LINE
  5
193D2
330
747D
100
AcDbEntity
  8
細線
100
AcDbLine
 10
7391.193830406772
 20
3052.931598713261
 30
0.0
 11
10235.19383040677
 21
3052.931598713261
 31
0.0
  0
LINE
  5
193D3
330
747D
100
AcDbEntity
  8
細線
100
AcDbLine
 10
7391.193830406772
 20
2987.931598713262
 30
0.0
 11
10235.19383040677
 21
2987.931598713262
 31
0.0
  0
LINE
  5
193D4
330
747D
100
AcDbEntity
  8
細線
100
AcDbLine
 10
7391.193830406772
 20
2922.931598713262
 30
0.0
 11
10235.19383040677
 21
2922.931598713262
 31
0.0
  0
LINE
  5
193D5
330
747D
100
AcDbEntity
  8
細線
100
AcDbLine
 10
7391.193830406772
 20
2857.931598713261
 30
0.0
 11
10235.19383040677
 21
2857.931598713261
 31
0.0
  0
LINE
  5
193D6
330
747D
100
AcDbEntity
  8
細線
100
AcDbLine
 10
7391.193830406772
 20
2792.931598713261
 30
0.0
 11
10235.19383040677
 21
2792.931598713261
 31
0.0
  0
LINE
  5
193D7
330
747D
100
AcDbEntity
  8
細線
100
AcDbLine
 10
7391.193830406772
 20
2727.931598713261
 30
0.0
 11
10235.19383040677
 21
2727.931598713261
 31
0.0
  0
LINE
  5
193D8
330
747D
100
AcDbEntity
  8
細線
100
AcDbLine
 10
7391.193830406772
 20
2662.931598713262
 30
0.0
 11
10235.19383040677
 21
2662.931598713262
 31
0.0
  0
LINE
  5
193D9
330
747D
100
AcDbEntity
  8
細線
100
AcDbLine
 10
7391.193830406772
 20
4417.931598713261
 30
0.0
 11
10235.19383040677
 21
4417.931598713261
 31
0.0
  0
LINE
  5
193DA
330
747D
100
AcDbEntity
  8
細線
100
AcDbLine
 10
7391.193830406772
 20
4482.931598713261
 30
0.0
 11
10235.19383040677
 21
4482.931598713261
 31
0.0
  0
LINE
  5
193DB
330
747D
100
AcDbEntity
  8
細線
100
AcDbLine
 10
7391.193830406772
 20
3767.931598713261
 30
0.0
 11
10235.19383040677
 21
3767.931598713261
 31
0.0
  0
LINE
  5
193DC
330
747D
100
AcDbEntity
  8
細線
100
AcDbLine
 10
7391.193830406772
 20
3702.931598713262
 30
0.0
 11
10235.19383040677
 21
3702.931598713262
 31
0.0
  0
LINE
  5
193DD
330
747D
100
AcDbEntity
  8
細線
100
AcDbLine
 10
7391.193830406772
 20
3637.931598713262
 30
0.0
 11
10235.19383040677
 21
3637.931598713262
 31
0.0
  0
LINE
  5
193DE
330
747D
100
AcDbEntity
  8
細線
100
AcDbLine
 10
7391.193830406772
 20
3572.931598713262
 30
0.0
 11
10235.19383040677
 21
3572.931598713262
 31
0.0
  0
LINE
  5
193DF
330
747D
100
AcDbEntity
  8
細線
100
AcDbLine
 10
7391.193830406772
 20
3507.931598713262
 30
0.0
 11
10235.19383040677
 21
3507.931598713262
 31
0.0
  0
LINE
  5
193E0
330
747D
100
AcDbEntity
  8
細線
100
AcDbLine
 10
7391.193830406772
 20
3442.931598713261
 30
0.0
 11
10235.19383040677
 21
3442.931598713261
 31
0.0
  0
LINE
  5
193E1
330
747D
100
AcDbEntity
  8
細線
100
AcDbLine
 10
7391.193830406772
 20
3377.931598713261
 30
0.0
 11
10235.19383040677
 21
3377.931598713261
 31
0.0
  0
LINE
  5
193E2
330
747D
100
AcDbEntity
  8
細線
100
AcDbLine
 10
7391.193830406772
 20
3312.931598713261
 30
0.0
 11
10235.19383040677
 21
3312.931598713261
 31
0.0
  0
LINE
  5
193E3
330
747D
100
AcDbEntity
  8
細線
100
AcDbLine
 10
7391.193830406772
 20
3247.931598713261
 30
0.0
 11
10235.19383040677
 21
3247.931598713261
 31
0.0
  0
LINE
  5
193E4
330
747D
100
AcDbEntity
  8
細線
100
AcDbLine
 10
7391.193830406772
 20
3182.931598713262
 30
0.0
 11
10235.19383040677
 21
3182.931598713262
 31
0.0
  0
LINE
  5
193E5
330
747D
100
AcDbEntity
  8
細線
100
AcDbLine
 10
7391.193830406772
 20
4157.931598713261
 30
0.0
 11
10235.19383040677
 21
4157.931598713261
 31
0.0
  0
LINE
  5
193E6
330
747D
100
AcDbEntity
  8
細線
100
AcDbLine
 10
7391.193830406772
 20
4092.931598713261
 30
0.0
 11
10235.19383040677
 21
4092.931598713261
 31
0.0
  0
LINE
  5
193E7
330
747D
100
AcDbEntity
  8
細線
100
AcDbLine
 10
7391.193830406772
 20
4027.931598713261
 30
0.0
 11
10235.19383040677
 21
4027.931598713261
 31
0.0
  0
LINE
  5
193E8
330
747D
100
AcDbEntity
  8
細線
100
AcDbLine
 10
7391.193830406772
 20
3962.931598713261
 30
0.0
 11
10235.19383040677
 21
3962.931598713261
 31
0.0
  0
LINE
  5
193E9
330
747D
100
AcDbEntity
  8
細線
100
AcDbLine
 10
7391.193830406772
 20
3897.931598713262
 30
0.0
 11
10235.19383040677
 21
3897.931598713262
 31
0.0
  0
LINE
  5
193EA
330
747D
100
AcDbEntity
  8
細線
100
AcDbLine
 10
7391.193830406772
 20
3832.931598713262
 30
0.0
 11
10235.19383040677
 21
3832.931598713262
 31
0.0
  0
LINE
  5
193EB
330
747D
100
AcDbEntity
  8
細線
100
AcDbLine
 10
7391.193830406772
 20
4352.931598713261
 30
0.0
 11
10235.19383040677
 21
4352.931598713261
 31
0.0
  0
LINE
  5
193EC
330
747D
100
AcDbEntity
  8
細線
100
AcDbLine
 10
7391.193830406772
 20
4287.931598713261
 30
0.0
 11
10235.19383040677
 21
4287.931598713261
 31
0.0
  0
LINE
  5
193ED
330
747D
100
AcDbEntity
  8
細線
100
AcDbLine
 10
7391.193830406772
 20
4222.931598713262
 30
0.0
 11
10235.19383040677
 21
4222.931598713262
 31
0.0
  0
LINE
  5
193EE
330
747D
100
AcDbEntity
  8
部品1
100
AcDbLine
 10
1188.193830406777
 20
4512.931598713261
 30
0.0
 11
4293.193830406777
 21
4512.931598713261
 31
0.0
  0
LINE
  5
193EF
330
747D
100
AcDbEntity
  8
部品1
100
AcDbLine
 10
10235.19383040677
 20
4512.931598713262
 30
0.0
 11
10235.19383040677
 21
2587.931598713261
 31
0.0
  0
LINE
  5
193F0
330
747D
100
AcDbEntity
  8
部品1
100
AcDbLine
 10
1291.193830406777
 20
4512.931598713261
 30
0.0
 11
1291.193830406777
 21
2587.931598713261
 31
0.0
  0
LINE
  5
193F1
330
747D
100
AcDbEntity
  8
破線
 48
5.0
100
AcDbLine
 10
1243.193830406773
 20
2187.931598713269
 30
0.0
 11
1188.193830406773
 21
2187.931598713269
 31
0.0
  0
LINE
  5
193F2
330
747D
100
AcDbEntity
  8
破線
 48
5.0
100
AcDbLine
 10
10338.19383040677
 20
2187.931598713261
 30
0.0
 11
10283.19383040677
 21
2187.931598713261
 31
0.0
  0
LINE
  5
193F3
330
747D
100
AcDbEntity
  8
破線
 48
5.0
100
AcDbLine
 10
1243.193830406777
 20
2437.931598713261
 30
0.0
 11
1243.193830406773
 21
2187.931598713261
 31
0.0
  0
LINE
  5
193F4
330
747D
100
AcDbEntity
  8
破線
 48
5.0
100
AcDbLine
 10
10283.19383040677
 20
2437.931598713261
 30
0.0
 11
10283.19383040677
 21
2187.931598713261
 31
0.0
  0
LINE
  5
193F7
330
747D
100
AcDbEntity
  8
破線
 48
5.0
100
AcDbLine
 10
1188.193830406777
 20
2437.931598713261
 30
0.0
 11
1188.193830406773
 21
2187.931598713261
 31
0.0
  0
LINE
  5
193F8
330
747D
100
AcDbEntity
  8
破線
 48
5.0
100
AcDbLine
 10
10338.19383040677
 20
2437.931598713261
 30
0.0
 11
10338.19383040677
 21
2187.931598713261
 31
0.0
  0
LINE
  5
193FF
330
747D
100
AcDbEntity
  8
部品1
100
AcDbLine
 10
10338.19383040677
 20
4771.931598713265
 30
0.0
 11
10338.19383040677
 21
2437.931598713261
 31
0.0
  0
LINE
  5
19400
330
747D
100
AcDbEntity
  8
部品1
100
AcDbLine
 10
1243.193830406777
 20
4512.931598713261
 30
0.0
 11
1243.193830406777
 21
2437.931598713261
 31
0.0
  0
LINE
  5
19401
330
747D
100
AcDbEntity
  8
部品1
100
AcDbLine
 10
10283.19383040677
 20
4512.931598713261
 30
0.0
 11
10283.19383040677
 21
2437.931598713261
 31
0.0
  0
LINE
  5
19402
330
747D
100
AcDbEntity
  8
部品1
100
AcDbLine
 10
1188.193830406777
 20
4771.931598713265
 30
0.0
 11
1188.193830406777
 21
2437.931598713261
 31
0.0
  0
LINE
  5
19403
330
747D
100
AcDbEntity
  8
部品1
100
AcDbLine
 10
1243.193830406777
 20
2537.931598713262
 30
0.0
 11
4183.193830406773
 21
2537.931598713262
 31
0.0
  0
LINE
  5
19404
330
747D
100
AcDbEntity
  8
部品1
100
AcDbLine
 10
698.913900714604
 20
2567.835409280926
 30
0.0
 11
623.913900714604
 21
2437.931598713261
 31
0.0
  0
TEXT
  5
19405
330
747D
100
AcDbEntity
  8
部品1
100
AcDbText
 10
727.0188428393776
 20
2474.038502319163
 30
0.0
 40
125.0
  1
G.L
  7
STYLE2
100
AcDbText
  0
LINE
  5
19406
330
747D
100
AcDbEntity
  8
部品1
100
AcDbLine
 10
623.913900714604
 20
2437.931598713261
 30
0.0
 11
548.913900714604
 21
2567.835409280926
 31
0.0
  0
LINE
  5
19407
330
747D
100
AcDbEntity
  8
部品1
100
AcDbLine
 10
548.913900714604
 20
2567.835409280926
 30
0.0
 11
698.913900714604
 21
2567.835409280926
 31
0.0
  0
MTEXT
  5
19C8D
330
747D
100
AcDbEntity
  8
寸法
 62
     7
 48
50.0
100
AcDbMText
 10
1970.909028479416
 20
9356.903693512998
 30
0.0
 40
96.0
 41
0.0
 71
     5
 72
     1
  1
棚 3段
  7
STYLE1
 73
     1
 44
1.0
1001
ACAD
1000
MTEXTBEGIN
1070
    73
1070
     1
1070
    44
1040
1.0
1070
    74
1070
     0
1000
MTEXTEND
  0
MTEXT
  5
19E6D
330
747D
100
AcDbEntity
  8
寸法
 62
     7
 48
50.0
100
AcDbMText
 10
3480.909028479413
 20
9356.903693513046
 30
0.0
 40
96.0
 41
0.0
 71
     5
 72
     1
  1
棚 3段
  7
STYLE1
 73
     1
 44
1.0
1001
ACAD
1000
MTEXTBEGIN
1070
    73
1070
     1
1070
    44
1040
1.0
1070
    74
1070
     0
1000
MTEXTEND
  0
MTEXT
  5
19E6E
330
747D
100
AcDbEntity
  8
寸法
 62
     7
 48
50.0
100
AcDbMText
 10
6530.909028479411
 20
9356.903693513046
 30
0.0
 40
96.0
 41
0.0
 71
     5
 72
     1
  1
棚 3段
  7
STYLE1
 73
     1
 44
1.0
1001
ACAD
1000
MTEXTBEGIN
1070
    73
1070
     1
1070
    44
1040
1.0
1070
    74
1070
     0
1000
MTEXTEND
  0
MTEXT
  5
19E6F
330
747D
100
AcDbEntity
  8
寸法
 62
     7
 48
50.0
100
AcDbMText
 10
5020.909028479415
 20
9356.903693512998
 30
0.0
 40
96.0
 41
0.0
 71
     5
 72
     1
  1
棚 3段
  7
STYLE1
 73
     1
 44
1.0
1001
ACAD
1000
MTEXTBEGIN
1070
    73
1070
     1
1070
    44
1040
1.0
1070
    74
1070
     0
1000
MTEXTEND
  0
MTEXT
  5
19E70
330
747D
100
AcDbEntity
  8
寸法
 62
     7
 48
50.0
100
AcDbMText
 10
9580.90902847941
 20
9356.903693513046
 30
0.0
 40
96.0
 41
0.0
 71
     5
 72
     1
  1
棚 3段
  7
STYLE1
 73
     1
 44
1.0
1001
ACAD
1000
MTEXTBEGIN
1070
    73
1070
     1
1070
    44
1040
1.0
1070
    74
1070
     0
1000
MTEXTEND
  0
MTEXT
  5
19E71
330
747D
100
AcDbEntity
  8
寸法
 62
     7
 48
50.0
100
AcDbMText
 10
8070.909028479418
 20
9356.903693512998
 30
0.0
 40
96.0
 41
0.0
 71
     5
 72
     1
  1
棚 3段
  7
STYLE1
 73
     1
 44
1.0
1001
ACAD
1000
MTEXTBEGIN
1070
    73
1070
     1
1070
    44
1040
1.0
1070
    74
1070
     0
1000
MTEXTEND
  0
DIMENSION
  5
1A1E7
330
747D
100
AcDbEntity
  8
寸法
100
AcDbDimension
  2
*D41
 10
10217.66998414547
 20
8949.059754790807
 30
0.0
 11
9351.131986323629
 21
8949.059754790807
 31
0.0
 70
   160
 71
     5
 42
1483.000000000013
  3
INABA_S40G
100
AcDbAlignedDimension
 13
8826.69383040678
 23
9292.497424545976
 33
0.0
 14
10309.69383040679
 24
9292.497424545967
 34
0.0
100
AcDbRotatedDimension
1001
ACAD
1000
DSTYLE
1002
{
1002
}
  0
DIMENSION
  5
1A1E8
330
747D
100
AcDbEntity
  8
寸法
100
AcDbDimension
  2
*D40
 10
8707.669984145473
 20
8949.059754790699
 30
0.0
 11
7904.485133814796
 21
8949.059754790699
 31
0.0
 70
   160
 71
     5
 42
1483.000000000013
  3
INABA_S40G
100
AcDbAlignedDimension
 13
7316.693830406783
 23
9292.497424545869
 33
0.0
 14
8799.693830406795
 24
9292.497424545862
 34
0.0
100
AcDbRotatedDimension
1001
ACAD
1000
DSTYLE
1002
{
1002
}
  0
LINE
  5
1A277
330
747D
100
AcDbEntity
  8
補助
  6
PHANTOM
 62
   230
 48
50.0
100
AcDbLine
 10
140.0
 20
0.0
 30
0.0
 11
139.9999999999995
 21
11409.6
 31
0.0
  0
TEXT
  5
1A294
330
747D
100
AcDbEntity
  8
文字
 62
     7
 48
50.0
100
AcDbText
 10
14454.30130813547
 20
483.8967129911414
 30
0.0
 40
160.0
  1
FXN-81HYL-N
  7
STYLE2
100
AcDbText
  0
DIMENSION
  5
1A3D2
330
747D
100
AcDbEntity
  8
寸法
 48
50.0
100
AcDbDimension
  2
*D42
 10
10625.73693272852
 20
4485.93159871326
 30
0.0
 11
10525.73693272852
 21
3542.931598713263
 31
0.0
 70
    32
  1
有効開口部高サ <>
 71
     5
 42
1885.999999999999
  3
INABA_S40G
100
AcDbAlignedDimension
 13
10338.19383040677
 23
2599.931598713262
 33
0.0
 14
10338.19383040677
 24
4485.93159871326
 34
0.0
 50
90.0
100
AcDbRotatedDimension
  0
DIMENSION
  5
1A3D3
330
747D
100
AcDbEntity
  8
寸法
 48
50.0
100
AcDbDimension
  2
*D43
 10
10625.73693272852
 20
4512.931598713262
 30
0.0
 11
10765.90675597488
 21
4513.89879855292
 31
0.0
 70
   160
 71
     5
 42
27.00000000000182
  3
INABA_S40G
100
AcDbAlignedDimension
 13
10338.19383040677
 23
4485.93159871326
 33
0.0
 14
10338.19383040677
 24
4512.931598713262
 34
0.0
 50
90.0
100
AcDbRotatedDimension
1001
ACAD
1000
DSTYLE
1002
{
1070
   279
1070
     2
1002
}
  0
DIMENSION
  5
1A3D4
330
747D
100
AcDbEntity
  8
寸法
 48
50.0
100
AcDbDimension
  2
*D44
 10
10625.73693272852
 20
4677.931598713261
 30
0.0
 11
10625.73693272852
 21
4916.416880087502
 31
0.0
 70
   160
 71
     5
 42
164.9999999999991
  3
INABA_S40G
100
AcDbAlignedDimension
 13
10338.19383040677
 23
4512.931598713262
 33
0.0
 14
10338.19383040677
 24
4677.931598713261
 34
0.0
 50
90.0
100
AcDbRotatedDimension
1001
ACAD
1000
DSTYLE
1002
{
1002
}
  0
ARC
  5
1A620
330
747D
100
AcDbEntity
  8
部品1
 48
0.01
100
AcDbCircle
 10
3240.193830406779
 20
4710.431598713259
 30
0.0
 40
2.0
100
AcDbArc
 50
180.0
 51
270.0
  0
ARC
  5
1A621
330
747D
100
AcDbEntity
  8
部品1
 48
0.01
100
AcDbCircle
 10
3416.193830406779
 20
4710.431598713259
 30
0.0
 40
2.0
100
AcDbArc
 50
270.0
 51
0.0
  0
LINE
  5
1A622
330
747D
100
AcDbEntity
  8
部品1
 48
0.01
100
AcDbLine
 10
3416.193830406779
 20
4708.43159871326
 30
0.0
 11
3240.193830406779
 21
4708.43159871326
 31
0.0
  0
LINE
  5
1A623
330
747D
100
AcDbEntity
  8
部品1
 48
0.01
100
AcDbLine
 10
2010.193830406779
 20
4708.43159871326
 30
0.0
 11
2186.193830406775
 21
4708.43159871326
 31
0.0
  0
ARC
  5
1A624
330
747D
100
AcDbEntity
  8
部品1
 48
0.01
100
AcDbCircle
 10
2010.193830406779
 20
4710.431598713259
 30
0.0
 40
2.0
100
AcDbArc
 50
180.0
 51
270.0
  0
ARC
  5
1A625
330
747D
100
AcDbEntity
  8
部品1
 48
0.01
100
AcDbCircle
 10
2186.193830406775
 20
4710.431598713259
 30
0.0
 40
2.0
100
AcDbArc
 50
270.0
 51
0.0
  0
ARC
  5
1A626
330
747D
100
AcDbEntity
  8
部品1
 48
0.01
100
AcDbCircle
 10
3240.193830406779
 20
4741.93159871326
 30
0.0
 40
2.0
100
AcDbArc
 50
90.0
 51
180.0
  0
ARC
  5
1A627
330
747D
100
AcDbEntity
  8
部品1
 48
0.01
100
AcDbCircle
 10
3416.193830406779
 20
4741.93159871326
 30
0.0
 40
2.0
100
AcDbArc
 50
0.0
 51
90.0
  0
LINE
  5
1A628
330
747D
100
AcDbEntity
  8
細線
100
AcDbLine
 10
3328.193830406779
 20
4714.431598713259
 30
0.0
 11
3254.193830406779
 21
4714.431598713259
 31
0.0
  0
LINE
  5
1A629
330
747D
100
AcDbEntity
  8
細線
100
AcDbLine
 10
3328.193830406779
 20
4737.43159871326
 30
0.0
 11
3402.193830406779
 21
4737.43159871326
 31
0.0
  0
LINE
  5
1A62A
330
747D
100
AcDbEntity
  8
細線
100
AcDbLine
 10
3402.193830406779
 20
4714.431598713259
 30
0.0
 11
3328.193830406779
 21
4714.431598713259
 31
0.0
  0
LINE
  5
1A62B
330
747D
100
AcDbEntity
  8
細線
100
AcDbLine
 10
3254.193830406779
 20
4737.43159871326
 30
0.0
 11
3328.193830406779
 21
4737.43159871326
 31
0.0
  0
LINE
  5
1A62C
330
747D
100
AcDbEntity
  8
細線
100
AcDbLine
 10
3254.193830406779
 20
4714.431598713259
 30
0.0
 11
3254.193830406779
 21
4737.43159871326
 31
0.0
  0
LINE
  5
1A62D
330
747D
100
AcDbEntity
  8
細線
100
AcDbLine
 10
3402.193830406779
 20
4737.43159871326
 30
0.0
 11
3402.193830406779
 21
4714.431598713259
 31
0.0
  0
LINE
  5
1A62E
330
747D
100
AcDbEntity
  8
部品1
 48
0.01
100
AcDbLine
 10
3238.193830406779
 20
4710.431598713259
 30
0.0
 11
3238.193830406779
 21
4741.93159871326
 31
0.0
  0
LINE
  5
1A62F
330
747D
100
AcDbEntity
  8
部品1
 48
0.01
100
AcDbLine
 10
3418.193830406779
 20
4741.93159871326
 30
0.0
 11
3418.193830406779
 21
4710.431598713259
 31
0.0
  0
LINE
  5
1A630
330
747D
100
AcDbEntity
  8
部品1
 48
0.01
100
AcDbLine
 10
3240.193830406779
 20
4743.931598713259
 30
0.0
 11
3416.193830406779
 21
4743.931598713259
 31
0.0
  0
LINE
  5
1A631
330
747D
100
AcDbEntity
  8
細線
100
AcDbLine
 10
3402.193830406779
 20
4731.43159871326
 30
0.0
 11
3328.193830406779
 21
4731.43159871326
 31
0.0
  0
LINE
  5
1A632
330
747D
100
AcDbEntity
  8
細線
100
AcDbLine
 10
3402.193830406779
 20
4725.431598713259
 30
0.0
 11
3328.193830406779
 21
4725.431598713259
 31
0.0
  0
LINE
  5
1A633
330
747D
100
AcDbEntity
  8
細線
100
AcDbLine
 10
3402.193830406779
 20
4719.431598713259
 30
0.0
 11
3328.193830406779
 21
4719.431598713259
 31
0.0
  0
LINE
  5
1A634
330
747D
100
AcDbEntity
  8
細線
100
AcDbLine
 10
3402.193830406779
 20
4731.43159871326
 30
0.0
 11
3333.193830406779
 21
4731.43159871326
 31
0.0
  0
LINE
  5
1A635
330
747D
100
AcDbEntity
  8
細線
100
AcDbLine
 10
3254.193830406779
 20
4731.43159871326
 30
0.0
 11
3328.193830406779
 21
4731.43159871326
 31
0.0
  0
LINE
  5
1A636
330
747D
100
AcDbEntity
  8
細線
100
AcDbLine
 10
3254.193830406779
 20
4719.431598713259
 30
0.0
 11
3328.193830406779
 21
4719.431598713259
 31
0.0
  0
LINE
  5
1A637
330
747D
100
AcDbEntity
  8
細線
100
AcDbLine
 10
3254.193830406779
 20
4725.431598713259
 30
0.0
 11
3328.193830406779
 21
4725.431598713259
 31
0.0
  0
LINE
  5
1A638
330
747D
100
AcDbEntity
  8
細線
100
AcDbLine
 10
3328.193830406779
 20
4737.43159871326
 30
0.0
 11
3328.193830406779
 21
4714.431598713259
 31
0.0
  0
LINE
  5
1A639
330
747D
100
AcDbEntity
  8
細線
100
AcDbLine
 10
2098.193830406779
 20
4737.43159871326
 30
0.0
 11
2098.193830406775
 21
4714.431598713259
 31
0.0
  0
LINE
  5
1A63A
330
747D
100
AcDbEntity
  8
細線
100
AcDbLine
 10
2172.193830406775
 20
4725.431598713259
 30
0.0
 11
2098.193830406779
 21
4725.431598713259
 31
0.0
  0
LINE
  5
1A63B
330
747D
100
AcDbEntity
  8
細線
100
AcDbLine
 10
2172.193830406775
 20
4719.431598713259
 30
0.0
 11
2098.193830406779
 21
4719.431598713259
 31
0.0
  0
LINE
  5
1A63C
330
747D
100
AcDbEntity
  8
細線
100
AcDbLine
 10
2172.193830406775
 20
4731.43159871326
 30
0.0
 11
2098.193830406779
 21
4731.43159871326
 31
0.0
  0
LINE
  5
1A63D
330
747D
100
AcDbEntity
  8
細線
100
AcDbLine
 10
2024.193830406779
 20
4731.43159871326
 30
0.0
 11
2093.193830406779
 21
4731.43159871326
 31
0.0
  0
LINE
  5
1A63E
330
747D
100
AcDbEntity
  8
細線
100
AcDbLine
 10
2024.193830406776
 20
4719.431598713259
 30
0.0
 11
2098.193830406779
 21
4719.431598713259
 31
0.0
  0
LINE
  5
1A63F
330
747D
100
AcDbEntity
  8
細線
100
AcDbLine
 10
2024.193830406779
 20
4725.431598713259
 30
0.0
 11
2098.193830406779
 21
4725.431598713259
 31
0.0
  0
LINE
  5
1A640
330
747D
100
AcDbEntity
  8
細線
100
AcDbLine
 10
2024.193830406779
 20
4731.43159871326
 30
0.0
 11
2098.193830406779
 21
4731.43159871326
 31
0.0
  0
LINE
  5
1A641
330
747D
100
AcDbEntity
  8
部品1
 48
0.01
100
AcDbLine
 10
2186.193830406779
 20
4743.931598713259
 30
0.0
 11
2010.193830406779
 21
4743.931598713259
 31
0.0
  0
LINE
  5
1A642
330
747D
100
AcDbEntity
  8
部品1
 48
0.01
100
AcDbLine
 10
2008.193830406779
 20
4741.93159871326
 30
0.0
 11
2008.193830406779
 21
4710.431598713259
 31
0.0
  0
LINE
  5
1A643
330
747D
100
AcDbEntity
  8
部品1
 48
0.01
100
AcDbLine
 10
2188.193830406775
 20
4710.431598713259
 30
0.0
 11
2188.193830406779
 21
4741.93159871326
 31
0.0
  0
LINE
  5
1A644
330
747D
100
AcDbEntity
  8
細線
100
AcDbLine
 10
2024.193830406779
 20
4737.43159871326
 30
0.0
 11
2024.193830406779
 21
4714.431598713259
 31
0.0
  0
LINE
  5
1A645
330
747D
100
AcDbEntity
  8
細線
100
AcDbLine
 10
2172.193830406779
 20
4714.431598713259
 30
0.0
 11
2172.193830406779
 21
4737.43159871326
 31
0.0
  0
LINE
  5
1A646
330
747D
100
AcDbEntity
  8
細線
100
AcDbLine
 10
2172.193830406779
 20
4737.43159871326
 30
0.0
 11
2098.193830406779
 21
4737.43159871326
 31
0.0
  0
LINE
  5
1A647
330
747D
100
AcDbEntity
  8
細線
100
AcDbLine
 10
2024.193830406779
 20
4714.431598713259
 30
0.0
 11
2098.193830406779
 21
4714.431598713259
 31
0.0
  0
LINE
  5
1A648
330
747D
100
AcDbEntity
  8
細線
100
AcDbLine
 10
2098.193830406779
 20
4737.43159871326
 30
0.0
 11
2024.193830406779
 21
4737.43159871326
 31
0.0
  0
LINE
  5
1A649
330
747D
100
AcDbEntity
  8
細線
100
AcDbLine
 10
2098.193830406775
 20
4714.431598713259
 30
0.0
 11
2172.193830406779
 21
4714.431598713259
 31
0.0
  0
ARC
  5
1A64A
330
747D
100
AcDbEntity
  8
部品1
 48
0.01
100
AcDbCircle
 10
2010.193830406779
 20
4741.93159871326
 30
0.0
 40
2.0
100
AcDbArc
 50
90.0
 51
180.0
  0
ARC
  5
1A64B
330
747D
100
AcDbEntity
  8
部品1
 48
0.01
100
AcDbCircle
 10
2186.193830406779
 20
4741.93159871326
 30
0.0
 40
2.0
100
AcDbArc
 50
0.0
 51
90.0
  0
ARC
  5
1A770
330
747D
100
AcDbEntity
  8
部品1
 48
0.01
100
AcDbCircle
 10
5236.193830406777
 20
4741.93159871326
 30
0.0
 40
2.0
100
AcDbArc
 50
0.0
 51
90.0
  0
ARC
  5
1A771
330
747D
100
AcDbEntity
  8
部品1
 48
0.01
100
AcDbCircle
 10
5060.193830406777
 20
4741.93159871326
 30
0.0
 40
2.0
100
AcDbArc
 50
90.0
 51
180.0
  0
LINE
  5
1A772
330
747D
100
AcDbEntity
  8
細線
100
AcDbLine
 10
5148.193830406774
 20
4714.431598713259
 30
0.0
 11
5222.193830406776
 21
4714.431598713259
 31
0.0
  0
LINE
  5
1A773
330
747D
100
AcDbEntity
  8
細線
100
AcDbLine
 10
5148.193830406778
 20
4737.43159871326
 30
0.0
 11
5074.193830406777
 21
4737.43159871326
 31
0.0
  0
LINE
  5
1A774
330
747D
100
AcDbEntity
  8
細線
100
AcDbLine
 10
5074.193830406777
 20
4714.431598713259
 30
0.0
 11
5148.193830406778
 21
4714.431598713259
 31
0.0
  0
LINE
  5
1A775
330
747D
100
AcDbEntity
  8
細線
100
AcDbLine
 10
5222.193830406776
 20
4737.43159871326
 30
0.0
 11
5148.193830406778
 21
4737.43159871326
 31
0.0
  0
LINE
  5
1A776
330
747D
100
AcDbEntity
  8
細線
100
AcDbLine
 10
5222.193830406776
 20
4714.431598713259
 30
0.0
 11
5222.193830406776
 21
4737.43159871326
 31
0.0
  0
LINE
  5
1A777
330
747D
100
AcDbEntity
  8
細線
100
AcDbLine
 10
5074.193830406777
 20
4737.43159871326
 30
0.0
 11
5074.193830406777
 21
4714.431598713259
 31
0.0
  0
LINE
  5
1A778
330
747D
100
AcDbEntity
  8
部品1
 48
0.01
100
AcDbLine
 10
5238.193830406774
 20
4710.431598713259
 30
0.0
 11
5238.193830406777
 21
4741.93159871326
 31
0.0
  0
LINE
  5
1A779
330
747D
100
AcDbEntity
  8
部品1
 48
0.01
100
AcDbLine
 10
5058.193830406777
 20
4741.93159871326
 30
0.0
 11
5058.193830406777
 21
4710.431598713259
 31
0.0
  0
LINE
  5
1A77A
330
747D
100
AcDbEntity
  8
部品1
 48
0.01
100
AcDbLine
 10
5236.193830406777
 20
4743.931598713259
 30
0.0
 11
5060.193830406777
 21
4743.931598713259
 31
0.0
  0
LINE
  5
1A77B
330
747D
100
AcDbEntity
  8
細線
100
AcDbLine
 10
5074.193830406777
 20
4731.43159871326
 30
0.0
 11
5148.193830406778
 21
4731.43159871326
 31
0.0
  0
LINE
  5
1A77C
330
747D
100
AcDbEntity
  8
細線
100
AcDbLine
 10
5074.193830406777
 20
4725.431598713259
 30
0.0
 11
5148.193830406778
 21
4725.431598713259
 31
0.0
  0
LINE
  5
1A77D
330
747D
100
AcDbEntity
  8
細線
100
AcDbLine
 10
5074.193830406773
 20
4719.431598713259
 30
0.0
 11
5148.193830406778
 21
4719.431598713259
 31
0.0
  0
LINE
  5
1A77E
330
747D
100
AcDbEntity
  8
細線
100
AcDbLine
 10
5074.193830406777
 20
4731.43159871326
 30
0.0
 11
5143.193830406777
 21
4731.43159871326
 31
0.0
  0
LINE
  5
1A77F
330
747D
100
AcDbEntity
  8
細線
100
AcDbLine
 10
5222.193830406773
 20
4731.43159871326
 30
0.0
 11
5148.193830406778
 21
4731.43159871326
 31
0.0
  0
LINE
  5
1A780
330
747D
100
AcDbEntity
  8
細線
100
AcDbLine
 10
5222.193830406773
 20
4719.431598713259
 30
0.0
 11
5148.193830406778
 21
4719.431598713259
 31
0.0
  0
LINE
  5
1A781
330
747D
100
AcDbEntity
  8
細線
100
AcDbLine
 10
5222.193830406773
 20
4725.431598713259
 30
0.0
 11
5148.193830406778
 21
4725.431598713259
 31
0.0
  0
LINE
  5
1A782
330
747D
100
AcDbEntity
  8
細線
100
AcDbLine
 10
5148.193830406778
 20
4737.43159871326
 30
0.0
 11
5148.193830406774
 21
4714.431598713259
 31
0.0
  0
LINE
  5
1A783
330
747D
100
AcDbEntity
  8
細線
100
AcDbLine
 10
6378.193830406777
 20
4737.43159871326
 30
0.0
 11
6378.193830406777
 21
4714.431598713259
 31
0.0
  0
LINE
  5
1A784
330
747D
100
AcDbEntity
  8
細線
100
AcDbLine
 10
6304.193830406777
 20
4725.431598713259
 30
0.0
 11
6378.193830406777
 21
4725.431598713259
 31
0.0
  0
LINE
  5
1A785
330
747D
100
AcDbEntity
  8
細線
100
AcDbLine
 10
6304.193830406777
 20
4719.431598713259
 30
0.0
 11
6378.193830406777
 21
4719.431598713259
 31
0.0
  0
LINE
  5
1A786
330
747D
100
AcDbEntity
  8
細線
100
AcDbLine
 10
6304.193830406777
 20
4731.43159871326
 30
0.0
 11
6378.193830406777
 21
4731.43159871326
 31
0.0
  0
LINE
  5
1A787
330
747D
100
AcDbEntity
  8
細線
100
AcDbLine
 10
6452.193830406777
 20
4731.43159871326
 30
0.0
 11
6383.193830406777
 21
4731.43159871326
 31
0.0
  0
LINE
  5
1A788
330
747D
100
AcDbEntity
  8
細線
100
AcDbLine
 10
6452.193830406777
 20
4719.431598713259
 30
0.0
 11
6378.193830406777
 21
4719.431598713259
 31
0.0
  0
LINE
  5
1A789
330
747D
100
AcDbEntity
  8
細線
100
AcDbLine
 10
6452.193830406777
 20
4725.431598713259
 30
0.0
 11
6378.193830406777
 21
4725.431598713259
 31
0.0
  0
LINE
  5
1A78A
330
747D
100
AcDbEntity
  8
細線
100
AcDbLine
 10
6452.193830406777
 20
4731.43159871326
 30
0.0
 11
6378.193830406777
 21
4731.43159871326
 31
0.0
  0
LINE
  5
1A78B
330
747D
100
AcDbEntity
  8
部品1
 48
0.01
100
AcDbLine
 10
6290.193830406777
 20
4743.931598713259
 30
0.0
 11
6466.193830406777
 21
4743.931598713259
 31
0.0
  0
LINE
  5
1A78C
330
747D
100
AcDbEntity
  8
部品1
 48
0.01
100
AcDbLine
 10
6468.193830406777
 20
4741.93159871326
 30
0.0
 11
6468.193830406777
 21
4710.431598713259
 31
0.0
  0
LINE
  5
1A78D
330
747D
100
AcDbEntity
  8
部品1
 48
0.01
100
AcDbLine
 10
6288.193830406777
 20
4710.431598713259
 30
0.0
 11
6288.193830406777
 21
4741.93159871326
 31
0.0
  0
LINE
  5
1A78E
330
747D
100
AcDbEntity
  8
細線
100
AcDbLine
 10
6452.193830406777
 20
4737.43159871326
 30
0.0
 11
6452.193830406777
 21
4714.431598713259
 31
0.0
  0
LINE
  5
1A78F
330
747D
100
AcDbEntity
  8
細線
100
AcDbLine
 10
6304.193830406777
 20
4714.431598713259
 30
0.0
 11
6304.193830406777
 21
4737.43159871326
 31
0.0
  0
LINE
  5
1A790
330
747D
100
AcDbEntity
  8
細線
100
AcDbLine
 10
6304.193830406777
 20
4737.43159871326
 30
0.0
 11
6378.193830406777
 21
4737.43159871326
 31
0.0
  0
LINE
  5
1A791
330
747D
100
AcDbEntity
  8
細線
100
AcDbLine
 10
6452.193830406777
 20
4714.431598713259
 30
0.0
 11
6378.193830406777
 21
4714.431598713259
 31
0.0
  0
LINE
  5
1A792
330
747D
100
AcDbEntity
  8
細線
100
AcDbLine
 10
6378.193830406777
 20
4737.43159871326
 30
0.0
 11
6452.193830406777
 21
4737.43159871326
 31
0.0
  0
LINE
  5
1A793
330
747D
100
AcDbEntity
  8
細線
100
AcDbLine
 10
6378.193830406777
 20
4714.431598713259
 30
0.0
 11
6304.193830406777
 21
4714.431598713259
 31
0.0
  0
ARC
  5
1A794
330
747D
100
AcDbEntity
  8
部品1
 48
0.01
100
AcDbCircle
 10
6466.193830406777
 20
4741.93159871326
 30
0.0
 40
2.0
100
AcDbArc
 50
0.0
 51
90.0
  0
ARC
  5
1A795
330
747D
100
AcDbEntity
  8
部品1
 48
0.01
100
AcDbCircle
 10
6290.193830406777
 20
4741.93159871326
 30
0.0
 40
2.0
100
AcDbArc
 50
90.0
 51
180.0
  0
ARC
  5
1A796
330
747D
100
AcDbEntity
  8
部品1
 48
0.01
100
AcDbCircle
 10
5236.193830406773
 20
4710.431598713259
 30
0.0
 40
2.0
100
AcDbArc
 50
270.0
 51
0.0
  0
ARC
  5
1A797
330
747D
100
AcDbEntity
  8
部品1
 48
0.01
100
AcDbCircle
 10
5060.193830406777
 20
4710.431598713259
 30
0.0
 40
2.0
100
AcDbArc
 50
180.0
 51
270.0
  0
LINE
  5
1A798
330
747D
100
AcDbEntity
  8
部品1
 48
0.01
100
AcDbLine
 10
5060.193830406777
 20
4708.43159871326
 30
0.0
 11
5236.193830406773
 21
4708.43159871326
 31
0.0
  0
LINE
  5
1A799
330
747D
100
AcDbEntity
  8
部品1
 48
0.01
100
AcDbLine
 10
6466.193830406777
 20
4708.43159871326
 30
0.0
 11
6290.193830406777
 21
4708.43159871326
 31
0.0
  0
ARC
  5
1A79A
330
747D
100
AcDbEntity
  8
部品1
 48
0.01
100
AcDbCircle
 10
6466.193830406777
 20
4710.431598713259
 30
0.0
 40
2.0
100
AcDbArc
 50
270.0
 51
0.0
  0
ARC
  5
1A79B
330
747D
100
AcDbEntity
  8
部品1
 48
0.01
100
AcDbCircle
 10
6290.193830406777
 20
4710.431598713259
 30
0.0
 40
2.0
100
AcDbArc
 50
180.0
 51
270.0
  0
ARC
  5
1A79C
330
747D
100
AcDbEntity
  8
部品1
 48
0.01
100
AcDbCircle
 10
9340.193830406777
 20
4710.431598713259
 30
0.0
 40
2.0
100
AcDbArc
 50
180.0
 51
270.0
  0
ARC
  5
1A79D
330
747D
100
AcDbEntity
  8
部品1
 48
0.01
100
AcDbCircle
 10
9516.193830406777
 20
4710.431598713259
 30
0.0
 40
2.0
100
AcDbArc
 50
270.0
 51
0.0
  0
LINE
  5
1A79E
330
747D
100
AcDbEntity
  8
部品1
 48
0.01
100
AcDbLine
 10
9516.193830406777
 20
4708.43159871326
 30
0.0
 11
9340.193830406777
 21
4708.43159871326
 31
0.0
  0
LINE
  5
1A79F
330
747D
100
AcDbEntity
  8
部品1
 48
0.01
100
AcDbLine
 10
8110.193830406776
 20
4708.43159871326
 30
0.0
 11
8286.193830406773
 21
4708.43159871326
 31
0.0
  0
ARC
  5
1A7A0
330
747D
100
AcDbEntity
  8
部品1
 48
0.01
100
AcDbCircle
 10
8110.193830406776
 20
4710.431598713259
 30
0.0
 40
2.0
100
AcDbArc
 50
180.0
 51
270.0
  0
ARC
  5
1A7A1
330
747D
100
AcDbEntity
  8
部品1
 48
0.01
100
AcDbCircle
 10
8286.193830406773
 20
4710.431598713259
 30
0.0
 40
2.0
100
AcDbArc
 50
270.0
 51
0.0
  0
ARC
  5
1A7A2
330
747D
100
AcDbEntity
  8
部品1
 48
0.01
100
AcDbCircle
 10
9340.193830406777
 20
4741.93159871326
 30
0.0
 40
2.0
100
AcDbArc
 50
90.0
 51
180.0
  0
ARC
  5
1A7A3
330
747D
100
AcDbEntity
  8
部品1
 48
0.01
100
AcDbCircle
 10
9516.193830406777
 20
4741.93159871326
 30
0.0
 40
2.0
100
AcDbArc
 50
0.0
 51
90.0
  0
LINE
  5
1A7A4
330
747D
100
AcDbEntity
  8
細線
100
AcDbLine
 10
9428.193830406778
 20
4714.431598713259
 30
0.0
 11
9354.193830406776
 21
4714.431598713259
 31
0.0
  0
LINE
  5
1A7A5
330
747D
100
AcDbEntity
  8
細線
100
AcDbLine
 10
9428.193830406778
 20
4737.43159871326
 30
0.0
 11
9502.193830406778
 21
4737.43159871326
 31
0.0
  0
LINE
  5
1A7A6
330
747D
100
AcDbEntity
  8
細線
100
AcDbLine
 10
9502.193830406778
 20
4714.431598713259
 30
0.0
 11
9428.193830406778
 21
4714.431598713259
 31
0.0
  0
LINE
  5
1A7A7
330
747D
100
AcDbEntity
  8
細線
100
AcDbLine
 10
9354.193830406776
 20
4737.43159871326
 30
0.0
 11
9428.193830406778
 21
4737.43159871326
 31
0.0
  0
LINE
  5
1A7A8
330
747D
100
AcDbEntity
  8
細線
100
AcDbLine
 10
9354.193830406776
 20
4714.431598713259
 30
0.0
 11
9354.193830406776
 21
4737.43159871326
 31
0.0
  0
LINE
  5
1A7A9
330
747D
100
AcDbEntity
  8
細線
100
AcDbLine
 10
9502.193830406778
 20
4737.43159871326
 30
0.0
 11
9502.193830406778
 21
4714.431598713259
 31
0.0
  0
LINE
  5
1A7AA
330
747D
100
AcDbEntity
  8
部品1
 48
0.01
100
AcDbLine
 10
9338.193830406778
 20
4710.431598713259
 30
0.0
 11
9338.193830406778
 21
4741.93159871326
 31
0.0
  0
LINE
  5
1A7AB
330
747D
100
AcDbEntity
  8
部品1
 48
0.01
100
AcDbLine
 10
9518.193830406778
 20
4741.93159871326
 30
0.0
 11
9518.193830406778
 21
4710.431598713259
 31
0.0
  0
LINE
  5
1A7AC
330
747D
100
AcDbEntity
  8
部品1
 48
0.01
100
AcDbLine
 10
9340.193830406777
 20
4743.931598713259
 30
0.0
 11
9516.193830406777
 21
4743.931598713259
 31
0.0
  0
LINE
  5
1A7AD
330
747D
100
AcDbEntity
  8
細線
100
AcDbLine
 10
9502.193830406778
 20
4731.43159871326
 30
0.0
 11
9428.193830406778
 21
4731.43159871326
 31
0.0
  0
LINE
  5
1A7AE
330
747D
100
AcDbEntity
  8
細線
100
AcDbLine
 10
9502.193830406778
 20
4725.431598713259
 30
0.0
 11
9428.193830406778
 21
4725.431598713259
 31
0.0
  0
LINE
  5
1A7AF
330
747D
100
AcDbEntity
  8
細線
100
AcDbLine
 10
9502.193830406778
 20
4719.431598713259
 30
0.0
 11
9428.193830406778
 21
4719.431598713259
 31
0.0
  0
LINE
  5
1A7B0
330
747D
100
AcDbEntity
  8
細線
100
AcDbLine
 10
9502.193830406778
 20
4731.43159871326
 30
0.0
 11
9433.193830406777
 21
4731.43159871326
 31
0.0
  0
LINE
  5
1A7B1
330
747D
100
AcDbEntity
  8
細線
100
AcDbLine
 10
9354.193830406776
 20
4731.43159871326
 30
0.0
 11
9428.193830406778
 21
4731.43159871326
 31
0.0
  0
LINE
  5
1A7B2
330
747D
100
AcDbEntity
  8
細線
100
AcDbLine
 10
9354.193830406776
 20
4719.431598713259
 30
0.0
 11
9428.193830406778
 21
4719.431598713259
 31
0.0
  0
LINE
  5
1A7B3
330
747D
100
AcDbEntity
  8
細線
100
AcDbLine
 10
9354.193830406776
 20
4725.431598713259
 30
0.0
 11
9428.193830406778
 21
4725.431598713259
 31
0.0
  0
LINE
  5
1A7B4
330
747D
100
AcDbEntity
  8
細線
100
AcDbLine
 10
9428.193830406778
 20
4737.43159871326
 30
0.0
 11
9428.193830406778
 21
4714.431598713259
 31
0.0
  0
LINE
  5
1A7B5
330
747D
100
AcDbEntity
  8
細線
100
AcDbLine
 10
8198.193830406777
 20
4737.43159871326
 30
0.0
 11
8198.193830406774
 21
4714.431598713259
 31
0.0
  0
LINE
  5
1A7B6
330
747D
100
AcDbEntity
  8
細線
100
AcDbLine
 10
8272.193830406774
 20
4725.431598713259
 30
0.0
 11
8198.193830406777
 21
4725.431598713259
 31
0.0
  0
LINE
  5
1A7B7
330
747D
100
AcDbEntity
  8
細線
100
AcDbLine
 10
8272.193830406774
 20
4719.431598713259
 30
0.0
 11
8198.193830406777
 21
4719.431598713259
 31
0.0
  0
LINE
  5
1A7B8
330
747D
100
AcDbEntity
  8
細線
100
AcDbLine
 10
8272.193830406774
 20
4731.43159871326
 30
0.0
 11
8198.193830406777
 21
4731.43159871326
 31
0.0
  0
LINE
  5
1A7B9
330
747D
100
AcDbEntity
  8
細線
100
AcDbLine
 10
8124.193830406778
 20
4731.43159871326
 30
0.0
 11
8193.193830406777
 21
4731.43159871326
 31
0.0
  0
LINE
  5
1A7BA
330
747D
100
AcDbEntity
  8
細線
100
AcDbLine
 10
8124.193830406772
 20
4719.431598713259
 30
0.0
 11
8198.193830406777
 21
4719.431598713259
 31
0.0
  0
LINE
  5
1A7BB
330
747D
100
AcDbEntity
  8
細線
100
AcDbLine
 10
8124.193830406778
 20
4725.431598713259
 30
0.0
 11
8198.193830406777
 21
4725.431598713259
 31
0.0
  0
LINE
  5
1A7BC
330
747D
100
AcDbEntity
  8
細線
100
AcDbLine
 10
8124.193830406778
 20
4731.43159871326
 30
0.0
 11
8198.193830406777
 21
4731.43159871326
 31
0.0
  0
LINE
  5
1A7BD
330
747D
100
AcDbEntity
  8
部品1
 48
0.01
100
AcDbLine
 10
8286.193830406778
 20
4743.931598713259
 30
0.0
 11
8110.193830406776
 21
4743.931598713259
 31
0.0
  0
LINE
  5
1A7BE
330
747D
100
AcDbEntity
  8
部品1
 48
0.01
100
AcDbLine
 10
8108.193830406777
 20
4741.93159871326
 30
0.0
 11
8108.193830406777
 21
4710.431598713259
 31
0.0
  0
LINE
  5
1A7BF
330
747D
100
AcDbEntity
  8
部品1
 48
0.01
100
AcDbLine
 10
8288.193830406774
 20
4710.431598713259
 30
0.0
 11
8288.193830406777
 21
4741.93159871326
 31
0.0
  0
LINE
  5
1A7C0
330
747D
100
AcDbEntity
  8
細線
100
AcDbLine
 10
8124.193830406778
 20
4737.43159871326
 30
0.0
 11
8124.193830406778
 21
4714.431598713259
 31
0.0
  0
LINE
  5
1A7C1
330
747D
100
AcDbEntity
  8
細線
100
AcDbLine
 10
8272.193830406777
 20
4714.431598713259
 30
0.0
 11
8272.193830406777
 21
4737.43159871326
 31
0.0
  0
LINE
  5
1A7C2
330
747D
100
AcDbEntity
  8
細線
100
AcDbLine
 10
8272.193830406777
 20
4737.43159871326
 30
0.0
 11
8198.193830406777
 21
4737.43159871326
 31
0.0
  0
LINE
  5
1A7C3
330
747D
100
AcDbEntity
  8
細線
100
AcDbLine
 10
8124.193830406778
 20
4714.431598713259
 30
0.0
 11
8198.193830406777
 21
4714.431598713259
 31
0.0
  0
LINE
  5
1A7C4
330
747D
100
AcDbEntity
  8
細線
100
AcDbLine
 10
8198.193830406777
 20
4737.43159871326
 30
0.0
 11
8124.193830406778
 21
4737.43159871326
 31
0.0
  0
LINE
  5
1A7C5
330
747D
100
AcDbEntity
  8
細線
100
AcDbLine
 10
8198.193830406774
 20
4714.431598713259
 30
0.0
 11
8272.193830406777
 21
4714.431598713259
 31
0.0
  0
ARC
  5
1A7C6
330
747D
100
AcDbEntity
  8
部品1
 48
0.01
100
AcDbCircle
 10
8110.193830406776
 20
4741.93159871326
 30
0.0
 40
2.0
100
AcDbArc
 50
90.0
 51
180.0
  0
ARC
  5
1A7C7
330
747D
100
AcDbEntity
  8
部品1
 48
0.01
100
AcDbCircle
 10
8286.193830406778
 20
4741.93159871326
 30
0.0
 40
2.0
100
AcDbArc
 50
0.0
 51
90.0
  0
DIMENSION
  5
1A7FD
330
747D
100
AcDbEntity
  8
寸法
 48
50.0
100
AcDbDimension
  2
*D47
 10
4575.035190667374
 20
9772.497427244998
 30
0.0
 11
4575.035190667374
 21
9511.583688491347
 31
0.0
 70
   160
 71
     5
 42
716.5000000001546
  3
INABA_S40G
100
AcDbAlignedDimension
 13
4263.193830406538
 23
9055.997427244841
 33
0.0
 14
4293.193830406773
 24
9772.497427244998
 34
0.0
 50
90.0
100
AcDbRotatedDimension
1001
ACAD
1000
DSTYLE
1002
{
1070
   174
1070
     0
1070
   272
1070
     1
1070
   341
1005
0
1002
}
  0
LINE
  5
1A7FE
330
747D
100
AcDbEntity
  8
部品1
 48
50.0
100
AcDbLine
 10
4213.193830406537
 20
9717.497423667822
 30
0.0
 11
4213.193830406537
 21
9055.997423667822
 31
0.0
  0
LINE
  5
1A7FF
330
747D
100
AcDbEntity
  8
部品1
 48
50.0
100
AcDbLine
 10
4263.193830406538
 20
9055.997423667822
 30
0.0
 11
4263.193830406538
 21
9717.497423667822
 31
0.0
  0
LINE
  5
1A800
330
747D
100
AcDbEntity
  8
部品1
100
AcDbLine
 10
4263.193830406538
 20
9292.821440230968
 30
0.0
 11
4213.193830406536
 21
9297.997423667821
 31
0.0
  0
LINE
  5
1A801
330
747D
100
AcDbEntity
  8
部品1
100
AcDbLine
 10
4263.193830406538
 20
9333.173407104675
 30
0.0
 11
4213.193830406536
 21
9327.997423667822
 31
0.0
  0
LINE
  5
1A802
330
747D
100
AcDbEntity
  8
部品1
100
AcDbLine
 10
4213.193830406537
 20
9137.997423667821
 30
0.0
 11
4263.193830406536
 21
9150.709288074599
 31
0.0
  0
LINE
  5
1A803
330
747D
100
AcDbEntity
  8
部品1
 48
50.0
100
AcDbLine
 10
4213.193830406537
 20
9055.997423667822
 30
0.0
 11
4263.193830406538
 21
9055.997423667822
 31
0.0
  0
LINE
  5
1A81B
330
747D
100
AcDbEntity
  8
部品1
 48
50.0
100
AcDbLine
 10
7263.19383040654
 20
9717.49742366782
 30
0.0
 11
7263.19383040654
 21
9055.997423667818
 31
0.0
  0
LINE
  5
1A81C
330
747D
100
AcDbEntity
  8
部品1
 48
50.0
100
AcDbLine
 10
7313.19383040654
 20
9055.997423667818
 30
0.0
 11
7313.19383040654
 21
9717.49742366782
 31
0.0
  0
LINE
  5
1A81D
330
747D
100
AcDbEntity
  8
部品1
100
AcDbLine
 10
7313.19383040654
 20
9292.821440230966
 30
0.0
 11
7263.193830406539
 21
9297.997423667819
 31
0.0
  0
LINE
  5
1A81E
330
747D
100
AcDbEntity
  8
部品1
100
AcDbLine
 10
7313.19383040654
 20
9333.173407104673
 30
0.0
 11
7263.193830406539
 21
9327.997423667818
 31
0.0
  0
LINE
  5
1A81F
330
747D
100
AcDbEntity
  8
部品1
100
AcDbLine
 10
7263.19383040654
 20
9137.997423667819
 30
0.0
 11
7313.193830406539
 21
9150.709288074597
 31
0.0
  0
LINE
  5
1A820
330
747D
100
AcDbEntity
  8
部品1
 48
50.0
100
AcDbLine
 10
7263.19383040654
 20
9055.997423667818
 30
0.0
 11
7313.19383040654
 21
9055.997423667818
 31
0.0
  0
LINE
  5
1A8E1
330
747D
100
AcDbEntity
  8
仕様書枠
 48
50.0
100
AcDbLine
 10
16307.19999999998
 20
8179.600000000029
 30
0.0
 11
13127.19999999999
 21
8179.600000000032
 31
0.0
  0
TEXT
  5
1A8E2
330
747D
100
AcDbEntity
  8
文字
 62
     7
 48
50.0
100
AcDbText
 10
13248.77747366447
 20
8210.013745883744
 30
0.0
 40
100.0
  1
17
  7
STYLE1
100
AcDbText
  0
TEXT
  5
1A8E3
330
747D
100
AcDbEntity
  8
文字
 62
     7
 48
50.0
100
AcDbText
 10
13583.11819016568
 20
9230.013745883731
 30
0.0
 40
100.0
  1
梁中補強パネル
  7
STYLE1
100
AcDbText
  0
TEXT
  5
1A8E4
330
747D
100
AcDbEntity
  8
文字
 62
     7
 48
50.0
100
AcDbText
 10
15022.63965474516
 20
9230.013745883725
 30
0.0
 40
100.0
  1
F12         0.7+1.2
  7
STYLE1
100
AcDbText
  0
TEXT
  5
1A908
330
747D
100
AcDbEntity
  8
文字
 62
     7
 48
50.0
100
AcDbText
 10
14646.46056207479
 20
871.9640646083623
 30
0.0
 40
100.0
  1
～多雪地型～
  7
STYLE2
100
AcDbText
  0
TEXT
  5
1A934
330
747D
100
AcDbEntity
  8
文字
 62
     7
 48
50.0
100
AcDbText
 10
15022.63965474516
 20
8890.013745883727
 30
0.0
 40
100.0
  1
F12            0.7
  7
STYLE1
100
AcDbText
  0
LINE
  5
1A94B
330
747D
100
AcDbEntity
  8
部品1
 48
50.0
100
AcDbLine
 10
6188.56317339118
 20
5062.931598713263
 30
0.0
 11
5418.209245151703
 21
2187.931598713261
 31
0.0
  0
SPLINE
  5
1A94C
330
747D
100
AcDbEntity
  8
部品1
 48
50.0
100
AcDbSpline
210
0.0
220
0.0
230
1.0
 70
     8
 71
     3
 72
    10
 73
     6
 74
     4
 42
0.0000000001
 43
0.0000000001
 44
0.0000000001
 40
0.0
 40
0.0
 40
0.0
 40
0.0
 40
147.8767566010009
 40
301.8091093202477
 40
466.5049223087734
 40
466.5049223087734
 40
466.5049223087734
 40
466.5049223087734
 10
5830.764158139825
 20
3556.672751239054
 30
0.0
 10
5753.88247564499
 20
3547.768317581216
 30
0.0
 10
5596.970783434863
 20
3529.594811121884
 30
0.0
 10
5919.784193379206
 20
3427.07422648254
 30
0.0
 10
5749.941573709833
 20
3408.439137770338
 30
0.0
 10
5662.151568502938
 20
3398.806840893029
 30
0.0
 11
5830.764158139825
 21
3556.672751239054
 31
0.0
 11
5687.926179831055
 21
3518.399430302725
 31
0.0
 11
5821.23550775023
 21
3441.433253943102
 31
0.0
 11
5662.151568502938
 21
3398.806840893029
 31
0.0
  0
LINE
  5
1A94D
330
747D
100
AcDbEntity
  8
部品1
100
AcDbLine
 10
4293.193830406777
 20
2537.931598713262
 30
0.0
 11
7233.193830406773
 21
2537.931598713262
 31
0.0
  0
LINE
  5
1A94E
330
747D
100
AcDbEntity
  8
部品1
100
AcDbLine
 10
4293.193830406777
 20
4512.931598713261
 30
0.0
 11
7343.193830406774
 21
4512.931598713261
 31
0.0
  0
LINE
  5
1A94F
330
747D
100
AcDbEntity
  8
細線
 48
50.0
100
AcDbLine
 10
5463.193830406773
 20
3165.431598713261
 30
0.0
 11
5563.193830406774
 21
3165.431598713261
 31
0.0
  0
LINE
  5
1A950
330
747D
100
AcDbEntity
  8
細線
 48
50.0
100
AcDbLine
 10
5563.193830406774
 20
3135.431598713262
 30
0.0
 11
5463.193830406773
 21
3135.431598713262
 31
0.0
  0
LINE
  5
1A951
330
747D
100
AcDbEntity
  8
細線
100
AcDbLine
 10
4341.193830406769
 20
3117.931598713262
 30
0.0
 11
7185.193830406773
 21
3117.931598713262
 31
0.0
  0
LINE
  5
1A952
330
747D
100
AcDbEntity
  8
細線
100
AcDbLine
 10
4341.193830406769
 20
3052.931598713261
 30
0.0
 11
7185.193830406773
 21
3052.931598713261
 31
0.0
  0
LINE
  5
1A953
330
747D
100
AcDbEntity
  8
細線
100
AcDbLine
 10
4341.193830406769
 20
2987.931598713262
 30
0.0
 11
7185.193830406773
 21
2987.931598713262
 31
0.0
  0
LINE
  5
1A954
330
747D
100
AcDbEntity
  8
細線
100
AcDbLine
 10
4341.193830406769
 20
2922.931598713262
 30
0.0
 11
7185.193830406773
 21
2922.931598713262
 31
0.0
  0
LINE
  5
1A955
330
747D
100
AcDbEntity
  8
細線
100
AcDbLine
 10
4341.193830406769
 20
2857.931598713261
 30
0.0
 11
7185.193830406773
 21
2857.931598713261
 31
0.0
  0
LINE
  5
1A956
330
747D
100
AcDbEntity
  8
細線
100
AcDbLine
 10
4341.193830406769
 20
2792.931598713261
 30
0.0
 11
7185.193830406773
 21
2792.931598713261
 31
0.0
  0
LINE
  5
1A957
330
747D
100
AcDbEntity
  8
細線
100
AcDbLine
 10
4341.193830406769
 20
2727.931598713261
 30
0.0
 11
7185.193830406773
 21
2727.931598713261
 31
0.0
  0
LINE
  5
1A958
330
747D
100
AcDbEntity
  8
細線
100
AcDbLine
 10
4341.193830406769
 20
2662.931598713262
 30
0.0
 11
7185.193830406773
 21
2662.931598713262
 31
0.0
  0
LINE
  5
1A959
330
747D
100
AcDbEntity
  8
細線
100
AcDbLine
 10
4341.193830406769
 20
4417.931598713261
 30
0.0
 11
7185.193830406773
 21
4417.931598713261
 31
0.0
  0
LINE
  5
1A95A
330
747D
100
AcDbEntity
  8
細線
100
AcDbLine
 10
4341.193830406769
 20
4482.931598713261
 30
0.0
 11
7185.193830406773
 21
4482.931598713261
 31
0.0
  0
LINE
  5
1A95B
330
747D
100
AcDbEntity
  8
細線
100
AcDbLine
 10
4341.193830406769
 20
3767.931598713261
 30
0.0
 11
7185.193830406773
 21
3767.931598713261
 31
0.0
  0
LINE
  5
1A95C
330
747D
100
AcDbEntity
  8
細線
100
AcDbLine
 10
4341.193830406769
 20
3702.931598713262
 30
0.0
 11
7185.193830406773
 21
3702.931598713262
 31
0.0
  0
LINE
  5
1A95D
330
747D
100
AcDbEntity
  8
細線
100
AcDbLine
 10
4341.193830406769
 20
3637.931598713262
 30
0.0
 11
7185.193830406773
 21
3637.931598713262
 31
0.0
  0
LINE
  5
1A95E
330
747D
100
AcDbEntity
  8
細線
100
AcDbLine
 10
4341.193830406769
 20
3572.931598713262
 30
0.0
 11
7185.193830406773
 21
3572.931598713262
 31
0.0
  0
LINE
  5
1A95F
330
747D
100
AcDbEntity
  8
細線
100
AcDbLine
 10
4341.193830406769
 20
3507.931598713262
 30
0.0
 11
7185.193830406773
 21
3507.931598713262
 31
0.0
  0
LINE
  5
1A960
330
747D
100
AcDbEntity
  8
細線
100
AcDbLine
 10
4341.193830406769
 20
3442.931598713261
 30
0.0
 11
7185.193830406773
 21
3442.931598713261
 31
0.0
  0
LINE
  5
1A961
330
747D
100
AcDbEntity
  8
細線
100
AcDbLine
 10
4341.193830406769
 20
3377.931598713261
 30
0.0
 11
7185.193830406773
 21
3377.931598713261
 31
0.0
  0
LINE
  5
1A962
330
747D
100
AcDbEntity
  8
細線
100
AcDbLine
 10
4341.193830406769
 20
3312.931598713261
 30
0.0
 11
7185.193830406773
 21
3312.931598713261
 31
0.0
  0
LINE
  5
1A963
330
747D
100
AcDbEntity
  8
細線
100
AcDbLine
 10
4341.193830406769
 20
3247.931598713261
 30
0.0
 11
7185.193830406773
 21
3247.931598713261
 31
0.0
  0
LINE
  5
1A964
330
747D
100
AcDbEntity
  8
細線
100
AcDbLine
 10
4341.193830406769
 20
3182.931598713262
 30
0.0
 11
7185.193830406773
 21
3182.931598713262
 31
0.0
  0
LINE
  5
1A965
330
747D
100
AcDbEntity
  8
細線
100
AcDbLine
 10
4341.193830406769
 20
4157.931598713261
 30
0.0
 11
7185.193830406773
 21
4157.931598713261
 31
0.0
  0
LINE
  5
1A966
330
747D
100
AcDbEntity
  8
細線
100
AcDbLine
 10
4341.193830406769
 20
4092.931598713261
 30
0.0
 11
7185.193830406773
 21
4092.931598713261
 31
0.0
  0
LINE
  5
1A967
330
747D
100
AcDbEntity
  8
細線
100
AcDbLine
 10
4341.193830406769
 20
4027.931598713261
 30
0.0
 11
7185.193830406773
 21
4027.931598713261
 31
0.0
  0
LINE
  5
1A968
330
747D
100
AcDbEntity
  8
細線
100
AcDbLine
 10
4341.193830406769
 20
3962.931598713261
 30
0.0
 11
7185.193830406773
 21
3962.931598713261
 31
0.0
  0
LINE
  5
1A969
330
747D
100
AcDbEntity
  8
細線
100
AcDbLine
 10
4341.193830406769
 20
3897.931598713262
 30
0.0
 11
7185.193830406773
 21
3897.931598713262
 31
0.0
  0
LINE
  5
1A96A
330
747D
100
AcDbEntity
  8
細線
100
AcDbLine
 10
4341.193830406769
 20
3832.931598713262
 30
0.0
 11
7185.193830406773
 21
3832.931598713262
 31
0.0
  0
LINE
  5
1A96B
330
747D
100
AcDbEntity
  8
細線
100
AcDbLine
 10
4341.193830406769
 20
4352.931598713261
 30
0.0
 11
7185.193830406773
 21
4352.931598713261
 31
0.0
  0
LINE
  5
1A96C
330
747D
100
AcDbEntity
  8
細線
100
AcDbLine
 10
4341.193830406769
 20
4287.931598713261
 30
0.0
 11
7185.193830406773
 21
4287.931598713261
 31
0.0
  0
LINE
  5
1A96D
330
747D
100
AcDbEntity
  8
細線
100
AcDbLine
 10
4341.193830406769
 20
4222.931598713262
 30
0.0
 11
7185.193830406773
 21
4222.931598713262
 31
0.0
  0
ARC
  5
1A96E
330
747D
100
AcDbEntity
  8
細線
 48
50.0
100
AcDbCircle
 10
5463.193830406773
 20
3150.431598713261
 30
0.0
 40
15.0
100
AcDbArc
 50
90.0
 51
270.0
  0
ARC
  5
1A96F
330
747D
100
AcDbEntity
  8
細線
 48
50.0
100
AcDbCircle
 10
5563.193830406774
 20
3150.431598713261
 30
0.0
 40
15.0
100
AcDbArc
 50
270.0
 51
90.0
  0
LINE
  5
1A970
330
747D
100
AcDbEntity
  8
細線
 48
50.0
100
AcDbLine
 10
6063.193830406774
 20
3135.431598713262
 30
0.0
 11
5963.193830406773
 21
3135.431598713262
 31
0.0
  0
LINE
  5
1A971
330
747D
100
AcDbEntity
  8
細線
 48
50.0
100
AcDbLine
 10
5963.193830406773
 20
3165.431598713261
 30
0.0
 11
6063.193830406774
 21
3165.431598713261
 31
0.0
  0
ARC
  5
1A972
330
747D
100
AcDbEntity
  8
細線
 48
50.0
100
AcDbCircle
 10
5963.193830406773
 20
3150.431598713261
 30
0.0
 40
15.0
100
AcDbArc
 50
90.0
 51
270.0
  0
ARC
  5
1A973
330
747D
100
AcDbEntity
  8
細線
 48
50.0
100
AcDbCircle
 10
6063.193830406774
 20
3150.431598713261
 30
0.0
 40
15.0
100
AcDbArc
 50
270.0
 51
90.0
  0
CIRCLE
  5
1A974
330
747D
100
AcDbEntity
  8
細線
 48
50.0
100
AcDbCircle
 10
5763.193830406773
 20
3475.431598713262
 30
0.0
 40
18.0
  0
LINE
  5
1A975
330
747D
100
AcDbEntity
  8
細線
100
AcDbLine
 10
7185.193830406777
 20
2597.931598713262
 30
0.0
 11
4341.193830406769
 21
2597.931598713262
 31
0.0
  0
LINE
  5
1A976
330
747D
100
AcDbEntity
  8
部品1
100
AcDbLine
 10
4293.193830406777
 20
2587.931598713261
 30
0.0
 11
7233.193830406773
 21
2587.931598713261
 31
0.0
  0
SPLINE
  5
1A977
330
747D
100
AcDbEntity
  8
部品1
 48
50.0
100
AcDbSpline
210
0.0
220
0.0
230
1.0
 70
     8
 71
     3
 72
    10
 73
     6
 74
     4
 42
0.0000000001
 43
0.0000000001
 44
0.0000000001
 40
0.0
 40
0.0
 40
0.0
 40
0.0
 40
147.8767566010009
 40
301.8091093202477
 40
466.5049223087734
 40
466.5049223087734
 40
466.5049223087734
 40
466.5049223087734
 10
5830.764158139828
 20
8538.738577071796
 30
0.0
 10
5753.882475644994
 20
8529.83414341396
 30
0.0
 10
5596.970783434866
 20
8511.660636954628
 30
0.0
 10
5919.78419337921
 20
8409.140052315285
 30
0.0
 10
5749.941573709836
 20
8390.504963603083
 30
0.0
 10
5662.151568502942
 20
8380.872666725773
 30
0.0
 11
5830.764158139828
 21
8538.738577071796
 31
0.0
 11
5687.926179831059
 21
8500.465256135468
 31
0.0
 11
5821.235507750234
 21
8423.499079775845
 31
0.0
 11
5662.151568502942
 21
8380.872666725773
 31
0.0
  0
LINE
  5
1A978
330
747D
100
AcDbEntity
  8
部品1
 48
50.0
100
AcDbLine
 10
6161.768254148072
 20
9944.997424546009
 30
0.0
 11
5371.318136476213
 21
6994.997424545825
 31
0.0
  0
LINE
  5
1A979
330
747D
100
AcDbEntity
  8
破線
 48
10.0
100
AcDbLine
 10
6465.693830406698
 20
7295.997424545825
 30
0.0
 11
5788.193830406699
 21
7295.997424545807
 31
0.0
  0
LINE
  5
1A97A
330
747D
100
AcDbEntity
  8
破線
 48
10.0
100
AcDbLine
 10
5738.193830406699
 20
7295.997424545804
 30
0.0
 11
5060.693830406697
 21
7295.997424545778
 31
0.0
  0
LINE
  5
1A97B
330
747D
100
AcDbEntity
  8
部品1
100
AcDbLine
 10
7233.193830406674
 20
7272.497424545796
 30
0.0
 11
4293.193830406647
 21
7272.4974245458
 31
0.0
  0
LINE
  5
1A97C
330
747D
100
AcDbEntity
  8
部品1
 48
50.0
100
AcDbLine
 10
5763.193830406847
 20
9292.497424546001
 30
0.0
 11
5763.193830406748
 21
7272.497424545796
 31
0.0
  0
LINE
  5
1A97D
330
747D
100
AcDbEntity
  8
破線
 48
10.0
100
AcDbLine
 10
5788.193830406697
 20
7272.497424545814
 30
0.0
 11
5788.193830406799
 21
9292.497424546001
 31
0.0
  0
LINE
  5
1A97E
330
747D
100
AcDbEntity
  8
破線
 48
10.0
100
AcDbLine
 10
5738.193830406699
 20
7272.497424545811
 30
0.0
 11
5738.193830406801
 21
9292.497424545997
 31
0.0
  0
LINE
  5
1A97F
330
747D
100
AcDbEntity
  8
部品1
 48
50.0
100
AcDbLine
 10
4293.193830406777
 20
8037.497424545994
 30
0.0
 11
7233.193830406765
 21
8037.497424545982
 31
0.0
  0
LINE
  5
1A980
330
747D
100
AcDbEntity
  8
部品1
 48
50.0
100
AcDbLine
 10
4293.193830406779
 20
8457.497424545996
 30
0.0
 11
7233.193830406768
 21
8457.497424545982
 31
0.0
  0
LINE
  5
1A981
330
747D
100
AcDbEntity
  8
部品1
 48
50.0
100
AcDbLine
 10
4293.193830406781
 20
8877.497424545996
 30
0.0
 11
7233.193830406768
 21
8877.497424545982
 31
0.0
  0
LINE
  5
1A982
330
747D
100
AcDbEntity
  8
部品1
 48
50.0
100
AcDbLine
 10
4293.193830406775
 20
7617.497424545994
 30
0.0
 11
7233.193830406765
 21
7617.497424545982
 31
0.0
  0
LINE
  5
1A983
330
747D
100
AcDbEntity
  8
部品1
 48
50.0
100
AcDbLine
 10
4293.193830406774
 20
7272.497424545879
 30
0.0
 11
7208.19383040676
 21
7272.497424545716
 31
0.0
  0
LINE
  5
1A984
330
747D
100
AcDbEntity
  8
部品1
 48
50.0
100
AcDbLine
 10
4293.193830406774
 20
7227.497424545879
 30
0.0
 11
7233.193830406761
 21
7227.497424545714
 31
0.0
  0
LINE
  5
1A985
330
747D
100
AcDbEntity
  8
部品1
 48
50.0
100
AcDbLine
 10
4293.19383040677
 20
7142.497424545865
 30
0.0
 11
7233.193830406759
 21
7142.497424545952
 31
0.0
  0
LINE
  5
1A986
330
747D
100
AcDbEntity
  8
部品1
 48
50.0
100
AcDbLine
 10
4305.193830406773
 20
7187.997424545864
 30
0.0
 11
7221.193830406758
 21
7187.997424545864
 31
0.0
  0
LINE
  5
1A998
330
747D
100
AcDbEntity
  8
破線
 48
5.0
100
AcDbLine
 10
4293.193830406774
 20
2262.931598713262
 30
0.0
 11
4183.193830406775
 21
2262.931598713262
 31
0.0
  0
LINE
  5
1A999
330
747D
100
AcDbEntity
  8
破線
 48
5.0
100
AcDbLine
 10
4183.193830406773
 20
2437.931598713261
 30
0.0
 11
4183.193830406775
 21
2262.931598713262
 31
0.0
  0
LINE
  5
1A99A
330
747D
100
AcDbEntity
  8
破線
 48
5.0
100
AcDbLine
 10
4293.193830406775
 20
2437.931598713261
 30
0.0
 11
4293.193830406775
 21
2262.931598713262
 31
0.0
  0
LINE
  5
1A99B
330
747D
100
AcDbEntity
  8
破線
 48
5.0
100
AcDbLine
 10
4238.193830406775
 20
2262.931598713262
 30
0.0
 11
4238.193830406775
 21
2187.931598713261
 31
0.0
  0
LINE
  5
1A9A4
330
747D
100
AcDbEntity
  8
破線
 48
5.0
100
AcDbLine
 10
7343.193830406774
 20
2262.931598713262
 30
0.0
 11
7233.193830406775
 21
2262.931598713262
 31
0.0
  0
LINE
  5
1A9A5
330
747D
100
AcDbEntity
  8
破線
 48
5.0
100
AcDbLine
 10
7233.193830406773
 20
2437.931598713261
 30
0.0
 11
7233.193830406775
 21
2262.931598713262
 31
0.0
  0
LINE
  5
1A9A6
330
747D
100
AcDbEntity
  8
破線
 48
5.0
100
AcDbLine
 10
7343.193830406775
 20
2437.931598713261
 30
0.0
 11
7343.193830406775
 21
2262.931598713262
 31
0.0
  0
LINE
  5
1A9A7
330
747D
100
AcDbEntity
  8
破線
 48
5.0
100
AcDbLine
 10
7288.193830406775
 20
2262.931598713262
 30
0.0
 11
7288.193830406775
 21
2187.931598713261
 31
0.0
  0
ENDSEC
  0
SECTION
  2
OBJECTS
  0
DICTIONARY
  5
7471
330
0
100
AcDbDictionary
281
     1
  3
ACAD_COLOR
350
189D7
  3
ACAD_GROUP
350
7472
  3
ACAD_LAYOUT
350
189D8
  3
ACAD_MATERIAL
350
189D6
  3
ACAD_MLINESTYLE
350
7473
  3
ACAD_PLOTSETTINGS
350
189D9
  3
ACAD_PLOTSTYLENAME
350
189D4
  3
ACDBHEADERROUNDTRIPXREC
350
1A9D5
  3
AcDbVariableDictionary
350
1A9D1
  3
CONTENTDICTIONARY
350
E71C
  3
DRAWINGVARIABLESDICT
350
F3B9
  0
DICTIONARY
  5
18CF7
330
7467
100
AcDbDictionary
280
     1
281
     1
  3
ACAD_LAYERSTATES
360
18CF8
  0
DICTIONARY
  5
189D7
102
{ACAD_REACTORS
330
7471
102
}
330
7471
100
AcDbDictionary
281
     1
  0
DICTIONARY
  5
7472
102
{ACAD_REACTORS
330
7471
102
}
330
7471
100
AcDbDictionary
281
     1
  0
DICTIONARY
  5
189D8
102
{ACAD_REACTORS
330
7471
102
}
330
7471
100
AcDbDictionary
281
     1
  3
Model
350
189DA
  3
レイアウト1
350
189DB
  0
DICTIONARY
  5
189D6
102
{ACAD_REACTORS
330
7471
102
}
330
7471
100
AcDbDictionary
281
     1
  0
DICTIONARY
  5
7473
102
{ACAD_REACTORS
330
7471
102
}
330
7471
100
AcDbDictionary
281
     1
  3
STANDARD
350
7480
  0
DICTIONARY
  5
189D9
102
{ACAD_REACTORS
330
7471
102
}
330
7471
100
AcDbDictionary
281
     1
  0
ACDBDICTIONARYWDFLT
  5
189D4
102
{ACAD_REACTORS
330
7471
102
}
330
7471
100
AcDbDictionary
281
     1
  3
Normal
350
189D5
100
AcDbDictionaryWithDefault
340
189D5
  0
DICTIONARY
  5
1A9D5
102
{ACAD_REACTORS
330
7471
102
}
330
7471
100
AcDbDictionary
281
     1
  3
COLORDICT
350
1A9D7
  3
MATERIALDICT
350
1A9D6
  0
DICTIONARY
  5
1A9D1
102
{ACAD_REACTORS
330
7471
102
}
330
7471
100
AcDbDictionary
281
     1
  3
DIMASSOC
350
1A9D2
  3
PROJECTNAME
350
1A9D3
  0
DICTIONARY
  5
E71C
102
{ACAD_REACTORS
330
7471
102
}
330
7471
100
AcDbDictionary
281
     1
  0
DICTIONARY
  5
F3B9
102
{ACAD_REACTORS
330
7471
102
}
330
7471
100
AcDbDictionary
281
     1
1001
DRAWINGVARIABLESXDATA
1000
POLARMODE
1000
1
  0
DICTIONARY
  5
18CF8
102
{ACAD_REACTORS
330
18CF7
102
}
330
18CF7
100
AcDbDictionary
281
     1
  0
LAYOUT
  5
189DA
102
{ACAD_XDICTIONARY
360
1A9D8
102
}
102
{ACAD_REACTORS
330
189D8
102
}
330
189D8
100
AcDbPlotSettings
  1

  2
none_device
  4
Letter_(8.50_x_11.00_Inches)
  6

 40
6.349999904632568
 41
6.349999904632568
 42
6.350006103515625
 43
6.350006103515625
 44
215.8999938964844
 45
279.3999938964844
 46
0.0
 47
0.0
 48
0.0
 49
0.0
140
0.0
141
0.0
142
1.0
143
1.0
 70
 11952
 72
     1
 73
     1
 74
     0
  7
inaba.ctb
 75
     0
147
1.0
148
-2464.51629784991
149
54.73077103227115
100
AcDbLayout
  1
Model
 70
     1
 71
     0
 10
0.0
 20
0.0
 11
12.0
 21
9.0
 12
0.0
 22
0.0
 32
0.0
 14
0.0
 24
0.0
 34
0.0
 15
0.0
 25
0.0
 35
0.0
146
0.0
 13
0.0
 23
0.0
 33
0.0
 16
1.0
 26
0.0
 36
0.0
 17
0.0
 27
1.0
 37
0.0
 76
     0
330
747D
  0
LAYOUT
  5
189DB
102
{ACAD_XDICTIONARY
360
1A9DA
102
}
102
{ACAD_REACTORS
330
189D8
102
}
330
189D8
100
AcDbPlotSettings
  1

  2
EPSON LP-8300
  4

  6

 40
0.0
 41
0.0
 42
0.0
 43
0.0
 44
0.0
 45
0.0
 46
0.0
 47
0.0
 48
0.0
 49
0.0
140
0.0
141
0.0
142
1.0
143
1.0
 70
   688
 72
     0
 73
     0
 74
     5
  7
inaba.ctb
 75
    16
147
1.0
148
0.0
149
0.0
100
AcDbLayout
  1
レイアウト1
 70
     0
 71
     1
 10
0.0
 20
0.0
 11
420.0
 21
297.0
 12
0.0
 22
0.0
 32
0.0
 14
1.000000000000000E+20
 24
1.000000000000000E+20
 34
1.000000000000000E+20
 15
-1.000000000000000E+20
 25
-1.000000000000000E+20
 35
-1.000000000000000E+20
146
0.0
 13
0.0
 23
0.0
 33
0.0
 16
1.0
 26
0.0
 36
0.0
 17
0.0
 27
1.0
 37
0.0
 76
     0
330
747A
  0
MLINESTYLE
  5
7480
102
{ACAD_REACTORS
330
7473
102
}
330
7473
100
AcDbMlineStyle
  2
STANDARD
 70
     0
  3

 62
     0
 51
90.0
 52
90.0
 71
     2
 49
0.5
 62
   256
  6
BYLAYER
 49
-0.5
 62
   256
  6
BYLAYER
  0
ACDBPLACEHOLDER
  5
189D5
102
{ACAD_REACTORS
330
189D4
102
}
330
189D4
  0
XRECORD
  5
1A9D7
102
{ACAD_REACTORS
330
1A9D5
102
}
330
1A9D5
100
AcDbXrecord
280
     1
340
189D7
  0
XRECORD
  5
1A9D6
102
{ACAD_REACTORS
330
1A9D5
102
}
330
1A9D5
100
AcDbXrecord
280
     1
340
189D6
  0
DICTIONARYVAR
  5
1A9D2
102
{ACAD_REACTORS
330
1A9D1
102
}
330
1A9D1
100
DictionaryVariables
280
     0
  1
1
  0
DICTIONARYVAR
  5
1A9D3
102
{ACAD_REACTORS
330
1A9D1
102
}
330
1A9D1
100
DictionaryVariables
280
     0
  1

  0
DICTIONARY
  5
1A9D8
330
189DA
100
AcDbDictionary
280
     1
281
     1
  3
ACAD_XREC_ROUNDTRIP
360
1A9D9
  0
DICTIONARY
  5
1A9DA
330
189DB
100
AcDbDictionary
280
     1
281
     1
  3
ACAD_XREC_ROUNDTRIP
360
1A9DB
  0
XRECORD
  5
1A9D9
102
{ACAD_REACTORS
330
1A9D8
102
}
330
1A9D8
100
AcDbXrecord
280
     1
102
SHADEPLOT
 70
     0
102
SHADEPLOTRESLEVEL
 70
     2
102
SHADEPLOTCUSTOMDPI
 70
   300
  0
XRECORD
  5
1A9DB
102
{ACAD_REACTORS
330
1A9DA
102
}
330
1A9DA
100
AcDbXrecord
280
     1
102
SHADEPLOT
 70
     0
102
SHADEPLOTRESLEVEL
 70
     2
102
SHADEPLOTCUSTOMDPI
 70
   300
  0
ENDSEC
  0
EOF
