  0
SECTION
  2
HEADER
  9
$ACADVER
  1
AC1015
  9
$ACADMAINTVER
 70
    20
  9
$DWGCODEPAGE
  3
ANSI_932
  9
$INSBASE
 10
0.0
 20
0.0
 30
0.0
  9
$EXTMIN
 10
139.9999999999995
 20
-0.0000000000000909
 30
0.0
  9
$EXTMAX
 10
16307.2
 20
11409.6
 30
0.0
  9
$LIMMIN
 10
0.0
 20
0.0
  9
$LIMMAX
 10
16800.0
 20
11880.0
  9
$ORTHOMODE
 70
     0
  9
$REGENMODE
 70
     1
  9
$FILLMODE
 70
     1
  9
$QTEXTMODE
 70
     0
  9
$MIRRTEXT
 70
     1
  9
$LTSCALE
 40
20.0
  9
$ATTMODE
 70
     1
  9
$TEXTSIZE
 40
100.0
  9
$TRACEWID
 40
1.0
  9
$TEXTSTYLE
  7
STYLE2
  9
$CLAYER
  8
部品1
  9
$CELTYPE
  6
BYLAYER
  9
$CECOLOR
 62
   256
  9
$CELTSCALE
 40
50.0
  9
$DISPSILH
 70
     0
  9
$DIMSCALE
 40
40.0
  9
$DIMASZ
 40
2.5
  9
$DIMEXO
 40
0.5
  9
$DIMDLI
 40
7.0
  9
$DIMRND
 40
0.0
  9
$DIMDLE
 40
0.0
  9
$DIMEXE
 40
1.5
  9
$DIMTP
 40
0.0
  9
$DIMTM
 40
0.0
  9
$DIMTXT
 40
3.0
  9
$DIMCEN
 40
0.0
  9
$DIMTSZ
 40
0.0
  9
$DIMTOL
 70
     0
  9
$DIMLIM
 70
     0
  9
$DIMTIH
 70
     0
  9
$DIMTOH
 70
     0
  9
$DIMSE1
 70
     0
  9
$DIMSE2
 70
     0
  9
$DIMTAD
 70
     3
  9
$DIMZIN
 70
     8
  9
$DIMBLK
  1

  9
$DIMASO
 70
     1
  9
$DIMSHO
 70
     1
  9
$DIMPOST
  1

  9
$DIMAPOST
  1

  9
$DIMALT
 70
     0
  9
$DIMALTD
 70
     2
  9
$DIMALTF
 40
0.0394
  9
$DIMLFAC
 40
1.0
  9
$DIMTOFL
 70
     1
  9
$DIMTVP
 40
0.0
  9
$DIMTIX
 70
     1
  9
$DIMSOXD
 70
     0
  9
$DIMSAH
 70
     1
  9
$DIMBLK1
  1
DOTSMALL
  9
$DIMBLK2
  1
DOTSMALL
  9
$DIMSTYLE
  2
INABA_S40G
  9
$DIMCLRD
 70
     0
  9
$DIMCLRE
 70
     0
  9
$DIMCLRT
 70
     7
  9
$DIMTFAC
 40
1.0
  9
$DIMGAP
 40
1.0
  9
$DIMJUST
 70
     0
  9
$DIMSD1
 70
     0
  9
$DIMSD2
 70
     0
  9
$DIMTOLJ
 70
     1
  9
$DIMTZIN
 70
     0
  9
$DIMALTZ
 70
     0
  9
$DIMALTTZ
 70
     0
  9
$DIMUPT
 70
     0
  9
$DIMDEC
 70
     1
  9
$DIMTDEC
 70
     4
  9
$DIMALTU
 70
     2
  9
$DIMALTTD
 70
     2
  9
$DIMTXSTY
  7
STYLE1
  9
$DIMAUNIT
 70
     0
  9
$DIMADEC
 70
     0
  9
$DIMALTRND
 40
0.0
  9
$DIMAZIN
 70
     0
  9
$DIMDSEP
 70
    46
  9
$DIMATFIT
 70
     3
  9
$DIMFRAC
 70
     0
  9
$DIMLDRBLK
  1

  9
$DIMLUNIT
 70
     2
  9
$DIMLWD
 70
    -2
  9
$DIMLWE
 70
    -2
  9
$DIMTMOVE
 70
     2
  9
$LUNITS
 70
     2
  9
$LUPREC
 70
     1
  9
$SKETCHINC
 40
1.0
  9
$FILLETRAD
 40
3.0
  9
$AUNITS
 70
     0
  9
$AUPREC
 70
     0
  9
$MENU
  1
acad
  9
$ELEVATION
 40
0.0
  9
$PELEVATION
 40
0.0
  9
$THICKNESS
 40
0.0
  9
$LIMCHECK
 70
     0
  9
$CHAMFERA
 40
0.0
  9
$CHAMFERB
 40
0.0
  9
$CHAMFERC
 40
0.0
  9
$CHAMFERD
 40
0.0
  9
$SKPOLY
 70
     0
  9
$TDCREATE
 40
2451368.612993866
  9
$TDUCREATE
 40
2451368.237993866
  9
$TDUPDATE
 40
2455569.624340278
  9
$TDUUPDATE
 40
2455569.249340278
  9
$TDINDWG
 40
0.8183450579
  9
$TDUSRTIMER
 40
0.8183450579
  9
$USRTIMER
 70
     1
  9
$ANGBASE
 50
0.0
  9
$ANGDIR
 70
     0
  9
$PDMODE
 70
     3
  9
$PDSIZE
 40
2.0
  9
$PLINEWID
 40
0.0
  9
$SPLFRAME
 70
     0
  9
$SPLINETYPE
 70
     6
  9
$SPLINESEGS
 70
     8
  9
$HANDSEED
  5
19DD9
  9
$SURFTAB1
 70
     6
  9
$SURFTAB2
 70
     6
  9
$SURFTYPE
 70
     6
  9
$SURFU
 70
     6
  9
$SURFV
 70
     6
  9
$UCSBASE
  2

  9
$UCSNAME
  2

  9
$UCSORG
 10
0.0
 20
0.0
 30
0.0
  9
$UCSXDIR
 10
1.0
 20
0.0
 30
0.0
  9
$UCSYDIR
 10
0.0
 20
1.0
 30
0.0
  9
$UCSORTHOREF
  2

  9
$UCSORTHOVIEW
 70
     0
  9
$UCSORGTOP
 10
0.0
 20
0.0
 30
0.0
  9
$UCSORGBOTTOM
 10
0.0
 20
0.0
 30
0.0
  9
$UCSORGLEFT
 10
0.0
 20
0.0
 30
0.0
  9
$UCSORGRIGHT
 10
0.0
 20
0.0
 30
0.0
  9
$UCSORGFRONT
 10
0.0
 20
0.0
 30
0.0
  9
$UCSORGBACK
 10
0.0
 20
0.0
 30
0.0
  9
$PUCSBASE
  2

  9
$PUCSNAME
  2

  9
$PUCSORG
 10
0.0
 20
0.0
 30
0.0
  9
$PUCSXDIR
 10
1.0
 20
0.0
 30
0.0
  9
$PUCSYDIR
 10
0.0
 20
1.0
 30
0.0
  9
$PUCSORTHOREF
  2

  9
$PUCSORTHOVIEW
 70
     0
  9
$PUCSORGTOP
 10
0.0
 20
0.0
 30
0.0
  9
$PUCSORGBOTTOM
 10
0.0
 20
0.0
 30
0.0
  9
$PUCSORGLEFT
 10
0.0
 20
0.0
 30
0.0
  9
$PUCSORGRIGHT
 10
0.0
 20
0.0
 30
0.0
  9
$PUCSORGFRONT
 10
0.0
 20
0.0
 30
0.0
  9
$PUCSORGBACK
 10
0.0
 20
0.0
 30
0.0
  9
$USERI1
 70
     0
  9
$USERI2
 70
     0
  9
$USERI3
 70
     0
  9
$USERI4
 70
     0
  9
$USERI5
 70
     0
  9
$USERR1
 40
0.0
  9
$USERR2
 40
0.0
  9
$USERR3
 40
0.0
  9
$USERR4
 40
0.0
  9
$USERR5
 40
0.0
  9
$WORLDVIEW
 70
     1
  9
$SHADEDGE
 70
     3
  9
$SHADEDIF
 70
    70
  9
$TILEMODE
 70
     1
  9
$MAXACTVP
 70
    16
  9
$PINSBASE
 10
0.0
 20
0.0
 30
0.0
  9
$PLIMCHECK
 70
     0
  9
$PEXTMIN
 10
1.000000000000000E+20
 20
1.000000000000000E+20
 30
1.000000000000000E+20
  9
$PEXTMAX
 10
-1.000000000000000E+20
 20
-1.000000000000000E+20
 30
-1.000000000000000E+20
  9
$PLIMMIN
 10
0.0
 20
0.0
  9
$PLIMMAX
 10
420.0
 20
297.0
  9
$UNITMODE
 70
     0
  9
$VISRETAIN
 70
     0
  9
$PLINEGEN
 70
     0
  9
$PSLTSCALE
 70
     0
  9
$TREEDEPTH
 70
  3020
  9
$CMLSTYLE
  2
STANDARD
  9
$CMLJUST
 70
     0
  9
$CMLSCALE
 40
1.0
  9
$PROXYGRAPHICS
 70
     1
  9
$MEASUREMENT
 70
     1
  9
$CELWEIGHT
370
    -1
  9
$ENDCAPS
280
     0
  9
$JOINSTYLE
280
     0
  9
$LWDISPLAY
290
     0
  9
$INSUNITS
 70
     0
  9
$HYPERLINKBASE
  1

  9
$STYLESHEET
  1

  9
$XEDIT
290
     1
  9
$CEPSNTYPE
380
     0
  9
$PSTYLEMODE
290
     1
  9
$FINGERPRINTGUID
  2
{D1C7F2DF-090B-426D-AA16-89B8BDB06F15}
  9
$VERSIONGUID
  2
{F47DAFAF-AB85-4ECC-9F46-8C1097260365}
  9
$EXTNAMES
290
     1
  9
$PSVPSCALE
 40
0.0
  9
$OLESTARTUP
290
     0
  0
ENDSEC
  0
SECTION
  2
CLASSES
  0
CLASS
  1
ACDBDICTIONARYWDFLT
  2
AcDbDictionaryWithDefault
  3
ObjectDBX Classes
 90
        0
280
     0
281
     0
  0
CLASS
  1
DICTIONARYVAR
  2
AcDbDictionaryVar
  3
ObjectDBX Classes
 90
        0
280
     0
281
     0
  0
CLASS
  1
ACDBPLACEHOLDER
  2
AcDbPlaceHolder
  3
ObjectDBX Classes
 90
        0
280
     0
281
     0
  0
CLASS
  1
LAYOUT
  2
AcDbLayout
  3
ObjectDBX Classes
 90
        0
280
     0
281
     0
  0
ENDSEC
  0
SECTION
  2
TABLES
  0
TABLE
  2
VPORT
  5
746D
330
0
100
AcDbSymbolTable
 70
     2
  0
VPORT
  5
19DD1
330
746D
100
AcDbSymbolTableRecord
100
AcDbViewportTableRecord
  2
*Active
 70
     0
 10
0.0
 20
0.0
 11
1.0
 21
1.0
 12
8223.761025238502
 22
5958.735805892718
 13
0.0
 23
0.0
 14
10.0
 24
10.0
 15
10.0
 25
10.0
 16
0.0
 26
0.0
 36
1.0
 17
0.0
 27
0.0
 37
0.0
 40
12025.84116348629
 41
1.627450980392156
 42
50.0
 43
0.0
 44
0.0
 50
0.0
 51
0.0
 71
     0
 72
     0
 73
     1
 74
     0
 75
     0
 76
     0
 77
     0
 78
     0
281
     0
 65
     1
110
0.0
120
0.0
130
0.0
111
1.0
121
0.0
131
0.0
112
0.0
122
1.0
132
0.0
 79
     0
146
0.0
  0
ENDTAB
  0
TABLE
  2
LTYPE
  5
746A
330
0
100
AcDbSymbolTable
 70
     3
  0
LTYPE
  5
7477
330
746A
100
AcDbSymbolTableRecord
100
AcDbLinetypeTableRecord
  2
BYBLOCK
 70
     0
  3

 72
    65
 73
     0
 40
0.0
  0
LTYPE
  5
7478
330
746A
100
AcDbSymbolTableRecord
100
AcDbLinetypeTableRecord
  2
BYLAYER
 70
     0
  3

 72
    65
 73
     0
 40
0.0
  0
LTYPE
  5
7479
330
746A
100
AcDbSymbolTableRecord
100
AcDbLinetypeTableRecord
  2
CONTINUOUS
 70
     0
  3
Solid line
 72
    65
 73
     0
 40
0.0
  0
LTYPE
  5
781A
330
746A
100
AcDbSymbolTableRecord
100
AcDbLinetypeTableRecord
  2
HIDDEN
 70
     0
  3
__ __ __ __ __ __ __ __ __ __ __ __ __ __ __ __
 72
    65
 73
     2
 40
0.375
 49
0.25
 74
     0
 49
-0.125
 74
     0
  0
LTYPE
  5
781B
330
746A
100
AcDbSymbolTableRecord
100
AcDbLinetypeTableRecord
  2
PHANTOM
 70
     0
  3
______  __  __  ______  __  __  ______  __  __ 
 72
    65
 73
     6
 40
2.5
 49
1.25
 74
     0
 49
-0.25
 74
     0
 49
0.25
 74
     0
 49
-0.25
 74
     0
 49
0.25
 74
     0
 49
-0.25
 74
     0
  0
ENDTAB
  0
TABLE
  2
LAYER
  5
7467
102
{ACAD_XDICTIONARY
360
1836C
102
}
330
0
100
AcDbSymbolTable
 70
    10
  0
LAYER
  5
7474
330
7467
100
AcDbSymbolTableRecord
100
AcDbLayerTableRecord
  2
0
 70
     0
 62
     7
  6
CONTINUOUS
370
    -3
390
18078
  0
LAYER
  5
DEB3
330
7467
100
AcDbSymbolTableRecord
100
AcDbLayerTableRecord
  2
寸法
 70
     0
 62
     4
  6
CONTINUOUS
370
    -3
390
18078
  0
LAYER
  5
DEB4
330
7467
100
AcDbSymbolTableRecord
100
AcDbLayerTableRecord
  2
部品1
 70
     0
 62
     7
  6
CONTINUOUS
370
    -3
390
18078
  0
LAYER
  5
DEB5
330
7467
100
AcDbSymbolTableRecord
100
AcDbLayerTableRecord
  2
補助
 70
     0
 62
    -1
  6
CONTINUOUS
370
    -3
390
18078
  0
LAYER
  5
DEB6
330
7467
100
AcDbSymbolTableRecord
100
AcDbLayerTableRecord
  2
文字
 70
     0
 62
     7
  6
CONTINUOUS
370
    -3
390
18078
  0
LAYER
  5
F255
330
7467
100
AcDbSymbolTableRecord
100
AcDbLayerTableRecord
  2
DEFPOINTS
 70
     0
 62
     7
  6
CONTINUOUS
290
     0
370
    -3
390
18078
  0
LAYER
  5
10B54
330
7467
100
AcDbSymbolTableRecord
100
AcDbLayerTableRecord
  2
仕様書枠
 70
     0
 62
   230
  6
CONTINUOUS
370
    -3
390
18078
  0
LAYER
  5
11729
330
7467
100
AcDbSymbolTableRecord
100
AcDbLayerTableRecord
  2
Ｇ．Ｌ
 70
     0
 62
    30
  6
CONTINUOUS
370
    -3
390
18078
  0
LAYER
  5
1173F
330
7467
100
AcDbSymbolTableRecord
100
AcDbLayerTableRecord
  2
細線
 70
     0
 62
     5
  6
CONTINUOUS
370
    -3
390
18078
  0
LAYER
  5
142E2
330
7467
100
AcDbSymbolTableRecord
100
AcDbLayerTableRecord
  2
破線
 70
     0
 62
     2
  6
HIDDEN
370
    -3
390
18078
  0
ENDTAB
  0
TABLE
  2
STYLE
  5
7468
330
0
100
AcDbSymbolTable
 70
     4
  0
STYLE
  5
7475
330
7468
100
AcDbSymbolTableRecord
100
AcDbTextStyleTableRecord
  2
STANDARD
 70
     0
 40
0.0
 41
1.0
 50
0.0
 71
     0
 42
4.0
  3
txt
  4
C:\AutoCAD LT\bigfont.shx
  0
STYLE
  5
763C
330
7468
100
AcDbSymbolTableRecord
100
AcDbTextStyleTableRecord
  2
MSMINCHO
 70
     0
 40
0.0
 41
1.0
 50
0.0
 71
     0
 42
1.199999999999999
  3
C:\AutoCAD LT\msminch2.TTF
  4

  0
STYLE
  5
F706
330
7468
100
AcDbSymbolTableRecord
100
AcDbTextStyleTableRecord
  2
STYLE1
 70
     0
 40
0.0
 41
1.0
 50
0.0
 71
     0
 42
4.0
  3
isocp.shx
  4
bigfont.shx
  0
STYLE
  5
103BF
330
7468
100
AcDbSymbolTableRecord
100
AcDbTextStyleTableRecord
  2
STYLE2
 70
     0
 40
0.0
 41
1.0
 50
0.0
 71
     0
 42
100.0
  3
MS PGothic.ttf
  4

1001
ACAD
1000
MS PGothic
1071
    32818
  0
ENDTAB
  0
TABLE
  2
VIEW
  5
746B
330
0
100
AcDbSymbolTable
 70
     0
  0
ENDTAB
  0
TABLE
  2
UCS
  5
746C
330
0
100
AcDbSymbolTable
 70
     0
  0
ENDTAB
  0
TABLE
  2
APPID
  5
746E
330
0
100
AcDbSymbolTable
 70
     6
  0
APPID
  5
7476
330
746E
100
AcDbSymbolTableRecord
100
AcDbRegAppTableRecord
  2
ACAD
 70
     0
  0
APPID
  5
DEA9
330
746E
100
AcDbSymbolTableRecord
100
AcDbRegAppTableRecord
  2
CONTENTBLOCKICON
 70
     0
  0
APPID
  5
DEAA
330
746E
100
AcDbSymbolTableRecord
100
AcDbRegAppTableRecord
  2
CONTENTBLOCKDESCRIPTION
 70
     0
  0
APPID
  5
E71D
330
746E
100
AcDbSymbolTableRecord
100
AcDbRegAppTableRecord
  2
CONTENTTABDATA
 70
     0
  0
APPID
  5
E71E
330
746E
100
AcDbSymbolTableRecord
100
AcDbRegAppTableRecord
  2
CONTENTCURRENTTAB
 70
     0
  0
APPID
  5
F3BA
330
746E
100
AcDbSymbolTableRecord
100
AcDbRegAppTableRecord
  2
DRAWINGVARIABLESXDATA
 70
     0
  0
ENDTAB
  0
TABLE
  2
DIMSTYLE
  5
746F
330
0
100
AcDbSymbolTable
 70
     1
100
AcDbDimStyleTable
 71
     1
340
F71F
  0
DIMSTYLE
105
F71F
102
{ACAD_REACTORS
330
17D0B
330
17D78
330
17D7A
330
17D7C
330
17D7E
330
17D8B
330
17D8D
330
17D8F
330
17D90
330
17D91
330
17D92
330
17DC2
330
17DC6
330
17DC7
330
17DF0
330
17E0B
330
17E0C
330
17E0D
330
17E0E
330
17E0F
330
17E10
330
17E1F
330
18706
330
18708
330
1870B
330
1872E
330
1872F
330
18730
330
18731
330
18732
330
18733
330
1927C
330
1927F
330
19BEB
330
19BEC
330
19BF0
330
19C00
330
19C0F
330
19C10
330
19C11
102
}
330
746F
100
AcDbSymbolTableRecord
100
AcDbDimStyleTableRecord
  2
INABA_S40G
 70
     0
 40
40.0
 41
2.5
 42
0.5
 43
7.0
 44
1.5
 73
     0
 74
     0
 77
     3
 78
     8
140
3.0
141
0.0
143
0.0394
147
1.0
172
     1
173
     1
174
     1
178
     7
271
     1
340
F706
341
F770
343
F770
344
F770
  0
ENDTAB
  0
TABLE
  2
BLOCK_RECORD
  5
7466
330
0
100
AcDbSymbolTable
 70
    41
  0
BLOCK_RECORD
  5
747D
330
7466
100
AcDbSymbolTableRecord
100
AcDbBlockTableRecord
  2
*MODEL_SPACE
340
1807D
  0
BLOCK_RECORD
  5
747A
330
7466
100
AcDbSymbolTableRecord
100
AcDbBlockTableRecord
  2
*PAPER_SPACE
340
1807E
  0
BLOCK_RECORD
  5
F770
330
7466
100
AcDbSymbolTableRecord
100
AcDbBlockTableRecord
  2
_DOTSMALL
340
0
102
{BLKREFS
331
17D65
331
17D66
331
17F50
331
17F51
331
17F5A
331
17F5B
331
17F7F
331
17F80
331
17F88
331
17F89
331
17FA2
331
17FA3
331
17FB1
331
17FB2
331
17FBC
331
17FBD
331
17FCA
331
17FCB
331
17FE1
331
17FE2
331
17FEE
331
17FEF
331
17FF9
331
17FFA
331
18006
331
18007
331
18013
331
18014
331
18022
331
18023
331
18C73
331
18C74
331
18C7D
331
18C7E
331
18C88
331
18C89
331
18CA4
331
18CA5
331
18CCA
331
18CCB
331
18CD5
331
18CD6
331
18CE8
331
18CE9
331
193F7
331
193F8
331
19400
331
19401
331
19415
331
19416
331
19420
331
19421
331
1942B
331
1942C
331
19434
331
19435
331
1943D
331
1943E
331
19446
331
19447
331
1944E
331
1944F
331
199E5
331
199E6
331
199EE
331
199EF
331
19D6F
331
19D70
331
19D7A
331
19D7B
331
19D85
331
19D86
331
19D8E
331
19D8F
331
19D97
331
19D98
331
19DB4
331
19DB5
331
19DC0
331
19DC1
102
}
  0
BLOCK_RECORD
  5
17D3F
330
7466
100
AcDbSymbolTableRecord
100
AcDbBlockTableRecord
  2
*D1
340
0
  0
BLOCK_RECORD
  5
17E24
330
7466
100
AcDbSymbolTableRecord
100
AcDbBlockTableRecord
  2
*D2
340
0
  0
BLOCK_RECORD
  5
17E2F
330
7466
100
AcDbSymbolTableRecord
100
AcDbBlockTableRecord
  2
*D3
340
0
  0
BLOCK_RECORD
  5
17E3B
330
7466
100
AcDbSymbolTableRecord
100
AcDbBlockTableRecord
  2
*D4
340
0
  0
BLOCK_RECORD
  5
17E47
330
7466
100
AcDbSymbolTableRecord
100
AcDbBlockTableRecord
  2
*D5
340
0
  0
BLOCK_RECORD
  5
17E52
330
7466
100
AcDbSymbolTableRecord
100
AcDbBlockTableRecord
  2
*D6
340
0
  0
BLOCK_RECORD
  5
17E5E
330
7466
100
AcDbSymbolTableRecord
100
AcDbBlockTableRecord
  2
*D7
340
0
  0
BLOCK_RECORD
  5
17E6A
330
7466
100
AcDbSymbolTableRecord
100
AcDbBlockTableRecord
  2
*D8
340
0
  0
BLOCK_RECORD
  5
17E79
330
7466
100
AcDbSymbolTableRecord
100
AcDbBlockTableRecord
  2
*D9
340
0
  0
BLOCK_RECORD
  5
17E84
330
7466
100
AcDbSymbolTableRecord
100
AcDbBlockTableRecord
  2
*D10
340
0
  0
BLOCK_RECORD
  5
17E92
330
7466
100
AcDbSymbolTableRecord
100
AcDbBlockTableRecord
  2
*D11
340
0
  0
BLOCK_RECORD
  5
17EA0
330
7466
100
AcDbSymbolTableRecord
100
AcDbBlockTableRecord
  2
*D12
340
0
  0
BLOCK_RECORD
  5
17EAF
330
7466
100
AcDbSymbolTableRecord
100
AcDbBlockTableRecord
  2
*D13
340
0
  0
BLOCK_RECORD
  5
17EBB
330
7466
100
AcDbSymbolTableRecord
100
AcDbBlockTableRecord
  2
*D14
340
0
  0
BLOCK_RECORD
  5
17ECA
330
7466
100
AcDbSymbolTableRecord
100
AcDbBlockTableRecord
  2
*D15
340
0
  0
BLOCK_RECORD
  5
17ED8
330
7466
100
AcDbSymbolTableRecord
100
AcDbBlockTableRecord
  2
*D16
340
0
  0
BLOCK_RECORD
  5
17EE4
330
7466
100
AcDbSymbolTableRecord
100
AcDbBlockTableRecord
  2
*D17
340
0
  0
BLOCK_RECORD
  5
17EF2
330
7466
100
AcDbSymbolTableRecord
100
AcDbBlockTableRecord
  2
*D18
340
0
  0
BLOCK_RECORD
  5
17EFE
330
7466
100
AcDbSymbolTableRecord
100
AcDbBlockTableRecord
  2
*D19
340
0
  0
BLOCK_RECORD
  5
17F0C
330
7466
100
AcDbSymbolTableRecord
100
AcDbBlockTableRecord
  2
*D20
340
0
  0
BLOCK_RECORD
  5
17F1A
330
7466
100
AcDbSymbolTableRecord
100
AcDbBlockTableRecord
  2
*D21
340
0
  0
BLOCK_RECORD
  5
17F29
330
7466
100
AcDbSymbolTableRecord
100
AcDbBlockTableRecord
  2
*D22
340
0
  0
BLOCK_RECORD
  5
1890D
330
7466
100
AcDbSymbolTableRecord
100
AcDbBlockTableRecord
  2
*D23
340
0
  0
BLOCK_RECORD
  5
18926
330
7466
100
AcDbSymbolTableRecord
100
AcDbBlockTableRecord
  2
*D24
340
0
  0
BLOCK_RECORD
  5
18934
330
7466
100
AcDbSymbolTableRecord
100
AcDbBlockTableRecord
  2
*D25
340
0
  0
BLOCK_RECORD
  5
18966
330
7466
100
AcDbSymbolTableRecord
100
AcDbBlockTableRecord
  2
*D26
340
0
  0
BLOCK_RECORD
  5
18973
330
7466
100
AcDbSymbolTableRecord
100
AcDbBlockTableRecord
  2
*D27
340
0
  0
BLOCK_RECORD
  5
1897F
330
7466
100
AcDbSymbolTableRecord
100
AcDbBlockTableRecord
  2
*D28
340
0
  0
BLOCK_RECORD
  5
1898B
330
7466
100
AcDbSymbolTableRecord
100
AcDbBlockTableRecord
  2
*D29
340
0
  0
BLOCK_RECORD
  5
18999
330
7466
100
AcDbSymbolTableRecord
100
AcDbBlockTableRecord
  2
*D30
340
0
  0
BLOCK_RECORD
  5
189A6
330
7466
100
AcDbSymbolTableRecord
100
AcDbBlockTableRecord
  2
*D31
340
0
  0
BLOCK_RECORD
  5
19325
330
7466
100
AcDbSymbolTableRecord
100
AcDbBlockTableRecord
  2
*D32
340
0
  0
BLOCK_RECORD
  5
19331
330
7466
100
AcDbSymbolTableRecord
100
AcDbBlockTableRecord
  2
*D33
340
0
  0
BLOCK_RECORD
  5
19C6F
330
7466
100
AcDbSymbolTableRecord
100
AcDbBlockTableRecord
  2
*D34
340
0
  0
BLOCK_RECORD
  5
19C7B
330
7466
100
AcDbSymbolTableRecord
100
AcDbBlockTableRecord
  2
*D35
340
0
  0
BLOCK_RECORD
  5
19C87
330
7466
100
AcDbSymbolTableRecord
100
AcDbBlockTableRecord
  2
*D36
340
0
  0
BLOCK_RECORD
  5
19C95
330
7466
100
AcDbSymbolTableRecord
100
AcDbBlockTableRecord
  2
*D37
340
0
  0
BLOCK_RECORD
  5
19CA3
330
7466
100
AcDbSymbolTableRecord
100
AcDbBlockTableRecord
  2
*D38
340
0
  0
BLOCK_RECORD
  5
19CAF
330
7466
100
AcDbSymbolTableRecord
100
AcDbBlockTableRecord
  2
*D39
340
0
  0
BLOCK_RECORD
  5
19CBD
330
7466
100
AcDbSymbolTableRecord
100
AcDbBlockTableRecord
  2
*D40
340
0
  0
ENDTAB
  0
ENDSEC
  0
SECTION
  2
BLOCKS
  0
BLOCK
  5
7489
330
747D
100
AcDbEntity
  8
0
100
AcDbBlockBegin
  2
*MODEL_SPACE
 70
     0
 10
0.0
 20
0.0
 30
0.0
  3
*MODEL_SPACE
  1

  0
ENDBLK
  5
748A
330
747D
100
AcDbEntity
  8
0
100
AcDbBlockEnd
  0
BLOCK
  5
7487
330
747A
100
AcDbEntity
 67
     1
  8
0
100
AcDbBlockBegin
  2
*PAPER_SPACE
 70
     0
 10
0.0
 20
0.0
 30
0.0
  3
*PAPER_SPACE
  1

  0
ENDBLK
  5
7488
330
747A
100
AcDbEntity
 67
     1
  8
0
100
AcDbBlockEnd
  0
BLOCK
  5
F771
330
F770
100
AcDbEntity
  8
0
 48
50.0
100
AcDbBlockBegin
  2
_DOTSMALL
 70
     0
 10
0.0
 20
0.0
 30
0.0
  3
_DOTSMALL
  1

  0
LWPOLYLINE
  5
F772
330
F770
100
AcDbEntity
  8
0
  6
ByBlock
 62
     0
 48
50.0
100
AcDbPolyline
 90
        2
 70
     1
 43
0.5
 10
-0.0625
 20
0.0
 42
1.0
 10
0.0625
 20
0.0
 42
1.0
  0
ENDBLK
  5
F776
330
F770
100
AcDbEntity
  8
0
 48
50.0
100
AcDbBlockEnd
  0
BLOCK
  5
17D61
330
17D3F
100
AcDbEntity
  8
0
 48
50.0
100
AcDbBlockBegin
  2
*D1
 70
     1
 10
0.0
 20
0.0
 30
0.0
  3
*D1
  1

  0
LINE
  5
17D62
330
17D3F
100
AcDbEntity
  8
0
  6
ByBlock
 62
     0
 48
50.0
100
AcDbLine
 10
9101.173057123586
 20
9737.138440697352
 30
0.0
 11
9496.53078298561
 21
9631.202657331218
 31
0.0
  0
LINE
  5
17D63
330
17D3F
100
AcDbEntity
  8
0
  6
ByBlock
 62
     0
 48
50.0
100
AcDbLine
 10
9101.173057123586
 20
9287.138440697356
 30
0.0
 11
9496.53078298561
 21
9181.202657331221
 31
0.0
  0
LINE
  5
17D64
330
17D3F
100
AcDbEntity
  8
0
  6
ByBlock
 62
     0
 48
50.0
100
AcDbLine
 10
9436.530782985611
 20
9647.279608877084
 30
0.0
 11
9436.530782985611
 21
9197.279608877089
 31
0.0
  0
INSERT
  5
17D65
330
17D3F
100
AcDbEntity
  8
0
  6
ByBlock
 62
     0
 48
50.0
100
AcDbBlockReference
  2
_DOTSMALL
 10
9436.530782985611
 20
9647.279608877084
 30
0.0
 41
100.0
 42
100.0
 43
100.0
 50
90.0
  0
INSERT
  5
17D66
330
17D3F
100
AcDbEntity
  8
0
  6
ByBlock
 62
     0
 48
50.0
100
AcDbBlockReference
  2
_DOTSMALL
 10
9436.530782985611
 20
9197.279608877089
 30
0.0
 41
100.0
 42
100.0
 43
100.0
 50
270.0
  0
MTEXT
  5
17D67
330
17D3F
100
AcDbEntity
  8
0
  6
ByBlock
 62
     7
 48
50.0
100
AcDbMText
 10
9336.53078298561
 20
9422.279608877087
 30
0.0
 40
120.0
 41
0.0
 71
     5
 72
     1
  1
\A1;450
  7
STYLE1
 11
0.0000000000000001
 21
1.0
 31
0.0
 73
     1
 44
1.0
1001
ACAD
1000
MTEXTBEGIN
1070
    73
1070
     1
1070
    44
1040
1.0
1070
    74
1070
     0
1000
MTEXTEND
  0
POINT
  5
17D68
330
17D3F
100
AcDbEntity
  8
DEFPOINTS
  6
ByBlock
 62
     0
 48
50.0
100
AcDbPoint
 10
9081.173057123585
 20
9742.497424545975
 30
0.0
  0
POINT
  5
17D69
330
17D3F
100
AcDbEntity
  8
DEFPOINTS
  6
ByBlock
 62
     0
 48
50.0
100
AcDbPoint
 10
9081.173057123585
 20
9292.497424545977
 30
0.0
  0
POINT
  5
17D6A
330
17D3F
100
AcDbEntity
  8
DEFPOINTS
  6
ByBlock
 62
     0
 48
50.0
100
AcDbPoint
 10
9436.530782985611
 20
9197.279608877089
 30
0.0
  0
ENDBLK
  5
17D6B
330
17D3F
100
AcDbEntity
  8
0
 48
50.0
100
AcDbBlockEnd
  0
BLOCK
  5
17F37
330
17E24
100
AcDbEntity
  8
0
 48
50.0
100
AcDbBlockBegin
  2
*D2
 70
     1
 10
0.0
 20
0.0
 30
0.0
  3
*D2
  1

  0
LINE
  5
1944C
330
17E24
100
AcDbEntity
  8
寸法
 62
     0
 48
50.0
370
    -2
100
AcDbLine
 10
9109.673057123664
 20
9792.497424545963
 30
0.0
 11
9109.673057123664
 21
10597.62711772726
 31
0.0
  0
LINE
  5
1944D
330
17E24
100
AcDbEntity
  8
寸法
 62
     0
 48
50.0
370
    -2
100
AcDbLine
 10
6059.673057123664
 20
10537.62711772726
 30
0.0
 11
9109.673057123664
 21
10537.62711772726
 31
0.0
  0
INSERT
  5
1944E
330
17E24
100
AcDbEntity
  8
寸法
 62
     0
 48
50.0
370
    -2
100
AcDbBlockReference
  2
_DOTSMALL
 10
6059.673057123664
 20
10537.62711772726
 30
0.0
 41
100.0
 42
100.0
 43
100.0
 50
180.0
  0
INSERT
  5
1944F
330
17E24
100
AcDbEntity
  8
寸法
 62
     0
 48
50.0
370
    -2
100
AcDbBlockReference
  2
_DOTSMALL
 10
9109.673057123664
 20
10537.62711772726
 30
0.0
 41
100.0
 42
100.0
 43
100.0
  0
MTEXT
  5
19450
330
17E24
100
AcDbEntity
  8
寸法
 62
     7
 48
50.0
100
AcDbMText
 10
7584.673057123665
 20
10637.62711772726
 30
0.0
 40
120.0
 41
0.0
 71
     5
 72
     1
  1
\A1;3050
  7
STYLE1
 73
     1
 44
1.0
1001
ACAD
1000
MTEXTBEGIN
1070
    73
1070
     1
1070
    44
1040
1.0
1070
    74
1070
     0
1000
MTEXTEND
  0
POINT
  5
19451
330
17E24
100
AcDbEntity
  8
DEFPOINTS
 62
     0
 48
50.0
100
AcDbPoint
 10
6059.673057123664
 20
10447.29355852891
 30
0.0
  0
POINT
  5
19452
330
17E24
100
AcDbEntity
  8
DEFPOINTS
 62
     0
 48
50.0
100
AcDbPoint
 10
9109.673057123664
 20
9772.497424545964
 30
0.0
  0
POINT
  5
19453
330
17E24
100
AcDbEntity
  8
DEFPOINTS
 62
     0
 48
50.0
100
AcDbPoint
 10
9109.673057123664
 20
10537.62711772726
 30
0.0
  0
ENDBLK
  5
17F40
330
17E24
100
AcDbEntity
  8
0
 48
50.0
100
AcDbBlockEnd
  0
BLOCK
  5
17F41
330
17E2F
100
AcDbEntity
  8
0
 48
50.0
100
AcDbBlockBegin
  2
*D3
 70
     1
 10
0.0
 20
0.0
 30
0.0
  3
*D3
  1

  0
LINE
  5
19443
330
17E2F
100
AcDbEntity
  8
寸法
 62
     0
 48
50.0
370
    -2
100
AcDbLine
 10
6114.673057123663
 20
9792.497424545869
 30
0.0
 11
6114.673057123663
 21
10348.30564417096
 31
0.0
  0
LINE
  5
19444
330
17E2F
100
AcDbEntity
  8
寸法
 62
     0
 48
50.0
370
    -2
100
AcDbLine
 10
9054.673057123663
 20
9792.497424545963
 30
0.0
 11
9054.673057123663
 21
10348.30564417096
 31
0.0
  0
LINE
  5
19445
330
17E2F
100
AcDbEntity
  8
寸法
 62
     0
 48
50.0
370
    -2
100
AcDbLine
 10
6114.673057123663
 20
10288.30564417096
 30
0.0
 11
9054.673057123663
 21
10288.30564417096
 31
0.0
  0
INSERT
  5
19446
330
17E2F
100
AcDbEntity
  8
寸法
 62
     0
 48
50.0
370
    -2
100
AcDbBlockReference
  2
_DOTSMALL
 10
6114.673057123663
 20
10288.30564417096
 30
0.0
 41
100.0
 42
100.0
 43
100.0
 50
180.0
  0
INSERT
  5
19447
330
17E2F
100
AcDbEntity
  8
寸法
 62
     0
 48
50.0
370
    -2
100
AcDbBlockReference
  2
_DOTSMALL
 10
9054.673057123663
 20
10288.30564417096
 30
0.0
 41
100.0
 42
100.0
 43
100.0
  0
MTEXT
  5
19448
330
17E2F
100
AcDbEntity
  8
寸法
 62
     7
 48
50.0
100
AcDbMText
 10
7584.673057123665
 20
10388.31745519459
 30
0.0
 40
120.0
 41
0.0
 71
     5
 72
     1
  1
\A1;7X420=2940
  7
STYLE1
 73
     1
 44
1.0
1001
ACAD
1000
MTEXTBEGIN
1070
    73
1070
     1
1070
    44
1040
1.0
1070
    74
1070
     0
1000
MTEXTEND
  0
POINT
  5
19449
330
17E2F
100
AcDbEntity
  8
DEFPOINTS
 62
     0
 48
50.0
100
AcDbPoint
 10
6114.673057123663
 20
9772.49742454587
 30
0.0
  0
POINT
  5
1944A
330
17E2F
100
AcDbEntity
  8
DEFPOINTS
 62
     0
 48
50.0
100
AcDbPoint
 10
9054.673057123663
 20
9772.497424545964
 30
0.0
  0
POINT
  5
1944B
330
17E2F
100
AcDbEntity
  8
DEFPOINTS
 62
     0
 48
50.0
100
AcDbPoint
 10
9054.673057123663
 20
10288.30564417096
 30
0.0
  0
ENDBLK
  5
17F4B
330
17E2F
100
AcDbEntity
  8
0
 48
50.0
100
AcDbBlockEnd
  0
BLOCK
  5
17F4C
330
17E3B
100
AcDbEntity
  8
0
 48
50.0
100
AcDbBlockBegin
  2
*D4
 70
     1
 10
0.0
 20
0.0
 30
0.0
  3
*D4
  1

  0
LINE
  5
17F4D
330
17E3B
100
AcDbEntity
  8
0
  6
ByBlock
 62
     0
 48
50.0
100
AcDbLine
 10
3009.673057123657
 20
7122.497424545861
 30
0.0
 11
3009.673057123657
 21
6101.893658188827
 31
0.0
  0
LINE
  5
17F4E
330
17E3B
100
AcDbEntity
  8
0
  6
ByBlock
 62
     0
 48
50.0
100
AcDbLine
 10
9109.673057123627
 20
7122.497424545956
 30
0.0
 11
9109.673057123627
 21
6101.893658188827
 31
0.0
  0
LINE
  5
17F4F
330
17E3B
100
AcDbEntity
  8
0
  6
ByBlock
 62
     0
 48
50.0
100
AcDbLine
 10
3009.673057123657
 20
6161.893658188827
 30
0.0
 11
9109.673057123627
 21
6161.893658188827
 31
0.0
  0
INSERT
  5
17F50
330
17E3B
100
AcDbEntity
  8
0
  6
ByBlock
 62
     0
 48
50.0
100
AcDbBlockReference
  2
_DOTSMALL
 10
3009.673057123657
 20
6161.893658188827
 30
0.0
 41
100.0
 42
100.0
 43
100.0
 50
180.0
  0
INSERT
  5
17F51
330
17E3B
100
AcDbEntity
  8
0
  6
ByBlock
 62
     0
 48
50.0
100
AcDbBlockReference
  2
_DOTSMALL
 10
9109.673057123627
 20
6161.893658188827
 30
0.0
 41
100.0
 42
100.0
 43
100.0
  0
MTEXT
  5
17F52
330
17E3B
100
AcDbEntity
  8
0
  6
ByBlock
 62
     7
 48
50.0
100
AcDbMText
 10
6059.673057123642
 20
6261.893658188826
 30
0.0
 40
120.0
 41
0.0
 71
     5
 72
     1
  1
\A1;6100
  7
STYLE1
 73
     1
 44
1.0
1001
ACAD
1000
MTEXTBEGIN
1070
    73
1070
     1
1070
    44
1040
1.0
1070
    74
1070
     0
1000
MTEXTEND
  0
POINT
  5
17F53
330
17E3B
100
AcDbEntity
  8
DEFPOINTS
  6
ByBlock
 62
     0
 48
50.0
100
AcDbPoint
 10
3009.673057123657
 20
7142.497424545862
 30
0.0
  0
POINT
  5
17F54
330
17E3B
100
AcDbEntity
  8
DEFPOINTS
  6
ByBlock
 62
     0
 48
50.0
100
AcDbPoint
 10
9109.673057123627
 20
7142.497424545957
 30
0.0
  0
POINT
  5
17F55
330
17E3B
100
AcDbEntity
  8
DEFPOINTS
  6
ByBlock
 62
     0
 48
50.0
100
AcDbPoint
 10
9109.673057123627
 20
6161.893658188827
 30
0.0
  0
ENDBLK
  5
17F56
330
17E3B
100
AcDbEntity
  8
0
 48
50.0
100
AcDbBlockEnd
  0
BLOCK
  5
17F57
330
17E47
100
AcDbEntity
  8
0
 48
50.0
100
AcDbBlockBegin
  2
*D5
 70
     1
 10
0.0
 20
0.0
 30
0.0
  3
*D5
  1

  0
LINE
  5
17F58
330
17E47
100
AcDbEntity
  8
0
  6
ByBlock
 62
     0
 48
50.0
100
AcDbLine
 10
6162.673057123657
 20
7148.497424545865
 30
0.0
 11
6162.673057123657
 21
6548.0666537797
 31
0.0
  0
LINE
  5
17F59
330
17E47
100
AcDbEntity
  8
0
  6
ByBlock
 62
     0
 48
50.0
100
AcDbLine
 10
9006.67305712364
 20
6608.0666537797
 30
0.0
 11
6162.673057123657
 21
6608.0666537797
 31
0.0
  0
INSERT
  5
17F5A
330
17E47
100
AcDbEntity
  8
0
  6
ByBlock
 62
     0
 48
50.0
100
AcDbBlockReference
  2
_DOTSMALL
 10
9006.67305712364
 20
6608.0666537797
 30
0.0
 41
100.0
 42
100.0
 43
100.0
  0
INSERT
  5
17F5B
330
17E47
100
AcDbEntity
  8
0
  6
ByBlock
 62
     0
 48
50.0
100
AcDbBlockReference
  2
_DOTSMALL
 10
6162.673057123657
 20
6608.0666537797
 30
0.0
 41
100.0
 42
100.0
 43
100.0
 50
180.0
  0
MTEXT
  5
17F5C
330
17E47
100
AcDbEntity
  8
0
  6
ByBlock
 62
     7
 48
50.0
100
AcDbMText
 10
7584.673057123648
 20
6708.078464803323
 30
0.0
 40
120.0
 41
0.0
 71
     5
 72
     1
  1
\A1;有効開口部間口 2844
  7
STYLE1
 73
     1
 44
1.0
1001
ACAD
1000
MTEXTBEGIN
1070
    73
1070
     1
1070
    44
1040
1.0
1070
    74
1070
     0
1000
MTEXTEND
  0
POINT
  5
17F5D
330
17E47
100
AcDbEntity
  8
DEFPOINTS
  6
ByBlock
 62
     0
 48
50.0
100
AcDbPoint
 10
9006.67305712364
 20
7168.497424545865
 30
0.0
  0
POINT
  5
17F5E
330
17E47
100
AcDbEntity
  8
DEFPOINTS
  6
ByBlock
 62
     0
 48
50.0
100
AcDbPoint
 10
6162.673057123657
 20
7168.497424545865
 30
0.0
  0
POINT
  5
17F5F
330
17E47
100
AcDbEntity
  8
DEFPOINTS
  6
ByBlock
 62
     0
 48
50.0
100
AcDbPoint
 10
6162.673057123657
 20
6608.0666537797
 30
0.0
  0
ENDBLK
  5
17F60
330
17E47
100
AcDbEntity
  8
0
 48
50.0
100
AcDbBlockEnd
  0
BLOCK
  5
17F61
330
17E52
100
AcDbEntity
  8
0
 48
50.0
100
AcDbBlockBegin
  2
*D6
 70
     1
 10
0.0
 20
0.0
 30
0.0
  3
*D6
  1

  0
LINE
  5
1943A
330
17E52
100
AcDbEntity
  8
寸法
 62
     0
 48
50.0
370
    -2
100
AcDbLine
 10
3009.673057123629
 20
9792.497424545835
 30
0.0
 11
3009.673057123629
 21
10597.62711772726
 31
0.0
  0
LINE
  5
1943B
330
17E52
100
AcDbEntity
  8
寸法
 62
     0
 48
50.0
370
    -2
100
AcDbLine
 10
6059.673057123664
 20
10467.29355852891
 30
0.0
 11
6059.673057123664
 21
10597.62711772726
 31
0.0
  0
LINE
  5
1943C
330
17E52
100
AcDbEntity
  8
寸法
 62
     0
 48
50.0
370
    -2
100
AcDbLine
 10
3009.673057123629
 20
10537.62711772726
 30
0.0
 11
6059.673057123664
 21
10537.62711772726
 31
0.0
  0
INSERT
  5
1943D
330
17E52
100
AcDbEntity
  8
寸法
 62
     0
 48
50.0
370
    -2
100
AcDbBlockReference
  2
_DOTSMALL
 10
3009.673057123629
 20
10537.62711772726
 30
0.0
 41
100.0
 42
100.0
 43
100.0
 50
180.0
  0
INSERT
  5
1943E
330
17E52
100
AcDbEntity
  8
寸法
 62
     0
 48
50.0
370
    -2
100
AcDbBlockReference
  2
_DOTSMALL
 10
6059.673057123664
 20
10537.62711772726
 30
0.0
 41
100.0
 42
100.0
 43
100.0
  0
MTEXT
  5
1943F
330
17E52
100
AcDbEntity
  8
寸法
 62
     7
 48
50.0
100
AcDbMText
 10
4534.673057123645
 20
10637.62711772726
 30
0.0
 40
120.0
 41
0.0
 71
     5
 72
     1
  1
\A1;3050
  7
STYLE1
 73
     1
 44
1.0
1001
ACAD
1000
MTEXTBEGIN
1070
    73
1070
     1
1070
    44
1040
1.0
1070
    74
1070
     0
1000
MTEXTEND
  0
POINT
  5
19440
330
17E52
100
AcDbEntity
  8
DEFPOINTS
 62
     0
 48
50.0
100
AcDbPoint
 10
3009.673057123629
 20
9772.497424545838
 30
0.0
  0
POINT
  5
19441
330
17E52
100
AcDbEntity
  8
DEFPOINTS
 62
     0
 48
50.0
100
AcDbPoint
 10
6059.673057123664
 20
10447.29355852891
 30
0.0
  0
POINT
  5
19442
330
17E52
100
AcDbEntity
  8
DEFPOINTS
 62
     0
 48
50.0
100
AcDbPoint
 10
6059.673057123664
 20
10537.62711772726
 30
0.0
  0
ENDBLK
  5
17F6B
330
17E52
100
AcDbEntity
  8
0
 48
50.0
100
AcDbBlockEnd
  0
BLOCK
  5
17F6C
330
17E5E
100
AcDbEntity
  8
0
 48
50.0
100
AcDbBlockBegin
  2
*D7
 70
     1
 10
0.0
 20
0.0
 30
0.0
  3
*D7
  1

  0
LINE
  5
19431
330
17E5E
100
AcDbEntity
  8
寸法
 62
     0
 48
50.0
370
    -2
100
AcDbLine
 10
3064.673057123663
 20
9792.497424545869
 30
0.0
 11
3064.673057123663
 21
10348.30564417096
 31
0.0
  0
LINE
  5
19432
330
17E5E
100
AcDbEntity
  8
寸法
 62
     0
 48
50.0
370
    -2
100
AcDbLine
 10
6004.673057123664
 20
9792.497424545963
 30
0.0
 11
6004.673057123664
 21
10348.30564417096
 31
0.0
  0
LINE
  5
19433
330
17E5E
100
AcDbEntity
  8
寸法
 62
     0
 48
50.0
370
    -2
100
AcDbLine
 10
3064.673057123663
 20
10288.30564417096
 30
0.0
 11
6004.673057123664
 21
10288.30564417096
 31
0.0
  0
INSERT
  5
19434
330
17E5E
100
AcDbEntity
  8
寸法
 62
     0
 48
50.0
370
    -2
100
AcDbBlockReference
  2
_DOTSMALL
 10
3064.673057123663
 20
10288.30564417096
 30
0.0
 41
100.0
 42
100.0
 43
100.0
 50
180.0
  0
INSERT
  5
19435
330
17E5E
100
AcDbEntity
  8
寸法
 62
     0
 48
50.0
370
    -2
100
AcDbBlockReference
  2
_DOTSMALL
 10
6004.673057123664
 20
10288.30564417096
 30
0.0
 41
100.0
 42
100.0
 43
100.0
  0
MTEXT
  5
19436
330
17E5E
100
AcDbEntity
  8
寸法
 62
     7
 48
50.0
100
AcDbMText
 10
4534.673057123664
 20
10388.31745519459
 30
0.0
 40
120.0
 41
0.0
 71
     5
 72
     1
  1
\A1;7X420=2940
  7
STYLE1
 73
     1
 44
1.0
1001
ACAD
1000
MTEXTBEGIN
1070
    73
1070
     1
1070
    44
1040
1.0
1070
    74
1070
     0
1000
MTEXTEND
  0
POINT
  5
19437
330
17E5E
100
AcDbEntity
  8
DEFPOINTS
 62
     0
 48
50.0
100
AcDbPoint
 10
3064.673057123663
 20
9772.49742454587
 30
0.0
  0
POINT
  5
19438
330
17E5E
100
AcDbEntity
  8
DEFPOINTS
 62
     0
 48
50.0
100
AcDbPoint
 10
6004.673057123664
 20
9772.497424545964
 30
0.0
  0
POINT
  5
19439
330
17E5E
100
AcDbEntity
  8
DEFPOINTS
 62
     0
 48
50.0
100
AcDbPoint
 10
6004.673057123664
 20
10288.30564417096
 30
0.0
  0
ENDBLK
  5
17F76
330
17E5E
100
AcDbEntity
  8
0
 48
50.0
100
AcDbBlockEnd
  0
BLOCK
  5
17F77
330
17E6A
100
AcDbEntity
  8
0
 48
50.0
100
AcDbBlockBegin
  2
*D8
 70
     1
 10
0.0
 20
0.0
 30
0.0
  3
*D8
  1

  0
LINE
  5
17F78
330
17E6A
100
AcDbEntity
  8
0
  6
ByBlock
 62
     0
 48
50.0
100
AcDbLine
 10
3112.673057123657
 20
7148.497424545865
 30
0.0
 11
3112.673057123657
 21
6548.0666537797
 31
0.0
  0
LINE
  5
17F79
330
17E6A
100
AcDbEntity
  8
0
  6
ByBlock
 62
     0
 48
50.0
100
AcDbLine
 10
3064.673057123653
 20
7122.497424545864
 30
0.0
 11
3064.673057123653
 21
6548.0666537797
 31
0.0
  0
LINE
  5
17F7A
330
17E6A
100
AcDbEntity
  8
0
  6
ByBlock
 62
     0
 48
50.0
100
AcDbLine
 10
3112.673057123657
 20
6608.0666537797
 30
0.0
 11
3212.673057123657
 21
6608.0666537797
 31
0.0
  0
LINE
  5
17F7B
330
17E6A
100
AcDbEntity
  8
0
  6
ByBlock
 62
     0
 48
50.0
100
AcDbLine
 10
3064.673057123653
 20
6608.0666537797
 30
0.0
 11
2964.673057123653
 21
6608.0666537797
 31
0.0
  0
MTEXT
  5
17F7C
330
17E6A
100
AcDbEntity
  8
0
  6
ByBlock
 62
     7
 48
50.0
100
AcDbMText
 10
3225.575028123714
 20
6708.0666537797
 30
0.0
 40
120.0
 41
0.0
 71
     5
 72
     1
  1
\A1;48
  7
STYLE1
 73
     1
 44
1.0
1001
ACAD
1000
MTEXTBEGIN
1070
    73
1070
     1
1070
    44
1040
1.0
1070
    74
1070
     0
1000
MTEXTEND
  0
LINE
  5
17F7D
330
17E6A
100
AcDbEntity
  8
0
  6
ByBlock
 62
     0
 48
50.0
100
AcDbLine
 10
3112.673057123657
 20
6608.0666537797
 30
0.0
 11
3064.673057123653
 21
6608.0666537797
 31
0.0
  0
LINE
  5
17F7E
330
17E6A
100
AcDbEntity
  8
0
  6
ByBlock
 62
     0
 48
50.0
100
AcDbLine
 10
3112.673057123657
 20
6608.0666537797
 30
0.0
 11
3064.673057123653
 21
6608.0666537797
 31
0.0
  0
INSERT
  5
17F7F
330
17E6A
100
AcDbEntity
  8
0
  6
ByBlock
 62
     0
 48
50.0
100
AcDbBlockReference
  2
_DOTSMALL
 10
3112.673057123657
 20
6608.0666537797
 30
0.0
 41
100.0
 42
100.0
 43
100.0
 50
180.0
  0
INSERT
  5
17F80
330
17E6A
100
AcDbEntity
  8
0
  6
ByBlock
 62
     0
 48
50.0
100
AcDbBlockReference
  2
_DOTSMALL
 10
3064.673057123653
 20
6608.0666537797
 30
0.0
 41
100.0
 42
100.0
 43
100.0
  0
POINT
  5
17F81
330
17E6A
100
AcDbEntity
  8
DEFPOINTS
  6
ByBlock
 62
     0
 48
50.0
100
AcDbPoint
 10
3112.673057123657
 20
7168.497424545865
 30
0.0
  0
POINT
  5
17F82
330
17E6A
100
AcDbEntity
  8
DEFPOINTS
  6
ByBlock
 62
     0
 48
50.0
100
AcDbPoint
 10
3064.673057123653
 20
7142.497424545864
 30
0.0
  0
POINT
  5
17F83
330
17E6A
100
AcDbEntity
  8
DEFPOINTS
  6
ByBlock
 62
     0
 48
50.0
100
AcDbPoint
 10
3064.673057123653
 20
6608.0666537797
 30
0.0
  0
ENDBLK
  5
17F84
330
17E6A
100
AcDbEntity
  8
0
 48
50.0
100
AcDbBlockEnd
  0
BLOCK
  5
17F85
330
17E79
100
AcDbEntity
  8
0
 48
50.0
100
AcDbBlockBegin
  2
*D9
 70
     1
 10
0.0
 20
0.0
 30
0.0
  3
*D9
  1

  0
LINE
  5
17F86
330
17E79
100
AcDbEntity
  8
0
  6
ByBlock
 62
     0
 48
50.0
100
AcDbLine
 10
3112.673057123657
 20
7148.497424545865
 30
0.0
 11
3112.673057123657
 21
6548.0666537797
 31
0.0
  0
LINE
  5
17F87
330
17E79
100
AcDbEntity
  8
0
  6
ByBlock
 62
     0
 48
50.0
100
AcDbLine
 10
5956.673057123638
 20
6608.0666537797
 30
0.0
 11
3112.673057123657
 21
6608.0666537797
 31
0.0
  0
INSERT
  5
17F88
330
17E79
100
AcDbEntity
  8
0
  6
ByBlock
 62
     0
 48
50.0
100
AcDbBlockReference
  2
_DOTSMALL
 10
5956.673057123638
 20
6608.0666537797
 30
0.0
 41
100.0
 42
100.0
 43
100.0
  0
INSERT
  5
17F89
330
17E79
100
AcDbEntity
  8
0
  6
ByBlock
 62
     0
 48
50.0
100
AcDbBlockReference
  2
_DOTSMALL
 10
3112.673057123657
 20
6608.0666537797
 30
0.0
 41
100.0
 42
100.0
 43
100.0
 50
180.0
  0
MTEXT
  5
17F8A
330
17E79
100
AcDbEntity
  8
0
  6
ByBlock
 62
     7
 48
50.0
100
AcDbMText
 10
4534.673057123647
 20
6708.078464803323
 30
0.0
 40
120.0
 41
0.0
 71
     5
 72
     1
  1
\A1;有効開口部間口 2844
  7
STYLE1
 73
     1
 44
1.0
1001
ACAD
1000
MTEXTBEGIN
1070
    73
1070
     1
1070
    44
1040
1.0
1070
    74
1070
     0
1000
MTEXTEND
  0
POINT
  5
17F8B
330
17E79
100
AcDbEntity
  8
DEFPOINTS
  6
ByBlock
 62
     0
 48
50.0
100
AcDbPoint
 10
5956.673057123638
 20
7168.497424545865
 30
0.0
  0
POINT
  5
17F8C
330
17E79
100
AcDbEntity
  8
DEFPOINTS
  6
ByBlock
 62
     0
 48
50.0
100
AcDbPoint
 10
3112.673057123657
 20
7168.497424545865
 30
0.0
  0
POINT
  5
17F8D
330
17E79
100
AcDbEntity
  8
DEFPOINTS
  6
ByBlock
 62
     0
 48
50.0
100
AcDbPoint
 10
3112.673057123657
 20
6608.0666537797
 30
0.0
  0
ENDBLK
  5
17F8E
330
17E79
100
AcDbEntity
  8
0
 48
50.0
100
AcDbBlockEnd
  0
BLOCK
  5
17F8F
330
17E84
100
AcDbEntity
  8
0
 48
50.0
100
AcDbBlockBegin
  2
*D10
 70
     1
 10
0.0
 20
0.0
 30
0.0
  3
*D10
  1

  0
LINE
  5
19426
330
17E84
100
AcDbEntity
  8
寸法
 62
     0
 48
50.0
370
    -2
100
AcDbLine
 10
3009.673057123629
 20
9792.497424545869
 30
0.0
 11
3009.673057123629
 21
10348.30564417085
 31
0.0
  0
LINE
  5
19427
330
17E84
100
AcDbEntity
  8
寸法
 62
     0
 48
50.0
370
    -2
100
AcDbLine
 10
3064.673057123663
 20
9792.497424545869
 30
0.0
 11
3064.673057123663
 21
10348.30564417085
 31
0.0
  0
LINE
  5
19428
330
17E84
100
AcDbEntity
  8
寸法
 62
     0
 48
50.0
370
    -2
100
AcDbLine
 10
3064.673057123663
 20
10288.30564417085
 30
0.0
 11
3164.673057123663
 21
10288.30564417085
 31
0.0
  0
LINE
  5
19429
330
17E84
100
AcDbEntity
  8
寸法
 62
     0
 48
50.0
370
    -2
100
AcDbLine
 10
3009.673057123629
 20
10288.30564417085
 30
0.0
 11
2592.702494375151
 21
10288.30564417085
 31
0.0
  0
LINE
  5
1942A
330
17E84
100
AcDbEntity
  8
寸法
 62
     0
 48
50.0
370
    -2
100
AcDbLine
 10
3064.673057123663
 20
10288.30564417085
 30
0.0
 11
3009.673057123629
 21
10288.30564417085
 31
0.0
  0
INSERT
  5
1942B
330
17E84
100
AcDbEntity
  8
寸法
 62
     0
 48
50.0
370
    -2
100
AcDbBlockReference
  2
_DOTSMALL
 10
3064.673057123663
 20
10288.30564417085
 30
0.0
 41
100.0
 42
100.0
 43
100.0
 50
180.0
  0
INSERT
  5
1942C
330
17E84
100
AcDbEntity
  8
寸法
 62
     0
 48
50.0
370
    -2
100
AcDbBlockReference
  2
_DOTSMALL
 10
3009.673057123629
 20
10288.30564417085
 30
0.0
 41
100.0
 42
100.0
 43
100.0
  0
MTEXT
  5
1942D
330
17E84
100
AcDbEntity
  8
寸法
 62
     7
 48
50.0
100
AcDbMText
 10
2701.18777574939
 20
10388.30564417085
 30
0.0
 40
120.0
 41
0.0
 71
     5
 72
     1
  1
\A1;55
  7
STYLE1
 73
     1
 44
1.0
1001
ACAD
1000
MTEXTBEGIN
1070
    73
1070
     1
1070
    44
1040
1.0
1070
    74
1070
     0
1000
MTEXTEND
  0
POINT
  5
1942E
330
17E84
100
AcDbEntity
  8
DEFPOINTS
 62
     0
 48
50.0
100
AcDbPoint
 10
3009.673057123629
 20
9772.49742454587
 30
0.0
  0
POINT
  5
1942F
330
17E84
100
AcDbEntity
  8
DEFPOINTS
 62
     0
 48
50.0
100
AcDbPoint
 10
3064.673057123663
 20
9772.49742454587
 30
0.0
  0
POINT
  5
19430
330
17E84
100
AcDbEntity
  8
DEFPOINTS
 62
     0
 48
50.0
100
AcDbPoint
 10
3064.673057123663
 20
10288.30564417085
 30
0.0
  0
ENDBLK
  5
17F9B
330
17E84
100
AcDbEntity
  8
0
 48
50.0
100
AcDbBlockEnd
  0
BLOCK
  5
17F9C
330
17E92
100
AcDbEntity
  8
0
 48
50.0
100
AcDbBlockBegin
  2
*D11
 70
     1
 10
0.0
 20
0.0
 30
0.0
  3
*D11
  1

  0
LINE
  5
17F9D
330
17E92
100
AcDbEntity
  8
0
  6
ByBlock
 62
     0
 48
50.0
100
AcDbLine
 10
3064.673057123653
 20
7122.497424545864
 30
0.0
 11
3064.673057123653
 21
6548.0666537797
 31
0.0
  0
LINE
  5
17F9E
330
17E92
100
AcDbEntity
  8
0
  6
ByBlock
 62
     0
 48
50.0
100
AcDbLine
 10
3009.673057123657
 20
7122.497424545861
 30
0.0
 11
3009.673057123657
 21
6548.0666537797
 31
0.0
  0
LINE
  5
17F9F
330
17E92
100
AcDbEntity
  8
0
  6
ByBlock
 62
     0
 48
50.0
100
AcDbLine
 10
3064.673057123653
 20
6608.0666537797
 30
0.0
 11
3164.673057123653
 21
6608.0666537797
 31
0.0
  0
LINE
  5
17FA0
330
17E92
100
AcDbEntity
  8
0
  6
ByBlock
 62
     0
 48
50.0
100
AcDbLine
 10
3009.673057123657
 20
6608.0666537797
 30
0.0
 11
2592.70249437518
 21
6608.0666537797
 31
0.0
  0
LINE
  5
17FA1
330
17E92
100
AcDbEntity
  8
0
  6
ByBlock
 62
     0
 48
50.0
100
AcDbLine
 10
3064.673057123653
 20
6608.0666537797
 30
0.0
 11
3009.673057123657
 21
6608.0666537797
 31
0.0
  0
INSERT
  5
17FA2
330
17E92
100
AcDbEntity
  8
0
  6
ByBlock
 62
     0
 48
50.0
100
AcDbBlockReference
  2
_DOTSMALL
 10
3064.673057123653
 20
6608.0666537797
 30
0.0
 41
100.0
 42
100.0
 43
100.0
 50
180.0
  0
INSERT
  5
17FA3
330
17E92
100
AcDbEntity
  8
0
  6
ByBlock
 62
     0
 48
50.0
100
AcDbBlockReference
  2
_DOTSMALL
 10
3009.673057123657
 20
6608.0666537797
 30
0.0
 41
100.0
 42
100.0
 43
100.0
  0
MTEXT
  5
17FA4
330
17E92
100
AcDbEntity
  8
0
  6
ByBlock
 62
     7
 48
50.0
100
AcDbMText
 10
2701.187775749418
 20
6708.0666537797
 30
0.0
 40
120.0
 41
0.0
 71
     5
 72
     1
  1
\A1;55
  7
STYLE1
 73
     1
 44
1.0
1001
ACAD
1000
MTEXTBEGIN
1070
    73
1070
     1
1070
    44
1040
1.0
1070
    74
1070
     0
1000
MTEXTEND
  0
POINT
  5
17FA5
330
17E92
100
AcDbEntity
  8
DEFPOINTS
  6
ByBlock
 62
     0
 48
50.0
100
AcDbPoint
 10
3064.673057123653
 20
7142.497424545864
 30
0.0
  0
POINT
  5
17FA6
330
17E92
100
AcDbEntity
  8
DEFPOINTS
  6
ByBlock
 62
     0
 48
50.0
100
AcDbPoint
 10
3009.673057123657
 20
7142.497424545862
 30
0.0
  0
POINT
  5
17FA7
330
17E92
100
AcDbEntity
  8
DEFPOINTS
  6
ByBlock
 62
     0
 48
50.0
100
AcDbPoint
 10
3009.673057123657
 20
6608.0666537797
 30
0.0
  0
ENDBLK
  5
17FA8
330
17E92
100
AcDbEntity
  8
0
 48
50.0
100
AcDbBlockEnd
  0
BLOCK
  5
17FA9
330
17EA0
100
AcDbEntity
  8
0
 48
50.0
100
AcDbBlockBegin
  2
*D12
 70
     1
 10
0.0
 20
0.0
 30
0.0
  3
*D12
  1

  0
LINE
  5
17FAA
330
17EA0
100
AcDbEntity
  8
0
  6
ByBlock
 62
     0
 48
50.0
100
AcDbLine
 10
6004.67305712364
 20
7122.497424545952
 30
0.0
 11
6004.67305712364
 21
6548.0666537797
 31
0.0
  0
LINE
  5
17FAB
330
17EA0
100
AcDbEntity
  8
0
  6
ByBlock
 62
     0
 48
50.0
100
AcDbLine
 10
5956.673057123638
 20
7148.497424545865
 30
0.0
 11
5956.673057123638
 21
6548.0666537797
 31
0.0
  0
LINE
  5
17FAC
330
17EA0
100
AcDbEntity
  8
0
  6
ByBlock
 62
     0
 48
50.0
100
AcDbLine
 10
6004.67305712364
 20
6608.0666537797
 30
0.0
 11
6104.67305712364
 21
6608.0666537797
 31
0.0
  0
LINE
  5
17FAD
330
17EA0
100
AcDbEntity
  8
0
  6
ByBlock
 62
     0
 48
50.0
100
AcDbLine
 10
5956.673057123638
 20
6608.0666537797
 30
0.0
 11
5856.673057123638
 21
6608.0666537797
 31
0.0
  0
MTEXT
  5
17FAE
330
17EA0
100
AcDbEntity
  8
0
  6
ByBlock
 62
     7
 48
50.0
100
AcDbMText
 10
5845.710159474891
 20
6708.0666537797
 30
0.0
 40
120.0
 41
0.0
 71
     5
 72
     1
  1
\A1;48
  7
STYLE1
 73
     1
 44
1.0
1001
ACAD
1000
MTEXTBEGIN
1070
    73
1070
     1
1070
    44
1040
1.0
1070
    74
1070
     0
1000
MTEXTEND
  0
LINE
  5
17FAF
330
17EA0
100
AcDbEntity
  8
0
  6
ByBlock
 62
     0
 48
50.0
100
AcDbLine
 10
6004.67305712364
 20
6608.0666537797
 30
0.0
 11
5956.673057123638
 21
6608.0666537797
 31
0.0
  0
LINE
  5
17FB0
330
17EA0
100
AcDbEntity
  8
0
  6
ByBlock
 62
     0
 48
50.0
100
AcDbLine
 10
6004.67305712364
 20
6608.0666537797
 30
0.0
 11
5956.673057123638
 21
6608.0666537797
 31
0.0
  0
INSERT
  5
17FB1
330
17EA0
100
AcDbEntity
  8
0
  6
ByBlock
 62
     0
 48
50.0
100
AcDbBlockReference
  2
_DOTSMALL
 10
6004.67305712364
 20
6608.0666537797
 30
0.0
 41
100.0
 42
100.0
 43
100.0
 50
180.0
  0
INSERT
  5
17FB2
330
17EA0
100
AcDbEntity
  8
0
  6
ByBlock
 62
     0
 48
50.0
100
AcDbBlockReference
  2
_DOTSMALL
 10
5956.673057123638
 20
6608.0666537797
 30
0.0
 41
100.0
 42
100.0
 43
100.0
  0
POINT
  5
17FB3
330
17EA0
100
AcDbEntity
  8
DEFPOINTS
  6
ByBlock
 62
     0
 48
50.0
100
AcDbPoint
 10
6004.67305712364
 20
7142.497424545952
 30
0.0
  0
POINT
  5
17FB4
330
17EA0
100
AcDbEntity
  8
DEFPOINTS
  6
ByBlock
 62
     0
 48
50.0
100
AcDbPoint
 10
5956.673057123638
 20
7168.497424545865
 30
0.0
  0
POINT
  5
17FB5
330
17EA0
100
AcDbEntity
  8
DEFPOINTS
  6
ByBlock
 62
     0
 48
50.0
100
AcDbPoint
 10
5956.673057123638
 20
6608.0666537797
 30
0.0
  0
ENDBLK
  5
17FB6
330
17EA0
100
AcDbEntity
  8
0
 48
50.0
100
AcDbBlockEnd
  0
BLOCK
  5
17FB7
330
17EAF
100
AcDbEntity
  8
0
 48
50.0
100
AcDbBlockBegin
  2
*D13
 70
     1
 10
0.0
 20
0.0
 30
0.0
  3
*D13
  1

  0
LINE
  5
17FB8
330
17EAF
100
AcDbEntity
  8
0
  6
ByBlock
 62
     0
 48
50.0
100
AcDbLine
 10
6114.673057123653
 20
7122.497424545864
 30
0.0
 11
6114.673057123653
 21
6548.066653779702
 31
0.0
  0
LINE
  5
17FB9
330
17EAF
100
AcDbEntity
  8
0
  6
ByBlock
 62
     0
 48
50.0
100
AcDbLine
 10
6004.67305712364
 20
7122.497424545952
 30
0.0
 11
6004.67305712364
 21
6548.066653779702
 31
0.0
  0
LINE
  5
17FBA
330
17EAF
100
AcDbEntity
  8
0
  6
ByBlock
 62
     0
 48
50.0
100
AcDbLine
 10
6114.673057123653
 20
6608.066653779701
 30
0.0
 11
6004.67305712364
 21
6608.066653779701
 31
0.0
  0
MTEXT
  5
17FBB
330
17EAF
100
AcDbEntity
  8
0
  6
ByBlock
 62
     7
 48
50.0
100
AcDbMText
 10
6059.673057123647
 20
6456.37475874347
 30
0.0
 40
120.0
 41
0.0
 71
     5
 72
     1
  1
\A1;110
  7
STYLE1
 73
     1
 44
1.0
1001
ACAD
1000
MTEXTBEGIN
1070
    73
1070
     1
1070
    44
1040
1.0
1070
    74
1070
     0
1000
MTEXTEND
  0
INSERT
  5
17FBC
330
17EAF
100
AcDbEntity
  8
0
  6
ByBlock
 62
     0
 48
50.0
100
AcDbBlockReference
  2
_DOTSMALL
 10
6114.673057123653
 20
6608.066653779701
 30
0.0
 41
100.0
 42
100.0
 43
100.0
  0
INSERT
  5
17FBD
330
17EAF
100
AcDbEntity
  8
0
  6
ByBlock
 62
     0
 48
50.0
100
AcDbBlockReference
  2
_DOTSMALL
 10
6004.67305712364
 20
6608.066653779701
 30
0.0
 41
100.0
 42
100.0
 43
100.0
 50
180.0
  0
POINT
  5
17FBE
330
17EAF
100
AcDbEntity
  8
DEFPOINTS
  6
ByBlock
 62
     0
 48
50.0
100
AcDbPoint
 10
6114.673057123653
 20
7142.497424545864
 30
0.0
  0
POINT
  5
17FBF
330
17EAF
100
AcDbEntity
  8
DEFPOINTS
  6
ByBlock
 62
     0
 48
50.0
100
AcDbPoint
 10
6004.67305712364
 20
7142.497424545952
 30
0.0
  0
POINT
  5
17FC0
330
17EAF
100
AcDbEntity
  8
DEFPOINTS
  6
ByBlock
 62
     0
 48
50.0
100
AcDbPoint
 10
6004.67305712364
 20
6608.066653779701
 30
0.0
  0
ENDBLK
  5
17FC1
330
17EAF
100
AcDbEntity
  8
0
 48
50.0
100
AcDbBlockEnd
  0
BLOCK
  5
17FC2
330
17EBB
100
AcDbEntity
  8
0
 48
50.0
100
AcDbBlockBegin
  2
*D14
 70
     1
 10
0.0
 20
0.0
 30
0.0
  3
*D14
  1

  0
LINE
  5
17FC3
330
17EBB
100
AcDbEntity
  8
0
  6
ByBlock
 62
     0
 48
50.0
100
AcDbLine
 10
6162.673057123657
 20
7148.497424545865
 30
0.0
 11
6162.673057123657
 21
6548.0666537797
 31
0.0
  0
LINE
  5
17FC4
330
17EBB
100
AcDbEntity
  8
0
  6
ByBlock
 62
     0
 48
50.0
100
AcDbLine
 10
6114.673057123653
 20
7122.497424545864
 30
0.0
 11
6114.673057123653
 21
6548.0666537797
 31
0.0
  0
LINE
  5
17FC5
330
17EBB
100
AcDbEntity
  8
0
  6
ByBlock
 62
     0
 48
50.0
100
AcDbLine
 10
6162.673057123657
 20
6608.0666537797
 30
0.0
 11
6262.673057123657
 21
6608.0666537797
 31
0.0
  0
LINE
  5
17FC6
330
17EBB
100
AcDbEntity
  8
0
  6
ByBlock
 62
     0
 48
50.0
100
AcDbLine
 10
6114.673057123653
 20
6608.0666537797
 30
0.0
 11
6014.673057123653
 21
6608.0666537797
 31
0.0
  0
MTEXT
  5
17FC7
330
17EBB
100
AcDbEntity
  8
0
  6
ByBlock
 62
     7
 48
50.0
100
AcDbMText
 10
6275.575028123714
 20
6708.0666537797
 30
0.0
 40
120.0
 41
0.0
 71
     5
 72
     1
  1
\A1;48
  7
STYLE1
 73
     1
 44
1.0
1001
ACAD
1000
MTEXTBEGIN
1070
    73
1070
     1
1070
    44
1040
1.0
1070
    74
1070
     0
1000
MTEXTEND
  0
LINE
  5
17FC8
330
17EBB
100
AcDbEntity
  8
0
  6
ByBlock
 62
     0
 48
50.0
100
AcDbLine
 10
6162.673057123657
 20
6608.0666537797
 30
0.0
 11
6114.673057123653
 21
6608.0666537797
 31
0.0
  0
LINE
  5
17FC9
330
17EBB
100
AcDbEntity
  8
0
  6
ByBlock
 62
     0
 48
50.0
100
AcDbLine
 10
6162.673057123657
 20
6608.0666537797
 30
0.0
 11
6114.673057123653
 21
6608.0666537797
 31
0.0
  0
INSERT
  5
17FCA
330
17EBB
100
AcDbEntity
  8
0
  6
ByBlock
 62
     0
 48
50.0
100
AcDbBlockReference
  2
_DOTSMALL
 10
6162.673057123657
 20
6608.0666537797
 30
0.0
 41
100.0
 42
100.0
 43
100.0
 50
180.0
  0
INSERT
  5
17FCB
330
17EBB
100
AcDbEntity
  8
0
  6
ByBlock
 62
     0
 48
50.0
100
AcDbBlockReference
  2
_DOTSMALL
 10
6114.673057123653
 20
6608.0666537797
 30
0.0
 41
100.0
 42
100.0
 43
100.0
  0
POINT
  5
17FCC
330
17EBB
100
AcDbEntity
  8
DEFPOINTS
  6
ByBlock
 62
     0
 48
50.0
100
AcDbPoint
 10
6162.673057123657
 20
7168.497424545865
 30
0.0
  0
POINT
  5
17FCD
330
17EBB
100
AcDbEntity
  8
DEFPOINTS
  6
ByBlock
 62
     0
 48
50.0
100
AcDbPoint
 10
6114.673057123653
 20
7142.497424545864
 30
0.0
  0
POINT
  5
17FCE
330
17EBB
100
AcDbEntity
  8
DEFPOINTS
  6
ByBlock
 62
     0
 48
50.0
100
AcDbPoint
 10
6114.673057123653
 20
6608.0666537797
 30
0.0
  0
ENDBLK
  5
17FCF
330
17EBB
100
AcDbEntity
  8
0
 48
50.0
100
AcDbBlockEnd
  0
BLOCK
  5
17FD0
330
17ECA
100
AcDbEntity
  8
0
 48
50.0
100
AcDbBlockBegin
  2
*D15
 70
     1
 10
0.0
 20
0.0
 30
0.0
  3
*D15
  1

  0
LINE
  5
1941B
330
17ECA
100
AcDbEntity
  8
寸法
 62
     0
 48
50.0
370
    -2
100
AcDbLine
 10
6114.673057123663
 20
9792.497424545919
 30
0.0
 11
6114.673057123663
 21
10348.30564417096
 31
0.0
  0
LINE
  5
1941C
330
17ECA
100
AcDbEntity
  8
寸法
 62
     0
 48
50.0
370
    -2
100
AcDbLine
 10
6004.673057123664
 20
9792.497424545913
 30
0.0
 11
6004.673057123664
 21
10348.30564417096
 31
0.0
  0
LINE
  5
1941D
330
17ECA
100
AcDbEntity
  8
寸法
 62
     0
 48
50.0
370
    -2
100
AcDbLine
 10
6114.673057123663
 20
10288.30564417096
 30
0.0
 11
6214.673057123663
 21
10288.30564417096
 31
0.0
  0
LINE
  5
1941E
330
17ECA
100
AcDbEntity
  8
寸法
 62
     0
 48
50.0
370
    -2
100
AcDbLine
 10
6004.673057123664
 20
10288.30564417096
 30
0.0
 11
5904.673057123664
 21
10288.30564417096
 31
0.0
  0
LINE
  5
1941F
330
17ECA
100
AcDbEntity
  8
寸法
 62
     0
 48
50.0
370
    -2
100
AcDbLine
 10
6114.673057123663
 20
10288.30564417096
 30
0.0
 11
6004.673057123664
 21
10288.30564417096
 31
0.0
  0
INSERT
  5
19420
330
17ECA
100
AcDbEntity
  8
寸法
 62
     0
 48
50.0
370
    -2
100
AcDbBlockReference
  2
_DOTSMALL
 10
6114.673057123663
 20
10288.30564417096
 30
0.0
 41
100.0
 42
100.0
 43
100.0
 50
180.0
  0
INSERT
  5
19421
330
17ECA
100
AcDbEntity
  8
寸法
 62
     0
 48
50.0
370
    -2
100
AcDbBlockReference
  2
_DOTSMALL
 10
6004.673057123664
 20
10288.30564417096
 30
0.0
 41
100.0
 42
100.0
 43
100.0
  0
MTEXT
  5
19422
330
17ECA
100
AcDbEntity
  8
寸法
 62
     7
 48
50.0
100
AcDbMText
 10
6059.673057123664
 20
10388.30564417096
 30
0.0
 40
120.0
 41
0.0
 71
     5
 72
     1
  1
\A1;110
  7
STYLE1
 73
     1
 44
1.0
1001
ACAD
1000
MTEXTBEGIN
1070
    73
1070
     1
1070
    44
1040
1.0
1070
    74
1070
     0
1000
MTEXTEND
  0
POINT
  5
19423
330
17ECA
100
AcDbEntity
  8
DEFPOINTS
 62
     0
 48
50.0
100
AcDbPoint
 10
6114.673057123663
 20
9772.497424545917
 30
0.0
  0
POINT
  5
19424
330
17ECA
100
AcDbEntity
  8
DEFPOINTS
 62
     0
 48
50.0
100
AcDbPoint
 10
6004.673057123664
 20
9772.497424545916
 30
0.0
  0
POINT
  5
19425
330
17ECA
100
AcDbEntity
  8
DEFPOINTS
 62
     0
 48
50.0
100
AcDbPoint
 10
6004.673057123664
 20
10288.30564417096
 30
0.0
  0
ENDBLK
  5
17FDC
330
17ECA
100
AcDbEntity
  8
0
 48
50.0
100
AcDbBlockEnd
  0
BLOCK
  5
17FDD
330
17ED8
100
AcDbEntity
  8
0
 48
50.0
100
AcDbBlockBegin
  2
*D16
 70
     1
 10
0.0
 20
0.0
 30
0.0
  3
*D16
  1

  0
LINE
  5
17FDE
330
17ED8
100
AcDbEntity
  8
0
  6
ByBlock
 62
     0
 48
50.0
100
AcDbLine
 10
9129.673057123664
 20
9772.497424545964
 30
0.0
 11
10182.20634459771
 21
9772.497424545964
 31
0.0
  0
LINE
  5
17FDF
330
17ED8
100
AcDbEntity
  8
0
  6
ByBlock
 62
     0
 48
50.0
100
AcDbLine
 10
9129.673057123637
 20
7142.497424545957
 30
0.0
 11
10182.20634459771
 21
7142.497424545957
 31
0.0
  0
LINE
  5
17FE0
330
17ED8
100
AcDbEntity
  8
0
  6
ByBlock
 62
     0
 48
50.0
100
AcDbLine
 10
10122.20634459771
 20
9772.497424545964
 30
0.0
 11
10122.20634459771
 21
7142.497424545957
 31
0.0
  0
INSERT
  5
17FE1
330
17ED8
100
AcDbEntity
  8
0
  6
ByBlock
 62
     0
 48
50.0
100
AcDbBlockReference
  2
_DOTSMALL
 10
10122.20634459771
 20
9772.497424545964
 30
0.0
 41
100.0
 42
100.0
 43
100.0
 50
90.0
  0
INSERT
  5
17FE2
330
17ED8
100
AcDbEntity
  8
0
  6
ByBlock
 62
     0
 48
50.0
100
AcDbBlockReference
  2
_DOTSMALL
 10
10122.20634459771
 20
7142.497424545957
 30
0.0
 41
100.0
 42
100.0
 43
100.0
 50
270.0
  0
MTEXT
  5
17FE3
330
17ED8
100
AcDbEntity
  8
0
  6
ByBlock
 62
     7
 48
50.0
100
AcDbMText
 10
10022.19453357408
 20
8457.497424545961
 30
0.0
 40
120.0
 41
0.0
 71
     5
 72
     1
  1
\A1;2630
  7
STYLE1
 11
0.0000000000000001
 21
1.0
 31
0.0
 73
     1
 44
1.0
1001
ACAD
1000
MTEXTBEGIN
1070
    73
1070
     1
1070
    44
1040
1.0
1070
    74
1070
     0
1000
MTEXTEND
  0
POINT
  5
17FE4
330
17ED8
100
AcDbEntity
  8
DEFPOINTS
  6
ByBlock
 62
     0
 48
50.0
100
AcDbPoint
 10
9109.673057123664
 20
9772.497424545964
 30
0.0
  0
POINT
  5
17FE5
330
17ED8
100
AcDbEntity
  8
DEFPOINTS
  6
ByBlock
 62
     0
 48
50.0
100
AcDbPoint
 10
9109.673057123639
 20
7142.497424545957
 30
0.0
  0
POINT
  5
17FE6
330
17ED8
100
AcDbEntity
  8
DEFPOINTS
  6
ByBlock
 62
     0
 48
50.0
100
AcDbPoint
 10
10122.20634459771
 20
7142.497424545957
 30
0.0
  0
ENDBLK
  5
17FE7
330
17ED8
100
AcDbEntity
  8
0
 48
50.0
100
AcDbBlockEnd
  0
BLOCK
  5
17FE8
330
17EE4
100
AcDbEntity
  8
0
 48
50.0
100
AcDbBlockBegin
  2
*D17
 70
     1
 10
0.0
 20
0.0
 30
0.0
  3
*D17
  1

  0
LINE
  5
17FE9
330
17EE4
100
AcDbEntity
  8
0
  6
ByBlock
 62
     0
 48
50.0
100
AcDbLine
 10
9129.673057123664
 20
9772.497424545964
 30
0.0
 11
9817.099402858074
 21
9772.497424545964
 31
0.0
  0
LINE
  5
17FEA
330
17EE4
100
AcDbEntity
  8
0
  6
ByBlock
 62
     0
 48
50.0
100
AcDbLine
 10
9129.673057123664
 20
9717.497424545967
 30
0.0
 11
9817.099402858074
 21
9717.497424545967
 31
0.0
  0
LINE
  5
17FEB
330
17EE4
100
AcDbEntity
  8
0
  6
ByBlock
 62
     0
 48
50.0
100
AcDbLine
 10
9757.099402858074
 20
9717.497424545967
 30
0.0
 11
9757.099402858074
 21
9617.497424545968
 31
0.0
  0
LINE
  5
17FEC
330
17EE4
100
AcDbEntity
  8
0
  6
ByBlock
 62
     0
 48
50.0
100
AcDbLine
 10
9757.099402858074
 20
9772.497424545964
 30
0.0
 11
9757.099402858074
 21
10189.46798729444
 31
0.0
  0
LINE
  5
17FED
330
17EE4
100
AcDbEntity
  8
0
  6
ByBlock
 62
     0
 48
50.0
100
AcDbLine
 10
9757.099402858074
 20
9717.497424545967
 30
0.0
 11
9757.099402858074
 21
9772.497424545964
 31
0.0
  0
INSERT
  5
17FEE
330
17EE4
100
AcDbEntity
  8
0
  6
ByBlock
 62
     0
 48
50.0
100
AcDbBlockReference
  2
_DOTSMALL
 10
9757.099402858074
 20
9717.497424545967
 30
0.0
 41
100.0
 42
100.0
 43
100.0
 50
90.0
  0
INSERT
  5
17FEF
330
17EE4
100
AcDbEntity
  8
0
  6
ByBlock
 62
     0
 48
50.0
100
AcDbBlockReference
  2
_DOTSMALL
 10
9757.099402858074
 20
9772.497424545964
 30
0.0
 41
100.0
 42
100.0
 43
100.0
 50
270.0
  0
MTEXT
  5
17FF0
330
17EE4
100
AcDbEntity
  8
0
  6
ByBlock
 62
     7
 48
50.0
100
AcDbMText
 10
9657.099402858074
 20
10080.9827059202
 30
0.0
 40
120.0
 41
0.0
 71
     5
 72
     1
  1
\A1;55
  7
STYLE1
 11
0.0000000000000001
 21
1.0
 31
0.0
 73
     1
 44
1.0
1001
ACAD
1000
MTEXTBEGIN
1070
    73
1070
     1
1070
    44
1040
1.0
1070
    74
1070
     0
1000
MTEXTEND
  0
POINT
  5
17FF1
330
17EE4
100
AcDbEntity
  8
DEFPOINTS
  6
ByBlock
 62
     0
 48
50.0
100
AcDbPoint
 10
9109.673057123664
 20
9772.497424545964
 30
0.0
  0
POINT
  5
17FF2
330
17EE4
100
AcDbEntity
  8
DEFPOINTS
  6
ByBlock
 62
     0
 48
50.0
100
AcDbPoint
 10
9109.673057123664
 20
9717.497424545967
 30
0.0
  0
POINT
  5
17FF3
330
17EE4
100
AcDbEntity
  8
DEFPOINTS
  6
ByBlock
 62
     0
 48
50.0
100
AcDbPoint
 10
9757.099402858074
 20
9717.497424545967
 30
0.0
  0
ENDBLK
  5
17FF4
330
17EE4
100
AcDbEntity
  8
0
 48
50.0
100
AcDbBlockEnd
  0
BLOCK
  5
17FF5
330
17EF2
100
AcDbEntity
  8
0
 48
50.0
100
AcDbBlockBegin
  2
*D18
 70
     1
 10
0.0
 20
0.0
 30
0.0
  3
*D18
  1

  0
LINE
  5
17FF6
330
17EF2
100
AcDbEntity
  8
0
  6
ByBlock
 62
     0
 48
50.0
100
AcDbLine
 10
9129.673057123664
 20
9717.497424545967
 30
0.0
 11
9817.099402858071
 21
9717.497424545967
 31
0.0
  0
LINE
  5
17FF7
330
17EF2
100
AcDbEntity
  8
0
  6
ByBlock
 62
     0
 48
50.0
100
AcDbLine
 10
9129.673057123637
 20
7197.497424545952
 30
0.0
 11
9817.099402858071
 21
7197.497424545952
 31
0.0
  0
LINE
  5
17FF8
330
17EF2
100
AcDbEntity
  8
0
  6
ByBlock
 62
     0
 48
50.0
100
AcDbLine
 10
9757.09940285807
 20
9717.497424545967
 30
0.0
 11
9757.09940285807
 21
7197.497424545952
 31
0.0
  0
INSERT
  5
17FF9
330
17EF2
100
AcDbEntity
  8
0
  6
ByBlock
 62
     0
 48
50.0
100
AcDbBlockReference
  2
_DOTSMALL
 10
9757.09940285807
 20
9717.497424545967
 30
0.0
 41
100.0
 42
100.0
 43
100.0
 50
90.0
  0
INSERT
  5
17FFA
330
17EF2
100
AcDbEntity
  8
0
  6
ByBlock
 62
     0
 48
50.0
100
AcDbBlockReference
  2
_DOTSMALL
 10
9757.09940285807
 20
7197.497424545952
 30
0.0
 41
100.0
 42
100.0
 43
100.0
 50
270.0
  0
MTEXT
  5
17FFB
330
17EF2
100
AcDbEntity
  8
0
  6
ByBlock
 62
     7
 48
50.0
100
AcDbMText
 10
9657.087591834448
 20
8457.497424545961
 30
0.0
 40
120.0
 41
0.0
 71
     5
 72
     1
  1
\A1;6X420=2520
  7
STYLE1
 11
0.0000000000000001
 21
1.0
 31
0.0
 73
     1
 44
1.0
1001
ACAD
1000
MTEXTBEGIN
1070
    73
1070
     1
1070
    44
1040
1.0
1070
    74
1070
     0
1000
MTEXTEND
  0
POINT
  5
17FFC
330
17EF2
100
AcDbEntity
  8
DEFPOINTS
  6
ByBlock
 62
     0
 48
50.0
100
AcDbPoint
 10
9109.673057123664
 20
9717.497424545967
 30
0.0
  0
POINT
  5
17FFD
330
17EF2
100
AcDbEntity
  8
DEFPOINTS
  6
ByBlock
 62
     0
 48
50.0
100
AcDbPoint
 10
9109.673057123639
 20
7197.497424545952
 30
0.0
  0
POINT
  5
17FFE
330
17EF2
100
AcDbEntity
  8
DEFPOINTS
  6
ByBlock
 62
     0
 48
50.0
100
AcDbPoint
 10
9757.09940285807
 20
7197.497424545952
 30
0.0
  0
ENDBLK
  5
17FFF
330
17EF2
100
AcDbEntity
  8
0
 48
50.0
100
AcDbBlockEnd
  0
BLOCK
  5
18000
330
17EFE
100
AcDbEntity
  8
0
 48
50.0
100
AcDbBlockBegin
  2
*D19
 70
     1
 10
0.0
 20
0.0
 30
0.0
  3
*D19
  1

  0
LINE
  5
18001
330
17EFE
100
AcDbEntity
  8
0
  6
ByBlock
 62
     0
 48
50.0
100
AcDbLine
 10
9129.673057123637
 20
7197.497424545952
 30
0.0
 11
9817.099402858048
 21
7197.497424545952
 31
0.0
  0
LINE
  5
18002
330
17EFE
100
AcDbEntity
  8
0
  6
ByBlock
 62
     0
 48
50.0
100
AcDbLine
 10
9129.673057123637
 20
7142.497424545957
 30
0.0
 11
9817.099402858048
 21
7142.497424545957
 31
0.0
  0
LINE
  5
18003
330
17EFE
100
AcDbEntity
  8
0
  6
ByBlock
 62
     0
 48
50.0
100
AcDbLine
 10
9757.099402858049
 20
7197.497424545952
 30
0.0
 11
9757.099402858049
 21
7297.497424545952
 31
0.0
  0
LINE
  5
18004
330
17EFE
100
AcDbEntity
  8
0
  6
ByBlock
 62
     0
 48
50.0
100
AcDbLine
 10
9757.099402858049
 20
7142.497424545957
 30
0.0
 11
9757.099402858049
 21
6656.150676266856
 31
0.0
  0
LINE
  5
18005
330
17EFE
100
AcDbEntity
  8
0
  6
ByBlock
 62
     0
 48
50.0
100
AcDbLine
 10
9757.099402858049
 20
7197.497424545952
 30
0.0
 11
9757.099402858049
 21
7142.497424545957
 31
0.0
  0
INSERT
  5
18006
330
17EFE
100
AcDbEntity
  8
0
  6
ByBlock
 62
     0
 48
50.0
100
AcDbBlockReference
  2
_DOTSMALL
 10
9757.099402858049
 20
7197.497424545952
 30
0.0
 41
100.0
 42
100.0
 43
100.0
 50
270.0
  0
INSERT
  5
18007
330
17EFE
100
AcDbEntity
  8
0
  6
ByBlock
 62
     0
 48
50.0
100
AcDbBlockReference
  2
_DOTSMALL
 10
9757.099402858049
 20
7142.497424545957
 30
0.0
 41
100.0
 42
100.0
 43
100.0
 50
90.0
  0
MTEXT
  5
18008
330
17EFE
100
AcDbEntity
  8
0
  6
ByBlock
 62
     7
 48
50.0
100
AcDbMText
 10
9657.099402858049
 20
6764.635957641094
 30
0.0
 40
120.0
 41
0.0
 71
     5
 72
     1
  1
\A1;55
  7
STYLE1
 11
0.0000000000000001
 21
1.0
 31
0.0
 73
     1
 44
1.0
1001
ACAD
1000
MTEXTBEGIN
1070
    73
1070
     1
1070
    44
1040
1.0
1070
    74
1070
     0
1000
MTEXTEND
  0
POINT
  5
18009
330
17EFE
100
AcDbEntity
  8
DEFPOINTS
  6
ByBlock
 62
     0
 48
50.0
100
AcDbPoint
 10
9109.673057123639
 20
7197.497424545952
 30
0.0
  0
POINT
  5
1800A
330
17EFE
100
AcDbEntity
  8
DEFPOINTS
  6
ByBlock
 62
     0
 48
50.0
100
AcDbPoint
 10
9109.673057123639
 20
7142.497424545957
 30
0.0
  0
POINT
  5
1800B
330
17EFE
100
AcDbEntity
  8
DEFPOINTS
  6
ByBlock
 62
     0
 48
50.0
100
AcDbPoint
 10
9757.099402858049
 20
7142.497424545957
 30
0.0
  0
ENDBLK
  5
1800C
330
17EFE
100
AcDbEntity
  8
0
 48
50.0
100
AcDbBlockEnd
  0
BLOCK
  5
1800D
330
17F0C
100
AcDbEntity
  8
0
 48
50.0
100
AcDbBlockBegin
  2
*D20
 70
     1
 10
0.0
 20
0.0
 30
0.0
  3
*D20
  1

  0
LINE
  5
1800E
330
17F0C
100
AcDbEntity
  8
0
  6
ByBlock
 62
     0
 48
50.0
100
AcDbLine
 10
9109.673057123639
 20
7122.497424545956
 30
0.0
 11
9109.673057123639
 21
6548.066653779702
 31
0.0
  0
LINE
  5
1800F
330
17F0C
100
AcDbEntity
  8
0
  6
ByBlock
 62
     0
 48
50.0
100
AcDbLine
 10
9054.673057123642
 20
7122.497424545952
 30
0.0
 11
9054.673057123642
 21
6548.066653779702
 31
0.0
  0
LINE
  5
18010
330
17F0C
100
AcDbEntity
  8
0
  6
ByBlock
 62
     0
 48
50.0
100
AcDbLine
 10
9054.673057123642
 20
6608.066653779701
 30
0.0
 11
8954.67305712364
 21
6608.066653779701
 31
0.0
  0
LINE
  5
18011
330
17F0C
100
AcDbEntity
  8
0
  6
ByBlock
 62
     0
 48
50.0
100
AcDbLine
 10
9109.673057123639
 20
6608.066653779701
 30
0.0
 11
9526.643619872116
 21
6608.066653779701
 31
0.0
  0
LINE
  5
18012
330
17F0C
100
AcDbEntity
  8
0
  6
ByBlock
 62
     0
 48
50.0
100
AcDbLine
 10
9054.673057123642
 20
6608.066653779701
 30
0.0
 11
9109.673057123639
 21
6608.066653779701
 31
0.0
  0
INSERT
  5
18013
330
17F0C
100
AcDbEntity
  8
0
  6
ByBlock
 62
     0
 48
50.0
100
AcDbBlockReference
  2
_DOTSMALL
 10
9054.673057123642
 20
6608.066653779701
 30
0.0
 41
100.0
 42
100.0
 43
100.0
  0
INSERT
  5
18014
330
17F0C
100
AcDbEntity
  8
0
  6
ByBlock
 62
     0
 48
50.0
100
AcDbBlockReference
  2
_DOTSMALL
 10
9109.673057123639
 20
6608.066653779701
 30
0.0
 41
100.0
 42
100.0
 43
100.0
 50
180.0
  0
MTEXT
  5
18015
330
17F0C
100
AcDbEntity
  8
0
  6
ByBlock
 62
     7
 48
50.0
100
AcDbMText
 10
9418.158338497876
 20
6708.066653779702
 30
0.0
 40
120.0
 41
0.0
 71
     5
 72
     1
  1
\A1;55
  7
STYLE1
 73
     1
 44
1.0
1001
ACAD
1000
MTEXTBEGIN
1070
    73
1070
     1
1070
    44
1040
1.0
1070
    74
1070
     0
1000
MTEXTEND
  0
POINT
  5
18016
330
17F0C
100
AcDbEntity
  8
DEFPOINTS
  6
ByBlock
 62
     0
 48
50.0
100
AcDbPoint
 10
9109.673057123639
 20
7142.497424545957
 30
0.0
  0
POINT
  5
18017
330
17F0C
100
AcDbEntity
  8
DEFPOINTS
  6
ByBlock
 62
     0
 48
50.0
100
AcDbPoint
 10
9054.673057123642
 20
7142.497424545952
 30
0.0
  0
POINT
  5
18018
330
17F0C
100
AcDbEntity
  8
DEFPOINTS
  6
ByBlock
 62
     0
 48
50.0
100
AcDbPoint
 10
9054.673057123642
 20
6608.066653779701
 30
0.0
  0
ENDBLK
  5
18019
330
17F0C
100
AcDbEntity
  8
0
 48
50.0
100
AcDbBlockEnd
  0
BLOCK
  5
1801A
330
17F1A
100
AcDbEntity
  8
0
 48
50.0
100
AcDbBlockBegin
  2
*D21
 70
     1
 10
0.0
 20
0.0
 30
0.0
  3
*D21
  1

  0
LINE
  5
1801B
330
17F1A
100
AcDbEntity
  8
0
  6
ByBlock
 62
     0
 48
50.0
100
AcDbLine
 10
9054.673057123642
 20
7122.497424545952
 30
0.0
 11
9054.673057123642
 21
6548.0666537797
 31
0.0
  0
LINE
  5
1801C
330
17F1A
100
AcDbEntity
  8
0
  6
ByBlock
 62
     0
 48
50.0
100
AcDbLine
 10
9006.67305712364
 20
7148.497424545865
 30
0.0
 11
9006.67305712364
 21
6548.0666537797
 31
0.0
  0
LINE
  5
1801D
330
17F1A
100
AcDbEntity
  8
0
  6
ByBlock
 62
     0
 48
50.0
100
AcDbLine
 10
9054.673057123642
 20
6608.0666537797
 30
0.0
 11
9154.673057123641
 21
6608.0666537797
 31
0.0
  0
LINE
  5
1801E
330
17F1A
100
AcDbEntity
  8
0
  6
ByBlock
 62
     0
 48
50.0
100
AcDbLine
 10
9006.67305712364
 20
6608.0666537797
 30
0.0
 11
8906.673057123638
 21
6608.0666537797
 31
0.0
  0
MTEXT
  5
1801F
330
17F1A
100
AcDbEntity
  8
0
  6
ByBlock
 62
     7
 48
50.0
100
AcDbMText
 10
8895.710159474891
 20
6708.0666537797
 30
0.0
 40
120.0
 41
0.0
 71
     5
 72
     1
  1
\A1;48
  7
STYLE1
 73
     1
 44
1.0
1001
ACAD
1000
MTEXTBEGIN
1070
    73
1070
     1
1070
    44
1040
1.0
1070
    74
1070
     0
1000
MTEXTEND
  0
LINE
  5
18020
330
17F1A
100
AcDbEntity
  8
0
  6
ByBlock
 62
     0
 48
50.0
100
AcDbLine
 10
9054.673057123642
 20
6608.0666537797
 30
0.0
 11
9006.67305712364
 21
6608.0666537797
 31
0.0
  0
LINE
  5
18021
330
17F1A
100
AcDbEntity
  8
0
  6
ByBlock
 62
     0
 48
50.0
100
AcDbLine
 10
9054.673057123642
 20
6608.0666537797
 30
0.0
 11
9006.67305712364
 21
6608.0666537797
 31
0.0
  0
INSERT
  5
18022
330
17F1A
100
AcDbEntity
  8
0
  6
ByBlock
 62
     0
 48
50.0
100
AcDbBlockReference
  2
_DOTSMALL
 10
9054.673057123642
 20
6608.0666537797
 30
0.0
 41
100.0
 42
100.0
 43
100.0
 50
180.0
  0
INSERT
  5
18023
330
17F1A
100
AcDbEntity
  8
0
  6
ByBlock
 62
     0
 48
50.0
100
AcDbBlockReference
  2
_DOTSMALL
 10
9006.67305712364
 20
6608.0666537797
 30
0.0
 41
100.0
 42
100.0
 43
100.0
  0
POINT
  5
18024
330
17F1A
100
AcDbEntity
  8
DEFPOINTS
  6
ByBlock
 62
     0
 48
50.0
100
AcDbPoint
 10
9054.673057123642
 20
7142.497424545952
 30
0.0
  0
POINT
  5
18025
330
17F1A
100
AcDbEntity
  8
DEFPOINTS
  6
ByBlock
 62
     0
 48
50.0
100
AcDbPoint
 10
9006.67305712364
 20
7168.497424545865
 30
0.0
  0
POINT
  5
18026
330
17F1A
100
AcDbEntity
  8
DEFPOINTS
  6
ByBlock
 62
     0
 48
50.0
100
AcDbPoint
 10
9006.67305712364
 20
6608.0666537797
 30
0.0
  0
ENDBLK
  5
18027
330
17F1A
100
AcDbEntity
  8
0
 48
50.0
100
AcDbBlockEnd
  0
BLOCK
  5
18028
330
17F29
100
AcDbEntity
  8
0
 48
50.0
100
AcDbBlockBegin
  2
*D22
 70
     1
 10
0.0
 20
0.0
 30
0.0
  3
*D22
  1

  0
LINE
  5
19410
330
17F29
100
AcDbEntity
  8
寸法
 62
     0
 48
50.0
370
    -2
100
AcDbLine
 10
9054.673057123663
 20
9792.497424545963
 30
0.0
 11
9054.673057123663
 21
10348.30564417095
 31
0.0
  0
LINE
  5
19411
330
17F29
100
AcDbEntity
  8
寸法
 62
     0
 48
50.0
370
    -2
100
AcDbLine
 10
9109.673057123664
 20
9792.497424545963
 30
0.0
 11
9109.673057123664
 21
10348.30564417095
 31
0.0
  0
LINE
  5
19412
330
17F29
100
AcDbEntity
  8
寸法
 62
     0
 48
50.0
370
    -2
100
AcDbLine
 10
9054.673057123663
 20
10288.30564417095
 30
0.0
 11
8954.673057123663
 21
10288.30564417095
 31
0.0
  0
LINE
  5
19413
330
17F29
100
AcDbEntity
  8
寸法
 62
     0
 48
50.0
370
    -2
100
AcDbLine
 10
9109.673057123664
 20
10288.30564417095
 30
0.0
 11
9526.643619872141
 21
10288.30564417095
 31
0.0
  0
LINE
  5
19414
330
17F29
100
AcDbEntity
  8
寸法
 62
     0
 48
50.0
370
    -2
100
AcDbLine
 10
9054.673057123663
 20
10288.30564417095
 30
0.0
 11
9109.673057123664
 21
10288.30564417095
 31
0.0
  0
INSERT
  5
19415
330
17F29
100
AcDbEntity
  8
寸法
 62
     0
 48
50.0
370
    -2
100
AcDbBlockReference
  2
_DOTSMALL
 10
9054.673057123663
 20
10288.30564417095
 30
0.0
 41
100.0
 42
100.0
 43
100.0
  0
INSERT
  5
19416
330
17F29
100
AcDbEntity
  8
寸法
 62
     0
 48
50.0
370
    -2
100
AcDbBlockReference
  2
_DOTSMALL
 10
9109.673057123664
 20
10288.30564417095
 30
0.0
 41
100.0
 42
100.0
 43
100.0
 50
180.0
  0
MTEXT
  5
19417
330
17F29
100
AcDbEntity
  8
寸法
 62
     7
 48
50.0
100
AcDbMText
 10
9418.158338497901
 20
10388.30564417095
 30
0.0
 40
120.0
 41
0.0
 71
     5
 72
     1
  1
\A1;55
  7
STYLE1
 73
     1
 44
1.0
1001
ACAD
1000
MTEXTBEGIN
1070
    73
1070
     1
1070
    44
1040
1.0
1070
    74
1070
     0
1000
MTEXTEND
  0
POINT
  5
19418
330
17F29
100
AcDbEntity
  8
DEFPOINTS
 62
     0
 48
50.0
100
AcDbPoint
 10
9054.673057123663
 20
9772.497424545964
 30
0.0
  0
POINT
  5
19419
330
17F29
100
AcDbEntity
  8
DEFPOINTS
 62
     0
 48
50.0
100
AcDbPoint
 10
9109.673057123664
 20
9772.497424545964
 30
0.0
  0
POINT
  5
1941A
330
17F29
100
AcDbEntity
  8
DEFPOINTS
 62
     0
 48
50.0
100
AcDbPoint
 10
9109.673057123664
 20
10288.30564417095
 30
0.0
  0
ENDBLK
  5
18034
330
17F29
100
AcDbEntity
  8
0
 48
50.0
100
AcDbBlockEnd
  0
BLOCK
  5
18917
330
1890D
100
AcDbEntity
  8
0
 48
50.0
100
AcDbBlockBegin
  2
*D23
 70
     1
 10
0.0
 20
0.0
 30
0.0
  3
*D23
  1

  0
LINE
  5
18CE5
330
1890D
100
AcDbEntity
  8
寸法
 62
     0
 48
50.0
370
    -2
100
AcDbLine
 10
11405.99967762864
 20
4677.931598713261
 30
0.0
 11
10522.24954844538
 21
4677.931598713261
 31
0.0
  0
LINE
  5
18CE6
330
1890D
100
AcDbEntity
  8
寸法
 62
     0
 48
50.0
370
    -2
100
AcDbLine
 10
11405.99967762864
 20
2587.931598713261
 30
0.0
 11
10522.24954844538
 21
2587.931598713262
 31
0.0
  0
LINE
  5
18CE7
330
1890D
100
AcDbEntity
  8
寸法
 62
     0
 48
50.0
370
    -2
100
AcDbLine
 10
10582.24954844538
 20
4677.931598713261
 30
0.0
 11
10582.24954844538
 21
2587.931598713262
 31
0.0
  0
INSERT
  5
18CE8
330
1890D
100
AcDbEntity
  8
寸法
 62
     0
 48
50.0
370
    -2
100
AcDbBlockReference
  2
_DOTSMALL
 10
10582.24954844538
 20
4677.931598713261
 30
0.0
 41
100.0
 42
100.0
 43
100.0
 50
90.0
  0
INSERT
  5
18CE9
330
1890D
100
AcDbEntity
  8
寸法
 62
     0
 48
50.0
370
    -2
100
AcDbBlockReference
  2
_DOTSMALL
 10
10582.24954844538
 20
2587.931598713262
 30
0.0
 41
100.0
 42
100.0
 43
100.0
 50
270.0
  0
MTEXT
  5
18CEA
330
1890D
100
AcDbEntity
  8
寸法
 62
     7
 48
50.0
100
AcDbMText
 10
10482.23773742176
 20
3632.931598713264
 30
0.0
 40
120.0
 41
0.0
 71
     5
 72
     1
  1
\A1;2090
  7
STYLE1
 11
0.0000000000000001
 21
1.0
 31
0.0
 73
     1
 44
1.0
1001
ACAD
1000
MTEXTBEGIN
1070
    73
1070
     1
1070
    44
1040
1.0
1070
    74
1070
     0
1000
MTEXTEND
  0
POINT
  5
18CEB
330
1890D
100
AcDbEntity
  8
DEFPOINTS
 62
     0
 48
50.0
100
AcDbPoint
 10
11425.99967762864
 20
4677.931598713261
 30
0.0
  0
POINT
  5
18CEC
330
1890D
100
AcDbEntity
  8
DEFPOINTS
 62
     0
 48
50.0
100
AcDbPoint
 10
11425.99967762864
 20
2587.931598713261
 30
0.0
  0
POINT
  5
18CED
330
1890D
100
AcDbEntity
  8
DEFPOINTS
 62
     0
 48
50.0
100
AcDbPoint
 10
10582.24954844538
 20
2587.931598713262
 30
0.0
  0
ENDBLK
  5
18918
330
1890D
100
AcDbEntity
  8
0
 48
50.0
100
AcDbBlockEnd
  0
BLOCK
  5
18932
330
18926
100
AcDbEntity
  8
0
 48
50.0
100
AcDbBlockBegin
  2
*D24
 70
     1
 10
0.0
 20
0.0
 30
0.0
  3
*D24
  1

  0
LINE
  5
18CD0
330
18926
100
AcDbEntity
  8
寸法
 62
     0
 48
50.0
370
    -2
100
AcDbLine
 10
11405.99967762864
 20
2587.931598713261
 30
0.0
 11
10522.24954844538
 21
2587.931598713262
 31
0.0
  0
LINE
  5
18CD1
330
18926
100
AcDbEntity
  8
寸法
 62
     0
 48
50.0
370
    -2
100
AcDbLine
 10
11350.99967762864
 20
2537.931598713262
 30
0.0
 11
10522.24954844538
 21
2537.931598713262
 31
0.0
  0
LINE
  5
18CD2
330
18926
100
AcDbEntity
  8
寸法
 62
     0
 48
50.0
370
    -2
100
AcDbLine
 10
10582.24954844538
 20
2587.931598713262
 30
0.0
 11
10582.24954844538
 21
2687.931598713262
 31
0.0
  0
LINE
  5
18CD3
330
18926
100
AcDbEntity
  8
寸法
 62
     0
 48
50.0
370
    -2
100
AcDbLine
 10
10582.24954844538
 20
2537.931598713262
 30
0.0
 11
10582.24954844538
 21
2048.134354618771
 31
0.0
  0
LINE
  5
18CD4
330
18926
100
AcDbEntity
  8
寸法
 62
     0
 48
50.0
370
    -2
100
AcDbLine
 10
10582.24954844538
 20
2587.931598713262
 30
0.0
 11
10582.24954844538
 21
2537.931598713262
 31
0.0
  0
INSERT
  5
18CD5
330
18926
100
AcDbEntity
  8
寸法
 62
     0
 48
50.0
370
    -2
100
AcDbBlockReference
  2
_DOTSMALL
 10
10582.24954844538
 20
2587.931598713262
 30
0.0
 41
100.0
 42
100.0
 43
100.0
 50
270.0
  0
INSERT
  5
18CD6
330
18926
100
AcDbEntity
  8
寸法
 62
     0
 48
50.0
370
    -2
100
AcDbBlockReference
  2
_DOTSMALL
 10
10582.24954844538
 20
2537.931598713262
 30
0.0
 41
100.0
 42
100.0
 43
100.0
 50
90.0
  0
MTEXT
  5
18CD7
330
18926
100
AcDbEntity
  8
寸法
 62
     7
 48
50.0
100
AcDbMText
 10
10482.24954844538
 20
2154.181598713261
 30
0.0
 40
120.0
 41
0.0
 71
     5
 72
     1
  1
\A1;50
  7
STYLE1
 11
0.0000000000000001
 21
1.0
 31
0.0
 73
     1
 44
1.0
1001
ACAD
1000
MTEXTBEGIN
1070
    73
1070
     1
1070
    44
1040
1.0
1070
    74
1070
     0
1000
MTEXTEND
  0
POINT
  5
18CD8
330
18926
100
AcDbEntity
  8
DEFPOINTS
 62
     0
 48
50.0
100
AcDbPoint
 10
11425.99967762864
 20
2587.931598713261
 30
0.0
  0
POINT
  5
18CD9
330
18926
100
AcDbEntity
  8
DEFPOINTS
 62
     0
 48
50.0
100
AcDbPoint
 10
11370.99967762864
 20
2537.931598713262
 30
0.0
  0
POINT
  5
18CDA
330
18926
100
AcDbEntity
  8
DEFPOINTS
 62
     0
 48
50.0
100
AcDbPoint
 10
10582.24954844538
 20
2537.931598713262
 30
0.0
  0
ENDBLK
  5
18933
330
18926
100
AcDbEntity
  8
0
 48
50.0
100
AcDbBlockEnd
  0
BLOCK
  5
1893E
330
18934
100
AcDbEntity
  8
0
 48
50.0
100
AcDbBlockBegin
  2
*D25
 70
     1
 10
0.0
 20
0.0
 30
0.0
  3
*D25
  1

  0
LINE
  5
18CC7
330
18934
100
AcDbEntity
  8
寸法
 62
     0
 48
50.0
370
    -2
100
AcDbLine
 10
14075.99967762864
 20
2537.931598713262
 30
0.0
 11
14820.92683560076
 21
2537.931598713262
 31
0.0
  0
LINE
  5
18CC8
330
18934
100
AcDbEntity
  8
寸法
 62
     0
 48
50.0
370
    -2
100
AcDbLine
 10
14170.99967762864
 20
4857.931598713261
 30
0.0
 11
14820.92683560077
 21
4857.93159871326
 31
0.0
  0
LINE
  5
18CC9
330
18934
100
AcDbEntity
  8
寸法
 62
     0
 48
50.0
370
    -2
100
AcDbLine
 10
14760.92683560076
 20
2537.931598713262
 30
0.0
 11
14760.92683560077
 21
4857.93159871326
 31
0.0
  0
INSERT
  5
18CCA
330
18934
100
AcDbEntity
  8
寸法
 62
     0
 48
50.0
370
    -2
100
AcDbBlockReference
  2
_DOTSMALL
 10
14760.92683560076
 20
2537.931598713262
 30
0.0
 41
100.0
 42
100.0
 43
100.0
 50
270.0
  0
INSERT
  5
18CCB
330
18934
100
AcDbEntity
  8
寸法
 62
     0
 48
50.0
370
    -2
100
AcDbBlockReference
  2
_DOTSMALL
 10
14760.92683560077
 20
4857.93159871326
 30
0.0
 41
100.0
 42
100.0
 43
100.0
 50
90.0
  0
MTEXT
  5
18CCC
330
18934
100
AcDbEntity
  8
寸法
 62
     7
 48
50.0
100
AcDbMText
 10
14660.91502457714
 20
3692.931598713261
 30
0.0
 40
120.0
 41
0.0
 71
     5
 72
     1
  1
\A1;2320
  7
STYLE1
 11
0.0000000000000001
 21
1.0
 31
0.0
 73
     1
 44
1.0
1001
ACAD
1000
MTEXTBEGIN
1070
    73
1070
     1
1070
    44
1040
1.0
1070
    74
1070
     0
1000
MTEXTEND
  0
POINT
  5
18CCD
330
18934
100
AcDbEntity
  8
DEFPOINTS
 62
     0
 48
50.0
100
AcDbPoint
 10
14055.99967762864
 20
2537.931598713262
 30
0.0
  0
POINT
  5
18CCE
330
18934
100
AcDbEntity
  8
DEFPOINTS
 62
     0
 48
50.0
100
AcDbPoint
 10
14150.99967762864
 20
4857.931598713261
 30
0.0
  0
POINT
  5
18CCF
330
18934
100
AcDbEntity
  8
DEFPOINTS
 62
     0
 48
50.0
100
AcDbPoint
 10
14760.92683560077
 20
4857.93159871326
 30
0.0
  0
ENDBLK
  5
1893F
330
18934
100
AcDbEntity
  8
0
 48
50.0
100
AcDbBlockEnd
  0
BLOCK
  5
18971
330
18966
100
AcDbEntity
  8
0
 48
50.0
100
AcDbBlockBegin
  2
*D26
 70
     1
 10
0.0
 20
0.0
 30
0.0
  3
*D26
  1

  0
LINE
  5
18CA0
330
18966
100
AcDbEntity
  8
寸法
 62
     0
 48
50.0
370
    -2
100
AcDbLine
 10
14055.99967762864
 20
4879.742278324915
 30
0.0
 11
14055.99967762864
 21
5371.589052292567
 31
0.0
  0
LINE
  5
18CA1
330
18966
100
AcDbEntity
  8
寸法
 62
     0
 48
50.0
370
    -2
100
AcDbLine
 10
14135.99967762864
 20
4877.931598713264
 30
0.0
 11
14135.99967762864
 21
5371.589052292567
 31
0.0
  0
LINE
  5
18CA2
330
18966
100
AcDbEntity
  8
寸法
 62
     0
 48
50.0
370
    -2
100
AcDbLine
 10
14055.99967762864
 20
5311.589052292568
 30
0.0
 11
14135.99967762864
 21
5311.589052292568
 31
0.0
  0
LINE
  5
18CA3
330
18966
100
AcDbEntity
  8
寸法
 62
     0
 48
50.0
370
    -2
100
AcDbLine
 10
14135.99967762864
 20
5311.589052292568
 30
0.0
 11
14448.09416581762
 21
5311.589052292568
 31
0.0
  0
INSERT
  5
18CA4
330
18966
100
AcDbEntity
  8
寸法
 62
     0
 48
50.0
370
    -2
100
AcDbBlockReference
  2
_DOTSMALL
 10
14055.99967762864
 20
5311.589052292568
 30
0.0
 41
100.0
 42
100.0
 43
100.0
 50
180.0
  0
INSERT
  5
18CA5
330
18966
100
AcDbEntity
  8
寸法
 62
     0
 48
50.0
370
    -2
100
AcDbBlockReference
  2
_DOTSMALL
 10
14135.99967762864
 20
5311.589052292568
 30
0.0
 41
100.0
 42
100.0
 43
100.0
  0
MTEXT
  5
18CA6
330
18966
100
AcDbEntity
  8
寸法
 62
     7
 48
50.0
100
AcDbMText
 10
14342.04692172313
 20
5411.589052292567
 30
0.0
 40
120.0
 41
0.0
 71
     5
 72
     1
  1
\A1;80
  7
STYLE1
 73
     1
 44
1.0
1001
ACAD
1000
MTEXTBEGIN
1070
    73
1070
     1
1070
    44
1040
1.0
1070
    74
1070
     0
1000
MTEXTEND
  0
POINT
  5
18CA7
330
18966
100
AcDbEntity
  8
DEFPOINTS
 62
     0
 48
50.0
100
AcDbPoint
 10
14055.99967762864
 20
4859.742278324915
 30
0.0
  0
POINT
  5
18CA8
330
18966
100
AcDbEntity
  8
DEFPOINTS
 62
     0
 48
50.0
100
AcDbPoint
 10
14135.99967762864
 20
4857.931598713263
 30
0.0
  0
POINT
  5
18CA9
330
18966
100
AcDbEntity
  8
DEFPOINTS
 62
     0
 48
50.0
100
AcDbPoint
 10
14135.99967762864
 20
5311.589052292568
 30
0.0
  0
ENDBLK
  5
18972
330
18966
100
AcDbEntity
  8
0
 48
50.0
100
AcDbBlockEnd
  0
BLOCK
  5
1897D
330
18973
100
AcDbEntity
  8
0
 48
50.0
100
AcDbBlockBegin
  2
*D27
 70
     1
 10
0.0
 20
0.0
 30
0.0
  3
*D27
  1

  0
LINE
  5
199E2
330
18973
100
AcDbEntity
  8
寸法
 62
     0
 48
50.0
370
    -2
100
AcDbLine
 10
14135.99967762864
 20
4877.931598713264
 30
0.0
 11
14135.99967762864
 21
5591.799739024184
 31
0.0
  0
LINE
  5
199E3
330
18973
100
AcDbEntity
  8
寸法
 62
     0
 48
50.0
370
    -2
100
AcDbLine
 10
11365.99967762864
 20
4932.931598713267
 30
0.0
 11
11365.99967762864
 21
5591.799739024184
 31
0.0
  0
LINE
  5
199E4
330
18973
100
AcDbEntity
  8
寸法
 62
     0
 48
50.0
370
    -2
100
AcDbLine
 10
14135.99967762864
 20
5531.799739024183
 30
0.0
 11
11365.99967762864
 21
5531.799739024183
 31
0.0
  0
INSERT
  5
199E5
330
18973
100
AcDbEntity
  8
寸法
 62
     0
 48
50.0
370
    -2
100
AcDbBlockReference
  2
_DOTSMALL
 10
14135.99967762864
 20
5531.799739024183
 30
0.0
 41
100.0
 42
100.0
 43
100.0
  0
INSERT
  5
199E6
330
18973
100
AcDbEntity
  8
寸法
 62
     0
 48
50.0
370
    -2
100
AcDbBlockReference
  2
_DOTSMALL
 10
11365.99967762864
 20
5531.799739024183
 30
0.0
 41
100.0
 42
100.0
 43
100.0
 50
180.0
  0
MTEXT
  5
199E7
330
18973
100
AcDbEntity
  8
寸法
 62
     7
 48
50.0
100
AcDbMText
 10
12750.99967762864
 20
5631.811550047805
 30
0.0
 40
120.0
 41
0.0
 71
     5
 72
     1
  1
\A1;2770
  7
STYLE1
 73
     1
 44
1.0
1001
ACAD
1000
MTEXTBEGIN
1070
    73
1070
     1
1070
    44
1040
1.0
1070
    74
1070
     0
1000
MTEXTEND
  0
POINT
  5
199E8
330
18973
100
AcDbEntity
  8
DEFPOINTS
 62
     0
 48
50.0
100
AcDbPoint
 10
14135.99967762864
 20
4857.931598713263
 30
0.0
  0
POINT
  5
199E9
330
18973
100
AcDbEntity
  8
DEFPOINTS
 62
     0
 48
50.0
100
AcDbPoint
 10
11365.99967762864
 20
4912.931598713267
 30
0.0
  0
POINT
  5
199EA
330
18973
100
AcDbEntity
  8
DEFPOINTS
 62
     0
 48
50.0
100
AcDbPoint
 10
11365.99967762864
 20
5531.799739024183
 30
0.0
  0
ENDBLK
  5
1897E
330
18973
100
AcDbEntity
  8
0
 48
50.0
100
AcDbBlockEnd
  0
BLOCK
  5
18989
330
1897F
100
AcDbEntity
  8
0
 48
50.0
100
AcDbBlockBegin
  2
*D28
 70
     1
 10
0.0
 20
0.0
 30
0.0
  3
*D28
  1

  0
LINE
  5
199EB
330
1897F
100
AcDbEntity
  8
寸法
 62
     0
 48
50.0
370
    -2
100
AcDbLine
 10
14055.99967762864
 20
4879.742278324915
 30
0.0
 11
14055.99967762864
 21
5371.589052292567
 31
0.0
  0
LINE
  5
199EC
330
1897F
100
AcDbEntity
  8
寸法
 62
     0
 48
50.0
370
    -2
100
AcDbLine
 10
11425.99967762864
 20
4928.933216836238
 30
0.0
 11
11425.99967762864
 21
5371.589052292567
 31
0.0
  0
LINE
  5
199ED
330
1897F
100
AcDbEntity
  8
寸法
 62
     0
 48
50.0
370
    -2
100
AcDbLine
 10
14055.99967762864
 20
5311.589052292568
 30
0.0
 11
11425.99967762864
 21
5311.589052292568
 31
0.0
  0
INSERT
  5
199EE
330
1897F
100
AcDbEntity
  8
寸法
 62
     0
 48
50.0
370
    -2
100
AcDbBlockReference
  2
_DOTSMALL
 10
14055.99967762864
 20
5311.589052292568
 30
0.0
 41
100.0
 42
100.0
 43
100.0
  0
INSERT
  5
199EF
330
1897F
100
AcDbEntity
  8
寸法
 62
     0
 48
50.0
370
    -2
100
AcDbBlockReference
  2
_DOTSMALL
 10
11425.99967762864
 20
5311.589052292568
 30
0.0
 41
100.0
 42
100.0
 43
100.0
 50
180.0
  0
MTEXT
  5
199F0
330
1897F
100
AcDbEntity
  8
寸法
 62
     7
 48
50.0
100
AcDbMText
 10
12740.99967762864
 20
5411.600863316189
 30
0.0
 40
120.0
 41
0.0
 71
     5
 72
     1
  1
\A1;柱外寸法2630
  7
STYLE1
 73
     1
 44
1.0
1001
ACAD
1000
MTEXTBEGIN
1070
    73
1070
     1
1070
    44
1040
1.0
1070
    74
1070
     0
1000
MTEXTEND
  0
POINT
  5
199F1
330
1897F
100
AcDbEntity
  8
DEFPOINTS
 62
     0
 48
50.0
100
AcDbPoint
 10
14055.99967762864
 20
4859.742278324915
 30
0.0
  0
POINT
  5
199F2
330
1897F
100
AcDbEntity
  8
DEFPOINTS
 62
     0
 48
50.0
100
AcDbPoint
 10
11425.99967762864
 20
4908.933216836238
 30
0.0
  0
POINT
  5
199F3
330
1897F
100
AcDbEntity
  8
DEFPOINTS
 62
     0
 48
50.0
100
AcDbPoint
 10
11425.99967762864
 20
5311.589052292568
 30
0.0
  0
ENDBLK
  5
1898A
330
1897F
100
AcDbEntity
  8
0
 48
50.0
100
AcDbBlockEnd
  0
BLOCK
  5
18997
330
1898B
100
AcDbEntity
  8
0
 48
50.0
100
AcDbBlockBegin
  2
*D29
 70
     1
 10
0.0
 20
0.0
 30
0.0
  3
*D29
  1

  0
LINE
  5
18C83
330
1898B
100
AcDbEntity
  8
寸法
 62
     0
 48
50.0
370
    -2
100
AcDbLine
 10
11425.99967762864
 20
4928.933216836238
 30
0.0
 11
11425.99967762864
 21
5371.589052292566
 31
0.0
  0
LINE
  5
18C84
330
1898B
100
AcDbEntity
  8
寸法
 62
     0
 48
50.0
370
    -2
100
AcDbLine
 10
11365.99967762864
 20
4932.931598713267
 30
0.0
 11
11365.99967762864
 21
5371.589052292566
 31
0.0
  0
LINE
  5
18C85
330
1898B
100
AcDbEntity
  8
寸法
 62
     0
 48
50.0
370
    -2
100
AcDbLine
 10
11425.99967762864
 20
5311.589052292566
 30
0.0
 11
11525.99967762864
 21
5311.589052292566
 31
0.0
  0
LINE
  5
18C86
330
1898B
100
AcDbEntity
  8
寸法
 62
     0
 48
50.0
370
    -2
100
AcDbLine
 10
11365.99967762864
 20
5311.589052292566
 30
0.0
 11
10946.72408707746
 21
5311.589052292566
 31
0.0
  0
LINE
  5
18C87
330
1898B
100
AcDbEntity
  8
寸法
 62
     0
 48
50.0
370
    -2
100
AcDbLine
 10
11425.99967762864
 20
5311.589052292566
 30
0.0
 11
11365.99967762864
 21
5311.589052292566
 31
0.0
  0
INSERT
  5
18C88
330
1898B
100
AcDbEntity
  8
寸法
 62
     0
 48
50.0
370
    -2
100
AcDbBlockReference
  2
_DOTSMALL
 10
11425.99967762864
 20
5311.589052292566
 30
0.0
 41
100.0
 42
100.0
 43
100.0
 50
180.0
  0
INSERT
  5
18C89
330
1898B
100
AcDbEntity
  8
寸法
 62
     0
 48
50.0
370
    -2
100
AcDbBlockReference
  2
_DOTSMALL
 10
11365.99967762864
 20
5311.589052292566
 30
0.0
 41
100.0
 42
100.0
 43
100.0
  0
MTEXT
  5
18C8A
330
1898B
100
AcDbEntity
  8
寸法
 62
     7
 48
50.0
100
AcDbMText
 10
11056.36188235305
 20
5411.589052292566
 30
0.0
 40
120.0
 41
0.0
 71
     5
 72
     1
  1
\A1;60
  7
STYLE1
 73
     1
 44
1.0
1001
ACAD
1000
MTEXTBEGIN
1070
    73
1070
     1
1070
    44
1040
1.0
1070
    74
1070
     0
1000
MTEXTEND
  0
POINT
  5
18C8B
330
1898B
100
AcDbEntity
  8
DEFPOINTS
 62
     0
 48
50.0
100
AcDbPoint
 10
11425.99967762864
 20
4908.933216836238
 30
0.0
  0
POINT
  5
18C8C
330
1898B
100
AcDbEntity
  8
DEFPOINTS
 62
     0
 48
50.0
100
AcDbPoint
 10
11365.99967762864
 20
4912.931598713267
 30
0.0
  0
POINT
  5
18C8D
330
1898B
100
AcDbEntity
  8
DEFPOINTS
 62
     0
 48
50.0
100
AcDbPoint
 10
11365.99967762864
 20
5311.589052292566
 30
0.0
  0
ENDBLK
  5
18998
330
1898B
100
AcDbEntity
  8
0
 48
50.0
100
AcDbBlockEnd
  0
BLOCK
  5
189A4
330
18999
100
AcDbEntity
  8
0
 48
50.0
100
AcDbBlockBegin
  2
*D30
 70
     1
 10
0.0
 20
0.0
 30
0.0
  3
*D30
  1

  0
LINE
  5
18C79
330
18999
100
AcDbEntity
  8
寸法
 62
     0
 48
50.0
370
    -2
100
AcDbLine
 10
11365.40396391974
 20
4912.229305782923
 30
0.0
 11
10749.46952481445
 21
4929.943456057253
 31
0.0
  0
LINE
  5
18C7A
330
18999
100
AcDbEntity
  8
寸法
 62
     0
 48
50.0
370
    -2
100
AcDbLine
 10
11361.35050836312
 20
4771.28758201721
 30
0.0
 11
10745.41606925782
 21
4789.001732291541
 31
0.0
  0
LINE
  5
18C7B
330
18999
100
AcDbEntity
  8
寸法
 62
     0
 48
50.0
370
    -2
100
AcDbLine
 10
10805.39127086025
 20
4787.276857586593
 30
0.0
 11
10809.44472641688
 21
4928.218581352306
 31
0.0
  0
LINE
  5
18C7C
330
18999
100
AcDbEntity
  8
寸法
 62
     0
 48
50.0
370
    -2
100
AcDbLine
 10
10809.44472641688
 20
4928.218581352306
 30
0.0
 11
10819.79397464656
 21
5288.069790966893
 31
0.0
  0
INSERT
  5
18C7D
330
18999
100
AcDbEntity
  8
寸法
 62
     0
 48
50.0
370
    -2
100
AcDbBlockReference
  2
_DOTSMALL
 10
10805.39127086025
 20
4787.276857586593
 30
0.0
 41
100.0
 42
100.0
 43
100.0
 50
268.3526390256378
  0
INSERT
  5
18C7E
330
18999
100
AcDbEntity
  8
寸法
 62
     0
 48
50.0
370
    -2
100
AcDbBlockReference
  2
_DOTSMALL
 10
10809.44472641688
 20
4928.218581352306
 30
0.0
 41
100.0
 42
100.0
 43
100.0
 50
88.35263902563776
  0
MTEXT
  5
18C7F
330
18999
100
AcDbEntity
  8
寸法
 62
     7
 48
50.0
100
AcDbMText
 10
10716.09807678179
 20
5160.998312003205
 30
0.0
 40
120.0
 41
0.0
 71
     5
 72
     1
  1
\A1;141
  7
STYLE1
 11
0.0287479117491237
 21
0.9995866933738488
 31
0.0
 73
     1
 44
1.0
1001
ACAD
1000
MTEXTBEGIN
1070
    73
1070
     1
1070
    44
1040
1.0
1070
    74
1070
     0
1000
MTEXTEND
  0
POINT
  5
18C80
330
18999
100
AcDbEntity
  8
DEFPOINTS
 62
     0
 48
50.0
100
AcDbPoint
 10
11385.39569778722
 20
4911.654347547941
 30
0.0
  0
POINT
  5
18C81
330
18999
100
AcDbEntity
  8
DEFPOINTS
 62
     0
 48
50.0
100
AcDbPoint
 10
11381.34224223059
 20
4770.712623782229
 30
0.0
  0
POINT
  5
18C82
330
18999
100
AcDbEntity
  8
DEFPOINTS
 62
     0
 48
50.0
100
AcDbPoint
 10
10805.39127086025
 20
4787.276857586593
 30
0.0
  0
ENDBLK
  5
189A5
330
18999
100
AcDbEntity
  8
0
 48
50.0
100
AcDbBlockEnd
  0
BLOCK
  5
189B0
330
189A6
100
AcDbEntity
  8
0
 48
50.0
100
AcDbBlockBegin
  2
*D31
 70
     1
 10
0.0
 20
0.0
 30
0.0
  3
*D31
  1

  0
LINE
  5
18C70
330
189A6
100
AcDbEntity
  8
寸法
 62
     0
 48
50.0
370
    -2
100
AcDbLine
 10
11405.99967762864
 20
2537.931598713255
 30
0.0
 11
10222.24954844538
 21
2537.931598713255
 31
0.0
  0
LINE
  5
18C71
330
189A6
100
AcDbEntity
  8
寸法
 62
     0
 48
50.0
370
    -2
100
AcDbLine
 10
11345.99967762864
 20
4912.931598713261
 30
0.0
 11
10222.24954844538
 21
4912.931598713262
 31
0.0
  0
LINE
  5
18C72
330
189A6
100
AcDbEntity
  8
寸法
 62
     0
 48
50.0
370
    -2
100
AcDbLine
 10
10282.24954844538
 20
2537.931598713255
 30
0.0
 11
10282.24954844538
 21
4912.931598713261
 31
0.0
  0
INSERT
  5
18C73
330
189A6
100
AcDbEntity
  8
寸法
 62
     0
 48
50.0
370
    -2
100
AcDbBlockReference
  2
_DOTSMALL
 10
10282.24954844538
 20
2537.931598713255
 30
0.0
 41
100.0
 42
100.0
 43
100.0
 50
270.0
  0
INSERT
  5
18C74
330
189A6
100
AcDbEntity
  8
寸法
 62
     0
 48
50.0
370
    -2
100
AcDbBlockReference
  2
_DOTSMALL
 10
10282.24954844538
 20
4912.931598713261
 30
0.0
 41
100.0
 42
100.0
 43
100.0
 50
90.0
  0
MTEXT
  5
18C75
330
189A6
100
AcDbEntity
  8
寸法
 62
     7
 48
50.0
100
AcDbMText
 10
10182.23773742176
 20
3725.431598713261
 30
0.0
 40
120.0
 41
0.0
 71
     5
 72
     1
  1
\A1;2375
  7
STYLE1
 11
0.0000000000000001
 21
1.0
 31
0.0
 73
     1
 44
1.0
1001
ACAD
1000
MTEXTBEGIN
1070
    73
1070
     1
1070
    44
1040
1.0
1070
    74
1070
     0
1000
MTEXTEND
  0
POINT
  5
18C76
330
189A6
100
AcDbEntity
  8
DEFPOINTS
 62
     0
 48
50.0
100
AcDbPoint
 10
11425.99967762864
 20
2537.931598713255
 30
0.0
  0
POINT
  5
18C77
330
189A6
100
AcDbEntity
  8
DEFPOINTS
 62
     0
 48
50.0
100
AcDbPoint
 10
11365.99967762864
 20
4912.931598713261
 30
0.0
  0
POINT
  5
18C78
330
189A6
100
AcDbEntity
  8
DEFPOINTS
 62
     0
 48
50.0
100
AcDbPoint
 10
10282.24954844538
 20
4912.931598713261
 30
0.0
  0
ENDBLK
  5
189B1
330
189A6
100
AcDbEntity
  8
0
 48
50.0
100
AcDbBlockEnd
  0
BLOCK
  5
1932F
330
19325
100
AcDbEntity
  8
0
 48
50.0
100
AcDbBlockBegin
  2
*D32
 70
     1
 10
0.0
 20
0.0
 30
0.0
  3
*D32
  1

  0
LINE
  5
193FD
330
19325
100
AcDbEntity
  8
寸法
 62
     0
 48
50.0
370
    -2
100
AcDbLine
 10
6082.814073274963
 20
9272.49742454588
 30
0.0
 11
5980.072259316393
 21
8889.059754790709
 31
0.0
  0
LINE
  5
193FE
330
19325
100
AcDbEntity
  8
寸法
 62
     0
 48
50.0
370
    -2
100
AcDbLine
 10
7565.814073274975
 20
9272.497424545873
 30
0.0
 11
7463.072259316408
 21
8889.059754790709
 31
0.0
  0
LINE
  5
193FF
330
19325
100
AcDbEntity
  8
寸法
 62
     0
 48
50.0
370
    -2
100
AcDbLine
 10
5996.14921086226
 20
8949.059754790708
 30
0.0
 11
7479.149210862274
 21
8949.059754790708
 31
0.0
  0
INSERT
  5
19400
330
19325
100
AcDbEntity
  8
寸法
 62
     0
 48
50.0
370
    -2
100
AcDbBlockReference
  2
_DOTSMALL
 10
5996.14921086226
 20
8949.059754790708
 30
0.0
 41
100.0
 42
100.0
 43
100.0
 50
180.0
  0
INSERT
  5
19401
330
19325
100
AcDbEntity
  8
寸法
 62
     0
 48
50.0
370
    -2
100
AcDbBlockReference
  2
_DOTSMALL
 10
7479.149210862274
 20
8949.059754790708
 30
0.0
 41
100.0
 42
100.0
 43
100.0
  0
MTEXT
  5
19402
330
19325
100
AcDbEntity
  8
寸法
 62
     7
 48
50.0
100
AcDbMText
 10
6675.9643605316
 20
9049.059754790709
 30
0.0
 40
120.0
 41
0.0
 71
     5
 72
     1
  1
\A1;1483
  7
STYLE1
 73
     1
 44
1.0
1001
ACAD
1000
MTEXTBEGIN
1070
    73
1070
     1
1070
    44
1040
1.0
1070
    74
1070
     0
1000
MTEXTEND
  0
POINT
  5
19403
330
19325
100
AcDbEntity
  8
DEFPOINTS
 62
     0
 48
50.0
100
AcDbPoint
 10
6088.173057123586
 20
9292.49742454588
 30
0.0
  0
POINT
  5
19404
330
19325
100
AcDbEntity
  8
DEFPOINTS
 62
     0
 48
50.0
100
AcDbPoint
 10
7571.173057123598
 20
9292.497424545873
 30
0.0
  0
POINT
  5
19405
330
19325
100
AcDbEntity
  8
DEFPOINTS
 62
     0
 48
50.0
100
AcDbPoint
 10
7479.149210862274
 20
8949.059754790708
 30
0.0
  0
ENDBLK
  5
19330
330
19325
100
AcDbEntity
  8
0
 48
50.0
100
AcDbBlockEnd
  0
BLOCK
  5
1933B
330
19331
100
AcDbEntity
  8
0
 48
50.0
100
AcDbBlockBegin
  2
*D33
 70
     1
 10
0.0
 20
0.0
 30
0.0
  3
*D33
  1

  0
LINE
  5
193F4
330
19331
100
AcDbEntity
  8
寸法
 62
     0
 48
50.0
370
    -2
100
AcDbLine
 10
7592.814073274962
 20
9272.497424545985
 30
0.0
 11
7490.072259316393
 21
8889.059754790819
 31
0.0
  0
LINE
  5
193F5
330
19331
100
AcDbEntity
  8
寸法
 62
     0
 48
50.0
370
    -2
100
AcDbLine
 10
9075.814073274974
 20
9272.497424545978
 30
0.0
 11
8973.072259316406
 21
8889.059754790819
 31
0.0
  0
LINE
  5
193F6
330
19331
100
AcDbEntity
  8
寸法
 62
     0
 48
50.0
370
    -2
100
AcDbLine
 10
7506.14921086226
 20
8949.059754790818
 30
0.0
 11
8989.149210862276
 21
8949.059754790818
 31
0.0
  0
INSERT
  5
193F7
330
19331
100
AcDbEntity
  8
寸法
 62
     0
 48
50.0
370
    -2
100
AcDbBlockReference
  2
_DOTSMALL
 10
7506.14921086226
 20
8949.059754790818
 30
0.0
 41
100.0
 42
100.0
 43
100.0
 50
180.0
  0
INSERT
  5
193F8
330
19331
100
AcDbEntity
  8
寸法
 62
     0
 48
50.0
370
    -2
100
AcDbBlockReference
  2
_DOTSMALL
 10
8989.149210862276
 20
8949.059754790818
 30
0.0
 41
100.0
 42
100.0
 43
100.0
  0
MTEXT
  5
193F9
330
19331
100
AcDbEntity
  8
寸法
 62
     7
 48
50.0
100
AcDbMText
 10
8122.611213040434
 20
9049.059754790818
 30
0.0
 40
120.0
 41
0.0
 71
     5
 72
     1
  1
\A1;1483
  7
STYLE1
 73
     1
 44
1.0
1001
ACAD
1000
MTEXTBEGIN
1070
    73
1070
     1
1070
    44
1040
1.0
1070
    74
1070
     0
1000
MTEXTEND
  0
POINT
  5
193FA
330
19331
100
AcDbEntity
  8
DEFPOINTS
 62
     0
 48
50.0
100
AcDbPoint
 10
7598.173057123585
 20
9292.497424545985
 30
0.0
  0
POINT
  5
193FB
330
19331
100
AcDbEntity
  8
DEFPOINTS
 62
     0
 48
50.0
100
AcDbPoint
 10
9081.173057123598
 20
9292.497424545977
 30
0.0
  0
POINT
  5
193FC
330
19331
100
AcDbEntity
  8
DEFPOINTS
 62
     0
 48
50.0
100
AcDbPoint
 10
8989.149210862276
 20
8949.059754790818
 30
0.0
  0
ENDBLK
  5
1933C
330
19331
100
AcDbEntity
  8
0
 48
50.0
100
AcDbBlockEnd
  0
BLOCK
  5
19C79
330
19C6F
100
AcDbEntity
  8
0
 48
50.0
100
AcDbBlockBegin
  2
*D34
 70
     1
 10
0.0
 20
0.0
 30
0.0
  3
*D34
  1

  0
LINE
  5
19D94
330
19C6F
100
AcDbEntity
  8
寸法
 62
     0
 48
50.0
370
    -2
100
AcDbLine
 10
2959.673057123602
 20
4932.931598713267
 30
0.0
 11
2959.673057123602
 21
5406.378484445255
 31
0.0
  0
LINE
  5
19D95
330
19C6F
100
AcDbEntity
  8
寸法
 62
     0
 48
50.0
370
    -2
100
AcDbLine
 10
9159.673057123644
 20
4932.931598713264
 30
0.0
 11
9159.673057123644
 21
5406.378484445255
 31
0.0
  0
LINE
  5
19D96
330
19C6F
100
AcDbEntity
  8
寸法
 62
     0
 48
50.0
370
    -2
100
AcDbLine
 10
2959.673057123602
 20
5346.378484445256
 30
0.0
 11
9159.673057123644
 21
5346.378484445256
 31
0.0
  0
INSERT
  5
19D97
330
19C6F
100
AcDbEntity
  8
寸法
 62
     0
 48
50.0
370
    -2
100
AcDbBlockReference
  2
_DOTSMALL
 10
2959.673057123602
 20
5346.378484445256
 30
0.0
 41
100.0
 42
100.0
 43
100.0
 50
180.0
  0
INSERT
  5
19D98
330
19C6F
100
AcDbEntity
  8
寸法
 62
     0
 48
50.0
370
    -2
100
AcDbBlockReference
  2
_DOTSMALL
 10
9159.673057123644
 20
5346.378484445256
 30
0.0
 41
100.0
 42
100.0
 43
100.0
  0
MTEXT
  5
19D99
330
19C6F
100
AcDbEntity
  8
寸法
 62
     7
 48
50.0
100
AcDbMText
 10
6059.673057123623
 20
5446.390295468877
 30
0.0
 40
120.0
 41
0.0
 71
     5
 72
     1
  1
\A1;6200
  7
STYLE1
 73
     1
 44
1.0
1001
ACAD
1000
MTEXTBEGIN
1070
    73
1070
     1
1070
    44
1040
1.0
1070
    74
1070
     0
1000
MTEXTEND
  0
POINT
  5
19D9A
330
19C6F
100
AcDbEntity
  8
DEFPOINTS
 62
     0
 48
50.0
100
AcDbPoint
 10
2959.673057123602
 20
4912.931598713267
 30
0.0
  0
POINT
  5
19D9B
330
19C6F
100
AcDbEntity
  8
DEFPOINTS
 62
     0
 48
50.0
100
AcDbPoint
 10
9159.673057123644
 20
4912.931598713264
 30
0.0
  0
POINT
  5
19D9C
330
19C6F
100
AcDbEntity
  8
DEFPOINTS
 62
     0
 48
50.0
100
AcDbPoint
 10
9159.673057123644
 20
5346.378484445256
 30
0.0
  0
ENDBLK
  5
19C7A
330
19C6F
100
AcDbEntity
  8
0
 48
50.0
100
AcDbBlockEnd
  0
BLOCK
  5
19C85
330
19C7B
100
AcDbEntity
  8
0
 48
50.0
100
AcDbBlockBegin
  2
*D35
 70
     1
 10
0.0
 20
0.0
 30
0.0
  3
*D35
  1

  0
LINE
  5
19D8B
330
19C7B
100
AcDbEntity
  8
寸法
 62
     0
 48
50.0
370
    -2
100
AcDbLine
 10
9109.6730571236
 20
4945.852924535788
 30
0.0
 11
9109.6730571236
 21
5185.473183971506
 31
0.0
  0
LINE
  5
19D8C
330
19C7B
100
AcDbEntity
  8
寸法
 62
     0
 48
50.0
370
    -2
100
AcDbLine
 10
3009.673057123602
 20
4945.852924544254
 30
0.0
 11
3009.673057123602
 21
5185.473183971506
 31
0.0
  0
LINE
  5
19D8D
330
19C7B
100
AcDbEntity
  8
寸法
 62
     0
 48
50.0
370
    -2
100
AcDbLine
 10
9109.6730571236
 20
5125.473183971506
 30
0.0
 11
3009.673057123602
 21
5125.473183971506
 31
0.0
  0
INSERT
  5
19D8E
330
19C7B
100
AcDbEntity
  8
寸法
 62
     0
 48
50.0
370
    -2
100
AcDbBlockReference
  2
_DOTSMALL
 10
9109.6730571236
 20
5125.473183971506
 30
0.0
 41
100.0
 42
100.0
 43
100.0
  0
INSERT
  5
19D8F
330
19C7B
100
AcDbEntity
  8
寸法
 62
     0
 48
50.0
370
    -2
100
AcDbBlockReference
  2
_DOTSMALL
 10
3009.673057123602
 20
5125.473183971506
 30
0.0
 41
100.0
 42
100.0
 43
100.0
 50
180.0
  0
MTEXT
  5
19D90
330
19C7B
100
AcDbEntity
  8
寸法
 62
     7
 48
50.0
100
AcDbMText
 10
6059.673057123601
 20
5225.473183971506
 30
0.0
 40
120.0
 41
0.0
 71
     5
 72
     1
  1
\A1;柱外寸法6100
  7
STYLE1
 73
     1
 44
1.0
1001
ACAD
1000
MTEXTBEGIN
1070
    73
1070
     1
1070
    44
1040
1.0
1070
    74
1070
     0
1000
MTEXTEND
  0
POINT
  5
19D91
330
19C7B
100
AcDbEntity
  8
DEFPOINTS
 62
     0
 48
50.0
100
AcDbPoint
 10
9109.6730571236
 20
4925.852924535788
 30
0.0
  0
POINT
  5
19D92
330
19C7B
100
AcDbEntity
  8
DEFPOINTS
 62
     0
 48
50.0
100
AcDbPoint
 10
3009.673057123602
 20
4925.852924544255
 30
0.0
  0
POINT
  5
19D93
330
19C7B
100
AcDbEntity
  8
DEFPOINTS
 62
     0
 48
50.0
100
AcDbPoint
 10
3009.673057123602
 20
5125.473183971506
 30
0.0
  0
ENDBLK
  5
19C86
330
19C7B
100
AcDbEntity
  8
0
 48
50.0
100
AcDbBlockEnd
  0
BLOCK
  5
19C93
330
19C87
100
AcDbEntity
  8
0
 48
50.0
100
AcDbBlockBegin
  2
*D36
 70
     1
 10
0.0
 20
0.0
 30
0.0
  3
*D36
  1

  0
LINE
  5
19D80
330
19C87
100
AcDbEntity
  8
寸法
 62
     0
 48
50.0
370
    -2
100
AcDbLine
 10
3009.673057123602
 20
4932.931598713269
 30
0.0
 11
3009.673057123602
 21
5185.473183971506
 31
0.0
  0
LINE
  5
19D81
330
19C87
100
AcDbEntity
  8
寸法
 62
     0
 48
50.0
370
    -2
100
AcDbLine
 10
2959.673057123602
 20
4932.931598713267
 30
0.0
 11
2959.673057123602
 21
5185.473183971506
 31
0.0
  0
LINE
  5
19D82
330
19C87
100
AcDbEntity
  8
寸法
 62
     0
 48
50.0
370
    -2
100
AcDbLine
 10
3009.673057123602
 20
5125.473183971506
 30
0.0
 11
3109.673057123602
 21
5125.473183971506
 31
0.0
  0
LINE
  5
19D83
330
19C87
100
AcDbEntity
  8
寸法
 62
     0
 48
50.0
370
    -2
100
AcDbLine
 10
2959.673057123602
 20
5125.473183971506
 30
0.0
 11
2540.140531654866
 21
5125.473183971506
 31
0.0
  0
LINE
  5
19D84
330
19C87
100
AcDbEntity
  8
寸法
 62
     0
 48
50.0
370
    -2
100
AcDbLine
 10
3009.673057123602
 20
5125.473183971506
 30
0.0
 11
2959.673057123602
 21
5125.473183971506
 31
0.0
  0
INSERT
  5
19D85
330
19C87
100
AcDbEntity
  8
寸法
 62
     0
 48
50.0
370
    -2
100
AcDbBlockReference
  2
_DOTSMALL
 10
3009.673057123602
 20
5125.473183971506
 30
0.0
 41
100.0
 42
100.0
 43
100.0
 50
180.0
  0
INSERT
  5
19D86
330
19C87
100
AcDbEntity
  8
寸法
 62
     0
 48
50.0
370
    -2
100
AcDbBlockReference
  2
_DOTSMALL
 10
2959.673057123602
 20
5125.473183971506
 30
0.0
 41
100.0
 42
100.0
 43
100.0
  0
MTEXT
  5
19D87
330
19C87
100
AcDbEntity
  8
寸法
 62
     7
 48
50.0
100
AcDbMText
 10
2646.187775749354
 20
5225.473183971506
 30
0.0
 40
120.0
 41
0.0
 71
     5
 72
     1
  1
\A1;50
  7
STYLE1
 73
     1
 44
1.0
1001
ACAD
1000
MTEXTBEGIN
1070
    73
1070
     1
1070
    44
1040
1.0
1070
    74
1070
     0
1000
MTEXTEND
  0
POINT
  5
19D88
330
19C87
100
AcDbEntity
  8
DEFPOINTS
 62
     0
 48
50.0
100
AcDbPoint
 10
3009.673057123602
 20
4912.931598713268
 30
0.0
  0
POINT
  5
19D89
330
19C87
100
AcDbEntity
  8
DEFPOINTS
 62
     0
 48
50.0
100
AcDbPoint
 10
2959.673057123602
 20
4912.931598713267
 30
0.0
  0
POINT
  5
19D8A
330
19C87
100
AcDbEntity
  8
DEFPOINTS
 62
     0
 48
50.0
100
AcDbPoint
 10
2959.673057123602
 20
5125.473183971506
 30
0.0
  0
ENDBLK
  5
19C94
330
19C87
100
AcDbEntity
  8
0
 48
50.0
100
AcDbBlockEnd
  0
BLOCK
  5
19CA1
330
19C95
100
AcDbEntity
  8
0
 48
50.0
100
AcDbBlockBegin
  2
*D37
 70
     1
 10
0.0
 20
0.0
 30
0.0
  3
*D37
  1

  0
LINE
  5
19D75
330
19C95
100
AcDbEntity
  8
寸法
 62
     0
 48
50.0
370
    -2
100
AcDbLine
 10
9159.673057123644
 20
4932.931598713264
 30
0.0
 11
9159.673057123644
 21
5185.473183971505
 31
0.0
  0
LINE
  5
19D76
330
19C95
100
AcDbEntity
  8
寸法
 62
     0
 48
50.0
370
    -2
100
AcDbLine
 10
9109.673057123643
 20
4932.931598713266
 30
0.0
 11
9109.673057123643
 21
5185.473183971505
 31
0.0
  0
LINE
  5
19D77
330
19C95
100
AcDbEntity
  8
寸法
 62
     0
 48
50.0
370
    -2
100
AcDbLine
 10
9109.673057123643
 20
5125.473183971505
 30
0.0
 11
9009.673057123643
 21
5125.473183971505
 31
0.0
  0
LINE
  5
19D78
330
19C95
100
AcDbEntity
  8
寸法
 62
     0
 48
50.0
370
    -2
100
AcDbLine
 10
9159.673057123644
 20
5125.473183971505
 30
0.0
 11
9579.205582592367
 21
5125.473183971505
 31
0.0
  0
LINE
  5
19D79
330
19C95
100
AcDbEntity
  8
寸法
 62
     0
 48
50.0
370
    -2
100
AcDbLine
 10
9109.673057123643
 20
5125.473183971505
 30
0.0
 11
9159.673057123644
 21
5125.473183971505
 31
0.0
  0
INSERT
  5
19D7A
330
19C95
100
AcDbEntity
  8
寸法
 62
     0
 48
50.0
370
    -2
100
AcDbBlockReference
  2
_DOTSMALL
 10
9109.673057123643
 20
5125.473183971505
 30
0.0
 41
100.0
 42
100.0
 43
100.0
  0
INSERT
  5
19D7B
330
19C95
100
AcDbEntity
  8
寸法
 62
     0
 48
50.0
370
    -2
100
AcDbBlockReference
  2
_DOTSMALL
 10
9159.673057123644
 20
5125.473183971505
 30
0.0
 41
100.0
 42
100.0
 43
100.0
 50
180.0
  0
MTEXT
  5
19D7C
330
19C95
100
AcDbEntity
  8
寸法
 62
     7
 48
50.0
100
AcDbMText
 10
9473.15833849788
 20
5225.473183971505
 30
0.0
 40
120.0
 41
0.0
 71
     5
 72
     1
  1
\A1;50
  7
STYLE1
 73
     1
 44
1.0
1001
ACAD
1000
MTEXTBEGIN
1070
    73
1070
     1
1070
    44
1040
1.0
1070
    74
1070
     0
1000
MTEXTEND
  0
POINT
  5
19D7D
330
19C95
100
AcDbEntity
  8
DEFPOINTS
 62
     0
 48
50.0
100
AcDbPoint
 10
9159.673057123644
 20
4912.931598713264
 30
0.0
  0
POINT
  5
19D7E
330
19C95
100
AcDbEntity
  8
DEFPOINTS
 62
     0
 48
50.0
100
AcDbPoint
 10
9109.673057123643
 20
4912.931598713266
 30
0.0
  0
POINT
  5
19D7F
330
19C95
100
AcDbEntity
  8
DEFPOINTS
 62
     0
 48
50.0
100
AcDbPoint
 10
9109.673057123643
 20
5125.473183971505
 30
0.0
  0
ENDBLK
  5
19CA2
330
19C95
100
AcDbEntity
  8
0
 48
50.0
100
AcDbBlockEnd
  0
BLOCK
  5
19CAD
330
19CA3
100
AcDbEntity
  8
0
 48
50.0
100
AcDbBlockBegin
  2
*D38
 70
     1
 10
0.0
 20
0.0
 30
0.0
  3
*D38
  1

  0
LINE
  5
19D6C
330
19CA3
100
AcDbEntity
  8
寸法
 62
     0
 48
50.0
370
    -2
100
AcDbLine
 10
9129.673057123609
 20
2599.931598713262
 30
0.0
 11
9457.216159445353
 21
2599.931598713261
 31
0.0
  0
LINE
  5
19D6D
330
19CA3
100
AcDbEntity
  8
寸法
 62
     0
 48
50.0
370
    -2
100
AcDbLine
 10
9129.673057123611
 20
4485.93159871326
 30
0.0
 11
9457.216159445357
 21
4485.93159871326
 31
0.0
  0
LINE
  5
19D6E
330
19CA3
100
AcDbEntity
  8
寸法
 62
     0
 48
50.0
370
    -2
100
AcDbLine
 10
9397.216159445354
 20
2599.931598713261
 30
0.0
 11
9397.216159445354
 21
4485.93159871326
 31
0.0
  0
INSERT
  5
19D6F
330
19CA3
100
AcDbEntity
  8
寸法
 62
     0
 48
50.0
370
    -2
100
AcDbBlockReference
  2
_DOTSMALL
 10
9397.216159445354
 20
2599.931598713261
 30
0.0
 41
100.0
 42
100.0
 43
100.0
 50
270.0
  0
INSERT
  5
19D70
330
19CA3
100
AcDbEntity
  8
寸法
 62
     0
 48
50.0
370
    -2
100
AcDbBlockReference
  2
_DOTSMALL
 10
9397.216159445354
 20
4485.93159871326
 30
0.0
 41
100.0
 42
100.0
 43
100.0
 50
90.0
  0
MTEXT
  5
19D71
330
19CA3
100
AcDbEntity
  8
寸法
 62
     7
 48
50.0
100
AcDbMText
 10
9297.216159445353
 20
3542.931598713263
 30
0.0
 40
120.0
 41
0.0
 71
     5
 72
     1
  1
\A1;有効開口部高サ 1886
  7
STYLE1
 11
0.0000000000000001
 21
1.0
 31
0.0
 73
     1
 44
1.0
1001
ACAD
1000
MTEXTBEGIN
1070
    73
1070
     1
1070
    44
1040
1.0
1070
    74
1070
     0
1000
MTEXTEND
  0
POINT
  5
19D72
330
19CA3
100
AcDbEntity
  8
DEFPOINTS
 62
     0
 48
50.0
100
AcDbPoint
 10
9109.673057123609
 20
2599.931598713262
 30
0.0
  0
POINT
  5
19D73
330
19CA3
100
AcDbEntity
  8
DEFPOINTS
 62
     0
 48
50.0
100
AcDbPoint
 10
9109.673057123611
 20
4485.93159871326
 30
0.0
  0
POINT
  5
19D74
330
19CA3
100
AcDbEntity
  8
DEFPOINTS
 62
     0
 48
50.0
100
AcDbPoint
 10
9397.216159445354
 20
4485.93159871326
 30
0.0
  0
ENDBLK
  5
19CAE
330
19CA3
100
AcDbEntity
  8
0
 48
50.0
100
AcDbBlockEnd
  0
BLOCK
  5
19CBB
330
19CAF
100
AcDbEntity
  8
0
 48
50.0
100
AcDbBlockBegin
  2
*D39
 70
     1
 10
0.0
 20
0.0
 30
0.0
  3
*D39
  1

  0
LINE
  5
19DBA
330
19CAF
100
AcDbEntity
  8
寸法
 62
     0
 48
50.0
370
    -2
100
AcDbLine
 10
9129.673057123611
 20
4485.93159871326
 30
0.0
 11
9457.216159445357
 21
4485.93159871326
 31
0.0
  0
LINE
  5
19DBB
330
19CAF
100
AcDbEntity
  8
寸法
 62
     0
 48
50.0
370
    -2
100
AcDbLine
 10
9129.673057123609
 20
4512.931598713262
 30
0.0
 11
9457.216159445357
 21
4512.931598713262
 31
0.0
  0
LINE
  5
19DBC
330
19CAF
100
AcDbEntity
  8
寸法
 62
     0
 48
50.0
370
    -2
100
AcDbLine
 10
9397.216159445354
 20
4485.93159871326
 30
0.0
 11
9397.216159445354
 21
4385.93159871326
 31
0.0
  0
LINE
  5
19DBD
330
19CAF
100
AcDbEntity
  8
寸法
 62
     0
 48
50.0
370
    -2
100
AcDbLine
 10
9397.216159445354
 20
4512.931598713262
 30
0.0
 11
9397.216159445354
 21
4612.931598713262
 31
0.0
  0
MTEXT
  5
19DBE
330
19CAF
100
AcDbEntity
  8
寸法
 62
     7
 48
50.0
100
AcDbMText
 10
9537.385982691722
 20
4513.89879855292
 30
0.0
 40
120.0
 41
0.0
 71
     5
 72
     1
  1
\A1;27
  7
STYLE1
 11
0.0000000000000001
 21
1.0
 31
0.0
 73
     1
 44
1.0
1001
ACAD
1000
MTEXTBEGIN
1070
    73
1070
     1
1070
    44
1040
1.0
1070
    74
1070
     0
1000
MTEXTEND
  0
LINE
  5
19DBF
330
19CAF
100
AcDbEntity
  8
寸法
 62
     0
 48
50.0
370
    -2
100
AcDbLine
 10
9397.216159445354
 20
4485.93159871326
 30
0.0
 11
9397.216159445354
 21
4512.931598713262
 31
0.0
  0
INSERT
  5
19DC0
330
19CAF
100
AcDbEntity
  8
寸法
 62
     0
 48
50.0
370
    -2
100
AcDbBlockReference
  2
_DOTSMALL
 10
9397.216159445354
 20
4485.93159871326
 30
0.0
 41
100.0
 42
100.0
 43
100.0
 50
90.0
  0
INSERT
  5
19DC1
330
19CAF
100
AcDbEntity
  8
寸法
 62
     0
 48
50.0
370
    -2
100
AcDbBlockReference
  2
_DOTSMALL
 10
9397.216159445354
 20
4512.931598713262
 30
0.0
 41
100.0
 42
100.0
 43
100.0
 50
270.0
  0
POINT
  5
19DC2
330
19CAF
100
AcDbEntity
  8
DEFPOINTS
 62
     0
 48
50.0
100
AcDbPoint
 10
9109.673057123611
 20
4485.93159871326
 30
0.0
  0
POINT
  5
19DC3
330
19CAF
100
AcDbEntity
  8
DEFPOINTS
 62
     0
 48
50.0
100
AcDbPoint
 10
9109.673057123609
 20
4512.931598713262
 30
0.0
  0
POINT
  5
19DC4
330
19CAF
100
AcDbEntity
  8
DEFPOINTS
 62
     0
 48
50.0
100
AcDbPoint
 10
9397.216159445354
 20
4512.931598713262
 30
0.0
  0
ENDBLK
  5
19CBC
330
19CAF
100
AcDbEntity
  8
0
 48
50.0
100
AcDbBlockEnd
  0
BLOCK
  5
19CC8
330
19CBD
100
AcDbEntity
  8
0
 48
50.0
100
AcDbBlockBegin
  2
*D40
 70
     1
 10
0.0
 20
0.0
 30
0.0
  3
*D40
  1

  0
LINE
  5
19DB0
330
19CBD
100
AcDbEntity
  8
寸法
 62
     0
 48
50.0
370
    -2
100
AcDbLine
 10
9129.673057123609
 20
4512.931598713262
 30
0.0
 11
9457.216159445357
 21
4512.931598713262
 31
0.0
  0
LINE
  5
19DB1
330
19CBD
100
AcDbEntity
  8
寸法
 62
     0
 48
50.0
370
    -2
100
AcDbLine
 10
9129.673057123609
 20
4677.931598713261
 30
0.0
 11
9457.216159445357
 21
4677.931598713261
 31
0.0
  0
LINE
  5
19DB2
330
19CBD
100
AcDbEntity
  8
寸法
 62
     0
 48
50.0
370
    -2
100
AcDbLine
 10
9397.216159445358
 20
4512.931598713262
 30
0.0
 11
9397.216159445358
 21
4677.931598713261
 31
0.0
  0
LINE
  5
19DB3
330
19CBD
100
AcDbEntity
  8
寸法
 62
     0
 48
50.0
370
    -2
100
AcDbLine
 10
9397.216159445358
 20
4677.931598713261
 30
0.0
 11
9397.216159445358
 21
5054.90216146174
 31
0.0
  0
INSERT
  5
19DB4
330
19CBD
100
AcDbEntity
  8
寸法
 62
     0
 48
50.0
370
    -2
100
AcDbBlockReference
  2
_DOTSMALL
 10
9397.216159445358
 20
4512.931598713262
 30
0.0
 41
100.0
 42
100.0
 43
100.0
 50
270.0
  0
INSERT
  5
19DB5
330
19CBD
100
AcDbEntity
  8
寸法
 62
     0
 48
50.0
370
    -2
100
AcDbBlockReference
  2
_DOTSMALL
 10
9397.216159445358
 20
4677.931598713261
 30
0.0
 41
100.0
 42
100.0
 43
100.0
 50
90.0
  0
MTEXT
  5
19DB6
330
19CBD
100
AcDbEntity
  8
寸法
 62
     7
 48
50.0
100
AcDbMText
 10
9297.216159445355
 20
4916.416880087502
 30
0.0
 40
120.0
 41
0.0
 71
     5
 72
     1
  1
\A1;165
  7
STYLE1
 11
0.0000000000000001
 21
1.0
 31
0.0
 73
     1
 44
1.0
1001
ACAD
1000
MTEXTBEGIN
1070
    73
1070
     1
1070
    44
1040
1.0
1070
    74
1070
     0
1000
MTEXTEND
  0
POINT
  5
19DB7
330
19CBD
100
AcDbEntity
  8
DEFPOINTS
 62
     0
 48
50.0
100
AcDbPoint
 10
9109.673057123609
 20
4512.931598713262
 30
0.0
  0
POINT
  5
19DB8
330
19CBD
100
AcDbEntity
  8
DEFPOINTS
 62
     0
 48
50.0
100
AcDbPoint
 10
9109.673057123609
 20
4677.931598713261
 30
0.0
  0
POINT
  5
19DB9
330
19CBD
100
AcDbEntity
  8
DEFPOINTS
 62
     0
 48
50.0
100
AcDbPoint
 10
9397.216159445358
 20
4677.931598713261
 30
0.0
  0
ENDBLK
  5
19CC9
330
19CBD
100
AcDbEntity
  8
0
 48
50.0
100
AcDbBlockEnd
  0
ENDSEC
  0
SECTION
  2
ENTITIES
  0
MTEXT
  5
763F
330
747D
100
AcDbEntity
  8
0
100
AcDbMText
 10
302.846345836809
 20
280.1983726409901
 30
0.0
 40
3.5
 41
5.323721266742722
 71
     1
 72
     5
  1

  7
MSMINCHO
 73
     1
 44
1.0
1001
ACAD
1000
MTEXTBEGIN
1070
    73
1070
     1
1070
    44
1040
1.0
1070
    74
1070
     0
1000
MTEXTEND
  0
LINE
  5
10B57
330
747D
100
AcDbEntity
  8
補助
  6
PHANTOM
 62
   230
 48
50.0
100
AcDbLine
 10
139.9999999999995
 20
11409.6
 30
0.0
 11
16307.2
 21
11409.6
 31
0.0
  0
LINE
  5
10B59
330
747D
100
AcDbEntity
  8
仕様書枠
  6
Continuous
 48
50.0
100
AcDbLine
 10
13107.2
 20
1200.0
 30
0.0
 11
13107.2
 21
-0.0000000000000729
 31
0.0
  0
LINE
  5
10B5C
330
747D
100
AcDbEntity
  8
仕様書枠
 48
50.0
100
AcDbLine
 10
16307.2
 20
1200.0
 30
0.0
 11
16307.2
 21
-0.0000000000000909
 31
0.0
  0
LINE
  5
10B5D
330
747D
100
AcDbEntity
  8
仕様書枠
 48
50.0
100
AcDbLine
 10
140.0
 20
0.0
 30
0.0
 11
16307.2
 21
-0.0000000000000909
 31
0.0
  0
LINE
  5
10B5E
330
747D
100
AcDbEntity
  8
補助
  6
PHANTOM
 62
   230
 48
50.0
100
AcDbLine
 10
16307.2
 20
11409.6
 30
0.0
 11
16307.2
 21
1200.0
 31
0.0
  0
LINE
  5
10B6C
330
747D
100
AcDbEntity
  8
仕様書枠
 48
50.0
100
AcDbLine
 10
13107.2
 20
1200.0
 30
0.0
 11
16307.2
 21
1200.0
 31
0.0
  0
LINE
  5
10B6D
330
747D
100
AcDbEntity
  8
補助
  6
PHANTOM
 62
   230
 48
50.0
100
AcDbLine
 10
13107.2
 20
11409.6
 30
0.0
 11
13107.2
 21
4800.0
 31
0.0
  0
LINE
  5
10B6F
330
747D
100
AcDbEntity
  8
補助
  6
PHANTOM
 62
   230
 48
50.0
100
AcDbLine
 10
13107.2
 20
4800.0
 30
0.0
 11
16307.2
 21
4800.0
 31
0.0
  0
LINE
  5
10B72
330
747D
100
AcDbEntity
  8
文字
 62
     7
 48
50.0
100
AcDbLine
 10
13187.2
 20
400.0
 30
0.0
 11
16227.2
 21
400.0
 31
0.0
  0
TEXT
  5
10B73
330
747D
100
AcDbEntity
  8
文字
 62
     7
 48
50.0
100
AcDbText
 10
13162.9790565769
 20
895.0906074299405
 30
0.0
 40
200.0
  1
外 形 図
  7
STYLE2
100
AcDbText
  0
TEXT
  5
10B74
330
747D
100
AcDbEntity
  8
文字
 62
     7
 48
50.0
100
AcDbText
 10
13201.43669998441
 20
477.2740661031255
 30
0.0
 40
160.0
  1
機種名
  7
STYLE2
100
AcDbText
  0
TEXT
  5
10B75
330
747D
100
AcDbEntity
  8
文字
 62
     7
 48
50.0
100
AcDbText
 10
13209.4053442172
 20
228.5435242569016
 30
0.0
 40
100.0
  1
○有効開口寸法 ： 2844×1886(mm)
  7
STYLE2
100
AcDbText
  0
TEXT
  5
10B76
330
747D
100
AcDbEntity
  8
文字
 62
     7
 48
50.0
100
AcDbText
 10
13209.4053442172
 20
76.09434707649343
 30
0.0
 40
100.0
  1
○床面積 ： 16.04㎡(4.86坪) 　
  7
STYLE2
100
AcDbText
  0
TEXT
  5
10B79
330
747D
100
AcDbEntity
  8
文字
 62
     7
 48
50.0
100
AcDbText
 10
14524.131837222
 20
1031.557706291228
 30
0.0
 40
100.0
  1
NO.49      <縮尺> S=1/40
  7
STYLE2
100
AcDbText
  0
LINE
  5
10B7B
330
747D
100
AcDbEntity
  8
仕様書枠
 48
50.0
100
AcDbLine
 10
13107.2
 20
800.0
 30
0.0
 11
14251.2
 21
800.0
 31
0.0
  0
LINE
  5
10B88
330
747D
100
AcDbEntity
  8
仕様書枠
  6
Continuous
 48
50.0
100
AcDbLine
 10
14251.2
 20
1200.0
 30
0.0
 11
14251.2
 21
800.0
 31
0.0
  0
LINE
  5
17CF7
330
747D
100
AcDbEntity
  8
細線
 48
50.0
100
AcDbLine
 10
7571.173057123584
 20
9742.497424545982
 30
0.0
 11
6088.173057123584
 21
9292.49742454588
 31
0.0
  0
LINE
  5
17CF8
330
747D
100
AcDbEntity
  8
細線
 48
50.0
100
AcDbLine
 10
7571.173057123584
 20
9292.497424545985
 30
0.0
 11
6088.173057123583
 21
9742.497424545881
 31
0.0
  0
LINE
  5
17CF9
330
747D
100
AcDbEntity
  8
部品1
100
AcDbLine
 10
6031.173057123584
 20
9742.497424545975
 30
0.0
 11
6031.173057123584
 21
9292.497424545977
 31
0.0
  0
LINE
  5
17CFA
330
747D
100
AcDbEntity
  8
部品1
 48
50.0
100
AcDbLine
 10
4547.173057123583
 20
9744.497424545986
 30
0.0
 11
4547.173057123583
 21
9292.497424545985
 31
0.0
  0
LINE
  5
17CFB
330
747D
100
AcDbEntity
  8
部品1
 48
50.0
100
AcDbLine
 10
4522.173057123583
 20
9744.49742454599
 30
0.0
 11
4522.173057123583
 21
9292.497424545985
 31
0.0
  0
LINE
  5
17CFC
330
747D
100
AcDbEntity
  8
部品1
 48
50.0
100
AcDbLine
 10
4548.173057123584
 20
9742.497424545979
 30
0.0
 11
4548.173057123584
 21
9292.497424545985
 31
0.0
  0
LINE
  5
17CFD
330
747D
100
AcDbEntity
  8
部品1
 48
50.0
100
AcDbLine
 10
4521.173057123584
 20
9742.497424545982
 30
0.0
 11
4521.173057123584
 21
9292.497424545985
 31
0.0
  0
LINE
  5
17CFE
330
747D
100
AcDbEntity
  8
細線
 48
50.0
100
AcDbLine
 10
4521.173057123584
 20
9742.497424545982
 30
0.0
 11
3038.173057123584
 21
9292.49742454588
 31
0.0
  0
LINE
  5
17CFF
330
747D
100
AcDbEntity
  8
細線
 48
50.0
100
AcDbLine
 10
4521.173057123583
 20
9292.497424545985
 30
0.0
 11
3038.173057123583
 21
9742.497424545881
 31
0.0
  0
LINE
  5
17D00
330
747D
100
AcDbEntity
  8
細線
 48
50.0
100
AcDbLine
 10
6031.173057123584
 20
9292.497424545977
 30
0.0
 11
4548.173057123584
 21
9742.497424545979
 31
0.0
  0
LINE
  5
17D01
330
747D
100
AcDbEntity
  8
細線
 48
50.0
100
AcDbLine
 10
6031.173057123584
 20
9742.497424545975
 30
0.0
 11
4548.173057123583
 21
9292.497424545985
 31
0.0
  0
LINE
  5
17D02
330
747D
100
AcDbEntity
  8
部品1
 48
50.0
100
AcDbLine
 10
6088.173057123583
 20
9742.497424545877
 30
0.0
 11
6088.173057123584
 21
9292.497424545876
 31
0.0
  0
LINE
  5
17D03
330
747D
100
AcDbEntity
  8
部品1
 48
50.0
100
AcDbLine
 10
7597.173057123583
 20
9744.497424545986
 30
0.0
 11
7597.173057123583
 21
9292.497424545985
 31
0.0
  0
LINE
  5
17D04
330
747D
100
AcDbEntity
  8
部品1
 48
50.0
100
AcDbLine
 10
7572.173057123584
 20
9744.49742454599
 30
0.0
 11
7572.173057123584
 21
9292.497424545985
 31
0.0
  0
LINE
  5
17D05
330
747D
100
AcDbEntity
  8
部品1
 48
50.0
100
AcDbLine
 10
7598.173057123585
 20
9742.497424545979
 30
0.0
 11
7598.173057123585
 21
9292.497424545985
 31
0.0
  0
LINE
  5
17D06
330
747D
100
AcDbEntity
  8
部品1
 48
50.0
100
AcDbLine
 10
7571.173057123584
 20
9742.497424545982
 30
0.0
 11
7571.173057123584
 21
9292.497424545985
 31
0.0
  0
LINE
  5
17D07
330
747D
100
AcDbEntity
  8
細線
 48
50.0
100
AcDbLine
 10
9081.173057123585
 20
9292.497424545977
 30
0.0
 11
7598.173057123585
 21
9742.497424545979
 31
0.0
  0
LINE
  5
17D08
330
747D
100
AcDbEntity
  8
細線
 48
50.0
100
AcDbLine
 10
9081.173057123585
 20
9742.497424545975
 30
0.0
 11
7598.173057123583
 21
9292.497424545985
 31
0.0
  0
DIMENSION
  5
17D0B
330
747D
100
AcDbEntity
  8
寸法
100
AcDbDimension
  2
*D1
 10
9436.530782985611
 20
9197.279608877089
 30
0.0
 11
9336.53078298561
 21
9422.279608877087
 31
0.0
 70
    32
 71
     5
 42
-1.0
  3
INABA_S40G
100
AcDbAlignedDimension
 13
9081.173057123585
 23
9742.497424545975
 33
0.0
 14
9081.173057123585
 24
9292.497424545977
 34
0.0
 50
90.0
100
AcDbRotatedDimension
1001
ACAD
1000
DSTYLE
1002
{
1002
}
  0
LINE
  5
17D0C
330
747D
100
AcDbEntity
  8
部品1
 48
50.0
100
AcDbLine
 10
6085.173057123625
 20
9338.497424546018
 30
0.0
 11
6079.173057123625
 21
9338.497424546014
 31
0.0
  0
LINE
  5
17D0D
330
747D
100
AcDbEntity
  8
部品1
100
AcDbLine
 10
6085.173057123625
 20
9300.497424546017
 30
0.0
 11
6085.173057123625
 21
9338.497424546018
 31
0.0
  0
LINE
  5
17D0E
330
747D
100
AcDbEntity
  8
部品1
100
AcDbLine
 10
6034.173057123626
 20
9300.497424546014
 30
0.0
 11
6034.173057123626
 21
9338.497424546014
 31
0.0
  0
LINE
  5
17D0F
330
747D
100
AcDbEntity
  8
部品1
 48
50.0
100
AcDbLine
 10
6040.173057123626
 20
9338.497424546011
 30
0.0
 11
6034.173057123626
 21
9338.497424546014
 31
0.0
  0
LINE
  5
17D10
330
747D
100
AcDbEntity
  8
部品1
 48
50.0
100
AcDbLine
 10
6085.173057123625
 20
9300.497424546017
 30
0.0
 11
6034.173057123626
 21
9300.497424546014
 31
0.0
  0
LINE
  5
17D11
330
747D
100
AcDbEntity
  8
部品1
100
AcDbLine
 10
7598.173057123585
 20
9742.497424545982
 30
0.0
 11
9081.173057123585
 21
9742.497424545975
 31
0.0
  0
LINE
  5
17D12
330
747D
100
AcDbEntity
  8
部品1
100
AcDbLine
 10
9081.173057123585
 20
9742.497424545975
 30
0.0
 11
9081.173057123585
 21
9292.497424545977
 31
0.0
  0
LINE
  5
17D13
330
747D
100
AcDbEntity
  8
部品1
100
AcDbLine
 10
7598.173057123583
 20
9292.497424545985
 30
0.0
 11
9081.173057123585
 21
9292.497424545977
 31
0.0
  0
LINE
  5
17D14
330
747D
100
AcDbEntity
  8
部品1
100
AcDbLine
 10
6088.173057123585
 20
9292.49742454588
 30
0.0
 11
7571.173057123584
 21
9292.497424545985
 31
0.0
  0
LINE
  5
17D15
330
747D
100
AcDbEntity
  8
部品1
100
AcDbLine
 10
7549.673057123584
 20
9762.497424545983
 30
0.0
 11
7549.673057123584
 21
9744.497424545983
 31
0.0
  0
LINE
  5
17D16
330
747D
100
AcDbEntity
  8
部品1
100
AcDbLine
 10
7549.673057123584
 20
9762.497424545983
 30
0.0
 11
7555.673057123584
 21
9762.497424545983
 31
0.0
  0
LINE
  5
17D17
330
747D
100
AcDbEntity
  8
部品1
100
AcDbLine
 10
7572.173057123584
 20
9736.497424545978
 30
0.0
 11
7597.173057123583
 21
9736.497424545982
 31
0.0
  0
LINE
  5
17D18
330
747D
100
AcDbEntity
  8
部品1
100
AcDbLine
 10
7619.673057123584
 20
9762.497424545983
 30
0.0
 11
7619.673057123584
 21
9744.497424545983
 31
0.0
  0
LINE
  5
17D19
330
747D
100
AcDbEntity
  8
部品1
100
AcDbLine
 10
7613.673057123584
 20
9762.497424545983
 30
0.0
 11
7619.673057123584
 21
9762.497424545983
 31
0.0
  0
LINE
  5
17D1A
330
747D
100
AcDbEntity
  8
部品1
100
AcDbLine
 10
7572.173057123584
 20
9292.497424545985
 30
0.0
 11
7597.173057123583
 21
9292.497424545985
 31
0.0
  0
LINE
  5
17D1B
330
747D
100
AcDbEntity
  8
部品1
100
AcDbLine
 10
4548.173057123584
 20
9742.497424545982
 30
0.0
 11
6031.173057123584
 21
9742.497424545975
 31
0.0
  0
LINE
  5
17D1C
330
747D
100
AcDbEntity
  8
部品1
100
AcDbLine
 10
6088.173057123583
 20
9742.497424545881
 30
0.0
 11
7571.173057123584
 21
9742.497424545986
 31
0.0
  0
LINE
  5
17D1D
330
747D
100
AcDbEntity
  8
部品1
100
AcDbLine
 10
4548.173057123583
 20
9292.497424545985
 30
0.0
 11
6031.173057123584
 21
9292.497424545977
 31
0.0
  0
LINE
  5
17D1E
330
747D
100
AcDbEntity
  8
部品1
100
AcDbLine
 10
3038.173057123585
 20
9292.49742454588
 30
0.0
 11
4521.173057123583
 21
9292.497424545985
 31
0.0
  0
LINE
  5
17D1F
330
747D
100
AcDbEntity
  8
部品1
100
AcDbLine
 10
4522.173057123583
 20
9292.497424545985
 30
0.0
 11
4547.173057123583
 21
9292.497424545985
 31
0.0
  0
LINE
  5
17D20
330
747D
100
AcDbEntity
  8
部品1
100
AcDbLine
 10
4499.673057123583
 20
9762.497424545983
 30
0.0
 11
4505.673057123583
 21
9762.497424545983
 31
0.0
  0
LINE
  5
17D21
330
747D
100
AcDbEntity
  8
部品1
100
AcDbLine
 10
4499.673057123583
 20
9762.497424545983
 30
0.0
 11
4499.673057123583
 21
9744.497424545983
 31
0.0
  0
LINE
  5
17D22
330
747D
100
AcDbEntity
  8
部品1
100
AcDbLine
 10
4569.673057123583
 20
9762.497424545983
 30
0.0
 11
4569.673057123583
 21
9744.497424545983
 31
0.0
  0
LINE
  5
17D23
330
747D
100
AcDbEntity
  8
部品1
100
AcDbLine
 10
4563.673057123583
 20
9762.497424545983
 30
0.0
 11
4569.673057123583
 21
9762.497424545983
 31
0.0
  0
LINE
  5
17D24
330
747D
100
AcDbEntity
  8
部品1
100
AcDbLine
 10
4522.173057123583
 20
9736.497424545978
 30
0.0
 11
4547.173057123583
 21
9736.497424545982
 31
0.0
  0
LINE
  5
17D25
330
747D
100
AcDbEntity
  8
部品1
100
AcDbLine
 10
3038.173057123583
 20
9742.497424545881
 30
0.0
 11
4521.173057123584
 21
9742.497424545986
 31
0.0
  0
LINE
  5
17D26
330
747D
100
AcDbEntity
  8
部品1
 48
50.0
100
AcDbLine
 10
3038.173057123583
 20
9742.497424545877
 30
0.0
 11
3038.173057123584
 21
9292.497424545876
 31
0.0
  0
LINE
  5
17D6F
330
747D
100
AcDbEntity
  8
部品1
 48
50.0
100
AcDbLine
 10
6114.673057123656
 20
8037.49742454598
 30
0.0
 11
9054.673057123643
 21
8037.497424545966
 31
0.0
  0
LINE
  5
17D70
330
747D
100
AcDbEntity
  8
部品1
 48
50.0
100
AcDbLine
 10
6114.673057123659
 20
8457.497424545982
 30
0.0
 11
9054.673057123649
 21
8457.497424545968
 31
0.0
  0
LINE
  5
17D71
330
747D
100
AcDbEntity
  8
部品1
 48
50.0
100
AcDbLine
 10
6114.67305712366
 20
8877.497424545982
 30
0.0
 11
9054.673057123649
 21
8877.497424545968
 31
0.0
  0
LINE
  5
17D72
330
747D
100
AcDbEntity
  8
破線
 48
10.0
100
AcDbLine
 10
9029.673057123583
 20
7295.99742454583
 30
0.0
 11
8337.173057123576
 21
7295.997424545811
 31
0.0
  0
LINE
  5
17D73
330
747D
100
AcDbEntity
  8
部品1
 48
50.0
100
AcDbLine
 10
6114.673057123654
 20
7227.497424545865
 30
0.0
 11
9054.673057123642
 21
7227.4974245457
 31
0.0
  0
LINE
  5
17D74
330
747D
100
AcDbEntity
  8
部品1
100
AcDbLine
 10
9054.673057123553
 20
7272.497424545782
 30
0.0
 11
6114.673057123527
 21
7272.497424545784
 31
0.0
  0
LINE
  5
17D75
330
747D
100
AcDbEntity
  8
部品1
 48
50.0
100
AcDbLine
 10
6114.673057123654
 20
7272.497424545864
 30
0.0
 11
9029.673057123641
 21
7272.497424545702
 31
0.0
  0
LINE
  5
17D76
330
747D
100
AcDbEntity
  8
部品1
 48
50.0
100
AcDbLine
 10
6114.673057123655
 20
7617.497424545979
 30
0.0
 11
9054.673057123643
 21
7617.497424545966
 31
0.0
  0
LINE
  5
17D77
330
747D
100
AcDbEntity
  8
部品1
 48
50.0
100
AcDbLine
 10
6114.673057123653
 20
7142.497424545864
 30
0.0
 11
9054.673057123642
 21
7142.497424545844
 31
0.0
  0
DIMENSION
  5
17D78
330
747D
100
AcDbEntity
  8
寸法
 48
50.0
100
AcDbDimension
  2
*D2
 10
9109.673057123664
 20
10537.62711772726
 30
0.0
 11
7584.673057123665
 21
10637.62711772726
 31
0.0
 70
    32
 71
     5
 42
3050.0
  3
INABA_S40G
100
AcDbAlignedDimension
 13
6059.673057123664
 23
10447.29355852891
 33
0.0
 14
9109.673057123664
 24
9772.497424545964
 34
0.0
100
AcDbRotatedDimension
1001
ACAD
1000
DSTYLE
1002
{
1070
    75
1070
     1
1070
   279
1070
     2
1002
}
  0
LINE
  5
17D79
330
747D
100
AcDbEntity
  8
部品1
100
AcDbLine
 10
7597.173057123583
 20
9744.497424545983
 30
0.0
 11
9081.673057123664
 21
9744.497424545963
 31
0.0
  0
DIMENSION
  5
17D7A
330
747D
100
AcDbEntity
  8
寸法
100
AcDbDimension
  2
*D3
 10
9054.673057123663
 20
10288.30564417096
 30
0.0
 11
7584.673057123665
 21
10388.31745519459
 31
0.0
 70
    32
  1
7X420=<>
 71
     5
 42
2940.000000000001
  3
INABA_S40G
100
AcDbAlignedDimension
 13
6114.673057123663
 23
9772.49742454587
 33
0.0
 14
9054.673057123663
 24
9772.497424545964
 34
0.0
100
AcDbRotatedDimension
1001
ACAD
1000
DSTYLE
1002
{
1002
}
  0
LINE
  5
17D7B
330
747D
100
AcDbEntity
  8
部品1
100
AcDbLine
 10
3009.673057123663
 20
9772.49742454587
 30
0.0
 11
9109.673057123664
 21
9772.497424545964
 31
0.0
  0
DIMENSION
  5
17D7C
330
747D
100
AcDbEntity
  8
寸法
100
AcDbDimension
  2
*D4
 10
9109.673057123627
 20
6161.893658188827
 30
0.0
 11
6059.673057123642
 21
6261.893658188826
 31
0.0
 70
    32
 71
     5
 42
-1.0
  3
INABA_S40G
100
AcDbAlignedDimension
 13
3009.673057123657
 23
7142.497424545862
 33
0.0
 14
9109.673057123627
 24
7142.497424545957
 34
0.0
100
AcDbRotatedDimension
1001
ACAD
1000
DSTYLE
1002
{
1002
}
  0
LINE
  5
17D7D
330
747D
100
AcDbEntity
  8
部品1
 48
50.0
100
AcDbLine
 10
6126.673057123656
 20
7187.997424545864
 30
0.0
 11
9042.673057123641
 21
7187.997424545864
 31
0.0
  0
DIMENSION
  5
17D7E
330
747D
100
AcDbEntity
  8
寸法
 48
50.0
100
AcDbDimension
  2
*D5
 10
6162.673057123657
 20
6608.0666537797
 30
0.0
 11
7584.673057123648
 21
6708.078464803323
 31
0.0
 70
    32
  1
有効開口部間口 <>
 71
     5
 42
-1.0
  3
INABA_S40G
100
AcDbAlignedDimension
 13
9006.67305712364
 23
7168.497424545865
 33
0.0
 14
6162.673057123657
 24
7168.497424545865
 34
0.0
100
AcDbRotatedDimension
1001
ACAD
1000
DSTYLE
1002
{
1070
    75
1070
     1
1070
   279
1070
     2
1002
}
  0
LINE
  5
17D80
330
747D
100
AcDbEntity
  8
破線
 48
10.0
100
AcDbLine
 10
3782.173057123578
 20
7295.997424545761
 30
0.0
 11
3089.67305712359
 21
7295.997424545736
 31
0.0
  0
LINE
  5
17D81
330
747D
100
AcDbEntity
  8
部品1
100
AcDbLine
 10
6004.673057123552
 20
7272.497424545782
 30
0.0
 11
3064.673057123527
 21
7272.497424545786
 31
0.0
  0
LINE
  5
17D83
330
747D
100
AcDbEntity
  8
部品1
 48
50.0
100
AcDbLine
 10
3064.673057123654
 20
7272.497424545865
 30
0.0
 11
5979.67305712364
 21
7272.497424545702
 31
0.0
  0
LINE
  5
17D84
330
747D
100
AcDbEntity
  8
部品1
 48
50.0
100
AcDbLine
 10
3064.673057123654
 20
7227.497424545865
 30
0.0
 11
6004.673057123642
 21
7227.4974245457
 31
0.0
  0
LINE
  5
17D85
330
747D
100
AcDbEntity
  8
部品1
 48
50.0
100
AcDbLine
 10
3064.673057123655
 20
7617.49742454598
 30
0.0
 11
6004.673057123643
 21
7617.497424545966
 31
0.0
  0
LINE
  5
17D86
330
747D
100
AcDbEntity
  8
部品1
 48
50.0
100
AcDbLine
 10
3064.673057123657
 20
8037.49742454598
 30
0.0
 11
6004.673057123645
 21
8037.497424545966
 31
0.0
  0
LINE
  5
17D87
330
747D
100
AcDbEntity
  8
部品1
 48
50.0
100
AcDbLine
 10
3064.673057123659
 20
8457.497424545982
 30
0.0
 11
6004.673057123646
 21
8457.497424545968
 31
0.0
  0
LINE
  5
17D88
330
747D
100
AcDbEntity
  8
部品1
 48
50.0
100
AcDbLine
 10
3064.67305712366
 20
8877.497424545982
 30
0.0
 11
6004.673057123649
 21
8877.497424545968
 31
0.0
  0
LINE
  5
17D8A
330
747D
100
AcDbEntity
  8
部品1
 48
50.0
100
AcDbLine
 10
3064.673057123652
 20
7142.497424545864
 30
0.0
 11
6004.67305712364
 21
7142.497424545952
 31
0.0
  0
DIMENSION
  5
17D8B
330
747D
100
AcDbEntity
  8
寸法
 48
50.0
100
AcDbDimension
  2
*D6
 10
6059.673057123664
 20
10537.62711772726
 30
0.0
 11
4534.673057123645
 21
10637.62711772726
 31
0.0
 70
    32
 71
     5
 42
3050.000000000036
  3
INABA_S40G
100
AcDbAlignedDimension
 13
3009.673057123629
 23
9772.497424545838
 33
0.0
 14
6059.673057123664
 24
10447.29355852891
 34
0.0
100
AcDbRotatedDimension
1001
ACAD
1000
DSTYLE
1002
{
1070
   279
1070
     2
1002
}
  0
LINE
  5
17D8C
330
747D
100
AcDbEntity
  8
部品1
100
AcDbLine
 10
3037.67305712365
 20
9744.497424545986
 30
0.0
 11
4522.173057123661
 21
9744.497424545986
 31
0.0
  0
DIMENSION
  5
17D8D
330
747D
100
AcDbEntity
  8
寸法
100
AcDbDimension
  2
*D7
 10
6004.673057123664
 20
10288.30564417096
 30
0.0
 11
4534.673057123664
 21
10388.31745519459
 31
0.0
 70
    32
  1
7X420=<>
 71
     5
 42
2940.000000000001
  3
INABA_S40G
100
AcDbAlignedDimension
 13
3064.673057123663
 23
9772.49742454587
 33
0.0
 14
6004.673057123664
 24
9772.497424545964
 34
0.0
100
AcDbRotatedDimension
1001
ACAD
1000
DSTYLE
1002
{
1002
}
  0
LINE
  5
17D8E
330
747D
100
AcDbEntity
  8
部品1
 48
50.0
100
AcDbLine
 10
3076.673057123656
 20
7187.997424545864
 30
0.0
 11
5992.67305712364
 21
7187.997424545864
 31
0.0
  0
DIMENSION
  5
17D8F
330
747D
100
AcDbEntity
  8
寸法
 48
50.0
100
AcDbDimension
  2
*D8
 10
3064.673057123653
 20
6608.0666537797
 30
0.0
 11
3225.575028123714
 21
6708.0666537797
 31
0.0
 70
   160
 71
     5
 42
-1.0
  3
INABA_S40G
100
AcDbAlignedDimension
 13
3112.673057123657
 23
7168.497424545865
 33
0.0
 14
3064.673057123653
 24
7142.497424545864
 34
0.0
100
AcDbRotatedDimension
1001
ACAD
1000
DSTYLE
1002
{
1070
   279
1070
     2
1002
}
  0
DIMENSION
  5
17D90
330
747D
100
AcDbEntity
  8
寸法
 48
50.0
100
AcDbDimension
  2
*D9
 10
3112.673057123657
 20
6608.0666537797
 30
0.0
 11
4534.673057123647
 21
6708.078464803323
 31
0.0
 70
    32
  1
有効開口部間口 <>
 71
     5
 42
-1.0
  3
INABA_S40G
100
AcDbAlignedDimension
 13
5956.673057123638
 23
7168.497424545865
 33
0.0
 14
3112.673057123657
 24
7168.497424545865
 34
0.0
100
AcDbRotatedDimension
1001
ACAD
1000
DSTYLE
1002
{
1070
    75
1070
     1
1070
   279
1070
     2
1002
}
  0
DIMENSION
  5
17D91
330
747D
100
AcDbEntity
  8
寸法
100
AcDbDimension
  2
*D10
 10
3064.673057123663
 20
10288.30564417085
 30
0.0
 11
2701.18777574939
 21
10288.30564417085
 31
0.0
 70
   160
 71
     5
 42
55.00000000003456
  3
INABA_S40G
100
AcDbAlignedDimension
 13
3009.673057123629
 23
9772.49742454587
 33
0.0
 14
3064.673057123663
 24
9772.49742454587
 34
0.0
100
AcDbRotatedDimension
1001
ACAD
1000
DSTYLE
1002
{
1002
}
  0
DIMENSION
  5
17D92
330
747D
100
AcDbEntity
  8
寸法
 48
50.0
100
AcDbDimension
  2
*D11
 10
3009.673057123657
 20
6608.0666537797
 30
0.0
 11
2701.187775749418
 21
6608.0666537797
 31
0.0
 70
   160
 71
     5
 42
-1.0
  3
INABA_S40G
100
AcDbAlignedDimension
 13
3064.673057123653
 23
7142.497424545864
 33
0.0
 14
3009.673057123657
 24
7142.497424545862
 34
0.0
100
AcDbRotatedDimension
1001
ACAD
1000
DSTYLE
1002
{
1002
}
  0
LINE
  5
17D93
330
747D
100
AcDbEntity
  8
破線
 48
10.0
100
AcDbLine
 10
3089.67305712359
 20
7295.997424545736
 30
0.0
 11
3089.673057123649
 21
9292.497424545883
 31
0.0
  0
LINE
  5
17D94
330
747D
100
AcDbEntity
  8
部品1
100
AcDbLine
 10
3064.673057123643
 20
9292.49742454588
 30
0.0
 11
3064.673057123657
 21
7207.497424545865
 31
0.0
  0
LINE
  5
17D95
330
747D
100
AcDbEntity
  8
部品1
100
AcDbLine
 10
3009.673057123629
 20
9772.497424545838
 30
0.0
 11
3009.673057123657
 21
7142.497424545826
 31
0.0
  0
LINE
  5
17D96
330
747D
100
AcDbEntity
  8
部品1
100
AcDbLine
 10
3037.673057123639
 20
7197.497424545821
 30
0.0
 11
3037.67305712365
 21
9744.497424545871
 31
0.0
  0
LINE
  5
17D97
330
747D
100
AcDbEntity
  8
部品1
100
AcDbLine
 10
3064.67305712364
 20
9292.497424545871
 30
0.0
 11
3064.673057123656
 21
7207.497424545863
 31
0.0
  0
LINE
  5
17D98
330
747D
100
AcDbEntity
  8
部品1
100
AcDbLine
 10
3037.673057123655
 20
7197.49742454584
 30
0.0
 11
3009.673057123655
 21
7197.49742454584
 31
0.0
  0
LINE
  5
17D99
330
747D
100
AcDbEntity
  8
部品1
100
AcDbLine
 10
3037.673057123639
 20
7197.497424545826
 30
0.0
 11
3009.673057123655
 21
7197.497424545826
 31
0.0
  0
LINE
  5
17D9A
330
747D
100
AcDbEntity
  8
部品1
100
AcDbLine
 10
3064.673057123656
 20
7197.497424545789
 30
0.0
 11
3009.673057123655
 21
7197.497424545789
 31
0.0
  0
LINE
  5
17D9B
330
747D
100
AcDbEntity
  8
部品1
100
AcDbLine
 10
3064.673057123656
 20
7178.497424545864
 30
0.0
 11
3041.673057123657
 21
7178.497424545864
 31
0.0
  0
LINE
  5
17D9C
330
747D
100
AcDbEntity
  8
部品1
100
AcDbLine
 10
3112.673057123657
 20
7168.497424545865
 30
0.0
 11
3064.673057123657
 21
7168.497424545865
 31
0.0
  0
LINE
  5
17D9D
330
747D
100
AcDbEntity
  8
部品1
100
AcDbLine
 10
3112.673057123657
 20
7207.497424545865
 30
0.0
 11
3064.673057123657
 21
7207.497424545865
 31
0.0
  0
LINE
  5
17D9E
330
747D
100
AcDbEntity
  8
部品1
 48
50.0
100
AcDbLine
 10
3112.673057123657
 20
7207.497424545865
 30
0.0
 11
3112.673057123657
 21
7198.497424545866
 31
0.0
  0
LINE
  5
17D9F
330
747D
100
AcDbEntity
  8
部品1
 48
50.0
100
AcDbLine
 10
3112.673057123657
 20
7168.497424545865
 30
0.0
 11
3112.673057123657
 21
7177.497424545865
 31
0.0
  0
LINE
  5
17DA0
330
747D
100
AcDbEntity
  8
部品1
 48
50.0
100
AcDbLine
 10
3064.673057123657
 20
7207.497424545863
 30
0.0
 11
3064.673057123653
 21
7142.497424545864
 31
0.0
  0
LINE
  5
17DA1
330
747D
100
AcDbEntity
  8
部品1
 48
50.0
100
AcDbLine
 10
3074.673057123657
 20
7168.497424545865
 30
0.0
 11
3064.673057123657
 21
7147.497424545864
 31
0.0
  0
LINE
  5
17DA2
330
747D
100
AcDbEntity
  8
部品1
 48
50.0
100
AcDbLine
 10
3064.673057123657
 20
7178.497424545864
 30
0.0
 11
3041.673057123657
 21
7178.497424545864
 31
0.0
  0
LINE
  5
17DA3
330
747D
100
AcDbEntity
  8
部品1
100
AcDbLine
 10
3064.673057123652
 20
7142.497424545864
 30
0.0
 11
3009.673057123657
 21
7142.497424545862
 31
0.0
  0
LINE
  5
17DA4
330
747D
100
AcDbEntity
  8
部品1
100
AcDbLine
 10
3037.673057123643
 20
7617.49742454584
 30
0.0
 11
3009.673057123643
 21
7617.49742454584
 31
0.0
  0
LINE
  5
17DA5
330
747D
100
AcDbEntity
  8
部品1
100
AcDbLine
 10
3037.673057123643
 20
8037.49742454584
 30
0.0
 11
3009.673057123643
 21
8037.49742454584
 31
0.0
  0
LINE
  5
17DA6
330
747D
100
AcDbEntity
  8
部品1
100
AcDbLine
 10
3037.673057123643
 20
8457.49742454584
 30
0.0
 11
3009.673057123643
 21
8457.49742454584
 31
0.0
  0
LINE
  5
17DA7
330
747D
100
AcDbEntity
  8
部品1
100
AcDbLine
 10
3037.673057123643
 20
8877.49742454584
 30
0.0
 11
3009.673057123643
 21
8877.49742454584
 31
0.0
  0
LINE
  5
17DA8
330
747D
100
AcDbEntity
  8
部品1
100
AcDbLine
 10
3037.673057123638
 20
9297.49742454584
 30
0.0
 11
3009.673057123638
 21
9297.49742454584
 31
0.0
  0
LINE
  5
17DAA
330
747D
100
AcDbEntity
  8
部品1
100
AcDbLine
 10
3037.673057123631
 20
9717.49742454584
 30
0.0
 11
3009.67305712363
 21
9717.49742454584
 31
0.0
  0
LINE
  5
17DAB
330
747D
100
AcDbEntity
  8
部品1
100
AcDbLine
 10
3064.673057123663
 20
9772.49742454587
 30
0.0
 11
3064.673057123663
 21
9744.497424545869
 31
0.0
  0
LINE
  5
17DAC
330
747D
100
AcDbEntity
  8
部品1
100
AcDbLine
 10
3064.673057123629
 20
9772.497424545838
 30
0.0
 11
3064.673057123631
 21
9744.497424545837
 31
0.0
  0
LINE
  5
17DAD
330
747D
100
AcDbEntity
  8
部品1
 48
50.0
100
AcDbLine
 10
6087.673057123631
 20
9717.497424545886
 30
0.0
 11
6087.673057123759
 21
7142.497424545864
 31
0.0
  0
LINE
  5
17DAE
330
747D
100
AcDbEntity
  8
部品1
100
AcDbLine
 10
6114.673057123642
 20
9292.497424545882
 30
0.0
 11
6114.673057123656
 21
7207.497424545863
 31
0.0
  0
LINE
  5
17DAF
330
747D
100
AcDbEntity
  8
部品1
 48
50.0
100
AcDbLine
 10
7584.673057123727
 20
9292.497424545985
 30
0.0
 11
7584.673057123628
 21
7272.497424545782
 31
0.0
  0
LINE
  5
17DB0
330
747D
100
AcDbEntity
  8
破線
 48
10.0
100
AcDbLine
 10
7609.673057123576
 20
7272.497424545798
 30
0.0
 11
7609.673057123679
 21
9292.497424545985
 31
0.0
  0
LINE
  5
17DB1
330
747D
100
AcDbEntity
  8
破線
 48
10.0
100
AcDbLine
 10
7559.673057123578
 20
7272.497424545797
 30
0.0
 11
7559.673057123681
 21
9292.497424545983
 31
0.0
  0
LINE
  5
17DB2
330
747D
100
AcDbEntity
  8
破線
 48
10.0
100
AcDbLine
 10
6832.173057123579
 20
7272.497424545797
 30
0.0
 11
6832.173057123681
 21
9292.497424545933
 31
0.0
  0
LINE
  5
17DB3
330
747D
100
AcDbEntity
  8
破線
 48
10.0
100
AcDbLine
 10
6882.173057123576
 20
7272.497424545798
 30
0.0
 11
6882.173057123679
 21
9292.497424545933
 31
0.0
  0
LINE
  5
17DB4
330
747D
100
AcDbEntity
  8
破線
 48
10.0
100
AcDbLine
 10
6139.673057123589
 20
7295.997424545736
 30
0.0
 11
6139.673057123649
 21
9292.497424545883
 31
0.0
  0
LINE
  5
17DB5
330
747D
100
AcDbEntity
  8
破線
 48
10.0
100
AcDbLine
 10
8337.173057123576
 20
7272.497424545798
 30
0.0
 11
8337.173057123681
 21
9292.497424545983
 31
0.0
  0
LINE
  5
17DB6
330
747D
100
AcDbEntity
  8
破線
 48
10.0
100
AcDbLine
 10
8287.173057123579
 20
7272.497424545797
 30
0.0
 11
8287.173057123682
 21
9292.497424545983
 31
0.0
  0
LINE
  5
17DB7
330
747D
100
AcDbEntity
  8
部品1
100
AcDbLine
 10
6004.673057123653
 20
9292.497424545977
 30
0.0
 11
6004.673057123642
 21
7142.497424545954
 31
0.0
  0
LINE
  5
17DB8
330
747D
100
AcDbEntity
  8
部品1
100
AcDbLine
 10
6031.673057123651
 20
9744.497424545963
 30
0.0
 11
6031.673057123644
 21
7142.497424545862
 31
0.0
  0
LINE
  5
17DB9
330
747D
100
AcDbEntity
  8
部品1
 48
50.0
100
AcDbLine
 10
4534.673057123726
 20
9292.497424545985
 30
0.0
 11
4534.673057123628
 21
7272.497424545782
 31
0.0
  0
LINE
  5
17DBA
330
747D
100
AcDbEntity
  8
破線
 48
10.0
100
AcDbLine
 10
4559.673057123577
 20
7272.4974245458
 30
0.0
 11
4559.673057123678
 21
9292.497424545985
 31
0.0
  0
LINE
  5
17DBB
330
747D
100
AcDbEntity
  8
破線
 48
10.0
100
AcDbLine
 10
4509.673057123579
 20
7272.497424545798
 30
0.0
 11
4509.673057123681
 21
9292.497424545983
 31
0.0
  0
LINE
  5
17DBC
330
747D
100
AcDbEntity
  8
破線
 48
10.0
100
AcDbLine
 10
5287.173057123577
 20
7272.4974245458
 30
0.0
 11
5287.17305712368
 21
9292.497424545983
 31
0.0
  0
LINE
  5
17DBD
330
747D
100
AcDbEntity
  8
破線
 48
10.0
100
AcDbLine
 10
5237.173057123579
 20
7272.497424545798
 30
0.0
 11
5237.173057123681
 21
9292.497424545983
 31
0.0
  0
LINE
  5
17DBE
330
747D
100
AcDbEntity
  8
破線
 48
10.0
100
AcDbLine
 10
5979.673057123553
 20
7272.497424545782
 30
0.0
 11
5979.673057123656
 21
9292.497424545977
 31
0.0
  0
LINE
  5
17DBF
330
747D
100
AcDbEntity
  8
破線
 48
10.0
100
AcDbLine
 10
3782.173057123578
 20
7272.497424545798
 30
0.0
 11
3782.173057123683
 21
9292.497424545933
 31
0.0
  0
LINE
  5
17DC0
330
747D
100
AcDbEntity
  8
破線
 48
10.0
100
AcDbLine
 10
3832.173057123577
 20
7272.4974245458
 30
0.0
 11
3832.173057123681
 21
9292.497424545937
 31
0.0
  0
LINE
  5
17DC1
330
747D
100
AcDbEntity
  8
破線
 48
10.0
100
AcDbLine
 10
5979.673057123582
 20
7295.997424545831
 30
0.0
 11
5287.173057123577
 21
7295.997424545813
 31
0.0
  0
DIMENSION
  5
17DC2
330
747D
100
AcDbEntity
  8
寸法
 48
50.0
100
AcDbDimension
  2
*D12
 10
5956.673057123638
 20
6608.0666537797
 30
0.0
 11
5845.710159474891
 21
6708.0666537797
 31
0.0
 70
   160
 71
     5
 42
-1.0
  3
INABA_S40G
100
AcDbAlignedDimension
 13
6004.67305712364
 23
7142.497424545952
 33
0.0
 14
5956.673057123638
 24
7168.497424545865
 34
0.0
100
AcDbRotatedDimension
1001
ACAD
1000
DSTYLE
1002
{
1070
   279
1070
     2
1002
}
  0
LINE
  5
17DC3
330
747D
100
AcDbEntity
  8
破線
 48
10.0
100
AcDbLine
 10
4509.673057123579
 20
7295.997424545792
 30
0.0
 11
3832.173057123577
 21
7295.997424545763
 31
0.0
  0
LINE
  5
17DC4
330
747D
100
AcDbEntity
  8
破線
 48
10.0
100
AcDbLine
 10
5237.173057123579
 20
7295.997424545813
 30
0.0
 11
4559.673057123578
 21
7295.997424545794
 31
0.0
  0
LINE
  5
17DC5
330
747D
100
AcDbEntity
  8
破線
 48
10.0
100
AcDbLine
 10
7559.673057123578
 20
7295.99742454579
 30
0.0
 11
6882.173057123576
 21
7295.997424545763
 31
0.0
  0
DIMENSION
  5
17DC6
330
747D
100
AcDbEntity
  8
寸法
 48
50.0
100
AcDbDimension
  2
*D13
 10
6004.67305712364
 20
6608.066653779701
 30
0.0
 11
6059.673057123647
 21
6456.37475874347
 31
0.0
 70
   160
 71
     5
 42
-1.0
  3
INABA_S40G
100
AcDbAlignedDimension
 13
6114.673057123653
 23
7142.497424545864
 33
0.0
 14
6004.67305712364
 24
7142.497424545952
 34
0.0
100
AcDbRotatedDimension
1001
ACAD
1000
DSTYLE
1002
{
1070
   279
1070
     2
1002
}
  0
DIMENSION
  5
17DC7
330
747D
100
AcDbEntity
  8
寸法
 48
50.0
100
AcDbDimension
  2
*D14
 10
6114.673057123653
 20
6608.0666537797
 30
0.0
 11
6275.575028123714
 21
6708.0666537797
 31
0.0
 70
   160
 71
     5
 42
-1.0
  3
INABA_S40G
100
AcDbAlignedDimension
 13
6162.673057123657
 23
7168.497424545865
 33
0.0
 14
6114.673057123653
 24
7142.497424545864
 34
0.0
100
AcDbRotatedDimension
1001
ACAD
1000
DSTYLE
1002
{
1070
   279
1070
     2
1002
}
  0
LINE
  5
17DC8
330
747D
100
AcDbEntity
  8
破線
 48
10.0
100
AcDbLine
 10
6832.173057123579
 20
7295.99742454576
 30
0.0
 11
6139.673057123589
 21
7295.997424545736
 31
0.0
  0
LINE
  5
17DC9
330
747D
100
AcDbEntity
  8
部品1
100
AcDbLine
 10
6114.673057123653
 20
7142.497424545864
 30
0.0
 11
6004.673057123643
 21
7142.497424545858
 31
0.0
  0
LINE
  5
17DCA
330
747D
100
AcDbEntity
  8
部品1
100
AcDbLine
 10
6114.673057123656
 20
7178.497424545864
 30
0.0
 11
6091.673057123657
 21
7178.497424545864
 31
0.0
  0
LINE
  5
17DCB
330
747D
100
AcDbEntity
  8
部品1
 48
50.0
100
AcDbLine
 10
6083.673057123648
 20
7197.497424545861
 30
0.0
 11
6083.67305712365
 21
7142.497424545862
 31
0.0
  0
LINE
  5
17DCC
330
747D
100
AcDbEntity
  8
部品1
 48
50.0
100
AcDbLine
 10
6035.673057123648
 20
7197.497424545861
 30
0.0
 11
6035.67305712365
 21
7142.497424545862
 31
0.0
  0
LINE
  5
17DCD
330
747D
100
AcDbEntity
  8
部品1
100
AcDbLine
 10
6083.673057123648
 20
7197.497424545861
 30
0.0
 11
6035.673057123647
 21
7197.49742454586
 31
0.0
  0
LINE
  5
17DCE
330
747D
100
AcDbEntity
  8
部品1
 48
50.0
100
AcDbLine
 10
6004.673057123645
 20
7207.497424545952
 30
0.0
 11
6004.673057123642
 21
7142.497424545952
 31
0.0
  0
LINE
  5
17DCF
330
747D
100
AcDbEntity
  8
部品1
100
AcDbLine
 10
6004.673057123639
 20
7178.497424545863
 30
0.0
 11
6027.673057123639
 21
7178.497424545864
 31
0.0
  0
LINE
  5
17DD0
330
747D
100
AcDbEntity
  8
部品1
 48
50.0
100
AcDbLine
 10
5994.673057123638
 20
7168.497424545865
 30
0.0
 11
6004.673057123639
 21
7147.497424545864
 31
0.0
  0
LINE
  5
17DD1
330
747D
100
AcDbEntity
  8
部品1
 48
50.0
100
AcDbLine
 10
5956.673057123638
 20
7168.497424545865
 30
0.0
 11
5956.673057123638
 21
7177.497424545865
 31
0.0
  0
LINE
  5
17DD2
330
747D
100
AcDbEntity
  8
部品1
100
AcDbLine
 10
5956.673057123638
 20
7168.497424545865
 30
0.0
 11
6004.673057123639
 21
7168.497424545865
 31
0.0
  0
LINE
  5
17DD3
330
747D
100
AcDbEntity
  8
部品1
 48
50.0
100
AcDbLine
 10
5956.673057123638
 20
7207.497424545865
 30
0.0
 11
5956.673057123638
 21
7198.497424545866
 31
0.0
  0
LINE
  5
17DD4
330
747D
100
AcDbEntity
  8
部品1
100
AcDbLine
 10
5956.673057123638
 20
7207.497424545865
 30
0.0
 11
6004.67305712364
 21
7207.497424545865
 31
0.0
  0
LINE
  5
17DD5
330
747D
100
AcDbEntity
  8
部品1
 48
50.0
100
AcDbLine
 10
6162.673057123657
 20
7168.497424545865
 30
0.0
 11
6162.673057123657
 21
7177.497424545865
 31
0.0
  0
LINE
  5
17DD6
330
747D
100
AcDbEntity
  8
部品1
 48
50.0
100
AcDbLine
 10
6114.673057123656
 20
7207.497424545863
 30
0.0
 11
6114.673057123653
 21
7142.497424545864
 31
0.0
  0
LINE
  5
17DD7
330
747D
100
AcDbEntity
  8
部品1
 48
50.0
100
AcDbLine
 10
6124.673057123657
 20
7168.497424545865
 30
0.0
 11
6114.673057123656
 21
7147.497424545864
 31
0.0
  0
LINE
  5
17DD8
330
747D
100
AcDbEntity
  8
部品1
100
AcDbLine
 10
6162.673057123657
 20
7168.497424545865
 30
0.0
 11
6114.673057123656
 21
7168.497424545865
 31
0.0
  0
LINE
  5
17DD9
330
747D
100
AcDbEntity
  8
部品1
 48
50.0
100
AcDbLine
 10
6162.673057123657
 20
7207.497424545865
 30
0.0
 11
6162.673057123657
 21
7198.497424545866
 31
0.0
  0
LINE
  5
17DDA
330
747D
100
AcDbEntity
  8
部品1
100
AcDbLine
 10
6162.673057123657
 20
7207.497424545865
 30
0.0
 11
6114.673057123656
 21
7207.497424545865
 31
0.0
  0
LINE
  5
17DDB
330
747D
100
AcDbEntity
  8
破線
 48
10.0
100
AcDbLine
 10
8287.173057123579
 20
7295.997424545811
 30
0.0
 11
7609.673057123578
 21
7295.997424545793
 31
0.0
  0
LINE
  5
17DDD
330
747D
100
AcDbEntity
  8
部品1
100
AcDbLine
 10
4547.173057123583
 20
9744.497424545983
 30
0.0
 11
6031.673057123664
 21
9744.497424545963
 31
0.0
  0
LINE
  5
17DDF
330
747D
100
AcDbEntity
  8
部品1
100
AcDbLine
 10
3484.673057123663
 20
9772.49742454587
 30
0.0
 11
3484.673057123663
 21
9744.497424545869
 31
0.0
  0
LINE
  5
17DE0
330
747D
100
AcDbEntity
  8
部品1
100
AcDbLine
 10
3484.673057123663
 20
9772.49742454587
 30
0.0
 11
3484.673057123663
 21
9744.497424545869
 31
0.0
  0
LINE
  5
17DE1
330
747D
100
AcDbEntity
  8
部品1
100
AcDbLine
 10
3484.673057123663
 20
9772.497424545987
 30
0.0
 11
3484.673057123663
 21
9744.497424545986
 31
0.0
  0
LINE
  5
17DE2
330
747D
100
AcDbEntity
  8
部品1
100
AcDbLine
 10
3904.673057123663
 20
9772.49742454587
 30
0.0
 11
3904.673057123663
 21
9744.497424545869
 31
0.0
  0
LINE
  5
17DE3
330
747D
100
AcDbEntity
  8
部品1
100
AcDbLine
 10
3904.673057123663
 20
9772.49742454587
 30
0.0
 11
3904.673057123663
 21
9744.497424545869
 31
0.0
  0
LINE
  5
17DE4
330
747D
100
AcDbEntity
  8
部品1
100
AcDbLine
 10
3904.673057123663
 20
9772.497424545987
 30
0.0
 11
3904.673057123663
 21
9744.497424545986
 31
0.0
  0
LINE
  5
17DE5
330
747D
100
AcDbEntity
  8
部品1
100
AcDbLine
 10
4324.673057123663
 20
9772.49742454587
 30
0.0
 11
4324.673057123663
 21
9744.497424545869
 31
0.0
  0
LINE
  5
17DE6
330
747D
100
AcDbEntity
  8
部品1
100
AcDbLine
 10
4324.673057123663
 20
9772.49742454587
 30
0.0
 11
4324.673057123663
 21
9744.497424545869
 31
0.0
  0
LINE
  5
17DE7
330
747D
100
AcDbEntity
  8
部品1
100
AcDbLine
 10
4324.673057123663
 20
9772.497424545987
 30
0.0
 11
4324.673057123663
 21
9744.497424545986
 31
0.0
  0
LINE
  5
17DE9
330
747D
100
AcDbEntity
  8
部品1
100
AcDbLine
 10
4744.673057123662
 20
9772.497424545987
 30
0.0
 11
4744.673057123662
 21
9744.497424545986
 31
0.0
  0
LINE
  5
17DEA
330
747D
100
AcDbEntity
  8
部品1
100
AcDbLine
 10
5164.673057123663
 20
9772.497424545987
 30
0.0
 11
5164.673057123663
 21
9744.497424545986
 31
0.0
  0
LINE
  5
17DEB
330
747D
100
AcDbEntity
  8
部品1
100
AcDbLine
 10
5584.673057123662
 20
9772.497424545987
 30
0.0
 11
5584.673057123662
 21
9744.497424545986
 31
0.0
  0
LINE
  5
17DED
330
747D
100
AcDbEntity
  8
部品1
100
AcDbLine
 10
6087.673057123663
 20
9744.497424545869
 30
0.0
 11
7572.173057123584
 21
9744.497424545873
 31
0.0
  0
DIMENSION
  5
17DF0
330
747D
100
AcDbEntity
  8
寸法
 48
50.0
100
AcDbDimension
  2
*D15
 10
6004.673057123664
 20
10288.30564417096
 30
0.0
 11
6059.673057123664
 21
10388.30564417096
 31
0.0
 70
    32
 71
     5
 42
109.9999999999991
  3
INABA_S40G
100
AcDbAlignedDimension
 13
6114.673057123663
 23
9772.497424545917
 33
0.0
 14
6004.673057123664
 24
9772.497424545916
 34
0.0
100
AcDbRotatedDimension
1001
ACAD
1000
DSTYLE
1002
{
1070
   279
1070
     2
1002
}
  0
LINE
  5
17DF3
330
747D
100
AcDbEntity
  8
部品1
 48
50.0
100
AcDbLine
 10
6031.673057123631
 20
9717.497424545886
 30
0.0
 11
6031.673057123631
 21
9744.497424545912
 31
0.0
  0
LINE
  5
17DF4
330
747D
100
AcDbEntity
  8
部品1
 48
50.0
100
AcDbLine
 10
6087.673057123631
 20
9717.497424545886
 30
0.0
 11
6087.673057123662
 21
9772.497424545917
 31
0.0
  0
LINE
  5
17DF5
330
747D
100
AcDbEntity
  8
部品1
 48
50.0
100
AcDbLine
 10
6031.673057123631
 20
9744.497424545912
 30
0.0
 11
6059.673057123629
 21
9744.497424545912
 31
0.0
  0
LINE
  5
17DF6
330
747D
100
AcDbEntity
  8
部品1
 48
50.0
100
AcDbLine
 10
6031.673057123631
 20
9744.497424546016
 30
0.0
 11
6031.67305712363
 21
9772.497424545965
 31
0.0
  0
LINE
  5
17DF7
330
747D
100
AcDbEntity
  8
部品1
100
AcDbLine
 10
6087.673057123631
 20
9717.497424545886
 30
0.0
 11
6031.673057123631
 21
9717.497424545886
 31
0.0
  0
LINE
  5
17DF8
330
747D
100
AcDbEntity
  8
部品1
 48
50.0
100
AcDbLine
 10
6059.673057123629
 20
9744.497424545912
 30
0.0
 11
6031.673057123631
 21
9772.497424545965
 31
0.0
  0
LINE
  5
17DF9
330
747D
100
AcDbEntity
  8
部品1
100
AcDbLine
 10
6004.673057123664
 20
9772.497424545964
 30
0.0
 11
6004.673057123664
 21
9744.497424545963
 31
0.0
  0
LINE
  5
17DFA
330
747D
100
AcDbEntity
  8
部品1
100
AcDbLine
 10
6114.673057123663
 20
9772.49742454587
 30
0.0
 11
6114.673057123663
 21
9744.497424545869
 31
0.0
  0
LINE
  5
17DFB
330
747D
100
AcDbEntity
  8
部品1
100
AcDbLine
 10
6534.673057123663
 20
9772.497424545987
 30
0.0
 11
6534.673057123663
 21
9744.497424545986
 31
0.0
  0
LINE
  5
17DFC
330
747D
100
AcDbEntity
  8
部品1
100
AcDbLine
 10
6534.673057123663
 20
9772.49742454587
 30
0.0
 11
6534.673057123663
 21
9744.497424545869
 31
0.0
  0
LINE
  5
17DFD
330
747D
100
AcDbEntity
  8
部品1
100
AcDbLine
 10
6534.673057123663
 20
9772.49742454587
 30
0.0
 11
6534.673057123663
 21
9744.497424545869
 31
0.0
  0
LINE
  5
17DFE
330
747D
100
AcDbEntity
  8
部品1
100
AcDbLine
 10
6954.673057123663
 20
9772.49742454587
 30
0.0
 11
6954.673057123663
 21
9744.497424545869
 31
0.0
  0
LINE
  5
17DFF
330
747D
100
AcDbEntity
  8
部品1
100
AcDbLine
 10
6954.673057123663
 20
9772.49742454587
 30
0.0
 11
6954.673057123663
 21
9744.497424545869
 31
0.0
  0
LINE
  5
17E00
330
747D
100
AcDbEntity
  8
部品1
100
AcDbLine
 10
6954.673057123663
 20
9772.497424545987
 30
0.0
 11
6954.673057123663
 21
9744.497424545986
 31
0.0
  0
LINE
  5
17E02
330
747D
100
AcDbEntity
  8
部品1
100
AcDbLine
 10
7374.673057123662
 20
9772.49742454587
 30
0.0
 11
7374.673057123662
 21
9744.497424545869
 31
0.0
  0
LINE
  5
17E03
330
747D
100
AcDbEntity
  8
部品1
100
AcDbLine
 10
7374.673057123662
 20
9772.49742454587
 30
0.0
 11
7374.673057123662
 21
9744.497424545869
 31
0.0
  0
LINE
  5
17E04
330
747D
100
AcDbEntity
  8
部品1
100
AcDbLine
 10
7374.673057123662
 20
9772.497424545987
 30
0.0
 11
7374.673057123662
 21
9744.497424545986
 31
0.0
  0
LINE
  5
17E05
330
747D
100
AcDbEntity
  8
部品1
100
AcDbLine
 10
7794.673057123663
 20
9772.497424545987
 30
0.0
 11
7794.673057123663
 21
9744.497424545986
 31
0.0
  0
LINE
  5
17E06
330
747D
100
AcDbEntity
  8
部品1
100
AcDbLine
 10
8214.673057123661
 20
9772.497424545987
 30
0.0
 11
8214.673057123661
 21
9744.497424545986
 31
0.0
  0
LINE
  5
17E07
330
747D
100
AcDbEntity
  8
部品1
100
AcDbLine
 10
9054.673057123656
 20
9292.497424545977
 30
0.0
 11
9054.673057123642
 21
7142.497424545952
 31
0.0
  0
LINE
  5
17E08
330
747D
100
AcDbEntity
  8
破線
 48
10.0
100
AcDbLine
 10
9029.673057123552
 20
7272.497424545782
 30
0.0
 11
9029.673057123657
 21
9292.497424545977
 31
0.0
  0
LINE
  5
17E09
330
747D
100
AcDbEntity
  8
部品1
100
AcDbLine
 10
9109.673057123664
 20
9772.497424545964
 30
0.0
 11
9109.673057123639
 21
7142.497424545957
 31
0.0
  0
LINE
  5
17E0A
330
747D
100
AcDbEntity
  8
部品1
100
AcDbLine
 10
9081.673057123648
 20
9744.497424545963
 30
0.0
 11
9081.673057123641
 21
7197.497424545952
 31
0.0
  0
DIMENSION
  5
17E0B
330
747D
100
AcDbEntity
  8
寸法
100
AcDbDimension
  2
*D16
 10
10122.20634459771
 20
7142.497424545957
 30
0.0
 11
10022.19453357408
 21
8457.497424545961
 31
0.0
 70
    32
 71
     5
 42
-1.0
  3
INABA_S40G
100
AcDbAlignedDimension
 13
9109.673057123664
 23
9772.497424545964
 33
0.0
 14
9109.673057123639
 24
7142.497424545957
 34
0.0
 50
90.0
100
AcDbRotatedDimension
1001
ACAD
1000
DSTYLE
1002
{
1002
}
  0
DIMENSION
  5
17E0C
330
747D
100
AcDbEntity
  8
寸法
100
AcDbDimension
  2
*D17
 10
9757.099402858074
 20
9717.497424545967
 30
0.0
 11
9757.099402858074
 21
10080.9827059202
 31
0.0
 70
   160
 71
     5
 42
-1.0
  3
INABA_S40G
100
AcDbAlignedDimension
 13
9109.673057123664
 23
9772.497424545964
 33
0.0
 14
9109.673057123664
 24
9717.497424545967
 34
0.0
 50
90.0
100
AcDbRotatedDimension
1001
ACAD
1000
DSTYLE
1002
{
1002
}
  0
DIMENSION
  5
17E0D
330
747D
100
AcDbEntity
  8
寸法
100
AcDbDimension
  2
*D18
 10
9757.09940285807
 20
7197.497424545952
 30
0.0
 11
9657.087591834448
 21
8457.497424545961
 31
0.0
 70
    32
  1
6X420=<>
 71
     5
 42
-1.0
  3
INABA_S40G
100
AcDbAlignedDimension
 13
9109.673057123664
 23
9717.497424545967
 33
0.0
 14
9109.673057123639
 24
7197.497424545952
 34
0.0
 50
90.0
100
AcDbRotatedDimension
1001
ACAD
1000
DSTYLE
1002
{
1002
}
  0
DIMENSION
  5
17E0E
330
747D
100
AcDbEntity
  8
寸法
100
AcDbDimension
  2
*D19
 10
9757.099402858049
 20
7142.497424545957
 30
0.0
 11
9757.099402858049
 21
6764.635957641094
 31
0.0
 70
   160
 71
     5
 42
-1.0
  3
INABA_S40G
100
AcDbAlignedDimension
 13
9109.673057123639
 23
7197.497424545952
 33
0.0
 14
9109.673057123639
 24
7142.497424545957
 34
0.0
 50
90.0
100
AcDbRotatedDimension
1001
ACAD
1000
DSTYLE
1002
{
1002
}
  0
DIMENSION
  5
17E0F
330
747D
100
AcDbEntity
  8
寸法
 48
50.0
100
AcDbDimension
  2
*D20
 10
9054.673057123642
 20
6608.066653779701
 30
0.0
 11
9418.158338497876
 21
6608.066653779701
 31
0.0
 70
   160
 71
     5
 42
-1.0
  3
INABA_S40G
100
AcDbAlignedDimension
 13
9109.673057123639
 23
7142.497424545957
 33
0.0
 14
9054.673057123642
 24
7142.497424545952
 34
0.0
100
AcDbRotatedDimension
1001
ACAD
1000
DSTYLE
1002
{
1002
}
  0
DIMENSION
  5
17E10
330
747D
100
AcDbEntity
  8
寸法
 48
50.0
100
AcDbDimension
  2
*D21
 10
9006.67305712364
 20
6608.0666537797
 30
0.0
 11
8895.710159474891
 21
6708.0666537797
 31
0.0
 70
   160
 71
     5
 42
-1.0
  3
INABA_S40G
100
AcDbAlignedDimension
 13
9054.673057123642
 23
7142.497424545952
 33
0.0
 14
9006.67305712364
 24
7168.497424545865
 34
0.0
100
AcDbRotatedDimension
1001
ACAD
1000
DSTYLE
1002
{
1070
   279
1070
     2
1002
}
  0
LINE
  5
17E11
330
747D
100
AcDbEntity
  8
部品1
100
AcDbLine
 10
9109.673057123639
 20
7142.497424545957
 30
0.0
 11
9054.673057123642
 21
7142.497424545954
 31
0.0
  0
LINE
  5
17E12
330
747D
100
AcDbEntity
  8
部品1
100
AcDbLine
 10
9054.673057123638
 20
7197.497424545968
 30
0.0
 11
9109.673057123671
 21
7197.497424545968
 31
0.0
  0
LINE
  5
17E13
330
747D
100
AcDbEntity
  8
部品1
100
AcDbLine
 10
9054.673057123638
 20
7178.497424545863
 30
0.0
 11
9077.673057123638
 21
7178.497424545864
 31
0.0
  0
LINE
  5
17E14
330
747D
100
AcDbEntity
  8
部品1
 48
50.0
100
AcDbLine
 10
9006.67305712364
 20
7168.497424545865
 30
0.0
 11
9006.67305712364
 21
7177.497424545865
 31
0.0
  0
LINE
  5
17E15
330
747D
100
AcDbEntity
  8
部品1
 48
50.0
100
AcDbLine
 10
9006.67305712364
 20
7207.497424545865
 30
0.0
 11
9006.67305712364
 21
7198.497424545866
 31
0.0
  0
LINE
  5
17E16
330
747D
100
AcDbEntity
  8
部品1
100
AcDbLine
 10
9006.67305712364
 20
7168.497424545865
 30
0.0
 11
9054.673057123638
 21
7168.497424545865
 31
0.0
  0
LINE
  5
17E17
330
747D
100
AcDbEntity
  8
部品1
100
AcDbLine
 10
9006.67305712364
 20
7207.497424545865
 30
0.0
 11
9054.673057123642
 21
7207.497424545865
 31
0.0
  0
LINE
  5
17E18
330
747D
100
AcDbEntity
  8
部品1
 48
50.0
100
AcDbLine
 10
9044.673057123638
 20
7168.497424545865
 30
0.0
 11
9054.673057123638
 21
7147.497424545864
 31
0.0
  0
LINE
  5
17E19
330
747D
100
AcDbEntity
  8
部品1
100
AcDbLine
 10
9081.673057123667
 20
7617.497424545966
 30
0.0
 11
9109.673057123668
 21
7617.497424545966
 31
0.0
  0
LINE
  5
17E1A
330
747D
100
AcDbEntity
  8
部品1
100
AcDbLine
 10
9081.673057123667
 20
8037.497424545966
 30
0.0
 11
9109.673057123668
 21
8037.497424545966
 31
0.0
  0
LINE
  5
17E1B
330
747D
100
AcDbEntity
  8
部品1
100
AcDbLine
 10
9081.673057123667
 20
8457.497424545968
 30
0.0
 11
9109.673057123668
 21
8457.497424545968
 31
0.0
  0
LINE
  5
17E1C
330
747D
100
AcDbEntity
  8
部品1
100
AcDbLine
 10
9081.673057123667
 20
8877.497424545968
 30
0.0
 11
9109.673057123668
 21
8877.497424545968
 31
0.0
  0
LINE
  5
17E1D
330
747D
100
AcDbEntity
  8
部品1
100
AcDbLine
 10
9081.673057123664
 20
9297.497424545968
 30
0.0
 11
9109.673057123664
 21
9297.497424545968
 31
0.0
  0
DIMENSION
  5
17E1F
330
747D
100
AcDbEntity
  8
寸法
100
AcDbDimension
  2
*D22
 10
9109.673057123664
 20
10288.30564417095
 30
0.0
 11
9418.158338497901
 21
10288.30564417095
 31
0.0
 70
   160
 71
     5
 42
55.0
  3
INABA_S40G
100
AcDbAlignedDimension
 13
9054.673057123663
 23
9772.497424545964
 33
0.0
 14
9109.673057123664
 24
9772.497424545964
 34
0.0
100
AcDbRotatedDimension
1001
ACAD
1000
DSTYLE
1002
{
1002
}
  0
LINE
  5
17E20
330
747D
100
AcDbEntity
  8
部品1
100
AcDbLine
 10
8634.673057123661
 20
9772.497424545987
 30
0.0
 11
8634.673057123661
 21
9744.497424545986
 31
0.0
  0
LINE
  5
17E21
330
747D
100
AcDbEntity
  8
部品1
100
AcDbLine
 10
9054.673057123663
 20
9772.497424545987
 30
0.0
 11
9054.673057123663
 21
9744.497424545986
 31
0.0
  0
LINE
  5
17E22
330
747D
100
AcDbEntity
  8
部品1
100
AcDbLine
 10
9054.673057123663
 20
9772.497424545964
 30
0.0
 11
9054.673057123663
 21
9744.497424545963
 31
0.0
  0
LINE
  5
17E23
330
747D
100
AcDbEntity
  8
部品1
100
AcDbLine
 10
9081.673057123664
 20
9717.497424545967
 30
0.0
 11
9109.673057123664
 21
9717.497424545967
 31
0.0
  0
TEXT
  5
180DF
330
747D
100
AcDbEntity
  8
文字
 62
     7
 48
50.0
100
AcDbText
 10
15022.63965474517
 20
9740.013745883725
 30
0.0
 40
100.0
  1
F12            1.0
  7
STYLE1
100
AcDbText
  0
LINE
  5
180E0
330
747D
100
AcDbEntity
  8
仕様書枠
 48
50.0
100
AcDbLine
 10
16307.19999999998
 20
8349.600000000014
 30
0.0
 11
13127.19999999999
 21
8349.600000000016
 31
0.0
  0
TEXT
  5
180E1
330
747D
100
AcDbEntity
  8
文字
 62
     7
 48
50.0
100
AcDbText
 10
15022.63965474516
 20
9910.013745883727
 30
0.0
 40
100.0
  1
F12,Y10        1.0
  7
STYLE1
100
AcDbText
  0
TEXT
  5
180E2
330
747D
100
AcDbEntity
  8
文字
 62
     7
 48
50.0
100
AcDbText
 10
13583.11819016569
 20
9910.01374588373
 30
0.0
 40
100.0
  1
梁中
  7
STYLE1
100
AcDbText
  0
TEXT
  5
180E3
330
747D
100
AcDbEntity
  8
文字
 62
     7
 48
50.0
100
AcDbText
 10
15022.63965474516
 20
8720.013745883727
 30
0.0
 40
100.0
  1
F12            1.2
  7
STYLE1
100
AcDbText
  0
TEXT
  5
180E4
330
747D
100
AcDbEntity
  8
文字
 62
     7
 48
50.0
100
AcDbText
 10
13248.77747366448
 20
8720.013745883729
 30
0.0
 40
100.0
  1
14
  7
STYLE1
100
AcDbText
  0
TEXT
  5
180E5
330
747D
100
AcDbEntity
  8
文字
 62
     7
 48
50.0
100
AcDbText
 10
13583.11819016569
 20
8720.013745883731
 30
0.0
 40
100.0
  1
根太
  7
STYLE1
100
AcDbText
  0
LINE
  5
180E6
330
747D
100
AcDbEntity
  8
仕様書枠
 48
50.0
100
AcDbLine
 10
16307.19999999999
 20
8859.6
 30
0.0
 11
13127.19999999999
 21
8859.600000000002
 31
0.0
  0
LINE
  5
180E7
330
747D
100
AcDbEntity
  8
仕様書枠
 48
50.0
100
AcDbLine
 10
16307.19999999999
 20
8689.6
 30
0.0
 11
13127.19999999999
 21
8689.600000000003
 31
0.0
  0
LINE
  5
180E8
330
747D
100
AcDbEntity
  8
仕様書枠
 48
50.0
100
AcDbLine
 10
13127.2
 20
11239.6
 30
0.0
 11
13127.19999999999
 21
7839.600000000018
 31
0.0
  0
TEXT
  5
180E9
330
747D
100
AcDbEntity
  8
文字
 62
     7
 48
50.0
100
AcDbText
 10
13229.83081656554
 20
7870.013745883747
 30
0.0
 40
100.0
  1
Z08→塗装溶融亜鉛めっき鋼板(JIS G 3313)
  7
STYLE1
100
AcDbText
  0
TEXT
  5
180EA
330
747D
100
AcDbEntity
  8
文字
 62
     7
 48
50.0
100
AcDbText
 10
13229.83081656554
 20
8040.013745883745
 30
0.0
 40
100.0
  1
Y10→溶融亜鉛-5％アルミニウム合金めっき鋼板(JIS G 3317)
 41
0.9
  7
STYLE1
100
AcDbText
  0
TEXT
  5
180EB
330
747D
100
AcDbEntity
  8
文字
 62
     7
 48
50.0
100
AcDbText
 10
13229.83081656554
 20
8210.013745883745
 30
0.0
 40
100.0
  1
F12→溶融亜鉛めっき鋼板(JIS G 3302)
  7
STYLE1
100
AcDbText
  0
LINE
  5
180EC
330
747D
100
AcDbEntity
  8
仕様書枠
 48
50.0
100
AcDbLine
 10
16307.19999999998
 20
7839.600000000017
 30
0.0
 11
13127.19999999999
 21
7839.600000000018
 31
0.0
  0
LINE
  5
180ED
330
747D
100
AcDbEntity
  8
仕様書枠
 48
50.0
100
AcDbLine
 10
16307.19999999998
 20
8009.600000000018
 30
0.0
 11
13127.19999999999
 21
8009.600000000018
 31
0.0
  0
LINE
  5
180EE
330
747D
100
AcDbEntity
  8
仕様書枠
 48
50.0
100
AcDbLine
 10
16307.19999999998
 20
8179.600000000016
 30
0.0
 11
13127.19999999999
 21
8179.60000000002
 31
0.0
  0
TEXT
  5
180EF
330
747D
100
AcDbEntity
  8
文字
 62
     7
 48
50.0
100
AcDbText
 10
15022.63965474515
 20
9230.013745883727
 30
0.0
 40
100.0
  1
Z08            0.5
  7
STYLE1
100
AcDbText
  0
TEXT
  5
180F1
330
747D
100
AcDbEntity
  8
文字
 62
     7
 48
50.0
100
AcDbText
 10
14850.83183167176
 20
8890.013745883727
 30
0.0
 40
100.0
  1
アルミニウム合金押出形材
  7
STYLE1
100
AcDbText
  0
TEXT
  5
180F2
330
747D
100
AcDbEntity
  8
文字
 62
     7
 48
50.0
100
AcDbText
 10
15022.63965474516
 20
9400.013745883727
 30
0.0
 40
100.0
  1
F12            0.7
  7
STYLE1
100
AcDbText
  0
TEXT
  5
180F3
330
747D
100
AcDbEntity
  8
文字
 62
     7
 48
50.0
100
AcDbText
 10
15022.63965474516
 20
9570.013745883727
 30
0.0
 40
100.0
  1
Y10            0.5
  7
STYLE1
100
AcDbText
  0
TEXT
  5
180F4
330
747D
100
AcDbEntity
  8
文字
 62
     7
 48
50.0
100
AcDbText
 10
15022.63965474516
 20
10080.01374588372
 30
0.0
 40
100.0
  1
Y10            0.7
  7
STYLE1
100
AcDbText
  0
TEXT
  5
180F5
330
747D
100
AcDbEntity
  8
文字
 62
     7
 48
50.0
100
AcDbText
 10
15022.63965474516
 20
10250.01374588372
 30
0.0
 40
100.0
  1
Y10            0.7
  7
STYLE1
100
AcDbText
  0
TEXT
  5
180F6
330
747D
100
AcDbEntity
  8
文字
 62
     7
 48
50.0
100
AcDbText
 10
15022.63965474516
 20
10420.01374588372
 30
0.0
 40
100.0
  1
Y10            1.0
  7
STYLE1
100
AcDbText
  0
TEXT
  5
180F7
330
747D
100
AcDbEntity
  8
文字
 62
     7
 48
50.0
100
AcDbText
 10
15022.63965474516
 20
10590.01374588372
 30
0.0
 40
100.0
  1
Y10            1.0
  7
STYLE1
100
AcDbText
  0
TEXT
  5
180F8
330
747D
100
AcDbEntity
  8
文字
 62
     7
 48
50.0
100
AcDbText
 10
15022.63965474517
 20
10760.01374588372
 30
0.0
 40
100.0
  1
F12         1.0,1.2
  7
STYLE1
100
AcDbText
  0
TEXT
  5
180F9
330
747D
100
AcDbEntity
  8
文字
 62
     7
 48
50.0
100
AcDbText
 10
15022.63965474517
 20
10930.01374588372
 30
0.0
 40
100.0
  1
F12            1.2
  7
STYLE1
100
AcDbText
  0
TEXT
  5
180FA
330
747D
100
AcDbEntity
  8
文字
 62
     7
 48
50.0
100
AcDbText
 10
13248.77747366448
 20
9060.013745883729
 30
0.0
 40
100.0
  1
12
  7
STYLE1
100
AcDbText
  0
TEXT
  5
180FB
330
747D
100
AcDbEntity
  8
文字
 62
     7
 48
50.0
100
AcDbText
 10
13248.77747366448
 20
8890.013745883729
 30
0.0
 40
100.0
  1
13
  7
STYLE1
100
AcDbText
  0
TEXT
  5
180FC
330
747D
100
AcDbEntity
  8
文字
 62
     7
 48
50.0
100
AcDbText
 10
13583.11819016569
 20
9230.013745883731
 30
0.0
 40
100.0
  1
シャッター
  7
STYLE1
100
AcDbText
  0
LINE
  5
180FD
330
747D
100
AcDbEntity
  8
仕様書枠
 48
50.0
100
AcDbLine
 10
16307.19999999999
 20
9029.6
 30
0.0
 11
13127.19999999999
 21
9029.6
 31
0.0
  0
TEXT
  5
180FE
330
747D
100
AcDbEntity
  8
文字
 62
     7
 48
50.0
100
AcDbText
 10
13583.11819016569
 20
9060.013745883729
 30
0.0
 40
100.0
  1
シャッターカバー
 41
0.9
  7
STYLE1
100
AcDbText
  0
TEXT
  5
180FF
330
747D
100
AcDbEntity
  8
文字
 62
     7
 48
50.0
100
AcDbText
 10
13248.77747366448
 20
9230.013745883727
 30
0.0
 40
100.0
  1
11
  7
STYLE1
100
AcDbText
  0
LINE
  5
18100
330
747D
100
AcDbEntity
  8
仕様書枠
 48
50.0
100
AcDbLine
 10
16307.19999999999
 20
9709.6
 30
0.0
 11
13127.19999999999
 21
9709.600000000001
 31
0.0
  0
LINE
  5
18101
330
747D
100
AcDbEntity
  8
仕様書枠
 48
50.0
100
AcDbLine
 10
16307.19999999999
 20
10049.6
 30
0.0
 11
13127.2
 21
10049.6
 31
0.0
  0
LINE
  5
18102
330
747D
100
AcDbEntity
  8
仕様書枠
 48
50.0
100
AcDbLine
 10
16307.19999999999
 20
9369.599999999998
 30
0.0
 11
13127.19999999999
 21
9369.600000000001
 31
0.0
  0
LINE
  5
18103
330
747D
100
AcDbEntity
  8
仕様書枠
 48
50.0
100
AcDbLine
 10
16307.19999999999
 20
9199.599999999998
 30
0.0
 11
13127.19999999999
 21
9199.600000000001
 31
0.0
  0
LINE
  5
18104
330
747D
100
AcDbEntity
  8
仕様書枠
 48
50.0
100
AcDbLine
 10
16307.19999999999
 20
9539.599999999998
 30
0.0
 11
13127.19999999999
 21
9539.6
 31
0.0
  0
TEXT
  5
18105
330
747D
100
AcDbEntity
  8
文字
 62
     7
 48
50.0
100
AcDbText
 10
13271.19032244792
 20
10080.01374588373
 30
0.0
 40
100.0
  1
6
  7
STYLE1
100
AcDbText
  0
TEXT
  5
18106
330
747D
100
AcDbEntity
  8
文字
 62
     7
 48
50.0
100
AcDbText
 10
13271.19032244792
 20
9910.01374588373
 30
0.0
 40
100.0
  1
7
  7
STYLE1
100
AcDbText
  0
TEXT
  5
18107
330
747D
100
AcDbEntity
  8
文字
 62
     7
 48
50.0
100
AcDbText
 10
13271.19032244792
 20
9570.013745883729
 30
0.0
 40
100.0
  1
9
  7
STYLE1
100
AcDbText
  0
TEXT
  5
18108
330
747D
100
AcDbEntity
  8
文字
 62
     7
 48
50.0
100
AcDbText
 10
13271.19032244792
 20
9740.013745883729
 30
0.0
 40
100.0
  1
8
  7
STYLE1
100
AcDbText
  0
TEXT
  5
18109
330
747D
100
AcDbEntity
  8
文字
 62
     7
 48
50.0
100
AcDbText
 10
13583.11819016569
 20
10080.01374588372
 30
0.0
 40
100.0
  1
鼻隠シ前後
  7
STYLE1
100
AcDbText
  0
TEXT
  5
1810A
330
747D
100
AcDbEntity
  8
文字
 62
     7
 48
50.0
100
AcDbText
 10
13583.11819016569
 20
9740.013745883729
 30
0.0
 40
100.0
  1
母屋中
  7
STYLE1
100
AcDbText
  0
TEXT
  5
1810B
330
747D
100
AcDbEntity
  8
文字
 62
     7
 48
50.0
100
AcDbText
 10
13583.11819016569
 20
9570.013745883729
 30
0.0
 40
100.0
  1
屋根パネル
  7
STYLE1
100
AcDbText
  0
TEXT
  5
1810C
330
747D
100
AcDbEntity
  8
文字
 62
     7
 48
50.0
100
AcDbText
 10
13583.11819016569
 20
9400.013745883731
 30
0.0
 40
100.0
  1
壁パネル
  7
STYLE1
100
AcDbText
  0
TEXT
  5
1810D
330
747D
100
AcDbEntity
  8
文字
 62
     7
 48
50.0
100
AcDbText
 10
13248.77747366448
 20
9400.013745883727
 30
0.0
 40
100.0
  1
10
  7
STYLE1
100
AcDbText
  0
TEXT
  5
1810E
330
747D
100
AcDbEntity
  8
文字
 62
     7
 48
50.0
100
AcDbText
 10
13583.11819016569
 20
8890.013745883729
 30
0.0
 40
100.0
  1
シャッターレール
  7
STYLE1
100
AcDbText
  0
TEXT
  5
1810F
330
747D
100
AcDbEntity
  8
文字
 62
     7
 48
50.0
100
AcDbText
 10
13583.11819016569
 20
10250.01374588373
 30
0.0
 40
100.0
  1
妻板左右
  7
STYLE1
100
AcDbText
  0
TEXT
  5
18110
330
747D
100
AcDbEntity
  8
文字
 62
     7
 48
50.0
100
AcDbText
 10
13271.19032244792
 20
10250.01374588373
 30
0.0
 40
100.0
  1
5
  7
STYLE1
100
AcDbText
  0
TEXT
  5
18111
330
747D
100
AcDbEntity
  8
文字
 62
     7
 48
50.0
100
AcDbText
 10
13583.11819016569
 20
10420.01374588373
 30
0.0
 40
100.0
  1
桁後
  7
STYLE1
100
AcDbText
  0
TEXT
  5
18112
330
747D
100
AcDbEntity
  8
文字
 62
     7
 48
50.0
100
AcDbText
 10
13583.11819016569
 20
10590.01374588373
 30
0.0
 40
100.0
  1
桁前
  7
STYLE1
100
AcDbText
  0
TEXT
  5
18113
330
747D
100
AcDbEntity
  8
文字
 62
     7
 48
50.0
100
AcDbText
 10
13583.11819016569
 20
10760.01374588372
 30
0.0
 40
100.0
  1
柱
  7
STYLE1
100
AcDbText
  0
TEXT
  5
18114
330
747D
100
AcDbEntity
  8
文字
 62
     7
 48
50.0
100
AcDbText
 10
13583.11819016569
 20
10930.01374588372
 30
0.0
 40
100.0
  1
土台枠
  7
STYLE1
100
AcDbText
  0
TEXT
  5
18115
330
747D
100
AcDbEntity
  8
文字
 62
     7
 48
50.0
100
AcDbText
 10
14859.79774614482
 20
11100.01374588373
 30
0.0
 40
100.0
  1
材料（材質）　　単位mm
  7
STYLE1
100
AcDbText
  0
TEXT
  5
18116
330
747D
100
AcDbEntity
  8
文字
 62
     7
 48
50.0
100
AcDbText
 10
13732.03840939434
 20
11100.01374588373
 30
0.0
 40
100.0
  1
部　　品　　名
  7
STYLE1
100
AcDbText
  0
TEXT
  5
18117
330
747D
100
AcDbEntity
  8
文字
 62
     7
 48
50.0
100
AcDbText
 10
13271.19032244792
 20
10590.01374588373
 30
0.0
 40
100.0
  1
3
  7
STYLE1
100
AcDbText
  0
TEXT
  5
18118
330
747D
100
AcDbEntity
  8
文字
 62
     7
 48
50.0
100
AcDbText
 10
13271.19032244792
 20
10420.01374588373
 30
0.0
 40
100.0
  1
4
  7
STYLE1
100
AcDbText
  0
TEXT
  5
18119
330
747D
100
AcDbEntity
  8
文字
 62
     7
 48
50.0
100
AcDbText
 10
13271.19032244792
 20
10760.01374588373
 30
0.0
 40
100.0
  1
2
  7
STYLE1
100
AcDbText
  0
TEXT
  5
1811A
330
747D
100
AcDbEntity
  8
文字
 62
     7
 48
50.0
100
AcDbText
 10
13271.19032244792
 20
10930.01374588373
 30
0.0
 40
100.0
  1
1
  7
STYLE1
100
AcDbText
  0
TEXT
  5
1811B
330
747D
100
AcDbEntity
  8
文字
 62
     7
 48
50.0
100
AcDbText
 10
13197.42518560407
 20
11100.01374588373
 30
0.0
 40
100.0
  1
品番
  7
STYLE1
100
AcDbText
  0
LINE
  5
1811C
330
747D
100
AcDbEntity
  8
仕様書枠
 48
50.0
100
AcDbLine
 10
16307.19999999999
 20
10559.6
 30
0.0
 11
13127.19999999999
 21
10559.6
 31
0.0
  0
LINE
  5
1811D
330
747D
100
AcDbEntity
  8
仕様書枠
 48
50.0
100
AcDbLine
 10
16307.19999999999
 20
10219.6
 30
0.0
 11
13127.19999999999
 21
10219.6
 31
0.0
  0
LINE
  5
1811E
330
747D
100
AcDbEntity
  8
仕様書枠
 48
50.0
100
AcDbLine
 10
16307.19999999999
 20
10389.6
 30
0.0
 11
13127.19999999999
 21
10389.6
 31
0.0
  0
LINE
  5
1811F
330
747D
100
AcDbEntity
  8
仕様書枠
 48
50.0
100
AcDbLine
 10
16307.19999999999
 20
10899.6
 30
0.0
 11
13127.2
 21
10899.6
 31
0.0
  0
LINE
  5
18120
330
747D
100
AcDbEntity
  8
仕様書枠
 48
50.0
100
AcDbLine
 10
16307.19999999999
 20
10729.6
 30
0.0
 11
13127.2
 21
10729.6
 31
0.0
  0
LINE
  5
18121
330
747D
100
AcDbEntity
  8
仕様書枠
 48
50.0
100
AcDbLine
 10
16307.19999999999
 20
11069.6
 30
0.0
 11
13127.2
 21
11069.6
 31
0.0
  0
LINE
  5
18122
330
747D
100
AcDbEntity
  8
仕様書枠
 48
50.0
100
AcDbLine
 10
13490.2
 20
11239.6
 30
0.0
 11
13490.2
 21
8349.600000000014
 31
0.0
  0
LINE
  5
18123
330
747D
100
AcDbEntity
  8
仕様書枠
 48
50.0
100
AcDbLine
 10
14785.2
 20
11239.59999999999
 30
0.0
 11
14785.19999999999
 21
8349.600000000014
 31
0.0
  0
LINE
  5
18124
330
747D
100
AcDbEntity
  8
仕様書枠
 48
50.0
100
AcDbLine
 10
16307.19999999999
 20
7839.600000000018
 30
0.0
 11
16307.2
 21
11239.6
 31
0.0
  0
LINE
  5
18125
330
747D
100
AcDbEntity
  8
仕様書枠
 48
50.0
100
AcDbLine
 10
16307.19999999999
 20
11239.6
 30
0.0
 11
13127.2
 21
11239.6
 31
0.0
  0
LINE
  5
18126
330
747D
100
AcDbEntity
  8
仕様書枠
 48
50.0
100
AcDbLine
 10
16307.19999999999
 20
9879.599999999999
 30
0.0
 11
13127.19999999999
 21
9879.600000000001
 31
0.0
  0
TEXT
  5
18127
330
747D
100
AcDbEntity
  8
文字
 62
     7
 48
50.0
100
AcDbText
 10
13248.77747366448
 20
8550.013745883729
 30
0.0
 40
100.0
  1
15
  7
STYLE1
100
AcDbText
  0
TEXT
  5
18128
330
747D
100
AcDbEntity
  8
文字
 62
     7
 48
50.0
100
AcDbText
 10
15022.63965474516
 20
8550.013745883727
 30
0.0
 40
100.0
  1
F12            1.0
  7
STYLE1
100
AcDbText
  0
TEXT
  5
18129
330
747D
100
AcDbEntity
  8
文字
 62
     7
 48
50.0
100
AcDbText
 10
13583.11819016569
 20
8550.013745883733
 30
0.0
 40
100.0
  1
床パネル
 41
0.9
  7
STYLE1
100
AcDbText
  0
TEXT
  5
1812A
330
747D
100
AcDbEntity
  8
文字
 62
     7
 48
50.0
100
AcDbText
 10
13583.11819016568
 20
8380.013745883733
 30
0.0
 40
100.0
  1
棚板
 41
0.9
  7
STYLE1
100
AcDbText
  0
TEXT
  5
1812B
330
747D
100
AcDbEntity
  8
文字
 62
     7
 48
50.0
100
AcDbText
 10
15022.63965474515
 20
8380.013745883728
 30
0.0
 40
100.0
  1
F12            0.6
  7
STYLE1
100
AcDbText
  0
TEXT
  5
1812C
330
747D
100
AcDbEntity
  8
文字
 62
     7
 48
50.0
100
AcDbText
 10
13248.77747366447
 20
8380.013745883728
 30
0.0
 40
100.0
  1
16
  7
STYLE1
100
AcDbText
  0
LINE
  5
1812D
330
747D
100
AcDbEntity
  8
仕様書枠
 48
50.0
100
AcDbLine
 10
16307.19999999998
 20
8519.600000000002
 30
0.0
 11
13127.19999999999
 21
8519.600000000002
 31
0.0
  0
TEXT
  5
18600
330
747D
100
AcDbEntity
  8
部品1
100
AcDbText
 10
5768.463127747363
 20
1595.038069494745
 30
0.0
 40
135.0
  1
正面図
  7
STYLE2
100
AcDbText
  0
LWPOLYLINE
  5
18601
330
747D
100
AcDbEntity
  8
部品1
100
AcDbPolyline
 90
        4
 70
     1
 43
0.0
 10
5677.93772400941
 20
1787.931598713268
 10
5677.93772400941
 20
1548.039277167736
 10
6441.408390237848
 20
1548.039277167736
 10
6441.408390237848
 20
1787.931598713268
  0
LINE
  5
18677
330
747D
100
AcDbEntity
  8
部品1
100
AcDbLine
 10
2170.903465777232
 20
2567.835409280926
 30
0.0
 11
2095.903465777232
 21
2437.931598713261
 31
0.0
  0
TEXT
  5
18678
330
747D
100
AcDbEntity
  8
部品1
100
AcDbText
 10
2199.008407902006
 20
2474.038502319163
 30
0.0
 40
125.0
  1
G.L
  7
STYLE2
100
AcDbText
  0
LINE
  5
18679
330
747D
100
AcDbEntity
  8
部品1
100
AcDbLine
 10
2095.903465777232
 20
2437.931598713261
 30
0.0
 11
2020.903465777232
 21
2567.835409280926
 31
0.0
  0
LINE
  5
1867A
330
747D
100
AcDbEntity
  8
部品1
100
AcDbLine
 10
2020.903465777232
 20
2567.835409280926
 30
0.0
 11
2170.903465777232
 21
2567.835409280926
 31
0.0
  0
LINE
  5
18702
330
747D
100
AcDbEntity
  8
部品1
100
AcDbLine
 10
11425.99967762864
 20
4677.931598713261
 30
0.0
 11
14055.99967762864
 21
4677.931598713261
 31
0.0
  0
LINE
  5
18703
330
747D
100
AcDbEntity
  8
部品1
100
AcDbLine
 10
11480.99967762864
 20
2587.931598713261
 30
0.0
 11
14055.99967762864
 21
2587.931598713261
 31
0.0
  0
LINE
  5
18704
330
747D
100
AcDbEntity
  8
部品1
100
AcDbLine
 10
11480.99967762864
 20
4677.931598713261
 30
0.0
 11
11480.99967762864
 21
2437.931598713261
 31
0.0
  0
LINE
  5
18705
330
747D
100
AcDbEntity
  8
部品1
100
AcDbLine
 10
11425.99967762864
 20
4770.07403664214
 30
0.0
 11
11425.99967762864
 21
2437.931598713261
 31
0.0
  0
DIMENSION
  5
18706
330
747D
100
AcDbEntity
  8
寸法
100
AcDbDimension
  2
*D23
 10
10582.24954844538
 20
2587.931598713262
 30
0.0
 11
10482.23773742176
 21
3632.931598713264
 31
0.0
 70
    32
 71
     5
 42
2090.0
  3
INABA_S40G
100
AcDbAlignedDimension
 13
11425.99967762864
 23
4677.931598713261
 33
0.0
 14
11425.99967762864
 24
2587.931598713261
 34
0.0
 50
90.0
100
AcDbRotatedDimension
1001
ACAD
1000
DSTYLE
1002
{
1070
   288
1070
     1
1002
}
  0
DIMENSION
  5
18708
330
747D
100
AcDbEntity
  8
寸法
100
AcDbDimension
  2
*D24
 10
10582.24954844538
 20
2537.931598713262
 30
0.0
 11
10582.24954844538
 21
2154.181598713261
 31
0.0
 70
   160
 71
     5
 42
50.0
  3
INABA_S40G
100
AcDbAlignedDimension
 13
11425.99967762864
 23
2587.931598713261
 33
0.0
 14
11370.99967762864
 24
2537.931598713262
 34
0.0
 50
90.0
100
AcDbRotatedDimension
1001
ACAD
1000
DSTYLE
1002
{
1070
   288
1070
     1
1002
}
  0
LINE
  5
18709
330
747D
100
AcDbEntity
  8
部品1
100
AcDbLine
 10
14055.99967762864
 20
4732.465872101
 30
0.0
 11
14055.99967762864
 21
2437.931598713261
 31
0.0
  0
LINE
  5
1870A
330
747D
100
AcDbEntity
  8
部品1
100
AcDbLine
 10
14000.99967762864
 20
4677.931598713261
 30
0.0
 11
14000.99967762864
 21
2587.931598713261
 31
0.0
  0
DIMENSION
  5
1870B
330
747D
100
AcDbEntity
  8
寸法
100
AcDbDimension
  2
*D25
 10
14760.92683560077
 20
4857.93159871326
 30
0.0
 11
14760.92683560076
 21
3692.931598713261
 31
0.0
 70
   160
 71
     5
 42
2320.0
  3
INABA_S40G
100
AcDbAlignedDimension
 13
14055.99967762864
 23
2537.931598713262
 33
0.0
 14
14150.99967762864
 24
4857.931598713261
 34
0.0
 50
90.0
100
AcDbRotatedDimension
1001
ACAD
1000
DSTYLE
1002
{
1070
   288
1070
     1
1002
}
  0
LINE
  5
1871F
330
747D
100
AcDbEntity
  8
部品1
100
AcDbLine
 10
11480.99967762864
 20
2537.931598713262
 30
0.0
 11
14055.99967762864
 21
2537.931598713262
 31
0.0
  0
LINE
  5
18722
330
747D
100
AcDbEntity
  8
破線
  6
HIDDEN
 48
5.0
100
AcDbLine
 10
11425.99967762864
 20
2187.931598713261
 30
0.0
 11
11480.99967762864
 21
2187.931598713261
 31
0.0
  0
LINE
  5
18723
330
747D
100
AcDbEntity
  8
破線
  6
HIDDEN
 48
5.0
100
AcDbLine
 10
11480.99967762864
 20
2437.931598713261
 30
0.0
 11
11480.99967762864
 21
2187.931598713261
 31
0.0
  0
LINE
  5
18724
330
747D
100
AcDbEntity
  8
破線
  6
HIDDEN
 48
5.0
100
AcDbLine
 10
11425.99967762864
 20
2437.931598713261
 30
0.0
 11
11425.99967762864
 21
2187.931598713261
 31
0.0
  0
LWPOLYLINE
  5
1872C
330
747D
100
AcDbEntity
  8
部品1
100
AcDbPolyline
 90
        4
 70
     1
 43
0.0
 10
5677.937724009436
 20
5941.902955966241
 10
5677.937724009436
 20
5702.010634420709
 10
6441.408390237878
 20
5702.010634420709
 10
6441.408390237878
 20
5941.902955966241
  0
TEXT
  5
1872D
330
747D
100
AcDbEntity
  8
部品1
100
AcDbText
 10
5767.857333838474
 20
5749.009426747718
 30
0.0
 40
135.0
  1
平面図
  7
STYLE2
100
AcDbText
  0
DIMENSION
  5
1872E
330
747D
100
AcDbEntity
  8
寸法
 48
50.0
100
AcDbDimension
  2
*D26
 10
14135.99967762864
 20
5311.589052292568
 30
0.0
 11
14342.04692172313
 21
5311.589052292568
 31
0.0
 70
   160
 71
     5
 42
80.0
  3
INABA_S40G
100
AcDbAlignedDimension
 13
14055.99967762864
 23
4859.742278324915
 33
0.0
 14
14135.99967762864
 24
4857.931598713263
 34
0.0
100
AcDbRotatedDimension
1001
ACAD
1000
DSTYLE
1002
{
1070
   174
1070
     0
1070
   272
1070
     1
1070
   288
1070
     0
1070
   341
1005
0
1002
}
  0
DIMENSION
  5
1872F
330
747D
100
AcDbEntity
  8
寸法
 48
50.0
100
AcDbDimension
  2
*D27
 10
11365.99967762864
 20
5531.799739024183
 30
0.0
 11
12750.99967762864
 21
5531.799739024183
 31
0.0
 70
   160
 71
     5
 42
2770.0
  3
INABA_S40G
100
AcDbAlignedDimension
 13
14135.99967762864
 23
4857.931598713263
 33
0.0
 14
11365.99967762864
 24
4912.931598713267
 34
0.0
100
AcDbRotatedDimension
1001
ACAD
1000
DSTYLE
1002
{
1070
   174
1070
     0
1070
   272
1070
     1
1070
   288
1070
     0
1070
   341
1005
0
1002
}
  0
DIMENSION
  5
18730
330
747D
100
AcDbEntity
  8
寸法
 48
50.0
100
AcDbDimension
  2
*D28
 10
11425.99967762864
 20
5311.589052292568
 30
0.0
 11
12740.99967762864
 21
5311.589052292568
 31
0.0
 70
   160
  1
柱外寸法<>
 71
     5
 42
2630.0
  3
INABA_S40G
100
AcDbAlignedDimension
 13
14055.99967762864
 23
4859.742278324915
 33
0.0
 14
11425.99967762864
 24
4908.933216836238
 34
0.0
100
AcDbRotatedDimension
1001
ACAD
1000
DSTYLE
1002
{
1070
   174
1070
     0
1070
   272
1070
     1
1070
   288
1070
     0
1070
   341
1005
0
1002
}
  0
DIMENSION
  5
18731
330
747D
100
AcDbEntity
  8
寸法
 48
50.0
100
AcDbDimension
  2
*D29
 10
11365.99967762864
 20
5311.589052292566
 30
0.0
 11
11056.36188235305
 21
5311.589052292566
 31
0.0
 70
   160
 71
     5
 42
60.0
  3
INABA_S40G
100
AcDbAlignedDimension
 13
11425.99967762864
 23
4908.933216836238
 33
0.0
 14
11365.99967762864
 24
4912.931598713267
 34
0.0
100
AcDbRotatedDimension
1001
ACAD
1000
DSTYLE
1002
{
1070
   174
1070
     0
1070
   272
1070
     1
1070
   288
1070
     0
1070
   341
1005
0
1002
}
  0
DIMENSION
  5
18732
330
747D
100
AcDbEntity
  8
寸法
 48
50.0
100
AcDbDimension
  2
*D30
 10
10805.39127086025
 20
4787.276857586593
 30
0.0
 11
10816.05674611918
 21
5158.123520828294
 31
0.0
 70
   161
 71
     5
 42
141.0
  3
INABA_S40G
100
AcDbAlignedDimension
 13
11385.39569778722
 23
4911.654347547941
 33
0.0
 14
11381.34224223059
 24
4770.712623782229
 34
0.0
1001
ACAD
1000
DSTYLE
1002
{
1070
   174
1070
     0
1070
   272
1070
     1
1070
   288
1070
     0
1070
   341
1005
0
1002
}
  0
DIMENSION
  5
18733
330
747D
100
AcDbEntity
  8
寸法
100
AcDbDimension
  2
*D31
 10
10282.24954844538
 20
4912.931598713261
 30
0.0
 11
10182.23773742176
 21
3725.431598713261
 31
0.0
 70
    32
 71
     5
 42
2375.000000000007
  3
INABA_S40G
100
AcDbAlignedDimension
 13
11425.99967762864
 23
2537.931598713255
 33
0.0
 14
11365.99967762864
 24
4912.931598713261
 34
0.0
 50
90.0
100
AcDbRotatedDimension
1001
ACAD
1000
DSTYLE
1002
{
1070
   174
1070
     0
1070
   272
1070
     1
1070
   288
1070
     0
1070
   341
1005
0
1002
}
  0
TEXT
  5
18734
330
747D
100
AcDbEntity
  8
部品1
 48
50.0
100
AcDbText
 10
13092.58067958974
 20
4935.200691651569
 30
0.0
 40
120.0
  1
37
 50
90.0
  7
STYLE1
100
AcDbText
  0
TEXT
  5
18735
330
747D
100
AcDbEntity
  8
部品1
 48
50.0
100
AcDbText
 10
12614.94765692465
 20
5072.701949869852
 30
0.0
 40
120.0
  1
1000
  7
STYLE1
100
AcDbText
  0
LINE
  5
18736
330
747D
100
AcDbEntity
  8
部品1
 48
50.0
100
AcDbLine
 10
12926.67982170092
 20
5036.817927717418
 30
0.0
 11
12926.67982170092
 21
5020.617927717418
 31
0.0
  0
LINE
  5
18737
330
747D
100
AcDbEntity
  8
部品1
 48
50.0
100
AcDbLine
 10
12626.67982170092
 20
5036.817927717418
 30
0.0
 11
12926.67982170092
 21
5036.817927717418
 31
0.0
  0
LINE
  5
18738
330
747D
100
AcDbEntity
  8
部品1
100
AcDbLine
 10
11373.5446639856
 20
4911.649334047528
 30
0.0
 11
14128.61155449011
 21
4856.5723964224
 31
0.0
  0
LINE
  5
18739
330
747D
100
AcDbEntity
  8
部品1
100
AcDbLine
 10
11381.34224223059
 20
4770.712623782229
 30
0.0
 11
14110.66337816849
 21
4731.684198548022
 31
0.0
  0
LINE
  5
1873A
330
747D
100
AcDbEntity
  8
細線
 48
50.0
100
AcDbLine
 10
11398.99967762864
 20
4910.331275088667
 30
0.0
 11
11393.71057607313
 21
4770.245642461311
 31
0.0
  0
LINE
  5
1873B
330
747D
100
AcDbEntity
  8
細線
 48
50.0
100
AcDbLine
 10
14102.96896082233
 20
4857.08502119273
 30
0.0
 11
14098.25199474064
 21
4732.152805257814
 31
0.0
  0
LINE
  5
1873C
330
747D
100
AcDbEntity
  8
部品1
 48
50.0
100
AcDbLine
 10
11366.18396354175
 20
4904.525144877954
 30
0.0
 11
11366.56422331956
 21
4884.598180431543
 31
0.0
  0
LINE
  5
1873D
330
747D
100
AcDbEntity
  8
部品1
 48
50.0
100
AcDbLine
 10
11369.6329954258
 20
4881.02289893807
 30
0.0
 11
11371.33689691717
 21
4791.732402231422
 31
0.0
  0
LINE
  5
1873E
330
747D
100
AcDbEntity
  8
細線
 48
50.0
100
AcDbLine
 10
11367.03910072945
 20
4883.948680554624
 30
0.0
 11
14132.67508547463
 21
4828.324475913794
 31
0.0
  0
LINE
  5
1873F
330
747D
100
AcDbEntity
  8
細線
 48
50.0
100
AcDbLine
 10
11371.79957596674
 20
4791.087168856758
 30
0.0
 11
14121.80324039738
 21
4751.277849882266
 31
0.0
  0
LINE
  5
18740
330
747D
100
AcDbEntity
  8
部品1
 48
50.0
100
AcDbLine
 10
11374.40566902341
 20
4788.157120737952
 30
0.0
 11
11374.60762164384
 21
4777.574085344858
 31
0.0
  0
ARC
  5
18741
330
747D
100
AcDbEntity
  8
部品1
 48
50.0
100
AcDbCircle
 10
11373.18268937008
 20
4904.658699285382
 30
0.0
 40
7.0
100
AcDbArc
 50
87.03587545283093
 51
181.0932240293156
  0
ARC
  5
18742
330
747D
100
AcDbEntity
  8
部品1
 48
50.0
100
AcDbCircle
 10
11381.60634747218
 20
4777.707639752287
 30
0.0
 40
7.0
100
AcDbArc
 50
181.0932240293156
 51
267.8377559869492
  0
ARC
  5
18743
330
747D
100
AcDbEntity
  8
部品1
100
AcDbCircle
 10
11371.40621509698
 20
4788.099883134768
 30
0.0
 40
3.0
100
AcDbArc
 50
1.093224029315636
 51
80.18775403169875
  0
ARC
  5
18744
330
747D
100
AcDbEntity
  8
部品1
100
AcDbCircle
 10
11366.63354149937
 20
4880.965661334887
 30
0.0
 40
3.0
100
AcDbArc
 50
1.093224029315636
 51
80.18775403169875
  0
ARC
  5
18745
330
747D
100
AcDbEntity
  8
部品1
100
AcDbCircle
 10
11367.2640959024
 20
4884.611535872284
 30
0.0
 40
0.7
100
AcDbArc
 50
181.0932240292114
 51
260.1877540314845
  0
ARC
  5
18746
330
747D
100
AcDbEntity
  8
部品1
100
AcDbCircle
 10
11372.03676950001
 20
4791.745757672166
 30
0.0
 40
0.7
100
AcDbArc
 50
181.0932240293156
 51
260.1877540314845
  0
LINE
  5
18747
330
747D
100
AcDbEntity
  8
部品1
 48
50.0
100
AcDbLine
 10
14135.21358043935
 20
4848.872750987481
 30
0.0
 11
14133.18295924837
 21
4828.9277097297
 31
0.0
  0
LINE
  5
18748
330
747D
100
AcDbEntity
  8
部品1
 48
50.0
100
AcDbLine
 10
14129.83039276389
 20
4825.617075656792
 30
0.0
 11
14122.32361349906
 21
4751.88445491178
 31
0.0
  0
LINE
  5
18749
330
747D
100
AcDbEntity
  8
部品1
 48
50.0
100
AcDbLine
 10
14118.97104701457
 20
4748.573820838866
 30
0.0
 11
14117.89148397483
 21
4737.970203845309
 31
0.0
  0
ARC
  5
1874A
330
747D
100
AcDbEntity
  8
部品1
 48
50.0
100
AcDbCircle
 10
14128.24957987458
 20
4849.581761660257
 30
0.0
 40
7.0
100
AcDbArc
 50
354.1866997665532
 51
87.03587545283093
  0
ARC
  5
1874B
330
747D
100
AcDbEntity
  8
部品1
 48
50.0
100
AcDbCircle
 10
14110.92748341007
 20
4738.679214518082
 30
0.0
 40
7.0
100
AcDbArc
 50
267.8377559869492
 51
354.1866997665532
  0
ARC
  5
1874C
330
747D
100
AcDbEntity
  8
部品1
100
AcDbCircle
 10
14121.95561868518
 20
4748.269959121964
 30
0.0
 40
3.0
100
AcDbArc
 50
95.0921697642102
 51
174.1866997665532
  0
ARC
  5
1874D
330
747D
100
AcDbEntity
  8
部品1
100
AcDbCircle
 10
14132.8149644345
 20
4825.313213939889
 30
0.0
 40
3.0
100
AcDbArc
 50
95.0921697642102
 51
174.1866997665532
  0
ARC
  5
1874E
330
747D
100
AcDbEntity
  8
部品1
100
AcDbCircle
 10
14132.4865591919
 20
4828.998610796978
 30
0.0
 40
0.7
100
AcDbArc
 50
275.0921697642102
 51
354.1866997665532
  0
ARC
  5
1874F
330
747D
100
AcDbEntity
  8
部品1
100
AcDbCircle
 10
14121.62721344258
 20
4751.955355979054
 30
0.0
 40
0.7
100
AcDbArc
 50
275.0921697642102
 51
354.1866997667606
  0
LINE
  5
18750
330
747D
100
AcDbEntity
  8
部品1
100
AcDbLine
 10
12601.22480805788
 20
5038.13598667628
 30
0.0
 11
12926.67982170092
 21
5020.617927717418
 31
0.0
  0
LINE
  5
18751
330
747D
100
AcDbEntity
  8
細線
 48
50.0
100
AcDbLine
 10
13923.49967762865
 20
4677.931598713261
 30
0.0
 11
13923.49967762865
 21
2587.931598713263
 31
0.0
  0
LINE
  5
18752
330
747D
100
AcDbEntity
  8
細線
 48
50.0
100
AcDbLine
 10
13938.49967762865
 20
4677.931598713261
 30
0.0
 11
13938.49967762865
 21
2587.931598713263
 31
0.0
  0
LINE
  5
18753
330
747D
100
AcDbEntity
  8
細線
 48
50.0
100
AcDbLine
 10
13798.49967762865
 20
4677.931598713261
 30
0.0
 11
13798.49967762865
 21
2587.931598713263
 31
0.0
  0
LINE
  5
18754
330
747D
100
AcDbEntity
  8
細線
 48
50.0
100
AcDbLine
 10
13783.49967762865
 20
4677.931598713261
 30
0.0
 11
13783.49967762865
 21
2587.931598713263
 31
0.0
  0
LINE
  5
18755
330
747D
100
AcDbEntity
  8
細線
 48
50.0
100
AcDbLine
 10
13643.49967762865
 20
4677.931598713261
 30
0.0
 11
13643.49967762865
 21
2587.931598713263
 31
0.0
  0
LINE
  5
18756
330
747D
100
AcDbEntity
  8
細線
 48
50.0
100
AcDbLine
 10
13658.49967762865
 20
4677.931598713261
 30
0.0
 11
13658.49967762865
 21
2587.931598713263
 31
0.0
  0
LINE
  5
18757
330
747D
100
AcDbEntity
  8
部品1
100
AcDbLine
 10
12740.99967762864
 20
4677.931598713261
 30
0.0
 11
12740.99967762864
 21
2587.931598713263
 31
0.0
  0
LINE
  5
18758
330
747D
100
AcDbEntity
  8
細線
 48
50.0
100
AcDbLine
 10
12398.49967762864
 20
4677.931598713261
 30
0.0
 11
12398.49967762864
 21
2587.931598713263
 31
0.0
  0
LINE
  5
18759
330
747D
100
AcDbEntity
  8
細線
 48
50.0
100
AcDbLine
 10
12383.49967762864
 20
4677.931598713261
 30
0.0
 11
12383.49967762864
 21
2587.931598713263
 31
0.0
  0
LINE
  5
1875A
330
747D
100
AcDbEntity
  8
細線
 48
50.0
100
AcDbLine
 10
12523.49967762864
 20
4677.931598713261
 30
0.0
 11
12523.49967762864
 21
2587.931598713263
 31
0.0
  0
LINE
  5
1875B
330
747D
100
AcDbEntity
  8
細線
 48
50.0
100
AcDbLine
 10
12538.49967762864
 20
4677.931598713261
 30
0.0
 11
12538.49967762864
 21
2587.931598713263
 31
0.0
  0
LINE
  5
1875C
330
747D
100
AcDbEntity
  8
細線
 48
50.0
100
AcDbLine
 10
12678.49967762864
 20
4677.931598713261
 30
0.0
 11
12678.49967762864
 21
2587.931598713263
 31
0.0
  0
LINE
  5
1875D
330
747D
100
AcDbEntity
  8
細線
 48
50.0
100
AcDbLine
 10
12663.49967762864
 20
4677.931598713261
 30
0.0
 11
12663.49967762864
 21
2587.931598713263
 31
0.0
  0
LINE
  5
1875E
330
747D
100
AcDbEntity
  8
部品1
100
AcDbLine
 10
12320.99967762864
 20
4677.931598713261
 30
0.0
 11
12320.99967762864
 21
2587.931598713263
 31
0.0
  0
LINE
  5
1875F
330
747D
100
AcDbEntity
  8
細線
 48
50.0
100
AcDbLine
 10
11558.49967762864
 20
4677.931598713261
 30
0.0
 11
11558.49967762864
 21
2587.931598713263
 31
0.0
  0
LINE
  5
18760
330
747D
100
AcDbEntity
  8
細線
 48
50.0
100
AcDbLine
 10
11543.49967762864
 20
4677.931598713261
 30
0.0
 11
11543.49967762864
 21
2587.931598713263
 31
0.0
  0
LINE
  5
18761
330
747D
100
AcDbEntity
  8
細線
 48
50.0
100
AcDbLine
 10
11683.49967762864
 20
4677.931598713261
 30
0.0
 11
11683.49967762864
 21
2587.931598713263
 31
0.0
  0
LINE
  5
18762
330
747D
100
AcDbEntity
  8
細線
 48
50.0
100
AcDbLine
 10
11698.49967762864
 20
4677.931598713261
 30
0.0
 11
11698.49967762864
 21
2587.931598713263
 31
0.0
  0
LINE
  5
18763
330
747D
100
AcDbEntity
  8
細線
 48
50.0
100
AcDbLine
 10
11838.49967762864
 20
4677.931598713261
 30
0.0
 11
11838.49967762864
 21
2587.931598713263
 31
0.0
  0
LINE
  5
18764
330
747D
100
AcDbEntity
  8
細線
 48
50.0
100
AcDbLine
 10
11823.49967762864
 20
4677.931598713261
 30
0.0
 11
11823.49967762864
 21
2587.931598713263
 31
0.0
  0
LINE
  5
18765
330
747D
100
AcDbEntity
  8
細線
 48
50.0
100
AcDbLine
 10
12243.49967762864
 20
4677.931598713261
 30
0.0
 11
12243.49967762864
 21
2587.931598713263
 31
0.0
  0
LINE
  5
18766
330
747D
100
AcDbEntity
  8
細線
 48
50.0
100
AcDbLine
 10
12258.49967762864
 20
4677.931598713261
 30
0.0
 11
12258.49967762864
 21
2587.931598713263
 31
0.0
  0
LINE
  5
18767
330
747D
100
AcDbEntity
  8
細線
 48
50.0
100
AcDbLine
 10
12118.49967762864
 20
4677.931598713261
 30
0.0
 11
12118.49967762864
 21
2587.931598713263
 31
0.0
  0
LINE
  5
18768
330
747D
100
AcDbEntity
  8
細線
 48
50.0
100
AcDbLine
 10
12103.49967762864
 20
4677.931598713261
 30
0.0
 11
12103.49967762864
 21
2587.931598713263
 31
0.0
  0
LINE
  5
18769
330
747D
100
AcDbEntity
  8
細線
 48
50.0
100
AcDbLine
 10
11963.49967762864
 20
4677.931598713261
 30
0.0
 11
11963.49967762864
 21
2587.931598713263
 31
0.0
  0
LINE
  5
1876A
330
747D
100
AcDbEntity
  8
細線
 48
50.0
100
AcDbLine
 10
11978.49967762864
 20
4677.931598713261
 30
0.0
 11
11978.49967762864
 21
2587.931598713263
 31
0.0
  0
LINE
  5
1876B
330
747D
100
AcDbEntity
  8
部品1
100
AcDbLine
 10
11900.99967762864
 20
4677.931598713261
 30
0.0
 11
11900.99967762864
 21
2587.931598713263
 31
0.0
  0
LINE
  5
1876C
330
747D
100
AcDbEntity
  8
部品1
100
AcDbLine
 10
13580.99967762864
 20
4677.931598713261
 30
0.0
 11
13580.99967762864
 21
2587.931598713263
 31
0.0
  0
LINE
  5
1876D
330
747D
100
AcDbEntity
  8
細線
 48
50.0
100
AcDbLine
 10
13083.49967762864
 20
4677.931598713261
 30
0.0
 11
13083.49967762864
 21
2587.931598713263
 31
0.0
  0
LINE
  5
1876E
330
747D
100
AcDbEntity
  8
細線
 48
50.0
100
AcDbLine
 10
13098.49967762864
 20
4677.931598713261
 30
0.0
 11
13098.49967762864
 21
2587.931598713263
 31
0.0
  0
LINE
  5
1876F
330
747D
100
AcDbEntity
  8
細線
 48
50.0
100
AcDbLine
 10
12958.49967762864
 20
4677.931598713261
 30
0.0
 11
12958.49967762864
 21
2587.931598713263
 31
0.0
  0
LINE
  5
18770
330
747D
100
AcDbEntity
  8
細線
 48
50.0
100
AcDbLine
 10
12943.49967762864
 20
4677.931598713261
 30
0.0
 11
12943.49967762864
 21
2587.931598713263
 31
0.0
  0
LINE
  5
18771
330
747D
100
AcDbEntity
  8
細線
 48
50.0
100
AcDbLine
 10
12803.49967762864
 20
4677.931598713261
 30
0.0
 11
12803.49967762864
 21
2587.931598713263
 31
0.0
  0
LINE
  5
18772
330
747D
100
AcDbEntity
  8
細線
 48
50.0
100
AcDbLine
 10
12818.49967762864
 20
4677.931598713261
 30
0.0
 11
12818.49967762864
 21
2587.931598713263
 31
0.0
  0
LINE
  5
18773
330
747D
100
AcDbEntity
  8
部品1
100
AcDbLine
 10
13160.99967762863
 20
4677.931598713261
 30
0.0
 11
13160.99967762863
 21
2587.931598713263
 31
0.0
  0
LINE
  5
18774
330
747D
100
AcDbEntity
  8
細線
 48
50.0
100
AcDbLine
 10
13238.49967762864
 20
4677.931598713261
 30
0.0
 11
13238.49967762864
 21
2587.931598713263
 31
0.0
  0
LINE
  5
18775
330
747D
100
AcDbEntity
  8
細線
 48
50.0
100
AcDbLine
 10
13223.49967762864
 20
4677.931598713261
 30
0.0
 11
13223.49967762864
 21
2587.931598713263
 31
0.0
  0
LINE
  5
18776
330
747D
100
AcDbEntity
  8
細線
 48
50.0
100
AcDbLine
 10
13363.49967762864
 20
4677.931598713261
 30
0.0
 11
13363.49967762864
 21
2587.931598713263
 31
0.0
  0
LINE
  5
18777
330
747D
100
AcDbEntity
  8
細線
 48
50.0
100
AcDbLine
 10
13378.49967762864
 20
4677.931598713261
 30
0.0
 11
13378.49967762864
 21
2587.931598713263
 31
0.0
  0
LINE
  5
18778
330
747D
100
AcDbEntity
  8
細線
 48
50.0
100
AcDbLine
 10
13518.49967762864
 20
4677.931598713261
 30
0.0
 11
13518.49967762864
 21
2587.931598713263
 31
0.0
  0
LINE
  5
18779
330
747D
100
AcDbEntity
  8
細線
 48
50.0
100
AcDbLine
 10
13503.49967762864
 20
4677.931598713261
 30
0.0
 11
13503.49967762864
 21
2587.931598713263
 31
0.0
  0
LWPOLYLINE
  5
1877A
330
747D
100
AcDbEntity
  8
部品1
100
AcDbPolyline
 90
        4
 70
     1
 43
0.0
 10
12359.26434451442
 20
1787.931598713268
 10
12359.26434451442
 20
1548.039277167736
 10
13122.73501074286
 20
1548.039277167736
 10
13122.73501074286
 20
1787.931598713268
  0
TEXT
  5
1877B
330
747D
100
AcDbEntity
  8
部品1
100
AcDbText
 10
12448.71044593803
 20
1595.038069494745
 30
0.0
 40
135.0
  1
側面図
  7
STYLE2
100
AcDbText
  0
LINE
  5
18880
330
747D
100
AcDbEntity
  8
Ｇ．Ｌ
100
AcDbLine
 10
1921.406454453172
 20
2437.931598713261
 30
0.0
 11
14945.79354554683
 21
2437.931598713261
 31
0.0
  0
MTEXT
  5
18ED6
330
747D
100
AcDbEntity
  8
寸法
 62
     7
 48
50.0
100
AcDbMText
 10
3792.388255196221
 20
9356.903693513009
 30
0.0
 40
96.0
 41
0.0
 71
     5
 72
     1
  1
棚 3段
  7
STYLE1
 73
     1
 44
1.0
1001
ACAD
1000
MTEXTBEGIN
1070
    73
1070
     1
1070
    44
1040
1.0
1070
    74
1070
     0
1000
MTEXTEND
  0
MTEXT
  5
190B6
330
747D
100
AcDbEntity
  8
寸法
 62
     7
 48
50.0
100
AcDbMText
 10
5302.388255196215
 20
9356.903693513059
 30
0.0
 40
96.0
 41
0.0
 71
     5
 72
     1
  1
棚 3段
  7
STYLE1
 73
     1
 44
1.0
1001
ACAD
1000
MTEXTBEGIN
1070
    73
1070
     1
1070
    44
1040
1.0
1070
    74
1070
     0
1000
MTEXTEND
  0
MTEXT
  5
190B7
330
747D
100
AcDbEntity
  8
寸法
 62
     7
 48
50.0
100
AcDbMText
 10
8352.388255196215
 20
9356.903693513059
 30
0.0
 40
96.0
 41
0.0
 71
     5
 72
     1
  1
棚 3段
  7
STYLE1
 73
     1
 44
1.0
1001
ACAD
1000
MTEXTBEGIN
1070
    73
1070
     1
1070
    44
1040
1.0
1070
    74
1070
     0
1000
MTEXTEND
  0
MTEXT
  5
190B8
330
747D
100
AcDbEntity
  8
寸法
 62
     7
 48
50.0
100
AcDbMText
 10
6842.388255196222
 20
9356.903693513009
 30
0.0
 40
96.0
 41
0.0
 71
     5
 72
     1
  1
棚 3段
  7
STYLE1
 73
     1
 44
1.0
1001
ACAD
1000
MTEXTBEGIN
1070
    73
1070
     1
1070
    44
1040
1.0
1070
    74
1070
     0
1000
MTEXTEND
  0
DIMENSION
  5
1927C
330
747D
100
AcDbEntity
  8
寸法
100
AcDbDimension
  2
*D32
 10
7479.149210862274
 20
8949.059754790708
 30
0.0
 11
6675.9643605316
 21
8949.059754790708
 31
0.0
 70
   160
 71
     5
 42
1483.000000000012
  3
INABA_S40G
100
AcDbAlignedDimension
 13
6088.173057123586
 23
9292.49742454588
 33
0.0
 14
7571.173057123598
 24
9292.497424545873
 34
0.0
100
AcDbRotatedDimension
1001
ACAD
1000
DSTYLE
1002
{
1002
}
  0
DIMENSION
  5
1927F
330
747D
100
AcDbEntity
  8
寸法
100
AcDbDimension
  2
*D33
 10
8989.149210862276
 20
8949.059754790818
 30
0.0
 11
8122.611213040434
 21
8949.059754790818
 31
0.0
 70
   160
 71
     5
 42
1483.000000000012
  3
INABA_S40G
100
AcDbAlignedDimension
 13
7598.173057123585
 23
9292.497424545985
 33
0.0
 14
9081.173057123598
 24
9292.497424545977
 34
0.0
100
AcDbRotatedDimension
1001
ACAD
1000
DSTYLE
1002
{
1002
}
  0
LINE
  5
1945E
330
747D
100
AcDbEntity
  8
補助
  6
PHANTOM
 62
   230
 48
50.0
100
AcDbLine
 10
140.0
 20
0.0
 30
0.0
 11
140.0
 21
11409.6
 31
0.0
  0
TEXT
  5
1947B
330
747D
100
AcDbEntity
  8
文字
 62
     7
 48
50.0
100
AcDbText
 10
14454.30130813547
 20
483.8967129911414
 30
0.0
 40
160.0
  1
FXN-81HYL-2
  7
STYLE2
100
AcDbText
  0
TEXT
  5
199C4
330
747D
100
AcDbEntity
  8
文字
 62
     7
 48
50.0
100
AcDbText
 10
14646.46056207479
 20
871.9640646083623
 30
0.0
 40
100.0
  1
～一般型～
  7
STYLE2
100
AcDbText
  0
TEXT
  5
199E1
330
747D
100
AcDbEntity
  8
文字
 62
     7
 48
50.0
100
AcDbText
 10
15022.63965474516
 20
9060.013745883727
 30
0.0
 40
100.0
  1
F12            0.7
  7
STYLE1
100
AcDbText
  0
LINE
  5
19B83
330
747D
100
AcDbEntity
  8
破線
 48
5.0
100
AcDbLine
 10
6059.673057123609
 20
2262.931598713262
 30
0.0
 11
6059.673057123609
 21
2187.931598713261
 31
0.0
  0
LINE
  5
19B84
330
747D
100
AcDbEntity
  8
部品1
100
AcDbLine
 10
3064.673057123611
 20
2537.931598713262
 30
0.0
 11
6004.673057123607
 21
2537.931598713262
 31
0.0
  0
LINE
  5
19B85
330
747D
100
AcDbEntity
  8
部品1
100
AcDbLine
 10
3009.673057123611
 20
4771.931598713265
 30
0.0
 11
3009.673057123611
 21
2437.931598713261
 31
0.0
  0
LINE
  5
19B86
330
747D
100
AcDbEntity
  8
部品1
100
AcDbLine
 10
9054.67305712361
 20
4512.931598713257
 30
0.0
 11
9054.673057123608
 21
2437.931598713261
 31
0.0
  0
LINE
  5
19B87
330
747D
100
AcDbEntity
  8
部品1
100
AcDbLine
 10
3064.673057123612
 20
4512.931598713262
 30
0.0
 11
3064.673057123611
 21
2437.931598713261
 31
0.0
  0
LINE
  5
19B88
330
747D
100
AcDbEntity
  8
部品1
100
AcDbLine
 10
9109.673057123609
 20
4771.931598713265
 30
0.0
 11
9109.673057123609
 21
2437.931598713261
 31
0.0
  0
LINE
  5
19B89
330
747D
100
AcDbEntity
  8
破線
 48
5.0
100
AcDbLine
 10
9109.673057123609
 20
2437.931598713261
 30
0.0
 11
9109.673057123609
 21
2187.931598713261
 31
0.0
  0
LINE
  5
19B8A
330
747D
100
AcDbEntity
  8
破線
 48
5.0
100
AcDbLine
 10
3009.673057123611
 20
2437.931598713261
 30
0.0
 11
3009.673057123609
 21
2187.931598713261
 31
0.0
  0
LINE
  5
19B8B
330
747D
100
AcDbEntity
  8
破線
 48
5.0
100
AcDbLine
 10
9054.673057123608
 20
2437.931598713261
 30
0.0
 11
9054.67305712361
 21
2187.931598713261
 31
0.0
  0
LINE
  5
19B8C
330
747D
100
AcDbEntity
  8
破線
 48
5.0
100
AcDbLine
 10
3064.673057123611
 20
2437.931598713261
 30
0.0
 11
3064.673057123609
 21
2187.931598713261
 31
0.0
  0
LINE
  5
19B8D
330
747D
100
AcDbEntity
  8
破線
 48
5.0
100
AcDbLine
 10
9109.673057123607
 20
2187.931598713261
 30
0.0
 11
9054.67305712361
 21
2187.931598713261
 31
0.0
  0
LINE
  5
19B8E
330
747D
100
AcDbEntity
  8
破線
 48
5.0
100
AcDbLine
 10
3064.673057123609
 20
2187.931598713269
 30
0.0
 11
3009.673057123609
 21
2187.931598713269
 31
0.0
  0
LINE
  5
19B8F
330
747D
100
AcDbEntity
  8
部品1
100
AcDbLine
 10
3112.673057123611
 20
4512.931598713261
 30
0.0
 11
3112.673057123611
 21
2587.931598713261
 31
0.0
  0
LINE
  5
19B90
330
747D
100
AcDbEntity
  8
部品1
100
AcDbLine
 10
9006.673057123611
 20
4512.931598713262
 30
0.0
 11
9006.673057123606
 21
2587.931598713261
 31
0.0
  0
LINE
  5
19B91
330
747D
100
AcDbEntity
  8
部品1
100
AcDbLine
 10
3009.673057123611
 20
4512.931598713262
 30
0.0
 11
6114.673057123608
 21
4512.931598713259
 31
0.0
  0
LINE
  5
19B92
330
747D
100
AcDbEntity
  8
細線
100
AcDbLine
 10
6162.673057123606
 20
4222.931598713262
 30
0.0
 11
9006.673057123608
 21
4222.931598713262
 31
0.0
  0
LINE
  5
19B93
330
747D
100
AcDbEntity
  8
細線
100
AcDbLine
 10
6162.673057123606
 20
4287.931598713261
 30
0.0
 11
9006.673057123608
 21
4287.931598713261
 31
0.0
  0
LINE
  5
19B94
330
747D
100
AcDbEntity
  8
細線
100
AcDbLine
 10
6162.673057123606
 20
4352.931598713261
 30
0.0
 11
9006.673057123608
 21
4352.931598713261
 31
0.0
  0
LINE
  5
19B95
330
747D
100
AcDbEntity
  8
細線
100
AcDbLine
 10
6162.673057123606
 20
3832.931598713262
 30
0.0
 11
9006.673057123608
 21
3832.931598713262
 31
0.0
  0
LINE
  5
19B96
330
747D
100
AcDbEntity
  8
細線
100
AcDbLine
 10
6162.673057123606
 20
3897.931598713262
 30
0.0
 11
9006.673057123608
 21
3897.931598713262
 31
0.0
  0
LINE
  5
19B97
330
747D
100
AcDbEntity
  8
細線
100
AcDbLine
 10
6162.673057123606
 20
3962.931598713261
 30
0.0
 11
9006.673057123608
 21
3962.931598713261
 31
0.0
  0
LINE
  5
19B98
330
747D
100
AcDbEntity
  8
細線
100
AcDbLine
 10
6162.673057123606
 20
4027.931598713261
 30
0.0
 11
9006.673057123608
 21
4027.931598713261
 31
0.0
  0
LINE
  5
19B99
330
747D
100
AcDbEntity
  8
細線
100
AcDbLine
 10
6162.673057123606
 20
4092.931598713261
 30
0.0
 11
9006.673057123608
 21
4092.931598713261
 31
0.0
  0
LINE
  5
19B9A
330
747D
100
AcDbEntity
  8
細線
100
AcDbLine
 10
6162.673057123606
 20
4157.931598713261
 30
0.0
 11
9006.673057123608
 21
4157.931598713261
 31
0.0
  0
LINE
  5
19B9B
330
747D
100
AcDbEntity
  8
細線
100
AcDbLine
 10
6162.673057123606
 20
3182.931598713262
 30
0.0
 11
9006.673057123608
 21
3182.931598713262
 31
0.0
  0
LINE
  5
19B9C
330
747D
100
AcDbEntity
  8
細線
100
AcDbLine
 10
6162.673057123606
 20
3247.931598713261
 30
0.0
 11
9006.673057123608
 21
3247.931598713261
 31
0.0
  0
LINE
  5
19B9D
330
747D
100
AcDbEntity
  8
細線
100
AcDbLine
 10
6162.673057123606
 20
3312.931598713261
 30
0.0
 11
9006.673057123608
 21
3312.931598713261
 31
0.0
  0
LINE
  5
19B9E
330
747D
100
AcDbEntity
  8
細線
100
AcDbLine
 10
6162.673057123606
 20
3377.931598713261
 30
0.0
 11
9006.673057123608
 21
3377.931598713261
 31
0.0
  0
LINE
  5
19B9F
330
747D
100
AcDbEntity
  8
細線
100
AcDbLine
 10
6162.673057123606
 20
3442.931598713261
 30
0.0
 11
9006.673057123608
 21
3442.931598713261
 31
0.0
  0
LINE
  5
19BA0
330
747D
100
AcDbEntity
  8
細線
100
AcDbLine
 10
6162.673057123606
 20
3507.931598713262
 30
0.0
 11
9006.673057123608
 21
3507.931598713262
 31
0.0
  0
LINE
  5
19BA1
330
747D
100
AcDbEntity
  8
細線
100
AcDbLine
 10
6162.673057123606
 20
3572.931598713262
 30
0.0
 11
9006.673057123608
 21
3572.931598713262
 31
0.0
  0
LINE
  5
19BA2
330
747D
100
AcDbEntity
  8
細線
100
AcDbLine
 10
6162.673057123606
 20
3637.931598713262
 30
0.0
 11
9006.673057123608
 21
3637.931598713262
 31
0.0
  0
LINE
  5
19BA3
330
747D
100
AcDbEntity
  8
細線
100
AcDbLine
 10
6162.673057123606
 20
3702.931598713262
 30
0.0
 11
9006.673057123608
 21
3702.931598713262
 31
0.0
  0
LINE
  5
19BA4
330
747D
100
AcDbEntity
  8
細線
100
AcDbLine
 10
6162.673057123606
 20
3767.931598713261
 30
0.0
 11
9006.673057123608
 21
3767.931598713261
 31
0.0
  0
LINE
  5
19BA5
330
747D
100
AcDbEntity
  8
細線
100
AcDbLine
 10
6162.673057123606
 20
4482.931598713261
 30
0.0
 11
9006.673057123608
 21
4482.931598713261
 31
0.0
  0
LINE
  5
19BA6
330
747D
100
AcDbEntity
  8
細線
100
AcDbLine
 10
6162.673057123606
 20
4417.931598713261
 30
0.0
 11
9006.673057123608
 21
4417.931598713261
 31
0.0
  0
LINE
  5
19BA7
330
747D
100
AcDbEntity
  8
細線
100
AcDbLine
 10
6162.673057123606
 20
2662.931598713262
 30
0.0
 11
9006.673057123608
 21
2662.931598713262
 31
0.0
  0
LINE
  5
19BA8
330
747D
100
AcDbEntity
  8
細線
100
AcDbLine
 10
6162.673057123606
 20
2727.931598713261
 30
0.0
 11
9006.673057123608
 21
2727.931598713261
 31
0.0
  0
LINE
  5
19BA9
330
747D
100
AcDbEntity
  8
細線
100
AcDbLine
 10
6162.673057123606
 20
2792.931598713261
 30
0.0
 11
9006.673057123608
 21
2792.931598713261
 31
0.0
  0
LINE
  5
19BAA
330
747D
100
AcDbEntity
  8
細線
100
AcDbLine
 10
6162.673057123606
 20
2857.931598713261
 30
0.0
 11
9006.673057123608
 21
2857.931598713261
 31
0.0
  0
LINE
  5
19BAB
330
747D
100
AcDbEntity
  8
細線
100
AcDbLine
 10
6162.673057123606
 20
2922.931598713262
 30
0.0
 11
9006.673057123608
 21
2922.931598713262
 31
0.0
  0
LINE
  5
19BAC
330
747D
100
AcDbEntity
  8
細線
100
AcDbLine
 10
6162.673057123606
 20
2987.931598713262
 30
0.0
 11
9006.673057123608
 21
2987.931598713262
 31
0.0
  0
LINE
  5
19BAD
330
747D
100
AcDbEntity
  8
細線
100
AcDbLine
 10
6162.673057123606
 20
3052.931598713261
 30
0.0
 11
9006.673057123608
 21
3052.931598713261
 31
0.0
  0
LINE
  5
19BAE
330
747D
100
AcDbEntity
  8
細線
100
AcDbLine
 10
6162.673057123606
 20
3117.931598713262
 30
0.0
 11
9006.673057123608
 21
3117.931598713262
 31
0.0
  0
LINE
  5
19BAF
330
747D
100
AcDbEntity
  8
細線
100
AcDbLine
 10
9006.673057123609
 20
2597.931598713262
 30
0.0
 11
6162.673057123604
 21
2597.931598713262
 31
0.0
  0
CIRCLE
  5
19BB0
330
747D
100
AcDbEntity
  8
細線
 48
50.0
100
AcDbCircle
 10
7584.673057123608
 20
3475.431598713262
 30
0.0
 40
18.0
  0
ARC
  5
19BB1
330
747D
100
AcDbEntity
  8
細線
 48
50.0
100
AcDbCircle
 10
7884.673057123608
 20
3150.431598713261
 30
0.0
 40
15.0
100
AcDbArc
 50
270.0
 51
90.0
  0
ARC
  5
19BB2
330
747D
100
AcDbEntity
  8
細線
 48
50.0
100
AcDbCircle
 10
7784.673057123608
 20
3150.431598713261
 30
0.0
 40
15.0
100
AcDbArc
 50
90.0
 51
270.0
  0
LINE
  5
19BB3
330
747D
100
AcDbEntity
  8
細線
 48
50.0
100
AcDbLine
 10
7784.673057123608
 20
3165.431598713261
 30
0.0
 11
7884.673057123608
 21
3165.431598713261
 31
0.0
  0
LINE
  5
19BB4
330
747D
100
AcDbEntity
  8
細線
 48
50.0
100
AcDbLine
 10
7884.673057123608
 20
3135.431598713262
 30
0.0
 11
7784.673057123608
 21
3135.431598713262
 31
0.0
  0
LINE
  5
19BB5
330
747D
100
AcDbEntity
  8
細線
 48
50.0
100
AcDbLine
 10
7384.673057123608
 20
3135.431598713262
 30
0.0
 11
7284.673057123608
 21
3135.431598713262
 31
0.0
  0
LINE
  5
19BB6
330
747D
100
AcDbEntity
  8
細線
 48
50.0
100
AcDbLine
 10
7284.673057123608
 20
3165.431598713261
 30
0.0
 11
7384.673057123608
 21
3165.431598713261
 31
0.0
  0
ARC
  5
19BB7
330
747D
100
AcDbEntity
  8
細線
 48
50.0
100
AcDbCircle
 10
7384.673057123608
 20
3150.431598713261
 30
0.0
 40
15.0
100
AcDbArc
 50
270.0
 51
90.0
  0
ARC
  5
19BB8
330
747D
100
AcDbEntity
  8
細線
 48
50.0
100
AcDbCircle
 10
7284.673057123608
 20
3150.431598713261
 30
0.0
 40
15.0
100
AcDbArc
 50
90.0
 51
270.0
  0
LINE
  5
19BB9
330
747D
100
AcDbEntity
  8
細線
 48
50.0
100
AcDbLine
 10
4234.673057123609
 20
3165.431598713261
 30
0.0
 11
4334.673057123609
 21
3165.431598713261
 31
0.0
  0
LINE
  5
19BBA
330
747D
100
AcDbEntity
  8
細線
 48
50.0
100
AcDbLine
 10
4334.673057123609
 20
3135.431598713262
 30
0.0
 11
4234.673057123609
 21
3135.431598713262
 31
0.0
  0
LINE
  5
19BBB
330
747D
100
AcDbEntity
  8
細線
100
AcDbLine
 10
3112.673057123607
 20
3117.931598713262
 30
0.0
 11
5956.673057123608
 21
3117.931598713262
 31
0.0
  0
LINE
  5
19BBC
330
747D
100
AcDbEntity
  8
細線
100
AcDbLine
 10
3112.673057123607
 20
3052.931598713261
 30
0.0
 11
5956.673057123608
 21
3052.931598713261
 31
0.0
  0
LINE
  5
19BBD
330
747D
100
AcDbEntity
  8
細線
100
AcDbLine
 10
3112.673057123607
 20
2987.931598713262
 30
0.0
 11
5956.673057123608
 21
2987.931598713262
 31
0.0
  0
LINE
  5
19BBE
330
747D
100
AcDbEntity
  8
細線
100
AcDbLine
 10
3112.673057123607
 20
2922.931598713262
 30
0.0
 11
5956.673057123608
 21
2922.931598713262
 31
0.0
  0
LINE
  5
19BBF
330
747D
100
AcDbEntity
  8
細線
100
AcDbLine
 10
3112.673057123607
 20
2857.931598713261
 30
0.0
 11
5956.673057123608
 21
2857.931598713261
 31
0.0
  0
LINE
  5
19BC0
330
747D
100
AcDbEntity
  8
細線
100
AcDbLine
 10
3112.673057123607
 20
2792.931598713261
 30
0.0
 11
5956.673057123608
 21
2792.931598713261
 31
0.0
  0
LINE
  5
19BC1
330
747D
100
AcDbEntity
  8
細線
100
AcDbLine
 10
3112.673057123607
 20
2727.931598713261
 30
0.0
 11
5956.673057123608
 21
2727.931598713261
 31
0.0
  0
LINE
  5
19BC2
330
747D
100
AcDbEntity
  8
細線
100
AcDbLine
 10
3112.673057123607
 20
2662.931598713262
 30
0.0
 11
5956.673057123608
 21
2662.931598713262
 31
0.0
  0
LINE
  5
19BC3
330
747D
100
AcDbEntity
  8
細線
100
AcDbLine
 10
3112.673057123607
 20
4417.931598713261
 30
0.0
 11
5956.673057123608
 21
4417.931598713261
 31
0.0
  0
LINE
  5
19BC4
330
747D
100
AcDbEntity
  8
細線
100
AcDbLine
 10
3112.673057123607
 20
4482.931598713261
 30
0.0
 11
5956.673057123608
 21
4482.931598713261
 31
0.0
  0
LINE
  5
19BC5
330
747D
100
AcDbEntity
  8
細線
100
AcDbLine
 10
3112.673057123607
 20
3767.931598713261
 30
0.0
 11
5956.673057123608
 21
3767.931598713261
 31
0.0
  0
LINE
  5
19BC6
330
747D
100
AcDbEntity
  8
細線
100
AcDbLine
 10
3112.673057123607
 20
3702.931598713262
 30
0.0
 11
5956.673057123608
 21
3702.931598713262
 31
0.0
  0
LINE
  5
19BC7
330
747D
100
AcDbEntity
  8
細線
100
AcDbLine
 10
3112.673057123607
 20
3637.931598713262
 30
0.0
 11
5956.673057123608
 21
3637.931598713262
 31
0.0
  0
LINE
  5
19BC8
330
747D
100
AcDbEntity
  8
細線
100
AcDbLine
 10
3112.673057123607
 20
3572.931598713262
 30
0.0
 11
5956.673057123608
 21
3572.931598713262
 31
0.0
  0
LINE
  5
19BC9
330
747D
100
AcDbEntity
  8
細線
100
AcDbLine
 10
3112.673057123607
 20
3507.931598713262
 30
0.0
 11
5956.673057123608
 21
3507.931598713262
 31
0.0
  0
LINE
  5
19BCA
330
747D
100
AcDbEntity
  8
細線
100
AcDbLine
 10
3112.673057123607
 20
3442.931598713261
 30
0.0
 11
5956.673057123608
 21
3442.931598713261
 31
0.0
  0
LINE
  5
19BCB
330
747D
100
AcDbEntity
  8
細線
100
AcDbLine
 10
3112.673057123607
 20
3377.931598713261
 30
0.0
 11
5956.673057123608
 21
3377.931598713261
 31
0.0
  0
LINE
  5
19BCC
330
747D
100
AcDbEntity
  8
細線
100
AcDbLine
 10
3112.673057123607
 20
3312.931598713261
 30
0.0
 11
5956.673057123608
 21
3312.931598713261
 31
0.0
  0
LINE
  5
19BCD
330
747D
100
AcDbEntity
  8
細線
100
AcDbLine
 10
3112.673057123607
 20
3247.931598713261
 30
0.0
 11
5956.673057123608
 21
3247.931598713261
 31
0.0
  0
LINE
  5
19BCE
330
747D
100
AcDbEntity
  8
細線
100
AcDbLine
 10
3112.673057123607
 20
3182.931598713262
 30
0.0
 11
5956.673057123608
 21
3182.931598713262
 31
0.0
  0
LINE
  5
19BCF
330
747D
100
AcDbEntity
  8
細線
100
AcDbLine
 10
3112.673057123607
 20
4157.931598713261
 30
0.0
 11
5956.673057123608
 21
4157.931598713261
 31
0.0
  0
LINE
  5
19BD0
330
747D
100
AcDbEntity
  8
細線
100
AcDbLine
 10
3112.673057123607
 20
4092.931598713261
 30
0.0
 11
5956.673057123608
 21
4092.931598713261
 31
0.0
  0
LINE
  5
19BD1
330
747D
100
AcDbEntity
  8
細線
100
AcDbLine
 10
3112.673057123607
 20
4027.931598713261
 30
0.0
 11
5956.673057123608
 21
4027.931598713261
 31
0.0
  0
LINE
  5
19BD2
330
747D
100
AcDbEntity
  8
細線
100
AcDbLine
 10
3112.673057123607
 20
3962.931598713261
 30
0.0
 11
5956.673057123608
 21
3962.931598713261
 31
0.0
  0
LINE
  5
19BD3
330
747D
100
AcDbEntity
  8
細線
100
AcDbLine
 10
3112.673057123607
 20
3897.931598713262
 30
0.0
 11
5956.673057123608
 21
3897.931598713262
 31
0.0
  0
LINE
  5
19BD4
330
747D
100
AcDbEntity
  8
細線
100
AcDbLine
 10
3112.673057123607
 20
3832.931598713262
 30
0.0
 11
5956.673057123608
 21
3832.931598713262
 31
0.0
  0
LINE
  5
19BD5
330
747D
100
AcDbEntity
  8
細線
100
AcDbLine
 10
3112.673057123607
 20
4352.931598713261
 30
0.0
 11
5956.673057123608
 21
4352.931598713261
 31
0.0
  0
LINE
  5
19BD6
330
747D
100
AcDbEntity
  8
細線
100
AcDbLine
 10
3112.673057123607
 20
4287.931598713261
 30
0.0
 11
5956.673057123608
 21
4287.931598713261
 31
0.0
  0
LINE
  5
19BD7
330
747D
100
AcDbEntity
  8
細線
100
AcDbLine
 10
3112.673057123607
 20
4222.931598713262
 30
0.0
 11
5956.673057123608
 21
4222.931598713262
 31
0.0
  0
ARC
  5
19BD8
330
747D
100
AcDbEntity
  8
細線
 48
50.0
100
AcDbCircle
 10
4234.673057123609
 20
3150.431598713261
 30
0.0
 40
15.0
100
AcDbArc
 50
90.0
 51
270.0
  0
ARC
  5
19BD9
330
747D
100
AcDbEntity
  8
細線
 48
50.0
100
AcDbCircle
 10
4334.673057123609
 20
3150.431598713261
 30
0.0
 40
15.0
100
AcDbArc
 50
270.0
 51
90.0
  0
LINE
  5
19BDA
330
747D
100
AcDbEntity
  8
細線
 48
50.0
100
AcDbLine
 10
4834.673057123608
 20
3135.431598713262
 30
0.0
 11
4734.673057123607
 21
3135.431598713262
 31
0.0
  0
LINE
  5
19BDB
330
747D
100
AcDbEntity
  8
細線
 48
50.0
100
AcDbLine
 10
4734.673057123607
 20
3165.431598713261
 30
0.0
 11
4834.673057123608
 21
3165.431598713261
 31
0.0
  0
ARC
  5
19BDC
330
747D
100
AcDbEntity
  8
細線
 48
50.0
100
AcDbCircle
 10
4734.673057123607
 20
3150.431598713261
 30
0.0
 40
15.0
100
AcDbArc
 50
90.0
 51
270.0
  0
ARC
  5
19BDD
330
747D
100
AcDbEntity
  8
細線
 48
50.0
100
AcDbCircle
 10
4834.673057123608
 20
3150.431598713261
 30
0.0
 40
15.0
100
AcDbArc
 50
270.0
 51
90.0
  0
CIRCLE
  5
19BDE
330
747D
100
AcDbEntity
  8
細線
 48
50.0
100
AcDbCircle
 10
4534.673057123607
 20
3475.431598713262
 30
0.0
 40
18.0
  0
LINE
  5
19BDF
330
747D
100
AcDbEntity
  8
部品1
100
AcDbLine
 10
6162.673057123609
 20
4512.931598713261
 30
0.0
 11
6162.673057123609
 21
2587.931598713261
 31
0.0
  0
LINE
  5
19BE0
330
747D
100
AcDbEntity
  8
部品1
100
AcDbLine
 10
6114.67305712361
 20
4512.931598713261
 30
0.0
 11
9109.673057123611
 21
4512.931598713262
 31
0.0
  0
LINE
  5
19BE1
330
747D
100
AcDbEntity
  8
細線
100
AcDbLine
 10
5956.673057123609
 20
2597.931598713262
 30
0.0
 11
3112.673057123605
 21
2597.931598713262
 31
0.0
  0
LINE
  5
19BE2
330
747D
100
AcDbEntity
  8
破線
 48
5.0
100
AcDbLine
 10
6114.67305712361
 20
2437.931598713261
 30
0.0
 11
6114.67305712361
 21
2262.931598713262
 31
0.0
  0
LINE
  5
19BE3
330
747D
100
AcDbEntity
  8
破線
 48
5.0
100
AcDbLine
 10
6004.673057123607
 20
2437.931598713261
 30
0.0
 11
6004.67305712361
 21
2262.931598713262
 31
0.0
  0
LINE
  5
19BE4
330
747D
100
AcDbEntity
  8
破線
 48
5.0
100
AcDbLine
 10
6114.673057123607
 20
2262.931598713262
 30
0.0
 11
6004.67305712361
 21
2262.931598713262
 31
0.0
  0
LINE
  5
19BE5
330
747D
100
AcDbEntity
  8
部品1
100
AcDbLine
 10
6114.67305712361
 20
4512.931598713259
 30
0.0
 11
6114.67305712361
 21
2437.931598713261
 31
0.0
  0
LINE
  5
19BE6
330
747D
100
AcDbEntity
  8
部品1
100
AcDbLine
 10
6004.673057123608
 20
4512.931598713259
 30
0.0
 11
6004.673057123607
 21
2437.931598713261
 31
0.0
  0
LINE
  5
19BE7
330
747D
100
AcDbEntity
  8
部品1
100
AcDbLine
 10
5956.673057123611
 20
4512.931598713262
 30
0.0
 11
5956.673057123608
 21
2587.931598713261
 31
0.0
  0
LINE
  5
19BE8
330
747D
100
AcDbEntity
  8
部品1
100
AcDbLine
 10
6114.673057123611
 20
2587.931598713261
 30
0.0
 11
9054.673057123608
 21
2587.931598713261
 31
0.0
  0
LINE
  5
19BE9
330
747D
100
AcDbEntity
  8
部品1
100
AcDbLine
 10
6114.673057123611
 20
2537.931598713262
 30
0.0
 11
9054.673057123608
 21
2537.931598713262
 31
0.0
  0
LINE
  5
19BEA
330
747D
100
AcDbEntity
  8
部品1
100
AcDbLine
 10
3064.673057123611
 20
2587.931598713261
 30
0.0
 11
6004.673057123607
 21
2587.931598713261
 31
0.0
  0
DIMENSION
  5
19BEB
330
747D
100
AcDbEntity
  8
寸法
 48
50.0
100
AcDbDimension
  2
*D34
 10
9159.673057123644
 20
5346.378484445256
 30
0.0
 11
6059.673057123623
 21
5446.390295468877
 31
0.0
 70
    32
 71
     5
 42
6200.000000000041
  3
INABA_S40G
100
AcDbAlignedDimension
 13
2959.673057123602
 23
4912.931598713267
 33
0.0
 14
9159.673057123644
 24
4912.931598713264
 34
0.0
100
AcDbRotatedDimension
  0
DIMENSION
  5
19BEC
330
747D
100
AcDbEntity
  8
寸法
 48
50.0
100
AcDbDimension
  2
*D35
 10
3009.673057123602
 20
5125.473183971506
 30
0.0
 11
6059.673057123601
 21
5225.473183971506
 31
0.0
 70
    32
  1
柱外寸法<>
 71
     5
 42
6099.999999999998
  3
INABA_S40G
100
AcDbAlignedDimension
 13
9109.6730571236
 23
4925.852924535788
 33
0.0
 14
3009.673057123602
 24
4925.852924544255
 34
0.0
100
AcDbRotatedDimension
  0
LINE
  5
19BED
330
747D
100
AcDbEntity
  8
部品1
 48
50.0
100
AcDbLine
 10
6059.673057123625
 20
4512.931598713261
 30
0.0
 11
6059.673057123622
 21
4771.931598713265
 31
0.0
  0
LINE
  5
19BEE
330
747D
100
AcDbEntity
  8
部品1
 48
50.0
100
AcDbLine
 10
6049.673057123622
 20
4771.931598713265
 30
0.0
 11
6049.673057123622
 21
4912.931598713264
 31
0.0
  0
LINE
  5
19BEF
330
747D
100
AcDbEntity
  8
部品1
100
AcDbLine
 10
3009.673057123609
 20
4677.931598713261
 30
0.0
 11
6059.673057123608
 21
4677.931598713261
 31
0.0
  0
DIMENSION
  5
19BF0
330
747D
100
AcDbEntity
  8
寸法
 48
50.0
100
AcDbDimension
  2
*D36
 10
2959.673057123602
 20
5125.473183971506
 30
0.0
 11
2646.187775749354
 21
5125.473183971506
 31
0.0
 70
   160
 71
     5
 42
50.0
  3
INABA_S40G
100
AcDbAlignedDimension
 13
3009.673057123602
 23
4912.931598713268
 33
0.0
 14
2959.673057123602
 24
4912.931598713267
 34
0.0
100
AcDbRotatedDimension
1001
ACAD
1000
DSTYLE
1002
{
1002
}
  0
LINE
  5
19BF1
330
747D
100
AcDbEntity
  8
部品1
 48
50.0
100
AcDbLine
 10
6049.673057123622
 20
4912.931598713264
 30
0.0
 11
2967.081478230031
 21
4912.931598713264
 31
0.0
  0
LINE
  5
19BF2
330
747D
100
AcDbEntity
  8
部品1
 48
50.0
100
AcDbLine
 10
6059.673057123622
 20
4771.931598713265
 30
0.0
 11
2980.296801691065
 21
4771.931598713265
 31
0.0
  0
LINE
  5
19BF3
330
747D
100
AcDbEntity
  8
細線
 48
50.0
100
AcDbLine
 10
6049.673057123622
 20
4884.904841276732
 30
0.0
 11
2961.831708135201
 21
4884.904841277102
 31
0.0
  0
LINE
  5
19BF4
330
747D
100
AcDbEntity
  8
細線
 48
50.0
100
AcDbLine
 10
6049.673057123622
 20
4792.704841276732
 30
0.0
 11
2970.067738660031
 21
4792.7048412771
 31
0.0
  0
LINE
  5
19BF5
330
747D
100
AcDbEntity
  8
細線
 48
50.0
100
AcDbLine
 10
2992.673057123602
 20
4912.931598713265
 30
0.0
 11
2992.673057123602
 21
4771.931598713265
 31
0.0
  0
ARC
  5
19BF6
330
747D
100
AcDbEntity
  8
部品1
100
AcDbCircle
 10
2967.081478230031
 20
4905.931598713265
 30
0.0
 40
7.0
100
AcDbArc
 50
90.0
 51
183.2473427903347
  0
ARC
  5
19BF7
330
747D
100
AcDbEntity
  8
部品1
100
AcDbCircle
 10
2980.296801691065
 20
4778.931598713266
 30
0.0
 40
7.0
100
AcDbArc
 50
183.2473427903347
 51
270.0
  0
ARC
  5
19BF8
330
747D
100
AcDbEntity
  8
部品1
 48
50.0
100
AcDbCircle
 10
2961.924991480389
 20
4885.598597874952
 30
0.0
 40
0.7
100
AcDbArc
 50
183.2473427903867
 51
262.3418727926349
  0
ARC
  5
19BF9
330
747D
100
AcDbEntity
  8
部品1
 48
50.0
100
AcDbCircle
 10
2970.16102200523
 20
4793.398597874948
 30
0.0
 40
0.7
100
AcDbArc
 50
183.2473427903087
 51
262.3418727926349
  0
ARC
  5
19BFA
330
747D
100
AcDbEntity
  8
部品1
 48
50.0
100
AcDbCircle
 10
2969.667952896669
 20
4789.731598713264
 30
0.0
 40
3.0
100
AcDbArc
 50
3.24734279033473
 51
82.3418727926348
  0
ARC
  5
19BFB
330
747D
100
AcDbEntity
  8
部品1
 48
50.0
100
AcDbCircle
 10
2961.431922371824
 20
4881.931598713267
 30
0.0
 40
3.0
100
AcDbArc
 50
3.24734279033473
 51
82.3418727926348
  0
LINE
  5
19BFC
330
747D
100
AcDbEntity
  8
部品1
100
AcDbLine
 10
2964.42710526801
 20
4882.101538168369
 30
0.0
 11
2969.462145996121
 21
4793.358945335425
 31
0.0
  0
LINE
  5
19BFD
330
747D
100
AcDbEntity
  8
部品1
100
AcDbLine
 10
2972.663135792858
 20
4789.901538168368
 30
0.0
 11
2973.308041599966
 21
4778.535073318027
 31
0.0
  0
LINE
  5
19BFE
330
747D
100
AcDbEntity
  8
部品1
100
AcDbLine
 10
2960.092718138932
 20
4905.535073318026
 30
0.0
 11
2961.226115471281
 21
4885.558945335426
 31
0.0
  0
LINE
  5
19BFF
330
747D
100
AcDbEntity
  8
部品1
100
AcDbLine
 10
6059.673057123635
 20
4677.931598713261
 30
0.0
 11
9109.673057123634
 21
4677.931598713261
 31
0.0
  0
DIMENSION
  5
19C00
330
747D
100
AcDbEntity
  8
寸法
 48
50.0
100
AcDbDimension
  2
*D37
 10
9109.673057123643
 20
5125.473183971505
 30
0.0
 11
9473.15833849788
 21
5125.473183971505
 31
0.0
 70
   160
 71
     5
 42
50.0
  3
INABA_S40G
100
AcDbAlignedDimension
 13
9159.673057123644
 23
4912.931598713264
 33
0.0
 14
9109.673057123643
 24
4912.931598713266
 34
0.0
100
AcDbRotatedDimension
  0
LINE
  5
19C01
330
747D
100
AcDbEntity
  8
部品1
 48
50.0
100
AcDbLine
 10
9152.264636017212
 20
4912.931598713264
 30
0.0
 11
6049.673057123635
 21
4912.931598713264
 31
0.0
  0
LINE
  5
19C02
330
747D
100
AcDbEntity
  8
部品1
 48
50.0
100
AcDbLine
 10
9139.049312556178
 20
4771.931598713265
 30
0.0
 11
6059.673057123635
 21
4771.931598713265
 31
0.0
  0
LINE
  5
19C03
330
747D
100
AcDbEntity
  8
細線
 48
50.0
100
AcDbLine
 10
9157.514406111728
 20
4884.904841276732
 30
0.0
 11
6049.673057123635
 21
4884.904841276739
 31
0.0
  0
LINE
  5
19C04
330
747D
100
AcDbEntity
  8
細線
 48
50.0
100
AcDbLine
 10
9149.278375586884
 20
4792.704841276732
 30
0.0
 11
6049.673057123635
 21
4792.704841277097
 31
0.0
  0
LINE
  5
19C05
330
747D
100
AcDbEntity
  8
部品1
100
AcDbLine
 10
9159.25339610831
 20
4905.535073318024
 30
0.0
 11
9158.119998775964
 21
4885.558945335425
 31
0.0
  0
LINE
  5
19C06
330
747D
100
AcDbEntity
  8
細線
 48
50.0
100
AcDbLine
 10
9126.673057123644
 20
4912.931598713264
 30
0.0
 11
9126.673057123644
 21
4771.931598713264
 31
0.0
  0
LINE
  5
19C07
330
747D
100
AcDbEntity
  8
部品1
100
AcDbLine
 10
9146.682978454387
 20
4789.901538168367
 30
0.0
 11
9146.038072647277
 21
4778.535073318026
 31
0.0
  0
LINE
  5
19C08
330
747D
100
AcDbEntity
  8
部品1
100
AcDbLine
 10
9154.919008979232
 20
4882.101538168367
 30
0.0
 11
9149.883968251121
 21
4793.358945335424
 31
0.0
  0
ARC
  5
19C09
330
747D
100
AcDbEntity
  8
部品1
 48
50.0
100
AcDbCircle
 10
9157.914191875418
 20
4881.931598713266
 30
0.0
 40
3.0
100
AcDbArc
 50
97.65812720736519
 51
176.7526572096653
  0
ARC
  5
19C0A
330
747D
100
AcDbEntity
  8
部品1
 48
50.0
100
AcDbCircle
 10
9149.678161350573
 20
4789.731598713263
 30
0.0
 40
3.0
100
AcDbArc
 50
97.65812720736519
 51
176.7526572096653
  0
ARC
  5
19C0B
330
747D
100
AcDbEntity
  8
部品1
 48
50.0
100
AcDbCircle
 10
9149.185092242012
 20
4793.398597874946
 30
0.0
 40
0.7
100
AcDbArc
 50
277.6581272073652
 51
356.7526572096913
  0
ARC
  5
19C0C
330
747D
100
AcDbEntity
  8
部品1
 48
50.0
100
AcDbCircle
 10
9157.421122766857
 20
4885.598597874952
 30
0.0
 40
0.7
100
AcDbArc
 50
277.6581272073652
 51
356.7526572096132
  0
ARC
  5
19C0D
330
747D
100
AcDbEntity
  8
部品1
100
AcDbCircle
 10
9139.049312556178
 20
4778.931598713266
 30
0.0
 40
7.0
100
AcDbArc
 50
270.0
 51
356.7526572096653
  0
ARC
  5
19C0E
330
747D
100
AcDbEntity
  8
部品1
100
AcDbCircle
 10
9152.264636017212
 20
4905.931598713264
 30
0.0
 40
7.0
100
AcDbArc
 50
356.7526572096653
 51
90.0
  0
DIMENSION
  5
19C0F
330
747D
100
AcDbEntity
  8
寸法
 48
50.0
100
AcDbDimension
  2
*D38
 10
9397.216159445354
 20
4485.93159871326
 30
0.0
 11
9297.216159445353
 21
3542.931598713263
 31
0.0
 70
    32
  1
有効開口部高サ <>
 71
     5
 42
1885.999999999999
  3
INABA_S40G
100
AcDbAlignedDimension
 13
9109.673057123609
 23
2599.931598713262
 33
0.0
 14
9109.673057123611
 24
4485.93159871326
 34
0.0
 50
90.0
100
AcDbRotatedDimension
  0
DIMENSION
  5
19C10
330
747D
100
AcDbEntity
  8
寸法
 48
50.0
100
AcDbDimension
  2
*D39
 10
9397.216159445354
 20
4512.931598713262
 30
0.0
 11
9537.385982691722
 21
4513.89879855292
 31
0.0
 70
   160
 71
     5
 42
27.00000000000182
  3
INABA_S40G
100
AcDbAlignedDimension
 13
9109.673057123611
 23
4485.93159871326
 33
0.0
 14
9109.673057123609
 24
4512.931598713262
 34
0.0
 50
90.0
100
AcDbRotatedDimension
1001
ACAD
1000
DSTYLE
1002
{
1070
   279
1070
     2
1002
}
  0
DIMENSION
  5
19C11
330
747D
100
AcDbEntity
  8
寸法
 48
50.0
100
AcDbDimension
  2
*D40
 10
9397.216159445358
 20
4677.931598713261
 30
0.0
 11
9397.216159445354
 21
4916.416880087502
 31
0.0
 70
   160
 71
     5
 42
164.9999999999991
  3
INABA_S40G
100
AcDbAlignedDimension
 13
9109.673057123609
 23
4512.931598713262
 33
0.0
 14
9109.673057123609
 24
4677.931598713261
 34
0.0
 50
90.0
100
AcDbRotatedDimension
1001
ACAD
1000
DSTYLE
1002
{
1002
}
  0
ARC
  5
19C12
330
747D
100
AcDbEntity
  8
部品1
 48
0.01
100
AcDbCircle
 10
4007.673057123612
 20
4741.93159871326
 30
0.0
 40
2.0
100
AcDbArc
 50
0.0
 51
90.0
  0
ARC
  5
19C13
330
747D
100
AcDbEntity
  8
部品1
 48
0.01
100
AcDbCircle
 10
3831.673057123613
 20
4741.93159871326
 30
0.0
 40
2.0
100
AcDbArc
 50
90.0
 51
180.0
  0
LINE
  5
19C14
330
747D
100
AcDbEntity
  8
細線
100
AcDbLine
 10
3919.673057123609
 20
4714.431598713259
 30
0.0
 11
3993.673057123613
 21
4714.431598713259
 31
0.0
  0
LINE
  5
19C15
330
747D
100
AcDbEntity
  8
細線
100
AcDbLine
 10
3919.673057123612
 20
4737.43159871326
 30
0.0
 11
3845.673057123613
 21
4737.43159871326
 31
0.0
  0
LINE
  5
19C16
330
747D
100
AcDbEntity
  8
細線
100
AcDbLine
 10
3845.673057123613
 20
4714.431598713259
 30
0.0
 11
3919.673057123612
 21
4714.431598713259
 31
0.0
  0
LINE
  5
19C17
330
747D
100
AcDbEntity
  8
細線
100
AcDbLine
 10
3993.673057123613
 20
4737.43159871326
 30
0.0
 11
3919.673057123612
 21
4737.43159871326
 31
0.0
  0
LINE
  5
19C18
330
747D
100
AcDbEntity
  8
細線
100
AcDbLine
 10
3993.673057123613
 20
4714.431598713259
 30
0.0
 11
3993.673057123613
 21
4737.43159871326
 31
0.0
  0
LINE
  5
19C19
330
747D
100
AcDbEntity
  8
細線
100
AcDbLine
 10
3845.673057123613
 20
4737.43159871326
 30
0.0
 11
3845.673057123613
 21
4714.431598713259
 31
0.0
  0
LINE
  5
19C1A
330
747D
100
AcDbEntity
  8
部品1
 48
0.01
100
AcDbLine
 10
4009.673057123609
 20
4710.431598713259
 30
0.0
 11
4009.673057123612
 21
4741.93159871326
 31
0.0
  0
LINE
  5
19C1B
330
747D
100
AcDbEntity
  8
部品1
 48
0.01
100
AcDbLine
 10
3829.673057123613
 20
4741.93159871326
 30
0.0
 11
3829.673057123613
 21
4710.431598713259
 31
0.0
  0
LINE
  5
19C1C
330
747D
100
AcDbEntity
  8
部品1
 48
0.01
100
AcDbLine
 10
4007.673057123612
 20
4743.931598713259
 30
0.0
 11
3831.673057123613
 21
4743.931598713259
 31
0.0
  0
LINE
  5
19C1D
330
747D
100
AcDbEntity
  8
細線
100
AcDbLine
 10
3845.673057123613
 20
4731.43159871326
 30
0.0
 11
3919.673057123612
 21
4731.43159871326
 31
0.0
  0
LINE
  5
19C1E
330
747D
100
AcDbEntity
  8
細線
100
AcDbLine
 10
3845.673057123613
 20
4725.431598713259
 30
0.0
 11
3919.673057123612
 21
4725.431598713259
 31
0.0
  0
LINE
  5
19C1F
330
747D
100
AcDbEntity
  8
細線
100
AcDbLine
 10
3845.67305712361
 20
4719.431598713259
 30
0.0
 11
3919.673057123612
 21
4719.431598713259
 31
0.0
  0
LINE
  5
19C20
330
747D
100
AcDbEntity
  8
細線
100
AcDbLine
 10
3845.673057123613
 20
4731.43159871326
 30
0.0
 11
3914.673057123613
 21
4731.43159871326
 31
0.0
  0
LINE
  5
19C21
330
747D
100
AcDbEntity
  8
細線
100
AcDbLine
 10
3993.673057123609
 20
4731.43159871326
 30
0.0
 11
3919.673057123612
 21
4731.43159871326
 31
0.0
  0
LINE
  5
19C22
330
747D
100
AcDbEntity
  8
細線
100
AcDbLine
 10
3993.673057123609
 20
4719.431598713259
 30
0.0
 11
3919.673057123612
 21
4719.431598713259
 31
0.0
  0
LINE
  5
19C23
330
747D
100
AcDbEntity
  8
細線
100
AcDbLine
 10
3993.673057123609
 20
4725.431598713259
 30
0.0
 11
3919.673057123612
 21
4725.431598713259
 31
0.0
  0
LINE
  5
19C24
330
747D
100
AcDbEntity
  8
細線
100
AcDbLine
 10
3919.673057123612
 20
4737.43159871326
 30
0.0
 11
3919.673057123609
 21
4714.431598713259
 31
0.0
  0
LINE
  5
19C25
330
747D
100
AcDbEntity
  8
細線
100
AcDbLine
 10
5149.673057123611
 20
4737.43159871326
 30
0.0
 11
5149.673057123611
 21
4714.431598713259
 31
0.0
  0
LINE
  5
19C26
330
747D
100
AcDbEntity
  8
細線
100
AcDbLine
 10
5075.673057123611
 20
4725.431598713259
 30
0.0
 11
5149.673057123611
 21
4725.431598713259
 31
0.0
  0
LINE
  5
19C27
330
747D
100
AcDbEntity
  8
細線
100
AcDbLine
 10
5075.673057123611
 20
4719.431598713259
 30
0.0
 11
5149.673057123611
 21
4719.431598713259
 31
0.0
  0
LINE
  5
19C28
330
747D
100
AcDbEntity
  8
細線
100
AcDbLine
 10
5075.673057123611
 20
4731.43159871326
 30
0.0
 11
5149.673057123611
 21
4731.43159871326
 31
0.0
  0
LINE
  5
19C29
330
747D
100
AcDbEntity
  8
細線
100
AcDbLine
 10
5223.673057123612
 20
4731.43159871326
 30
0.0
 11
5154.673057123611
 21
4731.43159871326
 31
0.0
  0
LINE
  5
19C2A
330
747D
100
AcDbEntity
  8
細線
100
AcDbLine
 10
5223.673057123612
 20
4719.431598713259
 30
0.0
 11
5149.673057123611
 21
4719.431598713259
 31
0.0
  0
LINE
  5
19C2B
330
747D
100
AcDbEntity
  8
細線
100
AcDbLine
 10
5223.673057123612
 20
4725.431598713259
 30
0.0
 11
5149.673057123611
 21
4725.431598713259
 31
0.0
  0
LINE
  5
19C2C
330
747D
100
AcDbEntity
  8
細線
100
AcDbLine
 10
5223.673057123612
 20
4731.43159871326
 30
0.0
 11
5149.673057123611
 21
4731.43159871326
 31
0.0
  0
LINE
  5
19C2D
330
747D
100
AcDbEntity
  8
部品1
 48
0.01
100
AcDbLine
 10
5061.673057123611
 20
4743.931598713259
 30
0.0
 11
5237.673057123611
 21
4743.931598713259
 31
0.0
  0
LINE
  5
19C2E
330
747D
100
AcDbEntity
  8
部品1
 48
0.01
100
AcDbLine
 10
5239.673057123611
 20
4741.93159871326
 30
0.0
 11
5239.673057123611
 21
4710.431598713259
 31
0.0
  0
LINE
  5
19C2F
330
747D
100
AcDbEntity
  8
部品1
 48
0.01
100
AcDbLine
 10
5059.673057123611
 20
4710.431598713259
 30
0.0
 11
5059.673057123611
 21
4741.93159871326
 31
0.0
  0
LINE
  5
19C30
330
747D
100
AcDbEntity
  8
細線
100
AcDbLine
 10
5223.673057123612
 20
4737.43159871326
 30
0.0
 11
5223.673057123612
 21
4714.431598713259
 31
0.0
  0
LINE
  5
19C31
330
747D
100
AcDbEntity
  8
細線
100
AcDbLine
 10
5075.673057123611
 20
4714.431598713259
 30
0.0
 11
5075.673057123611
 21
4737.43159871326
 31
0.0
  0
LINE
  5
19C32
330
747D
100
AcDbEntity
  8
細線
100
AcDbLine
 10
5075.673057123611
 20
4737.43159871326
 30
0.0
 11
5149.673057123611
 21
4737.43159871326
 31
0.0
  0
LINE
  5
19C33
330
747D
100
AcDbEntity
  8
細線
100
AcDbLine
 10
5223.673057123612
 20
4714.431598713259
 30
0.0
 11
5149.673057123611
 21
4714.431598713259
 31
0.0
  0
LINE
  5
19C34
330
747D
100
AcDbEntity
  8
細線
100
AcDbLine
 10
5149.673057123611
 20
4737.43159871326
 30
0.0
 11
5223.673057123612
 21
4737.43159871326
 31
0.0
  0
LINE
  5
19C35
330
747D
100
AcDbEntity
  8
細線
100
AcDbLine
 10
5149.673057123611
 20
4714.431598713259
 30
0.0
 11
5075.673057123611
 21
4714.431598713259
 31
0.0
  0
ARC
  5
19C36
330
747D
100
AcDbEntity
  8
部品1
 48
0.01
100
AcDbCircle
 10
5237.673057123611
 20
4741.93159871326
 30
0.0
 40
2.0
100
AcDbArc
 50
0.0
 51
90.0
  0
ARC
  5
19C37
330
747D
100
AcDbEntity
  8
部品1
 48
0.01
100
AcDbCircle
 10
5061.673057123611
 20
4741.93159871326
 30
0.0
 40
2.0
100
AcDbArc
 50
90.0
 51
180.0
  0
ARC
  5
19C38
330
747D
100
AcDbEntity
  8
部品1
 48
0.01
100
AcDbCircle
 10
4007.673057123609
 20
4710.431598713259
 30
0.0
 40
2.0
100
AcDbArc
 50
270.0
 51
0.0
  0
ARC
  5
19C39
330
747D
100
AcDbEntity
  8
部品1
 48
0.01
100
AcDbCircle
 10
3831.673057123613
 20
4710.431598713259
 30
0.0
 40
2.0
100
AcDbArc
 50
180.0
 51
270.0
  0
LINE
  5
19C3A
330
747D
100
AcDbEntity
  8
部品1
 48
0.01
100
AcDbLine
 10
3831.673057123613
 20
4708.43159871326
 30
0.0
 11
4007.673057123609
 21
4708.43159871326
 31
0.0
  0
LINE
  5
19C3B
330
747D
100
AcDbEntity
  8
部品1
 48
0.01
100
AcDbLine
 10
5237.673057123611
 20
4708.43159871326
 30
0.0
 11
5061.673057123611
 21
4708.43159871326
 31
0.0
  0
ARC
  5
19C3C
330
747D
100
AcDbEntity
  8
部品1
 48
0.01
100
AcDbCircle
 10
5237.673057123611
 20
4710.431598713259
 30
0.0
 40
2.0
100
AcDbArc
 50
270.0
 51
0.0
  0
ARC
  5
19C3D
330
747D
100
AcDbEntity
  8
部品1
 48
0.01
100
AcDbCircle
 10
5061.673057123611
 20
4710.431598713259
 30
0.0
 40
2.0
100
AcDbArc
 50
180.0
 51
270.0
  0
ARC
  5
19C3E
330
747D
100
AcDbEntity
  8
部品1
 48
0.01
100
AcDbCircle
 10
7057.673057123611
 20
4741.93159871326
 30
0.0
 40
2.0
100
AcDbArc
 50
0.0
 51
90.0
  0
ARC
  5
19C3F
330
747D
100
AcDbEntity
  8
部品1
 48
0.01
100
AcDbCircle
 10
6881.67305712361
 20
4741.93159871326
 30
0.0
 40
2.0
100
AcDbArc
 50
90.0
 51
180.0
  0
LINE
  5
19C40
330
747D
100
AcDbEntity
  8
細線
100
AcDbLine
 10
6969.673057123607
 20
4714.431598713259
 30
0.0
 11
7043.673057123611
 21
4714.431598713259
 31
0.0
  0
LINE
  5
19C41
330
747D
100
AcDbEntity
  8
細線
100
AcDbLine
 10
6969.673057123611
 20
4737.43159871326
 30
0.0
 11
6895.673057123611
 21
4737.43159871326
 31
0.0
  0
LINE
  5
19C42
330
747D
100
AcDbEntity
  8
細線
100
AcDbLine
 10
6895.673057123611
 20
4714.431598713259
 30
0.0
 11
6969.673057123611
 21
4714.431598713259
 31
0.0
  0
LINE
  5
19C43
330
747D
100
AcDbEntity
  8
細線
100
AcDbLine
 10
7043.673057123611
 20
4737.43159871326
 30
0.0
 11
6969.673057123611
 21
4737.43159871326
 31
0.0
  0
LINE
  5
19C44
330
747D
100
AcDbEntity
  8
細線
100
AcDbLine
 10
7043.673057123611
 20
4714.431598713259
 30
0.0
 11
7043.673057123611
 21
4737.43159871326
 31
0.0
  0
LINE
  5
19C45
330
747D
100
AcDbEntity
  8
細線
100
AcDbLine
 10
6895.673057123611
 20
4737.43159871326
 30
0.0
 11
6895.673057123611
 21
4714.431598713259
 31
0.0
  0
LINE
  5
19C46
330
747D
100
AcDbEntity
  8
部品1
 48
0.01
100
AcDbLine
 10
7059.673057123608
 20
4710.431598713259
 30
0.0
 11
7059.67305712361
 21
4741.93159871326
 31
0.0
  0
LINE
  5
19C47
330
747D
100
AcDbEntity
  8
部品1
 48
0.01
100
AcDbLine
 10
6879.673057123611
 20
4741.93159871326
 30
0.0
 11
6879.673057123611
 21
4710.431598713259
 31
0.0
  0
LINE
  5
19C48
330
747D
100
AcDbEntity
  8
部品1
 48
0.01
100
AcDbLine
 10
7057.673057123611
 20
4743.931598713259
 30
0.0
 11
6881.67305712361
 21
4743.931598713259
 31
0.0
  0
LINE
  5
19C49
330
747D
100
AcDbEntity
  8
細線
100
AcDbLine
 10
6895.673057123611
 20
4731.43159871326
 30
0.0
 11
6969.673057123611
 21
4731.43159871326
 31
0.0
  0
LINE
  5
19C4A
330
747D
100
AcDbEntity
  8
細線
100
AcDbLine
 10
6895.673057123611
 20
4725.431598713259
 30
0.0
 11
6969.673057123611
 21
4725.431598713259
 31
0.0
  0
LINE
  5
19C4B
330
747D
100
AcDbEntity
  8
細線
100
AcDbLine
 10
6895.673057123608
 20
4719.431598713259
 30
0.0
 11
6969.673057123611
 21
4719.431598713259
 31
0.0
  0
LINE
  5
19C4C
330
747D
100
AcDbEntity
  8
細線
100
AcDbLine
 10
6895.673057123611
 20
4731.43159871326
 30
0.0
 11
6964.673057123611
 21
4731.43159871326
 31
0.0
  0
LINE
  5
19C4D
330
747D
100
AcDbEntity
  8
細線
100
AcDbLine
 10
7043.673057123609
 20
4731.43159871326
 30
0.0
 11
6969.673057123611
 21
4731.43159871326
 31
0.0
  0
LINE
  5
19C4E
330
747D
100
AcDbEntity
  8
細線
100
AcDbLine
 10
7043.673057123609
 20
4719.431598713259
 30
0.0
 11
6969.673057123611
 21
4719.431598713259
 31
0.0
  0
LINE
  5
19C4F
330
747D
100
AcDbEntity
  8
細線
100
AcDbLine
 10
7043.673057123609
 20
4725.431598713259
 30
0.0
 11
6969.673057123611
 21
4725.431598713259
 31
0.0
  0
LINE
  5
19C50
330
747D
100
AcDbEntity
  8
細線
100
AcDbLine
 10
6969.673057123611
 20
4737.43159871326
 30
0.0
 11
6969.673057123607
 21
4714.431598713259
 31
0.0
  0
LINE
  5
19C51
330
747D
100
AcDbEntity
  8
細線
100
AcDbLine
 10
8199.673057123611
 20
4737.43159871326
 30
0.0
 11
8199.673057123611
 21
4714.431598713259
 31
0.0
  0
LINE
  5
19C52
330
747D
100
AcDbEntity
  8
細線
100
AcDbLine
 10
8125.673057123611
 20
4725.431598713259
 30
0.0
 11
8199.673057123611
 21
4725.431598713259
 31
0.0
  0
LINE
  5
19C53
330
747D
100
AcDbEntity
  8
細線
100
AcDbLine
 10
8125.673057123611
 20
4719.431598713259
 30
0.0
 11
8199.673057123611
 21
4719.431598713259
 31
0.0
  0
LINE
  5
19C54
330
747D
100
AcDbEntity
  8
細線
100
AcDbLine
 10
8125.673057123611
 20
4731.43159871326
 30
0.0
 11
8199.673057123611
 21
4731.43159871326
 31
0.0
  0
LINE
  5
19C55
330
747D
100
AcDbEntity
  8
細線
100
AcDbLine
 10
8273.673057123611
 20
4731.43159871326
 30
0.0
 11
8204.673057123612
 21
4731.43159871326
 31
0.0
  0
LINE
  5
19C56
330
747D
100
AcDbEntity
  8
細線
100
AcDbLine
 10
8273.673057123611
 20
4719.431598713259
 30
0.0
 11
8199.673057123611
 21
4719.431598713259
 31
0.0
  0
LINE
  5
19C57
330
747D
100
AcDbEntity
  8
細線
100
AcDbLine
 10
8273.673057123611
 20
4725.431598713259
 30
0.0
 11
8199.673057123611
 21
4725.431598713259
 31
0.0
  0
LINE
  5
19C58
330
747D
100
AcDbEntity
  8
細線
100
AcDbLine
 10
8273.673057123611
 20
4731.43159871326
 30
0.0
 11
8199.673057123611
 21
4731.43159871326
 31
0.0
  0
LINE
  5
19C59
330
747D
100
AcDbEntity
  8
部品1
 48
0.01
100
AcDbLine
 10
8111.673057123612
 20
4743.931598713259
 30
0.0
 11
8287.67305712361
 21
4743.931598713259
 31
0.0
  0
LINE
  5
19C5A
330
747D
100
AcDbEntity
  8
部品1
 48
0.01
100
AcDbLine
 10
8289.673057123613
 20
4741.93159871326
 30
0.0
 11
8289.673057123613
 21
4710.431598713259
 31
0.0
  0
LINE
  5
19C5B
330
747D
100
AcDbEntity
  8
部品1
 48
0.01
100
AcDbLine
 10
8109.673057123611
 20
4710.431598713259
 30
0.0
 11
8109.673057123611
 21
4741.93159871326
 31
0.0
  0
LINE
  5
19C5C
330
747D
100
AcDbEntity
  8
細線
100
AcDbLine
 10
8273.673057123611
 20
4737.43159871326
 30
0.0
 11
8273.673057123611
 21
4714.431598713259
 31
0.0
  0
LINE
  5
19C5D
330
747D
100
AcDbEntity
  8
細線
100
AcDbLine
 10
8125.673057123611
 20
4714.431598713259
 30
0.0
 11
8125.673057123611
 21
4737.43159871326
 31
0.0
  0
LINE
  5
19C5E
330
747D
100
AcDbEntity
  8
細線
100
AcDbLine
 10
8125.673057123611
 20
4737.43159871326
 30
0.0
 11
8199.673057123611
 21
4737.43159871326
 31
0.0
  0
LINE
  5
19C5F
330
747D
100
AcDbEntity
  8
細線
100
AcDbLine
 10
8273.673057123611
 20
4714.431598713259
 30
0.0
 11
8199.673057123611
 21
4714.431598713259
 31
0.0
  0
LINE
  5
19C60
330
747D
100
AcDbEntity
  8
細線
100
AcDbLine
 10
8199.673057123611
 20
4737.43159871326
 30
0.0
 11
8273.673057123611
 21
4737.43159871326
 31
0.0
  0
LINE
  5
19C61
330
747D
100
AcDbEntity
  8
細線
100
AcDbLine
 10
8199.673057123611
 20
4714.431598713259
 30
0.0
 11
8125.673057123611
 21
4714.431598713259
 31
0.0
  0
ARC
  5
19C62
330
747D
100
AcDbEntity
  8
部品1
 48
0.01
100
AcDbCircle
 10
8287.67305712361
 20
4741.93159871326
 30
0.0
 40
2.0
100
AcDbArc
 50
0.0
 51
90.0
  0
ARC
  5
19C63
330
747D
100
AcDbEntity
  8
部品1
 48
0.01
100
AcDbCircle
 10
8111.673057123612
 20
4741.93159871326
 30
0.0
 40
2.0
100
AcDbArc
 50
90.0
 51
180.0
  0
ARC
  5
19C64
330
747D
100
AcDbEntity
  8
部品1
 48
0.01
100
AcDbCircle
 10
7057.673057123608
 20
4710.431598713259
 30
0.0
 40
2.0
100
AcDbArc
 50
270.0
 51
0.0
  0
ARC
  5
19C65
330
747D
100
AcDbEntity
  8
部品1
 48
0.01
100
AcDbCircle
 10
6881.67305712361
 20
4710.431598713259
 30
0.0
 40
2.0
100
AcDbArc
 50
180.0
 51
270.0
  0
LINE
  5
19C66
330
747D
100
AcDbEntity
  8
部品1
 48
0.01
100
AcDbLine
 10
6881.67305712361
 20
4708.43159871326
 30
0.0
 11
7057.673057123608
 21
4708.43159871326
 31
0.0
  0
LINE
  5
19C67
330
747D
100
AcDbEntity
  8
部品1
 48
0.01
100
AcDbLine
 10
8287.67305712361
 20
4708.43159871326
 30
0.0
 11
8111.673057123612
 21
4708.43159871326
 31
0.0
  0
ARC
  5
19C68
330
747D
100
AcDbEntity
  8
部品1
 48
0.01
100
AcDbCircle
 10
8287.67305712361
 20
4710.431598713259
 30
0.0
 40
2.0
100
AcDbArc
 50
270.0
 51
0.0
  0
ARC
  5
19C69
330
747D
100
AcDbEntity
  8
部品1
 48
0.01
100
AcDbCircle
 10
8111.673057123612
 20
4710.431598713259
 30
0.0
 40
2.0
100
AcDbArc
 50
180.0
 51
270.0
  0
ENDSEC
  0
SECTION
  2
OBJECTS
  0
DICTIONARY
  5
7471
330
0
100
AcDbDictionary
281
     1
  3
ACAD_COLOR
350
1807A
  3
ACAD_GROUP
350
7472
  3
ACAD_LAYOUT
350
1807B
  3
ACAD_MATERIAL
350
18079
  3
ACAD_MLINESTYLE
350
7473
  3
ACAD_PLOTSETTINGS
350
1807C
  3
ACAD_PLOTSTYLENAME
350
18077
  3
ACDBHEADERROUNDTRIPXREC
350
19DD2
  3
AcDbVariableDictionary
350
19DCE
  3
CONTENTDICTIONARY
350
E71C
  3
DRAWINGVARIABLESDICT
350
F3B9
  0
DICTIONARY
  5
1836C
330
7467
100
AcDbDictionary
280
     1
281
     1
  3
ACAD_LAYERSTATES
360
1836D
  0
DICTIONARY
  5
1807A
102
{ACAD_REACTORS
330
7471
102
}
330
7471
100
AcDbDictionary
281
     1
  0
DICTIONARY
  5
7472
102
{ACAD_REACTORS
330
7471
102
}
330
7471
100
AcDbDictionary
281
     1
  0
DICTIONARY
  5
1807B
102
{ACAD_REACTORS
330
7471
102
}
330
7471
100
AcDbDictionary
281
     1
  3
Model
350
1807D
  3
レイアウト1
350
1807E
  0
DICTIONARY
  5
18079
102
{ACAD_REACTORS
330
7471
102
}
330
7471
100
AcDbDictionary
281
     1
  0
DICTIONARY
  5
7473
102
{ACAD_REACTORS
330
7471
102
}
330
7471
100
AcDbDictionary
281
     1
  3
STANDARD
350
7480
  0
DICTIONARY
  5
1807C
102
{ACAD_REACTORS
330
7471
102
}
330
7471
100
AcDbDictionary
281
     1
  0
ACDBDICTIONARYWDFLT
  5
18077
102
{ACAD_REACTORS
330
7471
102
}
330
7471
100
AcDbDictionary
281
     1
  3
Normal
350
18078
100
AcDbDictionaryWithDefault
340
18078
  0
DICTIONARY
  5
19DD2
102
{ACAD_REACTORS
330
7471
102
}
330
7471
100
AcDbDictionary
281
     1
  3
COLORDICT
350
19DD4
  3
MATERIALDICT
350
19DD3
  0
DICTIONARY
  5
19DCE
102
{ACAD_REACTORS
330
7471
102
}
330
7471
100
AcDbDictionary
281
     1
  3
DIMASSOC
350
19DCF
  3
PROJECTNAME
350
19DD0
  0
DICTIONARY
  5
E71C
102
{ACAD_REACTORS
330
7471
102
}
330
7471
100
AcDbDictionary
281
     1
  0
DICTIONARY
  5
F3B9
102
{ACAD_REACTORS
330
7471
102
}
330
7471
100
AcDbDictionary
281
     1
1001
DRAWINGVARIABLESXDATA
1000
POLARMODE
1000
1
  0
DICTIONARY
  5
1836D
102
{ACAD_REACTORS
330
1836C
102
}
330
1836C
100
AcDbDictionary
281
     1
  0
LAYOUT
  5
1807D
102
{ACAD_XDICTIONARY
360
19DD5
102
}
102
{ACAD_REACTORS
330
1807B
102
}
330
1807B
100
AcDbPlotSettings
  1

  2
none_device
  4
Letter_(8.50_x_11.00_Inches)
  6

 40
6.349999904632568
 41
6.349999904632568
 42
6.350006103515625
 43
6.350006103515625
 44
215.8999938964844
 45
279.3999938964844
 46
0.0
 47
0.0
 48
0.0
 49
0.0
140
0.0
141
0.0
142
1.0
143
1.0
 70
 11952
 72
     1
 73
     1
 74
     0
  7
inaba.ctb
 75
     0
147
1.0
148
-2464.779774247707
149
54.18477585042729
100
AcDbLayout
  1
Model
 70
     1
 71
     0
 10
0.0
 20
0.0
 11
12.0
 21
9.0
 12
0.0
 22
0.0
 32
0.0
 14
0.0
 24
0.0
 34
0.0
 15
0.0
 25
0.0
 35
0.0
146
0.0
 13
0.0
 23
0.0
 33
0.0
 16
1.0
 26
0.0
 36
0.0
 17
0.0
 27
1.0
 37
0.0
 76
     0
330
747D
  0
LAYOUT
  5
1807E
102
{ACAD_XDICTIONARY
360
19DD7
102
}
102
{ACAD_REACTORS
330
1807B
102
}
330
1807B
100
AcDbPlotSettings
  1

  2
EPSON LP-8300
  4

  6

 40
0.0
 41
0.0
 42
0.0
 43
0.0
 44
0.0
 45
0.0
 46
0.0
 47
0.0
 48
0.0
 49
0.0
140
0.0
141
0.0
142
1.0
143
1.0
 70
   688
 72
     0
 73
     0
 74
     5
  7
inaba.ctb
 75
    16
147
1.0
148
0.0
149
0.0
100
AcDbLayout
  1
レイアウト1
 70
     0
 71
     1
 10
0.0
 20
0.0
 11
420.0
 21
297.0
 12
0.0
 22
0.0
 32
0.0
 14
1.000000000000000E+20
 24
1.000000000000000E+20
 34
1.000000000000000E+20
 15
-1.000000000000000E+20
 25
-1.000000000000000E+20
 35
-1.000000000000000E+20
146
0.0
 13
0.0
 23
0.0
 33
0.0
 16
1.0
 26
0.0
 36
0.0
 17
0.0
 27
1.0
 37
0.0
 76
     0
330
747A
  0
MLINESTYLE
  5
7480
102
{ACAD_REACTORS
330
7473
102
}
330
7473
100
AcDbMlineStyle
  2
STANDARD
 70
     0
  3

 62
     0
 51
90.0
 52
90.0
 71
     2
 49
0.5
 62
   256
  6
BYLAYER
 49
-0.5
 62
   256
  6
BYLAYER
  0
ACDBPLACEHOLDER
  5
18078
102
{ACAD_REACTORS
330
18077
102
}
330
18077
  0
XRECORD
  5
19DD4
102
{ACAD_REACTORS
330
19DD2
102
}
330
19DD2
100
AcDbXrecord
280
     1
340
1807A
  0
XRECORD
  5
19DD3
102
{ACAD_REACTORS
330
19DD2
102
}
330
19DD2
100
AcDbXrecord
280
     1
340
18079
  0
DICTIONARYVAR
  5
19DCF
102
{ACAD_REACTORS
330
19DCE
102
}
330
19DCE
100
DictionaryVariables
280
     0
  1
1
  0
DICTIONARYVAR
  5
19DD0
102
{ACAD_REACTORS
330
19DCE
102
}
330
19DCE
100
DictionaryVariables
280
     0
  1

  0
DICTIONARY
  5
19DD5
330
1807D
100
AcDbDictionary
280
     1
281
     1
  3
ACAD_XREC_ROUNDTRIP
360
19DD6
  0
DICTIONARY
  5
19DD7
330
1807E
100
AcDbDictionary
280
     1
281
     1
  3
ACAD_XREC_ROUNDTRIP
360
19DD8
  0
XRECORD
  5
19DD6
102
{ACAD_REACTORS
330
19DD5
102
}
330
19DD5
100
AcDbXrecord
280
     1
102
SHADEPLOT
 70
     0
102
SHADEPLOTRESLEVEL
 70
     2
102
SHADEPLOTCUSTOMDPI
 70
   300
  0
XRECORD
  5
19DD8
102
{ACAD_REACTORS
330
19DD7
102
}
330
19DD7
100
AcDbXrecord
280
     1
102
SHADEPLOT
 70
     0
102
SHADEPLOTRESLEVEL
 70
     2
102
SHADEPLOTCUSTOMDPI
 70
   300
  0
ENDSEC
  0
EOF
