  0
SECTION
  2
HEADER
  9
$ACADVER
  1
AC1015
  9
$ACADMAINTVER
 70
    20
  9
$DWGCODEPAGE
  3
ANSI_932
  9
$INSBASE
 10
0.0
 20
0.0
 30
0.0
  9
$EXTMIN
 10
139.9999999999995
 20
-0.0000000000000909
 30
0.0
  9
$EXTMAX
 10
16307.2
 20
11409.6
 30
0.0
  9
$LIMMIN
 10
0.0
 20
0.0
  9
$LIMMAX
 10
16800.0
 20
11880.0
  9
$ORTHOMODE
 70
     0
  9
$REGENMODE
 70
     1
  9
$FILLMODE
 70
     1
  9
$QTEXTMODE
 70
     0
  9
$MIRRTEXT
 70
     1
  9
$LTSCALE
 40
20.0
  9
$ATTMODE
 70
     1
  9
$TEXTSIZE
 40
100.0
  9
$TRACEWID
 40
1.0
  9
$TEXTSTYLE
  7
STYLE2
  9
$CLAYER
  8
部品1
  9
$CELTYPE
  6
BYLAYER
  9
$CECOLOR
 62
   256
  9
$CELTSCALE
 40
50.0
  9
$DISPSILH
 70
     0
  9
$DIMSCALE
 40
40.0
  9
$DIMASZ
 40
2.5
  9
$DIMEXO
 40
0.5
  9
$DIMDLI
 40
7.0
  9
$DIMRND
 40
0.0
  9
$DIMDLE
 40
0.0
  9
$DIMEXE
 40
1.5
  9
$DIMTP
 40
0.0
  9
$DIMTM
 40
0.0
  9
$DIMTXT
 40
3.0
  9
$DIMCEN
 40
0.0
  9
$DIMTSZ
 40
0.0
  9
$DIMTOL
 70
     0
  9
$DIMLIM
 70
     0
  9
$DIMTIH
 70
     0
  9
$DIMTOH
 70
     0
  9
$DIMSE1
 70
     0
  9
$DIMSE2
 70
     0
  9
$DIMTAD
 70
     3
  9
$DIMZIN
 70
     8
  9
$DIMBLK
  1

  9
$DIMASO
 70
     1
  9
$DIMSHO
 70
     1
  9
$DIMPOST
  1

  9
$DIMAPOST
  1

  9
$DIMALT
 70
     0
  9
$DIMALTD
 70
     2
  9
$DIMALTF
 40
0.0394
  9
$DIMLFAC
 40
1.0
  9
$DIMTOFL
 70
     1
  9
$DIMTVP
 40
0.0
  9
$DIMTIX
 70
     1
  9
$DIMSOXD
 70
     0
  9
$DIMSAH
 70
     1
  9
$DIMBLK1
  1
DOTSMALL
  9
$DIMBLK2
  1
DOTSMALL
  9
$DIMSTYLE
  2
INABA_S40G
  9
$DIMCLRD
 70
     0
  9
$DIMCLRE
 70
     0
  9
$DIMCLRT
 70
     7
  9
$DIMTFAC
 40
1.0
  9
$DIMGAP
 40
1.0
  9
$DIMJUST
 70
     0
  9
$DIMSD1
 70
     0
  9
$DIMSD2
 70
     0
  9
$DIMTOLJ
 70
     1
  9
$DIMTZIN
 70
     0
  9
$DIMALTZ
 70
     0
  9
$DIMALTTZ
 70
     0
  9
$DIMUPT
 70
     0
  9
$DIMDEC
 70
     1
  9
$DIMTDEC
 70
     4
  9
$DIMALTU
 70
     2
  9
$DIMALTTD
 70
     2
  9
$DIMTXSTY
  7
STYLE1
  9
$DIMAUNIT
 70
     0
  9
$DIMADEC
 70
     0
  9
$DIMALTRND
 40
0.0
  9
$DIMAZIN
 70
     0
  9
$DIMDSEP
 70
    46
  9
$DIMATFIT
 70
     3
  9
$DIMFRAC
 70
     0
  9
$DIMLDRBLK
  1

  9
$DIMLUNIT
 70
     2
  9
$DIMLWD
 70
    -2
  9
$DIMLWE
 70
    -2
  9
$DIMTMOVE
 70
     0
  9
$LUNITS
 70
     2
  9
$LUPREC
 70
     1
  9
$SKETCHINC
 40
1.0
  9
$FILLETRAD
 40
3.0
  9
$AUNITS
 70
     0
  9
$AUPREC
 70
     0
  9
$MENU
  1
acad
  9
$ELEVATION
 40
0.0
  9
$PELEVATION
 40
0.0
  9
$THICKNESS
 40
0.0
  9
$LIMCHECK
 70
     0
  9
$CHAMFERA
 40
0.0
  9
$CHAMFERB
 40
0.0
  9
$CHAMFERC
 40
0.0
  9
$CHAMFERD
 40
0.0
  9
$SKPOLY
 70
     0
  9
$TDCREATE
 40
2451368.612993866
  9
$TDUCREATE
 40
2451368.237993866
  9
$TDUPDATE
 40
2455569.624214410
  9
$TDUUPDATE
 40
2455569.249214410
  9
$TDINDWG
 40
0.6741749884
  9
$TDUSRTIMER
 40
0.6741749884
  9
$USRTIMER
 70
     1
  9
$ANGBASE
 50
0.0
  9
$ANGDIR
 70
     0
  9
$PDMODE
 70
     3
  9
$PDSIZE
 40
2.0
  9
$PLINEWID
 40
0.0
  9
$SPLFRAME
 70
     0
  9
$SPLINETYPE
 70
     6
  9
$SPLINESEGS
 70
     8
  9
$HANDSEED
  5
17E05
  9
$SURFTAB1
 70
     6
  9
$SURFTAB2
 70
     6
  9
$SURFTYPE
 70
     6
  9
$SURFU
 70
     6
  9
$SURFV
 70
     6
  9
$UCSBASE
  2

  9
$UCSNAME
  2

  9
$UCSORG
 10
0.0
 20
0.0
 30
0.0
  9
$UCSXDIR
 10
1.0
 20
0.0
 30
0.0
  9
$UCSYDIR
 10
0.0
 20
1.0
 30
0.0
  9
$UCSORTHOREF
  2

  9
$UCSORTHOVIEW
 70
     0
  9
$UCSORGTOP
 10
0.0
 20
0.0
 30
0.0
  9
$UCSORGBOTTOM
 10
0.0
 20
0.0
 30
0.0
  9
$UCSORGLEFT
 10
0.0
 20
0.0
 30
0.0
  9
$UCSORGRIGHT
 10
0.0
 20
0.0
 30
0.0
  9
$UCSORGFRONT
 10
0.0
 20
0.0
 30
0.0
  9
$UCSORGBACK
 10
0.0
 20
0.0
 30
0.0
  9
$PUCSBASE
  2

  9
$PUCSNAME
  2

  9
$PUCSORG
 10
0.0
 20
0.0
 30
0.0
  9
$PUCSXDIR
 10
1.0
 20
0.0
 30
0.0
  9
$PUCSYDIR
 10
0.0
 20
1.0
 30
0.0
  9
$PUCSORTHOREF
  2

  9
$PUCSORTHOVIEW
 70
     0
  9
$PUCSORGTOP
 10
0.0
 20
0.0
 30
0.0
  9
$PUCSORGBOTTOM
 10
0.0
 20
0.0
 30
0.0
  9
$PUCSORGLEFT
 10
0.0
 20
0.0
 30
0.0
  9
$PUCSORGRIGHT
 10
0.0
 20
0.0
 30
0.0
  9
$PUCSORGFRONT
 10
0.0
 20
0.0
 30
0.0
  9
$PUCSORGBACK
 10
0.0
 20
0.0
 30
0.0
  9
$USERI1
 70
     0
  9
$USERI2
 70
     0
  9
$USERI3
 70
     0
  9
$USERI4
 70
     0
  9
$USERI5
 70
     0
  9
$USERR1
 40
0.0
  9
$USERR2
 40
0.0
  9
$USERR3
 40
0.0
  9
$USERR4
 40
0.0
  9
$USERR5
 40
0.0
  9
$WORLDVIEW
 70
     1
  9
$SHADEDGE
 70
     3
  9
$SHADEDIF
 70
    70
  9
$TILEMODE
 70
     1
  9
$MAXACTVP
 70
    16
  9
$PINSBASE
 10
0.0
 20
0.0
 30
0.0
  9
$PLIMCHECK
 70
     0
  9
$PEXTMIN
 10
1.000000000000000E+20
 20
1.000000000000000E+20
 30
1.000000000000000E+20
  9
$PEXTMAX
 10
-1.000000000000000E+20
 20
-1.000000000000000E+20
 30
-1.000000000000000E+20
  9
$PLIMMIN
 10
0.0
 20
0.0
  9
$PLIMMAX
 10
420.0
 20
297.0
  9
$UNITMODE
 70
     0
  9
$VISRETAIN
 70
     0
  9
$PLINEGEN
 70
     0
  9
$PSLTSCALE
 70
     0
  9
$TREEDEPTH
 70
  3020
  9
$CMLSTYLE
  2
STANDARD
  9
$CMLJUST
 70
     0
  9
$CMLSCALE
 40
1.0
  9
$PROXYGRAPHICS
 70
     1
  9
$MEASUREMENT
 70
     1
  9
$CELWEIGHT
370
    -1
  9
$ENDCAPS
280
     0
  9
$JOINSTYLE
280
     0
  9
$LWDISPLAY
290
     0
  9
$INSUNITS
 70
     0
  9
$HYPERLINKBASE
  1

  9
$STYLESHEET
  1

  9
$XEDIT
290
     1
  9
$CEPSNTYPE
380
     0
  9
$PSTYLEMODE
290
     1
  9
$FINGERPRINTGUID
  2
{F25B3735-4DDA-4351-9795-48678C798F0D}
  9
$VERSIONGUID
  2
{A007FE97-0E8B-4F72-8ED6-C5FED240B99E}
  9
$EXTNAMES
290
     1
  9
$PSVPSCALE
 40
0.0
  9
$OLESTARTUP
290
     0
  0
ENDSEC
  0
SECTION
  2
CLASSES
  0
CLASS
  1
ACDBDICTIONARYWDFLT
  2
AcDbDictionaryWithDefault
  3
ObjectDBX Classes
 90
        0
280
     0
281
     0
  0
CLASS
  1
DICTIONARYVAR
  2
AcDbDictionaryVar
  3
ObjectDBX Classes
 90
        0
280
     0
281
     0
  0
CLASS
  1
ACDBPLACEHOLDER
  2
AcDbPlaceHolder
  3
ObjectDBX Classes
 90
        0
280
     0
281
     0
  0
CLASS
  1
LAYOUT
  2
AcDbLayout
  3
ObjectDBX Classes
 90
        0
280
     0
281
     0
  0
ENDSEC
  0
SECTION
  2
TABLES
  0
TABLE
  2
VPORT
  5
746D
330
0
100
AcDbSymbolTable
 70
     2
  0
VPORT
  5
17DFD
330
746D
100
AcDbSymbolTableRecord
100
AcDbViewportTableRecord
  2
*Active
 70
     0
 10
0.0
 20
0.0
 11
1.0
 21
1.0
 12
8223.761025238502
 22
5958.555206651703
 13
0.0
 23
0.0
 14
10.0
 24
10.0
 15
10.0
 25
10.0
 16
0.0
 26
0.0
 36
1.0
 17
0.0
 27
0.0
 37
0.0
 40
12026.20795302914
 41
1.627450980392156
 42
50.0
 43
0.0
 44
0.0
 50
0.0
 51
0.0
 71
     0
 72
     0
 73
     1
 74
     0
 75
     0
 76
     0
 77
     0
 78
     0
281
     0
 65
     1
110
0.0
120
0.0
130
0.0
111
1.0
121
0.0
131
0.0
112
0.0
122
1.0
132
0.0
 79
     0
146
0.0
  0
ENDTAB
  0
TABLE
  2
LTYPE
  5
746A
330
0
100
AcDbSymbolTable
 70
     3
  0
LTYPE
  5
7477
330
746A
100
AcDbSymbolTableRecord
100
AcDbLinetypeTableRecord
  2
BYBLOCK
 70
     0
  3

 72
    65
 73
     0
 40
0.0
  0
LTYPE
  5
7478
330
746A
100
AcDbSymbolTableRecord
100
AcDbLinetypeTableRecord
  2
BYLAYER
 70
     0
  3

 72
    65
 73
     0
 40
0.0
  0
LTYPE
  5
7479
330
746A
100
AcDbSymbolTableRecord
100
AcDbLinetypeTableRecord
  2
CONTINUOUS
 70
     0
  3
Solid line
 72
    65
 73
     0
 40
0.0
  0
LTYPE
  5
781A
330
746A
100
AcDbSymbolTableRecord
100
AcDbLinetypeTableRecord
  2
HIDDEN
 70
     0
  3
__ __ __ __ __ __ __ __ __ __ __ __ __ __ __ __
 72
    65
 73
     2
 40
0.375
 49
0.25
 74
     0
 49
-0.125
 74
     0
  0
LTYPE
  5
781B
330
746A
100
AcDbSymbolTableRecord
100
AcDbLinetypeTableRecord
  2
PHANTOM
 70
     0
  3
______  __  __  ______  __  __  ______  __  __ 
 72
    65
 73
     6
 40
2.5
 49
1.25
 74
     0
 49
-0.25
 74
     0
 49
0.25
 74
     0
 49
-0.25
 74
     0
 49
0.25
 74
     0
 49
-0.25
 74
     0
  0
ENDTAB
  0
TABLE
  2
LAYER
  5
7467
102
{ACAD_XDICTIONARY
360
16A1E
102
}
330
0
100
AcDbSymbolTable
 70
    10
  0
LAYER
  5
7474
330
7467
100
AcDbSymbolTableRecord
100
AcDbLayerTableRecord
  2
0
 70
     0
 62
     7
  6
CONTINUOUS
370
    -3
390
167AA
  0
LAYER
  5
DEB3
330
7467
100
AcDbSymbolTableRecord
100
AcDbLayerTableRecord
  2
寸法
 70
     0
 62
     4
  6
CONTINUOUS
370
    -3
390
167AA
  0
LAYER
  5
DEB4
330
7467
100
AcDbSymbolTableRecord
100
AcDbLayerTableRecord
  2
部品1
 70
     0
 62
     7
  6
CONTINUOUS
370
    -3
390
167AA
  0
LAYER
  5
DEB5
330
7467
100
AcDbSymbolTableRecord
100
AcDbLayerTableRecord
  2
補助
 70
     0
 62
    -1
  6
CONTINUOUS
370
    -3
390
167AA
  0
LAYER
  5
DEB6
330
7467
100
AcDbSymbolTableRecord
100
AcDbLayerTableRecord
  2
文字
 70
     0
 62
     7
  6
CONTINUOUS
370
    -3
390
167AA
  0
LAYER
  5
F255
330
7467
100
AcDbSymbolTableRecord
100
AcDbLayerTableRecord
  2
DEFPOINTS
 70
     0
 62
     7
  6
CONTINUOUS
290
     0
370
    -3
390
167AA
  0
LAYER
  5
10B54
330
7467
100
AcDbSymbolTableRecord
100
AcDbLayerTableRecord
  2
仕様書枠
 70
     0
 62
   230
  6
CONTINUOUS
370
    -3
390
167AA
  0
LAYER
  5
11729
330
7467
100
AcDbSymbolTableRecord
100
AcDbLayerTableRecord
  2
Ｇ．Ｌ
 70
     0
 62
    30
  6
CONTINUOUS
370
    -3
390
167AA
  0
LAYER
  5
1173F
330
7467
100
AcDbSymbolTableRecord
100
AcDbLayerTableRecord
  2
細線
 70
     0
 62
     5
  6
CONTINUOUS
370
    -3
390
167AA
  0
LAYER
  5
142E2
330
7467
100
AcDbSymbolTableRecord
100
AcDbLayerTableRecord
  2
破線
 70
     0
 62
     2
  6
HIDDEN
370
    -3
390
167AA
  0
ENDTAB
  0
TABLE
  2
STYLE
  5
7468
330
0
100
AcDbSymbolTable
 70
     4
  0
STYLE
  5
7475
330
7468
100
AcDbSymbolTableRecord
100
AcDbTextStyleTableRecord
  2
STANDARD
 70
     0
 40
0.0
 41
1.0
 50
0.0
 71
     0
 42
4.0
  3
txt
  4
C:\AutoCAD LT\bigfont.shx
  0
STYLE
  5
763C
330
7468
100
AcDbSymbolTableRecord
100
AcDbTextStyleTableRecord
  2
MSMINCHO
 70
     0
 40
0.0
 41
1.0
 50
0.0
 71
     0
 42
1.199999999999999
  3
C:\AutoCAD LT\msminch2.TTF
  4

  0
STYLE
  5
F706
330
7468
100
AcDbSymbolTableRecord
100
AcDbTextStyleTableRecord
  2
STYLE1
 70
     0
 40
0.0
 41
1.0
 50
0.0
 71
     0
 42
4.0
  3
isocp.shx
  4
bigfont.shx
  0
STYLE
  5
103BF
330
7468
100
AcDbSymbolTableRecord
100
AcDbTextStyleTableRecord
  2
STYLE2
 70
     0
 40
0.0
 41
1.0
 50
0.0
 71
     0
 42
100.0
  3
MS PGothic.ttf
  4

1001
ACAD
1000
MS PGothic
1071
    32818
  0
ENDTAB
  0
TABLE
  2
VIEW
  5
746B
330
0
100
AcDbSymbolTable
 70
     0
  0
ENDTAB
  0
TABLE
  2
UCS
  5
746C
330
0
100
AcDbSymbolTable
 70
     0
  0
ENDTAB
  0
TABLE
  2
APPID
  5
746E
330
0
100
AcDbSymbolTable
 70
     6
  0
APPID
  5
7476
330
746E
100
AcDbSymbolTableRecord
100
AcDbRegAppTableRecord
  2
ACAD
 70
     0
  0
APPID
  5
DEA9
330
746E
100
AcDbSymbolTableRecord
100
AcDbRegAppTableRecord
  2
CONTENTBLOCKICON
 70
     0
  0
APPID
  5
DEAA
330
746E
100
AcDbSymbolTableRecord
100
AcDbRegAppTableRecord
  2
CONTENTBLOCKDESCRIPTION
 70
     0
  0
APPID
  5
E71D
330
746E
100
AcDbSymbolTableRecord
100
AcDbRegAppTableRecord
  2
CONTENTTABDATA
 70
     0
  0
APPID
  5
E71E
330
746E
100
AcDbSymbolTableRecord
100
AcDbRegAppTableRecord
  2
CONTENTCURRENTTAB
 70
     0
  0
APPID
  5
F3BA
330
746E
100
AcDbSymbolTableRecord
100
AcDbRegAppTableRecord
  2
DRAWINGVARIABLESXDATA
 70
     0
  0
ENDTAB
  0
TABLE
  2
DIMSTYLE
  5
746F
330
0
100
AcDbSymbolTable
 70
     1
100
AcDbDimStyleTable
 71
     1
340
F71F
  0
DIMSTYLE
105
F71F
102
{ACAD_REACTORS
330
16452
330
16459
330
1645A
330
1645D
330
1645E
330
16460
330
16461
330
16462
330
16475
330
16476
330
16477
330
1648F
330
16492
330
164BD
330
164BE
330
164BF
330
16C43
330
16C44
330
16C45
330
16C46
330
16C47
330
16C48
330
16C4A
330
16C4B
330
16C4C
330
16C4D
330
16DB6
330
16DB9
330
16DBA
330
16DBB
330
179B1
330
179B2
330
179B3
102
}
330
746F
100
AcDbSymbolTableRecord
100
AcDbDimStyleTableRecord
  2
INABA_S40G
 70
     0
 40
40.0
 41
2.5
 42
0.5
 43
7.0
 44
1.5
 73
     0
 74
     0
 77
     3
 78
     8
140
3.0
141
0.0
143
0.0394
147
1.0
172
     1
173
     1
174
     1
178
     7
271
     1
340
F706
341
F770
343
F770
344
F770
  0
ENDTAB
  0
TABLE
  2
BLOCK_RECORD
  5
7466
330
0
100
AcDbSymbolTable
 70
    34
  0
BLOCK_RECORD
  5
747D
330
7466
100
AcDbSymbolTableRecord
100
AcDbBlockTableRecord
  2
*MODEL_SPACE
340
167AF
  0
BLOCK_RECORD
  5
747A
330
7466
100
AcDbSymbolTableRecord
100
AcDbBlockTableRecord
  2
*PAPER_SPACE
340
167B0
  0
BLOCK_RECORD
  5
F770
330
7466
100
AcDbSymbolTableRecord
100
AcDbBlockTableRecord
  2
_DOTSMALL
340
0
102
{BLKREFS
331
16667
331
16668
331
16672
331
16673
331
16783
331
16784
331
1678E
331
1678F
331
165C6
331
165C7
331
165D1
331
165D2
331
165DE
331
165DF
331
165ED
331
165EE
331
165FB
331
165FC
331
16607
331
16608
331
16614
331
16615
331
16639
331
1663A
331
16651
331
16652
331
170D9
331
170DA
331
170E3
331
170E4
331
170EE
331
170EF
331
170F7
331
170F8
331
1714F
331
17150
331
1715A
331
1715B
331
1716D
331
1716E
331
1718A
331
1718B
331
17194
331
17195
331
1719D
331
1719E
331
17832
331
17833
331
1783D
331
1783E
331
17AEA
331
17AEB
331
17DA5
331
17DA6
331
17DAE
331
17DAF
331
17DBB
331
17DBC
331
17DC4
331
17DC5
331
17DCD
331
17DCE
331
17DE0
331
17DE1
331
17DEC
331
17DED
102
}
  0
BLOCK_RECORD
  5
164C6
330
7466
100
AcDbSymbolTableRecord
100
AcDbBlockTableRecord
  2
*D1
340
0
  0
BLOCK_RECORD
  5
164D2
330
7466
100
AcDbSymbolTableRecord
100
AcDbBlockTableRecord
  2
*D2
340
0
  0
BLOCK_RECORD
  5
164DE
330
7466
100
AcDbSymbolTableRecord
100
AcDbBlockTableRecord
  2
*D3
340
0
  0
BLOCK_RECORD
  5
164EA
330
7466
100
AcDbSymbolTableRecord
100
AcDbBlockTableRecord
  2
*D4
340
0
  0
BLOCK_RECORD
  5
164F6
330
7466
100
AcDbSymbolTableRecord
100
AcDbBlockTableRecord
  2
*D5
340
0
  0
BLOCK_RECORD
  5
16501
330
7466
100
AcDbSymbolTableRecord
100
AcDbBlockTableRecord
  2
*D6
340
0
  0
BLOCK_RECORD
  5
1650D
330
7466
100
AcDbSymbolTableRecord
100
AcDbBlockTableRecord
  2
*D7
340
0
  0
BLOCK_RECORD
  5
1651B
330
7466
100
AcDbSymbolTableRecord
100
AcDbBlockTableRecord
  2
*D8
340
0
  0
BLOCK_RECORD
  5
1652A
330
7466
100
AcDbSymbolTableRecord
100
AcDbBlockTableRecord
  2
*D9
340
0
  0
BLOCK_RECORD
  5
16539
330
7466
100
AcDbSymbolTableRecord
100
AcDbBlockTableRecord
  2
*D10
340
0
  0
BLOCK_RECORD
  5
16547
330
7466
100
AcDbSymbolTableRecord
100
AcDbBlockTableRecord
  2
*D11
340
0
  0
BLOCK_RECORD
  5
16555
330
7466
100
AcDbSymbolTableRecord
100
AcDbBlockTableRecord
  2
*D12
340
0
  0
BLOCK_RECORD
  5
16561
330
7466
100
AcDbSymbolTableRecord
100
AcDbBlockTableRecord
  2
*D13
340
0
  0
BLOCK_RECORD
  5
1656F
330
7466
100
AcDbSymbolTableRecord
100
AcDbBlockTableRecord
  2
*D14
340
0
  0
BLOCK_RECORD
  5
1657D
330
7466
100
AcDbSymbolTableRecord
100
AcDbBlockTableRecord
  2
*D15
340
0
  0
BLOCK_RECORD
  5
1658B
330
7466
100
AcDbSymbolTableRecord
100
AcDbBlockTableRecord
  2
*D16
340
0
  0
BLOCK_RECORD
  5
16DCE
330
7466
100
AcDbSymbolTableRecord
100
AcDbBlockTableRecord
  2
*D17
340
0
  0
BLOCK_RECORD
  5
16DDA
330
7466
100
AcDbSymbolTableRecord
100
AcDbBlockTableRecord
  2
*D18
340
0
  0
BLOCK_RECORD
  5
16DE7
330
7466
100
AcDbSymbolTableRecord
100
AcDbBlockTableRecord
  2
*D19
340
0
  0
BLOCK_RECORD
  5
16DF5
330
7466
100
AcDbSymbolTableRecord
100
AcDbBlockTableRecord
  2
*D20
340
0
  0
BLOCK_RECORD
  5
16E01
330
7466
100
AcDbSymbolTableRecord
100
AcDbBlockTableRecord
  2
*D21
340
0
  0
BLOCK_RECORD
  5
16E0D
330
7466
100
AcDbSymbolTableRecord
100
AcDbBlockTableRecord
  2
*D22
340
0
  0
BLOCK_RECORD
  5
16E1A
330
7466
100
AcDbSymbolTableRecord
100
AcDbBlockTableRecord
  2
*D23
340
0
  0
BLOCK_RECORD
  5
16E26
330
7466
100
AcDbSymbolTableRecord
100
AcDbBlockTableRecord
  2
*D24
340
0
  0
BLOCK_RECORD
  5
16E34
330
7466
100
AcDbSymbolTableRecord
100
AcDbBlockTableRecord
  2
*D25
340
0
  0
BLOCK_RECORD
  5
16E42
330
7466
100
AcDbSymbolTableRecord
100
AcDbBlockTableRecord
  2
*D26
340
0
  0
BLOCK_RECORD
  5
16F52
330
7466
100
AcDbSymbolTableRecord
100
AcDbBlockTableRecord
  2
*D27
340
0
  0
BLOCK_RECORD
  5
16F5E
330
7466
100
AcDbSymbolTableRecord
100
AcDbBlockTableRecord
  2
*D28
340
0
  0
BLOCK_RECORD
  5
16F6C
330
7466
100
AcDbSymbolTableRecord
100
AcDbBlockTableRecord
  2
*D29
340
0
  0
BLOCK_RECORD
  5
16F79
330
7466
100
AcDbSymbolTableRecord
100
AcDbBlockTableRecord
  2
*D30
340
0
  0
BLOCK_RECORD
  5
17A1C
330
7466
100
AcDbSymbolTableRecord
100
AcDbBlockTableRecord
  2
*D31
340
0
  0
BLOCK_RECORD
  5
17A28
330
7466
100
AcDbSymbolTableRecord
100
AcDbBlockTableRecord
  2
*D32
340
0
  0
BLOCK_RECORD
  5
17A36
330
7466
100
AcDbSymbolTableRecord
100
AcDbBlockTableRecord
  2
*D33
340
0
  0
ENDTAB
  0
ENDSEC
  0
SECTION
  2
BLOCKS
  0
BLOCK
  5
7489
330
747D
100
AcDbEntity
  8
0
100
AcDbBlockBegin
  2
*MODEL_SPACE
 70
     0
 10
0.0
 20
0.0
 30
0.0
  3
*MODEL_SPACE
  1

  0
ENDBLK
  5
748A
330
747D
100
AcDbEntity
  8
0
100
AcDbBlockEnd
  0
BLOCK
  5
7487
330
747A
100
AcDbEntity
 67
     1
  8
0
100
AcDbBlockBegin
  2
*PAPER_SPACE
 70
     0
 10
0.0
 20
0.0
 30
0.0
  3
*PAPER_SPACE
  1

  0
ENDBLK
  5
7488
330
747A
100
AcDbEntity
 67
     1
  8
0
100
AcDbBlockEnd
  0
BLOCK
  5
F771
330
F770
100
AcDbEntity
  8
0
 48
50.0
100
AcDbBlockBegin
  2
_DOTSMALL
 70
     0
 10
0.0
 20
0.0
 30
0.0
  3
_DOTSMALL
  1

  0
LWPOLYLINE
  5
F772
330
F770
100
AcDbEntity
  8
0
  6
ByBlock
 62
     0
 48
50.0
100
AcDbPolyline
 90
        2
 70
     1
 43
0.5
 10
-0.0625
 20
0.0
 42
1.0
 10
0.0625
 20
0.0
 42
1.0
  0
ENDBLK
  5
F776
330
F770
100
AcDbEntity
  8
0
 48
50.0
100
AcDbBlockEnd
  0
BLOCK
  5
16663
330
164C6
100
AcDbEntity
  8
0
 48
50.0
100
AcDbBlockBegin
  2
*D1
 70
     1
 10
0.0
 20
0.0
 30
0.0
  3
*D1
  1

  0
LINE
  5
16664
330
164C6
100
AcDbEntity
  8
0
  6
ByBlock
 62
     0
 48
50.0
100
AcDbLine
 10
7394.673057123664
 20
9612.497424545894
 30
0.0
 11
8447.206344597709
 21
9612.497424545894
 31
0.0
  0
LINE
  5
16665
330
164C6
100
AcDbEntity
  8
0
  6
ByBlock
 62
     0
 48
50.0
100
AcDbLine
 10
7394.673057123639
 20
6982.497424545887
 30
0.0
 11
8447.206344597709
 21
6982.497424545886
 31
0.0
  0
LINE
  5
16666
330
164C6
100
AcDbEntity
  8
0
  6
ByBlock
 62
     0
 48
50.0
100
AcDbLine
 10
8387.206344597709
 20
9612.497424545894
 30
0.0
 11
8387.206344597709
 21
6982.497424545886
 31
0.0
  0
INSERT
  5
16667
330
164C6
100
AcDbEntity
  8
0
  6
ByBlock
 62
     0
 48
50.0
100
AcDbBlockReference
  2
_DOTSMALL
 10
8387.206344597709
 20
9612.497424545894
 30
0.0
 41
100.0
 42
100.0
 43
100.0
 50
90.0
  0
INSERT
  5
16668
330
164C6
100
AcDbEntity
  8
0
  6
ByBlock
 62
     0
 48
50.0
100
AcDbBlockReference
  2
_DOTSMALL
 10
8387.206344597709
 20
6982.497424545886
 30
0.0
 41
100.0
 42
100.0
 43
100.0
 50
270.0
  0
MTEXT
  5
16669
330
164C6
100
AcDbEntity
  8
0
  6
ByBlock
 62
     7
 48
50.0
100
AcDbMText
 10
8287.194533574087
 20
8297.497424545891
 30
0.0
 40
120.0
 41
0.0
 71
     5
 72
     1
  1
\A1;2630
  7
STYLE1
 11
0.0000000000000001
 21
1.0
 31
0.0
 73
     1
 44
1.0
1001
ACAD
1000
MTEXTBEGIN
1070
    73
1070
     1
1070
    44
1040
1.0
1070
    74
1070
     0
1000
MTEXTEND
  0
POINT
  5
1666A
330
164C6
100
AcDbEntity
  8
DEFPOINTS
  6
ByBlock
 62
     0
 48
50.0
100
AcDbPoint
 10
7374.673057123664
 20
9612.497424545894
 30
0.0
  0
POINT
  5
1666B
330
164C6
100
AcDbEntity
  8
DEFPOINTS
  6
ByBlock
 62
     0
 48
50.0
100
AcDbPoint
 10
7374.673057123638
 20
6982.497424545887
 30
0.0
  0
POINT
  5
1666C
330
164C6
100
AcDbEntity
  8
DEFPOINTS
  6
ByBlock
 62
     0
 48
50.0
100
AcDbPoint
 10
8387.206344597709
 20
6982.497424545886
 30
0.0
  0
ENDBLK
  5
1666D
330
164C6
100
AcDbEntity
  8
0
 48
50.0
100
AcDbBlockEnd
  0
BLOCK
  5
1666E
330
164D2
100
AcDbEntity
  8
0
 48
50.0
100
AcDbBlockBegin
  2
*D2
 70
     1
 10
0.0
 20
0.0
 30
0.0
  3
*D2
  1

  0
LINE
  5
1666F
330
164D2
100
AcDbEntity
  8
0
  6
ByBlock
 62
     0
 48
50.0
100
AcDbLine
 10
7394.673057123664
 20
9557.497424545898
 30
0.0
 11
8082.099402858075
 21
9557.497424545898
 31
0.0
  0
LINE
  5
16670
330
164D2
100
AcDbEntity
  8
0
  6
ByBlock
 62
     0
 48
50.0
100
AcDbLine
 10
7394.673057123639
 20
7037.497424545883
 30
0.0
 11
8082.099402858073
 21
7037.497424545883
 31
0.0
  0
LINE
  5
16671
330
164D2
100
AcDbEntity
  8
0
  6
ByBlock
 62
     0
 48
50.0
100
AcDbLine
 10
8022.099402858072
 20
9557.497424545898
 30
0.0
 11
8022.099402858072
 21
7037.497424545883
 31
0.0
  0
INSERT
  5
16672
330
164D2
100
AcDbEntity
  8
0
  6
ByBlock
 62
     0
 48
50.0
100
AcDbBlockReference
  2
_DOTSMALL
 10
8022.099402858072
 20
9557.497424545898
 30
0.0
 41
100.0
 42
100.0
 43
100.0
 50
90.0
  0
INSERT
  5
16673
330
164D2
100
AcDbEntity
  8
0
  6
ByBlock
 62
     0
 48
50.0
100
AcDbBlockReference
  2
_DOTSMALL
 10
8022.099402858072
 20
7037.497424545883
 30
0.0
 41
100.0
 42
100.0
 43
100.0
 50
270.0
  0
MTEXT
  5
16674
330
164D2
100
AcDbEntity
  8
0
  6
ByBlock
 62
     7
 48
50.0
100
AcDbMText
 10
7922.087591834451
 20
8297.497424545891
 30
0.0
 40
120.0
 41
0.0
 71
     5
 72
     1
  1
\A1;6X420=2520
  7
STYLE1
 11
0.0000000000000001
 21
1.0
 31
0.0
 73
     1
 44
1.0
1001
ACAD
1000
MTEXTBEGIN
1070
    73
1070
     1
1070
    44
1040
1.0
1070
    74
1070
     0
1000
MTEXTEND
  0
POINT
  5
16675
330
164D2
100
AcDbEntity
  8
DEFPOINTS
  6
ByBlock
 62
     0
 48
50.0
100
AcDbPoint
 10
7374.673057123664
 20
9557.497424545898
 30
0.0
  0
POINT
  5
16676
330
164D2
100
AcDbEntity
  8
DEFPOINTS
  6
ByBlock
 62
     0
 48
50.0
100
AcDbPoint
 10
7374.673057123638
 20
7037.497424545883
 30
0.0
  0
POINT
  5
16677
330
164D2
100
AcDbEntity
  8
DEFPOINTS
  6
ByBlock
 62
     0
 48
50.0
100
AcDbPoint
 10
8022.099402858072
 20
7037.497424545883
 30
0.0
  0
ENDBLK
  5
16678
330
164D2
100
AcDbEntity
  8
0
 48
50.0
100
AcDbBlockEnd
  0
BLOCK
  5
1677F
330
164DE
100
AcDbEntity
  8
0
 48
50.0
100
AcDbBlockBegin
  2
*D3
 70
     1
 10
0.0
 20
0.0
 30
0.0
  3
*D3
  1

  0
LINE
  5
16780
330
164DE
100
AcDbEntity
  8
0
  6
ByBlock
 62
     0
 48
50.0
100
AcDbLine
 10
5857.81407327504
 20
9112.497424545905
 30
0.0
 11
5755.072259316471
 21
8729.059754790737
 31
0.0
  0
LINE
  5
16781
330
164DE
100
AcDbEntity
  8
0
  6
ByBlock
 62
     0
 48
50.0
100
AcDbLine
 10
7340.814073275052
 20
9112.497424545898
 30
0.0
 11
7238.072259316486
 21
8729.059754790737
 31
0.0
  0
LINE
  5
16782
330
164DE
100
AcDbEntity
  8
0
  6
ByBlock
 62
     0
 48
50.0
100
AcDbLine
 10
5771.149210862339
 20
8789.05975479074
 30
0.0
 11
7254.149210862353
 21
8789.05975479074
 31
0.0
  0
INSERT
  5
16783
330
164DE
100
AcDbEntity
  8
0
  6
ByBlock
 62
     0
 48
50.0
100
AcDbBlockReference
  2
_DOTSMALL
 10
5771.149210862339
 20
8789.05975479074
 30
0.0
 41
100.0
 42
100.0
 43
100.0
 50
180.0
  0
INSERT
  5
16784
330
164DE
100
AcDbEntity
  8
0
  6
ByBlock
 62
     0
 48
50.0
100
AcDbBlockReference
  2
_DOTSMALL
 10
7254.149210862353
 20
8789.05975479074
 30
0.0
 41
100.0
 42
100.0
 43
100.0
  0
MTEXT
  5
16785
330
164DE
100
AcDbEntity
  8
0
  6
ByBlock
 62
     7
 48
50.0
100
AcDbMText
 10
6387.611213040511
 20
8889.059754790739
 30
0.0
 40
120.0
 41
0.0
 71
     5
 72
     1
  1
\A1;1483
  7
STYLE1
 73
     1
 44
1.0
1001
ACAD
1000
MTEXTBEGIN
1070
    73
1070
     1
1070
    44
1040
1.0
1070
    74
1070
     0
1000
MTEXTEND
  0
POINT
  5
16786
330
164DE
100
AcDbEntity
  8
DEFPOINTS
  6
ByBlock
 62
     0
 48
50.0
100
AcDbPoint
 10
5863.173057123663
 20
9132.497424545906
 30
0.0
  0
POINT
  5
16787
330
164DE
100
AcDbEntity
  8
DEFPOINTS
  6
ByBlock
 62
     0
 48
50.0
100
AcDbPoint
 10
7346.173057123675
 20
9132.497424545897
 30
0.0
  0
POINT
  5
16788
330
164DE
100
AcDbEntity
  8
DEFPOINTS
  6
ByBlock
 62
     0
 48
50.0
100
AcDbPoint
 10
7254.149210862353
 20
8789.05975479074
 30
0.0
  0
ENDBLK
  5
16789
330
164DE
100
AcDbEntity
  8
0
 48
50.0
100
AcDbBlockEnd
  0
BLOCK
  5
1678A
330
164EA
100
AcDbEntity
  8
0
 48
50.0
100
AcDbBlockBegin
  2
*D4
 70
     1
 10
0.0
 20
0.0
 30
0.0
  3
*D4
  1

  0
LINE
  5
1678B
330
164EA
100
AcDbEntity
  8
0
  6
ByBlock
 62
     0
 48
50.0
100
AcDbLine
 10
4347.814073275041
 20
9112.4974245458
 30
0.0
 11
4245.072259316471
 21
8729.059754790629
 31
0.0
  0
LINE
  5
1678C
330
164EA
100
AcDbEntity
  8
0
  6
ByBlock
 62
     0
 48
50.0
100
AcDbLine
 10
5830.814073275053
 20
9112.497424545791
 30
0.0
 11
5728.072259316485
 21
8729.059754790629
 31
0.0
  0
LINE
  5
1678D
330
164EA
100
AcDbEntity
  8
0
  6
ByBlock
 62
     0
 48
50.0
100
AcDbLine
 10
4261.149210862338
 20
8789.059754790629
 30
0.0
 11
5744.149210862353
 21
8789.059754790629
 31
0.0
  0
INSERT
  5
1678E
330
164EA
100
AcDbEntity
  8
0
  6
ByBlock
 62
     0
 48
50.0
100
AcDbBlockReference
  2
_DOTSMALL
 10
4261.149210862338
 20
8789.059754790629
 30
0.0
 41
100.0
 42
100.0
 43
100.0
 50
180.0
  0
INSERT
  5
1678F
330
164EA
100
AcDbEntity
  8
0
  6
ByBlock
 62
     0
 48
50.0
100
AcDbBlockReference
  2
_DOTSMALL
 10
5744.149210862353
 20
8789.059754790629
 30
0.0
 41
100.0
 42
100.0
 43
100.0
  0
MTEXT
  5
16790
330
164EA
100
AcDbEntity
  8
0
  6
ByBlock
 62
     7
 48
50.0
100
AcDbMText
 10
4940.964360531678
 20
8889.059754790629
 30
0.0
 40
120.0
 41
0.0
 71
     5
 72
     1
  1
\A1;1483
  7
STYLE1
 73
     1
 44
1.0
1001
ACAD
1000
MTEXTBEGIN
1070
    73
1070
     1
1070
    44
1040
1.0
1070
    74
1070
     0
1000
MTEXTEND
  0
POINT
  5
16791
330
164EA
100
AcDbEntity
  8
DEFPOINTS
  6
ByBlock
 62
     0
 48
50.0
100
AcDbPoint
 10
4353.173057123664
 20
9132.4974245458
 30
0.0
  0
POINT
  5
16792
330
164EA
100
AcDbEntity
  8
DEFPOINTS
  6
ByBlock
 62
     0
 48
50.0
100
AcDbPoint
 10
5836.173057123676
 20
9132.497424545793
 30
0.0
  0
POINT
  5
16793
330
164EA
100
AcDbEntity
  8
DEFPOINTS
  6
ByBlock
 62
     0
 48
50.0
100
AcDbPoint
 10
5744.149210862353
 20
8789.059754790629
 30
0.0
  0
ENDBLK
  5
16794
330
164EA
100
AcDbEntity
  8
0
 48
50.0
100
AcDbBlockEnd
  0
BLOCK
  5
165C3
330
164F6
100
AcDbEntity
  8
0
 48
50.0
100
AcDbBlockBegin
  2
*D5
 70
     1
 10
0.0
 20
0.0
 30
0.0
  3
*D5
  1

  0
LINE
  5
165C4
330
164F6
100
AcDbEntity
  8
0
  6
ByBlock
 62
     0
 48
50.0
100
AcDbLine
 10
4427.673057123657
 20
6988.497424545795
 30
0.0
 11
4427.673057123657
 21
6388.066653779631
 31
0.0
  0
LINE
  5
165C5
330
164F6
100
AcDbEntity
  8
0
  6
ByBlock
 62
     0
 48
50.0
100
AcDbLine
 10
7271.673057123638
 20
6448.066653779631
 30
0.0
 11
4427.673057123657
 21
6448.066653779631
 31
0.0
  0
INSERT
  5
165C6
330
164F6
100
AcDbEntity
  8
0
  6
ByBlock
 62
     0
 48
50.0
100
AcDbBlockReference
  2
_DOTSMALL
 10
7271.673057123638
 20
6448.066653779631
 30
0.0
 41
100.0
 42
100.0
 43
100.0
  0
INSERT
  5
165C7
330
164F6
100
AcDbEntity
  8
0
  6
ByBlock
 62
     0
 48
50.0
100
AcDbBlockReference
  2
_DOTSMALL
 10
4427.673057123657
 20
6448.066653779631
 30
0.0
 41
100.0
 42
100.0
 43
100.0
 50
180.0
  0
MTEXT
  5
165C8
330
164F6
100
AcDbEntity
  8
0
  6
ByBlock
 62
     7
 48
50.0
100
AcDbMText
 10
5849.673057123648
 20
6548.078464803253
 30
0.0
 40
120.0
 41
0.0
 71
     5
 72
     1
  1
\A1;有効開口部間口 2844
  7
STYLE1
 73
     1
 44
1.0
1001
ACAD
1000
MTEXTBEGIN
1070
    73
1070
     1
1070
    44
1040
1.0
1070
    74
1070
     0
1000
MTEXTEND
  0
POINT
  5
165C9
330
164F6
100
AcDbEntity
  8
DEFPOINTS
  6
ByBlock
 62
     0
 48
50.0
100
AcDbPoint
 10
7271.673057123638
 20
7008.497424545796
 30
0.0
  0
POINT
  5
165CA
330
164F6
100
AcDbEntity
  8
DEFPOINTS
  6
ByBlock
 62
     0
 48
50.0
100
AcDbPoint
 10
4427.673057123657
 20
7008.497424545796
 30
0.0
  0
POINT
  5
165CB
330
164F6
100
AcDbEntity
  8
DEFPOINTS
  6
ByBlock
 62
     0
 48
50.0
100
AcDbPoint
 10
4427.673057123657
 20
6448.066653779631
 30
0.0
  0
ENDBLK
  5
165CC
330
164F6
100
AcDbEntity
  8
0
 48
50.0
100
AcDbBlockEnd
  0
BLOCK
  5
165CD
330
16501
100
AcDbEntity
  8
0
 48
50.0
100
AcDbBlockBegin
  2
*D6
 70
     1
 10
0.0
 20
0.0
 30
0.0
  3
*D6
  1

  0
LINE
  5
165CE
330
16501
100
AcDbEntity
  8
0
  6
ByBlock
 62
     0
 48
50.0
100
AcDbLine
 10
4324.673057123656
 20
6962.497424545723
 30
0.0
 11
4324.673057123656
 21
6101.893658188757
 31
0.0
  0
LINE
  5
165CF
330
16501
100
AcDbEntity
  8
0
  6
ByBlock
 62
     0
 48
50.0
100
AcDbLine
 10
7374.673057123638
 20
6962.49742454585
 30
0.0
 11
7374.673057123638
 21
6101.893658188757
 31
0.0
  0
LINE
  5
165D0
330
16501
100
AcDbEntity
  8
0
  6
ByBlock
 62
     0
 48
50.0
100
AcDbLine
 10
4324.673057123656
 20
6161.893658188757
 30
0.0
 11
7374.673057123638
 21
6161.893658188757
 31
0.0
  0
INSERT
  5
165D1
330
16501
100
AcDbEntity
  8
0
  6
ByBlock
 62
     0
 48
50.0
100
AcDbBlockReference
  2
_DOTSMALL
 10
4324.673057123656
 20
6161.893658188757
 30
0.0
 41
100.0
 42
100.0
 43
100.0
 50
180.0
  0
INSERT
  5
165D2
330
16501
100
AcDbEntity
  8
0
  6
ByBlock
 62
     0
 48
50.0
100
AcDbBlockReference
  2
_DOTSMALL
 10
7374.673057123638
 20
6161.893658188757
 30
0.0
 41
100.0
 42
100.0
 43
100.0
  0
MTEXT
  5
165D3
330
16501
100
AcDbEntity
  8
0
  6
ByBlock
 62
     7
 48
50.0
100
AcDbMText
 10
5849.673057123648
 20
6261.893658188757
 30
0.0
 40
120.0
 41
0.0
 71
     5
 72
     1
  1
\A1;3050
  7
STYLE1
 73
     1
 44
1.0
1001
ACAD
1000
MTEXTBEGIN
1070
    73
1070
     1
1070
    44
1040
1.0
1070
    74
1070
     0
1000
MTEXTEND
  0
POINT
  5
165D4
330
16501
100
AcDbEntity
  8
DEFPOINTS
  6
ByBlock
 62
     0
 48
50.0
100
AcDbPoint
 10
4324.673057123656
 20
6982.497424545724
 30
0.0
  0
POINT
  5
165D5
330
16501
100
AcDbEntity
  8
DEFPOINTS
  6
ByBlock
 62
     0
 48
50.0
100
AcDbPoint
 10
7374.673057123638
 20
6982.497424545851
 30
0.0
  0
POINT
  5
165D6
330
16501
100
AcDbEntity
  8
DEFPOINTS
  6
ByBlock
 62
     0
 48
50.0
100
AcDbPoint
 10
7374.673057123638
 20
6161.893658188757
 30
0.0
  0
ENDBLK
  5
165D7
330
16501
100
AcDbEntity
  8
0
 48
50.0
100
AcDbBlockEnd
  0
BLOCK
  5
165D8
330
1650D
100
AcDbEntity
  8
0
 48
50.0
100
AcDbBlockBegin
  2
*D7
 70
     1
 10
0.0
 20
0.0
 30
0.0
  3
*D7
  1

  0
LINE
  5
165D9
330
1650D
100
AcDbEntity
  8
0
  6
ByBlock
 62
     0
 48
50.0
100
AcDbLine
 10
4379.673057123652
 20
6962.497424545794
 30
0.0
 11
4379.673057123652
 21
6388.066653779631
 31
0.0
  0
LINE
  5
165DA
330
1650D
100
AcDbEntity
  8
0
  6
ByBlock
 62
     0
 48
50.0
100
AcDbLine
 10
4324.673057123656
 20
6962.497424545792
 30
0.0
 11
4324.673057123656
 21
6388.066653779631
 31
0.0
  0
LINE
  5
165DB
330
1650D
100
AcDbEntity
  8
0
  6
ByBlock
 62
     0
 48
50.0
100
AcDbLine
 10
4379.673057123652
 20
6448.066653779631
 30
0.0
 11
4479.673057123653
 21
6448.066653779631
 31
0.0
  0
LINE
  5
165DC
330
1650D
100
AcDbEntity
  8
0
  6
ByBlock
 62
     0
 48
50.0
100
AcDbLine
 10
4324.673057123656
 20
6448.066653779631
 30
0.0
 11
3907.702494375179
 21
6448.066653779631
 31
0.0
  0
LINE
  5
165DD
330
1650D
100
AcDbEntity
  8
0
  6
ByBlock
 62
     0
 48
50.0
100
AcDbLine
 10
4379.673057123652
 20
6448.066653779631
 30
0.0
 11
4324.673057123656
 21
6448.066653779631
 31
0.0
  0
INSERT
  5
165DE
330
1650D
100
AcDbEntity
  8
0
  6
ByBlock
 62
     0
 48
50.0
100
AcDbBlockReference
  2
_DOTSMALL
 10
4379.673057123652
 20
6448.066653779631
 30
0.0
 41
100.0
 42
100.0
 43
100.0
 50
180.0
  0
INSERT
  5
165DF
330
1650D
100
AcDbEntity
  8
0
  6
ByBlock
 62
     0
 48
50.0
100
AcDbBlockReference
  2
_DOTSMALL
 10
4324.673057123656
 20
6448.066653779631
 30
0.0
 41
100.0
 42
100.0
 43
100.0
  0
MTEXT
  5
165E0
330
1650D
100
AcDbEntity
  8
0
  6
ByBlock
 62
     7
 48
50.0
100
AcDbMText
 10
4016.187775749417
 20
6548.066653779631
 30
0.0
 40
120.0
 41
0.0
 71
     5
 72
     1
  1
\A1;55
  7
STYLE1
 73
     1
 44
1.0
1001
ACAD
1000
MTEXTBEGIN
1070
    73
1070
     1
1070
    44
1040
1.0
1070
    74
1070
     0
1000
MTEXTEND
  0
POINT
  5
165E1
330
1650D
100
AcDbEntity
  8
DEFPOINTS
  6
ByBlock
 62
     0
 48
50.0
100
AcDbPoint
 10
4379.673057123652
 20
6982.497424545795
 30
0.0
  0
POINT
  5
165E2
330
1650D
100
AcDbEntity
  8
DEFPOINTS
  6
ByBlock
 62
     0
 48
50.0
100
AcDbPoint
 10
4324.673057123656
 20
6982.497424545792
 30
0.0
  0
POINT
  5
165E3
330
1650D
100
AcDbEntity
  8
DEFPOINTS
  6
ByBlock
 62
     0
 48
50.0
100
AcDbPoint
 10
4324.673057123656
 20
6448.066653779631
 30
0.0
  0
ENDBLK
  5
165E4
330
1650D
100
AcDbEntity
  8
0
 48
50.0
100
AcDbBlockEnd
  0
BLOCK
  5
165E5
330
1651B
100
AcDbEntity
  8
0
 48
50.0
100
AcDbBlockBegin
  2
*D8
 70
     1
 10
0.0
 20
0.0
 30
0.0
  3
*D8
  1

  0
LINE
  5
165E6
330
1651B
100
AcDbEntity
  8
0
  6
ByBlock
 62
     0
 48
50.0
100
AcDbLine
 10
4427.673057123657
 20
6988.497424545795
 30
0.0
 11
4427.673057123657
 21
6388.066653779631
 31
0.0
  0
LINE
  5
165E7
330
1651B
100
AcDbEntity
  8
0
  6
ByBlock
 62
     0
 48
50.0
100
AcDbLine
 10
4379.673057123652
 20
6962.497424545794
 30
0.0
 11
4379.673057123652
 21
6388.066653779631
 31
0.0
  0
LINE
  5
165E8
330
1651B
100
AcDbEntity
  8
0
  6
ByBlock
 62
     0
 48
50.0
100
AcDbLine
 10
4427.673057123657
 20
6448.066653779631
 30
0.0
 11
4527.673057123656
 21
6448.066653779631
 31
0.0
  0
LINE
  5
165E9
330
1651B
100
AcDbEntity
  8
0
  6
ByBlock
 62
     0
 48
50.0
100
AcDbLine
 10
4379.673057123652
 20
6448.066653779631
 30
0.0
 11
4279.673057123653
 21
6448.066653779631
 31
0.0
  0
MTEXT
  5
165EA
330
1651B
100
AcDbEntity
  8
0
  6
ByBlock
 62
     7
 48
50.0
100
AcDbMText
 10
4540.575028123714
 20
6548.066653779631
 30
0.0
 40
120.0
 41
0.0
 71
     5
 72
     1
  1
\A1;48
  7
STYLE1
 73
     1
 44
1.0
1001
ACAD
1000
MTEXTBEGIN
1070
    73
1070
     1
1070
    44
1040
1.0
1070
    74
1070
     0
1000
MTEXTEND
  0
LINE
  5
165EB
330
1651B
100
AcDbEntity
  8
0
  6
ByBlock
 62
     0
 48
50.0
100
AcDbLine
 10
4427.673057123657
 20
6448.066653779631
 30
0.0
 11
4379.673057123652
 21
6448.066653779631
 31
0.0
  0
LINE
  5
165EC
330
1651B
100
AcDbEntity
  8
0
  6
ByBlock
 62
     0
 48
50.0
100
AcDbLine
 10
4427.673057123657
 20
6448.066653779631
 30
0.0
 11
4379.673057123652
 21
6448.066653779631
 31
0.0
  0
INSERT
  5
165ED
330
1651B
100
AcDbEntity
  8
0
  6
ByBlock
 62
     0
 48
50.0
100
AcDbBlockReference
  2
_DOTSMALL
 10
4427.673057123657
 20
6448.066653779631
 30
0.0
 41
100.0
 42
100.0
 43
100.0
 50
180.0
  0
INSERT
  5
165EE
330
1651B
100
AcDbEntity
  8
0
  6
ByBlock
 62
     0
 48
50.0
100
AcDbBlockReference
  2
_DOTSMALL
 10
4379.673057123652
 20
6448.066653779631
 30
0.0
 41
100.0
 42
100.0
 43
100.0
  0
POINT
  5
165EF
330
1651B
100
AcDbEntity
  8
DEFPOINTS
  6
ByBlock
 62
     0
 48
50.0
100
AcDbPoint
 10
4427.673057123657
 20
7008.497424545796
 30
0.0
  0
POINT
  5
165F0
330
1651B
100
AcDbEntity
  8
DEFPOINTS
  6
ByBlock
 62
     0
 48
50.0
100
AcDbPoint
 10
4379.673057123652
 20
6982.497424545795
 30
0.0
  0
POINT
  5
165F1
330
1651B
100
AcDbEntity
  8
DEFPOINTS
  6
ByBlock
 62
     0
 48
50.0
100
AcDbPoint
 10
4379.673057123652
 20
6448.066653779631
 30
0.0
  0
ENDBLK
  5
165F2
330
1651B
100
AcDbEntity
  8
0
 48
50.0
100
AcDbBlockEnd
  0
BLOCK
  5
165F3
330
1652A
100
AcDbEntity
  8
0
 48
50.0
100
AcDbBlockBegin
  2
*D9
 70
     1
 10
0.0
 20
0.0
 30
0.0
  3
*D9
  1

  0
LINE
  5
165F4
330
1652A
100
AcDbEntity
  8
0
  6
ByBlock
 62
     0
 48
50.0
100
AcDbLine
 10
7319.67305712364
 20
6962.497424545883
 30
0.0
 11
7319.67305712364
 21
6388.066653779631
 31
0.0
  0
LINE
  5
165F5
330
1652A
100
AcDbEntity
  8
0
  6
ByBlock
 62
     0
 48
50.0
100
AcDbLine
 10
7271.673057123638
 20
6988.497424545797
 30
0.0
 11
7271.673057123638
 21
6388.066653779631
 31
0.0
  0
LINE
  5
165F6
330
1652A
100
AcDbEntity
  8
0
  6
ByBlock
 62
     0
 48
50.0
100
AcDbLine
 10
7319.67305712364
 20
6448.066653779631
 30
0.0
 11
7419.67305712364
 21
6448.066653779631
 31
0.0
  0
LINE
  5
165F7
330
1652A
100
AcDbEntity
  8
0
  6
ByBlock
 62
     0
 48
50.0
100
AcDbLine
 10
7271.673057123638
 20
6448.066653779631
 30
0.0
 11
7171.673057123638
 21
6448.066653779631
 31
0.0
  0
MTEXT
  5
165F8
330
1652A
100
AcDbEntity
  8
0
  6
ByBlock
 62
     7
 48
50.0
100
AcDbMText
 10
7160.710159474891
 20
6548.066653779631
 30
0.0
 40
120.0
 41
0.0
 71
     5
 72
     1
  1
\A1;48
  7
STYLE1
 73
     1
 44
1.0
1001
ACAD
1000
MTEXTBEGIN
1070
    73
1070
     1
1070
    44
1040
1.0
1070
    74
1070
     0
1000
MTEXTEND
  0
LINE
  5
165F9
330
1652A
100
AcDbEntity
  8
0
  6
ByBlock
 62
     0
 48
50.0
100
AcDbLine
 10
7319.67305712364
 20
6448.066653779631
 30
0.0
 11
7271.673057123638
 21
6448.066653779631
 31
0.0
  0
LINE
  5
165FA
330
1652A
100
AcDbEntity
  8
0
  6
ByBlock
 62
     0
 48
50.0
100
AcDbLine
 10
7319.67305712364
 20
6448.066653779631
 30
0.0
 11
7271.673057123638
 21
6448.066653779631
 31
0.0
  0
INSERT
  5
165FB
330
1652A
100
AcDbEntity
  8
0
  6
ByBlock
 62
     0
 48
50.0
100
AcDbBlockReference
  2
_DOTSMALL
 10
7319.67305712364
 20
6448.066653779631
 30
0.0
 41
100.0
 42
100.0
 43
100.0
 50
180.0
  0
INSERT
  5
165FC
330
1652A
100
AcDbEntity
  8
0
  6
ByBlock
 62
     0
 48
50.0
100
AcDbBlockReference
  2
_DOTSMALL
 10
7271.673057123638
 20
6448.066653779631
 30
0.0
 41
100.0
 42
100.0
 43
100.0
  0
POINT
  5
165FD
330
1652A
100
AcDbEntity
  8
DEFPOINTS
  6
ByBlock
 62
     0
 48
50.0
100
AcDbPoint
 10
7319.67305712364
 20
6982.497424545883
 30
0.0
  0
POINT
  5
165FE
330
1652A
100
AcDbEntity
  8
DEFPOINTS
  6
ByBlock
 62
     0
 48
50.0
100
AcDbPoint
 10
7271.673057123638
 20
7008.497424545796
 30
0.0
  0
POINT
  5
165FF
330
1652A
100
AcDbEntity
  8
DEFPOINTS
  6
ByBlock
 62
     0
 48
50.0
100
AcDbPoint
 10
7271.673057123638
 20
6448.066653779631
 30
0.0
  0
ENDBLK
  5
16600
330
1652A
100
AcDbEntity
  8
0
 48
50.0
100
AcDbBlockEnd
  0
BLOCK
  5
16601
330
16539
100
AcDbEntity
  8
0
 48
50.0
100
AcDbBlockBegin
  2
*D10
 70
     1
 10
0.0
 20
0.0
 30
0.0
  3
*D10
  1

  0
LINE
  5
16602
330
16539
100
AcDbEntity
  8
0
  6
ByBlock
 62
     0
 48
50.0
100
AcDbLine
 10
7374.673057123638
 20
6962.497424545887
 30
0.0
 11
7374.673057123638
 21
6388.066653779632
 31
0.0
  0
LINE
  5
16603
330
16539
100
AcDbEntity
  8
0
  6
ByBlock
 62
     0
 48
50.0
100
AcDbLine
 10
7319.67305712364
 20
6962.497424545883
 30
0.0
 11
7319.67305712364
 21
6388.066653779632
 31
0.0
  0
LINE
  5
16604
330
16539
100
AcDbEntity
  8
0
  6
ByBlock
 62
     0
 48
50.0
100
AcDbLine
 10
7319.67305712364
 20
6448.066653779632
 30
0.0
 11
7219.67305712364
 21
6448.066653779632
 31
0.0
  0
LINE
  5
16605
330
16539
100
AcDbEntity
  8
0
  6
ByBlock
 62
     0
 48
50.0
100
AcDbLine
 10
7374.673057123638
 20
6448.066653779632
 30
0.0
 11
7791.643619872115
 21
6448.066653779632
 31
0.0
  0
LINE
  5
16606
330
16539
100
AcDbEntity
  8
0
  6
ByBlock
 62
     0
 48
50.0
100
AcDbLine
 10
7319.67305712364
 20
6448.066653779632
 30
0.0
 11
7374.673057123638
 21
6448.066653779632
 31
0.0
  0
INSERT
  5
16607
330
16539
100
AcDbEntity
  8
0
  6
ByBlock
 62
     0
 48
50.0
100
AcDbBlockReference
  2
_DOTSMALL
 10
7319.67305712364
 20
6448.066653779632
 30
0.0
 41
100.0
 42
100.0
 43
100.0
  0
INSERT
  5
16608
330
16539
100
AcDbEntity
  8
0
  6
ByBlock
 62
     0
 48
50.0
100
AcDbBlockReference
  2
_DOTSMALL
 10
7374.673057123638
 20
6448.066653779632
 30
0.0
 41
100.0
 42
100.0
 43
100.0
 50
180.0
  0
MTEXT
  5
16609
330
16539
100
AcDbEntity
  8
0
  6
ByBlock
 62
     7
 48
50.0
100
AcDbMText
 10
7683.158338497877
 20
6548.066653779632
 30
0.0
 40
120.0
 41
0.0
 71
     5
 72
     1
  1
\A1;55
  7
STYLE1
 73
     1
 44
1.0
1001
ACAD
1000
MTEXTBEGIN
1070
    73
1070
     1
1070
    44
1040
1.0
1070
    74
1070
     0
1000
MTEXTEND
  0
POINT
  5
1660A
330
16539
100
AcDbEntity
  8
DEFPOINTS
  6
ByBlock
 62
     0
 48
50.0
100
AcDbPoint
 10
7374.673057123638
 20
6982.497424545887
 30
0.0
  0
POINT
  5
1660B
330
16539
100
AcDbEntity
  8
DEFPOINTS
  6
ByBlock
 62
     0
 48
50.0
100
AcDbPoint
 10
7319.67305712364
 20
6982.497424545883
 30
0.0
  0
POINT
  5
1660C
330
16539
100
AcDbEntity
  8
DEFPOINTS
  6
ByBlock
 62
     0
 48
50.0
100
AcDbPoint
 10
7319.67305712364
 20
6448.066653779632
 30
0.0
  0
ENDBLK
  5
1660D
330
16539
100
AcDbEntity
  8
0
 48
50.0
100
AcDbBlockEnd
  0
BLOCK
  5
1660E
330
16547
100
AcDbEntity
  8
0
 48
50.0
100
AcDbBlockBegin
  2
*D11
 70
     1
 10
0.0
 20
0.0
 30
0.0
  3
*D11
  1

  0
LINE
  5
1660F
330
16547
100
AcDbEntity
  8
0
  6
ByBlock
 62
     0
 48
50.0
100
AcDbLine
 10
7394.673057123639
 20
7037.497424545883
 30
0.0
 11
8082.099402858048
 21
7037.497424545883
 31
0.0
  0
LINE
  5
16610
330
16547
100
AcDbEntity
  8
0
  6
ByBlock
 62
     0
 48
50.0
100
AcDbLine
 10
7394.673057123639
 20
6982.497424545887
 30
0.0
 11
8082.099402858048
 21
6982.497424545886
 31
0.0
  0
LINE
  5
16611
330
16547
100
AcDbEntity
  8
0
  6
ByBlock
 62
     0
 48
50.0
100
AcDbLine
 10
8022.099402858048
 20
7037.497424545883
 30
0.0
 11
8022.099402858048
 21
7137.497424545883
 31
0.0
  0
LINE
  5
16612
330
16547
100
AcDbEntity
  8
0
  6
ByBlock
 62
     0
 48
50.0
100
AcDbLine
 10
8022.099402858048
 20
6982.497424545886
 30
0.0
 11
8022.099402858048
 21
6496.150676266786
 31
0.0
  0
LINE
  5
16613
330
16547
100
AcDbEntity
  8
0
  6
ByBlock
 62
     0
 48
50.0
100
AcDbLine
 10
8022.099402858048
 20
7037.497424545883
 30
0.0
 11
8022.099402858048
 21
6982.497424545886
 31
0.0
  0
INSERT
  5
16614
330
16547
100
AcDbEntity
  8
0
  6
ByBlock
 62
     0
 48
50.0
100
AcDbBlockReference
  2
_DOTSMALL
 10
8022.099402858048
 20
7037.497424545883
 30
0.0
 41
100.0
 42
100.0
 43
100.0
 50
270.0
  0
INSERT
  5
16615
330
16547
100
AcDbEntity
  8
0
  6
ByBlock
 62
     0
 48
50.0
100
AcDbBlockReference
  2
_DOTSMALL
 10
8022.099402858048
 20
6982.497424545886
 30
0.0
 41
100.0
 42
100.0
 43
100.0
 50
90.0
  0
MTEXT
  5
16616
330
16547
100
AcDbEntity
  8
0
  6
ByBlock
 62
     7
 48
50.0
100
AcDbMText
 10
7922.099402858048
 20
6604.635957641026
 30
0.0
 40
120.0
 41
0.0
 71
     5
 72
     1
  1
\A1;55
  7
STYLE1
 11
0.0000000000000001
 21
1.0
 31
0.0
 73
     1
 44
1.0
1001
ACAD
1000
MTEXTBEGIN
1070
    73
1070
     1
1070
    44
1040
1.0
1070
    74
1070
     0
1000
MTEXTEND
  0
POINT
  5
16617
330
16547
100
AcDbEntity
  8
DEFPOINTS
  6
ByBlock
 62
     0
 48
50.0
100
AcDbPoint
 10
7374.673057123638
 20
7037.497424545883
 30
0.0
  0
POINT
  5
16618
330
16547
100
AcDbEntity
  8
DEFPOINTS
  6
ByBlock
 62
     0
 48
50.0
100
AcDbPoint
 10
7374.673057123638
 20
6982.497424545887
 30
0.0
  0
POINT
  5
16619
330
16547
100
AcDbEntity
  8
DEFPOINTS
  6
ByBlock
 62
     0
 48
50.0
100
AcDbPoint
 10
8022.099402858048
 20
6982.497424545886
 30
0.0
  0
ENDBLK
  5
1661A
330
16547
100
AcDbEntity
  8
0
 48
50.0
100
AcDbBlockEnd
  0
BLOCK
  5
1661B
330
16555
100
AcDbEntity
  8
0
 48
50.0
100
AcDbBlockBegin
  2
*D12
 70
     1
 10
0.0
 20
0.0
 30
0.0
  3
*D12
  1

  0
LINE
  5
17DCA
330
16555
100
AcDbEntity
  8
寸法
 62
     0
 48
50.0
370
    -2
100
AcDbLine
 10
4379.673057123663
 20
9632.4974245458
 30
0.0
 11
4379.673057123663
 21
10188.3056441709
 31
0.0
  0
LINE
  5
17DCB
330
16555
100
AcDbEntity
  8
寸法
 62
     0
 48
50.0
370
    -2
100
AcDbLine
 10
7319.673057123664
 20
9632.497424545896
 30
0.0
 11
7319.673057123664
 21
10188.3056441709
 31
0.0
  0
LINE
  5
17DCC
330
16555
100
AcDbEntity
  8
寸法
 62
     0
 48
50.0
370
    -2
100
AcDbLine
 10
4379.673057123663
 20
10128.3056441709
 30
0.0
 11
7319.673057123664
 21
10128.3056441709
 31
0.0
  0
INSERT
  5
17DCD
330
16555
100
AcDbEntity
  8
寸法
 62
     0
 48
50.0
370
    -2
100
AcDbBlockReference
  2
_DOTSMALL
 10
4379.673057123663
 20
10128.3056441709
 30
0.0
 41
100.0
 42
100.0
 43
100.0
 50
180.0
  0
INSERT
  5
17DCE
330
16555
100
AcDbEntity
  8
寸法
 62
     0
 48
50.0
370
    -2
100
AcDbBlockReference
  2
_DOTSMALL
 10
7319.673057123664
 20
10128.3056441709
 30
0.0
 41
100.0
 42
100.0
 43
100.0
  0
MTEXT
  5
17DCF
330
16555
100
AcDbEntity
  8
寸法
 62
     7
 48
50.0
100
AcDbMText
 10
5849.673057123664
 20
10228.31745519452
 30
0.0
 40
120.0
 41
0.0
 71
     5
 72
     1
  1
\A1;7X420=2940
  7
STYLE1
 73
     1
 44
1.0
1001
ACAD
1000
MTEXTBEGIN
1070
    73
1070
     1
1070
    44
1040
1.0
1070
    74
1070
     0
1000
MTEXTEND
  0
POINT
  5
17DD0
330
16555
100
AcDbEntity
  8
DEFPOINTS
 62
     0
 48
50.0
100
AcDbPoint
 10
4379.673057123663
 20
9612.4974245458
 30
0.0
  0
POINT
  5
17DD1
330
16555
100
AcDbEntity
  8
DEFPOINTS
 62
     0
 48
50.0
100
AcDbPoint
 10
7319.673057123664
 20
9612.497424545894
 30
0.0
  0
POINT
  5
17DD2
330
16555
100
AcDbEntity
  8
DEFPOINTS
 62
     0
 48
50.0
100
AcDbPoint
 10
7319.673057123664
 20
10128.3056441709
 30
0.0
  0
ENDBLK
  5
16625
330
16555
100
AcDbEntity
  8
0
 48
50.0
100
AcDbBlockEnd
  0
BLOCK
  5
16626
330
16561
100
AcDbEntity
  8
0
 48
50.0
100
AcDbBlockBegin
  2
*D13
 70
     1
 10
0.0
 20
0.0
 30
0.0
  3
*D13
  1

  0
LINE
  5
17838
330
16561
100
AcDbEntity
  8
寸法
 62
     0
 48
50.0
370
    -2
100
AcDbLine
 10
4324.673057123628
 20
9632.4974245458
 30
0.0
 11
4324.673057123628
 21
10188.30564417078
 31
0.0
  0
LINE
  5
17839
330
16561
100
AcDbEntity
  8
寸法
 62
     0
 48
50.0
370
    -2
100
AcDbLine
 10
4379.673057123663
 20
9632.4974245458
 30
0.0
 11
4379.673057123663
 21
10188.30564417078
 31
0.0
  0
LINE
  5
1783A
330
16561
100
AcDbEntity
  8
寸法
 62
     0
 48
50.0
370
    -2
100
AcDbLine
 10
4379.673057123663
 20
10128.30564417078
 30
0.0
 11
4479.673057123663
 21
10128.30564417078
 31
0.0
  0
LINE
  5
1783B
330
16561
100
AcDbEntity
  8
寸法
 62
     0
 48
50.0
370
    -2
100
AcDbLine
 10
4324.673057123628
 20
10128.30564417078
 30
0.0
 11
3907.702494375151
 21
10128.30564417078
 31
0.0
  0
LINE
  5
1783C
330
16561
100
AcDbEntity
  8
寸法
 62
     0
 48
50.0
370
    -2
100
AcDbLine
 10
4379.673057123663
 20
10128.30564417078
 30
0.0
 11
4324.673057123628
 21
10128.30564417078
 31
0.0
  0
INSERT
  5
1783D
330
16561
100
AcDbEntity
  8
寸法
 62
     0
 48
50.0
370
    -2
100
AcDbBlockReference
  2
_DOTSMALL
 10
4379.673057123663
 20
10128.30564417078
 30
0.0
 41
100.0
 42
100.0
 43
100.0
 50
180.0
  0
INSERT
  5
1783E
330
16561
100
AcDbEntity
  8
寸法
 62
     0
 48
50.0
370
    -2
100
AcDbBlockReference
  2
_DOTSMALL
 10
4324.673057123628
 20
10128.30564417078
 30
0.0
 41
100.0
 42
100.0
 43
100.0
  0
MTEXT
  5
1783F
330
16561
100
AcDbEntity
  8
寸法
 62
     7
 48
50.0
100
AcDbMText
 10
4016.187775749389
 20
10228.30564417078
 30
0.0
 40
120.0
 41
0.0
 71
     5
 72
     1
  1
\A1;55
  7
STYLE1
 73
     1
 44
1.0
1001
ACAD
1000
MTEXTBEGIN
1070
    73
1070
     1
1070
    44
1040
1.0
1070
    74
1070
     0
1000
MTEXTEND
  0
POINT
  5
17840
330
16561
100
AcDbEntity
  8
DEFPOINTS
 62
     0
 48
50.0
100
AcDbPoint
 10
4324.673057123628
 20
9612.4974245458
 30
0.0
  0
POINT
  5
17841
330
16561
100
AcDbEntity
  8
DEFPOINTS
 62
     0
 48
50.0
100
AcDbPoint
 10
4379.673057123663
 20
9612.4974245458
 30
0.0
  0
POINT
  5
17842
330
16561
100
AcDbEntity
  8
DEFPOINTS
 62
     0
 48
50.0
100
AcDbPoint
 10
4379.673057123663
 20
10128.30564417078
 30
0.0
  0
ENDBLK
  5
16632
330
16561
100
AcDbEntity
  8
0
 48
50.0
100
AcDbBlockEnd
  0
BLOCK
  5
16633
330
1656F
100
AcDbEntity
  8
0
 48
50.0
100
AcDbBlockBegin
  2
*D14
 70
     1
 10
0.0
 20
0.0
 30
0.0
  3
*D14
  1

  0
LINE
  5
16634
330
1656F
100
AcDbEntity
  8
0
  6
ByBlock
 62
     0
 48
50.0
100
AcDbLine
 10
7394.673057123664
 20
10452.49742454589
 30
0.0
 11
8082.099402858075
 21
10452.49742454589
 31
0.0
  0
LINE
  5
16635
330
1656F
100
AcDbEntity
  8
0
  6
ByBlock
 62
     0
 48
50.0
100
AcDbLine
 10
7394.673057123664
 20
10397.4974245459
 30
0.0
 11
8082.099402858075
 21
10397.4974245459
 31
0.0
  0
LINE
  5
16636
330
1656F
100
AcDbEntity
  8
0
  6
ByBlock
 62
     0
 48
50.0
100
AcDbLine
 10
8022.099402858072
 20
10397.4974245459
 30
0.0
 11
8022.099402858072
 21
10297.4974245459
 31
0.0
  0
LINE
  5
16637
330
1656F
100
AcDbEntity
  8
0
  6
ByBlock
 62
     0
 48
50.0
100
AcDbLine
 10
8022.099402858072
 20
10452.49742454589
 30
0.0
 11
8022.099402858072
 21
10869.46798729437
 31
0.0
  0
LINE
  5
16638
330
1656F
100
AcDbEntity
  8
0
  6
ByBlock
 62
     0
 48
50.0
100
AcDbLine
 10
8022.099402858072
 20
10397.4974245459
 30
0.0
 11
8022.099402858072
 21
10452.49742454589
 31
0.0
  0
INSERT
  5
16639
330
1656F
100
AcDbEntity
  8
0
  6
ByBlock
 62
     0
 48
50.0
100
AcDbBlockReference
  2
_DOTSMALL
 10
8022.099402858072
 20
10397.4974245459
 30
0.0
 41
100.0
 42
100.0
 43
100.0
 50
90.0
  0
INSERT
  5
1663A
330
1656F
100
AcDbEntity
  8
0
  6
ByBlock
 62
     0
 48
50.0
100
AcDbBlockReference
  2
_DOTSMALL
 10
8022.099402858072
 20
10452.49742454589
 30
0.0
 41
100.0
 42
100.0
 43
100.0
 50
270.0
  0
MTEXT
  5
1663B
330
1656F
100
AcDbEntity
  8
0
  6
ByBlock
 62
     7
 48
50.0
100
AcDbMText
 10
7922.099402858073
 20
10760.98270592013
 30
0.0
 40
120.0
 41
0.0
 71
     5
 72
     1
  1
\A1;55
  7
STYLE1
 11
0.0000000000000001
 21
1.0
 31
0.0
 73
     1
 44
1.0
1001
ACAD
1000
MTEXTBEGIN
1070
    73
1070
     1
1070
    44
1040
1.0
1070
    74
1070
     0
1000
MTEXTEND
  0
POINT
  5
1663C
330
1656F
100
AcDbEntity
  8
DEFPOINTS
  6
ByBlock
 62
     0
 48
50.0
100
AcDbPoint
 10
7374.673057123664
 20
10452.49742454589
 30
0.0
  0
POINT
  5
1663D
330
1656F
100
AcDbEntity
  8
DEFPOINTS
  6
ByBlock
 62
     0
 48
50.0
100
AcDbPoint
 10
7374.673057123664
 20
10397.4974245459
 30
0.0
  0
POINT
  5
1663E
330
1656F
100
AcDbEntity
  8
DEFPOINTS
  6
ByBlock
 62
     0
 48
50.0
100
AcDbPoint
 10
8022.099402858072
 20
10397.4974245459
 30
0.0
  0
ENDBLK
  5
1663F
330
1656F
100
AcDbEntity
  8
0
 48
50.0
100
AcDbBlockEnd
  0
BLOCK
  5
16640
330
1657D
100
AcDbEntity
  8
0
 48
50.0
100
AcDbBlockBegin
  2
*D15
 70
     1
 10
0.0
 20
0.0
 30
0.0
  3
*D15
  1

  0
LINE
  5
1782D
330
1657D
100
AcDbEntity
  8
寸法
 62
     0
 48
50.0
370
    -2
100
AcDbLine
 10
7319.673057123664
 20
9632.497424545896
 30
0.0
 11
7319.673057123664
 21
10188.30564417088
 31
0.0
  0
LINE
  5
1782E
330
1657D
100
AcDbEntity
  8
寸法
 62
     0
 48
50.0
370
    -2
100
AcDbLine
 10
7374.673057123664
 20
9632.497424545896
 30
0.0
 11
7374.673057123664
 21
10188.30564417088
 31
0.0
  0
LINE
  5
1782F
330
1657D
100
AcDbEntity
  8
寸法
 62
     0
 48
50.0
370
    -2
100
AcDbLine
 10
7319.673057123664
 20
10128.30564417088
 30
0.0
 11
7219.673057123664
 21
10128.30564417088
 31
0.0
  0
LINE
  5
17830
330
1657D
100
AcDbEntity
  8
寸法
 62
     0
 48
50.0
370
    -2
100
AcDbLine
 10
7374.673057123664
 20
10128.30564417088
 30
0.0
 11
7791.643619872141
 21
10128.30564417088
 31
0.0
  0
LINE
  5
17831
330
1657D
100
AcDbEntity
  8
寸法
 62
     0
 48
50.0
370
    -2
100
AcDbLine
 10
7319.673057123664
 20
10128.30564417088
 30
0.0
 11
7374.673057123664
 21
10128.30564417088
 31
0.0
  0
INSERT
  5
17832
330
1657D
100
AcDbEntity
  8
寸法
 62
     0
 48
50.0
370
    -2
100
AcDbBlockReference
  2
_DOTSMALL
 10
7319.673057123664
 20
10128.30564417088
 30
0.0
 41
100.0
 42
100.0
 43
100.0
  0
INSERT
  5
17833
330
1657D
100
AcDbEntity
  8
寸法
 62
     0
 48
50.0
370
    -2
100
AcDbBlockReference
  2
_DOTSMALL
 10
7374.673057123664
 20
10128.30564417088
 30
0.0
 41
100.0
 42
100.0
 43
100.0
 50
180.0
  0
MTEXT
  5
17834
330
1657D
100
AcDbEntity
  8
寸法
 62
     7
 48
50.0
100
AcDbMText
 10
7683.158338497903
 20
10228.30564417088
 30
0.0
 40
120.0
 41
0.0
 71
     5
 72
     1
  1
\A1;55
  7
STYLE1
 73
     1
 44
1.0
1001
ACAD
1000
MTEXTBEGIN
1070
    73
1070
     1
1070
    44
1040
1.0
1070
    74
1070
     0
1000
MTEXTEND
  0
POINT
  5
17835
330
1657D
100
AcDbEntity
  8
DEFPOINTS
 62
     0
 48
50.0
100
AcDbPoint
 10
7319.673057123664
 20
9612.497424545894
 30
0.0
  0
POINT
  5
17836
330
1657D
100
AcDbEntity
  8
DEFPOINTS
 62
     0
 48
50.0
100
AcDbPoint
 10
7374.673057123664
 20
9612.497424545894
 30
0.0
  0
POINT
  5
17837
330
1657D
100
AcDbEntity
  8
DEFPOINTS
 62
     0
 48
50.0
100
AcDbPoint
 10
7374.673057123664
 20
10128.30564417088
 30
0.0
  0
ENDBLK
  5
1664C
330
1657D
100
AcDbEntity
  8
0
 48
50.0
100
AcDbBlockEnd
  0
BLOCK
  5
1664D
330
1658B
100
AcDbEntity
  8
0
 48
50.0
100
AcDbBlockBegin
  2
*D16
 70
     1
 10
0.0
 20
0.0
 30
0.0
  3
*D16
  1

  0
LINE
  5
1664E
330
1658B
100
AcDbEntity
  8
0
  6
ByBlock
 62
     0
 48
50.0
100
AcDbLine
 10
7366.173057123664
 20
10417.13844069727
 30
0.0
 11
7761.530782985689
 21
10311.20265733113
 31
0.0
  0
LINE
  5
1664F
330
1658B
100
AcDbEntity
  8
0
  6
ByBlock
 62
     0
 48
50.0
100
AcDbLine
 10
7366.173057123664
 20
9967.138440697276
 30
0.0
 11
7761.530782985689
 21
9861.202657331141
 31
0.0
  0
LINE
  5
16650
330
1658B
100
AcDbEntity
  8
0
  6
ByBlock
 62
     0
 48
50.0
100
AcDbLine
 10
7701.530782985688
 20
10327.279608877
 30
0.0
 11
7701.530782985688
 21
9877.279608877008
 31
0.0
  0
INSERT
  5
16651
330
1658B
100
AcDbEntity
  8
0
  6
ByBlock
 62
     0
 48
50.0
100
AcDbBlockReference
  2
_DOTSMALL
 10
7701.530782985688
 20
10327.279608877
 30
0.0
 41
100.0
 42
100.0
 43
100.0
 50
90.0
  0
INSERT
  5
16652
330
1658B
100
AcDbEntity
  8
0
  6
ByBlock
 62
     0
 48
50.0
100
AcDbBlockReference
  2
_DOTSMALL
 10
7701.530782985688
 20
9877.279608877008
 30
0.0
 41
100.0
 42
100.0
 43
100.0
 50
270.0
  0
MTEXT
  5
16653
330
1658B
100
AcDbEntity
  8
0
  6
ByBlock
 62
     7
 48
50.0
100
AcDbMText
 10
7601.530782985688
 20
10102.279608877
 30
0.0
 40
120.0
 41
0.0
 71
     5
 72
     1
  1
\A1;450
  7
STYLE1
 11
0.0000000000000001
 21
1.0
 31
0.0
 73
     1
 44
1.0
1001
ACAD
1000
MTEXTBEGIN
1070
    73
1070
     1
1070
    44
1040
1.0
1070
    74
1070
     0
1000
MTEXTEND
  0
POINT
  5
16654
330
1658B
100
AcDbEntity
  8
DEFPOINTS
  6
ByBlock
 62
     0
 48
50.0
100
AcDbPoint
 10
7346.173057123664
 20
10422.49742454589
 30
0.0
  0
POINT
  5
16655
330
1658B
100
AcDbEntity
  8
DEFPOINTS
  6
ByBlock
 62
     0
 48
50.0
100
AcDbPoint
 10
7346.173057123664
 20
9972.497424545899
 30
0.0
  0
POINT
  5
16656
330
1658B
100
AcDbEntity
  8
DEFPOINTS
  6
ByBlock
 62
     0
 48
50.0
100
AcDbPoint
 10
7701.530782985688
 20
9877.279608877008
 30
0.0
  0
ENDBLK
  5
16657
330
1658B
100
AcDbEntity
  8
0
 48
50.0
100
AcDbBlockEnd
  0
BLOCK
  5
16DD8
330
16DCE
100
AcDbEntity
  8
0
 48
50.0
100
AcDbBlockBegin
  2
*D17
 70
     1
 10
0.0
 20
0.0
 30
0.0
  3
*D17
  1

  0
LINE
  5
1719A
330
16DCE
100
AcDbEntity
  8
寸法
 62
     0
 48
50.0
370
    -2
100
AcDbLine
 10
9290.470438931135
 20
2537.931598713255
 30
0.0
 11
8106.720309747876
 21
2537.931598713255
 31
0.0
  0
LINE
  5
1719B
330
16DCE
100
AcDbEntity
  8
寸法
 62
     0
 48
50.0
370
    -2
100
AcDbLine
 10
9230.470438931135
 20
4912.931598713261
 30
0.0
 11
8106.720309747876
 21
4912.931598713261
 31
0.0
  0
LINE
  5
1719C
330
16DCE
100
AcDbEntity
  8
寸法
 62
     0
 48
50.0
370
    -2
100
AcDbLine
 10
8166.720309747876
 20
2537.931598713255
 30
0.0
 11
8166.720309747876
 21
4912.931598713261
 31
0.0
  0
INSERT
  5
1719D
330
16DCE
100
AcDbEntity
  8
寸法
 62
     0
 48
50.0
370
    -2
100
AcDbBlockReference
  2
_DOTSMALL
 10
8166.720309747876
 20
2537.931598713255
 30
0.0
 41
100.0
 42
100.0
 43
100.0
 50
270.0
  0
INSERT
  5
1719E
330
16DCE
100
AcDbEntity
  8
寸法
 62
     0
 48
50.0
370
    -2
100
AcDbBlockReference
  2
_DOTSMALL
 10
8166.720309747876
 20
4912.931598713261
 30
0.0
 41
100.0
 42
100.0
 43
100.0
 50
90.0
  0
MTEXT
  5
1719F
330
16DCE
100
AcDbEntity
  8
寸法
 62
     7
 48
50.0
100
AcDbMText
 10
8066.708498724253
 20
3725.43159871326
 30
0.0
 40
120.0
 41
0.0
 71
     5
 72
     1
  1
\A1;2375
  7
STYLE1
 11
0.0000000000000001
 21
1.0
 31
0.0
 73
     1
 44
1.0
1001
ACAD
1000
MTEXTBEGIN
1070
    73
1070
     1
1070
    44
1040
1.0
1070
    74
1070
     0
1000
MTEXTEND
  0
POINT
  5
171A0
330
16DCE
100
AcDbEntity
  8
DEFPOINTS
 62
     0
 48
50.0
100
AcDbPoint
 10
9310.470438931135
 20
2537.931598713255
 30
0.0
  0
POINT
  5
171A1
330
16DCE
100
AcDbEntity
  8
DEFPOINTS
 62
     0
 48
50.0
100
AcDbPoint
 10
9250.470438931136
 20
4912.931598713261
 30
0.0
  0
POINT
  5
171A2
330
16DCE
100
AcDbEntity
  8
DEFPOINTS
 62
     0
 48
50.0
100
AcDbPoint
 10
8166.720309747876
 20
4912.931598713261
 30
0.0
  0
ENDBLK
  5
16DD9
330
16DCE
100
AcDbEntity
  8
0
 48
50.0
100
AcDbBlockEnd
  0
BLOCK
  5
16DE5
330
16DDA
100
AcDbEntity
  8
0
 48
50.0
100
AcDbBlockBegin
  2
*D18
 70
     1
 10
0.0
 20
0.0
 30
0.0
  3
*D18
  1

  0
LINE
  5
17190
330
16DDA
100
AcDbEntity
  8
寸法
 62
     0
 48
50.0
370
    -2
100
AcDbLine
 10
9249.874725222239
 20
4912.229305782923
 30
0.0
 11
8633.940286116951
 21
4929.943456057253
 31
0.0
  0
LINE
  5
17191
330
16DDA
100
AcDbEntity
  8
寸法
 62
     0
 48
50.0
370
    -2
100
AcDbLine
 10
9245.821269665611
 20
4771.287582017209
 30
0.0
 11
8629.886830560325
 21
4789.001732291539
 31
0.0
  0
LINE
  5
17192
330
16DDA
100
AcDbEntity
  8
寸法
 62
     0
 48
50.0
370
    -2
100
AcDbLine
 10
8689.862032162757
 20
4787.276857586592
 30
0.0
 11
8693.915487719383
 21
4928.218581352306
 31
0.0
  0
LINE
  5
17193
330
16DDA
100
AcDbEntity
  8
寸法
 62
     0
 48
50.0
370
    -2
100
AcDbLine
 10
8693.915487719383
 20
4928.218581352306
 30
0.0
 11
8704.264735949067
 21
5288.069790966892
 31
0.0
  0
INSERT
  5
17194
330
16DDA
100
AcDbEntity
  8
寸法
 62
     0
 48
50.0
370
    -2
100
AcDbBlockReference
  2
_DOTSMALL
 10
8689.862032162757
 20
4787.276857586592
 30
0.0
 41
100.0
 42
100.0
 43
100.0
 50
268.3526390256378
  0
INSERT
  5
17195
330
16DDA
100
AcDbEntity
  8
寸法
 62
     0
 48
50.0
370
    -2
100
AcDbBlockReference
  2
_DOTSMALL
 10
8693.915487719383
 20
4928.218581352306
 30
0.0
 41
100.0
 42
100.0
 43
100.0
 50
88.35263902563776
  0
MTEXT
  5
17196
330
16DDA
100
AcDbEntity
  8
寸法
 62
     7
 48
50.0
100
AcDbMText
 10
8600.568838084296
 20
5160.998312003204
 30
0.0
 40
120.0
 41
0.0
 71
     5
 72
     1
  1
\A1;141
  7
STYLE1
 11
0.0287479117491237
 21
0.9995866933738488
 31
0.0
 73
     1
 44
1.0
1001
ACAD
1000
MTEXTBEGIN
1070
    73
1070
     1
1070
    44
1040
1.0
1070
    74
1070
     0
1000
MTEXTEND
  0
POINT
  5
17197
330
16DDA
100
AcDbEntity
  8
DEFPOINTS
 62
     0
 48
50.0
100
AcDbPoint
 10
9269.866459089715
 20
4911.654347547941
 30
0.0
  0
POINT
  5
17198
330
16DDA
100
AcDbEntity
  8
DEFPOINTS
 62
     0
 48
50.0
100
AcDbPoint
 10
9265.813003533088
 20
4770.712623782228
 30
0.0
  0
POINT
  5
17199
330
16DDA
100
AcDbEntity
  8
DEFPOINTS
 62
     0
 48
50.0
100
AcDbPoint
 10
8689.862032162757
 20
4787.276857586592
 30
0.0
  0
ENDBLK
  5
16DE6
330
16DDA
100
AcDbEntity
  8
0
 48
50.0
100
AcDbBlockEnd
  0
BLOCK
  5
16DF3
330
16DE7
100
AcDbEntity
  8
0
 48
50.0
100
AcDbBlockBegin
  2
*D19
 70
     1
 10
0.0
 20
0.0
 30
0.0
  3
*D19
  1

  0
LINE
  5
17185
330
16DE7
100
AcDbEntity
  8
寸法
 62
     0
 48
50.0
370
    -2
100
AcDbLine
 10
9310.470438931135
 20
4928.933216836238
 30
0.0
 11
9310.470438931135
 21
5371.589052292566
 31
0.0
  0
LINE
  5
17186
330
16DE7
100
AcDbEntity
  8
寸法
 62
     0
 48
50.0
370
    -2
100
AcDbLine
 10
9250.470438931136
 20
4932.931598713267
 30
0.0
 11
9250.470438931136
 21
5371.589052292566
 31
0.0
  0
LINE
  5
17187
330
16DE7
100
AcDbEntity
  8
寸法
 62
     0
 48
50.0
370
    -2
100
AcDbLine
 10
9310.470438931135
 20
5311.589052292566
 30
0.0
 11
9410.470438931135
 21
5311.589052292566
 31
0.0
  0
LINE
  5
17188
330
16DE7
100
AcDbEntity
  8
寸法
 62
     0
 48
50.0
370
    -2
100
AcDbLine
 10
9250.470438931136
 20
5311.589052292566
 30
0.0
 11
8831.194848379956
 21
5311.589052292566
 31
0.0
  0
LINE
  5
17189
330
16DE7
100
AcDbEntity
  8
寸法
 62
     0
 48
50.0
370
    -2
100
AcDbLine
 10
9310.470438931135
 20
5311.589052292566
 30
0.0
 11
9250.470438931136
 21
5311.589052292566
 31
0.0
  0
INSERT
  5
1718A
330
16DE7
100
AcDbEntity
  8
寸法
 62
     0
 48
50.0
370
    -2
100
AcDbBlockReference
  2
_DOTSMALL
 10
9310.470438931135
 20
5311.589052292566
 30
0.0
 41
100.0
 42
100.0
 43
100.0
 50
180.0
  0
INSERT
  5
1718B
330
16DE7
100
AcDbEntity
  8
寸法
 62
     0
 48
50.0
370
    -2
100
AcDbBlockReference
  2
_DOTSMALL
 10
9250.470438931136
 20
5311.589052292566
 30
0.0
 41
100.0
 42
100.0
 43
100.0
  0
MTEXT
  5
1718C
330
16DE7
100
AcDbEntity
  8
寸法
 62
     7
 48
50.0
100
AcDbMText
 10
8940.832643655545
 20
5411.589052292566
 30
0.0
 40
120.0
 41
0.0
 71
     5
 72
     1
  1
\A1;60
  7
STYLE1
 73
     1
 44
1.0
1001
ACAD
1000
MTEXTBEGIN
1070
    73
1070
     1
1070
    44
1040
1.0
1070
    74
1070
     0
1000
MTEXTEND
  0
POINT
  5
1718D
330
16DE7
100
AcDbEntity
  8
DEFPOINTS
 62
     0
 48
50.0
100
AcDbPoint
 10
9310.470438931135
 20
4908.933216836238
 30
0.0
  0
POINT
  5
1718E
330
16DE7
100
AcDbEntity
  8
DEFPOINTS
 62
     0
 48
50.0
100
AcDbPoint
 10
9250.470438931136
 20
4912.931598713267
 30
0.0
  0
POINT
  5
1718F
330
16DE7
100
AcDbEntity
  8
DEFPOINTS
 62
     0
 48
50.0
100
AcDbPoint
 10
9250.470438931136
 20
5311.589052292566
 30
0.0
  0
ENDBLK
  5
16DF4
330
16DE7
100
AcDbEntity
  8
0
 48
50.0
100
AcDbBlockEnd
  0
BLOCK
  5
16DFF
330
16DF5
100
AcDbEntity
  8
0
 48
50.0
100
AcDbBlockBegin
  2
*D20
 70
     1
 10
0.0
 20
0.0
 30
0.0
  3
*D20
  1

  0
LINE
  5
17DAB
330
16DF5
100
AcDbEntity
  8
寸法
 62
     0
 48
50.0
370
    -2
100
AcDbLine
 10
11940.47043893114
 20
4879.742278324915
 30
0.0
 11
11940.47043893114
 21
5371.589052292567
 31
0.0
  0
LINE
  5
17DAC
330
16DF5
100
AcDbEntity
  8
寸法
 62
     0
 48
50.0
370
    -2
100
AcDbLine
 10
9310.470438931135
 20
4928.933216836238
 30
0.0
 11
9310.470438931135
 21
5371.589052292567
 31
0.0
  0
LINE
  5
17DAD
330
16DF5
100
AcDbEntity
  8
寸法
 62
     0
 48
50.0
370
    -2
100
AcDbLine
 10
11940.47043893114
 20
5311.589052292568
 30
0.0
 11
9310.470438931135
 21
5311.589052292568
 31
0.0
  0
INSERT
  5
17DAE
330
16DF5
100
AcDbEntity
  8
寸法
 62
     0
 48
50.0
370
    -2
100
AcDbBlockReference
  2
_DOTSMALL
 10
11940.47043893114
 20
5311.589052292568
 30
0.0
 41
100.0
 42
100.0
 43
100.0
  0
INSERT
  5
17DAF
330
16DF5
100
AcDbEntity
  8
寸法
 62
     0
 48
50.0
370
    -2
100
AcDbBlockReference
  2
_DOTSMALL
 10
9310.470438931135
 20
5311.589052292568
 30
0.0
 41
100.0
 42
100.0
 43
100.0
 50
180.0
  0
MTEXT
  5
17DB0
330
16DF5
100
AcDbEntity
  8
寸法
 62
     7
 48
50.0
100
AcDbMText
 10
10625.47043893113
 20
5411.600863316189
 30
0.0
 40
120.0
 41
0.0
 71
     5
 72
     1
  1
\A1;柱外寸法2630
  7
STYLE1
 73
     1
 44
1.0
1001
ACAD
1000
MTEXTBEGIN
1070
    73
1070
     1
1070
    44
1040
1.0
1070
    74
1070
     0
1000
MTEXTEND
  0
POINT
  5
17DB1
330
16DF5
100
AcDbEntity
  8
DEFPOINTS
 62
     0
 48
50.0
100
AcDbPoint
 10
11940.47043893114
 20
4859.742278324915
 30
0.0
  0
POINT
  5
17DB2
330
16DF5
100
AcDbEntity
  8
DEFPOINTS
 62
     0
 48
50.0
100
AcDbPoint
 10
9310.470438931135
 20
4908.933216836238
 30
0.0
  0
POINT
  5
17DB3
330
16DF5
100
AcDbEntity
  8
DEFPOINTS
 62
     0
 48
50.0
100
AcDbPoint
 10
9310.470438931135
 20
5311.589052292568
 30
0.0
  0
ENDBLK
  5
16E00
330
16DF5
100
AcDbEntity
  8
0
 48
50.0
100
AcDbBlockEnd
  0
BLOCK
  5
16E0B
330
16E01
100
AcDbEntity
  8
0
 48
50.0
100
AcDbBlockBegin
  2
*D21
 70
     1
 10
0.0
 20
0.0
 30
0.0
  3
*D21
  1

  0
LINE
  5
17DA2
330
16E01
100
AcDbEntity
  8
寸法
 62
     0
 48
50.0
370
    -2
100
AcDbLine
 10
12020.47043893114
 20
4877.931598713264
 30
0.0
 11
12020.47043893114
 21
5591.799739024184
 31
0.0
  0
LINE
  5
17DA3
330
16E01
100
AcDbEntity
  8
寸法
 62
     0
 48
50.0
370
    -2
100
AcDbLine
 10
9250.470438931136
 20
4932.931598713267
 30
0.0
 11
9250.470438931136
 21
5591.799739024184
 31
0.0
  0
LINE
  5
17DA4
330
16E01
100
AcDbEntity
  8
寸法
 62
     0
 48
50.0
370
    -2
100
AcDbLine
 10
12020.47043893114
 20
5531.799739024183
 30
0.0
 11
9250.470438931136
 21
5531.799739024183
 31
0.0
  0
INSERT
  5
17DA5
330
16E01
100
AcDbEntity
  8
寸法
 62
     0
 48
50.0
370
    -2
100
AcDbBlockReference
  2
_DOTSMALL
 10
12020.47043893114
 20
5531.799739024183
 30
0.0
 41
100.0
 42
100.0
 43
100.0
  0
INSERT
  5
17DA6
330
16E01
100
AcDbEntity
  8
寸法
 62
     0
 48
50.0
370
    -2
100
AcDbBlockReference
  2
_DOTSMALL
 10
9250.470438931136
 20
5531.799739024183
 30
0.0
 41
100.0
 42
100.0
 43
100.0
 50
180.0
  0
MTEXT
  5
17DA7
330
16E01
100
AcDbEntity
  8
寸法
 62
     7
 48
50.0
100
AcDbMText
 10
10635.47043893114
 20
5631.811550047805
 30
0.0
 40
120.0
 41
0.0
 71
     5
 72
     1
  1
\A1;2770
  7
STYLE1
 73
     1
 44
1.0
1001
ACAD
1000
MTEXTBEGIN
1070
    73
1070
     1
1070
    44
1040
1.0
1070
    74
1070
     0
1000
MTEXTEND
  0
POINT
  5
17DA8
330
16E01
100
AcDbEntity
  8
DEFPOINTS
 62
     0
 48
50.0
100
AcDbPoint
 10
12020.47043893114
 20
4857.931598713263
 30
0.0
  0
POINT
  5
17DA9
330
16E01
100
AcDbEntity
  8
DEFPOINTS
 62
     0
 48
50.0
100
AcDbPoint
 10
9250.470438931136
 20
4912.931598713267
 30
0.0
  0
POINT
  5
17DAA
330
16E01
100
AcDbEntity
  8
DEFPOINTS
 62
     0
 48
50.0
100
AcDbPoint
 10
9250.470438931136
 20
5531.799739024183
 30
0.0
  0
ENDBLK
  5
16E0C
330
16E01
100
AcDbEntity
  8
0
 48
50.0
100
AcDbBlockEnd
  0
BLOCK
  5
16E18
330
16E0D
100
AcDbEntity
  8
0
 48
50.0
100
AcDbBlockBegin
  2
*D22
 70
     1
 10
0.0
 20
0.0
 30
0.0
  3
*D22
  1

  0
LINE
  5
17169
330
16E0D
100
AcDbEntity
  8
寸法
 62
     0
 48
50.0
370
    -2
100
AcDbLine
 10
11940.47043893114
 20
4879.742278324915
 30
0.0
 11
11940.47043893114
 21
5371.589052292567
 31
0.0
  0
LINE
  5
1716A
330
16E0D
100
AcDbEntity
  8
寸法
 62
     0
 48
50.0
370
    -2
100
AcDbLine
 10
12020.47043893114
 20
4877.931598713264
 30
0.0
 11
12020.47043893114
 21
5371.589052292567
 31
0.0
  0
LINE
  5
1716B
330
16E0D
100
AcDbEntity
  8
寸法
 62
     0
 48
50.0
370
    -2
100
AcDbLine
 10
11940.47043893114
 20
5311.589052292568
 30
0.0
 11
12020.47043893114
 21
5311.589052292568
 31
0.0
  0
LINE
  5
1716C
330
16E0D
100
AcDbEntity
  8
寸法
 62
     0
 48
50.0
370
    -2
100
AcDbLine
 10
12020.47043893114
 20
5311.589052292568
 30
0.0
 11
12332.56492712011
 21
5311.589052292568
 31
0.0
  0
INSERT
  5
1716D
330
16E0D
100
AcDbEntity
  8
寸法
 62
     0
 48
50.0
370
    -2
100
AcDbBlockReference
  2
_DOTSMALL
 10
11940.47043893114
 20
5311.589052292568
 30
0.0
 41
100.0
 42
100.0
 43
100.0
 50
180.0
  0
INSERT
  5
1716E
330
16E0D
100
AcDbEntity
  8
寸法
 62
     0
 48
50.0
370
    -2
100
AcDbBlockReference
  2
_DOTSMALL
 10
12020.47043893114
 20
5311.589052292568
 30
0.0
 41
100.0
 42
100.0
 43
100.0
  0
MTEXT
  5
1716F
330
16E0D
100
AcDbEntity
  8
寸法
 62
     7
 48
50.0
100
AcDbMText
 10
12226.51768302562
 20
5411.589052292567
 30
0.0
 40
120.0
 41
0.0
 71
     5
 72
     1
  1
\A1;80
  7
STYLE1
 73
     1
 44
1.0
1001
ACAD
1000
MTEXTBEGIN
1070
    73
1070
     1
1070
    44
1040
1.0
1070
    74
1070
     0
1000
MTEXTEND
  0
POINT
  5
17170
330
16E0D
100
AcDbEntity
  8
DEFPOINTS
 62
     0
 48
50.0
100
AcDbPoint
 10
11940.47043893114
 20
4859.742278324915
 30
0.0
  0
POINT
  5
17171
330
16E0D
100
AcDbEntity
  8
DEFPOINTS
 62
     0
 48
50.0
100
AcDbPoint
 10
12020.47043893114
 20
4857.931598713263
 30
0.0
  0
POINT
  5
17172
330
16E0D
100
AcDbEntity
  8
DEFPOINTS
 62
     0
 48
50.0
100
AcDbPoint
 10
12020.47043893114
 20
5311.589052292568
 30
0.0
  0
ENDBLK
  5
16E19
330
16E0D
100
AcDbEntity
  8
0
 48
50.0
100
AcDbBlockEnd
  0
BLOCK
  5
16E24
330
16E1A
100
AcDbEntity
  8
0
 48
50.0
100
AcDbBlockBegin
  2
*D23
 70
     1
 10
0.0
 20
0.0
 30
0.0
  3
*D23
  1

  0
LINE
  5
17DB8
330
16E1A
100
AcDbEntity
  8
寸法
 62
     0
 48
50.0
370
    -2
100
AcDbLine
 10
4274.673057123651
 20
4932.931598713267
 30
0.0
 11
4274.673057123651
 21
5406.378484445255
 31
0.0
  0
LINE
  5
17DB9
330
16E1A
100
AcDbEntity
  8
寸法
 62
     0
 48
50.0
370
    -2
100
AcDbLine
 10
7424.673057123666
 20
4932.931598713264
 30
0.0
 11
7424.673057123666
 21
5406.378484445255
 31
0.0
  0
LINE
  5
17DBA
330
16E1A
100
AcDbEntity
  8
寸法
 62
     0
 48
50.0
370
    -2
100
AcDbLine
 10
4274.673057123651
 20
5346.378484445256
 30
0.0
 11
7424.673057123666
 21
5346.378484445256
 31
0.0
  0
INSERT
  5
17DBB
330
16E1A
100
AcDbEntity
  8
寸法
 62
     0
 48
50.0
370
    -2
100
AcDbBlockReference
  2
_DOTSMALL
 10
4274.673057123651
 20
5346.378484445256
 30
0.0
 41
100.0
 42
100.0
 43
100.0
 50
180.0
  0
INSERT
  5
17DBC
330
16E1A
100
AcDbEntity
  8
寸法
 62
     0
 48
50.0
370
    -2
100
AcDbBlockReference
  2
_DOTSMALL
 10
7424.673057123666
 20
5346.378484445256
 30
0.0
 41
100.0
 42
100.0
 43
100.0
  0
MTEXT
  5
17DBD
330
16E1A
100
AcDbEntity
  8
寸法
 62
     7
 48
50.0
100
AcDbMText
 10
5849.673057123658
 20
5446.378484445256
 30
0.0
 40
120.0
 41
0.0
 71
     5
 72
     1
  1
\A1;3150
  7
STYLE1
 73
     1
 44
1.0
1001
ACAD
1000
MTEXTBEGIN
1070
    73
1070
     1
1070
    44
1040
1.0
1070
    74
1070
     0
1000
MTEXTEND
  0
POINT
  5
17DBE
330
16E1A
100
AcDbEntity
  8
DEFPOINTS
 62
     0
 48
50.0
100
AcDbPoint
 10
4274.673057123651
 20
4912.931598713267
 30
0.0
  0
POINT
  5
17DBF
330
16E1A
100
AcDbEntity
  8
DEFPOINTS
 62
     0
 48
50.0
100
AcDbPoint
 10
7424.673057123666
 20
4912.931598713264
 30
0.0
  0
POINT
  5
17DC0
330
16E1A
100
AcDbEntity
  8
DEFPOINTS
 62
     0
 48
50.0
100
AcDbPoint
 10
7424.673057123666
 20
5346.378484445256
 30
0.0
  0
ENDBLK
  5
16E25
330
16E1A
100
AcDbEntity
  8
0
 48
50.0
100
AcDbBlockEnd
  0
BLOCK
  5
16E32
330
16E26
100
AcDbEntity
  8
0
 48
50.0
100
AcDbBlockBegin
  2
*D24
 70
     1
 10
0.0
 20
0.0
 30
0.0
  3
*D24
  1

  0
LINE
  5
17155
330
16E26
100
AcDbEntity
  8
寸法
 62
     0
 48
50.0
370
    -2
100
AcDbLine
 10
7424.673057123666
 20
4932.931598713264
 30
0.0
 11
7424.673057123666
 21
5185.473183971505
 31
0.0
  0
LINE
  5
17156
330
16E26
100
AcDbEntity
  8
寸法
 62
     0
 48
50.0
370
    -2
100
AcDbLine
 10
7374.673057123665
 20
4932.931598713266
 30
0.0
 11
7374.673057123665
 21
5185.473183971505
 31
0.0
  0
LINE
  5
17157
330
16E26
100
AcDbEntity
  8
寸法
 62
     0
 48
50.0
370
    -2
100
AcDbLine
 10
7374.673057123665
 20
5125.473183971505
 30
0.0
 11
7274.673057123665
 21
5125.473183971505
 31
0.0
  0
LINE
  5
17158
330
16E26
100
AcDbEntity
  8
寸法
 62
     0
 48
50.0
370
    -2
100
AcDbLine
 10
7424.673057123666
 20
5125.473183971505
 30
0.0
 11
7844.20558259239
 21
5125.473183971505
 31
0.0
  0
LINE
  5
17159
330
16E26
100
AcDbEntity
  8
寸法
 62
     0
 48
50.0
370
    -2
100
AcDbLine
 10
7374.673057123665
 20
5125.473183971505
 30
0.0
 11
7424.673057123666
 21
5125.473183971505
 31
0.0
  0
INSERT
  5
1715A
330
16E26
100
AcDbEntity
  8
寸法
 62
     0
 48
50.0
370
    -2
100
AcDbBlockReference
  2
_DOTSMALL
 10
7374.673057123665
 20
5125.473183971505
 30
0.0
 41
100.0
 42
100.0
 43
100.0
  0
INSERT
  5
1715B
330
16E26
100
AcDbEntity
  8
寸法
 62
     0
 48
50.0
370
    -2
100
AcDbBlockReference
  2
_DOTSMALL
 10
7424.673057123666
 20
5125.473183971505
 30
0.0
 41
100.0
 42
100.0
 43
100.0
 50
180.0
  0
MTEXT
  5
1715C
330
16E26
100
AcDbEntity
  8
寸法
 62
     7
 48
50.0
100
AcDbMText
 10
7738.158338497902
 20
5225.473183971505
 30
0.0
 40
120.0
 41
0.0
 71
     5
 72
     1
  1
\A1;50
  7
STYLE1
 73
     1
 44
1.0
1001
ACAD
1000
MTEXTBEGIN
1070
    73
1070
     1
1070
    44
1040
1.0
1070
    74
1070
     0
1000
MTEXTEND
  0
POINT
  5
1715D
330
16E26
100
AcDbEntity
  8
DEFPOINTS
 62
     0
 48
50.0
100
AcDbPoint
 10
7424.673057123666
 20
4912.931598713264
 30
0.0
  0
POINT
  5
1715E
330
16E26
100
AcDbEntity
  8
DEFPOINTS
 62
     0
 48
50.0
100
AcDbPoint
 10
7374.673057123665
 20
4912.931598713266
 30
0.0
  0
POINT
  5
1715F
330
16E26
100
AcDbEntity
  8
DEFPOINTS
 62
     0
 48
50.0
100
AcDbPoint
 10
7374.673057123665
 20
5125.473183971505
 30
0.0
  0
ENDBLK
  5
16E33
330
16E26
100
AcDbEntity
  8
0
 48
50.0
100
AcDbBlockEnd
  0
BLOCK
  5
16E40
330
16E34
100
AcDbEntity
  8
0
 48
50.0
100
AcDbBlockBegin
  2
*D25
 70
     1
 10
0.0
 20
0.0
 30
0.0
  3
*D25
  1

  0
LINE
  5
1714A
330
16E34
100
AcDbEntity
  8
寸法
 62
     0
 48
50.0
370
    -2
100
AcDbLine
 10
4324.673057123651
 20
4932.931598713269
 30
0.0
 11
4324.673057123651
 21
5185.473183971506
 31
0.0
  0
LINE
  5
1714B
330
16E34
100
AcDbEntity
  8
寸法
 62
     0
 48
50.0
370
    -2
100
AcDbLine
 10
4274.673057123651
 20
4932.931598713267
 30
0.0
 11
4274.673057123651
 21
5185.473183971506
 31
0.0
  0
LINE
  5
1714C
330
16E34
100
AcDbEntity
  8
寸法
 62
     0
 48
50.0
370
    -2
100
AcDbLine
 10
4324.673057123651
 20
5125.473183971506
 30
0.0
 11
4424.67305712365
 21
5125.473183971506
 31
0.0
  0
LINE
  5
1714D
330
16E34
100
AcDbEntity
  8
寸法
 62
     0
 48
50.0
370
    -2
100
AcDbLine
 10
4274.673057123651
 20
5125.473183971506
 30
0.0
 11
3855.140531654916
 21
5125.473183971506
 31
0.0
  0
LINE
  5
1714E
330
16E34
100
AcDbEntity
  8
寸法
 62
     0
 48
50.0
370
    -2
100
AcDbLine
 10
4324.673057123651
 20
5125.473183971506
 30
0.0
 11
4274.673057123651
 21
5125.473183971506
 31
0.0
  0
INSERT
  5
1714F
330
16E34
100
AcDbEntity
  8
寸法
 62
     0
 48
50.0
370
    -2
100
AcDbBlockReference
  2
_DOTSMALL
 10
4324.673057123651
 20
5125.473183971506
 30
0.0
 41
100.0
 42
100.0
 43
100.0
 50
180.0
  0
INSERT
  5
17150
330
16E34
100
AcDbEntity
  8
寸法
 62
     0
 48
50.0
370
    -2
100
AcDbBlockReference
  2
_DOTSMALL
 10
4274.673057123651
 20
5125.473183971506
 30
0.0
 41
100.0
 42
100.0
 43
100.0
  0
MTEXT
  5
17151
330
16E34
100
AcDbEntity
  8
寸法
 62
     7
 48
50.0
100
AcDbMText
 10
3961.187775749404
 20
5225.473183971506
 30
0.0
 40
120.0
 41
0.0
 71
     5
 72
     1
  1
\A1;50
  7
STYLE1
 73
     1
 44
1.0
1001
ACAD
1000
MTEXTBEGIN
1070
    73
1070
     1
1070
    44
1040
1.0
1070
    74
1070
     0
1000
MTEXTEND
  0
POINT
  5
17152
330
16E34
100
AcDbEntity
  8
DEFPOINTS
 62
     0
 48
50.0
100
AcDbPoint
 10
4324.673057123651
 20
4912.931598713268
 30
0.0
  0
POINT
  5
17153
330
16E34
100
AcDbEntity
  8
DEFPOINTS
 62
     0
 48
50.0
100
AcDbPoint
 10
4274.673057123651
 20
4912.931598713267
 30
0.0
  0
POINT
  5
17154
330
16E34
100
AcDbEntity
  8
DEFPOINTS
 62
     0
 48
50.0
100
AcDbPoint
 10
4274.673057123651
 20
5125.473183971506
 30
0.0
  0
ENDBLK
  5
16E41
330
16E34
100
AcDbEntity
  8
0
 48
50.0
100
AcDbBlockEnd
  0
BLOCK
  5
16E4C
330
16E42
100
AcDbEntity
  8
0
 48
50.0
100
AcDbBlockBegin
  2
*D26
 70
     1
 10
0.0
 20
0.0
 30
0.0
  3
*D26
  1

  0
LINE
  5
17DC1
330
16E42
100
AcDbEntity
  8
寸法
 62
     0
 48
50.0
370
    -2
100
AcDbLine
 10
7374.673057123665
 20
4932.931598713266
 30
0.0
 11
7374.673057123665
 21
5185.473183971506
 31
0.0
  0
LINE
  5
17DC2
330
16E42
100
AcDbEntity
  8
寸法
 62
     0
 48
50.0
370
    -2
100
AcDbLine
 10
4324.673057123651
 20
4932.931598713269
 30
0.0
 11
4324.673057123651
 21
5185.473183971506
 31
0.0
  0
LINE
  5
17DC3
330
16E42
100
AcDbEntity
  8
寸法
 62
     0
 48
50.0
370
    -2
100
AcDbLine
 10
7374.673057123665
 20
5125.473183971506
 30
0.0
 11
4324.673057123651
 21
5125.473183971506
 31
0.0
  0
INSERT
  5
17DC4
330
16E42
100
AcDbEntity
  8
寸法
 62
     0
 48
50.0
370
    -2
100
AcDbBlockReference
  2
_DOTSMALL
 10
7374.673057123665
 20
5125.473183971506
 30
0.0
 41
100.0
 42
100.0
 43
100.0
  0
INSERT
  5
17DC5
330
16E42
100
AcDbEntity
  8
寸法
 62
     0
 48
50.0
370
    -2
100
AcDbBlockReference
  2
_DOTSMALL
 10
4324.673057123651
 20
5125.473183971506
 30
0.0
 41
100.0
 42
100.0
 43
100.0
 50
180.0
  0
MTEXT
  5
17DC6
330
16E42
100
AcDbEntity
  8
寸法
 62
     7
 48
50.0
100
AcDbMText
 10
5849.673057123658
 20
5225.473183971506
 30
0.0
 40
120.0
 41
0.0
 71
     5
 72
     1
  1
\A1;柱外寸法3050
  7
STYLE1
 73
     1
 44
1.0
1001
ACAD
1000
MTEXTBEGIN
1070
    73
1070
     1
1070
    44
1040
1.0
1070
    74
1070
     0
1000
MTEXTEND
  0
POINT
  5
17DC7
330
16E42
100
AcDbEntity
  8
DEFPOINTS
 62
     0
 48
50.0
100
AcDbPoint
 10
7374.673057123665
 20
4912.931598713266
 30
0.0
  0
POINT
  5
17DC8
330
16E42
100
AcDbEntity
  8
DEFPOINTS
 62
     0
 48
50.0
100
AcDbPoint
 10
4324.673057123651
 20
4912.931598713268
 30
0.0
  0
POINT
  5
17DC9
330
16E42
100
AcDbEntity
  8
DEFPOINTS
 62
     0
 48
50.0
100
AcDbPoint
 10
4324.673057123651
 20
5125.473183971506
 30
0.0
  0
ENDBLK
  5
16E4D
330
16E42
100
AcDbEntity
  8
0
 48
50.0
100
AcDbBlockEnd
  0
BLOCK
  5
16F5C
330
16F52
100
AcDbEntity
  8
0
 48
50.0
100
AcDbBlockBegin
  2
*D27
 70
     1
 10
0.0
 20
0.0
 30
0.0
  3
*D27
  1

  0
LINE
  5
170F4
330
16F52
100
AcDbEntity
  8
寸法
 62
     0
 48
50.0
370
    -2
100
AcDbLine
 10
11960.47043893114
 20
2537.931598713262
 30
0.0
 11
12705.39759690326
 21
2537.931598713262
 31
0.0
  0
LINE
  5
170F5
330
16F52
100
AcDbEntity
  8
寸法
 62
     0
 48
50.0
370
    -2
100
AcDbLine
 10
12055.47043893113
 20
4857.931598713261
 30
0.0
 11
12705.39759690326
 21
4857.931598713261
 31
0.0
  0
LINE
  5
170F6
330
16F52
100
AcDbEntity
  8
寸法
 62
     0
 48
50.0
370
    -2
100
AcDbLine
 10
12645.39759690326
 20
2537.931598713262
 30
0.0
 11
12645.39759690326
 21
4857.931598713261
 31
0.0
  0
INSERT
  5
170F7
330
16F52
100
AcDbEntity
  8
寸法
 62
     0
 48
50.0
370
    -2
100
AcDbBlockReference
  2
_DOTSMALL
 10
12645.39759690326
 20
2537.931598713262
 30
0.0
 41
100.0
 42
100.0
 43
100.0
 50
270.0
  0
INSERT
  5
170F8
330
16F52
100
AcDbEntity
  8
寸法
 62
     0
 48
50.0
370
    -2
100
AcDbBlockReference
  2
_DOTSMALL
 10
12645.39759690326
 20
4857.931598713261
 30
0.0
 41
100.0
 42
100.0
 43
100.0
 50
90.0
  0
MTEXT
  5
170F9
330
16F52
100
AcDbEntity
  8
寸法
 62
     7
 48
50.0
100
AcDbMText
 10
12545.38578587964
 20
3692.931598713261
 30
0.0
 40
120.0
 41
0.0
 71
     5
 72
     1
  1
\A1;2320
  7
STYLE1
 11
0.0000000000000001
 21
1.0
 31
0.0
 73
     1
 44
1.0
1001
ACAD
1000
MTEXTBEGIN
1070
    73
1070
     1
1070
    44
1040
1.0
1070
    74
1070
     0
1000
MTEXTEND
  0
POINT
  5
170FA
330
16F52
100
AcDbEntity
  8
DEFPOINTS
 62
     0
 48
50.0
100
AcDbPoint
 10
11940.47043893114
 20
2537.931598713262
 30
0.0
  0
POINT
  5
170FB
330
16F52
100
AcDbEntity
  8
DEFPOINTS
 62
     0
 48
50.0
100
AcDbPoint
 10
12035.47043893113
 20
4857.931598713261
 30
0.0
  0
POINT
  5
170FC
330
16F52
100
AcDbEntity
  8
DEFPOINTS
 62
     0
 48
50.0
100
AcDbPoint
 10
12645.39759690326
 20
4857.931598713261
 30
0.0
  0
ENDBLK
  5
16F5D
330
16F52
100
AcDbEntity
  8
0
 48
50.0
100
AcDbBlockEnd
  0
BLOCK
  5
16F6A
330
16F5E
100
AcDbEntity
  8
0
 48
50.0
100
AcDbBlockBegin
  2
*D28
 70
     1
 10
0.0
 20
0.0
 30
0.0
  3
*D28
  1

  0
LINE
  5
170E9
330
16F5E
100
AcDbEntity
  8
寸法
 62
     0
 48
50.0
370
    -2
100
AcDbLine
 10
9290.470438931139
 20
2587.931598713261
 30
0.0
 11
8406.72030974788
 21
2587.931598713262
 31
0.0
  0
LINE
  5
170EA
330
16F5E
100
AcDbEntity
  8
寸法
 62
     0
 48
50.0
370
    -2
100
AcDbLine
 10
9235.470438931139
 20
2537.931598713262
 30
0.0
 11
8406.72030974788
 21
2537.931598713262
 31
0.0
  0
LINE
  5
170EB
330
16F5E
100
AcDbEntity
  8
寸法
 62
     0
 48
50.0
370
    -2
100
AcDbLine
 10
8466.720309747881
 20
2587.931598713262
 30
0.0
 11
8466.720309747881
 21
2687.931598713262
 31
0.0
  0
LINE
  5
170EC
330
16F5E
100
AcDbEntity
  8
寸法
 62
     0
 48
50.0
370
    -2
100
AcDbLine
 10
8466.720309747881
 20
2537.931598713262
 30
0.0
 11
8466.720309747881
 21
2048.134354618772
 31
0.0
  0
LINE
  5
170ED
330
16F5E
100
AcDbEntity
  8
寸法
 62
     0
 48
50.0
370
    -2
100
AcDbLine
 10
8466.720309747881
 20
2587.931598713262
 30
0.0
 11
8466.720309747881
 21
2537.931598713262
 31
0.0
  0
INSERT
  5
170EE
330
16F5E
100
AcDbEntity
  8
寸法
 62
     0
 48
50.0
370
    -2
100
AcDbBlockReference
  2
_DOTSMALL
 10
8466.720309747881
 20
2587.931598713262
 30
0.0
 41
100.0
 42
100.0
 43
100.0
 50
270.0
  0
INSERT
  5
170EF
330
16F5E
100
AcDbEntity
  8
寸法
 62
     0
 48
50.0
370
    -2
100
AcDbBlockReference
  2
_DOTSMALL
 10
8466.720309747881
 20
2537.931598713262
 30
0.0
 41
100.0
 42
100.0
 43
100.0
 50
90.0
  0
MTEXT
  5
170F0
330
16F5E
100
AcDbEntity
  8
寸法
 62
     7
 48
50.0
100
AcDbMText
 10
8366.720309747881
 20
2154.181598713261
 30
0.0
 40
120.0
 41
0.0
 71
     5
 72
     1
  1
\A1;50
  7
STYLE1
 11
0.0000000000000001
 21
1.0
 31
0.0
 73
     1
 44
1.0
1001
ACAD
1000
MTEXTBEGIN
1070
    73
1070
     1
1070
    44
1040
1.0
1070
    74
1070
     0
1000
MTEXTEND
  0
POINT
  5
170F1
330
16F5E
100
AcDbEntity
  8
DEFPOINTS
 62
     0
 48
50.0
100
AcDbPoint
 10
9310.470438931139
 20
2587.931598713261
 30
0.0
  0
POINT
  5
170F2
330
16F5E
100
AcDbEntity
  8
DEFPOINTS
 62
     0
 48
50.0
100
AcDbPoint
 10
9255.470438931139
 20
2537.931598713262
 30
0.0
  0
POINT
  5
170F3
330
16F5E
100
AcDbEntity
  8
DEFPOINTS
 62
     0
 48
50.0
100
AcDbPoint
 10
8466.720309747881
 20
2537.931598713262
 30
0.0
  0
ENDBLK
  5
16F6B
330
16F5E
100
AcDbEntity
  8
0
 48
50.0
100
AcDbBlockEnd
  0
BLOCK
  5
16F77
330
16F6C
100
AcDbEntity
  8
0
 48
50.0
100
AcDbBlockBegin
  2
*D29
 70
     1
 10
0.0
 20
0.0
 30
0.0
  3
*D29
  1

  0
LINE
  5
170DF
330
16F6C
100
AcDbEntity
  8
寸法
 62
     0
 48
50.0
370
    -2
100
AcDbLine
 10
9235.470438931139
 20
2537.931598713262
 30
0.0
 11
8106.720309747881
 21
2537.931598713262
 31
0.0
  0
LINE
  5
170E0
330
16F6C
100
AcDbEntity
  8
寸法
 62
     0
 48
50.0
370
    -2
100
AcDbLine
 10
8233.969363036008
 20
2437.931598713261
 30
0.0
 11
8106.720309747881
 21
2437.931598713261
 31
0.0
  0
LINE
  5
170E1
330
16F6C
100
AcDbEntity
  8
寸法
 62
     0
 48
50.0
370
    -2
100
AcDbLine
 10
8166.72030974788
 20
2537.931598713262
 30
0.0
 11
8166.72030974788
 21
2437.931598713261
 31
0.0
  0
LINE
  5
170E2
330
16F6C
100
AcDbEntity
  8
寸法
 62
     0
 48
50.0
370
    -2
100
AcDbLine
 10
8166.72030974788
 20
2437.931598713261
 30
0.0
 11
8166.72030974788
 21
1886.884354618772
 31
0.0
  0
INSERT
  5
170E3
330
16F6C
100
AcDbEntity
  8
寸法
 62
     0
 48
50.0
370
    -2
100
AcDbBlockReference
  2
_DOTSMALL
 10
8166.72030974788
 20
2537.931598713262
 30
0.0
 41
100.0
 42
100.0
 43
100.0
 50
90.0
  0
INSERT
  5
170E4
330
16F6C
100
AcDbEntity
  8
寸法
 62
     0
 48
50.0
370
    -2
100
AcDbBlockReference
  2
_DOTSMALL
 10
8166.72030974788
 20
2437.931598713261
 30
0.0
 41
100.0
 42
100.0
 43
100.0
 50
270.0
  0
MTEXT
  5
170E5
330
16F6C
100
AcDbEntity
  8
寸法
 62
     7
 48
50.0
100
AcDbMText
 10
8066.72030974788
 20
2022.931598713261
 30
0.0
 40
120.0
 41
0.0
 71
     5
 72
     1
  1
\A1;100
  7
STYLE1
 11
0.0000000000000001
 21
1.0
 31
0.0
 73
     1
 44
1.0
1001
ACAD
1000
MTEXTBEGIN
1070
    73
1070
     1
1070
    44
1040
1.0
1070
    74
1070
     0
1000
MTEXTEND
  0
POINT
  5
170E6
330
16F6C
100
AcDbEntity
  8
DEFPOINTS
 62
     0
 48
50.0
100
AcDbPoint
 10
9255.470438931139
 20
2537.931598713262
 30
0.0
  0
POINT
  5
170E7
330
16F6C
100
AcDbEntity
  8
DEFPOINTS
 62
     0
 48
50.0
100
AcDbPoint
 10
8253.969363036008
 20
2437.931598713261
 30
0.0
  0
POINT
  5
170E8
330
16F6C
100
AcDbEntity
  8
DEFPOINTS
 62
     0
 48
50.0
100
AcDbPoint
 10
8166.72030974788
 20
2437.931598713261
 30
0.0
  0
ENDBLK
  5
16F78
330
16F6C
100
AcDbEntity
  8
0
 48
50.0
100
AcDbBlockEnd
  0
BLOCK
  5
16F83
330
16F79
100
AcDbEntity
  8
0
 48
50.0
100
AcDbBlockBegin
  2
*D30
 70
     1
 10
0.0
 20
0.0
 30
0.0
  3
*D30
  1

  0
LINE
  5
170D6
330
16F79
100
AcDbEntity
  8
寸法
 62
     0
 48
50.0
370
    -2
100
AcDbLine
 10
9290.470438931139
 20
4677.931598713261
 30
0.0
 11
8406.72030974788
 21
4677.931598713261
 31
0.0
  0
LINE
  5
170D7
330
16F79
100
AcDbEntity
  8
寸法
 62
     0
 48
50.0
370
    -2
100
AcDbLine
 10
9290.470438931139
 20
2587.931598713261
 30
0.0
 11
8406.72030974788
 21
2587.931598713262
 31
0.0
  0
LINE
  5
170D8
330
16F79
100
AcDbEntity
  8
寸法
 62
     0
 48
50.0
370
    -2
100
AcDbLine
 10
8466.720309747882
 20
4677.931598713261
 30
0.0
 11
8466.720309747881
 21
2587.931598713262
 31
0.0
  0
INSERT
  5
170D9
330
16F79
100
AcDbEntity
  8
寸法
 62
     0
 48
50.0
370
    -2
100
AcDbBlockReference
  2
_DOTSMALL
 10
8466.720309747882
 20
4677.931598713261
 30
0.0
 41
100.0
 42
100.0
 43
100.0
 50
90.0
  0
INSERT
  5
170DA
330
16F79
100
AcDbEntity
  8
寸法
 62
     0
 48
50.0
370
    -2
100
AcDbBlockReference
  2
_DOTSMALL
 10
8466.720309747881
 20
2587.931598713262
 30
0.0
 41
100.0
 42
100.0
 43
100.0
 50
270.0
  0
MTEXT
  5
170DB
330
16F79
100
AcDbEntity
  8
寸法
 62
     7
 48
50.0
100
AcDbMText
 10
8366.708498724257
 20
3632.931598713263
 30
0.0
 40
120.0
 41
0.0
 71
     5
 72
     1
  1
\A1;2090
  7
STYLE1
 11
0.0000000000000001
 21
1.0
 31
0.0
 73
     1
 44
1.0
1001
ACAD
1000
MTEXTBEGIN
1070
    73
1070
     1
1070
    44
1040
1.0
1070
    74
1070
     0
1000
MTEXTEND
  0
POINT
  5
170DC
330
16F79
100
AcDbEntity
  8
DEFPOINTS
 62
     0
 48
50.0
100
AcDbPoint
 10
9310.470438931139
 20
4677.931598713261
 30
0.0
  0
POINT
  5
170DD
330
16F79
100
AcDbEntity
  8
DEFPOINTS
 62
     0
 48
50.0
100
AcDbPoint
 10
9310.470438931139
 20
2587.931598713261
 30
0.0
  0
POINT
  5
170DE
330
16F79
100
AcDbEntity
  8
DEFPOINTS
 62
     0
 48
50.0
100
AcDbPoint
 10
8466.720309747881
 20
2587.931598713262
 30
0.0
  0
ENDBLK
  5
16F84
330
16F79
100
AcDbEntity
  8
0
 48
50.0
100
AcDbBlockEnd
  0
BLOCK
  5
17A26
330
17A1C
100
AcDbEntity
  8
0
 48
50.0
100
AcDbBlockBegin
  2
*D31
 70
     1
 10
0.0
 20
0.0
 30
0.0
  3
*D31
  1

  0
LINE
  5
17AE7
330
17A1C
100
AcDbEntity
  8
寸法
 62
     0
 48
50.0
370
    -2
100
AcDbLine
 10
7394.673057123657
 20
2599.931598713262
 30
0.0
 11
7722.216159445403
 21
2599.931598713262
 31
0.0
  0
LINE
  5
17AE8
330
17A1C
100
AcDbEntity
  8
寸法
 62
     0
 48
50.0
370
    -2
100
AcDbLine
 10
7394.673057123657
 20
4485.93159871326
 30
0.0
 11
7722.216159445403
 21
4485.93159871326
 31
0.0
  0
LINE
  5
17AE9
330
17A1C
100
AcDbEntity
  8
寸法
 62
     0
 48
50.0
370
    -2
100
AcDbLine
 10
7662.216159445403
 20
2599.931598713262
 30
0.0
 11
7662.216159445403
 21
4485.93159871326
 31
0.0
  0
INSERT
  5
17AEA
330
17A1C
100
AcDbEntity
  8
寸法
 62
     0
 48
50.0
370
    -2
100
AcDbBlockReference
  2
_DOTSMALL
 10
7662.216159445403
 20
2599.931598713262
 30
0.0
 41
100.0
 42
100.0
 43
100.0
 50
270.0
  0
INSERT
  5
17AEB
330
17A1C
100
AcDbEntity
  8
寸法
 62
     0
 48
50.0
370
    -2
100
AcDbBlockReference
  2
_DOTSMALL
 10
7662.216159445403
 20
4485.93159871326
 30
0.0
 41
100.0
 42
100.0
 43
100.0
 50
90.0
  0
MTEXT
  5
17AEC
330
17A1C
100
AcDbEntity
  8
寸法
 62
     7
 48
50.0
100
AcDbMText
 10
7562.216159445402
 20
3542.931598713263
 30
0.0
 40
120.0
 41
0.0
 71
     5
 72
     1
  1
\A1;有効開口部高サ 1886
  7
STYLE1
 11
0.0000000000000001
 21
1.0
 31
0.0
 73
     1
 44
1.0
1001
ACAD
1000
MTEXTBEGIN
1070
    73
1070
     1
1070
    44
1040
1.0
1070
    74
1070
     0
1000
MTEXTEND
  0
POINT
  5
17AED
330
17A1C
100
AcDbEntity
  8
DEFPOINTS
 62
     0
 48
50.0
100
AcDbPoint
 10
7374.673057123657
 20
2599.931598713262
 30
0.0
  0
POINT
  5
17AEE
330
17A1C
100
AcDbEntity
  8
DEFPOINTS
 62
     0
 48
50.0
100
AcDbPoint
 10
7374.673057123658
 20
4485.93159871326
 30
0.0
  0
POINT
  5
17AEF
330
17A1C
100
AcDbEntity
  8
DEFPOINTS
 62
     0
 48
50.0
100
AcDbPoint
 10
7662.216159445403
 20
4485.93159871326
 30
0.0
  0
ENDBLK
  5
17A27
330
17A1C
100
AcDbEntity
  8
0
 48
50.0
100
AcDbBlockEnd
  0
BLOCK
  5
17A34
330
17A28
100
AcDbEntity
  8
0
 48
50.0
100
AcDbBlockBegin
  2
*D32
 70
     1
 10
0.0
 20
0.0
 30
0.0
  3
*D32
  1

  0
LINE
  5
17DE6
330
17A28
100
AcDbEntity
  8
寸法
 62
     0
 48
50.0
370
    -2
100
AcDbLine
 10
7394.673057123657
 20
4485.93159871326
 30
0.0
 11
7722.216159445403
 21
4485.93159871326
 31
0.0
  0
LINE
  5
17DE7
330
17A28
100
AcDbEntity
  8
寸法
 62
     0
 48
50.0
370
    -2
100
AcDbLine
 10
7394.673057123656
 20
4512.931598713263
 30
0.0
 11
7722.216159445403
 21
4512.931598713263
 31
0.0
  0
LINE
  5
17DE8
330
17A28
100
AcDbEntity
  8
寸法
 62
     0
 48
50.0
370
    -2
100
AcDbLine
 10
7662.216159445403
 20
4485.93159871326
 30
0.0
 11
7662.216159445403
 21
4385.93159871326
 31
0.0
  0
LINE
  5
17DE9
330
17A28
100
AcDbEntity
  8
寸法
 62
     0
 48
50.0
370
    -2
100
AcDbLine
 10
7662.216159445403
 20
4512.931598713263
 30
0.0
 11
7662.216159445403
 21
4612.931598713263
 31
0.0
  0
MTEXT
  5
17DEA
330
17A28
100
AcDbEntity
  8
寸法
 62
     7
 48
50.0
100
AcDbMText
 10
7802.385982691768
 20
4513.89879855292
 30
0.0
 40
120.0
 41
0.0
 71
     5
 72
     1
  1
\A1;27
  7
STYLE1
 11
0.0000000000000001
 21
1.0
 31
0.0
 73
     1
 44
1.0
1001
ACAD
1000
MTEXTBEGIN
1070
    73
1070
     1
1070
    44
1040
1.0
1070
    74
1070
     0
1000
MTEXTEND
  0
LINE
  5
17DEB
330
17A28
100
AcDbEntity
  8
寸法
 62
     0
 48
50.0
370
    -2
100
AcDbLine
 10
7662.216159445403
 20
4485.93159871326
 30
0.0
 11
7662.216159445403
 21
4512.931598713263
 31
0.0
  0
INSERT
  5
17DEC
330
17A28
100
AcDbEntity
  8
寸法
 62
     0
 48
50.0
370
    -2
100
AcDbBlockReference
  2
_DOTSMALL
 10
7662.216159445403
 20
4485.93159871326
 30
0.0
 41
100.0
 42
100.0
 43
100.0
 50
90.0
  0
INSERT
  5
17DED
330
17A28
100
AcDbEntity
  8
寸法
 62
     0
 48
50.0
370
    -2
100
AcDbBlockReference
  2
_DOTSMALL
 10
7662.216159445403
 20
4512.931598713263
 30
0.0
 41
100.0
 42
100.0
 43
100.0
 50
270.0
  0
POINT
  5
17DEE
330
17A28
100
AcDbEntity
  8
DEFPOINTS
 62
     0
 48
50.0
100
AcDbPoint
 10
7374.673057123658
 20
4485.93159871326
 30
0.0
  0
POINT
  5
17DEF
330
17A28
100
AcDbEntity
  8
DEFPOINTS
 62
     0
 48
50.0
100
AcDbPoint
 10
7374.673057123655
 20
4512.931598713263
 30
0.0
  0
POINT
  5
17DF0
330
17A28
100
AcDbEntity
  8
DEFPOINTS
 62
     0
 48
50.0
100
AcDbPoint
 10
7662.216159445403
 20
4512.931598713263
 30
0.0
  0
ENDBLK
  5
17A35
330
17A28
100
AcDbEntity
  8
0
 48
50.0
100
AcDbBlockEnd
  0
BLOCK
  5
17A41
330
17A36
100
AcDbEntity
  8
0
 48
50.0
100
AcDbBlockBegin
  2
*D33
 70
     1
 10
0.0
 20
0.0
 30
0.0
  3
*D33
  1

  0
LINE
  5
17DDC
330
17A36
100
AcDbEntity
  8
寸法
 62
     0
 48
50.0
370
    -2
100
AcDbLine
 10
7394.673057123656
 20
4512.931598713263
 30
0.0
 11
7722.216159445403
 21
4512.931598713263
 31
0.0
  0
LINE
  5
17DDD
330
17A36
100
AcDbEntity
  8
寸法
 62
     0
 48
50.0
370
    -2
100
AcDbLine
 10
7394.673057123657
 20
4677.931598713261
 30
0.0
 11
7722.216159445403
 21
4677.931598713261
 31
0.0
  0
LINE
  5
17DDE
330
17A36
100
AcDbEntity
  8
寸法
 62
     0
 48
50.0
370
    -2
100
AcDbLine
 10
7662.216159445404
 20
4512.931598713263
 30
0.0
 11
7662.216159445404
 21
4677.931598713261
 31
0.0
  0
LINE
  5
17DDF
330
17A36
100
AcDbEntity
  8
寸法
 62
     0
 48
50.0
370
    -2
100
AcDbLine
 10
7662.216159445404
 20
4677.931598713261
 30
0.0
 11
7662.216159445404
 21
5054.90216146174
 31
0.0
  0
INSERT
  5
17DE0
330
17A36
100
AcDbEntity
  8
寸法
 62
     0
 48
50.0
370
    -2
100
AcDbBlockReference
  2
_DOTSMALL
 10
7662.216159445404
 20
4512.931598713263
 30
0.0
 41
100.0
 42
100.0
 43
100.0
 50
270.0
  0
INSERT
  5
17DE1
330
17A36
100
AcDbEntity
  8
寸法
 62
     0
 48
50.0
370
    -2
100
AcDbBlockReference
  2
_DOTSMALL
 10
7662.216159445404
 20
4677.931598713261
 30
0.0
 41
100.0
 42
100.0
 43
100.0
 50
90.0
  0
MTEXT
  5
17DE2
330
17A36
100
AcDbEntity
  8
寸法
 62
     7
 48
50.0
100
AcDbMText
 10
7562.216159445402
 20
4916.416880087502
 30
0.0
 40
120.0
 41
0.0
 71
     5
 72
     1
  1
\A1;165
  7
STYLE1
 11
0.0000000000000001
 21
1.0
 31
0.0
 73
     1
 44
1.0
1001
ACAD
1000
MTEXTBEGIN
1070
    73
1070
     1
1070
    44
1040
1.0
1070
    74
1070
     0
1000
MTEXTEND
  0
POINT
  5
17DE3
330
17A36
100
AcDbEntity
  8
DEFPOINTS
 62
     0
 48
50.0
100
AcDbPoint
 10
7374.673057123655
 20
4512.931598713263
 30
0.0
  0
POINT
  5
17DE4
330
17A36
100
AcDbEntity
  8
DEFPOINTS
 62
     0
 48
50.0
100
AcDbPoint
 10
7374.673057123657
 20
4677.931598713261
 30
0.0
  0
POINT
  5
17DE5
330
17A36
100
AcDbEntity
  8
DEFPOINTS
 62
     0
 48
50.0
100
AcDbPoint
 10
7662.216159445404
 20
4677.931598713261
 30
0.0
  0
ENDBLK
  5
17A42
330
17A36
100
AcDbEntity
  8
0
 48
50.0
100
AcDbBlockEnd
  0
ENDSEC
  0
SECTION
  2
ENTITIES
  0
MTEXT
  5
763F
330
747D
100
AcDbEntity
  8
0
100
AcDbMText
 10
302.846345836809
 20
280.1983726409901
 30
0.0
 40
3.5
 41
5.323721266742722
 71
     1
 72
     5
  1

  7
MSMINCHO
 73
     1
 44
1.0
1001
ACAD
1000
MTEXTBEGIN
1070
    73
1070
     1
1070
    44
1040
1.0
1070
    74
1070
     0
1000
MTEXTEND
  0
LINE
  5
10B57
330
747D
100
AcDbEntity
  8
補助
  6
PHANTOM
 62
   230
 48
50.0
100
AcDbLine
 10
139.9999999999995
 20
11409.6
 30
0.0
 11
16307.2
 21
11409.6
 31
0.0
  0
LINE
  5
10B59
330
747D
100
AcDbEntity
  8
仕様書枠
  6
Continuous
 48
50.0
100
AcDbLine
 10
13107.2
 20
1200.0
 30
0.0
 11
13107.2
 21
-0.0000000000000729
 31
0.0
  0
LINE
  5
10B5C
330
747D
100
AcDbEntity
  8
仕様書枠
 48
50.0
100
AcDbLine
 10
16307.2
 20
1200.0
 30
0.0
 11
16307.2
 21
-0.0000000000000909
 31
0.0
  0
LINE
  5
10B5D
330
747D
100
AcDbEntity
  8
仕様書枠
 48
50.0
100
AcDbLine
 10
140.0
 20
0.0
 30
0.0
 11
16307.2
 21
-0.0000000000000909
 31
0.0
  0
LINE
  5
10B5E
330
747D
100
AcDbEntity
  8
補助
  6
PHANTOM
 62
   230
 48
50.0
100
AcDbLine
 10
16307.2
 20
11409.6
 30
0.0
 11
16307.2
 21
1200.0
 31
0.0
  0
LINE
  5
10B6C
330
747D
100
AcDbEntity
  8
仕様書枠
 48
50.0
100
AcDbLine
 10
13107.2
 20
1200.0
 30
0.0
 11
16307.2
 21
1200.0
 31
0.0
  0
LINE
  5
10B6D
330
747D
100
AcDbEntity
  8
補助
  6
PHANTOM
 62
   230
 48
50.0
100
AcDbLine
 10
13107.2
 20
11409.6
 30
0.0
 11
13107.2
 21
4800.0
 31
0.0
  0
LINE
  5
10B6F
330
747D
100
AcDbEntity
  8
補助
  6
PHANTOM
 62
   230
 48
50.0
100
AcDbLine
 10
13107.2
 20
4800.0
 30
0.0
 11
16307.2
 21
4800.0
 31
0.0
  0
LINE
  5
10B72
330
747D
100
AcDbEntity
  8
文字
 62
     7
 48
50.0
100
AcDbLine
 10
13187.2
 20
400.0
 30
0.0
 11
16227.2
 21
400.0
 31
0.0
  0
TEXT
  5
10B73
330
747D
100
AcDbEntity
  8
文字
 62
     7
 48
50.0
100
AcDbText
 10
13162.9790565769
 20
895.0906074299405
 30
0.0
 40
200.0
  1
外 形 図
  7
STYLE2
100
AcDbText
  0
TEXT
  5
10B74
330
747D
100
AcDbEntity
  8
文字
 62
     7
 48
50.0
100
AcDbText
 10
13201.43669998441
 20
477.2740661031255
 30
0.0
 40
160.0
  1
機種名
  7
STYLE2
100
AcDbText
  0
TEXT
  5
10B75
330
747D
100
AcDbEntity
  8
文字
 62
     7
 48
50.0
100
AcDbText
 10
13209.4053442172
 20
228.5435242569016
 30
0.0
 40
100.0
  1
○有効開口寸法 ： 2844×1886(mm)
  7
STYLE2
100
AcDbText
  0
TEXT
  5
10B76
330
747D
100
AcDbEntity
  8
文字
 62
     7
 48
50.0
100
AcDbText
 10
13209.4053442172
 20
76.09434707649343
 30
0.0
 40
100.0
  1
○床面積 ： 8.02㎡(2.43坪) 　
  7
STYLE2
100
AcDbText
  0
TEXT
  5
10B79
330
747D
100
AcDbEntity
  8
文字
 62
     7
 48
50.0
100
AcDbText
 10
14524.131837222
 20
1031.557706291228
 30
0.0
 40
100.0
  1
NO.46      <縮尺> S=1/40
  7
STYLE2
100
AcDbText
  0
LINE
  5
10B7B
330
747D
100
AcDbEntity
  8
仕様書枠
 48
50.0
100
AcDbLine
 10
13107.2
 20
800.0
 30
0.0
 11
14251.2
 21
800.0
 31
0.0
  0
LINE
  5
10B88
330
747D
100
AcDbEntity
  8
仕様書枠
  6
Continuous
 48
50.0
100
AcDbLine
 10
14251.2
 20
1200.0
 30
0.0
 11
14251.2
 21
800.0
 31
0.0
  0
DIMENSION
  5
16452
330
747D
100
AcDbEntity
  8
寸法
100
AcDbDimension
  2
*D1
 10
8387.206344597709
 20
6982.497424545886
 30
0.0
 11
8287.194533574087
 21
8297.497424545891
 31
0.0
 70
    32
 71
     5
 42
-1.0
  3
INABA_S40G
100
AcDbAlignedDimension
 13
7374.673057123664
 23
9612.497424545894
 33
0.0
 14
7374.673057123638
 24
6982.497424545887
 34
0.0
 50
90.0
100
AcDbRotatedDimension
1001
ACAD
1000
DSTYLE
1002
{
1002
}
  0
LINE
  5
16455
330
747D
100
AcDbEntity
  8
部品1
100
AcDbLine
 10
4379.673057123642
 20
9132.497424545801
 30
0.0
 11
4379.673057123656
 21
7047.497424545794
 31
0.0
  0
LINE
  5
16456
330
747D
100
AcDbEntity
  8
部品1
100
AcDbLine
 10
7319.673057123653
 20
9132.497424545901
 30
0.0
 11
7319.67305712364
 21
6982.497424545883
 31
0.0
  0
LINE
  5
16457
330
747D
100
AcDbEntity
  8
部品1
100
AcDbLine
 10
7346.673057123651
 20
9584.497424545894
 30
0.0
 11
7346.673057123641
 21
7037.497424545883
 31
0.0
  0
LINE
  5
16458
330
747D
100
AcDbEntity
  8
部品1
100
AcDbLine
 10
7374.673057123664
 20
9612.497424545894
 30
0.0
 11
7374.673057123638
 21
6982.497424545887
 31
0.0
  0
DIMENSION
  5
16459
330
747D
100
AcDbEntity
  8
寸法
100
AcDbDimension
  2
*D2
 10
8022.099402858072
 20
7037.497424545883
 30
0.0
 11
7922.087591834451
 21
8297.497424545891
 31
0.0
 70
    32
  1
6X420=<>
 71
     5
 42
-1.0
  3
INABA_S40G
100
AcDbAlignedDimension
 13
7374.673057123664
 23
9557.497424545898
 33
0.0
 14
7374.673057123638
 24
7037.497424545883
 34
0.0
 50
90.0
100
AcDbRotatedDimension
1001
ACAD
1000
DSTYLE
1002
{
1002
}
  0
DIMENSION
  5
1645A
330
747D
100
AcDbEntity
  8
寸法
100
AcDbDimension
  2
*D3
 10
7254.149210862353
 20
8789.05975479074
 30
0.0
 11
6387.611213040511
 21
8789.05975479074
 31
0.0
 70
   160
 71
     5
 42
-1.0
  3
INABA_S40G
100
AcDbAlignedDimension
 13
5863.173057123663
 23
9132.497424545906
 33
0.0
 14
7346.173057123675
 24
9132.497424545897
 34
0.0
100
AcDbRotatedDimension
1001
ACAD
1000
DSTYLE
1002
{
1002
}
  0
LINE
  5
1645B
330
747D
100
AcDbEntity
  8
部品1
100
AcDbLine
 10
4324.673057123628
 20
9612.497424545768
 30
0.0
 11
4324.673057123656
 21
6982.497424545757
 31
0.0
  0
LINE
  5
1645C
330
747D
100
AcDbEntity
  8
部品1
100
AcDbLine
 10
4352.673057123638
 20
7037.497424545752
 30
0.0
 11
4352.673057123651
 21
9584.4974245458
 31
0.0
  0
DIMENSION
  5
1645D
330
747D
100
AcDbEntity
  8
寸法
100
AcDbDimension
  2
*D4
 10
5744.149210862353
 20
8789.059754790629
 30
0.0
 11
4940.964360531678
 21
8789.059754790629
 31
0.0
 70
   160
 71
     5
 42
-1.0
  3
INABA_S40G
100
AcDbAlignedDimension
 13
4353.173057123664
 23
9132.4974245458
 33
0.0
 14
5836.173057123676
 24
9132.497424545793
 34
0.0
100
AcDbRotatedDimension
1001
ACAD
1000
DSTYLE
1002
{
1002
}
  0
DIMENSION
  5
1645E
330
747D
100
AcDbEntity
  8
寸法
 48
50.0
100
AcDbDimension
  2
*D5
 10
4427.673057123657
 20
6448.066653779631
 30
0.0
 11
5849.673057123648
 21
6548.078464803253
 31
0.0
 70
    32
  1
有効開口部間口 <>
 71
     5
 42
-1.0
  3
INABA_S40G
100
AcDbAlignedDimension
 13
7271.673057123638
 23
7008.497424545796
 33
0.0
 14
4427.673057123657
 24
7008.497424545796
 34
0.0
100
AcDbRotatedDimension
1001
ACAD
1000
DSTYLE
1002
{
1070
    75
1070
     1
1070
   279
1070
     2
1002
}
  0
LINE
  5
1645F
330
747D
100
AcDbEntity
  8
部品1
 48
50.0
100
AcDbLine
 10
4391.673057123655
 20
7027.997424545795
 30
0.0
 11
7307.67305712364
 21
7027.997424545795
 31
0.0
  0
DIMENSION
  5
16460
330
747D
100
AcDbEntity
  8
寸法
100
AcDbDimension
  2
*D6
 10
7374.673057123638
 20
6161.893658188757
 30
0.0
 11
5849.673057123648
 21
6261.893658188757
 31
0.0
 70
    32
 71
     5
 42
-1.0
  3
INABA_S40G
100
AcDbAlignedDimension
 13
4324.673057123656
 23
6982.497424545724
 33
0.0
 14
7374.673057123638
 24
6982.497424545851
 34
0.0
100
AcDbRotatedDimension
1001
ACAD
1000
DSTYLE
1002
{
1002
}
  0
DIMENSION
  5
16461
330
747D
100
AcDbEntity
  8
寸法
 48
50.0
100
AcDbDimension
  2
*D7
 10
4324.673057123656
 20
6448.066653779631
 30
0.0
 11
4016.187775749417
 21
6448.066653779631
 31
0.0
 70
   160
 71
     5
 42
-1.0
  3
INABA_S40G
100
AcDbAlignedDimension
 13
4379.673057123652
 23
6982.497424545795
 33
0.0
 14
4324.673057123656
 24
6982.497424545792
 34
0.0
100
AcDbRotatedDimension
1001
ACAD
1000
DSTYLE
1002
{
1002
}
  0
DIMENSION
  5
16462
330
747D
100
AcDbEntity
  8
寸法
 48
50.0
100
AcDbDimension
  2
*D8
 10
4379.673057123652
 20
6448.066653779631
 30
0.0
 11
4540.575028123714
 21
6548.066653779631
 31
0.0
 70
   160
 71
     5
 42
-1.0
  3
INABA_S40G
100
AcDbAlignedDimension
 13
4427.673057123657
 23
7008.497424545796
 33
0.0
 14
4379.673057123652
 24
6982.497424545795
 34
0.0
100
AcDbRotatedDimension
1001
ACAD
1000
DSTYLE
1002
{
1070
   279
1070
     2
1002
}
  0
LINE
  5
16463
330
747D
100
AcDbEntity
  8
部品1
100
AcDbLine
 10
4379.673057123652
 20
6982.497424545795
 30
0.0
 11
4324.673057123656
 21
6982.497424545792
 31
0.0
  0
LINE
  5
16464
330
747D
100
AcDbEntity
  8
部品1
 48
50.0
100
AcDbLine
 10
4379.673057123656
 20
7018.497424545795
 30
0.0
 11
4356.673057123656
 21
7018.497424545795
 31
0.0
  0
LINE
  5
16465
330
747D
100
AcDbEntity
  8
部品1
 48
50.0
100
AcDbLine
 10
4389.673057123657
 20
7008.497424545796
 30
0.0
 11
4379.673057123656
 21
6987.497424545795
 31
0.0
  0
LINE
  5
16466
330
747D
100
AcDbEntity
  8
部品1
 48
50.0
100
AcDbLine
 10
4379.673057123656
 20
7047.497424545794
 30
0.0
 11
4379.673057123652
 21
6982.497424545795
 31
0.0
  0
LINE
  5
16467
330
747D
100
AcDbEntity
  8
部品1
 48
50.0
100
AcDbLine
 10
4427.673057123657
 20
7008.497424545796
 30
0.0
 11
4427.673057123657
 21
7017.497424545796
 31
0.0
  0
LINE
  5
16468
330
747D
100
AcDbEntity
  8
部品1
 48
50.0
100
AcDbLine
 10
4427.673057123657
 20
7047.497424545795
 30
0.0
 11
4427.673057123657
 21
7038.497424545797
 31
0.0
  0
LINE
  5
16469
330
747D
100
AcDbEntity
  8
部品1
100
AcDbLine
 10
4427.673057123657
 20
7047.497424545795
 30
0.0
 11
4379.673057123656
 21
7047.497424545795
 31
0.0
  0
LINE
  5
1646A
330
747D
100
AcDbEntity
  8
部品1
100
AcDbLine
 10
4427.673057123657
 20
7008.497424545796
 30
0.0
 11
4379.673057123656
 21
7008.497424545796
 31
0.0
  0
LINE
  5
1646B
330
747D
100
AcDbEntity
  8
部品1
100
AcDbLine
 10
4379.673057123656
 20
7018.497424545795
 30
0.0
 11
4356.673057123656
 21
7018.497424545795
 31
0.0
  0
LINE
  5
1646C
330
747D
100
AcDbEntity
  8
部品1
100
AcDbLine
 10
4379.673057123656
 20
7037.497424545719
 30
0.0
 11
4324.673057123654
 21
7037.497424545719
 31
0.0
  0
LINE
  5
1646D
330
747D
100
AcDbEntity
  8
部品1
100
AcDbLine
 10
4352.673057123638
 20
7037.497424545756
 30
0.0
 11
4324.673057123654
 21
7037.497424545756
 31
0.0
  0
LINE
  5
1646E
330
747D
100
AcDbEntity
  8
部品1
100
AcDbLine
 10
4352.673057123655
 20
7037.497424545771
 30
0.0
 11
4324.673057123654
 21
7037.497424545771
 31
0.0
  0
LINE
  5
1646F
330
747D
100
AcDbEntity
  8
部品1
100
AcDbLine
 10
4324.67305712364
 20
7457.49742454591
 30
0.0
 11
4352.673057123641
 21
7457.49742454591
 31
0.0
  0
LINE
  5
16472
330
747D
100
AcDbEntity
  8
部品1
100
AcDbLine
 10
4324.67305712364
 20
7877.497424545909
 30
0.0
 11
4352.673057123641
 21
7877.497424545909
 31
0.0
  0
LINE
  5
16473
330
747D
100
AcDbEntity
  8
部品1
100
AcDbLine
 10
4324.67305712364
 20
8297.497424545909
 30
0.0
 11
4352.673057123641
 21
8297.497424545909
 31
0.0
  0
LINE
  5
16474
330
747D
100
AcDbEntity
  8
部品1
100
AcDbLine
 10
4352.673057123643
 20
8717.49742454577
 30
0.0
 11
4324.673057123643
 21
8717.49742454577
 31
0.0
  0
DIMENSION
  5
16475
330
747D
100
AcDbEntity
  8
寸法
 48
50.0
100
AcDbDimension
  2
*D9
 10
7271.673057123638
 20
6448.066653779631
 30
0.0
 11
7160.710159474891
 21
6548.066653779631
 31
0.0
 70
   160
 71
     5
 42
-1.0
  3
INABA_S40G
100
AcDbAlignedDimension
 13
7319.67305712364
 23
6982.497424545883
 33
0.0
 14
7271.673057123638
 24
7008.497424545796
 34
0.0
100
AcDbRotatedDimension
1001
ACAD
1000
DSTYLE
1002
{
1070
   279
1070
     2
1002
}
  0
DIMENSION
  5
16476
330
747D
100
AcDbEntity
  8
寸法
 48
50.0
100
AcDbDimension
  2
*D10
 10
7319.67305712364
 20
6448.066653779632
 30
0.0
 11
7683.158338497877
 21
6448.066653779632
 31
0.0
 70
   160
 71
     5
 42
-1.0
  3
INABA_S40G
100
AcDbAlignedDimension
 13
7374.673057123638
 23
6982.497424545887
 33
0.0
 14
7319.67305712364
 24
6982.497424545883
 34
0.0
100
AcDbRotatedDimension
1001
ACAD
1000
DSTYLE
1002
{
1002
}
  0
DIMENSION
  5
16477
330
747D
100
AcDbEntity
  8
寸法
100
AcDbDimension
  2
*D11
 10
8022.099402858048
 20
6982.497424545886
 30
0.0
 11
8022.099402858048
 21
6604.635957641026
 31
0.0
 70
   160
 71
     5
 42
-1.0
  3
INABA_S40G
100
AcDbAlignedDimension
 13
7374.673057123638
 23
7037.497424545883
 33
0.0
 14
7374.673057123638
 24
6982.497424545887
 34
0.0
 50
90.0
100
AcDbRotatedDimension
1001
ACAD
1000
DSTYLE
1002
{
1002
}
  0
LINE
  5
16478
330
747D
100
AcDbEntity
  8
部品1
 48
50.0
100
AcDbLine
 10
7309.673057123639
 20
7008.497424545796
 30
0.0
 11
7319.673057123639
 21
6987.497424545795
 31
0.0
  0
LINE
  5
16479
330
747D
100
AcDbEntity
  8
部品1
100
AcDbLine
 10
7319.673057123639
 20
7018.497424545794
 30
0.0
 11
7342.673057123639
 21
7018.497424545795
 31
0.0
  0
LINE
  5
1647A
330
747D
100
AcDbEntity
  8
部品1
 48
50.0
100
AcDbLine
 10
7271.673057123638
 20
7047.497424545795
 30
0.0
 11
7271.673057123638
 21
7038.497424545797
 31
0.0
  0
LINE
  5
1647B
330
747D
100
AcDbEntity
  8
部品1
100
AcDbLine
 10
7271.673057123638
 20
7047.497424545795
 30
0.0
 11
7319.67305712364
 21
7047.497424545795
 31
0.0
  0
LINE
  5
1647C
330
747D
100
AcDbEntity
  8
部品1
 48
50.0
100
AcDbLine
 10
7271.673057123638
 20
7008.497424545796
 30
0.0
 11
7271.673057123638
 21
7017.497424545796
 31
0.0
  0
LINE
  5
1647D
330
747D
100
AcDbEntity
  8
部品1
100
AcDbLine
 10
7271.673057123638
 20
7008.497424545796
 30
0.0
 11
7319.673057123639
 21
7008.497424545796
 31
0.0
  0
LINE
  5
1647E
330
747D
100
AcDbEntity
  8
部品1
100
AcDbLine
 10
7319.673057123639
 20
7037.497424545898
 30
0.0
 11
7374.673057123671
 21
7037.497424545898
 31
0.0
  0
LINE
  5
1647F
330
747D
100
AcDbEntity
  8
部品1
100
AcDbLine
 10
7374.673057123638
 20
6982.497424545887
 30
0.0
 11
7319.67305712364
 21
6982.497424545885
 31
0.0
  0
LINE
  5
16480
330
747D
100
AcDbEntity
  8
部品1
100
AcDbLine
 10
7346.673057123668
 20
7457.497424545898
 30
0.0
 11
7374.673057123668
 21
7457.497424545898
 31
0.0
  0
LINE
  5
16483
330
747D
100
AcDbEntity
  8
部品1
100
AcDbLine
 10
7346.673057123668
 20
7877.497424545897
 30
0.0
 11
7374.673057123668
 21
7877.497424545897
 31
0.0
  0
LINE
  5
16484
330
747D
100
AcDbEntity
  8
部品1
100
AcDbLine
 10
7346.673057123668
 20
8297.497424545898
 30
0.0
 11
7374.673057123668
 21
8297.497424545898
 31
0.0
  0
LINE
  5
16485
330
747D
100
AcDbEntity
  8
部品1
100
AcDbLine
 10
7346.673057123668
 20
8717.497424545898
 30
0.0
 11
7374.673057123668
 21
8717.497424545898
 31
0.0
  0
LINE
  5
16486
330
747D
100
AcDbEntity
  8
破線
 48
10.0
100
AcDbLine
 10
5824.673057123578
 20
7135.99742454572
 30
0.0
 11
5147.173057123576
 21
7135.997424545694
 31
0.0
  0
LINE
  5
16487
330
747D
100
AcDbEntity
  8
部品1
100
AcDbLine
 10
7319.673057123551
 20
7112.497424545714
 30
0.0
 11
4379.673057123525
 21
7112.497424545715
 31
0.0
  0
LINE
  5
1648A
330
747D
100
AcDbEntity
  8
部品1
100
AcDbLine
 10
4324.673057123663
 20
9612.4974245458
 30
0.0
 11
7374.673057123664
 21
9612.497424545894
 31
0.0
  0
LINE
  5
1648B
330
747D
100
AcDbEntity
  8
部品1
100
AcDbLine
 10
4353.173057123664
 20
9132.4974245458
 30
0.0
 11
5836.173057123662
 21
9132.497424545906
 31
0.0
  0
LINE
  5
1648C
330
747D
100
AcDbEntity
  8
細線
 48
50.0
100
AcDbLine
 10
5836.173057123663
 20
9582.497424545902
 30
0.0
 11
4353.173057123663
 21
9132.4974245458
 31
0.0
  0
LINE
  5
1648D
330
747D
100
AcDbEntity
  8
部品1
100
AcDbLine
 10
4353.173057123662
 20
9582.497424545799
 30
0.0
 11
5836.173057123663
 21
9582.497424545906
 31
0.0
  0
LINE
  5
1648E
330
747D
100
AcDbEntity
  8
細線
 48
50.0
100
AcDbLine
 10
5836.173057123662
 20
9132.497424545906
 30
0.0
 11
4353.173057123662
 21
9582.497424545799
 31
0.0
  0
DIMENSION
  5
1648F
330
747D
100
AcDbEntity
  8
寸法
100
AcDbDimension
  2
*D12
 10
7319.673057123664
 20
10128.3056441709
 30
0.0
 11
5849.673057123664
 21
10128.3056441709
 31
0.0
 70
   160
  1
7X420=<>
 71
     5
 42
2940.000000000001
  3
INABA_S40G
100
AcDbAlignedDimension
 13
4379.673057123663
 23
9612.4974245458
 33
0.0
 14
7319.673057123664
 24
9612.497424545894
 34
0.0
100
AcDbRotatedDimension
1001
ACAD
1000
DSTYLE
1002
{
1002
}
  0
LINE
  5
16490
330
747D
100
AcDbEntity
  8
破線
 48
10.0
100
AcDbLine
 10
5097.173057123577
 20
7135.997424545691
 30
0.0
 11
4404.673057123588
 21
7135.997424545665
 31
0.0
  0
LINE
  5
16491
330
747D
100
AcDbEntity
  8
部品1
100
AcDbLine
 10
4352.673057123663
 20
9584.4974245458
 30
0.0
 11
5837.173057123663
 21
9584.497424545807
 31
0.0
  0
DIMENSION
  5
16492
330
747D
100
AcDbEntity
  8
寸法
100
AcDbDimension
  2
*D13
 10
4379.673057123663
 20
10128.30564417078
 30
0.0
 11
4016.187775749389
 21
10128.30564417078
 31
0.0
 70
   160
 71
     5
 42
55.00000000003456
  3
INABA_S40G
100
AcDbAlignedDimension
 13
4324.673057123628
 23
9612.4974245458
 33
0.0
 14
4379.673057123663
 24
9612.4974245458
 34
0.0
100
AcDbRotatedDimension
1001
ACAD
1000
DSTYLE
1002
{
1002
}
  0
LINE
  5
16493
330
747D
100
AcDbEntity
  8
部品1
 48
50.0
100
AcDbLine
 10
4353.173057123662
 20
9582.497424545797
 30
0.0
 11
4353.173057123663
 21
9132.497424545796
 31
0.0
  0
LINE
  5
16494
330
747D
100
AcDbEntity
  8
破線
 48
10.0
100
AcDbLine
 10
4404.673057123538
 20
7112.497424545715
 30
0.0
 11
4404.673057123639
 21
9132.497424545805
 31
0.0
  0
LINE
  5
16495
330
747D
100
AcDbEntity
  8
部品1
100
AcDbLine
 10
4352.673057123637
 20
9137.49742454577
 30
0.0
 11
4324.673057123638
 21
9137.49742454577
 31
0.0
  0
LINE
  5
16496
330
747D
100
AcDbEntity
  8
部品1
100
AcDbLine
 10
4379.673057123628
 20
9612.497424545768
 30
0.0
 11
4379.67305712363
 21
9584.497424545768
 31
0.0
  0
LINE
  5
16497
330
747D
100
AcDbEntity
  8
部品1
100
AcDbLine
 10
4379.673057123663
 20
9612.4974245458
 30
0.0
 11
4379.673057123663
 21
9584.4974245458
 31
0.0
  0
LINE
  5
16498
330
747D
100
AcDbEntity
  8
部品1
100
AcDbLine
 10
4352.67305712363
 20
9557.49742454577
 30
0.0
 11
4324.67305712363
 21
9557.49742454577
 31
0.0
  0
LINE
  5
16499
330
747D
100
AcDbEntity
  8
破線
 48
10.0
100
AcDbLine
 10
5097.173057123577
 20
7112.497424545728
 30
0.0
 11
5097.17305712368
 21
9132.497424545851
 31
0.0
  0
LINE
  5
1649A
330
747D
100
AcDbEntity
  8
部品1
100
AcDbLine
 10
4799.673057123663
 20
9612.497424545916
 30
0.0
 11
4799.673057123663
 21
9584.497424545917
 31
0.0
  0
LINE
  5
1649B
330
747D
100
AcDbEntity
  8
部品1
100
AcDbLine
 10
4799.673057123663
 20
9612.4974245458
 30
0.0
 11
4799.673057123663
 21
9584.4974245458
 31
0.0
  0
LINE
  5
1649C
330
747D
100
AcDbEntity
  8
部品1
100
AcDbLine
 10
4799.673057123663
 20
9612.4974245458
 30
0.0
 11
4799.673057123663
 21
9584.4974245458
 31
0.0
  0
LINE
  5
1649D
330
747D
100
AcDbEntity
  8
破線
 48
10.0
100
AcDbLine
 10
5147.173057123576
 20
7112.497424545729
 30
0.0
 11
5147.17305712368
 21
9132.497424545857
 31
0.0
  0
LINE
  5
1649E
330
747D
100
AcDbEntity
  8
部品1
100
AcDbLine
 10
5219.673057123663
 20
9612.497424545916
 30
0.0
 11
5219.673057123663
 21
9584.497424545917
 31
0.0
  0
LINE
  5
1649F
330
747D
100
AcDbEntity
  8
部品1
100
AcDbLine
 10
5219.673057123663
 20
9612.4974245458
 30
0.0
 11
5219.673057123663
 21
9584.4974245458
 31
0.0
  0
LINE
  5
164A0
330
747D
100
AcDbEntity
  8
部品1
100
AcDbLine
 10
5219.673057123663
 20
9612.4974245458
 30
0.0
 11
5219.673057123663
 21
9584.4974245458
 31
0.0
  0
LINE
  5
164A1
330
747D
100
AcDbEntity
  8
部品1
100
AcDbLine
 10
5639.673057123663
 20
9612.4974245458
 30
0.0
 11
5639.673057123663
 21
9584.4974245458
 31
0.0
  0
LINE
  5
164A2
330
747D
100
AcDbEntity
  8
部品1
100
AcDbLine
 10
5639.673057123663
 20
9612.4974245458
 30
0.0
 11
5639.673057123663
 21
9584.4974245458
 31
0.0
  0
LINE
  5
164A3
330
747D
100
AcDbEntity
  8
部品1
100
AcDbLine
 10
5639.673057123663
 20
9612.497424545916
 30
0.0
 11
5639.673057123663
 21
9584.497424545917
 31
0.0
  0
LINE
  5
164A4
330
747D
100
AcDbEntity
  8
破線
 48
10.0
100
AcDbLine
 10
7294.673057123581
 20
7135.99742454576
 30
0.0
 11
6602.173057123576
 21
7135.997424545742
 31
0.0
  0
LINE
  5
164A5
330
747D
100
AcDbEntity
  8
部品1
100
AcDbLine
 10
5862.173057123663
 20
9584.497424545913
 30
0.0
 11
7346.673057123664
 21
9584.497424545894
 31
0.0
  0
LINE
  5
164A6
330
747D
100
AcDbEntity
  8
細線
 48
50.0
100
AcDbLine
 10
7346.173057123664
 20
9132.497424545897
 30
0.0
 11
5863.173057123663
 21
9582.497424545897
 31
0.0
  0
LINE
  5
164A7
330
747D
100
AcDbEntity
  8
部品1
100
AcDbLine
 10
5863.173057123662
 20
9132.497424545906
 30
0.0
 11
7346.173057123664
 21
9132.497424545897
 31
0.0
  0
LINE
  5
164A8
330
747D
100
AcDbEntity
  8
部品1
100
AcDbLine
 10
5863.173057123663
 20
9582.497424545902
 30
0.0
 11
7346.173057123664
 21
9582.497424545895
 31
0.0
  0
LINE
  5
164A9
330
747D
100
AcDbEntity
  8
細線
 48
50.0
100
AcDbLine
 10
7346.173057123664
 20
9582.497424545895
 30
0.0
 11
5863.173057123662
 21
9132.497424545906
 31
0.0
  0
LINE
  5
164AA
330
747D
100
AcDbEntity
  8
破線
 48
10.0
100
AcDbLine
 10
6552.173057123578
 20
7135.997424545742
 30
0.0
 11
5874.673057123578
 21
7135.997424545724
 31
0.0
  0
LINE
  5
164AB
330
747D
100
AcDbEntity
  8
部品1
 48
50.0
100
AcDbLine
 10
5862.173057123663
 20
9584.497424545906
 30
0.0
 11
5862.173057123663
 21
9132.497424545906
 31
0.0
  0
LINE
  5
164AC
330
747D
100
AcDbEntity
  8
部品1
 48
50.0
100
AcDbLine
 10
5837.173057123663
 20
9584.497424545908
 30
0.0
 11
5837.173057123663
 21
9132.497424545906
 31
0.0
  0
LINE
  5
164AD
330
747D
100
AcDbEntity
  8
部品1
 48
50.0
100
AcDbLine
 10
5863.173057123663
 20
9582.497424545897
 30
0.0
 11
5863.173057123663
 21
9132.497424545906
 31
0.0
  0
LINE
  5
164AE
330
747D
100
AcDbEntity
  8
部品1
 48
50.0
100
AcDbLine
 10
5836.173057123663
 20
9582.497424545902
 30
0.0
 11
5836.173057123663
 21
9132.497424545906
 31
0.0
  0
LINE
  5
164AF
330
747D
100
AcDbEntity
  8
部品1
 48
50.0
100
AcDbLine
 10
5849.673057123727
 20
9132.497424545908
 30
0.0
 11
5849.673057123627
 21
7112.497424545714
 31
0.0
  0
LINE
  5
164B0
330
747D
100
AcDbEntity
  8
破線
 48
10.0
100
AcDbLine
 10
5874.673057123576
 20
7112.497424545729
 30
0.0
 11
5874.673057123677
 21
9132.497424545906
 31
0.0
  0
LINE
  5
164B1
330
747D
100
AcDbEntity
  8
破線
 48
10.0
100
AcDbLine
 10
5824.673057123578
 20
7112.497424545728
 30
0.0
 11
5824.67305712368
 21
9132.497424545906
 31
0.0
  0
LINE
  5
164B2
330
747D
100
AcDbEntity
  8
部品1
100
AcDbLine
 10
5837.173057123663
 20
9132.497424545906
 30
0.0
 11
5862.173057123663
 21
9132.497424545906
 31
0.0
  0
LINE
  5
164B3
330
747D
100
AcDbEntity
  8
部品1
100
AcDbLine
 10
5837.173057123663
 20
9576.497424545898
 30
0.0
 11
5862.173057123663
 21
9576.497424545902
 31
0.0
  0
LINE
  5
164B4
330
747D
100
AcDbEntity
  8
部品1
100
AcDbLine
 10
5878.673057123663
 20
9602.497424545902
 30
0.0
 11
5884.673057123663
 21
9602.497424545902
 31
0.0
  0
LINE
  5
164B5
330
747D
100
AcDbEntity
  8
部品1
100
AcDbLine
 10
5884.673057123663
 20
9602.497424545902
 30
0.0
 11
5884.673057123663
 21
9584.497424545901
 31
0.0
  0
LINE
  5
164B6
330
747D
100
AcDbEntity
  8
部品1
100
AcDbLine
 10
5814.673057123663
 20
9602.497424545902
 30
0.0
 11
5820.673057123663
 21
9602.497424545902
 31
0.0
  0
LINE
  5
164B7
330
747D
100
AcDbEntity
  8
部品1
100
AcDbLine
 10
5814.673057123663
 20
9602.497424545902
 30
0.0
 11
5814.673057123663
 21
9584.497424545901
 31
0.0
  0
LINE
  5
164B8
330
747D
100
AcDbEntity
  8
部品1
100
AcDbLine
 10
6059.673057123664
 20
9612.497424545916
 30
0.0
 11
6059.673057123664
 21
9584.497424545917
 31
0.0
  0
LINE
  5
164B9
330
747D
100
AcDbEntity
  8
破線
 48
10.0
100
AcDbLine
 10
6602.173057123576
 20
7112.497424545729
 30
0.0
 11
6602.173057123678
 21
9132.497424545901
 31
0.0
  0
LINE
  5
164BA
330
747D
100
AcDbEntity
  8
破線
 48
10.0
100
AcDbLine
 10
6552.173057123578
 20
7112.497424545728
 30
0.0
 11
6552.17305712368
 21
9132.497424545901
 31
0.0
  0
LINE
  5
164BB
330
747D
100
AcDbEntity
  8
部品1
100
AcDbLine
 10
6479.673057123664
 20
9612.497424545916
 30
0.0
 11
6479.673057123664
 21
9584.497424545917
 31
0.0
  0
LINE
  5
164BC
330
747D
100
AcDbEntity
  8
部品1
100
AcDbLine
 10
6899.673057123663
 20
9612.497424545916
 30
0.0
 11
6899.673057123663
 21
9584.497424545917
 31
0.0
  0
DIMENSION
  5
164BD
330
747D
100
AcDbEntity
  8
寸法
100
AcDbDimension
  2
*D14
 10
8022.099402858072
 20
9557.497424545898
 30
0.0
 11
8022.099402858072
 21
9920.982705920135
 31
0.0
 12
0.0
 22
-840.0
 32
0.0
 70
   160
 71
     5
 42
-1.0
  3
INABA_S40G
100
AcDbAlignedDimension
 13
7374.673057123664
 23
9612.497424545894
 33
0.0
 14
7374.673057123664
 24
9557.497424545898
 34
0.0
 50
90.0
100
AcDbRotatedDimension
1001
ACAD
1000
DSTYLE
1002
{
1002
}
  0
DIMENSION
  5
164BE
330
747D
100
AcDbEntity
  8
寸法
100
AcDbDimension
  2
*D15
 10
7374.673057123664
 20
10128.30564417088
 30
0.0
 11
7683.158338497903
 21
10128.30564417088
 31
0.0
 70
   160
 71
     5
 42
55.0
  3
INABA_S40G
100
AcDbAlignedDimension
 13
7319.673057123664
 23
9612.497424545894
 33
0.0
 14
7374.673057123664
 24
9612.497424545894
 34
0.0
100
AcDbRotatedDimension
1001
ACAD
1000
DSTYLE
1002
{
1002
}
  0
DIMENSION
  5
164BF
330
747D
100
AcDbEntity
  8
寸法
100
AcDbDimension
  2
*D16
 10
7701.530782985688
 20
9037.279608877009
 30
0.0
 11
7601.530782985688
 21
10102.279608877
 31
0.0
 12
0.0
 22
-840.0
 32
0.0
 70
    32
 71
     5
 42
-1.0
  3
INABA_S40G
100
AcDbAlignedDimension
 13
7346.173057123664
 23
9582.497424545895
 33
0.0
 14
7346.173057123664
 24
9132.497424545897
 34
0.0
 50
90.0
100
AcDbRotatedDimension
1001
ACAD
1000
DSTYLE
1002
{
1002
}
  0
LINE
  5
164C0
330
747D
100
AcDbEntity
  8
部品1
100
AcDbLine
 10
7346.173057123664
 20
9582.497424545895
 30
0.0
 11
7346.173057123664
 21
9132.497424545897
 31
0.0
  0
LINE
  5
164C1
330
747D
100
AcDbEntity
  8
破線
 48
10.0
100
AcDbLine
 10
7294.673057123552
 20
7112.497424545714
 30
0.0
 11
7294.673057123652
 21
9132.497424545805
 31
0.0
  0
LINE
  5
164C2
330
747D
100
AcDbEntity
  8
部品1
100
AcDbLine
 10
7346.673057123664
 20
9137.497424545898
 30
0.0
 11
7374.673057123664
 21
9137.497424545898
 31
0.0
  0
LINE
  5
164C3
330
747D
100
AcDbEntity
  8
部品1
100
AcDbLine
 10
7319.673057123664
 20
9612.497424545894
 30
0.0
 11
7319.673057123664
 21
9584.497424545894
 31
0.0
  0
LINE
  5
164C4
330
747D
100
AcDbEntity
  8
部品1
100
AcDbLine
 10
7319.673057123664
 20
9612.497424545916
 30
0.0
 11
7319.673057123664
 21
9584.497424545917
 31
0.0
  0
LINE
  5
164C5
330
747D
100
AcDbEntity
  8
部品1
100
AcDbLine
 10
7346.673057123664
 20
9557.497424545898
 30
0.0
 11
7374.673057123664
 21
9557.497424545898
 31
0.0
  0
LINE
  5
166AC
330
747D
100
AcDbEntity
  8
部品1
 48
50.0
100
AcDbLine
 10
4379.673057123652
 20
7112.497424545795
 30
0.0
 11
7294.67305712364
 21
7112.497424545633
 31
0.0
  0
LINE
  5
166AD
330
747D
100
AcDbEntity
  8
部品1
 48
50.0
100
AcDbLine
 10
4379.673057123652
 20
7067.497424545796
 30
0.0
 11
7319.67305712364
 21
7067.497424545631
 31
0.0
  0
LINE
  5
166AE
330
747D
100
AcDbEntity
  8
部品1
 48
50.0
100
AcDbLine
 10
4379.673057123652
 20
6982.497424545795
 30
0.0
 11
7319.67305712364
 21
6982.497424545631
 31
0.0
  0
LINE
  5
166AF
330
747D
100
AcDbEntity
  8
部品1
 48
50.0
100
AcDbLine
 10
4391.673057123655
 20
7027.997424545795
 30
0.0
 11
6887.673057123641
 21
7027.997424545795
 31
0.0
  0
LINE
  5
166B2
330
747D
100
AcDbEntity
  8
部品1
 48
50.0
100
AcDbLine
 10
4379.673057123653
 20
7457.49742454591
 30
0.0
 11
7319.673057123643
 21
7457.497424545898
 31
0.0
  0
LINE
  5
166B3
330
747D
100
AcDbEntity
  8
部品1
 48
50.0
100
AcDbLine
 10
4379.673057123656
 20
7877.497424545911
 30
0.0
 11
7319.673057123644
 21
7877.497424545897
 31
0.0
  0
LINE
  5
166B4
330
747D
100
AcDbEntity
  8
部品1
 48
50.0
100
AcDbLine
 10
4379.673057123658
 20
8297.497424545911
 30
0.0
 11
7319.673057123646
 21
8297.497424545898
 31
0.0
  0
LINE
  5
166B5
330
747D
100
AcDbEntity
  8
部品1
 48
50.0
100
AcDbLine
 10
4379.673057123659
 20
8717.497424545911
 30
0.0
 11
7319.673057123647
 21
8717.497424545898
 31
0.0
  0
TEXT
  5
1680B
330
747D
100
AcDbEntity
  8
文字
 62
     7
 48
50.0
100
AcDbText
 10
13248.77747366448
 20
8380.013745883733
 30
0.0
 40
100.0
  1
16
  7
STYLE1
100
AcDbText
  0
LINE
  5
1680C
330
747D
100
AcDbEntity
  8
仕様書枠
 48
50.0
100
AcDbLine
 10
16307.19999999999
 20
8519.600000000002
 30
0.0
 11
13127.2
 21
8519.600000000004
 31
0.0
  0
TEXT
  5
1680D
330
747D
100
AcDbEntity
  8
文字
 62
     7
 48
50.0
100
AcDbText
 10
15022.63965474516
 20
8550.013745883729
 30
0.0
 40
100.0
  1
F12            0.6
  7
STYLE1
100
AcDbText
  0
TEXT
  5
1680E
330
747D
100
AcDbEntity
  8
文字
 62
     7
 48
50.0
100
AcDbText
 10
13583.11819016569
 20
8550.013745883731
 30
0.0
 40
100.0
  1
棚板
 41
0.9
  7
STYLE1
100
AcDbText
  0
TEXT
  5
1680F
330
747D
100
AcDbEntity
  8
文字
 62
     7
 48
50.0
100
AcDbText
 10
13583.11819016569
 20
8380.013745883733
 30
0.0
 40
100.0
  1
アンカープレート
  7
STYLE1
100
AcDbText
  0
TEXT
  5
16810
330
747D
100
AcDbEntity
  8
文字
 62
     7
 48
50.0
100
AcDbText
 10
15022.63965474515
 20
8380.013745883728
 30
0.0
 40
100.0
  1
F12            2.3
  7
STYLE1
100
AcDbText
  0
LINE
  5
16811
330
747D
100
AcDbEntity
  8
仕様書枠
 48
50.0
100
AcDbLine
 10
16307.2
 20
9879.600000000001
 30
0.0
 11
13127.2
 21
9879.600000000003
 31
0.0
  0
LINE
  5
16812
330
747D
100
AcDbEntity
  8
仕様書枠
 48
50.0
100
AcDbLine
 10
16307.2
 20
11239.6
 30
0.0
 11
13127.2
 21
11239.6
 31
0.0
  0
LINE
  5
16813
330
747D
100
AcDbEntity
  8
仕様書枠
 48
50.0
100
AcDbLine
 10
16307.19999999999
 20
7839.60000000001
 30
0.0
 11
16307.2
 21
11239.6
 31
0.0
  0
LINE
  5
16814
330
747D
100
AcDbEntity
  8
仕様書枠
 48
50.0
100
AcDbLine
 10
14785.2
 20
11239.6
 30
0.0
 11
14785.2
 21
8349.600000000007
 31
0.0
  0
LINE
  5
16815
330
747D
100
AcDbEntity
  8
仕様書枠
 48
50.0
100
AcDbLine
 10
13490.2
 20
11239.6
 30
0.0
 11
13490.20000000001
 21
8349.600000000007
 31
0.0
  0
LINE
  5
16816
330
747D
100
AcDbEntity
  8
仕様書枠
 48
50.0
100
AcDbLine
 10
16307.2
 20
11069.6
 30
0.0
 11
13127.2
 21
11069.6
 31
0.0
  0
LINE
  5
16817
330
747D
100
AcDbEntity
  8
仕様書枠
 48
50.0
100
AcDbLine
 10
16307.2
 20
10729.6
 30
0.0
 11
13127.2
 21
10729.6
 31
0.0
  0
LINE
  5
16818
330
747D
100
AcDbEntity
  8
仕様書枠
 48
50.0
100
AcDbLine
 10
16307.2
 20
10899.6
 30
0.0
 11
13127.2
 21
10899.6
 31
0.0
  0
LINE
  5
16819
330
747D
100
AcDbEntity
  8
仕様書枠
 48
50.0
100
AcDbLine
 10
16307.19999999999
 20
10389.6
 30
0.0
 11
13127.2
 21
10389.6
 31
0.0
  0
LINE
  5
1681A
330
747D
100
AcDbEntity
  8
仕様書枠
 48
50.0
100
AcDbLine
 10
16307.19999999999
 20
10219.6
 30
0.0
 11
13127.2
 21
10219.6
 31
0.0
  0
LINE
  5
1681B
330
747D
100
AcDbEntity
  8
仕様書枠
 48
50.0
100
AcDbLine
 10
16307.19999999999
 20
10559.6
 30
0.0
 11
13127.2
 21
10559.6
 31
0.0
  0
TEXT
  5
1681C
330
747D
100
AcDbEntity
  8
文字
 62
     7
 48
50.0
100
AcDbText
 10
13197.42518560407
 20
11100.01374588373
 30
0.0
 40
100.0
  1
品番
  7
STYLE1
100
AcDbText
  0
TEXT
  5
1681D
330
747D
100
AcDbEntity
  8
文字
 62
     7
 48
50.0
100
AcDbText
 10
13271.19032244792
 20
10930.01374588373
 30
0.0
 40
100.0
  1
1
  7
STYLE1
100
AcDbText
  0
TEXT
  5
1681E
330
747D
100
AcDbEntity
  8
文字
 62
     7
 48
50.0
100
AcDbText
 10
13271.19032244792
 20
10760.01374588373
 30
0.0
 40
100.0
  1
2
  7
STYLE1
100
AcDbText
  0
TEXT
  5
1681F
330
747D
100
AcDbEntity
  8
文字
 62
     7
 48
50.0
100
AcDbText
 10
13271.19032244792
 20
10420.01374588373
 30
0.0
 40
100.0
  1
4
  7
STYLE1
100
AcDbText
  0
TEXT
  5
16820
330
747D
100
AcDbEntity
  8
文字
 62
     7
 48
50.0
100
AcDbText
 10
13271.19032244792
 20
10590.01374588373
 30
0.0
 40
100.0
  1
3
  7
STYLE1
100
AcDbText
  0
TEXT
  5
16821
330
747D
100
AcDbEntity
  8
文字
 62
     7
 48
50.0
100
AcDbText
 10
13732.03840939435
 20
11100.01374588373
 30
0.0
 40
100.0
  1
部　　品　　名
  7
STYLE1
100
AcDbText
  0
TEXT
  5
16822
330
747D
100
AcDbEntity
  8
文字
 62
     7
 48
50.0
100
AcDbText
 10
14859.79774614482
 20
11100.01374588373
 30
0.0
 40
100.0
  1
材料（材質）　　単位mm
  7
STYLE1
100
AcDbText
  0
TEXT
  5
16823
330
747D
100
AcDbEntity
  8
文字
 62
     7
 48
50.0
100
AcDbText
 10
13583.11819016569
 20
10930.01374588373
 30
0.0
 40
100.0
  1
土台枠
  7
STYLE1
100
AcDbText
  0
TEXT
  5
16824
330
747D
100
AcDbEntity
  8
文字
 62
     7
 48
50.0
100
AcDbText
 10
13583.11819016569
 20
10760.01374588373
 30
0.0
 40
100.0
  1
柱
  7
STYLE1
100
AcDbText
  0
TEXT
  5
16825
330
747D
100
AcDbEntity
  8
文字
 62
     7
 48
50.0
100
AcDbText
 10
13583.11819016569
 20
10590.01374588373
 30
0.0
 40
100.0
  1
桁前
  7
STYLE1
100
AcDbText
  0
TEXT
  5
16826
330
747D
100
AcDbEntity
  8
文字
 62
     7
 48
50.0
100
AcDbText
 10
13583.11819016569
 20
10420.01374588373
 30
0.0
 40
100.0
  1
桁後
  7
STYLE1
100
AcDbText
  0
TEXT
  5
16827
330
747D
100
AcDbEntity
  8
文字
 62
     7
 48
50.0
100
AcDbText
 10
13271.19032244792
 20
10250.01374588373
 30
0.0
 40
100.0
  1
5
  7
STYLE1
100
AcDbText
  0
TEXT
  5
16828
330
747D
100
AcDbEntity
  8
文字
 62
     7
 48
50.0
100
AcDbText
 10
13583.11819016569
 20
10250.01374588373
 30
0.0
 40
100.0
  1
妻板左右
  7
STYLE1
100
AcDbText
  0
TEXT
  5
16829
330
747D
100
AcDbEntity
  8
文字
 62
     7
 48
50.0
100
AcDbText
 10
13583.11819016569
 20
9060.013745883729
 30
0.0
 40
100.0
  1
シャッターレール
  7
STYLE1
100
AcDbText
  0
TEXT
  5
1682A
330
747D
100
AcDbEntity
  8
文字
 62
     7
 48
50.0
100
AcDbText
 10
13248.77747366448
 20
9400.013745883729
 30
0.0
 40
100.0
  1
10
  7
STYLE1
100
AcDbText
  0
TEXT
  5
1682B
330
747D
100
AcDbEntity
  8
文字
 62
     7
 48
50.0
100
AcDbText
 10
13583.11819016569
 20
9570.013745883731
 30
0.0
 40
100.0
  1
壁パネル
  7
STYLE1
100
AcDbText
  0
TEXT
  5
1682C
330
747D
100
AcDbEntity
  8
文字
 62
     7
 48
50.0
100
AcDbText
 10
13583.11819016569
 20
9740.013745883729
 30
0.0
 40
100.0
  1
屋根パネル
  7
STYLE1
100
AcDbText
  0
TEXT
  5
1682D
330
747D
100
AcDbEntity
  8
文字
 62
     7
 48
50.0
100
AcDbText
 10
13583.11819016569
 20
9910.01374588373
 30
0.0
 40
100.0
  1
母屋中
  7
STYLE1
100
AcDbText
  0
TEXT
  5
1682E
330
747D
100
AcDbEntity
  8
文字
 62
     7
 48
50.0
100
AcDbText
 10
13583.11819016569
 20
10080.01374588373
 30
0.0
 40
100.0
  1
鼻隠シ前後
  7
STYLE1
100
AcDbText
  0
TEXT
  5
1682F
330
747D
100
AcDbEntity
  8
文字
 62
     7
 48
50.0
100
AcDbText
 10
13271.19032244792
 20
9740.013745883731
 30
0.0
 40
100.0
  1
8
  7
STYLE1
100
AcDbText
  0
TEXT
  5
16830
330
747D
100
AcDbEntity
  8
文字
 62
     7
 48
50.0
100
AcDbText
 10
13271.19032244792
 20
9570.013745883731
 30
0.0
 40
100.0
  1
9
  7
STYLE1
100
AcDbText
  0
TEXT
  5
16831
330
747D
100
AcDbEntity
  8
文字
 62
     7
 48
50.0
100
AcDbText
 10
13271.19032244792
 20
9910.01374588373
 30
0.0
 40
100.0
  1
7
  7
STYLE1
100
AcDbText
  0
TEXT
  5
16832
330
747D
100
AcDbEntity
  8
文字
 62
     7
 48
50.0
100
AcDbText
 10
13271.19032244792
 20
10080.01374588373
 30
0.0
 40
100.0
  1
6
  7
STYLE1
100
AcDbText
  0
LINE
  5
16833
330
747D
100
AcDbEntity
  8
仕様書枠
 48
50.0
100
AcDbLine
 10
16307.19999999999
 20
9539.6
 30
0.0
 11
13127.2
 21
9539.600000000003
 31
0.0
  0
LINE
  5
16834
330
747D
100
AcDbEntity
  8
仕様書枠
 48
50.0
100
AcDbLine
 10
16307.19999999999
 20
9199.600000000001
 30
0.0
 11
13127.2
 21
9199.600000000001
 31
0.0
  0
LINE
  5
16835
330
747D
100
AcDbEntity
  8
仕様書枠
 48
50.0
100
AcDbLine
 10
16307.19999999999
 20
9369.600000000001
 30
0.0
 11
13127.2
 21
9369.600000000003
 31
0.0
  0
LINE
  5
16836
330
747D
100
AcDbEntity
  8
仕様書枠
 48
50.0
100
AcDbLine
 10
16307.2
 20
10049.6
 30
0.0
 11
13127.2
 21
10049.6
 31
0.0
  0
LINE
  5
16837
330
747D
100
AcDbEntity
  8
仕様書枠
 48
50.0
100
AcDbLine
 10
16307.2
 20
9709.600000000001
 30
0.0
 11
13127.2
 21
9709.600000000001
 31
0.0
  0
TEXT
  5
16838
330
747D
100
AcDbEntity
  8
文字
 62
     7
 48
50.0
100
AcDbText
 10
13248.77747366448
 20
9230.013745883729
 30
0.0
 40
100.0
  1
11
  7
STYLE1
100
AcDbText
  0
TEXT
  5
16839
330
747D
100
AcDbEntity
  8
文字
 62
     7
 48
50.0
100
AcDbText
 10
13583.11819016569
 20
9230.013745883729
 30
0.0
 40
100.0
  1
シャッターカバー
 41
0.9
  7
STYLE1
100
AcDbText
  0
LINE
  5
1683A
330
747D
100
AcDbEntity
  8
仕様書枠
 48
50.0
100
AcDbLine
 10
16307.19999999999
 20
9029.6
 30
0.0
 11
13127.2
 21
9029.600000000002
 31
0.0
  0
LINE
  5
1683B
330
747D
100
AcDbEntity
  8
仕様書枠
 48
50.0
100
AcDbLine
 10
16307.19999999999
 20
8349.600000000007
 30
0.0
 11
13127.2
 21
8349.600000000007
 31
0.0
  0
TEXT
  5
1683C
330
747D
100
AcDbEntity
  8
文字
 62
     7
 48
50.0
100
AcDbText
 10
13583.11819016569
 20
9400.013745883731
 30
0.0
 40
100.0
  1
シャッター
  7
STYLE1
100
AcDbText
  0
TEXT
  5
1683D
330
747D
100
AcDbEntity
  8
文字
 62
     7
 48
50.0
100
AcDbText
 10
13248.77747366448
 20
8890.013745883731
 30
0.0
 40
100.0
  1
13
  7
STYLE1
100
AcDbText
  0
TEXT
  5
1683E
330
747D
100
AcDbEntity
  8
文字
 62
     7
 48
50.0
100
AcDbText
 10
13248.77747366448
 20
9060.013745883731
 30
0.0
 40
100.0
  1
12
  7
STYLE1
100
AcDbText
  0
TEXT
  5
1683F
330
747D
100
AcDbEntity
  8
文字
 62
     7
 48
50.0
100
AcDbText
 10
15022.63965474517
 20
10930.01374588372
 30
0.0
 40
100.0
  1
F12            1.2
  7
STYLE1
100
AcDbText
  0
TEXT
  5
16840
330
747D
100
AcDbEntity
  8
文字
 62
     7
 48
50.0
100
AcDbText
 10
15022.63965474517
 20
10760.01374588372
 30
0.0
 40
100.0
  1
F12         1.0,1.2
  7
STYLE1
100
AcDbText
  0
TEXT
  5
16841
330
747D
100
AcDbEntity
  8
文字
 62
     7
 48
50.0
100
AcDbText
 10
15022.63965474517
 20
10590.01374588373
 30
0.0
 40
100.0
  1
Y10            1.0
  7
STYLE1
100
AcDbText
  0
TEXT
  5
16842
330
747D
100
AcDbEntity
  8
文字
 62
     7
 48
50.0
100
AcDbText
 10
15022.63965474516
 20
10420.01374588372
 30
0.0
 40
100.0
  1
Y10            1.0
  7
STYLE1
100
AcDbText
  0
TEXT
  5
16843
330
747D
100
AcDbEntity
  8
文字
 62
     7
 48
50.0
100
AcDbText
 10
15022.63965474517
 20
10250.01374588373
 30
0.0
 40
100.0
  1
Y10            0.7
  7
STYLE1
100
AcDbText
  0
TEXT
  5
16844
330
747D
100
AcDbEntity
  8
文字
 62
     7
 48
50.0
100
AcDbText
 10
15022.63965474516
 20
10080.01374588372
 30
0.0
 40
100.0
  1
Y10            0.7
  7
STYLE1
100
AcDbText
  0
TEXT
  5
16845
330
747D
100
AcDbEntity
  8
文字
 62
     7
 48
50.0
100
AcDbText
 10
15022.63965474517
 20
9740.013745883729
 30
0.0
 40
100.0
  1
Y10            0.5
  7
STYLE1
100
AcDbText
  0
TEXT
  5
16846
330
747D
100
AcDbEntity
  8
文字
 62
     7
 48
50.0
100
AcDbText
 10
15022.63965474516
 20
9570.013745883727
 30
0.0
 40
100.0
  1
F12            0.7
  7
STYLE1
100
AcDbText
  0
TEXT
  5
16847
330
747D
100
AcDbEntity
  8
文字
 62
     7
 48
50.0
100
AcDbText
 10
14850.83183167176
 20
9060.013745883727
 30
0.0
 40
100.0
  1
アルミニウム合金押出形材
  7
STYLE1
100
AcDbText
  0
TEXT
  5
16849
330
747D
100
AcDbEntity
  8
文字
 62
     7
 48
50.0
100
AcDbText
 10
15022.63965474515
 20
9400.013745883727
 30
0.0
 40
100.0
  1
Z08            0.5
  7
STYLE1
100
AcDbText
  0
LINE
  5
1684A
330
747D
100
AcDbEntity
  8
仕様書枠
 48
50.0
100
AcDbLine
 10
16307.19999999999
 20
8179.600000000007
 30
0.0
 11
13127.19999999999
 21
8179.600000000009
 31
0.0
  0
LINE
  5
1684B
330
747D
100
AcDbEntity
  8
仕様書枠
 48
50.0
100
AcDbLine
 10
16307.19999999999
 20
8009.600000000007
 30
0.0
 11
13127.19999999999
 21
8009.600000000011
 31
0.0
  0
LINE
  5
1684C
330
747D
100
AcDbEntity
  8
仕様書枠
 48
50.0
100
AcDbLine
 10
16307.19999999999
 20
7839.600000000007
 30
0.0
 11
13127.19999999999
 21
7839.60000000001
 31
0.0
  0
TEXT
  5
1684D
330
747D
100
AcDbEntity
  8
文字
 62
     7
 48
50.0
100
AcDbText
 10
13229.83081656555
 20
8210.013745883737
 30
0.0
 40
100.0
  1
F12→溶融亜鉛めっき鋼板(JIS G 3302)
  7
STYLE1
100
AcDbText
  0
TEXT
  5
1684E
330
747D
100
AcDbEntity
  8
文字
 62
     7
 48
50.0
100
AcDbText
 10
13229.83081656555
 20
8040.013745883737
 30
0.0
 40
100.0
  1
Y10→溶融亜鉛-5％アルミニウム合金めっき鋼板(JIS G 3317)
 41
0.9
  7
STYLE1
100
AcDbText
  0
TEXT
  5
1684F
330
747D
100
AcDbEntity
  8
文字
 62
     7
 48
50.0
100
AcDbText
 10
13229.83081656555
 20
7870.013745883738
 30
0.0
 40
100.0
  1
Z08→塗装溶融亜鉛めっき鋼板(JIS G 3313)
  7
STYLE1
100
AcDbText
  0
LINE
  5
16850
330
747D
100
AcDbEntity
  8
仕様書枠
 48
50.0
100
AcDbLine
 10
13127.2
 20
11239.6
 30
0.0
 11
13127.2
 21
7839.60000000001
 31
0.0
  0
LINE
  5
16851
330
747D
100
AcDbEntity
  8
仕様書枠
 48
50.0
100
AcDbLine
 10
16307.19999999999
 20
8689.600000000003
 30
0.0
 11
13127.2
 21
8689.600000000003
 31
0.0
  0
LINE
  5
16852
330
747D
100
AcDbEntity
  8
仕様書枠
 48
50.0
100
AcDbLine
 10
16307.19999999999
 20
8859.600000000002
 30
0.0
 11
13127.2
 21
8859.600000000005
 31
0.0
  0
TEXT
  5
16853
330
747D
100
AcDbEntity
  8
文字
 62
     7
 48
50.0
100
AcDbText
 10
13583.11819016569
 20
8720.013745883731
 30
0.0
 40
100.0
  1
床パネル
 41
0.9
  7
STYLE1
100
AcDbText
  0
TEXT
  5
16854
330
747D
100
AcDbEntity
  8
文字
 62
     7
 48
50.0
100
AcDbText
 10
13583.11819016569
 20
8890.013745883731
 30
0.0
 40
100.0
  1
根太
  7
STYLE1
100
AcDbText
  0
TEXT
  5
16855
330
747D
100
AcDbEntity
  8
文字
 62
     7
 48
50.0
100
AcDbText
 10
13248.77747366448
 20
8720.013745883731
 30
0.0
 40
100.0
  1
14
  7
STYLE1
100
AcDbText
  0
TEXT
  5
16856
330
747D
100
AcDbEntity
  8
文字
 62
     7
 48
50.0
100
AcDbText
 10
13248.77747366448
 20
8550.013745883733
 30
0.0
 40
100.0
  1
15
  7
STYLE1
100
AcDbText
  0
TEXT
  5
16857
330
747D
100
AcDbEntity
  8
文字
 62
     7
 48
50.0
100
AcDbText
 10
15022.63965474516
 20
8890.013745883727
 30
0.0
 40
100.0
  1
F12            1.2
  7
STYLE1
100
AcDbText
  0
TEXT
  5
16858
330
747D
100
AcDbEntity
  8
文字
 62
     7
 48
50.0
100
AcDbText
 10
15022.63965474516
 20
8720.013745883729
 30
0.0
 40
100.0
  1
F12            1.0
  7
STYLE1
100
AcDbText
  0
TEXT
  5
16BF9
330
747D
100
AcDbEntity
  8
部品1
100
AcDbText
 10
10333.18120724052
 20
1595.038069494745
 30
0.0
 40
135.0
  1
側面図
  7
STYLE2
100
AcDbText
  0
LWPOLYLINE
  5
16BFA
330
747D
100
AcDbEntity
  8
部品1
100
AcDbPolyline
 90
        4
 70
     1
 43
0.0
 10
10243.73510581692
 20
1787.931598713268
 10
10243.73510581692
 20
1548.039277167736
 10
11007.20577204535
 20
1548.039277167736
 10
11007.20577204535
 20
1787.931598713268
  0
LWPOLYLINE
  5
16BFB
330
747D
100
AcDbEntity
  8
部品1
100
AcDbPolyline
 90
        4
 70
     1
 43
0.0
 10
5467.937724009428
 20
1787.931598713268
 10
5467.937724009428
 20
1548.039277167736
 10
6231.408390237866
 20
1548.039277167736
 10
6231.408390237866
 20
1787.931598713268
  0
TEXT
  5
16BFC
330
747D
100
AcDbEntity
  8
部品1
100
AcDbText
 10
5558.463127747381
 20
1595.038069494745
 30
0.0
 40
135.0
  1
正面図
  7
STYLE2
100
AcDbText
  0
LINE
  5
16BFD
330
747D
100
AcDbEntity
  8
細線
 48
50.0
100
AcDbLine
 10
11387.97043893114
 20
4677.931598713261
 30
0.0
 11
11387.97043893114
 21
2587.931598713263
 31
0.0
  0
LINE
  5
16BFE
330
747D
100
AcDbEntity
  8
細線
 48
50.0
100
AcDbLine
 10
11402.97043893113
 20
4677.931598713261
 30
0.0
 11
11402.97043893113
 21
2587.931598713263
 31
0.0
  0
LINE
  5
16BFF
330
747D
100
AcDbEntity
  8
細線
 48
50.0
100
AcDbLine
 10
11262.97043893113
 20
4677.931598713261
 30
0.0
 11
11262.97043893113
 21
2587.931598713263
 31
0.0
  0
LINE
  5
16C00
330
747D
100
AcDbEntity
  8
細線
 48
50.0
100
AcDbLine
 10
11247.97043893114
 20
4677.931598713261
 30
0.0
 11
11247.97043893114
 21
2587.931598713263
 31
0.0
  0
LINE
  5
16C01
330
747D
100
AcDbEntity
  8
細線
 48
50.0
100
AcDbLine
 10
11107.97043893114
 20
4677.931598713261
 30
0.0
 11
11107.97043893114
 21
2587.931598713263
 31
0.0
  0
LINE
  5
16C02
330
747D
100
AcDbEntity
  8
細線
 48
50.0
100
AcDbLine
 10
11122.97043893113
 20
4677.931598713261
 30
0.0
 11
11122.97043893113
 21
2587.931598713263
 31
0.0
  0
LINE
  5
16C03
330
747D
100
AcDbEntity
  8
部品1
100
AcDbLine
 10
11045.47043893113
 20
4677.931598713261
 30
0.0
 11
11045.47043893113
 21
2587.931598713263
 31
0.0
  0
LINE
  5
16C04
330
747D
100
AcDbEntity
  8
細線
 48
50.0
100
AcDbLine
 10
10702.97043893114
 20
4677.931598713261
 30
0.0
 11
10702.97043893114
 21
2587.931598713263
 31
0.0
  0
LINE
  5
16C05
330
747D
100
AcDbEntity
  8
細線
 48
50.0
100
AcDbLine
 10
10687.97043893114
 20
4677.931598713261
 30
0.0
 11
10687.97043893114
 21
2587.931598713263
 31
0.0
  0
LINE
  5
16C06
330
747D
100
AcDbEntity
  8
細線
 48
50.0
100
AcDbLine
 10
10827.97043893114
 20
4677.931598713261
 30
0.0
 11
10827.97043893114
 21
2587.931598713263
 31
0.0
  0
LINE
  5
16C07
330
747D
100
AcDbEntity
  8
細線
 48
50.0
100
AcDbLine
 10
10842.97043893114
 20
4677.931598713261
 30
0.0
 11
10842.97043893114
 21
2587.931598713263
 31
0.0
  0
LINE
  5
16C08
330
747D
100
AcDbEntity
  8
細線
 48
50.0
100
AcDbLine
 10
10982.97043893114
 20
4677.931598713261
 30
0.0
 11
10982.97043893114
 21
2587.931598713263
 31
0.0
  0
LINE
  5
16C09
330
747D
100
AcDbEntity
  8
細線
 48
50.0
100
AcDbLine
 10
10967.97043893114
 20
4677.931598713261
 30
0.0
 11
10967.97043893114
 21
2587.931598713263
 31
0.0
  0
LINE
  5
16C0A
330
747D
100
AcDbEntity
  8
部品1
100
AcDbLine
 10
11465.47043893114
 20
4677.931598713261
 30
0.0
 11
11465.47043893114
 21
2587.931598713263
 31
0.0
  0
LINE
  5
16C0B
330
747D
100
AcDbEntity
  8
部品1
100
AcDbLine
 10
9785.470438931135
 20
4677.931598713261
 30
0.0
 11
9785.470438931135
 21
2587.931598713263
 31
0.0
  0
LINE
  5
16C0C
330
747D
100
AcDbEntity
  8
細線
 48
50.0
100
AcDbLine
 10
9862.970438931135
 20
4677.931598713261
 30
0.0
 11
9862.970438931135
 21
2587.931598713263
 31
0.0
  0
LINE
  5
16C0D
330
747D
100
AcDbEntity
  8
細線
 48
50.0
100
AcDbLine
 10
9847.970438931135
 20
4677.931598713261
 30
0.0
 11
9847.970438931135
 21
2587.931598713263
 31
0.0
  0
LINE
  5
16C0E
330
747D
100
AcDbEntity
  8
細線
 48
50.0
100
AcDbLine
 10
9987.970438931135
 20
4677.931598713261
 30
0.0
 11
9987.970438931135
 21
2587.931598713263
 31
0.0
  0
LINE
  5
16C0F
330
747D
100
AcDbEntity
  8
細線
 48
50.0
100
AcDbLine
 10
10002.97043893113
 20
4677.931598713261
 30
0.0
 11
10002.97043893113
 21
2587.931598713263
 31
0.0
  0
LINE
  5
16C10
330
747D
100
AcDbEntity
  8
細線
 48
50.0
100
AcDbLine
 10
10142.97043893113
 20
4677.931598713261
 30
0.0
 11
10142.97043893113
 21
2587.931598713263
 31
0.0
  0
LINE
  5
16C11
330
747D
100
AcDbEntity
  8
細線
 48
50.0
100
AcDbLine
 10
10127.97043893113
 20
4677.931598713261
 30
0.0
 11
10127.97043893113
 21
2587.931598713263
 31
0.0
  0
LINE
  5
16C12
330
747D
100
AcDbEntity
  8
細線
 48
50.0
100
AcDbLine
 10
9707.970438931136
 20
4677.931598713261
 30
0.0
 11
9707.970438931136
 21
2587.931598713263
 31
0.0
  0
LINE
  5
16C13
330
747D
100
AcDbEntity
  8
細線
 48
50.0
100
AcDbLine
 10
9722.970438931135
 20
4677.931598713261
 30
0.0
 11
9722.970438931135
 21
2587.931598713263
 31
0.0
  0
LINE
  5
16C14
330
747D
100
AcDbEntity
  8
細線
 48
50.0
100
AcDbLine
 10
9582.970438931136
 20
4677.931598713261
 30
0.0
 11
9582.970438931136
 21
2587.931598713263
 31
0.0
  0
LINE
  5
16C15
330
747D
100
AcDbEntity
  8
細線
 48
50.0
100
AcDbLine
 10
9567.970438931135
 20
4677.931598713261
 30
0.0
 11
9567.970438931135
 21
2587.931598713263
 31
0.0
  0
LINE
  5
16C16
330
747D
100
AcDbEntity
  8
細線
 48
50.0
100
AcDbLine
 10
9427.970438931136
 20
4677.931598713261
 30
0.0
 11
9427.970438931136
 21
2587.931598713263
 31
0.0
  0
LINE
  5
16C17
330
747D
100
AcDbEntity
  8
細線
 48
50.0
100
AcDbLine
 10
9442.970438931135
 20
4677.931598713261
 30
0.0
 11
9442.970438931135
 21
2587.931598713263
 31
0.0
  0
LINE
  5
16C18
330
747D
100
AcDbEntity
  8
部品1
100
AcDbLine
 10
10205.47043893113
 20
4677.931598713261
 30
0.0
 11
10205.47043893113
 21
2587.931598713263
 31
0.0
  0
LINE
  5
16C19
330
747D
100
AcDbEntity
  8
細線
 48
50.0
100
AcDbLine
 10
10547.97043893114
 20
4677.931598713261
 30
0.0
 11
10547.97043893114
 21
2587.931598713263
 31
0.0
  0
LINE
  5
16C1A
330
747D
100
AcDbEntity
  8
細線
 48
50.0
100
AcDbLine
 10
10562.97043893114
 20
4677.931598713261
 30
0.0
 11
10562.97043893114
 21
2587.931598713263
 31
0.0
  0
LINE
  5
16C1B
330
747D
100
AcDbEntity
  8
細線
 48
50.0
100
AcDbLine
 10
10422.97043893114
 20
4677.931598713261
 30
0.0
 11
10422.97043893114
 21
2587.931598713263
 31
0.0
  0
LINE
  5
16C1C
330
747D
100
AcDbEntity
  8
細線
 48
50.0
100
AcDbLine
 10
10407.97043893114
 20
4677.931598713261
 30
0.0
 11
10407.97043893114
 21
2587.931598713263
 31
0.0
  0
LINE
  5
16C1D
330
747D
100
AcDbEntity
  8
細線
 48
50.0
100
AcDbLine
 10
10267.97043893113
 20
4677.931598713261
 30
0.0
 11
10267.97043893114
 21
2587.931598713263
 31
0.0
  0
LINE
  5
16C1E
330
747D
100
AcDbEntity
  8
細線
 48
50.0
100
AcDbLine
 10
10282.97043893114
 20
4677.931598713261
 30
0.0
 11
10282.97043893114
 21
2587.931598713263
 31
0.0
  0
LINE
  5
16C1F
330
747D
100
AcDbEntity
  8
部品1
100
AcDbLine
 10
10625.47043893113
 20
4677.931598713261
 30
0.0
 11
10625.47043893113
 21
2587.931598713263
 31
0.0
  0
LINE
  5
16C20
330
747D
100
AcDbEntity
  8
細線
 48
50.0
100
AcDbLine
 10
11542.97043893114
 20
4677.931598713261
 30
0.0
 11
11542.97043893114
 21
2587.931598713263
 31
0.0
  0
LINE
  5
16C21
330
747D
100
AcDbEntity
  8
細線
 48
50.0
100
AcDbLine
 10
11527.97043893114
 20
4677.931598713261
 30
0.0
 11
11527.97043893114
 21
2587.931598713263
 31
0.0
  0
LINE
  5
16C22
330
747D
100
AcDbEntity
  8
細線
 48
50.0
100
AcDbLine
 10
11667.97043893114
 20
4677.931598713261
 30
0.0
 11
11667.97043893114
 21
2587.931598713263
 31
0.0
  0
LINE
  5
16C23
330
747D
100
AcDbEntity
  8
細線
 48
50.0
100
AcDbLine
 10
11682.97043893114
 20
4677.931598713261
 30
0.0
 11
11682.97043893114
 21
2587.931598713263
 31
0.0
  0
LINE
  5
16C24
330
747D
100
AcDbEntity
  8
細線
 48
50.0
100
AcDbLine
 10
11822.97043893114
 20
4677.931598713261
 30
0.0
 11
11822.97043893114
 21
2587.931598713263
 31
0.0
  0
LINE
  5
16C25
330
747D
100
AcDbEntity
  8
細線
 48
50.0
100
AcDbLine
 10
11807.97043893114
 20
4677.931598713261
 30
0.0
 11
11807.97043893114
 21
2587.931598713263
 31
0.0
  0
LINE
  5
16C26
330
747D
100
AcDbEntity
  8
部品1
100
AcDbLine
 10
10485.69556936037
 20
5038.13598667628
 30
0.0
 11
10811.15058300341
 21
5020.617927717418
 31
0.0
  0
ARC
  5
16C27
330
747D
100
AcDbEntity
  8
部品1
100
AcDbCircle
 10
12006.09797474508
 20
4751.955355979054
 30
0.0
 40
0.7
100
AcDbArc
 50
275.0921697642102
 51
354.1866997667638
  0
ARC
  5
16C28
330
747D
100
AcDbEntity
  8
部品1
100
AcDbCircle
 10
12016.95732049439
 20
4828.998610796978
 30
0.0
 40
0.7
100
AcDbArc
 50
275.0921697642102
 51
354.1866997665565
  0
ARC
  5
16C29
330
747D
100
AcDbEntity
  8
部品1
100
AcDbCircle
 10
12017.285725737
 20
4825.313213939889
 30
0.0
 40
3.0
100
AcDbArc
 50
95.0921697642102
 51
174.1866997665564
  0
ARC
  5
16C2A
330
747D
100
AcDbEntity
  8
部品1
100
AcDbCircle
 10
12006.42637998767
 20
4748.269959121964
 30
0.0
 40
3.0
100
AcDbArc
 50
95.0921697642102
 51
174.1866997665564
  0
ARC
  5
16C2B
330
747D
100
AcDbEntity
  8
部品1
 48
50.0
100
AcDbCircle
 10
11995.39824471256
 20
4738.679214518082
 30
0.0
 40
7.0
100
AcDbArc
 50
267.8377559869488
 51
354.1866997665565
  0
ARC
  5
16C2C
330
747D
100
AcDbEntity
  8
部品1
 48
50.0
100
AcDbCircle
 10
12012.72034117708
 20
4849.581761660257
 30
0.0
 40
7.0
100
AcDbArc
 50
354.1866997665565
 51
87.03587545283093
  0
LINE
  5
16C2D
330
747D
100
AcDbEntity
  8
部品1
 48
50.0
100
AcDbLine
 10
12003.44180831707
 20
4748.573820838866
 30
0.0
 11
12002.36224527732
 21
4737.970203845309
 31
0.0
  0
LINE
  5
16C2E
330
747D
100
AcDbEntity
  8
部品1
 48
50.0
100
AcDbLine
 10
12014.30115406638
 20
4825.617075656792
 30
0.0
 11
12006.79437480155
 21
4751.88445491178
 31
0.0
  0
LINE
  5
16C2F
330
747D
100
AcDbEntity
  8
部品1
 48
50.0
100
AcDbLine
 10
12019.68434174184
 20
4848.872750987481
 30
0.0
 11
12017.65372055087
 21
4828.9277097297
 31
0.0
  0
ARC
  5
16C30
330
747D
100
AcDbEntity
  8
部品1
100
AcDbCircle
 10
9256.507530802503
 20
4791.745757672166
 30
0.0
 40
0.7
100
AcDbArc
 50
181.0932240293156
 51
260.1877540314855
  0
ARC
  5
16C31
330
747D
100
AcDbEntity
  8
部品1
100
AcDbCircle
 10
9251.734857204892
 20
4884.611535872284
 30
0.0
 40
0.7
100
AcDbArc
 50
181.0932240292114
 51
260.1877540314855
  0
ARC
  5
16C32
330
747D
100
AcDbEntity
  8
部品1
100
AcDbCircle
 10
9251.10430280187
 20
4880.965661334887
 30
0.0
 40
3.0
100
AcDbArc
 50
1.093224029315636
 51
80.18775403169708
  0
ARC
  5
16C33
330
747D
100
AcDbEntity
  8
部品1
100
AcDbCircle
 10
9255.876976399477
 20
4788.099883134768
 30
0.0
 40
3.0
100
AcDbArc
 50
1.093224029315636
 51
80.18775403169708
  0
ARC
  5
16C34
330
747D
100
AcDbEntity
  8
部品1
 48
50.0
100
AcDbCircle
 10
9266.077108774679
 20
4777.707639752287
 30
0.0
 40
7.0
100
AcDbArc
 50
181.0932240293156
 51
267.8377559869488
  0
ARC
  5
16C35
330
747D
100
AcDbEntity
  8
部品1
 48
50.0
100
AcDbCircle
 10
9257.653450672583
 20
4904.658699285382
 30
0.0
 40
7.0
100
AcDbArc
 50
87.03587545283093
 51
181.0932240293156
  0
LINE
  5
16C36
330
747D
100
AcDbEntity
  8
部品1
 48
50.0
100
AcDbLine
 10
9258.876430325907
 20
4788.157120737952
 30
0.0
 11
9259.078382946338
 21
4777.574085344858
 31
0.0
  0
LINE
  5
16C37
330
747D
100
AcDbEntity
  8
細線
 48
50.0
100
AcDbLine
 10
9256.270337269235
 20
4791.087168856758
 30
0.0
 11
12006.27400169988
 21
4751.277849882266
 31
0.0
  0
LINE
  5
16C38
330
747D
100
AcDbEntity
  8
細線
 48
50.0
100
AcDbLine
 10
9251.50986203195
 20
4883.948680554624
 30
0.0
 11
12017.14584677712
 21
4828.324475913794
 31
0.0
  0
LINE
  5
16C39
330
747D
100
AcDbEntity
  8
部品1
 48
50.0
100
AcDbLine
 10
9254.1037567283
 20
4881.02289893807
 30
0.0
 11
9255.807658219664
 21
4791.732402231422
 31
0.0
  0
LINE
  5
16C3A
330
747D
100
AcDbEntity
  8
部品1
 48
50.0
100
AcDbLine
 10
9250.654724844242
 20
4904.525144877954
 30
0.0
 11
9251.034984622055
 21
4884.598180431543
 31
0.0
  0
LINE
  5
16C3B
330
747D
100
AcDbEntity
  8
細線
 48
50.0
100
AcDbLine
 10
11987.43972212483
 20
4857.08502119273
 30
0.0
 11
11982.72275604314
 21
4732.152805257814
 31
0.0
  0
LINE
  5
16C3C
330
747D
100
AcDbEntity
  8
細線
 48
50.0
100
AcDbLine
 10
9283.470438931136
 20
4910.331275088667
 30
0.0
 11
9278.181337375629
 21
4770.245642461311
 31
0.0
  0
LINE
  5
16C3D
330
747D
100
AcDbEntity
  8
部品1
100
AcDbLine
 10
9265.813003533088
 20
4770.712623782229
 30
0.0
 11
11995.13413947099
 21
4731.684198548022
 31
0.0
  0
LINE
  5
16C3E
330
747D
100
AcDbEntity
  8
部品1
100
AcDbLine
 10
9258.015425288098
 20
4911.649334047528
 30
0.0
 11
12013.0823157926
 21
4856.5723964224
 31
0.0
  0
LINE
  5
16C3F
330
747D
100
AcDbEntity
  8
部品1
 48
50.0
100
AcDbLine
 10
10511.15058300341
 20
5036.817927717418
 30
0.0
 11
10811.15058300341
 21
5036.817927717418
 31
0.0
  0
LINE
  5
16C40
330
747D
100
AcDbEntity
  8
部品1
 48
50.0
100
AcDbLine
 10
10811.15058300341
 20
5036.817927717418
 30
0.0
 11
10811.15058300341
 21
5020.617927717418
 31
0.0
  0
TEXT
  5
16C41
330
747D
100
AcDbEntity
  8
部品1
 48
50.0
100
AcDbText
 10
10499.41841822714
 20
5072.701949869852
 30
0.0
 40
120.0
  1
1000
  7
STYLE1
100
AcDbText
  0
TEXT
  5
16C42
330
747D
100
AcDbEntity
  8
部品1
 48
50.0
100
AcDbText
 10
10977.05144089223
 20
4935.200691651569
 30
0.0
 40
120.0
  1
37
 50
90.0
  7
STYLE1
100
AcDbText
  0
DIMENSION
  5
16C43
330
747D
100
AcDbEntity
  8
寸法
100
AcDbDimension
  2
*D17
 10
8166.720309747876
 20
4912.931598713261
 30
0.0
 11
8066.708498724253
 21
3725.43159871326
 31
0.0
 70
    32
 71
     5
 42
2375.000000000006
  3
INABA_S40G
100
AcDbAlignedDimension
 13
9310.470438931135
 23
2537.931598713255
 33
0.0
 14
9250.470438931136
 24
4912.931598713261
 34
0.0
 50
90.0
100
AcDbRotatedDimension
1001
ACAD
1000
DSTYLE
1002
{
1070
   174
1070
     0
1070
   272
1070
     1
1070
   288
1070
     0
1070
   341
1005
0
1002
}
  0
DIMENSION
  5
16C44
330
747D
100
AcDbEntity
  8
寸法
 48
50.0
100
AcDbDimension
  2
*D18
 10
8689.862032162757
 20
4787.276857586592
 30
0.0
 11
8700.52750742168
 21
5158.123520828293
 31
0.0
 70
   161
 71
     5
 42
141.0000000000009
  3
INABA_S40G
100
AcDbAlignedDimension
 13
9269.866459089715
 23
4911.654347547941
 33
0.0
 14
9265.813003533088
 24
4770.712623782229
 34
0.0
1001
ACAD
1000
DSTYLE
1002
{
1070
   174
1070
     0
1070
   272
1070
     1
1070
   288
1070
     0
1070
   341
1005
0
1002
}
  0
DIMENSION
  5
16C45
330
747D
100
AcDbEntity
  8
寸法
 48
50.0
100
AcDbDimension
  2
*D19
 10
9250.470438931136
 20
5311.589052292566
 30
0.0
 11
8940.832643655545
 21
5311.589052292566
 31
0.0
 70
   160
 71
     5
 42
60.0
  3
INABA_S40G
100
AcDbAlignedDimension
 13
9310.470438931135
 23
4908.933216836238
 33
0.0
 14
9250.470438931136
 24
4912.931598713267
 34
0.0
100
AcDbRotatedDimension
1001
ACAD
1000
DSTYLE
1002
{
1070
   174
1070
     0
1070
   272
1070
     1
1070
   288
1070
     0
1070
   341
1005
0
1002
}
  0
DIMENSION
  5
16C46
330
747D
100
AcDbEntity
  8
寸法
 48
50.0
100
AcDbDimension
  2
*D20
 10
9310.470438931135
 20
5311.589052292568
 30
0.0
 11
10625.47043893113
 21
5311.589052292568
 31
0.0
 70
   160
  1
柱外寸法<>
 71
     5
 42
2630.000000000002
  3
INABA_S40G
100
AcDbAlignedDimension
 13
11940.47043893114
 23
4859.742278324915
 33
0.0
 14
9310.470438931135
 24
4908.933216836238
 34
0.0
100
AcDbRotatedDimension
1001
ACAD
1000
DSTYLE
1002
{
1070
   174
1070
     0
1070
   272
1070
     1
1070
   288
1070
     0
1070
   341
1005
0
1002
}
  0
DIMENSION
  5
16C47
330
747D
100
AcDbEntity
  8
寸法
 48
50.0
100
AcDbDimension
  2
*D21
 10
9250.470438931136
 20
5531.799739024183
 30
0.0
 11
10635.47043893114
 21
5531.799739024183
 31
0.0
 70
   160
 71
     5
 42
2770.000000000002
  3
INABA_S40G
100
AcDbAlignedDimension
 13
12020.47043893114
 23
4857.931598713263
 33
0.0
 14
9250.470438931136
 24
4912.931598713267
 34
0.0
100
AcDbRotatedDimension
1001
ACAD
1000
DSTYLE
1002
{
1070
   174
1070
     0
1070
   272
1070
     1
1070
   288
1070
     0
1070
   341
1005
0
1002
}
  0
DIMENSION
  5
16C48
330
747D
100
AcDbEntity
  8
寸法
 48
50.0
100
AcDbDimension
  2
*D22
 10
12020.47043893114
 20
5311.589052292568
 30
0.0
 11
12226.51768302562
 21
5311.589052292568
 31
0.0
 70
   160
 71
     5
 42
80.0
  3
INABA_S40G
100
AcDbAlignedDimension
 13
11940.47043893114
 23
4859.742278324915
 33
0.0
 14
12020.47043893114
 24
4857.931598713263
 34
0.0
100
AcDbRotatedDimension
1001
ACAD
1000
DSTYLE
1002
{
1070
   174
1070
     0
1070
   272
1070
     1
1070
   288
1070
     0
1070
   341
1005
0
1002
}
  0
LINE
  5
16C49
330
747D
100
AcDbEntity
  8
部品1
100
AcDbLine
 10
4324.673057123656
 20
4677.931598713261
 30
0.0
 11
7374.673057123657
 21
4677.931598713261
 31
0.0
  0
DIMENSION
  5
16C4A
330
747D
100
AcDbEntity
  8
寸法
 48
50.0
100
AcDbDimension
  2
*D23
 10
7424.673057123666
 20
5346.378484445256
 30
0.0
 11
5849.673057123658
 21
5346.378484445256
 31
0.0
 70
   160
 71
     5
 42
3150.000000000015
  3
INABA_S40G
100
AcDbAlignedDimension
 13
4274.673057123651
 23
4912.931598713267
 33
0.0
 14
7424.673057123666
 24
4912.931598713264
 34
0.0
100
AcDbRotatedDimension
  0
DIMENSION
  5
16C4B
330
747D
100
AcDbEntity
  8
寸法
 48
50.0
100
AcDbDimension
  2
*D24
 10
7374.673057123665
 20
5125.473183971505
 30
0.0
 11
7738.158338497902
 21
5125.473183971505
 31
0.0
 70
   160
 71
     5
 42
50.0
  3
INABA_S40G
100
AcDbAlignedDimension
 13
7424.673057123666
 23
4912.931598713264
 33
0.0
 14
7374.673057123665
 24
4912.931598713266
 34
0.0
100
AcDbRotatedDimension
  0
DIMENSION
  5
16C4C
330
747D
100
AcDbEntity
  8
寸法
 48
50.0
100
AcDbDimension
  2
*D25
 10
4274.673057123651
 20
5125.473183971506
 30
0.0
 11
3961.187775749404
 21
5125.473183971506
 31
0.0
 70
   160
 71
     5
 42
50.0
  3
INABA_S40G
100
AcDbAlignedDimension
 13
4324.673057123651
 23
4912.931598713268
 33
0.0
 14
4274.673057123651
 24
4912.931598713267
 34
0.0
100
AcDbRotatedDimension
1001
ACAD
1000
DSTYLE
1002
{
1002
}
  0
DIMENSION
  5
16C4D
330
747D
100
AcDbEntity
  8
寸法
 48
50.0
100
AcDbDimension
  2
*D26
 10
4324.673057123651
 20
5125.473183971506
 30
0.0
 11
5849.673057123658
 21
5125.473183971506
 31
0.0
 70
   160
  1
柱外寸法<>
 71
     5
 42
3050.000000000015
  3
INABA_S40G
100
AcDbAlignedDimension
 13
7374.673057123665
 23
4912.931598713266
 33
0.0
 14
4324.673057123651
 24
4912.931598713268
 34
0.0
100
AcDbRotatedDimension
  0
LINE
  5
16C7A
330
747D
100
AcDbEntity
  8
部品1
 48
50.0
100
AcDbLine
 10
7417.264636017233
 20
4912.931598713264
 30
0.0
 11
4282.081478230081
 21
4912.931598713264
 31
0.0
  0
LINE
  5
16C7B
330
747D
100
AcDbEntity
  8
部品1
 48
50.0
100
AcDbLine
 10
7404.0493125562
 20
4771.931598713265
 30
0.0
 11
4295.296801691114
 21
4771.931598713265
 31
0.0
  0
LINE
  5
16C7C
330
747D
100
AcDbEntity
  8
細線
 48
50.0
100
AcDbLine
 10
7422.51440611175
 20
4884.904841276732
 30
0.0
 11
4276.83170813525
 21
4884.904841277102
 31
0.0
  0
LINE
  5
16C7D
330
747D
100
AcDbEntity
  8
細線
 48
50.0
100
AcDbLine
 10
7414.278375586906
 20
4792.704841276732
 30
0.0
 11
4285.06773866008
 21
4792.7048412771
 31
0.0
  0
LINE
  5
16C7E
330
747D
100
AcDbEntity
  8
部品1
100
AcDbLine
 10
7424.253396108333
 20
4905.535073318024
 30
0.0
 11
7423.119998775987
 21
4885.558945335425
 31
0.0
  0
LINE
  5
16C7F
330
747D
100
AcDbEntity
  8
細線
 48
50.0
100
AcDbLine
 10
7391.673057123665
 20
4912.931598713264
 30
0.0
 11
7391.673057123665
 21
4771.931598713264
 31
0.0
  0
LINE
  5
16C80
330
747D
100
AcDbEntity
  8
細線
 48
50.0
100
AcDbLine
 10
4307.673057123651
 20
4912.931598713265
 30
0.0
 11
4307.673057123651
 21
4771.931598713265
 31
0.0
  0
LINE
  5
16C81
330
747D
100
AcDbEntity
  8
部品1
100
AcDbLine
 10
7411.682978454409
 20
4789.901538168367
 30
0.0
 11
7411.038072647298
 21
4778.535073318026
 31
0.0
  0
LINE
  5
16C82
330
747D
100
AcDbEntity
  8
部品1
100
AcDbLine
 10
7419.919008979253
 20
4882.101538168367
 30
0.0
 11
7414.883968251142
 21
4793.358945335424
 31
0.0
  0
ARC
  5
16C83
330
747D
100
AcDbEntity
  8
部品1
 48
50.0
100
AcDbCircle
 10
7422.914191875439
 20
4881.931598713266
 30
0.0
 40
3.0
100
AcDbArc
 50
97.6581272073639
 51
176.7526572096558
  0
ARC
  5
16C84
330
747D
100
AcDbEntity
  8
部品1
 48
50.0
100
AcDbCircle
 10
7414.678161350595
 20
4789.731598713263
 30
0.0
 40
3.0
100
AcDbArc
 50
97.6581272073639
 51
176.7526572096558
  0
ARC
  5
16C85
330
747D
100
AcDbEntity
  8
部品1
 48
50.0
100
AcDbCircle
 10
7414.185092242035
 20
4793.398597874946
 30
0.0
 40
0.7
100
AcDbArc
 50
277.6581272073639
 51
356.7526572097079
  0
ARC
  5
16C86
330
747D
100
AcDbEntity
  8
部品1
 48
50.0
100
AcDbCircle
 10
7422.421122766879
 20
4885.598597874952
 30
0.0
 40
0.7
100
AcDbArc
 50
277.6581272073639
 51
356.7526572096038
  0
ARC
  5
16C87
330
747D
100
AcDbEntity
  8
部品1
100
AcDbCircle
 10
7404.0493125562
 20
4778.931598713266
 30
0.0
 40
7.0
100
AcDbArc
 50
270.0
 51
356.7526572096558
  0
ARC
  5
16C88
330
747D
100
AcDbEntity
  8
部品1
100
AcDbCircle
 10
7417.264636017233
 20
4905.931598713264
 30
0.0
 40
7.0
100
AcDbArc
 50
356.7526572096558
 51
90.0
  0
ARC
  5
16C89
330
747D
100
AcDbEntity
  8
部品1
100
AcDbCircle
 10
4282.081478230081
 20
4905.931598713265
 30
0.0
 40
7.0
100
AcDbArc
 50
90.0
 51
183.2473427903441
  0
ARC
  5
16C8A
330
747D
100
AcDbEntity
  8
部品1
100
AcDbCircle
 10
4295.296801691114
 20
4778.931598713266
 30
0.0
 40
7.0
100
AcDbArc
 50
183.2473427903441
 51
270.0
  0
ARC
  5
16C8B
330
747D
100
AcDbEntity
  8
部品1
 48
50.0
100
AcDbCircle
 10
4276.924991480438
 20
4885.598597874952
 30
0.0
 40
0.7
100
AcDbArc
 50
183.2473427903962
 51
262.3418727926361
  0
ARC
  5
16C8C
330
747D
100
AcDbEntity
  8
部品1
 48
50.0
100
AcDbCircle
 10
4285.161022005278
 20
4793.398597874948
 30
0.0
 40
0.7
100
AcDbArc
 50
183.2473427902922
 51
262.3418727926361
  0
ARC
  5
16C8D
330
747D
100
AcDbEntity
  8
部品1
 48
50.0
100
AcDbCircle
 10
4284.667952896717
 20
4789.731598713264
 30
0.0
 40
3.0
100
AcDbArc
 50
3.247342790344184
 51
82.34187279263609
  0
ARC
  5
16C8E
330
747D
100
AcDbEntity
  8
部品1
 48
50.0
100
AcDbCircle
 10
4276.431922371874
 20
4881.931598713267
 30
0.0
 40
3.0
100
AcDbArc
 50
3.247342790344184
 51
82.34187279263609
  0
LINE
  5
16C8F
330
747D
100
AcDbEntity
  8
部品1
100
AcDbLine
 10
4279.42710526806
 20
4882.101538168369
 30
0.0
 11
4284.462145996171
 21
4793.358945335425
 31
0.0
  0
LINE
  5
16C90
330
747D
100
AcDbEntity
  8
部品1
100
AcDbLine
 10
4287.663135792906
 20
4789.901538168368
 30
0.0
 11
4288.308041600015
 21
4778.535073318027
 31
0.0
  0
LINE
  5
16C91
330
747D
100
AcDbEntity
  8
部品1
100
AcDbLine
 10
4275.092718138981
 20
4905.535073318026
 30
0.0
 11
4276.22611547133
 21
4885.558945335426
 31
0.0
  0
TEXT
  5
16C92
330
747D
100
AcDbEntity
  8
部品1
100
AcDbText
 10
5557.857333838481
 20
5749.009426747648
 30
0.0
 40
135.0
  1
平面図
  7
STYLE2
100
AcDbText
  0
LWPOLYLINE
  5
16C93
330
747D
100
AcDbEntity
  8
部品1
100
AcDbPolyline
 90
        4
 70
     1
 43
0.0
 10
5467.937724009444
 20
5941.902955966172
 10
5467.937724009444
 20
5702.01063442064
 10
6231.408390237884
 20
5702.01063442064
 10
6231.408390237884
 20
5941.902955966172
  0
LINE
  5
16CE8
330
747D
100
AcDbEntity
  8
部品1
100
AcDbLine
 10
4379.673057123656
 20
2587.931598713262
 30
0.0
 11
7319.673057123657
 21
2587.931598713261
 31
0.0
  0
LINE
  5
16CE9
330
747D
100
AcDbEntity
  8
部品1
 48
50.0
100
AcDbLine
 10
10945.47043893113
 20
2537.931598713262
 30
0.0
 11
10945.47043893114
 21
2437.931598713261
 31
0.0
  0
LINE
  5
16CEA
330
747D
100
AcDbEntity
  8
部品1
 48
50.0
100
AcDbLine
 10
11145.47043893113
 20
2537.931598713265
 30
0.0
 11
11145.47043893114
 21
2437.931598713265
 31
0.0
  0
LINE
  5
16CEB
330
747D
100
AcDbEntity
  8
部品1
 48
50.0
100
AcDbLine
 10
10305.47043893113
 20
2537.931598713265
 30
0.0
 11
10305.47043893114
 21
2437.931598713265
 31
0.0
  0
LINE
  5
16CEC
330
747D
100
AcDbEntity
  8
部品1
 48
50.0
100
AcDbLine
 10
10105.47043893113
 20
2537.931598713262
 30
0.0
 11
10105.47043893114
 21
2437.931598713261
 31
0.0
  0
LINE
  5
16CED
330
747D
100
AcDbEntity
  8
部品1
100
AcDbLine
 10
5949.673057123657
 20
2537.931598713262
 30
0.0
 11
5949.673057123657
 21
2437.931598713261
 31
0.0
  0
LINE
  5
16CEE
330
747D
100
AcDbEntity
  8
部品1
100
AcDbLine
 10
5749.673057123657
 20
2537.931598713262
 30
0.0
 11
5749.673057123657
 21
2437.931598713261
 31
0.0
  0
LINE
  5
16CEF
330
747D
100
AcDbEntity
  8
部品1
100
AcDbLine
 10
6475.673057123657
 20
2537.931598713262
 30
0.0
 11
6475.673057123657
 21
2437.931598713261
 31
0.0
  0
LINE
  5
16CF0
330
747D
100
AcDbEntity
  8
部品1
100
AcDbLine
 10
5223.673057123657
 20
2537.931598713262
 30
0.0
 11
5223.673057123657
 21
2437.931598713261
 31
0.0
  0
LINE
  5
16CF1
330
747D
100
AcDbEntity
  8
部品1
100
AcDbLine
 10
6675.673057123657
 20
2537.931598713262
 30
0.0
 11
6675.673057123657
 21
2437.931598713261
 31
0.0
  0
LINE
  5
16CF2
330
747D
100
AcDbEntity
  8
部品1
100
AcDbLine
 10
5023.673057123657
 20
2537.931598713262
 30
0.0
 11
5023.673057123657
 21
2437.931598713261
 31
0.0
  0
LINE
  5
16CF3
330
747D
100
AcDbEntity
  8
部品1
100
AcDbLine
 10
6974.673057123656
 20
2537.93159871326
 30
0.0
 11
6974.673057123657
 21
2437.93159871326
 31
0.0
  0
LINE
  5
16CF4
330
747D
100
AcDbEntity
  8
部品1
100
AcDbLine
 10
7374.673057123655
 20
2537.931598713264
 30
0.0
 11
7374.673057123657
 21
2437.931598713263
 31
0.0
  0
LINE
  5
16CF5
330
747D
100
AcDbEntity
  8
部品1
100
AcDbLine
 10
4724.673057123655
 20
2537.931598713263
 30
0.0
 11
4724.673057123657
 21
2437.931598713263
 31
0.0
  0
LINE
  5
16CF6
330
747D
100
AcDbEntity
  8
部品1
100
AcDbLine
 10
7174.673057123655
 20
2537.931598713262
 30
0.0
 11
7174.673057123657
 21
2437.931598713261
 31
0.0
  0
LINE
  5
16CF7
330
747D
100
AcDbEntity
  8
部品1
100
AcDbLine
 10
4524.673057123655
 20
2537.931598713262
 30
0.0
 11
4524.673057123656
 21
2437.931598713261
 31
0.0
  0
LINE
  5
16CF8
330
747D
100
AcDbEntity
  8
部品1
100
AcDbLine
 10
9765.470438931139
 20
2537.931598713262
 30
0.0
 11
9765.470438931139
 21
2437.931598713261
 31
0.0
  0
LINE
  5
16CF9
330
747D
100
AcDbEntity
  8
部品1
100
AcDbLine
 10
11740.47043893114
 20
2537.931598713262
 30
0.0
 11
11740.47043893114
 21
2437.931598713261
 31
0.0
  0
ARC
  5
16D58
330
747D
100
AcDbEntity
  8
細線
 48
50.0
100
AcDbCircle
 10
5549.673057123655
 20
3150.431598713261
 30
0.0
 40
15.0
100
AcDbArc
 50
90.0
 51
270.0
  0
ARC
  5
16D59
330
747D
100
AcDbEntity
  8
細線
 48
50.0
100
AcDbCircle
 10
5649.673057123655
 20
3150.431598713261
 30
0.0
 40
15.0
100
AcDbArc
 50
270.0
 51
90.0
  0
LINE
  5
16D5A
330
747D
100
AcDbEntity
  8
細線
 48
50.0
100
AcDbLine
 10
5549.673057123655
 20
3165.431598713261
 30
0.0
 11
5649.673057123655
 21
3165.431598713261
 31
0.0
  0
LINE
  5
16D5B
330
747D
100
AcDbEntity
  8
細線
 48
50.0
100
AcDbLine
 10
5649.673057123655
 20
3135.431598713262
 30
0.0
 11
5549.673057123655
 21
3135.431598713262
 31
0.0
  0
LINE
  5
16D5C
330
747D
100
AcDbEntity
  8
細線
 48
50.0
100
AcDbLine
 10
6149.673057123655
 20
3135.431598713262
 30
0.0
 11
6049.673057123655
 21
3135.431598713262
 31
0.0
  0
LINE
  5
16D5D
330
747D
100
AcDbEntity
  8
細線
 48
50.0
100
AcDbLine
 10
6049.673057123655
 20
3165.431598713261
 30
0.0
 11
6149.673057123655
 21
3165.431598713261
 31
0.0
  0
ARC
  5
16D5E
330
747D
100
AcDbEntity
  8
細線
 48
50.0
100
AcDbCircle
 10
6049.673057123655
 20
3150.431598713261
 30
0.0
 40
15.0
100
AcDbArc
 50
90.0
 51
270.0
  0
ARC
  5
16D5F
330
747D
100
AcDbEntity
  8
細線
 48
50.0
100
AcDbCircle
 10
6149.673057123655
 20
3150.431598713261
 30
0.0
 40
15.0
100
AcDbArc
 50
270.0
 51
90.0
  0
CIRCLE
  5
16D60
330
747D
100
AcDbEntity
  8
細線
 48
50.0
100
AcDbCircle
 10
5849.673057123655
 20
3475.431598713262
 30
0.0
 40
18.0
  0
LINE
  5
16D64
330
747D
100
AcDbEntity
  8
細線
100
AcDbLine
 10
7271.673057123656
 20
2597.931598713262
 30
0.0
 11
4427.673057123651
 21
2597.931598713262
 31
0.0
  0
LINE
  5
16D65
330
747D
100
AcDbEntity
  8
細線
100
AcDbLine
 10
4427.673057123653
 20
3117.931598713262
 30
0.0
 11
7271.673057123655
 21
3117.931598713262
 31
0.0
  0
LINE
  5
16D66
330
747D
100
AcDbEntity
  8
細線
100
AcDbLine
 10
4427.673057123653
 20
3052.931598713261
 30
0.0
 11
7271.673057123655
 21
3052.931598713261
 31
0.0
  0
LINE
  5
16D67
330
747D
100
AcDbEntity
  8
細線
100
AcDbLine
 10
4427.673057123653
 20
2987.931598713262
 30
0.0
 11
7271.673057123655
 21
2987.931598713262
 31
0.0
  0
LINE
  5
16D68
330
747D
100
AcDbEntity
  8
細線
100
AcDbLine
 10
4427.673057123653
 20
2922.931598713262
 30
0.0
 11
7271.673057123655
 21
2922.931598713262
 31
0.0
  0
LINE
  5
16D69
330
747D
100
AcDbEntity
  8
細線
100
AcDbLine
 10
4427.673057123653
 20
2857.931598713261
 30
0.0
 11
7271.673057123655
 21
2857.931598713261
 31
0.0
  0
LINE
  5
16D6A
330
747D
100
AcDbEntity
  8
細線
100
AcDbLine
 10
4427.673057123653
 20
2792.931598713261
 30
0.0
 11
7271.673057123655
 21
2792.931598713261
 31
0.0
  0
LINE
  5
16D6B
330
747D
100
AcDbEntity
  8
細線
100
AcDbLine
 10
4427.673057123653
 20
2727.931598713261
 30
0.0
 11
7271.673057123655
 21
2727.931598713261
 31
0.0
  0
LINE
  5
16D6C
330
747D
100
AcDbEntity
  8
細線
100
AcDbLine
 10
4427.673057123653
 20
2662.931598713262
 30
0.0
 11
7271.673057123655
 21
2662.931598713262
 31
0.0
  0
LINE
  5
16D6D
330
747D
100
AcDbEntity
  8
細線
100
AcDbLine
 10
4427.673057123653
 20
4417.931598713261
 30
0.0
 11
7271.673057123655
 21
4417.931598713261
 31
0.0
  0
LINE
  5
16D6E
330
747D
100
AcDbEntity
  8
細線
100
AcDbLine
 10
4427.673057123653
 20
4482.931598713261
 30
0.0
 11
7271.673057123655
 21
4482.931598713261
 31
0.0
  0
LINE
  5
16D6F
330
747D
100
AcDbEntity
  8
細線
100
AcDbLine
 10
4427.673057123653
 20
3767.931598713261
 30
0.0
 11
7271.673057123655
 21
3767.931598713261
 31
0.0
  0
LINE
  5
16D70
330
747D
100
AcDbEntity
  8
細線
100
AcDbLine
 10
4427.673057123653
 20
3702.931598713262
 30
0.0
 11
7271.673057123655
 21
3702.931598713262
 31
0.0
  0
LINE
  5
16D71
330
747D
100
AcDbEntity
  8
細線
100
AcDbLine
 10
4427.673057123653
 20
3637.931598713262
 30
0.0
 11
7271.673057123655
 21
3637.931598713262
 31
0.0
  0
LINE
  5
16D72
330
747D
100
AcDbEntity
  8
細線
100
AcDbLine
 10
4427.673057123653
 20
3572.931598713262
 30
0.0
 11
7271.673057123655
 21
3572.931598713262
 31
0.0
  0
LINE
  5
16D73
330
747D
100
AcDbEntity
  8
細線
100
AcDbLine
 10
4427.673057123653
 20
3507.931598713262
 30
0.0
 11
7271.673057123655
 21
3507.931598713262
 31
0.0
  0
LINE
  5
16D74
330
747D
100
AcDbEntity
  8
細線
100
AcDbLine
 10
4427.673057123653
 20
3442.931598713261
 30
0.0
 11
7271.673057123655
 21
3442.931598713261
 31
0.0
  0
LINE
  5
16D75
330
747D
100
AcDbEntity
  8
細線
100
AcDbLine
 10
4427.673057123653
 20
3377.931598713261
 30
0.0
 11
7271.673057123655
 21
3377.931598713261
 31
0.0
  0
LINE
  5
16D76
330
747D
100
AcDbEntity
  8
細線
100
AcDbLine
 10
4427.673057123653
 20
3312.931598713261
 30
0.0
 11
7271.673057123655
 21
3312.931598713261
 31
0.0
  0
LINE
  5
16D77
330
747D
100
AcDbEntity
  8
細線
100
AcDbLine
 10
4427.673057123653
 20
3247.931598713261
 30
0.0
 11
7271.673057123655
 21
3247.931598713261
 31
0.0
  0
LINE
  5
16D78
330
747D
100
AcDbEntity
  8
細線
100
AcDbLine
 10
4427.673057123653
 20
3182.931598713262
 30
0.0
 11
7271.673057123655
 21
3182.931598713262
 31
0.0
  0
LINE
  5
16D79
330
747D
100
AcDbEntity
  8
細線
100
AcDbLine
 10
4427.673057123653
 20
4157.931598713261
 30
0.0
 11
7271.673057123655
 21
4157.931598713261
 31
0.0
  0
LINE
  5
16D7A
330
747D
100
AcDbEntity
  8
細線
100
AcDbLine
 10
4427.673057123653
 20
4092.931598713261
 30
0.0
 11
7271.673057123655
 21
4092.931598713261
 31
0.0
  0
LINE
  5
16D7B
330
747D
100
AcDbEntity
  8
細線
100
AcDbLine
 10
4427.673057123653
 20
4027.931598713261
 30
0.0
 11
7271.673057123655
 21
4027.931598713261
 31
0.0
  0
LINE
  5
16D7C
330
747D
100
AcDbEntity
  8
細線
100
AcDbLine
 10
4427.673057123653
 20
3962.931598713261
 30
0.0
 11
7271.673057123655
 21
3962.931598713261
 31
0.0
  0
LINE
  5
16D7D
330
747D
100
AcDbEntity
  8
細線
100
AcDbLine
 10
4427.673057123653
 20
3897.931598713262
 30
0.0
 11
7271.673057123655
 21
3897.931598713262
 31
0.0
  0
LINE
  5
16D7E
330
747D
100
AcDbEntity
  8
細線
100
AcDbLine
 10
4427.673057123653
 20
3832.931598713262
 30
0.0
 11
7271.673057123655
 21
3832.931598713262
 31
0.0
  0
LINE
  5
16D7F
330
747D
100
AcDbEntity
  8
細線
100
AcDbLine
 10
4427.673057123653
 20
4352.931598713261
 30
0.0
 11
7271.673057123655
 21
4352.931598713261
 31
0.0
  0
LINE
  5
16D80
330
747D
100
AcDbEntity
  8
細線
100
AcDbLine
 10
4427.673057123653
 20
4287.931598713261
 30
0.0
 11
7271.673057123655
 21
4287.931598713261
 31
0.0
  0
LINE
  5
16D81
330
747D
100
AcDbEntity
  8
細線
100
AcDbLine
 10
4427.673057123653
 20
4222.931598713262
 30
0.0
 11
7271.673057123655
 21
4222.931598713262
 31
0.0
  0
LINE
  5
16D82
330
747D
100
AcDbEntity
  8
部品1
100
AcDbLine
 10
4324.673057123656
 20
4512.931598713262
 30
0.0
 11
7374.673057123655
 21
4512.931598713263
 31
0.0
  0
LINE
  5
16D83
330
747D
100
AcDbEntity
  8
部品1
100
AcDbLine
 10
7271.673057123658
 20
4512.931598713262
 30
0.0
 11
7271.673057123658
 21
2587.931598713261
 31
0.0
  0
LINE
  5
16D84
330
747D
100
AcDbEntity
  8
部品1
100
AcDbLine
 10
4427.673057123657
 20
4512.931598713261
 30
0.0
 11
4427.673057123657
 21
2587.931598713262
 31
0.0
  0
LINE
  5
16D85
330
747D
100
AcDbEntity
  8
破線
  6
HIDDEN
 48
5.0
100
AcDbLine
 10
4379.673057123655
 20
2187.931598713269
 30
0.0
 11
4324.673057123654
 21
2187.931598713269
 31
0.0
  0
LINE
  5
16D86
330
747D
100
AcDbEntity
  8
破線
  6
HIDDEN
 48
5.0
100
AcDbLine
 10
7374.673057123655
 20
2187.931598713261
 30
0.0
 11
7319.673057123657
 21
2187.931598713261
 31
0.0
  0
LINE
  5
16D87
330
747D
100
AcDbEntity
  8
破線
  6
HIDDEN
 48
5.0
100
AcDbLine
 10
4379.673057123656
 20
2437.931598713261
 30
0.0
 11
4379.673057123655
 21
2187.931598713261
 31
0.0
  0
LINE
  5
16D88
330
747D
100
AcDbEntity
  8
破線
  6
HIDDEN
 48
5.0
100
AcDbLine
 10
7319.673057123657
 20
2437.931598713261
 30
0.0
 11
7319.673057123657
 21
2187.931598713261
 31
0.0
  0
LINE
  5
16D8A
330
747D
100
AcDbEntity
  8
破線
  6
HIDDEN
 48
5.0
100
AcDbLine
 10
9310.470438931139
 20
2437.931598713261
 30
0.0
 11
9310.470438931139
 21
2187.931598713261
 31
0.0
  0
LINE
  5
16D8B
330
747D
100
AcDbEntity
  8
破線
  6
HIDDEN
 48
5.0
100
AcDbLine
 10
9365.470438931138
 20
2437.931598713261
 30
0.0
 11
9365.470438931138
 21
2187.931598713261
 31
0.0
  0
LINE
  5
16D8C
330
747D
100
AcDbEntity
  8
破線
  6
HIDDEN
 48
5.0
100
AcDbLine
 10
9310.470438931139
 20
2187.931598713261
 30
0.0
 11
9365.470438931138
 21
2187.931598713261
 31
0.0
  0
LINE
  5
16D91
330
747D
100
AcDbEntity
  8
破線
  6
HIDDEN
 48
5.0
100
AcDbLine
 10
4324.673057123656
 20
2437.931598713261
 30
0.0
 11
4324.673057123654
 21
2187.931598713261
 31
0.0
  0
LINE
  5
16D92
330
747D
100
AcDbEntity
  8
破線
  6
HIDDEN
 48
5.0
100
AcDbLine
 10
7374.673057123657
 20
2437.931598713261
 30
0.0
 11
7374.673057123657
 21
2187.931598713261
 31
0.0
  0
LINE
  5
16D93
330
747D
100
AcDbEntity
  8
部品1
100
AcDbLine
 10
9365.470438931138
 20
2537.931598713262
 30
0.0
 11
11892.97043893113
 21
2537.931598713262
 31
0.0
  0
LINE
  5
16D94
330
747D
100
AcDbEntity
  8
部品1
100
AcDbLine
 10
11932.97043893114
 20
2537.931598713262
 30
0.0
 11
11940.47043893114
 21
2537.931598713262
 31
0.0
  0
LINE
  5
16D9B
330
747D
100
AcDbEntity
  8
破線
  6
HIDDEN
 48
5.0
100
AcDbLine
 10
11932.97043893113
 20
2437.931598713261
 30
0.0
 11
11932.97043893113
 21
2432.931598713262
 31
0.0
  0
LINE
  5
16D9C
330
747D
100
AcDbEntity
  8
破線
  6
HIDDEN
 48
5.0
100
AcDbLine
 10
11892.97043893114
 20
2437.931598713261
 30
0.0
 11
11892.97043893114
 21
2432.931598713262
 31
0.0
  0
ARC
  5
16D9D
330
747D
100
AcDbEntity
  8
部品1
 48
50.0
100
AcDbCircle
 10
11927.97043893113
 20
2577.931598713262
 30
0.0
 40
5.0
100
AcDbArc
 50
0.0
 51
90.0
  0
ARC
  5
16D9E
330
747D
100
AcDbEntity
  8
部品1
 48
50.0
100
AcDbCircle
 10
11897.97043893113
 20
2577.931598713262
 30
0.0
 40
5.0
100
AcDbArc
 50
90.0
 51
180.0
  0
LINE
  5
16D9F
330
747D
100
AcDbEntity
  8
部品1
100
AcDbLine
 10
11927.97043893113
 20
2582.931598713261
 30
0.0
 11
11897.97043893113
 21
2582.931598713261
 31
0.0
  0
LINE
  5
16DA0
330
747D
100
AcDbEntity
  8
部品1
 48
50.0
100
AcDbLine
 10
11932.97043893114
 20
2577.931598713262
 30
0.0
 11
11932.97043893113
 21
2437.931598713261
 31
0.0
  0
LINE
  5
16DA1
330
747D
100
AcDbEntity
  8
部品1
 48
50.0
100
AcDbLine
 10
11892.97043893113
 20
2577.931598713262
 30
0.0
 11
11892.97043893114
 21
2437.931598713261
 31
0.0
  0
LINE
  5
16DA5
330
747D
100
AcDbEntity
  8
破線
  6
HIDDEN
 48
5.0
100
AcDbLine
 10
11947.97043893113
 20
2285.231598713261
 30
0.0
 11
11947.97043893113
 21
2282.931598713261
 31
0.0
  0
LINE
  5
16DA6
330
747D
100
AcDbEntity
  8
破線
  6
HIDDEN
 48
5.0
100
AcDbLine
 10
11932.97043893114
 20
2432.931598713262
 30
0.0
 11
11947.97043893113
 21
2285.231598713261
 31
0.0
  0
LINE
  5
16DA7
330
747D
100
AcDbEntity
  8
破線
  6
HIDDEN
 48
5.0
100
AcDbLine
 10
11877.97043893114
 20
2285.231598713261
 30
0.0
 11
11877.97043893114
 21
2282.931598713261
 31
0.0
  0
LINE
  5
16DA8
330
747D
100
AcDbEntity
  8
破線
  6
HIDDEN
 48
5.0
100
AcDbLine
 10
11892.97043893113
 20
2432.931598713262
 30
0.0
 11
11877.97043893114
 21
2285.231598713261
 31
0.0
  0
LINE
  5
16DA9
330
747D
100
AcDbEntity
  8
破線
  6
HIDDEN
 48
5.0
100
AcDbLine
 10
11947.97043893113
 20
2282.931598713261
 30
0.0
 11
11877.97043893114
 21
2282.931598713261
 31
0.0
  0
LINE
  5
16DAD
330
747D
100
AcDbEntity
  8
部品1
100
AcDbLine
 10
7374.673057123657
 20
4771.931598713265
 30
0.0
 11
7374.673057123657
 21
2437.931598713261
 31
0.0
  0
LINE
  5
16DAE
330
747D
100
AcDbEntity
  8
部品1
100
AcDbLine
 10
4379.673057123656
 20
4512.931598713262
 30
0.0
 11
4379.673057123656
 21
2437.931598713261
 31
0.0
  0
LINE
  5
16DAF
330
747D
100
AcDbEntity
  8
部品1
100
AcDbLine
 10
7319.673057123657
 20
4512.931598713263
 30
0.0
 11
7319.673057123655
 21
2437.931598713261
 31
0.0
  0
LINE
  5
16DB0
330
747D
100
AcDbEntity
  8
部品1
100
AcDbLine
 10
4324.673057123656
 20
4771.931598713265
 30
0.0
 11
4324.673057123656
 21
2437.931598713261
 31
0.0
  0
LINE
  5
16DB1
330
747D
100
AcDbEntity
  8
部品1
100
AcDbLine
 10
4379.673057123656
 20
2537.931598713262
 30
0.0
 11
7319.673057123655
 21
2537.931598713262
 31
0.0
  0
LINE
  5
16DB2
330
747D
100
AcDbEntity
  8
部品1
100
AcDbLine
 10
3485.903465777274
 20
2567.835409280926
 30
0.0
 11
3410.903465777274
 21
2437.931598713261
 31
0.0
  0
TEXT
  5
16DB3
330
747D
100
AcDbEntity
  8
部品1
100
AcDbText
 10
3514.008407902048
 20
2474.038502319163
 30
0.0
 40
125.0
  1
G.L
  7
STYLE2
100
AcDbText
  0
LINE
  5
16DB4
330
747D
100
AcDbEntity
  8
部品1
100
AcDbLine
 10
3410.903465777274
 20
2437.931598713261
 30
0.0
 11
3335.903465777274
 21
2567.835409280926
 31
0.0
  0
LINE
  5
16DB5
330
747D
100
AcDbEntity
  8
部品1
100
AcDbLine
 10
3335.903465777274
 20
2567.835409280926
 30
0.0
 11
3485.903465777274
 21
2567.835409280926
 31
0.0
  0
DIMENSION
  5
16DB6
330
747D
100
AcDbEntity
  8
寸法
100
AcDbDimension
  2
*D27
 10
12645.39759690326
 20
4857.931598713261
 30
0.0
 11
12645.39759690326
 21
3692.931598713261
 31
0.0
 70
   160
 71
     5
 42
2320.0
  3
INABA_S40G
100
AcDbAlignedDimension
 13
11940.47043893114
 23
2537.931598713262
 33
0.0
 14
12035.47043893113
 24
4857.931598713261
 34
0.0
 50
90.0
100
AcDbRotatedDimension
1001
ACAD
1000
DSTYLE
1002
{
1070
   288
1070
     1
1002
}
  0
LINE
  5
16DB7
330
747D
100
AcDbEntity
  8
部品1
100
AcDbLine
 10
11885.47043893114
 20
4677.931598713261
 30
0.0
 11
11885.47043893114
 21
2587.931598713261
 31
0.0
  0
LINE
  5
16DB8
330
747D
100
AcDbEntity
  8
部品1
100
AcDbLine
 10
11940.47043893113
 20
4732.465872101
 30
0.0
 11
11940.47043893114
 21
2437.931598713261
 31
0.0
  0
DIMENSION
  5
16DB9
330
747D
100
AcDbEntity
  8
寸法
100
AcDbDimension
  2
*D28
 10
8466.720309747881
 20
2537.931598713262
 30
0.0
 11
8466.720309747881
 21
2154.181598713261
 31
0.0
 70
   160
 71
     5
 42
50.0
  3
INABA_S40G
100
AcDbAlignedDimension
 13
9310.470438931139
 23
2587.931598713261
 33
0.0
 14
9255.470438931139
 24
2537.931598713262
 34
0.0
 50
90.0
100
AcDbRotatedDimension
1001
ACAD
1000
DSTYLE
1002
{
1070
   288
1070
     1
1002
}
  0
DIMENSION
  5
16DBA
330
747D
100
AcDbEntity
  8
寸法
100
AcDbDimension
  2
*D29
 10
8166.72030974788
 20
2437.931598713261
 30
0.0
 11
8166.72030974788
 21
2022.931598713261
 31
0.0
 70
   160
 71
     5
 42
100.0000000000004
  3
INABA_S40G
100
AcDbAlignedDimension
 13
9255.470438931139
 23
2537.931598713262
 33
0.0
 14
8253.969363036008
 24
2437.931598713261
 34
0.0
 50
90.0
100
AcDbRotatedDimension
1001
ACAD
1000
DSTYLE
1002
{
1070
   288
1070
     1
1002
}
  0
DIMENSION
  5
16DBB
330
747D
100
AcDbEntity
  8
寸法
100
AcDbDimension
  2
*D30
 10
8466.720309747881
 20
2587.931598713262
 30
0.0
 11
8366.708498724257
 21
3632.931598713263
 31
0.0
 70
    32
 71
     5
 42
2089.999999999999
  3
INABA_S40G
100
AcDbAlignedDimension
 13
9310.470438931139
 23
4677.931598713261
 33
0.0
 14
9310.470438931139
 24
2587.931598713261
 34
0.0
 50
90.0
100
AcDbRotatedDimension
1001
ACAD
1000
DSTYLE
1002
{
1070
   288
1070
     1
1002
}
  0
LINE
  5
16DBC
330
747D
100
AcDbEntity
  8
部品1
100
AcDbLine
 10
9310.47043893114
 20
4770.07403664214
 30
0.0
 11
9310.470438931139
 21
2437.931598713261
 31
0.0
  0
LINE
  5
16DBD
330
747D
100
AcDbEntity
  8
部品1
100
AcDbLine
 10
9365.470438931138
 20
4677.931598713261
 30
0.0
 11
9365.470438931138
 21
2437.931598713261
 31
0.0
  0
LINE
  5
16DBE
330
747D
100
AcDbEntity
  8
部品1
100
AcDbLine
 10
9365.470438931138
 20
2587.931598713261
 30
0.0
 11
11940.47043893114
 21
2587.931598713261
 31
0.0
  0
LINE
  5
16DBF
330
747D
100
AcDbEntity
  8
部品1
100
AcDbLine
 10
9310.470438931139
 20
4677.931598713261
 30
0.0
 11
11940.47043893114
 21
4677.931598713261
 31
0.0
  0
LINE
  5
16DC0
330
747D
100
AcDbEntity
  8
Ｇ．Ｌ
100
AcDbLine
 10
3236.406454453174
 20
2437.931598713261
 30
0.0
 11
13630.79354554682
 21
2437.931598713261
 31
0.0
  0
MTEXT
  5
17320
330
747D
100
AcDbEntity
  8
寸法
 62
     7
 48
50.0
100
AcDbMText
 10
5107.388255196301
 20
9196.903693512933
 30
0.0
 40
96.0
 41
0.0
 71
     5
 72
     1
  1
棚 3段
  7
STYLE1
 73
     1
 44
1.0
1001
ACAD
1000
MTEXTBEGIN
1070
    73
1070
     1
1070
    44
1040
1.0
1070
    74
1070
     0
1000
MTEXTEND
  0
MTEXT
  5
17500
330
747D
100
AcDbEntity
  8
寸法
 62
     7
 48
50.0
100
AcDbMText
 10
6617.388255196299
 20
9196.903693512981
 30
0.0
 40
96.0
 41
0.0
 71
     5
 72
     1
  1
棚 3段
  7
STYLE1
 73
     1
 44
1.0
1001
ACAD
1000
MTEXTBEGIN
1070
    73
1070
     1
1070
    44
1040
1.0
1070
    74
1070
     0
1000
MTEXTEND
  0
LINE
  5
17856
330
747D
100
AcDbEntity
  8
補助
  6
PHANTOM
 62
   230
 48
50.0
100
AcDbLine
 10
140.0
 20
0.0
 30
0.0
 11
140.0
 21
11409.6
 31
0.0
  0
TEXT
  5
17873
330
747D
100
AcDbEntity
  8
文字
 62
     7
 48
50.0
100
AcDbText
 10
14665.50486496409
 20
483.8967129911414
 30
0.0
 40
160.0
  1
FXN-81HY
  7
STYLE2
100
AcDbText
  0
DIMENSION
  5
179B1
330
747D
100
AcDbEntity
  8
寸法
 48
50.0
100
AcDbDimension
  2
*D31
 10
7662.216159445403
 20
4485.93159871326
 30
0.0
 11
7562.216159445402
 21
3542.931598713263
 31
0.0
 70
    32
  1
有効開口部高サ <>
 71
     5
 42
1885.999999999999
  3
INABA_S40G
100
AcDbAlignedDimension
 13
7374.673057123657
 23
2599.931598713262
 33
0.0
 14
7374.673057123658
 24
4485.93159871326
 34
0.0
 50
90.0
100
AcDbRotatedDimension
  0
DIMENSION
  5
179B2
330
747D
100
AcDbEntity
  8
寸法
 48
50.0
100
AcDbDimension
  2
*D32
 10
7662.216159445403
 20
4512.931598713263
 30
0.0
 11
7802.385982691768
 21
4513.89879855292
 31
0.0
 70
   160
 71
     5
 42
27.00000000000273
  3
INABA_S40G
100
AcDbAlignedDimension
 13
7374.673057123658
 23
4485.93159871326
 33
0.0
 14
7374.673057123655
 24
4512.931598713263
 34
0.0
 50
90.0
100
AcDbRotatedDimension
1001
ACAD
1000
DSTYLE
1002
{
1070
   279
1070
     2
1002
}
  0
DIMENSION
  5
179B3
330
747D
100
AcDbEntity
  8
寸法
 48
50.0
100
AcDbDimension
  2
*D33
 10
7662.216159445404
 20
4677.931598713261
 30
0.0
 11
7662.216159445403
 21
4916.416880087502
 31
0.0
 70
   160
 71
     5
 42
164.9999999999982
  3
INABA_S40G
100
AcDbAlignedDimension
 13
7374.673057123655
 23
4512.931598713263
 33
0.0
 14
7374.673057123657
 24
4677.931598713261
 34
0.0
 50
90.0
100
AcDbRotatedDimension
1001
ACAD
1000
DSTYLE
1002
{
1002
}
  0
ARC
  5
17BFF
330
747D
100
AcDbEntity
  8
部品1
 48
0.01
100
AcDbCircle
 10
6376.673057123658
 20
4710.431598713259
 30
0.0
 40
2.0
100
AcDbArc
 50
180.0
 51
270.0
  0
ARC
  5
17C00
330
747D
100
AcDbEntity
  8
部品1
 48
0.01
100
AcDbCircle
 10
6552.673057123659
 20
4710.431598713259
 30
0.0
 40
2.0
100
AcDbArc
 50
270.0
 51
0.0
  0
LINE
  5
17C01
330
747D
100
AcDbEntity
  8
部品1
 48
0.01
100
AcDbLine
 10
6552.673057123659
 20
4708.43159871326
 30
0.0
 11
6376.673057123658
 21
4708.43159871326
 31
0.0
  0
LINE
  5
17C02
330
747D
100
AcDbEntity
  8
部品1
 48
0.01
100
AcDbLine
 10
5146.673057123659
 20
4708.43159871326
 30
0.0
 11
5322.673057123655
 21
4708.43159871326
 31
0.0
  0
ARC
  5
17C03
330
747D
100
AcDbEntity
  8
部品1
 48
0.01
100
AcDbCircle
 10
5146.673057123659
 20
4710.431598713259
 30
0.0
 40
2.0
100
AcDbArc
 50
180.0
 51
270.0
  0
ARC
  5
17C04
330
747D
100
AcDbEntity
  8
部品1
 48
0.01
100
AcDbCircle
 10
5322.673057123655
 20
4710.431598713259
 30
0.0
 40
2.0
100
AcDbArc
 50
270.0
 51
0.0
  0
ARC
  5
17C05
330
747D
100
AcDbEntity
  8
部品1
 48
0.01
100
AcDbCircle
 10
6376.673057123658
 20
4741.93159871326
 30
0.0
 40
2.0
100
AcDbArc
 50
90.0
 51
180.0
  0
ARC
  5
17C06
330
747D
100
AcDbEntity
  8
部品1
 48
0.01
100
AcDbCircle
 10
6552.673057123659
 20
4741.93159871326
 30
0.0
 40
2.0
100
AcDbArc
 50
0.0
 51
90.0
  0
LINE
  5
17C07
330
747D
100
AcDbEntity
  8
細線
100
AcDbLine
 10
6464.673057123659
 20
4714.431598713259
 30
0.0
 11
6390.673057123659
 21
4714.431598713259
 31
0.0
  0
LINE
  5
17C08
330
747D
100
AcDbEntity
  8
細線
100
AcDbLine
 10
6464.673057123659
 20
4737.43159871326
 30
0.0
 11
6538.673057123658
 21
4737.43159871326
 31
0.0
  0
LINE
  5
17C09
330
747D
100
AcDbEntity
  8
細線
100
AcDbLine
 10
6538.673057123658
 20
4714.431598713259
 30
0.0
 11
6464.673057123659
 21
4714.431598713259
 31
0.0
  0
LINE
  5
17C0A
330
747D
100
AcDbEntity
  8
細線
100
AcDbLine
 10
6390.673057123659
 20
4737.43159871326
 30
0.0
 11
6464.673057123659
 21
4737.43159871326
 31
0.0
  0
LINE
  5
17C0B
330
747D
100
AcDbEntity
  8
細線
100
AcDbLine
 10
6390.673057123659
 20
4714.431598713259
 30
0.0
 11
6390.673057123659
 21
4737.43159871326
 31
0.0
  0
LINE
  5
17C0C
330
747D
100
AcDbEntity
  8
細線
100
AcDbLine
 10
6538.673057123658
 20
4737.43159871326
 30
0.0
 11
6538.673057123658
 21
4714.431598713259
 31
0.0
  0
LINE
  5
17C0D
330
747D
100
AcDbEntity
  8
部品1
 48
0.01
100
AcDbLine
 10
6374.673057123659
 20
4710.431598713259
 30
0.0
 11
6374.673057123659
 21
4741.93159871326
 31
0.0
  0
LINE
  5
17C0E
330
747D
100
AcDbEntity
  8
部品1
 48
0.01
100
AcDbLine
 10
6554.673057123657
 20
4741.93159871326
 30
0.0
 11
6554.673057123657
 21
4710.431598713259
 31
0.0
  0
LINE
  5
17C0F
330
747D
100
AcDbEntity
  8
部品1
 48
0.01
100
AcDbLine
 10
6376.673057123658
 20
4743.931598713259
 30
0.0
 11
6552.673057123659
 21
4743.931598713259
 31
0.0
  0
LINE
  5
17C10
330
747D
100
AcDbEntity
  8
細線
100
AcDbLine
 10
6538.673057123658
 20
4731.43159871326
 30
0.0
 11
6464.673057123659
 21
4731.43159871326
 31
0.0
  0
LINE
  5
17C11
330
747D
100
AcDbEntity
  8
細線
100
AcDbLine
 10
6538.673057123658
 20
4725.431598713259
 30
0.0
 11
6464.673057123659
 21
4725.431598713259
 31
0.0
  0
LINE
  5
17C12
330
747D
100
AcDbEntity
  8
細線
100
AcDbLine
 10
6538.673057123658
 20
4719.431598713259
 30
0.0
 11
6464.673057123659
 21
4719.431598713259
 31
0.0
  0
LINE
  5
17C13
330
747D
100
AcDbEntity
  8
細線
100
AcDbLine
 10
6538.673057123658
 20
4731.43159871326
 30
0.0
 11
6469.673057123658
 21
4731.43159871326
 31
0.0
  0
LINE
  5
17C14
330
747D
100
AcDbEntity
  8
細線
100
AcDbLine
 10
6390.673057123659
 20
4731.43159871326
 30
0.0
 11
6464.673057123659
 21
4731.43159871326
 31
0.0
  0
LINE
  5
17C15
330
747D
100
AcDbEntity
  8
細線
100
AcDbLine
 10
6390.673057123659
 20
4719.431598713259
 30
0.0
 11
6464.673057123659
 21
4719.431598713259
 31
0.0
  0
LINE
  5
17C16
330
747D
100
AcDbEntity
  8
細線
100
AcDbLine
 10
6390.673057123659
 20
4725.431598713259
 30
0.0
 11
6464.673057123659
 21
4725.431598713259
 31
0.0
  0
LINE
  5
17C17
330
747D
100
AcDbEntity
  8
細線
100
AcDbLine
 10
6464.673057123659
 20
4737.43159871326
 30
0.0
 11
6464.673057123659
 21
4714.431598713259
 31
0.0
  0
LINE
  5
17C18
330
747D
100
AcDbEntity
  8
細線
100
AcDbLine
 10
5234.673057123658
 20
4737.43159871326
 30
0.0
 11
5234.673057123655
 21
4714.431598713259
 31
0.0
  0
LINE
  5
17C19
330
747D
100
AcDbEntity
  8
細線
100
AcDbLine
 10
5308.673057123655
 20
4725.431598713259
 30
0.0
 11
5234.673057123658
 21
4725.431598713259
 31
0.0
  0
LINE
  5
17C1A
330
747D
100
AcDbEntity
  8
細線
100
AcDbLine
 10
5308.673057123655
 20
4719.431598713259
 30
0.0
 11
5234.673057123658
 21
4719.431598713259
 31
0.0
  0
LINE
  5
17C1B
330
747D
100
AcDbEntity
  8
細線
100
AcDbLine
 10
5308.673057123655
 20
4731.43159871326
 30
0.0
 11
5234.673057123658
 21
4731.43159871326
 31
0.0
  0
LINE
  5
17C1C
330
747D
100
AcDbEntity
  8
細線
100
AcDbLine
 10
5160.673057123659
 20
4731.43159871326
 30
0.0
 11
5229.673057123658
 21
4731.43159871326
 31
0.0
  0
LINE
  5
17C1D
330
747D
100
AcDbEntity
  8
細線
100
AcDbLine
 10
5160.673057123655
 20
4719.431598713259
 30
0.0
 11
5234.673057123658
 21
4719.431598713259
 31
0.0
  0
LINE
  5
17C1E
330
747D
100
AcDbEntity
  8
細線
100
AcDbLine
 10
5160.673057123659
 20
4725.431598713259
 30
0.0
 11
5234.673057123658
 21
4725.431598713259
 31
0.0
  0
LINE
  5
17C1F
330
747D
100
AcDbEntity
  8
細線
100
AcDbLine
 10
5160.673057123659
 20
4731.43159871326
 30
0.0
 11
5234.673057123658
 21
4731.43159871326
 31
0.0
  0
LINE
  5
17C20
330
747D
100
AcDbEntity
  8
部品1
 48
0.01
100
AcDbLine
 10
5322.673057123658
 20
4743.931598713259
 30
0.0
 11
5146.673057123659
 21
4743.931598713259
 31
0.0
  0
LINE
  5
17C21
330
747D
100
AcDbEntity
  8
部品1
 48
0.01
100
AcDbLine
 10
5144.673057123658
 20
4741.93159871326
 30
0.0
 11
5144.673057123658
 21
4710.431598713259
 31
0.0
  0
LINE
  5
17C22
330
747D
100
AcDbEntity
  8
部品1
 48
0.01
100
AcDbLine
 10
5324.673057123654
 20
4710.431598713259
 30
0.0
 11
5324.673057123658
 21
4741.93159871326
 31
0.0
  0
LINE
  5
17C23
330
747D
100
AcDbEntity
  8
細線
100
AcDbLine
 10
5160.673057123659
 20
4737.43159871326
 30
0.0
 11
5160.673057123659
 21
4714.431598713259
 31
0.0
  0
LINE
  5
17C24
330
747D
100
AcDbEntity
  8
細線
100
AcDbLine
 10
5308.673057123659
 20
4714.431598713259
 30
0.0
 11
5308.673057123659
 21
4737.43159871326
 31
0.0
  0
LINE
  5
17C25
330
747D
100
AcDbEntity
  8
細線
100
AcDbLine
 10
5308.673057123659
 20
4737.43159871326
 30
0.0
 11
5234.673057123658
 21
4737.43159871326
 31
0.0
  0
LINE
  5
17C26
330
747D
100
AcDbEntity
  8
細線
100
AcDbLine
 10
5160.673057123659
 20
4714.431598713259
 30
0.0
 11
5234.673057123658
 21
4714.431598713259
 31
0.0
  0
LINE
  5
17C27
330
747D
100
AcDbEntity
  8
細線
100
AcDbLine
 10
5234.673057123658
 20
4737.43159871326
 30
0.0
 11
5160.673057123659
 21
4737.43159871326
 31
0.0
  0
LINE
  5
17C28
330
747D
100
AcDbEntity
  8
細線
100
AcDbLine
 10
5234.673057123655
 20
4714.431598713259
 30
0.0
 11
5308.673057123659
 21
4714.431598713259
 31
0.0
  0
ARC
  5
17C29
330
747D
100
AcDbEntity
  8
部品1
 48
0.01
100
AcDbCircle
 10
5146.673057123659
 20
4741.93159871326
 30
0.0
 40
2.0
100
AcDbArc
 50
90.0
 51
180.0
  0
ARC
  5
17C2A
330
747D
100
AcDbEntity
  8
部品1
 48
0.01
100
AcDbCircle
 10
5322.673057123658
 20
4741.93159871326
 30
0.0
 40
2.0
100
AcDbArc
 50
0.0
 51
90.0
  0
TEXT
  5
17D72
330
747D
100
AcDbEntity
  8
文字
 62
     7
 48
50.0
100
AcDbText
 10
14833.43123277339
 20
9915.516434800336
 30
0.0
 40
100.0
  1
F12    1.0(多雪地型  2.3)
  7
STYLE1
100
AcDbText
  0
TEXT
  5
17D81
330
747D
100
AcDbEntity
  8
文字
 62
     7
 48
50.0
100
AcDbText
 10
14646.46056207479
 20
871.9640646083623
 30
0.0
 40
100.0
  1
～一般型・多雪地型～
  7
STYLE2
100
AcDbText
  0
TEXT
  5
17DA0
330
747D
100
AcDbEntity
  8
文字
 62
     7
 48
50.0
100
AcDbText
 10
15022.63965474516
 20
9230.013745883727
 30
0.0
 40
100.0
  1
F12            0.7
  7
STYLE1
100
AcDbText
  0
ENDSEC
  0
SECTION
  2
OBJECTS
  0
DICTIONARY
  5
7471
330
0
100
AcDbDictionary
281
     1
  3
ACAD_COLOR
350
167AC
  3
ACAD_GROUP
350
7472
  3
ACAD_LAYOUT
350
167AD
  3
ACAD_MATERIAL
350
167AB
  3
ACAD_MLINESTYLE
350
7473
  3
ACAD_PLOTSETTINGS
350
167AE
  3
ACAD_PLOTSTYLENAME
350
167A9
  3
ACDBHEADERROUNDTRIPXREC
350
17DFE
  3
AcDbVariableDictionary
350
17DFA
  3
CONTENTDICTIONARY
350
E71C
  3
DRAWINGVARIABLESDICT
350
F3B9
  0
DICTIONARY
  5
16A1E
330
7467
100
AcDbDictionary
280
     1
281
     1
  3
ACAD_LAYERSTATES
360
16A1F
  0
DICTIONARY
  5
167AC
102
{ACAD_REACTORS
330
7471
102
}
330
7471
100
AcDbDictionary
281
     1
  0
DICTIONARY
  5
7472
102
{ACAD_REACTORS
330
7471
102
}
330
7471
100
AcDbDictionary
281
     1
  0
DICTIONARY
  5
167AD
102
{ACAD_REACTORS
330
7471
102
}
330
7471
100
AcDbDictionary
281
     1
  3
Model
350
167AF
  3
レイアウト1
350
167B0
  0
DICTIONARY
  5
167AB
102
{ACAD_REACTORS
330
7471
102
}
330
7471
100
AcDbDictionary
281
     1
  0
DICTIONARY
  5
7473
102
{ACAD_REACTORS
330
7471
102
}
330
7471
100
AcDbDictionary
281
     1
  3
STANDARD
350
7480
  0
DICTIONARY
  5
167AE
102
{ACAD_REACTORS
330
7471
102
}
330
7471
100
AcDbDictionary
281
     1
  0
ACDBDICTIONARYWDFLT
  5
167A9
102
{ACAD_REACTORS
330
7471
102
}
330
7471
100
AcDbDictionary
281
     1
  3
Normal
350
167AA
100
AcDbDictionaryWithDefault
340
167AA
  0
DICTIONARY
  5
17DFE
102
{ACAD_REACTORS
330
7471
102
}
330
7471
100
AcDbDictionary
281
     1
  3
COLORDICT
350
17E00
  3
MATERIALDICT
350
17DFF
  0
DICTIONARY
  5
17DFA
102
{ACAD_REACTORS
330
7471
102
}
330
7471
100
AcDbDictionary
281
     1
  3
DIMASSOC
350
17DFB
  3
PROJECTNAME
350
17DFC
  0
DICTIONARY
  5
E71C
102
{ACAD_REACTORS
330
7471
102
}
330
7471
100
AcDbDictionary
281
     1
  0
DICTIONARY
  5
F3B9
102
{ACAD_REACTORS
330
7471
102
}
330
7471
100
AcDbDictionary
281
     1
1001
DRAWINGVARIABLESXDATA
1000
POLARMODE
1000
1
  0
DICTIONARY
  5
16A1F
102
{ACAD_REACTORS
330
16A1E
102
}
330
16A1E
100
AcDbDictionary
281
     1
  0
LAYOUT
  5
167AF
102
{ACAD_XDICTIONARY
360
17E01
102
}
102
{ACAD_REACTORS
330
167AD
102
}
330
167AD
100
AcDbPlotSettings
  1

  2
none_device
  4
Letter_(8.50_x_11.00_Inches)
  6

 40
6.349999904632568
 41
6.349999904632568
 42
6.350006103515625
 43
6.350006103515625
 44
215.8999938964844
 45
279.3999938964844
 46
0.0
 47
0.0
 48
0.0
 49
0.0
140
0.0
141
0.0
142
1.0
143
1.0
 70
 11952
 72
     1
 73
     1
 74
     0
  7
inaba.ctb
 75
     0
147
1.0
148
-2464.604124655163
149
54.54876986287036
100
AcDbLayout
  1
Model
 70
     1
 71
     0
 10
0.0
 20
0.0
 11
12.0
 21
9.0
 12
0.0
 22
0.0
 32
0.0
 14
0.0
 24
0.0
 34
0.0
 15
0.0
 25
0.0
 35
0.0
146
0.0
 13
0.0
 23
0.0
 33
0.0
 16
1.0
 26
0.0
 36
0.0
 17
0.0
 27
1.0
 37
0.0
 76
     0
330
747D
  0
LAYOUT
  5
167B0
102
{ACAD_XDICTIONARY
360
17E03
102
}
102
{ACAD_REACTORS
330
167AD
102
}
330
167AD
100
AcDbPlotSettings
  1

  2
EPSON LP-8300
  4

  6

 40
0.0
 41
0.0
 42
0.0
 43
0.0
 44
0.0
 45
0.0
 46
0.0
 47
0.0
 48
0.0
 49
0.0
140
0.0
141
0.0
142
1.0
143
1.0
 70
   688
 72
     0
 73
     0
 74
     5
  7
inaba.ctb
 75
    16
147
1.0
148
0.0
149
0.0
100
AcDbLayout
  1
レイアウト1
 70
     0
 71
     1
 10
0.0
 20
0.0
 11
420.0
 21
297.0
 12
0.0
 22
0.0
 32
0.0
 14
1.000000000000000E+20
 24
1.000000000000000E+20
 34
1.000000000000000E+20
 15
-1.000000000000000E+20
 25
-1.000000000000000E+20
 35
-1.000000000000000E+20
146
0.0
 13
0.0
 23
0.0
 33
0.0
 16
1.0
 26
0.0
 36
0.0
 17
0.0
 27
1.0
 37
0.0
 76
     0
330
747A
  0
MLINESTYLE
  5
7480
102
{ACAD_REACTORS
330
7473
102
}
330
7473
100
AcDbMlineStyle
  2
STANDARD
 70
     0
  3

 62
     0
 51
90.0
 52
90.0
 71
     2
 49
0.5
 62
   256
  6
BYLAYER
 49
-0.5
 62
   256
  6
BYLAYER
  0
ACDBPLACEHOLDER
  5
167AA
102
{ACAD_REACTORS
330
167A9
102
}
330
167A9
  0
XRECORD
  5
17E00
102
{ACAD_REACTORS
330
17DFE
102
}
330
17DFE
100
AcDbXrecord
280
     1
340
167AC
  0
XRECORD
  5
17DFF
102
{ACAD_REACTORS
330
17DFE
102
}
330
17DFE
100
AcDbXrecord
280
     1
340
167AB
  0
DICTIONARYVAR
  5
17DFB
102
{ACAD_REACTORS
330
17DFA
102
}
330
17DFA
100
DictionaryVariables
280
     0
  1
1
  0
DICTIONARYVAR
  5
17DFC
102
{ACAD_REACTORS
330
17DFA
102
}
330
17DFA
100
DictionaryVariables
280
     0
  1

  0
DICTIONARY
  5
17E01
330
167AF
100
AcDbDictionary
280
     1
281
     1
  3
ACAD_XREC_ROUNDTRIP
360
17E02
  0
DICTIONARY
  5
17E03
330
167B0
100
AcDbDictionary
280
     1
281
     1
  3
ACAD_XREC_ROUNDTRIP
360
17E04
  0
XRECORD
  5
17E02
102
{ACAD_REACTORS
330
17E01
102
}
330
17E01
100
AcDbXrecord
280
     1
102
SHADEPLOT
 70
     0
102
SHADEPLOTRESLEVEL
 70
     2
102
SHADEPLOTCUSTOMDPI
 70
   300
  0
XRECORD
  5
17E04
102
{ACAD_REACTORS
330
17E03
102
}
330
17E03
100
AcDbXrecord
280
     1
102
SHADEPLOT
 70
     0
102
SHADEPLOTRESLEVEL
 70
     2
102
SHADEPLOTCUSTOMDPI
 70
   300
  0
ENDSEC
  0
EOF
