  0
SECTION
  2
HEADER
  9
$ACADVER
  1
AC1015
  9
$ACADMAINTVER
 70
    20
  9
$DWGCODEPAGE
  3
ANSI_932
  9
$INSBASE
 10
0.0
 20
0.0
 30
0.0
  9
$EXTMIN
 10
139.9999999999995
 20
-0.0000000000000909
 30
0.0
  9
$EXTMAX
 10
16307.2
 20
11409.6
 30
0.0
  9
$LIMMIN
 10
-183.0179068595971
 20
-160.3342785227505
  9
$LIMMAX
 10
16374.07536659319
 20
11592.19044584975
  9
$ORTHOMODE
 70
     0
  9
$REGENMODE
 70
     1
  9
$FILLMODE
 70
     1
  9
$QTEXTMODE
 70
     0
  9
$MIRRTEXT
 70
     1
  9
$LTSCALE
 40
20.0
  9
$ATTMODE
 70
     1
  9
$TEXTSIZE
 40
100.0
  9
$TRACEWID
 40
1.0
  9
$TEXTSTYLE
  7
STYLE2
  9
$CLAYER
  8
部品1
  9
$CELTYPE
  6
BYLAYER
  9
$CECOLOR
 62
   256
  9
$CELTSCALE
 40
50.0
  9
$DISPSILH
 70
     0
  9
$DIMSCALE
 40
40.0
  9
$DIMASZ
 40
2.5
  9
$DIMEXO
 40
0.5
  9
$DIMDLI
 40
7.0
  9
$DIMRND
 40
0.0
  9
$DIMDLE
 40
0.0
  9
$DIMEXE
 40
1.5
  9
$DIMTP
 40
0.0
  9
$DIMTM
 40
0.0
  9
$DIMTXT
 40
3.0
  9
$DIMCEN
 40
0.0
  9
$DIMTSZ
 40
0.0
  9
$DIMTOL
 70
     0
  9
$DIMLIM
 70
     0
  9
$DIMTIH
 70
     0
  9
$DIMTOH
 70
     0
  9
$DIMSE1
 70
     0
  9
$DIMSE2
 70
     0
  9
$DIMTAD
 70
     3
  9
$DIMZIN
 70
     8
  9
$DIMBLK
  1

  9
$DIMASO
 70
     1
  9
$DIMSHO
 70
     1
  9
$DIMPOST
  1

  9
$DIMAPOST
  1

  9
$DIMALT
 70
     0
  9
$DIMALTD
 70
     2
  9
$DIMALTF
 40
0.0394
  9
$DIMLFAC
 40
1.0
  9
$DIMTOFL
 70
     1
  9
$DIMTVP
 40
0.0
  9
$DIMTIX
 70
     1
  9
$DIMSOXD
 70
     0
  9
$DIMSAH
 70
     1
  9
$DIMBLK1
  1
DOTSMALL
  9
$DIMBLK2
  1
DOTSMALL
  9
$DIMSTYLE
  2
INABA_S40G
  9
$DIMCLRD
 70
     0
  9
$DIMCLRE
 70
     0
  9
$DIMCLRT
 70
     7
  9
$DIMTFAC
 40
1.0
  9
$DIMGAP
 40
1.0
  9
$DIMJUST
 70
     0
  9
$DIMSD1
 70
     0
  9
$DIMSD2
 70
     0
  9
$DIMTOLJ
 70
     1
  9
$DIMTZIN
 70
     0
  9
$DIMALTZ
 70
     0
  9
$DIMALTTZ
 70
     0
  9
$DIMUPT
 70
     0
  9
$DIMDEC
 70
     1
  9
$DIMTDEC
 70
     4
  9
$DIMALTU
 70
     2
  9
$DIMALTTD
 70
     2
  9
$DIMTXSTY
  7
STYLE1
  9
$DIMAUNIT
 70
     0
  9
$DIMADEC
 70
     0
  9
$DIMALTRND
 40
0.0
  9
$DIMAZIN
 70
     0
  9
$DIMDSEP
 70
    46
  9
$DIMATFIT
 70
     3
  9
$DIMFRAC
 70
     0
  9
$DIMLDRBLK
  1

  9
$DIMLUNIT
 70
     2
  9
$DIMLWD
 70
    -2
  9
$DIMLWE
 70
    -2
  9
$DIMTMOVE
 70
     2
  9
$LUNITS
 70
     2
  9
$LUPREC
 70
     1
  9
$SKETCHINC
 40
1.0
  9
$FILLETRAD
 40
3.0
  9
$AUNITS
 70
     0
  9
$AUPREC
 70
     0
  9
$MENU
  1
acad
  9
$ELEVATION
 40
0.0
  9
$PELEVATION
 40
0.0
  9
$THICKNESS
 40
0.0
  9
$LIMCHECK
 70
     0
  9
$CHAMFERA
 40
0.0
  9
$CHAMFERB
 40
0.0
  9
$CHAMFERC
 40
0.0
  9
$CHAMFERD
 40
0.0
  9
$SKPOLY
 70
     0
  9
$TDCREATE
 40
2451368.612993866
  9
$TDUCREATE
 40
2451368.237993866
  9
$TDUPDATE
 40
2455569.632142651
  9
$TDUUPDATE
 40
2455569.257142650
  9
$TDINDWG
 40
0.8880431366
  9
$TDUSRTIMER
 40
0.8880431366
  9
$USRTIMER
 70
     1
  9
$ANGBASE
 50
0.0
  9
$ANGDIR
 70
     0
  9
$PDMODE
 70
     3
  9
$PDSIZE
 40
2.0
  9
$PLINEWID
 40
0.0
  9
$SPLFRAME
 70
     0
  9
$SPLINETYPE
 70
     6
  9
$SPLINESEGS
 70
     8
  9
$HANDSEED
  5
198D0
  9
$SURFTAB1
 70
     6
  9
$SURFTAB2
 70
     6
  9
$SURFTYPE
 70
     6
  9
$SURFU
 70
     6
  9
$SURFV
 70
     6
  9
$UCSBASE
  2

  9
$UCSNAME
  2

  9
$UCSORG
 10
0.0
 20
0.0
 30
0.0
  9
$UCSXDIR
 10
1.0
 20
0.0
 30
0.0
  9
$UCSYDIR
 10
0.0
 20
1.0
 30
0.0
  9
$UCSORTHOREF
  2

  9
$UCSORTHOVIEW
 70
     0
  9
$UCSORGTOP
 10
0.0
 20
0.0
 30
0.0
  9
$UCSORGBOTTOM
 10
0.0
 20
0.0
 30
0.0
  9
$UCSORGLEFT
 10
0.0
 20
0.0
 30
0.0
  9
$UCSORGRIGHT
 10
0.0
 20
0.0
 30
0.0
  9
$UCSORGFRONT
 10
0.0
 20
0.0
 30
0.0
  9
$UCSORGBACK
 10
0.0
 20
0.0
 30
0.0
  9
$PUCSBASE
  2

  9
$PUCSNAME
  2

  9
$PUCSORG
 10
0.0
 20
0.0
 30
0.0
  9
$PUCSXDIR
 10
1.0
 20
0.0
 30
0.0
  9
$PUCSYDIR
 10
0.0
 20
1.0
 30
0.0
  9
$PUCSORTHOREF
  2

  9
$PUCSORTHOVIEW
 70
     0
  9
$PUCSORGTOP
 10
0.0
 20
0.0
 30
0.0
  9
$PUCSORGBOTTOM
 10
0.0
 20
0.0
 30
0.0
  9
$PUCSORGLEFT
 10
0.0
 20
0.0
 30
0.0
  9
$PUCSORGRIGHT
 10
0.0
 20
0.0
 30
0.0
  9
$PUCSORGFRONT
 10
0.0
 20
0.0
 30
0.0
  9
$PUCSORGBACK
 10
0.0
 20
0.0
 30
0.0
  9
$USERI1
 70
     0
  9
$USERI2
 70
     0
  9
$USERI3
 70
     0
  9
$USERI4
 70
     0
  9
$USERI5
 70
     0
  9
$USERR1
 40
0.0
  9
$USERR2
 40
0.0
  9
$USERR3
 40
0.0
  9
$USERR4
 40
0.0
  9
$USERR5
 40
0.0
  9
$WORLDVIEW
 70
     1
  9
$SHADEDGE
 70
     3
  9
$SHADEDIF
 70
    70
  9
$TILEMODE
 70
     1
  9
$MAXACTVP
 70
    16
  9
$PINSBASE
 10
0.0
 20
0.0
 30
0.0
  9
$PLIMCHECK
 70
     0
  9
$PEXTMIN
 10
1.000000000000000E+20
 20
1.000000000000000E+20
 30
1.000000000000000E+20
  9
$PEXTMAX
 10
-1.000000000000000E+20
 20
-1.000000000000000E+20
 30
-1.000000000000000E+20
  9
$PLIMMIN
 10
0.0
 20
0.0
  9
$PLIMMAX
 10
420.0
 20
297.0
  9
$UNITMODE
 70
     0
  9
$VISRETAIN
 70
     0
  9
$PLINEGEN
 70
     0
  9
$PSLTSCALE
 70
     0
  9
$TREEDEPTH
 70
  3020
  9
$CMLSTYLE
  2
STANDARD
  9
$CMLJUST
 70
     0
  9
$CMLSCALE
 40
1.0
  9
$PROXYGRAPHICS
 70
     1
  9
$MEASUREMENT
 70
     1
  9
$CELWEIGHT
370
    -1
  9
$ENDCAPS
280
     0
  9
$JOINSTYLE
280
     0
  9
$LWDISPLAY
290
     0
  9
$INSUNITS
 70
     0
  9
$HYPERLINKBASE
  1

  9
$STYLESHEET
  1
inaba.ctb
  9
$XEDIT
290
     1
  9
$CEPSNTYPE
380
     0
  9
$PSTYLEMODE
290
     1
  9
$FINGERPRINTGUID
  2
{751A691D-9EC6-43A1-83CD-A37947BFD6D4}
  9
$VERSIONGUID
  2
{FDDBA34A-C984-4ADA-8E34-3D77F9C1C96B}
  9
$EXTNAMES
290
     1
  9
$PSVPSCALE
 40
0.0
  9
$OLESTARTUP
290
     0
  0
ENDSEC
  0
SECTION
  2
CLASSES
  0
CLASS
  1
ACDBDICTIONARYWDFLT
  2
AcDbDictionaryWithDefault
  3
ObjectDBX Classes
 90
        0
280
     0
281
     0
  0
CLASS
  1
DICTIONARYVAR
  2
AcDbDictionaryVar
  3
ObjectDBX Classes
 90
        0
280
     0
281
     0
  0
CLASS
  1
ACDBPLACEHOLDER
  2
AcDbPlaceHolder
  3
ObjectDBX Classes
 90
        0
280
     0
281
     0
  0
CLASS
  1
LAYOUT
  2
AcDbLayout
  3
ObjectDBX Classes
 90
        0
280
     0
281
     0
  0
ENDSEC
  0
SECTION
  2
TABLES
  0
TABLE
  2
VPORT
  5
746D
330
0
100
AcDbSymbolTable
 70
     2
  0
VPORT
  5
198C8
330
746D
100
AcDbSymbolTableRecord
100
AcDbViewportTableRecord
  2
*Active
 70
     0
 10
0.0
 20
0.0
 11
1.0
 21
1.0
 12
8807.260936574847
 22
5704.778917367572
 13
0.0
 23
0.0
 14
10.0
 24
10.0
 15
10.0
 25
10.0
 16
0.0
 26
0.0
 36
1.0
 17
0.0
 27
0.0
 37
0.0
 40
11494.69782417952
 41
1.627450980392156
 42
50.0
 43
0.0
 44
0.0
 50
0.0
 51
0.0
 71
     0
 72
     0
 73
     1
 74
     0
 75
     0
 76
     0
 77
     0
 78
     0
281
     0
 65
     1
110
0.0
120
0.0
130
0.0
111
1.0
121
0.0
131
0.0
112
0.0
122
1.0
132
0.0
 79
     0
146
0.0
  0
ENDTAB
  0
TABLE
  2
LTYPE
  5
746A
330
0
100
AcDbSymbolTable
 70
     3
  0
LTYPE
  5
7477
330
746A
100
AcDbSymbolTableRecord
100
AcDbLinetypeTableRecord
  2
BYBLOCK
 70
     0
  3

 72
    65
 73
     0
 40
0.0
  0
LTYPE
  5
7478
330
746A
100
AcDbSymbolTableRecord
100
AcDbLinetypeTableRecord
  2
BYLAYER
 70
     0
  3

 72
    65
 73
     0
 40
0.0
  0
LTYPE
  5
7479
330
746A
100
AcDbSymbolTableRecord
100
AcDbLinetypeTableRecord
  2
CONTINUOUS
 70
     0
  3
Solid line
 72
    65
 73
     0
 40
0.0
  0
LTYPE
  5
781A
330
746A
100
AcDbSymbolTableRecord
100
AcDbLinetypeTableRecord
  2
HIDDEN
 70
     0
  3
__ __ __ __ __ __ __ __ __ __ __ __ __ __ __ __
 72
    65
 73
     2
 40
0.375
 49
0.25
 74
     0
 49
-0.125
 74
     0
  0
LTYPE
  5
781B
330
746A
100
AcDbSymbolTableRecord
100
AcDbLinetypeTableRecord
  2
PHANTOM
 70
     0
  3
______  __  __  ______  __  __  ______  __  __ 
 72
    65
 73
     6
 40
2.5
 49
1.25
 74
     0
 49
-0.25
 74
     0
 49
0.25
 74
     0
 49
-0.25
 74
     0
 49
0.25
 74
     0
 49
-0.25
 74
     0
  0
ENDTAB
  0
TABLE
  2
LAYER
  5
7467
102
{ACAD_XDICTIONARY
360
17918
102
}
330
0
100
AcDbSymbolTable
 70
    10
  0
LAYER
  5
7474
330
7467
100
AcDbSymbolTableRecord
100
AcDbLayerTableRecord
  2
0
 70
     0
 62
     7
  6
CONTINUOUS
370
    -3
390
17647
  0
LAYER
  5
DEB3
330
7467
100
AcDbSymbolTableRecord
100
AcDbLayerTableRecord
  2
寸法
 70
     0
 62
     4
  6
CONTINUOUS
370
    -3
390
17647
  0
LAYER
  5
DEB4
330
7467
100
AcDbSymbolTableRecord
100
AcDbLayerTableRecord
  2
部品1
 70
     0
 62
     7
  6
CONTINUOUS
370
    -3
390
17647
  0
LAYER
  5
DEB5
330
7467
100
AcDbSymbolTableRecord
100
AcDbLayerTableRecord
  2
補助
 70
     0
 62
    -1
  6
CONTINUOUS
370
    -3
390
17647
  0
LAYER
  5
DEB6
330
7467
100
AcDbSymbolTableRecord
100
AcDbLayerTableRecord
  2
文字
 70
     0
 62
     7
  6
CONTINUOUS
370
    -3
390
17647
  0
LAYER
  5
F255
330
7467
100
AcDbSymbolTableRecord
100
AcDbLayerTableRecord
  2
DEFPOINTS
 70
     0
 62
     7
  6
CONTINUOUS
290
     0
370
    -3
390
17647
  0
LAYER
  5
10B54
330
7467
100
AcDbSymbolTableRecord
100
AcDbLayerTableRecord
  2
仕様書枠
 70
     0
 62
   230
  6
CONTINUOUS
370
    -3
390
17647
  0
LAYER
  5
11729
330
7467
100
AcDbSymbolTableRecord
100
AcDbLayerTableRecord
  2
Ｇ．Ｌ
 70
     0
 62
    30
  6
CONTINUOUS
370
    -3
390
17647
  0
LAYER
  5
1173F
330
7467
100
AcDbSymbolTableRecord
100
AcDbLayerTableRecord
  2
細線
 70
     0
 62
     5
  6
CONTINUOUS
370
    -3
390
17647
  0
LAYER
  5
142E2
330
7467
100
AcDbSymbolTableRecord
100
AcDbLayerTableRecord
  2
破線
 70
     0
 62
     2
  6
HIDDEN
370
    -3
390
17647
  0
ENDTAB
  0
TABLE
  2
STYLE
  5
7468
330
0
100
AcDbSymbolTable
 70
     4
  0
STYLE
  5
7475
330
7468
100
AcDbSymbolTableRecord
100
AcDbTextStyleTableRecord
  2
STANDARD
 70
     0
 40
0.0
 41
1.0
 50
0.0
 71
     0
 42
4.0
  3
txt
  4
C:\AutoCAD LT\bigfont.shx
  0
STYLE
  5
763C
330
7468
100
AcDbSymbolTableRecord
100
AcDbTextStyleTableRecord
  2
MSMINCHO
 70
     0
 40
0.0
 41
1.0
 50
0.0
 71
     0
 42
1.199999999999999
  3
C:\AutoCAD LT\msminch2.TTF
  4

  0
STYLE
  5
F706
330
7468
100
AcDbSymbolTableRecord
100
AcDbTextStyleTableRecord
  2
STYLE1
 70
     0
 40
0.0
 41
1.0
 50
0.0
 71
     0
 42
4.0
  3
isocp.shx
  4
bigfont.shx
  0
STYLE
  5
103BF
330
7468
100
AcDbSymbolTableRecord
100
AcDbTextStyleTableRecord
  2
STYLE2
 70
     0
 40
0.0
 41
1.0
 50
0.0
 71
     0
 42
100.0
  3
MS PGothic.ttf
  4

1001
ACAD
1000
MS PGothic
1071
    32818
  0
ENDTAB
  0
TABLE
  2
VIEW
  5
746B
330
0
100
AcDbSymbolTable
 70
     0
  0
ENDTAB
  0
TABLE
  2
UCS
  5
746C
330
0
100
AcDbSymbolTable
 70
     0
  0
ENDTAB
  0
TABLE
  2
APPID
  5
746E
330
0
100
AcDbSymbolTable
 70
     6
  0
APPID
  5
7476
330
746E
100
AcDbSymbolTableRecord
100
AcDbRegAppTableRecord
  2
ACAD
 70
     0
  0
APPID
  5
DEA9
330
746E
100
AcDbSymbolTableRecord
100
AcDbRegAppTableRecord
  2
CONTENTBLOCKICON
 70
     0
  0
APPID
  5
DEAA
330
746E
100
AcDbSymbolTableRecord
100
AcDbRegAppTableRecord
  2
CONTENTBLOCKDESCRIPTION
 70
     0
  0
APPID
  5
E71D
330
746E
100
AcDbSymbolTableRecord
100
AcDbRegAppTableRecord
  2
CONTENTTABDATA
 70
     0
  0
APPID
  5
E71E
330
746E
100
AcDbSymbolTableRecord
100
AcDbRegAppTableRecord
  2
CONTENTCURRENTTAB
 70
     0
  0
APPID
  5
F3BA
330
746E
100
AcDbSymbolTableRecord
100
AcDbRegAppTableRecord
  2
DRAWINGVARIABLESXDATA
 70
     0
  0
ENDTAB
  0
TABLE
  2
DIMSTYLE
  5
746F
330
0
100
AcDbSymbolTable
 70
     1
100
AcDbDimStyleTable
 71
     1
340
F71F
  0
DIMSTYLE
105
F71F
102
{ACAD_REACTORS
330
16333
330
162CE
330
16301
330
16302
330
162CD
330
162CF
330
162D0
330
166DD
330
1659A
330
165E9
330
162EB
330
16320
330
162EA
330
1659C
330
162E4
330
162E7
330
1631F
330
16913
330
17501
330
174FF
330
174FE
330
17500
330
174FC
330
17528
330
174FA
330
17BAC
330
17C6D
330
17C7C
330
17C8A
330
17C8B
330
17C8C
330
17C90
330
17CC1
330
17CC2
330
17CC3
330
181B0
330
183AD
330
183CC
330
1917F
330
19180
330
19181
330
196B3
102
}
330
746F
100
AcDbSymbolTableRecord
100
AcDbDimStyleTableRecord
  2
INABA_S40G
 70
     0
 40
40.0
 41
2.5
 42
0.5
 43
7.0
 44
1.5
 73
     0
 74
     0
 77
     3
 78
     8
140
3.0
141
0.0
143
0.0394
147
1.0
172
     1
173
     1
174
     1
178
     7
271
     1
340
F706
341
F770
343
F770
344
F770
  0
ENDTAB
  0
TABLE
  2
BLOCK_RECORD
  5
7466
330
0
100
AcDbSymbolTable
 70
    43
  0
BLOCK_RECORD
  5
747D
330
7466
100
AcDbSymbolTableRecord
100
AcDbBlockTableRecord
  2
*MODEL_SPACE
340
1764C
  0
BLOCK_RECORD
  5
747A
330
7466
100
AcDbSymbolTableRecord
100
AcDbBlockTableRecord
  2
*PAPER_SPACE
340
1764D
  0
BLOCK_RECORD
  5
F770
330
7466
100
AcDbSymbolTableRecord
100
AcDbBlockTableRecord
  2
_DOTSMALL
340
0
102
{BLKREFS
331
16FD3
331
16FD4
331
1641A
331
1641B
331
16427
331
16428
331
16FBD
331
16FBE
331
171E6
331
171E7
331
17610
331
17611
331
1646A
331
1646B
331
16479
331
1647A
331
16487
331
16488
331
16493
331
16494
331
17435
331
17436
331
164B6
331
164B7
331
164C3
331
164C4
331
165BE
331
165BF
331
165CD
331
165CE
331
16644
331
16645
331
166D6
331
166D7
331
17601
331
17602
331
1753B
331
1753C
331
1754A
331
1754B
331
17554
331
17555
331
17561
331
17562
331
1756C
331
1756D
331
1757A
331
1757B
331
17586
331
17587
331
18497
331
18498
331
184A0
331
184A1
331
184BE
331
184BF
331
184D2
331
184D3
331
184E5
331
184E6
331
184EF
331
184F0
331
1850A
331
1850B
331
18513
331
18514
331
18527
331
18528
331
18559
331
1855A
331
18576
331
18577
331
19279
331
1927A
331
196DF
331
196E0
331
1987F
331
19880
331
19888
331
19889
331
1989D
331
1989E
331
198A6
331
198A7
102
}
  0
BLOCK_RECORD
  5
16338
330
7466
100
AcDbSymbolTableRecord
100
AcDbBlockTableRecord
  2
*D1
340
0
  0
BLOCK_RECORD
  5
16344
330
7466
100
AcDbSymbolTableRecord
100
AcDbBlockTableRecord
  2
*D2
340
0
  0
BLOCK_RECORD
  5
16352
330
7466
100
AcDbSymbolTableRecord
100
AcDbBlockTableRecord
  2
*D3
340
0
  0
BLOCK_RECORD
  5
16360
330
7466
100
AcDbSymbolTableRecord
100
AcDbBlockTableRecord
  2
*D4
340
0
  0
BLOCK_RECORD
  5
16384
330
7466
100
AcDbSymbolTableRecord
100
AcDbBlockTableRecord
  2
*D5
340
0
  0
BLOCK_RECORD
  5
1638F
330
7466
100
AcDbSymbolTableRecord
100
AcDbBlockTableRecord
  2
*D6
340
0
  0
BLOCK_RECORD
  5
1639B
330
7466
100
AcDbSymbolTableRecord
100
AcDbBlockTableRecord
  2
*D7
340
0
  0
BLOCK_RECORD
  5
163A9
330
7466
100
AcDbSymbolTableRecord
100
AcDbBlockTableRecord
  2
*D8
340
0
  0
BLOCK_RECORD
  5
163B8
330
7466
100
AcDbSymbolTableRecord
100
AcDbBlockTableRecord
  2
*D9
340
0
  0
BLOCK_RECORD
  5
163C7
330
7466
100
AcDbSymbolTableRecord
100
AcDbBlockTableRecord
  2
*D10
340
0
  0
BLOCK_RECORD
  5
163E1
330
7466
100
AcDbSymbolTableRecord
100
AcDbBlockTableRecord
  2
*D11
340
0
  0
BLOCK_RECORD
  5
163ED
330
7466
100
AcDbSymbolTableRecord
100
AcDbBlockTableRecord
  2
*D12
340
0
  0
BLOCK_RECORD
  5
163FB
330
7466
100
AcDbSymbolTableRecord
100
AcDbBlockTableRecord
  2
*D13
340
0
  0
BLOCK_RECORD
  5
165B5
330
7466
100
AcDbSymbolTableRecord
100
AcDbBlockTableRecord
  2
*D14
340
0
  0
BLOCK_RECORD
  5
165C4
330
7466
100
AcDbSymbolTableRecord
100
AcDbBlockTableRecord
  2
*D15
340
0
  0
BLOCK_RECORD
  5
165EA
330
7466
100
AcDbSymbolTableRecord
100
AcDbBlockTableRecord
  2
*D16
340
0
  0
BLOCK_RECORD
  5
166CF
330
7466
100
AcDbSymbolTableRecord
100
AcDbBlockTableRecord
  2
*D17
340
0
  0
BLOCK_RECORD
  5
16908
330
7466
100
AcDbSymbolTableRecord
100
AcDbBlockTableRecord
  2
*D18
340
0
  0
BLOCK_RECORD
  5
17532
330
7466
100
AcDbSymbolTableRecord
100
AcDbBlockTableRecord
  2
*D19
340
0
  0
BLOCK_RECORD
  5
17541
330
7466
100
AcDbSymbolTableRecord
100
AcDbBlockTableRecord
  2
*D20
340
0
  0
BLOCK_RECORD
  5
17550
330
7466
100
AcDbSymbolTableRecord
100
AcDbBlockTableRecord
  2
*D21
340
0
  0
BLOCK_RECORD
  5
1755B
330
7466
100
AcDbSymbolTableRecord
100
AcDbBlockTableRecord
  2
*D22
340
0
  0
BLOCK_RECORD
  5
17567
330
7466
100
AcDbSymbolTableRecord
100
AcDbBlockTableRecord
  2
*D23
340
0
  0
BLOCK_RECORD
  5
17573
330
7466
100
AcDbSymbolTableRecord
100
AcDbBlockTableRecord
  2
*D24
340
0
  0
BLOCK_RECORD
  5
17581
330
7466
100
AcDbSymbolTableRecord
100
AcDbBlockTableRecord
  2
*D25
340
0
  0
BLOCK_RECORD
  5
17DC2
330
7466
100
AcDbSymbolTableRecord
100
AcDbBlockTableRecord
  2
*D26
340
0
  0
BLOCK_RECORD
  5
17E41
330
7466
100
AcDbSymbolTableRecord
100
AcDbBlockTableRecord
  2
*D27
340
0
  0
BLOCK_RECORD
  5
17E4E
330
7466
100
AcDbSymbolTableRecord
100
AcDbBlockTableRecord
  2
*D28
340
0
  0
BLOCK_RECORD
  5
17E5B
330
7466
100
AcDbSymbolTableRecord
100
AcDbBlockTableRecord
  2
*D29
340
0
  0
BLOCK_RECORD
  5
17E67
330
7466
100
AcDbSymbolTableRecord
100
AcDbBlockTableRecord
  2
*D30
340
0
  0
BLOCK_RECORD
  5
17E75
330
7466
100
AcDbSymbolTableRecord
100
AcDbBlockTableRecord
  2
*D31
340
0
  0
BLOCK_RECORD
  5
17E81
330
7466
100
AcDbSymbolTableRecord
100
AcDbBlockTableRecord
  2
*D32
340
0
  0
BLOCK_RECORD
  5
17E9C
330
7466
100
AcDbSymbolTableRecord
100
AcDbBlockTableRecord
  2
*D33
340
0
  0
BLOCK_RECORD
  5
17EA8
330
7466
100
AcDbSymbolTableRecord
100
AcDbBlockTableRecord
  2
*D34
340
0
  0
BLOCK_RECORD
  5
17EB4
330
7466
100
AcDbSymbolTableRecord
100
AcDbBlockTableRecord
  2
*D35
340
0
  0
BLOCK_RECORD
  5
182DA
330
7466
100
AcDbSymbolTableRecord
100
AcDbBlockTableRecord
  2
*D36
340
0
  0
BLOCK_RECORD
  5
183AE
330
7466
100
AcDbSymbolTableRecord
100
AcDbBlockTableRecord
  2
*D37
340
0
  0
BLOCK_RECORD
  5
183CD
330
7466
100
AcDbSymbolTableRecord
100
AcDbBlockTableRecord
  2
*D38
340
0
  0
BLOCK_RECORD
  5
191F4
330
7466
100
AcDbSymbolTableRecord
100
AcDbBlockTableRecord
  2
*D39
340
0
  0
BLOCK_RECORD
  5
19201
330
7466
100
AcDbSymbolTableRecord
100
AcDbBlockTableRecord
  2
*D40
340
0
  0
BLOCK_RECORD
  5
1920F
330
7466
100
AcDbSymbolTableRecord
100
AcDbBlockTableRecord
  2
*D41
340
0
  0
BLOCK_RECORD
  5
196B4
330
7466
100
AcDbSymbolTableRecord
100
AcDbBlockTableRecord
  2
*D42
340
0
  0
ENDTAB
  0
ENDSEC
  0
SECTION
  2
BLOCKS
  0
BLOCK
  5
7489
330
747D
100
AcDbEntity
  8
0
100
AcDbBlockBegin
  2
*MODEL_SPACE
 70
     0
 10
0.0
 20
0.0
 30
0.0
  3
*MODEL_SPACE
  1

  0
ENDBLK
  5
748A
330
747D
100
AcDbEntity
  8
0
100
AcDbBlockEnd
  0
BLOCK
  5
7487
330
747A
100
AcDbEntity
 67
     1
  8
0
100
AcDbBlockBegin
  2
*PAPER_SPACE
 70
     0
 10
0.0
 20
0.0
 30
0.0
  3
*PAPER_SPACE
  1

  0
ENDBLK
  5
7488
330
747A
100
AcDbEntity
 67
     1
  8
0
100
AcDbBlockEnd
  0
BLOCK
  5
F771
330
F770
100
AcDbEntity
  8
0
 48
50.0
100
AcDbBlockBegin
  2
_DOTSMALL
 70
     0
 10
0.0
 20
0.0
 30
0.0
  3
_DOTSMALL
  1

  0
LWPOLYLINE
  5
F772
330
F770
100
AcDbEntity
  8
0
  6
ByBlock
 62
     0
 48
50.0
100
AcDbPolyline
 90
        2
 70
     1
 43
0.5
 10
-0.0625
 20
0.0
 42
1.0
 10
0.0625
 20
0.0
 42
1.0
  0
ENDBLK
  5
F776
330
F770
100
AcDbEntity
  8
0
 48
50.0
100
AcDbBlockEnd
  0
BLOCK
  5
16FCF
330
16338
100
AcDbEntity
  8
0
 48
50.0
100
AcDbBlockBegin
  2
*D1
 70
     1
 10
0.0
 20
0.0
 30
0.0
  3
*D1
  1

  0
LINE
  5
16FD0
330
16338
100
AcDbEntity
  8
0
  6
ByBlock
 62
     0
 48
50.0
100
AcDbLine
 10
8709.673057123664
 20
9717.497424545967
 30
0.0
 11
9397.099402858071
 21
9717.497424545967
 31
0.0
  0
LINE
  5
16FD1
330
16338
100
AcDbEntity
  8
0
  6
ByBlock
 62
     0
 48
50.0
100
AcDbLine
 10
8709.673057123639
 20
7197.497424545952
 30
0.0
 11
9397.099402858071
 21
7197.497424545952
 31
0.0
  0
LINE
  5
16FD2
330
16338
100
AcDbEntity
  8
0
  6
ByBlock
 62
     0
 48
50.0
100
AcDbLine
 10
9337.09940285807
 20
9717.497424545967
 30
0.0
 11
9337.09940285807
 21
7197.497424545952
 31
0.0
  0
INSERT
  5
16FD3
330
16338
100
AcDbEntity
  8
0
  6
ByBlock
 62
     0
 48
50.0
100
AcDbBlockReference
  2
_DOTSMALL
 10
9337.09940285807
 20
9717.497424545967
 30
0.0
 41
100.0
 42
100.0
 43
100.0
 50
90.0
  0
INSERT
  5
16FD4
330
16338
100
AcDbEntity
  8
0
  6
ByBlock
 62
     0
 48
50.0
100
AcDbBlockReference
  2
_DOTSMALL
 10
9337.09940285807
 20
7197.497424545952
 30
0.0
 41
100.0
 42
100.0
 43
100.0
 50
270.0
  0
MTEXT
  5
16FD5
330
16338
100
AcDbEntity
  8
0
  6
ByBlock
 62
     7
 48
50.0
100
AcDbMText
 10
9237.087591834448
 20
8457.497424545961
 30
0.0
 40
120.0
 41
0.0
 71
     5
 72
     1
  1
\A1;6X420=2520
  7
STYLE1
 11
0.0000000000000001
 21
1.0
 31
0.0
 73
     1
 44
1.0
1001
ACAD
1000
MTEXTBEGIN
1070
    73
1070
     1
1070
    44
1040
1.0
1070
    74
1070
     0
1000
MTEXTEND
  0
POINT
  5
16FD6
330
16338
100
AcDbEntity
  8
DEFPOINTS
  6
ByBlock
 62
     0
 48
50.0
100
AcDbPoint
 10
8689.673057123664
 20
9717.497424545967
 30
0.0
  0
POINT
  5
16FD7
330
16338
100
AcDbEntity
  8
DEFPOINTS
  6
ByBlock
 62
     0
 48
50.0
100
AcDbPoint
 10
8689.67305712364
 20
7197.497424545952
 30
0.0
  0
POINT
  5
16FD8
330
16338
100
AcDbEntity
  8
DEFPOINTS
  6
ByBlock
 62
     0
 48
50.0
100
AcDbPoint
 10
9337.09940285807
 20
7197.497424545952
 30
0.0
  0
ENDBLK
  5
16FD9
330
16338
100
AcDbEntity
  8
0
 48
50.0
100
AcDbBlockEnd
  0
BLOCK
  5
16414
330
16344
100
AcDbEntity
  8
0
 48
50.0
100
AcDbBlockBegin
  2
*D2
 70
     1
 10
0.0
 20
0.0
 30
0.0
  3
*D2
  1

  0
LINE
  5
16415
330
16344
100
AcDbEntity
  8
0
  6
ByBlock
 62
     0
 48
50.0
100
AcDbLine
 10
7394.673057123639
 20
7037.497424545953
 30
0.0
 11
8082.099402858048
 21
7037.497424545951
 31
0.0
  0
LINE
  5
16416
330
16344
100
AcDbEntity
  8
0
  6
ByBlock
 62
     0
 48
50.0
100
AcDbLine
 10
7394.673057123639
 20
6982.497424545956
 30
0.0
 11
8082.099402858048
 21
6982.497424545956
 31
0.0
  0
LINE
  5
16417
330
16344
100
AcDbEntity
  8
0
  6
ByBlock
 62
     0
 48
50.0
100
AcDbLine
 10
8022.099402858048
 20
7037.497424545951
 30
0.0
 11
8022.099402858048
 21
7137.497424545951
 31
0.0
  0
LINE
  5
16418
330
16344
100
AcDbEntity
  8
0
  6
ByBlock
 62
     0
 48
50.0
100
AcDbLine
 10
8022.099402858048
 20
6982.497424545956
 30
0.0
 11
8022.099402858048
 21
6496.150676266855
 31
0.0
  0
LINE
  5
16419
330
16344
100
AcDbEntity
  8
0
  6
ByBlock
 62
     0
 48
50.0
100
AcDbLine
 10
8022.099402858048
 20
7037.497424545951
 30
0.0
 11
8022.099402858048
 21
6982.497424545956
 31
0.0
  0
INSERT
  5
1641A
330
16344
100
AcDbEntity
  8
0
  6
ByBlock
 62
     0
 48
50.0
100
AcDbBlockReference
  2
_DOTSMALL
 10
8022.099402858048
 20
7037.497424545951
 30
0.0
 41
100.0
 42
100.0
 43
100.0
 50
270.0
  0
INSERT
  5
1641B
330
16344
100
AcDbEntity
  8
0
  6
ByBlock
 62
     0
 48
50.0
100
AcDbBlockReference
  2
_DOTSMALL
 10
8022.099402858048
 20
6982.497424545956
 30
0.0
 41
100.0
 42
100.0
 43
100.0
 50
90.0
  0
MTEXT
  5
1641C
330
16344
100
AcDbEntity
  8
0
  6
ByBlock
 62
     7
 48
50.0
100
AcDbMText
 10
7922.099402858048
 20
6604.635957641093
 30
0.0
 40
120.0
 41
0.0
 71
     5
 72
     1
  1
\A1;55
  7
STYLE1
 11
0.0000000000000001
 21
1.0
 31
0.0
 73
     1
 44
1.0
1001
ACAD
1000
MTEXTBEGIN
1070
    73
1070
     1
1070
    44
1040
1.0
1070
    74
1070
     0
1000
MTEXTEND
  0
POINT
  5
1641D
330
16344
100
AcDbEntity
  8
DEFPOINTS
  6
ByBlock
 62
     0
 48
50.0
100
AcDbPoint
 10
7374.673057123638
 20
7037.497424545953
 30
0.0
  0
POINT
  5
1641E
330
16344
100
AcDbEntity
  8
DEFPOINTS
  6
ByBlock
 62
     0
 48
50.0
100
AcDbPoint
 10
7374.673057123638
 20
6982.497424545956
 30
0.0
  0
POINT
  5
1641F
330
16344
100
AcDbEntity
  8
DEFPOINTS
  6
ByBlock
 62
     0
 48
50.0
100
AcDbPoint
 10
8022.099402858048
 20
6982.497424545956
 30
0.0
  0
ENDBLK
  5
16420
330
16344
100
AcDbEntity
  8
0
 48
50.0
100
AcDbBlockEnd
  0
BLOCK
  5
16421
330
16352
100
AcDbEntity
  8
0
 48
50.0
100
AcDbBlockBegin
  2
*D3
 70
     1
 10
0.0
 20
0.0
 30
0.0
  3
*D3
  1

  0
LINE
  5
16422
330
16352
100
AcDbEntity
  8
0
  6
ByBlock
 62
     0
 48
50.0
100
AcDbLine
 10
7394.673057123664
 20
10032.49742454596
 30
0.0
 11
8082.099402858075
 21
10032.49742454596
 31
0.0
  0
LINE
  5
16423
330
16352
100
AcDbEntity
  8
0
  6
ByBlock
 62
     0
 48
50.0
100
AcDbLine
 10
7394.673057123664
 20
9977.497424545967
 30
0.0
 11
8082.099402858075
 21
9977.497424545967
 31
0.0
  0
LINE
  5
16424
330
16352
100
AcDbEntity
  8
0
  6
ByBlock
 62
     0
 48
50.0
100
AcDbLine
 10
8022.099402858072
 20
9977.497424545967
 30
0.0
 11
8022.099402858072
 21
9877.497424545968
 31
0.0
  0
LINE
  5
16425
330
16352
100
AcDbEntity
  8
0
  6
ByBlock
 62
     0
 48
50.0
100
AcDbLine
 10
8022.099402858072
 20
10032.49742454596
 30
0.0
 11
8022.099402858072
 21
10449.46798729444
 31
0.0
  0
LINE
  5
16426
330
16352
100
AcDbEntity
  8
0
  6
ByBlock
 62
     0
 48
50.0
100
AcDbLine
 10
8022.099402858072
 20
9977.497424545967
 30
0.0
 11
8022.099402858072
 21
10032.49742454596
 31
0.0
  0
INSERT
  5
16427
330
16352
100
AcDbEntity
  8
0
  6
ByBlock
 62
     0
 48
50.0
100
AcDbBlockReference
  2
_DOTSMALL
 10
8022.099402858072
 20
9977.497424545967
 30
0.0
 41
100.0
 42
100.0
 43
100.0
 50
90.0
  0
INSERT
  5
16428
330
16352
100
AcDbEntity
  8
0
  6
ByBlock
 62
     0
 48
50.0
100
AcDbBlockReference
  2
_DOTSMALL
 10
8022.099402858072
 20
10032.49742454596
 30
0.0
 41
100.0
 42
100.0
 43
100.0
 50
270.0
  0
MTEXT
  5
16429
330
16352
100
AcDbEntity
  8
0
  6
ByBlock
 62
     7
 48
50.0
100
AcDbMText
 10
7922.099402858073
 20
10340.9827059202
 30
0.0
 40
120.0
 41
0.0
 71
     5
 72
     1
  1
\A1;55
  7
STYLE1
 11
0.0000000000000001
 21
1.0
 31
0.0
 73
     1
 44
1.0
1001
ACAD
1000
MTEXTBEGIN
1070
    73
1070
     1
1070
    44
1040
1.0
1070
    74
1070
     0
1000
MTEXTEND
  0
POINT
  5
1642A
330
16352
100
AcDbEntity
  8
DEFPOINTS
  6
ByBlock
 62
     0
 48
50.0
100
AcDbPoint
 10
7374.673057123664
 20
10032.49742454596
 30
0.0
  0
POINT
  5
1642B
330
16352
100
AcDbEntity
  8
DEFPOINTS
  6
ByBlock
 62
     0
 48
50.0
100
AcDbPoint
 10
7374.673057123664
 20
9977.497424545967
 30
0.0
  0
POINT
  5
1642C
330
16352
100
AcDbEntity
  8
DEFPOINTS
  6
ByBlock
 62
     0
 48
50.0
100
AcDbPoint
 10
8022.099402858072
 20
9977.497424545967
 30
0.0
  0
ENDBLK
  5
1642D
330
16352
100
AcDbEntity
  8
0
 48
50.0
100
AcDbBlockEnd
  0
BLOCK
  5
16FB9
330
16360
100
AcDbEntity
  8
0
 48
50.0
100
AcDbBlockBegin
  2
*D4
 70
     1
 10
0.0
 20
0.0
 30
0.0
  3
*D4
  1

  0
LINE
  5
16FBA
330
16360
100
AcDbEntity
  8
0
  6
ByBlock
 62
     0
 48
50.0
100
AcDbLine
 10
8709.673057123664
 20
9772.497424545964
 30
0.0
 11
9762.206344597709
 21
9772.497424545964
 31
0.0
  0
LINE
  5
16FBB
330
16360
100
AcDbEntity
  8
0
  6
ByBlock
 62
     0
 48
50.0
100
AcDbLine
 10
8709.673057123639
 20
7142.497424545957
 30
0.0
 11
9762.206344597709
 21
7142.497424545957
 31
0.0
  0
LINE
  5
16FBC
330
16360
100
AcDbEntity
  8
0
  6
ByBlock
 62
     0
 48
50.0
100
AcDbLine
 10
9702.20634459771
 20
9772.497424545964
 30
0.0
 11
9702.20634459771
 21
7142.497424545957
 31
0.0
  0
INSERT
  5
16FBD
330
16360
100
AcDbEntity
  8
0
  6
ByBlock
 62
     0
 48
50.0
100
AcDbBlockReference
  2
_DOTSMALL
 10
9702.20634459771
 20
9772.497424545964
 30
0.0
 41
100.0
 42
100.0
 43
100.0
 50
90.0
  0
INSERT
  5
16FBE
330
16360
100
AcDbEntity
  8
0
  6
ByBlock
 62
     0
 48
50.0
100
AcDbBlockReference
  2
_DOTSMALL
 10
9702.20634459771
 20
7142.497424545957
 30
0.0
 41
100.0
 42
100.0
 43
100.0
 50
270.0
  0
MTEXT
  5
16FBF
330
16360
100
AcDbEntity
  8
0
  6
ByBlock
 62
     7
 48
50.0
100
AcDbMText
 10
9602.194533574088
 20
8457.497424545961
 30
0.0
 40
120.0
 41
0.0
 71
     5
 72
     1
  1
\A1;2630
  7
STYLE1
 11
0.0000000000000001
 21
1.0
 31
0.0
 73
     1
 44
1.0
1001
ACAD
1000
MTEXTBEGIN
1070
    73
1070
     1
1070
    44
1040
1.0
1070
    74
1070
     0
1000
MTEXTEND
  0
POINT
  5
16FC0
330
16360
100
AcDbEntity
  8
DEFPOINTS
  6
ByBlock
 62
     0
 48
50.0
100
AcDbPoint
 10
8689.673057123664
 20
9772.497424545964
 30
0.0
  0
POINT
  5
16FC1
330
16360
100
AcDbEntity
  8
DEFPOINTS
  6
ByBlock
 62
     0
 48
50.0
100
AcDbPoint
 10
8689.67305712364
 20
7142.497424545957
 30
0.0
  0
POINT
  5
16FC2
330
16360
100
AcDbEntity
  8
DEFPOINTS
  6
ByBlock
 62
     0
 48
50.0
100
AcDbPoint
 10
9702.20634459771
 20
7142.497424545957
 30
0.0
  0
ENDBLK
  5
16FC3
330
16360
100
AcDbEntity
  8
0
 48
50.0
100
AcDbBlockEnd
  0
BLOCK
  5
171E3
330
16384
100
AcDbEntity
  8
0
 48
50.0
100
AcDbBlockBegin
  2
*D5
 70
     1
 10
0.0
 20
0.0
 30
0.0
  3
*D5
  1

  0
LINE
  5
171E4
330
16384
100
AcDbEntity
  8
0
  6
ByBlock
 62
     0
 48
50.0
100
AcDbLine
 10
5742.673057123656
 20
7148.497424545865
 30
0.0
 11
5742.673057123656
 21
6548.0666537797
 31
0.0
  0
LINE
  5
171E5
330
16384
100
AcDbEntity
  8
0
  6
ByBlock
 62
     0
 48
50.0
100
AcDbLine
 10
8586.673057123638
 20
6608.0666537797
 30
0.0
 11
5742.673057123656
 21
6608.0666537797
 31
0.0
  0
INSERT
  5
171E6
330
16384
100
AcDbEntity
  8
0
  6
ByBlock
 62
     0
 48
50.0
100
AcDbBlockReference
  2
_DOTSMALL
 10
8586.673057123638
 20
6608.0666537797
 30
0.0
 41
100.0
 42
100.0
 43
100.0
  0
INSERT
  5
171E7
330
16384
100
AcDbEntity
  8
0
  6
ByBlock
 62
     0
 48
50.0
100
AcDbBlockReference
  2
_DOTSMALL
 10
5742.673057123656
 20
6608.0666537797
 30
0.0
 41
100.0
 42
100.0
 43
100.0
 50
180.0
  0
MTEXT
  5
171E8
330
16384
100
AcDbEntity
  8
0
  6
ByBlock
 62
     7
 48
50.0
100
AcDbMText
 10
7164.673057123647
 20
6708.078464803323
 30
0.0
 40
120.0
 41
0.0
 71
     5
 72
     1
  1
\A1;有効開口部間口 2844
  7
STYLE1
 73
     1
 44
1.0
1001
ACAD
1000
MTEXTBEGIN
1070
    73
1070
     1
1070
    44
1040
1.0
1070
    74
1070
     0
1000
MTEXTEND
  0
POINT
  5
171E9
330
16384
100
AcDbEntity
  8
DEFPOINTS
  6
ByBlock
 62
     0
 48
50.0
100
AcDbPoint
 10
8586.673057123638
 20
7168.497424545865
 30
0.0
  0
POINT
  5
171EA
330
16384
100
AcDbEntity
  8
DEFPOINTS
  6
ByBlock
 62
     0
 48
50.0
100
AcDbPoint
 10
5742.673057123656
 20
7168.497424545865
 30
0.0
  0
POINT
  5
171EB
330
16384
100
AcDbEntity
  8
DEFPOINTS
  6
ByBlock
 62
     0
 48
50.0
100
AcDbPoint
 10
5742.673057123656
 20
6608.0666537797
 30
0.0
  0
ENDBLK
  5
171EC
330
16384
100
AcDbEntity
  8
0
 48
50.0
100
AcDbBlockEnd
  0
BLOCK
  5
1760C
330
1638F
100
AcDbEntity
  8
0
 48
50.0
100
AcDbBlockBegin
  2
*D6
 70
     1
 10
0.0
 20
0.0
 30
0.0
  3
*D6
  1

  0
LINE
  5
1760D
330
1638F
100
AcDbEntity
  8
0
  6
ByBlock
 62
     0
 48
50.0
100
AcDbLine
 10
1228.266602670482
 20
7122.497424545861
 30
0.0
 11
1228.266602670482
 21
6101.893658188827
 31
0.0
  0
LINE
  5
1760E
330
1638F
100
AcDbEntity
  8
0
  6
ByBlock
 62
     0
 48
50.0
100
AcDbLine
 10
10378.26660267045
 20
7122.497424545956
 30
0.0
 11
10378.26660267045
 21
6101.893658188827
 31
0.0
  0
LINE
  5
1760F
330
1638F
100
AcDbEntity
  8
0
  6
ByBlock
 62
     0
 48
50.0
100
AcDbLine
 10
1228.266602670482
 20
6161.893658188827
 30
0.0
 11
10378.26660267045
 21
6161.893658188827
 31
0.0
  0
INSERT
  5
17610
330
1638F
100
AcDbEntity
  8
0
  6
ByBlock
 62
     0
 48
50.0
100
AcDbBlockReference
  2
_DOTSMALL
 10
1228.266602670482
 20
6161.893658188827
 30
0.0
 41
100.0
 42
100.0
 43
100.0
 50
180.0
  0
INSERT
  5
17611
330
1638F
100
AcDbEntity
  8
0
  6
ByBlock
 62
     0
 48
50.0
100
AcDbBlockReference
  2
_DOTSMALL
 10
10378.26660267045
 20
6161.893658188827
 30
0.0
 41
100.0
 42
100.0
 43
100.0
  0
MTEXT
  5
17612
330
1638F
100
AcDbEntity
  8
0
  6
ByBlock
 62
     7
 48
50.0
100
AcDbMText
 10
5803.266602670468
 20
6261.893658188826
 30
0.0
 40
120.0
 41
0.0
 71
     5
 72
     1
  1
\A1;N X 3050
  7
STYLE1
 73
     1
 44
1.0
1001
ACAD
1000
MTEXTBEGIN
1070
    73
1070
     1
1070
    44
1040
1.0
1070
    74
1070
     0
1000
MTEXTEND
  0
POINT
  5
17613
330
1638F
100
AcDbEntity
  8
DEFPOINTS
  6
ByBlock
 62
     0
 48
50.0
100
AcDbPoint
 10
1228.266602670482
 20
7142.497424545862
 30
0.0
  0
POINT
  5
17614
330
1638F
100
AcDbEntity
  8
DEFPOINTS
  6
ByBlock
 62
     0
 48
50.0
100
AcDbPoint
 10
10378.26660267045
 20
7142.497424545957
 30
0.0
  0
POINT
  5
17615
330
1638F
100
AcDbEntity
  8
DEFPOINTS
  6
ByBlock
 62
     0
 48
50.0
100
AcDbPoint
 10
10378.26660267045
 20
6161.893658188827
 30
0.0
  0
ENDBLK
  5
17616
330
1638F
100
AcDbEntity
  8
0
 48
50.0
100
AcDbBlockEnd
  0
BLOCK
  5
16464
330
1639B
100
AcDbEntity
  8
0
 48
50.0
100
AcDbBlockBegin
  2
*D7
 70
     1
 10
0.0
 20
0.0
 30
0.0
  3
*D7
  1

  0
LINE
  5
16465
330
1639B
100
AcDbEntity
  8
0
  6
ByBlock
 62
     0
 48
50.0
100
AcDbLine
 10
4799.673057123653
 20
6962.497424545865
 30
0.0
 11
4799.673057123653
 21
6388.0666537797
 31
0.0
  0
LINE
  5
16466
330
1639B
100
AcDbEntity
  8
0
  6
ByBlock
 62
     0
 48
50.0
100
AcDbLine
 10
4744.673057123656
 20
6962.497424545862
 30
0.0
 11
4744.673057123656
 21
6388.0666537797
 31
0.0
  0
LINE
  5
16467
330
1639B
100
AcDbEntity
  8
0
  6
ByBlock
 62
     0
 48
50.0
100
AcDbLine
 10
4799.673057123653
 20
6448.066653779701
 30
0.0
 11
4899.673057123653
 21
6448.066653779701
 31
0.0
  0
LINE
  5
16468
330
1639B
100
AcDbEntity
  8
0
  6
ByBlock
 62
     0
 48
50.0
100
AcDbLine
 10
4744.673057123656
 20
6448.066653779701
 30
0.0
 11
4327.70249437518
 21
6448.066653779701
 31
0.0
  0
LINE
  5
16469
330
1639B
100
AcDbEntity
  8
0
  6
ByBlock
 62
     0
 48
50.0
100
AcDbLine
 10
4799.673057123653
 20
6448.066653779701
 30
0.0
 11
4744.673057123656
 21
6448.066653779701
 31
0.0
  0
INSERT
  5
1646A
330
1639B
100
AcDbEntity
  8
0
  6
ByBlock
 62
     0
 48
50.0
100
AcDbBlockReference
  2
_DOTSMALL
 10
4799.673057123653
 20
6448.066653779701
 30
0.0
 41
100.0
 42
100.0
 43
100.0
 50
180.0
  0
INSERT
  5
1646B
330
1639B
100
AcDbEntity
  8
0
  6
ByBlock
 62
     0
 48
50.0
100
AcDbBlockReference
  2
_DOTSMALL
 10
4744.673057123656
 20
6448.066653779701
 30
0.0
 41
100.0
 42
100.0
 43
100.0
  0
MTEXT
  5
1646C
330
1639B
100
AcDbEntity
  8
0
  6
ByBlock
 62
     7
 48
50.0
100
AcDbMText
 10
4436.187775749418
 20
6548.0666537797
 30
0.0
 40
120.0
 41
0.0
 71
     5
 72
     1
  1
\A1;55
  7
STYLE1
 73
     1
 44
1.0
1001
ACAD
1000
MTEXTBEGIN
1070
    73
1070
     1
1070
    44
1040
1.0
1070
    74
1070
     0
1000
MTEXTEND
  0
POINT
  5
1646D
330
1639B
100
AcDbEntity
  8
DEFPOINTS
  6
ByBlock
 62
     0
 48
50.0
100
AcDbPoint
 10
4799.673057123653
 20
6982.497424545865
 30
0.0
  0
POINT
  5
1646E
330
1639B
100
AcDbEntity
  8
DEFPOINTS
  6
ByBlock
 62
     0
 48
50.0
100
AcDbPoint
 10
4744.673057123656
 20
6982.497424545861
 30
0.0
  0
POINT
  5
1646F
330
1639B
100
AcDbEntity
  8
DEFPOINTS
  6
ByBlock
 62
     0
 48
50.0
100
AcDbPoint
 10
4744.673057123656
 20
6448.066653779701
 30
0.0
  0
ENDBLK
  5
16470
330
1639B
100
AcDbEntity
  8
0
 48
50.0
100
AcDbBlockEnd
  0
BLOCK
  5
16471
330
163A9
100
AcDbEntity
  8
0
 48
50.0
100
AcDbBlockBegin
  2
*D8
 70
     1
 10
0.0
 20
0.0
 30
0.0
  3
*D8
  1

  0
LINE
  5
16472
330
163A9
100
AcDbEntity
  8
0
  6
ByBlock
 62
     0
 48
50.0
100
AcDbLine
 10
4847.673057123657
 20
6988.497424545865
 30
0.0
 11
4847.673057123657
 21
6388.0666537797
 31
0.0
  0
LINE
  5
16473
330
163A9
100
AcDbEntity
  8
0
  6
ByBlock
 62
     0
 48
50.0
100
AcDbLine
 10
4799.673057123653
 20
6962.497424545865
 30
0.0
 11
4799.673057123653
 21
6388.0666537797
 31
0.0
  0
LINE
  5
16474
330
163A9
100
AcDbEntity
  8
0
  6
ByBlock
 62
     0
 48
50.0
100
AcDbLine
 10
4847.673057123657
 20
6448.066653779701
 30
0.0
 11
4947.673057123656
 21
6448.066653779701
 31
0.0
  0
LINE
  5
16475
330
163A9
100
AcDbEntity
  8
0
  6
ByBlock
 62
     0
 48
50.0
100
AcDbLine
 10
4799.673057123653
 20
6448.066653779701
 30
0.0
 11
4699.673057123653
 21
6448.066653779701
 31
0.0
  0
MTEXT
  5
16476
330
163A9
100
AcDbEntity
  8
0
  6
ByBlock
 62
     7
 48
50.0
100
AcDbMText
 10
4960.575028123714
 20
6548.0666537797
 30
0.0
 40
120.0
 41
0.0
 71
     5
 72
     1
  1
\A1;48
  7
STYLE1
 73
     1
 44
1.0
1001
ACAD
1000
MTEXTBEGIN
1070
    73
1070
     1
1070
    44
1040
1.0
1070
    74
1070
     0
1000
MTEXTEND
  0
LINE
  5
16477
330
163A9
100
AcDbEntity
  8
0
  6
ByBlock
 62
     0
 48
50.0
100
AcDbLine
 10
4847.673057123657
 20
6448.066653779701
 30
0.0
 11
4799.673057123653
 21
6448.066653779701
 31
0.0
  0
LINE
  5
16478
330
163A9
100
AcDbEntity
  8
0
  6
ByBlock
 62
     0
 48
50.0
100
AcDbLine
 10
4847.673057123657
 20
6448.066653779701
 30
0.0
 11
4799.673057123653
 21
6448.066653779701
 31
0.0
  0
INSERT
  5
16479
330
163A9
100
AcDbEntity
  8
0
  6
ByBlock
 62
     0
 48
50.0
100
AcDbBlockReference
  2
_DOTSMALL
 10
4847.673057123657
 20
6448.066653779701
 30
0.0
 41
100.0
 42
100.0
 43
100.0
 50
180.0
  0
INSERT
  5
1647A
330
163A9
100
AcDbEntity
  8
0
  6
ByBlock
 62
     0
 48
50.0
100
AcDbBlockReference
  2
_DOTSMALL
 10
4799.673057123653
 20
6448.066653779701
 30
0.0
 41
100.0
 42
100.0
 43
100.0
  0
POINT
  5
1647B
330
163A9
100
AcDbEntity
  8
DEFPOINTS
  6
ByBlock
 62
     0
 48
50.0
100
AcDbPoint
 10
4847.673057123657
 20
7008.497424545864
 30
0.0
  0
POINT
  5
1647C
330
163A9
100
AcDbEntity
  8
DEFPOINTS
  6
ByBlock
 62
     0
 48
50.0
100
AcDbPoint
 10
4799.673057123653
 20
6982.497424545865
 30
0.0
  0
POINT
  5
1647D
330
163A9
100
AcDbEntity
  8
DEFPOINTS
  6
ByBlock
 62
     0
 48
50.0
100
AcDbPoint
 10
4799.673057123653
 20
6448.066653779701
 30
0.0
  0
ENDBLK
  5
1647E
330
163A9
100
AcDbEntity
  8
0
 48
50.0
100
AcDbBlockEnd
  0
BLOCK
  5
1647F
330
163B8
100
AcDbEntity
  8
0
 48
50.0
100
AcDbBlockBegin
  2
*D9
 70
     1
 10
0.0
 20
0.0
 30
0.0
  3
*D9
  1

  0
LINE
  5
16480
330
163B8
100
AcDbEntity
  8
0
  6
ByBlock
 62
     0
 48
50.0
100
AcDbLine
 10
7319.67305712364
 20
6962.497424545952
 30
0.0
 11
7319.67305712364
 21
6388.0666537797
 31
0.0
  0
LINE
  5
16481
330
163B8
100
AcDbEntity
  8
0
  6
ByBlock
 62
     0
 48
50.0
100
AcDbLine
 10
7271.673057123638
 20
6988.497424545865
 30
0.0
 11
7271.673057123638
 21
6388.0666537797
 31
0.0
  0
LINE
  5
16482
330
163B8
100
AcDbEntity
  8
0
  6
ByBlock
 62
     0
 48
50.0
100
AcDbLine
 10
7319.67305712364
 20
6448.066653779701
 30
0.0
 11
7419.67305712364
 21
6448.066653779701
 31
0.0
  0
LINE
  5
16483
330
163B8
100
AcDbEntity
  8
0
  6
ByBlock
 62
     0
 48
50.0
100
AcDbLine
 10
7271.673057123638
 20
6448.066653779701
 30
0.0
 11
7171.673057123638
 21
6448.066653779701
 31
0.0
  0
MTEXT
  5
16484
330
163B8
100
AcDbEntity
  8
0
  6
ByBlock
 62
     7
 48
50.0
100
AcDbMText
 10
7160.710159474891
 20
6548.0666537797
 30
0.0
 40
120.0
 41
0.0
 71
     5
 72
     1
  1
\A1;48
  7
STYLE1
 73
     1
 44
1.0
1001
ACAD
1000
MTEXTBEGIN
1070
    73
1070
     1
1070
    44
1040
1.0
1070
    74
1070
     0
1000
MTEXTEND
  0
LINE
  5
16485
330
163B8
100
AcDbEntity
  8
0
  6
ByBlock
 62
     0
 48
50.0
100
AcDbLine
 10
7319.67305712364
 20
6448.066653779701
 30
0.0
 11
7271.673057123638
 21
6448.066653779701
 31
0.0
  0
LINE
  5
16486
330
163B8
100
AcDbEntity
  8
0
  6
ByBlock
 62
     0
 48
50.0
100
AcDbLine
 10
7319.67305712364
 20
6448.066653779701
 30
0.0
 11
7271.673057123638
 21
6448.066653779701
 31
0.0
  0
INSERT
  5
16487
330
163B8
100
AcDbEntity
  8
0
  6
ByBlock
 62
     0
 48
50.0
100
AcDbBlockReference
  2
_DOTSMALL
 10
7319.67305712364
 20
6448.066653779701
 30
0.0
 41
100.0
 42
100.0
 43
100.0
 50
180.0
  0
INSERT
  5
16488
330
163B8
100
AcDbEntity
  8
0
  6
ByBlock
 62
     0
 48
50.0
100
AcDbBlockReference
  2
_DOTSMALL
 10
7271.673057123638
 20
6448.066653779701
 30
0.0
 41
100.0
 42
100.0
 43
100.0
  0
POINT
  5
16489
330
163B8
100
AcDbEntity
  8
DEFPOINTS
  6
ByBlock
 62
     0
 48
50.0
100
AcDbPoint
 10
7319.67305712364
 20
6982.497424545953
 30
0.0
  0
POINT
  5
1648A
330
163B8
100
AcDbEntity
  8
DEFPOINTS
  6
ByBlock
 62
     0
 48
50.0
100
AcDbPoint
 10
7271.673057123638
 20
7008.497424545865
 30
0.0
  0
POINT
  5
1648B
330
163B8
100
AcDbEntity
  8
DEFPOINTS
  6
ByBlock
 62
     0
 48
50.0
100
AcDbPoint
 10
7271.673057123638
 20
6448.066653779701
 30
0.0
  0
ENDBLK
  5
1648C
330
163B8
100
AcDbEntity
  8
0
 48
50.0
100
AcDbBlockEnd
  0
BLOCK
  5
1648D
330
163C7
100
AcDbEntity
  8
0
 48
50.0
100
AcDbBlockBegin
  2
*D10
 70
     1
 10
0.0
 20
0.0
 30
0.0
  3
*D10
  1

  0
LINE
  5
1648E
330
163C7
100
AcDbEntity
  8
0
  6
ByBlock
 62
     0
 48
50.0
100
AcDbLine
 10
7374.673057123638
 20
6962.497424545957
 30
0.0
 11
7374.673057123638
 21
6388.066653779702
 31
0.0
  0
LINE
  5
1648F
330
163C7
100
AcDbEntity
  8
0
  6
ByBlock
 62
     0
 48
50.0
100
AcDbLine
 10
7319.67305712364
 20
6962.497424545952
 30
0.0
 11
7319.67305712364
 21
6388.066653779702
 31
0.0
  0
LINE
  5
16490
330
163C7
100
AcDbEntity
  8
0
  6
ByBlock
 62
     0
 48
50.0
100
AcDbLine
 10
7319.67305712364
 20
6448.066653779702
 30
0.0
 11
7219.67305712364
 21
6448.066653779702
 31
0.0
  0
LINE
  5
16491
330
163C7
100
AcDbEntity
  8
0
  6
ByBlock
 62
     0
 48
50.0
100
AcDbLine
 10
7374.673057123638
 20
6448.066653779702
 30
0.0
 11
7791.643619872115
 21
6448.066653779702
 31
0.0
  0
LINE
  5
16492
330
163C7
100
AcDbEntity
  8
0
  6
ByBlock
 62
     0
 48
50.0
100
AcDbLine
 10
7319.67305712364
 20
6448.066653779702
 30
0.0
 11
7374.673057123638
 21
6448.066653779702
 31
0.0
  0
INSERT
  5
16493
330
163C7
100
AcDbEntity
  8
0
  6
ByBlock
 62
     0
 48
50.0
100
AcDbBlockReference
  2
_DOTSMALL
 10
7319.67305712364
 20
6448.066653779702
 30
0.0
 41
100.0
 42
100.0
 43
100.0
  0
INSERT
  5
16494
330
163C7
100
AcDbEntity
  8
0
  6
ByBlock
 62
     0
 48
50.0
100
AcDbBlockReference
  2
_DOTSMALL
 10
7374.673057123638
 20
6448.066653779702
 30
0.0
 41
100.0
 42
100.0
 43
100.0
 50
180.0
  0
MTEXT
  5
16495
330
163C7
100
AcDbEntity
  8
0
  6
ByBlock
 62
     7
 48
50.0
100
AcDbMText
 10
7683.158338497877
 20
6548.066653779702
 30
0.0
 40
120.0
 41
0.0
 71
     5
 72
     1
  1
\A1;55
  7
STYLE1
 73
     1
 44
1.0
1001
ACAD
1000
MTEXTBEGIN
1070
    73
1070
     1
1070
    44
1040
1.0
1070
    74
1070
     0
1000
MTEXTEND
  0
POINT
  5
16496
330
163C7
100
AcDbEntity
  8
DEFPOINTS
  6
ByBlock
 62
     0
 48
50.0
100
AcDbPoint
 10
7374.673057123638
 20
6982.497424545956
 30
0.0
  0
POINT
  5
16497
330
163C7
100
AcDbEntity
  8
DEFPOINTS
  6
ByBlock
 62
     0
 48
50.0
100
AcDbPoint
 10
7319.67305712364
 20
6982.497424545953
 30
0.0
  0
POINT
  5
16498
330
163C7
100
AcDbEntity
  8
DEFPOINTS
  6
ByBlock
 62
     0
 48
50.0
100
AcDbPoint
 10
7319.67305712364
 20
6448.066653779702
 30
0.0
  0
ENDBLK
  5
16499
330
163C7
100
AcDbEntity
  8
0
 48
50.0
100
AcDbBlockEnd
  0
BLOCK
  5
17431
330
163E1
100
AcDbEntity
  8
0
 48
50.0
100
AcDbBlockBegin
  2
*D11
 70
     1
 10
0.0
 20
0.0
 30
0.0
  3
*D11
  1

  0
LINE
  5
17432
330
163E1
100
AcDbEntity
  8
0
  6
ByBlock
 62
     0
 48
50.0
100
AcDbLine
 10
5694.673057123663
 20
9792.497424545869
 30
0.0
 11
5694.673057123663
 21
10048.30564417096
 31
0.0
  0
LINE
  5
17433
330
163E1
100
AcDbEntity
  8
0
  6
ByBlock
 62
     0
 48
50.0
100
AcDbLine
 10
8634.673057123665
 20
9792.497424545963
 30
0.0
 11
8634.673057123665
 21
10048.30564417096
 31
0.0
  0
LINE
  5
17434
330
163E1
100
AcDbEntity
  8
0
  6
ByBlock
 62
     0
 48
50.0
100
AcDbLine
 10
5694.673057123663
 20
9988.305644170967
 30
0.0
 11
8634.673057123665
 21
9988.305644170967
 31
0.0
  0
INSERT
  5
17435
330
163E1
100
AcDbEntity
  8
0
  6
ByBlock
 62
     0
 48
50.0
100
AcDbBlockReference
  2
_DOTSMALL
 10
5694.673057123663
 20
9988.305644170967
 30
0.0
 41
100.0
 42
100.0
 43
100.0
 50
180.0
  0
INSERT
  5
17436
330
163E1
100
AcDbEntity
  8
0
  6
ByBlock
 62
     0
 48
50.0
100
AcDbBlockReference
  2
_DOTSMALL
 10
8634.673057123665
 20
9988.305644170967
 30
0.0
 41
100.0
 42
100.0
 43
100.0
  0
MTEXT
  5
17437
330
163E1
100
AcDbEntity
  8
0
  6
ByBlock
 62
     7
 48
50.0
100
AcDbMText
 10
7164.673057123664
 20
10088.31745519459
 30
0.0
 40
120.0
 41
0.0
 71
     5
 72
     1
  1
\A1;7X420=2940
  7
STYLE1
 73
     1
 44
1.0
1001
ACAD
1000
MTEXTBEGIN
1070
    73
1070
     1
1070
    44
1040
1.0
1070
    74
1070
     0
1000
MTEXTEND
  0
POINT
  5
17438
330
163E1
100
AcDbEntity
  8
DEFPOINTS
  6
ByBlock
 62
     0
 48
50.0
100
AcDbPoint
 10
5694.673057123663
 20
9772.49742454587
 30
0.0
  0
POINT
  5
17439
330
163E1
100
AcDbEntity
  8
DEFPOINTS
  6
ByBlock
 62
     0
 48
50.0
100
AcDbPoint
 10
8634.673057123665
 20
9772.497424545964
 30
0.0
  0
POINT
  5
1743A
330
163E1
100
AcDbEntity
  8
DEFPOINTS
  6
ByBlock
 62
     0
 48
50.0
100
AcDbPoint
 10
8634.673057123665
 20
9988.305644170967
 30
0.0
  0
ENDBLK
  5
1743B
330
163E1
100
AcDbEntity
  8
0
 48
50.0
100
AcDbBlockEnd
  0
BLOCK
  5
164B0
330
163ED
100
AcDbEntity
  8
0
 48
50.0
100
AcDbBlockBegin
  2
*D12
 70
     1
 10
0.0
 20
0.0
 30
0.0
  3
*D12
  1

  0
LINE
  5
164B1
330
163ED
100
AcDbEntity
  8
0
  6
ByBlock
 62
     0
 48
50.0
100
AcDbLine
 10
4744.673057123629
 20
10052.49742454587
 30
0.0
 11
4744.673057123629
 21
10308.30564417085
 31
0.0
  0
LINE
  5
164B2
330
163ED
100
AcDbEntity
  8
0
  6
ByBlock
 62
     0
 48
50.0
100
AcDbLine
 10
4799.673057123663
 20
10052.49742454587
 30
0.0
 11
4799.673057123663
 21
10308.30564417085
 31
0.0
  0
LINE
  5
164B3
330
163ED
100
AcDbEntity
  8
0
  6
ByBlock
 62
     0
 48
50.0
100
AcDbLine
 10
4799.673057123663
 20
10248.30564417085
 30
0.0
 11
4899.673057123663
 21
10248.30564417085
 31
0.0
  0
LINE
  5
164B4
330
163ED
100
AcDbEntity
  8
0
  6
ByBlock
 62
     0
 48
50.0
100
AcDbLine
 10
4744.673057123629
 20
10248.30564417085
 30
0.0
 11
4327.702494375151
 21
10248.30564417085
 31
0.0
  0
LINE
  5
164B5
330
163ED
100
AcDbEntity
  8
0
  6
ByBlock
 62
     0
 48
50.0
100
AcDbLine
 10
4799.673057123663
 20
10248.30564417085
 30
0.0
 11
4744.673057123629
 21
10248.30564417085
 31
0.0
  0
INSERT
  5
164B6
330
163ED
100
AcDbEntity
  8
0
  6
ByBlock
 62
     0
 48
50.0
100
AcDbBlockReference
  2
_DOTSMALL
 10
4799.673057123663
 20
10248.30564417085
 30
0.0
 41
100.0
 42
100.0
 43
100.0
 50
180.0
  0
INSERT
  5
164B7
330
163ED
100
AcDbEntity
  8
0
  6
ByBlock
 62
     0
 48
50.0
100
AcDbBlockReference
  2
_DOTSMALL
 10
4744.673057123629
 20
10248.30564417085
 30
0.0
 41
100.0
 42
100.0
 43
100.0
  0
MTEXT
  5
164B8
330
163ED
100
AcDbEntity
  8
0
  6
ByBlock
 62
     7
 48
50.0
100
AcDbMText
 10
4436.187775749391
 20
10348.30564417085
 30
0.0
 40
120.0
 41
0.0
 71
     5
 72
     1
  1
\A1;55
  7
STYLE1
 73
     1
 44
1.0
1001
ACAD
1000
MTEXTBEGIN
1070
    73
1070
     1
1070
    44
1040
1.0
1070
    74
1070
     0
1000
MTEXTEND
  0
POINT
  5
164B9
330
163ED
100
AcDbEntity
  8
DEFPOINTS
  6
ByBlock
 62
     0
 48
50.0
100
AcDbPoint
 10
4744.673057123629
 20
10032.49742454587
 30
0.0
  0
POINT
  5
164BA
330
163ED
100
AcDbEntity
  8
DEFPOINTS
  6
ByBlock
 62
     0
 48
50.0
100
AcDbPoint
 10
4799.673057123663
 20
10032.49742454587
 30
0.0
  0
POINT
  5
164BB
330
163ED
100
AcDbEntity
  8
DEFPOINTS
  6
ByBlock
 62
     0
 48
50.0
100
AcDbPoint
 10
4799.673057123663
 20
10248.30564417085
 30
0.0
  0
ENDBLK
  5
164BC
330
163ED
100
AcDbEntity
  8
0
 48
50.0
100
AcDbBlockEnd
  0
BLOCK
  5
164BD
330
163FB
100
AcDbEntity
  8
0
 48
50.0
100
AcDbBlockBegin
  2
*D13
 70
     1
 10
0.0
 20
0.0
 30
0.0
  3
*D13
  1

  0
LINE
  5
164BE
330
163FB
100
AcDbEntity
  8
0
  6
ByBlock
 62
     0
 48
50.0
100
AcDbLine
 10
7319.673057123664
 20
10052.49742454596
 30
0.0
 11
7319.673057123664
 21
10308.30564417095
 31
0.0
  0
LINE
  5
164BF
330
163FB
100
AcDbEntity
  8
0
  6
ByBlock
 62
     0
 48
50.0
100
AcDbLine
 10
7374.673057123664
 20
10052.49742454596
 30
0.0
 11
7374.673057123664
 21
10308.30564417095
 31
0.0
  0
LINE
  5
164C0
330
163FB
100
AcDbEntity
  8
0
  6
ByBlock
 62
     0
 48
50.0
100
AcDbLine
 10
7319.673057123664
 20
10248.30564417095
 30
0.0
 11
7219.673057123664
 21
10248.30564417095
 31
0.0
  0
LINE
  5
164C1
330
163FB
100
AcDbEntity
  8
0
  6
ByBlock
 62
     0
 48
50.0
100
AcDbLine
 10
7374.673057123664
 20
10248.30564417095
 30
0.0
 11
7791.643619872141
 21
10248.30564417095
 31
0.0
  0
LINE
  5
164C2
330
163FB
100
AcDbEntity
  8
0
  6
ByBlock
 62
     0
 48
50.0
100
AcDbLine
 10
7319.673057123664
 20
10248.30564417095
 30
0.0
 11
7374.673057123664
 21
10248.30564417095
 31
0.0
  0
INSERT
  5
164C3
330
163FB
100
AcDbEntity
  8
0
  6
ByBlock
 62
     0
 48
50.0
100
AcDbBlockReference
  2
_DOTSMALL
 10
7319.673057123664
 20
10248.30564417095
 30
0.0
 41
100.0
 42
100.0
 43
100.0
  0
INSERT
  5
164C4
330
163FB
100
AcDbEntity
  8
0
  6
ByBlock
 62
     0
 48
50.0
100
AcDbBlockReference
  2
_DOTSMALL
 10
7374.673057123664
 20
10248.30564417095
 30
0.0
 41
100.0
 42
100.0
 43
100.0
 50
180.0
  0
MTEXT
  5
164C5
330
163FB
100
AcDbEntity
  8
0
  6
ByBlock
 62
     7
 48
50.0
100
AcDbMText
 10
7683.158338497903
 20
10348.30564417095
 30
0.0
 40
120.0
 41
0.0
 71
     5
 72
     1
  1
\A1;55
  7
STYLE1
 73
     1
 44
1.0
1001
ACAD
1000
MTEXTBEGIN
1070
    73
1070
     1
1070
    44
1040
1.0
1070
    74
1070
     0
1000
MTEXTEND
  0
POINT
  5
164C6
330
163FB
100
AcDbEntity
  8
DEFPOINTS
  6
ByBlock
 62
     0
 48
50.0
100
AcDbPoint
 10
7319.673057123664
 20
10032.49742454596
 30
0.0
  0
POINT
  5
164C7
330
163FB
100
AcDbEntity
  8
DEFPOINTS
  6
ByBlock
 62
     0
 48
50.0
100
AcDbPoint
 10
7374.673057123664
 20
10032.49742454596
 30
0.0
  0
POINT
  5
164C8
330
163FB
100
AcDbEntity
  8
DEFPOINTS
  6
ByBlock
 62
     0
 48
50.0
100
AcDbPoint
 10
7374.673057123664
 20
10248.30564417095
 30
0.0
  0
ENDBLK
  5
164C9
330
163FB
100
AcDbEntity
  8
0
 48
50.0
100
AcDbBlockEnd
  0
BLOCK
  5
165B6
330
165B5
100
AcDbEntity
  8
0
 48
50.0
100
AcDbBlockBegin
  2
*D14
 70
     1
 10
0.0
 20
0.0
 30
0.0
  3
*D14
  1

  0
LINE
  5
165B7
330
165B5
100
AcDbEntity
  8
0
  6
ByBlock
 62
     0
 48
50.0
100
AcDbLine
 10
6162.673057123657
 20
6988.497424545865
 30
0.0
 11
6162.673057123657
 21
6388.0666537797
 31
0.0
  0
LINE
  5
165B8
330
165B5
100
AcDbEntity
  8
0
  6
ByBlock
 62
     0
 48
50.0
100
AcDbLine
 10
6114.673057123653
 20
6962.497424545865
 30
0.0
 11
6114.673057123653
 21
6388.0666537797
 31
0.0
  0
LINE
  5
165B9
330
165B5
100
AcDbEntity
  8
0
  6
ByBlock
 62
     0
 48
50.0
100
AcDbLine
 10
6162.673057123657
 20
6448.066653779701
 30
0.0
 11
6262.673057123657
 21
6448.066653779701
 31
0.0
  0
LINE
  5
165BA
330
165B5
100
AcDbEntity
  8
0
  6
ByBlock
 62
     0
 48
50.0
100
AcDbLine
 10
6114.673057123653
 20
6448.066653779701
 30
0.0
 11
6014.673057123653
 21
6448.066653779701
 31
0.0
  0
MTEXT
  5
165BB
330
165B5
100
AcDbEntity
  8
0
  6
ByBlock
 62
     7
 48
50.0
100
AcDbMText
 10
6275.575028123714
 20
6548.0666537797
 30
0.0
 40
120.0
 41
0.0
 71
     5
 72
     1
  1
\A1;48
  7
STYLE1
 73
     1
 44
1.0
1001
ACAD
1000
MTEXTBEGIN
1070
    73
1070
     1
1070
    44
1040
1.0
1070
    74
1070
     0
1000
MTEXTEND
  0
LINE
  5
165BC
330
165B5
100
AcDbEntity
  8
0
  6
ByBlock
 62
     0
 48
50.0
100
AcDbLine
 10
6162.673057123657
 20
6448.066653779701
 30
0.0
 11
6114.673057123653
 21
6448.066653779701
 31
0.0
  0
LINE
  5
165BD
330
165B5
100
AcDbEntity
  8
0
  6
ByBlock
 62
     0
 48
50.0
100
AcDbLine
 10
6162.673057123657
 20
6448.066653779701
 30
0.0
 11
6114.673057123653
 21
6448.066653779701
 31
0.0
  0
INSERT
  5
165BE
330
165B5
100
AcDbEntity
  8
0
  6
ByBlock
 62
     0
 48
50.0
100
AcDbBlockReference
  2
_DOTSMALL
 10
6162.673057123657
 20
6448.066653779701
 30
0.0
 41
100.0
 42
100.0
 43
100.0
 50
180.0
  0
INSERT
  5
165BF
330
165B5
100
AcDbEntity
  8
0
  6
ByBlock
 62
     0
 48
50.0
100
AcDbBlockReference
  2
_DOTSMALL
 10
6114.673057123653
 20
6448.066653779701
 30
0.0
 41
100.0
 42
100.0
 43
100.0
  0
POINT
  5
165C0
330
165B5
100
AcDbEntity
  8
DEFPOINTS
  6
ByBlock
 62
     0
 48
50.0
100
AcDbPoint
 10
6162.673057123657
 20
7008.497424545864
 30
0.0
  0
POINT
  5
165C1
330
165B5
100
AcDbEntity
  8
DEFPOINTS
  6
ByBlock
 62
     0
 48
50.0
100
AcDbPoint
 10
6114.673057123653
 20
6982.497424545865
 30
0.0
  0
POINT
  5
165C2
330
165B5
100
AcDbEntity
  8
DEFPOINTS
  6
ByBlock
 62
     0
 48
50.0
100
AcDbPoint
 10
6114.673057123653
 20
6448.066653779701
 30
0.0
  0
ENDBLK
  5
165C3
330
165B5
100
AcDbEntity
  8
0
 48
50.0
100
AcDbBlockEnd
  0
BLOCK
  5
165C5
330
165C4
100
AcDbEntity
  8
0
 48
50.0
100
AcDbBlockBegin
  2
*D15
 70
     1
 10
0.0
 20
0.0
 30
0.0
  3
*D15
  1

  0
LINE
  5
165C6
330
165C4
100
AcDbEntity
  8
0
  6
ByBlock
 62
     0
 48
50.0
100
AcDbLine
 10
8634.67305712364
 20
6962.497424545952
 30
0.0
 11
8634.67305712364
 21
6388.0666537797
 31
0.0
  0
LINE
  5
165C7
330
165C4
100
AcDbEntity
  8
0
  6
ByBlock
 62
     0
 48
50.0
100
AcDbLine
 10
8586.673057123638
 20
6988.497424545865
 30
0.0
 11
8586.673057123638
 21
6388.0666537797
 31
0.0
  0
LINE
  5
165C8
330
165C4
100
AcDbEntity
  8
0
  6
ByBlock
 62
     0
 48
50.0
100
AcDbLine
 10
8634.67305712364
 20
6448.066653779701
 30
0.0
 11
8734.673057123641
 21
6448.066653779701
 31
0.0
  0
LINE
  5
165C9
330
165C4
100
AcDbEntity
  8
0
  6
ByBlock
 62
     0
 48
50.0
100
AcDbLine
 10
8586.673057123638
 20
6448.066653779701
 30
0.0
 11
8486.673057123638
 21
6448.066653779701
 31
0.0
  0
MTEXT
  5
165CA
330
165C4
100
AcDbEntity
  8
0
  6
ByBlock
 62
     7
 48
50.0
100
AcDbMText
 10
8475.710159474891
 20
6548.0666537797
 30
0.0
 40
120.0
 41
0.0
 71
     5
 72
     1
  1
\A1;48
  7
STYLE1
 73
     1
 44
1.0
1001
ACAD
1000
MTEXTBEGIN
1070
    73
1070
     1
1070
    44
1040
1.0
1070
    74
1070
     0
1000
MTEXTEND
  0
LINE
  5
165CB
330
165C4
100
AcDbEntity
  8
0
  6
ByBlock
 62
     0
 48
50.0
100
AcDbLine
 10
8634.67305712364
 20
6448.066653779701
 30
0.0
 11
8586.673057123638
 21
6448.066653779701
 31
0.0
  0
LINE
  5
165CC
330
165C4
100
AcDbEntity
  8
0
  6
ByBlock
 62
     0
 48
50.0
100
AcDbLine
 10
8634.67305712364
 20
6448.066653779701
 30
0.0
 11
8586.673057123638
 21
6448.066653779701
 31
0.0
  0
INSERT
  5
165CD
330
165C4
100
AcDbEntity
  8
0
  6
ByBlock
 62
     0
 48
50.0
100
AcDbBlockReference
  2
_DOTSMALL
 10
8634.67305712364
 20
6448.066653779701
 30
0.0
 41
100.0
 42
100.0
 43
100.0
 50
180.0
  0
INSERT
  5
165CE
330
165C4
100
AcDbEntity
  8
0
  6
ByBlock
 62
     0
 48
50.0
100
AcDbBlockReference
  2
_DOTSMALL
 10
8586.673057123638
 20
6448.066653779701
 30
0.0
 41
100.0
 42
100.0
 43
100.0
  0
POINT
  5
165CF
330
165C4
100
AcDbEntity
  8
DEFPOINTS
  6
ByBlock
 62
     0
 48
50.0
100
AcDbPoint
 10
8634.67305712364
 20
6982.497424545953
 30
0.0
  0
POINT
  5
165D0
330
165C4
100
AcDbEntity
  8
DEFPOINTS
  6
ByBlock
 62
     0
 48
50.0
100
AcDbPoint
 10
8586.673057123638
 20
7008.497424545865
 30
0.0
  0
POINT
  5
165D1
330
165C4
100
AcDbEntity
  8
DEFPOINTS
  6
ByBlock
 62
     0
 48
50.0
100
AcDbPoint
 10
8586.673057123638
 20
6448.066653779701
 30
0.0
  0
ENDBLK
  5
165D2
330
165C4
100
AcDbEntity
  8
0
 48
50.0
100
AcDbBlockEnd
  0
BLOCK
  5
1663F
330
165EA
100
AcDbEntity
  8
0
 48
50.0
100
AcDbBlockBegin
  2
*D16
 70
     1
 10
0.0
 20
0.0
 30
0.0
  3
*D16
  1

  0
LINE
  5
16640
330
165EA
100
AcDbEntity
  8
0
  6
ByBlock
 62
     0
 48
50.0
100
AcDbLine
 10
6114.673057123653
 20
7222.497424545863
 30
0.0
 11
6114.673057123653
 21
6648.066653779702
 31
0.0
  0
LINE
  5
16641
330
165EA
100
AcDbEntity
  8
0
  6
ByBlock
 62
     0
 48
50.0
100
AcDbLine
 10
6004.67305712364
 20
7222.497424545952
 30
0.0
 11
6004.67305712364
 21
6648.066653779702
 31
0.0
  0
LINE
  5
16642
330
165EA
100
AcDbEntity
  8
0
  6
ByBlock
 62
     0
 48
50.0
100
AcDbLine
 10
6114.673057123653
 20
6708.066653779702
 30
0.0
 11
6004.67305712364
 21
6708.066653779702
 31
0.0
  0
MTEXT
  5
16643
330
165EA
100
AcDbEntity
  8
0
  6
ByBlock
 62
     7
 48
50.0
100
AcDbMText
 10
6059.673057123647
 20
6556.37475874347
 30
0.0
 40
120.0
 41
0.0
 71
     5
 72
     1
  1
\A1;110
  7
STYLE1
 73
     1
 44
1.0
1001
ACAD
1000
MTEXTBEGIN
1070
    73
1070
     1
1070
    44
1040
1.0
1070
    74
1070
     0
1000
MTEXTEND
  0
INSERT
  5
16644
330
165EA
100
AcDbEntity
  8
0
  6
ByBlock
 62
     0
 48
50.0
100
AcDbBlockReference
  2
_DOTSMALL
 10
6114.673057123653
 20
6708.066653779702
 30
0.0
 41
100.0
 42
100.0
 43
100.0
  0
INSERT
  5
16645
330
165EA
100
AcDbEntity
  8
0
  6
ByBlock
 62
     0
 48
50.0
100
AcDbBlockReference
  2
_DOTSMALL
 10
6004.67305712364
 20
6708.066653779702
 30
0.0
 41
100.0
 42
100.0
 43
100.0
 50
180.0
  0
POINT
  5
16646
330
165EA
100
AcDbEntity
  8
DEFPOINTS
  6
ByBlock
 62
     0
 48
50.0
100
AcDbPoint
 10
6114.673057123653
 20
7242.497424545864
 30
0.0
  0
POINT
  5
16647
330
165EA
100
AcDbEntity
  8
DEFPOINTS
  6
ByBlock
 62
     0
 48
50.0
100
AcDbPoint
 10
6004.67305712364
 20
7242.497424545952
 30
0.0
  0
POINT
  5
16648
330
165EA
100
AcDbEntity
  8
DEFPOINTS
  6
ByBlock
 62
     0
 48
50.0
100
AcDbPoint
 10
6004.67305712364
 20
6708.066653779702
 30
0.0
  0
ENDBLK
  5
16649
330
165EA
100
AcDbEntity
  8
0
 48
50.0
100
AcDbBlockEnd
  0
BLOCK
  5
166D0
330
166CF
100
AcDbEntity
  8
0
 48
50.0
100
AcDbBlockBegin
  2
*D17
 70
     1
 10
0.0
 20
0.0
 30
0.0
  3
*D17
  1

  0
LINE
  5
166D1
330
166CF
100
AcDbEntity
  8
0
  6
ByBlock
 62
     0
 48
50.0
100
AcDbLine
 10
6114.673057123663
 20
8952.497424545917
 30
0.0
 11
6114.673057123663
 21
9208.305644170968
 31
0.0
  0
LINE
  5
166D2
330
166CF
100
AcDbEntity
  8
0
  6
ByBlock
 62
     0
 48
50.0
100
AcDbLine
 10
6004.673057123664
 20
8952.497424545915
 30
0.0
 11
6004.673057123664
 21
9208.305644170968
 31
0.0
  0
LINE
  5
166D3
330
166CF
100
AcDbEntity
  8
0
  6
ByBlock
 62
     0
 48
50.0
100
AcDbLine
 10
6114.673057123663
 20
9148.305644170966
 30
0.0
 11
6214.673057123663
 21
9148.305644170966
 31
0.0
  0
LINE
  5
166D4
330
166CF
100
AcDbEntity
  8
0
  6
ByBlock
 62
     0
 48
50.0
100
AcDbLine
 10
6004.673057123664
 20
9148.305644170966
 30
0.0
 11
5904.673057123664
 21
9148.305644170966
 31
0.0
  0
LINE
  5
166D5
330
166CF
100
AcDbEntity
  8
0
  6
ByBlock
 62
     0
 48
50.0
100
AcDbLine
 10
6114.673057123663
 20
9148.305644170966
 30
0.0
 11
6004.673057123664
 21
9148.305644170966
 31
0.0
  0
INSERT
  5
166D6
330
166CF
100
AcDbEntity
  8
0
  6
ByBlock
 62
     0
 48
50.0
100
AcDbBlockReference
  2
_DOTSMALL
 10
6114.673057123663
 20
9148.305644170966
 30
0.0
 41
100.0
 42
100.0
 43
100.0
 50
180.0
  0
INSERT
  5
166D7
330
166CF
100
AcDbEntity
  8
0
  6
ByBlock
 62
     0
 48
50.0
100
AcDbBlockReference
  2
_DOTSMALL
 10
6004.673057123664
 20
9148.305644170966
 30
0.0
 41
100.0
 42
100.0
 43
100.0
  0
MTEXT
  5
166D8
330
166CF
100
AcDbEntity
  8
0
  6
ByBlock
 62
     7
 48
50.0
100
AcDbMText
 10
6059.673057123664
 20
9248.305644170967
 30
0.0
 40
120.0
 41
0.0
 71
     5
 72
     1
  1
\A1;110
  7
STYLE1
 73
     1
 44
1.0
1001
ACAD
1000
MTEXTBEGIN
1070
    73
1070
     1
1070
    44
1040
1.0
1070
    74
1070
     0
1000
MTEXTEND
  0
POINT
  5
166D9
330
166CF
100
AcDbEntity
  8
DEFPOINTS
  6
ByBlock
 62
     0
 48
50.0
100
AcDbPoint
 10
6114.673057123663
 20
8932.497424545919
 30
0.0
  0
POINT
  5
166DA
330
166CF
100
AcDbEntity
  8
DEFPOINTS
  6
ByBlock
 62
     0
 48
50.0
100
AcDbPoint
 10
6004.673057123664
 20
8932.497424545914
 30
0.0
  0
POINT
  5
166DB
330
166CF
100
AcDbEntity
  8
DEFPOINTS
  6
ByBlock
 62
     0
 48
50.0
100
AcDbPoint
 10
6004.673057123664
 20
9148.305644170966
 30
0.0
  0
ENDBLK
  5
166DC
330
166CF
100
AcDbEntity
  8
0
 48
50.0
100
AcDbBlockEnd
  0
BLOCK
  5
175FD
330
16908
100
AcDbEntity
  8
0
 48
50.0
100
AcDbBlockBegin
  2
*D18
 70
     1
 10
0.0
 20
0.0
 30
0.0
  3
*D18
  1

  0
LINE
  5
175FE
330
16908
100
AcDbEntity
  8
0
  6
ByBlock
 62
     0
 48
50.0
100
AcDbLine
 10
7328.266602670488
 20
10167.29355852891
 30
0.0
 11
7328.266602670488
 21
10297.62711772726
 31
0.0
  0
LINE
  5
175FF
330
16908
100
AcDbEntity
  8
0
  6
ByBlock
 62
     0
 48
50.0
100
AcDbLine
 10
10378.26660267049
 20
9792.497424545963
 30
0.0
 11
10378.26660267049
 21
10297.62711772726
 31
0.0
  0
LINE
  5
17600
330
16908
100
AcDbEntity
  8
0
  6
ByBlock
 62
     0
 48
50.0
100
AcDbLine
 10
7328.266602670488
 20
10237.62711772726
 30
0.0
 11
10378.26660267049
 21
10237.62711772726
 31
0.0
  0
INSERT
  5
17601
330
16908
100
AcDbEntity
  8
0
  6
ByBlock
 62
     0
 48
50.0
100
AcDbBlockReference
  2
_DOTSMALL
 10
7328.266602670488
 20
10237.62711772726
 30
0.0
 41
100.0
 42
100.0
 43
100.0
 50
180.0
  0
INSERT
  5
17602
330
16908
100
AcDbEntity
  8
0
  6
ByBlock
 62
     0
 48
50.0
100
AcDbBlockReference
  2
_DOTSMALL
 10
10378.26660267049
 20
10237.62711772726
 30
0.0
 41
100.0
 42
100.0
 43
100.0
  0
MTEXT
  5
17603
330
16908
100
AcDbEntity
  8
0
  6
ByBlock
 62
     7
 48
50.0
100
AcDbMText
 10
8853.26660267049
 20
10337.62711772726
 30
0.0
 40
120.0
 41
0.0
 71
     5
 72
     1
  1
\A1;3050
  7
STYLE1
 73
     1
 44
1.0
1001
ACAD
1000
MTEXTBEGIN
1070
    73
1070
     1
1070
    44
1040
1.0
1070
    74
1070
     0
1000
MTEXTEND
  0
POINT
  5
17604
330
16908
100
AcDbEntity
  8
DEFPOINTS
  6
ByBlock
 62
     0
 48
50.0
100
AcDbPoint
 10
7328.266602670488
 20
10147.29355852891
 30
0.0
  0
POINT
  5
17605
330
16908
100
AcDbEntity
  8
DEFPOINTS
  6
ByBlock
 62
     0
 48
50.0
100
AcDbPoint
 10
10378.26660267049
 20
9772.497424545964
 30
0.0
  0
POINT
  5
17606
330
16908
100
AcDbEntity
  8
DEFPOINTS
  6
ByBlock
 62
     0
 48
50.0
100
AcDbPoint
 10
10378.26660267049
 20
10237.62711772726
 30
0.0
  0
ENDBLK
  5
17607
330
16908
100
AcDbEntity
  8
0
 48
50.0
100
AcDbBlockEnd
  0
BLOCK
  5
17533
330
17532
100
AcDbEntity
  8
0
 48
50.0
100
AcDbBlockBegin
  2
*D19
 70
     1
 10
0.0
 20
0.0
 30
0.0
  3
*D19
  1

  0
LINE
  5
17534
330
17532
100
AcDbEntity
  8
0
  6
ByBlock
 62
     0
 48
50.0
100
AcDbLine
 10
6162.673057123657
 20
7148.497424545865
 30
0.0
 11
6162.673057123657
 21
6548.0666537797
 31
0.0
  0
LINE
  5
17535
330
17532
100
AcDbEntity
  8
0
  6
ByBlock
 62
     0
 48
50.0
100
AcDbLine
 10
6114.673057123653
 20
7122.497424545864
 30
0.0
 11
6114.673057123653
 21
6548.0666537797
 31
0.0
  0
LINE
  5
17536
330
17532
100
AcDbEntity
  8
0
  6
ByBlock
 62
     0
 48
50.0
100
AcDbLine
 10
6162.673057123657
 20
6608.0666537797
 30
0.0
 11
6262.673057123657
 21
6608.0666537797
 31
0.0
  0
LINE
  5
17537
330
17532
100
AcDbEntity
  8
0
  6
ByBlock
 62
     0
 48
50.0
100
AcDbLine
 10
6114.673057123653
 20
6608.0666537797
 30
0.0
 11
6014.673057123653
 21
6608.0666537797
 31
0.0
  0
MTEXT
  5
17538
330
17532
100
AcDbEntity
  8
0
  6
ByBlock
 62
     7
 48
50.0
100
AcDbMText
 10
6275.575028123714
 20
6708.0666537797
 30
0.0
 40
120.0
 41
0.0
 71
     5
 72
     1
  1
\A1;48
  7
STYLE1
 73
     1
 44
1.0
1001
ACAD
1000
MTEXTBEGIN
1070
    73
1070
     1
1070
    44
1040
1.0
1070
    74
1070
     0
1000
MTEXTEND
  0
LINE
  5
17539
330
17532
100
AcDbEntity
  8
0
  6
ByBlock
 62
     0
 48
50.0
100
AcDbLine
 10
6162.673057123657
 20
6608.0666537797
 30
0.0
 11
6114.673057123653
 21
6608.0666537797
 31
0.0
  0
LINE
  5
1753A
330
17532
100
AcDbEntity
  8
0
  6
ByBlock
 62
     0
 48
50.0
100
AcDbLine
 10
6162.673057123657
 20
6608.0666537797
 30
0.0
 11
6114.673057123653
 21
6608.0666537797
 31
0.0
  0
INSERT
  5
1753B
330
17532
100
AcDbEntity
  8
0
  6
ByBlock
 62
     0
 48
50.0
100
AcDbBlockReference
  2
_DOTSMALL
 10
6162.673057123657
 20
6608.0666537797
 30
0.0
 41
100.0
 42
100.0
 43
100.0
 50
180.0
  0
INSERT
  5
1753C
330
17532
100
AcDbEntity
  8
0
  6
ByBlock
 62
     0
 48
50.0
100
AcDbBlockReference
  2
_DOTSMALL
 10
6114.673057123653
 20
6608.0666537797
 30
0.0
 41
100.0
 42
100.0
 43
100.0
  0
POINT
  5
1753D
330
17532
100
AcDbEntity
  8
DEFPOINTS
  6
ByBlock
 62
     0
 48
50.0
100
AcDbPoint
 10
6162.673057123657
 20
7168.497424545865
 30
0.0
  0
POINT
  5
1753E
330
17532
100
AcDbEntity
  8
DEFPOINTS
  6
ByBlock
 62
     0
 48
50.0
100
AcDbPoint
 10
6114.673057123653
 20
7142.497424545864
 30
0.0
  0
POINT
  5
1753F
330
17532
100
AcDbEntity
  8
DEFPOINTS
  6
ByBlock
 62
     0
 48
50.0
100
AcDbPoint
 10
6114.673057123653
 20
6608.0666537797
 30
0.0
  0
ENDBLK
  5
17540
330
17532
100
AcDbEntity
  8
0
 48
50.0
100
AcDbBlockEnd
  0
BLOCK
  5
17542
330
17541
100
AcDbEntity
  8
0
 48
50.0
100
AcDbBlockBegin
  2
*D20
 70
     1
 10
0.0
 20
0.0
 30
0.0
  3
*D20
  1

  0
LINE
  5
17543
330
17541
100
AcDbEntity
  8
0
  6
ByBlock
 62
     0
 48
50.0
100
AcDbLine
 10
6004.67305712364
 20
7122.497424545952
 30
0.0
 11
6004.67305712364
 21
6548.0666537797
 31
0.0
  0
LINE
  5
17544
330
17541
100
AcDbEntity
  8
0
  6
ByBlock
 62
     0
 48
50.0
100
AcDbLine
 10
5956.673057123638
 20
7148.497424545865
 30
0.0
 11
5956.673057123638
 21
6548.0666537797
 31
0.0
  0
LINE
  5
17545
330
17541
100
AcDbEntity
  8
0
  6
ByBlock
 62
     0
 48
50.0
100
AcDbLine
 10
6004.67305712364
 20
6608.0666537797
 30
0.0
 11
6104.67305712364
 21
6608.0666537797
 31
0.0
  0
LINE
  5
17546
330
17541
100
AcDbEntity
  8
0
  6
ByBlock
 62
     0
 48
50.0
100
AcDbLine
 10
5956.673057123638
 20
6608.0666537797
 30
0.0
 11
5856.673057123638
 21
6608.0666537797
 31
0.0
  0
MTEXT
  5
17547
330
17541
100
AcDbEntity
  8
0
  6
ByBlock
 62
     7
 48
50.0
100
AcDbMText
 10
5845.710159474891
 20
6708.0666537797
 30
0.0
 40
120.0
 41
0.0
 71
     5
 72
     1
  1
\A1;48
  7
STYLE1
 73
     1
 44
1.0
1001
ACAD
1000
MTEXTBEGIN
1070
    73
1070
     1
1070
    44
1040
1.0
1070
    74
1070
     0
1000
MTEXTEND
  0
LINE
  5
17548
330
17541
100
AcDbEntity
  8
0
  6
ByBlock
 62
     0
 48
50.0
100
AcDbLine
 10
6004.67305712364
 20
6608.0666537797
 30
0.0
 11
5956.673057123638
 21
6608.0666537797
 31
0.0
  0
LINE
  5
17549
330
17541
100
AcDbEntity
  8
0
  6
ByBlock
 62
     0
 48
50.0
100
AcDbLine
 10
6004.67305712364
 20
6608.0666537797
 30
0.0
 11
5956.673057123638
 21
6608.0666537797
 31
0.0
  0
INSERT
  5
1754A
330
17541
100
AcDbEntity
  8
0
  6
ByBlock
 62
     0
 48
50.0
100
AcDbBlockReference
  2
_DOTSMALL
 10
6004.67305712364
 20
6608.0666537797
 30
0.0
 41
100.0
 42
100.0
 43
100.0
 50
180.0
  0
INSERT
  5
1754B
330
17541
100
AcDbEntity
  8
0
  6
ByBlock
 62
     0
 48
50.0
100
AcDbBlockReference
  2
_DOTSMALL
 10
5956.673057123638
 20
6608.0666537797
 30
0.0
 41
100.0
 42
100.0
 43
100.0
  0
POINT
  5
1754C
330
17541
100
AcDbEntity
  8
DEFPOINTS
  6
ByBlock
 62
     0
 48
50.0
100
AcDbPoint
 10
6004.67305712364
 20
7142.497424545952
 30
0.0
  0
POINT
  5
1754D
330
17541
100
AcDbEntity
  8
DEFPOINTS
  6
ByBlock
 62
     0
 48
50.0
100
AcDbPoint
 10
5956.673057123638
 20
7168.497424545865
 30
0.0
  0
POINT
  5
1754E
330
17541
100
AcDbEntity
  8
DEFPOINTS
  6
ByBlock
 62
     0
 48
50.0
100
AcDbPoint
 10
5956.673057123638
 20
6608.0666537797
 30
0.0
  0
ENDBLK
  5
1754F
330
17541
100
AcDbEntity
  8
0
 48
50.0
100
AcDbBlockEnd
  0
BLOCK
  5
17551
330
17550
100
AcDbEntity
  8
0
 48
50.0
100
AcDbBlockBegin
  2
*D21
 70
     1
 10
0.0
 20
0.0
 30
0.0
  3
*D21
  1

  0
LINE
  5
17552
330
17550
100
AcDbEntity
  8
0
  6
ByBlock
 62
     0
 48
50.0
100
AcDbLine
 10
3112.673057123657
 20
7148.497424545865
 30
0.0
 11
3112.673057123657
 21
6548.0666537797
 31
0.0
  0
LINE
  5
17553
330
17550
100
AcDbEntity
  8
0
  6
ByBlock
 62
     0
 48
50.0
100
AcDbLine
 10
5956.673057123638
 20
6608.0666537797
 30
0.0
 11
3112.673057123657
 21
6608.0666537797
 31
0.0
  0
INSERT
  5
17554
330
17550
100
AcDbEntity
  8
0
  6
ByBlock
 62
     0
 48
50.0
100
AcDbBlockReference
  2
_DOTSMALL
 10
5956.673057123638
 20
6608.0666537797
 30
0.0
 41
100.0
 42
100.0
 43
100.0
  0
INSERT
  5
17555
330
17550
100
AcDbEntity
  8
0
  6
ByBlock
 62
     0
 48
50.0
100
AcDbBlockReference
  2
_DOTSMALL
 10
3112.673057123657
 20
6608.0666537797
 30
0.0
 41
100.0
 42
100.0
 43
100.0
 50
180.0
  0
MTEXT
  5
17556
330
17550
100
AcDbEntity
  8
0
  6
ByBlock
 62
     7
 48
50.0
100
AcDbMText
 10
4534.673057123647
 20
6708.078464803323
 30
0.0
 40
120.0
 41
0.0
 71
     5
 72
     1
  1
\A1;有効開口部間口 2844
  7
STYLE1
 73
     1
 44
1.0
1001
ACAD
1000
MTEXTBEGIN
1070
    73
1070
     1
1070
    44
1040
1.0
1070
    74
1070
     0
1000
MTEXTEND
  0
POINT
  5
17557
330
17550
100
AcDbEntity
  8
DEFPOINTS
  6
ByBlock
 62
     0
 48
50.0
100
AcDbPoint
 10
5956.673057123638
 20
7168.497424545865
 30
0.0
  0
POINT
  5
17558
330
17550
100
AcDbEntity
  8
DEFPOINTS
  6
ByBlock
 62
     0
 48
50.0
100
AcDbPoint
 10
3112.673057123657
 20
7168.497424545865
 30
0.0
  0
POINT
  5
17559
330
17550
100
AcDbEntity
  8
DEFPOINTS
  6
ByBlock
 62
     0
 48
50.0
100
AcDbPoint
 10
3112.673057123657
 20
6608.0666537797
 30
0.0
  0
ENDBLK
  5
1755A
330
17550
100
AcDbEntity
  8
0
 48
50.0
100
AcDbBlockEnd
  0
BLOCK
  5
1755C
330
1755B
100
AcDbEntity
  8
0
 48
50.0
100
AcDbBlockBegin
  2
*D22
 70
     1
 10
0.0
 20
0.0
 30
0.0
  3
*D22
  1

  0
LINE
  5
1755D
330
1755B
100
AcDbEntity
  8
0
  6
ByBlock
 62
     0
 48
50.0
100
AcDbLine
 10
6114.673057123653
 20
7122.497424545864
 30
0.0
 11
6114.673057123653
 21
6548.066653779702
 31
0.0
  0
LINE
  5
1755E
330
1755B
100
AcDbEntity
  8
0
  6
ByBlock
 62
     0
 48
50.0
100
AcDbLine
 10
6004.67305712364
 20
7122.497424545952
 30
0.0
 11
6004.67305712364
 21
6548.066653779702
 31
0.0
  0
LINE
  5
1755F
330
1755B
100
AcDbEntity
  8
0
  6
ByBlock
 62
     0
 48
50.0
100
AcDbLine
 10
6114.673057123653
 20
6608.066653779701
 30
0.0
 11
6004.67305712364
 21
6608.066653779701
 31
0.0
  0
MTEXT
  5
17560
330
1755B
100
AcDbEntity
  8
0
  6
ByBlock
 62
     7
 48
50.0
100
AcDbMText
 10
6059.673057123647
 20
6456.37475874347
 30
0.0
 40
120.0
 41
0.0
 71
     5
 72
     1
  1
\A1;110
  7
STYLE1
 73
     1
 44
1.0
1001
ACAD
1000
MTEXTBEGIN
1070
    73
1070
     1
1070
    44
1040
1.0
1070
    74
1070
     0
1000
MTEXTEND
  0
INSERT
  5
17561
330
1755B
100
AcDbEntity
  8
0
  6
ByBlock
 62
     0
 48
50.0
100
AcDbBlockReference
  2
_DOTSMALL
 10
6114.673057123653
 20
6608.066653779701
 30
0.0
 41
100.0
 42
100.0
 43
100.0
  0
INSERT
  5
17562
330
1755B
100
AcDbEntity
  8
0
  6
ByBlock
 62
     0
 48
50.0
100
AcDbBlockReference
  2
_DOTSMALL
 10
6004.67305712364
 20
6608.066653779701
 30
0.0
 41
100.0
 42
100.0
 43
100.0
 50
180.0
  0
POINT
  5
17563
330
1755B
100
AcDbEntity
  8
DEFPOINTS
  6
ByBlock
 62
     0
 48
50.0
100
AcDbPoint
 10
6114.673057123653
 20
7142.497424545864
 30
0.0
  0
POINT
  5
17564
330
1755B
100
AcDbEntity
  8
DEFPOINTS
  6
ByBlock
 62
     0
 48
50.0
100
AcDbPoint
 10
6004.67305712364
 20
7142.497424545952
 30
0.0
  0
POINT
  5
17565
330
1755B
100
AcDbEntity
  8
DEFPOINTS
  6
ByBlock
 62
     0
 48
50.0
100
AcDbPoint
 10
6004.67305712364
 20
6608.066653779701
 30
0.0
  0
ENDBLK
  5
17566
330
1755B
100
AcDbEntity
  8
0
 48
50.0
100
AcDbBlockEnd
  0
BLOCK
  5
17568
330
17567
100
AcDbEntity
  8
0
 48
50.0
100
AcDbBlockBegin
  2
*D23
 70
     1
 10
0.0
 20
0.0
 30
0.0
  3
*D23
  1

  0
LINE
  5
17569
330
17567
100
AcDbEntity
  8
0
  6
ByBlock
 62
     0
 48
50.0
100
AcDbLine
 10
3064.673057123663
 20
9792.497424545869
 30
0.0
 11
3064.673057123663
 21
10048.30564417096
 31
0.0
  0
LINE
  5
1756A
330
17567
100
AcDbEntity
  8
0
  6
ByBlock
 62
     0
 48
50.0
100
AcDbLine
 10
6004.673057123664
 20
9792.497424545963
 30
0.0
 11
6004.673057123664
 21
10048.30564417096
 31
0.0
  0
LINE
  5
1756B
330
17567
100
AcDbEntity
  8
0
  6
ByBlock
 62
     0
 48
50.0
100
AcDbLine
 10
3064.673057123663
 20
9988.305644170967
 30
0.0
 11
6004.673057123664
 21
9988.305644170967
 31
0.0
  0
INSERT
  5
1756C
330
17567
100
AcDbEntity
  8
0
  6
ByBlock
 62
     0
 48
50.0
100
AcDbBlockReference
  2
_DOTSMALL
 10
3064.673057123663
 20
9988.305644170967
 30
0.0
 41
100.0
 42
100.0
 43
100.0
 50
180.0
  0
INSERT
  5
1756D
330
17567
100
AcDbEntity
  8
0
  6
ByBlock
 62
     0
 48
50.0
100
AcDbBlockReference
  2
_DOTSMALL
 10
6004.673057123664
 20
9988.305644170967
 30
0.0
 41
100.0
 42
100.0
 43
100.0
  0
MTEXT
  5
1756E
330
17567
100
AcDbEntity
  8
0
  6
ByBlock
 62
     7
 48
50.0
100
AcDbMText
 10
4534.673057123664
 20
10088.31745519459
 30
0.0
 40
120.0
 41
0.0
 71
     5
 72
     1
  1
\A1;7X420=2940
  7
STYLE1
 73
     1
 44
1.0
1001
ACAD
1000
MTEXTBEGIN
1070
    73
1070
     1
1070
    44
1040
1.0
1070
    74
1070
     0
1000
MTEXTEND
  0
POINT
  5
1756F
330
17567
100
AcDbEntity
  8
DEFPOINTS
  6
ByBlock
 62
     0
 48
50.0
100
AcDbPoint
 10
3064.673057123663
 20
9772.49742454587
 30
0.0
  0
POINT
  5
17570
330
17567
100
AcDbEntity
  8
DEFPOINTS
  6
ByBlock
 62
     0
 48
50.0
100
AcDbPoint
 10
6004.673057123664
 20
9772.497424545964
 30
0.0
  0
POINT
  5
17571
330
17567
100
AcDbEntity
  8
DEFPOINTS
  6
ByBlock
 62
     0
 48
50.0
100
AcDbPoint
 10
6004.673057123664
 20
9988.305644170967
 30
0.0
  0
ENDBLK
  5
17572
330
17567
100
AcDbEntity
  8
0
 48
50.0
100
AcDbBlockEnd
  0
BLOCK
  5
17574
330
17573
100
AcDbEntity
  8
0
 48
50.0
100
AcDbBlockBegin
  2
*D24
 70
     1
 10
0.0
 20
0.0
 30
0.0
  3
*D24
  1

  0
LINE
  5
17575
330
17573
100
AcDbEntity
  8
0
  6
ByBlock
 62
     0
 48
50.0
100
AcDbLine
 10
6114.673057123663
 20
9792.497424545919
 30
0.0
 11
6114.673057123663
 21
10048.30564417096
 31
0.0
  0
LINE
  5
17576
330
17573
100
AcDbEntity
  8
0
  6
ByBlock
 62
     0
 48
50.0
100
AcDbLine
 10
6004.673057123664
 20
9792.497424545913
 30
0.0
 11
6004.673057123664
 21
10048.30564417096
 31
0.0
  0
LINE
  5
17577
330
17573
100
AcDbEntity
  8
0
  6
ByBlock
 62
     0
 48
50.0
100
AcDbLine
 10
6114.673057123663
 20
9988.305644170967
 30
0.0
 11
6214.673057123663
 21
9988.305644170967
 31
0.0
  0
LINE
  5
17578
330
17573
100
AcDbEntity
  8
0
  6
ByBlock
 62
     0
 48
50.0
100
AcDbLine
 10
6004.673057123664
 20
9988.305644170967
 30
0.0
 11
5904.673057123664
 21
9988.305644170967
 31
0.0
  0
LINE
  5
17579
330
17573
100
AcDbEntity
  8
0
  6
ByBlock
 62
     0
 48
50.0
100
AcDbLine
 10
6114.673057123663
 20
9988.305644170967
 30
0.0
 11
6004.673057123664
 21
9988.305644170967
 31
0.0
  0
INSERT
  5
1757A
330
17573
100
AcDbEntity
  8
0
  6
ByBlock
 62
     0
 48
50.0
100
AcDbBlockReference
  2
_DOTSMALL
 10
6114.673057123663
 20
9988.305644170967
 30
0.0
 41
100.0
 42
100.0
 43
100.0
 50
180.0
  0
INSERT
  5
1757B
330
17573
100
AcDbEntity
  8
0
  6
ByBlock
 62
     0
 48
50.0
100
AcDbBlockReference
  2
_DOTSMALL
 10
6004.673057123664
 20
9988.305644170967
 30
0.0
 41
100.0
 42
100.0
 43
100.0
  0
MTEXT
  5
1757C
330
17573
100
AcDbEntity
  8
0
  6
ByBlock
 62
     7
 48
50.0
100
AcDbMText
 10
6059.673057123664
 20
10088.30564417096
 30
0.0
 40
120.0
 41
0.0
 71
     5
 72
     1
  1
\A1;110
  7
STYLE1
 73
     1
 44
1.0
1001
ACAD
1000
MTEXTBEGIN
1070
    73
1070
     1
1070
    44
1040
1.0
1070
    74
1070
     0
1000
MTEXTEND
  0
POINT
  5
1757D
330
17573
100
AcDbEntity
  8
DEFPOINTS
  6
ByBlock
 62
     0
 48
50.0
100
AcDbPoint
 10
6114.673057123663
 20
9772.497424545917
 30
0.0
  0
POINT
  5
1757E
330
17573
100
AcDbEntity
  8
DEFPOINTS
  6
ByBlock
 62
     0
 48
50.0
100
AcDbPoint
 10
6004.673057123664
 20
9772.497424545916
 30
0.0
  0
POINT
  5
1757F
330
17573
100
AcDbEntity
  8
DEFPOINTS
  6
ByBlock
 62
     0
 48
50.0
100
AcDbPoint
 10
6004.673057123664
 20
9988.305644170967
 30
0.0
  0
ENDBLK
  5
17580
330
17573
100
AcDbEntity
  8
0
 48
50.0
100
AcDbBlockEnd
  0
BLOCK
  5
17582
330
17581
100
AcDbEntity
  8
0
 48
50.0
100
AcDbBlockBegin
  2
*D25
 70
     1
 10
0.0
 20
0.0
 30
0.0
  3
*D25
  1

  0
LINE
  5
17583
330
17581
100
AcDbEntity
  8
0
  6
ByBlock
 62
     0
 48
50.0
100
AcDbLine
 10
3009.673057123629
 20
9792.497424545835
 30
0.0
 11
3009.673057123629
 21
10297.62711772726
 31
0.0
  0
LINE
  5
17584
330
17581
100
AcDbEntity
  8
0
  6
ByBlock
 62
     0
 48
50.0
100
AcDbLine
 10
6059.673057123664
 20
10167.29355852891
 30
0.0
 11
6059.673057123664
 21
10297.62711772726
 31
0.0
  0
LINE
  5
17585
330
17581
100
AcDbEntity
  8
0
  6
ByBlock
 62
     0
 48
50.0
100
AcDbLine
 10
3009.673057123629
 20
10237.62711772726
 30
0.0
 11
6059.673057123664
 21
10237.62711772726
 31
0.0
  0
INSERT
  5
17586
330
17581
100
AcDbEntity
  8
0
  6
ByBlock
 62
     0
 48
50.0
100
AcDbBlockReference
  2
_DOTSMALL
 10
3009.673057123629
 20
10237.62711772726
 30
0.0
 41
100.0
 42
100.0
 43
100.0
 50
180.0
  0
INSERT
  5
17587
330
17581
100
AcDbEntity
  8
0
  6
ByBlock
 62
     0
 48
50.0
100
AcDbBlockReference
  2
_DOTSMALL
 10
6059.673057123664
 20
10237.62711772726
 30
0.0
 41
100.0
 42
100.0
 43
100.0
  0
MTEXT
  5
17588
330
17581
100
AcDbEntity
  8
0
  6
ByBlock
 62
     7
 48
50.0
100
AcDbMText
 10
4534.673057123645
 20
10337.62711772726
 30
0.0
 40
120.0
 41
0.0
 71
     5
 72
     1
  1
\A1;3050
  7
STYLE1
 73
     1
 44
1.0
1001
ACAD
1000
MTEXTBEGIN
1070
    73
1070
     1
1070
    44
1040
1.0
1070
    74
1070
     0
1000
MTEXTEND
  0
POINT
  5
17589
330
17581
100
AcDbEntity
  8
DEFPOINTS
  6
ByBlock
 62
     0
 48
50.0
100
AcDbPoint
 10
3009.673057123629
 20
9772.497424545838
 30
0.0
  0
POINT
  5
1758A
330
17581
100
AcDbEntity
  8
DEFPOINTS
  6
ByBlock
 62
     0
 48
50.0
100
AcDbPoint
 10
6059.673057123664
 20
10147.29355852891
 30
0.0
  0
POINT
  5
1758B
330
17581
100
AcDbEntity
  8
DEFPOINTS
  6
ByBlock
 62
     0
 48
50.0
100
AcDbPoint
 10
6059.673057123664
 20
10237.62711772726
 30
0.0
  0
ENDBLK
  5
1758C
330
17581
100
AcDbEntity
  8
0
 48
50.0
100
AcDbBlockEnd
  0
BLOCK
  5
17DCE
330
17DC2
100
AcDbEntity
  8
0
 48
50.0
100
AcDbBlockBegin
  2
*D26
 70
     1
 10
0.0
 20
0.0
 30
0.0
  3
*D26
  1

  0
LINE
  5
18554
330
17DC2
100
AcDbEntity
  8
寸法
 62
     0
 48
50.0
370
    -2
100
AcDbLine
 10
10428.26660267049
 20
4932.931598713264
 30
0.0
 11
10428.26660267049
 21
5185.473183971505
 31
0.0
  0
LINE
  5
18555
330
17DC2
100
AcDbEntity
  8
寸法
 62
     0
 48
50.0
370
    -2
100
AcDbLine
 10
10378.26660267049
 20
4932.931598713266
 30
0.0
 11
10378.26660267049
 21
5185.473183971505
 31
0.0
  0
LINE
  5
18556
330
17DC2
100
AcDbEntity
  8
寸法
 62
     0
 48
50.0
370
    -2
100
AcDbLine
 10
10378.26660267049
 20
5125.473183971505
 30
0.0
 11
10278.26660267049
 21
5125.473183971505
 31
0.0
  0
LINE
  5
18557
330
17DC2
100
AcDbEntity
  8
寸法
 62
     0
 48
50.0
370
    -2
100
AcDbLine
 10
10428.26660267049
 20
5125.473183971505
 30
0.0
 11
10847.79912813921
 21
5125.473183971505
 31
0.0
  0
LINE
  5
18558
330
17DC2
100
AcDbEntity
  8
寸法
 62
     0
 48
50.0
370
    -2
100
AcDbLine
 10
10378.26660267049
 20
5125.473183971505
 30
0.0
 11
10428.26660267049
 21
5125.473183971505
 31
0.0
  0
INSERT
  5
18559
330
17DC2
100
AcDbEntity
  8
寸法
 62
     0
 48
50.0
370
    -2
100
AcDbBlockReference
  2
_DOTSMALL
 10
10378.26660267049
 20
5125.473183971505
 30
0.0
 41
100.0
 42
100.0
 43
100.0
  0
INSERT
  5
1855A
330
17DC2
100
AcDbEntity
  8
寸法
 62
     0
 48
50.0
370
    -2
100
AcDbBlockReference
  2
_DOTSMALL
 10
10428.26660267049
 20
5125.473183971505
 30
0.0
 41
100.0
 42
100.0
 43
100.0
 50
180.0
  0
MTEXT
  5
1855B
330
17DC2
100
AcDbEntity
  8
寸法
 62
     7
 48
50.0
100
AcDbMText
 10
10741.75188404473
 20
5225.473183971505
 30
0.0
 40
120.0
 41
0.0
 71
     5
 72
     1
  1
\A1;50
  7
STYLE1
 73
     1
 44
1.0
1001
ACAD
1000
MTEXTBEGIN
1070
    73
1070
     1
1070
    44
1040
1.0
1070
    74
1070
     0
1000
MTEXTEND
  0
POINT
  5
1855C
330
17DC2
100
AcDbEntity
  8
DEFPOINTS
 62
     0
 48
50.0
100
AcDbPoint
 10
10428.26660267049
 20
4912.931598713264
 30
0.0
  0
POINT
  5
1855D
330
17DC2
100
AcDbEntity
  8
DEFPOINTS
 62
     0
 48
50.0
100
AcDbPoint
 10
10378.26660267049
 20
4912.931598713266
 30
0.0
  0
POINT
  5
1855E
330
17DC2
100
AcDbEntity
  8
DEFPOINTS
 62
     0
 48
50.0
100
AcDbPoint
 10
10378.26660267049
 20
5125.473183971505
 30
0.0
  0
ENDBLK
  5
17DCF
330
17DC2
100
AcDbEntity
  8
0
 48
50.0
100
AcDbBlockEnd
  0
BLOCK
  5
17E4C
330
17E41
100
AcDbEntity
  8
0
 48
50.0
100
AcDbBlockBegin
  2
*D27
 70
     1
 10
0.0
 20
0.0
 30
0.0
  3
*D27
  1

  0
LINE
  5
184EB
330
17E41
100
AcDbEntity
  8
寸法
 62
     0
 48
50.0
370
    -2
100
AcDbLine
 10
12944.84766235117
 20
4912.22930578292
 30
0.0
 11
12328.91322324589
 21
4929.94345605725
 31
0.0
  0
LINE
  5
184EC
330
17E41
100
AcDbEntity
  8
寸法
 62
     0
 48
50.0
370
    -2
100
AcDbLine
 10
12940.79420679455
 20
4771.287582017207
 30
0.0
 11
12324.85976768926
 21
4789.001732291537
 31
0.0
  0
LINE
  5
184ED
330
17E41
100
AcDbEntity
  8
寸法
 62
     0
 48
50.0
370
    -2
100
AcDbLine
 10
12384.83496929169
 20
4787.27685758659
 30
0.0
 11
12388.88842484832
 21
4928.218581352303
 31
0.0
  0
LINE
  5
184EE
330
17E41
100
AcDbEntity
  8
寸法
 62
     0
 48
50.0
370
    -2
100
AcDbLine
 10
12388.88842484832
 20
4928.218581352303
 30
0.0
 11
12399.237673078
 21
5288.069790966889
 31
0.0
  0
INSERT
  5
184EF
330
17E41
100
AcDbEntity
  8
寸法
 62
     0
 48
50.0
370
    -2
100
AcDbBlockReference
  2
_DOTSMALL
 10
12384.83496929169
 20
4787.27685758659
 30
0.0
 41
100.0
 42
100.0
 43
100.0
 50
268.3526390256378
  0
INSERT
  5
184F0
330
17E41
100
AcDbEntity
  8
寸法
 62
     0
 48
50.0
370
    -2
100
AcDbBlockReference
  2
_DOTSMALL
 10
12388.88842484832
 20
4928.218581352303
 30
0.0
 41
100.0
 42
100.0
 43
100.0
 50
88.35263902563776
  0
MTEXT
  5
184F1
330
17E41
100
AcDbEntity
  8
寸法
 62
     7
 48
50.0
100
AcDbMText
 10
12295.54177521323
 20
5160.998312003202
 30
0.0
 40
120.0
 41
0.0
 71
     5
 72
     1
  1
\A1;141
  7
STYLE1
 11
0.0287479117491237
 21
0.9995866933738488
 31
0.0
 73
     1
 44
1.0
1001
ACAD
1000
MTEXTBEGIN
1070
    73
1070
     1
1070
    44
1040
1.0
1070
    74
1070
     0
1000
MTEXTEND
  0
POINT
  5
184F2
330
17E41
100
AcDbEntity
  8
DEFPOINTS
 62
     0
 48
50.0
100
AcDbPoint
 10
12964.83939621865
 20
4911.654347547937
 30
0.0
  0
POINT
  5
184F3
330
17E41
100
AcDbEntity
  8
DEFPOINTS
 62
     0
 48
50.0
100
AcDbPoint
 10
12960.78594066202
 20
4770.712623782225
 30
0.0
  0
POINT
  5
184F4
330
17E41
100
AcDbEntity
  8
DEFPOINTS
 62
     0
 48
50.0
100
AcDbPoint
 10
12384.83496929169
 20
4787.27685758659
 30
0.0
  0
ENDBLK
  5
17E4D
330
17E41
100
AcDbEntity
  8
0
 48
50.0
100
AcDbBlockEnd
  0
BLOCK
  5
17E59
330
17E4E
100
AcDbEntity
  8
0
 48
50.0
100
AcDbBlockBegin
  2
*D28
 70
     1
 10
0.0
 20
0.0
 30
0.0
  3
*D28
  1

  0
LINE
  5
184E1
330
17E4E
100
AcDbEntity
  8
寸法
 62
     0
 48
50.0
370
    -2
100
AcDbLine
 10
15635.44337606007
 20
4879.742278324912
 30
0.0
 11
15635.44337606007
 21
5371.589052292565
 31
0.0
  0
LINE
  5
184E2
330
17E4E
100
AcDbEntity
  8
寸法
 62
     0
 48
50.0
370
    -2
100
AcDbLine
 10
15715.44337606007
 20
4877.93159871326
 30
0.0
 11
15715.44337606007
 21
5371.589052292565
 31
0.0
  0
LINE
  5
184E3
330
17E4E
100
AcDbEntity
  8
寸法
 62
     0
 48
50.0
370
    -2
100
AcDbLine
 10
15635.44337606007
 20
5311.589052292564
 30
0.0
 11
15715.44337606007
 21
5311.589052292564
 31
0.0
  0
LINE
  5
184E4
330
17E4E
100
AcDbEntity
  8
寸法
 62
     0
 48
50.0
370
    -2
100
AcDbLine
 10
15715.44337606007
 20
5311.589052292564
 30
0.0
 11
16027.53786424905
 21
5311.589052292564
 31
0.0
  0
INSERT
  5
184E5
330
17E4E
100
AcDbEntity
  8
寸法
 62
     0
 48
50.0
370
    -2
100
AcDbBlockReference
  2
_DOTSMALL
 10
15635.44337606007
 20
5311.589052292564
 30
0.0
 41
100.0
 42
100.0
 43
100.0
 50
180.0
  0
INSERT
  5
184E6
330
17E4E
100
AcDbEntity
  8
寸法
 62
     0
 48
50.0
370
    -2
100
AcDbBlockReference
  2
_DOTSMALL
 10
15715.44337606007
 20
5311.589052292564
 30
0.0
 41
100.0
 42
100.0
 43
100.0
  0
MTEXT
  5
184E7
330
17E4E
100
AcDbEntity
  8
寸法
 62
     7
 48
50.0
100
AcDbMText
 10
15921.49062015456
 20
5411.589052292565
 30
0.0
 40
120.0
 41
0.0
 71
     5
 72
     1
  1
\A1;80
  7
STYLE1
 73
     1
 44
1.0
1001
ACAD
1000
MTEXTBEGIN
1070
    73
1070
     1
1070
    44
1040
1.0
1070
    74
1070
     0
1000
MTEXTEND
  0
POINT
  5
184E8
330
17E4E
100
AcDbEntity
  8
DEFPOINTS
 62
     0
 48
50.0
100
AcDbPoint
 10
15635.44337606007
 20
4859.742278324912
 30
0.0
  0
POINT
  5
184E9
330
17E4E
100
AcDbEntity
  8
DEFPOINTS
 62
     0
 48
50.0
100
AcDbPoint
 10
15715.44337606007
 20
4857.93159871326
 30
0.0
  0
POINT
  5
184EA
330
17E4E
100
AcDbEntity
  8
DEFPOINTS
 62
     0
 48
50.0
100
AcDbPoint
 10
15715.44337606007
 20
5311.589052292564
 30
0.0
  0
ENDBLK
  5
17E5A
330
17E4E
100
AcDbEntity
  8
0
 48
50.0
100
AcDbBlockEnd
  0
BLOCK
  5
17E65
330
17E5B
100
AcDbEntity
  8
0
 48
50.0
100
AcDbBlockBegin
  2
*D29
 70
     1
 10
0.0
 20
0.0
 30
0.0
  3
*D29
  1

  0
LINE
  5
1987C
330
17E5B
100
AcDbEntity
  8
寸法
 62
     0
 48
50.0
370
    -2
100
AcDbLine
 10
15715.44337606007
 20
4877.93159871326
 30
0.0
 11
15715.44337606007
 21
5591.799739024181
 31
0.0
  0
LINE
  5
1987D
330
17E5B
100
AcDbEntity
  8
寸法
 62
     0
 48
50.0
370
    -2
100
AcDbLine
 10
12945.44337606007
 20
4932.931598713264
 30
0.0
 11
12945.44337606007
 21
5591.799739024181
 31
0.0
  0
LINE
  5
1987E
330
17E5B
100
AcDbEntity
  8
寸法
 62
     0
 48
50.0
370
    -2
100
AcDbLine
 10
15715.44337606007
 20
5531.79973902418
 30
0.0
 11
12945.44337606007
 21
5531.79973902418
 31
0.0
  0
INSERT
  5
1987F
330
17E5B
100
AcDbEntity
  8
寸法
 62
     0
 48
50.0
370
    -2
100
AcDbBlockReference
  2
_DOTSMALL
 10
15715.44337606007
 20
5531.79973902418
 30
0.0
 41
100.0
 42
100.0
 43
100.0
  0
INSERT
  5
19880
330
17E5B
100
AcDbEntity
  8
寸法
 62
     0
 48
50.0
370
    -2
100
AcDbBlockReference
  2
_DOTSMALL
 10
12945.44337606007
 20
5531.79973902418
 30
0.0
 41
100.0
 42
100.0
 43
100.0
 50
180.0
  0
MTEXT
  5
19881
330
17E5B
100
AcDbEntity
  8
寸法
 62
     7
 48
50.0
100
AcDbMText
 10
14330.44337606007
 20
5631.811550047803
 30
0.0
 40
120.0
 41
0.0
 71
     5
 72
     1
  1
\A1;2770
  7
STYLE1
 73
     1
 44
1.0
1001
ACAD
1000
MTEXTBEGIN
1070
    73
1070
     1
1070
    44
1040
1.0
1070
    74
1070
     0
1000
MTEXTEND
  0
POINT
  5
19882
330
17E5B
100
AcDbEntity
  8
DEFPOINTS
 62
     0
 48
50.0
100
AcDbPoint
 10
15715.44337606007
 20
4857.93159871326
 30
0.0
  0
POINT
  5
19883
330
17E5B
100
AcDbEntity
  8
DEFPOINTS
 62
     0
 48
50.0
100
AcDbPoint
 10
12945.44337606007
 20
4912.931598713264
 30
0.0
  0
POINT
  5
19884
330
17E5B
100
AcDbEntity
  8
DEFPOINTS
 62
     0
 48
50.0
100
AcDbPoint
 10
12945.44337606007
 20
5531.79973902418
 30
0.0
  0
ENDBLK
  5
17E66
330
17E5B
100
AcDbEntity
  8
0
 48
50.0
100
AcDbBlockEnd
  0
BLOCK
  5
17E73
330
17E67
100
AcDbEntity
  8
0
 48
50.0
100
AcDbBlockBegin
  2
*D30
 70
     1
 10
0.0
 20
0.0
 30
0.0
  3
*D30
  1

  0
LINE
  5
184CD
330
17E67
100
AcDbEntity
  8
寸法
 62
     0
 48
50.0
370
    -2
100
AcDbLine
 10
13005.44337606007
 20
4928.933216836235
 30
0.0
 11
13005.44337606007
 21
5371.589052292563
 31
0.0
  0
LINE
  5
184CE
330
17E67
100
AcDbEntity
  8
寸法
 62
     0
 48
50.0
370
    -2
100
AcDbLine
 10
12945.44337606007
 20
4932.931598713264
 30
0.0
 11
12945.44337606007
 21
5371.589052292563
 31
0.0
  0
LINE
  5
184CF
330
17E67
100
AcDbEntity
  8
寸法
 62
     0
 48
50.0
370
    -2
100
AcDbLine
 10
13005.44337606007
 20
5311.589052292563
 30
0.0
 11
13105.44337606007
 21
5311.589052292563
 31
0.0
  0
LINE
  5
184D0
330
17E67
100
AcDbEntity
  8
寸法
 62
     0
 48
50.0
370
    -2
100
AcDbLine
 10
12945.44337606007
 20
5311.589052292563
 30
0.0
 11
12526.16778550889
 21
5311.589052292563
 31
0.0
  0
LINE
  5
184D1
330
17E67
100
AcDbEntity
  8
寸法
 62
     0
 48
50.0
370
    -2
100
AcDbLine
 10
13005.44337606007
 20
5311.589052292563
 30
0.0
 11
12945.44337606007
 21
5311.589052292563
 31
0.0
  0
INSERT
  5
184D2
330
17E67
100
AcDbEntity
  8
寸法
 62
     0
 48
50.0
370
    -2
100
AcDbBlockReference
  2
_DOTSMALL
 10
13005.44337606007
 20
5311.589052292563
 30
0.0
 41
100.0
 42
100.0
 43
100.0
 50
180.0
  0
INSERT
  5
184D3
330
17E67
100
AcDbEntity
  8
寸法
 62
     0
 48
50.0
370
    -2
100
AcDbBlockReference
  2
_DOTSMALL
 10
12945.44337606007
 20
5311.589052292563
 30
0.0
 41
100.0
 42
100.0
 43
100.0
  0
MTEXT
  5
184D4
330
17E67
100
AcDbEntity
  8
寸法
 62
     7
 48
50.0
100
AcDbMText
 10
12635.80558078448
 20
5411.589052292563
 30
0.0
 40
120.0
 41
0.0
 71
     5
 72
     1
  1
\A1;60
  7
STYLE1
 73
     1
 44
1.0
1001
ACAD
1000
MTEXTBEGIN
1070
    73
1070
     1
1070
    44
1040
1.0
1070
    74
1070
     0
1000
MTEXTEND
  0
POINT
  5
184D5
330
17E67
100
AcDbEntity
  8
DEFPOINTS
 62
     0
 48
50.0
100
AcDbPoint
 10
13005.44337606007
 20
4908.933216836235
 30
0.0
  0
POINT
  5
184D6
330
17E67
100
AcDbEntity
  8
DEFPOINTS
 62
     0
 48
50.0
100
AcDbPoint
 10
12945.44337606007
 20
4912.931598713264
 30
0.0
  0
POINT
  5
184D7
330
17E67
100
AcDbEntity
  8
DEFPOINTS
 62
     0
 48
50.0
100
AcDbPoint
 10
12945.44337606007
 20
5311.589052292563
 30
0.0
  0
ENDBLK
  5
17E74
330
17E67
100
AcDbEntity
  8
0
 48
50.0
100
AcDbBlockEnd
  0
BLOCK
  5
17E7F
330
17E75
100
AcDbEntity
  8
0
 48
50.0
100
AcDbBlockBegin
  2
*D31
 70
     1
 10
0.0
 20
0.0
 30
0.0
  3
*D31
  1

  0
LINE
  5
19885
330
17E75
100
AcDbEntity
  8
寸法
 62
     0
 48
50.0
370
    -2
100
AcDbLine
 10
15635.44337606007
 20
4879.742278324912
 30
0.0
 11
15635.44337606007
 21
5371.589052292565
 31
0.0
  0
LINE
  5
19886
330
17E75
100
AcDbEntity
  8
寸法
 62
     0
 48
50.0
370
    -2
100
AcDbLine
 10
13005.44337606007
 20
4928.933216836235
 30
0.0
 11
13005.44337606007
 21
5371.589052292565
 31
0.0
  0
LINE
  5
19887
330
17E75
100
AcDbEntity
  8
寸法
 62
     0
 48
50.0
370
    -2
100
AcDbLine
 10
15635.44337606007
 20
5311.589052292564
 30
0.0
 11
13005.44337606007
 21
5311.589052292564
 31
0.0
  0
INSERT
  5
19888
330
17E75
100
AcDbEntity
  8
寸法
 62
     0
 48
50.0
370
    -2
100
AcDbBlockReference
  2
_DOTSMALL
 10
15635.44337606007
 20
5311.589052292564
 30
0.0
 41
100.0
 42
100.0
 43
100.0
  0
INSERT
  5
19889
330
17E75
100
AcDbEntity
  8
寸法
 62
     0
 48
50.0
370
    -2
100
AcDbBlockReference
  2
_DOTSMALL
 10
13005.44337606007
 20
5311.589052292564
 30
0.0
 41
100.0
 42
100.0
 43
100.0
 50
180.0
  0
MTEXT
  5
1988A
330
17E75
100
AcDbEntity
  8
寸法
 62
     7
 48
50.0
100
AcDbMText
 10
14320.44337606007
 20
5411.600863316187
 30
0.0
 40
120.0
 41
0.0
 71
     5
 72
     1
  1
\A1;柱外寸法2630
  7
STYLE1
 73
     1
 44
1.0
1001
ACAD
1000
MTEXTBEGIN
1070
    73
1070
     1
1070
    44
1040
1.0
1070
    74
1070
     0
1000
MTEXTEND
  0
POINT
  5
1988B
330
17E75
100
AcDbEntity
  8
DEFPOINTS
 62
     0
 48
50.0
100
AcDbPoint
 10
15635.44337606007
 20
4859.742278324912
 30
0.0
  0
POINT
  5
1988C
330
17E75
100
AcDbEntity
  8
DEFPOINTS
 62
     0
 48
50.0
100
AcDbPoint
 10
13005.44337606007
 20
4908.933216836235
 30
0.0
  0
POINT
  5
1988D
330
17E75
100
AcDbEntity
  8
DEFPOINTS
 62
     0
 48
50.0
100
AcDbPoint
 10
13005.44337606007
 20
5311.589052292564
 30
0.0
  0
ENDBLK
  5
17E80
330
17E75
100
AcDbEntity
  8
0
 48
50.0
100
AcDbBlockEnd
  0
BLOCK
  5
17E8D
330
17E81
100
AcDbEntity
  8
0
 48
50.0
100
AcDbBlockBegin
  2
*D32
 70
     1
 10
0.0
 20
0.0
 30
0.0
  3
*D32
  1

  0
LINE
  5
184B9
330
17E81
100
AcDbEntity
  8
寸法
 62
     0
 48
50.0
370
    -2
100
AcDbLine
 10
12985.44337606007
 20
2587.93159871326
 30
0.0
 11
12101.69324687681
 21
2587.93159871326
 31
0.0
  0
LINE
  5
184BA
330
17E81
100
AcDbEntity
  8
寸法
 62
     0
 48
50.0
370
    -2
100
AcDbLine
 10
12930.44337606007
 20
2537.93159871326
 30
0.0
 11
12101.69324687681
 21
2537.93159871326
 31
0.0
  0
LINE
  5
184BB
330
17E81
100
AcDbEntity
  8
寸法
 62
     0
 48
50.0
370
    -2
100
AcDbLine
 10
12161.69324687681
 20
2587.93159871326
 30
0.0
 11
12161.69324687681
 21
2687.93159871326
 31
0.0
  0
LINE
  5
184BC
330
17E81
100
AcDbEntity
  8
寸法
 62
     0
 48
50.0
370
    -2
100
AcDbLine
 10
12161.69324687681
 20
2537.93159871326
 30
0.0
 11
12161.69324687681
 21
2125.837110524279
 31
0.0
  0
LINE
  5
184BD
330
17E81
100
AcDbEntity
  8
寸法
 62
     0
 48
50.0
370
    -2
100
AcDbLine
 10
12161.69324687681
 20
2587.93159871326
 30
0.0
 11
12161.69324687681
 21
2537.93159871326
 31
0.0
  0
INSERT
  5
184BE
330
17E81
100
AcDbEntity
  8
寸法
 62
     0
 48
50.0
370
    -2
100
AcDbBlockReference
  2
_DOTSMALL
 10
12161.69324687681
 20
2587.93159871326
 30
0.0
 41
100.0
 42
100.0
 43
100.0
 50
270.0
  0
INSERT
  5
184BF
330
17E81
100
AcDbEntity
  8
寸法
 62
     0
 48
50.0
370
    -2
100
AcDbBlockReference
  2
_DOTSMALL
 10
12161.69324687681
 20
2537.93159871326
 30
0.0
 41
100.0
 42
100.0
 43
100.0
 50
90.0
  0
MTEXT
  5
184C0
330
17E81
100
AcDbEntity
  8
寸法
 62
     7
 48
50.0
100
AcDbMText
 10
12061.69324687681
 20
2231.884354618769
 30
0.0
 40
120.0
 41
0.0
 71
     5
 72
     1
  1
\A1;50
  7
STYLE1
 11
0.0000000000000001
 21
1.0
 31
0.0
 73
     1
 44
1.0
1001
ACAD
1000
MTEXTBEGIN
1070
    73
1070
     1
1070
    44
1040
1.0
1070
    74
1070
     0
1000
MTEXTEND
  0
POINT
  5
184C1
330
17E81
100
AcDbEntity
  8
DEFPOINTS
 62
     0
 48
50.0
100
AcDbPoint
 10
13005.44337606007
 20
2587.93159871326
 30
0.0
  0
POINT
  5
184C2
330
17E81
100
AcDbEntity
  8
DEFPOINTS
 62
     0
 48
50.0
100
AcDbPoint
 10
12950.44337606007
 20
2537.93159871326
 30
0.0
  0
POINT
  5
184C3
330
17E81
100
AcDbEntity
  8
DEFPOINTS
 62
     0
 48
50.0
100
AcDbPoint
 10
12161.69324687681
 20
2537.93159871326
 30
0.0
  0
ENDBLK
  5
17E8E
330
17E81
100
AcDbEntity
  8
0
 48
50.0
100
AcDbBlockEnd
  0
BLOCK
  5
17EA6
330
17E9C
100
AcDbEntity
  8
0
 48
50.0
100
AcDbBlockBegin
  2
*D33
 70
     1
 10
0.0
 20
0.0
 30
0.0
  3
*D33
  1

  0
LINE
  5
18573
330
17E9C
100
AcDbEntity
  8
寸法
 62
     0
 48
50.0
370
    -2
100
AcDbLine
 10
15655.44337606007
 20
2537.93159871326
 30
0.0
 11
16115.31046336084
 21
2537.93159871326
 31
0.0
  0
LINE
  5
18574
330
17E9C
100
AcDbEntity
  8
寸法
 62
     0
 48
50.0
370
    -2
100
AcDbLine
 10
15735.44337606007
 20
4857.93159871326
 30
0.0
 11
16115.31046336085
 21
4857.93159871326
 31
0.0
  0
LINE
  5
18575
330
17E9C
100
AcDbEntity
  8
寸法
 62
     0
 48
50.0
370
    -2
100
AcDbLine
 10
16055.31046336084
 20
2537.93159871326
 30
0.0
 11
16055.31046336085
 21
4857.93159871326
 31
0.0
  0
INSERT
  5
18576
330
17E9C
100
AcDbEntity
  8
寸法
 62
     0
 48
50.0
370
    -2
100
AcDbBlockReference
  2
_DOTSMALL
 10
16055.31046336084
 20
2537.93159871326
 30
0.0
 41
100.0
 42
100.0
 43
100.0
 50
270.0
  0
INSERT
  5
18577
330
17E9C
100
AcDbEntity
  8
寸法
 62
     0
 48
50.0
370
    -2
100
AcDbBlockReference
  2
_DOTSMALL
 10
16055.31046336085
 20
4857.93159871326
 30
0.0
 41
100.0
 42
100.0
 43
100.0
 50
90.0
  0
MTEXT
  5
18578
330
17E9C
100
AcDbEntity
  8
寸法
 62
     7
 48
50.0
100
AcDbMText
 10
15955.29865233722
 20
3678.172110117819
 30
0.0
 40
120.0
 41
0.0
 71
     5
 72
     1
  1
\A1;2320
  7
STYLE1
 11
0.0000000000000001
 21
1.0
 31
0.0
 73
     1
 44
1.0
1001
ACAD
1000
MTEXTBEGIN
1070
    73
1070
     1
1070
    44
1040
1.0
1070
    74
1070
     0
1000
MTEXTEND
  0
POINT
  5
18579
330
17E9C
100
AcDbEntity
  8
DEFPOINTS
 62
     0
 48
50.0
100
AcDbPoint
 10
15635.44337606007
 20
2537.93159871326
 30
0.0
  0
POINT
  5
1857A
330
17E9C
100
AcDbEntity
  8
DEFPOINTS
 62
     0
 48
50.0
100
AcDbPoint
 10
15715.44337606007
 20
4857.93159871326
 30
0.0
  0
POINT
  5
1857B
330
17E9C
100
AcDbEntity
  8
DEFPOINTS
 62
     0
 48
50.0
100
AcDbPoint
 10
16055.31046336085
 20
4857.93159871326
 30
0.0
  0
ENDBLK
  5
17EA7
330
17E9C
100
AcDbEntity
  8
0
 48
50.0
100
AcDbBlockEnd
  0
BLOCK
  5
17EB2
330
17EA8
100
AcDbEntity
  8
0
 48
50.0
100
AcDbBlockBegin
  2
*D34
 70
     1
 10
0.0
 20
0.0
 30
0.0
  3
*D34
  1

  0
LINE
  5
1849D
330
17EA8
100
AcDbEntity
  8
寸法
 62
     0
 48
50.0
370
    -2
100
AcDbLine
 10
12985.44337606007
 20
2537.931598713252
 30
0.0
 11
11801.69324687681
 21
2537.931598713252
 31
0.0
  0
LINE
  5
1849E
330
17EA8
100
AcDbEntity
  8
寸法
 62
     0
 48
50.0
370
    -2
100
AcDbLine
 10
12925.44337606007
 20
4912.931598713258
 30
0.0
 11
11801.69324687681
 21
4912.931598713258
 31
0.0
  0
LINE
  5
1849F
330
17EA8
100
AcDbEntity
  8
寸法
 62
     0
 48
50.0
370
    -2
100
AcDbLine
 10
11861.69324687681
 20
2537.931598713252
 30
0.0
 11
11861.69324687681
 21
4912.931598713258
 31
0.0
  0
INSERT
  5
184A0
330
17EA8
100
AcDbEntity
  8
寸法
 62
     0
 48
50.0
370
    -2
100
AcDbBlockReference
  2
_DOTSMALL
 10
11861.69324687681
 20
2537.931598713252
 30
0.0
 41
100.0
 42
100.0
 43
100.0
 50
270.0
  0
INSERT
  5
184A1
330
17EA8
100
AcDbEntity
  8
寸法
 62
     0
 48
50.0
370
    -2
100
AcDbBlockReference
  2
_DOTSMALL
 10
11861.69324687681
 20
4912.931598713258
 30
0.0
 41
100.0
 42
100.0
 43
100.0
 50
90.0
  0
MTEXT
  5
184A2
330
17EA8
100
AcDbEntity
  8
寸法
 62
     7
 48
50.0
100
AcDbMText
 10
11761.68143585319
 20
3725.431598713257
 30
0.0
 40
120.0
 41
0.0
 71
     5
 72
     1
  1
\A1;2375
  7
STYLE1
 11
0.0000000000000001
 21
1.0
 31
0.0
 73
     1
 44
1.0
1001
ACAD
1000
MTEXTBEGIN
1070
    73
1070
     1
1070
    44
1040
1.0
1070
    74
1070
     0
1000
MTEXTEND
  0
POINT
  5
184A3
330
17EA8
100
AcDbEntity
  8
DEFPOINTS
 62
     0
 48
50.0
100
AcDbPoint
 10
13005.44337606007
 20
2537.931598713252
 30
0.0
  0
POINT
  5
184A4
330
17EA8
100
AcDbEntity
  8
DEFPOINTS
 62
     0
 48
50.0
100
AcDbPoint
 10
12945.44337606007
 20
4912.931598713258
 30
0.0
  0
POINT
  5
184A5
330
17EA8
100
AcDbEntity
  8
DEFPOINTS
 62
     0
 48
50.0
100
AcDbPoint
 10
11861.69324687681
 20
4912.931598713258
 30
0.0
  0
ENDBLK
  5
17EB3
330
17EA8
100
AcDbEntity
  8
0
 48
50.0
100
AcDbBlockEnd
  0
BLOCK
  5
17EBE
330
17EB4
100
AcDbEntity
  8
0
 48
50.0
100
AcDbBlockBegin
  2
*D35
 70
     1
 10
0.0
 20
0.0
 30
0.0
  3
*D35
  1

  0
LINE
  5
18494
330
17EB4
100
AcDbEntity
  8
寸法
 62
     0
 48
50.0
370
    -2
100
AcDbLine
 10
12985.44337606007
 20
4677.931598713255
 30
0.0
 11
12101.69324687681
 21
4677.931598713255
 31
0.0
  0
LINE
  5
18495
330
17EB4
100
AcDbEntity
  8
寸法
 62
     0
 48
50.0
370
    -2
100
AcDbLine
 10
12985.44337606007
 20
2587.931598713252
 30
0.0
 11
12101.69324687681
 21
2587.931598713252
 31
0.0
  0
LINE
  5
18496
330
17EB4
100
AcDbEntity
  8
寸法
 62
     0
 48
50.0
370
    -2
100
AcDbLine
 10
12161.69324687681
 20
4677.931598713255
 30
0.0
 11
12161.69324687681
 21
2587.931598713252
 31
0.0
  0
INSERT
  5
18497
330
17EB4
100
AcDbEntity
  8
寸法
 62
     0
 48
50.0
370
    -2
100
AcDbBlockReference
  2
_DOTSMALL
 10
12161.69324687681
 20
4677.931598713255
 30
0.0
 41
100.0
 42
100.0
 43
100.0
 50
90.0
  0
INSERT
  5
18498
330
17EB4
100
AcDbEntity
  8
寸法
 62
     0
 48
50.0
370
    -2
100
AcDbBlockReference
  2
_DOTSMALL
 10
12161.69324687681
 20
2587.931598713252
 30
0.0
 41
100.0
 42
100.0
 43
100.0
 50
270.0
  0
MTEXT
  5
18499
330
17EB4
100
AcDbEntity
  8
寸法
 62
     7
 48
50.0
100
AcDbMText
 10
12061.68143585319
 20
3632.931598713255
 30
0.0
 40
120.0
 41
0.0
 71
     5
 72
     1
  1
\A1;2090
  7
STYLE1
 11
0.0000000000000001
 21
1.0
 31
0.0
 73
     1
 44
1.0
1001
ACAD
1000
MTEXTBEGIN
1070
    73
1070
     1
1070
    44
1040
1.0
1070
    74
1070
     0
1000
MTEXTEND
  0
POINT
  5
1849A
330
17EB4
100
AcDbEntity
  8
DEFPOINTS
 62
     0
 48
50.0
100
AcDbPoint
 10
13005.44337606007
 20
4677.931598713255
 30
0.0
  0
POINT
  5
1849B
330
17EB4
100
AcDbEntity
  8
DEFPOINTS
 62
     0
 48
50.0
100
AcDbPoint
 10
13005.44337606007
 20
2587.931598713252
 30
0.0
  0
POINT
  5
1849C
330
17EB4
100
AcDbEntity
  8
DEFPOINTS
 62
     0
 48
50.0
100
AcDbPoint
 10
12161.69324687681
 20
2587.931598713252
 30
0.0
  0
ENDBLK
  5
17EBF
330
17EB4
100
AcDbEntity
  8
0
 48
50.0
100
AcDbBlockEnd
  0
BLOCK
  5
182E6
330
182DA
100
AcDbEntity
  8
0
 48
50.0
100
AcDbBlockBegin
  2
*D36
 70
     1
 10
0.0
 20
0.0
 30
0.0
  3
*D36
  1

  0
LINE
  5
18522
330
182DA
100
AcDbEntity
  8
寸法
 62
     0
 48
50.0
370
    -2
100
AcDbLine
 10
1228.266602670446
 20
4932.931598713269
 30
0.0
 11
1228.266602670446
 21
5185.473183971506
 31
0.0
  0
LINE
  5
18523
330
182DA
100
AcDbEntity
  8
寸法
 62
     0
 48
50.0
370
    -2
100
AcDbLine
 10
1178.266602670446
 20
4932.931598713267
 30
0.0
 11
1178.266602670446
 21
5185.473183971506
 31
0.0
  0
LINE
  5
18524
330
182DA
100
AcDbEntity
  8
寸法
 62
     0
 48
50.0
370
    -2
100
AcDbLine
 10
1228.266602670446
 20
5125.473183971506
 30
0.0
 11
1328.266602670446
 21
5125.473183971506
 31
0.0
  0
LINE
  5
18525
330
182DA
100
AcDbEntity
  8
寸法
 62
     0
 48
50.0
370
    -2
100
AcDbLine
 10
1178.266602670446
 20
5125.473183971506
 30
0.0
 11
758.7340772017109
 21
5125.473183971506
 31
0.0
  0
LINE
  5
18526
330
182DA
100
AcDbEntity
  8
寸法
 62
     0
 48
50.0
370
    -2
100
AcDbLine
 10
1228.266602670446
 20
5125.473183971506
 30
0.0
 11
1178.266602670446
 21
5125.473183971506
 31
0.0
  0
INSERT
  5
18527
330
182DA
100
AcDbEntity
  8
寸法
 62
     0
 48
50.0
370
    -2
100
AcDbBlockReference
  2
_DOTSMALL
 10
1228.266602670446
 20
5125.473183971506
 30
0.0
 41
100.0
 42
100.0
 43
100.0
 50
180.0
  0
INSERT
  5
18528
330
182DA
100
AcDbEntity
  8
寸法
 62
     0
 48
50.0
370
    -2
100
AcDbBlockReference
  2
_DOTSMALL
 10
1178.266602670446
 20
5125.473183971506
 30
0.0
 41
100.0
 42
100.0
 43
100.0
  0
MTEXT
  5
18529
330
182DA
100
AcDbEntity
  8
寸法
 62
     7
 48
50.0
100
AcDbMText
 10
864.7813212961992
 20
5225.473183971506
 30
0.0
 40
120.0
 41
0.0
 71
     5
 72
     1
  1
\A1;50
  7
STYLE1
 73
     1
 44
1.0
1001
ACAD
1000
MTEXTBEGIN
1070
    73
1070
     1
1070
    44
1040
1.0
1070
    74
1070
     0
1000
MTEXTEND
  0
POINT
  5
1852A
330
182DA
100
AcDbEntity
  8
DEFPOINTS
 62
     0
 48
50.0
100
AcDbPoint
 10
1228.266602670446
 20
4912.931598713268
 30
0.0
  0
POINT
  5
1852B
330
182DA
100
AcDbEntity
  8
DEFPOINTS
 62
     0
 48
50.0
100
AcDbPoint
 10
1178.266602670446
 20
4912.931598713267
 30
0.0
  0
POINT
  5
1852C
330
182DA
100
AcDbEntity
  8
DEFPOINTS
 62
     0
 48
50.0
100
AcDbPoint
 10
1178.266602670446
 20
5125.473183971506
 30
0.0
  0
ENDBLK
  5
182E7
330
182DA
100
AcDbEntity
  8
0
 48
50.0
100
AcDbBlockEnd
  0
BLOCK
  5
183B8
330
183AE
100
AcDbEntity
  8
0
 48
50.0
100
AcDbBlockBegin
  2
*D37
 70
     1
 10
0.0
 20
0.0
 30
0.0
  3
*D37
  1

  0
LINE
  5
18510
330
183AE
100
AcDbEntity
  8
寸法
 62
     0
 48
50.0
370
    -2
100
AcDbLine
 10
10378.26660267044
 20
4945.852924535788
 30
0.0
 11
10378.26660267044
 21
5185.473183971506
 31
0.0
  0
LINE
  5
18511
330
183AE
100
AcDbEntity
  8
寸法
 62
     0
 48
50.0
370
    -2
100
AcDbLine
 10
1228.266602670446
 20
4945.852924544254
 30
0.0
 11
1228.266602670446
 21
5185.473183971506
 31
0.0
  0
LINE
  5
18512
330
183AE
100
AcDbEntity
  8
寸法
 62
     0
 48
50.0
370
    -2
100
AcDbLine
 10
10378.26660267044
 20
5125.473183971506
 30
0.0
 11
1228.266602670446
 21
5125.473183971506
 31
0.0
  0
INSERT
  5
18513
330
183AE
100
AcDbEntity
  8
寸法
 62
     0
 48
50.0
370
    -2
100
AcDbBlockReference
  2
_DOTSMALL
 10
10378.26660267044
 20
5125.473183971506
 30
0.0
 41
100.0
 42
100.0
 43
100.0
  0
INSERT
  5
18514
330
183AE
100
AcDbEntity
  8
寸法
 62
     0
 48
50.0
370
    -2
100
AcDbBlockReference
  2
_DOTSMALL
 10
1228.266602670446
 20
5125.473183971506
 30
0.0
 41
100.0
 42
100.0
 43
100.0
 50
180.0
  0
MTEXT
  5
18515
330
183AE
100
AcDbEntity
  8
寸法
 62
     7
 48
50.0
100
AcDbMText
 10
5803.266602670447
 20
5225.473183971506
 30
0.0
 40
120.0
 41
0.0
 71
     5
 72
     1
  1
\A1;柱外寸法 N X 3050
  7
STYLE1
 73
     1
 44
1.0
1001
ACAD
1000
MTEXTBEGIN
1070
    73
1070
     1
1070
    44
1040
1.0
1070
    74
1070
     0
1000
MTEXTEND
  0
POINT
  5
18516
330
183AE
100
AcDbEntity
  8
DEFPOINTS
 62
     0
 48
50.0
100
AcDbPoint
 10
10378.26660267044
 20
4925.852924535788
 30
0.0
  0
POINT
  5
18517
330
183AE
100
AcDbEntity
  8
DEFPOINTS
 62
     0
 48
50.0
100
AcDbPoint
 10
1228.266602670446
 20
4925.852924544255
 30
0.0
  0
POINT
  5
18518
330
183AE
100
AcDbEntity
  8
DEFPOINTS
 62
     0
 48
50.0
100
AcDbPoint
 10
1228.266602670446
 20
5125.473183971506
 30
0.0
  0
ENDBLK
  5
183B9
330
183AE
100
AcDbEntity
  8
0
 48
50.0
100
AcDbBlockEnd
  0
BLOCK
  5
183D7
330
183CD
100
AcDbEntity
  8
0
 48
50.0
100
AcDbBlockBegin
  2
*D38
 70
     1
 10
0.0
 20
0.0
 30
0.0
  3
*D38
  1

  0
LINE
  5
18507
330
183CD
100
AcDbEntity
  8
寸法
 62
     0
 48
50.0
370
    -2
100
AcDbLine
 10
1178.266602670446
 20
4932.931598713267
 30
0.0
 11
1178.266602670446
 21
5406.378484445255
 31
0.0
  0
LINE
  5
18508
330
183CD
100
AcDbEntity
  8
寸法
 62
     0
 48
50.0
370
    -2
100
AcDbLine
 10
10428.26660267049
 20
4932.931598713264
 30
0.0
 11
10428.26660267049
 21
5406.378484445255
 31
0.0
  0
LINE
  5
18509
330
183CD
100
AcDbEntity
  8
寸法
 62
     0
 48
50.0
370
    -2
100
AcDbLine
 10
1178.266602670446
 20
5346.378484445256
 30
0.0
 11
10428.26660267049
 21
5346.378484445256
 31
0.0
  0
INSERT
  5
1850A
330
183CD
100
AcDbEntity
  8
寸法
 62
     0
 48
50.0
370
    -2
100
AcDbBlockReference
  2
_DOTSMALL
 10
1178.266602670446
 20
5346.378484445256
 30
0.0
 41
100.0
 42
100.0
 43
100.0
 50
180.0
  0
INSERT
  5
1850B
330
183CD
100
AcDbEntity
  8
寸法
 62
     0
 48
50.0
370
    -2
100
AcDbBlockReference
  2
_DOTSMALL
 10
10428.26660267049
 20
5346.378484445256
 30
0.0
 41
100.0
 42
100.0
 43
100.0
  0
MTEXT
  5
1850C
330
183CD
100
AcDbEntity
  8
寸法
 62
     7
 48
50.0
100
AcDbMText
 10
5803.266602670468
 20
5446.378484445256
 30
0.0
 40
120.0
 41
0.0
 71
     5
 72
     1
  1
\A1;N X 3050+100
  7
STYLE1
 73
     1
 44
1.0
1001
ACAD
1000
MTEXTBEGIN
1070
    73
1070
     1
1070
    44
1040
1.0
1070
    74
1070
     0
1000
MTEXTEND
  0
POINT
  5
1850D
330
183CD
100
AcDbEntity
  8
DEFPOINTS
 62
     0
 48
50.0
100
AcDbPoint
 10
1178.266602670446
 20
4912.931598713267
 30
0.0
  0
POINT
  5
1850E
330
183CD
100
AcDbEntity
  8
DEFPOINTS
 62
     0
 48
50.0
100
AcDbPoint
 10
10428.26660267049
 20
4912.931598713264
 30
0.0
  0
POINT
  5
1850F
330
183CD
100
AcDbEntity
  8
DEFPOINTS
 62
     0
 48
50.0
100
AcDbPoint
 10
10428.26660267049
 20
5346.378484445256
 30
0.0
  0
ENDBLK
  5
183D8
330
183CD
100
AcDbEntity
  8
0
 48
50.0
100
AcDbBlockEnd
  0
BLOCK
  5
191FF
330
191F4
100
AcDbEntity
  8
0
 48
50.0
100
AcDbBlockBegin
  2
*D39
 70
     1
 10
0.0
 20
0.0
 30
0.0
  3
*D39
  1

  0
LINE
  5
198A2
330
191F4
100
AcDbEntity
  8
寸法
 62
     0
 48
50.0
370
    -2
100
AcDbLine
 10
10398.26660267048
 20
4512.931598713262
 30
0.0
 11
10725.80970499223
 21
4512.931598713262
 31
0.0
  0
LINE
  5
198A3
330
191F4
100
AcDbEntity
  8
寸法
 62
     0
 48
50.0
370
    -2
100
AcDbLine
 10
10398.26660267048
 20
4677.931598713261
 30
0.0
 11
10725.80970499223
 21
4677.931598713261
 31
0.0
  0
LINE
  5
198A4
330
191F4
100
AcDbEntity
  8
寸法
 62
     0
 48
50.0
370
    -2
100
AcDbLine
 10
10665.80970499223
 20
4512.931598713262
 30
0.0
 11
10665.80970499223
 21
4677.931598713261
 31
0.0
  0
LINE
  5
198A5
330
191F4
100
AcDbEntity
  8
寸法
 62
     0
 48
50.0
370
    -2
100
AcDbLine
 10
10665.80970499223
 20
4677.931598713261
 30
0.0
 11
10665.80970499223
 21
5054.902161461739
 31
0.0
  0
INSERT
  5
198A6
330
191F4
100
AcDbEntity
  8
寸法
 62
     0
 48
50.0
370
    -2
100
AcDbBlockReference
  2
_DOTSMALL
 10
10665.80970499223
 20
4512.931598713262
 30
0.0
 41
100.0
 42
100.0
 43
100.0
 50
270.0
  0
INSERT
  5
198A7
330
191F4
100
AcDbEntity
  8
寸法
 62
     0
 48
50.0
370
    -2
100
AcDbBlockReference
  2
_DOTSMALL
 10
10665.80970499223
 20
4677.931598713261
 30
0.0
 41
100.0
 42
100.0
 43
100.0
 50
90.0
  0
MTEXT
  5
198A8
330
191F4
100
AcDbEntity
  8
寸法
 62
     7
 48
50.0
100
AcDbMText
 10
10565.80970499223
 20
4916.416880087502
 30
0.0
 40
120.0
 41
0.0
 71
     5
 72
     1
  1
\A1;165
  7
STYLE1
 11
0.0000000000000001
 21
1.0
 31
0.0
 73
     1
 44
1.0
1001
ACAD
1000
MTEXTBEGIN
1070
    73
1070
     1
1070
    44
1040
1.0
1070
    74
1070
     0
1000
MTEXTEND
  0
POINT
  5
198A9
330
191F4
100
AcDbEntity
  8
DEFPOINTS
 62
     0
 48
50.0
100
AcDbPoint
 10
10378.26660267048
 20
4512.931598713262
 30
0.0
  0
POINT
  5
198AA
330
191F4
100
AcDbEntity
  8
DEFPOINTS
 62
     0
 48
50.0
100
AcDbPoint
 10
10378.26660267048
 20
4677.931598713261
 30
0.0
  0
POINT
  5
198AB
330
191F4
100
AcDbEntity
  8
DEFPOINTS
 62
     0
 48
50.0
100
AcDbPoint
 10
10665.80970499223
 20
4677.931598713261
 30
0.0
  0
ENDBLK
  5
19200
330
191F4
100
AcDbEntity
  8
0
 48
50.0
100
AcDbBlockEnd
  0
BLOCK
  5
1920D
330
19201
100
AcDbEntity
  8
0
 48
50.0
100
AcDbBlockBegin
  2
*D40
 70
     1
 10
0.0
 20
0.0
 30
0.0
  3
*D40
  1

  0
LINE
  5
19897
330
19201
100
AcDbEntity
  8
寸法
 62
     0
 48
50.0
370
    -2
100
AcDbLine
 10
10398.26660267048
 20
4485.93159871326
 30
0.0
 11
10725.80970499223
 21
4485.93159871326
 31
0.0
  0
LINE
  5
19898
330
19201
100
AcDbEntity
  8
寸法
 62
     0
 48
50.0
370
    -2
100
AcDbLine
 10
10398.26660267048
 20
4512.931598713262
 30
0.0
 11
10725.80970499223
 21
4512.931598713262
 31
0.0
  0
LINE
  5
19899
330
19201
100
AcDbEntity
  8
寸法
 62
     0
 48
50.0
370
    -2
100
AcDbLine
 10
10665.80970499223
 20
4485.93159871326
 30
0.0
 11
10665.80970499223
 21
4385.93159871326
 31
0.0
  0
LINE
  5
1989A
330
19201
100
AcDbEntity
  8
寸法
 62
     0
 48
50.0
370
    -2
100
AcDbLine
 10
10665.80970499223
 20
4512.931598713262
 30
0.0
 11
10665.80970499223
 21
4612.931598713262
 31
0.0
  0
MTEXT
  5
1989B
330
19201
100
AcDbEntity
  8
寸法
 62
     7
 48
50.0
100
AcDbMText
 10
10805.97952823859
 20
4513.89879855292
 30
0.0
 40
120.0
 41
0.0
 71
     5
 72
     1
  1
\A1;27
  7
STYLE1
 11
0.0000000000000001
 21
1.0
 31
0.0
 73
     1
 44
1.0
1001
ACAD
1000
MTEXTBEGIN
1070
    73
1070
     1
1070
    44
1040
1.0
1070
    74
1070
     0
1000
MTEXTEND
  0
LINE
  5
1989C
330
19201
100
AcDbEntity
  8
寸法
 62
     0
 48
50.0
370
    -2
100
AcDbLine
 10
10665.80970499223
 20
4485.93159871326
 30
0.0
 11
10665.80970499223
 21
4512.931598713262
 31
0.0
  0
INSERT
  5
1989D
330
19201
100
AcDbEntity
  8
寸法
 62
     0
 48
50.0
370
    -2
100
AcDbBlockReference
  2
_DOTSMALL
 10
10665.80970499223
 20
4485.93159871326
 30
0.0
 41
100.0
 42
100.0
 43
100.0
 50
90.0
  0
INSERT
  5
1989E
330
19201
100
AcDbEntity
  8
寸法
 62
     0
 48
50.0
370
    -2
100
AcDbBlockReference
  2
_DOTSMALL
 10
10665.80970499223
 20
4512.931598713262
 30
0.0
 41
100.0
 42
100.0
 43
100.0
 50
270.0
  0
POINT
  5
1989F
330
19201
100
AcDbEntity
  8
DEFPOINTS
 62
     0
 48
50.0
100
AcDbPoint
 10
10378.26660267048
 20
4485.93159871326
 30
0.0
  0
POINT
  5
198A0
330
19201
100
AcDbEntity
  8
DEFPOINTS
 62
     0
 48
50.0
100
AcDbPoint
 10
10378.26660267048
 20
4512.931598713262
 30
0.0
  0
POINT
  5
198A1
330
19201
100
AcDbEntity
  8
DEFPOINTS
 62
     0
 48
50.0
100
AcDbPoint
 10
10665.80970499223
 20
4512.931598713262
 30
0.0
  0
ENDBLK
  5
1920E
330
19201
100
AcDbEntity
  8
0
 48
50.0
100
AcDbBlockEnd
  0
BLOCK
  5
19219
330
1920F
100
AcDbEntity
  8
0
 48
50.0
100
AcDbBlockBegin
  2
*D41
 70
     1
 10
0.0
 20
0.0
 30
0.0
  3
*D41
  1

  0
LINE
  5
19276
330
1920F
100
AcDbEntity
  8
寸法
 62
     0
 48
50.0
370
    -2
100
AcDbLine
 10
10398.26660267048
 20
2537.931598713262
 30
0.0
 11
10725.80970499222
 21
2537.931598713262
 31
0.0
  0
LINE
  5
19277
330
1920F
100
AcDbEntity
  8
寸法
 62
     0
 48
50.0
370
    -2
100
AcDbLine
 10
10398.26660267048
 20
4485.93159871326
 30
0.0
 11
10725.80970499223
 21
4485.93159871326
 31
0.0
  0
LINE
  5
19278
330
1920F
100
AcDbEntity
  8
寸法
 62
     0
 48
50.0
370
    -2
100
AcDbLine
 10
10665.80970499222
 20
2537.931598713262
 30
0.0
 11
10665.80970499223
 21
4485.93159871326
 31
0.0
  0
INSERT
  5
19279
330
1920F
100
AcDbEntity
  8
寸法
 62
     0
 48
50.0
370
    -2
100
AcDbBlockReference
  2
_DOTSMALL
 10
10665.80970499222
 20
2537.931598713262
 30
0.0
 41
100.0
 42
100.0
 43
100.0
 50
270.0
  0
INSERT
  5
1927A
330
1920F
100
AcDbEntity
  8
寸法
 62
     0
 48
50.0
370
    -2
100
AcDbBlockReference
  2
_DOTSMALL
 10
10665.80970499223
 20
4485.93159871326
 30
0.0
 41
100.0
 42
100.0
 43
100.0
 50
90.0
  0
MTEXT
  5
1927B
330
1920F
100
AcDbEntity
  8
寸法
 62
     7
 48
50.0
100
AcDbMText
 10
10565.80970499222
 20
3511.931598713263
 30
0.0
 40
120.0
 41
0.0
 71
     5
 72
     1
  1
\A1;有効開口部高サ 1948
  7
STYLE1
 11
0.0000000000000001
 21
1.0
 31
0.0
 73
     1
 44
1.0
1001
ACAD
1000
MTEXTBEGIN
1070
    73
1070
     1
1070
    44
1040
1.0
1070
    74
1070
     0
1000
MTEXTEND
  0
POINT
  5
1927C
330
1920F
100
AcDbEntity
  8
DEFPOINTS
 62
     0
 48
50.0
100
AcDbPoint
 10
10378.26660267048
 20
2537.931598713262
 30
0.0
  0
POINT
  5
1927D
330
1920F
100
AcDbEntity
  8
DEFPOINTS
 62
     0
 48
50.0
100
AcDbPoint
 10
10378.26660267048
 20
4485.93159871326
 30
0.0
  0
POINT
  5
1927E
330
1920F
100
AcDbEntity
  8
DEFPOINTS
 62
     0
 48
50.0
100
AcDbPoint
 10
10665.80970499223
 20
4485.93159871326
 30
0.0
  0
ENDBLK
  5
1921A
330
1920F
100
AcDbEntity
  8
0
 48
50.0
100
AcDbBlockEnd
  0
BLOCK
  5
196BE
330
196B4
100
AcDbEntity
  8
0
 48
50.0
100
AcDbBlockBegin
  2
*D42
 70
     1
 10
0.0
 20
0.0
 30
0.0
  3
*D42
  1

  0
LINE
  5
196DC
330
196B4
100
AcDbEntity
  8
寸法
 62
     0
 48
50.0
370
    -2
100
AcDbLine
 10
4378.266604914169
 20
9055.997428122934
 30
0.0
 11
4675.107965174996
 21
9055.997428122934
 31
0.0
  0
LINE
  5
196DD
330
196B4
100
AcDbEntity
  8
寸法
 62
     0
 48
50.0
370
    -2
100
AcDbLine
 10
4353.266604914394
 20
9772.497428123088
 30
0.0
 11
4675.107965174996
 21
9772.497428123088
 31
0.0
  0
LINE
  5
196DE
330
196B4
100
AcDbEntity
  8
寸法
 62
     0
 48
50.0
370
    -2
100
AcDbLine
 10
4615.107965174995
 20
9055.997428122934
 30
0.0
 11
4615.107965174995
 21
9772.497428123088
 31
0.0
  0
INSERT
  5
196DF
330
196B4
100
AcDbEntity
  8
寸法
 62
     0
 48
50.0
370
    -2
100
AcDbBlockReference
  2
_DOTSMALL
 10
4615.107965174995
 20
9055.997428122934
 30
0.0
 41
100.0
 42
100.0
 43
100.0
 50
270.0
  0
INSERT
  5
196E0
330
196B4
100
AcDbEntity
  8
寸法
 62
     0
 48
50.0
370
    -2
100
AcDbBlockReference
  2
_DOTSMALL
 10
4615.107965174995
 20
9772.497428123088
 30
0.0
 41
100.0
 42
100.0
 43
100.0
 50
90.0
  0
MTEXT
  5
196E1
330
196B4
100
AcDbEntity
  8
寸法
 62
     7
 48
50.0
100
AcDbMText
 10
4515.107965174995
 20
9414.247428123013
 30
0.0
 40
120.0
 41
0.0
 71
     5
 72
     1
  1
\A1;716.5
  7
STYLE1
 11
0.0000000000000001
 21
1.0
 31
0.0
 73
     1
 44
1.0
1001
ACAD
1000
MTEXTBEGIN
1070
    73
1070
     1
1070
    44
1040
1.0
1070
    74
1070
     0
1000
MTEXTEND
  0
POINT
  5
196E2
330
196B4
100
AcDbEntity
  8
DEFPOINTS
 62
     0
 48
50.0
100
AcDbPoint
 10
4358.266604914169
 20
9055.997428122934
 30
0.0
  0
POINT
  5
196E3
330
196B4
100
AcDbEntity
  8
DEFPOINTS
 62
     0
 48
50.0
100
AcDbPoint
 10
4333.266604914395
 20
9772.497428123088
 30
0.0
  0
POINT
  5
196E4
330
196B4
100
AcDbEntity
  8
DEFPOINTS
 62
     0
 48
50.0
100
AcDbPoint
 10
4615.107965174995
 20
9772.497428123088
 30
0.0
  0
ENDBLK
  5
196BF
330
196B4
100
AcDbEntity
  8
0
 48
50.0
100
AcDbBlockEnd
  0
ENDSEC
  0
SECTION
  2
ENTITIES
  0
MTEXT
  5
763F
330
747D
100
AcDbEntity
  8
0
100
AcDbMText
 10
302.846345836809
 20
280.1983726409901
 30
0.0
 40
3.5
 41
5.323721266742722
 71
     1
 72
     5
  1

  7
MSMINCHO
 73
     1
 44
1.0
1001
ACAD
1000
MTEXTBEGIN
1070
    73
1070
     1
1070
    44
1040
1.0
1070
    74
1070
     0
1000
MTEXTEND
  0
LINE
  5
10B57
330
747D
100
AcDbEntity
  8
補助
  6
PHANTOM
 62
   230
 48
50.0
100
AcDbLine
 10
139.9999999999995
 20
11409.6
 30
0.0
 11
16307.2
 21
11409.6
 31
0.0
  0
LINE
  5
10B59
330
747D
100
AcDbEntity
  8
仕様書枠
  6
Continuous
 48
50.0
100
AcDbLine
 10
13107.2
 20
1200.0
 30
0.0
 11
13107.2
 21
-0.0000000000000729
 31
0.0
  0
LINE
  5
10B5C
330
747D
100
AcDbEntity
  8
仕様書枠
 48
50.0
100
AcDbLine
 10
16307.2
 20
1200.0
 30
0.0
 11
16307.2
 21
-0.0000000000000909
 31
0.0
  0
LINE
  5
10B5D
330
747D
100
AcDbEntity
  8
仕様書枠
 48
50.0
100
AcDbLine
 10
140.0
 20
0.0
 30
0.0
 11
16307.2
 21
-0.0000000000000909
 31
0.0
  0
LINE
  5
10B5E
330
747D
100
AcDbEntity
  8
補助
  6
PHANTOM
 62
   230
 48
50.0
100
AcDbLine
 10
16307.2
 20
11409.6
 30
0.0
 11
16307.2
 21
1200.0
 31
0.0
  0
LINE
  5
10B6C
330
747D
100
AcDbEntity
  8
仕様書枠
 48
50.0
100
AcDbLine
 10
13107.2
 20
1200.0
 30
0.0
 11
16307.2
 21
1200.0
 31
0.0
  0
LINE
  5
10B6D
330
747D
100
AcDbEntity
  8
補助
  6
PHANTOM
 62
   230
 48
50.0
100
AcDbLine
 10
13107.2
 20
11409.6
 30
0.0
 11
13107.2
 21
4800.0
 31
0.0
  0
LINE
  5
10B6F
330
747D
100
AcDbEntity
  8
補助
  6
PHANTOM
 62
   230
 48
50.0
100
AcDbLine
 10
13107.2
 20
4800.0
 30
0.0
 11
16307.2
 21
4800.0
 31
0.0
  0
LINE
  5
10B72
330
747D
100
AcDbEntity
  8
文字
 62
     7
 48
50.0
100
AcDbLine
 10
13187.2
 20
400.0
 30
0.0
 11
16227.2
 21
400.0
 31
0.0
  0
TEXT
  5
10B73
330
747D
100
AcDbEntity
  8
文字
 62
     7
 48
50.0
100
AcDbText
 10
13162.9790565769
 20
895.0906074299405
 30
0.0
 40
200.0
  1
外 形 図
  7
STYLE2
100
AcDbText
  0
TEXT
  5
10B74
330
747D
100
AcDbEntity
  8
文字
 62
     7
 48
50.0
100
AcDbText
 10
13201.43669998441
 20
477.2740661031255
 30
0.0
 40
160.0
  1
機種名
  7
STYLE2
100
AcDbText
  0
TEXT
  5
10B75
330
747D
100
AcDbEntity
  8
文字
 62
     7
 48
50.0
100
AcDbText
 10
13209.4053442172
 20
228.5435242569016
 30
0.0
 40
100.0
  1
○有効開口寸法 ： 2844×1948(mm)
  7
STYLE2
100
AcDbText
  0
TEXT
  5
10B79
330
747D
100
AcDbEntity
  8
文字
 62
     7
 48
50.0
100
AcDbText
 10
14524.131837222
 20
1031.557706291228
 30
0.0
 40
100.0
  1
NO.27      <縮尺> S=1/40
  7
STYLE2
100
AcDbText
  0
LINE
  5
10B7B
330
747D
100
AcDbEntity
  8
仕様書枠
 48
50.0
100
AcDbLine
 10
13107.2
 20
800.0
 30
0.0
 11
14251.2
 21
800.0
 31
0.0
  0
LINE
  5
10B88
330
747D
100
AcDbEntity
  8
仕様書枠
  6
Continuous
 48
50.0
100
AcDbLine
 10
14251.2
 20
1200.0
 30
0.0
 11
14251.2
 21
800.0
 31
0.0
  0
DIMENSION
  5
162CD
330
747D
100
AcDbEntity
  8
寸法
100
AcDbDimension
  2
*D1
 10
11025.69294840489
 20
7197.497424545952
 30
0.0
 11
10925.68113738127
 21
8457.497424545961
 31
0.0
 12
1688.593545546825
 22
0.0
 32
0.0
 70
    32
  1
6X420=<>
 71
     5
 42
-1.0
  3
INABA_S40G
100
AcDbAlignedDimension
 13
10378.26660267049
 23
9717.497424545967
 33
0.0
 14
10378.26660267046
 24
7197.497424545952
 34
0.0
 50
90.0
100
AcDbRotatedDimension
1001
ACAD
1000
DSTYLE
1002
{
1002
}
  0
DIMENSION
  5
162CE
330
747D
100
AcDbEntity
  8
寸法
100
AcDbDimension
  2
*D2
 10
11025.69294840487
 20
7142.497424545955
 30
0.0
 11
11025.69294840487
 21
6764.635957641094
 31
0.0
 12
3003.593545546826
 22
160.0
 32
0.0
 70
   160
 71
     5
 42
-1.0
  3
INABA_S40G
100
AcDbAlignedDimension
 13
10378.26660267046
 23
7197.497424545952
 33
0.0
 14
10378.26660267046
 24
7142.497424545957
 34
0.0
 50
90.0
100
AcDbRotatedDimension
1001
ACAD
1000
DSTYLE
1002
{
1002
}
  0
DIMENSION
  5
162CF
330
747D
100
AcDbEntity
  8
寸法
100
AcDbDimension
  2
*D3
 10
11025.6929484049
 20
9717.497424545967
 30
0.0
 11
11025.6929484049
 21
10080.9827059202
 31
0.0
 12
3003.593545546826
 22
-260.0
 32
0.0
 70
   160
 71
     5
 42
-1.0
  3
INABA_S40G
100
AcDbAlignedDimension
 13
10378.26660267049
 23
9772.497424545964
 33
0.0
 14
10378.26660267049
 24
9717.497424545967
 34
0.0
 50
90.0
100
AcDbRotatedDimension
1001
ACAD
1000
DSTYLE
1002
{
1002
}
  0
DIMENSION
  5
162D0
330
747D
100
AcDbEntity
  8
寸法
100
AcDbDimension
  2
*D4
 10
11390.79989014453
 20
7142.497424545957
 30
0.0
 11
11290.78807912091
 21
8457.497424545961
 31
0.0
 12
1688.593545546825
 22
0.0
 32
0.0
 70
    32
 71
     5
 42
-1.0
  3
INABA_S40G
100
AcDbAlignedDimension
 13
10378.26660267049
 23
9772.497424545964
 33
0.0
 14
10378.26660267046
 24
7142.497424545957
 34
0.0
 50
90.0
100
AcDbRotatedDimension
1001
ACAD
1000
DSTYLE
1002
{
1002
}
  0
LINE
  5
162DC
330
747D
100
AcDbEntity
  8
部品1
100
AcDbLine
 10
10350.26660267047
 20
9744.497424545963
 30
0.0
 11
10350.26660267046
 21
7197.497424545952
 31
0.0
  0
LINE
  5
162DD
330
747D
100
AcDbEntity
  8
部品1
100
AcDbLine
 10
1256.266602670464
 20
7197.497424545821
 30
0.0
 11
1256.266602670475
 21
9744.497424545871
 31
0.0
  0
LINE
  5
162DE
330
747D
100
AcDbEntity
  8
部品1
100
AcDbLine
 10
10378.26660267049
 20
9772.497424545964
 30
0.0
 11
10378.26660267046
 21
7142.497424545957
 31
0.0
  0
LINE
  5
162DF
330
747D
100
AcDbEntity
  8
部品1
100
AcDbLine
 10
1228.266602670453
 20
9772.497424545838
 30
0.0
 11
1228.266602670482
 21
7142.497424545826
 31
0.0
  0
DIMENSION
  5
162E4
330
747D
100
AcDbEntity
  8
寸法
 48
50.0
100
AcDbDimension
  2
*D5
 10
7431.266602670482
 20
6608.0666537797
 30
0.0
 11
8853.266602670474
 21
6708.078464803323
 31
0.0
 12
1688.593545546825
 22
0.0
 32
0.0
 70
    32
  1
有効開口部間口 <>
 71
     5
 42
-1.0
  3
INABA_S40G
100
AcDbAlignedDimension
 13
10275.26660267046
 23
7168.497424545865
 33
0.0
 14
7431.266602670482
 24
7168.497424545865
 34
0.0
100
AcDbRotatedDimension
1001
ACAD
1000
DSTYLE
1002
{
1070
    75
1070
     1
1070
   279
1070
     2
1002
}
  0
LINE
  5
162E6
330
747D
100
AcDbEntity
  8
部品1
 48
50.0
100
AcDbLine
 10
7395.266602670481
 20
7187.997424545864
 30
0.0
 11
10311.26660267047
 21
7187.997424545864
 31
0.0
  0
DIMENSION
  5
162E7
330
747D
100
AcDbEntity
  8
寸法
100
AcDbDimension
  2
*D6
 10
10378.26660267045
 20
6161.893658188827
 30
0.0
 11
5803.266602670468
 21
6261.893658188826
 31
0.0
 70
    32
  1
N X 3050
 71
     5
 42
-1.0
  3
INABA_S40G
100
AcDbAlignedDimension
 13
1228.266602670482
 23
7142.497424545862
 33
0.0
 14
10378.26660267045
 24
7142.497424545957
 34
0.0
100
AcDbRotatedDimension
1001
ACAD
1000
DSTYLE
1002
{
1002
}
  0
LINE
  5
162E8
330
747D
100
AcDbEntity
  8
部品1
100
AcDbLine
 10
1283.266602670462
 20
9717.49742454588
 30
0.0
 11
1283.266602670482
 21
7207.497424545863
 31
0.0
  0
LINE
  5
162E9
330
747D
100
AcDbEntity
  8
部品1
100
AcDbLine
 10
1308.266602670462
 20
9717.497424545879
 30
0.0
 11
1308.266602670482
 21
7207.497424545863
 31
0.0
  0
DIMENSION
  5
162EA
330
747D
100
AcDbEntity
  8
寸法
 48
50.0
100
AcDbDimension
  2
*D7
 10
1228.266602670482
 20
6608.0666537797
 30
0.0
 11
919.781321296244
 21
6608.0666537797
 31
0.0
 12
-3516.406454453173
 22
160.0
 32
0.0
 70
   160
 71
     5
 42
-1.0
  3
INABA_S40G
100
AcDbAlignedDimension
 13
1283.266602670479
 23
7142.497424545864
 33
0.0
 14
1228.266602670482
 24
7142.497424545862
 34
0.0
100
AcDbRotatedDimension
1001
ACAD
1000
DSTYLE
1002
{
1002
}
  0
DIMENSION
  5
162EB
330
747D
100
AcDbEntity
  8
寸法
 48
50.0
100
AcDbDimension
  2
*D8
 10
7383.266602670478
 20
6608.0666537797
 30
0.0
 11
7544.168573670539
 21
6708.0666537797
 31
0.0
 12
2583.593545546826
 22
160.0
 32
0.0
 70
   160
 71
     5
 42
-1.0
  3
INABA_S40G
100
AcDbAlignedDimension
 13
7431.266602670482
 23
7168.497424545865
 33
0.0
 14
7383.266602670478
 24
7142.497424545864
 34
0.0
100
AcDbRotatedDimension
1001
ACAD
1000
DSTYLE
1002
{
1070
   279
1070
     2
1002
}
  0
LINE
  5
162EC
330
747D
100
AcDbEntity
  8
部品1
100
AcDbLine
 10
1283.266602670479
 20
7142.497424545864
 30
0.0
 11
1228.266602670482
 21
7142.497424545862
 31
0.0
  0
LINE
  5
162ED
330
747D
100
AcDbEntity
  8
部品1
 48
50.0
100
AcDbLine
 10
1283.266602670482
 20
7178.497424545864
 30
0.0
 11
1260.266602670482
 21
7178.497424545864
 31
0.0
  0
LINE
  5
162EE
330
747D
100
AcDbEntity
  8
部品1
 48
50.0
100
AcDbLine
 10
1293.266602670482
 20
7168.497424545865
 30
0.0
 11
1283.266602670482
 21
7147.497424545864
 31
0.0
  0
LINE
  5
162EF
330
747D
100
AcDbEntity
  8
部品1
 48
50.0
100
AcDbLine
 10
1283.266602670482
 20
7207.497424545863
 30
0.0
 11
1283.266602670479
 21
7142.497424545864
 31
0.0
  0
LINE
  5
162F0
330
747D
100
AcDbEntity
  8
部品1
 48
50.0
100
AcDbLine
 10
1331.266602670482
 20
7168.497424545865
 30
0.0
 11
1331.266602670482
 21
7177.497424545865
 31
0.0
  0
LINE
  5
162F1
330
747D
100
AcDbEntity
  8
部品1
 48
50.0
100
AcDbLine
 10
1331.266602670482
 20
7207.497424545865
 30
0.0
 11
1331.266602670482
 21
7198.497424545866
 31
0.0
  0
LINE
  5
162F2
330
747D
100
AcDbEntity
  8
部品1
100
AcDbLine
 10
1331.266602670482
 20
7207.497424545865
 30
0.0
 11
1283.266602670482
 21
7207.497424545865
 31
0.0
  0
LINE
  5
162F3
330
747D
100
AcDbEntity
  8
部品1
100
AcDbLine
 10
1331.266602670482
 20
7168.497424545865
 30
0.0
 11
1283.266602670482
 21
7168.497424545865
 31
0.0
  0
LINE
  5
162F4
330
747D
100
AcDbEntity
  8
部品1
100
AcDbLine
 10
1283.266602670482
 20
7178.497424545864
 30
0.0
 11
1260.266602670482
 21
7178.497424545864
 31
0.0
  0
LINE
  5
162F5
330
747D
100
AcDbEntity
  8
部品1
100
AcDbLine
 10
1283.266602670482
 20
7197.497424545789
 30
0.0
 11
1228.26660267048
 21
7197.497424545789
 31
0.0
  0
LINE
  5
162F6
330
747D
100
AcDbEntity
  8
部品1
100
AcDbLine
 10
1256.266602670464
 20
7197.497424545826
 30
0.0
 11
1228.26660267048
 21
7197.497424545826
 31
0.0
  0
LINE
  5
162F7
330
747D
100
AcDbEntity
  8
部品1
100
AcDbLine
 10
1256.26660267048
 20
7197.49742454584
 30
0.0
 11
1228.26660267048
 21
7197.49742454584
 31
0.0
  0
LINE
  5
162FB
330
747D
100
AcDbEntity
  8
部品1
100
AcDbLine
 10
1256.266602670468
 20
8457.49742454584
 30
0.0
 11
1228.266602670468
 21
8457.49742454584
 31
0.0
  0
LINE
  5
162FC
330
747D
100
AcDbEntity
  8
部品1
100
AcDbLine
 10
1256.266602670468
 20
8877.49742454584
 30
0.0
 11
1228.266602670468
 21
8877.49742454584
 31
0.0
  0
LINE
  5
162FE
330
747D
100
AcDbEntity
  8
部品1
100
AcDbLine
 10
1256.266602670464
 20
9297.49742454584
 30
0.0
 11
1228.266602670464
 21
9297.49742454584
 31
0.0
  0
LINE
  5
162FF
330
747D
100
AcDbEntity
  8
部品1
100
AcDbLine
 10
10323.26660267048
 20
9717.497424545879
 30
0.0
 11
10323.26660267046
 21
7142.497424545952
 31
0.0
  0
LINE
  5
16300
330
747D
100
AcDbEntity
  8
部品1
100
AcDbLine
 10
10298.26660267048
 20
9717.497424545877
 30
0.0
 11
10298.26660267046
 21
7207.497424545865
 31
0.0
  0
DIMENSION
  5
16301
330
747D
100
AcDbEntity
  8
寸法
 48
50.0
100
AcDbDimension
  2
*D9
 10
10275.26660267046
 20
6608.0666537797
 30
0.0
 11
10164.30370502171
 21
6708.0666537797
 31
0.0
 12
3003.593545546826
 22
160.0
 32
0.0
 70
   160
 71
     5
 42
-1.0
  3
INABA_S40G
100
AcDbAlignedDimension
 13
10323.26660267046
 23
7142.497424545952
 33
0.0
 14
10275.26660267046
 24
7168.497424545865
 34
0.0
100
AcDbRotatedDimension
1001
ACAD
1000
DSTYLE
1002
{
1070
   279
1070
     2
1002
}
  0
DIMENSION
  5
16302
330
747D
100
AcDbEntity
  8
寸法
 48
50.0
100
AcDbDimension
  2
*D10
 10
10323.26660267046
 20
6608.066653779701
 30
0.0
 11
10686.7518840447
 21
6608.066653779701
 31
0.0
 12
3003.593545546826
 22
160.0
 32
0.0
 70
   160
 71
     5
 42
-1.0
  3
INABA_S40G
100
AcDbAlignedDimension
 13
10378.26660267046
 23
7142.497424545957
 33
0.0
 14
10323.26660267046
 24
7142.497424545952
 34
0.0
100
AcDbRotatedDimension
1001
ACAD
1000
DSTYLE
1002
{
1002
}
  0
LINE
  5
16303
330
747D
100
AcDbEntity
  8
部品1
 48
50.0
100
AcDbLine
 10
10313.26660267046
 20
7168.497424545865
 30
0.0
 11
10323.26660267046
 21
7147.497424545864
 31
0.0
  0
LINE
  5
16304
330
747D
100
AcDbEntity
  8
部品1
100
AcDbLine
 10
10275.26660267046
 20
7207.497424545865
 30
0.0
 11
10323.26660267046
 21
7207.497424545865
 31
0.0
  0
LINE
  5
16305
330
747D
100
AcDbEntity
  8
部品1
100
AcDbLine
 10
10275.26660267046
 20
7168.497424545865
 30
0.0
 11
10323.26660267046
 21
7168.497424545865
 31
0.0
  0
LINE
  5
16306
330
747D
100
AcDbEntity
  8
部品1
 48
50.0
100
AcDbLine
 10
10275.26660267046
 20
7207.497424545865
 30
0.0
 11
10275.26660267046
 21
7198.497424545866
 31
0.0
  0
LINE
  5
16307
330
747D
100
AcDbEntity
  8
部品1
 48
50.0
100
AcDbLine
 10
10275.26660267046
 20
7168.497424545865
 30
0.0
 11
10275.26660267046
 21
7177.497424545865
 31
0.0
  0
LINE
  5
16308
330
747D
100
AcDbEntity
  8
部品1
100
AcDbLine
 10
10323.26660267046
 20
7178.497424545863
 30
0.0
 11
10346.26660267046
 21
7178.497424545864
 31
0.0
  0
LINE
  5
16309
330
747D
100
AcDbEntity
  8
部品1
100
AcDbLine
 10
10323.26660267046
 20
7197.497424545968
 30
0.0
 11
10378.2666026705
 21
7197.497424545968
 31
0.0
  0
LINE
  5
1630A
330
747D
100
AcDbEntity
  8
部品1
100
AcDbLine
 10
10378.26660267046
 20
7142.497424545957
 30
0.0
 11
10323.26660267046
 21
7142.497424545954
 31
0.0
  0
LINE
  5
16317
330
747D
100
AcDbEntity
  8
部品1
100
AcDbLine
 10
10350.26660267049
 20
8457.497424545968
 30
0.0
 11
10378.26660267049
 21
8457.497424545968
 31
0.0
  0
LINE
  5
16319
330
747D
100
AcDbEntity
  8
部品1
100
AcDbLine
 10
10350.26660267049
 20
8877.497424545968
 30
0.0
 11
10378.26660267049
 21
8877.497424545968
 31
0.0
  0
LINE
  5
1631A
330
747D
100
AcDbEntity
  8
部品1
100
AcDbLine
 10
10350.26660267049
 20
9297.497424545968
 30
0.0
 11
10378.26660267049
 21
9297.497424545968
 31
0.0
  0
DIMENSION
  5
1631F
330
747D
100
AcDbEntity
  8
寸法
100
AcDbDimension
  2
*D11
 10
10323.26660267049
 20
9988.305644170967
 30
0.0
 11
8853.26660267049
 21
10088.31745519459
 31
0.0
 12
1688.593545546825
 22
0.0
 32
0.0
 70
    32
  1
7X420=<>
 71
     5
 42
-1.0
  3
INABA_S40G
100
AcDbAlignedDimension
 13
7383.26660267049
 23
9772.49742454587
 33
0.0
 14
10323.26660267049
 24
9772.497424545964
 34
0.0
100
AcDbRotatedDimension
1001
ACAD
1000
DSTYLE
1002
{
1002
}
  0
DIMENSION
  5
16320
330
747D
100
AcDbEntity
  8
寸法
100
AcDbDimension
  2
*D12
 10
1283.266602670489
 20
9988.30564417085
 30
0.0
 11
919.7813212962168
 21
9988.30564417085
 31
0.0
 12
-3516.406454453173
 22
-260.0
 32
0.0
 70
   160
 71
     5
 42
-1.0
  3
INABA_S40G
100
AcDbAlignedDimension
 13
1228.266602670453
 23
9772.49742454587
 33
0.0
 14
1283.266602670489
 24
9772.49742454587
 34
0.0
100
AcDbRotatedDimension
1001
ACAD
1000
DSTYLE
1002
{
1002
}
  0
LINE
  5
16321
330
747D
100
AcDbEntity
  8
部品1
100
AcDbLine
 10
1283.266602670453
 20
9772.497424545838
 30
0.0
 11
1283.266602670457
 21
9744.497424545837
 31
0.0
  0
LINE
  5
16322
330
747D
100
AcDbEntity
  8
部品1
100
AcDbLine
 10
1283.266602670489
 20
9772.49742454587
 30
0.0
 11
1283.266602670489
 21
9744.497424545869
 31
0.0
  0
LINE
  5
16323
330
747D
100
AcDbEntity
  8
部品1
100
AcDbLine
 10
1256.266602670457
 20
9717.49742454584
 30
0.0
 11
1228.266602670457
 21
9717.49742454584
 31
0.0
  0
LINE
  5
16324
330
747D
100
AcDbEntity
  8
部品1
100
AcDbLine
 10
8223.26660267049
 20
9772.497424545987
 30
0.0
 11
8223.26660267049
 21
9744.497424545986
 31
0.0
  0
LINE
  5
16325
330
747D
100
AcDbEntity
  8
部品1
100
AcDbLine
 10
8223.26660267049
 20
9772.49742454587
 30
0.0
 11
8223.26660267049
 21
9744.497424545869
 31
0.0
  0
LINE
  5
16326
330
747D
100
AcDbEntity
  8
部品1
100
AcDbLine
 10
8223.26660267049
 20
9772.49742454587
 30
0.0
 11
8223.26660267049
 21
9744.497424545869
 31
0.0
  0
LINE
  5
16327
330
747D
100
AcDbEntity
  8
部品1
100
AcDbLine
 10
7356.266602670323
 20
9744.497424545993
 30
0.0
 11
10350.26660267049
 21
9744.497424545963
 31
0.0
  0
LINE
  5
16329
330
747D
100
AcDbEntity
  8
部品1
100
AcDbLine
 10
8643.266602670491
 20
9772.497424545987
 30
0.0
 11
8643.266602670491
 21
9744.497424545986
 31
0.0
  0
LINE
  5
1632A
330
747D
100
AcDbEntity
  8
部品1
100
AcDbLine
 10
8643.266602670491
 20
9772.49742454587
 30
0.0
 11
8643.266602670491
 21
9744.497424545869
 31
0.0
  0
LINE
  5
1632B
330
747D
100
AcDbEntity
  8
部品1
100
AcDbLine
 10
8643.266602670491
 20
9772.49742454587
 30
0.0
 11
8643.266602670491
 21
9744.497424545869
 31
0.0
  0
LINE
  5
1632C
330
747D
100
AcDbEntity
  8
部品1
100
AcDbLine
 10
9063.26660267049
 20
9772.497424545987
 30
0.0
 11
9063.26660267049
 21
9744.497424545986
 31
0.0
  0
LINE
  5
16332
330
747D
100
AcDbEntity
  8
部品1
100
AcDbLine
 10
9483.266602670488
 20
9772.497424545987
 30
0.0
 11
9483.266602670488
 21
9744.497424545986
 31
0.0
  0
DIMENSION
  5
16333
330
747D
100
AcDbEntity
  8
寸法
100
AcDbDimension
  2
*D13
 10
10378.26660267049
 20
9988.305644170949
 30
0.0
 11
10686.75188404473
 21
9988.305644170949
 31
0.0
 12
3003.593545546826
 22
-260.0
 32
0.0
 70
   160
 71
     5
 42
-1.0
  3
INABA_S40G
100
AcDbAlignedDimension
 13
10323.26660267049
 23
9772.497424545964
 33
0.0
 14
10378.26660267049
 24
9772.497424545964
 34
0.0
100
AcDbRotatedDimension
1001
ACAD
1000
DSTYLE
1002
{
1002
}
  0
LINE
  5
16334
330
747D
100
AcDbEntity
  8
部品1
100
AcDbLine
 10
9903.266602670489
 20
9772.497424545987
 30
0.0
 11
9903.266602670489
 21
9744.497424545986
 31
0.0
  0
LINE
  5
16335
330
747D
100
AcDbEntity
  8
部品1
100
AcDbLine
 10
10323.26660267049
 20
9772.497424545964
 30
0.0
 11
10323.26660267049
 21
9744.497424545963
 31
0.0
  0
LINE
  5
16336
330
747D
100
AcDbEntity
  8
部品1
100
AcDbLine
 10
10323.26660267049
 20
9772.497424545987
 30
0.0
 11
10323.26660267049
 21
9744.497424545986
 31
0.0
  0
LINE
  5
16337
330
747D
100
AcDbEntity
  8
部品1
100
AcDbLine
 10
10350.26660267049
 20
9717.497424545967
 30
0.0
 11
10378.26660267049
 21
9717.497424545967
 31
0.0
  0
DIMENSION
  5
1659A
330
747D
100
AcDbEntity
  8
寸法
 48
50.0
100
AcDbDimension
  2
*D15
 10
7225.266602670465
 20
6608.0666537797
 30
0.0
 11
7114.303705021716
 21
6708.0666537797
 31
0.0
 12
-1361.406454453172
 22
160.0
 32
0.0
 70
   160
 71
     5
 42
-1.0
  3
INABA_S40G
100
AcDbAlignedDimension
 13
7273.266602670466
 23
7142.497424545952
 33
0.0
 14
7225.266602670465
 24
7168.497424545865
 34
0.0
100
AcDbRotatedDimension
1001
ACAD
1000
DSTYLE
1002
{
1070
   279
1070
     2
1002
}
  0
DIMENSION
  5
1659C
330
747D
100
AcDbEntity
  8
寸法
 48
50.0
100
AcDbDimension
  2
*D14
 10
1283.266602670479
 20
6608.0666537797
 30
0.0
 11
1444.16857367054
 21
6708.0666537797
 31
0.0
 12
-4831.406454453173
 22
160.0
 32
0.0
 70
   160
 71
     5
 42
-1.0
  3
INABA_S40G
100
AcDbAlignedDimension
 13
1331.266602670482
 23
7168.497424545865
 33
0.0
 14
1283.266602670479
 24
7142.497424545864
 34
0.0
100
AcDbRotatedDimension
1001
ACAD
1000
DSTYLE
1002
{
1070
   279
1070
     2
1002
}
  0
DIMENSION
  5
165E9
330
747D
100
AcDbEntity
  8
寸法
 48
50.0
100
AcDbDimension
  2
*D16
 10
7273.266602670466
 20
6608.066653779701
 30
0.0
 11
7328.266602670471
 21
6456.37475874347
 31
0.0
 12
1268.593545546826
 22
-100.0
 32
0.0
 70
   160
 71
     5
 42
-1.0
  3
INABA_S40G
100
AcDbAlignedDimension
 13
7383.266602670478
 23
7142.497424545864
 33
0.0
 14
7273.266602670466
 24
7142.497424545952
 34
0.0
100
AcDbRotatedDimension
1001
ACAD
1000
DSTYLE
1002
{
1070
   279
1070
     2
1002
}
  0
LINE
  5
16656
330
747D
100
AcDbEntity
  8
部品1
100
AcDbLine
 10
7225.266602670465
 20
7207.497424545865
 30
0.0
 11
7273.266602670466
 21
7207.497424545865
 31
0.0
  0
LINE
  5
16657
330
747D
100
AcDbEntity
  8
部品1
 48
50.0
100
AcDbLine
 10
7225.266602670465
 20
7207.497424545865
 30
0.0
 11
7225.266602670465
 21
7198.497424545866
 31
0.0
  0
LINE
  5
16658
330
747D
100
AcDbEntity
  8
部品1
100
AcDbLine
 10
7225.266602670465
 20
7168.497424545865
 30
0.0
 11
7273.266602670464
 21
7168.497424545865
 31
0.0
  0
LINE
  5
16659
330
747D
100
AcDbEntity
  8
部品1
 48
50.0
100
AcDbLine
 10
7225.266602670465
 20
7168.497424545865
 30
0.0
 11
7225.266602670465
 21
7177.497424545865
 31
0.0
  0
LINE
  5
1665A
330
747D
100
AcDbEntity
  8
部品1
 48
50.0
100
AcDbLine
 10
7263.266602670464
 20
7168.497424545865
 30
0.0
 11
7273.266602670464
 21
7147.497424545864
 31
0.0
  0
LINE
  5
1665B
330
747D
100
AcDbEntity
  8
部品1
100
AcDbLine
 10
7273.266602670464
 20
7178.497424545863
 30
0.0
 11
7296.266602670463
 21
7178.497424545864
 31
0.0
  0
LINE
  5
1665C
330
747D
100
AcDbEntity
  8
部品1
100
AcDbLine
 10
7431.266602670482
 20
7207.497424545865
 30
0.0
 11
7383.266602670481
 21
7207.497424545865
 31
0.0
  0
LINE
  5
1665D
330
747D
100
AcDbEntity
  8
部品1
 48
50.0
100
AcDbLine
 10
7431.266602670482
 20
7207.497424545865
 30
0.0
 11
7431.266602670482
 21
7198.497424545866
 31
0.0
  0
LINE
  5
1665E
330
747D
100
AcDbEntity
  8
部品1
100
AcDbLine
 10
7431.266602670482
 20
7168.497424545865
 30
0.0
 11
7383.266602670481
 21
7168.497424545865
 31
0.0
  0
LINE
  5
1665F
330
747D
100
AcDbEntity
  8
部品1
 48
50.0
100
AcDbLine
 10
7393.266602670482
 20
7168.497424545865
 30
0.0
 11
7383.266602670481
 21
7147.497424545864
 31
0.0
  0
LINE
  5
16660
330
747D
100
AcDbEntity
  8
部品1
100
AcDbLine
 10
7383.266602670481
 20
7178.497424545864
 30
0.0
 11
7360.266602670482
 21
7178.497424545864
 31
0.0
  0
LINE
  5
16661
330
747D
100
AcDbEntity
  8
部品1
 48
50.0
100
AcDbLine
 10
7383.266602670481
 20
7207.497424545863
 30
0.0
 11
7383.266602670478
 21
7142.497424545864
 31
0.0
  0
LINE
  5
16662
330
747D
100
AcDbEntity
  8
部品1
 48
50.0
100
AcDbLine
 10
7431.266602670482
 20
7168.497424545865
 30
0.0
 11
7431.266602670482
 21
7177.497424545865
 31
0.0
  0
LINE
  5
16663
330
747D
100
AcDbEntity
  8
部品1
100
AcDbLine
 10
7383.266602670478
 20
7142.497424545864
 30
0.0
 11
7273.266602670467
 21
7142.497424545858
 31
0.0
  0
LINE
  5
16664
330
747D
100
AcDbEntity
  8
部品1
 48
50.0
100
AcDbLine
 10
7273.266602670471
 20
7207.497424545952
 30
0.0
 11
7273.266602670467
 21
7142.497424545952
 31
0.0
  0
LINE
  5
16680
330
747D
100
AcDbEntity
  8
部品1
100
AcDbLine
 10
6013.26660267049
 20
9772.497424545987
 30
0.0
 11
6013.26660267049
 21
9744.497424545986
 31
0.0
  0
LINE
  5
1668A
330
747D
100
AcDbEntity
  8
部品1
100
AcDbLine
 10
5173.266602670489
 20
9772.497424545987
 30
0.0
 11
5173.266602670489
 21
9744.497424545986
 31
0.0
  0
LINE
  5
1668B
330
747D
100
AcDbEntity
  8
部品1
100
AcDbLine
 10
5173.266602670489
 20
9772.49742454587
 30
0.0
 11
5173.266602670489
 21
9744.497424545869
 31
0.0
  0
LINE
  5
1668C
330
747D
100
AcDbEntity
  8
部品1
100
AcDbLine
 10
5173.266602670489
 20
9772.49742454587
 30
0.0
 11
5173.266602670489
 21
9744.497424545869
 31
0.0
  0
LINE
  5
1668D
330
747D
100
AcDbEntity
  8
部品1
100
AcDbLine
 10
5593.266602670489
 20
9772.497424545987
 30
0.0
 11
5593.266602670489
 21
9744.497424545986
 31
0.0
  0
LINE
  5
1668E
330
747D
100
AcDbEntity
  8
部品1
100
AcDbLine
 10
5593.266602670489
 20
9772.49742454587
 30
0.0
 11
5593.266602670489
 21
9744.497424545869
 31
0.0
  0
LINE
  5
1668F
330
747D
100
AcDbEntity
  8
部品1
100
AcDbLine
 10
5593.266602670489
 20
9772.49742454587
 30
0.0
 11
5593.266602670489
 21
9744.497424545869
 31
0.0
  0
LINE
  5
16690
330
747D
100
AcDbEntity
  8
部品1
100
AcDbLine
 10
6433.26660267049
 20
9772.497424545987
 30
0.0
 11
6433.26660267049
 21
9744.497424545986
 31
0.0
  0
LINE
  5
16691
330
747D
100
AcDbEntity
  8
部品1
100
AcDbLine
 10
6853.266602670487
 20
9772.497424545987
 30
0.0
 11
6853.266602670487
 21
9744.497424545986
 31
0.0
  0
DIMENSION
  5
166DD
330
747D
100
AcDbEntity
  8
寸法
 48
50.0
100
AcDbDimension
  2
*D17
 10
7273.266602670489
 20
9988.305644170967
 30
0.0
 11
7748.266602670489
 21
9248.305644170967
 31
0.0
 12
1268.593545546826
 22
840.0
 32
0.0
 70
    32
 71
     5
 42
-1.0
  3
INABA_S40G
100
AcDbAlignedDimension
 13
7383.26660267049
 23
9772.497424545917
 33
0.0
 14
7273.266602670489
 24
9772.497424545916
 34
0.0
100
AcDbRotatedDimension
1001
ACAD
1000
DSTYLE
1002
{
1070
   279
1070
     2
1002
}
  0
LINE
  5
16761
330
747D
100
AcDbEntity
  8
部品1
100
AcDbLine
 10
10323.26660267048
 20
9717.497424545879
 30
0.0
 11
7383.266602670332
 21
9717.497424545879
 31
0.0
  0
LINE
  5
168C3
330
747D
100
AcDbEntity
  8
部品1
100
AcDbLine
 10
7352.266602670472
 20
7197.497424545861
 30
0.0
 11
7304.266602670471
 21
7197.49742454586
 31
0.0
  0
LINE
  5
168C4
330
747D
100
AcDbEntity
  8
部品1
 48
50.0
100
AcDbLine
 10
7304.266602670473
 20
7197.497424545861
 30
0.0
 11
7304.266602670475
 21
7142.497424545862
 31
0.0
  0
LINE
  5
168C5
330
747D
100
AcDbEntity
  8
部品1
 48
50.0
100
AcDbLine
 10
7352.266602670472
 20
7197.497424545861
 30
0.0
 11
7352.266602670475
 21
7142.497424545862
 31
0.0
  0
DIMENSION
  5
16913
330
747D
100
AcDbEntity
  8
寸法
 48
50.0
100
AcDbDimension
  2
*D18
 10
10378.26660267049
 20
10237.62711772726
 30
0.0
 11
8853.26660267049
 21
10337.62711772726
 31
0.0
 70
    32
 71
     5
 42
-1.0
  3
INABA_S40G
100
AcDbAlignedDimension
 13
7328.266602670488
 23
10147.29355852891
 33
0.0
 14
10378.26660267049
 24
9772.497424545964
 34
0.0
100
AcDbRotatedDimension
1001
ACAD
1000
DSTYLE
1002
{
1070
   279
1070
     2
1002
}
  0
LINE
  5
16C81
330
747D
100
AcDbEntity
  8
部品1
100
AcDbLine
 10
1256.266602670468
 20
8037.49742454584
 30
0.0
 11
1228.266602670468
 21
8037.49742454584
 31
0.0
  0
LINE
  5
16C82
330
747D
100
AcDbEntity
  8
部品1
100
AcDbLine
 10
10350.26660267049
 20
8037.497424545966
 30
0.0
 11
10378.26660267049
 21
8037.497424545966
 31
0.0
  0
LINE
  5
16FDA
330
747D
100
AcDbEntity
  8
部品1
100
AcDbLine
 10
1256.266602670468
 20
7617.49742454584
 30
0.0
 11
1228.266602670468
 21
7617.49742454584
 31
0.0
  0
LINE
  5
16FDB
330
747D
100
AcDbEntity
  8
部品1
100
AcDbLine
 10
10350.26660267049
 20
7617.497424545966
 30
0.0
 11
10378.26660267049
 21
7617.497424545966
 31
0.0
  0
LINE
  5
1743E
330
747D
100
AcDbEntity
  8
部品1
100
AcDbLine
 10
7803.266602670489
 20
9772.49742454587
 30
0.0
 11
7803.266602670489
 21
9744.497424545869
 31
0.0
  0
LINE
  5
1743F
330
747D
100
AcDbEntity
  8
部品1
100
AcDbLine
 10
7803.266602670489
 20
9772.49742454587
 30
0.0
 11
7803.266602670489
 21
9744.497424545869
 31
0.0
  0
LINE
  5
17440
330
747D
100
AcDbEntity
  8
部品1
100
AcDbLine
 10
7803.266602670489
 20
9772.497424545987
 30
0.0
 11
7803.266602670489
 21
9744.497424545986
 31
0.0
  0
LINE
  5
17441
330
747D
100
AcDbEntity
  8
部品1
100
AcDbLine
 10
4753.266602670489
 20
9772.497424545987
 30
0.0
 11
4753.266602670489
 21
9744.497424545986
 31
0.0
  0
LINE
  5
17442
330
747D
100
AcDbEntity
  8
部品1
100
AcDbLine
 10
4753.266602670489
 20
9772.49742454587
 30
0.0
 11
4753.266602670489
 21
9744.497424545869
 31
0.0
  0
LINE
  5
17443
330
747D
100
AcDbEntity
  8
部品1
100
AcDbLine
 10
4753.266602670489
 20
9772.49742454587
 30
0.0
 11
4753.266602670489
 21
9744.497424545869
 31
0.0
  0
LINE
  5
17462
330
747D
100
AcDbEntity
  8
部品1
 48
50.0
100
AcDbLine
 10
10350.26660267047
 20
9744.497424545963
 30
0.0
 11
10323.26660267048
 21
9717.497424545879
 31
0.0
  0
LINE
  5
17463
330
747D
100
AcDbEntity
  8
部品1
 48
50.0
100
AcDbLine
 10
10298.26660267048
 20
9692.497424545726
 30
0.0
 11
7408.266602670306
 21
9692.497424545971
 31
0.0
  0
LINE
  5
17467
330
747D
100
AcDbEntity
  8
部品1
 48
50.0
100
AcDbLine
 10
1283.266602670462
 20
9717.49742454588
 30
0.0
 11
1256.266602670475
 21
9744.497424545986
 31
0.0
  0
TEXT
  5
17484
330
747D
100
AcDbEntity
  8
文字
 62
     7
 48
50.0
100
AcDbText
 10
13209.4053442172
 20
76.09434707649343
 30
0.0
 40
100.0
  1
○床面積 ： Ｎ［連続数］×8.02㎡(2.43坪)
  7
STYLE2
100
AcDbText
  0
DIMENSION
  5
174FA
330
747D
100
AcDbEntity
  8
寸法
 48
50.0
100
AcDbDimension
  2
*D25
 10
4278.266602670489
 20
10237.62711772726
 30
0.0
 11
2753.266602670472
 21
10337.62711772726
 31
0.0
 12
-1781.406454453172
 22
0.0
 32
0.0
 70
    32
 71
     5
 42
-1.0
  3
INABA_S40G
100
AcDbAlignedDimension
 13
1228.266602670453
 23
9772.497424545838
 33
0.0
 14
4278.266602670489
 24
10147.29355852891
 34
0.0
100
AcDbRotatedDimension
1001
ACAD
1000
DSTYLE
1002
{
1070
   279
1070
     2
1002
}
  0
DIMENSION
  5
174FC
330
747D
100
AcDbEntity
  8
寸法
100
AcDbDimension
  2
*D23
 10
4223.266602670489
 20
9988.305644170967
 30
0.0
 11
2753.26660267049
 21
10088.31745519459
 31
0.0
 12
-1781.406454453172
 22
0.0
 32
0.0
 70
    32
  1
7X420=<>
 71
     5
 42
-1.0
  3
INABA_S40G
100
AcDbAlignedDimension
 13
1283.266602670489
 23
9772.49742454587
 33
0.0
 14
4223.266602670489
 24
9772.497424545964
 34
0.0
100
AcDbRotatedDimension
1001
ACAD
1000
DSTYLE
1002
{
1002
}
  0
LINE
  5
174FD
330
747D
100
AcDbEntity
  8
部品1
 48
50.0
100
AcDbLine
 10
1295.266602670482
 20
7187.997424545864
 30
0.0
 11
4211.266602670465
 21
7187.997424545864
 31
0.0
  0
DIMENSION
  5
174FE
330
747D
100
AcDbEntity
  8
寸法
 48
50.0
100
AcDbDimension
  2
*D21
 10
1331.266602670482
 20
6608.0666537797
 30
0.0
 11
2753.266602670473
 21
6708.078464803323
 31
0.0
 12
-1781.406454453172
 22
0.0
 32
0.0
 70
    32
  1
有効開口部間口 <>
 71
     5
 42
-1.0
  3
INABA_S40G
100
AcDbAlignedDimension
 13
4175.266602670464
 23
7168.497424545865
 33
0.0
 14
1331.266602670482
 24
7168.497424545865
 34
0.0
100
AcDbRotatedDimension
1001
ACAD
1000
DSTYLE
1002
{
1070
    75
1070
     1
1070
   279
1070
     2
1002
}
  0
DIMENSION
  5
174FF
330
747D
100
AcDbEntity
  8
寸法
 48
50.0
100
AcDbDimension
  2
*D20
 10
4175.266602670464
 20
6608.0666537797
 30
0.0
 11
4064.303705021717
 21
6708.0666537797
 31
0.0
 12
-1781.406454453172
 22
0.0
 32
0.0
 70
   160
 71
     5
 42
-1.0
  3
INABA_S40G
100
AcDbAlignedDimension
 13
4223.266602670466
 23
7142.497424545952
 33
0.0
 14
4175.266602670464
 24
7168.497424545865
 34
0.0
100
AcDbRotatedDimension
1001
ACAD
1000
DSTYLE
1002
{
1070
   279
1070
     2
1002
}
  0
DIMENSION
  5
17500
330
747D
100
AcDbEntity
  8
寸法
 48
50.0
100
AcDbDimension
  2
*D22
 10
4223.266602670466
 20
6608.066653779701
 30
0.0
 11
4278.266602670471
 21
6456.37475874347
 31
0.0
 12
-1781.406454453172
 22
0.0
 32
0.0
 70
   160
 71
     5
 42
-1.0
  3
INABA_S40G
100
AcDbAlignedDimension
 13
4333.266602670478
 23
7142.497424545864
 33
0.0
 14
4223.266602670466
 24
7142.497424545952
 34
0.0
100
AcDbRotatedDimension
1001
ACAD
1000
DSTYLE
1002
{
1070
   279
1070
     2
1002
}
  0
DIMENSION
  5
17501
330
747D
100
AcDbEntity
  8
寸法
 48
50.0
100
AcDbDimension
  2
*D19
 10
4333.266602670478
 20
6608.0666537797
 30
0.0
 11
4494.168573670539
 21
6708.0666537797
 31
0.0
 12
-1781.406454453172
 22
0.0
 32
0.0
 70
   160
 71
     5
 42
-1.0
  3
INABA_S40G
100
AcDbAlignedDimension
 13
4381.266602670481
 23
7168.497424545865
 33
0.0
 14
4333.266602670478
 24
7142.497424545864
 34
0.0
100
AcDbRotatedDimension
1001
ACAD
1000
DSTYLE
1002
{
1070
   279
1070
     2
1002
}
  0
LINE
  5
17502
330
747D
100
AcDbEntity
  8
部品1
100
AcDbLine
 10
4333.266602670478
 20
7142.497424545864
 30
0.0
 11
4223.266602670467
 21
7142.497424545858
 31
0.0
  0
LINE
  5
17503
330
747D
100
AcDbEntity
  8
部品1
100
AcDbLine
 10
4333.266602670482
 20
7178.497424545864
 30
0.0
 11
4310.266602670481
 21
7178.497424545864
 31
0.0
  0
LINE
  5
17504
330
747D
100
AcDbEntity
  8
部品1
 48
50.0
100
AcDbLine
 10
4302.266602670473
 20
7197.497424545861
 30
0.0
 11
4302.266602670474
 21
7142.497424545862
 31
0.0
  0
LINE
  5
17505
330
747D
100
AcDbEntity
  8
部品1
 48
50.0
100
AcDbLine
 10
4254.266602670472
 20
7197.497424545861
 30
0.0
 11
4254.266602670474
 21
7142.497424545862
 31
0.0
  0
LINE
  5
17506
330
747D
100
AcDbEntity
  8
部品1
100
AcDbLine
 10
4302.266602670473
 20
7197.497424545861
 30
0.0
 11
4254.266602670471
 21
7197.49742454586
 31
0.0
  0
LINE
  5
17507
330
747D
100
AcDbEntity
  8
部品1
 48
50.0
100
AcDbLine
 10
4223.266602670471
 20
7207.497424545952
 30
0.0
 11
4223.266602670467
 21
7142.497424545952
 31
0.0
  0
LINE
  5
17508
330
747D
100
AcDbEntity
  8
部品1
100
AcDbLine
 10
4223.266602670463
 20
7178.497424545863
 30
0.0
 11
4246.266602670464
 21
7178.497424545864
 31
0.0
  0
LINE
  5
17509
330
747D
100
AcDbEntity
  8
部品1
 48
50.0
100
AcDbLine
 10
4213.266602670464
 20
7168.497424545865
 30
0.0
 11
4223.266602670463
 21
7147.497424545864
 31
0.0
  0
LINE
  5
1750A
330
747D
100
AcDbEntity
  8
部品1
 48
50.0
100
AcDbLine
 10
4175.266602670464
 20
7168.497424545865
 30
0.0
 11
4175.266602670464
 21
7177.497424545865
 31
0.0
  0
LINE
  5
1750B
330
747D
100
AcDbEntity
  8
部品1
100
AcDbLine
 10
4175.266602670464
 20
7168.497424545865
 30
0.0
 11
4223.266602670463
 21
7168.497424545865
 31
0.0
  0
LINE
  5
1750C
330
747D
100
AcDbEntity
  8
部品1
 48
50.0
100
AcDbLine
 10
4175.266602670464
 20
7207.497424545865
 30
0.0
 11
4175.266602670464
 21
7198.497424545866
 31
0.0
  0
LINE
  5
1750D
330
747D
100
AcDbEntity
  8
部品1
100
AcDbLine
 10
4175.266602670464
 20
7207.497424545865
 30
0.0
 11
4223.266602670466
 21
7207.497424545865
 31
0.0
  0
LINE
  5
1750E
330
747D
100
AcDbEntity
  8
部品1
 48
50.0
100
AcDbLine
 10
4381.266602670481
 20
7168.497424545865
 30
0.0
 11
4381.266602670481
 21
7177.497424545865
 31
0.0
  0
LINE
  5
1750F
330
747D
100
AcDbEntity
  8
部品1
 48
50.0
100
AcDbLine
 10
4333.266602670482
 20
7207.497424545863
 30
0.0
 11
4333.266602670478
 21
7142.497424545864
 31
0.0
  0
LINE
  5
17510
330
747D
100
AcDbEntity
  8
部品1
 48
50.0
100
AcDbLine
 10
4343.266602670482
 20
7168.497424545865
 30
0.0
 11
4333.266602670482
 21
7147.497424545864
 31
0.0
  0
LINE
  5
17511
330
747D
100
AcDbEntity
  8
部品1
100
AcDbLine
 10
4381.266602670481
 20
7168.497424545865
 30
0.0
 11
4333.266602670482
 21
7168.497424545865
 31
0.0
  0
LINE
  5
17512
330
747D
100
AcDbEntity
  8
部品1
 48
50.0
100
AcDbLine
 10
4381.266602670481
 20
7207.497424545865
 30
0.0
 11
4381.266602670481
 21
7198.497424545866
 31
0.0
  0
LINE
  5
17513
330
747D
100
AcDbEntity
  8
部品1
100
AcDbLine
 10
4381.266602670481
 20
7207.497424545865
 30
0.0
 11
4333.266602670482
 21
7207.497424545865
 31
0.0
  0
LINE
  5
17514
330
747D
100
AcDbEntity
  8
部品1
100
AcDbLine
 10
1256.266602670475
 20
9744.497424546008
 30
0.0
 11
4250.266602670489
 21
9744.497424545963
 31
0.0
  0
LINE
  5
17515
330
747D
100
AcDbEntity
  8
部品1
100
AcDbLine
 10
1703.266602670489
 20
9772.49742454587
 30
0.0
 11
1703.266602670489
 21
9744.497424545869
 31
0.0
  0
LINE
  5
17516
330
747D
100
AcDbEntity
  8
部品1
100
AcDbLine
 10
1703.266602670489
 20
9772.49742454587
 30
0.0
 11
1703.266602670489
 21
9744.497424545869
 31
0.0
  0
LINE
  5
17517
330
747D
100
AcDbEntity
  8
部品1
100
AcDbLine
 10
1703.266602670489
 20
9772.497424545987
 30
0.0
 11
1703.266602670489
 21
9744.497424545986
 31
0.0
  0
LINE
  5
17518
330
747D
100
AcDbEntity
  8
部品1
100
AcDbLine
 10
2123.26660267049
 20
9772.49742454587
 30
0.0
 11
2123.26660267049
 21
9744.497424545869
 31
0.0
  0
LINE
  5
17519
330
747D
100
AcDbEntity
  8
部品1
100
AcDbLine
 10
2123.26660267049
 20
9772.49742454587
 30
0.0
 11
2123.26660267049
 21
9744.497424545869
 31
0.0
  0
LINE
  5
1751A
330
747D
100
AcDbEntity
  8
部品1
100
AcDbLine
 10
2123.26660267049
 20
9772.497424545987
 30
0.0
 11
2123.26660267049
 21
9744.497424545986
 31
0.0
  0
LINE
  5
1751B
330
747D
100
AcDbEntity
  8
部品1
100
AcDbLine
 10
2543.26660267049
 20
9772.49742454587
 30
0.0
 11
2543.26660267049
 21
9744.497424545869
 31
0.0
  0
LINE
  5
1751C
330
747D
100
AcDbEntity
  8
部品1
100
AcDbLine
 10
2543.26660267049
 20
9772.49742454587
 30
0.0
 11
2543.26660267049
 21
9744.497424545869
 31
0.0
  0
LINE
  5
1751D
330
747D
100
AcDbEntity
  8
部品1
100
AcDbLine
 10
2543.26660267049
 20
9772.497424545987
 30
0.0
 11
2543.26660267049
 21
9744.497424545986
 31
0.0
  0
LINE
  5
17525
330
747D
100
AcDbEntity
  8
部品1
100
AcDbLine
 10
2963.26660267049
 20
9772.497424545987
 30
0.0
 11
2963.26660267049
 21
9744.497424545986
 31
0.0
  0
LINE
  5
17526
330
747D
100
AcDbEntity
  8
部品1
100
AcDbLine
 10
3383.26660267049
 20
9772.497424545987
 30
0.0
 11
3383.26660267049
 21
9744.497424545986
 31
0.0
  0
LINE
  5
17527
330
747D
100
AcDbEntity
  8
部品1
100
AcDbLine
 10
3803.266602670488
 20
9772.497424545987
 30
0.0
 11
3803.266602670488
 21
9744.497424545986
 31
0.0
  0
DIMENSION
  5
17528
330
747D
100
AcDbEntity
  8
寸法
 48
50.0
100
AcDbDimension
  2
*D24
 10
4223.266602670489
 20
9988.305644170967
 30
0.0
 11
4278.266602670489
 21
10088.30564417096
 31
0.0
 12
-1781.406454453172
 22
0.0
 32
0.0
 70
    32
 71
     5
 42
-1.0
  3
INABA_S40G
100
AcDbAlignedDimension
 13
4333.266602670489
 23
9772.497424545917
 33
0.0
 14
4223.266602670489
 24
9772.497424545916
 34
0.0
100
AcDbRotatedDimension
1001
ACAD
1000
DSTYLE
1002
{
1070
   279
1070
     2
1002
}
  0
LINE
  5
175C7
330
747D
100
AcDbEntity
  8
寸法
 48
50.0
100
AcDbLine
 10
6025.266602670463
 20
6608.0666537797
 30
0.0
 11
7225.266602670463
 21
6608.0666537797
 31
0.0
  0
TEXT
  5
175C8
330
747D
100
AcDbEntity
  8
文字
 48
50.0
100
AcDbText
 10
5213.447775887432
 20
6647.719481826378
 30
0.0
 40
120.0
  1
2844
  7
STYLE1
100
AcDbText
  0
LINE
  5
175C9
330
747D
100
AcDbEntity
  8
寸法
 48
50.0
100
AcDbLine
 10
4381.266602670481
 20
6608.0666537797
 30
0.0
 11
5581.266602670481
 21
6608.0666537797
 31
0.0
  0
TEXT
  5
175CA
330
747D
100
AcDbEntity
  8
文字
 48
50.0
100
AcDbText
 10
6055.616164013953
 20
6647.719481826378
 30
0.0
 40
120.0
  1
2844
  7
STYLE1
100
AcDbText
  0
LINE
  5
175CD
330
747D
100
AcDbEntity
  8
寸法
 48
50.0
100
AcDbLine
 10
6230.266602670488
 20
10237.62711772726
 30
0.0
 11
7328.266602670488
 21
10237.62711772726
 31
0.0
  0
LINE
  5
175CE
330
747D
100
AcDbEntity
  8
寸法
 48
50.0
100
AcDbLine
 10
6223.266602670488
 20
9988.305644170967
 30
0.0
 11
7273.266602670489
 21
9988.305644170967
 31
0.0
  0
LINE
  5
175CF
330
747D
100
AcDbEntity
  8
寸法
 48
50.0
100
AcDbLine
 10
4333.266602670486
 20
9988.305644170967
 30
0.0
 11
5383.266602670486
 21
9988.305644170967
 31
0.0
  0
TEXT
  5
175D0
330
747D
100
AcDbEntity
  8
文字
 48
50.0
100
AcDbText
 10
5015.447775887438
 20
10027.95847221764
 30
0.0
 40
120.0
  1
2940
  7
STYLE1
100
AcDbText
  0
LINE
  5
175D1
330
747D
100
AcDbEntity
  8
寸法
 48
50.0
100
AcDbLine
 10
4278.266602670488
 20
10237.62711772726
 30
0.0
 11
5376.266602670488
 21
10237.62711772726
 31
0.0
  0
TEXT
  5
175D2
330
747D
100
AcDbEntity
  8
文字
 48
50.0
100
AcDbText
 10
5008.447775887439
 20
10277.27994577394
 30
0.0
 40
120.0
  1
3050
  7
STYLE1
100
AcDbText
  0
TEXT
  5
175D3
330
747D
100
AcDbEntity
  8
文字
 48
50.0
100
AcDbText
 10
6253.616164013978
 20
10027.95847221764
 30
0.0
 40
120.0
  1
2940
  7
STYLE1
100
AcDbText
  0
TEXT
  5
175D4
330
747D
100
AcDbEntity
  8
文字
 48
50.0
100
AcDbText
 10
6260.616164013978
 20
10277.27994577394
 30
0.0
 40
120.0
  1
3050
  7
STYLE1
100
AcDbText
  0
LINE
  5
175FB
330
747D
100
AcDbEntity
  8
Ｇ．Ｌ
100
AcDbLine
 10
523.0641139778453
 20
2437.931598713261
 30
0.0
 11
16214.38709109365
 21
2437.931598713261
 31
0.0
  0
TEXT
  5
176A6
330
747D
100
AcDbEntity
  8
文字
 62
     7
 48
50.0
100
AcDbText
 10
15022.63965474517
 20
9740.013745883725
 30
0.0
 40
100.0
  1
F12            2.3
  7
STYLE1
100
AcDbText
  0
LINE
  5
176A7
330
747D
100
AcDbEntity
  8
仕様書枠
 48
50.0
100
AcDbLine
 10
13127.2
 20
11239.6
 30
0.0
 11
13127.19999999999
 21
8179.600000000002
 31
0.0
  0
TEXT
  5
176A8
330
747D
100
AcDbEntity
  8
文字
 62
     7
 48
50.0
100
AcDbText
 10
13229.83081656554
 20
8210.013745883733
 30
0.0
 40
100.0
  1
Z08→塗装溶融亜鉛めっき鋼板(JIS G 3313)
  7
STYLE1
100
AcDbText
  0
TEXT
  5
176A9
330
747D
100
AcDbEntity
  8
文字
 62
     7
 48
50.0
100
AcDbText
 10
13229.83081656554
 20
8380.013745883731
 30
0.0
 40
100.0
  1
Y10→溶融亜鉛-5％アルミニウム合金めっき鋼板(JIS G 3317)
 41
0.9
  7
STYLE1
100
AcDbText
  0
TEXT
  5
176AA
330
747D
100
AcDbEntity
  8
文字
 62
     7
 48
50.0
100
AcDbText
 10
13229.83081656554
 20
8550.013745883731
 30
0.0
 40
100.0
  1
F12→溶融亜鉛めっき鋼板(JIS G 3302)
  7
STYLE1
100
AcDbText
  0
LINE
  5
176AB
330
747D
100
AcDbEntity
  8
仕様書枠
 48
50.0
100
AcDbLine
 10
16307.19999999998
 20
8179.600000000002
 30
0.0
 11
13127.19999999999
 21
8179.600000000004
 31
0.0
  0
LINE
  5
176AC
330
747D
100
AcDbEntity
  8
仕様書枠
 48
50.0
100
AcDbLine
 10
16307.19999999998
 20
8349.600000000002
 30
0.0
 11
13127.19999999999
 21
8349.600000000004
 31
0.0
  0
LINE
  5
176AD
330
747D
100
AcDbEntity
  8
仕様書枠
 48
50.0
100
AcDbLine
 10
16307.19999999998
 20
8519.600000000002
 30
0.0
 11
13127.19999999999
 21
8519.600000000004
 31
0.0
  0
TEXT
  5
176AE
330
747D
100
AcDbEntity
  8
文字
 62
     7
 48
50.0
100
AcDbText
 10
15022.63965474515
 20
9060.013745883725
 30
0.0
 40
100.0
  1
Z08            0.5
  7
STYLE1
100
AcDbText
  0
TEXT
  5
176B0
330
747D
100
AcDbEntity
  8
文字
 62
     7
 48
50.0
100
AcDbText
 10
14850.83183167176
 20
8720.013745883726
 30
0.0
 40
100.0
  1
アルミニウム合金押出形材
  7
STYLE1
100
AcDbText
  0
TEXT
  5
176B1
330
747D
100
AcDbEntity
  8
文字
 62
     7
 48
50.0
100
AcDbText
 10
15022.63965474516
 20
9400.013745883725
 30
0.0
 40
100.0
  1
F12            0.7
  7
STYLE1
100
AcDbText
  0
TEXT
  5
176B2
330
747D
100
AcDbEntity
  8
文字
 62
     7
 48
50.0
100
AcDbText
 10
15022.63965474516
 20
9570.013745883725
 30
0.0
 40
100.0
  1
Y10            0.5
  7
STYLE1
100
AcDbText
  0
TEXT
  5
176B3
330
747D
100
AcDbEntity
  8
文字
 62
     7
 48
50.0
100
AcDbText
 10
15022.63965474516
 20
10080.01374588372
 30
0.0
 40
100.0
  1
Y10            0.7
  7
STYLE1
100
AcDbText
  0
TEXT
  5
176B4
330
747D
100
AcDbEntity
  8
文字
 62
     7
 48
50.0
100
AcDbText
 10
15022.63965474516
 20
10250.01374588372
 30
0.0
 40
100.0
  1
Y10            0.7
  7
STYLE1
100
AcDbText
  0
TEXT
  5
176B5
330
747D
100
AcDbEntity
  8
文字
 62
     7
 48
50.0
100
AcDbText
 10
15022.63965474516
 20
10420.01374588372
 30
0.0
 40
100.0
  1
Y10            1.0
  7
STYLE1
100
AcDbText
  0
TEXT
  5
176B6
330
747D
100
AcDbEntity
  8
文字
 62
     7
 48
50.0
100
AcDbText
 10
15022.63965474516
 20
10590.01374588372
 30
0.0
 40
100.0
  1
Y10            1.0
  7
STYLE1
100
AcDbText
  0
TEXT
  5
176B7
330
747D
100
AcDbEntity
  8
文字
 62
     7
 48
50.0
100
AcDbText
 10
15022.63965474517
 20
10760.01374588372
 30
0.0
 40
100.0
  1
F12         1.0,1.2
  7
STYLE1
100
AcDbText
  0
TEXT
  5
176B8
330
747D
100
AcDbEntity
  8
文字
 62
     7
 48
50.0
100
AcDbText
 10
15022.63965474517
 20
10930.01374588372
 30
0.0
 40
100.0
  1
F12            1.2
  7
STYLE1
100
AcDbText
  0
TEXT
  5
176B9
330
747D
100
AcDbEntity
  8
文字
 62
     7
 48
50.0
100
AcDbText
 10
13248.77747366448
 20
9060.013745883729
 30
0.0
 40
100.0
  1
12
  7
STYLE1
100
AcDbText
  0
TEXT
  5
176BA
330
747D
100
AcDbEntity
  8
文字
 62
     7
 48
50.0
100
AcDbText
 10
13248.77747366448
 20
8890.013745883729
 30
0.0
 40
100.0
  1
13
  7
STYLE1
100
AcDbText
  0
TEXT
  5
176BB
330
747D
100
AcDbEntity
  8
文字
 62
     7
 48
50.0
100
AcDbText
 10
13583.11819016569
 20
9060.013745883729
 30
0.0
 40
100.0
  1
シャッター
  7
STYLE1
100
AcDbText
  0
LINE
  5
176BC
330
747D
100
AcDbEntity
  8
仕様書枠
 48
50.0
100
AcDbLine
 10
16307.19999999999
 20
8689.6
 30
0.0
 11
13127.19999999999
 21
8689.600000000003
 31
0.0
  0
LINE
  5
176BD
330
747D
100
AcDbEntity
  8
仕様書枠
 48
50.0
100
AcDbLine
 10
16307.19999999999
 20
9029.6
 30
0.0
 11
13127.19999999999
 21
9029.6
 31
0.0
  0
TEXT
  5
176BE
330
747D
100
AcDbEntity
  8
文字
 62
     7
 48
50.0
100
AcDbText
 10
13583.11819016569
 20
8890.013745883727
 30
0.0
 40
100.0
  1
シャッターカバー
 41
0.9
  7
STYLE1
100
AcDbText
  0
TEXT
  5
176BF
330
747D
100
AcDbEntity
  8
文字
 62
     7
 48
50.0
100
AcDbText
 10
13248.77747366448
 20
9230.013745883727
 30
0.0
 40
100.0
  1
11
  7
STYLE1
100
AcDbText
  0
LINE
  5
176C0
330
747D
100
AcDbEntity
  8
仕様書枠
 48
50.0
100
AcDbLine
 10
16307.19999999999
 20
9709.6
 30
0.0
 11
13127.19999999999
 21
9709.600000000001
 31
0.0
  0
LINE
  5
176C1
330
747D
100
AcDbEntity
  8
仕様書枠
 48
50.0
100
AcDbLine
 10
16307.19999999999
 20
10049.6
 30
0.0
 11
13127.2
 21
10049.6
 31
0.0
  0
LINE
  5
176C2
330
747D
100
AcDbEntity
  8
仕様書枠
 48
50.0
100
AcDbLine
 10
16307.19999999999
 20
9369.599999999998
 30
0.0
 11
13127.19999999999
 21
9369.600000000001
 31
0.0
  0
LINE
  5
176C3
330
747D
100
AcDbEntity
  8
仕様書枠
 48
50.0
100
AcDbLine
 10
16307.19999999999
 20
9199.599999999998
 30
0.0
 11
13127.19999999999
 21
9199.600000000001
 31
0.0
  0
LINE
  5
176C4
330
747D
100
AcDbEntity
  8
仕様書枠
 48
50.0
100
AcDbLine
 10
16307.19999999999
 20
9539.599999999998
 30
0.0
 11
13127.19999999999
 21
9539.6
 31
0.0
  0
TEXT
  5
176C5
330
747D
100
AcDbEntity
  8
文字
 62
     7
 48
50.0
100
AcDbText
 10
13271.19032244792
 20
10080.01374588373
 30
0.0
 40
100.0
  1
6
  7
STYLE1
100
AcDbText
  0
TEXT
  5
176C6
330
747D
100
AcDbEntity
  8
文字
 62
     7
 48
50.0
100
AcDbText
 10
13271.19032244792
 20
9910.01374588373
 30
0.0
 40
100.0
  1
7
  7
STYLE1
100
AcDbText
  0
TEXT
  5
176C7
330
747D
100
AcDbEntity
  8
文字
 62
     7
 48
50.0
100
AcDbText
 10
13271.19032244792
 20
9570.013745883729
 30
0.0
 40
100.0
  1
9
  7
STYLE1
100
AcDbText
  0
TEXT
  5
176C8
330
747D
100
AcDbEntity
  8
文字
 62
     7
 48
50.0
100
AcDbText
 10
13271.19032244792
 20
9740.013745883729
 30
0.0
 40
100.0
  1
8
  7
STYLE1
100
AcDbText
  0
TEXT
  5
176C9
330
747D
100
AcDbEntity
  8
文字
 62
     7
 48
50.0
100
AcDbText
 10
13583.11819016569
 20
10080.01374588372
 30
0.0
 40
100.0
  1
鼻隠シ前後
  7
STYLE1
100
AcDbText
  0
TEXT
  5
176CA
330
747D
100
AcDbEntity
  8
文字
 62
     7
 48
50.0
100
AcDbText
 10
13583.11819016569
 20
9740.013745883729
 30
0.0
 40
100.0
  1
母屋中
  7
STYLE1
100
AcDbText
  0
TEXT
  5
176CB
330
747D
100
AcDbEntity
  8
文字
 62
     7
 48
50.0
100
AcDbText
 10
13583.11819016569
 20
9570.013745883727
 30
0.0
 40
100.0
  1
屋根パネル
  7
STYLE1
100
AcDbText
  0
TEXT
  5
176CC
330
747D
100
AcDbEntity
  8
文字
 62
     7
 48
50.0
100
AcDbText
 10
13583.11819016569
 20
9400.013745883729
 30
0.0
 40
100.0
  1
壁パネル
  7
STYLE1
100
AcDbText
  0
TEXT
  5
176CD
330
747D
100
AcDbEntity
  8
文字
 62
     7
 48
50.0
100
AcDbText
 10
13248.77747366448
 20
9400.013745883727
 30
0.0
 40
100.0
  1
10
  7
STYLE1
100
AcDbText
  0
TEXT
  5
176CE
330
747D
100
AcDbEntity
  8
文字
 62
     7
 48
50.0
100
AcDbText
 10
13583.11819016569
 20
8720.013745883727
 30
0.0
 40
100.0
  1
シャッターレール
  7
STYLE1
100
AcDbText
  0
TEXT
  5
176CF
330
747D
100
AcDbEntity
  8
文字
 62
     7
 48
50.0
100
AcDbText
 10
13583.11819016569
 20
10250.01374588373
 30
0.0
 40
100.0
  1
妻板左右
  7
STYLE1
100
AcDbText
  0
TEXT
  5
176D0
330
747D
100
AcDbEntity
  8
文字
 62
     7
 48
50.0
100
AcDbText
 10
13271.19032244792
 20
10250.01374588373
 30
0.0
 40
100.0
  1
5
  7
STYLE1
100
AcDbText
  0
TEXT
  5
176D1
330
747D
100
AcDbEntity
  8
文字
 62
     7
 48
50.0
100
AcDbText
 10
13583.11819016569
 20
10420.01374588373
 30
0.0
 40
100.0
  1
桁後
  7
STYLE1
100
AcDbText
  0
TEXT
  5
176D2
330
747D
100
AcDbEntity
  8
文字
 62
     7
 48
50.0
100
AcDbText
 10
13583.11819016569
 20
10590.01374588373
 30
0.0
 40
100.0
  1
桁前
  7
STYLE1
100
AcDbText
  0
TEXT
  5
176D3
330
747D
100
AcDbEntity
  8
文字
 62
     7
 48
50.0
100
AcDbText
 10
13583.11819016569
 20
10760.01374588372
 30
0.0
 40
100.0
  1
柱
  7
STYLE1
100
AcDbText
  0
TEXT
  5
176D4
330
747D
100
AcDbEntity
  8
文字
 62
     7
 48
50.0
100
AcDbText
 10
13583.11819016569
 20
10930.01374588372
 30
0.0
 40
100.0
  1
土台枠
  7
STYLE1
100
AcDbText
  0
TEXT
  5
176D5
330
747D
100
AcDbEntity
  8
文字
 62
     7
 48
50.0
100
AcDbText
 10
14859.79774614482
 20
11100.01374588373
 30
0.0
 40
100.0
  1
材料（材質）　　単位mm
  7
STYLE1
100
AcDbText
  0
TEXT
  5
176D6
330
747D
100
AcDbEntity
  8
文字
 62
     7
 48
50.0
100
AcDbText
 10
13732.03840939434
 20
11100.01374588373
 30
0.0
 40
100.0
  1
部　　品　　名
  7
STYLE1
100
AcDbText
  0
TEXT
  5
176D7
330
747D
100
AcDbEntity
  8
文字
 62
     7
 48
50.0
100
AcDbText
 10
13271.19032244792
 20
10590.01374588373
 30
0.0
 40
100.0
  1
3
  7
STYLE1
100
AcDbText
  0
TEXT
  5
176D8
330
747D
100
AcDbEntity
  8
文字
 62
     7
 48
50.0
100
AcDbText
 10
13271.19032244792
 20
10420.01374588373
 30
0.0
 40
100.0
  1
4
  7
STYLE1
100
AcDbText
  0
TEXT
  5
176D9
330
747D
100
AcDbEntity
  8
文字
 62
     7
 48
50.0
100
AcDbText
 10
13271.19032244792
 20
10760.01374588373
 30
0.0
 40
100.0
  1
2
  7
STYLE1
100
AcDbText
  0
TEXT
  5
176DA
330
747D
100
AcDbEntity
  8
文字
 62
     7
 48
50.0
100
AcDbText
 10
13271.19032244792
 20
10930.01374588373
 30
0.0
 40
100.0
  1
1
  7
STYLE1
100
AcDbText
  0
TEXT
  5
176DB
330
747D
100
AcDbEntity
  8
文字
 62
     7
 48
50.0
100
AcDbText
 10
13197.42518560407
 20
11100.01374588373
 30
0.0
 40
100.0
  1
品番
  7
STYLE1
100
AcDbText
  0
LINE
  5
176DC
330
747D
100
AcDbEntity
  8
仕様書枠
 48
50.0
100
AcDbLine
 10
16307.19999999999
 20
10559.6
 30
0.0
 11
13127.19999999999
 21
10559.6
 31
0.0
  0
LINE
  5
176DD
330
747D
100
AcDbEntity
  8
仕様書枠
 48
50.0
100
AcDbLine
 10
16307.19999999999
 20
10219.6
 30
0.0
 11
13127.19999999999
 21
10219.6
 31
0.0
  0
LINE
  5
176DE
330
747D
100
AcDbEntity
  8
仕様書枠
 48
50.0
100
AcDbLine
 10
16307.19999999999
 20
10389.6
 30
0.0
 11
13127.19999999999
 21
10389.6
 31
0.0
  0
LINE
  5
176DF
330
747D
100
AcDbEntity
  8
仕様書枠
 48
50.0
100
AcDbLine
 10
16307.19999999999
 20
10899.6
 30
0.0
 11
13127.2
 21
10899.6
 31
0.0
  0
LINE
  5
176E0
330
747D
100
AcDbEntity
  8
仕様書枠
 48
50.0
100
AcDbLine
 10
16307.19999999999
 20
10729.6
 30
0.0
 11
13127.2
 21
10729.6
 31
0.0
  0
LINE
  5
176E1
330
747D
100
AcDbEntity
  8
仕様書枠
 48
50.0
100
AcDbLine
 10
16307.19999999999
 20
11069.6
 30
0.0
 11
13127.2
 21
11069.6
 31
0.0
  0
LINE
  5
176E2
330
747D
100
AcDbEntity
  8
仕様書枠
 48
50.0
100
AcDbLine
 10
13490.2
 20
11239.6
 30
0.0
 11
13490.20000000001
 21
8689.6
 31
0.0
  0
LINE
  5
176E3
330
747D
100
AcDbEntity
  8
仕様書枠
 48
50.0
100
AcDbLine
 10
14785.2
 20
11239.59999999999
 30
0.0
 11
14785.19999999999
 21
8689.6
 31
0.0
  0
LINE
  5
176E4
330
747D
100
AcDbEntity
  8
仕様書枠
 48
50.0
100
AcDbLine
 10
16307.19999999999
 20
8179.6
 30
0.0
 11
16307.2
 21
11239.6
 31
0.0
  0
LINE
  5
176E5
330
747D
100
AcDbEntity
  8
仕様書枠
 48
50.0
100
AcDbLine
 10
16307.19999999999
 20
11239.6
 30
0.0
 11
13127.2
 21
11239.6
 31
0.0
  0
LINE
  5
176E6
330
747D
100
AcDbEntity
  8
仕様書枠
 48
50.0
100
AcDbLine
 10
16307.19999999999
 20
9879.599999999999
 30
0.0
 11
13127.19999999999
 21
9879.600000000001
 31
0.0
  0
TEXT
  5
176E7
330
747D
100
AcDbEntity
  8
文字
 62
     7
 48
50.0
100
AcDbText
 10
13583.11819016569
 20
9910.01374588373
 30
0.0
 40
100.0
  1
梁中
  7
STYLE1
100
AcDbText
  0
TEXT
  5
176E8
330
747D
100
AcDbEntity
  8
文字
 62
     7
 48
50.0
100
AcDbText
 10
15022.63965474516
 20
9910.013745883727
 30
0.0
 40
100.0
  1
F12,Y10        1.0
  7
STYLE1
100
AcDbText
  0
LINE
  5
17B6F
330
747D
100
AcDbEntity
  8
部品1
 48
50.0
100
AcDbLine
 10
7328.266602670481
 20
4512.931598713262
 30
0.0
 11
7328.266602670481
 21
4771.931598713265
 31
0.0
  0
LINE
  5
17B70
330
747D
100
AcDbEntity
  8
部品1
 48
50.0
100
AcDbLine
 10
7318.266602670481
 20
4771.931598713265
 30
0.0
 11
7318.266602670481
 21
4912.931598713264
 31
0.0
  0
ARC
  5
17B71
330
747D
100
AcDbEntity
  8
部品1
100
AcDbCircle
 10
10420.85818156406
 20
4905.931598713264
 30
0.0
 40
7.0
100
AcDbArc
 50
356.7526572096623
 51
90.0
  0
ARC
  5
17B72
330
747D
100
AcDbEntity
  8
部品1
100
AcDbCircle
 10
10407.64285810302
 20
4778.931598713266
 30
0.0
 40
7.0
100
AcDbArc
 50
270.0
 51
356.7526572096623
  0
ARC
  5
17B73
330
747D
100
AcDbEntity
  8
部品1
 48
50.0
100
AcDbCircle
 10
10426.0146683137
 20
4885.598597874952
 30
0.0
 40
0.7
100
AcDbArc
 50
277.6581272073635
 51
356.7526572096103
  0
ARC
  5
17B74
330
747D
100
AcDbEntity
  8
部品1
 48
50.0
100
AcDbCircle
 10
10417.77863778886
 20
4793.398597874946
 30
0.0
 40
0.7
100
AcDbArc
 50
277.6581272073635
 51
356.7526572097079
  0
ARC
  5
17B75
330
747D
100
AcDbEntity
  8
部品1
 48
50.0
100
AcDbCircle
 10
10418.27170689742
 20
4789.731598713263
 30
0.0
 40
3.0
100
AcDbArc
 50
97.65812720736347
 51
176.7526572096623
  0
ARC
  5
17B76
330
747D
100
AcDbEntity
  8
部品1
 48
50.0
100
AcDbCircle
 10
10426.50773742226
 20
4881.931598713266
 30
0.0
 40
3.0
100
AcDbArc
 50
97.65812720736347
 51
176.7526572096623
  0
LINE
  5
17B77
330
747D
100
AcDbEntity
  8
部品1
100
AcDbLine
 10
10423.51255452607
 20
4882.101538168367
 30
0.0
 11
10418.47751379797
 21
4793.358945335424
 31
0.0
  0
LINE
  5
17B78
330
747D
100
AcDbEntity
  8
部品1
100
AcDbLine
 10
10415.27652400123
 20
4789.901538168367
 30
0.0
 11
10414.63161819412
 21
4778.535073318026
 31
0.0
  0
LINE
  5
17B79
330
747D
100
AcDbEntity
  8
細線
 48
50.0
100
AcDbLine
 10
10395.26660267049
 20
4912.931598713264
 30
0.0
 11
10395.26660267049
 21
4771.931598713264
 31
0.0
  0
LINE
  5
17B7A
330
747D
100
AcDbEntity
  8
部品1
100
AcDbLine
 10
10427.84694165515
 20
4905.535073318024
 30
0.0
 11
10426.71354432281
 21
4885.558945335425
 31
0.0
  0
LINE
  5
17B7B
330
747D
100
AcDbEntity
  8
細線
 48
50.0
100
AcDbLine
 10
10417.87192113373
 20
4792.704841276732
 30
0.0
 11
7318.266602670481
 21
4792.704841277097
 31
0.0
  0
LINE
  5
17B7C
330
747D
100
AcDbEntity
  8
細線
 48
50.0
100
AcDbLine
 10
10426.10795165857
 20
4884.904841276732
 30
0.0
 11
7318.266602670481
 21
4884.904841276739
 31
0.0
  0
LINE
  5
17B7D
330
747D
100
AcDbEntity
  8
部品1
 48
50.0
100
AcDbLine
 10
10407.64285810302
 20
4771.931598713265
 30
0.0
 11
7328.266602670481
 21
4771.931598713265
 31
0.0
  0
LINE
  5
17B7E
330
747D
100
AcDbEntity
  8
部品1
 48
50.0
100
AcDbLine
 10
10420.85818156406
 20
4912.931598713264
 30
0.0
 11
7318.266602670481
 21
4912.931598713264
 31
0.0
  0
DIMENSION
  5
17BAC
330
747D
100
AcDbEntity
  8
寸法
 48
50.0
100
AcDbDimension
  2
*D26
 10
10378.26660267049
 20
5125.473183971505
 30
0.0
 11
10741.75188404473
 21
5125.473183971505
 31
0.0
 70
   160
 71
     5
 42
50.0
  3
INABA_S40G
100
AcDbAlignedDimension
 13
10428.26660267049
 23
4912.931598713264
 33
0.0
 14
10378.26660267049
 24
4912.931598713266
 34
0.0
100
AcDbRotatedDimension
  0
ARC
  5
17BAE
330
747D
100
AcDbEntity
  8
細線
 48
50.0
100
AcDbCircle
 10
8553.266602670479
 20
3100.431598713262
 30
0.0
 40
15.0
100
AcDbArc
 50
90.0
 51
270.0
  0
ARC
  5
17BAF
330
747D
100
AcDbEntity
  8
細線
 48
50.0
100
AcDbCircle
 10
8653.266602670479
 20
3100.431598713262
 30
0.0
 40
15.0
100
AcDbArc
 50
270.0
 51
90.0
  0
LINE
  5
17BB0
330
747D
100
AcDbEntity
  8
細線
 48
50.0
100
AcDbLine
 10
8553.266602670479
 20
3115.431598713261
 30
0.0
 11
8653.266602670479
 21
3115.431598713261
 31
0.0
  0
LINE
  5
17BB1
330
747D
100
AcDbEntity
  8
細線
 48
50.0
100
AcDbLine
 10
8653.266602670479
 20
3085.431598713262
 30
0.0
 11
8553.266602670479
 21
3085.431598713262
 31
0.0
  0
LINE
  5
17BB2
330
747D
100
AcDbEntity
  8
細線
 48
50.0
100
AcDbLine
 10
9153.266602670479
 20
3085.431598713262
 30
0.0
 11
9053.266602670479
 21
3085.431598713262
 31
0.0
  0
LINE
  5
17BB3
330
747D
100
AcDbEntity
  8
細線
 48
50.0
100
AcDbLine
 10
9053.266602670479
 20
3115.431598713261
 30
0.0
 11
9153.266602670479
 21
3115.431598713261
 31
0.0
  0
ARC
  5
17BB4
330
747D
100
AcDbEntity
  8
細線
 48
50.0
100
AcDbCircle
 10
9053.266602670479
 20
3100.431598713262
 30
0.0
 40
15.0
100
AcDbArc
 50
90.0
 51
270.0
  0
ARC
  5
17BB5
330
747D
100
AcDbEntity
  8
細線
 48
50.0
100
AcDbCircle
 10
9153.266602670479
 20
3100.431598713262
 30
0.0
 40
15.0
100
AcDbArc
 50
270.0
 51
90.0
  0
CIRCLE
  5
17BB6
330
747D
100
AcDbEntity
  8
細線
 48
50.0
100
AcDbCircle
 10
8853.266602670478
 20
3425.431598713262
 30
0.0
 40
18.0
  0
LINE
  5
17BBA
330
747D
100
AcDbEntity
  8
細線
100
AcDbLine
 10
10275.26660267048
 20
2547.931598713262
 30
0.0
 11
7431.266602670476
 21
2547.931598713262
 31
0.0
  0
LINE
  5
17BBB
330
747D
100
AcDbEntity
  8
細線
100
AcDbLine
 10
7431.266602670477
 20
3067.931598713262
 30
0.0
 11
10275.26660267048
 21
3067.931598713262
 31
0.0
  0
LINE
  5
17BBC
330
747D
100
AcDbEntity
  8
細線
100
AcDbLine
 10
7431.266602670477
 20
3002.931598713261
 30
0.0
 11
10275.26660267048
 21
3002.931598713261
 31
0.0
  0
LINE
  5
17BBD
330
747D
100
AcDbEntity
  8
細線
100
AcDbLine
 10
7431.266602670477
 20
2937.931598713261
 30
0.0
 11
10275.26660267048
 21
2937.931598713261
 31
0.0
  0
LINE
  5
17BBE
330
747D
100
AcDbEntity
  8
細線
100
AcDbLine
 10
7431.266602670477
 20
2872.931598713261
 30
0.0
 11
10275.26660267048
 21
2872.931598713261
 31
0.0
  0
LINE
  5
17BBF
330
747D
100
AcDbEntity
  8
細線
100
AcDbLine
 10
7431.266602670477
 20
2807.931598713262
 30
0.0
 11
10275.26660267048
 21
2807.931598713262
 31
0.0
  0
LINE
  5
17BC0
330
747D
100
AcDbEntity
  8
細線
100
AcDbLine
 10
7431.266602670477
 20
2742.931598713262
 30
0.0
 11
10275.26660267048
 21
2742.931598713262
 31
0.0
  0
LINE
  5
17BC1
330
747D
100
AcDbEntity
  8
細線
100
AcDbLine
 10
7431.266602670477
 20
2677.931598713261
 30
0.0
 11
10275.26660267048
 21
2677.931598713261
 31
0.0
  0
LINE
  5
17BC2
330
747D
100
AcDbEntity
  8
細線
100
AcDbLine
 10
7431.266602670477
 20
2612.931598713262
 30
0.0
 11
10275.26660267048
 21
2612.931598713262
 31
0.0
  0
LINE
  5
17BC3
330
747D
100
AcDbEntity
  8
細線
100
AcDbLine
 10
7431.266602670477
 20
2547.931598713262
 30
0.0
 11
10275.26660267048
 21
2547.931598713262
 31
0.0
  0
LINE
  5
17BC4
330
747D
100
AcDbEntity
  8
細線
100
AcDbLine
 10
7431.266602670477
 20
4367.931598713261
 30
0.0
 11
10275.26660267048
 21
4367.931598713261
 31
0.0
  0
LINE
  5
17BC5
330
747D
100
AcDbEntity
  8
細線
100
AcDbLine
 10
7431.266602670477
 20
4497.931598713261
 30
0.0
 11
10275.26660267048
 21
4497.931598713261
 31
0.0
  0
LINE
  5
17BC6
330
747D
100
AcDbEntity
  8
細線
100
AcDbLine
 10
7431.266602670477
 20
4432.931598713262
 30
0.0
 11
10275.26660267048
 21
4432.931598713262
 31
0.0
  0
LINE
  5
17BC7
330
747D
100
AcDbEntity
  8
細線
100
AcDbLine
 10
7431.266602670477
 20
3717.931598713261
 30
0.0
 11
10275.26660267048
 21
3717.931598713261
 31
0.0
  0
LINE
  5
17BC8
330
747D
100
AcDbEntity
  8
細線
100
AcDbLine
 10
7431.266602670477
 20
3652.931598713261
 30
0.0
 11
10275.26660267048
 21
3652.931598713261
 31
0.0
  0
LINE
  5
17BC9
330
747D
100
AcDbEntity
  8
細線
100
AcDbLine
 10
7431.266602670477
 20
3587.931598713261
 30
0.0
 11
10275.26660267048
 21
3587.931598713261
 31
0.0
  0
LINE
  5
17BCA
330
747D
100
AcDbEntity
  8
細線
100
AcDbLine
 10
7431.266602670477
 20
3522.931598713262
 30
0.0
 11
10275.26660267048
 21
3522.931598713262
 31
0.0
  0
LINE
  5
17BCB
330
747D
100
AcDbEntity
  8
細線
100
AcDbLine
 10
7431.266602670477
 20
3457.931598713262
 30
0.0
 11
10275.26660267048
 21
3457.931598713262
 31
0.0
  0
LINE
  5
17BCC
330
747D
100
AcDbEntity
  8
細線
100
AcDbLine
 10
7431.266602670477
 20
3392.931598713261
 30
0.0
 11
10275.26660267048
 21
3392.931598713261
 31
0.0
  0
LINE
  5
17BCD
330
747D
100
AcDbEntity
  8
細線
100
AcDbLine
 10
7431.266602670477
 20
3327.931598713262
 30
0.0
 11
10275.26660267048
 21
3327.931598713262
 31
0.0
  0
LINE
  5
17BCE
330
747D
100
AcDbEntity
  8
細線
100
AcDbLine
 10
7431.266602670477
 20
3262.931598713262
 30
0.0
 11
10275.26660267048
 21
3262.931598713262
 31
0.0
  0
LINE
  5
17BCF
330
747D
100
AcDbEntity
  8
細線
100
AcDbLine
 10
7431.266602670477
 20
3197.931598713262
 30
0.0
 11
10275.26660267048
 21
3197.931598713262
 31
0.0
  0
LINE
  5
17BD0
330
747D
100
AcDbEntity
  8
細線
100
AcDbLine
 10
7431.266602670477
 20
3132.931598713261
 30
0.0
 11
10275.26660267048
 21
3132.931598713261
 31
0.0
  0
LINE
  5
17BD1
330
747D
100
AcDbEntity
  8
細線
100
AcDbLine
 10
7431.266602670477
 20
4107.931598713261
 30
0.0
 11
10275.26660267048
 21
4107.931598713261
 31
0.0
  0
LINE
  5
17BD2
330
747D
100
AcDbEntity
  8
細線
100
AcDbLine
 10
7431.266602670477
 20
4042.931598713261
 30
0.0
 11
10275.26660267048
 21
4042.931598713261
 31
0.0
  0
LINE
  5
17BD3
330
747D
100
AcDbEntity
  8
細線
100
AcDbLine
 10
7431.266602670477
 20
3977.931598713261
 30
0.0
 11
10275.26660267048
 21
3977.931598713261
 31
0.0
  0
LINE
  5
17BD4
330
747D
100
AcDbEntity
  8
細線
100
AcDbLine
 10
7431.266602670477
 20
3912.931598713262
 30
0.0
 11
10275.26660267048
 21
3912.931598713262
 31
0.0
  0
LINE
  5
17BD5
330
747D
100
AcDbEntity
  8
細線
100
AcDbLine
 10
7431.266602670477
 20
3847.931598713262
 30
0.0
 11
10275.26660267048
 21
3847.931598713262
 31
0.0
  0
LINE
  5
17BD6
330
747D
100
AcDbEntity
  8
細線
100
AcDbLine
 10
7431.266602670477
 20
3782.931598713262
 30
0.0
 11
10275.26660267048
 21
3782.931598713262
 31
0.0
  0
LINE
  5
17BD7
330
747D
100
AcDbEntity
  8
細線
100
AcDbLine
 10
7431.266602670477
 20
4302.931598713261
 30
0.0
 11
10275.26660267048
 21
4302.931598713261
 31
0.0
  0
LINE
  5
17BD8
330
747D
100
AcDbEntity
  8
細線
100
AcDbLine
 10
7431.266602670477
 20
4237.931598713261
 30
0.0
 11
10275.26660267048
 21
4237.931598713261
 31
0.0
  0
LINE
  5
17BD9
330
747D
100
AcDbEntity
  8
細線
100
AcDbLine
 10
7431.266602670477
 20
4172.931598713261
 30
0.0
 11
10275.26660267048
 21
4172.931598713261
 31
0.0
  0
LINE
  5
17BDA
330
747D
100
AcDbEntity
  8
部品1
100
AcDbLine
 10
7383.266602670481
 20
4512.931598713261
 30
0.0
 11
10378.26660267048
 21
4512.931598713262
 31
0.0
  0
LINE
  5
17BDD
330
747D
100
AcDbEntity
  8
部品1
100
AcDbLine
 10
10275.26660267048
 20
4512.931598713262
 30
0.0
 11
10275.26660267048
 21
2537.931598713262
 31
0.0
  0
LINE
  5
17BDE
330
747D
100
AcDbEntity
  8
部品1
100
AcDbLine
 10
7431.266602670482
 20
4512.931598713261
 30
0.0
 11
7431.266602670482
 21
2537.931598713262
 31
0.0
  0
LINE
  5
17BE6
330
747D
100
AcDbEntity
  8
部品1
100
AcDbLine
 10
10378.26660267048
 20
4771.931598713266
 30
0.0
 11
10378.26660267048
 21
2437.931598713261
 31
0.0
  0
LINE
  5
17BE7
330
747D
100
AcDbEntity
  8
部品1
100
AcDbLine
 10
7383.266602670483
 20
4512.931598713262
 30
0.0
 11
7383.266602670481
 21
2537.931598713262
 31
0.0
  0
LINE
  5
17BE8
330
747D
100
AcDbEntity
  8
部品1
100
AcDbLine
 10
10323.26660267048
 20
4512.931598713262
 30
0.0
 11
10323.26660267048
 21
2537.931598713262
 31
0.0
  0
LINE
  5
17BE9
330
747D
100
AcDbEntity
  8
部品1
100
AcDbLine
 10
7328.266602670481
 20
4677.931598713261
 30
0.0
 11
10378.26660267048
 21
4677.931598713261
 31
0.0
  0
LINE
  5
17BF0
330
747D
100
AcDbEntity
  8
部品1
100
AcDbLine
 10
4278.266602670468
 20
4677.931598713261
 30
0.0
 11
7328.266602670481
 21
4677.931598713261
 31
0.0
  0
LINE
  5
17BF2
330
747D
100
AcDbEntity
  8
部品1
100
AcDbLine
 10
7273.266602670466
 20
4512.931598713262
 30
0.0
 11
7273.266602670465
 21
2537.931598713262
 31
0.0
  0
LINE
  5
17BF3
330
747D
100
AcDbEntity
  8
部品1
100
AcDbLine
 10
4333.266602670469
 20
4512.931598713262
 30
0.0
 11
4333.266602670469
 21
2537.931598713262
 31
0.0
  0
LINE
  5
17BFA
330
747D
100
AcDbEntity
  8
部品1
100
AcDbLine
 10
4381.266602670468
 20
4512.931598713261
 30
0.0
 11
4381.266602670468
 21
2537.931598713262
 31
0.0
  0
LINE
  5
17BFC
330
747D
100
AcDbEntity
  8
部品1
100
AcDbLine
 10
7225.266602670469
 20
4512.931598713262
 30
0.0
 11
7225.266602670465
 21
2537.931598713262
 31
0.0
  0
LINE
  5
17C64
330
747D
100
AcDbEntity
  8
部品1
100
AcDbLine
 10
13005.44337606007
 20
2537.93159871326
 30
0.0
 11
12612.44616185122
 21
2437.93159871326
 31
0.0
  0
LINE
  5
17C65
330
747D
100
AcDbEntity
  8
破線
 48
5.0
100
AcDbLine
 10
13005.44337606007
 20
2187.931598713258
 30
0.0
 11
13060.44337606007
 21
2187.931598713258
 31
0.0
  0
LINE
  5
17C66
330
747D
100
AcDbEntity
  8
破線
 48
5.0
100
AcDbLine
 10
13060.44337606007
 20
2437.93159871326
 30
0.0
 11
13060.44337606007
 21
2187.931598713258
 31
0.0
  0
LINE
  5
17C67
330
747D
100
AcDbEntity
  8
破線
 48
5.0
100
AcDbLine
 10
13005.44337606007
 20
2437.93159871326
 30
0.0
 11
13005.44337606007
 21
2187.931598713258
 31
0.0
  0
DIMENSION
  5
17C6D
330
747D
100
AcDbEntity
  8
寸法
 48
50.0
100
AcDbDimension
  2
*D27
 10
12384.83496929169
 20
4787.27685758659
 30
0.0
 11
12395.50044455062
 21
5158.12352082829
 31
0.0
 70
   161
 71
     5
 42
141.0
  3
INABA_S40G
100
AcDbAlignedDimension
 13
12964.83939621865
 23
4911.654347547938
 33
0.0
 14
12960.78594066202
 24
4770.712623782226
 34
0.0
1001
ACAD
1000
DSTYLE
1002
{
1070
   174
1070
     0
1070
   272
1070
     1
1070
   288
1070
     0
1070
   341
1005
0
1002
}
  0
LINE
  5
17C6E
330
747D
100
AcDbEntity
  8
細線
 48
50.0
100
AcDbLine
 10
15502.94337606008
 20
4677.931598713258
 30
0.0
 11
15502.94337606008
 21
2587.93159871326
 31
0.0
  0
LINE
  5
17C6F
330
747D
100
AcDbEntity
  8
細線
 48
50.0
100
AcDbLine
 10
15517.94337606008
 20
4677.931598713258
 30
0.0
 11
15517.94337606008
 21
2587.93159871326
 31
0.0
  0
LINE
  5
17C70
330
747D
100
AcDbEntity
  8
細線
 48
50.0
100
AcDbLine
 10
15377.94337606008
 20
4677.931598713258
 30
0.0
 11
15377.94337606008
 21
2587.93159871326
 31
0.0
  0
LINE
  5
17C71
330
747D
100
AcDbEntity
  8
細線
 48
50.0
100
AcDbLine
 10
15362.94337606008
 20
4677.931598713258
 30
0.0
 11
15362.94337606008
 21
2587.93159871326
 31
0.0
  0
LINE
  5
17C72
330
747D
100
AcDbEntity
  8
細線
 48
50.0
100
AcDbLine
 10
15222.94337606008
 20
4677.931598713258
 30
0.0
 11
15222.94337606008
 21
2587.93159871326
 31
0.0
  0
LINE
  5
17C73
330
747D
100
AcDbEntity
  8
細線
 48
50.0
100
AcDbLine
 10
15237.94337606008
 20
4677.931598713258
 30
0.0
 11
15237.94337606008
 21
2587.93159871326
 31
0.0
  0
LINE
  5
17C74
330
747D
100
AcDbEntity
  8
部品1
100
AcDbLine
 10
14320.44337606007
 20
4677.931598713258
 30
0.0
 11
14320.44337606007
 21
2587.93159871326
 31
0.0
  0
LINE
  5
17C75
330
747D
100
AcDbEntity
  8
細線
 48
50.0
100
AcDbLine
 10
13977.94337606007
 20
4677.931598713258
 30
0.0
 11
13977.94337606007
 21
2587.93159871326
 31
0.0
  0
LINE
  5
17C76
330
747D
100
AcDbEntity
  8
細線
 48
50.0
100
AcDbLine
 10
13962.94337606007
 20
4677.931598713258
 30
0.0
 11
13962.94337606007
 21
2587.93159871326
 31
0.0
  0
LINE
  5
17C77
330
747D
100
AcDbEntity
  8
細線
 48
50.0
100
AcDbLine
 10
14102.94337606007
 20
4677.931598713258
 30
0.0
 11
14102.94337606007
 21
2587.93159871326
 31
0.0
  0
LINE
  5
17C78
330
747D
100
AcDbEntity
  8
細線
 48
50.0
100
AcDbLine
 10
14117.94337606007
 20
4677.931598713258
 30
0.0
 11
14117.94337606007
 21
2587.93159871326
 31
0.0
  0
LINE
  5
17C79
330
747D
100
AcDbEntity
  8
細線
 48
50.0
100
AcDbLine
 10
14257.94337606007
 20
4677.931598713258
 30
0.0
 11
14257.94337606007
 21
2587.93159871326
 31
0.0
  0
LINE
  5
17C7A
330
747D
100
AcDbEntity
  8
細線
 48
50.0
100
AcDbLine
 10
14242.94337606007
 20
4677.931598713258
 30
0.0
 11
14242.94337606007
 21
2587.93159871326
 31
0.0
  0
LINE
  5
17C7B
330
747D
100
AcDbEntity
  8
部品1
100
AcDbLine
 10
13900.44337606007
 20
4677.931598713258
 30
0.0
 11
13900.44337606007
 21
2587.93159871326
 31
0.0
  0
DIMENSION
  5
17C7C
330
747D
100
AcDbEntity
  8
寸法
 48
50.0
100
AcDbDimension
  2
*D28
 10
15715.44337606007
 20
5311.589052292564
 30
0.0
 11
15921.49062015456
 21
5311.589052292564
 31
0.0
 70
   160
 71
     5
 42
80.0
  3
INABA_S40G
100
AcDbAlignedDimension
 13
15635.44337606007
 23
4859.742278324912
 33
0.0
 14
15715.44337606007
 24
4857.93159871326
 34
0.0
100
AcDbRotatedDimension
1001
ACAD
1000
DSTYLE
1002
{
1070
   174
1070
     0
1070
   272
1070
     1
1070
   288
1070
     0
1070
   341
1005
0
1002
}
  0
LINE
  5
17C7D
330
747D
100
AcDbEntity
  8
細線
 48
50.0
100
AcDbLine
 10
13137.94337606007
 20
4677.931598713258
 30
0.0
 11
13137.94337606007
 21
2587.93159871326
 31
0.0
  0
LINE
  5
17C7E
330
747D
100
AcDbEntity
  8
細線
 48
50.0
100
AcDbLine
 10
13122.94337606007
 20
4677.931598713258
 30
0.0
 11
13122.94337606007
 21
2587.93159871326
 31
0.0
  0
LINE
  5
17C7F
330
747D
100
AcDbEntity
  8
細線
 48
50.0
100
AcDbLine
 10
13262.94337606007
 20
4677.931598713258
 30
0.0
 11
13262.94337606007
 21
2587.93159871326
 31
0.0
  0
LINE
  5
17C80
330
747D
100
AcDbEntity
  8
細線
 48
50.0
100
AcDbLine
 10
13277.94337606007
 20
4677.931598713258
 30
0.0
 11
13277.94337606007
 21
2587.93159871326
 31
0.0
  0
LINE
  5
17C81
330
747D
100
AcDbEntity
  8
細線
 48
50.0
100
AcDbLine
 10
13417.94337606007
 20
4677.931598713258
 30
0.0
 11
13417.94337606007
 21
2587.93159871326
 31
0.0
  0
LINE
  5
17C82
330
747D
100
AcDbEntity
  8
細線
 48
50.0
100
AcDbLine
 10
13402.94337606007
 20
4677.931598713258
 30
0.0
 11
13402.94337606007
 21
2587.93159871326
 31
0.0
  0
LINE
  5
17C83
330
747D
100
AcDbEntity
  8
細線
 48
50.0
100
AcDbLine
 10
13822.94337606007
 20
4677.931598713258
 30
0.0
 11
13822.94337606007
 21
2587.93159871326
 31
0.0
  0
LINE
  5
17C84
330
747D
100
AcDbEntity
  8
細線
 48
50.0
100
AcDbLine
 10
13837.94337606007
 20
4677.931598713258
 30
0.0
 11
13837.94337606007
 21
2587.93159871326
 31
0.0
  0
LINE
  5
17C85
330
747D
100
AcDbEntity
  8
細線
 48
50.0
100
AcDbLine
 10
13697.94337606007
 20
4677.931598713258
 30
0.0
 11
13697.94337606007
 21
2587.93159871326
 31
0.0
  0
LINE
  5
17C86
330
747D
100
AcDbEntity
  8
細線
 48
50.0
100
AcDbLine
 10
13682.94337606007
 20
4677.931598713258
 30
0.0
 11
13682.94337606007
 21
2587.93159871326
 31
0.0
  0
LINE
  5
17C87
330
747D
100
AcDbEntity
  8
細線
 48
50.0
100
AcDbLine
 10
13542.94337606007
 20
4677.931598713258
 30
0.0
 11
13542.94337606007
 21
2587.93159871326
 31
0.0
  0
LINE
  5
17C88
330
747D
100
AcDbEntity
  8
細線
 48
50.0
100
AcDbLine
 10
13557.94337606007
 20
4677.931598713258
 30
0.0
 11
13557.94337606007
 21
2587.93159871326
 31
0.0
  0
LINE
  5
17C89
330
747D
100
AcDbEntity
  8
部品1
100
AcDbLine
 10
13060.44337606007
 20
2537.931598713258
 30
0.0
 11
15635.44337606007
 21
2537.93159871326
 31
0.0
  0
DIMENSION
  5
17C8A
330
747D
100
AcDbEntity
  8
寸法
 48
50.0
100
AcDbDimension
  2
*D29
 10
12945.44337606007
 20
5531.79973902418
 30
0.0
 11
14330.44337606007
 21
5531.79973902418
 31
0.0
 70
   160
 71
     5
 42
2770.000000000002
  3
INABA_S40G
100
AcDbAlignedDimension
 13
15715.44337606007
 23
4857.93159871326
 33
0.0
 14
12945.44337606007
 24
4912.931598713264
 34
0.0
100
AcDbRotatedDimension
1001
ACAD
1000
DSTYLE
1002
{
1070
   174
1070
     0
1070
   272
1070
     1
1070
   288
1070
     0
1070
   341
1005
0
1002
}
  0
DIMENSION
  5
17C8B
330
747D
100
AcDbEntity
  8
寸法
 48
50.0
100
AcDbDimension
  2
*D30
 10
12945.44337606007
 20
5311.589052292563
 30
0.0
 11
12635.80558078448
 21
5311.589052292563
 31
0.0
 70
   160
 71
     5
 42
60.0
  3
INABA_S40G
100
AcDbAlignedDimension
 13
13005.44337606007
 23
4908.933216836235
 33
0.0
 14
12945.44337606007
 24
4912.931598713264
 34
0.0
100
AcDbRotatedDimension
1001
ACAD
1000
DSTYLE
1002
{
1070
   174
1070
     0
1070
   272
1070
     1
1070
   288
1070
     0
1070
   341
1005
0
1002
}
  0
DIMENSION
  5
17C8C
330
747D
100
AcDbEntity
  8
寸法
 48
50.0
100
AcDbDimension
  2
*D31
 10
13005.44337606007
 20
5311.589052292564
 30
0.0
 11
14320.44337606007
 21
5311.589052292564
 31
0.0
 70
   160
  1
柱外寸法<>
 71
     5
 42
2630.000000000002
  3
INABA_S40G
100
AcDbAlignedDimension
 13
15635.44337606007
 23
4859.742278324912
 33
0.0
 14
13005.44337606007
 24
4908.933216836235
 34
0.0
100
AcDbRotatedDimension
1001
ACAD
1000
DSTYLE
1002
{
1070
   174
1070
     0
1070
   272
1070
     1
1070
   288
1070
     0
1070
   341
1005
0
1002
}
  0
LINE
  5
17C8D
330
747D
100
AcDbEntity
  8
部品1
100
AcDbLine
 10
15580.44337606007
 20
4677.931598713258
 30
0.0
 11
15580.44337606007
 21
2587.93159871326
 31
0.0
  0
LINE
  5
17C8E
330
747D
100
AcDbEntity
  8
部品1
100
AcDbLine
 10
15635.44337606007
 20
4732.465872100998
 30
0.0
 11
15635.44337606007
 21
2437.93159871326
 31
0.0
  0
LINE
  5
17C8F
330
747D
100
AcDbEntity
  8
部品1
100
AcDbLine
 10
13480.44337606007
 20
4677.931598713258
 30
0.0
 11
13480.44337606007
 21
2587.93159871326
 31
0.0
  0
DIMENSION
  5
17C90
330
747D
100
AcDbEntity
  8
寸法
100
AcDbDimension
  2
*D32
 10
12161.69324687681
 20
2537.93159871326
 30
0.0
 11
12161.69324687681
 21
2231.884354618769
 31
0.0
 70
   160
 71
     5
 42
50.0
  3
INABA_S40G
100
AcDbAlignedDimension
 13
13005.44337606007
 23
2587.93159871326
 33
0.0
 14
12950.44337606007
 24
2537.93159871326
 34
0.0
 50
90.0
100
AcDbRotatedDimension
1001
ACAD
1000
DSTYLE
1002
{
1070
   174
1070
     0
1070
   272
1070
     1
1070
   288
1070
     0
1070
   341
1005
0
1002
}
  0
LINE
  5
17C92
330
747D
100
AcDbEntity
  8
部品1
100
AcDbLine
 10
13005.44337606007
 20
4770.074036642137
 30
0.0
 11
13005.44337606007
 21
2437.93159871326
 31
0.0
  0
LINE
  5
17C93
330
747D
100
AcDbEntity
  8
部品1
100
AcDbLine
 10
13060.44337606007
 20
4677.931598713258
 30
0.0
 11
13060.44337606007
 21
2437.931598713261
 31
0.0
  0
LINE
  5
17C94
330
747D
100
AcDbEntity
  8
部品1
100
AcDbLine
 10
13060.44337606007
 20
2587.931598713258
 30
0.0
 11
15635.44337606007
 21
2587.93159871326
 31
0.0
  0
LINE
  5
17C95
330
747D
100
AcDbEntity
  8
部品1
100
AcDbLine
 10
13005.44337606007
 20
4677.931598713258
 30
0.0
 11
15635.44337606007
 21
4677.931598713258
 31
0.0
  0
LINE
  5
17C96
330
747D
100
AcDbEntity
  8
部品1
100
AcDbLine
 10
15160.44337606007
 20
4677.931598713258
 30
0.0
 11
15160.44337606007
 21
2587.93159871326
 31
0.0
  0
LINE
  5
17C97
330
747D
100
AcDbEntity
  8
細線
 48
50.0
100
AcDbLine
 10
14662.94337606007
 20
4677.931598713258
 30
0.0
 11
14662.94337606007
 21
2587.93159871326
 31
0.0
  0
LINE
  5
17C98
330
747D
100
AcDbEntity
  8
細線
 48
50.0
100
AcDbLine
 10
14677.94337606007
 20
4677.931598713258
 30
0.0
 11
14677.94337606007
 21
2587.93159871326
 31
0.0
  0
LINE
  5
17C99
330
747D
100
AcDbEntity
  8
細線
 48
50.0
100
AcDbLine
 10
14537.94337606007
 20
4677.931598713258
 30
0.0
 11
14537.94337606007
 21
2587.93159871326
 31
0.0
  0
LINE
  5
17C9A
330
747D
100
AcDbEntity
  8
細線
 48
50.0
100
AcDbLine
 10
14522.94337606007
 20
4677.931598713258
 30
0.0
 11
14522.94337606007
 21
2587.93159871326
 31
0.0
  0
LINE
  5
17C9B
330
747D
100
AcDbEntity
  8
細線
 48
50.0
100
AcDbLine
 10
14382.94337606007
 20
4677.931598713258
 30
0.0
 11
14382.94337606007
 21
2587.93159871326
 31
0.0
  0
LINE
  5
17C9C
330
747D
100
AcDbEntity
  8
細線
 48
50.0
100
AcDbLine
 10
14397.94337606007
 20
4677.931598713258
 30
0.0
 11
14397.94337606007
 21
2587.93159871326
 31
0.0
  0
TEXT
  5
17C9D
330
747D
100
AcDbEntity
  8
部品1
 48
50.0
100
AcDbText
 10
14672.02437802117
 20
4935.200691651567
 30
0.0
 40
120.0
  1
37
 50
90.0
  7
STYLE1
100
AcDbText
  0
TEXT
  5
17C9E
330
747D
100
AcDbEntity
  8
部品1
 48
50.0
100
AcDbText
 10
14194.39135535608
 20
5072.701949869849
 30
0.0
 40
120.0
  1
1000
  7
STYLE1
100
AcDbText
  0
LINE
  5
17C9F
330
747D
100
AcDbEntity
  8
部品1
 48
50.0
100
AcDbLine
 10
14506.12352013235
 20
5036.817927717415
 30
0.0
 11
14506.12352013235
 21
5020.617927717415
 31
0.0
  0
LINE
  5
17CA0
330
747D
100
AcDbEntity
  8
部品1
 48
50.0
100
AcDbLine
 10
14206.12352013235
 20
5036.817927717415
 30
0.0
 11
14506.12352013235
 21
5036.817927717415
 31
0.0
  0
LINE
  5
17CA1
330
747D
100
AcDbEntity
  8
部品1
100
AcDbLine
 10
12952.98836241703
 20
4911.649334047525
 30
0.0
 11
15708.05525292154
 21
4856.572396422397
 31
0.0
  0
LINE
  5
17CA2
330
747D
100
AcDbEntity
  8
部品1
100
AcDbLine
 10
12960.78594066202
 20
4770.712623782226
 30
0.0
 11
15690.10707659992
 21
4731.684198548019
 31
0.0
  0
LINE
  5
17CA3
330
747D
100
AcDbEntity
  8
細線
 48
50.0
100
AcDbLine
 10
12978.44337606007
 20
4910.331275088664
 30
0.0
 11
12973.15427450456
 21
4770.245642461309
 31
0.0
  0
LINE
  5
17CA4
330
747D
100
AcDbEntity
  8
細線
 48
50.0
100
AcDbLine
 10
15682.41265925376
 20
4857.085021192727
 30
0.0
 11
15677.69569317207
 21
4732.152805257811
 31
0.0
  0
LINE
  5
17CA5
330
747D
100
AcDbEntity
  8
部品1
 48
50.0
100
AcDbLine
 10
12945.62766197318
 20
4904.525144877951
 30
0.0
 11
12946.00792175099
 21
4884.598180431541
 31
0.0
  0
LINE
  5
17CA6
330
747D
100
AcDbEntity
  8
部品1
 48
50.0
100
AcDbLine
 10
12949.07669385723
 20
4881.022898938067
 30
0.0
 11
12950.7805953486
 21
4791.73240223142
 31
0.0
  0
LINE
  5
17CA7
330
747D
100
AcDbEntity
  8
細線
 48
50.0
100
AcDbLine
 10
12946.48279916088
 20
4883.948680554621
 30
0.0
 11
15712.11878390606
 21
4828.324475913792
 31
0.0
  0
LINE
  5
17CA8
330
747D
100
AcDbEntity
  8
細線
 48
50.0
100
AcDbLine
 10
12951.24327439817
 20
4791.087168856756
 30
0.0
 11
15701.24693882881
 21
4751.277849882263
 31
0.0
  0
LINE
  5
17CA9
330
747D
100
AcDbEntity
  8
部品1
 48
50.0
100
AcDbLine
 10
12953.84936745484
 20
4788.157120737948
 30
0.0
 11
12954.05132007527
 21
4777.574085344856
 31
0.0
  0
ARC
  5
17CAA
330
747D
100
AcDbEntity
  8
部品1
 48
50.0
100
AcDbCircle
 10
12952.62638780152
 20
4904.658699285381
 30
0.0
 40
7.0
100
AcDbArc
 50
87.03587545283093
 51
181.0932240293156
  0
ARC
  5
17CAB
330
747D
100
AcDbEntity
  8
部品1
 48
50.0
100
AcDbCircle
 10
12961.05004590361
 20
4777.707639752284
 30
0.0
 40
7.0
100
AcDbArc
 50
181.0932240293156
 51
267.8377559869489
  0
ARC
  5
17CAC
330
747D
100
AcDbEntity
  8
部品1
100
AcDbCircle
 10
12950.84991352841
 20
4788.099883134765
 30
0.0
 40
3.0
100
AcDbArc
 50
1.093224029315636
 51
80.18775403169765
  0
ARC
  5
17CAD
330
747D
100
AcDbEntity
  8
部品1
100
AcDbCircle
 10
12946.0772399308
 20
4880.965661334884
 30
0.0
 40
3.0
100
AcDbArc
 50
1.093224029315636
 51
80.18775403169765
  0
ARC
  5
17CAE
330
747D
100
AcDbEntity
  8
部品1
100
AcDbCircle
 10
12946.70779433383
 20
4884.611535872281
 30
0.0
 40
0.7
100
AcDbArc
 50
181.0932240292114
 51
260.1877540314855
  0
ARC
  5
17CAF
330
747D
100
AcDbEntity
  8
部品1
100
AcDbCircle
 10
12951.48046793144
 20
4791.745757672163
 30
0.0
 40
0.7
100
AcDbArc
 50
181.0932240293156
 51
260.1877540314855
  0
LINE
  5
17CB0
330
747D
100
AcDbEntity
  8
部品1
 48
50.0
100
AcDbLine
 10
15714.65727887078
 20
4848.872750987478
 30
0.0
 11
15712.62665767981
 21
4828.927709729697
 31
0.0
  0
LINE
  5
17CB1
330
747D
100
AcDbEntity
  8
部品1
 48
50.0
100
AcDbLine
 10
15709.27409119532
 20
4825.617075656789
 30
0.0
 11
15701.76731193049
 21
4751.884454911777
 31
0.0
  0
LINE
  5
17CB2
330
747D
100
AcDbEntity
  8
部品1
 48
50.0
100
AcDbLine
 10
15698.414745446
 20
4748.573820838863
 30
0.0
 11
15697.33518240626
 21
4737.970203845306
 31
0.0
  0
ARC
  5
17CB3
330
747D
100
AcDbEntity
  8
部品1
 48
50.0
100
AcDbCircle
 10
15707.69327830602
 20
4849.581761660253
 30
0.0
 40
7.0
100
AcDbArc
 50
354.1866997665596
 51
87.03587545283093
  0
ARC
  5
17CB4
330
747D
100
AcDbEntity
  8
部品1
 48
50.0
100
AcDbCircle
 10
15690.3711818415
 20
4738.67921451808
 30
0.0
 40
7.0
100
AcDbArc
 50
267.8377559869489
 51
354.1866997665596
  0
ARC
  5
17CB5
330
747D
100
AcDbEntity
  8
部品1
100
AcDbCircle
 10
15701.39931711661
 20
4748.269959121961
 30
0.0
 40
3.0
100
AcDbArc
 50
95.0921697642102
 51
174.1866997665596
  0
ARC
  5
17CB6
330
747D
100
AcDbEntity
  8
部品1
100
AcDbCircle
 10
15712.25866286593
 20
4825.313213939887
 30
0.0
 40
3.0
100
AcDbArc
 50
95.0921697642102
 51
174.1866997665596
  0
ARC
  5
17CB7
330
747D
100
AcDbEntity
  8
部品1
100
AcDbCircle
 10
15711.93025762333
 20
4828.998610796976
 30
0.0
 40
0.7
100
AcDbArc
 50
275.0921697642102
 51
354.1866997665596
  0
ARC
  5
17CB8
330
747D
100
AcDbEntity
  8
部品1
100
AcDbCircle
 10
15701.07091187401
 20
4751.955355979052
 30
0.0
 40
0.7
100
AcDbArc
 50
275.0921697642102
 51
354.1866997667606
  0
LINE
  5
17CB9
330
747D
100
AcDbEntity
  8
部品1
100
AcDbLine
 10
14180.66850648931
 20
5038.135986676277
 30
0.0
 11
14506.12352013235
 21
5020.617927717415
 31
0.0
  0
LINE
  5
17CBA
330
747D
100
AcDbEntity
  8
部品1
100
AcDbLine
 10
14740.44337606006
 20
4677.931598713258
 30
0.0
 11
14740.44337606006
 21
2587.93159871326
 31
0.0
  0
LINE
  5
17CBB
330
747D
100
AcDbEntity
  8
細線
 48
50.0
100
AcDbLine
 10
14817.94337606007
 20
4677.931598713258
 30
0.0
 11
14817.94337606007
 21
2587.93159871326
 31
0.0
  0
LINE
  5
17CBC
330
747D
100
AcDbEntity
  8
細線
 48
50.0
100
AcDbLine
 10
14802.94337606007
 20
4677.931598713258
 30
0.0
 11
14802.94337606007
 21
2587.93159871326
 31
0.0
  0
LINE
  5
17CBD
330
747D
100
AcDbEntity
  8
細線
 48
50.0
100
AcDbLine
 10
14942.94337606007
 20
4677.931598713258
 30
0.0
 11
14942.94337606007
 21
2587.93159871326
 31
0.0
  0
LINE
  5
17CBE
330
747D
100
AcDbEntity
  8
細線
 48
50.0
100
AcDbLine
 10
14957.94337606007
 20
4677.931598713258
 30
0.0
 11
14957.94337606007
 21
2587.93159871326
 31
0.0
  0
LINE
  5
17CBF
330
747D
100
AcDbEntity
  8
細線
 48
50.0
100
AcDbLine
 10
15097.94337606007
 20
4677.931598713258
 30
0.0
 11
15097.94337606007
 21
2587.93159871326
 31
0.0
  0
LINE
  5
17CC0
330
747D
100
AcDbEntity
  8
細線
 48
50.0
100
AcDbLine
 10
15082.94337606007
 20
4677.931598713258
 30
0.0
 11
15082.94337606007
 21
2587.93159871326
 31
0.0
  0
DIMENSION
  5
17CC1
330
747D
100
AcDbEntity
  8
寸法
100
AcDbDimension
  2
*D33
 10
16055.31046336085
 20
4857.93159871326
 30
0.0
 11
16055.31046336084
 21
3678.172110117819
 31
0.0
 70
   160
 71
     5
 42
2320.000000000001
  3
INABA_S40G
100
AcDbAlignedDimension
 13
15635.44337606007
 23
2537.93159871326
 33
0.0
 14
15715.44337606007
 24
4857.93159871326
 34
0.0
 50
90.0
100
AcDbRotatedDimension
1001
ACAD
1000
DSTYLE
1002
{
1070
   174
1070
     0
1070
   272
1070
     1
1070
   288
1070
     0
1070
   341
1005
0
1002
}
  0
DIMENSION
  5
17CC2
330
747D
100
AcDbEntity
  8
寸法
100
AcDbDimension
  2
*D34
 10
11861.69324687681
 20
4912.931598713258
 30
0.0
 11
11761.68143585319
 21
3725.431598713257
 31
0.0
 70
    32
 71
     5
 42
2375.000000000007
  3
INABA_S40G
100
AcDbAlignedDimension
 13
13005.44337606007
 23
2537.931598713252
 33
0.0
 14
12945.44337606007
 24
4912.931598713258
 34
0.0
 50
90.0
100
AcDbRotatedDimension
1001
ACAD
1000
DSTYLE
1002
{
1070
   174
1070
     0
1070
   272
1070
     1
1070
   288
1070
     0
1070
   341
1005
0
1002
}
  0
DIMENSION
  5
17CC3
330
747D
100
AcDbEntity
  8
寸法
100
AcDbDimension
  2
*D35
 10
12161.69324687681
 20
2587.931598713252
 30
0.0
 11
12061.68143585319
 21
3632.931598713255
 31
0.0
 70
    32
 71
     5
 42
2090.000000000003
  3
INABA_S40G
100
AcDbAlignedDimension
 13
13005.44337606007
 23
4677.931598713255
 33
0.0
 14
13005.44337606007
 24
2587.931598713252
 34
0.0
 50
90.0
100
AcDbRotatedDimension
1001
ACAD
1000
DSTYLE
1002
{
1070
   174
1070
     0
1070
   272
1070
     1
1070
   288
1070
     0
1070
   341
1005
0
1002
}
  0
TEXT
  5
17CC4
330
747D
100
AcDbEntity
  8
部品1
100
AcDbText
 10
14028.15414436946
 20
1595.038069494738
 30
0.0
 40
135.0
  1
側面図
  7
STYLE2
100
AcDbText
  0
LWPOLYLINE
  5
17CC5
330
747D
100
AcDbEntity
  8
部品1
100
AcDbPolyline
 90
        4
 70
     1
 43
0.0
 10
13938.70804294585
 20
1787.931598713261
 10
13938.70804294585
 20
1548.039277167729
 10
14702.17870917429
 20
1548.039277167729
 10
14702.17870917429
 20
1787.931598713261
  0
LWPOLYLINE
  5
17CC6
330
747D
100
AcDbEntity
  8
部品1
100
AcDbPolyline
 90
        4
 70
     1
 43
0.0
 10
5421.53126955625
 20
1787.931598713261
 10
5421.53126955625
 20
1548.039277167729
 10
6185.001935784686
 20
1548.039277167729
 10
6185.001935784686
 20
1787.931598713261
  0
TEXT
  5
17CC7
330
747D
100
AcDbEntity
  8
部品1
100
AcDbText
 10
5512.056673294202
 20
1595.038069494738
 30
0.0
 40
135.0
  1
正面図
  7
STYLE2
100
AcDbText
  0
LINE
  5
18175
330
747D
100
AcDbEntity
  8
部品1
100
AcDbLine
 10
1178.686263685777
 20
4905.535073318026
 30
0.0
 11
1179.819661018125
 21
4885.558945335426
 31
0.0
  0
LINE
  5
18176
330
747D
100
AcDbEntity
  8
部品1
100
AcDbLine
 10
1191.256681339702
 20
4789.901538168368
 30
0.0
 11
1191.901587146811
 21
4778.535073318027
 31
0.0
  0
LINE
  5
18177
330
747D
100
AcDbEntity
  8
部品1
100
AcDbLine
 10
1183.020650814855
 20
4882.101538168369
 30
0.0
 11
1188.055691542966
 21
4793.358945335425
 31
0.0
  0
ARC
  5
18178
330
747D
100
AcDbEntity
  8
部品1
 48
50.0
100
AcDbCircle
 10
1180.025467918669
 20
4881.931598713267
 30
0.0
 40
3.0
100
AcDbArc
 50
3.247342790337682
 51
82.34187279263654
  0
ARC
  5
18179
330
747D
100
AcDbEntity
  8
部品1
 48
50.0
100
AcDbCircle
 10
1188.261498443513
 20
4789.731598713264
 30
0.0
 40
3.0
100
AcDbArc
 50
3.247342790337682
 51
82.34187279263654
  0
ARC
  5
1817A
330
747D
100
AcDbEntity
  8
部品1
 48
50.0
100
AcDbCircle
 10
1188.754567552074
 20
4793.398597874948
 30
0.0
 40
0.7
100
AcDbArc
 50
183.2473427902922
 51
262.3418727926365
  0
ARC
  5
1817B
330
747D
100
AcDbEntity
  8
部品1
 48
50.0
100
AcDbCircle
 10
1180.518537027234
 20
4885.598597874952
 30
0.0
 40
0.7
100
AcDbArc
 50
183.2473427903897
 51
262.3418727926365
  0
ARC
  5
1817C
330
747D
100
AcDbEntity
  8
部品1
100
AcDbCircle
 10
1198.890347237909
 20
4778.931598713266
 30
0.0
 40
7.0
100
AcDbArc
 50
183.2473427903377
 51
270.0
  0
ARC
  5
1817D
330
747D
100
AcDbEntity
  8
部品1
100
AcDbCircle
 10
1185.675023776875
 20
4905.931598713265
 30
0.0
 40
7.0
100
AcDbArc
 50
90.0
 51
183.2473427903377
  0
LINE
  5
1817E
330
747D
100
AcDbEntity
  8
細線
 48
50.0
100
AcDbLine
 10
1211.266602670446
 20
4912.931598713265
 30
0.0
 11
1211.266602670446
 21
4771.931598713265
 31
0.0
  0
LINE
  5
1817F
330
747D
100
AcDbEntity
  8
細線
 48
50.0
100
AcDbLine
 10
4268.266602670467
 20
4792.704841276732
 30
0.0
 11
1188.661284206875
 21
4792.7048412771
 31
0.0
  0
LINE
  5
18180
330
747D
100
AcDbEntity
  8
細線
 48
50.0
100
AcDbLine
 10
4268.266602670467
 20
4884.904841276732
 30
0.0
 11
1180.425253682046
 21
4884.904841277102
 31
0.0
  0
LINE
  5
18181
330
747D
100
AcDbEntity
  8
部品1
 48
50.0
100
AcDbLine
 10
4278.266602670468
 20
4771.931598713265
 30
0.0
 11
1198.890347237909
 21
4771.931598713265
 31
0.0
  0
LINE
  5
18182
330
747D
100
AcDbEntity
  8
部品1
 48
50.0
100
AcDbLine
 10
4268.266602670467
 20
4912.931598713264
 30
0.0
 11
1185.675023776875
 21
4912.931598713264
 31
0.0
  0
DIMENSION
  5
181B0
330
747D
100
AcDbEntity
  8
寸法
 48
50.0
100
AcDbDimension
  2
*D36
 10
1178.266602670446
 20
5125.473183971506
 30
0.0
 11
864.7813212961992
 21
5125.473183971506
 31
0.0
 70
   160
 71
     5
 42
50.0
  3
INABA_S40G
100
AcDbAlignedDimension
 13
1228.266602670446
 23
4912.931598713268
 33
0.0
 14
1178.266602670446
 24
4912.931598713267
 34
0.0
100
AcDbRotatedDimension
1001
ACAD
1000
DSTYLE
1002
{
1002
}
  0
ARC
  5
181B1
330
747D
100
AcDbEntity
  8
細線
 48
50.0
100
AcDbCircle
 10
2453.26660267045
 20
3100.431598713262
 30
0.0
 40
15.0
100
AcDbArc
 50
90.0
 51
270.0
  0
ARC
  5
181B2
330
747D
100
AcDbEntity
  8
細線
 48
50.0
100
AcDbCircle
 10
2553.26660267045
 20
3100.431598713262
 30
0.0
 40
15.0
100
AcDbArc
 50
270.0
 51
90.0
  0
LINE
  5
181B3
330
747D
100
AcDbEntity
  8
細線
 48
50.0
100
AcDbLine
 10
2453.26660267045
 20
3115.431598713261
 30
0.0
 11
2553.26660267045
 21
3115.431598713261
 31
0.0
  0
LINE
  5
181B4
330
747D
100
AcDbEntity
  8
細線
 48
50.0
100
AcDbLine
 10
2553.26660267045
 20
3085.431598713262
 30
0.0
 11
2453.26660267045
 21
3085.431598713262
 31
0.0
  0
LINE
  5
181B5
330
747D
100
AcDbEntity
  8
細線
 48
50.0
100
AcDbLine
 10
3053.26660267045
 20
3085.431598713262
 30
0.0
 11
2953.26660267045
 21
3085.431598713262
 31
0.0
  0
LINE
  5
181B6
330
747D
100
AcDbEntity
  8
細線
 48
50.0
100
AcDbLine
 10
2953.26660267045
 20
3115.431598713261
 30
0.0
 11
3053.26660267045
 21
3115.431598713261
 31
0.0
  0
ARC
  5
181B7
330
747D
100
AcDbEntity
  8
細線
 48
50.0
100
AcDbCircle
 10
2953.26660267045
 20
3100.431598713262
 30
0.0
 40
15.0
100
AcDbArc
 50
90.0
 51
270.0
  0
ARC
  5
181B8
330
747D
100
AcDbEntity
  8
細線
 48
50.0
100
AcDbCircle
 10
3053.26660267045
 20
3100.431598713262
 30
0.0
 40
15.0
100
AcDbArc
 50
270.0
 51
90.0
  0
CIRCLE
  5
181B9
330
747D
100
AcDbEntity
  8
細線
 48
50.0
100
AcDbCircle
 10
2753.26660267045
 20
3425.431598713262
 30
0.0
 40
18.0
  0
LINE
  5
181BA
330
747D
100
AcDbEntity
  8
細線
100
AcDbLine
 10
4175.266602670453
 20
2547.931598713262
 30
0.0
 11
1331.266602670446
 21
2547.931598713262
 31
0.0
  0
LINE
  5
181BB
330
747D
100
AcDbEntity
  8
細線
100
AcDbLine
 10
1331.266602670446
 20
3067.931598713262
 30
0.0
 11
4175.26660267045
 21
3067.931598713262
 31
0.0
  0
LINE
  5
181BC
330
747D
100
AcDbEntity
  8
細線
100
AcDbLine
 10
1331.266602670446
 20
3002.931598713261
 30
0.0
 11
4175.26660267045
 21
3002.931598713261
 31
0.0
  0
LINE
  5
181BD
330
747D
100
AcDbEntity
  8
細線
100
AcDbLine
 10
1331.266602670446
 20
2937.931598713261
 30
0.0
 11
4175.26660267045
 21
2937.931598713261
 31
0.0
  0
LINE
  5
181BE
330
747D
100
AcDbEntity
  8
細線
100
AcDbLine
 10
1331.266602670446
 20
2872.931598713261
 30
0.0
 11
4175.26660267045
 21
2872.931598713261
 31
0.0
  0
LINE
  5
181BF
330
747D
100
AcDbEntity
  8
細線
100
AcDbLine
 10
1331.266602670446
 20
2807.931598713262
 30
0.0
 11
4175.26660267045
 21
2807.931598713262
 31
0.0
  0
LINE
  5
181C0
330
747D
100
AcDbEntity
  8
細線
100
AcDbLine
 10
1331.266602670446
 20
2742.931598713262
 30
0.0
 11
4175.26660267045
 21
2742.931598713262
 31
0.0
  0
LINE
  5
181C1
330
747D
100
AcDbEntity
  8
細線
100
AcDbLine
 10
1331.266602670446
 20
2677.931598713261
 30
0.0
 11
4175.26660267045
 21
2677.931598713261
 31
0.0
  0
LINE
  5
181C2
330
747D
100
AcDbEntity
  8
細線
100
AcDbLine
 10
1331.266602670446
 20
2612.931598713262
 30
0.0
 11
4175.26660267045
 21
2612.931598713262
 31
0.0
  0
LINE
  5
181C3
330
747D
100
AcDbEntity
  8
細線
100
AcDbLine
 10
1331.266602670446
 20
2547.931598713262
 30
0.0
 11
4175.26660267045
 21
2547.931598713262
 31
0.0
  0
LINE
  5
181C4
330
747D
100
AcDbEntity
  8
細線
100
AcDbLine
 10
1331.266602670446
 20
4367.931598713261
 30
0.0
 11
4175.26660267045
 21
4367.931598713261
 31
0.0
  0
LINE
  5
181C5
330
747D
100
AcDbEntity
  8
細線
100
AcDbLine
 10
1331.266602670446
 20
4497.931598713261
 30
0.0
 11
4175.26660267045
 21
4497.931598713261
 31
0.0
  0
LINE
  5
181C6
330
747D
100
AcDbEntity
  8
細線
100
AcDbLine
 10
1331.266602670446
 20
4432.931598713262
 30
0.0
 11
4175.26660267045
 21
4432.931598713262
 31
0.0
  0
LINE
  5
181C7
330
747D
100
AcDbEntity
  8
細線
100
AcDbLine
 10
1331.266602670446
 20
3717.931598713261
 30
0.0
 11
4175.26660267045
 21
3717.931598713261
 31
0.0
  0
LINE
  5
181C8
330
747D
100
AcDbEntity
  8
細線
100
AcDbLine
 10
1331.266602670446
 20
3652.931598713261
 30
0.0
 11
4175.26660267045
 21
3652.931598713261
 31
0.0
  0
LINE
  5
181C9
330
747D
100
AcDbEntity
  8
細線
100
AcDbLine
 10
1331.266602670446
 20
3587.931598713261
 30
0.0
 11
4175.26660267045
 21
3587.931598713261
 31
0.0
  0
LINE
  5
181CA
330
747D
100
AcDbEntity
  8
細線
100
AcDbLine
 10
1331.266602670446
 20
3522.931598713262
 30
0.0
 11
4175.26660267045
 21
3522.931598713262
 31
0.0
  0
LINE
  5
181CB
330
747D
100
AcDbEntity
  8
細線
100
AcDbLine
 10
1331.266602670446
 20
3457.931598713262
 30
0.0
 11
4175.26660267045
 21
3457.931598713262
 31
0.0
  0
LINE
  5
181CC
330
747D
100
AcDbEntity
  8
細線
100
AcDbLine
 10
1331.266602670446
 20
3392.931598713261
 30
0.0
 11
4175.26660267045
 21
3392.931598713261
 31
0.0
  0
LINE
  5
181CD
330
747D
100
AcDbEntity
  8
細線
100
AcDbLine
 10
1331.266602670446
 20
3327.931598713262
 30
0.0
 11
4175.26660267045
 21
3327.931598713262
 31
0.0
  0
LINE
  5
181CE
330
747D
100
AcDbEntity
  8
細線
100
AcDbLine
 10
1331.266602670446
 20
3262.931598713262
 30
0.0
 11
4175.26660267045
 21
3262.931598713262
 31
0.0
  0
LINE
  5
181CF
330
747D
100
AcDbEntity
  8
細線
100
AcDbLine
 10
1331.266602670446
 20
3197.931598713262
 30
0.0
 11
4175.26660267045
 21
3197.931598713262
 31
0.0
  0
LINE
  5
181D0
330
747D
100
AcDbEntity
  8
細線
100
AcDbLine
 10
1331.266602670446
 20
3132.931598713261
 30
0.0
 11
4175.26660267045
 21
3132.931598713261
 31
0.0
  0
LINE
  5
181D1
330
747D
100
AcDbEntity
  8
細線
100
AcDbLine
 10
1331.266602670446
 20
4107.931598713261
 30
0.0
 11
4175.26660267045
 21
4107.931598713261
 31
0.0
  0
LINE
  5
181D2
330
747D
100
AcDbEntity
  8
細線
100
AcDbLine
 10
1331.266602670446
 20
4042.931598713261
 30
0.0
 11
4175.26660267045
 21
4042.931598713261
 31
0.0
  0
LINE
  5
181D3
330
747D
100
AcDbEntity
  8
細線
100
AcDbLine
 10
1331.266602670446
 20
3977.931598713261
 30
0.0
 11
4175.26660267045
 21
3977.931598713261
 31
0.0
  0
LINE
  5
181D4
330
747D
100
AcDbEntity
  8
細線
100
AcDbLine
 10
1331.266602670446
 20
3912.931598713262
 30
0.0
 11
4175.26660267045
 21
3912.931598713262
 31
0.0
  0
LINE
  5
181D5
330
747D
100
AcDbEntity
  8
細線
100
AcDbLine
 10
1331.266602670446
 20
3847.931598713262
 30
0.0
 11
4175.26660267045
 21
3847.931598713262
 31
0.0
  0
LINE
  5
181D6
330
747D
100
AcDbEntity
  8
細線
100
AcDbLine
 10
1331.266602670446
 20
3782.931598713262
 30
0.0
 11
4175.26660267045
 21
3782.931598713262
 31
0.0
  0
LINE
  5
181D7
330
747D
100
AcDbEntity
  8
細線
100
AcDbLine
 10
1331.266602670446
 20
4302.931598713261
 30
0.0
 11
4175.26660267045
 21
4302.931598713261
 31
0.0
  0
LINE
  5
181D8
330
747D
100
AcDbEntity
  8
細線
100
AcDbLine
 10
1331.266602670446
 20
4237.931598713261
 30
0.0
 11
4175.26660267045
 21
4237.931598713261
 31
0.0
  0
LINE
  5
181D9
330
747D
100
AcDbEntity
  8
細線
100
AcDbLine
 10
1331.266602670446
 20
4172.931598713261
 30
0.0
 11
4175.26660267045
 21
4172.931598713261
 31
0.0
  0
LINE
  5
181DA
330
747D
100
AcDbEntity
  8
部品1
100
AcDbLine
 10
1228.266602670454
 20
4512.931598713261
 30
0.0
 11
4333.266602670469
 21
4512.931598713261
 31
0.0
  0
LINE
  5
181DC
330
747D
100
AcDbEntity
  8
部品1
100
AcDbLine
 10
4175.266602670453
 20
4512.931598713262
 30
0.0
 11
4175.26660267045
 21
2537.931598713262
 31
0.0
  0
LINE
  5
181DE
330
747D
100
AcDbEntity
  8
部品1
100
AcDbLine
 10
1331.266602670454
 20
4512.931598713261
 30
0.0
 11
1331.266602670454
 21
2537.931598713262
 31
0.0
  0
LINE
  5
181E5
330
747D
100
AcDbEntity
  8
部品1
100
AcDbLine
 10
1283.266602670454
 20
4512.931598713262
 30
0.0
 11
1283.266602670454
 21
2537.931598713262
 31
0.0
  0
LINE
  5
181E6
330
747D
100
AcDbEntity
  8
部品1
100
AcDbLine
 10
4223.266602670453
 20
4512.931598713262
 30
0.0
 11
4223.26660267045
 21
2537.931598713262
 31
0.0
  0
LINE
  5
181E7
330
747D
100
AcDbEntity
  8
部品1
100
AcDbLine
 10
1228.266602670454
 20
4771.931598713266
 30
0.0
 11
1228.266602670454
 21
2437.931598713261
 31
0.0
  0
LINE
  5
181E8
330
747D
100
AcDbEntity
  8
部品1
100
AcDbLine
 10
1228.266602670454
 20
4677.931598713261
 30
0.0
 11
4278.266602670454
 21
4677.931598713261
 31
0.0
  0
LINE
  5
181EA
330
747D
100
AcDbEntity
  8
部品1
100
AcDbLine
 10
741.0720378013065
 20
2567.835409280926
 30
0.0
 11
666.0720378013065
 21
2437.931598713261
 31
0.0
  0
TEXT
  5
181EB
330
747D
100
AcDbEntity
  8
部品1
100
AcDbText
 10
769.1769799260801
 20
2474.038502319163
 30
0.0
 40
125.0
  1
G.L
  7
STYLE2
100
AcDbText
  0
LINE
  5
181EC
330
747D
100
AcDbEntity
  8
部品1
100
AcDbLine
 10
666.0720378013065
 20
2437.931598713261
 30
0.0
 11
591.0720378013065
 21
2567.835409280926
 31
0.0
  0
LINE
  5
181ED
330
747D
100
AcDbEntity
  8
部品1
100
AcDbLine
 10
591.0720378013065
 20
2567.835409280926
 30
0.0
 11
741.0720378013065
 21
2567.835409280926
 31
0.0
  0
LINE
  5
18268
330
747D
100
AcDbEntity
  8
部品1
 48
50.0
100
AcDbLine
 10
4268.266602670467
 20
4771.931598713265
 30
0.0
 11
4268.266602670467
 21
4912.931598713264
 31
0.0
  0
LINE
  5
18269
330
747D
100
AcDbEntity
  8
部品1
 48
50.0
100
AcDbLine
 10
4278.266602670468
 20
4512.931598713261
 30
0.0
 11
4278.266602670468
 21
4771.931598713265
 31
0.0
  0
DIMENSION
  5
183AD
330
747D
100
AcDbEntity
  8
寸法
 48
50.0
100
AcDbDimension
  2
*D37
 10
1228.266602670446
 20
5125.473183971506
 30
0.0
 11
5803.266602670447
 21
5225.473183971506
 31
0.0
 70
    32
  1
柱外寸法 N X 3050
 71
     5
 42
9150.0
  3
INABA_S40G
100
AcDbAlignedDimension
 13
10378.26660267044
 23
4925.852924535788
 33
0.0
 14
1228.266602670446
 24
4925.852924544255
 34
0.0
100
AcDbRotatedDimension
  0
DIMENSION
  5
183CC
330
747D
100
AcDbEntity
  8
寸法
 48
50.0
100
AcDbDimension
  2
*D38
 10
10428.26660267049
 20
5346.378484445256
 30
0.0
 11
5803.266602670468
 21
5446.378484445256
 31
0.0
 70
    32
  1
N X 3050+100
 71
     5
 42
9250.000000000044
  3
INABA_S40G
100
AcDbAlignedDimension
 13
1178.266602670446
 23
4912.931598713267
 33
0.0
 14
10428.26660267049
 24
4912.931598713264
 34
0.0
100
AcDbRotatedDimension
  0
LINE
  5
18417
330
747D
100
AcDbEntity
  8
部品1
100
AcDbLine
 10
1228.266602670453
 20
2537.931598713262
 30
0.0
 11
10378.26660267048
 21
2537.931598713262
 31
0.0
  0
LINE
  5
1842E
330
747D
100
AcDbEntity
  8
部品1
 48
50.0
100
AcDbLine
 10
7318.266602670481
 20
4912.931598713261
 30
0.0
 11
4268.266602670467
 21
4912.931598713264
 31
0.0
  0
LINE
  5
1842F
330
747D
100
AcDbEntity
  8
細線
 48
50.0
100
AcDbLine
 10
7318.266602670481
 20
4884.904841276731
 30
0.0
 11
4268.266602670467
 21
4884.904841277102
 31
0.0
  0
LINE
  5
18430
330
747D
100
AcDbEntity
  8
細線
 48
50.0
100
AcDbLine
 10
7318.266602670481
 20
4792.704841276733
 30
0.0
 11
4268.266602670467
 21
4792.704841276732
 31
0.0
  0
LINE
  5
18431
330
747D
100
AcDbEntity
  8
部品1
 48
50.0
100
AcDbLine
 10
7328.266602670481
 20
4771.931598713263
 30
0.0
 11
4278.266602670468
 21
4771.931598713265
 31
0.0
  0
TEXT
  5
18569
330
747D
100
AcDbEntity
  8
文字
 62
     7
 48
50.0
100
AcDbText
 10
14302.57975890745
 20
483.8967129911414
 30
0.0
 40
160.0
  1
FXN-81HDL-N
  7
STYLE2
100
AcDbText
  0
LWPOLYLINE
  5
18FFE
330
747D
100
AcDbEntity
  8
部品1
100
AcDbPolyline
 90
        4
 70
     1
 43
0.0
 10
5421.531269556268
 20
6040.209013968819
 10
5421.531269556268
 20
5800.316692423287
 10
6185.001935784709
 20
5800.316692423287
 10
6185.001935784709
 20
6040.209013968819
  0
TEXT
  5
18FFF
330
747D
100
AcDbEntity
  8
部品1
100
AcDbText
 10
5511.450879385305
 20
5847.315484750295
 30
0.0
 40
135.0
  1
平面図
  7
STYLE2
100
AcDbText
  0
LINE
  5
1901E
330
747D
100
AcDbEntity
  8
補助
  6
PHANTOM
 62
   230
 48
50.0
100
AcDbLine
 10
140.0
 20
0.0
 30
0.0
 11
139.9999999999995
 21
11409.6
 31
0.0
  0
DIMENSION
  5
1917F
330
747D
100
AcDbEntity
  8
寸法
 48
50.0
100
AcDbDimension
  2
*D39
 10
10665.80970499223
 20
4677.931598713261
 30
0.0
 11
10665.80970499223
 21
4916.416880087502
 31
0.0
 70
   160
 71
     5
 42
164.9999999999991
  3
INABA_S40G
100
AcDbAlignedDimension
 13
10378.26660267048
 23
4512.931598713262
 33
0.0
 14
10378.26660267048
 24
4677.931598713261
 34
0.0
 50
90.0
100
AcDbRotatedDimension
1001
ACAD
1000
DSTYLE
1002
{
1002
}
  0
DIMENSION
  5
19180
330
747D
100
AcDbEntity
  8
寸法
 48
50.0
100
AcDbDimension
  2
*D40
 10
10665.80970499223
 20
4512.931598713262
 30
0.0
 11
10805.97952823859
 21
4513.89879855292
 31
0.0
 70
   160
 71
     5
 42
27.00000000000182
  3
INABA_S40G
100
AcDbAlignedDimension
 13
10378.26660267048
 23
4485.93159871326
 33
0.0
 14
10378.26660267048
 24
4512.931598713262
 34
0.0
 50
90.0
100
AcDbRotatedDimension
1001
ACAD
1000
DSTYLE
1002
{
1070
   279
1070
     2
1002
}
  0
DIMENSION
  5
19181
330
747D
100
AcDbEntity
  8
寸法
 48
50.0
100
AcDbDimension
  2
*D41
 10
10665.80970499223
 20
4485.93159871326
 30
0.0
 11
10565.80970499222
 21
3511.931598713263
 31
0.0
 70
    32
  1
有効開口部高サ <>
 71
     5
 42
1948.0
  3
INABA_S40G
100
AcDbAlignedDimension
 13
10378.26660267048
 23
2537.931598713262
 33
0.0
 14
10378.26660267048
 24
4485.93159871326
 34
0.0
 50
90.0
100
AcDbRotatedDimension
  0
ARC
  5
195E4
330
747D
100
AcDbEntity
  8
部品1
 48
0.01
100
AcDbCircle
 10
2226.266602670458
 20
4741.931598713261
 30
0.0
 40
2.0
100
AcDbArc
 50
0.0
 51
90.0
  0
ARC
  5
195E5
330
747D
100
AcDbEntity
  8
部品1
 48
0.01
100
AcDbCircle
 10
2050.266602670458
 20
4741.931598713261
 30
0.0
 40
2.0
100
AcDbArc
 50
90.0
 51
180.0
  0
LINE
  5
195E6
330
747D
100
AcDbEntity
  8
細線
100
AcDbLine
 10
2138.266602670454
 20
4714.431598713261
 30
0.0
 11
2212.266602670458
 21
4714.431598713261
 31
0.0
  0
LINE
  5
195E7
330
747D
100
AcDbEntity
  8
細線
100
AcDbLine
 10
2138.266602670457
 20
4737.431598713261
 30
0.0
 11
2064.266602670457
 21
4737.431598713261
 31
0.0
  0
LINE
  5
195E8
330
747D
100
AcDbEntity
  8
細線
100
AcDbLine
 10
2064.266602670457
 20
4714.431598713261
 30
0.0
 11
2138.266602670457
 21
4714.431598713261
 31
0.0
  0
LINE
  5
195E9
330
747D
100
AcDbEntity
  8
細線
100
AcDbLine
 10
2212.266602670458
 20
4737.431598713261
 30
0.0
 11
2138.266602670457
 21
4737.431598713261
 31
0.0
  0
LINE
  5
195EA
330
747D
100
AcDbEntity
  8
細線
100
AcDbLine
 10
2212.266602670458
 20
4714.431598713261
 30
0.0
 11
2212.266602670458
 21
4737.431598713261
 31
0.0
  0
LINE
  5
195EB
330
747D
100
AcDbEntity
  8
細線
100
AcDbLine
 10
2064.266602670457
 20
4737.431598713261
 30
0.0
 11
2064.266602670457
 21
4714.431598713261
 31
0.0
  0
LINE
  5
195EC
330
747D
100
AcDbEntity
  8
部品1
 48
0.01
100
AcDbLine
 10
2228.266602670454
 20
4710.431598713261
 30
0.0
 11
2228.266602670458
 21
4741.931598713261
 31
0.0
  0
LINE
  5
195ED
330
747D
100
AcDbEntity
  8
部品1
 48
0.01
100
AcDbLine
 10
2048.266602670457
 20
4741.931598713261
 30
0.0
 11
2048.266602670457
 21
4710.431598713261
 31
0.0
  0
LINE
  5
195EE
330
747D
100
AcDbEntity
  8
部品1
 48
0.01
100
AcDbLine
 10
2226.266602670458
 20
4743.931598713261
 30
0.0
 11
2050.266602670458
 21
4743.931598713261
 31
0.0
  0
LINE
  5
195EF
330
747D
100
AcDbEntity
  8
細線
100
AcDbLine
 10
2064.266602670457
 20
4731.431598713261
 30
0.0
 11
2138.266602670457
 21
4731.431598713261
 31
0.0
  0
LINE
  5
195F0
330
747D
100
AcDbEntity
  8
細線
100
AcDbLine
 10
2064.266602670457
 20
4725.431598713261
 30
0.0
 11
2138.266602670457
 21
4725.431598713261
 31
0.0
  0
LINE
  5
195F1
330
747D
100
AcDbEntity
  8
細線
100
AcDbLine
 10
2064.266602670454
 20
4719.431598713261
 30
0.0
 11
2138.266602670457
 21
4719.431598713261
 31
0.0
  0
LINE
  5
195F2
330
747D
100
AcDbEntity
  8
細線
100
AcDbLine
 10
2064.266602670457
 20
4731.431598713261
 30
0.0
 11
2133.266602670457
 21
4731.431598713261
 31
0.0
  0
LINE
  5
195F3
330
747D
100
AcDbEntity
  8
細線
100
AcDbLine
 10
2212.266602670454
 20
4731.431598713261
 30
0.0
 11
2138.266602670457
 21
4731.431598713261
 31
0.0
  0
LINE
  5
195F4
330
747D
100
AcDbEntity
  8
細線
100
AcDbLine
 10
2212.266602670454
 20
4719.431598713261
 30
0.0
 11
2138.266602670457
 21
4719.431598713261
 31
0.0
  0
LINE
  5
195F5
330
747D
100
AcDbEntity
  8
細線
100
AcDbLine
 10
2212.266602670454
 20
4725.431598713261
 30
0.0
 11
2138.266602670457
 21
4725.431598713261
 31
0.0
  0
LINE
  5
195F6
330
747D
100
AcDbEntity
  8
細線
100
AcDbLine
 10
2138.266602670457
 20
4737.431598713261
 30
0.0
 11
2138.266602670454
 21
4714.431598713261
 31
0.0
  0
LINE
  5
195F7
330
747D
100
AcDbEntity
  8
細線
100
AcDbLine
 10
3368.266602670458
 20
4737.431598713261
 30
0.0
 11
3368.266602670458
 21
4714.431598713261
 31
0.0
  0
LINE
  5
195F8
330
747D
100
AcDbEntity
  8
細線
100
AcDbLine
 10
3294.266602670457
 20
4725.431598713261
 30
0.0
 11
3368.266602670458
 21
4725.431598713261
 31
0.0
  0
LINE
  5
195F9
330
747D
100
AcDbEntity
  8
細線
100
AcDbLine
 10
3294.266602670457
 20
4719.431598713261
 30
0.0
 11
3368.266602670458
 21
4719.431598713261
 31
0.0
  0
LINE
  5
195FA
330
747D
100
AcDbEntity
  8
細線
100
AcDbLine
 10
3294.266602670457
 20
4731.431598713261
 30
0.0
 11
3368.266602670458
 21
4731.431598713261
 31
0.0
  0
LINE
  5
195FB
330
747D
100
AcDbEntity
  8
細線
100
AcDbLine
 10
3442.266602670458
 20
4731.431598713261
 30
0.0
 11
3373.266602670457
 21
4731.431598713261
 31
0.0
  0
LINE
  5
195FC
330
747D
100
AcDbEntity
  8
細線
100
AcDbLine
 10
3442.266602670458
 20
4719.431598713261
 30
0.0
 11
3368.266602670458
 21
4719.431598713261
 31
0.0
  0
LINE
  5
195FD
330
747D
100
AcDbEntity
  8
細線
100
AcDbLine
 10
3442.266602670458
 20
4725.431598713261
 30
0.0
 11
3368.266602670458
 21
4725.431598713261
 31
0.0
  0
LINE
  5
195FE
330
747D
100
AcDbEntity
  8
細線
100
AcDbLine
 10
3442.266602670458
 20
4731.431598713261
 30
0.0
 11
3368.266602670458
 21
4731.431598713261
 31
0.0
  0
LINE
  5
195FF
330
747D
100
AcDbEntity
  8
部品1
 48
0.01
100
AcDbLine
 10
3280.266602670457
 20
4743.931598713261
 30
0.0
 11
3456.266602670458
 21
4743.931598713261
 31
0.0
  0
LINE
  5
19600
330
747D
100
AcDbEntity
  8
部品1
 48
0.01
100
AcDbLine
 10
3458.266602670458
 20
4741.931598713261
 30
0.0
 11
3458.266602670458
 21
4710.431598713261
 31
0.0
  0
LINE
  5
19601
330
747D
100
AcDbEntity
  8
部品1
 48
0.01
100
AcDbLine
 10
3278.266602670458
 20
4710.431598713261
 30
0.0
 11
3278.266602670458
 21
4741.931598713261
 31
0.0
  0
LINE
  5
19602
330
747D
100
AcDbEntity
  8
細線
100
AcDbLine
 10
3442.266602670458
 20
4737.431598713261
 30
0.0
 11
3442.266602670458
 21
4714.431598713261
 31
0.0
  0
LINE
  5
19603
330
747D
100
AcDbEntity
  8
細線
100
AcDbLine
 10
3294.266602670457
 20
4714.431598713261
 30
0.0
 11
3294.266602670457
 21
4737.431598713261
 31
0.0
  0
LINE
  5
19604
330
747D
100
AcDbEntity
  8
細線
100
AcDbLine
 10
3294.266602670457
 20
4737.431598713261
 30
0.0
 11
3368.266602670458
 21
4737.431598713261
 31
0.0
  0
LINE
  5
19605
330
747D
100
AcDbEntity
  8
細線
100
AcDbLine
 10
3442.266602670458
 20
4714.431598713261
 30
0.0
 11
3368.266602670458
 21
4714.431598713261
 31
0.0
  0
LINE
  5
19606
330
747D
100
AcDbEntity
  8
細線
100
AcDbLine
 10
3368.266602670458
 20
4737.431598713261
 30
0.0
 11
3442.266602670458
 21
4737.431598713261
 31
0.0
  0
LINE
  5
19607
330
747D
100
AcDbEntity
  8
細線
100
AcDbLine
 10
3368.266602670458
 20
4714.431598713261
 30
0.0
 11
3294.266602670457
 21
4714.431598713261
 31
0.0
  0
ARC
  5
19608
330
747D
100
AcDbEntity
  8
部品1
 48
0.01
100
AcDbCircle
 10
3456.266602670458
 20
4741.931598713261
 30
0.0
 40
2.0
100
AcDbArc
 50
0.0
 51
90.0
  0
ARC
  5
19609
330
747D
100
AcDbEntity
  8
部品1
 48
0.01
100
AcDbCircle
 10
3280.266602670457
 20
4741.931598713261
 30
0.0
 40
2.0
100
AcDbArc
 50
90.0
 51
180.0
  0
ARC
  5
1960A
330
747D
100
AcDbEntity
  8
部品1
 48
0.01
100
AcDbCircle
 10
2226.266602670454
 20
4710.431598713261
 30
0.0
 40
2.0
100
AcDbArc
 50
270.0
 51
0.0
  0
ARC
  5
1960B
330
747D
100
AcDbEntity
  8
部品1
 48
0.01
100
AcDbCircle
 10
2050.266602670458
 20
4710.431598713261
 30
0.0
 40
2.0
100
AcDbArc
 50
180.0
 51
270.0
  0
LINE
  5
1960C
330
747D
100
AcDbEntity
  8
部品1
 48
0.01
100
AcDbLine
 10
2050.266602670458
 20
4708.431598713261
 30
0.0
 11
2226.266602670454
 21
4708.431598713261
 31
0.0
  0
LINE
  5
1960D
330
747D
100
AcDbEntity
  8
部品1
 48
0.01
100
AcDbLine
 10
3456.266602670458
 20
4708.431598713261
 30
0.0
 11
3280.266602670457
 21
4708.431598713261
 31
0.0
  0
ARC
  5
1960E
330
747D
100
AcDbEntity
  8
部品1
 48
0.01
100
AcDbCircle
 10
3456.266602670458
 20
4710.431598713261
 30
0.0
 40
2.0
100
AcDbArc
 50
270.0
 51
0.0
  0
ARC
  5
1960F
330
747D
100
AcDbEntity
  8
部品1
 48
0.01
100
AcDbCircle
 10
3280.266602670457
 20
4710.431598713261
 30
0.0
 40
2.0
100
AcDbArc
 50
180.0
 51
270.0
  0
ARC
  5
19610
330
747D
100
AcDbEntity
  8
部品1
 48
0.01
100
AcDbCircle
 10
6330.266602670469
 20
4710.431598713261
 30
0.0
 40
2.0
100
AcDbArc
 50
180.0
 51
270.0
  0
ARC
  5
19611
330
747D
100
AcDbEntity
  8
部品1
 48
0.01
100
AcDbCircle
 10
6506.26660267047
 20
4710.431598713261
 30
0.0
 40
2.0
100
AcDbArc
 50
270.0
 51
0.0
  0
LINE
  5
19612
330
747D
100
AcDbEntity
  8
部品1
 48
0.01
100
AcDbLine
 10
6506.26660267047
 20
4708.431598713261
 30
0.0
 11
6330.266602670469
 21
4708.431598713261
 31
0.0
  0
LINE
  5
19613
330
747D
100
AcDbEntity
  8
部品1
 48
0.01
100
AcDbLine
 10
5100.26660267047
 20
4708.431598713261
 30
0.0
 11
5276.266602670466
 21
4708.431598713261
 31
0.0
  0
ARC
  5
19614
330
747D
100
AcDbEntity
  8
部品1
 48
0.01
100
AcDbCircle
 10
5100.26660267047
 20
4710.431598713261
 30
0.0
 40
2.0
100
AcDbArc
 50
180.0
 51
270.0
  0
ARC
  5
19615
330
747D
100
AcDbEntity
  8
部品1
 48
0.01
100
AcDbCircle
 10
5276.266602670466
 20
4710.431598713261
 30
0.0
 40
2.0
100
AcDbArc
 50
270.0
 51
0.0
  0
ARC
  5
19616
330
747D
100
AcDbEntity
  8
部品1
 48
0.01
100
AcDbCircle
 10
6330.266602670469
 20
4741.931598713261
 30
0.0
 40
2.0
100
AcDbArc
 50
90.0
 51
180.0
  0
ARC
  5
19617
330
747D
100
AcDbEntity
  8
部品1
 48
0.01
100
AcDbCircle
 10
6506.26660267047
 20
4741.931598713261
 30
0.0
 40
2.0
100
AcDbArc
 50
0.0
 51
90.0
  0
LINE
  5
19618
330
747D
100
AcDbEntity
  8
細線
100
AcDbLine
 10
6418.26660267047
 20
4714.431598713261
 30
0.0
 11
6344.26660267047
 21
4714.431598713261
 31
0.0
  0
LINE
  5
19619
330
747D
100
AcDbEntity
  8
細線
100
AcDbLine
 10
6418.26660267047
 20
4737.431598713261
 30
0.0
 11
6492.26660267047
 21
4737.431598713261
 31
0.0
  0
LINE
  5
1961A
330
747D
100
AcDbEntity
  8
細線
100
AcDbLine
 10
6492.26660267047
 20
4714.431598713261
 30
0.0
 11
6418.26660267047
 21
4714.431598713261
 31
0.0
  0
LINE
  5
1961B
330
747D
100
AcDbEntity
  8
細線
100
AcDbLine
 10
6344.26660267047
 20
4737.431598713261
 30
0.0
 11
6418.26660267047
 21
4737.431598713261
 31
0.0
  0
LINE
  5
1961C
330
747D
100
AcDbEntity
  8
細線
100
AcDbLine
 10
6344.26660267047
 20
4714.431598713261
 30
0.0
 11
6344.26660267047
 21
4737.431598713261
 31
0.0
  0
LINE
  5
1961D
330
747D
100
AcDbEntity
  8
細線
100
AcDbLine
 10
6492.26660267047
 20
4737.431598713261
 30
0.0
 11
6492.26660267047
 21
4714.431598713261
 31
0.0
  0
LINE
  5
1961E
330
747D
100
AcDbEntity
  8
部品1
 48
0.01
100
AcDbLine
 10
6328.266602670471
 20
4710.431598713261
 30
0.0
 11
6328.266602670471
 21
4741.931598713261
 31
0.0
  0
LINE
  5
1961F
330
747D
100
AcDbEntity
  8
部品1
 48
0.01
100
AcDbLine
 10
6508.26660267047
 20
4741.931598713261
 30
0.0
 11
6508.26660267047
 21
4710.431598713261
 31
0.0
  0
LINE
  5
19620
330
747D
100
AcDbEntity
  8
部品1
 48
0.01
100
AcDbLine
 10
6330.266602670469
 20
4743.931598713261
 30
0.0
 11
6506.26660267047
 21
4743.931598713261
 31
0.0
  0
LINE
  5
19621
330
747D
100
AcDbEntity
  8
細線
100
AcDbLine
 10
6492.26660267047
 20
4731.431598713261
 30
0.0
 11
6418.26660267047
 21
4731.431598713261
 31
0.0
  0
LINE
  5
19622
330
747D
100
AcDbEntity
  8
細線
100
AcDbLine
 10
6492.26660267047
 20
4725.431598713261
 30
0.0
 11
6418.26660267047
 21
4725.431598713261
 31
0.0
  0
LINE
  5
19623
330
747D
100
AcDbEntity
  8
細線
100
AcDbLine
 10
6492.26660267047
 20
4719.431598713261
 30
0.0
 11
6418.26660267047
 21
4719.431598713261
 31
0.0
  0
LINE
  5
19624
330
747D
100
AcDbEntity
  8
細線
100
AcDbLine
 10
6492.26660267047
 20
4731.431598713261
 30
0.0
 11
6423.26660267047
 21
4731.431598713261
 31
0.0
  0
LINE
  5
19625
330
747D
100
AcDbEntity
  8
細線
100
AcDbLine
 10
6344.26660267047
 20
4731.431598713261
 30
0.0
 11
6418.26660267047
 21
4731.431598713261
 31
0.0
  0
LINE
  5
19626
330
747D
100
AcDbEntity
  8
細線
100
AcDbLine
 10
6344.26660267047
 20
4719.431598713261
 30
0.0
 11
6418.26660267047
 21
4719.431598713261
 31
0.0
  0
LINE
  5
19627
330
747D
100
AcDbEntity
  8
細線
100
AcDbLine
 10
6344.26660267047
 20
4725.431598713261
 30
0.0
 11
6418.26660267047
 21
4725.431598713261
 31
0.0
  0
LINE
  5
19628
330
747D
100
AcDbEntity
  8
細線
100
AcDbLine
 10
6418.26660267047
 20
4737.431598713261
 30
0.0
 11
6418.26660267047
 21
4714.431598713261
 31
0.0
  0
LINE
  5
19629
330
747D
100
AcDbEntity
  8
細線
100
AcDbLine
 10
5188.26660267047
 20
4737.431598713261
 30
0.0
 11
5188.266602670466
 21
4714.431598713261
 31
0.0
  0
LINE
  5
1962A
330
747D
100
AcDbEntity
  8
細線
100
AcDbLine
 10
5262.266602670466
 20
4725.431598713261
 30
0.0
 11
5188.26660267047
 21
4725.431598713261
 31
0.0
  0
LINE
  5
1962B
330
747D
100
AcDbEntity
  8
細線
100
AcDbLine
 10
5262.266602670466
 20
4719.431598713261
 30
0.0
 11
5188.26660267047
 21
4719.431598713261
 31
0.0
  0
LINE
  5
1962C
330
747D
100
AcDbEntity
  8
細線
100
AcDbLine
 10
5262.266602670466
 20
4731.431598713261
 30
0.0
 11
5188.26660267047
 21
4731.431598713261
 31
0.0
  0
LINE
  5
1962D
330
747D
100
AcDbEntity
  8
細線
100
AcDbLine
 10
5114.26660267047
 20
4731.431598713261
 30
0.0
 11
5183.26660267047
 21
4731.431598713261
 31
0.0
  0
LINE
  5
1962E
330
747D
100
AcDbEntity
  8
細線
100
AcDbLine
 10
5114.266602670467
 20
4719.431598713261
 30
0.0
 11
5188.26660267047
 21
4719.431598713261
 31
0.0
  0
LINE
  5
1962F
330
747D
100
AcDbEntity
  8
細線
100
AcDbLine
 10
5114.26660267047
 20
4725.431598713261
 30
0.0
 11
5188.26660267047
 21
4725.431598713261
 31
0.0
  0
LINE
  5
19630
330
747D
100
AcDbEntity
  8
細線
100
AcDbLine
 10
5114.26660267047
 20
4731.431598713261
 30
0.0
 11
5188.26660267047
 21
4731.431598713261
 31
0.0
  0
LINE
  5
19631
330
747D
100
AcDbEntity
  8
部品1
 48
0.01
100
AcDbLine
 10
5276.26660267047
 20
4743.931598713261
 30
0.0
 11
5100.26660267047
 21
4743.931598713261
 31
0.0
  0
LINE
  5
19632
330
747D
100
AcDbEntity
  8
部品1
 48
0.01
100
AcDbLine
 10
5098.26660267047
 20
4741.931598713261
 30
0.0
 11
5098.26660267047
 21
4710.431598713261
 31
0.0
  0
LINE
  5
19633
330
747D
100
AcDbEntity
  8
部品1
 48
0.01
100
AcDbLine
 10
5278.266602670466
 20
4710.431598713261
 30
0.0
 11
5278.26660267047
 21
4741.931598713261
 31
0.0
  0
LINE
  5
19634
330
747D
100
AcDbEntity
  8
細線
100
AcDbLine
 10
5114.26660267047
 20
4737.431598713261
 30
0.0
 11
5114.26660267047
 21
4714.431598713261
 31
0.0
  0
LINE
  5
19635
330
747D
100
AcDbEntity
  8
細線
100
AcDbLine
 10
5262.26660267047
 20
4714.431598713261
 30
0.0
 11
5262.26660267047
 21
4737.431598713261
 31
0.0
  0
LINE
  5
19636
330
747D
100
AcDbEntity
  8
細線
100
AcDbLine
 10
5262.26660267047
 20
4737.431598713261
 30
0.0
 11
5188.26660267047
 21
4737.431598713261
 31
0.0
  0
LINE
  5
19637
330
747D
100
AcDbEntity
  8
細線
100
AcDbLine
 10
5114.26660267047
 20
4714.431598713261
 30
0.0
 11
5188.26660267047
 21
4714.431598713261
 31
0.0
  0
LINE
  5
19638
330
747D
100
AcDbEntity
  8
細線
100
AcDbLine
 10
5188.26660267047
 20
4737.431598713261
 30
0.0
 11
5114.26660267047
 21
4737.431598713261
 31
0.0
  0
LINE
  5
19639
330
747D
100
AcDbEntity
  8
細線
100
AcDbLine
 10
5188.266602670466
 20
4714.431598713261
 30
0.0
 11
5262.26660267047
 21
4714.431598713261
 31
0.0
  0
ARC
  5
1963A
330
747D
100
AcDbEntity
  8
部品1
 48
0.01
100
AcDbCircle
 10
5100.26660267047
 20
4741.931598713261
 30
0.0
 40
2.0
100
AcDbArc
 50
90.0
 51
180.0
  0
ARC
  5
1963B
330
747D
100
AcDbEntity
  8
部品1
 48
0.01
100
AcDbCircle
 10
5276.26660267047
 20
4741.931598713261
 30
0.0
 40
2.0
100
AcDbArc
 50
0.0
 51
90.0
  0
ARC
  5
1963C
330
747D
100
AcDbEntity
  8
部品1
 48
0.01
100
AcDbCircle
 10
8326.266602670484
 20
4741.931598713261
 30
0.0
 40
2.0
100
AcDbArc
 50
0.0
 51
90.0
  0
ARC
  5
1963D
330
747D
100
AcDbEntity
  8
部品1
 48
0.01
100
AcDbCircle
 10
8150.266602670484
 20
4741.931598713261
 30
0.0
 40
2.0
100
AcDbArc
 50
90.0
 51
180.0
  0
LINE
  5
1963E
330
747D
100
AcDbEntity
  8
細線
100
AcDbLine
 10
8238.266602670481
 20
4714.431598713261
 30
0.0
 11
8312.266602670485
 21
4714.431598713261
 31
0.0
  0
LINE
  5
1963F
330
747D
100
AcDbEntity
  8
細線
100
AcDbLine
 10
8238.266602670485
 20
4737.431598713261
 30
0.0
 11
8164.266602670485
 21
4737.431598713261
 31
0.0
  0
LINE
  5
19640
330
747D
100
AcDbEntity
  8
細線
100
AcDbLine
 10
8164.266602670485
 20
4714.431598713261
 30
0.0
 11
8238.266602670485
 21
4714.431598713261
 31
0.0
  0
LINE
  5
19641
330
747D
100
AcDbEntity
  8
細線
100
AcDbLine
 10
8312.266602670485
 20
4737.431598713261
 30
0.0
 11
8238.266602670485
 21
4737.431598713261
 31
0.0
  0
LINE
  5
19642
330
747D
100
AcDbEntity
  8
細線
100
AcDbLine
 10
8312.266602670485
 20
4714.431598713261
 30
0.0
 11
8312.266602670485
 21
4737.431598713261
 31
0.0
  0
LINE
  5
19643
330
747D
100
AcDbEntity
  8
細線
100
AcDbLine
 10
8164.266602670485
 20
4737.431598713261
 30
0.0
 11
8164.266602670485
 21
4714.431598713261
 31
0.0
  0
LINE
  5
19644
330
747D
100
AcDbEntity
  8
部品1
 48
0.01
100
AcDbLine
 10
8328.266602670481
 20
4710.431598713261
 30
0.0
 11
8328.266602670485
 21
4741.931598713261
 31
0.0
  0
LINE
  5
19645
330
747D
100
AcDbEntity
  8
部品1
 48
0.01
100
AcDbLine
 10
8148.266602670485
 20
4741.931598713261
 30
0.0
 11
8148.266602670485
 21
4710.431598713261
 31
0.0
  0
LINE
  5
19646
330
747D
100
AcDbEntity
  8
部品1
 48
0.01
100
AcDbLine
 10
8326.266602670484
 20
4743.931598713261
 30
0.0
 11
8150.266602670484
 21
4743.931598713261
 31
0.0
  0
LINE
  5
19647
330
747D
100
AcDbEntity
  8
細線
100
AcDbLine
 10
8164.266602670485
 20
4731.431598713261
 30
0.0
 11
8238.266602670485
 21
4731.431598713261
 31
0.0
  0
LINE
  5
19648
330
747D
100
AcDbEntity
  8
細線
100
AcDbLine
 10
8164.266602670485
 20
4725.431598713261
 30
0.0
 11
8238.266602670485
 21
4725.431598713261
 31
0.0
  0
LINE
  5
19649
330
747D
100
AcDbEntity
  8
細線
100
AcDbLine
 10
8164.266602670481
 20
4719.431598713261
 30
0.0
 11
8238.266602670485
 21
4719.431598713261
 31
0.0
  0
LINE
  5
1964A
330
747D
100
AcDbEntity
  8
細線
100
AcDbLine
 10
8164.266602670485
 20
4731.431598713261
 30
0.0
 11
8233.266602670484
 21
4731.431598713261
 31
0.0
  0
LINE
  5
1964B
330
747D
100
AcDbEntity
  8
細線
100
AcDbLine
 10
8312.266602670481
 20
4731.431598713261
 30
0.0
 11
8238.266602670485
 21
4731.431598713261
 31
0.0
  0
LINE
  5
1964C
330
747D
100
AcDbEntity
  8
細線
100
AcDbLine
 10
8312.266602670481
 20
4719.431598713261
 30
0.0
 11
8238.266602670485
 21
4719.431598713261
 31
0.0
  0
LINE
  5
1964D
330
747D
100
AcDbEntity
  8
細線
100
AcDbLine
 10
8312.266602670481
 20
4725.431598713261
 30
0.0
 11
8238.266602670485
 21
4725.431598713261
 31
0.0
  0
LINE
  5
1964E
330
747D
100
AcDbEntity
  8
細線
100
AcDbLine
 10
8238.266602670485
 20
4737.431598713261
 30
0.0
 11
8238.266602670481
 21
4714.431598713261
 31
0.0
  0
LINE
  5
1964F
330
747D
100
AcDbEntity
  8
細線
100
AcDbLine
 10
9468.266602670485
 20
4737.431598713261
 30
0.0
 11
9468.266602670485
 21
4714.431598713261
 31
0.0
  0
LINE
  5
19650
330
747D
100
AcDbEntity
  8
細線
100
AcDbLine
 10
9394.266602670484
 20
4725.431598713261
 30
0.0
 11
9468.266602670485
 21
4725.431598713261
 31
0.0
  0
LINE
  5
19651
330
747D
100
AcDbEntity
  8
細線
100
AcDbLine
 10
9394.266602670484
 20
4719.431598713261
 30
0.0
 11
9468.266602670485
 21
4719.431598713261
 31
0.0
  0
LINE
  5
19652
330
747D
100
AcDbEntity
  8
細線
100
AcDbLine
 10
9394.266602670484
 20
4731.431598713261
 30
0.0
 11
9468.266602670485
 21
4731.431598713261
 31
0.0
  0
LINE
  5
19653
330
747D
100
AcDbEntity
  8
細線
100
AcDbLine
 10
9542.266602670485
 20
4731.431598713261
 30
0.0
 11
9473.266602670484
 21
4731.431598713261
 31
0.0
  0
LINE
  5
19654
330
747D
100
AcDbEntity
  8
細線
100
AcDbLine
 10
9542.266602670485
 20
4719.431598713261
 30
0.0
 11
9468.266602670485
 21
4719.431598713261
 31
0.0
  0
LINE
  5
19655
330
747D
100
AcDbEntity
  8
細線
100
AcDbLine
 10
9542.266602670485
 20
4725.431598713261
 30
0.0
 11
9468.266602670485
 21
4725.431598713261
 31
0.0
  0
LINE
  5
19656
330
747D
100
AcDbEntity
  8
細線
100
AcDbLine
 10
9542.266602670485
 20
4731.431598713261
 30
0.0
 11
9468.266602670485
 21
4731.431598713261
 31
0.0
  0
LINE
  5
19657
330
747D
100
AcDbEntity
  8
部品1
 48
0.01
100
AcDbLine
 10
9380.266602670484
 20
4743.931598713261
 30
0.0
 11
9556.266602670484
 21
4743.931598713261
 31
0.0
  0
LINE
  5
19658
330
747D
100
AcDbEntity
  8
部品1
 48
0.01
100
AcDbLine
 10
9558.266602670483
 20
4741.931598713261
 30
0.0
 11
9558.266602670483
 21
4710.431598713261
 31
0.0
  0
LINE
  5
19659
330
747D
100
AcDbEntity
  8
部品1
 48
0.01
100
AcDbLine
 10
9378.266602670484
 20
4710.431598713261
 30
0.0
 11
9378.266602670484
 21
4741.931598713261
 31
0.0
  0
LINE
  5
1965A
330
747D
100
AcDbEntity
  8
細線
100
AcDbLine
 10
9542.266602670485
 20
4737.431598713261
 30
0.0
 11
9542.266602670485
 21
4714.431598713261
 31
0.0
  0
LINE
  5
1965B
330
747D
100
AcDbEntity
  8
細線
100
AcDbLine
 10
9394.266602670484
 20
4714.431598713261
 30
0.0
 11
9394.266602670484
 21
4737.431598713261
 31
0.0
  0
LINE
  5
1965C
330
747D
100
AcDbEntity
  8
細線
100
AcDbLine
 10
9394.266602670484
 20
4737.431598713261
 30
0.0
 11
9468.266602670485
 21
4737.431598713261
 31
0.0
  0
LINE
  5
1965D
330
747D
100
AcDbEntity
  8
細線
100
AcDbLine
 10
9542.266602670485
 20
4714.431598713261
 30
0.0
 11
9468.266602670485
 21
4714.431598713261
 31
0.0
  0
LINE
  5
1965E
330
747D
100
AcDbEntity
  8
細線
100
AcDbLine
 10
9468.266602670485
 20
4737.431598713261
 30
0.0
 11
9542.266602670485
 21
4737.431598713261
 31
0.0
  0
LINE
  5
1965F
330
747D
100
AcDbEntity
  8
細線
100
AcDbLine
 10
9468.266602670485
 20
4714.431598713261
 30
0.0
 11
9394.266602670484
 21
4714.431598713261
 31
0.0
  0
ARC
  5
19660
330
747D
100
AcDbEntity
  8
部品1
 48
0.01
100
AcDbCircle
 10
9556.266602670484
 20
4741.931598713261
 30
0.0
 40
2.0
100
AcDbArc
 50
0.0
 51
90.0
  0
ARC
  5
19661
330
747D
100
AcDbEntity
  8
部品1
 48
0.01
100
AcDbCircle
 10
9380.266602670484
 20
4741.931598713261
 30
0.0
 40
2.0
100
AcDbArc
 50
90.0
 51
180.0
  0
ARC
  5
19662
330
747D
100
AcDbEntity
  8
部品1
 48
0.01
100
AcDbCircle
 10
8326.266602670481
 20
4710.431598713261
 30
0.0
 40
2.0
100
AcDbArc
 50
270.0
 51
0.0
  0
ARC
  5
19663
330
747D
100
AcDbEntity
  8
部品1
 48
0.01
100
AcDbCircle
 10
8150.266602670484
 20
4710.431598713261
 30
0.0
 40
2.0
100
AcDbArc
 50
180.0
 51
270.0
  0
LINE
  5
19664
330
747D
100
AcDbEntity
  8
部品1
 48
0.01
100
AcDbLine
 10
8150.266602670484
 20
4708.431598713261
 30
0.0
 11
8326.266602670481
 21
4708.431598713261
 31
0.0
  0
LINE
  5
19665
330
747D
100
AcDbEntity
  8
部品1
 48
0.01
100
AcDbLine
 10
9556.266602670484
 20
4708.431598713261
 30
0.0
 11
9380.266602670484
 21
4708.431598713261
 31
0.0
  0
ARC
  5
19666
330
747D
100
AcDbEntity
  8
部品1
 48
0.01
100
AcDbCircle
 10
9556.266602670484
 20
4710.431598713261
 30
0.0
 40
2.0
100
AcDbArc
 50
270.0
 51
0.0
  0
ARC
  5
19667
330
747D
100
AcDbEntity
  8
部品1
 48
0.01
100
AcDbCircle
 10
9380.266602670484
 20
4710.431598713261
 30
0.0
 40
2.0
100
AcDbArc
 50
180.0
 51
270.0
  0
LINE
  5
1969B
330
747D
100
AcDbEntity
  8
部品1
100
AcDbLine
 10
4223.266602670542
 20
9772.497424545912
 30
0.0
 11
4223.266602670542
 21
9744.497424545912
 31
0.0
  0
LINE
  5
1969D
330
747D
100
AcDbEntity
  8
部品1
100
AcDbLine
 10
4333.266602670538
 20
9772.497424545818
 30
0.0
 11
4333.266602670538
 21
9744.497424545819
 31
0.0
  0
LINE
  5
1969E
330
747D
100
AcDbEntity
  8
部品1
 48
50.0
100
AcDbLine
 10
4306.266602670509
 20
9717.497424545834
 30
0.0
 11
4306.266602670574
 21
9772.497424545866
 31
0.0
  0
LINE
  5
1969F
330
747D
100
AcDbEntity
  8
部品1
 48
50.0
100
AcDbLine
 10
4278.266602670505
 20
9744.49742454586
 30
0.0
 11
4250.266602670509
 21
9772.497424545916
 31
0.0
  0
LINE
  5
196A0
330
747D
100
AcDbEntity
  8
部品1
 48
50.0
100
AcDbLine
 10
4250.266602670509
 20
9744.49742454586
 30
0.0
 11
4278.266602670505
 21
9744.497424545862
 31
0.0
  0
LINE
  5
196A1
330
747D
100
AcDbEntity
  8
部品1
 48
50.0
100
AcDbLine
 10
4250.266602670509
 20
9744.497424545967
 30
0.0
 11
4250.266602670506
 21
9772.497424545916
 31
0.0
  0
LINE
  5
196A2
330
747D
100
AcDbEntity
  8
部品1
 48
50.0
100
AcDbLine
 10
4223.266602670331
 20
9717.497424545685
 30
0.0
 11
4250.266602670509
 21
9744.49742454586
 31
0.0
  0
LINE
  5
196A3
330
747D
100
AcDbEntity
  8
部品1
100
AcDbLine
 10
4223.266602670334
 20
9055.997424545656
 30
0.0
 11
4223.266602670331
 21
9717.497424545685
 31
0.0
  0
LINE
  5
196A4
330
747D
100
AcDbEntity
  8
部品1
 48
10.0
100
AcDbLine
 10
4198.266602670327
 20
9055.997424545656
 30
0.0
 11
4198.266602670323
 21
9717.497424545685
 31
0.0
  0
LINE
  5
196A5
330
747D
100
AcDbEntity
  8
部品1
 48
50.0
100
AcDbLine
 10
4250.266602670509
 20
9717.497424545834
 30
0.0
 11
4250.266602670509
 21
9744.49742454586
 31
0.0
  0
LINE
  5
196A6
330
747D
100
AcDbEntity
  8
部品1
100
AcDbLine
 10
4250.26660267032
 20
9744.49742454578
 30
0.0
 11
4250.266602670317
 21
9055.997424545656
 31
0.0
  0
LINE
  5
196A7
330
747D
100
AcDbEntity
  8
部品1
 48
50.0
100
AcDbLine
 10
4306.266602670509
 20
9717.497424545893
 30
0.0
 11
4250.266602670507
 21
9717.497424545891
 31
0.0
  0
LINE
  5
196A8
330
747D
100
AcDbEntity
  8
部品1
 48
50.0
100
AcDbLine
 10
4253.266602670305
 20
9717.497420968642
 30
0.0
 11
4253.266602670305
 21
9056.997420968642
 31
0.0
  0
LINE
  5
196A9
330
747D
100
AcDbEntity
  8
部品1
 48
50.0
100
AcDbLine
 10
4333.26660267033
 20
9717.497424545765
 30
0.0
 11
4306.266602670324
 21
9744.497424545773
 31
0.0
  0
LINE
  5
196AA
330
747D
100
AcDbEntity
  8
部品1
100
AcDbLine
 10
4303.266602670305
 20
9334.173404405497
 30
0.0
 11
4253.266602670303
 21
9328.997420968642
 31
0.0
  0
LINE
  5
196AB
330
747D
100
AcDbEntity
  8
部品1
100
AcDbLine
 10
4303.266602670305
 20
9293.821437531789
 30
0.0
 11
4253.266602670303
 21
9298.997420968643
 31
0.0
  0
LINE
  5
196AC
330
747D
100
AcDbEntity
  8
部品1
100
AcDbLine
 10
4253.266602670305
 20
9138.997420968642
 30
0.0
 11
4303.266602670304
 21
9151.709285375421
 31
0.0
  0
LINE
  5
196AD
330
747D
100
AcDbEntity
  8
部品1
 48
50.0
100
AcDbLine
 10
4253.266602670305
 20
9056.997420968642
 30
0.0
 11
4303.266602670305
 21
9056.997420968642
 31
0.0
  0
LINE
  5
196AE
330
747D
100
AcDbEntity
  8
部品1
 48
50.0
100
AcDbLine
 10
4198.266602670327
 20
9055.997424545656
 30
0.0
 11
4358.266602670316
 21
9055.997424545664
 31
0.0
  0
LINE
  5
196AF
330
747D
100
AcDbEntity
  8
部品1
 48
50.0
100
AcDbLine
 10
4303.266602670305
 20
9056.997420968642
 30
0.0
 11
4303.266602670305
 21
9717.497420968642
 31
0.0
  0
LINE
  5
196B0
330
747D
100
AcDbEntity
  8
部品1
100
AcDbLine
 10
4306.266602670316
 20
9055.997424545656
 30
0.0
 11
4306.266602670324
 21
9772.497424545729
 31
0.0
  0
LINE
  5
196B1
330
747D
100
AcDbEntity
  8
部品1
100
AcDbLine
 10
4333.266602670338
 20
9055.997424545656
 30
0.0
 11
4333.26660267033
 21
9717.497424545678
 31
0.0
  0
LINE
  5
196B2
330
747D
100
AcDbEntity
  8
部品1
 48
10.0
100
AcDbLine
 10
4358.266602670316
 20
9055.997424545664
 30
0.0
 11
4358.266602670306
 21
9717.497424545699
 31
0.0
  0
DIMENSION
  5
196B3
330
747D
100
AcDbEntity
  8
寸法
 48
50.0
100
AcDbDimension
  2
*D42
 10
4615.107965174995
 20
9772.497428123088
 30
0.0
 11
4515.107965174995
 21
9414.247428123013
 31
0.0
 70
    32
 71
     5
 42
716.5000000001546
  3
INABA_S40G
100
AcDbAlignedDimension
 13
4358.266604914169
 23
9055.997428122934
 33
0.0
 14
4333.266604914395
 24
9772.497428123088
 34
0.0
 50
90.0
100
AcDbRotatedDimension
1001
ACAD
1000
DSTYLE
1002
{
1070
   279
1070
     2
1070
   341
1005
0
1002
}
  0
LINE
  5
196E5
330
747D
100
AcDbEntity
  8
部品1
 48
50.0
100
AcDbLine
 10
4198.266602670323
 20
9692.497424546241
 30
0.0
 11
1308.266602670464
 21
9692.49742454648
 31
0.0
  0
LINE
  5
196E6
330
747D
100
AcDbEntity
  8
部品1
100
AcDbLine
 10
4223.266602670525
 20
9717.497424545882
 30
0.0
 11
1283.266602670462
 21
9717.49742454588
 31
0.0
  0
LINE
  5
196E8
330
747D
100
AcDbEntity
  8
部品1
 48
50.0
100
AcDbLine
 10
7303.266602670305
 20
9717.497420968642
 30
0.0
 11
7303.266602670305
 21
9056.997420968642
 31
0.0
  0
LINE
  5
196EA
330
747D
100
AcDbEntity
  8
部品1
 48
10.0
100
AcDbLine
 10
7408.266602670316
 20
9055.997424545664
 30
0.0
 11
7408.266602670305
 21
9717.497424545699
 31
0.0
  0
LINE
  5
196EB
330
747D
100
AcDbEntity
  8
部品1
100
AcDbLine
 10
7383.266602670338
 20
9055.997424545656
 30
0.0
 11
7383.266602670331
 21
9717.497424545678
 31
0.0
  0
LINE
  5
196EC
330
747D
100
AcDbEntity
  8
部品1
100
AcDbLine
 10
7356.266602670316
 20
9055.997424545656
 30
0.0
 11
7356.266602670324
 21
9772.497424545729
 31
0.0
  0
LINE
  5
196ED
330
747D
100
AcDbEntity
  8
部品1
 48
50.0
100
AcDbLine
 10
7353.266602670306
 20
9056.997420968642
 30
0.0
 11
7353.266602670306
 21
9717.497420968642
 31
0.0
  0
LINE
  5
196EE
330
747D
100
AcDbEntity
  8
部品1
 48
50.0
100
AcDbLine
 10
7248.266602670327
 20
9055.997424545656
 30
0.0
 11
7408.266602670316
 21
9055.997424545664
 31
0.0
  0
LINE
  5
196EF
330
747D
100
AcDbEntity
  8
部品1
 48
50.0
100
AcDbLine
 10
7303.266602670305
 20
9056.997420968642
 30
0.0
 11
7353.266602670306
 21
9056.997420968642
 31
0.0
  0
LINE
  5
196F0
330
747D
100
AcDbEntity
  8
部品1
100
AcDbLine
 10
7303.266602670305
 20
9138.997420968642
 30
0.0
 11
7353.266602670304
 21
9151.709285375421
 31
0.0
  0
LINE
  5
196F1
330
747D
100
AcDbEntity
  8
部品1
100
AcDbLine
 10
7353.266602670306
 20
9293.821437531789
 30
0.0
 11
7303.266602670304
 21
9298.997420968643
 31
0.0
  0
LINE
  5
196F2
330
747D
100
AcDbEntity
  8
部品1
100
AcDbLine
 10
7353.266602670306
 20
9334.173404405497
 30
0.0
 11
7303.266602670304
 21
9328.997420968642
 31
0.0
  0
LINE
  5
196F3
330
747D
100
AcDbEntity
  8
部品1
 48
50.0
100
AcDbLine
 10
7383.266602670331
 20
9717.497424545765
 30
0.0
 11
7356.266602670324
 21
9744.497424545773
 31
0.0
  0
LINE
  5
196F4
330
747D
100
AcDbEntity
  8
部品1
 48
50.0
100
AcDbLine
 10
7356.266602670508
 20
9717.497424545893
 30
0.0
 11
7300.266602670507
 21
9717.497424545891
 31
0.0
  0
LINE
  5
196F5
330
747D
100
AcDbEntity
  8
部品1
100
AcDbLine
 10
7300.266602670319
 20
9744.49742454578
 30
0.0
 11
7300.266602670316
 21
9055.997424545656
 31
0.0
  0
LINE
  5
196F6
330
747D
100
AcDbEntity
  8
部品1
 48
50.0
100
AcDbLine
 10
7300.26660267051
 20
9717.497424545834
 30
0.0
 11
7300.26660267051
 21
9744.49742454586
 31
0.0
  0
LINE
  5
196F7
330
747D
100
AcDbEntity
  8
部品1
 48
10.0
100
AcDbLine
 10
7248.266602670327
 20
9055.997424545656
 30
0.0
 11
7248.266602670324
 21
9717.497424545685
 31
0.0
  0
LINE
  5
196F8
330
747D
100
AcDbEntity
  8
部品1
100
AcDbLine
 10
7273.266602670334
 20
9055.997424545656
 30
0.0
 11
7273.266602670331
 21
9717.497424545685
 31
0.0
  0
LINE
  5
196F9
330
747D
100
AcDbEntity
  8
部品1
 48
50.0
100
AcDbLine
 10
7273.266602670331
 20
9717.497424545685
 30
0.0
 11
7300.26660267051
 21
9744.49742454586
 31
0.0
  0
LINE
  5
196FA
330
747D
100
AcDbEntity
  8
部品1
 48
50.0
100
AcDbLine
 10
7300.26660267051
 20
9744.497424545967
 30
0.0
 11
7300.266602670506
 21
9772.497424545916
 31
0.0
  0
LINE
  5
196FB
330
747D
100
AcDbEntity
  8
部品1
 48
50.0
100
AcDbLine
 10
7300.26660267051
 20
9744.49742454586
 30
0.0
 11
7328.266602670506
 21
9744.497424545862
 31
0.0
  0
LINE
  5
196FC
330
747D
100
AcDbEntity
  8
部品1
 48
50.0
100
AcDbLine
 10
7328.266602670506
 20
9744.49742454586
 30
0.0
 11
7300.26660267051
 21
9772.497424545916
 31
0.0
  0
LINE
  5
196FD
330
747D
100
AcDbEntity
  8
部品1
 48
50.0
100
AcDbLine
 10
7356.266602670508
 20
9717.497424545834
 30
0.0
 11
7356.266602670574
 21
9772.497424545866
 31
0.0
  0
LINE
  5
196FE
330
747D
100
AcDbEntity
  8
部品1
100
AcDbLine
 10
7383.266602670538
 20
9772.497424545818
 30
0.0
 11
7383.266602670538
 21
9744.497424545819
 31
0.0
  0
LINE
  5
19700
330
747D
100
AcDbEntity
  8
部品1
100
AcDbLine
 10
7273.266602670542
 20
9772.497424545912
 30
0.0
 11
7273.266602670542
 21
9744.497424545912
 31
0.0
  0
LINE
  5
1971A
330
747D
100
AcDbEntity
  8
仕様書枠
 48
50.0
100
AcDbLine
 10
16307.19999999999
 20
8859.599999999998
 30
0.0
 11
13127.19999999999
 21
8859.6
 31
0.0
  0
TEXT
  5
1971B
330
747D
100
AcDbEntity
  8
文字
 62
     7
 48
50.0
100
AcDbText
 10
13248.77747366448
 20
8720.013745883729
 30
0.0
 40
100.0
  1
14
  7
STYLE1
100
AcDbText
  0
TEXT
  5
1971C
330
747D
100
AcDbEntity
  8
文字
 62
     7
 48
50.0
100
AcDbText
 10
13583.11819016569
 20
9230.013745883729
 30
0.0
 40
100.0
  1
梁中補強パネル
  7
STYLE1
100
AcDbText
  0
TEXT
  5
1971D
330
747D
100
AcDbEntity
  8
文字
 62
     7
 48
50.0
100
AcDbText
 10
15022.63965474516
 20
9230.013745883725
 30
0.0
 40
100.0
  1
F12         0.7+1.2
  7
STYLE1
100
AcDbText
  0
TEXT
  5
19764
330
747D
100
AcDbEntity
  8
文字
 62
     7
 48
50.0
100
AcDbText
 10
14646.46056207479
 20
871.9640646083623
 30
0.0
 40
100.0
  1
～多雪地型～
  7
STYLE2
100
AcDbText
  0
LINE
  5
1978E
330
747D
100
AcDbEntity
  8
破線
 48
5.0
100
AcDbLine
 10
4228.266602670469
 20
2187.931598713261
 30
0.0
 11
4328.26660267047
 21
2187.931598713261
 31
0.0
  0
LINE
  5
1978F
330
747D
100
AcDbEntity
  8
破線
 48
5.0
100
AcDbLine
 10
4278.266602670469
 20
2262.931598713262
 30
0.0
 11
4278.266602670469
 21
2187.931598713261
 31
0.0
  0
LINE
  5
19790
330
747D
100
AcDbEntity
  8
破線
 48
5.0
100
AcDbLine
 10
4175.266602670467
 20
2537.931598713262
 30
0.0
 11
4175.26660267047
 21
2287.931598713262
 31
0.0
  0
LINE
  5
19791
330
747D
100
AcDbEntity
  8
破線
 48
5.0
100
AcDbLine
 10
4223.266602670472
 20
2287.931598713262
 30
0.0
 11
4175.26660267047
 21
2287.931598713262
 31
0.0
  0
LINE
  5
19792
330
747D
100
AcDbEntity
  8
破線
 48
5.0
100
AcDbLine
 10
4223.266602670468
 20
2537.931598713262
 30
0.0
 11
4223.266602670471
 21
2262.931598713262
 31
0.0
  0
LINE
  5
19793
330
747D
100
AcDbEntity
  8
破線
 48
5.0
100
AcDbLine
 10
4333.266602670469
 20
2262.931598713262
 30
0.0
 11
4223.266602670469
 21
2262.931598713262
 31
0.0
  0
LINE
  5
19794
330
747D
100
AcDbEntity
  8
破線
 48
5.0
100
AcDbLine
 10
4381.26660267047
 20
2537.931598713262
 30
0.0
 11
4381.266602670467
 21
2287.931598713267
 31
0.0
  0
LINE
  5
19795
330
747D
100
AcDbEntity
  8
破線
 48
5.0
100
AcDbLine
 10
4381.266602670468
 20
2287.931598713267
 30
0.0
 11
4333.266602670469
 21
2287.931598713267
 31
0.0
  0
LINE
  5
19796
330
747D
100
AcDbEntity
  8
破線
 48
5.0
100
AcDbLine
 10
4333.26660267047
 20
2537.931598713262
 30
0.0
 11
4333.266602670469
 21
2262.931598713262
 31
0.0
  0
LINE
  5
197A4
330
747D
100
AcDbEntity
  8
破線
 48
5.0
100
AcDbLine
 10
7278.266602670467
 20
2187.931598713261
 30
0.0
 11
7378.266602670468
 21
2187.931598713261
 31
0.0
  0
LINE
  5
197A5
330
747D
100
AcDbEntity
  8
破線
 48
5.0
100
AcDbLine
 10
7328.266602670467
 20
2262.931598713262
 30
0.0
 11
7328.266602670467
 21
2187.931598713261
 31
0.0
  0
LINE
  5
197A6
330
747D
100
AcDbEntity
  8
破線
 48
5.0
100
AcDbLine
 10
7225.266602670465
 20
2537.931598713262
 30
0.0
 11
7225.266602670469
 21
2287.931598713262
 31
0.0
  0
LINE
  5
197A7
330
747D
100
AcDbEntity
  8
破線
 48
5.0
100
AcDbLine
 10
7273.266602670471
 20
2287.931598713262
 30
0.0
 11
7225.266602670469
 21
2287.931598713262
 31
0.0
  0
LINE
  5
197A8
330
747D
100
AcDbEntity
  8
破線
 48
5.0
100
AcDbLine
 10
7273.266602670466
 20
2537.931598713262
 30
0.0
 11
7273.266602670469
 21
2262.931598713262
 31
0.0
  0
LINE
  5
197A9
330
747D
100
AcDbEntity
  8
破線
 48
5.0
100
AcDbLine
 10
7383.266602670467
 20
2262.931598713262
 30
0.0
 11
7273.266602670467
 21
2262.931598713262
 31
0.0
  0
LINE
  5
197AA
330
747D
100
AcDbEntity
  8
破線
 48
5.0
100
AcDbLine
 10
7431.266602670469
 20
2537.931598713262
 30
0.0
 11
7431.266602670466
 21
2287.931598713267
 31
0.0
  0
LINE
  5
197AB
330
747D
100
AcDbEntity
  8
破線
 48
5.0
100
AcDbLine
 10
7431.266602670466
 20
2287.931598713267
 30
0.0
 11
7383.266602670467
 21
2287.931598713267
 31
0.0
  0
LINE
  5
197AC
330
747D
100
AcDbEntity
  8
破線
 48
5.0
100
AcDbLine
 10
7383.266602670468
 20
2537.931598713262
 30
0.0
 11
7383.266602670467
 21
2262.931598713262
 31
0.0
  0
LINE
  5
197C2
330
747D
100
AcDbEntity
  8
破線
 48
5.0
100
AcDbLine
 10
1331.266602670454
 20
2537.931598713262
 30
0.0
 11
1331.266602670454
 21
2287.931598713267
 31
0.0
  0
LINE
  5
197C3
330
747D
100
AcDbEntity
  8
破線
 48
5.0
100
AcDbLine
 10
1331.266602670454
 20
2537.931598713262
 30
0.0
 11
1331.266602670454
 21
2287.931598713267
 31
0.0
  0
LINE
  5
197C4
330
747D
100
AcDbEntity
  8
破線
 48
5.0
100
AcDbLine
 10
1331.266602670454
 20
2287.931598713267
 30
0.0
 11
1283.266602670454
 21
2287.931598713267
 31
0.0
  0
LINE
  5
197C5
330
747D
100
AcDbEntity
  8
破線
 48
5.0
100
AcDbLine
 10
1331.266602670454
 20
2287.931598713267
 30
0.0
 11
1283.266602670454
 21
2287.931598713267
 31
0.0
  0
LINE
  5
197C6
330
747D
100
AcDbEntity
  8
破線
 48
5.0
100
AcDbLine
 10
1283.266602670454
 20
2187.931598713269
 30
0.0
 11
1228.266602670454
 21
2187.931598713269
 31
0.0
  0
LINE
  5
197C7
330
747D
100
AcDbEntity
  8
破線
 48
5.0
100
AcDbLine
 10
1228.266602670454
 20
2437.931598713261
 30
0.0
 11
1228.266602670454
 21
2187.931598713261
 31
0.0
  0
LINE
  5
197C8
330
747D
100
AcDbEntity
  8
破線
 48
5.0
100
AcDbLine
 10
1283.266602670454
 20
2537.931598713262
 30
0.0
 11
1283.266602670454
 21
2187.931598713261
 31
0.0
  0
LINE
  5
197C9
330
747D
100
AcDbEntity
  8
破線
 48
5.0
100
AcDbLine
 10
1283.266602670454
 20
2537.931598713262
 30
0.0
 11
1283.266602670454
 21
2187.931598713261
 31
0.0
  0
LINE
  5
197E5
330
747D
100
AcDbEntity
  8
破線
 48
5.0
100
AcDbLine
 10
10323.26660267048
 20
2537.931598713262
 30
0.0
 11
10323.26660267048
 21
2187.931598713261
 31
0.0
  0
LINE
  5
197E6
330
747D
100
AcDbEntity
  8
破線
 48
5.0
100
AcDbLine
 10
10378.26660267048
 20
2437.931598713261
 30
0.0
 11
10378.26660267048
 21
2187.931598713261
 31
0.0
  0
LINE
  5
197E7
330
747D
100
AcDbEntity
  8
破線
 48
5.0
100
AcDbLine
 10
10378.26660267048
 20
2187.931598713261
 30
0.0
 11
10323.26660267048
 21
2187.931598713261
 31
0.0
  0
LINE
  5
197E8
330
747D
100
AcDbEntity
  8
破線
 48
5.0
100
AcDbLine
 10
10275.26660267048
 20
2537.931598713262
 30
0.0
 11
10275.26660267048
 21
2287.931598713262
 31
0.0
  0
LINE
  5
197E9
330
747D
100
AcDbEntity
  8
破線
 48
5.0
100
AcDbLine
 10
10323.26660267048
 20
2287.931598713262
 30
0.0
 11
10275.26660267048
 21
2287.931598713262
 31
0.0
  0
LINE
  5
19807
330
747D
100
AcDbEntity
  8
部品1
100
AcDbLine
 10
4333.266602670454
 20
4512.931598713261
 30
0.0
 11
7383.266602670481
 21
4512.931598713262
 31
0.0
  0
LINE
  5
19808
330
747D
100
AcDbEntity
  8
細線
100
AcDbLine
 10
4381.266602670446
 20
4172.931598713261
 30
0.0
 11
7225.26660267045
 21
4172.931598713261
 31
0.0
  0
LINE
  5
19809
330
747D
100
AcDbEntity
  8
細線
100
AcDbLine
 10
4381.266602670446
 20
4237.931598713261
 30
0.0
 11
7225.26660267045
 21
4237.931598713261
 31
0.0
  0
LINE
  5
1980A
330
747D
100
AcDbEntity
  8
細線
100
AcDbLine
 10
4381.266602670446
 20
4302.931598713261
 30
0.0
 11
7225.26660267045
 21
4302.931598713261
 31
0.0
  0
LINE
  5
1980B
330
747D
100
AcDbEntity
  8
細線
100
AcDbLine
 10
4381.266602670446
 20
3782.931598713262
 30
0.0
 11
7225.26660267045
 21
3782.931598713262
 31
0.0
  0
LINE
  5
1980C
330
747D
100
AcDbEntity
  8
細線
100
AcDbLine
 10
4381.266602670446
 20
3847.931598713262
 30
0.0
 11
7225.26660267045
 21
3847.931598713262
 31
0.0
  0
LINE
  5
1980D
330
747D
100
AcDbEntity
  8
細線
100
AcDbLine
 10
4381.266602670446
 20
3912.931598713262
 30
0.0
 11
7225.26660267045
 21
3912.931598713262
 31
0.0
  0
LINE
  5
1980E
330
747D
100
AcDbEntity
  8
細線
100
AcDbLine
 10
4381.266602670446
 20
3977.931598713261
 30
0.0
 11
7225.26660267045
 21
3977.931598713261
 31
0.0
  0
LINE
  5
1980F
330
747D
100
AcDbEntity
  8
細線
100
AcDbLine
 10
4381.266602670446
 20
4042.931598713261
 30
0.0
 11
7225.26660267045
 21
4042.931598713261
 31
0.0
  0
LINE
  5
19810
330
747D
100
AcDbEntity
  8
細線
100
AcDbLine
 10
4381.266602670446
 20
4107.931598713261
 30
0.0
 11
7225.26660267045
 21
4107.931598713261
 31
0.0
  0
LINE
  5
19811
330
747D
100
AcDbEntity
  8
細線
100
AcDbLine
 10
4381.266602670446
 20
3132.931598713261
 30
0.0
 11
7225.26660267045
 21
3132.931598713261
 31
0.0
  0
LINE
  5
19812
330
747D
100
AcDbEntity
  8
細線
100
AcDbLine
 10
4381.266602670446
 20
3197.931598713262
 30
0.0
 11
7225.26660267045
 21
3197.931598713262
 31
0.0
  0
LINE
  5
19813
330
747D
100
AcDbEntity
  8
細線
100
AcDbLine
 10
4381.266602670446
 20
3262.931598713262
 30
0.0
 11
7225.26660267045
 21
3262.931598713262
 31
0.0
  0
LINE
  5
19814
330
747D
100
AcDbEntity
  8
細線
100
AcDbLine
 10
4381.266602670446
 20
3327.931598713262
 30
0.0
 11
7225.26660267045
 21
3327.931598713262
 31
0.0
  0
LINE
  5
19815
330
747D
100
AcDbEntity
  8
細線
100
AcDbLine
 10
4381.266602670446
 20
3392.931598713261
 30
0.0
 11
7225.26660267045
 21
3392.931598713261
 31
0.0
  0
LINE
  5
19816
330
747D
100
AcDbEntity
  8
細線
100
AcDbLine
 10
4381.266602670446
 20
3457.931598713262
 30
0.0
 11
7225.26660267045
 21
3457.931598713262
 31
0.0
  0
LINE
  5
19817
330
747D
100
AcDbEntity
  8
細線
100
AcDbLine
 10
4381.266602670446
 20
3522.931598713262
 30
0.0
 11
7225.26660267045
 21
3522.931598713262
 31
0.0
  0
LINE
  5
19818
330
747D
100
AcDbEntity
  8
細線
100
AcDbLine
 10
4381.266602670446
 20
3587.931598713261
 30
0.0
 11
7225.26660267045
 21
3587.931598713261
 31
0.0
  0
LINE
  5
19819
330
747D
100
AcDbEntity
  8
細線
100
AcDbLine
 10
4381.266602670446
 20
3652.931598713261
 30
0.0
 11
7225.26660267045
 21
3652.931598713261
 31
0.0
  0
LINE
  5
1981A
330
747D
100
AcDbEntity
  8
細線
100
AcDbLine
 10
4381.266602670446
 20
3717.931598713261
 30
0.0
 11
7225.26660267045
 21
3717.931598713261
 31
0.0
  0
LINE
  5
1981B
330
747D
100
AcDbEntity
  8
細線
100
AcDbLine
 10
4381.266602670446
 20
4432.931598713262
 30
0.0
 11
7225.26660267045
 21
4432.931598713262
 31
0.0
  0
LINE
  5
1981C
330
747D
100
AcDbEntity
  8
細線
100
AcDbLine
 10
4381.266602670446
 20
4497.931598713261
 30
0.0
 11
7225.26660267045
 21
4497.931598713261
 31
0.0
  0
LINE
  5
1981D
330
747D
100
AcDbEntity
  8
細線
100
AcDbLine
 10
4381.266602670446
 20
4367.931598713261
 30
0.0
 11
7225.26660267045
 21
4367.931598713261
 31
0.0
  0
LINE
  5
1981E
330
747D
100
AcDbEntity
  8
細線
100
AcDbLine
 10
4381.266602670446
 20
2612.931598713262
 30
0.0
 11
7225.26660267045
 21
2612.931598713262
 31
0.0
  0
LINE
  5
1981F
330
747D
100
AcDbEntity
  8
細線
100
AcDbLine
 10
4381.266602670446
 20
2677.931598713261
 30
0.0
 11
7225.26660267045
 21
2677.931598713261
 31
0.0
  0
LINE
  5
19820
330
747D
100
AcDbEntity
  8
細線
100
AcDbLine
 10
4381.266602670446
 20
2742.931598713262
 30
0.0
 11
7225.26660267045
 21
2742.931598713262
 31
0.0
  0
LINE
  5
19821
330
747D
100
AcDbEntity
  8
細線
100
AcDbLine
 10
4381.266602670446
 20
2807.931598713262
 30
0.0
 11
7225.26660267045
 21
2807.931598713262
 31
0.0
  0
LINE
  5
19822
330
747D
100
AcDbEntity
  8
細線
100
AcDbLine
 10
4381.266602670446
 20
2872.931598713261
 30
0.0
 11
7225.26660267045
 21
2872.931598713261
 31
0.0
  0
LINE
  5
19823
330
747D
100
AcDbEntity
  8
細線
100
AcDbLine
 10
4381.266602670446
 20
2937.931598713261
 30
0.0
 11
7225.26660267045
 21
2937.931598713261
 31
0.0
  0
LINE
  5
19824
330
747D
100
AcDbEntity
  8
細線
100
AcDbLine
 10
4381.266602670446
 20
3002.931598713261
 30
0.0
 11
7225.26660267045
 21
3002.931598713261
 31
0.0
  0
LINE
  5
19825
330
747D
100
AcDbEntity
  8
細線
100
AcDbLine
 10
4381.266602670446
 20
3067.931598713262
 30
0.0
 11
7225.26660267045
 21
3067.931598713262
 31
0.0
  0
CIRCLE
  5
19826
330
747D
100
AcDbEntity
  8
細線
 48
50.0
100
AcDbCircle
 10
5803.266602670451
 20
3425.431598713262
 30
0.0
 40
18.0
  0
ARC
  5
19827
330
747D
100
AcDbEntity
  8
細線
 48
50.0
100
AcDbCircle
 10
6103.26660267045
 20
3100.431598713262
 30
0.0
 40
15.0
100
AcDbArc
 50
270.0
 51
90.0
  0
ARC
  5
19828
330
747D
100
AcDbEntity
  8
細線
 48
50.0
100
AcDbCircle
 10
6003.26660267045
 20
3100.431598713262
 30
0.0
 40
15.0
100
AcDbArc
 50
90.0
 51
270.0
  0
LINE
  5
19829
330
747D
100
AcDbEntity
  8
細線
 48
50.0
100
AcDbLine
 10
6003.26660267045
 20
3115.431598713261
 30
0.0
 11
6103.26660267045
 21
3115.431598713261
 31
0.0
  0
LINE
  5
1982A
330
747D
100
AcDbEntity
  8
細線
 48
50.0
100
AcDbLine
 10
6103.26660267045
 20
3085.431598713262
 30
0.0
 11
6003.26660267045
 21
3085.431598713262
 31
0.0
  0
LINE
  5
1982B
330
747D
100
AcDbEntity
  8
細線
 48
50.0
100
AcDbLine
 10
5603.26660267045
 20
3085.431598713262
 30
0.0
 11
5503.26660267045
 21
3085.431598713262
 31
0.0
  0
LINE
  5
1982C
330
747D
100
AcDbEntity
  8
細線
 48
50.0
100
AcDbLine
 10
5503.26660267045
 20
3115.431598713261
 30
0.0
 11
5603.26660267045
 21
3115.431598713261
 31
0.0
  0
ARC
  5
1982D
330
747D
100
AcDbEntity
  8
細線
 48
50.0
100
AcDbCircle
 10
5603.26660267045
 20
3100.431598713262
 30
0.0
 40
15.0
100
AcDbArc
 50
270.0
 51
90.0
  0
ARC
  5
1982E
330
747D
100
AcDbEntity
  8
細線
 48
50.0
100
AcDbCircle
 10
5503.26660267045
 20
3100.431598713262
 30
0.0
 40
15.0
100
AcDbArc
 50
90.0
 51
270.0
  0
LINE
  5
1982F
330
747D
100
AcDbEntity
  8
細線
100
AcDbLine
 10
4381.266602670446
 20
2547.931598713262
 30
0.0
 11
7225.26660267045
 21
2547.931598713262
 31
0.0
  0
TEXT
  5
19831
330
747D
100
AcDbEntity
  8
文字
 62
     7
 48
50.0
100
AcDbText
 10
15022.63965474516
 20
8890.013745883726
 30
0.0
 40
100.0
  1
F12            0.7
  7
STYLE1
100
AcDbText
  0
LINE
  5
1983B
330
747D
100
AcDbEntity
  8
部品1
 48
50.0
100
AcDbLine
 10
1228.266602670453
 20
9772.497424545838
 30
0.0
 11
10378.26660267049
 21
9772.497424545964
 31
0.0
  0
LINE
  5
1983C
330
747D
100
AcDbEntity
  8
部品1
 48
50.0
100
AcDbLine
 10
4306.26660267054
 20
9744.497424545555
 30
0.0
 11
7300.26660267051
 21
9744.497424545967
 31
0.0
  0
LINE
  5
1983D
330
747D
100
AcDbEntity
  8
部品1
 48
50.0
100
AcDbLine
 10
7273.266602670331
 20
9717.497424545685
 30
0.0
 11
4333.26660267033
 21
9717.497424545678
 31
0.0
  0
LINE
  5
1983E
330
747D
100
AcDbEntity
  8
部品1
 48
50.0
100
AcDbLine
 10
7248.266602670324
 20
9692.497424545972
 30
0.0
 11
4358.266602670306
 21
9692.497424545971
 31
0.0
  0
LINE
  5
19845
330
747D
100
AcDbEntity
  8
部品1
 48
50.0
100
AcDbLine
 10
5849.799342226076
 20
9904.659972782443
 30
0.0
 11
5756.733863114975
 21
9557.334876309077
 31
0.0
  0
SPLINE
  5
19846
330
747D
100
AcDbEntity
  8
部品1
 48
50.0
100
AcDbSpline
210
0.0
220
0.0
230
1.0
 70
     8
 71
     3
 72
    10
 73
     6
 74
     4
 42
0.0000000001
 43
0.0000000001
 44
0.0000000001
 40
0.0
 40
0.0
 40
0.0
 40
0.0
 40
147.8767566010009
 40
301.8091093202477
 40
466.5049223087716
 40
466.5049223087716
 40
466.5049223087716
 40
466.5049223087716
 10
5870.836930403577
 20
9812.238577071553
 30
0.0
 10
5793.955247908741
 20
9803.334143413714
 30
0.0
 10
5637.043555698612
 20
9785.160636954385
 30
0.0
 10
5959.856965642957
 20
9682.640052315042
 30
0.0
 10
5790.014345973584
 20
9664.004963602836
 30
0.0
 10
5702.224340766691
 20
9654.372666725528
 30
0.0
 11
5870.836930403577
 21
9812.238577071553
 31
0.0
 11
5727.998952094806
 21
9773.965256135227
 31
0.0
 11
5861.308280013981
 21
9696.999079775602
 31
0.0
 11
5702.224340766691
 21
9654.372666725528
 31
0.0
  0
LINE
  5
19847
330
747D
100
AcDbEntity
  8
部品1
 48
50.0
100
AcDbLine
 10
4345.266602670482
 20
7187.997424545864
 30
0.0
 11
7261.266602670466
 21
7187.997424545864
 31
0.0
  0
LINE
  5
1984E
330
747D
100
AcDbEntity
  8
部品1
 48
50.0
100
AcDbLine
 10
5849.799342226025
 20
7361.659972782547
 30
0.0
 11
5756.733863114924
 21
7014.334876309182
 31
0.0
  0
SPLINE
  5
1984F
330
747D
100
AcDbEntity
  8
部品1
 48
50.0
100
AcDbSpline
210
0.0
220
0.0
230
1.0
 70
     8
 71
     3
 72
    10
 73
     6
 74
     4
 42
0.0000000001
 43
0.0000000001
 44
0.0000000001
 40
0.0
 40
0.0
 40
0.0
 40
0.0
 40
147.8767566010009
 40
301.8091093202477
 40
466.5049223087716
 40
466.5049223087716
 40
466.5049223087716
 40
466.5049223087716
 10
5870.836930403525
 20
7269.238577071657
 30
0.0
 10
5793.95524790869
 20
7260.33414341382
 30
0.0
 10
5637.043555698561
 20
7242.160636954487
 30
0.0
 10
5959.856965642906
 20
7139.640052315144
 30
0.0
 10
5790.014345973532
 20
7121.004963602941
 30
0.0
 10
5702.22434076664
 20
7111.372666725633
 30
0.0
 11
5870.836930403525
 21
7269.238577071657
 31
0.0
 11
5727.998952094756
 21
7230.965256135329
 31
0.0
 11
5861.30828001393
 21
7153.999079775705
 31
0.0
 11
5702.22434076664
 21
7111.372666725633
 31
0.0
  0
LINE
  5
1985F
330
747D
100
AcDbEntity
  8
部品1
 48
50.0
100
AcDbLine
 10
6255.43086489797
 20
5112.931598713265
 30
0.0
 11
5431.487098172269
 21
2037.931598713262
 31
0.0
  0
SPLINE
  5
19860
330
747D
100
AcDbEntity
  8
部品1
 48
50.0
100
AcDbSpline
210
0.0
220
0.0
230
1.0
 70
     8
 71
     3
 72
    10
 73
     6
 74
     4
 42
0.0000000001
 43
0.0000000001
 44
0.0000000001
 40
0.0
 40
0.0
 40
0.0
 40
0.0
 40
147.8767566010009
 40
301.8091093202477
 40
466.5049223087734
 40
466.5049223087734
 40
466.5049223087734
 40
466.5049223087734
 10
5870.836930403502
 20
3506.672751239055
 30
0.0
 10
5793.955247908667
 20
3497.768317581217
 30
0.0
 10
5637.04355569854
 20
3479.594811121885
 30
0.0
 10
5959.856965642885
 20
3377.074226482542
 30
0.0
 10
5790.014345973509
 20
3358.439137770339
 30
0.0
 10
5702.224340766615
 20
3348.80684089303
 30
0.0
 11
5870.836930403502
 21
3506.672751239055
 31
0.0
 11
5727.998952094733
 21
3468.399430302727
 31
0.0
 11
5861.308280013908
 21
3391.433253943103
 31
0.0
 11
5702.224340766615
 21
3348.80684089303
 31
0.0
  0
ENDSEC
  0
SECTION
  2
OBJECTS
  0
DICTIONARY
  5
7471
330
0
100
AcDbDictionary
281
     1
  3
ACAD_COLOR
350
17649
  3
ACAD_GROUP
350
7472
  3
ACAD_LAYOUT
350
1764A
  3
ACAD_MATERIAL
350
17648
  3
ACAD_MLINESTYLE
350
7473
  3
ACAD_PLOTSETTINGS
350
1764B
  3
ACAD_PLOTSTYLENAME
350
17646
  3
ACDBHEADERROUNDTRIPXREC
350
198C9
  3
AcDbVariableDictionary
350
198C5
  3
CONTENTDICTIONARY
350
E71C
  3
DRAWINGVARIABLESDICT
350
F3B9
  0
DICTIONARY
  5
17918
330
7467
100
AcDbDictionary
280
     1
281
     1
  3
ACAD_LAYERSTATES
360
17919
  0
DICTIONARY
  5
17649
102
{ACAD_REACTORS
330
7471
102
}
330
7471
100
AcDbDictionary
281
     1
  0
DICTIONARY
  5
7472
102
{ACAD_REACTORS
330
7471
102
}
330
7471
100
AcDbDictionary
281
     1
  0
DICTIONARY
  5
1764A
102
{ACAD_REACTORS
330
7471
102
}
330
7471
100
AcDbDictionary
281
     1
  3
Model
350
1764C
  3
レイアウト1
350
1764D
  0
DICTIONARY
  5
17648
102
{ACAD_REACTORS
330
7471
102
}
330
7471
100
AcDbDictionary
281
     1
  0
DICTIONARY
  5
7473
102
{ACAD_REACTORS
330
7471
102
}
330
7471
100
AcDbDictionary
281
     1
  3
STANDARD
350
7480
  0
DICTIONARY
  5
1764B
102
{ACAD_REACTORS
330
7471
102
}
330
7471
100
AcDbDictionary
281
     1
  0
ACDBDICTIONARYWDFLT
  5
17646
102
{ACAD_REACTORS
330
7471
102
}
330
7471
100
AcDbDictionary
281
     1
  3
Normal
350
17647
100
AcDbDictionaryWithDefault
340
17647
  0
DICTIONARY
  5
198C9
102
{ACAD_REACTORS
330
7471
102
}
330
7471
100
AcDbDictionary
281
     1
  3
COLORDICT
350
198CB
  3
MATERIALDICT
350
198CA
  0
DICTIONARY
  5
198C5
102
{ACAD_REACTORS
330
7471
102
}
330
7471
100
AcDbDictionary
281
     1
  3
DIMASSOC
350
198C6
  3
PROJECTNAME
350
198C7
  0
DICTIONARY
  5
E71C
102
{ACAD_REACTORS
330
7471
102
}
330
7471
100
AcDbDictionary
281
     1
  0
DICTIONARY
  5
F3B9
102
{ACAD_REACTORS
330
7471
102
}
330
7471
100
AcDbDictionary
281
     1
1001
DRAWINGVARIABLESXDATA
1000
POLARMODE
1000
1
  0
DICTIONARY
  5
17919
102
{ACAD_REACTORS
330
17918
102
}
330
17918
100
AcDbDictionary
281
     1
  0
LAYOUT
  5
1764C
102
{ACAD_XDICTIONARY
360
198CC
102
}
102
{ACAD_REACTORS
330
1764A
102
}
330
1764A
100
AcDbPlotSettings
  1

  2
クセロPDF
  4
A3
  6

 40
3.174999999999999
 41
3.174999999999999
 42
3.174987999999999
 43
3.174987999999999
 44
419.946655
 45
296.925995
 46
0.0
 47
0.0
 48
0.0
 49
0.0
140
0.0
141
0.0
142
1.0
143
40.44561299368567
 70
 11952
 72
     1
 73
     0
 74
     2
  7
inaba.ctb
 75
     0
147
0.0247245603659442
148
183.0179068595971
149
160.3342785227505
100
AcDbLayout
  1
Model
 70
     1
 71
     0
 10
0.0
 20
0.0
 11
12.0
 21
9.0
 12
0.0
 22
0.0
 32
0.0
 14
0.0
 24
0.0
 34
0.0
 15
0.0
 25
0.0
 35
0.0
146
0.0
 13
0.0
 23
0.0
 33
0.0
 16
1.0
 26
0.0
 36
0.0
 17
0.0
 27
1.0
 37
0.0
 76
     0
330
747D
  0
LAYOUT
  5
1764D
102
{ACAD_XDICTIONARY
360
198CE
102
}
102
{ACAD_REACTORS
330
1764A
102
}
330
1764A
100
AcDbPlotSettings
  1

  2
EPSON LP-8300
  4

  6

 40
0.0
 41
0.0
 42
0.0
 43
0.0
 44
0.0
 45
0.0
 46
0.0
 47
0.0
 48
0.0
 49
0.0
140
0.0
141
0.0
142
1.0
143
1.0
 70
   688
 72
     0
 73
     0
 74
     5
  7
inaba.ctb
 75
    16
147
1.0
148
0.0
149
0.0
100
AcDbLayout
  1
レイアウト1
 70
     0
 71
     1
 10
0.0
 20
0.0
 11
420.0
 21
297.0
 12
0.0
 22
0.0
 32
0.0
 14
1.000000000000000E+20
 24
1.000000000000000E+20
 34
1.000000000000000E+20
 15
-1.000000000000000E+20
 25
-1.000000000000000E+20
 35
-1.000000000000000E+20
146
0.0
 13
0.0
 23
0.0
 33
0.0
 16
1.0
 26
0.0
 36
0.0
 17
0.0
 27
1.0
 37
0.0
 76
     0
330
747A
  0
MLINESTYLE
  5
7480
102
{ACAD_REACTORS
330
7473
102
}
330
7473
100
AcDbMlineStyle
  2
STANDARD
 70
     0
  3

 62
     0
 51
90.0
 52
90.0
 71
     2
 49
0.5
 62
   256
  6
BYLAYER
 49
-0.5
 62
   256
  6
BYLAYER
  0
ACDBPLACEHOLDER
  5
17647
102
{ACAD_REACTORS
330
17646
102
}
330
17646
  0
XRECORD
  5
198CB
102
{ACAD_REACTORS
330
198C9
102
}
330
198C9
100
AcDbXrecord
280
     1
340
17649
  0
XRECORD
  5
198CA
102
{ACAD_REACTORS
330
198C9
102
}
330
198C9
100
AcDbXrecord
280
     1
340
17648
  0
DICTIONARYVAR
  5
198C6
102
{ACAD_REACTORS
330
198C5
102
}
330
198C5
100
DictionaryVariables
280
     0
  1
1
  0
DICTIONARYVAR
  5
198C7
102
{ACAD_REACTORS
330
198C5
102
}
330
198C5
100
DictionaryVariables
280
     0
  1

  0
DICTIONARY
  5
198CC
330
1764C
100
AcDbDictionary
280
     1
281
     1
  3
ACAD_XREC_ROUNDTRIP
360
198CD
  0
DICTIONARY
  5
198CE
330
1764D
100
AcDbDictionary
280
     1
281
     1
  3
ACAD_XREC_ROUNDTRIP
360
198CF
  0
XRECORD
  5
198CD
102
{ACAD_REACTORS
330
198CC
102
}
330
198CC
100
AcDbXrecord
280
     1
102
SHADEPLOT
 70
     1
102
SHADEPLOTRESLEVEL
 70
     2
102
SHADEPLOTCUSTOMDPI
 70
   300
  0
XRECORD
  5
198CF
102
{ACAD_REACTORS
330
198CE
102
}
330
198CE
100
AcDbXrecord
280
     1
102
SHADEPLOT
 70
     0
102
SHADEPLOTRESLEVEL
 70
     2
102
SHADEPLOTCUSTOMDPI
 70
   300
  0
ENDSEC
  0
EOF
