  0
SECTION
  2
HEADER
  9
$ACADVER
  1
AC1015
  9
$ACADMAINTVER
 70
    20
  9
$DWGCODEPAGE
  3
ANSI_932
  9
$INSBASE
 10
0.0
 20
0.0
 30
0.0
  9
$EXTMIN
 10
139.9999999999995
 20
-0.0000000000000909
 30
0.0
  9
$EXTMAX
 10
16307.2
 20
11409.6
 30
0.0
  9
$LIMMIN
 10
-183.0179068595971
 20
-160.3342785227505
  9
$LIMMAX
 10
16374.07536659319
 20
11592.19044584975
  9
$ORTHOMODE
 70
     0
  9
$REGENMODE
 70
     1
  9
$FILLMODE
 70
     1
  9
$QTEXTMODE
 70
     0
  9
$MIRRTEXT
 70
     1
  9
$LTSCALE
 40
20.0
  9
$ATTMODE
 70
     1
  9
$TEXTSIZE
 40
100.0
  9
$TRACEWID
 40
1.0
  9
$TEXTSTYLE
  7
STYLE2
  9
$CLAYER
  8
部品1
  9
$CELTYPE
  6
BYLAYER
  9
$CECOLOR
 62
   256
  9
$CELTSCALE
 40
50.0
  9
$DISPSILH
 70
     0
  9
$DIMSCALE
 40
40.0
  9
$DIMASZ
 40
2.5
  9
$DIMEXO
 40
0.5
  9
$DIMDLI
 40
7.0
  9
$DIMRND
 40
0.0
  9
$DIMDLE
 40
0.0
  9
$DIMEXE
 40
1.5
  9
$DIMTP
 40
0.0
  9
$DIMTM
 40
0.0
  9
$DIMTXT
 40
3.0
  9
$DIMCEN
 40
0.0
  9
$DIMTSZ
 40
0.0
  9
$DIMTOL
 70
     0
  9
$DIMLIM
 70
     0
  9
$DIMTIH
 70
     0
  9
$DIMTOH
 70
     0
  9
$DIMSE1
 70
     0
  9
$DIMSE2
 70
     0
  9
$DIMTAD
 70
     3
  9
$DIMZIN
 70
     8
  9
$DIMBLK
  1

  9
$DIMASO
 70
     1
  9
$DIMSHO
 70
     1
  9
$DIMPOST
  1

  9
$DIMAPOST
  1

  9
$DIMALT
 70
     0
  9
$DIMALTD
 70
     2
  9
$DIMALTF
 40
0.0394
  9
$DIMLFAC
 40
1.0
  9
$DIMTOFL
 70
     1
  9
$DIMTVP
 40
0.0
  9
$DIMTIX
 70
     1
  9
$DIMSOXD
 70
     0
  9
$DIMSAH
 70
     1
  9
$DIMBLK1
  1
DOTSMALL
  9
$DIMBLK2
  1
DOTSMALL
  9
$DIMSTYLE
  2
INABA_S40G
  9
$DIMCLRD
 70
     0
  9
$DIMCLRE
 70
     0
  9
$DIMCLRT
 70
     7
  9
$DIMTFAC
 40
1.0
  9
$DIMGAP
 40
1.0
  9
$DIMJUST
 70
     0
  9
$DIMSD1
 70
     0
  9
$DIMSD2
 70
     0
  9
$DIMTOLJ
 70
     1
  9
$DIMTZIN
 70
     0
  9
$DIMALTZ
 70
     0
  9
$DIMALTTZ
 70
     0
  9
$DIMUPT
 70
     0
  9
$DIMDEC
 70
     1
  9
$DIMTDEC
 70
     4
  9
$DIMALTU
 70
     2
  9
$DIMALTTD
 70
     2
  9
$DIMTXSTY
  7
STYLE1
  9
$DIMAUNIT
 70
     0
  9
$DIMADEC
 70
     0
  9
$DIMALTRND
 40
0.0
  9
$DIMAZIN
 70
     0
  9
$DIMDSEP
 70
    46
  9
$DIMATFIT
 70
     3
  9
$DIMFRAC
 70
     0
  9
$DIMLDRBLK
  1

  9
$DIMLUNIT
 70
     2
  9
$DIMLWD
 70
    -2
  9
$DIMLWE
 70
    -2
  9
$DIMTMOVE
 70
     2
  9
$LUNITS
 70
     2
  9
$LUPREC
 70
     1
  9
$SKETCHINC
 40
1.0
  9
$FILLETRAD
 40
3.0
  9
$AUNITS
 70
     0
  9
$AUPREC
 70
     0
  9
$MENU
  1
acad
  9
$ELEVATION
 40
0.0
  9
$PELEVATION
 40
0.0
  9
$THICKNESS
 40
0.0
  9
$LIMCHECK
 70
     0
  9
$CHAMFERA
 40
0.0
  9
$CHAMFERB
 40
0.0
  9
$CHAMFERC
 40
0.0
  9
$CHAMFERD
 40
0.0
  9
$SKPOLY
 70
     0
  9
$TDCREATE
 40
2451368.612993866
  9
$TDUCREATE
 40
2451368.237993866
  9
$TDUPDATE
 40
2455569.632034143
  9
$TDUUPDATE
 40
2455569.257034143
  9
$TDINDWG
 40
0.7852694907
  9
$TDUSRTIMER
 40
0.7852694907
  9
$USRTIMER
 70
     1
  9
$ANGBASE
 50
0.0
  9
$ANGDIR
 70
     0
  9
$PDMODE
 70
     3
  9
$PDSIZE
 40
2.0
  9
$PLINEWID
 40
0.0
  9
$SPLFRAME
 70
     0
  9
$SPLINETYPE
 70
     6
  9
$SPLINESEGS
 70
     8
  9
$HANDSEED
  5
18BCC
  9
$SURFTAB1
 70
     6
  9
$SURFTAB2
 70
     6
  9
$SURFTYPE
 70
     6
  9
$SURFU
 70
     6
  9
$SURFV
 70
     6
  9
$UCSBASE
  2

  9
$UCSNAME
  2

  9
$UCSORG
 10
0.0
 20
0.0
 30
0.0
  9
$UCSXDIR
 10
1.0
 20
0.0
 30
0.0
  9
$UCSYDIR
 10
0.0
 20
1.0
 30
0.0
  9
$UCSORTHOREF
  2

  9
$UCSORTHOVIEW
 70
     0
  9
$UCSORGTOP
 10
0.0
 20
0.0
 30
0.0
  9
$UCSORGBOTTOM
 10
0.0
 20
0.0
 30
0.0
  9
$UCSORGLEFT
 10
0.0
 20
0.0
 30
0.0
  9
$UCSORGRIGHT
 10
0.0
 20
0.0
 30
0.0
  9
$UCSORGFRONT
 10
0.0
 20
0.0
 30
0.0
  9
$UCSORGBACK
 10
0.0
 20
0.0
 30
0.0
  9
$PUCSBASE
  2

  9
$PUCSNAME
  2

  9
$PUCSORG
 10
0.0
 20
0.0
 30
0.0
  9
$PUCSXDIR
 10
1.0
 20
0.0
 30
0.0
  9
$PUCSYDIR
 10
0.0
 20
1.0
 30
0.0
  9
$PUCSORTHOREF
  2

  9
$PUCSORTHOVIEW
 70
     0
  9
$PUCSORGTOP
 10
0.0
 20
0.0
 30
0.0
  9
$PUCSORGBOTTOM
 10
0.0
 20
0.0
 30
0.0
  9
$PUCSORGLEFT
 10
0.0
 20
0.0
 30
0.0
  9
$PUCSORGRIGHT
 10
0.0
 20
0.0
 30
0.0
  9
$PUCSORGFRONT
 10
0.0
 20
0.0
 30
0.0
  9
$PUCSORGBACK
 10
0.0
 20
0.0
 30
0.0
  9
$USERI1
 70
     0
  9
$USERI2
 70
     0
  9
$USERI3
 70
     0
  9
$USERI4
 70
     0
  9
$USERI5
 70
     0
  9
$USERR1
 40
0.0
  9
$USERR2
 40
0.0
  9
$USERR3
 40
0.0
  9
$USERR4
 40
0.0
  9
$USERR5
 40
0.0
  9
$WORLDVIEW
 70
     1
  9
$SHADEDGE
 70
     3
  9
$SHADEDIF
 70
    70
  9
$TILEMODE
 70
     1
  9
$MAXACTVP
 70
    16
  9
$PINSBASE
 10
0.0
 20
0.0
 30
0.0
  9
$PLIMCHECK
 70
     0
  9
$PEXTMIN
 10
1.000000000000000E+20
 20
1.000000000000000E+20
 30
1.000000000000000E+20
  9
$PEXTMAX
 10
-1.000000000000000E+20
 20
-1.000000000000000E+20
 30
-1.000000000000000E+20
  9
$PLIMMIN
 10
0.0
 20
0.0
  9
$PLIMMAX
 10
420.0
 20
297.0
  9
$UNITMODE
 70
     0
  9
$VISRETAIN
 70
     0
  9
$PLINEGEN
 70
     0
  9
$PSLTSCALE
 70
     0
  9
$TREEDEPTH
 70
  3020
  9
$CMLSTYLE
  2
STANDARD
  9
$CMLJUST
 70
     0
  9
$CMLSCALE
 40
1.0
  9
$PROXYGRAPHICS
 70
     1
  9
$MEASUREMENT
 70
     1
  9
$CELWEIGHT
370
    -1
  9
$ENDCAPS
280
     0
  9
$JOINSTYLE
280
     0
  9
$LWDISPLAY
290
     0
  9
$INSUNITS
 70
     0
  9
$HYPERLINKBASE
  1

  9
$STYLESHEET
  1
inaba.ctb
  9
$XEDIT
290
     1
  9
$CEPSNTYPE
380
     0
  9
$PSTYLEMODE
290
     1
  9
$FINGERPRINTGUID
  2
{F7428E35-A48F-45A2-A259-D4A4E15FC3E2}
  9
$VERSIONGUID
  2
{90D4791C-8A14-4C1F-9102-63EABE630E3F}
  9
$EXTNAMES
290
     1
  9
$PSVPSCALE
 40
0.0
  9
$OLESTARTUP
290
     0
  0
ENDSEC
  0
SECTION
  2
CLASSES
  0
CLASS
  1
ACDBDICTIONARYWDFLT
  2
AcDbDictionaryWithDefault
  3
ObjectDBX Classes
 90
        0
280
     0
281
     0
  0
CLASS
  1
DICTIONARYVAR
  2
AcDbDictionaryVar
  3
ObjectDBX Classes
 90
        0
280
     0
281
     0
  0
CLASS
  1
ACDBPLACEHOLDER
  2
AcDbPlaceHolder
  3
ObjectDBX Classes
 90
        0
280
     0
281
     0
  0
CLASS
  1
LAYOUT
  2
AcDbLayout
  3
ObjectDBX Classes
 90
        0
280
     0
281
     0
  0
ENDSEC
  0
SECTION
  2
TABLES
  0
TABLE
  2
VPORT
  5
746D
330
0
100
AcDbSymbolTable
 70
     2
  0
VPORT
  5
18BC4
330
746D
100
AcDbSymbolTableRecord
100
AcDbViewportTableRecord
  2
*Active
 70
     0
 10
0.0
 20
0.0
 11
1.0
 21
1.0
 12
8807.271686578827
 22
5704.702490562726
 13
0.0
 23
0.0
 14
10.0
 24
10.0
 15
10.0
 25
10.0
 16
0.0
 26
0.0
 36
1.0
 17
0.0
 27
0.0
 37
0.0
 40
11494.90959464419
 41
1.627450980392156
 42
50.0
 43
0.0
 44
0.0
 50
0.0
 51
0.0
 71
     0
 72
     0
 73
     1
 74
     0
 75
     0
 76
     0
 77
     0
 78
     0
281
     0
 65
     1
110
0.0
120
0.0
130
0.0
111
1.0
121
0.0
131
0.0
112
0.0
122
1.0
132
0.0
 79
     0
146
0.0
  0
ENDTAB
  0
TABLE
  2
LTYPE
  5
746A
330
0
100
AcDbSymbolTable
 70
     3
  0
LTYPE
  5
7477
330
746A
100
AcDbSymbolTableRecord
100
AcDbLinetypeTableRecord
  2
BYBLOCK
 70
     0
  3

 72
    65
 73
     0
 40
0.0
  0
LTYPE
  5
7478
330
746A
100
AcDbSymbolTableRecord
100
AcDbLinetypeTableRecord
  2
BYLAYER
 70
     0
  3

 72
    65
 73
     0
 40
0.0
  0
LTYPE
  5
7479
330
746A
100
AcDbSymbolTableRecord
100
AcDbLinetypeTableRecord
  2
CONTINUOUS
 70
     0
  3
Solid line
 72
    65
 73
     0
 40
0.0
  0
LTYPE
  5
781A
330
746A
100
AcDbSymbolTableRecord
100
AcDbLinetypeTableRecord
  2
HIDDEN
 70
     0
  3
__ __ __ __ __ __ __ __ __ __ __ __ __ __ __ __
 72
    65
 73
     2
 40
0.375
 49
0.25
 74
     0
 49
-0.125
 74
     0
  0
LTYPE
  5
781B
330
746A
100
AcDbSymbolTableRecord
100
AcDbLinetypeTableRecord
  2
PHANTOM
 70
     0
  3
______  __  __  ______  __  __  ______  __  __ 
 72
    65
 73
     6
 40
2.5
 49
1.25
 74
     0
 49
-0.25
 74
     0
 49
0.25
 74
     0
 49
-0.25
 74
     0
 49
0.25
 74
     0
 49
-0.25
 74
     0
  0
ENDTAB
  0
TABLE
  2
LAYER
  5
7467
102
{ACAD_XDICTIONARY
360
17816
102
}
330
0
100
AcDbSymbolTable
 70
    10
  0
LAYER
  5
7474
330
7467
100
AcDbSymbolTableRecord
100
AcDbLayerTableRecord
  2
0
 70
     0
 62
     7
  6
CONTINUOUS
370
    -3
390
17470
  0
LAYER
  5
DEB3
330
7467
100
AcDbSymbolTableRecord
100
AcDbLayerTableRecord
  2
寸法
 70
     0
 62
     4
  6
CONTINUOUS
370
    -3
390
17470
  0
LAYER
  5
DEB4
330
7467
100
AcDbSymbolTableRecord
100
AcDbLayerTableRecord
  2
部品1
 70
     0
 62
     7
  6
CONTINUOUS
370
    -3
390
17470
  0
LAYER
  5
DEB5
330
7467
100
AcDbSymbolTableRecord
100
AcDbLayerTableRecord
  2
補助
 70
     0
 62
    -1
  6
CONTINUOUS
370
    -3
390
17470
  0
LAYER
  5
DEB6
330
7467
100
AcDbSymbolTableRecord
100
AcDbLayerTableRecord
  2
文字
 70
     0
 62
     7
  6
CONTINUOUS
370
    -3
390
17470
  0
LAYER
  5
F255
330
7467
100
AcDbSymbolTableRecord
100
AcDbLayerTableRecord
  2
DEFPOINTS
 70
     0
 62
     7
  6
CONTINUOUS
290
     0
370
    -3
390
17470
  0
LAYER
  5
10B54
330
7467
100
AcDbSymbolTableRecord
100
AcDbLayerTableRecord
  2
仕様書枠
 70
     0
 62
   230
  6
CONTINUOUS
370
    -3
390
17470
  0
LAYER
  5
11729
330
7467
100
AcDbSymbolTableRecord
100
AcDbLayerTableRecord
  2
Ｇ．Ｌ
 70
     0
 62
    30
  6
CONTINUOUS
370
    -3
390
17470
  0
LAYER
  5
1173F
330
7467
100
AcDbSymbolTableRecord
100
AcDbLayerTableRecord
  2
細線
 70
     0
 62
     5
  6
CONTINUOUS
370
    -3
390
17470
  0
LAYER
  5
142E2
330
7467
100
AcDbSymbolTableRecord
100
AcDbLayerTableRecord
  2
破線
 70
     0
 62
     2
  6
HIDDEN
370
    -3
390
17470
  0
ENDTAB
  0
TABLE
  2
STYLE
  5
7468
330
0
100
AcDbSymbolTable
 70
     4
  0
STYLE
  5
7475
330
7468
100
AcDbSymbolTableRecord
100
AcDbTextStyleTableRecord
  2
STANDARD
 70
     0
 40
0.0
 41
1.0
 50
0.0
 71
     0
 42
4.0
  3
txt
  4
C:\AutoCAD LT\bigfont.shx
  0
STYLE
  5
763C
330
7468
100
AcDbSymbolTableRecord
100
AcDbTextStyleTableRecord
  2
MSMINCHO
 70
     0
 40
0.0
 41
1.0
 50
0.0
 71
     0
 42
1.199999999999999
  3
C:\AutoCAD LT\msminch2.TTF
  4

  0
STYLE
  5
F706
330
7468
100
AcDbSymbolTableRecord
100
AcDbTextStyleTableRecord
  2
STYLE1
 70
     0
 40
0.0
 41
1.0
 50
0.0
 71
     0
 42
4.0
  3
isocp.shx
  4
bigfont.shx
  0
STYLE
  5
103BF
330
7468
100
AcDbSymbolTableRecord
100
AcDbTextStyleTableRecord
  2
STYLE2
 70
     0
 40
0.0
 41
1.0
 50
0.0
 71
     0
 42
100.0
  3
MS PGothic.ttf
  4

1001
ACAD
1000
MS PGothic
1071
    32818
  0
ENDTAB
  0
TABLE
  2
VIEW
  5
746B
330
0
100
AcDbSymbolTable
 70
     0
  0
ENDTAB
  0
TABLE
  2
UCS
  5
746C
330
0
100
AcDbSymbolTable
 70
     0
  0
ENDTAB
  0
TABLE
  2
APPID
  5
746E
330
0
100
AcDbSymbolTable
 70
     6
  0
APPID
  5
7476
330
746E
100
AcDbSymbolTableRecord
100
AcDbRegAppTableRecord
  2
ACAD
 70
     0
  0
APPID
  5
DEA9
330
746E
100
AcDbSymbolTableRecord
100
AcDbRegAppTableRecord
  2
CONTENTBLOCKICON
 70
     0
  0
APPID
  5
DEAA
330
746E
100
AcDbSymbolTableRecord
100
AcDbRegAppTableRecord
  2
CONTENTBLOCKDESCRIPTION
 70
     0
  0
APPID
  5
E71D
330
746E
100
AcDbSymbolTableRecord
100
AcDbRegAppTableRecord
  2
CONTENTTABDATA
 70
     0
  0
APPID
  5
E71E
330
746E
100
AcDbSymbolTableRecord
100
AcDbRegAppTableRecord
  2
CONTENTCURRENTTAB
 70
     0
  0
APPID
  5
F3BA
330
746E
100
AcDbSymbolTableRecord
100
AcDbRegAppTableRecord
  2
DRAWINGVARIABLESXDATA
 70
     0
  0
ENDTAB
  0
TABLE
  2
DIMSTYLE
  5
746F
330
0
100
AcDbSymbolTable
 70
     1
100
AcDbDimStyleTable
 71
     1
340
F71F
  0
DIMSTYLE
105
F71F
102
{ACAD_REACTORS
330
16333
330
162CE
330
16301
330
16302
330
162CD
330
162CF
330
162D0
330
166DD
330
1659A
330
165E9
330
162EB
330
16320
330
162EA
330
1659C
330
1659B
330
16667
330
16907
330
162E4
330
162E7
330
1631F
330
16913
330
17A61
330
17A62
330
179BD
330
179BE
330
179BF
330
179F0
330
179F4
330
179F5
330
179F6
330
17A04
330
17A13
330
17EFF
330
17EFE
330
183B0
330
183B1
330
183B2
330
18A7E
102
}
330
746F
100
AcDbSymbolTableRecord
100
AcDbDimStyleTableRecord
  2
INABA_S40G
 70
     0
 40
40.0
 41
2.5
 42
0.5
 43
7.0
 44
1.5
 73
     0
 74
     0
 77
     3
 78
     8
140
3.0
141
0.0
143
0.0394
147
1.0
172
     1
173
     1
174
     1
178
     7
271
     1
340
F706
341
F770
343
F770
344
F770
  0
ENDTAB
  0
TABLE
  2
BLOCK_RECORD
  5
7466
330
0
100
AcDbSymbolTable
 70
    41
  0
BLOCK_RECORD
  5
747D
330
7466
100
AcDbSymbolTableRecord
100
AcDbBlockTableRecord
  2
*MODEL_SPACE
340
17475
  0
BLOCK_RECORD
  5
747A
330
7466
100
AcDbSymbolTableRecord
100
AcDbBlockTableRecord
  2
*PAPER_SPACE
340
17476
  0
BLOCK_RECORD
  5
F770
330
7466
100
AcDbSymbolTableRecord
100
AcDbBlockTableRecord
  2
_DOTSMALL
340
0
102
{BLKREFS
331
17E57
331
17E58
331
17E61
331
17E62
331
17E75
331
17E76
331
17E89
331
17E8A
331
17E9C
331
17E9D
331
17EA5
331
17EA6
331
17EAE
331
17EAF
331
1810D
331
1810E
331
18148
331
18149
331
18182
331
18183
331
1818B
331
1818C
331
18196
331
18197
331
1819F
331
181A0
331
181A9
331
181AA
331
181B4
331
181B5
331
181BB
331
181BC
331
181C7
331
181C8
331
181D1
331
181D2
331
181DC
331
181DD
331
181E5
331
181E6
331
181F0
331
181F1
331
181FC
331
181FD
331
18207
331
18208
331
18211
331
18212
331
1821A
331
1821B
331
18222
331
18223
331
1822B
331
1822C
331
18236
331
18237
331
18241
331
18242
331
1824A
331
1824B
331
184AA
331
184AB
331
18A8E
331
18A8F
331
18B54
331
18B55
331
18B5D
331
18B5E
331
18B79
331
18B7A
331
18B82
331
18B83
331
18B99
331
18B9A
331
18BA2
331
18BA3
102
}
  0
BLOCK_RECORD
  5
16338
330
7466
100
AcDbSymbolTableRecord
100
AcDbBlockTableRecord
  2
*D1
340
0
  0
BLOCK_RECORD
  5
16344
330
7466
100
AcDbSymbolTableRecord
100
AcDbBlockTableRecord
  2
*D2
340
0
  0
BLOCK_RECORD
  5
16352
330
7466
100
AcDbSymbolTableRecord
100
AcDbBlockTableRecord
  2
*D3
340
0
  0
BLOCK_RECORD
  5
16360
330
7466
100
AcDbSymbolTableRecord
100
AcDbBlockTableRecord
  2
*D4
340
0
  0
BLOCK_RECORD
  5
16384
330
7466
100
AcDbSymbolTableRecord
100
AcDbBlockTableRecord
  2
*D5
340
0
  0
BLOCK_RECORD
  5
1638F
330
7466
100
AcDbSymbolTableRecord
100
AcDbBlockTableRecord
  2
*D6
340
0
  0
BLOCK_RECORD
  5
1639B
330
7466
100
AcDbSymbolTableRecord
100
AcDbBlockTableRecord
  2
*D7
340
0
  0
BLOCK_RECORD
  5
163A9
330
7466
100
AcDbSymbolTableRecord
100
AcDbBlockTableRecord
  2
*D8
340
0
  0
BLOCK_RECORD
  5
163B8
330
7466
100
AcDbSymbolTableRecord
100
AcDbBlockTableRecord
  2
*D9
340
0
  0
BLOCK_RECORD
  5
163C7
330
7466
100
AcDbSymbolTableRecord
100
AcDbBlockTableRecord
  2
*D10
340
0
  0
BLOCK_RECORD
  5
163E1
330
7466
100
AcDbSymbolTableRecord
100
AcDbBlockTableRecord
  2
*D11
340
0
  0
BLOCK_RECORD
  5
163ED
330
7466
100
AcDbSymbolTableRecord
100
AcDbBlockTableRecord
  2
*D12
340
0
  0
BLOCK_RECORD
  5
163FB
330
7466
100
AcDbSymbolTableRecord
100
AcDbBlockTableRecord
  2
*D13
340
0
  0
BLOCK_RECORD
  5
1659E
330
7466
100
AcDbSymbolTableRecord
100
AcDbBlockTableRecord
  2
*D14
340
0
  0
BLOCK_RECORD
  5
165B5
330
7466
100
AcDbSymbolTableRecord
100
AcDbBlockTableRecord
  2
*D15
340
0
  0
BLOCK_RECORD
  5
165C4
330
7466
100
AcDbSymbolTableRecord
100
AcDbBlockTableRecord
  2
*D16
340
0
  0
BLOCK_RECORD
  5
165EA
330
7466
100
AcDbSymbolTableRecord
100
AcDbBlockTableRecord
  2
*D17
340
0
  0
BLOCK_RECORD
  5
166AD
330
7466
100
AcDbSymbolTableRecord
100
AcDbBlockTableRecord
  2
*D18
340
0
  0
BLOCK_RECORD
  5
166CF
330
7466
100
AcDbSymbolTableRecord
100
AcDbBlockTableRecord
  2
*D19
340
0
  0
BLOCK_RECORD
  5
168FB
330
7466
100
AcDbSymbolTableRecord
100
AcDbBlockTableRecord
  2
*D20
340
0
  0
BLOCK_RECORD
  5
16908
330
7466
100
AcDbSymbolTableRecord
100
AcDbBlockTableRecord
  2
*D21
340
0
  0
BLOCK_RECORD
  5
17B52
330
7466
100
AcDbSymbolTableRecord
100
AcDbBlockTableRecord
  2
*D22
340
0
  0
BLOCK_RECORD
  5
17B5E
330
7466
100
AcDbSymbolTableRecord
100
AcDbBlockTableRecord
  2
*D23
340
0
  0
BLOCK_RECORD
  5
17C64
330
7466
100
AcDbSymbolTableRecord
100
AcDbBlockTableRecord
  2
*D24
340
0
  0
BLOCK_RECORD
  5
17C70
330
7466
100
AcDbSymbolTableRecord
100
AcDbBlockTableRecord
  2
*D25
340
0
  0
BLOCK_RECORD
  5
17C7C
330
7466
100
AcDbSymbolTableRecord
100
AcDbBlockTableRecord
  2
*D26
340
0
  0
BLOCK_RECORD
  5
17C95
330
7466
100
AcDbSymbolTableRecord
100
AcDbBlockTableRecord
  2
*D27
340
0
  0
BLOCK_RECORD
  5
17CA3
330
7466
100
AcDbSymbolTableRecord
100
AcDbBlockTableRecord
  2
*D28
340
0
  0
BLOCK_RECORD
  5
17CAF
330
7466
100
AcDbSymbolTableRecord
100
AcDbBlockTableRecord
  2
*D29
340
0
  0
BLOCK_RECORD
  5
17CBD
330
7466
100
AcDbSymbolTableRecord
100
AcDbBlockTableRecord
  2
*D30
340
0
  0
BLOCK_RECORD
  5
17CC9
330
7466
100
AcDbSymbolTableRecord
100
AcDbBlockTableRecord
  2
*D31
340
0
  0
BLOCK_RECORD
  5
17CD6
330
7466
100
AcDbSymbolTableRecord
100
AcDbBlockTableRecord
  2
*D32
340
0
  0
BLOCK_RECORD
  5
17F93
330
7466
100
AcDbSymbolTableRecord
100
AcDbBlockTableRecord
  2
*D33
340
0
  0
BLOCK_RECORD
  5
17FA1
330
7466
100
AcDbSymbolTableRecord
100
AcDbBlockTableRecord
  2
*D34
340
0
  0
BLOCK_RECORD
  5
18425
330
7466
100
AcDbSymbolTableRecord
100
AcDbBlockTableRecord
  2
*D35
340
0
  0
BLOCK_RECORD
  5
18432
330
7466
100
AcDbSymbolTableRecord
100
AcDbBlockTableRecord
  2
*D36
340
0
  0
BLOCK_RECORD
  5
18440
330
7466
100
AcDbSymbolTableRecord
100
AcDbBlockTableRecord
  2
*D37
340
0
  0
BLOCK_RECORD
  5
18906
330
7466
100
AcDbSymbolTableRecord
100
AcDbBlockTableRecord
  2
A$C240C2CCD
340
0
  0
BLOCK_RECORD
  5
18956
330
7466
100
AcDbSymbolTableRecord
100
AcDbBlockTableRecord
  2
A$C4C482C67
340
0
  0
BLOCK_RECORD
  5
18A7F
330
7466
100
AcDbSymbolTableRecord
100
AcDbBlockTableRecord
  2
*D40
340
0
  0
ENDTAB
  0
ENDSEC
  0
SECTION
  2
BLOCKS
  0
BLOCK
  5
7489
330
747D
100
AcDbEntity
  8
0
100
AcDbBlockBegin
  2
*MODEL_SPACE
 70
     0
 10
0.0
 20
0.0
 30
0.0
  3
*MODEL_SPACE
  1

  0
ENDBLK
  5
748A
330
747D
100
AcDbEntity
  8
0
100
AcDbBlockEnd
  0
BLOCK
  5
7487
330
747A
100
AcDbEntity
 67
     1
  8
0
100
AcDbBlockBegin
  2
*PAPER_SPACE
 70
     0
 10
0.0
 20
0.0
 30
0.0
  3
*PAPER_SPACE
  1

  0
ENDBLK
  5
7488
330
747A
100
AcDbEntity
 67
     1
  8
0
100
AcDbBlockEnd
  0
BLOCK
  5
F771
330
F770
100
AcDbEntity
  8
0
 48
50.0
100
AcDbBlockBegin
  2
_DOTSMALL
 70
     0
 10
0.0
 20
0.0
 30
0.0
  3
_DOTSMALL
  1

  0
LWPOLYLINE
  5
F772
330
F770
100
AcDbEntity
  8
0
  6
ByBlock
 62
     0
 48
50.0
100
AcDbPolyline
 90
        2
 70
     1
 43
0.5
 10
-0.0625
 20
0.0
 42
1.0
 10
0.0625
 20
0.0
 42
1.0
  0
ENDBLK
  5
F776
330
F770
100
AcDbEntity
  8
0
 48
50.0
100
AcDbBlockEnd
  0
BLOCK
  5
16FCF
330
16338
100
AcDbEntity
  8
0
 48
50.0
100
AcDbBlockBegin
  2
*D1
 70
     1
 10
0.0
 20
0.0
 30
0.0
  3
*D1
  1

  0
LINE
  5
18247
330
16338
100
AcDbEntity
  8
寸法
 62
     0
 48
50.0
370
    -2
100
AcDbLine
 10
9129.673057123664
 20
10068.45449681023
 30
0.0
 11
9817.099402858071
 21
10068.45449681023
 31
0.0
  0
LINE
  5
18248
330
16338
100
AcDbEntity
  8
寸法
 62
     0
 48
50.0
370
    -2
100
AcDbLine
 10
9129.673057123637
 20
7548.454496810212
 30
0.0
 11
9817.099402858071
 21
7548.454496810212
 31
0.0
  0
LINE
  5
18249
330
16338
100
AcDbEntity
  8
寸法
 62
     0
 48
50.0
370
    -2
100
AcDbLine
 10
9757.09940285807
 20
10068.45449681023
 30
0.0
 11
9757.09940285807
 21
7548.454496810212
 31
0.0
  0
INSERT
  5
1824A
330
16338
100
AcDbEntity
  8
寸法
 62
     0
 48
50.0
370
    -2
100
AcDbBlockReference
  2
_DOTSMALL
 10
9757.09940285807
 20
10068.45449681023
 30
0.0
 41
100.0
 42
100.0
 43
100.0
 50
90.0
  0
INSERT
  5
1824B
330
16338
100
AcDbEntity
  8
寸法
 62
     0
 48
50.0
370
    -2
100
AcDbBlockReference
  2
_DOTSMALL
 10
9757.09940285807
 20
7548.454496810212
 30
0.0
 41
100.0
 42
100.0
 43
100.0
 50
270.0
  0
MTEXT
  5
1824C
330
16338
100
AcDbEntity
  8
寸法
 62
     7
 48
50.0
100
AcDbMText
 10
9657.087591834446
 20
8808.454496810222
 30
0.0
 40
120.0
 41
0.0
 71
     5
 72
     1
  1
\A1;6X420=2520
  7
STYLE1
 11
0.0000000000000001
 21
1.0
 31
0.0
 73
     1
 44
1.0
1001
ACAD
1000
MTEXTBEGIN
1070
    73
1070
     1
1070
    44
1040
1.0
1070
    74
1070
     0
1000
MTEXTEND
  0
POINT
  5
1824D
330
16338
100
AcDbEntity
  8
DEFPOINTS
 62
     0
 48
50.0
100
AcDbPoint
 10
9109.673057123664
 20
10068.45449681023
 30
0.0
  0
POINT
  5
1824E
330
16338
100
AcDbEntity
  8
DEFPOINTS
 62
     0
 48
50.0
100
AcDbPoint
 10
9109.673057123639
 20
7548.454496810212
 30
0.0
  0
POINT
  5
1824F
330
16338
100
AcDbEntity
  8
DEFPOINTS
 62
     0
 48
50.0
100
AcDbPoint
 10
9757.09940285807
 20
7548.454496810212
 30
0.0
  0
ENDBLK
  5
16FD9
330
16338
100
AcDbEntity
  8
0
 48
50.0
100
AcDbBlockEnd
  0
BLOCK
  5
16414
330
16344
100
AcDbEntity
  8
0
 48
50.0
100
AcDbBlockBegin
  2
*D2
 70
     1
 10
0.0
 20
0.0
 30
0.0
  3
*D2
  1

  0
LINE
  5
1823C
330
16344
100
AcDbEntity
  8
寸法
 62
     0
 48
50.0
370
    -2
100
AcDbLine
 10
9129.673057123637
 20
7548.454496810212
 30
0.0
 11
9817.099402858049
 21
7548.454496810212
 31
0.0
  0
LINE
  5
1823D
330
16344
100
AcDbEntity
  8
寸法
 62
     0
 48
50.0
370
    -2
100
AcDbLine
 10
9129.673057123637
 20
7493.454496810215
 30
0.0
 11
9817.099402858049
 21
7493.454496810215
 31
0.0
  0
LINE
  5
1823E
330
16344
100
AcDbEntity
  8
寸法
 62
     0
 48
50.0
370
    -2
100
AcDbLine
 10
9757.099402858051
 20
7548.454496810212
 30
0.0
 11
9757.099402858051
 21
7648.454496810213
 31
0.0
  0
LINE
  5
1823F
330
16344
100
AcDbEntity
  8
寸法
 62
     0
 48
50.0
370
    -2
100
AcDbLine
 10
9757.099402858051
 20
7493.454496810215
 30
0.0
 11
9757.099402858051
 21
7007.107748531115
 31
0.0
  0
LINE
  5
18240
330
16344
100
AcDbEntity
  8
寸法
 62
     0
 48
50.0
370
    -2
100
AcDbLine
 10
9757.099402858051
 20
7548.454496810212
 30
0.0
 11
9757.099402858051
 21
7493.454496810215
 31
0.0
  0
INSERT
  5
18241
330
16344
100
AcDbEntity
  8
寸法
 62
     0
 48
50.0
370
    -2
100
AcDbBlockReference
  2
_DOTSMALL
 10
9757.099402858051
 20
7548.454496810212
 30
0.0
 41
100.0
 42
100.0
 43
100.0
 50
270.0
  0
INSERT
  5
18242
330
16344
100
AcDbEntity
  8
寸法
 62
     0
 48
50.0
370
    -2
100
AcDbBlockReference
  2
_DOTSMALL
 10
9757.099402858051
 20
7493.454496810215
 30
0.0
 41
100.0
 42
100.0
 43
100.0
 50
90.0
  0
MTEXT
  5
18243
330
16344
100
AcDbEntity
  8
寸法
 62
     7
 48
50.0
100
AcDbMText
 10
9657.099402858049
 20
7115.593029905355
 30
0.0
 40
120.0
 41
0.0
 71
     5
 72
     1
  1
\A1;55
  7
STYLE1
 11
0.0000000000000001
 21
1.0
 31
0.0
 73
     1
 44
1.0
1001
ACAD
1000
MTEXTBEGIN
1070
    73
1070
     1
1070
    44
1040
1.0
1070
    74
1070
     0
1000
MTEXTEND
  0
POINT
  5
18244
330
16344
100
AcDbEntity
  8
DEFPOINTS
 62
     0
 48
50.0
100
AcDbPoint
 10
9109.673057123639
 20
7548.454496810212
 30
0.0
  0
POINT
  5
18245
330
16344
100
AcDbEntity
  8
DEFPOINTS
 62
     0
 48
50.0
100
AcDbPoint
 10
9109.673057123639
 20
7493.454496810215
 30
0.0
  0
POINT
  5
18246
330
16344
100
AcDbEntity
  8
DEFPOINTS
 62
     0
 48
50.0
100
AcDbPoint
 10
9757.099402858051
 20
7493.454496810215
 30
0.0
  0
ENDBLK
  5
16420
330
16344
100
AcDbEntity
  8
0
 48
50.0
100
AcDbBlockEnd
  0
BLOCK
  5
16421
330
16352
100
AcDbEntity
  8
0
 48
50.0
100
AcDbBlockBegin
  2
*D3
 70
     1
 10
0.0
 20
0.0
 30
0.0
  3
*D3
  1

  0
LINE
  5
18231
330
16352
100
AcDbEntity
  8
寸法
 62
     0
 48
50.0
370
    -2
100
AcDbLine
 10
9129.673057123664
 20
10123.45449681022
 30
0.0
 11
9817.099402858076
 21
10123.45449681022
 31
0.0
  0
LINE
  5
18232
330
16352
100
AcDbEntity
  8
寸法
 62
     0
 48
50.0
370
    -2
100
AcDbLine
 10
9129.673057123664
 20
10068.45449681023
 30
0.0
 11
9817.099402858076
 21
10068.45449681023
 31
0.0
  0
LINE
  5
18233
330
16352
100
AcDbEntity
  8
寸法
 62
     0
 48
50.0
370
    -2
100
AcDbLine
 10
9757.099402858075
 20
10068.45449681023
 30
0.0
 11
9757.099402858075
 21
9968.454496810227
 31
0.0
  0
LINE
  5
18234
330
16352
100
AcDbEntity
  8
寸法
 62
     0
 48
50.0
370
    -2
100
AcDbLine
 10
9757.099402858075
 20
10123.45449681022
 30
0.0
 11
9757.099402858075
 21
10540.4250595587
 31
0.0
  0
LINE
  5
18235
330
16352
100
AcDbEntity
  8
寸法
 62
     0
 48
50.0
370
    -2
100
AcDbLine
 10
9757.099402858075
 20
10068.45449681023
 30
0.0
 11
9757.099402858075
 21
10123.45449681022
 31
0.0
  0
INSERT
  5
18236
330
16352
100
AcDbEntity
  8
寸法
 62
     0
 48
50.0
370
    -2
100
AcDbBlockReference
  2
_DOTSMALL
 10
9757.099402858075
 20
10068.45449681023
 30
0.0
 41
100.0
 42
100.0
 43
100.0
 50
90.0
  0
INSERT
  5
18237
330
16352
100
AcDbEntity
  8
寸法
 62
     0
 48
50.0
370
    -2
100
AcDbBlockReference
  2
_DOTSMALL
 10
9757.099402858075
 20
10123.45449681022
 30
0.0
 41
100.0
 42
100.0
 43
100.0
 50
270.0
  0
MTEXT
  5
18238
330
16352
100
AcDbEntity
  8
寸法
 62
     7
 48
50.0
100
AcDbMText
 10
9657.099402858074
 20
10431.93977818446
 30
0.0
 40
120.0
 41
0.0
 71
     5
 72
     1
  1
\A1;55
  7
STYLE1
 11
0.0000000000000001
 21
1.0
 31
0.0
 73
     1
 44
1.0
1001
ACAD
1000
MTEXTBEGIN
1070
    73
1070
     1
1070
    44
1040
1.0
1070
    74
1070
     0
1000
MTEXTEND
  0
POINT
  5
18239
330
16352
100
AcDbEntity
  8
DEFPOINTS
 62
     0
 48
50.0
100
AcDbPoint
 10
9109.673057123664
 20
10123.45449681022
 30
0.0
  0
POINT
  5
1823A
330
16352
100
AcDbEntity
  8
DEFPOINTS
 62
     0
 48
50.0
100
AcDbPoint
 10
9109.673057123664
 20
10068.45449681023
 30
0.0
  0
POINT
  5
1823B
330
16352
100
AcDbEntity
  8
DEFPOINTS
 62
     0
 48
50.0
100
AcDbPoint
 10
9757.099402858075
 20
10068.45449681023
 30
0.0
  0
ENDBLK
  5
1642D
330
16352
100
AcDbEntity
  8
0
 48
50.0
100
AcDbBlockEnd
  0
BLOCK
  5
16FB9
330
16360
100
AcDbEntity
  8
0
 48
50.0
100
AcDbBlockBegin
  2
*D4
 70
     1
 10
0.0
 20
0.0
 30
0.0
  3
*D4
  1

  0
LINE
  5
18228
330
16360
100
AcDbEntity
  8
寸法
 62
     0
 48
50.0
370
    -2
100
AcDbLine
 10
9129.673057123664
 20
10123.45449681022
 30
0.0
 11
10182.20634459771
 21
10123.45449681022
 31
0.0
  0
LINE
  5
18229
330
16360
100
AcDbEntity
  8
寸法
 62
     0
 48
50.0
370
    -2
100
AcDbLine
 10
9129.673057123637
 20
7493.454496810215
 30
0.0
 11
10182.20634459771
 21
7493.454496810215
 31
0.0
  0
LINE
  5
1822A
330
16360
100
AcDbEntity
  8
寸法
 62
     0
 48
50.0
370
    -2
100
AcDbLine
 10
10122.20634459771
 20
10123.45449681022
 30
0.0
 11
10122.20634459771
 21
7493.454496810215
 31
0.0
  0
INSERT
  5
1822B
330
16360
100
AcDbEntity
  8
寸法
 62
     0
 48
50.0
370
    -2
100
AcDbBlockReference
  2
_DOTSMALL
 10
10122.20634459771
 20
10123.45449681022
 30
0.0
 41
100.0
 42
100.0
 43
100.0
 50
90.0
  0
INSERT
  5
1822C
330
16360
100
AcDbEntity
  8
寸法
 62
     0
 48
50.0
370
    -2
100
AcDbBlockReference
  2
_DOTSMALL
 10
10122.20634459771
 20
7493.454496810215
 30
0.0
 41
100.0
 42
100.0
 43
100.0
 50
270.0
  0
MTEXT
  5
1822D
330
16360
100
AcDbEntity
  8
寸法
 62
     7
 48
50.0
100
AcDbMText
 10
10022.19453357408
 20
8808.454496810222
 30
0.0
 40
120.0
 41
0.0
 71
     5
 72
     1
  1
\A1;2630
  7
STYLE1
 11
0.0000000000000001
 21
1.0
 31
0.0
 73
     1
 44
1.0
1001
ACAD
1000
MTEXTBEGIN
1070
    73
1070
     1
1070
    44
1040
1.0
1070
    74
1070
     0
1000
MTEXTEND
  0
POINT
  5
1822E
330
16360
100
AcDbEntity
  8
DEFPOINTS
 62
     0
 48
50.0
100
AcDbPoint
 10
9109.673057123664
 20
10123.45449681022
 30
0.0
  0
POINT
  5
1822F
330
16360
100
AcDbEntity
  8
DEFPOINTS
 62
     0
 48
50.0
100
AcDbPoint
 10
9109.673057123639
 20
7493.454496810215
 30
0.0
  0
POINT
  5
18230
330
16360
100
AcDbEntity
  8
DEFPOINTS
 62
     0
 48
50.0
100
AcDbPoint
 10
10122.20634459771
 20
7493.454496810215
 30
0.0
  0
ENDBLK
  5
16FC3
330
16360
100
AcDbEntity
  8
0
 48
50.0
100
AcDbBlockEnd
  0
BLOCK
  5
171E3
330
16384
100
AcDbEntity
  8
0
 48
50.0
100
AcDbBlockBegin
  2
*D5
 70
     1
 10
0.0
 20
0.0
 30
0.0
  3
*D5
  1

  0
LINE
  5
18220
330
16384
100
AcDbEntity
  8
寸法
 62
     0
 48
50.0
370
    -2
100
AcDbLine
 10
6162.673057123657
 20
7499.454496810125
 30
0.0
 11
6162.673057123657
 21
6899.023726043961
 31
0.0
  0
LINE
  5
18221
330
16384
100
AcDbEntity
  8
寸法
 62
     0
 48
50.0
370
    -2
100
AcDbLine
 10
9006.67305712364
 20
6959.023726043961
 30
0.0
 11
6162.673057123657
 21
6959.023726043961
 31
0.0
  0
INSERT
  5
18222
330
16384
100
AcDbEntity
  8
寸法
 62
     0
 48
50.0
370
    -2
100
AcDbBlockReference
  2
_DOTSMALL
 10
9006.67305712364
 20
6959.023726043961
 30
0.0
 41
100.0
 42
100.0
 43
100.0
  0
INSERT
  5
18223
330
16384
100
AcDbEntity
  8
寸法
 62
     0
 48
50.0
370
    -2
100
AcDbBlockReference
  2
_DOTSMALL
 10
6162.673057123657
 20
6959.023726043961
 30
0.0
 41
100.0
 42
100.0
 43
100.0
 50
180.0
  0
MTEXT
  5
18224
330
16384
100
AcDbEntity
  8
寸法
 62
     7
 48
50.0
100
AcDbMText
 10
7584.673057123648
 20
7059.035537067583
 30
0.0
 40
120.0
 41
0.0
 71
     5
 72
     1
  1
\A1;有効開口部間口 2844
  7
STYLE1
 73
     1
 44
1.0
1001
ACAD
1000
MTEXTBEGIN
1070
    73
1070
     1
1070
    44
1040
1.0
1070
    74
1070
     0
1000
MTEXTEND
  0
POINT
  5
18225
330
16384
100
AcDbEntity
  8
DEFPOINTS
 62
     0
 48
50.0
100
AcDbPoint
 10
9006.67305712364
 20
7519.454496810126
 30
0.0
  0
POINT
  5
18226
330
16384
100
AcDbEntity
  8
DEFPOINTS
 62
     0
 48
50.0
100
AcDbPoint
 10
6162.673057123657
 20
7519.454496810124
 30
0.0
  0
POINT
  5
18227
330
16384
100
AcDbEntity
  8
DEFPOINTS
 62
     0
 48
50.0
100
AcDbPoint
 10
6162.673057123657
 20
6959.023726043961
 30
0.0
  0
ENDBLK
  5
171EC
330
16384
100
AcDbEntity
  8
0
 48
50.0
100
AcDbBlockEnd
  0
BLOCK
  5
171C3
330
1638F
100
AcDbEntity
  8
0
 48
50.0
100
AcDbBlockBegin
  2
*D6
 70
     1
 10
0.0
 20
0.0
 30
0.0
  3
*D6
  1

  0
LINE
  5
18217
330
1638F
100
AcDbEntity
  8
寸法
 62
     0
 48
50.0
370
    -2
100
AcDbLine
 10
3009.673057123657
 20
7473.454496810122
 30
0.0
 11
3009.673057123657
 21
6452.850730453086
 31
0.0
  0
LINE
  5
18218
330
1638F
100
AcDbEntity
  8
寸法
 62
     0
 48
50.0
370
    -2
100
AcDbLine
 10
9109.673057123627
 20
7473.454496810217
 30
0.0
 11
9109.673057123627
 21
6452.850730453086
 31
0.0
  0
LINE
  5
18219
330
1638F
100
AcDbEntity
  8
寸法
 62
     0
 48
50.0
370
    -2
100
AcDbLine
 10
3009.673057123657
 20
6512.850730453087
 30
0.0
 11
9109.673057123627
 21
6512.850730453087
 31
0.0
  0
INSERT
  5
1821A
330
1638F
100
AcDbEntity
  8
寸法
 62
     0
 48
50.0
370
    -2
100
AcDbBlockReference
  2
_DOTSMALL
 10
3009.673057123657
 20
6512.850730453087
 30
0.0
 41
100.0
 42
100.0
 43
100.0
 50
180.0
  0
INSERT
  5
1821B
330
1638F
100
AcDbEntity
  8
寸法
 62
     0
 48
50.0
370
    -2
100
AcDbBlockReference
  2
_DOTSMALL
 10
9109.673057123627
 20
6512.850730453087
 30
0.0
 41
100.0
 42
100.0
 43
100.0
  0
MTEXT
  5
1821C
330
1638F
100
AcDbEntity
  8
寸法
 62
     7
 48
50.0
100
AcDbMText
 10
6059.673057123642
 20
6612.850730453087
 30
0.0
 40
120.0
 41
0.0
 71
     5
 72
     1
  1
\A1;6100
  7
STYLE1
 73
     1
 44
1.0
1001
ACAD
1000
MTEXTBEGIN
1070
    73
1070
     1
1070
    44
1040
1.0
1070
    74
1070
     0
1000
MTEXTEND
  0
POINT
  5
1821D
330
1638F
100
AcDbEntity
  8
DEFPOINTS
 62
     0
 48
50.0
100
AcDbPoint
 10
3009.673057123657
 20
7493.454496810122
 30
0.0
  0
POINT
  5
1821E
330
1638F
100
AcDbEntity
  8
DEFPOINTS
 62
     0
 48
50.0
100
AcDbPoint
 10
9109.673057123627
 20
7493.454496810215
 30
0.0
  0
POINT
  5
1821F
330
1638F
100
AcDbEntity
  8
DEFPOINTS
 62
     0
 48
50.0
100
AcDbPoint
 10
9109.673057123627
 20
6512.850730453087
 30
0.0
  0
ENDBLK
  5
171CD
330
1638F
100
AcDbEntity
  8
0
 48
50.0
100
AcDbBlockEnd
  0
BLOCK
  5
16464
330
1639B
100
AcDbEntity
  8
0
 48
50.0
100
AcDbBlockBegin
  2
*D7
 70
     1
 10
0.0
 20
0.0
 30
0.0
  3
*D7
  1

  0
LINE
  5
1820C
330
1639B
100
AcDbEntity
  8
寸法
 62
     0
 48
50.0
370
    -2
100
AcDbLine
 10
3064.673057123653
 20
7473.454496810124
 30
0.0
 11
3064.673057123653
 21
6899.023726043961
 31
0.0
  0
LINE
  5
1820D
330
1639B
100
AcDbEntity
  8
寸法
 62
     0
 48
50.0
370
    -2
100
AcDbLine
 10
3009.673057123657
 20
7473.454496810122
 30
0.0
 11
3009.673057123657
 21
6899.023726043961
 31
0.0
  0
LINE
  5
1820E
330
1639B
100
AcDbEntity
  8
寸法
 62
     0
 48
50.0
370
    -2
100
AcDbLine
 10
3064.673057123653
 20
6959.023726043961
 30
0.0
 11
3164.673057123653
 21
6959.023726043961
 31
0.0
  0
LINE
  5
1820F
330
1639B
100
AcDbEntity
  8
寸法
 62
     0
 48
50.0
370
    -2
100
AcDbLine
 10
3009.673057123657
 20
6959.023726043961
 30
0.0
 11
2592.70249437518
 21
6959.023726043961
 31
0.0
  0
LINE
  5
18210
330
1639B
100
AcDbEntity
  8
寸法
 62
     0
 48
50.0
370
    -2
100
AcDbLine
 10
3064.673057123653
 20
6959.023726043961
 30
0.0
 11
3009.673057123657
 21
6959.023726043961
 31
0.0
  0
INSERT
  5
18211
330
1639B
100
AcDbEntity
  8
寸法
 62
     0
 48
50.0
370
    -2
100
AcDbBlockReference
  2
_DOTSMALL
 10
3064.673057123653
 20
6959.023726043961
 30
0.0
 41
100.0
 42
100.0
 43
100.0
 50
180.0
  0
INSERT
  5
18212
330
1639B
100
AcDbEntity
  8
寸法
 62
     0
 48
50.0
370
    -2
100
AcDbBlockReference
  2
_DOTSMALL
 10
3009.673057123657
 20
6959.023726043961
 30
0.0
 41
100.0
 42
100.0
 43
100.0
  0
MTEXT
  5
18213
330
1639B
100
AcDbEntity
  8
寸法
 62
     7
 48
50.0
100
AcDbMText
 10
2701.187775749418
 20
7059.02372604396
 30
0.0
 40
120.0
 41
0.0
 71
     5
 72
     1
  1
\A1;55
  7
STYLE1
 73
     1
 44
1.0
1001
ACAD
1000
MTEXTBEGIN
1070
    73
1070
     1
1070
    44
1040
1.0
1070
    74
1070
     0
1000
MTEXTEND
  0
POINT
  5
18214
330
1639B
100
AcDbEntity
  8
DEFPOINTS
 62
     0
 48
50.0
100
AcDbPoint
 10
3064.673057123653
 20
7493.454496810125
 30
0.0
  0
POINT
  5
18215
330
1639B
100
AcDbEntity
  8
DEFPOINTS
 62
     0
 48
50.0
100
AcDbPoint
 10
3009.673057123657
 20
7493.454496810122
 30
0.0
  0
POINT
  5
18216
330
1639B
100
AcDbEntity
  8
DEFPOINTS
 62
     0
 48
50.0
100
AcDbPoint
 10
3009.673057123657
 20
6959.023726043961
 30
0.0
  0
ENDBLK
  5
16470
330
1639B
100
AcDbEntity
  8
0
 48
50.0
100
AcDbBlockEnd
  0
BLOCK
  5
16471
330
163A9
100
AcDbEntity
  8
0
 48
50.0
100
AcDbBlockBegin
  2
*D8
 70
     1
 10
0.0
 20
0.0
 30
0.0
  3
*D8
  1

  0
LINE
  5
18201
330
163A9
100
AcDbEntity
  8
寸法
 62
     0
 48
50.0
370
    -2
100
AcDbLine
 10
6162.673057123657
 20
7499.454496810125
 30
0.0
 11
6162.673057123657
 21
6899.023726043961
 31
0.0
  0
LINE
  5
18202
330
163A9
100
AcDbEntity
  8
寸法
 62
     0
 48
50.0
370
    -2
100
AcDbLine
 10
6114.673057123653
 20
7473.454496810124
 30
0.0
 11
6114.673057123653
 21
6899.023726043961
 31
0.0
  0
LINE
  5
18203
330
163A9
100
AcDbEntity
  8
寸法
 62
     0
 48
50.0
370
    -2
100
AcDbLine
 10
6162.673057123657
 20
6959.023726043961
 30
0.0
 11
6262.673057123657
 21
6959.023726043961
 31
0.0
  0
LINE
  5
18204
330
163A9
100
AcDbEntity
  8
寸法
 62
     0
 48
50.0
370
    -2
100
AcDbLine
 10
6114.673057123653
 20
6959.023726043961
 30
0.0
 11
6014.673057123653
 21
6959.023726043961
 31
0.0
  0
MTEXT
  5
18205
330
163A9
100
AcDbEntity
  8
寸法
 62
     7
 48
50.0
100
AcDbMText
 10
6275.575028123714
 20
7059.02372604396
 30
0.0
 40
120.0
 41
0.0
 71
     5
 72
     1
  1
\A1;48
  7
STYLE1
 73
     1
 44
1.0
1001
ACAD
1000
MTEXTBEGIN
1070
    73
1070
     1
1070
    44
1040
1.0
1070
    74
1070
     0
1000
MTEXTEND
  0
LINE
  5
18206
330
163A9
100
AcDbEntity
  8
寸法
 62
     0
 48
50.0
370
    -2
100
AcDbLine
 10
6162.673057123657
 20
6959.023726043961
 30
0.0
 11
6114.673057123653
 21
6959.023726043961
 31
0.0
  0
INSERT
  5
18207
330
163A9
100
AcDbEntity
  8
寸法
 62
     0
 48
50.0
370
    -2
100
AcDbBlockReference
  2
_DOTSMALL
 10
6162.673057123657
 20
6959.023726043961
 30
0.0
 41
100.0
 42
100.0
 43
100.0
 50
180.0
  0
INSERT
  5
18208
330
163A9
100
AcDbEntity
  8
寸法
 62
     0
 48
50.0
370
    -2
100
AcDbBlockReference
  2
_DOTSMALL
 10
6114.673057123653
 20
6959.023726043961
 30
0.0
 41
100.0
 42
100.0
 43
100.0
  0
POINT
  5
18209
330
163A9
100
AcDbEntity
  8
DEFPOINTS
 62
     0
 48
50.0
100
AcDbPoint
 10
6162.673057123657
 20
7519.454496810124
 30
0.0
  0
POINT
  5
1820A
330
163A9
100
AcDbEntity
  8
DEFPOINTS
 62
     0
 48
50.0
100
AcDbPoint
 10
6114.673057123653
 20
7493.454496810125
 30
0.0
  0
POINT
  5
1820B
330
163A9
100
AcDbEntity
  8
DEFPOINTS
 62
     0
 48
50.0
100
AcDbPoint
 10
6114.673057123653
 20
6959.023726043961
 30
0.0
  0
ENDBLK
  5
1647E
330
163A9
100
AcDbEntity
  8
0
 48
50.0
100
AcDbBlockEnd
  0
BLOCK
  5
1647F
330
163B8
100
AcDbEntity
  8
0
 48
50.0
100
AcDbBlockBegin
  2
*D9
 70
     1
 10
0.0
 20
0.0
 30
0.0
  3
*D9
  1

  0
LINE
  5
181F6
330
163B8
100
AcDbEntity
  8
寸法
 62
     0
 48
50.0
370
    -2
100
AcDbLine
 10
9054.673057123642
 20
7473.454496810212
 30
0.0
 11
9054.673057123642
 21
6899.023726043961
 31
0.0
  0
LINE
  5
181F7
330
163B8
100
AcDbEntity
  8
寸法
 62
     0
 48
50.0
370
    -2
100
AcDbLine
 10
9006.67305712364
 20
7499.454496810125
 30
0.0
 11
9006.67305712364
 21
6899.023726043961
 31
0.0
  0
LINE
  5
181F8
330
163B8
100
AcDbEntity
  8
寸法
 62
     0
 48
50.0
370
    -2
100
AcDbLine
 10
9054.673057123642
 20
6959.023726043961
 30
0.0
 11
9154.673057123641
 21
6959.023726043961
 31
0.0
  0
LINE
  5
181F9
330
163B8
100
AcDbEntity
  8
寸法
 62
     0
 48
50.0
370
    -2
100
AcDbLine
 10
9006.67305712364
 20
6959.023726043961
 30
0.0
 11
8906.673057123638
 21
6959.023726043961
 31
0.0
  0
MTEXT
  5
181FA
330
163B8
100
AcDbEntity
  8
寸法
 62
     7
 48
50.0
100
AcDbMText
 10
8895.710159474891
 20
7059.02372604396
 30
0.0
 40
120.0
 41
0.0
 71
     5
 72
     1
  1
\A1;48
  7
STYLE1
 73
     1
 44
1.0
1001
ACAD
1000
MTEXTBEGIN
1070
    73
1070
     1
1070
    44
1040
1.0
1070
    74
1070
     0
1000
MTEXTEND
  0
LINE
  5
181FB
330
163B8
100
AcDbEntity
  8
寸法
 62
     0
 48
50.0
370
    -2
100
AcDbLine
 10
9054.673057123642
 20
6959.023726043961
 30
0.0
 11
9006.67305712364
 21
6959.023726043961
 31
0.0
  0
INSERT
  5
181FC
330
163B8
100
AcDbEntity
  8
寸法
 62
     0
 48
50.0
370
    -2
100
AcDbBlockReference
  2
_DOTSMALL
 10
9054.673057123642
 20
6959.023726043961
 30
0.0
 41
100.0
 42
100.0
 43
100.0
 50
180.0
  0
INSERT
  5
181FD
330
163B8
100
AcDbEntity
  8
寸法
 62
     0
 48
50.0
370
    -2
100
AcDbBlockReference
  2
_DOTSMALL
 10
9006.67305712364
 20
6959.023726043961
 30
0.0
 41
100.0
 42
100.0
 43
100.0
  0
POINT
  5
181FE
330
163B8
100
AcDbEntity
  8
DEFPOINTS
 62
     0
 48
50.0
100
AcDbPoint
 10
9054.673057123642
 20
7493.454496810213
 30
0.0
  0
POINT
  5
181FF
330
163B8
100
AcDbEntity
  8
DEFPOINTS
 62
     0
 48
50.0
100
AcDbPoint
 10
9006.67305712364
 20
7519.454496810126
 30
0.0
  0
POINT
  5
18200
330
163B8
100
AcDbEntity
  8
DEFPOINTS
 62
     0
 48
50.0
100
AcDbPoint
 10
9006.67305712364
 20
6959.023726043961
 30
0.0
  0
ENDBLK
  5
1648C
330
163B8
100
AcDbEntity
  8
0
 48
50.0
100
AcDbBlockEnd
  0
BLOCK
  5
1648D
330
163C7
100
AcDbEntity
  8
0
 48
50.0
100
AcDbBlockBegin
  2
*D10
 70
     1
 10
0.0
 20
0.0
 30
0.0
  3
*D10
  1

  0
LINE
  5
181EB
330
163C7
100
AcDbEntity
  8
寸法
 62
     0
 48
50.0
370
    -2
100
AcDbLine
 10
9109.673057123639
 20
7473.454496810217
 30
0.0
 11
9109.673057123639
 21
6899.023726043961
 31
0.0
  0
LINE
  5
181EC
330
163C7
100
AcDbEntity
  8
寸法
 62
     0
 48
50.0
370
    -2
100
AcDbLine
 10
9054.673057123642
 20
7473.454496810212
 30
0.0
 11
9054.673057123642
 21
6899.023726043961
 31
0.0
  0
LINE
  5
181ED
330
163C7
100
AcDbEntity
  8
寸法
 62
     0
 48
50.0
370
    -2
100
AcDbLine
 10
9054.673057123642
 20
6959.023726043962
 30
0.0
 11
8954.67305712364
 21
6959.023726043962
 31
0.0
  0
LINE
  5
181EE
330
163C7
100
AcDbEntity
  8
寸法
 62
     0
 48
50.0
370
    -2
100
AcDbLine
 10
9109.673057123639
 20
6959.023726043962
 30
0.0
 11
9526.643619872116
 21
6959.023726043962
 31
0.0
  0
LINE
  5
181EF
330
163C7
100
AcDbEntity
  8
寸法
 62
     0
 48
50.0
370
    -2
100
AcDbLine
 10
9054.673057123642
 20
6959.023726043962
 30
0.0
 11
9109.673057123639
 21
6959.023726043962
 31
0.0
  0
INSERT
  5
181F0
330
163C7
100
AcDbEntity
  8
寸法
 62
     0
 48
50.0
370
    -2
100
AcDbBlockReference
  2
_DOTSMALL
 10
9054.673057123642
 20
6959.023726043962
 30
0.0
 41
100.0
 42
100.0
 43
100.0
  0
INSERT
  5
181F1
330
163C7
100
AcDbEntity
  8
寸法
 62
     0
 48
50.0
370
    -2
100
AcDbBlockReference
  2
_DOTSMALL
 10
9109.673057123639
 20
6959.023726043962
 30
0.0
 41
100.0
 42
100.0
 43
100.0
 50
180.0
  0
MTEXT
  5
181F2
330
163C7
100
AcDbEntity
  8
寸法
 62
     7
 48
50.0
100
AcDbMText
 10
9418.158338497876
 20
7059.023726043962
 30
0.0
 40
120.0
 41
0.0
 71
     5
 72
     1
  1
\A1;55
  7
STYLE1
 73
     1
 44
1.0
1001
ACAD
1000
MTEXTBEGIN
1070
    73
1070
     1
1070
    44
1040
1.0
1070
    74
1070
     0
1000
MTEXTEND
  0
POINT
  5
181F3
330
163C7
100
AcDbEntity
  8
DEFPOINTS
 62
     0
 48
50.0
100
AcDbPoint
 10
9109.673057123639
 20
7493.454496810215
 30
0.0
  0
POINT
  5
181F4
330
163C7
100
AcDbEntity
  8
DEFPOINTS
 62
     0
 48
50.0
100
AcDbPoint
 10
9054.673057123642
 20
7493.454496810213
 30
0.0
  0
POINT
  5
181F5
330
163C7
100
AcDbEntity
  8
DEFPOINTS
 62
     0
 48
50.0
100
AcDbPoint
 10
9054.673057123642
 20
6959.023726043962
 30
0.0
  0
ENDBLK
  5
16499
330
163C7
100
AcDbEntity
  8
0
 48
50.0
100
AcDbBlockEnd
  0
BLOCK
  5
17431
330
163E1
100
AcDbEntity
  8
0
 48
50.0
100
AcDbBlockBegin
  2
*D11
 70
     1
 10
0.0
 20
0.0
 30
0.0
  3
*D11
  1

  0
LINE
  5
181E2
330
163E1
100
AcDbEntity
  8
寸法
 62
     0
 48
50.0
370
    -2
100
AcDbLine
 10
6114.673057123663
 20
10143.45449681013
 30
0.0
 11
6114.673057123663
 21
10399.26271643522
 31
0.0
  0
LINE
  5
181E3
330
163E1
100
AcDbEntity
  8
寸法
 62
     0
 48
50.0
370
    -2
100
AcDbLine
 10
9054.673057123663
 20
10143.45449681022
 30
0.0
 11
9054.673057123663
 21
10399.26271643522
 31
0.0
  0
LINE
  5
181E4
330
163E1
100
AcDbEntity
  8
寸法
 62
     0
 48
50.0
370
    -2
100
AcDbLine
 10
6114.673057123663
 20
10339.26271643522
 30
0.0
 11
9054.673057123663
 21
10339.26271643522
 31
0.0
  0
INSERT
  5
181E5
330
163E1
100
AcDbEntity
  8
寸法
 62
     0
 48
50.0
370
    -2
100
AcDbBlockReference
  2
_DOTSMALL
 10
6114.673057123663
 20
10339.26271643522
 30
0.0
 41
100.0
 42
100.0
 43
100.0
 50
180.0
  0
INSERT
  5
181E6
330
163E1
100
AcDbEntity
  8
寸法
 62
     0
 48
50.0
370
    -2
100
AcDbBlockReference
  2
_DOTSMALL
 10
9054.673057123663
 20
10339.26271643522
 30
0.0
 41
100.0
 42
100.0
 43
100.0
  0
MTEXT
  5
181E7
330
163E1
100
AcDbEntity
  8
寸法
 62
     7
 48
50.0
100
AcDbMText
 10
7584.673057123665
 20
10439.27452745885
 30
0.0
 40
120.0
 41
0.0
 71
     5
 72
     1
  1
\A1;7X420=2940
  7
STYLE1
 73
     1
 44
1.0
1001
ACAD
1000
MTEXTBEGIN
1070
    73
1070
     1
1070
    44
1040
1.0
1070
    74
1070
     0
1000
MTEXTEND
  0
POINT
  5
181E8
330
163E1
100
AcDbEntity
  8
DEFPOINTS
 62
     0
 48
50.0
100
AcDbPoint
 10
6114.673057123663
 20
10123.45449681013
 30
0.0
  0
POINT
  5
181E9
330
163E1
100
AcDbEntity
  8
DEFPOINTS
 62
     0
 48
50.0
100
AcDbPoint
 10
9054.673057123663
 20
10123.45449681022
 30
0.0
  0
POINT
  5
181EA
330
163E1
100
AcDbEntity
  8
DEFPOINTS
 62
     0
 48
50.0
100
AcDbPoint
 10
9054.673057123663
 20
10339.26271643522
 30
0.0
  0
ENDBLK
  5
1743B
330
163E1
100
AcDbEntity
  8
0
 48
50.0
100
AcDbBlockEnd
  0
BLOCK
  5
164B0
330
163ED
100
AcDbEntity
  8
0
 48
50.0
100
AcDbBlockBegin
  2
*D12
 70
     1
 10
0.0
 20
0.0
 30
0.0
  3
*D12
  1

  0
LINE
  5
181D7
330
163ED
100
AcDbEntity
  8
寸法
 62
     0
 48
50.0
370
    -2
100
AcDbLine
 10
3009.673057123629
 20
10143.45449681013
 30
0.0
 11
3009.673057123629
 21
10399.26271643511
 31
0.0
  0
LINE
  5
181D8
330
163ED
100
AcDbEntity
  8
寸法
 62
     0
 48
50.0
370
    -2
100
AcDbLine
 10
3064.673057123663
 20
10143.45449681013
 30
0.0
 11
3064.673057123663
 21
10399.26271643511
 31
0.0
  0
LINE
  5
181D9
330
163ED
100
AcDbEntity
  8
寸法
 62
     0
 48
50.0
370
    -2
100
AcDbLine
 10
3064.673057123663
 20
10339.26271643511
 30
0.0
 11
3164.673057123663
 21
10339.26271643511
 31
0.0
  0
LINE
  5
181DA
330
163ED
100
AcDbEntity
  8
寸法
 62
     0
 48
50.0
370
    -2
100
AcDbLine
 10
3009.673057123629
 20
10339.26271643511
 30
0.0
 11
2592.702494375151
 21
10339.26271643511
 31
0.0
  0
LINE
  5
181DB
330
163ED
100
AcDbEntity
  8
寸法
 62
     0
 48
50.0
370
    -2
100
AcDbLine
 10
3064.673057123663
 20
10339.26271643511
 30
0.0
 11
3009.673057123629
 21
10339.26271643511
 31
0.0
  0
INSERT
  5
181DC
330
163ED
100
AcDbEntity
  8
寸法
 62
     0
 48
50.0
370
    -2
100
AcDbBlockReference
  2
_DOTSMALL
 10
3064.673057123663
 20
10339.26271643511
 30
0.0
 41
100.0
 42
100.0
 43
100.0
 50
180.0
  0
INSERT
  5
181DD
330
163ED
100
AcDbEntity
  8
寸法
 62
     0
 48
50.0
370
    -2
100
AcDbBlockReference
  2
_DOTSMALL
 10
3009.673057123629
 20
10339.26271643511
 30
0.0
 41
100.0
 42
100.0
 43
100.0
  0
MTEXT
  5
181DE
330
163ED
100
AcDbEntity
  8
寸法
 62
     7
 48
50.0
100
AcDbMText
 10
2701.18777574939
 20
10439.26271643511
 30
0.0
 40
120.0
 41
0.0
 71
     5
 72
     1
  1
\A1;55
  7
STYLE1
 73
     1
 44
1.0
1001
ACAD
1000
MTEXTBEGIN
1070
    73
1070
     1
1070
    44
1040
1.0
1070
    74
1070
     0
1000
MTEXTEND
  0
POINT
  5
181DF
330
163ED
100
AcDbEntity
  8
DEFPOINTS
 62
     0
 48
50.0
100
AcDbPoint
 10
3009.673057123629
 20
10123.45449681013
 30
0.0
  0
POINT
  5
181E0
330
163ED
100
AcDbEntity
  8
DEFPOINTS
 62
     0
 48
50.0
100
AcDbPoint
 10
3064.673057123663
 20
10123.45449681013
 30
0.0
  0
POINT
  5
181E1
330
163ED
100
AcDbEntity
  8
DEFPOINTS
 62
     0
 48
50.0
100
AcDbPoint
 10
3064.673057123663
 20
10339.26271643511
 30
0.0
  0
ENDBLK
  5
164BC
330
163ED
100
AcDbEntity
  8
0
 48
50.0
100
AcDbBlockEnd
  0
BLOCK
  5
164BD
330
163FB
100
AcDbEntity
  8
0
 48
50.0
100
AcDbBlockBegin
  2
*D13
 70
     1
 10
0.0
 20
0.0
 30
0.0
  3
*D13
  1

  0
LINE
  5
181CC
330
163FB
100
AcDbEntity
  8
寸法
 62
     0
 48
50.0
370
    -2
100
AcDbLine
 10
9054.673057123663
 20
10143.45449681022
 30
0.0
 11
9054.673057123663
 21
10399.26271643521
 31
0.0
  0
LINE
  5
181CD
330
163FB
100
AcDbEntity
  8
寸法
 62
     0
 48
50.0
370
    -2
100
AcDbLine
 10
9109.673057123664
 20
10143.45449681022
 30
0.0
 11
9109.673057123664
 21
10399.26271643521
 31
0.0
  0
LINE
  5
181CE
330
163FB
100
AcDbEntity
  8
寸法
 62
     0
 48
50.0
370
    -2
100
AcDbLine
 10
9054.673057123663
 20
10339.26271643521
 30
0.0
 11
8954.673057123663
 21
10339.26271643521
 31
0.0
  0
LINE
  5
181CF
330
163FB
100
AcDbEntity
  8
寸法
 62
     0
 48
50.0
370
    -2
100
AcDbLine
 10
9109.673057123664
 20
10339.26271643521
 30
0.0
 11
9526.643619872141
 21
10339.26271643521
 31
0.0
  0
LINE
  5
181D0
330
163FB
100
AcDbEntity
  8
寸法
 62
     0
 48
50.0
370
    -2
100
AcDbLine
 10
9054.673057123663
 20
10339.26271643521
 30
0.0
 11
9109.673057123664
 21
10339.26271643521
 31
0.0
  0
INSERT
  5
181D1
330
163FB
100
AcDbEntity
  8
寸法
 62
     0
 48
50.0
370
    -2
100
AcDbBlockReference
  2
_DOTSMALL
 10
9054.673057123663
 20
10339.26271643521
 30
0.0
 41
100.0
 42
100.0
 43
100.0
  0
INSERT
  5
181D2
330
163FB
100
AcDbEntity
  8
寸法
 62
     0
 48
50.0
370
    -2
100
AcDbBlockReference
  2
_DOTSMALL
 10
9109.673057123664
 20
10339.26271643521
 30
0.0
 41
100.0
 42
100.0
 43
100.0
 50
180.0
  0
MTEXT
  5
181D3
330
163FB
100
AcDbEntity
  8
寸法
 62
     7
 48
50.0
100
AcDbMText
 10
9418.158338497901
 20
10439.26271643521
 30
0.0
 40
120.0
 41
0.0
 71
     5
 72
     1
  1
\A1;55
  7
STYLE1
 73
     1
 44
1.0
1001
ACAD
1000
MTEXTBEGIN
1070
    73
1070
     1
1070
    44
1040
1.0
1070
    74
1070
     0
1000
MTEXTEND
  0
POINT
  5
181D4
330
163FB
100
AcDbEntity
  8
DEFPOINTS
 62
     0
 48
50.0
100
AcDbPoint
 10
9054.673057123663
 20
10123.45449681022
 30
0.0
  0
POINT
  5
181D5
330
163FB
100
AcDbEntity
  8
DEFPOINTS
 62
     0
 48
50.0
100
AcDbPoint
 10
9109.673057123664
 20
10123.45449681022
 30
0.0
  0
POINT
  5
181D6
330
163FB
100
AcDbEntity
  8
DEFPOINTS
 62
     0
 48
50.0
100
AcDbPoint
 10
9109.673057123664
 20
10339.26271643521
 30
0.0
  0
ENDBLK
  5
164C9
330
163FB
100
AcDbEntity
  8
0
 48
50.0
100
AcDbBlockEnd
  0
BLOCK
  5
171A3
330
1659E
100
AcDbEntity
  8
0
 48
50.0
100
AcDbBlockBegin
  2
*D14
 70
     1
 10
0.0
 20
0.0
 30
0.0
  3
*D14
  1

  0
LINE
  5
181B9
330
1659E
100
AcDbEntity
  8
寸法
 62
     0
 48
50.0
370
    -2
100
AcDbLine
 10
3112.673057123657
 20
7499.454496810125
 30
0.0
 11
3112.673057123657
 21
6899.023726043961
 31
0.0
  0
LINE
  5
181BA
330
1659E
100
AcDbEntity
  8
寸法
 62
     0
 48
50.0
370
    -2
100
AcDbLine
 10
5956.673057123638
 20
6959.023726043961
 30
0.0
 11
3112.673057123657
 21
6959.023726043961
 31
0.0
  0
INSERT
  5
181BB
330
1659E
100
AcDbEntity
  8
寸法
 62
     0
 48
50.0
370
    -2
100
AcDbBlockReference
  2
_DOTSMALL
 10
5956.673057123638
 20
6959.023726043961
 30
0.0
 41
100.0
 42
100.0
 43
100.0
  0
INSERT
  5
181BC
330
1659E
100
AcDbEntity
  8
寸法
 62
     0
 48
50.0
370
    -2
100
AcDbBlockReference
  2
_DOTSMALL
 10
3112.673057123657
 20
6959.023726043961
 30
0.0
 41
100.0
 42
100.0
 43
100.0
 50
180.0
  0
MTEXT
  5
181BD
330
1659E
100
AcDbEntity
  8
寸法
 62
     7
 48
50.0
100
AcDbMText
 10
4534.673057123647
 20
7059.035537067583
 30
0.0
 40
120.0
 41
0.0
 71
     5
 72
     1
  1
\A1;有効開口部間口 2844
  7
STYLE1
 73
     1
 44
1.0
1001
ACAD
1000
MTEXTBEGIN
1070
    73
1070
     1
1070
    44
1040
1.0
1070
    74
1070
     0
1000
MTEXTEND
  0
POINT
  5
181BE
330
1659E
100
AcDbEntity
  8
DEFPOINTS
 62
     0
 48
50.0
100
AcDbPoint
 10
5956.673057123638
 20
7519.454496810126
 30
0.0
  0
POINT
  5
181BF
330
1659E
100
AcDbEntity
  8
DEFPOINTS
 62
     0
 48
50.0
100
AcDbPoint
 10
3112.673057123657
 20
7519.454496810124
 30
0.0
  0
POINT
  5
181C0
330
1659E
100
AcDbEntity
  8
DEFPOINTS
 62
     0
 48
50.0
100
AcDbPoint
 10
3112.673057123657
 20
6959.023726043961
 30
0.0
  0
ENDBLK
  5
171AC
330
1659E
100
AcDbEntity
  8
0
 48
50.0
100
AcDbBlockEnd
  0
BLOCK
  5
165B6
330
165B5
100
AcDbEntity
  8
0
 48
50.0
100
AcDbBlockBegin
  2
*D15
 70
     1
 10
0.0
 20
0.0
 30
0.0
  3
*D15
  1

  0
LINE
  5
181AE
330
165B5
100
AcDbEntity
  8
寸法
 62
     0
 48
50.0
370
    -2
100
AcDbLine
 10
3112.673057123657
 20
7499.454496810125
 30
0.0
 11
3112.673057123657
 21
6899.023726043961
 31
0.0
  0
LINE
  5
181AF
330
165B5
100
AcDbEntity
  8
寸法
 62
     0
 48
50.0
370
    -2
100
AcDbLine
 10
3064.673057123653
 20
7473.454496810124
 30
0.0
 11
3064.673057123653
 21
6899.023726043961
 31
0.0
  0
LINE
  5
181B0
330
165B5
100
AcDbEntity
  8
寸法
 62
     0
 48
50.0
370
    -2
100
AcDbLine
 10
3112.673057123657
 20
6959.023726043961
 30
0.0
 11
3212.673057123657
 21
6959.023726043961
 31
0.0
  0
LINE
  5
181B1
330
165B5
100
AcDbEntity
  8
寸法
 62
     0
 48
50.0
370
    -2
100
AcDbLine
 10
3064.673057123653
 20
6959.023726043961
 30
0.0
 11
2964.673057123653
 21
6959.023726043961
 31
0.0
  0
MTEXT
  5
181B2
330
165B5
100
AcDbEntity
  8
寸法
 62
     7
 48
50.0
100
AcDbMText
 10
3225.575028123714
 20
7059.02372604396
 30
0.0
 40
120.0
 41
0.0
 71
     5
 72
     1
  1
\A1;48
  7
STYLE1
 73
     1
 44
1.0
1001
ACAD
1000
MTEXTBEGIN
1070
    73
1070
     1
1070
    44
1040
1.0
1070
    74
1070
     0
1000
MTEXTEND
  0
LINE
  5
181B3
330
165B5
100
AcDbEntity
  8
寸法
 62
     0
 48
50.0
370
    -2
100
AcDbLine
 10
3112.673057123657
 20
6959.023726043961
 30
0.0
 11
3064.673057123653
 21
6959.023726043961
 31
0.0
  0
INSERT
  5
181B4
330
165B5
100
AcDbEntity
  8
寸法
 62
     0
 48
50.0
370
    -2
100
AcDbBlockReference
  2
_DOTSMALL
 10
3112.673057123657
 20
6959.023726043961
 30
0.0
 41
100.0
 42
100.0
 43
100.0
 50
180.0
  0
INSERT
  5
181B5
330
165B5
100
AcDbEntity
  8
寸法
 62
     0
 48
50.0
370
    -2
100
AcDbBlockReference
  2
_DOTSMALL
 10
3064.673057123653
 20
6959.023726043961
 30
0.0
 41
100.0
 42
100.0
 43
100.0
  0
POINT
  5
181B6
330
165B5
100
AcDbEntity
  8
DEFPOINTS
 62
     0
 48
50.0
100
AcDbPoint
 10
3112.673057123657
 20
7519.454496810124
 30
0.0
  0
POINT
  5
181B7
330
165B5
100
AcDbEntity
  8
DEFPOINTS
 62
     0
 48
50.0
100
AcDbPoint
 10
3064.673057123653
 20
7493.454496810125
 30
0.0
  0
POINT
  5
181B8
330
165B5
100
AcDbEntity
  8
DEFPOINTS
 62
     0
 48
50.0
100
AcDbPoint
 10
3064.673057123653
 20
6959.023726043961
 30
0.0
  0
ENDBLK
  5
165C3
330
165B5
100
AcDbEntity
  8
0
 48
50.0
100
AcDbBlockEnd
  0
BLOCK
  5
165C5
330
165C4
100
AcDbEntity
  8
0
 48
50.0
100
AcDbBlockBegin
  2
*D16
 70
     1
 10
0.0
 20
0.0
 30
0.0
  3
*D16
  1

  0
LINE
  5
181C1
330
165C4
100
AcDbEntity
  8
寸法
 62
     0
 48
50.0
370
    -2
100
AcDbLine
 10
6004.67305712364
 20
7473.454496810212
 30
0.0
 11
6004.67305712364
 21
6899.023726043961
 31
0.0
  0
LINE
  5
181C2
330
165C4
100
AcDbEntity
  8
寸法
 62
     0
 48
50.0
370
    -2
100
AcDbLine
 10
5956.673057123638
 20
7499.454496810125
 30
0.0
 11
5956.673057123638
 21
6899.023726043961
 31
0.0
  0
LINE
  5
181C3
330
165C4
100
AcDbEntity
  8
寸法
 62
     0
 48
50.0
370
    -2
100
AcDbLine
 10
6004.67305712364
 20
6959.023726043961
 30
0.0
 11
6104.67305712364
 21
6959.023726043961
 31
0.0
  0
LINE
  5
181C4
330
165C4
100
AcDbEntity
  8
寸法
 62
     0
 48
50.0
370
    -2
100
AcDbLine
 10
5956.673057123638
 20
6959.023726043961
 30
0.0
 11
5856.673057123638
 21
6959.023726043961
 31
0.0
  0
MTEXT
  5
181C5
330
165C4
100
AcDbEntity
  8
寸法
 62
     7
 48
50.0
100
AcDbMText
 10
5845.710159474891
 20
7059.02372604396
 30
0.0
 40
120.0
 41
0.0
 71
     5
 72
     1
  1
\A1;48
  7
STYLE1
 73
     1
 44
1.0
1001
ACAD
1000
MTEXTBEGIN
1070
    73
1070
     1
1070
    44
1040
1.0
1070
    74
1070
     0
1000
MTEXTEND
  0
LINE
  5
181C6
330
165C4
100
AcDbEntity
  8
寸法
 62
     0
 48
50.0
370
    -2
100
AcDbLine
 10
6004.67305712364
 20
6959.023726043961
 30
0.0
 11
5956.673057123638
 21
6959.023726043961
 31
0.0
  0
INSERT
  5
181C7
330
165C4
100
AcDbEntity
  8
寸法
 62
     0
 48
50.0
370
    -2
100
AcDbBlockReference
  2
_DOTSMALL
 10
6004.67305712364
 20
6959.023726043961
 30
0.0
 41
100.0
 42
100.0
 43
100.0
 50
180.0
  0
INSERT
  5
181C8
330
165C4
100
AcDbEntity
  8
寸法
 62
     0
 48
50.0
370
    -2
100
AcDbBlockReference
  2
_DOTSMALL
 10
5956.673057123638
 20
6959.023726043961
 30
0.0
 41
100.0
 42
100.0
 43
100.0
  0
POINT
  5
181C9
330
165C4
100
AcDbEntity
  8
DEFPOINTS
 62
     0
 48
50.0
100
AcDbPoint
 10
6004.67305712364
 20
7493.454496810213
 30
0.0
  0
POINT
  5
181CA
330
165C4
100
AcDbEntity
  8
DEFPOINTS
 62
     0
 48
50.0
100
AcDbPoint
 10
5956.673057123638
 20
7519.454496810126
 30
0.0
  0
POINT
  5
181CB
330
165C4
100
AcDbEntity
  8
DEFPOINTS
 62
     0
 48
50.0
100
AcDbPoint
 10
5956.673057123638
 20
6959.023726043961
 30
0.0
  0
ENDBLK
  5
165D2
330
165C4
100
AcDbEntity
  8
0
 48
50.0
100
AcDbBlockEnd
  0
BLOCK
  5
1663F
330
165EA
100
AcDbEntity
  8
0
 48
50.0
100
AcDbBlockBegin
  2
*D17
 70
     1
 10
0.0
 20
0.0
 30
0.0
  3
*D17
  1

  0
LINE
  5
181A5
330
165EA
100
AcDbEntity
  8
寸法
 62
     0
 48
50.0
370
    -2
100
AcDbLine
 10
6114.673057123653
 20
7473.454496810124
 30
0.0
 11
6114.673057123653
 21
6899.023726043961
 31
0.0
  0
LINE
  5
181A6
330
165EA
100
AcDbEntity
  8
寸法
 62
     0
 48
50.0
370
    -2
100
AcDbLine
 10
6004.67305712364
 20
7473.454496810212
 30
0.0
 11
6004.67305712364
 21
6899.023726043961
 31
0.0
  0
LINE
  5
181A7
330
165EA
100
AcDbEntity
  8
寸法
 62
     0
 48
50.0
370
    -2
100
AcDbLine
 10
6114.673057123653
 20
6959.023726043962
 30
0.0
 11
6004.67305712364
 21
6959.023726043962
 31
0.0
  0
MTEXT
  5
181A8
330
165EA
100
AcDbEntity
  8
寸法
 62
     7
 48
50.0
100
AcDbMText
 10
6059.673057123647
 20
6807.331831007729
 30
0.0
 40
120.0
 41
0.0
 71
     5
 72
     1
  1
\A1;110
  7
STYLE1
 73
     1
 44
1.0
1001
ACAD
1000
MTEXTBEGIN
1070
    73
1070
     1
1070
    44
1040
1.0
1070
    74
1070
     0
1000
MTEXTEND
  0
INSERT
  5
181A9
330
165EA
100
AcDbEntity
  8
寸法
 62
     0
 48
50.0
370
    -2
100
AcDbBlockReference
  2
_DOTSMALL
 10
6114.673057123653
 20
6959.023726043962
 30
0.0
 41
100.0
 42
100.0
 43
100.0
  0
INSERT
  5
181AA
330
165EA
100
AcDbEntity
  8
寸法
 62
     0
 48
50.0
370
    -2
100
AcDbBlockReference
  2
_DOTSMALL
 10
6004.67305712364
 20
6959.023726043962
 30
0.0
 41
100.0
 42
100.0
 43
100.0
 50
180.0
  0
POINT
  5
181AB
330
165EA
100
AcDbEntity
  8
DEFPOINTS
 62
     0
 48
50.0
100
AcDbPoint
 10
6114.673057123653
 20
7493.454496810125
 30
0.0
  0
POINT
  5
181AC
330
165EA
100
AcDbEntity
  8
DEFPOINTS
 62
     0
 48
50.0
100
AcDbPoint
 10
6004.67305712364
 20
7493.454496810213
 30
0.0
  0
POINT
  5
181AD
330
165EA
100
AcDbEntity
  8
DEFPOINTS
 62
     0
 48
50.0
100
AcDbPoint
 10
6004.67305712364
 20
6959.023726043962
 30
0.0
  0
ENDBLK
  5
16649
330
165EA
100
AcDbEntity
  8
0
 48
50.0
100
AcDbBlockEnd
  0
BLOCK
  5
17426
330
166AD
100
AcDbEntity
  8
0
 48
50.0
100
AcDbBlockBegin
  2
*D18
 70
     1
 10
0.0
 20
0.0
 30
0.0
  3
*D18
  1

  0
LINE
  5
1819C
330
166AD
100
AcDbEntity
  8
寸法
 62
     0
 48
50.0
370
    -2
100
AcDbLine
 10
3064.673057123663
 20
10143.45449681013
 30
0.0
 11
3064.673057123663
 21
10399.26271643522
 31
0.0
  0
LINE
  5
1819D
330
166AD
100
AcDbEntity
  8
寸法
 62
     0
 48
50.0
370
    -2
100
AcDbLine
 10
6004.673057123664
 20
10143.45449681022
 30
0.0
 11
6004.673057123664
 21
10399.26271643522
 31
0.0
  0
LINE
  5
1819E
330
166AD
100
AcDbEntity
  8
寸法
 62
     0
 48
50.0
370
    -2
100
AcDbLine
 10
3064.673057123663
 20
10339.26271643522
 30
0.0
 11
6004.673057123664
 21
10339.26271643522
 31
0.0
  0
INSERT
  5
1819F
330
166AD
100
AcDbEntity
  8
寸法
 62
     0
 48
50.0
370
    -2
100
AcDbBlockReference
  2
_DOTSMALL
 10
3064.673057123663
 20
10339.26271643522
 30
0.0
 41
100.0
 42
100.0
 43
100.0
 50
180.0
  0
INSERT
  5
181A0
330
166AD
100
AcDbEntity
  8
寸法
 62
     0
 48
50.0
370
    -2
100
AcDbBlockReference
  2
_DOTSMALL
 10
6004.673057123664
 20
10339.26271643522
 30
0.0
 41
100.0
 42
100.0
 43
100.0
  0
MTEXT
  5
181A1
330
166AD
100
AcDbEntity
  8
寸法
 62
     7
 48
50.0
100
AcDbMText
 10
4534.673057123664
 20
10439.27452745885
 30
0.0
 40
120.0
 41
0.0
 71
     5
 72
     1
  1
\A1;7X420=2940
  7
STYLE1
 73
     1
 44
1.0
1001
ACAD
1000
MTEXTBEGIN
1070
    73
1070
     1
1070
    44
1040
1.0
1070
    74
1070
     0
1000
MTEXTEND
  0
POINT
  5
181A2
330
166AD
100
AcDbEntity
  8
DEFPOINTS
 62
     0
 48
50.0
100
AcDbPoint
 10
3064.673057123663
 20
10123.45449681013
 30
0.0
  0
POINT
  5
181A3
330
166AD
100
AcDbEntity
  8
DEFPOINTS
 62
     0
 48
50.0
100
AcDbPoint
 10
6004.673057123664
 20
10123.45449681022
 30
0.0
  0
POINT
  5
181A4
330
166AD
100
AcDbEntity
  8
DEFPOINTS
 62
     0
 48
50.0
100
AcDbPoint
 10
6004.673057123664
 20
10339.26271643522
 30
0.0
  0
ENDBLK
  5
17430
330
166AD
100
AcDbEntity
  8
0
 48
50.0
100
AcDbBlockEnd
  0
BLOCK
  5
166D0
330
166CF
100
AcDbEntity
  8
0
 48
50.0
100
AcDbBlockBegin
  2
*D19
 70
     1
 10
0.0
 20
0.0
 30
0.0
  3
*D19
  1

  0
LINE
  5
18191
330
166CF
100
AcDbEntity
  8
寸法
 62
     0
 48
50.0
370
    -2
100
AcDbLine
 10
6114.673057123663
 20
10143.45449681018
 30
0.0
 11
6114.673057123663
 21
10399.26271643522
 31
0.0
  0
LINE
  5
18192
330
166CF
100
AcDbEntity
  8
寸法
 62
     0
 48
50.0
370
    -2
100
AcDbLine
 10
6004.673057123664
 20
10143.45449681017
 30
0.0
 11
6004.673057123664
 21
10399.26271643522
 31
0.0
  0
LINE
  5
18193
330
166CF
100
AcDbEntity
  8
寸法
 62
     0
 48
50.0
370
    -2
100
AcDbLine
 10
6114.673057123663
 20
10339.26271643522
 30
0.0
 11
6214.673057123663
 21
10339.26271643522
 31
0.0
  0
LINE
  5
18194
330
166CF
100
AcDbEntity
  8
寸法
 62
     0
 48
50.0
370
    -2
100
AcDbLine
 10
6004.673057123664
 20
10339.26271643522
 30
0.0
 11
5904.673057123664
 21
10339.26271643522
 31
0.0
  0
LINE
  5
18195
330
166CF
100
AcDbEntity
  8
寸法
 62
     0
 48
50.0
370
    -2
100
AcDbLine
 10
6114.673057123663
 20
10339.26271643522
 30
0.0
 11
6004.673057123664
 21
10339.26271643522
 31
0.0
  0
INSERT
  5
18196
330
166CF
100
AcDbEntity
  8
寸法
 62
     0
 48
50.0
370
    -2
100
AcDbBlockReference
  2
_DOTSMALL
 10
6114.673057123663
 20
10339.26271643522
 30
0.0
 41
100.0
 42
100.0
 43
100.0
 50
180.0
  0
INSERT
  5
18197
330
166CF
100
AcDbEntity
  8
寸法
 62
     0
 48
50.0
370
    -2
100
AcDbBlockReference
  2
_DOTSMALL
 10
6004.673057123664
 20
10339.26271643522
 30
0.0
 41
100.0
 42
100.0
 43
100.0
  0
MTEXT
  5
18198
330
166CF
100
AcDbEntity
  8
寸法
 62
     7
 48
50.0
100
AcDbMText
 10
6059.673057123664
 20
10439.26271643522
 30
0.0
 40
120.0
 41
0.0
 71
     5
 72
     1
  1
\A1;110
  7
STYLE1
 73
     1
 44
1.0
1001
ACAD
1000
MTEXTBEGIN
1070
    73
1070
     1
1070
    44
1040
1.0
1070
    74
1070
     0
1000
MTEXTEND
  0
POINT
  5
18199
330
166CF
100
AcDbEntity
  8
DEFPOINTS
 62
     0
 48
50.0
100
AcDbPoint
 10
6114.673057123663
 20
10123.45449681018
 30
0.0
  0
POINT
  5
1819A
330
166CF
100
AcDbEntity
  8
DEFPOINTS
 62
     0
 48
50.0
100
AcDbPoint
 10
6004.673057123664
 20
10123.45449681017
 30
0.0
  0
POINT
  5
1819B
330
166CF
100
AcDbEntity
  8
DEFPOINTS
 62
     0
 48
50.0
100
AcDbPoint
 10
6004.673057123664
 20
10339.26271643522
 30
0.0
  0
ENDBLK
  5
166DC
330
166CF
100
AcDbEntity
  8
0
 48
50.0
100
AcDbBlockEnd
  0
BLOCK
  5
171AD
330
168FB
100
AcDbEntity
  8
0
 48
50.0
100
AcDbBlockBegin
  2
*D20
 70
     1
 10
0.0
 20
0.0
 30
0.0
  3
*D20
  1

  0
LINE
  5
18188
330
168FB
100
AcDbEntity
  8
寸法
 62
     0
 48
50.0
370
    -2
100
AcDbLine
 10
3009.673057123629
 20
10143.45449681009
 30
0.0
 11
3009.673057123629
 21
10648.58418999152
 31
0.0
  0
LINE
  5
18189
330
168FB
100
AcDbEntity
  8
寸法
 62
     0
 48
50.0
370
    -2
100
AcDbLine
 10
6059.673057123664
 20
10518.25063079317
 30
0.0
 11
6059.673057123664
 21
10648.58418999152
 31
0.0
  0
LINE
  5
1818A
330
168FB
100
AcDbEntity
  8
寸法
 62
     0
 48
50.0
370
    -2
100
AcDbLine
 10
3009.673057123629
 20
10588.58418999152
 30
0.0
 11
6059.673057123664
 21
10588.58418999152
 31
0.0
  0
INSERT
  5
1818B
330
168FB
100
AcDbEntity
  8
寸法
 62
     0
 48
50.0
370
    -2
100
AcDbBlockReference
  2
_DOTSMALL
 10
3009.673057123629
 20
10588.58418999152
 30
0.0
 41
100.0
 42
100.0
 43
100.0
 50
180.0
  0
INSERT
  5
1818C
330
168FB
100
AcDbEntity
  8
寸法
 62
     0
 48
50.0
370
    -2
100
AcDbBlockReference
  2
_DOTSMALL
 10
6059.673057123664
 20
10588.58418999152
 30
0.0
 41
100.0
 42
100.0
 43
100.0
  0
MTEXT
  5
1818D
330
168FB
100
AcDbEntity
  8
寸法
 62
     7
 48
50.0
100
AcDbMText
 10
4534.673057123645
 20
10688.58418999152
 30
0.0
 40
120.0
 41
0.0
 71
     5
 72
     1
  1
\A1;3050
  7
STYLE1
 73
     1
 44
1.0
1001
ACAD
1000
MTEXTBEGIN
1070
    73
1070
     1
1070
    44
1040
1.0
1070
    74
1070
     0
1000
MTEXTEND
  0
POINT
  5
1818E
330
168FB
100
AcDbEntity
  8
DEFPOINTS
 62
     0
 48
50.0
100
AcDbPoint
 10
3009.673057123629
 20
10123.45449681009
 30
0.0
  0
POINT
  5
1818F
330
168FB
100
AcDbEntity
  8
DEFPOINTS
 62
     0
 48
50.0
100
AcDbPoint
 10
6059.673057123664
 20
10498.25063079317
 30
0.0
  0
POINT
  5
18190
330
168FB
100
AcDbEntity
  8
DEFPOINTS
 62
     0
 48
50.0
100
AcDbPoint
 10
6059.673057123664
 20
10588.58418999152
 30
0.0
  0
ENDBLK
  5
171B7
330
168FB
100
AcDbEntity
  8
0
 48
50.0
100
AcDbBlockEnd
  0
BLOCK
  5
171CE
330
16908
100
AcDbEntity
  8
0
 48
50.0
100
AcDbBlockBegin
  2
*D21
 70
     1
 10
0.0
 20
0.0
 30
0.0
  3
*D21
  1

  0
LINE
  5
18180
330
16908
100
AcDbEntity
  8
寸法
 62
     0
 48
50.0
370
    -2
100
AcDbLine
 10
9109.673057123664
 20
10143.45449681022
 30
0.0
 11
9109.673057123664
 21
10648.58418999152
 31
0.0
  0
LINE
  5
18181
330
16908
100
AcDbEntity
  8
寸法
 62
     0
 48
50.0
370
    -2
100
AcDbLine
 10
6059.673057123664
 20
10588.58418999152
 30
0.0
 11
9109.673057123664
 21
10588.58418999152
 31
0.0
  0
INSERT
  5
18182
330
16908
100
AcDbEntity
  8
寸法
 62
     0
 48
50.0
370
    -2
100
AcDbBlockReference
  2
_DOTSMALL
 10
6059.673057123664
 20
10588.58418999152
 30
0.0
 41
100.0
 42
100.0
 43
100.0
 50
180.0
  0
INSERT
  5
18183
330
16908
100
AcDbEntity
  8
寸法
 62
     0
 48
50.0
370
    -2
100
AcDbBlockReference
  2
_DOTSMALL
 10
9109.673057123664
 20
10588.58418999152
 30
0.0
 41
100.0
 42
100.0
 43
100.0
  0
MTEXT
  5
18184
330
16908
100
AcDbEntity
  8
寸法
 62
     7
 48
50.0
100
AcDbMText
 10
7584.673057123665
 20
10688.58418999152
 30
0.0
 40
120.0
 41
0.0
 71
     5
 72
     1
  1
\A1;3050
  7
STYLE1
 73
     1
 44
1.0
1001
ACAD
1000
MTEXTBEGIN
1070
    73
1070
     1
1070
    44
1040
1.0
1070
    74
1070
     0
1000
MTEXTEND
  0
POINT
  5
18185
330
16908
100
AcDbEntity
  8
DEFPOINTS
 62
     0
 48
50.0
100
AcDbPoint
 10
6059.673057123664
 20
10498.25063079317
 30
0.0
  0
POINT
  5
18186
330
16908
100
AcDbEntity
  8
DEFPOINTS
 62
     0
 48
50.0
100
AcDbPoint
 10
9109.673057123664
 20
10123.45449681022
 30
0.0
  0
POINT
  5
18187
330
16908
100
AcDbEntity
  8
DEFPOINTS
 62
     0
 48
50.0
100
AcDbPoint
 10
9109.673057123664
 20
10588.58418999152
 30
0.0
  0
ENDBLK
  5
171D7
330
16908
100
AcDbEntity
  8
0
 48
50.0
100
AcDbBlockEnd
  0
BLOCK
  5
17B5C
330
17B52
100
AcDbEntity
  8
0
 48
50.0
100
AcDbBlockBegin
  2
*D22
 70
     1
 10
0.0
 20
0.0
 30
0.0
  3
*D22
  1

  0
LINE
  5
18B5A
330
17B52
100
AcDbEntity
  8
寸法
 62
     0
 48
50.0
370
    -2
100
AcDbLine
 10
9109.673057123652
 20
4932.931598713266
 30
0.0
 11
9109.673057123652
 21
5185.473183971506
 31
0.0
  0
LINE
  5
18B5B
330
17B52
100
AcDbEntity
  8
寸法
 62
     0
 48
50.0
370
    -2
100
AcDbLine
 10
3009.673057123637
 20
4932.931598713269
 30
0.0
 11
3009.673057123637
 21
5185.473183971506
 31
0.0
  0
LINE
  5
18B5C
330
17B52
100
AcDbEntity
  8
寸法
 62
     0
 48
50.0
370
    -2
100
AcDbLine
 10
9109.673057123652
 20
5125.473183971506
 30
0.0
 11
3009.673057123637
 21
5125.473183971506
 31
0.0
  0
INSERT
  5
18B5D
330
17B52
100
AcDbEntity
  8
寸法
 62
     0
 48
50.0
370
    -2
100
AcDbBlockReference
  2
_DOTSMALL
 10
9109.673057123652
 20
5125.473183971506
 30
0.0
 41
100.0
 42
100.0
 43
100.0
  0
INSERT
  5
18B5E
330
17B52
100
AcDbEntity
  8
寸法
 62
     0
 48
50.0
370
    -2
100
AcDbBlockReference
  2
_DOTSMALL
 10
3009.673057123637
 20
5125.473183971506
 30
0.0
 41
100.0
 42
100.0
 43
100.0
 50
180.0
  0
MTEXT
  5
18B5F
330
17B52
100
AcDbEntity
  8
寸法
 62
     7
 48
50.0
100
AcDbMText
 10
6059.673057123644
 20
5225.473183971506
 30
0.0
 40
120.0
 41
0.0
 71
     5
 72
     1
  1
\A1;柱外寸法6100
  7
STYLE1
 73
     1
 44
1.0
1001
ACAD
1000
MTEXTBEGIN
1070
    73
1070
     1
1070
    44
1040
1.0
1070
    74
1070
     0
1000
MTEXTEND
  0
POINT
  5
18B60
330
17B52
100
AcDbEntity
  8
DEFPOINTS
 62
     0
 48
50.0
100
AcDbPoint
 10
9109.673057123652
 20
4912.931598713266
 30
0.0
  0
POINT
  5
18B61
330
17B52
100
AcDbEntity
  8
DEFPOINTS
 62
     0
 48
50.0
100
AcDbPoint
 10
3009.673057123637
 20
4912.931598713268
 30
0.0
  0
POINT
  5
18B62
330
17B52
100
AcDbEntity
  8
DEFPOINTS
 62
     0
 48
50.0
100
AcDbPoint
 10
3009.673057123637
 20
5125.473183971506
 30
0.0
  0
ENDBLK
  5
17B5D
330
17B52
100
AcDbEntity
  8
0
 48
50.0
100
AcDbBlockEnd
  0
BLOCK
  5
17B6A
330
17B5E
100
AcDbEntity
  8
0
 48
50.0
100
AcDbBlockBegin
  2
*D23
 70
     1
 10
0.0
 20
0.0
 30
0.0
  3
*D23
  1

  0
LINE
  5
18143
330
17B5E
100
AcDbEntity
  8
寸法
 62
     0
 48
50.0
370
    -2
100
AcDbLine
 10
3009.673057123637
 20
4932.931598713269
 30
0.0
 11
3009.673057123637
 21
5185.473183971506
 31
0.0
  0
LINE
  5
18144
330
17B5E
100
AcDbEntity
  8
寸法
 62
     0
 48
50.0
370
    -2
100
AcDbLine
 10
2959.673057123637
 20
4932.931598713267
 30
0.0
 11
2959.673057123637
 21
5185.473183971506
 31
0.0
  0
LINE
  5
18145
330
17B5E
100
AcDbEntity
  8
寸法
 62
     0
 48
50.0
370
    -2
100
AcDbLine
 10
3009.673057123637
 20
5125.473183971506
 30
0.0
 11
3109.673057123637
 21
5125.473183971506
 31
0.0
  0
LINE
  5
18146
330
17B5E
100
AcDbEntity
  8
寸法
 62
     0
 48
50.0
370
    -2
100
AcDbLine
 10
2959.673057123637
 20
5125.473183971506
 30
0.0
 11
2540.140531654901
 21
5125.473183971506
 31
0.0
  0
LINE
  5
18147
330
17B5E
100
AcDbEntity
  8
寸法
 62
     0
 48
50.0
370
    -2
100
AcDbLine
 10
3009.673057123637
 20
5125.473183971506
 30
0.0
 11
2959.673057123637
 21
5125.473183971506
 31
0.0
  0
INSERT
  5
18148
330
17B5E
100
AcDbEntity
  8
寸法
 62
     0
 48
50.0
370
    -2
100
AcDbBlockReference
  2
_DOTSMALL
 10
3009.673057123637
 20
5125.473183971506
 30
0.0
 41
100.0
 42
100.0
 43
100.0
 50
180.0
  0
INSERT
  5
18149
330
17B5E
100
AcDbEntity
  8
寸法
 62
     0
 48
50.0
370
    -2
100
AcDbBlockReference
  2
_DOTSMALL
 10
2959.673057123637
 20
5125.473183971506
 30
0.0
 41
100.0
 42
100.0
 43
100.0
  0
MTEXT
  5
1814A
330
17B5E
100
AcDbEntity
  8
寸法
 62
     7
 48
50.0
100
AcDbMText
 10
2646.187775749389
 20
5225.473183971506
 30
0.0
 40
120.0
 41
0.0
 71
     5
 72
     1
  1
\A1;50
  7
STYLE1
 73
     1
 44
1.0
1001
ACAD
1000
MTEXTBEGIN
1070
    73
1070
     1
1070
    44
1040
1.0
1070
    74
1070
     0
1000
MTEXTEND
  0
POINT
  5
1814B
330
17B5E
100
AcDbEntity
  8
DEFPOINTS
 62
     0
 48
50.0
100
AcDbPoint
 10
3009.673057123637
 20
4912.931598713268
 30
0.0
  0
POINT
  5
1814C
330
17B5E
100
AcDbEntity
  8
DEFPOINTS
 62
     0
 48
50.0
100
AcDbPoint
 10
2959.673057123637
 20
4912.931598713267
 30
0.0
  0
POINT
  5
1814D
330
17B5E
100
AcDbEntity
  8
DEFPOINTS
 62
     0
 48
50.0
100
AcDbPoint
 10
2959.673057123637
 20
5125.473183971506
 30
0.0
  0
ENDBLK
  5
17B6B
330
17B5E
100
AcDbEntity
  8
0
 48
50.0
100
AcDbBlockEnd
  0
BLOCK
  5
17C6E
330
17C64
100
AcDbEntity
  8
0
 48
50.0
100
AcDbBlockBegin
  2
*D24
 70
     1
 10
0.0
 20
0.0
 30
0.0
  3
*D24
  1

  0
LINE
  5
17EAB
330
17C64
100
AcDbEntity
  8
寸法
 62
     0
 48
50.0
370
    -2
100
AcDbLine
 10
11716.84983051324
 20
4677.931598713255
 30
0.0
 11
10833.09970132999
 21
4677.931598713255
 31
0.0
  0
LINE
  5
17EAC
330
17C64
100
AcDbEntity
  8
寸法
 62
     0
 48
50.0
370
    -2
100
AcDbLine
 10
11716.84983051324
 20
2587.931598713252
 30
0.0
 11
10833.09970132999
 21
2587.931598713253
 31
0.0
  0
LINE
  5
17EAD
330
17C64
100
AcDbEntity
  8
寸法
 62
     0
 48
50.0
370
    -2
100
AcDbLine
 10
10893.09970132999
 20
4677.931598713255
 30
0.0
 11
10893.09970132999
 21
2587.931598713253
 31
0.0
  0
INSERT
  5
17EAE
330
17C64
100
AcDbEntity
  8
寸法
 62
     0
 48
50.0
370
    -2
100
AcDbBlockReference
  2
_DOTSMALL
 10
10893.09970132999
 20
4677.931598713255
 30
0.0
 41
100.0
 42
100.0
 43
100.0
 50
90.0
  0
INSERT
  5
17EAF
330
17C64
100
AcDbEntity
  8
寸法
 62
     0
 48
50.0
370
    -2
100
AcDbBlockReference
  2
_DOTSMALL
 10
10893.09970132999
 20
2587.931598713253
 30
0.0
 41
100.0
 42
100.0
 43
100.0
 50
270.0
  0
MTEXT
  5
17EB0
330
17C64
100
AcDbEntity
  8
寸法
 62
     7
 48
50.0
100
AcDbMText
 10
10793.08789030636
 20
3632.931598713256
 30
0.0
 40
120.0
 41
0.0
 71
     5
 72
     1
  1
\A1;2090
  7
STYLE1
 11
0.0000000000000001
 21
1.0
 31
0.0
 73
     1
 44
1.0
1001
ACAD
1000
MTEXTBEGIN
1070
    73
1070
     1
1070
    44
1040
1.0
1070
    74
1070
     0
1000
MTEXTEND
  0
POINT
  5
17EB1
330
17C64
100
AcDbEntity
  8
DEFPOINTS
 62
     0
 48
50.0
100
AcDbPoint
 10
11736.84983051324
 20
4677.931598713255
 30
0.0
  0
POINT
  5
17EB2
330
17C64
100
AcDbEntity
  8
DEFPOINTS
 62
     0
 48
50.0
100
AcDbPoint
 10
11736.84983051324
 20
2587.931598713252
 30
0.0
  0
POINT
  5
17EB3
330
17C64
100
AcDbEntity
  8
DEFPOINTS
 62
     0
 48
50.0
100
AcDbPoint
 10
10893.09970132999
 20
2587.931598713253
 30
0.0
  0
ENDBLK
  5
17C6F
330
17C64
100
AcDbEntity
  8
0
 48
50.0
100
AcDbBlockEnd
  0
BLOCK
  5
17C7A
330
17C70
100
AcDbEntity
  8
0
 48
50.0
100
AcDbBlockBegin
  2
*D25
 70
     1
 10
0.0
 20
0.0
 30
0.0
  3
*D25
  1

  0
LINE
  5
17EA2
330
17C70
100
AcDbEntity
  8
寸法
 62
     0
 48
50.0
370
    -2
100
AcDbLine
 10
11716.84983051324
 20
2537.931598713252
 30
0.0
 11
10533.09970132998
 21
2537.931598713253
 31
0.0
  0
LINE
  5
17EA3
330
17C70
100
AcDbEntity
  8
寸法
 62
     0
 48
50.0
370
    -2
100
AcDbLine
 10
11656.84983051324
 20
4912.931598713258
 30
0.0
 11
10533.09970132999
 21
4912.931598713258
 31
0.0
  0
LINE
  5
17EA4
330
17C70
100
AcDbEntity
  8
寸法
 62
     0
 48
50.0
370
    -2
100
AcDbLine
 10
10593.09970132998
 20
2537.931598713253
 30
0.0
 11
10593.09970132999
 21
4912.931598713258
 31
0.0
  0
INSERT
  5
17EA5
330
17C70
100
AcDbEntity
  8
寸法
 62
     0
 48
50.0
370
    -2
100
AcDbBlockReference
  2
_DOTSMALL
 10
10593.09970132998
 20
2537.931598713253
 30
0.0
 41
100.0
 42
100.0
 43
100.0
 50
270.0
  0
INSERT
  5
17EA6
330
17C70
100
AcDbEntity
  8
寸法
 62
     0
 48
50.0
370
    -2
100
AcDbBlockReference
  2
_DOTSMALL
 10
10593.09970132999
 20
4912.931598713258
 30
0.0
 41
100.0
 42
100.0
 43
100.0
 50
90.0
  0
MTEXT
  5
17EA7
330
17C70
100
AcDbEntity
  8
寸法
 62
     7
 48
50.0
100
AcDbMText
 10
10493.08789030636
 20
3725.431598713258
 30
0.0
 40
120.0
 41
0.0
 71
     5
 72
     1
  1
\A1;2375
  7
STYLE1
 11
0.0000000000000001
 21
1.0
 31
0.0
 73
     1
 44
1.0
1001
ACAD
1000
MTEXTBEGIN
1070
    73
1070
     1
1070
    44
1040
1.0
1070
    74
1070
     0
1000
MTEXTEND
  0
POINT
  5
17EA8
330
17C70
100
AcDbEntity
  8
DEFPOINTS
 62
     0
 48
50.0
100
AcDbPoint
 10
11736.84983051324
 20
2537.931598713252
 30
0.0
  0
POINT
  5
17EA9
330
17C70
100
AcDbEntity
  8
DEFPOINTS
 62
     0
 48
50.0
100
AcDbPoint
 10
11676.84983051324
 20
4912.931598713258
 30
0.0
  0
POINT
  5
17EAA
330
17C70
100
AcDbEntity
  8
DEFPOINTS
 62
     0
 48
50.0
100
AcDbPoint
 10
10593.09970132999
 20
4912.931598713258
 30
0.0
  0
ENDBLK
  5
17C7B
330
17C70
100
AcDbEntity
  8
0
 48
50.0
100
AcDbBlockEnd
  0
BLOCK
  5
17C86
330
17C7C
100
AcDbEntity
  8
0
 48
50.0
100
AcDbBlockBegin
  2
*D26
 70
     1
 10
0.0
 20
0.0
 30
0.0
  3
*D26
  1

  0
LINE
  5
17E99
330
17C7C
100
AcDbEntity
  8
寸法
 62
     0
 48
50.0
370
    -2
100
AcDbLine
 10
14386.84983051325
 20
2537.93159871326
 30
0.0
 11
15131.77698848538
 21
2537.93159871326
 31
0.0
  0
LINE
  5
17E9A
330
17C7C
100
AcDbEntity
  8
寸法
 62
     0
 48
50.0
370
    -2
100
AcDbLine
 10
14466.84983051325
 20
4857.93159871326
 30
0.0
 11
15131.77698848538
 21
4857.93159871326
 31
0.0
  0
LINE
  5
17E9B
330
17C7C
100
AcDbEntity
  8
寸法
 62
     0
 48
50.0
370
    -2
100
AcDbLine
 10
15071.77698848538
 20
2537.93159871326
 30
0.0
 11
15071.77698848538
 21
4857.93159871326
 31
0.0
  0
INSERT
  5
17E9C
330
17C7C
100
AcDbEntity
  8
寸法
 62
     0
 48
50.0
370
    -2
100
AcDbBlockReference
  2
_DOTSMALL
 10
15071.77698848538
 20
2537.93159871326
 30
0.0
 41
100.0
 42
100.0
 43
100.0
 50
270.0
  0
INSERT
  5
17E9D
330
17C7C
100
AcDbEntity
  8
寸法
 62
     0
 48
50.0
370
    -2
100
AcDbBlockReference
  2
_DOTSMALL
 10
15071.77698848538
 20
4857.93159871326
 30
0.0
 41
100.0
 42
100.0
 43
100.0
 50
90.0
  0
MTEXT
  5
17E9E
330
17C7C
100
AcDbEntity
  8
寸法
 62
     7
 48
50.0
100
AcDbMText
 10
14971.76517746176
 20
3697.931598713263
 30
0.0
 40
120.0
 41
0.0
 71
     5
 72
     1
  1
\A1;2320
  7
STYLE1
 11
0.0000000000000001
 21
1.0
 31
0.0
 73
     1
 44
1.0
1001
ACAD
1000
MTEXTBEGIN
1070
    73
1070
     1
1070
    44
1040
1.0
1070
    74
1070
     0
1000
MTEXTEND
  0
POINT
  5
17E9F
330
17C7C
100
AcDbEntity
  8
DEFPOINTS
 62
     0
 48
50.0
100
AcDbPoint
 10
14366.84983051325
 20
2537.93159871326
 30
0.0
  0
POINT
  5
17EA0
330
17C7C
100
AcDbEntity
  8
DEFPOINTS
 62
     0
 48
50.0
100
AcDbPoint
 10
14446.84983051325
 20
4857.93159871326
 30
0.0
  0
POINT
  5
17EA1
330
17C7C
100
AcDbEntity
  8
DEFPOINTS
 62
     0
 48
50.0
100
AcDbPoint
 10
15071.77698848538
 20
4857.93159871326
 30
0.0
  0
ENDBLK
  5
17C87
330
17C7C
100
AcDbEntity
  8
0
 48
50.0
100
AcDbBlockEnd
  0
BLOCK
  5
17CA1
330
17C95
100
AcDbEntity
  8
0
 48
50.0
100
AcDbBlockBegin
  2
*D27
 70
     1
 10
0.0
 20
0.0
 30
0.0
  3
*D27
  1

  0
LINE
  5
17E84
330
17C95
100
AcDbEntity
  8
寸法
 62
     0
 48
50.0
370
    -2
100
AcDbLine
 10
11716.84983051324
 20
2587.93159871326
 30
0.0
 11
10833.09970132999
 21
2587.93159871326
 31
0.0
  0
LINE
  5
17E85
330
17C95
100
AcDbEntity
  8
寸法
 62
     0
 48
50.0
370
    -2
100
AcDbLine
 10
11661.84983051324
 20
2537.93159871326
 30
0.0
 11
10833.09970132999
 21
2537.93159871326
 31
0.0
  0
LINE
  5
17E86
330
17C95
100
AcDbEntity
  8
寸法
 62
     0
 48
50.0
370
    -2
100
AcDbLine
 10
10893.09970132999
 20
2587.93159871326
 30
0.0
 11
10893.09970132999
 21
2687.93159871326
 31
0.0
  0
LINE
  5
17E87
330
17C95
100
AcDbEntity
  8
寸法
 62
     0
 48
50.0
370
    -2
100
AcDbLine
 10
10893.09970132999
 20
2537.93159871326
 30
0.0
 11
10893.09970132999
 21
2125.837110524279
 31
0.0
  0
LINE
  5
17E88
330
17C95
100
AcDbEntity
  8
寸法
 62
     0
 48
50.0
370
    -2
100
AcDbLine
 10
10893.09970132999
 20
2587.93159871326
 30
0.0
 11
10893.09970132999
 21
2537.93159871326
 31
0.0
  0
INSERT
  5
17E89
330
17C95
100
AcDbEntity
  8
寸法
 62
     0
 48
50.0
370
    -2
100
AcDbBlockReference
  2
_DOTSMALL
 10
10893.09970132999
 20
2587.93159871326
 30
0.0
 41
100.0
 42
100.0
 43
100.0
 50
270.0
  0
INSERT
  5
17E8A
330
17C95
100
AcDbEntity
  8
寸法
 62
     0
 48
50.0
370
    -2
100
AcDbBlockReference
  2
_DOTSMALL
 10
10893.09970132999
 20
2537.93159871326
 30
0.0
 41
100.0
 42
100.0
 43
100.0
 50
90.0
  0
MTEXT
  5
17E8B
330
17C95
100
AcDbEntity
  8
寸法
 62
     7
 48
50.0
100
AcDbMText
 10
10793.09970132999
 20
2231.884354618769
 30
0.0
 40
120.0
 41
0.0
 71
     5
 72
     1
  1
\A1;50
  7
STYLE1
 11
0.0000000000000001
 21
1.0
 31
0.0
 73
     1
 44
1.0
1001
ACAD
1000
MTEXTBEGIN
1070
    73
1070
     1
1070
    44
1040
1.0
1070
    74
1070
     0
1000
MTEXTEND
  0
POINT
  5
17E8C
330
17C95
100
AcDbEntity
  8
DEFPOINTS
 62
     0
 48
50.0
100
AcDbPoint
 10
11736.84983051324
 20
2587.93159871326
 30
0.0
  0
POINT
  5
17E8D
330
17C95
100
AcDbEntity
  8
DEFPOINTS
 62
     0
 48
50.0
100
AcDbPoint
 10
11681.84983051324
 20
2537.93159871326
 30
0.0
  0
POINT
  5
17E8E
330
17C95
100
AcDbEntity
  8
DEFPOINTS
 62
     0
 48
50.0
100
AcDbPoint
 10
10893.09970132999
 20
2537.93159871326
 30
0.0
  0
ENDBLK
  5
17CA2
330
17C95
100
AcDbEntity
  8
0
 48
50.0
100
AcDbBlockEnd
  0
BLOCK
  5
17CAD
330
17CA3
100
AcDbEntity
  8
0
 48
50.0
100
AcDbBlockBegin
  2
*D28
 70
     1
 10
0.0
 20
0.0
 30
0.0
  3
*D28
  1

  0
LINE
  5
18B7F
330
17CA3
100
AcDbEntity
  8
寸法
 62
     0
 48
50.0
370
    -2
100
AcDbLine
 10
14366.84983051325
 20
4879.742278324912
 30
0.0
 11
14366.84983051325
 21
5371.589052292565
 31
0.0
  0
LINE
  5
18B80
330
17CA3
100
AcDbEntity
  8
寸法
 62
     0
 48
50.0
370
    -2
100
AcDbLine
 10
11736.84983051324
 20
4928.933216836235
 30
0.0
 11
11736.84983051324
 21
5371.589052292565
 31
0.0
  0
LINE
  5
18B81
330
17CA3
100
AcDbEntity
  8
寸法
 62
     0
 48
50.0
370
    -2
100
AcDbLine
 10
14366.84983051325
 20
5311.589052292564
 30
0.0
 11
11736.84983051324
 21
5311.589052292564
 31
0.0
  0
INSERT
  5
18B82
330
17CA3
100
AcDbEntity
  8
寸法
 62
     0
 48
50.0
370
    -2
100
AcDbBlockReference
  2
_DOTSMALL
 10
14366.84983051325
 20
5311.589052292564
 30
0.0
 41
100.0
 42
100.0
 43
100.0
  0
INSERT
  5
18B83
330
17CA3
100
AcDbEntity
  8
寸法
 62
     0
 48
50.0
370
    -2
100
AcDbBlockReference
  2
_DOTSMALL
 10
11736.84983051324
 20
5311.589052292564
 30
0.0
 41
100.0
 42
100.0
 43
100.0
 50
180.0
  0
MTEXT
  5
18B84
330
17CA3
100
AcDbEntity
  8
寸法
 62
     7
 48
50.0
100
AcDbMText
 10
13051.84983051325
 20
5411.600863316187
 30
0.0
 40
120.0
 41
0.0
 71
     5
 72
     1
  1
\A1;柱外寸法2630
  7
STYLE1
 73
     1
 44
1.0
1001
ACAD
1000
MTEXTBEGIN
1070
    73
1070
     1
1070
    44
1040
1.0
1070
    74
1070
     0
1000
MTEXTEND
  0
POINT
  5
18B85
330
17CA3
100
AcDbEntity
  8
DEFPOINTS
 62
     0
 48
50.0
100
AcDbPoint
 10
14366.84983051325
 20
4859.742278324912
 30
0.0
  0
POINT
  5
18B86
330
17CA3
100
AcDbEntity
  8
DEFPOINTS
 62
     0
 48
50.0
100
AcDbPoint
 10
11736.84983051324
 20
4908.933216836235
 30
0.0
  0
POINT
  5
18B87
330
17CA3
100
AcDbEntity
  8
DEFPOINTS
 62
     0
 48
50.0
100
AcDbPoint
 10
11736.84983051324
 20
5311.589052292564
 30
0.0
  0
ENDBLK
  5
17CAE
330
17CA3
100
AcDbEntity
  8
0
 48
50.0
100
AcDbBlockEnd
  0
BLOCK
  5
17CBB
330
17CAF
100
AcDbEntity
  8
0
 48
50.0
100
AcDbBlockBegin
  2
*D29
 70
     1
 10
0.0
 20
0.0
 30
0.0
  3
*D29
  1

  0
LINE
  5
17E70
330
17CAF
100
AcDbEntity
  8
寸法
 62
     0
 48
50.0
370
    -2
100
AcDbLine
 10
11736.84983051324
 20
4928.933216836235
 30
0.0
 11
11736.84983051324
 21
5371.589052292563
 31
0.0
  0
LINE
  5
17E71
330
17CAF
100
AcDbEntity
  8
寸法
 62
     0
 48
50.0
370
    -2
100
AcDbLine
 10
11676.84983051324
 20
4932.931598713264
 30
0.0
 11
11676.84983051324
 21
5371.589052292563
 31
0.0
  0
LINE
  5
17E72
330
17CAF
100
AcDbEntity
  8
寸法
 62
     0
 48
50.0
370
    -2
100
AcDbLine
 10
11736.84983051324
 20
5311.589052292563
 30
0.0
 11
11836.84983051324
 21
5311.589052292563
 31
0.0
  0
LINE
  5
17E73
330
17CAF
100
AcDbEntity
  8
寸法
 62
     0
 48
50.0
370
    -2
100
AcDbLine
 10
11676.84983051324
 20
5311.589052292563
 30
0.0
 11
11257.57423996206
 21
5311.589052292563
 31
0.0
  0
LINE
  5
17E74
330
17CAF
100
AcDbEntity
  8
寸法
 62
     0
 48
50.0
370
    -2
100
AcDbLine
 10
11736.84983051324
 20
5311.589052292563
 30
0.0
 11
11676.84983051324
 21
5311.589052292563
 31
0.0
  0
INSERT
  5
17E75
330
17CAF
100
AcDbEntity
  8
寸法
 62
     0
 48
50.0
370
    -2
100
AcDbBlockReference
  2
_DOTSMALL
 10
11736.84983051324
 20
5311.589052292563
 30
0.0
 41
100.0
 42
100.0
 43
100.0
 50
180.0
  0
INSERT
  5
17E76
330
17CAF
100
AcDbEntity
  8
寸法
 62
     0
 48
50.0
370
    -2
100
AcDbBlockReference
  2
_DOTSMALL
 10
11676.84983051324
 20
5311.589052292563
 30
0.0
 41
100.0
 42
100.0
 43
100.0
  0
MTEXT
  5
17E77
330
17CAF
100
AcDbEntity
  8
寸法
 62
     7
 48
50.0
100
AcDbMText
 10
11367.21203523765
 20
5411.589052292563
 30
0.0
 40
120.0
 41
0.0
 71
     5
 72
     1
  1
\A1;60
  7
STYLE1
 73
     1
 44
1.0
1001
ACAD
1000
MTEXTBEGIN
1070
    73
1070
     1
1070
    44
1040
1.0
1070
    74
1070
     0
1000
MTEXTEND
  0
POINT
  5
17E78
330
17CAF
100
AcDbEntity
  8
DEFPOINTS
 62
     0
 48
50.0
100
AcDbPoint
 10
11736.84983051324
 20
4908.933216836235
 30
0.0
  0
POINT
  5
17E79
330
17CAF
100
AcDbEntity
  8
DEFPOINTS
 62
     0
 48
50.0
100
AcDbPoint
 10
11676.84983051324
 20
4912.931598713264
 30
0.0
  0
POINT
  5
17E7A
330
17CAF
100
AcDbEntity
  8
DEFPOINTS
 62
     0
 48
50.0
100
AcDbPoint
 10
11676.84983051324
 20
5311.589052292563
 30
0.0
  0
ENDBLK
  5
17CBC
330
17CAF
100
AcDbEntity
  8
0
 48
50.0
100
AcDbBlockEnd
  0
BLOCK
  5
17CC7
330
17CBD
100
AcDbEntity
  8
0
 48
50.0
100
AcDbBlockBegin
  2
*D30
 70
     1
 10
0.0
 20
0.0
 30
0.0
  3
*D30
  1

  0
LINE
  5
18B76
330
17CBD
100
AcDbEntity
  8
寸法
 62
     0
 48
50.0
370
    -2
100
AcDbLine
 10
14446.84983051325
 20
4877.93159871326
 30
0.0
 11
14446.84983051325
 21
5591.799739024181
 31
0.0
  0
LINE
  5
18B77
330
17CBD
100
AcDbEntity
  8
寸法
 62
     0
 48
50.0
370
    -2
100
AcDbLine
 10
11676.84983051324
 20
4932.931598713264
 30
0.0
 11
11676.84983051324
 21
5591.799739024181
 31
0.0
  0
LINE
  5
18B78
330
17CBD
100
AcDbEntity
  8
寸法
 62
     0
 48
50.0
370
    -2
100
AcDbLine
 10
14446.84983051325
 20
5531.79973902418
 30
0.0
 11
11676.84983051324
 21
5531.79973902418
 31
0.0
  0
INSERT
  5
18B79
330
17CBD
100
AcDbEntity
  8
寸法
 62
     0
 48
50.0
370
    -2
100
AcDbBlockReference
  2
_DOTSMALL
 10
14446.84983051325
 20
5531.79973902418
 30
0.0
 41
100.0
 42
100.0
 43
100.0
  0
INSERT
  5
18B7A
330
17CBD
100
AcDbEntity
  8
寸法
 62
     0
 48
50.0
370
    -2
100
AcDbBlockReference
  2
_DOTSMALL
 10
11676.84983051324
 20
5531.79973902418
 30
0.0
 41
100.0
 42
100.0
 43
100.0
 50
180.0
  0
MTEXT
  5
18B7B
330
17CBD
100
AcDbEntity
  8
寸法
 62
     7
 48
50.0
100
AcDbMText
 10
13061.84983051325
 20
5631.811550047803
 30
0.0
 40
120.0
 41
0.0
 71
     5
 72
     1
  1
\A1;2770
  7
STYLE1
 73
     1
 44
1.0
1001
ACAD
1000
MTEXTBEGIN
1070
    73
1070
     1
1070
    44
1040
1.0
1070
    74
1070
     0
1000
MTEXTEND
  0
POINT
  5
18B7C
330
17CBD
100
AcDbEntity
  8
DEFPOINTS
 62
     0
 48
50.0
100
AcDbPoint
 10
14446.84983051325
 20
4857.93159871326
 30
0.0
  0
POINT
  5
18B7D
330
17CBD
100
AcDbEntity
  8
DEFPOINTS
 62
     0
 48
50.0
100
AcDbPoint
 10
11676.84983051324
 20
4912.931598713264
 30
0.0
  0
POINT
  5
18B7E
330
17CBD
100
AcDbEntity
  8
DEFPOINTS
 62
     0
 48
50.0
100
AcDbPoint
 10
11676.84983051324
 20
5531.79973902418
 30
0.0
  0
ENDBLK
  5
17CC8
330
17CBD
100
AcDbEntity
  8
0
 48
50.0
100
AcDbBlockEnd
  0
BLOCK
  5
17CD4
330
17CC9
100
AcDbEntity
  8
0
 48
50.0
100
AcDbBlockBegin
  2
*D31
 70
     1
 10
0.0
 20
0.0
 30
0.0
  3
*D31
  1

  0
LINE
  5
17E5D
330
17CC9
100
AcDbEntity
  8
寸法
 62
     0
 48
50.0
370
    -2
100
AcDbLine
 10
14366.84983051325
 20
4879.742278324912
 30
0.0
 11
14366.84983051325
 21
5371.589052292565
 31
0.0
  0
LINE
  5
17E5E
330
17CC9
100
AcDbEntity
  8
寸法
 62
     0
 48
50.0
370
    -2
100
AcDbLine
 10
14446.84983051325
 20
4877.93159871326
 30
0.0
 11
14446.84983051325
 21
5371.589052292565
 31
0.0
  0
LINE
  5
17E5F
330
17CC9
100
AcDbEntity
  8
寸法
 62
     0
 48
50.0
370
    -2
100
AcDbLine
 10
14366.84983051325
 20
5311.589052292564
 30
0.0
 11
14446.84983051325
 21
5311.589052292564
 31
0.0
  0
LINE
  5
17E60
330
17CC9
100
AcDbEntity
  8
寸法
 62
     0
 48
50.0
370
    -2
100
AcDbLine
 10
14446.84983051325
 20
5311.589052292564
 30
0.0
 11
14758.94431870222
 21
5311.589052292564
 31
0.0
  0
INSERT
  5
17E61
330
17CC9
100
AcDbEntity
  8
寸法
 62
     0
 48
50.0
370
    -2
100
AcDbBlockReference
  2
_DOTSMALL
 10
14366.84983051325
 20
5311.589052292564
 30
0.0
 41
100.0
 42
100.0
 43
100.0
 50
180.0
  0
INSERT
  5
17E62
330
17CC9
100
AcDbEntity
  8
寸法
 62
     0
 48
50.0
370
    -2
100
AcDbBlockReference
  2
_DOTSMALL
 10
14446.84983051325
 20
5311.589052292564
 30
0.0
 41
100.0
 42
100.0
 43
100.0
  0
MTEXT
  5
17E63
330
17CC9
100
AcDbEntity
  8
寸法
 62
     7
 48
50.0
100
AcDbMText
 10
14652.89707460773
 20
5411.589052292565
 30
0.0
 40
120.0
 41
0.0
 71
     5
 72
     1
  1
\A1;80
  7
STYLE1
 73
     1
 44
1.0
1001
ACAD
1000
MTEXTBEGIN
1070
    73
1070
     1
1070
    44
1040
1.0
1070
    74
1070
     0
1000
MTEXTEND
  0
POINT
  5
17E64
330
17CC9
100
AcDbEntity
  8
DEFPOINTS
 62
     0
 48
50.0
100
AcDbPoint
 10
14366.84983051325
 20
4859.742278324912
 30
0.0
  0
POINT
  5
17E65
330
17CC9
100
AcDbEntity
  8
DEFPOINTS
 62
     0
 48
50.0
100
AcDbPoint
 10
14446.84983051325
 20
4857.93159871326
 30
0.0
  0
POINT
  5
17E66
330
17CC9
100
AcDbEntity
  8
DEFPOINTS
 62
     0
 48
50.0
100
AcDbPoint
 10
14446.84983051325
 20
5311.589052292564
 30
0.0
  0
ENDBLK
  5
17CD5
330
17CC9
100
AcDbEntity
  8
0
 48
50.0
100
AcDbBlockEnd
  0
BLOCK
  5
17CE1
330
17CD6
100
AcDbEntity
  8
0
 48
50.0
100
AcDbBlockBegin
  2
*D32
 70
     1
 10
0.0
 20
0.0
 30
0.0
  3
*D32
  1

  0
LINE
  5
17E53
330
17CD6
100
AcDbEntity
  8
寸法
 62
     0
 48
50.0
370
    -2
100
AcDbLine
 10
11676.25411680435
 20
4912.229305782921
 30
0.0
 11
11060.31967769906
 21
4929.943456057251
 31
0.0
  0
LINE
  5
17E54
330
17CD6
100
AcDbEntity
  8
寸法
 62
     0
 48
50.0
370
    -2
100
AcDbLine
 10
11672.20066124772
 20
4771.287582017207
 30
0.0
 11
11056.26622214244
 21
4789.001732291537
 31
0.0
  0
LINE
  5
17E55
330
17CD6
100
AcDbEntity
  8
寸法
 62
     0
 48
50.0
370
    -2
100
AcDbLine
 10
11116.24142374487
 20
4787.27685758659
 30
0.0
 11
11120.29487930149
 21
4928.218581352304
 31
0.0
  0
LINE
  5
17E56
330
17CD6
100
AcDbEntity
  8
寸法
 62
     0
 48
50.0
370
    -2
100
AcDbLine
 10
11120.29487930149
 20
4928.218581352304
 30
0.0
 11
11130.64412753118
 21
5288.069790966889
 31
0.0
  0
INSERT
  5
17E57
330
17CD6
100
AcDbEntity
  8
寸法
 62
     0
 48
50.0
370
    -2
100
AcDbBlockReference
  2
_DOTSMALL
 10
11116.24142374487
 20
4787.27685758659
 30
0.0
 41
100.0
 42
100.0
 43
100.0
 50
268.3526390256378
  0
INSERT
  5
17E58
330
17CD6
100
AcDbEntity
  8
寸法
 62
     0
 48
50.0
370
    -2
100
AcDbBlockReference
  2
_DOTSMALL
 10
11120.29487930149
 20
4928.218581352304
 30
0.0
 41
100.0
 42
100.0
 43
100.0
 50
88.35263902563776
  0
MTEXT
  5
17E59
330
17CD6
100
AcDbEntity
  8
寸法
 62
     7
 48
50.0
100
AcDbMText
 10
11026.94822966641
 20
5160.998312003202
 30
0.0
 40
120.0
 41
0.0
 71
     5
 72
     1
  1
\A1;141
  7
STYLE1
 11
0.0287479117491237
 21
0.9995866933738488
 31
0.0
 73
     1
 44
1.0
1001
ACAD
1000
MTEXTBEGIN
1070
    73
1070
     1
1070
    44
1040
1.0
1070
    74
1070
     0
1000
MTEXTEND
  0
POINT
  5
17E5A
330
17CD6
100
AcDbEntity
  8
DEFPOINTS
 62
     0
 48
50.0
100
AcDbPoint
 10
11696.24585067182
 20
4911.654347547938
 30
0.0
  0
POINT
  5
17E5B
330
17CD6
100
AcDbEntity
  8
DEFPOINTS
 62
     0
 48
50.0
100
AcDbPoint
 10
11692.1923951152
 20
4770.712623782225
 30
0.0
  0
POINT
  5
17E5C
330
17CD6
100
AcDbEntity
  8
DEFPOINTS
 62
     0
 48
50.0
100
AcDbPoint
 10
11116.24142374487
 20
4787.27685758659
 30
0.0
  0
ENDBLK
  5
17CE2
330
17CD6
100
AcDbEntity
  8
0
 48
50.0
100
AcDbBlockEnd
  0
BLOCK
  5
17F9F
330
17F93
100
AcDbEntity
  8
0
 48
50.0
100
AcDbBlockBegin
  2
*D33
 70
     1
 10
0.0
 20
0.0
 30
0.0
  3
*D33
  1

  0
LINE
  5
18108
330
17F93
100
AcDbEntity
  8
寸法
 62
     0
 48
50.0
370
    -2
100
AcDbLine
 10
9159.673057123667
 20
4932.931598713264
 30
0.0
 11
9159.673057123667
 21
5185.473183971505
 31
0.0
  0
LINE
  5
18109
330
17F93
100
AcDbEntity
  8
寸法
 62
     0
 48
50.0
370
    -2
100
AcDbLine
 10
9109.673057123666
 20
4932.931598713266
 30
0.0
 11
9109.673057123666
 21
5185.473183971505
 31
0.0
  0
LINE
  5
1810A
330
17F93
100
AcDbEntity
  8
寸法
 62
     0
 48
50.0
370
    -2
100
AcDbLine
 10
9109.673057123666
 20
5125.473183971505
 30
0.0
 11
9009.673057123666
 21
5125.473183971505
 31
0.0
  0
LINE
  5
1810B
330
17F93
100
AcDbEntity
  8
寸法
 62
     0
 48
50.0
370
    -2
100
AcDbLine
 10
9159.673057123667
 20
5125.473183971505
 30
0.0
 11
9579.20558259239
 21
5125.473183971505
 31
0.0
  0
LINE
  5
1810C
330
17F93
100
AcDbEntity
  8
寸法
 62
     0
 48
50.0
370
    -2
100
AcDbLine
 10
9109.673057123666
 20
5125.473183971505
 30
0.0
 11
9159.673057123667
 21
5125.473183971505
 31
0.0
  0
INSERT
  5
1810D
330
17F93
100
AcDbEntity
  8
寸法
 62
     0
 48
50.0
370
    -2
100
AcDbBlockReference
  2
_DOTSMALL
 10
9109.673057123666
 20
5125.473183971505
 30
0.0
 41
100.0
 42
100.0
 43
100.0
  0
INSERT
  5
1810E
330
17F93
100
AcDbEntity
  8
寸法
 62
     0
 48
50.0
370
    -2
100
AcDbBlockReference
  2
_DOTSMALL
 10
9159.673057123667
 20
5125.473183971505
 30
0.0
 41
100.0
 42
100.0
 43
100.0
 50
180.0
  0
MTEXT
  5
1810F
330
17F93
100
AcDbEntity
  8
寸法
 62
     7
 48
50.0
100
AcDbMText
 10
9473.158338497901
 20
5225.473183971505
 30
0.0
 40
120.0
 41
0.0
 71
     5
 72
     1
  1
\A1;50
  7
STYLE1
 73
     1
 44
1.0
1001
ACAD
1000
MTEXTBEGIN
1070
    73
1070
     1
1070
    44
1040
1.0
1070
    74
1070
     0
1000
MTEXTEND
  0
POINT
  5
18110
330
17F93
100
AcDbEntity
  8
DEFPOINTS
 62
     0
 48
50.0
100
AcDbPoint
 10
9159.673057123667
 20
4912.931598713264
 30
0.0
  0
POINT
  5
18111
330
17F93
100
AcDbEntity
  8
DEFPOINTS
 62
     0
 48
50.0
100
AcDbPoint
 10
9109.673057123666
 20
4912.931598713266
 30
0.0
  0
POINT
  5
18112
330
17F93
100
AcDbEntity
  8
DEFPOINTS
 62
     0
 48
50.0
100
AcDbPoint
 10
9109.673057123666
 20
5125.473183971505
 30
0.0
  0
ENDBLK
  5
17FA0
330
17F93
100
AcDbEntity
  8
0
 48
50.0
100
AcDbBlockEnd
  0
BLOCK
  5
17FAB
330
17FA1
100
AcDbEntity
  8
0
 48
50.0
100
AcDbBlockBegin
  2
*D34
 70
     1
 10
0.0
 20
0.0
 30
0.0
  3
*D34
  1

  0
LINE
  5
18B51
330
17FA1
100
AcDbEntity
  8
寸法
 62
     0
 48
50.0
370
    -2
100
AcDbLine
 10
2959.673057123637
 20
4932.931598713267
 30
0.0
 11
2959.673057123637
 21
5406.378484445255
 31
0.0
  0
LINE
  5
18B52
330
17FA1
100
AcDbEntity
  8
寸法
 62
     0
 48
50.0
370
    -2
100
AcDbLine
 10
9159.673057123667
 20
4932.931598713264
 30
0.0
 11
9159.673057123667
 21
5406.378484445255
 31
0.0
  0
LINE
  5
18B53
330
17FA1
100
AcDbEntity
  8
寸法
 62
     0
 48
50.0
370
    -2
100
AcDbLine
 10
2959.673057123637
 20
5346.378484445256
 30
0.0
 11
9159.673057123667
 21
5346.378484445256
 31
0.0
  0
INSERT
  5
18B54
330
17FA1
100
AcDbEntity
  8
寸法
 62
     0
 48
50.0
370
    -2
100
AcDbBlockReference
  2
_DOTSMALL
 10
2959.673057123637
 20
5346.378484445256
 30
0.0
 41
100.0
 42
100.0
 43
100.0
 50
180.0
  0
INSERT
  5
18B55
330
17FA1
100
AcDbEntity
  8
寸法
 62
     0
 48
50.0
370
    -2
100
AcDbBlockReference
  2
_DOTSMALL
 10
9159.673057123667
 20
5346.378484445256
 30
0.0
 41
100.0
 42
100.0
 43
100.0
  0
MTEXT
  5
18B56
330
17FA1
100
AcDbEntity
  8
寸法
 62
     7
 48
50.0
100
AcDbMText
 10
6059.673057123651
 20
5446.390295468877
 30
0.0
 40
120.0
 41
0.0
 71
     5
 72
     1
  1
\A1;6200
  7
STYLE1
 73
     1
 44
1.0
1001
ACAD
1000
MTEXTBEGIN
1070
    73
1070
     1
1070
    44
1040
1.0
1070
    74
1070
     0
1000
MTEXTEND
  0
POINT
  5
18B57
330
17FA1
100
AcDbEntity
  8
DEFPOINTS
 62
     0
 48
50.0
100
AcDbPoint
 10
2959.673057123637
 20
4912.931598713267
 30
0.0
  0
POINT
  5
18B58
330
17FA1
100
AcDbEntity
  8
DEFPOINTS
 62
     0
 48
50.0
100
AcDbPoint
 10
9159.673057123667
 20
4912.931598713264
 30
0.0
  0
POINT
  5
18B59
330
17FA1
100
AcDbEntity
  8
DEFPOINTS
 62
     0
 48
50.0
100
AcDbPoint
 10
9159.673057123667
 20
5346.378484445256
 30
0.0
  0
ENDBLK
  5
17FAC
330
17FA1
100
AcDbEntity
  8
0
 48
50.0
100
AcDbBlockEnd
  0
BLOCK
  5
18430
330
18425
100
AcDbEntity
  8
0
 48
50.0
100
AcDbBlockBegin
  2
*D35
 70
     1
 10
0.0
 20
0.0
 30
0.0
  3
*D35
  1

  0
LINE
  5
18B9E
330
18425
100
AcDbEntity
  8
寸法
 62
     0
 48
50.0
370
    -2
100
AcDbLine
 10
9129.673057123657
 20
4512.931598713263
 30
0.0
 11
9457.216159445405
 21
4512.931598713263
 31
0.0
  0
LINE
  5
18B9F
330
18425
100
AcDbEntity
  8
寸法
 62
     0
 48
50.0
370
    -2
100
AcDbLine
 10
9129.673057123657
 20
4677.931598713261
 30
0.0
 11
9457.216159445405
 21
4677.931598713261
 31
0.0
  0
LINE
  5
18BA0
330
18425
100
AcDbEntity
  8
寸法
 62
     0
 48
50.0
370
    -2
100
AcDbLine
 10
9397.216159445404
 20
4512.931598713263
 30
0.0
 11
9397.216159445404
 21
4677.931598713261
 31
0.0
  0
LINE
  5
18BA1
330
18425
100
AcDbEntity
  8
寸法
 62
     0
 48
50.0
370
    -2
100
AcDbLine
 10
9397.216159445404
 20
4677.931598713261
 30
0.0
 11
9397.216159445404
 21
5054.90216146174
 31
0.0
  0
INSERT
  5
18BA2
330
18425
100
AcDbEntity
  8
寸法
 62
     0
 48
50.0
370
    -2
100
AcDbBlockReference
  2
_DOTSMALL
 10
9397.216159445404
 20
4512.931598713263
 30
0.0
 41
100.0
 42
100.0
 43
100.0
 50
270.0
  0
INSERT
  5
18BA3
330
18425
100
AcDbEntity
  8
寸法
 62
     0
 48
50.0
370
    -2
100
AcDbBlockReference
  2
_DOTSMALL
 10
9397.216159445404
 20
4677.931598713261
 30
0.0
 41
100.0
 42
100.0
 43
100.0
 50
90.0
  0
MTEXT
  5
18BA4
330
18425
100
AcDbEntity
  8
寸法
 62
     7
 48
50.0
100
AcDbMText
 10
9297.216159445403
 20
4916.416880087502
 30
0.0
 40
120.0
 41
0.0
 71
     5
 72
     1
  1
\A1;165
  7
STYLE1
 11
0.0000000000000001
 21
1.0
 31
0.0
 73
     1
 44
1.0
1001
ACAD
1000
MTEXTBEGIN
1070
    73
1070
     1
1070
    44
1040
1.0
1070
    74
1070
     0
1000
MTEXTEND
  0
POINT
  5
18BA5
330
18425
100
AcDbEntity
  8
DEFPOINTS
 62
     0
 48
50.0
100
AcDbPoint
 10
9109.673057123655
 20
4512.931598713263
 30
0.0
  0
POINT
  5
18BA6
330
18425
100
AcDbEntity
  8
DEFPOINTS
 62
     0
 48
50.0
100
AcDbPoint
 10
9109.673057123655
 20
4677.931598713261
 30
0.0
  0
POINT
  5
18BA7
330
18425
100
AcDbEntity
  8
DEFPOINTS
 62
     0
 48
50.0
100
AcDbPoint
 10
9397.216159445404
 20
4677.931598713261
 30
0.0
  0
ENDBLK
  5
18431
330
18425
100
AcDbEntity
  8
0
 48
50.0
100
AcDbBlockEnd
  0
BLOCK
  5
1843E
330
18432
100
AcDbEntity
  8
0
 48
50.0
100
AcDbBlockBegin
  2
*D36
 70
     1
 10
0.0
 20
0.0
 30
0.0
  3
*D36
  1

  0
LINE
  5
18B93
330
18432
100
AcDbEntity
  8
寸法
 62
     0
 48
50.0
370
    -2
100
AcDbLine
 10
9129.673057123659
 20
4485.93159871326
 30
0.0
 11
9457.216159445403
 21
4485.93159871326
 31
0.0
  0
LINE
  5
18B94
330
18432
100
AcDbEntity
  8
寸法
 62
     0
 48
50.0
370
    -2
100
AcDbLine
 10
9129.673057123657
 20
4512.931598713263
 30
0.0
 11
9457.216159445403
 21
4512.931598713263
 31
0.0
  0
LINE
  5
18B95
330
18432
100
AcDbEntity
  8
寸法
 62
     0
 48
50.0
370
    -2
100
AcDbLine
 10
9397.216159445404
 20
4485.93159871326
 30
0.0
 11
9397.216159445404
 21
4385.93159871326
 31
0.0
  0
LINE
  5
18B96
330
18432
100
AcDbEntity
  8
寸法
 62
     0
 48
50.0
370
    -2
100
AcDbLine
 10
9397.216159445404
 20
4512.931598713263
 30
0.0
 11
9397.216159445404
 21
4612.931598713263
 31
0.0
  0
MTEXT
  5
18B97
330
18432
100
AcDbEntity
  8
寸法
 62
     7
 48
50.0
100
AcDbMText
 10
9537.38598269177
 20
4513.89879855292
 30
0.0
 40
120.0
 41
0.0
 71
     5
 72
     1
  1
\A1;27
  7
STYLE1
 11
0.0000000000000001
 21
1.0
 31
0.0
 73
     1
 44
1.0
1001
ACAD
1000
MTEXTBEGIN
1070
    73
1070
     1
1070
    44
1040
1.0
1070
    74
1070
     0
1000
MTEXTEND
  0
LINE
  5
18B98
330
18432
100
AcDbEntity
  8
寸法
 62
     0
 48
50.0
370
    -2
100
AcDbLine
 10
9397.216159445404
 20
4485.93159871326
 30
0.0
 11
9397.216159445404
 21
4512.931598713263
 31
0.0
  0
INSERT
  5
18B99
330
18432
100
AcDbEntity
  8
寸法
 62
     0
 48
50.0
370
    -2
100
AcDbBlockReference
  2
_DOTSMALL
 10
9397.216159445404
 20
4485.93159871326
 30
0.0
 41
100.0
 42
100.0
 43
100.0
 50
90.0
  0
INSERT
  5
18B9A
330
18432
100
AcDbEntity
  8
寸法
 62
     0
 48
50.0
370
    -2
100
AcDbBlockReference
  2
_DOTSMALL
 10
9397.216159445404
 20
4512.931598713263
 30
0.0
 41
100.0
 42
100.0
 43
100.0
 50
270.0
  0
POINT
  5
18B9B
330
18432
100
AcDbEntity
  8
DEFPOINTS
 62
     0
 48
50.0
100
AcDbPoint
 10
9109.673057123659
 20
4485.93159871326
 30
0.0
  0
POINT
  5
18B9C
330
18432
100
AcDbEntity
  8
DEFPOINTS
 62
     0
 48
50.0
100
AcDbPoint
 10
9109.673057123655
 20
4512.931598713263
 30
0.0
  0
POINT
  5
18B9D
330
18432
100
AcDbEntity
  8
DEFPOINTS
 62
     0
 48
50.0
100
AcDbPoint
 10
9397.216159445404
 20
4512.931598713263
 30
0.0
  0
ENDBLK
  5
1843F
330
18432
100
AcDbEntity
  8
0
 48
50.0
100
AcDbBlockEnd
  0
BLOCK
  5
1844A
330
18440
100
AcDbEntity
  8
0
 48
50.0
100
AcDbBlockBegin
  2
*D37
 70
     1
 10
0.0
 20
0.0
 30
0.0
  3
*D37
  1

  0
LINE
  5
184A7
330
18440
100
AcDbEntity
  8
寸法
 62
     0
 48
50.0
370
    -2
100
AcDbLine
 10
9129.673057123657
 20
2537.931598713262
 30
0.0
 11
9457.216159445401
 21
2537.931598713261
 31
0.0
  0
LINE
  5
184A8
330
18440
100
AcDbEntity
  8
寸法
 62
     0
 48
50.0
370
    -2
100
AcDbLine
 10
9129.673057123659
 20
4485.93159871326
 30
0.0
 11
9457.216159445403
 21
4485.93159871326
 31
0.0
  0
LINE
  5
184A9
330
18440
100
AcDbEntity
  8
寸法
 62
     0
 48
50.0
370
    -2
100
AcDbLine
 10
9397.216159445401
 20
2537.931598713261
 30
0.0
 11
9397.216159445404
 21
4485.93159871326
 31
0.0
  0
INSERT
  5
184AA
330
18440
100
AcDbEntity
  8
寸法
 62
     0
 48
50.0
370
    -2
100
AcDbBlockReference
  2
_DOTSMALL
 10
9397.216159445401
 20
2537.931598713261
 30
0.0
 41
100.0
 42
100.0
 43
100.0
 50
270.0
  0
INSERT
  5
184AB
330
18440
100
AcDbEntity
  8
寸法
 62
     0
 48
50.0
370
    -2
100
AcDbBlockReference
  2
_DOTSMALL
 10
9397.216159445404
 20
4485.93159871326
 30
0.0
 41
100.0
 42
100.0
 43
100.0
 50
90.0
  0
MTEXT
  5
184AC
330
18440
100
AcDbEntity
  8
寸法
 62
     7
 48
50.0
100
AcDbMText
 10
9297.216159445401
 20
3511.931598713263
 30
0.0
 40
120.0
 41
0.0
 71
     5
 72
     1
  1
\A1;有効開口部高サ 1948
  7
STYLE1
 11
0.0000000000000001
 21
1.0
 31
0.0
 73
     1
 44
1.0
1001
ACAD
1000
MTEXTBEGIN
1070
    73
1070
     1
1070
    44
1040
1.0
1070
    74
1070
     0
1000
MTEXTEND
  0
POINT
  5
184AD
330
18440
100
AcDbEntity
  8
DEFPOINTS
 62
     0
 48
50.0
100
AcDbPoint
 10
9109.673057123655
 20
2537.931598713262
 30
0.0
  0
POINT
  5
184AE
330
18440
100
AcDbEntity
  8
DEFPOINTS
 62
     0
 48
50.0
100
AcDbPoint
 10
9109.673057123659
 20
4485.93159871326
 30
0.0
  0
POINT
  5
184AF
330
18440
100
AcDbEntity
  8
DEFPOINTS
 62
     0
 48
50.0
100
AcDbPoint
 10
9397.216159445404
 20
4485.93159871326
 30
0.0
  0
ENDBLK
  5
1844B
330
18440
100
AcDbEntity
  8
0
 48
50.0
100
AcDbBlockEnd
  0
BLOCK
  5
1894C
330
18906
100
AcDbEntity
  8
0
 48
50.0
100
AcDbBlockBegin
  2
A$C240C2CCD
 70
     0
 10
0.0
 20
0.0
 30
0.0
  3
A$C240C2CCD
  1

  0
TEXT
  5
18907
330
18906
100
AcDbEntity
  8
文字
 62
     7
 48
50.0
100
AcDbText
 10
1720.33274902439
 20
1561.92083306924
 30
0.0
 40
100.0
  1
F12    1.2(多雪地型  2.3)
  7
STYLE1
100
AcDbText
  0
LINE
  5
18908
330
18906
100
AcDbEntity
  8
仕様書枠
 48
50.0
100
AcDbLine
 10
0.0000033627184166
 20
3060.00001956282
 30
0.0
 11
0.0000033627184166
 21
0.0000195628235815
 31
0.0
  0
TEXT
  5
18909
330
18906
100
AcDbEntity
  8
文字
 62
     7
 48
50.0
100
AcDbText
 10
102.6308199282648
 20
30.41376544655213
 30
0.0
 40
100.0
  1
Z08→塗装溶融亜鉛めっき鋼板(JIS G 3313)
  7
STYLE1
100
AcDbText
  0
TEXT
  5
1890A
330
18906
100
AcDbEntity
  8
文字
 62
     7
 48
50.0
100
AcDbText
 10
102.6308199282648
 20
200.4137654465503
 30
0.0
 40
100.0
  1
Y10→溶融亜鉛-5％アルミニウム合金めっき鋼板(JIS G 3317)
 41
0.9
  7
STYLE1
100
AcDbText
  0
TEXT
  5
1890B
330
18906
100
AcDbEntity
  8
文字
 62
     7
 48
50.0
100
AcDbText
 10
102.6308199282648
 20
370.4137654465503
 30
0.0
 40
100.0
  1
F12→溶融亜鉛めっき鋼板(JIS G 3302)
  7
STYLE1
100
AcDbText
  0
LINE
  5
1890C
330
18906
100
AcDbEntity
  8
仕様書枠
 48
50.0
100
AcDbLine
 10
3180.000003362708
 20
0.0000195628217625
 30
0.0
 11
0.0000033627147786
 21
0.0000195628235815
 31
0.0
  0
LINE
  5
1890D
330
18906
100
AcDbEntity
  8
仕様書枠
 48
50.0
100
AcDbLine
 10
3180.000003362708
 20
170.0000195628217
 30
0.0
 11
0.0000033627147786
 21
170.0000195628236
 31
0.0
  0
LINE
  5
1890E
330
18906
100
AcDbEntity
  8
仕様書枠
 48
50.0
100
AcDbLine
 10
3180.000003362708
 20
340.0000195628217
 30
0.0
 11
0.0000033627147786
 21
340.0000195628236
 31
0.0
  0
TEXT
  5
1890F
330
18906
100
AcDbEntity
  8
文字
 62
     7
 48
50.0
100
AcDbText
 10
1895.439658107869
 20
710.4137654465448
 30
0.0
 40
100.0
  1
Z08            0.5
  7
STYLE1
100
AcDbText
  0
TEXT
  5
18910
330
18906
100
AcDbEntity
  8
文字
 62
     7
 48
50.0
100
AcDbText
 10
2050.543455914427
 20
880.4137654465447
 30
0.0
 40
100.0
  1
ポリエチレン
  7
STYLE1
100
AcDbText
  0
TEXT
  5
18911
330
18906
100
AcDbEntity
  8
文字
 62
     7
 48
50.0
100
AcDbText
 10
1723.631835034481
 20
1050.413765446545
 30
0.0
 40
100.0
  1
アルミニウム合金押出形材
  7
STYLE1
100
AcDbText
  0
TEXT
  5
18912
330
18906
100
AcDbEntity
  8
文字
 62
     7
 48
50.0
100
AcDbText
 10
1895.439658107876
 20
1220.413765446545
 30
0.0
 40
100.0
  1
F12            0.7
  7
STYLE1
100
AcDbText
  0
TEXT
  5
18913
330
18906
100
AcDbEntity
  8
文字
 62
     7
 48
50.0
100
AcDbText
 10
1895.439658107883
 20
1390.413765446545
 30
0.0
 40
100.0
  1
Y10            0.5
  7
STYLE1
100
AcDbText
  0
TEXT
  5
18914
330
18906
100
AcDbEntity
  8
文字
 62
     7
 48
50.0
100
AcDbText
 10
1895.43965810788
 20
1900.413765446545
 30
0.0
 40
100.0
  1
Y10            0.7
  7
STYLE1
100
AcDbText
  0
TEXT
  5
18915
330
18906
100
AcDbEntity
  8
文字
 62
     7
 48
50.0
100
AcDbText
 10
1895.439658107883
 20
2070.413765446545
 30
0.0
 40
100.0
  1
Y10            0.7
  7
STYLE1
100
AcDbText
  0
TEXT
  5
18916
330
18906
100
AcDbEntity
  8
文字
 62
     7
 48
50.0
100
AcDbText
 10
1895.43965810788
 20
2240.413765446545
 30
0.0
 40
100.0
  1
Y10            1.0
  7
STYLE1
100
AcDbText
  0
TEXT
  5
18917
330
18906
100
AcDbEntity
  8
文字
 62
     7
 48
50.0
100
AcDbText
 10
1895.439658107883
 20
2410.413765446545
 30
0.0
 40
100.0
  1
Y10            1.0
  7
STYLE1
100
AcDbText
  0
TEXT
  5
18918
330
18906
100
AcDbEntity
  8
文字
 62
     7
 48
50.0
100
AcDbText
 10
1895.439658107887
 20
2580.413765446545
 30
0.0
 40
100.0
  1
F12         1.0,1.2
  7
STYLE1
100
AcDbText
  0
TEXT
  5
18919
330
18906
100
AcDbEntity
  8
文字
 62
     7
 48
50.0
100
AcDbText
 10
1895.439658107887
 20
2750.413765446545
 30
0.0
 40
100.0
  1
F12            1.2
  7
STYLE1
100
AcDbText
  0
TEXT
  5
1891A
330
18906
100
AcDbEntity
  8
文字
 62
     7
 48
50.0
100
AcDbText
 10
121.5774770271964
 20
880.4137654465485
 30
0.0
 40
100.0
  1
12
  7
STYLE1
100
AcDbText
  0
TEXT
  5
1891B
330
18906
100
AcDbEntity
  8
文字
 62
     7
 48
50.0
100
AcDbText
 10
121.5774770271964
 20
710.4137654465485
 30
0.0
 40
100.0
  1
13
  7
STYLE1
100
AcDbText
  0
TEXT
  5
1891C
330
18906
100
AcDbEntity
  8
文字
 62
     7
 48
50.0
100
AcDbText
 10
455.9181935284068
 20
710.4137654465485
 30
0.0
 40
100.0
  1
シャッター
  7
STYLE1
100
AcDbText
  0
LINE
  5
1891D
330
18906
100
AcDbEntity
  8
仕様書枠
 48
50.0
100
AcDbLine
 10
3180.000003362708
 20
680.0000195628199
 30
0.0
 11
0.0000033627147786
 21
680.0000195628217
 31
0.0
  0
LINE
  5
1891E
330
18906
100
AcDbEntity
  8
仕様書枠
 48
50.0
100
AcDbLine
 10
3180.000003362708
 20
850.0000195628182
 30
0.0
 11
0.0000033627147786
 21
850.0000195628199
 31
0.0
  0
TEXT
  5
1891F
330
18906
100
AcDbEntity
  8
文字
 62
     7
 48
50.0
100
AcDbText
 10
455.9181935284068
 20
880.4137654465467
 30
0.0
 40
100.0
  1
シャッターレールカバー
 41
0.9
  7
STYLE1
100
AcDbText
  0
TEXT
  5
18920
330
18906
100
AcDbEntity
  8
文字
 62
     7
 48
50.0
100
AcDbText
 10
121.5774770271964
 20
1050.413765446546
 30
0.0
 40
100.0
  1
11
  7
STYLE1
100
AcDbText
  0
LINE
  5
18921
330
18906
100
AcDbEntity
  8
仕様書枠
 48
50.0
100
AcDbLine
 10
3180.000003362715
 20
1530.000019562818
 30
0.0
 11
0.0000033627147786
 21
1530.00001956282
 31
0.0
  0
LINE
  5
18922
330
18906
100
AcDbEntity
  8
仕様書枠
 48
50.0
100
AcDbLine
 10
3180.000003362715
 20
1870.000019562818
 30
0.0
 11
0.0000033627184166
 21
1870.00001956282
 31
0.0
  0
LINE
  5
18923
330
18906
100
AcDbEntity
  8
仕様書枠
 48
50.0
100
AcDbLine
 10
3180.000003362708
 20
1190.000019562818
 30
0.0
 11
0.0000033627147786
 21
1190.00001956282
 31
0.0
  0
LINE
  5
18924
330
18906
100
AcDbEntity
  8
仕様書枠
 48
50.0
100
AcDbLine
 10
3180.000003362708
 20
1020.000019562818
 30
0.0
 11
0.0000033627147786
 21
1020.00001956282
 31
0.0
  0
LINE
  5
18925
330
18906
100
AcDbEntity
  8
仕様書枠
 48
50.0
100
AcDbLine
 10
3180.000003362708
 20
1360.000019562818
 30
0.0
 11
0.0000033627147786
 21
1360.00001956282
 31
0.0
  0
TEXT
  5
18926
330
18906
100
AcDbEntity
  8
文字
 62
     7
 48
50.0
100
AcDbText
 10
143.9903258106387
 20
1900.413765446548
 30
0.0
 40
100.0
  1
6
  7
STYLE1
100
AcDbText
  0
TEXT
  5
18927
330
18906
100
AcDbEntity
  8
文字
 62
     7
 48
50.0
100
AcDbText
 10
143.9903258106351
 20
1730.413765446548
 30
0.0
 40
100.0
  1
7
  7
STYLE1
100
AcDbText
  0
TEXT
  5
18928
330
18906
100
AcDbEntity
  8
文字
 62
     7
 48
50.0
100
AcDbText
 10
143.9903258106351
 20
1390.413765446548
 30
0.0
 40
100.0
  1
9
  7
STYLE1
100
AcDbText
  0
TEXT
  5
18929
330
18906
100
AcDbEntity
  8
文字
 62
     7
 48
50.0
100
AcDbText
 10
143.9903258106351
 20
1560.413765446548
 30
0.0
 40
100.0
  1
8
  7
STYLE1
100
AcDbText
  0
TEXT
  5
1892A
330
18906
100
AcDbEntity
  8
文字
 62
     7
 48
50.0
100
AcDbText
 10
455.9181935284104
 20
1900.413765446547
 30
0.0
 40
100.0
  1
鼻隠シ前後
  7
STYLE1
100
AcDbText
  0
TEXT
  5
1892B
330
18906
100
AcDbEntity
  8
文字
 62
     7
 48
50.0
100
AcDbText
 10
455.9181935284068
 20
1560.413765446546
 30
0.0
 40
100.0
  1
母屋中
  7
STYLE1
100
AcDbText
  0
TEXT
  5
1892C
330
18906
100
AcDbEntity
  8
文字
 62
     7
 48
50.0
100
AcDbText
 10
455.9181935284068
 20
1390.413765446546
 30
0.0
 40
100.0
  1
屋根パネル
  7
STYLE1
100
AcDbText
  0
TEXT
  5
1892D
330
18906
100
AcDbEntity
  8
文字
 62
     7
 48
50.0
100
AcDbText
 10
455.9181935284068
 20
1220.413765446548
 30
0.0
 40
100.0
  1
壁パネル
  7
STYLE1
100
AcDbText
  0
TEXT
  5
1892E
330
18906
100
AcDbEntity
  8
文字
 62
     7
 48
50.0
100
AcDbText
 10
121.5774770271964
 20
1220.413765446547
 30
0.0
 40
100.0
  1
10
  7
STYLE1
100
AcDbText
  0
TEXT
  5
1892F
330
18906
100
AcDbEntity
  8
文字
 62
     7
 48
50.0
100
AcDbText
 10
455.9181935284068
 20
1050.413765446546
 30
0.0
 40
100.0
  1
シャッターレール
  7
STYLE1
100
AcDbText
  0
TEXT
  5
18930
330
18906
100
AcDbEntity
  8
文字
 62
     7
 48
50.0
100
AcDbText
 10
455.9181935284104
 20
2070.413765446547
 30
0.0
 40
100.0
  1
妻板左右
  7
STYLE1
100
AcDbText
  0
TEXT
  5
18931
330
18906
100
AcDbEntity
  8
文字
 62
     7
 48
50.0
100
AcDbText
 10
143.9903258106387
 20
2070.413765446547
 30
0.0
 40
100.0
  1
5
  7
STYLE1
100
AcDbText
  0
TEXT
  5
18932
330
18906
100
AcDbEntity
  8
文字
 62
     7
 48
50.0
100
AcDbText
 10
455.9181935284104
 20
2240.413765446549
 30
0.0
 40
100.0
  1
桁後
  7
STYLE1
100
AcDbText
  0
TEXT
  5
18933
330
18906
100
AcDbEntity
  8
文字
 62
     7
 48
50.0
100
AcDbText
 10
455.9181935284104
 20
2410.413765446547
 30
0.0
 40
100.0
  1
桁前
  7
STYLE1
100
AcDbText
  0
TEXT
  5
18934
330
18906
100
AcDbEntity
  8
文字
 62
     7
 48
50.0
100
AcDbText
 10
455.9181935284104
 20
2580.413765446547
 30
0.0
 40
100.0
  1
柱
  7
STYLE1
100
AcDbText
  0
TEXT
  5
18935
330
18906
100
AcDbEntity
  8
文字
 62
     7
 48
50.0
100
AcDbText
 10
455.9181935284104
 20
2750.413765446547
 30
0.0
 40
100.0
  1
土台枠
  7
STYLE1
100
AcDbText
  0
TEXT
  5
18936
330
18906
100
AcDbEntity
  8
文字
 62
     7
 48
50.0
100
AcDbText
 10
1732.597749507538
 20
2920.413765446547
 30
0.0
 40
100.0
  1
材料（材質）　　単位mm
  7
STYLE1
100
AcDbText
  0
TEXT
  5
18937
330
18906
100
AcDbEntity
  8
文字
 62
     7
 48
50.0
100
AcDbText
 10
604.8384127570643
 20
2920.413765446547
 30
0.0
 40
100.0
  1
部　　品　　名
  7
STYLE1
100
AcDbText
  0
TEXT
  5
18938
330
18906
100
AcDbEntity
  8
文字
 62
     7
 48
50.0
100
AcDbText
 10
143.9903258106387
 20
2410.413765446549
 30
0.0
 40
100.0
  1
3
  7
STYLE1
100
AcDbText
  0
TEXT
  5
18939
330
18906
100
AcDbEntity
  8
文字
 62
     7
 48
50.0
100
AcDbText
 10
143.9903258106387
 20
2240.413765446549
 30
0.0
 40
100.0
  1
4
  7
STYLE1
100
AcDbText
  0
TEXT
  5
1893A
330
18906
100
AcDbEntity
  8
文字
 62
     7
 48
50.0
100
AcDbText
 10
143.9903258106387
 20
2580.413765446549
 30
0.0
 40
100.0
  1
2
  7
STYLE1
100
AcDbText
  0
TEXT
  5
1893B
330
18906
100
AcDbEntity
  8
文字
 62
     7
 48
50.0
100
AcDbText
 10
143.9903258106387
 20
2750.413765446549
 30
0.0
 40
100.0
  1
1
  7
STYLE1
100
AcDbText
  0
TEXT
  5
1893C
330
18906
100
AcDbEntity
  8
文字
 62
     7
 48
50.0
100
AcDbText
 10
70.22518896678594
 20
2920.413765446547
 30
0.0
 40
100.0
  1
品番
  7
STYLE1
100
AcDbText
  0
LINE
  5
1893D
330
18906
100
AcDbEntity
  8
仕様書枠
 48
50.0
100
AcDbLine
 10
3180.000003362711
 20
2380.000019562818
 30
0.0
 11
0.0000033627147786
 21
2380.00001956282
 31
0.0
  0
LINE
  5
1893E
330
18906
100
AcDbEntity
  8
仕様書枠
 48
50.0
100
AcDbLine
 10
3180.000003362711
 20
2040.000019562818
 30
0.0
 11
0.0000033627147786
 21
2040.00001956282
 31
0.0
  0
LINE
  5
1893F
330
18906
100
AcDbEntity
  8
仕様書枠
 48
50.0
100
AcDbLine
 10
3180.000003362711
 20
2210.000019562818
 30
0.0
 11
0.0000033627147786
 21
2210.00001956282
 31
0.0
  0
LINE
  5
18940
330
18906
100
AcDbEntity
  8
仕様書枠
 48
50.0
100
AcDbLine
 10
3180.000003362715
 20
2720.000019562818
 30
0.0
 11
0.0000033627184166
 21
2720.00001956282
 31
0.0
  0
LINE
  5
18941
330
18906
100
AcDbEntity
  8
仕様書枠
 48
50.0
100
AcDbLine
 10
3180.000003362715
 20
2550.000019562818
 30
0.0
 11
0.0000033627184166
 21
2550.00001956282
 31
0.0
  0
LINE
  5
18942
330
18906
100
AcDbEntity
  8
仕様書枠
 48
50.0
100
AcDbLine
 10
3180.000003362715
 20
2890.000019562818
 30
0.0
 11
0.0000033627184166
 21
2890.00001956282
 31
0.0
  0
LINE
  5
18943
330
18906
100
AcDbEntity
  8
仕様書枠
 48
50.0
100
AcDbLine
 10
363.0000033627184
 20
3060.000019562818
 30
0.0
 11
363.0000033627293
 21
680.0000195628217
 31
0.0
  0
LINE
  5
18944
330
18906
100
AcDbEntity
  8
仕様書枠
 48
50.0
100
AcDbLine
 10
1658.000003362718
 20
3060.000019562816
 30
0.0
 11
1658.000003362715
 21
680.0000195628217
 31
0.0
  0
LINE
  5
18945
330
18906
100
AcDbEntity
  8
仕様書枠
 48
50.0
100
AcDbLine
 10
3180.000003362715
 20
0.0000195628235815
 30
0.0
 11
3180.000003362719
 21
3060.00001956282
 31
0.0
  0
LINE
  5
18946
330
18906
100
AcDbEntity
  8
仕様書枠
 48
50.0
100
AcDbLine
 10
3180.000003362715
 20
3060.000019562818
 30
0.0
 11
0.0000033627184166
 21
3060.00001956282
 31
0.0
  0
LINE
  5
18947
330
18906
100
AcDbEntity
  8
仕様書枠
 48
50.0
100
AcDbLine
 10
3180.000003362715
 20
1700.000019562818
 30
0.0
 11
0.0000033627147786
 21
1700.00001956282
 31
0.0
  0
TEXT
  5
18948
330
18906
100
AcDbEntity
  8
文字
 62
     7
 48
50.0
100
AcDbText
 10
455.9181935284104
 20
1730.413765446548
 30
0.0
 40
100.0
  1
梁中
  7
STYLE1
100
AcDbText
  0
TEXT
  5
18949
330
18906
100
AcDbEntity
  8
文字
 62
     7
 48
50.0
100
AcDbText
 10
1895.43965810788
 20
1730.413765446547
 30
0.0
 40
100.0
  1
F12,Y10        1.0
  7
STYLE1
100
AcDbText
  0
LINE
  5
1894A
330
18906
100
AcDbEntity
  8
仕様書枠
 48
50.0
100
AcDbLine
 10
3180.000003362708
 20
510.0000195628218
 30
0.0
 11
0.0000033627147786
 21
510.0000195628235
 31
0.0
  0
TEXT
  5
1894B
330
18906
100
AcDbEntity
  8
文字
 62
     7
 48
50.0
100
AcDbText
 10
102.6308199282648
 20
540.4137654465503
 30
0.0
 40
100.0
  1
※多雪地型は、梁中補強パネルが必要です。
  7
STYLE1
100
AcDbText
  0
ENDBLK
  5
1894D
330
18906
100
AcDbEntity
  8
0
 48
50.0
100
AcDbBlockEnd
  0
BLOCK
  5
1896F
330
18956
100
AcDbEntity
  8
0
 48
50.0
100
AcDbBlockBegin
  2
A$C4C482C67
 70
     0
 10
0.0
 20
0.0
 30
0.0
  3
A$C4C482C67
  1

  0
LINE
  5
18957
330
18956
100
AcDbEntity
  8
部品1
100
AcDbLine
 10
25.00001002365116
 20
-0.0000089817131084
 30
0.0
 11
25.00001002364752
 21
661.499991018316
 31
0.0
  0
LINE
  5
18958
330
18956
100
AcDbEntity
  8
部品1
 48
10.0
100
AcDbLine
 10
0.0000100236438811
 20
-0.0000089817131084
 30
0.0
 11
0.0000100236402432
 21
661.499991018316
 31
0.0
  0
LINE
  5
18959
330
18956
100
AcDbEntity
  8
部品1
100
AcDbLine
 10
52.0000100236366
 20
688.4999910184106
 30
0.0
 11
52.00001002363297
 21
-0.0000089817131084
 31
0.0
  0
LINE
  5
1895A
330
18956
100
AcDbEntity
  8
部品1
 48
50.0
100
AcDbLine
 10
55.00001002362205
 20
661.4999874412733
 30
0.0
 11
55.00001002362205
 21
0.9999874412733333
 31
0.0
  0
LINE
  5
1895B
330
18956
100
AcDbEntity
  8
部品1
100
AcDbLine
 10
105.000010023622
 20
278.1759708781283
 30
0.0
 11
55.00001002362023
 21
272.9999874412733
 31
0.0
  0
LINE
  5
1895C
330
18956
100
AcDbEntity
  8
部品1
100
AcDbLine
 10
105.000010023622
 20
237.8240040044202
 30
0.0
 11
55.00001002362023
 21
242.9999874412733
 31
0.0
  0
LINE
  5
1895D
330
18956
100
AcDbEntity
  8
部品1
100
AcDbLine
 10
55.00001002362205
 20
82.99998744127334
 30
0.0
 11
105.0000100236202
 21
95.71185184805107
 31
0.0
  0
LINE
  5
1895E
330
18956
100
AcDbEntity
  8
部品1
 48
50.0
100
AcDbLine
 10
55.00001002362205
 20
0.9999874412733333
 30
0.0
 11
105.000010023622
 21
0.9999874412733333
 31
0.0
  0
LINE
  5
1895F
330
18956
100
AcDbEntity
  8
部品1
 48
50.0
100
AcDbLine
 10
0.0000100236438811
 20
-0.0000089817131084
 30
0.0
 11
160.0000100236329
 21
-0.0000089817058324
 31
0.0
  0
LINE
  5
18960
330
18956
100
AcDbEntity
  8
部品1
 48
50.0
100
AcDbLine
 10
105.000010023622
 20
0.9999874412733333
 30
0.0
 11
105.000010023622
 21
661.4999874412733
 31
0.0
  0
LINE
  5
18961
330
18956
100
AcDbEntity
  8
部品1
100
AcDbLine
 10
108.0000100236329
 20
-0.0000089817131084
 30
0.0
 11
108.0000100236402
 21
716.4999910183596
 31
0.0
  0
LINE
  5
18962
330
18956
100
AcDbEntity
  8
部品1
100
AcDbLine
 10
135.0000100236548
 20
-0.0000089817131084
 30
0.0
 11
135.0000100236475
 21
661.4999910183087
 31
0.0
  0
LINE
  5
18963
330
18956
100
AcDbEntity
  8
部品1
 48
10.0
100
AcDbLine
 10
160.0000100236329
 20
-0.0000089817058324
 30
0.0
 11
160.000010023622
 21
661.4999910183305
 31
0.0
  0
LINE
  5
18964
330
18956
100
AcDbEntity
  8
部品1
100
AcDbLine
 10
25.00001002385852
 20
716.4999910185433
 30
0.0
 11
25.00001002385852
 21
688.4999910185434
 31
0.0
  0
LINE
  5
18965
330
18956
100
AcDbEntity
  8
部品1
 48
50.0
100
AcDbLine
 10
135.0000077800041
 20
716.4999874412733
 30
0.0
 11
25.00001002385852
 21
716.4999910185433
 31
0.0
  0
LINE
  5
18966
330
18956
100
AcDbEntity
  8
部品1
100
AcDbLine
 10
135.0000100238549
 20
716.4999910184487
 30
0.0
 11
135.0000100238549
 21
688.4999910184488
 31
0.0
  0
LINE
  5
18967
330
18956
100
AcDbEntity
  8
部品1
 48
50.0
100
AcDbLine
 10
108.0000100238257
 20
661.4999910184651
 30
0.0
 11
108.0000100238912
 21
716.4999910184961
 31
0.0
  0
LINE
  5
18968
330
18956
100
AcDbEntity
  8
部品1
 48
50.0
100
AcDbLine
 10
80.00001002382214
 20
688.4999910184906
 30
0.0
 11
52.00001002382578
 21
716.4999910185452
 31
0.0
  0
LINE
  5
18969
330
18956
100
AcDbEntity
  8
部品1
 48
50.0
100
AcDbLine
 10
52.00001002382578
 20
688.4999910184906
 30
0.0
 11
80.00001002382214
 21
688.4999910184924
 31
0.0
  0
LINE
  5
1896A
330
18956
100
AcDbEntity
  8
部品1
 48
50.0
100
AcDbLine
 10
52.00001002382578
 20
688.499991018596
 30
0.0
 11
52.00001002382214
 21
716.4999910185452
 31
0.0
  0
LINE
  5
1896B
330
18956
100
AcDbEntity
  8
部品1
 48
50.0
100
AcDbLine
 10
25.00001002364752
 20
661.499991018316
 30
0.0
 11
52.00001002382578
 21
688.4999910184906
 31
0.0
  0
LINE
  5
1896C
330
18956
100
AcDbEntity
  8
部品1
 48
50.0
100
AcDbLine
 10
52.00001002382578
 20
661.4999910184651
 30
0.0
 11
52.00001002382578
 21
688.4999910184906
 31
0.0
  0
LINE
  5
1896D
330
18956
100
AcDbEntity
  8
部品1
 48
50.0
100
AcDbLine
 10
108.0000100238257
 20
661.4999910185233
 30
0.0
 11
52.00001002382396
 21
661.4999910185215
 31
0.0
  0
LINE
  5
1896E
330
18956
100
AcDbEntity
  8
部品1
 48
50.0
100
AcDbLine
 10
135.0000100236475
 20
661.499991018396
 30
0.0
 11
108.0000100236402
 21
688.4999910184033
 31
0.0
  0
ENDBLK
  5
18970
330
18956
100
AcDbEntity
  8
0
 48
50.0
100
AcDbBlockEnd
  0
BLOCK
  5
18A89
330
18A7F
100
AcDbEntity
  8
0
 48
50.0
100
AcDbBlockBegin
  2
*D40
 70
     1
 10
0.0
 20
0.0
 30
0.0
  3
*D40
  1

  0
LINE
  5
18A8B
330
18A7F
100
AcDbEntity
  8
寸法
 62
     0
 48
50.0
370
    -2
100
AcDbLine
 10
6159.673059367294
 20
9406.954500387243
 30
0.0
 11
6456.514419628122
 21
9406.954500387243
 31
0.0
  0
LINE
  5
18A8C
330
18A7F
100
AcDbEntity
  8
寸法
 62
     0
 48
50.0
370
    -2
100
AcDbLine
 10
6134.67305936752
 20
10123.4545003874
 30
0.0
 11
6456.514419628122
 21
10123.4545003874
 31
0.0
  0
LINE
  5
18A8D
330
18A7F
100
AcDbEntity
  8
寸法
 62
     0
 48
50.0
370
    -2
100
AcDbLine
 10
6396.514419628122
 20
9406.954500387243
 30
0.0
 11
6396.514419628122
 21
10123.4545003874
 31
0.0
  0
INSERT
  5
18A8E
330
18A7F
100
AcDbEntity
  8
寸法
 62
     0
 48
50.0
370
    -2
100
AcDbBlockReference
  2
_DOTSMALL
 10
6396.514419628122
 20
9406.954500387243
 30
0.0
 41
100.0
 42
100.0
 43
100.0
 50
270.0
  0
INSERT
  5
18A8F
330
18A7F
100
AcDbEntity
  8
寸法
 62
     0
 48
50.0
370
    -2
100
AcDbBlockReference
  2
_DOTSMALL
 10
6396.514419628122
 20
10123.4545003874
 30
0.0
 41
100.0
 42
100.0
 43
100.0
 50
90.0
  0
MTEXT
  5
18A90
330
18A7F
100
AcDbEntity
  8
寸法
 62
     7
 48
50.0
100
AcDbMText
 10
6296.51441962812
 20
9765.204500387321
 30
0.0
 40
120.0
 41
0.0
 71
     5
 72
     1
  1
\A1;716.5
  7
STYLE1
 11
0.0000000000000001
 21
1.0
 31
0.0
 73
     1
 44
1.0
1001
ACAD
1000
MTEXTBEGIN
1070
    73
1070
     1
1070
    44
1040
1.0
1070
    74
1070
     0
1000
MTEXTEND
  0
POINT
  5
18A91
330
18A7F
100
AcDbEntity
  8
DEFPOINTS
 62
     0
 48
50.0
100
AcDbPoint
 10
6139.673059367295
 20
9406.954500387243
 30
0.0
  0
POINT
  5
18A92
330
18A7F
100
AcDbEntity
  8
DEFPOINTS
 62
     0
 48
50.0
100
AcDbPoint
 10
6114.67305936752
 20
10123.4545003874
 30
0.0
  0
POINT
  5
18A93
330
18A7F
100
AcDbEntity
  8
DEFPOINTS
 62
     0
 48
50.0
100
AcDbPoint
 10
6396.514419628122
 20
10123.4545003874
 30
0.0
  0
ENDBLK
  5
18A8A
330
18A7F
100
AcDbEntity
  8
0
 48
50.0
100
AcDbBlockEnd
  0
ENDSEC
  0
SECTION
  2
ENTITIES
  0
MTEXT
  5
763F
330
747D
100
AcDbEntity
  8
0
100
AcDbMText
 10
302.846345836809
 20
280.1983726409901
 30
0.0
 40
3.5
 41
5.323721266742722
 71
     1
 72
     5
  1

  7
MSMINCHO
 73
     1
 44
1.0
1001
ACAD
1000
MTEXTBEGIN
1070
    73
1070
     1
1070
    44
1040
1.0
1070
    74
1070
     0
1000
MTEXTEND
  0
LINE
  5
10B57
330
747D
100
AcDbEntity
  8
補助
  6
PHANTOM
 62
   230
 48
50.0
100
AcDbLine
 10
139.9999999999995
 20
11409.6
 30
0.0
 11
16307.2
 21
11409.6
 31
0.0
  0
LINE
  5
10B59
330
747D
100
AcDbEntity
  8
仕様書枠
  6
Continuous
 48
50.0
100
AcDbLine
 10
13107.2
 20
1200.0
 30
0.0
 11
13107.2
 21
-0.0000000000000729
 31
0.0
  0
LINE
  5
10B5C
330
747D
100
AcDbEntity
  8
仕様書枠
 48
50.0
100
AcDbLine
 10
16307.2
 20
1200.0
 30
0.0
 11
16307.2
 21
-0.0000000000000909
 31
0.0
  0
LINE
  5
10B5D
330
747D
100
AcDbEntity
  8
仕様書枠
 48
50.0
100
AcDbLine
 10
140.0
 20
0.0
 30
0.0
 11
16307.2
 21
-0.0000000000000909
 31
0.0
  0
LINE
  5
10B5E
330
747D
100
AcDbEntity
  8
補助
  6
PHANTOM
 62
   230
 48
50.0
100
AcDbLine
 10
16307.2
 20
11409.6
 30
0.0
 11
16307.2
 21
1200.0
 31
0.0
  0
LINE
  5
10B6C
330
747D
100
AcDbEntity
  8
仕様書枠
 48
50.0
100
AcDbLine
 10
13107.2
 20
1200.0
 30
0.0
 11
16307.2
 21
1200.0
 31
0.0
  0
LINE
  5
10B6D
330
747D
100
AcDbEntity
  8
補助
  6
PHANTOM
 62
   230
 48
50.0
100
AcDbLine
 10
13107.2
 20
11409.6
 30
0.0
 11
13107.2
 21
4800.0
 31
0.0
  0
LINE
  5
10B6F
330
747D
100
AcDbEntity
  8
補助
  6
PHANTOM
 62
   230
 48
50.0
100
AcDbLine
 10
13107.2
 20
4800.0
 30
0.0
 11
16307.2
 21
4800.0
 31
0.0
  0
LINE
  5
10B72
330
747D
100
AcDbEntity
  8
文字
 62
     7
 48
50.0
100
AcDbLine
 10
13187.2
 20
400.0
 30
0.0
 11
16227.2
 21
400.0
 31
0.0
  0
TEXT
  5
10B73
330
747D
100
AcDbEntity
  8
文字
 62
     7
 48
50.0
100
AcDbText
 10
13162.9790565769
 20
895.0906074299405
 30
0.0
 40
200.0
  1
外 形 図
  7
STYLE2
100
AcDbText
  0
TEXT
  5
10B74
330
747D
100
AcDbEntity
  8
文字
 62
     7
 48
50.0
100
AcDbText
 10
13201.43669998441
 20
477.2740661031255
 30
0.0
 40
160.0
  1
機種名
  7
STYLE2
100
AcDbText
  0
TEXT
  5
10B75
330
747D
100
AcDbEntity
  8
文字
 62
     7
 48
50.0
100
AcDbText
 10
13209.4053442172
 20
228.5435242569016
 30
0.0
 40
100.0
  1
○有効開口寸法 ： 2844×1948(mm)
  7
STYLE2
100
AcDbText
  0
TEXT
  5
10B76
330
747D
100
AcDbEntity
  8
文字
 62
     7
 48
50.0
100
AcDbText
 10
13209.4053442172
 20
76.09434707649343
 30
0.0
 40
100.0
  1
○床面積 ： 16.04㎡(4.86坪) 　
  7
STYLE2
100
AcDbText
  0
TEXT
  5
10B79
330
747D
100
AcDbEntity
  8
文字
 62
     7
 48
50.0
100
AcDbText
 10
14524.131837222
 20
1031.557706291228
 30
0.0
 40
100.0
  1
NO.25      <縮尺> S=1/40
  7
STYLE2
100
AcDbText
  0
LINE
  5
10B7B
330
747D
100
AcDbEntity
  8
仕様書枠
 48
50.0
100
AcDbLine
 10
13107.2
 20
800.0
 30
0.0
 11
14251.2
 21
800.0
 31
0.0
  0
LINE
  5
10B88
330
747D
100
AcDbEntity
  8
仕様書枠
  6
Continuous
 48
50.0
100
AcDbLine
 10
14251.2
 20
1200.0
 30
0.0
 11
14251.2
 21
800.0
 31
0.0
  0
TEXT
  5
10BB0
330
747D
100
AcDbEntity
  8
文字
 62
     7
 48
50.0
100
AcDbText
 10
14302.57975890745
 20
483.8967129911414
 30
0.0
 40
160.0
  1
FXN-81HDL-2
  7
STYLE2
100
AcDbText
  0
LINE
  5
12765
330
747D
100
AcDbEntity
  8
Ｇ．Ｌ
100
AcDbLine
 10
1921.406454453174
 20
2437.931598713261
 30
0.0
 11
14945.79354554683
 21
2437.931598713261
 31
0.0
  0
DIMENSION
  5
162CD
330
747D
100
AcDbEntity
  8
寸法
100
AcDbDimension
  2
*D1
 10
9757.09940285807
 20
7548.454496810212
 30
0.0
 11
9657.087591834446
 21
8808.454496810222
 31
0.0
 70
    32
  1
6X420=<>
 71
     5
 42
2520.000000000015
  3
INABA_S40G
100
AcDbAlignedDimension
 13
9109.673057123664
 23
10068.45449681023
 33
0.0
 14
9109.673057123639
 24
7548.454496810212
 34
0.0
 50
90.0
100
AcDbRotatedDimension
1001
ACAD
1000
DSTYLE
1002
{
1002
}
  0
DIMENSION
  5
162CE
330
747D
100
AcDbEntity
  8
寸法
100
AcDbDimension
  2
*D2
 10
9757.099402858051
 20
7493.454496810215
 30
0.0
 11
9757.099402858049
 21
7115.593029905355
 31
0.0
 70
   160
 71
     5
 42
54.99999999999636
  3
INABA_S40G
100
AcDbAlignedDimension
 13
9109.673057123639
 23
7548.454496810212
 33
0.0
 14
9109.673057123639
 24
7493.454496810215
 34
0.0
 50
90.0
100
AcDbRotatedDimension
1001
ACAD
1000
DSTYLE
1002
{
1002
}
  0
DIMENSION
  5
162CF
330
747D
100
AcDbEntity
  8
寸法
100
AcDbDimension
  2
*D3
 10
9757.099402858075
 20
10068.45449681023
 30
0.0
 11
9757.099402858074
 21
10431.93977818446
 31
0.0
 70
   160
 71
     5
 42
54.99999999999636
  3
INABA_S40G
100
AcDbAlignedDimension
 13
9109.673057123664
 23
10123.45449681022
 33
0.0
 14
9109.673057123664
 24
10068.45449681023
 34
0.0
 50
90.0
100
AcDbRotatedDimension
1001
ACAD
1000
DSTYLE
1002
{
1002
}
  0
DIMENSION
  5
162D0
330
747D
100
AcDbEntity
  8
寸法
100
AcDbDimension
  2
*D4
 10
10122.20634459771
 20
7493.454496810215
 30
0.0
 11
10022.19453357408
 21
8808.454496810222
 31
0.0
 70
    32
 71
     5
 42
2630.000000000007
  3
INABA_S40G
100
AcDbAlignedDimension
 13
9109.673057123664
 23
10123.45449681022
 33
0.0
 14
9109.673057123639
 24
7493.454496810215
 34
0.0
 50
90.0
100
AcDbRotatedDimension
1001
ACAD
1000
DSTYLE
1002
{
1002
}
  0
LINE
  5
162DC
330
747D
100
AcDbEntity
  8
部品1
100
AcDbLine
 10
9081.673057123648
 20
10095.45449681022
 30
0.0
 11
9081.673057123641
 21
7548.454496810212
 31
0.0
  0
LINE
  5
162DD
330
747D
100
AcDbEntity
  8
部品1
100
AcDbLine
 10
3037.673057123639
 20
7548.454496810082
 30
0.0
 11
3037.67305712365
 21
10095.45449681013
 31
0.0
  0
LINE
  5
162DE
330
747D
100
AcDbEntity
  8
部品1
100
AcDbLine
 10
9109.673057123664
 20
10123.45449681022
 30
0.0
 11
9109.673057123639
 21
7493.454496810215
 31
0.0
  0
LINE
  5
162DF
330
747D
100
AcDbEntity
  8
部品1
100
AcDbLine
 10
3009.67305712363
 20
10123.45449681009
 30
0.0
 11
3009.673057123657
 21
7493.454496810085
 31
0.0
  0
DIMENSION
  5
162E4
330
747D
100
AcDbEntity
  8
寸法
 48
50.0
100
AcDbDimension
  2
*D5
 10
6162.673057123657
 20
6959.023726043961
 30
0.0
 11
7584.673057123648
 21
7059.035537067583
 31
0.0
 70
    32
  1
有効開口部間口 <>
 71
     5
 42
2843.999999999982
  3
INABA_S40G
100
AcDbAlignedDimension
 13
9006.67305712364
 23
7519.454496810126
 33
0.0
 14
6162.673057123657
 24
7519.454496810124
 34
0.0
100
AcDbRotatedDimension
1001
ACAD
1000
DSTYLE
1002
{
1070
    75
1070
     1
1070
   279
1070
     2
1002
}
  0
LINE
  5
162E6
330
747D
100
AcDbEntity
  8
部品1
 48
50.0
100
AcDbLine
 10
6126.673057123656
 20
7538.954496810124
 30
0.0
 11
9042.673057123641
 21
7538.954496810124
 31
0.0
  0
DIMENSION
  5
162E7
330
747D
100
AcDbEntity
  8
寸法
100
AcDbDimension
  2
*D6
 10
9109.673057123627
 20
6512.850730453087
 30
0.0
 11
6059.673057123642
 21
6612.850730453087
 31
0.0
 70
    32
 71
     5
 42
6099.999999999971
  3
INABA_S40G
100
AcDbAlignedDimension
 13
3009.673057123657
 23
7493.454496810122
 33
0.0
 14
9109.673057123627
 24
7493.454496810215
 34
0.0
100
AcDbRotatedDimension
1001
ACAD
1000
DSTYLE
1002
{
1002
}
  0
LINE
  5
162E8
330
747D
100
AcDbEntity
  8
部品1
100
AcDbLine
 10
3064.673057123637
 20
10068.45449681014
 30
0.0
 11
3064.673057123655
 21
7558.454496810124
 31
0.0
  0
LINE
  5
162E9
330
747D
100
AcDbEntity
  8
部品1
100
AcDbLine
 10
3089.673057123637
 20
10068.45449681014
 30
0.0
 11
3089.673057123655
 21
7558.454496810124
 31
0.0
  0
DIMENSION
  5
162EA
330
747D
100
AcDbEntity
  8
寸法
 48
50.0
100
AcDbDimension
  2
*D7
 10
3009.673057123657
 20
6959.023726043961
 30
0.0
 11
2701.187775749418
 21
6959.023726043961
 31
0.0
 70
   160
 71
     5
 42
54.99999999999636
  3
INABA_S40G
100
AcDbAlignedDimension
 13
3064.673057123653
 23
7493.454496810125
 33
0.0
 14
3009.673057123657
 24
7493.454496810122
 34
0.0
100
AcDbRotatedDimension
1001
ACAD
1000
DSTYLE
1002
{
1002
}
  0
DIMENSION
  5
162EB
330
747D
100
AcDbEntity
  8
寸法
 48
50.0
100
AcDbDimension
  2
*D8
 10
6114.673057123653
 20
6959.023726043961
 30
0.0
 11
6275.575028123714
 21
7059.02372604396
 31
0.0
 70
   160
 71
     5
 42
48.00000000000363
  3
INABA_S40G
100
AcDbAlignedDimension
 13
6162.673057123657
 23
7519.454496810124
 33
0.0
 14
6114.673057123653
 24
7493.454496810125
 34
0.0
100
AcDbRotatedDimension
1001
ACAD
1000
DSTYLE
1002
{
1070
   279
1070
     2
1002
}
  0
LINE
  5
162EC
330
747D
100
AcDbEntity
  8
部品1
100
AcDbLine
 10
3064.673057123652
 20
7493.454496810125
 30
0.0
 11
3009.673057123657
 21
7493.454496810122
 31
0.0
  0
LINE
  5
162ED
330
747D
100
AcDbEntity
  8
部品1
 48
50.0
100
AcDbLine
 10
3064.673057123657
 20
7529.454496810124
 30
0.0
 11
3041.673057123657
 21
7529.454496810124
 31
0.0
  0
LINE
  5
162EE
330
747D
100
AcDbEntity
  8
部品1
 48
50.0
100
AcDbLine
 10
3074.673057123657
 20
7519.454496810124
 30
0.0
 11
3064.673057123657
 21
7498.454496810125
 31
0.0
  0
LINE
  5
162EF
330
747D
100
AcDbEntity
  8
部品1
 48
50.0
100
AcDbLine
 10
3064.673057123657
 20
7558.454496810124
 30
0.0
 11
3064.673057123653
 21
7493.454496810125
 31
0.0
  0
LINE
  5
162F0
330
747D
100
AcDbEntity
  8
部品1
 48
50.0
100
AcDbLine
 10
3112.673057123657
 20
7519.454496810126
 30
0.0
 11
3112.673057123657
 21
7528.454496810126
 31
0.0
  0
LINE
  5
162F1
330
747D
100
AcDbEntity
  8
部品1
 48
50.0
100
AcDbLine
 10
3112.673057123657
 20
7558.454496810125
 30
0.0
 11
3112.673057123657
 21
7549.454496810125
 31
0.0
  0
LINE
  5
162F2
330
747D
100
AcDbEntity
  8
部品1
100
AcDbLine
 10
3112.673057123657
 20
7558.454496810125
 30
0.0
 11
3064.673057123657
 21
7558.454496810124
 31
0.0
  0
LINE
  5
162F3
330
747D
100
AcDbEntity
  8
部品1
100
AcDbLine
 10
3112.673057123657
 20
7519.454496810126
 30
0.0
 11
3064.673057123657
 21
7519.454496810124
 31
0.0
  0
LINE
  5
162F4
330
747D
100
AcDbEntity
  8
部品1
100
AcDbLine
 10
3064.673057123655
 20
7529.454496810124
 30
0.0
 11
3041.673057123657
 21
7529.454496810124
 31
0.0
  0
LINE
  5
162F5
330
747D
100
AcDbEntity
  8
部品1
100
AcDbLine
 10
3064.673057123655
 20
7548.454496810049
 30
0.0
 11
3009.673057123655
 21
7548.454496810049
 31
0.0
  0
LINE
  5
162F6
330
747D
100
AcDbEntity
  8
部品1
100
AcDbLine
 10
3037.673057123639
 20
7548.454496810085
 30
0.0
 11
3009.673057123655
 21
7548.454496810085
 31
0.0
  0
LINE
  5
162F7
330
747D
100
AcDbEntity
  8
部品1
100
AcDbLine
 10
3037.673057123655
 20
7548.454496810101
 30
0.0
 11
3009.673057123655
 21
7548.454496810101
 31
0.0
  0
LINE
  5
162FB
330
747D
100
AcDbEntity
  8
部品1
100
AcDbLine
 10
3037.673057123644
 20
8808.454496810099
 30
0.0
 11
3009.673057123644
 21
8808.454496810099
 31
0.0
  0
LINE
  5
162FC
330
747D
100
AcDbEntity
  8
部品1
100
AcDbLine
 10
3037.673057123644
 20
9228.454496810099
 30
0.0
 11
3009.673057123644
 21
9228.454496810099
 31
0.0
  0
LINE
  5
162FE
330
747D
100
AcDbEntity
  8
部品1
100
AcDbLine
 10
3037.673057123637
 20
9648.454496810101
 30
0.0
 11
3009.673057123637
 21
9648.454496810101
 31
0.0
  0
LINE
  5
162FF
330
747D
100
AcDbEntity
  8
部品1
100
AcDbLine
 10
9054.673057123657
 20
10068.45449681014
 30
0.0
 11
9054.673057123642
 21
7493.454496810213
 31
0.0
  0
LINE
  5
16300
330
747D
100
AcDbEntity
  8
部品1
100
AcDbLine
 10
9029.673057123661
 20
10068.45449681013
 30
0.0
 11
9029.673057123641
 21
7558.454496810124
 31
0.0
  0
DIMENSION
  5
16301
330
747D
100
AcDbEntity
  8
寸法
 48
50.0
100
AcDbDimension
  2
*D9
 10
9006.67305712364
 20
6959.023726043961
 30
0.0
 11
8895.710159474891
 21
7059.02372604396
 31
0.0
 70
   160
 71
     5
 42
48.00000000000181
  3
INABA_S40G
100
AcDbAlignedDimension
 13
9054.673057123642
 23
7493.454496810213
 33
0.0
 14
9006.67305712364
 24
7519.454496810126
 34
0.0
100
AcDbRotatedDimension
1001
ACAD
1000
DSTYLE
1002
{
1070
   279
1070
     2
1002
}
  0
DIMENSION
  5
16302
330
747D
100
AcDbEntity
  8
寸法
 48
50.0
100
AcDbDimension
  2
*D10
 10
9054.673057123642
 20
6959.023726043962
 30
0.0
 11
9418.158338497876
 21
6959.023726043962
 31
0.0
 70
   160
 71
     5
 42
54.99999999999818
  3
INABA_S40G
100
AcDbAlignedDimension
 13
9109.673057123639
 23
7493.454496810215
 33
0.0
 14
9054.673057123642
 24
7493.454496810213
 34
0.0
100
AcDbRotatedDimension
1001
ACAD
1000
DSTYLE
1002
{
1002
}
  0
LINE
  5
16303
330
747D
100
AcDbEntity
  8
部品1
 48
50.0
100
AcDbLine
 10
9044.673057123638
 20
7519.454496810124
 30
0.0
 11
9054.673057123638
 21
7498.454496810125
 31
0.0
  0
LINE
  5
16304
330
747D
100
AcDbEntity
  8
部品1
100
AcDbLine
 10
9006.67305712364
 20
7558.454496810125
 30
0.0
 11
9054.673057123642
 21
7558.454496810124
 31
0.0
  0
LINE
  5
16305
330
747D
100
AcDbEntity
  8
部品1
100
AcDbLine
 10
9006.67305712364
 20
7519.454496810126
 30
0.0
 11
9054.673057123638
 21
7519.454496810124
 31
0.0
  0
LINE
  5
16306
330
747D
100
AcDbEntity
  8
部品1
 48
50.0
100
AcDbLine
 10
9006.67305712364
 20
7558.454496810125
 30
0.0
 11
9006.67305712364
 21
7549.454496810125
 31
0.0
  0
LINE
  5
16307
330
747D
100
AcDbEntity
  8
部品1
 48
50.0
100
AcDbLine
 10
9006.67305712364
 20
7519.454496810126
 30
0.0
 11
9006.67305712364
 21
7528.454496810126
 31
0.0
  0
LINE
  5
16308
330
747D
100
AcDbEntity
  8
部品1
100
AcDbLine
 10
9054.673057123638
 20
7529.454496810124
 30
0.0
 11
9077.673057123638
 21
7529.454496810124
 31
0.0
  0
LINE
  5
16309
330
747D
100
AcDbEntity
  8
部品1
100
AcDbLine
 10
9054.673057123638
 20
7548.454496810227
 30
0.0
 11
9109.673057123671
 21
7548.454496810227
 31
0.0
  0
LINE
  5
1630A
330
747D
100
AcDbEntity
  8
部品1
100
AcDbLine
 10
9109.673057123639
 20
7493.454496810215
 30
0.0
 11
9054.673057123642
 21
7493.454496810215
 31
0.0
  0
LINE
  5
16317
330
747D
100
AcDbEntity
  8
部品1
100
AcDbLine
 10
9081.673057123667
 20
8808.454496810227
 30
0.0
 11
9109.673057123668
 21
8808.454496810227
 31
0.0
  0
LINE
  5
16319
330
747D
100
AcDbEntity
  8
部品1
100
AcDbLine
 10
9081.673057123667
 20
9228.454496810227
 30
0.0
 11
9109.673057123668
 21
9228.454496810227
 31
0.0
  0
LINE
  5
1631A
330
747D
100
AcDbEntity
  8
部品1
100
AcDbLine
 10
9081.673057123664
 20
9648.454496810227
 30
0.0
 11
9109.673057123664
 21
9648.454496810227
 31
0.0
  0
LINE
  5
1631D
330
747D
100
AcDbEntity
  8
部品1
100
AcDbLine
 10
3009.673057123662
 20
10123.45449681013
 30
0.0
 11
9109.673057123664
 21
10123.45449681022
 31
0.0
  0
DIMENSION
  5
1631F
330
747D
100
AcDbEntity
  8
寸法
100
AcDbDimension
  2
*D11
 10
9054.673057123663
 20
10339.26271643522
 30
0.0
 11
7584.673057123665
 21
10439.27452745885
 31
0.0
 70
    32
  1
7X420=<>
 71
     5
 42
2940.000000000001
  3
INABA_S40G
100
AcDbAlignedDimension
 13
6114.673057123663
 23
10123.45449681013
 33
0.0
 14
9054.673057123663
 24
10123.45449681022
 34
0.0
100
AcDbRotatedDimension
1001
ACAD
1000
DSTYLE
1002
{
1002
}
  0
DIMENSION
  5
16320
330
747D
100
AcDbEntity
  8
寸法
100
AcDbDimension
  2
*D12
 10
3064.673057123663
 20
10339.26271643511
 30
0.0
 11
2701.18777574939
 21
10339.26271643511
 31
0.0
 70
   160
 71
     5
 42
55.00000000003456
  3
INABA_S40G
100
AcDbAlignedDimension
 13
3009.673057123629
 23
10123.45449681013
 33
0.0
 14
3064.673057123663
 24
10123.45449681013
 34
0.0
100
AcDbRotatedDimension
1001
ACAD
1000
DSTYLE
1002
{
1002
}
  0
LINE
  5
16321
330
747D
100
AcDbEntity
  8
部品1
100
AcDbLine
 10
3064.673057123629
 20
10123.45449681009
 30
0.0
 11
3064.673057123629
 21
10095.45449681009
 31
0.0
  0
LINE
  5
16322
330
747D
100
AcDbEntity
  8
部品1
100
AcDbLine
 10
3064.673057123662
 20
10123.45449681013
 30
0.0
 11
3064.673057123662
 21
10095.45449681013
 31
0.0
  0
LINE
  5
16323
330
747D
100
AcDbEntity
  8
部品1
100
AcDbLine
 10
3037.67305712363
 20
10068.4544968101
 30
0.0
 11
3009.67305712363
 21
10068.4544968101
 31
0.0
  0
LINE
  5
16324
330
747D
100
AcDbEntity
  8
部品1
100
AcDbLine
 10
6954.673057123663
 20
10123.45449681024
 30
0.0
 11
6954.673057123663
 21
10095.45449681024
 31
0.0
  0
LINE
  5
16325
330
747D
100
AcDbEntity
  8
部品1
100
AcDbLine
 10
6954.673057123663
 20
10123.45449681013
 30
0.0
 11
6954.673057123663
 21
10095.45449681013
 31
0.0
  0
LINE
  5
16326
330
747D
100
AcDbEntity
  8
部品1
100
AcDbLine
 10
6954.673057123663
 20
10123.45449681013
 30
0.0
 11
6954.673057123663
 21
10095.45449681013
 31
0.0
  0
LINE
  5
16327
330
747D
100
AcDbEntity
  8
部品1
100
AcDbLine
 10
6087.673057123449
 20
10095.45449681026
 30
0.0
 11
9081.673057123664
 21
10095.45449681022
 31
0.0
  0
LINE
  5
16329
330
747D
100
AcDbEntity
  8
部品1
100
AcDbLine
 10
7374.673057123662
 20
10123.45449681024
 30
0.0
 11
7374.673057123662
 21
10095.45449681024
 31
0.0
  0
LINE
  5
1632A
330
747D
100
AcDbEntity
  8
部品1
100
AcDbLine
 10
7374.673057123662
 20
10123.45449681013
 30
0.0
 11
7374.673057123662
 21
10095.45449681013
 31
0.0
  0
LINE
  5
1632B
330
747D
100
AcDbEntity
  8
部品1
100
AcDbLine
 10
7374.673057123662
 20
10123.45449681013
 30
0.0
 11
7374.673057123662
 21
10095.45449681013
 31
0.0
  0
LINE
  5
1632C
330
747D
100
AcDbEntity
  8
部品1
100
AcDbLine
 10
7794.673057123663
 20
10123.45449681024
 30
0.0
 11
7794.673057123663
 21
10095.45449681024
 31
0.0
  0
LINE
  5
16332
330
747D
100
AcDbEntity
  8
部品1
100
AcDbLine
 10
8214.673057123661
 20
10123.45449681024
 30
0.0
 11
8214.673057123661
 21
10095.45449681024
 31
0.0
  0
DIMENSION
  5
16333
330
747D
100
AcDbEntity
  8
寸法
100
AcDbDimension
  2
*D13
 10
9109.673057123664
 20
10339.26271643521
 30
0.0
 11
9418.158338497901
 21
10339.26271643521
 31
0.0
 70
   160
 71
     5
 42
55.0
  3
INABA_S40G
100
AcDbAlignedDimension
 13
9054.673057123663
 23
10123.45449681022
 33
0.0
 14
9109.673057123664
 24
10123.45449681022
 34
0.0
100
AcDbRotatedDimension
1001
ACAD
1000
DSTYLE
1002
{
1002
}
  0
LINE
  5
16334
330
747D
100
AcDbEntity
  8
部品1
100
AcDbLine
 10
8634.673057123661
 20
10123.45449681024
 30
0.0
 11
8634.673057123661
 21
10095.45449681024
 31
0.0
  0
LINE
  5
16335
330
747D
100
AcDbEntity
  8
部品1
100
AcDbLine
 10
9054.673057123663
 20
10123.45449681022
 30
0.0
 11
9054.673057123663
 21
10095.45449681022
 31
0.0
  0
LINE
  5
16336
330
747D
100
AcDbEntity
  8
部品1
100
AcDbLine
 10
9054.673057123663
 20
10123.45449681024
 30
0.0
 11
9054.673057123663
 21
10095.45449681024
 31
0.0
  0
LINE
  5
16337
330
747D
100
AcDbEntity
  8
部品1
100
AcDbLine
 10
9081.673057123664
 20
10068.45449681023
 30
0.0
 11
9109.673057123664
 21
10068.45449681023
 31
0.0
  0
DIMENSION
  5
1659A
330
747D
100
AcDbEntity
  8
寸法
 48
50.0
100
AcDbDimension
  2
*D16
 10
5956.673057123638
 20
6959.023726043961
 30
0.0
 11
5845.710159474891
 21
7059.02372604396
 31
0.0
 70
   160
 71
     5
 42
48.00000000000181
  3
INABA_S40G
100
AcDbAlignedDimension
 13
6004.67305712364
 23
7493.454496810213
 33
0.0
 14
5956.673057123638
 24
7519.454496810126
 34
0.0
100
AcDbRotatedDimension
1001
ACAD
1000
DSTYLE
1002
{
1070
   279
1070
     2
1002
}
  0
DIMENSION
  5
1659B
330
747D
100
AcDbEntity
  8
寸法
 48
50.0
100
AcDbDimension
  2
*D14
 10
3112.673057123657
 20
6959.023726043961
 30
0.0
 11
4534.673057123647
 21
7059.035537067583
 31
0.0
 70
    32
  1
有効開口部間口 <>
 71
     5
 42
2843.999999999982
  3
INABA_S40G
100
AcDbAlignedDimension
 13
5956.673057123638
 23
7519.454496810126
 33
0.0
 14
3112.673057123657
 24
7519.454496810124
 34
0.0
100
AcDbRotatedDimension
1001
ACAD
1000
DSTYLE
1002
{
1070
    75
1070
     1
1070
   279
1070
     2
1002
}
  0
DIMENSION
  5
1659C
330
747D
100
AcDbEntity
  8
寸法
 48
50.0
100
AcDbDimension
  2
*D15
 10
3064.673057123653
 20
6959.023726043961
 30
0.0
 11
3225.575028123714
 21
7059.02372604396
 31
0.0
 70
   160
 71
     5
 42
48.00000000000363
  3
INABA_S40G
100
AcDbAlignedDimension
 13
3112.673057123657
 23
7519.454496810124
 33
0.0
 14
3064.673057123653
 24
7493.454496810125
 34
0.0
100
AcDbRotatedDimension
1001
ACAD
1000
DSTYLE
1002
{
1070
   279
1070
     2
1002
}
  0
DIMENSION
  5
165E9
330
747D
100
AcDbEntity
  8
寸法
 48
50.0
100
AcDbDimension
  2
*D17
 10
6004.67305712364
 20
6959.023726043962
 30
0.0
 11
6059.673057123647
 21
6807.331831007729
 31
0.0
 70
   160
 71
     5
 42
110.0000000000127
  3
INABA_S40G
100
AcDbAlignedDimension
 13
6114.673057123653
 23
7493.454496810125
 33
0.0
 14
6004.67305712364
 24
7493.454496810213
 34
0.0
100
AcDbRotatedDimension
1001
ACAD
1000
DSTYLE
1002
{
1070
   279
1070
     2
1002
}
  0
LINE
  5
16655
330
747D
100
AcDbEntity
  8
部品1
 48
50.0
100
AcDbLine
 10
3076.673057123655
 20
7538.954496810124
 30
0.0
 11
5992.67305712364
 21
7538.954496810124
 31
0.0
  0
LINE
  5
16656
330
747D
100
AcDbEntity
  8
部品1
100
AcDbLine
 10
5956.673057123638
 20
7558.454496810125
 30
0.0
 11
6004.67305712364
 21
7558.454496810124
 31
0.0
  0
LINE
  5
16657
330
747D
100
AcDbEntity
  8
部品1
 48
50.0
100
AcDbLine
 10
5956.673057123638
 20
7558.454496810125
 30
0.0
 11
5956.673057123638
 21
7549.454496810125
 31
0.0
  0
LINE
  5
16658
330
747D
100
AcDbEntity
  8
部品1
100
AcDbLine
 10
5956.673057123638
 20
7519.454496810126
 30
0.0
 11
6004.673057123639
 21
7519.454496810124
 31
0.0
  0
LINE
  5
16659
330
747D
100
AcDbEntity
  8
部品1
 48
50.0
100
AcDbLine
 10
5956.673057123638
 20
7519.454496810126
 30
0.0
 11
5956.673057123638
 21
7528.454496810126
 31
0.0
  0
LINE
  5
1665A
330
747D
100
AcDbEntity
  8
部品1
 48
50.0
100
AcDbLine
 10
5994.673057123638
 20
7519.454496810124
 30
0.0
 11
6004.673057123639
 21
7498.454496810125
 31
0.0
  0
LINE
  5
1665B
330
747D
100
AcDbEntity
  8
部品1
100
AcDbLine
 10
6004.673057123639
 20
7529.454496810124
 30
0.0
 11
6027.673057123639
 21
7529.454496810124
 31
0.0
  0
LINE
  5
1665C
330
747D
100
AcDbEntity
  8
部品1
100
AcDbLine
 10
6162.673057123657
 20
7558.454496810125
 30
0.0
 11
6114.673057123656
 21
7558.454496810124
 31
0.0
  0
LINE
  5
1665D
330
747D
100
AcDbEntity
  8
部品1
 48
50.0
100
AcDbLine
 10
6162.673057123657
 20
7558.454496810125
 30
0.0
 11
6162.673057123657
 21
7549.454496810125
 31
0.0
  0
LINE
  5
1665E
330
747D
100
AcDbEntity
  8
部品1
100
AcDbLine
 10
6162.673057123657
 20
7519.454496810126
 30
0.0
 11
6114.673057123656
 21
7519.454496810124
 31
0.0
  0
LINE
  5
1665F
330
747D
100
AcDbEntity
  8
部品1
 48
50.0
100
AcDbLine
 10
6124.673057123657
 20
7519.454496810124
 30
0.0
 11
6114.673057123656
 21
7498.454496810125
 31
0.0
  0
LINE
  5
16660
330
747D
100
AcDbEntity
  8
部品1
100
AcDbLine
 10
6114.673057123656
 20
7529.454496810124
 30
0.0
 11
6091.673057123657
 21
7529.454496810124
 31
0.0
  0
LINE
  5
16661
330
747D
100
AcDbEntity
  8
部品1
 48
50.0
100
AcDbLine
 10
6114.673057123656
 20
7558.454496810124
 30
0.0
 11
6114.673057123653
 21
7493.454496810125
 31
0.0
  0
LINE
  5
16662
330
747D
100
AcDbEntity
  8
部品1
 48
50.0
100
AcDbLine
 10
6162.673057123657
 20
7519.454496810126
 30
0.0
 11
6162.673057123657
 21
7528.454496810126
 31
0.0
  0
LINE
  5
16663
330
747D
100
AcDbEntity
  8
部品1
100
AcDbLine
 10
6114.673057123653
 20
7493.454496810125
 30
0.0
 11
6004.673057123643
 21
7493.454496810119
 31
0.0
  0
LINE
  5
16664
330
747D
100
AcDbEntity
  8
部品1
 48
50.0
100
AcDbLine
 10
6004.673057123645
 20
7558.454496810212
 30
0.0
 11
6004.673057123642
 21
7493.454496810213
 31
0.0
  0
DIMENSION
  5
16667
330
747D
100
AcDbEntity
  8
寸法
100
AcDbDimension
  2
*D18
 10
6004.673057123664
 20
10339.26271643522
 30
0.0
 11
4534.673057123664
 21
10439.27452745885
 31
0.0
 70
    32
  1
7X420=<>
 71
     5
 42
2940.000000000001
  3
INABA_S40G
100
AcDbAlignedDimension
 13
3064.673057123663
 23
10123.45449681013
 33
0.0
 14
6004.673057123664
 24
10123.45449681022
 34
0.0
100
AcDbRotatedDimension
1001
ACAD
1000
DSTYLE
1002
{
1002
}
  0
LINE
  5
16680
330
747D
100
AcDbEntity
  8
部品1
100
AcDbLine
 10
4744.673057123662
 20
10123.45449681024
 30
0.0
 11
4744.673057123662
 21
10095.45449681024
 31
0.0
  0
LINE
  5
16688
330
747D
100
AcDbEntity
  8
部品1
100
AcDbLine
 10
3037.67305712365
 20
10095.45449681024
 30
0.0
 11
6031.673057123446
 21
10095.45449681025
 31
0.0
  0
LINE
  5
1668A
330
747D
100
AcDbEntity
  8
部品1
100
AcDbLine
 10
3904.673057123663
 20
10123.45449681024
 30
0.0
 11
3904.673057123663
 21
10095.45449681024
 31
0.0
  0
LINE
  5
1668B
330
747D
100
AcDbEntity
  8
部品1
100
AcDbLine
 10
3904.673057123663
 20
10123.45449681013
 30
0.0
 11
3904.673057123663
 21
10095.45449681013
 31
0.0
  0
LINE
  5
1668C
330
747D
100
AcDbEntity
  8
部品1
100
AcDbLine
 10
3904.673057123663
 20
10123.45449681013
 30
0.0
 11
3904.673057123663
 21
10095.45449681013
 31
0.0
  0
LINE
  5
1668D
330
747D
100
AcDbEntity
  8
部品1
100
AcDbLine
 10
4324.673057123663
 20
10123.45449681024
 30
0.0
 11
4324.673057123663
 21
10095.45449681024
 31
0.0
  0
LINE
  5
1668E
330
747D
100
AcDbEntity
  8
部品1
100
AcDbLine
 10
4324.673057123663
 20
10123.45449681013
 30
0.0
 11
4324.673057123663
 21
10095.45449681013
 31
0.0
  0
LINE
  5
1668F
330
747D
100
AcDbEntity
  8
部品1
100
AcDbLine
 10
4324.673057123663
 20
10123.45449681013
 30
0.0
 11
4324.673057123663
 21
10095.45449681013
 31
0.0
  0
LINE
  5
16690
330
747D
100
AcDbEntity
  8
部品1
100
AcDbLine
 10
5164.673057123663
 20
10123.45449681024
 30
0.0
 11
5164.673057123663
 21
10095.45449681024
 31
0.0
  0
LINE
  5
16691
330
747D
100
AcDbEntity
  8
部品1
100
AcDbLine
 10
5584.673057123662
 20
10123.45449681024
 30
0.0
 11
5584.673057123662
 21
10095.45449681024
 31
0.0
  0
DIMENSION
  5
166DD
330
747D
100
AcDbEntity
  8
寸法
 48
50.0
100
AcDbDimension
  2
*D19
 10
6004.673057123664
 20
10339.26271643522
 30
0.0
 11
6059.673057123664
 21
10439.26271643522
 31
0.0
 70
    32
 71
     5
 42
109.9999999999991
  3
INABA_S40G
100
AcDbAlignedDimension
 13
6114.673057123663
 23
10123.45449681018
 33
0.0
 14
6004.673057123664
 24
10123.45449681017
 34
0.0
100
AcDbRotatedDimension
1001
ACAD
1000
DSTYLE
1002
{
1070
   279
1070
     2
1002
}
  0
LINE
  5
16761
330
747D
100
AcDbEntity
  8
部品1
100
AcDbLine
 10
9054.673057123657
 20
10068.45449681014
 30
0.0
 11
6114.673057123457
 21
10068.45449681014
 31
0.0
  0
LINE
  5
168C3
330
747D
100
AcDbEntity
  8
部品1
100
AcDbLine
 10
6083.673057123648
 20
7548.45449681012
 30
0.0
 11
6035.673057123647
 21
7548.45449681012
 31
0.0
  0
LINE
  5
168C4
330
747D
100
AcDbEntity
  8
部品1
 48
50.0
100
AcDbLine
 10
6035.673057123648
 20
7548.454496810122
 30
0.0
 11
6035.67305712365
 21
7493.454496810122
 31
0.0
  0
LINE
  5
168C5
330
747D
100
AcDbEntity
  8
部品1
 48
50.0
100
AcDbLine
 10
6083.673057123648
 20
7548.454496810122
 30
0.0
 11
6083.67305712365
 21
7493.454496810122
 31
0.0
  0
DIMENSION
  5
16907
330
747D
100
AcDbEntity
  8
寸法
 48
50.0
100
AcDbDimension
  2
*D20
 10
6059.673057123664
 20
10588.58418999152
 30
0.0
 11
4534.673057123645
 21
10688.58418999152
 31
0.0
 70
    32
 71
     5
 42
3050.000000000036
  3
INABA_S40G
100
AcDbAlignedDimension
 13
3009.673057123629
 23
10123.45449681009
 33
0.0
 14
6059.673057123664
 24
10498.25063079317
 34
0.0
100
AcDbRotatedDimension
1001
ACAD
1000
DSTYLE
1002
{
1070
   279
1070
     2
1002
}
  0
DIMENSION
  5
16913
330
747D
100
AcDbEntity
  8
寸法
 48
50.0
100
AcDbDimension
  2
*D21
 10
9109.673057123664
 20
10588.58418999152
 30
0.0
 11
7584.673057123665
 21
10688.58418999152
 31
0.0
 70
    32
 71
     5
 42
3050.0
  3
INABA_S40G
100
AcDbAlignedDimension
 13
6059.673057123664
 23
10498.25063079317
 33
0.0
 14
9109.673057123664
 24
10123.45449681022
 34
0.0
100
AcDbRotatedDimension
1001
ACAD
1000
DSTYLE
1002
{
1070
    75
1070
     1
1070
   279
1070
     2
1002
}
  0
LINE
  5
16C81
330
747D
100
AcDbEntity
  8
部品1
100
AcDbLine
 10
3037.673057123644
 20
8388.4544968101
 30
0.0
 11
3009.673057123644
 21
8388.4544968101
 31
0.0
  0
LINE
  5
16C82
330
747D
100
AcDbEntity
  8
部品1
100
AcDbLine
 10
9081.673057123667
 20
8388.454496810227
 30
0.0
 11
9109.673057123668
 21
8388.454496810227
 31
0.0
  0
LINE
  5
16FDA
330
747D
100
AcDbEntity
  8
部品1
100
AcDbLine
 10
3037.673057123644
 20
7968.4544968101
 30
0.0
 11
3009.673057123644
 21
7968.4544968101
 31
0.0
  0
LINE
  5
16FDB
330
747D
100
AcDbEntity
  8
部品1
100
AcDbLine
 10
9081.673057123667
 20
7968.454496810227
 30
0.0
 11
9109.673057123668
 21
7968.454496810227
 31
0.0
  0
LINE
  5
1743E
330
747D
100
AcDbEntity
  8
部品1
100
AcDbLine
 10
6534.673057123663
 20
10123.45449681013
 30
0.0
 11
6534.673057123663
 21
10095.45449681013
 31
0.0
  0
LINE
  5
1743F
330
747D
100
AcDbEntity
  8
部品1
100
AcDbLine
 10
6534.673057123663
 20
10123.45449681013
 30
0.0
 11
6534.673057123663
 21
10095.45449681013
 31
0.0
  0
LINE
  5
17440
330
747D
100
AcDbEntity
  8
部品1
100
AcDbLine
 10
6534.673057123663
 20
10123.45449681024
 30
0.0
 11
6534.673057123663
 21
10095.45449681024
 31
0.0
  0
LINE
  5
17441
330
747D
100
AcDbEntity
  8
部品1
100
AcDbLine
 10
3484.673057123662
 20
10123.45449681024
 30
0.0
 11
3484.673057123662
 21
10095.45449681024
 31
0.0
  0
LINE
  5
17442
330
747D
100
AcDbEntity
  8
部品1
100
AcDbLine
 10
3484.673057123662
 20
10123.45449681013
 30
0.0
 11
3484.673057123662
 21
10095.45449681013
 31
0.0
  0
LINE
  5
17443
330
747D
100
AcDbEntity
  8
部品1
100
AcDbLine
 10
3484.673057123662
 20
10123.45449681013
 30
0.0
 11
3484.673057123662
 21
10095.45449681013
 31
0.0
  0
LINE
  5
17462
330
747D
100
AcDbEntity
  8
部品1
 48
50.0
100
AcDbLine
 10
9081.673057123648
 20
10095.45449681022
 30
0.0
 11
9054.673057123657
 21
10068.45449681014
 31
0.0
  0
LINE
  5
17463
330
747D
100
AcDbEntity
  8
部品1
 48
50.0
100
AcDbLine
 10
9029.673057123661
 20
10043.45449680998
 30
0.0
 11
6139.673057123431
 21
10043.45449680996
 31
0.0
  0
LINE
  5
17467
330
747D
100
AcDbEntity
  8
部品1
 48
50.0
100
AcDbLine
 10
3064.673057123637
 20
10068.45449681014
 30
0.0
 11
3037.67305712365
 21
10095.45449681024
 31
0.0
  0
TEXT
  5
1761E
330
747D
100
AcDbEntity
  8
文字
 62
     7
 48
50.0
100
AcDbText
 10
15022.63965474516
 20
9910.013745883727
 30
0.0
 40
100.0
  1
F12,Y10        1.0
  7
STYLE1
100
AcDbText
  0
TEXT
  5
1761F
330
747D
100
AcDbEntity
  8
文字
 62
     7
 48
50.0
100
AcDbText
 10
13583.11819016569
 20
9910.01374588373
 30
0.0
 40
100.0
  1
梁中
  7
STYLE1
100
AcDbText
  0
LINE
  5
17620
330
747D
100
AcDbEntity
  8
仕様書枠
 48
50.0
100
AcDbLine
 10
16307.19999999999
 20
9879.599999999999
 30
0.0
 11
13127.19999999999
 21
9879.600000000001
 31
0.0
  0
LINE
  5
17621
330
747D
100
AcDbEntity
  8
仕様書枠
 48
50.0
100
AcDbLine
 10
16307.19999999999
 20
11239.6
 30
0.0
 11
13127.2
 21
11239.6
 31
0.0
  0
LINE
  5
17622
330
747D
100
AcDbEntity
  8
仕様書枠
 48
50.0
100
AcDbLine
 10
16307.19999999999
 20
8179.6
 30
0.0
 11
16307.2
 21
11239.6
 31
0.0
  0
LINE
  5
17623
330
747D
100
AcDbEntity
  8
仕様書枠
 48
50.0
100
AcDbLine
 10
14785.2
 20
11239.59999999999
 30
0.0
 11
14785.19999999999
 21
8689.6
 31
0.0
  0
LINE
  5
17624
330
747D
100
AcDbEntity
  8
仕様書枠
 48
50.0
100
AcDbLine
 10
13490.2
 20
11239.6
 30
0.0
 11
13490.20000000001
 21
8689.6
 31
0.0
  0
LINE
  5
17625
330
747D
100
AcDbEntity
  8
仕様書枠
 48
50.0
100
AcDbLine
 10
16307.19999999999
 20
11069.6
 30
0.0
 11
13127.2
 21
11069.6
 31
0.0
  0
LINE
  5
17626
330
747D
100
AcDbEntity
  8
仕様書枠
 48
50.0
100
AcDbLine
 10
16307.19999999999
 20
10729.6
 30
0.0
 11
13127.2
 21
10729.6
 31
0.0
  0
LINE
  5
17627
330
747D
100
AcDbEntity
  8
仕様書枠
 48
50.0
100
AcDbLine
 10
16307.19999999999
 20
10899.6
 30
0.0
 11
13127.2
 21
10899.6
 31
0.0
  0
LINE
  5
17628
330
747D
100
AcDbEntity
  8
仕様書枠
 48
50.0
100
AcDbLine
 10
16307.19999999999
 20
10389.6
 30
0.0
 11
13127.19999999999
 21
10389.6
 31
0.0
  0
LINE
  5
17629
330
747D
100
AcDbEntity
  8
仕様書枠
 48
50.0
100
AcDbLine
 10
16307.19999999999
 20
10219.6
 30
0.0
 11
13127.19999999999
 21
10219.6
 31
0.0
  0
LINE
  5
1762A
330
747D
100
AcDbEntity
  8
仕様書枠
 48
50.0
100
AcDbLine
 10
16307.19999999999
 20
10559.6
 30
0.0
 11
13127.19999999999
 21
10559.6
 31
0.0
  0
TEXT
  5
1762B
330
747D
100
AcDbEntity
  8
文字
 62
     7
 48
50.0
100
AcDbText
 10
13197.42518560407
 20
11100.01374588373
 30
0.0
 40
100.0
  1
品番
  7
STYLE1
100
AcDbText
  0
TEXT
  5
1762C
330
747D
100
AcDbEntity
  8
文字
 62
     7
 48
50.0
100
AcDbText
 10
13271.19032244792
 20
10930.01374588373
 30
0.0
 40
100.0
  1
1
  7
STYLE1
100
AcDbText
  0
TEXT
  5
1762D
330
747D
100
AcDbEntity
  8
文字
 62
     7
 48
50.0
100
AcDbText
 10
13271.19032244792
 20
10760.01374588373
 30
0.0
 40
100.0
  1
2
  7
STYLE1
100
AcDbText
  0
TEXT
  5
1762E
330
747D
100
AcDbEntity
  8
文字
 62
     7
 48
50.0
100
AcDbText
 10
13271.19032244792
 20
10420.01374588373
 30
0.0
 40
100.0
  1
4
  7
STYLE1
100
AcDbText
  0
TEXT
  5
1762F
330
747D
100
AcDbEntity
  8
文字
 62
     7
 48
50.0
100
AcDbText
 10
13271.19032244792
 20
10590.01374588373
 30
0.0
 40
100.0
  1
3
  7
STYLE1
100
AcDbText
  0
TEXT
  5
17630
330
747D
100
AcDbEntity
  8
文字
 62
     7
 48
50.0
100
AcDbText
 10
13732.03840939434
 20
11100.01374588373
 30
0.0
 40
100.0
  1
部　　品　　名
  7
STYLE1
100
AcDbText
  0
TEXT
  5
17631
330
747D
100
AcDbEntity
  8
文字
 62
     7
 48
50.0
100
AcDbText
 10
14859.79774614482
 20
11100.01374588373
 30
0.0
 40
100.0
  1
材料（材質）　　単位mm
  7
STYLE1
100
AcDbText
  0
TEXT
  5
17632
330
747D
100
AcDbEntity
  8
文字
 62
     7
 48
50.0
100
AcDbText
 10
13583.11819016569
 20
10930.01374588372
 30
0.0
 40
100.0
  1
土台枠
  7
STYLE1
100
AcDbText
  0
TEXT
  5
17633
330
747D
100
AcDbEntity
  8
文字
 62
     7
 48
50.0
100
AcDbText
 10
13583.11819016569
 20
10760.01374588372
 30
0.0
 40
100.0
  1
柱
  7
STYLE1
100
AcDbText
  0
TEXT
  5
17634
330
747D
100
AcDbEntity
  8
文字
 62
     7
 48
50.0
100
AcDbText
 10
13583.11819016569
 20
10590.01374588373
 30
0.0
 40
100.0
  1
桁前
  7
STYLE1
100
AcDbText
  0
TEXT
  5
17635
330
747D
100
AcDbEntity
  8
文字
 62
     7
 48
50.0
100
AcDbText
 10
13583.11819016569
 20
10420.01374588373
 30
0.0
 40
100.0
  1
桁後
  7
STYLE1
100
AcDbText
  0
TEXT
  5
17636
330
747D
100
AcDbEntity
  8
文字
 62
     7
 48
50.0
100
AcDbText
 10
13271.19032244792
 20
10250.01374588373
 30
0.0
 40
100.0
  1
5
  7
STYLE1
100
AcDbText
  0
TEXT
  5
17637
330
747D
100
AcDbEntity
  8
文字
 62
     7
 48
50.0
100
AcDbText
 10
13583.11819016569
 20
10250.01374588373
 30
0.0
 40
100.0
  1
妻板左右
  7
STYLE1
100
AcDbText
  0
TEXT
  5
17638
330
747D
100
AcDbEntity
  8
文字
 62
     7
 48
50.0
100
AcDbText
 10
13583.11819016569
 20
8720.013745883729
 30
0.0
 40
100.0
  1
シャッターレール
  7
STYLE1
100
AcDbText
  0
TEXT
  5
17639
330
747D
100
AcDbEntity
  8
文字
 62
     7
 48
50.0
100
AcDbText
 10
13248.77747366448
 20
9400.013745883727
 30
0.0
 40
100.0
  1
10
  7
STYLE1
100
AcDbText
  0
TEXT
  5
1763A
330
747D
100
AcDbEntity
  8
文字
 62
     7
 48
50.0
100
AcDbText
 10
13583.11819016569
 20
9400.013745883729
 30
0.0
 40
100.0
  1
壁パネル
  7
STYLE1
100
AcDbText
  0
TEXT
  5
1763B
330
747D
100
AcDbEntity
  8
文字
 62
     7
 48
50.0
100
AcDbText
 10
13583.11819016569
 20
9570.013745883727
 30
0.0
 40
100.0
  1
屋根パネル
  7
STYLE1
100
AcDbText
  0
TEXT
  5
1763C
330
747D
100
AcDbEntity
  8
文字
 62
     7
 48
50.0
100
AcDbText
 10
13583.11819016569
 20
9740.013745883729
 30
0.0
 40
100.0
  1
母屋中
  7
STYLE1
100
AcDbText
  0
TEXT
  5
1763D
330
747D
100
AcDbEntity
  8
文字
 62
     7
 48
50.0
100
AcDbText
 10
13583.11819016569
 20
10080.01374588372
 30
0.0
 40
100.0
  1
鼻隠シ前後
  7
STYLE1
100
AcDbText
  0
TEXT
  5
1763E
330
747D
100
AcDbEntity
  8
文字
 62
     7
 48
50.0
100
AcDbText
 10
13271.19032244792
 20
9740.013745883729
 30
0.0
 40
100.0
  1
8
  7
STYLE1
100
AcDbText
  0
TEXT
  5
1763F
330
747D
100
AcDbEntity
  8
文字
 62
     7
 48
50.0
100
AcDbText
 10
13271.19032244792
 20
9570.013745883729
 30
0.0
 40
100.0
  1
9
  7
STYLE1
100
AcDbText
  0
TEXT
  5
17640
330
747D
100
AcDbEntity
  8
文字
 62
     7
 48
50.0
100
AcDbText
 10
13271.19032244792
 20
9910.01374588373
 30
0.0
 40
100.0
  1
7
  7
STYLE1
100
AcDbText
  0
TEXT
  5
17641
330
747D
100
AcDbEntity
  8
文字
 62
     7
 48
50.0
100
AcDbText
 10
13271.19032244792
 20
10080.01374588373
 30
0.0
 40
100.0
  1
6
  7
STYLE1
100
AcDbText
  0
LINE
  5
17642
330
747D
100
AcDbEntity
  8
仕様書枠
 48
50.0
100
AcDbLine
 10
16307.19999999999
 20
9539.599999999998
 30
0.0
 11
13127.19999999999
 21
9539.6
 31
0.0
  0
LINE
  5
17643
330
747D
100
AcDbEntity
  8
仕様書枠
 48
50.0
100
AcDbLine
 10
16307.19999999999
 20
9199.599999999998
 30
0.0
 11
13127.19999999999
 21
9199.600000000001
 31
0.0
  0
LINE
  5
17644
330
747D
100
AcDbEntity
  8
仕様書枠
 48
50.0
100
AcDbLine
 10
16307.19999999999
 20
9369.599999999998
 30
0.0
 11
13127.19999999999
 21
9369.600000000001
 31
0.0
  0
LINE
  5
17645
330
747D
100
AcDbEntity
  8
仕様書枠
 48
50.0
100
AcDbLine
 10
16307.19999999999
 20
10049.6
 30
0.0
 11
13127.2
 21
10049.6
 31
0.0
  0
LINE
  5
17646
330
747D
100
AcDbEntity
  8
仕様書枠
 48
50.0
100
AcDbLine
 10
16307.19999999999
 20
9709.6
 30
0.0
 11
13127.19999999999
 21
9709.600000000001
 31
0.0
  0
TEXT
  5
17647
330
747D
100
AcDbEntity
  8
文字
 62
     7
 48
50.0
100
AcDbText
 10
13248.77747366448
 20
9230.013745883727
 30
0.0
 40
100.0
  1
11
  7
STYLE1
100
AcDbText
  0
TEXT
  5
17648
330
747D
100
AcDbEntity
  8
文字
 62
     7
 48
50.0
100
AcDbText
 10
13583.11819016569
 20
8890.013745883727
 30
0.0
 40
100.0
  1
シャッターカバー
 41
0.9
  7
STYLE1
100
AcDbText
  0
LINE
  5
17649
330
747D
100
AcDbEntity
  8
仕様書枠
 48
50.0
100
AcDbLine
 10
16307.19999999999
 20
9029.6
 30
0.0
 11
13127.19999999999
 21
9029.6
 31
0.0
  0
LINE
  5
1764A
330
747D
100
AcDbEntity
  8
仕様書枠
 48
50.0
100
AcDbLine
 10
16307.19999999999
 20
8859.6
 30
0.0
 11
13127.19999999999
 21
8859.600000000002
 31
0.0
  0
TEXT
  5
1764B
330
747D
100
AcDbEntity
  8
文字
 62
     7
 48
50.0
100
AcDbText
 10
13583.11819016569
 20
9060.013745883731
 30
0.0
 40
100.0
  1
シャッター
  7
STYLE1
100
AcDbText
  0
TEXT
  5
1764C
330
747D
100
AcDbEntity
  8
文字
 62
     7
 48
50.0
100
AcDbText
 10
13248.77747366448
 20
8890.013745883729
 30
0.0
 40
100.0
  1
13
  7
STYLE1
100
AcDbText
  0
TEXT
  5
1764D
330
747D
100
AcDbEntity
  8
文字
 62
     7
 48
50.0
100
AcDbText
 10
13248.77747366448
 20
9060.013745883729
 30
0.0
 40
100.0
  1
12
  7
STYLE1
100
AcDbText
  0
TEXT
  5
1764E
330
747D
100
AcDbEntity
  8
文字
 62
     7
 48
50.0
100
AcDbText
 10
15022.63965474517
 20
10930.01374588372
 30
0.0
 40
100.0
  1
F12            1.2
  7
STYLE1
100
AcDbText
  0
TEXT
  5
1764F
330
747D
100
AcDbEntity
  8
文字
 62
     7
 48
50.0
100
AcDbText
 10
15022.63965474517
 20
10760.01374588372
 30
0.0
 40
100.0
  1
F12         1.0,1.2
  7
STYLE1
100
AcDbText
  0
TEXT
  5
17650
330
747D
100
AcDbEntity
  8
文字
 62
     7
 48
50.0
100
AcDbText
 10
15022.63965474516
 20
10590.01374588372
 30
0.0
 40
100.0
  1
Y10            1.0
  7
STYLE1
100
AcDbText
  0
TEXT
  5
17651
330
747D
100
AcDbEntity
  8
文字
 62
     7
 48
50.0
100
AcDbText
 10
15022.63965474516
 20
10420.01374588372
 30
0.0
 40
100.0
  1
Y10            1.0
  7
STYLE1
100
AcDbText
  0
TEXT
  5
17652
330
747D
100
AcDbEntity
  8
文字
 62
     7
 48
50.0
100
AcDbText
 10
15022.63965474516
 20
10250.01374588372
 30
0.0
 40
100.0
  1
Y10            0.7
  7
STYLE1
100
AcDbText
  0
TEXT
  5
17653
330
747D
100
AcDbEntity
  8
文字
 62
     7
 48
50.0
100
AcDbText
 10
15022.63965474516
 20
10080.01374588372
 30
0.0
 40
100.0
  1
Y10            0.7
  7
STYLE1
100
AcDbText
  0
TEXT
  5
17654
330
747D
100
AcDbEntity
  8
文字
 62
     7
 48
50.0
100
AcDbText
 10
15022.63965474516
 20
9570.013745883725
 30
0.0
 40
100.0
  1
Y10            0.5
  7
STYLE1
100
AcDbText
  0
TEXT
  5
17655
330
747D
100
AcDbEntity
  8
文字
 62
     7
 48
50.0
100
AcDbText
 10
15022.63965474516
 20
9400.013745883725
 30
0.0
 40
100.0
  1
F12            0.7
  7
STYLE1
100
AcDbText
  0
TEXT
  5
17656
330
747D
100
AcDbEntity
  8
文字
 62
     7
 48
50.0
100
AcDbText
 10
14850.83183167176
 20
8720.013745883727
 30
0.0
 40
100.0
  1
アルミニウム合金押出形材
  7
STYLE1
100
AcDbText
  0
TEXT
  5
17658
330
747D
100
AcDbEntity
  8
文字
 62
     7
 48
50.0
100
AcDbText
 10
15022.63965474515
 20
9060.013745883727
 30
0.0
 40
100.0
  1
Z08            0.5
  7
STYLE1
100
AcDbText
  0
LINE
  5
17659
330
747D
100
AcDbEntity
  8
仕様書枠
 48
50.0
100
AcDbLine
 10
16307.19999999998
 20
8519.600000000002
 30
0.0
 11
13127.19999999999
 21
8519.600000000004
 31
0.0
  0
LINE
  5
1765A
330
747D
100
AcDbEntity
  8
仕様書枠
 48
50.0
100
AcDbLine
 10
16307.19999999998
 20
8349.600000000002
 30
0.0
 11
13127.19999999999
 21
8349.600000000004
 31
0.0
  0
LINE
  5
1765B
330
747D
100
AcDbEntity
  8
仕様書枠
 48
50.0
100
AcDbLine
 10
16307.19999999998
 20
8179.600000000002
 30
0.0
 11
13127.19999999999
 21
8179.600000000004
 31
0.0
  0
TEXT
  5
1765C
330
747D
100
AcDbEntity
  8
文字
 62
     7
 48
50.0
100
AcDbText
 10
13229.83081656554
 20
8550.013745883731
 30
0.0
 40
100.0
  1
F12→溶融亜鉛めっき鋼板(JIS G 3302)
  7
STYLE1
100
AcDbText
  0
TEXT
  5
1765D
330
747D
100
AcDbEntity
  8
文字
 62
     7
 48
50.0
100
AcDbText
 10
13229.83081656554
 20
8380.013745883731
 30
0.0
 40
100.0
  1
Y10→溶融亜鉛-5％アルミニウム合金めっき鋼板(JIS G 3317)
 41
0.9
  7
STYLE1
100
AcDbText
  0
TEXT
  5
1765E
330
747D
100
AcDbEntity
  8
文字
 62
     7
 48
50.0
100
AcDbText
 10
13229.83081656554
 20
8210.013745883733
 30
0.0
 40
100.0
  1
Z08→塗装溶融亜鉛めっき鋼板(JIS G 3313)
  7
STYLE1
100
AcDbText
  0
LINE
  5
1765F
330
747D
100
AcDbEntity
  8
仕様書枠
 48
50.0
100
AcDbLine
 10
13127.2
 20
11239.6
 30
0.0
 11
13127.19999999999
 21
8179.600000000002
 31
0.0
  0
TEXT
  5
17661
330
747D
100
AcDbEntity
  8
文字
 62
     7
 48
50.0
100
AcDbText
 10
15022.63965474517
 20
9740.013745883725
 30
0.0
 40
100.0
  1
F12            2.3
  7
STYLE1
100
AcDbText
  0
LWPOLYLINE
  5
179B7
330
747D
100
AcDbEntity
  8
部品1
100
AcDbPolyline
 90
        4
 70
     1
 43
0.0
 10
5677.937724009439
 20
6292.860028230502
 10
5677.937724009439
 20
6052.967706684969
 10
6441.408390237881
 20
6052.967706684969
 10
6441.408390237881
 20
6292.860028230502
  0
TEXT
  5
179B8
330
747D
100
AcDbEntity
  8
部品1
100
AcDbText
 10
5767.857333838477
 20
6099.966499011978
 30
0.0
 40
135.0
  1
平面図
  7
STYLE2
100
AcDbText
  0
TEXT
  5
179B9
330
747D
100
AcDbEntity
  8
部品1
100
AcDbText
 10
5768.463127747392
 20
1595.038069494738
 30
0.0
 40
135.0
  1
正面図
  7
STYLE2
100
AcDbText
  0
LWPOLYLINE
  5
179BA
330
747D
100
AcDbEntity
  8
部品1
100
AcDbPolyline
 90
        4
 70
     1
 43
0.0
 10
5677.937724009439
 20
1787.931598713261
 10
5677.937724009439
 20
1548.039277167729
 10
6441.408390237878
 20
1548.039277167729
 10
6441.408390237878
 20
1787.931598713261
  0
LWPOLYLINE
  5
179BB
330
747D
100
AcDbEntity
  8
部品1
100
AcDbPolyline
 90
        4
 70
     1
 43
0.0
 10
12680.11449739903
 20
1787.931598713261
 10
12680.11449739903
 20
1548.039277167729
 10
13443.58516362746
 20
1548.039277167729
 10
13443.58516362746
 20
1787.931598713261
  0
TEXT
  5
179BC
330
747D
100
AcDbEntity
  8
部品1
100
AcDbText
 10
12769.56059882264
 20
1595.038069494738
 30
0.0
 40
135.0
  1
側面図
  7
STYLE2
100
AcDbText
  0
DIMENSION
  5
179BD
330
747D
100
AcDbEntity
  8
寸法
100
AcDbDimension
  2
*D24
 10
10893.09970132999
 20
2587.931598713253
 30
0.0
 11
10793.08789030636
 21
3632.931598713256
 31
0.0
 70
    32
 71
     5
 42
2090.000000000003
  3
INABA_S40G
100
AcDbAlignedDimension
 13
11736.84983051324
 23
4677.931598713255
 33
0.0
 14
11736.84983051324
 24
2587.931598713252
 34
0.0
 50
90.0
100
AcDbRotatedDimension
1001
ACAD
1000
DSTYLE
1002
{
1070
   174
1070
     0
1070
   272
1070
     1
1070
   288
1070
     0
1070
   341
1005
0
1002
}
  0
DIMENSION
  5
179BE
330
747D
100
AcDbEntity
  8
寸法
100
AcDbDimension
  2
*D25
 10
10593.09970132999
 20
4912.931598713258
 30
0.0
 11
10493.08789030636
 21
3725.431598713258
 31
0.0
 70
    32
 71
     5
 42
2375.000000000007
  3
INABA_S40G
100
AcDbAlignedDimension
 13
11736.84983051324
 23
2537.931598713252
 33
0.0
 14
11676.84983051324
 24
4912.931598713258
 34
0.0
 50
90.0
100
AcDbRotatedDimension
1001
ACAD
1000
DSTYLE
1002
{
1070
   174
1070
     0
1070
   272
1070
     1
1070
   288
1070
     0
1070
   341
1005
0
1002
}
  0
DIMENSION
  5
179BF
330
747D
100
AcDbEntity
  8
寸法
100
AcDbDimension
  2
*D26
 10
15071.77698848538
 20
4857.93159871326
 30
0.0
 11
14971.76517746176
 21
3697.931598713263
 31
0.0
 70
    32
 71
     5
 42
2320.000000000002
  3
INABA_S40G
100
AcDbAlignedDimension
 13
14366.84983051325
 23
2537.93159871326
 33
0.0
 14
14446.84983051325
 24
4857.93159871326
 34
0.0
 50
90.0
100
AcDbRotatedDimension
1001
ACAD
1000
DSTYLE
1002
{
1070
   174
1070
     0
1070
   272
1070
     1
1070
   288
1070
     0
1070
   341
1005
0
1002
}
  0
LINE
  5
179C0
330
747D
100
AcDbEntity
  8
細線
 48
50.0
100
AcDbLine
 10
13814.34983051325
 20
4677.931598713258
 30
0.0
 11
13814.34983051325
 21
2587.93159871326
 31
0.0
  0
LINE
  5
179C1
330
747D
100
AcDbEntity
  8
細線
 48
50.0
100
AcDbLine
 10
13829.34983051325
 20
4677.931598713258
 30
0.0
 11
13829.34983051325
 21
2587.93159871326
 31
0.0
  0
LINE
  5
179C2
330
747D
100
AcDbEntity
  8
細線
 48
50.0
100
AcDbLine
 10
13689.34983051325
 20
4677.931598713258
 30
0.0
 11
13689.34983051325
 21
2587.93159871326
 31
0.0
  0
LINE
  5
179C3
330
747D
100
AcDbEntity
  8
細線
 48
50.0
100
AcDbLine
 10
13674.34983051325
 20
4677.931598713258
 30
0.0
 11
13674.34983051325
 21
2587.93159871326
 31
0.0
  0
LINE
  5
179C4
330
747D
100
AcDbEntity
  8
細線
 48
50.0
100
AcDbLine
 10
13534.34983051325
 20
4677.931598713258
 30
0.0
 11
13534.34983051325
 21
2587.93159871326
 31
0.0
  0
LINE
  5
179C5
330
747D
100
AcDbEntity
  8
細線
 48
50.0
100
AcDbLine
 10
13549.34983051325
 20
4677.931598713258
 30
0.0
 11
13549.34983051325
 21
2587.93159871326
 31
0.0
  0
LINE
  5
179C6
330
747D
100
AcDbEntity
  8
部品1
100
AcDbLine
 10
13471.84983051324
 20
4677.931598713258
 30
0.0
 11
13471.84983051324
 21
2587.93159871326
 31
0.0
  0
LINE
  5
179C7
330
747D
100
AcDbEntity
  8
部品1
100
AcDbLine
 10
12912.07496094249
 20
5038.135986676277
 30
0.0
 11
13237.52997458552
 21
5020.617927717415
 31
0.0
  0
ARC
  5
179C8
330
747D
100
AcDbEntity
  8
部品1
100
AcDbCircle
 10
14432.47736632718
 20
4751.955355979052
 30
0.0
 40
0.7
100
AcDbArc
 50
275.0921697642102
 51
354.1866997667606
  0
ARC
  5
179C9
330
747D
100
AcDbEntity
  8
部品1
100
AcDbCircle
 10
14443.3367120765
 20
4828.998610796976
 30
0.0
 40
0.7
100
AcDbArc
 50
275.0921697642102
 51
354.1866997665532
  0
ARC
  5
179CA
330
747D
100
AcDbEntity
  8
部品1
100
AcDbCircle
 10
14443.66511731911
 20
4825.313213939887
 30
0.0
 40
3.0
100
AcDbArc
 50
95.0921697642102
 51
174.1866997665532
  0
ARC
  5
179CB
330
747D
100
AcDbEntity
  8
部品1
100
AcDbCircle
 10
14432.80577156978
 20
4748.269959121961
 30
0.0
 40
3.0
100
AcDbArc
 50
95.0921697642102
 51
174.1866997665532
  0
ARC
  5
179CC
330
747D
100
AcDbEntity
  8
部品1
 48
50.0
100
AcDbCircle
 10
14421.77763629468
 20
4738.67921451808
 30
0.0
 40
7.0
100
AcDbArc
 50
267.8377559869492
 51
354.1866997665532
  0
ARC
  5
179CD
330
747D
100
AcDbEntity
  8
部品1
 48
50.0
100
AcDbCircle
 10
14439.09973275919
 20
4849.581761660253
 30
0.0
 40
7.0
100
AcDbArc
 50
354.1866997665532
 51
87.03587545283093
  0
LINE
  5
179CE
330
747D
100
AcDbEntity
  8
部品1
 48
50.0
100
AcDbLine
 10
14429.82119989918
 20
4748.573820838863
 30
0.0
 11
14428.74163685944
 21
4737.970203845306
 31
0.0
  0
LINE
  5
179CF
330
747D
100
AcDbEntity
  8
部品1
 48
50.0
100
AcDbLine
 10
14440.6805456485
 20
4825.617075656789
 30
0.0
 11
14433.17376638366
 21
4751.884454911777
 31
0.0
  0
LINE
  5
179D0
330
747D
100
AcDbEntity
  8
部品1
 48
50.0
100
AcDbLine
 10
14446.06373332395
 20
4848.872750987478
 30
0.0
 11
14444.03311213298
 21
4828.927709729697
 31
0.0
  0
ARC
  5
179D1
330
747D
100
AcDbEntity
  8
部品1
100
AcDbCircle
 10
11682.88692238461
 20
4791.745757672163
 30
0.0
 40
0.7
100
AcDbArc
 50
181.0932240293156
 51
260.1877540314845
  0
ARC
  5
179D2
330
747D
100
AcDbEntity
  8
部品1
100
AcDbCircle
 10
11678.114248787
 20
4884.611535872281
 30
0.0
 40
0.7
100
AcDbArc
 50
181.0932240292114
 51
260.1877540314845
  0
ARC
  5
179D3
330
747D
100
AcDbEntity
  8
部品1
100
AcDbCircle
 10
11677.48369438398
 20
4880.965661334884
 30
0.0
 40
3.0
100
AcDbArc
 50
1.093224029315636
 51
80.18775403169875
  0
ARC
  5
179D4
330
747D
100
AcDbEntity
  8
部品1
100
AcDbCircle
 10
11682.25636798159
 20
4788.099883134765
 30
0.0
 40
3.0
100
AcDbArc
 50
1.093224029315636
 51
80.18775403169875
  0
ARC
  5
179D5
330
747D
100
AcDbEntity
  8
部品1
 48
50.0
100
AcDbCircle
 10
11692.45650035679
 20
4777.707639752284
 30
0.0
 40
7.0
100
AcDbArc
 50
181.0932240293156
 51
267.8377559869492
  0
ARC
  5
179D6
330
747D
100
AcDbEntity
  8
部品1
 48
50.0
100
AcDbCircle
 10
11684.03284225469
 20
4904.658699285381
 30
0.0
 40
7.0
100
AcDbArc
 50
87.03587545283093
 51
181.0932240293156
  0
LINE
  5
179D7
330
747D
100
AcDbEntity
  8
部品1
 48
50.0
100
AcDbLine
 10
11685.25582190802
 20
4788.157120737948
 30
0.0
 11
11685.45777452845
 21
4777.574085344856
 31
0.0
  0
LINE
  5
179D8
330
747D
100
AcDbEntity
  8
細線
 48
50.0
100
AcDbLine
 10
11682.64972885135
 20
4791.087168856756
 30
0.0
 11
14432.65339328199
 21
4751.277849882263
 31
0.0
  0
LINE
  5
179D9
330
747D
100
AcDbEntity
  8
細線
 48
50.0
100
AcDbLine
 10
11677.88925361406
 20
4883.948680554621
 30
0.0
 11
14443.52523835923
 21
4828.324475913792
 31
0.0
  0
LINE
  5
179DA
330
747D
100
AcDbEntity
  8
部品1
 48
50.0
100
AcDbLine
 10
11680.48314831041
 20
4881.022898938067
 30
0.0
 11
11682.18704980177
 21
4791.73240223142
 31
0.0
  0
LINE
  5
179DB
330
747D
100
AcDbEntity
  8
部品1
 48
50.0
100
AcDbLine
 10
11677.03411642635
 20
4904.525144877951
 30
0.0
 11
11677.41437620416
 21
4884.598180431541
 31
0.0
  0
LINE
  5
179DC
330
747D
100
AcDbEntity
  8
細線
 48
50.0
100
AcDbLine
 10
14413.81911370694
 20
4857.085021192727
 30
0.0
 11
14409.10214762525
 21
4732.152805257811
 31
0.0
  0
LINE
  5
179DD
330
747D
100
AcDbEntity
  8
細線
 48
50.0
100
AcDbLine
 10
11709.84983051325
 20
4910.331275088664
 30
0.0
 11
11704.56072895774
 21
4770.245642461309
 31
0.0
  0
LINE
  5
179DE
330
747D
100
AcDbEntity
  8
部品1
100
AcDbLine
 10
11692.1923951152
 20
4770.712623782226
 30
0.0
 11
14421.5135310531
 21
4731.684198548019
 31
0.0
  0
LINE
  5
179DF
330
747D
100
AcDbEntity
  8
部品1
100
AcDbLine
 10
11684.39481687021
 20
4911.649334047525
 30
0.0
 11
14439.46170737472
 21
4856.572396422397
 31
0.0
  0
LINE
  5
179E0
330
747D
100
AcDbEntity
  8
部品1
 48
50.0
100
AcDbLine
 10
12937.52997458552
 20
5036.817927717415
 30
0.0
 11
13237.52997458552
 21
5036.817927717415
 31
0.0
  0
LINE
  5
179E1
330
747D
100
AcDbEntity
  8
部品1
 48
50.0
100
AcDbLine
 10
13237.52997458552
 20
5036.817927717415
 30
0.0
 11
13237.52997458552
 21
5020.617927717415
 31
0.0
  0
TEXT
  5
179E2
330
747D
100
AcDbEntity
  8
部品1
 48
50.0
100
AcDbText
 10
12925.79780980925
 20
5072.701949869849
 30
0.0
 40
120.0
  1
1000
  7
STYLE1
100
AcDbText
  0
TEXT
  5
179E3
330
747D
100
AcDbEntity
  8
部品1
 48
50.0
100
AcDbText
 10
13403.43083247434
 20
4935.200691651567
 30
0.0
 40
120.0
  1
37
 50
90.0
  7
STYLE1
100
AcDbText
  0
LINE
  5
179E4
330
747D
100
AcDbEntity
  8
細線
 48
50.0
100
AcDbLine
 10
13129.34983051325
 20
4677.931598713258
 30
0.0
 11
13129.34983051325
 21
2587.93159871326
 31
0.0
  0
LINE
  5
179E5
330
747D
100
AcDbEntity
  8
細線
 48
50.0
100
AcDbLine
 10
13114.34983051325
 20
4677.931598713258
 30
0.0
 11
13114.34983051325
 21
2587.93159871326
 31
0.0
  0
LINE
  5
179E6
330
747D
100
AcDbEntity
  8
細線
 48
50.0
100
AcDbLine
 10
13254.34983051325
 20
4677.931598713258
 30
0.0
 11
13254.34983051325
 21
2587.93159871326
 31
0.0
  0
LINE
  5
179E7
330
747D
100
AcDbEntity
  8
細線
 48
50.0
100
AcDbLine
 10
13269.34983051325
 20
4677.931598713258
 30
0.0
 11
13269.34983051325
 21
2587.93159871326
 31
0.0
  0
LINE
  5
179E8
330
747D
100
AcDbEntity
  8
細線
 48
50.0
100
AcDbLine
 10
13409.34983051325
 20
4677.931598713258
 30
0.0
 11
13409.34983051325
 21
2587.93159871326
 31
0.0
  0
LINE
  5
179E9
330
747D
100
AcDbEntity
  8
細線
 48
50.0
100
AcDbLine
 10
13394.34983051325
 20
4677.931598713258
 30
0.0
 11
13394.34983051325
 21
2587.93159871326
 31
0.0
  0
LINE
  5
179EA
330
747D
100
AcDbEntity
  8
部品1
100
AcDbLine
 10
13891.84983051325
 20
4677.931598713258
 30
0.0
 11
13891.84983051325
 21
2587.93159871326
 31
0.0
  0
LINE
  5
179EB
330
747D
100
AcDbEntity
  8
部品1
100
AcDbLine
 10
11736.84983051324
 20
4677.931598713258
 30
0.0
 11
14366.84983051325
 21
4677.931598713258
 31
0.0
  0
LINE
  5
179EC
330
747D
100
AcDbEntity
  8
部品1
100
AcDbLine
 10
11791.84983051324
 20
2587.931598713258
 30
0.0
 11
14366.84983051325
 21
2587.93159871326
 31
0.0
  0
LINE
  5
179ED
330
747D
100
AcDbEntity
  8
部品1
100
AcDbLine
 10
11791.84983051325
 20
4677.931598713258
 30
0.0
 11
11791.84983051325
 21
2437.931598713261
 31
0.0
  0
LINE
  5
179EE
330
747D
100
AcDbEntity
  8
部品1
100
AcDbLine
 10
11736.84983051325
 20
4770.074036642137
 30
0.0
 11
11736.84983051324
 21
2437.93159871326
 31
0.0
  0
DIMENSION
  5
179F0
330
747D
100
AcDbEntity
  8
寸法
100
AcDbDimension
  2
*D27
 10
10893.09970132999
 20
2537.93159871326
 30
0.0
 11
10893.09970132999
 21
2231.884354618769
 31
0.0
 70
   160
 71
     5
 42
50.0
  3
INABA_S40G
100
AcDbAlignedDimension
 13
11736.84983051324
 23
2587.93159871326
 33
0.0
 14
11681.84983051324
 24
2537.93159871326
 34
0.0
 50
90.0
100
AcDbRotatedDimension
1001
ACAD
1000
DSTYLE
1002
{
1070
   174
1070
     0
1070
   272
1070
     1
1070
   288
1070
     0
1070
   341
1005
0
1002
}
  0
LINE
  5
179F1
330
747D
100
AcDbEntity
  8
部品1
100
AcDbLine
 10
12211.84983051325
 20
4677.931598713258
 30
0.0
 11
12211.84983051325
 21
2587.93159871326
 31
0.0
  0
LINE
  5
179F2
330
747D
100
AcDbEntity
  8
部品1
100
AcDbLine
 10
14366.84983051325
 20
4732.465872100998
 30
0.0
 11
14366.84983051325
 21
2437.93159871326
 31
0.0
  0
LINE
  5
179F3
330
747D
100
AcDbEntity
  8
部品1
100
AcDbLine
 10
14311.84983051325
 20
4677.931598713258
 30
0.0
 11
14311.84983051325
 21
2587.93159871326
 31
0.0
  0
DIMENSION
  5
179F4
330
747D
100
AcDbEntity
  8
寸法
 48
50.0
100
AcDbDimension
  2
*D28
 10
11736.84983051324
 20
5311.589052292564
 30
0.0
 11
13051.84983051325
 21
5311.589052292564
 31
0.0
 70
   160
  1
柱外寸法<>
 71
     5
 42
2630.000000000002
  3
INABA_S40G
100
AcDbAlignedDimension
 13
14366.84983051325
 23
4859.742278324912
 33
0.0
 14
11736.84983051324
 24
4908.933216836235
 34
0.0
100
AcDbRotatedDimension
1001
ACAD
1000
DSTYLE
1002
{
1070
   174
1070
     0
1070
   272
1070
     1
1070
   288
1070
     0
1070
   341
1005
0
1002
}
  0
DIMENSION
  5
179F5
330
747D
100
AcDbEntity
  8
寸法
 48
50.0
100
AcDbDimension
  2
*D29
 10
11676.84983051324
 20
5311.589052292563
 30
0.0
 11
11367.21203523765
 21
5311.589052292563
 31
0.0
 70
   160
 71
     5
 42
60.0
  3
INABA_S40G
100
AcDbAlignedDimension
 13
11736.84983051324
 23
4908.933216836235
 33
0.0
 14
11676.84983051324
 24
4912.931598713264
 34
0.0
100
AcDbRotatedDimension
1001
ACAD
1000
DSTYLE
1002
{
1070
   174
1070
     0
1070
   272
1070
     1
1070
   288
1070
     0
1070
   341
1005
0
1002
}
  0
DIMENSION
  5
179F6
330
747D
100
AcDbEntity
  8
寸法
 48
50.0
100
AcDbDimension
  2
*D30
 10
11676.84983051324
 20
5531.79973902418
 30
0.0
 11
13061.84983051325
 21
5531.79973902418
 31
0.0
 70
   160
 71
     5
 42
2770.000000000002
  3
INABA_S40G
100
AcDbAlignedDimension
 13
14446.84983051325
 23
4857.93159871326
 33
0.0
 14
11676.84983051324
 24
4912.931598713264
 34
0.0
100
AcDbRotatedDimension
1001
ACAD
1000
DSTYLE
1002
{
1070
   174
1070
     0
1070
   272
1070
     1
1070
   288
1070
     0
1070
   341
1005
0
1002
}
  0
LINE
  5
179F7
330
747D
100
AcDbEntity
  8
部品1
100
AcDbLine
 10
11791.84983051325
 20
2537.931598713258
 30
0.0
 11
14366.84983051325
 21
2537.93159871326
 31
0.0
  0
LINE
  5
179F8
330
747D
100
AcDbEntity
  8
細線
 48
50.0
100
AcDbLine
 10
12289.34983051324
 20
4677.931598713258
 30
0.0
 11
12289.34983051324
 21
2587.93159871326
 31
0.0
  0
LINE
  5
179F9
330
747D
100
AcDbEntity
  8
細線
 48
50.0
100
AcDbLine
 10
12274.34983051324
 20
4677.931598713258
 30
0.0
 11
12274.34983051324
 21
2587.93159871326
 31
0.0
  0
LINE
  5
179FA
330
747D
100
AcDbEntity
  8
細線
 48
50.0
100
AcDbLine
 10
12414.34983051324
 20
4677.931598713258
 30
0.0
 11
12414.34983051324
 21
2587.93159871326
 31
0.0
  0
LINE
  5
179FB
330
747D
100
AcDbEntity
  8
細線
 48
50.0
100
AcDbLine
 10
12429.34983051324
 20
4677.931598713258
 30
0.0
 11
12429.34983051324
 21
2587.93159871326
 31
0.0
  0
LINE
  5
179FC
330
747D
100
AcDbEntity
  8
細線
 48
50.0
100
AcDbLine
 10
12569.34983051325
 20
4677.931598713258
 30
0.0
 11
12569.34983051325
 21
2587.93159871326
 31
0.0
  0
LINE
  5
179FD
330
747D
100
AcDbEntity
  8
細線
 48
50.0
100
AcDbLine
 10
12554.34983051324
 20
4677.931598713258
 30
0.0
 11
12554.34983051324
 21
2587.93159871326
 31
0.0
  0
LINE
  5
179FE
330
747D
100
AcDbEntity
  8
細線
 48
50.0
100
AcDbLine
 10
12134.34983051324
 20
4677.931598713258
 30
0.0
 11
12134.34983051324
 21
2587.93159871326
 31
0.0
  0
LINE
  5
179FF
330
747D
100
AcDbEntity
  8
細線
 48
50.0
100
AcDbLine
 10
12149.34983051324
 20
4677.931598713258
 30
0.0
 11
12149.34983051324
 21
2587.93159871326
 31
0.0
  0
LINE
  5
17A00
330
747D
100
AcDbEntity
  8
細線
 48
50.0
100
AcDbLine
 10
12009.34983051324
 20
4677.931598713258
 30
0.0
 11
12009.34983051324
 21
2587.93159871326
 31
0.0
  0
LINE
  5
17A01
330
747D
100
AcDbEntity
  8
細線
 48
50.0
100
AcDbLine
 10
11994.34983051324
 20
4677.931598713258
 30
0.0
 11
11994.34983051324
 21
2587.93159871326
 31
0.0
  0
LINE
  5
17A02
330
747D
100
AcDbEntity
  8
細線
 48
50.0
100
AcDbLine
 10
11854.34983051324
 20
4677.931598713258
 30
0.0
 11
11854.34983051324
 21
2587.93159871326
 31
0.0
  0
LINE
  5
17A03
330
747D
100
AcDbEntity
  8
細線
 48
50.0
100
AcDbLine
 10
11869.34983051324
 20
4677.931598713258
 30
0.0
 11
11869.34983051324
 21
2587.93159871326
 31
0.0
  0
DIMENSION
  5
17A04
330
747D
100
AcDbEntity
  8
寸法
 48
50.0
100
AcDbDimension
  2
*D31
 10
14446.84983051325
 20
5311.589052292564
 30
0.0
 11
14652.89707460773
 21
5311.589052292564
 31
0.0
 70
   160
 71
     5
 42
80.0
  3
INABA_S40G
100
AcDbAlignedDimension
 13
14366.84983051325
 23
4859.742278324912
 33
0.0
 14
14446.84983051325
 24
4857.93159871326
 34
0.0
100
AcDbRotatedDimension
1001
ACAD
1000
DSTYLE
1002
{
1070
   174
1070
     0
1070
   272
1070
     1
1070
   288
1070
     0
1070
   341
1005
0
1002
}
  0
LINE
  5
17A05
330
747D
100
AcDbEntity
  8
部品1
100
AcDbLine
 10
12631.84983051325
 20
4677.931598713258
 30
0.0
 11
12631.84983051325
 21
2587.93159871326
 31
0.0
  0
LINE
  5
17A06
330
747D
100
AcDbEntity
  8
細線
 48
50.0
100
AcDbLine
 10
12974.34983051325
 20
4677.931598713258
 30
0.0
 11
12974.34983051325
 21
2587.93159871326
 31
0.0
  0
LINE
  5
17A07
330
747D
100
AcDbEntity
  8
細線
 48
50.0
100
AcDbLine
 10
12989.34983051325
 20
4677.931598713258
 30
0.0
 11
12989.34983051325
 21
2587.93159871326
 31
0.0
  0
LINE
  5
17A08
330
747D
100
AcDbEntity
  8
細線
 48
50.0
100
AcDbLine
 10
12849.34983051325
 20
4677.931598713258
 30
0.0
 11
12849.34983051325
 21
2587.93159871326
 31
0.0
  0
LINE
  5
17A09
330
747D
100
AcDbEntity
  8
細線
 48
50.0
100
AcDbLine
 10
12834.34983051325
 20
4677.931598713258
 30
0.0
 11
12834.34983051325
 21
2587.93159871326
 31
0.0
  0
LINE
  5
17A0A
330
747D
100
AcDbEntity
  8
細線
 48
50.0
100
AcDbLine
 10
12694.34983051325
 20
4677.931598713258
 30
0.0
 11
12694.34983051325
 21
2587.93159871326
 31
0.0
  0
LINE
  5
17A0B
330
747D
100
AcDbEntity
  8
細線
 48
50.0
100
AcDbLine
 10
12709.34983051325
 20
4677.931598713258
 30
0.0
 11
12709.34983051325
 21
2587.93159871326
 31
0.0
  0
LINE
  5
17A0C
330
747D
100
AcDbEntity
  8
部品1
100
AcDbLine
 10
13051.84983051325
 20
4677.931598713258
 30
0.0
 11
13051.84983051325
 21
2587.93159871326
 31
0.0
  0
LINE
  5
17A0D
330
747D
100
AcDbEntity
  8
細線
 48
50.0
100
AcDbLine
 10
13969.34983051325
 20
4677.931598713258
 30
0.0
 11
13969.34983051325
 21
2587.93159871326
 31
0.0
  0
LINE
  5
17A0E
330
747D
100
AcDbEntity
  8
細線
 48
50.0
100
AcDbLine
 10
13954.34983051325
 20
4677.931598713258
 30
0.0
 11
13954.34983051325
 21
2587.93159871326
 31
0.0
  0
LINE
  5
17A0F
330
747D
100
AcDbEntity
  8
細線
 48
50.0
100
AcDbLine
 10
14094.34983051325
 20
4677.931598713258
 30
0.0
 11
14094.34983051325
 21
2587.93159871326
 31
0.0
  0
LINE
  5
17A10
330
747D
100
AcDbEntity
  8
細線
 48
50.0
100
AcDbLine
 10
14109.34983051325
 20
4677.931598713258
 30
0.0
 11
14109.34983051325
 21
2587.93159871326
 31
0.0
  0
LINE
  5
17A11
330
747D
100
AcDbEntity
  8
細線
 48
50.0
100
AcDbLine
 10
14249.34983051325
 20
4677.931598713258
 30
0.0
 11
14249.34983051325
 21
2587.93159871326
 31
0.0
  0
LINE
  5
17A12
330
747D
100
AcDbEntity
  8
細線
 48
50.0
100
AcDbLine
 10
14234.34983051325
 20
4677.931598713258
 30
0.0
 11
14234.34983051325
 21
2587.93159871326
 31
0.0
  0
DIMENSION
  5
17A13
330
747D
100
AcDbEntity
  8
寸法
 48
50.0
100
AcDbDimension
  2
*D32
 10
11116.24142374487
 20
4787.27685758659
 30
0.0
 11
11126.90689900379
 21
5158.12352082829
 31
0.0
 70
   161
 71
     5
 42
141.0000000000009
  3
INABA_S40G
100
AcDbAlignedDimension
 13
11696.24585067182
 23
4911.654347547938
 33
0.0
 14
11692.1923951152
 24
4770.712623782226
 34
0.0
1001
ACAD
1000
DSTYLE
1002
{
1070
   174
1070
     0
1070
   272
1070
     1
1070
   288
1070
     0
1070
   341
1005
0
1002
}
  0
LINE
  5
17A19
330
747D
100
AcDbEntity
  8
破線
 48
5.0
100
AcDbLine
 10
11736.84983051325
 20
2437.93159871326
 30
0.0
 11
11736.84983051325
 21
2187.931598713258
 31
0.0
  0
LINE
  5
17A1A
330
747D
100
AcDbEntity
  8
破線
 48
5.0
100
AcDbLine
 10
11791.84983051325
 20
2437.93159871326
 30
0.0
 11
11791.84983051325
 21
2187.931598713258
 31
0.0
  0
LINE
  5
17A1B
330
747D
100
AcDbEntity
  8
破線
 48
5.0
100
AcDbLine
 10
11736.84983051325
 20
2187.931598713258
 30
0.0
 11
11791.84983051325
 21
2187.931598713258
 31
0.0
  0
LINE
  5
17A1C
330
747D
100
AcDbEntity
  8
部品1
100
AcDbLine
 10
11736.84983051325
 20
2537.93159871326
 30
0.0
 11
11343.8526163044
 21
2437.93159871326
 31
0.0
  0
LINE
  5
17A1D
330
747D
100
AcDbEntity
  8
部品1
100
AcDbLine
 10
2960.092718138967
 20
4905.535073318026
 30
0.0
 11
2961.226115471316
 21
4885.558945335426
 31
0.0
  0
LINE
  5
17A1E
330
747D
100
AcDbEntity
  8
部品1
100
AcDbLine
 10
2972.663135792893
 20
4789.901538168368
 30
0.0
 11
2973.308041600001
 21
4778.535073318027
 31
0.0
  0
LINE
  5
17A1F
330
747D
100
AcDbEntity
  8
部品1
100
AcDbLine
 10
2964.427105268045
 20
4882.101538168369
 30
0.0
 11
2969.462145996157
 21
4793.358945335425
 31
0.0
  0
ARC
  5
17A20
330
747D
100
AcDbEntity
  8
部品1
 48
50.0
100
AcDbCircle
 10
2961.43192237186
 20
4881.931598713267
 30
0.0
 40
3.0
100
AcDbArc
 50
3.247342790337682
 51
82.3418727926348
  0
ARC
  5
17A21
330
747D
100
AcDbEntity
  8
部品1
 48
50.0
100
AcDbCircle
 10
2969.667952896704
 20
4789.731598713264
 30
0.0
 40
3.0
100
AcDbArc
 50
3.247342790337682
 51
82.3418727926348
  0
ARC
  5
17A22
330
747D
100
AcDbEntity
  8
部品1
 48
50.0
100
AcDbCircle
 10
2970.161022005264
 20
4793.398597874948
 30
0.0
 40
0.7
100
AcDbArc
 50
183.2473427902856
 51
262.3418727926349
  0
ARC
  5
17A23
330
747D
100
AcDbEntity
  8
部品1
 48
50.0
100
AcDbCircle
 10
2961.924991480425
 20
4885.598597874952
 30
0.0
 40
0.7
100
AcDbArc
 50
183.2473427903897
 51
262.3418727926349
  0
ARC
  5
17A24
330
747D
100
AcDbEntity
  8
部品1
100
AcDbCircle
 10
2980.2968016911
 20
4778.931598713266
 30
0.0
 40
7.0
100
AcDbArc
 50
183.2473427903377
 51
270.0
  0
ARC
  5
17A25
330
747D
100
AcDbEntity
  8
部品1
100
AcDbCircle
 10
2967.081478230066
 20
4905.931598713265
 30
0.0
 40
7.0
100
AcDbArc
 50
90.0
 51
183.2473427903377
  0
LINE
  5
17A2E
330
747D
100
AcDbEntity
  8
細線
 48
50.0
100
AcDbLine
 10
2992.673057123637
 20
4912.931598713265
 30
0.0
 11
2992.673057123637
 21
4771.931598713265
 31
0.0
  0
LINE
  5
17A31
330
747D
100
AcDbEntity
  8
細線
 48
50.0
100
AcDbLine
 10
6049.673057123658
 20
4792.704841276732
 30
0.0
 11
2970.067738660066
 21
4792.7048412771
 31
0.0
  0
LINE
  5
17A32
330
747D
100
AcDbEntity
  8
細線
 48
50.0
100
AcDbLine
 10
6049.673057123658
 20
4884.904841276732
 30
0.0
 11
2961.831708135236
 21
4884.904841277102
 31
0.0
  0
LINE
  5
17A33
330
747D
100
AcDbEntity
  8
部品1
 48
50.0
100
AcDbLine
 10
6059.673057123657
 20
4771.931598713265
 30
0.0
 11
2980.2968016911
 21
4771.931598713265
 31
0.0
  0
LINE
  5
17A34
330
747D
100
AcDbEntity
  8
部品1
 48
50.0
100
AcDbLine
 10
6049.673057123657
 20
4912.931598713264
 30
0.0
 11
2967.081478230066
 21
4912.931598713264
 31
0.0
  0
DIMENSION
  5
17A61
330
747D
100
AcDbEntity
  8
寸法
 48
50.0
100
AcDbDimension
  2
*D22
 10
3009.673057123637
 20
5125.473183971506
 30
0.0
 11
6059.673057123644
 21
5125.473183971506
 31
0.0
 70
   160
  1
柱外寸法<>
 71
     5
 42
6100.000000000015
  3
INABA_S40G
100
AcDbAlignedDimension
 13
9109.673057123652
 23
4912.931598713266
 33
0.0
 14
3009.673057123637
 24
4912.931598713268
 34
0.0
100
AcDbRotatedDimension
  0
DIMENSION
  5
17A62
330
747D
100
AcDbEntity
  8
寸法
 48
50.0
100
AcDbDimension
  2
*D23
 10
2959.673057123637
 20
5125.473183971506
 30
0.0
 11
2646.187775749389
 21
5125.473183971506
 31
0.0
 70
   160
 71
     5
 42
50.0
  3
INABA_S40G
100
AcDbAlignedDimension
 13
3009.673057123637
 23
4912.931598713268
 33
0.0
 14
2959.673057123637
 24
4912.931598713267
 34
0.0
100
AcDbRotatedDimension
1001
ACAD
1000
DSTYLE
1002
{
1002
}
  0
ARC
  5
17AF9
330
747D
100
AcDbEntity
  8
細線
 48
50.0
100
AcDbCircle
 10
4234.67305712364
 20
3100.431598713262
 30
0.0
 40
15.0
100
AcDbArc
 50
90.0
 51
270.0
  0
ARC
  5
17AFA
330
747D
100
AcDbEntity
  8
細線
 48
50.0
100
AcDbCircle
 10
4334.67305712364
 20
3100.431598713262
 30
0.0
 40
15.0
100
AcDbArc
 50
270.0
 51
90.0
  0
LINE
  5
17AFB
330
747D
100
AcDbEntity
  8
細線
 48
50.0
100
AcDbLine
 10
4234.67305712364
 20
3115.431598713261
 30
0.0
 11
4334.67305712364
 21
3115.431598713261
 31
0.0
  0
LINE
  5
17AFC
330
747D
100
AcDbEntity
  8
細線
 48
50.0
100
AcDbLine
 10
4334.67305712364
 20
3085.431598713262
 30
0.0
 11
4234.67305712364
 21
3085.431598713262
 31
0.0
  0
LINE
  5
17AFD
330
747D
100
AcDbEntity
  8
細線
 48
50.0
100
AcDbLine
 10
4834.673057123641
 20
3085.431598713262
 30
0.0
 11
4734.67305712364
 21
3085.431598713262
 31
0.0
  0
LINE
  5
17AFE
330
747D
100
AcDbEntity
  8
細線
 48
50.0
100
AcDbLine
 10
4734.67305712364
 20
3115.431598713261
 30
0.0
 11
4834.673057123641
 21
3115.431598713261
 31
0.0
  0
ARC
  5
17AFF
330
747D
100
AcDbEntity
  8
細線
 48
50.0
100
AcDbCircle
 10
4734.67305712364
 20
3100.431598713262
 30
0.0
 40
15.0
100
AcDbArc
 50
90.0
 51
270.0
  0
ARC
  5
17B00
330
747D
100
AcDbEntity
  8
細線
 48
50.0
100
AcDbCircle
 10
4834.673057123641
 20
3100.431598713262
 30
0.0
 40
15.0
100
AcDbArc
 50
270.0
 51
90.0
  0
CIRCLE
  5
17B01
330
747D
100
AcDbEntity
  8
細線
 48
50.0
100
AcDbCircle
 10
4534.67305712364
 20
3425.431598713262
 30
0.0
 40
18.0
  0
LINE
  5
17B05
330
747D
100
AcDbEntity
  8
細線
100
AcDbLine
 10
5956.673057123642
 20
2547.931598713262
 30
0.0
 11
3112.673057123637
 21
2547.931598713262
 31
0.0
  0
LINE
  5
17B06
330
747D
100
AcDbEntity
  8
細線
100
AcDbLine
 10
3112.673057123639
 20
3067.931598713262
 30
0.0
 11
5956.673057123641
 21
3067.931598713262
 31
0.0
  0
LINE
  5
17B07
330
747D
100
AcDbEntity
  8
細線
100
AcDbLine
 10
3112.673057123639
 20
3002.931598713261
 30
0.0
 11
5956.673057123641
 21
3002.931598713261
 31
0.0
  0
LINE
  5
17B08
330
747D
100
AcDbEntity
  8
細線
100
AcDbLine
 10
3112.673057123639
 20
2937.931598713261
 30
0.0
 11
5956.673057123641
 21
2937.931598713261
 31
0.0
  0
LINE
  5
17B09
330
747D
100
AcDbEntity
  8
細線
100
AcDbLine
 10
3112.673057123639
 20
2872.931598713261
 30
0.0
 11
5956.673057123641
 21
2872.931598713261
 31
0.0
  0
LINE
  5
17B0A
330
747D
100
AcDbEntity
  8
細線
100
AcDbLine
 10
3112.673057123639
 20
2807.931598713262
 30
0.0
 11
5956.673057123641
 21
2807.931598713262
 31
0.0
  0
LINE
  5
17B0B
330
747D
100
AcDbEntity
  8
細線
100
AcDbLine
 10
3112.673057123639
 20
2742.931598713262
 30
0.0
 11
5956.673057123641
 21
2742.931598713262
 31
0.0
  0
LINE
  5
17B0C
330
747D
100
AcDbEntity
  8
細線
100
AcDbLine
 10
3112.673057123639
 20
2677.931598713261
 30
0.0
 11
5956.673057123641
 21
2677.931598713261
 31
0.0
  0
LINE
  5
17B0D
330
747D
100
AcDbEntity
  8
細線
100
AcDbLine
 10
3112.673057123639
 20
2612.931598713262
 30
0.0
 11
5956.673057123641
 21
2612.931598713262
 31
0.0
  0
LINE
  5
17B0E
330
747D
100
AcDbEntity
  8
細線
100
AcDbLine
 10
3112.673057123639
 20
2547.931598713262
 30
0.0
 11
5956.673057123641
 21
2547.931598713262
 31
0.0
  0
LINE
  5
17B0F
330
747D
100
AcDbEntity
  8
細線
100
AcDbLine
 10
3112.673057123639
 20
4367.931598713261
 30
0.0
 11
5956.673057123641
 21
4367.931598713261
 31
0.0
  0
LINE
  5
17B10
330
747D
100
AcDbEntity
  8
細線
100
AcDbLine
 10
3112.673057123639
 20
4497.931598713261
 30
0.0
 11
5956.673057123641
 21
4497.931598713261
 31
0.0
  0
LINE
  5
17B11
330
747D
100
AcDbEntity
  8
細線
100
AcDbLine
 10
3112.673057123639
 20
4432.931598713262
 30
0.0
 11
5956.673057123641
 21
4432.931598713262
 31
0.0
  0
LINE
  5
17B12
330
747D
100
AcDbEntity
  8
細線
100
AcDbLine
 10
3112.673057123639
 20
3717.931598713261
 30
0.0
 11
5956.673057123641
 21
3717.931598713261
 31
0.0
  0
LINE
  5
17B13
330
747D
100
AcDbEntity
  8
細線
100
AcDbLine
 10
3112.673057123639
 20
3652.931598713261
 30
0.0
 11
5956.673057123641
 21
3652.931598713261
 31
0.0
  0
LINE
  5
17B14
330
747D
100
AcDbEntity
  8
細線
100
AcDbLine
 10
3112.673057123639
 20
3587.931598713261
 30
0.0
 11
5956.673057123641
 21
3587.931598713261
 31
0.0
  0
LINE
  5
17B15
330
747D
100
AcDbEntity
  8
細線
100
AcDbLine
 10
3112.673057123639
 20
3522.931598713262
 30
0.0
 11
5956.673057123641
 21
3522.931598713262
 31
0.0
  0
LINE
  5
17B16
330
747D
100
AcDbEntity
  8
細線
100
AcDbLine
 10
3112.673057123639
 20
3457.931598713262
 30
0.0
 11
5956.673057123641
 21
3457.931598713262
 31
0.0
  0
LINE
  5
17B17
330
747D
100
AcDbEntity
  8
細線
100
AcDbLine
 10
3112.673057123639
 20
3392.931598713261
 30
0.0
 11
5956.673057123641
 21
3392.931598713261
 31
0.0
  0
LINE
  5
17B18
330
747D
100
AcDbEntity
  8
細線
100
AcDbLine
 10
3112.673057123639
 20
3327.931598713262
 30
0.0
 11
5956.673057123641
 21
3327.931598713262
 31
0.0
  0
LINE
  5
17B19
330
747D
100
AcDbEntity
  8
細線
100
AcDbLine
 10
3112.673057123639
 20
3262.931598713262
 30
0.0
 11
5956.673057123641
 21
3262.931598713262
 31
0.0
  0
LINE
  5
17B1A
330
747D
100
AcDbEntity
  8
細線
100
AcDbLine
 10
3112.673057123639
 20
3197.931598713262
 30
0.0
 11
5956.673057123641
 21
3197.931598713262
 31
0.0
  0
LINE
  5
17B1B
330
747D
100
AcDbEntity
  8
細線
100
AcDbLine
 10
3112.673057123639
 20
3132.931598713261
 30
0.0
 11
5956.673057123641
 21
3132.931598713261
 31
0.0
  0
LINE
  5
17B1C
330
747D
100
AcDbEntity
  8
細線
100
AcDbLine
 10
3112.673057123639
 20
4107.931598713261
 30
0.0
 11
5956.673057123641
 21
4107.931598713261
 31
0.0
  0
LINE
  5
17B1D
330
747D
100
AcDbEntity
  8
細線
100
AcDbLine
 10
3112.673057123639
 20
4042.931598713261
 30
0.0
 11
5956.673057123641
 21
4042.931598713261
 31
0.0
  0
LINE
  5
17B1E
330
747D
100
AcDbEntity
  8
細線
100
AcDbLine
 10
3112.673057123639
 20
3977.931598713261
 30
0.0
 11
5956.673057123641
 21
3977.931598713261
 31
0.0
  0
LINE
  5
17B1F
330
747D
100
AcDbEntity
  8
細線
100
AcDbLine
 10
3112.673057123639
 20
3912.931598713262
 30
0.0
 11
5956.673057123641
 21
3912.931598713262
 31
0.0
  0
LINE
  5
17B20
330
747D
100
AcDbEntity
  8
細線
100
AcDbLine
 10
3112.673057123639
 20
3847.931598713262
 30
0.0
 11
5956.673057123641
 21
3847.931598713262
 31
0.0
  0
LINE
  5
17B21
330
747D
100
AcDbEntity
  8
細線
100
AcDbLine
 10
3112.673057123639
 20
3782.931598713262
 30
0.0
 11
5956.673057123641
 21
3782.931598713262
 31
0.0
  0
LINE
  5
17B22
330
747D
100
AcDbEntity
  8
細線
100
AcDbLine
 10
3112.673057123639
 20
4302.931598713261
 30
0.0
 11
5956.673057123641
 21
4302.931598713261
 31
0.0
  0
LINE
  5
17B23
330
747D
100
AcDbEntity
  8
細線
100
AcDbLine
 10
3112.673057123639
 20
4237.931598713261
 30
0.0
 11
5956.673057123641
 21
4237.931598713261
 31
0.0
  0
LINE
  5
17B24
330
747D
100
AcDbEntity
  8
細線
100
AcDbLine
 10
3112.673057123639
 20
4172.931598713261
 30
0.0
 11
5956.673057123641
 21
4172.931598713261
 31
0.0
  0
LINE
  5
17B25
330
747D
100
AcDbEntity
  8
部品1
100
AcDbLine
 10
3009.673057123642
 20
4512.931598713261
 30
0.0
 11
6114.673057123656
 21
4512.931598713262
 31
0.0
  0
LINE
  5
17B29
330
747D
100
AcDbEntity
  8
部品1
100
AcDbLine
 10
5956.673057123644
 20
4512.931598713262
 30
0.0
 11
5956.673057123641
 21
2537.931598713262
 31
0.0
  0
LINE
  5
17B2B
330
747D
100
AcDbEntity
  8
部品1
100
AcDbLine
 10
3112.673057123642
 20
4512.931598713261
 30
0.0
 11
3112.673057123642
 21
2537.931598713262
 31
0.0
  0
LINE
  5
17B3B
330
747D
100
AcDbEntity
  8
部品1
100
AcDbLine
 10
3064.673057123643
 20
4512.931598713262
 30
0.0
 11
3064.673057123642
 21
2537.931598713262
 31
0.0
  0
LINE
  5
17B3C
330
747D
100
AcDbEntity
  8
部品1
100
AcDbLine
 10
6004.673057123642
 20
4512.931598713263
 30
0.0
 11
6004.67305712364
 21
2537.931598713262
 31
0.0
  0
LINE
  5
17B3D
330
747D
100
AcDbEntity
  8
部品1
100
AcDbLine
 10
3009.673057123642
 20
4771.931598713266
 30
0.0
 11
3009.673057123642
 21
2437.931598713261
 31
0.0
  0
LINE
  5
17B3E
330
747D
100
AcDbEntity
  8
部品1
100
AcDbLine
 10
3009.673057123642
 20
4677.931598713261
 30
0.0
 11
6059.673057123642
 21
4677.931598713261
 31
0.0
  0
LINE
  5
17B3F
330
747D
100
AcDbEntity
  8
部品1
100
AcDbLine
 10
3009.673057123642
 20
2537.931598713262
 30
0.0
 11
6059.673057123642
 21
2537.931598713262
 31
0.0
  0
LINE
  5
17B40
330
747D
100
AcDbEntity
  8
部品1
100
AcDbLine
 10
2170.903465777259
 20
2567.835409280926
 30
0.0
 11
2095.903465777259
 21
2437.931598713261
 31
0.0
  0
TEXT
  5
17B41
330
747D
100
AcDbEntity
  8
部品1
100
AcDbText
 10
2199.008407902033
 20
2474.038502319163
 30
0.0
 40
125.0
  1
G.L
  7
STYLE2
100
AcDbText
  0
LINE
  5
17B42
330
747D
100
AcDbEntity
  8
部品1
100
AcDbLine
 10
2095.903465777259
 20
2437.931598713261
 30
0.0
 11
2020.903465777259
 21
2567.835409280926
 31
0.0
  0
LINE
  5
17B43
330
747D
100
AcDbEntity
  8
部品1
100
AcDbLine
 10
2020.903465777259
 20
2567.835409280926
 30
0.0
 11
2170.903465777259
 21
2567.835409280926
 31
0.0
  0
LINE
  5
17EB8
330
747D
100
AcDbEntity
  8
部品1
100
AcDbLine
 10
6059.673057123657
 20
2537.931598713262
 30
0.0
 11
9109.673057123655
 21
2537.931598713262
 31
0.0
  0
LINE
  5
17EB9
330
747D
100
AcDbEntity
  8
部品1
100
AcDbLine
 10
6059.673057123657
 20
4677.931598713261
 30
0.0
 11
9109.673057123655
 21
4677.931598713261
 31
0.0
  0
LINE
  5
17EBB
330
747D
100
AcDbEntity
  8
部品1
100
AcDbLine
 10
9054.673057123656
 20
4512.931598713264
 30
0.0
 11
9054.673057123656
 21
2537.931598713262
 31
0.0
  0
LINE
  5
17EBC
330
747D
100
AcDbEntity
  8
部品1
100
AcDbLine
 10
6114.673057123656
 20
4512.931598713263
 30
0.0
 11
6114.673057123656
 21
2537.931598713262
 31
0.0
  0
LINE
  5
17EBD
330
747D
100
AcDbEntity
  8
部品1
100
AcDbLine
 10
9109.673057123655
 20
4771.931598713266
 30
0.0
 11
9109.673057123655
 21
2437.931598713261
 31
0.0
  0
LINE
  5
17ECB
330
747D
100
AcDbEntity
  8
部品1
100
AcDbLine
 10
6162.673057123657
 20
4512.931598713261
 30
0.0
 11
6162.673057123657
 21
2537.931598713262
 31
0.0
  0
LINE
  5
17ECD
330
747D
100
AcDbEntity
  8
部品1
100
AcDbLine
 10
9006.673057123659
 20
4512.931598713262
 30
0.0
 11
9006.673057123654
 21
2537.931598713262
 31
0.0
  0
LINE
  5
17ED1
330
747D
100
AcDbEntity
  8
部品1
100
AcDbLine
 10
6114.673057123656
 20
4512.931598713261
 30
0.0
 11
9109.673057123659
 21
4512.931598713263
 31
0.0
  0
LINE
  5
17ED2
330
747D
100
AcDbEntity
  8
細線
100
AcDbLine
 10
6162.673057123653
 20
4172.931598713261
 30
0.0
 11
9006.673057123654
 21
4172.931598713261
 31
0.0
  0
LINE
  5
17ED3
330
747D
100
AcDbEntity
  8
細線
100
AcDbLine
 10
6162.673057123653
 20
4237.931598713261
 30
0.0
 11
9006.673057123654
 21
4237.931598713261
 31
0.0
  0
LINE
  5
17ED4
330
747D
100
AcDbEntity
  8
細線
100
AcDbLine
 10
6162.673057123653
 20
4302.931598713261
 30
0.0
 11
9006.673057123654
 21
4302.931598713261
 31
0.0
  0
LINE
  5
17ED5
330
747D
100
AcDbEntity
  8
細線
100
AcDbLine
 10
6162.673057123653
 20
3782.931598713262
 30
0.0
 11
9006.673057123654
 21
3782.931598713262
 31
0.0
  0
LINE
  5
17ED6
330
747D
100
AcDbEntity
  8
細線
100
AcDbLine
 10
6162.673057123653
 20
3847.931598713262
 30
0.0
 11
9006.673057123654
 21
3847.931598713262
 31
0.0
  0
LINE
  5
17ED7
330
747D
100
AcDbEntity
  8
細線
100
AcDbLine
 10
6162.673057123653
 20
3912.931598713262
 30
0.0
 11
9006.673057123654
 21
3912.931598713262
 31
0.0
  0
LINE
  5
17ED8
330
747D
100
AcDbEntity
  8
細線
100
AcDbLine
 10
6162.673057123653
 20
3977.931598713261
 30
0.0
 11
9006.673057123654
 21
3977.931598713261
 31
0.0
  0
LINE
  5
17ED9
330
747D
100
AcDbEntity
  8
細線
100
AcDbLine
 10
6162.673057123653
 20
4042.931598713261
 30
0.0
 11
9006.673057123654
 21
4042.931598713261
 31
0.0
  0
LINE
  5
17EDA
330
747D
100
AcDbEntity
  8
細線
100
AcDbLine
 10
6162.673057123653
 20
4107.931598713261
 30
0.0
 11
9006.673057123654
 21
4107.931598713261
 31
0.0
  0
LINE
  5
17EDB
330
747D
100
AcDbEntity
  8
細線
100
AcDbLine
 10
6162.673057123653
 20
3132.931598713261
 30
0.0
 11
9006.673057123654
 21
3132.931598713261
 31
0.0
  0
LINE
  5
17EDC
330
747D
100
AcDbEntity
  8
細線
100
AcDbLine
 10
6162.673057123653
 20
3197.931598713262
 30
0.0
 11
9006.673057123654
 21
3197.931598713262
 31
0.0
  0
LINE
  5
17EDD
330
747D
100
AcDbEntity
  8
細線
100
AcDbLine
 10
6162.673057123653
 20
3262.931598713262
 30
0.0
 11
9006.673057123654
 21
3262.931598713262
 31
0.0
  0
LINE
  5
17EDE
330
747D
100
AcDbEntity
  8
細線
100
AcDbLine
 10
6162.673057123653
 20
3327.931598713262
 30
0.0
 11
9006.673057123654
 21
3327.931598713262
 31
0.0
  0
LINE
  5
17EDF
330
747D
100
AcDbEntity
  8
細線
100
AcDbLine
 10
6162.673057123653
 20
3392.931598713261
 30
0.0
 11
9006.673057123654
 21
3392.931598713261
 31
0.0
  0
LINE
  5
17EE0
330
747D
100
AcDbEntity
  8
細線
100
AcDbLine
 10
6162.673057123653
 20
3457.931598713262
 30
0.0
 11
9006.673057123654
 21
3457.931598713262
 31
0.0
  0
LINE
  5
17EE1
330
747D
100
AcDbEntity
  8
細線
100
AcDbLine
 10
6162.673057123653
 20
3522.931598713262
 30
0.0
 11
9006.673057123654
 21
3522.931598713262
 31
0.0
  0
LINE
  5
17EE2
330
747D
100
AcDbEntity
  8
細線
100
AcDbLine
 10
6162.673057123653
 20
3587.931598713261
 30
0.0
 11
9006.673057123654
 21
3587.931598713261
 31
0.0
  0
LINE
  5
17EE3
330
747D
100
AcDbEntity
  8
細線
100
AcDbLine
 10
6162.673057123653
 20
3652.931598713261
 30
0.0
 11
9006.673057123654
 21
3652.931598713261
 31
0.0
  0
LINE
  5
17EE4
330
747D
100
AcDbEntity
  8
細線
100
AcDbLine
 10
6162.673057123653
 20
3717.931598713261
 30
0.0
 11
9006.673057123654
 21
3717.931598713261
 31
0.0
  0
LINE
  5
17EE5
330
747D
100
AcDbEntity
  8
細線
100
AcDbLine
 10
6162.673057123653
 20
4432.931598713262
 30
0.0
 11
9006.673057123654
 21
4432.931598713262
 31
0.0
  0
LINE
  5
17EE6
330
747D
100
AcDbEntity
  8
細線
100
AcDbLine
 10
6162.673057123653
 20
4497.931598713261
 30
0.0
 11
9006.673057123654
 21
4497.931598713261
 31
0.0
  0
LINE
  5
17EE7
330
747D
100
AcDbEntity
  8
細線
100
AcDbLine
 10
6162.673057123653
 20
4367.931598713261
 30
0.0
 11
9006.673057123654
 21
4367.931598713261
 31
0.0
  0
LINE
  5
17EE8
330
747D
100
AcDbEntity
  8
細線
100
AcDbLine
 10
6162.673057123653
 20
2547.931598713262
 30
0.0
 11
9006.673057123654
 21
2547.931598713262
 31
0.0
  0
LINE
  5
17EE9
330
747D
100
AcDbEntity
  8
細線
100
AcDbLine
 10
6162.673057123653
 20
2612.931598713262
 30
0.0
 11
9006.673057123654
 21
2612.931598713262
 31
0.0
  0
LINE
  5
17EEA
330
747D
100
AcDbEntity
  8
細線
100
AcDbLine
 10
6162.673057123653
 20
2677.931598713261
 30
0.0
 11
9006.673057123654
 21
2677.931598713261
 31
0.0
  0
LINE
  5
17EEB
330
747D
100
AcDbEntity
  8
細線
100
AcDbLine
 10
6162.673057123653
 20
2742.931598713262
 30
0.0
 11
9006.673057123654
 21
2742.931598713262
 31
0.0
  0
LINE
  5
17EEC
330
747D
100
AcDbEntity
  8
細線
100
AcDbLine
 10
6162.673057123653
 20
2807.931598713262
 30
0.0
 11
9006.673057123654
 21
2807.931598713262
 31
0.0
  0
LINE
  5
17EED
330
747D
100
AcDbEntity
  8
細線
100
AcDbLine
 10
6162.673057123653
 20
2872.931598713261
 30
0.0
 11
9006.673057123654
 21
2872.931598713261
 31
0.0
  0
LINE
  5
17EEE
330
747D
100
AcDbEntity
  8
細線
100
AcDbLine
 10
6162.673057123653
 20
2937.931598713261
 30
0.0
 11
9006.673057123654
 21
2937.931598713261
 31
0.0
  0
LINE
  5
17EEF
330
747D
100
AcDbEntity
  8
細線
100
AcDbLine
 10
6162.673057123653
 20
3002.931598713261
 30
0.0
 11
9006.673057123654
 21
3002.931598713261
 31
0.0
  0
LINE
  5
17EF0
330
747D
100
AcDbEntity
  8
細線
100
AcDbLine
 10
6162.673057123653
 20
3067.931598713262
 30
0.0
 11
9006.673057123654
 21
3067.931598713262
 31
0.0
  0
LINE
  5
17EF1
330
747D
100
AcDbEntity
  8
細線
100
AcDbLine
 10
9006.673057123656
 20
2547.931598713262
 30
0.0
 11
6162.673057123651
 21
2547.931598713262
 31
0.0
  0
CIRCLE
  5
17EF5
330
747D
100
AcDbEntity
  8
細線
 48
50.0
100
AcDbCircle
 10
7584.673057123655
 20
3425.431598713262
 30
0.0
 40
18.0
  0
ARC
  5
17EF6
330
747D
100
AcDbEntity
  8
細線
 48
50.0
100
AcDbCircle
 10
7884.673057123655
 20
3100.431598713262
 30
0.0
 40
15.0
100
AcDbArc
 50
270.0
 51
90.0
  0
ARC
  5
17EF7
330
747D
100
AcDbEntity
  8
細線
 48
50.0
100
AcDbCircle
 10
7784.673057123654
 20
3100.431598713262
 30
0.0
 40
15.0
100
AcDbArc
 50
90.0
 51
270.0
  0
LINE
  5
17EF8
330
747D
100
AcDbEntity
  8
細線
 48
50.0
100
AcDbLine
 10
7784.673057123654
 20
3115.431598713261
 30
0.0
 11
7884.673057123655
 21
3115.431598713261
 31
0.0
  0
LINE
  5
17EF9
330
747D
100
AcDbEntity
  8
細線
 48
50.0
100
AcDbLine
 10
7884.673057123655
 20
3085.431598713262
 30
0.0
 11
7784.673057123654
 21
3085.431598713262
 31
0.0
  0
LINE
  5
17EFA
330
747D
100
AcDbEntity
  8
細線
 48
50.0
100
AcDbLine
 10
7384.673057123655
 20
3085.431598713262
 30
0.0
 11
7284.673057123654
 21
3085.431598713262
 31
0.0
  0
LINE
  5
17EFB
330
747D
100
AcDbEntity
  8
細線
 48
50.0
100
AcDbLine
 10
7284.673057123654
 20
3115.431598713261
 30
0.0
 11
7384.673057123655
 21
3115.431598713261
 31
0.0
  0
ARC
  5
17EFC
330
747D
100
AcDbEntity
  8
細線
 48
50.0
100
AcDbCircle
 10
7384.673057123655
 20
3100.431598713262
 30
0.0
 40
15.0
100
AcDbArc
 50
270.0
 51
90.0
  0
ARC
  5
17EFD
330
747D
100
AcDbEntity
  8
細線
 48
50.0
100
AcDbCircle
 10
7284.673057123654
 20
3100.431598713262
 30
0.0
 40
15.0
100
AcDbArc
 50
90.0
 51
270.0
  0
DIMENSION
  5
17EFE
330
747D
100
AcDbEntity
  8
寸法
 48
50.0
100
AcDbDimension
  2
*D34
 10
9159.673057123667
 20
5346.378484445256
 30
0.0
 11
6059.673057123651
 21
5346.378484445256
 31
0.0
 70
   160
 71
     5
 42
6200.000000000029
  3
INABA_S40G
100
AcDbAlignedDimension
 13
2959.673057123637
 23
4912.931598713267
 33
0.0
 14
9159.673057123667
 24
4912.931598713264
 34
0.0
100
AcDbRotatedDimension
  0
DIMENSION
  5
17EFF
330
747D
100
AcDbEntity
  8
寸法
 48
50.0
100
AcDbDimension
  2
*D33
 10
9109.673057123666
 20
5125.473183971505
 30
0.0
 11
9473.158338497901
 21
5125.473183971505
 31
0.0
 70
   160
 71
     5
 42
50.0
  3
INABA_S40G
100
AcDbAlignedDimension
 13
9159.673057123667
 23
4912.931598713264
 33
0.0
 14
9109.673057123666
 24
4912.931598713266
 34
0.0
100
AcDbRotatedDimension
  0
LINE
  5
17F2E
330
747D
100
AcDbEntity
  8
部品1
 48
50.0
100
AcDbLine
 10
9152.264636017234
 20
4912.931598713264
 30
0.0
 11
6049.673057123657
 21
4912.931598713264
 31
0.0
  0
LINE
  5
17F2F
330
747D
100
AcDbEntity
  8
部品1
 48
50.0
100
AcDbLine
 10
9139.049312556199
 20
4771.931598713265
 30
0.0
 11
6059.673057123657
 21
4771.931598713265
 31
0.0
  0
LINE
  5
17F30
330
747D
100
AcDbEntity
  8
細線
 48
50.0
100
AcDbLine
 10
9157.514406111749
 20
4884.904841276732
 30
0.0
 11
6049.673057123657
 21
4884.904841276739
 31
0.0
  0
LINE
  5
17F31
330
747D
100
AcDbEntity
  8
細線
 48
50.0
100
AcDbLine
 10
9149.278375586906
 20
4792.704841276732
 30
0.0
 11
6049.673057123657
 21
4792.704841277097
 31
0.0
  0
LINE
  5
17F32
330
747D
100
AcDbEntity
  8
部品1
100
AcDbLine
 10
9159.253396108331
 20
4905.535073318024
 30
0.0
 11
9158.119998775985
 21
4885.558945335425
 31
0.0
  0
LINE
  5
17F33
330
747D
100
AcDbEntity
  8
細線
 48
50.0
100
AcDbLine
 10
9126.673057123666
 20
4912.931598713264
 30
0.0
 11
9126.673057123666
 21
4771.931598713264
 31
0.0
  0
LINE
  5
17F35
330
747D
100
AcDbEntity
  8
部品1
100
AcDbLine
 10
9146.682978454411
 20
4789.901538168367
 30
0.0
 11
9146.038072647298
 21
4778.535073318026
 31
0.0
  0
LINE
  5
17F36
330
747D
100
AcDbEntity
  8
部品1
100
AcDbLine
 10
9154.919008979254
 20
4882.101538168367
 30
0.0
 11
9149.883968251144
 21
4793.358945335424
 31
0.0
  0
ARC
  5
17F37
330
747D
100
AcDbEntity
  8
部品1
 48
50.0
100
AcDbCircle
 10
9157.914191875439
 20
4881.931598713266
 30
0.0
 40
3.0
100
AcDbArc
 50
97.65812720736519
 51
176.7526572096623
  0
ARC
  5
17F38
330
747D
100
AcDbEntity
  8
部品1
 48
50.0
100
AcDbCircle
 10
9149.678161350596
 20
4789.731598713263
 30
0.0
 40
3.0
100
AcDbArc
 50
97.65812720736519
 51
176.7526572096623
  0
ARC
  5
17F39
330
747D
100
AcDbEntity
  8
部品1
 48
50.0
100
AcDbCircle
 10
9149.185092242033
 20
4793.398597874946
 30
0.0
 40
0.7
100
AcDbArc
 50
277.6581272073652
 51
356.7526572097143
  0
ARC
  5
17F3A
330
747D
100
AcDbEntity
  8
部品1
 48
50.0
100
AcDbCircle
 10
9157.421122766878
 20
4885.598597874952
 30
0.0
 40
0.7
100
AcDbArc
 50
277.6581272073652
 51
356.7526572096103
  0
ARC
  5
17F3B
330
747D
100
AcDbEntity
  8
部品1
100
AcDbCircle
 10
9139.049312556199
 20
4778.931598713266
 30
0.0
 40
7.0
100
AcDbArc
 50
270.0
 51
356.7526572096623
  0
ARC
  5
17F3C
330
747D
100
AcDbEntity
  8
部品1
100
AcDbCircle
 10
9152.264636017234
 20
4905.931598713264
 30
0.0
 40
7.0
100
AcDbArc
 50
356.7526572096623
 51
90.0
  0
LINE
  5
180D2
330
747D
100
AcDbEntity
  8
部品1
 48
50.0
100
AcDbLine
 10
6049.673057123657
 20
4771.931598713265
 30
0.0
 11
6049.673057123657
 21
4912.931598713264
 31
0.0
  0
LINE
  5
180D3
330
747D
100
AcDbEntity
  8
部品1
 48
50.0
100
AcDbLine
 10
6059.673057123656
 20
4512.931598713261
 30
0.0
 11
6059.673057123657
 21
4771.931598713265
 31
0.0
  0
LINE
  5
1817F
330
747D
100
AcDbEntity
  8
補助
  6
PHANTOM
 62
   230
 48
50.0
100
AcDbLine
 10
140.0
 20
0.0
 30
0.0
 11
139.9999999999995
 21
11409.6
 31
0.0
  0
DIMENSION
  5
183B0
330
747D
100
AcDbEntity
  8
寸法
 48
50.0
100
AcDbDimension
  2
*D35
 10
9397.216159445404
 20
4677.931598713261
 30
0.0
 11
9397.216159445404
 21
4916.416880087502
 31
0.0
 70
   160
 71
     5
 42
164.9999999999982
  3
INABA_S40G
100
AcDbAlignedDimension
 13
9109.673057123655
 23
4512.931598713263
 33
0.0
 14
9109.673057123655
 24
4677.931598713261
 34
0.0
 50
90.0
100
AcDbRotatedDimension
1001
ACAD
1000
DSTYLE
1002
{
1002
}
  0
DIMENSION
  5
183B1
330
747D
100
AcDbEntity
  8
寸法
 48
50.0
100
AcDbDimension
  2
*D36
 10
9397.216159445404
 20
4512.931598713263
 30
0.0
 11
9537.38598269177
 21
4513.89879855292
 31
0.0
 70
   160
 71
     5
 42
27.00000000000273
  3
INABA_S40G
100
AcDbAlignedDimension
 13
9109.673057123659
 23
4485.93159871326
 33
0.0
 14
9109.673057123655
 24
4512.931598713263
 34
0.0
 50
90.0
100
AcDbRotatedDimension
1001
ACAD
1000
DSTYLE
1002
{
1070
   279
1070
     2
1002
}
  0
DIMENSION
  5
183B2
330
747D
100
AcDbEntity
  8
寸法
 48
50.0
100
AcDbDimension
  2
*D37
 10
9397.216159445404
 20
4485.93159871326
 30
0.0
 11
9297.216159445401
 21
3511.931598713263
 31
0.0
 70
    32
  1
有効開口部高サ <>
 71
     5
 42
1947.999999999999
  3
INABA_S40G
100
AcDbAlignedDimension
 13
9109.673057123655
 23
2537.931598713262
 33
0.0
 14
9109.673057123659
 24
4485.93159871326
 34
0.0
 50
90.0
100
AcDbRotatedDimension
  0
ARC
  5
18815
330
747D
100
AcDbEntity
  8
部品1
 48
0.01
100
AcDbCircle
 10
4007.673057123645
 20
4741.931598713261
 30
0.0
 40
2.0
100
AcDbArc
 50
0.0
 51
90.0
  0
ARC
  5
18816
330
747D
100
AcDbEntity
  8
部品1
 48
0.01
100
AcDbCircle
 10
3831.673057123646
 20
4741.931598713261
 30
0.0
 40
2.0
100
AcDbArc
 50
90.0
 51
180.0
  0
LINE
  5
18817
330
747D
100
AcDbEntity
  8
細線
100
AcDbLine
 10
3919.673057123642
 20
4714.431598713261
 30
0.0
 11
3993.673057123646
 21
4714.431598713261
 31
0.0
  0
LINE
  5
18818
330
747D
100
AcDbEntity
  8
細線
100
AcDbLine
 10
3919.673057123646
 20
4737.431598713261
 30
0.0
 11
3845.673057123646
 21
4737.431598713261
 31
0.0
  0
LINE
  5
18819
330
747D
100
AcDbEntity
  8
細線
100
AcDbLine
 10
3845.673057123646
 20
4714.431598713261
 30
0.0
 11
3919.673057123646
 21
4714.431598713261
 31
0.0
  0
LINE
  5
1881A
330
747D
100
AcDbEntity
  8
細線
100
AcDbLine
 10
3993.673057123646
 20
4737.431598713261
 30
0.0
 11
3919.673057123646
 21
4737.431598713261
 31
0.0
  0
LINE
  5
1881B
330
747D
100
AcDbEntity
  8
細線
100
AcDbLine
 10
3993.673057123646
 20
4714.431598713261
 30
0.0
 11
3993.673057123646
 21
4737.431598713261
 31
0.0
  0
LINE
  5
1881C
330
747D
100
AcDbEntity
  8
細線
100
AcDbLine
 10
3845.673057123646
 20
4737.431598713261
 30
0.0
 11
3845.673057123646
 21
4714.431598713261
 31
0.0
  0
LINE
  5
1881D
330
747D
100
AcDbEntity
  8
部品1
 48
0.01
100
AcDbLine
 10
4009.673057123642
 20
4710.431598713261
 30
0.0
 11
4009.673057123645
 21
4741.931598713261
 31
0.0
  0
LINE
  5
1881E
330
747D
100
AcDbEntity
  8
部品1
 48
0.01
100
AcDbLine
 10
3829.673057123646
 20
4741.931598713261
 30
0.0
 11
3829.673057123646
 21
4710.431598713261
 31
0.0
  0
LINE
  5
1881F
330
747D
100
AcDbEntity
  8
部品1
 48
0.01
100
AcDbLine
 10
4007.673057123645
 20
4743.931598713261
 30
0.0
 11
3831.673057123646
 21
4743.931598713261
 31
0.0
  0
LINE
  5
18820
330
747D
100
AcDbEntity
  8
細線
100
AcDbLine
 10
3845.673057123646
 20
4731.431598713261
 30
0.0
 11
3919.673057123646
 21
4731.431598713261
 31
0.0
  0
LINE
  5
18821
330
747D
100
AcDbEntity
  8
細線
100
AcDbLine
 10
3845.673057123646
 20
4725.431598713261
 30
0.0
 11
3919.673057123646
 21
4725.431598713261
 31
0.0
  0
LINE
  5
18822
330
747D
100
AcDbEntity
  8
細線
100
AcDbLine
 10
3845.673057123642
 20
4719.431598713261
 30
0.0
 11
3919.673057123646
 21
4719.431598713261
 31
0.0
  0
LINE
  5
18823
330
747D
100
AcDbEntity
  8
細線
100
AcDbLine
 10
3845.673057123646
 20
4731.431598713261
 30
0.0
 11
3914.673057123646
 21
4731.431598713261
 31
0.0
  0
LINE
  5
18824
330
747D
100
AcDbEntity
  8
細線
100
AcDbLine
 10
3993.673057123642
 20
4731.431598713261
 30
0.0
 11
3919.673057123646
 21
4731.431598713261
 31
0.0
  0
LINE
  5
18825
330
747D
100
AcDbEntity
  8
細線
100
AcDbLine
 10
3993.673057123642
 20
4719.431598713261
 30
0.0
 11
3919.673057123646
 21
4719.431598713261
 31
0.0
  0
LINE
  5
18826
330
747D
100
AcDbEntity
  8
細線
100
AcDbLine
 10
3993.673057123642
 20
4725.431598713261
 30
0.0
 11
3919.673057123646
 21
4725.431598713261
 31
0.0
  0
LINE
  5
18827
330
747D
100
AcDbEntity
  8
細線
100
AcDbLine
 10
3919.673057123646
 20
4737.431598713261
 30
0.0
 11
3919.673057123642
 21
4714.431598713261
 31
0.0
  0
LINE
  5
18828
330
747D
100
AcDbEntity
  8
細線
100
AcDbLine
 10
5149.673057123646
 20
4737.431598713261
 30
0.0
 11
5149.673057123646
 21
4714.431598713261
 31
0.0
  0
LINE
  5
18829
330
747D
100
AcDbEntity
  8
細線
100
AcDbLine
 10
5075.673057123646
 20
4725.431598713261
 30
0.0
 11
5149.673057123646
 21
4725.431598713261
 31
0.0
  0
LINE
  5
1882A
330
747D
100
AcDbEntity
  8
細線
100
AcDbLine
 10
5075.673057123646
 20
4719.431598713261
 30
0.0
 11
5149.673057123646
 21
4719.431598713261
 31
0.0
  0
LINE
  5
1882B
330
747D
100
AcDbEntity
  8
細線
100
AcDbLine
 10
5075.673057123646
 20
4731.431598713261
 30
0.0
 11
5149.673057123646
 21
4731.431598713261
 31
0.0
  0
LINE
  5
1882C
330
747D
100
AcDbEntity
  8
細線
100
AcDbLine
 10
5223.673057123646
 20
4731.431598713261
 30
0.0
 11
5154.673057123646
 21
4731.431598713261
 31
0.0
  0
LINE
  5
1882D
330
747D
100
AcDbEntity
  8
細線
100
AcDbLine
 10
5223.673057123646
 20
4719.431598713261
 30
0.0
 11
5149.673057123646
 21
4719.431598713261
 31
0.0
  0
LINE
  5
1882E
330
747D
100
AcDbEntity
  8
細線
100
AcDbLine
 10
5223.673057123646
 20
4725.431598713261
 30
0.0
 11
5149.673057123646
 21
4725.431598713261
 31
0.0
  0
LINE
  5
1882F
330
747D
100
AcDbEntity
  8
細線
100
AcDbLine
 10
5223.673057123646
 20
4731.431598713261
 30
0.0
 11
5149.673057123646
 21
4731.431598713261
 31
0.0
  0
LINE
  5
18830
330
747D
100
AcDbEntity
  8
部品1
 48
0.01
100
AcDbLine
 10
5061.673057123646
 20
4743.931598713261
 30
0.0
 11
5237.673057123646
 21
4743.931598713261
 31
0.0
  0
LINE
  5
18831
330
747D
100
AcDbEntity
  8
部品1
 48
0.01
100
AcDbLine
 10
5239.673057123646
 20
4741.931598713261
 30
0.0
 11
5239.673057123646
 21
4710.431598713261
 31
0.0
  0
LINE
  5
18832
330
747D
100
AcDbEntity
  8
部品1
 48
0.01
100
AcDbLine
 10
5059.673057123646
 20
4710.431598713261
 30
0.0
 11
5059.673057123646
 21
4741.931598713261
 31
0.0
  0
LINE
  5
18833
330
747D
100
AcDbEntity
  8
細線
100
AcDbLine
 10
5223.673057123646
 20
4737.431598713261
 30
0.0
 11
5223.673057123646
 21
4714.431598713261
 31
0.0
  0
LINE
  5
18834
330
747D
100
AcDbEntity
  8
細線
100
AcDbLine
 10
5075.673057123646
 20
4714.431598713261
 30
0.0
 11
5075.673057123646
 21
4737.431598713261
 31
0.0
  0
LINE
  5
18835
330
747D
100
AcDbEntity
  8
細線
100
AcDbLine
 10
5075.673057123646
 20
4737.431598713261
 30
0.0
 11
5149.673057123646
 21
4737.431598713261
 31
0.0
  0
LINE
  5
18836
330
747D
100
AcDbEntity
  8
細線
100
AcDbLine
 10
5223.673057123646
 20
4714.431598713261
 30
0.0
 11
5149.673057123646
 21
4714.431598713261
 31
0.0
  0
LINE
  5
18837
330
747D
100
AcDbEntity
  8
細線
100
AcDbLine
 10
5149.673057123646
 20
4737.431598713261
 30
0.0
 11
5223.673057123646
 21
4737.431598713261
 31
0.0
  0
LINE
  5
18838
330
747D
100
AcDbEntity
  8
細線
100
AcDbLine
 10
5149.673057123646
 20
4714.431598713261
 30
0.0
 11
5075.673057123646
 21
4714.431598713261
 31
0.0
  0
ARC
  5
18839
330
747D
100
AcDbEntity
  8
部品1
 48
0.01
100
AcDbCircle
 10
5237.673057123646
 20
4741.931598713261
 30
0.0
 40
2.0
100
AcDbArc
 50
0.0
 51
90.0
  0
ARC
  5
1883A
330
747D
100
AcDbEntity
  8
部品1
 48
0.01
100
AcDbCircle
 10
5061.673057123646
 20
4741.931598713261
 30
0.0
 40
2.0
100
AcDbArc
 50
90.0
 51
180.0
  0
ARC
  5
1883B
330
747D
100
AcDbEntity
  8
部品1
 48
0.01
100
AcDbCircle
 10
4007.673057123642
 20
4710.431598713261
 30
0.0
 40
2.0
100
AcDbArc
 50
270.0
 51
0.0
  0
ARC
  5
1883C
330
747D
100
AcDbEntity
  8
部品1
 48
0.01
100
AcDbCircle
 10
3831.673057123646
 20
4710.431598713261
 30
0.0
 40
2.0
100
AcDbArc
 50
180.0
 51
270.0
  0
LINE
  5
1883D
330
747D
100
AcDbEntity
  8
部品1
 48
0.01
100
AcDbLine
 10
3831.673057123646
 20
4708.431598713261
 30
0.0
 11
4007.673057123642
 21
4708.431598713261
 31
0.0
  0
LINE
  5
1883E
330
747D
100
AcDbEntity
  8
部品1
 48
0.01
100
AcDbLine
 10
5237.673057123646
 20
4708.431598713261
 30
0.0
 11
5061.673057123646
 21
4708.431598713261
 31
0.0
  0
ARC
  5
1883F
330
747D
100
AcDbEntity
  8
部品1
 48
0.01
100
AcDbCircle
 10
5237.673057123646
 20
4710.431598713261
 30
0.0
 40
2.0
100
AcDbArc
 50
270.0
 51
0.0
  0
ARC
  5
18840
330
747D
100
AcDbEntity
  8
部品1
 48
0.01
100
AcDbCircle
 10
5061.673057123646
 20
4710.431598713261
 30
0.0
 40
2.0
100
AcDbArc
 50
180.0
 51
270.0
  0
ARC
  5
18841
330
747D
100
AcDbEntity
  8
部品1
 48
0.01
100
AcDbCircle
 10
8111.67305712366
 20
4710.431598713261
 30
0.0
 40
2.0
100
AcDbArc
 50
180.0
 51
270.0
  0
ARC
  5
18842
330
747D
100
AcDbEntity
  8
部品1
 48
0.01
100
AcDbCircle
 10
8287.67305712366
 20
4710.431598713261
 30
0.0
 40
2.0
100
AcDbArc
 50
270.0
 51
0.0
  0
LINE
  5
18843
330
747D
100
AcDbEntity
  8
部品1
 48
0.01
100
AcDbLine
 10
8287.67305712366
 20
4708.431598713261
 30
0.0
 11
8111.67305712366
 21
4708.431598713261
 31
0.0
  0
LINE
  5
18844
330
747D
100
AcDbEntity
  8
部品1
 48
0.01
100
AcDbLine
 10
6881.67305712366
 20
4708.431598713261
 30
0.0
 11
7057.673057123657
 21
4708.431598713261
 31
0.0
  0
ARC
  5
18845
330
747D
100
AcDbEntity
  8
部品1
 48
0.01
100
AcDbCircle
 10
6881.67305712366
 20
4710.431598713261
 30
0.0
 40
2.0
100
AcDbArc
 50
180.0
 51
270.0
  0
ARC
  5
18846
330
747D
100
AcDbEntity
  8
部品1
 48
0.01
100
AcDbCircle
 10
7057.673057123657
 20
4710.431598713261
 30
0.0
 40
2.0
100
AcDbArc
 50
270.0
 51
0.0
  0
ARC
  5
18847
330
747D
100
AcDbEntity
  8
部品1
 48
0.01
100
AcDbCircle
 10
8111.67305712366
 20
4741.931598713261
 30
0.0
 40
2.0
100
AcDbArc
 50
90.0
 51
180.0
  0
ARC
  5
18848
330
747D
100
AcDbEntity
  8
部品1
 48
0.01
100
AcDbCircle
 10
8287.67305712366
 20
4741.931598713261
 30
0.0
 40
2.0
100
AcDbArc
 50
0.0
 51
90.0
  0
LINE
  5
18849
330
747D
100
AcDbEntity
  8
細線
100
AcDbLine
 10
8199.673057123661
 20
4714.431598713261
 30
0.0
 11
8125.673057123661
 21
4714.431598713261
 31
0.0
  0
LINE
  5
1884A
330
747D
100
AcDbEntity
  8
細線
100
AcDbLine
 10
8199.673057123661
 20
4737.431598713261
 30
0.0
 11
8273.67305712366
 21
4737.431598713261
 31
0.0
  0
LINE
  5
1884B
330
747D
100
AcDbEntity
  8
細線
100
AcDbLine
 10
8273.67305712366
 20
4714.431598713261
 30
0.0
 11
8199.673057123661
 21
4714.431598713261
 31
0.0
  0
LINE
  5
1884C
330
747D
100
AcDbEntity
  8
細線
100
AcDbLine
 10
8125.673057123661
 20
4737.431598713261
 30
0.0
 11
8199.673057123661
 21
4737.431598713261
 31
0.0
  0
LINE
  5
1884D
330
747D
100
AcDbEntity
  8
細線
100
AcDbLine
 10
8125.673057123661
 20
4714.431598713261
 30
0.0
 11
8125.673057123661
 21
4737.431598713261
 31
0.0
  0
LINE
  5
1884E
330
747D
100
AcDbEntity
  8
細線
100
AcDbLine
 10
8273.67305712366
 20
4737.431598713261
 30
0.0
 11
8273.67305712366
 21
4714.431598713261
 31
0.0
  0
LINE
  5
1884F
330
747D
100
AcDbEntity
  8
部品1
 48
0.01
100
AcDbLine
 10
8109.673057123661
 20
4710.431598713261
 30
0.0
 11
8109.673057123661
 21
4741.931598713261
 31
0.0
  0
LINE
  5
18850
330
747D
100
AcDbEntity
  8
部品1
 48
0.01
100
AcDbLine
 10
8289.67305712366
 20
4741.931598713261
 30
0.0
 11
8289.67305712366
 21
4710.431598713261
 31
0.0
  0
LINE
  5
18851
330
747D
100
AcDbEntity
  8
部品1
 48
0.01
100
AcDbLine
 10
8111.67305712366
 20
4743.931598713261
 30
0.0
 11
8287.67305712366
 21
4743.931598713261
 31
0.0
  0
LINE
  5
18852
330
747D
100
AcDbEntity
  8
細線
100
AcDbLine
 10
8273.67305712366
 20
4731.431598713261
 30
0.0
 11
8199.673057123661
 21
4731.431598713261
 31
0.0
  0
LINE
  5
18853
330
747D
100
AcDbEntity
  8
細線
100
AcDbLine
 10
8273.67305712366
 20
4725.431598713261
 30
0.0
 11
8199.673057123661
 21
4725.431598713261
 31
0.0
  0
LINE
  5
18854
330
747D
100
AcDbEntity
  8
細線
100
AcDbLine
 10
8273.67305712366
 20
4719.431598713261
 30
0.0
 11
8199.673057123661
 21
4719.431598713261
 31
0.0
  0
LINE
  5
18855
330
747D
100
AcDbEntity
  8
細線
100
AcDbLine
 10
8273.67305712366
 20
4731.431598713261
 30
0.0
 11
8204.673057123661
 21
4731.431598713261
 31
0.0
  0
LINE
  5
18856
330
747D
100
AcDbEntity
  8
細線
100
AcDbLine
 10
8125.673057123661
 20
4731.431598713261
 30
0.0
 11
8199.673057123661
 21
4731.431598713261
 31
0.0
  0
LINE
  5
18857
330
747D
100
AcDbEntity
  8
細線
100
AcDbLine
 10
8125.673057123661
 20
4719.431598713261
 30
0.0
 11
8199.673057123661
 21
4719.431598713261
 31
0.0
  0
LINE
  5
18858
330
747D
100
AcDbEntity
  8
細線
100
AcDbLine
 10
8125.673057123661
 20
4725.431598713261
 30
0.0
 11
8199.673057123661
 21
4725.431598713261
 31
0.0
  0
LINE
  5
18859
330
747D
100
AcDbEntity
  8
細線
100
AcDbLine
 10
8199.673057123661
 20
4737.431598713261
 30
0.0
 11
8199.673057123661
 21
4714.431598713261
 31
0.0
  0
LINE
  5
1885A
330
747D
100
AcDbEntity
  8
細線
100
AcDbLine
 10
6969.67305712366
 20
4737.431598713261
 30
0.0
 11
6969.673057123657
 21
4714.431598713261
 31
0.0
  0
LINE
  5
1885B
330
747D
100
AcDbEntity
  8
細線
100
AcDbLine
 10
7043.673057123656
 20
4725.431598713261
 30
0.0
 11
6969.67305712366
 21
4725.431598713261
 31
0.0
  0
LINE
  5
1885C
330
747D
100
AcDbEntity
  8
細線
100
AcDbLine
 10
7043.673057123656
 20
4719.431598713261
 30
0.0
 11
6969.67305712366
 21
4719.431598713261
 31
0.0
  0
LINE
  5
1885D
330
747D
100
AcDbEntity
  8
細線
100
AcDbLine
 10
7043.673057123656
 20
4731.431598713261
 30
0.0
 11
6969.67305712366
 21
4731.431598713261
 31
0.0
  0
LINE
  5
1885E
330
747D
100
AcDbEntity
  8
細線
100
AcDbLine
 10
6895.67305712366
 20
4731.431598713261
 30
0.0
 11
6964.67305712366
 21
4731.431598713261
 31
0.0
  0
LINE
  5
1885F
330
747D
100
AcDbEntity
  8
細線
100
AcDbLine
 10
6895.673057123656
 20
4719.431598713261
 30
0.0
 11
6969.67305712366
 21
4719.431598713261
 31
0.0
  0
LINE
  5
18860
330
747D
100
AcDbEntity
  8
細線
100
AcDbLine
 10
6895.67305712366
 20
4725.431598713261
 30
0.0
 11
6969.67305712366
 21
4725.431598713261
 31
0.0
  0
LINE
  5
18861
330
747D
100
AcDbEntity
  8
細線
100
AcDbLine
 10
6895.67305712366
 20
4731.431598713261
 30
0.0
 11
6969.67305712366
 21
4731.431598713261
 31
0.0
  0
LINE
  5
18862
330
747D
100
AcDbEntity
  8
部品1
 48
0.01
100
AcDbLine
 10
7057.673057123661
 20
4743.931598713261
 30
0.0
 11
6881.67305712366
 21
4743.931598713261
 31
0.0
  0
LINE
  5
18863
330
747D
100
AcDbEntity
  8
部品1
 48
0.01
100
AcDbLine
 10
6879.67305712366
 20
4741.931598713261
 30
0.0
 11
6879.67305712366
 21
4710.431598713261
 31
0.0
  0
LINE
  5
18864
330
747D
100
AcDbEntity
  8
部品1
 48
0.01
100
AcDbLine
 10
7059.673057123657
 20
4710.431598713261
 30
0.0
 11
7059.67305712366
 21
4741.931598713261
 31
0.0
  0
LINE
  5
18865
330
747D
100
AcDbEntity
  8
細線
100
AcDbLine
 10
6895.67305712366
 20
4737.431598713261
 30
0.0
 11
6895.67305712366
 21
4714.431598713261
 31
0.0
  0
LINE
  5
18866
330
747D
100
AcDbEntity
  8
細線
100
AcDbLine
 10
7043.673057123661
 20
4714.431598713261
 30
0.0
 11
7043.673057123661
 21
4737.431598713261
 31
0.0
  0
LINE
  5
18867
330
747D
100
AcDbEntity
  8
細線
100
AcDbLine
 10
7043.673057123661
 20
4737.431598713261
 30
0.0
 11
6969.67305712366
 21
4737.431598713261
 31
0.0
  0
LINE
  5
18868
330
747D
100
AcDbEntity
  8
細線
100
AcDbLine
 10
6895.67305712366
 20
4714.431598713261
 30
0.0
 11
6969.67305712366
 21
4714.431598713261
 31
0.0
  0
LINE
  5
18869
330
747D
100
AcDbEntity
  8
細線
100
AcDbLine
 10
6969.67305712366
 20
4737.431598713261
 30
0.0
 11
6895.67305712366
 21
4737.431598713261
 31
0.0
  0
LINE
  5
1886A
330
747D
100
AcDbEntity
  8
細線
100
AcDbLine
 10
6969.673057123657
 20
4714.431598713261
 30
0.0
 11
7043.673057123661
 21
4714.431598713261
 31
0.0
  0
ARC
  5
1886B
330
747D
100
AcDbEntity
  8
部品1
 48
0.01
100
AcDbCircle
 10
6881.67305712366
 20
4741.931598713261
 30
0.0
 40
2.0
100
AcDbArc
 50
90.0
 51
180.0
  0
ARC
  5
1886C
330
747D
100
AcDbEntity
  8
部品1
 48
0.01
100
AcDbCircle
 10
7057.673057123661
 20
4741.931598713261
 30
0.0
 40
2.0
100
AcDbArc
 50
0.0
 51
90.0
  0
LINE
  5
18955
330
747D
100
AcDbEntity
  8
仕様書枠
 48
50.0
100
AcDbLine
 10
16307.19999999998
 20
8689.6
 30
0.0
 11
13127.19999999999
 21
8689.600000000003
 31
0.0
  0
LINE
  5
1898D
102
{ACAD_REACTORS
330
189A5
102
}
330
747D
100
AcDbEntity
  8
部品1
100
AcDbLine
 10
6004.67305712346
 20
9406.954496809968
 30
0.0
 11
6004.673057123457
 21
10068.45449680999
 31
0.0
  0
LINE
  5
1898E
102
{ACAD_REACTORS
330
189A5
102
}
330
747D
100
AcDbEntity
  8
部品1
 48
10.0
100
AcDbLine
 10
5979.673057123453
 20
9406.954496809968
 30
0.0
 11
5979.673057123449
 21
10068.45449680999
 31
0.0
  0
LINE
  5
1898F
102
{ACAD_REACTORS
330
189A5
102
}
330
747D
100
AcDbEntity
  8
部品1
100
AcDbLine
 10
6031.673057123446
 20
10095.45449681009
 30
0.0
 11
6031.673057123442
 21
9406.954496809968
 31
0.0
  0
LINE
  5
18990
102
{ACAD_REACTORS
330
189A5
102
}
330
747D
100
AcDbEntity
  8
部品1
 48
50.0
100
AcDbLine
 10
6034.673057123431
 20
10068.45449323295
 30
0.0
 11
6034.673057123431
 21
9407.954493232955
 31
0.0
  0
LINE
  5
18991
102
{ACAD_REACTORS
330
189A5
102
}
330
747D
100
AcDbEntity
  8
部品1
100
AcDbLine
 10
6084.673057123431
 20
9685.13047666981
 30
0.0
 11
6034.67305712343
 21
9679.954493232955
 31
0.0
  0
LINE
  5
18992
102
{ACAD_REACTORS
330
189A5
102
}
330
747D
100
AcDbEntity
  8
部品1
100
AcDbLine
 10
6084.673057123431
 20
9644.7785097961
 30
0.0
 11
6034.67305712343
 21
9649.954493232954
 31
0.0
  0
LINE
  5
18993
102
{ACAD_REACTORS
330
189A5
102
}
330
747D
100
AcDbEntity
  8
部品1
100
AcDbLine
 10
6034.673057123431
 20
9489.954493232954
 30
0.0
 11
6084.673057123429
 21
9502.66635763973
 31
0.0
  0
LINE
  5
18994
102
{ACAD_REACTORS
330
189A5
102
}
330
747D
100
AcDbEntity
  8
部品1
 48
50.0
100
AcDbLine
 10
6034.673057123431
 20
9407.954493232955
 30
0.0
 11
6084.673057123431
 21
9407.954493232955
 31
0.0
  0
LINE
  5
18995
102
{ACAD_REACTORS
330
189A5
102
}
330
747D
100
AcDbEntity
  8
部品1
 48
50.0
100
AcDbLine
 10
5979.673057123453
 20
9406.954496809968
 30
0.0
 11
6139.673057123442
 21
9406.954496809975
 31
0.0
  0
LINE
  5
18996
102
{ACAD_REACTORS
330
189A5
102
}
330
747D
100
AcDbEntity
  8
部品1
 48
50.0
100
AcDbLine
 10
6084.673057123431
 20
9407.954493232955
 30
0.0
 11
6084.673057123431
 21
10068.45449323295
 31
0.0
  0
LINE
  5
18997
102
{ACAD_REACTORS
330
189A5
102
}
330
747D
100
AcDbEntity
  8
部品1
100
AcDbLine
 10
6087.673057123442
 20
9406.954496809968
 30
0.0
 11
6087.673057123449
 21
10123.45449681004
 31
0.0
  0
LINE
  5
18998
102
{ACAD_REACTORS
330
189A5
102
}
330
747D
100
AcDbEntity
  8
部品1
100
AcDbLine
 10
6114.673057123464
 20
9406.954496809968
 30
0.0
 11
6114.673057123457
 21
10068.45449680999
 31
0.0
  0
LINE
  5
18999
102
{ACAD_REACTORS
330
189A5
102
}
330
747D
100
AcDbEntity
  8
部品1
 48
10.0
100
AcDbLine
 10
6139.673057123442
 20
9406.954496809975
 30
0.0
 11
6139.673057123431
 21
10068.45449681001
 31
0.0
  0
LINE
  5
1899A
102
{ACAD_REACTORS
330
189A5
102
}
330
747D
100
AcDbEntity
  8
部品1
100
AcDbLine
 10
6004.673057123667
 20
10123.45449681022
 30
0.0
 11
6004.673057123667
 21
10095.45449681022
 31
0.0
  0
LINE
  5
1899B
102
{ACAD_REACTORS
330
189A5
102
}
330
747D
100
AcDbEntity
  8
部品1
 48
50.0
100
AcDbLine
 10
6114.673054879813
 20
10123.45449323295
 30
0.0
 11
6004.673057123667
 21
10123.45449681022
 31
0.0
  0
LINE
  5
1899C
102
{ACAD_REACTORS
330
189A5
102
}
330
747D
100
AcDbEntity
  8
部品1
100
AcDbLine
 10
6114.673057123663
 20
10123.45449681013
 30
0.0
 11
6114.673057123663
 21
10095.45449681013
 31
0.0
  0
LINE
  5
1899D
102
{ACAD_REACTORS
330
189A5
102
}
330
747D
100
AcDbEntity
  8
部品1
 48
50.0
100
AcDbLine
 10
6087.673057123635
 20
10068.45449681014
 30
0.0
 11
6087.6730571237
 21
10123.45449681017
 31
0.0
  0
LINE
  5
1899E
102
{ACAD_REACTORS
330
189A5
102
}
330
747D
100
AcDbEntity
  8
部品1
 48
50.0
100
AcDbLine
 10
6059.673057123632
 20
10095.45449681017
 30
0.0
 11
6031.673057123635
 21
10123.45449681022
 31
0.0
  0
LINE
  5
1899F
102
{ACAD_REACTORS
330
189A5
102
}
330
747D
100
AcDbEntity
  8
部品1
 48
50.0
100
AcDbLine
 10
6031.673057123635
 20
10095.45449681017
 30
0.0
 11
6059.673057123632
 21
10095.45449681017
 31
0.0
  0
LINE
  5
189A0
102
{ACAD_REACTORS
330
189A5
102
}
330
747D
100
AcDbEntity
  8
部品1
 48
50.0
100
AcDbLine
 10
6031.673057123635
 20
10095.45449681027
 30
0.0
 11
6031.673057123631
 21
10123.45449681022
 31
0.0
  0
LINE
  5
189A1
102
{ACAD_REACTORS
330
189A5
102
}
330
747D
100
AcDbEntity
  8
部品1
 48
50.0
100
AcDbLine
 10
6004.673057123457
 20
10068.45449680999
 30
0.0
 11
6031.673057123635
 21
10095.45449681017
 31
0.0
  0
LINE
  5
189A2
102
{ACAD_REACTORS
330
189A5
102
}
330
747D
100
AcDbEntity
  8
部品1
 48
50.0
100
AcDbLine
 10
6031.673057123635
 20
10068.45449681014
 30
0.0
 11
6031.673057123635
 21
10095.45449681017
 31
0.0
  0
LINE
  5
189A3
102
{ACAD_REACTORS
330
189A5
102
}
330
747D
100
AcDbEntity
  8
部品1
 48
50.0
100
AcDbLine
 10
6087.673057123635
 20
10068.4544968102
 30
0.0
 11
6031.673057123633
 21
10068.4544968102
 31
0.0
  0
LINE
  5
189A4
102
{ACAD_REACTORS
330
189A5
102
}
330
747D
100
AcDbEntity
  8
部品1
 48
50.0
100
AcDbLine
 10
6114.673057123457
 20
10068.45449681007
 30
0.0
 11
6087.673057123449
 21
10095.45449681008
 31
0.0
  0
LINE
  5
189A6
330
747D
100
AcDbEntity
  8
部品1
100
AcDbLine
 10
6087.673057123449
 20
10068.45449681014
 30
0.0
 11
6031.673057123445
 21
10068.45449681014
 31
0.0
  0
LINE
  5
189A7
330
747D
100
AcDbEntity
  8
部品1
100
AcDbLine
 10
6004.673057123457
 20
10068.45449681014
 30
0.0
 11
3064.673057123637
 21
10068.45449681014
 31
0.0
  0
LINE
  5
189A8
330
747D
100
AcDbEntity
  8
部品1
 48
50.0
100
AcDbLine
 10
5979.673057123449
 20
10043.45449680996
 30
0.0
 11
3089.673057123637
 21
10043.45449680993
 31
0.0
  0
TEXT
  5
18A6A
330
747D
100
AcDbEntity
  8
文字
 62
     7
 48
50.0
100
AcDbText
 10
13248.77747366448
 20
8720.013745883727
 30
0.0
 40
100.0
  1
14
  7
STYLE1
100
AcDbText
  0
TEXT
  5
18A6B
330
747D
100
AcDbEntity
  8
文字
 62
     7
 48
50.0
100
AcDbText
 10
13583.11819016569
 20
9230.013745883729
 30
0.0
 40
100.0
  1
梁中補強パネル
  7
STYLE1
100
AcDbText
  0
TEXT
  5
18A6C
330
747D
100
AcDbEntity
  8
文字
 62
     7
 48
50.0
100
AcDbText
 10
15022.63965474516
 20
9230.013745883725
 30
0.0
 40
100.0
  1
F12         0.7+1.2
  7
STYLE1
100
AcDbText
  0
DIMENSION
  5
18A7E
330
747D
100
AcDbEntity
  8
寸法
 48
50.0
100
AcDbDimension
  2
*D40
 10
6396.514419628122
 20
10123.4545003874
 30
0.0
 11
6296.51441962812
 21
9765.204500387321
 31
0.0
 70
    32
 71
     5
 42
716.5000000001546
  3
INABA_S40G
100
AcDbAlignedDimension
 13
6139.673059367295
 23
9406.954500387243
 33
0.0
 14
6114.67305936752
 24
10123.4545003874
 34
0.0
 50
90.0
100
AcDbRotatedDimension
1001
ACAD
1000
DSTYLE
1002
{
1070
   279
1070
     2
1070
   341
1005
0
1002
}
  0
TEXT
  5
18AAB
330
747D
100
AcDbEntity
  8
文字
 62
     7
 48
50.0
100
AcDbText
 10
14646.46056207479
 20
871.9640646083623
 30
0.0
 40
100.0
  1
～多雪地型～
  7
STYLE2
100
AcDbText
  0
LINE
  5
18AD4
330
747D
100
AcDbEntity
  8
破線
 48
5.0
100
AcDbLine
 10
6009.673057123643
 20
2187.931598713261
 30
0.0
 11
6109.673057123643
 21
2187.931598713261
 31
0.0
  0
LINE
  5
18AD5
330
747D
100
AcDbEntity
  8
破線
 48
5.0
100
AcDbLine
 10
6059.673057123643
 20
2262.931598713262
 30
0.0
 11
6059.673057123643
 21
2187.931598713261
 31
0.0
  0
LINE
  5
18AD6
330
747D
100
AcDbEntity
  8
破線
 48
5.0
100
AcDbLine
 10
5956.673057123642
 20
2537.931598713262
 30
0.0
 11
5956.673057123644
 21
2287.931598713262
 31
0.0
  0
LINE
  5
18AD7
330
747D
100
AcDbEntity
  8
破線
 48
5.0
100
AcDbLine
 10
6004.673057123646
 20
2287.931598713262
 30
0.0
 11
5956.673057123644
 21
2287.931598713262
 31
0.0
  0
LINE
  5
18AD8
330
747D
100
AcDbEntity
  8
破線
 48
5.0
100
AcDbLine
 10
6004.673057123643
 20
2537.931598713262
 30
0.0
 11
6004.673057123645
 21
2262.931598713262
 31
0.0
  0
LINE
  5
18AD9
330
747D
100
AcDbEntity
  8
破線
 48
5.0
100
AcDbLine
 10
6114.673057123642
 20
2262.931598713262
 30
0.0
 11
6004.673057123643
 21
2262.931598713262
 31
0.0
  0
LINE
  5
18ADA
330
747D
100
AcDbEntity
  8
破線
 48
5.0
100
AcDbLine
 10
6162.673057123644
 20
2537.931598713262
 30
0.0
 11
6162.673057123641
 21
2287.931598713267
 31
0.0
  0
LINE
  5
18ADB
330
747D
100
AcDbEntity
  8
破線
 48
5.0
100
AcDbLine
 10
6162.673057123642
 20
2287.931598713267
 30
0.0
 11
6114.673057123642
 21
2287.931598713267
 31
0.0
  0
LINE
  5
18ADC
330
747D
100
AcDbEntity
  8
破線
 48
5.0
100
AcDbLine
 10
6114.673057123644
 20
2537.931598713262
 30
0.0
 11
6114.673057123643
 21
2262.931598713262
 31
0.0
  0
LINE
  5
18AF2
330
747D
100
AcDbEntity
  8
破線
 48
5.0
100
AcDbLine
 10
3112.673057123642
 20
2537.931598713262
 30
0.0
 11
3112.673057123642
 21
2287.931598713267
 31
0.0
  0
LINE
  5
18AF3
330
747D
100
AcDbEntity
  8
破線
 48
5.0
100
AcDbLine
 10
3112.673057123642
 20
2537.931598713262
 30
0.0
 11
3112.673057123642
 21
2287.931598713267
 31
0.0
  0
LINE
  5
18AF4
330
747D
100
AcDbEntity
  8
破線
 48
5.0
100
AcDbLine
 10
3112.673057123642
 20
2287.931598713267
 30
0.0
 11
3064.673057123642
 21
2287.931598713267
 31
0.0
  0
LINE
  5
18AF5
330
747D
100
AcDbEntity
  8
破線
 48
5.0
100
AcDbLine
 10
3112.673057123642
 20
2287.931598713267
 30
0.0
 11
3064.673057123642
 21
2287.931598713267
 31
0.0
  0
LINE
  5
18AF6
330
747D
100
AcDbEntity
  8
破線
 48
5.0
100
AcDbLine
 10
3064.673057123642
 20
2187.931598713269
 30
0.0
 11
3009.673057123642
 21
2187.931598713269
 31
0.0
  0
LINE
  5
18AF7
330
747D
100
AcDbEntity
  8
破線
 48
5.0
100
AcDbLine
 10
3009.673057123642
 20
2437.931598713261
 30
0.0
 11
3009.673057123642
 21
2187.931598713261
 31
0.0
  0
LINE
  5
18AF8
330
747D
100
AcDbEntity
  8
破線
 48
5.0
100
AcDbLine
 10
3064.673057123642
 20
2537.931598713262
 30
0.0
 11
3064.673057123642
 21
2187.931598713261
 31
0.0
  0
LINE
  5
18AF9
330
747D
100
AcDbEntity
  8
破線
 48
5.0
100
AcDbLine
 10
3064.673057123642
 20
2537.931598713262
 30
0.0
 11
3064.673057123642
 21
2187.931598713261
 31
0.0
  0
LINE
  5
18B0C
330
747D
100
AcDbEntity
  8
破線
 48
5.0
100
AcDbLine
 10
9054.673057123656
 20
2537.931598713262
 30
0.0
 11
9054.673057123656
 21
2187.931598713261
 31
0.0
  0
LINE
  5
18B0D
330
747D
100
AcDbEntity
  8
破線
 48
5.0
100
AcDbLine
 10
9109.673057123655
 20
2437.931598713261
 30
0.0
 11
9109.673057123655
 21
2187.931598713261
 31
0.0
  0
LINE
  5
18B0E
330
747D
100
AcDbEntity
  8
破線
 48
5.0
100
AcDbLine
 10
9109.673057123655
 20
2187.931598713261
 30
0.0
 11
9054.673057123656
 21
2187.931598713261
 31
0.0
  0
LINE
  5
18B0F
330
747D
100
AcDbEntity
  8
破線
 48
5.0
100
AcDbLine
 10
9006.673057123656
 20
2537.931598713262
 30
0.0
 11
9006.673057123656
 21
2287.931598713262
 31
0.0
  0
LINE
  5
18B10
330
747D
100
AcDbEntity
  8
破線
 48
5.0
100
AcDbLine
 10
9054.673057123661
 20
2287.931598713262
 30
0.0
 11
9006.673057123656
 21
2287.931598713262
 31
0.0
  0
TEXT
  5
18B75
330
747D
100
AcDbEntity
  8
文字
 62
     7
 48
50.0
100
AcDbText
 10
15022.63965474516
 20
8890.013745883726
 30
0.0
 40
100.0
  1
F12            0.7
  7
STYLE1
100
AcDbText
  0
ENDSEC
  0
SECTION
  2
OBJECTS
  0
DICTIONARY
  5
7471
330
0
100
AcDbDictionary
281
     1
  3
ACAD_COLOR
350
17472
  3
ACAD_GROUP
350
7472
  3
ACAD_LAYOUT
350
17473
  3
ACAD_MATERIAL
350
17471
  3
ACAD_MLINESTYLE
350
7473
  3
ACAD_PLOTSETTINGS
350
17474
  3
ACAD_PLOTSTYLENAME
350
1746F
  3
ACDBHEADERROUNDTRIPXREC
350
18BC5
  3
AcDbVariableDictionary
350
18BC1
  3
CONTENTDICTIONARY
350
E71C
  3
DRAWINGVARIABLESDICT
350
F3B9
  0
DICTIONARY
  5
17816
330
7467
100
AcDbDictionary
280
     1
281
     1
  3
ACAD_LAYERSTATES
360
17817
  0
DICTIONARY
  5
17472
102
{ACAD_REACTORS
330
7471
102
}
330
7471
100
AcDbDictionary
281
     1
  0
DICTIONARY
  5
7472
102
{ACAD_REACTORS
330
7471
102
}
330
7471
100
AcDbDictionary
281
     1
  3
*A1
350
189A5
  3
*A2
350
18A5F
  0
DICTIONARY
  5
17473
102
{ACAD_REACTORS
330
7471
102
}
330
7471
100
AcDbDictionary
281
     1
  3
Model
350
17475
  3
レイアウト1
350
17476
  0
DICTIONARY
  5
17471
102
{ACAD_REACTORS
330
7471
102
}
330
7471
100
AcDbDictionary
281
     1
  0
DICTIONARY
  5
7473
102
{ACAD_REACTORS
330
7471
102
}
330
7471
100
AcDbDictionary
281
     1
  3
STANDARD
350
7480
  0
DICTIONARY
  5
17474
102
{ACAD_REACTORS
330
7471
102
}
330
7471
100
AcDbDictionary
281
     1
  0
ACDBDICTIONARYWDFLT
  5
1746F
102
{ACAD_REACTORS
330
7471
102
}
330
7471
100
AcDbDictionary
281
     1
  3
Normal
350
17470
100
AcDbDictionaryWithDefault
340
17470
  0
DICTIONARY
  5
18BC5
102
{ACAD_REACTORS
330
7471
102
}
330
7471
100
AcDbDictionary
281
     1
  3
COLORDICT
350
18BC7
  3
MATERIALDICT
350
18BC6
  0
DICTIONARY
  5
18BC1
102
{ACAD_REACTORS
330
7471
102
}
330
7471
100
AcDbDictionary
281
     1
  3
DIMASSOC
350
18BC2
  3
PROJECTNAME
350
18BC3
  0
DICTIONARY
  5
E71C
102
{ACAD_REACTORS
330
7471
102
}
330
7471
100
AcDbDictionary
281
     1
  0
DICTIONARY
  5
F3B9
102
{ACAD_REACTORS
330
7471
102
}
330
7471
100
AcDbDictionary
281
     1
1001
DRAWINGVARIABLESXDATA
1000
POLARMODE
1000
1
  0
DICTIONARY
  5
17817
102
{ACAD_REACTORS
330
17816
102
}
330
17816
100
AcDbDictionary
281
     1
  0
GROUP
  5
189A5
102
{ACAD_REACTORS
330
7472
102
}
330
7472
100
AcDbGroup
300

 70
     1
 71
     1
340
189A4
340
189A3
340
189A2
340
189A1
340
189A0
340
1899F
340
1899E
340
1899D
340
1899C
340
1899B
340
1899A
340
18999
340
18998
340
18997
340
18996
340
18995
340
18994
340
18993
340
18992
340
18991
340
18990
340
1898F
340
1898E
340
1898D
  0
GROUP
  5
18A5F
102
{ACAD_REACTORS
330
7472
102
}
330
7472
100
AcDbGroup
300

 70
     1
 71
     1
  0
LAYOUT
  5
17475
102
{ACAD_XDICTIONARY
360
18BC8
102
}
102
{ACAD_REACTORS
330
17473
102
}
330
17473
100
AcDbPlotSettings
  1

  2
クセロPDF
  4
A3
  6

 40
3.174999999999999
 41
3.174999999999999
 42
3.174987999999999
 43
3.174987999999999
 44
419.946655
 45
296.925995
 46
0.0
 47
0.0
 48
0.0
 49
0.0
140
0.0
141
0.0
142
1.0
143
40.44561299368567
 70
 11952
 72
     1
 73
     0
 74
     2
  7
inaba.ctb
 75
     0
147
0.0247245603659442
148
183.0179068595971
149
160.3342785227505
100
AcDbLayout
  1
Model
 70
     1
 71
     0
 10
0.0
 20
0.0
 11
12.0
 21
9.0
 12
0.0
 22
0.0
 32
0.0
 14
0.0
 24
0.0
 34
0.0
 15
0.0
 25
0.0
 35
0.0
146
0.0
 13
0.0
 23
0.0
 33
0.0
 16
1.0
 26
0.0
 36
0.0
 17
0.0
 27
1.0
 37
0.0
 76
     0
330
747D
  0
LAYOUT
  5
17476
102
{ACAD_XDICTIONARY
360
18BCA
102
}
102
{ACAD_REACTORS
330
17473
102
}
330
17473
100
AcDbPlotSettings
  1

  2
EPSON LP-8300
  4

  6

 40
0.0
 41
0.0
 42
0.0
 43
0.0
 44
0.0
 45
0.0
 46
0.0
 47
0.0
 48
0.0
 49
0.0
140
0.0
141
0.0
142
1.0
143
1.0
 70
   688
 72
     0
 73
     0
 74
     5
  7
inaba.ctb
 75
    16
147
1.0
148
0.0
149
0.0
100
AcDbLayout
  1
レイアウト1
 70
     0
 71
     1
 10
0.0
 20
0.0
 11
420.0
 21
297.0
 12
0.0
 22
0.0
 32
0.0
 14
1.000000000000000E+20
 24
1.000000000000000E+20
 34
1.000000000000000E+20
 15
-1.000000000000000E+20
 25
-1.000000000000000E+20
 35
-1.000000000000000E+20
146
0.0
 13
0.0
 23
0.0
 33
0.0
 16
1.0
 26
0.0
 36
0.0
 17
0.0
 27
1.0
 37
0.0
 76
     0
330
747A
  0
MLINESTYLE
  5
7480
102
{ACAD_REACTORS
330
7473
102
}
330
7473
100
AcDbMlineStyle
  2
STANDARD
 70
     0
  3

 62
     0
 51
90.0
 52
90.0
 71
     2
 49
0.5
 62
   256
  6
BYLAYER
 49
-0.5
 62
   256
  6
BYLAYER
  0
ACDBPLACEHOLDER
  5
17470
102
{ACAD_REACTORS
330
1746F
102
}
330
1746F
  0
XRECORD
  5
18BC7
102
{ACAD_REACTORS
330
18BC5
102
}
330
18BC5
100
AcDbXrecord
280
     1
340
17472
  0
XRECORD
  5
18BC6
102
{ACAD_REACTORS
330
18BC5
102
}
330
18BC5
100
AcDbXrecord
280
     1
340
17471
  0
DICTIONARYVAR
  5
18BC2
102
{ACAD_REACTORS
330
18BC1
102
}
330
18BC1
100
DictionaryVariables
280
     0
  1
1
  0
DICTIONARYVAR
  5
18BC3
102
{ACAD_REACTORS
330
18BC1
102
}
330
18BC1
100
DictionaryVariables
280
     0
  1

  0
DICTIONARY
  5
18BC8
330
17475
100
AcDbDictionary
280
     1
281
     1
  3
ACAD_XREC_ROUNDTRIP
360
18BC9
  0
DICTIONARY
  5
18BCA
330
17476
100
AcDbDictionary
280
     1
281
     1
  3
ACAD_XREC_ROUNDTRIP
360
18BCB
  0
XRECORD
  5
18BC9
102
{ACAD_REACTORS
330
18BC8
102
}
330
18BC8
100
AcDbXrecord
280
     1
102
SHADEPLOT
 70
     1
102
SHADEPLOTRESLEVEL
 70
     2
102
SHADEPLOTCUSTOMDPI
 70
   300
  0
XRECORD
  5
18BCB
102
{ACAD_REACTORS
330
18BCA
102
}
330
18BCA
100
AcDbXrecord
280
     1
102
SHADEPLOT
 70
     0
102
SHADEPLOTRESLEVEL
 70
     2
102
SHADEPLOTCUSTOMDPI
 70
   300
  0
ENDSEC
  0
EOF
