  0
SECTION
  2
HEADER
  9
$ACADVER
  1
AC1015
  9
$ACADMAINTVER
 70
    20
  9
$DWGCODEPAGE
  3
ANSI_932
  9
$INSBASE
 10
0.0
 20
0.0
 30
0.0
  9
$EXTMIN
 10
139.9999999999995
 20
-0.0000000000000909
 30
0.0
  9
$EXTMAX
 10
16307.2
 20
11409.6
 30
0.0
  9
$LIMMIN
 10
0.0
 20
0.0
  9
$LIMMAX
 10
16800.0
 20
11880.0
  9
$ORTHOMODE
 70
     0
  9
$REGENMODE
 70
     1
  9
$FILLMODE
 70
     1
  9
$QTEXTMODE
 70
     0
  9
$MIRRTEXT
 70
     1
  9
$LTSCALE
 40
20.0
  9
$ATTMODE
 70
     1
  9
$TEXTSIZE
 40
100.0
  9
$TRACEWID
 40
1.0
  9
$TEXTSTYLE
  7
STYLE2
  9
$CLAYER
  8
部品1
  9
$CELTYPE
  6
BYLAYER
  9
$CECOLOR
 62
   256
  9
$CELTSCALE
 40
50.0
  9
$DISPSILH
 70
     0
  9
$DIMSCALE
 40
40.0
  9
$DIMASZ
 40
2.5
  9
$DIMEXO
 40
0.5
  9
$DIMDLI
 40
7.0
  9
$DIMRND
 40
0.0
  9
$DIMDLE
 40
0.0
  9
$DIMEXE
 40
1.5
  9
$DIMTP
 40
0.0
  9
$DIMTM
 40
0.0
  9
$DIMTXT
 40
3.0
  9
$DIMCEN
 40
0.0
  9
$DIMTSZ
 40
0.0
  9
$DIMTOL
 70
     0
  9
$DIMLIM
 70
     0
  9
$DIMTIH
 70
     0
  9
$DIMTOH
 70
     0
  9
$DIMSE1
 70
     0
  9
$DIMSE2
 70
     0
  9
$DIMTAD
 70
     3
  9
$DIMZIN
 70
     8
  9
$DIMBLK
  1

  9
$DIMASO
 70
     1
  9
$DIMSHO
 70
     1
  9
$DIMPOST
  1

  9
$DIMAPOST
  1

  9
$DIMALT
 70
     0
  9
$DIMALTD
 70
     2
  9
$DIMALTF
 40
0.0394
  9
$DIMLFAC
 40
1.0
  9
$DIMTOFL
 70
     1
  9
$DIMTVP
 40
0.0
  9
$DIMTIX
 70
     1
  9
$DIMSOXD
 70
     0
  9
$DIMSAH
 70
     1
  9
$DIMBLK1
  1
DOTSMALL
  9
$DIMBLK2
  1
DOTSMALL
  9
$DIMSTYLE
  2
INABA_S40G
  9
$DIMCLRD
 70
     0
  9
$DIMCLRE
 70
     0
  9
$DIMCLRT
 70
     7
  9
$DIMTFAC
 40
1.0
  9
$DIMGAP
 40
1.0
  9
$DIMJUST
 70
     0
  9
$DIMSD1
 70
     0
  9
$DIMSD2
 70
     0
  9
$DIMTOLJ
 70
     1
  9
$DIMTZIN
 70
     0
  9
$DIMALTZ
 70
     0
  9
$DIMALTTZ
 70
     0
  9
$DIMUPT
 70
     0
  9
$DIMDEC
 70
     1
  9
$DIMTDEC
 70
     4
  9
$DIMALTU
 70
     2
  9
$DIMALTTD
 70
     2
  9
$DIMTXSTY
  7
STYLE1
  9
$DIMAUNIT
 70
     0
  9
$DIMADEC
 70
     0
  9
$DIMALTRND
 40
0.0
  9
$DIMAZIN
 70
     0
  9
$DIMDSEP
 70
    46
  9
$DIMATFIT
 70
     3
  9
$DIMFRAC
 70
     0
  9
$DIMLDRBLK
  1

  9
$DIMLUNIT
 70
     2
  9
$DIMLWD
 70
    -2
  9
$DIMLWE
 70
    -2
  9
$DIMTMOVE
 70
     2
  9
$LUNITS
 70
     2
  9
$LUPREC
 70
     1
  9
$SKETCHINC
 40
1.0
  9
$FILLETRAD
 40
3.0
  9
$AUNITS
 70
     0
  9
$AUPREC
 70
     0
  9
$MENU
  1
acad
  9
$ELEVATION
 40
0.0
  9
$PELEVATION
 40
0.0
  9
$THICKNESS
 40
0.0
  9
$LIMCHECK
 70
     0
  9
$CHAMFERA
 40
0.0
  9
$CHAMFERB
 40
0.0
  9
$CHAMFERC
 40
0.0
  9
$CHAMFERD
 40
0.0
  9
$SKPOLY
 70
     0
  9
$TDCREATE
 40
2451368.612993866
  9
$TDUCREATE
 40
2451368.237993866
  9
$TDUPDATE
 40
2455569.624130128
  9
$TDUUPDATE
 40
2455569.249130128
  9
$TDINDWG
 40
1.2806248843
  9
$TDUSRTIMER
 40
1.2806248843
  9
$USRTIMER
 70
     1
  9
$ANGBASE
 50
0.0
  9
$ANGDIR
 70
     0
  9
$PDMODE
 70
     3
  9
$PDSIZE
 40
2.0
  9
$PLINEWID
 40
0.0
  9
$SPLFRAME
 70
     0
  9
$SPLINETYPE
 70
     6
  9
$SPLINESEGS
 70
     8
  9
$HANDSEED
  5
1C71E
  9
$SURFTAB1
 70
     6
  9
$SURFTAB2
 70
     6
  9
$SURFTYPE
 70
     6
  9
$SURFU
 70
     6
  9
$SURFV
 70
     6
  9
$UCSBASE
  2

  9
$UCSNAME
  2

  9
$UCSORG
 10
0.0
 20
0.0
 30
0.0
  9
$UCSXDIR
 10
1.0
 20
0.0
 30
0.0
  9
$UCSYDIR
 10
0.0
 20
1.0
 30
0.0
  9
$UCSORTHOREF
  2

  9
$UCSORTHOVIEW
 70
     0
  9
$UCSORGTOP
 10
0.0
 20
0.0
 30
0.0
  9
$UCSORGBOTTOM
 10
0.0
 20
0.0
 30
0.0
  9
$UCSORGLEFT
 10
0.0
 20
0.0
 30
0.0
  9
$UCSORGRIGHT
 10
0.0
 20
0.0
 30
0.0
  9
$UCSORGFRONT
 10
0.0
 20
0.0
 30
0.0
  9
$UCSORGBACK
 10
0.0
 20
0.0
 30
0.0
  9
$PUCSBASE
  2

  9
$PUCSNAME
  2

  9
$PUCSORG
 10
0.0
 20
0.0
 30
0.0
  9
$PUCSXDIR
 10
1.0
 20
0.0
 30
0.0
  9
$PUCSYDIR
 10
0.0
 20
1.0
 30
0.0
  9
$PUCSORTHOREF
  2

  9
$PUCSORTHOVIEW
 70
     0
  9
$PUCSORGTOP
 10
0.0
 20
0.0
 30
0.0
  9
$PUCSORGBOTTOM
 10
0.0
 20
0.0
 30
0.0
  9
$PUCSORGLEFT
 10
0.0
 20
0.0
 30
0.0
  9
$PUCSORGRIGHT
 10
0.0
 20
0.0
 30
0.0
  9
$PUCSORGFRONT
 10
0.0
 20
0.0
 30
0.0
  9
$PUCSORGBACK
 10
0.0
 20
0.0
 30
0.0
  9
$USERI1
 70
     0
  9
$USERI2
 70
     0
  9
$USERI3
 70
     0
  9
$USERI4
 70
     0
  9
$USERI5
 70
     0
  9
$USERR1
 40
0.0
  9
$USERR2
 40
0.0
  9
$USERR3
 40
0.0
  9
$USERR4
 40
0.0
  9
$USERR5
 40
0.0
  9
$WORLDVIEW
 70
     1
  9
$SHADEDGE
 70
     3
  9
$SHADEDIF
 70
    70
  9
$TILEMODE
 70
     1
  9
$MAXACTVP
 70
    16
  9
$PINSBASE
 10
0.0
 20
0.0
 30
0.0
  9
$PLIMCHECK
 70
     0
  9
$PEXTMIN
 10
1.000000000000000E+20
 20
1.000000000000000E+20
 30
1.000000000000000E+20
  9
$PEXTMAX
 10
-1.000000000000000E+20
 20
-1.000000000000000E+20
 30
-1.000000000000000E+20
  9
$PLIMMIN
 10
0.0
 20
0.0
  9
$PLIMMAX
 10
420.0
 20
297.0
  9
$UNITMODE
 70
     0
  9
$VISRETAIN
 70
     0
  9
$PLINEGEN
 70
     0
  9
$PSLTSCALE
 70
     0
  9
$TREEDEPTH
 70
  3020
  9
$CMLSTYLE
  2
STANDARD
  9
$CMLJUST
 70
     0
  9
$CMLSCALE
 40
1.0
  9
$PROXYGRAPHICS
 70
     1
  9
$MEASUREMENT
 70
     1
  9
$CELWEIGHT
370
    -1
  9
$ENDCAPS
280
     0
  9
$JOINSTYLE
280
     0
  9
$LWDISPLAY
290
     0
  9
$INSUNITS
 70
     0
  9
$HYPERLINKBASE
  1

  9
$STYLESHEET
  1

  9
$XEDIT
290
     1
  9
$CEPSNTYPE
380
     0
  9
$PSTYLEMODE
290
     1
  9
$FINGERPRINTGUID
  2
{2C76C8E2-4FB5-4596-8C82-8ADADD2DBC08}
  9
$VERSIONGUID
  2
{EAB6A147-F29E-462E-928F-9962347B4C12}
  9
$EXTNAMES
290
     1
  9
$PSVPSCALE
 40
0.0
  9
$OLESTARTUP
290
     0
  0
ENDSEC
  0
SECTION
  2
CLASSES
  0
CLASS
  1
ACDBDICTIONARYWDFLT
  2
AcDbDictionaryWithDefault
  3
ObjectDBX Classes
 90
        0
280
     0
281
     0
  0
CLASS
  1
DICTIONARYVAR
  2
AcDbDictionaryVar
  3
ObjectDBX Classes
 90
        0
280
     0
281
     0
  0
CLASS
  1
ACDBPLACEHOLDER
  2
AcDbPlaceHolder
  3
ObjectDBX Classes
 90
        0
280
     0
281
     0
  0
CLASS
  1
LAYOUT
  2
AcDbLayout
  3
ObjectDBX Classes
 90
        0
280
     0
281
     0
  0
ENDSEC
  0
SECTION
  2
TABLES
  0
TABLE
  2
VPORT
  5
746D
330
0
100
AcDbSymbolTable
 70
     2
  0
VPORT
  5
1C716
330
746D
100
AcDbSymbolTableRecord
100
AcDbViewportTableRecord
  2
*Active
 70
     0
 10
0.0
 20
0.0
 11
1.0
 21
1.0
 12
8223.761025238502
 22
5958.735805892718
 13
0.0
 23
0.0
 14
10.0
 24
10.0
 15
10.0
 25
10.0
 16
0.0
 26
0.0
 36
1.0
 17
0.0
 27
0.0
 37
0.0
 40
12025.84116348629
 41
1.627450980392156
 42
50.0
 43
0.0
 44
0.0
 50
0.0
 51
0.0
 71
     0
 72
     0
 73
     1
 74
     0
 75
     0
 76
     0
 77
     0
 78
     0
281
     0
 65
     1
110
0.0
120
0.0
130
0.0
111
1.0
121
0.0
131
0.0
112
0.0
122
1.0
132
0.0
 79
     0
146
0.0
  0
ENDTAB
  0
TABLE
  2
LTYPE
  5
746A
330
0
100
AcDbSymbolTable
 70
     3
  0
LTYPE
  5
7477
330
746A
100
AcDbSymbolTableRecord
100
AcDbLinetypeTableRecord
  2
BYBLOCK
 70
     0
  3

 72
    65
 73
     0
 40
0.0
  0
LTYPE
  5
7478
330
746A
100
AcDbSymbolTableRecord
100
AcDbLinetypeTableRecord
  2
BYLAYER
 70
     0
  3

 72
    65
 73
     0
 40
0.0
  0
LTYPE
  5
7479
330
746A
100
AcDbSymbolTableRecord
100
AcDbLinetypeTableRecord
  2
CONTINUOUS
 70
     0
  3
Solid line
 72
    65
 73
     0
 40
0.0
  0
LTYPE
  5
781A
330
746A
100
AcDbSymbolTableRecord
100
AcDbLinetypeTableRecord
  2
HIDDEN
 70
     0
  3
__ __ __ __ __ __ __ __ __ __ __ __ __ __ __ __
 72
    65
 73
     2
 40
0.375
 49
0.25
 74
     0
 49
-0.125
 74
     0
  0
LTYPE
  5
781B
330
746A
100
AcDbSymbolTableRecord
100
AcDbLinetypeTableRecord
  2
PHANTOM
 70
     0
  3
______  __  __  ______  __  __  ______  __  __ 
 72
    65
 73
     6
 40
2.5
 49
1.25
 74
     0
 49
-0.25
 74
     0
 49
0.25
 74
     0
 49
-0.25
 74
     0
 49
0.25
 74
     0
 49
-0.25
 74
     0
  0
ENDTAB
  0
TABLE
  2
LAYER
  5
7467
102
{ACAD_XDICTIONARY
360
1AA41
102
}
330
0
100
AcDbSymbolTable
 70
    10
  0
LAYER
  5
7474
330
7467
100
AcDbSymbolTableRecord
100
AcDbLayerTableRecord
  2
0
 70
     0
 62
     7
  6
CONTINUOUS
370
    -3
390
1A556
  0
LAYER
  5
DEB3
330
7467
100
AcDbSymbolTableRecord
100
AcDbLayerTableRecord
  2
寸法
 70
     0
 62
     4
  6
CONTINUOUS
370
    -3
390
1A556
  0
LAYER
  5
DEB4
330
7467
100
AcDbSymbolTableRecord
100
AcDbLayerTableRecord
  2
部品1
 70
     0
 62
     7
  6
CONTINUOUS
370
    -3
390
1A556
  0
LAYER
  5
DEB5
330
7467
100
AcDbSymbolTableRecord
100
AcDbLayerTableRecord
  2
補助
 70
     0
 62
    -1
  6
CONTINUOUS
370
    -3
390
1A556
  0
LAYER
  5
DEB6
330
7467
100
AcDbSymbolTableRecord
100
AcDbLayerTableRecord
  2
文字
 70
     0
 62
     7
  6
CONTINUOUS
370
    -3
390
1A556
  0
LAYER
  5
F255
330
7467
100
AcDbSymbolTableRecord
100
AcDbLayerTableRecord
  2
DEFPOINTS
 70
     0
 62
     7
  6
CONTINUOUS
290
     0
370
    -3
390
1A556
  0
LAYER
  5
10B54
330
7467
100
AcDbSymbolTableRecord
100
AcDbLayerTableRecord
  2
仕様書枠
 70
     0
 62
   230
  6
CONTINUOUS
370
    -3
390
1A556
  0
LAYER
  5
11729
330
7467
100
AcDbSymbolTableRecord
100
AcDbLayerTableRecord
  2
Ｇ．Ｌ
 70
     0
 62
    30
  6
CONTINUOUS
370
    -3
390
1A556
  0
LAYER
  5
1173F
330
7467
100
AcDbSymbolTableRecord
100
AcDbLayerTableRecord
  2
細線
 70
     0
 62
     5
  6
CONTINUOUS
370
    -3
390
1A556
  0
LAYER
  5
142E2
330
7467
100
AcDbSymbolTableRecord
100
AcDbLayerTableRecord
  2
破線
 70
     0
 62
     2
  6
HIDDEN
370
    -3
390
1A556
  0
ENDTAB
  0
TABLE
  2
STYLE
  5
7468
330
0
100
AcDbSymbolTable
 70
     4
  0
STYLE
  5
7475
330
7468
100
AcDbSymbolTableRecord
100
AcDbTextStyleTableRecord
  2
STANDARD
 70
     0
 40
0.0
 41
1.0
 50
0.0
 71
     0
 42
4.0
  3
txt
  4
C:\AutoCAD LT\bigfont.shx
  0
STYLE
  5
763C
330
7468
100
AcDbSymbolTableRecord
100
AcDbTextStyleTableRecord
  2
MSMINCHO
 70
     0
 40
0.0
 41
1.0
 50
0.0
 71
     0
 42
1.199999999999999
  3
C:\AutoCAD LT\msminch2.TTF
  4

  0
STYLE
  5
F706
330
7468
100
AcDbSymbolTableRecord
100
AcDbTextStyleTableRecord
  2
STYLE1
 70
     0
 40
0.0
 41
1.0
 50
0.0
 71
     0
 42
120.0
  3
isocp.shx
  4
bigfont.shx
  0
STYLE
  5
103BF
330
7468
100
AcDbSymbolTableRecord
100
AcDbTextStyleTableRecord
  2
STYLE2
 70
     0
 40
0.0
 41
1.0
 50
0.0
 71
     0
 42
100.0
  3
MS PGothic.ttf
  4

1001
ACAD
1000
MS PGothic
1071
    32818
  0
ENDTAB
  0
TABLE
  2
VIEW
  5
746B
330
0
100
AcDbSymbolTable
 70
     0
  0
ENDTAB
  0
TABLE
  2
UCS
  5
746C
330
0
100
AcDbSymbolTable
 70
     0
  0
ENDTAB
  0
TABLE
  2
APPID
  5
746E
330
0
100
AcDbSymbolTable
 70
     6
  0
APPID
  5
7476
330
746E
100
AcDbSymbolTableRecord
100
AcDbRegAppTableRecord
  2
ACAD
 70
     0
  0
APPID
  5
DEA9
330
746E
100
AcDbSymbolTableRecord
100
AcDbRegAppTableRecord
  2
CONTENTBLOCKICON
 70
     0
  0
APPID
  5
DEAA
330
746E
100
AcDbSymbolTableRecord
100
AcDbRegAppTableRecord
  2
CONTENTBLOCKDESCRIPTION
 70
     0
  0
APPID
  5
E71D
330
746E
100
AcDbSymbolTableRecord
100
AcDbRegAppTableRecord
  2
CONTENTTABDATA
 70
     0
  0
APPID
  5
E71E
330
746E
100
AcDbSymbolTableRecord
100
AcDbRegAppTableRecord
  2
CONTENTCURRENTTAB
 70
     0
  0
APPID
  5
F3BA
330
746E
100
AcDbSymbolTableRecord
100
AcDbRegAppTableRecord
  2
DRAWINGVARIABLESXDATA
 70
     0
  0
ENDTAB
  0
TABLE
  2
DIMSTYLE
  5
746F
330
0
100
AcDbSymbolTable
 70
     2
100
AcDbDimStyleTable
 71
     1
340
F71F
  0
DIMSTYLE
105
F71F
102
{ACAD_REACTORS
330
162CD
330
162CE
330
162CF
330
162D0
330
162E4
330
162E7
330
162EA
330
162EB
330
16301
330
16302
330
1631F
330
16320
330
16333
330
1659C
330
1659A
330
165E9
330
166DD
330
16913
330
17C9E
330
17C9D
330
17C9B
330
17C9F
330
17C5D
330
17C95
330
17C60
330
1AEBE
330
1AEBF
330
1AEC0
330
1AEC1
330
1AF7F
330
1AF8E
330
1AF9B
330
1AF9C
330
1AF9D
330
1AFC9
330
1AFEC
330
1AFEF
330
1AFF1
330
1BB7A
330
1BB9F
330
1BEF4
330
1BEF5
330
1BEF6
330
1C371
102
}
330
746F
100
AcDbSymbolTableRecord
100
AcDbDimStyleTableRecord
  2
INABA_S40G
 70
     0
 40
40.0
 41
2.5
 42
0.5
 43
7.0
 44
1.5
 73
     0
 74
     0
 77
     3
 78
     8
140
3.0
141
0.0
143
0.0394
147
1.0
172
     1
173
     1
174
     1
178
     7
271
     1
340
F706
341
F770
343
F770
344
F770
  0
DIMSTYLE
105
1C311
330
746F
100
AcDbSymbolTableRecord
100
AcDbDimStyleTableRecord
  2
INABA_S20G
 70
     0
 40
20.0
 41
2.5
 42
0.5
 43
7.0
 44
1.5
 73
     0
 74
     0
 77
     3
 78
     8
140
3.0
141
0.0
143
0.0394
147
1.0
172
     1
173
     1
174
     1
178
     7
271
     1
340
F706
341
F770
343
F770
344
F770
  0
ENDTAB
  0
TABLE
  2
BLOCK_RECORD
  5
7466
330
0
100
AcDbSymbolTable
 70
    50
  0
BLOCK_RECORD
  5
747D
330
7466
100
AcDbSymbolTableRecord
100
AcDbBlockTableRecord
  2
*MODEL_SPACE
340
1A55B
  0
BLOCK_RECORD
  5
747A
330
7466
100
AcDbSymbolTableRecord
100
AcDbBlockTableRecord
  2
*PAPER_SPACE
340
1A55C
  0
BLOCK_RECORD
  5
F770
330
7466
100
AcDbSymbolTableRecord
100
AcDbBlockTableRecord
  2
_DOTSMALL
340
0
102
{BLKREFS
331
1A385
331
1A386
331
1641A
331
1641B
331
16427
331
16428
331
1A359
331
1A35A
331
185D2
331
185D3
331
1A18B
331
1A18C
331
1646A
331
1646B
331
16479
331
1647A
331
16487
331
16488
331
16493
331
16494
331
165BE
331
165BF
331
165CD
331
165CE
331
16644
331
16645
331
17CBB
331
17CBC
331
17CCA
331
17CCB
331
185A7
331
185A8
331
17CE1
331
17CE2
331
1A3AA
331
1A3AB
331
1BD26
331
1BD27
331
1BD2F
331
1BD30
331
1BD44
331
1BD45
331
1BD4D
331
1BD4E
331
1BD56
331
1BD57
331
1BD5F
331
1BD60
331
1BD6A
331
1BD6B
331
1BD75
331
1BD76
331
1BD80
331
1BD81
331
1BD89
331
1BD8A
331
1C46A
331
1C46B
331
1C477
331
1C478
331
1C5D6
331
1C5D7
331
1C5DF
331
1C5E0
331
1C5EA
331
1C5EB
331
1C5F3
331
1C5F4
331
1C5FC
331
1C5FD
331
1C605
331
1C606
331
1C610
331
1C611
331
1C619
331
1C61A
331
1C623
331
1C624
331
1C62D
331
1C62E
331
1C638
331
1C639
331
1C643
331
1C644
331
1C64C
331
1C64D
331
1C655
331
1C656
331
1C6F9
331
1C6FA
331
1C705
331
1C706
102
}
  0
BLOCK_RECORD
  5
16338
330
7466
100
AcDbSymbolTableRecord
100
AcDbBlockTableRecord
  2
*D1
340
0
  0
BLOCK_RECORD
  5
16344
330
7466
100
AcDbSymbolTableRecord
100
AcDbBlockTableRecord
  2
*D2
340
0
  0
BLOCK_RECORD
  5
16352
330
7466
100
AcDbSymbolTableRecord
100
AcDbBlockTableRecord
  2
*D3
340
0
  0
BLOCK_RECORD
  5
16360
330
7466
100
AcDbSymbolTableRecord
100
AcDbBlockTableRecord
  2
*D4
340
0
  0
BLOCK_RECORD
  5
16384
330
7466
100
AcDbSymbolTableRecord
100
AcDbBlockTableRecord
  2
*D5
340
0
  0
BLOCK_RECORD
  5
1638F
330
7466
100
AcDbSymbolTableRecord
100
AcDbBlockTableRecord
  2
*D6
340
0
  0
BLOCK_RECORD
  5
1639B
330
7466
100
AcDbSymbolTableRecord
100
AcDbBlockTableRecord
  2
*D7
340
0
  0
BLOCK_RECORD
  5
163A9
330
7466
100
AcDbSymbolTableRecord
100
AcDbBlockTableRecord
  2
*D8
340
0
  0
BLOCK_RECORD
  5
163B8
330
7466
100
AcDbSymbolTableRecord
100
AcDbBlockTableRecord
  2
*D9
340
0
  0
BLOCK_RECORD
  5
163C7
330
7466
100
AcDbSymbolTableRecord
100
AcDbBlockTableRecord
  2
*D10
340
0
  0
BLOCK_RECORD
  5
163E1
330
7466
100
AcDbSymbolTableRecord
100
AcDbBlockTableRecord
  2
*D11
340
0
  0
BLOCK_RECORD
  5
163ED
330
7466
100
AcDbSymbolTableRecord
100
AcDbBlockTableRecord
  2
*D12
340
0
  0
BLOCK_RECORD
  5
163FB
330
7466
100
AcDbSymbolTableRecord
100
AcDbBlockTableRecord
  2
*D13
340
0
  0
BLOCK_RECORD
  5
165B5
330
7466
100
AcDbSymbolTableRecord
100
AcDbBlockTableRecord
  2
*D14
340
0
  0
BLOCK_RECORD
  5
165C4
330
7466
100
AcDbSymbolTableRecord
100
AcDbBlockTableRecord
  2
*D15
340
0
  0
BLOCK_RECORD
  5
165EA
330
7466
100
AcDbSymbolTableRecord
100
AcDbBlockTableRecord
  2
*D16
340
0
  0
BLOCK_RECORD
  5
166CF
330
7466
100
AcDbSymbolTableRecord
100
AcDbBlockTableRecord
  2
*D17
340
0
  0
BLOCK_RECORD
  5
16908
330
7466
100
AcDbSymbolTableRecord
100
AcDbBlockTableRecord
  2
*D18
340
0
  0
BLOCK_RECORD
  5
17CB2
330
7466
100
AcDbSymbolTableRecord
100
AcDbBlockTableRecord
  2
*D19
340
0
  0
BLOCK_RECORD
  5
17CC1
330
7466
100
AcDbSymbolTableRecord
100
AcDbBlockTableRecord
  2
*D20
340
0
  0
BLOCK_RECORD
  5
17CD0
330
7466
100
AcDbSymbolTableRecord
100
AcDbBlockTableRecord
  2
*D21
340
0
  0
BLOCK_RECORD
  5
17CDB
330
7466
100
AcDbSymbolTableRecord
100
AcDbBlockTableRecord
  2
*D22
340
0
  0
BLOCK_RECORD
  5
17CE7
330
7466
100
AcDbSymbolTableRecord
100
AcDbBlockTableRecord
  2
*D23
340
0
  0
BLOCK_RECORD
  5
17CF3
330
7466
100
AcDbSymbolTableRecord
100
AcDbBlockTableRecord
  2
*D24
340
0
  0
BLOCK_RECORD
  5
17D01
330
7466
100
AcDbSymbolTableRecord
100
AcDbBlockTableRecord
  2
*D25
340
0
  0
BLOCK_RECORD
  5
1A3A6
330
7466
100
AcDbSymbolTableRecord
100
AcDbBlockTableRecord
  2
*D26
340
0
  0
BLOCK_RECORD
  5
1A3B2
330
7466
100
AcDbSymbolTableRecord
100
AcDbBlockTableRecord
  2
A$C3EB005E7
340
0
102
{BLKREFS
331
1A4F5
102
}
  0
BLOCK_RECORD
  5
1B1FB
330
7466
100
AcDbSymbolTableRecord
100
AcDbBlockTableRecord
  2
*D28
340
0
  0
BLOCK_RECORD
  5
1B207
330
7466
100
AcDbSymbolTableRecord
100
AcDbBlockTableRecord
  2
*D29
340
0
  0
BLOCK_RECORD
  5
1B213
330
7466
100
AcDbSymbolTableRecord
100
AcDbBlockTableRecord
  2
*D30
340
0
  0
BLOCK_RECORD
  5
1B221
330
7466
100
AcDbSymbolTableRecord
100
AcDbBlockTableRecord
  2
*D31
340
0
  0
BLOCK_RECORD
  5
1B22F
330
7466
100
AcDbSymbolTableRecord
100
AcDbBlockTableRecord
  2
*D32
340
0
  0
BLOCK_RECORD
  5
1B23C
330
7466
100
AcDbSymbolTableRecord
100
AcDbBlockTableRecord
  2
*D33
340
0
  0
BLOCK_RECORD
  5
1B249
330
7466
100
AcDbSymbolTableRecord
100
AcDbBlockTableRecord
  2
*D34
340
0
  0
BLOCK_RECORD
  5
1B255
330
7466
100
AcDbSymbolTableRecord
100
AcDbBlockTableRecord
  2
*D35
340
0
  0
BLOCK_RECORD
  5
1B263
330
7466
100
AcDbSymbolTableRecord
100
AcDbBlockTableRecord
  2
*D36
340
0
  0
BLOCK_RECORD
  5
1B26F
330
7466
100
AcDbSymbolTableRecord
100
AcDbBlockTableRecord
  2
*D37
340
0
  0
BLOCK_RECORD
  5
1B2A1
330
7466
100
AcDbSymbolTableRecord
100
AcDbBlockTableRecord
  2
*D38
340
0
  0
BLOCK_RECORD
  5
1B2AD
330
7466
100
AcDbSymbolTableRecord
100
AcDbBlockTableRecord
  2
*D39
340
0
  0
BLOCK_RECORD
  5
1B2C8
330
7466
100
AcDbSymbolTableRecord
100
AcDbBlockTableRecord
  2
*D40
340
0
  0
BLOCK_RECORD
  5
1BBDD
330
7466
100
AcDbSymbolTableRecord
100
AcDbBlockTableRecord
  2
*D41
340
0
  0
BLOCK_RECORD
  5
1BC38
330
7466
100
AcDbSymbolTableRecord
100
AcDbBlockTableRecord
  2
*D42
340
0
  0
BLOCK_RECORD
  5
1BF5F
330
7466
100
AcDbSymbolTableRecord
100
AcDbBlockTableRecord
  2
*D43
340
0
  0
BLOCK_RECORD
  5
1BF6B
330
7466
100
AcDbSymbolTableRecord
100
AcDbBlockTableRecord
  2
*D44
340
0
  0
BLOCK_RECORD
  5
1BF79
330
7466
100
AcDbSymbolTableRecord
100
AcDbBlockTableRecord
  2
*D45
340
0
  0
BLOCK_RECORD
  5
1C378
330
7466
100
AcDbSymbolTableRecord
100
AcDbBlockTableRecord
  2
*D46
340
0
  0
BLOCK_RECORD
  5
1C472
330
7466
100
AcDbSymbolTableRecord
100
AcDbBlockTableRecord
  2
*D47
340
0
  0
BLOCK_RECORD
  5
1C47E
330
7466
100
AcDbSymbolTableRecord
100
AcDbBlockTableRecord
  2
A$C213850FD
340
0
  0
BLOCK_RECORD
  5
1C6BB
330
7466
100
AcDbSymbolTableRecord
100
AcDbBlockTableRecord
  2
A$C44064EDA
340
0
  0
ENDTAB
  0
ENDSEC
  0
SECTION
  2
BLOCKS
  0
BLOCK
  5
7489
330
747D
100
AcDbEntity
  8
0
100
AcDbBlockBegin
  2
*MODEL_SPACE
 70
     0
 10
0.0
 20
0.0
 30
0.0
  3
*MODEL_SPACE
  1

  0
ENDBLK
  5
748A
330
747D
100
AcDbEntity
  8
0
100
AcDbBlockEnd
  0
BLOCK
  5
7487
330
747A
100
AcDbEntity
 67
     1
  8
0
100
AcDbBlockBegin
  2
*PAPER_SPACE
 70
     0
 10
0.0
 20
0.0
 30
0.0
  3
*PAPER_SPACE
  1

  0
ENDBLK
  5
7488
330
747A
100
AcDbEntity
 67
     1
  8
0
100
AcDbBlockEnd
  0
BLOCK
  5
F771
330
F770
100
AcDbEntity
  8
0
 48
50.0
100
AcDbBlockBegin
  2
_DOTSMALL
 70
     0
 10
0.0
 20
0.0
 30
0.0
  3
_DOTSMALL
  1

  0
LWPOLYLINE
  5
F772
330
F770
100
AcDbEntity
  8
0
  6
ByBlock
 62
     0
 48
50.0
100
AcDbPolyline
 90
        2
 70
     1
 43
0.5
 10
-0.0625
 20
0.0
 42
1.0
 10
0.0625
 20
0.0
 42
1.0
  0
ENDBLK
  5
F776
330
F770
100
AcDbEntity
  8
0
 48
50.0
100
AcDbBlockEnd
  0
BLOCK
  5
1A381
330
16338
100
AcDbEntity
  8
0
 48
50.0
100
AcDbBlockBegin
  2
*D1
 70
     1
 10
0.0
 20
0.0
 30
0.0
  3
*D1
  1

  0
LINE
  5
1A382
330
16338
100
AcDbEntity
  8
0
  6
ByBlock
 62
     0
 48
50.0
100
AcDbLine
 10
9870.137356965273
 20
10137.49742454596
 30
0.0
 11
10557.56370269968
 21
10137.49742454596
 31
0.0
  0
LINE
  5
1A383
330
16338
100
AcDbEntity
  8
0
  6
ByBlock
 62
     0
 48
50.0
100
AcDbLine
 10
9870.137356965248
 20
7197.497424545952
 30
0.0
 11
10557.56370269968
 21
7197.497424545952
 31
0.0
  0
LINE
  5
1A384
330
16338
100
AcDbEntity
  8
0
  6
ByBlock
 62
     0
 48
50.0
100
AcDbLine
 10
10497.56370269968
 20
10137.49742454596
 30
0.0
 11
10497.56370269968
 21
7197.497424545952
 31
0.0
  0
INSERT
  5
1A385
330
16338
100
AcDbEntity
  8
0
  6
ByBlock
 62
     0
 48
50.0
100
AcDbBlockReference
  2
_DOTSMALL
 10
10497.56370269968
 20
10137.49742454596
 30
0.0
 41
100.0
 42
100.0
 43
100.0
 50
90.0
  0
INSERT
  5
1A386
330
16338
100
AcDbEntity
  8
0
  6
ByBlock
 62
     0
 48
50.0
100
AcDbBlockReference
  2
_DOTSMALL
 10
10497.56370269968
 20
7197.497424545952
 30
0.0
 41
100.0
 42
100.0
 43
100.0
 50
270.0
  0
MTEXT
  5
1A387
330
16338
100
AcDbEntity
  8
0
  6
ByBlock
 62
     7
 48
50.0
100
AcDbMText
 10
10397.55189167606
 20
8667.49742454596
 30
0.0
 40
120.0
 41
0.0
 71
     5
 72
     1
  1
\A1;7X420=2940
  7
STYLE1
 11
0.0000000000000001
 21
1.0
 31
0.0
 73
     1
 44
1.0
1001
ACAD
1000
MTEXTBEGIN
1070
    73
1070
     1
1070
    44
1040
1.0
1070
    74
1070
     0
1000
MTEXTEND
  0
POINT
  5
1A388
330
16338
100
AcDbEntity
  8
DEFPOINTS
  6
ByBlock
 62
     0
 48
50.0
100
AcDbPoint
 10
9850.137356965275
 20
10137.49742454596
 30
0.0
  0
POINT
  5
1A389
330
16338
100
AcDbEntity
  8
DEFPOINTS
  6
ByBlock
 62
     0
 48
50.0
100
AcDbPoint
 10
9850.137356965248
 20
7197.497424545952
 30
0.0
  0
POINT
  5
1A38A
330
16338
100
AcDbEntity
  8
DEFPOINTS
  6
ByBlock
 62
     0
 48
50.0
100
AcDbPoint
 10
10497.56370269968
 20
7197.497424545952
 30
0.0
  0
ENDBLK
  5
1A38B
330
16338
100
AcDbEntity
  8
0
 48
50.0
100
AcDbBlockEnd
  0
BLOCK
  5
16414
330
16344
100
AcDbEntity
  8
0
 48
50.0
100
AcDbBlockBegin
  2
*D2
 70
     1
 10
0.0
 20
0.0
 30
0.0
  3
*D2
  1

  0
LINE
  5
16415
330
16344
100
AcDbEntity
  8
0
  6
ByBlock
 62
     0
 48
50.0
100
AcDbLine
 10
7394.673057123639
 20
7037.497424545953
 30
0.0
 11
8082.099402858048
 21
7037.497424545951
 31
0.0
  0
LINE
  5
16416
330
16344
100
AcDbEntity
  8
0
  6
ByBlock
 62
     0
 48
50.0
100
AcDbLine
 10
7394.673057123639
 20
6982.497424545956
 30
0.0
 11
8082.099402858048
 21
6982.497424545956
 31
0.0
  0
LINE
  5
16417
330
16344
100
AcDbEntity
  8
0
  6
ByBlock
 62
     0
 48
50.0
100
AcDbLine
 10
8022.099402858048
 20
7037.497424545951
 30
0.0
 11
8022.099402858048
 21
7137.497424545951
 31
0.0
  0
LINE
  5
16418
330
16344
100
AcDbEntity
  8
0
  6
ByBlock
 62
     0
 48
50.0
100
AcDbLine
 10
8022.099402858048
 20
6982.497424545956
 30
0.0
 11
8022.099402858048
 21
6496.150676266855
 31
0.0
  0
LINE
  5
16419
330
16344
100
AcDbEntity
  8
0
  6
ByBlock
 62
     0
 48
50.0
100
AcDbLine
 10
8022.099402858048
 20
7037.497424545951
 30
0.0
 11
8022.099402858048
 21
6982.497424545956
 31
0.0
  0
INSERT
  5
1641A
330
16344
100
AcDbEntity
  8
0
  6
ByBlock
 62
     0
 48
50.0
100
AcDbBlockReference
  2
_DOTSMALL
 10
8022.099402858048
 20
7037.497424545951
 30
0.0
 41
100.0
 42
100.0
 43
100.0
 50
270.0
  0
INSERT
  5
1641B
330
16344
100
AcDbEntity
  8
0
  6
ByBlock
 62
     0
 48
50.0
100
AcDbBlockReference
  2
_DOTSMALL
 10
8022.099402858048
 20
6982.497424545956
 30
0.0
 41
100.0
 42
100.0
 43
100.0
 50
90.0
  0
MTEXT
  5
1641C
330
16344
100
AcDbEntity
  8
0
  6
ByBlock
 62
     7
 48
50.0
100
AcDbMText
 10
7922.099402858048
 20
6604.635957641093
 30
0.0
 40
120.0
 41
0.0
 71
     5
 72
     1
  1
\A1;55
  7
STYLE1
 11
0.0000000000000001
 21
1.0
 31
0.0
 73
     1
 44
1.0
1001
ACAD
1000
MTEXTBEGIN
1070
    73
1070
     1
1070
    44
1040
1.0
1070
    74
1070
     0
1000
MTEXTEND
  0
POINT
  5
1641D
330
16344
100
AcDbEntity
  8
DEFPOINTS
  6
ByBlock
 62
     0
 48
50.0
100
AcDbPoint
 10
7374.673057123638
 20
7037.497424545953
 30
0.0
  0
POINT
  5
1641E
330
16344
100
AcDbEntity
  8
DEFPOINTS
  6
ByBlock
 62
     0
 48
50.0
100
AcDbPoint
 10
7374.673057123638
 20
6982.497424545956
 30
0.0
  0
POINT
  5
1641F
330
16344
100
AcDbEntity
  8
DEFPOINTS
  6
ByBlock
 62
     0
 48
50.0
100
AcDbPoint
 10
8022.099402858048
 20
6982.497424545956
 30
0.0
  0
ENDBLK
  5
16420
330
16344
100
AcDbEntity
  8
0
 48
50.0
100
AcDbBlockEnd
  0
BLOCK
  5
16421
330
16352
100
AcDbEntity
  8
0
 48
50.0
100
AcDbBlockBegin
  2
*D3
 70
     1
 10
0.0
 20
0.0
 30
0.0
  3
*D3
  1

  0
LINE
  5
16422
330
16352
100
AcDbEntity
  8
0
  6
ByBlock
 62
     0
 48
50.0
100
AcDbLine
 10
7394.673057123664
 20
10032.49742454596
 30
0.0
 11
8082.099402858075
 21
10032.49742454596
 31
0.0
  0
LINE
  5
16423
330
16352
100
AcDbEntity
  8
0
  6
ByBlock
 62
     0
 48
50.0
100
AcDbLine
 10
7394.673057123664
 20
9977.497424545967
 30
0.0
 11
8082.099402858075
 21
9977.497424545967
 31
0.0
  0
LINE
  5
16424
330
16352
100
AcDbEntity
  8
0
  6
ByBlock
 62
     0
 48
50.0
100
AcDbLine
 10
8022.099402858072
 20
9977.497424545967
 30
0.0
 11
8022.099402858072
 21
9877.497424545968
 31
0.0
  0
LINE
  5
16425
330
16352
100
AcDbEntity
  8
0
  6
ByBlock
 62
     0
 48
50.0
100
AcDbLine
 10
8022.099402858072
 20
10032.49742454596
 30
0.0
 11
8022.099402858072
 21
10449.46798729444
 31
0.0
  0
LINE
  5
16426
330
16352
100
AcDbEntity
  8
0
  6
ByBlock
 62
     0
 48
50.0
100
AcDbLine
 10
8022.099402858072
 20
9977.497424545967
 30
0.0
 11
8022.099402858072
 21
10032.49742454596
 31
0.0
  0
INSERT
  5
16427
330
16352
100
AcDbEntity
  8
0
  6
ByBlock
 62
     0
 48
50.0
100
AcDbBlockReference
  2
_DOTSMALL
 10
8022.099402858072
 20
9977.497424545967
 30
0.0
 41
100.0
 42
100.0
 43
100.0
 50
90.0
  0
INSERT
  5
16428
330
16352
100
AcDbEntity
  8
0
  6
ByBlock
 62
     0
 48
50.0
100
AcDbBlockReference
  2
_DOTSMALL
 10
8022.099402858072
 20
10032.49742454596
 30
0.0
 41
100.0
 42
100.0
 43
100.0
 50
270.0
  0
MTEXT
  5
16429
330
16352
100
AcDbEntity
  8
0
  6
ByBlock
 62
     7
 48
50.0
100
AcDbMText
 10
7922.099402858073
 20
10340.9827059202
 30
0.0
 40
120.0
 41
0.0
 71
     5
 72
     1
  1
\A1;55
  7
STYLE1
 11
0.0000000000000001
 21
1.0
 31
0.0
 73
     1
 44
1.0
1001
ACAD
1000
MTEXTBEGIN
1070
    73
1070
     1
1070
    44
1040
1.0
1070
    74
1070
     0
1000
MTEXTEND
  0
POINT
  5
1642A
330
16352
100
AcDbEntity
  8
DEFPOINTS
  6
ByBlock
 62
     0
 48
50.0
100
AcDbPoint
 10
7374.673057123664
 20
10032.49742454596
 30
0.0
  0
POINT
  5
1642B
330
16352
100
AcDbEntity
  8
DEFPOINTS
  6
ByBlock
 62
     0
 48
50.0
100
AcDbPoint
 10
7374.673057123664
 20
9977.497424545967
 30
0.0
  0
POINT
  5
1642C
330
16352
100
AcDbEntity
  8
DEFPOINTS
  6
ByBlock
 62
     0
 48
50.0
100
AcDbPoint
 10
8022.099402858072
 20
9977.497424545967
 30
0.0
  0
ENDBLK
  5
1642D
330
16352
100
AcDbEntity
  8
0
 48
50.0
100
AcDbBlockEnd
  0
BLOCK
  5
1A355
330
16360
100
AcDbEntity
  8
0
 48
50.0
100
AcDbBlockBegin
  2
*D4
 70
     1
 10
0.0
 20
0.0
 30
0.0
  3
*D4
  1

  0
LINE
  5
1A356
330
16360
100
AcDbEntity
  8
0
  6
ByBlock
 62
     0
 48
50.0
100
AcDbLine
 10
9870.137356965273
 20
10192.49742454596
 30
0.0
 11
10922.67064443932
 21
10192.49742454596
 31
0.0
  0
LINE
  5
1A357
330
16360
100
AcDbEntity
  8
0
  6
ByBlock
 62
     0
 48
50.0
100
AcDbLine
 10
9870.137356965248
 20
7142.497424545957
 30
0.0
 11
10922.67064443932
 21
7142.497424545957
 31
0.0
  0
LINE
  5
1A358
330
16360
100
AcDbEntity
  8
0
  6
ByBlock
 62
     0
 48
50.0
100
AcDbLine
 10
10862.67064443932
 20
10192.49742454596
 30
0.0
 11
10862.67064443932
 21
7142.497424545957
 31
0.0
  0
INSERT
  5
1A359
330
16360
100
AcDbEntity
  8
0
  6
ByBlock
 62
     0
 48
50.0
100
AcDbBlockReference
  2
_DOTSMALL
 10
10862.67064443932
 20
10192.49742454596
 30
0.0
 41
100.0
 42
100.0
 43
100.0
 50
90.0
  0
INSERT
  5
1A35A
330
16360
100
AcDbEntity
  8
0
  6
ByBlock
 62
     0
 48
50.0
100
AcDbBlockReference
  2
_DOTSMALL
 10
10862.67064443932
 20
7142.497424545957
 30
0.0
 41
100.0
 42
100.0
 43
100.0
 50
270.0
  0
MTEXT
  5
1A35B
330
16360
100
AcDbEntity
  8
0
  6
ByBlock
 62
     7
 48
50.0
100
AcDbMText
 10
10762.67064443932
 20
8667.49742454596
 30
0.0
 40
120.0
 41
0.0
 71
     5
 72
     1
  1
\A1;3050
  7
STYLE1
 11
0.0000000000000001
 21
1.0
 31
0.0
 73
     1
 44
1.0
1001
ACAD
1000
MTEXTBEGIN
1070
    73
1070
     1
1070
    44
1040
1.0
1070
    74
1070
     0
1000
MTEXTEND
  0
POINT
  5
1A35C
330
16360
100
AcDbEntity
  8
DEFPOINTS
  6
ByBlock
 62
     0
 48
50.0
100
AcDbPoint
 10
9850.137356965275
 20
10192.49742454596
 30
0.0
  0
POINT
  5
1A35D
330
16360
100
AcDbEntity
  8
DEFPOINTS
  6
ByBlock
 62
     0
 48
50.0
100
AcDbPoint
 10
9850.137356965248
 20
7142.497424545957
 30
0.0
  0
POINT
  5
1A35E
330
16360
100
AcDbEntity
  8
DEFPOINTS
  6
ByBlock
 62
     0
 48
50.0
100
AcDbPoint
 10
10862.67064443932
 20
7142.497424545957
 30
0.0
  0
ENDBLK
  5
1A35F
330
16360
100
AcDbEntity
  8
0
 48
50.0
100
AcDbBlockEnd
  0
BLOCK
  5
185CF
330
16384
100
AcDbEntity
  8
0
 48
50.0
100
AcDbBlockBegin
  2
*D5
 70
     1
 10
0.0
 20
0.0
 30
0.0
  3
*D5
  1

  0
LINE
  5
185D0
330
16384
100
AcDbEntity
  8
0
  6
ByBlock
 62
     0
 48
50.0
100
AcDbLine
 10
7533.137356965266
 20
7148.497424545865
 30
0.0
 11
7533.137356965266
 21
6548.0666537797
 31
0.0
  0
LINE
  5
185D1
330
16384
100
AcDbEntity
  8
0
  6
ByBlock
 62
     0
 48
50.0
100
AcDbLine
 10
9957.137356965247
 20
6608.0666537797
 30
0.0
 11
7533.137356965266
 21
6608.0666537797
 31
0.0
  0
INSERT
  5
185D2
330
16384
100
AcDbEntity
  8
0
  6
ByBlock
 62
     0
 48
50.0
100
AcDbBlockReference
  2
_DOTSMALL
 10
9957.137356965247
 20
6608.0666537797
 30
0.0
 41
100.0
 42
100.0
 43
100.0
  0
INSERT
  5
185D3
330
16384
100
AcDbEntity
  8
0
  6
ByBlock
 62
     0
 48
50.0
100
AcDbBlockReference
  2
_DOTSMALL
 10
7533.137356965266
 20
6608.0666537797
 30
0.0
 41
100.0
 42
100.0
 43
100.0
 50
180.0
  0
MTEXT
  5
185D4
330
16384
100
AcDbEntity
  8
0
  6
ByBlock
 62
     7
 48
50.0
100
AcDbMText
 10
8745.137356965257
 20
6708.078464803323
 30
0.0
 40
120.0
 41
0.0
 71
     5
 72
     1
  1
\A1;有効開口部間口 2424
  7
STYLE1
 73
     1
 44
1.0
1001
ACAD
1000
MTEXTBEGIN
1070
    73
1070
     1
1070
    44
1040
1.0
1070
    74
1070
     0
1000
MTEXTEND
  0
POINT
  5
185D5
330
16384
100
AcDbEntity
  8
DEFPOINTS
  6
ByBlock
 62
     0
 48
50.0
100
AcDbPoint
 10
9957.137356965247
 20
7168.497424545865
 30
0.0
  0
POINT
  5
185D6
330
16384
100
AcDbEntity
  8
DEFPOINTS
  6
ByBlock
 62
     0
 48
50.0
100
AcDbPoint
 10
7533.137356965266
 20
7168.497424545865
 30
0.0
  0
POINT
  5
185D7
330
16384
100
AcDbEntity
  8
DEFPOINTS
  6
ByBlock
 62
     0
 48
50.0
100
AcDbPoint
 10
7533.137356965266
 20
6608.0666537797
 30
0.0
  0
ENDBLK
  5
185D8
330
16384
100
AcDbEntity
  8
0
 48
50.0
100
AcDbBlockEnd
  0
BLOCK
  5
1A187
330
1638F
100
AcDbEntity
  8
0
 48
50.0
100
AcDbBlockBegin
  2
*D6
 70
     1
 10
0.0
 20
0.0
 30
0.0
  3
*D6
  1

  0
LINE
  5
1A188
330
1638F
100
AcDbEntity
  8
0
  6
ByBlock
 62
     0
 48
50.0
100
AcDbLine
 10
1960.137356965266
 20
7122.497424545861
 30
0.0
 11
1960.137356965266
 21
6101.893658188827
 31
0.0
  0
LINE
  5
1A189
330
1638F
100
AcDbEntity
  8
0
  6
ByBlock
 62
     0
 48
50.0
100
AcDbLine
 10
9850.137356965237
 20
7122.497424545956
 30
0.0
 11
9850.137356965237
 21
6101.893658188827
 31
0.0
  0
LINE
  5
1A18A
330
1638F
100
AcDbEntity
  8
0
  6
ByBlock
 62
     0
 48
50.0
100
AcDbLine
 10
1960.137356965266
 20
6161.893658188827
 30
0.0
 11
9850.137356965237
 21
6161.893658188827
 31
0.0
  0
INSERT
  5
1A18B
330
1638F
100
AcDbEntity
  8
0
  6
ByBlock
 62
     0
 48
50.0
100
AcDbBlockReference
  2
_DOTSMALL
 10
1960.137356965266
 20
6161.893658188827
 30
0.0
 41
100.0
 42
100.0
 43
100.0
 50
180.0
  0
INSERT
  5
1A18C
330
1638F
100
AcDbEntity
  8
0
  6
ByBlock
 62
     0
 48
50.0
100
AcDbBlockReference
  2
_DOTSMALL
 10
9850.137356965237
 20
6161.893658188827
 30
0.0
 41
100.0
 42
100.0
 43
100.0
  0
MTEXT
  5
1A18D
330
1638F
100
AcDbEntity
  8
0
  6
ByBlock
 62
     7
 48
50.0
100
AcDbMText
 10
5905.137356965251
 20
6261.905469212448
 30
0.0
 40
120.0
 41
0.0
 71
     5
 72
     1
  1
\A1;N X 2630
  7
STYLE1
 73
     1
 44
1.0
1001
ACAD
1000
MTEXTBEGIN
1070
    73
1070
     1
1070
    44
1040
1.0
1070
    74
1070
     0
1000
MTEXTEND
  0
POINT
  5
1A18E
330
1638F
100
AcDbEntity
  8
DEFPOINTS
  6
ByBlock
 62
     0
 48
50.0
100
AcDbPoint
 10
1960.137356965266
 20
7142.497424545862
 30
0.0
  0
POINT
  5
1A18F
330
1638F
100
AcDbEntity
  8
DEFPOINTS
  6
ByBlock
 62
     0
 48
50.0
100
AcDbPoint
 10
9850.137356965237
 20
7142.497424545957
 30
0.0
  0
POINT
  5
1A190
330
1638F
100
AcDbEntity
  8
DEFPOINTS
  6
ByBlock
 62
     0
 48
50.0
100
AcDbPoint
 10
9850.137356965237
 20
6161.893658188827
 30
0.0
  0
ENDBLK
  5
1A191
330
1638F
100
AcDbEntity
  8
0
 48
50.0
100
AcDbBlockEnd
  0
BLOCK
  5
16464
330
1639B
100
AcDbEntity
  8
0
 48
50.0
100
AcDbBlockBegin
  2
*D7
 70
     1
 10
0.0
 20
0.0
 30
0.0
  3
*D7
  1

  0
LINE
  5
16465
330
1639B
100
AcDbEntity
  8
0
  6
ByBlock
 62
     0
 48
50.0
100
AcDbLine
 10
4799.673057123653
 20
6962.497424545865
 30
0.0
 11
4799.673057123653
 21
6388.0666537797
 31
0.0
  0
LINE
  5
16466
330
1639B
100
AcDbEntity
  8
0
  6
ByBlock
 62
     0
 48
50.0
100
AcDbLine
 10
4744.673057123656
 20
6962.497424545862
 30
0.0
 11
4744.673057123656
 21
6388.0666537797
 31
0.0
  0
LINE
  5
16467
330
1639B
100
AcDbEntity
  8
0
  6
ByBlock
 62
     0
 48
50.0
100
AcDbLine
 10
4799.673057123653
 20
6448.066653779701
 30
0.0
 11
4899.673057123653
 21
6448.066653779701
 31
0.0
  0
LINE
  5
16468
330
1639B
100
AcDbEntity
  8
0
  6
ByBlock
 62
     0
 48
50.0
100
AcDbLine
 10
4744.673057123656
 20
6448.066653779701
 30
0.0
 11
4327.70249437518
 21
6448.066653779701
 31
0.0
  0
LINE
  5
16469
330
1639B
100
AcDbEntity
  8
0
  6
ByBlock
 62
     0
 48
50.0
100
AcDbLine
 10
4799.673057123653
 20
6448.066653779701
 30
0.0
 11
4744.673057123656
 21
6448.066653779701
 31
0.0
  0
INSERT
  5
1646A
330
1639B
100
AcDbEntity
  8
0
  6
ByBlock
 62
     0
 48
50.0
100
AcDbBlockReference
  2
_DOTSMALL
 10
4799.673057123653
 20
6448.066653779701
 30
0.0
 41
100.0
 42
100.0
 43
100.0
 50
180.0
  0
INSERT
  5
1646B
330
1639B
100
AcDbEntity
  8
0
  6
ByBlock
 62
     0
 48
50.0
100
AcDbBlockReference
  2
_DOTSMALL
 10
4744.673057123656
 20
6448.066653779701
 30
0.0
 41
100.0
 42
100.0
 43
100.0
  0
MTEXT
  5
1646C
330
1639B
100
AcDbEntity
  8
0
  6
ByBlock
 62
     7
 48
50.0
100
AcDbMText
 10
4436.187775749418
 20
6548.0666537797
 30
0.0
 40
120.0
 41
0.0
 71
     5
 72
     1
  1
\A1;55
  7
STYLE1
 73
     1
 44
1.0
1001
ACAD
1000
MTEXTBEGIN
1070
    73
1070
     1
1070
    44
1040
1.0
1070
    74
1070
     0
1000
MTEXTEND
  0
POINT
  5
1646D
330
1639B
100
AcDbEntity
  8
DEFPOINTS
  6
ByBlock
 62
     0
 48
50.0
100
AcDbPoint
 10
4799.673057123653
 20
6982.497424545865
 30
0.0
  0
POINT
  5
1646E
330
1639B
100
AcDbEntity
  8
DEFPOINTS
  6
ByBlock
 62
     0
 48
50.0
100
AcDbPoint
 10
4744.673057123656
 20
6982.497424545861
 30
0.0
  0
POINT
  5
1646F
330
1639B
100
AcDbEntity
  8
DEFPOINTS
  6
ByBlock
 62
     0
 48
50.0
100
AcDbPoint
 10
4744.673057123656
 20
6448.066653779701
 30
0.0
  0
ENDBLK
  5
16470
330
1639B
100
AcDbEntity
  8
0
 48
50.0
100
AcDbBlockEnd
  0
BLOCK
  5
16471
330
163A9
100
AcDbEntity
  8
0
 48
50.0
100
AcDbBlockBegin
  2
*D8
 70
     1
 10
0.0
 20
0.0
 30
0.0
  3
*D8
  1

  0
LINE
  5
16472
330
163A9
100
AcDbEntity
  8
0
  6
ByBlock
 62
     0
 48
50.0
100
AcDbLine
 10
4847.673057123657
 20
6988.497424545865
 30
0.0
 11
4847.673057123657
 21
6388.0666537797
 31
0.0
  0
LINE
  5
16473
330
163A9
100
AcDbEntity
  8
0
  6
ByBlock
 62
     0
 48
50.0
100
AcDbLine
 10
4799.673057123653
 20
6962.497424545865
 30
0.0
 11
4799.673057123653
 21
6388.0666537797
 31
0.0
  0
LINE
  5
16474
330
163A9
100
AcDbEntity
  8
0
  6
ByBlock
 62
     0
 48
50.0
100
AcDbLine
 10
4847.673057123657
 20
6448.066653779701
 30
0.0
 11
4947.673057123656
 21
6448.066653779701
 31
0.0
  0
LINE
  5
16475
330
163A9
100
AcDbEntity
  8
0
  6
ByBlock
 62
     0
 48
50.0
100
AcDbLine
 10
4799.673057123653
 20
6448.066653779701
 30
0.0
 11
4699.673057123653
 21
6448.066653779701
 31
0.0
  0
MTEXT
  5
16476
330
163A9
100
AcDbEntity
  8
0
  6
ByBlock
 62
     7
 48
50.0
100
AcDbMText
 10
4960.575028123714
 20
6548.0666537797
 30
0.0
 40
120.0
 41
0.0
 71
     5
 72
     1
  1
\A1;48
  7
STYLE1
 73
     1
 44
1.0
1001
ACAD
1000
MTEXTBEGIN
1070
    73
1070
     1
1070
    44
1040
1.0
1070
    74
1070
     0
1000
MTEXTEND
  0
LINE
  5
16477
330
163A9
100
AcDbEntity
  8
0
  6
ByBlock
 62
     0
 48
50.0
100
AcDbLine
 10
4847.673057123657
 20
6448.066653779701
 30
0.0
 11
4799.673057123653
 21
6448.066653779701
 31
0.0
  0
LINE
  5
16478
330
163A9
100
AcDbEntity
  8
0
  6
ByBlock
 62
     0
 48
50.0
100
AcDbLine
 10
4847.673057123657
 20
6448.066653779701
 30
0.0
 11
4799.673057123653
 21
6448.066653779701
 31
0.0
  0
INSERT
  5
16479
330
163A9
100
AcDbEntity
  8
0
  6
ByBlock
 62
     0
 48
50.0
100
AcDbBlockReference
  2
_DOTSMALL
 10
4847.673057123657
 20
6448.066653779701
 30
0.0
 41
100.0
 42
100.0
 43
100.0
 50
180.0
  0
INSERT
  5
1647A
330
163A9
100
AcDbEntity
  8
0
  6
ByBlock
 62
     0
 48
50.0
100
AcDbBlockReference
  2
_DOTSMALL
 10
4799.673057123653
 20
6448.066653779701
 30
0.0
 41
100.0
 42
100.0
 43
100.0
  0
POINT
  5
1647B
330
163A9
100
AcDbEntity
  8
DEFPOINTS
  6
ByBlock
 62
     0
 48
50.0
100
AcDbPoint
 10
4847.673057123657
 20
7008.497424545864
 30
0.0
  0
POINT
  5
1647C
330
163A9
100
AcDbEntity
  8
DEFPOINTS
  6
ByBlock
 62
     0
 48
50.0
100
AcDbPoint
 10
4799.673057123653
 20
6982.497424545865
 30
0.0
  0
POINT
  5
1647D
330
163A9
100
AcDbEntity
  8
DEFPOINTS
  6
ByBlock
 62
     0
 48
50.0
100
AcDbPoint
 10
4799.673057123653
 20
6448.066653779701
 30
0.0
  0
ENDBLK
  5
1647E
330
163A9
100
AcDbEntity
  8
0
 48
50.0
100
AcDbBlockEnd
  0
BLOCK
  5
1647F
330
163B8
100
AcDbEntity
  8
0
 48
50.0
100
AcDbBlockBegin
  2
*D9
 70
     1
 10
0.0
 20
0.0
 30
0.0
  3
*D9
  1

  0
LINE
  5
16480
330
163B8
100
AcDbEntity
  8
0
  6
ByBlock
 62
     0
 48
50.0
100
AcDbLine
 10
7319.67305712364
 20
6962.497424545952
 30
0.0
 11
7319.67305712364
 21
6388.0666537797
 31
0.0
  0
LINE
  5
16481
330
163B8
100
AcDbEntity
  8
0
  6
ByBlock
 62
     0
 48
50.0
100
AcDbLine
 10
7271.673057123638
 20
6988.497424545865
 30
0.0
 11
7271.673057123638
 21
6388.0666537797
 31
0.0
  0
LINE
  5
16482
330
163B8
100
AcDbEntity
  8
0
  6
ByBlock
 62
     0
 48
50.0
100
AcDbLine
 10
7319.67305712364
 20
6448.066653779701
 30
0.0
 11
7419.67305712364
 21
6448.066653779701
 31
0.0
  0
LINE
  5
16483
330
163B8
100
AcDbEntity
  8
0
  6
ByBlock
 62
     0
 48
50.0
100
AcDbLine
 10
7271.673057123638
 20
6448.066653779701
 30
0.0
 11
7171.673057123638
 21
6448.066653779701
 31
0.0
  0
MTEXT
  5
16484
330
163B8
100
AcDbEntity
  8
0
  6
ByBlock
 62
     7
 48
50.0
100
AcDbMText
 10
7160.710159474891
 20
6548.0666537797
 30
0.0
 40
120.0
 41
0.0
 71
     5
 72
     1
  1
\A1;48
  7
STYLE1
 73
     1
 44
1.0
1001
ACAD
1000
MTEXTBEGIN
1070
    73
1070
     1
1070
    44
1040
1.0
1070
    74
1070
     0
1000
MTEXTEND
  0
LINE
  5
16485
330
163B8
100
AcDbEntity
  8
0
  6
ByBlock
 62
     0
 48
50.0
100
AcDbLine
 10
7319.67305712364
 20
6448.066653779701
 30
0.0
 11
7271.673057123638
 21
6448.066653779701
 31
0.0
  0
LINE
  5
16486
330
163B8
100
AcDbEntity
  8
0
  6
ByBlock
 62
     0
 48
50.0
100
AcDbLine
 10
7319.67305712364
 20
6448.066653779701
 30
0.0
 11
7271.673057123638
 21
6448.066653779701
 31
0.0
  0
INSERT
  5
16487
330
163B8
100
AcDbEntity
  8
0
  6
ByBlock
 62
     0
 48
50.0
100
AcDbBlockReference
  2
_DOTSMALL
 10
7319.67305712364
 20
6448.066653779701
 30
0.0
 41
100.0
 42
100.0
 43
100.0
 50
180.0
  0
INSERT
  5
16488
330
163B8
100
AcDbEntity
  8
0
  6
ByBlock
 62
     0
 48
50.0
100
AcDbBlockReference
  2
_DOTSMALL
 10
7271.673057123638
 20
6448.066653779701
 30
0.0
 41
100.0
 42
100.0
 43
100.0
  0
POINT
  5
16489
330
163B8
100
AcDbEntity
  8
DEFPOINTS
  6
ByBlock
 62
     0
 48
50.0
100
AcDbPoint
 10
7319.67305712364
 20
6982.497424545953
 30
0.0
  0
POINT
  5
1648A
330
163B8
100
AcDbEntity
  8
DEFPOINTS
  6
ByBlock
 62
     0
 48
50.0
100
AcDbPoint
 10
7271.673057123638
 20
7008.497424545865
 30
0.0
  0
POINT
  5
1648B
330
163B8
100
AcDbEntity
  8
DEFPOINTS
  6
ByBlock
 62
     0
 48
50.0
100
AcDbPoint
 10
7271.673057123638
 20
6448.066653779701
 30
0.0
  0
ENDBLK
  5
1648C
330
163B8
100
AcDbEntity
  8
0
 48
50.0
100
AcDbBlockEnd
  0
BLOCK
  5
1648D
330
163C7
100
AcDbEntity
  8
0
 48
50.0
100
AcDbBlockBegin
  2
*D10
 70
     1
 10
0.0
 20
0.0
 30
0.0
  3
*D10
  1

  0
LINE
  5
1648E
330
163C7
100
AcDbEntity
  8
0
  6
ByBlock
 62
     0
 48
50.0
100
AcDbLine
 10
7374.673057123638
 20
6962.497424545957
 30
0.0
 11
7374.673057123638
 21
6388.066653779702
 31
0.0
  0
LINE
  5
1648F
330
163C7
100
AcDbEntity
  8
0
  6
ByBlock
 62
     0
 48
50.0
100
AcDbLine
 10
7319.67305712364
 20
6962.497424545952
 30
0.0
 11
7319.67305712364
 21
6388.066653779702
 31
0.0
  0
LINE
  5
16490
330
163C7
100
AcDbEntity
  8
0
  6
ByBlock
 62
     0
 48
50.0
100
AcDbLine
 10
7319.67305712364
 20
6448.066653779702
 30
0.0
 11
7219.67305712364
 21
6448.066653779702
 31
0.0
  0
LINE
  5
16491
330
163C7
100
AcDbEntity
  8
0
  6
ByBlock
 62
     0
 48
50.0
100
AcDbLine
 10
7374.673057123638
 20
6448.066653779702
 30
0.0
 11
7791.643619872115
 21
6448.066653779702
 31
0.0
  0
LINE
  5
16492
330
163C7
100
AcDbEntity
  8
0
  6
ByBlock
 62
     0
 48
50.0
100
AcDbLine
 10
7319.67305712364
 20
6448.066653779702
 30
0.0
 11
7374.673057123638
 21
6448.066653779702
 31
0.0
  0
INSERT
  5
16493
330
163C7
100
AcDbEntity
  8
0
  6
ByBlock
 62
     0
 48
50.0
100
AcDbBlockReference
  2
_DOTSMALL
 10
7319.67305712364
 20
6448.066653779702
 30
0.0
 41
100.0
 42
100.0
 43
100.0
  0
INSERT
  5
16494
330
163C7
100
AcDbEntity
  8
0
  6
ByBlock
 62
     0
 48
50.0
100
AcDbBlockReference
  2
_DOTSMALL
 10
7374.673057123638
 20
6448.066653779702
 30
0.0
 41
100.0
 42
100.0
 43
100.0
 50
180.0
  0
MTEXT
  5
16495
330
163C7
100
AcDbEntity
  8
0
  6
ByBlock
 62
     7
 48
50.0
100
AcDbMText
 10
7683.158338497877
 20
6548.066653779702
 30
0.0
 40
120.0
 41
0.0
 71
     5
 72
     1
  1
\A1;55
  7
STYLE1
 73
     1
 44
1.0
1001
ACAD
1000
MTEXTBEGIN
1070
    73
1070
     1
1070
    44
1040
1.0
1070
    74
1070
     0
1000
MTEXTEND
  0
POINT
  5
16496
330
163C7
100
AcDbEntity
  8
DEFPOINTS
  6
ByBlock
 62
     0
 48
50.0
100
AcDbPoint
 10
7374.673057123638
 20
6982.497424545956
 30
0.0
  0
POINT
  5
16497
330
163C7
100
AcDbEntity
  8
DEFPOINTS
  6
ByBlock
 62
     0
 48
50.0
100
AcDbPoint
 10
7319.67305712364
 20
6982.497424545953
 30
0.0
  0
POINT
  5
16498
330
163C7
100
AcDbEntity
  8
DEFPOINTS
  6
ByBlock
 62
     0
 48
50.0
100
AcDbPoint
 10
7319.67305712364
 20
6448.066653779702
 30
0.0
  0
ENDBLK
  5
16499
330
163C7
100
AcDbEntity
  8
0
 48
50.0
100
AcDbBlockEnd
  0
BLOCK
  5
18C46
330
163E1
100
AcDbEntity
  8
0
 48
50.0
100
AcDbBlockBegin
  2
*D11
 70
     1
 10
0.0
 20
0.0
 30
0.0
  3
*D11
  1

  0
LINE
  5
1BD86
330
163E1
100
AcDbEntity
  8
寸法
 62
     0
 48
50.0
370
    -2
100
AcDbLine
 10
7275.137356965271
 20
10212.49742454587
 30
0.0
 11
7275.137356965271
 21
10668.30564417097
 31
0.0
  0
LINE
  5
1BD87
330
163E1
100
AcDbEntity
  8
寸法
 62
     0
 48
50.0
370
    -2
100
AcDbLine
 10
9795.137356965273
 20
10212.49742454596
 30
0.0
 11
9795.137356965273
 21
10668.30564417097
 31
0.0
  0
LINE
  5
1BD88
330
163E1
100
AcDbEntity
  8
寸法
 62
     0
 48
50.0
370
    -2
100
AcDbLine
 10
7275.137356965271
 20
10608.30564417096
 30
0.0
 11
9795.137356965273
 21
10608.30564417096
 31
0.0
  0
INSERT
  5
1BD89
330
163E1
100
AcDbEntity
  8
寸法
 62
     0
 48
50.0
370
    -2
100
AcDbBlockReference
  2
_DOTSMALL
 10
7275.137356965271
 20
10608.30564417096
 30
0.0
 41
100.0
 42
100.0
 43
100.0
 50
180.0
  0
INSERT
  5
1BD8A
330
163E1
100
AcDbEntity
  8
寸法
 62
     0
 48
50.0
370
    -2
100
AcDbBlockReference
  2
_DOTSMALL
 10
9795.137356965273
 20
10608.30564417096
 30
0.0
 41
100.0
 42
100.0
 43
100.0
  0
MTEXT
  5
1BD8B
330
163E1
100
AcDbEntity
  8
寸法
 62
     7
 48
50.0
100
AcDbMText
 10
8535.137356965272
 20
10708.31745519459
 30
0.0
 40
120.0
 41
0.0
 71
     5
 72
     1
  1
\A1;6X420=2520
  7
STYLE1
 73
     1
 44
1.0
1001
ACAD
1000
MTEXTBEGIN
1070
    73
1070
     1
1070
    44
1040
1.0
1070
    74
1070
     0
1000
MTEXTEND
  0
POINT
  5
1BD8C
330
163E1
100
AcDbEntity
  8
DEFPOINTS
 62
     0
 48
50.0
100
AcDbPoint
 10
7275.137356965271
 20
10192.49742454587
 30
0.0
  0
POINT
  5
1BD8D
330
163E1
100
AcDbEntity
  8
DEFPOINTS
 62
     0
 48
50.0
100
AcDbPoint
 10
9795.137356965273
 20
10192.49742454596
 30
0.0
  0
POINT
  5
1BD8E
330
163E1
100
AcDbEntity
  8
DEFPOINTS
 62
     0
 48
50.0
100
AcDbPoint
 10
9795.137356965273
 20
10608.30564417096
 30
0.0
  0
ENDBLK
  5
18C50
330
163E1
100
AcDbEntity
  8
0
 48
50.0
100
AcDbBlockEnd
  0
BLOCK
  5
164B0
330
163ED
100
AcDbEntity
  8
0
 48
50.0
100
AcDbBlockBegin
  2
*D12
 70
     1
 10
0.0
 20
0.0
 30
0.0
  3
*D12
  1

  0
LINE
  5
1BD7B
330
163ED
100
AcDbEntity
  8
寸法
 62
     0
 48
50.0
370
    -2
100
AcDbLine
 10
1960.137356965239
 20
10212.49742454587
 30
0.0
 11
1960.137356965239
 21
10668.30564417085
 31
0.0
  0
LINE
  5
1BD7C
330
163ED
100
AcDbEntity
  8
寸法
 62
     0
 48
50.0
370
    -2
100
AcDbLine
 10
2015.137356965272
 20
10212.49742454587
 30
0.0
 11
2015.137356965272
 21
10668.30564417085
 31
0.0
  0
LINE
  5
1BD7D
330
163ED
100
AcDbEntity
  8
寸法
 62
     0
 48
50.0
370
    -2
100
AcDbLine
 10
2015.137356965272
 20
10608.30564417085
 30
0.0
 11
2115.137356965272
 21
10608.30564417085
 31
0.0
  0
LINE
  5
1BD7E
330
163ED
100
AcDbEntity
  8
寸法
 62
     0
 48
50.0
370
    -2
100
AcDbLine
 10
1960.137356965239
 20
10608.30564417085
 30
0.0
 11
1543.16679421676
 21
10608.30564417085
 31
0.0
  0
LINE
  5
1BD7F
330
163ED
100
AcDbEntity
  8
寸法
 62
     0
 48
50.0
370
    -2
100
AcDbLine
 10
2015.137356965272
 20
10608.30564417085
 30
0.0
 11
1960.137356965239
 21
10608.30564417085
 31
0.0
  0
INSERT
  5
1BD80
330
163ED
100
AcDbEntity
  8
寸法
 62
     0
 48
50.0
370
    -2
100
AcDbBlockReference
  2
_DOTSMALL
 10
2015.137356965272
 20
10608.30564417085
 30
0.0
 41
100.0
 42
100.0
 43
100.0
 50
180.0
  0
INSERT
  5
1BD81
330
163ED
100
AcDbEntity
  8
寸法
 62
     0
 48
50.0
370
    -2
100
AcDbBlockReference
  2
_DOTSMALL
 10
1960.137356965239
 20
10608.30564417085
 30
0.0
 41
100.0
 42
100.0
 43
100.0
  0
MTEXT
  5
1BD82
330
163ED
100
AcDbEntity
  8
寸法
 62
     7
 48
50.0
100
AcDbMText
 10
1651.652075590998
 20
10708.30564417085
 30
0.0
 40
120.0
 41
0.0
 71
     5
 72
     1
  1
\A1;55
  7
STYLE1
 73
     1
 44
1.0
1001
ACAD
1000
MTEXTBEGIN
1070
    73
1070
     1
1070
    44
1040
1.0
1070
    74
1070
     0
1000
MTEXTEND
  0
POINT
  5
1BD83
330
163ED
100
AcDbEntity
  8
DEFPOINTS
 62
     0
 48
50.0
100
AcDbPoint
 10
1960.137356965239
 20
10192.49742454587
 30
0.0
  0
POINT
  5
1BD84
330
163ED
100
AcDbEntity
  8
DEFPOINTS
 62
     0
 48
50.0
100
AcDbPoint
 10
2015.137356965272
 20
10192.49742454587
 30
0.0
  0
POINT
  5
1BD85
330
163ED
100
AcDbEntity
  8
DEFPOINTS
 62
     0
 48
50.0
100
AcDbPoint
 10
2015.137356965272
 20
10608.30564417085
 30
0.0
  0
ENDBLK
  5
164BC
330
163ED
100
AcDbEntity
  8
0
 48
50.0
100
AcDbBlockEnd
  0
BLOCK
  5
164BD
330
163FB
100
AcDbEntity
  8
0
 48
50.0
100
AcDbBlockBegin
  2
*D13
 70
     1
 10
0.0
 20
0.0
 30
0.0
  3
*D13
  1

  0
LINE
  5
1BD70
330
163FB
100
AcDbEntity
  8
寸法
 62
     0
 48
50.0
370
    -2
100
AcDbLine
 10
9795.137356965273
 20
10212.49742454596
 30
0.0
 11
9795.137356965273
 21
10668.30564417095
 31
0.0
  0
LINE
  5
1BD71
330
163FB
100
AcDbEntity
  8
寸法
 62
     0
 48
50.0
370
    -2
100
AcDbLine
 10
9850.137356965275
 20
10212.49742454596
 30
0.0
 11
9850.137356965275
 21
10668.30564417095
 31
0.0
  0
LINE
  5
1BD72
330
163FB
100
AcDbEntity
  8
寸法
 62
     0
 48
50.0
370
    -2
100
AcDbLine
 10
9795.137356965273
 20
10608.30564417095
 30
0.0
 11
9695.137356965274
 21
10608.30564417095
 31
0.0
  0
LINE
  5
1BD73
330
163FB
100
AcDbEntity
  8
寸法
 62
     0
 48
50.0
370
    -2
100
AcDbLine
 10
9850.137356965275
 20
10608.30564417095
 30
0.0
 11
10267.10791971375
 21
10608.30564417095
 31
0.0
  0
LINE
  5
1BD74
330
163FB
100
AcDbEntity
  8
寸法
 62
     0
 48
50.0
370
    -2
100
AcDbLine
 10
9795.137356965273
 20
10608.30564417095
 30
0.0
 11
9850.137356965275
 21
10608.30564417095
 31
0.0
  0
INSERT
  5
1BD75
330
163FB
100
AcDbEntity
  8
寸法
 62
     0
 48
50.0
370
    -2
100
AcDbBlockReference
  2
_DOTSMALL
 10
9795.137356965273
 20
10608.30564417095
 30
0.0
 41
100.0
 42
100.0
 43
100.0
  0
INSERT
  5
1BD76
330
163FB
100
AcDbEntity
  8
寸法
 62
     0
 48
50.0
370
    -2
100
AcDbBlockReference
  2
_DOTSMALL
 10
9850.137356965275
 20
10608.30564417095
 30
0.0
 41
100.0
 42
100.0
 43
100.0
 50
180.0
  0
MTEXT
  5
1BD77
330
163FB
100
AcDbEntity
  8
寸法
 62
     7
 48
50.0
100
AcDbMText
 10
10158.62263833951
 20
10708.30564417095
 30
0.0
 40
120.0
 41
0.0
 71
     5
 72
     1
  1
\A1;55
  7
STYLE1
 73
     1
 44
1.0
1001
ACAD
1000
MTEXTBEGIN
1070
    73
1070
     1
1070
    44
1040
1.0
1070
    74
1070
     0
1000
MTEXTEND
  0
POINT
  5
1BD78
330
163FB
100
AcDbEntity
  8
DEFPOINTS
 62
     0
 48
50.0
100
AcDbPoint
 10
9795.137356965273
 20
10192.49742454596
 30
0.0
  0
POINT
  5
1BD79
330
163FB
100
AcDbEntity
  8
DEFPOINTS
 62
     0
 48
50.0
100
AcDbPoint
 10
9850.137356965275
 20
10192.49742454596
 30
0.0
  0
POINT
  5
1BD7A
330
163FB
100
AcDbEntity
  8
DEFPOINTS
 62
     0
 48
50.0
100
AcDbPoint
 10
9850.137356965275
 20
10608.30564417095
 30
0.0
  0
ENDBLK
  5
164C9
330
163FB
100
AcDbEntity
  8
0
 48
50.0
100
AcDbBlockEnd
  0
BLOCK
  5
165B6
330
165B5
100
AcDbEntity
  8
0
 48
50.0
100
AcDbBlockBegin
  2
*D14
 70
     1
 10
0.0
 20
0.0
 30
0.0
  3
*D14
  1

  0
LINE
  5
165B7
330
165B5
100
AcDbEntity
  8
0
  6
ByBlock
 62
     0
 48
50.0
100
AcDbLine
 10
6162.673057123657
 20
6988.497424545865
 30
0.0
 11
6162.673057123657
 21
6388.0666537797
 31
0.0
  0
LINE
  5
165B8
330
165B5
100
AcDbEntity
  8
0
  6
ByBlock
 62
     0
 48
50.0
100
AcDbLine
 10
6114.673057123653
 20
6962.497424545865
 30
0.0
 11
6114.673057123653
 21
6388.0666537797
 31
0.0
  0
LINE
  5
165B9
330
165B5
100
AcDbEntity
  8
0
  6
ByBlock
 62
     0
 48
50.0
100
AcDbLine
 10
6162.673057123657
 20
6448.066653779701
 30
0.0
 11
6262.673057123657
 21
6448.066653779701
 31
0.0
  0
LINE
  5
165BA
330
165B5
100
AcDbEntity
  8
0
  6
ByBlock
 62
     0
 48
50.0
100
AcDbLine
 10
6114.673057123653
 20
6448.066653779701
 30
0.0
 11
6014.673057123653
 21
6448.066653779701
 31
0.0
  0
MTEXT
  5
165BB
330
165B5
100
AcDbEntity
  8
0
  6
ByBlock
 62
     7
 48
50.0
100
AcDbMText
 10
6275.575028123714
 20
6548.0666537797
 30
0.0
 40
120.0
 41
0.0
 71
     5
 72
     1
  1
\A1;48
  7
STYLE1
 73
     1
 44
1.0
1001
ACAD
1000
MTEXTBEGIN
1070
    73
1070
     1
1070
    44
1040
1.0
1070
    74
1070
     0
1000
MTEXTEND
  0
LINE
  5
165BC
330
165B5
100
AcDbEntity
  8
0
  6
ByBlock
 62
     0
 48
50.0
100
AcDbLine
 10
6162.673057123657
 20
6448.066653779701
 30
0.0
 11
6114.673057123653
 21
6448.066653779701
 31
0.0
  0
LINE
  5
165BD
330
165B5
100
AcDbEntity
  8
0
  6
ByBlock
 62
     0
 48
50.0
100
AcDbLine
 10
6162.673057123657
 20
6448.066653779701
 30
0.0
 11
6114.673057123653
 21
6448.066653779701
 31
0.0
  0
INSERT
  5
165BE
330
165B5
100
AcDbEntity
  8
0
  6
ByBlock
 62
     0
 48
50.0
100
AcDbBlockReference
  2
_DOTSMALL
 10
6162.673057123657
 20
6448.066653779701
 30
0.0
 41
100.0
 42
100.0
 43
100.0
 50
180.0
  0
INSERT
  5
165BF
330
165B5
100
AcDbEntity
  8
0
  6
ByBlock
 62
     0
 48
50.0
100
AcDbBlockReference
  2
_DOTSMALL
 10
6114.673057123653
 20
6448.066653779701
 30
0.0
 41
100.0
 42
100.0
 43
100.0
  0
POINT
  5
165C0
330
165B5
100
AcDbEntity
  8
DEFPOINTS
  6
ByBlock
 62
     0
 48
50.0
100
AcDbPoint
 10
6162.673057123657
 20
7008.497424545864
 30
0.0
  0
POINT
  5
165C1
330
165B5
100
AcDbEntity
  8
DEFPOINTS
  6
ByBlock
 62
     0
 48
50.0
100
AcDbPoint
 10
6114.673057123653
 20
6982.497424545865
 30
0.0
  0
POINT
  5
165C2
330
165B5
100
AcDbEntity
  8
DEFPOINTS
  6
ByBlock
 62
     0
 48
50.0
100
AcDbPoint
 10
6114.673057123653
 20
6448.066653779701
 30
0.0
  0
ENDBLK
  5
165C3
330
165B5
100
AcDbEntity
  8
0
 48
50.0
100
AcDbBlockEnd
  0
BLOCK
  5
165C5
330
165C4
100
AcDbEntity
  8
0
 48
50.0
100
AcDbBlockBegin
  2
*D15
 70
     1
 10
0.0
 20
0.0
 30
0.0
  3
*D15
  1

  0
LINE
  5
165C6
330
165C4
100
AcDbEntity
  8
0
  6
ByBlock
 62
     0
 48
50.0
100
AcDbLine
 10
8634.67305712364
 20
6962.497424545952
 30
0.0
 11
8634.67305712364
 21
6388.0666537797
 31
0.0
  0
LINE
  5
165C7
330
165C4
100
AcDbEntity
  8
0
  6
ByBlock
 62
     0
 48
50.0
100
AcDbLine
 10
8586.673057123638
 20
6988.497424545865
 30
0.0
 11
8586.673057123638
 21
6388.0666537797
 31
0.0
  0
LINE
  5
165C8
330
165C4
100
AcDbEntity
  8
0
  6
ByBlock
 62
     0
 48
50.0
100
AcDbLine
 10
8634.67305712364
 20
6448.066653779701
 30
0.0
 11
8734.673057123641
 21
6448.066653779701
 31
0.0
  0
LINE
  5
165C9
330
165C4
100
AcDbEntity
  8
0
  6
ByBlock
 62
     0
 48
50.0
100
AcDbLine
 10
8586.673057123638
 20
6448.066653779701
 30
0.0
 11
8486.673057123638
 21
6448.066653779701
 31
0.0
  0
MTEXT
  5
165CA
330
165C4
100
AcDbEntity
  8
0
  6
ByBlock
 62
     7
 48
50.0
100
AcDbMText
 10
8475.710159474891
 20
6548.0666537797
 30
0.0
 40
120.0
 41
0.0
 71
     5
 72
     1
  1
\A1;48
  7
STYLE1
 73
     1
 44
1.0
1001
ACAD
1000
MTEXTBEGIN
1070
    73
1070
     1
1070
    44
1040
1.0
1070
    74
1070
     0
1000
MTEXTEND
  0
LINE
  5
165CB
330
165C4
100
AcDbEntity
  8
0
  6
ByBlock
 62
     0
 48
50.0
100
AcDbLine
 10
8634.67305712364
 20
6448.066653779701
 30
0.0
 11
8586.673057123638
 21
6448.066653779701
 31
0.0
  0
LINE
  5
165CC
330
165C4
100
AcDbEntity
  8
0
  6
ByBlock
 62
     0
 48
50.0
100
AcDbLine
 10
8634.67305712364
 20
6448.066653779701
 30
0.0
 11
8586.673057123638
 21
6448.066653779701
 31
0.0
  0
INSERT
  5
165CD
330
165C4
100
AcDbEntity
  8
0
  6
ByBlock
 62
     0
 48
50.0
100
AcDbBlockReference
  2
_DOTSMALL
 10
8634.67305712364
 20
6448.066653779701
 30
0.0
 41
100.0
 42
100.0
 43
100.0
 50
180.0
  0
INSERT
  5
165CE
330
165C4
100
AcDbEntity
  8
0
  6
ByBlock
 62
     0
 48
50.0
100
AcDbBlockReference
  2
_DOTSMALL
 10
8586.673057123638
 20
6448.066653779701
 30
0.0
 41
100.0
 42
100.0
 43
100.0
  0
POINT
  5
165CF
330
165C4
100
AcDbEntity
  8
DEFPOINTS
  6
ByBlock
 62
     0
 48
50.0
100
AcDbPoint
 10
8634.67305712364
 20
6982.497424545953
 30
0.0
  0
POINT
  5
165D0
330
165C4
100
AcDbEntity
  8
DEFPOINTS
  6
ByBlock
 62
     0
 48
50.0
100
AcDbPoint
 10
8586.673057123638
 20
7008.497424545865
 30
0.0
  0
POINT
  5
165D1
330
165C4
100
AcDbEntity
  8
DEFPOINTS
  6
ByBlock
 62
     0
 48
50.0
100
AcDbPoint
 10
8586.673057123638
 20
6448.066653779701
 30
0.0
  0
ENDBLK
  5
165D2
330
165C4
100
AcDbEntity
  8
0
 48
50.0
100
AcDbBlockEnd
  0
BLOCK
  5
1663F
330
165EA
100
AcDbEntity
  8
0
 48
50.0
100
AcDbBlockBegin
  2
*D16
 70
     1
 10
0.0
 20
0.0
 30
0.0
  3
*D16
  1

  0
LINE
  5
16640
330
165EA
100
AcDbEntity
  8
0
  6
ByBlock
 62
     0
 48
50.0
100
AcDbLine
 10
6114.673057123653
 20
7222.497424545863
 30
0.0
 11
6114.673057123653
 21
6648.066653779702
 31
0.0
  0
LINE
  5
16641
330
165EA
100
AcDbEntity
  8
0
  6
ByBlock
 62
     0
 48
50.0
100
AcDbLine
 10
6004.67305712364
 20
7222.497424545952
 30
0.0
 11
6004.67305712364
 21
6648.066653779702
 31
0.0
  0
LINE
  5
16642
330
165EA
100
AcDbEntity
  8
0
  6
ByBlock
 62
     0
 48
50.0
100
AcDbLine
 10
6114.673057123653
 20
6708.066653779702
 30
0.0
 11
6004.67305712364
 21
6708.066653779702
 31
0.0
  0
MTEXT
  5
16643
330
165EA
100
AcDbEntity
  8
0
  6
ByBlock
 62
     7
 48
50.0
100
AcDbMText
 10
6059.673057123647
 20
6556.37475874347
 30
0.0
 40
120.0
 41
0.0
 71
     5
 72
     1
  1
\A1;110
  7
STYLE1
 73
     1
 44
1.0
1001
ACAD
1000
MTEXTBEGIN
1070
    73
1070
     1
1070
    44
1040
1.0
1070
    74
1070
     0
1000
MTEXTEND
  0
INSERT
  5
16644
330
165EA
100
AcDbEntity
  8
0
  6
ByBlock
 62
     0
 48
50.0
100
AcDbBlockReference
  2
_DOTSMALL
 10
6114.673057123653
 20
6708.066653779702
 30
0.0
 41
100.0
 42
100.0
 43
100.0
  0
INSERT
  5
16645
330
165EA
100
AcDbEntity
  8
0
  6
ByBlock
 62
     0
 48
50.0
100
AcDbBlockReference
  2
_DOTSMALL
 10
6004.67305712364
 20
6708.066653779702
 30
0.0
 41
100.0
 42
100.0
 43
100.0
 50
180.0
  0
POINT
  5
16646
330
165EA
100
AcDbEntity
  8
DEFPOINTS
  6
ByBlock
 62
     0
 48
50.0
100
AcDbPoint
 10
6114.673057123653
 20
7242.497424545864
 30
0.0
  0
POINT
  5
16647
330
165EA
100
AcDbEntity
  8
DEFPOINTS
  6
ByBlock
 62
     0
 48
50.0
100
AcDbPoint
 10
6004.67305712364
 20
7242.497424545952
 30
0.0
  0
POINT
  5
16648
330
165EA
100
AcDbEntity
  8
DEFPOINTS
  6
ByBlock
 62
     0
 48
50.0
100
AcDbPoint
 10
6004.67305712364
 20
6708.066653779702
 30
0.0
  0
ENDBLK
  5
16649
330
165EA
100
AcDbEntity
  8
0
 48
50.0
100
AcDbBlockEnd
  0
BLOCK
  5
1A348
330
166CF
100
AcDbEntity
  8
0
 48
50.0
100
AcDbBlockBegin
  2
*D17
 70
     1
 10
0.0
 20
0.0
 30
0.0
  3
*D17
  1

  0
LINE
  5
1BD65
330
166CF
100
AcDbEntity
  8
寸法
 62
     0
 48
50.0
370
    -2
100
AcDbLine
 10
7275.137356965271
 20
10212.49742454592
 30
0.0
 11
7275.137356965271
 21
10668.30564417097
 31
0.0
  0
LINE
  5
1BD66
330
166CF
100
AcDbEntity
  8
寸法
 62
     0
 48
50.0
370
    -2
100
AcDbLine
 10
7165.137356965273
 20
10212.49742454591
 30
0.0
 11
7165.137356965273
 21
10668.30564417097
 31
0.0
  0
LINE
  5
1BD67
330
166CF
100
AcDbEntity
  8
寸法
 62
     0
 48
50.0
370
    -2
100
AcDbLine
 10
7275.137356965271
 20
10608.30564417096
 30
0.0
 11
7375.137356965272
 21
10608.30564417096
 31
0.0
  0
LINE
  5
1BD68
330
166CF
100
AcDbEntity
  8
寸法
 62
     0
 48
50.0
370
    -2
100
AcDbLine
 10
7165.137356965273
 20
10608.30564417096
 30
0.0
 11
7065.137356965273
 21
10608.30564417096
 31
0.0
  0
LINE
  5
1BD69
330
166CF
100
AcDbEntity
  8
寸法
 62
     0
 48
50.0
370
    -2
100
AcDbLine
 10
7275.137356965271
 20
10608.30564417096
 30
0.0
 11
7165.137356965273
 21
10608.30564417096
 31
0.0
  0
INSERT
  5
1BD6A
330
166CF
100
AcDbEntity
  8
寸法
 62
     0
 48
50.0
370
    -2
100
AcDbBlockReference
  2
_DOTSMALL
 10
7275.137356965271
 20
10608.30564417096
 30
0.0
 41
100.0
 42
100.0
 43
100.0
 50
180.0
  0
INSERT
  5
1BD6B
330
166CF
100
AcDbEntity
  8
寸法
 62
     0
 48
50.0
370
    -2
100
AcDbBlockReference
  2
_DOTSMALL
 10
7165.137356965273
 20
10608.30564417096
 30
0.0
 41
100.0
 42
100.0
 43
100.0
  0
MTEXT
  5
1BD6C
330
166CF
100
AcDbEntity
  8
寸法
 62
     7
 48
50.0
100
AcDbMText
 10
7220.137356965273
 20
10708.30564417097
 30
0.0
 40
120.0
 41
0.0
 71
     5
 72
     1
  1
\A1;110
  7
STYLE1
 73
     1
 44
1.0
1001
ACAD
1000
MTEXTBEGIN
1070
    73
1070
     1
1070
    44
1040
1.0
1070
    74
1070
     0
1000
MTEXTEND
  0
POINT
  5
1BD6D
330
166CF
100
AcDbEntity
  8
DEFPOINTS
 62
     0
 48
50.0
100
AcDbPoint
 10
7275.137356965271
 20
10192.49742454592
 30
0.0
  0
POINT
  5
1BD6E
330
166CF
100
AcDbEntity
  8
DEFPOINTS
 62
     0
 48
50.0
100
AcDbPoint
 10
7165.137356965273
 20
10192.49742454591
 30
0.0
  0
POINT
  5
1BD6F
330
166CF
100
AcDbEntity
  8
DEFPOINTS
 62
     0
 48
50.0
100
AcDbPoint
 10
7165.137356965273
 20
10608.30564417096
 30
0.0
  0
ENDBLK
  5
1A354
330
166CF
100
AcDbEntity
  8
0
 48
50.0
100
AcDbBlockEnd
  0
BLOCK
  5
1A325
330
16908
100
AcDbEntity
  8
0
 48
50.0
100
AcDbBlockBegin
  2
*D18
 70
     1
 10
0.0
 20
0.0
 30
0.0
  3
*D18
  1

  0
LINE
  5
1BD5C
330
16908
100
AcDbEntity
  8
寸法
 62
     0
 48
50.0
370
    -2
100
AcDbLine
 10
7220.137356965273
 20
10787.29355852891
 30
0.0
 11
7220.137356965273
 21
10917.62711772726
 31
0.0
  0
LINE
  5
1BD5D
330
16908
100
AcDbEntity
  8
寸法
 62
     0
 48
50.0
370
    -2
100
AcDbLine
 10
9850.137356965275
 20
10212.49742454596
 30
0.0
 11
9850.137356965275
 21
10917.62711772726
 31
0.0
  0
LINE
  5
1BD5E
330
16908
100
AcDbEntity
  8
寸法
 62
     0
 48
50.0
370
    -2
100
AcDbLine
 10
7220.137356965273
 20
10857.62711772726
 30
0.0
 11
9850.137356965275
 21
10857.62711772726
 31
0.0
  0
INSERT
  5
1BD5F
330
16908
100
AcDbEntity
  8
寸法
 62
     0
 48
50.0
370
    -2
100
AcDbBlockReference
  2
_DOTSMALL
 10
7220.137356965273
 20
10857.62711772726
 30
0.0
 41
100.0
 42
100.0
 43
100.0
 50
180.0
  0
INSERT
  5
1BD60
330
16908
100
AcDbEntity
  8
寸法
 62
     0
 48
50.0
370
    -2
100
AcDbBlockReference
  2
_DOTSMALL
 10
9850.137356965275
 20
10857.62711772726
 30
0.0
 41
100.0
 42
100.0
 43
100.0
  0
MTEXT
  5
1BD61
330
16908
100
AcDbEntity
  8
寸法
 62
     7
 48
50.0
100
AcDbMText
 10
8535.137356965273
 20
10957.63892875088
 30
0.0
 40
120.0
 41
0.0
 71
     5
 72
     1
  1
\A1;2630
  7
STYLE1
 73
     1
 44
1.0
1001
ACAD
1000
MTEXTBEGIN
1070
    73
1070
     1
1070
    44
1040
1.0
1070
    74
1070
     0
1000
MTEXTEND
  0
POINT
  5
1BD62
330
16908
100
AcDbEntity
  8
DEFPOINTS
 62
     0
 48
50.0
100
AcDbPoint
 10
7220.137356965273
 20
10767.29355852891
 30
0.0
  0
POINT
  5
1BD63
330
16908
100
AcDbEntity
  8
DEFPOINTS
 62
     0
 48
50.0
100
AcDbPoint
 10
9850.137356965275
 20
10192.49742454596
 30
0.0
  0
POINT
  5
1BD64
330
16908
100
AcDbEntity
  8
DEFPOINTS
 62
     0
 48
50.0
100
AcDbPoint
 10
9850.137356965275
 20
10857.62711772726
 30
0.0
  0
ENDBLK
  5
1A32F
330
16908
100
AcDbEntity
  8
0
 48
50.0
100
AcDbBlockEnd
  0
BLOCK
  5
17CB3
330
17CB2
100
AcDbEntity
  8
0
 48
50.0
100
AcDbBlockBegin
  2
*D19
 70
     1
 10
0.0
 20
0.0
 30
0.0
  3
*D19
  1

  0
LINE
  5
17CB4
330
17CB2
100
AcDbEntity
  8
0
  6
ByBlock
 62
     0
 48
50.0
100
AcDbLine
 10
7443.137356965266
 20
7148.497424545865
 30
0.0
 11
7443.137356965266
 21
6548.0666537797
 31
0.0
  0
LINE
  5
17CB5
330
17CB2
100
AcDbEntity
  8
0
  6
ByBlock
 62
     0
 48
50.0
100
AcDbLine
 10
7395.137356965263
 20
7122.497424545866
 30
0.0
 11
7395.137356965263
 21
6548.0666537797
 31
0.0
  0
LINE
  5
17CB6
330
17CB2
100
AcDbEntity
  8
0
  6
ByBlock
 62
     0
 48
50.0
100
AcDbLine
 10
7443.137356965266
 20
6608.0666537797
 30
0.0
 11
7543.137356965266
 21
6608.0666537797
 31
0.0
  0
LINE
  5
17CB7
330
17CB2
100
AcDbEntity
  8
0
  6
ByBlock
 62
     0
 48
50.0
100
AcDbLine
 10
7395.137356965263
 20
6608.0666537797
 30
0.0
 11
7295.137356965263
 21
6608.0666537797
 31
0.0
  0
MTEXT
  5
17CB8
330
17CB2
100
AcDbEntity
  8
0
  6
ByBlock
 62
     7
 48
50.0
100
AcDbMText
 10
7556.039327965324
 20
6708.0666537797
 30
0.0
 40
120.0
 41
0.0
 71
     5
 72
     1
  1
\A1;48
  7
STYLE1
 73
     1
 44
1.0
1001
ACAD
1000
MTEXTBEGIN
1070
    73
1070
     1
1070
    44
1040
1.0
1070
    74
1070
     0
1000
MTEXTEND
  0
LINE
  5
17CB9
330
17CB2
100
AcDbEntity
  8
0
  6
ByBlock
 62
     0
 48
50.0
100
AcDbLine
 10
7443.137356965266
 20
6608.0666537797
 30
0.0
 11
7395.137356965263
 21
6608.0666537797
 31
0.0
  0
LINE
  5
17CBA
330
17CB2
100
AcDbEntity
  8
0
  6
ByBlock
 62
     0
 48
50.0
100
AcDbLine
 10
7443.137356965266
 20
6608.0666537797
 30
0.0
 11
7395.137356965263
 21
6608.0666537797
 31
0.0
  0
INSERT
  5
17CBB
330
17CB2
100
AcDbEntity
  8
0
  6
ByBlock
 62
     0
 48
50.0
100
AcDbBlockReference
  2
_DOTSMALL
 10
7443.137356965266
 20
6608.0666537797
 30
0.0
 41
100.0
 42
100.0
 43
100.0
 50
180.0
  0
INSERT
  5
17CBC
330
17CB2
100
AcDbEntity
  8
0
  6
ByBlock
 62
     0
 48
50.0
100
AcDbBlockReference
  2
_DOTSMALL
 10
7395.137356965263
 20
6608.0666537797
 30
0.0
 41
100.0
 42
100.0
 43
100.0
  0
POINT
  5
17CBD
330
17CB2
100
AcDbEntity
  8
DEFPOINTS
  6
ByBlock
 62
     0
 48
50.0
100
AcDbPoint
 10
7443.137356965266
 20
7168.497424545865
 30
0.0
  0
POINT
  5
17CBE
330
17CB2
100
AcDbEntity
  8
DEFPOINTS
  6
ByBlock
 62
     0
 48
50.0
100
AcDbPoint
 10
7395.137356965263
 20
7142.497424545865
 30
0.0
  0
POINT
  5
17CBF
330
17CB2
100
AcDbEntity
  8
DEFPOINTS
  6
ByBlock
 62
     0
 48
50.0
100
AcDbPoint
 10
7395.137356965263
 20
6608.0666537797
 30
0.0
  0
ENDBLK
  5
17CC0
330
17CB2
100
AcDbEntity
  8
0
 48
50.0
100
AcDbBlockEnd
  0
BLOCK
  5
17CC2
330
17CC1
100
AcDbEntity
  8
0
 48
50.0
100
AcDbBlockBegin
  2
*D20
 70
     1
 10
0.0
 20
0.0
 30
0.0
  3
*D20
  1

  0
LINE
  5
17CC3
330
17CC1
100
AcDbEntity
  8
0
  6
ByBlock
 62
     0
 48
50.0
100
AcDbLine
 10
7285.137356965249
 20
7122.497424545952
 30
0.0
 11
7285.137356965249
 21
6548.0666537797
 31
0.0
  0
LINE
  5
17CC4
330
17CC1
100
AcDbEntity
  8
0
  6
ByBlock
 62
     0
 48
50.0
100
AcDbLine
 10
7237.137356965248
 20
7148.497424545865
 30
0.0
 11
7237.137356965248
 21
6548.0666537797
 31
0.0
  0
LINE
  5
17CC5
330
17CC1
100
AcDbEntity
  8
0
  6
ByBlock
 62
     0
 48
50.0
100
AcDbLine
 10
7285.137356965249
 20
6608.0666537797
 30
0.0
 11
7385.137356965249
 21
6608.0666537797
 31
0.0
  0
LINE
  5
17CC6
330
17CC1
100
AcDbEntity
  8
0
  6
ByBlock
 62
     0
 48
50.0
100
AcDbLine
 10
7237.137356965248
 20
6608.0666537797
 30
0.0
 11
7137.137356965247
 21
6608.0666537797
 31
0.0
  0
MTEXT
  5
17CC7
330
17CC1
100
AcDbEntity
  8
0
  6
ByBlock
 62
     7
 48
50.0
100
AcDbMText
 10
7126.174459316501
 20
6708.0666537797
 30
0.0
 40
120.0
 41
0.0
 71
     5
 72
     1
  1
\A1;48
  7
STYLE1
 73
     1
 44
1.0
1001
ACAD
1000
MTEXTBEGIN
1070
    73
1070
     1
1070
    44
1040
1.0
1070
    74
1070
     0
1000
MTEXTEND
  0
LINE
  5
17CC8
330
17CC1
100
AcDbEntity
  8
0
  6
ByBlock
 62
     0
 48
50.0
100
AcDbLine
 10
7285.137356965249
 20
6608.0666537797
 30
0.0
 11
7237.137356965248
 21
6608.0666537797
 31
0.0
  0
LINE
  5
17CC9
330
17CC1
100
AcDbEntity
  8
0
  6
ByBlock
 62
     0
 48
50.0
100
AcDbLine
 10
7285.137356965249
 20
6608.0666537797
 30
0.0
 11
7237.137356965248
 21
6608.0666537797
 31
0.0
  0
INSERT
  5
17CCA
330
17CC1
100
AcDbEntity
  8
0
  6
ByBlock
 62
     0
 48
50.0
100
AcDbBlockReference
  2
_DOTSMALL
 10
7285.137356965249
 20
6608.0666537797
 30
0.0
 41
100.0
 42
100.0
 43
100.0
 50
180.0
  0
INSERT
  5
17CCB
330
17CC1
100
AcDbEntity
  8
0
  6
ByBlock
 62
     0
 48
50.0
100
AcDbBlockReference
  2
_DOTSMALL
 10
7237.137356965248
 20
6608.0666537797
 30
0.0
 41
100.0
 42
100.0
 43
100.0
  0
POINT
  5
17CCC
330
17CC1
100
AcDbEntity
  8
DEFPOINTS
  6
ByBlock
 62
     0
 48
50.0
100
AcDbPoint
 10
7285.137356965249
 20
7142.497424545952
 30
0.0
  0
POINT
  5
17CCD
330
17CC1
100
AcDbEntity
  8
DEFPOINTS
  6
ByBlock
 62
     0
 48
50.0
100
AcDbPoint
 10
7237.137356965248
 20
7168.497424545865
 30
0.0
  0
POINT
  5
17CCE
330
17CC1
100
AcDbEntity
  8
DEFPOINTS
  6
ByBlock
 62
     0
 48
50.0
100
AcDbPoint
 10
7237.137356965248
 20
6608.0666537797
 30
0.0
  0
ENDBLK
  5
17CCF
330
17CC1
100
AcDbEntity
  8
0
 48
50.0
100
AcDbBlockEnd
  0
BLOCK
  5
185A4
330
17CD0
100
AcDbEntity
  8
0
 48
50.0
100
AcDbBlockBegin
  2
*D21
 70
     1
 10
0.0
 20
0.0
 30
0.0
  3
*D21
  1

  0
LINE
  5
185A5
330
17CD0
100
AcDbEntity
  8
0
  6
ByBlock
 62
     0
 48
50.0
100
AcDbLine
 10
1433.137356965266
 20
7148.497424545865
 30
0.0
 11
1433.137356965266
 21
6548.0666537797
 31
0.0
  0
LINE
  5
185A6
330
17CD0
100
AcDbEntity
  8
0
  6
ByBlock
 62
     0
 48
50.0
100
AcDbLine
 10
3857.137356965248
 20
6608.0666537797
 30
0.0
 11
1433.137356965266
 21
6608.0666537797
 31
0.0
  0
INSERT
  5
185A7
330
17CD0
100
AcDbEntity
  8
0
  6
ByBlock
 62
     0
 48
50.0
100
AcDbBlockReference
  2
_DOTSMALL
 10
3857.137356965248
 20
6608.0666537797
 30
0.0
 41
100.0
 42
100.0
 43
100.0
  0
INSERT
  5
185A8
330
17CD0
100
AcDbEntity
  8
0
  6
ByBlock
 62
     0
 48
50.0
100
AcDbBlockReference
  2
_DOTSMALL
 10
1433.137356965266
 20
6608.0666537797
 30
0.0
 41
100.0
 42
100.0
 43
100.0
 50
180.0
  0
MTEXT
  5
185A9
330
17CD0
100
AcDbEntity
  8
0
  6
ByBlock
 62
     7
 48
50.0
100
AcDbMText
 10
2645.137356965257
 20
6708.078464803323
 30
0.0
 40
120.0
 41
0.0
 71
     5
 72
     1
  1
\A1;有効開口部間口 2424
  7
STYLE1
 73
     1
 44
1.0
1001
ACAD
1000
MTEXTBEGIN
1070
    73
1070
     1
1070
    44
1040
1.0
1070
    74
1070
     0
1000
MTEXTEND
  0
POINT
  5
185AA
330
17CD0
100
AcDbEntity
  8
DEFPOINTS
  6
ByBlock
 62
     0
 48
50.0
100
AcDbPoint
 10
3857.137356965248
 20
7168.497424545865
 30
0.0
  0
POINT
  5
185AB
330
17CD0
100
AcDbEntity
  8
DEFPOINTS
  6
ByBlock
 62
     0
 48
50.0
100
AcDbPoint
 10
1433.137356965266
 20
7168.497424545865
 30
0.0
  0
POINT
  5
185AC
330
17CD0
100
AcDbEntity
  8
DEFPOINTS
  6
ByBlock
 62
     0
 48
50.0
100
AcDbPoint
 10
1433.137356965266
 20
6608.0666537797
 30
0.0
  0
ENDBLK
  5
185AD
330
17CD0
100
AcDbEntity
  8
0
 48
50.0
100
AcDbBlockEnd
  0
BLOCK
  5
17CDC
330
17CDB
100
AcDbEntity
  8
0
 48
50.0
100
AcDbBlockBegin
  2
*D22
 70
     1
 10
0.0
 20
0.0
 30
0.0
  3
*D22
  1

  0
LINE
  5
17CDD
330
17CDB
100
AcDbEntity
  8
0
  6
ByBlock
 62
     0
 48
50.0
100
AcDbLine
 10
7395.137356965263
 20
7122.497424545866
 30
0.0
 11
7395.137356965263
 21
6548.066653779702
 31
0.0
  0
LINE
  5
17CDE
330
17CDB
100
AcDbEntity
  8
0
  6
ByBlock
 62
     0
 48
50.0
100
AcDbLine
 10
7285.137356965249
 20
7122.497424545952
 30
0.0
 11
7285.137356965249
 21
6548.066653779702
 31
0.0
  0
LINE
  5
17CDF
330
17CDB
100
AcDbEntity
  8
0
  6
ByBlock
 62
     0
 48
50.0
100
AcDbLine
 10
7395.137356965263
 20
6608.066653779701
 30
0.0
 11
7285.137356965249
 21
6608.066653779701
 31
0.0
  0
MTEXT
  5
17CE0
330
17CDB
100
AcDbEntity
  8
0
  6
ByBlock
 62
     7
 48
50.0
100
AcDbMText
 10
7340.137356965257
 20
6456.37475874347
 30
0.0
 40
120.0
 41
0.0
 71
     5
 72
     1
  1
\A1;110
  7
STYLE1
 73
     1
 44
1.0
1001
ACAD
1000
MTEXTBEGIN
1070
    73
1070
     1
1070
    44
1040
1.0
1070
    74
1070
     0
1000
MTEXTEND
  0
INSERT
  5
17CE1
330
17CDB
100
AcDbEntity
  8
0
  6
ByBlock
 62
     0
 48
50.0
100
AcDbBlockReference
  2
_DOTSMALL
 10
7395.137356965263
 20
6608.066653779701
 30
0.0
 41
100.0
 42
100.0
 43
100.0
  0
INSERT
  5
17CE2
330
17CDB
100
AcDbEntity
  8
0
  6
ByBlock
 62
     0
 48
50.0
100
AcDbBlockReference
  2
_DOTSMALL
 10
7285.137356965249
 20
6608.066653779701
 30
0.0
 41
100.0
 42
100.0
 43
100.0
 50
180.0
  0
POINT
  5
17CE3
330
17CDB
100
AcDbEntity
  8
DEFPOINTS
  6
ByBlock
 62
     0
 48
50.0
100
AcDbPoint
 10
7395.137356965263
 20
7142.497424545865
 30
0.0
  0
POINT
  5
17CE4
330
17CDB
100
AcDbEntity
  8
DEFPOINTS
  6
ByBlock
 62
     0
 48
50.0
100
AcDbPoint
 10
7285.137356965249
 20
7142.497424545952
 30
0.0
  0
POINT
  5
17CE5
330
17CDB
100
AcDbEntity
  8
DEFPOINTS
  6
ByBlock
 62
     0
 48
50.0
100
AcDbPoint
 10
7285.137356965249
 20
6608.066653779701
 30
0.0
  0
ENDBLK
  5
17CE6
330
17CDB
100
AcDbEntity
  8
0
 48
50.0
100
AcDbBlockEnd
  0
BLOCK
  5
18C3B
330
17CE7
100
AcDbEntity
  8
0
 48
50.0
100
AcDbBlockBegin
  2
*D23
 70
     1
 10
0.0
 20
0.0
 30
0.0
  3
*D23
  1

  0
LINE
  5
1BD53
330
17CE7
100
AcDbEntity
  8
寸法
 62
     0
 48
50.0
370
    -2
100
AcDbLine
 10
2015.137356965272
 20
10212.49742454587
 30
0.0
 11
2015.137356965272
 21
10668.30564417097
 31
0.0
  0
LINE
  5
1BD54
330
17CE7
100
AcDbEntity
  8
寸法
 62
     0
 48
50.0
370
    -2
100
AcDbLine
 10
4535.137356965273
 20
10212.49742454596
 30
0.0
 11
4535.137356965273
 21
10668.30564417097
 31
0.0
  0
LINE
  5
1BD55
330
17CE7
100
AcDbEntity
  8
寸法
 62
     0
 48
50.0
370
    -2
100
AcDbLine
 10
2015.137356965272
 20
10608.30564417096
 30
0.0
 11
4535.137356965273
 21
10608.30564417096
 31
0.0
  0
INSERT
  5
1BD56
330
17CE7
100
AcDbEntity
  8
寸法
 62
     0
 48
50.0
370
    -2
100
AcDbBlockReference
  2
_DOTSMALL
 10
2015.137356965272
 20
10608.30564417096
 30
0.0
 41
100.0
 42
100.0
 43
100.0
 50
180.0
  0
INSERT
  5
1BD57
330
17CE7
100
AcDbEntity
  8
寸法
 62
     0
 48
50.0
370
    -2
100
AcDbBlockReference
  2
_DOTSMALL
 10
4535.137356965273
 20
10608.30564417096
 30
0.0
 41
100.0
 42
100.0
 43
100.0
  0
MTEXT
  5
1BD58
330
17CE7
100
AcDbEntity
  8
寸法
 62
     7
 48
50.0
100
AcDbMText
 10
3275.137356965273
 20
10708.31745519459
 30
0.0
 40
120.0
 41
0.0
 71
     5
 72
     1
  1
\A1;6X420=2520
  7
STYLE1
 73
     1
 44
1.0
1001
ACAD
1000
MTEXTBEGIN
1070
    73
1070
     1
1070
    44
1040
1.0
1070
    74
1070
     0
1000
MTEXTEND
  0
POINT
  5
1BD59
330
17CE7
100
AcDbEntity
  8
DEFPOINTS
 62
     0
 48
50.0
100
AcDbPoint
 10
2015.137356965272
 20
10192.49742454587
 30
0.0
  0
POINT
  5
1BD5A
330
17CE7
100
AcDbEntity
  8
DEFPOINTS
 62
     0
 48
50.0
100
AcDbPoint
 10
4535.137356965273
 20
10192.49742454596
 30
0.0
  0
POINT
  5
1BD5B
330
17CE7
100
AcDbEntity
  8
DEFPOINTS
 62
     0
 48
50.0
100
AcDbPoint
 10
4535.137356965273
 20
10608.30564417096
 30
0.0
  0
ENDBLK
  5
18C45
330
17CE7
100
AcDbEntity
  8
0
 48
50.0
100
AcDbBlockEnd
  0
BLOCK
  5
1A33B
330
17CF3
100
AcDbEntity
  8
0
 48
50.0
100
AcDbBlockBegin
  2
*D24
 70
     1
 10
0.0
 20
0.0
 30
0.0
  3
*D24
  1

  0
LINE
  5
1BD3F
330
17CF3
100
AcDbEntity
  8
寸法
 62
     0
 48
50.0
370
    -2
100
AcDbLine
 10
4645.137356965271
 20
10212.49742454592
 30
0.0
 11
4645.137356965271
 21
10668.30564417097
 31
0.0
  0
LINE
  5
1BD40
330
17CF3
100
AcDbEntity
  8
寸法
 62
     0
 48
50.0
370
    -2
100
AcDbLine
 10
4535.137356965273
 20
10212.49742454591
 30
0.0
 11
4535.137356965273
 21
10668.30564417097
 31
0.0
  0
LINE
  5
1BD41
330
17CF3
100
AcDbEntity
  8
寸法
 62
     0
 48
50.0
370
    -2
100
AcDbLine
 10
4645.137356965271
 20
10608.30564417096
 30
0.0
 11
4745.137356965272
 21
10608.30564417096
 31
0.0
  0
LINE
  5
1BD42
330
17CF3
100
AcDbEntity
  8
寸法
 62
     0
 48
50.0
370
    -2
100
AcDbLine
 10
4535.137356965273
 20
10608.30564417096
 30
0.0
 11
4435.137356965273
 21
10608.30564417096
 31
0.0
  0
LINE
  5
1BD43
330
17CF3
100
AcDbEntity
  8
寸法
 62
     0
 48
50.0
370
    -2
100
AcDbLine
 10
4645.137356965271
 20
10608.30564417096
 30
0.0
 11
4535.137356965273
 21
10608.30564417096
 31
0.0
  0
INSERT
  5
1BD44
330
17CF3
100
AcDbEntity
  8
寸法
 62
     0
 48
50.0
370
    -2
100
AcDbBlockReference
  2
_DOTSMALL
 10
4645.137356965271
 20
10608.30564417096
 30
0.0
 41
100.0
 42
100.0
 43
100.0
 50
180.0
  0
INSERT
  5
1BD45
330
17CF3
100
AcDbEntity
  8
寸法
 62
     0
 48
50.0
370
    -2
100
AcDbBlockReference
  2
_DOTSMALL
 10
4535.137356965273
 20
10608.30564417096
 30
0.0
 41
100.0
 42
100.0
 43
100.0
  0
MTEXT
  5
1BD46
330
17CF3
100
AcDbEntity
  8
寸法
 62
     7
 48
50.0
100
AcDbMText
 10
4590.137356965272
 20
10708.30564417097
 30
0.0
 40
120.0
 41
0.0
 71
     5
 72
     1
  1
\A1;110
  7
STYLE1
 73
     1
 44
1.0
1001
ACAD
1000
MTEXTBEGIN
1070
    73
1070
     1
1070
    44
1040
1.0
1070
    74
1070
     0
1000
MTEXTEND
  0
POINT
  5
1BD47
330
17CF3
100
AcDbEntity
  8
DEFPOINTS
 62
     0
 48
50.0
100
AcDbPoint
 10
4645.137356965271
 20
10192.49742454592
 30
0.0
  0
POINT
  5
1BD48
330
17CF3
100
AcDbEntity
  8
DEFPOINTS
 62
     0
 48
50.0
100
AcDbPoint
 10
4535.137356965273
 20
10192.49742454591
 30
0.0
  0
POINT
  5
1BD49
330
17CF3
100
AcDbEntity
  8
DEFPOINTS
 62
     0
 48
50.0
100
AcDbPoint
 10
4535.137356965273
 20
10608.30564417096
 30
0.0
  0
ENDBLK
  5
1A347
330
17CF3
100
AcDbEntity
  8
0
 48
50.0
100
AcDbBlockEnd
  0
BLOCK
  5
1A330
330
17D01
100
AcDbEntity
  8
0
 48
50.0
100
AcDbBlockBegin
  2
*D25
 70
     1
 10
0.0
 20
0.0
 30
0.0
  3
*D25
  1

  0
LINE
  5
1BD4A
330
17D01
100
AcDbEntity
  8
寸法
 62
     0
 48
50.0
370
    -2
100
AcDbLine
 10
1960.137356965239
 20
10212.49742454583
 30
0.0
 11
1960.137356965239
 21
10917.62711772726
 31
0.0
  0
LINE
  5
1BD4B
330
17D01
100
AcDbEntity
  8
寸法
 62
     0
 48
50.0
370
    -2
100
AcDbLine
 10
4590.137356965273
 20
10787.29355852891
 30
0.0
 11
4590.137356965273
 21
10917.62711772726
 31
0.0
  0
LINE
  5
1BD4C
330
17D01
100
AcDbEntity
  8
寸法
 62
     0
 48
50.0
370
    -2
100
AcDbLine
 10
1960.137356965239
 20
10857.62711772726
 30
0.0
 11
4590.137356965273
 21
10857.62711772726
 31
0.0
  0
INSERT
  5
1BD4D
330
17D01
100
AcDbEntity
  8
寸法
 62
     0
 48
50.0
370
    -2
100
AcDbBlockReference
  2
_DOTSMALL
 10
1960.137356965239
 20
10857.62711772726
 30
0.0
 41
100.0
 42
100.0
 43
100.0
 50
180.0
  0
INSERT
  5
1BD4E
330
17D01
100
AcDbEntity
  8
寸法
 62
     0
 48
50.0
370
    -2
100
AcDbBlockReference
  2
_DOTSMALL
 10
4590.137356965273
 20
10857.62711772726
 30
0.0
 41
100.0
 42
100.0
 43
100.0
  0
MTEXT
  5
1BD4F
330
17D01
100
AcDbEntity
  8
寸法
 62
     7
 48
50.0
100
AcDbMText
 10
3275.137356965256
 20
10957.63892875088
 30
0.0
 40
120.0
 41
0.0
 71
     5
 72
     1
  1
\A1;2630
  7
STYLE1
 73
     1
 44
1.0
1001
ACAD
1000
MTEXTBEGIN
1070
    73
1070
     1
1070
    44
1040
1.0
1070
    74
1070
     0
1000
MTEXTEND
  0
POINT
  5
1BD50
330
17D01
100
AcDbEntity
  8
DEFPOINTS
 62
     0
 48
50.0
100
AcDbPoint
 10
1960.137356965239
 20
10192.49742454583
 30
0.0
  0
POINT
  5
1BD51
330
17D01
100
AcDbEntity
  8
DEFPOINTS
 62
     0
 48
50.0
100
AcDbPoint
 10
4590.137356965273
 20
10767.29355852891
 30
0.0
  0
POINT
  5
1BD52
330
17D01
100
AcDbEntity
  8
DEFPOINTS
 62
     0
 48
50.0
100
AcDbPoint
 10
4590.137356965273
 20
10857.62711772726
 30
0.0
  0
ENDBLK
  5
1A33A
330
17D01
100
AcDbEntity
  8
0
 48
50.0
100
AcDbBlockEnd
  0
BLOCK
  5
1A3B0
330
1A3A6
100
AcDbEntity
  8
0
 48
50.0
100
AcDbBlockBegin
  2
*D26
 70
     1
 10
0.0
 20
0.0
 30
0.0
  3
*D26
  1

  0
LINE
  5
1A3A7
330
1A3A6
100
AcDbEntity
  8
0
  6
ByBlock
 62
     0
 48
50.0
100
AcDbLine
 10
7366.173057123664
 20
8737.138440697341
 30
0.0
 11
7761.530782985689
 21
8631.202657331206
 31
0.0
  0
LINE
  5
1A3A8
330
1A3A6
100
AcDbEntity
  8
0
  6
ByBlock
 62
     0
 48
50.0
100
AcDbLine
 10
7366.173057123664
 20
8287.138440697345
 30
0.0
 11
7761.530782985689
 21
8181.20265733121
 31
0.0
  0
LINE
  5
1A3A9
330
1A3A6
100
AcDbEntity
  8
0
  6
ByBlock
 62
     0
 48
50.0
100
AcDbLine
 10
7701.530782985688
 20
8647.279608877074
 30
0.0
 11
7701.530782985688
 21
8197.279608877078
 31
0.0
  0
INSERT
  5
1A3AA
330
1A3A6
100
AcDbEntity
  8
0
  6
ByBlock
 62
     0
 48
50.0
100
AcDbBlockReference
  2
_DOTSMALL
 10
7701.530782985688
 20
8647.279608877074
 30
0.0
 41
100.0
 42
100.0
 43
100.0
 50
90.0
  0
INSERT
  5
1A3AB
330
1A3A6
100
AcDbEntity
  8
0
  6
ByBlock
 62
     0
 48
50.0
100
AcDbBlockReference
  2
_DOTSMALL
 10
7701.530782985688
 20
8197.279608877078
 30
0.0
 41
100.0
 42
100.0
 43
100.0
 50
270.0
  0
MTEXT
  5
1A3AC
330
1A3A6
100
AcDbEntity
  8
0
  6
ByBlock
 62
     7
 48
50.0
100
AcDbMText
 10
7601.530782985688
 20
8422.279608877076
 30
0.0
 40
120.0
 41
0.0
 71
     5
 72
     1
  1
\A1;450
  7
STYLE1
 11
0.0000000000000001
 21
1.0
 31
0.0
 73
     1
 44
1.0
1001
ACAD
1000
MTEXTBEGIN
1070
    73
1070
     1
1070
    44
1040
1.0
1070
    74
1070
     0
1000
MTEXTEND
  0
POINT
  5
1A3AD
330
1A3A6
100
AcDbEntity
  8
DEFPOINTS
  6
ByBlock
 62
     0
 48
50.0
100
AcDbPoint
 10
7346.173057123664
 20
8742.497424545964
 30
0.0
  0
POINT
  5
1A3AE
330
1A3A6
100
AcDbEntity
  8
DEFPOINTS
  6
ByBlock
 62
     0
 48
50.0
100
AcDbPoint
 10
7346.173057123664
 20
8292.497424545967
 30
0.0
  0
POINT
  5
1A3AF
330
1A3A6
100
AcDbEntity
  8
DEFPOINTS
  6
ByBlock
 62
     0
 48
50.0
100
AcDbPoint
 10
7701.530782985688
 20
8197.279608877078
 30
0.0
  0
ENDBLK
  5
1A3B1
330
1A3A6
100
AcDbEntity
  8
0
 48
50.0
100
AcDbBlockEnd
  0
BLOCK
  5
1A3B4
330
1A3B2
100
AcDbEntity
  8
0
 48
50.0
100
AcDbBlockBegin
  2
A$C3EB005E7
 70
     0
 10
0.0
 20
0.0
 30
0.0
  3
A$C3EB005E7
  1

  0
DIMENSION
  5
1A3B3
330
1A3B2
100
AcDbEntity
  8
寸法
100
AcDbDimension
  2
*D26
 10
355.3577095761848
 20
16.07693845800531
 30
0.0
 11
255.3577095761848
 21
661.0769384580034
 31
0.0
 12
-7346.173073409504
 22
-8181.202670419073
 32
0.0
 71
     5
 42
-1.0
  3
INABA_S40G
100
AcDbAlignedDimension
 13
-0.0000162858395925
 23
561.2947541268913
 33
0.0
 14
-0.0000162858395925
 24
111.294754126895
 34
0.0
 50
90.0
100
AcDbRotatedDimension
1001
ACAD
1000
DSTYLE
1002
{
1002
}
  0
ENDBLK
  5
1A3B5
330
1A3B2
100
AcDbEntity
  8
0
 48
50.0
100
AcDbBlockEnd
  0
BLOCK
  5
1B205
330
1B1FB
100
AcDbEntity
  8
0
 48
50.0
100
AcDbBlockBegin
  2
*D28
 70
     1
 10
0.0
 20
0.0
 30
0.0
  3
*D28
  1

  0
LINE
  5
1C652
330
1B1FB
100
AcDbEntity
  8
寸法
 62
     0
 48
50.0
370
    -2
100
AcDbLine
 10
9850.137356965253
 20
4621.657345478115
 30
0.0
 11
9850.137356965253
 21
5060.750514817583
 31
0.0
  0
LINE
  5
1C653
330
1B1FB
100
AcDbEntity
  8
寸法
 62
     0
 48
50.0
370
    -2
100
AcDbLine
 10
1960.13735696526
 20
4621.657345478116
 30
0.0
 11
1960.13735696526
 21
5060.750514817583
 31
0.0
  0
LINE
  5
1C654
330
1B1FB
100
AcDbEntity
  8
寸法
 62
     0
 48
50.0
370
    -2
100
AcDbLine
 10
9850.137356965253
 20
5000.750514817583
 30
0.0
 11
1960.13735696526
 21
5000.750514817583
 31
0.0
  0
INSERT
  5
1C655
330
1B1FB
100
AcDbEntity
  8
寸法
 62
     0
 48
50.0
370
    -2
100
AcDbBlockReference
  2
_DOTSMALL
 10
9850.137356965253
 20
5000.750514817583
 30
0.0
 41
100.0
 42
100.0
 43
100.0
  0
INSERT
  5
1C656
330
1B1FB
100
AcDbEntity
  8
寸法
 62
     0
 48
50.0
370
    -2
100
AcDbBlockReference
  2
_DOTSMALL
 10
1960.13735696526
 20
5000.750514817583
 30
0.0
 41
100.0
 42
100.0
 43
100.0
 50
180.0
  0
MTEXT
  5
1C657
330
1B1FB
100
AcDbEntity
  8
寸法
 62
     7
 48
50.0
100
AcDbMText
 10
5905.137356965257
 20
5100.762325841206
 30
0.0
 40
120.0
 41
0.0
 71
     5
 72
     1
  1
\A1;柱外寸法 N X 2630
  7
STYLE1
 73
     1
 44
1.0
1001
ACAD
1000
MTEXTBEGIN
1070
    73
1070
     1
1070
    44
1040
1.0
1070
    74
1070
     0
1000
MTEXTEND
  0
POINT
  5
1C658
330
1B1FB
100
AcDbEntity
  8
DEFPOINTS
 62
     0
 48
50.0
100
AcDbPoint
 10
9850.137356965253
 20
4601.657345478114
 30
0.0
  0
POINT
  5
1C659
330
1B1FB
100
AcDbEntity
  8
DEFPOINTS
 62
     0
 48
50.0
100
AcDbPoint
 10
1960.13735696526
 20
4601.657345478116
 30
0.0
  0
POINT
  5
1C65A
330
1B1FB
100
AcDbEntity
  8
DEFPOINTS
 62
     0
 48
50.0
100
AcDbPoint
 10
1960.13735696526
 20
5000.750514817583
 30
0.0
  0
ENDBLK
  5
1B206
330
1B1FB
100
AcDbEntity
  8
0
 48
50.0
100
AcDbBlockEnd
  0
BLOCK
  5
1B211
330
1B207
100
AcDbEntity
  8
0
 48
50.0
100
AcDbBlockBegin
  2
*D29
 70
     1
 10
0.0
 20
0.0
 30
0.0
  3
*D29
  1

  0
LINE
  5
1C649
330
1B207
100
AcDbEntity
  8
寸法
 62
     0
 48
50.0
370
    -2
100
AcDbLine
 10
1910.13735696526
 20
4621.657345478115
 30
0.0
 11
1910.13735696526
 21
5277.276614436028
 31
0.0
  0
LINE
  5
1C64A
330
1B207
100
AcDbEntity
  8
寸法
 62
     0
 48
50.0
370
    -2
100
AcDbLine
 10
9900.137356965252
 20
4621.657345478112
 30
0.0
 11
9900.137356965252
 21
5277.276614436028
 31
0.0
  0
LINE
  5
1C64B
330
1B207
100
AcDbEntity
  8
寸法
 62
     0
 48
50.0
370
    -2
100
AcDbLine
 10
1910.13735696526
 20
5217.276614436029
 30
0.0
 11
9900.137356965252
 21
5217.276614436029
 31
0.0
  0
INSERT
  5
1C64C
330
1B207
100
AcDbEntity
  8
寸法
 62
     0
 48
50.0
370
    -2
100
AcDbBlockReference
  2
_DOTSMALL
 10
1910.13735696526
 20
5217.276614436029
 30
0.0
 41
100.0
 42
100.0
 43
100.0
 50
180.0
  0
INSERT
  5
1C64D
330
1B207
100
AcDbEntity
  8
寸法
 62
     0
 48
50.0
370
    -2
100
AcDbBlockReference
  2
_DOTSMALL
 10
9900.137356965252
 20
5217.276614436029
 30
0.0
 41
100.0
 42
100.0
 43
100.0
  0
MTEXT
  5
1C64E
330
1B207
100
AcDbEntity
  8
寸法
 62
     7
 48
50.0
100
AcDbMText
 10
5905.137356965257
 20
5317.288425459651
 30
0.0
 40
120.0
 41
0.0
 71
     5
 72
     1
  1
\A1;N X 2630+100
  7
STYLE1
 73
     1
 44
1.0
1001
ACAD
1000
MTEXTBEGIN
1070
    73
1070
     1
1070
    44
1040
1.0
1070
    74
1070
     0
1000
MTEXTEND
  0
POINT
  5
1C64F
330
1B207
100
AcDbEntity
  8
DEFPOINTS
 62
     0
 48
50.0
100
AcDbPoint
 10
1910.13735696526
 20
4601.657345478114
 30
0.0
  0
POINT
  5
1C650
330
1B207
100
AcDbEntity
  8
DEFPOINTS
 62
     0
 48
50.0
100
AcDbPoint
 10
9900.137356965252
 20
4601.657345478113
 30
0.0
  0
POINT
  5
1C651
330
1B207
100
AcDbEntity
  8
DEFPOINTS
 62
     0
 48
50.0
100
AcDbPoint
 10
9900.137356965252
 20
5217.276614436029
 30
0.0
  0
ENDBLK
  5
1B212
330
1B207
100
AcDbEntity
  8
0
 48
50.0
100
AcDbBlockEnd
  0
BLOCK
  5
1B21F
330
1B213
100
AcDbEntity
  8
0
 48
50.0
100
AcDbBlockBegin
  2
*D30
 70
     1
 10
0.0
 20
0.0
 30
0.0
  3
*D30
  1

  0
LINE
  5
1C63E
330
1B213
100
AcDbEntity
  8
寸法
 62
     0
 48
50.0
370
    -2
100
AcDbLine
 10
9900.137356965252
 20
4621.657345478112
 30
0.0
 11
9900.137356965252
 21
5060.750514817583
 31
0.0
  0
LINE
  5
1C63F
330
1B213
100
AcDbEntity
  8
寸法
 62
     0
 48
50.0
370
    -2
100
AcDbLine
 10
9850.137356965253
 20
4621.657345478115
 30
0.0
 11
9850.137356965253
 21
5060.750514817583
 31
0.0
  0
LINE
  5
1C640
330
1B213
100
AcDbEntity
  8
寸法
 62
     0
 48
50.0
370
    -2
100
AcDbLine
 10
9850.137356965253
 20
5000.750514817583
 30
0.0
 11
9750.137356965254
 21
5000.750514817583
 31
0.0
  0
LINE
  5
1C641
330
1B213
100
AcDbEntity
  8
寸法
 62
     0
 48
50.0
370
    -2
100
AcDbLine
 10
9900.137356965252
 20
5000.750514817583
 30
0.0
 11
10319.66988243397
 21
5000.750514817583
 31
0.0
  0
LINE
  5
1C642
330
1B213
100
AcDbEntity
  8
寸法
 62
     0
 48
50.0
370
    -2
100
AcDbLine
 10
9850.137356965253
 20
5000.750514817583
 30
0.0
 11
9900.137356965252
 21
5000.750514817583
 31
0.0
  0
INSERT
  5
1C643
330
1B213
100
AcDbEntity
  8
寸法
 62
     0
 48
50.0
370
    -2
100
AcDbBlockReference
  2
_DOTSMALL
 10
9850.137356965253
 20
5000.750514817583
 30
0.0
 41
100.0
 42
100.0
 43
100.0
  0
INSERT
  5
1C644
330
1B213
100
AcDbEntity
  8
寸法
 62
     0
 48
50.0
370
    -2
100
AcDbBlockReference
  2
_DOTSMALL
 10
9900.137356965252
 20
5000.750514817583
 30
0.0
 41
100.0
 42
100.0
 43
100.0
 50
180.0
  0
MTEXT
  5
1C645
330
1B213
100
AcDbEntity
  8
寸法
 62
     7
 48
50.0
100
AcDbMText
 10
10213.62263833949
 20
5100.750514817583
 30
0.0
 40
120.0
 41
0.0
 71
     5
 72
     1
  1
\A1;50
  7
STYLE1
 73
     1
 44
1.0
1001
ACAD
1000
MTEXTBEGIN
1070
    73
1070
     1
1070
    44
1040
1.0
1070
    74
1070
     0
1000
MTEXTEND
  0
POINT
  5
1C646
330
1B213
100
AcDbEntity
  8
DEFPOINTS
 62
     0
 48
50.0
100
AcDbPoint
 10
9900.137356965252
 20
4601.657345478113
 30
0.0
  0
POINT
  5
1C647
330
1B213
100
AcDbEntity
  8
DEFPOINTS
 62
     0
 48
50.0
100
AcDbPoint
 10
9850.137356965253
 20
4601.657345478114
 30
0.0
  0
POINT
  5
1C648
330
1B213
100
AcDbEntity
  8
DEFPOINTS
 62
     0
 48
50.0
100
AcDbPoint
 10
9850.137356965253
 20
5000.750514817583
 30
0.0
  0
ENDBLK
  5
1B220
330
1B213
100
AcDbEntity
  8
0
 48
50.0
100
AcDbBlockEnd
  0
BLOCK
  5
1B22D
330
1B221
100
AcDbEntity
  8
0
 48
50.0
100
AcDbBlockBegin
  2
*D31
 70
     1
 10
0.0
 20
0.0
 30
0.0
  3
*D31
  1

  0
LINE
  5
1C633
330
1B221
100
AcDbEntity
  8
寸法
 62
     0
 48
50.0
370
    -2
100
AcDbLine
 10
1960.13735696526
 20
4621.657345478116
 30
0.0
 11
1960.13735696526
 21
5060.750514817583
 31
0.0
  0
LINE
  5
1C634
330
1B221
100
AcDbEntity
  8
寸法
 62
     0
 48
50.0
370
    -2
100
AcDbLine
 10
1910.13735696526
 20
4621.657345478115
 30
0.0
 11
1910.13735696526
 21
5060.750514817583
 31
0.0
  0
LINE
  5
1C635
330
1B221
100
AcDbEntity
  8
寸法
 62
     0
 48
50.0
370
    -2
100
AcDbLine
 10
1960.13735696526
 20
5000.750514817583
 30
0.0
 11
2060.137356965261
 21
5000.750514817583
 31
0.0
  0
LINE
  5
1C636
330
1B221
100
AcDbEntity
  8
寸法
 62
     0
 48
50.0
370
    -2
100
AcDbLine
 10
1910.13735696526
 20
5000.750514817583
 30
0.0
 11
1490.604831496525
 21
5000.750514817583
 31
0.0
  0
LINE
  5
1C637
330
1B221
100
AcDbEntity
  8
寸法
 62
     0
 48
50.0
370
    -2
100
AcDbLine
 10
1960.13735696526
 20
5000.750514817583
 30
0.0
 11
1910.13735696526
 21
5000.750514817583
 31
0.0
  0
INSERT
  5
1C638
330
1B221
100
AcDbEntity
  8
寸法
 62
     0
 48
50.0
370
    -2
100
AcDbBlockReference
  2
_DOTSMALL
 10
1960.13735696526
 20
5000.750514817583
 30
0.0
 41
100.0
 42
100.0
 43
100.0
 50
180.0
  0
INSERT
  5
1C639
330
1B221
100
AcDbEntity
  8
寸法
 62
     0
 48
50.0
370
    -2
100
AcDbBlockReference
  2
_DOTSMALL
 10
1910.13735696526
 20
5000.750514817583
 30
0.0
 41
100.0
 42
100.0
 43
100.0
  0
MTEXT
  5
1C63A
330
1B221
100
AcDbEntity
  8
寸法
 62
     7
 48
50.0
100
AcDbMText
 10
1596.652075591013
 20
5100.750514817583
 30
0.0
 40
120.0
 41
0.0
 71
     5
 72
     1
  1
\A1;50
  7
STYLE1
 73
     1
 44
1.0
1001
ACAD
1000
MTEXTBEGIN
1070
    73
1070
     1
1070
    44
1040
1.0
1070
    74
1070
     0
1000
MTEXTEND
  0
POINT
  5
1C63B
330
1B221
100
AcDbEntity
  8
DEFPOINTS
 62
     0
 48
50.0
100
AcDbPoint
 10
1960.13735696526
 20
4601.657345478116
 30
0.0
  0
POINT
  5
1C63C
330
1B221
100
AcDbEntity
  8
DEFPOINTS
 62
     0
 48
50.0
100
AcDbPoint
 10
1910.13735696526
 20
4601.657345478114
 30
0.0
  0
POINT
  5
1C63D
330
1B221
100
AcDbEntity
  8
DEFPOINTS
 62
     0
 48
50.0
100
AcDbPoint
 10
1910.13735696526
 20
5000.750514817583
 30
0.0
  0
ENDBLK
  5
1B22E
330
1B221
100
AcDbEntity
  8
0
 48
50.0
100
AcDbBlockEnd
  0
BLOCK
  5
1B23A
330
1B22F
100
AcDbEntity
  8
0
 48
50.0
100
AcDbBlockBegin
  2
*D32
 70
     1
 10
0.0
 20
0.0
 30
0.0
  3
*D32
  1

  0
LINE
  5
1C629
330
1B22F
100
AcDbEntity
  8
寸法
 62
     0
 48
50.0
370
    -2
100
AcDbLine
 10
11725.33902506385
 20
4600.95505254777
 30
0.0
 11
11109.40458595856
 21
4618.6692028221
 31
0.0
  0
LINE
  5
1C62A
330
1B22F
100
AcDbEntity
  8
寸法
 62
     0
 48
50.0
370
    -2
100
AcDbLine
 10
11721.28556950722
 20
4460.013328782058
 30
0.0
 11
11105.35113040193
 21
4477.727479056388
 31
0.0
  0
LINE
  5
1C62B
330
1B22F
100
AcDbEntity
  8
寸法
 62
     0
 48
50.0
370
    -2
100
AcDbLine
 10
11165.32633200436
 20
4476.002604351441
 30
0.0
 11
11169.37978756099
 21
4616.944328117152
 31
0.0
  0
LINE
  5
1C62C
330
1B22F
100
AcDbEntity
  8
寸法
 62
     0
 48
50.0
370
    -2
100
AcDbLine
 10
11169.37978756099
 20
4616.944328117152
 30
0.0
 11
11179.72903579067
 21
4976.795537731739
 31
0.0
  0
INSERT
  5
1C62D
330
1B22F
100
AcDbEntity
  8
寸法
 62
     0
 48
50.0
370
    -2
100
AcDbBlockReference
  2
_DOTSMALL
 10
11165.32633200436
 20
4476.002604351441
 30
0.0
 41
100.0
 42
100.0
 43
100.0
 50
268.3526390256378
  0
INSERT
  5
1C62E
330
1B22F
100
AcDbEntity
  8
寸法
 62
     0
 48
50.0
370
    -2
100
AcDbBlockReference
  2
_DOTSMALL
 10
11169.37978756099
 20
4616.944328117152
 30
0.0
 41
100.0
 42
100.0
 43
100.0
 50
88.35263902563776
  0
MTEXT
  5
1C62F
330
1B22F
100
AcDbEntity
  8
寸法
 62
     7
 48
50.0
100
AcDbMText
 10
11076.0331379259
 20
4849.724058768051
 30
0.0
 40
120.0
 41
0.0
 71
     5
 72
     1
  1
\A1;141
  7
STYLE1
 11
0.0287479117491237
 21
0.9995866933738488
 31
0.0
 73
     1
 44
1.0
1001
ACAD
1000
MTEXTBEGIN
1070
    73
1070
     1
1070
    44
1040
1.0
1070
    74
1070
     0
1000
MTEXTEND
  0
POINT
  5
1C630
330
1B22F
100
AcDbEntity
  8
DEFPOINTS
 62
     0
 48
50.0
100
AcDbPoint
 10
11745.33075893132
 20
4600.380094312787
 30
0.0
  0
POINT
  5
1C631
330
1B22F
100
AcDbEntity
  8
DEFPOINTS
 62
     0
 48
50.0
100
AcDbPoint
 10
11741.2773033747
 20
4459.438370547075
 30
0.0
  0
POINT
  5
1C632
330
1B22F
100
AcDbEntity
  8
DEFPOINTS
 62
     0
 48
50.0
100
AcDbPoint
 10
11165.32633200436
 20
4476.002604351441
 30
0.0
  0
ENDBLK
  5
1B23B
330
1B22F
100
AcDbEntity
  8
0
 48
50.0
100
AcDbBlockEnd
  0
BLOCK
  5
1B247
330
1B23C
100
AcDbEntity
  8
0
 48
50.0
100
AcDbBlockBegin
  2
*D33
 70
     1
 10
0.0
 20
0.0
 30
0.0
  3
*D33
  1

  0
LINE
  5
1C61F
330
1B23C
100
AcDbEntity
  8
寸法
 62
     0
 48
50.0
370
    -2
100
AcDbLine
 10
14835.93473877274
 20
4568.468025089763
 30
0.0
 11
14835.93473877274
 21
5060.314799057414
 31
0.0
  0
LINE
  5
1C620
330
1B23C
100
AcDbEntity
  8
寸法
 62
     0
 48
50.0
370
    -2
100
AcDbLine
 10
14915.93473877274
 20
4566.657345478112
 30
0.0
 11
14915.93473877274
 21
5060.314799057414
 31
0.0
  0
LINE
  5
1C621
330
1B23C
100
AcDbEntity
  8
寸法
 62
     0
 48
50.0
370
    -2
100
AcDbLine
 10
14835.93473877274
 20
5000.314799057414
 30
0.0
 11
14915.93473877274
 21
5000.314799057414
 31
0.0
  0
LINE
  5
1C622
330
1B23C
100
AcDbEntity
  8
寸法
 62
     0
 48
50.0
370
    -2
100
AcDbLine
 10
14915.93473877274
 20
5000.314799057414
 30
0.0
 11
15228.02922696173
 21
5000.314799057414
 31
0.0
  0
INSERT
  5
1C623
330
1B23C
100
AcDbEntity
  8
寸法
 62
     0
 48
50.0
370
    -2
100
AcDbBlockReference
  2
_DOTSMALL
 10
14835.93473877274
 20
5000.314799057414
 30
0.0
 41
100.0
 42
100.0
 43
100.0
 50
180.0
  0
INSERT
  5
1C624
330
1B23C
100
AcDbEntity
  8
寸法
 62
     0
 48
50.0
370
    -2
100
AcDbBlockReference
  2
_DOTSMALL
 10
14915.93473877274
 20
5000.314799057414
 30
0.0
 41
100.0
 42
100.0
 43
100.0
  0
MTEXT
  5
1C625
330
1B23C
100
AcDbEntity
  8
寸法
 62
     7
 48
50.0
100
AcDbMText
 10
15121.98198286724
 20
5100.314799057414
 30
0.0
 40
120.0
 41
0.0
 71
     5
 72
     1
  1
\A1;80
  7
STYLE1
 73
     1
 44
1.0
1001
ACAD
1000
MTEXTBEGIN
1070
    73
1070
     1
1070
    44
1040
1.0
1070
    74
1070
     0
1000
MTEXTEND
  0
POINT
  5
1C626
330
1B23C
100
AcDbEntity
  8
DEFPOINTS
 62
     0
 48
50.0
100
AcDbPoint
 10
14835.93473877274
 20
4548.468025089763
 30
0.0
  0
POINT
  5
1C627
330
1B23C
100
AcDbEntity
  8
DEFPOINTS
 62
     0
 48
50.0
100
AcDbPoint
 10
14915.93473877274
 20
4546.657345478112
 30
0.0
  0
POINT
  5
1C628
330
1B23C
100
AcDbEntity
  8
DEFPOINTS
 62
     0
 48
50.0
100
AcDbPoint
 10
14915.93473877274
 20
5000.314799057414
 30
0.0
  0
ENDBLK
  5
1B248
330
1B23C
100
AcDbEntity
  8
0
 48
50.0
100
AcDbBlockEnd
  0
BLOCK
  5
1B253
330
1B249
100
AcDbEntity
  8
0
 48
50.0
100
AcDbBlockBegin
  2
*D34
 70
     1
 10
0.0
 20
0.0
 30
0.0
  3
*D34
  1

  0
LINE
  5
1C616
330
1B249
100
AcDbEntity
  8
寸法
 62
     0
 48
50.0
370
    -2
100
AcDbLine
 10
14915.93473877274
 20
4566.65734547811
 30
0.0
 11
14915.93473877274
 21
5290.42839184369
 31
0.0
  0
LINE
  5
1C617
330
1B249
100
AcDbEntity
  8
寸法
 62
     0
 48
50.0
370
    -2
100
AcDbLine
 10
11725.93473877274
 20
4621.657345478114
 30
0.0
 11
11725.93473877274
 21
5290.42839184369
 31
0.0
  0
LINE
  5
1C618
330
1B249
100
AcDbEntity
  8
寸法
 62
     0
 48
50.0
370
    -2
100
AcDbLine
 10
14915.93473877274
 20
5230.428391843691
 30
0.0
 11
11725.93473877274
 21
5230.428391843691
 31
0.0
  0
INSERT
  5
1C619
330
1B249
100
AcDbEntity
  8
寸法
 62
     0
 48
50.0
370
    -2
100
AcDbBlockReference
  2
_DOTSMALL
 10
14915.93473877274
 20
5230.428391843691
 30
0.0
 41
100.0
 42
100.0
 43
100.0
  0
INSERT
  5
1C61A
330
1B249
100
AcDbEntity
  8
寸法
 62
     0
 48
50.0
370
    -2
100
AcDbBlockReference
  2
_DOTSMALL
 10
11725.93473877274
 20
5230.428391843691
 30
0.0
 41
100.0
 42
100.0
 43
100.0
 50
180.0
  0
MTEXT
  5
1C61B
330
1B249
100
AcDbEntity
  8
寸法
 62
     7
 48
50.0
100
AcDbMText
 10
13320.93473877274
 20
5330.428391843691
 30
0.0
 40
120.0
 41
0.0
 71
     5
 72
     1
  1
\A1;3190
  7
STYLE1
 73
     1
 44
1.0
1001
ACAD
1000
MTEXTBEGIN
1070
    73
1070
     1
1070
    44
1040
1.0
1070
    74
1070
     0
1000
MTEXTEND
  0
POINT
  5
1C61C
330
1B249
100
AcDbEntity
  8
DEFPOINTS
 62
     0
 48
50.0
100
AcDbPoint
 10
14915.93473877274
 20
4546.657345478109
 30
0.0
  0
POINT
  5
1C61D
330
1B249
100
AcDbEntity
  8
DEFPOINTS
 62
     0
 48
50.0
100
AcDbPoint
 10
11725.93473877274
 20
4601.657345478114
 30
0.0
  0
POINT
  5
1C61E
330
1B249
100
AcDbEntity
  8
DEFPOINTS
 62
     0
 48
50.0
100
AcDbPoint
 10
11725.93473877274
 20
5230.428391843691
 30
0.0
  0
ENDBLK
  5
1B254
330
1B249
100
AcDbEntity
  8
0
 48
50.0
100
AcDbBlockEnd
  0
BLOCK
  5
1B261
330
1B255
100
AcDbEntity
  8
0
 48
50.0
100
AcDbBlockBegin
  2
*D35
 70
     1
 10
0.0
 20
0.0
 30
0.0
  3
*D35
  1

  0
LINE
  5
1C60B
330
1B255
100
AcDbEntity
  8
寸法
 62
     0
 48
50.0
370
    -2
100
AcDbLine
 10
11785.93473877274
 20
4617.658963601085
 30
0.0
 11
11785.93473877274
 21
5060.314799057413
 31
0.0
  0
LINE
  5
1C60C
330
1B255
100
AcDbEntity
  8
寸法
 62
     0
 48
50.0
370
    -2
100
AcDbLine
 10
11725.93473877274
 20
4621.657345478114
 30
0.0
 11
11725.93473877274
 21
5060.314799057413
 31
0.0
  0
LINE
  5
1C60D
330
1B255
100
AcDbEntity
  8
寸法
 62
     0
 48
50.0
370
    -2
100
AcDbLine
 10
11785.93473877274
 20
5000.314799057413
 30
0.0
 11
11885.93473877274
 21
5000.314799057413
 31
0.0
  0
LINE
  5
1C60E
330
1B255
100
AcDbEntity
  8
寸法
 62
     0
 48
50.0
370
    -2
100
AcDbLine
 10
11725.93473877274
 20
5000.314799057413
 30
0.0
 11
11306.65914822156
 21
5000.314799057413
 31
0.0
  0
LINE
  5
1C60F
330
1B255
100
AcDbEntity
  8
寸法
 62
     0
 48
50.0
370
    -2
100
AcDbLine
 10
11785.93473877274
 20
5000.314799057413
 30
0.0
 11
11725.93473877274
 21
5000.314799057413
 31
0.0
  0
INSERT
  5
1C610
330
1B255
100
AcDbEntity
  8
寸法
 62
     0
 48
50.0
370
    -2
100
AcDbBlockReference
  2
_DOTSMALL
 10
11785.93473877274
 20
5000.314799057413
 30
0.0
 41
100.0
 42
100.0
 43
100.0
 50
180.0
  0
INSERT
  5
1C611
330
1B255
100
AcDbEntity
  8
寸法
 62
     0
 48
50.0
370
    -2
100
AcDbBlockReference
  2
_DOTSMALL
 10
11725.93473877274
 20
5000.314799057413
 30
0.0
 41
100.0
 42
100.0
 43
100.0
  0
MTEXT
  5
1C612
330
1B255
100
AcDbEntity
  8
寸法
 62
     7
 48
50.0
100
AcDbMText
 10
11416.29694349715
 20
5100.314799057413
 30
0.0
 40
120.0
 41
0.0
 71
     5
 72
     1
  1
\A1;60
  7
STYLE1
 73
     1
 44
1.0
1001
ACAD
1000
MTEXTBEGIN
1070
    73
1070
     1
1070
    44
1040
1.0
1070
    74
1070
     0
1000
MTEXTEND
  0
POINT
  5
1C613
330
1B255
100
AcDbEntity
  8
DEFPOINTS
 62
     0
 48
50.0
100
AcDbPoint
 10
11785.93473877274
 20
4597.658963601085
 30
0.0
  0
POINT
  5
1C614
330
1B255
100
AcDbEntity
  8
DEFPOINTS
 62
     0
 48
50.0
100
AcDbPoint
 10
11725.93473877274
 20
4601.657345478114
 30
0.0
  0
POINT
  5
1C615
330
1B255
100
AcDbEntity
  8
DEFPOINTS
 62
     0
 48
50.0
100
AcDbPoint
 10
11725.93473877274
 20
5000.314799057413
 30
0.0
  0
ENDBLK
  5
1B262
330
1B255
100
AcDbEntity
  8
0
 48
50.0
100
AcDbBlockEnd
  0
BLOCK
  5
1B26D
330
1B263
100
AcDbEntity
  8
0
 48
50.0
100
AcDbBlockBegin
  2
*D36
 70
     1
 10
0.0
 20
0.0
 30
0.0
  3
*D36
  1

  0
LINE
  5
1C602
330
1B263
100
AcDbEntity
  8
寸法
 62
     0
 48
50.0
370
    -2
100
AcDbLine
 10
14835.93473877274
 20
4568.468025089763
 30
0.0
 11
14835.93473877274
 21
5060.314799057414
 31
0.0
  0
LINE
  5
1C603
330
1B263
100
AcDbEntity
  8
寸法
 62
     0
 48
50.0
370
    -2
100
AcDbLine
 10
11785.93473877274
 20
4617.658963601085
 30
0.0
 11
11785.93473877274
 21
5060.314799057414
 31
0.0
  0
LINE
  5
1C604
330
1B263
100
AcDbEntity
  8
寸法
 62
     0
 48
50.0
370
    -2
100
AcDbLine
 10
14835.93473877274
 20
5000.314799057414
 30
0.0
 11
11785.93473877274
 21
5000.314799057414
 31
0.0
  0
INSERT
  5
1C605
330
1B263
100
AcDbEntity
  8
寸法
 62
     0
 48
50.0
370
    -2
100
AcDbBlockReference
  2
_DOTSMALL
 10
14835.93473877274
 20
5000.314799057414
 30
0.0
 41
100.0
 42
100.0
 43
100.0
  0
INSERT
  5
1C606
330
1B263
100
AcDbEntity
  8
寸法
 62
     0
 48
50.0
370
    -2
100
AcDbBlockReference
  2
_DOTSMALL
 10
11785.93473877274
 20
5000.314799057414
 30
0.0
 41
100.0
 42
100.0
 43
100.0
 50
180.0
  0
MTEXT
  5
1C607
330
1B263
100
AcDbEntity
  8
寸法
 62
     7
 48
50.0
100
AcDbMText
 10
13310.93473877275
 20
5100.314799057414
 30
0.0
 40
120.0
 41
0.0
 71
     5
 72
     1
  1
\A1;柱外寸法3050
  7
STYLE1
 73
     1
 44
1.0
1001
ACAD
1000
MTEXTBEGIN
1070
    73
1070
     1
1070
    44
1040
1.0
1070
    74
1070
     0
1000
MTEXTEND
  0
POINT
  5
1C608
330
1B263
100
AcDbEntity
  8
DEFPOINTS
 62
     0
 48
50.0
100
AcDbPoint
 10
14835.93473877274
 20
4548.468025089763
 30
0.0
  0
POINT
  5
1C609
330
1B263
100
AcDbEntity
  8
DEFPOINTS
 62
     0
 48
50.0
100
AcDbPoint
 10
11785.93473877274
 20
4597.658963601085
 30
0.0
  0
POINT
  5
1C60A
330
1B263
100
AcDbEntity
  8
DEFPOINTS
 62
     0
 48
50.0
100
AcDbPoint
 10
11785.93473877274
 20
5000.314799057414
 30
0.0
  0
ENDBLK
  5
1B26E
330
1B263
100
AcDbEntity
  8
0
 48
50.0
100
AcDbBlockEnd
  0
BLOCK
  5
1B279
330
1B26F
100
AcDbEntity
  8
0
 48
50.0
100
AcDbBlockBegin
  2
*D37
 70
     1
 10
0.0
 20
0.0
 30
0.0
  3
*D37
  1

  0
LINE
  5
1C5F9
330
1B26F
100
AcDbEntity
  8
寸法
 62
     0
 48
50.0
370
    -2
100
AcDbLine
 10
11765.93473877274
 20
2226.65734547811
 30
0.0
 11
10582.18460958948
 21
2226.65734547811
 31
0.0
  0
LINE
  5
1C5FA
330
1B26F
100
AcDbEntity
  8
寸法
 62
     0
 48
50.0
370
    -2
100
AcDbLine
 10
11705.93473877274
 20
4601.657345478114
 30
0.0
 11
10582.18460958948
 21
4601.657345478114
 31
0.0
  0
LINE
  5
1C5FB
330
1B26F
100
AcDbEntity
  8
寸法
 62
     0
 48
50.0
370
    -2
100
AcDbLine
 10
10642.18460958948
 20
2226.65734547811
 30
0.0
 11
10642.18460958948
 21
4601.657345478114
 31
0.0
  0
INSERT
  5
1C5FC
330
1B26F
100
AcDbEntity
  8
寸法
 62
     0
 48
50.0
370
    -2
100
AcDbBlockReference
  2
_DOTSMALL
 10
10642.18460958948
 20
2226.65734547811
 30
0.0
 41
100.0
 42
100.0
 43
100.0
 50
270.0
  0
INSERT
  5
1C5FD
330
1B26F
100
AcDbEntity
  8
寸法
 62
     0
 48
50.0
370
    -2
100
AcDbBlockReference
  2
_DOTSMALL
 10
10642.18460958948
 20
4601.657345478114
 30
0.0
 41
100.0
 42
100.0
 43
100.0
 50
90.0
  0
MTEXT
  5
1C5FE
330
1B26F
100
AcDbEntity
  8
寸法
 62
     7
 48
50.0
100
AcDbMText
 10
10542.17279856585
 20
3414.157345478115
 30
0.0
 40
120.0
 41
0.0
 71
     5
 72
     1
  1
\A1;2375
  7
STYLE1
 11
0.0000000000000001
 21
1.0
 31
0.0
 73
     1
 44
1.0
1001
ACAD
1000
MTEXTBEGIN
1070
    73
1070
     1
1070
    44
1040
1.0
1070
    74
1070
     0
1000
MTEXTEND
  0
POINT
  5
1C5FF
330
1B26F
100
AcDbEntity
  8
DEFPOINTS
 62
     0
 48
50.0
100
AcDbPoint
 10
11785.93473877274
 20
2226.65734547811
 30
0.0
  0
POINT
  5
1C600
330
1B26F
100
AcDbEntity
  8
DEFPOINTS
 62
     0
 48
50.0
100
AcDbPoint
 10
11725.93473877274
 20
4601.657345478114
 30
0.0
  0
POINT
  5
1C601
330
1B26F
100
AcDbEntity
  8
DEFPOINTS
 62
     0
 48
50.0
100
AcDbPoint
 10
10642.18460958948
 20
4601.657345478114
 30
0.0
  0
ENDBLK
  5
1B27A
330
1B26F
100
AcDbEntity
  8
0
 48
50.0
100
AcDbBlockEnd
  0
BLOCK
  5
1B2AB
330
1B2A1
100
AcDbEntity
  8
0
 48
50.0
100
AcDbBlockBegin
  2
*D38
 70
     1
 10
0.0
 20
0.0
 30
0.0
  3
*D38
  1

  0
LINE
  5
1C5F0
330
1B2A1
100
AcDbEntity
  8
寸法
 62
     0
 48
50.0
370
    -2
100
AcDbLine
 10
14855.93473877274
 20
2226.65734547811
 30
0.0
 11
15600.86189674486
 21
2226.65734547811
 31
0.0
  0
LINE
  5
1C5F1
330
1B2A1
100
AcDbEntity
  8
寸法
 62
     0
 48
50.0
370
    -2
100
AcDbLine
 10
14950.93473877274
 20
4546.657345478109
 30
0.0
 11
15600.86189674486
 21
4546.657345478109
 31
0.0
  0
LINE
  5
1C5F2
330
1B2A1
100
AcDbEntity
  8
寸法
 62
     0
 48
50.0
370
    -2
100
AcDbLine
 10
15540.86189674486
 20
2226.65734547811
 30
0.0
 11
15540.86189674486
 21
4546.657345478109
 31
0.0
  0
INSERT
  5
1C5F3
330
1B2A1
100
AcDbEntity
  8
寸法
 62
     0
 48
50.0
370
    -2
100
AcDbBlockReference
  2
_DOTSMALL
 10
15540.86189674486
 20
2226.65734547811
 30
0.0
 41
100.0
 42
100.0
 43
100.0
 50
270.0
  0
INSERT
  5
1C5F4
330
1B2A1
100
AcDbEntity
  8
寸法
 62
     0
 48
50.0
370
    -2
100
AcDbBlockReference
  2
_DOTSMALL
 10
15540.86189674486
 20
4546.657345478109
 30
0.0
 41
100.0
 42
100.0
 43
100.0
 50
90.0
  0
MTEXT
  5
1C5F5
330
1B2A1
100
AcDbEntity
  8
寸法
 62
     7
 48
50.0
100
AcDbMText
 10
15440.85008572124
 20
3381.65734547811
 30
0.0
 40
120.0
 41
0.0
 71
     5
 72
     1
  1
\A1;2320
  7
STYLE1
 11
0.0000000000000001
 21
1.0
 31
0.0
 73
     1
 44
1.0
1001
ACAD
1000
MTEXTBEGIN
1070
    73
1070
     1
1070
    44
1040
1.0
1070
    74
1070
     0
1000
MTEXTEND
  0
POINT
  5
1C5F6
330
1B2A1
100
AcDbEntity
  8
DEFPOINTS
 62
     0
 48
50.0
100
AcDbPoint
 10
14835.93473877274
 20
2226.65734547811
 30
0.0
  0
POINT
  5
1C5F7
330
1B2A1
100
AcDbEntity
  8
DEFPOINTS
 62
     0
 48
50.0
100
AcDbPoint
 10
14930.93473877274
 20
4546.657345478109
 30
0.0
  0
POINT
  5
1C5F8
330
1B2A1
100
AcDbEntity
  8
DEFPOINTS
 62
     0
 48
50.0
100
AcDbPoint
 10
15540.86189674486
 20
4546.657345478109
 30
0.0
  0
ENDBLK
  5
1B2AC
330
1B2A1
100
AcDbEntity
  8
0
 48
50.0
100
AcDbBlockEnd
  0
BLOCK
  5
1B2B9
330
1B2AD
100
AcDbEntity
  8
0
 48
50.0
100
AcDbBlockBegin
  2
*D39
 70
     1
 10
0.0
 20
0.0
 30
0.0
  3
*D39
  1

  0
LINE
  5
1C5E5
330
1B2AD
100
AcDbEntity
  8
寸法
 62
     0
 48
50.0
370
    -2
100
AcDbLine
 10
11765.93473877274
 20
2276.65734547811
 30
0.0
 11
10882.18460958948
 21
2276.657345478111
 31
0.0
  0
LINE
  5
1C5E6
330
1B2AD
100
AcDbEntity
  8
寸法
 62
     0
 48
50.0
370
    -2
100
AcDbLine
 10
11710.93473877274
 20
2226.65734547811
 30
0.0
 11
10882.18460958948
 21
2226.657345478111
 31
0.0
  0
LINE
  5
1C5E7
330
1B2AD
100
AcDbEntity
  8
寸法
 62
     0
 48
50.0
370
    -2
100
AcDbLine
 10
10942.18460958948
 20
2276.657345478111
 30
0.0
 11
10942.18460958948
 21
2376.657345478111
 31
0.0
  0
LINE
  5
1C5E8
330
1B2AD
100
AcDbEntity
  8
寸法
 62
     0
 48
50.0
370
    -2
100
AcDbLine
 10
10942.18460958948
 20
2226.657345478111
 30
0.0
 11
10942.18460958948
 21
1736.86010138362
 31
0.0
  0
LINE
  5
1C5E9
330
1B2AD
100
AcDbEntity
  8
寸法
 62
     0
 48
50.0
370
    -2
100
AcDbLine
 10
10942.18460958948
 20
2276.657345478111
 30
0.0
 11
10942.18460958948
 21
2226.657345478111
 31
0.0
  0
INSERT
  5
1C5EA
330
1B2AD
100
AcDbEntity
  8
寸法
 62
     0
 48
50.0
370
    -2
100
AcDbBlockReference
  2
_DOTSMALL
 10
10942.18460958948
 20
2276.657345478111
 30
0.0
 41
100.0
 42
100.0
 43
100.0
 50
270.0
  0
INSERT
  5
1C5EB
330
1B2AD
100
AcDbEntity
  8
寸法
 62
     0
 48
50.0
370
    -2
100
AcDbBlockReference
  2
_DOTSMALL
 10
10942.18460958948
 20
2226.657345478111
 30
0.0
 41
100.0
 42
100.0
 43
100.0
 50
90.0
  0
MTEXT
  5
1C5EC
330
1B2AD
100
AcDbEntity
  8
寸法
 62
     7
 48
50.0
100
AcDbMText
 10
10842.18460958948
 20
1842.90734547811
 30
0.0
 40
120.0
 41
0.0
 71
     5
 72
     1
  1
\A1;50
  7
STYLE1
 11
0.0000000000000001
 21
1.0
 31
0.0
 73
     1
 44
1.0
1001
ACAD
1000
MTEXTBEGIN
1070
    73
1070
     1
1070
    44
1040
1.0
1070
    74
1070
     0
1000
MTEXTEND
  0
POINT
  5
1C5ED
330
1B2AD
100
AcDbEntity
  8
DEFPOINTS
 62
     0
 48
50.0
100
AcDbPoint
 10
11785.93473877274
 20
2276.65734547811
 30
0.0
  0
POINT
  5
1C5EE
330
1B2AD
100
AcDbEntity
  8
DEFPOINTS
 62
     0
 48
50.0
100
AcDbPoint
 10
11730.93473877274
 20
2226.65734547811
 30
0.0
  0
POINT
  5
1C5EF
330
1B2AD
100
AcDbEntity
  8
DEFPOINTS
 62
     0
 48
50.0
100
AcDbPoint
 10
10942.18460958948
 20
2226.657345478111
 30
0.0
  0
ENDBLK
  5
1B2BA
330
1B2AD
100
AcDbEntity
  8
0
 48
50.0
100
AcDbBlockEnd
  0
BLOCK
  5
1B2D2
330
1B2C8
100
AcDbEntity
  8
0
 48
50.0
100
AcDbBlockBegin
  2
*D40
 70
     1
 10
0.0
 20
0.0
 30
0.0
  3
*D40
  1

  0
LINE
  5
1C5DC
330
1B2C8
100
AcDbEntity
  8
寸法
 62
     0
 48
50.0
370
    -2
100
AcDbLine
 10
11765.93473877274
 20
4366.65734547811
 30
0.0
 11
10882.18460958948
 21
4366.65734547811
 31
0.0
  0
LINE
  5
1C5DD
330
1B2C8
100
AcDbEntity
  8
寸法
 62
     0
 48
50.0
370
    -2
100
AcDbLine
 10
11765.93473877274
 20
2276.65734547811
 30
0.0
 11
10882.18460958948
 21
2276.657345478111
 31
0.0
  0
LINE
  5
1C5DE
330
1B2C8
100
AcDbEntity
  8
寸法
 62
     0
 48
50.0
370
    -2
100
AcDbLine
 10
10942.18460958948
 20
4366.65734547811
 30
0.0
 11
10942.18460958948
 21
2276.657345478111
 31
0.0
  0
INSERT
  5
1C5DF
330
1B2C8
100
AcDbEntity
  8
寸法
 62
     0
 48
50.0
370
    -2
100
AcDbBlockReference
  2
_DOTSMALL
 10
10942.18460958948
 20
4366.65734547811
 30
0.0
 41
100.0
 42
100.0
 43
100.0
 50
90.0
  0
INSERT
  5
1C5E0
330
1B2C8
100
AcDbEntity
  8
寸法
 62
     0
 48
50.0
370
    -2
100
AcDbBlockReference
  2
_DOTSMALL
 10
10942.18460958948
 20
2276.657345478111
 30
0.0
 41
100.0
 42
100.0
 43
100.0
 50
270.0
  0
MTEXT
  5
1C5E1
330
1B2C8
100
AcDbEntity
  8
寸法
 62
     7
 48
50.0
100
AcDbMText
 10
10842.17279856586
 20
3321.657345478113
 30
0.0
 40
120.0
 41
0.0
 71
     5
 72
     1
  1
\A1;2090
  7
STYLE1
 11
0.0000000000000001
 21
1.0
 31
0.0
 73
     1
 44
1.0
1001
ACAD
1000
MTEXTBEGIN
1070
    73
1070
     1
1070
    44
1040
1.0
1070
    74
1070
     0
1000
MTEXTEND
  0
POINT
  5
1C5E2
330
1B2C8
100
AcDbEntity
  8
DEFPOINTS
 62
     0
 48
50.0
100
AcDbPoint
 10
11785.93473877274
 20
4366.65734547811
 30
0.0
  0
POINT
  5
1C5E3
330
1B2C8
100
AcDbEntity
  8
DEFPOINTS
 62
     0
 48
50.0
100
AcDbPoint
 10
11785.93473877274
 20
2276.65734547811
 30
0.0
  0
POINT
  5
1C5E4
330
1B2C8
100
AcDbEntity
  8
DEFPOINTS
 62
     0
 48
50.0
100
AcDbPoint
 10
10942.18460958948
 20
2276.657345478111
 30
0.0
  0
ENDBLK
  5
1B2D3
330
1B2C8
100
AcDbEntity
  8
0
 48
50.0
100
AcDbBlockEnd
  0
BLOCK
  5
1BBE7
330
1BBDD
100
AcDbEntity
  8
0
 48
50.0
100
AcDbBlockBegin
  2
*D41
 70
     1
 10
0.0
 20
0.0
 30
0.0
  3
*D41
  1

  0
LINE
  5
1BD2C
330
1BBDD
100
AcDbEntity
  8
寸法
 62
     0
 48
50.0
370
    -2
100
AcDbLine
 10
8543.278373116638
 20
9692.497424545912
 30
0.0
 11
8440.536559158038
 21
9309.059754790634
 31
0.0
  0
LINE
  5
1BD2D
330
1BBDD
100
AcDbEntity
  8
寸法
 62
     0
 48
50.0
370
    -2
100
AcDbLine
 10
9816.27837311665
 20
9692.497424545905
 30
0.0
 11
9713.536559158052
 21
9309.059754790634
 31
0.0
  0
LINE
  5
1BD2E
330
1BBDD
100
AcDbEntity
  8
寸法
 62
     0
 48
50.0
370
    -2
100
AcDbLine
 10
8456.613510703906
 20
9369.059754790635
 30
0.0
 11
9729.61351070392
 21
9369.059754790635
 31
0.0
  0
INSERT
  5
1BD2F
330
1BBDD
100
AcDbEntity
  8
寸法
 62
     0
 48
50.0
370
    -2
100
AcDbBlockReference
  2
_DOTSMALL
 10
8456.613510703906
 20
9369.059754790635
 30
0.0
 41
100.0
 42
100.0
 43
100.0
 50
180.0
  0
INSERT
  5
1BD30
330
1BBDD
100
AcDbEntity
  8
寸法
 62
     0
 48
50.0
370
    -2
100
AcDbBlockReference
  2
_DOTSMALL
 10
9729.61351070392
 20
9369.059754790635
 30
0.0
 41
100.0
 42
100.0
 43
100.0
  0
MTEXT
  5
1BD31
330
1BBDD
100
AcDbEntity
  8
寸法
 62
     7
 48
50.0
100
AcDbMText
 10
9139.622672703556
 20
9469.071565814257
 30
0.0
 40
120.0
 41
0.0
 71
     5
 72
     1
  1
\A1;1273
  7
STYLE1
 73
     1
 44
1.0
1001
ACAD
1000
MTEXTBEGIN
1070
    73
1070
     1
1070
    44
1040
1.0
1070
    74
1070
     0
1000
MTEXTEND
  0
POINT
  5
1BD32
330
1BBDD
100
AcDbEntity
  8
DEFPOINTS
 62
     0
 48
50.0
100
AcDbPoint
 10
8548.637356965262
 20
9712.497424545912
 30
0.0
  0
POINT
  5
1BD33
330
1BBDD
100
AcDbEntity
  8
DEFPOINTS
 62
     0
 48
50.0
100
AcDbPoint
 10
9821.637356965272
 20
9712.497424545905
 30
0.0
  0
POINT
  5
1BD34
330
1BBDD
100
AcDbEntity
  8
DEFPOINTS
 62
     0
 48
50.0
100
AcDbPoint
 10
9729.61351070392
 20
9369.059754790635
 30
0.0
  0
ENDBLK
  5
1BBE8
330
1BBDD
100
AcDbEntity
  8
0
 48
50.0
100
AcDbBlockEnd
  0
BLOCK
  5
1BC42
330
1BC38
100
AcDbEntity
  8
0
 48
50.0
100
AcDbBlockBegin
  2
*D42
 70
     1
 10
0.0
 20
0.0
 30
0.0
  3
*D42
  1

  0
LINE
  5
1BD23
330
1BC38
100
AcDbEntity
  8
寸法
 62
     0
 48
50.0
370
    -2
100
AcDbLine
 10
7243.278373116638
 20
9692.497424545805
 30
0.0
 11
7140.536559158068
 21
9309.059754790634
 31
0.0
  0
LINE
  5
1BD24
330
1BC38
100
AcDbEntity
  8
寸法
 62
     0
 48
50.0
370
    -2
100
AcDbLine
 10
8516.27837311665
 20
9692.497424545798
 30
0.0
 11
8413.53655915808
 21
9309.059754790634
 31
0.0
  0
LINE
  5
1BD25
330
1BC38
100
AcDbEntity
  8
寸法
 62
     0
 48
50.0
370
    -2
100
AcDbLine
 10
7156.613510703936
 20
9369.059754790635
 30
0.0
 11
8429.61351070395
 21
9369.059754790635
 31
0.0
  0
INSERT
  5
1BD26
330
1BC38
100
AcDbEntity
  8
寸法
 62
     0
 48
50.0
370
    -2
100
AcDbBlockReference
  2
_DOTSMALL
 10
7156.613510703936
 20
9369.059754790635
 30
0.0
 41
100.0
 42
100.0
 43
100.0
 50
180.0
  0
INSERT
  5
1BD27
330
1BC38
100
AcDbEntity
  8
寸法
 62
     0
 48
50.0
370
    -2
100
AcDbBlockReference
  2
_DOTSMALL
 10
8429.61351070395
 20
9369.059754790635
 30
0.0
 41
100.0
 42
100.0
 43
100.0
  0
MTEXT
  5
1BD28
330
1BC38
100
AcDbEntity
  8
寸法
 62
     7
 48
50.0
100
AcDbMText
 10
7793.113510703943
 20
9469.071565814257
 30
0.0
 40
120.0
 41
0.0
 71
     5
 72
     1
  1
\A1;1273
  7
STYLE1
 73
     1
 44
1.0
1001
ACAD
1000
MTEXTBEGIN
1070
    73
1070
     1
1070
    44
1040
1.0
1070
    74
1070
     0
1000
MTEXTEND
  0
POINT
  5
1BD29
330
1BC38
100
AcDbEntity
  8
DEFPOINTS
 62
     0
 48
50.0
100
AcDbPoint
 10
7248.637356965261
 20
9712.497424545805
 30
0.0
  0
POINT
  5
1BD2A
330
1BC38
100
AcDbEntity
  8
DEFPOINTS
 62
     0
 48
50.0
100
AcDbPoint
 10
8521.637356965271
 20
9712.497424545798
 30
0.0
  0
POINT
  5
1BD2B
330
1BC38
100
AcDbEntity
  8
DEFPOINTS
 62
     0
 48
50.0
100
AcDbPoint
 10
8429.61351070395
 20
9369.059754790635
 30
0.0
  0
ENDBLK
  5
1BC43
330
1BC38
100
AcDbEntity
  8
0
 48
50.0
100
AcDbBlockEnd
  0
BLOCK
  5
1BF69
330
1BF5F
100
AcDbEntity
  8
0
 48
50.0
100
AcDbBlockBegin
  2
*D43
 70
     1
 10
0.0
 20
0.0
 30
0.0
  3
*D43
  1

  0
LINE
  5
1C5D3
330
1BF5F
100
AcDbEntity
  8
寸法
 62
     0
 48
50.0
370
    -2
100
AcDbLine
 10
9870.137356965257
 20
2288.65734547811
 30
0.0
 11
10197.680459287
 21
2288.65734547811
 31
0.0
  0
LINE
  5
1C5D4
330
1BF5F
100
AcDbEntity
  8
寸法
 62
     0
 48
50.0
370
    -2
100
AcDbLine
 10
9870.137356965258
 20
4174.657345478109
 30
0.0
 11
10197.680459287
 21
4174.657345478109
 31
0.0
  0
LINE
  5
1C5D5
330
1BF5F
100
AcDbEntity
  8
寸法
 62
     0
 48
50.0
370
    -2
100
AcDbLine
 10
10137.680459287
 20
2288.65734547811
 30
0.0
 11
10137.680459287
 21
4174.657345478109
 31
0.0
  0
INSERT
  5
1C5D6
330
1BF5F
100
AcDbEntity
  8
寸法
 62
     0
 48
50.0
370
    -2
100
AcDbBlockReference
  2
_DOTSMALL
 10
10137.680459287
 20
2288.65734547811
 30
0.0
 41
100.0
 42
100.0
 43
100.0
 50
270.0
  0
INSERT
  5
1C5D7
330
1BF5F
100
AcDbEntity
  8
寸法
 62
     0
 48
50.0
370
    -2
100
AcDbBlockReference
  2
_DOTSMALL
 10
10137.680459287
 20
4174.657345478109
 30
0.0
 41
100.0
 42
100.0
 43
100.0
 50
90.0
  0
MTEXT
  5
1C5D8
330
1BF5F
100
AcDbEntity
  8
寸法
 62
     7
 48
50.0
100
AcDbMText
 10
10037.680459287
 20
3231.657345478112
 30
0.0
 40
120.0
 41
0.0
 71
     5
 72
     1
  1
\A1;有効開口部高サ 1886
  7
STYLE1
 11
0.0000000000000001
 21
1.0
 31
0.0
 73
     1
 44
1.0
1001
ACAD
1000
MTEXTBEGIN
1070
    73
1070
     1
1070
    44
1040
1.0
1070
    74
1070
     0
1000
MTEXTEND
  0
POINT
  5
1C5D9
330
1BF5F
100
AcDbEntity
  8
DEFPOINTS
 62
     0
 48
50.0
100
AcDbPoint
 10
9850.137356965255
 20
2288.65734547811
 30
0.0
  0
POINT
  5
1C5DA
330
1BF5F
100
AcDbEntity
  8
DEFPOINTS
 62
     0
 48
50.0
100
AcDbPoint
 10
9850.137356965257
 20
4174.657345478109
 30
0.0
  0
POINT
  5
1C5DB
330
1BF5F
100
AcDbEntity
  8
DEFPOINTS
 62
     0
 48
50.0
100
AcDbPoint
 10
10137.680459287
 20
4174.657345478109
 30
0.0
  0
ENDBLK
  5
1BF6A
330
1BF5F
100
AcDbEntity
  8
0
 48
50.0
100
AcDbBlockEnd
  0
BLOCK
  5
1BF77
330
1BF6B
100
AcDbEntity
  8
0
 48
50.0
100
AcDbBlockBegin
  2
*D44
 70
     1
 10
0.0
 20
0.0
 30
0.0
  3
*D44
  1

  0
LINE
  5
1C6FF
330
1BF6B
100
AcDbEntity
  8
寸法
 62
     0
 48
50.0
370
    -2
100
AcDbLine
 10
9870.137356965258
 20
4174.657345478109
 30
0.0
 11
10197.680459287
 21
4174.657345478109
 31
0.0
  0
LINE
  5
1C700
330
1BF6B
100
AcDbEntity
  8
寸法
 62
     0
 48
50.0
370
    -2
100
AcDbLine
 10
9870.137356965257
 20
4201.657345478111
 30
0.0
 11
10197.680459287
 21
4201.657345478111
 31
0.0
  0
LINE
  5
1C701
330
1BF6B
100
AcDbEntity
  8
寸法
 62
     0
 48
50.0
370
    -2
100
AcDbLine
 10
10137.680459287
 20
4174.657345478109
 30
0.0
 11
10137.680459287
 21
4074.657345478108
 31
0.0
  0
LINE
  5
1C702
330
1BF6B
100
AcDbEntity
  8
寸法
 62
     0
 48
50.0
370
    -2
100
AcDbLine
 10
10137.680459287
 20
4201.657345478111
 30
0.0
 11
10137.680459287
 21
4301.657345478111
 31
0.0
  0
MTEXT
  5
1C703
330
1BF6B
100
AcDbEntity
  8
寸法
 62
     7
 48
50.0
100
AcDbMText
 10
10277.85028253336
 20
4202.624545317768
 30
0.0
 40
120.0
 41
0.0
 71
     5
 72
     1
  1
\A1;27
  7
STYLE1
 11
0.0000000000000001
 21
1.0
 31
0.0
 73
     1
 44
1.0
1001
ACAD
1000
MTEXTBEGIN
1070
    73
1070
     1
1070
    44
1040
1.0
1070
    74
1070
     0
1000
MTEXTEND
  0
LINE
  5
1C704
330
1BF6B
100
AcDbEntity
  8
寸法
 62
     0
 48
50.0
370
    -2
100
AcDbLine
 10
10137.680459287
 20
4174.657345478109
 30
0.0
 11
10137.680459287
 21
4201.657345478111
 31
0.0
  0
INSERT
  5
1C705
330
1BF6B
100
AcDbEntity
  8
寸法
 62
     0
 48
50.0
370
    -2
100
AcDbBlockReference
  2
_DOTSMALL
 10
10137.680459287
 20
4174.657345478109
 30
0.0
 41
100.0
 42
100.0
 43
100.0
 50
90.0
  0
INSERT
  5
1C706
330
1BF6B
100
AcDbEntity
  8
寸法
 62
     0
 48
50.0
370
    -2
100
AcDbBlockReference
  2
_DOTSMALL
 10
10137.680459287
 20
4201.657345478111
 30
0.0
 41
100.0
 42
100.0
 43
100.0
 50
270.0
  0
POINT
  5
1C707
330
1BF6B
100
AcDbEntity
  8
DEFPOINTS
 62
     0
 48
50.0
100
AcDbPoint
 10
9850.137356965257
 20
4174.657345478109
 30
0.0
  0
POINT
  5
1C708
330
1BF6B
100
AcDbEntity
  8
DEFPOINTS
 62
     0
 48
50.0
100
AcDbPoint
 10
9850.137356965255
 20
4201.657345478111
 30
0.0
  0
POINT
  5
1C709
330
1BF6B
100
AcDbEntity
  8
DEFPOINTS
 62
     0
 48
50.0
100
AcDbPoint
 10
10137.680459287
 20
4201.657345478111
 30
0.0
  0
ENDBLK
  5
1BF78
330
1BF6B
100
AcDbEntity
  8
0
 48
50.0
100
AcDbBlockEnd
  0
BLOCK
  5
1BF84
330
1BF79
100
AcDbEntity
  8
0
 48
50.0
100
AcDbBlockBegin
  2
*D45
 70
     1
 10
0.0
 20
0.0
 30
0.0
  3
*D45
  1

  0
LINE
  5
1C6F5
330
1BF79
100
AcDbEntity
  8
寸法
 62
     0
 48
50.0
370
    -2
100
AcDbLine
 10
9870.137356965257
 20
4201.657345478111
 30
0.0
 11
10197.680459287
 21
4201.657345478111
 31
0.0
  0
LINE
  5
1C6F6
330
1BF79
100
AcDbEntity
  8
寸法
 62
     0
 48
50.0
370
    -2
100
AcDbLine
 10
9870.137356965257
 20
4366.65734547811
 30
0.0
 11
10197.680459287
 21
4366.65734547811
 31
0.0
  0
LINE
  5
1C6F7
330
1BF79
100
AcDbEntity
  8
寸法
 62
     0
 48
50.0
370
    -2
100
AcDbLine
 10
10137.680459287
 20
4201.657345478111
 30
0.0
 11
10137.680459287
 21
4366.65734547811
 31
0.0
  0
LINE
  5
1C6F8
330
1BF79
100
AcDbEntity
  8
寸法
 62
     0
 48
50.0
370
    -2
100
AcDbLine
 10
10137.680459287
 20
4366.65734547811
 30
0.0
 11
10137.680459287
 21
4743.627908226588
 31
0.0
  0
INSERT
  5
1C6F9
330
1BF79
100
AcDbEntity
  8
寸法
 62
     0
 48
50.0
370
    -2
100
AcDbBlockReference
  2
_DOTSMALL
 10
10137.680459287
 20
4201.657345478111
 30
0.0
 41
100.0
 42
100.0
 43
100.0
 50
270.0
  0
INSERT
  5
1C6FA
330
1BF79
100
AcDbEntity
  8
寸法
 62
     0
 48
50.0
370
    -2
100
AcDbBlockReference
  2
_DOTSMALL
 10
10137.680459287
 20
4366.65734547811
 30
0.0
 41
100.0
 42
100.0
 43
100.0
 50
90.0
  0
MTEXT
  5
1C6FB
330
1BF79
100
AcDbEntity
  8
寸法
 62
     7
 48
50.0
100
AcDbMText
 10
10037.680459287
 20
4605.14262685235
 30
0.0
 40
120.0
 41
0.0
 71
     5
 72
     1
  1
\A1;165
  7
STYLE1
 11
0.0000000000000001
 21
1.0
 31
0.0
 73
     1
 44
1.0
1001
ACAD
1000
MTEXTBEGIN
1070
    73
1070
     1
1070
    44
1040
1.0
1070
    74
1070
     0
1000
MTEXTEND
  0
POINT
  5
1C6FC
330
1BF79
100
AcDbEntity
  8
DEFPOINTS
 62
     0
 48
50.0
100
AcDbPoint
 10
9850.137356965255
 20
4201.657345478111
 30
0.0
  0
POINT
  5
1C6FD
330
1BF79
100
AcDbEntity
  8
DEFPOINTS
 62
     0
 48
50.0
100
AcDbPoint
 10
9850.137356965255
 20
4366.65734547811
 30
0.0
  0
POINT
  5
1C6FE
330
1BF79
100
AcDbEntity
  8
DEFPOINTS
 62
     0
 48
50.0
100
AcDbPoint
 10
10137.680459287
 20
4366.65734547811
 30
0.0
  0
ENDBLK
  5
1BF85
330
1BF79
100
AcDbEntity
  8
0
 48
50.0
100
AcDbBlockEnd
  0
BLOCK
  5
1C382
330
1C378
100
AcDbEntity
  8
0
 48
50.0
100
AcDbBlockBegin
  2
*D46
 70
     1
 10
0.0
 20
0.0
 30
0.0
  3
*D46
  1

  0
LINE
  5
1C467
330
1C378
100
AcDbEntity
  8
寸法
 62
     0
 48
50.0
370
    -2
100
AcDbLine
 10
4635.137356964972
 20
9475.997427244898
 30
0.0
 11
4986.978717225809
 21
9475.997427244898
 31
0.0
  0
LINE
  5
1C468
330
1C378
100
AcDbEntity
  8
寸法
 62
     0
 48
50.0
370
    -2
100
AcDbLine
 10
4665.137356965207
 20
10192.49742724505
 30
0.0
 11
4986.978717225809
 21
10192.49742724505
 31
0.0
  0
LINE
  5
1C469
330
1C378
100
AcDbEntity
  8
寸法
 62
     0
 48
50.0
370
    -2
100
AcDbLine
 10
4926.978717225809
 20
9475.997427244898
 30
0.0
 11
4926.978717225809
 21
10192.49742724505
 31
0.0
  0
INSERT
  5
1C46A
330
1C378
100
AcDbEntity
  8
寸法
 62
     0
 48
50.0
370
    -2
100
AcDbBlockReference
  2
_DOTSMALL
 10
4926.978717225809
 20
9475.997427244898
 30
0.0
 41
100.0
 42
100.0
 43
100.0
 50
270.0
  0
INSERT
  5
1C46B
330
1C378
100
AcDbEntity
  8
寸法
 62
     0
 48
50.0
370
    -2
100
AcDbBlockReference
  2
_DOTSMALL
 10
4926.978717225809
 20
10192.49742724505
 30
0.0
 41
100.0
 42
100.0
 43
100.0
 50
90.0
  0
MTEXT
  5
1C46C
330
1C378
100
AcDbEntity
  8
寸法
 62
     7
 48
50.0
100
AcDbMText
 10
4826.978717225808
 20
9931.583688491402
 30
0.0
 40
120.0
 41
0.0
 71
     5
 72
     1
  1
\A1;716.5
  7
STYLE1
 11
0.0000000000000001
 21
1.0
 31
0.0
 73
     1
 44
1.0
1001
ACAD
1000
MTEXTBEGIN
1070
    73
1070
     1
1070
    44
1040
1.0
1070
    74
1070
     0
1000
MTEXTEND
  0
POINT
  5
1C46D
330
1C378
100
AcDbEntity
  8
DEFPOINTS
 62
     0
 48
50.0
100
AcDbPoint
 10
4615.137356964972
 20
9475.997427244898
 30
0.0
  0
POINT
  5
1C46E
330
1C378
100
AcDbEntity
  8
DEFPOINTS
 62
     0
 48
50.0
100
AcDbPoint
 10
4645.137356965206
 20
10192.49742724505
 30
0.0
  0
POINT
  5
1C46F
330
1C378
100
AcDbEntity
  8
DEFPOINTS
 62
     0
 48
50.0
100
AcDbPoint
 10
4926.978717225809
 20
10192.49742724505
 30
0.0
  0
ENDBLK
  5
1C383
330
1C378
100
AcDbEntity
  8
0
 48
50.0
100
AcDbBlockEnd
  0
BLOCK
  5
1C473
330
1C472
100
AcDbEntity
  8
0
 48
50.0
100
AcDbBlockBegin
  2
*D47
 70
     1
 10
0.0
 20
0.0
 30
0.0
  3
*D47
  1

  0
LINE
  5
1C474
330
1C472
100
AcDbEntity
  8
寸法
 62
     0
 48
50.0
370
    -2
100
AcDbLine
 10
8373.371045460663
 20
5758.155269429562
 30
0.0
 11
8670.212405721491
 21
5758.155269429562
 31
0.0
  0
LINE
  5
1C475
330
1C472
100
AcDbEntity
  8
寸法
 62
     0
 48
50.0
370
    -2
100
AcDbLine
 10
8348.371045460888
 20
6474.655269429717
 30
0.0
 11
8670.212405721491
 21
6474.655269429717
 31
0.0
  0
LINE
  5
1C476
330
1C472
100
AcDbEntity
  8
寸法
 62
     0
 48
50.0
370
    -2
100
AcDbLine
 10
8610.212405721489
 20
5758.155269429562
 30
0.0
 11
8610.212405721489
 21
6474.655269429717
 31
0.0
  0
INSERT
  5
1C477
330
1C472
100
AcDbEntity
  8
寸法
 62
     0
 48
50.0
370
    -2
100
AcDbBlockReference
  2
_DOTSMALL
 10
8610.212405721489
 20
5758.155269429562
 30
0.0
 41
100.0
 42
100.0
 43
100.0
 50
270.0
  0
INSERT
  5
1C478
330
1C472
100
AcDbEntity
  8
寸法
 62
     0
 48
50.0
370
    -2
100
AcDbBlockReference
  2
_DOTSMALL
 10
8610.212405721489
 20
6474.655269429717
 30
0.0
 41
100.0
 42
100.0
 43
100.0
 50
90.0
  0
MTEXT
  5
1C479
330
1C472
100
AcDbEntity
  8
寸法
 62
     7
 48
50.0
100
AcDbMText
 10
8510.212405721487
 20
6116.405269429641
 30
0.0
 40
120.0
 41
0.0
 71
     5
 72
     1
  1
\A1;716.5
  7
STYLE1
 11
0.0000000000000001
 21
1.0
 31
0.0
 73
     1
 44
1.0
1001
ACAD
1000
MTEXTBEGIN
1070
    73
1070
     1
1070
    44
1040
1.0
1070
    74
1070
     0
1000
MTEXTEND
  0
POINT
  5
1C47A
330
1C472
100
AcDbEntity
  8
DEFPOINTS
 62
     0
 48
50.0
100
AcDbPoint
 10
8353.371045460663
 20
5758.155269429562
 30
0.0
  0
POINT
  5
1C47B
330
1C472
100
AcDbEntity
  8
DEFPOINTS
 62
     0
 48
50.0
100
AcDbPoint
 10
8328.371045460889
 20
6474.655269429717
 30
0.0
  0
POINT
  5
1C47C
330
1C472
100
AcDbEntity
  8
DEFPOINTS
 62
     0
 48
50.0
100
AcDbPoint
 10
8610.212405721489
 20
6474.655269429717
 30
0.0
  0
ENDBLK
  5
1C47D
330
1C472
100
AcDbEntity
  8
0
 48
50.0
100
AcDbBlockEnd
  0
BLOCK
  5
1C4B0
330
1C47E
100
AcDbEntity
  8
0
 48
50.0
100
AcDbBlockBegin
  2
A$C213850FD
 70
     0
 10
0.0
 20
0.0
 30
0.0
  3
A$C213850FD
  1

  0
LINE
  5
1C47F
330
1C47E
100
AcDbEntity
  8
部品1
 48
50.0
100
AcDbLine
 10
135.000036614585
 20
728.9999729092687
 30
0.0
 11
25.00003885843944
 21
728.9999764865387
 31
0.0
  0
LINE
  5
1C480
330
1C47E
100
AcDbEntity
  8
部品1
100
AcDbLine
 10
108.0000388584067
 20
673.9999764864606
 30
0.0
 11
52.00003885840669
 21
673.9999764864606
 31
0.0
  0
LINE
  5
1C481
330
1C47E
100
AcDbEntity
  8
部品1
 48
50.0
100
AcDbLine
 10
108.0000388581557
 20
673.9999764864132
 30
0.0
 11
108.0000388581557
 21
728.9999764864424
 31
0.0
  0
LINE
  5
1C482
330
1C47E
100
AcDbEntity
  8
部品1
 48
50.0
100
AcDbLine
 10
52.00003885815568
 20
700.9999764864351
 30
0.0
 11
80.00003885815567
 21
700.9999764864423
 31
0.0
  0
LINE
  5
1C483
330
1C47E
100
AcDbEntity
  8
部品1
 48
50.0
100
AcDbLine
 10
52.00003885815568
 20
673.9999764864132
 30
0.0
 11
52.00003885815568
 21
728.9999764864933
 31
0.0
  0
LINE
  5
1C484
330
1C47E
100
AcDbEntity
  8
部品1
100
AcDbLine
 10
108.0000388581557
 20
673.9999764864132
 30
0.0
 11
52.00003885815568
 21
673.9999764864132
 31
0.0
  0
LINE
  5
1C485
330
1C47E
100
AcDbEntity
  8
部品1
 48
50.0
100
AcDbLine
 10
80.00003885815567
 20
700.9999764864351
 30
0.0
 11
52.00003885815568
 21
728.9999764864933
 31
0.0
  0
LINE
  5
1C486
330
1C47E
100
AcDbEntity
  8
部品1
100
AcDbLine
 10
25.00003885818842
 20
728.999976486486
 30
0.0
 11
25.00003885818842
 21
700.999976486486
 31
0.0
  0
LINE
  5
1C487
330
1C47E
100
AcDbEntity
  8
部品1
100
AcDbLine
 10
135.0000388581884
 20
728.9999764863987
 30
0.0
 11
135.0000388581884
 21
700.9999764863987
 31
0.0
  0
LINE
  5
1C488
330
1C47E
100
AcDbEntity
  8
部品1
 48
50.0
100
AcDbLine
 10
0.0000388582247979
 20
12.49997648628232
 30
0.0
 11
160.0000388582138
 21
12.4999764862896
 31
0.0
  0
LINE
  5
1C489
330
1C47E
100
AcDbEntity
  8
部品1
100
AcDbLine
 10
135.0000388582357
 20
12.49997648628232
 30
0.0
 11
135.0000388582284
 21
673.9999764863041
 31
0.0
  0
LINE
  5
1C48A
330
1C47E
100
AcDbEntity
  8
部品1
 48
10.0
100
AcDbLine
 10
160.0000388582138
 20
12.4999764862896
 30
0.0
 11
160.000038858203
 21
673.9999764863259
 31
0.0
  0
LINE
  5
1C48B
330
1C47E
100
AcDbEntity
  8
部品1
100
AcDbLine
 10
25.00003885823208
 20
12.49997648628232
 30
0.0
 11
25.00003885822844
 21
673.9999764863114
 31
0.0
  0
LINE
  5
1C48C
330
1C47E
100
AcDbEntity
  8
部品1
 48
10.0
100
AcDbLine
 10
0.0000388582247979
 20
12.49997648628232
 30
0.0
 11
0.0000388582211599
 21
673.9999764863114
 31
0.0
  0
LINE
  5
1C48D
330
1C47E
100
AcDbEntity
  8
部品1
100
AcDbLine
 10
108.0000388582138
 20
12.49997648628232
 30
0.0
 11
108.0000388582211
 21
728.9999764863551
 31
0.0
  0
LINE
  5
1C48E
330
1C47E
100
AcDbEntity
  8
部品1
100
AcDbLine
 10
52.00003885821752
 20
700.999976486406
 30
0.0
 11
52.00003885821388
 21
12.49997648628232
 31
0.0
  0
LINE
  5
1C48F
330
1C47E
100
AcDbEntity
  8
部品1
 48
50.0
100
AcDbLine
 10
52.00003885815931
 20
673.9999764863259
 30
0.0
 11
52.00003885815568
 21
728.9999764864059
 31
0.0
  0
LINE
  5
1C490
330
1C47E
100
AcDbEntity
  8
部品1
 48
50.0
100
AcDbLine
 10
135.0000388582284
 20
673.9999764863914
 30
0.0
 11
108.0000388582211
 21
700.9999764863987
 31
0.0
  0
LINE
  5
1C491
330
1C47E
100
AcDbEntity
  8
部品1
 48
50.0
100
AcDbLine
 10
25.00003885822844
 20
673.9999764863114
 30
0.0
 11
52.00003885840669
 21
700.999976486486
 31
0.0
  0
LINE
  5
1C492
330
1C47E
100
AcDbEntity
  8
部品1
100
AcDbLine
 10
25.00003661458504
 20
728.9999729092687
 30
0.0
 11
25.00003661458504
 21
700.9999729092688
 31
0.0
  0
LINE
  5
1C493
330
1C47E
100
AcDbEntity
  8
部品1
100
AcDbLine
 10
25.00003661458504
 20
728.9999729092687
 30
0.0
 11
25.00003661458504
 21
700.9999729092688
 31
0.0
  0
LINE
  5
1C494
330
1C47E
100
AcDbEntity
  8
部品1
100
AcDbLine
 10
108.000038858152
 20
673.9999729092687
 30
0.0
 11
52.00003661458504
 21
673.9999729092687
 31
0.0
  0
LINE
  5
1C495
330
1C47E
100
AcDbEntity
  8
部品1
100
AcDbLine
 10
135.000036614585
 20
728.9999729092687
 30
0.0
 11
135.000036614585
 21
700.9999729092688
 31
0.0
  0
LINE
  5
1C496
330
1C47E
100
AcDbEntity
  8
部品1
100
AcDbLine
 10
135.000036614585
 20
728.9999729092687
 30
0.0
 11
135.000036614585
 21
700.9999729092688
 31
0.0
  0
LINE
  5
1C497
330
1C47E
100
AcDbEntity
  8
部品1
100
AcDbLine
 10
108.000038858152
 20
673.9999729092687
 30
0.0
 11
108.000038858152
 21
728.9999764864351
 31
0.0
  0
LINE
  5
1C498
330
1C47E
100
AcDbEntity
  8
部品1
100
AcDbLine
 10
52.00003885815568
 20
673.9999729092687
 30
0.0
 11
52.00003885815568
 21
700.9999764864351
 31
0.0
  0
LINE
  5
1C499
330
1C47E
100
AcDbEntity
  8
部品1
 48
50.0
100
AcDbLine
 10
80.00003885815567
 20
700.9999764864351
 30
0.0
 11
52.00003885815568
 21
728.9999764864351
 31
0.0
  0
LINE
  5
1C49A
330
1C47E
100
AcDbEntity
  8
部品1
100
AcDbLine
 10
52.00003885815568
 20
700.9999764864351
 30
0.0
 11
80.00003885815567
 21
700.9999764864351
 31
0.0
  0
LINE
  5
1C49B
330
1C47E
100
AcDbEntity
  8
部品1
100
AcDbLine
 10
135.0000388581884
 20
728.9999764863987
 30
0.0
 11
135.0000388581884
 21
700.9999764863987
 31
0.0
  0
LINE
  5
1C49C
330
1C47E
100
AcDbEntity
  8
部品1
100
AcDbLine
 10
25.00003885818842
 20
728.999976486486
 30
0.0
 11
25.00003885818842
 21
700.999976486486
 31
0.0
  0
LINE
  5
1C49D
330
1C47E
100
AcDbEntity
  8
部品1
 48
50.0
100
AcDbLine
 10
52.00003885815931
 20
673.9999764864132
 30
0.0
 11
52.00003885815568
 21
728.9999764864933
 31
0.0
  0
LINE
  5
1C49E
330
1C47E
100
AcDbEntity
  8
部品1
 48
50.0
100
AcDbLine
 10
52.00003885815568
 20
700.9999764864351
 30
0.0
 11
80.00003885815567
 21
700.9999764864423
 31
0.0
  0
LINE
  5
1C49F
330
1C47E
100
AcDbEntity
  8
部品1
 48
50.0
100
AcDbLine
 10
108.0000388581884
 20
728.9999764864424
 30
0.0
 11
108.0000388581884
 21
673.9999764864132
 31
0.0
  0
LINE
  5
1C4A0
330
1C47E
100
AcDbEntity
  8
部品1
 48
50.0
100
AcDbLine
 10
80.00003885815567
 20
700.9999764864351
 30
0.0
 11
52.00003885815568
 21
728.9999764864933
 31
0.0
  0
LINE
  5
1C4A1
330
1C47E
100
AcDbEntity
  8
部品1
100
AcDbLine
 10
135.0000388584358
 20
728.9999764864441
 30
0.0
 11
135.0000388584358
 21
700.9999764864442
 31
0.0
  0
LINE
  5
1C4A2
330
1C47E
100
AcDbEntity
  8
部品1
100
AcDbLine
 10
25.00003885843944
 20
728.9999764865387
 30
0.0
 11
25.00003885843944
 21
700.9999764865388
 31
0.0
  0
LINE
  5
1C4A3
330
1C47E
100
AcDbEntity
  8
部品1
 48
50.0
100
AcDbLine
 10
80.00003885840305
 20
700.999976486486
 30
0.0
 11
52.00003885840669
 21
728.9999764865406
 31
0.0
  0
LINE
  5
1C4A4
330
1C47E
100
AcDbEntity
  8
部品1
 48
50.0
100
AcDbLine
 10
52.00003885840669
 20
700.9999764865916
 30
0.0
 11
52.00003885840306
 21
728.9999764865406
 31
0.0
  0
LINE
  5
1C4A5
330
1C47E
100
AcDbEntity
  8
部品1
 48
50.0
100
AcDbLine
 10
52.00003885840669
 20
700.999976486486
 30
0.0
 11
80.00003885840305
 21
700.9999764864878
 31
0.0
  0
LINE
  5
1C4A6
330
1C47E
100
AcDbEntity
  8
部品1
 48
50.0
100
AcDbLine
 10
108.0000388584067
 20
673.9999764864606
 30
0.0
 11
108.0000388584722
 21
728.9999764864915
 31
0.0
  0
LINE
  5
1C4A7
330
1C47E
100
AcDbEntity
  8
部品1
 48
50.0
100
AcDbLine
 10
52.00003885840669
 20
673.9999764864606
 30
0.0
 11
52.00003885840669
 21
700.999976486486
 31
0.0
  0
LINE
  5
1C4A8
330
1C47E
100
AcDbEntity
  8
部品1
 48
50.0
100
AcDbLine
 10
108.0000388584067
 20
673.9999764865188
 30
0.0
 11
52.00003885840487
 21
673.9999764865169
 31
0.0
  0
DIMENSION
  5
1C4A9
330
1C47E
100
AcDbEntity
  8
寸法
 48
50.0
100
AcDbDimension
  2
*D47
 10
416.8413991190391
 20
728.9999764864441
 30
0.0
 11
316.8413991190373
 21
370.7499764863678
 31
0.0
 12
-8193.37100660245
 22
-5745.655292943273
 32
0.0
 71
     5
 42
716.5000000001546
  3
INABA_S40G
100
AcDbAlignedDimension
 13
160.000038858212
 23
12.4999764862896
 33
0.0
 14
135.0000388584376
 24
728.9999764864441
 34
0.0
 50
90.0
100
AcDbRotatedDimension
1001
ACAD
1000
DSTYLE
1002
{
1070
   174
1070
     0
1070
   272
1070
     1
1070
   341
1005
0
1002
}
  0
LINE
  5
1C4AA
330
1C47E
100
AcDbEntity
  8
部品1
 48
50.0
100
AcDbLine
 10
55.00003885820297
 20
673.9999729092687
 30
0.0
 11
55.00003885820297
 21
13.49997290926876
 31
0.0
  0
LINE
  5
1C4AB
330
1C47E
100
AcDbEntity
  8
部品1
 48
50.0
100
AcDbLine
 10
55.00003885820297
 20
13.49997290926876
 30
0.0
 11
105.0000388582029
 21
13.49997290926876
 31
0.0
  0
LINE
  5
1C4AC
330
1C47E
100
AcDbEntity
  8
部品1
 48
50.0
100
AcDbLine
 10
105.0000388582029
 20
13.49997290926876
 30
0.0
 11
105.0000388582029
 21
673.9999729092687
 31
0.0
  0
LINE
  5
1C4AD
330
1C47E
100
AcDbEntity
  8
部品1
100
AcDbLine
 10
105.0000388582029
 20
290.6759563461237
 30
0.0
 11
55.00003885820115
 21
285.4999729092688
 31
0.0
  0
LINE
  5
1C4AE
330
1C47E
100
AcDbEntity
  8
部品1
100
AcDbLine
 10
105.0000388582029
 20
250.3239894724156
 30
0.0
 11
55.00003885820115
 21
255.4999729092688
 31
0.0
  0
LINE
  5
1C4AF
330
1C47E
100
AcDbEntity
  8
部品1
100
AcDbLine
 10
55.00003885820297
 20
95.49997290926876
 30
0.0
 11
105.0000388582011
 21
108.2118373160465
 31
0.0
  0
ENDBLK
  5
1C4B1
330
1C47E
100
AcDbEntity
  8
0
 48
50.0
100
AcDbBlockEnd
  0
BLOCK
  5
1C6C0
330
1C6BB
100
AcDbEntity
  8
0
 48
50.0
100
AcDbBlockBegin
  2
A$C44064EDA
 70
     0
 10
0.0
 20
0.0
 30
0.0
  3
A$C44064EDA
  1

  0
LINE
  5
1C6BC
330
1C6BB
100
AcDbEntity
  8
破線
  6
HIDDEN
 48
5.0
100
AcDbLine
 10
0.000000000003638
 20
-99.99999999999682
 30
0.0
 11
0.0000000000045475
 21
-274.9999999999973
 31
0.0
  0
LINE
  5
1C6BD
330
1C6BB
100
AcDbEntity
  8
破線
  6
HIDDEN
 48
5.0
100
AcDbLine
 10
110.0000000000018
 20
-274.9999999999973
 30
0.0
 11
0.000000000003638
 21
-274.9999999999973
 31
0.0
  0
LINE
  5
1C6BE
330
1C6BB
100
AcDbEntity
  8
破線
  6
HIDDEN
 48
5.0
100
AcDbLine
 10
110.0000000000036
 20
-99.99999999999682
 30
0.0
 11
110.0000000000027
 21
-274.9999999999973
 31
0.0
  0
LINE
  5
1C6BF
330
1C6BB
100
AcDbEntity
  8
破線
 48
5.0
100
AcDbLine
 10
55.00000000000273
 20
-274.9999999999973
 30
0.0
 11
55.00000000000273
 21
-349.9999999999973
 31
0.0
  0
ENDBLK
  5
1C6C1
330
1C6BB
100
AcDbEntity
  8
0
 48
50.0
100
AcDbBlockEnd
  0
ENDSEC
  0
SECTION
  2
ENTITIES
  0
MTEXT
  5
763F
330
747D
100
AcDbEntity
  8
0
100
AcDbMText
 10
302.846345836809
 20
280.1983726409901
 30
0.0
 40
3.5
 41
5.323721266742722
 71
     1
 72
     5
  1

  7
MSMINCHO
 73
     1
 44
1.0
1001
ACAD
1000
MTEXTBEGIN
1070
    73
1070
     1
1070
    44
1040
1.0
1070
    74
1070
     0
1000
MTEXTEND
  0
LINE
  5
10B57
330
747D
100
AcDbEntity
  8
補助
  6
PHANTOM
 62
   230
 48
50.0
100
AcDbLine
 10
139.9999999999995
 20
11409.6
 30
0.0
 11
16307.2
 21
11409.6
 31
0.0
  0
LINE
  5
10B59
330
747D
100
AcDbEntity
  8
仕様書枠
  6
Continuous
 48
50.0
100
AcDbLine
 10
13107.2
 20
1200.0
 30
0.0
 11
13107.2
 21
-0.0000000000000729
 31
0.0
  0
LINE
  5
10B5C
330
747D
100
AcDbEntity
  8
仕様書枠
 48
50.0
100
AcDbLine
 10
16307.2
 20
1200.0
 30
0.0
 11
16307.2
 21
-0.0000000000000909
 31
0.0
  0
LINE
  5
10B5D
330
747D
100
AcDbEntity
  8
仕様書枠
 48
50.0
100
AcDbLine
 10
140.0
 20
0.0
 30
0.0
 11
16307.2
 21
-0.0000000000000909
 31
0.0
  0
LINE
  5
10B5E
330
747D
100
AcDbEntity
  8
補助
  6
PHANTOM
 62
   230
 48
50.0
100
AcDbLine
 10
16307.2
 20
11409.6
 30
0.0
 11
16307.2
 21
1200.0
 31
0.0
  0
LINE
  5
10B6C
330
747D
100
AcDbEntity
  8
仕様書枠
 48
50.0
100
AcDbLine
 10
13107.2
 20
1200.0
 30
0.0
 11
16307.2
 21
1200.0
 31
0.0
  0
LINE
  5
10B6D
330
747D
100
AcDbEntity
  8
補助
  6
PHANTOM
 62
   230
 48
50.0
100
AcDbLine
 10
13107.2
 20
11409.6
 30
0.0
 11
13107.2
 21
4800.0
 31
0.0
  0
LINE
  5
10B6F
330
747D
100
AcDbEntity
  8
補助
  6
PHANTOM
 62
   230
 48
50.0
100
AcDbLine
 10
13107.2
 20
4800.0
 30
0.0
 11
16307.2
 21
4800.0
 31
0.0
  0
LINE
  5
10B72
330
747D
100
AcDbEntity
  8
文字
 62
     7
 48
50.0
100
AcDbLine
 10
13187.2
 20
400.0
 30
0.0
 11
16227.2
 21
400.0
 31
0.0
  0
TEXT
  5
10B73
330
747D
100
AcDbEntity
  8
文字
 62
     7
 48
50.0
100
AcDbText
 10
13162.9790565769
 20
895.0906074299405
 30
0.0
 40
200.0
  1
外 形 図
  7
STYLE2
100
AcDbText
  0
TEXT
  5
10B74
330
747D
100
AcDbEntity
  8
文字
 62
     7
 48
50.0
100
AcDbText
 10
13201.43669998441
 20
477.2740661031255
 30
0.0
 40
160.0
  1
機種名
  7
STYLE2
100
AcDbText
  0
TEXT
  5
10B75
330
747D
100
AcDbEntity
  8
文字
 62
     7
 48
50.0
100
AcDbText
 10
13209.4053442172
 20
228.5435242569016
 30
0.0
 40
100.0
  1
○有効開口寸法 ： 2424×1886(mm)
  7
STYLE2
100
AcDbText
  0
TEXT
  5
10B76
330
747D
100
AcDbEntity
  8
文字
 62
     7
 48
50.0
100
AcDbText
 10
13209.4053442172
 20
76.09434707649343
 30
0.0
 40
100.0
  1
○床面積 ： N［連続数］ X 8.02㎡(2.43坪)
  7
STYLE2
100
AcDbText
  0
TEXT
  5
10B79
330
747D
100
AcDbEntity
  8
文字
 62
     7
 48
50.0
100
AcDbText
 10
14524.131837222
 20
1031.557706291228
 30
0.0
 40
100.0
  1
NO.44      <縮尺> S=1/40
  7
STYLE2
100
AcDbText
  0
LINE
  5
10B7B
330
747D
100
AcDbEntity
  8
仕様書枠
 48
50.0
100
AcDbLine
 10
13107.2
 20
800.0
 30
0.0
 11
14251.2
 21
800.0
 31
0.0
  0
LINE
  5
10B88
330
747D
100
AcDbEntity
  8
仕様書枠
  6
Continuous
 48
50.0
100
AcDbLine
 10
14251.2
 20
1200.0
 30
0.0
 11
14251.2
 21
800.0
 31
0.0
  0
DIMENSION
  5
162CD
330
747D
100
AcDbEntity
  8
寸法
100
AcDbDimension
  2
*D1
 10
10497.56370269968
 20
7197.497424545952
 30
0.0
 11
10397.55189167606
 21
8667.49742454596
 31
0.0
 70
    32
  1
7X420=<>
 71
     5
 42
-1.0
  3
INABA_S40G
100
AcDbAlignedDimension
 13
9850.137356965275
 23
10137.49742454596
 33
0.0
 14
9850.137356965248
 24
7197.497424545952
 34
0.0
 50
90.0
100
AcDbRotatedDimension
1001
ACAD
1000
DSTYLE
1002
{
1002
}
  0
DIMENSION
  5
162CE
330
747D
100
AcDbEntity
  8
寸法
100
AcDbDimension
  2
*D2
 10
10497.56370269965
 20
7142.497424545957
 30
0.0
 11
10497.56370269965
 21
6764.635957641094
 31
0.0
 12
2475.46429984161
 22
160.0
 32
0.0
 70
   160
 71
     5
 42
-1.0
  3
INABA_S40G
100
AcDbAlignedDimension
 13
9850.137356965248
 23
7197.497424545952
 33
0.0
 14
9850.137356965248
 24
7142.497424545957
 34
0.0
 50
90.0
100
AcDbRotatedDimension
1001
ACAD
1000
DSTYLE
1002
{
1002
}
  0
DIMENSION
  5
162CF
330
747D
100
AcDbEntity
  8
寸法
100
AcDbDimension
  2
*D3
 10
10497.56370269968
 20
10137.49742454596
 30
0.0
 11
10497.56370269968
 21
10500.9827059202
 31
0.0
 12
2475.46429984161
 22
160.0
 32
0.0
 70
   160
 71
     5
 42
-1.0
  3
INABA_S40G
100
AcDbAlignedDimension
 13
9850.137356965275
 23
10192.49742454596
 33
0.0
 14
9850.137356965275
 24
10137.49742454596
 34
0.0
 50
90.0
100
AcDbRotatedDimension
1001
ACAD
1000
DSTYLE
1002
{
1002
}
  0
DIMENSION
  5
162D0
330
747D
100
AcDbEntity
  8
寸法
100
AcDbDimension
  2
*D4
 10
10862.67064443932
 20
7142.497424545957
 30
0.0
 11
10762.67064443932
 21
8667.49742454596
 31
0.0
 70
    32
 71
     5
 42
-1.0
  3
INABA_S40G
100
AcDbAlignedDimension
 13
9850.137356965275
 23
10192.49742454596
 33
0.0
 14
9850.137356965248
 24
7142.497424545957
 34
0.0
 50
90.0
100
AcDbRotatedDimension
1001
ACAD
1000
DSTYLE
1002
{
1002
}
  0
LINE
  5
162DC
330
747D
100
AcDbEntity
  8
部品1
100
AcDbLine
 10
9822.137356965257
 20
10164.49742454596
 30
0.0
 11
9822.137356965249
 21
7197.497424545952
 31
0.0
  0
LINE
  5
162DD
330
747D
100
AcDbEntity
  8
部品1
100
AcDbLine
 10
1988.137356965248
 20
7197.497424545821
 30
0.0
 11
1988.137356965259
 21
10164.49742454587
 31
0.0
  0
LINE
  5
162DE
330
747D
100
AcDbEntity
  8
部品1
100
AcDbLine
 10
9850.137356965275
 20
10192.49742454596
 30
0.0
 11
9850.137356965248
 21
7142.497424545957
 31
0.0
  0
LINE
  5
162DF
330
747D
100
AcDbEntity
  8
部品1
100
AcDbLine
 10
1960.137356965239
 20
10192.49742454583
 30
0.0
 11
1960.137356965266
 21
7142.497424545826
 31
0.0
  0
DIMENSION
  5
162E4
330
747D
100
AcDbEntity
  8
寸法
 48
50.0
100
AcDbDimension
  2
*D5
 10
7323.137356965266
 20
6608.0666537797
 30
0.0
 11
8535.137356965256
 21
6708.078464803323
 31
0.0
 12
-210.0
 22
0.0
 32
0.0
 70
    32
  1
有効開口部間口 <>
 71
     5
 42
-1.0
  3
INABA_S40G
100
AcDbAlignedDimension
 13
9747.137356965248
 23
7168.497424545865
 33
0.0
 14
7323.137356965266
 24
7168.497424545865
 34
0.0
100
AcDbRotatedDimension
1001
ACAD
1000
DSTYLE
1002
{
1070
    75
1070
     1
1070
   279
1070
     2
1002
}
  0
LINE
  5
162E6
330
747D
100
AcDbEntity
  8
部品1
 48
50.0
100
AcDbLine
 10
7287.137356965264
 20
7187.997424545864
 30
0.0
 11
9783.13735696525
 21
7187.997424545864
 31
0.0
  0
DIMENSION
  5
162E7
330
747D
100
AcDbEntity
  8
寸法
100
AcDbDimension
  2
*D6
 10
9850.137356965237
 20
6161.893658188827
 30
0.0
 11
5905.137356965251
 21
6261.905469212448
 31
0.0
 70
    32
  1
N X 2630
 71
     5
 42
-1.0
  3
INABA_S40G
100
AcDbAlignedDimension
 13
1960.137356965266
 23
7142.497424545862
 33
0.0
 14
9850.137356965237
 24
7142.497424545957
 34
0.0
100
AcDbRotatedDimension
1001
ACAD
1000
DSTYLE
1002
{
1002
}
  0
LINE
  5
162E8
330
747D
100
AcDbEntity
  8
部品1
100
AcDbLine
 10
2015.137356965249
 20
9712.49742454581
 30
0.0
 11
2015.137356965264
 21
7207.497424545863
 31
0.0
  0
DIMENSION
  5
162EA
330
747D
100
AcDbEntity
  8
寸法
 48
50.0
100
AcDbDimension
  2
*D7
 10
1960.137356965266
 20
6608.0666537797
 30
0.0
 11
1651.652075591028
 21
6608.0666537797
 31
0.0
 12
-2784.535700158391
 22
160.0
 32
0.0
 70
   160
 71
     5
 42
-1.0
  3
INABA_S40G
100
AcDbAlignedDimension
 13
2015.137356965262
 23
7142.497424545865
 33
0.0
 14
1960.137356965266
 24
7142.497424545862
 34
0.0
100
AcDbRotatedDimension
1001
ACAD
1000
DSTYLE
1002
{
1002
}
  0
DIMENSION
  5
162EB
330
747D
100
AcDbEntity
  8
寸法
 48
50.0
100
AcDbDimension
  2
*D8
 10
7275.137356965263
 20
6608.0666537797
 30
0.0
 11
7436.039327965324
 21
6708.0666537797
 31
0.0
 12
2475.46429984161
 22
160.0
 32
0.0
 70
   160
 71
     5
 42
-1.0
  3
INABA_S40G
100
AcDbAlignedDimension
 13
7323.137356965266
 23
7168.497424545865
 33
0.0
 14
7275.137356965263
 24
7142.497424545865
 34
0.0
100
AcDbRotatedDimension
1001
ACAD
1000
DSTYLE
1002
{
1070
   279
1070
     2
1002
}
  0
LINE
  5
162EC
330
747D
100
AcDbEntity
  8
部品1
100
AcDbLine
 10
2015.137356965261
 20
7142.497424545865
 30
0.0
 11
1960.137356965266
 21
7142.497424545862
 31
0.0
  0
LINE
  5
162ED
330
747D
100
AcDbEntity
  8
部品1
 48
50.0
100
AcDbLine
 10
2015.137356965266
 20
7178.497424545864
 30
0.0
 11
1992.137356965266
 21
7178.497424545864
 31
0.0
  0
LINE
  5
162EE
330
747D
100
AcDbEntity
  8
部品1
 48
50.0
100
AcDbLine
 10
2025.137356965266
 20
7168.497424545865
 30
0.0
 11
2015.137356965266
 21
7147.497424545865
 31
0.0
  0
LINE
  5
162EF
330
747D
100
AcDbEntity
  8
部品1
 48
50.0
100
AcDbLine
 10
2015.137356965266
 20
7207.497424545863
 30
0.0
 11
2015.137356965262
 21
7142.497424545865
 31
0.0
  0
LINE
  5
162F0
330
747D
100
AcDbEntity
  8
部品1
 48
50.0
100
AcDbLine
 10
2063.137356965266
 20
7168.497424545865
 30
0.0
 11
2063.137356965266
 21
7177.497424545865
 31
0.0
  0
LINE
  5
162F1
330
747D
100
AcDbEntity
  8
部品1
 48
50.0
100
AcDbLine
 10
2063.137356965266
 20
7207.497424545865
 30
0.0
 11
2063.137356965266
 21
7198.497424545866
 31
0.0
  0
LINE
  5
162F2
330
747D
100
AcDbEntity
  8
部品1
100
AcDbLine
 10
2063.137356965266
 20
7207.497424545865
 30
0.0
 11
2015.137356965266
 21
7207.497424545865
 31
0.0
  0
LINE
  5
162F3
330
747D
100
AcDbEntity
  8
部品1
100
AcDbLine
 10
2063.137356965266
 20
7168.497424545865
 30
0.0
 11
2015.137356965266
 21
7168.497424545865
 31
0.0
  0
LINE
  5
162F4
330
747D
100
AcDbEntity
  8
部品1
100
AcDbLine
 10
2015.137356965264
 20
7178.497424545864
 30
0.0
 11
1992.137356965266
 21
7178.497424545864
 31
0.0
  0
LINE
  5
162F5
330
747D
100
AcDbEntity
  8
部品1
100
AcDbLine
 10
2015.137356965264
 20
7197.497424545789
 30
0.0
 11
1960.137356965264
 21
7197.497424545789
 31
0.0
  0
LINE
  5
162F6
330
747D
100
AcDbEntity
  8
部品1
100
AcDbLine
 10
1988.137356965248
 20
7197.497424545826
 30
0.0
 11
1960.137356965264
 21
7197.497424545826
 31
0.0
  0
LINE
  5
162F7
330
747D
100
AcDbEntity
  8
部品1
100
AcDbLine
 10
1988.137356965264
 20
7197.49742454584
 30
0.0
 11
1960.137356965264
 21
7197.49742454584
 31
0.0
  0
LINE
  5
162FB
330
747D
100
AcDbEntity
  8
部品1
100
AcDbLine
 10
1988.137356965253
 20
8457.49742454584
 30
0.0
 11
1960.137356965253
 21
8457.49742454584
 31
0.0
  0
LINE
  5
162FC
330
747D
100
AcDbEntity
  8
部品1
100
AcDbLine
 10
1988.137356965253
 20
8877.49742454584
 30
0.0
 11
1960.137356965253
 21
8877.49742454584
 31
0.0
  0
LINE
  5
162FE
330
747D
100
AcDbEntity
  8
部品1
100
AcDbLine
 10
1988.137356965246
 20
9297.49742454584
 30
0.0
 11
1960.137356965246
 21
9297.49742454584
 31
0.0
  0
DIMENSION
  5
16301
330
747D
100
AcDbEntity
  8
寸法
 48
50.0
100
AcDbDimension
  2
*D9
 10
9747.137356965248
 20
6608.0666537797
 30
0.0
 11
9636.174459316499
 21
6708.0666537797
 31
0.0
 12
2475.46429984161
 22
160.0
 32
0.0
 70
   160
 71
     5
 42
-1.0
  3
INABA_S40G
100
AcDbAlignedDimension
 13
9795.13735696525
 23
7142.497424545952
 33
0.0
 14
9747.137356965248
 24
7168.497424545865
 34
0.0
100
AcDbRotatedDimension
1001
ACAD
1000
DSTYLE
1002
{
1070
   279
1070
     2
1002
}
  0
DIMENSION
  5
16302
330
747D
100
AcDbEntity
  8
寸法
 48
50.0
100
AcDbDimension
  2
*D10
 10
9795.13735696525
 20
6608.0666537797
 30
0.0
 11
10158.62263833948
 21
6608.0666537797
 31
0.0
 12
2475.46429984161
 22
160.0
 32
0.0
 70
   160
 71
     5
 42
-1.0
  3
INABA_S40G
100
AcDbAlignedDimension
 13
9850.137356965248
 23
7142.497424545957
 33
0.0
 14
9795.13735696525
 24
7142.497424545952
 34
0.0
100
AcDbRotatedDimension
1001
ACAD
1000
DSTYLE
1002
{
1002
}
  0
LINE
  5
16303
330
747D
100
AcDbEntity
  8
部品1
 48
50.0
100
AcDbLine
 10
9785.137356965249
 20
7168.497424545865
 30
0.0
 11
9795.137356965248
 21
7147.497424545865
 31
0.0
  0
LINE
  5
16304
330
747D
100
AcDbEntity
  8
部品1
100
AcDbLine
 10
9747.137356965248
 20
7207.497424545865
 30
0.0
 11
9795.13735696525
 21
7207.497424545865
 31
0.0
  0
LINE
  5
16305
330
747D
100
AcDbEntity
  8
部品1
100
AcDbLine
 10
9747.137356965248
 20
7168.497424545865
 30
0.0
 11
9795.137356965248
 21
7168.497424545865
 31
0.0
  0
LINE
  5
16306
330
747D
100
AcDbEntity
  8
部品1
 48
50.0
100
AcDbLine
 10
9747.137356965248
 20
7207.497424545865
 30
0.0
 11
9747.137356965248
 21
7198.497424545866
 31
0.0
  0
LINE
  5
16307
330
747D
100
AcDbEntity
  8
部品1
 48
50.0
100
AcDbLine
 10
9747.137356965248
 20
7168.497424545865
 30
0.0
 11
9747.137356965248
 21
7177.497424545865
 31
0.0
  0
LINE
  5
16308
330
747D
100
AcDbEntity
  8
部品1
100
AcDbLine
 10
9795.137356965248
 20
7178.497424545861
 30
0.0
 11
9818.137356965248
 21
7178.497424545864
 31
0.0
  0
LINE
  5
16309
330
747D
100
AcDbEntity
  8
部品1
100
AcDbLine
 10
9795.137356965248
 20
7197.497424545968
 30
0.0
 11
9850.137356965282
 21
7197.497424545968
 31
0.0
  0
LINE
  5
1630A
330
747D
100
AcDbEntity
  8
部品1
100
AcDbLine
 10
9850.137356965248
 20
7142.497424545957
 30
0.0
 11
9795.13735696525
 21
7142.497424545952
 31
0.0
  0
LINE
  5
16317
330
747D
100
AcDbEntity
  8
部品1
100
AcDbLine
 10
9822.137356965278
 20
8457.497424545968
 30
0.0
 11
9850.137356965277
 21
8457.497424545968
 31
0.0
  0
LINE
  5
16319
330
747D
100
AcDbEntity
  8
部品1
100
AcDbLine
 10
9822.137356965278
 20
8877.497424545968
 30
0.0
 11
9850.137356965277
 21
8877.497424545968
 31
0.0
  0
LINE
  5
1631A
330
747D
100
AcDbEntity
  8
部品1
100
AcDbLine
 10
9822.137356965274
 20
9297.497424545968
 30
0.0
 11
9850.137356965275
 21
9297.497424545968
 31
0.0
  0
LINE
  5
1631B
330
747D
100
AcDbEntity
  8
部品1
100
AcDbLine
 10
7248.13735696527
 20
10164.49742454598
 30
0.0
 11
8522.637356965272
 21
10164.49742454598
 31
0.0
  0
DIMENSION
  5
1631F
330
747D
100
AcDbEntity
  8
寸法
100
AcDbDimension
  2
*D11
 10
9795.137356965273
 20
10608.30564417096
 30
0.0
 11
8535.137356965272
 21
10708.31745519459
 31
0.0
 70
    32
  1
6X420=<>
 71
     5
 42
2520.000000000002
  3
INABA_S40G
100
AcDbAlignedDimension
 13
7275.137356965271
 23
10192.49742454587
 33
0.0
 14
9795.137356965273
 24
10192.49742454596
 34
0.0
100
AcDbRotatedDimension
1001
ACAD
1000
DSTYLE
1002
{
1002
}
  0
DIMENSION
  5
16320
330
747D
100
AcDbEntity
  8
寸法
100
AcDbDimension
  2
*D12
 10
2015.137356965272
 20
10608.30564417085
 30
0.0
 11
1651.652075590998
 21
10608.30564417085
 31
0.0
 70
   160
 71
     5
 42
55.00000000003274
  3
INABA_S40G
100
AcDbAlignedDimension
 13
1960.137356965239
 23
10192.49742454587
 33
0.0
 14
2015.137356965272
 24
10192.49742454587
 34
0.0
100
AcDbRotatedDimension
1001
ACAD
1000
DSTYLE
1002
{
1002
}
  0
LINE
  5
16321
330
747D
100
AcDbEntity
  8
部品1
100
AcDbLine
 10
2015.137356965239
 20
10192.49742454583
 30
0.0
 11
2015.137356965239
 21
10164.49742454583
 31
0.0
  0
LINE
  5
16322
330
747D
100
AcDbEntity
  8
部品1
100
AcDbLine
 10
2015.137356965272
 20
10192.49742454587
 30
0.0
 11
2015.137356965272
 21
10164.49742454587
 31
0.0
  0
LINE
  5
16323
330
747D
100
AcDbEntity
  8
部品1
100
AcDbLine
 10
1988.137356965239
 20
10137.49742454584
 30
0.0
 11
1960.137356965239
 21
10137.49742454584
 31
0.0
  0
LINE
  5
16324
330
747D
100
AcDbEntity
  8
部品1
100
AcDbLine
 10
7695.137356965272
 20
10192.49742454598
 30
0.0
 11
7695.137356965272
 21
10164.49742454598
 31
0.0
  0
LINE
  5
16325
330
747D
100
AcDbEntity
  8
部品1
100
AcDbLine
 10
7695.137356965272
 20
10192.49742454587
 30
0.0
 11
7695.137356965272
 21
10164.49742454587
 31
0.0
  0
LINE
  5
16326
330
747D
100
AcDbEntity
  8
部品1
100
AcDbLine
 10
7695.137356965272
 20
10192.49742454587
 30
0.0
 11
7695.137356965272
 21
10164.49742454587
 31
0.0
  0
LINE
  5
16329
330
747D
100
AcDbEntity
  8
部品1
100
AcDbLine
 10
8115.137356965272
 20
10192.49742454598
 30
0.0
 11
8115.137356965272
 21
10164.49742454598
 31
0.0
  0
LINE
  5
1632A
330
747D
100
AcDbEntity
  8
部品1
100
AcDbLine
 10
8115.137356965272
 20
10192.49742454587
 30
0.0
 11
8115.137356965272
 21
10164.49742454587
 31
0.0
  0
LINE
  5
1632B
330
747D
100
AcDbEntity
  8
部品1
100
AcDbLine
 10
8115.137356965272
 20
10192.49742454587
 30
0.0
 11
8115.137356965272
 21
10164.49742454587
 31
0.0
  0
LINE
  5
1632C
330
747D
100
AcDbEntity
  8
部品1
100
AcDbLine
 10
8535.137356965272
 20
10192.49742454598
 30
0.0
 11
8535.137356965272
 21
10164.49742454598
 31
0.0
  0
LINE
  5
16332
330
747D
100
AcDbEntity
  8
部品1
100
AcDbLine
 10
8955.137356965272
 20
10192.49742454598
 30
0.0
 11
8955.137356965272
 21
10164.49742454598
 31
0.0
  0
DIMENSION
  5
16333
330
747D
100
AcDbEntity
  8
寸法
100
AcDbDimension
  2
*D13
 10
9850.137356965275
 20
10608.30564417095
 30
0.0
 11
10158.62263833951
 21
10608.30564417095
 31
0.0
 70
   160
 71
     5
 42
55.0
  3
INABA_S40G
100
AcDbAlignedDimension
 13
9795.137356965273
 23
10192.49742454596
 33
0.0
 14
9850.137356965275
 24
10192.49742454596
 34
0.0
100
AcDbRotatedDimension
1001
ACAD
1000
DSTYLE
1002
{
1002
}
  0
LINE
  5
16334
330
747D
100
AcDbEntity
  8
部品1
100
AcDbLine
 10
9375.137356965272
 20
10192.49742454598
 30
0.0
 11
9375.137356965272
 21
10164.49742454598
 31
0.0
  0
LINE
  5
16335
330
747D
100
AcDbEntity
  8
部品1
100
AcDbLine
 10
9795.137356965273
 20
10192.49742454596
 30
0.0
 11
9795.137356965273
 21
10164.49742454596
 31
0.0
  0
LINE
  5
16336
330
747D
100
AcDbEntity
  8
部品1
100
AcDbLine
 10
9795.137356965273
 20
10192.49742454598
 30
0.0
 11
9795.137356965273
 21
10164.49742454598
 31
0.0
  0
LINE
  5
16337
330
747D
100
AcDbEntity
  8
部品1
100
AcDbLine
 10
9822.137356965274
 20
10137.49742454596
 30
0.0
 11
9850.137356965275
 21
10137.49742454596
 31
0.0
  0
DIMENSION
  5
1659A
330
747D
100
AcDbEntity
  8
寸法
 48
50.0
100
AcDbDimension
  2
*D15
 10
7117.137356965248
 20
6608.0666537797
 30
0.0
 11
7006.1744593165
 21
6708.0666537797
 31
0.0
 12
-1469.535700158391
 22
160.0
 32
0.0
 70
   160
 71
     5
 42
-1.0
  3
INABA_S40G
100
AcDbAlignedDimension
 13
7165.137356965249
 23
7142.497424545952
 33
0.0
 14
7117.137356965248
 24
7168.497424545865
 34
0.0
100
AcDbRotatedDimension
1001
ACAD
1000
DSTYLE
1002
{
1070
   279
1070
     2
1002
}
  0
DIMENSION
  5
1659C
330
747D
100
AcDbEntity
  8
寸法
 48
50.0
100
AcDbDimension
  2
*D14
 10
2015.137356965262
 20
6608.0666537797
 30
0.0
 11
2176.039327965324
 21
6708.0666537797
 31
0.0
 12
-4099.53570015839
 22
160.0
 32
0.0
 70
   160
 71
     5
 42
-1.0
  3
INABA_S40G
100
AcDbAlignedDimension
 13
2063.137356965266
 23
7168.497424545865
 33
0.0
 14
2015.137356965262
 24
7142.497424545865
 34
0.0
100
AcDbRotatedDimension
1001
ACAD
1000
DSTYLE
1002
{
1070
   279
1070
     2
1002
}
  0
DIMENSION
  5
165E9
330
747D
100
AcDbEntity
  8
寸法
 48
50.0
100
AcDbDimension
  2
*D16
 10
7165.137356965249
 20
6608.0666537797
 30
0.0
 11
7220.137356965257
 21
6456.37475874347
 31
0.0
 12
1160.464299841609
 22
-100.0
 32
0.0
 70
   160
 71
     5
 42
-1.0
  3
INABA_S40G
100
AcDbAlignedDimension
 13
7275.137356965263
 23
7142.497424545865
 33
0.0
 14
7165.137356965249
 24
7142.497424545952
 34
0.0
100
AcDbRotatedDimension
1001
ACAD
1000
DSTYLE
1002
{
1070
   279
1070
     2
1002
}
  0
LINE
  5
16656
330
747D
100
AcDbEntity
  8
部品1
100
AcDbLine
 10
7117.137356965248
 20
7207.497424545865
 30
0.0
 11
7165.137356965249
 21
7207.497424545865
 31
0.0
  0
LINE
  5
16657
330
747D
100
AcDbEntity
  8
部品1
 48
50.0
100
AcDbLine
 10
7117.137356965248
 20
7207.497424545865
 30
0.0
 11
7117.137356965248
 21
7198.497424545866
 31
0.0
  0
LINE
  5
16658
330
747D
100
AcDbEntity
  8
部品1
100
AcDbLine
 10
7117.137356965248
 20
7168.497424545865
 30
0.0
 11
7165.137356965248
 21
7168.497424545865
 31
0.0
  0
LINE
  5
16659
330
747D
100
AcDbEntity
  8
部品1
 48
50.0
100
AcDbLine
 10
7117.137356965248
 20
7168.497424545865
 30
0.0
 11
7117.137356965248
 21
7177.497424545865
 31
0.0
  0
LINE
  5
1665A
330
747D
100
AcDbEntity
  8
部品1
 48
50.0
100
AcDbLine
 10
7155.137356965248
 20
7168.497424545865
 30
0.0
 11
7165.137356965248
 21
7147.497424545865
 31
0.0
  0
LINE
  5
1665B
330
747D
100
AcDbEntity
  8
部品1
100
AcDbLine
 10
7165.137356965248
 20
7178.497424545861
 30
0.0
 11
7188.137356965248
 21
7178.497424545864
 31
0.0
  0
LINE
  5
1665C
330
747D
100
AcDbEntity
  8
部品1
100
AcDbLine
 10
7323.137356965266
 20
7207.497424545865
 30
0.0
 11
7275.137356965266
 21
7207.497424545865
 31
0.0
  0
LINE
  5
1665D
330
747D
100
AcDbEntity
  8
部品1
 48
50.0
100
AcDbLine
 10
7323.137356965266
 20
7207.497424545865
 30
0.0
 11
7323.137356965266
 21
7198.497424545866
 31
0.0
  0
LINE
  5
1665E
330
747D
100
AcDbEntity
  8
部品1
100
AcDbLine
 10
7323.137356965266
 20
7168.497424545865
 30
0.0
 11
7275.137356965266
 21
7168.497424545865
 31
0.0
  0
LINE
  5
1665F
330
747D
100
AcDbEntity
  8
部品1
 48
50.0
100
AcDbLine
 10
7285.137356965266
 20
7168.497424545865
 30
0.0
 11
7275.137356965266
 21
7147.497424545865
 31
0.0
  0
LINE
  5
16660
330
747D
100
AcDbEntity
  8
部品1
100
AcDbLine
 10
7275.137356965264
 20
7178.497424545864
 30
0.0
 11
7252.137356965267
 21
7178.497424545864
 31
0.0
  0
LINE
  5
16661
330
747D
100
AcDbEntity
  8
部品1
 48
50.0
100
AcDbLine
 10
7275.137356965266
 20
7207.497424545863
 30
0.0
 11
7275.137356965263
 21
7142.497424545865
 31
0.0
  0
LINE
  5
16662
330
747D
100
AcDbEntity
  8
部品1
 48
50.0
100
AcDbLine
 10
7323.137356965266
 20
7168.497424545865
 30
0.0
 11
7323.137356965266
 21
7177.497424545865
 31
0.0
  0
LINE
  5
16663
330
747D
100
AcDbEntity
  8
部品1
100
AcDbLine
 10
7275.137356965261
 20
7142.497424545865
 30
0.0
 11
7165.137356965252
 21
7142.497424545858
 31
0.0
  0
LINE
  5
16664
330
747D
100
AcDbEntity
  8
部品1
 48
50.0
100
AcDbLine
 10
7165.137356965253
 20
7207.497424545953
 30
0.0
 11
7165.137356965249
 21
7142.497424545952
 31
0.0
  0
LINE
  5
16666
330
747D
100
AcDbEntity
  8
部品1
100
AcDbLine
 10
7275.137356965271
 20
10192.49742454587
 30
0.0
 11
7275.137356965271
 21
10164.49742454587
 31
0.0
  0
LINE
  5
16688
330
747D
100
AcDbEntity
  8
部品1
100
AcDbLine
 10
4618.137356965259
 20
10164.49742454598
 30
0.0
 11
5892.637356965272
 21
10164.49742454598
 31
0.0
  0
LINE
  5
1668A
330
747D
100
AcDbEntity
  8
部品1
100
AcDbLine
 10
5065.137356965272
 20
10192.49742454598
 30
0.0
 11
5065.137356965272
 21
10164.49742454598
 31
0.0
  0
LINE
  5
1668B
330
747D
100
AcDbEntity
  8
部品1
100
AcDbLine
 10
5065.137356965272
 20
10192.49742454587
 30
0.0
 11
5065.137356965272
 21
10164.49742454587
 31
0.0
  0
LINE
  5
1668C
330
747D
100
AcDbEntity
  8
部品1
100
AcDbLine
 10
5065.137356965272
 20
10192.49742454587
 30
0.0
 11
5065.137356965272
 21
10164.49742454587
 31
0.0
  0
LINE
  5
1668D
330
747D
100
AcDbEntity
  8
部品1
100
AcDbLine
 10
5485.137356965271
 20
10192.49742454598
 30
0.0
 11
5485.137356965271
 21
10164.49742454598
 31
0.0
  0
LINE
  5
1668E
330
747D
100
AcDbEntity
  8
部品1
100
AcDbLine
 10
5485.137356965271
 20
10192.49742454587
 30
0.0
 11
5485.137356965271
 21
10164.49742454587
 31
0.0
  0
LINE
  5
1668F
330
747D
100
AcDbEntity
  8
部品1
100
AcDbLine
 10
5485.137356965271
 20
10192.49742454587
 30
0.0
 11
5485.137356965271
 21
10164.49742454587
 31
0.0
  0
LINE
  5
16691
330
747D
100
AcDbEntity
  8
部品1
100
AcDbLine
 10
6745.137356965272
 20
10192.49742454598
 30
0.0
 11
6745.137356965272
 21
10164.49742454598
 31
0.0
  0
LINE
  5
16692
330
747D
100
AcDbEntity
  8
部品1
100
AcDbLine
 10
7165.137356965273
 20
10192.49742454596
 30
0.0
 11
7165.137356965273
 21
10164.49742454596
 31
0.0
  0
DIMENSION
  5
166DD
330
747D
100
AcDbEntity
  8
寸法
 48
50.0
100
AcDbDimension
  2
*D17
 10
7165.137356965273
 20
10608.30564417096
 30
0.0
 11
7220.137356965273
 21
10708.30564417097
 31
0.0
 70
    32
 71
     5
 42
109.9999999999982
  3
INABA_S40G
100
AcDbAlignedDimension
 13
7275.137356965271
 23
10192.49742454592
 33
0.0
 14
7165.137356965273
 24
10192.49742454591
 34
0.0
100
AcDbRotatedDimension
1001
ACAD
1000
DSTYLE
1002
{
1070
   279
1070
     2
1002
}
  0
LINE
  5
16760
330
747D
100
AcDbEntity
  8
部品1
 48
50.0
100
AcDbLine
 10
7220.137356965238
 20
10164.49742454591
 30
0.0
 11
7192.13735696524
 21
10192.49742454596
 31
0.0
  0
LINE
  5
16761
330
747D
100
AcDbEntity
  8
部品1
100
AcDbLine
 10
7248.137356965241
 20
10137.49742454588
 30
0.0
 11
7192.13735696524
 21
10137.49742454588
 31
0.0
  0
LINE
  5
16762
330
747D
100
AcDbEntity
  8
部品1
 48
50.0
100
AcDbLine
 10
7192.13735696524
 20
10164.49742454601
 30
0.0
 11
7192.137356965239
 21
10192.49742454596
 31
0.0
  0
LINE
  5
16763
330
747D
100
AcDbEntity
  8
部品1
 48
50.0
100
AcDbLine
 10
7192.13735696524
 20
10164.49742454591
 30
0.0
 11
7220.137356965238
 21
10164.49742454591
 31
0.0
  0
LINE
  5
168C3
330
747D
100
AcDbEntity
  8
部品1
100
AcDbLine
 10
7244.137356965257
 20
7197.497424545861
 30
0.0
 11
7196.137356965256
 21
7197.49742454586
 31
0.0
  0
LINE
  5
168C4
330
747D
100
AcDbEntity
  8
部品1
 48
50.0
100
AcDbLine
 10
7196.137356965256
 20
7197.497424545861
 30
0.0
 11
7196.137356965261
 21
7142.497424545862
 31
0.0
  0
LINE
  5
168C5
330
747D
100
AcDbEntity
  8
部品1
 48
50.0
100
AcDbLine
 10
7244.137356965257
 20
7197.497424545861
 30
0.0
 11
7244.137356965261
 21
7142.497424545862
 31
0.0
  0
DIMENSION
  5
16913
330
747D
100
AcDbEntity
  8
寸法
 48
50.0
100
AcDbDimension
  2
*D18
 10
9850.137356965275
 20
10857.62711772726
 30
0.0
 11
8535.137356965273
 21
10957.63892875088
 31
0.0
 70
    32
 71
     5
 42
2630.0
  3
INABA_S40G
100
AcDbAlignedDimension
 13
7220.137356965273
 23
10767.29355852891
 33
0.0
 14
9850.137356965275
 24
10192.49742454596
 34
0.0
100
AcDbRotatedDimension
1001
ACAD
1000
DSTYLE
1002
{
1070
   279
1070
     2
1002
}
  0
LINE
  5
16C81
330
747D
100
AcDbEntity
  8
部品1
100
AcDbLine
 10
1988.137356965253
 20
8037.49742454584
 30
0.0
 11
1960.137356965253
 21
8037.49742454584
 31
0.0
  0
LINE
  5
16C82
330
747D
100
AcDbEntity
  8
部品1
100
AcDbLine
 10
9822.137356965278
 20
8037.497424545966
 30
0.0
 11
9850.137356965277
 21
8037.497424545966
 31
0.0
  0
LINE
  5
16FDA
330
747D
100
AcDbEntity
  8
部品1
100
AcDbLine
 10
1988.137356965253
 20
7617.49742454584
 30
0.0
 11
1960.137356965253
 21
7617.49742454584
 31
0.0
  0
LINE
  5
16FDB
330
747D
100
AcDbEntity
  8
部品1
100
AcDbLine
 10
9822.137356965278
 20
7617.497424545966
 30
0.0
 11
9850.137356965277
 21
7617.497424545966
 31
0.0
  0
DIMENSION
  5
17C5D
330
747D
100
AcDbEntity
  8
寸法
100
AcDbDimension
  2
*D23
 10
4535.137356965273
 20
10608.30564417096
 30
0.0
 11
3275.137356965273
 21
10708.31745519459
 31
0.0
 70
    32
  1
6X420=<>
 71
     5
 42
2520.000000000002
  3
INABA_S40G
100
AcDbAlignedDimension
 13
2015.137356965272
 23
10192.49742454587
 33
0.0
 14
4535.137356965273
 24
10192.49742454596
 34
0.0
100
AcDbRotatedDimension
1001
ACAD
1000
DSTYLE
1002
{
1002
}
  0
DIMENSION
  5
17C60
330
747D
100
AcDbEntity
  8
寸法
 48
50.0
100
AcDbDimension
  2
*D25
 10
4590.137356965273
 20
10857.62711772726
 30
0.0
 11
3275.137356965256
 21
10957.63892875088
 31
0.0
 70
    32
 71
     5
 42
2630.000000000034
  3
INABA_S40G
100
AcDbAlignedDimension
 13
1960.137356965239
 23
10192.49742454583
 33
0.0
 14
4590.137356965273
 24
10767.29355852891
 34
0.0
100
AcDbRotatedDimension
1001
ACAD
1000
DSTYLE
1002
{
1070
   279
1070
     2
1002
}
  0
LINE
  5
17C67
330
747D
100
AcDbEntity
  8
部品1
100
AcDbLine
 10
2435.137356965272
 20
10192.49742454598
 30
0.0
 11
2435.137356965272
 21
10164.49742454598
 31
0.0
  0
LINE
  5
17C68
330
747D
100
AcDbEntity
  8
部品1
100
AcDbLine
 10
2435.137356965272
 20
10192.49742454587
 30
0.0
 11
2435.137356965272
 21
10164.49742454587
 31
0.0
  0
LINE
  5
17C69
330
747D
100
AcDbEntity
  8
部品1
100
AcDbLine
 10
2435.137356965272
 20
10192.49742454587
 30
0.0
 11
2435.137356965272
 21
10164.49742454587
 31
0.0
  0
LINE
  5
17C6A
330
747D
100
AcDbEntity
  8
部品1
100
AcDbLine
 10
2855.137356965272
 20
10192.49742454598
 30
0.0
 11
2855.137356965272
 21
10164.49742454598
 31
0.0
  0
LINE
  5
17C6B
330
747D
100
AcDbEntity
  8
部品1
100
AcDbLine
 10
2855.137356965272
 20
10192.49742454587
 30
0.0
 11
2855.137356965272
 21
10164.49742454587
 31
0.0
  0
LINE
  5
17C6C
330
747D
100
AcDbEntity
  8
部品1
100
AcDbLine
 10
2855.137356965272
 20
10192.49742454587
 30
0.0
 11
2855.137356965272
 21
10164.49742454587
 31
0.0
  0
LINE
  5
17C71
330
747D
100
AcDbEntity
  8
部品1
100
AcDbLine
 10
3287.637356965272
 20
10164.49742454598
 30
0.0
 11
4562.137356965273
 21
10164.49742454596
 31
0.0
  0
LINE
  5
17C83
330
747D
100
AcDbEntity
  8
部品1
100
AcDbLine
 10
3275.137356965271
 20
10192.49742454598
 30
0.0
 11
3275.137356965271
 21
10164.49742454598
 31
0.0
  0
LINE
  5
17C84
330
747D
100
AcDbEntity
  8
部品1
100
AcDbLine
 10
3695.137356965272
 20
10192.49742454598
 30
0.0
 11
3695.137356965272
 21
10164.49742454598
 31
0.0
  0
LINE
  5
17C85
330
747D
100
AcDbEntity
  8
部品1
100
AcDbLine
 10
4115.137356965271
 20
10192.49742454598
 30
0.0
 11
4115.137356965271
 21
10164.49742454598
 31
0.0
  0
LINE
  5
17C94
330
747D
100
AcDbEntity
  8
部品1
100
AcDbLine
 10
4618.137356965241
 20
10137.49742454588
 30
0.0
 11
4562.13735696524
 21
10137.49742454588
 31
0.0
  0
DIMENSION
  5
17C95
330
747D
100
AcDbEntity
  8
寸法
 48
50.0
100
AcDbDimension
  2
*D24
 10
4535.137356965273
 20
10608.30564417096
 30
0.0
 11
4590.137356965272
 21
10708.30564417097
 31
0.0
 70
    32
 71
     5
 42
109.9999999999982
  3
INABA_S40G
100
AcDbAlignedDimension
 13
4645.137356965271
 23
10192.49742454592
 33
0.0
 14
4535.137356965273
 24
10192.49742454591
 34
0.0
100
AcDbRotatedDimension
1001
ACAD
1000
DSTYLE
1002
{
1070
   279
1070
     2
1002
}
  0
LINE
  5
17C96
330
747D
100
AcDbEntity
  8
部品1
100
AcDbLine
 10
4645.137356965271
 20
10192.49742454587
 30
0.0
 11
4645.137356965271
 21
10164.49742454587
 31
0.0
  0
LINE
  5
17C97
330
747D
100
AcDbEntity
  8
部品1
100
AcDbLine
 10
4535.137356965273
 20
10192.49742454596
 30
0.0
 11
4535.137356965273
 21
10164.49742454596
 31
0.0
  0
LINE
  5
17C98
330
747D
100
AcDbEntity
  8
部品1
 48
50.0
100
AcDbLine
 10
4590.137356965239
 20
10164.49742454591
 30
0.0
 11
4562.13735696524
 21
10192.49742454596
 31
0.0
  0
LINE
  5
17C99
330
747D
100
AcDbEntity
  8
部品1
 48
50.0
100
AcDbLine
 10
4562.13735696524
 20
10164.49742454601
 30
0.0
 11
4562.137356965239
 21
10192.49742454596
 31
0.0
  0
LINE
  5
17C9A
330
747D
100
AcDbEntity
  8
部品1
 48
50.0
100
AcDbLine
 10
4562.13735696524
 20
10164.49742454591
 30
0.0
 11
4590.137356965239
 21
10164.49742454591
 31
0.0
  0
DIMENSION
  5
17C9B
330
747D
100
AcDbEntity
  8
寸法
 48
50.0
100
AcDbDimension
  2
*D21
 10
2063.137356965266
 20
6608.0666537797
 30
0.0
 11
2435.137356965257
 21
6708.078464803323
 31
0.0
 12
630.0
 22
0.0
 32
0.0
 70
    32
  1
有効開口部間口 <>
 71
     5
 42
-1.0
  3
INABA_S40G
100
AcDbAlignedDimension
 13
4487.137356965248
 23
7168.497424545865
 33
0.0
 14
2063.137356965266
 24
7168.497424545865
 34
0.0
100
AcDbRotatedDimension
1001
ACAD
1000
DSTYLE
1002
{
1070
    75
1070
     1
1070
   279
1070
     2
1002
}
  0
LINE
  5
17C9C
330
747D
100
AcDbEntity
  8
部品1
 48
50.0
100
AcDbLine
 10
2027.137356965264
 20
7187.997424545864
 30
0.0
 11
4523.137356965249
 21
7187.997424545864
 31
0.0
  0
DIMENSION
  5
17C9D
330
747D
100
AcDbEntity
  8
寸法
 48
50.0
100
AcDbDimension
  2
*D20
 10
4487.137356965248
 20
6608.0666537797
 30
0.0
 11
4376.174459316501
 21
6708.0666537797
 31
0.0
 12
-2750.0
 22
0.0
 32
0.0
 70
   160
 71
     5
 42
-1.0
  3
INABA_S40G
100
AcDbAlignedDimension
 13
4535.137356965249
 23
7142.497424545952
 33
0.0
 14
4487.137356965248
 24
7168.497424545865
 34
0.0
100
AcDbRotatedDimension
1001
ACAD
1000
DSTYLE
1002
{
1070
   279
1070
     2
1002
}
  0
DIMENSION
  5
17C9E
330
747D
100
AcDbEntity
  8
寸法
 48
50.0
100
AcDbDimension
  2
*D19
 10
4645.137356965262
 20
6608.0666537797
 30
0.0
 11
4806.039327965323
 21
6708.0666537797
 31
0.0
 12
-2750.0
 22
0.0
 32
0.0
 70
   160
 71
     5
 42
-1.0
  3
INABA_S40G
100
AcDbAlignedDimension
 13
4693.137356965266
 23
7168.497424545865
 33
0.0
 14
4645.137356965262
 24
7142.497424545865
 34
0.0
100
AcDbRotatedDimension
1001
ACAD
1000
DSTYLE
1002
{
1070
   279
1070
     2
1002
}
  0
DIMENSION
  5
17C9F
330
747D
100
AcDbEntity
  8
寸法
 48
50.0
100
AcDbDimension
  2
*D22
 10
4535.137356965249
 20
6608.0666537797
 30
0.0
 11
4590.137356965256
 21
6456.37475874347
 31
0.0
 12
-2750.0
 22
0.0
 32
0.0
 70
   160
 71
     5
 42
-1.0
  3
INABA_S40G
100
AcDbAlignedDimension
 13
4645.137356965262
 23
7142.497424545865
 33
0.0
 14
4535.137356965249
 24
7142.497424545952
 34
0.0
100
AcDbRotatedDimension
1001
ACAD
1000
DSTYLE
1002
{
1070
   279
1070
     2
1002
}
  0
LINE
  5
17CA0
330
747D
100
AcDbEntity
  8
部品1
100
AcDbLine
 10
4693.137356965266
 20
7207.497424545865
 30
0.0
 11
4645.137356965266
 21
7207.497424545865
 31
0.0
  0
LINE
  5
17CA1
330
747D
100
AcDbEntity
  8
部品1
100
AcDbLine
 10
4693.137356965266
 20
7168.497424545865
 30
0.0
 11
4645.137356965266
 21
7168.497424545865
 31
0.0
  0
LINE
  5
17CA2
330
747D
100
AcDbEntity
  8
部品1
100
AcDbLine
 10
4487.137356965248
 20
7207.497424545865
 30
0.0
 11
4535.137356965249
 21
7207.497424545865
 31
0.0
  0
LINE
  5
17CA3
330
747D
100
AcDbEntity
  8
部品1
100
AcDbLine
 10
4487.137356965248
 20
7168.497424545865
 30
0.0
 11
4535.137356965248
 21
7168.497424545865
 31
0.0
  0
LINE
  5
17CA4
330
747D
100
AcDbEntity
  8
部品1
 48
50.0
100
AcDbLine
 10
4487.137356965248
 20
7207.497424545865
 30
0.0
 11
4487.137356965248
 21
7198.497424545866
 31
0.0
  0
LINE
  5
17CA5
330
747D
100
AcDbEntity
  8
部品1
 48
50.0
100
AcDbLine
 10
4487.137356965248
 20
7168.497424545865
 30
0.0
 11
4487.137356965248
 21
7177.497424545865
 31
0.0
  0
LINE
  5
17CA6
330
747D
100
AcDbEntity
  8
部品1
 48
50.0
100
AcDbLine
 10
4525.137356965248
 20
7168.497424545865
 30
0.0
 11
4535.137356965248
 21
7147.497424545865
 31
0.0
  0
LINE
  5
17CA7
330
747D
100
AcDbEntity
  8
部品1
 48
50.0
100
AcDbLine
 10
4655.137356965266
 20
7168.497424545865
 30
0.0
 11
4645.137356965266
 21
7147.497424545865
 31
0.0
  0
LINE
  5
17CA8
330
747D
100
AcDbEntity
  8
部品1
 48
50.0
100
AcDbLine
 10
4645.137356965266
 20
7207.497424545863
 30
0.0
 11
4645.137356965262
 21
7142.497424545865
 31
0.0
  0
LINE
  5
17CA9
330
747D
100
AcDbEntity
  8
部品1
100
AcDbLine
 10
4535.137356965248
 20
7178.497424545861
 30
0.0
 11
4558.137356965247
 21
7178.497424545864
 31
0.0
  0
LINE
  5
17CAA
330
747D
100
AcDbEntity
  8
部品1
 48
50.0
100
AcDbLine
 10
4535.137356965253
 20
7207.497424545953
 30
0.0
 11
4535.137356965249
 21
7142.497424545952
 31
0.0
  0
LINE
  5
17CAB
330
747D
100
AcDbEntity
  8
部品1
100
AcDbLine
 10
4614.137356965257
 20
7197.497424545861
 30
0.0
 11
4566.137356965256
 21
7197.49742454586
 31
0.0
  0
LINE
  5
17CAC
330
747D
100
AcDbEntity
  8
部品1
 48
50.0
100
AcDbLine
 10
4566.137356965256
 20
7197.497424545861
 30
0.0
 11
4566.13735696526
 21
7142.497424545862
 31
0.0
  0
LINE
  5
17CAD
330
747D
100
AcDbEntity
  8
部品1
 48
50.0
100
AcDbLine
 10
4614.137356965257
 20
7197.497424545861
 30
0.0
 11
4614.137356965261
 21
7142.497424545862
 31
0.0
  0
LINE
  5
17CAE
330
747D
100
AcDbEntity
  8
部品1
100
AcDbLine
 10
4645.137356965264
 20
7178.497424545864
 30
0.0
 11
4622.137356965266
 21
7178.497424545864
 31
0.0
  0
LINE
  5
17CAF
330
747D
100
AcDbEntity
  8
部品1
100
AcDbLine
 10
4645.13735696526
 20
7142.497424545865
 30
0.0
 11
4535.137356965251
 21
7142.497424545858
 31
0.0
  0
LINE
  5
17CB0
330
747D
100
AcDbEntity
  8
部品1
 48
50.0
100
AcDbLine
 10
4693.137356965266
 20
7207.497424545865
 30
0.0
 11
4693.137356965266
 21
7198.497424545866
 31
0.0
  0
LINE
  5
17CB1
330
747D
100
AcDbEntity
  8
部品1
 48
50.0
100
AcDbLine
 10
4693.137356965266
 20
7168.497424545865
 30
0.0
 11
4693.137356965266
 21
7177.497424545865
 31
0.0
  0
LINE
  5
17D72
330
747D
100
AcDbEntity
  8
部品1
100
AcDbLine
 10
1988.137356965259
 20
10164.49742454597
 30
0.0
 11
3262.637356965271
 21
10164.49742454597
 31
0.0
  0
LINE
  5
17D73
330
747D
100
AcDbEntity
  8
部品1
100
AcDbLine
 10
1960.137356965239
 20
10192.49742454592
 30
0.0
 11
9850.137356965271
 21
10192.49742454596
 31
0.0
  0
LINE
  5
18606
330
747D
100
AcDbEntity
  8
部品1
100
AcDbLine
 10
5905.137356965272
 20
10192.49742454587
 30
0.0
 11
5905.137356965272
 21
10164.49742454587
 31
0.0
  0
LINE
  5
18607
330
747D
100
AcDbEntity
  8
部品1
100
AcDbLine
 10
5905.137356965272
 20
10192.49742454587
 30
0.0
 11
5905.137356965272
 21
10164.49742454587
 31
0.0
  0
LINE
  5
18608
330
747D
100
AcDbEntity
  8
部品1
100
AcDbLine
 10
5905.137356965272
 20
10192.49742454598
 30
0.0
 11
5905.137356965272
 21
10164.49742454598
 31
0.0
  0
LINE
  5
19F29
330
747D
100
AcDbEntity
  8
部品1
 48
50.0
100
AcDbLine
 10
7248.137356965241
 20
10137.49742454588
 30
0.0
 11
7248.137356965303
 21
10192.49742454595
 31
0.0
  0
LINE
  5
19F2A
330
747D
100
AcDbEntity
  8
部品1
 48
50.0
100
AcDbLine
 10
7192.13735696524
 20
10137.49742454588
 30
0.0
 11
7192.137356965273
 21
10164.49742454596
 31
0.0
  0
LINE
  5
19F2B
330
747D
100
AcDbEntity
  8
部品1
 48
50.0
100
AcDbLine
 10
4618.137356965241
 20
10137.49742454588
 30
0.0
 11
4618.137356965241
 21
10192.49742454593
 31
0.0
  0
LINE
  5
19F2C
330
747D
100
AcDbEntity
  8
部品1
 48
50.0
100
AcDbLine
 10
4562.13735696524
 20
10137.49742454588
 30
0.0
 11
4562.137356965239
 21
10192.49742454596
 31
0.0
  0
LINE
  5
19F30
330
747D
100
AcDbEntity
  8
部品1
 48
50.0
100
AcDbLine
 10
2015.137356965262
 20
7142.497424545864
 30
0.0
 11
4535.137356965249
 21
7142.497424545723
 31
0.0
  0
LINE
  5
19F31
330
747D
100
AcDbEntity
  8
部品1
 48
50.0
100
AcDbLine
 10
2015.137356965262
 20
7227.497424545865
 30
0.0
 11
4535.137356965249
 21
7227.497424545723
 31
0.0
  0
LINE
  5
19F32
330
747D
100
AcDbEntity
  8
部品1
 48
50.0
100
AcDbLine
 10
2015.137356965262
 20
7272.497424545864
 30
0.0
 11
4535.137356965249
 21
7272.497424545723
 31
0.0
  0
LINE
  5
19F33
330
747D
100
AcDbEntity
  8
破線
 48
10.0
100
AcDbLine
 10
2040.137356965126
 20
7297.497424545864
 30
0.0
 11
2834.637356965166
 21
7297.497424545818
 31
0.0
  0
LINE
  5
19F34
330
747D
100
AcDbEntity
  8
破線
 48
10.0
100
AcDbLine
 10
2884.637356965163
 20
7297.497424545816
 30
0.0
 11
3665.637356965167
 21
7297.49742454577
 31
0.0
  0
LINE
  5
19F35
330
747D
100
AcDbEntity
  8
破線
 48
10.0
100
AcDbLine
 10
2834.637356965166
 20
7272.49742454582
 30
0.0
 11
2834.637356965272
 21
9712.49742454588
 31
0.0
  0
LINE
  5
19F36
330
747D
100
AcDbEntity
  8
破線
 48
10.0
100
AcDbLine
 10
2884.637356965163
 20
7272.497424545817
 30
0.0
 11
2884.63735696527
 21
9712.497424545881
 31
0.0
  0
LINE
  5
19F37
330
747D
100
AcDbEntity
  8
破線
 48
10.0
100
AcDbLine
 10
3715.637356965163
 20
7272.49742454577
 30
0.0
 11
3715.637356965271
 21
9712.497424545913
 31
0.0
  0
LINE
  5
19F38
330
747D
100
AcDbEntity
  8
破線
 48
10.0
100
AcDbLine
 10
3665.637356965164
 20
7272.497424545773
 30
0.0
 11
3665.637356965271
 21
9712.497424545913
 31
0.0
  0
LINE
  5
19F39
330
747D
100
AcDbEntity
  8
破線
 48
10.0
100
AcDbLine
 10
3715.637356965166
 20
7297.497424545769
 30
0.0
 11
4510.137356965141
 21
7297.497424545723
 31
0.0
  0
LINE
  5
19F3A
330
747D
100
AcDbEntity
  8
部品1
 48
50.0
100
AcDbLine
 10
2015.137356965262
 20
7617.49742454584
 30
0.0
 11
4535.137356965267
 21
7617.497424545837
 31
0.0
  0
LINE
  5
19F3B
330
747D
100
AcDbEntity
  8
破線
 48
10.0
100
AcDbLine
 10
2040.137356965126
 20
7297.497424545864
 30
0.0
 11
2040.137356965232
 21
9712.497424545814
 31
0.0
  0
LINE
  5
19F3C
330
747D
100
AcDbEntity
  8
破線
 48
10.0
100
AcDbLine
 10
4510.137356965138
 20
7297.497424545723
 30
0.0
 11
4510.137356965243
 21
9712.497424545908
 31
0.0
  0
LINE
  5
19F3D
330
747D
100
AcDbEntity
  8
部品1
100
AcDbLine
 10
4562.137356965255
 20
10137.49742454588
 30
0.0
 11
4562.137356965243
 21
7142.49742454586
 31
0.0
  0
LINE
  5
19F3E
330
747D
100
AcDbEntity
  8
部品1
100
AcDbLine
 10
4618.137356965235
 20
7142.497424545864
 30
0.0
 11
4618.137356965254
 21
10137.49742454588
 31
0.0
  0
LINE
  5
19F3F
330
747D
100
AcDbEntity
  8
部品1
100
AcDbLine
 10
4535.137356965267
 20
7207.497424545865
 30
0.0
 11
4535.13735696527
 21
9712.497424545908
 31
0.0
  0
LINE
  5
19F40
330
747D
100
AcDbEntity
  8
部品1
100
AcDbLine
 10
4645.137356965282
 20
7207.497424545865
 30
0.0
 11
4645.137356965273
 21
9712.497424545805
 31
0.0
  0
LINE
  5
19F41
330
747D
100
AcDbEntity
  8
部品1
 48
50.0
100
AcDbLine
 10
2015.137356965262
 20
8037.49742454584
 30
0.0
 11
4535.137356965267
 21
8037.497424545838
 31
0.0
  0
LINE
  5
19F42
330
747D
100
AcDbEntity
  8
部品1
 48
50.0
100
AcDbLine
 10
2015.137356965262
 20
8877.49742454584
 30
0.0
 11
4535.137356965267
 21
8877.497424545836
 31
0.0
  0
LINE
  5
19F43
330
747D
100
AcDbEntity
  8
部品1
 48
50.0
100
AcDbLine
 10
2015.137356965262
 20
8457.49742454584
 30
0.0
 11
4535.137356965267
 21
8457.497424545836
 31
0.0
  0
LINE
  5
19F44
330
747D
100
AcDbEntity
  8
部品1
 48
50.0
100
AcDbLine
 10
2015.137356965262
 20
9297.49742454584
 30
0.0
 11
4535.137356965267
 21
9297.497424545836
 31
0.0
  0
LINE
  5
19F4F
330
747D
100
AcDbEntity
  8
部品1
 48
50.0
100
AcDbLine
 10
9795.137356965284
 20
9297.49742454584
 30
0.0
 11
7275.137356965278
 21
9297.497424545836
 31
0.0
  0
LINE
  5
19F50
330
747D
100
AcDbEntity
  8
部品1
 48
50.0
100
AcDbLine
 10
9795.137356965284
 20
8457.49742454584
 30
0.0
 11
7275.137356965278
 21
8457.497424545836
 31
0.0
  0
LINE
  5
19F51
330
747D
100
AcDbEntity
  8
部品1
 48
50.0
100
AcDbLine
 10
9795.137356965284
 20
8877.49742454584
 30
0.0
 11
7275.137356965278
 21
8877.497424545836
 31
0.0
  0
LINE
  5
19F52
330
747D
100
AcDbEntity
  8
部品1
 48
50.0
100
AcDbLine
 10
9795.137356965284
 20
8037.49742454584
 30
0.0
 11
7275.137356965278
 21
8037.497424545838
 31
0.0
  0
LINE
  5
19F53
330
747D
100
AcDbEntity
  8
部品1
 48
50.0
100
AcDbLine
 10
9795.137356965284
 20
7617.49742454584
 30
0.0
 11
7275.137356965278
 21
7617.497424545837
 31
0.0
  0
LINE
  5
19F54
330
747D
100
AcDbEntity
  8
破線
 48
10.0
100
AcDbLine
 10
8925.637356965385
 20
7297.497424545816
 30
0.0
 11
8144.637356965381
 21
7297.49742454577
 31
0.0
  0
LINE
  5
19F55
330
747D
100
AcDbEntity
  8
部品1
 48
50.0
100
AcDbLine
 10
9795.137356965284
 20
7272.497424545864
 30
0.0
 11
7275.137356965297
 21
7272.497424545723
 31
0.0
  0
LINE
  5
19F56
330
747D
100
AcDbEntity
  8
破線
 48
10.0
100
AcDbLine
 10
9770.13735696542
 20
7297.497424545864
 30
0.0
 11
9770.137356965316
 21
9712.497424545906
 31
0.0
  0
LINE
  5
19F57
330
747D
100
AcDbEntity
  8
破線
 48
10.0
100
AcDbLine
 10
8925.637356965385
 20
7272.497424545817
 30
0.0
 11
8925.637356965276
 21
9712.497424545908
 31
0.0
  0
LINE
  5
19F58
330
747D
100
AcDbEntity
  8
破線
 48
10.0
100
AcDbLine
 10
8975.63735696538
 20
7272.49742454582
 30
0.0
 11
8975.637356965275
 21
9712.497424545908
 31
0.0
  0
LINE
  5
19F59
330
747D
100
AcDbEntity
  8
部品1
100
AcDbLine
 10
9795.137356965298
 20
9712.497424545905
 30
0.0
 11
9795.137356965284
 21
7178.497424545861
 31
0.0
  0
LINE
  5
19F5A
330
747D
100
AcDbEntity
  8
破線
 48
10.0
100
AcDbLine
 10
9770.13735696542
 20
7297.497424545864
 30
0.0
 11
8975.63735696538
 21
7297.497424545818
 31
0.0
  0
LINE
  5
19F5D
330
747D
100
AcDbEntity
  8
部品1
100
AcDbLine
 10
7275.137356965278
 20
7207.497424545865
 30
0.0
 11
7275.137356965277
 21
9712.497424545809
 31
0.0
  0
LINE
  5
19F5E
330
747D
100
AcDbEntity
  8
破線
 48
10.0
100
AcDbLine
 10
7300.137356965407
 20
7297.497424545723
 30
0.0
 11
7300.137356965305
 21
9712.497424545809
 31
0.0
  0
LINE
  5
19F5F
330
747D
100
AcDbEntity
  8
破線
 48
10.0
100
AcDbLine
 10
8144.637356965382
 20
7272.497424545773
 30
0.0
 11
8144.637356965274
 21
9712.49742454588
 31
0.0
  0
LINE
  5
19F60
330
747D
100
AcDbEntity
  8
破線
 48
10.0
100
AcDbLine
 10
8094.637356965384
 20
7272.49742454577
 30
0.0
 11
8094.637356965275
 21
9712.497424545873
 31
0.0
  0
LINE
  5
19F61
330
747D
100
AcDbEntity
  8
破線
 48
10.0
100
AcDbLine
 10
8094.63735696538
 20
7297.497424545769
 30
0.0
 11
7300.137356965406
 21
7297.497424545723
 31
0.0
  0
LINE
  5
19F64
330
747D
100
AcDbEntity
  8
部品1
 48
50.0
100
AcDbLine
 10
9795.137356965284
 20
7227.497424545865
 30
0.0
 11
7275.137356965297
 21
7227.497424545723
 31
0.0
  0
LINE
  5
19F65
330
747D
100
AcDbEntity
  8
部品1
 48
50.0
100
AcDbLine
 10
9795.137356965284
 20
7142.497424545864
 30
0.0
 11
7275.137356965297
 21
7142.497424545723
 31
0.0
  0
LINE
  5
19F7E
330
747D
100
AcDbEntity
  8
部品1
100
AcDbLine
 10
7192.137356965256
 20
10137.49742454588
 30
0.0
 11
7192.137356965244
 21
7142.49742454586
 31
0.0
  0
LINE
  5
19F7F
330
747D
100
AcDbEntity
  8
部品1
100
AcDbLine
 10
7248.137356965234
 20
7142.497424545864
 30
0.0
 11
7248.137356965255
 21
10137.49742454588
 31
0.0
  0
LINE
  5
19F80
330
747D
100
AcDbEntity
  8
部品1
100
AcDbLine
 10
7165.137356965267
 20
7207.497424545865
 30
0.0
 11
7165.137356965271
 21
9712.497424545905
 31
0.0
  0
LINE
  5
19F8B
330
747D
100
AcDbEntity
  8
破線
 48
10.0
100
AcDbLine
 10
5514.637356965162
 20
7272.497424545817
 30
0.0
 11
5514.637356965269
 21
9712.49742454588
 31
0.0
  0
LINE
  5
19F8C
330
747D
100
AcDbEntity
  8
破線
 48
10.0
100
AcDbLine
 10
5464.637356965166
 20
7272.49742454582
 30
0.0
 11
5464.637356965271
 21
9712.497424545874
 31
0.0
  0
LINE
  5
19F8D
330
747D
100
AcDbEntity
  8
破線
 48
10.0
100
AcDbLine
 10
4670.137356965126
 20
7297.497424545864
 30
0.0
 11
5464.637356965166
 21
7297.497424545818
 31
0.0
  0
LINE
  5
19F8F
330
747D
100
AcDbEntity
  8
破線
 48
10.0
100
AcDbLine
 10
6295.637356965165
 20
7272.497424545773
 30
0.0
 11
6295.637356965272
 21
9712.497424545908
 31
0.0
  0
LINE
  5
19F90
330
747D
100
AcDbEntity
  8
破線
 48
10.0
100
AcDbLine
 10
6345.637356965163
 20
7272.49742454577
 30
0.0
 11
6345.637356965269
 21
9712.497424545908
 31
0.0
  0
LINE
  5
19F91
330
747D
100
AcDbEntity
  8
破線
 48
10.0
100
AcDbLine
 10
6345.637356965166
 20
7297.497424545769
 30
0.0
 11
7140.137356965141
 21
7297.497424545723
 31
0.0
  0
LINE
  5
19F95
330
747D
100
AcDbEntity
  8
破線
 48
10.0
100
AcDbLine
 10
7140.137356965138
 20
7297.497424545723
 30
0.0
 11
7140.137356965245
 21
9712.497424545905
 31
0.0
  0
LINE
  5
19F96
330
747D
100
AcDbEntity
  8
破線
 48
10.0
100
AcDbLine
 10
4670.137356965126
 20
7297.497424545864
 30
0.0
 11
4670.137356965232
 21
9712.497424545809
 31
0.0
  0
LINE
  5
19FEA
330
747D
100
AcDbEntity
  8
部品1
 48
50.0
100
AcDbLine
 10
9795.137356965248
 20
7178.497424545861
 30
0.0
 11
9795.137356965284
 21
7142.497424545864
 31
0.0
  0
TEXT
  5
1A09B
330
747D
100
AcDbEntity
  8
文字
 48
50.0
100
AcDbText
 10
5418.318536160576
 20
6647.719467111715
 30
0.0
 40
120.0
  1
2424
  7
STYLE1
100
AcDbText
  0
LINE
  5
1A09C
330
747D
100
AcDbEntity
  8
寸法
 48
50.0
100
AcDbLine
 10
4796.137362943624
 20
6608.066639065036
 30
0.0
 11
5786.137362943623
 21
6608.066639065036
 31
0.0
  0
TEXT
  5
1A09D
330
747D
100
AcDbEntity
  8
文字
 48
50.0
100
AcDbText
 10
6057.486918308738
 20
6647.719481826378
 30
0.0
 40
120.0
  1
2424
  7
STYLE1
100
AcDbText
  0
LINE
  5
1A09E
330
747D
100
AcDbEntity
  8
寸法
 48
50.0
100
AcDbLine
 10
6027.137356965248
 20
6608.0666537797
 30
0.0
 11
7017.137356965247
 21
6608.0666537797
 31
0.0
  0
TEXT
  5
1A09F
330
747D
100
AcDbEntity
  8
文字
 48
50.0
100
AcDbText
 10
6362.486918308763
 20
10897.27994577394
 30
0.0
 40
120.0
  1
2630
  7
STYLE1
100
AcDbText
  0
LINE
  5
1A0A0
330
747D
100
AcDbEntity
  8
寸法
 48
50.0
100
AcDbLine
 10
6332.137356965273
 20
10857.62711772726
 30
0.0
 11
7220.137356965273
 21
10857.62711772726
 31
0.0
  0
TEXT
  5
1A0A1
330
747D
100
AcDbEntity
  8
文字
 48
50.0
100
AcDbText
 10
6355.486918308763
 20
10647.95847221764
 30
0.0
 40
120.0
  1
2520
  7
STYLE1
100
AcDbText
  0
LINE
  5
1A0A2
330
747D
100
AcDbEntity
  8
寸法
 48
50.0
100
AcDbLine
 10
6325.137356965274
 20
10608.30564417096
 30
0.0
 11
7165.137356965273
 21
10608.30564417096
 31
0.0
  0
TEXT
  5
1A0A3
330
747D
100
AcDbEntity
  8
文字
 48
50.0
100
AcDbText
 10
5117.318530182223
 20
10647.95847221764
 30
0.0
 40
120.0
  1
2520
  7
STYLE1
100
AcDbText
  0
TEXT
  5
1A0A4
330
747D
100
AcDbEntity
  8
文字
 48
50.0
100
AcDbText
 10
5110.318530182225
 20
10897.27994577394
 30
0.0
 40
120.0
  1
2630
  7
STYLE1
100
AcDbText
  0
LINE
  5
1A0A5
330
747D
100
AcDbEntity
  8
寸法
 48
50.0
100
AcDbLine
 10
4590.137356965273
 20
10857.62711772726
 30
0.0
 11
5478.137356965273
 21
10857.62711772726
 31
0.0
  0
LINE
  5
1A0A6
330
747D
100
AcDbEntity
  8
寸法
 48
50.0
100
AcDbLine
 10
4645.137356965271
 20
10608.30564417096
 30
0.0
 11
5485.137356965271
 21
10608.30564417096
 31
0.0
  0
LINE
  5
1A36D
330
747D
100
AcDbEntity
  8
部品1
100
AcDbLine
 10
1988.137356965246
 20
9717.49742454584
 30
0.0
 11
1960.137356965246
 21
9717.49742454584
 31
0.0
  0
LINE
  5
1A370
330
747D
100
AcDbEntity
  8
部品1
100
AcDbLine
 10
9822.137356965274
 20
9717.497424545967
 30
0.0
 11
9850.137356965275
 21
9717.497424545967
 31
0.0
  0
LINE
  5
1A37C
330
747D
100
AcDbEntity
  8
部品1
100
AcDbLine
 10
5917.637356965272
 20
10164.49742454597
 30
0.0
 11
7192.137356965273
 21
10164.49742454596
 31
0.0
  0
LINE
  5
1A45A
330
747D
100
AcDbEntity
  8
部品1
100
AcDbLine
 10
7248.637356965272
 20
10162.4974245458
 30
0.0
 11
8521.637356965271
 21
10162.49742454591
 31
0.0
  0
LINE
  5
1A45B
330
747D
100
AcDbEntity
  8
部品1
100
AcDbLine
 10
7248.637356965272
 20
9712.497424545805
 30
0.0
 11
8521.637356965271
 21
9712.497424545912
 31
0.0
  0
LINE
  5
1A45C
330
747D
100
AcDbEntity
  8
細線
 48
50.0
100
AcDbLine
 10
8521.637356965271
 20
9712.497424545912
 30
0.0
 11
7248.637356965272
 21
10162.4974245458
 31
0.0
  0
LINE
  5
1A45D
330
747D
100
AcDbEntity
  8
細線
 48
50.0
100
AcDbLine
 10
8521.637356965271
 20
10162.4974245459
 30
0.0
 11
7248.637356965272
 21
9712.497424545805
 31
0.0
  0
LINE
  5
1A45F
330
747D
100
AcDbEntity
  8
細線
 48
50.0
100
AcDbLine
 10
3261.637356965272
 20
10162.49742454591
 30
0.0
 11
1988.637356965271
 21
9712.497424545809
 31
0.0
  0
LINE
  5
1A460
330
747D
100
AcDbEntity
  8
細線
 48
50.0
100
AcDbLine
 10
3261.637356965271
 20
9712.497424545915
 30
0.0
 11
1988.63735696527
 21
10162.49742454581
 31
0.0
  0
LINE
  5
1A461
330
747D
100
AcDbEntity
  8
部品1
100
AcDbLine
 10
1988.637356965272
 20
9712.497424545809
 30
0.0
 11
3261.637356965271
 21
9712.497424545915
 31
0.0
  0
LINE
  5
1A462
330
747D
100
AcDbEntity
  8
部品1
100
AcDbLine
 10
1988.63735696527
 20
10162.49742454581
 30
0.0
 11
3261.637356965272
 21
10162.49742454591
 31
0.0
  0
LINE
  5
1A465
330
747D
100
AcDbEntity
  8
部品1
 48
50.0
100
AcDbLine
 10
1988.63735696527
 20
10162.4974245458
 30
0.0
 11
1988.637356965271
 21
9712.497424545805
 31
0.0
  0
LINE
  5
1A471
330
747D
100
AcDbEntity
  8
部品1
100
AcDbLine
 10
4561.637356965272
 20
10162.4974245459
 30
0.0
 11
4561.637356965272
 21
9712.497424545908
 31
0.0
  0
LINE
  5
1A472
330
747D
100
AcDbEntity
  8
部品1
 48
50.0
100
AcDbLine
 10
4618.637356965271
 20
10162.4974245458
 30
0.0
 11
4618.637356965272
 21
9712.497424545805
 31
0.0
  0
LINE
  5
1A473
330
747D
100
AcDbEntity
  8
部品1
 48
50.0
100
AcDbLine
 10
3287.637356965272
 20
10164.49742454591
 30
0.0
 11
3287.637356965272
 21
9712.497424545915
 31
0.0
  0
LINE
  5
1A474
330
747D
100
AcDbEntity
  8
部品1
 48
50.0
100
AcDbLine
 10
3262.637356965271
 20
10164.49742454591
 30
0.0
 11
3262.637356965271
 21
9712.497424545915
 31
0.0
  0
LINE
  5
1A475
330
747D
100
AcDbEntity
  8
部品1
 48
50.0
100
AcDbLine
 10
3288.637356965272
 20
10162.4974245459
 30
0.0
 11
3288.637356965272
 21
9712.497424545915
 31
0.0
  0
LINE
  5
1A476
330
747D
100
AcDbEntity
  8
部品1
 48
50.0
100
AcDbLine
 10
3261.637356965272
 20
10162.49742454591
 30
0.0
 11
3261.637356965272
 21
9712.497424545915
 31
0.0
  0
LINE
  5
1A477
330
747D
100
AcDbEntity
  8
細線
 48
50.0
100
AcDbLine
 10
4561.637356965272
 20
9712.497424545908
 30
0.0
 11
3288.637356965272
 21
10162.4974245459
 31
0.0
  0
LINE
  5
1A478
330
747D
100
AcDbEntity
  8
細線
 48
50.0
100
AcDbLine
 10
4561.637356965272
 20
10162.4974245459
 30
0.0
 11
3288.637356965271
 21
9712.497424545915
 31
0.0
  0
LINE
  5
1A479
330
747D
100
AcDbEntity
  8
部品1
 48
50.0
100
AcDbLine
 10
4618.637356965271
 20
10162.4974245458
 30
0.0
 11
4618.637356965272
 21
9712.497424545802
 31
0.0
  0
LINE
  5
1A47A
330
747D
100
AcDbEntity
  8
部品1
 48
50.0
100
AcDbLine
 10
7248.637356965272
 20
10162.4974245458
 30
0.0
 11
7248.637356965272
 21
9712.497424545802
 31
0.0
  0
LINE
  5
1A47B
330
747D
100
AcDbEntity
  8
細線
 48
50.0
100
AcDbLine
 10
7191.637356965272
 20
10162.4974245459
 30
0.0
 11
5918.637356965271
 21
9712.497424545912
 31
0.0
  0
LINE
  5
1A47C
330
747D
100
AcDbEntity
  8
細線
 48
50.0
100
AcDbLine
 10
5891.63735696527
 20
9712.497424545912
 30
0.0
 11
4618.637356965271
 21
10162.4974245458
 31
0.0
  0
LINE
  5
1A47D
330
747D
100
AcDbEntity
  8
細線
 48
50.0
100
AcDbLine
 10
5891.637356965271
 20
10162.4974245459
 30
0.0
 11
4618.637356965272
 21
9712.497424545805
 31
0.0
  0
LINE
  5
1A47E
330
747D
100
AcDbEntity
  8
部品1
 48
50.0
100
AcDbLine
 10
5891.637356965271
 20
10162.4974245459
 30
0.0
 11
5891.637356965271
 21
9712.497424545912
 31
0.0
  0
LINE
  5
1A47F
330
747D
100
AcDbEntity
  8
部品1
 48
50.0
100
AcDbLine
 10
5918.637356965271
 20
10162.4974245459
 30
0.0
 11
5918.637356965271
 21
9712.497424545912
 31
0.0
  0
LINE
  5
1A480
330
747D
100
AcDbEntity
  8
部品1
 48
50.0
100
AcDbLine
 10
5892.63735696527
 20
10164.49742454591
 30
0.0
 11
5892.637356965272
 21
9712.497424545912
 31
0.0
  0
LINE
  5
1A481
330
747D
100
AcDbEntity
  8
部品1
 48
50.0
100
AcDbLine
 10
5917.637356965272
 20
10164.49742454591
 30
0.0
 11
5917.637356965272
 21
9712.497424545912
 31
0.0
  0
LINE
  5
1A482
330
747D
100
AcDbEntity
  8
部品1
100
AcDbLine
 10
7191.637356965272
 20
10162.4974245459
 30
0.0
 11
7191.637356965272
 21
9712.497424545905
 31
0.0
  0
LINE
  5
1A483
330
747D
100
AcDbEntity
  8
部品1
100
AcDbLine
 10
4618.637356965272
 20
9712.497424545805
 30
0.0
 11
5891.63735696527
 21
9712.497424545912
 31
0.0
  0
LINE
  5
1A484
330
747D
100
AcDbEntity
  8
部品1
100
AcDbLine
 10
3288.637356965271
 20
9712.497424545915
 30
0.0
 11
4561.637356965272
 21
9712.497424545908
 31
0.0
  0
LINE
  5
1A485
330
747D
100
AcDbEntity
  8
部品1
 48
50.0
100
AcDbLine
 10
3262.637356965271
 20
9712.497424545915
 30
0.0
 11
3287.637356965272
 21
9712.497424545915
 31
0.0
  0
LINE
  5
1A48B
330
747D
100
AcDbEntity
  8
部品1
100
AcDbLine
 10
5918.637356965274
 20
9712.497424545912
 30
0.0
 11
7191.637356965272
 21
9712.497424545905
 31
0.0
  0
LINE
  5
1A48C
330
747D
100
AcDbEntity
  8
細線
 48
50.0
100
AcDbLine
 10
7191.637356965272
 20
9712.497424545905
 30
0.0
 11
5918.637356965271
 21
10162.4974245459
 31
0.0
  0
LINE
  5
1A48F
330
747D
100
AcDbEntity
  8
部品1
 48
50.0
100
AcDbLine
 10
5892.637356965272
 20
9712.497424545912
 30
0.0
 11
5917.637356965272
 21
9712.497424545912
 31
0.0
  0
LINE
  5
1A496
330
747D
100
AcDbEntity
  8
部品1
100
AcDbLine
 10
4618.637356965271
 20
10162.4974245458
 30
0.0
 11
5891.637356965271
 21
10162.49742454591
 31
0.0
  0
LINE
  5
1A498
330
747D
100
AcDbEntity
  8
部品1
100
AcDbLine
 10
3288.637356965272
 20
10162.49742454591
 30
0.0
 11
4561.637356965272
 21
10162.4974245459
 31
0.0
  0
LINE
  5
1A49B
330
747D
100
AcDbEntity
  8
部品1
100
AcDbLine
 10
3275.137356965271
 20
10192.49742454592
 30
0.0
 11
3275.137356965271
 21
10164.49742454592
 31
0.0
  0
LINE
  5
1A49C
330
747D
100
AcDbEntity
  8
部品1
100
AcDbLine
 10
3262.637356965271
 20
10156.4974245459
 30
0.0
 11
3287.637356965272
 21
10156.49742454591
 31
0.0
  0
LINE
  5
1A49D
330
747D
100
AcDbEntity
  8
部品1
100
AcDbLine
 10
3240.137356965271
 20
10182.49742454591
 30
0.0
 11
3240.137356965271
 21
10164.49742454591
 31
0.0
  0
LINE
  5
1A49E
330
747D
100
AcDbEntity
  8
部品1
100
AcDbLine
 10
3240.137356965271
 20
10182.49742454591
 30
0.0
 11
3246.137356965272
 21
10182.49742454591
 31
0.0
  0
LINE
  5
1A49F
330
747D
100
AcDbEntity
  8
部品1
100
AcDbLine
 10
3310.137356965272
 20
10182.49742454591
 30
0.0
 11
3310.137356965272
 21
10164.49742454591
 31
0.0
  0
LINE
  5
1A4A0
330
747D
100
AcDbEntity
  8
部品1
100
AcDbLine
 10
3304.137356965271
 20
10182.49742454591
 30
0.0
 11
3310.137356965272
 21
10182.49742454591
 31
0.0
  0
LINE
  5
1A4A1
330
747D
100
AcDbEntity
  8
部品1
100
AcDbLine
 10
3275.137356965271
 20
10192.49742454592
 30
0.0
 11
3275.137356965271
 21
10164.49742454592
 31
0.0
  0
LINE
  5
1A4B9
330
747D
100
AcDbEntity
  8
部品1
100
AcDbLine
 10
5918.637356965271
 20
10162.4974245459
 30
0.0
 11
7191.637356965272
 21
10162.4974245459
 31
0.0
  0
LINE
  5
1A4BD
330
747D
100
AcDbEntity
  8
部品1
100
AcDbLine
 10
5934.137356965272
 20
10182.4974245459
 30
0.0
 11
5940.137356965272
 21
10182.4974245459
 31
0.0
  0
LINE
  5
1A4BE
330
747D
100
AcDbEntity
  8
部品1
100
AcDbLine
 10
5870.137356965272
 20
10182.4974245459
 30
0.0
 11
5876.137356965272
 21
10182.4974245459
 31
0.0
  0
LINE
  5
1A4BF
330
747D
100
AcDbEntity
  8
部品1
100
AcDbLine
 10
5870.137356965272
 20
10182.4974245459
 30
0.0
 11
5870.137356965272
 21
10164.49742454591
 31
0.0
  0
LINE
  5
1A4C0
330
747D
100
AcDbEntity
  8
部品1
100
AcDbLine
 10
5892.637356965272
 20
10156.4974245459
 30
0.0
 11
5917.637356965272
 21
10156.4974245459
 31
0.0
  0
LINE
  5
1A4C5
330
747D
100
AcDbEntity
  8
部品1
100
AcDbLine
 10
5940.137356965272
 20
10182.4974245459
 30
0.0
 11
5940.137356965272
 21
10164.49742454591
 31
0.0
  0
LINE
  5
1A4DD
330
747D
100
AcDbEntity
  8
部品1
100
AcDbLine
 10
9821.637356965272
 20
10162.4974245459
 30
0.0
 11
9821.637356965272
 21
9712.497424545905
 31
0.0
  0
LINE
  5
1A4DE
330
747D
100
AcDbEntity
  8
部品1
 48
50.0
100
AcDbLine
 10
8521.637356965271
 20
10162.4974245459
 30
0.0
 11
8521.637356965271
 21
9712.497424545912
 31
0.0
  0
LINE
  5
1A4DF
330
747D
100
AcDbEntity
  8
部品1
 48
50.0
100
AcDbLine
 10
8548.63735696527
 20
10162.4974245459
 30
0.0
 11
8548.63735696527
 21
9712.497424545912
 31
0.0
  0
LINE
  5
1A4E0
330
747D
100
AcDbEntity
  8
部品1
 48
50.0
100
AcDbLine
 10
8522.637356965272
 20
10164.49742454591
 30
0.0
 11
8522.637356965272
 21
9712.497424545912
 31
0.0
  0
LINE
  5
1A4E1
330
747D
100
AcDbEntity
  8
部品1
 48
50.0
100
AcDbLine
 10
8547.637356965273
 20
10164.49742454591
 30
0.0
 11
8547.637356965273
 21
9712.497424545912
 31
0.0
  0
LINE
  5
1A4E2
330
747D
100
AcDbEntity
  8
細線
 48
50.0
100
AcDbLine
 10
9821.637356965272
 20
10162.4974245459
 30
0.0
 11
8548.63735696527
 21
9712.497424545912
 31
0.0
  0
LINE
  5
1A4E3
330
747D
100
AcDbEntity
  8
細線
 48
50.0
100
AcDbLine
 10
9821.637356965272
 20
9712.497424545905
 30
0.0
 11
8548.63735696527
 21
10162.4974245459
 31
0.0
  0
LINE
  5
1A4E4
330
747D
100
AcDbEntity
  8
部品1
100
AcDbLine
 10
8548.63735696527
 20
9712.497424545912
 30
0.0
 11
9821.637356965272
 21
9712.497424545905
 31
0.0
  0
LINE
  5
1A4E5
330
747D
100
AcDbEntity
  8
部品1
 48
50.0
100
AcDbLine
 10
8522.637356965272
 20
9712.497424545912
 30
0.0
 11
8547.637356965273
 21
9712.497424545912
 31
0.0
  0
LINE
  5
1A4E8
330
747D
100
AcDbEntity
  8
部品1
100
AcDbLine
 10
8548.63735696527
 20
10162.4974245459
 30
0.0
 11
9821.637356965272
 21
10162.4974245459
 31
0.0
  0
LINE
  5
1A4EA
330
747D
100
AcDbEntity
  8
部品1
100
AcDbLine
 10
8500.137356965272
 20
10182.4974245459
 30
0.0
 11
8506.137356965272
 21
10182.4974245459
 31
0.0
  0
LINE
  5
1A4EB
330
747D
100
AcDbEntity
  8
部品1
100
AcDbLine
 10
8500.137356965272
 20
10182.4974245459
 30
0.0
 11
8500.137356965272
 21
10164.49742454591
 31
0.0
  0
LINE
  5
1A4EC
330
747D
100
AcDbEntity
  8
部品1
100
AcDbLine
 10
8522.637356965272
 20
10156.4974245459
 30
0.0
 11
8547.637356965273
 21
10156.4974245459
 31
0.0
  0
LINE
  5
1A4EE
330
747D
100
AcDbEntity
  8
部品1
100
AcDbLine
 10
8564.137356965272
 20
10182.4974245459
 30
0.0
 11
8570.137356965272
 21
10182.4974245459
 31
0.0
  0
LINE
  5
1A4EF
330
747D
100
AcDbEntity
  8
部品1
100
AcDbLine
 10
8570.137356965272
 20
10182.4974245459
 30
0.0
 11
8570.137356965272
 21
10164.49742454591
 31
0.0
  0
LINE
  5
1A4F3
330
747D
100
AcDbEntity
  8
部品1
100
AcDbLine
 10
9795.137356965273
 20
10192.49742454592
 30
0.0
 11
9795.137356965273
 21
10164.49742454592
 31
0.0
  0
INSERT
  5
1A4F5
330
747D
100
AcDbEntity
  8
部品1
 48
50.0
100
AcDbBlockReference
  2
A$C3EB005E7
 10
9821.637373251112
 20
9601.202670419009
 30
0.0
  0
LINE
  5
1A528
330
747D
100
AcDbEntity
  8
部品1
100
AcDbLine
 10
8547.637356965273
 20
10164.49742454598
 30
0.0
 11
9822.137356965257
 21
10164.49742454598
 31
0.0
  0
TEXT
  5
1A782
330
747D
100
AcDbEntity
  8
文字
 62
     7
 48
50.0
100
AcDbText
 10
13583.11819016569
 20
8380.013745883735
 30
0.0
 40
100.0
  1
床パネル
 41
0.9
  7
STYLE1
100
AcDbText
  0
TEXT
  5
1A783
330
747D
100
AcDbEntity
  8
文字
 62
     7
 48
50.0
100
AcDbText
 10
15022.63965474516
 20
8380.013745883728
 30
0.0
 40
100.0
  1
F12            1.0
  7
STYLE1
100
AcDbText
  0
TEXT
  5
1A784
330
747D
100
AcDbEntity
  8
文字
 62
     7
 48
50.0
100
AcDbText
 10
13248.77747366448
 20
8550.013745883731
 30
0.0
 40
100.0
  1
15
  7
STYLE1
100
AcDbText
  0
LINE
  5
1A785
330
747D
100
AcDbEntity
  8
仕様書枠
 48
50.0
100
AcDbLine
 10
16307.19999999999
 20
8519.600000000002
 30
0.0
 11
13127.19999999999
 21
8519.600000000004
 31
0.0
  0
LINE
  5
1A786
330
747D
100
AcDbEntity
  8
仕様書枠
 48
50.0
100
AcDbLine
 10
16307.19999999999
 20
9879.600000000001
 30
0.0
 11
13127.19999999999
 21
9879.600000000003
 31
0.0
  0
LINE
  5
1A787
330
747D
100
AcDbEntity
  8
仕様書枠
 48
50.0
100
AcDbLine
 10
16307.19999999999
 20
11239.6
 30
0.0
 11
13127.2
 21
11239.6
 31
0.0
  0
LINE
  5
1A788
330
747D
100
AcDbEntity
  8
仕様書枠
 48
50.0
100
AcDbLine
 10
16307.19999999999
 20
7669.600000000013
 30
0.0
 11
16307.2
 21
11239.6
 31
0.0
  0
LINE
  5
1A789
330
747D
100
AcDbEntity
  8
仕様書枠
 48
50.0
100
AcDbLine
 10
14785.2
 20
11239.6
 30
0.0
 11
14785.19999999999
 21
8179.600000000013
 31
0.0
  0
LINE
  5
1A78A
330
747D
100
AcDbEntity
  8
仕様書枠
 48
50.0
100
AcDbLine
 10
13490.2
 20
11239.6
 30
0.0
 11
13490.20000000001
 21
8179.600000000013
 31
0.0
  0
LINE
  5
1A78B
330
747D
100
AcDbEntity
  8
仕様書枠
 48
50.0
100
AcDbLine
 10
16307.19999999999
 20
11069.6
 30
0.0
 11
13127.2
 21
11069.6
 31
0.0
  0
LINE
  5
1A78C
330
747D
100
AcDbEntity
  8
仕様書枠
 48
50.0
100
AcDbLine
 10
16307.19999999999
 20
10729.6
 30
0.0
 11
13127.2
 21
10729.6
 31
0.0
  0
LINE
  5
1A78D
330
747D
100
AcDbEntity
  8
仕様書枠
 48
50.0
100
AcDbLine
 10
16307.19999999999
 20
10899.6
 30
0.0
 11
13127.2
 21
10899.6
 31
0.0
  0
LINE
  5
1A78E
330
747D
100
AcDbEntity
  8
仕様書枠
 48
50.0
100
AcDbLine
 10
16307.19999999999
 20
10389.6
 30
0.0
 11
13127.19999999999
 21
10389.6
 31
0.0
  0
LINE
  5
1A78F
330
747D
100
AcDbEntity
  8
仕様書枠
 48
50.0
100
AcDbLine
 10
16307.19999999999
 20
10219.6
 30
0.0
 11
13127.19999999999
 21
10219.6
 31
0.0
  0
LINE
  5
1A790
330
747D
100
AcDbEntity
  8
仕様書枠
 48
50.0
100
AcDbLine
 10
16307.19999999999
 20
10559.6
 30
0.0
 11
13127.19999999999
 21
10559.6
 31
0.0
  0
TEXT
  5
1A791
330
747D
100
AcDbEntity
  8
文字
 62
     7
 48
50.0
100
AcDbText
 10
13197.42518560407
 20
11100.01374588373
 30
0.0
 40
100.0
  1
品番
  7
STYLE1
100
AcDbText
  0
TEXT
  5
1A792
330
747D
100
AcDbEntity
  8
文字
 62
     7
 48
50.0
100
AcDbText
 10
13271.19032244792
 20
10930.01374588373
 30
0.0
 40
100.0
  1
1
  7
STYLE1
100
AcDbText
  0
TEXT
  5
1A793
330
747D
100
AcDbEntity
  8
文字
 62
     7
 48
50.0
100
AcDbText
 10
13271.19032244792
 20
10760.01374588373
 30
0.0
 40
100.0
  1
2
  7
STYLE1
100
AcDbText
  0
TEXT
  5
1A794
330
747D
100
AcDbEntity
  8
文字
 62
     7
 48
50.0
100
AcDbText
 10
13271.19032244792
 20
10420.01374588373
 30
0.0
 40
100.0
  1
4
  7
STYLE1
100
AcDbText
  0
TEXT
  5
1A795
330
747D
100
AcDbEntity
  8
文字
 62
     7
 48
50.0
100
AcDbText
 10
13271.19032244792
 20
10590.01374588373
 30
0.0
 40
100.0
  1
3
  7
STYLE1
100
AcDbText
  0
TEXT
  5
1A796
330
747D
100
AcDbEntity
  8
文字
 62
     7
 48
50.0
100
AcDbText
 10
13732.03840939434
 20
11100.01374588373
 30
0.0
 40
100.0
  1
部　　品　　名
  7
STYLE1
100
AcDbText
  0
TEXT
  5
1A797
330
747D
100
AcDbEntity
  8
文字
 62
     7
 48
50.0
100
AcDbText
 10
14859.79774614482
 20
11100.01374588373
 30
0.0
 40
100.0
  1
材料（材質）　　単位mm
  7
STYLE1
100
AcDbText
  0
TEXT
  5
1A798
330
747D
100
AcDbEntity
  8
文字
 62
     7
 48
50.0
100
AcDbText
 10
13583.11819016569
 20
10930.01374588373
 30
0.0
 40
100.0
  1
土台枠
  7
STYLE1
100
AcDbText
  0
TEXT
  5
1A799
330
747D
100
AcDbEntity
  8
文字
 62
     7
 48
50.0
100
AcDbText
 10
13583.11819016569
 20
10760.01374588373
 30
0.0
 40
100.0
  1
柱
  7
STYLE1
100
AcDbText
  0
TEXT
  5
1A79A
330
747D
100
AcDbEntity
  8
文字
 62
     7
 48
50.0
100
AcDbText
 10
13583.11819016569
 20
10590.01374588373
 30
0.0
 40
100.0
  1
桁前
  7
STYLE1
100
AcDbText
  0
TEXT
  5
1A79B
330
747D
100
AcDbEntity
  8
文字
 62
     7
 48
50.0
100
AcDbText
 10
13583.11819016569
 20
10420.01374588373
 30
0.0
 40
100.0
  1
桁後
  7
STYLE1
100
AcDbText
  0
TEXT
  5
1A79C
330
747D
100
AcDbEntity
  8
文字
 62
     7
 48
50.0
100
AcDbText
 10
13271.19032244792
 20
10250.01374588373
 30
0.0
 40
100.0
  1
5
  7
STYLE1
100
AcDbText
  0
TEXT
  5
1A79D
330
747D
100
AcDbEntity
  8
文字
 62
     7
 48
50.0
100
AcDbText
 10
13583.11819016569
 20
10250.01374588373
 30
0.0
 40
100.0
  1
妻板左右
  7
STYLE1
100
AcDbText
  0
TEXT
  5
1A79E
330
747D
100
AcDbEntity
  8
文字
 62
     7
 48
50.0
100
AcDbText
 10
13583.11819016569
 20
8720.013745883733
 30
0.0
 40
100.0
  1
シャッターレール
  7
STYLE1
100
AcDbText
  0
TEXT
  5
1A79F
330
747D
100
AcDbEntity
  8
文字
 62
     7
 48
50.0
100
AcDbText
 10
13248.77747366448
 20
9400.013745883729
 30
0.0
 40
100.0
  1
10
  7
STYLE1
100
AcDbText
  0
TEXT
  5
1A7A0
330
747D
100
AcDbEntity
  8
文字
 62
     7
 48
50.0
100
AcDbText
 10
13583.11819016569
 20
9400.013745883732
 30
0.0
 40
100.0
  1
壁パネル
  7
STYLE1
100
AcDbText
  0
TEXT
  5
1A7A1
330
747D
100
AcDbEntity
  8
文字
 62
     7
 48
50.0
100
AcDbText
 10
13583.11819016569
 20
9570.013745883731
 30
0.0
 40
100.0
  1
屋根パネル
  7
STYLE1
100
AcDbText
  0
TEXT
  5
1A7A2
330
747D
100
AcDbEntity
  8
文字
 62
     7
 48
50.0
100
AcDbText
 10
13583.11819016569
 20
9740.013745883731
 30
0.0
 40
100.0
  1
母屋中
  7
STYLE1
100
AcDbText
  0
TEXT
  5
1A7A3
330
747D
100
AcDbEntity
  8
文字
 62
     7
 48
50.0
100
AcDbText
 10
13583.11819016569
 20
10080.01374588373
 30
0.0
 40
100.0
  1
鼻隠シ前後
  7
STYLE1
100
AcDbText
  0
TEXT
  5
1A7A4
330
747D
100
AcDbEntity
  8
文字
 62
     7
 48
50.0
100
AcDbText
 10
13271.19032244792
 20
9740.013745883731
 30
0.0
 40
100.0
  1
8
  7
STYLE1
100
AcDbText
  0
TEXT
  5
1A7A5
330
747D
100
AcDbEntity
  8
文字
 62
     7
 48
50.0
100
AcDbText
 10
13271.19032244792
 20
9570.013745883731
 30
0.0
 40
100.0
  1
9
  7
STYLE1
100
AcDbText
  0
TEXT
  5
1A7A6
330
747D
100
AcDbEntity
  8
文字
 62
     7
 48
50.0
100
AcDbText
 10
13271.19032244792
 20
9910.01374588373
 30
0.0
 40
100.0
  1
7
  7
STYLE1
100
AcDbText
  0
TEXT
  5
1A7A7
330
747D
100
AcDbEntity
  8
文字
 62
     7
 48
50.0
100
AcDbText
 10
13271.19032244792
 20
10080.01374588373
 30
0.0
 40
100.0
  1
6
  7
STYLE1
100
AcDbText
  0
LINE
  5
1A7A8
330
747D
100
AcDbEntity
  8
仕様書枠
 48
50.0
100
AcDbLine
 10
16307.19999999999
 20
9539.6
 30
0.0
 11
13127.19999999999
 21
9539.600000000003
 31
0.0
  0
LINE
  5
1A7A9
330
747D
100
AcDbEntity
  8
仕様書枠
 48
50.0
100
AcDbLine
 10
16307.19999999999
 20
9199.600000000001
 30
0.0
 11
13127.19999999999
 21
9199.600000000001
 31
0.0
  0
LINE
  5
1A7AA
330
747D
100
AcDbEntity
  8
仕様書枠
 48
50.0
100
AcDbLine
 10
16307.19999999999
 20
9369.600000000001
 30
0.0
 11
13127.19999999999
 21
9369.600000000003
 31
0.0
  0
LINE
  5
1A7AB
330
747D
100
AcDbEntity
  8
仕様書枠
 48
50.0
100
AcDbLine
 10
16307.19999999999
 20
10049.6
 30
0.0
 11
13127.2
 21
10049.6
 31
0.0
  0
LINE
  5
1A7AC
330
747D
100
AcDbEntity
  8
仕様書枠
 48
50.0
100
AcDbLine
 10
16307.19999999999
 20
9709.600000000001
 30
0.0
 11
13127.19999999999
 21
9709.600000000001
 31
0.0
  0
TEXT
  5
1A7AD
330
747D
100
AcDbEntity
  8
文字
 62
     7
 48
50.0
100
AcDbText
 10
13248.77747366448
 20
9230.013745883729
 30
0.0
 40
100.0
  1
11
  7
STYLE1
100
AcDbText
  0
TEXT
  5
1A7AE
330
747D
100
AcDbEntity
  8
文字
 62
     7
 48
50.0
100
AcDbText
 10
13583.11819016569
 20
8890.013745883731
 30
0.0
 40
100.0
  1
シャッターカバー
 41
0.9
  7
STYLE1
100
AcDbText
  0
LINE
  5
1A7AF
330
747D
100
AcDbEntity
  8
仕様書枠
 48
50.0
100
AcDbLine
 10
16307.19999999999
 20
9029.6
 30
0.0
 11
13127.19999999999
 21
9029.600000000002
 31
0.0
  0
LINE
  5
1A7B0
330
747D
100
AcDbEntity
  8
仕様書枠
 48
50.0
100
AcDbLine
 10
16307.19999999999
 20
8349.600000000007
 30
0.0
 11
13127.19999999999
 21
8349.600000000007
 31
0.0
  0
TEXT
  5
1A7B1
330
747D
100
AcDbEntity
  8
文字
 62
     7
 48
50.0
100
AcDbText
 10
13583.11819016569
 20
9060.013745883731
 30
0.0
 40
100.0
  1
シャッター
  7
STYLE1
100
AcDbText
  0
TEXT
  5
1A7B2
330
747D
100
AcDbEntity
  8
文字
 62
     7
 48
50.0
100
AcDbText
 10
13248.77747366448
 20
8890.013745883731
 30
0.0
 40
100.0
  1
13
  7
STYLE1
100
AcDbText
  0
TEXT
  5
1A7B3
330
747D
100
AcDbEntity
  8
文字
 62
     7
 48
50.0
100
AcDbText
 10
13248.77747366448
 20
9060.013745883731
 30
0.0
 40
100.0
  1
12
  7
STYLE1
100
AcDbText
  0
TEXT
  5
1A7B4
330
747D
100
AcDbEntity
  8
文字
 62
     7
 48
50.0
100
AcDbText
 10
15022.63965474517
 20
10930.01374588372
 30
0.0
 40
100.0
  1
F12            1.2
  7
STYLE1
100
AcDbText
  0
TEXT
  5
1A7B5
330
747D
100
AcDbEntity
  8
文字
 62
     7
 48
50.0
100
AcDbText
 10
15022.63965474517
 20
10760.01374588372
 30
0.0
 40
100.0
  1
F12         1.0,1.2
  7
STYLE1
100
AcDbText
  0
TEXT
  5
1A7B6
330
747D
100
AcDbEntity
  8
文字
 62
     7
 48
50.0
100
AcDbText
 10
15022.63965474516
 20
10590.01374588373
 30
0.0
 40
100.0
  1
Y10            1.0
  7
STYLE1
100
AcDbText
  0
TEXT
  5
1A7B7
330
747D
100
AcDbEntity
  8
文字
 62
     7
 48
50.0
100
AcDbText
 10
15022.63965474516
 20
10420.01374588372
 30
0.0
 40
100.0
  1
Y10            1.0
  7
STYLE1
100
AcDbText
  0
TEXT
  5
1A7B8
330
747D
100
AcDbEntity
  8
文字
 62
     7
 48
50.0
100
AcDbText
 10
15022.63965474516
 20
10250.01374588373
 30
0.0
 40
100.0
  1
Y10            0.7
  7
STYLE1
100
AcDbText
  0
TEXT
  5
1A7B9
330
747D
100
AcDbEntity
  8
文字
 62
     7
 48
50.0
100
AcDbText
 10
15022.63965474516
 20
10080.01374588372
 30
0.0
 40
100.0
  1
Y10            0.7
  7
STYLE1
100
AcDbText
  0
TEXT
  5
1A7BA
330
747D
100
AcDbEntity
  8
文字
 62
     7
 48
50.0
100
AcDbText
 10
15022.63965474516
 20
9570.013745883729
 30
0.0
 40
100.0
  1
Y10            0.5
  7
STYLE1
100
AcDbText
  0
TEXT
  5
1A7BB
330
747D
100
AcDbEntity
  8
文字
 62
     7
 48
50.0
100
AcDbText
 10
15022.63965474516
 20
9400.013745883729
 30
0.0
 40
100.0
  1
F12            0.7
  7
STYLE1
100
AcDbText
  0
TEXT
  5
1A7BC
330
747D
100
AcDbEntity
  8
文字
 62
     7
 48
50.0
100
AcDbText
 10
14850.83183167176
 20
8720.013745883731
 30
0.0
 40
100.0
  1
アルミニウム合金押出形材
  7
STYLE1
100
AcDbText
  0
TEXT
  5
1A7BE
330
747D
100
AcDbEntity
  8
文字
 62
     7
 48
50.0
100
AcDbText
 10
15022.63965474515
 20
9060.013745883727
 30
0.0
 40
100.0
  1
Z08            0.5
  7
STYLE1
100
AcDbText
  0
LINE
  5
1A7BF
330
747D
100
AcDbEntity
  8
仕様書枠
 48
50.0
100
AcDbLine
 10
16307.19999999998
 20
8009.600000000011
 30
0.0
 11
13127.19999999999
 21
8009.600000000013
 31
0.0
  0
LINE
  5
1A7C0
330
747D
100
AcDbEntity
  8
仕様書枠
 48
50.0
100
AcDbLine
 10
16307.19999999998
 20
7839.600000000011
 30
0.0
 11
13127.19999999999
 21
7839.600000000013
 31
0.0
  0
LINE
  5
1A7C1
330
747D
100
AcDbEntity
  8
仕様書枠
 48
50.0
100
AcDbLine
 10
16307.19999999998
 20
7669.600000000011
 30
0.0
 11
13127.19999999999
 21
7669.600000000013
 31
0.0
  0
TEXT
  5
1A7C2
330
747D
100
AcDbEntity
  8
文字
 62
     7
 48
50.0
100
AcDbText
 10
13229.83081656554
 20
8040.01374588374
 30
0.0
 40
100.0
  1
F12→溶融亜鉛めっき鋼板(JIS G 3302)
  7
STYLE1
100
AcDbText
  0
TEXT
  5
1A7C3
330
747D
100
AcDbEntity
  8
文字
 62
     7
 48
50.0
100
AcDbText
 10
13229.83081656554
 20
7870.01374588374
 30
0.0
 40
100.0
  1
Y10→溶融亜鉛-5％アルミニウム合金めっき鋼板(JIS G 3317)
 41
0.9
  7
STYLE1
100
AcDbText
  0
TEXT
  5
1A7C4
330
747D
100
AcDbEntity
  8
文字
 62
     7
 48
50.0
100
AcDbText
 10
13229.83081656554
 20
7700.013745883741
 30
0.0
 40
100.0
  1
Z08→塗装溶融亜鉛めっき鋼板(JIS G 3313)
  7
STYLE1
100
AcDbText
  0
LINE
  5
1A7C5
330
747D
100
AcDbEntity
  8
仕様書枠
 48
50.0
100
AcDbLine
 10
13127.2
 20
11239.6
 30
0.0
 11
13127.19999999999
 21
7669.600000000013
 31
0.0
  0
LINE
  5
1A7C7
330
747D
100
AcDbEntity
  8
仕様書枠
 48
50.0
100
AcDbLine
 10
16307.19999999999
 20
8689.600000000003
 30
0.0
 11
13127.19999999999
 21
8689.600000000003
 31
0.0
  0
LINE
  5
1A7C8
330
747D
100
AcDbEntity
  8
仕様書枠
 48
50.0
100
AcDbLine
 10
16307.19999999999
 20
8859.600000000002
 30
0.0
 11
13127.19999999999
 21
8859.600000000005
 31
0.0
  0
TEXT
  5
1A7C9
330
747D
100
AcDbEntity
  8
文字
 62
     7
 48
50.0
100
AcDbText
 10
13583.11819016569
 20
8210.013745883733
 30
0.0
 40
100.0
  1
棚板
 41
0.9
  7
STYLE1
100
AcDbText
  0
TEXT
  5
1A7CA
330
747D
100
AcDbEntity
  8
文字
 62
     7
 48
50.0
100
AcDbText
 10
13583.11819016569
 20
8550.013745883733
 30
0.0
 40
100.0
  1
根太
  7
STYLE1
100
AcDbText
  0
TEXT
  5
1A7CB
330
747D
100
AcDbEntity
  8
文字
 62
     7
 48
50.0
100
AcDbText
 10
13248.77747366448
 20
8720.013745883731
 30
0.0
 40
100.0
  1
14
  7
STYLE1
100
AcDbText
  0
TEXT
  5
1A7CC
330
747D
100
AcDbEntity
  8
文字
 62
     7
 48
50.0
100
AcDbText
 10
13248.77747366448
 20
8380.013745883733
 30
0.0
 40
100.0
  1
16
  7
STYLE1
100
AcDbText
  0
TEXT
  5
1A7CD
330
747D
100
AcDbEntity
  8
文字
 62
     7
 48
50.0
100
AcDbText
 10
15022.63965474516
 20
8550.013745883729
 30
0.0
 40
100.0
  1
F12            1.2
  7
STYLE1
100
AcDbText
  0
TEXT
  5
1A7CE
330
747D
100
AcDbEntity
  8
文字
 62
     7
 48
50.0
100
AcDbText
 10
15022.63965474516
 20
8210.013745883731
 30
0.0
 40
100.0
  1
F12            0.6
  7
STYLE1
100
AcDbText
  0
TEXT
  5
1A7CF
330
747D
100
AcDbEntity
  8
文字
 62
     7
 48
50.0
100
AcDbText
 10
13583.11819016569
 20
9910.01374588373
 30
0.0
 40
100.0
  1
梁中
  7
STYLE1
100
AcDbText
  0
TEXT
  5
1A7D0
330
747D
100
AcDbEntity
  8
文字
 62
     7
 48
50.0
100
AcDbText
 10
15022.63965474516
 20
9910.01374588373
 30
0.0
 40
100.0
  1
F12,Y10      1.2+1.6
  7
STYLE1
100
AcDbText
  0
LINE
  5
1A7D1
330
747D
100
AcDbEntity
  8
仕様書枠
 48
50.0
100
AcDbLine
 10
16307.19999999999
 20
8179.600000000009
 30
0.0
 11
13127.19999999999
 21
8179.600000000013
 31
0.0
  0
LINE
  5
1ADE2
330
747D
100
AcDbEntity
  8
部品1
100
AcDbLine
 10
1320.857427273084
 20
2256.561156045775
 30
0.0
 11
1470.857427273084
 21
2256.561156045775
 31
0.0
  0
LINE
  5
1ADE3
330
747D
100
AcDbEntity
  8
部品1
100
AcDbLine
 10
1395.857427273084
 20
2126.65734547811
 30
0.0
 11
1320.857427273084
 21
2256.561156045775
 31
0.0
  0
TEXT
  5
1ADE4
330
747D
100
AcDbEntity
  8
部品1
100
AcDbText
 10
1498.962369397857
 20
2162.764249084012
 30
0.0
 40
125.0
  1
G.L
  7
STYLE2
100
AcDbText
  0
LINE
  5
1ADE5
330
747D
100
AcDbEntity
  8
部品1
100
AcDbLine
 10
1470.857427273084
 20
2256.561156045775
 30
0.0
 11
1395.857427273084
 21
2126.65734547811
 31
0.0
  0
LINE
  5
1ADE6
330
747D
100
AcDbEntity
  8
部品1
100
AcDbLine
 10
1960.137356965257
 20
4460.657345478113
 30
0.0
 11
1960.137356965257
 21
2126.65734547811
 31
0.0
  0
LINE
  5
1ADE7
330
747D
100
AcDbEntity
  8
部品1
100
AcDbLine
 10
9795.137356965256
 20
4201.657345478113
 30
0.0
 11
9795.137356965254
 21
2126.65734547811
 31
0.0
  0
LINE
  5
1ADE8
330
747D
100
AcDbEntity
  8
部品1
100
AcDbLine
 10
2015.137356965257
 20
4201.65734547811
 30
0.0
 11
2015.137356965257
 21
2126.65734547811
 31
0.0
  0
LINE
  5
1ADE9
330
747D
100
AcDbEntity
  8
部品1
100
AcDbLine
 10
9850.137356965255
 20
4460.657345478113
 30
0.0
 11
9850.137356965255
 21
2126.65734547811
 31
0.0
  0
LINE
  5
1ADF0
330
747D
100
AcDbEntity
  8
破線
 48
5.0
100
AcDbLine
 10
9850.137356965255
 20
2126.65734547811
 30
0.0
 11
9850.137356965255
 21
1876.65734547811
 31
0.0
  0
LINE
  5
1ADF1
330
747D
100
AcDbEntity
  8
破線
 48
5.0
100
AcDbLine
 10
1960.137356965257
 20
2126.65734547811
 30
0.0
 11
1960.137356965253
 21
1876.65734547811
 31
0.0
  0
LINE
  5
1ADF3
330
747D
100
AcDbEntity
  8
破線
 48
5.0
100
AcDbLine
 10
9795.137356965256
 20
2126.657345478111
 30
0.0
 11
9795.137356965256
 21
1876.65734547811
 31
0.0
  0
LINE
  5
1ADF4
330
747D
100
AcDbEntity
  8
破線
 48
5.0
100
AcDbLine
 10
2015.137356965257
 20
2126.657345478111
 30
0.0
 11
2015.137356965253
 21
1876.65734547811
 31
0.0
  0
LINE
  5
1ADF5
330
747D
100
AcDbEntity
  8
破線
 48
5.0
100
AcDbLine
 10
9850.137356965253
 20
1876.65734547811
 30
0.0
 11
9795.137356965256
 21
1876.65734547811
 31
0.0
  0
LINE
  5
1ADF6
330
747D
100
AcDbEntity
  8
破線
 48
5.0
100
AcDbLine
 10
2015.137356965253
 20
1876.657345478117
 30
0.0
 11
1960.137356965253
 21
1876.657345478117
 31
0.0
  0
LINE
  5
1ADF7
330
747D
100
AcDbEntity
  8
部品1
100
AcDbLine
 10
2063.137356965257
 20
4201.65734547811
 30
0.0
 11
2063.137356965257
 21
2276.65734547811
 31
0.0
  0
LINE
  5
1ADF8
330
747D
100
AcDbEntity
  8
部品1
100
AcDbLine
 10
9747.137356965257
 20
4201.65734547811
 30
0.0
 11
9747.137356965255
 21
2276.65734547811
 31
0.0
  0
LINE
  5
1ADF9
330
747D
100
AcDbEntity
  8
部品1
100
AcDbLine
 10
1960.137356965257
 20
4201.65734547811
 30
0.0
 11
4645.137356965256
 21
4201.65734547811
 31
0.0
  0
LINE
  5
1ADFA
330
747D
100
AcDbEntity
  8
細線
100
AcDbLine
 10
7323.137356965252
 20
3911.65734547811
 30
0.0
 11
9747.137356965254
 21
3911.65734547811
 31
0.0
  0
LINE
  5
1ADFB
330
747D
100
AcDbEntity
  8
細線
100
AcDbLine
 10
7323.137356965252
 20
3976.65734547811
 30
0.0
 11
9747.137356965254
 21
3976.65734547811
 31
0.0
  0
LINE
  5
1ADFC
330
747D
100
AcDbEntity
  8
細線
100
AcDbLine
 10
7323.137356965252
 20
4041.657345478109
 30
0.0
 11
9747.137356965254
 21
4041.657345478109
 31
0.0
  0
LINE
  5
1ADFD
330
747D
100
AcDbEntity
  8
細線
100
AcDbLine
 10
7323.137356965252
 20
3521.65734547811
 30
0.0
 11
9747.137356965254
 21
3521.65734547811
 31
0.0
  0
LINE
  5
1ADFE
330
747D
100
AcDbEntity
  8
細線
100
AcDbLine
 10
7323.137356965252
 20
3586.657345478111
 30
0.0
 11
9747.137356965254
 21
3586.657345478111
 31
0.0
  0
LINE
  5
1ADFF
330
747D
100
AcDbEntity
  8
細線
100
AcDbLine
 10
7323.137356965252
 20
3651.65734547811
 30
0.0
 11
9747.137356965254
 21
3651.65734547811
 31
0.0
  0
LINE
  5
1AE00
330
747D
100
AcDbEntity
  8
細線
100
AcDbLine
 10
7323.137356965252
 20
3716.65734547811
 30
0.0
 11
9747.137356965254
 21
3716.65734547811
 31
0.0
  0
LINE
  5
1AE01
330
747D
100
AcDbEntity
  8
細線
100
AcDbLine
 10
7323.137356965252
 20
3781.65734547811
 30
0.0
 11
9747.137356965254
 21
3781.65734547811
 31
0.0
  0
LINE
  5
1AE02
330
747D
100
AcDbEntity
  8
細線
100
AcDbLine
 10
7323.137356965252
 20
3846.65734547811
 30
0.0
 11
9747.137356965254
 21
3846.65734547811
 31
0.0
  0
LINE
  5
1AE03
330
747D
100
AcDbEntity
  8
細線
100
AcDbLine
 10
7323.137356965252
 20
2871.65734547811
 30
0.0
 11
9747.137356965254
 21
2871.65734547811
 31
0.0
  0
LINE
  5
1AE04
330
747D
100
AcDbEntity
  8
細線
100
AcDbLine
 10
7323.137356965252
 20
2936.65734547811
 30
0.0
 11
9747.137356965254
 21
2936.65734547811
 31
0.0
  0
LINE
  5
1AE05
330
747D
100
AcDbEntity
  8
細線
100
AcDbLine
 10
7323.137356965252
 20
3001.65734547811
 30
0.0
 11
9747.137356965254
 21
3001.65734547811
 31
0.0
  0
LINE
  5
1AE06
330
747D
100
AcDbEntity
  8
細線
100
AcDbLine
 10
7323.137356965252
 20
3066.65734547811
 30
0.0
 11
9747.137356965254
 21
3066.65734547811
 31
0.0
  0
LINE
  5
1AE07
330
747D
100
AcDbEntity
  8
細線
100
AcDbLine
 10
7323.137356965252
 20
3131.65734547811
 30
0.0
 11
9747.137356965254
 21
3131.65734547811
 31
0.0
  0
LINE
  5
1AE08
330
747D
100
AcDbEntity
  8
細線
100
AcDbLine
 10
7323.137356965252
 20
3196.65734547811
 30
0.0
 11
9747.137356965254
 21
3196.65734547811
 31
0.0
  0
LINE
  5
1AE09
330
747D
100
AcDbEntity
  8
細線
100
AcDbLine
 10
7323.137356965252
 20
3261.657345478111
 30
0.0
 11
9747.137356965254
 21
3261.657345478111
 31
0.0
  0
LINE
  5
1AE0A
330
747D
100
AcDbEntity
  8
細線
100
AcDbLine
 10
7323.137356965252
 20
3326.65734547811
 30
0.0
 11
9747.137356965254
 21
3326.65734547811
 31
0.0
  0
LINE
  5
1AE0B
330
747D
100
AcDbEntity
  8
細線
100
AcDbLine
 10
7323.137356965252
 20
3391.65734547811
 30
0.0
 11
9747.137356965254
 21
3391.65734547811
 31
0.0
  0
LINE
  5
1AE0C
330
747D
100
AcDbEntity
  8
細線
100
AcDbLine
 10
7323.137356965252
 20
3456.65734547811
 30
0.0
 11
9747.137356965254
 21
3456.65734547811
 31
0.0
  0
LINE
  5
1AE0D
330
747D
100
AcDbEntity
  8
細線
100
AcDbLine
 10
7323.137356965252
 20
4171.657345478109
 30
0.0
 11
9747.137356965254
 21
4171.657345478109
 31
0.0
  0
LINE
  5
1AE0E
330
747D
100
AcDbEntity
  8
細線
100
AcDbLine
 10
7323.137356965252
 20
4106.65734547811
 30
0.0
 11
9747.137356965254
 21
4106.65734547811
 31
0.0
  0
LINE
  5
1AE0F
330
747D
100
AcDbEntity
  8
細線
100
AcDbLine
 10
7323.137356965252
 20
2351.65734547811
 30
0.0
 11
9747.137356965254
 21
2351.65734547811
 31
0.0
  0
LINE
  5
1AE10
330
747D
100
AcDbEntity
  8
細線
100
AcDbLine
 10
7323.137356965252
 20
2416.65734547811
 30
0.0
 11
9747.137356965254
 21
2416.65734547811
 31
0.0
  0
LINE
  5
1AE11
330
747D
100
AcDbEntity
  8
細線
100
AcDbLine
 10
7323.137356965252
 20
2481.65734547811
 30
0.0
 11
9747.137356965254
 21
2481.65734547811
 31
0.0
  0
LINE
  5
1AE12
330
747D
100
AcDbEntity
  8
細線
100
AcDbLine
 10
7323.137356965252
 20
2546.65734547811
 30
0.0
 11
9747.137356965254
 21
2546.65734547811
 31
0.0
  0
LINE
  5
1AE13
330
747D
100
AcDbEntity
  8
細線
100
AcDbLine
 10
7323.137356965252
 20
2611.65734547811
 30
0.0
 11
9747.137356965254
 21
2611.65734547811
 31
0.0
  0
LINE
  5
1AE14
330
747D
100
AcDbEntity
  8
細線
100
AcDbLine
 10
7323.137356965252
 20
2676.657345478111
 30
0.0
 11
9747.137356965254
 21
2676.657345478111
 31
0.0
  0
LINE
  5
1AE15
330
747D
100
AcDbEntity
  8
細線
100
AcDbLine
 10
7323.137356965252
 20
2741.65734547811
 30
0.0
 11
9747.137356965254
 21
2741.65734547811
 31
0.0
  0
LINE
  5
1AE16
330
747D
100
AcDbEntity
  8
細線
100
AcDbLine
 10
7323.137356965252
 20
2806.65734547811
 30
0.0
 11
9747.137356965254
 21
2806.65734547811
 31
0.0
  0
LINE
  5
1AE17
330
747D
100
AcDbEntity
  8
細線
100
AcDbLine
 10
9747.137356965255
 20
2286.65734547811
 30
0.0
 11
7323.137356965251
 21
2286.65734547811
 31
0.0
  0
CIRCLE
  5
1AE1B
330
747D
100
AcDbEntity
  8
細線
 48
50.0
100
AcDbCircle
 10
8535.137356965254
 20
3164.15734547811
 30
0.0
 40
18.0
  0
ARC
  5
1AE1C
330
747D
100
AcDbEntity
  8
細線
 48
50.0
100
AcDbCircle
 10
8835.137356965253
 20
2839.15734547811
 30
0.0
 40
15.0
100
AcDbArc
 50
270.0
 51
90.0
  0
ARC
  5
1AE1D
330
747D
100
AcDbEntity
  8
細線
 48
50.0
100
AcDbCircle
 10
8735.137356965253
 20
2839.15734547811
 30
0.0
 40
15.0
100
AcDbArc
 50
90.0
 51
270.0
  0
LINE
  5
1AE1E
330
747D
100
AcDbEntity
  8
細線
 48
50.0
100
AcDbLine
 10
8735.137356965253
 20
2854.15734547811
 30
0.0
 11
8835.137356965253
 21
2854.15734547811
 31
0.0
  0
LINE
  5
1AE1F
330
747D
100
AcDbEntity
  8
細線
 48
50.0
100
AcDbLine
 10
8835.137356965253
 20
2824.15734547811
 30
0.0
 11
8735.137356965253
 21
2824.15734547811
 31
0.0
  0
LINE
  5
1AE20
330
747D
100
AcDbEntity
  8
細線
 48
50.0
100
AcDbLine
 10
8335.137356965253
 20
2824.15734547811
 30
0.0
 11
8235.137356965253
 21
2824.15734547811
 31
0.0
  0
LINE
  5
1AE21
330
747D
100
AcDbEntity
  8
細線
 48
50.0
100
AcDbLine
 10
8235.137356965253
 20
2854.15734547811
 30
0.0
 11
8335.137356965253
 21
2854.15734547811
 31
0.0
  0
ARC
  5
1AE22
330
747D
100
AcDbEntity
  8
細線
 48
50.0
100
AcDbCircle
 10
8335.137356965253
 20
2839.15734547811
 30
0.0
 40
15.0
100
AcDbArc
 50
270.0
 51
90.0
  0
ARC
  5
1AE23
330
747D
100
AcDbEntity
  8
細線
 48
50.0
100
AcDbCircle
 10
8235.137356965253
 20
2839.15734547811
 30
0.0
 40
15.0
100
AcDbArc
 50
90.0
 51
270.0
  0
LINE
  5
1AE24
330
747D
100
AcDbEntity
  8
細線
 48
50.0
100
AcDbLine
 10
2975.137356965253
 20
2854.15734547811
 30
0.0
 11
3075.137356965254
 21
2854.15734547811
 31
0.0
  0
LINE
  5
1AE25
330
747D
100
AcDbEntity
  8
細線
 48
50.0
100
AcDbLine
 10
3075.137356965254
 20
2824.15734547811
 30
0.0
 11
2975.137356965253
 21
2824.15734547811
 31
0.0
  0
LINE
  5
1AE26
330
747D
100
AcDbEntity
  8
細線
100
AcDbLine
 10
2063.13735696525
 20
2806.65734547811
 30
0.0
 11
4487.137356965253
 21
2806.65734547811
 31
0.0
  0
LINE
  5
1AE27
330
747D
100
AcDbEntity
  8
細線
100
AcDbLine
 10
2063.13735696525
 20
2741.65734547811
 30
0.0
 11
4487.137356965253
 21
2741.65734547811
 31
0.0
  0
LINE
  5
1AE28
330
747D
100
AcDbEntity
  8
細線
100
AcDbLine
 10
2063.13735696525
 20
2676.657345478111
 30
0.0
 11
4487.137356965253
 21
2676.657345478111
 31
0.0
  0
LINE
  5
1AE29
330
747D
100
AcDbEntity
  8
細線
100
AcDbLine
 10
2063.13735696525
 20
2611.65734547811
 30
0.0
 11
4487.137356965253
 21
2611.65734547811
 31
0.0
  0
LINE
  5
1AE2A
330
747D
100
AcDbEntity
  8
細線
100
AcDbLine
 10
2063.13735696525
 20
2546.65734547811
 30
0.0
 11
4487.137356965253
 21
2546.65734547811
 31
0.0
  0
LINE
  5
1AE2B
330
747D
100
AcDbEntity
  8
細線
100
AcDbLine
 10
2063.13735696525
 20
2481.65734547811
 30
0.0
 11
4487.137356965253
 21
2481.65734547811
 31
0.0
  0
LINE
  5
1AE2C
330
747D
100
AcDbEntity
  8
細線
100
AcDbLine
 10
2063.13735696525
 20
2416.65734547811
 30
0.0
 11
4487.137356965253
 21
2416.65734547811
 31
0.0
  0
LINE
  5
1AE2D
330
747D
100
AcDbEntity
  8
細線
100
AcDbLine
 10
2063.13735696525
 20
2351.65734547811
 30
0.0
 11
4487.137356965253
 21
2351.65734547811
 31
0.0
  0
LINE
  5
1AE2E
330
747D
100
AcDbEntity
  8
細線
100
AcDbLine
 10
2063.13735696525
 20
4106.65734547811
 30
0.0
 11
4487.137356965253
 21
4106.65734547811
 31
0.0
  0
LINE
  5
1AE2F
330
747D
100
AcDbEntity
  8
細線
100
AcDbLine
 10
2063.13735696525
 20
4171.657345478109
 30
0.0
 11
4487.137356965253
 21
4171.657345478109
 31
0.0
  0
LINE
  5
1AE30
330
747D
100
AcDbEntity
  8
細線
100
AcDbLine
 10
2063.13735696525
 20
3456.65734547811
 30
0.0
 11
4487.137356965253
 21
3456.65734547811
 31
0.0
  0
LINE
  5
1AE31
330
747D
100
AcDbEntity
  8
細線
100
AcDbLine
 10
2063.13735696525
 20
3391.65734547811
 30
0.0
 11
4487.137356965253
 21
3391.65734547811
 31
0.0
  0
LINE
  5
1AE32
330
747D
100
AcDbEntity
  8
細線
100
AcDbLine
 10
2063.13735696525
 20
3326.65734547811
 30
0.0
 11
4487.137356965253
 21
3326.65734547811
 31
0.0
  0
LINE
  5
1AE33
330
747D
100
AcDbEntity
  8
細線
100
AcDbLine
 10
2063.13735696525
 20
3261.657345478111
 30
0.0
 11
4487.137356965253
 21
3261.657345478111
 31
0.0
  0
LINE
  5
1AE34
330
747D
100
AcDbEntity
  8
細線
100
AcDbLine
 10
2063.13735696525
 20
3196.65734547811
 30
0.0
 11
4487.137356965253
 21
3196.65734547811
 31
0.0
  0
LINE
  5
1AE35
330
747D
100
AcDbEntity
  8
細線
100
AcDbLine
 10
2063.13735696525
 20
3131.65734547811
 30
0.0
 11
4487.137356965253
 21
3131.65734547811
 31
0.0
  0
LINE
  5
1AE36
330
747D
100
AcDbEntity
  8
細線
100
AcDbLine
 10
2063.13735696525
 20
3066.65734547811
 30
0.0
 11
4487.137356965253
 21
3066.65734547811
 31
0.0
  0
LINE
  5
1AE37
330
747D
100
AcDbEntity
  8
細線
100
AcDbLine
 10
2063.13735696525
 20
3001.65734547811
 30
0.0
 11
4487.137356965253
 21
3001.65734547811
 31
0.0
  0
LINE
  5
1AE38
330
747D
100
AcDbEntity
  8
細線
100
AcDbLine
 10
2063.13735696525
 20
2936.65734547811
 30
0.0
 11
4487.137356965253
 21
2936.65734547811
 31
0.0
  0
LINE
  5
1AE39
330
747D
100
AcDbEntity
  8
細線
100
AcDbLine
 10
2063.13735696525
 20
2871.65734547811
 30
0.0
 11
4487.137356965253
 21
2871.65734547811
 31
0.0
  0
LINE
  5
1AE3A
330
747D
100
AcDbEntity
  8
細線
100
AcDbLine
 10
2063.13735696525
 20
3846.65734547811
 30
0.0
 11
4487.137356965253
 21
3846.65734547811
 31
0.0
  0
LINE
  5
1AE3B
330
747D
100
AcDbEntity
  8
細線
100
AcDbLine
 10
2063.13735696525
 20
3781.65734547811
 30
0.0
 11
4487.137356965253
 21
3781.65734547811
 31
0.0
  0
LINE
  5
1AE3C
330
747D
100
AcDbEntity
  8
細線
100
AcDbLine
 10
2063.13735696525
 20
3716.65734547811
 30
0.0
 11
4487.137356965253
 21
3716.65734547811
 31
0.0
  0
LINE
  5
1AE3D
330
747D
100
AcDbEntity
  8
細線
100
AcDbLine
 10
2063.13735696525
 20
3651.65734547811
 30
0.0
 11
4487.137356965253
 21
3651.65734547811
 31
0.0
  0
LINE
  5
1AE3E
330
747D
100
AcDbEntity
  8
細線
100
AcDbLine
 10
2063.13735696525
 20
3586.657345478111
 30
0.0
 11
4487.137356965253
 21
3586.657345478111
 31
0.0
  0
LINE
  5
1AE3F
330
747D
100
AcDbEntity
  8
細線
100
AcDbLine
 10
2063.13735696525
 20
3521.65734547811
 30
0.0
 11
4487.137356965253
 21
3521.65734547811
 31
0.0
  0
LINE
  5
1AE40
330
747D
100
AcDbEntity
  8
細線
100
AcDbLine
 10
2063.13735696525
 20
4041.657345478109
 30
0.0
 11
4487.137356965253
 21
4041.657345478109
 31
0.0
  0
LINE
  5
1AE41
330
747D
100
AcDbEntity
  8
細線
100
AcDbLine
 10
2063.13735696525
 20
3976.65734547811
 30
0.0
 11
4487.137356965253
 21
3976.65734547811
 31
0.0
  0
LINE
  5
1AE42
330
747D
100
AcDbEntity
  8
細線
100
AcDbLine
 10
2063.13735696525
 20
3911.65734547811
 30
0.0
 11
4487.137356965253
 21
3911.65734547811
 31
0.0
  0
ARC
  5
1AE43
330
747D
100
AcDbEntity
  8
細線
 48
50.0
100
AcDbCircle
 10
2975.137356965253
 20
2839.15734547811
 30
0.0
 40
15.0
100
AcDbArc
 50
90.0
 51
270.0
  0
ARC
  5
1AE44
330
747D
100
AcDbEntity
  8
細線
 48
50.0
100
AcDbCircle
 10
3075.137356965254
 20
2839.15734547811
 30
0.0
 40
15.0
100
AcDbArc
 50
270.0
 51
90.0
  0
LINE
  5
1AE45
330
747D
100
AcDbEntity
  8
細線
 48
50.0
100
AcDbLine
 10
3575.137356965254
 20
2824.15734547811
 30
0.0
 11
3475.137356965254
 21
2824.15734547811
 31
0.0
  0
LINE
  5
1AE46
330
747D
100
AcDbEntity
  8
細線
 48
50.0
100
AcDbLine
 10
3475.137356965254
 20
2854.15734547811
 30
0.0
 11
3575.137356965254
 21
2854.15734547811
 31
0.0
  0
ARC
  5
1AE47
330
747D
100
AcDbEntity
  8
細線
 48
50.0
100
AcDbCircle
 10
3475.137356965254
 20
2839.15734547811
 30
0.0
 40
15.0
100
AcDbArc
 50
90.0
 51
270.0
  0
ARC
  5
1AE48
330
747D
100
AcDbEntity
  8
細線
 48
50.0
100
AcDbCircle
 10
3575.137356965254
 20
2839.15734547811
 30
0.0
 40
15.0
100
AcDbArc
 50
270.0
 51
90.0
  0
CIRCLE
  5
1AE49
330
747D
100
AcDbEntity
  8
細線
 48
50.0
100
AcDbCircle
 10
3275.137356965254
 20
3164.15734547811
 30
0.0
 40
18.0
  0
LINE
  5
1AE4A
330
747D
100
AcDbEntity
  8
部品1
100
AcDbLine
 10
7117.137356965257
 20
4201.65734547811
 30
0.0
 11
7117.137356965253
 21
2276.65734547811
 31
0.0
  0
LINE
  5
1AE4B
330
747D
100
AcDbEntity
  8
部品1
100
AcDbLine
 10
7165.137356965255
 20
4201.657345478111
 30
0.0
 11
7165.137356965253
 21
2126.65734547811
 31
0.0
  0
LINE
  5
1AE4E
330
747D
100
AcDbEntity
  8
部品1
100
AcDbLine
 10
7323.137356965254
 20
4201.65734547811
 30
0.0
 11
7323.137356965258
 21
2276.657345478111
 31
0.0
  0
LINE
  5
1AE50
330
747D
100
AcDbEntity
  8
部品1
100
AcDbLine
 10
7275.137356965256
 20
4201.657345478111
 30
0.0
 11
7275.137356965252
 21
2126.65734547811
 31
0.0
  0
LINE
  5
1AE51
330
747D
100
AcDbEntity
  8
部品1
100
AcDbLine
 10
7275.137356965256
 20
4201.65734547811
 30
0.0
 11
9850.137356965255
 21
4201.65734547811
 31
0.0
  0
LINE
  5
1AE56
330
747D
100
AcDbEntity
  8
細線
100
AcDbLine
 10
4487.137356965257
 20
2286.65734547811
 30
0.0
 11
2063.13735696525
 21
2286.65734547811
 31
0.0
  0
LINE
  5
1AE5D
330
747D
100
AcDbEntity
  8
部品1
100
AcDbLine
 10
4645.137356965256
 20
4201.65734547811
 30
0.0
 11
4645.137356965252
 21
2126.65734547811
 31
0.0
  0
LINE
  5
1AE5E
330
747D
100
AcDbEntity
  8
部品1
100
AcDbLine
 10
4693.137356965257
 20
4201.65734547811
 30
0.0
 11
4693.137356965257
 21
2276.65734547811
 31
0.0
  0
LINE
  5
1AE5F
330
747D
100
AcDbEntity
  8
部品1
100
AcDbLine
 10
4535.137356965256
 20
4201.65734547811
 30
0.0
 11
4535.137356965253
 21
2126.65734547811
 31
0.0
  0
LINE
  5
1AE60
330
747D
100
AcDbEntity
  8
部品1
100
AcDbLine
 10
4487.137356965257
 20
4201.65734547811
 30
0.0
 11
4487.137356965253
 21
2276.65734547811
 31
0.0
  0
LINE
  5
1AE6C
330
747D
100
AcDbEntity
  8
部品1
100
AcDbLine
 10
2015.137356965257
 20
2226.65734547811
 30
0.0
 11
4535.137356965253
 21
2226.65734547811
 31
0.0
  0
LINE
  5
1AE8B
330
747D
100
AcDbEntity
  8
部品1
100
AcDbLine
 10
2015.137356965257
 20
2276.65734547811
 30
0.0
 11
4535.137356965253
 21
2276.65734547811
 31
0.0
  0
LINE
  5
1AE8E
330
747D
100
AcDbEntity
  8
部品1
100
AcDbLine
 10
7275.137356965256
 20
2276.65734547811
 30
0.0
 11
9795.137356965256
 21
2276.65734547811
 31
0.0
  0
LINE
  5
1AE8F
330
747D
100
AcDbEntity
  8
部品1
100
AcDbLine
 10
7275.137356965256
 20
2226.65734547811
 30
0.0
 11
9795.137356965256
 21
2226.65734547811
 31
0.0
  0
LINE
  5
1AE9A
330
747D
100
AcDbEntity
  8
Ｇ．Ｌ
100
AcDbLine
 10
1284.1257331812
 20
2126.65734547811
 30
0.0
 11
15798.24446421825
 21
2126.65734547811
 31
0.0
  0
TEXT
  5
1AEBC
330
747D
100
AcDbEntity
  8
部品1
100
AcDbText
 10
5613.321633680065
 20
5798.149133041406
 30
0.0
 40
135.0
  1
平面図
  7
STYLE2
100
AcDbText
  0
LWPOLYLINE
  5
1AEBD
330
747D
100
AcDbEntity
  8
部品1
100
AcDbPolyline
 90
        4
 70
     1
 43
0.0
 10
5523.402023851027
 20
5991.042662259929
 10
5523.402023851027
 20
5751.150340714398
 10
6286.872690079468
 20
5751.150340714398
 10
6286.872690079468
 20
5991.042662259929
  0
DIMENSION
  5
1AEBE
330
747D
100
AcDbEntity
  8
寸法
 48
50.0
100
AcDbDimension
  2
*D28
 10
1960.13735696526
 20
5000.750514817583
 30
0.0
 11
5905.137356965257
 21
5100.762325841206
 31
0.0
 70
    32
  1
柱外寸法 N X 2630
 71
     5
 42
7889.999999999993
  3
INABA_S40G
100
AcDbAlignedDimension
 13
9850.137356965253
 23
4601.657345478114
 33
0.0
 14
1960.13735696526
 24
4601.657345478116
 34
0.0
100
AcDbRotatedDimension
  0
DIMENSION
  5
1AEBF
330
747D
100
AcDbEntity
  8
寸法
 48
50.0
100
AcDbDimension
  2
*D29
 10
9900.137356965252
 20
5217.276614436029
 30
0.0
 11
5905.137356965257
 21
5317.288425459651
 31
0.0
 70
    32
  1
N X 2630+100
 71
     5
 42
7989.999999999993
  3
INABA_S40G
100
AcDbAlignedDimension
 13
1910.13735696526
 23
4601.657345478114
 33
0.0
 14
9900.137356965252
 24
4601.657345478113
 34
0.0
100
AcDbRotatedDimension
  0
DIMENSION
  5
1AEC0
330
747D
100
AcDbEntity
  8
寸法
 48
50.0
100
AcDbDimension
  2
*D30
 10
9850.137356965253
 20
5000.750514817583
 30
0.0
 11
10213.62263833949
 21
5000.750514817583
 31
0.0
 70
   160
 71
     5
 42
50.0
  3
INABA_S40G
100
AcDbAlignedDimension
 13
9900.137356965252
 23
4601.657345478113
 33
0.0
 14
9850.137356965253
 24
4601.657345478114
 34
0.0
100
AcDbRotatedDimension
  0
DIMENSION
  5
1AEC1
330
747D
100
AcDbEntity
  8
寸法
 48
50.0
100
AcDbDimension
  2
*D31
 10
1910.13735696526
 20
5000.750514817583
 30
0.0
 11
1596.652075591013
 21
5000.750514817583
 31
0.0
 70
   160
 71
     5
 42
50.0
  3
INABA_S40G
100
AcDbAlignedDimension
 13
1960.13735696526
 23
4601.657345478116
 33
0.0
 14
1910.13735696526
 24
4601.657345478114
 34
0.0
100
AcDbRotatedDimension
1001
ACAD
1000
DSTYLE
1002
{
1002
}
  0
LINE
  5
1AEC2
330
747D
100
AcDbEntity
  8
部品1
 48
50.0
100
AcDbLine
 10
7220.137356965253
 20
4201.65734547811
 30
0.0
 11
7220.137356965252
 21
4460.657345478113
 31
0.0
  0
LINE
  5
1AEC3
330
747D
100
AcDbEntity
  8
部品1
 48
50.0
100
AcDbLine
 10
7210.137356965252
 20
4460.657345478113
 30
0.0
 11
7210.137356965249
 21
4601.657345478114
 31
0.0
  0
LINE
  5
1AEF4
330
747D
100
AcDbEntity
  8
部品1
100
AcDbLine
 10
4590.137356965249
 20
4366.65734547811
 30
0.0
 11
7220.137356965252
 21
4366.65734547811
 31
0.0
  0
LINE
  5
1AEF5
330
747D
100
AcDbEntity
  8
部品1
100
AcDbLine
 10
7220.13735696525
 20
4366.65734547811
 30
0.0
 11
9850.13735696525
 21
4366.65734547811
 31
0.0
  0
ARC
  5
1AEF6
330
747D
100
AcDbEntity
  8
部品1
100
AcDbCircle
 10
9892.728935858821
 20
4594.657345478114
 30
0.0
 40
7.0
100
AcDbArc
 50
356.7526572096623
 51
90.0
  0
ARC
  5
1AEF7
330
747D
100
AcDbEntity
  8
部品1
100
AcDbCircle
 10
9879.513612397786
 20
4467.657345478113
 30
0.0
 40
7.0
100
AcDbArc
 50
270.0
 51
356.7526572096623
  0
ARC
  5
1AEF8
330
747D
100
AcDbEntity
  8
部品1
 48
50.0
100
AcDbCircle
 10
9897.885422608467
 20
4574.3243446398
 30
0.0
 40
0.7
100
AcDbArc
 50
277.6581272073635
 51
356.7526572096103
  0
ARC
  5
1AEF9
330
747D
100
AcDbEntity
  8
部品1
 48
50.0
100
AcDbCircle
 10
9889.649392083622
 20
4482.124344639796
 30
0.0
 40
0.7
100
AcDbArc
 50
277.6581272073635
 51
356.7526572097143
  0
ARC
  5
1AEFA
330
747D
100
AcDbEntity
  8
部品1
 48
50.0
100
AcDbCircle
 10
9890.142461192183
 20
4478.457345478113
 30
0.0
 40
3.0
100
AcDbArc
 50
97.65812720736347
 51
176.7526572096623
  0
ARC
  5
1AEFB
330
747D
100
AcDbEntity
  8
部品1
 48
50.0
100
AcDbCircle
 10
9898.378491717027
 20
4570.657345478113
 30
0.0
 40
3.0
100
AcDbArc
 50
97.65812720736347
 51
176.7526572096623
  0
LINE
  5
1AEFC
330
747D
100
AcDbEntity
  8
部品1
100
AcDbLine
 10
9895.383308820841
 20
4570.827284933216
 30
0.0
 11
9890.348268092729
 21
4482.084692100274
 31
0.0
  0
LINE
  5
1AEFD
330
747D
100
AcDbEntity
  8
部品1
100
AcDbLine
 10
9887.147278295998
 20
4478.627284933216
 30
0.0
 11
9886.502372488886
 21
4467.260820082876
 31
0.0
  0
LINE
  5
1AEFE
330
747D
100
AcDbEntity
  8
細線
 48
50.0
100
AcDbLine
 10
9867.137356965253
 20
4601.657345478114
 30
0.0
 11
9867.137356965253
 21
4460.657345478113
 31
0.0
  0
LINE
  5
1AEFF
330
747D
100
AcDbEntity
  8
部品1
100
AcDbLine
 10
9899.71769594992
 20
4594.260820082872
 30
0.0
 11
9898.584298617574
 21
4574.284692100274
 31
0.0
  0
LINE
  5
1AF00
330
747D
100
AcDbEntity
  8
細線
 48
50.0
100
AcDbLine
 10
9889.742675428493
 20
4481.430588041582
 30
0.0
 11
7210.137356965252
 21
4481.430588041901
 31
0.0
  0
LINE
  5
1AF01
330
747D
100
AcDbEntity
  8
細線
 48
50.0
100
AcDbLine
 10
9897.978705953338
 20
4573.630588041582
 30
0.0
 11
7210.137356965252
 21
4573.630588041582
 31
0.0
  0
LINE
  5
1AF02
330
747D
100
AcDbEntity
  8
部品1
 48
50.0
100
AcDbLine
 10
9879.513612397786
 20
4460.657345478113
 30
0.0
 11
7220.137356965252
 21
4460.657345478113
 31
0.0
  0
LINE
  5
1AF03
330
747D
100
AcDbEntity
  8
部品1
 48
50.0
100
AcDbLine
 10
9892.728935858821
 20
4601.657345478114
 30
0.0
 11
7210.137356965252
 21
4601.657345478114
 31
0.0
  0
LINE
  5
1AF30
330
747D
100
AcDbEntity
  8
部品1
100
AcDbLine
 10
1960.137356965253
 20
4366.65734547811
 30
0.0
 11
4590.137356965249
 21
4366.65734547811
 31
0.0
  0
LINE
  5
1AF31
330
747D
100
AcDbEntity
  8
部品1
100
AcDbLine
 10
1910.557017980591
 20
4594.260820082872
 30
0.0
 11
1911.69041531294
 21
4574.284692100274
 31
0.0
  0
LINE
  5
1AF32
330
747D
100
AcDbEntity
  8
部品1
100
AcDbLine
 10
1923.127435634513
 20
4478.627284933216
 30
0.0
 11
1923.772341441621
 21
4467.260820082876
 31
0.0
  0
LINE
  5
1AF33
330
747D
100
AcDbEntity
  8
部品1
100
AcDbLine
 10
1914.891405109669
 20
4570.827284933216
 30
0.0
 11
1919.926445837776
 21
4482.084692100274
 31
0.0
  0
ARC
  5
1AF34
330
747D
100
AcDbEntity
  8
部品1
 48
50.0
100
AcDbCircle
 10
1911.896222213483
 20
4570.657345478113
 30
0.0
 40
3.0
100
AcDbArc
 50
3.247342790337682
 51
82.34187279263654
  0
ARC
  5
1AF35
330
747D
100
AcDbEntity
  8
部品1
 48
50.0
100
AcDbCircle
 10
1920.132252738327
 20
4478.457345478113
 30
0.0
 40
3.0
100
AcDbArc
 50
3.247342790337682
 51
82.34187279263654
  0
ARC
  5
1AF36
330
747D
100
AcDbEntity
  8
部品1
 48
50.0
100
AcDbCircle
 10
1920.625321846888
 20
4482.124344639796
 30
0.0
 40
0.7
100
AcDbArc
 50
183.2473427902856
 51
262.3418727926365
  0
ARC
  5
1AF37
330
747D
100
AcDbEntity
  8
部品1
 48
50.0
100
AcDbCircle
 10
1912.389291322044
 20
4574.3243446398
 30
0.0
 40
0.7
100
AcDbArc
 50
183.2473427903897
 51
262.3418727926365
  0
ARC
  5
1AF38
330
747D
100
AcDbEntity
  8
部品1
100
AcDbCircle
 10
1930.761101532724
 20
4467.657345478113
 30
0.0
 40
7.0
100
AcDbArc
 50
183.2473427903377
 51
270.0
  0
ARC
  5
1AF39
330
747D
100
AcDbEntity
  8
部品1
100
AcDbCircle
 10
1917.545778071686
 20
4594.657345478114
 30
0.0
 40
7.0
100
AcDbArc
 50
90.0
 51
183.2473427903377
  0
LINE
  5
1AF3A
330
747D
100
AcDbEntity
  8
細線
 48
50.0
100
AcDbLine
 10
1943.137356965261
 20
4601.657345478114
 30
0.0
 11
1943.137356965261
 21
4460.657345478113
 31
0.0
  0
LINE
  5
1AF3B
330
747D
100
AcDbEntity
  8
細線
 48
50.0
100
AcDbLine
 10
4580.137356965249
 20
4481.430588041898
 30
0.0
 11
1920.532038502057
 21
4481.430588041901
 31
0.0
  0
LINE
  5
1AF3C
330
747D
100
AcDbEntity
  8
細線
 48
50.0
100
AcDbLine
 10
4580.137356965249
 20
4573.630588041582
 30
0.0
 11
1912.29600797722
 21
4573.630588041902
 31
0.0
  0
LINE
  5
1AF3D
330
747D
100
AcDbEntity
  8
部品1
 48
50.0
100
AcDbLine
 10
4590.137356965249
 20
4460.657345478113
 30
0.0
 11
1930.761101532724
 21
4460.657345478113
 31
0.0
  0
LINE
  5
1AF3E
330
747D
100
AcDbEntity
  8
部品1
 48
50.0
100
AcDbLine
 10
4580.137356965249
 20
4601.657345478114
 30
0.0
 11
1917.545778071686
 21
4601.657345478114
 31
0.0
  0
LINE
  5
1AF6B
330
747D
100
AcDbEntity
  8
部品1
 48
50.0
100
AcDbLine
 10
4580.137356965249
 20
4460.657345478113
 30
0.0
 11
4580.137356965249
 21
4601.657345478114
 31
0.0
  0
LINE
  5
1AF6C
330
747D
100
AcDbEntity
  8
部品1
 48
50.0
100
AcDbLine
 10
4590.137356965249
 20
4201.65734547811
 30
0.0
 11
4590.137356965249
 21
4460.657345478113
 31
0.0
  0
LINE
  5
1AF6D
330
747D
100
AcDbEntity
  8
細線
 48
50.0
100
AcDbLine
 10
7210.137356965249
 20
4573.630588041582
 30
0.0
 11
4580.137356965249
 21
4573.630588041582
 31
0.0
  0
LINE
  5
1AF6E
330
747D
100
AcDbEntity
  8
部品1
 48
50.0
100
AcDbLine
 10
7210.137356965251
 20
4601.657345478114
 30
0.0
 11
4580.137356965249
 21
4601.657345478114
 31
0.0
  0
LINE
  5
1AF6F
330
747D
100
AcDbEntity
  8
細線
 48
50.0
100
AcDbLine
 10
7210.137356965252
 20
4481.430588041898
 30
0.0
 11
4580.137356965249
 21
4481.430588041898
 31
0.0
  0
LINE
  5
1AF70
330
747D
100
AcDbEntity
  8
部品1
 48
50.0
100
AcDbLine
 10
7220.137356965253
 20
4460.657345478113
 30
0.0
 11
4590.137356965249
 21
4460.657345478113
 31
0.0
  0
TEXT
  5
1AF72
330
747D
100
AcDbEntity
  8
部品1
100
AcDbText
 10
5613.927427588997
 20
1383.763816259594
 30
0.0
 40
135.0
  1
正面図
  7
STYLE2
100
AcDbText
  0
LWPOLYLINE
  5
1AF73
330
747D
100
AcDbEntity
  8
部品1
100
AcDbPolyline
 90
        4
 70
     1
 43
0.0
 10
5523.402023851041
 20
1576.657345478117
 10
5523.402023851041
 20
1336.765023932585
 10
6286.872690079481
 20
1336.765023932585
 10
6286.872690079481
 20
1576.657345478117
  0
TEXT
  5
1AF75
330
747D
100
AcDbEntity
  8
部品1
100
AcDbText
 10
13018.64550708213
 20
1383.763816259594
 30
0.0
 40
135.0
  1
側面図
  7
STYLE2
100
AcDbText
  0
LWPOLYLINE
  5
1AF76
330
747D
100
AcDbEntity
  8
部品1
100
AcDbPolyline
 90
        4
 70
     1
 43
0.0
 10
12929.19940565853
 20
1576.657345478117
 10
12929.19940565853
 20
1336.765023932585
 10
13692.67007188696
 20
1336.765023932585
 10
13692.67007188696
 20
1576.657345478117
  0
LINE
  5
1AF77
330
747D
100
AcDbEntity
  8
部品1
100
AcDbLine
 10
14360.93473877273
 20
4366.65734547811
 30
0.0
 11
14360.93473877273
 21
2276.657345478112
 31
0.0
  0
LINE
  5
1AF78
330
747D
100
AcDbEntity
  8
細線
 48
50.0
100
AcDbLine
 10
14283.43473877274
 20
4366.657345478108
 30
0.0
 11
14283.43473877274
 21
2276.657345478111
 31
0.0
  0
LINE
  5
1AF79
330
747D
100
AcDbEntity
  8
細線
 48
50.0
100
AcDbLine
 10
14298.43473877274
 20
4366.657345478108
 30
0.0
 11
14298.43473877274
 21
2276.657345478111
 31
0.0
  0
LINE
  5
1AF7A
330
747D
100
AcDbEntity
  8
細線
 48
50.0
100
AcDbLine
 10
14158.43473877274
 20
4366.657345478108
 30
0.0
 11
14158.43473877274
 21
2276.657345478111
 31
0.0
  0
LINE
  5
1AF7B
330
747D
100
AcDbEntity
  8
細線
 48
50.0
100
AcDbLine
 10
14143.43473877274
 20
4366.657345478108
 30
0.0
 11
14143.43473877274
 21
2276.657345478111
 31
0.0
  0
LINE
  5
1AF7C
330
747D
100
AcDbEntity
  8
細線
 48
50.0
100
AcDbLine
 10
14003.43473877274
 20
4366.657345478108
 30
0.0
 11
14003.43473877274
 21
2276.657345478111
 31
0.0
  0
LINE
  5
1AF7D
330
747D
100
AcDbEntity
  8
細線
 48
50.0
100
AcDbLine
 10
14018.43473877274
 20
4366.657345478108
 30
0.0
 11
14018.43473877274
 21
2276.657345478111
 31
0.0
  0
LINE
  5
1AF7E
330
747D
100
AcDbEntity
  8
部品1
100
AcDbLine
 10
13940.93473877274
 20
4366.657345478108
 30
0.0
 11
13940.93473877274
 21
2276.657345478111
 31
0.0
  0
DIMENSION
  5
1AF7F
330
747D
100
AcDbEntity
  8
寸法
 48
50.0
100
AcDbDimension
  2
*D32
 10
11165.32633200436
 20
4476.002604351441
 30
0.0
 11
11175.99180726328
 21
4846.849267593139
 31
0.0
 70
   161
 71
     5
 42
140.9999999999991
  3
INABA_S40G
100
AcDbAlignedDimension
 13
11745.33075893132
 23
4600.380094312788
 33
0.0
 14
11741.2773033747
 24
4459.438370547075
 34
0.0
1001
ACAD
1000
DSTYLE
1002
{
1070
   174
1070
     0
1070
   272
1070
     1
1070
   288
1070
     0
1070
   341
1005
0
1002
}
  0
LINE
  5
1AF80
330
747D
100
AcDbEntity
  8
細線
 48
50.0
100
AcDbLine
 10
14703.43473877274
 20
4366.65734547811
 30
0.0
 11
14703.43473877274
 21
2276.657345478111
 31
0.0
  0
LINE
  5
1AF81
330
747D
100
AcDbEntity
  8
細線
 48
50.0
100
AcDbLine
 10
14718.43473877274
 20
4366.65734547811
 30
0.0
 11
14718.43473877274
 21
2276.657345478111
 31
0.0
  0
LINE
  5
1AF82
330
747D
100
AcDbEntity
  8
細線
 48
50.0
100
AcDbLine
 10
14578.43473877274
 20
4366.65734547811
 30
0.0
 11
14578.43473877274
 21
2276.657345478111
 31
0.0
  0
LINE
  5
1AF83
330
747D
100
AcDbEntity
  8
細線
 48
50.0
100
AcDbLine
 10
14563.43473877274
 20
4366.65734547811
 30
0.0
 11
14563.43473877274
 21
2276.657345478111
 31
0.0
  0
LINE
  5
1AF84
330
747D
100
AcDbEntity
  8
細線
 48
50.0
100
AcDbLine
 10
14423.43473877274
 20
4366.65734547811
 30
0.0
 11
14423.43473877274
 21
2276.657345478111
 31
0.0
  0
LINE
  5
1AF85
330
747D
100
AcDbEntity
  8
細線
 48
50.0
100
AcDbLine
 10
14438.43473877274
 20
4366.65734547811
 30
0.0
 11
14438.43473877274
 21
2276.657345478111
 31
0.0
  0
LINE
  5
1AF86
330
747D
100
AcDbEntity
  8
部品1
100
AcDbLine
 10
13100.93473877274
 20
4366.657345478108
 30
0.0
 11
13100.93473877274
 21
2276.657345478109
 31
0.0
  0
LINE
  5
1AF87
330
747D
100
AcDbEntity
  8
細線
 48
50.0
100
AcDbLine
 10
12758.43473877275
 20
4366.657345478108
 30
0.0
 11
12758.43473877275
 21
2276.657345478109
 31
0.0
  0
LINE
  5
1AF88
330
747D
100
AcDbEntity
  8
細線
 48
50.0
100
AcDbLine
 10
12743.43473877274
 20
4366.657345478108
 30
0.0
 11
12743.43473877275
 21
2276.657345478109
 31
0.0
  0
LINE
  5
1AF89
330
747D
100
AcDbEntity
  8
細線
 48
50.0
100
AcDbLine
 10
12883.43473877274
 20
4366.657345478108
 30
0.0
 11
12883.43473877275
 21
2276.657345478109
 31
0.0
  0
LINE
  5
1AF8A
330
747D
100
AcDbEntity
  8
細線
 48
50.0
100
AcDbLine
 10
12898.43473877275
 20
4366.657345478108
 30
0.0
 11
12898.43473877275
 21
2276.657345478109
 31
0.0
  0
LINE
  5
1AF8B
330
747D
100
AcDbEntity
  8
細線
 48
50.0
100
AcDbLine
 10
13038.43473877274
 20
4366.657345478108
 30
0.0
 11
13038.43473877275
 21
2276.657345478109
 31
0.0
  0
LINE
  5
1AF8C
330
747D
100
AcDbEntity
  8
細線
 48
50.0
100
AcDbLine
 10
13023.43473877275
 20
4366.657345478108
 30
0.0
 11
13023.43473877275
 21
2276.657345478109
 31
0.0
  0
LINE
  5
1AF8D
330
747D
100
AcDbEntity
  8
部品1
100
AcDbLine
 10
12680.93473877274
 20
4366.657345478108
 30
0.0
 11
12680.93473877274
 21
2276.657345478109
 31
0.0
  0
DIMENSION
  5
1AF8E
330
747D
100
AcDbEntity
  8
寸法
 48
50.0
100
AcDbDimension
  2
*D33
 10
14915.93473877274
 20
5000.314799057414
 30
0.0
 11
15121.98198286724
 21
5000.314799057414
 31
0.0
 70
   160
 71
     5
 42
80.0
  3
INABA_S40G
100
AcDbAlignedDimension
 13
14835.93473877274
 23
4548.468025089763
 33
0.0
 14
14915.93473877274
 24
4546.657345478112
 34
0.0
100
AcDbRotatedDimension
1001
ACAD
1000
DSTYLE
1002
{
1070
   174
1070
     0
1070
   272
1070
     1
1070
   288
1070
     0
1070
   341
1005
0
1002
}
  0
LINE
  5
1AF8F
330
747D
100
AcDbEntity
  8
細線
 48
50.0
100
AcDbLine
 10
11918.43473877274
 20
4366.657345478108
 30
0.0
 11
11918.43473877274
 21
2276.657345478109
 31
0.0
  0
LINE
  5
1AF90
330
747D
100
AcDbEntity
  8
細線
 48
50.0
100
AcDbLine
 10
11903.43473877274
 20
4366.657345478108
 30
0.0
 11
11903.43473877274
 21
2276.657345478109
 31
0.0
  0
LINE
  5
1AF91
330
747D
100
AcDbEntity
  8
細線
 48
50.0
100
AcDbLine
 10
12043.43473877274
 20
4366.657345478108
 30
0.0
 11
12043.43473877274
 21
2276.657345478109
 31
0.0
  0
LINE
  5
1AF92
330
747D
100
AcDbEntity
  8
細線
 48
50.0
100
AcDbLine
 10
12058.43473877274
 20
4366.657345478108
 30
0.0
 11
12058.43473877274
 21
2276.657345478109
 31
0.0
  0
LINE
  5
1AF93
330
747D
100
AcDbEntity
  8
細線
 48
50.0
100
AcDbLine
 10
12198.43473877274
 20
4366.657345478108
 30
0.0
 11
12198.43473877274
 21
2276.657345478109
 31
0.0
  0
LINE
  5
1AF94
330
747D
100
AcDbEntity
  8
細線
 48
50.0
100
AcDbLine
 10
12183.43473877274
 20
4366.657345478108
 30
0.0
 11
12183.43473877274
 21
2276.657345478109
 31
0.0
  0
LINE
  5
1AF95
330
747D
100
AcDbEntity
  8
細線
 48
50.0
100
AcDbLine
 10
12603.43473877274
 20
4366.657345478108
 30
0.0
 11
12603.43473877274
 21
2276.657345478109
 31
0.0
  0
LINE
  5
1AF96
330
747D
100
AcDbEntity
  8
細線
 48
50.0
100
AcDbLine
 10
12618.43473877275
 20
4366.657345478108
 30
0.0
 11
12618.43473877275
 21
2276.657345478109
 31
0.0
  0
LINE
  5
1AF97
330
747D
100
AcDbEntity
  8
細線
 48
50.0
100
AcDbLine
 10
12478.43473877275
 20
4366.657345478108
 30
0.0
 11
12478.43473877275
 21
2276.657345478109
 31
0.0
  0
LINE
  5
1AF98
330
747D
100
AcDbEntity
  8
細線
 48
50.0
100
AcDbLine
 10
12463.43473877274
 20
4366.657345478108
 30
0.0
 11
12463.43473877274
 21
2276.657345478109
 31
0.0
  0
LINE
  5
1AF99
330
747D
100
AcDbEntity
  8
細線
 48
50.0
100
AcDbLine
 10
12323.43473877274
 20
4366.657345478108
 30
0.0
 11
12323.43473877274
 21
2276.657345478109
 31
0.0
  0
LINE
  5
1AF9A
330
747D
100
AcDbEntity
  8
細線
 48
50.0
100
AcDbLine
 10
12338.43473877274
 20
4366.657345478108
 30
0.0
 11
12338.43473877274
 21
2276.657345478109
 31
0.0
  0
DIMENSION
  5
1AF9B
330
747D
100
AcDbEntity
  8
寸法
 48
50.0
100
AcDbDimension
  2
*D34
 10
11725.93473877274
 20
5230.428391843691
 30
0.0
 11
13320.93473877274
 21
5230.428391843691
 31
0.0
 70
   160
 71
     5
 42
3190.0
  3
INABA_S40G
100
AcDbAlignedDimension
 13
14915.93473877274
 23
4546.657345478109
 33
0.0
 14
11725.93473877274
 24
4601.657345478114
 34
0.0
100
AcDbRotatedDimension
1001
ACAD
1000
DSTYLE
1002
{
1070
   174
1070
     0
1070
   272
1070
     1
1070
   288
1070
     0
1070
   341
1005
0
1002
}
  0
DIMENSION
  5
1AF9C
330
747D
100
AcDbEntity
  8
寸法
 48
50.0
100
AcDbDimension
  2
*D35
 10
11725.93473877274
 20
5000.314799057413
 30
0.0
 11
11416.29694349715
 21
5000.314799057413
 31
0.0
 70
   160
 71
     5
 42
60.0
  3
INABA_S40G
100
AcDbAlignedDimension
 13
11785.93473877274
 23
4597.658963601085
 33
0.0
 14
11725.93473877274
 24
4601.657345478114
 34
0.0
100
AcDbRotatedDimension
1001
ACAD
1000
DSTYLE
1002
{
1070
   174
1070
     0
1070
   272
1070
     1
1070
   288
1070
     0
1070
   341
1005
0
1002
}
  0
DIMENSION
  5
1AF9D
330
747D
100
AcDbEntity
  8
寸法
 48
50.0
100
AcDbDimension
  2
*D36
 10
11785.93473877274
 20
5000.314799057414
 30
0.0
 11
13310.93473877275
 21
5000.314799057414
 31
0.0
 70
   160
  1
柱外寸法<>
 71
     5
 42
3050.0
  3
INABA_S40G
100
AcDbAlignedDimension
 13
14835.93473877274
 23
4548.468025089763
 33
0.0
 14
11785.93473877274
 24
4597.658963601085
 34
0.0
100
AcDbRotatedDimension
1001
ACAD
1000
DSTYLE
1002
{
1070
   174
1070
     0
1070
   272
1070
     1
1070
   288
1070
     0
1070
   341
1005
0
1002
}
  0
LINE
  5
1AF9E
330
747D
100
AcDbEntity
  8
部品1
100
AcDbLine
 10
12260.93473877274
 20
4366.657345478108
 30
0.0
 11
12260.93473877274
 21
2276.657345478109
 31
0.0
  0
LINE
  5
1AF9F
330
747D
100
AcDbEntity
  8
細線
 48
50.0
100
AcDbLine
 10
13443.43473877275
 20
4366.657345478108
 30
0.0
 11
13443.43473877275
 21
2276.657345478109
 31
0.0
  0
LINE
  5
1AFA0
330
747D
100
AcDbEntity
  8
細線
 48
50.0
100
AcDbLine
 10
13458.43473877274
 20
4366.657345478108
 30
0.0
 11
13458.43473877274
 21
2276.657345478109
 31
0.0
  0
LINE
  5
1AFA1
330
747D
100
AcDbEntity
  8
細線
 48
50.0
100
AcDbLine
 10
13318.43473877274
 20
4366.657345478108
 30
0.0
 11
13318.43473877274
 21
2276.657345478109
 31
0.0
  0
LINE
  5
1AFA2
330
747D
100
AcDbEntity
  8
細線
 48
50.0
100
AcDbLine
 10
13303.43473877275
 20
4366.657345478108
 30
0.0
 11
13303.43473877275
 21
2276.657345478109
 31
0.0
  0
LINE
  5
1AFA3
330
747D
100
AcDbEntity
  8
細線
 48
50.0
100
AcDbLine
 10
13163.43473877275
 20
4366.657345478108
 30
0.0
 11
13163.43473877275
 21
2276.657345478109
 31
0.0
  0
LINE
  5
1AFA4
330
747D
100
AcDbEntity
  8
細線
 48
50.0
100
AcDbLine
 10
13178.43473877274
 20
4366.657345478108
 30
0.0
 11
13178.43473877274
 21
2276.657345478109
 31
0.0
  0
TEXT
  5
1AFA5
330
747D
100
AcDbEntity
  8
部品1
 48
50.0
100
AcDbText
 10
13655.80388282811
 20
4623.926438416416
 30
0.0
 40
120.0
  1
32
 50
90.0
  7
STYLE1
100
AcDbText
  0
TEXT
  5
1AFA6
330
747D
100
AcDbEntity
  8
部品1
 48
50.0
100
AcDbText
 10
13178.17086016302
 20
4761.427696634699
 30
0.0
 40
120.0
  1
1000
  7
STYLE1
100
AcDbText
  0
LINE
  5
1AFA7
330
747D
100
AcDbEntity
  8
部品1
 48
50.0
100
AcDbLine
 10
13489.90302493929
 20
4725.543674482265
 30
0.0
 11
13489.90302493929
 21
4709.343674482266
 31
0.0
  0
LINE
  5
1AFA8
330
747D
100
AcDbEntity
  8
部品1
 48
50.0
100
AcDbLine
 10
13189.9030249393
 20
4725.543674482265
 30
0.0
 11
13489.90302493929
 21
4725.543674482265
 31
0.0
  0
LINE
  5
1AFA9
330
747D
100
AcDbEntity
  8
部品1
100
AcDbLine
 10
11733.47972512971
 20
4600.375080812375
 30
0.0
 11
14908.54661563421
 21
4545.298143187248
 31
0.0
  0
LINE
  5
1AFAA
330
747D
100
AcDbEntity
  8
部品1
100
AcDbLine
 10
11741.2773033747
 20
4459.438370547075
 30
0.0
 11
14890.5984393126
 21
4420.409945312871
 31
0.0
  0
LINE
  5
1AFAB
330
747D
100
AcDbEntity
  8
細線
 48
50.0
100
AcDbLine
 10
11758.93473877275
 20
4599.057021853513
 30
0.0
 11
11753.64563721724
 21
4458.971389226159
 31
0.0
  0
LINE
  5
1AFAC
330
747D
100
AcDbEntity
  8
細線
 48
50.0
100
AcDbLine
 10
14882.90402196644
 20
4545.810767957578
 30
0.0
 11
14878.18705588475
 21
4420.878552022661
 31
0.0
  0
LINE
  5
1AFAD
330
747D
100
AcDbEntity
  8
部品1
 48
50.0
100
AcDbLine
 10
11726.11902468585
 20
4593.250891642801
 30
0.0
 11
11726.49928446366
 21
4573.32392719639
 31
0.0
  0
LINE
  5
1AFAE
330
747D
100
AcDbEntity
  8
部品1
 48
50.0
100
AcDbLine
 10
11729.56805656991
 20
4569.748645702917
 30
0.0
 11
11731.27195806127
 21
4480.458148996271
 31
0.0
  0
LINE
  5
1AFAF
330
747D
100
AcDbEntity
  8
細線
 48
50.0
100
AcDbLine
 10
11726.97416187356
 20
4572.674427319471
 30
0.0
 11
14912.61014661873
 21
4517.050222678643
 31
0.0
  0
LINE
  5
1AFB0
330
747D
100
AcDbEntity
  8
細線
 48
50.0
100
AcDbLine
 10
11731.73463711085
 20
4479.812915621606
 30
0.0
 11
14901.73830154149
 21
4440.003596647112
 31
0.0
  0
LINE
  5
1AFB1
330
747D
100
AcDbEntity
  8
部品1
 48
50.0
100
AcDbLine
 10
11734.34073016752
 20
4476.882867502798
 30
0.0
 11
11734.54268278795
 21
4466.299832109705
 31
0.0
  0
ARC
  5
1AFB2
330
747D
100
AcDbEntity
  8
部品1
 48
50.0
100
AcDbCircle
 10
11733.11775051419
 20
4593.384446050229
 30
0.0
 40
7.0
100
AcDbArc
 50
87.03587545283093
 51
181.0932240293156
  0
ARC
  5
1AFB3
330
747D
100
AcDbEntity
  8
部品1
 48
50.0
100
AcDbCircle
 10
11741.54140861629
 20
4466.433386517134
 30
0.0
 40
7.0
100
AcDbArc
 50
181.0932240293156
 51
267.8377559869487
  0
ARC
  5
1AFB4
330
747D
100
AcDbEntity
  8
部品1
100
AcDbCircle
 10
11731.34127624109
 20
4476.825629899614
 30
0.0
 40
3.0
100
AcDbArc
 50
1.093224029315636
 51
80.18775403169653
  0
ARC
  5
1AFB5
330
747D
100
AcDbEntity
  8
部品1
100
AcDbCircle
 10
11726.56860264348
 20
4569.691408099734
 30
0.0
 40
3.0
100
AcDbArc
 50
1.093224029315636
 51
80.18775403169653
  0
ARC
  5
1AFB6
330
747D
100
AcDbEntity
  8
部品1
100
AcDbCircle
 10
11727.1991570465
 20
4573.337282637132
 30
0.0
 40
0.7
100
AcDbArc
 50
181.0932240292114
 51
260.1877540314867
  0
ARC
  5
1AFB7
330
747D
100
AcDbEntity
  8
部品1
100
AcDbCircle
 10
11731.97183064411
 20
4480.471504437013
 30
0.0
 40
0.7
100
AcDbArc
 50
181.0932240292635
 51
260.1877540314867
  0
LINE
  5
1AFB8
330
747D
100
AcDbEntity
  8
部品1
 48
50.0
100
AcDbLine
 10
14915.14864158345
 20
4537.598497752327
 30
0.0
 11
14913.11802039248
 21
4517.653456494548
 31
0.0
  0
LINE
  5
1AFB9
330
747D
100
AcDbEntity
  8
部品1
 48
50.0
100
AcDbLine
 10
14909.76545390799
 20
4514.342822421638
 30
0.0
 11
14902.25867464316
 21
4440.610201676627
 31
0.0
  0
LINE
  5
1AFBA
330
747D
100
AcDbEntity
  8
部品1
 48
50.0
100
AcDbLine
 10
14898.90610815868
 20
4437.299567603715
 30
0.0
 11
14897.82654511893
 21
4426.695950610155
 31
0.0
  0
ARC
  5
1AFBB
330
747D
100
AcDbEntity
  8
部品1
 48
50.0
100
AcDbCircle
 10
14908.1846410187
 20
4538.307508425103
 30
0.0
 40
7.0
100
AcDbArc
 50
354.1866997665662
 51
87.03587545283093
  0
ARC
  5
1AFBC
330
747D
100
AcDbEntity
  8
部品1
 48
50.0
100
AcDbCircle
 10
14890.86254455418
 20
4427.404961282929
 30
0.0
 40
7.0
100
AcDbArc
 50
267.8377559869487
 51
354.1866997665662
  0
ARC
  5
1AFBD
330
747D
100
AcDbEntity
  8
部品1
100
AcDbCircle
 10
14901.89067982929
 20
4436.995705886811
 30
0.0
 40
3.0
100
AcDbArc
 50
95.0921697642102
 51
174.1866997665661
  0
ARC
  5
1AFBE
330
747D
100
AcDbEntity
  8
部品1
100
AcDbCircle
 10
14912.75002557861
 20
4514.038960704737
 30
0.0
 40
3.0
100
AcDbArc
 50
95.0921697642102
 51
174.1866997665661
  0
ARC
  5
1AFBF
330
747D
100
AcDbEntity
  8
部品1
100
AcDbCircle
 10
14912.42162033601
 20
4517.724357561824
 30
0.0
 40
0.7
100
AcDbArc
 50
275.0921697642102
 51
354.1866997665662
  0
ARC
  5
1AFC0
330
747D
100
AcDbEntity
  8
部品1
100
AcDbCircle
 10
14901.56227458668
 20
4440.681102743901
 30
0.0
 40
0.7
100
AcDbArc
 50
275.0921697642102
 51
354.1866997667087
  0
LINE
  5
1AFC1
330
747D
100
AcDbEntity
  8
部品1
100
AcDbLine
 10
13164.44801129626
 20
4726.861733441126
 30
0.0
 11
13489.90302493929
 21
4709.343674482266
 31
0.0
  0
LINE
  5
1AFC2
330
747D
100
AcDbEntity
  8
部品1
100
AcDbLine
 10
13520.93473877274
 20
4366.657345478108
 30
0.0
 11
13520.93473877274
 21
2276.657345478111
 31
0.0
  0
LINE
  5
1AFC3
330
747D
100
AcDbEntity
  8
細線
 48
50.0
100
AcDbLine
 10
13598.43473877274
 20
4366.657345478108
 30
0.0
 11
13598.43473877274
 21
2276.657345478111
 31
0.0
  0
LINE
  5
1AFC4
330
747D
100
AcDbEntity
  8
細線
 48
50.0
100
AcDbLine
 10
13583.43473877275
 20
4366.657345478108
 30
0.0
 11
13583.43473877275
 21
2276.657345478111
 31
0.0
  0
LINE
  5
1AFC5
330
747D
100
AcDbEntity
  8
細線
 48
50.0
100
AcDbLine
 10
13723.43473877274
 20
4366.657345478108
 30
0.0
 11
13723.43473877274
 21
2276.657345478111
 31
0.0
  0
LINE
  5
1AFC6
330
747D
100
AcDbEntity
  8
細線
 48
50.0
100
AcDbLine
 10
13738.43473877274
 20
4366.657345478108
 30
0.0
 11
13738.43473877274
 21
2276.657345478111
 31
0.0
  0
LINE
  5
1AFC7
330
747D
100
AcDbEntity
  8
細線
 48
50.0
100
AcDbLine
 10
13878.43473877274
 20
4366.657345478108
 30
0.0
 11
13878.43473877274
 21
2276.657345478111
 31
0.0
  0
LINE
  5
1AFC8
330
747D
100
AcDbEntity
  8
細線
 48
50.0
100
AcDbLine
 10
13863.43473877274
 20
4366.657345478108
 30
0.0
 11
13863.43473877274
 21
2276.657345478111
 31
0.0
  0
DIMENSION
  5
1AFC9
330
747D
100
AcDbEntity
  8
寸法
100
AcDbDimension
  2
*D37
 10
10642.18460958948
 20
4601.657345478114
 30
0.0
 11
10542.17279856585
 21
3414.157345478115
 31
0.0
 70
    32
 71
     5
 42
2375.000000000004
  3
INABA_S40G
100
AcDbAlignedDimension
 13
11785.93473877274
 23
2226.65734547811
 33
0.0
 14
11725.93473877274
 24
4601.657345478114
 34
0.0
 50
90.0
100
AcDbRotatedDimension
1001
ACAD
1000
DSTYLE
1002
{
1070
   174
1070
     0
1070
   272
1070
     1
1070
   288
1070
     0
1070
   341
1005
0
1002
}
  0
LINE
  5
1AFD3
330
747D
100
AcDbEntity
  8
破線
  6
HIDDEN
 48
5.0
100
AcDbLine
 10
11785.93473877274
 20
2126.65734547811
 30
0.0
 11
11785.93473877274
 21
1876.65734547811
 31
0.0
  0
LINE
  5
1AFD4
330
747D
100
AcDbEntity
  8
破線
  6
HIDDEN
 48
5.0
100
AcDbLine
 10
11840.93473877274
 20
2126.65734547811
 30
0.0
 11
11840.93473877274
 21
1876.65734547811
 31
0.0
  0
LINE
  5
1AFD5
330
747D
100
AcDbEntity
  8
破線
  6
HIDDEN
 48
5.0
100
AcDbLine
 10
11785.93473877274
 20
1876.65734547811
 30
0.0
 11
11840.93473877274
 21
1876.65734547811
 31
0.0
  0
LINE
  5
1AFD8
330
747D
100
AcDbEntity
  8
部品1
100
AcDbLine
 10
11840.93473877274
 20
2226.65734547811
 30
0.0
 11
14835.93473877274
 21
2226.65734547811
 31
0.0
  0
DIMENSION
  5
1AFEC
330
747D
100
AcDbEntity
  8
寸法
100
AcDbDimension
  2
*D38
 10
15540.86189674486
 20
4546.657345478109
 30
0.0
 11
15540.86189674486
 21
3381.65734547811
 31
0.0
 70
   160
 71
     5
 42
2320.000000000001
  3
INABA_S40G
100
AcDbAlignedDimension
 13
14835.93473877274
 23
2226.65734547811
 33
0.0
 14
14930.93473877274
 24
4546.657345478109
 34
0.0
 50
90.0
100
AcDbRotatedDimension
1001
ACAD
1000
DSTYLE
1002
{
1070
   288
1070
     1
1002
}
  0
LINE
  5
1AFED
330
747D
100
AcDbEntity
  8
部品1
100
AcDbLine
 10
14780.93473877274
 20
4366.65734547811
 30
0.0
 11
14780.93473877274
 21
2276.65734547811
 31
0.0
  0
LINE
  5
1AFEE
330
747D
100
AcDbEntity
  8
部品1
100
AcDbLine
 10
14835.93473877274
 20
4421.087373259231
 30
0.0
 11
14835.93473877274
 21
2126.65734547811
 31
0.0
  0
DIMENSION
  5
1AFEF
330
747D
100
AcDbEntity
  8
寸法
100
AcDbDimension
  2
*D39
 10
10942.18460958948
 20
2226.657345478111
 30
0.0
 11
10942.18460958948
 21
1842.90734547811
 31
0.0
 70
   160
 71
     5
 42
50.0
  3
INABA_S40G
100
AcDbAlignedDimension
 13
11785.93473877274
 23
2276.65734547811
 33
0.0
 14
11730.93473877274
 24
2226.65734547811
 34
0.0
 50
90.0
100
AcDbRotatedDimension
1001
ACAD
1000
DSTYLE
1002
{
1070
   288
1070
     1
1002
}
  0
DIMENSION
  5
1AFF1
330
747D
100
AcDbEntity
  8
寸法
100
AcDbDimension
  2
*D40
 10
10942.18460958948
 20
2276.657345478111
 30
0.0
 11
10842.17279856586
 21
3321.657345478113
 31
0.0
 70
    32
 71
     5
 42
2090.0
  3
INABA_S40G
100
AcDbAlignedDimension
 13
11785.93473877274
 23
4366.65734547811
 33
0.0
 14
11785.93473877274
 24
2276.65734547811
 34
0.0
 50
90.0
100
AcDbRotatedDimension
1001
ACAD
1000
DSTYLE
1002
{
1070
   288
1070
     1
1002
}
  0
LINE
  5
1AFF2
330
747D
100
AcDbEntity
  8
部品1
100
AcDbLine
 10
11785.93473877274
 20
4458.884946712746
 30
0.0
 11
11785.93473877274
 21
2126.65734547811
 31
0.0
  0
LINE
  5
1AFF3
330
747D
100
AcDbEntity
  8
部品1
100
AcDbLine
 10
11840.93473877274
 20
4366.65734547811
 30
0.0
 11
11840.93473877274
 21
2126.65734547811
 31
0.0
  0
LINE
  5
1AFF4
330
747D
100
AcDbEntity
  8
部品1
100
AcDbLine
 10
11840.93473877274
 20
2276.65734547811
 30
0.0
 11
14835.93473877274
 21
2276.65734547811
 31
0.0
  0
LINE
  5
1AFF5
330
747D
100
AcDbEntity
  8
部品1
100
AcDbLine
 10
11785.93473877274
 20
4366.65734547811
 30
0.0
 11
14835.93473877274
 21
4366.65734547811
 31
0.0
  0
MTEXT
  5
1B81D
330
747D
100
AcDbEntity
  8
寸法
 62
     7
 48
50.0
100
AcDbMText
 10
2637.852555037908
 20
9776.903693512938
 30
0.0
 40
96.0
 41
0.0
 71
     5
 72
     1
  1
棚 3段
  7
STYLE1
 73
     1
 44
1.0
1001
ACAD
1000
MTEXTBEGIN
1070
    73
1070
     1
1070
    44
1040
1.0
1070
    74
1070
     0
1000
MTEXTEND
  0
MTEXT
  5
1B9FD
330
747D
100
AcDbEntity
  8
寸法
 62
     7
 48
50.0
100
AcDbMText
 10
3937.852555037907
 20
9776.903693512984
 30
0.0
 40
96.0
 41
0.0
 71
     5
 72
     1
  1
棚 3段
  7
STYLE1
 73
     1
 44
1.0
1001
ACAD
1000
MTEXTBEGIN
1070
    73
1070
     1
1070
    44
1040
1.0
1070
    74
1070
     0
1000
MTEXTEND
  0
MTEXT
  5
1B9FE
330
747D
100
AcDbEntity
  8
寸法
 62
     7
 48
50.0
100
AcDbMText
 10
6567.852555037908
 20
9776.903693512981
 30
0.0
 40
96.0
 41
0.0
 71
     5
 72
     1
  1
棚 3段
  7
STYLE1
 73
     1
 44
1.0
1001
ACAD
1000
MTEXTBEGIN
1070
    73
1070
     1
1070
    44
1040
1.0
1070
    74
1070
     0
1000
MTEXTEND
  0
MTEXT
  5
1B9FF
330
747D
100
AcDbEntity
  8
寸法
 62
     7
 48
50.0
100
AcDbMText
 10
5267.852555037909
 20
9776.903693512934
 30
0.0
 40
96.0
 41
0.0
 71
     5
 72
     1
  1
棚 3段
  7
STYLE1
 73
     1
 44
1.0
1001
ACAD
1000
MTEXTBEGIN
1070
    73
1070
     1
1070
    44
1040
1.0
1070
    74
1070
     0
1000
MTEXTEND
  0
MTEXT
  5
1BA00
330
747D
100
AcDbEntity
  8
寸法
 62
     7
 48
50.0
100
AcDbMText
 10
9197.852555037909
 20
9776.903693512979
 30
0.0
 40
96.0
 41
0.0
 71
     5
 72
     1
  1
棚 3段
  7
STYLE1
 73
     1
 44
1.0
1001
ACAD
1000
MTEXTBEGIN
1070
    73
1070
     1
1070
    44
1040
1.0
1070
    74
1070
     0
1000
MTEXTEND
  0
MTEXT
  5
1BA01
330
747D
100
AcDbEntity
  8
寸法
 62
     7
 48
50.0
100
AcDbMText
 10
7897.852555037911
 20
9776.903693512933
 30
0.0
 40
96.0
 41
0.0
 71
     5
 72
     1
  1
棚 3段
  7
STYLE1
 73
     1
 44
1.0
1001
ACAD
1000
MTEXTBEGIN
1070
    73
1070
     1
1070
    44
1040
1.0
1070
    74
1070
     0
1000
MTEXTEND
  0
DIMENSION
  5
1BB7A
330
747D
100
AcDbEntity
  8
寸法
100
AcDbDimension
  2
*D41
 10
9729.61351070392
 20
9369.059754790635
 30
0.0
 11
9139.622672703556
 21
9369.059754790635
 31
0.0
 70
   160
 71
     5
 42
1273.000000000011
  3
INABA_S40G
100
AcDbAlignedDimension
 13
8548.637356965262
 23
9712.497424545912
 33
0.0
 14
9821.637356965272
 24
9712.497424545905
 34
0.0
100
AcDbRotatedDimension
1001
ACAD
1000
DSTYLE
1002
{
1002
}
  0
DIMENSION
  5
1BB9F
330
747D
100
AcDbEntity
  8
寸法
100
AcDbDimension
  2
*D42
 10
8429.61351070395
 20
9369.059754790635
 30
0.0
 11
7793.113510703943
 21
9469.071565814257
 31
0.0
 70
    32
 71
     5
 42
1273.000000000011
  3
INABA_S40G
100
AcDbAlignedDimension
 13
7248.637356965261
 23
9712.497424545805
 33
0.0
 14
8521.637356965271
 24
9712.497424545798
 34
0.0
100
AcDbRotatedDimension
1001
ACAD
1000
DSTYLE
1002
{
1002
}
  0
LINE
  5
1BD99
330
747D
100
AcDbEntity
  8
補助
  6
PHANTOM
 62
   230
 48
50.0
100
AcDbLine
 10
140.0
 20
0.0
 30
0.0
 11
139.9999999999995
 21
11409.6
 31
0.0
  0
TEXT
  5
1BDB6
330
747D
100
AcDbEntity
  8
文字
 62
     7
 48
50.0
100
AcDbText
 10
14500.43014411085
 20
483.8967129911414
 30
0.0
 40
160.0
  1
FXN-80HYL-N
  7
STYLE2
100
AcDbText
  0
DIMENSION
  5
1BEF4
330
747D
100
AcDbEntity
  8
寸法
 48
50.0
100
AcDbDimension
  2
*D43
 10
10137.680459287
 20
4174.657345478109
 30
0.0
 11
10037.680459287
 21
3231.657345478112
 31
0.0
 70
    32
  1
有効開口部高サ <>
 71
     5
 42
1885.999999999998
  3
INABA_S40G
100
AcDbAlignedDimension
 13
9850.137356965255
 23
2288.65734547811
 33
0.0
 14
9850.137356965257
 24
4174.657345478109
 34
0.0
 50
90.0
100
AcDbRotatedDimension
  0
DIMENSION
  5
1BEF5
330
747D
100
AcDbEntity
  8
寸法
 48
50.0
100
AcDbDimension
  2
*D44
 10
10137.680459287
 20
4201.657345478111
 30
0.0
 11
10277.85028253336
 21
4202.624545317768
 31
0.0
 70
   160
 71
     5
 42
27.00000000000273
  3
INABA_S40G
100
AcDbAlignedDimension
 13
9850.137356965257
 23
4174.657345478109
 33
0.0
 14
9850.137356965255
 24
4201.657345478111
 34
0.0
 50
90.0
100
AcDbRotatedDimension
1001
ACAD
1000
DSTYLE
1002
{
1070
   279
1070
     2
1002
}
  0
DIMENSION
  5
1BEF6
330
747D
100
AcDbEntity
  8
寸法
 48
50.0
100
AcDbDimension
  2
*D45
 10
10137.680459287
 20
4366.65734547811
 30
0.0
 11
10137.680459287
 21
4605.14262685235
 31
0.0
 70
   160
 71
     5
 42
164.9999999999982
  3
INABA_S40G
100
AcDbAlignedDimension
 13
9850.137356965255
 23
4201.657345478111
 33
0.0
 14
9850.137356965255
 24
4366.65734547811
 34
0.0
 50
90.0
100
AcDbRotatedDimension
1001
ACAD
1000
DSTYLE
1002
{
1002
}
  0
ARC
  5
1C15E
330
747D
100
AcDbEntity
  8
部品1
 48
0.01
100
AcDbCircle
 10
2748.137356965259
 20
4430.657345478108
 30
0.0
 40
2.0
100
AcDbArc
 50
0.0
 51
90.0
  0
ARC
  5
1C15F
330
747D
100
AcDbEntity
  8
部品1
 48
0.01
100
AcDbCircle
 10
2572.137356965259
 20
4430.657345478108
 30
0.0
 40
2.0
100
AcDbArc
 50
90.0
 51
180.0
  0
LINE
  5
1C160
330
747D
100
AcDbEntity
  8
細線
100
AcDbLine
 10
2660.137356965255
 20
4403.157345478108
 30
0.0
 11
2734.137356965259
 21
4403.157345478108
 31
0.0
  0
LINE
  5
1C161
330
747D
100
AcDbEntity
  8
細線
100
AcDbLine
 10
2660.137356965259
 20
4426.157345478109
 30
0.0
 11
2586.137356965259
 21
4426.157345478109
 31
0.0
  0
LINE
  5
1C162
330
747D
100
AcDbEntity
  8
細線
100
AcDbLine
 10
2586.137356965259
 20
4403.157345478108
 30
0.0
 11
2660.137356965259
 21
4403.157345478108
 31
0.0
  0
LINE
  5
1C163
330
747D
100
AcDbEntity
  8
細線
100
AcDbLine
 10
2734.137356965259
 20
4426.157345478109
 30
0.0
 11
2660.137356965259
 21
4426.157345478109
 31
0.0
  0
LINE
  5
1C164
330
747D
100
AcDbEntity
  8
細線
100
AcDbLine
 10
2734.137356965259
 20
4403.157345478108
 30
0.0
 11
2734.137356965259
 21
4426.157345478109
 31
0.0
  0
LINE
  5
1C165
330
747D
100
AcDbEntity
  8
細線
100
AcDbLine
 10
2586.137356965259
 20
4426.157345478109
 30
0.0
 11
2586.137356965259
 21
4403.157345478108
 31
0.0
  0
LINE
  5
1C166
330
747D
100
AcDbEntity
  8
部品1
 48
0.01
100
AcDbLine
 10
2750.137356965255
 20
4399.157345478108
 30
0.0
 11
2750.137356965259
 21
4430.657345478108
 31
0.0
  0
LINE
  5
1C167
330
747D
100
AcDbEntity
  8
部品1
 48
0.01
100
AcDbLine
 10
2570.137356965259
 20
4430.657345478108
 30
0.0
 11
2570.137356965259
 21
4399.157345478108
 31
0.0
  0
LINE
  5
1C168
330
747D
100
AcDbEntity
  8
部品1
 48
0.01
100
AcDbLine
 10
2748.137356965259
 20
4432.657345478108
 30
0.0
 11
2572.137356965259
 21
4432.657345478108
 31
0.0
  0
LINE
  5
1C169
330
747D
100
AcDbEntity
  8
細線
100
AcDbLine
 10
2586.137356965259
 20
4420.157345478108
 30
0.0
 11
2660.137356965259
 21
4420.157345478108
 31
0.0
  0
LINE
  5
1C16A
330
747D
100
AcDbEntity
  8
細線
100
AcDbLine
 10
2586.137356965259
 20
4414.157345478108
 30
0.0
 11
2660.137356965259
 21
4414.157345478108
 31
0.0
  0
LINE
  5
1C16B
330
747D
100
AcDbEntity
  8
細線
100
AcDbLine
 10
2586.137356965255
 20
4408.157345478108
 30
0.0
 11
2660.137356965259
 21
4408.157345478108
 31
0.0
  0
LINE
  5
1C16C
330
747D
100
AcDbEntity
  8
細線
100
AcDbLine
 10
2586.137356965259
 20
4420.157345478108
 30
0.0
 11
2655.137356965259
 21
4420.157345478108
 31
0.0
  0
LINE
  5
1C16D
330
747D
100
AcDbEntity
  8
細線
100
AcDbLine
 10
2734.137356965255
 20
4420.157345478108
 30
0.0
 11
2660.137356965259
 21
4420.157345478108
 31
0.0
  0
LINE
  5
1C16E
330
747D
100
AcDbEntity
  8
細線
100
AcDbLine
 10
2734.137356965255
 20
4408.157345478108
 30
0.0
 11
2660.137356965259
 21
4408.157345478108
 31
0.0
  0
LINE
  5
1C16F
330
747D
100
AcDbEntity
  8
細線
100
AcDbLine
 10
2734.137356965255
 20
4414.157345478108
 30
0.0
 11
2660.137356965259
 21
4414.157345478108
 31
0.0
  0
LINE
  5
1C170
330
747D
100
AcDbEntity
  8
細線
100
AcDbLine
 10
2660.137356965259
 20
4426.157345478109
 30
0.0
 11
2660.137356965255
 21
4403.157345478108
 31
0.0
  0
LINE
  5
1C171
330
747D
100
AcDbEntity
  8
細線
100
AcDbLine
 10
3890.137356965259
 20
4426.157345478109
 30
0.0
 11
3890.137356965259
 21
4403.157345478108
 31
0.0
  0
LINE
  5
1C172
330
747D
100
AcDbEntity
  8
細線
100
AcDbLine
 10
3816.137356965259
 20
4414.157345478108
 30
0.0
 11
3890.137356965259
 21
4414.157345478108
 31
0.0
  0
LINE
  5
1C173
330
747D
100
AcDbEntity
  8
細線
100
AcDbLine
 10
3816.137356965259
 20
4408.157345478108
 30
0.0
 11
3890.137356965259
 21
4408.157345478108
 31
0.0
  0
LINE
  5
1C174
330
747D
100
AcDbEntity
  8
細線
100
AcDbLine
 10
3816.137356965259
 20
4420.157345478108
 30
0.0
 11
3890.137356965259
 21
4420.157345478108
 31
0.0
  0
LINE
  5
1C175
330
747D
100
AcDbEntity
  8
細線
100
AcDbLine
 10
3964.137356965259
 20
4420.157345478108
 30
0.0
 11
3895.137356965259
 21
4420.157345478108
 31
0.0
  0
LINE
  5
1C176
330
747D
100
AcDbEntity
  8
細線
100
AcDbLine
 10
3964.137356965259
 20
4408.157345478108
 30
0.0
 11
3890.137356965259
 21
4408.157345478108
 31
0.0
  0
LINE
  5
1C177
330
747D
100
AcDbEntity
  8
細線
100
AcDbLine
 10
3964.137356965259
 20
4414.157345478108
 30
0.0
 11
3890.137356965259
 21
4414.157345478108
 31
0.0
  0
LINE
  5
1C178
330
747D
100
AcDbEntity
  8
細線
100
AcDbLine
 10
3964.137356965259
 20
4420.157345478108
 30
0.0
 11
3890.137356965259
 21
4420.157345478108
 31
0.0
  0
LINE
  5
1C179
330
747D
100
AcDbEntity
  8
部品1
 48
0.01
100
AcDbLine
 10
3802.137356965259
 20
4432.657345478108
 30
0.0
 11
3978.137356965259
 21
4432.657345478108
 31
0.0
  0
LINE
  5
1C17A
330
747D
100
AcDbEntity
  8
部品1
 48
0.01
100
AcDbLine
 10
3980.137356965259
 20
4430.657345478108
 30
0.0
 11
3980.137356965259
 21
4399.157345478108
 31
0.0
  0
LINE
  5
1C17B
330
747D
100
AcDbEntity
  8
部品1
 48
0.01
100
AcDbLine
 10
3800.137356965258
 20
4399.157345478108
 30
0.0
 11
3800.137356965258
 21
4430.657345478108
 31
0.0
  0
LINE
  5
1C17C
330
747D
100
AcDbEntity
  8
細線
100
AcDbLine
 10
3964.137356965259
 20
4426.157345478109
 30
0.0
 11
3964.137356965259
 21
4403.157345478108
 31
0.0
  0
LINE
  5
1C17D
330
747D
100
AcDbEntity
  8
細線
100
AcDbLine
 10
3816.137356965259
 20
4403.157345478108
 30
0.0
 11
3816.137356965259
 21
4426.157345478109
 31
0.0
  0
LINE
  5
1C17E
330
747D
100
AcDbEntity
  8
細線
100
AcDbLine
 10
3816.137356965259
 20
4426.157345478109
 30
0.0
 11
3890.137356965259
 21
4426.157345478109
 31
0.0
  0
LINE
  5
1C17F
330
747D
100
AcDbEntity
  8
細線
100
AcDbLine
 10
3964.137356965259
 20
4403.157345478108
 30
0.0
 11
3890.137356965259
 21
4403.157345478108
 31
0.0
  0
LINE
  5
1C180
330
747D
100
AcDbEntity
  8
細線
100
AcDbLine
 10
3890.137356965259
 20
4426.157345478109
 30
0.0
 11
3964.137356965259
 21
4426.157345478109
 31
0.0
  0
LINE
  5
1C181
330
747D
100
AcDbEntity
  8
細線
100
AcDbLine
 10
3890.137356965259
 20
4403.157345478108
 30
0.0
 11
3816.137356965259
 21
4403.157345478108
 31
0.0
  0
ARC
  5
1C182
330
747D
100
AcDbEntity
  8
部品1
 48
0.01
100
AcDbCircle
 10
3978.137356965259
 20
4430.657345478108
 30
0.0
 40
2.0
100
AcDbArc
 50
0.0
 51
90.0
  0
ARC
  5
1C183
330
747D
100
AcDbEntity
  8
部品1
 48
0.01
100
AcDbCircle
 10
3802.137356965259
 20
4430.657345478108
 30
0.0
 40
2.0
100
AcDbArc
 50
90.0
 51
180.0
  0
ARC
  5
1C184
330
747D
100
AcDbEntity
  8
部品1
 48
0.01
100
AcDbCircle
 10
2748.137356965255
 20
4399.157345478108
 30
0.0
 40
2.0
100
AcDbArc
 50
270.0
 51
0.0
  0
ARC
  5
1C185
330
747D
100
AcDbEntity
  8
部品1
 48
0.01
100
AcDbCircle
 10
2572.137356965259
 20
4399.157345478108
 30
0.0
 40
2.0
100
AcDbArc
 50
180.0
 51
270.0
  0
LINE
  5
1C186
330
747D
100
AcDbEntity
  8
部品1
 48
0.01
100
AcDbLine
 10
2572.137356965259
 20
4397.157345478109
 30
0.0
 11
2748.137356965255
 21
4397.157345478109
 31
0.0
  0
LINE
  5
1C187
330
747D
100
AcDbEntity
  8
部品1
 48
0.01
100
AcDbLine
 10
3978.137356965259
 20
4397.157345478109
 30
0.0
 11
3802.137356965259
 21
4397.157345478109
 31
0.0
  0
ARC
  5
1C188
330
747D
100
AcDbEntity
  8
部品1
 48
0.01
100
AcDbCircle
 10
3978.137356965259
 20
4399.157345478108
 30
0.0
 40
2.0
100
AcDbArc
 50
270.0
 51
0.0
  0
ARC
  5
1C189
330
747D
100
AcDbEntity
  8
部品1
 48
0.01
100
AcDbCircle
 10
3802.137356965259
 20
4399.157345478108
 30
0.0
 40
2.0
100
AcDbArc
 50
180.0
 51
270.0
  0
ARC
  5
1C28A
330
747D
100
AcDbEntity
  8
部品1
 48
0.01
100
AcDbCircle
 10
6432.137356965256
 20
4399.157345478108
 30
0.0
 40
2.0
100
AcDbArc
 50
180.0
 51
270.0
  0
ARC
  5
1C28B
330
747D
100
AcDbEntity
  8
部品1
 48
0.01
100
AcDbCircle
 10
6608.137356965257
 20
4399.157345478108
 30
0.0
 40
2.0
100
AcDbArc
 50
270.0
 51
0.0
  0
LINE
  5
1C28C
330
747D
100
AcDbEntity
  8
部品1
 48
0.01
100
AcDbLine
 10
6608.137356965257
 20
4397.157345478109
 30
0.0
 11
6432.137356965256
 21
4397.157345478109
 31
0.0
  0
LINE
  5
1C28D
330
747D
100
AcDbEntity
  8
部品1
 48
0.01
100
AcDbLine
 10
5202.137356965256
 20
4397.157345478109
 30
0.0
 11
5378.137356965254
 21
4397.157345478109
 31
0.0
  0
ARC
  5
1C28E
330
747D
100
AcDbEntity
  8
部品1
 48
0.01
100
AcDbCircle
 10
5202.137356965256
 20
4399.157345478108
 30
0.0
 40
2.0
100
AcDbArc
 50
180.0
 51
270.0
  0
ARC
  5
1C28F
330
747D
100
AcDbEntity
  8
部品1
 48
0.01
100
AcDbCircle
 10
5378.137356965254
 20
4399.157345478108
 30
0.0
 40
2.0
100
AcDbArc
 50
270.0
 51
0.0
  0
ARC
  5
1C290
330
747D
100
AcDbEntity
  8
部品1
 48
0.01
100
AcDbCircle
 10
6432.137356965256
 20
4430.657345478108
 30
0.0
 40
2.0
100
AcDbArc
 50
90.0
 51
180.0
  0
ARC
  5
1C291
330
747D
100
AcDbEntity
  8
部品1
 48
0.01
100
AcDbCircle
 10
6608.137356965257
 20
4430.657345478108
 30
0.0
 40
2.0
100
AcDbArc
 50
0.0
 51
90.0
  0
LINE
  5
1C292
330
747D
100
AcDbEntity
  8
細線
100
AcDbLine
 10
6520.137356965257
 20
4403.157345478108
 30
0.0
 11
6446.137356965256
 21
4403.157345478108
 31
0.0
  0
LINE
  5
1C293
330
747D
100
AcDbEntity
  8
細線
100
AcDbLine
 10
6520.137356965257
 20
4426.157345478109
 30
0.0
 11
6594.137356965257
 21
4426.157345478109
 31
0.0
  0
LINE
  5
1C294
330
747D
100
AcDbEntity
  8
細線
100
AcDbLine
 10
6594.137356965257
 20
4403.157345478108
 30
0.0
 11
6520.137356965257
 21
4403.157345478108
 31
0.0
  0
LINE
  5
1C295
330
747D
100
AcDbEntity
  8
細線
100
AcDbLine
 10
6446.137356965256
 20
4426.157345478109
 30
0.0
 11
6520.137356965257
 21
4426.157345478109
 31
0.0
  0
LINE
  5
1C296
330
747D
100
AcDbEntity
  8
細線
100
AcDbLine
 10
6446.137356965256
 20
4403.157345478108
 30
0.0
 11
6446.137356965256
 21
4426.157345478109
 31
0.0
  0
LINE
  5
1C297
330
747D
100
AcDbEntity
  8
細線
100
AcDbLine
 10
6594.137356965257
 20
4426.157345478109
 30
0.0
 11
6594.137356965257
 21
4403.157345478108
 31
0.0
  0
LINE
  5
1C298
330
747D
100
AcDbEntity
  8
部品1
 48
0.01
100
AcDbLine
 10
6430.137356965257
 20
4399.157345478108
 30
0.0
 11
6430.137356965257
 21
4430.657345478108
 31
0.0
  0
LINE
  5
1C299
330
747D
100
AcDbEntity
  8
部品1
 48
0.01
100
AcDbLine
 10
6610.137356965257
 20
4430.657345478108
 30
0.0
 11
6610.137356965257
 21
4399.157345478108
 31
0.0
  0
LINE
  5
1C29A
330
747D
100
AcDbEntity
  8
部品1
 48
0.01
100
AcDbLine
 10
6432.137356965256
 20
4432.657345478108
 30
0.0
 11
6608.137356965257
 21
4432.657345478108
 31
0.0
  0
LINE
  5
1C29B
330
747D
100
AcDbEntity
  8
細線
100
AcDbLine
 10
6594.137356965257
 20
4420.157345478108
 30
0.0
 11
6520.137356965257
 21
4420.157345478108
 31
0.0
  0
LINE
  5
1C29C
330
747D
100
AcDbEntity
  8
細線
100
AcDbLine
 10
6594.137356965257
 20
4414.157345478108
 30
0.0
 11
6520.137356965257
 21
4414.157345478108
 31
0.0
  0
LINE
  5
1C29D
330
747D
100
AcDbEntity
  8
細線
100
AcDbLine
 10
6594.137356965257
 20
4408.157345478108
 30
0.0
 11
6520.137356965257
 21
4408.157345478108
 31
0.0
  0
LINE
  5
1C29E
330
747D
100
AcDbEntity
  8
細線
100
AcDbLine
 10
6594.137356965257
 20
4420.157345478108
 30
0.0
 11
6525.137356965257
 21
4420.157345478108
 31
0.0
  0
LINE
  5
1C29F
330
747D
100
AcDbEntity
  8
細線
100
AcDbLine
 10
6446.137356965256
 20
4420.157345478108
 30
0.0
 11
6520.137356965257
 21
4420.157345478108
 31
0.0
  0
LINE
  5
1C2A0
330
747D
100
AcDbEntity
  8
細線
100
AcDbLine
 10
6446.137356965256
 20
4408.157345478108
 30
0.0
 11
6520.137356965257
 21
4408.157345478108
 31
0.0
  0
LINE
  5
1C2A1
330
747D
100
AcDbEntity
  8
細線
100
AcDbLine
 10
6446.137356965256
 20
4414.157345478108
 30
0.0
 11
6520.137356965257
 21
4414.157345478108
 31
0.0
  0
LINE
  5
1C2A2
330
747D
100
AcDbEntity
  8
細線
100
AcDbLine
 10
6520.137356965257
 20
4426.157345478109
 30
0.0
 11
6520.137356965257
 21
4403.157345478108
 31
0.0
  0
LINE
  5
1C2A3
330
747D
100
AcDbEntity
  8
細線
100
AcDbLine
 10
5290.137356965256
 20
4426.157345478109
 30
0.0
 11
5290.137356965253
 21
4403.157345478108
 31
0.0
  0
LINE
  5
1C2A4
330
747D
100
AcDbEntity
  8
細線
100
AcDbLine
 10
5364.137356965254
 20
4414.157345478108
 30
0.0
 11
5290.137356965256
 21
4414.157345478108
 31
0.0
  0
LINE
  5
1C2A5
330
747D
100
AcDbEntity
  8
細線
100
AcDbLine
 10
5364.137356965254
 20
4408.157345478108
 30
0.0
 11
5290.137356965256
 21
4408.157345478108
 31
0.0
  0
LINE
  5
1C2A6
330
747D
100
AcDbEntity
  8
細線
100
AcDbLine
 10
5364.137356965254
 20
4420.157345478108
 30
0.0
 11
5290.137356965256
 21
4420.157345478108
 31
0.0
  0
LINE
  5
1C2A7
330
747D
100
AcDbEntity
  8
細線
100
AcDbLine
 10
5216.137356965257
 20
4420.157345478108
 30
0.0
 11
5285.137356965257
 21
4420.157345478108
 31
0.0
  0
LINE
  5
1C2A8
330
747D
100
AcDbEntity
  8
細線
100
AcDbLine
 10
5216.137356965253
 20
4408.157345478108
 30
0.0
 11
5290.137356965256
 21
4408.157345478108
 31
0.0
  0
LINE
  5
1C2A9
330
747D
100
AcDbEntity
  8
細線
100
AcDbLine
 10
5216.137356965257
 20
4414.157345478108
 30
0.0
 11
5290.137356965256
 21
4414.157345478108
 31
0.0
  0
LINE
  5
1C2AA
330
747D
100
AcDbEntity
  8
細線
100
AcDbLine
 10
5216.137356965257
 20
4420.157345478108
 30
0.0
 11
5290.137356965256
 21
4420.157345478108
 31
0.0
  0
LINE
  5
1C2AB
330
747D
100
AcDbEntity
  8
部品1
 48
0.01
100
AcDbLine
 10
5378.137356965257
 20
4432.657345478108
 30
0.0
 11
5202.137356965256
 21
4432.657345478108
 31
0.0
  0
LINE
  5
1C2AC
330
747D
100
AcDbEntity
  8
部品1
 48
0.01
100
AcDbLine
 10
5200.137356965257
 20
4430.657345478108
 30
0.0
 11
5200.137356965257
 21
4399.157345478108
 31
0.0
  0
LINE
  5
1C2AD
330
747D
100
AcDbEntity
  8
部品1
 48
0.01
100
AcDbLine
 10
5380.137356965253
 20
4399.157345478108
 30
0.0
 11
5380.137356965256
 21
4430.657345478108
 31
0.0
  0
LINE
  5
1C2AE
330
747D
100
AcDbEntity
  8
細線
100
AcDbLine
 10
5216.137356965257
 20
4426.157345478109
 30
0.0
 11
5216.137356965257
 21
4403.157345478108
 31
0.0
  0
LINE
  5
1C2AF
330
747D
100
AcDbEntity
  8
細線
100
AcDbLine
 10
5364.137356965257
 20
4403.157345478108
 30
0.0
 11
5364.137356965257
 21
4426.157345478109
 31
0.0
  0
LINE
  5
1C2B0
330
747D
100
AcDbEntity
  8
細線
100
AcDbLine
 10
5364.137356965257
 20
4426.157345478109
 30
0.0
 11
5290.137356965256
 21
4426.157345478109
 31
0.0
  0
LINE
  5
1C2B1
330
747D
100
AcDbEntity
  8
細線
100
AcDbLine
 10
5216.137356965257
 20
4403.157345478108
 30
0.0
 11
5290.137356965256
 21
4403.157345478108
 31
0.0
  0
LINE
  5
1C2B2
330
747D
100
AcDbEntity
  8
細線
100
AcDbLine
 10
5290.137356965256
 20
4426.157345478109
 30
0.0
 11
5216.137356965257
 21
4426.157345478109
 31
0.0
  0
LINE
  5
1C2B3
330
747D
100
AcDbEntity
  8
細線
100
AcDbLine
 10
5290.137356965253
 20
4403.157345478108
 30
0.0
 11
5364.137356965257
 21
4403.157345478108
 31
0.0
  0
ARC
  5
1C2B4
330
747D
100
AcDbEntity
  8
部品1
 48
0.01
100
AcDbCircle
 10
5202.137356965256
 20
4430.657345478108
 30
0.0
 40
2.0
100
AcDbArc
 50
90.0
 51
180.0
  0
ARC
  5
1C2B5
330
747D
100
AcDbEntity
  8
部品1
 48
0.01
100
AcDbCircle
 10
5378.137356965257
 20
4430.657345478108
 30
0.0
 40
2.0
100
AcDbArc
 50
0.0
 51
90.0
  0
ARC
  5
1C2B6
330
747D
100
AcDbEntity
  8
部品1
 48
0.01
100
AcDbCircle
 10
8008.137356965256
 20
4430.657345478108
 30
0.0
 40
2.0
100
AcDbArc
 50
0.0
 51
90.0
  0
ARC
  5
1C2B7
330
747D
100
AcDbEntity
  8
部品1
 48
0.01
100
AcDbCircle
 10
7832.137356965256
 20
4430.657345478108
 30
0.0
 40
2.0
100
AcDbArc
 50
90.0
 51
180.0
  0
LINE
  5
1C2B8
330
747D
100
AcDbEntity
  8
細線
100
AcDbLine
 10
7920.137356965253
 20
4403.157345478108
 30
0.0
 11
7994.137356965257
 21
4403.157345478108
 31
0.0
  0
LINE
  5
1C2B9
330
747D
100
AcDbEntity
  8
細線
100
AcDbLine
 10
7920.137356965257
 20
4426.157345478109
 30
0.0
 11
7846.137356965257
 21
4426.157345478109
 31
0.0
  0
LINE
  5
1C2BA
330
747D
100
AcDbEntity
  8
細線
100
AcDbLine
 10
7846.137356965257
 20
4403.157345478108
 30
0.0
 11
7920.137356965257
 21
4403.157345478108
 31
0.0
  0
LINE
  5
1C2BB
330
747D
100
AcDbEntity
  8
細線
100
AcDbLine
 10
7994.137356965257
 20
4426.157345478109
 30
0.0
 11
7920.137356965257
 21
4426.157345478109
 31
0.0
  0
LINE
  5
1C2BC
330
747D
100
AcDbEntity
  8
細線
100
AcDbLine
 10
7994.137356965257
 20
4403.157345478108
 30
0.0
 11
7994.137356965257
 21
4426.157345478109
 31
0.0
  0
LINE
  5
1C2BD
330
747D
100
AcDbEntity
  8
細線
100
AcDbLine
 10
7846.137356965257
 20
4426.157345478109
 30
0.0
 11
7846.137356965257
 21
4403.157345478108
 31
0.0
  0
LINE
  5
1C2BE
330
747D
100
AcDbEntity
  8
部品1
 48
0.01
100
AcDbLine
 10
8010.137356965254
 20
4399.157345478108
 30
0.0
 11
8010.137356965257
 21
4430.657345478108
 31
0.0
  0
LINE
  5
1C2BF
330
747D
100
AcDbEntity
  8
部品1
 48
0.01
100
AcDbLine
 10
7830.137356965257
 20
4430.657345478108
 30
0.0
 11
7830.137356965257
 21
4399.157345478108
 31
0.0
  0
LINE
  5
1C2C0
330
747D
100
AcDbEntity
  8
部品1
 48
0.01
100
AcDbLine
 10
8008.137356965256
 20
4432.657345478108
 30
0.0
 11
7832.137356965256
 21
4432.657345478108
 31
0.0
  0
LINE
  5
1C2C1
330
747D
100
AcDbEntity
  8
細線
100
AcDbLine
 10
7846.137356965257
 20
4420.157345478108
 30
0.0
 11
7920.137356965257
 21
4420.157345478108
 31
0.0
  0
LINE
  5
1C2C2
330
747D
100
AcDbEntity
  8
細線
100
AcDbLine
 10
7846.137356965257
 20
4414.157345478108
 30
0.0
 11
7920.137356965257
 21
4414.157345478108
 31
0.0
  0
LINE
  5
1C2C3
330
747D
100
AcDbEntity
  8
細線
100
AcDbLine
 10
7846.137356965254
 20
4408.157345478108
 30
0.0
 11
7920.137356965257
 21
4408.157345478108
 31
0.0
  0
LINE
  5
1C2C4
330
747D
100
AcDbEntity
  8
細線
100
AcDbLine
 10
7846.137356965257
 20
4420.157345478108
 30
0.0
 11
7915.137356965257
 21
4420.157345478108
 31
0.0
  0
LINE
  5
1C2C5
330
747D
100
AcDbEntity
  8
細線
100
AcDbLine
 10
7994.137356965254
 20
4420.157345478108
 30
0.0
 11
7920.137356965257
 21
4420.157345478108
 31
0.0
  0
LINE
  5
1C2C6
330
747D
100
AcDbEntity
  8
細線
100
AcDbLine
 10
7994.137356965254
 20
4408.157345478108
 30
0.0
 11
7920.137356965257
 21
4408.157345478108
 31
0.0
  0
LINE
  5
1C2C7
330
747D
100
AcDbEntity
  8
細線
100
AcDbLine
 10
7994.137356965254
 20
4414.157345478108
 30
0.0
 11
7920.137356965257
 21
4414.157345478108
 31
0.0
  0
LINE
  5
1C2C8
330
747D
100
AcDbEntity
  8
細線
100
AcDbLine
 10
7920.137356965257
 20
4426.157345478109
 30
0.0
 11
7920.137356965253
 21
4403.157345478108
 31
0.0
  0
LINE
  5
1C2C9
330
747D
100
AcDbEntity
  8
細線
100
AcDbLine
 10
9150.137356965258
 20
4426.157345478109
 30
0.0
 11
9150.137356965258
 21
4403.157345478108
 31
0.0
  0
LINE
  5
1C2CA
330
747D
100
AcDbEntity
  8
細線
100
AcDbLine
 10
9076.137356965258
 20
4414.157345478108
 30
0.0
 11
9150.137356965258
 21
4414.157345478108
 31
0.0
  0
LINE
  5
1C2CB
330
747D
100
AcDbEntity
  8
細線
100
AcDbLine
 10
9076.137356965258
 20
4408.157345478108
 30
0.0
 11
9150.137356965258
 21
4408.157345478108
 31
0.0
  0
LINE
  5
1C2CC
330
747D
100
AcDbEntity
  8
細線
100
AcDbLine
 10
9076.137356965258
 20
4420.157345478108
 30
0.0
 11
9150.137356965258
 21
4420.157345478108
 31
0.0
  0
LINE
  5
1C2CD
330
747D
100
AcDbEntity
  8
細線
100
AcDbLine
 10
9224.137356965256
 20
4420.157345478108
 30
0.0
 11
9155.137356965257
 21
4420.157345478108
 31
0.0
  0
LINE
  5
1C2CE
330
747D
100
AcDbEntity
  8
細線
100
AcDbLine
 10
9224.137356965256
 20
4408.157345478108
 30
0.0
 11
9150.137356965258
 21
4408.157345478108
 31
0.0
  0
LINE
  5
1C2CF
330
747D
100
AcDbEntity
  8
細線
100
AcDbLine
 10
9224.137356965256
 20
4414.157345478108
 30
0.0
 11
9150.137356965258
 21
4414.157345478108
 31
0.0
  0
LINE
  5
1C2D0
330
747D
100
AcDbEntity
  8
細線
100
AcDbLine
 10
9224.137356965256
 20
4420.157345478108
 30
0.0
 11
9150.137356965258
 21
4420.157345478108
 31
0.0
  0
LINE
  5
1C2D1
330
747D
100
AcDbEntity
  8
部品1
 48
0.01
100
AcDbLine
 10
9062.137356965257
 20
4432.657345478108
 30
0.0
 11
9238.137356965257
 21
4432.657345478108
 31
0.0
  0
LINE
  5
1C2D2
330
747D
100
AcDbEntity
  8
部品1
 48
0.01
100
AcDbLine
 10
9240.137356965258
 20
4430.657345478108
 30
0.0
 11
9240.137356965258
 21
4399.157345478108
 31
0.0
  0
LINE
  5
1C2D3
330
747D
100
AcDbEntity
  8
部品1
 48
0.01
100
AcDbLine
 10
9060.137356965256
 20
4399.157345478108
 30
0.0
 11
9060.137356965256
 21
4430.657345478108
 31
0.0
  0
LINE
  5
1C2D4
330
747D
100
AcDbEntity
  8
細線
100
AcDbLine
 10
9224.137356965256
 20
4426.157345478109
 30
0.0
 11
9224.137356965256
 21
4403.157345478108
 31
0.0
  0
LINE
  5
1C2D5
330
747D
100
AcDbEntity
  8
細線
100
AcDbLine
 10
9076.137356965258
 20
4403.157345478108
 30
0.0
 11
9076.137356965258
 21
4426.157345478109
 31
0.0
  0
LINE
  5
1C2D6
330
747D
100
AcDbEntity
  8
細線
100
AcDbLine
 10
9076.137356965258
 20
4426.157345478109
 30
0.0
 11
9150.137356965258
 21
4426.157345478109
 31
0.0
  0
LINE
  5
1C2D7
330
747D
100
AcDbEntity
  8
細線
100
AcDbLine
 10
9224.137356965256
 20
4403.157345478108
 30
0.0
 11
9150.137356965258
 21
4403.157345478108
 31
0.0
  0
LINE
  5
1C2D8
330
747D
100
AcDbEntity
  8
細線
100
AcDbLine
 10
9150.137356965258
 20
4426.157345478109
 30
0.0
 11
9224.137356965256
 21
4426.157345478109
 31
0.0
  0
LINE
  5
1C2D9
330
747D
100
AcDbEntity
  8
細線
100
AcDbLine
 10
9150.137356965258
 20
4403.157345478108
 30
0.0
 11
9076.137356965258
 21
4403.157345478108
 31
0.0
  0
ARC
  5
1C2DA
330
747D
100
AcDbEntity
  8
部品1
 48
0.01
100
AcDbCircle
 10
9238.137356965257
 20
4430.657345478108
 30
0.0
 40
2.0
100
AcDbArc
 50
0.0
 51
90.0
  0
ARC
  5
1C2DB
330
747D
100
AcDbEntity
  8
部品1
 48
0.01
100
AcDbCircle
 10
9062.137356965257
 20
4430.657345478108
 30
0.0
 40
2.0
100
AcDbArc
 50
90.0
 51
180.0
  0
ARC
  5
1C2DC
330
747D
100
AcDbEntity
  8
部品1
 48
0.01
100
AcDbCircle
 10
8008.137356965255
 20
4399.157345478108
 30
0.0
 40
2.0
100
AcDbArc
 50
270.0
 51
0.0
  0
ARC
  5
1C2DD
330
747D
100
AcDbEntity
  8
部品1
 48
0.01
100
AcDbCircle
 10
7832.137356965256
 20
4399.157345478108
 30
0.0
 40
2.0
100
AcDbArc
 50
180.0
 51
270.0
  0
LINE
  5
1C2DE
330
747D
100
AcDbEntity
  8
部品1
 48
0.01
100
AcDbLine
 10
7832.137356965256
 20
4397.157345478109
 30
0.0
 11
8008.137356965255
 21
4397.157345478109
 31
0.0
  0
LINE
  5
1C2DF
330
747D
100
AcDbEntity
  8
部品1
 48
0.01
100
AcDbLine
 10
9238.137356965257
 20
4397.157345478109
 30
0.0
 11
9062.137356965257
 21
4397.157345478109
 31
0.0
  0
ARC
  5
1C2E0
330
747D
100
AcDbEntity
  8
部品1
 48
0.01
100
AcDbCircle
 10
9238.137356965257
 20
4399.157345478108
 30
0.0
 40
2.0
100
AcDbArc
 50
270.0
 51
0.0
  0
ARC
  5
1C2E1
330
747D
100
AcDbEntity
  8
部品1
 48
0.01
100
AcDbCircle
 10
9062.137356965257
 20
4399.157345478108
 30
0.0
 40
2.0
100
AcDbArc
 50
180.0
 51
270.0
  0
TEXT
  5
1C300
330
747D
100
AcDbEntity
  8
文字
 62
     7
 48
50.0
100
AcDbText
 10
13248.77747366448
 20
8210.013745883737
 30
0.0
 40
100.0
  1
17
  7
STYLE1
100
AcDbText
  0
TEXT
  5
1C301
330
747D
100
AcDbEntity
  8
文字
 62
     7
 48
50.0
100
AcDbText
 10
13583.11819016569
 20
9230.013745883733
 30
0.0
 40
100.0
  1
梁中補強パネル
  7
STYLE1
100
AcDbText
  0
TEXT
  5
1C303
330
747D
100
AcDbEntity
  8
文字
 62
     7
 48
50.0
100
AcDbText
 10
15022.63965474516
 20
9230.013745883727
 30
0.0
 40
100.0
  1
F12         0.7+1.2
  7
STYLE1
100
AcDbText
  0
TEXT
  5
1C304
330
747D
100
AcDbEntity
  8
文字
 62
     7
 48
50.0
100
AcDbText
 10
15022.63965474517
 20
9740.013745883729
 30
0.0
 40
100.0
  1
F12            2.3
  7
STYLE1
100
AcDbText
  0
DIMENSION
  5
1C371
330
747D
100
AcDbEntity
  8
寸法
 48
50.0
100
AcDbDimension
  2
*D46
 10
4926.978717225809
 20
10192.49742724505
 30
0.0
 11
4926.978717225808
 21
9931.583688491402
 31
0.0
 70
   160
 71
     5
 42
716.5000000001546
  3
INABA_S40G
100
AcDbAlignedDimension
 13
4615.137356964972
 23
9475.997427244898
 33
0.0
 14
4645.137356965206
 24
10192.49742724505
 34
0.0
 50
90.0
100
AcDbRotatedDimension
1001
ACAD
1000
DSTYLE
1002
{
1070
   174
1070
     0
1070
   272
1070
     1
1070
   341
1005
0
1002
}
  0
LINE
  5
1C372
330
747D
100
AcDbEntity
  8
部品1
 48
50.0
100
AcDbLine
 10
4565.137356964972
 20
10137.49742366788
 30
0.0
 11
4565.137356964972
 21
9475.997423667877
 31
0.0
  0
LINE
  5
1C373
330
747D
100
AcDbEntity
  8
部品1
 48
50.0
100
AcDbLine
 10
4565.137356964972
 20
9475.997423667877
 30
0.0
 11
4615.137356964972
 21
9475.997423667877
 31
0.0
  0
LINE
  5
1C374
330
747D
100
AcDbEntity
  8
部品1
 48
50.0
100
AcDbLine
 10
4615.137356964972
 20
9475.997423667877
 30
0.0
 11
4615.137356964972
 21
10137.49742366788
 31
0.0
  0
LINE
  5
1C375
330
747D
100
AcDbEntity
  8
部品1
100
AcDbLine
 10
4615.137356964972
 20
9753.173407104732
 30
0.0
 11
4565.13735696497
 21
9747.997423667877
 31
0.0
  0
LINE
  5
1C376
330
747D
100
AcDbEntity
  8
部品1
100
AcDbLine
 10
4615.137356964972
 20
9712.821440231024
 30
0.0
 11
4565.13735696497
 21
9717.997423667878
 31
0.0
  0
LINE
  5
1C377
330
747D
100
AcDbEntity
  8
部品1
100
AcDbLine
 10
4565.137356964972
 20
9557.997423667877
 30
0.0
 11
4615.137356964971
 21
9570.709288074656
 31
0.0
  0
LINE
  5
1C3F9
330
747D
100
AcDbEntity
  8
部品1
 48
50.0
100
AcDbLine
 10
7195.137356965033
 20
10137.49742096872
 30
0.0
 11
7195.137356965034
 21
9475.997420968726
 31
0.0
  0
LINE
  5
1C3FA
330
747D
100
AcDbEntity
  8
部品1
 48
50.0
100
AcDbLine
 10
7195.137356965033
 20
9475.997420968726
 30
0.0
 11
7245.137356965033
 21
9475.997420968726
 31
0.0
  0
LINE
  5
1C3FB
330
747D
100
AcDbEntity
  8
部品1
 48
50.0
100
AcDbLine
 10
7245.137356965035
 20
9475.997420968726
 30
0.0
 11
7245.137356965033
 21
10137.49742096872
 31
0.0
  0
LINE
  5
1C3FC
330
747D
100
AcDbEntity
  8
部品1
100
AcDbLine
 10
7245.137356965033
 20
9753.173404405581
 30
0.0
 11
7195.137356965031
 21
9747.997420968728
 31
0.0
  0
LINE
  5
1C3FD
330
747D
100
AcDbEntity
  8
部品1
100
AcDbLine
 10
7245.137356965033
 20
9712.821437531873
 30
0.0
 11
7195.137356965031
 21
9717.997420968726
 31
0.0
  0
LINE
  5
1C3FE
330
747D
100
AcDbEntity
  8
部品1
100
AcDbLine
 10
7195.137356965033
 20
9557.997420968726
 30
0.0
 11
7245.137356965031
 21
9570.709285375505
 31
0.0
  0
TEXT
  5
1C4F1
330
747D
100
AcDbEntity
  8
文字
 62
     7
 48
50.0
100
AcDbText
 10
15022.63965474516
 20
8890.013745883729
 30
0.0
 40
100.0
  1
F12            0.7
  7
STYLE1
100
AcDbText
  0
LINE
  5
1C4F9
330
747D
100
AcDbEntity
  8
部品1
 48
50.0
100
AcDbLine
 10
6357.301619192785
 20
10354.99742454584
 30
0.0
 11
5459.671824548477
 21
7004.997424545656
 31
0.0
  0
SPLINE
  5
1C4FA
330
747D
100
AcDbEntity
  8
部品1
 48
50.0
100
AcDbSpline
210
0.0
220
0.0
230
1.0
 70
     8
 71
     3
 72
    10
 73
     6
 74
     4
 42
0.0000000001
 43
0.0000000001
 44
0.0000000001
 40
0.0
 40
0.0
 40
0.0
 40
0.0
 40
147.8767566010009
 40
301.8091093202477
 40
466.5049223087734
 40
466.5049223087734
 40
466.5049223087734
 40
466.5049223087734
 10
5972.707684698315
 20
8748.73857707163
 30
0.0
 10
5895.82600220348
 20
8739.834143413792
 30
0.0
 10
5738.914309993352
 20
8721.660636954458
 30
0.0
 10
6061.727719937697
 20
8619.140052315119
 30
0.0
 10
5891.885100268323
 20
8600.504963602913
 30
0.0
 10
5804.095095061429
 20
8590.872666725605
 30
0.0
 11
5972.707684698315
 21
8748.73857707163
 31
0.0
 11
5829.869706389546
 21
8710.465256135302
 31
0.0
 11
5963.17903430872
 21
8633.499079775679
 31
0.0
 11
5804.095095061429
 21
8590.872666725605
 31
0.0
  0
LINE
  5
1C66E
330
747D
100
AcDbEntity
  8
部品1
100
AcDbLine
 10
4645.137356965256
 20
2276.65734547811
 30
0.0
 11
7165.137356965253
 21
2276.65734547811
 31
0.0
  0
LINE
  5
1C66F
330
747D
100
AcDbEntity
  8
部品1
100
AcDbLine
 10
4645.137356965256
 20
2226.65734547811
 30
0.0
 11
7165.137356965253
 21
2226.65734547811
 31
0.0
  0
LINE
  5
1C670
330
747D
100
AcDbEntity
  8
細線
100
AcDbLine
 10
7117.137356965257
 20
2286.65734547811
 30
0.0
 11
4693.13735696525
 21
2286.65734547811
 31
0.0
  0
CIRCLE
  5
1C671
330
747D
100
AcDbEntity
  8
細線
 48
50.0
100
AcDbCircle
 10
5905.137356965253
 20
3164.15734547811
 30
0.0
 40
18.0
  0
ARC
  5
1C672
330
747D
100
AcDbEntity
  8
細線
 48
50.0
100
AcDbCircle
 10
6205.137356965253
 20
2839.15734547811
 30
0.0
 40
15.0
100
AcDbArc
 50
270.0
 51
90.0
  0
ARC
  5
1C673
330
747D
100
AcDbEntity
  8
細線
 48
50.0
100
AcDbCircle
 10
6105.137356965253
 20
2839.15734547811
 30
0.0
 40
15.0
100
AcDbArc
 50
90.0
 51
270.0
  0
LINE
  5
1C674
330
747D
100
AcDbEntity
  8
細線
 48
50.0
100
AcDbLine
 10
6105.137356965253
 20
2854.15734547811
 30
0.0
 11
6205.137356965253
 21
2854.15734547811
 31
0.0
  0
LINE
  5
1C675
330
747D
100
AcDbEntity
  8
細線
 48
50.0
100
AcDbLine
 10
6205.137356965253
 20
2824.15734547811
 30
0.0
 11
6105.137356965253
 21
2824.15734547811
 31
0.0
  0
ARC
  5
1C676
330
747D
100
AcDbEntity
  8
細線
 48
50.0
100
AcDbCircle
 10
5705.137356965253
 20
2839.15734547811
 30
0.0
 40
15.0
100
AcDbArc
 50
270.0
 51
90.0
  0
ARC
  5
1C677
330
747D
100
AcDbEntity
  8
細線
 48
50.0
100
AcDbCircle
 10
5605.137356965253
 20
2839.15734547811
 30
0.0
 40
15.0
100
AcDbArc
 50
90.0
 51
270.0
  0
LINE
  5
1C678
330
747D
100
AcDbEntity
  8
細線
100
AcDbLine
 10
4693.13735696525
 20
3911.65734547811
 30
0.0
 11
7117.137356965253
 21
3911.65734547811
 31
0.0
  0
LINE
  5
1C679
330
747D
100
AcDbEntity
  8
細線
100
AcDbLine
 10
4693.13735696525
 20
3976.65734547811
 30
0.0
 11
7117.137356965253
 21
3976.65734547811
 31
0.0
  0
LINE
  5
1C67A
330
747D
100
AcDbEntity
  8
細線
100
AcDbLine
 10
4693.13735696525
 20
4041.657345478109
 30
0.0
 11
7117.137356965253
 21
4041.657345478109
 31
0.0
  0
LINE
  5
1C67B
330
747D
100
AcDbEntity
  8
細線
100
AcDbLine
 10
4693.13735696525
 20
3521.65734547811
 30
0.0
 11
7117.137356965253
 21
3521.65734547811
 31
0.0
  0
LINE
  5
1C67C
330
747D
100
AcDbEntity
  8
細線
100
AcDbLine
 10
4693.13735696525
 20
3586.657345478111
 30
0.0
 11
7117.137356965253
 21
3586.657345478111
 31
0.0
  0
LINE
  5
1C67D
330
747D
100
AcDbEntity
  8
細線
100
AcDbLine
 10
4693.13735696525
 20
3651.65734547811
 30
0.0
 11
7117.137356965253
 21
3651.65734547811
 31
0.0
  0
LINE
  5
1C67E
330
747D
100
AcDbEntity
  8
細線
100
AcDbLine
 10
4693.13735696525
 20
3716.65734547811
 30
0.0
 11
7117.137356965253
 21
3716.65734547811
 31
0.0
  0
LINE
  5
1C67F
330
747D
100
AcDbEntity
  8
細線
100
AcDbLine
 10
4693.13735696525
 20
3781.65734547811
 30
0.0
 11
7117.137356965253
 21
3781.65734547811
 31
0.0
  0
LINE
  5
1C680
330
747D
100
AcDbEntity
  8
細線
100
AcDbLine
 10
4693.13735696525
 20
3846.65734547811
 30
0.0
 11
7117.137356965253
 21
3846.65734547811
 31
0.0
  0
LINE
  5
1C681
330
747D
100
AcDbEntity
  8
細線
100
AcDbLine
 10
4693.13735696525
 20
2871.65734547811
 30
0.0
 11
7117.137356965253
 21
2871.65734547811
 31
0.0
  0
LINE
  5
1C682
330
747D
100
AcDbEntity
  8
細線
100
AcDbLine
 10
4693.13735696525
 20
2936.65734547811
 30
0.0
 11
7117.137356965253
 21
2936.65734547811
 31
0.0
  0
LINE
  5
1C683
330
747D
100
AcDbEntity
  8
細線
100
AcDbLine
 10
4693.13735696525
 20
3001.65734547811
 30
0.0
 11
7117.137356965253
 21
3001.65734547811
 31
0.0
  0
LINE
  5
1C684
330
747D
100
AcDbEntity
  8
細線
100
AcDbLine
 10
4693.13735696525
 20
3066.65734547811
 30
0.0
 11
7117.137356965253
 21
3066.65734547811
 31
0.0
  0
LINE
  5
1C685
330
747D
100
AcDbEntity
  8
細線
100
AcDbLine
 10
4693.13735696525
 20
3131.65734547811
 30
0.0
 11
7117.137356965253
 21
3131.65734547811
 31
0.0
  0
LINE
  5
1C686
330
747D
100
AcDbEntity
  8
細線
100
AcDbLine
 10
4693.13735696525
 20
3196.65734547811
 30
0.0
 11
7117.137356965253
 21
3196.65734547811
 31
0.0
  0
LINE
  5
1C687
330
747D
100
AcDbEntity
  8
細線
100
AcDbLine
 10
4693.13735696525
 20
3261.657345478111
 30
0.0
 11
7117.137356965253
 21
3261.657345478111
 31
0.0
  0
LINE
  5
1C688
330
747D
100
AcDbEntity
  8
細線
100
AcDbLine
 10
4693.13735696525
 20
3326.65734547811
 30
0.0
 11
7117.137356965253
 21
3326.65734547811
 31
0.0
  0
LINE
  5
1C689
330
747D
100
AcDbEntity
  8
細線
100
AcDbLine
 10
4693.13735696525
 20
3391.65734547811
 30
0.0
 11
7117.137356965253
 21
3391.65734547811
 31
0.0
  0
LINE
  5
1C68A
330
747D
100
AcDbEntity
  8
細線
100
AcDbLine
 10
4693.13735696525
 20
3456.65734547811
 30
0.0
 11
7117.137356965253
 21
3456.65734547811
 31
0.0
  0
LINE
  5
1C68B
330
747D
100
AcDbEntity
  8
細線
100
AcDbLine
 10
4693.13735696525
 20
4171.657345478109
 30
0.0
 11
7117.137356965253
 21
4171.657345478109
 31
0.0
  0
LINE
  5
1C68C
330
747D
100
AcDbEntity
  8
細線
100
AcDbLine
 10
4693.13735696525
 20
4106.65734547811
 30
0.0
 11
7117.137356965253
 21
4106.65734547811
 31
0.0
  0
LINE
  5
1C68D
330
747D
100
AcDbEntity
  8
細線
100
AcDbLine
 10
4693.13735696525
 20
2351.65734547811
 30
0.0
 11
7117.137356965253
 21
2351.65734547811
 31
0.0
  0
LINE
  5
1C68E
330
747D
100
AcDbEntity
  8
細線
100
AcDbLine
 10
4693.13735696525
 20
2416.65734547811
 30
0.0
 11
7117.137356965253
 21
2416.65734547811
 31
0.0
  0
LINE
  5
1C68F
330
747D
100
AcDbEntity
  8
細線
100
AcDbLine
 10
4693.13735696525
 20
2481.65734547811
 30
0.0
 11
7117.137356965253
 21
2481.65734547811
 31
0.0
  0
LINE
  5
1C690
330
747D
100
AcDbEntity
  8
細線
100
AcDbLine
 10
4693.13735696525
 20
2546.65734547811
 30
0.0
 11
7117.137356965253
 21
2546.65734547811
 31
0.0
  0
LINE
  5
1C691
330
747D
100
AcDbEntity
  8
細線
100
AcDbLine
 10
4693.13735696525
 20
2611.65734547811
 30
0.0
 11
7117.137356965253
 21
2611.65734547811
 31
0.0
  0
LINE
  5
1C692
330
747D
100
AcDbEntity
  8
細線
100
AcDbLine
 10
4693.13735696525
 20
2676.657345478111
 30
0.0
 11
7117.137356965253
 21
2676.657345478111
 31
0.0
  0
LINE
  5
1C693
330
747D
100
AcDbEntity
  8
細線
100
AcDbLine
 10
4693.13735696525
 20
2741.65734547811
 30
0.0
 11
7117.137356965253
 21
2741.65734547811
 31
0.0
  0
LINE
  5
1C694
330
747D
100
AcDbEntity
  8
細線
100
AcDbLine
 10
4693.13735696525
 20
2806.65734547811
 30
0.0
 11
7117.137356965253
 21
2806.65734547811
 31
0.0
  0
LINE
  5
1C695
330
747D
100
AcDbEntity
  8
細線
 48
50.0
100
AcDbLine
 10
5705.137356965253
 20
2824.15734547811
 30
0.0
 11
5605.137356965253
 21
2824.15734547811
 31
0.0
  0
LINE
  5
1C696
330
747D
100
AcDbEntity
  8
細線
 48
50.0
100
AcDbLine
 10
5605.137356965253
 20
2854.15734547811
 30
0.0
 11
5705.137356965253
 21
2854.15734547811
 31
0.0
  0
LINE
  5
1C697
330
747D
100
AcDbEntity
  8
部品1
100
AcDbLine
 10
4645.137356965256
 20
4201.65734547811
 30
0.0
 11
7275.137356965257
 21
4201.65734547811
 31
0.0
  0
LINE
  5
1C698
330
747D
100
AcDbEntity
  8
部品1
100
AcDbLine
 10
6325.137356965271
 20
10192.49742454598
 30
0.0
 11
6325.137356965271
 21
10164.49742454598
 31
0.0
  0
LINE
  5
1C699
330
747D
100
AcDbEntity
  8
部品1
 48
50.0
100
AcDbLine
 10
4645.137356965262
 20
9297.49742454584
 30
0.0
 11
7165.137356965267
 21
9297.497424545836
 31
0.0
  0
LINE
  5
1C69A
330
747D
100
AcDbEntity
  8
部品1
 48
50.0
100
AcDbLine
 10
4645.137356965262
 20
8457.49742454584
 30
0.0
 11
7165.137356965267
 21
8457.497424545836
 31
0.0
  0
LINE
  5
1C69B
330
747D
100
AcDbEntity
  8
部品1
 48
50.0
100
AcDbLine
 10
4645.137356965262
 20
8877.49742454584
 30
0.0
 11
7165.137356965267
 21
8877.497424545836
 31
0.0
  0
LINE
  5
1C69C
330
747D
100
AcDbEntity
  8
部品1
 48
50.0
100
AcDbLine
 10
4645.137356965262
 20
8037.49742454584
 30
0.0
 11
7165.137356965267
 21
8037.497424545838
 31
0.0
  0
LINE
  5
1C69D
330
747D
100
AcDbEntity
  8
部品1
 48
50.0
100
AcDbLine
 10
4645.137356965262
 20
7617.49742454584
 30
0.0
 11
7165.137356965267
 21
7617.497424545837
 31
0.0
  0
LINE
  5
1C69E
330
747D
100
AcDbEntity
  8
破線
 48
10.0
100
AcDbLine
 10
5514.637356965162
 20
7297.497424545816
 30
0.0
 11
6295.637356965166
 21
7297.49742454577
 31
0.0
  0
LINE
  5
1C69F
330
747D
100
AcDbEntity
  8
部品1
 48
50.0
100
AcDbLine
 10
4645.137356965262
 20
7272.497424545864
 30
0.0
 11
7165.137356965249
 21
7272.497424545723
 31
0.0
  0
LINE
  5
1C6A0
330
747D
100
AcDbEntity
  8
部品1
 48
50.0
100
AcDbLine
 10
4645.137356965262
 20
7227.497424545865
 30
0.0
 11
7165.137356965249
 21
7227.497424545723
 31
0.0
  0
LINE
  5
1C6A1
330
747D
100
AcDbEntity
  8
部品1
 48
50.0
100
AcDbLine
 10
4645.137356965262
 20
7142.497424545864
 30
0.0
 11
7165.137356965249
 21
7142.497424545723
 31
0.0
  0
LINE
  5
1C6A2
330
747D
100
AcDbEntity
  8
部品1
 48
50.0
100
AcDbLine
 10
4657.137356965264
 20
7187.997424545864
 30
0.0
 11
7153.13735696525
 21
7187.997424545864
 31
0.0
  0
SPLINE
  5
1C6AA
330
747D
100
AcDbEntity
  8
部品1
 48
50.0
100
AcDbSpline
210
0.0
220
0.0
230
1.0
 70
     8
 71
     3
 72
    10
 73
     6
 74
     4
 42
0.0000000001
 43
0.0000000001
 44
0.0000000001
 40
0.0
 40
0.0
 40
0.0
 40
0.0
 40
147.8767566010009
 40
301.8091093202477
 40
466.5049223087734
 40
466.5049223087734
 40
466.5049223087734
 40
466.5049223087734
 10
5972.707684698304
 20
3245.398498003903
 30
0.0
 10
5895.82600220347
 20
3236.494064346064
 30
0.0
 10
5738.914309993343
 20
3218.320557886733
 30
0.0
 10
6061.727719937685
 20
3115.79997324739
 30
0.0
 10
5891.885100268313
 20
3097.164884535186
 30
0.0
 10
5804.095095061418
 20
3087.532587657877
 30
0.0
 11
5972.707684698304
 21
3245.398498003903
 31
0.0
 11
5829.869706389535
 21
3207.125177067574
 31
0.0
 11
5963.179034308709
 21
3130.15900070795
 31
0.0
 11
5804.095095061418
 21
3087.532587657877
 31
0.0
  0
LINE
  5
1C6AB
330
747D
100
AcDbEntity
  8
部品1
 48
50.0
100
AcDbLine
 10
6330.50669994966
 20
4751.657345478111
 30
0.0
 11
5560.152771710182
 21
1876.657345478109
 31
0.0
  0
TEXT
  5
1C6BA
330
747D
100
AcDbEntity
  8
文字
 62
     7
 48
50.0
100
AcDbText
 10
14646.46056207479
 20
871.9640646083623
 30
0.0
 40
100.0
  1
～多雪地型～
  7
STYLE2
100
AcDbText
  0
LINE
  5
1C6CA
330
747D
100
AcDbEntity
  8
破線
  6
HIDDEN
 48
5.0
100
AcDbLine
 10
7165.137356965257
 20
2126.657345478113
 30
0.0
 11
7165.137356965257
 21
1951.657345478112
 31
0.0
  0
LINE
  5
1C6CB
330
747D
100
AcDbEntity
  8
破線
  6
HIDDEN
 48
5.0
100
AcDbLine
 10
7275.137356965256
 20
1951.657345478112
 30
0.0
 11
7165.137356965257
 21
1951.657345478112
 31
0.0
  0
LINE
  5
1C6CC
330
747D
100
AcDbEntity
  8
破線
  6
HIDDEN
 48
5.0
100
AcDbLine
 10
7275.137356965257
 20
2126.657345478113
 30
0.0
 11
7275.137356965256
 21
1951.657345478112
 31
0.0
  0
LINE
  5
1C6CD
330
747D
100
AcDbEntity
  8
破線
 48
5.0
100
AcDbLine
 10
7220.137356965256
 20
1951.657345478112
 30
0.0
 11
7220.137356965256
 21
1876.657345478113
 31
0.0
  0
LINE
  5
1C6D6
330
747D
100
AcDbEntity
  8
破線
  6
HIDDEN
 48
5.0
100
AcDbLine
 10
4535.137356965257
 20
2126.657345478113
 30
0.0
 11
4535.137356965257
 21
1951.657345478112
 31
0.0
  0
LINE
  5
1C6D7
330
747D
100
AcDbEntity
  8
破線
  6
HIDDEN
 48
5.0
100
AcDbLine
 10
4645.137356965255
 20
1951.657345478112
 30
0.0
 11
4535.137356965257
 21
1951.657345478112
 31
0.0
  0
LINE
  5
1C6D8
330
747D
100
AcDbEntity
  8
破線
  6
HIDDEN
 48
5.0
100
AcDbLine
 10
4645.137356965256
 20
2126.657345478113
 30
0.0
 11
4645.137356965256
 21
1951.657345478112
 31
0.0
  0
LINE
  5
1C6D9
330
747D
100
AcDbEntity
  8
破線
 48
5.0
100
AcDbLine
 10
4590.137356965256
 20
1951.657345478112
 30
0.0
 11
4590.137356965256
 21
1876.657345478113
 31
0.0
  0
ENDSEC
  0
SECTION
  2
OBJECTS
  0
DICTIONARY
  5
7471
330
0
100
AcDbDictionary
281
     1
  3
ACAD_COLOR
350
1A558
  3
ACAD_GROUP
350
7472
  3
ACAD_LAYOUT
350
1A559
  3
ACAD_MATERIAL
350
1A557
  3
ACAD_MLINESTYLE
350
7473
  3
ACAD_PLOTSETTINGS
350
1A55A
  3
ACAD_PLOTSTYLENAME
350
1A555
  3
ACDBHEADERROUNDTRIPXREC
350
1C717
  3
AcDbVariableDictionary
350
1C713
  3
CONTENTDICTIONARY
350
E71C
  3
DRAWINGVARIABLESDICT
350
F3B9
  0
DICTIONARY
  5
1AA41
330
7467
100
AcDbDictionary
280
     1
281
     1
  3
ACAD_LAYERSTATES
360
1AA42
  0
DICTIONARY
  5
1A558
102
{ACAD_REACTORS
330
7471
102
}
330
7471
100
AcDbDictionary
281
     1
  0
DICTIONARY
  5
7472
102
{ACAD_REACTORS
330
7471
102
}
330
7471
100
AcDbDictionary
281
     1
  0
DICTIONARY
  5
1A559
102
{ACAD_REACTORS
330
7471
102
}
330
7471
100
AcDbDictionary
281
     1
  3
Model
350
1A55B
  3
レイアウト1
350
1A55C
  0
DICTIONARY
  5
1A557
102
{ACAD_REACTORS
330
7471
102
}
330
7471
100
AcDbDictionary
281
     1
  0
DICTIONARY
  5
7473
102
{ACAD_REACTORS
330
7471
102
}
330
7471
100
AcDbDictionary
281
     1
  3
STANDARD
350
7480
  0
DICTIONARY
  5
1A55A
102
{ACAD_REACTORS
330
7471
102
}
330
7471
100
AcDbDictionary
281
     1
  0
ACDBDICTIONARYWDFLT
  5
1A555
102
{ACAD_REACTORS
330
7471
102
}
330
7471
100
AcDbDictionary
281
     1
  3
Normal
350
1A556
100
AcDbDictionaryWithDefault
340
1A556
  0
DICTIONARY
  5
1C717
102
{ACAD_REACTORS
330
7471
102
}
330
7471
100
AcDbDictionary
281
     1
  3
COLORDICT
350
1C719
  3
MATERIALDICT
350
1C718
  0
DICTIONARY
  5
1C713
102
{ACAD_REACTORS
330
7471
102
}
330
7471
100
AcDbDictionary
281
     1
  3
DIMASSOC
350
1C714
  3
PROJECTNAME
350
1C715
  0
DICTIONARY
  5
E71C
102
{ACAD_REACTORS
330
7471
102
}
330
7471
100
AcDbDictionary
281
     1
  0
DICTIONARY
  5
F3B9
102
{ACAD_REACTORS
330
7471
102
}
330
7471
100
AcDbDictionary
281
     1
1001
DRAWINGVARIABLESXDATA
1000
POLARMODE
1000
1
  0
DICTIONARY
  5
1AA42
102
{ACAD_REACTORS
330
1AA41
102
}
330
1AA41
100
AcDbDictionary
281
     1
  0
LAYOUT
  5
1A55B
102
{ACAD_XDICTIONARY
360
1C71A
102
}
102
{ACAD_REACTORS
330
1A559
102
}
330
1A559
100
AcDbPlotSettings
  1

  2
none_device
  4
Letter_(8.50_x_11.00_Inches)
  6

 40
6.349999904632568
 41
6.349999904632568
 42
6.350006103515625
 43
6.350006103515625
 44
215.8999938964844
 45
279.3999938964844
 46
0.0
 47
0.0
 48
0.0
 49
0.0
140
0.0
141
0.0
142
1.0
143
1.0
 70
 11952
 72
     1
 73
     1
 74
     0
  7
inaba.ctb
 75
     0
147
1.0
148
-2464.779774247707
149
54.18477585042729
100
AcDbLayout
  1
Model
 70
     1
 71
     0
 10
0.0
 20
0.0
 11
12.0
 21
9.0
 12
0.0
 22
0.0
 32
0.0
 14
0.0
 24
0.0
 34
0.0
 15
0.0
 25
0.0
 35
0.0
146
0.0
 13
0.0
 23
0.0
 33
0.0
 16
1.0
 26
0.0
 36
0.0
 17
0.0
 27
1.0
 37
0.0
 76
     0
330
747D
  0
LAYOUT
  5
1A55C
102
{ACAD_XDICTIONARY
360
1C71C
102
}
102
{ACAD_REACTORS
330
1A559
102
}
330
1A559
100
AcDbPlotSettings
  1

  2
EPSON LP-8300
  4

  6

 40
0.0
 41
0.0
 42
0.0
 43
0.0
 44
0.0
 45
0.0
 46
0.0
 47
0.0
 48
0.0
 49
0.0
140
0.0
141
0.0
142
1.0
143
1.0
 70
   688
 72
     0
 73
     0
 74
     5
  7
inaba.ctb
 75
    16
147
1.0
148
0.0
149
0.0
100
AcDbLayout
  1
レイアウト1
 70
     0
 71
     1
 10
0.0
 20
0.0
 11
420.0
 21
297.0
 12
0.0
 22
0.0
 32
0.0
 14
1.000000000000000E+20
 24
1.000000000000000E+20
 34
1.000000000000000E+20
 15
-1.000000000000000E+20
 25
-1.000000000000000E+20
 35
-1.000000000000000E+20
146
0.0
 13
0.0
 23
0.0
 33
0.0
 16
1.0
 26
0.0
 36
0.0
 17
0.0
 27
1.0
 37
0.0
 76
     0
330
747A
  0
MLINESTYLE
  5
7480
102
{ACAD_REACTORS
330
7473
102
}
330
7473
100
AcDbMlineStyle
  2
STANDARD
 70
     0
  3

 62
     0
 51
90.0
 52
90.0
 71
     2
 49
0.5
 62
   256
  6
BYLAYER
 49
-0.5
 62
   256
  6
BYLAYER
  0
ACDBPLACEHOLDER
  5
1A556
102
{ACAD_REACTORS
330
1A555
102
}
330
1A555
  0
XRECORD
  5
1C719
102
{ACAD_REACTORS
330
1C717
102
}
330
1C717
100
AcDbXrecord
280
     1
340
1A558
  0
XRECORD
  5
1C718
102
{ACAD_REACTORS
330
1C717
102
}
330
1C717
100
AcDbXrecord
280
     1
340
1A557
  0
DICTIONARYVAR
  5
1C714
102
{ACAD_REACTORS
330
1C713
102
}
330
1C713
100
DictionaryVariables
280
     0
  1
1
  0
DICTIONARYVAR
  5
1C715
102
{ACAD_REACTORS
330
1C713
102
}
330
1C713
100
DictionaryVariables
280
     0
  1

  0
DICTIONARY
  5
1C71A
330
1A55B
100
AcDbDictionary
280
     1
281
     1
  3
ACAD_XREC_ROUNDTRIP
360
1C71B
  0
DICTIONARY
  5
1C71C
330
1A55C
100
AcDbDictionary
280
     1
281
     1
  3
ACAD_XREC_ROUNDTRIP
360
1C71D
  0
XRECORD
  5
1C71B
102
{ACAD_REACTORS
330
1C71A
102
}
330
1C71A
100
AcDbXrecord
280
     1
102
SHADEPLOT
 70
     0
102
SHADEPLOTRESLEVEL
 70
     2
102
SHADEPLOTCUSTOMDPI
 70
   300
  0
XRECORD
  5
1C71D
102
{ACAD_REACTORS
330
1C71C
102
}
330
1C71C
100
AcDbXrecord
280
     1
102
SHADEPLOT
 70
     0
102
SHADEPLOTRESLEVEL
 70
     2
102
SHADEPLOTCUSTOMDPI
 70
   300
  0
ENDSEC
  0
EOF
