  0
SECTION
  2
HEADER
  9
$ACADVER
  1
AC1015
  9
$ACADMAINTVER
 70
    20
  9
$DWGCODEPAGE
  3
ANSI_932
  9
$INSBASE
 10
0.0
 20
0.0
 30
0.0
  9
$EXTMIN
 10
139.9999999999995
 20
-0.0000000000000909
 30
0.0
  9
$EXTMAX
 10
16307.2
 20
11409.6
 30
0.0
  9
$LIMMIN
 10
0.0
 20
0.0
  9
$LIMMAX
 10
16800.0
 20
11880.0
  9
$ORTHOMODE
 70
     0
  9
$REGENMODE
 70
     1
  9
$FILLMODE
 70
     1
  9
$QTEXTMODE
 70
     0
  9
$MIRRTEXT
 70
     1
  9
$LTSCALE
 40
20.0
  9
$ATTMODE
 70
     1
  9
$TEXTSIZE
 40
100.0
  9
$TRACEWID
 40
1.0
  9
$TEXTSTYLE
  7
STYLE2
  9
$CLAYER
  8
部品1
  9
$CELTYPE
  6
BYLAYER
  9
$CECOLOR
 62
   256
  9
$CELTSCALE
 40
50.0
  9
$DISPSILH
 70
     0
  9
$DIMSCALE
 40
40.0
  9
$DIMASZ
 40
2.5
  9
$DIMEXO
 40
0.5
  9
$DIMDLI
 40
7.0
  9
$DIMRND
 40
0.0
  9
$DIMDLE
 40
0.0
  9
$DIMEXE
 40
1.5
  9
$DIMTP
 40
0.0
  9
$DIMTM
 40
0.0
  9
$DIMTXT
 40
3.0
  9
$DIMCEN
 40
0.0
  9
$DIMTSZ
 40
0.0
  9
$DIMTOL
 70
     0
  9
$DIMLIM
 70
     0
  9
$DIMTIH
 70
     0
  9
$DIMTOH
 70
     0
  9
$DIMSE1
 70
     0
  9
$DIMSE2
 70
     0
  9
$DIMTAD
 70
     3
  9
$DIMZIN
 70
     8
  9
$DIMBLK
  1

  9
$DIMASO
 70
     1
  9
$DIMSHO
 70
     1
  9
$DIMPOST
  1

  9
$DIMAPOST
  1

  9
$DIMALT
 70
     0
  9
$DIMALTD
 70
     2
  9
$DIMALTF
 40
0.0394
  9
$DIMLFAC
 40
1.0
  9
$DIMTOFL
 70
     1
  9
$DIMTVP
 40
0.0
  9
$DIMTIX
 70
     1
  9
$DIMSOXD
 70
     0
  9
$DIMSAH
 70
     1
  9
$DIMBLK1
  1
DOTSMALL
  9
$DIMBLK2
  1
DOTSMALL
  9
$DIMSTYLE
  2
INABA_S40G
  9
$DIMCLRD
 70
     0
  9
$DIMCLRE
 70
     0
  9
$DIMCLRT
 70
     7
  9
$DIMTFAC
 40
1.0
  9
$DIMGAP
 40
1.0
  9
$DIMJUST
 70
     0
  9
$DIMSD1
 70
     0
  9
$DIMSD2
 70
     0
  9
$DIMTOLJ
 70
     1
  9
$DIMTZIN
 70
     0
  9
$DIMALTZ
 70
     0
  9
$DIMALTTZ
 70
     0
  9
$DIMUPT
 70
     0
  9
$DIMDEC
 70
     1
  9
$DIMTDEC
 70
     4
  9
$DIMALTU
 70
     2
  9
$DIMALTTD
 70
     2
  9
$DIMTXSTY
  7
STYLE1
  9
$DIMAUNIT
 70
     0
  9
$DIMADEC
 70
     0
  9
$DIMALTRND
 40
0.0
  9
$DIMAZIN
 70
     0
  9
$DIMDSEP
 70
    46
  9
$DIMATFIT
 70
     3
  9
$DIMFRAC
 70
     0
  9
$DIMLDRBLK
  1

  9
$DIMLUNIT
 70
     2
  9
$DIMLWD
 70
    -2
  9
$DIMLWE
 70
    -2
  9
$DIMTMOVE
 70
     2
  9
$LUNITS
 70
     2
  9
$LUPREC
 70
     1
  9
$SKETCHINC
 40
1.0
  9
$FILLETRAD
 40
3.0
  9
$AUNITS
 70
     0
  9
$AUPREC
 70
     0
  9
$MENU
  1
acad
  9
$ELEVATION
 40
0.0
  9
$PELEVATION
 40
0.0
  9
$THICKNESS
 40
0.0
  9
$LIMCHECK
 70
     0
  9
$CHAMFERA
 40
0.0
  9
$CHAMFERB
 40
0.0
  9
$CHAMFERC
 40
0.0
  9
$CHAMFERD
 40
0.0
  9
$SKPOLY
 70
     0
  9
$TDCREATE
 40
2451368.612993866
  9
$TDUCREATE
 40
2451368.237993866
  9
$TDUPDATE
 40
2455569.623958148
  9
$TDUUPDATE
 40
2455569.248958148
  9
$TDINDWG
 40
0.8599970602
  9
$TDUSRTIMER
 40
0.8599970602
  9
$USRTIMER
 70
     1
  9
$ANGBASE
 50
0.0
  9
$ANGDIR
 70
     0
  9
$PDMODE
 70
     3
  9
$PDSIZE
 40
2.0
  9
$PLINEWID
 40
0.0
  9
$SPLFRAME
 70
     0
  9
$SPLINETYPE
 70
     6
  9
$SPLINESEGS
 70
     8
  9
$HANDSEED
  5
1955F
  9
$SURFTAB1
 70
     6
  9
$SURFTAB2
 70
     6
  9
$SURFTYPE
 70
     6
  9
$SURFU
 70
     6
  9
$SURFV
 70
     6
  9
$UCSBASE
  2

  9
$UCSNAME
  2

  9
$UCSORG
 10
0.0
 20
0.0
 30
0.0
  9
$UCSXDIR
 10
1.0
 20
0.0
 30
0.0
  9
$UCSYDIR
 10
0.0
 20
1.0
 30
0.0
  9
$UCSORTHOREF
  2

  9
$UCSORTHOVIEW
 70
     0
  9
$UCSORGTOP
 10
0.0
 20
0.0
 30
0.0
  9
$UCSORGBOTTOM
 10
0.0
 20
0.0
 30
0.0
  9
$UCSORGLEFT
 10
0.0
 20
0.0
 30
0.0
  9
$UCSORGRIGHT
 10
0.0
 20
0.0
 30
0.0
  9
$UCSORGFRONT
 10
0.0
 20
0.0
 30
0.0
  9
$UCSORGBACK
 10
0.0
 20
0.0
 30
0.0
  9
$PUCSBASE
  2

  9
$PUCSNAME
  2

  9
$PUCSORG
 10
0.0
 20
0.0
 30
0.0
  9
$PUCSXDIR
 10
1.0
 20
0.0
 30
0.0
  9
$PUCSYDIR
 10
0.0
 20
1.0
 30
0.0
  9
$PUCSORTHOREF
  2

  9
$PUCSORTHOVIEW
 70
     0
  9
$PUCSORGTOP
 10
0.0
 20
0.0
 30
0.0
  9
$PUCSORGBOTTOM
 10
0.0
 20
0.0
 30
0.0
  9
$PUCSORGLEFT
 10
0.0
 20
0.0
 30
0.0
  9
$PUCSORGRIGHT
 10
0.0
 20
0.0
 30
0.0
  9
$PUCSORGFRONT
 10
0.0
 20
0.0
 30
0.0
  9
$PUCSORGBACK
 10
0.0
 20
0.0
 30
0.0
  9
$USERI1
 70
     0
  9
$USERI2
 70
     0
  9
$USERI3
 70
     0
  9
$USERI4
 70
     0
  9
$USERI5
 70
     0
  9
$USERR1
 40
0.0
  9
$USERR2
 40
0.0
  9
$USERR3
 40
0.0
  9
$USERR4
 40
0.0
  9
$USERR5
 40
0.0
  9
$WORLDVIEW
 70
     1
  9
$SHADEDGE
 70
     3
  9
$SHADEDIF
 70
    70
  9
$TILEMODE
 70
     1
  9
$MAXACTVP
 70
    16
  9
$PINSBASE
 10
0.0
 20
0.0
 30
0.0
  9
$PLIMCHECK
 70
     0
  9
$PEXTMIN
 10
1.000000000000000E+20
 20
1.000000000000000E+20
 30
1.000000000000000E+20
  9
$PEXTMAX
 10
-1.000000000000000E+20
 20
-1.000000000000000E+20
 30
-1.000000000000000E+20
  9
$PLIMMIN
 10
0.0
 20
0.0
  9
$PLIMMAX
 10
420.0
 20
297.0
  9
$UNITMODE
 70
     0
  9
$VISRETAIN
 70
     0
  9
$PLINEGEN
 70
     0
  9
$PSLTSCALE
 70
     0
  9
$TREEDEPTH
 70
  3020
  9
$CMLSTYLE
  2
STANDARD
  9
$CMLJUST
 70
     0
  9
$CMLSCALE
 40
1.0
  9
$PROXYGRAPHICS
 70
     1
  9
$MEASUREMENT
 70
     1
  9
$CELWEIGHT
370
    -1
  9
$ENDCAPS
280
     0
  9
$JOINSTYLE
280
     0
  9
$LWDISPLAY
290
     0
  9
$INSUNITS
 70
     0
  9
$HYPERLINKBASE
  1

  9
$STYLESHEET
  1

  9
$XEDIT
290
     1
  9
$CEPSNTYPE
380
     0
  9
$PSTYLEMODE
290
     1
  9
$FINGERPRINTGUID
  2
{0CDCCC32-F767-4D9B-870B-065DD4C7DAC6}
  9
$VERSIONGUID
  2
{2F20F070-FAD8-4CC3-8918-07AC251C44D8}
  9
$EXTNAMES
290
     1
  9
$PSVPSCALE
 40
0.0
  9
$OLESTARTUP
290
     0
  0
ENDSEC
  0
SECTION
  2
CLASSES
  0
CLASS
  1
ACDBDICTIONARYWDFLT
  2
AcDbDictionaryWithDefault
  3
ObjectDBX Classes
 90
        0
280
     0
281
     0
  0
CLASS
  1
DICTIONARYVAR
  2
AcDbDictionaryVar
  3
ObjectDBX Classes
 90
        0
280
     0
281
     0
  0
CLASS
  1
ACDBPLACEHOLDER
  2
AcDbPlaceHolder
  3
ObjectDBX Classes
 90
        0
280
     0
281
     0
  0
CLASS
  1
LAYOUT
  2
AcDbLayout
  3
ObjectDBX Classes
 90
        0
280
     0
281
     0
  0
ENDSEC
  0
SECTION
  2
TABLES
  0
TABLE
  2
VPORT
  5
746D
330
0
100
AcDbSymbolTable
 70
     2
  0
VPORT
  5
19557
330
746D
100
AcDbSymbolTableRecord
100
AcDbViewportTableRecord
  2
*Active
 70
     0
 10
0.0
 20
0.0
 11
1.0
 21
1.0
 12
8223.761025238504
 22
5958.807553215734
 13
0.0
 23
0.0
 14
10.0
 24
10.0
 15
10.0
 25
10.0
 16
0.0
 26
0.0
 36
1.0
 17
0.0
 27
0.0
 37
0.0
 40
12025.6196116811
 41
1.627450980392157
 42
50.0
 43
0.0
 44
0.0
 50
0.0
 51
0.0
 71
     0
 72
     0
 73
     1
 74
     0
 75
     0
 76
     0
 77
     0
 78
     0
281
     0
 65
     1
110
0.0
120
0.0
130
0.0
111
1.0
121
0.0
131
0.0
112
0.0
122
1.0
132
0.0
 79
     0
146
0.0
  0
ENDTAB
  0
TABLE
  2
LTYPE
  5
746A
330
0
100
AcDbSymbolTable
 70
     3
  0
LTYPE
  5
7477
330
746A
100
AcDbSymbolTableRecord
100
AcDbLinetypeTableRecord
  2
BYBLOCK
 70
     0
  3

 72
    65
 73
     0
 40
0.0
  0
LTYPE
  5
7478
330
746A
100
AcDbSymbolTableRecord
100
AcDbLinetypeTableRecord
  2
BYLAYER
 70
     0
  3

 72
    65
 73
     0
 40
0.0
  0
LTYPE
  5
7479
330
746A
100
AcDbSymbolTableRecord
100
AcDbLinetypeTableRecord
  2
CONTINUOUS
 70
     0
  3
Solid line
 72
    65
 73
     0
 40
0.0
  0
LTYPE
  5
781A
330
746A
100
AcDbSymbolTableRecord
100
AcDbLinetypeTableRecord
  2
HIDDEN
 70
     0
  3
__ __ __ __ __ __ __ __ __ __ __ __ __ __ __ __
 72
    65
 73
     2
 40
0.375
 49
0.25
 74
     0
 49
-0.125
 74
     0
  0
LTYPE
  5
781B
330
746A
100
AcDbSymbolTableRecord
100
AcDbLinetypeTableRecord
  2
PHANTOM
 70
     0
  3
______  __  __  ______  __  __  ______  __  __ 
 72
    65
 73
     6
 40
2.5
 49
1.25
 74
     0
 49
-0.25
 74
     0
 49
0.25
 74
     0
 49
-0.25
 74
     0
 49
0.25
 74
     0
 49
-0.25
 74
     0
  0
ENDTAB
  0
TABLE
  2
LAYER
  5
7467
102
{ACAD_XDICTIONARY
360
17DE8
102
}
330
0
100
AcDbSymbolTable
 70
    10
  0
LAYER
  5
7474
330
7467
100
AcDbSymbolTableRecord
100
AcDbLayerTableRecord
  2
0
 70
     0
 62
     7
  6
CONTINUOUS
370
    -3
390
17AF5
  0
LAYER
  5
DEB3
330
7467
100
AcDbSymbolTableRecord
100
AcDbLayerTableRecord
  2
寸法
 70
     0
 62
     4
  6
CONTINUOUS
370
    -3
390
17AF5
  0
LAYER
  5
DEB4
330
7467
100
AcDbSymbolTableRecord
100
AcDbLayerTableRecord
  2
部品1
 70
     0
 62
     7
  6
CONTINUOUS
370
    -3
390
17AF5
  0
LAYER
  5
DEB5
330
7467
100
AcDbSymbolTableRecord
100
AcDbLayerTableRecord
  2
補助
 70
     0
 62
    -1
  6
CONTINUOUS
370
    -3
390
17AF5
  0
LAYER
  5
DEB6
330
7467
100
AcDbSymbolTableRecord
100
AcDbLayerTableRecord
  2
文字
 70
     0
 62
     7
  6
CONTINUOUS
370
    -3
390
17AF5
  0
LAYER
  5
F255
330
7467
100
AcDbSymbolTableRecord
100
AcDbLayerTableRecord
  2
DEFPOINTS
 70
     0
 62
     7
  6
CONTINUOUS
290
     0
370
    -3
390
17AF5
  0
LAYER
  5
10B54
330
7467
100
AcDbSymbolTableRecord
100
AcDbLayerTableRecord
  2
仕様書枠
 70
     0
 62
   230
  6
CONTINUOUS
370
    -3
390
17AF5
  0
LAYER
  5
11729
330
7467
100
AcDbSymbolTableRecord
100
AcDbLayerTableRecord
  2
Ｇ．Ｌ
 70
     0
 62
    30
  6
CONTINUOUS
370
    -3
390
17AF5
  0
LAYER
  5
1173F
330
7467
100
AcDbSymbolTableRecord
100
AcDbLayerTableRecord
  2
細線
 70
     0
 62
     5
  6
CONTINUOUS
370
    -3
390
17AF5
  0
LAYER
  5
142E2
330
7467
100
AcDbSymbolTableRecord
100
AcDbLayerTableRecord
  2
破線
 70
     0
 62
     2
  6
HIDDEN
370
    -3
390
17AF5
  0
ENDTAB
  0
TABLE
  2
STYLE
  5
7468
330
0
100
AcDbSymbolTable
 70
     4
  0
STYLE
  5
7475
330
7468
100
AcDbSymbolTableRecord
100
AcDbTextStyleTableRecord
  2
STANDARD
 70
     0
 40
0.0
 41
1.0
 50
0.0
 71
     0
 42
4.0
  3
txt
  4
C:\AutoCAD LT\bigfont.shx
  0
STYLE
  5
763C
330
7468
100
AcDbSymbolTableRecord
100
AcDbTextStyleTableRecord
  2
MSMINCHO
 70
     0
 40
0.0
 41
1.0
 50
0.0
 71
     0
 42
1.199999999999999
  3
C:\AutoCAD LT\msminch2.TTF
  4

  0
STYLE
  5
F706
330
7468
100
AcDbSymbolTableRecord
100
AcDbTextStyleTableRecord
  2
STYLE1
 70
     0
 40
0.0
 41
1.0
 50
0.0
 71
     0
 42
4.0
  3
isocp.shx
  4
bigfont.shx
  0
STYLE
  5
103BF
330
7468
100
AcDbSymbolTableRecord
100
AcDbTextStyleTableRecord
  2
STYLE2
 70
     0
 40
0.0
 41
1.0
 50
0.0
 71
     0
 42
100.0
  3
MS PGothic.ttf
  4

1001
ACAD
1000
MS PGothic
1071
    32818
  0
ENDTAB
  0
TABLE
  2
VIEW
  5
746B
330
0
100
AcDbSymbolTable
 70
     0
  0
ENDTAB
  0
TABLE
  2
UCS
  5
746C
330
0
100
AcDbSymbolTable
 70
     0
  0
ENDTAB
  0
TABLE
  2
APPID
  5
746E
330
0
100
AcDbSymbolTable
 70
     6
  0
APPID
  5
7476
330
746E
100
AcDbSymbolTableRecord
100
AcDbRegAppTableRecord
  2
ACAD
 70
     0
  0
APPID
  5
DEA9
330
746E
100
AcDbSymbolTableRecord
100
AcDbRegAppTableRecord
  2
CONTENTBLOCKICON
 70
     0
  0
APPID
  5
DEAA
330
746E
100
AcDbSymbolTableRecord
100
AcDbRegAppTableRecord
  2
CONTENTBLOCKDESCRIPTION
 70
     0
  0
APPID
  5
E71D
330
746E
100
AcDbSymbolTableRecord
100
AcDbRegAppTableRecord
  2
CONTENTTABDATA
 70
     0
  0
APPID
  5
E71E
330
746E
100
AcDbSymbolTableRecord
100
AcDbRegAppTableRecord
  2
CONTENTCURRENTTAB
 70
     0
  0
APPID
  5
F3BA
330
746E
100
AcDbSymbolTableRecord
100
AcDbRegAppTableRecord
  2
DRAWINGVARIABLESXDATA
 70
     0
  0
ENDTAB
  0
TABLE
  2
DIMSTYLE
  5
746F
330
0
100
AcDbSymbolTable
 70
     2
100
AcDbDimStyleTable
 71
     1
340
F71F
  0
DIMSTYLE
105
F71F
102
{ACAD_REACTORS
330
162CD
330
162CE
330
162CF
330
162D0
330
162DA
330
162E4
330
162E7
330
162EA
330
162EB
330
16301
330
16302
330
1631F
330
16320
330
16333
330
1659B
330
1659C
330
1659A
330
165E9
330
16667
330
166DD
330
16907
330
16913
330
1807F
330
18081
330
18084
330
180A7
330
180D3
330
180D4
330
180D5
330
180E2
330
180F1
330
18172
330
18173
330
18174
330
18175
330
18C97
330
18CBC
330
19005
330
19006
330
19007
330
19455
102
}
330
746F
100
AcDbSymbolTableRecord
100
AcDbDimStyleTableRecord
  2
INABA_S40G
 70
     0
 40
40.0
 41
2.5
 42
0.5
 43
7.0
 44
1.5
 73
     0
 74
     0
 77
     3
 78
     8
140
3.0
141
0.0
143
0.0394
147
1.0
172
     1
173
     1
174
     1
178
     7
271
     1
340
F706
341
F770
343
F770
344
F770
  0
DIMSTYLE
105
193F5
330
746F
100
AcDbSymbolTableRecord
100
AcDbDimStyleTableRecord
  2
INABA_S20G
 70
     0
 40
20.0
 41
2.5
 42
0.5
 43
7.0
 44
1.5
 73
     0
 74
     0
 77
     3
 78
     8
140
3.0
141
0.0
143
0.0394
147
1.0
172
     1
173
     1
174
     1
178
     7
271
     1
340
F706
341
F770
343
F770
344
F770
  0
ENDTAB
  0
TABLE
  2
BLOCK_RECORD
  5
7466
330
0
100
AcDbSymbolTable
 70
    42
  0
BLOCK_RECORD
  5
747D
330
7466
100
AcDbSymbolTableRecord
100
AcDbBlockTableRecord
  2
*MODEL_SPACE
340
17AFA
  0
BLOCK_RECORD
  5
747A
330
7466
100
AcDbSymbolTableRecord
100
AcDbBlockTableRecord
  2
*PAPER_SPACE
340
17AFB
  0
BLOCK_RECORD
  5
F770
330
7466
100
AcDbSymbolTableRecord
100
AcDbBlockTableRecord
  2
_DOTSMALL
340
0
102
{BLKREFS
331
17334
331
17335
331
1641A
331
1641B
331
16427
331
16428
331
1731E
331
1731F
331
1662B
331
1662C
331
16452
331
16453
331
166C8
331
166C9
331
1646A
331
1646B
331
16479
331
1647A
331
16487
331
16488
331
16493
331
16494
331
165A2
331
165A3
331
165BE
331
165BF
331
165CD
331
165CE
331
16644
331
16645
331
186DA
331
186DB
331
186EE
331
186EF
331
18731
331
18732
331
1873B
331
1873C
331
1874F
331
18750
331
18761
331
18762
331
18787
331
18788
331
18792
331
18793
331
187A5
331
187A6
331
18E43
331
18E44
331
18E4C
331
18E4D
331
18E5E
331
18E5F
331
18E67
331
18E68
331
18E72
331
18E73
331
18E7B
331
18E7C
331
18E86
331
18E87
331
18E91
331
18E92
331
18E9A
331
18E9B
331
1913E
331
1913F
331
194AB
331
194AC
331
194F4
331
194F5
331
194FF
331
19500
331
19508
331
19509
331
19511
331
19512
331
1953A
331
1953B
331
19546
331
19547
102
}
  0
BLOCK_RECORD
  5
16338
330
7466
100
AcDbSymbolTableRecord
100
AcDbBlockTableRecord
  2
*D1
340
0
  0
BLOCK_RECORD
  5
16344
330
7466
100
AcDbSymbolTableRecord
100
AcDbBlockTableRecord
  2
*D2
340
0
  0
BLOCK_RECORD
  5
16352
330
7466
100
AcDbSymbolTableRecord
100
AcDbBlockTableRecord
  2
*D3
340
0
  0
BLOCK_RECORD
  5
16360
330
7466
100
AcDbSymbolTableRecord
100
AcDbBlockTableRecord
  2
*D4
340
0
  0
BLOCK_RECORD
  5
1636C
330
7466
100
AcDbSymbolTableRecord
100
AcDbBlockTableRecord
  2
*D5
340
0
  0
BLOCK_RECORD
  5
16384
330
7466
100
AcDbSymbolTableRecord
100
AcDbBlockTableRecord
  2
*D6
340
0
  0
BLOCK_RECORD
  5
1638F
330
7466
100
AcDbSymbolTableRecord
100
AcDbBlockTableRecord
  2
*D7
340
0
  0
BLOCK_RECORD
  5
1639B
330
7466
100
AcDbSymbolTableRecord
100
AcDbBlockTableRecord
  2
*D8
340
0
  0
BLOCK_RECORD
  5
163A9
330
7466
100
AcDbSymbolTableRecord
100
AcDbBlockTableRecord
  2
*D9
340
0
  0
BLOCK_RECORD
  5
163B8
330
7466
100
AcDbSymbolTableRecord
100
AcDbBlockTableRecord
  2
*D10
340
0
  0
BLOCK_RECORD
  5
163C7
330
7466
100
AcDbSymbolTableRecord
100
AcDbBlockTableRecord
  2
*D11
340
0
  0
BLOCK_RECORD
  5
163E1
330
7466
100
AcDbSymbolTableRecord
100
AcDbBlockTableRecord
  2
*D12
340
0
  0
BLOCK_RECORD
  5
163ED
330
7466
100
AcDbSymbolTableRecord
100
AcDbBlockTableRecord
  2
*D13
340
0
  0
BLOCK_RECORD
  5
163FB
330
7466
100
AcDbSymbolTableRecord
100
AcDbBlockTableRecord
  2
*D14
340
0
  0
BLOCK_RECORD
  5
1659E
330
7466
100
AcDbSymbolTableRecord
100
AcDbBlockTableRecord
  2
*D15
340
0
  0
BLOCK_RECORD
  5
165B5
330
7466
100
AcDbSymbolTableRecord
100
AcDbBlockTableRecord
  2
*D16
340
0
  0
BLOCK_RECORD
  5
165C4
330
7466
100
AcDbSymbolTableRecord
100
AcDbBlockTableRecord
  2
*D17
340
0
  0
BLOCK_RECORD
  5
165EA
330
7466
100
AcDbSymbolTableRecord
100
AcDbBlockTableRecord
  2
*D18
340
0
  0
BLOCK_RECORD
  5
166AD
330
7466
100
AcDbSymbolTableRecord
100
AcDbBlockTableRecord
  2
*D19
340
0
  0
BLOCK_RECORD
  5
166CF
330
7466
100
AcDbSymbolTableRecord
100
AcDbBlockTableRecord
  2
*D20
340
0
  0
BLOCK_RECORD
  5
168FB
330
7466
100
AcDbSymbolTableRecord
100
AcDbBlockTableRecord
  2
*D21
340
0
  0
BLOCK_RECORD
  5
16908
330
7466
100
AcDbSymbolTableRecord
100
AcDbBlockTableRecord
  2
*D22
340
0
  0
BLOCK_RECORD
  5
18308
330
7466
100
AcDbSymbolTableRecord
100
AcDbBlockTableRecord
  2
*D23
340
0
  0
BLOCK_RECORD
  5
18321
330
7466
100
AcDbSymbolTableRecord
100
AcDbBlockTableRecord
  2
*D24
340
0
  0
BLOCK_RECORD
  5
1832F
330
7466
100
AcDbSymbolTableRecord
100
AcDbBlockTableRecord
  2
*D25
340
0
  0
BLOCK_RECORD
  5
18361
330
7466
100
AcDbSymbolTableRecord
100
AcDbBlockTableRecord
  2
*D26
340
0
  0
BLOCK_RECORD
  5
1836D
330
7466
100
AcDbSymbolTableRecord
100
AcDbBlockTableRecord
  2
*D27
340
0
  0
BLOCK_RECORD
  5
18379
330
7466
100
AcDbSymbolTableRecord
100
AcDbBlockTableRecord
  2
*D28
340
0
  0
BLOCK_RECORD
  5
18387
330
7466
100
AcDbSymbolTableRecord
100
AcDbBlockTableRecord
  2
*D29
340
0
  0
BLOCK_RECORD
  5
18393
330
7466
100
AcDbSymbolTableRecord
100
AcDbBlockTableRecord
  2
*D30
340
0
  0
BLOCK_RECORD
  5
183A0
330
7466
100
AcDbSymbolTableRecord
100
AcDbBlockTableRecord
  2
*D31
340
0
  0
BLOCK_RECORD
  5
183EC
330
7466
100
AcDbSymbolTableRecord
100
AcDbBlockTableRecord
  2
*D32
340
0
  0
BLOCK_RECORD
  5
183F8
330
7466
100
AcDbSymbolTableRecord
100
AcDbBlockTableRecord
  2
*D33
340
0
  0
BLOCK_RECORD
  5
18406
330
7466
100
AcDbSymbolTableRecord
100
AcDbBlockTableRecord
  2
*D34
340
0
  0
BLOCK_RECORD
  5
18412
330
7466
100
AcDbSymbolTableRecord
100
AcDbBlockTableRecord
  2
*D35
340
0
  0
BLOCK_RECORD
  5
18CFA
330
7466
100
AcDbSymbolTableRecord
100
AcDbBlockTableRecord
  2
*D36
340
0
  0
BLOCK_RECORD
  5
18D55
330
7466
100
AcDbSymbolTableRecord
100
AcDbBlockTableRecord
  2
*D37
340
0
  0
BLOCK_RECORD
  5
19070
330
7466
100
AcDbSymbolTableRecord
100
AcDbBlockTableRecord
  2
*D38
340
0
  0
BLOCK_RECORD
  5
1907C
330
7466
100
AcDbSymbolTableRecord
100
AcDbBlockTableRecord
  2
*D39
340
0
  0
BLOCK_RECORD
  5
1908A
330
7466
100
AcDbSymbolTableRecord
100
AcDbBlockTableRecord
  2
*D40
340
0
  0
BLOCK_RECORD
  5
1945C
330
7466
100
AcDbSymbolTableRecord
100
AcDbBlockTableRecord
  2
*D41
340
0
  0
ENDTAB
  0
ENDSEC
  0
SECTION
  2
BLOCKS
  0
BLOCK
  5
7489
330
747D
100
AcDbEntity
  8
0
100
AcDbBlockBegin
  2
*MODEL_SPACE
 70
     0
 10
0.0
 20
0.0
 30
0.0
  3
*MODEL_SPACE
  1

  0
ENDBLK
  5
748A
330
747D
100
AcDbEntity
  8
0
100
AcDbBlockEnd
  0
BLOCK
  5
7487
330
747A
100
AcDbEntity
 67
     1
  8
0
100
AcDbBlockBegin
  2
*PAPER_SPACE
 70
     0
 10
0.0
 20
0.0
 30
0.0
  3
*PAPER_SPACE
  1

  0
ENDBLK
  5
7488
330
747A
100
AcDbEntity
 67
     1
  8
0
100
AcDbBlockEnd
  0
BLOCK
  5
F771
330
F770
100
AcDbEntity
  8
0
 48
50.0
100
AcDbBlockBegin
  2
_DOTSMALL
 70
     0
 10
0.0
 20
0.0
 30
0.0
  3
_DOTSMALL
  1

  0
LWPOLYLINE
  5
F772
330
F770
100
AcDbEntity
  8
0
  6
ByBlock
 62
     0
 48
50.0
100
AcDbPolyline
 90
        2
 70
     1
 43
0.5
 10
-0.0625
 20
0.0
 42
1.0
 10
0.0625
 20
0.0
 42
1.0
  0
ENDBLK
  5
F776
330
F770
100
AcDbEntity
  8
0
 48
50.0
100
AcDbBlockEnd
  0
BLOCK
  5
17330
330
16338
100
AcDbEntity
  8
0
 48
50.0
100
AcDbBlockBegin
  2
*D1
 70
     1
 10
0.0
 20
0.0
 30
0.0
  3
*D1
  1

  0
LINE
  5
17331
330
16338
100
AcDbEntity
  8
0
  6
ByBlock
 62
     0
 48
50.0
100
AcDbLine
 10
8709.673057123664
 20
10137.49742454596
 30
0.0
 11
9397.099402858071
 21
10137.49742454596
 31
0.0
  0
LINE
  5
17332
330
16338
100
AcDbEntity
  8
0
  6
ByBlock
 62
     0
 48
50.0
100
AcDbLine
 10
8709.673057123639
 20
7197.497424545952
 30
0.0
 11
9397.099402858071
 21
7197.497424545952
 31
0.0
  0
LINE
  5
17333
330
16338
100
AcDbEntity
  8
0
  6
ByBlock
 62
     0
 48
50.0
100
AcDbLine
 10
9337.09940285807
 20
10137.49742454596
 30
0.0
 11
9337.09940285807
 21
7197.497424545952
 31
0.0
  0
INSERT
  5
17334
330
16338
100
AcDbEntity
  8
0
  6
ByBlock
 62
     0
 48
50.0
100
AcDbBlockReference
  2
_DOTSMALL
 10
9337.09940285807
 20
10137.49742454596
 30
0.0
 41
100.0
 42
100.0
 43
100.0
 50
90.0
  0
INSERT
  5
17335
330
16338
100
AcDbEntity
  8
0
  6
ByBlock
 62
     0
 48
50.0
100
AcDbBlockReference
  2
_DOTSMALL
 10
9337.09940285807
 20
7197.497424545952
 30
0.0
 41
100.0
 42
100.0
 43
100.0
 50
270.0
  0
MTEXT
  5
17336
330
16338
100
AcDbEntity
  8
0
  6
ByBlock
 62
     7
 48
50.0
100
AcDbMText
 10
9237.087591834448
 20
8667.49742454596
 30
0.0
 40
120.0
 41
0.0
 71
     5
 72
     1
  1
\A1;7X420=2940
  7
STYLE1
 11
0.0000000000000001
 21
1.0
 31
0.0
 73
     1
 44
1.0
1001
ACAD
1000
MTEXTBEGIN
1070
    73
1070
     1
1070
    44
1040
1.0
1070
    74
1070
     0
1000
MTEXTEND
  0
POINT
  5
17337
330
16338
100
AcDbEntity
  8
DEFPOINTS
  6
ByBlock
 62
     0
 48
50.0
100
AcDbPoint
 10
8689.673057123664
 20
10137.49742454596
 30
0.0
  0
POINT
  5
17338
330
16338
100
AcDbEntity
  8
DEFPOINTS
  6
ByBlock
 62
     0
 48
50.0
100
AcDbPoint
 10
8689.67305712364
 20
7197.497424545952
 30
0.0
  0
POINT
  5
17339
330
16338
100
AcDbEntity
  8
DEFPOINTS
  6
ByBlock
 62
     0
 48
50.0
100
AcDbPoint
 10
9337.09940285807
 20
7197.497424545952
 30
0.0
  0
ENDBLK
  5
1733A
330
16338
100
AcDbEntity
  8
0
 48
50.0
100
AcDbBlockEnd
  0
BLOCK
  5
16414
330
16344
100
AcDbEntity
  8
0
 48
50.0
100
AcDbBlockBegin
  2
*D2
 70
     1
 10
0.0
 20
0.0
 30
0.0
  3
*D2
  1

  0
LINE
  5
16415
330
16344
100
AcDbEntity
  8
0
  6
ByBlock
 62
     0
 48
50.0
100
AcDbLine
 10
7394.673057123639
 20
7037.497424545953
 30
0.0
 11
8082.099402858048
 21
7037.497424545951
 31
0.0
  0
LINE
  5
16416
330
16344
100
AcDbEntity
  8
0
  6
ByBlock
 62
     0
 48
50.0
100
AcDbLine
 10
7394.673057123639
 20
6982.497424545956
 30
0.0
 11
8082.099402858048
 21
6982.497424545956
 31
0.0
  0
LINE
  5
16417
330
16344
100
AcDbEntity
  8
0
  6
ByBlock
 62
     0
 48
50.0
100
AcDbLine
 10
8022.099402858048
 20
7037.497424545951
 30
0.0
 11
8022.099402858048
 21
7137.497424545951
 31
0.0
  0
LINE
  5
16418
330
16344
100
AcDbEntity
  8
0
  6
ByBlock
 62
     0
 48
50.0
100
AcDbLine
 10
8022.099402858048
 20
6982.497424545956
 30
0.0
 11
8022.099402858048
 21
6496.150676266855
 31
0.0
  0
LINE
  5
16419
330
16344
100
AcDbEntity
  8
0
  6
ByBlock
 62
     0
 48
50.0
100
AcDbLine
 10
8022.099402858048
 20
7037.497424545951
 30
0.0
 11
8022.099402858048
 21
6982.497424545956
 31
0.0
  0
INSERT
  5
1641A
330
16344
100
AcDbEntity
  8
0
  6
ByBlock
 62
     0
 48
50.0
100
AcDbBlockReference
  2
_DOTSMALL
 10
8022.099402858048
 20
7037.497424545951
 30
0.0
 41
100.0
 42
100.0
 43
100.0
 50
270.0
  0
INSERT
  5
1641B
330
16344
100
AcDbEntity
  8
0
  6
ByBlock
 62
     0
 48
50.0
100
AcDbBlockReference
  2
_DOTSMALL
 10
8022.099402858048
 20
6982.497424545956
 30
0.0
 41
100.0
 42
100.0
 43
100.0
 50
90.0
  0
MTEXT
  5
1641C
330
16344
100
AcDbEntity
  8
0
  6
ByBlock
 62
     7
 48
50.0
100
AcDbMText
 10
7922.099402858048
 20
6604.635957641093
 30
0.0
 40
120.0
 41
0.0
 71
     5
 72
     1
  1
\A1;55
  7
STYLE1
 11
0.0000000000000001
 21
1.0
 31
0.0
 73
     1
 44
1.0
1001
ACAD
1000
MTEXTBEGIN
1070
    73
1070
     1
1070
    44
1040
1.0
1070
    74
1070
     0
1000
MTEXTEND
  0
POINT
  5
1641D
330
16344
100
AcDbEntity
  8
DEFPOINTS
  6
ByBlock
 62
     0
 48
50.0
100
AcDbPoint
 10
7374.673057123638
 20
7037.497424545953
 30
0.0
  0
POINT
  5
1641E
330
16344
100
AcDbEntity
  8
DEFPOINTS
  6
ByBlock
 62
     0
 48
50.0
100
AcDbPoint
 10
7374.673057123638
 20
6982.497424545956
 30
0.0
  0
POINT
  5
1641F
330
16344
100
AcDbEntity
  8
DEFPOINTS
  6
ByBlock
 62
     0
 48
50.0
100
AcDbPoint
 10
8022.099402858048
 20
6982.497424545956
 30
0.0
  0
ENDBLK
  5
16420
330
16344
100
AcDbEntity
  8
0
 48
50.0
100
AcDbBlockEnd
  0
BLOCK
  5
16421
330
16352
100
AcDbEntity
  8
0
 48
50.0
100
AcDbBlockBegin
  2
*D3
 70
     1
 10
0.0
 20
0.0
 30
0.0
  3
*D3
  1

  0
LINE
  5
16422
330
16352
100
AcDbEntity
  8
0
  6
ByBlock
 62
     0
 48
50.0
100
AcDbLine
 10
7394.673057123664
 20
10032.49742454596
 30
0.0
 11
8082.099402858075
 21
10032.49742454596
 31
0.0
  0
LINE
  5
16423
330
16352
100
AcDbEntity
  8
0
  6
ByBlock
 62
     0
 48
50.0
100
AcDbLine
 10
7394.673057123664
 20
9977.497424545967
 30
0.0
 11
8082.099402858075
 21
9977.497424545967
 31
0.0
  0
LINE
  5
16424
330
16352
100
AcDbEntity
  8
0
  6
ByBlock
 62
     0
 48
50.0
100
AcDbLine
 10
8022.099402858072
 20
9977.497424545967
 30
0.0
 11
8022.099402858072
 21
9877.497424545968
 31
0.0
  0
LINE
  5
16425
330
16352
100
AcDbEntity
  8
0
  6
ByBlock
 62
     0
 48
50.0
100
AcDbLine
 10
8022.099402858072
 20
10032.49742454596
 30
0.0
 11
8022.099402858072
 21
10449.46798729444
 31
0.0
  0
LINE
  5
16426
330
16352
100
AcDbEntity
  8
0
  6
ByBlock
 62
     0
 48
50.0
100
AcDbLine
 10
8022.099402858072
 20
9977.497424545967
 30
0.0
 11
8022.099402858072
 21
10032.49742454596
 31
0.0
  0
INSERT
  5
16427
330
16352
100
AcDbEntity
  8
0
  6
ByBlock
 62
     0
 48
50.0
100
AcDbBlockReference
  2
_DOTSMALL
 10
8022.099402858072
 20
9977.497424545967
 30
0.0
 41
100.0
 42
100.0
 43
100.0
 50
90.0
  0
INSERT
  5
16428
330
16352
100
AcDbEntity
  8
0
  6
ByBlock
 62
     0
 48
50.0
100
AcDbBlockReference
  2
_DOTSMALL
 10
8022.099402858072
 20
10032.49742454596
 30
0.0
 41
100.0
 42
100.0
 43
100.0
 50
270.0
  0
MTEXT
  5
16429
330
16352
100
AcDbEntity
  8
0
  6
ByBlock
 62
     7
 48
50.0
100
AcDbMText
 10
7922.099402858073
 20
10340.9827059202
 30
0.0
 40
120.0
 41
0.0
 71
     5
 72
     1
  1
\A1;55
  7
STYLE1
 11
0.0000000000000001
 21
1.0
 31
0.0
 73
     1
 44
1.0
1001
ACAD
1000
MTEXTBEGIN
1070
    73
1070
     1
1070
    44
1040
1.0
1070
    74
1070
     0
1000
MTEXTEND
  0
POINT
  5
1642A
330
16352
100
AcDbEntity
  8
DEFPOINTS
  6
ByBlock
 62
     0
 48
50.0
100
AcDbPoint
 10
7374.673057123664
 20
10032.49742454596
 30
0.0
  0
POINT
  5
1642B
330
16352
100
AcDbEntity
  8
DEFPOINTS
  6
ByBlock
 62
     0
 48
50.0
100
AcDbPoint
 10
7374.673057123664
 20
9977.497424545967
 30
0.0
  0
POINT
  5
1642C
330
16352
100
AcDbEntity
  8
DEFPOINTS
  6
ByBlock
 62
     0
 48
50.0
100
AcDbPoint
 10
8022.099402858072
 20
9977.497424545967
 30
0.0
  0
ENDBLK
  5
1642D
330
16352
100
AcDbEntity
  8
0
 48
50.0
100
AcDbBlockEnd
  0
BLOCK
  5
1731A
330
16360
100
AcDbEntity
  8
0
 48
50.0
100
AcDbBlockBegin
  2
*D4
 70
     1
 10
0.0
 20
0.0
 30
0.0
  3
*D4
  1

  0
LINE
  5
1731B
330
16360
100
AcDbEntity
  8
0
  6
ByBlock
 62
     0
 48
50.0
100
AcDbLine
 10
8709.673057123664
 20
10192.49742454596
 30
0.0
 11
9762.206344597709
 21
10192.49742454596
 31
0.0
  0
LINE
  5
1731C
330
16360
100
AcDbEntity
  8
0
  6
ByBlock
 62
     0
 48
50.0
100
AcDbLine
 10
8709.673057123639
 20
7142.497424545957
 30
0.0
 11
9762.206344597709
 21
7142.497424545957
 31
0.0
  0
LINE
  5
1731D
330
16360
100
AcDbEntity
  8
0
  6
ByBlock
 62
     0
 48
50.0
100
AcDbLine
 10
9702.20634459771
 20
10192.49742454596
 30
0.0
 11
9702.20634459771
 21
7142.497424545957
 31
0.0
  0
INSERT
  5
1731E
330
16360
100
AcDbEntity
  8
0
  6
ByBlock
 62
     0
 48
50.0
100
AcDbBlockReference
  2
_DOTSMALL
 10
9702.20634459771
 20
10192.49742454596
 30
0.0
 41
100.0
 42
100.0
 43
100.0
 50
90.0
  0
INSERT
  5
1731F
330
16360
100
AcDbEntity
  8
0
  6
ByBlock
 62
     0
 48
50.0
100
AcDbBlockReference
  2
_DOTSMALL
 10
9702.20634459771
 20
7142.497424545957
 30
0.0
 41
100.0
 42
100.0
 43
100.0
 50
270.0
  0
MTEXT
  5
17320
330
16360
100
AcDbEntity
  8
0
  6
ByBlock
 62
     7
 48
50.0
100
AcDbMText
 10
9602.206344597711
 20
8667.49742454596
 30
0.0
 40
120.0
 41
0.0
 71
     5
 72
     1
  1
\A1;3050
  7
STYLE1
 11
0.0000000000000001
 21
1.0
 31
0.0
 73
     1
 44
1.0
1001
ACAD
1000
MTEXTBEGIN
1070
    73
1070
     1
1070
    44
1040
1.0
1070
    74
1070
     0
1000
MTEXTEND
  0
POINT
  5
17321
330
16360
100
AcDbEntity
  8
DEFPOINTS
  6
ByBlock
 62
     0
 48
50.0
100
AcDbPoint
 10
8689.673057123664
 20
10192.49742454596
 30
0.0
  0
POINT
  5
17322
330
16360
100
AcDbEntity
  8
DEFPOINTS
  6
ByBlock
 62
     0
 48
50.0
100
AcDbPoint
 10
8689.67305712364
 20
7142.497424545957
 30
0.0
  0
POINT
  5
17323
330
16360
100
AcDbEntity
  8
DEFPOINTS
  6
ByBlock
 62
     0
 48
50.0
100
AcDbPoint
 10
9702.20634459771
 20
7142.497424545957
 30
0.0
  0
ENDBLK
  5
17324
330
16360
100
AcDbEntity
  8
0
 48
50.0
100
AcDbBlockEnd
  0
BLOCK
  5
16627
330
1636C
100
AcDbEntity
  8
0
 48
50.0
100
AcDbBlockBegin
  2
*D5
 70
     1
 10
0.0
 20
0.0
 30
0.0
  3
*D5
  1

  0
LINE
  5
16628
330
1636C
100
AcDbEntity
  8
0
  6
ByBlock
 62
     0
 48
50.0
100
AcDbLine
 10
8681.173057123663
 20
8997.138440697341
 30
0.0
 11
9076.530782985688
 21
8891.202657331207
 31
0.0
  0
LINE
  5
16629
330
1636C
100
AcDbEntity
  8
0
  6
ByBlock
 62
     0
 48
50.0
100
AcDbLine
 10
8681.173057123663
 20
8547.138440697345
 30
0.0
 11
9076.530782985688
 21
8441.20265733121
 31
0.0
  0
LINE
  5
1662A
330
1636C
100
AcDbEntity
  8
0
  6
ByBlock
 62
     0
 48
50.0
100
AcDbLine
 10
9016.530782985688
 20
8907.279608877074
 30
0.0
 11
9016.530782985688
 21
8457.279608877078
 31
0.0
  0
INSERT
  5
1662B
330
1636C
100
AcDbEntity
  8
0
  6
ByBlock
 62
     0
 48
50.0
100
AcDbBlockReference
  2
_DOTSMALL
 10
9016.530782985688
 20
8907.279608877074
 30
0.0
 41
100.0
 42
100.0
 43
100.0
 50
90.0
  0
INSERT
  5
1662C
330
1636C
100
AcDbEntity
  8
0
  6
ByBlock
 62
     0
 48
50.0
100
AcDbBlockReference
  2
_DOTSMALL
 10
9016.530782985688
 20
8457.279608877078
 30
0.0
 41
100.0
 42
100.0
 43
100.0
 50
270.0
  0
MTEXT
  5
1662D
330
1636C
100
AcDbEntity
  8
0
  6
ByBlock
 62
     7
 48
50.0
100
AcDbMText
 10
8916.530782985688
 20
8682.279608877076
 30
0.0
 40
120.0
 41
0.0
 71
     5
 72
     1
  1
\A1;450
  7
STYLE1
 11
0.0000000000000001
 21
1.0
 31
0.0
 73
     1
 44
1.0
1001
ACAD
1000
MTEXTBEGIN
1070
    73
1070
     1
1070
    44
1040
1.0
1070
    74
1070
     0
1000
MTEXTEND
  0
POINT
  5
1662E
330
1636C
100
AcDbEntity
  8
DEFPOINTS
  6
ByBlock
 62
     0
 48
50.0
100
AcDbPoint
 10
8661.173057123663
 20
9002.497424545962
 30
0.0
  0
POINT
  5
1662F
330
1636C
100
AcDbEntity
  8
DEFPOINTS
  6
ByBlock
 62
     0
 48
50.0
100
AcDbPoint
 10
8661.173057123663
 20
8552.497424545967
 30
0.0
  0
POINT
  5
16630
330
1636C
100
AcDbEntity
  8
DEFPOINTS
  6
ByBlock
 62
     0
 48
50.0
100
AcDbPoint
 10
9016.530782985688
 20
8457.279608877078
 30
0.0
  0
ENDBLK
  5
16631
330
1636C
100
AcDbEntity
  8
0
 48
50.0
100
AcDbBlockEnd
  0
BLOCK
  5
1644F
330
16384
100
AcDbEntity
  8
0
 48
50.0
100
AcDbBlockBegin
  2
*D6
 70
     1
 10
0.0
 20
0.0
 30
0.0
  3
*D6
  1

  0
LINE
  5
16450
330
16384
100
AcDbEntity
  8
0
  6
ByBlock
 62
     0
 48
50.0
100
AcDbLine
 10
4847.673057123657
 20
6988.497424545865
 30
0.0
 11
4847.673057123657
 21
6388.0666537797
 31
0.0
  0
LINE
  5
16451
330
16384
100
AcDbEntity
  8
0
  6
ByBlock
 62
     0
 48
50.0
100
AcDbLine
 10
7271.673057123638
 20
6448.066653779701
 30
0.0
 11
4847.673057123657
 21
6448.066653779701
 31
0.0
  0
INSERT
  5
16452
330
16384
100
AcDbEntity
  8
0
  6
ByBlock
 62
     0
 48
50.0
100
AcDbBlockReference
  2
_DOTSMALL
 10
7271.673057123638
 20
6448.066653779701
 30
0.0
 41
100.0
 42
100.0
 43
100.0
  0
INSERT
  5
16453
330
16384
100
AcDbEntity
  8
0
  6
ByBlock
 62
     0
 48
50.0
100
AcDbBlockReference
  2
_DOTSMALL
 10
4847.673057123657
 20
6448.066653779701
 30
0.0
 41
100.0
 42
100.0
 43
100.0
 50
180.0
  0
MTEXT
  5
16454
330
16384
100
AcDbEntity
  8
0
  6
ByBlock
 62
     7
 48
50.0
100
AcDbMText
 10
6059.673057123648
 20
6548.078464803322
 30
0.0
 40
120.0
 41
0.0
 71
     5
 72
     1
  1
\A1;有効開口部間口 2424
  7
STYLE1
 73
     1
 44
1.0
1001
ACAD
1000
MTEXTBEGIN
1070
    73
1070
     1
1070
    44
1040
1.0
1070
    74
1070
     0
1000
MTEXTEND
  0
POINT
  5
16455
330
16384
100
AcDbEntity
  8
DEFPOINTS
  6
ByBlock
 62
     0
 48
50.0
100
AcDbPoint
 10
7271.673057123638
 20
7008.497424545865
 30
0.0
  0
POINT
  5
16456
330
16384
100
AcDbEntity
  8
DEFPOINTS
  6
ByBlock
 62
     0
 48
50.0
100
AcDbPoint
 10
4847.673057123657
 20
7008.497424545864
 30
0.0
  0
POINT
  5
16457
330
16384
100
AcDbEntity
  8
DEFPOINTS
  6
ByBlock
 62
     0
 48
50.0
100
AcDbPoint
 10
4847.673057123657
 20
6448.066653779701
 30
0.0
  0
ENDBLK
  5
16458
330
16384
100
AcDbEntity
  8
0
 48
50.0
100
AcDbBlockEnd
  0
BLOCK
  5
166C4
330
1638F
100
AcDbEntity
  8
0
 48
50.0
100
AcDbBlockBegin
  2
*D7
 70
     1
 10
0.0
 20
0.0
 30
0.0
  3
*D7
  1

  0
LINE
  5
166C5
330
1638F
100
AcDbEntity
  8
0
  6
ByBlock
 62
     0
 48
50.0
100
AcDbLine
 10
3429.673057123657
 20
7122.497424545861
 30
0.0
 11
3429.673057123657
 21
6101.893658188827
 31
0.0
  0
LINE
  5
166C6
330
1638F
100
AcDbEntity
  8
0
  6
ByBlock
 62
     0
 48
50.0
100
AcDbLine
 10
8689.673057123627
 20
7122.497424545956
 30
0.0
 11
8689.673057123627
 21
6101.893658188827
 31
0.0
  0
LINE
  5
166C7
330
1638F
100
AcDbEntity
  8
0
  6
ByBlock
 62
     0
 48
50.0
100
AcDbLine
 10
3429.673057123657
 20
6161.893658188827
 30
0.0
 11
8689.673057123627
 21
6161.893658188827
 31
0.0
  0
INSERT
  5
166C8
330
1638F
100
AcDbEntity
  8
0
  6
ByBlock
 62
     0
 48
50.0
100
AcDbBlockReference
  2
_DOTSMALL
 10
3429.673057123657
 20
6161.893658188827
 30
0.0
 41
100.0
 42
100.0
 43
100.0
 50
180.0
  0
INSERT
  5
166C9
330
1638F
100
AcDbEntity
  8
0
  6
ByBlock
 62
     0
 48
50.0
100
AcDbBlockReference
  2
_DOTSMALL
 10
8689.673057123627
 20
6161.893658188827
 30
0.0
 41
100.0
 42
100.0
 43
100.0
  0
MTEXT
  5
166CA
330
1638F
100
AcDbEntity
  8
0
  6
ByBlock
 62
     7
 48
50.0
100
AcDbMText
 10
6059.673057123642
 20
6261.905469212448
 30
0.0
 40
120.0
 41
0.0
 71
     5
 72
     1
  1
\A1;5260
  7
STYLE1
 73
     1
 44
1.0
1001
ACAD
1000
MTEXTBEGIN
1070
    73
1070
     1
1070
    44
1040
1.0
1070
    74
1070
     0
1000
MTEXTEND
  0
POINT
  5
166CB
330
1638F
100
AcDbEntity
  8
DEFPOINTS
  6
ByBlock
 62
     0
 48
50.0
100
AcDbPoint
 10
3429.673057123657
 20
7142.497424545862
 30
0.0
  0
POINT
  5
166CC
330
1638F
100
AcDbEntity
  8
DEFPOINTS
  6
ByBlock
 62
     0
 48
50.0
100
AcDbPoint
 10
8689.673057123627
 20
7142.497424545957
 30
0.0
  0
POINT
  5
166CD
330
1638F
100
AcDbEntity
  8
DEFPOINTS
  6
ByBlock
 62
     0
 48
50.0
100
AcDbPoint
 10
8689.673057123627
 20
6161.893658188827
 30
0.0
  0
ENDBLK
  5
166CE
330
1638F
100
AcDbEntity
  8
0
 48
50.0
100
AcDbBlockEnd
  0
BLOCK
  5
16464
330
1639B
100
AcDbEntity
  8
0
 48
50.0
100
AcDbBlockBegin
  2
*D8
 70
     1
 10
0.0
 20
0.0
 30
0.0
  3
*D8
  1

  0
LINE
  5
16465
330
1639B
100
AcDbEntity
  8
0
  6
ByBlock
 62
     0
 48
50.0
100
AcDbLine
 10
4799.673057123653
 20
6962.497424545865
 30
0.0
 11
4799.673057123653
 21
6388.0666537797
 31
0.0
  0
LINE
  5
16466
330
1639B
100
AcDbEntity
  8
0
  6
ByBlock
 62
     0
 48
50.0
100
AcDbLine
 10
4744.673057123656
 20
6962.497424545862
 30
0.0
 11
4744.673057123656
 21
6388.0666537797
 31
0.0
  0
LINE
  5
16467
330
1639B
100
AcDbEntity
  8
0
  6
ByBlock
 62
     0
 48
50.0
100
AcDbLine
 10
4799.673057123653
 20
6448.066653779701
 30
0.0
 11
4899.673057123653
 21
6448.066653779701
 31
0.0
  0
LINE
  5
16468
330
1639B
100
AcDbEntity
  8
0
  6
ByBlock
 62
     0
 48
50.0
100
AcDbLine
 10
4744.673057123656
 20
6448.066653779701
 30
0.0
 11
4327.70249437518
 21
6448.066653779701
 31
0.0
  0
LINE
  5
16469
330
1639B
100
AcDbEntity
  8
0
  6
ByBlock
 62
     0
 48
50.0
100
AcDbLine
 10
4799.673057123653
 20
6448.066653779701
 30
0.0
 11
4744.673057123656
 21
6448.066653779701
 31
0.0
  0
INSERT
  5
1646A
330
1639B
100
AcDbEntity
  8
0
  6
ByBlock
 62
     0
 48
50.0
100
AcDbBlockReference
  2
_DOTSMALL
 10
4799.673057123653
 20
6448.066653779701
 30
0.0
 41
100.0
 42
100.0
 43
100.0
 50
180.0
  0
INSERT
  5
1646B
330
1639B
100
AcDbEntity
  8
0
  6
ByBlock
 62
     0
 48
50.0
100
AcDbBlockReference
  2
_DOTSMALL
 10
4744.673057123656
 20
6448.066653779701
 30
0.0
 41
100.0
 42
100.0
 43
100.0
  0
MTEXT
  5
1646C
330
1639B
100
AcDbEntity
  8
0
  6
ByBlock
 62
     7
 48
50.0
100
AcDbMText
 10
4436.187775749418
 20
6548.0666537797
 30
0.0
 40
120.0
 41
0.0
 71
     5
 72
     1
  1
\A1;55
  7
STYLE1
 73
     1
 44
1.0
1001
ACAD
1000
MTEXTBEGIN
1070
    73
1070
     1
1070
    44
1040
1.0
1070
    74
1070
     0
1000
MTEXTEND
  0
POINT
  5
1646D
330
1639B
100
AcDbEntity
  8
DEFPOINTS
  6
ByBlock
 62
     0
 48
50.0
100
AcDbPoint
 10
4799.673057123653
 20
6982.497424545865
 30
0.0
  0
POINT
  5
1646E
330
1639B
100
AcDbEntity
  8
DEFPOINTS
  6
ByBlock
 62
     0
 48
50.0
100
AcDbPoint
 10
4744.673057123656
 20
6982.497424545861
 30
0.0
  0
POINT
  5
1646F
330
1639B
100
AcDbEntity
  8
DEFPOINTS
  6
ByBlock
 62
     0
 48
50.0
100
AcDbPoint
 10
4744.673057123656
 20
6448.066653779701
 30
0.0
  0
ENDBLK
  5
16470
330
1639B
100
AcDbEntity
  8
0
 48
50.0
100
AcDbBlockEnd
  0
BLOCK
  5
16471
330
163A9
100
AcDbEntity
  8
0
 48
50.0
100
AcDbBlockBegin
  2
*D9
 70
     1
 10
0.0
 20
0.0
 30
0.0
  3
*D9
  1

  0
LINE
  5
16472
330
163A9
100
AcDbEntity
  8
0
  6
ByBlock
 62
     0
 48
50.0
100
AcDbLine
 10
4847.673057123657
 20
6988.497424545865
 30
0.0
 11
4847.673057123657
 21
6388.0666537797
 31
0.0
  0
LINE
  5
16473
330
163A9
100
AcDbEntity
  8
0
  6
ByBlock
 62
     0
 48
50.0
100
AcDbLine
 10
4799.673057123653
 20
6962.497424545865
 30
0.0
 11
4799.673057123653
 21
6388.0666537797
 31
0.0
  0
LINE
  5
16474
330
163A9
100
AcDbEntity
  8
0
  6
ByBlock
 62
     0
 48
50.0
100
AcDbLine
 10
4847.673057123657
 20
6448.066653779701
 30
0.0
 11
4947.673057123656
 21
6448.066653779701
 31
0.0
  0
LINE
  5
16475
330
163A9
100
AcDbEntity
  8
0
  6
ByBlock
 62
     0
 48
50.0
100
AcDbLine
 10
4799.673057123653
 20
6448.066653779701
 30
0.0
 11
4699.673057123653
 21
6448.066653779701
 31
0.0
  0
MTEXT
  5
16476
330
163A9
100
AcDbEntity
  8
0
  6
ByBlock
 62
     7
 48
50.0
100
AcDbMText
 10
4960.575028123714
 20
6548.0666537797
 30
0.0
 40
120.0
 41
0.0
 71
     5
 72
     1
  1
\A1;48
  7
STYLE1
 73
     1
 44
1.0
1001
ACAD
1000
MTEXTBEGIN
1070
    73
1070
     1
1070
    44
1040
1.0
1070
    74
1070
     0
1000
MTEXTEND
  0
LINE
  5
16477
330
163A9
100
AcDbEntity
  8
0
  6
ByBlock
 62
     0
 48
50.0
100
AcDbLine
 10
4847.673057123657
 20
6448.066653779701
 30
0.0
 11
4799.673057123653
 21
6448.066653779701
 31
0.0
  0
LINE
  5
16478
330
163A9
100
AcDbEntity
  8
0
  6
ByBlock
 62
     0
 48
50.0
100
AcDbLine
 10
4847.673057123657
 20
6448.066653779701
 30
0.0
 11
4799.673057123653
 21
6448.066653779701
 31
0.0
  0
INSERT
  5
16479
330
163A9
100
AcDbEntity
  8
0
  6
ByBlock
 62
     0
 48
50.0
100
AcDbBlockReference
  2
_DOTSMALL
 10
4847.673057123657
 20
6448.066653779701
 30
0.0
 41
100.0
 42
100.0
 43
100.0
 50
180.0
  0
INSERT
  5
1647A
330
163A9
100
AcDbEntity
  8
0
  6
ByBlock
 62
     0
 48
50.0
100
AcDbBlockReference
  2
_DOTSMALL
 10
4799.673057123653
 20
6448.066653779701
 30
0.0
 41
100.0
 42
100.0
 43
100.0
  0
POINT
  5
1647B
330
163A9
100
AcDbEntity
  8
DEFPOINTS
  6
ByBlock
 62
     0
 48
50.0
100
AcDbPoint
 10
4847.673057123657
 20
7008.497424545864
 30
0.0
  0
POINT
  5
1647C
330
163A9
100
AcDbEntity
  8
DEFPOINTS
  6
ByBlock
 62
     0
 48
50.0
100
AcDbPoint
 10
4799.673057123653
 20
6982.497424545865
 30
0.0
  0
POINT
  5
1647D
330
163A9
100
AcDbEntity
  8
DEFPOINTS
  6
ByBlock
 62
     0
 48
50.0
100
AcDbPoint
 10
4799.673057123653
 20
6448.066653779701
 30
0.0
  0
ENDBLK
  5
1647E
330
163A9
100
AcDbEntity
  8
0
 48
50.0
100
AcDbBlockEnd
  0
BLOCK
  5
1647F
330
163B8
100
AcDbEntity
  8
0
 48
50.0
100
AcDbBlockBegin
  2
*D10
 70
     1
 10
0.0
 20
0.0
 30
0.0
  3
*D10
  1

  0
LINE
  5
16480
330
163B8
100
AcDbEntity
  8
0
  6
ByBlock
 62
     0
 48
50.0
100
AcDbLine
 10
7319.67305712364
 20
6962.497424545952
 30
0.0
 11
7319.67305712364
 21
6388.0666537797
 31
0.0
  0
LINE
  5
16481
330
163B8
100
AcDbEntity
  8
0
  6
ByBlock
 62
     0
 48
50.0
100
AcDbLine
 10
7271.673057123638
 20
6988.497424545865
 30
0.0
 11
7271.673057123638
 21
6388.0666537797
 31
0.0
  0
LINE
  5
16482
330
163B8
100
AcDbEntity
  8
0
  6
ByBlock
 62
     0
 48
50.0
100
AcDbLine
 10
7319.67305712364
 20
6448.066653779701
 30
0.0
 11
7419.67305712364
 21
6448.066653779701
 31
0.0
  0
LINE
  5
16483
330
163B8
100
AcDbEntity
  8
0
  6
ByBlock
 62
     0
 48
50.0
100
AcDbLine
 10
7271.673057123638
 20
6448.066653779701
 30
0.0
 11
7171.673057123638
 21
6448.066653779701
 31
0.0
  0
MTEXT
  5
16484
330
163B8
100
AcDbEntity
  8
0
  6
ByBlock
 62
     7
 48
50.0
100
AcDbMText
 10
7160.710159474891
 20
6548.0666537797
 30
0.0
 40
120.0
 41
0.0
 71
     5
 72
     1
  1
\A1;48
  7
STYLE1
 73
     1
 44
1.0
1001
ACAD
1000
MTEXTBEGIN
1070
    73
1070
     1
1070
    44
1040
1.0
1070
    74
1070
     0
1000
MTEXTEND
  0
LINE
  5
16485
330
163B8
100
AcDbEntity
  8
0
  6
ByBlock
 62
     0
 48
50.0
100
AcDbLine
 10
7319.67305712364
 20
6448.066653779701
 30
0.0
 11
7271.673057123638
 21
6448.066653779701
 31
0.0
  0
LINE
  5
16486
330
163B8
100
AcDbEntity
  8
0
  6
ByBlock
 62
     0
 48
50.0
100
AcDbLine
 10
7319.67305712364
 20
6448.066653779701
 30
0.0
 11
7271.673057123638
 21
6448.066653779701
 31
0.0
  0
INSERT
  5
16487
330
163B8
100
AcDbEntity
  8
0
  6
ByBlock
 62
     0
 48
50.0
100
AcDbBlockReference
  2
_DOTSMALL
 10
7319.67305712364
 20
6448.066653779701
 30
0.0
 41
100.0
 42
100.0
 43
100.0
 50
180.0
  0
INSERT
  5
16488
330
163B8
100
AcDbEntity
  8
0
  6
ByBlock
 62
     0
 48
50.0
100
AcDbBlockReference
  2
_DOTSMALL
 10
7271.673057123638
 20
6448.066653779701
 30
0.0
 41
100.0
 42
100.0
 43
100.0
  0
POINT
  5
16489
330
163B8
100
AcDbEntity
  8
DEFPOINTS
  6
ByBlock
 62
     0
 48
50.0
100
AcDbPoint
 10
7319.67305712364
 20
6982.497424545953
 30
0.0
  0
POINT
  5
1648A
330
163B8
100
AcDbEntity
  8
DEFPOINTS
  6
ByBlock
 62
     0
 48
50.0
100
AcDbPoint
 10
7271.673057123638
 20
7008.497424545865
 30
0.0
  0
POINT
  5
1648B
330
163B8
100
AcDbEntity
  8
DEFPOINTS
  6
ByBlock
 62
     0
 48
50.0
100
AcDbPoint
 10
7271.673057123638
 20
6448.066653779701
 30
0.0
  0
ENDBLK
  5
1648C
330
163B8
100
AcDbEntity
  8
0
 48
50.0
100
AcDbBlockEnd
  0
BLOCK
  5
1648D
330
163C7
100
AcDbEntity
  8
0
 48
50.0
100
AcDbBlockBegin
  2
*D11
 70
     1
 10
0.0
 20
0.0
 30
0.0
  3
*D11
  1

  0
LINE
  5
1648E
330
163C7
100
AcDbEntity
  8
0
  6
ByBlock
 62
     0
 48
50.0
100
AcDbLine
 10
7374.673057123638
 20
6962.497424545957
 30
0.0
 11
7374.673057123638
 21
6388.066653779702
 31
0.0
  0
LINE
  5
1648F
330
163C7
100
AcDbEntity
  8
0
  6
ByBlock
 62
     0
 48
50.0
100
AcDbLine
 10
7319.67305712364
 20
6962.497424545952
 30
0.0
 11
7319.67305712364
 21
6388.066653779702
 31
0.0
  0
LINE
  5
16490
330
163C7
100
AcDbEntity
  8
0
  6
ByBlock
 62
     0
 48
50.0
100
AcDbLine
 10
7319.67305712364
 20
6448.066653779702
 30
0.0
 11
7219.67305712364
 21
6448.066653779702
 31
0.0
  0
LINE
  5
16491
330
163C7
100
AcDbEntity
  8
0
  6
ByBlock
 62
     0
 48
50.0
100
AcDbLine
 10
7374.673057123638
 20
6448.066653779702
 30
0.0
 11
7791.643619872115
 21
6448.066653779702
 31
0.0
  0
LINE
  5
16492
330
163C7
100
AcDbEntity
  8
0
  6
ByBlock
 62
     0
 48
50.0
100
AcDbLine
 10
7319.67305712364
 20
6448.066653779702
 30
0.0
 11
7374.673057123638
 21
6448.066653779702
 31
0.0
  0
INSERT
  5
16493
330
163C7
100
AcDbEntity
  8
0
  6
ByBlock
 62
     0
 48
50.0
100
AcDbBlockReference
  2
_DOTSMALL
 10
7319.67305712364
 20
6448.066653779702
 30
0.0
 41
100.0
 42
100.0
 43
100.0
  0
INSERT
  5
16494
330
163C7
100
AcDbEntity
  8
0
  6
ByBlock
 62
     0
 48
50.0
100
AcDbBlockReference
  2
_DOTSMALL
 10
7374.673057123638
 20
6448.066653779702
 30
0.0
 41
100.0
 42
100.0
 43
100.0
 50
180.0
  0
MTEXT
  5
16495
330
163C7
100
AcDbEntity
  8
0
  6
ByBlock
 62
     7
 48
50.0
100
AcDbMText
 10
7683.158338497877
 20
6548.066653779702
 30
0.0
 40
120.0
 41
0.0
 71
     5
 72
     1
  1
\A1;55
  7
STYLE1
 73
     1
 44
1.0
1001
ACAD
1000
MTEXTBEGIN
1070
    73
1070
     1
1070
    44
1040
1.0
1070
    74
1070
     0
1000
MTEXTEND
  0
POINT
  5
16496
330
163C7
100
AcDbEntity
  8
DEFPOINTS
  6
ByBlock
 62
     0
 48
50.0
100
AcDbPoint
 10
7374.673057123638
 20
6982.497424545956
 30
0.0
  0
POINT
  5
16497
330
163C7
100
AcDbEntity
  8
DEFPOINTS
  6
ByBlock
 62
     0
 48
50.0
100
AcDbPoint
 10
7319.67305712364
 20
6982.497424545953
 30
0.0
  0
POINT
  5
16498
330
163C7
100
AcDbEntity
  8
DEFPOINTS
  6
ByBlock
 62
     0
 48
50.0
100
AcDbPoint
 10
7319.67305712364
 20
6448.066653779702
 30
0.0
  0
ENDBLK
  5
16499
330
163C7
100
AcDbEntity
  8
0
 48
50.0
100
AcDbBlockEnd
  0
BLOCK
  5
1661C
330
163E1
100
AcDbEntity
  8
0
 48
50.0
100
AcDbBlockBegin
  2
*D12
 70
     1
 10
0.0
 20
0.0
 30
0.0
  3
*D12
  1

  0
LINE
  5
18E97
330
163E1
100
AcDbEntity
  8
寸法
 62
     0
 48
50.0
370
    -2
100
AcDbLine
 10
6114.673057123663
 20
10212.49742454587
 30
0.0
 11
6114.673057123663
 21
10668.30564417097
 31
0.0
  0
LINE
  5
18E98
330
163E1
100
AcDbEntity
  8
寸法
 62
     0
 48
50.0
370
    -2
100
AcDbLine
 10
8634.673057123665
 20
10212.49742454596
 30
0.0
 11
8634.673057123665
 21
10668.30564417097
 31
0.0
  0
LINE
  5
18E99
330
163E1
100
AcDbEntity
  8
寸法
 62
     0
 48
50.0
370
    -2
100
AcDbLine
 10
6114.673057123663
 20
10608.30564417096
 30
0.0
 11
8634.673057123665
 21
10608.30564417096
 31
0.0
  0
INSERT
  5
18E9A
330
163E1
100
AcDbEntity
  8
寸法
 62
     0
 48
50.0
370
    -2
100
AcDbBlockReference
  2
_DOTSMALL
 10
6114.673057123663
 20
10608.30564417096
 30
0.0
 41
100.0
 42
100.0
 43
100.0
 50
180.0
  0
INSERT
  5
18E9B
330
163E1
100
AcDbEntity
  8
寸法
 62
     0
 48
50.0
370
    -2
100
AcDbBlockReference
  2
_DOTSMALL
 10
8634.673057123665
 20
10608.30564417096
 30
0.0
 41
100.0
 42
100.0
 43
100.0
  0
MTEXT
  5
18E9C
330
163E1
100
AcDbEntity
  8
寸法
 62
     7
 48
50.0
100
AcDbMText
 10
7374.673057123664
 20
10708.31745519459
 30
0.0
 40
120.0
 41
0.0
 71
     5
 72
     1
  1
\A1;6X420=2520
  7
STYLE1
 73
     1
 44
1.0
1001
ACAD
1000
MTEXTBEGIN
1070
    73
1070
     1
1070
    44
1040
1.0
1070
    74
1070
     0
1000
MTEXTEND
  0
POINT
  5
18E9D
330
163E1
100
AcDbEntity
  8
DEFPOINTS
 62
     0
 48
50.0
100
AcDbPoint
 10
6114.673057123663
 20
10192.49742454587
 30
0.0
  0
POINT
  5
18E9E
330
163E1
100
AcDbEntity
  8
DEFPOINTS
 62
     0
 48
50.0
100
AcDbPoint
 10
8634.673057123665
 20
10192.49742454596
 30
0.0
  0
POINT
  5
18E9F
330
163E1
100
AcDbEntity
  8
DEFPOINTS
 62
     0
 48
50.0
100
AcDbPoint
 10
8634.673057123665
 20
10608.30564417096
 30
0.0
  0
ENDBLK
  5
16626
330
163E1
100
AcDbEntity
  8
0
 48
50.0
100
AcDbBlockEnd
  0
BLOCK
  5
164B0
330
163ED
100
AcDbEntity
  8
0
 48
50.0
100
AcDbBlockBegin
  2
*D13
 70
     1
 10
0.0
 20
0.0
 30
0.0
  3
*D13
  1

  0
LINE
  5
18E8C
330
163ED
100
AcDbEntity
  8
寸法
 62
     0
 48
50.0
370
    -2
100
AcDbLine
 10
3429.673057123629
 20
10212.49742454587
 30
0.0
 11
3429.673057123629
 21
10668.30564417085
 31
0.0
  0
LINE
  5
18E8D
330
163ED
100
AcDbEntity
  8
寸法
 62
     0
 48
50.0
370
    -2
100
AcDbLine
 10
3484.673057123663
 20
10212.49742454587
 30
0.0
 11
3484.673057123663
 21
10668.30564417085
 31
0.0
  0
LINE
  5
18E8E
330
163ED
100
AcDbEntity
  8
寸法
 62
     0
 48
50.0
370
    -2
100
AcDbLine
 10
3484.673057123663
 20
10608.30564417085
 30
0.0
 11
3584.673057123664
 21
10608.30564417085
 31
0.0
  0
LINE
  5
18E8F
330
163ED
100
AcDbEntity
  8
寸法
 62
     0
 48
50.0
370
    -2
100
AcDbLine
 10
3429.673057123629
 20
10608.30564417085
 30
0.0
 11
3012.702494375151
 21
10608.30564417085
 31
0.0
  0
LINE
  5
18E90
330
163ED
100
AcDbEntity
  8
寸法
 62
     0
 48
50.0
370
    -2
100
AcDbLine
 10
3484.673057123663
 20
10608.30564417085
 30
0.0
 11
3429.673057123629
 21
10608.30564417085
 31
0.0
  0
INSERT
  5
18E91
330
163ED
100
AcDbEntity
  8
寸法
 62
     0
 48
50.0
370
    -2
100
AcDbBlockReference
  2
_DOTSMALL
 10
3484.673057123663
 20
10608.30564417085
 30
0.0
 41
100.0
 42
100.0
 43
100.0
 50
180.0
  0
INSERT
  5
18E92
330
163ED
100
AcDbEntity
  8
寸法
 62
     0
 48
50.0
370
    -2
100
AcDbBlockReference
  2
_DOTSMALL
 10
3429.673057123629
 20
10608.30564417085
 30
0.0
 41
100.0
 42
100.0
 43
100.0
  0
MTEXT
  5
18E93
330
163ED
100
AcDbEntity
  8
寸法
 62
     7
 48
50.0
100
AcDbMText
 10
3121.18777574939
 20
10708.30564417085
 30
0.0
 40
120.0
 41
0.0
 71
     5
 72
     1
  1
\A1;55
  7
STYLE1
 73
     1
 44
1.0
1001
ACAD
1000
MTEXTBEGIN
1070
    73
1070
     1
1070
    44
1040
1.0
1070
    74
1070
     0
1000
MTEXTEND
  0
POINT
  5
18E94
330
163ED
100
AcDbEntity
  8
DEFPOINTS
 62
     0
 48
50.0
100
AcDbPoint
 10
3429.673057123629
 20
10192.49742454587
 30
0.0
  0
POINT
  5
18E95
330
163ED
100
AcDbEntity
  8
DEFPOINTS
 62
     0
 48
50.0
100
AcDbPoint
 10
3484.673057123663
 20
10192.49742454587
 30
0.0
  0
POINT
  5
18E96
330
163ED
100
AcDbEntity
  8
DEFPOINTS
 62
     0
 48
50.0
100
AcDbPoint
 10
3484.673057123663
 20
10608.30564417085
 30
0.0
  0
ENDBLK
  5
164BC
330
163ED
100
AcDbEntity
  8
0
 48
50.0
100
AcDbBlockEnd
  0
BLOCK
  5
164BD
330
163FB
100
AcDbEntity
  8
0
 48
50.0
100
AcDbBlockBegin
  2
*D14
 70
     1
 10
0.0
 20
0.0
 30
0.0
  3
*D14
  1

  0
LINE
  5
18E81
330
163FB
100
AcDbEntity
  8
寸法
 62
     0
 48
50.0
370
    -2
100
AcDbLine
 10
8634.673057123665
 20
10212.49742454596
 30
0.0
 11
8634.673057123665
 21
10668.30564417095
 31
0.0
  0
LINE
  5
18E82
330
163FB
100
AcDbEntity
  8
寸法
 62
     0
 48
50.0
370
    -2
100
AcDbLine
 10
8689.673057123664
 20
10212.49742454596
 30
0.0
 11
8689.673057123664
 21
10668.30564417095
 31
0.0
  0
LINE
  5
18E83
330
163FB
100
AcDbEntity
  8
寸法
 62
     0
 48
50.0
370
    -2
100
AcDbLine
 10
8634.673057123665
 20
10608.30564417095
 30
0.0
 11
8534.673057123665
 21
10608.30564417095
 31
0.0
  0
LINE
  5
18E84
330
163FB
100
AcDbEntity
  8
寸法
 62
     0
 48
50.0
370
    -2
100
AcDbLine
 10
8689.673057123664
 20
10608.30564417095
 30
0.0
 11
9106.643619872141
 21
10608.30564417095
 31
0.0
  0
LINE
  5
18E85
330
163FB
100
AcDbEntity
  8
寸法
 62
     0
 48
50.0
370
    -2
100
AcDbLine
 10
8634.673057123665
 20
10608.30564417095
 30
0.0
 11
8689.673057123664
 21
10608.30564417095
 31
0.0
  0
INSERT
  5
18E86
330
163FB
100
AcDbEntity
  8
寸法
 62
     0
 48
50.0
370
    -2
100
AcDbBlockReference
  2
_DOTSMALL
 10
8634.673057123665
 20
10608.30564417095
 30
0.0
 41
100.0
 42
100.0
 43
100.0
  0
INSERT
  5
18E87
330
163FB
100
AcDbEntity
  8
寸法
 62
     0
 48
50.0
370
    -2
100
AcDbBlockReference
  2
_DOTSMALL
 10
8689.673057123664
 20
10608.30564417095
 30
0.0
 41
100.0
 42
100.0
 43
100.0
 50
180.0
  0
MTEXT
  5
18E88
330
163FB
100
AcDbEntity
  8
寸法
 62
     7
 48
50.0
100
AcDbMText
 10
8998.158338497901
 20
10708.30564417095
 30
0.0
 40
120.0
 41
0.0
 71
     5
 72
     1
  1
\A1;55
  7
STYLE1
 73
     1
 44
1.0
1001
ACAD
1000
MTEXTBEGIN
1070
    73
1070
     1
1070
    44
1040
1.0
1070
    74
1070
     0
1000
MTEXTEND
  0
POINT
  5
18E89
330
163FB
100
AcDbEntity
  8
DEFPOINTS
 62
     0
 48
50.0
100
AcDbPoint
 10
8634.673057123665
 20
10192.49742454596
 30
0.0
  0
POINT
  5
18E8A
330
163FB
100
AcDbEntity
  8
DEFPOINTS
 62
     0
 48
50.0
100
AcDbPoint
 10
8689.673057123664
 20
10192.49742454596
 30
0.0
  0
POINT
  5
18E8B
330
163FB
100
AcDbEntity
  8
DEFPOINTS
 62
     0
 48
50.0
100
AcDbPoint
 10
8689.673057123664
 20
10608.30564417095
 30
0.0
  0
ENDBLK
  5
164C9
330
163FB
100
AcDbEntity
  8
0
 48
50.0
100
AcDbBlockEnd
  0
BLOCK
  5
1659F
330
1659E
100
AcDbEntity
  8
0
 48
50.0
100
AcDbBlockBegin
  2
*D15
 70
     1
 10
0.0
 20
0.0
 30
0.0
  3
*D15
  1

  0
LINE
  5
165A0
330
1659E
100
AcDbEntity
  8
0
  6
ByBlock
 62
     0
 48
50.0
100
AcDbLine
 10
6162.673057123657
 20
6988.497424545865
 30
0.0
 11
6162.673057123657
 21
6388.0666537797
 31
0.0
  0
LINE
  5
165A1
330
1659E
100
AcDbEntity
  8
0
  6
ByBlock
 62
     0
 48
50.0
100
AcDbLine
 10
8586.673057123638
 20
6448.066653779701
 30
0.0
 11
6162.673057123657
 21
6448.066653779701
 31
0.0
  0
INSERT
  5
165A2
330
1659E
100
AcDbEntity
  8
0
  6
ByBlock
 62
     0
 48
50.0
100
AcDbBlockReference
  2
_DOTSMALL
 10
8586.673057123638
 20
6448.066653779701
 30
0.0
 41
100.0
 42
100.0
 43
100.0
  0
INSERT
  5
165A3
330
1659E
100
AcDbEntity
  8
0
  6
ByBlock
 62
     0
 48
50.0
100
AcDbBlockReference
  2
_DOTSMALL
 10
6162.673057123657
 20
6448.066653779701
 30
0.0
 41
100.0
 42
100.0
 43
100.0
 50
180.0
  0
MTEXT
  5
165A4
330
1659E
100
AcDbEntity
  8
0
  6
ByBlock
 62
     7
 48
50.0
100
AcDbMText
 10
7374.673057123648
 20
6548.078464803322
 30
0.0
 40
120.0
 41
0.0
 71
     5
 72
     1
  1
\A1;有効開口部間口 2424
  7
STYLE1
 73
     1
 44
1.0
1001
ACAD
1000
MTEXTBEGIN
1070
    73
1070
     1
1070
    44
1040
1.0
1070
    74
1070
     0
1000
MTEXTEND
  0
POINT
  5
165A5
330
1659E
100
AcDbEntity
  8
DEFPOINTS
  6
ByBlock
 62
     0
 48
50.0
100
AcDbPoint
 10
8586.673057123638
 20
7008.497424545865
 30
0.0
  0
POINT
  5
165A6
330
1659E
100
AcDbEntity
  8
DEFPOINTS
  6
ByBlock
 62
     0
 48
50.0
100
AcDbPoint
 10
6162.673057123657
 20
7008.497424545864
 30
0.0
  0
POINT
  5
165A7
330
1659E
100
AcDbEntity
  8
DEFPOINTS
  6
ByBlock
 62
     0
 48
50.0
100
AcDbPoint
 10
6162.673057123657
 20
6448.066653779701
 30
0.0
  0
ENDBLK
  5
165A8
330
1659E
100
AcDbEntity
  8
0
 48
50.0
100
AcDbBlockEnd
  0
BLOCK
  5
165B6
330
165B5
100
AcDbEntity
  8
0
 48
50.0
100
AcDbBlockBegin
  2
*D16
 70
     1
 10
0.0
 20
0.0
 30
0.0
  3
*D16
  1

  0
LINE
  5
165B7
330
165B5
100
AcDbEntity
  8
0
  6
ByBlock
 62
     0
 48
50.0
100
AcDbLine
 10
6162.673057123657
 20
6988.497424545865
 30
0.0
 11
6162.673057123657
 21
6388.0666537797
 31
0.0
  0
LINE
  5
165B8
330
165B5
100
AcDbEntity
  8
0
  6
ByBlock
 62
     0
 48
50.0
100
AcDbLine
 10
6114.673057123653
 20
6962.497424545865
 30
0.0
 11
6114.673057123653
 21
6388.0666537797
 31
0.0
  0
LINE
  5
165B9
330
165B5
100
AcDbEntity
  8
0
  6
ByBlock
 62
     0
 48
50.0
100
AcDbLine
 10
6162.673057123657
 20
6448.066653779701
 30
0.0
 11
6262.673057123657
 21
6448.066653779701
 31
0.0
  0
LINE
  5
165BA
330
165B5
100
AcDbEntity
  8
0
  6
ByBlock
 62
     0
 48
50.0
100
AcDbLine
 10
6114.673057123653
 20
6448.066653779701
 30
0.0
 11
6014.673057123653
 21
6448.066653779701
 31
0.0
  0
MTEXT
  5
165BB
330
165B5
100
AcDbEntity
  8
0
  6
ByBlock
 62
     7
 48
50.0
100
AcDbMText
 10
6275.575028123714
 20
6548.0666537797
 30
0.0
 40
120.0
 41
0.0
 71
     5
 72
     1
  1
\A1;48
  7
STYLE1
 73
     1
 44
1.0
1001
ACAD
1000
MTEXTBEGIN
1070
    73
1070
     1
1070
    44
1040
1.0
1070
    74
1070
     0
1000
MTEXTEND
  0
LINE
  5
165BC
330
165B5
100
AcDbEntity
  8
0
  6
ByBlock
 62
     0
 48
50.0
100
AcDbLine
 10
6162.673057123657
 20
6448.066653779701
 30
0.0
 11
6114.673057123653
 21
6448.066653779701
 31
0.0
  0
LINE
  5
165BD
330
165B5
100
AcDbEntity
  8
0
  6
ByBlock
 62
     0
 48
50.0
100
AcDbLine
 10
6162.673057123657
 20
6448.066653779701
 30
0.0
 11
6114.673057123653
 21
6448.066653779701
 31
0.0
  0
INSERT
  5
165BE
330
165B5
100
AcDbEntity
  8
0
  6
ByBlock
 62
     0
 48
50.0
100
AcDbBlockReference
  2
_DOTSMALL
 10
6162.673057123657
 20
6448.066653779701
 30
0.0
 41
100.0
 42
100.0
 43
100.0
 50
180.0
  0
INSERT
  5
165BF
330
165B5
100
AcDbEntity
  8
0
  6
ByBlock
 62
     0
 48
50.0
100
AcDbBlockReference
  2
_DOTSMALL
 10
6114.673057123653
 20
6448.066653779701
 30
0.0
 41
100.0
 42
100.0
 43
100.0
  0
POINT
  5
165C0
330
165B5
100
AcDbEntity
  8
DEFPOINTS
  6
ByBlock
 62
     0
 48
50.0
100
AcDbPoint
 10
6162.673057123657
 20
7008.497424545864
 30
0.0
  0
POINT
  5
165C1
330
165B5
100
AcDbEntity
  8
DEFPOINTS
  6
ByBlock
 62
     0
 48
50.0
100
AcDbPoint
 10
6114.673057123653
 20
6982.497424545865
 30
0.0
  0
POINT
  5
165C2
330
165B5
100
AcDbEntity
  8
DEFPOINTS
  6
ByBlock
 62
     0
 48
50.0
100
AcDbPoint
 10
6114.673057123653
 20
6448.066653779701
 30
0.0
  0
ENDBLK
  5
165C3
330
165B5
100
AcDbEntity
  8
0
 48
50.0
100
AcDbBlockEnd
  0
BLOCK
  5
165C5
330
165C4
100
AcDbEntity
  8
0
 48
50.0
100
AcDbBlockBegin
  2
*D17
 70
     1
 10
0.0
 20
0.0
 30
0.0
  3
*D17
  1

  0
LINE
  5
165C6
330
165C4
100
AcDbEntity
  8
0
  6
ByBlock
 62
     0
 48
50.0
100
AcDbLine
 10
8634.67305712364
 20
6962.497424545952
 30
0.0
 11
8634.67305712364
 21
6388.0666537797
 31
0.0
  0
LINE
  5
165C7
330
165C4
100
AcDbEntity
  8
0
  6
ByBlock
 62
     0
 48
50.0
100
AcDbLine
 10
8586.673057123638
 20
6988.497424545865
 30
0.0
 11
8586.673057123638
 21
6388.0666537797
 31
0.0
  0
LINE
  5
165C8
330
165C4
100
AcDbEntity
  8
0
  6
ByBlock
 62
     0
 48
50.0
100
AcDbLine
 10
8634.67305712364
 20
6448.066653779701
 30
0.0
 11
8734.673057123641
 21
6448.066653779701
 31
0.0
  0
LINE
  5
165C9
330
165C4
100
AcDbEntity
  8
0
  6
ByBlock
 62
     0
 48
50.0
100
AcDbLine
 10
8586.673057123638
 20
6448.066653779701
 30
0.0
 11
8486.673057123638
 21
6448.066653779701
 31
0.0
  0
MTEXT
  5
165CA
330
165C4
100
AcDbEntity
  8
0
  6
ByBlock
 62
     7
 48
50.0
100
AcDbMText
 10
8475.710159474891
 20
6548.0666537797
 30
0.0
 40
120.0
 41
0.0
 71
     5
 72
     1
  1
\A1;48
  7
STYLE1
 73
     1
 44
1.0
1001
ACAD
1000
MTEXTBEGIN
1070
    73
1070
     1
1070
    44
1040
1.0
1070
    74
1070
     0
1000
MTEXTEND
  0
LINE
  5
165CB
330
165C4
100
AcDbEntity
  8
0
  6
ByBlock
 62
     0
 48
50.0
100
AcDbLine
 10
8634.67305712364
 20
6448.066653779701
 30
0.0
 11
8586.673057123638
 21
6448.066653779701
 31
0.0
  0
LINE
  5
165CC
330
165C4
100
AcDbEntity
  8
0
  6
ByBlock
 62
     0
 48
50.0
100
AcDbLine
 10
8634.67305712364
 20
6448.066653779701
 30
0.0
 11
8586.673057123638
 21
6448.066653779701
 31
0.0
  0
INSERT
  5
165CD
330
165C4
100
AcDbEntity
  8
0
  6
ByBlock
 62
     0
 48
50.0
100
AcDbBlockReference
  2
_DOTSMALL
 10
8634.67305712364
 20
6448.066653779701
 30
0.0
 41
100.0
 42
100.0
 43
100.0
 50
180.0
  0
INSERT
  5
165CE
330
165C4
100
AcDbEntity
  8
0
  6
ByBlock
 62
     0
 48
50.0
100
AcDbBlockReference
  2
_DOTSMALL
 10
8586.673057123638
 20
6448.066653779701
 30
0.0
 41
100.0
 42
100.0
 43
100.0
  0
POINT
  5
165CF
330
165C4
100
AcDbEntity
  8
DEFPOINTS
  6
ByBlock
 62
     0
 48
50.0
100
AcDbPoint
 10
8634.67305712364
 20
6982.497424545953
 30
0.0
  0
POINT
  5
165D0
330
165C4
100
AcDbEntity
  8
DEFPOINTS
  6
ByBlock
 62
     0
 48
50.0
100
AcDbPoint
 10
8586.673057123638
 20
7008.497424545865
 30
0.0
  0
POINT
  5
165D1
330
165C4
100
AcDbEntity
  8
DEFPOINTS
  6
ByBlock
 62
     0
 48
50.0
100
AcDbPoint
 10
8586.673057123638
 20
6448.066653779701
 30
0.0
  0
ENDBLK
  5
165D2
330
165C4
100
AcDbEntity
  8
0
 48
50.0
100
AcDbBlockEnd
  0
BLOCK
  5
1663F
330
165EA
100
AcDbEntity
  8
0
 48
50.0
100
AcDbBlockBegin
  2
*D18
 70
     1
 10
0.0
 20
0.0
 30
0.0
  3
*D18
  1

  0
LINE
  5
16640
330
165EA
100
AcDbEntity
  8
0
  6
ByBlock
 62
     0
 48
50.0
100
AcDbLine
 10
6114.673057123653
 20
7222.497424545863
 30
0.0
 11
6114.673057123653
 21
6648.066653779702
 31
0.0
  0
LINE
  5
16641
330
165EA
100
AcDbEntity
  8
0
  6
ByBlock
 62
     0
 48
50.0
100
AcDbLine
 10
6004.67305712364
 20
7222.497424545952
 30
0.0
 11
6004.67305712364
 21
6648.066653779702
 31
0.0
  0
LINE
  5
16642
330
165EA
100
AcDbEntity
  8
0
  6
ByBlock
 62
     0
 48
50.0
100
AcDbLine
 10
6114.673057123653
 20
6708.066653779702
 30
0.0
 11
6004.67305712364
 21
6708.066653779702
 31
0.0
  0
MTEXT
  5
16643
330
165EA
100
AcDbEntity
  8
0
  6
ByBlock
 62
     7
 48
50.0
100
AcDbMText
 10
6059.673057123647
 20
6556.37475874347
 30
0.0
 40
120.0
 41
0.0
 71
     5
 72
     1
  1
\A1;110
  7
STYLE1
 73
     1
 44
1.0
1001
ACAD
1000
MTEXTBEGIN
1070
    73
1070
     1
1070
    44
1040
1.0
1070
    74
1070
     0
1000
MTEXTEND
  0
INSERT
  5
16644
330
165EA
100
AcDbEntity
  8
0
  6
ByBlock
 62
     0
 48
50.0
100
AcDbBlockReference
  2
_DOTSMALL
 10
6114.673057123653
 20
6708.066653779702
 30
0.0
 41
100.0
 42
100.0
 43
100.0
  0
INSERT
  5
16645
330
165EA
100
AcDbEntity
  8
0
  6
ByBlock
 62
     0
 48
50.0
100
AcDbBlockReference
  2
_DOTSMALL
 10
6004.67305712364
 20
6708.066653779702
 30
0.0
 41
100.0
 42
100.0
 43
100.0
 50
180.0
  0
POINT
  5
16646
330
165EA
100
AcDbEntity
  8
DEFPOINTS
  6
ByBlock
 62
     0
 48
50.0
100
AcDbPoint
 10
6114.673057123653
 20
7242.497424545864
 30
0.0
  0
POINT
  5
16647
330
165EA
100
AcDbEntity
  8
DEFPOINTS
  6
ByBlock
 62
     0
 48
50.0
100
AcDbPoint
 10
6004.67305712364
 20
7242.497424545952
 30
0.0
  0
POINT
  5
16648
330
165EA
100
AcDbEntity
  8
DEFPOINTS
  6
ByBlock
 62
     0
 48
50.0
100
AcDbPoint
 10
6004.67305712364
 20
6708.066653779702
 30
0.0
  0
ENDBLK
  5
16649
330
165EA
100
AcDbEntity
  8
0
 48
50.0
100
AcDbBlockEnd
  0
BLOCK
  5
166AE
330
166AD
100
AcDbEntity
  8
0
 48
50.0
100
AcDbBlockBegin
  2
*D19
 70
     1
 10
0.0
 20
0.0
 30
0.0
  3
*D19
  1

  0
LINE
  5
18E78
330
166AD
100
AcDbEntity
  8
寸法
 62
     0
 48
50.0
370
    -2
100
AcDbLine
 10
3484.673057123663
 20
10212.49742454587
 30
0.0
 11
3484.673057123663
 21
10668.30564417097
 31
0.0
  0
LINE
  5
18E79
330
166AD
100
AcDbEntity
  8
寸法
 62
     0
 48
50.0
370
    -2
100
AcDbLine
 10
6004.673057123664
 20
10212.49742454596
 30
0.0
 11
6004.673057123664
 21
10668.30564417097
 31
0.0
  0
LINE
  5
18E7A
330
166AD
100
AcDbEntity
  8
寸法
 62
     0
 48
50.0
370
    -2
100
AcDbLine
 10
3484.673057123663
 20
10608.30564417096
 30
0.0
 11
6004.673057123664
 21
10608.30564417096
 31
0.0
  0
INSERT
  5
18E7B
330
166AD
100
AcDbEntity
  8
寸法
 62
     0
 48
50.0
370
    -2
100
AcDbBlockReference
  2
_DOTSMALL
 10
3484.673057123663
 20
10608.30564417096
 30
0.0
 41
100.0
 42
100.0
 43
100.0
 50
180.0
  0
INSERT
  5
18E7C
330
166AD
100
AcDbEntity
  8
寸法
 62
     0
 48
50.0
370
    -2
100
AcDbBlockReference
  2
_DOTSMALL
 10
6004.673057123664
 20
10608.30564417096
 30
0.0
 41
100.0
 42
100.0
 43
100.0
  0
MTEXT
  5
18E7D
330
166AD
100
AcDbEntity
  8
寸法
 62
     7
 48
50.0
100
AcDbMText
 10
4744.673057123664
 20
10708.31745519459
 30
0.0
 40
120.0
 41
0.0
 71
     5
 72
     1
  1
\A1;6X420=2520
  7
STYLE1
 73
     1
 44
1.0
1001
ACAD
1000
MTEXTBEGIN
1070
    73
1070
     1
1070
    44
1040
1.0
1070
    74
1070
     0
1000
MTEXTEND
  0
POINT
  5
18E7E
330
166AD
100
AcDbEntity
  8
DEFPOINTS
 62
     0
 48
50.0
100
AcDbPoint
 10
3484.673057123663
 20
10192.49742454587
 30
0.0
  0
POINT
  5
18E7F
330
166AD
100
AcDbEntity
  8
DEFPOINTS
 62
     0
 48
50.0
100
AcDbPoint
 10
6004.673057123664
 20
10192.49742454596
 30
0.0
  0
POINT
  5
18E80
330
166AD
100
AcDbEntity
  8
DEFPOINTS
 62
     0
 48
50.0
100
AcDbPoint
 10
6004.673057123664
 20
10608.30564417096
 30
0.0
  0
ENDBLK
  5
166B8
330
166AD
100
AcDbEntity
  8
0
 48
50.0
100
AcDbBlockEnd
  0
BLOCK
  5
166D0
330
166CF
100
AcDbEntity
  8
0
 48
50.0
100
AcDbBlockBegin
  2
*D20
 70
     1
 10
0.0
 20
0.0
 30
0.0
  3
*D20
  1

  0
LINE
  5
18E6D
330
166CF
100
AcDbEntity
  8
寸法
 62
     0
 48
50.0
370
    -2
100
AcDbLine
 10
6114.673057123663
 20
10212.49742454592
 30
0.0
 11
6114.673057123663
 21
10668.30564417097
 31
0.0
  0
LINE
  5
18E6E
330
166CF
100
AcDbEntity
  8
寸法
 62
     0
 48
50.0
370
    -2
100
AcDbLine
 10
6004.673057123664
 20
10212.49742454591
 30
0.0
 11
6004.673057123664
 21
10668.30564417097
 31
0.0
  0
LINE
  5
18E6F
330
166CF
100
AcDbEntity
  8
寸法
 62
     0
 48
50.0
370
    -2
100
AcDbLine
 10
6114.673057123663
 20
10608.30564417096
 30
0.0
 11
6214.673057123663
 21
10608.30564417096
 31
0.0
  0
LINE
  5
18E70
330
166CF
100
AcDbEntity
  8
寸法
 62
     0
 48
50.0
370
    -2
100
AcDbLine
 10
6004.673057123664
 20
10608.30564417096
 30
0.0
 11
5904.673057123664
 21
10608.30564417096
 31
0.0
  0
LINE
  5
18E71
330
166CF
100
AcDbEntity
  8
寸法
 62
     0
 48
50.0
370
    -2
100
AcDbLine
 10
6114.673057123663
 20
10608.30564417096
 30
0.0
 11
6004.673057123664
 21
10608.30564417096
 31
0.0
  0
INSERT
  5
18E72
330
166CF
100
AcDbEntity
  8
寸法
 62
     0
 48
50.0
370
    -2
100
AcDbBlockReference
  2
_DOTSMALL
 10
6114.673057123663
 20
10608.30564417096
 30
0.0
 41
100.0
 42
100.0
 43
100.0
 50
180.0
  0
INSERT
  5
18E73
330
166CF
100
AcDbEntity
  8
寸法
 62
     0
 48
50.0
370
    -2
100
AcDbBlockReference
  2
_DOTSMALL
 10
6004.673057123664
 20
10608.30564417096
 30
0.0
 41
100.0
 42
100.0
 43
100.0
  0
MTEXT
  5
18E74
330
166CF
100
AcDbEntity
  8
寸法
 62
     7
 48
50.0
100
AcDbMText
 10
6059.673057123664
 20
10708.30564417097
 30
0.0
 40
120.0
 41
0.0
 71
     5
 72
     1
  1
\A1;110
  7
STYLE1
 73
     1
 44
1.0
1001
ACAD
1000
MTEXTBEGIN
1070
    73
1070
     1
1070
    44
1040
1.0
1070
    74
1070
     0
1000
MTEXTEND
  0
POINT
  5
18E75
330
166CF
100
AcDbEntity
  8
DEFPOINTS
 62
     0
 48
50.0
100
AcDbPoint
 10
6114.673057123663
 20
10192.49742454592
 30
0.0
  0
POINT
  5
18E76
330
166CF
100
AcDbEntity
  8
DEFPOINTS
 62
     0
 48
50.0
100
AcDbPoint
 10
6004.673057123664
 20
10192.49742454591
 30
0.0
  0
POINT
  5
18E77
330
166CF
100
AcDbEntity
  8
DEFPOINTS
 62
     0
 48
50.0
100
AcDbPoint
 10
6004.673057123664
 20
10608.30564417096
 30
0.0
  0
ENDBLK
  5
166DC
330
166CF
100
AcDbEntity
  8
0
 48
50.0
100
AcDbBlockEnd
  0
BLOCK
  5
16948
330
168FB
100
AcDbEntity
  8
0
 48
50.0
100
AcDbBlockBegin
  2
*D21
 70
     1
 10
0.0
 20
0.0
 30
0.0
  3
*D21
  1

  0
LINE
  5
18E64
330
168FB
100
AcDbEntity
  8
寸法
 62
     0
 48
50.0
370
    -2
100
AcDbLine
 10
3429.673057123629
 20
10212.49742454583
 30
0.0
 11
3429.673057123629
 21
10917.62711772726
 31
0.0
  0
LINE
  5
18E65
330
168FB
100
AcDbEntity
  8
寸法
 62
     0
 48
50.0
370
    -2
100
AcDbLine
 10
6059.673057123664
 20
10787.29355852891
 30
0.0
 11
6059.673057123664
 21
10917.62711772726
 31
0.0
  0
LINE
  5
18E66
330
168FB
100
AcDbEntity
  8
寸法
 62
     0
 48
50.0
370
    -2
100
AcDbLine
 10
3429.673057123629
 20
10857.62711772726
 30
0.0
 11
6059.673057123664
 21
10857.62711772726
 31
0.0
  0
INSERT
  5
18E67
330
168FB
100
AcDbEntity
  8
寸法
 62
     0
 48
50.0
370
    -2
100
AcDbBlockReference
  2
_DOTSMALL
 10
3429.673057123629
 20
10857.62711772726
 30
0.0
 41
100.0
 42
100.0
 43
100.0
 50
180.0
  0
INSERT
  5
18E68
330
168FB
100
AcDbEntity
  8
寸法
 62
     0
 48
50.0
370
    -2
100
AcDbBlockReference
  2
_DOTSMALL
 10
6059.673057123664
 20
10857.62711772726
 30
0.0
 41
100.0
 42
100.0
 43
100.0
  0
MTEXT
  5
18E69
330
168FB
100
AcDbEntity
  8
寸法
 62
     7
 48
50.0
100
AcDbMText
 10
4744.673057123645
 20
10957.63892875088
 30
0.0
 40
120.0
 41
0.0
 71
     5
 72
     1
  1
\A1;2630
  7
STYLE1
 73
     1
 44
1.0
1001
ACAD
1000
MTEXTBEGIN
1070
    73
1070
     1
1070
    44
1040
1.0
1070
    74
1070
     0
1000
MTEXTEND
  0
POINT
  5
18E6A
330
168FB
100
AcDbEntity
  8
DEFPOINTS
 62
     0
 48
50.0
100
AcDbPoint
 10
3429.673057123629
 20
10192.49742454583
 30
0.0
  0
POINT
  5
18E6B
330
168FB
100
AcDbEntity
  8
DEFPOINTS
 62
     0
 48
50.0
100
AcDbPoint
 10
6059.673057123664
 20
10767.29355852891
 30
0.0
  0
POINT
  5
18E6C
330
168FB
100
AcDbEntity
  8
DEFPOINTS
 62
     0
 48
50.0
100
AcDbPoint
 10
6059.673057123664
 20
10857.62711772726
 30
0.0
  0
ENDBLK
  5
16952
330
168FB
100
AcDbEntity
  8
0
 48
50.0
100
AcDbBlockEnd
  0
BLOCK
  5
1693E
330
16908
100
AcDbEntity
  8
0
 48
50.0
100
AcDbBlockBegin
  2
*D22
 70
     1
 10
0.0
 20
0.0
 30
0.0
  3
*D22
  1

  0
LINE
  5
18E5C
330
16908
100
AcDbEntity
  8
寸法
 62
     0
 48
50.0
370
    -2
100
AcDbLine
 10
8689.673057123664
 20
10212.49742454596
 30
0.0
 11
8689.673057123664
 21
10917.62711772726
 31
0.0
  0
LINE
  5
18E5D
330
16908
100
AcDbEntity
  8
寸法
 62
     0
 48
50.0
370
    -2
100
AcDbLine
 10
6059.673057123664
 20
10857.62711772726
 30
0.0
 11
8689.673057123664
 21
10857.62711772726
 31
0.0
  0
INSERT
  5
18E5E
330
16908
100
AcDbEntity
  8
寸法
 62
     0
 48
50.0
370
    -2
100
AcDbBlockReference
  2
_DOTSMALL
 10
6059.673057123664
 20
10857.62711772726
 30
0.0
 41
100.0
 42
100.0
 43
100.0
 50
180.0
  0
INSERT
  5
18E5F
330
16908
100
AcDbEntity
  8
寸法
 62
     0
 48
50.0
370
    -2
100
AcDbBlockReference
  2
_DOTSMALL
 10
8689.673057123664
 20
10857.62711772726
 30
0.0
 41
100.0
 42
100.0
 43
100.0
  0
MTEXT
  5
18E60
330
16908
100
AcDbEntity
  8
寸法
 62
     7
 48
50.0
100
AcDbMText
 10
7374.673057123664
 20
10957.63892875088
 30
0.0
 40
120.0
 41
0.0
 71
     5
 72
     1
  1
\A1;2630
  7
STYLE1
 73
     1
 44
1.0
1001
ACAD
1000
MTEXTBEGIN
1070
    73
1070
     1
1070
    44
1040
1.0
1070
    74
1070
     0
1000
MTEXTEND
  0
POINT
  5
18E61
330
16908
100
AcDbEntity
  8
DEFPOINTS
 62
     0
 48
50.0
100
AcDbPoint
 10
6059.673057123664
 20
10767.29355852891
 30
0.0
  0
POINT
  5
18E62
330
16908
100
AcDbEntity
  8
DEFPOINTS
 62
     0
 48
50.0
100
AcDbPoint
 10
8689.673057123664
 20
10192.49742454596
 30
0.0
  0
POINT
  5
18E63
330
16908
100
AcDbEntity
  8
DEFPOINTS
 62
     0
 48
50.0
100
AcDbPoint
 10
8689.673057123664
 20
10857.62711772726
 30
0.0
  0
ENDBLK
  5
16947
330
16908
100
AcDbEntity
  8
0
 48
50.0
100
AcDbBlockEnd
  0
BLOCK
  5
18312
330
18308
100
AcDbEntity
  8
0
 48
50.0
100
AcDbBlockBegin
  2
*D23
 70
     1
 10
0.0
 20
0.0
 30
0.0
  3
*D23
  1

  0
LINE
  5
187A2
330
18308
100
AcDbEntity
  8
寸法
 62
     0
 48
50.0
370
    -2
100
AcDbLine
 10
10605.47043893114
 20
4376.154057264634
 30
0.0
 11
9721.720309747881
 21
4376.154057264634
 31
0.0
  0
LINE
  5
187A3
330
18308
100
AcDbEntity
  8
寸法
 62
     0
 48
50.0
370
    -2
100
AcDbLine
 10
10605.47043893114
 20
2286.154057264634
 30
0.0
 11
9721.72030974788
 21
2286.154057264634
 31
0.0
  0
LINE
  5
187A4
330
18308
100
AcDbEntity
  8
寸法
 62
     0
 48
50.0
370
    -2
100
AcDbLine
 10
9781.720309747882
 20
4376.154057264634
 30
0.0
 11
9781.72030974788
 21
2286.154057264634
 31
0.0
  0
INSERT
  5
187A5
330
18308
100
AcDbEntity
  8
寸法
 62
     0
 48
50.0
370
    -2
100
AcDbBlockReference
  2
_DOTSMALL
 10
9781.720309747882
 20
4376.154057264634
 30
0.0
 41
100.0
 42
100.0
 43
100.0
 50
90.0
  0
INSERT
  5
187A6
330
18308
100
AcDbEntity
  8
寸法
 62
     0
 48
50.0
370
    -2
100
AcDbBlockReference
  2
_DOTSMALL
 10
9781.72030974788
 20
2286.154057264634
 30
0.0
 41
100.0
 42
100.0
 43
100.0
 50
270.0
  0
MTEXT
  5
187A7
330
18308
100
AcDbEntity
  8
寸法
 62
     7
 48
50.0
100
AcDbMText
 10
9681.708498724258
 20
3331.154057264636
 30
0.0
 40
120.0
 41
0.0
 71
     5
 72
     1
  1
\A1;2090
  7
STYLE1
 11
0.0000000000000001
 21
1.0
 31
0.0
 73
     1
 44
1.0
1001
ACAD
1000
MTEXTBEGIN
1070
    73
1070
     1
1070
    44
1040
1.0
1070
    74
1070
     0
1000
MTEXTEND
  0
POINT
  5
187A8
330
18308
100
AcDbEntity
  8
DEFPOINTS
 62
     0
 48
50.0
100
AcDbPoint
 10
10625.47043893114
 20
4376.154057264634
 30
0.0
  0
POINT
  5
187A9
330
18308
100
AcDbEntity
  8
DEFPOINTS
 62
     0
 48
50.0
100
AcDbPoint
 10
10625.47043893114
 20
2286.154057264634
 30
0.0
  0
POINT
  5
187AA
330
18308
100
AcDbEntity
  8
DEFPOINTS
 62
     0
 48
50.0
100
AcDbPoint
 10
9781.72030974788
 20
2286.154057264634
 30
0.0
  0
ENDBLK
  5
18313
330
18308
100
AcDbEntity
  8
0
 48
50.0
100
AcDbBlockEnd
  0
BLOCK
  5
1832D
330
18321
100
AcDbEntity
  8
0
 48
50.0
100
AcDbBlockBegin
  2
*D24
 70
     1
 10
0.0
 20
0.0
 30
0.0
  3
*D24
  1

  0
LINE
  5
1878D
330
18321
100
AcDbEntity
  8
寸法
 62
     0
 48
50.0
370
    -2
100
AcDbLine
 10
10605.47043893114
 20
2286.154057264634
 30
0.0
 11
9721.72030974788
 21
2286.154057264634
 31
0.0
  0
LINE
  5
1878E
330
18321
100
AcDbEntity
  8
寸法
 62
     0
 48
50.0
370
    -2
100
AcDbLine
 10
10550.47043893114
 20
2236.154057264634
 30
0.0
 11
9721.72030974788
 21
2236.154057264634
 31
0.0
  0
LINE
  5
1878F
330
18321
100
AcDbEntity
  8
寸法
 62
     0
 48
50.0
370
    -2
100
AcDbLine
 10
9781.72030974788
 20
2286.154057264634
 30
0.0
 11
9781.72030974788
 21
2386.154057264634
 31
0.0
  0
LINE
  5
18790
330
18321
100
AcDbEntity
  8
寸法
 62
     0
 48
50.0
370
    -2
100
AcDbLine
 10
9781.72030974788
 20
2236.154057264634
 30
0.0
 11
9781.72030974788
 21
1746.356813170144
 31
0.0
  0
LINE
  5
18791
330
18321
100
AcDbEntity
  8
寸法
 62
     0
 48
50.0
370
    -2
100
AcDbLine
 10
9781.72030974788
 20
2286.154057264634
 30
0.0
 11
9781.72030974788
 21
2236.154057264634
 31
0.0
  0
INSERT
  5
18792
330
18321
100
AcDbEntity
  8
寸法
 62
     0
 48
50.0
370
    -2
100
AcDbBlockReference
  2
_DOTSMALL
 10
9781.72030974788
 20
2286.154057264634
 30
0.0
 41
100.0
 42
100.0
 43
100.0
 50
270.0
  0
INSERT
  5
18793
330
18321
100
AcDbEntity
  8
寸法
 62
     0
 48
50.0
370
    -2
100
AcDbBlockReference
  2
_DOTSMALL
 10
9781.72030974788
 20
2236.154057264634
 30
0.0
 41
100.0
 42
100.0
 43
100.0
 50
90.0
  0
MTEXT
  5
18794
330
18321
100
AcDbEntity
  8
寸法
 62
     7
 48
50.0
100
AcDbMText
 10
9681.720309747881
 20
1852.404057264633
 30
0.0
 40
120.0
 41
0.0
 71
     5
 72
     1
  1
\A1;50
  7
STYLE1
 11
0.0000000000000001
 21
1.0
 31
0.0
 73
     1
 44
1.0
1001
ACAD
1000
MTEXTBEGIN
1070
    73
1070
     1
1070
    44
1040
1.0
1070
    74
1070
     0
1000
MTEXTEND
  0
POINT
  5
18795
330
18321
100
AcDbEntity
  8
DEFPOINTS
 62
     0
 48
50.0
100
AcDbPoint
 10
10625.47043893114
 20
2286.154057264634
 30
0.0
  0
POINT
  5
18796
330
18321
100
AcDbEntity
  8
DEFPOINTS
 62
     0
 48
50.0
100
AcDbPoint
 10
10570.47043893114
 20
2236.154057264634
 30
0.0
  0
POINT
  5
18797
330
18321
100
AcDbEntity
  8
DEFPOINTS
 62
     0
 48
50.0
100
AcDbPoint
 10
9781.72030974788
 20
2236.154057264634
 30
0.0
  0
ENDBLK
  5
1832E
330
18321
100
AcDbEntity
  8
0
 48
50.0
100
AcDbBlockEnd
  0
BLOCK
  5
18339
330
1832F
100
AcDbEntity
  8
0
 48
50.0
100
AcDbBlockBegin
  2
*D25
 70
     1
 10
0.0
 20
0.0
 30
0.0
  3
*D25
  1

  0
LINE
  5
18784
330
1832F
100
AcDbEntity
  8
寸法
 62
     0
 48
50.0
370
    -2
100
AcDbLine
 10
13695.47043893114
 20
2236.154057264634
 30
0.0
 11
14440.39759690326
 21
2236.154057264634
 31
0.0
  0
LINE
  5
18785
330
1832F
100
AcDbEntity
  8
寸法
 62
     0
 48
50.0
370
    -2
100
AcDbLine
 10
13790.47043893114
 20
4556.154057264634
 30
0.0
 11
14440.39759690326
 21
4556.154057264633
 31
0.0
  0
LINE
  5
18786
330
1832F
100
AcDbEntity
  8
寸法
 62
     0
 48
50.0
370
    -2
100
AcDbLine
 10
14380.39759690326
 20
2236.154057264634
 30
0.0
 11
14380.39759690326
 21
4556.154057264633
 31
0.0
  0
INSERT
  5
18787
330
1832F
100
AcDbEntity
  8
寸法
 62
     0
 48
50.0
370
    -2
100
AcDbBlockReference
  2
_DOTSMALL
 10
14380.39759690326
 20
2236.154057264634
 30
0.0
 41
100.0
 42
100.0
 43
100.0
 50
270.0
  0
INSERT
  5
18788
330
1832F
100
AcDbEntity
  8
寸法
 62
     0
 48
50.0
370
    -2
100
AcDbBlockReference
  2
_DOTSMALL
 10
14380.39759690326
 20
4556.154057264633
 30
0.0
 41
100.0
 42
100.0
 43
100.0
 50
90.0
  0
MTEXT
  5
18789
330
1832F
100
AcDbEntity
  8
寸法
 62
     7
 48
50.0
100
AcDbMText
 10
14280.38578587964
 20
3391.154057264634
 30
0.0
 40
120.0
 41
0.0
 71
     5
 72
     1
  1
\A1;2320
  7
STYLE1
 11
0.0000000000000001
 21
1.0
 31
0.0
 73
     1
 44
1.0
1001
ACAD
1000
MTEXTBEGIN
1070
    73
1070
     1
1070
    44
1040
1.0
1070
    74
1070
     0
1000
MTEXTEND
  0
POINT
  5
1878A
330
1832F
100
AcDbEntity
  8
DEFPOINTS
 62
     0
 48
50.0
100
AcDbPoint
 10
13675.47043893114
 20
2236.154057264634
 30
0.0
  0
POINT
  5
1878B
330
1832F
100
AcDbEntity
  8
DEFPOINTS
 62
     0
 48
50.0
100
AcDbPoint
 10
13770.47043893114
 20
4556.154057264634
 30
0.0
  0
POINT
  5
1878C
330
1832F
100
AcDbEntity
  8
DEFPOINTS
 62
     0
 48
50.0
100
AcDbPoint
 10
14380.39759690326
 20
4556.154057264633
 30
0.0
  0
ENDBLK
  5
1833A
330
1832F
100
AcDbEntity
  8
0
 48
50.0
100
AcDbBlockEnd
  0
BLOCK
  5
1836B
330
18361
100
AcDbEntity
  8
0
 48
50.0
100
AcDbBlockBegin
  2
*D26
 70
     1
 10
0.0
 20
0.0
 30
0.0
  3
*D26
  1

  0
LINE
  5
1875E
330
18361
100
AcDbEntity
  8
寸法
 62
     0
 48
50.0
370
    -2
100
AcDbLine
 10
10605.47043893114
 20
2236.154057264633
 30
0.0
 11
9421.720309747877
 21
2236.154057264633
 31
0.0
  0
LINE
  5
1875F
330
18361
100
AcDbEntity
  8
寸法
 62
     0
 48
50.0
370
    -2
100
AcDbLine
 10
10545.47043893114
 20
4611.154057264637
 30
0.0
 11
9421.720309747881
 21
4611.154057264638
 31
0.0
  0
LINE
  5
18760
330
18361
100
AcDbEntity
  8
寸法
 62
     0
 48
50.0
370
    -2
100
AcDbLine
 10
9481.720309747878
 20
2236.154057264633
 30
0.0
 11
9481.720309747879
 21
4611.154057264638
 31
0.0
  0
INSERT
  5
18761
330
18361
100
AcDbEntity
  8
寸法
 62
     0
 48
50.0
370
    -2
100
AcDbBlockReference
  2
_DOTSMALL
 10
9481.720309747878
 20
2236.154057264633
 30
0.0
 41
100.0
 42
100.0
 43
100.0
 50
270.0
  0
INSERT
  5
18762
330
18361
100
AcDbEntity
  8
寸法
 62
     0
 48
50.0
370
    -2
100
AcDbBlockReference
  2
_DOTSMALL
 10
9481.720309747879
 20
4611.154057264638
 30
0.0
 41
100.0
 42
100.0
 43
100.0
 50
90.0
  0
MTEXT
  5
18763
330
18361
100
AcDbEntity
  8
寸法
 62
     7
 48
50.0
100
AcDbMText
 10
9381.708498724256
 20
3423.654057264638
 30
0.0
 40
120.0
 41
0.0
 71
     5
 72
     1
  1
\A1;2375
  7
STYLE1
 11
0.0000000000000001
 21
1.0
 31
0.0
 73
     1
 44
1.0
1001
ACAD
1000
MTEXTBEGIN
1070
    73
1070
     1
1070
    44
1040
1.0
1070
    74
1070
     0
1000
MTEXTEND
  0
POINT
  5
18764
330
18361
100
AcDbEntity
  8
DEFPOINTS
 62
     0
 48
50.0
100
AcDbPoint
 10
10625.47043893114
 20
2236.154057264633
 30
0.0
  0
POINT
  5
18765
330
18361
100
AcDbEntity
  8
DEFPOINTS
 62
     0
 48
50.0
100
AcDbPoint
 10
10565.47043893114
 20
4611.154057264637
 30
0.0
  0
POINT
  5
18766
330
18361
100
AcDbEntity
  8
DEFPOINTS
 62
     0
 48
50.0
100
AcDbPoint
 10
9481.720309747879
 20
4611.154057264638
 30
0.0
  0
ENDBLK
  5
1836C
330
18361
100
AcDbEntity
  8
0
 48
50.0
100
AcDbBlockEnd
  0
BLOCK
  5
18377
330
1836D
100
AcDbEntity
  8
0
 48
50.0
100
AcDbBlockBegin
  2
*D27
 70
     1
 10
0.0
 20
0.0
 30
0.0
  3
*D27
  1

  0
LINE
  5
194F1
330
1836D
100
AcDbEntity
  8
寸法
 62
     0
 48
50.0
370
    -2
100
AcDbLine
 10
13675.47043893114
 20
4577.964736876287
 30
0.0
 11
13675.47043893114
 21
5069.811510843938
 31
0.0
  0
LINE
  5
194F2
330
1836D
100
AcDbEntity
  8
寸法
 62
     0
 48
50.0
370
    -2
100
AcDbLine
 10
10625.47043893114
 20
4627.155675387608
 30
0.0
 11
10625.47043893114
 21
5069.811510843938
 31
0.0
  0
LINE
  5
194F3
330
1836D
100
AcDbEntity
  8
寸法
 62
     0
 48
50.0
370
    -2
100
AcDbLine
 10
13675.47043893114
 20
5009.811510843938
 30
0.0
 11
10625.47043893114
 21
5009.811510843938
 31
0.0
  0
INSERT
  5
194F4
330
1836D
100
AcDbEntity
  8
寸法
 62
     0
 48
50.0
370
    -2
100
AcDbBlockReference
  2
_DOTSMALL
 10
13675.47043893114
 20
5009.811510843938
 30
0.0
 41
100.0
 42
100.0
 43
100.0
  0
INSERT
  5
194F5
330
1836D
100
AcDbEntity
  8
寸法
 62
     0
 48
50.0
370
    -2
100
AcDbBlockReference
  2
_DOTSMALL
 10
10625.47043893114
 20
5009.811510843938
 30
0.0
 41
100.0
 42
100.0
 43
100.0
 50
180.0
  0
MTEXT
  5
194F6
330
1836D
100
AcDbEntity
  8
寸法
 62
     7
 48
50.0
100
AcDbMText
 10
12150.47043893114
 20
5109.811510843938
 30
0.0
 40
120.0
 41
0.0
 71
     5
 72
     1
  1
\A1;柱外寸法3050
  7
STYLE1
 73
     1
 44
1.0
1001
ACAD
1000
MTEXTBEGIN
1070
    73
1070
     1
1070
    44
1040
1.0
1070
    74
1070
     0
1000
MTEXTEND
  0
POINT
  5
194F7
330
1836D
100
AcDbEntity
  8
DEFPOINTS
 62
     0
 48
50.0
100
AcDbPoint
 10
13675.47043893114
 20
4557.964736876287
 30
0.0
  0
POINT
  5
194F8
330
1836D
100
AcDbEntity
  8
DEFPOINTS
 62
     0
 48
50.0
100
AcDbPoint
 10
10625.47043893114
 20
4607.155675387608
 30
0.0
  0
POINT
  5
194F9
330
1836D
100
AcDbEntity
  8
DEFPOINTS
 62
     0
 48
50.0
100
AcDbPoint
 10
10625.47043893114
 20
5009.811510843938
 30
0.0
  0
ENDBLK
  5
18378
330
1836D
100
AcDbEntity
  8
0
 48
50.0
100
AcDbBlockEnd
  0
BLOCK
  5
18385
330
18379
100
AcDbEntity
  8
0
 48
50.0
100
AcDbBlockBegin
  2
*D28
 70
     1
 10
0.0
 20
0.0
 30
0.0
  3
*D28
  1

  0
LINE
  5
1874A
330
18379
100
AcDbEntity
  8
寸法
 62
     0
 48
50.0
370
    -2
100
AcDbLine
 10
10625.47043893114
 20
4627.155675387608
 30
0.0
 11
10625.47043893114
 21
5069.811510843936
 31
0.0
  0
LINE
  5
1874B
330
18379
100
AcDbEntity
  8
寸法
 62
     0
 48
50.0
370
    -2
100
AcDbLine
 10
10565.47043893114
 20
4631.154057264637
 30
0.0
 11
10565.47043893114
 21
5069.811510843936
 31
0.0
  0
LINE
  5
1874C
330
18379
100
AcDbEntity
  8
寸法
 62
     0
 48
50.0
370
    -2
100
AcDbLine
 10
10625.47043893114
 20
5009.811510843936
 30
0.0
 11
10725.47043893114
 21
5009.811510843936
 31
0.0
  0
LINE
  5
1874D
330
18379
100
AcDbEntity
  8
寸法
 62
     0
 48
50.0
370
    -2
100
AcDbLine
 10
10565.47043893114
 20
5009.811510843936
 30
0.0
 11
10146.19484837996
 21
5009.811510843936
 31
0.0
  0
LINE
  5
1874E
330
18379
100
AcDbEntity
  8
寸法
 62
     0
 48
50.0
370
    -2
100
AcDbLine
 10
10625.47043893114
 20
5009.811510843936
 30
0.0
 11
10565.47043893114
 21
5009.811510843936
 31
0.0
  0
INSERT
  5
1874F
330
18379
100
AcDbEntity
  8
寸法
 62
     0
 48
50.0
370
    -2
100
AcDbBlockReference
  2
_DOTSMALL
 10
10625.47043893114
 20
5009.811510843936
 30
0.0
 41
100.0
 42
100.0
 43
100.0
 50
180.0
  0
INSERT
  5
18750
330
18379
100
AcDbEntity
  8
寸法
 62
     0
 48
50.0
370
    -2
100
AcDbBlockReference
  2
_DOTSMALL
 10
10565.47043893114
 20
5009.811510843936
 30
0.0
 41
100.0
 42
100.0
 43
100.0
  0
MTEXT
  5
18751
330
18379
100
AcDbEntity
  8
寸法
 62
     7
 48
50.0
100
AcDbMText
 10
10255.83264365555
 20
5109.811510843936
 30
0.0
 40
120.0
 41
0.0
 71
     5
 72
     1
  1
\A1;60
  7
STYLE1
 73
     1
 44
1.0
1001
ACAD
1000
MTEXTBEGIN
1070
    73
1070
     1
1070
    44
1040
1.0
1070
    74
1070
     0
1000
MTEXTEND
  0
POINT
  5
18752
330
18379
100
AcDbEntity
  8
DEFPOINTS
 62
     0
 48
50.0
100
AcDbPoint
 10
10625.47043893114
 20
4607.155675387608
 30
0.0
  0
POINT
  5
18753
330
18379
100
AcDbEntity
  8
DEFPOINTS
 62
     0
 48
50.0
100
AcDbPoint
 10
10565.47043893114
 20
4611.154057264637
 30
0.0
  0
POINT
  5
18754
330
18379
100
AcDbEntity
  8
DEFPOINTS
 62
     0
 48
50.0
100
AcDbPoint
 10
10565.47043893114
 20
5009.811510843936
 30
0.0
  0
ENDBLK
  5
18386
330
18379
100
AcDbEntity
  8
0
 48
50.0
100
AcDbBlockEnd
  0
BLOCK
  5
18391
330
18387
100
AcDbEntity
  8
0
 48
50.0
100
AcDbBlockBegin
  2
*D29
 70
     1
 10
0.0
 20
0.0
 30
0.0
  3
*D29
  1

  0
LINE
  5
194FC
330
18387
100
AcDbEntity
  8
寸法
 62
     0
 48
50.0
370
    -2
100
AcDbLine
 10
13755.47043893114
 20
4576.154057264633
 30
0.0
 11
13755.47043893114
 21
5299.925103630214
 31
0.0
  0
LINE
  5
194FD
330
18387
100
AcDbEntity
  8
寸法
 62
     0
 48
50.0
370
    -2
100
AcDbLine
 10
10565.47043893114
 20
4631.154057264637
 30
0.0
 11
10565.47043893114
 21
5299.925103630214
 31
0.0
  0
LINE
  5
194FE
330
18387
100
AcDbEntity
  8
寸法
 62
     0
 48
50.0
370
    -2
100
AcDbLine
 10
13755.47043893114
 20
5239.925103630214
 30
0.0
 11
10565.47043893114
 21
5239.925103630214
 31
0.0
  0
INSERT
  5
194FF
330
18387
100
AcDbEntity
  8
寸法
 62
     0
 48
50.0
370
    -2
100
AcDbBlockReference
  2
_DOTSMALL
 10
13755.47043893114
 20
5239.925103630214
 30
0.0
 41
100.0
 42
100.0
 43
100.0
  0
INSERT
  5
19500
330
18387
100
AcDbEntity
  8
寸法
 62
     0
 48
50.0
370
    -2
100
AcDbBlockReference
  2
_DOTSMALL
 10
10565.47043893114
 20
5239.925103630214
 30
0.0
 41
100.0
 42
100.0
 43
100.0
 50
180.0
  0
MTEXT
  5
19501
330
18387
100
AcDbEntity
  8
寸法
 62
     7
 48
50.0
100
AcDbMText
 10
12160.47043893115
 20
5339.925103630214
 30
0.0
 40
120.0
 41
0.0
 71
     5
 72
     1
  1
\A1;3190
  7
STYLE1
 73
     1
 44
1.0
1001
ACAD
1000
MTEXTBEGIN
1070
    73
1070
     1
1070
    44
1040
1.0
1070
    74
1070
     0
1000
MTEXTEND
  0
POINT
  5
19502
330
18387
100
AcDbEntity
  8
DEFPOINTS
 62
     0
 48
50.0
100
AcDbPoint
 10
13755.47043893114
 20
4556.154057264634
 30
0.0
  0
POINT
  5
19503
330
18387
100
AcDbEntity
  8
DEFPOINTS
 62
     0
 48
50.0
100
AcDbPoint
 10
10565.47043893114
 20
4611.154057264637
 30
0.0
  0
POINT
  5
19504
330
18387
100
AcDbEntity
  8
DEFPOINTS
 62
     0
 48
50.0
100
AcDbPoint
 10
10565.47043893114
 20
5239.925103630214
 30
0.0
  0
ENDBLK
  5
18392
330
18387
100
AcDbEntity
  8
0
 48
50.0
100
AcDbBlockEnd
  0
BLOCK
  5
1839E
330
18393
100
AcDbEntity
  8
0
 48
50.0
100
AcDbBlockBegin
  2
*D30
 70
     1
 10
0.0
 20
0.0
 30
0.0
  3
*D30
  1

  0
LINE
  5
18737
330
18393
100
AcDbEntity
  8
寸法
 62
     0
 48
50.0
370
    -2
100
AcDbLine
 10
13675.47043893114
 20
4577.964736876287
 30
0.0
 11
13675.47043893114
 21
5069.811510843938
 31
0.0
  0
LINE
  5
18738
330
18393
100
AcDbEntity
  8
寸法
 62
     0
 48
50.0
370
    -2
100
AcDbLine
 10
13755.47043893114
 20
4576.154057264635
 30
0.0
 11
13755.47043893114
 21
5069.811510843938
 31
0.0
  0
LINE
  5
18739
330
18393
100
AcDbEntity
  8
寸法
 62
     0
 48
50.0
370
    -2
100
AcDbLine
 10
13675.47043893114
 20
5009.811510843938
 30
0.0
 11
13755.47043893114
 21
5009.811510843938
 31
0.0
  0
LINE
  5
1873A
330
18393
100
AcDbEntity
  8
寸法
 62
     0
 48
50.0
370
    -2
100
AcDbLine
 10
13755.47043893114
 20
5009.811510843938
 30
0.0
 11
14067.56492712012
 21
5009.811510843938
 31
0.0
  0
INSERT
  5
1873B
330
18393
100
AcDbEntity
  8
寸法
 62
     0
 48
50.0
370
    -2
100
AcDbBlockReference
  2
_DOTSMALL
 10
13675.47043893114
 20
5009.811510843938
 30
0.0
 41
100.0
 42
100.0
 43
100.0
 50
180.0
  0
INSERT
  5
1873C
330
18393
100
AcDbEntity
  8
寸法
 62
     0
 48
50.0
370
    -2
100
AcDbBlockReference
  2
_DOTSMALL
 10
13755.47043893114
 20
5009.811510843938
 30
0.0
 41
100.0
 42
100.0
 43
100.0
  0
MTEXT
  5
1873D
330
18393
100
AcDbEntity
  8
寸法
 62
     7
 48
50.0
100
AcDbMText
 10
13961.51768302563
 20
5109.811510843938
 30
0.0
 40
120.0
 41
0.0
 71
     5
 72
     1
  1
\A1;80
  7
STYLE1
 73
     1
 44
1.0
1001
ACAD
1000
MTEXTBEGIN
1070
    73
1070
     1
1070
    44
1040
1.0
1070
    74
1070
     0
1000
MTEXTEND
  0
POINT
  5
1873E
330
18393
100
AcDbEntity
  8
DEFPOINTS
 62
     0
 48
50.0
100
AcDbPoint
 10
13675.47043893114
 20
4557.964736876287
 30
0.0
  0
POINT
  5
1873F
330
18393
100
AcDbEntity
  8
DEFPOINTS
 62
     0
 48
50.0
100
AcDbPoint
 10
13755.47043893114
 20
4556.154057264635
 30
0.0
  0
POINT
  5
18740
330
18393
100
AcDbEntity
  8
DEFPOINTS
 62
     0
 48
50.0
100
AcDbPoint
 10
13755.47043893114
 20
5009.811510843938
 30
0.0
  0
ENDBLK
  5
1839F
330
18393
100
AcDbEntity
  8
0
 48
50.0
100
AcDbBlockEnd
  0
BLOCK
  5
183AB
330
183A0
100
AcDbEntity
  8
0
 48
50.0
100
AcDbBlockBegin
  2
*D31
 70
     1
 10
0.0
 20
0.0
 30
0.0
  3
*D31
  1

  0
LINE
  5
1872D
330
183A0
100
AcDbEntity
  8
寸法
 62
     0
 48
50.0
370
    -2
100
AcDbLine
 10
10564.87472522225
 20
4610.451764334294
 30
0.0
 11
9948.940286116963
 21
4628.165914608624
 31
0.0
  0
LINE
  5
1872E
330
183A0
100
AcDbEntity
  8
寸法
 62
     0
 48
50.0
370
    -2
100
AcDbLine
 10
10560.82126966562
 20
4469.510040568581
 30
0.0
 11
9944.886830560335
 21
4487.224190842911
 31
0.0
  0
LINE
  5
1872F
330
183A0
100
AcDbEntity
  8
寸法
 62
     0
 48
50.0
370
    -2
100
AcDbLine
 10
10004.86203216276
 20
4485.499316137963
 30
0.0
 11
10008.91548771939
 21
4626.441039903676
 31
0.0
  0
LINE
  5
18730
330
183A0
100
AcDbEntity
  8
寸法
 62
     0
 48
50.0
370
    -2
100
AcDbLine
 10
10008.91548771939
 20
4626.441039903676
 30
0.0
 11
10019.26473594907
 21
4986.29224951826
 31
0.0
  0
INSERT
  5
18731
330
183A0
100
AcDbEntity
  8
寸法
 62
     0
 48
50.0
370
    -2
100
AcDbBlockReference
  2
_DOTSMALL
 10
10004.86203216276
 20
4485.499316137963
 30
0.0
 41
100.0
 42
100.0
 43
100.0
 50
268.3526390256378
  0
INSERT
  5
18732
330
183A0
100
AcDbEntity
  8
寸法
 62
     0
 48
50.0
370
    -2
100
AcDbBlockReference
  2
_DOTSMALL
 10
10008.91548771939
 20
4626.441039903676
 30
0.0
 41
100.0
 42
100.0
 43
100.0
 50
88.35263902563776
  0
MTEXT
  5
18733
330
183A0
100
AcDbEntity
  8
寸法
 62
     7
 48
50.0
100
AcDbMText
 10
9915.568838084306
 20
4859.220770554575
 30
0.0
 40
120.0
 41
0.0
 71
     5
 72
     1
  1
\A1;141
  7
STYLE1
 11
0.0287479117491237
 21
0.9995866933738488
 31
0.0
 73
     1
 44
1.0
1001
ACAD
1000
MTEXTBEGIN
1070
    73
1070
     1
1070
    44
1040
1.0
1070
    74
1070
     0
1000
MTEXTEND
  0
POINT
  5
18734
330
183A0
100
AcDbEntity
  8
DEFPOINTS
 62
     0
 48
50.0
100
AcDbPoint
 10
10584.86645908972
 20
4609.876806099311
 30
0.0
  0
POINT
  5
18735
330
183A0
100
AcDbEntity
  8
DEFPOINTS
 62
     0
 48
50.0
100
AcDbPoint
 10
10580.8130035331
 20
4468.935082333599
 30
0.0
  0
POINT
  5
18736
330
183A0
100
AcDbEntity
  8
DEFPOINTS
 62
     0
 48
50.0
100
AcDbPoint
 10
10004.86203216276
 20
4485.499316137963
 30
0.0
  0
ENDBLK
  5
183AC
330
183A0
100
AcDbEntity
  8
0
 48
50.0
100
AcDbBlockEnd
  0
BLOCK
  5
183F6
330
183EC
100
AcDbEntity
  8
0
 48
50.0
100
AcDbBlockBegin
  2
*D32
 70
     1
 10
0.0
 20
0.0
 30
0.0
  3
*D32
  1

  0
LINE
  5
1950E
330
183EC
100
AcDbEntity
  8
寸法
 62
     0
 48
50.0
370
    -2
100
AcDbLine
 10
8689.673057123657
 20
4631.154057264637
 30
0.0
 11
8689.673057123657
 21
5070.247226604107
 31
0.0
  0
LINE
  5
1950F
330
183EC
100
AcDbEntity
  8
寸法
 62
     0
 48
50.0
370
    -2
100
AcDbLine
 10
3429.673057123655
 20
4631.15405726464
 30
0.0
 11
3429.673057123655
 21
5070.247226604107
 31
0.0
  0
LINE
  5
19510
330
183EC
100
AcDbEntity
  8
寸法
 62
     0
 48
50.0
370
    -2
100
AcDbLine
 10
8689.673057123657
 20
5010.247226604107
 30
0.0
 11
3429.673057123655
 21
5010.247226604107
 31
0.0
  0
INSERT
  5
19511
330
183EC
100
AcDbEntity
  8
寸法
 62
     0
 48
50.0
370
    -2
100
AcDbBlockReference
  2
_DOTSMALL
 10
8689.673057123657
 20
5010.247226604107
 30
0.0
 41
100.0
 42
100.0
 43
100.0
  0
INSERT
  5
19512
330
183EC
100
AcDbEntity
  8
寸法
 62
     0
 48
50.0
370
    -2
100
AcDbBlockReference
  2
_DOTSMALL
 10
3429.673057123655
 20
5010.247226604107
 30
0.0
 41
100.0
 42
100.0
 43
100.0
 50
180.0
  0
MTEXT
  5
19513
330
183EC
100
AcDbEntity
  8
寸法
 62
     7
 48
50.0
100
AcDbMText
 10
6059.673057123656
 20
5110.259037627728
 30
0.0
 40
120.0
 41
0.0
 71
     5
 72
     1
  1
\A1;柱外寸法5260
  7
STYLE1
 73
     1
 44
1.0
1001
ACAD
1000
MTEXTBEGIN
1070
    73
1070
     1
1070
    44
1040
1.0
1070
    74
1070
     0
1000
MTEXTEND
  0
POINT
  5
19514
330
183EC
100
AcDbEntity
  8
DEFPOINTS
 62
     0
 48
50.0
100
AcDbPoint
 10
8689.673057123657
 20
4611.154057264638
 30
0.0
  0
POINT
  5
19515
330
183EC
100
AcDbEntity
  8
DEFPOINTS
 62
     0
 48
50.0
100
AcDbPoint
 10
3429.673057123655
 20
4611.15405726464
 30
0.0
  0
POINT
  5
19516
330
183EC
100
AcDbEntity
  8
DEFPOINTS
 62
     0
 48
50.0
100
AcDbPoint
 10
3429.673057123655
 20
5010.247226604107
 30
0.0
  0
ENDBLK
  5
183F7
330
183EC
100
AcDbEntity
  8
0
 48
50.0
100
AcDbBlockEnd
  0
BLOCK
  5
18404
330
183F8
100
AcDbEntity
  8
0
 48
50.0
100
AcDbBlockBegin
  2
*D33
 70
     1
 10
0.0
 20
0.0
 30
0.0
  3
*D33
  1

  0
LINE
  5
186E9
330
183F8
100
AcDbEntity
  8
寸法
 62
     0
 48
50.0
370
    -2
100
AcDbLine
 10
8739.673057123658
 20
4631.154057264637
 30
0.0
 11
8739.673057123658
 21
5070.247226604107
 31
0.0
  0
LINE
  5
186EA
330
183F8
100
AcDbEntity
  8
寸法
 62
     0
 48
50.0
370
    -2
100
AcDbLine
 10
8689.673057123657
 20
4631.154057264637
 30
0.0
 11
8689.673057123657
 21
5070.247226604107
 31
0.0
  0
LINE
  5
186EB
330
183F8
100
AcDbEntity
  8
寸法
 62
     0
 48
50.0
370
    -2
100
AcDbLine
 10
8689.673057123657
 20
5010.247226604107
 30
0.0
 11
8589.673057123658
 21
5010.247226604107
 31
0.0
  0
LINE
  5
186EC
330
183F8
100
AcDbEntity
  8
寸法
 62
     0
 48
50.0
370
    -2
100
AcDbLine
 10
8739.673057123658
 20
5010.247226604107
 30
0.0
 11
9159.205582592383
 21
5010.247226604107
 31
0.0
  0
LINE
  5
186ED
330
183F8
100
AcDbEntity
  8
寸法
 62
     0
 48
50.0
370
    -2
100
AcDbLine
 10
8689.673057123657
 20
5010.247226604107
 30
0.0
 11
8739.673057123658
 21
5010.247226604107
 31
0.0
  0
INSERT
  5
186EE
330
183F8
100
AcDbEntity
  8
寸法
 62
     0
 48
50.0
370
    -2
100
AcDbBlockReference
  2
_DOTSMALL
 10
8689.673057123657
 20
5010.247226604107
 30
0.0
 41
100.0
 42
100.0
 43
100.0
  0
INSERT
  5
186EF
330
183F8
100
AcDbEntity
  8
寸法
 62
     0
 48
50.0
370
    -2
100
AcDbBlockReference
  2
_DOTSMALL
 10
8739.673057123658
 20
5010.247226604107
 30
0.0
 41
100.0
 42
100.0
 43
100.0
 50
180.0
  0
MTEXT
  5
186F0
330
183F8
100
AcDbEntity
  8
寸法
 62
     7
 48
50.0
100
AcDbMText
 10
9053.158338497892
 20
5110.247226604107
 30
0.0
 40
120.0
 41
0.0
 71
     5
 72
     1
  1
\A1;50
  7
STYLE1
 73
     1
 44
1.0
1001
ACAD
1000
MTEXTBEGIN
1070
    73
1070
     1
1070
    44
1040
1.0
1070
    74
1070
     0
1000
MTEXTEND
  0
POINT
  5
186F1
330
183F8
100
AcDbEntity
  8
DEFPOINTS
 62
     0
 48
50.0
100
AcDbPoint
 10
8739.673057123658
 20
4611.154057264636
 30
0.0
  0
POINT
  5
186F2
330
183F8
100
AcDbEntity
  8
DEFPOINTS
 62
     0
 48
50.0
100
AcDbPoint
 10
8689.673057123657
 20
4611.154057264638
 30
0.0
  0
POINT
  5
186F3
330
183F8
100
AcDbEntity
  8
DEFPOINTS
 62
     0
 48
50.0
100
AcDbPoint
 10
8689.673057123657
 20
5010.247226604107
 30
0.0
  0
ENDBLK
  5
18405
330
183F8
100
AcDbEntity
  8
0
 48
50.0
100
AcDbBlockEnd
  0
BLOCK
  5
18410
330
18406
100
AcDbEntity
  8
0
 48
50.0
100
AcDbBlockBegin
  2
*D34
 70
     1
 10
0.0
 20
0.0
 30
0.0
  3
*D34
  1

  0
LINE
  5
19505
330
18406
100
AcDbEntity
  8
寸法
 62
     0
 48
50.0
370
    -2
100
AcDbLine
 10
3379.673057123655
 20
4631.154057264637
 30
0.0
 11
3379.673057123655
 21
5286.773326222552
 31
0.0
  0
LINE
  5
19506
330
18406
100
AcDbEntity
  8
寸法
 62
     0
 48
50.0
370
    -2
100
AcDbLine
 10
8739.673057123658
 20
4631.154057264637
 30
0.0
 11
8739.673057123658
 21
5286.773326222552
 31
0.0
  0
LINE
  5
19507
330
18406
100
AcDbEntity
  8
寸法
 62
     0
 48
50.0
370
    -2
100
AcDbLine
 10
3379.673057123655
 20
5226.773326222552
 30
0.0
 11
8739.673057123658
 21
5226.773326222552
 31
0.0
  0
INSERT
  5
19508
330
18406
100
AcDbEntity
  8
寸法
 62
     0
 48
50.0
370
    -2
100
AcDbBlockReference
  2
_DOTSMALL
 10
3379.673057123655
 20
5226.773326222552
 30
0.0
 41
100.0
 42
100.0
 43
100.0
 50
180.0
  0
INSERT
  5
19509
330
18406
100
AcDbEntity
  8
寸法
 62
     0
 48
50.0
370
    -2
100
AcDbBlockReference
  2
_DOTSMALL
 10
8739.673057123658
 20
5226.773326222552
 30
0.0
 41
100.0
 42
100.0
 43
100.0
  0
MTEXT
  5
1950A
330
18406
100
AcDbEntity
  8
寸法
 62
     7
 48
50.0
100
AcDbMText
 10
6059.673057123656
 20
5326.773326222552
 30
0.0
 40
120.0
 41
0.0
 71
     5
 72
     1
  1
\A1;5360
  7
STYLE1
 73
     1
 44
1.0
1001
ACAD
1000
MTEXTBEGIN
1070
    73
1070
     1
1070
    44
1040
1.0
1070
    74
1070
     0
1000
MTEXTEND
  0
POINT
  5
1950B
330
18406
100
AcDbEntity
  8
DEFPOINTS
 62
     0
 48
50.0
100
AcDbPoint
 10
3379.673057123655
 20
4611.154057264638
 30
0.0
  0
POINT
  5
1950C
330
18406
100
AcDbEntity
  8
DEFPOINTS
 62
     0
 48
50.0
100
AcDbPoint
 10
8739.673057123658
 20
4611.154057264636
 30
0.0
  0
POINT
  5
1950D
330
18406
100
AcDbEntity
  8
DEFPOINTS
 62
     0
 48
50.0
100
AcDbPoint
 10
8739.673057123658
 20
5226.773326222552
 30
0.0
  0
ENDBLK
  5
18411
330
18406
100
AcDbEntity
  8
0
 48
50.0
100
AcDbBlockEnd
  0
BLOCK
  5
1841E
330
18412
100
AcDbEntity
  8
0
 48
50.0
100
AcDbBlockBegin
  2
*D35
 70
     1
 10
0.0
 20
0.0
 30
0.0
  3
*D35
  1

  0
LINE
  5
186D5
330
18412
100
AcDbEntity
  8
寸法
 62
     0
 48
50.0
370
    -2
100
AcDbLine
 10
3429.673057123655
 20
4631.15405726464
 30
0.0
 11
3429.673057123655
 21
5070.247226604107
 31
0.0
  0
LINE
  5
186D6
330
18412
100
AcDbEntity
  8
寸法
 62
     0
 48
50.0
370
    -2
100
AcDbLine
 10
3379.673057123655
 20
4631.154057264637
 30
0.0
 11
3379.673057123655
 21
5070.247226604107
 31
0.0
  0
LINE
  5
186D7
330
18412
100
AcDbEntity
  8
寸法
 62
     0
 48
50.0
370
    -2
100
AcDbLine
 10
3429.673057123655
 20
5010.247226604107
 30
0.0
 11
3529.673057123655
 21
5010.247226604107
 31
0.0
  0
LINE
  5
186D8
330
18412
100
AcDbEntity
  8
寸法
 62
     0
 48
50.0
370
    -2
100
AcDbLine
 10
3379.673057123655
 20
5010.247226604107
 30
0.0
 11
2960.14053165492
 21
5010.247226604107
 31
0.0
  0
LINE
  5
186D9
330
18412
100
AcDbEntity
  8
寸法
 62
     0
 48
50.0
370
    -2
100
AcDbLine
 10
3429.673057123655
 20
5010.247226604107
 30
0.0
 11
3379.673057123655
 21
5010.247226604107
 31
0.0
  0
INSERT
  5
186DA
330
18412
100
AcDbEntity
  8
寸法
 62
     0
 48
50.0
370
    -2
100
AcDbBlockReference
  2
_DOTSMALL
 10
3429.673057123655
 20
5010.247226604107
 30
0.0
 41
100.0
 42
100.0
 43
100.0
 50
180.0
  0
INSERT
  5
186DB
330
18412
100
AcDbEntity
  8
寸法
 62
     0
 48
50.0
370
    -2
100
AcDbBlockReference
  2
_DOTSMALL
 10
3379.673057123655
 20
5010.247226604107
 30
0.0
 41
100.0
 42
100.0
 43
100.0
  0
MTEXT
  5
186DC
330
18412
100
AcDbEntity
  8
寸法
 62
     7
 48
50.0
100
AcDbMText
 10
3066.187775749408
 20
5110.247226604107
 30
0.0
 40
120.0
 41
0.0
 71
     5
 72
     1
  1
\A1;50
  7
STYLE1
 73
     1
 44
1.0
1001
ACAD
1000
MTEXTBEGIN
1070
    73
1070
     1
1070
    44
1040
1.0
1070
    74
1070
     0
1000
MTEXTEND
  0
POINT
  5
186DD
330
18412
100
AcDbEntity
  8
DEFPOINTS
 62
     0
 48
50.0
100
AcDbPoint
 10
3429.673057123655
 20
4611.15405726464
 30
0.0
  0
POINT
  5
186DE
330
18412
100
AcDbEntity
  8
DEFPOINTS
 62
     0
 48
50.0
100
AcDbPoint
 10
3379.673057123655
 20
4611.154057264638
 30
0.0
  0
POINT
  5
186DF
330
18412
100
AcDbEntity
  8
DEFPOINTS
 62
     0
 48
50.0
100
AcDbPoint
 10
3379.673057123655
 20
5010.247226604107
 30
0.0
  0
ENDBLK
  5
1841F
330
18412
100
AcDbEntity
  8
0
 48
50.0
100
AcDbBlockEnd
  0
BLOCK
  5
18D04
330
18CFA
100
AcDbEntity
  8
0
 48
50.0
100
AcDbBlockBegin
  2
*D36
 70
     1
 10
0.0
 20
0.0
 30
0.0
  3
*D36
  1

  0
LINE
  5
18E49
330
18CFA
100
AcDbEntity
  8
寸法
 62
     0
 48
50.0
370
    -2
100
AcDbLine
 10
7382.814073275041
 20
9692.497424545976
 30
0.0
 11
7280.072259316442
 21
9309.059754790698
 31
0.0
  0
LINE
  5
18E4A
330
18CFA
100
AcDbEntity
  8
寸法
 62
     0
 48
50.0
370
    -2
100
AcDbLine
 10
8655.814073275053
 20
9692.497424545969
 30
0.0
 11
8553.072259316456
 21
9309.059754790698
 31
0.0
  0
LINE
  5
18E4B
330
18CFA
100
AcDbEntity
  8
寸法
 62
     0
 48
50.0
370
    -2
100
AcDbLine
 10
7296.14921086231
 20
9369.059754790699
 30
0.0
 11
8569.149210862326
 21
9369.059754790699
 31
0.0
  0
INSERT
  5
18E4C
330
18CFA
100
AcDbEntity
  8
寸法
 62
     0
 48
50.0
370
    -2
100
AcDbBlockReference
  2
_DOTSMALL
 10
7296.14921086231
 20
9369.059754790699
 30
0.0
 41
100.0
 42
100.0
 43
100.0
 50
180.0
  0
INSERT
  5
18E4D
330
18CFA
100
AcDbEntity
  8
寸法
 62
     0
 48
50.0
370
    -2
100
AcDbBlockReference
  2
_DOTSMALL
 10
8569.149210862326
 20
9369.059754790699
 30
0.0
 41
100.0
 42
100.0
 43
100.0
  0
MTEXT
  5
18E4E
330
18CFA
100
AcDbEntity
  8
寸法
 62
     7
 48
50.0
100
AcDbMText
 10
7979.158372861959
 20
9469.071565814321
 30
0.0
 40
120.0
 41
0.0
 71
     5
 72
     1
  1
\A1;1273
  7
STYLE1
 73
     1
 44
1.0
1001
ACAD
1000
MTEXTBEGIN
1070
    73
1070
     1
1070
    44
1040
1.0
1070
    74
1070
     0
1000
MTEXTEND
  0
POINT
  5
18E4F
330
18CFA
100
AcDbEntity
  8
DEFPOINTS
 62
     0
 48
50.0
100
AcDbPoint
 10
7388.173057123663
 20
9712.497424545974
 30
0.0
  0
POINT
  5
18E50
330
18CFA
100
AcDbEntity
  8
DEFPOINTS
 62
     0
 48
50.0
100
AcDbPoint
 10
8661.173057123674
 20
9712.497424545967
 30
0.0
  0
POINT
  5
18E51
330
18CFA
100
AcDbEntity
  8
DEFPOINTS
 62
     0
 48
50.0
100
AcDbPoint
 10
8569.149210862326
 20
9369.059754790699
 30
0.0
  0
ENDBLK
  5
18D05
330
18CFA
100
AcDbEntity
  8
0
 48
50.0
100
AcDbBlockEnd
  0
BLOCK
  5
18D5F
330
18D55
100
AcDbEntity
  8
0
 48
50.0
100
AcDbBlockBegin
  2
*D37
 70
     1
 10
0.0
 20
0.0
 30
0.0
  3
*D37
  1

  0
LINE
  5
18E40
330
18D55
100
AcDbEntity
  8
寸法
 62
     0
 48
50.0
370
    -2
100
AcDbLine
 10
6082.814073275041
 20
9692.497424545869
 30
0.0
 11
5980.072259316472
 21
9309.059754790698
 31
0.0
  0
LINE
  5
18E41
330
18D55
100
AcDbEntity
  8
寸法
 62
     0
 48
50.0
370
    -2
100
AcDbLine
 10
7355.814073275053
 20
9692.497424545862
 30
0.0
 11
7253.072259316486
 21
9309.059754790698
 31
0.0
  0
LINE
  5
18E42
330
18D55
100
AcDbEntity
  8
寸法
 62
     0
 48
50.0
370
    -2
100
AcDbLine
 10
5996.149210862339
 20
9369.059754790699
 30
0.0
 11
7269.149210862352
 21
9369.059754790699
 31
0.0
  0
INSERT
  5
18E43
330
18D55
100
AcDbEntity
  8
寸法
 62
     0
 48
50.0
370
    -2
100
AcDbBlockReference
  2
_DOTSMALL
 10
5996.149210862339
 20
9369.059754790699
 30
0.0
 41
100.0
 42
100.0
 43
100.0
 50
180.0
  0
INSERT
  5
18E44
330
18D55
100
AcDbEntity
  8
寸法
 62
     0
 48
50.0
370
    -2
100
AcDbBlockReference
  2
_DOTSMALL
 10
7269.149210862352
 20
9369.059754790699
 30
0.0
 41
100.0
 42
100.0
 43
100.0
  0
MTEXT
  5
18E45
330
18D55
100
AcDbEntity
  8
寸法
 62
     7
 48
50.0
100
AcDbMText
 10
6632.649210862346
 20
9469.071565814321
 30
0.0
 40
120.0
 41
0.0
 71
     5
 72
     1
  1
\A1;1273
  7
STYLE1
 73
     1
 44
1.0
1001
ACAD
1000
MTEXTBEGIN
1070
    73
1070
     1
1070
    44
1040
1.0
1070
    74
1070
     0
1000
MTEXTEND
  0
POINT
  5
18E46
330
18D55
100
AcDbEntity
  8
DEFPOINTS
 62
     0
 48
50.0
100
AcDbPoint
 10
6088.173057123664
 20
9712.497424545869
 30
0.0
  0
POINT
  5
18E47
330
18D55
100
AcDbEntity
  8
DEFPOINTS
 62
     0
 48
50.0
100
AcDbPoint
 10
7361.173057123676
 20
9712.497424545862
 30
0.0
  0
POINT
  5
18E48
330
18D55
100
AcDbEntity
  8
DEFPOINTS
 62
     0
 48
50.0
100
AcDbPoint
 10
7269.149210862352
 20
9369.059754790699
 30
0.0
  0
ENDBLK
  5
18D60
330
18D55
100
AcDbEntity
  8
0
 48
50.0
100
AcDbBlockEnd
  0
BLOCK
  5
1907A
330
19070
100
AcDbEntity
  8
0
 48
50.0
100
AcDbBlockBegin
  2
*D38
 70
     1
 10
0.0
 20
0.0
 30
0.0
  3
*D38
  1

  0
LINE
  5
1913B
330
19070
100
AcDbEntity
  8
寸法
 62
     0
 48
50.0
370
    -2
100
AcDbLine
 10
8709.673057123655
 20
2298.154057264634
 30
0.0
 11
9037.216159445399
 21
2298.154057264634
 31
0.0
  0
LINE
  5
1913C
330
19070
100
AcDbEntity
  8
寸法
 62
     0
 48
50.0
370
    -2
100
AcDbLine
 10
8709.673057123655
 20
4184.154057264633
 30
0.0
 11
9037.216159445401
 21
4184.154057264633
 31
0.0
  0
LINE
  5
1913D
330
19070
100
AcDbEntity
  8
寸法
 62
     0
 48
50.0
370
    -2
100
AcDbLine
 10
8977.216159445399
 20
2298.154057264634
 30
0.0
 11
8977.216159445401
 21
4184.154057264633
 31
0.0
  0
INSERT
  5
1913E
330
19070
100
AcDbEntity
  8
寸法
 62
     0
 48
50.0
370
    -2
100
AcDbBlockReference
  2
_DOTSMALL
 10
8977.216159445399
 20
2298.154057264634
 30
0.0
 41
100.0
 42
100.0
 43
100.0
 50
270.0
  0
INSERT
  5
1913F
330
19070
100
AcDbEntity
  8
寸法
 62
     0
 48
50.0
370
    -2
100
AcDbBlockReference
  2
_DOTSMALL
 10
8977.216159445401
 20
4184.154057264633
 30
0.0
 41
100.0
 42
100.0
 43
100.0
 50
90.0
  0
MTEXT
  5
19140
330
19070
100
AcDbEntity
  8
寸法
 62
     7
 48
50.0
100
AcDbMText
 10
8877.216159445399
 20
3241.154057264635
 30
0.0
 40
120.0
 41
0.0
 71
     5
 72
     1
  1
\A1;有効開口部高サ 1886
  7
STYLE1
 11
0.0000000000000001
 21
1.0
 31
0.0
 73
     1
 44
1.0
1001
ACAD
1000
MTEXTBEGIN
1070
    73
1070
     1
1070
    44
1040
1.0
1070
    74
1070
     0
1000
MTEXTEND
  0
POINT
  5
19141
330
19070
100
AcDbEntity
  8
DEFPOINTS
 62
     0
 48
50.0
100
AcDbPoint
 10
8689.673057123654
 20
2298.154057264634
 30
0.0
  0
POINT
  5
19142
330
19070
100
AcDbEntity
  8
DEFPOINTS
 62
     0
 48
50.0
100
AcDbPoint
 10
8689.673057123654
 20
4184.154057264633
 30
0.0
  0
POINT
  5
19143
330
19070
100
AcDbEntity
  8
DEFPOINTS
 62
     0
 48
50.0
100
AcDbPoint
 10
8977.216159445401
 20
4184.154057264633
 30
0.0
  0
ENDBLK
  5
1907B
330
19070
100
AcDbEntity
  8
0
 48
50.0
100
AcDbBlockEnd
  0
BLOCK
  5
19088
330
1907C
100
AcDbEntity
  8
0
 48
50.0
100
AcDbBlockBegin
  2
*D39
 70
     1
 10
0.0
 20
0.0
 30
0.0
  3
*D39
  1

  0
LINE
  5
19540
330
1907C
100
AcDbEntity
  8
寸法
 62
     0
 48
50.0
370
    -2
100
AcDbLine
 10
8709.673057123655
 20
4184.154057264633
 30
0.0
 11
9037.216159445401
 21
4184.154057264633
 31
0.0
  0
LINE
  5
19541
330
1907C
100
AcDbEntity
  8
寸法
 62
     0
 48
50.0
370
    -2
100
AcDbLine
 10
8709.673057123655
 20
4211.154057264635
 30
0.0
 11
9037.216159445401
 21
4211.154057264635
 31
0.0
  0
LINE
  5
19542
330
1907C
100
AcDbEntity
  8
寸法
 62
     0
 48
50.0
370
    -2
100
AcDbLine
 10
8977.216159445401
 20
4184.154057264633
 30
0.0
 11
8977.216159445399
 21
4084.154057264632
 31
0.0
  0
LINE
  5
19543
330
1907C
100
AcDbEntity
  8
寸法
 62
     0
 48
50.0
370
    -2
100
AcDbLine
 10
8977.216159445401
 20
4211.154057264635
 30
0.0
 11
8977.216159445401
 21
4311.154057264634
 31
0.0
  0
MTEXT
  5
19544
330
1907C
100
AcDbEntity
  8
寸法
 62
     7
 48
50.0
100
AcDbMText
 10
9117.385982691768
 20
4212.121257104292
 30
0.0
 40
120.0
 41
0.0
 71
     5
 72
     1
  1
\A1;27
  7
STYLE1
 11
0.0000000000000001
 21
1.0
 31
0.0
 73
     1
 44
1.0
1001
ACAD
1000
MTEXTBEGIN
1070
    73
1070
     1
1070
    44
1040
1.0
1070
    74
1070
     0
1000
MTEXTEND
  0
LINE
  5
19545
330
1907C
100
AcDbEntity
  8
寸法
 62
     0
 48
50.0
370
    -2
100
AcDbLine
 10
8977.216159445401
 20
4184.154057264633
 30
0.0
 11
8977.216159445401
 21
4211.154057264635
 31
0.0
  0
INSERT
  5
19546
330
1907C
100
AcDbEntity
  8
寸法
 62
     0
 48
50.0
370
    -2
100
AcDbBlockReference
  2
_DOTSMALL
 10
8977.216159445401
 20
4184.154057264633
 30
0.0
 41
100.0
 42
100.0
 43
100.0
 50
90.0
  0
INSERT
  5
19547
330
1907C
100
AcDbEntity
  8
寸法
 62
     0
 48
50.0
370
    -2
100
AcDbBlockReference
  2
_DOTSMALL
 10
8977.216159445401
 20
4211.154057264635
 30
0.0
 41
100.0
 42
100.0
 43
100.0
 50
270.0
  0
POINT
  5
19548
330
1907C
100
AcDbEntity
  8
DEFPOINTS
 62
     0
 48
50.0
100
AcDbPoint
 10
8689.673057123654
 20
4184.154057264633
 30
0.0
  0
POINT
  5
19549
330
1907C
100
AcDbEntity
  8
DEFPOINTS
 62
     0
 48
50.0
100
AcDbPoint
 10
8689.673057123654
 20
4211.154057264635
 30
0.0
  0
POINT
  5
1954A
330
1907C
100
AcDbEntity
  8
DEFPOINTS
 62
     0
 48
50.0
100
AcDbPoint
 10
8977.216159445401
 20
4211.154057264635
 30
0.0
  0
ENDBLK
  5
19089
330
1907C
100
AcDbEntity
  8
0
 48
50.0
100
AcDbBlockEnd
  0
BLOCK
  5
19095
330
1908A
100
AcDbEntity
  8
0
 48
50.0
100
AcDbBlockBegin
  2
*D40
 70
     1
 10
0.0
 20
0.0
 30
0.0
  3
*D40
  1

  0
LINE
  5
19536
330
1908A
100
AcDbEntity
  8
寸法
 62
     0
 48
50.0
370
    -2
100
AcDbLine
 10
8709.673057123655
 20
4211.154057264635
 30
0.0
 11
9037.216159445403
 21
4211.154057264635
 31
0.0
  0
LINE
  5
19537
330
1908A
100
AcDbEntity
  8
寸法
 62
     0
 48
50.0
370
    -2
100
AcDbLine
 10
8709.673057123655
 20
4376.154057264634
 30
0.0
 11
9037.216159445403
 21
4376.154057264634
 31
0.0
  0
LINE
  5
19538
330
1908A
100
AcDbEntity
  8
寸法
 62
     0
 48
50.0
370
    -2
100
AcDbLine
 10
8977.216159445402
 20
4211.154057264635
 30
0.0
 11
8977.216159445402
 21
4376.154057264634
 31
0.0
  0
LINE
  5
19539
330
1908A
100
AcDbEntity
  8
寸法
 62
     0
 48
50.0
370
    -2
100
AcDbLine
 10
8977.216159445402
 20
4376.154057264634
 30
0.0
 11
8977.216159445402
 21
4753.124620013112
 31
0.0
  0
INSERT
  5
1953A
330
1908A
100
AcDbEntity
  8
寸法
 62
     0
 48
50.0
370
    -2
100
AcDbBlockReference
  2
_DOTSMALL
 10
8977.216159445402
 20
4211.154057264635
 30
0.0
 41
100.0
 42
100.0
 43
100.0
 50
270.0
  0
INSERT
  5
1953B
330
1908A
100
AcDbEntity
  8
寸法
 62
     0
 48
50.0
370
    -2
100
AcDbBlockReference
  2
_DOTSMALL
 10
8977.216159445402
 20
4376.154057264634
 30
0.0
 41
100.0
 42
100.0
 43
100.0
 50
90.0
  0
MTEXT
  5
1953C
330
1908A
100
AcDbEntity
  8
寸法
 62
     7
 48
50.0
100
AcDbMText
 10
8877.216159445401
 20
4614.639338638873
 30
0.0
 40
120.0
 41
0.0
 71
     5
 72
     1
  1
\A1;165
  7
STYLE1
 11
0.0000000000000001
 21
1.0
 31
0.0
 73
     1
 44
1.0
1001
ACAD
1000
MTEXTBEGIN
1070
    73
1070
     1
1070
    44
1040
1.0
1070
    74
1070
     0
1000
MTEXTEND
  0
POINT
  5
1953D
330
1908A
100
AcDbEntity
  8
DEFPOINTS
 62
     0
 48
50.0
100
AcDbPoint
 10
8689.673057123654
 20
4211.154057264635
 30
0.0
  0
POINT
  5
1953E
330
1908A
100
AcDbEntity
  8
DEFPOINTS
 62
     0
 48
50.0
100
AcDbPoint
 10
8689.673057123654
 20
4376.154057264634
 30
0.0
  0
POINT
  5
1953F
330
1908A
100
AcDbEntity
  8
DEFPOINTS
 62
     0
 48
50.0
100
AcDbPoint
 10
8977.216159445402
 20
4376.154057264634
 30
0.0
  0
ENDBLK
  5
19096
330
1908A
100
AcDbEntity
  8
0
 48
50.0
100
AcDbBlockEnd
  0
BLOCK
  5
19466
330
1945C
100
AcDbEntity
  8
0
 48
50.0
100
AcDbBlockBegin
  2
*D41
 70
     1
 10
0.0
 20
0.0
 30
0.0
  3
*D41
  1

  0
LINE
  5
194A8
330
1945C
100
AcDbEntity
  8
寸法
 62
     0
 48
50.0
370
    -2
100
AcDbLine
 10
6104.67305712338
 20
9475.997420968694
 30
0.0
 11
6456.514417384217
 21
9475.997420968694
 31
0.0
  0
LINE
  5
194A9
330
1945C
100
AcDbEntity
  8
寸法
 62
     0
 48
50.0
370
    -2
100
AcDbLine
 10
6134.673057123615
 20
10192.49742454587
 30
0.0
 11
6456.514417384217
 21
10192.49742454587
 31
0.0
  0
LINE
  5
194AA
330
1945C
100
AcDbEntity
  8
寸法
 62
     0
 48
50.0
370
    -2
100
AcDbLine
 10
6396.514417384217
 20
9475.997420968694
 30
0.0
 11
6396.514417384217
 21
10192.49742454587
 31
0.0
  0
INSERT
  5
194AB
330
1945C
100
AcDbEntity
  8
寸法
 62
     0
 48
50.0
370
    -2
100
AcDbBlockReference
  2
_DOTSMALL
 10
6396.514417384217
 20
9475.997420968694
 30
0.0
 41
100.0
 42
100.0
 43
100.0
 50
270.0
  0
INSERT
  5
194AC
330
1945C
100
AcDbEntity
  8
寸法
 62
     0
 48
50.0
370
    -2
100
AcDbBlockReference
  2
_DOTSMALL
 10
6396.514417384217
 20
10192.49742454587
 30
0.0
 41
100.0
 42
100.0
 43
100.0
 50
90.0
  0
MTEXT
  5
194AD
330
1945C
100
AcDbEntity
  8
寸法
 62
     7
 48
50.0
100
AcDbMText
 10
6296.514417384216
 20
9931.452473582679
 30
0.0
 40
120.0
 41
0.0
 71
     5
 72
     1
  1
\A1;716.5
  7
STYLE1
 11
0.0000000000000001
 21
1.0
 31
0.0
 73
     1
 44
1.0
1001
ACAD
1000
MTEXTBEGIN
1070
    73
1070
     1
1070
    44
1040
1.0
1070
    74
1070
     0
1000
MTEXTEND
  0
POINT
  5
194AE
330
1945C
100
AcDbEntity
  8
DEFPOINTS
 62
     0
 48
50.0
100
AcDbPoint
 10
6084.673057123381
 20
9475.997420968694
 30
0.0
  0
POINT
  5
194AF
330
1945C
100
AcDbEntity
  8
DEFPOINTS
 62
     0
 48
50.0
100
AcDbPoint
 10
6114.673057123614
 20
10192.49742454587
 30
0.0
  0
POINT
  5
194B0
330
1945C
100
AcDbEntity
  8
DEFPOINTS
 62
     0
 48
50.0
100
AcDbPoint
 10
6396.514417384217
 20
10192.49742454587
 30
0.0
  0
ENDBLK
  5
19467
330
1945C
100
AcDbEntity
  8
0
 48
50.0
100
AcDbBlockEnd
  0
ENDSEC
  0
SECTION
  2
ENTITIES
  0
MTEXT
  5
763F
330
747D
100
AcDbEntity
  8
0
100
AcDbMText
 10
302.846345836809
 20
280.1983726409901
 30
0.0
 40
3.5
 41
5.323721266742722
 71
     1
 72
     5
  1

  7
MSMINCHO
 73
     1
 44
1.0
1001
ACAD
1000
MTEXTBEGIN
1070
    73
1070
     1
1070
    44
1040
1.0
1070
    74
1070
     0
1000
MTEXTEND
  0
LINE
  5
10B57
330
747D
100
AcDbEntity
  8
補助
  6
PHANTOM
 62
   230
 48
50.0
100
AcDbLine
 10
139.9999999999995
 20
11409.6
 30
0.0
 11
16307.2
 21
11409.6
 31
0.0
  0
LINE
  5
10B59
330
747D
100
AcDbEntity
  8
仕様書枠
  6
Continuous
 48
50.0
100
AcDbLine
 10
13107.2
 20
1200.0
 30
0.0
 11
13107.2
 21
-0.0000000000000729
 31
0.0
  0
LINE
  5
10B5C
330
747D
100
AcDbEntity
  8
仕様書枠
 48
50.0
100
AcDbLine
 10
16307.2
 20
1200.0
 30
0.0
 11
16307.2
 21
-0.0000000000000909
 31
0.0
  0
LINE
  5
10B5D
330
747D
100
AcDbEntity
  8
仕様書枠
 48
50.0
100
AcDbLine
 10
140.0
 20
0.0
 30
0.0
 11
16307.2
 21
-0.0000000000000909
 31
0.0
  0
LINE
  5
10B5E
330
747D
100
AcDbEntity
  8
補助
  6
PHANTOM
 62
   230
 48
50.0
100
AcDbLine
 10
16307.2
 20
11409.6
 30
0.0
 11
16307.2
 21
1200.0
 31
0.0
  0
LINE
  5
10B6C
330
747D
100
AcDbEntity
  8
仕様書枠
 48
50.0
100
AcDbLine
 10
13107.2
 20
1200.0
 30
0.0
 11
16307.2
 21
1200.0
 31
0.0
  0
LINE
  5
10B6D
330
747D
100
AcDbEntity
  8
補助
  6
PHANTOM
 62
   230
 48
50.0
100
AcDbLine
 10
13107.2
 20
11409.6
 30
0.0
 11
13107.2
 21
4800.0
 31
0.0
  0
LINE
  5
10B6F
330
747D
100
AcDbEntity
  8
補助
  6
PHANTOM
 62
   230
 48
50.0
100
AcDbLine
 10
13107.2
 20
4800.0
 30
0.0
 11
16307.2
 21
4800.0
 31
0.0
  0
LINE
  5
10B72
330
747D
100
AcDbEntity
  8
文字
 62
     7
 48
50.0
100
AcDbLine
 10
13187.2
 20
400.0
 30
0.0
 11
16227.2
 21
400.0
 31
0.0
  0
TEXT
  5
10B73
330
747D
100
AcDbEntity
  8
文字
 62
     7
 48
50.0
100
AcDbText
 10
13162.9790565769
 20
895.0906074299405
 30
0.0
 40
200.0
  1
外 形 図
  7
STYLE2
100
AcDbText
  0
TEXT
  5
10B74
330
747D
100
AcDbEntity
  8
文字
 62
     7
 48
50.0
100
AcDbText
 10
13201.43669998441
 20
477.2740661031255
 30
0.0
 40
160.0
  1
機種名
  7
STYLE2
100
AcDbText
  0
TEXT
  5
10B75
330
747D
100
AcDbEntity
  8
文字
 62
     7
 48
50.0
100
AcDbText
 10
13209.4053442172
 20
228.5435242569016
 30
0.0
 40
100.0
  1
○有効開口寸法 ： 2424×1886(mm)
  7
STYLE2
100
AcDbText
  0
TEXT
  5
10B76
330
747D
100
AcDbEntity
  8
文字
 62
     7
 48
50.0
100
AcDbText
 10
13209.4053442172
 20
76.09434707649343
 30
0.0
 40
100.0
  1
○床面積 ： 16.04㎡(4.86坪) 　
  7
STYLE2
100
AcDbText
  0
TEXT
  5
10B79
330
747D
100
AcDbEntity
  8
文字
 62
     7
 48
50.0
100
AcDbText
 10
14524.131837222
 20
1031.557706291228
 30
0.0
 40
100.0
  1
NO.40      <縮尺> S=1/40
  7
STYLE2
100
AcDbText
  0
LINE
  5
10B7B
330
747D
100
AcDbEntity
  8
仕様書枠
 48
50.0
100
AcDbLine
 10
13107.2
 20
800.0
 30
0.0
 11
14251.2
 21
800.0
 31
0.0
  0
LINE
  5
10B88
330
747D
100
AcDbEntity
  8
仕様書枠
  6
Continuous
 48
50.0
100
AcDbLine
 10
14251.2
 20
1200.0
 30
0.0
 11
14251.2
 21
800.0
 31
0.0
  0
DIMENSION
  5
162CD
330
747D
100
AcDbEntity
  8
寸法
100
AcDbDimension
  2
*D1
 10
9337.09940285807
 20
7197.497424545952
 30
0.0
 11
9237.087591834448
 21
8667.49742454596
 31
0.0
 70
    32
  1
7X420=<>
 71
     5
 42
-1.0
  3
INABA_S40G
100
AcDbAlignedDimension
 13
8689.673057123664
 23
10137.49742454596
 33
0.0
 14
8689.67305712364
 24
7197.497424545952
 34
0.0
 50
90.0
100
AcDbRotatedDimension
1001
ACAD
1000
DSTYLE
1002
{
1002
}
  0
DIMENSION
  5
162CE
330
747D
100
AcDbEntity
  8
寸法
100
AcDbDimension
  2
*D2
 10
9337.099402858049
 20
7142.497424545955
 30
0.0
 11
9337.099402858049
 21
6764.635957641094
 31
0.0
 12
1315.0
 22
160.0
 32
0.0
 70
   160
 71
     5
 42
-1.0
  3
INABA_S40G
100
AcDbAlignedDimension
 13
8689.67305712364
 23
7197.497424545952
 33
0.0
 14
8689.67305712364
 24
7142.497424545957
 34
0.0
 50
90.0
100
AcDbRotatedDimension
1001
ACAD
1000
DSTYLE
1002
{
1002
}
  0
DIMENSION
  5
162CF
330
747D
100
AcDbEntity
  8
寸法
100
AcDbDimension
  2
*D3
 10
9337.099402858074
 20
10137.49742454596
 30
0.0
 11
9337.099402858074
 21
10500.9827059202
 31
0.0
 12
1315.0
 22
160.0
 32
0.0
 70
   160
 71
     5
 42
-1.0
  3
INABA_S40G
100
AcDbAlignedDimension
 13
8689.673057123664
 23
10192.49742454596
 33
0.0
 14
8689.673057123664
 24
10137.49742454596
 34
0.0
 50
90.0
100
AcDbRotatedDimension
1001
ACAD
1000
DSTYLE
1002
{
1002
}
  0
DIMENSION
  5
162D0
330
747D
100
AcDbEntity
  8
寸法
100
AcDbDimension
  2
*D4
 10
9702.20634459771
 20
7142.497424545957
 30
0.0
 11
9602.206344597711
 21
8667.49742454596
 31
0.0
 70
    32
 71
     5
 42
-1.0
  3
INABA_S40G
100
AcDbAlignedDimension
 13
8689.673057123664
 23
10192.49742454596
 33
0.0
 14
8689.67305712364
 24
7142.497424545957
 34
0.0
 50
90.0
100
AcDbRotatedDimension
1001
ACAD
1000
DSTYLE
1002
{
1002
}
  0
LINE
  5
162D1
330
747D
100
AcDbEntity
  8
細線
 48
50.0
100
AcDbLine
 10
7361.173057123662
 20
9712.497424545974
 30
0.0
 11
6088.173057123662
 21
10162.49742454587
 31
0.0
  0
LINE
  5
162D2
330
747D
100
AcDbEntity
  8
細線
 48
50.0
100
AcDbLine
 10
7361.173057123663
 20
10162.49742454597
 30
0.0
 11
6088.173057123663
 21
9712.497424545869
 31
0.0
  0
LINE
  5
162D3
330
747D
100
AcDbEntity
  8
部品1
 48
50.0
100
AcDbLine
 10
3458.173057123662
 20
10162.49742454586
 30
0.0
 11
3458.173057123663
 21
9712.497424545865
 31
0.0
  0
LINE
  5
162D4
330
747D
100
AcDbEntity
  8
細線
 48
50.0
100
AcDbLine
 10
8661.173057123663
 20
10162.49742454596
 30
0.0
 11
7388.173057123662
 21
9712.497424545974
 31
0.0
  0
LINE
  5
162D5
330
747D
100
AcDbEntity
  8
細線
 48
50.0
100
AcDbLine
 10
8661.173057123663
 20
9712.497424545967
 30
0.0
 11
7388.173057123663
 21
10162.49742454596
 31
0.0
  0
LINE
  5
162D6
330
747D
100
AcDbEntity
  8
部品1
 48
50.0
100
AcDbLine
 10
7361.173057123663
 20
10162.49742454597
 30
0.0
 11
7361.173057123663
 21
9712.497424545974
 31
0.0
  0
LINE
  5
162D7
330
747D
100
AcDbEntity
  8
部品1
 48
50.0
100
AcDbLine
 10
7388.173057123663
 20
10162.49742454596
 30
0.0
 11
7388.173057123663
 21
9712.497424545974
 31
0.0
  0
LINE
  5
162D8
330
747D
100
AcDbEntity
  8
部品1
 48
50.0
100
AcDbLine
 10
7362.173057123662
 20
10164.49742454597
 30
0.0
 11
7362.173057123662
 21
9712.497424545974
 31
0.0
  0
LINE
  5
162D9
330
747D
100
AcDbEntity
  8
部品1
 48
50.0
100
AcDbLine
 10
7387.173057123662
 20
10164.49742454597
 30
0.0
 11
7387.173057123662
 21
9712.497424545974
 31
0.0
  0
DIMENSION
  5
162DA
330
747D
100
AcDbEntity
  8
寸法
100
AcDbDimension
  2
*D5
 10
9016.530782985688
 20
9617.279608877078
 30
0.0
 11
8916.530782985688
 21
8682.279608877076
 31
0.0
 12
0.0
 22
1160.0
 32
0.0
 70
    32
 71
     5
 42
-1.0
  3
INABA_S40G
100
AcDbAlignedDimension
 13
8661.173057123663
 23
10162.49742454596
 33
0.0
 14
8661.173057123663
 24
9712.497424545967
 34
0.0
 50
90.0
100
AcDbRotatedDimension
1001
ACAD
1000
DSTYLE
1002
{
1002
}
  0
LINE
  5
162DB
330
747D
100
AcDbEntity
  8
部品1
100
AcDbLine
 10
8661.173057123663
 20
10162.49742454596
 30
0.0
 11
8661.173057123663
 21
9712.497424545967
 31
0.0
  0
LINE
  5
162DC
330
747D
100
AcDbEntity
  8
部品1
100
AcDbLine
 10
8661.673057123648
 20
10164.49742454596
 30
0.0
 11
8661.673057123641
 21
7197.497424545952
 31
0.0
  0
LINE
  5
162DD
330
747D
100
AcDbEntity
  8
部品1
100
AcDbLine
 10
3457.673057123639
 20
7197.497424545821
 30
0.0
 11
3457.67305712365
 21
10164.49742454587
 31
0.0
  0
LINE
  5
162DE
330
747D
100
AcDbEntity
  8
部品1
100
AcDbLine
 10
8689.673057123664
 20
10192.49742454596
 30
0.0
 11
8689.67305712364
 21
7142.497424545957
 31
0.0
  0
LINE
  5
162DF
330
747D
100
AcDbEntity
  8
部品1
100
AcDbLine
 10
3429.673057123629
 20
10192.49742454583
 30
0.0
 11
3429.673057123657
 21
7142.497424545826
 31
0.0
  0
LINE
  5
162E3
330
747D
100
AcDbEntity
  8
部品1
100
AcDbLine
 10
6088.173057123664
 20
9712.497424545869
 30
0.0
 11
7361.173057123662
 21
9712.497424545974
 31
0.0
  0
DIMENSION
  5
162E4
330
747D
100
AcDbEntity
  8
寸法
 48
50.0
100
AcDbDimension
  2
*D6
 10
6162.673057123657
 20
6608.0666537797
 30
0.0
 11
7374.673057123648
 21
6548.078464803322
 31
0.0
 12
1315.0
 22
160.0
 32
0.0
 70
    32
  1
有効開口部間口 <>
 71
     5
 42
-1.0
  3
INABA_S40G
100
AcDbAlignedDimension
 13
8586.673057123638
 23
7168.497424545865
 33
0.0
 14
6162.673057123657
 24
7168.497424545865
 34
0.0
100
AcDbRotatedDimension
1001
ACAD
1000
DSTYLE
1002
{
1070
    75
1070
     1
1070
   279
1070
     2
1002
}
  0
LINE
  5
162E6
330
747D
100
AcDbEntity
  8
部品1
 48
50.0
100
AcDbLine
 10
6126.673057123656
 20
7187.997424545864
 30
0.0
 11
8622.673057123639
 21
7187.997424545864
 31
0.0
  0
DIMENSION
  5
162E7
330
747D
100
AcDbEntity
  8
寸法
100
AcDbDimension
  2
*D7
 10
8689.673057123627
 20
6161.893658188827
 30
0.0
 11
6059.673057123642
 21
6261.905469212448
 31
0.0
 70
    32
 71
     5
 42
-1.0
  3
INABA_S40G
100
AcDbAlignedDimension
 13
3429.673057123657
 23
7142.497424545862
 33
0.0
 14
8689.673057123627
 24
7142.497424545957
 34
0.0
100
AcDbRotatedDimension
1001
ACAD
1000
DSTYLE
1002
{
1002
}
  0
LINE
  5
162E8
330
747D
100
AcDbEntity
  8
部品1
100
AcDbLine
 10
3484.673057123641
 20
9712.497424545871
 30
0.0
 11
3484.673057123656
 21
7207.497424545863
 31
0.0
  0
DIMENSION
  5
162EA
330
747D
100
AcDbEntity
  8
寸法
 48
50.0
100
AcDbDimension
  2
*D8
 10
3429.673057123657
 20
6608.0666537797
 30
0.0
 11
3121.187775749419
 21
6608.0666537797
 31
0.0
 12
-1315.0
 22
160.0
 32
0.0
 70
   160
 71
     5
 42
-1.0
  3
INABA_S40G
100
AcDbAlignedDimension
 13
3484.673057123654
 23
7142.497424545864
 33
0.0
 14
3429.673057123657
 24
7142.497424545862
 34
0.0
100
AcDbRotatedDimension
1001
ACAD
1000
DSTYLE
1002
{
1002
}
  0
DIMENSION
  5
162EB
330
747D
100
AcDbEntity
  8
寸法
 48
50.0
100
AcDbDimension
  2
*D9
 10
6114.673057123653
 20
6608.0666537797
 30
0.0
 11
6275.575028123714
 21
6708.0666537797
 31
0.0
 12
1315.0
 22
160.0
 32
0.0
 70
   160
 71
     5
 42
-1.0
  3
INABA_S40G
100
AcDbAlignedDimension
 13
6162.673057123657
 23
7168.497424545865
 33
0.0
 14
6114.673057123653
 24
7142.497424545864
 34
0.0
100
AcDbRotatedDimension
1001
ACAD
1000
DSTYLE
1002
{
1070
   279
1070
     2
1002
}
  0
LINE
  5
162EC
330
747D
100
AcDbEntity
  8
部品1
100
AcDbLine
 10
3484.673057123652
 20
7142.497424545864
 30
0.0
 11
3429.673057123657
 21
7142.497424545862
 31
0.0
  0
LINE
  5
162ED
330
747D
100
AcDbEntity
  8
部品1
 48
50.0
100
AcDbLine
 10
3484.673057123657
 20
7178.497424545864
 30
0.0
 11
3461.673057123657
 21
7178.497424545864
 31
0.0
  0
LINE
  5
162EE
330
747D
100
AcDbEntity
  8
部品1
 48
50.0
100
AcDbLine
 10
3494.673057123657
 20
7168.497424545865
 30
0.0
 11
3484.673057123657
 21
7147.497424545864
 31
0.0
  0
LINE
  5
162EF
330
747D
100
AcDbEntity
  8
部品1
 48
50.0
100
AcDbLine
 10
3484.673057123657
 20
7207.497424545863
 30
0.0
 11
3484.673057123654
 21
7142.497424545864
 31
0.0
  0
LINE
  5
162F0
330
747D
100
AcDbEntity
  8
部品1
 48
50.0
100
AcDbLine
 10
3532.673057123657
 20
7168.497424545865
 30
0.0
 11
3532.673057123657
 21
7177.497424545865
 31
0.0
  0
LINE
  5
162F1
330
747D
100
AcDbEntity
  8
部品1
 48
50.0
100
AcDbLine
 10
3532.673057123657
 20
7207.497424545865
 30
0.0
 11
3532.673057123657
 21
7198.497424545866
 31
0.0
  0
LINE
  5
162F2
330
747D
100
AcDbEntity
  8
部品1
100
AcDbLine
 10
3532.673057123657
 20
7207.497424545865
 30
0.0
 11
3484.673057123657
 21
7207.497424545865
 31
0.0
  0
LINE
  5
162F3
330
747D
100
AcDbEntity
  8
部品1
100
AcDbLine
 10
3532.673057123657
 20
7168.497424545865
 30
0.0
 11
3484.673057123657
 21
7168.497424545865
 31
0.0
  0
LINE
  5
162F4
330
747D
100
AcDbEntity
  8
部品1
100
AcDbLine
 10
3484.673057123656
 20
7178.497424545864
 30
0.0
 11
3461.673057123657
 21
7178.497424545864
 31
0.0
  0
LINE
  5
162F5
330
747D
100
AcDbEntity
  8
部品1
100
AcDbLine
 10
3484.673057123656
 20
7197.497424545789
 30
0.0
 11
3429.673057123655
 21
7197.497424545789
 31
0.0
  0
LINE
  5
162F6
330
747D
100
AcDbEntity
  8
部品1
100
AcDbLine
 10
3457.673057123639
 20
7197.497424545826
 30
0.0
 11
3429.673057123655
 21
7197.497424545826
 31
0.0
  0
LINE
  5
162F7
330
747D
100
AcDbEntity
  8
部品1
100
AcDbLine
 10
3457.673057123655
 20
7197.49742454584
 30
0.0
 11
3429.673057123655
 21
7197.49742454584
 31
0.0
  0
LINE
  5
162FB
330
747D
100
AcDbEntity
  8
部品1
100
AcDbLine
 10
3457.673057123643
 20
8877.49742454584
 30
0.0
 11
3429.673057123643
 21
8877.49742454584
 31
0.0
  0
LINE
  5
162FC
330
747D
100
AcDbEntity
  8
部品1
100
AcDbLine
 10
3457.673057123643
 20
9297.49742454584
 30
0.0
 11
3429.673057123643
 21
9297.49742454584
 31
0.0
  0
LINE
  5
162FE
330
747D
100
AcDbEntity
  8
部品1
100
AcDbLine
 10
3457.673057123638
 20
9717.49742454584
 30
0.0
 11
3429.673057123638
 21
9717.49742454584
 31
0.0
  0
LINE
  5
162FF
330
747D
100
AcDbEntity
  8
部品1
100
AcDbLine
 10
8634.673057123654
 20
9712.49742454597
 30
0.0
 11
8634.67305712364
 21
7142.497424545952
 31
0.0
  0
DIMENSION
  5
16301
330
747D
100
AcDbEntity
  8
寸法
 48
50.0
100
AcDbDimension
  2
*D10
 10
8586.673057123638
 20
6608.0666537797
 30
0.0
 11
8475.710159474891
 21
6708.0666537797
 31
0.0
 12
1315.0
 22
160.0
 32
0.0
 70
   160
 71
     5
 42
-1.0
  3
INABA_S40G
100
AcDbAlignedDimension
 13
8634.67305712364
 23
7142.497424545952
 33
0.0
 14
8586.673057123638
 24
7168.497424545865
 34
0.0
100
AcDbRotatedDimension
1001
ACAD
1000
DSTYLE
1002
{
1070
   279
1070
     2
1002
}
  0
DIMENSION
  5
16302
330
747D
100
AcDbEntity
  8
寸法
 48
50.0
100
AcDbDimension
  2
*D11
 10
8634.67305712364
 20
6608.066653779701
 30
0.0
 11
8998.158338497876
 21
6608.066653779701
 31
0.0
 12
1315.0
 22
160.0
 32
0.0
 70
   160
 71
     5
 42
-1.0
  3
INABA_S40G
100
AcDbAlignedDimension
 13
8689.67305712364
 23
7142.497424545957
 33
0.0
 14
8634.67305712364
 24
7142.497424545952
 34
0.0
100
AcDbRotatedDimension
1001
ACAD
1000
DSTYLE
1002
{
1002
}
  0
LINE
  5
16303
330
747D
100
AcDbEntity
  8
部品1
 48
50.0
100
AcDbLine
 10
8624.673057123638
 20
7168.497424545865
 30
0.0
 11
8634.67305712364
 21
7147.497424545864
 31
0.0
  0
LINE
  5
16304
330
747D
100
AcDbEntity
  8
部品1
100
AcDbLine
 10
8586.673057123638
 20
7207.497424545865
 30
0.0
 11
8634.67305712364
 21
7207.497424545865
 31
0.0
  0
LINE
  5
16305
330
747D
100
AcDbEntity
  8
部品1
100
AcDbLine
 10
8586.673057123638
 20
7168.497424545865
 30
0.0
 11
8634.67305712364
 21
7168.497424545865
 31
0.0
  0
LINE
  5
16306
330
747D
100
AcDbEntity
  8
部品1
 48
50.0
100
AcDbLine
 10
8586.673057123638
 20
7207.497424545865
 30
0.0
 11
8586.673057123638
 21
7198.497424545866
 31
0.0
  0
LINE
  5
16307
330
747D
100
AcDbEntity
  8
部品1
 48
50.0
100
AcDbLine
 10
8586.673057123638
 20
7168.497424545865
 30
0.0
 11
8586.673057123638
 21
7177.497424545865
 31
0.0
  0
LINE
  5
16308
330
747D
100
AcDbEntity
  8
部品1
100
AcDbLine
 10
8634.67305712364
 20
7178.497424545863
 30
0.0
 11
8657.673057123638
 21
7178.497424545864
 31
0.0
  0
LINE
  5
16309
330
747D
100
AcDbEntity
  8
部品1
100
AcDbLine
 10
8634.67305712364
 20
7197.497424545968
 30
0.0
 11
8689.673057123671
 21
7197.497424545968
 31
0.0
  0
LINE
  5
1630A
330
747D
100
AcDbEntity
  8
部品1
100
AcDbLine
 10
8689.67305712364
 20
7142.497424545957
 30
0.0
 11
8634.67305712364
 21
7142.497424545954
 31
0.0
  0
LINE
  5
1630E
330
747D
100
AcDbEntity
  8
部品1
100
AcDbLine
 10
7388.173057123662
 20
9712.497424545974
 30
0.0
 11
8661.173057123663
 21
9712.497424545967
 31
0.0
  0
LINE
  5
16312
330
747D
100
AcDbEntity
  8
部品1
100
AcDbLine
 10
7362.173057123662
 20
9712.497424545974
 30
0.0
 11
7387.173057123662
 21
9712.497424545974
 31
0.0
  0
LINE
  5
16317
330
747D
100
AcDbEntity
  8
部品1
100
AcDbLine
 10
8661.673057123667
 20
8877.497424545968
 30
0.0
 11
8689.673057123668
 21
8877.497424545968
 31
0.0
  0
LINE
  5
16318
330
747D
100
AcDbEntity
  8
破線
 48
10.0
100
AcDbLine
 10
8609.673057123655
 20
9521.497424545842
 30
0.0
 11
8609.673057123654
 21
9712.497424545874
 31
0.0
  0
LINE
  5
16319
330
747D
100
AcDbEntity
  8
部品1
100
AcDbLine
 10
8661.673057123667
 20
9297.497424545968
 30
0.0
 11
8689.673057123668
 21
9297.497424545968
 31
0.0
  0
LINE
  5
1631A
330
747D
100
AcDbEntity
  8
部品1
100
AcDbLine
 10
8661.673057123664
 20
9717.497424545967
 30
0.0
 11
8689.673057123664
 21
9717.497424545967
 31
0.0
  0
LINE
  5
1631C
330
747D
100
AcDbEntity
  8
部品1
100
AcDbLine
 10
6087.673057123663
 20
10164.49742454587
 30
0.0
 11
7362.173057123661
 21
10164.49742454587
 31
0.0
  0
LINE
  5
1631D
330
747D
100
AcDbEntity
  8
部品1
100
AcDbLine
 10
3429.673057123663
 20
10192.49742454587
 30
0.0
 11
8689.673057123664
 21
10192.49742454596
 31
0.0
  0
LINE
  5
1631E
330
747D
100
AcDbEntity
  8
部品1
100
AcDbLine
 10
6088.173057123662
 20
10162.49742454587
 30
0.0
 11
7361.173057123663
 21
10162.49742454597
 31
0.0
  0
DIMENSION
  5
1631F
330
747D
100
AcDbEntity
  8
寸法
100
AcDbDimension
  2
*D12
 10
8634.673057123665
 20
10608.30564417096
 30
0.0
 11
7374.673057123664
 21
10708.31745519459
 31
0.0
 70
    32
  1
6X420=<>
 71
     5
 42
2520.000000000001
  3
INABA_S40G
100
AcDbAlignedDimension
 13
6114.673057123663
 23
10192.49742454587
 33
0.0
 14
8634.673057123665
 24
10192.49742454596
 34
0.0
100
AcDbRotatedDimension
1001
ACAD
1000
DSTYLE
1002
{
1002
}
  0
DIMENSION
  5
16320
330
747D
100
AcDbEntity
  8
寸法
100
AcDbDimension
  2
*D13
 10
3484.673057123663
 20
10608.30564417085
 30
0.0
 11
3121.18777574939
 21
10608.30564417085
 31
0.0
 70
   160
 71
     5
 42
55.00000000003456
  3
INABA_S40G
100
AcDbAlignedDimension
 13
3429.673057123629
 23
10192.49742454587
 33
0.0
 14
3484.673057123663
 24
10192.49742454587
 34
0.0
100
AcDbRotatedDimension
1001
ACAD
1000
DSTYLE
1002
{
1002
}
  0
LINE
  5
16321
330
747D
100
AcDbEntity
  8
部品1
100
AcDbLine
 10
3484.673057123629
 20
10192.49742454583
 30
0.0
 11
3484.673057123631
 21
10164.49742454583
 31
0.0
  0
LINE
  5
16322
330
747D
100
AcDbEntity
  8
部品1
100
AcDbLine
 10
3484.673057123663
 20
10192.49742454587
 30
0.0
 11
3484.673057123663
 21
10164.49742454587
 31
0.0
  0
LINE
  5
16323
330
747D
100
AcDbEntity
  8
部品1
100
AcDbLine
 10
3457.67305712363
 20
10137.49742454584
 30
0.0
 11
3429.67305712363
 21
10137.49742454584
 31
0.0
  0
LINE
  5
16324
330
747D
100
AcDbEntity
  8
部品1
100
AcDbLine
 10
6534.673057123663
 20
10192.49742454598
 30
0.0
 11
6534.673057123663
 21
10164.49742454598
 31
0.0
  0
LINE
  5
16325
330
747D
100
AcDbEntity
  8
部品1
100
AcDbLine
 10
6534.673057123663
 20
10192.49742454587
 30
0.0
 11
6534.673057123663
 21
10164.49742454587
 31
0.0
  0
LINE
  5
16326
330
747D
100
AcDbEntity
  8
部品1
100
AcDbLine
 10
6534.673057123663
 20
10192.49742454587
 30
0.0
 11
6534.673057123663
 21
10164.49742454587
 31
0.0
  0
LINE
  5
16327
330
747D
100
AcDbEntity
  8
部品1
100
AcDbLine
 10
7387.173057123662
 20
10164.49742454598
 30
0.0
 11
8661.673057123664
 21
10164.49742454596
 31
0.0
  0
LINE
  5
16328
330
747D
100
AcDbEntity
  8
部品1
100
AcDbLine
 10
7388.173057123663
 20
10162.49742454597
 30
0.0
 11
8661.173057123663
 21
10162.49742454596
 31
0.0
  0
LINE
  5
16329
330
747D
100
AcDbEntity
  8
部品1
100
AcDbLine
 10
6954.673057123663
 20
10192.49742454598
 30
0.0
 11
6954.673057123663
 21
10164.49742454598
 31
0.0
  0
LINE
  5
1632A
330
747D
100
AcDbEntity
  8
部品1
100
AcDbLine
 10
6954.673057123663
 20
10192.49742454587
 30
0.0
 11
6954.673057123663
 21
10164.49742454587
 31
0.0
  0
LINE
  5
1632B
330
747D
100
AcDbEntity
  8
部品1
100
AcDbLine
 10
6954.673057123663
 20
10192.49742454587
 30
0.0
 11
6954.673057123663
 21
10164.49742454587
 31
0.0
  0
LINE
  5
1632C
330
747D
100
AcDbEntity
  8
部品1
100
AcDbLine
 10
7374.673057123662
 20
10192.49742454598
 30
0.0
 11
7374.673057123662
 21
10164.49742454598
 31
0.0
  0
LINE
  5
1632D
330
747D
100
AcDbEntity
  8
部品1
100
AcDbLine
 10
7362.173057123662
 20
10156.49742454596
 30
0.0
 11
7387.173057123662
 21
10156.49742454597
 31
0.0
  0
LINE
  5
1632E
330
747D
100
AcDbEntity
  8
部品1
100
AcDbLine
 10
7403.673057123663
 20
10182.49742454597
 30
0.0
 11
7409.673057123663
 21
10182.49742454597
 31
0.0
  0
LINE
  5
1632F
330
747D
100
AcDbEntity
  8
部品1
100
AcDbLine
 10
7409.673057123663
 20
10182.49742454597
 30
0.0
 11
7409.673057123663
 21
10164.49742454597
 31
0.0
  0
LINE
  5
16330
330
747D
100
AcDbEntity
  8
部品1
100
AcDbLine
 10
7339.673057123663
 20
10182.49742454597
 30
0.0
 11
7345.673057123663
 21
10182.49742454597
 31
0.0
  0
LINE
  5
16331
330
747D
100
AcDbEntity
  8
部品1
100
AcDbLine
 10
7339.673057123663
 20
10182.49742454597
 30
0.0
 11
7339.673057123663
 21
10164.49742454597
 31
0.0
  0
LINE
  5
16332
330
747D
100
AcDbEntity
  8
部品1
100
AcDbLine
 10
7794.673057123663
 20
10192.49742454598
 30
0.0
 11
7794.673057123663
 21
10164.49742454598
 31
0.0
  0
DIMENSION
  5
16333
330
747D
100
AcDbEntity
  8
寸法
100
AcDbDimension
  2
*D14
 10
8689.673057123664
 20
10608.30564417095
 30
0.0
 11
8998.158338497901
 21
10608.30564417095
 31
0.0
 70
   160
 71
     5
 42
55.0
  3
INABA_S40G
100
AcDbAlignedDimension
 13
8634.673057123665
 23
10192.49742454596
 33
0.0
 14
8689.673057123664
 24
10192.49742454596
 34
0.0
100
AcDbRotatedDimension
1001
ACAD
1000
DSTYLE
1002
{
1002
}
  0
LINE
  5
16334
330
747D
100
AcDbEntity
  8
部品1
100
AcDbLine
 10
8214.673057123661
 20
10192.49742454598
 30
0.0
 11
8214.673057123661
 21
10164.49742454598
 31
0.0
  0
LINE
  5
16335
330
747D
100
AcDbEntity
  8
部品1
100
AcDbLine
 10
8634.673057123665
 20
10192.49742454596
 30
0.0
 11
8634.673057123665
 21
10164.49742454596
 31
0.0
  0
LINE
  5
16336
330
747D
100
AcDbEntity
  8
部品1
100
AcDbLine
 10
8634.673057123665
 20
10192.49742454598
 30
0.0
 11
8634.673057123665
 21
10164.49742454598
 31
0.0
  0
LINE
  5
16337
330
747D
100
AcDbEntity
  8
部品1
100
AcDbLine
 10
8661.673057123664
 20
10137.49742454596
 30
0.0
 11
8689.673057123664
 21
10137.49742454596
 31
0.0
  0
DIMENSION
  5
1659A
330
747D
100
AcDbEntity
  8
寸法
 48
50.0
100
AcDbDimension
  2
*D17
 10
5956.673057123638
 20
6608.0666537797
 30
0.0
 11
5845.710159474891
 21
6708.0666537797
 31
0.0
 12
-2630.0
 22
160.0
 32
0.0
 70
   160
 71
     5
 42
-1.0
  3
INABA_S40G
100
AcDbAlignedDimension
 13
6004.67305712364
 23
7142.497424545952
 33
0.0
 14
5956.673057123638
 24
7168.497424545865
 34
0.0
100
AcDbRotatedDimension
1001
ACAD
1000
DSTYLE
1002
{
1070
   279
1070
     2
1002
}
  0
DIMENSION
  5
1659B
330
747D
100
AcDbEntity
  8
寸法
 48
50.0
100
AcDbDimension
  2
*D15
 10
3532.673057123657
 20
6608.0666537797
 30
0.0
 11
4744.673057123647
 21
6548.078464803322
 31
0.0
 12
-2630.0
 22
160.0
 32
0.0
 70
    32
  1
有効開口部間口 <>
 71
     5
 42
-1.0
  3
INABA_S40G
100
AcDbAlignedDimension
 13
5956.673057123638
 23
7168.497424545865
 33
0.0
 14
3532.673057123657
 24
7168.497424545865
 34
0.0
100
AcDbRotatedDimension
1001
ACAD
1000
DSTYLE
1002
{
1070
    75
1070
     1
1070
   279
1070
     2
1002
}
  0
DIMENSION
  5
1659C
330
747D
100
AcDbEntity
  8
寸法
 48
50.0
100
AcDbDimension
  2
*D16
 10
3484.673057123654
 20
6608.0666537797
 30
0.0
 11
3645.575028123714
 21
6708.0666537797
 31
0.0
 12
-2630.0
 22
160.0
 32
0.0
 70
   160
 71
     5
 42
-1.0
  3
INABA_S40G
100
AcDbAlignedDimension
 13
3532.673057123657
 23
7168.497424545865
 33
0.0
 14
3484.673057123654
 24
7142.497424545864
 34
0.0
100
AcDbRotatedDimension
1001
ACAD
1000
DSTYLE
1002
{
1070
   279
1070
     2
1002
}
  0
DIMENSION
  5
165E9
330
747D
100
AcDbEntity
  8
寸法
 48
50.0
100
AcDbDimension
  2
*D18
 10
6004.67305712364
 20
6608.066653779701
 30
0.0
 11
6059.673057123647
 21
6456.37475874347
 31
0.0
 12
0.0
 22
-100.0
 32
0.0
 70
   160
 71
     5
 42
-1.0
  3
INABA_S40G
100
AcDbAlignedDimension
 13
6114.673057123653
 23
7142.497424545864
 33
0.0
 14
6004.67305712364
 24
7142.497424545952
 34
0.0
100
AcDbRotatedDimension
1001
ACAD
1000
DSTYLE
1002
{
1070
   279
1070
     2
1002
}
  0
LINE
  5
16655
330
747D
100
AcDbEntity
  8
部品1
 48
50.0
100
AcDbLine
 10
3496.673057123656
 20
7187.997424545864
 30
0.0
 11
5992.67305712364
 21
7187.997424545864
 31
0.0
  0
LINE
  5
16656
330
747D
100
AcDbEntity
  8
部品1
100
AcDbLine
 10
5956.673057123638
 20
7207.497424545865
 30
0.0
 11
6004.67305712364
 21
7207.497424545865
 31
0.0
  0
LINE
  5
16657
330
747D
100
AcDbEntity
  8
部品1
 48
50.0
100
AcDbLine
 10
5956.673057123638
 20
7207.497424545865
 30
0.0
 11
5956.673057123638
 21
7198.497424545866
 31
0.0
  0
LINE
  5
16658
330
747D
100
AcDbEntity
  8
部品1
100
AcDbLine
 10
5956.673057123638
 20
7168.497424545865
 30
0.0
 11
6004.673057123639
 21
7168.497424545865
 31
0.0
  0
LINE
  5
16659
330
747D
100
AcDbEntity
  8
部品1
 48
50.0
100
AcDbLine
 10
5956.673057123638
 20
7168.497424545865
 30
0.0
 11
5956.673057123638
 21
7177.497424545865
 31
0.0
  0
LINE
  5
1665A
330
747D
100
AcDbEntity
  8
部品1
 48
50.0
100
AcDbLine
 10
5994.673057123638
 20
7168.497424545865
 30
0.0
 11
6004.673057123639
 21
7147.497424545864
 31
0.0
  0
LINE
  5
1665B
330
747D
100
AcDbEntity
  8
部品1
100
AcDbLine
 10
6004.673057123639
 20
7178.497424545863
 30
0.0
 11
6027.673057123639
 21
7178.497424545864
 31
0.0
  0
LINE
  5
1665C
330
747D
100
AcDbEntity
  8
部品1
100
AcDbLine
 10
6162.673057123657
 20
7207.497424545865
 30
0.0
 11
6114.673057123656
 21
7207.497424545865
 31
0.0
  0
LINE
  5
1665D
330
747D
100
AcDbEntity
  8
部品1
 48
50.0
100
AcDbLine
 10
6162.673057123657
 20
7207.497424545865
 30
0.0
 11
6162.673057123657
 21
7198.497424545866
 31
0.0
  0
LINE
  5
1665E
330
747D
100
AcDbEntity
  8
部品1
100
AcDbLine
 10
6162.673057123657
 20
7168.497424545865
 30
0.0
 11
6114.673057123656
 21
7168.497424545865
 31
0.0
  0
LINE
  5
1665F
330
747D
100
AcDbEntity
  8
部品1
 48
50.0
100
AcDbLine
 10
6124.673057123657
 20
7168.497424545865
 30
0.0
 11
6114.673057123656
 21
7147.497424545864
 31
0.0
  0
LINE
  5
16660
330
747D
100
AcDbEntity
  8
部品1
100
AcDbLine
 10
6114.673057123656
 20
7178.497424545864
 30
0.0
 11
6091.673057123657
 21
7178.497424545864
 31
0.0
  0
LINE
  5
16661
330
747D
100
AcDbEntity
  8
部品1
 48
50.0
100
AcDbLine
 10
6114.673057123656
 20
7207.497424545863
 30
0.0
 11
6114.673057123653
 21
7142.497424545864
 31
0.0
  0
LINE
  5
16662
330
747D
100
AcDbEntity
  8
部品1
 48
50.0
100
AcDbLine
 10
6162.673057123657
 20
7168.497424545865
 30
0.0
 11
6162.673057123657
 21
7177.497424545865
 31
0.0
  0
LINE
  5
16663
330
747D
100
AcDbEntity
  8
部品1
100
AcDbLine
 10
6114.673057123653
 20
7142.497424545864
 30
0.0
 11
6004.673057123643
 21
7142.497424545858
 31
0.0
  0
LINE
  5
16664
330
747D
100
AcDbEntity
  8
部品1
 48
50.0
100
AcDbLine
 10
6004.673057123645
 20
7207.497424545952
 30
0.0
 11
6004.673057123642
 21
7142.497424545952
 31
0.0
  0
LINE
  5
16665
330
747D
100
AcDbEntity
  8
部品1
 48
50.0
100
AcDbLine
 10
6088.173057123662
 20
10162.49742454586
 30
0.0
 11
6088.173057123663
 21
9712.497424545865
 31
0.0
  0
LINE
  5
16666
330
747D
100
AcDbEntity
  8
部品1
100
AcDbLine
 10
6114.673057123663
 20
10192.49742454587
 30
0.0
 11
6114.673057123663
 21
10164.49742454587
 31
0.0
  0
DIMENSION
  5
16667
330
747D
100
AcDbEntity
  8
寸法
100
AcDbDimension
  2
*D19
 10
6004.673057123664
 20
10608.30564417096
 30
0.0
 11
4744.673057123664
 21
10708.31745519459
 31
0.0
 70
    32
  1
6X420=<>
 71
     5
 42
2520.000000000001
  3
INABA_S40G
100
AcDbAlignedDimension
 13
3484.673057123663
 23
10192.49742454587
 33
0.0
 14
6004.673057123664
 24
10192.49742454596
 34
0.0
100
AcDbRotatedDimension
1001
ACAD
1000
DSTYLE
1002
{
1002
}
  0
LINE
  5
16668
330
747D
100
AcDbEntity
  8
細線
 48
50.0
100
AcDbLine
 10
6031.173057123663
 20
10162.49742454596
 30
0.0
 11
4758.173057123662
 21
9712.497424545974
 31
0.0
  0
LINE
  5
16669
330
747D
100
AcDbEntity
  8
細線
 48
50.0
100
AcDbLine
 10
6031.173057123663
 20
9712.497424545967
 30
0.0
 11
4758.173057123663
 21
10162.49742454596
 31
0.0
  0
LINE
  5
1666B
330
747D
100
AcDbEntity
  8
部品1
100
AcDbLine
 10
4758.173057123662
 20
9712.497424545974
 30
0.0
 11
6031.173057123663
 21
9712.497424545967
 31
0.0
  0
LINE
  5
16670
330
747D
100
AcDbEntity
  8
細線
 48
50.0
100
AcDbLine
 10
4731.173057123662
 20
9712.497424545974
 30
0.0
 11
3458.173057123662
 21
10162.49742454587
 31
0.0
  0
LINE
  5
16671
330
747D
100
AcDbEntity
  8
細線
 48
50.0
100
AcDbLine
 10
4731.173057123663
 20
10162.49742454597
 30
0.0
 11
3458.173057123663
 21
9712.497424545869
 31
0.0
  0
LINE
  5
16672
330
747D
100
AcDbEntity
  8
部品1
100
AcDbLine
 10
3458.173057123664
 20
9712.497424545869
 30
0.0
 11
4731.173057123662
 21
9712.497424545974
 31
0.0
  0
LINE
  5
16675
330
747D
100
AcDbEntity
  8
破線
 48
10.0
100
AcDbLine
 10
4304.173057123556
 20
7272.49742454582
 30
0.0
 11
4304.173057123681
 21
9712.497424545938
 31
0.0
  0
LINE
  5
16676
330
747D
100
AcDbEntity
  8
破線
 48
10.0
100
AcDbLine
 10
4354.173057123553
 20
7272.497424545817
 30
0.0
 11
4354.173057123678
 21
9712.497424545944
 31
0.0
  0
LINE
  5
16677
330
747D
100
AcDbEntity
  8
部品1
 48
50.0
100
AcDbLine
 10
4731.173057123663
 20
10162.49742454597
 30
0.0
 11
4731.173057123663
 21
9712.497424545974
 31
0.0
  0
LINE
  5
16678
330
747D
100
AcDbEntity
  8
部品1
 48
50.0
100
AcDbLine
 10
4758.173057123663
 20
10162.49742454596
 30
0.0
 11
4758.173057123663
 21
9712.497424545974
 31
0.0
  0
LINE
  5
16679
330
747D
100
AcDbEntity
  8
部品1
 48
50.0
100
AcDbLine
 10
4732.173057123662
 20
10164.49742454597
 30
0.0
 11
4732.173057123662
 21
9712.497424545974
 31
0.0
  0
LINE
  5
1667A
330
747D
100
AcDbEntity
  8
部品1
 48
50.0
100
AcDbLine
 10
4757.173057123663
 20
10164.49742454597
 30
0.0
 11
4757.173057123663
 21
9712.497424545974
 31
0.0
  0
LINE
  5
1667B
330
747D
100
AcDbEntity
  8
部品1
100
AcDbLine
 10
4732.173057123662
 20
9712.497424545974
 30
0.0
 11
4757.173057123663
 21
9712.497424545974
 31
0.0
  0
LINE
  5
1667C
330
747D
100
AcDbEntity
  8
破線
 48
10.0
100
AcDbLine
 10
5185.173057123554
 20
7272.49742454577
 30
0.0
 11
5185.173057123679
 21
9712.497424545974
 31
0.0
  0
LINE
  5
1667D
330
747D
100
AcDbEntity
  8
破線
 48
10.0
100
AcDbLine
 10
5135.173057123555
 20
7272.497424545773
 30
0.0
 11
5135.17305712368
 21
9712.497424545974
 31
0.0
  0
LINE
  5
1667E
330
747D
100
AcDbEntity
  8
部品1
 48
50.0
100
AcDbLine
 10
3458.173057123662
 20
10162.49742454586
 30
0.0
 11
3458.173057123663
 21
9712.497424545865
 31
0.0
  0
LINE
  5
16680
330
747D
100
AcDbEntity
  8
部品1
100
AcDbLine
 10
4744.673057123662
 20
10192.49742454598
 30
0.0
 11
4744.673057123662
 21
10164.49742454598
 31
0.0
  0
LINE
  5
16681
330
747D
100
AcDbEntity
  8
部品1
100
AcDbLine
 10
4732.173057123662
 20
10156.49742454596
 30
0.0
 11
4757.173057123663
 21
10156.49742454597
 31
0.0
  0
LINE
  5
16682
330
747D
100
AcDbEntity
  8
部品1
100
AcDbLine
 10
4773.673057123663
 20
10182.49742454597
 30
0.0
 11
4779.673057123662
 21
10182.49742454597
 31
0.0
  0
LINE
  5
16683
330
747D
100
AcDbEntity
  8
部品1
100
AcDbLine
 10
4779.673057123662
 20
10182.49742454597
 30
0.0
 11
4779.673057123662
 21
10164.49742454597
 31
0.0
  0
LINE
  5
16684
330
747D
100
AcDbEntity
  8
部品1
100
AcDbLine
 10
4709.673057123663
 20
10182.49742454597
 30
0.0
 11
4715.673057123662
 21
10182.49742454597
 31
0.0
  0
LINE
  5
16685
330
747D
100
AcDbEntity
  8
部品1
100
AcDbLine
 10
4709.673057123663
 20
10182.49742454597
 30
0.0
 11
4709.673057123663
 21
10164.49742454597
 31
0.0
  0
LINE
  5
16686
330
747D
100
AcDbEntity
  8
部品1
100
AcDbLine
 10
4757.173057123663
 20
10164.49742454598
 30
0.0
 11
6031.673057123664
 21
10164.49742454596
 31
0.0
  0
LINE
  5
16687
330
747D
100
AcDbEntity
  8
部品1
100
AcDbLine
 10
4758.173057123663
 20
10162.49742454597
 30
0.0
 11
6031.173057123663
 21
10162.49742454596
 31
0.0
  0
LINE
  5
16688
330
747D
100
AcDbEntity
  8
部品1
100
AcDbLine
 10
3457.67305712365
 20
10164.49742454598
 30
0.0
 11
4732.173057123661
 21
10164.49742454598
 31
0.0
  0
LINE
  5
16689
330
747D
100
AcDbEntity
  8
部品1
100
AcDbLine
 10
3458.173057123662
 20
10162.49742454587
 30
0.0
 11
4731.173057123663
 21
10162.49742454597
 31
0.0
  0
LINE
  5
1668A
330
747D
100
AcDbEntity
  8
部品1
100
AcDbLine
 10
3904.673057123663
 20
10192.49742454598
 30
0.0
 11
3904.673057123663
 21
10164.49742454598
 31
0.0
  0
LINE
  5
1668B
330
747D
100
AcDbEntity
  8
部品1
100
AcDbLine
 10
3904.673057123663
 20
10192.49742454587
 30
0.0
 11
3904.673057123663
 21
10164.49742454587
 31
0.0
  0
LINE
  5
1668C
330
747D
100
AcDbEntity
  8
部品1
100
AcDbLine
 10
3904.673057123663
 20
10192.49742454587
 30
0.0
 11
3904.673057123663
 21
10164.49742454587
 31
0.0
  0
LINE
  5
1668D
330
747D
100
AcDbEntity
  8
部品1
100
AcDbLine
 10
4324.673057123663
 20
10192.49742454598
 30
0.0
 11
4324.673057123663
 21
10164.49742454598
 31
0.0
  0
LINE
  5
1668E
330
747D
100
AcDbEntity
  8
部品1
100
AcDbLine
 10
4324.673057123663
 20
10192.49742454587
 30
0.0
 11
4324.673057123663
 21
10164.49742454587
 31
0.0
  0
LINE
  5
1668F
330
747D
100
AcDbEntity
  8
部品1
100
AcDbLine
 10
4324.673057123663
 20
10192.49742454587
 30
0.0
 11
4324.673057123663
 21
10164.49742454587
 31
0.0
  0
LINE
  5
16690
330
747D
100
AcDbEntity
  8
部品1
100
AcDbLine
 10
5164.673057123663
 20
10192.49742454598
 30
0.0
 11
5164.673057123663
 21
10164.49742454598
 31
0.0
  0
LINE
  5
16691
330
747D
100
AcDbEntity
  8
部品1
100
AcDbLine
 10
5584.673057123662
 20
10192.49742454598
 30
0.0
 11
5584.673057123662
 21
10164.49742454598
 31
0.0
  0
LINE
  5
16692
330
747D
100
AcDbEntity
  8
部品1
100
AcDbLine
 10
6004.673057123664
 20
10192.49742454596
 30
0.0
 11
6004.673057123664
 21
10164.49742454596
 31
0.0
  0
LINE
  5
16693
330
747D
100
AcDbEntity
  8
部品1
100
AcDbLine
 10
6031.173057123663
 20
10162.49742454596
 30
0.0
 11
6031.173057123663
 21
9712.497424545967
 31
0.0
  0
DIMENSION
  5
166DD
330
747D
100
AcDbEntity
  8
寸法
 48
50.0
100
AcDbDimension
  2
*D20
 10
6004.673057123664
 20
10608.30564417096
 30
0.0
 11
6059.673057123664
 21
10708.30564417097
 31
0.0
 70
    32
 71
     5
 42
109.9999999999991
  3
INABA_S40G
100
AcDbAlignedDimension
 13
6114.673057123663
 23
10192.49742454592
 33
0.0
 14
6004.673057123664
 24
10192.49742454591
 34
0.0
100
AcDbRotatedDimension
1001
ACAD
1000
DSTYLE
1002
{
1070
   279
1070
     2
1002
}
  0
LINE
  5
166DE
330
747D
100
AcDbEntity
  8
破線
 48
10.0
100
AcDbLine
 10
6139.673057123642
 20
9521.497424545843
 30
0.0
 11
6139.67305712364
 21
9712.497424545874
 31
0.0
  0
LINE
  5
16760
330
747D
100
AcDbEntity
  8
部品1
 48
50.0
100
AcDbLine
 10
6059.673057123629
 20
10164.49742454591
 30
0.0
 11
6031.673057123631
 21
10192.49742454596
 31
0.0
  0
LINE
  5
16761
330
747D
100
AcDbEntity
  8
部品1
100
AcDbLine
 10
6087.673057123631
 20
10137.49742454588
 30
0.0
 11
6031.673057123631
 21
10137.49742454588
 31
0.0
  0
LINE
  5
16762
330
747D
100
AcDbEntity
  8
部品1
 48
50.0
100
AcDbLine
 10
6031.673057123631
 20
10164.49742454601
 30
0.0
 11
6031.67305712363
 21
10192.49742454596
 31
0.0
  0
LINE
  5
16763
330
747D
100
AcDbEntity
  8
部品1
 48
50.0
100
AcDbLine
 10
6031.673057123631
 20
10164.49742454591
 30
0.0
 11
6059.673057123629
 21
10164.49742454591
 31
0.0
  0
LINE
  5
16764
330
747D
100
AcDbEntity
  8
部品1
100
AcDbLine
 10
6031.673057123647
 20
10164.49742454596
 30
0.0
 11
6031.673057123635
 21
7142.497424545858
 31
0.0
  0
LINE
  5
16765
330
747D
100
AcDbEntity
  8
部品1
100
AcDbLine
 10
6087.673057123625
 20
7142.497424545864
 30
0.0
 11
6087.673057123649
 21
10192.49742454591
 31
0.0
  0
LINE
  5
16880
330
747D
100
AcDbEntity
  8
部品1
100
AcDbLine
 10
6004.673057123659
 20
7207.497424545863
 30
0.0
 11
6004.67305712366
 21
9712.497424545967
 31
0.0
  0
LINE
  5
16883
330
747D
100
AcDbEntity
  8
部品1
100
AcDbLine
 10
6114.673057123674
 20
7207.497424545865
 30
0.0
 11
6114.673057123663
 21
9712.497424545871
 31
0.0
  0
LINE
  5
168C3
330
747D
100
AcDbEntity
  8
部品1
100
AcDbLine
 10
6083.673057123648
 20
7197.497424545861
 30
0.0
 11
6035.673057123647
 21
7197.49742454586
 31
0.0
  0
LINE
  5
168C4
330
747D
100
AcDbEntity
  8
部品1
 48
50.0
100
AcDbLine
 10
6035.673057123648
 20
7197.497424545861
 30
0.0
 11
6035.67305712365
 21
7142.497424545862
 31
0.0
  0
LINE
  5
168C5
330
747D
100
AcDbEntity
  8
部品1
 48
50.0
100
AcDbLine
 10
6083.673057123648
 20
7197.497424545861
 30
0.0
 11
6083.67305712365
 21
7142.497424545862
 31
0.0
  0
DIMENSION
  5
16907
330
747D
100
AcDbEntity
  8
寸法
 48
50.0
100
AcDbDimension
  2
*D21
 10
6059.673057123664
 20
10857.62711772726
 30
0.0
 11
4744.673057123645
 21
10957.63892875088
 31
0.0
 70
    32
 71
     5
 42
2630.000000000036
  3
INABA_S40G
100
AcDbAlignedDimension
 13
3429.673057123629
 23
10192.49742454583
 33
0.0
 14
6059.673057123664
 24
10767.29355852891
 34
0.0
100
AcDbRotatedDimension
1001
ACAD
1000
DSTYLE
1002
{
1070
   279
1070
     2
1002
}
  0
DIMENSION
  5
16913
330
747D
100
AcDbEntity
  8
寸法
 48
50.0
100
AcDbDimension
  2
*D22
 10
8689.673057123664
 20
10857.62711772726
 30
0.0
 11
7374.673057123664
 21
10957.63892875088
 31
0.0
 70
    32
 71
     5
 42
2630.0
  3
INABA_S40G
100
AcDbAlignedDimension
 13
6059.673057123664
 23
10767.29355852891
 33
0.0
 14
8689.673057123664
 24
10192.49742454596
 34
0.0
100
AcDbRotatedDimension
1001
ACAD
1000
DSTYLE
1002
{
1070
    75
1070
     1
1070
   279
1070
     2
1002
}
  0
LINE
  5
16C81
330
747D
100
AcDbEntity
  8
部品1
100
AcDbLine
 10
3457.673057123643
 20
8457.49742454584
 30
0.0
 11
3429.673057123643
 21
8457.49742454584
 31
0.0
  0
LINE
  5
16C82
330
747D
100
AcDbEntity
  8
部品1
100
AcDbLine
 10
8661.673057123667
 20
8457.497424545968
 30
0.0
 11
8689.673057123668
 21
8457.497424545968
 31
0.0
  0
LINE
  5
16FDA
330
747D
100
AcDbEntity
  8
部品1
100
AcDbLine
 10
3457.673057123643
 20
8037.49742454584
 30
0.0
 11
3429.673057123643
 21
8037.49742454584
 31
0.0
  0
LINE
  5
16FDB
330
747D
100
AcDbEntity
  8
部品1
100
AcDbLine
 10
8661.673057123667
 20
8037.497424545966
 30
0.0
 11
8689.673057123668
 21
8037.497424545966
 31
0.0
  0
LINE
  5
1733B
330
747D
100
AcDbEntity
  8
部品1
100
AcDbLine
 10
3457.673057123644
 20
7617.49742454584
 30
0.0
 11
3429.673057123644
 21
7617.49742454584
 31
0.0
  0
LINE
  5
1733C
330
747D
100
AcDbEntity
  8
部品1
100
AcDbLine
 10
8661.673057123667
 20
7617.497424545966
 30
0.0
 11
8689.673057123668
 21
7617.497424545966
 31
0.0
  0
LINE
  5
173A6
330
747D
100
AcDbEntity
  8
部品1
 48
50.0
100
AcDbLine
 10
3484.673057123654
 20
7142.497424545864
 30
0.0
 11
6004.673057123642
 21
7142.497424545723
 31
0.0
  0
LINE
  5
173A7
330
747D
100
AcDbEntity
  8
部品1
 48
50.0
100
AcDbLine
 10
6114.673057123653
 20
7142.497424545864
 30
0.0
 11
8634.67305712364
 21
7142.49742454585
 31
0.0
  0
LINE
  5
173A8
330
747D
100
AcDbEntity
  8
部品1
 48
50.0
100
AcDbLine
 10
3484.673057123654
 20
7227.497424545865
 30
0.0
 11
6004.673057123642
 21
7227.497424545723
 31
0.0
  0
LINE
  5
173A9
330
747D
100
AcDbEntity
  8
部品1
 48
50.0
100
AcDbLine
 10
3484.673057123654
 20
7272.497424545864
 30
0.0
 11
6004.673057123642
 21
7272.497424545723
 31
0.0
  0
LINE
  5
173AA
330
747D
100
AcDbEntity
  8
破線
 48
10.0
100
AcDbLine
 10
3509.673057123518
 20
7297.497424545864
 30
0.0
 11
4304.173057123557
 21
7297.497424545818
 31
0.0
  0
LINE
  5
173AB
330
747D
100
AcDbEntity
  8
破線
 48
10.0
100
AcDbLine
 10
5185.173057123556
 20
7297.497424545769
 30
0.0
 11
5979.67305712353
 21
7297.497424545723
 31
0.0
  0
LINE
  5
173AC
330
747D
100
AcDbEntity
  8
破線
 48
10.0
100
AcDbLine
 10
4354.173057123554
 20
7297.497424545816
 30
0.0
 11
5135.173057123557
 21
7297.49742454577
 31
0.0
  0
LINE
  5
173AD
330
747D
100
AcDbEntity
  8
破線
 48
10.0
100
AcDbLine
 10
3509.673057123518
 20
7297.497424545864
 30
0.0
 11
3509.673057123639
 21
9712.497424545874
 31
0.0
  0
LINE
  5
173AE
330
747D
100
AcDbEntity
  8
破線
 48
10.0
100
AcDbLine
 10
5979.673057123529
 20
7297.497424545723
 30
0.0
 11
5979.673057123653
 21
9712.497424545874
 31
0.0
  0
LINE
  5
173B0
330
747D
100
AcDbEntity
  8
部品1
 48
50.0
100
AcDbLine
 10
3484.673057123654
 20
7617.49742454584
 30
0.0
 11
6004.673057123658
 21
7617.497424545837
 31
0.0
  0
LINE
  5
173B1
330
747D
100
AcDbEntity
  8
部品1
 48
50.0
100
AcDbLine
 10
3484.673057123654
 20
8037.49742454584
 30
0.0
 11
6004.673057123658
 21
8037.497424545838
 31
0.0
  0
LINE
  5
173B2
330
747D
100
AcDbEntity
  8
部品1
 48
50.0
100
AcDbLine
 10
3484.673057123654
 20
8457.49742454584
 30
0.0
 11
6004.673057123658
 21
8457.497424545836
 31
0.0
  0
LINE
  5
173B3
330
747D
100
AcDbEntity
  8
部品1
 48
50.0
100
AcDbLine
 10
3484.673057123654
 20
8877.49742454584
 30
0.0
 11
6004.673057123658
 21
8877.497424545836
 31
0.0
  0
LINE
  5
173B4
330
747D
100
AcDbEntity
  8
部品1
 48
50.0
100
AcDbLine
 10
3484.673057123654
 20
9297.49742454584
 30
0.0
 11
6004.673057123658
 21
9297.497424545836
 31
0.0
  0
LINE
  5
17A3C
330
747D
100
AcDbEntity
  8
破線
 48
10.0
100
AcDbLine
 10
6934.173057123729
 20
7297.497424545769
 30
0.0
 11
6139.673057123754
 21
7297.497424545723
 31
0.0
  0
LINE
  5
17A3D
330
747D
100
AcDbEntity
  8
部品1
 48
50.0
100
AcDbLine
 10
8634.673057123631
 20
7272.497424545864
 30
0.0
 11
6114.673057123643
 21
7272.497424545723
 31
0.0
  0
LINE
  5
17A3E
330
747D
100
AcDbEntity
  8
破線
 48
10.0
100
AcDbLine
 10
6139.673057123754
 20
7297.497424545723
 30
0.0
 11
6139.673057123631
 21
9712.497424545874
 31
0.0
  0
LINE
  5
17A3F
330
747D
100
AcDbEntity
  8
破線
 48
10.0
100
AcDbLine
 10
6984.173057123729
 20
7272.497424545773
 30
0.0
 11
6984.173057123604
 21
9712.497424545974
 31
0.0
  0
LINE
  5
17A40
330
747D
100
AcDbEntity
  8
破線
 48
10.0
100
AcDbLine
 10
6934.17305712373
 20
7272.49742454577
 30
0.0
 11
6934.173057123605
 21
9712.497424545974
 31
0.0
  0
LINE
  5
17A41
330
747D
100
AcDbEntity
  8
破線
 48
10.0
100
AcDbLine
 10
7765.173057123731
 20
7272.497424545817
 30
0.0
 11
7765.173057123606
 21
9712.497424545944
 31
0.0
  0
LINE
  5
17A42
330
747D
100
AcDbEntity
  8
破線
 48
10.0
100
AcDbLine
 10
7815.173057123728
 20
7272.49742454582
 30
0.0
 11
7815.173057123603
 21
9712.497424545938
 31
0.0
  0
LINE
  5
17A43
330
747D
100
AcDbEntity
  8
破線
 48
10.0
100
AcDbLine
 10
8609.673057123767
 20
7297.497424545864
 30
0.0
 11
7815.173057123728
 21
7297.497424545818
 31
0.0
  0
LINE
  5
17A44
330
747D
100
AcDbEntity
  8
破線
 48
10.0
100
AcDbLine
 10
7765.173057123731
 20
7297.497424545816
 30
0.0
 11
6984.173057123728
 21
7297.49742454577
 31
0.0
  0
LINE
  5
17A45
330
747D
100
AcDbEntity
  8
部品1
 48
50.0
100
AcDbLine
 10
8634.673057123631
 20
7227.497424545865
 30
0.0
 11
6114.673057123643
 21
7227.497424545723
 31
0.0
  0
LINE
  5
17A46
330
747D
100
AcDbEntity
  8
破線
 48
10.0
100
AcDbLine
 10
8609.673057123767
 20
7297.497424545864
 30
0.0
 11
8609.673057123643
 21
9712.497424545874
 31
0.0
  0
LINE
  5
17A47
330
747D
100
AcDbEntity
  8
部品1
 48
50.0
100
AcDbLine
 10
8634.673057123631
 20
9297.49742454584
 30
0.0
 11
6114.673057123627
 21
9297.497424545836
 31
0.0
  0
LINE
  5
17A48
330
747D
100
AcDbEntity
  8
部品1
 48
50.0
100
AcDbLine
 10
8634.673057123631
 20
8877.49742454584
 30
0.0
 11
6114.673057123627
 21
8877.497424545836
 31
0.0
  0
LINE
  5
17A49
330
747D
100
AcDbEntity
  8
部品1
 48
50.0
100
AcDbLine
 10
8634.673057123631
 20
8457.49742454584
 30
0.0
 11
6114.673057123627
 21
8457.497424545836
 31
0.0
  0
LINE
  5
17A4A
330
747D
100
AcDbEntity
  8
部品1
 48
50.0
100
AcDbLine
 10
8634.673057123631
 20
8037.49742454584
 30
0.0
 11
6114.673057123627
 21
8037.497424545838
 31
0.0
  0
LINE
  5
17A4B
330
747D
100
AcDbEntity
  8
部品1
 48
50.0
100
AcDbLine
 10
8634.673057123631
 20
7617.49742454584
 30
0.0
 11
6114.673057123627
 21
7617.497424545837
 31
0.0
  0
TEXT
  5
17B62
330
747D
100
AcDbEntity
  8
文字
 62
     7
 48
50.0
100
AcDbText
 10
13583.11819016569
 20
8380.013745883733
 30
0.0
 40
100.0
  1
床パネル
 41
0.9
  7
STYLE1
100
AcDbText
  0
TEXT
  5
17B63
330
747D
100
AcDbEntity
  8
文字
 62
     7
 48
50.0
100
AcDbText
 10
15022.63965474516
 20
8380.013745883728
 30
0.0
 40
100.0
  1
F12            1.0
  7
STYLE1
100
AcDbText
  0
TEXT
  5
17B64
330
747D
100
AcDbEntity
  8
文字
 62
     7
 48
50.0
100
AcDbText
 10
13248.77747366448
 20
8550.013745883729
 30
0.0
 40
100.0
  1
15
  7
STYLE1
100
AcDbText
  0
LINE
  5
17B65
330
747D
100
AcDbEntity
  8
仕様書枠
 48
50.0
100
AcDbLine
 10
16307.19999999999
 20
8519.600000000002
 30
0.0
 11
13127.19999999999
 21
8519.600000000002
 31
0.0
  0
LINE
  5
17B66
330
747D
100
AcDbEntity
  8
仕様書枠
 48
50.0
100
AcDbLine
 10
16307.19999999999
 20
9879.599999999999
 30
0.0
 11
13127.19999999999
 21
9879.600000000001
 31
0.0
  0
LINE
  5
17B67
330
747D
100
AcDbEntity
  8
仕様書枠
 48
50.0
100
AcDbLine
 10
16307.19999999999
 20
11239.6
 30
0.0
 11
13127.2
 21
11239.6
 31
0.0
  0
LINE
  5
17B68
330
747D
100
AcDbEntity
  8
仕様書枠
 48
50.0
100
AcDbLine
 10
16307.19999999999
 20
7669.600000000011
 30
0.0
 11
16307.2
 21
11239.6
 31
0.0
  0
LINE
  5
17B69
330
747D
100
AcDbEntity
  8
仕様書枠
 48
50.0
100
AcDbLine
 10
14785.2
 20
11239.59999999999
 30
0.0
 11
14785.19999999999
 21
8179.600000000009
 31
0.0
  0
LINE
  5
17B6A
330
747D
100
AcDbEntity
  8
仕様書枠
 48
50.0
100
AcDbLine
 10
13490.2
 20
11239.6
 30
0.0
 11
13490.20000000001
 21
8179.600000000009
 31
0.0
  0
LINE
  5
17B6B
330
747D
100
AcDbEntity
  8
仕様書枠
 48
50.0
100
AcDbLine
 10
16307.19999999999
 20
11069.6
 30
0.0
 11
13127.2
 21
11069.6
 31
0.0
  0
LINE
  5
17B6C
330
747D
100
AcDbEntity
  8
仕様書枠
 48
50.0
100
AcDbLine
 10
16307.19999999999
 20
10729.6
 30
0.0
 11
13127.2
 21
10729.6
 31
0.0
  0
LINE
  5
17B6D
330
747D
100
AcDbEntity
  8
仕様書枠
 48
50.0
100
AcDbLine
 10
16307.19999999999
 20
10899.6
 30
0.0
 11
13127.2
 21
10899.6
 31
0.0
  0
LINE
  5
17B6E
330
747D
100
AcDbEntity
  8
仕様書枠
 48
50.0
100
AcDbLine
 10
16307.19999999999
 20
10389.6
 30
0.0
 11
13127.19999999999
 21
10389.6
 31
0.0
  0
LINE
  5
17B6F
330
747D
100
AcDbEntity
  8
仕様書枠
 48
50.0
100
AcDbLine
 10
16307.19999999999
 20
10219.6
 30
0.0
 11
13127.19999999999
 21
10219.6
 31
0.0
  0
LINE
  5
17B70
330
747D
100
AcDbEntity
  8
仕様書枠
 48
50.0
100
AcDbLine
 10
16307.19999999999
 20
10559.6
 30
0.0
 11
13127.19999999999
 21
10559.6
 31
0.0
  0
TEXT
  5
17B71
330
747D
100
AcDbEntity
  8
文字
 62
     7
 48
50.0
100
AcDbText
 10
13197.42518560407
 20
11100.01374588373
 30
0.0
 40
100.0
  1
品番
  7
STYLE1
100
AcDbText
  0
TEXT
  5
17B72
330
747D
100
AcDbEntity
  8
文字
 62
     7
 48
50.0
100
AcDbText
 10
13271.19032244792
 20
10930.01374588373
 30
0.0
 40
100.0
  1
1
  7
STYLE1
100
AcDbText
  0
TEXT
  5
17B73
330
747D
100
AcDbEntity
  8
文字
 62
     7
 48
50.0
100
AcDbText
 10
13271.19032244792
 20
10760.01374588373
 30
0.0
 40
100.0
  1
2
  7
STYLE1
100
AcDbText
  0
TEXT
  5
17B74
330
747D
100
AcDbEntity
  8
文字
 62
     7
 48
50.0
100
AcDbText
 10
13271.19032244792
 20
10420.01374588373
 30
0.0
 40
100.0
  1
4
  7
STYLE1
100
AcDbText
  0
TEXT
  5
17B75
330
747D
100
AcDbEntity
  8
文字
 62
     7
 48
50.0
100
AcDbText
 10
13271.19032244792
 20
10590.01374588373
 30
0.0
 40
100.0
  1
3
  7
STYLE1
100
AcDbText
  0
TEXT
  5
17B76
330
747D
100
AcDbEntity
  8
文字
 62
     7
 48
50.0
100
AcDbText
 10
13732.03840939434
 20
11100.01374588373
 30
0.0
 40
100.0
  1
部　　品　　名
  7
STYLE1
100
AcDbText
  0
TEXT
  5
17B77
330
747D
100
AcDbEntity
  8
文字
 62
     7
 48
50.0
100
AcDbText
 10
14859.79774614482
 20
11100.01374588373
 30
0.0
 40
100.0
  1
材料（材質）　　単位mm
  7
STYLE1
100
AcDbText
  0
TEXT
  5
17B78
330
747D
100
AcDbEntity
  8
文字
 62
     7
 48
50.0
100
AcDbText
 10
13583.11819016569
 20
10930.01374588372
 30
0.0
 40
100.0
  1
土台枠
  7
STYLE1
100
AcDbText
  0
TEXT
  5
17B79
330
747D
100
AcDbEntity
  8
文字
 62
     7
 48
50.0
100
AcDbText
 10
13583.11819016569
 20
10760.01374588372
 30
0.0
 40
100.0
  1
柱
  7
STYLE1
100
AcDbText
  0
TEXT
  5
17B7A
330
747D
100
AcDbEntity
  8
文字
 62
     7
 48
50.0
100
AcDbText
 10
13583.11819016569
 20
10590.01374588373
 30
0.0
 40
100.0
  1
桁前
  7
STYLE1
100
AcDbText
  0
TEXT
  5
17B7B
330
747D
100
AcDbEntity
  8
文字
 62
     7
 48
50.0
100
AcDbText
 10
13583.11819016569
 20
10420.01374588373
 30
0.0
 40
100.0
  1
桁後
  7
STYLE1
100
AcDbText
  0
TEXT
  5
17B7C
330
747D
100
AcDbEntity
  8
文字
 62
     7
 48
50.0
100
AcDbText
 10
13271.19032244792
 20
10250.01374588373
 30
0.0
 40
100.0
  1
5
  7
STYLE1
100
AcDbText
  0
TEXT
  5
17B7D
330
747D
100
AcDbEntity
  8
文字
 62
     7
 48
50.0
100
AcDbText
 10
13583.11819016569
 20
10250.01374588373
 30
0.0
 40
100.0
  1
妻板左右
  7
STYLE1
100
AcDbText
  0
TEXT
  5
17B7E
330
747D
100
AcDbEntity
  8
文字
 62
     7
 48
50.0
100
AcDbText
 10
13583.11819016569
 20
8720.013745883731
 30
0.0
 40
100.0
  1
シャッターレール
  7
STYLE1
100
AcDbText
  0
TEXT
  5
17B7F
330
747D
100
AcDbEntity
  8
文字
 62
     7
 48
50.0
100
AcDbText
 10
13248.77747366448
 20
9400.013745883727
 30
0.0
 40
100.0
  1
10
  7
STYLE1
100
AcDbText
  0
TEXT
  5
17B80
330
747D
100
AcDbEntity
  8
文字
 62
     7
 48
50.0
100
AcDbText
 10
13583.11819016569
 20
9400.013745883731
 30
0.0
 40
100.0
  1
壁パネル
  7
STYLE1
100
AcDbText
  0
TEXT
  5
17B81
330
747D
100
AcDbEntity
  8
文字
 62
     7
 48
50.0
100
AcDbText
 10
13583.11819016569
 20
9570.013745883729
 30
0.0
 40
100.0
  1
屋根パネル
  7
STYLE1
100
AcDbText
  0
TEXT
  5
17B82
330
747D
100
AcDbEntity
  8
文字
 62
     7
 48
50.0
100
AcDbText
 10
13583.11819016569
 20
9740.013745883729
 30
0.0
 40
100.0
  1
母屋中
  7
STYLE1
100
AcDbText
  0
TEXT
  5
17B83
330
747D
100
AcDbEntity
  8
文字
 62
     7
 48
50.0
100
AcDbText
 10
13583.11819016569
 20
10080.01374588372
 30
0.0
 40
100.0
  1
鼻隠シ前後
  7
STYLE1
100
AcDbText
  0
TEXT
  5
17B84
330
747D
100
AcDbEntity
  8
文字
 62
     7
 48
50.0
100
AcDbText
 10
13271.19032244792
 20
9740.013745883729
 30
0.0
 40
100.0
  1
8
  7
STYLE1
100
AcDbText
  0
TEXT
  5
17B85
330
747D
100
AcDbEntity
  8
文字
 62
     7
 48
50.0
100
AcDbText
 10
13271.19032244792
 20
9570.013745883729
 30
0.0
 40
100.0
  1
9
  7
STYLE1
100
AcDbText
  0
TEXT
  5
17B86
330
747D
100
AcDbEntity
  8
文字
 62
     7
 48
50.0
100
AcDbText
 10
13271.19032244792
 20
9910.01374588373
 30
0.0
 40
100.0
  1
7
  7
STYLE1
100
AcDbText
  0
TEXT
  5
17B87
330
747D
100
AcDbEntity
  8
文字
 62
     7
 48
50.0
100
AcDbText
 10
13271.19032244792
 20
10080.01374588373
 30
0.0
 40
100.0
  1
6
  7
STYLE1
100
AcDbText
  0
LINE
  5
17B88
330
747D
100
AcDbEntity
  8
仕様書枠
 48
50.0
100
AcDbLine
 10
16307.19999999999
 20
9539.599999999998
 30
0.0
 11
13127.19999999999
 21
9539.6
 31
0.0
  0
LINE
  5
17B89
330
747D
100
AcDbEntity
  8
仕様書枠
 48
50.0
100
AcDbLine
 10
16307.19999999999
 20
9199.599999999998
 30
0.0
 11
13127.19999999999
 21
9199.600000000001
 31
0.0
  0
LINE
  5
17B8A
330
747D
100
AcDbEntity
  8
仕様書枠
 48
50.0
100
AcDbLine
 10
16307.19999999999
 20
9369.599999999998
 30
0.0
 11
13127.19999999999
 21
9369.600000000001
 31
0.0
  0
LINE
  5
17B8B
330
747D
100
AcDbEntity
  8
仕様書枠
 48
50.0
100
AcDbLine
 10
16307.19999999999
 20
10049.6
 30
0.0
 11
13127.2
 21
10049.6
 31
0.0
  0
LINE
  5
17B8C
330
747D
100
AcDbEntity
  8
仕様書枠
 48
50.0
100
AcDbLine
 10
16307.19999999999
 20
9709.6
 30
0.0
 11
13127.19999999999
 21
9709.600000000001
 31
0.0
  0
TEXT
  5
17B8D
330
747D
100
AcDbEntity
  8
文字
 62
     7
 48
50.0
100
AcDbText
 10
13248.77747366448
 20
9230.013745883727
 30
0.0
 40
100.0
  1
11
  7
STYLE1
100
AcDbText
  0
TEXT
  5
17B8E
330
747D
100
AcDbEntity
  8
文字
 62
     7
 48
50.0
100
AcDbText
 10
13583.11819016569
 20
8890.013745883729
 30
0.0
 40
100.0
  1
シャッターカバー
 41
0.9
  7
STYLE1
100
AcDbText
  0
LINE
  5
17B8F
330
747D
100
AcDbEntity
  8
仕様書枠
 48
50.0
100
AcDbLine
 10
16307.19999999999
 20
9029.6
 30
0.0
 11
13127.19999999999
 21
9029.6
 31
0.0
  0
LINE
  5
17B90
330
747D
100
AcDbEntity
  8
仕様書枠
 48
50.0
100
AcDbLine
 10
16307.19999999999
 20
8349.600000000004
 30
0.0
 11
13127.19999999999
 21
8349.600000000007
 31
0.0
  0
TEXT
  5
17B91
330
747D
100
AcDbEntity
  8
文字
 62
     7
 48
50.0
100
AcDbText
 10
13583.11819016569
 20
9060.013745883729
 30
0.0
 40
100.0
  1
シャッター
  7
STYLE1
100
AcDbText
  0
TEXT
  5
17B92
330
747D
100
AcDbEntity
  8
文字
 62
     7
 48
50.0
100
AcDbText
 10
13248.77747366448
 20
8890.013745883729
 30
0.0
 40
100.0
  1
13
  7
STYLE1
100
AcDbText
  0
TEXT
  5
17B93
330
747D
100
AcDbEntity
  8
文字
 62
     7
 48
50.0
100
AcDbText
 10
13248.77747366448
 20
9060.013745883729
 30
0.0
 40
100.0
  1
12
  7
STYLE1
100
AcDbText
  0
TEXT
  5
17B94
330
747D
100
AcDbEntity
  8
文字
 62
     7
 48
50.0
100
AcDbText
 10
15022.63965474517
 20
10930.01374588372
 30
0.0
 40
100.0
  1
F12            1.2
  7
STYLE1
100
AcDbText
  0
TEXT
  5
17B95
330
747D
100
AcDbEntity
  8
文字
 62
     7
 48
50.0
100
AcDbText
 10
15022.63965474517
 20
10760.01374588372
 30
0.0
 40
100.0
  1
F12         1.0,1.2
  7
STYLE1
100
AcDbText
  0
TEXT
  5
17B96
330
747D
100
AcDbEntity
  8
文字
 62
     7
 48
50.0
100
AcDbText
 10
15022.63965474516
 20
10590.01374588372
 30
0.0
 40
100.0
  1
Y10            1.0
  7
STYLE1
100
AcDbText
  0
TEXT
  5
17B97
330
747D
100
AcDbEntity
  8
文字
 62
     7
 48
50.0
100
AcDbText
 10
15022.63965474516
 20
10420.01374588372
 30
0.0
 40
100.0
  1
Y10            1.0
  7
STYLE1
100
AcDbText
  0
TEXT
  5
17B98
330
747D
100
AcDbEntity
  8
文字
 62
     7
 48
50.0
100
AcDbText
 10
15022.63965474516
 20
10250.01374588372
 30
0.0
 40
100.0
  1
Y10            0.7
  7
STYLE1
100
AcDbText
  0
TEXT
  5
17B99
330
747D
100
AcDbEntity
  8
文字
 62
     7
 48
50.0
100
AcDbText
 10
15022.63965474516
 20
10080.01374588372
 30
0.0
 40
100.0
  1
Y10            0.7
  7
STYLE1
100
AcDbText
  0
TEXT
  5
17B9A
330
747D
100
AcDbEntity
  8
文字
 62
     7
 48
50.0
100
AcDbText
 10
15022.63965474516
 20
9570.013745883727
 30
0.0
 40
100.0
  1
Y10            0.5
  7
STYLE1
100
AcDbText
  0
TEXT
  5
17B9B
330
747D
100
AcDbEntity
  8
文字
 62
     7
 48
50.0
100
AcDbText
 10
15022.63965474516
 20
9400.013745883727
 30
0.0
 40
100.0
  1
F12            0.7
  7
STYLE1
100
AcDbText
  0
TEXT
  5
17B9C
330
747D
100
AcDbEntity
  8
文字
 62
     7
 48
50.0
100
AcDbText
 10
14850.83183167176
 20
8720.013745883729
 30
0.0
 40
100.0
  1
アルミニウム合金押出形材
  7
STYLE1
100
AcDbText
  0
TEXT
  5
17B9E
330
747D
100
AcDbEntity
  8
文字
 62
     7
 48
50.0
100
AcDbText
 10
15022.63965474515
 20
9060.013745883725
 30
0.0
 40
100.0
  1
Z08            0.5
  7
STYLE1
100
AcDbText
  0
LINE
  5
17B9F
330
747D
100
AcDbEntity
  8
仕様書枠
 48
50.0
100
AcDbLine
 10
16307.19999999998
 20
8009.600000000011
 30
0.0
 11
13127.19999999999
 21
8009.600000000011
 31
0.0
  0
LINE
  5
17BA0
330
747D
100
AcDbEntity
  8
仕様書枠
 48
50.0
100
AcDbLine
 10
16307.19999999998
 20
7839.60000000001
 30
0.0
 11
13127.19999999999
 21
7839.600000000011
 31
0.0
  0
LINE
  5
17BA1
330
747D
100
AcDbEntity
  8
仕様書枠
 48
50.0
100
AcDbLine
 10
16307.19999999998
 20
7669.600000000009
 30
0.0
 11
13127.19999999999
 21
7669.600000000011
 31
0.0
  0
TEXT
  5
17BA2
330
747D
100
AcDbEntity
  8
文字
 62
     7
 48
50.0
100
AcDbText
 10
13229.83081656554
 20
8040.013745883738
 30
0.0
 40
100.0
  1
F12→溶融亜鉛めっき鋼板(JIS G 3302)
  7
STYLE1
100
AcDbText
  0
TEXT
  5
17BA3
330
747D
100
AcDbEntity
  8
文字
 62
     7
 48
50.0
100
AcDbText
 10
13229.83081656554
 20
7870.013745883738
 30
0.0
 40
100.0
  1
Y10→溶融亜鉛-5％アルミニウム合金めっき鋼板(JIS G 3317)
 41
0.9
  7
STYLE1
100
AcDbText
  0
TEXT
  5
17BA4
330
747D
100
AcDbEntity
  8
文字
 62
     7
 48
50.0
100
AcDbText
 10
13229.83081656554
 20
7700.01374588374
 30
0.0
 40
100.0
  1
Z08→塗装溶融亜鉛めっき鋼板(JIS G 3313)
  7
STYLE1
100
AcDbText
  0
LINE
  5
17BA5
330
747D
100
AcDbEntity
  8
仕様書枠
 48
50.0
100
AcDbLine
 10
13127.2
 20
11239.6
 30
0.0
 11
13127.19999999999
 21
7669.600000000011
 31
0.0
  0
LINE
  5
17BA7
330
747D
100
AcDbEntity
  8
仕様書枠
 48
50.0
100
AcDbLine
 10
16307.19999999999
 20
8689.6
 30
0.0
 11
13127.19999999999
 21
8689.600000000003
 31
0.0
  0
LINE
  5
17BA8
330
747D
100
AcDbEntity
  8
仕様書枠
 48
50.0
100
AcDbLine
 10
16307.19999999999
 20
8859.6
 30
0.0
 11
13127.19999999999
 21
8859.600000000002
 31
0.0
  0
TEXT
  5
17BA9
330
747D
100
AcDbEntity
  8
文字
 62
     7
 48
50.0
100
AcDbText
 10
13583.11819016569
 20
8210.013745883731
 30
0.0
 40
100.0
  1
棚板
 41
0.9
  7
STYLE1
100
AcDbText
  0
TEXT
  5
17BAA
330
747D
100
AcDbEntity
  8
文字
 62
     7
 48
50.0
100
AcDbText
 10
13583.11819016569
 20
8550.013745883731
 30
0.0
 40
100.0
  1
根太
  7
STYLE1
100
AcDbText
  0
TEXT
  5
17BAB
330
747D
100
AcDbEntity
  8
文字
 62
     7
 48
50.0
100
AcDbText
 10
13248.77747366448
 20
8720.013745883729
 30
0.0
 40
100.0
  1
14
  7
STYLE1
100
AcDbText
  0
TEXT
  5
17BAC
330
747D
100
AcDbEntity
  8
文字
 62
     7
 48
50.0
100
AcDbText
 10
13248.77747366448
 20
8380.013745883731
 30
0.0
 40
100.0
  1
16
  7
STYLE1
100
AcDbText
  0
TEXT
  5
17BAD
330
747D
100
AcDbEntity
  8
文字
 62
     7
 48
50.0
100
AcDbText
 10
15022.63965474516
 20
8550.013745883727
 30
0.0
 40
100.0
  1
F12            1.2
  7
STYLE1
100
AcDbText
  0
TEXT
  5
17BAE
330
747D
100
AcDbEntity
  8
文字
 62
     7
 48
50.0
100
AcDbText
 10
15022.63965474516
 20
8210.013745883729
 30
0.0
 40
100.0
  1
F12            0.6
  7
STYLE1
100
AcDbText
  0
TEXT
  5
17BAF
330
747D
100
AcDbEntity
  8
文字
 62
     7
 48
50.0
100
AcDbText
 10
13583.11819016569
 20
9910.01374588373
 30
0.0
 40
100.0
  1
梁中
  7
STYLE1
100
AcDbText
  0
TEXT
  5
17BB0
330
747D
100
AcDbEntity
  8
文字
 62
     7
 48
50.0
100
AcDbText
 10
15022.63965474516
 20
9910.013745883727
 30
0.0
 40
100.0
  1
F12,Y10      1.2+1.6
  7
STYLE1
100
AcDbText
  0
LINE
  5
17BB1
330
747D
100
AcDbEntity
  8
仕様書枠
 48
50.0
100
AcDbLine
 10
16307.19999999999
 20
8179.600000000007
 30
0.0
 11
13127.19999999999
 21
8179.600000000009
 31
0.0
  0
LINE
  5
1807B
330
747D
100
AcDbEntity
  8
部品1
100
AcDbLine
 10
10625.47043893114
 20
4376.154057264634
 30
0.0
 11
13675.47043893114
 21
4376.154057264634
 31
0.0
  0
LINE
  5
1807C
330
747D
100
AcDbEntity
  8
部品1
100
AcDbLine
 10
10680.47043893114
 20
2286.154057264634
 30
0.0
 11
13675.47043893114
 21
2286.154057264634
 31
0.0
  0
LINE
  5
1807D
330
747D
100
AcDbEntity
  8
部品1
100
AcDbLine
 10
10680.47043893114
 20
4376.154057264634
 30
0.0
 11
10680.47043893114
 21
2136.154057264634
 31
0.0
  0
LINE
  5
1807E
330
747D
100
AcDbEntity
  8
部品1
100
AcDbLine
 10
10625.47043893114
 20
4468.381658499271
 30
0.0
 11
10625.47043893114
 21
2136.154057264634
 31
0.0
  0
DIMENSION
  5
1807F
330
747D
100
AcDbEntity
  8
寸法
100
AcDbDimension
  2
*D23
 10
9781.72030974788
 20
2286.154057264634
 30
0.0
 11
9681.708498724258
 21
3331.154057264636
 31
0.0
 70
    32
 71
     5
 42
2090.000000000001
  3
INABA_S40G
100
AcDbAlignedDimension
 13
10625.47043893114
 23
4376.154057264634
 33
0.0
 14
10625.47043893114
 24
2286.154057264634
 34
0.0
 50
90.0
100
AcDbRotatedDimension
1001
ACAD
1000
DSTYLE
1002
{
1070
   288
1070
     1
1002
}
  0
DIMENSION
  5
18081
330
747D
100
AcDbEntity
  8
寸法
100
AcDbDimension
  2
*D24
 10
9781.72030974788
 20
2236.154057264634
 30
0.0
 11
9781.72030974788
 21
1852.404057264633
 31
0.0
 70
   160
 71
     5
 42
50.0
  3
INABA_S40G
100
AcDbAlignedDimension
 13
10625.47043893114
 23
2286.154057264634
 33
0.0
 14
10570.47043893114
 24
2236.154057264634
 34
0.0
 50
90.0
100
AcDbRotatedDimension
1001
ACAD
1000
DSTYLE
1002
{
1070
   288
1070
     1
1002
}
  0
LINE
  5
18082
330
747D
100
AcDbEntity
  8
部品1
100
AcDbLine
 10
13675.47043893114
 20
4430.584085045754
 30
0.0
 11
13675.47043893114
 21
2136.154057264634
 31
0.0
  0
LINE
  5
18083
330
747D
100
AcDbEntity
  8
部品1
100
AcDbLine
 10
13620.47043893114
 20
4376.154057264634
 30
0.0
 11
13620.47043893114
 21
2286.154057264634
 31
0.0
  0
DIMENSION
  5
18084
330
747D
100
AcDbEntity
  8
寸法
100
AcDbDimension
  2
*D25
 10
14380.39759690326
 20
4556.154057264633
 30
0.0
 11
14380.39759690326
 21
3391.154057264634
 31
0.0
 70
   160
 71
     5
 42
2320.0
  3
INABA_S40G
100
AcDbAlignedDimension
 13
13675.47043893114
 23
2236.154057264634
 33
0.0
 14
13770.47043893114
 24
4556.154057264634
 34
0.0
 50
90.0
100
AcDbRotatedDimension
1001
ACAD
1000
DSTYLE
1002
{
1070
   288
1070
     1
1002
}
  0
LINE
  5
18098
330
747D
100
AcDbEntity
  8
部品1
100
AcDbLine
 10
10680.47043893114
 20
2236.154057264634
 30
0.0
 11
13675.47043893114
 21
2236.154057264634
 31
0.0
  0
LINE
  5
1809B
330
747D
100
AcDbEntity
  8
破線
  6
HIDDEN
 48
5.0
100
AcDbLine
 10
10625.47043893114
 20
1886.154057264634
 30
0.0
 11
10680.47043893114
 21
1886.154057264634
 31
0.0
  0
LINE
  5
1809C
330
747D
100
AcDbEntity
  8
破線
  6
HIDDEN
 48
5.0
100
AcDbLine
 10
10680.47043893114
 20
2136.154057264634
 30
0.0
 11
10680.47043893114
 21
1886.154057264634
 31
0.0
  0
LINE
  5
1809D
330
747D
100
AcDbEntity
  8
破線
  6
HIDDEN
 48
5.0
100
AcDbLine
 10
10625.47043893114
 20
2136.154057264634
 30
0.0
 11
10625.47043893114
 21
1886.154057264634
 31
0.0
  0
DIMENSION
  5
180A7
330
747D
100
AcDbEntity
  8
寸法
100
AcDbDimension
  2
*D26
 10
9481.720309747879
 20
4611.154057264638
 30
0.0
 11
9381.708498724256
 21
3423.654057264638
 31
0.0
 70
    32
 71
     5
 42
2375.000000000005
  3
INABA_S40G
100
AcDbAlignedDimension
 13
10625.47043893114
 23
2236.154057264633
 33
0.0
 14
10565.47043893114
 24
4611.154057264637
 34
0.0
 50
90.0
100
AcDbRotatedDimension
1001
ACAD
1000
DSTYLE
1002
{
1070
   174
1070
     0
1070
   272
1070
     1
1070
   288
1070
     0
1070
   341
1005
0
1002
}
  0
LINE
  5
180A8
330
747D
100
AcDbEntity
  8
細線
 48
50.0
100
AcDbLine
 10
12702.97043893114
 20
4376.154057264631
 30
0.0
 11
12702.97043893114
 21
2286.154057264634
 31
0.0
  0
LINE
  5
180A9
330
747D
100
AcDbEntity
  8
細線
 48
50.0
100
AcDbLine
 10
12717.97043893114
 20
4376.154057264631
 30
0.0
 11
12717.97043893114
 21
2286.154057264634
 31
0.0
  0
LINE
  5
180AA
330
747D
100
AcDbEntity
  8
細線
 48
50.0
100
AcDbLine
 10
12577.97043893114
 20
4376.154057264631
 30
0.0
 11
12577.97043893114
 21
2286.154057264634
 31
0.0
  0
LINE
  5
180AB
330
747D
100
AcDbEntity
  8
細線
 48
50.0
100
AcDbLine
 10
12562.97043893114
 20
4376.154057264631
 30
0.0
 11
12562.97043893114
 21
2286.154057264634
 31
0.0
  0
LINE
  5
180AC
330
747D
100
AcDbEntity
  8
細線
 48
50.0
100
AcDbLine
 10
12422.97043893114
 20
4376.154057264631
 30
0.0
 11
12422.97043893114
 21
2286.154057264634
 31
0.0
  0
LINE
  5
180AD
330
747D
100
AcDbEntity
  8
細線
 48
50.0
100
AcDbLine
 10
12437.97043893114
 20
4376.154057264631
 30
0.0
 11
12437.97043893114
 21
2286.154057264634
 31
0.0
  0
LINE
  5
180AE
330
747D
100
AcDbEntity
  8
部品1
100
AcDbLine
 10
12360.47043893114
 20
4376.154057264631
 30
0.0
 11
12360.47043893114
 21
2286.154057264634
 31
0.0
  0
LINE
  5
180AF
330
747D
100
AcDbEntity
  8
部品1
100
AcDbLine
 10
12003.98371145466
 20
4736.35844522765
 30
0.0
 11
12329.43872509769
 21
4718.84038626879
 31
0.0
  0
ARC
  5
180B0
330
747D
100
AcDbEntity
  8
部品1
100
AcDbCircle
 10
13741.09797474508
 20
4450.177814530425
 30
0.0
 40
0.7
100
AcDbArc
 50
275.0921697642102
 51
354.1866997667087
  0
ARC
  5
180B1
330
747D
100
AcDbEntity
  8
部品1
100
AcDbCircle
 10
13751.95732049441
 20
4527.221069348349
 30
0.0
 40
0.7
100
AcDbArc
 50
275.0921697642102
 51
354.1866997665532
  0
ARC
  5
180B2
330
747D
100
AcDbEntity
  8
部品1
100
AcDbCircle
 10
13752.28572573701
 20
4523.535672491259
 30
0.0
 40
3.0
100
AcDbArc
 50
95.0921697642102
 51
174.1866997665532
  0
ARC
  5
180B3
330
747D
100
AcDbEntity
  8
部品1
100
AcDbCircle
 10
13741.42637998769
 20
4446.492417673335
 30
0.0
 40
3.0
100
AcDbArc
 50
95.0921697642102
 51
174.1866997665532
  0
ARC
  5
180B4
330
747D
100
AcDbEntity
  8
部品1
 48
50.0
100
AcDbCircle
 10
13730.39824471258
 20
4436.901673069453
 30
0.0
 40
7.0
100
AcDbArc
 50
267.8377559869492
 51
354.1866997665532
  0
ARC
  5
180B5
330
747D
100
AcDbEntity
  8
部品1
 48
50.0
100
AcDbCircle
 10
13747.7203411771
 20
4547.804220211626
 30
0.0
 40
7.0
100
AcDbArc
 50
354.1866997665532
 51
87.03587545283093
  0
LINE
  5
180B6
330
747D
100
AcDbEntity
  8
部品1
 48
50.0
100
AcDbLine
 10
13738.44180831707
 20
4446.796279390238
 30
0.0
 11
13737.36224527733
 21
4436.192662396679
 31
0.0
  0
LINE
  5
180B7
330
747D
100
AcDbEntity
  8
部品1
 48
50.0
100
AcDbLine
 10
13749.30115406639
 20
4523.839534208162
 30
0.0
 11
13741.79437480156
 21
4450.106913463151
 31
0.0
  0
LINE
  5
180B8
330
747D
100
AcDbEntity
  8
部品1
 48
50.0
100
AcDbLine
 10
13754.68434174185
 20
4547.095209538851
 30
0.0
 11
13752.65372055088
 21
4527.150168281072
 31
0.0
  0
ARC
  5
180B9
330
747D
100
AcDbEntity
  8
部品1
100
AcDbCircle
 10
10571.50753080251
 20
4489.968216223537
 30
0.0
 40
0.7
100
AcDbArc
 50
181.0932240292635
 51
260.1877540314845
  0
ARC
  5
180BA
330
747D
100
AcDbEntity
  8
部品1
100
AcDbCircle
 10
10566.7348572049
 20
4582.833994423656
 30
0.0
 40
0.7
100
AcDbArc
 50
181.0932240292114
 51
260.1877540314845
  0
ARC
  5
180BB
330
747D
100
AcDbEntity
  8
部品1
100
AcDbCircle
 10
10566.10430280188
 20
4579.188119886257
 30
0.0
 40
3.0
100
AcDbArc
 50
1.093224029315636
 51
80.18775403169875
  0
ARC
  5
180BC
330
747D
100
AcDbEntity
  8
部品1
100
AcDbCircle
 10
10570.87697639949
 20
4486.322341686138
 30
0.0
 40
3.0
100
AcDbArc
 50
1.093224029315636
 51
80.18775403169875
  0
ARC
  5
180BD
330
747D
100
AcDbEntity
  8
部品1
 48
50.0
100
AcDbCircle
 10
10581.07710877469
 20
4475.930098303657
 30
0.0
 40
7.0
100
AcDbArc
 50
181.0932240293156
 51
267.8377559869492
  0
ARC
  5
180BE
330
747D
100
AcDbEntity
  8
部品1
 48
50.0
100
AcDbCircle
 10
10572.65345067259
 20
4602.881157836753
 30
0.0
 40
7.0
100
AcDbArc
 50
87.03587545283093
 51
181.0932240293156
  0
LINE
  5
180BF
330
747D
100
AcDbEntity
  8
部品1
 48
50.0
100
AcDbLine
 10
10573.87643032592
 20
4486.379579289321
 30
0.0
 11
10574.07838294635
 21
4475.796543896229
 31
0.0
  0
LINE
  5
180C0
330
747D
100
AcDbEntity
  8
細線
 48
50.0
100
AcDbLine
 10
10571.27033726925
 20
4489.309627408131
 30
0.0
 11
13741.27400169989
 21
4449.500308433637
 31
0.0
  0
LINE
  5
180C1
330
747D
100
AcDbEntity
  8
細線
 48
50.0
100
AcDbLine
 10
10566.50986203196
 20
4582.171139105994
 30
0.0
 11
13752.14584677713
 21
4526.546934465166
 31
0.0
  0
LINE
  5
180C2
330
747D
100
AcDbEntity
  8
部品1
 48
50.0
100
AcDbLine
 10
10569.10375672831
 20
4579.24535748944
 30
0.0
 11
10570.80765821967
 21
4489.954860782794
 31
0.0
  0
LINE
  5
180C3
330
747D
100
AcDbEntity
  8
部品1
 48
50.0
100
AcDbLine
 10
10565.65472484425
 20
4602.747603429325
 30
0.0
 11
10566.03498462206
 21
4582.820638982914
 31
0.0
  0
LINE
  5
180C4
330
747D
100
AcDbEntity
  8
細線
 48
50.0
100
AcDbLine
 10
13722.43972212484
 20
4555.307479744102
 30
0.0
 11
13717.72275604315
 21
4430.375263809184
 31
0.0
  0
LINE
  5
180C5
330
747D
100
AcDbEntity
  8
細線
 48
50.0
100
AcDbLine
 10
10598.47043893114
 20
4608.553733640038
 30
0.0
 11
10593.18133737564
 21
4468.468101012682
 31
0.0
  0
LINE
  5
180C6
330
747D
100
AcDbEntity
  8
部品1
100
AcDbLine
 10
10580.8130035331
 20
4468.935082333599
 30
0.0
 11
13730.134139471
 21
4429.906657099394
 31
0.0
  0
LINE
  5
180C7
330
747D
100
AcDbEntity
  8
部品1
100
AcDbLine
 10
10573.01542528811
 20
4609.871792598898
 30
0.0
 11
13748.08231579261
 21
4554.794854973772
 31
0.0
  0
LINE
  5
180C8
330
747D
100
AcDbEntity
  8
部品1
 48
50.0
100
AcDbLine
 10
12029.43872509769
 20
4735.040386268789
 30
0.0
 11
12329.43872509769
 21
4735.040386268789
 31
0.0
  0
LINE
  5
180C9
330
747D
100
AcDbEntity
  8
部品1
 48
50.0
100
AcDbLine
 10
12329.43872509769
 20
4735.040386268789
 30
0.0
 11
12329.43872509769
 21
4718.84038626879
 31
0.0
  0
TEXT
  5
180CA
330
747D
100
AcDbEntity
  8
部品1
 48
50.0
100
AcDbText
 10
12017.70656032142
 20
4770.924408421222
 30
0.0
 40
120.0
  1
1000
  7
STYLE1
100
AcDbText
  0
TEXT
  5
180CB
330
747D
100
AcDbEntity
  8
部品1
 48
50.0
100
AcDbText
 10
12495.33958298651
 20
4633.423150202939
 30
0.0
 40
120.0
  1
32
 50
90.0
  7
STYLE1
100
AcDbText
  0
LINE
  5
180CC
330
747D
100
AcDbEntity
  8
細線
 48
50.0
100
AcDbLine
 10
12017.97043893114
 20
4376.154057264631
 30
0.0
 11
12017.97043893114
 21
2286.154057264632
 31
0.0
  0
LINE
  5
180CD
330
747D
100
AcDbEntity
  8
細線
 48
50.0
100
AcDbLine
 10
12002.97043893114
 20
4376.154057264631
 30
0.0
 11
12002.97043893114
 21
2286.154057264632
 31
0.0
  0
LINE
  5
180CE
330
747D
100
AcDbEntity
  8
細線
 48
50.0
100
AcDbLine
 10
12142.97043893114
 20
4376.154057264631
 30
0.0
 11
12142.97043893114
 21
2286.154057264632
 31
0.0
  0
LINE
  5
180CF
330
747D
100
AcDbEntity
  8
細線
 48
50.0
100
AcDbLine
 10
12157.97043893114
 20
4376.154057264631
 30
0.0
 11
12157.97043893114
 21
2286.154057264632
 31
0.0
  0
LINE
  5
180D0
330
747D
100
AcDbEntity
  8
細線
 48
50.0
100
AcDbLine
 10
12297.97043893114
 20
4376.154057264631
 30
0.0
 11
12297.97043893114
 21
2286.154057264632
 31
0.0
  0
LINE
  5
180D1
330
747D
100
AcDbEntity
  8
細線
 48
50.0
100
AcDbLine
 10
12282.97043893114
 20
4376.154057264631
 30
0.0
 11
12282.97043893114
 21
2286.154057264632
 31
0.0
  0
LINE
  5
180D2
330
747D
100
AcDbEntity
  8
部品1
100
AcDbLine
 10
11100.47043893114
 20
4376.154057264631
 30
0.0
 11
11100.47043893114
 21
2286.154057264632
 31
0.0
  0
DIMENSION
  5
180D3
330
747D
100
AcDbEntity
  8
寸法
 48
50.0
100
AcDbDimension
  2
*D27
 10
10625.47043893114
 20
5009.811510843938
 30
0.0
 11
12150.47043893114
 21
5009.811510843938
 31
0.0
 70
   160
  1
柱外寸法<>
 71
     5
 42
3050.0
  3
INABA_S40G
100
AcDbAlignedDimension
 13
13675.47043893114
 23
4557.964736876287
 33
0.0
 14
10625.47043893114
 24
4607.155675387608
 34
0.0
100
AcDbRotatedDimension
1001
ACAD
1000
DSTYLE
1002
{
1070
   174
1070
     0
1070
   272
1070
     1
1070
   288
1070
     0
1070
   341
1005
0
1002
}
  0
DIMENSION
  5
180D4
330
747D
100
AcDbEntity
  8
寸法
 48
50.0
100
AcDbDimension
  2
*D28
 10
10565.47043893114
 20
5009.811510843936
 30
0.0
 11
10255.83264365555
 21
5009.811510843936
 31
0.0
 70
   160
 71
     5
 42
60.0
  3
INABA_S40G
100
AcDbAlignedDimension
 13
10625.47043893114
 23
4607.155675387608
 33
0.0
 14
10565.47043893114
 24
4611.154057264637
 34
0.0
100
AcDbRotatedDimension
1001
ACAD
1000
DSTYLE
1002
{
1070
   174
1070
     0
1070
   272
1070
     1
1070
   288
1070
     0
1070
   341
1005
0
1002
}
  0
DIMENSION
  5
180D5
330
747D
100
AcDbEntity
  8
寸法
 48
50.0
100
AcDbDimension
  2
*D29
 10
10565.47043893114
 20
5239.925103630214
 30
0.0
 11
12160.47043893115
 21
5239.925103630214
 31
0.0
 70
   160
 71
     5
 42
3190.0
  3
INABA_S40G
100
AcDbAlignedDimension
 13
13755.47043893114
 23
4556.154057264634
 33
0.0
 14
10565.47043893114
 24
4611.154057264637
 34
0.0
100
AcDbRotatedDimension
1001
ACAD
1000
DSTYLE
1002
{
1070
   174
1070
     0
1070
   272
1070
     1
1070
   288
1070
     0
1070
   341
1005
0
1002
}
  0
LINE
  5
180D6
330
747D
100
AcDbEntity
  8
細線
 48
50.0
100
AcDbLine
 10
11177.97043893114
 20
4376.154057264631
 30
0.0
 11
11177.97043893114
 21
2286.154057264632
 31
0.0
  0
LINE
  5
180D7
330
747D
100
AcDbEntity
  8
細線
 48
50.0
100
AcDbLine
 10
11162.97043893115
 20
4376.154057264631
 30
0.0
 11
11162.97043893115
 21
2286.154057264632
 31
0.0
  0
LINE
  5
180D8
330
747D
100
AcDbEntity
  8
細線
 48
50.0
100
AcDbLine
 10
11302.97043893115
 20
4376.154057264631
 30
0.0
 11
11302.97043893115
 21
2286.154057264632
 31
0.0
  0
LINE
  5
180D9
330
747D
100
AcDbEntity
  8
細線
 48
50.0
100
AcDbLine
 10
11317.97043893114
 20
4376.154057264631
 30
0.0
 11
11317.97043893114
 21
2286.154057264632
 31
0.0
  0
LINE
  5
180DA
330
747D
100
AcDbEntity
  8
細線
 48
50.0
100
AcDbLine
 10
11457.97043893114
 20
4376.154057264631
 30
0.0
 11
11457.97043893114
 21
2286.154057264632
 31
0.0
  0
LINE
  5
180DB
330
747D
100
AcDbEntity
  8
細線
 48
50.0
100
AcDbLine
 10
11442.97043893114
 20
4376.154057264631
 30
0.0
 11
11442.97043893114
 21
2286.154057264632
 31
0.0
  0
LINE
  5
180DC
330
747D
100
AcDbEntity
  8
細線
 48
50.0
100
AcDbLine
 10
11022.97043893115
 20
4376.154057264631
 30
0.0
 11
11022.97043893115
 21
2286.154057264632
 31
0.0
  0
LINE
  5
180DD
330
747D
100
AcDbEntity
  8
細線
 48
50.0
100
AcDbLine
 10
11037.97043893114
 20
4376.154057264631
 30
0.0
 11
11037.97043893114
 21
2286.154057264632
 31
0.0
  0
LINE
  5
180DE
330
747D
100
AcDbEntity
  8
細線
 48
50.0
100
AcDbLine
 10
10897.97043893114
 20
4376.154057264631
 30
0.0
 11
10897.97043893114
 21
2286.154057264632
 31
0.0
  0
LINE
  5
180DF
330
747D
100
AcDbEntity
  8
細線
 48
50.0
100
AcDbLine
 10
10882.97043893114
 20
4376.154057264631
 30
0.0
 11
10882.97043893114
 21
2286.154057264632
 31
0.0
  0
LINE
  5
180E0
330
747D
100
AcDbEntity
  8
細線
 48
50.0
100
AcDbLine
 10
10742.97043893114
 20
4376.154057264631
 30
0.0
 11
10742.97043893114
 21
2286.154057264632
 31
0.0
  0
LINE
  5
180E1
330
747D
100
AcDbEntity
  8
細線
 48
50.0
100
AcDbLine
 10
10757.97043893114
 20
4376.154057264631
 30
0.0
 11
10757.97043893114
 21
2286.154057264632
 31
0.0
  0
DIMENSION
  5
180E2
330
747D
100
AcDbEntity
  8
寸法
 48
50.0
100
AcDbDimension
  2
*D30
 10
13755.47043893114
 20
5009.811510843938
 30
0.0
 11
13961.51768302563
 21
5009.811510843938
 31
0.0
 70
   160
 71
     5
 42
80.0
  3
INABA_S40G
100
AcDbAlignedDimension
 13
13675.47043893114
 23
4557.964736876287
 33
0.0
 14
13755.47043893114
 24
4556.154057264635
 34
0.0
100
AcDbRotatedDimension
1001
ACAD
1000
DSTYLE
1002
{
1070
   174
1070
     0
1070
   272
1070
     1
1070
   288
1070
     0
1070
   341
1005
0
1002
}
  0
LINE
  5
180E3
330
747D
100
AcDbEntity
  8
部品1
100
AcDbLine
 10
11520.47043893114
 20
4376.154057264631
 30
0.0
 11
11520.47043893114
 21
2286.154057264632
 31
0.0
  0
LINE
  5
180E4
330
747D
100
AcDbEntity
  8
細線
 48
50.0
100
AcDbLine
 10
11862.97043893114
 20
4376.154057264631
 30
0.0
 11
11862.97043893115
 21
2286.154057264632
 31
0.0
  0
LINE
  5
180E5
330
747D
100
AcDbEntity
  8
細線
 48
50.0
100
AcDbLine
 10
11877.97043893114
 20
4376.154057264631
 30
0.0
 11
11877.97043893115
 21
2286.154057264632
 31
0.0
  0
LINE
  5
180E6
330
747D
100
AcDbEntity
  8
細線
 48
50.0
100
AcDbLine
 10
11737.97043893114
 20
4376.154057264631
 30
0.0
 11
11737.97043893115
 21
2286.154057264632
 31
0.0
  0
LINE
  5
180E7
330
747D
100
AcDbEntity
  8
細線
 48
50.0
100
AcDbLine
 10
11722.97043893114
 20
4376.154057264631
 30
0.0
 11
11722.97043893115
 21
2286.154057264632
 31
0.0
  0
LINE
  5
180E8
330
747D
100
AcDbEntity
  8
細線
 48
50.0
100
AcDbLine
 10
11582.97043893114
 20
4376.154057264631
 30
0.0
 11
11582.97043893115
 21
2286.154057264632
 31
0.0
  0
LINE
  5
180E9
330
747D
100
AcDbEntity
  8
細線
 48
50.0
100
AcDbLine
 10
11597.97043893114
 20
4376.154057264631
 30
0.0
 11
11597.97043893115
 21
2286.154057264632
 31
0.0
  0
LINE
  5
180EA
330
747D
100
AcDbEntity
  8
部品1
100
AcDbLine
 10
11940.47043893115
 20
4376.154057264631
 30
0.0
 11
11940.47043893115
 21
2286.154057264632
 31
0.0
  0
LINE
  5
180EB
330
747D
100
AcDbEntity
  8
細線
 48
50.0
100
AcDbLine
 10
13277.97043893115
 20
4376.154057264634
 30
0.0
 11
13277.97043893115
 21
2286.154057264635
 31
0.0
  0
LINE
  5
180EC
330
747D
100
AcDbEntity
  8
細線
 48
50.0
100
AcDbLine
 10
13262.97043893114
 20
4376.154057264634
 30
0.0
 11
13262.97043893114
 21
2286.154057264635
 31
0.0
  0
LINE
  5
180ED
330
747D
100
AcDbEntity
  8
細線
 48
50.0
100
AcDbLine
 10
13402.97043893114
 20
4376.154057264634
 30
0.0
 11
13402.97043893114
 21
2286.154057264635
 31
0.0
  0
LINE
  5
180EE
330
747D
100
AcDbEntity
  8
細線
 48
50.0
100
AcDbLine
 10
13417.97043893114
 20
4376.154057264634
 30
0.0
 11
13417.97043893114
 21
2286.154057264635
 31
0.0
  0
LINE
  5
180EF
330
747D
100
AcDbEntity
  8
細線
 48
50.0
100
AcDbLine
 10
13557.97043893114
 20
4376.154057264634
 30
0.0
 11
13557.97043893114
 21
2286.154057264635
 31
0.0
  0
LINE
  5
180F0
330
747D
100
AcDbEntity
  8
細線
 48
50.0
100
AcDbLine
 10
13542.97043893115
 20
4376.154057264634
 30
0.0
 11
13542.97043893115
 21
2286.154057264635
 31
0.0
  0
DIMENSION
  5
180F1
330
747D
100
AcDbEntity
  8
寸法
 48
50.0
100
AcDbDimension
  2
*D31
 10
10004.86203216276
 20
4485.499316137963
 30
0.0
 11
10015.52750742169
 21
4856.345979379661
 31
0.0
 70
   161
 71
     5
 42
141.0
  3
INABA_S40G
100
AcDbAlignedDimension
 13
10584.86645908972
 23
4609.876806099311
 33
0.0
 14
10580.8130035331
 24
4468.935082333599
 34
0.0
1001
ACAD
1000
DSTYLE
1002
{
1070
   174
1070
     0
1070
   272
1070
     1
1070
   288
1070
     0
1070
   341
1005
0
1002
}
  0
LINE
  5
180F2
330
747D
100
AcDbEntity
  8
部品1
100
AcDbLine
 10
12780.47043893114
 20
4376.154057264631
 30
0.0
 11
12780.47043893114
 21
2286.154057264634
 31
0.0
  0
LINE
  5
180F3
330
747D
100
AcDbEntity
  8
細線
 48
50.0
100
AcDbLine
 10
12857.97043893114
 20
4376.154057264631
 30
0.0
 11
12857.97043893114
 21
2286.154057264634
 31
0.0
  0
LINE
  5
180F4
330
747D
100
AcDbEntity
  8
細線
 48
50.0
100
AcDbLine
 10
12842.97043893114
 20
4376.154057264631
 30
0.0
 11
12842.97043893114
 21
2286.154057264634
 31
0.0
  0
LINE
  5
180F5
330
747D
100
AcDbEntity
  8
細線
 48
50.0
100
AcDbLine
 10
12982.97043893114
 20
4376.154057264631
 30
0.0
 11
12982.97043893114
 21
2286.154057264634
 31
0.0
  0
LINE
  5
180F6
330
747D
100
AcDbEntity
  8
細線
 48
50.0
100
AcDbLine
 10
12997.97043893115
 20
4376.154057264631
 30
0.0
 11
12997.97043893115
 21
2286.154057264634
 31
0.0
  0
LINE
  5
180F7
330
747D
100
AcDbEntity
  8
細線
 48
50.0
100
AcDbLine
 10
13137.97043893115
 20
4376.154057264631
 30
0.0
 11
13137.97043893115
 21
2286.154057264634
 31
0.0
  0
LINE
  5
180F8
330
747D
100
AcDbEntity
  8
細線
 48
50.0
100
AcDbLine
 10
13122.97043893114
 20
4376.154057264631
 30
0.0
 11
13122.97043893114
 21
2286.154057264634
 31
0.0
  0
LINE
  5
180F9
330
747D
100
AcDbEntity
  8
部品1
100
AcDbLine
 10
13200.47043893113
 20
4376.154057264634
 30
0.0
 11
13200.47043893113
 21
2286.154057264635
 31
0.0
  0
LWPOLYLINE
  5
180FA
330
747D
100
AcDbEntity
  8
部品1
100
AcDbPolyline
 90
        4
 70
     1
 43
0.0
 10
11768.73510581692
 20
1486.154057264633
 10
11768.73510581692
 20
1246.261735719101
 10
12532.20577204536
 20
1246.261735719101
 10
12532.20577204536
 20
1486.154057264633
  0
TEXT
  5
180FB
330
747D
100
AcDbEntity
  8
部品1
100
AcDbText
 10
11858.18120724053
 20
1293.26052804611
 30
0.0
 40
135.0
  1
側面図
  7
STYLE2
100
AcDbText
  0
LINE
  5
180FE
330
747D
100
AcDbEntity
  8
部品1
100
AcDbLine
 10
6114.673057123655
 20
2236.154057264634
 30
0.0
 11
8634.673057123654
 21
2236.154057264634
 31
0.0
  0
LINE
  5
180FF
330
747D
100
AcDbEntity
  8
部品1
100
AcDbLine
 10
6114.673057123655
 20
2286.154057264634
 30
0.0
 11
8634.673057123654
 21
2286.154057264634
 31
0.0
  0
LINE
  5
18100
330
747D
100
AcDbEntity
  8
部品1
100
AcDbLine
 10
3484.673057123655
 20
2286.154057264634
 30
0.0
 11
6004.673057123655
 21
2286.154057264634
 31
0.0
  0
LINE
  5
18101
330
747D
100
AcDbEntity
  8
細線
100
AcDbLine
 10
5956.673057123655
 20
2296.154057264633
 30
0.0
 11
3532.673057123647
 21
2296.154057264633
 31
0.0
  0
LINE
  5
18105
330
747D
100
AcDbEntity
  8
部品1
100
AcDbLine
 10
6114.673057123655
 20
4211.154057264633
 30
0.0
 11
8689.673057123654
 21
4211.154057264635
 31
0.0
  0
LINE
  5
18106
330
747D
100
AcDbEntity
  8
部品1
100
AcDbLine
 10
6114.673057123654
 20
4211.154057264632
 30
0.0
 11
6114.673057123653
 21
2136.154057264634
 31
0.0
  0
LINE
  5
18108
330
747D
100
AcDbEntity
  8
部品1
100
AcDbLine
 10
6162.673057123654
 20
4211.154057264633
 30
0.0
 11
6162.673057123654
 21
2286.154057264634
 31
0.0
  0
LINE
  5
1810B
330
747D
100
AcDbEntity
  8
部品1
100
AcDbLine
 10
6004.673057123653
 20
4211.154057264632
 30
0.0
 11
6004.673057123655
 21
2136.154057264634
 31
0.0
  0
LINE
  5
1810C
330
747D
100
AcDbEntity
  8
部品1
100
AcDbLine
 10
5956.673057123657
 20
4211.154057264635
 30
0.0
 11
5956.673057123657
 21
2286.154057264634
 31
0.0
  0
CIRCLE
  5
1810D
330
747D
100
AcDbEntity
  8
細線
 48
50.0
100
AcDbCircle
 10
4744.673057123653
 20
3173.654057264634
 30
0.0
 40
18.0
  0
ARC
  5
1810E
330
747D
100
AcDbEntity
  8
細線
 48
50.0
100
AcDbCircle
 10
5044.673057123652
 20
2848.654057264634
 30
0.0
 40
15.0
100
AcDbArc
 50
270.0
 51
90.0
  0
ARC
  5
1810F
330
747D
100
AcDbEntity
  8
細線
 48
50.0
100
AcDbCircle
 10
4944.673057123653
 20
2848.654057264634
 30
0.0
 40
15.0
100
AcDbArc
 50
90.0
 51
270.0
  0
LINE
  5
18110
330
747D
100
AcDbEntity
  8
細線
 48
50.0
100
AcDbLine
 10
4944.673057123653
 20
2863.654057264634
 30
0.0
 11
5044.673057123652
 21
2863.654057264634
 31
0.0
  0
LINE
  5
18111
330
747D
100
AcDbEntity
  8
細線
 48
50.0
100
AcDbLine
 10
5044.673057123652
 20
2833.654057264634
 30
0.0
 11
4944.673057123653
 21
2833.654057264634
 31
0.0
  0
ARC
  5
18112
330
747D
100
AcDbEntity
  8
細線
 48
50.0
100
AcDbCircle
 10
4544.673057123652
 20
2848.654057264634
 30
0.0
 40
15.0
100
AcDbArc
 50
270.0
 51
90.0
  0
ARC
  5
18113
330
747D
100
AcDbEntity
  8
細線
 48
50.0
100
AcDbCircle
 10
4444.673057123655
 20
2848.654057264634
 30
0.0
 40
15.0
100
AcDbArc
 50
90.0
 51
270.0
  0
LINE
  5
18114
330
747D
100
AcDbEntity
  8
細線
100
AcDbLine
 10
3532.673057123651
 20
3921.154057264633
 30
0.0
 11
5956.673057123653
 21
3921.154057264633
 31
0.0
  0
LINE
  5
18115
330
747D
100
AcDbEntity
  8
細線
100
AcDbLine
 10
3532.673057123651
 20
3986.154057264633
 30
0.0
 11
5956.673057123653
 21
3986.154057264633
 31
0.0
  0
LINE
  5
18116
330
747D
100
AcDbEntity
  8
細線
100
AcDbLine
 10
3532.673057123651
 20
4051.154057264634
 30
0.0
 11
5956.673057123653
 21
4051.154057264634
 31
0.0
  0
LINE
  5
18117
330
747D
100
AcDbEntity
  8
細線
100
AcDbLine
 10
3532.673057123651
 20
3531.154057264634
 30
0.0
 11
5956.673057123653
 21
3531.154057264634
 31
0.0
  0
LINE
  5
18118
330
747D
100
AcDbEntity
  8
細線
100
AcDbLine
 10
3532.673057123651
 20
3596.154057264634
 30
0.0
 11
5956.673057123653
 21
3596.154057264634
 31
0.0
  0
LINE
  5
18119
330
747D
100
AcDbEntity
  8
細線
100
AcDbLine
 10
3532.673057123651
 20
3661.154057264634
 30
0.0
 11
5956.673057123653
 21
3661.154057264634
 31
0.0
  0
LINE
  5
1811A
330
747D
100
AcDbEntity
  8
細線
100
AcDbLine
 10
3532.673057123651
 20
3726.154057264634
 30
0.0
 11
5956.673057123653
 21
3726.154057264634
 31
0.0
  0
LINE
  5
1811B
330
747D
100
AcDbEntity
  8
細線
100
AcDbLine
 10
3532.673057123651
 20
3791.154057264634
 30
0.0
 11
5956.673057123653
 21
3791.154057264634
 31
0.0
  0
LINE
  5
1811C
330
747D
100
AcDbEntity
  8
細線
100
AcDbLine
 10
3532.673057123651
 20
3856.154057264634
 30
0.0
 11
5956.673057123653
 21
3856.154057264634
 31
0.0
  0
LINE
  5
1811D
330
747D
100
AcDbEntity
  8
細線
100
AcDbLine
 10
3532.673057123651
 20
2881.154057264634
 30
0.0
 11
5956.673057123653
 21
2881.154057264634
 31
0.0
  0
LINE
  5
1811E
330
747D
100
AcDbEntity
  8
細線
100
AcDbLine
 10
3532.673057123651
 20
2946.154057264634
 30
0.0
 11
5956.673057123653
 21
2946.154057264634
 31
0.0
  0
LINE
  5
1811F
330
747D
100
AcDbEntity
  8
細線
100
AcDbLine
 10
3532.673057123651
 20
3011.154057264634
 30
0.0
 11
5956.673057123653
 21
3011.154057264634
 31
0.0
  0
LINE
  5
18120
330
747D
100
AcDbEntity
  8
細線
100
AcDbLine
 10
3532.673057123651
 20
3076.154057264634
 30
0.0
 11
5956.673057123653
 21
3076.154057264634
 31
0.0
  0
LINE
  5
18121
330
747D
100
AcDbEntity
  8
細線
100
AcDbLine
 10
3532.673057123651
 20
3141.154057264634
 30
0.0
 11
5956.673057123653
 21
3141.154057264634
 31
0.0
  0
LINE
  5
18122
330
747D
100
AcDbEntity
  8
細線
100
AcDbLine
 10
3532.673057123651
 20
3206.154057264634
 30
0.0
 11
5956.673057123653
 21
3206.154057264634
 31
0.0
  0
LINE
  5
18123
330
747D
100
AcDbEntity
  8
細線
100
AcDbLine
 10
3532.673057123651
 20
3271.154057264634
 30
0.0
 11
5956.673057123653
 21
3271.154057264634
 31
0.0
  0
LINE
  5
18124
330
747D
100
AcDbEntity
  8
細線
100
AcDbLine
 10
3532.673057123651
 20
3336.154057264633
 30
0.0
 11
5956.673057123653
 21
3336.154057264633
 31
0.0
  0
LINE
  5
18125
330
747D
100
AcDbEntity
  8
細線
100
AcDbLine
 10
3532.673057123651
 20
3401.154057264634
 30
0.0
 11
5956.673057123653
 21
3401.154057264634
 31
0.0
  0
LINE
  5
18126
330
747D
100
AcDbEntity
  8
細線
100
AcDbLine
 10
3532.673057123651
 20
3466.154057264634
 30
0.0
 11
5956.673057123653
 21
3466.154057264634
 31
0.0
  0
LINE
  5
18127
330
747D
100
AcDbEntity
  8
細線
100
AcDbLine
 10
3532.673057123651
 20
4181.154057264634
 30
0.0
 11
5956.673057123653
 21
4181.154057264634
 31
0.0
  0
LINE
  5
18128
330
747D
100
AcDbEntity
  8
細線
100
AcDbLine
 10
3532.673057123651
 20
4116.154057264633
 30
0.0
 11
5956.673057123653
 21
4116.154057264633
 31
0.0
  0
LINE
  5
18129
330
747D
100
AcDbEntity
  8
細線
100
AcDbLine
 10
3532.673057123651
 20
2361.154057264634
 30
0.0
 11
5956.673057123653
 21
2361.154057264634
 31
0.0
  0
LINE
  5
1812A
330
747D
100
AcDbEntity
  8
細線
100
AcDbLine
 10
3532.673057123651
 20
2426.154057264634
 30
0.0
 11
5956.673057123653
 21
2426.154057264634
 31
0.0
  0
LINE
  5
1812B
330
747D
100
AcDbEntity
  8
細線
100
AcDbLine
 10
3532.673057123651
 20
2491.154057264634
 30
0.0
 11
5956.673057123653
 21
2491.154057264634
 31
0.0
  0
LINE
  5
1812C
330
747D
100
AcDbEntity
  8
細線
100
AcDbLine
 10
3532.673057123651
 20
2556.154057264634
 30
0.0
 11
5956.673057123653
 21
2556.154057264634
 31
0.0
  0
LINE
  5
1812D
330
747D
100
AcDbEntity
  8
細線
100
AcDbLine
 10
3532.673057123651
 20
2621.154057264634
 30
0.0
 11
5956.673057123653
 21
2621.154057264634
 31
0.0
  0
LINE
  5
1812E
330
747D
100
AcDbEntity
  8
細線
100
AcDbLine
 10
3532.673057123651
 20
2686.154057264634
 30
0.0
 11
5956.673057123653
 21
2686.154057264634
 31
0.0
  0
LINE
  5
1812F
330
747D
100
AcDbEntity
  8
細線
100
AcDbLine
 10
3532.673057123651
 20
2751.154057264634
 30
0.0
 11
5956.673057123653
 21
2751.154057264634
 31
0.0
  0
LINE
  5
18130
330
747D
100
AcDbEntity
  8
細線
100
AcDbLine
 10
3532.673057123651
 20
2816.154057264634
 30
0.0
 11
5956.673057123653
 21
2816.154057264634
 31
0.0
  0
LINE
  5
18131
330
747D
100
AcDbEntity
  8
細線
 48
50.0
100
AcDbLine
 10
4544.673057123652
 20
2833.654057264634
 30
0.0
 11
4444.673057123655
 21
2833.654057264634
 31
0.0
  0
LINE
  5
18132
330
747D
100
AcDbEntity
  8
細線
 48
50.0
100
AcDbLine
 10
4444.673057123655
 20
2863.654057264634
 30
0.0
 11
4544.673057123652
 21
2863.654057264634
 31
0.0
  0
ARC
  5
18133
330
747D
100
AcDbEntity
  8
細線
 48
50.0
100
AcDbCircle
 10
7074.673057123653
 20
2848.654057264634
 30
0.0
 40
15.0
100
AcDbArc
 50
90.0
 51
270.0
  0
ARC
  5
18134
330
747D
100
AcDbEntity
  8
細線
 48
50.0
100
AcDbCircle
 10
7174.673057123652
 20
2848.654057264634
 30
0.0
 40
15.0
100
AcDbArc
 50
270.0
 51
90.0
  0
LINE
  5
18135
330
747D
100
AcDbEntity
  8
細線
 48
50.0
100
AcDbLine
 10
7074.673057123653
 20
2863.654057264634
 30
0.0
 11
7174.673057123652
 21
2863.654057264634
 31
0.0
  0
LINE
  5
18136
330
747D
100
AcDbEntity
  8
細線
 48
50.0
100
AcDbLine
 10
7174.673057123652
 20
2833.654057264634
 30
0.0
 11
7074.673057123653
 21
2833.654057264634
 31
0.0
  0
LINE
  5
18137
330
747D
100
AcDbEntity
  8
細線
 48
50.0
100
AcDbLine
 10
7674.673057123652
 20
2833.654057264634
 30
0.0
 11
7574.673057123653
 21
2833.654057264634
 31
0.0
  0
LINE
  5
18138
330
747D
100
AcDbEntity
  8
細線
 48
50.0
100
AcDbLine
 10
7574.673057123653
 20
2863.654057264634
 30
0.0
 11
7674.673057123652
 21
2863.654057264634
 31
0.0
  0
ARC
  5
18139
330
747D
100
AcDbEntity
  8
細線
 48
50.0
100
AcDbCircle
 10
7574.673057123653
 20
2848.654057264634
 30
0.0
 40
15.0
100
AcDbArc
 50
90.0
 51
270.0
  0
ARC
  5
1813A
330
747D
100
AcDbEntity
  8
細線
 48
50.0
100
AcDbCircle
 10
7674.673057123652
 20
2848.654057264634
 30
0.0
 40
15.0
100
AcDbArc
 50
270.0
 51
90.0
  0
CIRCLE
  5
1813B
330
747D
100
AcDbEntity
  8
細線
 48
50.0
100
AcDbCircle
 10
7374.673057123652
 20
3173.654057264634
 30
0.0
 40
18.0
  0
LINE
  5
1813F
330
747D
100
AcDbEntity
  8
細線
100
AcDbLine
 10
8586.673057123654
 20
2296.154057264633
 30
0.0
 11
6162.673057123649
 21
2296.154057264633
 31
0.0
  0
LINE
  5
18140
330
747D
100
AcDbEntity
  8
細線
100
AcDbLine
 10
6162.673057123651
 20
2816.154057264634
 30
0.0
 11
8586.673057123652
 21
2816.154057264634
 31
0.0
  0
LINE
  5
18141
330
747D
100
AcDbEntity
  8
細線
100
AcDbLine
 10
6162.673057123651
 20
2751.154057264634
 30
0.0
 11
8586.673057123652
 21
2751.154057264634
 31
0.0
  0
LINE
  5
18142
330
747D
100
AcDbEntity
  8
細線
100
AcDbLine
 10
6162.673057123651
 20
2686.154057264634
 30
0.0
 11
8586.673057123652
 21
2686.154057264634
 31
0.0
  0
LINE
  5
18143
330
747D
100
AcDbEntity
  8
細線
100
AcDbLine
 10
6162.673057123651
 20
2621.154057264634
 30
0.0
 11
8586.673057123652
 21
2621.154057264634
 31
0.0
  0
LINE
  5
18144
330
747D
100
AcDbEntity
  8
細線
100
AcDbLine
 10
6162.673057123651
 20
2556.154057264634
 30
0.0
 11
8586.673057123652
 21
2556.154057264634
 31
0.0
  0
LINE
  5
18145
330
747D
100
AcDbEntity
  8
細線
100
AcDbLine
 10
6162.673057123651
 20
2491.154057264634
 30
0.0
 11
8586.673057123652
 21
2491.154057264634
 31
0.0
  0
LINE
  5
18146
330
747D
100
AcDbEntity
  8
細線
100
AcDbLine
 10
6162.673057123651
 20
2426.154057264634
 30
0.0
 11
8586.673057123652
 21
2426.154057264634
 31
0.0
  0
LINE
  5
18147
330
747D
100
AcDbEntity
  8
細線
100
AcDbLine
 10
6162.673057123651
 20
2361.154057264634
 30
0.0
 11
8586.673057123652
 21
2361.154057264634
 31
0.0
  0
LINE
  5
18148
330
747D
100
AcDbEntity
  8
細線
100
AcDbLine
 10
6162.673057123651
 20
2296.154057264633
 30
0.0
 11
8586.673057123652
 21
2296.154057264633
 31
0.0
  0
LINE
  5
18149
330
747D
100
AcDbEntity
  8
細線
100
AcDbLine
 10
6162.673057123651
 20
4116.154057264633
 30
0.0
 11
8586.673057123652
 21
4116.154057264633
 31
0.0
  0
LINE
  5
1814A
330
747D
100
AcDbEntity
  8
細線
100
AcDbLine
 10
6162.673057123651
 20
4181.154057264634
 30
0.0
 11
8586.673057123652
 21
4181.154057264634
 31
0.0
  0
LINE
  5
1814B
330
747D
100
AcDbEntity
  8
細線
100
AcDbLine
 10
6162.673057123651
 20
3466.154057264634
 30
0.0
 11
8586.673057123652
 21
3466.154057264634
 31
0.0
  0
LINE
  5
1814C
330
747D
100
AcDbEntity
  8
細線
100
AcDbLine
 10
6162.673057123651
 20
3401.154057264634
 30
0.0
 11
8586.673057123652
 21
3401.154057264634
 31
0.0
  0
LINE
  5
1814D
330
747D
100
AcDbEntity
  8
細線
100
AcDbLine
 10
6162.673057123651
 20
3336.154057264633
 30
0.0
 11
8586.673057123652
 21
3336.154057264633
 31
0.0
  0
LINE
  5
1814E
330
747D
100
AcDbEntity
  8
細線
100
AcDbLine
 10
6162.673057123651
 20
3271.154057264634
 30
0.0
 11
8586.673057123652
 21
3271.154057264634
 31
0.0
  0
LINE
  5
1814F
330
747D
100
AcDbEntity
  8
細線
100
AcDbLine
 10
6162.673057123651
 20
3206.154057264634
 30
0.0
 11
8586.673057123652
 21
3206.154057264634
 31
0.0
  0
LINE
  5
18150
330
747D
100
AcDbEntity
  8
細線
100
AcDbLine
 10
6162.673057123651
 20
3141.154057264634
 30
0.0
 11
8586.673057123652
 21
3141.154057264634
 31
0.0
  0
LINE
  5
18151
330
747D
100
AcDbEntity
  8
細線
100
AcDbLine
 10
6162.673057123651
 20
3076.154057264634
 30
0.0
 11
8586.673057123652
 21
3076.154057264634
 31
0.0
  0
LINE
  5
18152
330
747D
100
AcDbEntity
  8
細線
100
AcDbLine
 10
6162.673057123651
 20
3011.154057264634
 30
0.0
 11
8586.673057123652
 21
3011.154057264634
 31
0.0
  0
LINE
  5
18153
330
747D
100
AcDbEntity
  8
細線
100
AcDbLine
 10
6162.673057123651
 20
2946.154057264634
 30
0.0
 11
8586.673057123652
 21
2946.154057264634
 31
0.0
  0
LINE
  5
18154
330
747D
100
AcDbEntity
  8
細線
100
AcDbLine
 10
6162.673057123651
 20
2881.154057264634
 30
0.0
 11
8586.673057123652
 21
2881.154057264634
 31
0.0
  0
LINE
  5
18155
330
747D
100
AcDbEntity
  8
細線
100
AcDbLine
 10
6162.673057123651
 20
3856.154057264634
 30
0.0
 11
8586.673057123652
 21
3856.154057264634
 31
0.0
  0
LINE
  5
18156
330
747D
100
AcDbEntity
  8
細線
100
AcDbLine
 10
6162.673057123651
 20
3791.154057264634
 30
0.0
 11
8586.673057123652
 21
3791.154057264634
 31
0.0
  0
LINE
  5
18157
330
747D
100
AcDbEntity
  8
細線
100
AcDbLine
 10
6162.673057123651
 20
3726.154057264634
 30
0.0
 11
8586.673057123652
 21
3726.154057264634
 31
0.0
  0
LINE
  5
18158
330
747D
100
AcDbEntity
  8
細線
100
AcDbLine
 10
6162.673057123651
 20
3661.154057264634
 30
0.0
 11
8586.673057123652
 21
3661.154057264634
 31
0.0
  0
LINE
  5
18159
330
747D
100
AcDbEntity
  8
細線
100
AcDbLine
 10
6162.673057123651
 20
3596.154057264634
 30
0.0
 11
8586.673057123652
 21
3596.154057264634
 31
0.0
  0
LINE
  5
1815A
330
747D
100
AcDbEntity
  8
細線
100
AcDbLine
 10
6162.673057123651
 20
3531.154057264634
 30
0.0
 11
8586.673057123652
 21
3531.154057264634
 31
0.0
  0
LINE
  5
1815B
330
747D
100
AcDbEntity
  8
細線
100
AcDbLine
 10
6162.673057123651
 20
4051.154057264634
 30
0.0
 11
8586.673057123652
 21
4051.154057264634
 31
0.0
  0
LINE
  5
1815C
330
747D
100
AcDbEntity
  8
細線
100
AcDbLine
 10
6162.673057123651
 20
3986.154057264633
 30
0.0
 11
8586.673057123652
 21
3986.154057264633
 31
0.0
  0
LINE
  5
1815D
330
747D
100
AcDbEntity
  8
細線
100
AcDbLine
 10
6162.673057123651
 20
3921.154057264633
 30
0.0
 11
8586.673057123652
 21
3921.154057264633
 31
0.0
  0
LINE
  5
1815E
330
747D
100
AcDbEntity
  8
部品1
100
AcDbLine
 10
3429.673057123655
 20
4211.154057264633
 30
0.0
 11
6114.673057123655
 21
4211.154057264633
 31
0.0
  0
LINE
  5
1815F
330
747D
100
AcDbEntity
  8
部品1
100
AcDbLine
 10
8586.673057123658
 20
4211.154057264635
 30
0.0
 11
8586.673057123652
 21
2286.154057264634
 31
0.0
  0
LINE
  5
18160
330
747D
100
AcDbEntity
  8
部品1
100
AcDbLine
 10
3532.673057123655
 20
4211.154057264633
 30
0.0
 11
3532.673057123655
 21
2286.154057264634
 31
0.0
  0
LINE
  5
18161
330
747D
100
AcDbEntity
  8
破線
 48
5.0
100
AcDbLine
 10
3484.673057123655
 20
1886.154057264641
 30
0.0
 11
3429.673057123655
 21
1886.154057264641
 31
0.0
  0
LINE
  5
18162
330
747D
100
AcDbEntity
  8
破線
 48
5.0
100
AcDbLine
 10
8689.673057123654
 20
1886.154057264634
 30
0.0
 11
8634.673057123654
 21
1886.154057264634
 31
0.0
  0
LINE
  5
18163
330
747D
100
AcDbEntity
  8
破線
 48
5.0
100
AcDbLine
 10
3484.673057123655
 20
2136.154057264634
 30
0.0
 11
3484.673057123655
 21
1886.154057264634
 31
0.0
  0
LINE
  5
18164
330
747D
100
AcDbEntity
  8
破線
 48
5.0
100
AcDbLine
 10
8634.673057123654
 20
2136.154057264634
 30
0.0
 11
8634.673057123654
 21
1886.154057264634
 31
0.0
  0
LINE
  5
18165
330
747D
100
AcDbEntity
  8
破線
 48
5.0
100
AcDbLine
 10
3429.673057123655
 20
2136.154057264634
 30
0.0
 11
3429.673057123655
 21
1886.154057264634
 31
0.0
  0
LINE
  5
18166
330
747D
100
AcDbEntity
  8
破線
 48
5.0
100
AcDbLine
 10
8689.673057123654
 20
2136.154057264634
 30
0.0
 11
8689.673057123654
 21
1886.154057264634
 31
0.0
  0
LINE
  5
1816D
330
747D
100
AcDbEntity
  8
部品1
100
AcDbLine
 10
8689.673057123654
 20
4470.154057264637
 30
0.0
 11
8689.673057123654
 21
2136.154057264634
 31
0.0
  0
LINE
  5
1816E
330
747D
100
AcDbEntity
  8
部品1
100
AcDbLine
 10
3484.673057123655
 20
4211.154057264632
 30
0.0
 11
3484.673057123655
 21
2136.154057264634
 31
0.0
  0
LINE
  5
1816F
330
747D
100
AcDbEntity
  8
部品1
100
AcDbLine
 10
8634.673057123654
 20
4211.154057264632
 30
0.0
 11
8634.673057123654
 21
2136.154057264634
 31
0.0
  0
LINE
  5
18170
330
747D
100
AcDbEntity
  8
部品1
100
AcDbLine
 10
3429.673057123655
 20
4470.154057264637
 30
0.0
 11
3429.673057123655
 21
2136.154057264634
 31
0.0
  0
LINE
  5
18171
330
747D
100
AcDbEntity
  8
部品1
100
AcDbLine
 10
3484.673057123655
 20
2236.154057264634
 30
0.0
 11
6004.673057123655
 21
2236.154057264634
 31
0.0
  0
DIMENSION
  5
18172
330
747D
100
AcDbEntity
  8
寸法
 48
50.0
100
AcDbDimension
  2
*D32
 10
3429.673057123655
 20
5010.247226604107
 30
0.0
 11
6059.673057123656
 21
5010.247226604107
 31
0.0
 70
   160
  1
柱外寸法<>
 71
     5
 42
5260.000000000002
  3
INABA_S40G
100
AcDbAlignedDimension
 13
8689.673057123657
 23
4611.154057264638
 33
0.0
 14
3429.673057123655
 24
4611.15405726464
 34
0.0
100
AcDbRotatedDimension
  0
DIMENSION
  5
18173
330
747D
100
AcDbEntity
  8
寸法
 48
50.0
100
AcDbDimension
  2
*D33
 10
8689.673057123657
 20
5010.247226604107
 30
0.0
 11
9053.158338497892
 21
5010.247226604107
 31
0.0
 70
   160
 71
     5
 42
50.0
  3
INABA_S40G
100
AcDbAlignedDimension
 13
8739.673057123658
 23
4611.154057264636
 33
0.0
 14
8689.673057123657
 24
4611.154057264638
 34
0.0
100
AcDbRotatedDimension
  0
DIMENSION
  5
18174
330
747D
100
AcDbEntity
  8
寸法
 48
50.0
100
AcDbDimension
  2
*D34
 10
8739.673057123658
 20
5226.773326222552
 30
0.0
 11
6059.673057123656
 21
5226.773326222552
 31
0.0
 70
   160
 71
     5
 42
5360.000000000002
  3
INABA_S40G
100
AcDbAlignedDimension
 13
3379.673057123655
 23
4611.154057264638
 33
0.0
 14
8739.673057123658
 24
4611.154057264636
 34
0.0
100
AcDbRotatedDimension
  0
DIMENSION
  5
18175
330
747D
100
AcDbEntity
  8
寸法
 48
50.0
100
AcDbDimension
  2
*D35
 10
3379.673057123655
 20
5010.247226604107
 30
0.0
 11
3066.187775749408
 21
5010.247226604107
 31
0.0
 70
   160
 71
     5
 42
50.0
  3
INABA_S40G
100
AcDbAlignedDimension
 13
3429.673057123655
 23
4611.15405726464
 33
0.0
 14
3379.673057123655
 24
4611.154057264638
 34
0.0
100
AcDbRotatedDimension
1001
ACAD
1000
DSTYLE
1002
{
1002
}
  0
LINE
  5
18176
330
747D
100
AcDbEntity
  8
部品1
 48
50.0
100
AcDbLine
 10
6059.673057123656
 20
4211.154057264633
 30
0.0
 11
6059.673057123655
 21
4470.154057264637
 31
0.0
  0
LINE
  5
18177
330
747D
100
AcDbEntity
  8
部品1
 48
50.0
100
AcDbLine
 10
6049.673057123655
 20
4470.154057264637
 30
0.0
 11
6049.673057123653
 21
4611.154057264638
 31
0.0
  0
LINE
  5
181A4
330
747D
100
AcDbEntity
  8
部品1
 48
50.0
100
AcDbLine
 10
6049.673057123655
 20
4611.154057264637
 30
0.0
 11
3387.081478230088
 21
4611.154057264637
 31
0.0
  0
LINE
  5
181A5
330
747D
100
AcDbEntity
  8
部品1
 48
50.0
100
AcDbLine
 10
6059.673057123655
 20
4470.154057264637
 30
0.0
 11
3400.296801691118
 21
4470.154057264637
 31
0.0
  0
LINE
  5
181A6
330
747D
100
AcDbEntity
  8
細線
 48
50.0
100
AcDbLine
 10
6049.673057123655
 20
4583.127299828105
 30
0.0
 11
3381.831708135614
 21
4583.127299828425
 31
0.0
  0
LINE
  5
181A7
330
747D
100
AcDbEntity
  8
細線
 48
50.0
100
AcDbLine
 10
6049.673057123655
 20
4490.927299828421
 30
0.0
 11
3390.067738660459
 21
4490.927299828425
 31
0.0
  0
LINE
  5
181A8
330
747D
100
AcDbEntity
  8
細線
 48
50.0
100
AcDbLine
 10
3412.673057123655
 20
4611.154057264637
 30
0.0
 11
3412.673057123655
 21
4470.154057264637
 31
0.0
  0
ARC
  5
181A9
330
747D
100
AcDbEntity
  8
部品1
100
AcDbCircle
 10
3387.081478230088
 20
4604.154057264637
 30
0.0
 40
7.0
100
AcDbArc
 50
90.0
 51
183.2473427903377
  0
ARC
  5
181AA
330
747D
100
AcDbEntity
  8
部品1
100
AcDbCircle
 10
3400.296801691118
 20
4477.154057264637
 30
0.0
 40
7.0
100
AcDbArc
 50
183.2473427903377
 51
270.0
  0
ARC
  5
181AB
330
747D
100
AcDbEntity
  8
部品1
 48
50.0
100
AcDbCircle
 10
3381.924991480446
 20
4583.821056426324
 30
0.0
 40
0.7
100
AcDbArc
 50
183.2473427903897
 51
262.3418727926349
  0
ARC
  5
181AC
330
747D
100
AcDbEntity
  8
部品1
 48
50.0
100
AcDbCircle
 10
3390.161022005282
 20
4491.62105642632
 30
0.0
 40
0.7
100
AcDbArc
 50
183.2473427902856
 51
262.3418727926349
  0
ARC
  5
181AD
330
747D
100
AcDbEntity
  8
部品1
 48
50.0
100
AcDbCircle
 10
3389.667952896722
 20
4487.954057264636
 30
0.0
 40
3.0
100
AcDbArc
 50
3.247342790337682
 51
82.3418727926348
  0
ARC
  5
181AE
330
747D
100
AcDbEntity
  8
部品1
 48
50.0
100
AcDbCircle
 10
3381.431922371878
 20
4580.154057264637
 30
0.0
 40
3.0
100
AcDbArc
 50
3.247342790337682
 51
82.3418727926348
  0
LINE
  5
181AF
330
747D
100
AcDbEntity
  8
部品1
100
AcDbLine
 10
3384.427105268063
 20
4580.32399671974
 30
0.0
 11
3389.462145996179
 21
4491.581403886797
 31
0.0
  0
LINE
  5
181B0
330
747D
100
AcDbEntity
  8
部品1
100
AcDbLine
 10
3392.663135792915
 20
4488.12399671974
 30
0.0
 11
3393.308041600023
 21
4476.7575318694
 31
0.0
  0
LINE
  5
181B1
330
747D
100
AcDbEntity
  8
部品1
100
AcDbLine
 10
3380.092718138985
 20
4603.757531869396
 30
0.0
 11
3381.226115471334
 21
4583.781403886798
 31
0.0
  0
LINE
  5
181B2
330
747D
100
AcDbEntity
  8
部品1
100
AcDbLine
 10
3429.673057123655
 20
4376.154057264634
 30
0.0
 11
6059.673057123655
 21
4376.154057264634
 31
0.0
  0
LINE
  5
181B3
330
747D
100
AcDbEntity
  8
部品1
100
AcDbLine
 10
6059.673057123653
 20
4376.154057264634
 30
0.0
 11
8689.673057123654
 21
4376.154057264634
 31
0.0
  0
ARC
  5
181B4
330
747D
100
AcDbEntity
  8
部品1
100
AcDbCircle
 10
8732.264636017225
 20
4604.154057264637
 30
0.0
 40
7.0
100
AcDbArc
 50
356.7526572096623
 51
90.0
  0
ARC
  5
181B5
330
747D
100
AcDbEntity
  8
部品1
100
AcDbCircle
 10
8719.04931255619
 20
4477.154057264637
 30
0.0
 40
7.0
100
AcDbArc
 50
270.0
 51
356.7526572096623
  0
ARC
  5
181B6
330
747D
100
AcDbEntity
  8
部品1
 48
50.0
100
AcDbCircle
 10
8737.421122766869
 20
4583.821056426324
 30
0.0
 40
0.7
100
AcDbArc
 50
277.6581272073652
 51
356.7526572096103
  0
ARC
  5
181B7
330
747D
100
AcDbEntity
  8
部品1
 48
50.0
100
AcDbCircle
 10
8729.185092242024
 20
4491.62105642632
 30
0.0
 40
0.7
100
AcDbArc
 50
277.6581272073652
 51
356.7526572097143
  0
ARC
  5
181B8
330
747D
100
AcDbEntity
  8
部品1
 48
50.0
100
AcDbCircle
 10
8729.678161350587
 20
4487.954057264636
 30
0.0
 40
3.0
100
AcDbArc
 50
97.65812720736519
 51
176.7526572096623
  0
ARC
  5
181B9
330
747D
100
AcDbEntity
  8
部品1
 48
50.0
100
AcDbCircle
 10
8737.914191875431
 20
4580.154057264637
 30
0.0
 40
3.0
100
AcDbArc
 50
97.65812720736519
 51
176.7526572096623
  0
LINE
  5
181BA
330
747D
100
AcDbEntity
  8
部品1
100
AcDbLine
 10
8734.919008979245
 20
4580.32399671974
 30
0.0
 11
8729.883968251135
 21
4491.581403886797
 31
0.0
  0
LINE
  5
181BB
330
747D
100
AcDbEntity
  8
部品1
100
AcDbLine
 10
8726.682978454402
 20
4488.12399671974
 30
0.0
 11
8726.038072647289
 21
4476.7575318694
 31
0.0
  0
LINE
  5
181BC
330
747D
100
AcDbEntity
  8
細線
 48
50.0
100
AcDbLine
 10
8706.673057123657
 20
4611.154057264637
 30
0.0
 11
8706.673057123657
 21
4470.154057264637
 31
0.0
  0
LINE
  5
181BD
330
747D
100
AcDbEntity
  8
部品1
100
AcDbLine
 10
8739.253396108322
 20
4603.757531869396
 30
0.0
 11
8738.119998775976
 21
4583.781403886798
 31
0.0
  0
LINE
  5
181BE
330
747D
100
AcDbEntity
  8
細線
 48
50.0
100
AcDbLine
 10
8729.278375586897
 20
4490.927299828104
 30
0.0
 11
6049.673057123655
 21
4490.927299828425
 31
0.0
  0
LINE
  5
181BF
330
747D
100
AcDbEntity
  8
細線
 48
50.0
100
AcDbLine
 10
8737.51440611174
 20
4583.127299828105
 30
0.0
 11
6049.673057123655
 21
4583.127299828105
 31
0.0
  0
LINE
  5
181C0
330
747D
100
AcDbEntity
  8
部品1
 48
50.0
100
AcDbLine
 10
8719.04931255619
 20
4470.154057264637
 30
0.0
 11
6059.673057123655
 21
4470.154057264637
 31
0.0
  0
LINE
  5
181C1
330
747D
100
AcDbEntity
  8
部品1
 48
50.0
100
AcDbLine
 10
8732.264636017225
 20
4611.154057264637
 30
0.0
 11
6049.673057123655
 21
4611.154057264637
 31
0.0
  0
LWPOLYLINE
  5
181EF
330
747D
100
AcDbEntity
  8
部品1
100
AcDbPolyline
 90
        4
 70
     1
 43
0.0
 10
5677.937724009435
 20
5991.042662259929
 10
5677.937724009435
 20
5751.150340714398
 10
6441.408390237874
 20
5751.150340714398
 10
6441.408390237874
 20
5991.042662259929
  0
TEXT
  5
181F0
330
747D
100
AcDbEntity
  8
部品1
100
AcDbText
 10
5767.857333838472
 20
5798.149133041406
 30
0.0
 40
135.0
  1
平面図
  7
STYLE2
100
AcDbText
  0
TEXT
  5
181F1
330
747D
100
AcDbEntity
  8
部品1
100
AcDbText
 10
5768.463127747377
 20
1293.26052804611
 30
0.0
 40
135.0
  1
正面図
  7
STYLE2
100
AcDbText
  0
LWPOLYLINE
  5
181F2
330
747D
100
AcDbEntity
  8
部品1
100
AcDbPolyline
 90
        4
 70
     1
 43
0.0
 10
5677.937724009421
 20
1486.154057264633
 10
5677.937724009421
 20
1246.261735719101
 10
6441.408390237862
 20
1246.261735719101
 10
6441.408390237862
 20
1486.154057264633
  0
LINE
  5
182F6
330
747D
100
AcDbEntity
  8
部品1
100
AcDbLine
 10
2590.903465777272
 20
2266.057867832298
 30
0.0
 11
2515.903465777272
 21
2136.154057264634
 31
0.0
  0
TEXT
  5
182F7
330
747D
100
AcDbEntity
  8
部品1
100
AcDbText
 10
2619.008407902045
 20
2172.260960870535
 30
0.0
 40
125.0
  1
G.L
  7
STYLE2
100
AcDbText
  0
LINE
  5
182F8
330
747D
100
AcDbEntity
  8
部品1
100
AcDbLine
 10
2515.903465777272
 20
2136.154057264634
 30
0.0
 11
2440.903465777272
 21
2266.057867832298
 31
0.0
  0
LINE
  5
182F9
330
747D
100
AcDbEntity
  8
部品1
100
AcDbLine
 10
2440.903465777272
 20
2266.057867832298
 30
0.0
 11
2590.903465777272
 21
2266.057867832298
 31
0.0
  0
LINE
  5
182FA
330
747D
100
AcDbEntity
  8
Ｇ．Ｌ
100
AcDbLine
 10
2341.406454453172
 20
2136.154057264634
 30
0.0
 11
14945.79354554683
 21
2136.154057264634
 31
0.0
  0
MTEXT
  5
1893C
330
747D
100
AcDbEntity
  8
寸法
 62
     7
 48
50.0
100
AcDbMText
 10
4107.388255196299
 20
9776.903693512998
 30
0.0
 40
96.0
 41
0.0
 71
     5
 72
     1
  1
棚 3段
  7
STYLE1
 73
     1
 44
1.0
1001
ACAD
1000
MTEXTBEGIN
1070
    73
1070
     1
1070
    44
1040
1.0
1070
    74
1070
     0
1000
MTEXTEND
  0
MTEXT
  5
18B1C
330
747D
100
AcDbEntity
  8
寸法
 62
     7
 48
50.0
100
AcDbMText
 10
5407.388255196301
 20
9776.903693513045
 30
0.0
 40
96.0
 41
0.0
 71
     5
 72
     1
  1
棚 3段
  7
STYLE1
 73
     1
 44
1.0
1001
ACAD
1000
MTEXTBEGIN
1070
    73
1070
     1
1070
    44
1040
1.0
1070
    74
1070
     0
1000
MTEXTEND
  0
MTEXT
  5
18B1D
330
747D
100
AcDbEntity
  8
寸法
 62
     7
 48
50.0
100
AcDbMText
 10
8037.388255196301
 20
9776.903693513045
 30
0.0
 40
96.0
 41
0.0
 71
     5
 72
     1
  1
棚 3段
  7
STYLE1
 73
     1
 44
1.0
1001
ACAD
1000
MTEXTBEGIN
1070
    73
1070
     1
1070
    44
1040
1.0
1070
    74
1070
     0
1000
MTEXTEND
  0
MTEXT
  5
18B1E
330
747D
100
AcDbEntity
  8
寸法
 62
     7
 48
50.0
100
AcDbMText
 10
6737.388255196299
 20
9776.903693512998
 30
0.0
 40
96.0
 41
0.0
 71
     5
 72
     1
  1
棚 3段
  7
STYLE1
 73
     1
 44
1.0
1001
ACAD
1000
MTEXTBEGIN
1070
    73
1070
     1
1070
    44
1040
1.0
1070
    74
1070
     0
1000
MTEXTEND
  0
DIMENSION
  5
18C97
330
747D
100
AcDbEntity
  8
寸法
100
AcDbDimension
  2
*D36
 10
8569.149210862326
 20
9369.059754790699
 30
0.0
 11
7979.158372861959
 21
9369.059754790699
 31
0.0
 70
   160
 71
     5
 42
1273.000000000012
  3
INABA_S40G
100
AcDbAlignedDimension
 13
7388.173057123663
 23
9712.497424545974
 33
0.0
 14
8661.173057123674
 24
9712.497424545967
 34
0.0
100
AcDbRotatedDimension
1001
ACAD
1000
DSTYLE
1002
{
1002
}
  0
DIMENSION
  5
18CBC
330
747D
100
AcDbEntity
  8
寸法
100
AcDbDimension
  2
*D37
 10
7269.149210862352
 20
9369.059754790699
 30
0.0
 11
6632.649210862346
 21
9469.071565814321
 31
0.0
 70
    32
 71
     5
 42
1273.000000000012
  3
INABA_S40G
100
AcDbAlignedDimension
 13
6088.173057123664
 23
9712.497424545869
 33
0.0
 14
7361.173057123676
 24
9712.497424545862
 34
0.0
100
AcDbRotatedDimension
1001
ACAD
1000
DSTYLE
1002
{
1002
}
  0
LINE
  5
18EAA
330
747D
100
AcDbEntity
  8
補助
  6
PHANTOM
 62
   230
 48
50.0
100
AcDbLine
 10
140.0
 20
0.0
 30
0.0
 11
139.9999999999995
 21
11409.6
 31
0.0
  0
TEXT
  5
18EC7
330
747D
100
AcDbEntity
  8
文字
 62
     7
 48
50.0
100
AcDbText
 10
14500.43014411085
 20
483.8967129911414
 30
0.0
 40
160.0
  1
FXN-80HYL-2
  7
STYLE2
100
AcDbText
  0
DIMENSION
  5
19005
330
747D
100
AcDbEntity
  8
寸法
 48
50.0
100
AcDbDimension
  2
*D38
 10
8977.216159445401
 20
4184.154057264633
 30
0.0
 11
8877.216159445399
 21
3241.154057264635
 31
0.0
 70
    32
  1
有効開口部高サ <>
 71
     5
 42
1885.999999999999
  3
INABA_S40G
100
AcDbAlignedDimension
 13
8689.673057123654
 23
2298.154057264634
 33
0.0
 14
8689.673057123654
 24
4184.154057264633
 34
0.0
 50
90.0
100
AcDbRotatedDimension
  0
DIMENSION
  5
19006
330
747D
100
AcDbEntity
  8
寸法
 48
50.0
100
AcDbDimension
  2
*D39
 10
8977.216159445401
 20
4211.154057264635
 30
0.0
 11
9117.385982691768
 21
4212.121257104292
 31
0.0
 70
   160
 71
     5
 42
27.00000000000182
  3
INABA_S40G
100
AcDbAlignedDimension
 13
8689.673057123654
 23
4184.154057264633
 33
0.0
 14
8689.673057123654
 24
4211.154057264635
 34
0.0
 50
90.0
100
AcDbRotatedDimension
1001
ACAD
1000
DSTYLE
1002
{
1070
   279
1070
     2
1002
}
  0
DIMENSION
  5
19007
330
747D
100
AcDbEntity
  8
寸法
 48
50.0
100
AcDbDimension
  2
*D40
 10
8977.216159445402
 20
4376.154057264634
 30
0.0
 11
8977.216159445401
 21
4614.639338638873
 31
0.0
 70
   160
 71
     5
 42
164.9999999999991
  3
INABA_S40G
100
AcDbAlignedDimension
 13
8689.673057123654
 23
4211.154057264635
 33
0.0
 14
8689.673057123654
 24
4376.154057264634
 34
0.0
 50
90.0
100
AcDbRotatedDimension
1001
ACAD
1000
DSTYLE
1002
{
1002
}
  0
ARC
  5
1926F
330
747D
100
AcDbEntity
  8
部品1
 48
0.01
100
AcDbCircle
 10
4217.673057123657
 20
4440.154057264631
 30
0.0
 40
2.0
100
AcDbArc
 50
0.0
 51
90.0
  0
ARC
  5
19270
330
747D
100
AcDbEntity
  8
部品1
 48
0.01
100
AcDbCircle
 10
4041.673057123657
 20
4440.154057264631
 30
0.0
 40
2.0
100
AcDbArc
 50
90.0
 51
180.0
  0
LINE
  5
19271
330
747D
100
AcDbEntity
  8
細線
100
AcDbLine
 10
4129.673057123652
 20
4412.654057264632
 30
0.0
 11
4203.673057123657
 21
4412.654057264632
 31
0.0
  0
LINE
  5
19272
330
747D
100
AcDbEntity
  8
細線
100
AcDbLine
 10
4129.673057123656
 20
4435.654057264631
 30
0.0
 11
4055.673057123657
 21
4435.654057264631
 31
0.0
  0
LINE
  5
19273
330
747D
100
AcDbEntity
  8
細線
100
AcDbLine
 10
4055.673057123657
 20
4412.654057264632
 30
0.0
 11
4129.673057123656
 21
4412.654057264632
 31
0.0
  0
LINE
  5
19274
330
747D
100
AcDbEntity
  8
細線
100
AcDbLine
 10
4203.673057123657
 20
4435.654057264631
 30
0.0
 11
4129.673057123656
 21
4435.654057264631
 31
0.0
  0
LINE
  5
19275
330
747D
100
AcDbEntity
  8
細線
100
AcDbLine
 10
4203.673057123657
 20
4412.654057264632
 30
0.0
 11
4203.673057123657
 21
4435.654057264631
 31
0.0
  0
LINE
  5
19276
330
747D
100
AcDbEntity
  8
細線
100
AcDbLine
 10
4055.673057123657
 20
4435.654057264631
 30
0.0
 11
4055.673057123657
 21
4412.654057264632
 31
0.0
  0
LINE
  5
19277
330
747D
100
AcDbEntity
  8
部品1
 48
0.01
100
AcDbLine
 10
4219.673057123652
 20
4408.654057264632
 30
0.0
 11
4219.673057123656
 21
4440.154057264631
 31
0.0
  0
LINE
  5
19278
330
747D
100
AcDbEntity
  8
部品1
 48
0.01
100
AcDbLine
 10
4039.673057123656
 20
4440.154057264631
 30
0.0
 11
4039.673057123656
 21
4408.654057264632
 31
0.0
  0
LINE
  5
19279
330
747D
100
AcDbEntity
  8
部品1
 48
0.01
100
AcDbLine
 10
4217.673057123657
 20
4442.154057264632
 30
0.0
 11
4041.673057123657
 21
4442.154057264632
 31
0.0
  0
LINE
  5
1927A
330
747D
100
AcDbEntity
  8
細線
100
AcDbLine
 10
4055.673057123657
 20
4429.654057264632
 30
0.0
 11
4129.673057123656
 21
4429.654057264632
 31
0.0
  0
LINE
  5
1927B
330
747D
100
AcDbEntity
  8
細線
100
AcDbLine
 10
4055.673057123657
 20
4423.654057264632
 30
0.0
 11
4129.673057123656
 21
4423.654057264632
 31
0.0
  0
LINE
  5
1927C
330
747D
100
AcDbEntity
  8
細線
100
AcDbLine
 10
4055.673057123653
 20
4417.654057264631
 30
0.0
 11
4129.673057123656
 21
4417.654057264631
 31
0.0
  0
LINE
  5
1927D
330
747D
100
AcDbEntity
  8
細線
100
AcDbLine
 10
4055.673057123657
 20
4429.654057264632
 30
0.0
 11
4124.673057123657
 21
4429.654057264632
 31
0.0
  0
LINE
  5
1927E
330
747D
100
AcDbEntity
  8
細線
100
AcDbLine
 10
4203.673057123653
 20
4429.654057264632
 30
0.0
 11
4129.673057123656
 21
4429.654057264632
 31
0.0
  0
LINE
  5
1927F
330
747D
100
AcDbEntity
  8
細線
100
AcDbLine
 10
4203.673057123653
 20
4417.654057264631
 30
0.0
 11
4129.673057123656
 21
4417.654057264631
 31
0.0
  0
LINE
  5
19280
330
747D
100
AcDbEntity
  8
細線
100
AcDbLine
 10
4203.673057123653
 20
4423.654057264632
 30
0.0
 11
4129.673057123656
 21
4423.654057264632
 31
0.0
  0
LINE
  5
19281
330
747D
100
AcDbEntity
  8
細線
100
AcDbLine
 10
4129.673057123656
 20
4435.654057264631
 30
0.0
 11
4129.673057123652
 21
4412.654057264632
 31
0.0
  0
LINE
  5
19282
330
747D
100
AcDbEntity
  8
細線
100
AcDbLine
 10
5359.673057123657
 20
4435.654057264631
 30
0.0
 11
5359.673057123657
 21
4412.654057264632
 31
0.0
  0
LINE
  5
19283
330
747D
100
AcDbEntity
  8
細線
100
AcDbLine
 10
5285.673057123656
 20
4423.654057264632
 30
0.0
 11
5359.673057123657
 21
4423.654057264632
 31
0.0
  0
LINE
  5
19284
330
747D
100
AcDbEntity
  8
細線
100
AcDbLine
 10
5285.673057123656
 20
4417.654057264631
 30
0.0
 11
5359.673057123657
 21
4417.654057264631
 31
0.0
  0
LINE
  5
19285
330
747D
100
AcDbEntity
  8
細線
100
AcDbLine
 10
5285.673057123656
 20
4429.654057264632
 30
0.0
 11
5359.673057123657
 21
4429.654057264632
 31
0.0
  0
LINE
  5
19286
330
747D
100
AcDbEntity
  8
細線
100
AcDbLine
 10
5433.673057123656
 20
4429.654057264632
 30
0.0
 11
5364.673057123656
 21
4429.654057264632
 31
0.0
  0
LINE
  5
19287
330
747D
100
AcDbEntity
  8
細線
100
AcDbLine
 10
5433.673057123656
 20
4417.654057264631
 30
0.0
 11
5359.673057123657
 21
4417.654057264631
 31
0.0
  0
LINE
  5
19288
330
747D
100
AcDbEntity
  8
細線
100
AcDbLine
 10
5433.673057123656
 20
4423.654057264632
 30
0.0
 11
5359.673057123657
 21
4423.654057264632
 31
0.0
  0
LINE
  5
19289
330
747D
100
AcDbEntity
  8
細線
100
AcDbLine
 10
5433.673057123656
 20
4429.654057264632
 30
0.0
 11
5359.673057123657
 21
4429.654057264632
 31
0.0
  0
LINE
  5
1928A
330
747D
100
AcDbEntity
  8
部品1
 48
0.01
100
AcDbLine
 10
5271.673057123656
 20
4442.154057264632
 30
0.0
 11
5447.673057123656
 21
4442.154057264632
 31
0.0
  0
LINE
  5
1928B
330
747D
100
AcDbEntity
  8
部品1
 48
0.01
100
AcDbLine
 10
5449.673057123657
 20
4440.154057264631
 30
0.0
 11
5449.673057123657
 21
4408.654057264632
 31
0.0
  0
LINE
  5
1928C
330
747D
100
AcDbEntity
  8
部品1
 48
0.01
100
AcDbLine
 10
5269.673057123657
 20
4408.654057264632
 30
0.0
 11
5269.673057123657
 21
4440.154057264631
 31
0.0
  0
LINE
  5
1928D
330
747D
100
AcDbEntity
  8
細線
100
AcDbLine
 10
5433.673057123656
 20
4435.654057264631
 30
0.0
 11
5433.673057123656
 21
4412.654057264632
 31
0.0
  0
LINE
  5
1928E
330
747D
100
AcDbEntity
  8
細線
100
AcDbLine
 10
5285.673057123656
 20
4412.654057264632
 30
0.0
 11
5285.673057123656
 21
4435.654057264631
 31
0.0
  0
LINE
  5
1928F
330
747D
100
AcDbEntity
  8
細線
100
AcDbLine
 10
5285.673057123656
 20
4435.654057264631
 30
0.0
 11
5359.673057123657
 21
4435.654057264631
 31
0.0
  0
LINE
  5
19290
330
747D
100
AcDbEntity
  8
細線
100
AcDbLine
 10
5433.673057123656
 20
4412.654057264632
 30
0.0
 11
5359.673057123657
 21
4412.654057264632
 31
0.0
  0
LINE
  5
19291
330
747D
100
AcDbEntity
  8
細線
100
AcDbLine
 10
5359.673057123657
 20
4435.654057264631
 30
0.0
 11
5433.673057123656
 21
4435.654057264631
 31
0.0
  0
LINE
  5
19292
330
747D
100
AcDbEntity
  8
細線
100
AcDbLine
 10
5359.673057123657
 20
4412.654057264632
 30
0.0
 11
5285.673057123656
 21
4412.654057264632
 31
0.0
  0
ARC
  5
19293
330
747D
100
AcDbEntity
  8
部品1
 48
0.01
100
AcDbCircle
 10
5447.673057123656
 20
4440.154057264631
 30
0.0
 40
2.0
100
AcDbArc
 50
0.0
 51
90.0
  0
ARC
  5
19294
330
747D
100
AcDbEntity
  8
部品1
 48
0.01
100
AcDbCircle
 10
5271.673057123656
 20
4440.154057264631
 30
0.0
 40
2.0
100
AcDbArc
 50
90.0
 51
180.0
  0
ARC
  5
19295
330
747D
100
AcDbEntity
  8
部品1
 48
0.01
100
AcDbCircle
 10
4217.673057123653
 20
4408.654057264632
 30
0.0
 40
2.0
100
AcDbArc
 50
270.0
 51
0.0
  0
ARC
  5
19296
330
747D
100
AcDbEntity
  8
部品1
 48
0.01
100
AcDbCircle
 10
4041.673057123657
 20
4408.654057264632
 30
0.0
 40
2.0
100
AcDbArc
 50
180.0
 51
270.0
  0
LINE
  5
19297
330
747D
100
AcDbEntity
  8
部品1
 48
0.01
100
AcDbLine
 10
4041.673057123657
 20
4406.654057264631
 30
0.0
 11
4217.673057123653
 21
4406.654057264631
 31
0.0
  0
LINE
  5
19298
330
747D
100
AcDbEntity
  8
部品1
 48
0.01
100
AcDbLine
 10
5447.673057123656
 20
4406.654057264631
 30
0.0
 11
5271.673057123656
 21
4406.654057264631
 31
0.0
  0
ARC
  5
19299
330
747D
100
AcDbEntity
  8
部品1
 48
0.01
100
AcDbCircle
 10
5447.673057123656
 20
4408.654057264632
 30
0.0
 40
2.0
100
AcDbArc
 50
270.0
 51
0.0
  0
ARC
  5
1929A
330
747D
100
AcDbEntity
  8
部品1
 48
0.01
100
AcDbCircle
 10
5271.673057123656
 20
4408.654057264632
 30
0.0
 40
2.0
100
AcDbArc
 50
180.0
 51
270.0
  0
ARC
  5
1939B
330
747D
100
AcDbEntity
  8
部品1
 48
0.01
100
AcDbCircle
 10
7901.673057123656
 20
4408.654057264632
 30
0.0
 40
2.0
100
AcDbArc
 50
180.0
 51
270.0
  0
ARC
  5
1939C
330
747D
100
AcDbEntity
  8
部品1
 48
0.01
100
AcDbCircle
 10
8077.673057123657
 20
4408.654057264632
 30
0.0
 40
2.0
100
AcDbArc
 50
270.0
 51
0.0
  0
LINE
  5
1939D
330
747D
100
AcDbEntity
  8
部品1
 48
0.01
100
AcDbLine
 10
8077.673057123657
 20
4406.654057264631
 30
0.0
 11
7901.673057123656
 21
4406.654057264631
 31
0.0
  0
LINE
  5
1939E
330
747D
100
AcDbEntity
  8
部品1
 48
0.01
100
AcDbLine
 10
6671.673057123657
 20
4406.654057264631
 30
0.0
 11
6847.673057123653
 21
4406.654057264631
 31
0.0
  0
ARC
  5
1939F
330
747D
100
AcDbEntity
  8
部品1
 48
0.01
100
AcDbCircle
 10
6671.673057123657
 20
4408.654057264632
 30
0.0
 40
2.0
100
AcDbArc
 50
180.0
 51
270.0
  0
ARC
  5
193A0
330
747D
100
AcDbEntity
  8
部品1
 48
0.01
100
AcDbCircle
 10
6847.673057123653
 20
4408.654057264632
 30
0.0
 40
2.0
100
AcDbArc
 50
270.0
 51
0.0
  0
ARC
  5
193A1
330
747D
100
AcDbEntity
  8
部品1
 48
0.01
100
AcDbCircle
 10
7901.673057123656
 20
4440.154057264631
 30
0.0
 40
2.0
100
AcDbArc
 50
90.0
 51
180.0
  0
ARC
  5
193A2
330
747D
100
AcDbEntity
  8
部品1
 48
0.01
100
AcDbCircle
 10
8077.673057123657
 20
4440.154057264631
 30
0.0
 40
2.0
100
AcDbArc
 50
0.0
 51
90.0
  0
LINE
  5
193A3
330
747D
100
AcDbEntity
  8
細線
100
AcDbLine
 10
7989.673057123657
 20
4412.654057264632
 30
0.0
 11
7915.673057123656
 21
4412.654057264632
 31
0.0
  0
LINE
  5
193A4
330
747D
100
AcDbEntity
  8
細線
100
AcDbLine
 10
7989.673057123657
 20
4435.654057264631
 30
0.0
 11
8063.673057123656
 21
4435.654057264631
 31
0.0
  0
LINE
  5
193A5
330
747D
100
AcDbEntity
  8
細線
100
AcDbLine
 10
8063.673057123656
 20
4412.654057264632
 30
0.0
 11
7989.673057123657
 21
4412.654057264632
 31
0.0
  0
LINE
  5
193A6
330
747D
100
AcDbEntity
  8
細線
100
AcDbLine
 10
7915.673057123656
 20
4435.654057264631
 30
0.0
 11
7989.673057123657
 21
4435.654057264631
 31
0.0
  0
LINE
  5
193A7
330
747D
100
AcDbEntity
  8
細線
100
AcDbLine
 10
7915.673057123656
 20
4412.654057264632
 30
0.0
 11
7915.673057123656
 21
4435.654057264631
 31
0.0
  0
LINE
  5
193A8
330
747D
100
AcDbEntity
  8
細線
100
AcDbLine
 10
8063.673057123656
 20
4435.654057264631
 30
0.0
 11
8063.673057123656
 21
4412.654057264632
 31
0.0
  0
LINE
  5
193A9
330
747D
100
AcDbEntity
  8
部品1
 48
0.01
100
AcDbLine
 10
7899.673057123656
 20
4408.654057264632
 30
0.0
 11
7899.673057123656
 21
4440.154057264631
 31
0.0
  0
LINE
  5
193AA
330
747D
100
AcDbEntity
  8
部品1
 48
0.01
100
AcDbLine
 10
8079.673057123656
 20
4440.154057264631
 30
0.0
 11
8079.673057123656
 21
4408.654057264632
 31
0.0
  0
LINE
  5
193AB
330
747D
100
AcDbEntity
  8
部品1
 48
0.01
100
AcDbLine
 10
7901.673057123656
 20
4442.154057264632
 30
0.0
 11
8077.673057123657
 21
4442.154057264632
 31
0.0
  0
LINE
  5
193AC
330
747D
100
AcDbEntity
  8
細線
100
AcDbLine
 10
8063.673057123656
 20
4429.654057264632
 30
0.0
 11
7989.673057123657
 21
4429.654057264632
 31
0.0
  0
LINE
  5
193AD
330
747D
100
AcDbEntity
  8
細線
100
AcDbLine
 10
8063.673057123656
 20
4423.654057264632
 30
0.0
 11
7989.673057123657
 21
4423.654057264632
 31
0.0
  0
LINE
  5
193AE
330
747D
100
AcDbEntity
  8
細線
100
AcDbLine
 10
8063.673057123656
 20
4417.654057264631
 30
0.0
 11
7989.673057123657
 21
4417.654057264631
 31
0.0
  0
LINE
  5
193AF
330
747D
100
AcDbEntity
  8
細線
100
AcDbLine
 10
8063.673057123656
 20
4429.654057264632
 30
0.0
 11
7994.673057123657
 21
4429.654057264632
 31
0.0
  0
LINE
  5
193B0
330
747D
100
AcDbEntity
  8
細線
100
AcDbLine
 10
7915.673057123656
 20
4429.654057264632
 30
0.0
 11
7989.673057123657
 21
4429.654057264632
 31
0.0
  0
LINE
  5
193B1
330
747D
100
AcDbEntity
  8
細線
100
AcDbLine
 10
7915.673057123656
 20
4417.654057264631
 30
0.0
 11
7989.673057123657
 21
4417.654057264631
 31
0.0
  0
LINE
  5
193B2
330
747D
100
AcDbEntity
  8
細線
100
AcDbLine
 10
7915.673057123656
 20
4423.654057264632
 30
0.0
 11
7989.673057123657
 21
4423.654057264632
 31
0.0
  0
LINE
  5
193B3
330
747D
100
AcDbEntity
  8
細線
100
AcDbLine
 10
7989.673057123657
 20
4435.654057264631
 30
0.0
 11
7989.673057123657
 21
4412.654057264632
 31
0.0
  0
LINE
  5
193B4
330
747D
100
AcDbEntity
  8
細線
100
AcDbLine
 10
6759.673057123656
 20
4435.654057264631
 30
0.0
 11
6759.673057123653
 21
4412.654057264632
 31
0.0
  0
LINE
  5
193B5
330
747D
100
AcDbEntity
  8
細線
100
AcDbLine
 10
6833.673057123653
 20
4423.654057264632
 30
0.0
 11
6759.673057123656
 21
4423.654057264632
 31
0.0
  0
LINE
  5
193B6
330
747D
100
AcDbEntity
  8
細線
100
AcDbLine
 10
6833.673057123653
 20
4417.654057264631
 30
0.0
 11
6759.673057123656
 21
4417.654057264631
 31
0.0
  0
LINE
  5
193B7
330
747D
100
AcDbEntity
  8
細線
100
AcDbLine
 10
6833.673057123653
 20
4429.654057264632
 30
0.0
 11
6759.673057123656
 21
4429.654057264632
 31
0.0
  0
LINE
  5
193B8
330
747D
100
AcDbEntity
  8
細線
100
AcDbLine
 10
6685.673057123657
 20
4429.654057264632
 30
0.0
 11
6754.673057123657
 21
4429.654057264632
 31
0.0
  0
LINE
  5
193B9
330
747D
100
AcDbEntity
  8
細線
100
AcDbLine
 10
6685.673057123652
 20
4417.654057264631
 30
0.0
 11
6759.673057123656
 21
4417.654057264631
 31
0.0
  0
LINE
  5
193BA
330
747D
100
AcDbEntity
  8
細線
100
AcDbLine
 10
6685.673057123657
 20
4423.654057264632
 30
0.0
 11
6759.673057123656
 21
4423.654057264632
 31
0.0
  0
LINE
  5
193BB
330
747D
100
AcDbEntity
  8
細線
100
AcDbLine
 10
6685.673057123657
 20
4429.654057264632
 30
0.0
 11
6759.673057123656
 21
4429.654057264632
 31
0.0
  0
LINE
  5
193BC
330
747D
100
AcDbEntity
  8
部品1
 48
0.01
100
AcDbLine
 10
6847.673057123657
 20
4442.154057264632
 30
0.0
 11
6671.673057123657
 21
4442.154057264632
 31
0.0
  0
LINE
  5
193BD
330
747D
100
AcDbEntity
  8
部品1
 48
0.01
100
AcDbLine
 10
6669.673057123657
 20
4440.154057264631
 30
0.0
 11
6669.673057123657
 21
4408.654057264632
 31
0.0
  0
LINE
  5
193BE
330
747D
100
AcDbEntity
  8
部品1
 48
0.01
100
AcDbLine
 10
6849.673057123652
 20
4408.654057264632
 30
0.0
 11
6849.673057123657
 21
4440.154057264631
 31
0.0
  0
LINE
  5
193BF
330
747D
100
AcDbEntity
  8
細線
100
AcDbLine
 10
6685.673057123657
 20
4435.654057264631
 30
0.0
 11
6685.673057123657
 21
4412.654057264632
 31
0.0
  0
LINE
  5
193C0
330
747D
100
AcDbEntity
  8
細線
100
AcDbLine
 10
6833.673057123657
 20
4412.654057264632
 30
0.0
 11
6833.673057123657
 21
4435.654057264631
 31
0.0
  0
LINE
  5
193C1
330
747D
100
AcDbEntity
  8
細線
100
AcDbLine
 10
6833.673057123657
 20
4435.654057264631
 30
0.0
 11
6759.673057123656
 21
4435.654057264631
 31
0.0
  0
LINE
  5
193C2
330
747D
100
AcDbEntity
  8
細線
100
AcDbLine
 10
6685.673057123657
 20
4412.654057264632
 30
0.0
 11
6759.673057123656
 21
4412.654057264632
 31
0.0
  0
LINE
  5
193C3
330
747D
100
AcDbEntity
  8
細線
100
AcDbLine
 10
6759.673057123656
 20
4435.654057264631
 30
0.0
 11
6685.673057123657
 21
4435.654057264631
 31
0.0
  0
LINE
  5
193C4
330
747D
100
AcDbEntity
  8
細線
100
AcDbLine
 10
6759.673057123653
 20
4412.654057264632
 30
0.0
 11
6833.673057123657
 21
4412.654057264632
 31
0.0
  0
ARC
  5
193C5
330
747D
100
AcDbEntity
  8
部品1
 48
0.01
100
AcDbCircle
 10
6671.673057123657
 20
4440.154057264631
 30
0.0
 40
2.0
100
AcDbArc
 50
90.0
 51
180.0
  0
ARC
  5
193C6
330
747D
100
AcDbEntity
  8
部品1
 48
0.01
100
AcDbCircle
 10
6847.673057123657
 20
4440.154057264631
 30
0.0
 40
2.0
100
AcDbArc
 50
0.0
 51
90.0
  0
TEXT
  5
193E5
330
747D
100
AcDbEntity
  8
文字
 62
     7
 48
50.0
100
AcDbText
 10
13248.77747366448
 20
8210.013745883735
 30
0.0
 40
100.0
  1
17
  7
STYLE1
100
AcDbText
  0
TEXT
  5
193E6
330
747D
100
AcDbEntity
  8
文字
 62
     7
 48
50.0
100
AcDbText
 10
13583.11819016569
 20
9230.013745883731
 30
0.0
 40
100.0
  1
梁中補強パネル
  7
STYLE1
100
AcDbText
  0
TEXT
  5
193E7
330
747D
100
AcDbEntity
  8
文字
 62
     7
 48
50.0
100
AcDbText
 10
15022.63965474517
 20
9230.013745883725
 30
0.0
 40
100.0
  1
F12         0.7+1.2
  7
STYLE1
100
AcDbText
  0
TEXT
  5
193E8
330
747D
100
AcDbEntity
  8
文字
 62
     7
 48
50.0
100
AcDbText
 10
15022.63965474517
 20
9740.013745883725
 30
0.0
 40
100.0
  1
F12            2.3
  7
STYLE1
100
AcDbText
  0
DIMENSION
  5
19455
330
747D
100
AcDbEntity
  8
寸法
 48
50.0
100
AcDbDimension
  2
*D41
 10
6396.514417384217
 20
10192.49742454587
 30
0.0
 11
6396.514417384216
 21
9931.452473582679
 31
0.0
 70
   160
 71
     5
 42
716.5000035771754
  3
INABA_S40G
100
AcDbAlignedDimension
 13
6084.673057123381
 23
9475.997420968694
 33
0.0
 14
6114.673057123614
 24
10192.49742454587
 34
0.0
 50
90.0
100
AcDbRotatedDimension
1001
ACAD
1000
DSTYLE
1002
{
1070
   174
1070
     0
1070
   272
1070
     1
1070
   341
1005
0
1002
}
  0
LINE
  5
19456
330
747D
100
AcDbEntity
  8
部品1
 48
50.0
100
AcDbLine
 10
6034.673057123381
 20
10137.49742096869
 30
0.0
 11
6034.673057123381
 21
9475.997420968694
 31
0.0
  0
LINE
  5
19457
330
747D
100
AcDbEntity
  8
部品1
 48
50.0
100
AcDbLine
 10
6034.673057123381
 20
9475.997420968694
 30
0.0
 11
6084.673057123381
 21
9475.997420968694
 31
0.0
  0
LINE
  5
19458
330
747D
100
AcDbEntity
  8
部品1
 48
50.0
100
AcDbLine
 10
6084.673057123381
 20
9475.997420968694
 30
0.0
 11
6084.673057123381
 21
10137.49742096869
 31
0.0
  0
LINE
  5
19459
330
747D
100
AcDbEntity
  8
部品1
100
AcDbLine
 10
6084.673057123381
 20
9753.173404405549
 30
0.0
 11
6034.673057123378
 21
9747.997420968694
 31
0.0
  0
LINE
  5
1945A
330
747D
100
AcDbEntity
  8
部品1
100
AcDbLine
 10
6084.673057123381
 20
9712.821437531841
 30
0.0
 11
6034.673057123378
 21
9717.997420968693
 31
0.0
  0
LINE
  5
1945B
330
747D
100
AcDbEntity
  8
部品1
100
AcDbLine
 10
6034.673057123381
 20
9557.997420968694
 30
0.0
 11
6084.673057123378
 21
9570.709285375471
 31
0.0
  0
TEXT
  5
194C9
330
747D
100
AcDbEntity
  8
文字
 62
     7
 48
50.0
100
AcDbText
 10
14646.46056207479
 20
871.9640646083623
 30
0.0
 40
100.0
  1
～多雪地型～
  7
STYLE2
100
AcDbText
  0
TEXT
  5
194E7
330
747D
100
AcDbEntity
  8
文字
 62
     7
 48
50.0
100
AcDbText
 10
15022.63965474516
 20
8890.013745883727
 30
0.0
 40
100.0
  1
F12            0.7
  7
STYLE1
100
AcDbText
  0
LINE
  5
19529
330
747D
100
AcDbEntity
  8
破線
  6
HIDDEN
 48
5.0
100
AcDbLine
 10
6004.673057123659
 20
2136.154057264637
 30
0.0
 11
6004.673057123659
 21
1961.154057264636
 31
0.0
  0
LINE
  5
1952A
330
747D
100
AcDbEntity
  8
破線
  6
HIDDEN
 48
5.0
100
AcDbLine
 10
6114.673057123656
 20
1961.154057264636
 30
0.0
 11
6004.673057123659
 21
1961.154057264636
 31
0.0
  0
LINE
  5
1952B
330
747D
100
AcDbEntity
  8
破線
  6
HIDDEN
 48
5.0
100
AcDbLine
 10
6114.673057123659
 20
2136.154057264637
 30
0.0
 11
6114.673057123657
 21
1961.154057264636
 31
0.0
  0
LINE
  5
1952C
330
747D
100
AcDbEntity
  8
破線
 48
5.0
100
AcDbLine
 10
6059.673057123657
 20
1961.154057264636
 30
0.0
 11
6059.673057123657
 21
1886.154057264636
 31
0.0
  0
ENDSEC
  0
SECTION
  2
OBJECTS
  0
DICTIONARY
  5
7471
330
0
100
AcDbDictionary
281
     1
  3
ACAD_COLOR
350
17AF7
  3
ACAD_GROUP
350
7472
  3
ACAD_LAYOUT
350
17AF8
  3
ACAD_MATERIAL
350
17AF6
  3
ACAD_MLINESTYLE
350
7473
  3
ACAD_PLOTSETTINGS
350
17AF9
  3
ACAD_PLOTSTYLENAME
350
17AF4
  3
ACDBHEADERROUNDTRIPXREC
350
19558
  3
AcDbVariableDictionary
350
19554
  3
CONTENTDICTIONARY
350
E71C
  3
DRAWINGVARIABLESDICT
350
F3B9
  0
DICTIONARY
  5
17DE8
330
7467
100
AcDbDictionary
280
     1
281
     1
  3
ACAD_LAYERSTATES
360
17DE9
  0
DICTIONARY
  5
17AF7
102
{ACAD_REACTORS
330
7471
102
}
330
7471
100
AcDbDictionary
281
     1
  0
DICTIONARY
  5
7472
102
{ACAD_REACTORS
330
7471
102
}
330
7471
100
AcDbDictionary
281
     1
  0
DICTIONARY
  5
17AF8
102
{ACAD_REACTORS
330
7471
102
}
330
7471
100
AcDbDictionary
281
     1
  3
Model
350
17AFA
  3
レイアウト1
350
17AFB
  0
DICTIONARY
  5
17AF6
102
{ACAD_REACTORS
330
7471
102
}
330
7471
100
AcDbDictionary
281
     1
  0
DICTIONARY
  5
7473
102
{ACAD_REACTORS
330
7471
102
}
330
7471
100
AcDbDictionary
281
     1
  3
STANDARD
350
7480
  0
DICTIONARY
  5
17AF9
102
{ACAD_REACTORS
330
7471
102
}
330
7471
100
AcDbDictionary
281
     1
  0
ACDBDICTIONARYWDFLT
  5
17AF4
102
{ACAD_REACTORS
330
7471
102
}
330
7471
100
AcDbDictionary
281
     1
  3
Normal
350
17AF5
100
AcDbDictionaryWithDefault
340
17AF5
  0
DICTIONARY
  5
19558
102
{ACAD_REACTORS
330
7471
102
}
330
7471
100
AcDbDictionary
281
     1
  3
COLORDICT
350
1955A
  3
MATERIALDICT
350
19559
  0
DICTIONARY
  5
19554
102
{ACAD_REACTORS
330
7471
102
}
330
7471
100
AcDbDictionary
281
     1
  3
DIMASSOC
350
19555
  3
PROJECTNAME
350
19556
  0
DICTIONARY
  5
E71C
102
{ACAD_REACTORS
330
7471
102
}
330
7471
100
AcDbDictionary
281
     1
  0
DICTIONARY
  5
F3B9
102
{ACAD_REACTORS
330
7471
102
}
330
7471
100
AcDbDictionary
281
     1
1001
DRAWINGVARIABLESXDATA
1000
POLARMODE
1000
1
  0
DICTIONARY
  5
17DE9
102
{ACAD_REACTORS
330
17DE8
102
}
330
17DE8
100
AcDbDictionary
281
     1
  0
LAYOUT
  5
17AFA
102
{ACAD_XDICTIONARY
360
1955B
102
}
102
{ACAD_REACTORS
330
17AF8
102
}
330
17AF8
100
AcDbPlotSettings
  1

  2
none_device
  4
Letter_(8.50_x_11.00_Inches)
  6

 40
6.349999904632568
 41
6.349999904632568
 42
6.350006103515625
 43
6.350006103515625
 44
215.8999938964844
 45
279.3999938964844
 46
0.0
 47
0.0
 48
0.0
 49
0.0
140
0.0
141
0.0
142
1.0
143
1.0
 70
 11952
 72
     1
 73
     1
 74
     0
  7
inaba.ctb
 75
     0
147
1.0
148
-3778.852007550903
149
2352.263182561616
100
AcDbLayout
  1
Model
 70
     1
 71
     0
 10
0.0
 20
0.0
 11
12.0
 21
9.0
 12
0.0
 22
0.0
 32
0.0
 14
0.0
 24
0.0
 34
0.0
 15
0.0
 25
0.0
 35
0.0
146
0.0
 13
0.0
 23
0.0
 33
0.0
 16
1.0
 26
0.0
 36
0.0
 17
0.0
 27
1.0
 37
0.0
 76
     0
330
747D
  0
LAYOUT
  5
17AFB
102
{ACAD_XDICTIONARY
360
1955D
102
}
102
{ACAD_REACTORS
330
17AF8
102
}
330
17AF8
100
AcDbPlotSettings
  1

  2
EPSON LP-8300
  4

  6

 40
0.0
 41
0.0
 42
0.0
 43
0.0
 44
0.0
 45
0.0
 46
0.0
 47
0.0
 48
0.0
 49
0.0
140
0.0
141
0.0
142
1.0
143
1.0
 70
   688
 72
     0
 73
     0
 74
     5
  7
inaba.ctb
 75
    16
147
1.0
148
0.0
149
0.0
100
AcDbLayout
  1
レイアウト1
 70
     0
 71
     1
 10
0.0
 20
0.0
 11
420.0
 21
297.0
 12
0.0
 22
0.0
 32
0.0
 14
1.000000000000000E+20
 24
1.000000000000000E+20
 34
1.000000000000000E+20
 15
-1.000000000000000E+20
 25
-1.000000000000000E+20
 35
-1.000000000000000E+20
146
0.0
 13
0.0
 23
0.0
 33
0.0
 16
1.0
 26
0.0
 36
0.0
 17
0.0
 27
1.0
 37
0.0
 76
     0
330
747A
  0
MLINESTYLE
  5
7480
102
{ACAD_REACTORS
330
7473
102
}
330
7473
100
AcDbMlineStyle
  2
STANDARD
 70
     0
  3

 62
     0
 51
90.0
 52
90.0
 71
     2
 49
0.5
 62
   256
  6
BYLAYER
 49
-0.5
 62
   256
  6
BYLAYER
  0
ACDBPLACEHOLDER
  5
17AF5
102
{ACAD_REACTORS
330
17AF4
102
}
330
17AF4
  0
XRECORD
  5
1955A
102
{ACAD_REACTORS
330
19558
102
}
330
19558
100
AcDbXrecord
280
     1
340
17AF7
  0
XRECORD
  5
19559
102
{ACAD_REACTORS
330
19558
102
}
330
19558
100
AcDbXrecord
280
     1
340
17AF6
  0
DICTIONARYVAR
  5
19555
102
{ACAD_REACTORS
330
19554
102
}
330
19554
100
DictionaryVariables
280
     0
  1
1
  0
DICTIONARYVAR
  5
19556
102
{ACAD_REACTORS
330
19554
102
}
330
19554
100
DictionaryVariables
280
     0
  1

  0
DICTIONARY
  5
1955B
330
17AFA
100
AcDbDictionary
280
     1
281
     1
  3
ACAD_XREC_ROUNDTRIP
360
1955C
  0
DICTIONARY
  5
1955D
330
17AFB
100
AcDbDictionary
280
     1
281
     1
  3
ACAD_XREC_ROUNDTRIP
360
1955E
  0
XRECORD
  5
1955C
102
{ACAD_REACTORS
330
1955B
102
}
330
1955B
100
AcDbXrecord
280
     1
102
SHADEPLOT
 70
     0
102
SHADEPLOTRESLEVEL
 70
     2
102
SHADEPLOTCUSTOMDPI
 70
   300
  0
XRECORD
  5
1955E
102
{ACAD_REACTORS
330
1955D
102
}
330
1955D
100
AcDbXrecord
280
     1
102
SHADEPLOT
 70
     0
102
SHADEPLOTRESLEVEL
 70
     2
102
SHADEPLOTCUSTOMDPI
 70
   300
  0
ENDSEC
  0
EOF
