  0
SECTION
  2
HEADER
  9
$ACADVER
  1
AC1015
  9
$ACADMAINTVER
 70
    20
  9
$DWGCODEPAGE
  3
ANSI_932
  9
$INSBASE
 10
0.0
 20
0.0
 30
0.0
  9
$EXTMIN
 10
139.9999999999995
 20
-0.0000000000000909
 30
0.0
  9
$EXTMAX
 10
16307.2
 20
11409.6
 30
0.0
  9
$LIMMIN
 10
0.0
 20
0.0
  9
$LIMMAX
 10
16800.0
 20
11880.0
  9
$ORTHOMODE
 70
     0
  9
$REGENMODE
 70
     1
  9
$FILLMODE
 70
     1
  9
$QTEXTMODE
 70
     0
  9
$MIRRTEXT
 70
     1
  9
$LTSCALE
 40
20.0
  9
$ATTMODE
 70
     1
  9
$TEXTSIZE
 40
100.0
  9
$TRACEWID
 40
1.0
  9
$TEXTSTYLE
  7
STYLE2
  9
$CLAYER
  8
部品1
  9
$CELTYPE
  6
BYLAYER
  9
$CECOLOR
 62
   256
  9
$CELTSCALE
 40
50.0
  9
$DISPSILH
 70
     0
  9
$DIMSCALE
 40
40.0
  9
$DIMASZ
 40
2.5
  9
$DIMEXO
 40
0.5
  9
$DIMDLI
 40
7.0
  9
$DIMRND
 40
0.0
  9
$DIMDLE
 40
0.0
  9
$DIMEXE
 40
1.5
  9
$DIMTP
 40
0.0
  9
$DIMTM
 40
0.0
  9
$DIMTXT
 40
3.0
  9
$DIMCEN
 40
0.0
  9
$DIMTSZ
 40
0.0
  9
$DIMTOL
 70
     0
  9
$DIMLIM
 70
     0
  9
$DIMTIH
 70
     0
  9
$DIMTOH
 70
     0
  9
$DIMSE1
 70
     0
  9
$DIMSE2
 70
     0
  9
$DIMTAD
 70
     3
  9
$DIMZIN
 70
     8
  9
$DIMBLK
  1

  9
$DIMASO
 70
     1
  9
$DIMSHO
 70
     1
  9
$DIMPOST
  1

  9
$DIMAPOST
  1

  9
$DIMALT
 70
     0
  9
$DIMALTD
 70
     2
  9
$DIMALTF
 40
0.0394
  9
$DIMLFAC
 40
1.0
  9
$DIMTOFL
 70
     1
  9
$DIMTVP
 40
0.0
  9
$DIMTIX
 70
     1
  9
$DIMSOXD
 70
     0
  9
$DIMSAH
 70
     1
  9
$DIMBLK1
  1
DOTSMALL
  9
$DIMBLK2
  1
DOTSMALL
  9
$DIMSTYLE
  2
INABA_S40G
  9
$DIMCLRD
 70
     0
  9
$DIMCLRE
 70
     0
  9
$DIMCLRT
 70
     7
  9
$DIMTFAC
 40
1.0
  9
$DIMGAP
 40
1.0
  9
$DIMJUST
 70
     0
  9
$DIMSD1
 70
     0
  9
$DIMSD2
 70
     0
  9
$DIMTOLJ
 70
     1
  9
$DIMTZIN
 70
     0
  9
$DIMALTZ
 70
     0
  9
$DIMALTTZ
 70
     0
  9
$DIMUPT
 70
     0
  9
$DIMDEC
 70
     1
  9
$DIMTDEC
 70
     4
  9
$DIMALTU
 70
     2
  9
$DIMALTTD
 70
     2
  9
$DIMTXSTY
  7
STYLE1
  9
$DIMAUNIT
 70
     0
  9
$DIMADEC
 70
     0
  9
$DIMALTRND
 40
0.0
  9
$DIMAZIN
 70
     0
  9
$DIMDSEP
 70
    46
  9
$DIMATFIT
 70
     3
  9
$DIMFRAC
 70
     0
  9
$DIMLDRBLK
  1

  9
$DIMLUNIT
 70
     2
  9
$DIMLWD
 70
    -2
  9
$DIMLWE
 70
    -2
  9
$DIMTMOVE
 70
     0
  9
$LUNITS
 70
     2
  9
$LUPREC
 70
     1
  9
$SKETCHINC
 40
1.0
  9
$FILLETRAD
 40
3.0
  9
$AUNITS
 70
     0
  9
$AUPREC
 70
     0
  9
$MENU
  1
acad
  9
$ELEVATION
 40
0.0
  9
$PELEVATION
 40
0.0
  9
$THICKNESS
 40
0.0
  9
$LIMCHECK
 70
     0
  9
$CHAMFERA
 40
0.0
  9
$CHAMFERB
 40
0.0
  9
$CHAMFERC
 40
0.0
  9
$CHAMFERD
 40
0.0
  9
$SKPOLY
 70
     0
  9
$TDCREATE
 40
2451368.612993866
  9
$TDUCREATE
 40
2451368.237993866
  9
$TDUPDATE
 40
2455569.623788877
  9
$TDUUPDATE
 40
2455569.248788878
  9
$TDINDWG
 40
0.7639491782
  9
$TDUSRTIMER
 40
0.7639491782
  9
$USRTIMER
 70
     1
  9
$ANGBASE
 50
0.0
  9
$ANGDIR
 70
     0
  9
$PDMODE
 70
     3
  9
$PDSIZE
 40
2.0
  9
$PLINEWID
 40
0.0
  9
$SPLFRAME
 70
     0
  9
$SPLINETYPE
 70
     6
  9
$SPLINESEGS
 70
     8
  9
$HANDSEED
  5
18B9D
  9
$SURFTAB1
 70
     6
  9
$SURFTAB2
 70
     6
  9
$SURFTYPE
 70
     6
  9
$SURFU
 70
     6
  9
$SURFV
 70
     6
  9
$UCSBASE
  2

  9
$UCSNAME
  2

  9
$UCSORG
 10
0.0
 20
0.0
 30
0.0
  9
$UCSXDIR
 10
1.0
 20
0.0
 30
0.0
  9
$UCSYDIR
 10
0.0
 20
1.0
 30
0.0
  9
$UCSORTHOREF
  2

  9
$UCSORTHOVIEW
 70
     0
  9
$UCSORGTOP
 10
0.0
 20
0.0
 30
0.0
  9
$UCSORGBOTTOM
 10
0.0
 20
0.0
 30
0.0
  9
$UCSORGLEFT
 10
0.0
 20
0.0
 30
0.0
  9
$UCSORGRIGHT
 10
0.0
 20
0.0
 30
0.0
  9
$UCSORGFRONT
 10
0.0
 20
0.0
 30
0.0
  9
$UCSORGBACK
 10
0.0
 20
0.0
 30
0.0
  9
$PUCSBASE
  2

  9
$PUCSNAME
  2

  9
$PUCSORG
 10
0.0
 20
0.0
 30
0.0
  9
$PUCSXDIR
 10
1.0
 20
0.0
 30
0.0
  9
$PUCSYDIR
 10
0.0
 20
1.0
 30
0.0
  9
$PUCSORTHOREF
  2

  9
$PUCSORTHOVIEW
 70
     0
  9
$PUCSORGTOP
 10
0.0
 20
0.0
 30
0.0
  9
$PUCSORGBOTTOM
 10
0.0
 20
0.0
 30
0.0
  9
$PUCSORGLEFT
 10
0.0
 20
0.0
 30
0.0
  9
$PUCSORGRIGHT
 10
0.0
 20
0.0
 30
0.0
  9
$PUCSORGFRONT
 10
0.0
 20
0.0
 30
0.0
  9
$PUCSORGBACK
 10
0.0
 20
0.0
 30
0.0
  9
$USERI1
 70
     0
  9
$USERI2
 70
     0
  9
$USERI3
 70
     0
  9
$USERI4
 70
     0
  9
$USERI5
 70
     0
  9
$USERR1
 40
0.0
  9
$USERR2
 40
0.0
  9
$USERR3
 40
0.0
  9
$USERR4
 40
0.0
  9
$USERR5
 40
0.0
  9
$WORLDVIEW
 70
     1
  9
$SHADEDGE
 70
     3
  9
$SHADEDIF
 70
    70
  9
$TILEMODE
 70
     1
  9
$MAXACTVP
 70
    16
  9
$PINSBASE
 10
0.0
 20
0.0
 30
0.0
  9
$PLIMCHECK
 70
     0
  9
$PEXTMIN
 10
1.000000000000000E+20
 20
1.000000000000000E+20
 30
1.000000000000000E+20
  9
$PEXTMAX
 10
-1.000000000000000E+20
 20
-1.000000000000000E+20
 30
-1.000000000000000E+20
  9
$PLIMMIN
 10
0.0
 20
0.0
  9
$PLIMMAX
 10
420.0
 20
297.0
  9
$UNITMODE
 70
     0
  9
$VISRETAIN
 70
     0
  9
$PLINEGEN
 70
     0
  9
$PSLTSCALE
 70
     0
  9
$TREEDEPTH
 70
  3020
  9
$CMLSTYLE
  2
STANDARD
  9
$CMLJUST
 70
     0
  9
$CMLSCALE
 40
1.0
  9
$PROXYGRAPHICS
 70
     1
  9
$MEASUREMENT
 70
     1
  9
$CELWEIGHT
370
    -1
  9
$ENDCAPS
280
     0
  9
$JOINSTYLE
280
     0
  9
$LWDISPLAY
290
     0
  9
$INSUNITS
 70
     0
  9
$HYPERLINKBASE
  1

  9
$STYLESHEET
  1

  9
$XEDIT
290
     1
  9
$CEPSNTYPE
380
     0
  9
$PSTYLEMODE
290
     1
  9
$FINGERPRINTGUID
  2
{703709AE-190A-4C19-890C-EF3C9C7A6C9C}
  9
$VERSIONGUID
  2
{963DB244-05D0-4A2C-A4B6-BF46B051E8D2}
  9
$EXTNAMES
290
     1
  9
$PSVPSCALE
 40
0.0
  9
$OLESTARTUP
290
     0
  0
ENDSEC
  0
SECTION
  2
CLASSES
  0
CLASS
  1
ACDBDICTIONARYWDFLT
  2
AcDbDictionaryWithDefault
  3
ObjectDBX Classes
 90
        0
280
     0
281
     0
  0
CLASS
  1
DICTIONARYVAR
  2
AcDbDictionaryVar
  3
ObjectDBX Classes
 90
        0
280
     0
281
     0
  0
CLASS
  1
ACDBPLACEHOLDER
  2
AcDbPlaceHolder
  3
ObjectDBX Classes
 90
        0
280
     0
281
     0
  0
CLASS
  1
LAYOUT
  2
AcDbLayout
  3
ObjectDBX Classes
 90
        0
280
     0
281
     0
  0
ENDSEC
  0
SECTION
  2
TABLES
  0
TABLE
  2
VPORT
  5
746D
330
0
100
AcDbSymbolTable
 70
     2
  0
VPORT
  5
18B95
330
746D
100
AcDbSymbolTableRecord
100
AcDbViewportTableRecord
  2
*Active
 70
     0
 10
0.0
 20
0.0
 11
1.0
 21
1.0
 12
8223.761025238502
 22
5958.555206651703
 13
0.0
 23
0.0
 14
10.0
 24
10.0
 15
10.0
 25
10.0
 16
0.0
 26
0.0
 36
1.0
 17
0.0
 27
0.0
 37
0.0
 40
12026.20795302914
 41
1.627450980392156
 42
50.0
 43
0.0
 44
0.0
 50
0.0
 51
0.0
 71
     0
 72
     0
 73
     1
 74
     0
 75
     0
 76
     0
 77
     0
 78
     0
281
     0
 65
     1
110
0.0
120
0.0
130
0.0
111
1.0
121
0.0
131
0.0
112
0.0
122
1.0
132
0.0
 79
     0
146
0.0
  0
ENDTAB
  0
TABLE
  2
LTYPE
  5
746A
330
0
100
AcDbSymbolTable
 70
     3
  0
LTYPE
  5
7477
330
746A
100
AcDbSymbolTableRecord
100
AcDbLinetypeTableRecord
  2
BYBLOCK
 70
     0
  3

 72
    65
 73
     0
 40
0.0
  0
LTYPE
  5
7478
330
746A
100
AcDbSymbolTableRecord
100
AcDbLinetypeTableRecord
  2
BYLAYER
 70
     0
  3

 72
    65
 73
     0
 40
0.0
  0
LTYPE
  5
7479
330
746A
100
AcDbSymbolTableRecord
100
AcDbLinetypeTableRecord
  2
CONTINUOUS
 70
     0
  3
Solid line
 72
    65
 73
     0
 40
0.0
  0
LTYPE
  5
781A
330
746A
100
AcDbSymbolTableRecord
100
AcDbLinetypeTableRecord
  2
HIDDEN
 70
     0
  3
__ __ __ __ __ __ __ __ __ __ __ __ __ __ __ __
 72
    65
 73
     2
 40
0.375
 49
0.25
 74
     0
 49
-0.125
 74
     0
  0
LTYPE
  5
781B
330
746A
100
AcDbSymbolTableRecord
100
AcDbLinetypeTableRecord
  2
PHANTOM
 70
     0
  3
______  __  __  ______  __  __  ______  __  __ 
 72
    65
 73
     6
 40
2.5
 49
1.25
 74
     0
 49
-0.25
 74
     0
 49
0.25
 74
     0
 49
-0.25
 74
     0
 49
0.25
 74
     0
 49
-0.25
 74
     0
  0
ENDTAB
  0
TABLE
  2
LAYER
  5
7467
102
{ACAD_XDICTIONARY
360
177AB
102
}
330
0
100
AcDbSymbolTable
 70
    10
  0
LAYER
  5
7474
330
7467
100
AcDbSymbolTableRecord
100
AcDbLayerTableRecord
  2
0
 70
     0
 62
     7
  6
CONTINUOUS
370
    -3
390
17530
  0
LAYER
  5
DEB3
330
7467
100
AcDbSymbolTableRecord
100
AcDbLayerTableRecord
  2
寸法
 70
     0
 62
     4
  6
CONTINUOUS
370
    -3
390
17530
  0
LAYER
  5
DEB4
330
7467
100
AcDbSymbolTableRecord
100
AcDbLayerTableRecord
  2
部品1
 70
     0
 62
     7
  6
CONTINUOUS
370
    -3
390
17530
  0
LAYER
  5
DEB5
330
7467
100
AcDbSymbolTableRecord
100
AcDbLayerTableRecord
  2
補助
 70
     0
 62
    -1
  6
CONTINUOUS
370
    -3
390
17530
  0
LAYER
  5
DEB6
330
7467
100
AcDbSymbolTableRecord
100
AcDbLayerTableRecord
  2
文字
 70
     0
 62
     7
  6
CONTINUOUS
370
    -3
390
17530
  0
LAYER
  5
F255
330
7467
100
AcDbSymbolTableRecord
100
AcDbLayerTableRecord
  2
DEFPOINTS
 70
     0
 62
     7
  6
CONTINUOUS
290
     0
370
    -3
390
17530
  0
LAYER
  5
10B54
330
7467
100
AcDbSymbolTableRecord
100
AcDbLayerTableRecord
  2
仕様書枠
 70
     0
 62
   230
  6
CONTINUOUS
370
    -3
390
17530
  0
LAYER
  5
11729
330
7467
100
AcDbSymbolTableRecord
100
AcDbLayerTableRecord
  2
Ｇ．Ｌ
 70
     0
 62
    30
  6
CONTINUOUS
370
    -3
390
17530
  0
LAYER
  5
1173F
330
7467
100
AcDbSymbolTableRecord
100
AcDbLayerTableRecord
  2
細線
 70
     0
 62
     5
  6
CONTINUOUS
370
    -3
390
17530
  0
LAYER
  5
142E2
330
7467
100
AcDbSymbolTableRecord
100
AcDbLayerTableRecord
  2
破線
 70
     0
 62
     2
  6
HIDDEN
370
    -3
390
17530
  0
ENDTAB
  0
TABLE
  2
STYLE
  5
7468
330
0
100
AcDbSymbolTable
 70
     4
  0
STYLE
  5
7475
330
7468
100
AcDbSymbolTableRecord
100
AcDbTextStyleTableRecord
  2
STANDARD
 70
     0
 40
0.0
 41
1.0
 50
0.0
 71
     0
 42
4.0
  3
txt
  4
C:\AutoCAD LT\bigfont.shx
  0
STYLE
  5
763C
330
7468
100
AcDbSymbolTableRecord
100
AcDbTextStyleTableRecord
  2
MSMINCHO
 70
     0
 40
0.0
 41
1.0
 50
0.0
 71
     0
 42
1.199999999999999
  3
C:\AutoCAD LT\msminch2.TTF
  4

  0
STYLE
  5
F706
330
7468
100
AcDbSymbolTableRecord
100
AcDbTextStyleTableRecord
  2
STYLE1
 70
     0
 40
0.0
 41
1.0
 50
0.0
 71
     0
 42
4.0
  3
isocp.shx
  4
bigfont.shx
  0
STYLE
  5
103BF
330
7468
100
AcDbSymbolTableRecord
100
AcDbTextStyleTableRecord
  2
STYLE2
 70
     0
 40
0.0
 41
1.0
 50
0.0
 71
     0
 42
100.0
  3
MS PGothic.ttf
  4

1001
ACAD
1000
MS PGothic
1071
    32818
  0
ENDTAB
  0
TABLE
  2
VIEW
  5
746B
330
0
100
AcDbSymbolTable
 70
     0
  0
ENDTAB
  0
TABLE
  2
UCS
  5
746C
330
0
100
AcDbSymbolTable
 70
     0
  0
ENDTAB
  0
TABLE
  2
APPID
  5
746E
330
0
100
AcDbSymbolTable
 70
     6
  0
APPID
  5
7476
330
746E
100
AcDbSymbolTableRecord
100
AcDbRegAppTableRecord
  2
ACAD
 70
     0
  0
APPID
  5
DEA9
330
746E
100
AcDbSymbolTableRecord
100
AcDbRegAppTableRecord
  2
CONTENTBLOCKICON
 70
     0
  0
APPID
  5
DEAA
330
746E
100
AcDbSymbolTableRecord
100
AcDbRegAppTableRecord
  2
CONTENTBLOCKDESCRIPTION
 70
     0
  0
APPID
  5
E71D
330
746E
100
AcDbSymbolTableRecord
100
AcDbRegAppTableRecord
  2
CONTENTTABDATA
 70
     0
  0
APPID
  5
E71E
330
746E
100
AcDbSymbolTableRecord
100
AcDbRegAppTableRecord
  2
CONTENTCURRENTTAB
 70
     0
  0
APPID
  5
F3BA
330
746E
100
AcDbSymbolTableRecord
100
AcDbRegAppTableRecord
  2
DRAWINGVARIABLESXDATA
 70
     0
  0
ENDTAB
  0
TABLE
  2
DIMSTYLE
  5
746F
330
0
100
AcDbSymbolTable
 70
     1
100
AcDbDimStyleTable
 71
     1
340
F71F
  0
DIMSTYLE
105
F71F
102
{ACAD_REACTORS
330
14E59
330
14E5A
330
14E5B
330
14E5C
330
14E5D
330
14E6F
330
14E87
330
14ED1
330
15E45
330
15E53
330
15E5F
330
15E6D
330
15E7B
330
174C8
330
179D0
330
179D1
330
179D2
330
179D3
330
179E2
330
179F1
330
179FE
330
179FF
330
17A00
330
17A2C
330
17B4D
330
17B50
330
17B51
330
17B52
330
1840F
330
18434
330
18758
330
18759
330
1875A
102
}
330
746F
100
AcDbSymbolTableRecord
100
AcDbDimStyleTableRecord
  2
INABA_S40G
 70
     0
 40
40.0
 41
2.5
 42
0.5
 43
7.0
 44
1.5
 73
     0
 74
     0
 77
     3
 78
     8
140
3.0
141
0.0
143
0.0394
147
1.0
172
     1
173
     1
174
     1
178
     7
271
     1
340
F706
341
F770
343
F770
344
F770
  0
ENDTAB
  0
TABLE
  2
BLOCK_RECORD
  5
7466
330
0
100
AcDbSymbolTable
 70
    34
  0
BLOCK_RECORD
  5
747D
330
7466
100
AcDbSymbolTableRecord
100
AcDbBlockTableRecord
  2
*MODEL_SPACE
340
17535
  0
BLOCK_RECORD
  5
747A
330
7466
100
AcDbSymbolTableRecord
100
AcDbBlockTableRecord
  2
*PAPER_SPACE
340
17536
  0
BLOCK_RECORD
  5
F770
330
7466
100
AcDbSymbolTableRecord
100
AcDbBlockTableRecord
  2
_DOTSMALL
340
0
102
{BLKREFS
331
162F4
331
162F5
331
152A1
331
152A2
331
16117
331
16118
331
152DC
331
152DD
331
162E9
331
162EA
331
16021
331
16022
331
16015
331
16016
331
16121
331
16122
331
15FEF
331
15FF0
331
15FFB
331
15FFC
331
17507
331
17508
331
17E70
331
17E71
331
17E7A
331
17E7B
331
17E85
331
17E86
331
17E8E
331
17E8F
331
17EDB
331
17EDC
331
17EEF
331
17EF0
331
17F02
331
17F03
331
17F0C
331
17F0D
331
17F17
331
17F18
331
17F34
331
17F35
331
185BB
331
185BC
331
185C4
331
185C5
331
185D9
331
185DA
331
185E4
331
185E5
331
185ED
331
185EE
331
18891
331
18892
331
18B45
331
18B46
331
18B4E
331
18B4F
331
18B58
331
18B59
331
18B61
331
18B62
331
18B78
331
18B79
331
18B84
331
18B85
102
}
  0
BLOCK_RECORD
  5
14EE4
330
7466
100
AcDbSymbolTableRecord
100
AcDbBlockTableRecord
  2
*D1
340
0
  0
BLOCK_RECORD
  5
14EF0
330
7466
100
AcDbSymbolTableRecord
100
AcDbBlockTableRecord
  2
*D2
340
0
  0
BLOCK_RECORD
  5
14EFC
330
7466
100
AcDbSymbolTableRecord
100
AcDbBlockTableRecord
  2
*D3
340
0
  0
BLOCK_RECORD
  5
14F0A
330
7466
100
AcDbSymbolTableRecord
100
AcDbBlockTableRecord
  2
*D4
340
0
  0
BLOCK_RECORD
  5
14F18
330
7466
100
AcDbSymbolTableRecord
100
AcDbBlockTableRecord
  2
*D5
340
0
  0
BLOCK_RECORD
  5
14F3E
330
7466
100
AcDbSymbolTableRecord
100
AcDbBlockTableRecord
  2
*D6
340
0
  0
BLOCK_RECORD
  5
14F4A
330
7466
100
AcDbSymbolTableRecord
100
AcDbBlockTableRecord
  2
*D7
340
0
  0
BLOCK_RECORD
  5
14F70
330
7466
100
AcDbSymbolTableRecord
100
AcDbBlockTableRecord
  2
*D8
340
0
  0
BLOCK_RECORD
  5
15E37
330
7466
100
AcDbSymbolTableRecord
100
AcDbBlockTableRecord
  2
*D9
340
0
  0
BLOCK_RECORD
  5
15E46
330
7466
100
AcDbSymbolTableRecord
100
AcDbBlockTableRecord
  2
*D10
340
0
  0
BLOCK_RECORD
  5
15E54
330
7466
100
AcDbSymbolTableRecord
100
AcDbBlockTableRecord
  2
*D11
340
0
  0
BLOCK_RECORD
  5
15E60
330
7466
100
AcDbSymbolTableRecord
100
AcDbBlockTableRecord
  2
*D12
340
0
  0
BLOCK_RECORD
  5
15E6E
330
7466
100
AcDbSymbolTableRecord
100
AcDbBlockTableRecord
  2
*D13
340
0
  0
BLOCK_RECORD
  5
174E1
330
7466
100
AcDbSymbolTableRecord
100
AcDbBlockTableRecord
  2
*D14
340
0
  0
BLOCK_RECORD
  5
17B65
330
7466
100
AcDbSymbolTableRecord
100
AcDbBlockTableRecord
  2
*D15
340
0
  0
BLOCK_RECORD
  5
17B73
330
7466
100
AcDbSymbolTableRecord
100
AcDbBlockTableRecord
  2
*D16
340
0
  0
BLOCK_RECORD
  5
17B7F
330
7466
100
AcDbSymbolTableRecord
100
AcDbBlockTableRecord
  2
*D17
340
0
  0
BLOCK_RECORD
  5
17B8B
330
7466
100
AcDbSymbolTableRecord
100
AcDbBlockTableRecord
  2
*D18
340
0
  0
BLOCK_RECORD
  5
17B99
330
7466
100
AcDbSymbolTableRecord
100
AcDbBlockTableRecord
  2
*D19
340
0
  0
BLOCK_RECORD
  5
17BA6
330
7466
100
AcDbSymbolTableRecord
100
AcDbBlockTableRecord
  2
*D20
340
0
  0
BLOCK_RECORD
  5
17BB3
330
7466
100
AcDbSymbolTableRecord
100
AcDbBlockTableRecord
  2
*D21
340
0
  0
BLOCK_RECORD
  5
17BBF
330
7466
100
AcDbSymbolTableRecord
100
AcDbBlockTableRecord
  2
*D22
340
0
  0
BLOCK_RECORD
  5
17BCD
330
7466
100
AcDbSymbolTableRecord
100
AcDbBlockTableRecord
  2
*D23
340
0
  0
BLOCK_RECORD
  5
17BD9
330
7466
100
AcDbSymbolTableRecord
100
AcDbBlockTableRecord
  2
*D24
340
0
  0
BLOCK_RECORD
  5
17CE9
330
7466
100
AcDbSymbolTableRecord
100
AcDbBlockTableRecord
  2
*D25
340
0
  0
BLOCK_RECORD
  5
17CF5
330
7466
100
AcDbSymbolTableRecord
100
AcDbBlockTableRecord
  2
*D26
340
0
  0
BLOCK_RECORD
  5
17D03
330
7466
100
AcDbSymbolTableRecord
100
AcDbBlockTableRecord
  2
*D27
340
0
  0
BLOCK_RECORD
  5
17D10
330
7466
100
AcDbSymbolTableRecord
100
AcDbBlockTableRecord
  2
*D28
340
0
  0
BLOCK_RECORD
  5
18472
330
7466
100
AcDbSymbolTableRecord
100
AcDbBlockTableRecord
  2
*D29
340
0
  0
BLOCK_RECORD
  5
184CD
330
7466
100
AcDbSymbolTableRecord
100
AcDbBlockTableRecord
  2
*D30
340
0
  0
BLOCK_RECORD
  5
187C3
330
7466
100
AcDbSymbolTableRecord
100
AcDbBlockTableRecord
  2
*D31
340
0
  0
BLOCK_RECORD
  5
187CF
330
7466
100
AcDbSymbolTableRecord
100
AcDbBlockTableRecord
  2
*D32
340
0
  0
BLOCK_RECORD
  5
187DD
330
7466
100
AcDbSymbolTableRecord
100
AcDbBlockTableRecord
  2
*D33
340
0
  0
ENDTAB
  0
ENDSEC
  0
SECTION
  2
BLOCKS
  0
BLOCK
  5
7489
330
747D
100
AcDbEntity
  8
0
100
AcDbBlockBegin
  2
*MODEL_SPACE
 70
     0
 10
0.0
 20
0.0
 30
0.0
  3
*MODEL_SPACE
  1

  0
ENDBLK
  5
748A
330
747D
100
AcDbEntity
  8
0
100
AcDbBlockEnd
  0
BLOCK
  5
7487
330
747A
100
AcDbEntity
 67
     1
  8
0
100
AcDbBlockBegin
  2
*PAPER_SPACE
 70
     0
 10
0.0
 20
0.0
 30
0.0
  3
*PAPER_SPACE
  1

  0
ENDBLK
  5
7488
330
747A
100
AcDbEntity
 67
     1
  8
0
100
AcDbBlockEnd
  0
BLOCK
  5
F771
330
F770
100
AcDbEntity
  8
0
 48
50.0
100
AcDbBlockBegin
  2
_DOTSMALL
 70
     0
 10
0.0
 20
0.0
 30
0.0
  3
_DOTSMALL
  1

  0
LWPOLYLINE
  5
F772
330
F770
100
AcDbEntity
  8
0
  6
ByBlock
 62
     0
 48
50.0
100
AcDbPolyline
 90
        2
 70
     1
 43
0.5
 10
-0.0625
 20
0.0
 42
1.0
 10
0.0625
 20
0.0
 42
1.0
  0
ENDBLK
  5
F776
330
F770
100
AcDbEntity
  8
0
 48
50.0
100
AcDbBlockEnd
  0
BLOCK
  5
162F0
330
14EE4
100
AcDbEntity
  8
0
 48
50.0
100
AcDbBlockBegin
  2
*D1
 70
     1
 10
0.0
 20
0.0
 30
0.0
  3
*D1
  1

  0
LINE
  5
162F1
330
14EE4
100
AcDbEntity
  8
0
  6
ByBlock
 62
     0
 48
50.0
100
AcDbLine
 10
7394.673057123664
 20
10032.49742454596
 30
0.0
 11
8447.206344597709
 21
10032.49742454596
 31
0.0
  0
LINE
  5
162F2
330
14EE4
100
AcDbEntity
  8
0
  6
ByBlock
 62
     0
 48
50.0
100
AcDbLine
 10
7394.673057123639
 20
6982.497424545956
 30
0.0
 11
8447.206344597709
 21
6982.497424545956
 31
0.0
  0
LINE
  5
162F3
330
14EE4
100
AcDbEntity
  8
0
  6
ByBlock
 62
     0
 48
50.0
100
AcDbLine
 10
8387.206344597709
 20
10032.49742454596
 30
0.0
 11
8387.206344597709
 21
6982.497424545956
 31
0.0
  0
INSERT
  5
162F4
330
14EE4
100
AcDbEntity
  8
0
  6
ByBlock
 62
     0
 48
50.0
100
AcDbBlockReference
  2
_DOTSMALL
 10
8387.206344597709
 20
10032.49742454596
 30
0.0
 41
100.0
 42
100.0
 43
100.0
 50
90.0
  0
INSERT
  5
162F5
330
14EE4
100
AcDbEntity
  8
0
  6
ByBlock
 62
     0
 48
50.0
100
AcDbBlockReference
  2
_DOTSMALL
 10
8387.206344597709
 20
6982.497424545956
 30
0.0
 41
100.0
 42
100.0
 43
100.0
 50
270.0
  0
MTEXT
  5
162F6
330
14EE4
100
AcDbEntity
  8
0
  6
ByBlock
 62
     7
 48
50.0
100
AcDbMText
 10
8287.206344597709
 20
8507.49742454596
 30
0.0
 40
120.0
 41
0.0
 71
     5
 72
     1
  1
\A1;3050
  7
STYLE1
 11
0.0000000000000001
 21
1.0
 31
0.0
 73
     1
 44
1.0
1001
ACAD
1000
MTEXTBEGIN
1070
    73
1070
     1
1070
    44
1040
1.0
1070
    74
1070
     0
1000
MTEXTEND
  0
POINT
  5
162F7
330
14EE4
100
AcDbEntity
  8
DEFPOINTS
  6
ByBlock
 62
     0
 48
50.0
100
AcDbPoint
 10
7374.673057123664
 20
10032.49742454596
 30
0.0
  0
POINT
  5
162F8
330
14EE4
100
AcDbEntity
  8
DEFPOINTS
  6
ByBlock
 62
     0
 48
50.0
100
AcDbPoint
 10
7374.673057123638
 20
6982.497424545956
 30
0.0
  0
POINT
  5
162F9
330
14EE4
100
AcDbEntity
  8
DEFPOINTS
  6
ByBlock
 62
     0
 48
50.0
100
AcDbPoint
 10
8387.206344597709
 20
6982.497424545956
 30
0.0
  0
ENDBLK
  5
162FA
330
14EE4
100
AcDbEntity
  8
0
 48
50.0
100
AcDbBlockEnd
  0
BLOCK
  5
1613E
330
14EF0
100
AcDbEntity
  8
0
 48
50.0
100
AcDbBlockBegin
  2
*D2
 70
     1
 10
0.0
 20
0.0
 30
0.0
  3
*D2
  1

  0
LINE
  5
185EA
330
14EF0
100
AcDbEntity
  8
寸法
 62
     0
 48
50.0
370
    -2
100
AcDbLine
 10
4799.673057123663
 20
10052.49742454587
 30
0.0
 11
4799.673057123663
 21
10608.30564417096
 31
0.0
  0
LINE
  5
185EB
330
14EF0
100
AcDbEntity
  8
寸法
 62
     0
 48
50.0
370
    -2
100
AcDbLine
 10
7319.673057123664
 20
10052.49742454596
 30
0.0
 11
7319.673057123664
 21
10608.30564417096
 31
0.0
  0
LINE
  5
185EC
330
14EF0
100
AcDbEntity
  8
寸法
 62
     0
 48
50.0
370
    -2
100
AcDbLine
 10
4799.673057123663
 20
10548.30564417096
 30
0.0
 11
7319.673057123664
 21
10548.30564417096
 31
0.0
  0
INSERT
  5
185ED
330
14EF0
100
AcDbEntity
  8
寸法
 62
     0
 48
50.0
370
    -2
100
AcDbBlockReference
  2
_DOTSMALL
 10
4799.673057123663
 20
10548.30564417096
 30
0.0
 41
100.0
 42
100.0
 43
100.0
 50
180.0
  0
INSERT
  5
185EE
330
14EF0
100
AcDbEntity
  8
寸法
 62
     0
 48
50.0
370
    -2
100
AcDbBlockReference
  2
_DOTSMALL
 10
7319.673057123664
 20
10548.30564417096
 30
0.0
 41
100.0
 42
100.0
 43
100.0
  0
MTEXT
  5
185EF
330
14EF0
100
AcDbEntity
  8
寸法
 62
     7
 48
50.0
100
AcDbMText
 10
6059.673057123664
 20
10648.31745519459
 30
0.0
 40
120.0
 41
0.0
 71
     5
 72
     1
  1
\A1;6X420=2520
  7
STYLE1
 73
     1
 44
1.0
1001
ACAD
1000
MTEXTBEGIN
1070
    73
1070
     1
1070
    44
1040
1.0
1070
    74
1070
     0
1000
MTEXTEND
  0
POINT
  5
185F0
330
14EF0
100
AcDbEntity
  8
DEFPOINTS
 62
     0
 48
50.0
100
AcDbPoint
 10
4799.673057123663
 20
10032.49742454587
 30
0.0
  0
POINT
  5
185F1
330
14EF0
100
AcDbEntity
  8
DEFPOINTS
 62
     0
 48
50.0
100
AcDbPoint
 10
7319.673057123664
 20
10032.49742454596
 30
0.0
  0
POINT
  5
185F2
330
14EF0
100
AcDbEntity
  8
DEFPOINTS
 62
     0
 48
50.0
100
AcDbPoint
 10
7319.673057123664
 20
10548.30564417096
 30
0.0
  0
ENDBLK
  5
16148
330
14EF0
100
AcDbEntity
  8
0
 48
50.0
100
AcDbBlockEnd
  0
BLOCK
  5
1528E
330
14EFC
100
AcDbEntity
  8
0
 48
50.0
100
AcDbBlockBegin
  2
*D3
 70
     1
 10
0.0
 20
0.0
 30
0.0
  3
*D3
  1

  0
LINE
  5
185DF
330
14EFC
100
AcDbEntity
  8
寸法
 62
     0
 48
50.0
370
    -2
100
AcDbLine
 10
7319.673057123664
 20
10052.49742454596
 30
0.0
 11
7319.673057123664
 21
10608.30564417095
 31
0.0
  0
LINE
  5
185E0
330
14EFC
100
AcDbEntity
  8
寸法
 62
     0
 48
50.0
370
    -2
100
AcDbLine
 10
7374.673057123664
 20
10052.49742454596
 30
0.0
 11
7374.673057123664
 21
10608.30564417095
 31
0.0
  0
LINE
  5
185E1
330
14EFC
100
AcDbEntity
  8
寸法
 62
     0
 48
50.0
370
    -2
100
AcDbLine
 10
7319.673057123664
 20
10548.30564417095
 30
0.0
 11
7219.673057123664
 21
10548.30564417095
 31
0.0
  0
LINE
  5
185E2
330
14EFC
100
AcDbEntity
  8
寸法
 62
     0
 48
50.0
370
    -2
100
AcDbLine
 10
7374.673057123664
 20
10548.30564417095
 30
0.0
 11
7791.643619872141
 21
10548.30564417095
 31
0.0
  0
LINE
  5
185E3
330
14EFC
100
AcDbEntity
  8
寸法
 62
     0
 48
50.0
370
    -2
100
AcDbLine
 10
7319.673057123664
 20
10548.30564417095
 30
0.0
 11
7374.673057123664
 21
10548.30564417095
 31
0.0
  0
INSERT
  5
185E4
330
14EFC
100
AcDbEntity
  8
寸法
 62
     0
 48
50.0
370
    -2
100
AcDbBlockReference
  2
_DOTSMALL
 10
7319.673057123664
 20
10548.30564417095
 30
0.0
 41
100.0
 42
100.0
 43
100.0
  0
INSERT
  5
185E5
330
14EFC
100
AcDbEntity
  8
寸法
 62
     0
 48
50.0
370
    -2
100
AcDbBlockReference
  2
_DOTSMALL
 10
7374.673057123664
 20
10548.30564417095
 30
0.0
 41
100.0
 42
100.0
 43
100.0
 50
180.0
  0
MTEXT
  5
185E6
330
14EFC
100
AcDbEntity
  8
寸法
 62
     7
 48
50.0
100
AcDbMText
 10
7683.158338497903
 20
10648.30564417095
 30
0.0
 40
120.0
 41
0.0
 71
     5
 72
     1
  1
\A1;55
  7
STYLE1
 73
     1
 44
1.0
1001
ACAD
1000
MTEXTBEGIN
1070
    73
1070
     1
1070
    44
1040
1.0
1070
    74
1070
     0
1000
MTEXTEND
  0
POINT
  5
185E7
330
14EFC
100
AcDbEntity
  8
DEFPOINTS
 62
     0
 48
50.0
100
AcDbPoint
 10
7319.673057123664
 20
10032.49742454596
 30
0.0
  0
POINT
  5
185E8
330
14EFC
100
AcDbEntity
  8
DEFPOINTS
 62
     0
 48
50.0
100
AcDbPoint
 10
7374.673057123664
 20
10032.49742454596
 30
0.0
  0
POINT
  5
185E9
330
14EFC
100
AcDbEntity
  8
DEFPOINTS
 62
     0
 48
50.0
100
AcDbPoint
 10
7374.673057123664
 20
10548.30564417095
 30
0.0
  0
ENDBLK
  5
1529A
330
14EFC
100
AcDbEntity
  8
0
 48
50.0
100
AcDbBlockEnd
  0
BLOCK
  5
1529B
330
14F0A
100
AcDbEntity
  8
0
 48
50.0
100
AcDbBlockBegin
  2
*D4
 70
     1
 10
0.0
 20
0.0
 30
0.0
  3
*D4
  1

  0
LINE
  5
1529C
330
14F0A
100
AcDbEntity
  8
0
  6
ByBlock
 62
     0
 48
50.0
100
AcDbLine
 10
7439.896575106999
 20
9312.497424545965
 30
0.0
 11
8127.322920841409
 21
9312.497424545965
 31
0.0
  0
LINE
  5
1529D
330
14F0A
100
AcDbEntity
  8
0
  6
ByBlock
 62
     0
 48
50.0
100
AcDbLine
 10
7439.896575106999
 20
9257.497424545967
 30
0.0
 11
8127.322920841409
 21
9257.497424545967
 31
0.0
  0
LINE
  5
1529E
330
14F0A
100
AcDbEntity
  8
0
  6
ByBlock
 62
     0
 48
50.0
100
AcDbLine
 10
8067.322920841409
 20
9257.497424545967
 30
0.0
 11
8067.322920841409
 21
9157.497424545967
 31
0.0
  0
LINE
  5
1529F
330
14F0A
100
AcDbEntity
  8
0
  6
ByBlock
 62
     0
 48
50.0
100
AcDbLine
 10
8067.322920841409
 20
9312.497424545965
 30
0.0
 11
8067.322920841409
 21
9729.467987294441
 31
0.0
  0
LINE
  5
152A0
330
14F0A
100
AcDbEntity
  8
0
  6
ByBlock
 62
     0
 48
50.0
100
AcDbLine
 10
8067.322920841409
 20
9257.497424545967
 30
0.0
 11
8067.322920841409
 21
9312.497424545965
 31
0.0
  0
INSERT
  5
152A1
330
14F0A
100
AcDbEntity
  8
0
  6
ByBlock
 62
     0
 48
50.0
100
AcDbBlockReference
  2
_DOTSMALL
 10
8067.322920841409
 20
9257.497424545967
 30
0.0
 41
100.0
 42
100.0
 43
100.0
 50
90.0
  0
INSERT
  5
152A2
330
14F0A
100
AcDbEntity
  8
0
  6
ByBlock
 62
     0
 48
50.0
100
AcDbBlockReference
  2
_DOTSMALL
 10
8067.322920841409
 20
9312.497424545965
 30
0.0
 41
100.0
 42
100.0
 43
100.0
 50
270.0
  0
MTEXT
  5
152A3
330
14F0A
100
AcDbEntity
  8
0
  6
ByBlock
 62
     7
 48
50.0
100
AcDbMText
 10
7967.322920841408
 20
9620.982705920205
 30
0.0
 40
120.0
 41
0.0
 71
     5
 72
     1
  1
\A1;55
  7
STYLE1
 11
0.0000000000000001
 21
1.0
 31
0.0
 73
     1
 44
1.0
1001
ACAD
1000
MTEXTBEGIN
1070
    73
1070
     1
1070
    44
1040
1.0
1070
    74
1070
     0
1000
MTEXTEND
  0
POINT
  5
152A4
330
14F0A
100
AcDbEntity
  8
DEFPOINTS
  6
ByBlock
 62
     0
 48
50.0
100
AcDbPoint
 10
7419.896575106999
 20
9312.497424545965
 30
0.0
  0
POINT
  5
152A5
330
14F0A
100
AcDbEntity
  8
DEFPOINTS
  6
ByBlock
 62
     0
 48
50.0
100
AcDbPoint
 10
7419.896575106999
 20
9257.497424545967
 30
0.0
  0
POINT
  5
152A6
330
14F0A
100
AcDbEntity
  8
DEFPOINTS
  6
ByBlock
 62
     0
 48
50.0
100
AcDbPoint
 10
8067.322920841409
 20
9257.497424545967
 30
0.0
  0
ENDBLK
  5
152A7
330
14F0A
100
AcDbEntity
  8
0
 48
50.0
100
AcDbBlockEnd
  0
BLOCK
  5
152A8
330
14F18
100
AcDbEntity
  8
0
 48
50.0
100
AcDbBlockBegin
  2
*D5
 70
     1
 10
0.0
 20
0.0
 30
0.0
  3
*D5
  1

  0
LINE
  5
185D4
330
14F18
100
AcDbEntity
  8
寸法
 62
     0
 48
50.0
370
    -2
100
AcDbLine
 10
4744.673057123629
 20
10052.49742454587
 30
0.0
 11
4744.673057123629
 21
10608.30564417085
 31
0.0
  0
LINE
  5
185D5
330
14F18
100
AcDbEntity
  8
寸法
 62
     0
 48
50.0
370
    -2
100
AcDbLine
 10
4799.673057123663
 20
10052.49742454587
 30
0.0
 11
4799.673057123663
 21
10608.30564417085
 31
0.0
  0
LINE
  5
185D6
330
14F18
100
AcDbEntity
  8
寸法
 62
     0
 48
50.0
370
    -2
100
AcDbLine
 10
4799.673057123663
 20
10548.30564417085
 30
0.0
 11
4899.673057123663
 21
10548.30564417085
 31
0.0
  0
LINE
  5
185D7
330
14F18
100
AcDbEntity
  8
寸法
 62
     0
 48
50.0
370
    -2
100
AcDbLine
 10
4744.673057123629
 20
10548.30564417085
 30
0.0
 11
4327.702494375151
 21
10548.30564417085
 31
0.0
  0
LINE
  5
185D8
330
14F18
100
AcDbEntity
  8
寸法
 62
     0
 48
50.0
370
    -2
100
AcDbLine
 10
4799.673057123663
 20
10548.30564417085
 30
0.0
 11
4744.673057123629
 21
10548.30564417085
 31
0.0
  0
INSERT
  5
185D9
330
14F18
100
AcDbEntity
  8
寸法
 62
     0
 48
50.0
370
    -2
100
AcDbBlockReference
  2
_DOTSMALL
 10
4799.673057123663
 20
10548.30564417085
 30
0.0
 41
100.0
 42
100.0
 43
100.0
 50
180.0
  0
INSERT
  5
185DA
330
14F18
100
AcDbEntity
  8
寸法
 62
     0
 48
50.0
370
    -2
100
AcDbBlockReference
  2
_DOTSMALL
 10
4744.673057123629
 20
10548.30564417085
 30
0.0
 41
100.0
 42
100.0
 43
100.0
  0
MTEXT
  5
185DB
330
14F18
100
AcDbEntity
  8
寸法
 62
     7
 48
50.0
100
AcDbMText
 10
4436.187775749391
 20
10648.30564417085
 30
0.0
 40
120.0
 41
0.0
 71
     5
 72
     1
  1
\A1;55
  7
STYLE1
 73
     1
 44
1.0
1001
ACAD
1000
MTEXTBEGIN
1070
    73
1070
     1
1070
    44
1040
1.0
1070
    74
1070
     0
1000
MTEXTEND
  0
POINT
  5
185DC
330
14F18
100
AcDbEntity
  8
DEFPOINTS
 62
     0
 48
50.0
100
AcDbPoint
 10
4744.673057123629
 20
10032.49742454587
 30
0.0
  0
POINT
  5
185DD
330
14F18
100
AcDbEntity
  8
DEFPOINTS
 62
     0
 48
50.0
100
AcDbPoint
 10
4799.673057123663
 20
10032.49742454587
 30
0.0
  0
POINT
  5
185DE
330
14F18
100
AcDbEntity
  8
DEFPOINTS
 62
     0
 48
50.0
100
AcDbPoint
 10
4799.673057123663
 20
10548.30564417085
 30
0.0
  0
ENDBLK
  5
152B4
330
14F18
100
AcDbEntity
  8
0
 48
50.0
100
AcDbBlockEnd
  0
BLOCK
  5
16113
330
14F3E
100
AcDbEntity
  8
0
 48
50.0
100
AcDbBlockBegin
  2
*D6
 70
     1
 10
0.0
 20
0.0
 30
0.0
  3
*D6
  1

  0
LINE
  5
16114
330
14F3E
100
AcDbEntity
  8
0
  6
ByBlock
 62
     0
 48
50.0
100
AcDbLine
 10
4744.673057123656
 20
6962.497424545792
 30
0.0
 11
4744.673057123656
 21
6101.893658188827
 31
0.0
  0
LINE
  5
16115
330
14F3E
100
AcDbEntity
  8
0
  6
ByBlock
 62
     0
 48
50.0
100
AcDbLine
 10
7374.673057123638
 20
6962.49742454592
 30
0.0
 11
7374.673057123638
 21
6101.893658188827
 31
0.0
  0
LINE
  5
16116
330
14F3E
100
AcDbEntity
  8
0
  6
ByBlock
 62
     0
 48
50.0
100
AcDbLine
 10
4744.673057123656
 20
6161.893658188827
 30
0.0
 11
7374.673057123638
 21
6161.893658188827
 31
0.0
  0
INSERT
  5
16117
330
14F3E
100
AcDbEntity
  8
0
  6
ByBlock
 62
     0
 48
50.0
100
AcDbBlockReference
  2
_DOTSMALL
 10
4744.673057123656
 20
6161.893658188827
 30
0.0
 41
100.0
 42
100.0
 43
100.0
 50
180.0
  0
INSERT
  5
16118
330
14F3E
100
AcDbEntity
  8
0
  6
ByBlock
 62
     0
 48
50.0
100
AcDbBlockReference
  2
_DOTSMALL
 10
7374.673057123638
 20
6161.893658188827
 30
0.0
 41
100.0
 42
100.0
 43
100.0
  0
MTEXT
  5
16119
330
14F3E
100
AcDbEntity
  8
0
  6
ByBlock
 62
     7
 48
50.0
100
AcDbMText
 10
6059.673057123648
 20
6261.905469212448
 30
0.0
 40
120.0
 41
0.0
 71
     5
 72
     1
  1
\A1;2630
  7
STYLE1
 73
     1
 44
1.0
1001
ACAD
1000
MTEXTBEGIN
1070
    73
1070
     1
1070
    44
1040
1.0
1070
    74
1070
     0
1000
MTEXTEND
  0
POINT
  5
1611A
330
14F3E
100
AcDbEntity
  8
DEFPOINTS
  6
ByBlock
 62
     0
 48
50.0
100
AcDbPoint
 10
4744.673057123656
 20
6982.497424545792
 30
0.0
  0
POINT
  5
1611B
330
14F3E
100
AcDbEntity
  8
DEFPOINTS
  6
ByBlock
 62
     0
 48
50.0
100
AcDbPoint
 10
7374.673057123638
 20
6982.49742454592
 30
0.0
  0
POINT
  5
1611C
330
14F3E
100
AcDbEntity
  8
DEFPOINTS
  6
ByBlock
 62
     0
 48
50.0
100
AcDbPoint
 10
7374.673057123638
 20
6161.893658188827
 30
0.0
  0
ENDBLK
  5
1611D
330
14F3E
100
AcDbEntity
  8
0
 48
50.0
100
AcDbBlockEnd
  0
BLOCK
  5
152D6
330
14F4A
100
AcDbEntity
  8
0
 48
50.0
100
AcDbBlockBegin
  2
*D7
 70
     1
 10
0.0
 20
0.0
 30
0.0
  3
*D7
  1

  0
LINE
  5
152D7
330
14F4A
100
AcDbEntity
  8
0
  6
ByBlock
 62
     0
 48
50.0
100
AcDbLine
 10
7439.896575106974
 20
7997.497424545951
 30
0.0
 11
8127.322920841384
 21
7997.497424545951
 31
0.0
  0
LINE
  5
152D8
330
14F4A
100
AcDbEntity
  8
0
  6
ByBlock
 62
     0
 48
50.0
100
AcDbLine
 10
7439.896575106974
 20
7942.497424545955
 30
0.0
 11
8127.322920841384
 21
7942.497424545955
 31
0.0
  0
LINE
  5
152D9
330
14F4A
100
AcDbEntity
  8
0
  6
ByBlock
 62
     0
 48
50.0
100
AcDbLine
 10
8067.322920841382
 20
7997.497424545951
 30
0.0
 11
8067.322920841382
 21
8097.497424545951
 31
0.0
  0
LINE
  5
152DA
330
14F4A
100
AcDbEntity
  8
0
  6
ByBlock
 62
     0
 48
50.0
100
AcDbLine
 10
8067.322920841382
 20
7942.497424545955
 30
0.0
 11
8067.322920841382
 21
7456.150676266855
 31
0.0
  0
LINE
  5
152DB
330
14F4A
100
AcDbEntity
  8
0
  6
ByBlock
 62
     0
 48
50.0
100
AcDbLine
 10
8067.322920841382
 20
7997.497424545951
 30
0.0
 11
8067.322920841382
 21
7942.497424545955
 31
0.0
  0
INSERT
  5
152DC
330
14F4A
100
AcDbEntity
  8
0
  6
ByBlock
 62
     0
 48
50.0
100
AcDbBlockReference
  2
_DOTSMALL
 10
8067.322920841382
 20
7997.497424545951
 30
0.0
 41
100.0
 42
100.0
 43
100.0
 50
270.0
  0
INSERT
  5
152DD
330
14F4A
100
AcDbEntity
  8
0
  6
ByBlock
 62
     0
 48
50.0
100
AcDbBlockReference
  2
_DOTSMALL
 10
8067.322920841382
 20
7942.497424545955
 30
0.0
 41
100.0
 42
100.0
 43
100.0
 50
90.0
  0
MTEXT
  5
152DE
330
14F4A
100
AcDbEntity
  8
0
  6
ByBlock
 62
     7
 48
50.0
100
AcDbMText
 10
7967.322920841382
 20
7564.635957641094
 30
0.0
 40
120.0
 41
0.0
 71
     5
 72
     1
  1
\A1;55
  7
STYLE1
 11
0.0000000000000001
 21
1.0
 31
0.0
 73
     1
 44
1.0
1001
ACAD
1000
MTEXTBEGIN
1070
    73
1070
     1
1070
    44
1040
1.0
1070
    74
1070
     0
1000
MTEXTEND
  0
POINT
  5
152DF
330
14F4A
100
AcDbEntity
  8
DEFPOINTS
  6
ByBlock
 62
     0
 48
50.0
100
AcDbPoint
 10
7419.896575106974
 20
7997.497424545952
 30
0.0
  0
POINT
  5
152E0
330
14F4A
100
AcDbEntity
  8
DEFPOINTS
  6
ByBlock
 62
     0
 48
50.0
100
AcDbPoint
 10
7419.896575106974
 20
7942.497424545955
 30
0.0
  0
POINT
  5
152E1
330
14F4A
100
AcDbEntity
  8
DEFPOINTS
  6
ByBlock
 62
     0
 48
50.0
100
AcDbPoint
 10
8067.322920841382
 20
7942.497424545955
 30
0.0
  0
ENDBLK
  5
152E2
330
14F4A
100
AcDbEntity
  8
0
 48
50.0
100
AcDbBlockEnd
  0
BLOCK
  5
162E5
330
14F70
100
AcDbEntity
  8
0
 48
50.0
100
AcDbBlockBegin
  2
*D8
 70
     1
 10
0.0
 20
0.0
 30
0.0
  3
*D8
  1

  0
LINE
  5
162E6
330
14F70
100
AcDbEntity
  8
0
  6
ByBlock
 62
     0
 48
50.0
100
AcDbLine
 10
7394.673057123664
 20
9977.497424545967
 30
0.0
 11
8082.099402858071
 21
9977.497424545967
 31
0.0
  0
LINE
  5
162E7
330
14F70
100
AcDbEntity
  8
0
  6
ByBlock
 62
     0
 48
50.0
100
AcDbLine
 10
7394.673057123639
 20
7037.497424545953
 30
0.0
 11
8082.099402858069
 21
7037.497424545951
 31
0.0
  0
LINE
  5
162E8
330
14F70
100
AcDbEntity
  8
0
  6
ByBlock
 62
     0
 48
50.0
100
AcDbLine
 10
8022.099402858071
 20
9977.497424545967
 30
0.0
 11
8022.099402858071
 21
7037.497424545951
 31
0.0
  0
INSERT
  5
162E9
330
14F70
100
AcDbEntity
  8
0
  6
ByBlock
 62
     0
 48
50.0
100
AcDbBlockReference
  2
_DOTSMALL
 10
8022.099402858071
 20
9977.497424545967
 30
0.0
 41
100.0
 42
100.0
 43
100.0
 50
90.0
  0
INSERT
  5
162EA
330
14F70
100
AcDbEntity
  8
0
  6
ByBlock
 62
     0
 48
50.0
100
AcDbBlockReference
  2
_DOTSMALL
 10
8022.099402858071
 20
7037.497424545951
 30
0.0
 41
100.0
 42
100.0
 43
100.0
 50
270.0
  0
MTEXT
  5
162EB
330
14F70
100
AcDbEntity
  8
0
  6
ByBlock
 62
     7
 48
50.0
100
AcDbMText
 10
7922.087591834449
 20
8507.49742454596
 30
0.0
 40
120.0
 41
0.0
 71
     5
 72
     1
  1
\A1;7X420=2940
  7
STYLE1
 11
0.0000000000000001
 21
1.0
 31
0.0
 73
     1
 44
1.0
1001
ACAD
1000
MTEXTBEGIN
1070
    73
1070
     1
1070
    44
1040
1.0
1070
    74
1070
     0
1000
MTEXTEND
  0
POINT
  5
162EC
330
14F70
100
AcDbEntity
  8
DEFPOINTS
  6
ByBlock
 62
     0
 48
50.0
100
AcDbPoint
 10
7374.673057123664
 20
9977.497424545967
 30
0.0
  0
POINT
  5
162ED
330
14F70
100
AcDbEntity
  8
DEFPOINTS
  6
ByBlock
 62
     0
 48
50.0
100
AcDbPoint
 10
7374.673057123638
 20
7037.497424545953
 30
0.0
  0
POINT
  5
162EE
330
14F70
100
AcDbEntity
  8
DEFPOINTS
  6
ByBlock
 62
     0
 48
50.0
100
AcDbPoint
 10
8022.099402858071
 20
7037.497424545951
 30
0.0
  0
ENDBLK
  5
162EF
330
14F70
100
AcDbEntity
  8
0
 48
50.0
100
AcDbBlockEnd
  0
BLOCK
  5
1601B
330
15E37
100
AcDbEntity
  8
0
 48
50.0
100
AcDbBlockBegin
  2
*D9
 70
     1
 10
0.0
 20
0.0
 30
0.0
  3
*D9
  1

  0
LINE
  5
1601C
330
15E37
100
AcDbEntity
  8
0
  6
ByBlock
 62
     0
 48
50.0
100
AcDbLine
 10
7419.896575106974
 20
6962.497424545957
 30
0.0
 11
7419.896575106974
 21
6388.066653779702
 31
0.0
  0
LINE
  5
1601D
330
15E37
100
AcDbEntity
  8
0
  6
ByBlock
 62
     0
 48
50.0
100
AcDbLine
 10
7364.896575106975
 20
6962.497424545952
 30
0.0
 11
7364.896575106975
 21
6388.066653779702
 31
0.0
  0
LINE
  5
1601E
330
15E37
100
AcDbEntity
  8
0
  6
ByBlock
 62
     0
 48
50.0
100
AcDbLine
 10
7364.896575106975
 20
6448.066653779702
 30
0.0
 11
7264.896575106975
 21
6448.066653779702
 31
0.0
  0
LINE
  5
1601F
330
15E37
100
AcDbEntity
  8
0
  6
ByBlock
 62
     0
 48
50.0
100
AcDbLine
 10
7419.896575106974
 20
6448.066653779702
 30
0.0
 11
7836.867137855451
 21
6448.066653779702
 31
0.0
  0
LINE
  5
16020
330
15E37
100
AcDbEntity
  8
0
  6
ByBlock
 62
     0
 48
50.0
100
AcDbLine
 10
7364.896575106975
 20
6448.066653779702
 30
0.0
 11
7419.896575106974
 21
6448.066653779702
 31
0.0
  0
INSERT
  5
16021
330
15E37
100
AcDbEntity
  8
0
  6
ByBlock
 62
     0
 48
50.0
100
AcDbBlockReference
  2
_DOTSMALL
 10
7364.896575106975
 20
6448.066653779702
 30
0.0
 41
100.0
 42
100.0
 43
100.0
  0
INSERT
  5
16022
330
15E37
100
AcDbEntity
  8
0
  6
ByBlock
 62
     0
 48
50.0
100
AcDbBlockReference
  2
_DOTSMALL
 10
7419.896575106974
 20
6448.066653779702
 30
0.0
 41
100.0
 42
100.0
 43
100.0
 50
180.0
  0
MTEXT
  5
16023
330
15E37
100
AcDbEntity
  8
0
  6
ByBlock
 62
     7
 48
50.0
100
AcDbMText
 10
7728.381856481212
 20
6548.066653779702
 30
0.0
 40
120.0
 41
0.0
 71
     5
 72
     1
  1
\A1;55
  7
STYLE1
 73
     1
 44
1.0
1001
ACAD
1000
MTEXTBEGIN
1070
    73
1070
     1
1070
    44
1040
1.0
1070
    74
1070
     0
1000
MTEXTEND
  0
POINT
  5
16024
330
15E37
100
AcDbEntity
  8
DEFPOINTS
  6
ByBlock
 62
     0
 48
50.0
100
AcDbPoint
 10
7419.896575106974
 20
6982.497424545956
 30
0.0
  0
POINT
  5
16025
330
15E37
100
AcDbEntity
  8
DEFPOINTS
  6
ByBlock
 62
     0
 48
50.0
100
AcDbPoint
 10
7364.896575106975
 20
6982.497424545953
 30
0.0
  0
POINT
  5
16026
330
15E37
100
AcDbEntity
  8
DEFPOINTS
  6
ByBlock
 62
     0
 48
50.0
100
AcDbPoint
 10
7364.896575106975
 20
6448.066653779702
 30
0.0
  0
ENDBLK
  5
16027
330
15E37
100
AcDbEntity
  8
0
 48
50.0
100
AcDbBlockEnd
  0
BLOCK
  5
1600D
330
15E46
100
AcDbEntity
  8
0
 48
50.0
100
AcDbBlockBegin
  2
*D10
 70
     1
 10
0.0
 20
0.0
 30
0.0
  3
*D10
  1

  0
LINE
  5
1600E
330
15E46
100
AcDbEntity
  8
0
  6
ByBlock
 62
     0
 48
50.0
100
AcDbLine
 10
7364.896575106975
 20
6962.497424545952
 30
0.0
 11
7364.896575106975
 21
6388.0666537797
 31
0.0
  0
LINE
  5
1600F
330
15E46
100
AcDbEntity
  8
0
  6
ByBlock
 62
     0
 48
50.0
100
AcDbLine
 10
7316.896575106973
 20
6988.497424545865
 30
0.0
 11
7316.896575106973
 21
6388.0666537797
 31
0.0
  0
LINE
  5
16010
330
15E46
100
AcDbEntity
  8
0
  6
ByBlock
 62
     0
 48
50.0
100
AcDbLine
 10
7364.896575106975
 20
6448.066653779701
 30
0.0
 11
7464.896575106975
 21
6448.066653779701
 31
0.0
  0
LINE
  5
16011
330
15E46
100
AcDbEntity
  8
0
  6
ByBlock
 62
     0
 48
50.0
100
AcDbLine
 10
7316.896575106973
 20
6448.066653779701
 30
0.0
 11
7216.896575106973
 21
6448.066653779701
 31
0.0
  0
MTEXT
  5
16012
330
15E46
100
AcDbEntity
  8
0
  6
ByBlock
 62
     7
 48
50.0
100
AcDbMText
 10
7205.933677458226
 20
6548.0666537797
 30
0.0
 40
120.0
 41
0.0
 71
     5
 72
     1
  1
\A1;48
  7
STYLE1
 73
     1
 44
1.0
1001
ACAD
1000
MTEXTBEGIN
1070
    73
1070
     1
1070
    44
1040
1.0
1070
    74
1070
     0
1000
MTEXTEND
  0
LINE
  5
16013
330
15E46
100
AcDbEntity
  8
0
  6
ByBlock
 62
     0
 48
50.0
100
AcDbLine
 10
7364.896575106975
 20
6448.066653779701
 30
0.0
 11
7316.896575106973
 21
6448.066653779701
 31
0.0
  0
LINE
  5
16014
330
15E46
100
AcDbEntity
  8
0
  6
ByBlock
 62
     0
 48
50.0
100
AcDbLine
 10
7364.896575106975
 20
6448.066653779701
 30
0.0
 11
7316.896575106973
 21
6448.066653779701
 31
0.0
  0
INSERT
  5
16015
330
15E46
100
AcDbEntity
  8
0
  6
ByBlock
 62
     0
 48
50.0
100
AcDbBlockReference
  2
_DOTSMALL
 10
7364.896575106975
 20
6448.066653779701
 30
0.0
 41
100.0
 42
100.0
 43
100.0
 50
180.0
  0
INSERT
  5
16016
330
15E46
100
AcDbEntity
  8
0
  6
ByBlock
 62
     0
 48
50.0
100
AcDbBlockReference
  2
_DOTSMALL
 10
7316.896575106973
 20
6448.066653779701
 30
0.0
 41
100.0
 42
100.0
 43
100.0
  0
POINT
  5
16017
330
15E46
100
AcDbEntity
  8
DEFPOINTS
  6
ByBlock
 62
     0
 48
50.0
100
AcDbPoint
 10
7364.896575106975
 20
6982.497424545953
 30
0.0
  0
POINT
  5
16018
330
15E46
100
AcDbEntity
  8
DEFPOINTS
  6
ByBlock
 62
     0
 48
50.0
100
AcDbPoint
 10
7316.896575106973
 20
7008.497424545865
 30
0.0
  0
POINT
  5
16019
330
15E46
100
AcDbEntity
  8
DEFPOINTS
  6
ByBlock
 62
     0
 48
50.0
100
AcDbPoint
 10
7316.896575106973
 20
6448.066653779701
 30
0.0
  0
ENDBLK
  5
1601A
330
15E46
100
AcDbEntity
  8
0
 48
50.0
100
AcDbBlockEnd
  0
BLOCK
  5
1611E
330
15E54
100
AcDbEntity
  8
0
 48
50.0
100
AcDbBlockBegin
  2
*D11
 70
     1
 10
0.0
 20
0.0
 30
0.0
  3
*D11
  1

  0
LINE
  5
1611F
330
15E54
100
AcDbEntity
  8
0
  6
ByBlock
 62
     0
 48
50.0
100
AcDbLine
 10
4847.673057123657
 20
6988.497424545865
 30
0.0
 11
4847.673057123657
 21
6388.0666537797
 31
0.0
  0
LINE
  5
16120
330
15E54
100
AcDbEntity
  8
0
  6
ByBlock
 62
     0
 48
50.0
100
AcDbLine
 10
7271.673057123638
 20
6448.066653779701
 30
0.0
 11
4847.673057123657
 21
6448.066653779701
 31
0.0
  0
INSERT
  5
16121
330
15E54
100
AcDbEntity
  8
0
  6
ByBlock
 62
     0
 48
50.0
100
AcDbBlockReference
  2
_DOTSMALL
 10
7271.673057123638
 20
6448.066653779701
 30
0.0
 41
100.0
 42
100.0
 43
100.0
  0
INSERT
  5
16122
330
15E54
100
AcDbEntity
  8
0
  6
ByBlock
 62
     0
 48
50.0
100
AcDbBlockReference
  2
_DOTSMALL
 10
4847.673057123657
 20
6448.066653779701
 30
0.0
 41
100.0
 42
100.0
 43
100.0
 50
180.0
  0
MTEXT
  5
16123
330
15E54
100
AcDbEntity
  8
0
  6
ByBlock
 62
     7
 48
50.0
100
AcDbMText
 10
6059.673057123648
 20
6548.078464803322
 30
0.0
 40
120.0
 41
0.0
 71
     5
 72
     1
  1
\A1;有効開口部間口 2424
  7
STYLE1
 73
     1
 44
1.0
1001
ACAD
1000
MTEXTBEGIN
1070
    73
1070
     1
1070
    44
1040
1.0
1070
    74
1070
     0
1000
MTEXTEND
  0
POINT
  5
16124
330
15E54
100
AcDbEntity
  8
DEFPOINTS
  6
ByBlock
 62
     0
 48
50.0
100
AcDbPoint
 10
7271.673057123638
 20
7008.497424545865
 30
0.0
  0
POINT
  5
16125
330
15E54
100
AcDbEntity
  8
DEFPOINTS
  6
ByBlock
 62
     0
 48
50.0
100
AcDbPoint
 10
4847.673057123657
 20
7008.497424545864
 30
0.0
  0
POINT
  5
16126
330
15E54
100
AcDbEntity
  8
DEFPOINTS
  6
ByBlock
 62
     0
 48
50.0
100
AcDbPoint
 10
4847.673057123657
 20
6448.066653779701
 30
0.0
  0
ENDBLK
  5
16127
330
15E54
100
AcDbEntity
  8
0
 48
50.0
100
AcDbBlockEnd
  0
BLOCK
  5
15FE7
330
15E60
100
AcDbEntity
  8
0
 48
50.0
100
AcDbBlockBegin
  2
*D12
 70
     1
 10
0.0
 20
0.0
 30
0.0
  3
*D12
  1

  0
LINE
  5
15FE8
330
15E60
100
AcDbEntity
  8
0
  6
ByBlock
 62
     0
 48
50.0
100
AcDbLine
 10
5312.896575106992
 20
6988.497424545865
 30
0.0
 11
5312.896575106992
 21
6388.0666537797
 31
0.0
  0
LINE
  5
15FE9
330
15E60
100
AcDbEntity
  8
0
  6
ByBlock
 62
     0
 48
50.0
100
AcDbLine
 10
5264.896575106988
 20
6962.497424545865
 30
0.0
 11
5264.896575106988
 21
6388.0666537797
 31
0.0
  0
LINE
  5
15FEA
330
15E60
100
AcDbEntity
  8
0
  6
ByBlock
 62
     0
 48
50.0
100
AcDbLine
 10
5312.896575106992
 20
6448.066653779701
 30
0.0
 11
5412.896575106992
 21
6448.066653779701
 31
0.0
  0
LINE
  5
15FEB
330
15E60
100
AcDbEntity
  8
0
  6
ByBlock
 62
     0
 48
50.0
100
AcDbLine
 10
5264.896575106988
 20
6448.066653779701
 30
0.0
 11
5164.896575106988
 21
6448.066653779701
 31
0.0
  0
MTEXT
  5
15FEC
330
15E60
100
AcDbEntity
  8
0
  6
ByBlock
 62
     7
 48
50.0
100
AcDbMText
 10
5425.798546107049
 20
6548.0666537797
 30
0.0
 40
120.0
 41
0.0
 71
     5
 72
     1
  1
\A1;48
  7
STYLE1
 73
     1
 44
1.0
1001
ACAD
1000
MTEXTBEGIN
1070
    73
1070
     1
1070
    44
1040
1.0
1070
    74
1070
     0
1000
MTEXTEND
  0
LINE
  5
15FED
330
15E60
100
AcDbEntity
  8
0
  6
ByBlock
 62
     0
 48
50.0
100
AcDbLine
 10
5312.896575106992
 20
6448.066653779701
 30
0.0
 11
5264.896575106988
 21
6448.066653779701
 31
0.0
  0
LINE
  5
15FEE
330
15E60
100
AcDbEntity
  8
0
  6
ByBlock
 62
     0
 48
50.0
100
AcDbLine
 10
5312.896575106992
 20
6448.066653779701
 30
0.0
 11
5264.896575106988
 21
6448.066653779701
 31
0.0
  0
INSERT
  5
15FEF
330
15E60
100
AcDbEntity
  8
0
  6
ByBlock
 62
     0
 48
50.0
100
AcDbBlockReference
  2
_DOTSMALL
 10
5312.896575106992
 20
6448.066653779701
 30
0.0
 41
100.0
 42
100.0
 43
100.0
 50
180.0
  0
INSERT
  5
15FF0
330
15E60
100
AcDbEntity
  8
0
  6
ByBlock
 62
     0
 48
50.0
100
AcDbBlockReference
  2
_DOTSMALL
 10
5264.896575106988
 20
6448.066653779701
 30
0.0
 41
100.0
 42
100.0
 43
100.0
  0
POINT
  5
15FF1
330
15E60
100
AcDbEntity
  8
DEFPOINTS
  6
ByBlock
 62
     0
 48
50.0
100
AcDbPoint
 10
5312.896575106992
 20
7008.497424545864
 30
0.0
  0
POINT
  5
15FF2
330
15E60
100
AcDbEntity
  8
DEFPOINTS
  6
ByBlock
 62
     0
 48
50.0
100
AcDbPoint
 10
5264.896575106988
 20
6982.497424545865
 30
0.0
  0
POINT
  5
15FF3
330
15E60
100
AcDbEntity
  8
DEFPOINTS
  6
ByBlock
 62
     0
 48
50.0
100
AcDbPoint
 10
5264.896575106988
 20
6448.066653779701
 30
0.0
  0
ENDBLK
  5
15FF4
330
15E60
100
AcDbEntity
  8
0
 48
50.0
100
AcDbBlockEnd
  0
BLOCK
  5
15FF5
330
15E6E
100
AcDbEntity
  8
0
 48
50.0
100
AcDbBlockBegin
  2
*D13
 70
     1
 10
0.0
 20
0.0
 30
0.0
  3
*D13
  1

  0
LINE
  5
15FF6
330
15E6E
100
AcDbEntity
  8
0
  6
ByBlock
 62
     0
 48
50.0
100
AcDbLine
 10
5264.896575106988
 20
6962.497424545865
 30
0.0
 11
5264.896575106988
 21
6388.0666537797
 31
0.0
  0
LINE
  5
15FF7
330
15E6E
100
AcDbEntity
  8
0
  6
ByBlock
 62
     0
 48
50.0
100
AcDbLine
 10
5209.896575106991
 20
6962.497424545862
 30
0.0
 11
5209.896575106991
 21
6388.0666537797
 31
0.0
  0
LINE
  5
15FF8
330
15E6E
100
AcDbEntity
  8
0
  6
ByBlock
 62
     0
 48
50.0
100
AcDbLine
 10
5264.896575106988
 20
6448.066653779701
 30
0.0
 11
5364.896575106988
 21
6448.066653779701
 31
0.0
  0
LINE
  5
15FF9
330
15E6E
100
AcDbEntity
  8
0
  6
ByBlock
 62
     0
 48
50.0
100
AcDbLine
 10
5209.896575106991
 20
6448.066653779701
 30
0.0
 11
4792.926012358514
 21
6448.066653779701
 31
0.0
  0
LINE
  5
15FFA
330
15E6E
100
AcDbEntity
  8
0
  6
ByBlock
 62
     0
 48
50.0
100
AcDbLine
 10
5264.896575106988
 20
6448.066653779701
 30
0.0
 11
5209.896575106991
 21
6448.066653779701
 31
0.0
  0
INSERT
  5
15FFB
330
15E6E
100
AcDbEntity
  8
0
  6
ByBlock
 62
     0
 48
50.0
100
AcDbBlockReference
  2
_DOTSMALL
 10
5264.896575106988
 20
6448.066653779701
 30
0.0
 41
100.0
 42
100.0
 43
100.0
 50
180.0
  0
INSERT
  5
15FFC
330
15E6E
100
AcDbEntity
  8
0
  6
ByBlock
 62
     0
 48
50.0
100
AcDbBlockReference
  2
_DOTSMALL
 10
5209.896575106991
 20
6448.066653779701
 30
0.0
 41
100.0
 42
100.0
 43
100.0
  0
MTEXT
  5
15FFD
330
15E6E
100
AcDbEntity
  8
0
  6
ByBlock
 62
     7
 48
50.0
100
AcDbMText
 10
4901.411293732754
 20
6548.0666537797
 30
0.0
 40
120.0
 41
0.0
 71
     5
 72
     1
  1
\A1;55
  7
STYLE1
 73
     1
 44
1.0
1001
ACAD
1000
MTEXTBEGIN
1070
    73
1070
     1
1070
    44
1040
1.0
1070
    74
1070
     0
1000
MTEXTEND
  0
POINT
  5
15FFE
330
15E6E
100
AcDbEntity
  8
DEFPOINTS
  6
ByBlock
 62
     0
 48
50.0
100
AcDbPoint
 10
5264.896575106988
 20
6982.497424545865
 30
0.0
  0
POINT
  5
15FFF
330
15E6E
100
AcDbEntity
  8
DEFPOINTS
  6
ByBlock
 62
     0
 48
50.0
100
AcDbPoint
 10
5209.896575106991
 20
6982.497424545861
 30
0.0
  0
POINT
  5
16000
330
15E6E
100
AcDbEntity
  8
DEFPOINTS
  6
ByBlock
 62
     0
 48
50.0
100
AcDbPoint
 10
5209.896575106991
 20
6448.066653779701
 30
0.0
  0
ENDBLK
  5
16001
330
15E6E
100
AcDbEntity
  8
0
 48
50.0
100
AcDbBlockEnd
  0
BLOCK
  5
17503
330
174E1
100
AcDbEntity
  8
0
 48
50.0
100
AcDbBlockBegin
  2
*D14
 70
     1
 10
0.0
 20
0.0
 30
0.0
  3
*D14
  1

  0
LINE
  5
17504
330
174E1
100
AcDbEntity
  8
0
  6
ByBlock
 62
     0
 48
50.0
100
AcDbLine
 10
7366.173057123664
 20
9997.138440697154
 30
0.0
 11
7761.530782985689
 21
9891.202657331021
 31
0.0
  0
LINE
  5
17505
330
174E1
100
AcDbEntity
  8
0
  6
ByBlock
 62
     0
 48
50.0
100
AcDbLine
 10
7366.173057123664
 20
9547.138440697159
 30
0.0
 11
7761.530782985689
 21
9441.202657331023
 31
0.0
  0
LINE
  5
17506
330
174E1
100
AcDbEntity
  8
0
  6
ByBlock
 62
     0
 48
50.0
100
AcDbLine
 10
7701.530782985689
 20
9907.279608876887
 30
0.0
 11
7701.530782985689
 21
9457.27960887689
 31
0.0
  0
INSERT
  5
17507
330
174E1
100
AcDbEntity
  8
0
  6
ByBlock
 62
     0
 48
50.0
100
AcDbBlockReference
  2
_DOTSMALL
 10
7701.530782985689
 20
9907.279608876887
 30
0.0
 41
100.0
 42
100.0
 43
100.0
 50
90.0
  0
INSERT
  5
17508
330
174E1
100
AcDbEntity
  8
0
  6
ByBlock
 62
     0
 48
50.0
100
AcDbBlockReference
  2
_DOTSMALL
 10
7701.530782985689
 20
9457.27960887689
 30
0.0
 41
100.0
 42
100.0
 43
100.0
 50
270.0
  0
MTEXT
  5
17509
330
174E1
100
AcDbEntity
  8
0
  6
ByBlock
 62
     7
 48
50.0
100
AcDbMText
 10
7601.530782985689
 20
9682.279608876889
 30
0.0
 40
120.0
 41
0.0
 71
     5
 72
     1
  1
\A1;450
  7
STYLE1
 11
0.0000000000000001
 21
1.0
 31
0.0
 73
     1
 44
1.0
1001
ACAD
1000
MTEXTBEGIN
1070
    73
1070
     1
1070
    44
1040
1.0
1070
    74
1070
     0
1000
MTEXTEND
  0
POINT
  5
1750A
330
174E1
100
AcDbEntity
  8
DEFPOINTS
  6
ByBlock
 62
     0
 48
50.0
100
AcDbPoint
 10
7346.173057123666
 20
10002.49742454577
 30
0.0
  0
POINT
  5
1750B
330
174E1
100
AcDbEntity
  8
DEFPOINTS
  6
ByBlock
 62
     0
 48
50.0
100
AcDbPoint
 10
7346.173057123666
 20
9552.49742454578
 30
0.0
  0
POINT
  5
1750C
330
174E1
100
AcDbEntity
  8
DEFPOINTS
  6
ByBlock
 62
     0
 48
50.0
100
AcDbPoint
 10
7701.530782985689
 20
9457.27960887689
 30
0.0
  0
ENDBLK
  5
1750D
330
174E1
100
AcDbEntity
  8
0
 48
50.0
100
AcDbBlockEnd
  0
BLOCK
  5
17B71
330
17B65
100
AcDbEntity
  8
0
 48
50.0
100
AcDbBlockBegin
  2
*D15
 70
     1
 10
0.0
 20
0.0
 30
0.0
  3
*D15
  1

  0
LINE
  5
17F2F
330
17B65
100
AcDbEntity
  8
寸法
 62
     0
 48
50.0
370
    -2
100
AcDbLine
 10
4744.673057123658
 20
4493.87227225572
 30
0.0
 11
4744.673057123658
 21
4746.413857513958
 31
0.0
  0
LINE
  5
17F30
330
17B65
100
AcDbEntity
  8
寸法
 62
     0
 48
50.0
370
    -2
100
AcDbLine
 10
4694.673057123658
 20
4493.872272255718
 30
0.0
 11
4694.673057123658
 21
4746.413857513958
 31
0.0
  0
LINE
  5
17F31
330
17B65
100
AcDbEntity
  8
寸法
 62
     0
 48
50.0
370
    -2
100
AcDbLine
 10
4744.673057123658
 20
4686.413857513957
 30
0.0
 11
4844.673057123658
 21
4686.413857513957
 31
0.0
  0
LINE
  5
17F32
330
17B65
100
AcDbEntity
  8
寸法
 62
     0
 48
50.0
370
    -2
100
AcDbLine
 10
4694.673057123658
 20
4686.413857513957
 30
0.0
 11
4275.140531654924
 21
4686.413857513957
 31
0.0
  0
LINE
  5
17F33
330
17B65
100
AcDbEntity
  8
寸法
 62
     0
 48
50.0
370
    -2
100
AcDbLine
 10
4744.673057123658
 20
4686.413857513957
 30
0.0
 11
4694.673057123658
 21
4686.413857513957
 31
0.0
  0
INSERT
  5
17F34
330
17B65
100
AcDbEntity
  8
寸法
 62
     0
 48
50.0
370
    -2
100
AcDbBlockReference
  2
_DOTSMALL
 10
4744.673057123658
 20
4686.413857513957
 30
0.0
 41
100.0
 42
100.0
 43
100.0
 50
180.0
  0
INSERT
  5
17F35
330
17B65
100
AcDbEntity
  8
寸法
 62
     0
 48
50.0
370
    -2
100
AcDbBlockReference
  2
_DOTSMALL
 10
4694.673057123658
 20
4686.413857513957
 30
0.0
 41
100.0
 42
100.0
 43
100.0
  0
MTEXT
  5
17F36
330
17B65
100
AcDbEntity
  8
寸法
 62
     7
 48
50.0
100
AcDbMText
 10
4381.187775749411
 20
4786.413857513958
 30
0.0
 40
120.0
 41
0.0
 71
     5
 72
     1
  1
\A1;50
  7
STYLE1
 73
     1
 44
1.0
1001
ACAD
1000
MTEXTBEGIN
1070
    73
1070
     1
1070
    44
1040
1.0
1070
    74
1070
     0
1000
MTEXTEND
  0
POINT
  5
17F37
330
17B65
100
AcDbEntity
  8
DEFPOINTS
 62
     0
 48
50.0
100
AcDbPoint
 10
4744.673057123658
 20
4473.872272255721
 30
0.0
  0
POINT
  5
17F38
330
17B65
100
AcDbEntity
  8
DEFPOINTS
 62
     0
 48
50.0
100
AcDbPoint
 10
4694.673057123658
 20
4473.872272255718
 30
0.0
  0
POINT
  5
17F39
330
17B65
100
AcDbEntity
  8
DEFPOINTS
 62
     0
 48
50.0
100
AcDbPoint
 10
4694.673057123658
 20
4686.413857513957
 30
0.0
  0
ENDBLK
  5
17B72
330
17B65
100
AcDbEntity
  8
0
 48
50.0
100
AcDbBlockEnd
  0
BLOCK
  5
17B7D
330
17B73
100
AcDbEntity
  8
0
 48
50.0
100
AcDbBlockBegin
  2
*D16
 70
     1
 10
0.0
 20
0.0
 30
0.0
  3
*D16
  1

  0
LINE
  5
18B55
330
17B73
100
AcDbEntity
  8
寸法
 62
     0
 48
50.0
370
    -2
100
AcDbLine
 10
4694.673057123658
 20
4493.872272255718
 30
0.0
 11
4694.673057123658
 21
4961.809288996213
 31
0.0
  0
LINE
  5
18B56
330
17B73
100
AcDbEntity
  8
寸法
 62
     0
 48
50.0
370
    -2
100
AcDbLine
 10
7424.673057123658
 20
4493.872272255717
 30
0.0
 11
7424.673057123658
 21
4961.809288996213
 31
0.0
  0
LINE
  5
18B57
330
17B73
100
AcDbEntity
  8
寸法
 62
     0
 48
50.0
370
    -2
100
AcDbLine
 10
4694.673057123658
 20
4901.809288996212
 30
0.0
 11
7424.673057123658
 21
4901.809288996212
 31
0.0
  0
INSERT
  5
18B58
330
17B73
100
AcDbEntity
  8
寸法
 62
     0
 48
50.0
370
    -2
100
AcDbBlockReference
  2
_DOTSMALL
 10
4694.673057123658
 20
4901.809288996212
 30
0.0
 41
100.0
 42
100.0
 43
100.0
 50
180.0
  0
INSERT
  5
18B59
330
17B73
100
AcDbEntity
  8
寸法
 62
     0
 48
50.0
370
    -2
100
AcDbBlockReference
  2
_DOTSMALL
 10
7424.673057123658
 20
4901.809288996212
 30
0.0
 41
100.0
 42
100.0
 43
100.0
  0
MTEXT
  5
18B5A
330
17B73
100
AcDbEntity
  8
寸法
 62
     7
 48
50.0
100
AcDbMText
 10
6059.673057123658
 20
5001.821100019834
 30
0.0
 40
120.0
 41
0.0
 71
     5
 72
     1
  1
\A1;2730
  7
STYLE1
 73
     1
 44
1.0
1001
ACAD
1000
MTEXTBEGIN
1070
    73
1070
     1
1070
    44
1040
1.0
1070
    74
1070
     0
1000
MTEXTEND
  0
POINT
  5
18B5B
330
17B73
100
AcDbEntity
  8
DEFPOINTS
 62
     0
 48
50.0
100
AcDbPoint
 10
4694.673057123658
 20
4473.872272255718
 30
0.0
  0
POINT
  5
18B5C
330
17B73
100
AcDbEntity
  8
DEFPOINTS
 62
     0
 48
50.0
100
AcDbPoint
 10
7424.673057123658
 20
4473.872272255717
 30
0.0
  0
POINT
  5
18B5D
330
17B73
100
AcDbEntity
  8
DEFPOINTS
 62
     0
 48
50.0
100
AcDbPoint
 10
7424.673057123658
 20
4901.809288996212
 30
0.0
  0
ENDBLK
  5
17B7E
330
17B73
100
AcDbEntity
  8
0
 48
50.0
100
AcDbBlockEnd
  0
BLOCK
  5
17B89
330
17B7F
100
AcDbEntity
  8
0
 48
50.0
100
AcDbBlockBegin
  2
*D17
 70
     1
 10
0.0
 20
0.0
 30
0.0
  3
*D17
  1

  0
LINE
  5
18B5E
330
17B7F
100
AcDbEntity
  8
寸法
 62
     0
 48
50.0
370
    -2
100
AcDbLine
 10
7374.673057123658
 20
4493.872272255718
 30
0.0
 11
7374.673057123658
 21
4746.413857513958
 31
0.0
  0
LINE
  5
18B5F
330
17B7F
100
AcDbEntity
  8
寸法
 62
     0
 48
50.0
370
    -2
100
AcDbLine
 10
4744.673057123658
 20
4493.87227225572
 30
0.0
 11
4744.673057123658
 21
4746.413857513958
 31
0.0
  0
LINE
  5
18B60
330
17B7F
100
AcDbEntity
  8
寸法
 62
     0
 48
50.0
370
    -2
100
AcDbLine
 10
7374.673057123658
 20
4686.413857513957
 30
0.0
 11
4744.673057123658
 21
4686.413857513957
 31
0.0
  0
INSERT
  5
18B61
330
17B7F
100
AcDbEntity
  8
寸法
 62
     0
 48
50.0
370
    -2
100
AcDbBlockReference
  2
_DOTSMALL
 10
7374.673057123658
 20
4686.413857513957
 30
0.0
 41
100.0
 42
100.0
 43
100.0
  0
INSERT
  5
18B62
330
17B7F
100
AcDbEntity
  8
寸法
 62
     0
 48
50.0
370
    -2
100
AcDbBlockReference
  2
_DOTSMALL
 10
4744.673057123658
 20
4686.413857513957
 30
0.0
 41
100.0
 42
100.0
 43
100.0
 50
180.0
  0
MTEXT
  5
18B63
330
17B7F
100
AcDbEntity
  8
寸法
 62
     7
 48
50.0
100
AcDbMText
 10
6059.673057123658
 20
4786.425668537579
 30
0.0
 40
120.0
 41
0.0
 71
     5
 72
     1
  1
\A1;柱外寸法2630
  7
STYLE1
 73
     1
 44
1.0
1001
ACAD
1000
MTEXTBEGIN
1070
    73
1070
     1
1070
    44
1040
1.0
1070
    74
1070
     0
1000
MTEXTEND
  0
POINT
  5
18B64
330
17B7F
100
AcDbEntity
  8
DEFPOINTS
 62
     0
 48
50.0
100
AcDbPoint
 10
7374.673057123658
 20
4473.872272255718
 30
0.0
  0
POINT
  5
18B65
330
17B7F
100
AcDbEntity
  8
DEFPOINTS
 62
     0
 48
50.0
100
AcDbPoint
 10
4744.673057123658
 20
4473.872272255721
 30
0.0
  0
POINT
  5
18B66
330
17B7F
100
AcDbEntity
  8
DEFPOINTS
 62
     0
 48
50.0
100
AcDbPoint
 10
4744.673057123658
 20
4686.413857513957
 30
0.0
  0
ENDBLK
  5
17B8A
330
17B7F
100
AcDbEntity
  8
0
 48
50.0
100
AcDbBlockEnd
  0
BLOCK
  5
17B97
330
17B8B
100
AcDbEntity
  8
0
 48
50.0
100
AcDbBlockBegin
  2
*D18
 70
     1
 10
0.0
 20
0.0
 30
0.0
  3
*D18
  1

  0
LINE
  5
17F12
330
17B8B
100
AcDbEntity
  8
寸法
 62
     0
 48
50.0
370
    -2
100
AcDbLine
 10
7424.673057123658
 20
4493.872272255717
 30
0.0
 11
7424.673057123658
 21
4746.413857513958
 31
0.0
  0
LINE
  5
17F13
330
17B8B
100
AcDbEntity
  8
寸法
 62
     0
 48
50.0
370
    -2
100
AcDbLine
 10
7374.673057123658
 20
4493.872272255718
 30
0.0
 11
7374.673057123658
 21
4746.413857513958
 31
0.0
  0
LINE
  5
17F14
330
17B8B
100
AcDbEntity
  8
寸法
 62
     0
 48
50.0
370
    -2
100
AcDbLine
 10
7374.673057123658
 20
4686.413857513957
 30
0.0
 11
7274.673057123658
 21
4686.413857513957
 31
0.0
  0
LINE
  5
17F15
330
17B8B
100
AcDbEntity
  8
寸法
 62
     0
 48
50.0
370
    -2
100
AcDbLine
 10
7424.673057123658
 20
4686.413857513957
 30
0.0
 11
7844.205582592383
 21
4686.413857513957
 31
0.0
  0
LINE
  5
17F16
330
17B8B
100
AcDbEntity
  8
寸法
 62
     0
 48
50.0
370
    -2
100
AcDbLine
 10
7374.673057123658
 20
4686.413857513957
 30
0.0
 11
7424.673057123658
 21
4686.413857513957
 31
0.0
  0
INSERT
  5
17F17
330
17B8B
100
AcDbEntity
  8
寸法
 62
     0
 48
50.0
370
    -2
100
AcDbBlockReference
  2
_DOTSMALL
 10
7374.673057123658
 20
4686.413857513957
 30
0.0
 41
100.0
 42
100.0
 43
100.0
  0
INSERT
  5
17F18
330
17B8B
100
AcDbEntity
  8
寸法
 62
     0
 48
50.0
370
    -2
100
AcDbBlockReference
  2
_DOTSMALL
 10
7424.673057123658
 20
4686.413857513957
 30
0.0
 41
100.0
 42
100.0
 43
100.0
 50
180.0
  0
MTEXT
  5
17F19
330
17B8B
100
AcDbEntity
  8
寸法
 62
     7
 48
50.0
100
AcDbMText
 10
7738.158338497895
 20
4786.413857513958
 30
0.0
 40
120.0
 41
0.0
 71
     5
 72
     1
  1
\A1;50
  7
STYLE1
 73
     1
 44
1.0
1001
ACAD
1000
MTEXTBEGIN
1070
    73
1070
     1
1070
    44
1040
1.0
1070
    74
1070
     0
1000
MTEXTEND
  0
POINT
  5
17F1A
330
17B8B
100
AcDbEntity
  8
DEFPOINTS
 62
     0
 48
50.0
100
AcDbPoint
 10
7424.673057123658
 20
4473.872272255717
 30
0.0
  0
POINT
  5
17F1B
330
17B8B
100
AcDbEntity
  8
DEFPOINTS
 62
     0
 48
50.0
100
AcDbPoint
 10
7374.673057123658
 20
4473.872272255718
 30
0.0
  0
POINT
  5
17F1C
330
17B8B
100
AcDbEntity
  8
DEFPOINTS
 62
     0
 48
50.0
100
AcDbPoint
 10
7374.673057123658
 20
4686.413857513957
 30
0.0
  0
ENDBLK
  5
17B98
330
17B8B
100
AcDbEntity
  8
0
 48
50.0
100
AcDbBlockEnd
  0
BLOCK
  5
17BA4
330
17B99
100
AcDbEntity
  8
0
 48
50.0
100
AcDbBlockBegin
  2
*D19
 70
     1
 10
0.0
 20
0.0
 30
0.0
  3
*D19
  1

  0
LINE
  5
17F08
330
17B99
100
AcDbEntity
  8
寸法
 62
     0
 48
50.0
370
    -2
100
AcDbLine
 10
9249.874725222246
 20
4473.169979325374
 30
0.0
 11
8633.940286116965
 21
4490.884129599703
 31
0.0
  0
LINE
  5
17F09
330
17B99
100
AcDbEntity
  8
寸法
 62
     0
 48
50.0
370
    -2
100
AcDbLine
 10
9245.821269665622
 20
4332.228255559662
 30
0.0
 11
8629.886830560337
 21
4349.942405833991
 31
0.0
  0
LINE
  5
17F0A
330
17B99
100
AcDbEntity
  8
寸法
 62
     0
 48
50.0
370
    -2
100
AcDbLine
 10
8689.862032162769
 20
4348.217531129043
 30
0.0
 11
8693.915487719396
 21
4489.159254894755
 31
0.0
  0
LINE
  5
17F0B
330
17B99
100
AcDbEntity
  8
寸法
 62
     0
 48
50.0
370
    -2
100
AcDbLine
 10
8693.915487719396
 20
4489.159254894755
 30
0.0
 11
8704.264735949079
 21
4849.010464509342
 31
0.0
  0
INSERT
  5
17F0C
330
17B99
100
AcDbEntity
  8
寸法
 62
     0
 48
50.0
370
    -2
100
AcDbBlockReference
  2
_DOTSMALL
 10
8689.862032162769
 20
4348.217531129043
 30
0.0
 41
100.0
 42
100.0
 43
100.0
 50
268.3526390256378
  0
INSERT
  5
17F0D
330
17B99
100
AcDbEntity
  8
寸法
 62
     0
 48
50.0
370
    -2
100
AcDbBlockReference
  2
_DOTSMALL
 10
8693.915487719396
 20
4489.159254894755
 30
0.0
 41
100.0
 42
100.0
 43
100.0
 50
88.35263902563776
  0
MTEXT
  5
17F0E
330
17B99
100
AcDbEntity
  8
寸法
 62
     7
 48
50.0
100
AcDbMText
 10
8600.56883808431
 20
4721.938985545655
 30
0.0
 40
120.0
 41
0.0
 71
     5
 72
     1
  1
\A1;141
  7
STYLE1
 11
0.0287479117491237
 21
0.9995866933738488
 31
0.0
 73
     1
 44
1.0
1001
ACAD
1000
MTEXTBEGIN
1070
    73
1070
     1
1070
    44
1040
1.0
1070
    74
1070
     0
1000
MTEXTEND
  0
POINT
  5
17F0F
330
17B99
100
AcDbEntity
  8
DEFPOINTS
 62
     0
 48
50.0
100
AcDbPoint
 10
9269.866459089724
 20
4472.59502109039
 30
0.0
  0
POINT
  5
17F10
330
17B99
100
AcDbEntity
  8
DEFPOINTS
 62
     0
 48
50.0
100
AcDbPoint
 10
9265.813003533098
 20
4331.653297324679
 30
0.0
  0
POINT
  5
17F11
330
17B99
100
AcDbEntity
  8
DEFPOINTS
 62
     0
 48
50.0
100
AcDbPoint
 10
8689.862032162769
 20
4348.217531129043
 30
0.0
  0
ENDBLK
  5
17BA5
330
17B99
100
AcDbEntity
  8
0
 48
50.0
100
AcDbBlockEnd
  0
BLOCK
  5
17BB1
330
17BA6
100
AcDbEntity
  8
0
 48
50.0
100
AcDbBlockBegin
  2
*D20
 70
     1
 10
0.0
 20
0.0
 30
0.0
  3
*D20
  1

  0
LINE
  5
17EFE
330
17BA6
100
AcDbEntity
  8
寸法
 62
     0
 48
50.0
370
    -2
100
AcDbLine
 10
12360.47043893114
 20
4440.682951867367
 30
0.0
 11
12360.47043893114
 21
4932.529725835018
 31
0.0
  0
LINE
  5
17EFF
330
17BA6
100
AcDbEntity
  8
寸法
 62
     0
 48
50.0
370
    -2
100
AcDbLine
 10
12440.47043893114
 20
4438.872272255716
 30
0.0
 11
12440.47043893114
 21
4932.529725835018
 31
0.0
  0
LINE
  5
17F00
330
17BA6
100
AcDbEntity
  8
寸法
 62
     0
 48
50.0
370
    -2
100
AcDbLine
 10
12360.47043893114
 20
4872.529725835018
 30
0.0
 11
12440.47043893114
 21
4872.529725835018
 31
0.0
  0
LINE
  5
17F01
330
17BA6
100
AcDbEntity
  8
寸法
 62
     0
 48
50.0
370
    -2
100
AcDbLine
 10
12440.47043893114
 20
4872.529725835018
 30
0.0
 11
12752.56492712012
 21
4872.529725835018
 31
0.0
  0
INSERT
  5
17F02
330
17BA6
100
AcDbEntity
  8
寸法
 62
     0
 48
50.0
370
    -2
100
AcDbBlockReference
  2
_DOTSMALL
 10
12360.47043893114
 20
4872.529725835018
 30
0.0
 41
100.0
 42
100.0
 43
100.0
 50
180.0
  0
INSERT
  5
17F03
330
17BA6
100
AcDbEntity
  8
寸法
 62
     0
 48
50.0
370
    -2
100
AcDbBlockReference
  2
_DOTSMALL
 10
12440.47043893114
 20
4872.529725835018
 30
0.0
 41
100.0
 42
100.0
 43
100.0
  0
MTEXT
  5
17F04
330
17BA6
100
AcDbEntity
  8
寸法
 62
     7
 48
50.0
100
AcDbMText
 10
12646.51768302563
 20
4972.529725835018
 30
0.0
 40
120.0
 41
0.0
 71
     5
 72
     1
  1
\A1;80
  7
STYLE1
 73
     1
 44
1.0
1001
ACAD
1000
MTEXTBEGIN
1070
    73
1070
     1
1070
    44
1040
1.0
1070
    74
1070
     0
1000
MTEXTEND
  0
POINT
  5
17F05
330
17BA6
100
AcDbEntity
  8
DEFPOINTS
 62
     0
 48
50.0
100
AcDbPoint
 10
12360.47043893114
 20
4420.682951867368
 30
0.0
  0
POINT
  5
17F06
330
17BA6
100
AcDbEntity
  8
DEFPOINTS
 62
     0
 48
50.0
100
AcDbPoint
 10
12440.47043893114
 20
4418.872272255716
 30
0.0
  0
POINT
  5
17F07
330
17BA6
100
AcDbEntity
  8
DEFPOINTS
 62
     0
 48
50.0
100
AcDbPoint
 10
12440.47043893114
 20
4872.529725835018
 30
0.0
  0
ENDBLK
  5
17BB2
330
17BA6
100
AcDbEntity
  8
0
 48
50.0
100
AcDbBlockEnd
  0
BLOCK
  5
17BBD
330
17BB3
100
AcDbEntity
  8
0
 48
50.0
100
AcDbBlockBegin
  2
*D21
 70
     1
 10
0.0
 20
0.0
 30
0.0
  3
*D21
  1

  0
LINE
  5
18B42
330
17BB3
100
AcDbEntity
  8
寸法
 62
     0
 48
50.0
370
    -2
100
AcDbLine
 10
12440.47043893114
 20
4438.872272255713
 30
0.0
 11
12440.47043893114
 21
5162.643318621294
 31
0.0
  0
LINE
  5
18B43
330
17BB3
100
AcDbEntity
  8
寸法
 62
     0
 48
50.0
370
    -2
100
AcDbLine
 10
9250.470438931147
 20
4493.872272255718
 30
0.0
 11
9250.470438931147
 21
5162.643318621294
 31
0.0
  0
LINE
  5
18B44
330
17BB3
100
AcDbEntity
  8
寸法
 62
     0
 48
50.0
370
    -2
100
AcDbLine
 10
12440.47043893114
 20
5102.643318621295
 30
0.0
 11
9250.470438931147
 21
5102.643318621295
 31
0.0
  0
INSERT
  5
18B45
330
17BB3
100
AcDbEntity
  8
寸法
 62
     0
 48
50.0
370
    -2
100
AcDbBlockReference
  2
_DOTSMALL
 10
12440.47043893114
 20
5102.643318621295
 30
0.0
 41
100.0
 42
100.0
 43
100.0
  0
INSERT
  5
18B46
330
17BB3
100
AcDbEntity
  8
寸法
 62
     0
 48
50.0
370
    -2
100
AcDbBlockReference
  2
_DOTSMALL
 10
9250.470438931147
 20
5102.643318621295
 30
0.0
 41
100.0
 42
100.0
 43
100.0
 50
180.0
  0
MTEXT
  5
18B47
330
17BB3
100
AcDbEntity
  8
寸法
 62
     7
 48
50.0
100
AcDbMText
 10
10845.47043893114
 20
5202.643318621294
 30
0.0
 40
120.0
 41
0.0
 71
     5
 72
     1
  1
\A1;3190
  7
STYLE1
 73
     1
 44
1.0
1001
ACAD
1000
MTEXTBEGIN
1070
    73
1070
     1
1070
    44
1040
1.0
1070
    74
1070
     0
1000
MTEXTEND
  0
POINT
  5
18B48
330
17BB3
100
AcDbEntity
  8
DEFPOINTS
 62
     0
 48
50.0
100
AcDbPoint
 10
12440.47043893114
 20
4418.872272255714
 30
0.0
  0
POINT
  5
18B49
330
17BB3
100
AcDbEntity
  8
DEFPOINTS
 62
     0
 48
50.0
100
AcDbPoint
 10
9250.470438931147
 20
4473.872272255717
 30
0.0
  0
POINT
  5
18B4A
330
17BB3
100
AcDbEntity
  8
DEFPOINTS
 62
     0
 48
50.0
100
AcDbPoint
 10
9250.470438931147
 20
5102.643318621295
 30
0.0
  0
ENDBLK
  5
17BBE
330
17BB3
100
AcDbEntity
  8
0
 48
50.0
100
AcDbBlockEnd
  0
BLOCK
  5
17BCB
330
17BBF
100
AcDbEntity
  8
0
 48
50.0
100
AcDbBlockBegin
  2
*D22
 70
     1
 10
0.0
 20
0.0
 30
0.0
  3
*D22
  1

  0
LINE
  5
17EEA
330
17BBF
100
AcDbEntity
  8
寸法
 62
     0
 48
50.0
370
    -2
100
AcDbLine
 10
9310.470438931146
 20
4489.873890378689
 30
0.0
 11
9310.470438931146
 21
4932.529725835017
 31
0.0
  0
LINE
  5
17EEB
330
17BBF
100
AcDbEntity
  8
寸法
 62
     0
 48
50.0
370
    -2
100
AcDbLine
 10
9250.470438931147
 20
4493.872272255718
 30
0.0
 11
9250.470438931147
 21
4932.529725835017
 31
0.0
  0
LINE
  5
17EEC
330
17BBF
100
AcDbEntity
  8
寸法
 62
     0
 48
50.0
370
    -2
100
AcDbLine
 10
9310.470438931146
 20
4872.529725835017
 30
0.0
 11
9410.470438931147
 21
4872.529725835017
 31
0.0
  0
LINE
  5
17EED
330
17BBF
100
AcDbEntity
  8
寸法
 62
     0
 48
50.0
370
    -2
100
AcDbLine
 10
9250.470438931147
 20
4872.529725835017
 30
0.0
 11
8831.194848379967
 21
4872.529725835017
 31
0.0
  0
LINE
  5
17EEE
330
17BBF
100
AcDbEntity
  8
寸法
 62
     0
 48
50.0
370
    -2
100
AcDbLine
 10
9310.470438931146
 20
4872.529725835017
 30
0.0
 11
9250.470438931147
 21
4872.529725835017
 31
0.0
  0
INSERT
  5
17EEF
330
17BBF
100
AcDbEntity
  8
寸法
 62
     0
 48
50.0
370
    -2
100
AcDbBlockReference
  2
_DOTSMALL
 10
9310.470438931146
 20
4872.529725835017
 30
0.0
 41
100.0
 42
100.0
 43
100.0
 50
180.0
  0
INSERT
  5
17EF0
330
17BBF
100
AcDbEntity
  8
寸法
 62
     0
 48
50.0
370
    -2
100
AcDbBlockReference
  2
_DOTSMALL
 10
9250.470438931147
 20
4872.529725835017
 30
0.0
 41
100.0
 42
100.0
 43
100.0
  0
MTEXT
  5
17EF1
330
17BBF
100
AcDbEntity
  8
寸法
 62
     7
 48
50.0
100
AcDbMText
 10
8940.832643655557
 20
4972.529725835016
 30
0.0
 40
120.0
 41
0.0
 71
     5
 72
     1
  1
\A1;60
  7
STYLE1
 73
     1
 44
1.0
1001
ACAD
1000
MTEXTBEGIN
1070
    73
1070
     1
1070
    44
1040
1.0
1070
    74
1070
     0
1000
MTEXTEND
  0
POINT
  5
17EF2
330
17BBF
100
AcDbEntity
  8
DEFPOINTS
 62
     0
 48
50.0
100
AcDbPoint
 10
9310.470438931146
 20
4469.873890378688
 30
0.0
  0
POINT
  5
17EF3
330
17BBF
100
AcDbEntity
  8
DEFPOINTS
 62
     0
 48
50.0
100
AcDbPoint
 10
9250.470438931147
 20
4473.872272255717
 30
0.0
  0
POINT
  5
17EF4
330
17BBF
100
AcDbEntity
  8
DEFPOINTS
 62
     0
 48
50.0
100
AcDbPoint
 10
9250.470438931147
 20
4872.529725835017
 30
0.0
  0
ENDBLK
  5
17BCC
330
17BBF
100
AcDbEntity
  8
0
 48
50.0
100
AcDbBlockEnd
  0
BLOCK
  5
17BD7
330
17BCD
100
AcDbEntity
  8
0
 48
50.0
100
AcDbBlockBegin
  2
*D23
 70
     1
 10
0.0
 20
0.0
 30
0.0
  3
*D23
  1

  0
LINE
  5
18B4B
330
17BCD
100
AcDbEntity
  8
寸法
 62
     0
 48
50.0
370
    -2
100
AcDbLine
 10
12360.47043893114
 20
4440.682951867367
 30
0.0
 11
12360.47043893114
 21
4932.529725835018
 31
0.0
  0
LINE
  5
18B4C
330
17BCD
100
AcDbEntity
  8
寸法
 62
     0
 48
50.0
370
    -2
100
AcDbLine
 10
9310.470438931146
 20
4489.873890378689
 30
0.0
 11
9310.470438931146
 21
4932.529725835018
 31
0.0
  0
LINE
  5
18B4D
330
17BCD
100
AcDbEntity
  8
寸法
 62
     0
 48
50.0
370
    -2
100
AcDbLine
 10
12360.47043893114
 20
4872.529725835018
 30
0.0
 11
9310.470438931146
 21
4872.529725835018
 31
0.0
  0
INSERT
  5
18B4E
330
17BCD
100
AcDbEntity
  8
寸法
 62
     0
 48
50.0
370
    -2
100
AcDbBlockReference
  2
_DOTSMALL
 10
12360.47043893114
 20
4872.529725835018
 30
0.0
 41
100.0
 42
100.0
 43
100.0
  0
INSERT
  5
18B4F
330
17BCD
100
AcDbEntity
  8
寸法
 62
     0
 48
50.0
370
    -2
100
AcDbBlockReference
  2
_DOTSMALL
 10
9310.470438931146
 20
4872.529725835018
 30
0.0
 41
100.0
 42
100.0
 43
100.0
 50
180.0
  0
MTEXT
  5
18B50
330
17BCD
100
AcDbEntity
  8
寸法
 62
     7
 48
50.0
100
AcDbMText
 10
10835.47043893114
 20
4972.529725835018
 30
0.0
 40
120.0
 41
0.0
 71
     5
 72
     1
  1
\A1;柱外寸法3050
  7
STYLE1
 73
     1
 44
1.0
1001
ACAD
1000
MTEXTBEGIN
1070
    73
1070
     1
1070
    44
1040
1.0
1070
    74
1070
     0
1000
MTEXTEND
  0
POINT
  5
18B51
330
17BCD
100
AcDbEntity
  8
DEFPOINTS
 62
     0
 48
50.0
100
AcDbPoint
 10
12360.47043893114
 20
4420.682951867368
 30
0.0
  0
POINT
  5
18B52
330
17BCD
100
AcDbEntity
  8
DEFPOINTS
 62
     0
 48
50.0
100
AcDbPoint
 10
9310.470438931146
 20
4469.873890378688
 30
0.0
  0
POINT
  5
18B53
330
17BCD
100
AcDbEntity
  8
DEFPOINTS
 62
     0
 48
50.0
100
AcDbPoint
 10
9310.470438931146
 20
4872.529725835018
 30
0.0
  0
ENDBLK
  5
17BD8
330
17BCD
100
AcDbEntity
  8
0
 48
50.0
100
AcDbBlockEnd
  0
BLOCK
  5
17BE3
330
17BD9
100
AcDbEntity
  8
0
 48
50.0
100
AcDbBlockBegin
  2
*D24
 70
     1
 10
0.0
 20
0.0
 30
0.0
  3
*D24
  1

  0
LINE
  5
17ED8
330
17BD9
100
AcDbEntity
  8
寸法
 62
     0
 48
50.0
370
    -2
100
AcDbLine
 10
9290.470438931137
 20
2098.872272255714
 30
0.0
 11
8106.720309747878
 21
2098.872272255714
 31
0.0
  0
LINE
  5
17ED9
330
17BD9
100
AcDbEntity
  8
寸法
 62
     0
 48
50.0
370
    -2
100
AcDbLine
 10
9230.470438931137
 20
4473.872272255717
 30
0.0
 11
8106.720309747878
 21
4473.872272255717
 31
0.0
  0
LINE
  5
17EDA
330
17BD9
100
AcDbEntity
  8
寸法
 62
     0
 48
50.0
370
    -2
100
AcDbLine
 10
8166.720309747878
 20
2098.872272255714
 30
0.0
 11
8166.720309747878
 21
4473.872272255717
 31
0.0
  0
INSERT
  5
17EDB
330
17BD9
100
AcDbEntity
  8
寸法
 62
     0
 48
50.0
370
    -2
100
AcDbBlockReference
  2
_DOTSMALL
 10
8166.720309747878
 20
2098.872272255714
 30
0.0
 41
100.0
 42
100.0
 43
100.0
 50
270.0
  0
INSERT
  5
17EDC
330
17BD9
100
AcDbEntity
  8
寸法
 62
     0
 48
50.0
370
    -2
100
AcDbBlockReference
  2
_DOTSMALL
 10
8166.720309747878
 20
4473.872272255717
 30
0.0
 41
100.0
 42
100.0
 43
100.0
 50
90.0
  0
MTEXT
  5
17EDD
330
17BD9
100
AcDbEntity
  8
寸法
 62
     7
 48
50.0
100
AcDbMText
 10
8066.708498724254
 20
3286.372272255717
 30
0.0
 40
120.0
 41
0.0
 71
     5
 72
     1
  1
\A1;2375
  7
STYLE1
 11
0.0000000000000001
 21
1.0
 31
0.0
 73
     1
 44
1.0
1001
ACAD
1000
MTEXTBEGIN
1070
    73
1070
     1
1070
    44
1040
1.0
1070
    74
1070
     0
1000
MTEXTEND
  0
POINT
  5
17EDE
330
17BD9
100
AcDbEntity
  8
DEFPOINTS
 62
     0
 48
50.0
100
AcDbPoint
 10
9310.470438931139
 20
2098.872272255714
 30
0.0
  0
POINT
  5
17EDF
330
17BD9
100
AcDbEntity
  8
DEFPOINTS
 62
     0
 48
50.0
100
AcDbPoint
 10
9250.470438931136
 20
4473.872272255717
 30
0.0
  0
POINT
  5
17EE0
330
17BD9
100
AcDbEntity
  8
DEFPOINTS
 62
     0
 48
50.0
100
AcDbPoint
 10
8166.720309747878
 20
4473.872272255717
 30
0.0
  0
ENDBLK
  5
17BE4
330
17BD9
100
AcDbEntity
  8
0
 48
50.0
100
AcDbBlockEnd
  0
BLOCK
  5
17CF3
330
17CE9
100
AcDbEntity
  8
0
 48
50.0
100
AcDbBlockBegin
  2
*D25
 70
     1
 10
0.0
 20
0.0
 30
0.0
  3
*D25
  1

  0
LINE
  5
17E8B
330
17CE9
100
AcDbEntity
  8
寸法
 62
     0
 48
50.0
370
    -2
100
AcDbLine
 10
12380.47043893114
 20
2098.872272255714
 30
0.0
 11
13125.39759690326
 21
2098.872272255714
 31
0.0
  0
LINE
  5
17E8C
330
17CE9
100
AcDbEntity
  8
寸法
 62
     0
 48
50.0
370
    -2
100
AcDbLine
 10
12475.47043893113
 20
4418.872272255714
 30
0.0
 11
13125.39759690326
 21
4418.872272255714
 31
0.0
  0
LINE
  5
17E8D
330
17CE9
100
AcDbEntity
  8
寸法
 62
     0
 48
50.0
370
    -2
100
AcDbLine
 10
13065.39759690326
 20
2098.872272255714
 30
0.0
 11
13065.39759690326
 21
4418.872272255714
 31
0.0
  0
INSERT
  5
17E8E
330
17CE9
100
AcDbEntity
  8
寸法
 62
     0
 48
50.0
370
    -2
100
AcDbBlockReference
  2
_DOTSMALL
 10
13065.39759690326
 20
2098.872272255714
 30
0.0
 41
100.0
 42
100.0
 43
100.0
 50
270.0
  0
INSERT
  5
17E8F
330
17CE9
100
AcDbEntity
  8
寸法
 62
     0
 48
50.0
370
    -2
100
AcDbBlockReference
  2
_DOTSMALL
 10
13065.39759690326
 20
4418.872272255714
 30
0.0
 41
100.0
 42
100.0
 43
100.0
 50
90.0
  0
MTEXT
  5
17E90
330
17CE9
100
AcDbEntity
  8
寸法
 62
     7
 48
50.0
100
AcDbMText
 10
12965.38578587964
 20
3253.872272255714
 30
0.0
 40
120.0
 41
0.0
 71
     5
 72
     1
  1
\A1;2320
  7
STYLE1
 11
0.0000000000000001
 21
1.0
 31
0.0
 73
     1
 44
1.0
1001
ACAD
1000
MTEXTBEGIN
1070
    73
1070
     1
1070
    44
1040
1.0
1070
    74
1070
     0
1000
MTEXTEND
  0
POINT
  5
17E91
330
17CE9
100
AcDbEntity
  8
DEFPOINTS
 62
     0
 48
50.0
100
AcDbPoint
 10
12360.47043893114
 20
2098.872272255714
 30
0.0
  0
POINT
  5
17E92
330
17CE9
100
AcDbEntity
  8
DEFPOINTS
 62
     0
 48
50.0
100
AcDbPoint
 10
12455.47043893113
 20
4418.872272255714
 30
0.0
  0
POINT
  5
17E93
330
17CE9
100
AcDbEntity
  8
DEFPOINTS
 62
     0
 48
50.0
100
AcDbPoint
 10
13065.39759690326
 20
4418.872272255714
 30
0.0
  0
ENDBLK
  5
17CF4
330
17CE9
100
AcDbEntity
  8
0
 48
50.0
100
AcDbBlockEnd
  0
BLOCK
  5
17D01
330
17CF5
100
AcDbEntity
  8
0
 48
50.0
100
AcDbBlockBegin
  2
*D26
 70
     1
 10
0.0
 20
0.0
 30
0.0
  3
*D26
  1

  0
LINE
  5
17E80
330
17CF5
100
AcDbEntity
  8
寸法
 62
     0
 48
50.0
370
    -2
100
AcDbLine
 10
9290.470438931139
 20
2148.872272255714
 30
0.0
 11
8406.72030974788
 21
2148.872272255715
 31
0.0
  0
LINE
  5
17E81
330
17CF5
100
AcDbEntity
  8
寸法
 62
     0
 48
50.0
370
    -2
100
AcDbLine
 10
9235.470438931139
 20
2098.872272255714
 30
0.0
 11
8406.72030974788
 21
2098.872272255714
 31
0.0
  0
LINE
  5
17E82
330
17CF5
100
AcDbEntity
  8
寸法
 62
     0
 48
50.0
370
    -2
100
AcDbLine
 10
8466.720309747881
 20
2148.872272255715
 30
0.0
 11
8466.720309747881
 21
2248.872272255715
 31
0.0
  0
LINE
  5
17E83
330
17CF5
100
AcDbEntity
  8
寸法
 62
     0
 48
50.0
370
    -2
100
AcDbLine
 10
8466.720309747881
 20
2098.872272255714
 30
0.0
 11
8466.720309747881
 21
1609.075028161224
 31
0.0
  0
LINE
  5
17E84
330
17CF5
100
AcDbEntity
  8
寸法
 62
     0
 48
50.0
370
    -2
100
AcDbLine
 10
8466.720309747881
 20
2148.872272255715
 30
0.0
 11
8466.720309747881
 21
2098.872272255714
 31
0.0
  0
INSERT
  5
17E85
330
17CF5
100
AcDbEntity
  8
寸法
 62
     0
 48
50.0
370
    -2
100
AcDbBlockReference
  2
_DOTSMALL
 10
8466.720309747881
 20
2148.872272255715
 30
0.0
 41
100.0
 42
100.0
 43
100.0
 50
270.0
  0
INSERT
  5
17E86
330
17CF5
100
AcDbEntity
  8
寸法
 62
     0
 48
50.0
370
    -2
100
AcDbBlockReference
  2
_DOTSMALL
 10
8466.720309747881
 20
2098.872272255714
 30
0.0
 41
100.0
 42
100.0
 43
100.0
 50
90.0
  0
MTEXT
  5
17E87
330
17CF5
100
AcDbEntity
  8
寸法
 62
     7
 48
50.0
100
AcDbMText
 10
8366.720309747881
 20
1715.122272255714
 30
0.0
 40
120.0
 41
0.0
 71
     5
 72
     1
  1
\A1;50
  7
STYLE1
 11
0.0000000000000001
 21
1.0
 31
0.0
 73
     1
 44
1.0
1001
ACAD
1000
MTEXTBEGIN
1070
    73
1070
     1
1070
    44
1040
1.0
1070
    74
1070
     0
1000
MTEXTEND
  0
POINT
  5
17E88
330
17CF5
100
AcDbEntity
  8
DEFPOINTS
 62
     0
 48
50.0
100
AcDbPoint
 10
9310.470438931139
 20
2148.872272255714
 30
0.0
  0
POINT
  5
17E89
330
17CF5
100
AcDbEntity
  8
DEFPOINTS
 62
     0
 48
50.0
100
AcDbPoint
 10
9255.470438931139
 20
2098.872272255714
 30
0.0
  0
POINT
  5
17E8A
330
17CF5
100
AcDbEntity
  8
DEFPOINTS
 62
     0
 48
50.0
100
AcDbPoint
 10
8466.720309747881
 20
2098.872272255714
 30
0.0
  0
ENDBLK
  5
17D02
330
17CF5
100
AcDbEntity
  8
0
 48
50.0
100
AcDbBlockEnd
  0
BLOCK
  5
17D0E
330
17D03
100
AcDbEntity
  8
0
 48
50.0
100
AcDbBlockBegin
  2
*D27
 70
     1
 10
0.0
 20
0.0
 30
0.0
  3
*D27
  1

  0
LINE
  5
17E76
330
17D03
100
AcDbEntity
  8
寸法
 62
     0
 48
50.0
370
    -2
100
AcDbLine
 10
9235.470438931139
 20
2098.872272255714
 30
0.0
 11
8106.720309747881
 21
2098.872272255714
 31
0.0
  0
LINE
  5
17E77
330
17D03
100
AcDbEntity
  8
寸法
 62
     0
 48
50.0
370
    -2
100
AcDbLine
 10
8233.969363036008
 20
1998.872272255714
 30
0.0
 11
8106.720309747879
 21
1998.872272255714
 31
0.0
  0
LINE
  5
17E78
330
17D03
100
AcDbEntity
  8
寸法
 62
     0
 48
50.0
370
    -2
100
AcDbLine
 10
8166.72030974788
 20
2098.872272255714
 30
0.0
 11
8166.72030974788
 21
1998.872272255714
 31
0.0
  0
LINE
  5
17E79
330
17D03
100
AcDbEntity
  8
寸法
 62
     0
 48
50.0
370
    -2
100
AcDbLine
 10
8166.72030974788
 20
1998.872272255714
 30
0.0
 11
8166.72030974788
 21
1447.825028161224
 31
0.0
  0
INSERT
  5
17E7A
330
17D03
100
AcDbEntity
  8
寸法
 62
     0
 48
50.0
370
    -2
100
AcDbBlockReference
  2
_DOTSMALL
 10
8166.72030974788
 20
2098.872272255714
 30
0.0
 41
100.0
 42
100.0
 43
100.0
 50
90.0
  0
INSERT
  5
17E7B
330
17D03
100
AcDbEntity
  8
寸法
 62
     0
 48
50.0
370
    -2
100
AcDbBlockReference
  2
_DOTSMALL
 10
8166.72030974788
 20
1998.872272255714
 30
0.0
 41
100.0
 42
100.0
 43
100.0
 50
270.0
  0
MTEXT
  5
17E7C
330
17D03
100
AcDbEntity
  8
寸法
 62
     7
 48
50.0
100
AcDbMText
 10
8066.72030974788
 20
1583.872272255714
 30
0.0
 40
120.0
 41
0.0
 71
     5
 72
     1
  1
\A1;100
  7
STYLE1
 11
0.0000000000000001
 21
1.0
 31
0.0
 73
     1
 44
1.0
1001
ACAD
1000
MTEXTBEGIN
1070
    73
1070
     1
1070
    44
1040
1.0
1070
    74
1070
     0
1000
MTEXTEND
  0
POINT
  5
17E7D
330
17D03
100
AcDbEntity
  8
DEFPOINTS
 62
     0
 48
50.0
100
AcDbPoint
 10
9255.470438931139
 20
2098.872272255714
 30
0.0
  0
POINT
  5
17E7E
330
17D03
100
AcDbEntity
  8
DEFPOINTS
 62
     0
 48
50.0
100
AcDbPoint
 10
8253.969363036008
 20
1998.872272255714
 30
0.0
  0
POINT
  5
17E7F
330
17D03
100
AcDbEntity
  8
DEFPOINTS
 62
     0
 48
50.0
100
AcDbPoint
 10
8166.72030974788
 20
1998.872272255714
 30
0.0
  0
ENDBLK
  5
17D0F
330
17D03
100
AcDbEntity
  8
0
 48
50.0
100
AcDbBlockEnd
  0
BLOCK
  5
17D1A
330
17D10
100
AcDbEntity
  8
0
 48
50.0
100
AcDbBlockBegin
  2
*D28
 70
     1
 10
0.0
 20
0.0
 30
0.0
  3
*D28
  1

  0
LINE
  5
17E6D
330
17D10
100
AcDbEntity
  8
寸法
 62
     0
 48
50.0
370
    -2
100
AcDbLine
 10
9290.470438931139
 20
4238.872272255714
 30
0.0
 11
8406.72030974788
 21
4238.872272255714
 31
0.0
  0
LINE
  5
17E6E
330
17D10
100
AcDbEntity
  8
寸法
 62
     0
 48
50.0
370
    -2
100
AcDbLine
 10
9290.470438931139
 20
2148.872272255714
 30
0.0
 11
8406.72030974788
 21
2148.872272255715
 31
0.0
  0
LINE
  5
17E6F
330
17D10
100
AcDbEntity
  8
寸法
 62
     0
 48
50.0
370
    -2
100
AcDbLine
 10
8466.720309747882
 20
4238.872272255714
 30
0.0
 11
8466.720309747881
 21
2148.872272255715
 31
0.0
  0
INSERT
  5
17E70
330
17D10
100
AcDbEntity
  8
寸法
 62
     0
 48
50.0
370
    -2
100
AcDbBlockReference
  2
_DOTSMALL
 10
8466.720309747882
 20
4238.872272255714
 30
0.0
 41
100.0
 42
100.0
 43
100.0
 50
90.0
  0
INSERT
  5
17E71
330
17D10
100
AcDbEntity
  8
寸法
 62
     0
 48
50.0
370
    -2
100
AcDbBlockReference
  2
_DOTSMALL
 10
8466.720309747881
 20
2148.872272255715
 30
0.0
 41
100.0
 42
100.0
 43
100.0
 50
270.0
  0
MTEXT
  5
17E72
330
17D10
100
AcDbEntity
  8
寸法
 62
     7
 48
50.0
100
AcDbMText
 10
8366.708498724257
 20
3193.872272255716
 30
0.0
 40
120.0
 41
0.0
 71
     5
 72
     1
  1
\A1;2090
  7
STYLE1
 11
0.0000000000000001
 21
1.0
 31
0.0
 73
     1
 44
1.0
1001
ACAD
1000
MTEXTBEGIN
1070
    73
1070
     1
1070
    44
1040
1.0
1070
    74
1070
     0
1000
MTEXTEND
  0
POINT
  5
17E73
330
17D10
100
AcDbEntity
  8
DEFPOINTS
 62
     0
 48
50.0
100
AcDbPoint
 10
9310.470438931139
 20
4238.872272255714
 30
0.0
  0
POINT
  5
17E74
330
17D10
100
AcDbEntity
  8
DEFPOINTS
 62
     0
 48
50.0
100
AcDbPoint
 10
9310.470438931139
 20
2148.872272255714
 30
0.0
  0
POINT
  5
17E75
330
17D10
100
AcDbEntity
  8
DEFPOINTS
 62
     0
 48
50.0
100
AcDbPoint
 10
8466.720309747881
 20
2148.872272255715
 30
0.0
  0
ENDBLK
  5
17D1B
330
17D10
100
AcDbEntity
  8
0
 48
50.0
100
AcDbBlockEnd
  0
BLOCK
  5
1847C
330
18472
100
AcDbEntity
  8
0
 48
50.0
100
AcDbBlockBegin
  2
*D29
 70
     1
 10
0.0
 20
0.0
 30
0.0
  3
*D29
  1

  0
LINE
  5
185C1
330
18472
100
AcDbEntity
  8
寸法
 62
     0
 48
50.0
370
    -2
100
AcDbLine
 10
6067.814073275041
 20
9532.497424545786
 30
0.0
 11
5965.072259316442
 21
9149.059754790512
 31
0.0
  0
LINE
  5
185C2
330
18472
100
AcDbEntity
  8
寸法
 62
     0
 48
50.0
370
    -2
100
AcDbLine
 10
7340.814073275052
 20
9532.497424545779
 30
0.0
 11
7238.072259316457
 21
9149.059754790512
 31
0.0
  0
LINE
  5
185C3
330
18472
100
AcDbEntity
  8
寸法
 62
     0
 48
50.0
370
    -2
100
AcDbLine
 10
5981.14921086231
 20
9209.05975479051
 30
0.0
 11
7254.149210862323
 21
9209.05975479051
 31
0.0
  0
INSERT
  5
185C4
330
18472
100
AcDbEntity
  8
寸法
 62
     0
 48
50.0
370
    -2
100
AcDbBlockReference
  2
_DOTSMALL
 10
5981.14921086231
 20
9209.05975479051
 30
0.0
 41
100.0
 42
100.0
 43
100.0
 50
180.0
  0
INSERT
  5
185C5
330
18472
100
AcDbEntity
  8
寸法
 62
     0
 48
50.0
370
    -2
100
AcDbBlockReference
  2
_DOTSMALL
 10
7254.149210862323
 20
9209.05975479051
 30
0.0
 41
100.0
 42
100.0
 43
100.0
  0
MTEXT
  5
185C6
330
18472
100
AcDbEntity
  8
寸法
 62
     7
 48
50.0
100
AcDbMText
 10
6664.158372861959
 20
9309.071565814132
 30
0.0
 40
120.0
 41
0.0
 71
     5
 72
     1
  1
\A1;1273
  7
STYLE1
 73
     1
 44
1.0
1001
ACAD
1000
MTEXTBEGIN
1070
    73
1070
     1
1070
    44
1040
1.0
1070
    74
1070
     0
1000
MTEXTEND
  0
POINT
  5
185C7
330
18472
100
AcDbEntity
  8
DEFPOINTS
 62
     0
 48
50.0
100
AcDbPoint
 10
6073.173057123663
 20
9552.497424545787
 30
0.0
  0
POINT
  5
185C8
330
18472
100
AcDbEntity
  8
DEFPOINTS
 62
     0
 48
50.0
100
AcDbPoint
 10
7346.173057123675
 20
9552.49742454578
 30
0.0
  0
POINT
  5
185C9
330
18472
100
AcDbEntity
  8
DEFPOINTS
 62
     0
 48
50.0
100
AcDbPoint
 10
7254.149210862323
 20
9209.05975479051
 30
0.0
  0
ENDBLK
  5
1847D
330
18472
100
AcDbEntity
  8
0
 48
50.0
100
AcDbBlockEnd
  0
BLOCK
  5
184D7
330
184CD
100
AcDbEntity
  8
0
 48
50.0
100
AcDbBlockBegin
  2
*D30
 70
     1
 10
0.0
 20
0.0
 30
0.0
  3
*D30
  1

  0
LINE
  5
185B8
330
184CD
100
AcDbEntity
  8
寸法
 62
     0
 48
50.0
370
    -2
100
AcDbLine
 10
4767.814073275041
 20
9532.497424545681
 30
0.0
 11
4665.07225931647
 21
9149.059754790512
 31
0.0
  0
LINE
  5
185B9
330
184CD
100
AcDbEntity
  8
寸法
 62
     0
 48
50.0
370
    -2
100
AcDbLine
 10
6040.814073275054
 20
9532.497424545674
 30
0.0
 11
5938.072259316485
 21
9149.059754790512
 31
0.0
  0
LINE
  5
185BA
330
184CD
100
AcDbEntity
  8
寸法
 62
     0
 48
50.0
370
    -2
100
AcDbLine
 10
4681.149210862339
 20
9209.05975479051
 30
0.0
 11
5954.149210862352
 21
9209.05975479051
 31
0.0
  0
INSERT
  5
185BB
330
184CD
100
AcDbEntity
  8
寸法
 62
     0
 48
50.0
370
    -2
100
AcDbBlockReference
  2
_DOTSMALL
 10
4681.149210862339
 20
9209.05975479051
 30
0.0
 41
100.0
 42
100.0
 43
100.0
 50
180.0
  0
INSERT
  5
185BC
330
184CD
100
AcDbEntity
  8
寸法
 62
     0
 48
50.0
370
    -2
100
AcDbBlockReference
  2
_DOTSMALL
 10
5954.149210862352
 20
9209.05975479051
 30
0.0
 41
100.0
 42
100.0
 43
100.0
  0
MTEXT
  5
185BD
330
184CD
100
AcDbEntity
  8
寸法
 62
     7
 48
50.0
100
AcDbMText
 10
5317.649210862346
 20
9309.071565814132
 30
0.0
 40
120.0
 41
0.0
 71
     5
 72
     1
  1
\A1;1273
  7
STYLE1
 73
     1
 44
1.0
1001
ACAD
1000
MTEXTBEGIN
1070
    73
1070
     1
1070
    44
1040
1.0
1070
    74
1070
     0
1000
MTEXTEND
  0
POINT
  5
185BE
330
184CD
100
AcDbEntity
  8
DEFPOINTS
 62
     0
 48
50.0
100
AcDbPoint
 10
4773.173057123663
 20
9552.497424545682
 30
0.0
  0
POINT
  5
185BF
330
184CD
100
AcDbEntity
  8
DEFPOINTS
 62
     0
 48
50.0
100
AcDbPoint
 10
6046.173057123676
 20
9552.497424545675
 30
0.0
  0
POINT
  5
185C0
330
184CD
100
AcDbEntity
  8
DEFPOINTS
 62
     0
 48
50.0
100
AcDbPoint
 10
5954.149210862352
 20
9209.05975479051
 30
0.0
  0
ENDBLK
  5
184D8
330
184CD
100
AcDbEntity
  8
0
 48
50.0
100
AcDbBlockEnd
  0
BLOCK
  5
187CD
330
187C3
100
AcDbEntity
  8
0
 48
50.0
100
AcDbBlockBegin
  2
*D31
 70
     1
 10
0.0
 20
0.0
 30
0.0
  3
*D31
  1

  0
LINE
  5
1888E
330
187C3
100
AcDbEntity
  8
寸法
 62
     0
 48
50.0
370
    -2
100
AcDbLine
 10
7394.673057123657
 20
2160.872272255714
 30
0.0
 11
7722.216159445403
 21
2160.872272255714
 31
0.0
  0
LINE
  5
1888F
330
187C3
100
AcDbEntity
  8
寸法
 62
     0
 48
50.0
370
    -2
100
AcDbLine
 10
7394.673057123657
 20
4046.872272255713
 30
0.0
 11
7722.216159445403
 21
4046.872272255713
 31
0.0
  0
LINE
  5
18890
330
187C3
100
AcDbEntity
  8
寸法
 62
     0
 48
50.0
370
    -2
100
AcDbLine
 10
7662.216159445403
 20
2160.872272255714
 30
0.0
 11
7662.216159445403
 21
4046.872272255713
 31
0.0
  0
INSERT
  5
18891
330
187C3
100
AcDbEntity
  8
寸法
 62
     0
 48
50.0
370
    -2
100
AcDbBlockReference
  2
_DOTSMALL
 10
7662.216159445403
 20
2160.872272255714
 30
0.0
 41
100.0
 42
100.0
 43
100.0
 50
270.0
  0
INSERT
  5
18892
330
187C3
100
AcDbEntity
  8
寸法
 62
     0
 48
50.0
370
    -2
100
AcDbBlockReference
  2
_DOTSMALL
 10
7662.216159445403
 20
4046.872272255713
 30
0.0
 41
100.0
 42
100.0
 43
100.0
 50
90.0
  0
MTEXT
  5
18893
330
187C3
100
AcDbEntity
  8
寸法
 62
     7
 48
50.0
100
AcDbMText
 10
7562.216159445402
 20
3103.872272255715
 30
0.0
 40
120.0
 41
0.0
 71
     5
 72
     1
  1
\A1;有効開口部高サ 1886
  7
STYLE1
 11
0.0000000000000001
 21
1.0
 31
0.0
 73
     1
 44
1.0
1001
ACAD
1000
MTEXTBEGIN
1070
    73
1070
     1
1070
    44
1040
1.0
1070
    74
1070
     0
1000
MTEXTEND
  0
POINT
  5
18894
330
187C3
100
AcDbEntity
  8
DEFPOINTS
 62
     0
 48
50.0
100
AcDbPoint
 10
7374.673057123657
 20
2160.872272255714
 30
0.0
  0
POINT
  5
18895
330
187C3
100
AcDbEntity
  8
DEFPOINTS
 62
     0
 48
50.0
100
AcDbPoint
 10
7374.673057123658
 20
4046.872272255713
 30
0.0
  0
POINT
  5
18896
330
187C3
100
AcDbEntity
  8
DEFPOINTS
 62
     0
 48
50.0
100
AcDbPoint
 10
7662.216159445403
 20
4046.872272255713
 30
0.0
  0
ENDBLK
  5
187CE
330
187C3
100
AcDbEntity
  8
0
 48
50.0
100
AcDbBlockEnd
  0
BLOCK
  5
187DB
330
187CF
100
AcDbEntity
  8
0
 48
50.0
100
AcDbBlockBegin
  2
*D32
 70
     1
 10
0.0
 20
0.0
 30
0.0
  3
*D32
  1

  0
LINE
  5
18B7E
330
187CF
100
AcDbEntity
  8
寸法
 62
     0
 48
50.0
370
    -2
100
AcDbLine
 10
7394.673057123657
 20
4046.872272255713
 30
0.0
 11
7722.216159445403
 21
4046.872272255713
 31
0.0
  0
LINE
  5
18B7F
330
187CF
100
AcDbEntity
  8
寸法
 62
     0
 48
50.0
370
    -2
100
AcDbLine
 10
7394.673057123657
 20
4073.872272255715
 30
0.0
 11
7722.216159445403
 21
4073.872272255715
 31
0.0
  0
LINE
  5
18B80
330
187CF
100
AcDbEntity
  8
寸法
 62
     0
 48
50.0
370
    -2
100
AcDbLine
 10
7662.216159445403
 20
4046.872272255713
 30
0.0
 11
7662.216159445403
 21
3946.872272255713
 31
0.0
  0
LINE
  5
18B81
330
187CF
100
AcDbEntity
  8
寸法
 62
     0
 48
50.0
370
    -2
100
AcDbLine
 10
7662.216159445403
 20
4073.872272255715
 30
0.0
 11
7662.216159445403
 21
4173.872272255715
 31
0.0
  0
MTEXT
  5
18B82
330
187CF
100
AcDbEntity
  8
寸法
 62
     7
 48
50.0
100
AcDbMText
 10
7802.385982691768
 20
4074.839472095373
 30
0.0
 40
120.0
 41
0.0
 71
     5
 72
     1
  1
\A1;27
  7
STYLE1
 11
0.0000000000000001
 21
1.0
 31
0.0
 73
     1
 44
1.0
1001
ACAD
1000
MTEXTBEGIN
1070
    73
1070
     1
1070
    44
1040
1.0
1070
    74
1070
     0
1000
MTEXTEND
  0
LINE
  5
18B83
330
187CF
100
AcDbEntity
  8
寸法
 62
     0
 48
50.0
370
    -2
100
AcDbLine
 10
7662.216159445403
 20
4046.872272255713
 30
0.0
 11
7662.216159445403
 21
4073.872272255715
 31
0.0
  0
INSERT
  5
18B84
330
187CF
100
AcDbEntity
  8
寸法
 62
     0
 48
50.0
370
    -2
100
AcDbBlockReference
  2
_DOTSMALL
 10
7662.216159445403
 20
4046.872272255713
 30
0.0
 41
100.0
 42
100.0
 43
100.0
 50
90.0
  0
INSERT
  5
18B85
330
187CF
100
AcDbEntity
  8
寸法
 62
     0
 48
50.0
370
    -2
100
AcDbBlockReference
  2
_DOTSMALL
 10
7662.216159445403
 20
4073.872272255715
 30
0.0
 41
100.0
 42
100.0
 43
100.0
 50
270.0
  0
POINT
  5
18B86
330
187CF
100
AcDbEntity
  8
DEFPOINTS
 62
     0
 48
50.0
100
AcDbPoint
 10
7374.673057123658
 20
4046.872272255713
 30
0.0
  0
POINT
  5
18B87
330
187CF
100
AcDbEntity
  8
DEFPOINTS
 62
     0
 48
50.0
100
AcDbPoint
 10
7374.673057123658
 20
4073.872272255715
 30
0.0
  0
POINT
  5
18B88
330
187CF
100
AcDbEntity
  8
DEFPOINTS
 62
     0
 48
50.0
100
AcDbPoint
 10
7662.216159445403
 20
4073.872272255715
 30
0.0
  0
ENDBLK
  5
187DC
330
187CF
100
AcDbEntity
  8
0
 48
50.0
100
AcDbBlockEnd
  0
BLOCK
  5
187E8
330
187DD
100
AcDbEntity
  8
0
 48
50.0
100
AcDbBlockBegin
  2
*D33
 70
     1
 10
0.0
 20
0.0
 30
0.0
  3
*D33
  1

  0
LINE
  5
18B74
330
187DD
100
AcDbEntity
  8
寸法
 62
     0
 48
50.0
370
    -2
100
AcDbLine
 10
7394.673057123657
 20
4073.872272255715
 30
0.0
 11
7722.216159445403
 21
4073.872272255715
 31
0.0
  0
LINE
  5
18B75
330
187DD
100
AcDbEntity
  8
寸法
 62
     0
 48
50.0
370
    -2
100
AcDbLine
 10
7394.673057123657
 20
4238.872272255714
 30
0.0
 11
7722.216159445403
 21
4238.872272255714
 31
0.0
  0
LINE
  5
18B76
330
187DD
100
AcDbEntity
  8
寸法
 62
     0
 48
50.0
370
    -2
100
AcDbLine
 10
7662.216159445404
 20
4073.872272255715
 30
0.0
 11
7662.216159445404
 21
4238.872272255714
 31
0.0
  0
LINE
  5
18B77
330
187DD
100
AcDbEntity
  8
寸法
 62
     0
 48
50.0
370
    -2
100
AcDbLine
 10
7662.216159445404
 20
4238.872272255714
 30
0.0
 11
7662.216159445404
 21
4615.842835004192
 31
0.0
  0
INSERT
  5
18B78
330
187DD
100
AcDbEntity
  8
寸法
 62
     0
 48
50.0
370
    -2
100
AcDbBlockReference
  2
_DOTSMALL
 10
7662.216159445404
 20
4073.872272255715
 30
0.0
 41
100.0
 42
100.0
 43
100.0
 50
270.0
  0
INSERT
  5
18B79
330
187DD
100
AcDbEntity
  8
寸法
 62
     0
 48
50.0
370
    -2
100
AcDbBlockReference
  2
_DOTSMALL
 10
7662.216159445404
 20
4238.872272255714
 30
0.0
 41
100.0
 42
100.0
 43
100.0
 50
90.0
  0
MTEXT
  5
18B7A
330
187DD
100
AcDbEntity
  8
寸法
 62
     7
 48
50.0
100
AcDbMText
 10
7562.216159445402
 20
4477.357553629953
 30
0.0
 40
120.0
 41
0.0
 71
     5
 72
     1
  1
\A1;165
  7
STYLE1
 11
0.0000000000000001
 21
1.0
 31
0.0
 73
     1
 44
1.0
1001
ACAD
1000
MTEXTBEGIN
1070
    73
1070
     1
1070
    44
1040
1.0
1070
    74
1070
     0
1000
MTEXTEND
  0
POINT
  5
18B7B
330
187DD
100
AcDbEntity
  8
DEFPOINTS
 62
     0
 48
50.0
100
AcDbPoint
 10
7374.673057123658
 20
4073.872272255715
 30
0.0
  0
POINT
  5
18B7C
330
187DD
100
AcDbEntity
  8
DEFPOINTS
 62
     0
 48
50.0
100
AcDbPoint
 10
7374.673057123657
 20
4238.872272255714
 30
0.0
  0
POINT
  5
18B7D
330
187DD
100
AcDbEntity
  8
DEFPOINTS
 62
     0
 48
50.0
100
AcDbPoint
 10
7662.216159445404
 20
4238.872272255714
 30
0.0
  0
ENDBLK
  5
187E9
330
187DD
100
AcDbEntity
  8
0
 48
50.0
100
AcDbBlockEnd
  0
ENDSEC
  0
SECTION
  2
ENTITIES
  0
MTEXT
  5
763F
330
747D
100
AcDbEntity
  8
0
100
AcDbMText
 10
302.846345836809
 20
280.1983726409901
 30
0.0
 40
3.5
 41
5.323721266742722
 71
     1
 72
     5
  1

  7
MSMINCHO
 73
     1
 44
1.0
1001
ACAD
1000
MTEXTBEGIN
1070
    73
1070
     1
1070
    44
1040
1.0
1070
    74
1070
     0
1000
MTEXTEND
  0
LINE
  5
10B57
330
747D
100
AcDbEntity
  8
補助
  6
PHANTOM
 62
   230
 48
50.0
100
AcDbLine
 10
139.9999999999995
 20
11409.6
 30
0.0
 11
16307.2
 21
11409.6
 31
0.0
  0
LINE
  5
10B59
330
747D
100
AcDbEntity
  8
仕様書枠
  6
Continuous
 48
50.0
100
AcDbLine
 10
13107.2
 20
1200.0
 30
0.0
 11
13107.2
 21
-0.0000000000000729
 31
0.0
  0
LINE
  5
10B5C
330
747D
100
AcDbEntity
  8
仕様書枠
 48
50.0
100
AcDbLine
 10
16307.2
 20
1200.0
 30
0.0
 11
16307.2
 21
-0.0000000000000909
 31
0.0
  0
LINE
  5
10B5D
330
747D
100
AcDbEntity
  8
仕様書枠
 48
50.0
100
AcDbLine
 10
140.0
 20
0.0
 30
0.0
 11
16307.2
 21
-0.0000000000000909
 31
0.0
  0
LINE
  5
10B5E
330
747D
100
AcDbEntity
  8
補助
  6
PHANTOM
 62
   230
 48
50.0
100
AcDbLine
 10
16307.2
 20
11409.6
 30
0.0
 11
16307.2
 21
1200.0
 31
0.0
  0
LINE
  5
10B6C
330
747D
100
AcDbEntity
  8
仕様書枠
 48
50.0
100
AcDbLine
 10
13107.2
 20
1200.0
 30
0.0
 11
16307.2
 21
1200.0
 31
0.0
  0
LINE
  5
10B6D
330
747D
100
AcDbEntity
  8
補助
  6
PHANTOM
 62
   230
 48
50.0
100
AcDbLine
 10
13107.2
 20
11409.6
 30
0.0
 11
13107.2
 21
4800.0
 31
0.0
  0
LINE
  5
10B6F
330
747D
100
AcDbEntity
  8
補助
  6
PHANTOM
 62
   230
 48
50.0
100
AcDbLine
 10
13107.2
 20
4800.0
 30
0.0
 11
16307.2
 21
4800.0
 31
0.0
  0
LINE
  5
10B72
330
747D
100
AcDbEntity
  8
文字
 62
     7
 48
50.0
100
AcDbLine
 10
13187.2
 20
400.0
 30
0.0
 11
16227.2
 21
400.0
 31
0.0
  0
TEXT
  5
10B73
330
747D
100
AcDbEntity
  8
文字
 62
     7
 48
50.0
100
AcDbText
 10
13162.9790565769
 20
895.0906074299405
 30
0.0
 40
200.0
  1
外 形 図
  7
STYLE2
100
AcDbText
  0
TEXT
  5
10B74
330
747D
100
AcDbEntity
  8
文字
 62
     7
 48
50.0
100
AcDbText
 10
13201.43669998441
 20
477.2740661031255
 30
0.0
 40
160.0
  1
機種名
  7
STYLE2
100
AcDbText
  0
TEXT
  5
10B75
330
747D
100
AcDbEntity
  8
文字
 62
     7
 48
50.0
100
AcDbText
 10
13209.4053442172
 20
228.5435242569016
 30
0.0
 40
100.0
  1
○有効開口寸法 ： 2424×1886(mm)
  7
STYLE2
100
AcDbText
  0
TEXT
  5
10B76
330
747D
100
AcDbEntity
  8
文字
 62
     7
 48
50.0
100
AcDbText
 10
13209.4053442172
 20
76.09434707649343
 30
0.0
 40
100.0
  1
○床面積 ： 8.02㎡(2.43坪) 　
  7
STYLE2
100
AcDbText
  0
TEXT
  5
10B79
330
747D
100
AcDbEntity
  8
文字
 62
     7
 48
50.0
100
AcDbText
 10
14524.131837222
 20
1031.557706291228
 30
0.0
 40
100.0
  1
NO.36      <縮尺> S=1/40
  7
STYLE2
100
AcDbText
  0
LINE
  5
10B7B
330
747D
100
AcDbEntity
  8
仕様書枠
 48
50.0
100
AcDbLine
 10
13107.2
 20
800.0
 30
0.0
 11
14251.2
 21
800.0
 31
0.0
  0
LINE
  5
10B88
330
747D
100
AcDbEntity
  8
仕様書枠
  6
Continuous
 48
50.0
100
AcDbLine
 10
14251.2
 20
1200.0
 30
0.0
 11
14251.2
 21
800.0
 31
0.0
  0
DIMENSION
  5
14E59
330
747D
100
AcDbEntity
  8
寸法
100
AcDbDimension
  2
*D1
 10
8387.206344597709
 20
6982.497424545956
 30
0.0
 11
8287.206344597709
 21
8507.49742454596
 31
0.0
 70
    32
 71
     5
 42
-1.0
  3
INABA_S40G
100
AcDbAlignedDimension
 13
7374.673057123664
 23
10032.49742454596
 33
0.0
 14
7374.673057123638
 24
6982.497424545956
 34
0.0
 50
90.0
100
AcDbRotatedDimension
1001
ACAD
1000
DSTYLE
1002
{
1002
}
  0
DIMENSION
  5
14E5A
330
747D
100
AcDbEntity
  8
寸法
100
AcDbDimension
  2
*D2
 10
7319.673057123664
 20
10548.30564417096
 30
0.0
 11
6059.673057123664
 21
10648.31745519459
 31
0.0
 70
    32
  1
6X420=<>
 71
     5
 42
2520.000000000001
  3
INABA_S40G
100
AcDbAlignedDimension
 13
4799.673057123663
 23
10032.49742454587
 33
0.0
 14
7319.673057123664
 24
10032.49742454596
 34
0.0
100
AcDbRotatedDimension
1001
ACAD
1000
DSTYLE
1002
{
1002
}
  0
DIMENSION
  5
14E5B
330
747D
100
AcDbEntity
  8
寸法
100
AcDbDimension
  2
*D3
 10
7374.673057123664
 20
10548.30564417095
 30
0.0
 11
7683.158338497903
 21
10548.30564417095
 31
0.0
 70
   160
 71
     5
 42
55.0
  3
INABA_S40G
100
AcDbAlignedDimension
 13
7319.673057123664
 23
10032.49742454596
 33
0.0
 14
7374.673057123664
 24
10032.49742454596
 34
0.0
100
AcDbRotatedDimension
1001
ACAD
1000
DSTYLE
1002
{
1002
}
  0
DIMENSION
  5
14E5C
330
747D
100
AcDbEntity
  8
寸法
100
AcDbDimension
  2
*D4
 10
8022.099402858072
 20
9977.497424545967
 30
0.0
 11
8022.099402858072
 21
10340.9827059202
 31
0.0
 12
-45.22351798333511
 22
720.0
 32
0.0
 70
   160
 71
     5
 42
-1.0
  3
INABA_S40G
100
AcDbAlignedDimension
 13
7374.673057123664
 23
10032.49742454596
 33
0.0
 14
7374.673057123664
 24
9977.497424545967
 34
0.0
 50
90.0
100
AcDbRotatedDimension
1001
ACAD
1000
DSTYLE
1002
{
1002
}
  0
DIMENSION
  5
14E5D
330
747D
100
AcDbEntity
  8
寸法
100
AcDbDimension
  2
*D5
 10
4799.673057123663
 20
10548.30564417085
 30
0.0
 11
4436.187775749391
 21
10548.30564417085
 31
0.0
 70
   160
 71
     5
 42
55.00000000003456
  3
INABA_S40G
100
AcDbAlignedDimension
 13
4744.673057123629
 23
10032.49742454587
 33
0.0
 14
4799.673057123663
 24
10032.49742454587
 34
0.0
100
AcDbRotatedDimension
1001
ACAD
1000
DSTYLE
1002
{
1002
}
  0
LINE
  5
14E67
330
747D
100
AcDbEntity
  8
部品1
100
AcDbLine
 10
4744.673057123662
 20
10032.49742454587
 30
0.0
 11
7374.673057123664
 21
10032.49742454596
 31
0.0
  0
LINE
  5
14E68
330
747D
100
AcDbEntity
  8
部品1
100
AcDbLine
 10
4772.673057123663
 20
10004.49742454587
 30
0.0
 11
6047.173057123662
 21
10004.49742454587
 31
0.0
  0
LINE
  5
14E6C
330
747D
100
AcDbEntity
  8
部品1
100
AcDbLine
 10
7374.673057123638
 20
6982.497424545956
 30
0.0
 11
7319.67305712364
 21
6982.497424545953
 31
0.0
  0
DIMENSION
  5
14E6F
330
747D
100
AcDbEntity
  8
寸法
100
AcDbDimension
  2
*D6
 10
7374.673057123638
 20
6161.893658188827
 30
0.0
 11
6059.673057123648
 21
6261.905469212448
 31
0.0
 70
    32
 71
     5
 42
-1.0
  3
INABA_S40G
100
AcDbAlignedDimension
 13
4744.673057123656
 23
6982.497424545792
 33
0.0
 14
7374.673057123638
 24
6982.49742454592
 34
0.0
100
AcDbRotatedDimension
1001
ACAD
1000
DSTYLE
1002
{
1002
}
  0
LINE
  5
14E72
330
747D
100
AcDbEntity
  8
部品1
100
AcDbLine
 10
4772.673057123639
 20
7037.497424545822
 30
0.0
 11
4772.673057123649
 21
10004.49742454587
 31
0.0
  0
LINE
  5
14E73
330
747D
100
AcDbEntity
  8
部品1
100
AcDbLine
 10
4744.673057123629
 20
10032.49742454583
 30
0.0
 11
4744.673057123656
 21
6982.497424545825
 31
0.0
  0
LINE
  5
14E7C
330
747D
100
AcDbEntity
  8
部品1
100
AcDbLine
 10
4772.673057123655
 20
7037.49742454584
 30
0.0
 11
4744.673057123654
 21
7037.49742454584
 31
0.0
  0
LINE
  5
14E7D
330
747D
100
AcDbEntity
  8
部品1
100
AcDbLine
 10
4772.673057123639
 20
7037.497424545825
 30
0.0
 11
4744.673057123654
 21
7037.497424545825
 31
0.0
  0
LINE
  5
14E7E
330
747D
100
AcDbEntity
  8
部品1
100
AcDbLine
 10
4799.673057123656
 20
7037.497424545789
 30
0.0
 11
4744.673057123654
 21
7037.497424545789
 31
0.0
  0
LINE
  5
14E81
330
747D
100
AcDbEntity
  8
部品1
100
AcDbLine
 10
4772.673057123642
 20
9137.49742454584
 30
0.0
 11
4744.673057123643
 21
9137.49742454584
 31
0.0
  0
LINE
  5
14E83
330
747D
100
AcDbEntity
  8
部品1
100
AcDbLine
 10
4772.673057123637
 20
9557.497424545841
 30
0.0
 11
4744.673057123637
 21
9557.497424545841
 31
0.0
  0
LINE
  5
14E84
330
747D
100
AcDbEntity
  8
部品1
100
AcDbLine
 10
4772.67305712363
 20
9977.497424545839
 30
0.0
 11
4744.673057123629
 21
9977.497424545839
 31
0.0
  0
LINE
  5
14E85
330
747D
100
AcDbEntity
  8
部品1
100
AcDbLine
 10
4799.673057123663
 20
10032.49742454587
 30
0.0
 11
4799.673057123663
 21
10004.49742454587
 31
0.0
  0
LINE
  5
14E86
330
747D
100
AcDbEntity
  8
部品1
100
AcDbLine
 10
4799.673057123628
 20
10032.49742454583
 30
0.0
 11
4799.67305712363
 21
10004.49742454583
 31
0.0
  0
DIMENSION
  5
14E87
330
747D
100
AcDbEntity
  8
寸法
100
AcDbDimension
  2
*D7
 10
8022.099402858048
 20
6982.497424545954
 30
0.0
 11
8022.099402858048
 21
6604.635957641093
 31
0.0
 12
-45.22351798333511
 22
-960.0
 32
0.0
 70
   160
 71
     5
 42
-1.0
  3
INABA_S40G
100
AcDbAlignedDimension
 13
7374.673057123638
 23
7037.497424545953
 33
0.0
 14
7374.673057123638
 24
6982.497424545956
 34
0.0
 50
90.0
100
AcDbRotatedDimension
1001
ACAD
1000
DSTYLE
1002
{
1002
}
  0
LINE
  5
14E90
330
747D
100
AcDbEntity
  8
部品1
100
AcDbLine
 10
6072.173057123663
 20
10004.49742454598
 30
0.0
 11
7346.673057123664
 21
10004.49742454596
 31
0.0
  0
LINE
  5
14EBE
330
747D
100
AcDbEntity
  8
部品1
100
AcDbLine
 10
5219.673057123663
 20
10032.49742454587
 30
0.0
 11
5219.673057123663
 21
10004.49742454587
 31
0.0
  0
LINE
  5
14EBF
330
747D
100
AcDbEntity
  8
部品1
100
AcDbLine
 10
5219.673057123663
 20
10032.49742454587
 30
0.0
 11
5219.673057123663
 21
10004.49742454587
 31
0.0
  0
LINE
  5
14EC0
330
747D
100
AcDbEntity
  8
部品1
100
AcDbLine
 10
5219.673057123663
 20
10032.49742454598
 30
0.0
 11
5219.673057123663
 21
10004.49742454598
 31
0.0
  0
LINE
  5
14ECC
330
747D
100
AcDbEntity
  8
部品1
100
AcDbLine
 10
6479.673057123664
 20
10032.49742454598
 30
0.0
 11
6479.673057123664
 21
10004.49742454598
 31
0.0
  0
DIMENSION
  5
14ED1
330
747D
100
AcDbEntity
  8
寸法
100
AcDbDimension
  2
*D8
 10
8022.099402858071
 20
7037.497424545951
 30
0.0
 11
7922.087591834449
 21
8507.49742454596
 31
0.0
 70
    32
  1
7X420=<>
 71
     5
 42
-1.0
  3
INABA_S40G
100
AcDbAlignedDimension
 13
7374.673057123664
 23
9977.497424545967
 33
0.0
 14
7374.673057123638
 24
7037.497424545953
 34
0.0
 50
90.0
100
AcDbRotatedDimension
1001
ACAD
1000
DSTYLE
1002
{
1002
}
  0
LINE
  5
14ED2
330
747D
100
AcDbEntity
  8
部品1
100
AcDbLine
 10
7374.673057123664
 20
10032.49742454596
 30
0.0
 11
7374.673057123638
 21
6982.497424545956
 31
0.0
  0
LINE
  5
14ED3
330
747D
100
AcDbEntity
  8
部品1
100
AcDbLine
 10
7319.673057123639
 20
7037.497424545967
 30
0.0
 11
7374.673057123671
 21
7037.497424545967
 31
0.0
  0
LINE
  5
14EDE
330
747D
100
AcDbEntity
  8
部品1
100
AcDbLine
 10
7346.673057123668
 20
9137.497424545967
 30
0.0
 11
7374.673057123668
 21
9137.497424545967
 31
0.0
  0
LINE
  5
14EE0
330
747D
100
AcDbEntity
  8
部品1
100
AcDbLine
 10
7346.673057123664
 20
9557.497424545967
 30
0.0
 11
7374.673057123664
 21
9557.497424545967
 31
0.0
  0
LINE
  5
14EE1
330
747D
100
AcDbEntity
  8
部品1
100
AcDbLine
 10
7346.673057123664
 20
9977.497424545967
 30
0.0
 11
7374.673057123664
 21
9977.497424545967
 31
0.0
  0
LINE
  5
15151
330
747D
100
AcDbEntity
  8
部品1
100
AcDbLine
 10
5639.673057123663
 20
10032.49742454587
 30
0.0
 11
5639.673057123663
 21
10004.49742454587
 31
0.0
  0
LINE
  5
15152
330
747D
100
AcDbEntity
  8
部品1
100
AcDbLine
 10
5639.673057123663
 20
10032.49742454587
 30
0.0
 11
5639.673057123663
 21
10004.49742454587
 31
0.0
  0
LINE
  5
15153
330
747D
100
AcDbEntity
  8
部品1
100
AcDbLine
 10
5639.673057123663
 20
10032.49742454598
 30
0.0
 11
5639.673057123663
 21
10004.49742454598
 31
0.0
  0
LINE
  5
15535
330
747D
100
AcDbEntity
  8
部品1
100
AcDbLine
 10
7346.673057123648
 20
10004.49742454596
 30
0.0
 11
7346.673057123641
 21
7037.497424545953
 31
0.0
  0
LINE
  5
15D5D
330
747D
100
AcDbEntity
  8
部品1
100
AcDbLine
 10
4799.673057123656
 20
7018.497424545863
 30
0.0
 11
4776.673057123656
 21
7018.497424545863
 31
0.0
  0
LINE
  5
15D60
330
747D
100
AcDbEntity
  8
部品1
100
AcDbLine
 10
4847.673057123657
 20
7008.497424545865
 30
0.0
 11
4799.673057123657
 21
7008.497424545864
 31
0.0
  0
LINE
  5
15D61
330
747D
100
AcDbEntity
  8
部品1
100
AcDbLine
 10
4847.673057123657
 20
7047.497424545865
 30
0.0
 11
4799.673057123657
 21
7047.497424545864
 31
0.0
  0
LINE
  5
15D62
330
747D
100
AcDbEntity
  8
部品1
 48
50.0
100
AcDbLine
 10
4847.673057123657
 20
7047.497424545865
 30
0.0
 11
4847.673057123657
 21
7038.497424545865
 31
0.0
  0
LINE
  5
15D63
330
747D
100
AcDbEntity
  8
部品1
 48
50.0
100
AcDbLine
 10
4847.673057123657
 20
7008.497424545865
 30
0.0
 11
4847.673057123657
 21
7017.497424545865
 31
0.0
  0
LINE
  5
15D64
330
747D
100
AcDbEntity
  8
部品1
 48
50.0
100
AcDbLine
 10
4799.673057123657
 20
7047.497424545864
 30
0.0
 11
4799.673057123653
 21
6982.497424545865
 31
0.0
  0
LINE
  5
15D71
330
747D
100
AcDbEntity
  8
部品1
 48
50.0
100
AcDbLine
 10
4809.673057123657
 20
7008.497424545864
 30
0.0
 11
4799.673057123657
 21
6987.497424545864
 31
0.0
  0
LINE
  5
15D72
330
747D
100
AcDbEntity
  8
部品1
100
AcDbLine
 10
7271.673057123638
 20
7008.497424545865
 30
0.0
 11
7319.673057123639
 21
7008.497424545864
 31
0.0
  0
LINE
  5
15D73
330
747D
100
AcDbEntity
  8
部品1
 48
50.0
100
AcDbLine
 10
7271.673057123638
 20
7008.497424545865
 30
0.0
 11
7271.673057123638
 21
7017.497424545865
 31
0.0
  0
LINE
  5
15D74
330
747D
100
AcDbEntity
  8
部品1
100
AcDbLine
 10
7271.673057123638
 20
7047.497424545865
 30
0.0
 11
7319.67305712364
 21
7047.497424545864
 31
0.0
  0
LINE
  5
15D75
330
747D
100
AcDbEntity
  8
部品1
 48
50.0
100
AcDbLine
 10
7271.673057123638
 20
7047.497424545865
 30
0.0
 11
7271.673057123638
 21
7038.497424545865
 31
0.0
  0
LINE
  5
15D76
330
747D
100
AcDbEntity
  8
部品1
100
AcDbLine
 10
7319.673057123639
 20
7018.497424545863
 30
0.0
 11
7342.673057123639
 21
7018.497424545863
 31
0.0
  0
LINE
  5
15D78
330
747D
100
AcDbEntity
  8
部品1
 48
50.0
100
AcDbLine
 10
7309.673057123639
 20
7008.497424545864
 30
0.0
 11
7319.673057123639
 21
6987.497424545864
 31
0.0
  0
LINE
  5
15D7A
330
747D
100
AcDbEntity
  8
部品1
 48
50.0
100
AcDbLine
 10
4799.673057123657
 20
7018.497424545863
 30
0.0
 11
4776.673057123656
 21
7018.497424545863
 31
0.0
  0
LINE
  5
15D7B
330
747D
100
AcDbEntity
  8
部品1
 48
50.0
100
AcDbLine
 10
4811.673057123655
 20
7027.997424545863
 30
0.0
 11
7307.67305712364
 21
7027.997424545863
 31
0.0
  0
LINE
  5
15D85
330
747D
100
AcDbEntity
  8
部品1
100
AcDbLine
 10
4799.673057123652
 20
6982.497424545865
 30
0.0
 11
4744.673057123656
 21
6982.497424545861
 31
0.0
  0
DIMENSION
  5
15E45
330
747D
100
AcDbEntity
  8
寸法
 48
50.0
100
AcDbDimension
  2
*D9
 10
7319.67305712364
 20
6448.066653779702
 30
0.0
 11
7683.158338497877
 21
6448.066653779702
 31
0.0
 12
-45.22351798333511
 22
0.0
 32
0.0
 70
   160
 71
     5
 42
-1.0
  3
INABA_S40G
100
AcDbAlignedDimension
 13
7374.673057123638
 23
6982.497424545956
 33
0.0
 14
7319.67305712364
 24
6982.497424545953
 34
0.0
100
AcDbRotatedDimension
1001
ACAD
1000
DSTYLE
1002
{
1002
}
  0
DIMENSION
  5
15E53
330
747D
100
AcDbEntity
  8
寸法
 48
50.0
100
AcDbDimension
  2
*D10
 10
7271.673057123638
 20
6448.066653779701
 30
0.0
 11
7160.710159474891
 21
6548.0666537797
 31
0.0
 12
-45.22351798333511
 22
0.0
 32
0.0
 70
   160
 71
     5
 42
-1.0
  3
INABA_S40G
100
AcDbAlignedDimension
 13
7319.67305712364
 23
6982.497424545953
 33
0.0
 14
7271.673057123638
 24
7008.497424545865
 34
0.0
100
AcDbRotatedDimension
1001
ACAD
1000
DSTYLE
1002
{
1070
   279
1070
     2
1002
}
  0
DIMENSION
  5
15E5F
330
747D
100
AcDbEntity
  8
寸法
 48
50.0
100
AcDbDimension
  2
*D11
 10
4847.673057123657
 20
6448.066653779701
 30
0.0
 11
6059.673057123648
 21
6548.078464803322
 31
0.0
 70
    32
  1
有効開口部間口 <>
 71
     5
 42
-1.0
  3
INABA_S40G
100
AcDbAlignedDimension
 13
7271.673057123638
 23
7008.497424545865
 33
0.0
 14
4847.673057123657
 24
7008.497424545864
 34
0.0
100
AcDbRotatedDimension
1001
ACAD
1000
DSTYLE
1002
{
1070
    75
1070
     1
1070
   279
1070
     2
1002
}
  0
DIMENSION
  5
15E6D
330
747D
100
AcDbEntity
  8
寸法
 48
50.0
100
AcDbDimension
  2
*D12
 10
4799.673057123653
 20
6448.066653779701
 30
0.0
 11
4960.575028123714
 21
6548.0666537797
 31
0.0
 12
-465.223517983335
 22
0.0
 32
0.0
 70
   160
 71
     5
 42
-1.0
  3
INABA_S40G
100
AcDbAlignedDimension
 13
4847.673057123657
 23
7008.497424545864
 33
0.0
 14
4799.673057123653
 24
6982.497424545865
 34
0.0
100
AcDbRotatedDimension
1001
ACAD
1000
DSTYLE
1002
{
1070
   279
1070
     2
1002
}
  0
DIMENSION
  5
15E7B
330
747D
100
AcDbEntity
  8
寸法
 48
50.0
100
AcDbDimension
  2
*D13
 10
4744.673057123656
 20
6448.066653779701
 30
0.0
 11
4436.187775749418
 21
6448.066653779701
 31
0.0
 12
-465.223517983335
 22
0.0
 32
0.0
 70
   160
 71
     5
 42
-1.0
  3
INABA_S40G
100
AcDbAlignedDimension
 13
4799.673057123653
 23
6982.497424545865
 33
0.0
 14
4744.673057123656
 24
6982.497424545861
 34
0.0
100
AcDbRotatedDimension
1001
ACAD
1000
DSTYLE
1002
{
1002
}
  0
LINE
  5
160AA
330
747D
100
AcDbEntity
  8
部品1
100
AcDbLine
 10
7346.673057123668
 20
8717.497424545966
 30
0.0
 11
7374.673057123668
 21
8717.497424545966
 31
0.0
  0
LINE
  5
160AB
330
747D
100
AcDbEntity
  8
部品1
100
AcDbLine
 10
4772.673057123642
 20
8717.49742454584
 30
0.0
 11
4744.673057123643
 21
8717.49742454584
 31
0.0
  0
LINE
  5
16112
330
747D
100
AcDbEntity
  8
部品1
100
AcDbLine
 10
6899.673057123663
 20
10032.49742454598
 30
0.0
 11
6899.673057123663
 21
10004.49742454598
 31
0.0
  0
LINE
  5
161D6
330
747D
100
AcDbEntity
  8
部品1
100
AcDbLine
 10
4772.673057123642
 20
8297.49742454584
 30
0.0
 11
4744.673057123643
 21
8297.49742454584
 31
0.0
  0
LINE
  5
161D7
330
747D
100
AcDbEntity
  8
部品1
100
AcDbLine
 10
7346.673057123668
 20
8297.497424545968
 30
0.0
 11
7374.673057123668
 21
8297.497424545968
 31
0.0
  0
LINE
  5
1622B
330
747D
100
AcDbEntity
  8
部品1
100
AcDbLine
 10
4772.673057123642
 20
7877.49742454584
 30
0.0
 11
4744.673057123643
 21
7877.49742454584
 31
0.0
  0
LINE
  5
1622C
330
747D
100
AcDbEntity
  8
部品1
100
AcDbLine
 10
7346.673057123668
 20
7877.497424545968
 30
0.0
 11
7374.673057123668
 21
7877.497424545968
 31
0.0
  0
LINE
  5
162C3
330
747D
100
AcDbEntity
  8
部品1
100
AcDbLine
 10
4772.673057123642
 20
7457.497424545839
 30
0.0
 11
4744.673057123643
 21
7457.497424545839
 31
0.0
  0
LINE
  5
162C4
330
747D
100
AcDbEntity
  8
部品1
100
AcDbLine
 10
7346.673057123668
 20
7457.497424545967
 30
0.0
 11
7374.673057123668
 21
7457.497424545967
 31
0.0
  0
LINE
  5
173FC
330
747D
100
AcDbEntity
  8
破線
 48
10.0
100
AcDbLine
 10
5619.173057123557
 20
7112.497424545856
 30
0.0
 11
5619.173057123679
 21
9552.497424545753
 31
0.0
  0
LINE
  5
173FD
330
747D
100
AcDbEntity
  8
破線
 48
10.0
100
AcDbLine
 10
5669.173057123553
 20
7112.497424545854
 30
0.0
 11
5669.17305712368
 21
9552.497424545759
 31
0.0
  0
LINE
  5
173FE
330
747D
100
AcDbEntity
  8
破線
 48
10.0
100
AcDbLine
 10
6500.173057123553
 20
7112.497424545807
 30
0.0
 11
6500.173057123681
 21
9552.497424545785
 31
0.0
  0
LINE
  5
173FF
330
747D
100
AcDbEntity
  8
破線
 48
10.0
100
AcDbLine
 10
6450.173057123556
 20
7112.497424545811
 30
0.0
 11
6450.173057123681
 21
9552.497424545784
 31
0.0
  0
LINE
  5
17400
330
747D
100
AcDbEntity
  8
破線
 48
10.0
100
AcDbLine
 10
4824.673057123517
 20
7137.4974245459
 30
0.0
 11
5619.173057123557
 21
7137.497424545855
 31
0.0
  0
LINE
  5
17401
330
747D
100
AcDbEntity
  8
部品1
 48
50.0
100
AcDbLine
 10
4799.673057123653
 20
7067.497424545901
 30
0.0
 11
7319.67305712364
 21
7067.49742454576
 31
0.0
  0
LINE
  5
17402
330
747D
100
AcDbEntity
  8
部品1
 48
50.0
100
AcDbLine
 10
4799.673057123653
 20
7112.497424545901
 30
0.0
 11
7319.67305712364
 21
7112.497424545759
 31
0.0
  0
LINE
  5
17403
330
747D
100
AcDbEntity
  8
破線
 48
10.0
100
AcDbLine
 10
5669.173057123553
 20
7137.49742454585
 30
0.0
 11
6450.173057123556
 21
7137.497424545808
 31
0.0
  0
LINE
  5
17404
330
747D
100
AcDbEntity
  8
破線
 48
10.0
100
AcDbLine
 10
6500.173057123557
 20
7137.497424545803
 30
0.0
 11
7294.673057123531
 21
7137.49742454576
 31
0.0
  0
LINE
  5
17405
330
747D
100
AcDbEntity
  8
部品1
 48
50.0
100
AcDbLine
 10
4799.673057123653
 20
7457.497424545876
 30
0.0
 11
7319.673057123658
 21
7457.497424545874
 31
0.0
  0
LINE
  5
17406
330
747D
100
AcDbEntity
  8
部品1
 48
50.0
100
AcDbLine
 10
4799.673057123653
 20
7877.497424545876
 30
0.0
 11
7319.673057123658
 21
7877.497424545872
 31
0.0
  0
LINE
  5
17407
330
747D
100
AcDbEntity
  8
部品1
 48
50.0
100
AcDbLine
 10
4799.673057123653
 20
8297.497424545877
 30
0.0
 11
7319.673057123658
 21
8297.497424545872
 31
0.0
  0
LINE
  5
17408
330
747D
100
AcDbEntity
  8
部品1
 48
50.0
100
AcDbLine
 10
4799.673057123653
 20
8717.497424545875
 30
0.0
 11
7319.673057123658
 21
8717.497424545873
 31
0.0
  0
LINE
  5
17409
330
747D
100
AcDbEntity
  8
部品1
 48
50.0
100
AcDbLine
 10
4799.673057123653
 20
9137.497424545875
 30
0.0
 11
7319.673057123658
 21
9137.497424545873
 31
0.0
  0
LINE
  5
1740A
330
747D
100
AcDbEntity
  8
破線
 48
10.0
100
AcDbLine
 10
4824.673057123517
 20
7137.4974245459
 30
0.0
 11
4824.67305712364
 21
9552.497424545688
 31
0.0
  0
LINE
  5
1740B
330
747D
100
AcDbEntity
  8
部品1
100
AcDbLine
 10
4799.67305712364
 20
9552.497424545682
 30
0.0
 11
4799.673057123654
 21
7047.497424545899
 31
0.0
  0
LINE
  5
1740C
330
747D
100
AcDbEntity
  8
部品1
100
AcDbLine
 10
7319.673057123658
 20
7047.497424545899
 30
0.0
 11
7319.673057123663
 21
9552.497424545782
 31
0.0
  0
LINE
  5
1740D
330
747D
100
AcDbEntity
  8
破線
 48
10.0
100
AcDbLine
 10
7294.673057123529
 20
7137.49742454576
 30
0.0
 11
7294.673057123651
 21
9552.49742454578
 31
0.0
  0
LINE
  5
17412
330
747D
100
AcDbEntity
  8
部品1
100
AcDbLine
 10
7319.673057123663
 20
10032.49742454598
 30
0.0
 11
7319.673057123663
 21
10004.49742454598
 31
0.0
  0
LINE
  5
17424
330
747D
100
AcDbEntity
  8
部品1
 48
50.0
100
AcDbLine
 10
4799.673057123653
 20
6982.497424545901
 30
0.0
 11
7319.67305712364
 21
6982.497424545759
 31
0.0
  0
LINE
  5
17425
330
747D
100
AcDbEntity
  8
部品1
 48
50.0
100
AcDbLine
 10
7319.673057123637
 20
7047.497424545865
 30
0.0
 11
7319.67305712364
 21
6982.497424545953
 31
0.0
  0
LINE
  5
174B3
330
747D
100
AcDbEntity
  8
部品1
 48
50.0
100
AcDbLine
 10
6046.173057123663
 20
10002.49742454578
 30
0.0
 11
6046.173057123663
 21
9552.497424545787
 31
0.0
  0
LINE
  5
174B4
330
747D
100
AcDbEntity
  8
部品1
 48
50.0
100
AcDbLine
 10
6073.173057123663
 20
10002.49742454578
 30
0.0
 11
6073.173057123663
 21
9552.497424545787
 31
0.0
  0
LINE
  5
174B5
330
747D
100
AcDbEntity
  8
部品1
 48
50.0
100
AcDbLine
 10
6047.173057123663
 20
10004.49742454579
 30
0.0
 11
6047.173057123663
 21
9552.497424545787
 31
0.0
  0
LINE
  5
174B6
330
747D
100
AcDbEntity
  8
部品1
 48
50.0
100
AcDbLine
 10
6072.173057123663
 20
10004.49742454579
 30
0.0
 11
6072.173057123663
 21
9552.497424545787
 31
0.0
  0
LINE
  5
174B7
330
747D
100
AcDbEntity
  8
細線
 48
50.0
100
AcDbLine
 10
7346.173057123666
 20
10002.49742454577
 30
0.0
 11
6073.173057123663
 21
9552.497424545787
 31
0.0
  0
LINE
  5
174B8
330
747D
100
AcDbEntity
  8
細線
 48
50.0
100
AcDbLine
 10
7346.173057123666
 20
9552.49742454578
 30
0.0
 11
6073.173057123663
 21
10002.49742454578
 31
0.0
  0
LINE
  5
174B9
330
747D
100
AcDbEntity
  8
細線
 48
50.0
100
AcDbLine
 10
6046.173057123663
 20
9552.497424545787
 30
0.0
 11
4773.173057123663
 21
10002.49742454568
 31
0.0
  0
LINE
  5
174BA
330
747D
100
AcDbEntity
  8
細線
 48
50.0
100
AcDbLine
 10
6046.173057123663
 20
10002.49742454578
 30
0.0
 11
4773.173057123663
 21
9552.497424545682
 31
0.0
  0
LINE
  5
174BB
330
747D
100
AcDbEntity
  8
部品1
100
AcDbLine
 10
4773.173057123664
 20
9552.497424545682
 30
0.0
 11
6046.173057123663
 21
9552.497424545787
 31
0.0
  0
LINE
  5
174BC
330
747D
100
AcDbEntity
  8
部品1
100
AcDbLine
 10
6073.173057123663
 20
9552.497424545787
 30
0.0
 11
7346.173057123666
 21
9552.49742454578
 31
0.0
  0
LINE
  5
174BD
330
747D
100
AcDbEntity
  8
部品1
100
AcDbLine
 10
6047.173057123663
 20
9552.497424545787
 30
0.0
 11
6072.173057123663
 21
9552.497424545787
 31
0.0
  0
LINE
  5
174BE
330
747D
100
AcDbEntity
  8
部品1
100
AcDbLine
 10
4773.173057123663
 20
10002.49742454568
 30
0.0
 11
6046.173057123662
 21
10002.49742454578
 31
0.0
  0
LINE
  5
174BF
330
747D
100
AcDbEntity
  8
部品1
 48
50.0
100
AcDbLine
 10
4773.173057123663
 20
10002.49742454567
 30
0.0
 11
4773.173057123663
 21
9552.497424545677
 31
0.0
  0
LINE
  5
174C0
330
747D
100
AcDbEntity
  8
部品1
100
AcDbLine
 10
6047.173057123663
 20
9996.497424545779
 30
0.0
 11
6072.173057123663
 21
9996.497424545784
 31
0.0
  0
LINE
  5
174C1
330
747D
100
AcDbEntity
  8
部品1
100
AcDbLine
 10
6024.673057123663
 20
10022.49742454578
 30
0.0
 11
6030.673057123664
 21
10022.49742454578
 31
0.0
  0
LINE
  5
174C2
330
747D
100
AcDbEntity
  8
部品1
100
AcDbLine
 10
6024.673057123663
 20
10022.49742454578
 30
0.0
 11
6024.673057123663
 21
10004.49742454578
 31
0.0
  0
LINE
  5
174C3
330
747D
100
AcDbEntity
  8
部品1
100
AcDbLine
 10
6059.673057123664
 20
10032.49742454591
 30
0.0
 11
6059.673057123664
 21
10004.49742454591
 31
0.0
  0
LINE
  5
174C4
330
747D
100
AcDbEntity
  8
部品1
100
AcDbLine
 10
6088.673057123664
 20
10022.49742454578
 30
0.0
 11
6094.673057123663
 21
10022.49742454578
 31
0.0
  0
LINE
  5
174C5
330
747D
100
AcDbEntity
  8
部品1
100
AcDbLine
 10
6094.673057123663
 20
10022.49742454578
 30
0.0
 11
6094.673057123663
 21
10004.49742454578
 31
0.0
  0
LINE
  5
174C6
330
747D
100
AcDbEntity
  8
部品1
100
AcDbLine
 10
6073.173057123663
 20
10002.49742454578
 30
0.0
 11
7346.173057123666
 21
10002.49742454577
 31
0.0
  0
LINE
  5
174C7
330
747D
100
AcDbEntity
  8
部品1
100
AcDbLine
 10
7346.173057123666
 20
10002.49742454577
 30
0.0
 11
7346.173057123666
 21
9552.49742454578
 31
0.0
  0
DIMENSION
  5
174C8
330
747D
100
AcDbEntity
  8
寸法
100
AcDbDimension
  2
*D14
 10
7701.530782985689
 20
9457.27960887689
 30
0.0
 11
7601.530782985689
 21
9682.279608876889
 31
0.0
 70
    32
 71
     5
 42
-1.0
  3
INABA_S40G
100
AcDbAlignedDimension
 13
7346.173057123666
 23
10002.49742454577
 33
0.0
 14
7346.173057123666
 24
9552.49742454578
 34
0.0
 50
90.0
100
AcDbRotatedDimension
1001
ACAD
1000
DSTYLE
1002
{
1002
}
  0
TEXT
  5
17591
330
747D
100
AcDbEntity
  8
文字
 62
     7
 48
50.0
100
AcDbText
 10
13248.77747366448
 20
8380.013745883731
 30
0.0
 40
100.0
  1
16
  7
STYLE1
100
AcDbText
  0
LINE
  5
17592
330
747D
100
AcDbEntity
  8
仕様書枠
 48
50.0
100
AcDbLine
 10
16307.19999999999
 20
8519.600000000002
 30
0.0
 11
13127.19999999999
 21
8519.600000000002
 31
0.0
  0
TEXT
  5
17593
330
747D
100
AcDbEntity
  8
文字
 62
     7
 48
50.0
100
AcDbText
 10
15022.63965474516
 20
8550.013745883727
 30
0.0
 40
100.0
  1
F12            0.6
  7
STYLE1
100
AcDbText
  0
TEXT
  5
17594
330
747D
100
AcDbEntity
  8
文字
 62
     7
 48
50.0
100
AcDbText
 10
13583.11819016569
 20
8550.013745883729
 30
0.0
 40
100.0
  1
棚板
 41
0.9
  7
STYLE1
100
AcDbText
  0
TEXT
  5
17595
330
747D
100
AcDbEntity
  8
文字
 62
     7
 48
50.0
100
AcDbText
 10
13583.11819016569
 20
8380.013745883731
 30
0.0
 40
100.0
  1
アンカープレート
  7
STYLE1
100
AcDbText
  0
TEXT
  5
17596
330
747D
100
AcDbEntity
  8
文字
 62
     7
 48
50.0
100
AcDbText
 10
15022.63965474515
 20
8380.013745883726
 30
0.0
 40
100.0
  1
F12            2.3
  7
STYLE1
100
AcDbText
  0
LINE
  5
17597
330
747D
100
AcDbEntity
  8
仕様書枠
 48
50.0
100
AcDbLine
 10
16307.19999999999
 20
9879.599999999999
 30
0.0
 11
13127.19999999999
 21
9879.600000000001
 31
0.0
  0
LINE
  5
17598
330
747D
100
AcDbEntity
  8
仕様書枠
 48
50.0
100
AcDbLine
 10
16307.19999999999
 20
11239.6
 30
0.0
 11
13127.2
 21
11239.6
 31
0.0
  0
LINE
  5
17599
330
747D
100
AcDbEntity
  8
仕様書枠
 48
50.0
100
AcDbLine
 10
16307.19999999999
 20
7839.600000000007
 30
0.0
 11
16307.2
 21
11239.6
 31
0.0
  0
LINE
  5
1759A
330
747D
100
AcDbEntity
  8
仕様書枠
 48
50.0
100
AcDbLine
 10
14785.2
 20
11239.59999999999
 30
0.0
 11
14785.2
 21
8349.600000000007
 31
0.0
  0
LINE
  5
1759B
330
747D
100
AcDbEntity
  8
仕様書枠
 48
50.0
100
AcDbLine
 10
13490.2
 20
11239.6
 30
0.0
 11
13490.20000000001
 21
8349.600000000007
 31
0.0
  0
LINE
  5
1759C
330
747D
100
AcDbEntity
  8
仕様書枠
 48
50.0
100
AcDbLine
 10
16307.19999999999
 20
11069.6
 30
0.0
 11
13127.2
 21
11069.6
 31
0.0
  0
LINE
  5
1759D
330
747D
100
AcDbEntity
  8
仕様書枠
 48
50.0
100
AcDbLine
 10
16307.19999999999
 20
10729.6
 30
0.0
 11
13127.2
 21
10729.6
 31
0.0
  0
LINE
  5
1759E
330
747D
100
AcDbEntity
  8
仕様書枠
 48
50.0
100
AcDbLine
 10
16307.19999999999
 20
10899.6
 30
0.0
 11
13127.2
 21
10899.6
 31
0.0
  0
LINE
  5
1759F
330
747D
100
AcDbEntity
  8
仕様書枠
 48
50.0
100
AcDbLine
 10
16307.19999999999
 20
10389.6
 30
0.0
 11
13127.19999999999
 21
10389.6
 31
0.0
  0
LINE
  5
175A0
330
747D
100
AcDbEntity
  8
仕様書枠
 48
50.0
100
AcDbLine
 10
16307.19999999999
 20
10219.6
 30
0.0
 11
13127.19999999999
 21
10219.6
 31
0.0
  0
LINE
  5
175A1
330
747D
100
AcDbEntity
  8
仕様書枠
 48
50.0
100
AcDbLine
 10
16307.19999999999
 20
10559.6
 30
0.0
 11
13127.19999999999
 21
10559.6
 31
0.0
  0
TEXT
  5
175A2
330
747D
100
AcDbEntity
  8
文字
 62
     7
 48
50.0
100
AcDbText
 10
13197.42518560407
 20
11100.01374588373
 30
0.0
 40
100.0
  1
品番
  7
STYLE1
100
AcDbText
  0
TEXT
  5
175A3
330
747D
100
AcDbEntity
  8
文字
 62
     7
 48
50.0
100
AcDbText
 10
13271.19032244792
 20
10930.01374588373
 30
0.0
 40
100.0
  1
1
  7
STYLE1
100
AcDbText
  0
TEXT
  5
175A4
330
747D
100
AcDbEntity
  8
文字
 62
     7
 48
50.0
100
AcDbText
 10
13271.19032244792
 20
10760.01374588373
 30
0.0
 40
100.0
  1
2
  7
STYLE1
100
AcDbText
  0
TEXT
  5
175A5
330
747D
100
AcDbEntity
  8
文字
 62
     7
 48
50.0
100
AcDbText
 10
13271.19032244792
 20
10420.01374588373
 30
0.0
 40
100.0
  1
4
  7
STYLE1
100
AcDbText
  0
TEXT
  5
175A6
330
747D
100
AcDbEntity
  8
文字
 62
     7
 48
50.0
100
AcDbText
 10
13271.19032244792
 20
10590.01374588373
 30
0.0
 40
100.0
  1
3
  7
STYLE1
100
AcDbText
  0
TEXT
  5
175A7
330
747D
100
AcDbEntity
  8
文字
 62
     7
 48
50.0
100
AcDbText
 10
13732.03840939434
 20
11100.01374588373
 30
0.0
 40
100.0
  1
部　　品　　名
  7
STYLE1
100
AcDbText
  0
TEXT
  5
175A8
330
747D
100
AcDbEntity
  8
文字
 62
     7
 48
50.0
100
AcDbText
 10
14859.79774614482
 20
11100.01374588373
 30
0.0
 40
100.0
  1
材料（材質）　　単位mm
  7
STYLE1
100
AcDbText
  0
TEXT
  5
175A9
330
747D
100
AcDbEntity
  8
文字
 62
     7
 48
50.0
100
AcDbText
 10
13583.11819016569
 20
10930.01374588372
 30
0.0
 40
100.0
  1
土台枠
  7
STYLE1
100
AcDbText
  0
TEXT
  5
175AA
330
747D
100
AcDbEntity
  8
文字
 62
     7
 48
50.0
100
AcDbText
 10
13583.11819016569
 20
10760.01374588372
 30
0.0
 40
100.0
  1
柱
  7
STYLE1
100
AcDbText
  0
TEXT
  5
175AB
330
747D
100
AcDbEntity
  8
文字
 62
     7
 48
50.0
100
AcDbText
 10
13583.11819016569
 20
10590.01374588373
 30
0.0
 40
100.0
  1
桁前
  7
STYLE1
100
AcDbText
  0
TEXT
  5
175AC
330
747D
100
AcDbEntity
  8
文字
 62
     7
 48
50.0
100
AcDbText
 10
13583.11819016569
 20
10420.01374588373
 30
0.0
 40
100.0
  1
桁後
  7
STYLE1
100
AcDbText
  0
TEXT
  5
175AD
330
747D
100
AcDbEntity
  8
文字
 62
     7
 48
50.0
100
AcDbText
 10
13271.19032244792
 20
10250.01374588373
 30
0.0
 40
100.0
  1
5
  7
STYLE1
100
AcDbText
  0
TEXT
  5
175AE
330
747D
100
AcDbEntity
  8
文字
 62
     7
 48
50.0
100
AcDbText
 10
13583.11819016569
 20
10250.01374588373
 30
0.0
 40
100.0
  1
妻板左右
  7
STYLE1
100
AcDbText
  0
TEXT
  5
175AF
330
747D
100
AcDbEntity
  8
文字
 62
     7
 48
50.0
100
AcDbText
 10
13583.11819016569
 20
9060.013745883727
 30
0.0
 40
100.0
  1
シャッターレール
  7
STYLE1
100
AcDbText
  0
TEXT
  5
175B0
330
747D
100
AcDbEntity
  8
文字
 62
     7
 48
50.0
100
AcDbText
 10
13248.77747366448
 20
9400.013745883727
 30
0.0
 40
100.0
  1
10
  7
STYLE1
100
AcDbText
  0
TEXT
  5
175B1
330
747D
100
AcDbEntity
  8
文字
 62
     7
 48
50.0
100
AcDbText
 10
13583.11819016569
 20
9570.013745883729
 30
0.0
 40
100.0
  1
壁パネル
  7
STYLE1
100
AcDbText
  0
TEXT
  5
175B2
330
747D
100
AcDbEntity
  8
文字
 62
     7
 48
50.0
100
AcDbText
 10
13583.11819016569
 20
9740.013745883729
 30
0.0
 40
100.0
  1
屋根パネル
  7
STYLE1
100
AcDbText
  0
TEXT
  5
175B3
330
747D
100
AcDbEntity
  8
文字
 62
     7
 48
50.0
100
AcDbText
 10
13583.11819016569
 20
9910.013745883727
 30
0.0
 40
100.0
  1
母屋中
  7
STYLE1
100
AcDbText
  0
TEXT
  5
175B4
330
747D
100
AcDbEntity
  8
文字
 62
     7
 48
50.0
100
AcDbText
 10
13583.11819016569
 20
10080.01374588372
 30
0.0
 40
100.0
  1
鼻隠シ前後
  7
STYLE1
100
AcDbText
  0
TEXT
  5
175B5
330
747D
100
AcDbEntity
  8
文字
 62
     7
 48
50.0
100
AcDbText
 10
13271.19032244792
 20
9740.013745883729
 30
0.0
 40
100.0
  1
8
  7
STYLE1
100
AcDbText
  0
TEXT
  5
175B6
330
747D
100
AcDbEntity
  8
文字
 62
     7
 48
50.0
100
AcDbText
 10
13271.19032244792
 20
9570.013745883729
 30
0.0
 40
100.0
  1
9
  7
STYLE1
100
AcDbText
  0
TEXT
  5
175B7
330
747D
100
AcDbEntity
  8
文字
 62
     7
 48
50.0
100
AcDbText
 10
13271.19032244792
 20
9910.01374588373
 30
0.0
 40
100.0
  1
7
  7
STYLE1
100
AcDbText
  0
TEXT
  5
175B8
330
747D
100
AcDbEntity
  8
文字
 62
     7
 48
50.0
100
AcDbText
 10
13271.19032244792
 20
10080.01374588373
 30
0.0
 40
100.0
  1
6
  7
STYLE1
100
AcDbText
  0
LINE
  5
175B9
330
747D
100
AcDbEntity
  8
仕様書枠
 48
50.0
100
AcDbLine
 10
16307.19999999999
 20
9539.599999999998
 30
0.0
 11
13127.19999999999
 21
9539.6
 31
0.0
  0
LINE
  5
175BA
330
747D
100
AcDbEntity
  8
仕様書枠
 48
50.0
100
AcDbLine
 10
16307.19999999999
 20
9199.599999999998
 30
0.0
 11
13127.19999999999
 21
9199.600000000001
 31
0.0
  0
LINE
  5
175BB
330
747D
100
AcDbEntity
  8
仕様書枠
 48
50.0
100
AcDbLine
 10
16307.19999999999
 20
9369.599999999998
 30
0.0
 11
13127.19999999999
 21
9369.600000000001
 31
0.0
  0
LINE
  5
175BC
330
747D
100
AcDbEntity
  8
仕様書枠
 48
50.0
100
AcDbLine
 10
16307.19999999999
 20
10049.6
 30
0.0
 11
13127.2
 21
10049.6
 31
0.0
  0
LINE
  5
175BD
330
747D
100
AcDbEntity
  8
仕様書枠
 48
50.0
100
AcDbLine
 10
16307.19999999999
 20
9709.6
 30
0.0
 11
13127.19999999999
 21
9709.600000000001
 31
0.0
  0
TEXT
  5
175BE
330
747D
100
AcDbEntity
  8
文字
 62
     7
 48
50.0
100
AcDbText
 10
13248.77747366448
 20
9230.013745883727
 30
0.0
 40
100.0
  1
11
  7
STYLE1
100
AcDbText
  0
TEXT
  5
175BF
330
747D
100
AcDbEntity
  8
文字
 62
     7
 48
50.0
100
AcDbText
 10
13583.11819016569
 20
9230.013745883727
 30
0.0
 40
100.0
  1
シャッターカバー
 41
0.9
  7
STYLE1
100
AcDbText
  0
LINE
  5
175C0
330
747D
100
AcDbEntity
  8
仕様書枠
 48
50.0
100
AcDbLine
 10
16307.19999999999
 20
9029.6
 30
0.0
 11
13127.19999999999
 21
9029.6
 31
0.0
  0
LINE
  5
175C1
330
747D
100
AcDbEntity
  8
仕様書枠
 48
50.0
100
AcDbLine
 10
16307.19999999999
 20
8349.600000000004
 30
0.0
 11
13127.19999999999
 21
8349.600000000007
 31
0.0
  0
TEXT
  5
175C2
330
747D
100
AcDbEntity
  8
文字
 62
     7
 48
50.0
100
AcDbText
 10
13583.11819016569
 20
9400.013745883732
 30
0.0
 40
100.0
  1
シャッター
  7
STYLE1
100
AcDbText
  0
TEXT
  5
175C3
330
747D
100
AcDbEntity
  8
文字
 62
     7
 48
50.0
100
AcDbText
 10
13248.77747366448
 20
8890.013745883729
 30
0.0
 40
100.0
  1
13
  7
STYLE1
100
AcDbText
  0
TEXT
  5
175C4
330
747D
100
AcDbEntity
  8
文字
 62
     7
 48
50.0
100
AcDbText
 10
13248.77747366448
 20
9060.013745883729
 30
0.0
 40
100.0
  1
12
  7
STYLE1
100
AcDbText
  0
TEXT
  5
175C5
330
747D
100
AcDbEntity
  8
文字
 62
     7
 48
50.0
100
AcDbText
 10
15022.63965474517
 20
10930.01374588372
 30
0.0
 40
100.0
  1
F12            1.2
  7
STYLE1
100
AcDbText
  0
TEXT
  5
175C6
330
747D
100
AcDbEntity
  8
文字
 62
     7
 48
50.0
100
AcDbText
 10
15022.63965474517
 20
10760.01374588372
 30
0.0
 40
100.0
  1
F12         1.0,1.2
  7
STYLE1
100
AcDbText
  0
TEXT
  5
175C7
330
747D
100
AcDbEntity
  8
文字
 62
     7
 48
50.0
100
AcDbText
 10
15022.63965474516
 20
10590.01374588372
 30
0.0
 40
100.0
  1
Y10            1.0
  7
STYLE1
100
AcDbText
  0
TEXT
  5
175C8
330
747D
100
AcDbEntity
  8
文字
 62
     7
 48
50.0
100
AcDbText
 10
15022.63965474516
 20
10420.01374588372
 30
0.0
 40
100.0
  1
Y10            1.0
  7
STYLE1
100
AcDbText
  0
TEXT
  5
175C9
330
747D
100
AcDbEntity
  8
文字
 62
     7
 48
50.0
100
AcDbText
 10
15022.63965474516
 20
10250.01374588372
 30
0.0
 40
100.0
  1
Y10            0.7
  7
STYLE1
100
AcDbText
  0
TEXT
  5
175CA
330
747D
100
AcDbEntity
  8
文字
 62
     7
 48
50.0
100
AcDbText
 10
15022.63965474516
 20
10080.01374588372
 30
0.0
 40
100.0
  1
Y10            0.7
  7
STYLE1
100
AcDbText
  0
TEXT
  5
175CB
330
747D
100
AcDbEntity
  8
文字
 62
     7
 48
50.0
100
AcDbText
 10
15022.63965474516
 20
9740.013745883725
 30
0.0
 40
100.0
  1
Y10            0.5
  7
STYLE1
100
AcDbText
  0
TEXT
  5
175CC
330
747D
100
AcDbEntity
  8
文字
 62
     7
 48
50.0
100
AcDbText
 10
15022.63965474516
 20
9570.013745883725
 30
0.0
 40
100.0
  1
F12            0.7
  7
STYLE1
100
AcDbText
  0
TEXT
  5
175CD
330
747D
100
AcDbEntity
  8
文字
 62
     7
 48
50.0
100
AcDbText
 10
14850.83183167176
 20
9060.013745883725
 30
0.0
 40
100.0
  1
アルミニウム合金押出形材
  7
STYLE1
100
AcDbText
  0
TEXT
  5
175CF
330
747D
100
AcDbEntity
  8
文字
 62
     7
 48
50.0
100
AcDbText
 10
15022.63965474515
 20
9400.013745883729
 30
0.0
 40
100.0
  1
Z08            0.5
  7
STYLE1
100
AcDbText
  0
LINE
  5
175D0
330
747D
100
AcDbEntity
  8
仕様書枠
 48
50.0
100
AcDbLine
 10
16307.19999999998
 20
8179.600000000005
 30
0.0
 11
13127.19999999999
 21
8179.600000000007
 31
0.0
  0
LINE
  5
175D1
330
747D
100
AcDbEntity
  8
仕様書枠
 48
50.0
100
AcDbLine
 10
16307.19999999998
 20
8009.600000000006
 30
0.0
 11
13127.19999999999
 21
8009.600000000007
 31
0.0
  0
LINE
  5
175D2
330
747D
100
AcDbEntity
  8
仕様書枠
 48
50.0
100
AcDbLine
 10
16307.19999999998
 20
7839.600000000006
 30
0.0
 11
13127.19999999999
 21
7839.600000000007
 31
0.0
  0
TEXT
  5
175D3
330
747D
100
AcDbEntity
  8
文字
 62
     7
 48
50.0
100
AcDbText
 10
13229.83081656554
 20
8210.013745883735
 30
0.0
 40
100.0
  1
F12→溶融亜鉛めっき鋼板(JIS G 3302)
  7
STYLE1
100
AcDbText
  0
TEXT
  5
175D4
330
747D
100
AcDbEntity
  8
文字
 62
     7
 48
50.0
100
AcDbText
 10
13229.83081656554
 20
8040.013745883735
 30
0.0
 40
100.0
  1
Y10→溶融亜鉛-5％アルミニウム合金めっき鋼板(JIS G 3317)
 41
0.9
  7
STYLE1
100
AcDbText
  0
TEXT
  5
175D5
330
747D
100
AcDbEntity
  8
文字
 62
     7
 48
50.0
100
AcDbText
 10
13229.83081656554
 20
7870.013745883736
 30
0.0
 40
100.0
  1
Z08→塗装溶融亜鉛めっき鋼板(JIS G 3313)
  7
STYLE1
100
AcDbText
  0
LINE
  5
175D6
330
747D
100
AcDbEntity
  8
仕様書枠
 48
50.0
100
AcDbLine
 10
13127.2
 20
11239.6
 30
0.0
 11
13127.19999999999
 21
7839.600000000007
 31
0.0
  0
LINE
  5
175D7
330
747D
100
AcDbEntity
  8
仕様書枠
 48
50.0
100
AcDbLine
 10
16307.19999999999
 20
8689.6
 30
0.0
 11
13127.19999999999
 21
8689.600000000003
 31
0.0
  0
LINE
  5
175D8
330
747D
100
AcDbEntity
  8
仕様書枠
 48
50.0
100
AcDbLine
 10
16307.19999999999
 20
8859.6
 30
0.0
 11
13127.19999999999
 21
8859.600000000002
 31
0.0
  0
TEXT
  5
175D9
330
747D
100
AcDbEntity
  8
文字
 62
     7
 48
50.0
100
AcDbText
 10
13583.11819016569
 20
8720.013745883729
 30
0.0
 40
100.0
  1
床パネル
 41
0.9
  7
STYLE1
100
AcDbText
  0
TEXT
  5
175DA
330
747D
100
AcDbEntity
  8
文字
 62
     7
 48
50.0
100
AcDbText
 10
13583.11819016569
 20
8890.013745883729
 30
0.0
 40
100.0
  1
根太
  7
STYLE1
100
AcDbText
  0
TEXT
  5
175DB
330
747D
100
AcDbEntity
  8
文字
 62
     7
 48
50.0
100
AcDbText
 10
13248.77747366448
 20
8720.013745883729
 30
0.0
 40
100.0
  1
14
  7
STYLE1
100
AcDbText
  0
TEXT
  5
175DC
330
747D
100
AcDbEntity
  8
文字
 62
     7
 48
50.0
100
AcDbText
 10
13248.77747366448
 20
8550.013745883731
 30
0.0
 40
100.0
  1
15
  7
STYLE1
100
AcDbText
  0
TEXT
  5
175DD
330
747D
100
AcDbEntity
  8
文字
 62
     7
 48
50.0
100
AcDbText
 10
15022.63965474516
 20
8890.013745883726
 30
0.0
 40
100.0
  1
F12            1.2
  7
STYLE1
100
AcDbText
  0
TEXT
  5
175DE
330
747D
100
AcDbEntity
  8
文字
 62
     7
 48
50.0
100
AcDbText
 10
15022.63965474516
 20
8720.013745883727
 30
0.0
 40
100.0
  1
F12            1.0
  7
STYLE1
100
AcDbText
  0
TEXT
  5
175E9
330
747D
100
AcDbEntity
  8
文字
 62
     7
 48
50.0
100
AcDbText
 10
14833.43123277338
 20
9915.516434800332
 30
0.0
 40
100.0
  1
F12    1.2(多雪地型  2.3)
  7
STYLE1
100
AcDbText
  0
LINE
  5
179B7
330
747D
100
AcDbEntity
  8
部品1
 48
50.0
100
AcDbLine
 10
7417.264636017226
 20
4473.872272255717
 30
0.0
 11
4702.081478230087
 21
4473.872272255717
 31
0.0
  0
LINE
  5
179B8
330
747D
100
AcDbEntity
  8
部品1
 48
50.0
100
AcDbLine
 10
7404.049312556193
 20
4332.872272255719
 30
0.0
 11
4715.296801691121
 21
4332.872272255719
 31
0.0
  0
LINE
  5
179B9
330
747D
100
AcDbEntity
  8
細線
 48
50.0
100
AcDbLine
 10
7422.514406111743
 20
4445.845514819185
 30
0.0
 11
4696.831708135618
 21
4445.845514819505
 31
0.0
  0
LINE
  5
179BA
330
747D
100
AcDbEntity
  8
細線
 48
50.0
100
AcDbLine
 10
7414.278375586899
 20
4353.645514819184
 30
0.0
 11
4705.067738660458
 21
4353.645514819504
 31
0.0
  0
LINE
  5
179BB
330
747D
100
AcDbEntity
  8
部品1
100
AcDbLine
 10
7424.253396108325
 20
4466.475746860477
 30
0.0
 11
7423.119998775979
 21
4446.499618877878
 31
0.0
  0
LINE
  5
179BC
330
747D
100
AcDbEntity
  8
細線
 48
50.0
100
AcDbLine
 10
7391.673057123658
 20
4473.872272255717
 30
0.0
 11
7391.673057123658
 21
4332.872272255716
 31
0.0
  0
LINE
  5
179BD
330
747D
100
AcDbEntity
  8
細線
 48
50.0
100
AcDbLine
 10
4727.673057123658
 20
4473.872272255717
 30
0.0
 11
4727.673057123658
 21
4332.872272255716
 31
0.0
  0
LINE
  5
179BE
330
747D
100
AcDbEntity
  8
部品1
100
AcDbLine
 10
7411.682978454402
 20
4350.842211710819
 30
0.0
 11
7411.038072647291
 21
4339.475746860479
 31
0.0
  0
LINE
  5
179BF
330
747D
100
AcDbEntity
  8
部品1
100
AcDbLine
 10
7419.919008979246
 20
4443.04221171082
 30
0.0
 11
7414.883968251135
 21
4354.299618877877
 31
0.0
  0
ARC
  5
179C0
330
747D
100
AcDbEntity
  8
部品1
 48
50.0
100
AcDbCircle
 10
7422.914191875432
 20
4442.872272255718
 30
0.0
 40
3.0
100
AcDbArc
 50
97.65812720736347
 51
176.7526572096623
  0
ARC
  5
179C1
330
747D
100
AcDbEntity
  8
部品1
 48
50.0
100
AcDbCircle
 10
7414.678161350588
 20
4350.672272255716
 30
0.0
 40
3.0
100
AcDbArc
 50
97.65812720736347
 51
176.7526572096623
  0
ARC
  5
179C2
330
747D
100
AcDbEntity
  8
部品1
 48
50.0
100
AcDbCircle
 10
7414.185092242028
 20
4354.3392714174
 30
0.0
 40
0.7
100
AcDbArc
 50
277.6581272073635
 51
356.7526572096623
  0
ARC
  5
179C3
330
747D
100
AcDbEntity
  8
部品1
 48
50.0
100
AcDbCircle
 10
7422.421122766872
 20
4446.539271417404
 30
0.0
 40
0.7
100
AcDbArc
 50
277.6581272073635
 51
356.7526572095583
  0
ARC
  5
179C4
330
747D
100
AcDbEntity
  8
部品1
100
AcDbCircle
 10
7404.049312556193
 20
4339.872272255719
 30
0.0
 40
7.0
100
AcDbArc
 50
270.0
 51
356.7526572096623
  0
ARC
  5
179C5
330
747D
100
AcDbEntity
  8
部品1
100
AcDbCircle
 10
7417.264636017226
 20
4466.872272255717
 30
0.0
 40
7.0
100
AcDbArc
 50
356.7526572096623
 51
90.0
  0
ARC
  5
179C6
330
747D
100
AcDbEntity
  8
部品1
100
AcDbCircle
 10
4702.081478230087
 20
4466.872272255717
 30
0.0
 40
7.0
100
AcDbArc
 50
90.0
 51
183.2473427903377
  0
ARC
  5
179C7
330
747D
100
AcDbEntity
  8
部品1
100
AcDbCircle
 10
4715.296801691121
 20
4339.872272255719
 30
0.0
 40
7.0
100
AcDbArc
 50
183.2473427903377
 51
270.0
  0
ARC
  5
179C8
330
747D
100
AcDbEntity
  8
部品1
 48
50.0
100
AcDbCircle
 10
4696.924991480446
 20
4446.539271417404
 30
0.0
 40
0.7
100
AcDbArc
 50
183.2473427904417
 51
262.3418727926365
  0
ARC
  5
179C9
330
747D
100
AcDbEntity
  8
部品1
 48
50.0
100
AcDbCircle
 10
4705.161022005286
 20
4354.3392714174
 30
0.0
 40
0.7
100
AcDbArc
 50
183.2473427903377
 51
262.3418727926365
  0
ARC
  5
179CA
330
747D
100
AcDbEntity
  8
部品1
 48
50.0
100
AcDbCircle
 10
4704.667952896725
 20
4350.672272255716
 30
0.0
 40
3.0
100
AcDbArc
 50
3.247342790337682
 51
82.34187279263654
  0
ARC
  5
179CB
330
747D
100
AcDbEntity
  8
部品1
 48
50.0
100
AcDbCircle
 10
4696.431922371881
 20
4442.872272255718
 30
0.0
 40
3.0
100
AcDbArc
 50
3.247342790337682
 51
82.34187279263654
  0
LINE
  5
179CC
330
747D
100
AcDbEntity
  8
部品1
100
AcDbLine
 10
4699.427105268067
 20
4443.04221171082
 30
0.0
 11
4704.462145996178
 21
4354.299618877877
 31
0.0
  0
LINE
  5
179CD
330
747D
100
AcDbEntity
  8
部品1
100
AcDbLine
 10
4707.663135792914
 20
4350.842211710819
 30
0.0
 11
4708.308041600022
 21
4339.475746860479
 31
0.0
  0
LINE
  5
179CE
330
747D
100
AcDbEntity
  8
部品1
100
AcDbLine
 10
4695.092718138988
 20
4466.475746860477
 30
0.0
 11
4696.226115471338
 21
4446.499618877878
 31
0.0
  0
LINE
  5
179CF
330
747D
100
AcDbEntity
  8
部品1
100
AcDbLine
 10
4744.673057123656
 20
4238.872272255714
 30
0.0
 11
7374.673057123657
 21
4238.872272255714
 31
0.0
  0
DIMENSION
  5
179D0
330
747D
100
AcDbEntity
  8
寸法
 48
50.0
100
AcDbDimension
  2
*D15
 10
4694.673057123658
 20
4686.413857513957
 30
0.0
 11
4381.187775749411
 21
4686.413857513957
 31
0.0
 70
   160
 71
     5
 42
50.0
  3
INABA_S40G
100
AcDbAlignedDimension
 13
4744.673057123658
 23
4473.872272255721
 33
0.0
 14
4694.673057123658
 24
4473.872272255718
 34
0.0
100
AcDbRotatedDimension
1001
ACAD
1000
DSTYLE
1002
{
1002
}
  0
DIMENSION
  5
179D1
330
747D
100
AcDbEntity
  8
寸法
 48
50.0
100
AcDbDimension
  2
*D16
 10
7424.673057123658
 20
4901.809288996212
 30
0.0
 11
6059.673057123658
 21
4901.809288996212
 31
0.0
 70
   160
 71
     5
 42
2730.0
  3
INABA_S40G
100
AcDbAlignedDimension
 13
4694.673057123658
 23
4473.872272255718
 33
0.0
 14
7424.673057123658
 24
4473.872272255717
 34
0.0
100
AcDbRotatedDimension
  0
DIMENSION
  5
179D2
330
747D
100
AcDbEntity
  8
寸法
 48
50.0
100
AcDbDimension
  2
*D17
 10
4744.673057123658
 20
4686.413857513957
 30
0.0
 11
6059.673057123658
 21
4686.413857513957
 31
0.0
 70
   160
  1
柱外寸法<>
 71
     5
 42
2630.0
  3
INABA_S40G
100
AcDbAlignedDimension
 13
7374.673057123658
 23
4473.872272255718
 33
0.0
 14
4744.673057123658
 24
4473.872272255721
 34
0.0
100
AcDbRotatedDimension
  0
DIMENSION
  5
179D3
330
747D
100
AcDbEntity
  8
寸法
 48
50.0
100
AcDbDimension
  2
*D18
 10
7374.673057123658
 20
4686.413857513957
 30
0.0
 11
7738.158338497895
 21
4686.413857513957
 31
0.0
 70
   160
 71
     5
 42
50.0
  3
INABA_S40G
100
AcDbAlignedDimension
 13
7424.673057123658
 23
4473.872272255717
 33
0.0
 14
7374.673057123658
 24
4473.872272255718
 34
0.0
100
AcDbRotatedDimension
  0
TEXT
  5
179D4
330
747D
100
AcDbEntity
  8
部品1
100
AcDbText
 10
10543.18120724053
 20
1155.978743037191
 30
0.0
 40
135.0
  1
側面図
  7
STYLE2
100
AcDbText
  0
LWPOLYLINE
  5
179D5
330
747D
100
AcDbEntity
  8
部品1
100
AcDbPolyline
 90
        4
 70
     1
 43
0.0
 10
10453.73510581692
 20
1348.872272255714
 10
10453.73510581692
 20
1108.979950710181
 10
11217.20577204536
 20
1108.979950710181
 10
11217.20577204536
 20
1348.872272255714
  0
LWPOLYLINE
  5
179D6
330
747D
100
AcDbEntity
  8
部品1
100
AcDbPolyline
 90
        4
 70
     1
 43
0.0
 10
5677.937724009425
 20
1348.872272255714
 10
5677.937724009425
 20
1108.979950710181
 10
6441.408390237865
 20
1108.979950710181
 10
6441.408390237865
 20
1348.872272255714
  0
TEXT
  5
179D7
330
747D
100
AcDbEntity
  8
部品1
100
AcDbText
 10
5768.46312774738
 20
1155.978743037191
 30
0.0
 40
135.0
  1
正面図
  7
STYLE2
100
AcDbText
  0
TEXT
  5
179D8
330
747D
100
AcDbEntity
  8
部品1
100
AcDbText
 10
5767.857333838481
 20
5798.149133041406
 30
0.0
 40
135.0
  1
平面図
  7
STYLE2
100
AcDbText
  0
LWPOLYLINE
  5
179D9
330
747D
100
AcDbEntity
  8
部品1
100
AcDbPolyline
 90
        4
 70
     1
 43
0.0
 10
5677.937724009444
 20
5991.042662259929
 10
5677.937724009444
 20
5751.150340714398
 10
6441.408390237882
 20
5751.150340714398
 10
6441.408390237882
 20
5991.042662259929
  0
LINE
  5
179DA
330
747D
100
AcDbEntity
  8
部品1
100
AcDbLine
 10
11885.47043893113
 20
4238.872272255714
 30
0.0
 11
11885.47043893113
 21
2148.872272255716
 31
0.0
  0
LINE
  5
179DB
330
747D
100
AcDbEntity
  8
細線
 48
50.0
100
AcDbLine
 10
11807.97043893115
 20
4238.872272255712
 30
0.0
 11
11807.97043893115
 21
2148.872272255715
 31
0.0
  0
LINE
  5
179DC
330
747D
100
AcDbEntity
  8
細線
 48
50.0
100
AcDbLine
 10
11822.97043893114
 20
4238.872272255712
 30
0.0
 11
11822.97043893114
 21
2148.872272255715
 31
0.0
  0
LINE
  5
179DD
330
747D
100
AcDbEntity
  8
細線
 48
50.0
100
AcDbLine
 10
11682.97043893114
 20
4238.872272255712
 30
0.0
 11
11682.97043893114
 21
2148.872272255715
 31
0.0
  0
LINE
  5
179DE
330
747D
100
AcDbEntity
  8
細線
 48
50.0
100
AcDbLine
 10
11667.97043893115
 20
4238.872272255712
 30
0.0
 11
11667.97043893115
 21
2148.872272255715
 31
0.0
  0
LINE
  5
179DF
330
747D
100
AcDbEntity
  8
細線
 48
50.0
100
AcDbLine
 10
11527.97043893114
 20
4238.872272255712
 30
0.0
 11
11527.97043893114
 21
2148.872272255715
 31
0.0
  0
LINE
  5
179E0
330
747D
100
AcDbEntity
  8
細線
 48
50.0
100
AcDbLine
 10
11542.97043893114
 20
4238.872272255712
 30
0.0
 11
11542.97043893114
 21
2148.872272255715
 31
0.0
  0
LINE
  5
179E1
330
747D
100
AcDbEntity
  8
部品1
100
AcDbLine
 10
11465.47043893114
 20
4238.872272255712
 30
0.0
 11
11465.47043893114
 21
2148.872272255715
 31
0.0
  0
DIMENSION
  5
179E2
330
747D
100
AcDbEntity
  8
寸法
 48
50.0
100
AcDbDimension
  2
*D19
 10
8689.862032162769
 20
4348.217531129043
 30
0.0
 11
8700.527507421695
 21
4719.064194370743
 31
0.0
 70
   161
 71
     5
 42
140.9999999999991
  3
INABA_S40G
100
AcDbAlignedDimension
 13
9269.866459089726
 23
4472.595021090392
 33
0.0
 14
9265.8130035331
 24
4331.653297324679
 34
0.0
1001
ACAD
1000
DSTYLE
1002
{
1070
   174
1070
     0
1070
   272
1070
     1
1070
   288
1070
     0
1070
   341
1005
0
1002
}
  0
LINE
  5
179E3
330
747D
100
AcDbEntity
  8
細線
 48
50.0
100
AcDbLine
 10
12227.97043893114
 20
4238.872272255714
 30
0.0
 11
12227.97043893114
 21
2148.872272255715
 31
0.0
  0
LINE
  5
179E4
330
747D
100
AcDbEntity
  8
細線
 48
50.0
100
AcDbLine
 10
12242.97043893114
 20
4238.872272255714
 30
0.0
 11
12242.97043893114
 21
2148.872272255715
 31
0.0
  0
LINE
  5
179E5
330
747D
100
AcDbEntity
  8
細線
 48
50.0
100
AcDbLine
 10
12102.97043893114
 20
4238.872272255714
 30
0.0
 11
12102.97043893114
 21
2148.872272255715
 31
0.0
  0
LINE
  5
179E6
330
747D
100
AcDbEntity
  8
細線
 48
50.0
100
AcDbLine
 10
12087.97043893114
 20
4238.872272255714
 30
0.0
 11
12087.97043893114
 21
2148.872272255715
 31
0.0
  0
LINE
  5
179E7
330
747D
100
AcDbEntity
  8
細線
 48
50.0
100
AcDbLine
 10
11947.97043893115
 20
4238.872272255714
 30
0.0
 11
11947.97043893115
 21
2148.872272255715
 31
0.0
  0
LINE
  5
179E8
330
747D
100
AcDbEntity
  8
細線
 48
50.0
100
AcDbLine
 10
11962.97043893114
 20
4238.872272255714
 30
0.0
 11
11962.97043893114
 21
2148.872272255715
 31
0.0
  0
LINE
  5
179E9
330
747D
100
AcDbEntity
  8
部品1
100
AcDbLine
 10
10625.47043893114
 20
4238.872272255712
 30
0.0
 11
10625.47043893114
 21
2148.872272255713
 31
0.0
  0
LINE
  5
179EA
330
747D
100
AcDbEntity
  8
細線
 48
50.0
100
AcDbLine
 10
10282.97043893114
 20
4238.872272255712
 30
0.0
 11
10282.97043893115
 21
2148.872272255713
 31
0.0
  0
LINE
  5
179EB
330
747D
100
AcDbEntity
  8
細線
 48
50.0
100
AcDbLine
 10
10267.97043893114
 20
4238.872272255712
 30
0.0
 11
10267.97043893115
 21
2148.872272255713
 31
0.0
  0
LINE
  5
179EC
330
747D
100
AcDbEntity
  8
細線
 48
50.0
100
AcDbLine
 10
10407.97043893114
 20
4238.872272255712
 30
0.0
 11
10407.97043893115
 21
2148.872272255713
 31
0.0
  0
LINE
  5
179ED
330
747D
100
AcDbEntity
  8
細線
 48
50.0
100
AcDbLine
 10
10422.97043893114
 20
4238.872272255712
 30
0.0
 11
10422.97043893115
 21
2148.872272255713
 31
0.0
  0
LINE
  5
179EE
330
747D
100
AcDbEntity
  8
細線
 48
50.0
100
AcDbLine
 10
10562.97043893114
 20
4238.872272255712
 30
0.0
 11
10562.97043893115
 21
2148.872272255713
 31
0.0
  0
LINE
  5
179EF
330
747D
100
AcDbEntity
  8
細線
 48
50.0
100
AcDbLine
 10
10547.97043893114
 20
4238.872272255712
 30
0.0
 11
10547.97043893115
 21
2148.872272255713
 31
0.0
  0
LINE
  5
179F0
330
747D
100
AcDbEntity
  8
部品1
100
AcDbLine
 10
10205.47043893115
 20
4238.872272255712
 30
0.0
 11
10205.47043893115
 21
2148.872272255713
 31
0.0
  0
DIMENSION
  5
179F1
330
747D
100
AcDbEntity
  8
寸法
 48
50.0
100
AcDbDimension
  2
*D20
 10
12440.47043893114
 20
4872.529725835018
 30
0.0
 11
12646.51768302563
 21
4872.529725835018
 31
0.0
 70
   160
 71
     5
 42
80.0
  3
INABA_S40G
100
AcDbAlignedDimension
 13
12360.47043893114
 23
4420.682951867368
 33
0.0
 14
12440.47043893114
 24
4418.872272255716
 34
0.0
100
AcDbRotatedDimension
1001
ACAD
1000
DSTYLE
1002
{
1070
   174
1070
     0
1070
   272
1070
     1
1070
   288
1070
     0
1070
   341
1005
0
1002
}
  0
LINE
  5
179F2
330
747D
100
AcDbEntity
  8
細線
 48
50.0
100
AcDbLine
 10
9442.970438931146
 20
4238.872272255712
 30
0.0
 11
9442.970438931146
 21
2148.872272255713
 31
0.0
  0
LINE
  5
179F3
330
747D
100
AcDbEntity
  8
細線
 48
50.0
100
AcDbLine
 10
9427.970438931145
 20
4238.872272255712
 30
0.0
 11
9427.970438931145
 21
2148.872272255713
 31
0.0
  0
LINE
  5
179F4
330
747D
100
AcDbEntity
  8
細線
 48
50.0
100
AcDbLine
 10
9567.970438931146
 20
4238.872272255712
 30
0.0
 11
9567.970438931146
 21
2148.872272255713
 31
0.0
  0
LINE
  5
179F5
330
747D
100
AcDbEntity
  8
細線
 48
50.0
100
AcDbLine
 10
9582.970438931146
 20
4238.872272255712
 30
0.0
 11
9582.970438931146
 21
2148.872272255713
 31
0.0
  0
LINE
  5
179F6
330
747D
100
AcDbEntity
  8
細線
 48
50.0
100
AcDbLine
 10
9722.970438931147
 20
4238.872272255712
 30
0.0
 11
9722.970438931147
 21
2148.872272255713
 31
0.0
  0
LINE
  5
179F7
330
747D
100
AcDbEntity
  8
細線
 48
50.0
100
AcDbLine
 10
9707.970438931148
 20
4238.872272255712
 30
0.0
 11
9707.970438931148
 21
2148.872272255713
 31
0.0
  0
LINE
  5
179F8
330
747D
100
AcDbEntity
  8
細線
 48
50.0
100
AcDbLine
 10
10127.97043893114
 20
4238.872272255712
 30
0.0
 11
10127.97043893114
 21
2148.872272255713
 31
0.0
  0
LINE
  5
179F9
330
747D
100
AcDbEntity
  8
細線
 48
50.0
100
AcDbLine
 10
10142.97043893114
 20
4238.872272255712
 30
0.0
 11
10142.97043893114
 21
2148.872272255713
 31
0.0
  0
LINE
  5
179FA
330
747D
100
AcDbEntity
  8
細線
 48
50.0
100
AcDbLine
 10
10002.97043893114
 20
4238.872272255712
 30
0.0
 11
10002.97043893114
 21
2148.872272255713
 31
0.0
  0
LINE
  5
179FB
330
747D
100
AcDbEntity
  8
細線
 48
50.0
100
AcDbLine
 10
9987.970438931148
 20
4238.872272255712
 30
0.0
 11
9987.970438931148
 21
2148.872272255713
 31
0.0
  0
LINE
  5
179FC
330
747D
100
AcDbEntity
  8
細線
 48
50.0
100
AcDbLine
 10
9847.970438931147
 20
4238.872272255712
 30
0.0
 11
9847.970438931147
 21
2148.872272255713
 31
0.0
  0
LINE
  5
179FD
330
747D
100
AcDbEntity
  8
細線
 48
50.0
100
AcDbLine
 10
9862.970438931148
 20
4238.872272255712
 30
0.0
 11
9862.970438931148
 21
2148.872272255713
 31
0.0
  0
DIMENSION
  5
179FE
330
747D
100
AcDbEntity
  8
寸法
 48
50.0
100
AcDbDimension
  2
*D21
 10
9250.470438931147
 20
5102.643318621295
 30
0.0
 11
10845.47043893114
 21
5102.643318621295
 31
0.0
 70
   160
 71
     5
 42
3190.0
  3
INABA_S40G
100
AcDbAlignedDimension
 13
12440.47043893114
 23
4418.872272255714
 33
0.0
 14
9250.470438931147
 24
4473.872272255717
 34
0.0
100
AcDbRotatedDimension
1001
ACAD
1000
DSTYLE
1002
{
1070
   174
1070
     0
1070
   272
1070
     1
1070
   288
1070
     0
1070
   341
1005
0
1002
}
  0
DIMENSION
  5
179FF
330
747D
100
AcDbEntity
  8
寸法
 48
50.0
100
AcDbDimension
  2
*D22
 10
9250.470438931147
 20
4872.529725835017
 30
0.0
 11
8940.832643655557
 21
4872.529725835017
 31
0.0
 70
   160
 71
     5
 42
60.0
  3
INABA_S40G
100
AcDbAlignedDimension
 13
9310.470438931146
 23
4469.873890378688
 33
0.0
 14
9250.470438931147
 24
4473.872272255717
 34
0.0
100
AcDbRotatedDimension
1001
ACAD
1000
DSTYLE
1002
{
1070
   174
1070
     0
1070
   272
1070
     1
1070
   288
1070
     0
1070
   341
1005
0
1002
}
  0
DIMENSION
  5
17A00
330
747D
100
AcDbEntity
  8
寸法
 48
50.0
100
AcDbDimension
  2
*D23
 10
9310.470438931146
 20
4872.529725835018
 30
0.0
 11
10835.47043893114
 21
4872.529725835018
 31
0.0
 70
   160
  1
柱外寸法<>
 71
     5
 42
3050.0
  3
INABA_S40G
100
AcDbAlignedDimension
 13
12360.47043893114
 23
4420.682951867368
 33
0.0
 14
9310.470438931146
 24
4469.873890378688
 34
0.0
100
AcDbRotatedDimension
1001
ACAD
1000
DSTYLE
1002
{
1070
   174
1070
     0
1070
   272
1070
     1
1070
   288
1070
     0
1070
   341
1005
0
1002
}
  0
LINE
  5
17A01
330
747D
100
AcDbEntity
  8
部品1
100
AcDbLine
 10
9785.470438931147
 20
4238.872272255712
 30
0.0
 11
9785.470438931147
 21
2148.872272255713
 31
0.0
  0
LINE
  5
17A02
330
747D
100
AcDbEntity
  8
細線
 48
50.0
100
AcDbLine
 10
10967.97043893114
 20
4238.872272255712
 30
0.0
 11
10967.97043893114
 21
2148.872272255713
 31
0.0
  0
LINE
  5
17A03
330
747D
100
AcDbEntity
  8
細線
 48
50.0
100
AcDbLine
 10
10982.97043893114
 20
4238.872272255712
 30
0.0
 11
10982.97043893114
 21
2148.872272255713
 31
0.0
  0
LINE
  5
17A04
330
747D
100
AcDbEntity
  8
細線
 48
50.0
100
AcDbLine
 10
10842.97043893114
 20
4238.872272255712
 30
0.0
 11
10842.97043893114
 21
2148.872272255713
 31
0.0
  0
LINE
  5
17A05
330
747D
100
AcDbEntity
  8
細線
 48
50.0
100
AcDbLine
 10
10827.97043893114
 20
4238.872272255712
 30
0.0
 11
10827.97043893114
 21
2148.872272255713
 31
0.0
  0
LINE
  5
17A06
330
747D
100
AcDbEntity
  8
細線
 48
50.0
100
AcDbLine
 10
10687.97043893114
 20
4238.872272255712
 30
0.0
 11
10687.97043893114
 21
2148.872272255713
 31
0.0
  0
LINE
  5
17A07
330
747D
100
AcDbEntity
  8
細線
 48
50.0
100
AcDbLine
 10
10702.97043893114
 20
4238.872272255712
 30
0.0
 11
10702.97043893114
 21
2148.872272255713
 31
0.0
  0
TEXT
  5
17A08
330
747D
100
AcDbEntity
  8
部品1
 48
50.0
100
AcDbText
 10
11180.33958298651
 20
4496.14136519402
 30
0.0
 40
120.0
  1
32
 50
90.0
  7
STYLE1
100
AcDbText
  0
TEXT
  5
17A09
330
747D
100
AcDbEntity
  8
部品1
 48
50.0
100
AcDbText
 10
10702.70656032142
 20
4633.642623412303
 30
0.0
 40
120.0
  1
1000
  7
STYLE1
100
AcDbText
  0
LINE
  5
17A0A
330
747D
100
AcDbEntity
  8
部品1
 48
50.0
100
AcDbLine
 10
11014.43872509769
 20
4597.758601259869
 30
0.0
 11
11014.43872509769
 21
4581.55860125987
 31
0.0
  0
LINE
  5
17A0B
330
747D
100
AcDbEntity
  8
部品1
 48
50.0
100
AcDbLine
 10
10714.43872509769
 20
4597.758601259869
 30
0.0
 11
11014.43872509769
 21
4597.758601259869
 31
0.0
  0
LINE
  5
17A0C
330
747D
100
AcDbEntity
  8
部品1
100
AcDbLine
 10
9258.01542528811
 20
4472.590007589979
 30
0.0
 11
12433.08231579261
 21
4417.513069964853
 31
0.0
  0
LINE
  5
17A0D
330
747D
100
AcDbEntity
  8
部品1
100
AcDbLine
 10
9265.8130035331
 20
4331.653297324679
 30
0.0
 11
12415.134139471
 21
4292.624872090475
 31
0.0
  0
LINE
  5
17A0E
330
747D
100
AcDbEntity
  8
細線
 48
50.0
100
AcDbLine
 10
9283.470438931146
 20
4471.271948631118
 30
0.0
 11
9278.18133737564
 21
4331.186316003763
 31
0.0
  0
LINE
  5
17A0F
330
747D
100
AcDbEntity
  8
細線
 48
50.0
100
AcDbLine
 10
12407.43972212484
 20
4418.025694735183
 30
0.0
 11
12402.72275604315
 21
4293.093478800265
 31
0.0
  0
LINE
  5
17A10
330
747D
100
AcDbEntity
  8
部品1
 48
50.0
100
AcDbLine
 10
9250.654724844252
 20
4465.465818420405
 30
0.0
 11
9251.034984622064
 21
4445.538853973994
 31
0.0
  0
LINE
  5
17A11
330
747D
100
AcDbEntity
  8
部品1
 48
50.0
100
AcDbLine
 10
9254.10375672831
 20
4441.963572480521
 30
0.0
 11
9255.807658219676
 21
4352.673075773875
 31
0.0
  0
LINE
  5
17A12
330
747D
100
AcDbEntity
  8
細線
 48
50.0
100
AcDbLine
 10
9251.50986203196
 20
4444.889354097075
 30
0.0
 11
12437.14584677713
 21
4389.265149456247
 31
0.0
  0
LINE
  5
17A13
330
747D
100
AcDbEntity
  8
細線
 48
50.0
100
AcDbLine
 10
9256.270337269247
 20
4352.027842399212
 30
0.0
 11
12426.27400169989
 21
4312.218523424717
 31
0.0
  0
LINE
  5
17A14
330
747D
100
AcDbEntity
  8
部品1
 48
50.0
100
AcDbLine
 10
9258.876430325917
 20
4349.097794280402
 30
0.0
 11
9259.078382946348
 21
4338.514758887309
 31
0.0
  0
ARC
  5
17A15
330
747D
100
AcDbEntity
  8
部品1
 48
50.0
100
AcDbCircle
 10
9257.653450672593
 20
4465.599372827834
 30
0.0
 40
7.0
100
AcDbArc
 50
87.03587545283093
 51
181.0932240293156
  0
ARC
  5
17A16
330
747D
100
AcDbEntity
  8
部品1
 48
50.0
100
AcDbCircle
 10
9266.077108774689
 20
4338.648313294737
 30
0.0
 40
7.0
100
AcDbArc
 50
181.0932240293156
 51
267.8377559869489
  0
ARC
  5
17A17
330
747D
100
AcDbEntity
  8
部品1
100
AcDbCircle
 10
9255.876976399488
 20
4349.040556677219
 30
0.0
 40
3.0
100
AcDbArc
 50
1.093224029315636
 51
80.18775403169765
  0
ARC
  5
17A18
330
747D
100
AcDbEntity
  8
部品1
100
AcDbCircle
 10
9251.104302801882
 20
4441.906334877337
 30
0.0
 40
3.0
100
AcDbArc
 50
1.093224029315636
 51
80.18775403169765
  0
ARC
  5
17A19
330
747D
100
AcDbEntity
  8
部品1
100
AcDbCircle
 10
9251.734857204903
 20
4445.552209414736
 30
0.0
 40
0.7
100
AcDbArc
 50
181.0932240292114
 51
260.1877540314855
  0
ARC
  5
17A1A
330
747D
100
AcDbEntity
  8
部品1
100
AcDbCircle
 10
9256.507530802513
 20
4352.686431214617
 30
0.0
 40
0.7
100
AcDbArc
 50
181.0932240292635
 51
260.1877540314855
  0
LINE
  5
17A1B
330
747D
100
AcDbEntity
  8
部品1
 48
50.0
100
AcDbLine
 10
12439.68434174185
 20
4409.813424529931
 30
0.0
 11
12437.65372055088
 21
4389.868383272152
 31
0.0
  0
LINE
  5
17A1C
330
747D
100
AcDbEntity
  8
部品1
 48
50.0
100
AcDbLine
 10
12434.30115406639
 20
4386.557749199242
 30
0.0
 11
12426.79437480156
 21
4312.825128454231
 31
0.0
  0
LINE
  5
17A1D
330
747D
100
AcDbEntity
  8
部品1
 48
50.0
100
AcDbLine
 10
12423.44180831707
 20
4309.514494381319
 30
0.0
 11
12422.36224527733
 21
4298.91087738776
 31
0.0
  0
ARC
  5
17A1E
330
747D
100
AcDbEntity
  8
部品1
 48
50.0
100
AcDbCircle
 10
12432.7203411771
 20
4410.522435202707
 30
0.0
 40
7.0
100
AcDbArc
 50
354.1866997665596
 51
87.03587545283093
  0
ARC
  5
17A1F
330
747D
100
AcDbEntity
  8
部品1
 48
50.0
100
AcDbCircle
 10
12415.39824471258
 20
4299.619888060533
 30
0.0
 40
7.0
100
AcDbArc
 50
267.8377559869489
 51
354.1866997665596
  0
ARC
  5
17A20
330
747D
100
AcDbEntity
  8
部品1
100
AcDbCircle
 10
12426.42637998769
 20
4309.210632664416
 30
0.0
 40
3.0
100
AcDbArc
 50
95.0921697642102
 51
174.1866997665596
  0
ARC
  5
17A21
330
747D
100
AcDbEntity
  8
部品1
100
AcDbCircle
 10
12437.28572573701
 20
4386.25388748234
 30
0.0
 40
3.0
100
AcDbArc
 50
95.0921697642102
 51
174.1866997665596
  0
ARC
  5
17A22
330
747D
100
AcDbEntity
  8
部品1
100
AcDbCircle
 10
12436.95732049441
 20
4389.939284339429
 30
0.0
 40
0.7
100
AcDbArc
 50
275.0921697642102
 51
354.1866997665596
  0
ARC
  5
17A23
330
747D
100
AcDbEntity
  8
部品1
100
AcDbCircle
 10
12426.09797474508
 20
4312.896029521506
 30
0.0
 40
0.7
100
AcDbArc
 50
275.0921697642102
 51
354.1866997667087
  0
LINE
  5
17A24
330
747D
100
AcDbEntity
  8
部品1
100
AcDbLine
 10
10688.98371145466
 20
4599.07666021873
 30
0.0
 11
11014.43872509769
 21
4581.55860125987
 31
0.0
  0
LINE
  5
17A25
330
747D
100
AcDbEntity
  8
部品1
100
AcDbLine
 10
11045.47043893114
 20
4238.872272255712
 30
0.0
 11
11045.47043893114
 21
2148.872272255715
 31
0.0
  0
LINE
  5
17A26
330
747D
100
AcDbEntity
  8
細線
 48
50.0
100
AcDbLine
 10
11122.97043893115
 20
4238.872272255712
 30
0.0
 11
11122.97043893115
 21
2148.872272255715
 31
0.0
  0
LINE
  5
17A27
330
747D
100
AcDbEntity
  8
細線
 48
50.0
100
AcDbLine
 10
11107.97043893114
 20
4238.872272255712
 30
0.0
 11
11107.97043893114
 21
2148.872272255715
 31
0.0
  0
LINE
  5
17A28
330
747D
100
AcDbEntity
  8
細線
 48
50.0
100
AcDbLine
 10
11247.97043893114
 20
4238.872272255712
 30
0.0
 11
11247.97043893114
 21
2148.872272255715
 31
0.0
  0
LINE
  5
17A29
330
747D
100
AcDbEntity
  8
細線
 48
50.0
100
AcDbLine
 10
11262.97043893115
 20
4238.872272255712
 30
0.0
 11
11262.97043893115
 21
2148.872272255715
 31
0.0
  0
LINE
  5
17A2A
330
747D
100
AcDbEntity
  8
細線
 48
50.0
100
AcDbLine
 10
11402.97043893114
 20
4238.872272255712
 30
0.0
 11
11402.97043893114
 21
2148.872272255715
 31
0.0
  0
LINE
  5
17A2B
330
747D
100
AcDbEntity
  8
細線
 48
50.0
100
AcDbLine
 10
11387.97043893114
 20
4238.872272255712
 30
0.0
 11
11387.97043893114
 21
2148.872272255715
 31
0.0
  0
DIMENSION
  5
17A2C
330
747D
100
AcDbEntity
  8
寸法
100
AcDbDimension
  2
*D24
 10
8166.720309747878
 20
4473.872272255717
 30
0.0
 11
8066.708498724254
 21
3286.372272255717
 31
0.0
 70
    32
 71
     5
 42
2375.000000000003
  3
INABA_S40G
100
AcDbAlignedDimension
 13
9310.470438931139
 23
2098.872272255714
 33
0.0
 14
9250.470438931136
 24
4473.872272255717
 34
0.0
 50
90.0
100
AcDbRotatedDimension
1001
ACAD
1000
DSTYLE
1002
{
1070
   174
1070
     0
1070
   272
1070
     1
1070
   288
1070
     0
1070
   341
1005
0
1002
}
  0
LINE
  5
17A96
330
747D
100
AcDbEntity
  8
部品1
100
AcDbLine
 10
6374.673057123647
 20
2098.872272255714
 30
0.0
 11
6374.673057123646
 21
1998.872272255714
 31
0.0
  0
LINE
  5
17A97
330
747D
100
AcDbEntity
  8
部品1
100
AcDbLine
 10
6574.673057123648
 20
2098.872272255714
 30
0.0
 11
6574.673057123646
 21
1998.872272255714
 31
0.0
  0
LINE
  5
17A98
330
747D
100
AcDbEntity
  8
部品1
100
AcDbLine
 10
6974.673057123658
 20
2098.872272255714
 30
0.0
 11
6974.673057123657
 21
1998.872272255714
 31
0.0
  0
LINE
  5
17A99
330
747D
100
AcDbEntity
  8
部品1
100
AcDbLine
 10
7174.673057123658
 20
2098.872272255714
 30
0.0
 11
7174.673057123657
 21
1998.872272255714
 31
0.0
  0
LINE
  5
17A9A
330
747D
100
AcDbEntity
  8
部品1
100
AcDbLine
 10
5544.673057123666
 20
2098.872272255714
 30
0.0
 11
5544.673057123667
 21
1998.872272255714
 31
0.0
  0
LINE
  5
17A9B
330
747D
100
AcDbEntity
  8
部品1
100
AcDbLine
 10
5744.673057123666
 20
2098.872272255714
 30
0.0
 11
5744.673057123668
 21
1998.872272255714
 31
0.0
  0
LINE
  5
17A9C
330
747D
100
AcDbEntity
  8
部品1
100
AcDbLine
 10
4944.673057123655
 20
2098.872272255714
 30
0.0
 11
4944.673057123657
 21
1998.872272255714
 31
0.0
  0
LINE
  5
17A9D
330
747D
100
AcDbEntity
  8
部品1
100
AcDbLine
 10
5144.673057123655
 20
2098.872272255714
 30
0.0
 11
5144.673057123657
 21
1998.872272255714
 31
0.0
  0
LINE
  5
17A9E
330
747D
100
AcDbEntity
  8
部品1
100
AcDbLine
 10
4799.673057123657
 20
2148.872272255714
 30
0.0
 11
7319.673057123657
 21
2148.872272255714
 31
0.0
  0
LINE
  5
17A9F
330
747D
100
AcDbEntity
  8
部品1
 48
50.0
100
AcDbLine
 10
11497.97043893114
 20
2098.872272255714
 30
0.0
 11
11497.97043893114
 21
1998.872272255714
 31
0.0
  0
LINE
  5
17AA0
330
747D
100
AcDbEntity
  8
部品1
 48
50.0
100
AcDbLine
 10
11697.97043893114
 20
2098.872272255714
 30
0.0
 11
11697.97043893114
 21
1998.872272255714
 31
0.0
  0
LINE
  5
17AA1
330
747D
100
AcDbEntity
  8
部品1
 48
50.0
100
AcDbLine
 10
10935.47043893114
 20
2098.872272255714
 30
0.0
 11
10935.47043893114
 21
1998.872272255714
 31
0.0
  0
LINE
  5
17AA2
330
747D
100
AcDbEntity
  8
部品1
 48
50.0
100
AcDbLine
 10
10735.47043893114
 20
2098.872272255714
 30
0.0
 11
10735.47043893114
 21
1998.872272255714
 31
0.0
  0
LINE
  5
17AA3
330
747D
100
AcDbEntity
  8
部品1
 48
50.0
100
AcDbLine
 10
10172.97043893114
 20
2098.872272255714
 30
0.0
 11
10172.97043893114
 21
1998.872272255714
 31
0.0
  0
LINE
  5
17AA4
330
747D
100
AcDbEntity
  8
部品1
 48
50.0
100
AcDbLine
 10
9972.97043893114
 20
2098.872272255714
 30
0.0
 11
9972.97043893114
 21
1998.872272255714
 31
0.0
  0
LINE
  5
17AA5
330
747D
100
AcDbEntity
  8
部品1
100
AcDbLine
 10
9765.470438931139
 20
2098.872272255714
 30
0.0
 11
9765.470438931139
 21
1998.872272255714
 31
0.0
  0
LINE
  5
17AA6
330
747D
100
AcDbEntity
  8
部品1
100
AcDbLine
 10
12160.47043893114
 20
2098.872272255714
 30
0.0
 11
12160.47043893114
 21
1998.872272255714
 31
0.0
  0
ARC
  5
17AB0
330
747D
100
AcDbEntity
  8
細線
 48
50.0
100
AcDbCircle
 10
5759.673057123655
 20
2711.372272255714
 30
0.0
 40
15.0
100
AcDbArc
 50
90.0
 51
270.0
  0
ARC
  5
17AB1
330
747D
100
AcDbEntity
  8
細線
 48
50.0
100
AcDbCircle
 10
5859.673057123655
 20
2711.372272255714
 30
0.0
 40
15.0
100
AcDbArc
 50
270.0
 51
90.0
  0
LINE
  5
17AB2
330
747D
100
AcDbEntity
  8
細線
 48
50.0
100
AcDbLine
 10
5759.673057123655
 20
2726.372272255714
 30
0.0
 11
5859.673057123655
 21
2726.372272255714
 31
0.0
  0
LINE
  5
17AB3
330
747D
100
AcDbEntity
  8
細線
 48
50.0
100
AcDbLine
 10
5859.673057123655
 20
2696.372272255714
 30
0.0
 11
5759.673057123655
 21
2696.372272255714
 31
0.0
  0
LINE
  5
17AB4
330
747D
100
AcDbEntity
  8
細線
 48
50.0
100
AcDbLine
 10
6359.673057123655
 20
2696.372272255714
 30
0.0
 11
6259.673057123655
 21
2696.372272255714
 31
0.0
  0
LINE
  5
17AB5
330
747D
100
AcDbEntity
  8
細線
 48
50.0
100
AcDbLine
 10
6259.673057123655
 20
2726.372272255714
 30
0.0
 11
6359.673057123655
 21
2726.372272255714
 31
0.0
  0
ARC
  5
17AB6
330
747D
100
AcDbEntity
  8
細線
 48
50.0
100
AcDbCircle
 10
6259.673057123655
 20
2711.372272255714
 30
0.0
 40
15.0
100
AcDbArc
 50
90.0
 51
270.0
  0
ARC
  5
17AB7
330
747D
100
AcDbEntity
  8
細線
 48
50.0
100
AcDbCircle
 10
6359.673057123655
 20
2711.372272255714
 30
0.0
 40
15.0
100
AcDbArc
 50
270.0
 51
90.0
  0
CIRCLE
  5
17AB8
330
747D
100
AcDbEntity
  8
細線
 48
50.0
100
AcDbCircle
 10
6059.673057123655
 20
3036.372272255714
 30
0.0
 40
18.0
  0
LINE
  5
17AD1
330
747D
100
AcDbEntity
  8
細線
100
AcDbLine
 10
4847.673057123653
 20
2678.872272255714
 30
0.0
 11
7271.673057123655
 21
2678.872272255714
 31
0.0
  0
LINE
  5
17AD2
330
747D
100
AcDbEntity
  8
細線
100
AcDbLine
 10
4847.673057123653
 20
2613.872272255714
 30
0.0
 11
7271.673057123655
 21
2613.872272255714
 31
0.0
  0
LINE
  5
17AD3
330
747D
100
AcDbEntity
  8
細線
100
AcDbLine
 10
4847.673057123653
 20
2548.872272255714
 30
0.0
 11
7271.673057123655
 21
2548.872272255714
 31
0.0
  0
LINE
  5
17AD4
330
747D
100
AcDbEntity
  8
細線
100
AcDbLine
 10
4847.673057123653
 20
2483.872272255714
 30
0.0
 11
7271.673057123655
 21
2483.872272255714
 31
0.0
  0
LINE
  5
17AD5
330
747D
100
AcDbEntity
  8
細線
100
AcDbLine
 10
4847.673057123653
 20
2418.872272255714
 30
0.0
 11
7271.673057123655
 21
2418.872272255714
 31
0.0
  0
LINE
  5
17AD6
330
747D
100
AcDbEntity
  8
細線
100
AcDbLine
 10
4847.673057123653
 20
2353.872272255714
 30
0.0
 11
7271.673057123655
 21
2353.872272255714
 31
0.0
  0
LINE
  5
17AD7
330
747D
100
AcDbEntity
  8
細線
100
AcDbLine
 10
4847.673057123653
 20
2288.872272255714
 30
0.0
 11
7271.673057123655
 21
2288.872272255714
 31
0.0
  0
LINE
  5
17AD8
330
747D
100
AcDbEntity
  8
細線
100
AcDbLine
 10
4847.673057123653
 20
2223.872272255714
 30
0.0
 11
7271.673057123655
 21
2223.872272255714
 31
0.0
  0
LINE
  5
17AD9
330
747D
100
AcDbEntity
  8
細線
100
AcDbLine
 10
4847.673057123653
 20
2158.872272255714
 30
0.0
 11
7271.673057123655
 21
2158.872272255714
 31
0.0
  0
LINE
  5
17ADA
330
747D
100
AcDbEntity
  8
細線
100
AcDbLine
 10
4847.673057123653
 20
3978.872272255714
 30
0.0
 11
7271.673057123655
 21
3978.872272255714
 31
0.0
  0
LINE
  5
17ADB
330
747D
100
AcDbEntity
  8
細線
100
AcDbLine
 10
4847.673057123653
 20
4043.872272255714
 30
0.0
 11
7271.673057123655
 21
4043.872272255714
 31
0.0
  0
LINE
  5
17ADC
330
747D
100
AcDbEntity
  8
細線
100
AcDbLine
 10
4847.673057123653
 20
3328.872272255714
 30
0.0
 11
7271.673057123655
 21
3328.872272255714
 31
0.0
  0
LINE
  5
17ADD
330
747D
100
AcDbEntity
  8
細線
100
AcDbLine
 10
4847.673057123653
 20
3263.872272255714
 30
0.0
 11
7271.673057123655
 21
3263.872272255714
 31
0.0
  0
LINE
  5
17ADE
330
747D
100
AcDbEntity
  8
細線
100
AcDbLine
 10
4847.673057123653
 20
3198.872272255715
 30
0.0
 11
7271.673057123655
 21
3198.872272255715
 31
0.0
  0
LINE
  5
17ADF
330
747D
100
AcDbEntity
  8
細線
100
AcDbLine
 10
4847.673057123653
 20
3133.872272255714
 30
0.0
 11
7271.673057123655
 21
3133.872272255714
 31
0.0
  0
LINE
  5
17AE0
330
747D
100
AcDbEntity
  8
細線
100
AcDbLine
 10
4847.673057123653
 20
3068.872272255714
 30
0.0
 11
7271.673057123655
 21
3068.872272255714
 31
0.0
  0
LINE
  5
17AE1
330
747D
100
AcDbEntity
  8
細線
100
AcDbLine
 10
4847.673057123653
 20
3003.872272255714
 30
0.0
 11
7271.673057123655
 21
3003.872272255714
 31
0.0
  0
LINE
  5
17AE2
330
747D
100
AcDbEntity
  8
細線
100
AcDbLine
 10
4847.673057123653
 20
2938.872272255714
 30
0.0
 11
7271.673057123655
 21
2938.872272255714
 31
0.0
  0
LINE
  5
17AE3
330
747D
100
AcDbEntity
  8
細線
100
AcDbLine
 10
4847.673057123653
 20
2873.872272255714
 30
0.0
 11
7271.673057123655
 21
2873.872272255714
 31
0.0
  0
LINE
  5
17AE4
330
747D
100
AcDbEntity
  8
細線
100
AcDbLine
 10
4847.673057123653
 20
2808.872272255714
 30
0.0
 11
7271.673057123655
 21
2808.872272255714
 31
0.0
  0
LINE
  5
17AE5
330
747D
100
AcDbEntity
  8
細線
100
AcDbLine
 10
4847.673057123653
 20
2743.872272255714
 30
0.0
 11
7271.673057123655
 21
2743.872272255714
 31
0.0
  0
LINE
  5
17AE6
330
747D
100
AcDbEntity
  8
細線
100
AcDbLine
 10
4847.673057123653
 20
3718.872272255714
 30
0.0
 11
7271.673057123655
 21
3718.872272255714
 31
0.0
  0
LINE
  5
17AE7
330
747D
100
AcDbEntity
  8
細線
100
AcDbLine
 10
4847.673057123653
 20
3653.872272255714
 30
0.0
 11
7271.673057123655
 21
3653.872272255714
 31
0.0
  0
LINE
  5
17AE8
330
747D
100
AcDbEntity
  8
細線
100
AcDbLine
 10
4847.673057123653
 20
3588.872272255714
 30
0.0
 11
7271.673057123655
 21
3588.872272255714
 31
0.0
  0
LINE
  5
17AE9
330
747D
100
AcDbEntity
  8
細線
100
AcDbLine
 10
4847.673057123653
 20
3523.872272255714
 30
0.0
 11
7271.673057123655
 21
3523.872272255714
 31
0.0
  0
LINE
  5
17AEA
330
747D
100
AcDbEntity
  8
細線
100
AcDbLine
 10
4847.673057123653
 20
3458.872272255714
 30
0.0
 11
7271.673057123655
 21
3458.872272255714
 31
0.0
  0
LINE
  5
17AEB
330
747D
100
AcDbEntity
  8
細線
100
AcDbLine
 10
4847.673057123653
 20
3393.872272255714
 30
0.0
 11
7271.673057123655
 21
3393.872272255714
 31
0.0
  0
LINE
  5
17AEC
330
747D
100
AcDbEntity
  8
細線
100
AcDbLine
 10
4847.673057123653
 20
3913.872272255714
 30
0.0
 11
7271.673057123655
 21
3913.872272255714
 31
0.0
  0
LINE
  5
17AED
330
747D
100
AcDbEntity
  8
細線
100
AcDbLine
 10
4847.673057123653
 20
3848.872272255714
 30
0.0
 11
7271.673057123655
 21
3848.872272255714
 31
0.0
  0
LINE
  5
17AEE
330
747D
100
AcDbEntity
  8
細線
100
AcDbLine
 10
4847.673057123653
 20
3783.872272255714
 30
0.0
 11
7271.673057123655
 21
3783.872272255714
 31
0.0
  0
LINE
  5
17AEF
330
747D
100
AcDbEntity
  8
部品1
100
AcDbLine
 10
4744.673057123656
 20
4073.872272255713
 30
0.0
 11
7374.673057123658
 21
4073.872272255715
 31
0.0
  0
LINE
  5
17AF0
330
747D
100
AcDbEntity
  8
部品1
100
AcDbLine
 10
7271.673057123658
 20
4073.872272255715
 30
0.0
 11
7271.673057123655
 21
2148.872272255713
 31
0.0
  0
LINE
  5
17AF1
330
747D
100
AcDbEntity
  8
部品1
100
AcDbLine
 10
4847.673057123657
 20
4073.872272255714
 30
0.0
 11
4847.673057123657
 21
2148.872272255714
 31
0.0
  0
LINE
  5
17AF2
330
747D
100
AcDbEntity
  8
破線
  6
HIDDEN
 48
5.0
100
AcDbLine
 10
4799.673057123654
 20
1748.872272255721
 30
0.0
 11
4744.673057123654
 21
1748.872272255721
 31
0.0
  0
LINE
  5
17AF3
330
747D
100
AcDbEntity
  8
破線
  6
HIDDEN
 48
5.0
100
AcDbLine
 10
7374.673057123655
 20
1748.872272255714
 30
0.0
 11
7319.673057123657
 21
1748.872272255714
 31
0.0
  0
LINE
  5
17AF4
330
747D
100
AcDbEntity
  8
破線
  6
HIDDEN
 48
5.0
100
AcDbLine
 10
4799.673057123657
 20
1998.872272255714
 30
0.0
 11
4799.673057123654
 21
1748.872272255714
 31
0.0
  0
LINE
  5
17AF5
330
747D
100
AcDbEntity
  8
破線
  6
HIDDEN
 48
5.0
100
AcDbLine
 10
7319.673057123657
 20
1998.872272255714
 30
0.0
 11
7319.673057123657
 21
1748.872272255714
 31
0.0
  0
LINE
  5
17AF7
330
747D
100
AcDbEntity
  8
破線
  6
HIDDEN
 48
5.0
100
AcDbLine
 10
9310.470438931139
 20
1998.872272255714
 30
0.0
 11
9310.470438931139
 21
1748.872272255714
 31
0.0
  0
LINE
  5
17AF8
330
747D
100
AcDbEntity
  8
破線
  6
HIDDEN
 48
5.0
100
AcDbLine
 10
9365.470438931138
 20
1998.872272255714
 30
0.0
 11
9365.470438931138
 21
1748.872272255714
 31
0.0
  0
LINE
  5
17AF9
330
747D
100
AcDbEntity
  8
破線
  6
HIDDEN
 48
5.0
100
AcDbLine
 10
9310.470438931139
 20
1748.872272255714
 30
0.0
 11
9365.470438931138
 21
1748.872272255714
 31
0.0
  0
LINE
  5
17B28
330
747D
100
AcDbEntity
  8
破線
  6
HIDDEN
 48
5.0
100
AcDbLine
 10
4744.673057123656
 20
1998.872272255714
 30
0.0
 11
4744.673057123654
 21
1748.872272255714
 31
0.0
  0
LINE
  5
17B29
330
747D
100
AcDbEntity
  8
破線
  6
HIDDEN
 48
5.0
100
AcDbLine
 10
7374.673057123657
 20
1998.872272255714
 30
0.0
 11
7374.673057123657
 21
1748.872272255714
 31
0.0
  0
LINE
  5
17B2A
330
747D
100
AcDbEntity
  8
部品1
100
AcDbLine
 10
9365.470438931138
 20
2098.872272255714
 30
0.0
 11
12312.97043893113
 21
2098.872272255714
 31
0.0
  0
LINE
  5
17B2B
330
747D
100
AcDbEntity
  8
部品1
100
AcDbLine
 10
12352.97043893114
 20
2098.872272255714
 30
0.0
 11
12360.47043893114
 21
2098.872272255714
 31
0.0
  0
LINE
  5
17B32
330
747D
100
AcDbEntity
  8
破線
  6
HIDDEN
 48
5.0
100
AcDbLine
 10
12352.97043893113
 20
1998.872272255714
 30
0.0
 11
12352.97043893113
 21
1993.872272255714
 31
0.0
  0
LINE
  5
17B33
330
747D
100
AcDbEntity
  8
破線
  6
HIDDEN
 48
5.0
100
AcDbLine
 10
12312.97043893114
 20
1998.872272255714
 30
0.0
 11
12312.97043893114
 21
1993.872272255714
 31
0.0
  0
ARC
  5
17B34
330
747D
100
AcDbEntity
  8
部品1
 48
50.0
100
AcDbCircle
 10
12347.97043893113
 20
2138.872272255714
 30
0.0
 40
5.0
100
AcDbArc
 50
0.0
 51
90.0
  0
ARC
  5
17B35
330
747D
100
AcDbEntity
  8
部品1
 48
50.0
100
AcDbCircle
 10
12317.97043893113
 20
2138.872272255714
 30
0.0
 40
5.0
100
AcDbArc
 50
90.0
 51
180.0
  0
LINE
  5
17B36
330
747D
100
AcDbEntity
  8
部品1
100
AcDbLine
 10
12347.97043893113
 20
2143.872272255714
 30
0.0
 11
12317.97043893113
 21
2143.872272255714
 31
0.0
  0
LINE
  5
17B37
330
747D
100
AcDbEntity
  8
部品1
 48
50.0
100
AcDbLine
 10
12352.97043893114
 20
2138.872272255714
 30
0.0
 11
12352.97043893113
 21
1998.872272255714
 31
0.0
  0
LINE
  5
17B38
330
747D
100
AcDbEntity
  8
部品1
 48
50.0
100
AcDbLine
 10
12312.97043893113
 20
2138.872272255714
 30
0.0
 11
12312.97043893114
 21
1998.872272255714
 31
0.0
  0
LINE
  5
17B3C
330
747D
100
AcDbEntity
  8
破線
  6
HIDDEN
 48
5.0
100
AcDbLine
 10
12367.97043893113
 20
1846.172272255713
 30
0.0
 11
12367.97043893113
 21
1843.872272255714
 31
0.0
  0
LINE
  5
17B3D
330
747D
100
AcDbEntity
  8
破線
  6
HIDDEN
 48
5.0
100
AcDbLine
 10
12352.97043893114
 20
1993.872272255714
 30
0.0
 11
12367.97043893113
 21
1846.172272255713
 31
0.0
  0
LINE
  5
17B3E
330
747D
100
AcDbEntity
  8
破線
  6
HIDDEN
 48
5.0
100
AcDbLine
 10
12297.97043893114
 20
1846.172272255713
 30
0.0
 11
12297.97043893114
 21
1843.872272255714
 31
0.0
  0
LINE
  5
17B3F
330
747D
100
AcDbEntity
  8
破線
  6
HIDDEN
 48
5.0
100
AcDbLine
 10
12312.97043893113
 20
1993.872272255714
 30
0.0
 11
12297.97043893114
 21
1846.172272255713
 31
0.0
  0
LINE
  5
17B40
330
747D
100
AcDbEntity
  8
破線
  6
HIDDEN
 48
5.0
100
AcDbLine
 10
12367.97043893113
 20
1843.872272255714
 30
0.0
 11
12297.97043893114
 21
1843.872272255714
 31
0.0
  0
LINE
  5
17B44
330
747D
100
AcDbEntity
  8
部品1
100
AcDbLine
 10
7374.673057123658
 20
4332.872272255719
 30
0.0
 11
7374.673057123657
 21
1998.872272255714
 31
0.0
  0
LINE
  5
17B45
330
747D
100
AcDbEntity
  8
部品1
100
AcDbLine
 10
4799.673057123657
 20
4073.872272255713
 30
0.0
 11
4799.673057123657
 21
1998.872272255714
 31
0.0
  0
LINE
  5
17B46
330
747D
100
AcDbEntity
  8
部品1
100
AcDbLine
 10
7319.673057123657
 20
4073.872272255715
 30
0.0
 11
7319.673057123655
 21
1998.872272255714
 31
0.0
  0
LINE
  5
17B47
330
747D
100
AcDbEntity
  8
部品1
100
AcDbLine
 10
4744.673057123656
 20
4332.872272255719
 30
0.0
 11
4744.673057123656
 21
1998.872272255714
 31
0.0
  0
LINE
  5
17B48
330
747D
100
AcDbEntity
  8
部品1
100
AcDbLine
 10
4799.673057123657
 20
2098.872272255714
 30
0.0
 11
7319.673057123657
 21
2098.872272255714
 31
0.0
  0
LINE
  5
17B49
330
747D
100
AcDbEntity
  8
部品1
100
AcDbLine
 10
3905.903465777273
 20
2128.776082823379
 30
0.0
 11
3830.903465777274
 21
1998.872272255714
 31
0.0
  0
TEXT
  5
17B4A
330
747D
100
AcDbEntity
  8
部品1
100
AcDbText
 10
3934.008407902047
 20
2034.979175861616
 30
0.0
 40
125.0
  1
G.L
  7
STYLE2
100
AcDbText
  0
LINE
  5
17B4B
330
747D
100
AcDbEntity
  8
部品1
100
AcDbLine
 10
3830.903465777274
 20
1998.872272255714
 30
0.0
 11
3755.903465777274
 21
2128.776082823379
 31
0.0
  0
LINE
  5
17B4C
330
747D
100
AcDbEntity
  8
部品1
100
AcDbLine
 10
3755.903465777274
 20
2128.776082823379
 30
0.0
 11
3905.903465777273
 21
2128.776082823379
 31
0.0
  0
DIMENSION
  5
17B4D
330
747D
100
AcDbEntity
  8
寸法
100
AcDbDimension
  2
*D25
 10
13065.39759690326
 20
4418.872272255714
 30
0.0
 11
13065.39759690326
 21
3253.872272255714
 31
0.0
 70
   160
 71
     5
 42
2320.0
  3
INABA_S40G
100
AcDbAlignedDimension
 13
12360.47043893114
 23
2098.872272255714
 33
0.0
 14
12455.47043893113
 24
4418.872272255714
 34
0.0
 50
90.0
100
AcDbRotatedDimension
1001
ACAD
1000
DSTYLE
1002
{
1070
   288
1070
     1
1002
}
  0
LINE
  5
17B4E
330
747D
100
AcDbEntity
  8
部品1
100
AcDbLine
 10
12305.47043893114
 20
4238.872272255714
 30
0.0
 11
12305.47043893114
 21
2148.872272255714
 31
0.0
  0
LINE
  5
17B4F
330
747D
100
AcDbEntity
  8
部品1
100
AcDbLine
 10
12360.47043893113
 20
4293.302300036835
 30
0.0
 11
12360.47043893114
 21
1998.872272255714
 31
0.0
  0
DIMENSION
  5
17B50
330
747D
100
AcDbEntity
  8
寸法
100
AcDbDimension
  2
*D26
 10
8466.720309747881
 20
2098.872272255714
 30
0.0
 11
8466.720309747881
 21
1715.122272255714
 31
0.0
 70
   160
 71
     5
 42
50.0
  3
INABA_S40G
100
AcDbAlignedDimension
 13
9310.470438931139
 23
2148.872272255714
 33
0.0
 14
9255.470438931139
 24
2098.872272255714
 34
0.0
 50
90.0
100
AcDbRotatedDimension
1001
ACAD
1000
DSTYLE
1002
{
1070
   288
1070
     1
1002
}
  0
DIMENSION
  5
17B51
330
747D
100
AcDbEntity
  8
寸法
100
AcDbDimension
  2
*D27
 10
8166.72030974788
 20
1998.872272255714
 30
0.0
 11
8166.72030974788
 21
1583.872272255714
 31
0.0
 70
   160
 71
     5
 42
100.0000000000004
  3
INABA_S40G
100
AcDbAlignedDimension
 13
9255.470438931139
 23
2098.872272255714
 33
0.0
 14
8253.969363036008
 24
1998.872272255714
 34
0.0
 50
90.0
100
AcDbRotatedDimension
1001
ACAD
1000
DSTYLE
1002
{
1070
   288
1070
     1
1002
}
  0
DIMENSION
  5
17B52
330
747D
100
AcDbEntity
  8
寸法
100
AcDbDimension
  2
*D28
 10
8466.720309747881
 20
2148.872272255715
 30
0.0
 11
8366.708498724257
 21
3193.872272255716
 31
0.0
 70
    32
 71
     5
 42
2089.999999999999
  3
INABA_S40G
100
AcDbAlignedDimension
 13
9310.470438931139
 23
4238.872272255714
 33
0.0
 14
9310.470438931139
 24
2148.872272255714
 34
0.0
 50
90.0
100
AcDbRotatedDimension
1001
ACAD
1000
DSTYLE
1002
{
1070
   288
1070
     1
1002
}
  0
LINE
  5
17B53
330
747D
100
AcDbEntity
  8
部品1
100
AcDbLine
 10
9310.47043893114
 20
4331.099873490351
 30
0.0
 11
9310.470438931139
 21
1998.872272255714
 31
0.0
  0
LINE
  5
17B54
330
747D
100
AcDbEntity
  8
部品1
100
AcDbLine
 10
9365.470438931138
 20
4238.872272255714
 30
0.0
 11
9365.470438931138
 21
1998.872272255714
 31
0.0
  0
LINE
  5
17B55
330
747D
100
AcDbEntity
  8
部品1
100
AcDbLine
 10
9365.470438931138
 20
2148.872272255714
 30
0.0
 11
12360.47043893114
 21
2148.872272255714
 31
0.0
  0
LINE
  5
17B56
330
747D
100
AcDbEntity
  8
部品1
100
AcDbLine
 10
9310.470438931139
 20
4238.872272255714
 30
0.0
 11
12360.47043893114
 21
4238.872272255714
 31
0.0
  0
LINE
  5
17B57
330
747D
100
AcDbEntity
  8
Ｇ．Ｌ
100
AcDbLine
 10
3656.406454453174
 20
1998.872272255714
 30
0.0
 11
14050.79354554682
 21
1998.872272255714
 31
0.0
  0
MTEXT
  5
180B6
330
747D
100
AcDbEntity
  8
寸法
 62
     7
 48
50.0
100
AcDbMText
 10
5422.3882551963
 20
9616.90369351281
 30
0.0
 40
96.0
 41
0.0
 71
     5
 72
     1
  1
棚 3段
  7
STYLE1
 73
     1
 44
1.0
1001
ACAD
1000
MTEXTBEGIN
1070
    73
1070
     1
1070
    44
1040
1.0
1070
    74
1070
     0
1000
MTEXTEND
  0
MTEXT
  5
18296
330
747D
100
AcDbEntity
  8
寸法
 62
     7
 48
50.0
100
AcDbMText
 10
6722.388255196299
 20
9616.903693512858
 30
0.0
 40
96.0
 41
0.0
 71
     5
 72
     1
  1
棚 3段
  7
STYLE1
 73
     1
 44
1.0
1001
ACAD
1000
MTEXTBEGIN
1070
    73
1070
     1
1070
    44
1040
1.0
1070
    74
1070
     0
1000
MTEXTEND
  0
DIMENSION
  5
1840F
330
747D
100
AcDbEntity
  8
寸法
100
AcDbDimension
  2
*D29
 10
7254.149210862323
 20
9209.05975479051
 30
0.0
 11
6664.158372861959
 21
9209.05975479051
 31
0.0
 70
   160
 71
     5
 42
1273.000000000012
  3
INABA_S40G
100
AcDbAlignedDimension
 13
6073.173057123663
 23
9552.497424545787
 33
0.0
 14
7346.173057123675
 24
9552.49742454578
 34
0.0
100
AcDbRotatedDimension
1001
ACAD
1000
DSTYLE
1002
{
1002
}
  0
DIMENSION
  5
18434
330
747D
100
AcDbEntity
  8
寸法
100
AcDbDimension
  2
*D30
 10
5954.149210862352
 20
9209.05975479051
 30
0.0
 11
5317.649210862346
 21
9309.071565814132
 31
0.0
 70
    32
 71
     5
 42
1273.000000000012
  3
INABA_S40G
100
AcDbAlignedDimension
 13
4773.173057123663
 23
9552.497424545682
 33
0.0
 14
6046.173057123676
 24
9552.497424545675
 34
0.0
100
AcDbRotatedDimension
1001
ACAD
1000
DSTYLE
1002
{
1002
}
  0
LINE
  5
185FD
330
747D
100
AcDbEntity
  8
補助
  6
PHANTOM
 62
   230
 48
50.0
100
AcDbLine
 10
140.0
 20
0.0
 30
0.0
 11
140.0
 21
11409.6
 31
0.0
  0
TEXT
  5
1861A
330
747D
100
AcDbEntity
  8
文字
 62
     7
 48
50.0
100
AcDbText
 10
14500.43014411085
 20
483.8967129911414
 30
0.0
 40
160.0
  1
FXN-80HY
  7
STYLE2
100
AcDbText
  0
DIMENSION
  5
18758
330
747D
100
AcDbEntity
  8
寸法
 48
50.0
100
AcDbDimension
  2
*D31
 10
7662.216159445403
 20
4046.872272255713
 30
0.0
 11
7562.216159445402
 21
3103.872272255715
 31
0.0
 70
    32
  1
有効開口部高サ <>
 71
     5
 42
1885.999999999999
  3
INABA_S40G
100
AcDbAlignedDimension
 13
7374.673057123657
 23
2160.872272255714
 33
0.0
 14
7374.673057123658
 24
4046.872272255713
 34
0.0
 50
90.0
100
AcDbRotatedDimension
  0
DIMENSION
  5
18759
330
747D
100
AcDbEntity
  8
寸法
 48
50.0
100
AcDbDimension
  2
*D32
 10
7662.216159445403
 20
4073.872272255715
 30
0.0
 11
7802.385982691768
 21
4074.839472095373
 31
0.0
 70
   160
 71
     5
 42
27.00000000000227
  3
INABA_S40G
100
AcDbAlignedDimension
 13
7374.673057123658
 23
4046.872272255713
 33
0.0
 14
7374.673057123658
 24
4073.872272255715
 34
0.0
 50
90.0
100
AcDbRotatedDimension
1001
ACAD
1000
DSTYLE
1002
{
1070
   279
1070
     2
1002
}
  0
DIMENSION
  5
1875A
330
747D
100
AcDbEntity
  8
寸法
 48
50.0
100
AcDbDimension
  2
*D33
 10
7662.216159445404
 20
4238.872272255714
 30
0.0
 11
7662.216159445403
 21
4477.357553629953
 31
0.0
 70
   160
 71
     5
 42
164.9999999999986
  3
INABA_S40G
100
AcDbAlignedDimension
 13
7374.673057123658
 23
4073.872272255715
 33
0.0
 14
7374.673057123657
 24
4238.872272255714
 34
0.0
 50
90.0
100
AcDbRotatedDimension
1001
ACAD
1000
DSTYLE
1002
{
1002
}
  0
ARC
  5
189C2
330
747D
100
AcDbEntity
  8
部品1
 48
0.01
100
AcDbCircle
 10
5532.673057123659
 20
4302.872272255712
 30
0.0
 40
2.0
100
AcDbArc
 50
0.0
 51
90.0
  0
ARC
  5
189C3
330
747D
100
AcDbEntity
  8
部品1
 48
0.01
100
AcDbCircle
 10
5356.673057123658
 20
4302.872272255712
 30
0.0
 40
2.0
100
AcDbArc
 50
90.0
 51
180.0
  0
LINE
  5
189C4
330
747D
100
AcDbEntity
  8
細線
100
AcDbLine
 10
5444.673057123655
 20
4275.372272255712
 30
0.0
 11
5518.673057123659
 21
4275.372272255712
 31
0.0
  0
LINE
  5
189C5
330
747D
100
AcDbEntity
  8
細線
100
AcDbLine
 10
5444.673057123658
 20
4298.372272255712
 30
0.0
 11
5370.673057123658
 21
4298.372272255712
 31
0.0
  0
LINE
  5
189C6
330
747D
100
AcDbEntity
  8
細線
100
AcDbLine
 10
5370.673057123658
 20
4275.372272255712
 30
0.0
 11
5444.673057123658
 21
4275.372272255712
 31
0.0
  0
LINE
  5
189C7
330
747D
100
AcDbEntity
  8
細線
100
AcDbLine
 10
5518.673057123659
 20
4298.372272255712
 30
0.0
 11
5444.673057123658
 21
4298.372272255712
 31
0.0
  0
LINE
  5
189C8
330
747D
100
AcDbEntity
  8
細線
100
AcDbLine
 10
5518.673057123659
 20
4275.372272255712
 30
0.0
 11
5518.673057123659
 21
4298.372272255712
 31
0.0
  0
LINE
  5
189C9
330
747D
100
AcDbEntity
  8
細線
100
AcDbLine
 10
5370.673057123658
 20
4298.372272255712
 30
0.0
 11
5370.673057123658
 21
4275.372272255712
 31
0.0
  0
LINE
  5
189CA
330
747D
100
AcDbEntity
  8
部品1
 48
0.01
100
AcDbLine
 10
5534.673057123654
 20
4271.372272255712
 30
0.0
 11
5534.673057123658
 21
4302.872272255712
 31
0.0
  0
LINE
  5
189CB
330
747D
100
AcDbEntity
  8
部品1
 48
0.01
100
AcDbLine
 10
5354.673057123658
 20
4302.872272255712
 30
0.0
 11
5354.673057123658
 21
4271.372272255712
 31
0.0
  0
LINE
  5
189CC
330
747D
100
AcDbEntity
  8
部品1
 48
0.01
100
AcDbLine
 10
5532.673057123659
 20
4304.872272255712
 30
0.0
 11
5356.673057123658
 21
4304.872272255712
 31
0.0
  0
LINE
  5
189CD
330
747D
100
AcDbEntity
  8
細線
100
AcDbLine
 10
5370.673057123658
 20
4292.372272255712
 30
0.0
 11
5444.673057123658
 21
4292.372272255712
 31
0.0
  0
LINE
  5
189CE
330
747D
100
AcDbEntity
  8
細線
100
AcDbLine
 10
5370.673057123658
 20
4286.372272255712
 30
0.0
 11
5444.673057123658
 21
4286.372272255712
 31
0.0
  0
LINE
  5
189CF
330
747D
100
AcDbEntity
  8
細線
100
AcDbLine
 10
5370.673057123655
 20
4280.372272255712
 30
0.0
 11
5444.673057123658
 21
4280.372272255712
 31
0.0
  0
LINE
  5
189D0
330
747D
100
AcDbEntity
  8
細線
100
AcDbLine
 10
5370.673057123658
 20
4292.372272255712
 30
0.0
 11
5439.673057123659
 21
4292.372272255712
 31
0.0
  0
LINE
  5
189D1
330
747D
100
AcDbEntity
  8
細線
100
AcDbLine
 10
5518.673057123655
 20
4292.372272255712
 30
0.0
 11
5444.673057123658
 21
4292.372272255712
 31
0.0
  0
LINE
  5
189D2
330
747D
100
AcDbEntity
  8
細線
100
AcDbLine
 10
5518.673057123655
 20
4280.372272255712
 30
0.0
 11
5444.673057123658
 21
4280.372272255712
 31
0.0
  0
LINE
  5
189D3
330
747D
100
AcDbEntity
  8
細線
100
AcDbLine
 10
5518.673057123655
 20
4286.372272255712
 30
0.0
 11
5444.673057123658
 21
4286.372272255712
 31
0.0
  0
LINE
  5
189D4
330
747D
100
AcDbEntity
  8
細線
100
AcDbLine
 10
5444.673057123658
 20
4298.372272255712
 30
0.0
 11
5444.673057123655
 21
4275.372272255712
 31
0.0
  0
LINE
  5
189D5
330
747D
100
AcDbEntity
  8
細線
100
AcDbLine
 10
6674.673057123658
 20
4298.372272255712
 30
0.0
 11
6674.673057123658
 21
4275.372272255712
 31
0.0
  0
LINE
  5
189D6
330
747D
100
AcDbEntity
  8
細線
100
AcDbLine
 10
6600.673057123659
 20
4286.372272255712
 30
0.0
 11
6674.673057123658
 21
4286.372272255712
 31
0.0
  0
LINE
  5
189D7
330
747D
100
AcDbEntity
  8
細線
100
AcDbLine
 10
6600.673057123659
 20
4280.372272255712
 30
0.0
 11
6674.673057123658
 21
4280.372272255712
 31
0.0
  0
LINE
  5
189D8
330
747D
100
AcDbEntity
  8
細線
100
AcDbLine
 10
6600.673057123659
 20
4292.372272255712
 30
0.0
 11
6674.673057123658
 21
4292.372272255712
 31
0.0
  0
LINE
  5
189D9
330
747D
100
AcDbEntity
  8
細線
100
AcDbLine
 10
6748.673057123659
 20
4292.372272255712
 30
0.0
 11
6679.673057123657
 21
4292.372272255712
 31
0.0
  0
LINE
  5
189DA
330
747D
100
AcDbEntity
  8
細線
100
AcDbLine
 10
6748.673057123659
 20
4280.372272255712
 30
0.0
 11
6674.673057123658
 21
4280.372272255712
 31
0.0
  0
LINE
  5
189DB
330
747D
100
AcDbEntity
  8
細線
100
AcDbLine
 10
6748.673057123659
 20
4286.372272255712
 30
0.0
 11
6674.673057123658
 21
4286.372272255712
 31
0.0
  0
LINE
  5
189DC
330
747D
100
AcDbEntity
  8
細線
100
AcDbLine
 10
6748.673057123659
 20
4292.372272255712
 30
0.0
 11
6674.673057123658
 21
4292.372272255712
 31
0.0
  0
LINE
  5
189DD
330
747D
100
AcDbEntity
  8
部品1
 48
0.01
100
AcDbLine
 10
6586.673057123658
 20
4304.872272255712
 30
0.0
 11
6762.673057123659
 21
4304.872272255712
 31
0.0
  0
LINE
  5
189DE
330
747D
100
AcDbEntity
  8
部品1
 48
0.01
100
AcDbLine
 10
6764.673057123658
 20
4302.872272255712
 30
0.0
 11
6764.673057123658
 21
4271.372272255712
 31
0.0
  0
LINE
  5
189DF
330
747D
100
AcDbEntity
  8
部品1
 48
0.01
100
AcDbLine
 10
6584.673057123659
 20
4271.372272255712
 30
0.0
 11
6584.673057123659
 21
4302.872272255712
 31
0.0
  0
LINE
  5
189E0
330
747D
100
AcDbEntity
  8
細線
100
AcDbLine
 10
6748.673057123659
 20
4298.372272255712
 30
0.0
 11
6748.673057123659
 21
4275.372272255712
 31
0.0
  0
LINE
  5
189E1
330
747D
100
AcDbEntity
  8
細線
100
AcDbLine
 10
6600.673057123659
 20
4275.372272255712
 30
0.0
 11
6600.673057123659
 21
4298.372272255712
 31
0.0
  0
LINE
  5
189E2
330
747D
100
AcDbEntity
  8
細線
100
AcDbLine
 10
6600.673057123659
 20
4298.372272255712
 30
0.0
 11
6674.673057123658
 21
4298.372272255712
 31
0.0
  0
LINE
  5
189E3
330
747D
100
AcDbEntity
  8
細線
100
AcDbLine
 10
6748.673057123659
 20
4275.372272255712
 30
0.0
 11
6674.673057123658
 21
4275.372272255712
 31
0.0
  0
LINE
  5
189E4
330
747D
100
AcDbEntity
  8
細線
100
AcDbLine
 10
6674.673057123658
 20
4298.372272255712
 30
0.0
 11
6748.673057123659
 21
4298.372272255712
 31
0.0
  0
LINE
  5
189E5
330
747D
100
AcDbEntity
  8
細線
100
AcDbLine
 10
6674.673057123658
 20
4275.372272255712
 30
0.0
 11
6600.673057123659
 21
4275.372272255712
 31
0.0
  0
ARC
  5
189E6
330
747D
100
AcDbEntity
  8
部品1
 48
0.01
100
AcDbCircle
 10
6762.673057123659
 20
4302.872272255712
 30
0.0
 40
2.0
100
AcDbArc
 50
0.0
 51
90.0
  0
ARC
  5
189E7
330
747D
100
AcDbEntity
  8
部品1
 48
0.01
100
AcDbCircle
 10
6586.673057123658
 20
4302.872272255712
 30
0.0
 40
2.0
100
AcDbArc
 50
90.0
 51
180.0
  0
ARC
  5
189E8
330
747D
100
AcDbEntity
  8
部品1
 48
0.01
100
AcDbCircle
 10
5532.673057123655
 20
4271.372272255712
 30
0.0
 40
2.0
100
AcDbArc
 50
270.0
 51
0.0
  0
ARC
  5
189E9
330
747D
100
AcDbEntity
  8
部品1
 48
0.01
100
AcDbCircle
 10
5356.673057123658
 20
4271.372272255712
 30
0.0
 40
2.0
100
AcDbArc
 50
180.0
 51
270.0
  0
LINE
  5
189EA
330
747D
100
AcDbEntity
  8
部品1
 48
0.01
100
AcDbLine
 10
5356.673057123658
 20
4269.372272255712
 30
0.0
 11
5532.673057123655
 21
4269.372272255712
 31
0.0
  0
LINE
  5
189EB
330
747D
100
AcDbEntity
  8
部品1
 48
0.01
100
AcDbLine
 10
6762.673057123659
 20
4269.372272255712
 30
0.0
 11
6586.673057123658
 21
4269.372272255712
 31
0.0
  0
ARC
  5
189EC
330
747D
100
AcDbEntity
  8
部品1
 48
0.01
100
AcDbCircle
 10
6762.673057123659
 20
4271.372272255712
 30
0.0
 40
2.0
100
AcDbArc
 50
270.0
 51
0.0
  0
ARC
  5
189ED
330
747D
100
AcDbEntity
  8
部品1
 48
0.01
100
AcDbCircle
 10
6586.673057123658
 20
4271.372272255712
 30
0.0
 40
2.0
100
AcDbArc
 50
180.0
 51
270.0
  0
TEXT
  5
18B24
330
747D
100
AcDbEntity
  8
文字
 62
     7
 48
50.0
100
AcDbText
 10
14646.46056207479
 20
871.9640646083623
 30
0.0
 40
100.0
  1
～一般型・多雪地型～
  7
STYLE2
100
AcDbText
  0
TEXT
  5
18B40
330
747D
100
AcDbEntity
  8
文字
 62
     7
 48
50.0
100
AcDbText
 10
15022.63965474516
 20
9230.013745883725
 30
0.0
 40
100.0
  1
F12            0.7
  7
STYLE1
100
AcDbText
  0
ENDSEC
  0
SECTION
  2
OBJECTS
  0
DICTIONARY
  5
7471
330
0
100
AcDbDictionary
281
     1
  3
ACAD_COLOR
350
17532
  3
ACAD_GROUP
350
7472
  3
ACAD_LAYOUT
350
17533
  3
ACAD_MATERIAL
350
17531
  3
ACAD_MLINESTYLE
350
7473
  3
ACAD_PLOTSETTINGS
350
17534
  3
ACAD_PLOTSTYLENAME
350
1752F
  3
ACDBHEADERROUNDTRIPXREC
350
18B96
  3
AcDbVariableDictionary
350
18B92
  3
CONTENTDICTIONARY
350
E71C
  3
DRAWINGVARIABLESDICT
350
F3B9
  0
DICTIONARY
  5
177AB
330
7467
100
AcDbDictionary
280
     1
281
     1
  3
ACAD_LAYERSTATES
360
177AC
  0
DICTIONARY
  5
17532
102
{ACAD_REACTORS
330
7471
102
}
330
7471
100
AcDbDictionary
281
     1
  0
DICTIONARY
  5
7472
102
{ACAD_REACTORS
330
7471
102
}
330
7471
100
AcDbDictionary
281
     1
  0
DICTIONARY
  5
17533
102
{ACAD_REACTORS
330
7471
102
}
330
7471
100
AcDbDictionary
281
     1
  3
Model
350
17535
  3
レイアウト1
350
17536
  0
DICTIONARY
  5
17531
102
{ACAD_REACTORS
330
7471
102
}
330
7471
100
AcDbDictionary
281
     1
  0
DICTIONARY
  5
7473
102
{ACAD_REACTORS
330
7471
102
}
330
7471
100
AcDbDictionary
281
     1
  3
STANDARD
350
7480
  0
DICTIONARY
  5
17534
102
{ACAD_REACTORS
330
7471
102
}
330
7471
100
AcDbDictionary
281
     1
  0
ACDBDICTIONARYWDFLT
  5
1752F
102
{ACAD_REACTORS
330
7471
102
}
330
7471
100
AcDbDictionary
281
     1
  3
Normal
350
17530
100
AcDbDictionaryWithDefault
340
17530
  0
DICTIONARY
  5
18B96
102
{ACAD_REACTORS
330
7471
102
}
330
7471
100
AcDbDictionary
281
     1
  3
COLORDICT
350
18B98
  3
MATERIALDICT
350
18B97
  0
DICTIONARY
  5
18B92
102
{ACAD_REACTORS
330
7471
102
}
330
7471
100
AcDbDictionary
281
     1
  3
DIMASSOC
350
18B93
  3
PROJECTNAME
350
18B94
  0
DICTIONARY
  5
E71C
102
{ACAD_REACTORS
330
7471
102
}
330
7471
100
AcDbDictionary
281
     1
  0
DICTIONARY
  5
F3B9
102
{ACAD_REACTORS
330
7471
102
}
330
7471
100
AcDbDictionary
281
     1
1001
DRAWINGVARIABLESXDATA
1000
POLARMODE
1000
1
  0
DICTIONARY
  5
177AC
102
{ACAD_REACTORS
330
177AB
102
}
330
177AB
100
AcDbDictionary
281
     1
  0
LAYOUT
  5
17535
102
{ACAD_XDICTIONARY
360
18B99
102
}
102
{ACAD_REACTORS
330
17533
102
}
330
17533
100
AcDbPlotSettings
  1

  2
none_device
  4
Letter_(8.50_x_11.00_Inches)
  6

 40
6.349999904632568
 41
6.349999904632568
 42
6.350006103515625
 43
6.350006103515625
 44
215.8999938964844
 45
279.3999938964844
 46
0.0
 47
0.0
 48
0.0
 49
0.0
140
0.0
141
0.0
142
1.0
143
1.0
 70
 11952
 72
     1
 73
     1
 74
     0
  7
inaba.ctb
 75
     0
147
1.0
148
-2464.604124655163
149
54.54876986287036
100
AcDbLayout
  1
Model
 70
     1
 71
     0
 10
0.0
 20
0.0
 11
12.0
 21
9.0
 12
0.0
 22
0.0
 32
0.0
 14
0.0
 24
0.0
 34
0.0
 15
0.0
 25
0.0
 35
0.0
146
0.0
 13
0.0
 23
0.0
 33
0.0
 16
1.0
 26
0.0
 36
0.0
 17
0.0
 27
1.0
 37
0.0
 76
     0
330
747D
  0
LAYOUT
  5
17536
102
{ACAD_XDICTIONARY
360
18B9B
102
}
102
{ACAD_REACTORS
330
17533
102
}
330
17533
100
AcDbPlotSettings
  1

  2
EPSON LP-8300
  4

  6

 40
0.0
 41
0.0
 42
0.0
 43
0.0
 44
0.0
 45
0.0
 46
0.0
 47
0.0
 48
0.0
 49
0.0
140
0.0
141
0.0
142
1.0
143
1.0
 70
   688
 72
     0
 73
     0
 74
     5
  7
inaba.ctb
 75
    16
147
1.0
148
0.0
149
0.0
100
AcDbLayout
  1
レイアウト1
 70
     0
 71
     1
 10
0.0
 20
0.0
 11
420.0
 21
297.0
 12
0.0
 22
0.0
 32
0.0
 14
1.000000000000000E+20
 24
1.000000000000000E+20
 34
1.000000000000000E+20
 15
-1.000000000000000E+20
 25
-1.000000000000000E+20
 35
-1.000000000000000E+20
146
0.0
 13
0.0
 23
0.0
 33
0.0
 16
1.0
 26
0.0
 36
0.0
 17
0.0
 27
1.0
 37
0.0
 76
     0
330
747A
  0
MLINESTYLE
  5
7480
102
{ACAD_REACTORS
330
7473
102
}
330
7473
100
AcDbMlineStyle
  2
STANDARD
 70
     0
  3

 62
     0
 51
90.0
 52
90.0
 71
     2
 49
0.5
 62
   256
  6
BYLAYER
 49
-0.5
 62
   256
  6
BYLAYER
  0
ACDBPLACEHOLDER
  5
17530
102
{ACAD_REACTORS
330
1752F
102
}
330
1752F
  0
XRECORD
  5
18B98
102
{ACAD_REACTORS
330
18B96
102
}
330
18B96
100
AcDbXrecord
280
     1
340
17532
  0
XRECORD
  5
18B97
102
{ACAD_REACTORS
330
18B96
102
}
330
18B96
100
AcDbXrecord
280
     1
340
17531
  0
DICTIONARYVAR
  5
18B93
102
{ACAD_REACTORS
330
18B92
102
}
330
18B92
100
DictionaryVariables
280
     0
  1
1
  0
DICTIONARYVAR
  5
18B94
102
{ACAD_REACTORS
330
18B92
102
}
330
18B92
100
DictionaryVariables
280
     0
  1

  0
DICTIONARY
  5
18B99
330
17535
100
AcDbDictionary
280
     1
281
     1
  3
ACAD_XREC_ROUNDTRIP
360
18B9A
  0
DICTIONARY
  5
18B9B
330
17536
100
AcDbDictionary
280
     1
281
     1
  3
ACAD_XREC_ROUNDTRIP
360
18B9C
  0
XRECORD
  5
18B9A
102
{ACAD_REACTORS
330
18B99
102
}
330
18B99
100
AcDbXrecord
280
     1
102
SHADEPLOT
 70
     0
102
SHADEPLOTRESLEVEL
 70
     2
102
SHADEPLOTCUSTOMDPI
 70
   300
  0
XRECORD
  5
18B9C
102
{ACAD_REACTORS
330
18B9B
102
}
330
18B9B
100
AcDbXrecord
280
     1
102
SHADEPLOT
 70
     0
102
SHADEPLOTRESLEVEL
 70
     2
102
SHADEPLOTCUSTOMDPI
 70
   300
  0
ENDSEC
  0
EOF
