  0
SECTION
  2
HEADER
  9
$ACADVER
  1
AC1015
  9
$ACADMAINTVER
 70
    20
  9
$DWGCODEPAGE
  3
ANSI_932
  9
$INSBASE
 10
0.0
 20
0.0
 30
0.0
  9
$EXTMIN
 10
139.9999999999995
 20
-0.0000000000000909
 30
0.0
  9
$EXTMAX
 10
16307.2
 20
11409.6
 30
0.0
  9
$LIMMIN
 10
-183.0179068595971
 20
-160.3342785227505
  9
$LIMMAX
 10
16374.07536659319
 20
11592.19044584975
  9
$ORTHOMODE
 70
     0
  9
$REGENMODE
 70
     1
  9
$FILLMODE
 70
     1
  9
$QTEXTMODE
 70
     0
  9
$MIRRTEXT
 70
     1
  9
$LTSCALE
 40
20.0
  9
$ATTMODE
 70
     1
  9
$TEXTSIZE
 40
100.0
  9
$TRACEWID
 40
1.0
  9
$TEXTSTYLE
  7
STYLE2
  9
$CLAYER
  8
部品1
  9
$CELTYPE
  6
BYLAYER
  9
$CECOLOR
 62
   256
  9
$CELTSCALE
 40
50.0
  9
$DISPSILH
 70
     0
  9
$DIMSCALE
 40
40.0
  9
$DIMASZ
 40
2.5
  9
$DIMEXO
 40
0.5
  9
$DIMDLI
 40
7.0
  9
$DIMRND
 40
0.0
  9
$DIMDLE
 40
0.0
  9
$DIMEXE
 40
1.5
  9
$DIMTP
 40
0.0
  9
$DIMTM
 40
0.0
  9
$DIMTXT
 40
3.0
  9
$DIMCEN
 40
0.0
  9
$DIMTSZ
 40
0.0
  9
$DIMTOL
 70
     0
  9
$DIMLIM
 70
     0
  9
$DIMTIH
 70
     0
  9
$DIMTOH
 70
     0
  9
$DIMSE1
 70
     0
  9
$DIMSE2
 70
     0
  9
$DIMTAD
 70
     3
  9
$DIMZIN
 70
     8
  9
$DIMBLK
  1

  9
$DIMASO
 70
     1
  9
$DIMSHO
 70
     1
  9
$DIMPOST
  1

  9
$DIMAPOST
  1

  9
$DIMALT
 70
     0
  9
$DIMALTD
 70
     2
  9
$DIMALTF
 40
0.0394
  9
$DIMLFAC
 40
1.0
  9
$DIMTOFL
 70
     1
  9
$DIMTVP
 40
0.0
  9
$DIMTIX
 70
     1
  9
$DIMSOXD
 70
     0
  9
$DIMSAH
 70
     1
  9
$DIMBLK1
  1
DOTSMALL
  9
$DIMBLK2
  1
DOTSMALL
  9
$DIMSTYLE
  2
INABA_S40G
  9
$DIMCLRD
 70
     0
  9
$DIMCLRE
 70
     0
  9
$DIMCLRT
 70
     7
  9
$DIMTFAC
 40
1.0
  9
$DIMGAP
 40
1.0
  9
$DIMJUST
 70
     0
  9
$DIMSD1
 70
     0
  9
$DIMSD2
 70
     0
  9
$DIMTOLJ
 70
     1
  9
$DIMTZIN
 70
     0
  9
$DIMALTZ
 70
     0
  9
$DIMALTTZ
 70
     0
  9
$DIMUPT
 70
     0
  9
$DIMDEC
 70
     1
  9
$DIMTDEC
 70
     4
  9
$DIMALTU
 70
     2
  9
$DIMALTTD
 70
     2
  9
$DIMTXSTY
  7
STYLE1
  9
$DIMAUNIT
 70
     0
  9
$DIMADEC
 70
     0
  9
$DIMALTRND
 40
0.0
  9
$DIMAZIN
 70
     0
  9
$DIMDSEP
 70
    46
  9
$DIMATFIT
 70
     3
  9
$DIMFRAC
 70
     0
  9
$DIMLDRBLK
  1

  9
$DIMLUNIT
 70
     2
  9
$DIMLWD
 70
    -2
  9
$DIMLWE
 70
    -2
  9
$DIMTMOVE
 70
     2
  9
$LUNITS
 70
     2
  9
$LUPREC
 70
     1
  9
$SKETCHINC
 40
1.0
  9
$FILLETRAD
 40
3.0
  9
$AUNITS
 70
     0
  9
$AUPREC
 70
     0
  9
$MENU
  1
acad
  9
$ELEVATION
 40
0.0
  9
$PELEVATION
 40
0.0
  9
$THICKNESS
 40
0.0
  9
$LIMCHECK
 70
     0
  9
$CHAMFERA
 40
0.0
  9
$CHAMFERB
 40
0.0
  9
$CHAMFERC
 40
0.0
  9
$CHAMFERD
 40
0.0
  9
$SKPOLY
 70
     0
  9
$TDCREATE
 40
2451368.612993866
  9
$TDUCREATE
 40
2451368.237993866
  9
$TDUPDATE
 40
2455569.631845336
  9
$TDUUPDATE
 40
2455569.256845336
  9
$TDINDWG
 40
0.7940179398
  9
$TDUSRTIMER
 40
0.7940179398
  9
$USRTIMER
 70
     1
  9
$ANGBASE
 50
0.0
  9
$ANGDIR
 70
     0
  9
$PDMODE
 70
     3
  9
$PDSIZE
 40
2.0
  9
$PLINEWID
 40
0.0
  9
$SPLFRAME
 70
     0
  9
$SPLINETYPE
 70
     6
  9
$SPLINESEGS
 70
     8
  9
$HANDSEED
  5
19C7D
  9
$SURFTAB1
 70
     6
  9
$SURFTAB2
 70
     6
  9
$SURFTYPE
 70
     6
  9
$SURFU
 70
     6
  9
$SURFV
 70
     6
  9
$UCSBASE
  2

  9
$UCSNAME
  2

  9
$UCSORG
 10
0.0
 20
0.0
 30
0.0
  9
$UCSXDIR
 10
1.0
 20
0.0
 30
0.0
  9
$UCSYDIR
 10
0.0
 20
1.0
 30
0.0
  9
$UCSORTHOREF
  2

  9
$UCSORTHOVIEW
 70
     0
  9
$UCSORGTOP
 10
0.0
 20
0.0
 30
0.0
  9
$UCSORGBOTTOM
 10
0.0
 20
0.0
 30
0.0
  9
$UCSORGLEFT
 10
0.0
 20
0.0
 30
0.0
  9
$UCSORGRIGHT
 10
0.0
 20
0.0
 30
0.0
  9
$UCSORGFRONT
 10
0.0
 20
0.0
 30
0.0
  9
$UCSORGBACK
 10
0.0
 20
0.0
 30
0.0
  9
$PUCSBASE
  2

  9
$PUCSNAME
  2

  9
$PUCSORG
 10
0.0
 20
0.0
 30
0.0
  9
$PUCSXDIR
 10
1.0
 20
0.0
 30
0.0
  9
$PUCSYDIR
 10
0.0
 20
1.0
 30
0.0
  9
$PUCSORTHOREF
  2

  9
$PUCSORTHOVIEW
 70
     0
  9
$PUCSORGTOP
 10
0.0
 20
0.0
 30
0.0
  9
$PUCSORGBOTTOM
 10
0.0
 20
0.0
 30
0.0
  9
$PUCSORGLEFT
 10
0.0
 20
0.0
 30
0.0
  9
$PUCSORGRIGHT
 10
0.0
 20
0.0
 30
0.0
  9
$PUCSORGFRONT
 10
0.0
 20
0.0
 30
0.0
  9
$PUCSORGBACK
 10
0.0
 20
0.0
 30
0.0
  9
$USERI1
 70
     0
  9
$USERI2
 70
     0
  9
$USERI3
 70
     0
  9
$USERI4
 70
     0
  9
$USERI5
 70
     0
  9
$USERR1
 40
0.0
  9
$USERR2
 40
0.0
  9
$USERR3
 40
0.0
  9
$USERR4
 40
0.0
  9
$USERR5
 40
0.0
  9
$WORLDVIEW
 70
     1
  9
$SHADEDGE
 70
     3
  9
$SHADEDIF
 70
    70
  9
$TILEMODE
 70
     1
  9
$MAXACTVP
 70
    16
  9
$PINSBASE
 10
0.0
 20
0.0
 30
0.0
  9
$PLIMCHECK
 70
     0
  9
$PEXTMIN
 10
1.000000000000000E+20
 20
1.000000000000000E+20
 30
1.000000000000000E+20
  9
$PEXTMAX
 10
-1.000000000000000E+20
 20
-1.000000000000000E+20
 30
-1.000000000000000E+20
  9
$PLIMMIN
 10
0.0
 20
0.0
  9
$PLIMMAX
 10
420.0
 20
297.0
  9
$UNITMODE
 70
     0
  9
$VISRETAIN
 70
     0
  9
$PLINEGEN
 70
     0
  9
$PSLTSCALE
 70
     0
  9
$TREEDEPTH
 70
  3020
  9
$CMLSTYLE
  2
STANDARD
  9
$CMLJUST
 70
     0
  9
$CMLSCALE
 40
1.0
  9
$PROXYGRAPHICS
 70
     1
  9
$MEASUREMENT
 70
     1
  9
$CELWEIGHT
370
    -1
  9
$ENDCAPS
280
     0
  9
$JOINSTYLE
280
     0
  9
$LWDISPLAY
290
     0
  9
$INSUNITS
 70
     0
  9
$HYPERLINKBASE
  1

  9
$STYLESHEET
  1
inaba.ctb
  9
$XEDIT
290
     1
  9
$CEPSNTYPE
380
     0
  9
$PSTYLEMODE
290
     1
  9
$FINGERPRINTGUID
  2
{DAFCE6B9-1223-4F55-A471-E6E0B147AA1D}
  9
$VERSIONGUID
  2
{F9C72C4B-F707-4AEE-8989-52515B80A355}
  9
$EXTNAMES
290
     1
  9
$PSVPSCALE
 40
0.0
  9
$OLESTARTUP
290
     0
  0
ENDSEC
  0
SECTION
  2
CLASSES
  0
CLASS
  1
ACDBDICTIONARYWDFLT
  2
AcDbDictionaryWithDefault
  3
ObjectDBX Classes
 90
        0
280
     0
281
     0
  0
CLASS
  1
DICTIONARYVAR
  2
AcDbDictionaryVar
  3
ObjectDBX Classes
 90
        0
280
     0
281
     0
  0
CLASS
  1
ACDBPLACEHOLDER
  2
AcDbPlaceHolder
  3
ObjectDBX Classes
 90
        0
280
     0
281
     0
  0
CLASS
  1
LAYOUT
  2
AcDbLayout
  3
ObjectDBX Classes
 90
        0
280
     0
281
     0
  0
ENDSEC
  0
SECTION
  2
TABLES
  0
TABLE
  2
VPORT
  5
746D
330
0
100
AcDbSymbolTable
 70
     2
  0
VPORT
  5
19C75
330
746D
100
AcDbSymbolTableRecord
100
AcDbViewportTableRecord
  2
*Active
 70
     0
 10
0.0
 20
0.0
 11
1.0
 21
1.0
 12
8807.220817961292
 22
5704.720030031365
 13
0.0
 23
0.0
 14
10.0
 24
10.0
 15
10.0
 25
10.0
 16
0.0
 26
0.0
 36
1.0
 17
0.0
 27
0.0
 37
0.0
 40
11494.23945913441
 41
1.627450980392156
 42
50.0
 43
0.0
 44
0.0
 50
0.0
 51
0.0
 71
     0
 72
     0
 73
     1
 74
     0
 75
     0
 76
     0
 77
     0
 78
     0
281
     0
 65
     1
110
0.0
120
0.0
130
0.0
111
1.0
121
0.0
131
0.0
112
0.0
122
1.0
132
0.0
 79
     0
146
0.0
  0
ENDTAB
  0
TABLE
  2
LTYPE
  5
746A
330
0
100
AcDbSymbolTable
 70
     3
  0
LTYPE
  5
7477
330
746A
100
AcDbSymbolTableRecord
100
AcDbLinetypeTableRecord
  2
BYBLOCK
 70
     0
  3

 72
    65
 73
     0
 40
0.0
  0
LTYPE
  5
7478
330
746A
100
AcDbSymbolTableRecord
100
AcDbLinetypeTableRecord
  2
BYLAYER
 70
     0
  3

 72
    65
 73
     0
 40
0.0
  0
LTYPE
  5
7479
330
746A
100
AcDbSymbolTableRecord
100
AcDbLinetypeTableRecord
  2
CONTINUOUS
 70
     0
  3
Solid line
 72
    65
 73
     0
 40
0.0
  0
LTYPE
  5
781A
330
746A
100
AcDbSymbolTableRecord
100
AcDbLinetypeTableRecord
  2
HIDDEN
 70
     0
  3
__ __ __ __ __ __ __ __ __ __ __ __ __ __ __ __
 72
    65
 73
     2
 40
0.375
 49
0.25
 74
     0
 49
-0.125
 74
     0
  0
LTYPE
  5
781B
330
746A
100
AcDbSymbolTableRecord
100
AcDbLinetypeTableRecord
  2
PHANTOM
 70
     0
  3
______  __  __  ______  __  __  ______  __  __ 
 72
    65
 73
     6
 40
2.5
 49
1.25
 74
     0
 49
-0.25
 74
     0
 49
0.25
 74
     0
 49
-0.25
 74
     0
 49
0.25
 74
     0
 49
-0.25
 74
     0
  0
ENDTAB
  0
TABLE
  2
LAYER
  5
7467
102
{ACAD_XDICTIONARY
360
178B7
102
}
330
0
100
AcDbSymbolTable
 70
    10
  0
LAYER
  5
7474
330
7467
100
AcDbSymbolTableRecord
100
AcDbLayerTableRecord
  2
0
 70
     0
 62
     7
  6
CONTINUOUS
370
    -3
390
17545
  0
LAYER
  5
DEB3
330
7467
100
AcDbSymbolTableRecord
100
AcDbLayerTableRecord
  2
寸法
 70
     0
 62
     4
  6
CONTINUOUS
370
    -3
390
17545
  0
LAYER
  5
DEB4
330
7467
100
AcDbSymbolTableRecord
100
AcDbLayerTableRecord
  2
部品1
 70
     0
 62
     7
  6
CONTINUOUS
370
    -3
390
17545
  0
LAYER
  5
DEB5
330
7467
100
AcDbSymbolTableRecord
100
AcDbLayerTableRecord
  2
補助
 70
     0
 62
    -1
  6
CONTINUOUS
370
    -3
390
17545
  0
LAYER
  5
DEB6
330
7467
100
AcDbSymbolTableRecord
100
AcDbLayerTableRecord
  2
文字
 70
     0
 62
     7
  6
CONTINUOUS
370
    -3
390
17545
  0
LAYER
  5
F255
330
7467
100
AcDbSymbolTableRecord
100
AcDbLayerTableRecord
  2
DEFPOINTS
 70
     0
 62
     7
  6
CONTINUOUS
290
     0
370
    -3
390
17545
  0
LAYER
  5
10B54
330
7467
100
AcDbSymbolTableRecord
100
AcDbLayerTableRecord
  2
仕様書枠
 70
     0
 62
   230
  6
CONTINUOUS
370
    -3
390
17545
  0
LAYER
  5
11729
330
7467
100
AcDbSymbolTableRecord
100
AcDbLayerTableRecord
  2
Ｇ．Ｌ
 70
     0
 62
    30
  6
CONTINUOUS
370
    -3
390
17545
  0
LAYER
  5
1173F
330
7467
100
AcDbSymbolTableRecord
100
AcDbLayerTableRecord
  2
細線
 70
     0
 62
     5
  6
CONTINUOUS
370
    -3
390
17545
  0
LAYER
  5
142E2
330
7467
100
AcDbSymbolTableRecord
100
AcDbLayerTableRecord
  2
破線
 70
     0
 62
     2
  6
HIDDEN
370
    -3
390
17545
  0
ENDTAB
  0
TABLE
  2
STYLE
  5
7468
330
0
100
AcDbSymbolTable
 70
     5
  0
STYLE
  5
7475
330
7468
100
AcDbSymbolTableRecord
100
AcDbTextStyleTableRecord
  2
STANDARD
 70
     0
 40
0.0
 41
1.0
 50
0.0
 71
     0
 42
4.0
  3
txt
  4
C:\AutoCAD LT\bigfont.shx
  0
STYLE
  5
763C
330
7468
100
AcDbSymbolTableRecord
100
AcDbTextStyleTableRecord
  2
MSMINCHO
 70
     0
 40
0.0
 41
1.0
 50
0.0
 71
     0
 42
1.199999999999999
  3
C:\AutoCAD LT\msminch2.TTF
  4

  0
STYLE
  5
F706
330
7468
100
AcDbSymbolTableRecord
100
AcDbTextStyleTableRecord
  2
STYLE1
 70
     0
 40
0.0
 41
1.0
 50
0.0
 71
     0
 42
4.0
  3
isocp.shx
  4
bigfont.shx
  0
STYLE
  5
103BF
330
7468
100
AcDbSymbolTableRecord
100
AcDbTextStyleTableRecord
  2
STYLE2
 70
     0
 40
0.0
 41
1.0
 50
0.0
 71
     0
 42
100.0
  3
MS PGothic.ttf
  4

1001
ACAD
1000
MS PGothic
1071
    32818
  0
STYLE
  5
10BAA
330
7468
100
AcDbSymbolTableRecord
100
AcDbTextStyleTableRecord
  2
STYLE3
 70
     0
 40
0.0
 41
1.0
 50
0.0
 71
     0
 42
100.0
  3
DFPGothic-EB.ttf
  4

1001
ACAD
1000
DFPGothic-EB
1071
    32818
  0
ENDTAB
  0
TABLE
  2
VIEW
  5
746B
330
0
100
AcDbSymbolTable
 70
     0
  0
ENDTAB
  0
TABLE
  2
UCS
  5
746C
330
0
100
AcDbSymbolTable
 70
     0
  0
ENDTAB
  0
TABLE
  2
APPID
  5
746E
330
0
100
AcDbSymbolTable
 70
     6
  0
APPID
  5
7476
330
746E
100
AcDbSymbolTableRecord
100
AcDbRegAppTableRecord
  2
ACAD
 70
     0
  0
APPID
  5
DEA9
330
746E
100
AcDbSymbolTableRecord
100
AcDbRegAppTableRecord
  2
CONTENTBLOCKICON
 70
     0
  0
APPID
  5
DEAA
330
746E
100
AcDbSymbolTableRecord
100
AcDbRegAppTableRecord
  2
CONTENTBLOCKDESCRIPTION
 70
     0
  0
APPID
  5
E71D
330
746E
100
AcDbSymbolTableRecord
100
AcDbRegAppTableRecord
  2
CONTENTTABDATA
 70
     0
  0
APPID
  5
E71E
330
746E
100
AcDbSymbolTableRecord
100
AcDbRegAppTableRecord
  2
CONTENTCURRENTTAB
 70
     0
  0
APPID
  5
F3BA
330
746E
100
AcDbSymbolTableRecord
100
AcDbRegAppTableRecord
  2
DRAWINGVARIABLESXDATA
 70
     0
  0
ENDTAB
  0
TABLE
  2
DIMSTYLE
  5
746F
330
0
100
AcDbSymbolTable
 70
     2
100
AcDbDimStyleTable
 71
     1
340
F71F
  0
DIMSTYLE
105
F71F
102
{ACAD_REACTORS
330
162CD
330
162CE
330
162CF
330
162D0
330
162E4
330
162E7
330
162EA
330
162EB
330
16301
330
16302
330
1631F
330
16320
330
16333
330
1659C
330
1659A
330
165E9
330
166DD
330
16913
330
173ED
330
173EB
330
173EA
330
173EC
330
17402
330
17416
330
17400
330
17D6D
330
17DB4
330
17DB5
330
17CF2
330
1888F
330
1889E
330
188AC
330
188AD
330
188AE
330
188B2
330
188E3
330
188E4
330
188E5
330
191EA
330
191EB
330
191EC
330
19705
102
}
330
746F
100
AcDbSymbolTableRecord
100
AcDbDimStyleTableRecord
  2
INABA_S40G
 70
     0
 40
40.0
 41
2.5
 42
0.5
 43
7.0
 44
1.5
 73
     0
 74
     0
 77
     3
 78
     8
140
3.0
141
0.0
143
0.0394
147
1.0
172
     1
173
     1
174
     1
178
     7
271
     1
340
F706
341
F770
343
F770
344
F770
  0
DIMSTYLE
105
196A5
330
746F
100
AcDbSymbolTableRecord
100
AcDbDimStyleTableRecord
  2
INABA_S20G
 70
     0
 40
20.0
 41
2.5
 42
0.5
 43
7.0
 44
1.5
 73
     0
 74
     0
 77
     3
 78
     8
140
3.0
141
0.0
143
0.0394
147
1.0
172
     1
173
     1
174
     1
178
     7
271
     1
340
F706
341
F770
343
F770
344
F770
  0
ENDTAB
  0
TABLE
  2
BLOCK_RECORD
  5
7466
330
0
100
AcDbSymbolTable
 70
    43
  0
BLOCK_RECORD
  5
747D
330
7466
100
AcDbSymbolTableRecord
100
AcDbBlockTableRecord
  2
*MODEL_SPACE
340
1754A
  0
BLOCK_RECORD
  5
747A
330
7466
100
AcDbSymbolTableRecord
100
AcDbBlockTableRecord
  2
*PAPER_SPACE
340
1754B
  0
BLOCK_RECORD
  5
F770
330
7466
100
AcDbSymbolTableRecord
100
AcDbBlockTableRecord
  2
_DOTSMALL
340
0
102
{BLKREFS
331
1998F
331
19990
331
19A07
331
19A08
331
19A10
331
19A11
331
19A19
331
19A1A
331
19A25
331
19A26
331
19A2E
331
19A2F
331
19A39
331
19A3A
331
19A40
331
19A41
331
19A49
331
19A4A
331
19A54
331
19A55
331
19A5E
331
19A5F
331
19A69
331
19A6A
331
19A74
331
19A75
331
19A7E
331
19A7F
331
19A89
331
19A8A
331
19A92
331
19A93
331
19A9D
331
19A9E
331
19AA9
331
19AAA
331
19AB4
331
19AB5
331
19ABE
331
19ABF
331
19AC7
331
19AC8
331
19ACF
331
19AD0
331
19AD8
331
19AD9
331
19AE3
331
19AE4
331
19AEE
331
19AEF
331
19AF7
331
19AF8
331
19B30
331
19B31
331
19B4E
331
19B4F
331
19B57
331
19B58
331
19B62
331
19B63
331
19B6D
331
19B6E
331
19B76
331
19B77
331
19B7F
331
19B80
331
19B88
331
19B89
331
19B93
331
19B94
331
19BA7
331
19BA8
331
19BBA
331
19BBB
331
19BC4
331
19BC5
331
19C12
331
19C13
331
19C1B
331
19C1C
331
19C31
331
19C32
331
19C3A
331
19C3B
102
}
  0
BLOCK_RECORD
  5
16338
330
7466
100
AcDbSymbolTableRecord
100
AcDbBlockTableRecord
  2
*D1
340
0
  0
BLOCK_RECORD
  5
16344
330
7466
100
AcDbSymbolTableRecord
100
AcDbBlockTableRecord
  2
*D2
340
0
  0
BLOCK_RECORD
  5
16352
330
7466
100
AcDbSymbolTableRecord
100
AcDbBlockTableRecord
  2
*D3
340
0
  0
BLOCK_RECORD
  5
16360
330
7466
100
AcDbSymbolTableRecord
100
AcDbBlockTableRecord
  2
*D4
340
0
  0
BLOCK_RECORD
  5
16384
330
7466
100
AcDbSymbolTableRecord
100
AcDbBlockTableRecord
  2
*D5
340
0
  0
BLOCK_RECORD
  5
1638F
330
7466
100
AcDbSymbolTableRecord
100
AcDbBlockTableRecord
  2
*D6
340
0
  0
BLOCK_RECORD
  5
1639B
330
7466
100
AcDbSymbolTableRecord
100
AcDbBlockTableRecord
  2
*D7
340
0
  0
BLOCK_RECORD
  5
163A9
330
7466
100
AcDbSymbolTableRecord
100
AcDbBlockTableRecord
  2
*D8
340
0
  0
BLOCK_RECORD
  5
163B8
330
7466
100
AcDbSymbolTableRecord
100
AcDbBlockTableRecord
  2
*D9
340
0
  0
BLOCK_RECORD
  5
163C7
330
7466
100
AcDbSymbolTableRecord
100
AcDbBlockTableRecord
  2
*D10
340
0
  0
BLOCK_RECORD
  5
163E1
330
7466
100
AcDbSymbolTableRecord
100
AcDbBlockTableRecord
  2
*D11
340
0
  0
BLOCK_RECORD
  5
163ED
330
7466
100
AcDbSymbolTableRecord
100
AcDbBlockTableRecord
  2
*D12
340
0
  0
BLOCK_RECORD
  5
163FB
330
7466
100
AcDbSymbolTableRecord
100
AcDbBlockTableRecord
  2
*D13
340
0
  0
BLOCK_RECORD
  5
165B5
330
7466
100
AcDbSymbolTableRecord
100
AcDbBlockTableRecord
  2
*D14
340
0
  0
BLOCK_RECORD
  5
165C4
330
7466
100
AcDbSymbolTableRecord
100
AcDbBlockTableRecord
  2
*D15
340
0
  0
BLOCK_RECORD
  5
165EA
330
7466
100
AcDbSymbolTableRecord
100
AcDbBlockTableRecord
  2
*D16
340
0
  0
BLOCK_RECORD
  5
166CF
330
7466
100
AcDbSymbolTableRecord
100
AcDbBlockTableRecord
  2
*D17
340
0
  0
BLOCK_RECORD
  5
16908
330
7466
100
AcDbSymbolTableRecord
100
AcDbBlockTableRecord
  2
*D18
340
0
  0
BLOCK_RECORD
  5
1741D
330
7466
100
AcDbSymbolTableRecord
100
AcDbBlockTableRecord
  2
*D19
340
0
  0
BLOCK_RECORD
  5
1742C
330
7466
100
AcDbSymbolTableRecord
100
AcDbBlockTableRecord
  2
*D20
340
0
  0
BLOCK_RECORD
  5
1743B
330
7466
100
AcDbSymbolTableRecord
100
AcDbBlockTableRecord
  2
*D21
340
0
  0
BLOCK_RECORD
  5
17446
330
7466
100
AcDbSymbolTableRecord
100
AcDbBlockTableRecord
  2
*D22
340
0
  0
BLOCK_RECORD
  5
17452
330
7466
100
AcDbSymbolTableRecord
100
AcDbBlockTableRecord
  2
*D23
340
0
  0
BLOCK_RECORD
  5
1745E
330
7466
100
AcDbSymbolTableRecord
100
AcDbBlockTableRecord
  2
*D24
340
0
  0
BLOCK_RECORD
  5
1746C
330
7466
100
AcDbSymbolTableRecord
100
AcDbBlockTableRecord
  2
*D25
340
0
  0
BLOCK_RECORD
  5
17F0B
330
7466
100
AcDbSymbolTableRecord
100
AcDbBlockTableRecord
  2
*D26
340
0
  0
BLOCK_RECORD
  5
17F19
330
7466
100
AcDbSymbolTableRecord
100
AcDbBlockTableRecord
  2
*D27
340
0
  0
BLOCK_RECORD
  5
17F25
330
7466
100
AcDbSymbolTableRecord
100
AcDbBlockTableRecord
  2
*D28
340
0
  0
BLOCK_RECORD
  5
1814D
330
7466
100
AcDbSymbolTableRecord
100
AcDbBlockTableRecord
  2
*D29
340
0
  0
BLOCK_RECORD
  5
18A3D
330
7466
100
AcDbSymbolTableRecord
100
AcDbBlockTableRecord
  2
*D30
340
0
  0
BLOCK_RECORD
  5
18A4A
330
7466
100
AcDbSymbolTableRecord
100
AcDbBlockTableRecord
  2
*D31
340
0
  0
BLOCK_RECORD
  5
18A57
330
7466
100
AcDbSymbolTableRecord
100
AcDbBlockTableRecord
  2
*D32
340
0
  0
BLOCK_RECORD
  5
18A63
330
7466
100
AcDbSymbolTableRecord
100
AcDbBlockTableRecord
  2
*D33
340
0
  0
BLOCK_RECORD
  5
18A71
330
7466
100
AcDbSymbolTableRecord
100
AcDbBlockTableRecord
  2
*D34
340
0
  0
BLOCK_RECORD
  5
18A7D
330
7466
100
AcDbSymbolTableRecord
100
AcDbBlockTableRecord
  2
*D35
340
0
  0
BLOCK_RECORD
  5
18A98
330
7466
100
AcDbSymbolTableRecord
100
AcDbBlockTableRecord
  2
*D36
340
0
  0
BLOCK_RECORD
  5
18AA4
330
7466
100
AcDbSymbolTableRecord
100
AcDbBlockTableRecord
  2
*D37
340
0
  0
BLOCK_RECORD
  5
18AB0
330
7466
100
AcDbSymbolTableRecord
100
AcDbBlockTableRecord
  2
*D38
340
0
  0
BLOCK_RECORD
  5
1925F
330
7466
100
AcDbSymbolTableRecord
100
AcDbBlockTableRecord
  2
*D39
340
0
  0
BLOCK_RECORD
  5
1926C
330
7466
100
AcDbSymbolTableRecord
100
AcDbBlockTableRecord
  2
*D40
340
0
  0
BLOCK_RECORD
  5
1927A
330
7466
100
AcDbSymbolTableRecord
100
AcDbBlockTableRecord
  2
*D41
340
0
  0
BLOCK_RECORD
  5
1970C
330
7466
100
AcDbSymbolTableRecord
100
AcDbBlockTableRecord
  2
*D42
340
0
  0
ENDTAB
  0
ENDSEC
  0
SECTION
  2
BLOCKS
  0
BLOCK
  5
7489
330
747D
100
AcDbEntity
  8
0
100
AcDbBlockBegin
  2
*MODEL_SPACE
 70
     0
 10
0.0
 20
0.0
 30
0.0
  3
*MODEL_SPACE
  1

  0
ENDBLK
  5
748A
330
747D
100
AcDbEntity
  8
0
100
AcDbBlockEnd
  0
BLOCK
  5
7487
330
747A
100
AcDbEntity
 67
     1
  8
0
100
AcDbBlockBegin
  2
*PAPER_SPACE
 70
     0
 10
0.0
 20
0.0
 30
0.0
  3
*PAPER_SPACE
  1

  0
ENDBLK
  5
7488
330
747A
100
AcDbEntity
 67
     1
  8
0
100
AcDbBlockEnd
  0
BLOCK
  5
F771
330
F770
100
AcDbEntity
  8
0
 48
50.0
100
AcDbBlockBegin
  2
_DOTSMALL
 70
     0
 10
0.0
 20
0.0
 30
0.0
  3
_DOTSMALL
  1

  0
LWPOLYLINE
  5
F772
330
F770
100
AcDbEntity
  8
0
  6
ByBlock
 62
     0
 48
50.0
100
AcDbPolyline
 90
        2
 70
     1
 43
0.5
 10
-0.0625
 20
0.0
 42
1.0
 10
0.0625
 20
0.0
 42
1.0
  0
ENDBLK
  5
F776
330
F770
100
AcDbEntity
  8
0
 48
50.0
100
AcDbBlockEnd
  0
BLOCK
  5
17330
330
16338
100
AcDbEntity
  8
0
 48
50.0
100
AcDbBlockBegin
  2
*D1
 70
     1
 10
0.0
 20
0.0
 30
0.0
  3
*D1
  1

  0
LINE
  5
19AF4
330
16338
100
AcDbEntity
  8
寸法
 62
     0
 48
50.0
370
    -2
100
AcDbLine
 10
9315.392427950968
 20
10237.49742454596
 30
0.0
 11
10002.81877368537
 21
10237.49742454596
 31
0.0
  0
LINE
  5
19AF5
330
16338
100
AcDbEntity
  8
寸法
 62
     0
 48
50.0
370
    -2
100
AcDbLine
 10
9315.392427950943
 20
7297.497424545952
 30
0.0
 11
10002.81877368537
 21
7297.497424545952
 31
0.0
  0
LINE
  5
19AF6
330
16338
100
AcDbEntity
  8
寸法
 62
     0
 48
50.0
370
    -2
100
AcDbLine
 10
9942.818773685374
 20
10237.49742454596
 30
0.0
 11
9942.818773685374
 21
7297.497424545952
 31
0.0
  0
INSERT
  5
19AF7
330
16338
100
AcDbEntity
  8
寸法
 62
     0
 48
50.0
370
    -2
100
AcDbBlockReference
  2
_DOTSMALL
 10
9942.818773685374
 20
10237.49742454596
 30
0.0
 41
100.0
 42
100.0
 43
100.0
 50
90.0
  0
INSERT
  5
19AF8
330
16338
100
AcDbEntity
  8
寸法
 62
     0
 48
50.0
370
    -2
100
AcDbBlockReference
  2
_DOTSMALL
 10
9942.818773685374
 20
7297.497424545952
 30
0.0
 41
100.0
 42
100.0
 43
100.0
 50
270.0
  0
MTEXT
  5
19AF9
330
16338
100
AcDbEntity
  8
寸法
 62
     7
 48
50.0
100
AcDbMText
 10
9842.806962661752
 20
8767.497424545963
 30
0.0
 40
120.0
 41
0.0
 71
     5
 72
     1
  1
\A1;7X420=2940
  7
STYLE1
 11
0.0000000000000001
 21
1.0
 31
0.0
 73
     1
 44
1.0
1001
ACAD
1000
MTEXTBEGIN
1070
    73
1070
     1
1070
    44
1040
1.0
1070
    74
1070
     0
1000
MTEXTEND
  0
POINT
  5
19AFA
330
16338
100
AcDbEntity
  8
DEFPOINTS
 62
     0
 48
50.0
100
AcDbPoint
 10
9295.392427950968
 20
10237.49742454596
 30
0.0
  0
POINT
  5
19AFB
330
16338
100
AcDbEntity
  8
DEFPOINTS
 62
     0
 48
50.0
100
AcDbPoint
 10
9295.392427950943
 20
7297.497424545952
 30
0.0
  0
POINT
  5
19AFC
330
16338
100
AcDbEntity
  8
DEFPOINTS
 62
     0
 48
50.0
100
AcDbPoint
 10
9942.818773685374
 20
7297.497424545952
 30
0.0
  0
ENDBLK
  5
1733A
330
16338
100
AcDbEntity
  8
0
 48
50.0
100
AcDbBlockEnd
  0
BLOCK
  5
16414
330
16344
100
AcDbEntity
  8
0
 48
50.0
100
AcDbBlockBegin
  2
*D2
 70
     1
 10
0.0
 20
0.0
 30
0.0
  3
*D2
  1

  0
LINE
  5
19AE9
330
16344
100
AcDbEntity
  8
寸法
 62
     0
 48
50.0
370
    -2
100
AcDbLine
 10
9315.392427950943
 20
7297.497424545952
 30
0.0
 11
10002.81877368535
 21
7297.497424545952
 31
0.0
  0
LINE
  5
19AEA
330
16344
100
AcDbEntity
  8
寸法
 62
     0
 48
50.0
370
    -2
100
AcDbLine
 10
9315.392427950943
 20
7242.497424545956
 30
0.0
 11
10002.81877368535
 21
7242.497424545956
 31
0.0
  0
LINE
  5
19AEB
330
16344
100
AcDbEntity
  8
寸法
 62
     0
 48
50.0
370
    -2
100
AcDbLine
 10
9942.818773685354
 20
7297.497424545952
 30
0.0
 11
9942.818773685354
 21
7397.497424545952
 31
0.0
  0
LINE
  5
19AEC
330
16344
100
AcDbEntity
  8
寸法
 62
     0
 48
50.0
370
    -2
100
AcDbLine
 10
9942.818773685354
 20
7242.497424545956
 30
0.0
 11
9942.818773685354
 21
6756.150676266854
 31
0.0
  0
LINE
  5
19AED
330
16344
100
AcDbEntity
  8
寸法
 62
     0
 48
50.0
370
    -2
100
AcDbLine
 10
9942.818773685354
 20
7297.497424545952
 30
0.0
 11
9942.818773685354
 21
7242.497424545956
 31
0.0
  0
INSERT
  5
19AEE
330
16344
100
AcDbEntity
  8
寸法
 62
     0
 48
50.0
370
    -2
100
AcDbBlockReference
  2
_DOTSMALL
 10
9942.818773685354
 20
7297.497424545952
 30
0.0
 41
100.0
 42
100.0
 43
100.0
 50
270.0
  0
INSERT
  5
19AEF
330
16344
100
AcDbEntity
  8
寸法
 62
     0
 48
50.0
370
    -2
100
AcDbBlockReference
  2
_DOTSMALL
 10
9942.818773685354
 20
7242.497424545956
 30
0.0
 41
100.0
 42
100.0
 43
100.0
 50
90.0
  0
MTEXT
  5
19AF0
330
16344
100
AcDbEntity
  8
寸法
 62
     7
 48
50.0
100
AcDbMText
 10
9842.818773685353
 20
6864.635957641095
 30
0.0
 40
120.0
 41
0.0
 71
     5
 72
     1
  1
\A1;55
  7
STYLE1
 11
0.0000000000000001
 21
1.0
 31
0.0
 73
     1
 44
1.0
1001
ACAD
1000
MTEXTBEGIN
1070
    73
1070
     1
1070
    44
1040
1.0
1070
    74
1070
     0
1000
MTEXTEND
  0
POINT
  5
19AF1
330
16344
100
AcDbEntity
  8
DEFPOINTS
 62
     0
 48
50.0
100
AcDbPoint
 10
9295.392427950943
 20
7297.497424545952
 30
0.0
  0
POINT
  5
19AF2
330
16344
100
AcDbEntity
  8
DEFPOINTS
 62
     0
 48
50.0
100
AcDbPoint
 10
9295.392427950943
 20
7242.497424545956
 30
0.0
  0
POINT
  5
19AF3
330
16344
100
AcDbEntity
  8
DEFPOINTS
 62
     0
 48
50.0
100
AcDbPoint
 10
9942.818773685354
 20
7242.497424545956
 30
0.0
  0
ENDBLK
  5
16420
330
16344
100
AcDbEntity
  8
0
 48
50.0
100
AcDbBlockEnd
  0
BLOCK
  5
16421
330
16352
100
AcDbEntity
  8
0
 48
50.0
100
AcDbBlockBegin
  2
*D3
 70
     1
 10
0.0
 20
0.0
 30
0.0
  3
*D3
  1

  0
LINE
  5
19ADE
330
16352
100
AcDbEntity
  8
寸法
 62
     0
 48
50.0
370
    -2
100
AcDbLine
 10
9315.392427950968
 20
10292.49742454596
 30
0.0
 11
10002.81877368538
 21
10292.49742454596
 31
0.0
  0
LINE
  5
19ADF
330
16352
100
AcDbEntity
  8
寸法
 62
     0
 48
50.0
370
    -2
100
AcDbLine
 10
9315.392427950968
 20
10237.49742454596
 30
0.0
 11
10002.81877368538
 21
10237.49742454596
 31
0.0
  0
LINE
  5
19AE0
330
16352
100
AcDbEntity
  8
寸法
 62
     0
 48
50.0
370
    -2
100
AcDbLine
 10
9942.818773685381
 20
10237.49742454596
 30
0.0
 11
9942.818773685381
 21
10137.49742454596
 31
0.0
  0
LINE
  5
19AE1
330
16352
100
AcDbEntity
  8
寸法
 62
     0
 48
50.0
370
    -2
100
AcDbLine
 10
9942.818773685381
 20
10292.49742454596
 30
0.0
 11
9942.818773685381
 21
10709.46798729444
 31
0.0
  0
LINE
  5
19AE2
330
16352
100
AcDbEntity
  8
寸法
 62
     0
 48
50.0
370
    -2
100
AcDbLine
 10
9942.818773685381
 20
10237.49742454596
 30
0.0
 11
9942.818773685381
 21
10292.49742454596
 31
0.0
  0
INSERT
  5
19AE3
330
16352
100
AcDbEntity
  8
寸法
 62
     0
 48
50.0
370
    -2
100
AcDbBlockReference
  2
_DOTSMALL
 10
9942.818773685381
 20
10237.49742454596
 30
0.0
 41
100.0
 42
100.0
 43
100.0
 50
90.0
  0
INSERT
  5
19AE4
330
16352
100
AcDbEntity
  8
寸法
 62
     0
 48
50.0
370
    -2
100
AcDbBlockReference
  2
_DOTSMALL
 10
9942.818773685381
 20
10292.49742454596
 30
0.0
 41
100.0
 42
100.0
 43
100.0
 50
270.0
  0
MTEXT
  5
19AE5
330
16352
100
AcDbEntity
  8
寸法
 62
     7
 48
50.0
100
AcDbMText
 10
9842.81877368538
 20
10600.9827059202
 30
0.0
 40
120.0
 41
0.0
 71
     5
 72
     1
  1
\A1;55
  7
STYLE1
 11
0.0000000000000001
 21
1.0
 31
0.0
 73
     1
 44
1.0
1001
ACAD
1000
MTEXTBEGIN
1070
    73
1070
     1
1070
    44
1040
1.0
1070
    74
1070
     0
1000
MTEXTEND
  0
POINT
  5
19AE6
330
16352
100
AcDbEntity
  8
DEFPOINTS
 62
     0
 48
50.0
100
AcDbPoint
 10
9295.392427950968
 20
10292.49742454596
 30
0.0
  0
POINT
  5
19AE7
330
16352
100
AcDbEntity
  8
DEFPOINTS
 62
     0
 48
50.0
100
AcDbPoint
 10
9295.392427950968
 20
10237.49742454596
 30
0.0
  0
POINT
  5
19AE8
330
16352
100
AcDbEntity
  8
DEFPOINTS
 62
     0
 48
50.0
100
AcDbPoint
 10
9942.818773685381
 20
10237.49742454596
 30
0.0
  0
ENDBLK
  5
1642D
330
16352
100
AcDbEntity
  8
0
 48
50.0
100
AcDbBlockEnd
  0
BLOCK
  5
1731A
330
16360
100
AcDbEntity
  8
0
 48
50.0
100
AcDbBlockBegin
  2
*D4
 70
     1
 10
0.0
 20
0.0
 30
0.0
  3
*D4
  1

  0
LINE
  5
19AD5
330
16360
100
AcDbEntity
  8
寸法
 62
     0
 48
50.0
370
    -2
100
AcDbLine
 10
9315.392427950968
 20
10292.49742454596
 30
0.0
 11
10367.92571542501
 21
10292.49742454596
 31
0.0
  0
LINE
  5
19AD6
330
16360
100
AcDbEntity
  8
寸法
 62
     0
 48
50.0
370
    -2
100
AcDbLine
 10
9315.392427950943
 20
7242.497424545956
 30
0.0
 11
10367.92571542501
 21
7242.497424545955
 31
0.0
  0
LINE
  5
19AD7
330
16360
100
AcDbEntity
  8
寸法
 62
     0
 48
50.0
370
    -2
100
AcDbLine
 10
10307.92571542501
 20
10292.49742454596
 30
0.0
 11
10307.92571542501
 21
7242.497424545955
 31
0.0
  0
INSERT
  5
19AD8
330
16360
100
AcDbEntity
  8
寸法
 62
     0
 48
50.0
370
    -2
100
AcDbBlockReference
  2
_DOTSMALL
 10
10307.92571542501
 20
10292.49742454596
 30
0.0
 41
100.0
 42
100.0
 43
100.0
 50
90.0
  0
INSERT
  5
19AD9
330
16360
100
AcDbEntity
  8
寸法
 62
     0
 48
50.0
370
    -2
100
AcDbBlockReference
  2
_DOTSMALL
 10
10307.92571542501
 20
7242.497424545955
 30
0.0
 41
100.0
 42
100.0
 43
100.0
 50
270.0
  0
MTEXT
  5
19ADA
330
16360
100
AcDbEntity
  8
寸法
 62
     7
 48
50.0
100
AcDbMText
 10
10207.92571542501
 20
8767.497424545963
 30
0.0
 40
120.0
 41
0.0
 71
     5
 72
     1
  1
\A1;3050
  7
STYLE1
 11
0.0000000000000001
 21
1.0
 31
0.0
 73
     1
 44
1.0
1001
ACAD
1000
MTEXTBEGIN
1070
    73
1070
     1
1070
    44
1040
1.0
1070
    74
1070
     0
1000
MTEXTEND
  0
POINT
  5
19ADB
330
16360
100
AcDbEntity
  8
DEFPOINTS
 62
     0
 48
50.0
100
AcDbPoint
 10
9295.392427950968
 20
10292.49742454596
 30
0.0
  0
POINT
  5
19ADC
330
16360
100
AcDbEntity
  8
DEFPOINTS
 62
     0
 48
50.0
100
AcDbPoint
 10
9295.392427950943
 20
7242.497424545956
 30
0.0
  0
POINT
  5
19ADD
330
16360
100
AcDbEntity
  8
DEFPOINTS
 62
     0
 48
50.0
100
AcDbPoint
 10
10307.92571542501
 20
7242.497424545955
 30
0.0
  0
ENDBLK
  5
17324
330
16360
100
AcDbEntity
  8
0
 48
50.0
100
AcDbBlockEnd
  0
BLOCK
  5
1644F
330
16384
100
AcDbEntity
  8
0
 48
50.0
100
AcDbBlockBegin
  2
*D5
 70
     1
 10
0.0
 20
0.0
 30
0.0
  3
*D5
  1

  0
LINE
  5
19ACD
330
16384
100
AcDbEntity
  8
寸法
 62
     0
 48
50.0
370
    -2
100
AcDbLine
 10
6768.392427950961
 20
7248.497424545864
 30
0.0
 11
6768.392427950961
 21
6648.0666537797
 31
0.0
  0
LINE
  5
19ACE
330
16384
100
AcDbEntity
  8
寸法
 62
     0
 48
50.0
370
    -2
100
AcDbLine
 10
9192.392427950943
 20
6708.0666537797
 30
0.0
 11
6768.392427950961
 21
6708.0666537797
 31
0.0
  0
INSERT
  5
19ACF
330
16384
100
AcDbEntity
  8
寸法
 62
     0
 48
50.0
370
    -2
100
AcDbBlockReference
  2
_DOTSMALL
 10
9192.392427950943
 20
6708.0666537797
 30
0.0
 41
100.0
 42
100.0
 43
100.0
  0
INSERT
  5
19AD0
330
16384
100
AcDbEntity
  8
寸法
 62
     0
 48
50.0
370
    -2
100
AcDbBlockReference
  2
_DOTSMALL
 10
6768.392427950961
 20
6708.0666537797
 30
0.0
 41
100.0
 42
100.0
 43
100.0
 50
180.0
  0
MTEXT
  5
19AD1
330
16384
100
AcDbEntity
  8
寸法
 62
     7
 48
50.0
100
AcDbMText
 10
7980.392427950952
 20
6808.078464803323
 30
0.0
 40
120.0
 41
0.0
 71
     5
 72
     1
  1
\A1;有効開口部間口 2424
  7
STYLE1
 73
     1
 44
1.0
1001
ACAD
1000
MTEXTBEGIN
1070
    73
1070
     1
1070
    44
1040
1.0
1070
    74
1070
     0
1000
MTEXTEND
  0
POINT
  5
19AD2
330
16384
100
AcDbEntity
  8
DEFPOINTS
 62
     0
 48
50.0
100
AcDbPoint
 10
9192.392427950943
 20
7268.497424545865
 30
0.0
  0
POINT
  5
19AD3
330
16384
100
AcDbEntity
  8
DEFPOINTS
 62
     0
 48
50.0
100
AcDbPoint
 10
6768.392427950961
 20
7268.497424545865
 30
0.0
  0
POINT
  5
19AD4
330
16384
100
AcDbEntity
  8
DEFPOINTS
 62
     0
 48
50.0
100
AcDbPoint
 10
6768.392427950961
 20
6708.0666537797
 30
0.0
  0
ENDBLK
  5
16458
330
16384
100
AcDbEntity
  8
0
 48
50.0
100
AcDbBlockEnd
  0
BLOCK
  5
17517
330
1638F
100
AcDbEntity
  8
0
 48
50.0
100
AcDbBlockBegin
  2
*D6
 70
     1
 10
0.0
 20
0.0
 30
0.0
  3
*D6
  1

  0
LINE
  5
19AC4
330
1638F
100
AcDbEntity
  8
寸法
 62
     0
 48
50.0
370
    -2
100
AcDbLine
 10
1405.392427950961
 20
7222.497424545861
 30
0.0
 11
1405.392427950961
 21
6201.893658188827
 31
0.0
  0
LINE
  5
19AC5
330
1638F
100
AcDbEntity
  8
寸法
 62
     0
 48
50.0
370
    -2
100
AcDbLine
 10
9295.392427950933
 20
7222.497424545956
 30
0.0
 11
9295.392427950933
 21
6201.893658188827
 31
0.0
  0
LINE
  5
19AC6
330
1638F
100
AcDbEntity
  8
寸法
 62
     0
 48
50.0
370
    -2
100
AcDbLine
 10
1405.392427950961
 20
6261.893658188826
 30
0.0
 11
9295.392427950933
 21
6261.893658188826
 31
0.0
  0
INSERT
  5
19AC7
330
1638F
100
AcDbEntity
  8
寸法
 62
     0
 48
50.0
370
    -2
100
AcDbBlockReference
  2
_DOTSMALL
 10
1405.392427950961
 20
6261.893658188826
 30
0.0
 41
100.0
 42
100.0
 43
100.0
 50
180.0
  0
INSERT
  5
19AC8
330
1638F
100
AcDbEntity
  8
寸法
 62
     0
 48
50.0
370
    -2
100
AcDbBlockReference
  2
_DOTSMALL
 10
9295.392427950933
 20
6261.893658188826
 30
0.0
 41
100.0
 42
100.0
 43
100.0
  0
MTEXT
  5
19AC9
330
1638F
100
AcDbEntity
  8
寸法
 62
     7
 48
50.0
100
AcDbMText
 10
5350.392427950946
 20
6361.905469212448
 30
0.0
 40
120.0
 41
0.0
 71
     5
 72
     1
  1
\A1;N X 2630
  7
STYLE1
 73
     1
 44
1.0
1001
ACAD
1000
MTEXTBEGIN
1070
    73
1070
     1
1070
    44
1040
1.0
1070
    74
1070
     0
1000
MTEXTEND
  0
POINT
  5
19ACA
330
1638F
100
AcDbEntity
  8
DEFPOINTS
 62
     0
 48
50.0
100
AcDbPoint
 10
1405.392427950961
 20
7242.497424545861
 30
0.0
  0
POINT
  5
19ACB
330
1638F
100
AcDbEntity
  8
DEFPOINTS
 62
     0
 48
50.0
100
AcDbPoint
 10
9295.392427950933
 20
7242.497424545956
 30
0.0
  0
POINT
  5
19ACC
330
1638F
100
AcDbEntity
  8
DEFPOINTS
 62
     0
 48
50.0
100
AcDbPoint
 10
9295.392427950933
 20
6261.893658188826
 30
0.0
  0
ENDBLK
  5
17521
330
1638F
100
AcDbEntity
  8
0
 48
50.0
100
AcDbBlockEnd
  0
BLOCK
  5
16464
330
1639B
100
AcDbEntity
  8
0
 48
50.0
100
AcDbBlockBegin
  2
*D7
 70
     1
 10
0.0
 20
0.0
 30
0.0
  3
*D7
  1

  0
LINE
  5
19AB9
330
1639B
100
AcDbEntity
  8
寸法
 62
     0
 48
50.0
370
    -2
100
AcDbLine
 10
1460.392427950957
 20
7222.497424545863
 30
0.0
 11
1460.392427950957
 21
6648.0666537797
 31
0.0
  0
LINE
  5
19ABA
330
1639B
100
AcDbEntity
  8
寸法
 62
     0
 48
50.0
370
    -2
100
AcDbLine
 10
1405.392427950961
 20
7222.497424545861
 30
0.0
 11
1405.392427950961
 21
6648.0666537797
 31
0.0
  0
LINE
  5
19ABB
330
1639B
100
AcDbEntity
  8
寸法
 62
     0
 48
50.0
370
    -2
100
AcDbLine
 10
1460.392427950957
 20
6708.0666537797
 30
0.0
 11
1560.392427950957
 21
6708.0666537797
 31
0.0
  0
LINE
  5
19ABC
330
1639B
100
AcDbEntity
  8
寸法
 62
     0
 48
50.0
370
    -2
100
AcDbLine
 10
1405.392427950961
 20
6708.0666537797
 30
0.0
 11
988.421865202484
 21
6708.0666537797
 31
0.0
  0
LINE
  5
19ABD
330
1639B
100
AcDbEntity
  8
寸法
 62
     0
 48
50.0
370
    -2
100
AcDbLine
 10
1460.392427950957
 20
6708.0666537797
 30
0.0
 11
1405.392427950961
 21
6708.0666537797
 31
0.0
  0
INSERT
  5
19ABE
330
1639B
100
AcDbEntity
  8
寸法
 62
     0
 48
50.0
370
    -2
100
AcDbBlockReference
  2
_DOTSMALL
 10
1460.392427950957
 20
6708.0666537797
 30
0.0
 41
100.0
 42
100.0
 43
100.0
 50
180.0
  0
INSERT
  5
19ABF
330
1639B
100
AcDbEntity
  8
寸法
 62
     0
 48
50.0
370
    -2
100
AcDbBlockReference
  2
_DOTSMALL
 10
1405.392427950961
 20
6708.0666537797
 30
0.0
 41
100.0
 42
100.0
 43
100.0
  0
MTEXT
  5
19AC0
330
1639B
100
AcDbEntity
  8
寸法
 62
     7
 48
50.0
100
AcDbMText
 10
1096.907146576722
 20
6808.0666537797
 30
0.0
 40
120.0
 41
0.0
 71
     5
 72
     1
  1
\A1;55
  7
STYLE1
 73
     1
 44
1.0
1001
ACAD
1000
MTEXTBEGIN
1070
    73
1070
     1
1070
    44
1040
1.0
1070
    74
1070
     0
1000
MTEXTEND
  0
POINT
  5
19AC1
330
1639B
100
AcDbEntity
  8
DEFPOINTS
 62
     0
 48
50.0
100
AcDbPoint
 10
1460.392427950957
 20
7242.497424545864
 30
0.0
  0
POINT
  5
19AC2
330
1639B
100
AcDbEntity
  8
DEFPOINTS
 62
     0
 48
50.0
100
AcDbPoint
 10
1405.392427950961
 20
7242.497424545861
 30
0.0
  0
POINT
  5
19AC3
330
1639B
100
AcDbEntity
  8
DEFPOINTS
 62
     0
 48
50.0
100
AcDbPoint
 10
1405.392427950961
 20
6708.0666537797
 30
0.0
  0
ENDBLK
  5
16470
330
1639B
100
AcDbEntity
  8
0
 48
50.0
100
AcDbBlockEnd
  0
BLOCK
  5
16471
330
163A9
100
AcDbEntity
  8
0
 48
50.0
100
AcDbBlockBegin
  2
*D8
 70
     1
 10
0.0
 20
0.0
 30
0.0
  3
*D8
  1

  0
LINE
  5
19AAE
330
163A9
100
AcDbEntity
  8
寸法
 62
     0
 48
50.0
370
    -2
100
AcDbLine
 10
6768.392427950961
 20
7248.497424545864
 30
0.0
 11
6768.392427950961
 21
6648.0666537797
 31
0.0
  0
LINE
  5
19AAF
330
163A9
100
AcDbEntity
  8
寸法
 62
     0
 48
50.0
370
    -2
100
AcDbLine
 10
6720.392427950958
 20
7222.497424545863
 30
0.0
 11
6720.392427950958
 21
6648.0666537797
 31
0.0
  0
LINE
  5
19AB0
330
163A9
100
AcDbEntity
  8
寸法
 62
     0
 48
50.0
370
    -2
100
AcDbLine
 10
6768.392427950961
 20
6708.0666537797
 30
0.0
 11
6868.392427950961
 21
6708.0666537797
 31
0.0
  0
LINE
  5
19AB1
330
163A9
100
AcDbEntity
  8
寸法
 62
     0
 48
50.0
370
    -2
100
AcDbLine
 10
6720.392427950958
 20
6708.0666537797
 30
0.0
 11
6620.392427950958
 21
6708.0666537797
 31
0.0
  0
MTEXT
  5
19AB2
330
163A9
100
AcDbEntity
  8
寸法
 62
     7
 48
50.0
100
AcDbMText
 10
6881.294398951019
 20
6808.0666537797
 30
0.0
 40
120.0
 41
0.0
 71
     5
 72
     1
  1
\A1;48
  7
STYLE1
 73
     1
 44
1.0
1001
ACAD
1000
MTEXTBEGIN
1070
    73
1070
     1
1070
    44
1040
1.0
1070
    74
1070
     0
1000
MTEXTEND
  0
LINE
  5
19AB3
330
163A9
100
AcDbEntity
  8
寸法
 62
     0
 48
50.0
370
    -2
100
AcDbLine
 10
6768.392427950961
 20
6708.0666537797
 30
0.0
 11
6720.392427950958
 21
6708.0666537797
 31
0.0
  0
INSERT
  5
19AB4
330
163A9
100
AcDbEntity
  8
寸法
 62
     0
 48
50.0
370
    -2
100
AcDbBlockReference
  2
_DOTSMALL
 10
6768.392427950961
 20
6708.0666537797
 30
0.0
 41
100.0
 42
100.0
 43
100.0
 50
180.0
  0
INSERT
  5
19AB5
330
163A9
100
AcDbEntity
  8
寸法
 62
     0
 48
50.0
370
    -2
100
AcDbBlockReference
  2
_DOTSMALL
 10
6720.392427950958
 20
6708.0666537797
 30
0.0
 41
100.0
 42
100.0
 43
100.0
  0
POINT
  5
19AB6
330
163A9
100
AcDbEntity
  8
DEFPOINTS
 62
     0
 48
50.0
100
AcDbPoint
 10
6768.392427950961
 20
7268.497424545865
 30
0.0
  0
POINT
  5
19AB7
330
163A9
100
AcDbEntity
  8
DEFPOINTS
 62
     0
 48
50.0
100
AcDbPoint
 10
6720.392427950958
 20
7242.497424545864
 30
0.0
  0
POINT
  5
19AB8
330
163A9
100
AcDbEntity
  8
DEFPOINTS
 62
     0
 48
50.0
100
AcDbPoint
 10
6720.392427950958
 20
6708.0666537797
 30
0.0
  0
ENDBLK
  5
1647E
330
163A9
100
AcDbEntity
  8
0
 48
50.0
100
AcDbBlockEnd
  0
BLOCK
  5
1647F
330
163B8
100
AcDbEntity
  8
0
 48
50.0
100
AcDbBlockBegin
  2
*D9
 70
     1
 10
0.0
 20
0.0
 30
0.0
  3
*D9
  1

  0
LINE
  5
19AA3
330
163B8
100
AcDbEntity
  8
寸法
 62
     0
 48
50.0
370
    -2
100
AcDbLine
 10
9240.392427950945
 20
7222.497424545952
 30
0.0
 11
9240.392427950945
 21
6648.0666537797
 31
0.0
  0
LINE
  5
19AA4
330
163B8
100
AcDbEntity
  8
寸法
 62
     0
 48
50.0
370
    -2
100
AcDbLine
 10
9192.392427950943
 20
7248.497424545866
 30
0.0
 11
9192.392427950943
 21
6648.0666537797
 31
0.0
  0
LINE
  5
19AA5
330
163B8
100
AcDbEntity
  8
寸法
 62
     0
 48
50.0
370
    -2
100
AcDbLine
 10
9240.392427950945
 20
6708.0666537797
 30
0.0
 11
9340.392427950945
 21
6708.0666537797
 31
0.0
  0
LINE
  5
19AA6
330
163B8
100
AcDbEntity
  8
寸法
 62
     0
 48
50.0
370
    -2
100
AcDbLine
 10
9192.392427950943
 20
6708.0666537797
 30
0.0
 11
9092.392427950944
 21
6708.0666537797
 31
0.0
  0
MTEXT
  5
19AA7
330
163B8
100
AcDbEntity
  8
寸法
 62
     7
 48
50.0
100
AcDbMText
 10
9081.429530302195
 20
6808.0666537797
 30
0.0
 40
120.0
 41
0.0
 71
     5
 72
     1
  1
\A1;48
  7
STYLE1
 73
     1
 44
1.0
1001
ACAD
1000
MTEXTBEGIN
1070
    73
1070
     1
1070
    44
1040
1.0
1070
    74
1070
     0
1000
MTEXTEND
  0
LINE
  5
19AA8
330
163B8
100
AcDbEntity
  8
寸法
 62
     0
 48
50.0
370
    -2
100
AcDbLine
 10
9240.392427950945
 20
6708.0666537797
 30
0.0
 11
9192.392427950943
 21
6708.0666537797
 31
0.0
  0
INSERT
  5
19AA9
330
163B8
100
AcDbEntity
  8
寸法
 62
     0
 48
50.0
370
    -2
100
AcDbBlockReference
  2
_DOTSMALL
 10
9240.392427950945
 20
6708.0666537797
 30
0.0
 41
100.0
 42
100.0
 43
100.0
 50
180.0
  0
INSERT
  5
19AAA
330
163B8
100
AcDbEntity
  8
寸法
 62
     0
 48
50.0
370
    -2
100
AcDbBlockReference
  2
_DOTSMALL
 10
9192.392427950943
 20
6708.0666537797
 30
0.0
 41
100.0
 42
100.0
 43
100.0
  0
POINT
  5
19AAB
330
163B8
100
AcDbEntity
  8
DEFPOINTS
 62
     0
 48
50.0
100
AcDbPoint
 10
9240.392427950945
 20
7242.497424545952
 30
0.0
  0
POINT
  5
19AAC
330
163B8
100
AcDbEntity
  8
DEFPOINTS
 62
     0
 48
50.0
100
AcDbPoint
 10
9192.392427950943
 20
7268.497424545865
 30
0.0
  0
POINT
  5
19AAD
330
163B8
100
AcDbEntity
  8
DEFPOINTS
 62
     0
 48
50.0
100
AcDbPoint
 10
9192.392427950943
 20
6708.0666537797
 30
0.0
  0
ENDBLK
  5
1648C
330
163B8
100
AcDbEntity
  8
0
 48
50.0
100
AcDbBlockEnd
  0
BLOCK
  5
1648D
330
163C7
100
AcDbEntity
  8
0
 48
50.0
100
AcDbBlockBegin
  2
*D10
 70
     1
 10
0.0
 20
0.0
 30
0.0
  3
*D10
  1

  0
LINE
  5
19A98
330
163C7
100
AcDbEntity
  8
寸法
 62
     0
 48
50.0
370
    -2
100
AcDbLine
 10
9295.392427950943
 20
7222.497424545956
 30
0.0
 11
9295.392427950943
 21
6648.066653779702
 31
0.0
  0
LINE
  5
19A99
330
163C7
100
AcDbEntity
  8
寸法
 62
     0
 48
50.0
370
    -2
100
AcDbLine
 10
9240.392427950945
 20
7222.497424545952
 30
0.0
 11
9240.392427950945
 21
6648.066653779702
 31
0.0
  0
LINE
  5
19A9A
330
163C7
100
AcDbEntity
  8
寸法
 62
     0
 48
50.0
370
    -2
100
AcDbLine
 10
9240.392427950945
 20
6708.066653779702
 30
0.0
 11
9140.392427950946
 21
6708.066653779702
 31
0.0
  0
LINE
  5
19A9B
330
163C7
100
AcDbEntity
  8
寸法
 62
     0
 48
50.0
370
    -2
100
AcDbLine
 10
9295.392427950943
 20
6708.066653779702
 30
0.0
 11
9712.362990699419
 21
6708.066653779702
 31
0.0
  0
LINE
  5
19A9C
330
163C7
100
AcDbEntity
  8
寸法
 62
     0
 48
50.0
370
    -2
100
AcDbLine
 10
9240.392427950945
 20
6708.066653779702
 30
0.0
 11
9295.392427950943
 21
6708.066653779702
 31
0.0
  0
INSERT
  5
19A9D
330
163C7
100
AcDbEntity
  8
寸法
 62
     0
 48
50.0
370
    -2
100
AcDbBlockReference
  2
_DOTSMALL
 10
9240.392427950945
 20
6708.066653779702
 30
0.0
 41
100.0
 42
100.0
 43
100.0
  0
INSERT
  5
19A9E
330
163C7
100
AcDbEntity
  8
寸法
 62
     0
 48
50.0
370
    -2
100
AcDbBlockReference
  2
_DOTSMALL
 10
9295.392427950943
 20
6708.066653779702
 30
0.0
 41
100.0
 42
100.0
 43
100.0
 50
180.0
  0
MTEXT
  5
19A9F
330
163C7
100
AcDbEntity
  8
寸法
 62
     7
 48
50.0
100
AcDbMText
 10
9603.877709325182
 20
6808.066653779701
 30
0.0
 40
120.0
 41
0.0
 71
     5
 72
     1
  1
\A1;55
  7
STYLE1
 73
     1
 44
1.0
1001
ACAD
1000
MTEXTBEGIN
1070
    73
1070
     1
1070
    44
1040
1.0
1070
    74
1070
     0
1000
MTEXTEND
  0
POINT
  5
19AA0
330
163C7
100
AcDbEntity
  8
DEFPOINTS
 62
     0
 48
50.0
100
AcDbPoint
 10
9295.392427950943
 20
7242.497424545956
 30
0.0
  0
POINT
  5
19AA1
330
163C7
100
AcDbEntity
  8
DEFPOINTS
 62
     0
 48
50.0
100
AcDbPoint
 10
9240.392427950945
 20
7242.497424545952
 30
0.0
  0
POINT
  5
19AA2
330
163C7
100
AcDbEntity
  8
DEFPOINTS
 62
     0
 48
50.0
100
AcDbPoint
 10
9240.392427950945
 20
6708.066653779702
 30
0.0
  0
ENDBLK
  5
16499
330
163C7
100
AcDbEntity
  8
0
 48
50.0
100
AcDbBlockEnd
  0
BLOCK
  5
1661C
330
163E1
100
AcDbEntity
  8
0
 48
50.0
100
AcDbBlockBegin
  2
*D11
 70
     1
 10
0.0
 20
0.0
 30
0.0
  3
*D11
  1

  0
LINE
  5
19A8F
330
163E1
100
AcDbEntity
  8
寸法
 62
     0
 48
50.0
370
    -2
100
AcDbLine
 10
6720.392427950968
 20
10312.49742454587
 30
0.0
 11
6720.392427950968
 21
10568.30564417096
 31
0.0
  0
LINE
  5
19A90
330
163E1
100
AcDbEntity
  8
寸法
 62
     0
 48
50.0
370
    -2
100
AcDbLine
 10
9240.392427950968
 20
10312.49742454596
 30
0.0
 11
9240.392427950968
 21
10568.30564417096
 31
0.0
  0
LINE
  5
19A91
330
163E1
100
AcDbEntity
  8
寸法
 62
     0
 48
50.0
370
    -2
100
AcDbLine
 10
6720.392427950968
 20
10508.30564417096
 30
0.0
 11
9240.392427950968
 21
10508.30564417096
 31
0.0
  0
INSERT
  5
19A92
330
163E1
100
AcDbEntity
  8
寸法
 62
     0
 48
50.0
370
    -2
100
AcDbBlockReference
  2
_DOTSMALL
 10
6720.392427950968
 20
10508.30564417096
 30
0.0
 41
100.0
 42
100.0
 43
100.0
 50
180.0
  0
INSERT
  5
19A93
330
163E1
100
AcDbEntity
  8
寸法
 62
     0
 48
50.0
370
    -2
100
AcDbBlockReference
  2
_DOTSMALL
 10
9240.392427950968
 20
10508.30564417096
 30
0.0
 41
100.0
 42
100.0
 43
100.0
  0
MTEXT
  5
19A94
330
163E1
100
AcDbEntity
  8
寸法
 62
     7
 48
50.0
100
AcDbMText
 10
7980.392427950969
 20
10608.31745519459
 30
0.0
 40
120.0
 41
0.0
 71
     5
 72
     1
  1
\A1;6X420=2520
  7
STYLE1
 73
     1
 44
1.0
1001
ACAD
1000
MTEXTBEGIN
1070
    73
1070
     1
1070
    44
1040
1.0
1070
    74
1070
     0
1000
MTEXTEND
  0
POINT
  5
19A95
330
163E1
100
AcDbEntity
  8
DEFPOINTS
 62
     0
 48
50.0
100
AcDbPoint
 10
6720.392427950968
 20
10292.49742454587
 30
0.0
  0
POINT
  5
19A96
330
163E1
100
AcDbEntity
  8
DEFPOINTS
 62
     0
 48
50.0
100
AcDbPoint
 10
9240.392427950968
 20
10292.49742454596
 30
0.0
  0
POINT
  5
19A97
330
163E1
100
AcDbEntity
  8
DEFPOINTS
 62
     0
 48
50.0
100
AcDbPoint
 10
9240.392427950968
 20
10508.30564417096
 30
0.0
  0
ENDBLK
  5
16626
330
163E1
100
AcDbEntity
  8
0
 48
50.0
100
AcDbBlockEnd
  0
BLOCK
  5
164B0
330
163ED
100
AcDbEntity
  8
0
 48
50.0
100
AcDbBlockBegin
  2
*D12
 70
     1
 10
0.0
 20
0.0
 30
0.0
  3
*D12
  1

  0
LINE
  5
19A84
330
163ED
100
AcDbEntity
  8
寸法
 62
     0
 48
50.0
370
    -2
100
AcDbLine
 10
1405.392427950933
 20
10312.49742454587
 30
0.0
 11
1405.392427950933
 21
10568.30564417085
 31
0.0
  0
LINE
  5
19A85
330
163ED
100
AcDbEntity
  8
寸法
 62
     0
 48
50.0
370
    -2
100
AcDbLine
 10
1460.392427950967
 20
10312.49742454587
 30
0.0
 11
1460.392427950967
 21
10568.30564417085
 31
0.0
  0
LINE
  5
19A86
330
163ED
100
AcDbEntity
  8
寸法
 62
     0
 48
50.0
370
    -2
100
AcDbLine
 10
1460.392427950967
 20
10508.30564417085
 30
0.0
 11
1560.392427950967
 21
10508.30564417085
 31
0.0
  0
LINE
  5
19A87
330
163ED
100
AcDbEntity
  8
寸法
 62
     0
 48
50.0
370
    -2
100
AcDbLine
 10
1405.392427950933
 20
10508.30564417085
 30
0.0
 11
988.4218652024557
 21
10508.30564417085
 31
0.0
  0
LINE
  5
19A88
330
163ED
100
AcDbEntity
  8
寸法
 62
     0
 48
50.0
370
    -2
100
AcDbLine
 10
1460.392427950967
 20
10508.30564417085
 30
0.0
 11
1405.392427950933
 21
10508.30564417085
 31
0.0
  0
INSERT
  5
19A89
330
163ED
100
AcDbEntity
  8
寸法
 62
     0
 48
50.0
370
    -2
100
AcDbBlockReference
  2
_DOTSMALL
 10
1460.392427950967
 20
10508.30564417085
 30
0.0
 41
100.0
 42
100.0
 43
100.0
 50
180.0
  0
INSERT
  5
19A8A
330
163ED
100
AcDbEntity
  8
寸法
 62
     0
 48
50.0
370
    -2
100
AcDbBlockReference
  2
_DOTSMALL
 10
1405.392427950933
 20
10508.30564417085
 30
0.0
 41
100.0
 42
100.0
 43
100.0
  0
MTEXT
  5
19A8B
330
163ED
100
AcDbEntity
  8
寸法
 62
     7
 48
50.0
100
AcDbMText
 10
1096.907146576694
 20
10608.30564417085
 30
0.0
 40
120.0
 41
0.0
 71
     5
 72
     1
  1
\A1;55
  7
STYLE1
 73
     1
 44
1.0
1001
ACAD
1000
MTEXTBEGIN
1070
    73
1070
     1
1070
    44
1040
1.0
1070
    74
1070
     0
1000
MTEXTEND
  0
POINT
  5
19A8C
330
163ED
100
AcDbEntity
  8
DEFPOINTS
 62
     0
 48
50.0
100
AcDbPoint
 10
1405.392427950933
 20
10292.49742454587
 30
0.0
  0
POINT
  5
19A8D
330
163ED
100
AcDbEntity
  8
DEFPOINTS
 62
     0
 48
50.0
100
AcDbPoint
 10
1460.392427950967
 20
10292.49742454587
 30
0.0
  0
POINT
  5
19A8E
330
163ED
100
AcDbEntity
  8
DEFPOINTS
 62
     0
 48
50.0
100
AcDbPoint
 10
1460.392427950967
 20
10508.30564417085
 30
0.0
  0
ENDBLK
  5
164BC
330
163ED
100
AcDbEntity
  8
0
 48
50.0
100
AcDbBlockEnd
  0
BLOCK
  5
164BD
330
163FB
100
AcDbEntity
  8
0
 48
50.0
100
AcDbBlockBegin
  2
*D13
 70
     1
 10
0.0
 20
0.0
 30
0.0
  3
*D13
  1

  0
LINE
  5
19A79
330
163FB
100
AcDbEntity
  8
寸法
 62
     0
 48
50.0
370
    -2
100
AcDbLine
 10
9240.392427950968
 20
10312.49742454596
 30
0.0
 11
9240.392427950968
 21
10568.30564417095
 31
0.0
  0
LINE
  5
19A7A
330
163FB
100
AcDbEntity
  8
寸法
 62
     0
 48
50.0
370
    -2
100
AcDbLine
 10
9295.392427950968
 20
10312.49742454596
 30
0.0
 11
9295.392427950968
 21
10568.30564417095
 31
0.0
  0
LINE
  5
19A7B
330
163FB
100
AcDbEntity
  8
寸法
 62
     0
 48
50.0
370
    -2
100
AcDbLine
 10
9240.392427950968
 20
10508.30564417095
 30
0.0
 11
9140.392427950969
 21
10508.30564417095
 31
0.0
  0
LINE
  5
19A7C
330
163FB
100
AcDbEntity
  8
寸法
 62
     0
 48
50.0
370
    -2
100
AcDbLine
 10
9295.392427950968
 20
10508.30564417095
 30
0.0
 11
9712.362990699446
 21
10508.30564417095
 31
0.0
  0
LINE
  5
19A7D
330
163FB
100
AcDbEntity
  8
寸法
 62
     0
 48
50.0
370
    -2
100
AcDbLine
 10
9240.392427950968
 20
10508.30564417095
 30
0.0
 11
9295.392427950968
 21
10508.30564417095
 31
0.0
  0
INSERT
  5
19A7E
330
163FB
100
AcDbEntity
  8
寸法
 62
     0
 48
50.0
370
    -2
100
AcDbBlockReference
  2
_DOTSMALL
 10
9240.392427950968
 20
10508.30564417095
 30
0.0
 41
100.0
 42
100.0
 43
100.0
  0
INSERT
  5
19A7F
330
163FB
100
AcDbEntity
  8
寸法
 62
     0
 48
50.0
370
    -2
100
AcDbBlockReference
  2
_DOTSMALL
 10
9295.392427950968
 20
10508.30564417095
 30
0.0
 41
100.0
 42
100.0
 43
100.0
 50
180.0
  0
MTEXT
  5
19A80
330
163FB
100
AcDbEntity
  8
寸法
 62
     7
 48
50.0
100
AcDbMText
 10
9603.877709325207
 20
10608.30564417095
 30
0.0
 40
120.0
 41
0.0
 71
     5
 72
     1
  1
\A1;55
  7
STYLE1
 73
     1
 44
1.0
1001
ACAD
1000
MTEXTBEGIN
1070
    73
1070
     1
1070
    44
1040
1.0
1070
    74
1070
     0
1000
MTEXTEND
  0
POINT
  5
19A81
330
163FB
100
AcDbEntity
  8
DEFPOINTS
 62
     0
 48
50.0
100
AcDbPoint
 10
9240.392427950968
 20
10292.49742454596
 30
0.0
  0
POINT
  5
19A82
330
163FB
100
AcDbEntity
  8
DEFPOINTS
 62
     0
 48
50.0
100
AcDbPoint
 10
9295.392427950968
 20
10292.49742454596
 30
0.0
  0
POINT
  5
19A83
330
163FB
100
AcDbEntity
  8
DEFPOINTS
 62
     0
 48
50.0
100
AcDbPoint
 10
9295.392427950968
 20
10508.30564417095
 30
0.0
  0
ENDBLK
  5
164C9
330
163FB
100
AcDbEntity
  8
0
 48
50.0
100
AcDbBlockEnd
  0
BLOCK
  5
165B6
330
165B5
100
AcDbEntity
  8
0
 48
50.0
100
AcDbBlockBegin
  2
*D14
 70
     1
 10
0.0
 20
0.0
 30
0.0
  3
*D14
  1

  0
LINE
  5
19A63
330
165B5
100
AcDbEntity
  8
寸法
 62
     0
 48
50.0
370
    -2
100
AcDbLine
 10
1508.392427950961
 20
7248.497424545864
 30
0.0
 11
1508.392427950961
 21
6648.0666537797
 31
0.0
  0
LINE
  5
19A64
330
165B5
100
AcDbEntity
  8
寸法
 62
     0
 48
50.0
370
    -2
100
AcDbLine
 10
1460.392427950957
 20
7222.497424545863
 30
0.0
 11
1460.392427950957
 21
6648.0666537797
 31
0.0
  0
LINE
  5
19A65
330
165B5
100
AcDbEntity
  8
寸法
 62
     0
 48
50.0
370
    -2
100
AcDbLine
 10
1508.392427950961
 20
6708.0666537797
 30
0.0
 11
1608.392427950961
 21
6708.0666537797
 31
0.0
  0
LINE
  5
19A66
330
165B5
100
AcDbEntity
  8
寸法
 62
     0
 48
50.0
370
    -2
100
AcDbLine
 10
1460.392427950957
 20
6708.0666537797
 30
0.0
 11
1360.392427950957
 21
6708.0666537797
 31
0.0
  0
MTEXT
  5
19A67
330
165B5
100
AcDbEntity
  8
寸法
 62
     7
 48
50.0
100
AcDbMText
 10
1621.294398951018
 20
6808.0666537797
 30
0.0
 40
120.0
 41
0.0
 71
     5
 72
     1
  1
\A1;48
  7
STYLE1
 73
     1
 44
1.0
1001
ACAD
1000
MTEXTBEGIN
1070
    73
1070
     1
1070
    44
1040
1.0
1070
    74
1070
     0
1000
MTEXTEND
  0
LINE
  5
19A68
330
165B5
100
AcDbEntity
  8
寸法
 62
     0
 48
50.0
370
    -2
100
AcDbLine
 10
1508.392427950961
 20
6708.0666537797
 30
0.0
 11
1460.392427950957
 21
6708.0666537797
 31
0.0
  0
INSERT
  5
19A69
330
165B5
100
AcDbEntity
  8
寸法
 62
     0
 48
50.0
370
    -2
100
AcDbBlockReference
  2
_DOTSMALL
 10
1508.392427950961
 20
6708.0666537797
 30
0.0
 41
100.0
 42
100.0
 43
100.0
 50
180.0
  0
INSERT
  5
19A6A
330
165B5
100
AcDbEntity
  8
寸法
 62
     0
 48
50.0
370
    -2
100
AcDbBlockReference
  2
_DOTSMALL
 10
1460.392427950957
 20
6708.0666537797
 30
0.0
 41
100.0
 42
100.0
 43
100.0
  0
POINT
  5
19A6B
330
165B5
100
AcDbEntity
  8
DEFPOINTS
 62
     0
 48
50.0
100
AcDbPoint
 10
1508.392427950961
 20
7268.497424545865
 30
0.0
  0
POINT
  5
19A6C
330
165B5
100
AcDbEntity
  8
DEFPOINTS
 62
     0
 48
50.0
100
AcDbPoint
 10
1460.392427950957
 20
7242.497424545864
 30
0.0
  0
POINT
  5
19A6D
330
165B5
100
AcDbEntity
  8
DEFPOINTS
 62
     0
 48
50.0
100
AcDbPoint
 10
1460.392427950957
 20
6708.0666537797
 30
0.0
  0
ENDBLK
  5
165C3
330
165B5
100
AcDbEntity
  8
0
 48
50.0
100
AcDbBlockEnd
  0
BLOCK
  5
165C5
330
165C4
100
AcDbEntity
  8
0
 48
50.0
100
AcDbBlockBegin
  2
*D15
 70
     1
 10
0.0
 20
0.0
 30
0.0
  3
*D15
  1

  0
LINE
  5
19A6E
330
165C4
100
AcDbEntity
  8
寸法
 62
     0
 48
50.0
370
    -2
100
AcDbLine
 10
6610.392427950944
 20
7222.497424545952
 30
0.0
 11
6610.392427950944
 21
6648.0666537797
 31
0.0
  0
LINE
  5
19A6F
330
165C4
100
AcDbEntity
  8
寸法
 62
     0
 48
50.0
370
    -2
100
AcDbLine
 10
6562.392427950943
 20
7248.497424545866
 30
0.0
 11
6562.392427950943
 21
6648.0666537797
 31
0.0
  0
LINE
  5
19A70
330
165C4
100
AcDbEntity
  8
寸法
 62
     0
 48
50.0
370
    -2
100
AcDbLine
 10
6610.392427950944
 20
6708.0666537797
 30
0.0
 11
6710.392427950944
 21
6708.0666537797
 31
0.0
  0
LINE
  5
19A71
330
165C4
100
AcDbEntity
  8
寸法
 62
     0
 48
50.0
370
    -2
100
AcDbLine
 10
6562.392427950943
 20
6708.0666537797
 30
0.0
 11
6462.392427950942
 21
6708.0666537797
 31
0.0
  0
MTEXT
  5
19A72
330
165C4
100
AcDbEntity
  8
寸法
 62
     7
 48
50.0
100
AcDbMText
 10
6451.429530302196
 20
6808.0666537797
 30
0.0
 40
120.0
 41
0.0
 71
     5
 72
     1
  1
\A1;48
  7
STYLE1
 73
     1
 44
1.0
1001
ACAD
1000
MTEXTBEGIN
1070
    73
1070
     1
1070
    44
1040
1.0
1070
    74
1070
     0
1000
MTEXTEND
  0
LINE
  5
19A73
330
165C4
100
AcDbEntity
  8
寸法
 62
     0
 48
50.0
370
    -2
100
AcDbLine
 10
6610.392427950944
 20
6708.0666537797
 30
0.0
 11
6562.392427950943
 21
6708.0666537797
 31
0.0
  0
INSERT
  5
19A74
330
165C4
100
AcDbEntity
  8
寸法
 62
     0
 48
50.0
370
    -2
100
AcDbBlockReference
  2
_DOTSMALL
 10
6610.392427950944
 20
6708.0666537797
 30
0.0
 41
100.0
 42
100.0
 43
100.0
 50
180.0
  0
INSERT
  5
19A75
330
165C4
100
AcDbEntity
  8
寸法
 62
     0
 48
50.0
370
    -2
100
AcDbBlockReference
  2
_DOTSMALL
 10
6562.392427950943
 20
6708.0666537797
 30
0.0
 41
100.0
 42
100.0
 43
100.0
  0
POINT
  5
19A76
330
165C4
100
AcDbEntity
  8
DEFPOINTS
 62
     0
 48
50.0
100
AcDbPoint
 10
6610.392427950944
 20
7242.497424545952
 30
0.0
  0
POINT
  5
19A77
330
165C4
100
AcDbEntity
  8
DEFPOINTS
 62
     0
 48
50.0
100
AcDbPoint
 10
6562.392427950943
 20
7268.497424545865
 30
0.0
  0
POINT
  5
19A78
330
165C4
100
AcDbEntity
  8
DEFPOINTS
 62
     0
 48
50.0
100
AcDbPoint
 10
6562.392427950943
 20
6708.0666537797
 30
0.0
  0
ENDBLK
  5
165D2
330
165C4
100
AcDbEntity
  8
0
 48
50.0
100
AcDbBlockEnd
  0
BLOCK
  5
1663F
330
165EA
100
AcDbEntity
  8
0
 48
50.0
100
AcDbBlockBegin
  2
*D16
 70
     1
 10
0.0
 20
0.0
 30
0.0
  3
*D16
  1

  0
LINE
  5
19A5A
330
165EA
100
AcDbEntity
  8
寸法
 62
     0
 48
50.0
370
    -2
100
AcDbLine
 10
6720.392427950958
 20
7222.497424545863
 30
0.0
 11
6720.392427950958
 21
6648.066653779702
 31
0.0
  0
LINE
  5
19A5B
330
165EA
100
AcDbEntity
  8
寸法
 62
     0
 48
50.0
370
    -2
100
AcDbLine
 10
6610.392427950944
 20
7222.497424545952
 30
0.0
 11
6610.392427950944
 21
6648.066653779702
 31
0.0
  0
LINE
  5
19A5C
330
165EA
100
AcDbEntity
  8
寸法
 62
     0
 48
50.0
370
    -2
100
AcDbLine
 10
6720.392427950958
 20
6708.066653779702
 30
0.0
 11
6610.392427950944
 21
6708.066653779702
 31
0.0
  0
MTEXT
  5
19A5D
330
165EA
100
AcDbEntity
  8
寸法
 62
     7
 48
50.0
100
AcDbMText
 10
6665.392427950951
 20
6556.37475874347
 30
0.0
 40
120.0
 41
0.0
 71
     5
 72
     1
  1
\A1;110
  7
STYLE1
 73
     1
 44
1.0
1001
ACAD
1000
MTEXTBEGIN
1070
    73
1070
     1
1070
    44
1040
1.0
1070
    74
1070
     0
1000
MTEXTEND
  0
INSERT
  5
19A5E
330
165EA
100
AcDbEntity
  8
寸法
 62
     0
 48
50.0
370
    -2
100
AcDbBlockReference
  2
_DOTSMALL
 10
6720.392427950958
 20
6708.066653779702
 30
0.0
 41
100.0
 42
100.0
 43
100.0
  0
INSERT
  5
19A5F
330
165EA
100
AcDbEntity
  8
寸法
 62
     0
 48
50.0
370
    -2
100
AcDbBlockReference
  2
_DOTSMALL
 10
6610.392427950944
 20
6708.066653779702
 30
0.0
 41
100.0
 42
100.0
 43
100.0
 50
180.0
  0
POINT
  5
19A60
330
165EA
100
AcDbEntity
  8
DEFPOINTS
 62
     0
 48
50.0
100
AcDbPoint
 10
6720.392427950958
 20
7242.497424545864
 30
0.0
  0
POINT
  5
19A61
330
165EA
100
AcDbEntity
  8
DEFPOINTS
 62
     0
 48
50.0
100
AcDbPoint
 10
6610.392427950944
 20
7242.497424545952
 30
0.0
  0
POINT
  5
19A62
330
165EA
100
AcDbEntity
  8
DEFPOINTS
 62
     0
 48
50.0
100
AcDbPoint
 10
6610.392427950944
 20
6708.066653779702
 30
0.0
  0
ENDBLK
  5
16649
330
165EA
100
AcDbEntity
  8
0
 48
50.0
100
AcDbBlockEnd
  0
BLOCK
  5
166D0
330
166CF
100
AcDbEntity
  8
0
 48
50.0
100
AcDbBlockBegin
  2
*D17
 70
     1
 10
0.0
 20
0.0
 30
0.0
  3
*D17
  1

  0
LINE
  5
19A4F
330
166CF
100
AcDbEntity
  8
寸法
 62
     0
 48
50.0
370
    -2
100
AcDbLine
 10
6720.392427950968
 20
10312.49742454592
 30
0.0
 11
6720.392427950968
 21
10568.30564417096
 31
0.0
  0
LINE
  5
19A50
330
166CF
100
AcDbEntity
  8
寸法
 62
     0
 48
50.0
370
    -2
100
AcDbLine
 10
6610.392427950968
 20
10312.49742454591
 30
0.0
 11
6610.392427950968
 21
10568.30564417096
 31
0.0
  0
LINE
  5
19A51
330
166CF
100
AcDbEntity
  8
寸法
 62
     0
 48
50.0
370
    -2
100
AcDbLine
 10
6720.392427950968
 20
10508.30564417096
 30
0.0
 11
6820.392427950968
 21
10508.30564417096
 31
0.0
  0
LINE
  5
19A52
330
166CF
100
AcDbEntity
  8
寸法
 62
     0
 48
50.0
370
    -2
100
AcDbLine
 10
6610.392427950968
 20
10508.30564417096
 30
0.0
 11
6510.392427950968
 21
10508.30564417096
 31
0.0
  0
LINE
  5
19A53
330
166CF
100
AcDbEntity
  8
寸法
 62
     0
 48
50.0
370
    -2
100
AcDbLine
 10
6720.392427950968
 20
10508.30564417096
 30
0.0
 11
6610.392427950968
 21
10508.30564417096
 31
0.0
  0
INSERT
  5
19A54
330
166CF
100
AcDbEntity
  8
寸法
 62
     0
 48
50.0
370
    -2
100
AcDbBlockReference
  2
_DOTSMALL
 10
6720.392427950968
 20
10508.30564417096
 30
0.0
 41
100.0
 42
100.0
 43
100.0
 50
180.0
  0
INSERT
  5
19A55
330
166CF
100
AcDbEntity
  8
寸法
 62
     0
 48
50.0
370
    -2
100
AcDbBlockReference
  2
_DOTSMALL
 10
6610.392427950968
 20
10508.30564417096
 30
0.0
 41
100.0
 42
100.0
 43
100.0
  0
MTEXT
  5
19A56
330
166CF
100
AcDbEntity
  8
寸法
 62
     7
 48
50.0
100
AcDbMText
 10
6665.392427950968
 20
10608.30564417096
 30
0.0
 40
120.0
 41
0.0
 71
     5
 72
     1
  1
\A1;110
  7
STYLE1
 73
     1
 44
1.0
1001
ACAD
1000
MTEXTBEGIN
1070
    73
1070
     1
1070
    44
1040
1.0
1070
    74
1070
     0
1000
MTEXTEND
  0
POINT
  5
19A57
330
166CF
100
AcDbEntity
  8
DEFPOINTS
 62
     0
 48
50.0
100
AcDbPoint
 10
6720.392427950968
 20
10292.49742454592
 30
0.0
  0
POINT
  5
19A58
330
166CF
100
AcDbEntity
  8
DEFPOINTS
 62
     0
 48
50.0
100
AcDbPoint
 10
6610.392427950968
 20
10292.49742454591
 30
0.0
  0
POINT
  5
19A59
330
166CF
100
AcDbEntity
  8
DEFPOINTS
 62
     0
 48
50.0
100
AcDbPoint
 10
6610.392427950968
 20
10508.30564417096
 30
0.0
  0
ENDBLK
  5
166DC
330
166CF
100
AcDbEntity
  8
0
 48
50.0
100
AcDbBlockEnd
  0
BLOCK
  5
174BF
330
16908
100
AcDbEntity
  8
0
 48
50.0
100
AcDbBlockBegin
  2
*D18
 70
     1
 10
0.0
 20
0.0
 30
0.0
  3
*D18
  1

  0
LINE
  5
19A46
330
16908
100
AcDbEntity
  8
寸法
 62
     0
 48
50.0
370
    -2
100
AcDbLine
 10
6665.392427950968
 20
10687.29355852891
 30
0.0
 11
6665.392427950968
 21
10817.62711772726
 31
0.0
  0
LINE
  5
19A47
330
16908
100
AcDbEntity
  8
寸法
 62
     0
 48
50.0
370
    -2
100
AcDbLine
 10
9295.392427950968
 20
10312.49742454596
 30
0.0
 11
9295.392427950968
 21
10817.62711772726
 31
0.0
  0
LINE
  5
19A48
330
16908
100
AcDbEntity
  8
寸法
 62
     0
 48
50.0
370
    -2
100
AcDbLine
 10
6665.392427950968
 20
10757.62711772726
 30
0.0
 11
9295.392427950968
 21
10757.62711772726
 31
0.0
  0
INSERT
  5
19A49
330
16908
100
AcDbEntity
  8
寸法
 62
     0
 48
50.0
370
    -2
100
AcDbBlockReference
  2
_DOTSMALL
 10
6665.392427950968
 20
10757.62711772726
 30
0.0
 41
100.0
 42
100.0
 43
100.0
 50
180.0
  0
INSERT
  5
19A4A
330
16908
100
AcDbEntity
  8
寸法
 62
     0
 48
50.0
370
    -2
100
AcDbBlockReference
  2
_DOTSMALL
 10
9295.392427950968
 20
10757.62711772726
 30
0.0
 41
100.0
 42
100.0
 43
100.0
  0
MTEXT
  5
19A4B
330
16908
100
AcDbEntity
  8
寸法
 62
     7
 48
50.0
100
AcDbMText
 10
7980.392427950969
 20
10857.63892875088
 30
0.0
 40
120.0
 41
0.0
 71
     5
 72
     1
  1
\A1;2630
  7
STYLE1
 73
     1
 44
1.0
1001
ACAD
1000
MTEXTBEGIN
1070
    73
1070
     1
1070
    44
1040
1.0
1070
    74
1070
     0
1000
MTEXTEND
  0
POINT
  5
19A4C
330
16908
100
AcDbEntity
  8
DEFPOINTS
 62
     0
 48
50.0
100
AcDbPoint
 10
6665.392427950968
 20
10667.29355852891
 30
0.0
  0
POINT
  5
19A4D
330
16908
100
AcDbEntity
  8
DEFPOINTS
 62
     0
 48
50.0
100
AcDbPoint
 10
9295.392427950968
 20
10292.49742454596
 30
0.0
  0
POINT
  5
19A4E
330
16908
100
AcDbEntity
  8
DEFPOINTS
 62
     0
 48
50.0
100
AcDbPoint
 10
9295.392427950968
 20
10757.62711772726
 30
0.0
  0
ENDBLK
  5
174C9
330
16908
100
AcDbEntity
  8
0
 48
50.0
100
AcDbBlockEnd
  0
BLOCK
  5
1741E
330
1741D
100
AcDbEntity
  8
0
 48
50.0
100
AcDbBlockBegin
  2
*D19
 70
     1
 10
0.0
 20
0.0
 30
0.0
  3
*D19
  1

  0
LINE
  5
19A1F
330
1741D
100
AcDbEntity
  8
寸法
 62
     0
 48
50.0
370
    -2
100
AcDbLine
 10
4138.392427950961
 20
7248.497424545864
 30
0.0
 11
4138.392427950961
 21
6648.0666537797
 31
0.0
  0
LINE
  5
19A20
330
1741D
100
AcDbEntity
  8
寸法
 62
     0
 48
50.0
370
    -2
100
AcDbLine
 10
4090.392427950957
 20
7222.497424545863
 30
0.0
 11
4090.392427950957
 21
6648.0666537797
 31
0.0
  0
LINE
  5
19A21
330
1741D
100
AcDbEntity
  8
寸法
 62
     0
 48
50.0
370
    -2
100
AcDbLine
 10
4138.392427950961
 20
6708.0666537797
 30
0.0
 11
4238.392427950961
 21
6708.0666537797
 31
0.0
  0
LINE
  5
19A22
330
1741D
100
AcDbEntity
  8
寸法
 62
     0
 48
50.0
370
    -2
100
AcDbLine
 10
4090.392427950957
 20
6708.0666537797
 30
0.0
 11
3990.392427950958
 21
6708.0666537797
 31
0.0
  0
MTEXT
  5
19A23
330
1741D
100
AcDbEntity
  8
寸法
 62
     7
 48
50.0
100
AcDbMText
 10
4251.294398951018
 20
6808.0666537797
 30
0.0
 40
120.0
 41
0.0
 71
     5
 72
     1
  1
\A1;48
  7
STYLE1
 73
     1
 44
1.0
1001
ACAD
1000
MTEXTBEGIN
1070
    73
1070
     1
1070
    44
1040
1.0
1070
    74
1070
     0
1000
MTEXTEND
  0
LINE
  5
19A24
330
1741D
100
AcDbEntity
  8
寸法
 62
     0
 48
50.0
370
    -2
100
AcDbLine
 10
4138.392427950961
 20
6708.0666537797
 30
0.0
 11
4090.392427950957
 21
6708.0666537797
 31
0.0
  0
INSERT
  5
19A25
330
1741D
100
AcDbEntity
  8
寸法
 62
     0
 48
50.0
370
    -2
100
AcDbBlockReference
  2
_DOTSMALL
 10
4138.392427950961
 20
6708.0666537797
 30
0.0
 41
100.0
 42
100.0
 43
100.0
 50
180.0
  0
INSERT
  5
19A26
330
1741D
100
AcDbEntity
  8
寸法
 62
     0
 48
50.0
370
    -2
100
AcDbBlockReference
  2
_DOTSMALL
 10
4090.392427950957
 20
6708.0666537797
 30
0.0
 41
100.0
 42
100.0
 43
100.0
  0
POINT
  5
19A27
330
1741D
100
AcDbEntity
  8
DEFPOINTS
 62
     0
 48
50.0
100
AcDbPoint
 10
4138.392427950961
 20
7268.497424545865
 30
0.0
  0
POINT
  5
19A28
330
1741D
100
AcDbEntity
  8
DEFPOINTS
 62
     0
 48
50.0
100
AcDbPoint
 10
4090.392427950957
 20
7242.497424545864
 30
0.0
  0
POINT
  5
19A29
330
1741D
100
AcDbEntity
  8
DEFPOINTS
 62
     0
 48
50.0
100
AcDbPoint
 10
4090.392427950957
 20
6708.0666537797
 30
0.0
  0
ENDBLK
  5
1742B
330
1741D
100
AcDbEntity
  8
0
 48
50.0
100
AcDbBlockEnd
  0
BLOCK
  5
1742D
330
1742C
100
AcDbEntity
  8
0
 48
50.0
100
AcDbBlockBegin
  2
*D20
 70
     1
 10
0.0
 20
0.0
 30
0.0
  3
*D20
  1

  0
LINE
  5
19A33
330
1742C
100
AcDbEntity
  8
寸法
 62
     0
 48
50.0
370
    -2
100
AcDbLine
 10
3980.392427950945
 20
7222.497424545952
 30
0.0
 11
3980.392427950945
 21
6648.0666537797
 31
0.0
  0
LINE
  5
19A34
330
1742C
100
AcDbEntity
  8
寸法
 62
     0
 48
50.0
370
    -2
100
AcDbLine
 10
3932.392427950943
 20
7248.497424545866
 30
0.0
 11
3932.392427950943
 21
6648.0666537797
 31
0.0
  0
LINE
  5
19A35
330
1742C
100
AcDbEntity
  8
寸法
 62
     0
 48
50.0
370
    -2
100
AcDbLine
 10
3980.392427950945
 20
6708.0666537797
 30
0.0
 11
4080.392427950944
 21
6708.0666537797
 31
0.0
  0
LINE
  5
19A36
330
1742C
100
AcDbEntity
  8
寸法
 62
     0
 48
50.0
370
    -2
100
AcDbLine
 10
3932.392427950943
 20
6708.0666537797
 30
0.0
 11
3832.392427950943
 21
6708.0666537797
 31
0.0
  0
MTEXT
  5
19A37
330
1742C
100
AcDbEntity
  8
寸法
 62
     7
 48
50.0
100
AcDbMText
 10
3821.429530302196
 20
6808.0666537797
 30
0.0
 40
120.0
 41
0.0
 71
     5
 72
     1
  1
\A1;48
  7
STYLE1
 73
     1
 44
1.0
1001
ACAD
1000
MTEXTBEGIN
1070
    73
1070
     1
1070
    44
1040
1.0
1070
    74
1070
     0
1000
MTEXTEND
  0
LINE
  5
19A38
330
1742C
100
AcDbEntity
  8
寸法
 62
     0
 48
50.0
370
    -2
100
AcDbLine
 10
3980.392427950945
 20
6708.0666537797
 30
0.0
 11
3932.392427950943
 21
6708.0666537797
 31
0.0
  0
INSERT
  5
19A39
330
1742C
100
AcDbEntity
  8
寸法
 62
     0
 48
50.0
370
    -2
100
AcDbBlockReference
  2
_DOTSMALL
 10
3980.392427950945
 20
6708.0666537797
 30
0.0
 41
100.0
 42
100.0
 43
100.0
 50
180.0
  0
INSERT
  5
19A3A
330
1742C
100
AcDbEntity
  8
寸法
 62
     0
 48
50.0
370
    -2
100
AcDbBlockReference
  2
_DOTSMALL
 10
3932.392427950943
 20
6708.0666537797
 30
0.0
 41
100.0
 42
100.0
 43
100.0
  0
POINT
  5
19A3B
330
1742C
100
AcDbEntity
  8
DEFPOINTS
 62
     0
 48
50.0
100
AcDbPoint
 10
3980.392427950945
 20
7242.497424545952
 30
0.0
  0
POINT
  5
19A3C
330
1742C
100
AcDbEntity
  8
DEFPOINTS
 62
     0
 48
50.0
100
AcDbPoint
 10
3932.392427950943
 20
7268.497424545865
 30
0.0
  0
POINT
  5
19A3D
330
1742C
100
AcDbEntity
  8
DEFPOINTS
 62
     0
 48
50.0
100
AcDbPoint
 10
3932.392427950943
 20
6708.0666537797
 30
0.0
  0
ENDBLK
  5
1743A
330
1742C
100
AcDbEntity
  8
0
 48
50.0
100
AcDbBlockEnd
  0
BLOCK
  5
1743C
330
1743B
100
AcDbEntity
  8
0
 48
50.0
100
AcDbBlockBegin
  2
*D21
 70
     1
 10
0.0
 20
0.0
 30
0.0
  3
*D21
  1

  0
LINE
  5
19A3E
330
1743B
100
AcDbEntity
  8
寸法
 62
     0
 48
50.0
370
    -2
100
AcDbLine
 10
1508.392427950961
 20
7248.497424545864
 30
0.0
 11
1508.392427950961
 21
6648.0666537797
 31
0.0
  0
LINE
  5
19A3F
330
1743B
100
AcDbEntity
  8
寸法
 62
     0
 48
50.0
370
    -2
100
AcDbLine
 10
3932.392427950943
 20
6708.0666537797
 30
0.0
 11
1508.392427950961
 21
6708.0666537797
 31
0.0
  0
INSERT
  5
19A40
330
1743B
100
AcDbEntity
  8
寸法
 62
     0
 48
50.0
370
    -2
100
AcDbBlockReference
  2
_DOTSMALL
 10
3932.392427950943
 20
6708.0666537797
 30
0.0
 41
100.0
 42
100.0
 43
100.0
  0
INSERT
  5
19A41
330
1743B
100
AcDbEntity
  8
寸法
 62
     0
 48
50.0
370
    -2
100
AcDbBlockReference
  2
_DOTSMALL
 10
1508.392427950961
 20
6708.0666537797
 30
0.0
 41
100.0
 42
100.0
 43
100.0
 50
180.0
  0
MTEXT
  5
19A42
330
1743B
100
AcDbEntity
  8
寸法
 62
     7
 48
50.0
100
AcDbMText
 10
2720.392427950952
 20
6808.078464803323
 30
0.0
 40
120.0
 41
0.0
 71
     5
 72
     1
  1
\A1;有効開口部間口 2424
  7
STYLE1
 73
     1
 44
1.0
1001
ACAD
1000
MTEXTBEGIN
1070
    73
1070
     1
1070
    44
1040
1.0
1070
    74
1070
     0
1000
MTEXTEND
  0
POINT
  5
19A43
330
1743B
100
AcDbEntity
  8
DEFPOINTS
 62
     0
 48
50.0
100
AcDbPoint
 10
3932.392427950943
 20
7268.497424545865
 30
0.0
  0
POINT
  5
19A44
330
1743B
100
AcDbEntity
  8
DEFPOINTS
 62
     0
 48
50.0
100
AcDbPoint
 10
1508.392427950961
 20
7268.497424545865
 30
0.0
  0
POINT
  5
19A45
330
1743B
100
AcDbEntity
  8
DEFPOINTS
 62
     0
 48
50.0
100
AcDbPoint
 10
1508.392427950961
 20
6708.0666537797
 30
0.0
  0
ENDBLK
  5
17445
330
1743B
100
AcDbEntity
  8
0
 48
50.0
100
AcDbBlockEnd
  0
BLOCK
  5
17447
330
17446
100
AcDbEntity
  8
0
 48
50.0
100
AcDbBlockBegin
  2
*D22
 70
     1
 10
0.0
 20
0.0
 30
0.0
  3
*D22
  1

  0
LINE
  5
19A2A
330
17446
100
AcDbEntity
  8
寸法
 62
     0
 48
50.0
370
    -2
100
AcDbLine
 10
4090.392427950957
 20
7222.497424545863
 30
0.0
 11
4090.392427950957
 21
6648.066653779702
 31
0.0
  0
LINE
  5
19A2B
330
17446
100
AcDbEntity
  8
寸法
 62
     0
 48
50.0
370
    -2
100
AcDbLine
 10
3980.392427950945
 20
7222.497424545952
 30
0.0
 11
3980.392427950945
 21
6648.066653779702
 31
0.0
  0
LINE
  5
19A2C
330
17446
100
AcDbEntity
  8
寸法
 62
     0
 48
50.0
370
    -2
100
AcDbLine
 10
4090.392427950957
 20
6708.066653779702
 30
0.0
 11
3980.392427950945
 21
6708.066653779702
 31
0.0
  0
MTEXT
  5
19A2D
330
17446
100
AcDbEntity
  8
寸法
 62
     7
 48
50.0
100
AcDbMText
 10
4035.392427950951
 20
6556.37475874347
 30
0.0
 40
120.0
 41
0.0
 71
     5
 72
     1
  1
\A1;110
  7
STYLE1
 73
     1
 44
1.0
1001
ACAD
1000
MTEXTBEGIN
1070
    73
1070
     1
1070
    44
1040
1.0
1070
    74
1070
     0
1000
MTEXTEND
  0
INSERT
  5
19A2E
330
17446
100
AcDbEntity
  8
寸法
 62
     0
 48
50.0
370
    -2
100
AcDbBlockReference
  2
_DOTSMALL
 10
4090.392427950957
 20
6708.066653779702
 30
0.0
 41
100.0
 42
100.0
 43
100.0
  0
INSERT
  5
19A2F
330
17446
100
AcDbEntity
  8
寸法
 62
     0
 48
50.0
370
    -2
100
AcDbBlockReference
  2
_DOTSMALL
 10
3980.392427950945
 20
6708.066653779702
 30
0.0
 41
100.0
 42
100.0
 43
100.0
 50
180.0
  0
POINT
  5
19A30
330
17446
100
AcDbEntity
  8
DEFPOINTS
 62
     0
 48
50.0
100
AcDbPoint
 10
4090.392427950957
 20
7242.497424545864
 30
0.0
  0
POINT
  5
19A31
330
17446
100
AcDbEntity
  8
DEFPOINTS
 62
     0
 48
50.0
100
AcDbPoint
 10
3980.392427950945
 20
7242.497424545952
 30
0.0
  0
POINT
  5
19A32
330
17446
100
AcDbEntity
  8
DEFPOINTS
 62
     0
 48
50.0
100
AcDbPoint
 10
3980.392427950945
 20
6708.066653779702
 30
0.0
  0
ENDBLK
  5
17451
330
17446
100
AcDbEntity
  8
0
 48
50.0
100
AcDbBlockEnd
  0
BLOCK
  5
17453
330
17452
100
AcDbEntity
  8
0
 48
50.0
100
AcDbBlockBegin
  2
*D23
 70
     1
 10
0.0
 20
0.0
 30
0.0
  3
*D23
  1

  0
LINE
  5
19A0D
330
17452
100
AcDbEntity
  8
寸法
 62
     0
 48
50.0
370
    -2
100
AcDbLine
 10
1460.392427950967
 20
10312.49742454587
 30
0.0
 11
1460.392427950967
 21
10568.30564417096
 31
0.0
  0
LINE
  5
19A0E
330
17452
100
AcDbEntity
  8
寸法
 62
     0
 48
50.0
370
    -2
100
AcDbLine
 10
3980.392427950969
 20
10312.49742454596
 30
0.0
 11
3980.392427950969
 21
10568.30564417096
 31
0.0
  0
LINE
  5
19A0F
330
17452
100
AcDbEntity
  8
寸法
 62
     0
 48
50.0
370
    -2
100
AcDbLine
 10
1460.392427950967
 20
10508.30564417096
 30
0.0
 11
3980.392427950969
 21
10508.30564417096
 31
0.0
  0
INSERT
  5
19A10
330
17452
100
AcDbEntity
  8
寸法
 62
     0
 48
50.0
370
    -2
100
AcDbBlockReference
  2
_DOTSMALL
 10
1460.392427950967
 20
10508.30564417096
 30
0.0
 41
100.0
 42
100.0
 43
100.0
 50
180.0
  0
INSERT
  5
19A11
330
17452
100
AcDbEntity
  8
寸法
 62
     0
 48
50.0
370
    -2
100
AcDbBlockReference
  2
_DOTSMALL
 10
3980.392427950969
 20
10508.30564417096
 30
0.0
 41
100.0
 42
100.0
 43
100.0
  0
MTEXT
  5
19A12
330
17452
100
AcDbEntity
  8
寸法
 62
     7
 48
50.0
100
AcDbMText
 10
2720.392427950968
 20
10608.31745519459
 30
0.0
 40
120.0
 41
0.0
 71
     5
 72
     1
  1
\A1;6X420=2520
  7
STYLE1
 73
     1
 44
1.0
1001
ACAD
1000
MTEXTBEGIN
1070
    73
1070
     1
1070
    44
1040
1.0
1070
    74
1070
     0
1000
MTEXTEND
  0
POINT
  5
19A13
330
17452
100
AcDbEntity
  8
DEFPOINTS
 62
     0
 48
50.0
100
AcDbPoint
 10
1460.392427950967
 20
10292.49742454587
 30
0.0
  0
POINT
  5
19A14
330
17452
100
AcDbEntity
  8
DEFPOINTS
 62
     0
 48
50.0
100
AcDbPoint
 10
3980.392427950969
 20
10292.49742454596
 30
0.0
  0
POINT
  5
19A15
330
17452
100
AcDbEntity
  8
DEFPOINTS
 62
     0
 48
50.0
100
AcDbPoint
 10
3980.392427950969
 20
10508.30564417096
 30
0.0
  0
ENDBLK
  5
1745D
330
17452
100
AcDbEntity
  8
0
 48
50.0
100
AcDbBlockEnd
  0
BLOCK
  5
1745F
330
1745E
100
AcDbEntity
  8
0
 48
50.0
100
AcDbBlockBegin
  2
*D24
 70
     1
 10
0.0
 20
0.0
 30
0.0
  3
*D24
  1

  0
LINE
  5
19A02
330
1745E
100
AcDbEntity
  8
寸法
 62
     0
 48
50.0
370
    -2
100
AcDbLine
 10
4090.392427950967
 20
10312.49742454592
 30
0.0
 11
4090.392427950967
 21
10568.30564417096
 31
0.0
  0
LINE
  5
19A03
330
1745E
100
AcDbEntity
  8
寸法
 62
     0
 48
50.0
370
    -2
100
AcDbLine
 10
3980.392427950969
 20
10312.49742454591
 30
0.0
 11
3980.392427950969
 21
10568.30564417096
 31
0.0
  0
LINE
  5
19A04
330
1745E
100
AcDbEntity
  8
寸法
 62
     0
 48
50.0
370
    -2
100
AcDbLine
 10
4090.392427950967
 20
10508.30564417096
 30
0.0
 11
4190.392427950967
 21
10508.30564417096
 31
0.0
  0
LINE
  5
19A05
330
1745E
100
AcDbEntity
  8
寸法
 62
     0
 48
50.0
370
    -2
100
AcDbLine
 10
3980.392427950969
 20
10508.30564417096
 30
0.0
 11
3880.392427950969
 21
10508.30564417096
 31
0.0
  0
LINE
  5
19A06
330
1745E
100
AcDbEntity
  8
寸法
 62
     0
 48
50.0
370
    -2
100
AcDbLine
 10
4090.392427950967
 20
10508.30564417096
 30
0.0
 11
3980.392427950969
 21
10508.30564417096
 31
0.0
  0
INSERT
  5
19A07
330
1745E
100
AcDbEntity
  8
寸法
 62
     0
 48
50.0
370
    -2
100
AcDbBlockReference
  2
_DOTSMALL
 10
4090.392427950967
 20
10508.30564417096
 30
0.0
 41
100.0
 42
100.0
 43
100.0
 50
180.0
  0
INSERT
  5
19A08
330
1745E
100
AcDbEntity
  8
寸法
 62
     0
 48
50.0
370
    -2
100
AcDbBlockReference
  2
_DOTSMALL
 10
3980.392427950969
 20
10508.30564417096
 30
0.0
 41
100.0
 42
100.0
 43
100.0
  0
MTEXT
  5
19A09
330
1745E
100
AcDbEntity
  8
寸法
 62
     7
 48
50.0
100
AcDbMText
 10
4035.392427950967
 20
10608.30564417096
 30
0.0
 40
120.0
 41
0.0
 71
     5
 72
     1
  1
\A1;110
  7
STYLE1
 73
     1
 44
1.0
1001
ACAD
1000
MTEXTBEGIN
1070
    73
1070
     1
1070
    44
1040
1.0
1070
    74
1070
     0
1000
MTEXTEND
  0
POINT
  5
19A0A
330
1745E
100
AcDbEntity
  8
DEFPOINTS
 62
     0
 48
50.0
100
AcDbPoint
 10
4090.392427950967
 20
10292.49742454592
 30
0.0
  0
POINT
  5
19A0B
330
1745E
100
AcDbEntity
  8
DEFPOINTS
 62
     0
 48
50.0
100
AcDbPoint
 10
3980.392427950969
 20
10292.49742454591
 30
0.0
  0
POINT
  5
19A0C
330
1745E
100
AcDbEntity
  8
DEFPOINTS
 62
     0
 48
50.0
100
AcDbPoint
 10
3980.392427950969
 20
10508.30564417096
 30
0.0
  0
ENDBLK
  5
1746B
330
1745E
100
AcDbEntity
  8
0
 48
50.0
100
AcDbBlockEnd
  0
BLOCK
  5
1746D
330
1746C
100
AcDbEntity
  8
0
 48
50.0
100
AcDbBlockBegin
  2
*D25
 70
     1
 10
0.0
 20
0.0
 30
0.0
  3
*D25
  1

  0
LINE
  5
19A16
330
1746C
100
AcDbEntity
  8
寸法
 62
     0
 48
50.0
370
    -2
100
AcDbLine
 10
1405.392427950933
 20
10312.49742454583
 30
0.0
 11
1405.392427950933
 21
10817.62711772726
 31
0.0
  0
LINE
  5
19A17
330
1746C
100
AcDbEntity
  8
寸法
 62
     0
 48
50.0
370
    -2
100
AcDbLine
 10
4035.392427950968
 20
10687.29355852891
 30
0.0
 11
4035.392427950968
 21
10817.62711772726
 31
0.0
  0
LINE
  5
19A18
330
1746C
100
AcDbEntity
  8
寸法
 62
     0
 48
50.0
370
    -2
100
AcDbLine
 10
1405.392427950933
 20
10757.62711772726
 30
0.0
 11
4035.392427950968
 21
10757.62711772726
 31
0.0
  0
INSERT
  5
19A19
330
1746C
100
AcDbEntity
  8
寸法
 62
     0
 48
50.0
370
    -2
100
AcDbBlockReference
  2
_DOTSMALL
 10
1405.392427950933
 20
10757.62711772726
 30
0.0
 41
100.0
 42
100.0
 43
100.0
 50
180.0
  0
INSERT
  5
19A1A
330
1746C
100
AcDbEntity
  8
寸法
 62
     0
 48
50.0
370
    -2
100
AcDbBlockReference
  2
_DOTSMALL
 10
4035.392427950968
 20
10757.62711772726
 30
0.0
 41
100.0
 42
100.0
 43
100.0
  0
MTEXT
  5
19A1B
330
1746C
100
AcDbEntity
  8
寸法
 62
     7
 48
50.0
100
AcDbMText
 10
2720.392427950951
 20
10857.63892875088
 30
0.0
 40
120.0
 41
0.0
 71
     5
 72
     1
  1
\A1;2630
  7
STYLE1
 73
     1
 44
1.0
1001
ACAD
1000
MTEXTBEGIN
1070
    73
1070
     1
1070
    44
1040
1.0
1070
    74
1070
     0
1000
MTEXTEND
  0
POINT
  5
19A1C
330
1746C
100
AcDbEntity
  8
DEFPOINTS
 62
     0
 48
50.0
100
AcDbPoint
 10
1405.392427950933
 20
10292.49742454583
 30
0.0
  0
POINT
  5
19A1D
330
1746C
100
AcDbEntity
  8
DEFPOINTS
 62
     0
 48
50.0
100
AcDbPoint
 10
4035.392427950968
 20
10667.29355852891
 30
0.0
  0
POINT
  5
19A1E
330
1746C
100
AcDbEntity
  8
DEFPOINTS
 62
     0
 48
50.0
100
AcDbPoint
 10
4035.392427950968
 20
10757.62711772726
 30
0.0
  0
ENDBLK
  5
17477
330
1746C
100
AcDbEntity
  8
0
 48
50.0
100
AcDbBlockEnd
  0
BLOCK
  5
17F17
330
17F0B
100
AcDbEntity
  8
0
 48
50.0
100
AcDbBlockBegin
  2
*D26
 70
     1
 10
0.0
 20
0.0
 30
0.0
  3
*D26
  1

  0
LINE
  5
19B5D
330
17F0B
100
AcDbEntity
  8
寸法
 62
     0
 48
50.0
370
    -2
100
AcDbLine
 10
1405.392427950952
 20
4660.723761099422
 30
0.0
 11
1405.392427950952
 21
5099.81693043889
 31
0.0
  0
LINE
  5
19B5E
330
17F0B
100
AcDbEntity
  8
寸法
 62
     0
 48
50.0
370
    -2
100
AcDbLine
 10
1355.392427950952
 20
4660.723761099421
 30
0.0
 11
1355.392427950952
 21
5099.81693043889
 31
0.0
  0
LINE
  5
19B5F
330
17F0B
100
AcDbEntity
  8
寸法
 62
     0
 48
50.0
370
    -2
100
AcDbLine
 10
1405.392427950952
 20
5039.816930438889
 30
0.0
 11
1505.392427950952
 21
5039.816930438889
 31
0.0
  0
LINE
  5
19B60
330
17F0B
100
AcDbEntity
  8
寸法
 62
     0
 48
50.0
370
    -2
100
AcDbLine
 10
1355.392427950952
 20
5039.816930438889
 30
0.0
 11
935.8599024822165
 21
5039.816930438889
 31
0.0
  0
LINE
  5
19B61
330
17F0B
100
AcDbEntity
  8
寸法
 62
     0
 48
50.0
370
    -2
100
AcDbLine
 10
1405.392427950952
 20
5039.816930438889
 30
0.0
 11
1355.392427950952
 21
5039.816930438889
 31
0.0
  0
INSERT
  5
19B62
330
17F0B
100
AcDbEntity
  8
寸法
 62
     0
 48
50.0
370
    -2
100
AcDbBlockReference
  2
_DOTSMALL
 10
1405.392427950952
 20
5039.816930438889
 30
0.0
 41
100.0
 42
100.0
 43
100.0
 50
180.0
  0
INSERT
  5
19B63
330
17F0B
100
AcDbEntity
  8
寸法
 62
     0
 48
50.0
370
    -2
100
AcDbBlockReference
  2
_DOTSMALL
 10
1355.392427950952
 20
5039.816930438889
 30
0.0
 41
100.0
 42
100.0
 43
100.0
  0
MTEXT
  5
19B64
330
17F0B
100
AcDbEntity
  8
寸法
 62
     7
 48
50.0
100
AcDbMText
 10
1041.907146576704
 20
5139.81693043889
 30
0.0
 40
120.0
 41
0.0
 71
     5
 72
     1
  1
\A1;50
  7
STYLE1
 73
     1
 44
1.0
1001
ACAD
1000
MTEXTBEGIN
1070
    73
1070
     1
1070
    44
1040
1.0
1070
    74
1070
     0
1000
MTEXTEND
  0
POINT
  5
19B65
330
17F0B
100
AcDbEntity
  8
DEFPOINTS
 62
     0
 48
50.0
100
AcDbPoint
 10
1405.392427950952
 20
4640.723761099422
 30
0.0
  0
POINT
  5
19B66
330
17F0B
100
AcDbEntity
  8
DEFPOINTS
 62
     0
 48
50.0
100
AcDbPoint
 10
1355.392427950952
 20
4640.723761099421
 30
0.0
  0
POINT
  5
19B67
330
17F0B
100
AcDbEntity
  8
DEFPOINTS
 62
     0
 48
50.0
100
AcDbPoint
 10
1355.392427950952
 20
5039.816930438889
 30
0.0
  0
ENDBLK
  5
17F18
330
17F0B
100
AcDbEntity
  8
0
 48
50.0
100
AcDbBlockEnd
  0
BLOCK
  5
17F23
330
17F19
100
AcDbEntity
  8
0
 48
50.0
100
AcDbBlockBegin
  2
*D27
 70
     1
 10
0.0
 20
0.0
 30
0.0
  3
*D27
  1

  0
LINE
  5
19B54
330
17F19
100
AcDbEntity
  8
寸法
 62
     0
 48
50.0
370
    -2
100
AcDbLine
 10
9295.392427950945
 20
4660.723761099421
 30
0.0
 11
9295.392427950945
 21
5099.81693043889
 31
0.0
  0
LINE
  5
19B55
330
17F19
100
AcDbEntity
  8
寸法
 62
     0
 48
50.0
370
    -2
100
AcDbLine
 10
1405.392427950952
 20
4660.723761099422
 30
0.0
 11
1405.392427950952
 21
5099.81693043889
 31
0.0
  0
LINE
  5
19B56
330
17F19
100
AcDbEntity
  8
寸法
 62
     0
 48
50.0
370
    -2
100
AcDbLine
 10
9295.392427950945
 20
5039.816930438889
 30
0.0
 11
1405.392427950952
 21
5039.816930438889
 31
0.0
  0
INSERT
  5
19B57
330
17F19
100
AcDbEntity
  8
寸法
 62
     0
 48
50.0
370
    -2
100
AcDbBlockReference
  2
_DOTSMALL
 10
9295.392427950945
 20
5039.816930438889
 30
0.0
 41
100.0
 42
100.0
 43
100.0
  0
INSERT
  5
19B58
330
17F19
100
AcDbEntity
  8
寸法
 62
     0
 48
50.0
370
    -2
100
AcDbBlockReference
  2
_DOTSMALL
 10
1405.392427950952
 20
5039.816930438889
 30
0.0
 41
100.0
 42
100.0
 43
100.0
 50
180.0
  0
MTEXT
  5
19B59
330
17F19
100
AcDbEntity
  8
寸法
 62
     7
 48
50.0
100
AcDbMText
 10
5350.392427950948
 20
5139.828741462511
 30
0.0
 40
120.0
 41
0.0
 71
     5
 72
     1
  1
\A1;柱外寸法 N X 2630
  7
STYLE1
 73
     1
 44
1.0
1001
ACAD
1000
MTEXTBEGIN
1070
    73
1070
     1
1070
    44
1040
1.0
1070
    74
1070
     0
1000
MTEXTEND
  0
POINT
  5
19B5A
330
17F19
100
AcDbEntity
  8
DEFPOINTS
 62
     0
 48
50.0
100
AcDbPoint
 10
9295.392427950945
 20
4640.723761099421
 30
0.0
  0
POINT
  5
19B5B
330
17F19
100
AcDbEntity
  8
DEFPOINTS
 62
     0
 48
50.0
100
AcDbPoint
 10
1405.392427950952
 20
4640.723761099422
 30
0.0
  0
POINT
  5
19B5C
330
17F19
100
AcDbEntity
  8
DEFPOINTS
 62
     0
 48
50.0
100
AcDbPoint
 10
1405.392427950952
 20
5039.816930438889
 30
0.0
  0
ENDBLK
  5
17F24
330
17F19
100
AcDbEntity
  8
0
 48
50.0
100
AcDbBlockEnd
  0
BLOCK
  5
17F2F
330
17F25
100
AcDbEntity
  8
0
 48
50.0
100
AcDbBlockBegin
  2
*D28
 70
     1
 10
0.0
 20
0.0
 30
0.0
  3
*D28
  1

  0
LINE
  5
19B4B
330
17F25
100
AcDbEntity
  8
寸法
 62
     0
 48
50.0
370
    -2
100
AcDbLine
 10
1355.392427950952
 20
4660.723761099421
 30
0.0
 11
1355.392427950952
 21
5316.343030057335
 31
0.0
  0
LINE
  5
19B4C
330
17F25
100
AcDbEntity
  8
寸法
 62
     0
 48
50.0
370
    -2
100
AcDbLine
 10
9345.392427950946
 20
4660.723761099418
 30
0.0
 11
9345.392427950946
 21
5316.343030057335
 31
0.0
  0
LINE
  5
19B4D
330
17F25
100
AcDbEntity
  8
寸法
 62
     0
 48
50.0
370
    -2
100
AcDbLine
 10
1355.392427950952
 20
5256.343030057334
 30
0.0
 11
9345.392427950946
 21
5256.343030057334
 31
0.0
  0
INSERT
  5
19B4E
330
17F25
100
AcDbEntity
  8
寸法
 62
     0
 48
50.0
370
    -2
100
AcDbBlockReference
  2
_DOTSMALL
 10
1355.392427950952
 20
5256.343030057334
 30
0.0
 41
100.0
 42
100.0
 43
100.0
 50
180.0
  0
INSERT
  5
19B4F
330
17F25
100
AcDbEntity
  8
寸法
 62
     0
 48
50.0
370
    -2
100
AcDbBlockReference
  2
_DOTSMALL
 10
9345.392427950946
 20
5256.343030057334
 30
0.0
 41
100.0
 42
100.0
 43
100.0
  0
MTEXT
  5
19B50
330
17F25
100
AcDbEntity
  8
寸法
 62
     7
 48
50.0
100
AcDbMText
 10
5350.392427950948
 20
5356.354841080957
 30
0.0
 40
120.0
 41
0.0
 71
     5
 72
     1
  1
\A1;N X 2630+100
  7
STYLE1
 73
     1
 44
1.0
1001
ACAD
1000
MTEXTBEGIN
1070
    73
1070
     1
1070
    44
1040
1.0
1070
    74
1070
     0
1000
MTEXTEND
  0
POINT
  5
19B51
330
17F25
100
AcDbEntity
  8
DEFPOINTS
 62
     0
 48
50.0
100
AcDbPoint
 10
1355.392427950952
 20
4640.723761099421
 30
0.0
  0
POINT
  5
19B52
330
17F25
100
AcDbEntity
  8
DEFPOINTS
 62
     0
 48
50.0
100
AcDbPoint
 10
9345.392427950946
 20
4640.723761099418
 30
0.0
  0
POINT
  5
19B53
330
17F25
100
AcDbEntity
  8
DEFPOINTS
 62
     0
 48
50.0
100
AcDbPoint
 10
9345.392427950946
 20
5256.343030057334
 30
0.0
  0
ENDBLK
  5
17F30
330
17F25
100
AcDbEntity
  8
0
 48
50.0
100
AcDbBlockEnd
  0
BLOCK
  5
18159
330
1814D
100
AcDbEntity
  8
0
 48
50.0
100
AcDbBlockBegin
  2
*D29
 70
     1
 10
0.0
 20
0.0
 30
0.0
  3
*D29
  1

  0
LINE
  5
19B68
330
1814D
100
AcDbEntity
  8
寸法
 62
     0
 48
50.0
370
    -2
100
AcDbLine
 10
9345.392427950946
 20
4660.723761099418
 30
0.0
 11
9345.392427950946
 21
5099.81693043889
 31
0.0
  0
LINE
  5
19B69
330
1814D
100
AcDbEntity
  8
寸法
 62
     0
 48
50.0
370
    -2
100
AcDbLine
 10
9295.392427950945
 20
4660.723761099421
 30
0.0
 11
9295.392427950945
 21
5099.81693043889
 31
0.0
  0
LINE
  5
19B6A
330
1814D
100
AcDbEntity
  8
寸法
 62
     0
 48
50.0
370
    -2
100
AcDbLine
 10
9295.392427950945
 20
5039.816930438889
 30
0.0
 11
9195.392427950945
 21
5039.816930438889
 31
0.0
  0
LINE
  5
19B6B
330
1814D
100
AcDbEntity
  8
寸法
 62
     0
 48
50.0
370
    -2
100
AcDbLine
 10
9345.392427950946
 20
5039.816930438889
 30
0.0
 11
9764.924953419669
 21
5039.816930438889
 31
0.0
  0
LINE
  5
19B6C
330
1814D
100
AcDbEntity
  8
寸法
 62
     0
 48
50.0
370
    -2
100
AcDbLine
 10
9295.392427950945
 20
5039.816930438889
 30
0.0
 11
9345.392427950946
 21
5039.816930438889
 31
0.0
  0
INSERT
  5
19B6D
330
1814D
100
AcDbEntity
  8
寸法
 62
     0
 48
50.0
370
    -2
100
AcDbBlockReference
  2
_DOTSMALL
 10
9295.392427950945
 20
5039.816930438889
 30
0.0
 41
100.0
 42
100.0
 43
100.0
  0
INSERT
  5
19B6E
330
1814D
100
AcDbEntity
  8
寸法
 62
     0
 48
50.0
370
    -2
100
AcDbBlockReference
  2
_DOTSMALL
 10
9345.392427950946
 20
5039.816930438889
 30
0.0
 41
100.0
 42
100.0
 43
100.0
 50
180.0
  0
MTEXT
  5
19B6F
330
1814D
100
AcDbEntity
  8
寸法
 62
     7
 48
50.0
100
AcDbMText
 10
9658.877709325182
 20
5139.81693043889
 30
0.0
 40
120.0
 41
0.0
 71
     5
 72
     1
  1
\A1;50
  7
STYLE1
 73
     1
 44
1.0
1001
ACAD
1000
MTEXTBEGIN
1070
    73
1070
     1
1070
    44
1040
1.0
1070
    74
1070
     0
1000
MTEXTEND
  0
POINT
  5
19B70
330
1814D
100
AcDbEntity
  8
DEFPOINTS
 62
     0
 48
50.0
100
AcDbPoint
 10
9345.392427950946
 20
4640.723761099418
 30
0.0
  0
POINT
  5
19B71
330
1814D
100
AcDbEntity
  8
DEFPOINTS
 62
     0
 48
50.0
100
AcDbPoint
 10
9295.392427950945
 20
4640.723761099421
 30
0.0
  0
POINT
  5
19B72
330
1814D
100
AcDbEntity
  8
DEFPOINTS
 62
     0
 48
50.0
100
AcDbPoint
 10
9295.392427950945
 20
5039.816930438889
 30
0.0
  0
ENDBLK
  5
1815A
330
1814D
100
AcDbEntity
  8
0
 48
50.0
100
AcDbBlockEnd
  0
BLOCK
  5
18A48
330
18A3D
100
AcDbEntity
  8
0
 48
50.0
100
AcDbBlockBegin
  2
*D30
 70
     1
 10
0.0
 20
0.0
 30
0.0
  3
*D30
  1

  0
LINE
  5
19BC0
330
18A3D
100
AcDbEntity
  8
寸法
 62
     0
 48
50.0
370
    -2
100
AcDbLine
 10
11925.63260518444
 20
4640.021468169077
 30
0.0
 11
11309.69816607916
 21
4657.735618443407
 31
0.0
  0
LINE
  5
19BC1
330
18A3D
100
AcDbEntity
  8
寸法
 62
     0
 48
50.0
370
    -2
100
AcDbLine
 10
11921.57914962782
 20
4499.079744403365
 30
0.0
 11
11305.64471052253
 21
4516.793894677695
 31
0.0
  0
LINE
  5
19BC2
330
18A3D
100
AcDbEntity
  8
寸法
 62
     0
 48
50.0
370
    -2
100
AcDbLine
 10
11365.61991212496
 20
4515.069019972747
 30
0.0
 11
11369.67336768159
 21
4656.010743738459
 31
0.0
  0
LINE
  5
19BC3
330
18A3D
100
AcDbEntity
  8
寸法
 62
     0
 48
50.0
370
    -2
100
AcDbLine
 10
11369.67336768159
 20
4656.010743738459
 30
0.0
 11
11380.02261591127
 21
5015.861953353045
 31
0.0
  0
INSERT
  5
19BC4
330
18A3D
100
AcDbEntity
  8
寸法
 62
     0
 48
50.0
370
    -2
100
AcDbBlockReference
  2
_DOTSMALL
 10
11365.61991212496
 20
4515.069019972747
 30
0.0
 41
100.0
 42
100.0
 43
100.0
 50
268.3526390256378
  0
INSERT
  5
19BC5
330
18A3D
100
AcDbEntity
  8
寸法
 62
     0
 48
50.0
370
    -2
100
AcDbBlockReference
  2
_DOTSMALL
 10
11369.67336768159
 20
4656.010743738459
 30
0.0
 41
100.0
 42
100.0
 43
100.0
 50
88.35263902563776
  0
MTEXT
  5
19BC6
330
18A3D
100
AcDbEntity
  8
寸法
 62
     7
 48
50.0
100
AcDbMText
 10
11276.3267180465
 20
4888.790474389358
 30
0.0
 40
120.0
 41
0.0
 71
     5
 72
     1
  1
\A1;141
  7
STYLE1
 11
0.0287479117491237
 21
0.9995866933738488
 31
0.0
 73
     1
 44
1.0
1001
ACAD
1000
MTEXTBEGIN
1070
    73
1070
     1
1070
    44
1040
1.0
1070
    74
1070
     0
1000
MTEXTEND
  0
POINT
  5
19BC7
330
18A3D
100
AcDbEntity
  8
DEFPOINTS
 62
     0
 48
50.0
100
AcDbPoint
 10
11945.62433905192
 20
4639.446509934095
 30
0.0
  0
POINT
  5
19BC8
330
18A3D
100
AcDbEntity
  8
DEFPOINTS
 62
     0
 48
50.0
100
AcDbPoint
 10
11941.57088349529
 20
4498.504786168382
 30
0.0
  0
POINT
  5
19BC9
330
18A3D
100
AcDbEntity
  8
DEFPOINTS
 62
     0
 48
50.0
100
AcDbPoint
 10
11365.61991212496
 20
4515.069019972747
 30
0.0
  0
ENDBLK
  5
18A49
330
18A3D
100
AcDbEntity
  8
0
 48
50.0
100
AcDbBlockEnd
  0
BLOCK
  5
18A55
330
18A4A
100
AcDbEntity
  8
0
 48
50.0
100
AcDbBlockBegin
  2
*D31
 70
     1
 10
0.0
 20
0.0
 30
0.0
  3
*D31
  1

  0
LINE
  5
19BB6
330
18A4A
100
AcDbEntity
  8
寸法
 62
     0
 48
50.0
370
    -2
100
AcDbLine
 10
15036.22831889334
 20
4607.534440711071
 30
0.0
 11
15036.22831889334
 21
5099.381214678722
 31
0.0
  0
LINE
  5
19BB7
330
18A4A
100
AcDbEntity
  8
寸法
 62
     0
 48
50.0
370
    -2
100
AcDbLine
 10
15116.22831889334
 20
4605.72376109942
 30
0.0
 11
15116.22831889334
 21
5099.381214678722
 31
0.0
  0
LINE
  5
19BB8
330
18A4A
100
AcDbEntity
  8
寸法
 62
     0
 48
50.0
370
    -2
100
AcDbLine
 10
15036.22831889334
 20
5039.381214678723
 30
0.0
 11
15116.22831889334
 21
5039.381214678723
 31
0.0
  0
LINE
  5
19BB9
330
18A4A
100
AcDbEntity
  8
寸法
 62
     0
 48
50.0
370
    -2
100
AcDbLine
 10
15116.22831889334
 20
5039.381214678723
 30
0.0
 11
15428.32280708232
 21
5039.381214678723
 31
0.0
  0
INSERT
  5
19BBA
330
18A4A
100
AcDbEntity
  8
寸法
 62
     0
 48
50.0
370
    -2
100
AcDbBlockReference
  2
_DOTSMALL
 10
15036.22831889334
 20
5039.381214678723
 30
0.0
 41
100.0
 42
100.0
 43
100.0
 50
180.0
  0
INSERT
  5
19BBB
330
18A4A
100
AcDbEntity
  8
寸法
 62
     0
 48
50.0
370
    -2
100
AcDbBlockReference
  2
_DOTSMALL
 10
15116.22831889334
 20
5039.381214678723
 30
0.0
 41
100.0
 42
100.0
 43
100.0
  0
MTEXT
  5
19BBC
330
18A4A
100
AcDbEntity
  8
寸法
 62
     7
 48
50.0
100
AcDbMText
 10
15322.27556298783
 20
5139.381214678722
 30
0.0
 40
120.0
 41
0.0
 71
     5
 72
     1
  1
\A1;80
  7
STYLE1
 73
     1
 44
1.0
1001
ACAD
1000
MTEXTBEGIN
1070
    73
1070
     1
1070
    44
1040
1.0
1070
    74
1070
     0
1000
MTEXTEND
  0
POINT
  5
19BBD
330
18A4A
100
AcDbEntity
  8
DEFPOINTS
 62
     0
 48
50.0
100
AcDbPoint
 10
15036.22831889334
 20
4587.534440711071
 30
0.0
  0
POINT
  5
19BBE
330
18A4A
100
AcDbEntity
  8
DEFPOINTS
 62
     0
 48
50.0
100
AcDbPoint
 10
15116.22831889334
 20
4585.723761099419
 30
0.0
  0
POINT
  5
19BBF
330
18A4A
100
AcDbEntity
  8
DEFPOINTS
 62
     0
 48
50.0
100
AcDbPoint
 10
15116.22831889334
 20
5039.381214678723
 30
0.0
  0
ENDBLK
  5
18A56
330
18A4A
100
AcDbEntity
  8
0
 48
50.0
100
AcDbBlockEnd
  0
BLOCK
  5
18A61
330
18A57
100
AcDbEntity
  8
0
 48
50.0
100
AcDbBlockBegin
  2
*D32
 70
     1
 10
0.0
 20
0.0
 30
0.0
  3
*D32
  1

  0
LINE
  5
19C0F
330
18A57
100
AcDbEntity
  8
寸法
 62
     0
 48
50.0
370
    -2
100
AcDbLine
 10
15116.22831889334
 20
4605.723761099418
 30
0.0
 11
15116.22831889334
 21
5329.494807464999
 31
0.0
  0
LINE
  5
19C10
330
18A57
100
AcDbEntity
  8
寸法
 62
     0
 48
50.0
370
    -2
100
AcDbLine
 10
11926.22831889334
 20
4660.723761099421
 30
0.0
 11
11926.22831889334
 21
5329.494807464999
 31
0.0
  0
LINE
  5
19C11
330
18A57
100
AcDbEntity
  8
寸法
 62
     0
 48
50.0
370
    -2
100
AcDbLine
 10
15116.22831889334
 20
5269.494807464998
 30
0.0
 11
11926.22831889334
 21
5269.494807464998
 31
0.0
  0
INSERT
  5
19C12
330
18A57
100
AcDbEntity
  8
寸法
 62
     0
 48
50.0
370
    -2
100
AcDbBlockReference
  2
_DOTSMALL
 10
15116.22831889334
 20
5269.494807464998
 30
0.0
 41
100.0
 42
100.0
 43
100.0
  0
INSERT
  5
19C13
330
18A57
100
AcDbEntity
  8
寸法
 62
     0
 48
50.0
370
    -2
100
AcDbBlockReference
  2
_DOTSMALL
 10
11926.22831889334
 20
5269.494807464998
 30
0.0
 41
100.0
 42
100.0
 43
100.0
 50
180.0
  0
MTEXT
  5
19C14
330
18A57
100
AcDbEntity
  8
寸法
 62
     7
 48
50.0
100
AcDbMText
 10
13521.22831889334
 20
5369.494807464999
 30
0.0
 40
120.0
 41
0.0
 71
     5
 72
     1
  1
\A1;3190
  7
STYLE1
 73
     1
 44
1.0
1001
ACAD
1000
MTEXTBEGIN
1070
    73
1070
     1
1070
    44
1040
1.0
1070
    74
1070
     0
1000
MTEXTEND
  0
POINT
  5
19C15
330
18A57
100
AcDbEntity
  8
DEFPOINTS
 62
     0
 48
50.0
100
AcDbPoint
 10
15116.22831889334
 20
4585.723761099418
 30
0.0
  0
POINT
  5
19C16
330
18A57
100
AcDbEntity
  8
DEFPOINTS
 62
     0
 48
50.0
100
AcDbPoint
 10
11926.22831889334
 20
4640.723761099422
 30
0.0
  0
POINT
  5
19C17
330
18A57
100
AcDbEntity
  8
DEFPOINTS
 62
     0
 48
50.0
100
AcDbPoint
 10
11926.22831889334
 20
5269.494807464998
 30
0.0
  0
ENDBLK
  5
18A62
330
18A57
100
AcDbEntity
  8
0
 48
50.0
100
AcDbBlockEnd
  0
BLOCK
  5
18A6F
330
18A63
100
AcDbEntity
  8
0
 48
50.0
100
AcDbBlockBegin
  2
*D33
 70
     1
 10
0.0
 20
0.0
 30
0.0
  3
*D33
  1

  0
LINE
  5
19BA2
330
18A63
100
AcDbEntity
  8
寸法
 62
     0
 48
50.0
370
    -2
100
AcDbLine
 10
11986.22831889334
 20
4656.725379222392
 30
0.0
 11
11986.22831889334
 21
5099.381214678721
 31
0.0
  0
LINE
  5
19BA3
330
18A63
100
AcDbEntity
  8
寸法
 62
     0
 48
50.0
370
    -2
100
AcDbLine
 10
11926.22831889334
 20
4660.723761099421
 30
0.0
 11
11926.22831889334
 21
5099.381214678721
 31
0.0
  0
LINE
  5
19BA4
330
18A63
100
AcDbEntity
  8
寸法
 62
     0
 48
50.0
370
    -2
100
AcDbLine
 10
11986.22831889334
 20
5039.38121467872
 30
0.0
 11
12086.22831889334
 21
5039.38121467872
 31
0.0
  0
LINE
  5
19BA5
330
18A63
100
AcDbEntity
  8
寸法
 62
     0
 48
50.0
370
    -2
100
AcDbLine
 10
11926.22831889334
 20
5039.38121467872
 30
0.0
 11
11506.95272834216
 21
5039.38121467872
 31
0.0
  0
LINE
  5
19BA6
330
18A63
100
AcDbEntity
  8
寸法
 62
     0
 48
50.0
370
    -2
100
AcDbLine
 10
11986.22831889334
 20
5039.38121467872
 30
0.0
 11
11926.22831889334
 21
5039.38121467872
 31
0.0
  0
INSERT
  5
19BA7
330
18A63
100
AcDbEntity
  8
寸法
 62
     0
 48
50.0
370
    -2
100
AcDbBlockReference
  2
_DOTSMALL
 10
11986.22831889334
 20
5039.38121467872
 30
0.0
 41
100.0
 42
100.0
 43
100.0
 50
180.0
  0
INSERT
  5
19BA8
330
18A63
100
AcDbEntity
  8
寸法
 62
     0
 48
50.0
370
    -2
100
AcDbBlockReference
  2
_DOTSMALL
 10
11926.22831889334
 20
5039.38121467872
 30
0.0
 41
100.0
 42
100.0
 43
100.0
  0
MTEXT
  5
19BA9
330
18A63
100
AcDbEntity
  8
寸法
 62
     7
 48
50.0
100
AcDbMText
 10
11616.59052361775
 20
5139.381214678721
 30
0.0
 40
120.0
 41
0.0
 71
     5
 72
     1
  1
\A1;60
  7
STYLE1
 73
     1
 44
1.0
1001
ACAD
1000
MTEXTBEGIN
1070
    73
1070
     1
1070
    44
1040
1.0
1070
    74
1070
     0
1000
MTEXTEND
  0
POINT
  5
19BAA
330
18A63
100
AcDbEntity
  8
DEFPOINTS
 62
     0
 48
50.0
100
AcDbPoint
 10
11986.22831889334
 20
4636.725379222393
 30
0.0
  0
POINT
  5
19BAB
330
18A63
100
AcDbEntity
  8
DEFPOINTS
 62
     0
 48
50.0
100
AcDbPoint
 10
11926.22831889334
 20
4640.723761099422
 30
0.0
  0
POINT
  5
19BAC
330
18A63
100
AcDbEntity
  8
DEFPOINTS
 62
     0
 48
50.0
100
AcDbPoint
 10
11926.22831889334
 20
5039.38121467872
 30
0.0
  0
ENDBLK
  5
18A70
330
18A63
100
AcDbEntity
  8
0
 48
50.0
100
AcDbBlockEnd
  0
BLOCK
  5
18A7B
330
18A71
100
AcDbEntity
  8
0
 48
50.0
100
AcDbBlockBegin
  2
*D34
 70
     1
 10
0.0
 20
0.0
 30
0.0
  3
*D34
  1

  0
LINE
  5
19C18
330
18A71
100
AcDbEntity
  8
寸法
 62
     0
 48
50.0
370
    -2
100
AcDbLine
 10
15036.22831889334
 20
4607.534440711071
 30
0.0
 11
15036.22831889334
 21
5099.381214678722
 31
0.0
  0
LINE
  5
19C19
330
18A71
100
AcDbEntity
  8
寸法
 62
     0
 48
50.0
370
    -2
100
AcDbLine
 10
11986.22831889334
 20
4656.725379222392
 30
0.0
 11
11986.22831889334
 21
5099.381214678722
 31
0.0
  0
LINE
  5
19C1A
330
18A71
100
AcDbEntity
  8
寸法
 62
     0
 48
50.0
370
    -2
100
AcDbLine
 10
15036.22831889334
 20
5039.381214678723
 30
0.0
 11
11986.22831889334
 21
5039.381214678723
 31
0.0
  0
INSERT
  5
19C1B
330
18A71
100
AcDbEntity
  8
寸法
 62
     0
 48
50.0
370
    -2
100
AcDbBlockReference
  2
_DOTSMALL
 10
15036.22831889334
 20
5039.381214678723
 30
0.0
 41
100.0
 42
100.0
 43
100.0
  0
INSERT
  5
19C1C
330
18A71
100
AcDbEntity
  8
寸法
 62
     0
 48
50.0
370
    -2
100
AcDbBlockReference
  2
_DOTSMALL
 10
11986.22831889334
 20
5039.381214678723
 30
0.0
 41
100.0
 42
100.0
 43
100.0
 50
180.0
  0
MTEXT
  5
19C1D
330
18A71
100
AcDbEntity
  8
寸法
 62
     7
 48
50.0
100
AcDbMText
 10
13511.22831889334
 20
5139.381214678722
 30
0.0
 40
120.0
 41
0.0
 71
     5
 72
     1
  1
\A1;柱外寸法3050
  7
STYLE1
 73
     1
 44
1.0
1001
ACAD
1000
MTEXTBEGIN
1070
    73
1070
     1
1070
    44
1040
1.0
1070
    74
1070
     0
1000
MTEXTEND
  0
POINT
  5
19C1E
330
18A71
100
AcDbEntity
  8
DEFPOINTS
 62
     0
 48
50.0
100
AcDbPoint
 10
15036.22831889334
 20
4587.534440711071
 30
0.0
  0
POINT
  5
19C1F
330
18A71
100
AcDbEntity
  8
DEFPOINTS
 62
     0
 48
50.0
100
AcDbPoint
 10
11986.22831889334
 20
4636.725379222393
 30
0.0
  0
POINT
  5
19C20
330
18A71
100
AcDbEntity
  8
DEFPOINTS
 62
     0
 48
50.0
100
AcDbPoint
 10
11986.22831889334
 20
5039.381214678723
 30
0.0
  0
ENDBLK
  5
18A7C
330
18A71
100
AcDbEntity
  8
0
 48
50.0
100
AcDbBlockEnd
  0
BLOCK
  5
18A89
330
18A7D
100
AcDbEntity
  8
0
 48
50.0
100
AcDbBlockBegin
  2
*D35
 70
     1
 10
0.0
 20
0.0
 30
0.0
  3
*D35
  1

  0
LINE
  5
19B8E
330
18A7D
100
AcDbEntity
  8
寸法
 62
     0
 48
50.0
370
    -2
100
AcDbLine
 10
11966.22831889334
 20
2315.723761099416
 30
0.0
 11
11082.47818971008
 21
2315.723761099417
 31
0.0
  0
LINE
  5
19B8F
330
18A7D
100
AcDbEntity
  8
寸法
 62
     0
 48
50.0
370
    -2
100
AcDbLine
 10
11911.22831889334
 20
2265.723761099416
 30
0.0
 11
11082.47818971008
 21
2265.723761099417
 31
0.0
  0
LINE
  5
19B90
330
18A7D
100
AcDbEntity
  8
寸法
 62
     0
 48
50.0
370
    -2
100
AcDbLine
 10
11142.47818971008
 20
2315.723761099417
 30
0.0
 11
11142.47818971008
 21
2415.723761099417
 31
0.0
  0
LINE
  5
19B91
330
18A7D
100
AcDbEntity
  8
寸法
 62
     0
 48
50.0
370
    -2
100
AcDbLine
 10
11142.47818971008
 20
2265.723761099417
 30
0.0
 11
11142.47818971008
 21
1853.629272910437
 31
0.0
  0
LINE
  5
19B92
330
18A7D
100
AcDbEntity
  8
寸法
 62
     0
 48
50.0
370
    -2
100
AcDbLine
 10
11142.47818971008
 20
2315.723761099417
 30
0.0
 11
11142.47818971008
 21
2265.723761099417
 31
0.0
  0
INSERT
  5
19B93
330
18A7D
100
AcDbEntity
  8
寸法
 62
     0
 48
50.0
370
    -2
100
AcDbBlockReference
  2
_DOTSMALL
 10
11142.47818971008
 20
2315.723761099417
 30
0.0
 41
100.0
 42
100.0
 43
100.0
 50
270.0
  0
INSERT
  5
19B94
330
18A7D
100
AcDbEntity
  8
寸法
 62
     0
 48
50.0
370
    -2
100
AcDbBlockReference
  2
_DOTSMALL
 10
11142.47818971008
 20
2265.723761099417
 30
0.0
 41
100.0
 42
100.0
 43
100.0
 50
90.0
  0
MTEXT
  5
19B95
330
18A7D
100
AcDbEntity
  8
寸法
 62
     7
 48
50.0
100
AcDbMText
 10
11042.47818971008
 20
1959.676517004927
 30
0.0
 40
120.0
 41
0.0
 71
     5
 72
     1
  1
\A1;50
  7
STYLE1
 11
0.0000000000000001
 21
1.0
 31
0.0
 73
     1
 44
1.0
1001
ACAD
1000
MTEXTBEGIN
1070
    73
1070
     1
1070
    44
1040
1.0
1070
    74
1070
     0
1000
MTEXTEND
  0
POINT
  5
19B96
330
18A7D
100
AcDbEntity
  8
DEFPOINTS
 62
     0
 48
50.0
100
AcDbPoint
 10
11986.22831889334
 20
2315.723761099416
 30
0.0
  0
POINT
  5
19B97
330
18A7D
100
AcDbEntity
  8
DEFPOINTS
 62
     0
 48
50.0
100
AcDbPoint
 10
11931.22831889334
 20
2265.723761099416
 30
0.0
  0
POINT
  5
19B98
330
18A7D
100
AcDbEntity
  8
DEFPOINTS
 62
     0
 48
50.0
100
AcDbPoint
 10
11142.47818971008
 20
2265.723761099417
 30
0.0
  0
ENDBLK
  5
18A8A
330
18A7D
100
AcDbEntity
  8
0
 48
50.0
100
AcDbBlockEnd
  0
BLOCK
  5
18AA2
330
18A98
100
AcDbEntity
  8
0
 48
50.0
100
AcDbBlockBegin
  2
*D36
 70
     1
 10
0.0
 20
0.0
 30
0.0
  3
*D36
  1

  0
LINE
  5
19B85
330
18A98
100
AcDbEntity
  8
寸法
 62
     0
 48
50.0
370
    -2
100
AcDbLine
 10
15056.22831889334
 20
2265.723761099418
 30
0.0
 11
15801.15547686546
 21
2265.723761099418
 31
0.0
  0
LINE
  5
19B86
330
18A98
100
AcDbEntity
  8
寸法
 62
     0
 48
50.0
370
    -2
100
AcDbLine
 10
15136.22831889334
 20
4585.723761099418
 30
0.0
 11
15801.15547686547
 21
4585.723761099418
 31
0.0
  0
LINE
  5
19B87
330
18A98
100
AcDbEntity
  8
寸法
 62
     0
 48
50.0
370
    -2
100
AcDbLine
 10
15741.15547686546
 20
2265.723761099418
 30
0.0
 11
15741.15547686547
 21
4585.723761099418
 31
0.0
  0
INSERT
  5
19B88
330
18A98
100
AcDbEntity
  8
寸法
 62
     0
 48
50.0
370
    -2
100
AcDbBlockReference
  2
_DOTSMALL
 10
15741.15547686546
 20
2265.723761099418
 30
0.0
 41
100.0
 42
100.0
 43
100.0
 50
270.0
  0
INSERT
  5
19B89
330
18A98
100
AcDbEntity
  8
寸法
 62
     0
 48
50.0
370
    -2
100
AcDbBlockReference
  2
_DOTSMALL
 10
15741.15547686547
 20
4585.723761099418
 30
0.0
 41
100.0
 42
100.0
 43
100.0
 50
90.0
  0
MTEXT
  5
19B8A
330
18A98
100
AcDbEntity
  8
寸法
 62
     7
 48
50.0
100
AcDbMText
 10
15641.14366584184
 20
3425.723761099421
 30
0.0
 40
120.0
 41
0.0
 71
     5
 72
     1
  1
\A1;2320
  7
STYLE1
 11
0.0000000000000001
 21
1.0
 31
0.0
 73
     1
 44
1.0
1001
ACAD
1000
MTEXTBEGIN
1070
    73
1070
     1
1070
    44
1040
1.0
1070
    74
1070
     0
1000
MTEXTEND
  0
POINT
  5
19B8B
330
18A98
100
AcDbEntity
  8
DEFPOINTS
 62
     0
 48
50.0
100
AcDbPoint
 10
15036.22831889334
 20
2265.723761099418
 30
0.0
  0
POINT
  5
19B8C
330
18A98
100
AcDbEntity
  8
DEFPOINTS
 62
     0
 48
50.0
100
AcDbPoint
 10
15116.22831889334
 20
4585.723761099418
 30
0.0
  0
POINT
  5
19B8D
330
18A98
100
AcDbEntity
  8
DEFPOINTS
 62
     0
 48
50.0
100
AcDbPoint
 10
15741.15547686547
 20
4585.723761099418
 30
0.0
  0
ENDBLK
  5
18AA3
330
18A98
100
AcDbEntity
  8
0
 48
50.0
100
AcDbBlockEnd
  0
BLOCK
  5
18AAE
330
18AA4
100
AcDbEntity
  8
0
 48
50.0
100
AcDbBlockBegin
  2
*D37
 70
     1
 10
0.0
 20
0.0
 30
0.0
  3
*D37
  1

  0
LINE
  5
19B7C
330
18AA4
100
AcDbEntity
  8
寸法
 62
     0
 48
50.0
370
    -2
100
AcDbLine
 10
11966.22831889334
 20
2265.723761099411
 30
0.0
 11
10782.47818971008
 21
2265.723761099411
 31
0.0
  0
LINE
  5
19B7D
330
18AA4
100
AcDbEntity
  8
寸法
 62
     0
 48
50.0
370
    -2
100
AcDbLine
 10
11906.22831889334
 20
4640.723761099416
 30
0.0
 11
10782.47818971008
 21
4640.723761099416
 31
0.0
  0
LINE
  5
19B7E
330
18AA4
100
AcDbEntity
  8
寸法
 62
     0
 48
50.0
370
    -2
100
AcDbLine
 10
10842.47818971008
 20
2265.723761099411
 30
0.0
 11
10842.47818971008
 21
4640.723761099416
 31
0.0
  0
INSERT
  5
19B7F
330
18AA4
100
AcDbEntity
  8
寸法
 62
     0
 48
50.0
370
    -2
100
AcDbBlockReference
  2
_DOTSMALL
 10
10842.47818971008
 20
2265.723761099411
 30
0.0
 41
100.0
 42
100.0
 43
100.0
 50
270.0
  0
INSERT
  5
19B80
330
18AA4
100
AcDbEntity
  8
寸法
 62
     0
 48
50.0
370
    -2
100
AcDbBlockReference
  2
_DOTSMALL
 10
10842.47818971008
 20
4640.723761099416
 30
0.0
 41
100.0
 42
100.0
 43
100.0
 50
90.0
  0
MTEXT
  5
19B81
330
18AA4
100
AcDbEntity
  8
寸法
 62
     7
 48
50.0
100
AcDbMText
 10
10742.46637868646
 20
3453.223761099416
 30
0.0
 40
120.0
 41
0.0
 71
     5
 72
     1
  1
\A1;2375
  7
STYLE1
 11
0.0000000000000001
 21
1.0
 31
0.0
 73
     1
 44
1.0
1001
ACAD
1000
MTEXTBEGIN
1070
    73
1070
     1
1070
    44
1040
1.0
1070
    74
1070
     0
1000
MTEXTEND
  0
POINT
  5
19B82
330
18AA4
100
AcDbEntity
  8
DEFPOINTS
 62
     0
 48
50.0
100
AcDbPoint
 10
11986.22831889334
 20
2265.723761099411
 30
0.0
  0
POINT
  5
19B83
330
18AA4
100
AcDbEntity
  8
DEFPOINTS
 62
     0
 48
50.0
100
AcDbPoint
 10
11926.22831889334
 20
4640.723761099416
 30
0.0
  0
POINT
  5
19B84
330
18AA4
100
AcDbEntity
  8
DEFPOINTS
 62
     0
 48
50.0
100
AcDbPoint
 10
10842.47818971008
 20
4640.723761099416
 30
0.0
  0
ENDBLK
  5
18AAF
330
18AA4
100
AcDbEntity
  8
0
 48
50.0
100
AcDbBlockEnd
  0
BLOCK
  5
18ABA
330
18AB0
100
AcDbEntity
  8
0
 48
50.0
100
AcDbBlockBegin
  2
*D38
 70
     1
 10
0.0
 20
0.0
 30
0.0
  3
*D38
  1

  0
LINE
  5
19B73
330
18AB0
100
AcDbEntity
  8
寸法
 62
     0
 48
50.0
370
    -2
100
AcDbLine
 10
11966.22831889334
 20
4405.723761099412
 30
0.0
 11
11082.47818971008
 21
4405.723761099412
 31
0.0
  0
LINE
  5
19B74
330
18AB0
100
AcDbEntity
  8
寸法
 62
     0
 48
50.0
370
    -2
100
AcDbLine
 10
11966.22831889334
 20
2315.723761099411
 30
0.0
 11
11082.47818971008
 21
2315.723761099411
 31
0.0
  0
LINE
  5
19B75
330
18AB0
100
AcDbEntity
  8
寸法
 62
     0
 48
50.0
370
    -2
100
AcDbLine
 10
11142.47818971008
 20
4405.723761099412
 30
0.0
 11
11142.47818971008
 21
2315.723761099411
 31
0.0
  0
INSERT
  5
19B76
330
18AB0
100
AcDbEntity
  8
寸法
 62
     0
 48
50.0
370
    -2
100
AcDbBlockReference
  2
_DOTSMALL
 10
11142.47818971008
 20
4405.723761099412
 30
0.0
 41
100.0
 42
100.0
 43
100.0
 50
90.0
  0
INSERT
  5
19B77
330
18AB0
100
AcDbEntity
  8
寸法
 62
     0
 48
50.0
370
    -2
100
AcDbBlockReference
  2
_DOTSMALL
 10
11142.47818971008
 20
2315.723761099411
 30
0.0
 41
100.0
 42
100.0
 43
100.0
 50
270.0
  0
MTEXT
  5
19B78
330
18AB0
100
AcDbEntity
  8
寸法
 62
     7
 48
50.0
100
AcDbMText
 10
11042.46637868646
 20
3360.723761099414
 30
0.0
 40
120.0
 41
0.0
 71
     5
 72
     1
  1
\A1;2090
  7
STYLE1
 11
0.0000000000000001
 21
1.0
 31
0.0
 73
     1
 44
1.0
1001
ACAD
1000
MTEXTBEGIN
1070
    73
1070
     1
1070
    44
1040
1.0
1070
    74
1070
     0
1000
MTEXTEND
  0
POINT
  5
19B79
330
18AB0
100
AcDbEntity
  8
DEFPOINTS
 62
     0
 48
50.0
100
AcDbPoint
 10
11986.22831889334
 20
4405.723761099412
 30
0.0
  0
POINT
  5
19B7A
330
18AB0
100
AcDbEntity
  8
DEFPOINTS
 62
     0
 48
50.0
100
AcDbPoint
 10
11986.22831889334
 20
2315.723761099411
 30
0.0
  0
POINT
  5
19B7B
330
18AB0
100
AcDbEntity
  8
DEFPOINTS
 62
     0
 48
50.0
100
AcDbPoint
 10
11142.47818971008
 20
2315.723761099411
 30
0.0
  0
ENDBLK
  5
18ABB
330
18AB0
100
AcDbEntity
  8
0
 48
50.0
100
AcDbBlockEnd
  0
BLOCK
  5
1926A
330
1925F
100
AcDbEntity
  8
0
 48
50.0
100
AcDbBlockBegin
  2
*D39
 70
     1
 10
0.0
 20
0.0
 30
0.0
  3
*D39
  1

  0
LINE
  5
19C36
330
1925F
100
AcDbEntity
  8
寸法
 62
     0
 48
50.0
370
    -2
100
AcDbLine
 10
9315.392427950941
 20
4240.723761099417
 30
0.0
 11
9642.935530272689
 21
4240.723761099417
 31
0.0
  0
LINE
  5
19C37
330
1925F
100
AcDbEntity
  8
寸法
 62
     0
 48
50.0
370
    -2
100
AcDbLine
 10
9315.392427950941
 20
4405.723761099416
 30
0.0
 11
9642.935530272689
 21
4405.723761099416
 31
0.0
  0
LINE
  5
19C38
330
1925F
100
AcDbEntity
  8
寸法
 62
     0
 48
50.0
370
    -2
100
AcDbLine
 10
9582.93553027269
 20
4240.723761099417
 30
0.0
 11
9582.93553027269
 21
4405.723761099416
 31
0.0
  0
LINE
  5
19C39
330
1925F
100
AcDbEntity
  8
寸法
 62
     0
 48
50.0
370
    -2
100
AcDbLine
 10
9582.93553027269
 20
4405.723761099416
 30
0.0
 11
9582.93553027269
 21
4782.694323847894
 31
0.0
  0
INSERT
  5
19C3A
330
1925F
100
AcDbEntity
  8
寸法
 62
     0
 48
50.0
370
    -2
100
AcDbBlockReference
  2
_DOTSMALL
 10
9582.93553027269
 20
4240.723761099417
 30
0.0
 41
100.0
 42
100.0
 43
100.0
 50
270.0
  0
INSERT
  5
19C3B
330
1925F
100
AcDbEntity
  8
寸法
 62
     0
 48
50.0
370
    -2
100
AcDbBlockReference
  2
_DOTSMALL
 10
9582.93553027269
 20
4405.723761099416
 30
0.0
 41
100.0
 42
100.0
 43
100.0
 50
90.0
  0
MTEXT
  5
19C3C
330
1925F
100
AcDbEntity
  8
寸法
 62
     7
 48
50.0
100
AcDbMText
 10
9482.935530272687
 20
4644.209042473656
 30
0.0
 40
120.0
 41
0.0
 71
     5
 72
     1
  1
\A1;165
  7
STYLE1
 11
0.0000000000000001
 21
1.0
 31
0.0
 73
     1
 44
1.0
1001
ACAD
1000
MTEXTBEGIN
1070
    73
1070
     1
1070
    44
1040
1.0
1070
    74
1070
     0
1000
MTEXTEND
  0
POINT
  5
19C3D
330
1925F
100
AcDbEntity
  8
DEFPOINTS
 62
     0
 48
50.0
100
AcDbPoint
 10
9295.392427950941
 20
4240.723761099417
 30
0.0
  0
POINT
  5
19C3E
330
1925F
100
AcDbEntity
  8
DEFPOINTS
 62
     0
 48
50.0
100
AcDbPoint
 10
9295.392427950941
 20
4405.723761099416
 30
0.0
  0
POINT
  5
19C3F
330
1925F
100
AcDbEntity
  8
DEFPOINTS
 62
     0
 48
50.0
100
AcDbPoint
 10
9582.93553027269
 20
4405.723761099416
 30
0.0
  0
ENDBLK
  5
1926B
330
1925F
100
AcDbEntity
  8
0
 48
50.0
100
AcDbBlockEnd
  0
BLOCK
  5
19278
330
1926C
100
AcDbEntity
  8
0
 48
50.0
100
AcDbBlockBegin
  2
*D40
 70
     1
 10
0.0
 20
0.0
 30
0.0
  3
*D40
  1

  0
LINE
  5
19C2B
330
1926C
100
AcDbEntity
  8
寸法
 62
     0
 48
50.0
370
    -2
100
AcDbLine
 10
9315.392427950941
 20
4213.723761099415
 30
0.0
 11
9642.935530272687
 21
4213.723761099415
 31
0.0
  0
LINE
  5
19C2C
330
1926C
100
AcDbEntity
  8
寸法
 62
     0
 48
50.0
370
    -2
100
AcDbLine
 10
9315.392427950941
 20
4240.723761099417
 30
0.0
 11
9642.935530272687
 21
4240.723761099417
 31
0.0
  0
LINE
  5
19C2D
330
1926C
100
AcDbEntity
  8
寸法
 62
     0
 48
50.0
370
    -2
100
AcDbLine
 10
9582.935530272687
 20
4213.723761099415
 30
0.0
 11
9582.935530272687
 21
4113.723761099415
 31
0.0
  0
LINE
  5
19C2E
330
1926C
100
AcDbEntity
  8
寸法
 62
     0
 48
50.0
370
    -2
100
AcDbLine
 10
9582.935530272687
 20
4240.723761099417
 30
0.0
 11
9582.935530272687
 21
4340.723761099417
 31
0.0
  0
MTEXT
  5
19C2F
330
1926C
100
AcDbEntity
  8
寸法
 62
     7
 48
50.0
100
AcDbMText
 10
9723.105353519054
 20
4241.690960939075
 30
0.0
 40
120.0
 41
0.0
 71
     5
 72
     1
  1
\A1;27
  7
STYLE1
 11
0.0000000000000001
 21
1.0
 31
0.0
 73
     1
 44
1.0
1001
ACAD
1000
MTEXTBEGIN
1070
    73
1070
     1
1070
    44
1040
1.0
1070
    74
1070
     0
1000
MTEXTEND
  0
LINE
  5
19C30
330
1926C
100
AcDbEntity
  8
寸法
 62
     0
 48
50.0
370
    -2
100
AcDbLine
 10
9582.935530272687
 20
4213.723761099415
 30
0.0
 11
9582.935530272687
 21
4240.723761099417
 31
0.0
  0
INSERT
  5
19C31
330
1926C
100
AcDbEntity
  8
寸法
 62
     0
 48
50.0
370
    -2
100
AcDbBlockReference
  2
_DOTSMALL
 10
9582.935530272687
 20
4213.723761099415
 30
0.0
 41
100.0
 42
100.0
 43
100.0
 50
90.0
  0
INSERT
  5
19C32
330
1926C
100
AcDbEntity
  8
寸法
 62
     0
 48
50.0
370
    -2
100
AcDbBlockReference
  2
_DOTSMALL
 10
9582.935530272687
 20
4240.723761099417
 30
0.0
 41
100.0
 42
100.0
 43
100.0
 50
270.0
  0
POINT
  5
19C33
330
1926C
100
AcDbEntity
  8
DEFPOINTS
 62
     0
 48
50.0
100
AcDbPoint
 10
9295.392427950941
 20
4213.723761099415
 30
0.0
  0
POINT
  5
19C34
330
1926C
100
AcDbEntity
  8
DEFPOINTS
 62
     0
 48
50.0
100
AcDbPoint
 10
9295.392427950941
 20
4240.723761099417
 30
0.0
  0
POINT
  5
19C35
330
1926C
100
AcDbEntity
  8
DEFPOINTS
 62
     0
 48
50.0
100
AcDbPoint
 10
9582.935530272687
 20
4240.723761099417
 30
0.0
  0
ENDBLK
  5
19279
330
1926C
100
AcDbEntity
  8
0
 48
50.0
100
AcDbBlockEnd
  0
BLOCK
  5
19284
330
1927A
100
AcDbEntity
  8
0
 48
50.0
100
AcDbBlockBegin
  2
*D41
 70
     1
 10
0.0
 20
0.0
 30
0.0
  3
*D41
  1

  0
LINE
  5
19B2D
330
1927A
100
AcDbEntity
  8
寸法
 62
     0
 48
50.0
370
    -2
100
AcDbLine
 10
9315.392427950941
 20
2265.723761099416
 30
0.0
 11
9642.935530272687
 21
2265.723761099416
 31
0.0
  0
LINE
  5
19B2E
330
1927A
100
AcDbEntity
  8
寸法
 62
     0
 48
50.0
370
    -2
100
AcDbLine
 10
9315.392427950941
 20
4213.723761099415
 30
0.0
 11
9642.935530272687
 21
4213.723761099415
 31
0.0
  0
LINE
  5
19B2F
330
1927A
100
AcDbEntity
  8
寸法
 62
     0
 48
50.0
370
    -2
100
AcDbLine
 10
9582.935530272685
 20
2265.723761099416
 30
0.0
 11
9582.935530272687
 21
4213.723761099415
 31
0.0
  0
INSERT
  5
19B30
330
1927A
100
AcDbEntity
  8
寸法
 62
     0
 48
50.0
370
    -2
100
AcDbBlockReference
  2
_DOTSMALL
 10
9582.935530272685
 20
2265.723761099416
 30
0.0
 41
100.0
 42
100.0
 43
100.0
 50
270.0
  0
INSERT
  5
19B31
330
1927A
100
AcDbEntity
  8
寸法
 62
     0
 48
50.0
370
    -2
100
AcDbBlockReference
  2
_DOTSMALL
 10
9582.935530272687
 20
4213.723761099415
 30
0.0
 41
100.0
 42
100.0
 43
100.0
 50
90.0
  0
MTEXT
  5
19B32
330
1927A
100
AcDbEntity
  8
寸法
 62
     7
 48
50.0
100
AcDbMText
 10
9482.935530272685
 20
3239.723761099418
 30
0.0
 40
120.0
 41
0.0
 71
     5
 72
     1
  1
\A1;有効開口部高サ 1948
  7
STYLE1
 11
0.0000000000000001
 21
1.0
 31
0.0
 73
     1
 44
1.0
1001
ACAD
1000
MTEXTBEGIN
1070
    73
1070
     1
1070
    44
1040
1.0
1070
    74
1070
     0
1000
MTEXTEND
  0
POINT
  5
19B33
330
1927A
100
AcDbEntity
  8
DEFPOINTS
 62
     0
 48
50.0
100
AcDbPoint
 10
9295.392427950941
 20
2265.723761099416
 30
0.0
  0
POINT
  5
19B34
330
1927A
100
AcDbEntity
  8
DEFPOINTS
 62
     0
 48
50.0
100
AcDbPoint
 10
9295.392427950941
 20
4213.723761099415
 30
0.0
  0
POINT
  5
19B35
330
1927A
100
AcDbEntity
  8
DEFPOINTS
 62
     0
 48
50.0
100
AcDbPoint
 10
9582.935530272687
 20
4213.723761099415
 30
0.0
  0
ENDBLK
  5
19285
330
1927A
100
AcDbEntity
  8
0
 48
50.0
100
AcDbBlockEnd
  0
BLOCK
  5
19716
330
1970C
100
AcDbEntity
  8
0
 48
50.0
100
AcDbBlockBegin
  2
*D42
 70
     1
 10
0.0
 20
0.0
 30
0.0
  3
*D42
  1

  0
LINE
  5
1998C
330
1970C
100
AcDbEntity
  8
寸法
 62
     0
 48
50.0
370
    -2
100
AcDbLine
 10
4135.392427950708
 20
9575.997424545716
 30
0.0
 11
4432.233788211533
 21
9575.997424545716
 31
0.0
  0
LINE
  5
1998D
330
1970C
100
AcDbEntity
  8
寸法
 62
     0
 48
50.0
370
    -2
100
AcDbLine
 10
4110.392427950933
 20
10292.49742454587
 30
0.0
 11
4432.233788211534
 21
10292.49742454587
 31
0.0
  0
LINE
  5
1998E
330
1970C
100
AcDbEntity
  8
寸法
 62
     0
 48
50.0
370
    -2
100
AcDbLine
 10
4372.233788211533
 20
9575.997424545716
 30
0.0
 11
4372.233788211534
 21
10292.49742454587
 31
0.0
  0
INSERT
  5
1998F
330
1970C
100
AcDbEntity
  8
寸法
 62
     0
 48
50.0
370
    -2
100
AcDbBlockReference
  2
_DOTSMALL
 10
4372.233788211533
 20
9575.997424545716
 30
0.0
 41
100.0
 42
100.0
 43
100.0
 50
270.0
  0
INSERT
  5
19990
330
1970C
100
AcDbEntity
  8
寸法
 62
     0
 48
50.0
370
    -2
100
AcDbBlockReference
  2
_DOTSMALL
 10
4372.233788211534
 20
10292.49742454587
 30
0.0
 41
100.0
 42
100.0
 43
100.0
 50
90.0
  0
MTEXT
  5
19991
330
1970C
100
AcDbEntity
  8
寸法
 62
     7
 48
50.0
100
AcDbMText
 10
4272.233788211532
 20
9934.247424545795
 30
0.0
 40
120.0
 41
0.0
 71
     5
 72
     1
  1
\A1;716.5
  7
STYLE1
 11
0.0000000000000001
 21
1.0
 31
0.0
 73
     1
 44
1.0
1001
ACAD
1000
MTEXTBEGIN
1070
    73
1070
     1
1070
    44
1040
1.0
1070
    74
1070
     0
1000
MTEXTEND
  0
POINT
  5
19992
330
1970C
100
AcDbEntity
  8
DEFPOINTS
 62
     0
 48
50.0
100
AcDbPoint
 10
4115.392427950707
 20
9575.997424545716
 30
0.0
  0
POINT
  5
19993
330
1970C
100
AcDbEntity
  8
DEFPOINTS
 62
     0
 48
50.0
100
AcDbPoint
 10
4090.392427950933
 20
10292.49742454587
 30
0.0
  0
POINT
  5
19994
330
1970C
100
AcDbEntity
  8
DEFPOINTS
 62
     0
 48
50.0
100
AcDbPoint
 10
4372.233788211534
 20
10292.49742454587
 30
0.0
  0
ENDBLK
  5
19717
330
1970C
100
AcDbEntity
  8
0
 48
50.0
100
AcDbBlockEnd
  0
ENDSEC
  0
SECTION
  2
ENTITIES
  0
MTEXT
  5
763F
330
747D
100
AcDbEntity
  8
0
100
AcDbMText
 10
302.846345836809
 20
280.1983726409901
 30
0.0
 40
3.5
 41
5.323721266742722
 71
     1
 72
     5
  1

  7
MSMINCHO
 73
     1
 44
1.0
1001
ACAD
1000
MTEXTBEGIN
1070
    73
1070
     1
1070
    44
1040
1.0
1070
    74
1070
     0
1000
MTEXTEND
  0
LINE
  5
10B57
330
747D
100
AcDbEntity
  8
補助
  6
PHANTOM
 62
   230
 48
50.0
100
AcDbLine
 10
139.9999999999995
 20
11409.6
 30
0.0
 11
16307.2
 21
11409.6
 31
0.0
  0
LINE
  5
10B59
330
747D
100
AcDbEntity
  8
仕様書枠
  6
Continuous
 48
50.0
100
AcDbLine
 10
13107.2
 20
1200.0
 30
0.0
 11
13107.2
 21
-0.0000000000000729
 31
0.0
  0
LINE
  5
10B5C
330
747D
100
AcDbEntity
  8
仕様書枠
 48
50.0
100
AcDbLine
 10
16307.2
 20
1200.0
 30
0.0
 11
16307.2
 21
-0.0000000000000909
 31
0.0
  0
LINE
  5
10B5D
330
747D
100
AcDbEntity
  8
仕様書枠
 48
50.0
100
AcDbLine
 10
140.0
 20
0.0
 30
0.0
 11
16307.2
 21
-0.0000000000000909
 31
0.0
  0
LINE
  5
10B5E
330
747D
100
AcDbEntity
  8
補助
  6
PHANTOM
 62
   230
 48
50.0
100
AcDbLine
 10
16307.2
 20
11409.6
 30
0.0
 11
16307.2
 21
1200.0
 31
0.0
  0
LINE
  5
10B6C
330
747D
100
AcDbEntity
  8
仕様書枠
 48
50.0
100
AcDbLine
 10
13107.2
 20
1200.0
 30
0.0
 11
16307.2
 21
1200.0
 31
0.0
  0
LINE
  5
10B6D
330
747D
100
AcDbEntity
  8
補助
  6
PHANTOM
 62
   230
 48
50.0
100
AcDbLine
 10
13107.2
 20
11409.6
 30
0.0
 11
13107.2
 21
4800.0
 31
0.0
  0
LINE
  5
10B6F
330
747D
100
AcDbEntity
  8
補助
  6
PHANTOM
 62
   230
 48
50.0
100
AcDbLine
 10
13107.2
 20
4800.0
 30
0.0
 11
16307.2
 21
4800.0
 31
0.0
  0
LINE
  5
10B72
330
747D
100
AcDbEntity
  8
文字
 62
     7
 48
50.0
100
AcDbLine
 10
13187.2
 20
400.0
 30
0.0
 11
16227.2
 21
400.0
 31
0.0
  0
TEXT
  5
10B73
330
747D
100
AcDbEntity
  8
文字
 62
     7
 48
50.0
100
AcDbText
 10
13162.9790565769
 20
895.0906074299405
 30
0.0
 40
200.0
  1
外 形 図
  7
STYLE2
100
AcDbText
  0
TEXT
  5
10B74
330
747D
100
AcDbEntity
  8
文字
 62
     7
 48
50.0
100
AcDbText
 10
13201.43669998441
 20
477.2740661031255
 30
0.0
 40
160.0
  1
機種名
  7
STYLE2
100
AcDbText
  0
TEXT
  5
10B75
330
747D
100
AcDbEntity
  8
文字
 62
     7
 48
50.0
100
AcDbText
 10
13209.4053442172
 20
228.5435242569016
 30
0.0
 40
100.0
  1
○有効開口寸法 ： 2424×1948(mm)
  7
STYLE2
100
AcDbText
  0
TEXT
  5
10B79
330
747D
100
AcDbEntity
  8
文字
 62
     7
 48
50.0
100
AcDbText
 10
14524.131837222
 20
1031.557706291228
 30
0.0
 40
100.0
  1
NO.22      <縮尺> S=1/40
  7
STYLE2
100
AcDbText
  0
LINE
  5
10B7B
330
747D
100
AcDbEntity
  8
仕様書枠
 48
50.0
100
AcDbLine
 10
13107.2
 20
800.0
 30
0.0
 11
14251.2
 21
800.0
 31
0.0
  0
LINE
  5
10B88
330
747D
100
AcDbEntity
  8
仕様書枠
  6
Continuous
 48
50.0
100
AcDbLine
 10
14251.2
 20
1200.0
 30
0.0
 11
14251.2
 21
800.0
 31
0.0
  0
DIMENSION
  5
162CD
330
747D
100
AcDbEntity
  8
寸法
100
AcDbDimension
  2
*D1
 10
9942.818773685374
 20
7297.497424545952
 30
0.0
 11
9842.806962661752
 21
8767.497424545963
 31
0.0
 70
    32
  1
7X420=<>
 71
     5
 42
2940.000000000015
  3
INABA_S40G
100
AcDbAlignedDimension
 13
9295.392427950968
 23
10237.49742454596
 33
0.0
 14
9295.392427950943
 24
7297.497424545952
 34
0.0
 50
90.0
100
AcDbRotatedDimension
1001
ACAD
1000
DSTYLE
1002
{
1002
}
  0
DIMENSION
  5
162CE
330
747D
100
AcDbEntity
  8
寸法
100
AcDbDimension
  2
*D2
 10
9942.818773685354
 20
7242.497424545956
 30
0.0
 11
9942.818773685353
 21
6864.635957641095
 31
0.0
 70
   160
 71
     5
 42
54.99999999999636
  3
INABA_S40G
100
AcDbAlignedDimension
 13
9295.392427950943
 23
7297.497424545952
 33
0.0
 14
9295.392427950943
 24
7242.497424545956
 34
0.0
 50
90.0
100
AcDbRotatedDimension
1001
ACAD
1000
DSTYLE
1002
{
1002
}
  0
DIMENSION
  5
162CF
330
747D
100
AcDbEntity
  8
寸法
100
AcDbDimension
  2
*D3
 10
9942.818773685381
 20
10237.49742454596
 30
0.0
 11
9942.818773685379
 21
10600.9827059202
 31
0.0
 70
   160
 71
     5
 42
54.99999999999636
  3
INABA_S40G
100
AcDbAlignedDimension
 13
9295.392427950968
 23
10292.49742454596
 33
0.0
 14
9295.392427950968
 24
10237.49742454596
 34
0.0
 50
90.0
100
AcDbRotatedDimension
1001
ACAD
1000
DSTYLE
1002
{
1002
}
  0
DIMENSION
  5
162D0
330
747D
100
AcDbEntity
  8
寸法
100
AcDbDimension
  2
*D4
 10
10307.92571542501
 20
7242.497424545955
 30
0.0
 11
10207.92571542501
 21
8767.497424545963
 31
0.0
 70
    32
 71
     5
 42
3050.000000000008
  3
INABA_S40G
100
AcDbAlignedDimension
 13
9295.392427950968
 23
10292.49742454596
 33
0.0
 14
9295.392427950943
 24
7242.497424545956
 34
0.0
 50
90.0
100
AcDbRotatedDimension
1001
ACAD
1000
DSTYLE
1002
{
1002
}
  0
LINE
  5
162DC
330
747D
100
AcDbEntity
  8
部品1
100
AcDbLine
 10
9267.392427950952
 20
10264.49742454596
 30
0.0
 11
9267.392427950944
 21
7297.497424545952
 31
0.0
  0
LINE
  5
162DD
330
747D
100
AcDbEntity
  8
部品1
100
AcDbLine
 10
1433.392427950943
 20
7297.497424545821
 30
0.0
 11
1433.392427950954
 21
10264.49742454587
 31
0.0
  0
LINE
  5
162DE
330
747D
100
AcDbEntity
  8
部品1
100
AcDbLine
 10
9295.392427950968
 20
10292.49742454596
 30
0.0
 11
9295.392427950943
 21
7242.497424545956
 31
0.0
  0
LINE
  5
162DF
330
747D
100
AcDbEntity
  8
部品1
100
AcDbLine
 10
1405.392427950933
 20
10292.49742454583
 30
0.0
 11
1405.392427950961
 21
7242.497424545826
 31
0.0
  0
DIMENSION
  5
162E4
330
747D
100
AcDbEntity
  8
寸法
 48
50.0
100
AcDbDimension
  2
*D5
 10
6768.392427950961
 20
6708.0666537797
 30
0.0
 11
7980.392427950952
 21
6808.078464803323
 31
0.0
 70
    32
  1
有効開口部間口 <>
 71
     5
 42
2423.999999999982
  3
INABA_S40G
100
AcDbAlignedDimension
 13
9192.392427950943
 23
7268.497424545865
 33
0.0
 14
6768.392427950961
 24
7268.497424545865
 34
0.0
100
AcDbRotatedDimension
1001
ACAD
1000
DSTYLE
1002
{
1070
    75
1070
     1
1070
   279
1070
     2
1002
}
  0
LINE
  5
162E6
330
747D
100
AcDbEntity
  8
部品1
 48
50.0
100
AcDbLine
 10
6732.392427950959
 20
7287.997424545864
 30
0.0
 11
9228.392427950945
 21
7287.997424545864
 31
0.0
  0
DIMENSION
  5
162E7
330
747D
100
AcDbEntity
  8
寸法
100
AcDbDimension
  2
*D6
 10
9295.392427950933
 20
6261.893658188826
 30
0.0
 11
5350.392427950946
 21
6361.905469212448
 31
0.0
 70
    32
  1
N X 2630
 71
     5
 42
7889.999999999971
  3
INABA_S40G
100
AcDbAlignedDimension
 13
1405.392427950961
 23
7242.497424545861
 33
0.0
 14
9295.392427950933
 24
7242.497424545956
 34
0.0
100
AcDbRotatedDimension
1001
ACAD
1000
DSTYLE
1002
{
1002
}
  0
LINE
  5
162E8
330
747D
100
AcDbEntity
  8
部品1
100
AcDbLine
 10
1460.392427950942
 20
10237.49742454588
 30
0.0
 11
1460.39242795096
 21
7307.497424545863
 31
0.0
  0
LINE
  5
162E9
330
747D
100
AcDbEntity
  8
部品1
100
AcDbLine
 10
1485.392427950943
 20
10237.49742454588
 30
0.0
 11
1485.39242795096
 21
7307.497424545863
 31
0.0
  0
DIMENSION
  5
162EA
330
747D
100
AcDbEntity
  8
寸法
 48
50.0
100
AcDbDimension
  2
*D7
 10
1405.392427950961
 20
6708.0666537797
 30
0.0
 11
1096.907146576722
 21
6708.0666537797
 31
0.0
 70
   160
 71
     5
 42
54.99999999999636
  3
INABA_S40G
100
AcDbAlignedDimension
 13
1460.392427950957
 23
7242.497424545864
 33
0.0
 14
1405.392427950961
 24
7242.497424545861
 34
0.0
100
AcDbRotatedDimension
1001
ACAD
1000
DSTYLE
1002
{
1002
}
  0
DIMENSION
  5
162EB
330
747D
100
AcDbEntity
  8
寸法
 48
50.0
100
AcDbDimension
  2
*D8
 10
6720.392427950958
 20
6708.0666537797
 30
0.0
 11
6881.294398951019
 21
6808.0666537797
 31
0.0
 70
   160
 71
     5
 42
48.00000000000363
  3
INABA_S40G
100
AcDbAlignedDimension
 13
6768.392427950961
 23
7268.497424545865
 33
0.0
 14
6720.392427950958
 24
7242.497424545864
 34
0.0
100
AcDbRotatedDimension
1001
ACAD
1000
DSTYLE
1002
{
1070
   279
1070
     2
1002
}
  0
LINE
  5
162EC
330
747D
100
AcDbEntity
  8
部品1
100
AcDbLine
 10
1460.392427950956
 20
7242.497424545866
 30
0.0
 11
1405.392427950961
 21
7242.497424545861
 31
0.0
  0
LINE
  5
162ED
330
747D
100
AcDbEntity
  8
部品1
 48
50.0
100
AcDbLine
 10
1460.392427950961
 20
7278.497424545864
 30
0.0
 11
1437.392427950961
 21
7278.497424545864
 31
0.0
  0
LINE
  5
162EE
330
747D
100
AcDbEntity
  8
部品1
 48
50.0
100
AcDbLine
 10
1470.392427950961
 20
7268.497424545865
 30
0.0
 11
1460.392427950961
 21
7247.497424545866
 31
0.0
  0
LINE
  5
162EF
330
747D
100
AcDbEntity
  8
部品1
 48
50.0
100
AcDbLine
 10
1460.392427950961
 20
7307.497424545863
 30
0.0
 11
1460.392427950957
 21
7242.497424545866
 31
0.0
  0
LINE
  5
162F0
330
747D
100
AcDbEntity
  8
部品1
 48
50.0
100
AcDbLine
 10
1508.392427950961
 20
7268.497424545865
 30
0.0
 11
1508.392427950961
 21
7277.497424545865
 31
0.0
  0
LINE
  5
162F1
330
747D
100
AcDbEntity
  8
部品1
 48
50.0
100
AcDbLine
 10
1508.392427950961
 20
7307.497424545864
 30
0.0
 11
1508.392427950961
 21
7298.497424545866
 31
0.0
  0
LINE
  5
162F2
330
747D
100
AcDbEntity
  8
部品1
100
AcDbLine
 10
1508.392427950961
 20
7307.497424545864
 30
0.0
 11
1460.392427950961
 21
7307.497424545864
 31
0.0
  0
LINE
  5
162F3
330
747D
100
AcDbEntity
  8
部品1
100
AcDbLine
 10
1508.392427950961
 20
7268.497424545865
 30
0.0
 11
1460.392427950961
 21
7268.497424545865
 31
0.0
  0
LINE
  5
162F4
330
747D
100
AcDbEntity
  8
部品1
100
AcDbLine
 10
1460.39242795096
 20
7278.497424545864
 30
0.0
 11
1437.392427950961
 21
7278.497424545864
 31
0.0
  0
LINE
  5
162F5
330
747D
100
AcDbEntity
  8
部品1
100
AcDbLine
 10
1460.39242795096
 20
7297.497424545788
 30
0.0
 11
1405.392427950959
 21
7297.497424545788
 31
0.0
  0
LINE
  5
162F6
330
747D
100
AcDbEntity
  8
部品1
100
AcDbLine
 10
1433.392427950943
 20
7297.497424545825
 30
0.0
 11
1405.392427950959
 21
7297.497424545825
 31
0.0
  0
LINE
  5
162F7
330
747D
100
AcDbEntity
  8
部品1
100
AcDbLine
 10
1433.392427950959
 20
7297.49742454584
 30
0.0
 11
1405.392427950959
 21
7297.49742454584
 31
0.0
  0
LINE
  5
162FB
330
747D
100
AcDbEntity
  8
部品1
100
AcDbLine
 10
1433.392427950947
 20
8977.497424545839
 30
0.0
 11
1405.392427950947
 21
8977.497424545839
 31
0.0
  0
LINE
  5
162FC
330
747D
100
AcDbEntity
  8
部品1
100
AcDbLine
 10
1433.392427950947
 20
9397.497424545839
 30
0.0
 11
1405.392427950947
 21
9397.497424545839
 31
0.0
  0
LINE
  5
162FE
330
747D
100
AcDbEntity
  8
部品1
100
AcDbLine
 10
1433.392427950942
 20
9817.497424545841
 30
0.0
 11
1405.392427950942
 21
9817.497424545841
 31
0.0
  0
LINE
  5
162FF
330
747D
100
AcDbEntity
  8
部品1
100
AcDbLine
 10
9240.392427950961
 20
10237.49742454588
 30
0.0
 11
9240.392427950945
 21
7242.497424545952
 31
0.0
  0
LINE
  5
16300
330
747D
100
AcDbEntity
  8
部品1
100
AcDbLine
 10
9215.392427950961
 20
10237.49742454588
 30
0.0
 11
9215.392427950945
 21
7307.497424545864
 31
0.0
  0
DIMENSION
  5
16301
330
747D
100
AcDbEntity
  8
寸法
 48
50.0
100
AcDbDimension
  2
*D9
 10
9192.392427950943
 20
6708.0666537797
 30
0.0
 11
9081.429530302195
 21
6808.0666537797
 31
0.0
 70
   160
 71
     5
 42
48.00000000000181
  3
INABA_S40G
100
AcDbAlignedDimension
 13
9240.392427950945
 23
7242.497424545952
 33
0.0
 14
9192.392427950943
 24
7268.497424545865
 34
0.0
100
AcDbRotatedDimension
1001
ACAD
1000
DSTYLE
1002
{
1070
   279
1070
     2
1002
}
  0
DIMENSION
  5
16302
330
747D
100
AcDbEntity
  8
寸法
 48
50.0
100
AcDbDimension
  2
*D10
 10
9240.392427950945
 20
6708.066653779702
 30
0.0
 11
9603.877709325182
 21
6708.066653779702
 31
0.0
 70
   160
 71
     5
 42
54.99999999999818
  3
INABA_S40G
100
AcDbAlignedDimension
 13
9295.392427950943
 23
7242.497424545956
 33
0.0
 14
9240.392427950945
 24
7242.497424545952
 34
0.0
100
AcDbRotatedDimension
1001
ACAD
1000
DSTYLE
1002
{
1002
}
  0
LINE
  5
16303
330
747D
100
AcDbEntity
  8
部品1
 48
50.0
100
AcDbLine
 10
9230.392427950944
 20
7268.497424545865
 30
0.0
 11
9240.392427950942
 21
7247.497424545866
 31
0.0
  0
LINE
  5
16304
330
747D
100
AcDbEntity
  8
部品1
100
AcDbLine
 10
9192.392427950943
 20
7307.497424545864
 30
0.0
 11
9240.392427950945
 21
7307.497424545864
 31
0.0
  0
LINE
  5
16305
330
747D
100
AcDbEntity
  8
部品1
100
AcDbLine
 10
9192.392427950943
 20
7268.497424545865
 30
0.0
 11
9240.392427950942
 21
7268.497424545865
 31
0.0
  0
LINE
  5
16306
330
747D
100
AcDbEntity
  8
部品1
 48
50.0
100
AcDbLine
 10
9192.392427950943
 20
7307.497424545864
 30
0.0
 11
9192.392427950943
 21
7298.497424545866
 31
0.0
  0
LINE
  5
16307
330
747D
100
AcDbEntity
  8
部品1
 48
50.0
100
AcDbLine
 10
9192.392427950943
 20
7268.497424545865
 30
0.0
 11
9192.392427950943
 21
7277.497424545865
 31
0.0
  0
LINE
  5
16308
330
747D
100
AcDbEntity
  8
部品1
100
AcDbLine
 10
9240.392427950942
 20
7278.497424545861
 30
0.0
 11
9263.392427950943
 21
7278.497424545864
 31
0.0
  0
LINE
  5
16309
330
747D
100
AcDbEntity
  8
部品1
100
AcDbLine
 10
9240.392427950942
 20
7297.497424545968
 30
0.0
 11
9295.392427950977
 21
7297.497424545968
 31
0.0
  0
LINE
  5
1630A
330
747D
100
AcDbEntity
  8
部品1
100
AcDbLine
 10
9295.392427950943
 20
7242.497424545956
 30
0.0
 11
9240.392427950945
 21
7242.497424545952
 31
0.0
  0
LINE
  5
16317
330
747D
100
AcDbEntity
  8
部品1
100
AcDbLine
 10
9267.392427950971
 20
8977.497424545967
 30
0.0
 11
9295.392427950972
 21
8977.497424545967
 31
0.0
  0
LINE
  5
16319
330
747D
100
AcDbEntity
  8
部品1
100
AcDbLine
 10
9267.392427950971
 20
9397.497424545967
 30
0.0
 11
9295.392427950972
 21
9397.497424545967
 31
0.0
  0
LINE
  5
1631A
330
747D
100
AcDbEntity
  8
部品1
100
AcDbLine
 10
9267.392427950969
 20
9817.497424545969
 30
0.0
 11
9295.392427950968
 21
9817.497424545969
 31
0.0
  0
LINE
  5
1631B
330
747D
100
AcDbEntity
  8
部品1
100
AcDbLine
 10
6693.392427951251
 20
10264.49742454599
 30
0.0
 11
7967.892427950966
 21
10264.49742454598
 31
0.0
  0
LINE
  5
1631D
330
747D
100
AcDbEntity
  8
部品1
100
AcDbLine
 10
1405.392427950967
 20
10292.49742455492
 30
0.0
 11
9295.392427950968
 21
10292.49742454597
 31
0.0
  0
DIMENSION
  5
1631F
330
747D
100
AcDbEntity
  8
寸法
100
AcDbDimension
  2
*D11
 10
9240.392427950968
 20
10508.30564417096
 30
0.0
 11
7980.392427950969
 21
10608.31745519459
 31
0.0
 70
    32
  1
6X420=<>
 71
     5
 42
2520.000000000001
  3
INABA_S40G
100
AcDbAlignedDimension
 13
6720.392427950968
 23
10292.49742454587
 33
0.0
 14
9240.392427950968
 24
10292.49742454596
 34
0.0
100
AcDbRotatedDimension
1001
ACAD
1000
DSTYLE
1002
{
1002
}
  0
DIMENSION
  5
16320
330
747D
100
AcDbEntity
  8
寸法
100
AcDbDimension
  2
*D12
 10
1460.392427950967
 20
10508.30564417085
 30
0.0
 11
1096.907146576694
 21
10508.30564417085
 31
0.0
 70
   160
 71
     5
 42
55.00000000003456
  3
INABA_S40G
100
AcDbAlignedDimension
 13
1405.392427950933
 23
10292.49742454587
 33
0.0
 14
1460.392427950967
 24
10292.49742454587
 34
0.0
100
AcDbRotatedDimension
1001
ACAD
1000
DSTYLE
1002
{
1002
}
  0
LINE
  5
16321
330
747D
100
AcDbEntity
  8
部品1
100
AcDbLine
 10
1460.392427950933
 20
10292.49742454583
 30
0.0
 11
1460.392427950935
 21
10264.49742454583
 31
0.0
  0
LINE
  5
16322
330
747D
100
AcDbEntity
  8
部品1
100
AcDbLine
 10
1460.392427950967
 20
10292.49742454587
 30
0.0
 11
1460.392427950967
 21
10264.49742454587
 31
0.0
  0
LINE
  5
16323
330
747D
100
AcDbEntity
  8
部品1
100
AcDbLine
 10
1433.392427950934
 20
10237.49742454584
 30
0.0
 11
1405.392427950935
 21
10237.49742454584
 31
0.0
  0
LINE
  5
16324
330
747D
100
AcDbEntity
  8
部品1
100
AcDbLine
 10
7140.392427950968
 20
10292.49742454598
 30
0.0
 11
7140.392427950968
 21
10264.49742454598
 31
0.0
  0
LINE
  5
16325
330
747D
100
AcDbEntity
  8
部品1
100
AcDbLine
 10
7140.392427950968
 20
10292.49742454587
 30
0.0
 11
7140.392427950968
 21
10264.49742454587
 31
0.0
  0
LINE
  5
16326
330
747D
100
AcDbEntity
  8
部品1
100
AcDbLine
 10
7140.392427950968
 20
10292.49742454587
 30
0.0
 11
7140.392427950968
 21
10264.49742454587
 31
0.0
  0
LINE
  5
16327
330
747D
100
AcDbEntity
  8
部品1
100
AcDbLine
 10
7992.892427950967
 20
10264.49742454598
 30
0.0
 11
9267.392427950969
 21
10264.49742454596
 31
0.0
  0
LINE
  5
16329
330
747D
100
AcDbEntity
  8
部品1
100
AcDbLine
 10
7560.392427950967
 20
10292.49742454598
 30
0.0
 11
7560.392427950967
 21
10264.49742454598
 31
0.0
  0
LINE
  5
1632A
330
747D
100
AcDbEntity
  8
部品1
100
AcDbLine
 10
7560.392427950967
 20
10292.49742454587
 30
0.0
 11
7560.392427950967
 21
10264.49742454587
 31
0.0
  0
LINE
  5
1632B
330
747D
100
AcDbEntity
  8
部品1
100
AcDbLine
 10
7560.392427950967
 20
10292.49742454587
 30
0.0
 11
7560.392427950967
 21
10264.49742454587
 31
0.0
  0
LINE
  5
1632C
330
747D
100
AcDbEntity
  8
部品1
100
AcDbLine
 10
7980.392427950967
 20
10292.49742454598
 30
0.0
 11
7980.392427950967
 21
10264.49742454598
 31
0.0
  0
LINE
  5
1632D
330
747D
100
AcDbEntity
  8
部品1
100
AcDbLine
 10
7967.892427950967
 20
10256.49742454596
 30
0.0
 11
7992.892427950967
 21
10256.49742454597
 31
0.0
  0
LINE
  5
1632E
330
747D
100
AcDbEntity
  8
部品1
100
AcDbLine
 10
8009.392427950968
 20
10282.49742454597
 30
0.0
 11
8015.392427950969
 21
10282.49742454597
 31
0.0
  0
LINE
  5
1632F
330
747D
100
AcDbEntity
  8
部品1
100
AcDbLine
 10
8015.392427950969
 20
10282.49742454597
 30
0.0
 11
8015.392427950969
 21
10264.49742454597
 31
0.0
  0
LINE
  5
16330
330
747D
100
AcDbEntity
  8
部品1
100
AcDbLine
 10
7945.392427950968
 20
10282.49742454597
 30
0.0
 11
7951.392427950968
 21
10282.49742454597
 31
0.0
  0
LINE
  5
16331
330
747D
100
AcDbEntity
  8
部品1
100
AcDbLine
 10
7945.392427950968
 20
10282.49742454597
 30
0.0
 11
7945.392427950968
 21
10264.49742454597
 31
0.0
  0
LINE
  5
16332
330
747D
100
AcDbEntity
  8
部品1
100
AcDbLine
 10
8400.392427950967
 20
10292.49742454598
 30
0.0
 11
8400.392427950967
 21
10264.49742454598
 31
0.0
  0
DIMENSION
  5
16333
330
747D
100
AcDbEntity
  8
寸法
100
AcDbDimension
  2
*D13
 10
9295.392427950968
 20
10508.30564417095
 30
0.0
 11
9603.877709325207
 21
10508.30564417095
 31
0.0
 70
   160
 71
     5
 42
55.0
  3
INABA_S40G
100
AcDbAlignedDimension
 13
9240.392427950968
 23
10292.49742454596
 33
0.0
 14
9295.392427950968
 24
10292.49742454596
 34
0.0
100
AcDbRotatedDimension
1001
ACAD
1000
DSTYLE
1002
{
1002
}
  0
LINE
  5
16334
330
747D
100
AcDbEntity
  8
部品1
100
AcDbLine
 10
8820.392427950967
 20
10292.49742454598
 30
0.0
 11
8820.392427950967
 21
10264.49742454598
 31
0.0
  0
LINE
  5
16335
330
747D
100
AcDbEntity
  8
部品1
100
AcDbLine
 10
9240.392427950968
 20
10292.49742454596
 30
0.0
 11
9240.392427950968
 21
10264.49742454596
 31
0.0
  0
LINE
  5
16336
330
747D
100
AcDbEntity
  8
部品1
100
AcDbLine
 10
9240.392427950968
 20
10292.49742454598
 30
0.0
 11
9240.392427950968
 21
10264.49742454598
 31
0.0
  0
LINE
  5
16337
330
747D
100
AcDbEntity
  8
部品1
100
AcDbLine
 10
9267.392427950969
 20
10237.49742454596
 30
0.0
 11
9295.392427950968
 21
10237.49742454596
 31
0.0
  0
DIMENSION
  5
1659A
330
747D
100
AcDbEntity
  8
寸法
 48
50.0
100
AcDbDimension
  2
*D15
 10
6562.392427950943
 20
6708.0666537797
 30
0.0
 11
6451.429530302196
 21
6808.0666537797
 31
0.0
 70
   160
 71
     5
 42
48.00000000000181
  3
INABA_S40G
100
AcDbAlignedDimension
 13
6610.392427950944
 23
7242.497424545952
 33
0.0
 14
6562.392427950943
 24
7268.497424545865
 34
0.0
100
AcDbRotatedDimension
1001
ACAD
1000
DSTYLE
1002
{
1070
   279
1070
     2
1002
}
  0
DIMENSION
  5
1659C
330
747D
100
AcDbEntity
  8
寸法
 48
50.0
100
AcDbDimension
  2
*D14
 10
1460.392427950957
 20
6708.0666537797
 30
0.0
 11
1621.294398951018
 21
6808.0666537797
 31
0.0
 70
   160
 71
     5
 42
48.00000000000363
  3
INABA_S40G
100
AcDbAlignedDimension
 13
1508.392427950961
 23
7268.497424545865
 33
0.0
 14
1460.392427950957
 24
7242.497424545864
 34
0.0
100
AcDbRotatedDimension
1001
ACAD
1000
DSTYLE
1002
{
1070
   279
1070
     2
1002
}
  0
DIMENSION
  5
165E9
330
747D
100
AcDbEntity
  8
寸法
 48
50.0
100
AcDbDimension
  2
*D16
 10
6610.392427950944
 20
6708.066653779702
 30
0.0
 11
6665.392427950951
 21
6556.37475874347
 31
0.0
 70
   160
 71
     5
 42
110.0000000000127
  3
INABA_S40G
100
AcDbAlignedDimension
 13
6720.392427950958
 23
7242.497424545864
 33
0.0
 14
6610.392427950944
 24
7242.497424545952
 34
0.0
100
AcDbRotatedDimension
1001
ACAD
1000
DSTYLE
1002
{
1070
   279
1070
     2
1002
}
  0
LINE
  5
16656
330
747D
100
AcDbEntity
  8
部品1
100
AcDbLine
 10
6562.392427950943
 20
7307.497424545864
 30
0.0
 11
6610.392427950944
 21
7307.497424545864
 31
0.0
  0
LINE
  5
16657
330
747D
100
AcDbEntity
  8
部品1
 48
50.0
100
AcDbLine
 10
6562.392427950943
 20
7307.497424545864
 30
0.0
 11
6562.392427950943
 21
7298.497424545866
 31
0.0
  0
LINE
  5
16658
330
747D
100
AcDbEntity
  8
部品1
100
AcDbLine
 10
6562.392427950943
 20
7268.497424545865
 30
0.0
 11
6610.392427950943
 21
7268.497424545865
 31
0.0
  0
LINE
  5
16659
330
747D
100
AcDbEntity
  8
部品1
 48
50.0
100
AcDbLine
 10
6562.392427950943
 20
7268.497424545865
 30
0.0
 11
6562.392427950943
 21
7277.497424545865
 31
0.0
  0
LINE
  5
1665A
330
747D
100
AcDbEntity
  8
部品1
 48
50.0
100
AcDbLine
 10
6600.392427950943
 20
7268.497424545865
 30
0.0
 11
6610.392427950943
 21
7247.497424545866
 31
0.0
  0
LINE
  5
1665B
330
747D
100
AcDbEntity
  8
部品1
100
AcDbLine
 10
6610.392427950943
 20
7278.497424545861
 30
0.0
 11
6633.392427950943
 21
7278.497424545864
 31
0.0
  0
LINE
  5
1665C
330
747D
100
AcDbEntity
  8
部品1
100
AcDbLine
 10
6768.392427950961
 20
7307.497424545864
 30
0.0
 11
6720.392427950961
 21
7307.497424545864
 31
0.0
  0
LINE
  5
1665D
330
747D
100
AcDbEntity
  8
部品1
 48
50.0
100
AcDbLine
 10
6768.392427950961
 20
7307.497424545864
 30
0.0
 11
6768.392427950961
 21
7298.497424545866
 31
0.0
  0
LINE
  5
1665E
330
747D
100
AcDbEntity
  8
部品1
100
AcDbLine
 10
6768.392427950961
 20
7268.497424545865
 30
0.0
 11
6720.392427950961
 21
7268.497424545865
 31
0.0
  0
LINE
  5
1665F
330
747D
100
AcDbEntity
  8
部品1
 48
50.0
100
AcDbLine
 10
6730.392427950961
 20
7268.497424545865
 30
0.0
 11
6720.392427950961
 21
7247.497424545866
 31
0.0
  0
LINE
  5
16660
330
747D
100
AcDbEntity
  8
部品1
100
AcDbLine
 10
6720.392427950961
 20
7278.497424545864
 30
0.0
 11
6697.392427950962
 21
7278.497424545864
 31
0.0
  0
LINE
  5
16661
330
747D
100
AcDbEntity
  8
部品1
 48
50.0
100
AcDbLine
 10
6720.392427950961
 20
7307.497424545863
 30
0.0
 11
6720.392427950958
 21
7242.497424545866
 31
0.0
  0
LINE
  5
16662
330
747D
100
AcDbEntity
  8
部品1
 48
50.0
100
AcDbLine
 10
6768.392427950961
 20
7268.497424545865
 30
0.0
 11
6768.392427950961
 21
7277.497424545865
 31
0.0
  0
LINE
  5
16663
330
747D
100
AcDbEntity
  8
部品1
100
AcDbLine
 10
6720.392427950956
 20
7242.497424545866
 30
0.0
 11
6610.392427950947
 21
7242.497424545859
 31
0.0
  0
LINE
  5
16664
330
747D
100
AcDbEntity
  8
部品1
 48
50.0
100
AcDbLine
 10
6610.39242795095
 20
7307.497424545953
 30
0.0
 11
6610.392427950945
 21
7242.497424545952
 31
0.0
  0
LINE
  5
16688
330
747D
100
AcDbEntity
  8
部品1
100
AcDbLine
 10
4063.392427950954
 20
10264.49742454598
 30
0.0
 11
5337.892427950965
 21
10264.49742454598
 31
0.0
  0
LINE
  5
1668A
330
747D
100
AcDbEntity
  8
部品1
100
AcDbLine
 10
4510.392427950967
 20
10292.49742454598
 30
0.0
 11
4510.392427950967
 21
10264.49742454598
 31
0.0
  0
LINE
  5
1668B
330
747D
100
AcDbEntity
  8
部品1
100
AcDbLine
 10
4510.392427950967
 20
10292.49742454587
 30
0.0
 11
4510.392427950967
 21
10264.49742454587
 31
0.0
  0
LINE
  5
1668C
330
747D
100
AcDbEntity
  8
部品1
100
AcDbLine
 10
4510.392427950967
 20
10292.49742454587
 30
0.0
 11
4510.392427950967
 21
10264.49742454587
 31
0.0
  0
LINE
  5
1668D
330
747D
100
AcDbEntity
  8
部品1
100
AcDbLine
 10
4930.392427950967
 20
10292.49742454598
 30
0.0
 11
4930.392427950967
 21
10264.49742454598
 31
0.0
  0
LINE
  5
1668E
330
747D
100
AcDbEntity
  8
部品1
100
AcDbLine
 10
4930.392427950967
 20
10292.49742454587
 30
0.0
 11
4930.392427950967
 21
10264.49742454587
 31
0.0
  0
LINE
  5
1668F
330
747D
100
AcDbEntity
  8
部品1
100
AcDbLine
 10
4930.392427950967
 20
10292.49742454587
 30
0.0
 11
4930.392427950967
 21
10264.49742454587
 31
0.0
  0
LINE
  5
16690
330
747D
100
AcDbEntity
  8
部品1
100
AcDbLine
 10
5770.392427950968
 20
10292.49742454598
 30
0.0
 11
5770.392427950968
 21
10264.49742454598
 31
0.0
  0
LINE
  5
16691
330
747D
100
AcDbEntity
  8
部品1
100
AcDbLine
 10
6190.392427950967
 20
10292.49742454598
 30
0.0
 11
6190.392427950967
 21
10264.49742454598
 31
0.0
  0
DIMENSION
  5
166DD
330
747D
100
AcDbEntity
  8
寸法
 48
50.0
100
AcDbDimension
  2
*D17
 10
6610.392427950968
 20
10508.30564417096
 30
0.0
 11
6665.392427950968
 21
10608.30564417096
 31
0.0
 70
    32
 71
     5
 42
109.9999999999991
  3
INABA_S40G
100
AcDbAlignedDimension
 13
6720.392427950968
 23
10292.49742454592
 33
0.0
 14
6610.392427950968
 24
10292.49742454591
 34
0.0
100
AcDbRotatedDimension
1001
ACAD
1000
DSTYLE
1002
{
1070
   279
1070
     2
1002
}
  0
LINE
  5
16761
330
747D
100
AcDbEntity
  8
部品1
100
AcDbLine
 10
9240.392427950961
 20
10237.49742454588
 30
0.0
 11
6720.392427951039
 21
10237.49742454588
 31
0.0
  0
LINE
  5
168C3
330
747D
100
AcDbEntity
  8
部品1
100
AcDbLine
 10
6689.392427950952
 20
7297.497424545861
 30
0.0
 11
6641.392427950951
 21
7297.497424545859
 31
0.0
  0
LINE
  5
168C4
330
747D
100
AcDbEntity
  8
部品1
 48
50.0
100
AcDbLine
 10
6641.392427950951
 20
7297.497424545861
 30
0.0
 11
6641.392427950954
 21
7242.497424545861
 31
0.0
  0
LINE
  5
168C5
330
747D
100
AcDbEntity
  8
部品1
 48
50.0
100
AcDbLine
 10
6689.392427950952
 20
7297.497424545861
 30
0.0
 11
6689.392427950955
 21
7242.497424545861
 31
0.0
  0
DIMENSION
  5
16913
330
747D
100
AcDbEntity
  8
寸法
 48
50.0
100
AcDbDimension
  2
*D18
 10
9295.392427950968
 20
10757.62711772726
 30
0.0
 11
7980.392427950969
 21
10857.63892875088
 31
0.0
 70
    32
 71
     5
 42
2630.0
  3
INABA_S40G
100
AcDbAlignedDimension
 13
6665.392427950968
 23
10667.29355852891
 33
0.0
 14
9295.392427950968
 24
10292.49742454596
 34
0.0
100
AcDbRotatedDimension
1001
ACAD
1000
DSTYLE
1002
{
1070
   279
1070
     2
1002
}
  0
LINE
  5
16C81
330
747D
100
AcDbEntity
  8
部品1
100
AcDbLine
 10
1433.392427950947
 20
8557.497424545839
 30
0.0
 11
1405.392427950947
 21
8557.497424545839
 31
0.0
  0
LINE
  5
16C82
330
747D
100
AcDbEntity
  8
部品1
100
AcDbLine
 10
9267.392427950971
 20
8557.497424545967
 30
0.0
 11
9295.392427950972
 21
8557.497424545967
 31
0.0
  0
LINE
  5
16FDA
330
747D
100
AcDbEntity
  8
部品1
100
AcDbLine
 10
1433.392427950947
 20
8137.49742454584
 30
0.0
 11
1405.392427950947
 21
8137.49742454584
 31
0.0
  0
LINE
  5
16FDB
330
747D
100
AcDbEntity
  8
部品1
100
AcDbLine
 10
9267.392427950971
 20
8137.497424545967
 30
0.0
 11
9295.392427950972
 21
8137.497424545967
 31
0.0
  0
LINE
  5
1733B
330
747D
100
AcDbEntity
  8
部品1
100
AcDbLine
 10
1433.392427950948
 20
7717.49742454584
 30
0.0
 11
1405.392427950948
 21
7717.49742454584
 31
0.0
  0
LINE
  5
1733C
330
747D
100
AcDbEntity
  8
部品1
100
AcDbLine
 10
9267.392427950971
 20
7717.497424545967
 30
0.0
 11
9295.392427950972
 21
7717.497424545967
 31
0.0
  0
LINE
  5
17351
330
747D
100
AcDbEntity
  8
部品1
 48
50.0
100
AcDbLine
 10
7967.892427950966
 20
10264.49742454598
 30
0.0
 11
7967.892427950967
 21
10256.49742454596
 31
0.0
  0
LINE
  5
17352
330
747D
100
AcDbEntity
  8
部品1
 48
50.0
100
AcDbLine
 10
7992.892427950967
 20
10256.49742454597
 30
0.0
 11
7992.892427950967
 21
10264.49742454598
 31
0.0
  0
LINE
  5
17355
330
747D
100
AcDbEntity
  8
部品1
 48
50.0
100
AcDbLine
 10
1433.392427950954
 20
10264.49742454587
 30
0.0
 11
1460.392427950942
 21
10237.49742454588
 31
0.0
  0
LINE
  5
17356
330
747D
100
AcDbEntity
  8
部品1
 48
50.0
100
AcDbLine
 10
9267.392427950952
 20
10264.49742454596
 30
0.0
 11
9240.392427950961
 21
10237.49742454588
 31
0.0
  0
LINE
  5
17360
330
747D
100
AcDbEntity
  8
部品1
 48
50.0
100
AcDbLine
 10
9215.392427950966
 20
10212.49742454578
 30
0.0
 11
6745.392427951014
 21
10212.49742454576
 31
0.0
  0
TEXT
  5
17373
330
747D
100
AcDbEntity
  8
文字
 62
     7
 48
50.0
100
AcDbText
 10
13206.46639596581
 20
76.09434707649342
 30
0.0
 40
100.0
  1
○床面積 ： Ｎ［連続数］×8.02㎡(2.43坪)
  7
STYLE2
100
AcDbText
  0
LINE
  5
173E9
330
747D
100
AcDbEntity
  8
部品1
 48
50.0
100
AcDbLine
 10
1472.39242795096
 20
7287.997424545864
 30
0.0
 11
3968.392427950945
 21
7287.997424545864
 31
0.0
  0
DIMENSION
  5
173EA
330
747D
100
AcDbEntity
  8
寸法
 48
50.0
100
AcDbDimension
  2
*D21
 10
1508.392427950961
 20
6708.0666537797
 30
0.0
 11
2720.392427950952
 21
6808.078464803323
 31
0.0
 70
    32
  1
有効開口部間口 <>
 71
     5
 42
2423.999999999982
  3
INABA_S40G
100
AcDbAlignedDimension
 13
3932.392427950943
 23
7268.497424545865
 33
0.0
 14
1508.392427950961
 24
7268.497424545865
 34
0.0
100
AcDbRotatedDimension
1001
ACAD
1000
DSTYLE
1002
{
1070
    75
1070
     1
1070
   279
1070
     2
1002
}
  0
DIMENSION
  5
173EB
330
747D
100
AcDbEntity
  8
寸法
 48
50.0
100
AcDbDimension
  2
*D20
 10
3932.392427950943
 20
6708.0666537797
 30
0.0
 11
3821.429530302196
 21
6808.0666537797
 31
0.0
 70
   160
 71
     5
 42
48.00000000000181
  3
INABA_S40G
100
AcDbAlignedDimension
 13
3980.392427950945
 23
7242.497424545952
 33
0.0
 14
3932.392427950943
 24
7268.497424545865
 34
0.0
100
AcDbRotatedDimension
1001
ACAD
1000
DSTYLE
1002
{
1070
   279
1070
     2
1002
}
  0
DIMENSION
  5
173EC
330
747D
100
AcDbEntity
  8
寸法
 48
50.0
100
AcDbDimension
  2
*D22
 10
3980.392427950945
 20
6708.066653779702
 30
0.0
 11
4035.392427950951
 21
6556.37475874347
 31
0.0
 70
   160
 71
     5
 42
110.0000000000127
  3
INABA_S40G
100
AcDbAlignedDimension
 13
4090.392427950957
 23
7242.497424545864
 33
0.0
 14
3980.392427950945
 24
7242.497424545952
 34
0.0
100
AcDbRotatedDimension
1001
ACAD
1000
DSTYLE
1002
{
1070
   279
1070
     2
1002
}
  0
DIMENSION
  5
173ED
330
747D
100
AcDbEntity
  8
寸法
 48
50.0
100
AcDbDimension
  2
*D19
 10
4090.392427950957
 20
6708.0666537797
 30
0.0
 11
4251.294398951018
 21
6808.0666537797
 31
0.0
 70
   160
 71
     5
 42
48.00000000000363
  3
INABA_S40G
100
AcDbAlignedDimension
 13
4138.392427950961
 23
7268.497424545865
 33
0.0
 14
4090.392427950957
 24
7242.497424545864
 34
0.0
100
AcDbRotatedDimension
1001
ACAD
1000
DSTYLE
1002
{
1070
   279
1070
     2
1002
}
  0
LINE
  5
173EE
330
747D
100
AcDbEntity
  8
部品1
100
AcDbLine
 10
4090.392427950956
 20
7242.497424545866
 30
0.0
 11
3980.392427950947
 21
7242.497424545859
 31
0.0
  0
LINE
  5
173EF
330
747D
100
AcDbEntity
  8
部品1
100
AcDbLine
 10
4090.39242795096
 20
7278.497424545864
 30
0.0
 11
4067.392427950961
 21
7278.497424545864
 31
0.0
  0
LINE
  5
173F0
330
747D
100
AcDbEntity
  8
部品1
 48
50.0
100
AcDbLine
 10
4059.392427950952
 20
7297.497424545861
 30
0.0
 11
4059.392427950955
 21
7242.497424545861
 31
0.0
  0
LINE
  5
173F1
330
747D
100
AcDbEntity
  8
部品1
 48
50.0
100
AcDbLine
 10
4011.392427950951
 20
7297.497424545861
 30
0.0
 11
4011.392427950954
 21
7242.497424545861
 31
0.0
  0
LINE
  5
173F2
330
747D
100
AcDbEntity
  8
部品1
100
AcDbLine
 10
4059.392427950952
 20
7297.497424545861
 30
0.0
 11
4011.39242795095
 21
7297.497424545859
 31
0.0
  0
LINE
  5
173F3
330
747D
100
AcDbEntity
  8
部品1
 48
50.0
100
AcDbLine
 10
3980.392427950949
 20
7307.497424545953
 30
0.0
 11
3980.392427950946
 21
7242.497424545952
 31
0.0
  0
LINE
  5
173F4
330
747D
100
AcDbEntity
  8
部品1
100
AcDbLine
 10
3980.392427950943
 20
7278.497424545861
 30
0.0
 11
4003.392427950942
 21
7278.497424545864
 31
0.0
  0
LINE
  5
173F5
330
747D
100
AcDbEntity
  8
部品1
 48
50.0
100
AcDbLine
 10
3970.392427950943
 20
7268.497424545865
 30
0.0
 11
3980.392427950943
 21
7247.497424545866
 31
0.0
  0
LINE
  5
173F6
330
747D
100
AcDbEntity
  8
部品1
 48
50.0
100
AcDbLine
 10
3932.392427950943
 20
7268.497424545865
 30
0.0
 11
3932.392427950943
 21
7277.497424545865
 31
0.0
  0
LINE
  5
173F7
330
747D
100
AcDbEntity
  8
部品1
100
AcDbLine
 10
3932.392427950943
 20
7268.497424545865
 30
0.0
 11
3980.392427950943
 21
7268.497424545865
 31
0.0
  0
LINE
  5
173F8
330
747D
100
AcDbEntity
  8
部品1
 48
50.0
100
AcDbLine
 10
3932.392427950943
 20
7307.497424545864
 30
0.0
 11
3932.392427950943
 21
7298.497424545866
 31
0.0
  0
LINE
  5
173F9
330
747D
100
AcDbEntity
  8
部品1
100
AcDbLine
 10
3932.392427950943
 20
7307.497424545864
 30
0.0
 11
3980.392427950945
 21
7307.497424545864
 31
0.0
  0
LINE
  5
173FA
330
747D
100
AcDbEntity
  8
部品1
 48
50.0
100
AcDbLine
 10
4138.392427950961
 20
7268.497424545865
 30
0.0
 11
4138.392427950961
 21
7277.497424545865
 31
0.0
  0
LINE
  5
173FB
330
747D
100
AcDbEntity
  8
部品1
 48
50.0
100
AcDbLine
 10
4090.392427950961
 20
7307.497424545863
 30
0.0
 11
4090.392427950957
 21
7242.497424545866
 31
0.0
  0
LINE
  5
173FC
330
747D
100
AcDbEntity
  8
部品1
 48
50.0
100
AcDbLine
 10
4100.392427950961
 20
7268.497424545865
 30
0.0
 11
4090.392427950961
 21
7247.497424545866
 31
0.0
  0
LINE
  5
173FD
330
747D
100
AcDbEntity
  8
部品1
100
AcDbLine
 10
4138.392427950961
 20
7268.497424545865
 30
0.0
 11
4090.392427950961
 21
7268.497424545865
 31
0.0
  0
LINE
  5
173FE
330
747D
100
AcDbEntity
  8
部品1
 48
50.0
100
AcDbLine
 10
4138.392427950961
 20
7307.497424545864
 30
0.0
 11
4138.392427950961
 21
7298.497424545866
 31
0.0
  0
LINE
  5
173FF
330
747D
100
AcDbEntity
  8
部品1
100
AcDbLine
 10
4138.392427950961
 20
7307.497424545864
 30
0.0
 11
4090.392427950961
 21
7307.497424545864
 31
0.0
  0
DIMENSION
  5
17400
330
747D
100
AcDbEntity
  8
寸法
 48
50.0
100
AcDbDimension
  2
*D25
 10
4035.392427950968
 20
10757.62711772726
 30
0.0
 11
2720.392427950951
 21
10857.63892875088
 31
0.0
 70
    32
 71
     5
 42
2630.000000000036
  3
INABA_S40G
100
AcDbAlignedDimension
 13
1405.392427950933
 23
10292.49742454583
 33
0.0
 14
4035.392427950968
 24
10667.29355852891
 34
0.0
100
AcDbRotatedDimension
1001
ACAD
1000
DSTYLE
1002
{
1070
   279
1070
     2
1002
}
  0
LINE
  5
17401
330
747D
100
AcDbEntity
  8
部品1
100
AcDbLine
 10
2732.892427950968
 20
10264.49742454598
 30
0.0
 11
4007.392427950968
 21
10264.49742454596
 31
0.0
  0
DIMENSION
  5
17402
330
747D
100
AcDbEntity
  8
寸法
100
AcDbDimension
  2
*D23
 10
3980.392427950969
 20
10508.30564417096
 30
0.0
 11
2720.392427950968
 21
10608.31745519459
 31
0.0
 70
    32
  1
6X420=<>
 71
     5
 42
2520.000000000001
  3
INABA_S40G
100
AcDbAlignedDimension
 13
1460.392427950967
 23
10292.49742454587
 33
0.0
 14
3980.392427950969
 24
10292.49742454596
 34
0.0
100
AcDbRotatedDimension
1001
ACAD
1000
DSTYLE
1002
{
1002
}
  0
LINE
  5
17403
330
747D
100
AcDbEntity
  8
部品1
100
AcDbLine
 10
1433.392427950954
 20
10264.49742454598
 30
0.0
 11
2707.892427950966
 21
10264.49742454598
 31
0.0
  0
LINE
  5
17404
330
747D
100
AcDbEntity
  8
部品1
100
AcDbLine
 10
1880.392427950967
 20
10292.49742454587
 30
0.0
 11
1880.392427950967
 21
10264.49742454587
 31
0.0
  0
LINE
  5
17405
330
747D
100
AcDbEntity
  8
部品1
100
AcDbLine
 10
1880.392427950967
 20
10292.49742454587
 30
0.0
 11
1880.392427950967
 21
10264.49742454587
 31
0.0
  0
LINE
  5
17406
330
747D
100
AcDbEntity
  8
部品1
100
AcDbLine
 10
1880.392427950967
 20
10292.49742454598
 30
0.0
 11
1880.392427950967
 21
10264.49742454598
 31
0.0
  0
LINE
  5
17407
330
747D
100
AcDbEntity
  8
部品1
100
AcDbLine
 10
2300.392427950967
 20
10292.49742454587
 30
0.0
 11
2300.392427950967
 21
10264.49742454587
 31
0.0
  0
LINE
  5
17408
330
747D
100
AcDbEntity
  8
部品1
100
AcDbLine
 10
2300.392427950967
 20
10292.49742454587
 30
0.0
 11
2300.392427950967
 21
10264.49742454587
 31
0.0
  0
LINE
  5
17409
330
747D
100
AcDbEntity
  8
部品1
100
AcDbLine
 10
2300.392427950967
 20
10292.49742454598
 30
0.0
 11
2300.392427950967
 21
10264.49742454598
 31
0.0
  0
LINE
  5
1740A
330
747D
100
AcDbEntity
  8
部品1
 48
50.0
100
AcDbLine
 10
2732.892427950968
 20
10264.49742454598
 30
0.0
 11
2732.892427950968
 21
10256.49742454597
 31
0.0
  0
LINE
  5
1740B
330
747D
100
AcDbEntity
  8
部品1
 48
50.0
100
AcDbLine
 10
2707.892427950966
 20
10264.49742454598
 30
0.0
 11
2707.892427950966
 21
10256.49742454596
 31
0.0
  0
LINE
  5
1740C
330
747D
100
AcDbEntity
  8
部品1
100
AcDbLine
 10
2685.392427950967
 20
10282.49742454597
 30
0.0
 11
2685.392427950967
 21
10264.49742454597
 31
0.0
  0
LINE
  5
1740D
330
747D
100
AcDbEntity
  8
部品1
100
AcDbLine
 10
2685.392427950967
 20
10282.49742454597
 30
0.0
 11
2691.392427950968
 21
10282.49742454597
 31
0.0
  0
LINE
  5
1740E
330
747D
100
AcDbEntity
  8
部品1
100
AcDbLine
 10
2755.392427950968
 20
10282.49742454597
 30
0.0
 11
2755.392427950968
 21
10264.49742454597
 31
0.0
  0
LINE
  5
1740F
330
747D
100
AcDbEntity
  8
部品1
100
AcDbLine
 10
2749.392427950967
 20
10282.49742454597
 30
0.0
 11
2755.392427950968
 21
10282.49742454597
 31
0.0
  0
LINE
  5
17410
330
747D
100
AcDbEntity
  8
部品1
100
AcDbLine
 10
2707.892427950968
 20
10256.49742454596
 30
0.0
 11
2732.892427950968
 21
10256.49742454597
 31
0.0
  0
LINE
  5
17411
330
747D
100
AcDbEntity
  8
部品1
100
AcDbLine
 10
2720.392427950967
 20
10292.49742454598
 30
0.0
 11
2720.392427950967
 21
10264.49742454598
 31
0.0
  0
LINE
  5
17412
330
747D
100
AcDbEntity
  8
部品1
100
AcDbLine
 10
3140.392427950967
 20
10292.49742454598
 30
0.0
 11
3140.392427950967
 21
10264.49742454598
 31
0.0
  0
LINE
  5
17413
330
747D
100
AcDbEntity
  8
部品1
100
AcDbLine
 10
3560.392427950966
 20
10292.49742454598
 30
0.0
 11
3560.392427950966
 21
10264.49742454598
 31
0.0
  0
DIMENSION
  5
17416
330
747D
100
AcDbEntity
  8
寸法
 48
50.0
100
AcDbDimension
  2
*D24
 10
3980.392427950969
 20
10508.30564417096
 30
0.0
 11
4035.392427950967
 21
10608.30564417096
 31
0.0
 70
    32
 71
     5
 42
109.9999999999991
  3
INABA_S40G
100
AcDbAlignedDimension
 13
4090.392427950967
 23
10292.49742454592
 33
0.0
 14
3980.392427950969
 24
10292.49742454591
 34
0.0
100
AcDbRotatedDimension
1001
ACAD
1000
DSTYLE
1002
{
1070
   279
1070
     2
1002
}
  0
LINE
  5
174B1
330
747D
100
AcDbEntity
  8
寸法
 48
50.0
100
AcDbLine
 10
4138.392427950961
 20
6708.0666537797
 30
0.0
 11
5128.392427950961
 21
6708.0666537797
 31
0.0
  0
TEXT
  5
174B2
330
747D
100
AcDbEntity
  8
文字
 48
50.0
100
AcDbText
 10
4760.573601167912
 20
6747.719481826378
 30
0.0
 40
120.0
  1
2424
  7
STYLE1
100
AcDbText
  0
LINE
  5
174B3
330
747D
100
AcDbEntity
  8
寸法
 48
50.0
100
AcDbLine
 10
5572.392427950943
 20
6708.0666537797
 30
0.0
 11
6562.392427950943
 21
6708.0666537797
 31
0.0
  0
TEXT
  5
174B4
330
747D
100
AcDbEntity
  8
文字
 48
50.0
100
AcDbText
 10
5602.741989294433
 20
6747.719481826378
 30
0.0
 40
120.0
  1
2424
  7
STYLE1
100
AcDbText
  0
LINE
  5
174B7
330
747D
100
AcDbEntity
  8
寸法
 48
50.0
100
AcDbLine
 10
4035.392427950968
 20
10757.62711772726
 30
0.0
 11
4923.392427950968
 21
10757.62711772726
 31
0.0
  0
LINE
  5
174B8
330
747D
100
AcDbEntity
  8
寸法
 48
50.0
100
AcDbLine
 10
4090.392427950966
 20
10508.30564417096
 30
0.0
 11
4930.392427950966
 21
10508.30564417096
 31
0.0
  0
TEXT
  5
174B9
330
747D
100
AcDbEntity
  8
文字
 48
50.0
100
AcDbText
 10
4562.573601167918
 20
10547.95847221764
 30
0.0
 40
120.0
  1
2520
  7
STYLE1
100
AcDbText
  0
TEXT
  5
174BA
330
747D
100
AcDbEntity
  8
文字
 48
50.0
100
AcDbText
 10
4555.57360116792
 20
10797.27994577394
 30
0.0
 40
120.0
  1
2630
  7
STYLE1
100
AcDbText
  0
LINE
  5
174BB
330
747D
100
AcDbEntity
  8
寸法
 48
50.0
100
AcDbLine
 10
5777.392427950968
 20
10757.62711772726
 30
0.0
 11
6665.392427950968
 21
10757.62711772726
 31
0.0
  0
LINE
  5
174BC
330
747D
100
AcDbEntity
  8
寸法
 48
50.0
100
AcDbLine
 10
5770.392427950969
 20
10508.30564417096
 30
0.0
 11
6610.392427950968
 21
10508.30564417096
 31
0.0
  0
TEXT
  5
174BD
330
747D
100
AcDbEntity
  8
文字
 48
50.0
100
AcDbText
 10
5807.741989294458
 20
10797.27994577394
 30
0.0
 40
120.0
  1
2630
  7
STYLE1
100
AcDbText
  0
TEXT
  5
174BE
330
747D
100
AcDbEntity
  8
文字
 48
50.0
100
AcDbText
 10
5800.741989294458
 20
10547.95847221764
 30
0.0
 40
120.0
  1
2520
  7
STYLE1
100
AcDbText
  0
LINE
  5
174E8
330
747D
100
AcDbEntity
  8
部品1
100
AcDbLine
 10
5362.892427950967
 20
10264.49742454598
 30
0.0
 11
6637.392427950968
 21
10264.49742454596
 31
0.0
  0
LINE
  5
174E9
330
747D
100
AcDbEntity
  8
部品1
100
AcDbLine
 10
6610.392431531446
 20
10237.49742454588
 30
0.0
 11
4090.392427950724
 21
10237.49742454588
 31
0.0
  0
LINE
  5
174EA
330
747D
100
AcDbEntity
  8
部品1
 48
50.0
100
AcDbLine
 10
6585.392427951034
 20
10212.49742454576
 30
0.0
 11
4115.392427950699
 21
10212.49742454574
 31
0.0
  0
LINE
  5
17617
330
747D
100
AcDbEntity
  8
仕様書枠
 48
50.0
100
AcDbLine
 10
13127.2
 20
11239.6
 30
0.0
 11
13127.2
 21
8179.600000000005
 31
0.0
  0
TEXT
  5
17618
330
747D
100
AcDbEntity
  8
文字
 62
     7
 48
50.0
100
AcDbText
 10
13229.83081656555
 20
8210.013745883735
 30
0.0
 40
100.0
  1
Z08→塗装溶融亜鉛めっき鋼板(JIS G 3313)
  7
STYLE1
100
AcDbText
  0
TEXT
  5
17619
330
747D
100
AcDbEntity
  8
文字
 62
     7
 48
50.0
100
AcDbText
 10
13229.83081656555
 20
8380.013745883733
 30
0.0
 40
100.0
  1
Y10→溶融亜鉛-5％アルミニウム合金めっき鋼板(JIS G 3317)
 41
0.9
  7
STYLE1
100
AcDbText
  0
TEXT
  5
1761A
330
747D
100
AcDbEntity
  8
文字
 62
     7
 48
50.0
100
AcDbText
 10
13229.83081656555
 20
8550.013745883733
 30
0.0
 40
100.0
  1
F12→溶融亜鉛めっき鋼板(JIS G 3302)
  7
STYLE1
100
AcDbText
  0
LINE
  5
1761B
330
747D
100
AcDbEntity
  8
仕様書枠
 48
50.0
100
AcDbLine
 10
16307.19999999999
 20
8179.600000000004
 30
0.0
 11
13127.19999999999
 21
8179.600000000005
 31
0.0
  0
LINE
  5
1761C
330
747D
100
AcDbEntity
  8
仕様書枠
 48
50.0
100
AcDbLine
 10
16307.19999999999
 20
8349.600000000004
 30
0.0
 11
13127.19999999999
 21
8349.600000000007
 31
0.0
  0
LINE
  5
1761D
330
747D
100
AcDbEntity
  8
仕様書枠
 48
50.0
100
AcDbLine
 10
16307.19999999999
 20
8519.600000000004
 30
0.0
 11
13127.19999999999
 21
8519.600000000005
 31
0.0
  0
TEXT
  5
1761E
330
747D
100
AcDbEntity
  8
文字
 62
     7
 48
50.0
100
AcDbText
 10
15022.63965474515
 20
9060.013745883725
 30
0.0
 40
100.0
  1
Z08            0.5
  7
STYLE1
100
AcDbText
  0
TEXT
  5
17620
330
747D
100
AcDbEntity
  8
文字
 62
     7
 48
50.0
100
AcDbText
 10
14850.83183167176
 20
8720.013745883729
 30
0.0
 40
100.0
  1
アルミニウム合金押出形材
  7
STYLE1
100
AcDbText
  0
TEXT
  5
17621
330
747D
100
AcDbEntity
  8
文字
 62
     7
 48
50.0
100
AcDbText
 10
15022.63965474516
 20
9400.013745883727
 30
0.0
 40
100.0
  1
F12            0.7
  7
STYLE1
100
AcDbText
  0
TEXT
  5
17622
330
747D
100
AcDbEntity
  8
文字
 62
     7
 48
50.0
100
AcDbText
 10
15022.63965474516
 20
9570.013745883727
 30
0.0
 40
100.0
  1
Y10            0.5
  7
STYLE1
100
AcDbText
  0
TEXT
  5
17623
330
747D
100
AcDbEntity
  8
文字
 62
     7
 48
50.0
100
AcDbText
 10
15022.63965474516
 20
10080.01374588372
 30
0.0
 40
100.0
  1
Y10            0.7
  7
STYLE1
100
AcDbText
  0
TEXT
  5
17624
330
747D
100
AcDbEntity
  8
文字
 62
     7
 48
50.0
100
AcDbText
 10
15022.63965474516
 20
10250.01374588373
 30
0.0
 40
100.0
  1
Y10            0.7
  7
STYLE1
100
AcDbText
  0
TEXT
  5
17625
330
747D
100
AcDbEntity
  8
文字
 62
     7
 48
50.0
100
AcDbText
 10
15022.63965474516
 20
10420.01374588372
 30
0.0
 40
100.0
  1
Y10            1.0
  7
STYLE1
100
AcDbText
  0
TEXT
  5
17626
330
747D
100
AcDbEntity
  8
文字
 62
     7
 48
50.0
100
AcDbText
 10
15022.63965474516
 20
10590.01374588373
 30
0.0
 40
100.0
  1
Y10            1.0
  7
STYLE1
100
AcDbText
  0
TEXT
  5
17627
330
747D
100
AcDbEntity
  8
文字
 62
     7
 48
50.0
100
AcDbText
 10
15022.63965474517
 20
10760.01374588372
 30
0.0
 40
100.0
  1
F12         1.0,1.2
  7
STYLE1
100
AcDbText
  0
TEXT
  5
17628
330
747D
100
AcDbEntity
  8
文字
 62
     7
 48
50.0
100
AcDbText
 10
15022.63965474517
 20
10930.01374588372
 30
0.0
 40
100.0
  1
F12            1.2
  7
STYLE1
100
AcDbText
  0
TEXT
  5
17629
330
747D
100
AcDbEntity
  8
文字
 62
     7
 48
50.0
100
AcDbText
 10
13248.77747366448
 20
9060.013745883731
 30
0.0
 40
100.0
  1
12
  7
STYLE1
100
AcDbText
  0
TEXT
  5
1762A
330
747D
100
AcDbEntity
  8
文字
 62
     7
 48
50.0
100
AcDbText
 10
13248.77747366448
 20
8890.013745883731
 30
0.0
 40
100.0
  1
13
  7
STYLE1
100
AcDbText
  0
TEXT
  5
1762B
330
747D
100
AcDbEntity
  8
文字
 62
     7
 48
50.0
100
AcDbText
 10
13583.11819016568
 20
9060.013745883729
 30
0.0
 40
100.0
  1
シャッター
  7
STYLE1
100
AcDbText
  0
LINE
  5
1762C
330
747D
100
AcDbEntity
  8
仕様書枠
 48
50.0
100
AcDbLine
 10
16307.19999999999
 20
8859.600000000002
 30
0.0
 11
13127.19999999999
 21
8859.600000000005
 31
0.0
  0
LINE
  5
1762D
330
747D
100
AcDbEntity
  8
仕様書枠
 48
50.0
100
AcDbLine
 10
16307.19999999999
 20
9029.6
 30
0.0
 11
13127.19999999999
 21
9029.600000000002
 31
0.0
  0
TEXT
  5
1762E
330
747D
100
AcDbEntity
  8
文字
 62
     7
 48
50.0
100
AcDbText
 10
13583.11819016569
 20
8890.013745883729
 30
0.0
 40
100.0
  1
シャッターカバー
 41
0.9
  7
STYLE1
100
AcDbText
  0
TEXT
  5
1762F
330
747D
100
AcDbEntity
  8
文字
 62
     7
 48
50.0
100
AcDbText
 10
13248.77747366448
 20
9230.013745883729
 30
0.0
 40
100.0
  1
11
  7
STYLE1
100
AcDbText
  0
LINE
  5
17630
330
747D
100
AcDbEntity
  8
仕様書枠
 48
50.0
100
AcDbLine
 10
16307.19999999999
 20
9709.600000000001
 30
0.0
 11
13127.19999999999
 21
9709.600000000001
 31
0.0
  0
LINE
  5
17631
330
747D
100
AcDbEntity
  8
仕様書枠
 48
50.0
100
AcDbLine
 10
16307.19999999999
 20
10049.6
 30
0.0
 11
13127.2
 21
10049.6
 31
0.0
  0
LINE
  5
17632
330
747D
100
AcDbEntity
  8
仕様書枠
 48
50.0
100
AcDbLine
 10
16307.19999999999
 20
9369.600000000001
 30
0.0
 11
13127.19999999999
 21
9369.600000000003
 31
0.0
  0
LINE
  5
17633
330
747D
100
AcDbEntity
  8
仕様書枠
 48
50.0
100
AcDbLine
 10
16307.19999999999
 20
9199.600000000001
 30
0.0
 11
13127.19999999999
 21
9199.600000000001
 31
0.0
  0
LINE
  5
17634
330
747D
100
AcDbEntity
  8
仕様書枠
 48
50.0
100
AcDbLine
 10
16307.19999999999
 20
9539.6
 30
0.0
 11
13127.19999999999
 21
9539.600000000003
 31
0.0
  0
TEXT
  5
17635
330
747D
100
AcDbEntity
  8
文字
 62
     7
 48
50.0
100
AcDbText
 10
13271.19032244792
 20
10080.01374588373
 30
0.0
 40
100.0
  1
6
  7
STYLE1
100
AcDbText
  0
TEXT
  5
17636
330
747D
100
AcDbEntity
  8
文字
 62
     7
 48
50.0
100
AcDbText
 10
13271.19032244792
 20
9910.01374588373
 30
0.0
 40
100.0
  1
7
  7
STYLE1
100
AcDbText
  0
TEXT
  5
17637
330
747D
100
AcDbEntity
  8
文字
 62
     7
 48
50.0
100
AcDbText
 10
13271.19032244792
 20
9570.013745883731
 30
0.0
 40
100.0
  1
9
  7
STYLE1
100
AcDbText
  0
TEXT
  5
17638
330
747D
100
AcDbEntity
  8
文字
 62
     7
 48
50.0
100
AcDbText
 10
13271.19032244792
 20
9740.013745883731
 30
0.0
 40
100.0
  1
8
  7
STYLE1
100
AcDbText
  0
TEXT
  5
17639
330
747D
100
AcDbEntity
  8
文字
 62
     7
 48
50.0
100
AcDbText
 10
13583.11819016569
 20
10080.01374588373
 30
0.0
 40
100.0
  1
鼻隠シ前後
  7
STYLE1
100
AcDbText
  0
TEXT
  5
1763A
330
747D
100
AcDbEntity
  8
文字
 62
     7
 48
50.0
100
AcDbText
 10
13583.11819016569
 20
9740.013745883729
 30
0.0
 40
100.0
  1
母屋中
  7
STYLE1
100
AcDbText
  0
TEXT
  5
1763B
330
747D
100
AcDbEntity
  8
文字
 62
     7
 48
50.0
100
AcDbText
 10
13583.11819016569
 20
9570.013745883729
 30
0.0
 40
100.0
  1
屋根パネル
  7
STYLE1
100
AcDbText
  0
TEXT
  5
1763C
330
747D
100
AcDbEntity
  8
文字
 62
     7
 48
50.0
100
AcDbText
 10
13583.11819016569
 20
9400.013745883731
 30
0.0
 40
100.0
  1
壁パネル
  7
STYLE1
100
AcDbText
  0
TEXT
  5
1763D
330
747D
100
AcDbEntity
  8
文字
 62
     7
 48
50.0
100
AcDbText
 10
13248.77747366448
 20
9400.013745883729
 30
0.0
 40
100.0
  1
10
  7
STYLE1
100
AcDbText
  0
TEXT
  5
1763E
330
747D
100
AcDbEntity
  8
文字
 62
     7
 48
50.0
100
AcDbText
 10
13583.11819016569
 20
8720.013745883731
 30
0.0
 40
100.0
  1
シャッターレール
  7
STYLE1
100
AcDbText
  0
TEXT
  5
1763F
330
747D
100
AcDbEntity
  8
文字
 62
     7
 48
50.0
100
AcDbText
 10
13583.11819016569
 20
10250.01374588373
 30
0.0
 40
100.0
  1
妻板左右
  7
STYLE1
100
AcDbText
  0
TEXT
  5
17640
330
747D
100
AcDbEntity
  8
文字
 62
     7
 48
50.0
100
AcDbText
 10
13271.19032244792
 20
10250.01374588373
 30
0.0
 40
100.0
  1
5
  7
STYLE1
100
AcDbText
  0
TEXT
  5
17641
330
747D
100
AcDbEntity
  8
文字
 62
     7
 48
50.0
100
AcDbText
 10
13583.11819016569
 20
10420.01374588373
 30
0.0
 40
100.0
  1
桁後
  7
STYLE1
100
AcDbText
  0
TEXT
  5
17642
330
747D
100
AcDbEntity
  8
文字
 62
     7
 48
50.0
100
AcDbText
 10
13583.11819016569
 20
10590.01374588373
 30
0.0
 40
100.0
  1
桁前
  7
STYLE1
100
AcDbText
  0
TEXT
  5
17643
330
747D
100
AcDbEntity
  8
文字
 62
     7
 48
50.0
100
AcDbText
 10
13583.11819016569
 20
10760.01374588373
 30
0.0
 40
100.0
  1
柱
  7
STYLE1
100
AcDbText
  0
TEXT
  5
17644
330
747D
100
AcDbEntity
  8
文字
 62
     7
 48
50.0
100
AcDbText
 10
13583.11819016569
 20
10930.01374588373
 30
0.0
 40
100.0
  1
土台枠
  7
STYLE1
100
AcDbText
  0
TEXT
  5
17645
330
747D
100
AcDbEntity
  8
文字
 62
     7
 48
50.0
100
AcDbText
 10
14859.79774614482
 20
11100.01374588373
 30
0.0
 40
100.0
  1
材料（材質）　　単位mm
  7
STYLE1
100
AcDbText
  0
TEXT
  5
17646
330
747D
100
AcDbEntity
  8
文字
 62
     7
 48
50.0
100
AcDbText
 10
13732.03840939434
 20
11100.01374588373
 30
0.0
 40
100.0
  1
部　　品　　名
  7
STYLE1
100
AcDbText
  0
TEXT
  5
17647
330
747D
100
AcDbEntity
  8
文字
 62
     7
 48
50.0
100
AcDbText
 10
13271.19032244792
 20
10590.01374588373
 30
0.0
 40
100.0
  1
3
  7
STYLE1
100
AcDbText
  0
TEXT
  5
17648
330
747D
100
AcDbEntity
  8
文字
 62
     7
 48
50.0
100
AcDbText
 10
13271.19032244792
 20
10420.01374588373
 30
0.0
 40
100.0
  1
4
  7
STYLE1
100
AcDbText
  0
TEXT
  5
17649
330
747D
100
AcDbEntity
  8
文字
 62
     7
 48
50.0
100
AcDbText
 10
13271.19032244792
 20
10760.01374588373
 30
0.0
 40
100.0
  1
2
  7
STYLE1
100
AcDbText
  0
TEXT
  5
1764A
330
747D
100
AcDbEntity
  8
文字
 62
     7
 48
50.0
100
AcDbText
 10
13271.19032244792
 20
10930.01374588373
 30
0.0
 40
100.0
  1
1
  7
STYLE1
100
AcDbText
  0
TEXT
  5
1764B
330
747D
100
AcDbEntity
  8
文字
 62
     7
 48
50.0
100
AcDbText
 10
13197.42518560407
 20
11100.01374588373
 30
0.0
 40
100.0
  1
品番
  7
STYLE1
100
AcDbText
  0
LINE
  5
1764C
330
747D
100
AcDbEntity
  8
仕様書枠
 48
50.0
100
AcDbLine
 10
16307.19999999999
 20
10559.6
 30
0.0
 11
13127.19999999999
 21
10559.6
 31
0.0
  0
LINE
  5
1764D
330
747D
100
AcDbEntity
  8
仕様書枠
 48
50.0
100
AcDbLine
 10
16307.19999999999
 20
10219.6
 30
0.0
 11
13127.19999999999
 21
10219.6
 31
0.0
  0
LINE
  5
1764E
330
747D
100
AcDbEntity
  8
仕様書枠
 48
50.0
100
AcDbLine
 10
16307.19999999999
 20
10389.6
 30
0.0
 11
13127.19999999999
 21
10389.6
 31
0.0
  0
LINE
  5
1764F
330
747D
100
AcDbEntity
  8
仕様書枠
 48
50.0
100
AcDbLine
 10
16307.19999999999
 20
10899.6
 30
0.0
 11
13127.2
 21
10899.6
 31
0.0
  0
LINE
  5
17650
330
747D
100
AcDbEntity
  8
仕様書枠
 48
50.0
100
AcDbLine
 10
16307.19999999999
 20
10729.6
 30
0.0
 11
13127.2
 21
10729.6
 31
0.0
  0
LINE
  5
17651
330
747D
100
AcDbEntity
  8
仕様書枠
 48
50.0
100
AcDbLine
 10
16307.19999999999
 20
11069.6
 30
0.0
 11
13127.2
 21
11069.6
 31
0.0
  0
LINE
  5
17652
330
747D
100
AcDbEntity
  8
仕様書枠
 48
50.0
100
AcDbLine
 10
13490.2
 20
11239.6
 30
0.0
 11
13490.20000000001
 21
8689.600000000005
 31
0.0
  0
LINE
  5
17653
330
747D
100
AcDbEntity
  8
仕様書枠
 48
50.0
100
AcDbLine
 10
14785.2
 20
11239.6
 30
0.0
 11
14785.19999999999
 21
8689.600000000005
 31
0.0
  0
LINE
  5
17654
330
747D
100
AcDbEntity
  8
仕様書枠
 48
50.0
100
AcDbLine
 10
16307.19999999999
 20
8179.600000000005
 30
0.0
 11
16307.2
 21
11239.6
 31
0.0
  0
LINE
  5
17655
330
747D
100
AcDbEntity
  8
仕様書枠
 48
50.0
100
AcDbLine
 10
16307.19999999999
 20
11239.6
 30
0.0
 11
13127.2
 21
11239.6
 31
0.0
  0
LINE
  5
17656
330
747D
100
AcDbEntity
  8
仕様書枠
 48
50.0
100
AcDbLine
 10
16307.19999999999
 20
9879.600000000001
 30
0.0
 11
13127.19999999999
 21
9879.600000000003
 31
0.0
  0
TEXT
  5
17657
330
747D
100
AcDbEntity
  8
文字
 62
     7
 48
50.0
100
AcDbText
 10
13583.11819016569
 20
9910.01374588373
 30
0.0
 40
100.0
  1
梁中
  7
STYLE1
100
AcDbText
  0
TEXT
  5
17658
330
747D
100
AcDbEntity
  8
文字
 62
     7
 48
50.0
100
AcDbText
 10
15022.63965474516
 20
9910.01374588373
 30
0.0
 40
100.0
  1
F12,Y10      1.2+1.6
  7
STYLE1
100
AcDbText
  0
LINE
  5
17659
330
747D
100
AcDbEntity
  8
仕様書枠
 48
50.0
100
AcDbLine
 10
16307.19999999999
 20
8689.600000000003
 30
0.0
 11
13127.19999999999
 21
8689.600000000005
 31
0.0
  0
LWPOLYLINE
  5
17C47
330
747D
100
AcDbEntity
  8
部品1
100
AcDbPolyline
 90
        4
 70
     1
 43
0.0
 10
4968.657094836737
 20
6091.04266225993
 10
4968.657094836737
 20
5851.150340714397
 10
5732.127761065178
 20
5851.150340714397
 10
5732.127761065178
 20
6091.04266225993
  0
TEXT
  5
17C48
330
747D
100
AcDbEntity
  8
部品1
100
AcDbText
 10
5058.576704665775
 20
5898.149133041407
 30
0.0
 40
135.0
  1
平面図
  7
STYLE2
100
AcDbText
  0
LINE
  5
17C53
330
747D
100
AcDbEntity
  8
部品1
 48
50.0
100
AcDbLine
 10
6665.392427950945
 20
4240.723761099416
 30
0.0
 11
6665.392427950945
 21
4499.72376109942
 31
0.0
  0
LINE
  5
17C54
330
747D
100
AcDbEntity
  8
部品1
 48
50.0
100
AcDbLine
 10
6655.392427950944
 20
4499.72376109942
 30
0.0
 11
6655.392427950942
 21
4640.723761099421
 31
0.0
  0
LINE
  5
17CAF
330
747D
100
AcDbEntity
  8
部品1
100
AcDbLine
 10
6562.392427950945
 20
4240.723761099416
 30
0.0
 11
6562.392427950945
 21
2265.723761099416
 31
0.0
  0
LINE
  5
17CB0
330
747D
100
AcDbEntity
  8
部品1
100
AcDbLine
 10
4138.392427950945
 20
4240.723761099416
 30
0.0
 11
4138.392427950945
 21
2265.723761099416
 31
0.0
  0
LINE
  5
17CB1
330
747D
100
AcDbEntity
  8
部品1
100
AcDbLine
 10
4090.392427950944
 20
4240.723761099416
 30
0.0
 11
4090.392427950944
 21
2265.723761099416
 31
0.0
  0
LINE
  5
17CB2
330
747D
100
AcDbEntity
  8
部品1
100
AcDbLine
 10
6610.392427950944
 20
4240.723761099416
 30
0.0
 11
6610.392427950944
 21
2265.723761099416
 31
0.0
  0
LINE
  5
17CB3
330
747D
100
AcDbEntity
  8
部品1
100
AcDbLine
 10
4035.392427950944
 20
4405.723761099416
 30
0.0
 11
6665.392427950945
 21
4405.723761099416
 31
0.0
  0
LINE
  5
17CB6
330
747D
100
AcDbEntity
  8
部品1
100
AcDbLine
 10
6665.392427950941
 20
2265.723761099416
 30
0.0
 11
9295.392427950941
 21
2265.723761099416
 31
0.0
  0
LINE
  5
17CB7
330
747D
100
AcDbEntity
  8
部品1
100
AcDbLine
 10
6665.392427950941
 20
4405.723761099416
 30
0.0
 11
9295.392427950941
 21
4405.723761099416
 31
0.0
  0
LINE
  5
17CB8
330
747D
100
AcDbEntity
  8
部品1
100
AcDbLine
 10
9240.392427950942
 20
4240.723761099416
 30
0.0
 11
9240.392427950942
 21
2265.723761099416
 31
0.0
  0
LINE
  5
17CB9
330
747D
100
AcDbEntity
  8
部品1
100
AcDbLine
 10
6720.39242795094
 20
4240.723761099416
 30
0.0
 11
6720.39242795094
 21
2265.723761099416
 31
0.0
  0
LINE
  5
17CBA
330
747D
100
AcDbEntity
  8
部品1
100
AcDbLine
 10
9295.392427950941
 20
4499.72376109942
 30
0.0
 11
9295.392427950941
 21
2165.723761099416
 31
0.0
  0
LINE
  5
17CBB
330
747D
100
AcDbEntity
  8
部品1
100
AcDbLine
 10
6768.392427950941
 20
4240.723761099416
 30
0.0
 11
6768.392427950941
 21
2265.723761099416
 31
0.0
  0
LINE
  5
17CBC
330
747D
100
AcDbEntity
  8
部品1
100
AcDbLine
 10
9192.392427950945
 20
4240.723761099416
 30
0.0
 11
9192.39242795094
 21
2265.723761099416
 31
0.0
  0
LINE
  5
17CBD
330
747D
100
AcDbEntity
  8
部品1
100
AcDbLine
 10
6720.39242795094
 20
4240.723761099416
 30
0.0
 11
9295.392427950941
 21
4240.723761099416
 31
0.0
  0
LINE
  5
17CBE
330
747D
100
AcDbEntity
  8
細線
100
AcDbLine
 10
6768.392427950941
 20
3900.723761099416
 30
0.0
 11
9192.39242795094
 21
3900.723761099416
 31
0.0
  0
LINE
  5
17CBF
330
747D
100
AcDbEntity
  8
細線
100
AcDbLine
 10
6768.392427950941
 20
3965.723761099417
 30
0.0
 11
9192.39242795094
 21
3965.723761099417
 31
0.0
  0
LINE
  5
17CC0
330
747D
100
AcDbEntity
  8
細線
100
AcDbLine
 10
6768.392427950941
 20
4030.723761099416
 30
0.0
 11
9192.39242795094
 21
4030.723761099416
 31
0.0
  0
LINE
  5
17CC1
330
747D
100
AcDbEntity
  8
細線
100
AcDbLine
 10
6768.392427950941
 20
3510.723761099416
 30
0.0
 11
9192.39242795094
 21
3510.723761099416
 31
0.0
  0
LINE
  5
17CC2
330
747D
100
AcDbEntity
  8
細線
100
AcDbLine
 10
6768.392427950941
 20
3575.723761099416
 30
0.0
 11
9192.39242795094
 21
3575.723761099416
 31
0.0
  0
LINE
  5
17CC3
330
747D
100
AcDbEntity
  8
細線
100
AcDbLine
 10
6768.392427950941
 20
3640.723761099417
 30
0.0
 11
9192.39242795094
 21
3640.723761099417
 31
0.0
  0
LINE
  5
17CC4
330
747D
100
AcDbEntity
  8
細線
100
AcDbLine
 10
6768.392427950941
 20
3705.723761099417
 30
0.0
 11
9192.39242795094
 21
3705.723761099417
 31
0.0
  0
LINE
  5
17CC5
330
747D
100
AcDbEntity
  8
細線
100
AcDbLine
 10
6768.392427950941
 20
3770.723761099417
 30
0.0
 11
9192.39242795094
 21
3770.723761099417
 31
0.0
  0
LINE
  5
17CC6
330
747D
100
AcDbEntity
  8
細線
100
AcDbLine
 10
6768.392427950941
 20
3835.723761099416
 30
0.0
 11
9192.39242795094
 21
3835.723761099416
 31
0.0
  0
LINE
  5
17CC7
330
747D
100
AcDbEntity
  8
細線
100
AcDbLine
 10
6768.392427950941
 20
2860.723761099416
 30
0.0
 11
9192.39242795094
 21
2860.723761099416
 31
0.0
  0
LINE
  5
17CC8
330
747D
100
AcDbEntity
  8
細線
100
AcDbLine
 10
6768.392427950941
 20
2925.723761099416
 30
0.0
 11
9192.39242795094
 21
2925.723761099416
 31
0.0
  0
LINE
  5
17CC9
330
747D
100
AcDbEntity
  8
細線
100
AcDbLine
 10
6768.392427950941
 20
2990.723761099416
 30
0.0
 11
9192.39242795094
 21
2990.723761099416
 31
0.0
  0
LINE
  5
17CCA
330
747D
100
AcDbEntity
  8
細線
100
AcDbLine
 10
6768.392427950941
 20
3055.723761099416
 30
0.0
 11
9192.39242795094
 21
3055.723761099416
 31
0.0
  0
LINE
  5
17CCB
330
747D
100
AcDbEntity
  8
細線
100
AcDbLine
 10
6768.392427950941
 20
3120.723761099416
 30
0.0
 11
9192.39242795094
 21
3120.723761099416
 31
0.0
  0
LINE
  5
17CCC
330
747D
100
AcDbEntity
  8
細線
100
AcDbLine
 10
6768.392427950941
 20
3185.723761099416
 30
0.0
 11
9192.39242795094
 21
3185.723761099416
 31
0.0
  0
LINE
  5
17CCD
330
747D
100
AcDbEntity
  8
細線
100
AcDbLine
 10
6768.392427950941
 20
3250.723761099416
 30
0.0
 11
9192.39242795094
 21
3250.723761099416
 31
0.0
  0
LINE
  5
17CCE
330
747D
100
AcDbEntity
  8
細線
100
AcDbLine
 10
6768.392427950941
 20
3315.723761099416
 30
0.0
 11
9192.39242795094
 21
3315.723761099416
 31
0.0
  0
LINE
  5
17CCF
330
747D
100
AcDbEntity
  8
細線
100
AcDbLine
 10
6768.392427950941
 20
3380.723761099416
 30
0.0
 11
9192.39242795094
 21
3380.723761099416
 31
0.0
  0
LINE
  5
17CD0
330
747D
100
AcDbEntity
  8
細線
100
AcDbLine
 10
6768.392427950941
 20
3445.723761099416
 30
0.0
 11
9192.39242795094
 21
3445.723761099416
 31
0.0
  0
LINE
  5
17CD1
330
747D
100
AcDbEntity
  8
細線
100
AcDbLine
 10
6768.392427950941
 20
4160.723761099416
 30
0.0
 11
9192.39242795094
 21
4160.723761099416
 31
0.0
  0
LINE
  5
17CD2
330
747D
100
AcDbEntity
  8
細線
100
AcDbLine
 10
6768.392427950941
 20
4225.723761099415
 30
0.0
 11
9192.39242795094
 21
4225.723761099415
 31
0.0
  0
LINE
  5
17CD3
330
747D
100
AcDbEntity
  8
細線
100
AcDbLine
 10
6768.392427950941
 20
4095.723761099416
 30
0.0
 11
9192.39242795094
 21
4095.723761099416
 31
0.0
  0
LINE
  5
17CD4
330
747D
100
AcDbEntity
  8
細線
100
AcDbLine
 10
6768.392427950941
 20
2275.723761099416
 30
0.0
 11
9192.39242795094
 21
2275.723761099416
 31
0.0
  0
LINE
  5
17CD5
330
747D
100
AcDbEntity
  8
細線
100
AcDbLine
 10
6768.392427950941
 20
2340.723761099416
 30
0.0
 11
9192.39242795094
 21
2340.723761099416
 31
0.0
  0
LINE
  5
17CD6
330
747D
100
AcDbEntity
  8
細線
100
AcDbLine
 10
6768.392427950941
 20
2405.723761099416
 30
0.0
 11
9192.39242795094
 21
2405.723761099416
 31
0.0
  0
LINE
  5
17CD7
330
747D
100
AcDbEntity
  8
細線
100
AcDbLine
 10
6768.392427950941
 20
2470.723761099416
 30
0.0
 11
9192.39242795094
 21
2470.723761099416
 31
0.0
  0
LINE
  5
17CD8
330
747D
100
AcDbEntity
  8
細線
100
AcDbLine
 10
6768.392427950941
 20
2535.723761099416
 30
0.0
 11
9192.39242795094
 21
2535.723761099416
 31
0.0
  0
LINE
  5
17CD9
330
747D
100
AcDbEntity
  8
細線
100
AcDbLine
 10
6768.392427950941
 20
2600.723761099417
 30
0.0
 11
9192.39242795094
 21
2600.723761099417
 31
0.0
  0
LINE
  5
17CDA
330
747D
100
AcDbEntity
  8
細線
100
AcDbLine
 10
6768.392427950941
 20
2665.723761099416
 30
0.0
 11
9192.39242795094
 21
2665.723761099416
 31
0.0
  0
LINE
  5
17CDB
330
747D
100
AcDbEntity
  8
細線
100
AcDbLine
 10
6768.392427950941
 20
2730.723761099416
 30
0.0
 11
9192.39242795094
 21
2730.723761099416
 31
0.0
  0
LINE
  5
17CDC
330
747D
100
AcDbEntity
  8
細線
100
AcDbLine
 10
6768.392427950941
 20
2795.723761099417
 30
0.0
 11
9192.39242795094
 21
2795.723761099417
 31
0.0
  0
LINE
  5
17CDD
330
747D
100
AcDbEntity
  8
細線
100
AcDbLine
 10
9192.39242795094
 20
2275.723761099416
 30
0.0
 11
6768.392427950937
 21
2275.723761099416
 31
0.0
  0
CIRCLE
  5
17CE1
330
747D
100
AcDbEntity
  8
細線
 48
50.0
100
AcDbCircle
 10
7980.392427950942
 20
3153.223761099416
 30
0.0
 40
18.0
  0
ARC
  5
17CE2
330
747D
100
AcDbEntity
  8
細線
 48
50.0
100
AcDbCircle
 10
8280.392427950941
 20
2828.223761099416
 30
0.0
 40
15.0
100
AcDbArc
 50
270.0
 51
90.0
  0
ARC
  5
17CE3
330
747D
100
AcDbEntity
  8
細線
 48
50.0
100
AcDbCircle
 10
8180.392427950941
 20
2828.223761099416
 30
0.0
 40
15.0
100
AcDbArc
 50
90.0
 51
270.0
  0
LINE
  5
17CE4
330
747D
100
AcDbEntity
  8
細線
 48
50.0
100
AcDbLine
 10
8180.392427950941
 20
2843.223761099416
 30
0.0
 11
8280.392427950941
 21
2843.223761099416
 31
0.0
  0
LINE
  5
17CE5
330
747D
100
AcDbEntity
  8
細線
 48
50.0
100
AcDbLine
 10
8280.392427950941
 20
2813.223761099417
 30
0.0
 11
8180.392427950941
 21
2813.223761099417
 31
0.0
  0
LINE
  5
17CE6
330
747D
100
AcDbEntity
  8
細線
 48
50.0
100
AcDbLine
 10
7780.392427950942
 20
2813.223761099417
 30
0.0
 11
7680.392427950941
 21
2813.223761099417
 31
0.0
  0
LINE
  5
17CE7
330
747D
100
AcDbEntity
  8
細線
 48
50.0
100
AcDbLine
 10
7680.392427950941
 20
2843.223761099416
 30
0.0
 11
7780.392427950942
 21
2843.223761099416
 31
0.0
  0
ARC
  5
17CE8
330
747D
100
AcDbEntity
  8
細線
 48
50.0
100
AcDbCircle
 10
7780.392427950942
 20
2828.223761099416
 30
0.0
 40
15.0
100
AcDbArc
 50
270.0
 51
90.0
  0
ARC
  5
17CE9
330
747D
100
AcDbEntity
  8
細線
 48
50.0
100
AcDbCircle
 10
7680.392427950941
 20
2828.223761099416
 30
0.0
 40
15.0
100
AcDbArc
 50
90.0
 51
270.0
  0
DIMENSION
  5
17CF2
330
747D
100
AcDbEntity
  8
寸法
 48
50.0
100
AcDbDimension
  2
*D29
 10
9295.392427950945
 20
5039.816930438889
 30
0.0
 11
9658.877709325182
 21
5039.816930438889
 31
0.0
 70
   160
 71
     5
 42
50.0
  3
INABA_S40G
100
AcDbAlignedDimension
 13
9345.392427950946
 23
4640.723761099418
 33
0.0
 14
9295.392427950945
 24
4640.723761099421
 34
0.0
100
AcDbRotatedDimension
  0
ARC
  5
17CF3
330
747D
100
AcDbEntity
  8
部品1
100
AcDbCircle
 10
9337.984006844513
 20
4633.72376109942
 30
0.0
 40
7.0
100
AcDbArc
 50
356.7526572096623
 51
90.0
  0
ARC
  5
17CF4
330
747D
100
AcDbEntity
  8
部品1
100
AcDbCircle
 10
9324.768683383478
 20
4506.723761099419
 30
0.0
 40
7.0
100
AcDbArc
 50
270.0
 51
356.7526572096623
  0
ARC
  5
17CF5
330
747D
100
AcDbEntity
  8
部品1
 48
50.0
100
AcDbCircle
 10
9343.140493594157
 20
4613.390760261107
 30
0.0
 40
0.7
100
AcDbArc
 50
277.6581272073635
 51
356.7526572096103
  0
ARC
  5
17CF6
330
747D
100
AcDbEntity
  8
部品1
 48
50.0
100
AcDbCircle
 10
9334.904463069312
 20
4521.190760261102
 30
0.0
 40
0.7
100
AcDbArc
 50
277.6581272073635
 51
356.7526572097143
  0
ARC
  5
17CF7
330
747D
100
AcDbEntity
  8
部品1
 48
50.0
100
AcDbCircle
 10
9335.397532177875
 20
4517.523761099419
 30
0.0
 40
3.0
100
AcDbArc
 50
97.65812720736347
 51
176.7526572096623
  0
ARC
  5
17CF8
330
747D
100
AcDbEntity
  8
部品1
 48
50.0
100
AcDbCircle
 10
9343.633562702718
 20
4609.723761099419
 30
0.0
 40
3.0
100
AcDbArc
 50
97.65812720736347
 51
176.7526572096623
  0
LINE
  5
17CF9
330
747D
100
AcDbEntity
  8
部品1
100
AcDbLine
 10
9340.638379806533
 20
4609.893700554523
 30
0.0
 11
9335.603339078422
 21
4521.15110772158
 31
0.0
  0
LINE
  5
17CFA
330
747D
100
AcDbEntity
  8
部品1
100
AcDbLine
 10
9332.402349281689
 20
4517.693700554523
 30
0.0
 11
9331.757443474577
 21
4506.327235704183
 31
0.0
  0
LINE
  5
17CFB
330
747D
100
AcDbEntity
  8
細線
 48
50.0
100
AcDbLine
 10
9312.392427950944
 20
4640.72376109942
 30
0.0
 11
9312.392427950944
 21
4499.72376109942
 31
0.0
  0
LINE
  5
17CFC
330
747D
100
AcDbEntity
  8
部品1
100
AcDbLine
 10
9344.97276693561
 20
4633.327235704178
 30
0.0
 11
9343.839369603266
 21
4613.35110772158
 31
0.0
  0
LINE
  5
17CFD
330
747D
100
AcDbEntity
  8
細線
 48
50.0
100
AcDbLine
 10
9334.997746414185
 20
4520.497003662887
 30
0.0
 11
6655.392427950944
 21
4520.497003663208
 31
0.0
  0
LINE
  5
17CFE
330
747D
100
AcDbEntity
  8
細線
 48
50.0
100
AcDbLine
 10
9343.233776939028
 20
4612.697003662888
 30
0.0
 11
6655.392427950944
 21
4612.697003662888
 31
0.0
  0
LINE
  5
17CFF
330
747D
100
AcDbEntity
  8
部品1
 48
50.0
100
AcDbLine
 10
9324.768683383478
 20
4499.72376109942
 30
0.0
 11
6665.392427950945
 21
4499.72376109942
 31
0.0
  0
LINE
  5
17D00
330
747D
100
AcDbEntity
  8
部品1
 48
50.0
100
AcDbLine
 10
9337.984006844513
 20
4640.72376109942
 30
0.0
 11
6655.392427950944
 21
4640.72376109942
 31
0.0
  0
LINE
  5
17D2D
330
747D
100
AcDbEntity
  8
部品1
100
AcDbLine
 10
416.6228366045616
 20
2295.627571667081
 30
0.0
 11
566.6228366045616
 21
2295.627571667081
 31
0.0
  0
LINE
  5
17D2E
330
747D
100
AcDbEntity
  8
部品1
100
AcDbLine
 10
491.6228366045616
 20
2165.723761099416
 30
0.0
 11
416.6228366045616
 21
2295.627571667081
 31
0.0
  0
TEXT
  5
17D2F
330
747D
100
AcDbEntity
  8
部品1
100
AcDbText
 10
594.7277787293351
 20
2201.830664705318
 30
0.0
 40
125.0
  1
G.L
  7
STYLE2
100
AcDbText
  0
LINE
  5
17D30
330
747D
100
AcDbEntity
  8
部品1
100
AcDbLine
 10
566.6228366045616
 20
2295.627571667081
 30
0.0
 11
491.6228366045616
 21
2165.723761099416
 31
0.0
  0
LINE
  5
17D31
330
747D
100
AcDbEntity
  8
部品1
100
AcDbLine
 10
1405.392427950945
 20
2265.723761099416
 30
0.0
 11
4035.392427950944
 21
2265.723761099416
 31
0.0
  0
LINE
  5
17D32
330
747D
100
AcDbEntity
  8
部品1
100
AcDbLine
 10
1405.392427950945
 20
4405.723761099416
 30
0.0
 11
4035.392427950944
 21
4405.723761099416
 31
0.0
  0
LINE
  5
17D33
330
747D
100
AcDbEntity
  8
部品1
100
AcDbLine
 10
1405.392427950945
 20
4499.72376109942
 30
0.0
 11
1405.392427950945
 21
2165.723761099416
 31
0.0
  0
LINE
  5
17D34
330
747D
100
AcDbEntity
  8
部品1
100
AcDbLine
 10
3980.392427950945
 20
4240.723761099416
 30
0.0
 11
3980.392427950945
 21
2265.723761099416
 31
0.0
  0
LINE
  5
17D35
330
747D
100
AcDbEntity
  8
部品1
100
AcDbLine
 10
1460.392427950945
 20
4240.723761099416
 30
0.0
 11
1460.392427950945
 21
2265.723761099416
 31
0.0
  0
LINE
  5
17D36
330
747D
100
AcDbEntity
  8
部品1
100
AcDbLine
 10
1508.392427950944
 20
4240.723761099416
 30
0.0
 11
1508.392427950944
 21
2265.723761099416
 31
0.0
  0
LINE
  5
17D37
330
747D
100
AcDbEntity
  8
部品1
100
AcDbLine
 10
3932.392427950952
 20
4240.723761099416
 30
0.0
 11
3932.392427950945
 21
2265.723761099416
 31
0.0
  0
LINE
  5
17D38
330
747D
100
AcDbEntity
  8
部品1
100
AcDbLine
 10
1405.392427950945
 20
4240.723761099416
 30
0.0
 11
4090.392427950944
 21
4240.723761099416
 31
0.0
  0
LINE
  5
17D39
330
747D
100
AcDbEntity
  8
細線
100
AcDbLine
 10
1508.392427950944
 20
3900.723761099416
 30
0.0
 11
3932.392427950945
 21
3900.723761099416
 31
0.0
  0
LINE
  5
17D3A
330
747D
100
AcDbEntity
  8
細線
100
AcDbLine
 10
1508.392427950944
 20
3965.723761099417
 30
0.0
 11
3932.392427950945
 21
3965.723761099417
 31
0.0
  0
LINE
  5
17D3B
330
747D
100
AcDbEntity
  8
細線
100
AcDbLine
 10
1508.392427950944
 20
4030.723761099416
 30
0.0
 11
3932.392427950945
 21
4030.723761099416
 31
0.0
  0
LINE
  5
17D3C
330
747D
100
AcDbEntity
  8
細線
100
AcDbLine
 10
1508.392427950944
 20
3510.723761099416
 30
0.0
 11
3932.392427950945
 21
3510.723761099416
 31
0.0
  0
LINE
  5
17D3D
330
747D
100
AcDbEntity
  8
細線
100
AcDbLine
 10
1508.392427950944
 20
3575.723761099416
 30
0.0
 11
3932.392427950945
 21
3575.723761099416
 31
0.0
  0
LINE
  5
17D3E
330
747D
100
AcDbEntity
  8
細線
100
AcDbLine
 10
1508.392427950944
 20
3640.723761099417
 30
0.0
 11
3932.392427950945
 21
3640.723761099417
 31
0.0
  0
LINE
  5
17D3F
330
747D
100
AcDbEntity
  8
細線
100
AcDbLine
 10
1508.392427950944
 20
3705.723761099417
 30
0.0
 11
3932.392427950945
 21
3705.723761099417
 31
0.0
  0
LINE
  5
17D40
330
747D
100
AcDbEntity
  8
細線
100
AcDbLine
 10
1508.392427950944
 20
3770.723761099417
 30
0.0
 11
3932.392427950945
 21
3770.723761099417
 31
0.0
  0
LINE
  5
17D41
330
747D
100
AcDbEntity
  8
細線
100
AcDbLine
 10
1508.392427950944
 20
3835.723761099416
 30
0.0
 11
3932.392427950945
 21
3835.723761099416
 31
0.0
  0
LINE
  5
17D42
330
747D
100
AcDbEntity
  8
細線
100
AcDbLine
 10
1508.392427950944
 20
2860.723761099416
 30
0.0
 11
3932.392427950945
 21
2860.723761099416
 31
0.0
  0
LINE
  5
17D43
330
747D
100
AcDbEntity
  8
細線
100
AcDbLine
 10
1508.392427950944
 20
2925.723761099416
 30
0.0
 11
3932.392427950945
 21
2925.723761099416
 31
0.0
  0
LINE
  5
17D44
330
747D
100
AcDbEntity
  8
細線
100
AcDbLine
 10
1508.392427950944
 20
2990.723761099416
 30
0.0
 11
3932.392427950945
 21
2990.723761099416
 31
0.0
  0
LINE
  5
17D45
330
747D
100
AcDbEntity
  8
細線
100
AcDbLine
 10
1508.392427950944
 20
3055.723761099416
 30
0.0
 11
3932.392427950945
 21
3055.723761099416
 31
0.0
  0
LINE
  5
17D46
330
747D
100
AcDbEntity
  8
細線
100
AcDbLine
 10
1508.392427950944
 20
3120.723761099416
 30
0.0
 11
3932.392427950945
 21
3120.723761099416
 31
0.0
  0
LINE
  5
17D47
330
747D
100
AcDbEntity
  8
細線
100
AcDbLine
 10
1508.392427950944
 20
3185.723761099416
 30
0.0
 11
3932.392427950945
 21
3185.723761099416
 31
0.0
  0
LINE
  5
17D48
330
747D
100
AcDbEntity
  8
細線
100
AcDbLine
 10
1508.392427950944
 20
3250.723761099416
 30
0.0
 11
3932.392427950945
 21
3250.723761099416
 31
0.0
  0
LINE
  5
17D49
330
747D
100
AcDbEntity
  8
細線
100
AcDbLine
 10
1508.392427950944
 20
3315.723761099416
 30
0.0
 11
3932.392427950945
 21
3315.723761099416
 31
0.0
  0
LINE
  5
17D4A
330
747D
100
AcDbEntity
  8
細線
100
AcDbLine
 10
1508.392427950944
 20
3380.723761099416
 30
0.0
 11
3932.392427950945
 21
3380.723761099416
 31
0.0
  0
LINE
  5
17D4B
330
747D
100
AcDbEntity
  8
細線
100
AcDbLine
 10
1508.392427950944
 20
3445.723761099416
 30
0.0
 11
3932.392427950945
 21
3445.723761099416
 31
0.0
  0
LINE
  5
17D4C
330
747D
100
AcDbEntity
  8
細線
100
AcDbLine
 10
1508.392427950944
 20
4160.723761099416
 30
0.0
 11
3932.392427950945
 21
4160.723761099416
 31
0.0
  0
LINE
  5
17D4D
330
747D
100
AcDbEntity
  8
細線
100
AcDbLine
 10
1508.392427950944
 20
4225.723761099415
 30
0.0
 11
3932.392427950945
 21
4225.723761099415
 31
0.0
  0
LINE
  5
17D4E
330
747D
100
AcDbEntity
  8
細線
100
AcDbLine
 10
1508.392427950944
 20
4095.723761099416
 30
0.0
 11
3932.392427950945
 21
4095.723761099416
 31
0.0
  0
LINE
  5
17D4F
330
747D
100
AcDbEntity
  8
細線
100
AcDbLine
 10
1508.392427950944
 20
2275.723761099416
 30
0.0
 11
3932.392427950945
 21
2275.723761099416
 31
0.0
  0
LINE
  5
17D50
330
747D
100
AcDbEntity
  8
細線
100
AcDbLine
 10
1508.392427950944
 20
2340.723761099416
 30
0.0
 11
3932.392427950945
 21
2340.723761099416
 31
0.0
  0
LINE
  5
17D51
330
747D
100
AcDbEntity
  8
細線
100
AcDbLine
 10
1508.392427950944
 20
2405.723761099416
 30
0.0
 11
3932.392427950945
 21
2405.723761099416
 31
0.0
  0
LINE
  5
17D52
330
747D
100
AcDbEntity
  8
細線
100
AcDbLine
 10
1508.392427950944
 20
2470.723761099416
 30
0.0
 11
3932.392427950945
 21
2470.723761099416
 31
0.0
  0
LINE
  5
17D53
330
747D
100
AcDbEntity
  8
細線
100
AcDbLine
 10
1508.392427950944
 20
2535.723761099416
 30
0.0
 11
3932.392427950945
 21
2535.723761099416
 31
0.0
  0
LINE
  5
17D54
330
747D
100
AcDbEntity
  8
細線
100
AcDbLine
 10
1508.392427950944
 20
2600.723761099417
 30
0.0
 11
3932.392427950945
 21
2600.723761099417
 31
0.0
  0
LINE
  5
17D55
330
747D
100
AcDbEntity
  8
細線
100
AcDbLine
 10
1508.392427950944
 20
2665.723761099416
 30
0.0
 11
3932.392427950945
 21
2665.723761099416
 31
0.0
  0
LINE
  5
17D56
330
747D
100
AcDbEntity
  8
細線
100
AcDbLine
 10
1508.392427950944
 20
2730.723761099416
 30
0.0
 11
3932.392427950945
 21
2730.723761099416
 31
0.0
  0
LINE
  5
17D57
330
747D
100
AcDbEntity
  8
細線
100
AcDbLine
 10
1508.392427950944
 20
2795.723761099417
 30
0.0
 11
3932.392427950945
 21
2795.723761099417
 31
0.0
  0
LINE
  5
17D58
330
747D
100
AcDbEntity
  8
細線
100
AcDbLine
 10
3932.392427950945
 20
2275.723761099416
 30
0.0
 11
1508.392427950944
 21
2275.723761099416
 31
0.0
  0
CIRCLE
  5
17D59
330
747D
100
AcDbEntity
  8
細線
 48
50.0
100
AcDbCircle
 10
2720.392427950945
 20
3153.223761099416
 30
0.0
 40
18.0
  0
ARC
  5
17D5A
330
747D
100
AcDbEntity
  8
細線
 48
50.0
100
AcDbCircle
 10
3020.392427950945
 20
2828.223761099416
 30
0.0
 40
15.0
100
AcDbArc
 50
270.0
 51
90.0
  0
ARC
  5
17D5B
330
747D
100
AcDbEntity
  8
細線
 48
50.0
100
AcDbCircle
 10
2920.392427950945
 20
2828.223761099416
 30
0.0
 40
15.0
100
AcDbArc
 50
90.0
 51
270.0
  0
LINE
  5
17D5C
330
747D
100
AcDbEntity
  8
細線
 48
50.0
100
AcDbLine
 10
2920.392427950945
 20
2843.223761099416
 30
0.0
 11
3020.392427950945
 21
2843.223761099416
 31
0.0
  0
LINE
  5
17D5D
330
747D
100
AcDbEntity
  8
細線
 48
50.0
100
AcDbLine
 10
3020.392427950945
 20
2813.223761099417
 30
0.0
 11
2920.392427950945
 21
2813.223761099417
 31
0.0
  0
LINE
  5
17D5E
330
747D
100
AcDbEntity
  8
細線
 48
50.0
100
AcDbLine
 10
2520.392427950945
 20
2813.223761099417
 30
0.0
 11
2420.392427950945
 21
2813.223761099417
 31
0.0
  0
LINE
  5
17D5F
330
747D
100
AcDbEntity
  8
細線
 48
50.0
100
AcDbLine
 10
2420.392427950945
 20
2843.223761099416
 30
0.0
 11
2520.392427950945
 21
2843.223761099416
 31
0.0
  0
ARC
  5
17D60
330
747D
100
AcDbEntity
  8
細線
 48
50.0
100
AcDbCircle
 10
2520.392427950945
 20
2828.223761099416
 30
0.0
 40
15.0
100
AcDbArc
 50
270.0
 51
90.0
  0
ARC
  5
17D61
330
747D
100
AcDbEntity
  8
細線
 48
50.0
100
AcDbCircle
 10
2420.392427950945
 20
2828.223761099416
 30
0.0
 40
15.0
100
AcDbArc
 50
90.0
 51
270.0
  0
DIMENSION
  5
17D6D
330
747D
100
AcDbEntity
  8
寸法
 48
50.0
100
AcDbDimension
  2
*D26
 10
1355.392427950952
 20
5039.816930438889
 30
0.0
 11
1041.907146576704
 21
5039.816930438889
 31
0.0
 70
   160
 71
     5
 42
50.0
  3
INABA_S40G
100
AcDbAlignedDimension
 13
1405.392427950952
 23
4640.723761099422
 33
0.0
 14
1355.392427950952
 24
4640.723761099421
 34
0.0
100
AcDbRotatedDimension
1001
ACAD
1000
DSTYLE
1002
{
1002
}
  0
LINE
  5
17D6E
330
747D
100
AcDbEntity
  8
部品1
100
AcDbLine
 10
1355.812088966282
 20
4633.327235704178
 30
0.0
 11
1356.945486298631
 21
4613.35110772158
 31
0.0
  0
LINE
  5
17D6F
330
747D
100
AcDbEntity
  8
部品1
100
AcDbLine
 10
1368.382506620204
 20
4517.693700554523
 30
0.0
 11
1369.027412427313
 21
4506.327235704183
 31
0.0
  0
LINE
  5
17D70
330
747D
100
AcDbEntity
  8
部品1
100
AcDbLine
 10
1360.14647609536
 20
4609.893700554523
 30
0.0
 11
1365.181516823468
 21
4521.15110772158
 31
0.0
  0
ARC
  5
17D71
330
747D
100
AcDbEntity
  8
部品1
 48
50.0
100
AcDbCircle
 10
1357.151293199175
 20
4609.723761099419
 30
0.0
 40
3.0
100
AcDbArc
 50
3.247342790337682
 51
82.34187279263654
  0
ARC
  5
17D72
330
747D
100
AcDbEntity
  8
部品1
 48
50.0
100
AcDbCircle
 10
1365.387323724019
 20
4517.523761099419
 30
0.0
 40
3.0
100
AcDbArc
 50
3.247342790337682
 51
82.34187279263654
  0
ARC
  5
17D73
330
747D
100
AcDbEntity
  8
部品1
 48
50.0
100
AcDbCircle
 10
1365.88039283258
 20
4521.190760261102
 30
0.0
 40
0.7
100
AcDbArc
 50
183.2473427902856
 51
262.3418727926365
  0
ARC
  5
17D74
330
747D
100
AcDbEntity
  8
部品1
 48
50.0
100
AcDbCircle
 10
1357.644362307736
 20
4613.390760261107
 30
0.0
 40
0.7
100
AcDbArc
 50
183.2473427903897
 51
262.3418727926365
  0
ARC
  5
17D75
330
747D
100
AcDbEntity
  8
部品1
100
AcDbCircle
 10
1376.016172518415
 20
4506.723761099419
 30
0.0
 40
7.0
100
AcDbArc
 50
183.2473427903377
 51
270.0
  0
ARC
  5
17D76
330
747D
100
AcDbEntity
  8
部品1
100
AcDbCircle
 10
1362.800849057377
 20
4633.72376109942
 30
0.0
 40
7.0
100
AcDbArc
 50
90.0
 51
183.2473427903377
  0
LINE
  5
17D77
330
747D
100
AcDbEntity
  8
細線
 48
50.0
100
AcDbLine
 10
1388.392427950952
 20
4640.72376109942
 30
0.0
 11
1388.392427950952
 21
4499.72376109942
 31
0.0
  0
LINE
  5
17D78
330
747D
100
AcDbEntity
  8
細線
 48
50.0
100
AcDbLine
 10
4025.392427950944
 20
4520.497003663204
 30
0.0
 11
1365.787109487748
 21
4520.497003663208
 31
0.0
  0
LINE
  5
17D79
330
747D
100
AcDbEntity
  8
細線
 48
50.0
100
AcDbLine
 10
4025.392427950944
 20
4612.697003662888
 30
0.0
 11
1357.551078962911
 21
4612.697003663208
 31
0.0
  0
LINE
  5
17D7A
330
747D
100
AcDbEntity
  8
部品1
 48
50.0
100
AcDbLine
 10
4035.392427950944
 20
4499.72376109942
 30
0.0
 11
1376.016172518415
 21
4499.72376109942
 31
0.0
  0
LINE
  5
17D7B
330
747D
100
AcDbEntity
  8
部品1
 48
50.0
100
AcDbLine
 10
4025.392427950944
 20
4640.72376109942
 30
0.0
 11
1362.800849057377
 21
4640.72376109942
 31
0.0
  0
LINE
  5
17DA8
330
747D
100
AcDbEntity
  8
部品1
 48
50.0
100
AcDbLine
 10
4025.392427950944
 20
4499.72376109942
 30
0.0
 11
4025.392427950944
 21
4640.723761099421
 31
0.0
  0
LINE
  5
17DA9
330
747D
100
AcDbEntity
  8
部品1
 48
50.0
100
AcDbLine
 10
4035.392427950944
 20
4240.723761099416
 30
0.0
 11
4035.392427950944
 21
4499.72376109942
 31
0.0
  0
DIMENSION
  5
17DB4
330
747D
100
AcDbEntity
  8
寸法
 48
50.0
100
AcDbDimension
  2
*D27
 10
1405.392427950952
 20
5039.816930438889
 30
0.0
 11
5350.392427950948
 21
5139.828741462511
 31
0.0
 70
    32
  1
柱外寸法 N X 2630
 71
     5
 42
7889.999999999993
  3
INABA_S40G
100
AcDbAlignedDimension
 13
9295.392427950945
 23
4640.723761099421
 33
0.0
 14
1405.392427950952
 24
4640.723761099422
 34
0.0
100
AcDbRotatedDimension
  0
DIMENSION
  5
17DB5
330
747D
100
AcDbEntity
  8
寸法
 48
50.0
100
AcDbDimension
  2
*D28
 10
9345.392427950946
 20
5256.343030057334
 30
0.0
 11
5350.392427950948
 21
5356.354841080957
 31
0.0
 70
    32
  1
N X 2630+100
 71
     5
 42
7989.999999999993
  3
INABA_S40G
100
AcDbAlignedDimension
 13
1355.392427950952
 23
4640.723761099421
 33
0.0
 14
9345.392427950946
 24
4640.723761099418
 34
0.0
100
AcDbRotatedDimension
  0
LINE
  5
17DC0
330
747D
100
AcDbEntity
  8
Ｇ．Ｌ
100
AcDbLine
 10
248.7131484079491
 20
2165.723761099416
 30
0.0
 11
15862.42653992391
 21
2165.723761099416
 31
0.0
  0
LINE
  5
17DC1
330
747D
100
AcDbEntity
  8
部品1
100
AcDbLine
 10
4035.392427950944
 20
2265.723761099416
 30
0.0
 11
6665.392427950945
 21
2265.723761099416
 31
0.0
  0
LINE
  5
17DD5
330
747D
100
AcDbEntity
  8
細線
 48
50.0
100
AcDbLine
 10
6655.392427950942
 20
4612.697003662888
 30
0.0
 11
4025.392427950944
 21
4612.697003662888
 31
0.0
  0
LINE
  5
17DD6
330
747D
100
AcDbEntity
  8
部品1
 48
50.0
100
AcDbLine
 10
6655.39242795094
 20
4640.72376109942
 30
0.0
 11
4025.392427950944
 21
4640.72376109942
 31
0.0
  0
LINE
  5
17DD7
330
747D
100
AcDbEntity
  8
細線
 48
50.0
100
AcDbLine
 10
6655.392427950944
 20
4520.497003663204
 30
0.0
 11
4025.392427950944
 21
4520.497003663204
 31
0.0
  0
LINE
  5
17DD8
330
747D
100
AcDbEntity
  8
部品1
 48
50.0
100
AcDbLine
 10
6665.392427950945
 20
4499.723761099419
 30
0.0
 11
4035.392427950944
 21
4499.72376109942
 31
0.0
  0
TEXT
  5
17DEA
330
747D
100
AcDbEntity
  8
部品1
100
AcDbText
 10
5059.182498574686
 20
1322.830231880893
 30
0.0
 40
135.0
  1
正面図
  7
STYLE2
100
AcDbText
  0
LWPOLYLINE
  5
17DEB
330
747D
100
AcDbEntity
  8
部品1
100
AcDbPolyline
 90
        4
 70
     1
 43
0.0
 10
4968.657094836729
 20
1515.723761099416
 10
4968.657094836729
 20
1275.831439553884
 10
5732.127761065167
 20
1275.831439553884
 10
5732.127761065167
 20
1515.723761099416
  0
TEXT
  5
18883
330
747D
100
AcDbEntity
  8
部品1
100
AcDbText
 10
13218.93908720273
 20
1322.830231880893
 30
0.0
 40
135.0
  1
側面図
  7
STYLE2
100
AcDbText
  0
LWPOLYLINE
  5
18884
330
747D
100
AcDbEntity
  8
部品1
100
AcDbPolyline
 90
        4
 70
     1
 43
0.0
 10
13129.49298577912
 20
1515.723761099416
 10
13129.49298577912
 20
1275.831439553884
 10
13892.96365200756
 20
1275.831439553884
 10
13892.96365200756
 20
1515.723761099416
  0
LINE
  5
18887
330
747D
100
AcDbEntity
  8
部品1
100
AcDbLine
 10
14561.22831889333
 20
4405.723761099418
 30
0.0
 11
14561.22831889333
 21
2315.72376109942
 31
0.0
  0
LINE
  5
18888
330
747D
100
AcDbEntity
  8
細線
 48
50.0
100
AcDbLine
 10
14483.72831889334
 20
4405.723761099416
 30
0.0
 11
14483.72831889334
 21
2315.723761099418
 31
0.0
  0
LINE
  5
18889
330
747D
100
AcDbEntity
  8
細線
 48
50.0
100
AcDbLine
 10
14498.72831889334
 20
4405.723761099416
 30
0.0
 11
14498.72831889334
 21
2315.723761099418
 31
0.0
  0
LINE
  5
1888A
330
747D
100
AcDbEntity
  8
細線
 48
50.0
100
AcDbLine
 10
14358.72831889334
 20
4405.723761099416
 30
0.0
 11
14358.72831889334
 21
2315.723761099418
 31
0.0
  0
LINE
  5
1888B
330
747D
100
AcDbEntity
  8
細線
 48
50.0
100
AcDbLine
 10
14343.72831889334
 20
4405.723761099416
 30
0.0
 11
14343.72831889334
 21
2315.723761099418
 31
0.0
  0
LINE
  5
1888C
330
747D
100
AcDbEntity
  8
細線
 48
50.0
100
AcDbLine
 10
14203.72831889334
 20
4405.723761099416
 30
0.0
 11
14203.72831889334
 21
2315.723761099418
 31
0.0
  0
LINE
  5
1888D
330
747D
100
AcDbEntity
  8
細線
 48
50.0
100
AcDbLine
 10
14218.72831889334
 20
4405.723761099416
 30
0.0
 11
14218.72831889334
 21
2315.723761099418
 31
0.0
  0
LINE
  5
1888E
330
747D
100
AcDbEntity
  8
部品1
100
AcDbLine
 10
14141.22831889334
 20
4405.723761099416
 30
0.0
 11
14141.22831889334
 21
2315.723761099418
 31
0.0
  0
DIMENSION
  5
1888F
330
747D
100
AcDbEntity
  8
寸法
 48
50.0
100
AcDbDimension
  2
*D30
 10
11365.61991212496
 20
4515.069019972747
 30
0.0
 11
11376.28538738389
 21
4885.915683214445
 31
0.0
 70
   161
 71
     5
 42
141.0
  3
INABA_S40G
100
AcDbAlignedDimension
 13
11945.62433905192
 23
4639.446509934096
 33
0.0
 14
11941.57088349529
 24
4498.504786168383
 34
0.0
1001
ACAD
1000
DSTYLE
1002
{
1070
   174
1070
     0
1070
   272
1070
     1
1070
   288
1070
     0
1070
   341
1005
0
1002
}
  0
LINE
  5
18890
330
747D
100
AcDbEntity
  8
細線
 48
50.0
100
AcDbLine
 10
14903.72831889334
 20
4405.723761099418
 30
0.0
 11
14903.72831889334
 21
2315.723761099418
 31
0.0
  0
LINE
  5
18891
330
747D
100
AcDbEntity
  8
細線
 48
50.0
100
AcDbLine
 10
14918.72831889334
 20
4405.723761099418
 30
0.0
 11
14918.72831889334
 21
2315.723761099418
 31
0.0
  0
LINE
  5
18892
330
747D
100
AcDbEntity
  8
細線
 48
50.0
100
AcDbLine
 10
14778.72831889334
 20
4405.723761099418
 30
0.0
 11
14778.72831889334
 21
2315.723761099418
 31
0.0
  0
LINE
  5
18893
330
747D
100
AcDbEntity
  8
細線
 48
50.0
100
AcDbLine
 10
14763.72831889334
 20
4405.723761099418
 30
0.0
 11
14763.72831889334
 21
2315.723761099418
 31
0.0
  0
LINE
  5
18894
330
747D
100
AcDbEntity
  8
細線
 48
50.0
100
AcDbLine
 10
14623.72831889334
 20
4405.723761099418
 30
0.0
 11
14623.72831889334
 21
2315.723761099418
 31
0.0
  0
LINE
  5
18895
330
747D
100
AcDbEntity
  8
細線
 48
50.0
100
AcDbLine
 10
14638.72831889334
 20
4405.723761099418
 30
0.0
 11
14638.72831889334
 21
2315.723761099418
 31
0.0
  0
LINE
  5
18896
330
747D
100
AcDbEntity
  8
部品1
100
AcDbLine
 10
13301.22831889334
 20
4405.723761099416
 30
0.0
 11
13301.22831889334
 21
2315.723761099416
 31
0.0
  0
LINE
  5
18897
330
747D
100
AcDbEntity
  8
細線
 48
50.0
100
AcDbLine
 10
12958.72831889334
 20
4405.723761099416
 30
0.0
 11
12958.72831889334
 21
2315.723761099416
 31
0.0
  0
LINE
  5
18898
330
747D
100
AcDbEntity
  8
細線
 48
50.0
100
AcDbLine
 10
12943.72831889334
 20
4405.723761099416
 30
0.0
 11
12943.72831889335
 21
2315.723761099416
 31
0.0
  0
LINE
  5
18899
330
747D
100
AcDbEntity
  8
細線
 48
50.0
100
AcDbLine
 10
13083.72831889334
 20
4405.723761099416
 30
0.0
 11
13083.72831889335
 21
2315.723761099416
 31
0.0
  0
LINE
  5
1889A
330
747D
100
AcDbEntity
  8
細線
 48
50.0
100
AcDbLine
 10
13098.72831889334
 20
4405.723761099416
 30
0.0
 11
13098.72831889334
 21
2315.723761099416
 31
0.0
  0
LINE
  5
1889B
330
747D
100
AcDbEntity
  8
細線
 48
50.0
100
AcDbLine
 10
13238.72831889334
 20
4405.723761099416
 30
0.0
 11
13238.72831889334
 21
2315.723761099416
 31
0.0
  0
LINE
  5
1889C
330
747D
100
AcDbEntity
  8
細線
 48
50.0
100
AcDbLine
 10
13223.72831889334
 20
4405.723761099416
 30
0.0
 11
13223.72831889335
 21
2315.723761099416
 31
0.0
  0
LINE
  5
1889D
330
747D
100
AcDbEntity
  8
部品1
100
AcDbLine
 10
12881.22831889334
 20
4405.723761099416
 30
0.0
 11
12881.22831889334
 21
2315.723761099416
 31
0.0
  0
DIMENSION
  5
1889E
330
747D
100
AcDbEntity
  8
寸法
 48
50.0
100
AcDbDimension
  2
*D31
 10
15116.22831889334
 20
5039.381214678723
 30
0.0
 11
15322.27556298783
 21
5039.381214678723
 31
0.0
 70
   160
 71
     5
 42
80.0
  3
INABA_S40G
100
AcDbAlignedDimension
 13
15036.22831889334
 23
4587.534440711071
 33
0.0
 14
15116.22831889334
 24
4585.723761099419
 34
0.0
100
AcDbRotatedDimension
1001
ACAD
1000
DSTYLE
1002
{
1070
   174
1070
     0
1070
   272
1070
     1
1070
   288
1070
     0
1070
   341
1005
0
1002
}
  0
LINE
  5
1889F
330
747D
100
AcDbEntity
  8
細線
 48
50.0
100
AcDbLine
 10
12118.72831889334
 20
4405.723761099416
 30
0.0
 11
12118.72831889334
 21
2315.723761099416
 31
0.0
  0
LINE
  5
188A0
330
747D
100
AcDbEntity
  8
細線
 48
50.0
100
AcDbLine
 10
12103.72831889334
 20
4405.723761099416
 30
0.0
 11
12103.72831889334
 21
2315.723761099416
 31
0.0
  0
LINE
  5
188A1
330
747D
100
AcDbEntity
  8
細線
 48
50.0
100
AcDbLine
 10
12243.72831889334
 20
4405.723761099416
 30
0.0
 11
12243.72831889334
 21
2315.723761099416
 31
0.0
  0
LINE
  5
188A2
330
747D
100
AcDbEntity
  8
細線
 48
50.0
100
AcDbLine
 10
12258.72831889334
 20
4405.723761099416
 30
0.0
 11
12258.72831889334
 21
2315.723761099416
 31
0.0
  0
LINE
  5
188A3
330
747D
100
AcDbEntity
  8
細線
 48
50.0
100
AcDbLine
 10
12398.72831889334
 20
4405.723761099416
 30
0.0
 11
12398.72831889334
 21
2315.723761099416
 31
0.0
  0
LINE
  5
188A4
330
747D
100
AcDbEntity
  8
細線
 48
50.0
100
AcDbLine
 10
12383.72831889334
 20
4405.723761099416
 30
0.0
 11
12383.72831889334
 21
2315.723761099416
 31
0.0
  0
LINE
  5
188A5
330
747D
100
AcDbEntity
  8
細線
 48
50.0
100
AcDbLine
 10
12803.72831889334
 20
4405.723761099416
 30
0.0
 11
12803.72831889334
 21
2315.723761099416
 31
0.0
  0
LINE
  5
188A6
330
747D
100
AcDbEntity
  8
細線
 48
50.0
100
AcDbLine
 10
12818.72831889334
 20
4405.723761099416
 30
0.0
 11
12818.72831889334
 21
2315.723761099416
 31
0.0
  0
LINE
  5
188A7
330
747D
100
AcDbEntity
  8
細線
 48
50.0
100
AcDbLine
 10
12678.72831889334
 20
4405.723761099416
 30
0.0
 11
12678.72831889334
 21
2315.723761099416
 31
0.0
  0
LINE
  5
188A8
330
747D
100
AcDbEntity
  8
細線
 48
50.0
100
AcDbLine
 10
12663.72831889334
 20
4405.723761099416
 30
0.0
 11
12663.72831889334
 21
2315.723761099416
 31
0.0
  0
LINE
  5
188A9
330
747D
100
AcDbEntity
  8
細線
 48
50.0
100
AcDbLine
 10
12523.72831889334
 20
4405.723761099416
 30
0.0
 11
12523.72831889334
 21
2315.723761099416
 31
0.0
  0
LINE
  5
188AA
330
747D
100
AcDbEntity
  8
細線
 48
50.0
100
AcDbLine
 10
12538.72831889334
 20
4405.723761099416
 30
0.0
 11
12538.72831889334
 21
2315.723761099416
 31
0.0
  0
LINE
  5
188AB
330
747D
100
AcDbEntity
  8
部品1
100
AcDbLine
 10
12041.22831889335
 20
2265.723761099416
 30
0.0
 11
15036.22831889334
 21
2265.723761099416
 31
0.0
  0
DIMENSION
  5
188AC
330
747D
100
AcDbEntity
  8
寸法
 48
50.0
100
AcDbDimension
  2
*D32
 10
11926.22831889334
 20
5269.494807464998
 30
0.0
 11
13521.22831889334
 21
5269.494807464998
 31
0.0
 70
   160
 71
     5
 42
3190.0
  3
INABA_S40G
100
AcDbAlignedDimension
 13
15116.22831889334
 23
4585.723761099418
 33
0.0
 14
11926.22831889334
 24
4640.723761099422
 34
0.0
100
AcDbRotatedDimension
1001
ACAD
1000
DSTYLE
1002
{
1070
   174
1070
     0
1070
   272
1070
     1
1070
   288
1070
     0
1070
   341
1005
0
1002
}
  0
DIMENSION
  5
188AD
330
747D
100
AcDbEntity
  8
寸法
 48
50.0
100
AcDbDimension
  2
*D33
 10
11926.22831889334
 20
5039.38121467872
 30
0.0
 11
11616.59052361775
 21
5039.38121467872
 31
0.0
 70
   160
 71
     5
 42
60.0
  3
INABA_S40G
100
AcDbAlignedDimension
 13
11986.22831889334
 23
4636.725379222393
 33
0.0
 14
11926.22831889334
 24
4640.723761099422
 34
0.0
100
AcDbRotatedDimension
1001
ACAD
1000
DSTYLE
1002
{
1070
   174
1070
     0
1070
   272
1070
     1
1070
   288
1070
     0
1070
   341
1005
0
1002
}
  0
DIMENSION
  5
188AE
330
747D
100
AcDbEntity
  8
寸法
 48
50.0
100
AcDbDimension
  2
*D34
 10
11986.22831889334
 20
5039.381214678723
 30
0.0
 11
13511.22831889334
 21
5039.381214678723
 31
0.0
 70
   160
  1
柱外寸法<>
 71
     5
 42
3050.0
  3
INABA_S40G
100
AcDbAlignedDimension
 13
15036.22831889334
 23
4587.534440711071
 33
0.0
 14
11986.22831889334
 24
4636.725379222393
 34
0.0
100
AcDbRotatedDimension
1001
ACAD
1000
DSTYLE
1002
{
1070
   174
1070
     0
1070
   272
1070
     1
1070
   288
1070
     0
1070
   341
1005
0
1002
}
  0
LINE
  5
188AF
330
747D
100
AcDbEntity
  8
部品1
100
AcDbLine
 10
14981.22831889334
 20
4405.723761099418
 30
0.0
 11
14981.22831889334
 21
2315.723761099418
 31
0.0
  0
LINE
  5
188B0
330
747D
100
AcDbEntity
  8
部品1
100
AcDbLine
 10
15036.22831889334
 20
4460.153788880538
 30
0.0
 11
15036.22831889334
 21
2165.723761099418
 31
0.0
  0
LINE
  5
188B1
330
747D
100
AcDbEntity
  8
部品1
100
AcDbLine
 10
12461.22831889334
 20
4405.723761099416
 30
0.0
 11
12461.22831889334
 21
2315.723761099416
 31
0.0
  0
DIMENSION
  5
188B2
330
747D
100
AcDbEntity
  8
寸法
100
AcDbDimension
  2
*D35
 10
11142.47818971008
 20
2265.723761099417
 30
0.0
 11
11142.47818971008
 21
1959.676517004927
 31
0.0
 70
   160
 71
     5
 42
50.0
  3
INABA_S40G
100
AcDbAlignedDimension
 13
11986.22831889334
 23
2315.723761099416
 33
0.0
 14
11931.22831889334
 24
2265.723761099416
 34
0.0
 50
90.0
100
AcDbRotatedDimension
1001
ACAD
1000
DSTYLE
1002
{
1070
   174
1070
     0
1070
   272
1070
     1
1070
   288
1070
     0
1070
   341
1005
0
1002
}
  0
LINE
  5
188B4
330
747D
100
AcDbEntity
  8
部品1
100
AcDbLine
 10
11986.22831889334
 20
4497.866199028294
 30
0.0
 11
11986.22831889334
 21
2165.723761099416
 31
0.0
  0
LINE
  5
188B5
330
747D
100
AcDbEntity
  8
部品1
100
AcDbLine
 10
12041.22831889334
 20
4405.723761099416
 30
0.0
 11
12041.22831889335
 21
2165.723761099416
 31
0.0
  0
LINE
  5
188B6
330
747D
100
AcDbEntity
  8
部品1
100
AcDbLine
 10
12041.22831889335
 20
2315.723761099416
 30
0.0
 11
15036.22831889334
 21
2315.723761099418
 31
0.0
  0
LINE
  5
188B7
330
747D
100
AcDbEntity
  8
部品1
100
AcDbLine
 10
11986.22831889334
 20
4405.723761099416
 30
0.0
 11
15036.22831889333
 21
4405.723761099416
 31
0.0
  0
LINE
  5
188B8
330
747D
100
AcDbEntity
  8
部品1
100
AcDbLine
 10
14981.22831889333
 20
4405.723761099419
 30
0.0
 11
14981.22831889333
 21
2315.72376109942
 31
0.0
  0
LINE
  5
188B9
330
747D
100
AcDbEntity
  8
細線
 48
50.0
100
AcDbLine
 10
13643.72831889334
 20
4405.723761099416
 30
0.0
 11
13643.72831889334
 21
2315.723761099416
 31
0.0
  0
LINE
  5
188BA
330
747D
100
AcDbEntity
  8
細線
 48
50.0
100
AcDbLine
 10
13658.72831889334
 20
4405.723761099416
 30
0.0
 11
13658.72831889334
 21
2315.723761099416
 31
0.0
  0
LINE
  5
188BB
330
747D
100
AcDbEntity
  8
細線
 48
50.0
100
AcDbLine
 10
13518.72831889334
 20
4405.723761099416
 30
0.0
 11
13518.72831889334
 21
2315.723761099416
 31
0.0
  0
LINE
  5
188BC
330
747D
100
AcDbEntity
  8
細線
 48
50.0
100
AcDbLine
 10
13503.72831889334
 20
4405.723761099416
 30
0.0
 11
13503.72831889334
 21
2315.723761099416
 31
0.0
  0
LINE
  5
188BD
330
747D
100
AcDbEntity
  8
細線
 48
50.0
100
AcDbLine
 10
13363.72831889334
 20
4405.723761099416
 30
0.0
 11
13363.72831889334
 21
2315.723761099416
 31
0.0
  0
LINE
  5
188BE
330
747D
100
AcDbEntity
  8
細線
 48
50.0
100
AcDbLine
 10
13378.72831889334
 20
4405.723761099416
 30
0.0
 11
13378.72831889334
 21
2315.723761099416
 31
0.0
  0
TEXT
  5
188BF
330
747D
100
AcDbEntity
  8
部品1
 48
50.0
100
AcDbText
 10
13856.09746294871
 20
4662.992854037724
 30
0.0
 40
120.0
  1
32
 50
90.0
  7
STYLE1
100
AcDbText
  0
TEXT
  5
188C0
330
747D
100
AcDbEntity
  8
部品1
 48
50.0
100
AcDbText
 10
13378.46444028362
 20
4800.494112256007
 30
0.0
 40
120.0
  1
1000
  7
STYLE1
100
AcDbText
  0
LINE
  5
188C1
330
747D
100
AcDbEntity
  8
部品1
 48
50.0
100
AcDbLine
 10
13690.19660505989
 20
4764.610090103573
 30
0.0
 11
13690.19660505989
 21
4748.410090103572
 31
0.0
  0
LINE
  5
188C2
330
747D
100
AcDbEntity
  8
部品1
 48
50.0
100
AcDbLine
 10
13390.19660505989
 20
4764.610090103573
 30
0.0
 11
13690.19660505989
 21
4764.610090103573
 31
0.0
  0
LINE
  5
188C3
330
747D
100
AcDbEntity
  8
部品1
100
AcDbLine
 10
11933.7733052503
 20
4639.441496433683
 30
0.0
 11
15108.84019575481
 21
4584.364558808554
 31
0.0
  0
LINE
  5
188C4
330
747D
100
AcDbEntity
  8
部品1
100
AcDbLine
 10
11941.57088349529
 20
4498.504786168383
 30
0.0
 11
15090.89201943319
 21
4459.476360934178
 31
0.0
  0
LINE
  5
188C5
330
747D
100
AcDbEntity
  8
細線
 48
50.0
100
AcDbLine
 10
11959.22831889334
 20
4638.123437474821
 30
0.0
 11
11953.93921733783
 21
4498.037804847466
 31
0.0
  0
LINE
  5
188C6
330
747D
100
AcDbEntity
  8
細線
 48
50.0
100
AcDbLine
 10
15083.19760208703
 20
4584.877183578885
 30
0.0
 11
15078.48063600535
 21
4459.944967643969
 31
0.0
  0
LINE
  5
188C7
330
747D
100
AcDbEntity
  8
部品1
 48
50.0
100
AcDbLine
 10
11926.41260480645
 20
4632.317307264109
 30
0.0
 11
11926.79286458426
 21
4612.390342817698
 31
0.0
  0
LINE
  5
188C8
330
747D
100
AcDbEntity
  8
部品1
 48
50.0
100
AcDbLine
 10
11929.86163669051
 20
4608.815061324224
 30
0.0
 11
11931.56553818187
 21
4519.524564617577
 31
0.0
  0
LINE
  5
188C9
330
747D
100
AcDbEntity
  8
細線
 48
50.0
100
AcDbLine
 10
11927.26774199416
 20
4611.740842940778
 30
0.0
 11
15112.90372673933
 21
4556.116638299949
 31
0.0
  0
LINE
  5
188CA
330
747D
100
AcDbEntity
  8
細線
 48
50.0
100
AcDbLine
 10
11932.02821723144
 20
4518.879331242913
 30
0.0
 11
15102.03188166208
 21
4479.070012268421
 31
0.0
  0
LINE
  5
188CB
330
747D
100
AcDbEntity
  8
部品1
 48
50.0
100
AcDbLine
 10
11934.63431028811
 20
4515.949283124106
 30
0.0
 11
11934.83626290854
 21
4505.366247731013
 31
0.0
  0
ARC
  5
188CC
330
747D
100
AcDbEntity
  8
部品1
 48
50.0
100
AcDbCircle
 10
11933.41133063479
 20
4632.450861671538
 30
0.0
 40
7.0
100
AcDbArc
 50
87.03587545282958
 51
181.0932240293156
  0
ARC
  5
188CD
330
747D
100
AcDbEntity
  8
部品1
 48
50.0
100
AcDbCircle
 10
11941.83498873688
 20
4505.499802138442
 30
0.0
 40
7.0
100
AcDbArc
 50
181.0932240293156
 51
267.8377559869492
  0
ARC
  5
188CE
330
747D
100
AcDbEntity
  8
部品1
100
AcDbCircle
 10
11931.63485636168
 20
4515.892045520923
 30
0.0
 40
3.0
100
AcDbArc
 50
1.093224029315636
 51
80.18775403168987
  0
ARC
  5
188CF
330
747D
100
AcDbEntity
  8
部品1
100
AcDbCircle
 10
11926.86218276408
 20
4608.757823721042
 30
0.0
 40
3.0
100
AcDbArc
 50
1.093224029315636
 51
80.18775403168987
  0
ARC
  5
188D0
330
747D
100
AcDbEntity
  8
部品1
100
AcDbCircle
 10
11927.4927371671
 20
4612.403698258439
 30
0.0
 40
0.7
100
AcDbArc
 50
181.0932240292114
 51
260.1877540314845
  0
ARC
  5
188D1
330
747D
100
AcDbEntity
  8
部品1
100
AcDbCircle
 10
11932.26541076471
 20
4519.537920058321
 30
0.0
 40
0.7
100
AcDbArc
 50
181.0932240293156
 51
260.1877540314845
  0
LINE
  5
188D2
330
747D
100
AcDbEntity
  8
部品1
 48
50.0
100
AcDbLine
 10
15115.44222170405
 20
4576.664913373636
 30
0.0
 11
15113.41160051308
 21
4556.719872115855
 31
0.0
  0
LINE
  5
188D3
330
747D
100
AcDbEntity
  8
部品1
 48
50.0
100
AcDbLine
 10
15110.05903402859
 20
4553.409238042946
 30
0.0
 11
15102.55225476376
 21
4479.676617297935
 31
0.0
  0
LINE
  5
188D4
330
747D
100
AcDbEntity
  8
部品1
 48
50.0
100
AcDbLine
 10
15099.19968827927
 20
4476.365983225021
 30
0.0
 11
15098.12012523953
 21
4465.762366231463
 31
0.0
  0
ARC
  5
188D5
330
747D
100
AcDbEntity
  8
部品1
 48
50.0
100
AcDbCircle
 10
15108.47822113929
 20
4577.373924046411
 30
0.0
 40
7.0
100
AcDbArc
 50
354.1866997665532
 51
87.03587545282958
  0
ARC
  5
188D6
330
747D
100
AcDbEntity
  8
部品1
 48
50.0
100
AcDbCircle
 10
15091.15612467478
 20
4466.471376904237
 30
0.0
 40
7.0
100
AcDbArc
 50
267.8377559869492
 51
354.1866997665532
  0
ARC
  5
188D7
330
747D
100
AcDbEntity
  8
部品1
100
AcDbCircle
 10
15102.18425994988
 20
4476.062121508119
 30
0.0
 40
3.0
100
AcDbArc
 50
95.09216976420788
 51
174.1866997665532
  0
ARC
  5
188D8
330
747D
100
AcDbEntity
  8
部品1
100
AcDbCircle
 10
15113.04360569921
 20
4553.105376326044
 30
0.0
 40
3.0
100
AcDbArc
 50
95.09216976420788
 51
174.1866997665532
  0
ARC
  5
188D9
330
747D
100
AcDbEntity
  8
部品1
100
AcDbCircle
 10
15112.71520045661
 20
4556.790773183132
 30
0.0
 40
0.7
100
AcDbArc
 50
275.0921697642079
 51
354.1866997665532
  0
ARC
  5
188DA
330
747D
100
AcDbEntity
  8
部品1
100
AcDbCircle
 10
15101.85585470728
 20
4479.74751836521
 30
0.0
 40
0.7
100
AcDbArc
 50
275.0921697642079
 51
354.1866997667606
  0
LINE
  5
188DB
330
747D
100
AcDbEntity
  8
部品1
100
AcDbLine
 10
13364.74159141686
 20
4765.928149062435
 30
0.0
 11
13690.19660505989
 21
4748.410090103572
 31
0.0
  0
LINE
  5
188DC
330
747D
100
AcDbEntity
  8
部品1
100
AcDbLine
 10
13721.22831889334
 20
4405.723761099416
 30
0.0
 11
13721.22831889334
 21
2315.723761099418
 31
0.0
  0
LINE
  5
188DD
330
747D
100
AcDbEntity
  8
細線
 48
50.0
100
AcDbLine
 10
13798.72831889334
 20
4405.723761099416
 30
0.0
 11
13798.72831889334
 21
2315.723761099418
 31
0.0
  0
LINE
  5
188DE
330
747D
100
AcDbEntity
  8
細線
 48
50.0
100
AcDbLine
 10
13783.72831889334
 20
4405.723761099416
 30
0.0
 11
13783.72831889334
 21
2315.723761099418
 31
0.0
  0
LINE
  5
188DF
330
747D
100
AcDbEntity
  8
細線
 48
50.0
100
AcDbLine
 10
13923.72831889334
 20
4405.723761099416
 30
0.0
 11
13923.72831889334
 21
2315.723761099418
 31
0.0
  0
LINE
  5
188E0
330
747D
100
AcDbEntity
  8
細線
 48
50.0
100
AcDbLine
 10
13938.72831889334
 20
4405.723761099416
 30
0.0
 11
13938.72831889334
 21
2315.723761099418
 31
0.0
  0
LINE
  5
188E1
330
747D
100
AcDbEntity
  8
細線
 48
50.0
100
AcDbLine
 10
14078.72831889334
 20
4405.723761099416
 30
0.0
 11
14078.72831889334
 21
2315.723761099418
 31
0.0
  0
LINE
  5
188E2
330
747D
100
AcDbEntity
  8
細線
 48
50.0
100
AcDbLine
 10
14063.72831889334
 20
4405.723761099416
 30
0.0
 11
14063.72831889334
 21
2315.723761099418
 31
0.0
  0
DIMENSION
  5
188E3
330
747D
100
AcDbEntity
  8
寸法
100
AcDbDimension
  2
*D36
 10
15741.15547686547
 20
4585.723761099418
 30
0.0
 11
15641.14366584184
 21
3425.723761099421
 31
0.0
 70
    32
 71
     5
 42
2320.000000000001
  3
INABA_S40G
100
AcDbAlignedDimension
 13
15036.22831889334
 23
2265.723761099418
 33
0.0
 14
15116.22831889334
 24
4585.723761099418
 34
0.0
 50
90.0
100
AcDbRotatedDimension
1001
ACAD
1000
DSTYLE
1002
{
1070
   174
1070
     0
1070
   272
1070
     1
1070
   288
1070
     0
1070
   341
1005
0
1002
}
  0
DIMENSION
  5
188E4
330
747D
100
AcDbEntity
  8
寸法
100
AcDbDimension
  2
*D37
 10
10842.47818971008
 20
4640.723761099416
 30
0.0
 11
10742.46637868646
 21
3453.223761099416
 31
0.0
 70
    32
 71
     5
 42
2375.000000000005
  3
INABA_S40G
100
AcDbAlignedDimension
 13
11986.22831889334
 23
2265.723761099411
 33
0.0
 14
11926.22831889334
 24
4640.723761099416
 34
0.0
 50
90.0
100
AcDbRotatedDimension
1001
ACAD
1000
DSTYLE
1002
{
1070
   174
1070
     0
1070
   272
1070
     1
1070
   288
1070
     0
1070
   341
1005
0
1002
}
  0
DIMENSION
  5
188E5
330
747D
100
AcDbEntity
  8
寸法
100
AcDbDimension
  2
*D38
 10
11142.47818971008
 20
2315.723761099411
 30
0.0
 11
11042.46637868646
 21
3360.723761099414
 31
0.0
 70
    32
 71
     5
 42
2090.000000000002
  3
INABA_S40G
100
AcDbAlignedDimension
 13
11986.22831889334
 23
4405.723761099412
 33
0.0
 14
11986.22831889334
 24
2315.723761099411
 34
0.0
 50
90.0
100
AcDbRotatedDimension
1001
ACAD
1000
DSTYLE
1002
{
1070
   174
1070
     0
1070
   272
1070
     1
1070
   288
1070
     0
1070
   341
1005
0
1002
}
  0
LINE
  5
188EA
330
747D
100
AcDbEntity
  8
破線
 48
5.0
100
AcDbLine
 10
11986.22831889335
 20
2165.723761099416
 30
0.0
 11
11986.22831889335
 21
1915.723761099416
 31
0.0
  0
LINE
  5
188EB
330
747D
100
AcDbEntity
  8
破線
 48
5.0
100
AcDbLine
 10
12041.22831889334
 20
2165.723761099416
 30
0.0
 11
12041.22831889334
 21
1915.723761099416
 31
0.0
  0
LINE
  5
188EC
330
747D
100
AcDbEntity
  8
破線
 48
5.0
100
AcDbLine
 10
11986.22831889335
 20
1915.723761099416
 30
0.0
 11
12041.22831889334
 21
1915.723761099416
 31
0.0
  0
LINE
  5
188ED
330
747D
100
AcDbEntity
  8
部品1
100
AcDbLine
 10
11986.22831889335
 20
2265.723761099416
 30
0.0
 11
11593.2311046845
 21
2165.723761099416
 31
0.0
  0
LINE
  5
19089
330
747D
100
AcDbEntity
  8
補助
  6
PHANTOM
 62
   230
 48
50.0
100
AcDbLine
 10
140.0
 20
0.0
 30
0.0
 11
139.9999999999995
 21
11409.6
 31
0.0
  0
DIMENSION
  5
191EA
330
747D
100
AcDbEntity
  8
寸法
 48
50.0
100
AcDbDimension
  2
*D39
 10
9582.93553027269
 20
4405.723761099416
 30
0.0
 11
9582.935530272687
 21
4644.209042473656
 31
0.0
 70
   160
 71
     5
 42
164.9999999999991
  3
INABA_S40G
100
AcDbAlignedDimension
 13
9295.392427950941
 23
4240.723761099417
 33
0.0
 14
9295.392427950941
 24
4405.723761099416
 34
0.0
 50
90.0
100
AcDbRotatedDimension
1001
ACAD
1000
DSTYLE
1002
{
1002
}
  0
DIMENSION
  5
191EB
330
747D
100
AcDbEntity
  8
寸法
 48
50.0
100
AcDbDimension
  2
*D40
 10
9582.935530272687
 20
4240.723761099417
 30
0.0
 11
9723.105353519054
 21
4241.690960939075
 31
0.0
 70
   160
 71
     5
 42
27.00000000000182
  3
INABA_S40G
100
AcDbAlignedDimension
 13
9295.392427950941
 23
4213.723761099415
 33
0.0
 14
9295.392427950941
 24
4240.723761099417
 34
0.0
 50
90.0
100
AcDbRotatedDimension
1001
ACAD
1000
DSTYLE
1002
{
1070
   279
1070
     2
1002
}
  0
DIMENSION
  5
191EC
330
747D
100
AcDbEntity
  8
寸法
 48
50.0
100
AcDbDimension
  2
*D41
 10
9582.935530272687
 20
4213.723761099415
 30
0.0
 11
9482.935530272685
 21
3239.723761099418
 31
0.0
 70
    32
  1
有効開口部高サ <>
 71
     5
 42
1947.999999999998
  3
INABA_S40G
100
AcDbAlignedDimension
 13
9295.392427950941
 23
2265.723761099416
 33
0.0
 14
9295.392427950941
 24
4213.723761099415
 34
0.0
 50
90.0
100
AcDbRotatedDimension
  0
ARC
  5
19482
330
747D
100
AcDbEntity
  8
部品1
 48
0.01
100
AcDbCircle
 10
4823.392427950946
 20
4469.723761099416
 30
0.0
 40
2.0
100
AcDbArc
 50
0.0
 51
90.0
  0
ARC
  5
19483
330
747D
100
AcDbEntity
  8
部品1
 48
0.01
100
AcDbCircle
 10
4647.392427950946
 20
4469.723761099416
 30
0.0
 40
2.0
100
AcDbArc
 50
90.0
 51
180.0
  0
LINE
  5
19484
330
747D
100
AcDbEntity
  8
細線
100
AcDbLine
 10
4735.392427950943
 20
4442.223761099415
 30
0.0
 11
4809.392427950946
 21
4442.223761099415
 31
0.0
  0
LINE
  5
19485
330
747D
100
AcDbEntity
  8
細線
100
AcDbLine
 10
4735.392427950946
 20
4465.223761099416
 30
0.0
 11
4661.392427950946
 21
4465.223761099416
 31
0.0
  0
LINE
  5
19486
330
747D
100
AcDbEntity
  8
細線
100
AcDbLine
 10
4661.392427950946
 20
4442.223761099415
 30
0.0
 11
4735.392427950946
 21
4442.223761099415
 31
0.0
  0
LINE
  5
19487
330
747D
100
AcDbEntity
  8
細線
100
AcDbLine
 10
4809.392427950946
 20
4465.223761099416
 30
0.0
 11
4735.392427950946
 21
4465.223761099416
 31
0.0
  0
LINE
  5
19488
330
747D
100
AcDbEntity
  8
細線
100
AcDbLine
 10
4809.392427950946
 20
4442.223761099415
 30
0.0
 11
4809.392427950946
 21
4465.223761099416
 31
0.0
  0
LINE
  5
19489
330
747D
100
AcDbEntity
  8
細線
100
AcDbLine
 10
4661.392427950946
 20
4465.223761099416
 30
0.0
 11
4661.392427950946
 21
4442.223761099415
 31
0.0
  0
LINE
  5
1948A
330
747D
100
AcDbEntity
  8
部品1
 48
0.01
100
AcDbLine
 10
4825.392427950943
 20
4438.223761099416
 30
0.0
 11
4825.392427950947
 21
4469.723761099416
 31
0.0
  0
LINE
  5
1948B
330
747D
100
AcDbEntity
  8
部品1
 48
0.01
100
AcDbLine
 10
4645.392427950946
 20
4469.723761099416
 30
0.0
 11
4645.392427950946
 21
4438.223761099416
 31
0.0
  0
LINE
  5
1948C
330
747D
100
AcDbEntity
  8
部品1
 48
0.01
100
AcDbLine
 10
4823.392427950946
 20
4471.723761099416
 30
0.0
 11
4647.392427950946
 21
4471.723761099416
 31
0.0
  0
LINE
  5
1948D
330
747D
100
AcDbEntity
  8
細線
100
AcDbLine
 10
4661.392427950946
 20
4459.223761099416
 30
0.0
 11
4735.392427950946
 21
4459.223761099416
 31
0.0
  0
LINE
  5
1948E
330
747D
100
AcDbEntity
  8
細線
100
AcDbLine
 10
4661.392427950946
 20
4453.223761099416
 30
0.0
 11
4735.392427950946
 21
4453.223761099416
 31
0.0
  0
LINE
  5
1948F
330
747D
100
AcDbEntity
  8
細線
100
AcDbLine
 10
4661.392427950942
 20
4447.223761099416
 30
0.0
 11
4735.392427950946
 21
4447.223761099416
 31
0.0
  0
LINE
  5
19490
330
747D
100
AcDbEntity
  8
細線
100
AcDbLine
 10
4661.392427950946
 20
4459.223761099416
 30
0.0
 11
4730.392427950946
 21
4459.223761099416
 31
0.0
  0
LINE
  5
19491
330
747D
100
AcDbEntity
  8
細線
100
AcDbLine
 10
4809.392427950943
 20
4459.223761099416
 30
0.0
 11
4735.392427950946
 21
4459.223761099416
 31
0.0
  0
LINE
  5
19492
330
747D
100
AcDbEntity
  8
細線
100
AcDbLine
 10
4809.392427950943
 20
4447.223761099416
 30
0.0
 11
4735.392427950946
 21
4447.223761099416
 31
0.0
  0
LINE
  5
19493
330
747D
100
AcDbEntity
  8
細線
100
AcDbLine
 10
4809.392427950943
 20
4453.223761099416
 30
0.0
 11
4735.392427950946
 21
4453.223761099416
 31
0.0
  0
LINE
  5
19494
330
747D
100
AcDbEntity
  8
細線
100
AcDbLine
 10
4735.392427950946
 20
4465.223761099416
 30
0.0
 11
4735.392427950943
 21
4442.223761099415
 31
0.0
  0
LINE
  5
19495
330
747D
100
AcDbEntity
  8
細線
100
AcDbLine
 10
5965.392427950947
 20
4465.223761099416
 30
0.0
 11
5965.392427950947
 21
4442.223761099415
 31
0.0
  0
LINE
  5
19496
330
747D
100
AcDbEntity
  8
細線
100
AcDbLine
 10
5891.392427950947
 20
4453.223761099416
 30
0.0
 11
5965.392427950947
 21
4453.223761099416
 31
0.0
  0
LINE
  5
19497
330
747D
100
AcDbEntity
  8
細線
100
AcDbLine
 10
5891.392427950947
 20
4447.223761099416
 30
0.0
 11
5965.392427950947
 21
4447.223761099416
 31
0.0
  0
LINE
  5
19498
330
747D
100
AcDbEntity
  8
細線
100
AcDbLine
 10
5891.392427950947
 20
4459.223761099416
 30
0.0
 11
5965.392427950947
 21
4459.223761099416
 31
0.0
  0
LINE
  5
19499
330
747D
100
AcDbEntity
  8
細線
100
AcDbLine
 10
6039.392427950946
 20
4459.223761099416
 30
0.0
 11
5970.392427950947
 21
4459.223761099416
 31
0.0
  0
LINE
  5
1949A
330
747D
100
AcDbEntity
  8
細線
100
AcDbLine
 10
6039.392427950946
 20
4447.223761099416
 30
0.0
 11
5965.392427950947
 21
4447.223761099416
 31
0.0
  0
LINE
  5
1949B
330
747D
100
AcDbEntity
  8
細線
100
AcDbLine
 10
6039.392427950946
 20
4453.223761099416
 30
0.0
 11
5965.392427950947
 21
4453.223761099416
 31
0.0
  0
LINE
  5
1949C
330
747D
100
AcDbEntity
  8
細線
100
AcDbLine
 10
6039.392427950946
 20
4459.223761099416
 30
0.0
 11
5965.392427950947
 21
4459.223761099416
 31
0.0
  0
LINE
  5
1949D
330
747D
100
AcDbEntity
  8
部品1
 48
0.01
100
AcDbLine
 10
5877.392427950947
 20
4471.723761099416
 30
0.0
 11
6053.392427950946
 21
4471.723761099416
 31
0.0
  0
LINE
  5
1949E
330
747D
100
AcDbEntity
  8
部品1
 48
0.01
100
AcDbLine
 10
6055.392427950947
 20
4469.723761099416
 30
0.0
 11
6055.392427950947
 21
4438.223761099416
 31
0.0
  0
LINE
  5
1949F
330
747D
100
AcDbEntity
  8
部品1
 48
0.01
100
AcDbLine
 10
5875.392427950947
 20
4438.223761099416
 30
0.0
 11
5875.392427950947
 21
4469.723761099416
 31
0.0
  0
LINE
  5
194A0
330
747D
100
AcDbEntity
  8
細線
100
AcDbLine
 10
6039.392427950946
 20
4465.223761099416
 30
0.0
 11
6039.392427950946
 21
4442.223761099415
 31
0.0
  0
LINE
  5
194A1
330
747D
100
AcDbEntity
  8
細線
100
AcDbLine
 10
5891.392427950947
 20
4442.223761099415
 30
0.0
 11
5891.392427950947
 21
4465.223761099416
 31
0.0
  0
LINE
  5
194A2
330
747D
100
AcDbEntity
  8
細線
100
AcDbLine
 10
5891.392427950947
 20
4465.223761099416
 30
0.0
 11
5965.392427950947
 21
4465.223761099416
 31
0.0
  0
LINE
  5
194A3
330
747D
100
AcDbEntity
  8
細線
100
AcDbLine
 10
6039.392427950946
 20
4442.223761099415
 30
0.0
 11
5965.392427950947
 21
4442.223761099415
 31
0.0
  0
LINE
  5
194A4
330
747D
100
AcDbEntity
  8
細線
100
AcDbLine
 10
5965.392427950947
 20
4465.223761099416
 30
0.0
 11
6039.392427950946
 21
4465.223761099416
 31
0.0
  0
LINE
  5
194A5
330
747D
100
AcDbEntity
  8
細線
100
AcDbLine
 10
5965.392427950947
 20
4442.223761099415
 30
0.0
 11
5891.392427950947
 21
4442.223761099415
 31
0.0
  0
ARC
  5
194A6
330
747D
100
AcDbEntity
  8
部品1
 48
0.01
100
AcDbCircle
 10
6053.392427950946
 20
4469.723761099416
 30
0.0
 40
2.0
100
AcDbArc
 50
0.0
 51
90.0
  0
ARC
  5
194A7
330
747D
100
AcDbEntity
  8
部品1
 48
0.01
100
AcDbCircle
 10
5877.392427950947
 20
4469.723761099416
 30
0.0
 40
2.0
100
AcDbArc
 50
90.0
 51
180.0
  0
ARC
  5
194A8
330
747D
100
AcDbEntity
  8
部品1
 48
0.01
100
AcDbCircle
 10
4823.392427950943
 20
4438.223761099416
 30
0.0
 40
2.0
100
AcDbArc
 50
270.0
 51
0.0
  0
ARC
  5
194A9
330
747D
100
AcDbEntity
  8
部品1
 48
0.01
100
AcDbCircle
 10
4647.392427950946
 20
4438.223761099416
 30
0.0
 40
2.0
100
AcDbArc
 50
180.0
 51
270.0
  0
LINE
  5
194AA
330
747D
100
AcDbEntity
  8
部品1
 48
0.01
100
AcDbLine
 10
4647.392427950946
 20
4436.223761099416
 30
0.0
 11
4823.392427950943
 21
4436.223761099416
 31
0.0
  0
LINE
  5
194AB
330
747D
100
AcDbEntity
  8
部品1
 48
0.01
100
AcDbLine
 10
6053.392427950946
 20
4436.223761099416
 30
0.0
 11
5877.392427950947
 21
4436.223761099416
 31
0.0
  0
ARC
  5
194AC
330
747D
100
AcDbEntity
  8
部品1
 48
0.01
100
AcDbCircle
 10
6053.392427950946
 20
4438.223761099416
 30
0.0
 40
2.0
100
AcDbArc
 50
270.0
 51
0.0
  0
ARC
  5
194AD
330
747D
100
AcDbEntity
  8
部品1
 48
0.01
100
AcDbCircle
 10
5877.392427950947
 20
4438.223761099416
 30
0.0
 40
2.0
100
AcDbArc
 50
180.0
 51
270.0
  0
ARC
  5
194BE
330
747D
100
AcDbEntity
  8
部品1
 48
0.01
100
AcDbCircle
 10
3247.392427950948
 20
4438.223761099416
 30
0.0
 40
2.0
100
AcDbArc
 50
180.0
 51
270.0
  0
ARC
  5
194BF
330
747D
100
AcDbEntity
  8
部品1
 48
0.01
100
AcDbCircle
 10
3423.392427950949
 20
4438.223761099416
 30
0.0
 40
2.0
100
AcDbArc
 50
270.0
 51
0.0
  0
LINE
  5
194C0
330
747D
100
AcDbEntity
  8
部品1
 48
0.01
100
AcDbLine
 10
3423.392427950949
 20
4436.223761099416
 30
0.0
 11
3247.392427950948
 21
4436.223761099416
 31
0.0
  0
LINE
  5
194C1
330
747D
100
AcDbEntity
  8
部品1
 48
0.01
100
AcDbLine
 10
2017.392427950948
 20
4436.223761099416
 30
0.0
 11
2193.392427950945
 21
4436.223761099416
 31
0.0
  0
ARC
  5
194C2
330
747D
100
AcDbEntity
  8
部品1
 48
0.01
100
AcDbCircle
 10
2017.392427950948
 20
4438.223761099416
 30
0.0
 40
2.0
100
AcDbArc
 50
180.0
 51
270.0
  0
ARC
  5
194C3
330
747D
100
AcDbEntity
  8
部品1
 48
0.01
100
AcDbCircle
 10
2193.392427950945
 20
4438.223761099416
 30
0.0
 40
2.0
100
AcDbArc
 50
270.0
 51
0.0
  0
ARC
  5
194C4
330
747D
100
AcDbEntity
  8
部品1
 48
0.01
100
AcDbCircle
 10
3247.392427950948
 20
4469.723761099416
 30
0.0
 40
2.0
100
AcDbArc
 50
90.0
 51
180.0
  0
ARC
  5
194C5
330
747D
100
AcDbEntity
  8
部品1
 48
0.01
100
AcDbCircle
 10
3423.392427950949
 20
4469.723761099416
 30
0.0
 40
2.0
100
AcDbArc
 50
0.0
 51
90.0
  0
LINE
  5
194C6
330
747D
100
AcDbEntity
  8
細線
100
AcDbLine
 10
3335.392427950949
 20
4442.223761099415
 30
0.0
 11
3261.392427950948
 21
4442.223761099415
 31
0.0
  0
LINE
  5
194C7
330
747D
100
AcDbEntity
  8
細線
100
AcDbLine
 10
3335.392427950949
 20
4465.223761099416
 30
0.0
 11
3409.392427950949
 21
4465.223761099416
 31
0.0
  0
LINE
  5
194C8
330
747D
100
AcDbEntity
  8
細線
100
AcDbLine
 10
3409.392427950949
 20
4442.223761099415
 30
0.0
 11
3335.392427950949
 21
4442.223761099415
 31
0.0
  0
LINE
  5
194C9
330
747D
100
AcDbEntity
  8
細線
100
AcDbLine
 10
3261.392427950948
 20
4465.223761099416
 30
0.0
 11
3335.392427950949
 21
4465.223761099416
 31
0.0
  0
LINE
  5
194CA
330
747D
100
AcDbEntity
  8
細線
100
AcDbLine
 10
3261.392427950948
 20
4442.223761099415
 30
0.0
 11
3261.392427950948
 21
4465.223761099416
 31
0.0
  0
LINE
  5
194CB
330
747D
100
AcDbEntity
  8
細線
100
AcDbLine
 10
3409.392427950949
 20
4465.223761099416
 30
0.0
 11
3409.392427950949
 21
4442.223761099415
 31
0.0
  0
LINE
  5
194CC
330
747D
100
AcDbEntity
  8
部品1
 48
0.01
100
AcDbLine
 10
3245.392427950949
 20
4438.223761099416
 30
0.0
 11
3245.392427950949
 21
4469.723761099416
 31
0.0
  0
LINE
  5
194CD
330
747D
100
AcDbEntity
  8
部品1
 48
0.01
100
AcDbLine
 10
3425.392427950948
 20
4469.723761099416
 30
0.0
 11
3425.392427950948
 21
4438.223761099416
 31
0.0
  0
LINE
  5
194CE
330
747D
100
AcDbEntity
  8
部品1
 48
0.01
100
AcDbLine
 10
3247.392427950948
 20
4471.723761099416
 30
0.0
 11
3423.392427950949
 21
4471.723761099416
 31
0.0
  0
LINE
  5
194CF
330
747D
100
AcDbEntity
  8
細線
100
AcDbLine
 10
3409.392427950949
 20
4459.223761099416
 30
0.0
 11
3335.392427950949
 21
4459.223761099416
 31
0.0
  0
LINE
  5
194D0
330
747D
100
AcDbEntity
  8
細線
100
AcDbLine
 10
3409.392427950949
 20
4453.223761099416
 30
0.0
 11
3335.392427950949
 21
4453.223761099416
 31
0.0
  0
LINE
  5
194D1
330
747D
100
AcDbEntity
  8
細線
100
AcDbLine
 10
3409.392427950949
 20
4447.223761099416
 30
0.0
 11
3335.392427950949
 21
4447.223761099416
 31
0.0
  0
LINE
  5
194D2
330
747D
100
AcDbEntity
  8
細線
100
AcDbLine
 10
3409.392427950949
 20
4459.223761099416
 30
0.0
 11
3340.392427950948
 21
4459.223761099416
 31
0.0
  0
LINE
  5
194D3
330
747D
100
AcDbEntity
  8
細線
100
AcDbLine
 10
3261.392427950948
 20
4459.223761099416
 30
0.0
 11
3335.392427950949
 21
4459.223761099416
 31
0.0
  0
LINE
  5
194D4
330
747D
100
AcDbEntity
  8
細線
100
AcDbLine
 10
3261.392427950948
 20
4447.223761099416
 30
0.0
 11
3335.392427950949
 21
4447.223761099416
 31
0.0
  0
LINE
  5
194D5
330
747D
100
AcDbEntity
  8
細線
100
AcDbLine
 10
3261.392427950948
 20
4453.223761099416
 30
0.0
 11
3335.392427950949
 21
4453.223761099416
 31
0.0
  0
LINE
  5
194D6
330
747D
100
AcDbEntity
  8
細線
100
AcDbLine
 10
3335.392427950949
 20
4465.223761099416
 30
0.0
 11
3335.392427950949
 21
4442.223761099415
 31
0.0
  0
LINE
  5
194D7
330
747D
100
AcDbEntity
  8
細線
100
AcDbLine
 10
2105.392427950949
 20
4465.223761099416
 30
0.0
 11
2105.392427950945
 21
4442.223761099415
 31
0.0
  0
LINE
  5
194D8
330
747D
100
AcDbEntity
  8
細線
100
AcDbLine
 10
2179.392427950945
 20
4453.223761099416
 30
0.0
 11
2105.392427950949
 21
4453.223761099416
 31
0.0
  0
LINE
  5
194D9
330
747D
100
AcDbEntity
  8
細線
100
AcDbLine
 10
2179.392427950945
 20
4447.223761099416
 30
0.0
 11
2105.392427950949
 21
4447.223761099416
 31
0.0
  0
LINE
  5
194DA
330
747D
100
AcDbEntity
  8
細線
100
AcDbLine
 10
2179.392427950945
 20
4459.223761099416
 30
0.0
 11
2105.392427950949
 21
4459.223761099416
 31
0.0
  0
LINE
  5
194DB
330
747D
100
AcDbEntity
  8
細線
100
AcDbLine
 10
2031.392427950948
 20
4459.223761099416
 30
0.0
 11
2100.392427950948
 21
4459.223761099416
 31
0.0
  0
LINE
  5
194DC
330
747D
100
AcDbEntity
  8
細線
100
AcDbLine
 10
2031.392427950945
 20
4447.223761099416
 30
0.0
 11
2105.392427950949
 21
4447.223761099416
 31
0.0
  0
LINE
  5
194DD
330
747D
100
AcDbEntity
  8
細線
100
AcDbLine
 10
2031.392427950948
 20
4453.223761099416
 30
0.0
 11
2105.392427950949
 21
4453.223761099416
 31
0.0
  0
LINE
  5
194DE
330
747D
100
AcDbEntity
  8
細線
100
AcDbLine
 10
2031.392427950948
 20
4459.223761099416
 30
0.0
 11
2105.392427950949
 21
4459.223761099416
 31
0.0
  0
LINE
  5
194DF
330
747D
100
AcDbEntity
  8
部品1
 48
0.01
100
AcDbLine
 10
2193.392427950948
 20
4471.723761099416
 30
0.0
 11
2017.392427950948
 21
4471.723761099416
 31
0.0
  0
LINE
  5
194E0
330
747D
100
AcDbEntity
  8
部品1
 48
0.01
100
AcDbLine
 10
2015.392427950948
 20
4469.723761099416
 30
0.0
 11
2015.392427950948
 21
4438.223761099416
 31
0.0
  0
LINE
  5
194E1
330
747D
100
AcDbEntity
  8
部品1
 48
0.01
100
AcDbLine
 10
2195.392427950945
 20
4438.223761099416
 30
0.0
 11
2195.392427950948
 21
4469.723761099416
 31
0.0
  0
LINE
  5
194E2
330
747D
100
AcDbEntity
  8
細線
100
AcDbLine
 10
2031.392427950948
 20
4465.223761099416
 30
0.0
 11
2031.392427950948
 21
4442.223761099415
 31
0.0
  0
LINE
  5
194E3
330
747D
100
AcDbEntity
  8
細線
100
AcDbLine
 10
2179.392427950948
 20
4442.223761099415
 30
0.0
 11
2179.392427950948
 21
4465.223761099416
 31
0.0
  0
LINE
  5
194E4
330
747D
100
AcDbEntity
  8
細線
100
AcDbLine
 10
2179.392427950948
 20
4465.223761099416
 30
0.0
 11
2105.392427950949
 21
4465.223761099416
 31
0.0
  0
LINE
  5
194E5
330
747D
100
AcDbEntity
  8
細線
100
AcDbLine
 10
2031.392427950948
 20
4442.223761099415
 30
0.0
 11
2105.392427950949
 21
4442.223761099415
 31
0.0
  0
LINE
  5
194E6
330
747D
100
AcDbEntity
  8
細線
100
AcDbLine
 10
2105.392427950949
 20
4465.223761099416
 30
0.0
 11
2031.392427950948
 21
4465.223761099416
 31
0.0
  0
LINE
  5
194E7
330
747D
100
AcDbEntity
  8
細線
100
AcDbLine
 10
2105.392427950945
 20
4442.223761099415
 30
0.0
 11
2179.392427950948
 21
4442.223761099415
 31
0.0
  0
ARC
  5
194E8
330
747D
100
AcDbEntity
  8
部品1
 48
0.01
100
AcDbCircle
 10
2017.392427950948
 20
4469.723761099416
 30
0.0
 40
2.0
100
AcDbArc
 50
90.0
 51
180.0
  0
ARC
  5
194E9
330
747D
100
AcDbEntity
  8
部品1
 48
0.01
100
AcDbCircle
 10
2193.392427950948
 20
4469.723761099416
 30
0.0
 40
2.0
100
AcDbArc
 50
0.0
 51
90.0
  0
ARC
  5
1964F
330
747D
100
AcDbEntity
  8
部品1
 48
0.01
100
AcDbCircle
 10
8507.392427950943
 20
4438.223761099416
 30
0.0
 40
2.0
100
AcDbArc
 50
180.0
 51
270.0
  0
ARC
  5
19650
330
747D
100
AcDbEntity
  8
部品1
 48
0.01
100
AcDbCircle
 10
8683.392427950943
 20
4438.223761099416
 30
0.0
 40
2.0
100
AcDbArc
 50
270.0
 51
0.0
  0
LINE
  5
19651
330
747D
100
AcDbEntity
  8
部品1
 48
0.01
100
AcDbLine
 10
8683.392427950943
 20
4436.223761099416
 30
0.0
 11
8507.392427950943
 21
4436.223761099416
 31
0.0
  0
LINE
  5
19652
330
747D
100
AcDbEntity
  8
部品1
 48
0.01
100
AcDbLine
 10
7277.392427950942
 20
4436.223761099416
 30
0.0
 11
7453.392427950939
 21
4436.223761099416
 31
0.0
  0
ARC
  5
19653
330
747D
100
AcDbEntity
  8
部品1
 48
0.01
100
AcDbCircle
 10
7277.392427950942
 20
4438.223761099416
 30
0.0
 40
2.0
100
AcDbArc
 50
180.0
 51
270.0
  0
ARC
  5
19654
330
747D
100
AcDbEntity
  8
部品1
 48
0.01
100
AcDbCircle
 10
7453.392427950939
 20
4438.223761099416
 30
0.0
 40
2.0
100
AcDbArc
 50
270.0
 51
0.0
  0
ARC
  5
19655
330
747D
100
AcDbEntity
  8
部品1
 48
0.01
100
AcDbCircle
 10
8507.392427950943
 20
4469.723761099416
 30
0.0
 40
2.0
100
AcDbArc
 50
90.0
 51
180.0
  0
ARC
  5
19656
330
747D
100
AcDbEntity
  8
部品1
 48
0.01
100
AcDbCircle
 10
8683.392427950943
 20
4469.723761099416
 30
0.0
 40
2.0
100
AcDbArc
 50
0.0
 51
90.0
  0
LINE
  5
19657
330
747D
100
AcDbEntity
  8
細線
100
AcDbLine
 10
8595.392427950944
 20
4442.223761099415
 30
0.0
 11
8521.392427950942
 21
4442.223761099415
 31
0.0
  0
LINE
  5
19658
330
747D
100
AcDbEntity
  8
細線
100
AcDbLine
 10
8595.392427950944
 20
4465.223761099416
 30
0.0
 11
8669.392427950944
 21
4465.223761099416
 31
0.0
  0
LINE
  5
19659
330
747D
100
AcDbEntity
  8
細線
100
AcDbLine
 10
8669.392427950944
 20
4442.223761099415
 30
0.0
 11
8595.392427950944
 21
4442.223761099415
 31
0.0
  0
LINE
  5
1965A
330
747D
100
AcDbEntity
  8
細線
100
AcDbLine
 10
8521.392427950942
 20
4465.223761099416
 30
0.0
 11
8595.392427950944
 21
4465.223761099416
 31
0.0
  0
LINE
  5
1965B
330
747D
100
AcDbEntity
  8
細線
100
AcDbLine
 10
8521.392427950942
 20
4442.223761099415
 30
0.0
 11
8521.392427950942
 21
4465.223761099416
 31
0.0
  0
LINE
  5
1965C
330
747D
100
AcDbEntity
  8
細線
100
AcDbLine
 10
8669.392427950944
 20
4465.223761099416
 30
0.0
 11
8669.392427950944
 21
4442.223761099415
 31
0.0
  0
LINE
  5
1965D
330
747D
100
AcDbEntity
  8
部品1
 48
0.01
100
AcDbLine
 10
8505.392427950942
 20
4438.223761099416
 30
0.0
 11
8505.392427950942
 21
4469.723761099416
 31
0.0
  0
LINE
  5
1965E
330
747D
100
AcDbEntity
  8
部品1
 48
0.01
100
AcDbLine
 10
8685.392427950942
 20
4469.723761099416
 30
0.0
 11
8685.392427950942
 21
4438.223761099416
 31
0.0
  0
LINE
  5
1965F
330
747D
100
AcDbEntity
  8
部品1
 48
0.01
100
AcDbLine
 10
8507.392427950943
 20
4471.723761099416
 30
0.0
 11
8683.392427950943
 21
4471.723761099416
 31
0.0
  0
LINE
  5
19660
330
747D
100
AcDbEntity
  8
細線
100
AcDbLine
 10
8669.392427950944
 20
4459.223761099416
 30
0.0
 11
8595.392427950944
 21
4459.223761099416
 31
0.0
  0
LINE
  5
19661
330
747D
100
AcDbEntity
  8
細線
100
AcDbLine
 10
8669.392427950944
 20
4453.223761099416
 30
0.0
 11
8595.392427950944
 21
4453.223761099416
 31
0.0
  0
LINE
  5
19662
330
747D
100
AcDbEntity
  8
細線
100
AcDbLine
 10
8669.392427950944
 20
4447.223761099416
 30
0.0
 11
8595.392427950944
 21
4447.223761099416
 31
0.0
  0
LINE
  5
19663
330
747D
100
AcDbEntity
  8
細線
100
AcDbLine
 10
8669.392427950944
 20
4459.223761099416
 30
0.0
 11
8600.392427950943
 21
4459.223761099416
 31
0.0
  0
LINE
  5
19664
330
747D
100
AcDbEntity
  8
細線
100
AcDbLine
 10
8521.392427950942
 20
4459.223761099416
 30
0.0
 11
8595.392427950944
 21
4459.223761099416
 31
0.0
  0
LINE
  5
19665
330
747D
100
AcDbEntity
  8
細線
100
AcDbLine
 10
8521.392427950942
 20
4447.223761099416
 30
0.0
 11
8595.392427950944
 21
4447.223761099416
 31
0.0
  0
LINE
  5
19666
330
747D
100
AcDbEntity
  8
細線
100
AcDbLine
 10
8521.392427950942
 20
4453.223761099416
 30
0.0
 11
8595.392427950944
 21
4453.223761099416
 31
0.0
  0
LINE
  5
19667
330
747D
100
AcDbEntity
  8
細線
100
AcDbLine
 10
8595.392427950944
 20
4465.223761099416
 30
0.0
 11
8595.392427950944
 21
4442.223761099415
 31
0.0
  0
LINE
  5
19668
330
747D
100
AcDbEntity
  8
細線
100
AcDbLine
 10
7365.392427950943
 20
4465.223761099416
 30
0.0
 11
7365.39242795094
 21
4442.223761099415
 31
0.0
  0
LINE
  5
19669
330
747D
100
AcDbEntity
  8
細線
100
AcDbLine
 10
7439.392427950939
 20
4453.223761099416
 30
0.0
 11
7365.392427950943
 21
4453.223761099416
 31
0.0
  0
LINE
  5
1966A
330
747D
100
AcDbEntity
  8
細線
100
AcDbLine
 10
7439.392427950939
 20
4447.223761099416
 30
0.0
 11
7365.392427950943
 21
4447.223761099416
 31
0.0
  0
LINE
  5
1966B
330
747D
100
AcDbEntity
  8
細線
100
AcDbLine
 10
7439.392427950939
 20
4459.223761099416
 30
0.0
 11
7365.392427950943
 21
4459.223761099416
 31
0.0
  0
LINE
  5
1966C
330
747D
100
AcDbEntity
  8
細線
100
AcDbLine
 10
7291.392427950943
 20
4459.223761099416
 30
0.0
 11
7360.392427950943
 21
4459.223761099416
 31
0.0
  0
LINE
  5
1966D
330
747D
100
AcDbEntity
  8
細線
100
AcDbLine
 10
7291.392427950938
 20
4447.223761099416
 30
0.0
 11
7365.392427950943
 21
4447.223761099416
 31
0.0
  0
LINE
  5
1966E
330
747D
100
AcDbEntity
  8
細線
100
AcDbLine
 10
7291.392427950943
 20
4453.223761099416
 30
0.0
 11
7365.392427950943
 21
4453.223761099416
 31
0.0
  0
LINE
  5
1966F
330
747D
100
AcDbEntity
  8
細線
100
AcDbLine
 10
7291.392427950943
 20
4459.223761099416
 30
0.0
 11
7365.392427950943
 21
4459.223761099416
 31
0.0
  0
LINE
  5
19670
330
747D
100
AcDbEntity
  8
部品1
 48
0.01
100
AcDbLine
 10
7453.392427950944
 20
4471.723761099416
 30
0.0
 11
7277.392427950942
 21
4471.723761099416
 31
0.0
  0
LINE
  5
19671
330
747D
100
AcDbEntity
  8
部品1
 48
0.01
100
AcDbLine
 10
7275.392427950944
 20
4469.723761099416
 30
0.0
 11
7275.392427950944
 21
4438.223761099416
 31
0.0
  0
LINE
  5
19672
330
747D
100
AcDbEntity
  8
部品1
 48
0.01
100
AcDbLine
 10
7455.392427950939
 20
4438.223761099416
 30
0.0
 11
7455.392427950943
 21
4469.723761099416
 31
0.0
  0
LINE
  5
19673
330
747D
100
AcDbEntity
  8
細線
100
AcDbLine
 10
7291.392427950943
 20
4465.223761099416
 30
0.0
 11
7291.392427950943
 21
4442.223761099415
 31
0.0
  0
LINE
  5
19674
330
747D
100
AcDbEntity
  8
細線
100
AcDbLine
 10
7439.392427950943
 20
4442.223761099415
 30
0.0
 11
7439.392427950943
 21
4465.223761099416
 31
0.0
  0
LINE
  5
19675
330
747D
100
AcDbEntity
  8
細線
100
AcDbLine
 10
7439.392427950943
 20
4465.223761099416
 30
0.0
 11
7365.392427950943
 21
4465.223761099416
 31
0.0
  0
LINE
  5
19676
330
747D
100
AcDbEntity
  8
細線
100
AcDbLine
 10
7291.392427950943
 20
4442.223761099415
 30
0.0
 11
7365.392427950943
 21
4442.223761099415
 31
0.0
  0
LINE
  5
19677
330
747D
100
AcDbEntity
  8
細線
100
AcDbLine
 10
7365.392427950943
 20
4465.223761099416
 30
0.0
 11
7291.392427950943
 21
4465.223761099416
 31
0.0
  0
LINE
  5
19678
330
747D
100
AcDbEntity
  8
細線
100
AcDbLine
 10
7365.39242795094
 20
4442.223761099415
 30
0.0
 11
7439.392427950943
 21
4442.223761099415
 31
0.0
  0
ARC
  5
19679
330
747D
100
AcDbEntity
  8
部品1
 48
0.01
100
AcDbCircle
 10
7277.392427950942
 20
4469.723761099416
 30
0.0
 40
2.0
100
AcDbArc
 50
90.0
 51
180.0
  0
ARC
  5
1967A
330
747D
100
AcDbEntity
  8
部品1
 48
0.01
100
AcDbCircle
 10
7453.392427950944
 20
4469.723761099416
 30
0.0
 40
2.0
100
AcDbArc
 50
0.0
 51
90.0
  0
DIMENSION
  5
19705
330
747D
100
AcDbEntity
  8
寸法
 48
50.0
100
AcDbDimension
  2
*D42
 10
4372.233788211534
 20
10292.49742454587
 30
0.0
 11
4272.233788211532
 21
9934.247424545795
 31
0.0
 70
    32
 71
     5
 42
716.5000000001527
  3
INABA_S40G
100
AcDbAlignedDimension
 13
4115.392427950707
 23
9575.997424545716
 33
0.0
 14
4090.392427950933
 24
10292.49742454587
 34
0.0
 50
90.0
100
AcDbRotatedDimension
1001
ACAD
1000
DSTYLE
1002
{
1070
   279
1070
     2
1070
   341
1005
0
1002
}
  0
TEXT
  5
19721
330
747D
100
AcDbEntity
  8
文字
 62
     7
 48
50.0
100
AcDbText
 10
15022.63965474517
 20
9740.013745883729
 30
0.0
 40
100.0
  1
F12            2.3
  7
STYLE1
100
AcDbText
  0
LINE
  5
19735
330
747D
100
AcDbEntity
  8
部品1
 48
50.0
100
AcDbLine
 10
3955.392427950716
 20
10212.49742454574
 30
0.0
 11
1485.39242795094
 21
10212.49742454572
 31
0.0
  0
LINE
  5
19736
330
747D
100
AcDbEntity
  8
部品1
100
AcDbLine
 10
3980.392427950724
 20
10237.49742454588
 30
0.0
 11
1460.392427950942
 21
10237.49742454588
 31
0.0
  0
LINE
  5
19874
330
747D
100
AcDbEntity
  8
部品1
 48
10.0
100
AcDbLine
 10
4115.392425706854
 20
9575.997420968446
 30
0.0
 11
4115.392425706843
 21
10237.49742096848
 31
0.0
  0
LINE
  5
19875
330
747D
100
AcDbEntity
  8
部品1
100
AcDbLine
 10
4090.392425706876
 20
9575.997420968439
 30
0.0
 11
4090.392425706869
 21
10237.49742096846
 31
0.0
  0
LINE
  5
19876
330
747D
100
AcDbEntity
  8
部品1
100
AcDbLine
 10
4063.392425706854
 20
9575.997420968439
 30
0.0
 11
4063.392425706862
 21
10292.49742096851
 31
0.0
  0
LINE
  5
19877
330
747D
100
AcDbEntity
  8
部品1
 48
50.0
100
AcDbLine
 10
4060.392425706844
 20
9576.997417391424
 30
0.0
 11
4060.392425706844
 21
10237.49741739142
 31
0.0
  0
LINE
  5
19878
330
747D
100
AcDbEntity
  8
部品1
 48
50.0
100
AcDbLine
 10
3955.392425706866
 20
9575.997420968439
 30
0.0
 11
4115.392425706854
 21
9575.997420968446
 31
0.0
  0
LINE
  5
19879
330
747D
100
AcDbEntity
  8
部品1
 48
50.0
100
AcDbLine
 10
4010.392425706844
 20
9576.997417391424
 30
0.0
 11
4060.392425706844
 21
9576.997417391424
 31
0.0
  0
LINE
  5
1987A
330
747D
100
AcDbEntity
  8
部品1
100
AcDbLine
 10
4010.392425706844
 20
9658.997417391425
 30
0.0
 11
4060.392425706842
 21
9671.709281798204
 31
0.0
  0
LINE
  5
1987B
330
747D
100
AcDbEntity
  8
部品1
100
AcDbLine
 10
4060.392425706844
 20
9813.821433954572
 30
0.0
 11
4010.392425706842
 21
9818.997417391425
 31
0.0
  0
LINE
  5
1987C
330
747D
100
AcDbEntity
  8
部品1
100
AcDbLine
 10
4060.392425706844
 20
9854.17340082828
 30
0.0
 11
4010.392425706842
 21
9848.997417391425
 31
0.0
  0
LINE
  5
1987D
330
747D
100
AcDbEntity
  8
部品1
 48
50.0
100
AcDbLine
 10
4090.392425706869
 20
10237.49742096855
 30
0.0
 11
4063.392425706862
 21
10264.49742096855
 31
0.0
  0
LINE
  5
1987E
330
747D
100
AcDbEntity
  8
部品1
 48
50.0
100
AcDbLine
 10
4010.392425706844
 20
10237.49741739142
 30
0.0
 11
4010.392425706844
 21
9576.997417391424
 31
0.0
  0
LINE
  5
1987F
330
747D
100
AcDbEntity
  8
部品1
 48
50.0
100
AcDbLine
 10
4063.392425707047
 20
10237.49742096867
 30
0.0
 11
4007.392425707045
 21
10237.49742096867
 31
0.0
  0
LINE
  5
19880
330
747D
100
AcDbEntity
  8
部品1
100
AcDbLine
 10
4007.392425706858
 20
10264.49742096856
 30
0.0
 11
4007.392425706854
 21
9575.997420968439
 31
0.0
  0
LINE
  5
19881
330
747D
100
AcDbEntity
  8
部品1
 48
50.0
100
AcDbLine
 10
4007.392425707047
 20
10237.49742096861
 30
0.0
 11
4007.392425707047
 21
10264.49742096864
 31
0.0
  0
LINE
  5
19882
330
747D
100
AcDbEntity
  8
部品1
 48
10.0
100
AcDbLine
 10
3955.392425706866
 20
9575.997420968439
 30
0.0
 11
3955.392425706862
 21
10237.49742096847
 31
0.0
  0
LINE
  5
19883
330
747D
100
AcDbEntity
  8
部品1
100
AcDbLine
 10
3980.392425706873
 20
9575.997420968439
 30
0.0
 11
3980.392425706869
 21
10237.49742096847
 31
0.0
  0
LINE
  5
19884
330
747D
100
AcDbEntity
  8
部品1
 48
50.0
100
AcDbLine
 10
3980.392425706869
 20
10237.49742096847
 30
0.0
 11
4007.392425707047
 21
10264.49742096864
 31
0.0
  0
LINE
  5
19885
330
747D
100
AcDbEntity
  8
部品1
 48
50.0
100
AcDbLine
 10
4007.392425707047
 20
10264.49742096875
 30
0.0
 11
4007.392425707044
 21
10292.4974209687
 31
0.0
  0
LINE
  5
19886
330
747D
100
AcDbEntity
  8
部品1
 48
50.0
100
AcDbLine
 10
4007.392425707047
 20
10264.49742096864
 30
0.0
 11
4035.392425707043
 21
10264.49742096864
 31
0.0
  0
LINE
  5
19887
330
747D
100
AcDbEntity
  8
部品1
 48
50.0
100
AcDbLine
 10
4035.392425707043
 20
10264.49742096864
 30
0.0
 11
4007.392425707047
 21
10292.4974209687
 31
0.0
  0
LINE
  5
19888
330
747D
100
AcDbEntity
  8
部品1
 48
50.0
100
AcDbLine
 10
4063.392425707047
 20
10237.49742096861
 30
0.0
 11
4063.392425707113
 21
10292.49742096865
 31
0.0
  0
LINE
  5
19889
330
747D
100
AcDbEntity
  8
部品1
100
AcDbLine
 10
4090.392425707077
 20
10292.4974209686
 30
0.0
 11
4090.392425707077
 21
10264.4974209686
 31
0.0
  0
LINE
  5
1988A
330
747D
100
AcDbEntity
  8
部品1
 48
50.0
100
AcDbLine
 10
4090.392423463225
 20
10292.49741739142
 30
0.0
 11
3980.39242570708
 21
10292.49742096869
 31
0.0
  0
LINE
  5
1988B
330
747D
100
AcDbEntity
  8
部品1
100
AcDbLine
 10
3980.39242570708
 20
10292.49742096869
 30
0.0
 11
3980.39242570708
 21
10264.49742096869
 31
0.0
  0
LINE
  5
1988D
330
747D
100
AcDbEntity
  8
部品1
100
AcDbLine
 10
6637.392427951029
 20
10264.49742096557
 30
0.0
 11
6637.392427951026
 21
9575.997420965451
 31
0.0
  0
LINE
  5
1988E
330
747D
100
AcDbEntity
  8
部品1
100
AcDbLine
 10
6610.392427951251
 20
10292.49742096571
 30
0.0
 11
6610.392427951251
 21
10264.49742096571
 31
0.0
  0
LINE
  5
19890
330
747D
100
AcDbEntity
  8
部品1
100
AcDbLine
 10
6720.392427951248
 20
10292.49742096561
 30
0.0
 11
6720.392427951248
 21
10264.49742096561
 31
0.0
  0
LINE
  5
19891
330
747D
100
AcDbEntity
  8
部品1
 48
50.0
100
AcDbLine
 10
6693.392427951218
 20
10237.49742096563
 30
0.0
 11
6693.392427951284
 21
10292.49742096566
 31
0.0
  0
LINE
  5
19892
330
747D
100
AcDbEntity
  8
部品1
 48
50.0
100
AcDbLine
 10
6665.392427951215
 20
10264.49742096565
 30
0.0
 11
6637.392427951218
 21
10292.49742096571
 31
0.0
  0
LINE
  5
19893
330
747D
100
AcDbEntity
  8
部品1
 48
50.0
100
AcDbLine
 10
6637.392427951218
 20
10264.49742096565
 30
0.0
 11
6665.392427951215
 21
10264.49742096565
 31
0.0
  0
LINE
  5
19894
330
747D
100
AcDbEntity
  8
部品1
 48
50.0
100
AcDbLine
 10
6637.392427951218
 20
10264.49742096576
 30
0.0
 11
6637.392427951215
 21
10292.49742096571
 31
0.0
  0
LINE
  5
19895
330
747D
100
AcDbEntity
  8
部品1
 48
50.0
100
AcDbLine
 10
6610.39242795104
 20
10237.49742096548
 30
0.0
 11
6637.392427951218
 21
10264.49742096565
 31
0.0
  0
LINE
  5
19896
330
747D
100
AcDbEntity
  8
部品1
100
AcDbLine
 10
6610.392427951044
 20
9575.997420965451
 30
0.0
 11
6610.39242795104
 21
10237.49742096548
 31
0.0
  0
LINE
  5
19897
330
747D
100
AcDbEntity
  8
部品1
 48
10.0
100
AcDbLine
 10
6585.392427951036
 20
9575.997420965451
 30
0.0
 11
6585.392427951032
 21
10237.49742096548
 31
0.0
  0
LINE
  5
19898
330
747D
100
AcDbEntity
  8
部品1
 48
50.0
100
AcDbLine
 10
6637.392427951218
 20
10237.49742096563
 30
0.0
 11
6637.392427951218
 21
10264.49742096565
 31
0.0
  0
LINE
  5
19899
330
747D
100
AcDbEntity
  8
部品1
 48
50.0
100
AcDbLine
 10
6693.392427951218
 20
10237.49742096569
 30
0.0
 11
6637.392427951216
 21
10237.49742096568
 31
0.0
  0
LINE
  5
1989A
330
747D
100
AcDbEntity
  8
部品1
 48
50.0
100
AcDbLine
 10
6640.392427951015
 20
10237.49741738844
 30
0.0
 11
6640.392427951015
 21
9576.997417388438
 31
0.0
  0
LINE
  5
1989B
330
747D
100
AcDbEntity
  8
部品1
 48
50.0
100
AcDbLine
 10
6720.39242795104
 20
10237.49742096556
 30
0.0
 11
6693.392427951033
 21
10264.49742096557
 31
0.0
  0
LINE
  5
1989C
330
747D
100
AcDbEntity
  8
部品1
100
AcDbLine
 10
6690.392427951015
 20
9854.173400825294
 30
0.0
 11
6640.392427951013
 21
9848.997417388439
 31
0.0
  0
LINE
  5
1989D
330
747D
100
AcDbEntity
  8
部品1
100
AcDbLine
 10
6690.392427951015
 20
9813.821433951586
 30
0.0
 11
6640.392427951013
 21
9818.997417388438
 31
0.0
  0
LINE
  5
1989E
330
747D
100
AcDbEntity
  8
部品1
100
AcDbLine
 10
6640.392427951015
 20
9658.997417388439
 30
0.0
 11
6690.392427951014
 21
9671.709281795216
 31
0.0
  0
LINE
  5
1989F
330
747D
100
AcDbEntity
  8
部品1
 48
50.0
100
AcDbLine
 10
6640.392427951015
 20
9576.997417388438
 30
0.0
 11
6690.392427951015
 21
9576.997417388438
 31
0.0
  0
LINE
  5
198A0
330
747D
100
AcDbEntity
  8
部品1
 48
50.0
100
AcDbLine
 10
6585.392427951036
 20
9575.997420965451
 30
0.0
 11
6745.392427951026
 21
9575.99742096546
 31
0.0
  0
LINE
  5
198A1
330
747D
100
AcDbEntity
  8
部品1
 48
50.0
100
AcDbLine
 10
6690.392427951015
 20
9576.997417388438
 30
0.0
 11
6690.392427951015
 21
10237.49741738844
 31
0.0
  0
LINE
  5
198A2
330
747D
100
AcDbEntity
  8
部品1
100
AcDbLine
 10
6693.392427951025
 20
9575.997420965451
 30
0.0
 11
6693.392427951033
 21
10292.49742096552
 31
0.0
  0
LINE
  5
198A3
330
747D
100
AcDbEntity
  8
部品1
100
AcDbLine
 10
6720.392427951047
 20
9575.997420965451
 30
0.0
 11
6720.39242795104
 21
10237.49742096547
 31
0.0
  0
LINE
  5
198A4
330
747D
100
AcDbEntity
  8
部品1
 48
10.0
100
AcDbLine
 10
6745.392427951026
 20
9575.99742096546
 30
0.0
 11
6745.392427951014
 21
10237.49742096549
 31
0.0
  0
TEXT
  5
198B0
330
747D
100
AcDbEntity
  8
文字
 62
     7
 48
50.0
100
AcDbText
 10
13248.77747366448
 20
8720.013745883733
 30
0.0
 40
100.0
  1
14
  7
STYLE1
100
AcDbText
  0
TEXT
  5
198B1
330
747D
100
AcDbEntity
  8
文字
 62
     7
 48
50.0
100
AcDbText
 10
13583.11819016569
 20
9230.013745883731
 30
0.0
 40
100.0
  1
梁中補強パネル
  7
STYLE1
100
AcDbText
  0
TEXT
  5
198B2
330
747D
100
AcDbEntity
  8
文字
 62
     7
 48
50.0
100
AcDbText
 10
15022.63965474516
 20
9230.013745883727
 30
0.0
 40
100.0
  1
F12         0.7+1.2
  7
STYLE1
100
AcDbText
  0
TEXT
  5
198CD
330
747D
100
AcDbEntity
  8
文字
 62
     7
 48
50.0
100
AcDbText
 10
14646.46056207479
 20
871.9640646083623
 30
0.0
 40
100.0
  1
～多雪地型～
  7
STYLE2
100
AcDbText
  0
LINE
  5
198F9
330
747D
100
AcDbEntity
  8
破線
 48
5.0
100
AcDbLine
 10
3985.392427950946
 20
1915.723761099416
 30
0.0
 11
4085.392427950945
 21
1915.723761099416
 31
0.0
  0
LINE
  5
198FA
330
747D
100
AcDbEntity
  8
破線
 48
5.0
100
AcDbLine
 10
4035.392427950945
 20
1990.723761099416
 30
0.0
 11
4035.392427950945
 21
1915.723761099416
 31
0.0
  0
LINE
  5
198FB
330
747D
100
AcDbEntity
  8
破線
 48
5.0
100
AcDbLine
 10
3932.392427950945
 20
2265.723761099416
 30
0.0
 11
3932.392427950946
 21
2015.723761099417
 31
0.0
  0
LINE
  5
198FC
330
747D
100
AcDbEntity
  8
破線
 48
5.0
100
AcDbLine
 10
3980.392427950948
 20
2015.723761099416
 30
0.0
 11
3932.392427950946
 21
2015.723761099416
 31
0.0
  0
LINE
  5
198FD
330
747D
100
AcDbEntity
  8
破線
 48
5.0
100
AcDbLine
 10
3980.392427950945
 20
2265.723761099416
 30
0.0
 11
3980.392427950948
 21
1990.723761099416
 31
0.0
  0
LINE
  5
198FE
330
747D
100
AcDbEntity
  8
破線
 48
5.0
100
AcDbLine
 10
4090.392427950944
 20
1990.723761099416
 30
0.0
 11
3980.392427950947
 21
1990.723761099416
 31
0.0
  0
LINE
  5
198FF
330
747D
100
AcDbEntity
  8
破線
 48
5.0
100
AcDbLine
 10
4138.392427950946
 20
2265.723761099416
 30
0.0
 11
4138.392427950943
 21
2015.723761099422
 31
0.0
  0
LINE
  5
19900
330
747D
100
AcDbEntity
  8
破線
 48
5.0
100
AcDbLine
 10
4138.392427950945
 20
2015.723761099422
 30
0.0
 11
4090.392427950944
 21
2015.723761099422
 31
0.0
  0
LINE
  5
19901
330
747D
100
AcDbEntity
  8
破線
 48
5.0
100
AcDbLine
 10
4090.392427950947
 20
2265.723761099416
 30
0.0
 11
4090.392427950945
 21
1990.723761099416
 31
0.0
  0
LINE
  5
1990F
330
747D
100
AcDbEntity
  8
破線
 48
5.0
100
AcDbLine
 10
6615.392427950945
 20
1915.723761099416
 30
0.0
 11
6715.392427950945
 21
1915.723761099416
 31
0.0
  0
LINE
  5
19910
330
747D
100
AcDbEntity
  8
破線
 48
5.0
100
AcDbLine
 10
6665.392427950945
 20
1990.723761099416
 30
0.0
 11
6665.392427950945
 21
1915.723761099416
 31
0.0
  0
LINE
  5
19911
330
747D
100
AcDbEntity
  8
破線
 48
5.0
100
AcDbLine
 10
6562.392427950945
 20
2265.723761099416
 30
0.0
 11
6562.392427950946
 21
2015.723761099417
 31
0.0
  0
LINE
  5
19912
330
747D
100
AcDbEntity
  8
破線
 48
5.0
100
AcDbLine
 10
6610.392427950948
 20
2015.723761099416
 30
0.0
 11
6562.392427950946
 21
2015.723761099416
 31
0.0
  0
LINE
  5
19913
330
747D
100
AcDbEntity
  8
破線
 48
5.0
100
AcDbLine
 10
6610.392427950944
 20
2265.723761099416
 30
0.0
 11
6610.392427950947
 21
1990.723761099416
 31
0.0
  0
LINE
  5
19914
330
747D
100
AcDbEntity
  8
破線
 48
5.0
100
AcDbLine
 10
6720.392427950945
 20
1990.723761099416
 30
0.0
 11
6610.392427950947
 21
1990.723761099416
 31
0.0
  0
LINE
  5
19915
330
747D
100
AcDbEntity
  8
破線
 48
5.0
100
AcDbLine
 10
6768.392427950947
 20
2265.723761099416
 30
0.0
 11
6768.392427950944
 21
2015.723761099422
 31
0.0
  0
LINE
  5
19916
330
747D
100
AcDbEntity
  8
破線
 48
5.0
100
AcDbLine
 10
6768.392427950946
 20
2015.723761099422
 30
0.0
 11
6720.392427950945
 21
2015.723761099422
 31
0.0
  0
LINE
  5
19917
330
747D
100
AcDbEntity
  8
破線
 48
5.0
100
AcDbLine
 10
6720.392427950947
 20
2265.723761099416
 30
0.0
 11
6720.392427950945
 21
1990.723761099416
 31
0.0
  0
LINE
  5
1992E
330
747D
100
AcDbEntity
  8
破線
 48
5.0
100
AcDbLine
 10
1508.392427950944
 20
2265.723761099416
 30
0.0
 11
1508.392427950944
 21
2015.723761099422
 31
0.0
  0
LINE
  5
1992F
330
747D
100
AcDbEntity
  8
破線
 48
5.0
100
AcDbLine
 10
1508.392427950944
 20
2265.723761099416
 30
0.0
 11
1508.392427950944
 21
2015.723761099422
 31
0.0
  0
LINE
  5
19930
330
747D
100
AcDbEntity
  8
破線
 48
5.0
100
AcDbLine
 10
1508.392427950944
 20
2015.723761099422
 30
0.0
 11
1460.392427950945
 21
2015.723761099422
 31
0.0
  0
LINE
  5
19931
330
747D
100
AcDbEntity
  8
破線
 48
5.0
100
AcDbLine
 10
1508.392427950944
 20
2015.723761099422
 30
0.0
 11
1460.392427950945
 21
2015.723761099422
 31
0.0
  0
LINE
  5
19932
330
747D
100
AcDbEntity
  8
破線
 48
5.0
100
AcDbLine
 10
1460.392427950945
 20
1915.723761099423
 30
0.0
 11
1405.392427950945
 21
1915.723761099423
 31
0.0
  0
LINE
  5
19933
330
747D
100
AcDbEntity
  8
破線
 48
5.0
100
AcDbLine
 10
1405.392427950945
 20
2165.723761099416
 30
0.0
 11
1405.392427950945
 21
1915.723761099416
 31
0.0
  0
LINE
  5
19934
330
747D
100
AcDbEntity
  8
破線
 48
5.0
100
AcDbLine
 10
1460.392427950945
 20
2265.723761099416
 30
0.0
 11
1460.392427950945
 21
1915.723761099416
 31
0.0
  0
LINE
  5
19935
330
747D
100
AcDbEntity
  8
破線
 48
5.0
100
AcDbLine
 10
1460.392427950945
 20
2265.723761099416
 30
0.0
 11
1460.392427950945
 21
1915.723761099416
 31
0.0
  0
LINE
  5
19949
330
747D
100
AcDbEntity
  8
破線
 48
5.0
100
AcDbLine
 10
9240.392427950942
 20
2265.723761099416
 30
0.0
 11
9240.392427950942
 21
1915.723761099416
 31
0.0
  0
LINE
  5
1994A
330
747D
100
AcDbEntity
  8
破線
 48
5.0
100
AcDbLine
 10
9295.392427950941
 20
2165.723761099416
 30
0.0
 11
9295.392427950941
 21
1915.723761099416
 31
0.0
  0
LINE
  5
1994B
330
747D
100
AcDbEntity
  8
破線
 48
5.0
100
AcDbLine
 10
9295.392427950941
 20
1915.723761099416
 30
0.0
 11
9240.392427950942
 21
1915.723761099416
 31
0.0
  0
LINE
  5
1994C
330
747D
100
AcDbEntity
  8
破線
 48
5.0
100
AcDbLine
 10
9192.39242795094
 20
2265.723761099416
 30
0.0
 11
9192.39242795094
 21
2015.723761099416
 31
0.0
  0
LINE
  5
1994D
330
747D
100
AcDbEntity
  8
破線
 48
5.0
100
AcDbLine
 10
9240.392427950945
 20
2015.723761099416
 30
0.0
 11
9192.39242795094
 21
2015.723761099416
 31
0.0
  0
LINE
  5
19958
330
747D
100
AcDbEntity
  8
部品1
100
AcDbLine
 10
5350.392427950968
 20
10292.49742454598
 30
0.0
 11
5350.392427950968
 21
10264.49742454598
 31
0.0
  0
LINE
  5
19959
330
747D
100
AcDbEntity
  8
部品1
100
AcDbLine
 10
5337.892427950968
 20
10256.49742454596
 30
0.0
 11
5362.892427950967
 21
10256.49742454597
 31
0.0
  0
LINE
  5
1995A
330
747D
100
AcDbEntity
  8
部品1
100
AcDbLine
 10
5379.392427950968
 20
10282.49742454597
 30
0.0
 11
5385.392427950968
 21
10282.49742454597
 31
0.0
  0
LINE
  5
1995B
330
747D
100
AcDbEntity
  8
部品1
100
AcDbLine
 10
5385.392427950968
 20
10282.49742454597
 30
0.0
 11
5385.392427950968
 21
10264.49742454597
 31
0.0
  0
LINE
  5
1995C
330
747D
100
AcDbEntity
  8
部品1
100
AcDbLine
 10
5315.392427950968
 20
10282.49742454597
 30
0.0
 11
5321.392427950968
 21
10282.49742454597
 31
0.0
  0
LINE
  5
1995D
330
747D
100
AcDbEntity
  8
部品1
100
AcDbLine
 10
5315.392427950968
 20
10282.49742454597
 30
0.0
 11
5315.392427950968
 21
10264.49742454597
 31
0.0
  0
LINE
  5
1995E
330
747D
100
AcDbEntity
  8
部品1
 48
50.0
100
AcDbLine
 10
5337.892427950965
 20
10264.49742454598
 30
0.0
 11
5337.892427950967
 21
10256.49742454596
 31
0.0
  0
LINE
  5
1995F
330
747D
100
AcDbEntity
  8
部品1
 48
50.0
100
AcDbLine
 10
5362.892427950967
 20
10264.49742454598
 30
0.0
 11
5362.892427950967
 21
10256.49742454597
 31
0.0
  0
LINE
  5
19960
330
747D
100
AcDbEntity
  8
部品1
 48
50.0
100
AcDbLine
 10
4102.39242795096
 20
7287.997424545864
 30
0.0
 11
6598.392427950945
 21
7287.997424545864
 31
0.0
  0
ARC
  5
19961
330
747D
100
AcDbEntity
  8
細線
 48
50.0
100
AcDbCircle
 10
5050.392427950945
 20
2828.223761099416
 30
0.0
 40
15.0
100
AcDbArc
 50
90.0
 51
270.0
  0
ARC
  5
19962
330
747D
100
AcDbEntity
  8
細線
 48
50.0
100
AcDbCircle
 10
5150.392427950944
 20
2828.223761099416
 30
0.0
 40
15.0
100
AcDbArc
 50
270.0
 51
90.0
  0
LINE
  5
19963
330
747D
100
AcDbEntity
  8
細線
 48
50.0
100
AcDbLine
 10
5050.392427950945
 20
2843.223761099416
 30
0.0
 11
5150.392427950944
 21
2843.223761099416
 31
0.0
  0
LINE
  5
19964
330
747D
100
AcDbEntity
  8
細線
 48
50.0
100
AcDbLine
 10
5150.392427950944
 20
2813.223761099417
 30
0.0
 11
5050.392427950945
 21
2813.223761099417
 31
0.0
  0
LINE
  5
19965
330
747D
100
AcDbEntity
  8
細線
 48
50.0
100
AcDbLine
 10
5650.392427950944
 20
2813.223761099417
 30
0.0
 11
5550.392427950945
 21
2813.223761099417
 31
0.0
  0
LINE
  5
19966
330
747D
100
AcDbEntity
  8
細線
 48
50.0
100
AcDbLine
 10
5550.392427950945
 20
2843.223761099416
 30
0.0
 11
5650.392427950944
 21
2843.223761099416
 31
0.0
  0
ARC
  5
19967
330
747D
100
AcDbEntity
  8
細線
 48
50.0
100
AcDbCircle
 10
5550.392427950945
 20
2828.223761099416
 30
0.0
 40
15.0
100
AcDbArc
 50
90.0
 51
270.0
  0
ARC
  5
19968
330
747D
100
AcDbEntity
  8
細線
 48
50.0
100
AcDbCircle
 10
5650.392427950944
 20
2828.223761099416
 30
0.0
 40
15.0
100
AcDbArc
 50
270.0
 51
90.0
  0
CIRCLE
  5
19969
330
747D
100
AcDbEntity
  8
細線
 48
50.0
100
AcDbCircle
 10
5350.392427950945
 20
3153.223761099416
 30
0.0
 40
18.0
  0
LINE
  5
1996A
330
747D
100
AcDbEntity
  8
細線
100
AcDbLine
 10
4138.392427950945
 20
2795.723761099417
 30
0.0
 11
6562.392427950945
 21
2795.723761099417
 31
0.0
  0
LINE
  5
1996B
330
747D
100
AcDbEntity
  8
細線
100
AcDbLine
 10
4138.392427950945
 20
2730.723761099416
 30
0.0
 11
6562.392427950945
 21
2730.723761099416
 31
0.0
  0
LINE
  5
1996C
330
747D
100
AcDbEntity
  8
細線
100
AcDbLine
 10
4138.392427950945
 20
2665.723761099416
 30
0.0
 11
6562.392427950945
 21
2665.723761099416
 31
0.0
  0
LINE
  5
1996D
330
747D
100
AcDbEntity
  8
細線
100
AcDbLine
 10
4138.392427950945
 20
2600.723761099417
 30
0.0
 11
6562.392427950945
 21
2600.723761099417
 31
0.0
  0
LINE
  5
1996E
330
747D
100
AcDbEntity
  8
細線
100
AcDbLine
 10
4138.392427950945
 20
2535.723761099416
 30
0.0
 11
6562.392427950945
 21
2535.723761099416
 31
0.0
  0
LINE
  5
1996F
330
747D
100
AcDbEntity
  8
細線
100
AcDbLine
 10
4138.392427950945
 20
4095.723761099416
 30
0.0
 11
6562.392427950945
 21
4095.723761099416
 31
0.0
  0
LINE
  5
19970
330
747D
100
AcDbEntity
  8
細線
100
AcDbLine
 10
4138.392427950945
 20
4225.723761099415
 30
0.0
 11
6562.392427950945
 21
4225.723761099415
 31
0.0
  0
LINE
  5
19971
330
747D
100
AcDbEntity
  8
細線
100
AcDbLine
 10
4138.392427950945
 20
4160.723761099416
 30
0.0
 11
6562.392427950945
 21
4160.723761099416
 31
0.0
  0
LINE
  5
19972
330
747D
100
AcDbEntity
  8
細線
100
AcDbLine
 10
4138.392427950945
 20
3445.723761099416
 30
0.0
 11
6562.392427950945
 21
3445.723761099416
 31
0.0
  0
LINE
  5
19973
330
747D
100
AcDbEntity
  8
細線
100
AcDbLine
 10
4138.392427950945
 20
3380.723761099416
 30
0.0
 11
6562.392427950945
 21
3380.723761099416
 31
0.0
  0
LINE
  5
19974
330
747D
100
AcDbEntity
  8
細線
100
AcDbLine
 10
4138.392427950945
 20
3315.723761099416
 30
0.0
 11
6562.392427950945
 21
3315.723761099416
 31
0.0
  0
LINE
  5
19975
330
747D
100
AcDbEntity
  8
細線
100
AcDbLine
 10
4138.392427950945
 20
3250.723761099416
 30
0.0
 11
6562.392427950945
 21
3250.723761099416
 31
0.0
  0
LINE
  5
19976
330
747D
100
AcDbEntity
  8
細線
100
AcDbLine
 10
4138.392427950945
 20
3185.723761099416
 30
0.0
 11
6562.392427950945
 21
3185.723761099416
 31
0.0
  0
LINE
  5
19977
330
747D
100
AcDbEntity
  8
細線
100
AcDbLine
 10
4138.392427950945
 20
3120.723761099416
 30
0.0
 11
6562.392427950945
 21
3120.723761099416
 31
0.0
  0
LINE
  5
19978
330
747D
100
AcDbEntity
  8
細線
100
AcDbLine
 10
4138.392427950945
 20
3055.723761099416
 30
0.0
 11
6562.392427950945
 21
3055.723761099416
 31
0.0
  0
LINE
  5
19979
330
747D
100
AcDbEntity
  8
細線
100
AcDbLine
 10
4138.392427950945
 20
2990.723761099416
 30
0.0
 11
6562.392427950945
 21
2990.723761099416
 31
0.0
  0
LINE
  5
1997A
330
747D
100
AcDbEntity
  8
細線
100
AcDbLine
 10
4138.392427950945
 20
2925.723761099416
 30
0.0
 11
6562.392427950945
 21
2925.723761099416
 31
0.0
  0
LINE
  5
1997B
330
747D
100
AcDbEntity
  8
細線
100
AcDbLine
 10
4138.392427950945
 20
2860.723761099416
 30
0.0
 11
6562.392427950945
 21
2860.723761099416
 31
0.0
  0
LINE
  5
1997C
330
747D
100
AcDbEntity
  8
細線
100
AcDbLine
 10
4138.392427950945
 20
3835.723761099416
 30
0.0
 11
6562.392427950945
 21
3835.723761099416
 31
0.0
  0
LINE
  5
1997D
330
747D
100
AcDbEntity
  8
細線
100
AcDbLine
 10
4138.392427950945
 20
3770.723761099417
 30
0.0
 11
6562.392427950945
 21
3770.723761099417
 31
0.0
  0
LINE
  5
1997E
330
747D
100
AcDbEntity
  8
細線
100
AcDbLine
 10
4138.392427950945
 20
3705.723761099417
 30
0.0
 11
6562.392427950945
 21
3705.723761099417
 31
0.0
  0
LINE
  5
1997F
330
747D
100
AcDbEntity
  8
細線
100
AcDbLine
 10
4138.392427950945
 20
3640.723761099417
 30
0.0
 11
6562.392427950945
 21
3640.723761099417
 31
0.0
  0
LINE
  5
19980
330
747D
100
AcDbEntity
  8
細線
100
AcDbLine
 10
4138.392427950945
 20
3575.723761099416
 30
0.0
 11
6562.392427950945
 21
3575.723761099416
 31
0.0
  0
LINE
  5
19981
330
747D
100
AcDbEntity
  8
細線
100
AcDbLine
 10
4138.392427950945
 20
3510.723761099416
 30
0.0
 11
6562.392427950945
 21
3510.723761099416
 31
0.0
  0
LINE
  5
19982
330
747D
100
AcDbEntity
  8
細線
100
AcDbLine
 10
4138.392427950945
 20
4030.723761099416
 30
0.0
 11
6562.392427950945
 21
4030.723761099416
 31
0.0
  0
LINE
  5
19983
330
747D
100
AcDbEntity
  8
細線
100
AcDbLine
 10
4138.392427950945
 20
3965.723761099417
 30
0.0
 11
6562.392427950945
 21
3965.723761099417
 31
0.0
  0
LINE
  5
19984
330
747D
100
AcDbEntity
  8
細線
100
AcDbLine
 10
4138.392427950945
 20
3900.723761099416
 30
0.0
 11
6562.392427950945
 21
3900.723761099416
 31
0.0
  0
LINE
  5
19985
330
747D
100
AcDbEntity
  8
部品1
100
AcDbLine
 10
4090.392427950944
 20
4240.723761099416
 30
0.0
 11
6720.39242795094
 21
4240.723761099416
 31
0.0
  0
LINE
  5
19986
330
747D
100
AcDbEntity
  8
細線
100
AcDbLine
 10
6562.392427950945
 20
2275.723761099416
 30
0.0
 11
4138.392427950945
 21
2275.723761099416
 31
0.0
  0
LINE
  5
19987
330
747D
100
AcDbEntity
  8
細線
100
AcDbLine
 10
4138.392427950945
 20
2470.723761099416
 30
0.0
 11
6562.392427950945
 21
2470.723761099416
 31
0.0
  0
LINE
  5
19988
330
747D
100
AcDbEntity
  8
細線
100
AcDbLine
 10
4138.392427950945
 20
2405.723761099416
 30
0.0
 11
6562.392427950945
 21
2405.723761099416
 31
0.0
  0
LINE
  5
19989
330
747D
100
AcDbEntity
  8
細線
100
AcDbLine
 10
4138.392427950945
 20
2340.723761099416
 30
0.0
 11
6562.392427950945
 21
2340.723761099416
 31
0.0
  0
LINE
  5
1998A
330
747D
100
AcDbEntity
  8
細線
100
AcDbLine
 10
4138.392427950945
 20
2275.723761099416
 30
0.0
 11
6562.392427950945
 21
2275.723761099416
 31
0.0
  0
TEXT
  5
19BCB
330
747D
100
AcDbEntity
  8
文字
 62
     7
 48
50.0
100
AcDbText
 10
15022.63965474516
 20
8890.013745883726
 30
0.0
 40
100.0
  1
F12            0.7
  7
STYLE1
100
AcDbText
  0
LINE
  5
19BDF
330
747D
100
AcDbEntity
  8
部品1
 48
50.0
100
AcDbLine
 10
5396.925167506519
 20
10424.65997278267
 30
0.0
 11
5303.859688395418
 21
10077.3348763093
 31
0.0
  0
SPLINE
  5
19BE0
330
747D
100
AcDbEntity
  8
部品1
 48
50.0
100
AcDbSpline
210
0.0
220
0.0
230
1.0
 70
     8
 71
     3
 72
    10
 73
     6
 74
     4
 42
0.0000000001
 43
0.0000000001
 44
0.0000000001
 40
0.0
 40
0.0
 40
0.0
 40
0.0
 40
147.8767566010009
 40
301.8091093202477
 40
466.5049223087716
 40
466.5049223087716
 40
466.5049223087716
 40
466.5049223087716
 10
5417.962755684019
 20
10332.23857707178
 30
0.0
 10
5341.081073189183
 20
10323.33414341394
 30
0.0
 10
5184.169380979056
 20
10305.16063695461
 30
0.0
 10
5506.982790923399
 20
10202.64005231527
 30
0.0
 10
5337.140171254026
 20
10184.00496360306
 30
0.0
 10
5249.350166047134
 20
10174.37266672575
 30
0.0
 11
5417.962755684019
 21
10332.23857707178
 31
0.0
 11
5275.12477737525
 21
10293.96525613545
 31
0.0
 11
5408.434105294424
 21
10216.99907977583
 31
0.0
 11
5249.350166047134
 21
10174.37266672575
 31
0.0
  0
LINE
  5
19BE7
330
747D
100
AcDbEntity
  8
部品1
 48
50.0
100
AcDbLine
 10
5396.925167506504
 20
7461.659972782547
 30
0.0
 11
5303.859688395403
 21
7114.334876309182
 31
0.0
  0
SPLINE
  5
19BE8
330
747D
100
AcDbEntity
  8
部品1
 48
50.0
100
AcDbSpline
210
0.0
220
0.0
230
1.0
 70
     8
 71
     3
 72
    10
 73
     6
 74
     4
 42
0.0000000001
 43
0.0000000001
 44
0.0000000001
 40
0.0
 40
0.0
 40
0.0
 40
0.0
 40
147.8767566010009
 40
301.8091093202477
 40
466.5049223087716
 40
466.5049223087716
 40
466.5049223087716
 40
466.5049223087716
 10
5417.962755684003
 20
7369.238577071657
 30
0.0
 10
5341.081073189168
 20
7360.334143413819
 30
0.0
 10
5184.169380979041
 20
7342.160636954488
 30
0.0
 10
5506.982790923384
 20
7239.640052315145
 30
0.0
 10
5337.140171254011
 20
7221.00496360294
 30
0.0
 10
5249.350166047118
 20
7211.372666725633
 30
0.0
 11
5417.962755684003
 21
7369.238577071657
 31
0.0
 11
5275.124777375234
 21
7330.965256135328
 31
0.0
 11
5408.434105294408
 21
7253.999079775706
 31
0.0
 11
5249.350166047118
 21
7211.372666725633
 31
0.0
  0
LINE
  5
19BF9
330
747D
100
AcDbEntity
  8
部品1
 48
50.0
100
AcDbLine
 10
5802.556690178465
 20
4840.72376109942
 30
0.0
 11
4978.612923452764
 21
1765.723761099416
 31
0.0
  0
SPLINE
  5
19BFA
330
747D
100
AcDbEntity
  8
部品1
 48
50.0
100
AcDbSpline
210
0.0
220
0.0
230
1.0
 70
     8
 71
     3
 72
    10
 73
     6
 74
     4
 42
0.0000000001
 43
0.0000000001
 44
0.0000000001
 40
0.0
 40
0.0
 40
0.0
 40
0.0
 40
147.8767566010009
 40
301.8091093202477
 40
466.5049223087734
 40
466.5049223087734
 40
466.5049223087734
 40
466.5049223087734
 10
5417.962755683997
 20
3234.46491362521
 30
0.0
 10
5341.081073189162
 20
3225.560479967372
 30
0.0
 10
5184.169380979034
 20
3207.38697350804
 30
0.0
 10
5506.982790923379
 20
3104.866388868697
 30
0.0
 10
5337.140171254005
 20
3086.231300156494
 30
0.0
 10
5249.35016604711
 20
3076.599003279185
 30
0.0
 11
5417.962755683997
 21
3234.46491362521
 31
0.0
 11
5275.124777375228
 21
3196.191592688881
 31
0.0
 11
5408.434105294402
 21
3119.225416329258
 31
0.0
 11
5249.35016604711
 21
3076.599003279185
 31
0.0
  0
TEXT
  5
19C67
330
747D
100
AcDbEntity
  8
文字
 62
     7
 48
50.0
100
AcDbText
 10
14302.57975890745
 20
483.8967129911416
 30
0.0
 40
160.0
  1
FXN-80HDL-N
  7
STYLE2
100
AcDbText
  0
ENDSEC
  0
SECTION
  2
OBJECTS
  0
DICTIONARY
  5
7471
330
0
100
AcDbDictionary
281
     1
  3
ACAD_COLOR
350
17547
  3
ACAD_GROUP
350
7472
  3
ACAD_LAYOUT
350
17548
  3
ACAD_MATERIAL
350
17546
  3
ACAD_MLINESTYLE
350
7473
  3
ACAD_PLOTSETTINGS
350
17549
  3
ACAD_PLOTSTYLENAME
350
17544
  3
ACDBHEADERROUNDTRIPXREC
350
19C76
  3
AcDbVariableDictionary
350
19C72
  3
CONTENTDICTIONARY
350
E71C
  3
DRAWINGVARIABLESDICT
350
F3B9
  0
DICTIONARY
  5
178B7
330
7467
100
AcDbDictionary
280
     1
281
     1
  3
ACAD_LAYERSTATES
360
178B8
  0
DICTIONARY
  5
17547
102
{ACAD_REACTORS
330
7471
102
}
330
7471
100
AcDbDictionary
281
     1
  0
DICTIONARY
  5
7472
102
{ACAD_REACTORS
330
7471
102
}
330
7471
100
AcDbDictionary
281
     1
  0
DICTIONARY
  5
17548
102
{ACAD_REACTORS
330
7471
102
}
330
7471
100
AcDbDictionary
281
     1
  3
Model
350
1754A
  3
レイアウト1
350
1754B
  0
DICTIONARY
  5
17546
102
{ACAD_REACTORS
330
7471
102
}
330
7471
100
AcDbDictionary
281
     1
  0
DICTIONARY
  5
7473
102
{ACAD_REACTORS
330
7471
102
}
330
7471
100
AcDbDictionary
281
     1
  3
STANDARD
350
7480
  0
DICTIONARY
  5
17549
102
{ACAD_REACTORS
330
7471
102
}
330
7471
100
AcDbDictionary
281
     1
  0
ACDBDICTIONARYWDFLT
  5
17544
102
{ACAD_REACTORS
330
7471
102
}
330
7471
100
AcDbDictionary
281
     1
  3
Normal
350
17545
100
AcDbDictionaryWithDefault
340
17545
  0
DICTIONARY
  5
19C76
102
{ACAD_REACTORS
330
7471
102
}
330
7471
100
AcDbDictionary
281
     1
  3
COLORDICT
350
19C78
  3
MATERIALDICT
350
19C77
  0
DICTIONARY
  5
19C72
102
{ACAD_REACTORS
330
7471
102
}
330
7471
100
AcDbDictionary
281
     1
  3
DIMASSOC
350
19C73
  3
PROJECTNAME
350
19C74
  0
DICTIONARY
  5
E71C
102
{ACAD_REACTORS
330
7471
102
}
330
7471
100
AcDbDictionary
281
     1
  0
DICTIONARY
  5
F3B9
102
{ACAD_REACTORS
330
7471
102
}
330
7471
100
AcDbDictionary
281
     1
1001
DRAWINGVARIABLESXDATA
1000
POLARMODE
1000
1
  0
DICTIONARY
  5
178B8
102
{ACAD_REACTORS
330
178B7
102
}
330
178B7
100
AcDbDictionary
281
     1
  0
LAYOUT
  5
1754A
102
{ACAD_XDICTIONARY
360
19C79
102
}
102
{ACAD_REACTORS
330
17548
102
}
330
17548
100
AcDbPlotSettings
  1

  2
クセロPDF
  4
A3
  6

 40
3.174999999999999
 41
3.174999999999999
 42
3.174987999999999
 43
3.174987999999999
 44
419.946655
 45
296.925995
 46
0.0
 47
0.0
 48
0.0
 49
0.0
140
0.0
141
0.0
142
1.0
143
40.44561299368567
 70
 11952
 72
     1
 73
     0
 74
     2
  7
inaba.ctb
 75
     0
147
0.0247245603659442
148
183.0179068595971
149
160.3342785227505
100
AcDbLayout
  1
Model
 70
     1
 71
     0
 10
0.0
 20
0.0
 11
12.0
 21
9.0
 12
0.0
 22
0.0
 32
0.0
 14
0.0
 24
0.0
 34
0.0
 15
0.0
 25
0.0
 35
0.0
146
0.0
 13
0.0
 23
0.0
 33
0.0
 16
1.0
 26
0.0
 36
0.0
 17
0.0
 27
1.0
 37
0.0
 76
     0
330
747D
  0
LAYOUT
  5
1754B
102
{ACAD_XDICTIONARY
360
19C7B
102
}
102
{ACAD_REACTORS
330
17548
102
}
330
17548
100
AcDbPlotSettings
  1

  2
EPSON LP-8300
  4

  6

 40
0.0
 41
0.0
 42
0.0
 43
0.0
 44
0.0
 45
0.0
 46
0.0
 47
0.0
 48
0.0
 49
0.0
140
0.0
141
0.0
142
1.0
143
1.0
 70
   688
 72
     0
 73
     0
 74
     5
  7
inaba.ctb
 75
    16
147
1.0
148
0.0
149
0.0
100
AcDbLayout
  1
レイアウト1
 70
     0
 71
     1
 10
0.0
 20
0.0
 11
420.0
 21
297.0
 12
0.0
 22
0.0
 32
0.0
 14
1.000000000000000E+20
 24
1.000000000000000E+20
 34
1.000000000000000E+20
 15
-1.000000000000000E+20
 25
-1.000000000000000E+20
 35
-1.000000000000000E+20
146
0.0
 13
0.0
 23
0.0
 33
0.0
 16
1.0
 26
0.0
 36
0.0
 17
0.0
 27
1.0
 37
0.0
 76
     0
330
747A
  0
MLINESTYLE
  5
7480
102
{ACAD_REACTORS
330
7473
102
}
330
7473
100
AcDbMlineStyle
  2
STANDARD
 70
     0
  3

 62
     0
 51
90.0
 52
90.0
 71
     2
 49
0.5
 62
   256
  6
BYLAYER
 49
-0.5
 62
   256
  6
BYLAYER
  0
ACDBPLACEHOLDER
  5
17545
102
{ACAD_REACTORS
330
17544
102
}
330
17544
  0
XRECORD
  5
19C78
102
{ACAD_REACTORS
330
19C76
102
}
330
19C76
100
AcDbXrecord
280
     1
340
17547
  0
XRECORD
  5
19C77
102
{ACAD_REACTORS
330
19C76
102
}
330
19C76
100
AcDbXrecord
280
     1
340
17546
  0
DICTIONARYVAR
  5
19C73
102
{ACAD_REACTORS
330
19C72
102
}
330
19C72
100
DictionaryVariables
280
     0
  1
1
  0
DICTIONARYVAR
  5
19C74
102
{ACAD_REACTORS
330
19C72
102
}
330
19C72
100
DictionaryVariables
280
     0
  1

  0
DICTIONARY
  5
19C79
330
1754A
100
AcDbDictionary
280
     1
281
     1
  3
ACAD_XREC_ROUNDTRIP
360
19C7A
  0
DICTIONARY
  5
19C7B
330
1754B
100
AcDbDictionary
280
     1
281
     1
  3
ACAD_XREC_ROUNDTRIP
360
19C7C
  0
XRECORD
  5
19C7A
102
{ACAD_REACTORS
330
19C79
102
}
330
19C79
100
AcDbXrecord
280
     1
102
SHADEPLOT
 70
     1
102
SHADEPLOTRESLEVEL
 70
     2
102
SHADEPLOTCUSTOMDPI
 70
   300
  0
XRECORD
  5
19C7C
102
{ACAD_REACTORS
330
19C7B
102
}
330
19C7B
100
AcDbXrecord
280
     1
102
SHADEPLOT
 70
     0
102
SHADEPLOTRESLEVEL
 70
     2
102
SHADEPLOTCUSTOMDPI
 70
   300
  0
ENDSEC
  0
EOF
