  0
SECTION
  2
HEADER
  9
$ACADVER
  1
AC1015
  9
$ACADMAINTVER
 70
    20
  9
$DWGCODEPAGE
  3
ANSI_932
  9
$INSBASE
 10
0.0
 20
0.0
 30
0.0
  9
$EXTMIN
 10
139.9999999999995
 20
-0.0000000000000909
 30
0.0
  9
$EXTMAX
 10
16307.2
 20
11409.6
 30
0.0
  9
$LIMMIN
 10
-183.0179068595971
 20
-160.3342785227505
  9
$LIMMAX
 10
16374.07536659319
 20
11592.19044584975
  9
$ORTHOMODE
 70
     0
  9
$REGENMODE
 70
     1
  9
$FILLMODE
 70
     1
  9
$QTEXTMODE
 70
     0
  9
$MIRRTEXT
 70
     1
  9
$LTSCALE
 40
20.0
  9
$ATTMODE
 70
     1
  9
$TEXTSIZE
 40
100.0
  9
$TRACEWID
 40
1.0
  9
$TEXTSTYLE
  7
STYLE2
  9
$CLAYER
  8
部品1
  9
$CELTYPE
  6
BYLAYER
  9
$CECOLOR
 62
   256
  9
$CELTSCALE
 40
50.0
  9
$DISPSILH
 70
     0
  9
$DIMSCALE
 40
40.0
  9
$DIMASZ
 40
2.5
  9
$DIMEXO
 40
0.5
  9
$DIMDLI
 40
7.0
  9
$DIMRND
 40
0.0
  9
$DIMDLE
 40
0.0
  9
$DIMEXE
 40
1.5
  9
$DIMTP
 40
0.0
  9
$DIMTM
 40
0.0
  9
$DIMTXT
 40
3.0
  9
$DIMCEN
 40
0.0
  9
$DIMTSZ
 40
0.0
  9
$DIMTOL
 70
     0
  9
$DIMLIM
 70
     0
  9
$DIMTIH
 70
     0
  9
$DIMTOH
 70
     0
  9
$DIMSE1
 70
     0
  9
$DIMSE2
 70
     0
  9
$DIMTAD
 70
     3
  9
$DIMZIN
 70
     8
  9
$DIMBLK
  1

  9
$DIMASO
 70
     1
  9
$DIMSHO
 70
     1
  9
$DIMPOST
  1

  9
$DIMAPOST
  1

  9
$DIMALT
 70
     0
  9
$DIMALTD
 70
     2
  9
$DIMALTF
 40
0.0394
  9
$DIMLFAC
 40
1.0
  9
$DIMTOFL
 70
     1
  9
$DIMTVP
 40
0.0
  9
$DIMTIX
 70
     1
  9
$DIMSOXD
 70
     0
  9
$DIMSAH
 70
     1
  9
$DIMBLK1
  1
DOTSMALL
  9
$DIMBLK2
  1
DOTSMALL
  9
$DIMSTYLE
  2
INABA_S40G
  9
$DIMCLRD
 70
     0
  9
$DIMCLRE
 70
     0
  9
$DIMCLRT
 70
     7
  9
$DIMTFAC
 40
1.0
  9
$DIMGAP
 40
1.0
  9
$DIMJUST
 70
     0
  9
$DIMSD1
 70
     0
  9
$DIMSD2
 70
     0
  9
$DIMTOLJ
 70
     1
  9
$DIMTZIN
 70
     0
  9
$DIMALTZ
 70
     0
  9
$DIMALTTZ
 70
     0
  9
$DIMUPT
 70
     0
  9
$DIMDEC
 70
     1
  9
$DIMTDEC
 70
     4
  9
$DIMALTU
 70
     2
  9
$DIMALTTD
 70
     2
  9
$DIMTXSTY
  7
STYLE1
  9
$DIMAUNIT
 70
     0
  9
$DIMADEC
 70
     0
  9
$DIMALTRND
 40
0.0
  9
$DIMAZIN
 70
     0
  9
$DIMDSEP
 70
    46
  9
$DIMATFIT
 70
     3
  9
$DIMFRAC
 70
     0
  9
$DIMLDRBLK
  1

  9
$DIMLUNIT
 70
     2
  9
$DIMLWD
 70
    -2
  9
$DIMLWE
 70
    -2
  9
$DIMTMOVE
 70
     2
  9
$LUNITS
 70
     2
  9
$LUPREC
 70
     1
  9
$SKETCHINC
 40
1.0
  9
$FILLETRAD
 40
3.0
  9
$AUNITS
 70
     0
  9
$AUPREC
 70
     0
  9
$MENU
  1
acad
  9
$ELEVATION
 40
0.0
  9
$PELEVATION
 40
0.0
  9
$THICKNESS
 40
0.0
  9
$LIMCHECK
 70
     0
  9
$CHAMFERA
 40
0.0
  9
$CHAMFERB
 40
0.0
  9
$CHAMFERC
 40
0.0
  9
$CHAMFERD
 40
0.0
  9
$SKPOLY
 70
     0
  9
$TDCREATE
 40
2451368.612993866
  9
$TDUCREATE
 40
2451368.237993866
  9
$TDUPDATE
 40
2455569.631700475
  9
$TDUUPDATE
 40
2455569.256700475
  9
$TDINDWG
 40
0.7587232060
  9
$TDUSRTIMER
 40
0.7587232060
  9
$USRTIMER
 70
     1
  9
$ANGBASE
 50
0.0
  9
$ANGDIR
 70
     0
  9
$PDMODE
 70
     3
  9
$PDSIZE
 40
2.0
  9
$PLINEWID
 40
0.0
  9
$SPLFRAME
 70
     0
  9
$SPLINETYPE
 70
     6
  9
$SPLINESEGS
 70
     8
  9
$HANDSEED
  5
190A3
  9
$SURFTAB1
 70
     6
  9
$SURFTAB2
 70
     6
  9
$SURFTYPE
 70
     6
  9
$SURFU
 70
     6
  9
$SURFV
 70
     6
  9
$UCSBASE
  2

  9
$UCSNAME
  2

  9
$UCSORG
 10
0.0
 20
0.0
 30
0.0
  9
$UCSXDIR
 10
1.0
 20
0.0
 30
0.0
  9
$UCSYDIR
 10
0.0
 20
1.0
 30
0.0
  9
$UCSORTHOREF
  2

  9
$UCSORTHOVIEW
 70
     0
  9
$UCSORGTOP
 10
0.0
 20
0.0
 30
0.0
  9
$UCSORGBOTTOM
 10
0.0
 20
0.0
 30
0.0
  9
$UCSORGLEFT
 10
0.0
 20
0.0
 30
0.0
  9
$UCSORGRIGHT
 10
0.0
 20
0.0
 30
0.0
  9
$UCSORGFRONT
 10
0.0
 20
0.0
 30
0.0
  9
$UCSORGBACK
 10
0.0
 20
0.0
 30
0.0
  9
$PUCSBASE
  2

  9
$PUCSNAME
  2

  9
$PUCSORG
 10
0.0
 20
0.0
 30
0.0
  9
$PUCSXDIR
 10
1.0
 20
0.0
 30
0.0
  9
$PUCSYDIR
 10
0.0
 20
1.0
 30
0.0
  9
$PUCSORTHOREF
  2

  9
$PUCSORTHOVIEW
 70
     0
  9
$PUCSORGTOP
 10
0.0
 20
0.0
 30
0.0
  9
$PUCSORGBOTTOM
 10
0.0
 20
0.0
 30
0.0
  9
$PUCSORGLEFT
 10
0.0
 20
0.0
 30
0.0
  9
$PUCSORGRIGHT
 10
0.0
 20
0.0
 30
0.0
  9
$PUCSORGFRONT
 10
0.0
 20
0.0
 30
0.0
  9
$PUCSORGBACK
 10
0.0
 20
0.0
 30
0.0
  9
$USERI1
 70
     0
  9
$USERI2
 70
     0
  9
$USERI3
 70
     0
  9
$USERI4
 70
     0
  9
$USERI5
 70
     0
  9
$USERR1
 40
0.0
  9
$USERR2
 40
0.0
  9
$USERR3
 40
0.0
  9
$USERR4
 40
0.0
  9
$USERR5
 40
0.0
  9
$WORLDVIEW
 70
     1
  9
$SHADEDGE
 70
     3
  9
$SHADEDIF
 70
    70
  9
$TILEMODE
 70
     1
  9
$MAXACTVP
 70
    16
  9
$PINSBASE
 10
0.0
 20
0.0
 30
0.0
  9
$PLIMCHECK
 70
     0
  9
$PEXTMIN
 10
1.000000000000000E+20
 20
1.000000000000000E+20
 30
1.000000000000000E+20
  9
$PEXTMAX
 10
-1.000000000000000E+20
 20
-1.000000000000000E+20
 30
-1.000000000000000E+20
  9
$PLIMMIN
 10
0.0
 20
0.0
  9
$PLIMMAX
 10
420.0
 20
297.0
  9
$UNITMODE
 70
     0
  9
$VISRETAIN
 70
     0
  9
$PLINEGEN
 70
     0
  9
$PSLTSCALE
 70
     0
  9
$TREEDEPTH
 70
  3020
  9
$CMLSTYLE
  2
STANDARD
  9
$CMLJUST
 70
     0
  9
$CMLSCALE
 40
1.0
  9
$PROXYGRAPHICS
 70
     1
  9
$MEASUREMENT
 70
     1
  9
$CELWEIGHT
370
    -1
  9
$ENDCAPS
280
     0
  9
$JOINSTYLE
280
     0
  9
$LWDISPLAY
290
     0
  9
$INSUNITS
 70
     0
  9
$HYPERLINKBASE
  1

  9
$STYLESHEET
  1
inaba.ctb
  9
$XEDIT
290
     1
  9
$CEPSNTYPE
380
     0
  9
$PSTYLEMODE
290
     1
  9
$FINGERPRINTGUID
  2
{A31D91EE-A5CC-4873-A271-F1A11008496F}
  9
$VERSIONGUID
  2
{16FCA41D-3096-4E74-937C-7EB9FC73ADA9}
  9
$EXTNAMES
290
     1
  9
$PSVPSCALE
 40
0.0
  9
$OLESTARTUP
290
     0
  0
ENDSEC
  0
SECTION
  2
CLASSES
  0
CLASS
  1
ACDBDICTIONARYWDFLT
  2
AcDbDictionaryWithDefault
  3
ObjectDBX Classes
 90
        0
280
     0
281
     0
  0
CLASS
  1
DICTIONARYVAR
  2
AcDbDictionaryVar
  3
ObjectDBX Classes
 90
        0
280
     0
281
     0
  0
CLASS
  1
ACDBPLACEHOLDER
  2
AcDbPlaceHolder
  3
ObjectDBX Classes
 90
        0
280
     0
281
     0
  0
CLASS
  1
LAYOUT
  2
AcDbLayout
  3
ObjectDBX Classes
 90
        0
280
     0
281
     0
  0
ENDSEC
  0
SECTION
  2
TABLES
  0
TABLE
  2
VPORT
  5
746D
330
0
100
AcDbSymbolTable
 70
     2
  0
VPORT
  5
1909B
330
746D
100
AcDbSymbolTableRecord
100
AcDbViewportTableRecord
  2
*Active
 70
     0
 10
0.0
 20
0.0
 11
1.0
 21
1.0
 12
8807.289492552451
 22
5704.5140498163
 13
0.0
 23
0.0
 14
10.0
 24
10.0
 15
10.0
 25
10.0
 16
0.0
 26
0.0
 36
1.0
 17
0.0
 27
0.0
 37
0.0
 40
11495.26036468251
 41
1.627450980392156
 42
50.0
 43
0.0
 44
0.0
 50
0.0
 51
0.0
 71
     0
 72
     0
 73
     1
 74
     0
 75
     0
 76
     0
 77
     0
 78
     0
281
     0
 65
     1
110
0.0
120
0.0
130
0.0
111
1.0
121
0.0
131
0.0
112
0.0
122
1.0
132
0.0
 79
     0
146
0.0
  0
ENDTAB
  0
TABLE
  2
LTYPE
  5
746A
330
0
100
AcDbSymbolTable
 70
     3
  0
LTYPE
  5
7477
330
746A
100
AcDbSymbolTableRecord
100
AcDbLinetypeTableRecord
  2
BYBLOCK
 70
     0
  3

 72
    65
 73
     0
 40
0.0
  0
LTYPE
  5
7478
330
746A
100
AcDbSymbolTableRecord
100
AcDbLinetypeTableRecord
  2
BYLAYER
 70
     0
  3

 72
    65
 73
     0
 40
0.0
  0
LTYPE
  5
7479
330
746A
100
AcDbSymbolTableRecord
100
AcDbLinetypeTableRecord
  2
CONTINUOUS
 70
     0
  3
Solid line
 72
    65
 73
     0
 40
0.0
  0
LTYPE
  5
781A
330
746A
100
AcDbSymbolTableRecord
100
AcDbLinetypeTableRecord
  2
HIDDEN
 70
     0
  3
__ __ __ __ __ __ __ __ __ __ __ __ __ __ __ __
 72
    65
 73
     2
 40
0.375
 49
0.25
 74
     0
 49
-0.125
 74
     0
  0
LTYPE
  5
781B
330
746A
100
AcDbSymbolTableRecord
100
AcDbLinetypeTableRecord
  2
PHANTOM
 70
     0
  3
______  __  __  ______  __  __  ______  __  __ 
 72
    65
 73
     6
 40
2.5
 49
1.25
 74
     0
 49
-0.25
 74
     0
 49
0.25
 74
     0
 49
-0.25
 74
     0
 49
0.25
 74
     0
 49
-0.25
 74
     0
  0
ENDTAB
  0
TABLE
  2
LAYER
  5
7467
102
{ACAD_XDICTIONARY
360
176C6
102
}
330
0
100
AcDbSymbolTable
 70
    10
  0
LAYER
  5
7474
330
7467
100
AcDbSymbolTableRecord
100
AcDbLayerTableRecord
  2
0
 70
     0
 62
     7
  6
CONTINUOUS
370
    -3
390
17368
  0
LAYER
  5
DEB3
330
7467
100
AcDbSymbolTableRecord
100
AcDbLayerTableRecord
  2
寸法
 70
     0
 62
     4
  6
CONTINUOUS
370
    -3
390
17368
  0
LAYER
  5
DEB4
330
7467
100
AcDbSymbolTableRecord
100
AcDbLayerTableRecord
  2
部品1
 70
     0
 62
     7
  6
CONTINUOUS
370
    -3
390
17368
  0
LAYER
  5
DEB5
330
7467
100
AcDbSymbolTableRecord
100
AcDbLayerTableRecord
  2
補助
 70
     0
 62
    -1
  6
CONTINUOUS
370
    -3
390
17368
  0
LAYER
  5
DEB6
330
7467
100
AcDbSymbolTableRecord
100
AcDbLayerTableRecord
  2
文字
 70
     0
 62
     7
  6
CONTINUOUS
370
    -3
390
17368
  0
LAYER
  5
F255
330
7467
100
AcDbSymbolTableRecord
100
AcDbLayerTableRecord
  2
DEFPOINTS
 70
     0
 62
     7
  6
CONTINUOUS
290
     0
370
    -3
390
17368
  0
LAYER
  5
10B54
330
7467
100
AcDbSymbolTableRecord
100
AcDbLayerTableRecord
  2
仕様書枠
 70
     0
 62
   230
  6
CONTINUOUS
370
    -3
390
17368
  0
LAYER
  5
11729
330
7467
100
AcDbSymbolTableRecord
100
AcDbLayerTableRecord
  2
Ｇ．Ｌ
 70
     0
 62
    30
  6
CONTINUOUS
370
    -3
390
17368
  0
LAYER
  5
1173F
330
7467
100
AcDbSymbolTableRecord
100
AcDbLayerTableRecord
  2
細線
 70
     0
 62
     5
  6
CONTINUOUS
370
    -3
390
17368
  0
LAYER
  5
142E2
330
7467
100
AcDbSymbolTableRecord
100
AcDbLayerTableRecord
  2
破線
 70
     0
 62
     2
  6
HIDDEN
370
    -3
390
17368
  0
ENDTAB
  0
TABLE
  2
STYLE
  5
7468
330
0
100
AcDbSymbolTable
 70
     5
  0
STYLE
  5
7475
330
7468
100
AcDbSymbolTableRecord
100
AcDbTextStyleTableRecord
  2
STANDARD
 70
     0
 40
0.0
 41
1.0
 50
0.0
 71
     0
 42
4.0
  3
txt
  4
C:\AutoCAD LT\bigfont.shx
  0
STYLE
  5
763C
330
7468
100
AcDbSymbolTableRecord
100
AcDbTextStyleTableRecord
  2
MSMINCHO
 70
     0
 40
0.0
 41
1.0
 50
0.0
 71
     0
 42
1.199999999999999
  3
C:\AutoCAD LT\msminch2.TTF
  4

  0
STYLE
  5
F706
330
7468
100
AcDbSymbolTableRecord
100
AcDbTextStyleTableRecord
  2
STYLE1
 70
     0
 40
0.0
 41
1.0
 50
0.0
 71
     0
 42
4.0
  3
isocp.shx
  4
bigfont.shx
  0
STYLE
  5
103BF
330
7468
100
AcDbSymbolTableRecord
100
AcDbTextStyleTableRecord
  2
STYLE2
 70
     0
 40
0.0
 41
1.0
 50
0.0
 71
     0
 42
100.0
  3
MS PGothic.ttf
  4

1001
ACAD
1000
MS PGothic
1071
    32818
  0
STYLE
  5
10BAA
330
7468
100
AcDbSymbolTableRecord
100
AcDbTextStyleTableRecord
  2
STYLE3
 70
     0
 40
0.0
 41
1.0
 50
0.0
 71
     0
 42
100.0
  3
DFPGothic-EB.ttf
  4

1001
ACAD
1000
DFPGothic-EB
1071
    32818
  0
ENDTAB
  0
TABLE
  2
VIEW
  5
746B
330
0
100
AcDbSymbolTable
 70
     0
  0
ENDTAB
  0
TABLE
  2
UCS
  5
746C
330
0
100
AcDbSymbolTable
 70
     0
  0
ENDTAB
  0
TABLE
  2
APPID
  5
746E
330
0
100
AcDbSymbolTable
 70
     6
  0
APPID
  5
7476
330
746E
100
AcDbSymbolTableRecord
100
AcDbRegAppTableRecord
  2
ACAD
 70
     0
  0
APPID
  5
DEA9
330
746E
100
AcDbSymbolTableRecord
100
AcDbRegAppTableRecord
  2
CONTENTBLOCKICON
 70
     0
  0
APPID
  5
DEAA
330
746E
100
AcDbSymbolTableRecord
100
AcDbRegAppTableRecord
  2
CONTENTBLOCKDESCRIPTION
 70
     0
  0
APPID
  5
E71D
330
746E
100
AcDbSymbolTableRecord
100
AcDbRegAppTableRecord
  2
CONTENTTABDATA
 70
     0
  0
APPID
  5
E71E
330
746E
100
AcDbSymbolTableRecord
100
AcDbRegAppTableRecord
  2
CONTENTCURRENTTAB
 70
     0
  0
APPID
  5
F3BA
330
746E
100
AcDbSymbolTableRecord
100
AcDbRegAppTableRecord
  2
DRAWINGVARIABLESXDATA
 70
     0
  0
ENDTAB
  0
TABLE
  2
DIMSTYLE
  5
746F
330
0
100
AcDbSymbolTable
 70
     1
100
AcDbDimStyleTable
 71
     1
340
F71F
  0
DIMSTYLE
105
F71F
102
{ACAD_REACTORS
330
162CD
330
162CE
330
162CF
330
162D0
330
162E4
330
162E7
330
162EA
330
162EB
330
16301
330
16302
330
1631F
330
16320
330
16333
330
1659B
330
1659C
330
1659A
330
165E9
330
16667
330
166DD
330
16907
330
16913
330
17875
330
17876
330
17877
330
178A8
330
178AC
330
178AD
330
178AE
330
178BC
330
178CB
330
181B0
330
18230
330
18231
330
18232
330
18B15
330
18B16
330
18B17
102
}
330
746F
100
AcDbSymbolTableRecord
100
AcDbDimStyleTableRecord
  2
INABA_S40G
 70
     0
 40
40.0
 41
2.5
 42
0.5
 43
7.0
 44
1.5
 73
     0
 74
     0
 77
     3
 78
     8
140
3.0
141
0.0
143
0.0394
147
1.0
172
     1
173
     1
174
     1
178
     7
271
     1
340
F706
341
F770
343
F770
344
F770
  0
ENDTAB
  0
TABLE
  2
BLOCK_RECORD
  5
7466
330
0
100
AcDbSymbolTable
 70
    38
  0
BLOCK_RECORD
  5
747D
330
7466
100
AcDbSymbolTableRecord
100
AcDbBlockTableRecord
  2
*MODEL_SPACE
340
1736D
  0
BLOCK_RECORD
  5
747A
330
7466
100
AcDbSymbolTableRecord
100
AcDbBlockTableRecord
  2
*PAPER_SPACE
340
1736E
  0
BLOCK_RECORD
  5
F770
330
7466
100
AcDbSymbolTableRecord
100
AcDbBlockTableRecord
  2
_DOTSMALL
340
0
102
{BLKREFS
331
187E4
331
187E5
331
187ED
331
187EE
331
187F8
331
187F9
331
18801
331
18802
331
1880B
331
1880C
331
18816
331
18817
331
1881D
331
1881E
331
18829
331
1882A
331
18833
331
18834
331
1883E
331
1883F
331
18847
331
18848
331
18852
331
18853
331
1885E
331
1885F
331
18869
331
1886A
331
18873
331
18874
331
1887C
331
1887D
331
18884
331
18885
331
1888D
331
1888E
331
18898
331
18899
331
188A3
331
188A4
331
188AC
331
188AD
331
188B5
331
188B6
331
188C0
331
188C1
331
188C9
331
188CA
331
188FB
331
188FC
331
1890E
331
1890F
331
18918
331
18919
331
1892C
331
1892D
331
18940
331
18941
331
18953
331
18954
331
1895C
331
1895D
331
18965
331
18966
331
18C0F
331
18C10
331
19044
331
19045
331
1904D
331
1904E
331
1906F
331
19070
331
19078
331
19079
102
}
  0
BLOCK_RECORD
  5
16338
330
7466
100
AcDbSymbolTableRecord
100
AcDbBlockTableRecord
  2
*D1
340
0
  0
BLOCK_RECORD
  5
16344
330
7466
100
AcDbSymbolTableRecord
100
AcDbBlockTableRecord
  2
*D2
340
0
  0
BLOCK_RECORD
  5
16352
330
7466
100
AcDbSymbolTableRecord
100
AcDbBlockTableRecord
  2
*D3
340
0
  0
BLOCK_RECORD
  5
16360
330
7466
100
AcDbSymbolTableRecord
100
AcDbBlockTableRecord
  2
*D4
340
0
  0
BLOCK_RECORD
  5
16384
330
7466
100
AcDbSymbolTableRecord
100
AcDbBlockTableRecord
  2
*D5
340
0
  0
BLOCK_RECORD
  5
1638F
330
7466
100
AcDbSymbolTableRecord
100
AcDbBlockTableRecord
  2
*D6
340
0
  0
BLOCK_RECORD
  5
1639B
330
7466
100
AcDbSymbolTableRecord
100
AcDbBlockTableRecord
  2
*D7
340
0
  0
BLOCK_RECORD
  5
163A9
330
7466
100
AcDbSymbolTableRecord
100
AcDbBlockTableRecord
  2
*D8
340
0
  0
BLOCK_RECORD
  5
163B8
330
7466
100
AcDbSymbolTableRecord
100
AcDbBlockTableRecord
  2
*D9
340
0
  0
BLOCK_RECORD
  5
163C7
330
7466
100
AcDbSymbolTableRecord
100
AcDbBlockTableRecord
  2
*D10
340
0
  0
BLOCK_RECORD
  5
163E1
330
7466
100
AcDbSymbolTableRecord
100
AcDbBlockTableRecord
  2
*D11
340
0
  0
BLOCK_RECORD
  5
163ED
330
7466
100
AcDbSymbolTableRecord
100
AcDbBlockTableRecord
  2
*D12
340
0
  0
BLOCK_RECORD
  5
163FB
330
7466
100
AcDbSymbolTableRecord
100
AcDbBlockTableRecord
  2
*D13
340
0
  0
BLOCK_RECORD
  5
1659E
330
7466
100
AcDbSymbolTableRecord
100
AcDbBlockTableRecord
  2
*D14
340
0
  0
BLOCK_RECORD
  5
165B5
330
7466
100
AcDbSymbolTableRecord
100
AcDbBlockTableRecord
  2
*D15
340
0
  0
BLOCK_RECORD
  5
165C4
330
7466
100
AcDbSymbolTableRecord
100
AcDbBlockTableRecord
  2
*D16
340
0
  0
BLOCK_RECORD
  5
165EA
330
7466
100
AcDbSymbolTableRecord
100
AcDbBlockTableRecord
  2
*D17
340
0
  0
BLOCK_RECORD
  5
166AD
330
7466
100
AcDbSymbolTableRecord
100
AcDbBlockTableRecord
  2
*D18
340
0
  0
BLOCK_RECORD
  5
166CF
330
7466
100
AcDbSymbolTableRecord
100
AcDbBlockTableRecord
  2
*D19
340
0
  0
BLOCK_RECORD
  5
168FB
330
7466
100
AcDbSymbolTableRecord
100
AcDbBlockTableRecord
  2
*D20
340
0
  0
BLOCK_RECORD
  5
16908
330
7466
100
AcDbSymbolTableRecord
100
AcDbBlockTableRecord
  2
*D21
340
0
  0
BLOCK_RECORD
  5
17AC5
330
7466
100
AcDbSymbolTableRecord
100
AcDbBlockTableRecord
  2
*D22
340
0
  0
BLOCK_RECORD
  5
17AD1
330
7466
100
AcDbSymbolTableRecord
100
AcDbBlockTableRecord
  2
*D23
340
0
  0
BLOCK_RECORD
  5
17ADD
330
7466
100
AcDbSymbolTableRecord
100
AcDbBlockTableRecord
  2
*D24
340
0
  0
BLOCK_RECORD
  5
17AF6
330
7466
100
AcDbSymbolTableRecord
100
AcDbBlockTableRecord
  2
*D25
340
0
  0
BLOCK_RECORD
  5
17B04
330
7466
100
AcDbSymbolTableRecord
100
AcDbBlockTableRecord
  2
*D26
340
0
  0
BLOCK_RECORD
  5
17B10
330
7466
100
AcDbSymbolTableRecord
100
AcDbBlockTableRecord
  2
*D27
340
0
  0
BLOCK_RECORD
  5
17B1E
330
7466
100
AcDbSymbolTableRecord
100
AcDbBlockTableRecord
  2
*D28
340
0
  0
BLOCK_RECORD
  5
17B2A
330
7466
100
AcDbSymbolTableRecord
100
AcDbBlockTableRecord
  2
*D29
340
0
  0
BLOCK_RECORD
  5
17B37
330
7466
100
AcDbSymbolTableRecord
100
AcDbBlockTableRecord
  2
*D30
340
0
  0
BLOCK_RECORD
  5
1830F
330
7466
100
AcDbSymbolTableRecord
100
AcDbBlockTableRecord
  2
*D31
340
0
  0
BLOCK_RECORD
  5
18350
330
7466
100
AcDbSymbolTableRecord
100
AcDbBlockTableRecord
  2
*D32
340
0
  0
BLOCK_RECORD
  5
1835C
330
7466
100
AcDbSymbolTableRecord
100
AcDbBlockTableRecord
  2
*D33
340
0
  0
BLOCK_RECORD
  5
1836A
330
7466
100
AcDbSymbolTableRecord
100
AcDbBlockTableRecord
  2
*D34
340
0
  0
BLOCK_RECORD
  5
18B8A
330
7466
100
AcDbSymbolTableRecord
100
AcDbBlockTableRecord
  2
*D35
340
0
  0
BLOCK_RECORD
  5
18B97
330
7466
100
AcDbSymbolTableRecord
100
AcDbBlockTableRecord
  2
*D36
340
0
  0
BLOCK_RECORD
  5
18BA5
330
7466
100
AcDbSymbolTableRecord
100
AcDbBlockTableRecord
  2
*D37
340
0
  0
ENDTAB
  0
ENDSEC
  0
SECTION
  2
BLOCKS
  0
BLOCK
  5
7489
330
747D
100
AcDbEntity
  8
0
100
AcDbBlockBegin
  2
*MODEL_SPACE
 70
     0
 10
0.0
 20
0.0
 30
0.0
  3
*MODEL_SPACE
  1

  0
ENDBLK
  5
748A
330
747D
100
AcDbEntity
  8
0
100
AcDbBlockEnd
  0
BLOCK
  5
7487
330
747A
100
AcDbEntity
 67
     1
  8
0
100
AcDbBlockBegin
  2
*PAPER_SPACE
 70
     0
 10
0.0
 20
0.0
 30
0.0
  3
*PAPER_SPACE
  1

  0
ENDBLK
  5
7488
330
747A
100
AcDbEntity
 67
     1
  8
0
100
AcDbBlockEnd
  0
BLOCK
  5
F771
330
F770
100
AcDbEntity
  8
0
 48
50.0
100
AcDbBlockBegin
  2
_DOTSMALL
 70
     0
 10
0.0
 20
0.0
 30
0.0
  3
_DOTSMALL
  1

  0
LWPOLYLINE
  5
F772
330
F770
100
AcDbEntity
  8
0
  6
ByBlock
 62
     0
 48
50.0
100
AcDbPolyline
 90
        2
 70
     1
 43
0.5
 10
-0.0625
 20
0.0
 42
1.0
 10
0.0625
 20
0.0
 42
1.0
  0
ENDBLK
  5
F776
330
F770
100
AcDbEntity
  8
0
 48
50.0
100
AcDbBlockEnd
  0
BLOCK
  5
17330
330
16338
100
AcDbEntity
  8
0
 48
50.0
100
AcDbBlockBegin
  2
*D1
 70
     1
 10
0.0
 20
0.0
 30
0.0
  3
*D1
  1

  0
LINE
  5
188A9
330
16338
100
AcDbEntity
  8
寸法
 62
     0
 48
50.0
370
    -2
100
AcDbLine
 10
8289.183055862407
 20
10137.49742454596
 30
0.0
 11
8976.609401596814
 21
10137.49742454596
 31
0.0
  0
LINE
  5
188AA
330
16338
100
AcDbEntity
  8
寸法
 62
     0
 48
50.0
370
    -2
100
AcDbLine
 10
8289.183055862382
 20
7197.497424545952
 30
0.0
 11
8976.609401596814
 21
7197.497424545952
 31
0.0
  0
LINE
  5
188AB
330
16338
100
AcDbEntity
  8
寸法
 62
     0
 48
50.0
370
    -2
100
AcDbLine
 10
8916.609401596813
 20
10137.49742454596
 30
0.0
 11
8916.609401596813
 21
7197.497424545952
 31
0.0
  0
INSERT
  5
188AC
330
16338
100
AcDbEntity
  8
寸法
 62
     0
 48
50.0
370
    -2
100
AcDbBlockReference
  2
_DOTSMALL
 10
8916.609401596813
 20
10137.49742454596
 30
0.0
 41
100.0
 42
100.0
 43
100.0
 50
90.0
  0
INSERT
  5
188AD
330
16338
100
AcDbEntity
  8
寸法
 62
     0
 48
50.0
370
    -2
100
AcDbBlockReference
  2
_DOTSMALL
 10
8916.609401596813
 20
7197.497424545952
 30
0.0
 41
100.0
 42
100.0
 43
100.0
 50
270.0
  0
MTEXT
  5
188AE
330
16338
100
AcDbEntity
  8
寸法
 62
     7
 48
50.0
100
AcDbMText
 10
8816.59759057319
 20
8667.497424545961
 30
0.0
 40
120.0
 41
0.0
 71
     5
 72
     1
  1
\A1;7X420=2940
  7
STYLE1
 11
0.0000000000000001
 21
1.0
 31
0.0
 73
     1
 44
1.0
1001
ACAD
1000
MTEXTBEGIN
1070
    73
1070
     1
1070
    44
1040
1.0
1070
    74
1070
     0
1000
MTEXTEND
  0
POINT
  5
188AF
330
16338
100
AcDbEntity
  8
DEFPOINTS
 62
     0
 48
50.0
100
AcDbPoint
 10
8269.183055862407
 20
10137.49742454596
 30
0.0
  0
POINT
  5
188B0
330
16338
100
AcDbEntity
  8
DEFPOINTS
 62
     0
 48
50.0
100
AcDbPoint
 10
8269.183055862383
 20
7197.497424545952
 30
0.0
  0
POINT
  5
188B1
330
16338
100
AcDbEntity
  8
DEFPOINTS
 62
     0
 48
50.0
100
AcDbPoint
 10
8916.609401596813
 20
7197.497424545952
 30
0.0
  0
ENDBLK
  5
1733A
330
16338
100
AcDbEntity
  8
0
 48
50.0
100
AcDbBlockEnd
  0
BLOCK
  5
16414
330
16344
100
AcDbEntity
  8
0
 48
50.0
100
AcDbBlockBegin
  2
*D2
 70
     1
 10
0.0
 20
0.0
 30
0.0
  3
*D2
  1

  0
LINE
  5
1889E
330
16344
100
AcDbEntity
  8
寸法
 62
     0
 48
50.0
370
    -2
100
AcDbLine
 10
8289.183055862382
 20
7197.497424545952
 30
0.0
 11
8976.609401596794
 21
7197.497424545952
 31
0.0
  0
LINE
  5
1889F
330
16344
100
AcDbEntity
  8
寸法
 62
     0
 48
50.0
370
    -2
100
AcDbLine
 10
8289.183055862382
 20
7142.497424545957
 30
0.0
 11
8976.609401596794
 21
7142.497424545957
 31
0.0
  0
LINE
  5
188A0
330
16344
100
AcDbEntity
  8
寸法
 62
     0
 48
50.0
370
    -2
100
AcDbLine
 10
8916.609401596794
 20
7197.497424545952
 30
0.0
 11
8916.609401596794
 21
7297.497424545952
 31
0.0
  0
LINE
  5
188A1
330
16344
100
AcDbEntity
  8
寸法
 62
     0
 48
50.0
370
    -2
100
AcDbLine
 10
8916.609401596794
 20
7142.497424545957
 30
0.0
 11
8916.609401596794
 21
6656.150676266854
 31
0.0
  0
LINE
  5
188A2
330
16344
100
AcDbEntity
  8
寸法
 62
     0
 48
50.0
370
    -2
100
AcDbLine
 10
8916.609401596794
 20
7197.497424545952
 30
0.0
 11
8916.609401596794
 21
7142.497424545957
 31
0.0
  0
INSERT
  5
188A3
330
16344
100
AcDbEntity
  8
寸法
 62
     0
 48
50.0
370
    -2
100
AcDbBlockReference
  2
_DOTSMALL
 10
8916.609401596794
 20
7197.497424545952
 30
0.0
 41
100.0
 42
100.0
 43
100.0
 50
270.0
  0
INSERT
  5
188A4
330
16344
100
AcDbEntity
  8
寸法
 62
     0
 48
50.0
370
    -2
100
AcDbBlockReference
  2
_DOTSMALL
 10
8916.609401596794
 20
7142.497424545957
 30
0.0
 41
100.0
 42
100.0
 43
100.0
 50
90.0
  0
MTEXT
  5
188A5
330
16344
100
AcDbEntity
  8
寸法
 62
     7
 48
50.0
100
AcDbMText
 10
8816.609401596791
 20
6764.635957641094
 30
0.0
 40
120.0
 41
0.0
 71
     5
 72
     1
  1
\A1;55
  7
STYLE1
 11
0.0000000000000001
 21
1.0
 31
0.0
 73
     1
 44
1.0
1001
ACAD
1000
MTEXTBEGIN
1070
    73
1070
     1
1070
    44
1040
1.0
1070
    74
1070
     0
1000
MTEXTEND
  0
POINT
  5
188A6
330
16344
100
AcDbEntity
  8
DEFPOINTS
 62
     0
 48
50.0
100
AcDbPoint
 10
8269.183055862383
 20
7197.497424545952
 30
0.0
  0
POINT
  5
188A7
330
16344
100
AcDbEntity
  8
DEFPOINTS
 62
     0
 48
50.0
100
AcDbPoint
 10
8269.183055862383
 20
7142.497424545957
 30
0.0
  0
POINT
  5
188A8
330
16344
100
AcDbEntity
  8
DEFPOINTS
 62
     0
 48
50.0
100
AcDbPoint
 10
8916.609401596794
 20
7142.497424545957
 30
0.0
  0
ENDBLK
  5
16420
330
16344
100
AcDbEntity
  8
0
 48
50.0
100
AcDbBlockEnd
  0
BLOCK
  5
16421
330
16352
100
AcDbEntity
  8
0
 48
50.0
100
AcDbBlockBegin
  2
*D3
 70
     1
 10
0.0
 20
0.0
 30
0.0
  3
*D3
  1

  0
LINE
  5
18893
330
16352
100
AcDbEntity
  8
寸法
 62
     0
 48
50.0
370
    -2
100
AcDbLine
 10
8289.183055862407
 20
10192.49742454596
 30
0.0
 11
8976.609401596819
 21
10192.49742454596
 31
0.0
  0
LINE
  5
18894
330
16352
100
AcDbEntity
  8
寸法
 62
     0
 48
50.0
370
    -2
100
AcDbLine
 10
8289.183055862407
 20
10137.49742454596
 30
0.0
 11
8976.609401596819
 21
10137.49742454596
 31
0.0
  0
LINE
  5
18895
330
16352
100
AcDbEntity
  8
寸法
 62
     0
 48
50.0
370
    -2
100
AcDbLine
 10
8916.60940159682
 20
10137.49742454596
 30
0.0
 11
8916.60940159682
 21
10037.49742454596
 31
0.0
  0
LINE
  5
18896
330
16352
100
AcDbEntity
  8
寸法
 62
     0
 48
50.0
370
    -2
100
AcDbLine
 10
8916.60940159682
 20
10192.49742454596
 30
0.0
 11
8916.60940159682
 21
10609.46798729444
 31
0.0
  0
LINE
  5
18897
330
16352
100
AcDbEntity
  8
寸法
 62
     0
 48
50.0
370
    -2
100
AcDbLine
 10
8916.60940159682
 20
10137.49742454596
 30
0.0
 11
8916.60940159682
 21
10192.49742454596
 31
0.0
  0
INSERT
  5
18898
330
16352
100
AcDbEntity
  8
寸法
 62
     0
 48
50.0
370
    -2
100
AcDbBlockReference
  2
_DOTSMALL
 10
8916.60940159682
 20
10137.49742454596
 30
0.0
 41
100.0
 42
100.0
 43
100.0
 50
90.0
  0
INSERT
  5
18899
330
16352
100
AcDbEntity
  8
寸法
 62
     0
 48
50.0
370
    -2
100
AcDbBlockReference
  2
_DOTSMALL
 10
8916.60940159682
 20
10192.49742454596
 30
0.0
 41
100.0
 42
100.0
 43
100.0
 50
270.0
  0
MTEXT
  5
1889A
330
16352
100
AcDbEntity
  8
寸法
 62
     7
 48
50.0
100
AcDbMText
 10
8816.609401596817
 20
10500.9827059202
 30
0.0
 40
120.0
 41
0.0
 71
     5
 72
     1
  1
\A1;55
  7
STYLE1
 11
0.0000000000000001
 21
1.0
 31
0.0
 73
     1
 44
1.0
1001
ACAD
1000
MTEXTBEGIN
1070
    73
1070
     1
1070
    44
1040
1.0
1070
    74
1070
     0
1000
MTEXTEND
  0
POINT
  5
1889B
330
16352
100
AcDbEntity
  8
DEFPOINTS
 62
     0
 48
50.0
100
AcDbPoint
 10
8269.183055862407
 20
10192.49742454596
 30
0.0
  0
POINT
  5
1889C
330
16352
100
AcDbEntity
  8
DEFPOINTS
 62
     0
 48
50.0
100
AcDbPoint
 10
8269.183055862407
 20
10137.49742454596
 30
0.0
  0
POINT
  5
1889D
330
16352
100
AcDbEntity
  8
DEFPOINTS
 62
     0
 48
50.0
100
AcDbPoint
 10
8916.60940159682
 20
10137.49742454596
 30
0.0
  0
ENDBLK
  5
1642D
330
16352
100
AcDbEntity
  8
0
 48
50.0
100
AcDbBlockEnd
  0
BLOCK
  5
1731A
330
16360
100
AcDbEntity
  8
0
 48
50.0
100
AcDbBlockBegin
  2
*D4
 70
     1
 10
0.0
 20
0.0
 30
0.0
  3
*D4
  1

  0
LINE
  5
1888A
330
16360
100
AcDbEntity
  8
寸法
 62
     0
 48
50.0
370
    -2
100
AcDbLine
 10
8289.183055862407
 20
10192.49742454596
 30
0.0
 11
9341.716343336454
 21
10192.49742454596
 31
0.0
  0
LINE
  5
1888B
330
16360
100
AcDbEntity
  8
寸法
 62
     0
 48
50.0
370
    -2
100
AcDbLine
 10
8289.183055862382
 20
7142.497424545957
 30
0.0
 11
9341.716343336454
 21
7142.497424545957
 31
0.0
  0
LINE
  5
1888C
330
16360
100
AcDbEntity
  8
寸法
 62
     0
 48
50.0
370
    -2
100
AcDbLine
 10
9281.716343336453
 20
10192.49742454596
 30
0.0
 11
9281.716343336453
 21
7142.497424545957
 31
0.0
  0
INSERT
  5
1888D
330
16360
100
AcDbEntity
  8
寸法
 62
     0
 48
50.0
370
    -2
100
AcDbBlockReference
  2
_DOTSMALL
 10
9281.716343336453
 20
10192.49742454596
 30
0.0
 41
100.0
 42
100.0
 43
100.0
 50
90.0
  0
INSERT
  5
1888E
330
16360
100
AcDbEntity
  8
寸法
 62
     0
 48
50.0
370
    -2
100
AcDbBlockReference
  2
_DOTSMALL
 10
9281.716343336453
 20
7142.497424545957
 30
0.0
 41
100.0
 42
100.0
 43
100.0
 50
270.0
  0
MTEXT
  5
1888F
330
16360
100
AcDbEntity
  8
寸法
 62
     7
 48
50.0
100
AcDbMText
 10
9181.716343336452
 20
8667.497424545961
 30
0.0
 40
120.0
 41
0.0
 71
     5
 72
     1
  1
\A1;3050
  7
STYLE1
 11
0.0000000000000001
 21
1.0
 31
0.0
 73
     1
 44
1.0
1001
ACAD
1000
MTEXTBEGIN
1070
    73
1070
     1
1070
    44
1040
1.0
1070
    74
1070
     0
1000
MTEXTEND
  0
POINT
  5
18890
330
16360
100
AcDbEntity
  8
DEFPOINTS
 62
     0
 48
50.0
100
AcDbPoint
 10
8269.183055862407
 20
10192.49742454596
 30
0.0
  0
POINT
  5
18891
330
16360
100
AcDbEntity
  8
DEFPOINTS
 62
     0
 48
50.0
100
AcDbPoint
 10
8269.183055862383
 20
7142.497424545957
 30
0.0
  0
POINT
  5
18892
330
16360
100
AcDbEntity
  8
DEFPOINTS
 62
     0
 48
50.0
100
AcDbPoint
 10
9281.716343336453
 20
7142.497424545957
 30
0.0
  0
ENDBLK
  5
17324
330
16360
100
AcDbEntity
  8
0
 48
50.0
100
AcDbBlockEnd
  0
BLOCK
  5
1644F
330
16384
100
AcDbEntity
  8
0
 48
50.0
100
AcDbBlockBegin
  2
*D5
 70
     1
 10
0.0
 20
0.0
 30
0.0
  3
*D5
  1

  0
LINE
  5
18882
330
16384
100
AcDbEntity
  8
寸法
 62
     0
 48
50.0
370
    -2
100
AcDbLine
 10
5742.183055862401
 20
7148.497424545865
 30
0.0
 11
5742.183055862401
 21
6548.0666537797
 31
0.0
  0
LINE
  5
18883
330
16384
100
AcDbEntity
  8
寸法
 62
     0
 48
50.0
370
    -2
100
AcDbLine
 10
8166.183055862381
 20
6608.0666537797
 30
0.0
 11
5742.183055862401
 21
6608.0666537797
 31
0.0
  0
INSERT
  5
18884
330
16384
100
AcDbEntity
  8
寸法
 62
     0
 48
50.0
370
    -2
100
AcDbBlockReference
  2
_DOTSMALL
 10
8166.183055862381
 20
6608.0666537797
 30
0.0
 41
100.0
 42
100.0
 43
100.0
  0
INSERT
  5
18885
330
16384
100
AcDbEntity
  8
寸法
 62
     0
 48
50.0
370
    -2
100
AcDbBlockReference
  2
_DOTSMALL
 10
5742.183055862401
 20
6608.0666537797
 30
0.0
 41
100.0
 42
100.0
 43
100.0
 50
180.0
  0
MTEXT
  5
18886
330
16384
100
AcDbEntity
  8
寸法
 62
     7
 48
50.0
100
AcDbMText
 10
6954.183055862391
 20
6708.078464803323
 30
0.0
 40
120.0
 41
0.0
 71
     5
 72
     1
  1
\A1;有効開口部間口 2424
  7
STYLE1
 73
     1
 44
1.0
1001
ACAD
1000
MTEXTBEGIN
1070
    73
1070
     1
1070
    44
1040
1.0
1070
    74
1070
     0
1000
MTEXTEND
  0
POINT
  5
18887
330
16384
100
AcDbEntity
  8
DEFPOINTS
 62
     0
 48
50.0
100
AcDbPoint
 10
8166.183055862381
 20
7168.497424545865
 30
0.0
  0
POINT
  5
18888
330
16384
100
AcDbEntity
  8
DEFPOINTS
 62
     0
 48
50.0
100
AcDbPoint
 10
5742.183055862401
 20
7168.497424545865
 30
0.0
  0
POINT
  5
18889
330
16384
100
AcDbEntity
  8
DEFPOINTS
 62
     0
 48
50.0
100
AcDbPoint
 10
5742.183055862401
 20
6608.0666537797
 30
0.0
  0
ENDBLK
  5
16458
330
16384
100
AcDbEntity
  8
0
 48
50.0
100
AcDbBlockEnd
  0
BLOCK
  5
166C4
330
1638F
100
AcDbEntity
  8
0
 48
50.0
100
AcDbBlockBegin
  2
*D6
 70
     1
 10
0.0
 20
0.0
 30
0.0
  3
*D6
  1

  0
LINE
  5
18879
330
1638F
100
AcDbEntity
  8
寸法
 62
     0
 48
50.0
370
    -2
100
AcDbLine
 10
3009.183055862401
 20
7122.497424545861
 30
0.0
 11
3009.183055862401
 21
6101.893658188827
 31
0.0
  0
LINE
  5
1887A
330
1638F
100
AcDbEntity
  8
寸法
 62
     0
 48
50.0
370
    -2
100
AcDbLine
 10
8269.183055862372
 20
7122.497424545956
 30
0.0
 11
8269.183055862372
 21
6101.893658188827
 31
0.0
  0
LINE
  5
1887B
330
1638F
100
AcDbEntity
  8
寸法
 62
     0
 48
50.0
370
    -2
100
AcDbLine
 10
3009.183055862401
 20
6161.893658188827
 30
0.0
 11
8269.183055862372
 21
6161.893658188827
 31
0.0
  0
INSERT
  5
1887C
330
1638F
100
AcDbEntity
  8
寸法
 62
     0
 48
50.0
370
    -2
100
AcDbBlockReference
  2
_DOTSMALL
 10
3009.183055862401
 20
6161.893658188827
 30
0.0
 41
100.0
 42
100.0
 43
100.0
 50
180.0
  0
INSERT
  5
1887D
330
1638F
100
AcDbEntity
  8
寸法
 62
     0
 48
50.0
370
    -2
100
AcDbBlockReference
  2
_DOTSMALL
 10
8269.183055862372
 20
6161.893658188827
 30
0.0
 41
100.0
 42
100.0
 43
100.0
  0
MTEXT
  5
1887E
330
1638F
100
AcDbEntity
  8
寸法
 62
     7
 48
50.0
100
AcDbMText
 10
5639.183055862385
 20
6261.905469212448
 30
0.0
 40
120.0
 41
0.0
 71
     5
 72
     1
  1
\A1;5260
  7
STYLE1
 73
     1
 44
1.0
1001
ACAD
1000
MTEXTBEGIN
1070
    73
1070
     1
1070
    44
1040
1.0
1070
    74
1070
     0
1000
MTEXTEND
  0
POINT
  5
1887F
330
1638F
100
AcDbEntity
  8
DEFPOINTS
 62
     0
 48
50.0
100
AcDbPoint
 10
3009.183055862401
 20
7142.497424545862
 30
0.0
  0
POINT
  5
18880
330
1638F
100
AcDbEntity
  8
DEFPOINTS
 62
     0
 48
50.0
100
AcDbPoint
 10
8269.183055862372
 20
7142.497424545957
 30
0.0
  0
POINT
  5
18881
330
1638F
100
AcDbEntity
  8
DEFPOINTS
 62
     0
 48
50.0
100
AcDbPoint
 10
8269.183055862372
 20
6161.893658188827
 30
0.0
  0
ENDBLK
  5
166CE
330
1638F
100
AcDbEntity
  8
0
 48
50.0
100
AcDbBlockEnd
  0
BLOCK
  5
16464
330
1639B
100
AcDbEntity
  8
0
 48
50.0
100
AcDbBlockBegin
  2
*D7
 70
     1
 10
0.0
 20
0.0
 30
0.0
  3
*D7
  1

  0
LINE
  5
1886E
330
1639B
100
AcDbEntity
  8
寸法
 62
     0
 48
50.0
370
    -2
100
AcDbLine
 10
3064.183055862397
 20
7122.497424545864
 30
0.0
 11
3064.183055862397
 21
6548.0666537797
 31
0.0
  0
LINE
  5
1886F
330
1639B
100
AcDbEntity
  8
寸法
 62
     0
 48
50.0
370
    -2
100
AcDbLine
 10
3009.183055862401
 20
7122.497424545861
 30
0.0
 11
3009.183055862401
 21
6548.0666537797
 31
0.0
  0
LINE
  5
18870
330
1639B
100
AcDbEntity
  8
寸法
 62
     0
 48
50.0
370
    -2
100
AcDbLine
 10
3064.183055862397
 20
6608.0666537797
 30
0.0
 11
3164.183055862397
 21
6608.0666537797
 31
0.0
  0
LINE
  5
18871
330
1639B
100
AcDbEntity
  8
寸法
 62
     0
 48
50.0
370
    -2
100
AcDbLine
 10
3009.183055862401
 20
6608.0666537797
 30
0.0
 11
2592.212493113923
 21
6608.0666537797
 31
0.0
  0
LINE
  5
18872
330
1639B
100
AcDbEntity
  8
寸法
 62
     0
 48
50.0
370
    -2
100
AcDbLine
 10
3064.183055862397
 20
6608.0666537797
 30
0.0
 11
3009.183055862401
 21
6608.0666537797
 31
0.0
  0
INSERT
  5
18873
330
1639B
100
AcDbEntity
  8
寸法
 62
     0
 48
50.0
370
    -2
100
AcDbBlockReference
  2
_DOTSMALL
 10
3064.183055862397
 20
6608.0666537797
 30
0.0
 41
100.0
 42
100.0
 43
100.0
 50
180.0
  0
INSERT
  5
18874
330
1639B
100
AcDbEntity
  8
寸法
 62
     0
 48
50.0
370
    -2
100
AcDbBlockReference
  2
_DOTSMALL
 10
3009.183055862401
 20
6608.0666537797
 30
0.0
 41
100.0
 42
100.0
 43
100.0
  0
MTEXT
  5
18875
330
1639B
100
AcDbEntity
  8
寸法
 62
     7
 48
50.0
100
AcDbMText
 10
2700.697774488162
 20
6708.0666537797
 30
0.0
 40
120.0
 41
0.0
 71
     5
 72
     1
  1
\A1;55
  7
STYLE1
 73
     1
 44
1.0
1001
ACAD
1000
MTEXTBEGIN
1070
    73
1070
     1
1070
    44
1040
1.0
1070
    74
1070
     0
1000
MTEXTEND
  0
POINT
  5
18876
330
1639B
100
AcDbEntity
  8
DEFPOINTS
 62
     0
 48
50.0
100
AcDbPoint
 10
3064.183055862397
 20
7142.497424545864
 30
0.0
  0
POINT
  5
18877
330
1639B
100
AcDbEntity
  8
DEFPOINTS
 62
     0
 48
50.0
100
AcDbPoint
 10
3009.183055862401
 20
7142.497424545862
 30
0.0
  0
POINT
  5
18878
330
1639B
100
AcDbEntity
  8
DEFPOINTS
 62
     0
 48
50.0
100
AcDbPoint
 10
3009.183055862401
 20
6608.0666537797
 30
0.0
  0
ENDBLK
  5
16470
330
1639B
100
AcDbEntity
  8
0
 48
50.0
100
AcDbBlockEnd
  0
BLOCK
  5
16471
330
163A9
100
AcDbEntity
  8
0
 48
50.0
100
AcDbBlockBegin
  2
*D8
 70
     1
 10
0.0
 20
0.0
 30
0.0
  3
*D8
  1

  0
LINE
  5
18863
330
163A9
100
AcDbEntity
  8
寸法
 62
     0
 48
50.0
370
    -2
100
AcDbLine
 10
5742.183055862401
 20
7148.497424545865
 30
0.0
 11
5742.183055862401
 21
6548.0666537797
 31
0.0
  0
LINE
  5
18864
330
163A9
100
AcDbEntity
  8
寸法
 62
     0
 48
50.0
370
    -2
100
AcDbLine
 10
5694.183055862397
 20
7122.497424545864
 30
0.0
 11
5694.183055862397
 21
6548.0666537797
 31
0.0
  0
LINE
  5
18865
330
163A9
100
AcDbEntity
  8
寸法
 62
     0
 48
50.0
370
    -2
100
AcDbLine
 10
5742.183055862401
 20
6608.0666537797
 30
0.0
 11
5842.183055862401
 21
6608.0666537797
 31
0.0
  0
LINE
  5
18866
330
163A9
100
AcDbEntity
  8
寸法
 62
     0
 48
50.0
370
    -2
100
AcDbLine
 10
5694.183055862397
 20
6608.0666537797
 30
0.0
 11
5594.183055862397
 21
6608.0666537797
 31
0.0
  0
MTEXT
  5
18867
330
163A9
100
AcDbEntity
  8
寸法
 62
     7
 48
50.0
100
AcDbMText
 10
5855.085026862457
 20
6708.0666537797
 30
0.0
 40
120.0
 41
0.0
 71
     5
 72
     1
  1
\A1;48
  7
STYLE1
 73
     1
 44
1.0
1001
ACAD
1000
MTEXTBEGIN
1070
    73
1070
     1
1070
    44
1040
1.0
1070
    74
1070
     0
1000
MTEXTEND
  0
LINE
  5
18868
330
163A9
100
AcDbEntity
  8
寸法
 62
     0
 48
50.0
370
    -2
100
AcDbLine
 10
5742.183055862401
 20
6608.0666537797
 30
0.0
 11
5694.183055862397
 21
6608.0666537797
 31
0.0
  0
INSERT
  5
18869
330
163A9
100
AcDbEntity
  8
寸法
 62
     0
 48
50.0
370
    -2
100
AcDbBlockReference
  2
_DOTSMALL
 10
5742.183055862401
 20
6608.0666537797
 30
0.0
 41
100.0
 42
100.0
 43
100.0
 50
180.0
  0
INSERT
  5
1886A
330
163A9
100
AcDbEntity
  8
寸法
 62
     0
 48
50.0
370
    -2
100
AcDbBlockReference
  2
_DOTSMALL
 10
5694.183055862397
 20
6608.0666537797
 30
0.0
 41
100.0
 42
100.0
 43
100.0
  0
POINT
  5
1886B
330
163A9
100
AcDbEntity
  8
DEFPOINTS
 62
     0
 48
50.0
100
AcDbPoint
 10
5742.183055862401
 20
7168.497424545865
 30
0.0
  0
POINT
  5
1886C
330
163A9
100
AcDbEntity
  8
DEFPOINTS
 62
     0
 48
50.0
100
AcDbPoint
 10
5694.183055862397
 20
7142.497424545864
 30
0.0
  0
POINT
  5
1886D
330
163A9
100
AcDbEntity
  8
DEFPOINTS
 62
     0
 48
50.0
100
AcDbPoint
 10
5694.183055862397
 20
6608.0666537797
 30
0.0
  0
ENDBLK
  5
1647E
330
163A9
100
AcDbEntity
  8
0
 48
50.0
100
AcDbBlockEnd
  0
BLOCK
  5
1647F
330
163B8
100
AcDbEntity
  8
0
 48
50.0
100
AcDbBlockBegin
  2
*D9
 70
     1
 10
0.0
 20
0.0
 30
0.0
  3
*D9
  1

  0
LINE
  5
18858
330
163B8
100
AcDbEntity
  8
寸法
 62
     0
 48
50.0
370
    -2
100
AcDbLine
 10
8214.183055862383
 20
7122.497424545952
 30
0.0
 11
8214.183055862383
 21
6548.0666537797
 31
0.0
  0
LINE
  5
18859
330
163B8
100
AcDbEntity
  8
寸法
 62
     0
 48
50.0
370
    -2
100
AcDbLine
 10
8166.183055862381
 20
7148.497424545865
 30
0.0
 11
8166.183055862381
 21
6548.0666537797
 31
0.0
  0
LINE
  5
1885A
330
163B8
100
AcDbEntity
  8
寸法
 62
     0
 48
50.0
370
    -2
100
AcDbLine
 10
8214.183055862383
 20
6608.0666537797
 30
0.0
 11
8314.183055862384
 21
6608.0666537797
 31
0.0
  0
LINE
  5
1885B
330
163B8
100
AcDbEntity
  8
寸法
 62
     0
 48
50.0
370
    -2
100
AcDbLine
 10
8166.183055862381
 20
6608.0666537797
 30
0.0
 11
8066.183055862381
 21
6608.0666537797
 31
0.0
  0
MTEXT
  5
1885C
330
163B8
100
AcDbEntity
  8
寸法
 62
     7
 48
50.0
100
AcDbMText
 10
8055.220158213634
 20
6708.0666537797
 30
0.0
 40
120.0
 41
0.0
 71
     5
 72
     1
  1
\A1;48
  7
STYLE1
 73
     1
 44
1.0
1001
ACAD
1000
MTEXTBEGIN
1070
    73
1070
     1
1070
    44
1040
1.0
1070
    74
1070
     0
1000
MTEXTEND
  0
LINE
  5
1885D
330
163B8
100
AcDbEntity
  8
寸法
 62
     0
 48
50.0
370
    -2
100
AcDbLine
 10
8214.183055862383
 20
6608.0666537797
 30
0.0
 11
8166.183055862381
 21
6608.0666537797
 31
0.0
  0
INSERT
  5
1885E
330
163B8
100
AcDbEntity
  8
寸法
 62
     0
 48
50.0
370
    -2
100
AcDbBlockReference
  2
_DOTSMALL
 10
8214.183055862383
 20
6608.0666537797
 30
0.0
 41
100.0
 42
100.0
 43
100.0
 50
180.0
  0
INSERT
  5
1885F
330
163B8
100
AcDbEntity
  8
寸法
 62
     0
 48
50.0
370
    -2
100
AcDbBlockReference
  2
_DOTSMALL
 10
8166.183055862381
 20
6608.0666537797
 30
0.0
 41
100.0
 42
100.0
 43
100.0
  0
POINT
  5
18860
330
163B8
100
AcDbEntity
  8
DEFPOINTS
 62
     0
 48
50.0
100
AcDbPoint
 10
8214.183055862383
 20
7142.497424545952
 30
0.0
  0
POINT
  5
18861
330
163B8
100
AcDbEntity
  8
DEFPOINTS
 62
     0
 48
50.0
100
AcDbPoint
 10
8166.183055862381
 20
7168.497424545865
 30
0.0
  0
POINT
  5
18862
330
163B8
100
AcDbEntity
  8
DEFPOINTS
 62
     0
 48
50.0
100
AcDbPoint
 10
8166.183055862381
 20
6608.0666537797
 30
0.0
  0
ENDBLK
  5
1648C
330
163B8
100
AcDbEntity
  8
0
 48
50.0
100
AcDbBlockEnd
  0
BLOCK
  5
1648D
330
163C7
100
AcDbEntity
  8
0
 48
50.0
100
AcDbBlockBegin
  2
*D10
 70
     1
 10
0.0
 20
0.0
 30
0.0
  3
*D10
  1

  0
LINE
  5
1884D
330
163C7
100
AcDbEntity
  8
寸法
 62
     0
 48
50.0
370
    -2
100
AcDbLine
 10
8269.183055862383
 20
7122.497424545956
 30
0.0
 11
8269.183055862383
 21
6548.066653779702
 31
0.0
  0
LINE
  5
1884E
330
163C7
100
AcDbEntity
  8
寸法
 62
     0
 48
50.0
370
    -2
100
AcDbLine
 10
8214.183055862383
 20
7122.497424545952
 30
0.0
 11
8214.183055862383
 21
6548.066653779702
 31
0.0
  0
LINE
  5
1884F
330
163C7
100
AcDbEntity
  8
寸法
 62
     0
 48
50.0
370
    -2
100
AcDbLine
 10
8214.183055862383
 20
6608.066653779701
 30
0.0
 11
8114.183055862383
 21
6608.066653779701
 31
0.0
  0
LINE
  5
18850
330
163C7
100
AcDbEntity
  8
寸法
 62
     0
 48
50.0
370
    -2
100
AcDbLine
 10
8269.183055862383
 20
6608.066653779701
 30
0.0
 11
8686.153618610859
 21
6608.066653779701
 31
0.0
  0
LINE
  5
18851
330
163C7
100
AcDbEntity
  8
寸法
 62
     0
 48
50.0
370
    -2
100
AcDbLine
 10
8214.183055862383
 20
6608.066653779701
 30
0.0
 11
8269.183055862383
 21
6608.066653779701
 31
0.0
  0
INSERT
  5
18852
330
163C7
100
AcDbEntity
  8
寸法
 62
     0
 48
50.0
370
    -2
100
AcDbBlockReference
  2
_DOTSMALL
 10
8214.183055862383
 20
6608.066653779701
 30
0.0
 41
100.0
 42
100.0
 43
100.0
  0
INSERT
  5
18853
330
163C7
100
AcDbEntity
  8
寸法
 62
     0
 48
50.0
370
    -2
100
AcDbBlockReference
  2
_DOTSMALL
 10
8269.183055862383
 20
6608.066653779701
 30
0.0
 41
100.0
 42
100.0
 43
100.0
 50
180.0
  0
MTEXT
  5
18854
330
163C7
100
AcDbEntity
  8
寸法
 62
     7
 48
50.0
100
AcDbMText
 10
8577.668337236621
 20
6708.066653779702
 30
0.0
 40
120.0
 41
0.0
 71
     5
 72
     1
  1
\A1;55
  7
STYLE1
 73
     1
 44
1.0
1001
ACAD
1000
MTEXTBEGIN
1070
    73
1070
     1
1070
    44
1040
1.0
1070
    74
1070
     0
1000
MTEXTEND
  0
POINT
  5
18855
330
163C7
100
AcDbEntity
  8
DEFPOINTS
 62
     0
 48
50.0
100
AcDbPoint
 10
8269.183055862383
 20
7142.497424545957
 30
0.0
  0
POINT
  5
18856
330
163C7
100
AcDbEntity
  8
DEFPOINTS
 62
     0
 48
50.0
100
AcDbPoint
 10
8214.183055862383
 20
7142.497424545952
 30
0.0
  0
POINT
  5
18857
330
163C7
100
AcDbEntity
  8
DEFPOINTS
 62
     0
 48
50.0
100
AcDbPoint
 10
8214.183055862383
 20
6608.066653779701
 30
0.0
  0
ENDBLK
  5
16499
330
163C7
100
AcDbEntity
  8
0
 48
50.0
100
AcDbBlockEnd
  0
BLOCK
  5
1661C
330
163E1
100
AcDbEntity
  8
0
 48
50.0
100
AcDbBlockBegin
  2
*D11
 70
     1
 10
0.0
 20
0.0
 30
0.0
  3
*D11
  1

  0
LINE
  5
18844
330
163E1
100
AcDbEntity
  8
寸法
 62
     0
 48
50.0
370
    -2
100
AcDbLine
 10
5694.183055862406
 20
10212.49742454587
 30
0.0
 11
5694.183055862406
 21
10468.30564417096
 31
0.0
  0
LINE
  5
18845
330
163E1
100
AcDbEntity
  8
寸法
 62
     0
 48
50.0
370
    -2
100
AcDbLine
 10
8214.183055862408
 20
10212.49742454596
 30
0.0
 11
8214.183055862408
 21
10468.30564417096
 31
0.0
  0
LINE
  5
18846
330
163E1
100
AcDbEntity
  8
寸法
 62
     0
 48
50.0
370
    -2
100
AcDbLine
 10
5694.183055862406
 20
10408.30564417096
 30
0.0
 11
8214.183055862408
 21
10408.30564417096
 31
0.0
  0
INSERT
  5
18847
330
163E1
100
AcDbEntity
  8
寸法
 62
     0
 48
50.0
370
    -2
100
AcDbBlockReference
  2
_DOTSMALL
 10
5694.183055862406
 20
10408.30564417096
 30
0.0
 41
100.0
 42
100.0
 43
100.0
 50
180.0
  0
INSERT
  5
18848
330
163E1
100
AcDbEntity
  8
寸法
 62
     0
 48
50.0
370
    -2
100
AcDbBlockReference
  2
_DOTSMALL
 10
8214.183055862408
 20
10408.30564417096
 30
0.0
 41
100.0
 42
100.0
 43
100.0
  0
MTEXT
  5
18849
330
163E1
100
AcDbEntity
  8
寸法
 62
     7
 48
50.0
100
AcDbMText
 10
6954.183055862408
 20
10508.31745519459
 30
0.0
 40
120.0
 41
0.0
 71
     5
 72
     1
  1
\A1;6X420=2520
  7
STYLE1
 73
     1
 44
1.0
1001
ACAD
1000
MTEXTBEGIN
1070
    73
1070
     1
1070
    44
1040
1.0
1070
    74
1070
     0
1000
MTEXTEND
  0
POINT
  5
1884A
330
163E1
100
AcDbEntity
  8
DEFPOINTS
 62
     0
 48
50.0
100
AcDbPoint
 10
5694.183055862406
 20
10192.49742454587
 30
0.0
  0
POINT
  5
1884B
330
163E1
100
AcDbEntity
  8
DEFPOINTS
 62
     0
 48
50.0
100
AcDbPoint
 10
8214.183055862408
 20
10192.49742454596
 30
0.0
  0
POINT
  5
1884C
330
163E1
100
AcDbEntity
  8
DEFPOINTS
 62
     0
 48
50.0
100
AcDbPoint
 10
8214.183055862408
 20
10408.30564417096
 30
0.0
  0
ENDBLK
  5
16626
330
163E1
100
AcDbEntity
  8
0
 48
50.0
100
AcDbBlockEnd
  0
BLOCK
  5
164B0
330
163ED
100
AcDbEntity
  8
0
 48
50.0
100
AcDbBlockBegin
  2
*D12
 70
     1
 10
0.0
 20
0.0
 30
0.0
  3
*D12
  1

  0
LINE
  5
18839
330
163ED
100
AcDbEntity
  8
寸法
 62
     0
 48
50.0
370
    -2
100
AcDbLine
 10
3009.183055862373
 20
10212.49742454587
 30
0.0
 11
3009.183055862373
 21
10468.30564417085
 31
0.0
  0
LINE
  5
1883A
330
163ED
100
AcDbEntity
  8
寸法
 62
     0
 48
50.0
370
    -2
100
AcDbLine
 10
3064.183055862407
 20
10212.49742454587
 30
0.0
 11
3064.183055862407
 21
10468.30564417085
 31
0.0
  0
LINE
  5
1883B
330
163ED
100
AcDbEntity
  8
寸法
 62
     0
 48
50.0
370
    -2
100
AcDbLine
 10
3064.183055862407
 20
10408.30564417085
 30
0.0
 11
3164.183055862407
 21
10408.30564417085
 31
0.0
  0
LINE
  5
1883C
330
163ED
100
AcDbEntity
  8
寸法
 62
     0
 48
50.0
370
    -2
100
AcDbLine
 10
3009.183055862373
 20
10408.30564417085
 30
0.0
 11
2592.212493113895
 21
10408.30564417085
 31
0.0
  0
LINE
  5
1883D
330
163ED
100
AcDbEntity
  8
寸法
 62
     0
 48
50.0
370
    -2
100
AcDbLine
 10
3064.183055862407
 20
10408.30564417085
 30
0.0
 11
3009.183055862373
 21
10408.30564417085
 31
0.0
  0
INSERT
  5
1883E
330
163ED
100
AcDbEntity
  8
寸法
 62
     0
 48
50.0
370
    -2
100
AcDbBlockReference
  2
_DOTSMALL
 10
3064.183055862407
 20
10408.30564417085
 30
0.0
 41
100.0
 42
100.0
 43
100.0
 50
180.0
  0
INSERT
  5
1883F
330
163ED
100
AcDbEntity
  8
寸法
 62
     0
 48
50.0
370
    -2
100
AcDbBlockReference
  2
_DOTSMALL
 10
3009.183055862373
 20
10408.30564417085
 30
0.0
 41
100.0
 42
100.0
 43
100.0
  0
MTEXT
  5
18840
330
163ED
100
AcDbEntity
  8
寸法
 62
     7
 48
50.0
100
AcDbMText
 10
2700.697774488134
 20
10508.30564417085
 30
0.0
 40
120.0
 41
0.0
 71
     5
 72
     1
  1
\A1;55
  7
STYLE1
 73
     1
 44
1.0
1001
ACAD
1000
MTEXTBEGIN
1070
    73
1070
     1
1070
    44
1040
1.0
1070
    74
1070
     0
1000
MTEXTEND
  0
POINT
  5
18841
330
163ED
100
AcDbEntity
  8
DEFPOINTS
 62
     0
 48
50.0
100
AcDbPoint
 10
3009.183055862373
 20
10192.49742454587
 30
0.0
  0
POINT
  5
18842
330
163ED
100
AcDbEntity
  8
DEFPOINTS
 62
     0
 48
50.0
100
AcDbPoint
 10
3064.183055862407
 20
10192.49742454587
 30
0.0
  0
POINT
  5
18843
330
163ED
100
AcDbEntity
  8
DEFPOINTS
 62
     0
 48
50.0
100
AcDbPoint
 10
3064.183055862407
 20
10408.30564417085
 30
0.0
  0
ENDBLK
  5
164BC
330
163ED
100
AcDbEntity
  8
0
 48
50.0
100
AcDbBlockEnd
  0
BLOCK
  5
164BD
330
163FB
100
AcDbEntity
  8
0
 48
50.0
100
AcDbBlockBegin
  2
*D13
 70
     1
 10
0.0
 20
0.0
 30
0.0
  3
*D13
  1

  0
LINE
  5
1882E
330
163FB
100
AcDbEntity
  8
寸法
 62
     0
 48
50.0
370
    -2
100
AcDbLine
 10
8214.183055862408
 20
10212.49742454596
 30
0.0
 11
8214.183055862408
 21
10468.30564417095
 31
0.0
  0
LINE
  5
1882F
330
163FB
100
AcDbEntity
  8
寸法
 62
     0
 48
50.0
370
    -2
100
AcDbLine
 10
8269.183055862407
 20
10212.49742454596
 30
0.0
 11
8269.183055862407
 21
10468.30564417095
 31
0.0
  0
LINE
  5
18830
330
163FB
100
AcDbEntity
  8
寸法
 62
     0
 48
50.0
370
    -2
100
AcDbLine
 10
8214.183055862408
 20
10408.30564417095
 30
0.0
 11
8114.183055862408
 21
10408.30564417095
 31
0.0
  0
LINE
  5
18831
330
163FB
100
AcDbEntity
  8
寸法
 62
     0
 48
50.0
370
    -2
100
AcDbLine
 10
8269.183055862407
 20
10408.30564417095
 30
0.0
 11
8686.153618610886
 21
10408.30564417095
 31
0.0
  0
LINE
  5
18832
330
163FB
100
AcDbEntity
  8
寸法
 62
     0
 48
50.0
370
    -2
100
AcDbLine
 10
8214.183055862408
 20
10408.30564417095
 30
0.0
 11
8269.183055862407
 21
10408.30564417095
 31
0.0
  0
INSERT
  5
18833
330
163FB
100
AcDbEntity
  8
寸法
 62
     0
 48
50.0
370
    -2
100
AcDbBlockReference
  2
_DOTSMALL
 10
8214.183055862408
 20
10408.30564417095
 30
0.0
 41
100.0
 42
100.0
 43
100.0
  0
INSERT
  5
18834
330
163FB
100
AcDbEntity
  8
寸法
 62
     0
 48
50.0
370
    -2
100
AcDbBlockReference
  2
_DOTSMALL
 10
8269.183055862407
 20
10408.30564417095
 30
0.0
 41
100.0
 42
100.0
 43
100.0
 50
180.0
  0
MTEXT
  5
18835
330
163FB
100
AcDbEntity
  8
寸法
 62
     7
 48
50.0
100
AcDbMText
 10
8577.668337236646
 20
10508.30564417095
 30
0.0
 40
120.0
 41
0.0
 71
     5
 72
     1
  1
\A1;55
  7
STYLE1
 73
     1
 44
1.0
1001
ACAD
1000
MTEXTBEGIN
1070
    73
1070
     1
1070
    44
1040
1.0
1070
    74
1070
     0
1000
MTEXTEND
  0
POINT
  5
18836
330
163FB
100
AcDbEntity
  8
DEFPOINTS
 62
     0
 48
50.0
100
AcDbPoint
 10
8214.183055862408
 20
10192.49742454596
 30
0.0
  0
POINT
  5
18837
330
163FB
100
AcDbEntity
  8
DEFPOINTS
 62
     0
 48
50.0
100
AcDbPoint
 10
8269.183055862407
 20
10192.49742454596
 30
0.0
  0
POINT
  5
18838
330
163FB
100
AcDbEntity
  8
DEFPOINTS
 62
     0
 48
50.0
100
AcDbPoint
 10
8269.183055862407
 20
10408.30564417095
 30
0.0
  0
ENDBLK
  5
164C9
330
163FB
100
AcDbEntity
  8
0
 48
50.0
100
AcDbBlockEnd
  0
BLOCK
  5
1659F
330
1659E
100
AcDbEntity
  8
0
 48
50.0
100
AcDbBlockBegin
  2
*D14
 70
     1
 10
0.0
 20
0.0
 30
0.0
  3
*D14
  1

  0
LINE
  5
1881B
330
1659E
100
AcDbEntity
  8
寸法
 62
     0
 48
50.0
370
    -2
100
AcDbLine
 10
3112.183055862401
 20
7148.497424545865
 30
0.0
 11
3112.183055862401
 21
6548.0666537797
 31
0.0
  0
LINE
  5
1881C
330
1659E
100
AcDbEntity
  8
寸法
 62
     0
 48
50.0
370
    -2
100
AcDbLine
 10
5536.183055862382
 20
6608.0666537797
 30
0.0
 11
3112.183055862401
 21
6608.0666537797
 31
0.0
  0
INSERT
  5
1881D
330
1659E
100
AcDbEntity
  8
寸法
 62
     0
 48
50.0
370
    -2
100
AcDbBlockReference
  2
_DOTSMALL
 10
5536.183055862382
 20
6608.0666537797
 30
0.0
 41
100.0
 42
100.0
 43
100.0
  0
INSERT
  5
1881E
330
1659E
100
AcDbEntity
  8
寸法
 62
     0
 48
50.0
370
    -2
100
AcDbBlockReference
  2
_DOTSMALL
 10
3112.183055862401
 20
6608.0666537797
 30
0.0
 41
100.0
 42
100.0
 43
100.0
 50
180.0
  0
MTEXT
  5
1881F
330
1659E
100
AcDbEntity
  8
寸法
 62
     7
 48
50.0
100
AcDbMText
 10
4324.183055862391
 20
6708.078464803323
 30
0.0
 40
120.0
 41
0.0
 71
     5
 72
     1
  1
\A1;有効開口部間口 2424
  7
STYLE1
 73
     1
 44
1.0
1001
ACAD
1000
MTEXTBEGIN
1070
    73
1070
     1
1070
    44
1040
1.0
1070
    74
1070
     0
1000
MTEXTEND
  0
POINT
  5
18820
330
1659E
100
AcDbEntity
  8
DEFPOINTS
 62
     0
 48
50.0
100
AcDbPoint
 10
5536.183055862382
 20
7168.497424545865
 30
0.0
  0
POINT
  5
18821
330
1659E
100
AcDbEntity
  8
DEFPOINTS
 62
     0
 48
50.0
100
AcDbPoint
 10
3112.183055862401
 20
7168.497424545865
 30
0.0
  0
POINT
  5
18822
330
1659E
100
AcDbEntity
  8
DEFPOINTS
 62
     0
 48
50.0
100
AcDbPoint
 10
3112.183055862401
 20
6608.0666537797
 30
0.0
  0
ENDBLK
  5
165A8
330
1659E
100
AcDbEntity
  8
0
 48
50.0
100
AcDbBlockEnd
  0
BLOCK
  5
165B6
330
165B5
100
AcDbEntity
  8
0
 48
50.0
100
AcDbBlockBegin
  2
*D15
 70
     1
 10
0.0
 20
0.0
 30
0.0
  3
*D15
  1

  0
LINE
  5
18810
330
165B5
100
AcDbEntity
  8
寸法
 62
     0
 48
50.0
370
    -2
100
AcDbLine
 10
3112.183055862401
 20
7148.497424545865
 30
0.0
 11
3112.183055862401
 21
6548.0666537797
 31
0.0
  0
LINE
  5
18811
330
165B5
100
AcDbEntity
  8
寸法
 62
     0
 48
50.0
370
    -2
100
AcDbLine
 10
3064.183055862397
 20
7122.497424545864
 30
0.0
 11
3064.183055862397
 21
6548.0666537797
 31
0.0
  0
LINE
  5
18812
330
165B5
100
AcDbEntity
  8
寸法
 62
     0
 48
50.0
370
    -2
100
AcDbLine
 10
3112.183055862401
 20
6608.0666537797
 30
0.0
 11
3212.1830558624
 21
6608.0666537797
 31
0.0
  0
LINE
  5
18813
330
165B5
100
AcDbEntity
  8
寸法
 62
     0
 48
50.0
370
    -2
100
AcDbLine
 10
3064.183055862397
 20
6608.0666537797
 30
0.0
 11
2964.183055862397
 21
6608.0666537797
 31
0.0
  0
MTEXT
  5
18814
330
165B5
100
AcDbEntity
  8
寸法
 62
     7
 48
50.0
100
AcDbMText
 10
3225.085026862458
 20
6708.0666537797
 30
0.0
 40
120.0
 41
0.0
 71
     5
 72
     1
  1
\A1;48
  7
STYLE1
 73
     1
 44
1.0
1001
ACAD
1000
MTEXTBEGIN
1070
    73
1070
     1
1070
    44
1040
1.0
1070
    74
1070
     0
1000
MTEXTEND
  0
LINE
  5
18815
330
165B5
100
AcDbEntity
  8
寸法
 62
     0
 48
50.0
370
    -2
100
AcDbLine
 10
3112.183055862401
 20
6608.0666537797
 30
0.0
 11
3064.183055862397
 21
6608.0666537797
 31
0.0
  0
INSERT
  5
18816
330
165B5
100
AcDbEntity
  8
寸法
 62
     0
 48
50.0
370
    -2
100
AcDbBlockReference
  2
_DOTSMALL
 10
3112.183055862401
 20
6608.0666537797
 30
0.0
 41
100.0
 42
100.0
 43
100.0
 50
180.0
  0
INSERT
  5
18817
330
165B5
100
AcDbEntity
  8
寸法
 62
     0
 48
50.0
370
    -2
100
AcDbBlockReference
  2
_DOTSMALL
 10
3064.183055862397
 20
6608.0666537797
 30
0.0
 41
100.0
 42
100.0
 43
100.0
  0
POINT
  5
18818
330
165B5
100
AcDbEntity
  8
DEFPOINTS
 62
     0
 48
50.0
100
AcDbPoint
 10
3112.183055862401
 20
7168.497424545865
 30
0.0
  0
POINT
  5
18819
330
165B5
100
AcDbEntity
  8
DEFPOINTS
 62
     0
 48
50.0
100
AcDbPoint
 10
3064.183055862397
 20
7142.497424545864
 30
0.0
  0
POINT
  5
1881A
330
165B5
100
AcDbEntity
  8
DEFPOINTS
 62
     0
 48
50.0
100
AcDbPoint
 10
3064.183055862397
 20
6608.0666537797
 30
0.0
  0
ENDBLK
  5
165C3
330
165B5
100
AcDbEntity
  8
0
 48
50.0
100
AcDbBlockEnd
  0
BLOCK
  5
165C5
330
165C4
100
AcDbEntity
  8
0
 48
50.0
100
AcDbBlockBegin
  2
*D16
 70
     1
 10
0.0
 20
0.0
 30
0.0
  3
*D16
  1

  0
LINE
  5
18823
330
165C4
100
AcDbEntity
  8
寸法
 62
     0
 48
50.0
370
    -2
100
AcDbLine
 10
5584.183055862384
 20
7122.497424545952
 30
0.0
 11
5584.183055862384
 21
6548.0666537797
 31
0.0
  0
LINE
  5
18824
330
165C4
100
AcDbEntity
  8
寸法
 62
     0
 48
50.0
370
    -2
100
AcDbLine
 10
5536.183055862382
 20
7148.497424545865
 30
0.0
 11
5536.183055862382
 21
6548.0666537797
 31
0.0
  0
LINE
  5
18825
330
165C4
100
AcDbEntity
  8
寸法
 62
     0
 48
50.0
370
    -2
100
AcDbLine
 10
5584.183055862384
 20
6608.0666537797
 30
0.0
 11
5684.183055862384
 21
6608.0666537797
 31
0.0
  0
LINE
  5
18826
330
165C4
100
AcDbEntity
  8
寸法
 62
     0
 48
50.0
370
    -2
100
AcDbLine
 10
5536.183055862382
 20
6608.0666537797
 30
0.0
 11
5436.183055862382
 21
6608.0666537797
 31
0.0
  0
MTEXT
  5
18827
330
165C4
100
AcDbEntity
  8
寸法
 62
     7
 48
50.0
100
AcDbMText
 10
5425.220158213635
 20
6708.0666537797
 30
0.0
 40
120.0
 41
0.0
 71
     5
 72
     1
  1
\A1;48
  7
STYLE1
 73
     1
 44
1.0
1001
ACAD
1000
MTEXTBEGIN
1070
    73
1070
     1
1070
    44
1040
1.0
1070
    74
1070
     0
1000
MTEXTEND
  0
LINE
  5
18828
330
165C4
100
AcDbEntity
  8
寸法
 62
     0
 48
50.0
370
    -2
100
AcDbLine
 10
5584.183055862384
 20
6608.0666537797
 30
0.0
 11
5536.183055862382
 21
6608.0666537797
 31
0.0
  0
INSERT
  5
18829
330
165C4
100
AcDbEntity
  8
寸法
 62
     0
 48
50.0
370
    -2
100
AcDbBlockReference
  2
_DOTSMALL
 10
5584.183055862384
 20
6608.0666537797
 30
0.0
 41
100.0
 42
100.0
 43
100.0
 50
180.0
  0
INSERT
  5
1882A
330
165C4
100
AcDbEntity
  8
寸法
 62
     0
 48
50.0
370
    -2
100
AcDbBlockReference
  2
_DOTSMALL
 10
5536.183055862382
 20
6608.0666537797
 30
0.0
 41
100.0
 42
100.0
 43
100.0
  0
POINT
  5
1882B
330
165C4
100
AcDbEntity
  8
DEFPOINTS
 62
     0
 48
50.0
100
AcDbPoint
 10
5584.183055862384
 20
7142.497424545952
 30
0.0
  0
POINT
  5
1882C
330
165C4
100
AcDbEntity
  8
DEFPOINTS
 62
     0
 48
50.0
100
AcDbPoint
 10
5536.183055862382
 20
7168.497424545865
 30
0.0
  0
POINT
  5
1882D
330
165C4
100
AcDbEntity
  8
DEFPOINTS
 62
     0
 48
50.0
100
AcDbPoint
 10
5536.183055862382
 20
6608.0666537797
 30
0.0
  0
ENDBLK
  5
165D2
330
165C4
100
AcDbEntity
  8
0
 48
50.0
100
AcDbBlockEnd
  0
BLOCK
  5
1663F
330
165EA
100
AcDbEntity
  8
0
 48
50.0
100
AcDbBlockBegin
  2
*D17
 70
     1
 10
0.0
 20
0.0
 30
0.0
  3
*D17
  1

  0
LINE
  5
18807
330
165EA
100
AcDbEntity
  8
寸法
 62
     0
 48
50.0
370
    -2
100
AcDbLine
 10
5694.183055862397
 20
7122.497424545864
 30
0.0
 11
5694.183055862397
 21
6548.066653779702
 31
0.0
  0
LINE
  5
18808
330
165EA
100
AcDbEntity
  8
寸法
 62
     0
 48
50.0
370
    -2
100
AcDbLine
 10
5584.183055862384
 20
7122.497424545952
 30
0.0
 11
5584.183055862384
 21
6548.066653779702
 31
0.0
  0
LINE
  5
18809
330
165EA
100
AcDbEntity
  8
寸法
 62
     0
 48
50.0
370
    -2
100
AcDbLine
 10
5694.183055862397
 20
6608.066653779701
 30
0.0
 11
5584.183055862384
 21
6608.066653779701
 31
0.0
  0
MTEXT
  5
1880A
330
165EA
100
AcDbEntity
  8
寸法
 62
     7
 48
50.0
100
AcDbMText
 10
5639.183055862391
 20
6456.37475874347
 30
0.0
 40
120.0
 41
0.0
 71
     5
 72
     1
  1
\A1;110
  7
STYLE1
 73
     1
 44
1.0
1001
ACAD
1000
MTEXTBEGIN
1070
    73
1070
     1
1070
    44
1040
1.0
1070
    74
1070
     0
1000
MTEXTEND
  0
INSERT
  5
1880B
330
165EA
100
AcDbEntity
  8
寸法
 62
     0
 48
50.0
370
    -2
100
AcDbBlockReference
  2
_DOTSMALL
 10
5694.183055862397
 20
6608.066653779701
 30
0.0
 41
100.0
 42
100.0
 43
100.0
  0
INSERT
  5
1880C
330
165EA
100
AcDbEntity
  8
寸法
 62
     0
 48
50.0
370
    -2
100
AcDbBlockReference
  2
_DOTSMALL
 10
5584.183055862384
 20
6608.066653779701
 30
0.0
 41
100.0
 42
100.0
 43
100.0
 50
180.0
  0
POINT
  5
1880D
330
165EA
100
AcDbEntity
  8
DEFPOINTS
 62
     0
 48
50.0
100
AcDbPoint
 10
5694.183055862397
 20
7142.497424545864
 30
0.0
  0
POINT
  5
1880E
330
165EA
100
AcDbEntity
  8
DEFPOINTS
 62
     0
 48
50.0
100
AcDbPoint
 10
5584.183055862384
 20
7142.497424545952
 30
0.0
  0
POINT
  5
1880F
330
165EA
100
AcDbEntity
  8
DEFPOINTS
 62
     0
 48
50.0
100
AcDbPoint
 10
5584.183055862384
 20
6608.066653779701
 30
0.0
  0
ENDBLK
  5
16649
330
165EA
100
AcDbEntity
  8
0
 48
50.0
100
AcDbBlockEnd
  0
BLOCK
  5
166AE
330
166AD
100
AcDbEntity
  8
0
 48
50.0
100
AcDbBlockBegin
  2
*D18
 70
     1
 10
0.0
 20
0.0
 30
0.0
  3
*D18
  1

  0
LINE
  5
187FE
330
166AD
100
AcDbEntity
  8
寸法
 62
     0
 48
50.0
370
    -2
100
AcDbLine
 10
3064.183055862407
 20
10212.49742454587
 30
0.0
 11
3064.183055862407
 21
10468.30564417096
 31
0.0
  0
LINE
  5
187FF
330
166AD
100
AcDbEntity
  8
寸法
 62
     0
 48
50.0
370
    -2
100
AcDbLine
 10
5584.183055862408
 20
10212.49742454596
 30
0.0
 11
5584.183055862408
 21
10468.30564417096
 31
0.0
  0
LINE
  5
18800
330
166AD
100
AcDbEntity
  8
寸法
 62
     0
 48
50.0
370
    -2
100
AcDbLine
 10
3064.183055862407
 20
10408.30564417096
 30
0.0
 11
5584.183055862408
 21
10408.30564417096
 31
0.0
  0
INSERT
  5
18801
330
166AD
100
AcDbEntity
  8
寸法
 62
     0
 48
50.0
370
    -2
100
AcDbBlockReference
  2
_DOTSMALL
 10
3064.183055862407
 20
10408.30564417096
 30
0.0
 41
100.0
 42
100.0
 43
100.0
 50
180.0
  0
INSERT
  5
18802
330
166AD
100
AcDbEntity
  8
寸法
 62
     0
 48
50.0
370
    -2
100
AcDbBlockReference
  2
_DOTSMALL
 10
5584.183055862408
 20
10408.30564417096
 30
0.0
 41
100.0
 42
100.0
 43
100.0
  0
MTEXT
  5
18803
330
166AD
100
AcDbEntity
  8
寸法
 62
     7
 48
50.0
100
AcDbMText
 10
4324.183055862408
 20
10508.31745519459
 30
0.0
 40
120.0
 41
0.0
 71
     5
 72
     1
  1
\A1;6X420=2520
  7
STYLE1
 73
     1
 44
1.0
1001
ACAD
1000
MTEXTBEGIN
1070
    73
1070
     1
1070
    44
1040
1.0
1070
    74
1070
     0
1000
MTEXTEND
  0
POINT
  5
18804
330
166AD
100
AcDbEntity
  8
DEFPOINTS
 62
     0
 48
50.0
100
AcDbPoint
 10
3064.183055862407
 20
10192.49742454587
 30
0.0
  0
POINT
  5
18805
330
166AD
100
AcDbEntity
  8
DEFPOINTS
 62
     0
 48
50.0
100
AcDbPoint
 10
5584.183055862408
 20
10192.49742454596
 30
0.0
  0
POINT
  5
18806
330
166AD
100
AcDbEntity
  8
DEFPOINTS
 62
     0
 48
50.0
100
AcDbPoint
 10
5584.183055862408
 20
10408.30564417096
 30
0.0
  0
ENDBLK
  5
166B8
330
166AD
100
AcDbEntity
  8
0
 48
50.0
100
AcDbBlockEnd
  0
BLOCK
  5
166D0
330
166CF
100
AcDbEntity
  8
0
 48
50.0
100
AcDbBlockBegin
  2
*D19
 70
     1
 10
0.0
 20
0.0
 30
0.0
  3
*D19
  1

  0
LINE
  5
187F3
330
166CF
100
AcDbEntity
  8
寸法
 62
     0
 48
50.0
370
    -2
100
AcDbLine
 10
5694.183055862406
 20
10212.49742454592
 30
0.0
 11
5694.183055862406
 21
10468.30564417096
 31
0.0
  0
LINE
  5
187F4
330
166CF
100
AcDbEntity
  8
寸法
 62
     0
 48
50.0
370
    -2
100
AcDbLine
 10
5584.183055862408
 20
10212.49742454591
 30
0.0
 11
5584.183055862408
 21
10468.30564417096
 31
0.0
  0
LINE
  5
187F5
330
166CF
100
AcDbEntity
  8
寸法
 62
     0
 48
50.0
370
    -2
100
AcDbLine
 10
5694.183055862406
 20
10408.30564417096
 30
0.0
 11
5794.183055862407
 21
10408.30564417096
 31
0.0
  0
LINE
  5
187F6
330
166CF
100
AcDbEntity
  8
寸法
 62
     0
 48
50.0
370
    -2
100
AcDbLine
 10
5584.183055862408
 20
10408.30564417096
 30
0.0
 11
5484.183055862408
 21
10408.30564417096
 31
0.0
  0
LINE
  5
187F7
330
166CF
100
AcDbEntity
  8
寸法
 62
     0
 48
50.0
370
    -2
100
AcDbLine
 10
5694.183055862406
 20
10408.30564417096
 30
0.0
 11
5584.183055862408
 21
10408.30564417096
 31
0.0
  0
INSERT
  5
187F8
330
166CF
100
AcDbEntity
  8
寸法
 62
     0
 48
50.0
370
    -2
100
AcDbBlockReference
  2
_DOTSMALL
 10
5694.183055862406
 20
10408.30564417096
 30
0.0
 41
100.0
 42
100.0
 43
100.0
 50
180.0
  0
INSERT
  5
187F9
330
166CF
100
AcDbEntity
  8
寸法
 62
     0
 48
50.0
370
    -2
100
AcDbBlockReference
  2
_DOTSMALL
 10
5584.183055862408
 20
10408.30564417096
 30
0.0
 41
100.0
 42
100.0
 43
100.0
  0
MTEXT
  5
187FA
330
166CF
100
AcDbEntity
  8
寸法
 62
     7
 48
50.0
100
AcDbMText
 10
5639.183055862408
 20
10508.30564417096
 30
0.0
 40
120.0
 41
0.0
 71
     5
 72
     1
  1
\A1;110
  7
STYLE1
 73
     1
 44
1.0
1001
ACAD
1000
MTEXTBEGIN
1070
    73
1070
     1
1070
    44
1040
1.0
1070
    74
1070
     0
1000
MTEXTEND
  0
POINT
  5
187FB
330
166CF
100
AcDbEntity
  8
DEFPOINTS
 62
     0
 48
50.0
100
AcDbPoint
 10
5694.183055862406
 20
10192.49742454592
 30
0.0
  0
POINT
  5
187FC
330
166CF
100
AcDbEntity
  8
DEFPOINTS
 62
     0
 48
50.0
100
AcDbPoint
 10
5584.183055862408
 20
10192.49742454591
 30
0.0
  0
POINT
  5
187FD
330
166CF
100
AcDbEntity
  8
DEFPOINTS
 62
     0
 48
50.0
100
AcDbPoint
 10
5584.183055862408
 20
10408.30564417096
 30
0.0
  0
ENDBLK
  5
166DC
330
166CF
100
AcDbEntity
  8
0
 48
50.0
100
AcDbBlockEnd
  0
BLOCK
  5
16948
330
168FB
100
AcDbEntity
  8
0
 48
50.0
100
AcDbBlockBegin
  2
*D20
 70
     1
 10
0.0
 20
0.0
 30
0.0
  3
*D20
  1

  0
LINE
  5
187EA
330
168FB
100
AcDbEntity
  8
寸法
 62
     0
 48
50.0
370
    -2
100
AcDbLine
 10
3009.183055862373
 20
10212.49742454583
 30
0.0
 11
3009.183055862373
 21
10717.62711772726
 31
0.0
  0
LINE
  5
187EB
330
168FB
100
AcDbEntity
  8
寸法
 62
     0
 48
50.0
370
    -2
100
AcDbLine
 10
5639.183055862408
 20
10587.29355852891
 30
0.0
 11
5639.183055862408
 21
10717.62711772726
 31
0.0
  0
LINE
  5
187EC
330
168FB
100
AcDbEntity
  8
寸法
 62
     0
 48
50.0
370
    -2
100
AcDbLine
 10
3009.183055862373
 20
10657.62711772726
 30
0.0
 11
5639.183055862408
 21
10657.62711772726
 31
0.0
  0
INSERT
  5
187ED
330
168FB
100
AcDbEntity
  8
寸法
 62
     0
 48
50.0
370
    -2
100
AcDbBlockReference
  2
_DOTSMALL
 10
3009.183055862373
 20
10657.62711772726
 30
0.0
 41
100.0
 42
100.0
 43
100.0
 50
180.0
  0
INSERT
  5
187EE
330
168FB
100
AcDbEntity
  8
寸法
 62
     0
 48
50.0
370
    -2
100
AcDbBlockReference
  2
_DOTSMALL
 10
5639.183055862408
 20
10657.62711772726
 30
0.0
 41
100.0
 42
100.0
 43
100.0
  0
MTEXT
  5
187EF
330
168FB
100
AcDbEntity
  8
寸法
 62
     7
 48
50.0
100
AcDbMText
 10
4324.183055862389
 20
10757.63892875088
 30
0.0
 40
120.0
 41
0.0
 71
     5
 72
     1
  1
\A1;2630
  7
STYLE1
 73
     1
 44
1.0
1001
ACAD
1000
MTEXTBEGIN
1070
    73
1070
     1
1070
    44
1040
1.0
1070
    74
1070
     0
1000
MTEXTEND
  0
POINT
  5
187F0
330
168FB
100
AcDbEntity
  8
DEFPOINTS
 62
     0
 48
50.0
100
AcDbPoint
 10
3009.183055862373
 20
10192.49742454583
 30
0.0
  0
POINT
  5
187F1
330
168FB
100
AcDbEntity
  8
DEFPOINTS
 62
     0
 48
50.0
100
AcDbPoint
 10
5639.183055862408
 20
10567.29355852891
 30
0.0
  0
POINT
  5
187F2
330
168FB
100
AcDbEntity
  8
DEFPOINTS
 62
     0
 48
50.0
100
AcDbPoint
 10
5639.183055862408
 20
10657.62711772726
 30
0.0
  0
ENDBLK
  5
16952
330
168FB
100
AcDbEntity
  8
0
 48
50.0
100
AcDbBlockEnd
  0
BLOCK
  5
1693E
330
16908
100
AcDbEntity
  8
0
 48
50.0
100
AcDbBlockBegin
  2
*D21
 70
     1
 10
0.0
 20
0.0
 30
0.0
  3
*D21
  1

  0
LINE
  5
187E2
330
16908
100
AcDbEntity
  8
寸法
 62
     0
 48
50.0
370
    -2
100
AcDbLine
 10
8269.183055862407
 20
10212.49742454596
 30
0.0
 11
8269.183055862407
 21
10717.62711772726
 31
0.0
  0
LINE
  5
187E3
330
16908
100
AcDbEntity
  8
寸法
 62
     0
 48
50.0
370
    -2
100
AcDbLine
 10
5639.183055862408
 20
10657.62711772726
 30
0.0
 11
8269.183055862407
 21
10657.62711772726
 31
0.0
  0
INSERT
  5
187E4
330
16908
100
AcDbEntity
  8
寸法
 62
     0
 48
50.0
370
    -2
100
AcDbBlockReference
  2
_DOTSMALL
 10
5639.183055862408
 20
10657.62711772726
 30
0.0
 41
100.0
 42
100.0
 43
100.0
 50
180.0
  0
INSERT
  5
187E5
330
16908
100
AcDbEntity
  8
寸法
 62
     0
 48
50.0
370
    -2
100
AcDbBlockReference
  2
_DOTSMALL
 10
8269.183055862407
 20
10657.62711772726
 30
0.0
 41
100.0
 42
100.0
 43
100.0
  0
MTEXT
  5
187E6
330
16908
100
AcDbEntity
  8
寸法
 62
     7
 48
50.0
100
AcDbMText
 10
6954.183055862408
 20
10757.63892875088
 30
0.0
 40
120.0
 41
0.0
 71
     5
 72
     1
  1
\A1;2630
  7
STYLE1
 73
     1
 44
1.0
1001
ACAD
1000
MTEXTBEGIN
1070
    73
1070
     1
1070
    44
1040
1.0
1070
    74
1070
     0
1000
MTEXTEND
  0
POINT
  5
187E7
330
16908
100
AcDbEntity
  8
DEFPOINTS
 62
     0
 48
50.0
100
AcDbPoint
 10
5639.183055862408
 20
10567.29355852891
 30
0.0
  0
POINT
  5
187E8
330
16908
100
AcDbEntity
  8
DEFPOINTS
 62
     0
 48
50.0
100
AcDbPoint
 10
8269.183055862407
 20
10192.49742454596
 30
0.0
  0
POINT
  5
187E9
330
16908
100
AcDbEntity
  8
DEFPOINTS
 62
     0
 48
50.0
100
AcDbPoint
 10
8269.183055862407
 20
10657.62711772726
 30
0.0
  0
ENDBLK
  5
16947
330
16908
100
AcDbEntity
  8
0
 48
50.0
100
AcDbBlockEnd
  0
BLOCK
  5
17ACF
330
17AC5
100
AcDbEntity
  8
0
 48
50.0
100
AcDbBlockBegin
  2
*D22
 70
     1
 10
0.0
 20
0.0
 30
0.0
  3
*D22
  1

  0
LINE
  5
18962
330
17AC5
100
AcDbEntity
  8
寸法
 62
     0
 48
50.0
370
    -2
100
AcDbLine
 10
10940.01894680479
 20
4381.856458683491
 30
0.0
 11
10056.26881762154
 21
4381.856458683492
 31
0.0
  0
LINE
  5
18963
330
17AC5
100
AcDbEntity
  8
寸法
 62
     0
 48
50.0
370
    -2
100
AcDbLine
 10
10940.01894680479
 20
2291.85645868349
 30
0.0
 11
10056.26881762154
 21
2291.85645868349
 31
0.0
  0
LINE
  5
18964
330
17AC5
100
AcDbEntity
  8
寸法
 62
     0
 48
50.0
370
    -2
100
AcDbLine
 10
10116.26881762154
 20
4381.856458683492
 30
0.0
 11
10116.26881762154
 21
2291.85645868349
 31
0.0
  0
INSERT
  5
18965
330
17AC5
100
AcDbEntity
  8
寸法
 62
     0
 48
50.0
370
    -2
100
AcDbBlockReference
  2
_DOTSMALL
 10
10116.26881762154
 20
4381.856458683492
 30
0.0
 41
100.0
 42
100.0
 43
100.0
 50
90.0
  0
INSERT
  5
18966
330
17AC5
100
AcDbEntity
  8
寸法
 62
     0
 48
50.0
370
    -2
100
AcDbBlockReference
  2
_DOTSMALL
 10
10116.26881762154
 20
2291.85645868349
 30
0.0
 41
100.0
 42
100.0
 43
100.0
 50
270.0
  0
MTEXT
  5
18967
330
17AC5
100
AcDbEntity
  8
寸法
 62
     7
 48
50.0
100
AcDbMText
 10
10016.25700659791
 20
3336.856458683492
 30
0.0
 40
120.0
 41
0.0
 71
     5
 72
     1
  1
\A1;2090
  7
STYLE1
 11
0.0000000000000001
 21
1.0
 31
0.0
 73
     1
 44
1.0
1001
ACAD
1000
MTEXTBEGIN
1070
    73
1070
     1
1070
    44
1040
1.0
1070
    74
1070
     0
1000
MTEXTEND
  0
POINT
  5
18968
330
17AC5
100
AcDbEntity
  8
DEFPOINTS
 62
     0
 48
50.0
100
AcDbPoint
 10
10960.01894680479
 20
4381.856458683491
 30
0.0
  0
POINT
  5
18969
330
17AC5
100
AcDbEntity
  8
DEFPOINTS
 62
     0
 48
50.0
100
AcDbPoint
 10
10960.01894680479
 20
2291.85645868349
 30
0.0
  0
POINT
  5
1896A
330
17AC5
100
AcDbEntity
  8
DEFPOINTS
 62
     0
 48
50.0
100
AcDbPoint
 10
10116.26881762154
 20
2291.85645868349
 30
0.0
  0
ENDBLK
  5
17AD0
330
17AC5
100
AcDbEntity
  8
0
 48
50.0
100
AcDbBlockEnd
  0
BLOCK
  5
17ADB
330
17AD1
100
AcDbEntity
  8
0
 48
50.0
100
AcDbBlockBegin
  2
*D23
 70
     1
 10
0.0
 20
0.0
 30
0.0
  3
*D23
  1

  0
LINE
  5
18959
330
17AD1
100
AcDbEntity
  8
寸法
 62
     0
 48
50.0
370
    -2
100
AcDbLine
 10
10940.01894680479
 20
2241.85645868349
 30
0.0
 11
9756.268817621537
 21
2241.85645868349
 31
0.0
  0
LINE
  5
1895A
330
17AD1
100
AcDbEntity
  8
寸法
 62
     0
 48
50.0
370
    -2
100
AcDbLine
 10
10880.01894680479
 20
4616.856458683495
 30
0.0
 11
9756.268817621538
 21
4616.856458683495
 31
0.0
  0
LINE
  5
1895B
330
17AD1
100
AcDbEntity
  8
寸法
 62
     0
 48
50.0
370
    -2
100
AcDbLine
 10
9816.268817621537
 20
2241.85645868349
 30
0.0
 11
9816.268817621539
 21
4616.856458683495
 31
0.0
  0
INSERT
  5
1895C
330
17AD1
100
AcDbEntity
  8
寸法
 62
     0
 48
50.0
370
    -2
100
AcDbBlockReference
  2
_DOTSMALL
 10
9816.268817621537
 20
2241.85645868349
 30
0.0
 41
100.0
 42
100.0
 43
100.0
 50
270.0
  0
INSERT
  5
1895D
330
17AD1
100
AcDbEntity
  8
寸法
 62
     0
 48
50.0
370
    -2
100
AcDbBlockReference
  2
_DOTSMALL
 10
9816.268817621539
 20
4616.856458683495
 30
0.0
 41
100.0
 42
100.0
 43
100.0
 50
90.0
  0
MTEXT
  5
1895E
330
17AD1
100
AcDbEntity
  8
寸法
 62
     7
 48
50.0
100
AcDbMText
 10
9716.257006597913
 20
3429.356458683494
 30
0.0
 40
120.0
 41
0.0
 71
     5
 72
     1
  1
\A1;2375
  7
STYLE1
 11
0.0000000000000001
 21
1.0
 31
0.0
 73
     1
 44
1.0
1001
ACAD
1000
MTEXTBEGIN
1070
    73
1070
     1
1070
    44
1040
1.0
1070
    74
1070
     0
1000
MTEXTEND
  0
POINT
  5
1895F
330
17AD1
100
AcDbEntity
  8
DEFPOINTS
 62
     0
 48
50.0
100
AcDbPoint
 10
10960.01894680479
 20
2241.85645868349
 30
0.0
  0
POINT
  5
18960
330
17AD1
100
AcDbEntity
  8
DEFPOINTS
 62
     0
 48
50.0
100
AcDbPoint
 10
10900.01894680479
 20
4616.856458683495
 30
0.0
  0
POINT
  5
18961
330
17AD1
100
AcDbEntity
  8
DEFPOINTS
 62
     0
 48
50.0
100
AcDbPoint
 10
9816.268817621539
 20
4616.856458683495
 30
0.0
  0
ENDBLK
  5
17ADC
330
17AD1
100
AcDbEntity
  8
0
 48
50.0
100
AcDbBlockEnd
  0
BLOCK
  5
17AE7
330
17ADD
100
AcDbEntity
  8
0
 48
50.0
100
AcDbBlockBegin
  2
*D24
 70
     1
 10
0.0
 20
0.0
 30
0.0
  3
*D24
  1

  0
LINE
  5
18950
330
17ADD
100
AcDbEntity
  8
寸法
 62
     0
 48
50.0
370
    -2
100
AcDbLine
 10
14030.0189468048
 20
2241.856458683497
 30
0.0
 11
14774.94610477692
 21
2241.856458683497
 31
0.0
  0
LINE
  5
18951
330
17ADD
100
AcDbEntity
  8
寸法
 62
     0
 48
50.0
370
    -2
100
AcDbLine
 10
14110.0189468048
 20
4561.856458683496
 30
0.0
 11
14774.94610477692
 21
4561.856458683496
 31
0.0
  0
LINE
  5
18952
330
17ADD
100
AcDbEntity
  8
寸法
 62
     0
 48
50.0
370
    -2
100
AcDbLine
 10
14714.94610477692
 20
2241.856458683497
 30
0.0
 11
14714.94610477692
 21
4561.856458683496
 31
0.0
  0
INSERT
  5
18953
330
17ADD
100
AcDbEntity
  8
寸法
 62
     0
 48
50.0
370
    -2
100
AcDbBlockReference
  2
_DOTSMALL
 10
14714.94610477692
 20
2241.856458683497
 30
0.0
 41
100.0
 42
100.0
 43
100.0
 50
270.0
  0
INSERT
  5
18954
330
17ADD
100
AcDbEntity
  8
寸法
 62
     0
 48
50.0
370
    -2
100
AcDbBlockReference
  2
_DOTSMALL
 10
14714.94610477692
 20
4561.856458683496
 30
0.0
 41
100.0
 42
100.0
 43
100.0
 50
90.0
  0
MTEXT
  5
18955
330
17ADD
100
AcDbEntity
  8
寸法
 62
     7
 48
50.0
100
AcDbMText
 10
14614.9342937533
 20
3401.856458683499
 30
0.0
 40
120.0
 41
0.0
 71
     5
 72
     1
  1
\A1;2320
  7
STYLE1
 11
0.0000000000000001
 21
1.0
 31
0.0
 73
     1
 44
1.0
1001
ACAD
1000
MTEXTBEGIN
1070
    73
1070
     1
1070
    44
1040
1.0
1070
    74
1070
     0
1000
MTEXTEND
  0
POINT
  5
18956
330
17ADD
100
AcDbEntity
  8
DEFPOINTS
 62
     0
 48
50.0
100
AcDbPoint
 10
14010.0189468048
 20
2241.856458683497
 30
0.0
  0
POINT
  5
18957
330
17ADD
100
AcDbEntity
  8
DEFPOINTS
 62
     0
 48
50.0
100
AcDbPoint
 10
14090.0189468048
 20
4561.856458683496
 30
0.0
  0
POINT
  5
18958
330
17ADD
100
AcDbEntity
  8
DEFPOINTS
 62
     0
 48
50.0
100
AcDbPoint
 10
14714.94610477692
 20
4561.856458683496
 30
0.0
  0
ENDBLK
  5
17AE8
330
17ADD
100
AcDbEntity
  8
0
 48
50.0
100
AcDbBlockEnd
  0
BLOCK
  5
17B02
330
17AF6
100
AcDbEntity
  8
0
 48
50.0
100
AcDbBlockBegin
  2
*D25
 70
     1
 10
0.0
 20
0.0
 30
0.0
  3
*D25
  1

  0
LINE
  5
1893B
330
17AF6
100
AcDbEntity
  8
寸法
 62
     0
 48
50.0
370
    -2
100
AcDbLine
 10
10940.01894680479
 20
2291.856458683495
 30
0.0
 11
10056.26881762154
 21
2291.856458683495
 31
0.0
  0
LINE
  5
1893C
330
17AF6
100
AcDbEntity
  8
寸法
 62
     0
 48
50.0
370
    -2
100
AcDbLine
 10
10885.0189468048
 20
2241.856458683495
 30
0.0
 11
10056.26881762154
 21
2241.856458683495
 31
0.0
  0
LINE
  5
1893D
330
17AF6
100
AcDbEntity
  8
寸法
 62
     0
 48
50.0
370
    -2
100
AcDbLine
 10
10116.26881762154
 20
2291.856458683495
 30
0.0
 11
10116.26881762154
 21
2391.856458683495
 31
0.0
  0
LINE
  5
1893E
330
17AF6
100
AcDbEntity
  8
寸法
 62
     0
 48
50.0
370
    -2
100
AcDbLine
 10
10116.26881762154
 20
2241.856458683495
 30
0.0
 11
10116.26881762154
 21
1829.761970494515
 31
0.0
  0
LINE
  5
1893F
330
17AF6
100
AcDbEntity
  8
寸法
 62
     0
 48
50.0
370
    -2
100
AcDbLine
 10
10116.26881762154
 20
2291.856458683495
 30
0.0
 11
10116.26881762154
 21
2241.856458683495
 31
0.0
  0
INSERT
  5
18940
330
17AF6
100
AcDbEntity
  8
寸法
 62
     0
 48
50.0
370
    -2
100
AcDbBlockReference
  2
_DOTSMALL
 10
10116.26881762154
 20
2291.856458683495
 30
0.0
 41
100.0
 42
100.0
 43
100.0
 50
270.0
  0
INSERT
  5
18941
330
17AF6
100
AcDbEntity
  8
寸法
 62
     0
 48
50.0
370
    -2
100
AcDbBlockReference
  2
_DOTSMALL
 10
10116.26881762154
 20
2241.856458683495
 30
0.0
 41
100.0
 42
100.0
 43
100.0
 50
90.0
  0
MTEXT
  5
18942
330
17AF6
100
AcDbEntity
  8
寸法
 62
     7
 48
50.0
100
AcDbMText
 10
10016.26881762154
 20
1935.809214589005
 30
0.0
 40
120.0
 41
0.0
 71
     5
 72
     1
  1
\A1;50
  7
STYLE1
 11
0.0000000000000001
 21
1.0
 31
0.0
 73
     1
 44
1.0
1001
ACAD
1000
MTEXTBEGIN
1070
    73
1070
     1
1070
    44
1040
1.0
1070
    74
1070
     0
1000
MTEXTEND
  0
POINT
  5
18943
330
17AF6
100
AcDbEntity
  8
DEFPOINTS
 62
     0
 48
50.0
100
AcDbPoint
 10
10960.01894680479
 20
2291.856458683495
 30
0.0
  0
POINT
  5
18944
330
17AF6
100
AcDbEntity
  8
DEFPOINTS
 62
     0
 48
50.0
100
AcDbPoint
 10
10905.0189468048
 20
2241.856458683495
 30
0.0
  0
POINT
  5
18945
330
17AF6
100
AcDbEntity
  8
DEFPOINTS
 62
     0
 48
50.0
100
AcDbPoint
 10
10116.26881762154
 20
2241.856458683495
 30
0.0
  0
ENDBLK
  5
17B03
330
17AF6
100
AcDbEntity
  8
0
 48
50.0
100
AcDbBlockEnd
  0
BLOCK
  5
17B0E
330
17B04
100
AcDbEntity
  8
0
 48
50.0
100
AcDbBlockBegin
  2
*D26
 70
     1
 10
0.0
 20
0.0
 30
0.0
  3
*D26
  1

  0
LINE
  5
1904A
330
17B04
100
AcDbEntity
  8
寸法
 62
     0
 48
50.0
370
    -2
100
AcDbLine
 10
14010.0189468048
 20
4583.66713829515
 30
0.0
 11
14010.0189468048
 21
5075.513912262801
 31
0.0
  0
LINE
  5
1904B
330
17B04
100
AcDbEntity
  8
寸法
 62
     0
 48
50.0
370
    -2
100
AcDbLine
 10
10960.01894680479
 20
4632.858076806471
 30
0.0
 11
10960.01894680479
 21
5075.513912262801
 31
0.0
  0
LINE
  5
1904C
330
17B04
100
AcDbEntity
  8
寸法
 62
     0
 48
50.0
370
    -2
100
AcDbLine
 10
14010.0189468048
 20
5015.5139122628
 30
0.0
 11
10960.01894680479
 21
5015.5139122628
 31
0.0
  0
INSERT
  5
1904D
330
17B04
100
AcDbEntity
  8
寸法
 62
     0
 48
50.0
370
    -2
100
AcDbBlockReference
  2
_DOTSMALL
 10
14010.0189468048
 20
5015.5139122628
 30
0.0
 41
100.0
 42
100.0
 43
100.0
  0
INSERT
  5
1904E
330
17B04
100
AcDbEntity
  8
寸法
 62
     0
 48
50.0
370
    -2
100
AcDbBlockReference
  2
_DOTSMALL
 10
10960.01894680479
 20
5015.5139122628
 30
0.0
 41
100.0
 42
100.0
 43
100.0
 50
180.0
  0
MTEXT
  5
1904F
330
17B04
100
AcDbEntity
  8
寸法
 62
     7
 48
50.0
100
AcDbMText
 10
12485.0189468048
 20
5115.513912262801
 30
0.0
 40
120.0
 41
0.0
 71
     5
 72
     1
  1
\A1;柱外寸法3050
  7
STYLE1
 73
     1
 44
1.0
1001
ACAD
1000
MTEXTBEGIN
1070
    73
1070
     1
1070
    44
1040
1.0
1070
    74
1070
     0
1000
MTEXTEND
  0
POINT
  5
19050
330
17B04
100
AcDbEntity
  8
DEFPOINTS
 62
     0
 48
50.0
100
AcDbPoint
 10
14010.0189468048
 20
4563.66713829515
 30
0.0
  0
POINT
  5
19051
330
17B04
100
AcDbEntity
  8
DEFPOINTS
 62
     0
 48
50.0
100
AcDbPoint
 10
10960.01894680479
 20
4612.858076806471
 30
0.0
  0
POINT
  5
19052
330
17B04
100
AcDbEntity
  8
DEFPOINTS
 62
     0
 48
50.0
100
AcDbPoint
 10
10960.01894680479
 20
5015.5139122628
 30
0.0
  0
ENDBLK
  5
17B0F
330
17B04
100
AcDbEntity
  8
0
 48
50.0
100
AcDbBlockEnd
  0
BLOCK
  5
17B1C
330
17B10
100
AcDbEntity
  8
0
 48
50.0
100
AcDbBlockBegin
  2
*D27
 70
     1
 10
0.0
 20
0.0
 30
0.0
  3
*D27
  1

  0
LINE
  5
18927
330
17B10
100
AcDbEntity
  8
寸法
 62
     0
 48
50.0
370
    -2
100
AcDbLine
 10
10960.01894680479
 20
4632.858076806471
 30
0.0
 11
10960.01894680479
 21
5075.513912262799
 31
0.0
  0
LINE
  5
18928
330
17B10
100
AcDbEntity
  8
寸法
 62
     0
 48
50.0
370
    -2
100
AcDbLine
 10
10900.01894680479
 20
4636.856458683499
 30
0.0
 11
10900.01894680479
 21
5075.513912262799
 31
0.0
  0
LINE
  5
18929
330
17B10
100
AcDbEntity
  8
寸法
 62
     0
 48
50.0
370
    -2
100
AcDbLine
 10
10960.01894680479
 20
5015.513912262798
 30
0.0
 11
11060.01894680479
 21
5015.513912262798
 31
0.0
  0
LINE
  5
1892A
330
17B10
100
AcDbEntity
  8
寸法
 62
     0
 48
50.0
370
    -2
100
AcDbLine
 10
10900.01894680479
 20
5015.513912262798
 30
0.0
 11
10480.74335625361
 21
5015.513912262798
 31
0.0
  0
LINE
  5
1892B
330
17B10
100
AcDbEntity
  8
寸法
 62
     0
 48
50.0
370
    -2
100
AcDbLine
 10
10960.01894680479
 20
5015.513912262798
 30
0.0
 11
10900.01894680479
 21
5015.513912262798
 31
0.0
  0
INSERT
  5
1892C
330
17B10
100
AcDbEntity
  8
寸法
 62
     0
 48
50.0
370
    -2
100
AcDbBlockReference
  2
_DOTSMALL
 10
10960.01894680479
 20
5015.513912262798
 30
0.0
 41
100.0
 42
100.0
 43
100.0
 50
180.0
  0
INSERT
  5
1892D
330
17B10
100
AcDbEntity
  8
寸法
 62
     0
 48
50.0
370
    -2
100
AcDbBlockReference
  2
_DOTSMALL
 10
10900.01894680479
 20
5015.513912262798
 30
0.0
 41
100.0
 42
100.0
 43
100.0
  0
MTEXT
  5
1892E
330
17B10
100
AcDbEntity
  8
寸法
 62
     7
 48
50.0
100
AcDbMText
 10
10590.3811515292
 20
5115.513912262798
 30
0.0
 40
120.0
 41
0.0
 71
     5
 72
     1
  1
\A1;60
  7
STYLE1
 73
     1
 44
1.0
1001
ACAD
1000
MTEXTBEGIN
1070
    73
1070
     1
1070
    44
1040
1.0
1070
    74
1070
     0
1000
MTEXTEND
  0
POINT
  5
1892F
330
17B10
100
AcDbEntity
  8
DEFPOINTS
 62
     0
 48
50.0
100
AcDbPoint
 10
10960.01894680479
 20
4612.858076806471
 30
0.0
  0
POINT
  5
18930
330
17B10
100
AcDbEntity
  8
DEFPOINTS
 62
     0
 48
50.0
100
AcDbPoint
 10
10900.01894680479
 20
4616.856458683499
 30
0.0
  0
POINT
  5
18931
330
17B10
100
AcDbEntity
  8
DEFPOINTS
 62
     0
 48
50.0
100
AcDbPoint
 10
10900.01894680479
 20
5015.513912262798
 30
0.0
  0
ENDBLK
  5
17B1D
330
17B10
100
AcDbEntity
  8
0
 48
50.0
100
AcDbBlockEnd
  0
BLOCK
  5
17B28
330
17B1E
100
AcDbEntity
  8
0
 48
50.0
100
AcDbBlockBegin
  2
*D28
 70
     1
 10
0.0
 20
0.0
 30
0.0
  3
*D28
  1

  0
LINE
  5
19041
330
17B1E
100
AcDbEntity
  8
寸法
 62
     0
 48
50.0
370
    -2
100
AcDbLine
 10
14090.0189468048
 20
4581.856458683496
 30
0.0
 11
14090.0189468048
 21
5305.627505049077
 31
0.0
  0
LINE
  5
19042
330
17B1E
100
AcDbEntity
  8
寸法
 62
     0
 48
50.0
370
    -2
100
AcDbLine
 10
10900.01894680479
 20
4636.856458683499
 30
0.0
 11
10900.01894680479
 21
5305.627505049077
 31
0.0
  0
LINE
  5
19043
330
17B1E
100
AcDbEntity
  8
寸法
 62
     0
 48
50.0
370
    -2
100
AcDbLine
 10
14090.0189468048
 20
5245.627505049077
 30
0.0
 11
10900.01894680479
 21
5245.627505049077
 31
0.0
  0
INSERT
  5
19044
330
17B1E
100
AcDbEntity
  8
寸法
 62
     0
 48
50.0
370
    -2
100
AcDbBlockReference
  2
_DOTSMALL
 10
14090.0189468048
 20
5245.627505049077
 30
0.0
 41
100.0
 42
100.0
 43
100.0
  0
INSERT
  5
19045
330
17B1E
100
AcDbEntity
  8
寸法
 62
     0
 48
50.0
370
    -2
100
AcDbBlockReference
  2
_DOTSMALL
 10
10900.01894680479
 20
5245.627505049077
 30
0.0
 41
100.0
 42
100.0
 43
100.0
 50
180.0
  0
MTEXT
  5
19046
330
17B1E
100
AcDbEntity
  8
寸法
 62
     7
 48
50.0
100
AcDbMText
 10
12495.0189468048
 20
5345.627505049076
 30
0.0
 40
120.0
 41
0.0
 71
     5
 72
     1
  1
\A1;3190
  7
STYLE1
 73
     1
 44
1.0
1001
ACAD
1000
MTEXTBEGIN
1070
    73
1070
     1
1070
    44
1040
1.0
1070
    74
1070
     0
1000
MTEXTEND
  0
POINT
  5
19047
330
17B1E
100
AcDbEntity
  8
DEFPOINTS
 62
     0
 48
50.0
100
AcDbPoint
 10
14090.0189468048
 20
4561.856458683496
 30
0.0
  0
POINT
  5
19048
330
17B1E
100
AcDbEntity
  8
DEFPOINTS
 62
     0
 48
50.0
100
AcDbPoint
 10
10900.01894680479
 20
4616.856458683499
 30
0.0
  0
POINT
  5
19049
330
17B1E
100
AcDbEntity
  8
DEFPOINTS
 62
     0
 48
50.0
100
AcDbPoint
 10
10900.01894680479
 20
5245.627505049077
 30
0.0
  0
ENDBLK
  5
17B29
330
17B1E
100
AcDbEntity
  8
0
 48
50.0
100
AcDbBlockEnd
  0
BLOCK
  5
17B35
330
17B2A
100
AcDbEntity
  8
0
 48
50.0
100
AcDbBlockBegin
  2
*D29
 70
     1
 10
0.0
 20
0.0
 30
0.0
  3
*D29
  1

  0
LINE
  5
18914
330
17B2A
100
AcDbEntity
  8
寸法
 62
     0
 48
50.0
370
    -2
100
AcDbLine
 10
14010.0189468048
 20
4583.66713829515
 30
0.0
 11
14010.0189468048
 21
5075.513912262801
 31
0.0
  0
LINE
  5
18915
330
17B2A
100
AcDbEntity
  8
寸法
 62
     0
 48
50.0
370
    -2
100
AcDbLine
 10
14090.0189468048
 20
4581.856458683498
 30
0.0
 11
14090.0189468048
 21
5075.513912262801
 31
0.0
  0
LINE
  5
18916
330
17B2A
100
AcDbEntity
  8
寸法
 62
     0
 48
50.0
370
    -2
100
AcDbLine
 10
14010.0189468048
 20
5015.5139122628
 30
0.0
 11
14090.0189468048
 21
5015.5139122628
 31
0.0
  0
LINE
  5
18917
330
17B2A
100
AcDbEntity
  8
寸法
 62
     0
 48
50.0
370
    -2
100
AcDbLine
 10
14090.0189468048
 20
5015.5139122628
 30
0.0
 11
14402.11343499377
 21
5015.5139122628
 31
0.0
  0
INSERT
  5
18918
330
17B2A
100
AcDbEntity
  8
寸法
 62
     0
 48
50.0
370
    -2
100
AcDbBlockReference
  2
_DOTSMALL
 10
14010.0189468048
 20
5015.5139122628
 30
0.0
 41
100.0
 42
100.0
 43
100.0
 50
180.0
  0
INSERT
  5
18919
330
17B2A
100
AcDbEntity
  8
寸法
 62
     0
 48
50.0
370
    -2
100
AcDbBlockReference
  2
_DOTSMALL
 10
14090.0189468048
 20
5015.5139122628
 30
0.0
 41
100.0
 42
100.0
 43
100.0
  0
MTEXT
  5
1891A
330
17B2A
100
AcDbEntity
  8
寸法
 62
     7
 48
50.0
100
AcDbMText
 10
14296.06619089929
 20
5115.513912262801
 30
0.0
 40
120.0
 41
0.0
 71
     5
 72
     1
  1
\A1;80
  7
STYLE1
 73
     1
 44
1.0
1001
ACAD
1000
MTEXTBEGIN
1070
    73
1070
     1
1070
    44
1040
1.0
1070
    74
1070
     0
1000
MTEXTEND
  0
POINT
  5
1891B
330
17B2A
100
AcDbEntity
  8
DEFPOINTS
 62
     0
 48
50.0
100
AcDbPoint
 10
14010.0189468048
 20
4563.66713829515
 30
0.0
  0
POINT
  5
1891C
330
17B2A
100
AcDbEntity
  8
DEFPOINTS
 62
     0
 48
50.0
100
AcDbPoint
 10
14090.0189468048
 20
4561.856458683498
 30
0.0
  0
POINT
  5
1891D
330
17B2A
100
AcDbEntity
  8
DEFPOINTS
 62
     0
 48
50.0
100
AcDbPoint
 10
14090.0189468048
 20
5015.5139122628
 30
0.0
  0
ENDBLK
  5
17B36
330
17B2A
100
AcDbEntity
  8
0
 48
50.0
100
AcDbBlockEnd
  0
BLOCK
  5
17B42
330
17B37
100
AcDbEntity
  8
0
 48
50.0
100
AcDbBlockBegin
  2
*D30
 70
     1
 10
0.0
 20
0.0
 30
0.0
  3
*D30
  1

  0
LINE
  5
1890A
330
17B37
100
AcDbEntity
  8
寸法
 62
     0
 48
50.0
370
    -2
100
AcDbLine
 10
10899.4232330959
 20
4616.154165753157
 30
0.0
 11
10283.48879399061
 21
4633.868316027487
 31
0.0
  0
LINE
  5
1890B
330
17B37
100
AcDbEntity
  8
寸法
 62
     0
 48
50.0
370
    -2
100
AcDbLine
 10
10895.36977753927
 20
4475.212441987444
 30
0.0
 11
10279.43533843398
 21
4492.926592261774
 31
0.0
  0
LINE
  5
1890C
330
17B37
100
AcDbEntity
  8
寸法
 62
     0
 48
50.0
370
    -2
100
AcDbLine
 10
10339.41054003642
 20
4491.201717556827
 30
0.0
 11
10343.46399559304
 21
4632.143441322539
 31
0.0
  0
LINE
  5
1890D
330
17B37
100
AcDbEntity
  8
寸法
 62
     0
 48
50.0
370
    -2
100
AcDbLine
 10
10343.46399559304
 20
4632.143441322539
 30
0.0
 11
10353.81324382272
 21
4991.994650937125
 31
0.0
  0
INSERT
  5
1890E
330
17B37
100
AcDbEntity
  8
寸法
 62
     0
 48
50.0
370
    -2
100
AcDbBlockReference
  2
_DOTSMALL
 10
10339.41054003642
 20
4491.201717556827
 30
0.0
 41
100.0
 42
100.0
 43
100.0
 50
268.3526390256378
  0
INSERT
  5
1890F
330
17B37
100
AcDbEntity
  8
寸法
 62
     0
 48
50.0
370
    -2
100
AcDbBlockReference
  2
_DOTSMALL
 10
10343.46399559304
 20
4632.143441322539
 30
0.0
 41
100.0
 42
100.0
 43
100.0
 50
88.35263902563776
  0
MTEXT
  5
18910
330
17B37
100
AcDbEntity
  8
寸法
 62
     7
 48
50.0
100
AcDbMText
 10
10250.11734595796
 20
4864.923171973437
 30
0.0
 40
120.0
 41
0.0
 71
     5
 72
     1
  1
\A1;141
  7
STYLE1
 11
0.0287479117491237
 21
0.9995866933738488
 31
0.0
 73
     1
 44
1.0
1001
ACAD
1000
MTEXTBEGIN
1070
    73
1070
     1
1070
    44
1040
1.0
1070
    74
1070
     0
1000
MTEXTEND
  0
POINT
  5
18911
330
17B37
100
AcDbEntity
  8
DEFPOINTS
 62
     0
 48
50.0
100
AcDbPoint
 10
10919.41496696337
 20
4615.579207518174
 30
0.0
  0
POINT
  5
18912
330
17B37
100
AcDbEntity
  8
DEFPOINTS
 62
     0
 48
50.0
100
AcDbPoint
 10
10915.36151140675
 20
4474.637483752462
 30
0.0
  0
POINT
  5
18913
330
17B37
100
AcDbEntity
  8
DEFPOINTS
 62
     0
 48
50.0
100
AcDbPoint
 10
10339.41054003642
 20
4491.201717556827
 30
0.0
  0
ENDBLK
  5
17B43
330
17B37
100
AcDbEntity
  8
0
 48
50.0
100
AcDbBlockEnd
  0
BLOCK
  5
1831B
330
1830F
100
AcDbEntity
  8
0
 48
50.0
100
AcDbBlockBegin
  2
*D31
 70
     1
 10
0.0
 20
0.0
 30
0.0
  3
*D31
  1

  0
LINE
  5
188F6
330
1830F
100
AcDbEntity
  8
寸法
 62
     0
 48
50.0
370
    -2
100
AcDbLine
 10
3009.183055862399
 20
4636.856458683501
 30
0.0
 11
3009.183055862399
 21
5075.949628022968
 31
0.0
  0
LINE
  5
188F7
330
1830F
100
AcDbEntity
  8
寸法
 62
     0
 48
50.0
370
    -2
100
AcDbLine
 10
2959.183055862399
 20
4636.856458683499
 30
0.0
 11
2959.183055862399
 21
5075.949628022968
 31
0.0
  0
LINE
  5
188F8
330
1830F
100
AcDbEntity
  8
寸法
 62
     0
 48
50.0
370
    -2
100
AcDbLine
 10
3009.183055862399
 20
5015.949628022968
 30
0.0
 11
3109.183055862399
 21
5015.949628022968
 31
0.0
  0
LINE
  5
188F9
330
1830F
100
AcDbEntity
  8
寸法
 62
     0
 48
50.0
370
    -2
100
AcDbLine
 10
2959.183055862399
 20
5015.949628022968
 30
0.0
 11
2539.650530393664
 21
5015.949628022968
 31
0.0
  0
LINE
  5
188FA
330
1830F
100
AcDbEntity
  8
寸法
 62
     0
 48
50.0
370
    -2
100
AcDbLine
 10
3009.183055862399
 20
5015.949628022968
 30
0.0
 11
2959.183055862399
 21
5015.949628022968
 31
0.0
  0
INSERT
  5
188FB
330
1830F
100
AcDbEntity
  8
寸法
 62
     0
 48
50.0
370
    -2
100
AcDbBlockReference
  2
_DOTSMALL
 10
3009.183055862399
 20
5015.949628022968
 30
0.0
 41
100.0
 42
100.0
 43
100.0
 50
180.0
  0
INSERT
  5
188FC
330
1830F
100
AcDbEntity
  8
寸法
 62
     0
 48
50.0
370
    -2
100
AcDbBlockReference
  2
_DOTSMALL
 10
2959.183055862399
 20
5015.949628022968
 30
0.0
 41
100.0
 42
100.0
 43
100.0
  0
MTEXT
  5
188FD
330
1830F
100
AcDbEntity
  8
寸法
 62
     7
 48
50.0
100
AcDbMText
 10
2645.697774488152
 20
5115.949628022968
 30
0.0
 40
120.0
 41
0.0
 71
     5
 72
     1
  1
\A1;50
  7
STYLE1
 73
     1
 44
1.0
1001
ACAD
1000
MTEXTBEGIN
1070
    73
1070
     1
1070
    44
1040
1.0
1070
    74
1070
     0
1000
MTEXTEND
  0
POINT
  5
188FE
330
1830F
100
AcDbEntity
  8
DEFPOINTS
 62
     0
 48
50.0
100
AcDbPoint
 10
3009.183055862399
 20
4616.856458683501
 30
0.0
  0
POINT
  5
188FF
330
1830F
100
AcDbEntity
  8
DEFPOINTS
 62
     0
 48
50.0
100
AcDbPoint
 10
2959.183055862399
 20
4616.856458683499
 30
0.0
  0
POINT
  5
18900
330
1830F
100
AcDbEntity
  8
DEFPOINTS
 62
     0
 48
50.0
100
AcDbPoint
 10
2959.183055862399
 20
5015.949628022968
 30
0.0
  0
ENDBLK
  5
1831C
330
1830F
100
AcDbEntity
  8
0
 48
50.0
100
AcDbBlockEnd
  0
BLOCK
  5
1835A
330
18350
100
AcDbEntity
  8
0
 48
50.0
100
AcDbBlockBegin
  2
*D32
 70
     1
 10
0.0
 20
0.0
 30
0.0
  3
*D32
  1

  0
LINE
  5
188C6
330
18350
100
AcDbEntity
  8
寸法
 62
     0
 48
50.0
370
    -2
100
AcDbLine
 10
8269.183055862399
 20
4636.856458683499
 30
0.0
 11
8269.183055862399
 21
5075.949628022968
 31
0.0
  0
LINE
  5
188C7
330
18350
100
AcDbEntity
  8
寸法
 62
     0
 48
50.0
370
    -2
100
AcDbLine
 10
3009.183055862399
 20
4636.856458683501
 30
0.0
 11
3009.183055862399
 21
5075.949628022968
 31
0.0
  0
LINE
  5
188C8
330
18350
100
AcDbEntity
  8
寸法
 62
     0
 48
50.0
370
    -2
100
AcDbLine
 10
8269.183055862399
 20
5015.949628022968
 30
0.0
 11
3009.183055862399
 21
5015.949628022968
 31
0.0
  0
INSERT
  5
188C9
330
18350
100
AcDbEntity
  8
寸法
 62
     0
 48
50.0
370
    -2
100
AcDbBlockReference
  2
_DOTSMALL
 10
8269.183055862399
 20
5015.949628022968
 30
0.0
 41
100.0
 42
100.0
 43
100.0
  0
INSERT
  5
188CA
330
18350
100
AcDbEntity
  8
寸法
 62
     0
 48
50.0
370
    -2
100
AcDbBlockReference
  2
_DOTSMALL
 10
3009.183055862399
 20
5015.949628022968
 30
0.0
 41
100.0
 42
100.0
 43
100.0
 50
180.0
  0
MTEXT
  5
188CB
330
18350
100
AcDbEntity
  8
寸法
 62
     7
 48
50.0
100
AcDbMText
 10
5639.183055862399
 20
5115.961439046589
 30
0.0
 40
120.0
 41
0.0
 71
     5
 72
     1
  1
\A1;柱外寸法5260
  7
STYLE1
 73
     1
 44
1.0
1001
ACAD
1000
MTEXTBEGIN
1070
    73
1070
     1
1070
    44
1040
1.0
1070
    74
1070
     0
1000
MTEXTEND
  0
POINT
  5
188CC
330
18350
100
AcDbEntity
  8
DEFPOINTS
 62
     0
 48
50.0
100
AcDbPoint
 10
8269.183055862399
 20
4616.856458683499
 30
0.0
  0
POINT
  5
188CD
330
18350
100
AcDbEntity
  8
DEFPOINTS
 62
     0
 48
50.0
100
AcDbPoint
 10
3009.183055862399
 20
4616.856458683501
 30
0.0
  0
POINT
  5
188CE
330
18350
100
AcDbEntity
  8
DEFPOINTS
 62
     0
 48
50.0
100
AcDbPoint
 10
3009.183055862399
 20
5015.949628022968
 30
0.0
  0
ENDBLK
  5
1835B
330
18350
100
AcDbEntity
  8
0
 48
50.0
100
AcDbBlockEnd
  0
BLOCK
  5
18368
330
1835C
100
AcDbEntity
  8
0
 48
50.0
100
AcDbBlockBegin
  2
*D33
 70
     1
 10
0.0
 20
0.0
 30
0.0
  3
*D33
  1

  0
LINE
  5
188BB
330
1835C
100
AcDbEntity
  8
寸法
 62
     0
 48
50.0
370
    -2
100
AcDbLine
 10
8319.183055862399
 20
4636.856458683497
 30
0.0
 11
8319.183055862399
 21
5075.949628022968
 31
0.0
  0
LINE
  5
188BC
330
1835C
100
AcDbEntity
  8
寸法
 62
     0
 48
50.0
370
    -2
100
AcDbLine
 10
8269.183055862399
 20
4636.856458683499
 30
0.0
 11
8269.183055862399
 21
5075.949628022968
 31
0.0
  0
LINE
  5
188BD
330
1835C
100
AcDbEntity
  8
寸法
 62
     0
 48
50.0
370
    -2
100
AcDbLine
 10
8269.183055862399
 20
5015.949628022968
 30
0.0
 11
8169.183055862399
 21
5015.949628022968
 31
0.0
  0
LINE
  5
188BE
330
1835C
100
AcDbEntity
  8
寸法
 62
     0
 48
50.0
370
    -2
100
AcDbLine
 10
8319.183055862399
 20
5015.949628022968
 30
0.0
 11
8738.715581331122
 21
5015.949628022968
 31
0.0
  0
LINE
  5
188BF
330
1835C
100
AcDbEntity
  8
寸法
 62
     0
 48
50.0
370
    -2
100
AcDbLine
 10
8269.183055862399
 20
5015.949628022968
 30
0.0
 11
8319.183055862399
 21
5015.949628022968
 31
0.0
  0
INSERT
  5
188C0
330
1835C
100
AcDbEntity
  8
寸法
 62
     0
 48
50.0
370
    -2
100
AcDbBlockReference
  2
_DOTSMALL
 10
8269.183055862399
 20
5015.949628022968
 30
0.0
 41
100.0
 42
100.0
 43
100.0
  0
INSERT
  5
188C1
330
1835C
100
AcDbEntity
  8
寸法
 62
     0
 48
50.0
370
    -2
100
AcDbBlockReference
  2
_DOTSMALL
 10
8319.183055862399
 20
5015.949628022968
 30
0.0
 41
100.0
 42
100.0
 43
100.0
 50
180.0
  0
MTEXT
  5
188C2
330
1835C
100
AcDbEntity
  8
寸法
 62
     7
 48
50.0
100
AcDbMText
 10
8632.668337236635
 20
5115.949628022968
 30
0.0
 40
120.0
 41
0.0
 71
     5
 72
     1
  1
\A1;50
  7
STYLE1
 73
     1
 44
1.0
1001
ACAD
1000
MTEXTBEGIN
1070
    73
1070
     1
1070
    44
1040
1.0
1070
    74
1070
     0
1000
MTEXTEND
  0
POINT
  5
188C3
330
1835C
100
AcDbEntity
  8
DEFPOINTS
 62
     0
 48
50.0
100
AcDbPoint
 10
8319.183055862399
 20
4616.856458683497
 30
0.0
  0
POINT
  5
188C4
330
1835C
100
AcDbEntity
  8
DEFPOINTS
 62
     0
 48
50.0
100
AcDbPoint
 10
8269.183055862399
 20
4616.856458683499
 30
0.0
  0
POINT
  5
188C5
330
1835C
100
AcDbEntity
  8
DEFPOINTS
 62
     0
 48
50.0
100
AcDbPoint
 10
8269.183055862399
 20
5015.949628022968
 30
0.0
  0
ENDBLK
  5
18369
330
1835C
100
AcDbEntity
  8
0
 48
50.0
100
AcDbBlockEnd
  0
BLOCK
  5
18374
330
1836A
100
AcDbEntity
  8
0
 48
50.0
100
AcDbBlockBegin
  2
*D34
 70
     1
 10
0.0
 20
0.0
 30
0.0
  3
*D34
  1

  0
LINE
  5
188B2
330
1836A
100
AcDbEntity
  8
寸法
 62
     0
 48
50.0
370
    -2
100
AcDbLine
 10
2959.183055862399
 20
4636.856458683499
 30
0.0
 11
2959.183055862399
 21
5292.475727641413
 31
0.0
  0
LINE
  5
188B3
330
1836A
100
AcDbEntity
  8
寸法
 62
     0
 48
50.0
370
    -2
100
AcDbLine
 10
8319.183055862399
 20
4636.856458683497
 30
0.0
 11
8319.183055862399
 21
5292.475727641413
 31
0.0
  0
LINE
  5
188B4
330
1836A
100
AcDbEntity
  8
寸法
 62
     0
 48
50.0
370
    -2
100
AcDbLine
 10
2959.183055862399
 20
5232.475727641413
 30
0.0
 11
8319.183055862399
 21
5232.475727641413
 31
0.0
  0
INSERT
  5
188B5
330
1836A
100
AcDbEntity
  8
寸法
 62
     0
 48
50.0
370
    -2
100
AcDbBlockReference
  2
_DOTSMALL
 10
2959.183055862399
 20
5232.475727641413
 30
0.0
 41
100.0
 42
100.0
 43
100.0
 50
180.0
  0
INSERT
  5
188B6
330
1836A
100
AcDbEntity
  8
寸法
 62
     0
 48
50.0
370
    -2
100
AcDbBlockReference
  2
_DOTSMALL
 10
8319.183055862399
 20
5232.475727641413
 30
0.0
 41
100.0
 42
100.0
 43
100.0
  0
MTEXT
  5
188B7
330
1836A
100
AcDbEntity
  8
寸法
 62
     7
 48
50.0
100
AcDbMText
 10
5639.183055862399
 20
5332.475727641413
 30
0.0
 40
120.0
 41
0.0
 71
     5
 72
     1
  1
\A1;5360
  7
STYLE1
 73
     1
 44
1.0
1001
ACAD
1000
MTEXTBEGIN
1070
    73
1070
     1
1070
    44
1040
1.0
1070
    74
1070
     0
1000
MTEXTEND
  0
POINT
  5
188B8
330
1836A
100
AcDbEntity
  8
DEFPOINTS
 62
     0
 48
50.0
100
AcDbPoint
 10
2959.183055862399
 20
4616.856458683499
 30
0.0
  0
POINT
  5
188B9
330
1836A
100
AcDbEntity
  8
DEFPOINTS
 62
     0
 48
50.0
100
AcDbPoint
 10
8319.183055862399
 20
4616.856458683497
 30
0.0
  0
POINT
  5
188BA
330
1836A
100
AcDbEntity
  8
DEFPOINTS
 62
     0
 48
50.0
100
AcDbPoint
 10
8319.183055862399
 20
5232.475727641413
 30
0.0
  0
ENDBLK
  5
18375
330
1836A
100
AcDbEntity
  8
0
 48
50.0
100
AcDbBlockEnd
  0
BLOCK
  5
18B95
330
18B8A
100
AcDbEntity
  8
0
 48
50.0
100
AcDbBlockBegin
  2
*D35
 70
     1
 10
0.0
 20
0.0
 30
0.0
  3
*D35
  1

  0
LINE
  5
19074
330
18B8A
100
AcDbEntity
  8
寸法
 62
     0
 48
50.0
370
    -2
100
AcDbLine
 10
8289.183055862395
 20
4216.856458683495
 30
0.0
 11
8616.726158184143
 21
4216.856458683495
 31
0.0
  0
LINE
  5
19075
330
18B8A
100
AcDbEntity
  8
寸法
 62
     0
 48
50.0
370
    -2
100
AcDbLine
 10
8289.183055862395
 20
4381.856458683494
 30
0.0
 11
8616.726158184143
 21
4381.856458683494
 31
0.0
  0
LINE
  5
19076
330
18B8A
100
AcDbEntity
  8
寸法
 62
     0
 48
50.0
370
    -2
100
AcDbLine
 10
8556.726158184144
 20
4216.856458683495
 30
0.0
 11
8556.726158184144
 21
4381.856458683494
 31
0.0
  0
LINE
  5
19077
330
18B8A
100
AcDbEntity
  8
寸法
 62
     0
 48
50.0
370
    -2
100
AcDbLine
 10
8556.726158184144
 20
4381.856458683494
 30
0.0
 11
8556.726158184144
 21
4758.827021431972
 31
0.0
  0
INSERT
  5
19078
330
18B8A
100
AcDbEntity
  8
寸法
 62
     0
 48
50.0
370
    -2
100
AcDbBlockReference
  2
_DOTSMALL
 10
8556.726158184144
 20
4216.856458683495
 30
0.0
 41
100.0
 42
100.0
 43
100.0
 50
270.0
  0
INSERT
  5
19079
330
18B8A
100
AcDbEntity
  8
寸法
 62
     0
 48
50.0
370
    -2
100
AcDbBlockReference
  2
_DOTSMALL
 10
8556.726158184144
 20
4381.856458683494
 30
0.0
 41
100.0
 42
100.0
 43
100.0
 50
90.0
  0
MTEXT
  5
1907A
330
18B8A
100
AcDbEntity
  8
寸法
 62
     7
 48
50.0
100
AcDbMText
 10
8456.726158184141
 20
4620.341740057734
 30
0.0
 40
120.0
 41
0.0
 71
     5
 72
     1
  1
\A1;165
  7
STYLE1
 11
0.0000000000000001
 21
1.0
 31
0.0
 73
     1
 44
1.0
1001
ACAD
1000
MTEXTBEGIN
1070
    73
1070
     1
1070
    44
1040
1.0
1070
    74
1070
     0
1000
MTEXTEND
  0
POINT
  5
1907B
330
18B8A
100
AcDbEntity
  8
DEFPOINTS
 62
     0
 48
50.0
100
AcDbPoint
 10
8269.183055862395
 20
4216.856458683495
 30
0.0
  0
POINT
  5
1907C
330
18B8A
100
AcDbEntity
  8
DEFPOINTS
 62
     0
 48
50.0
100
AcDbPoint
 10
8269.183055862395
 20
4381.856458683494
 30
0.0
  0
POINT
  5
1907D
330
18B8A
100
AcDbEntity
  8
DEFPOINTS
 62
     0
 48
50.0
100
AcDbPoint
 10
8556.726158184144
 20
4381.856458683494
 30
0.0
  0
ENDBLK
  5
18B96
330
18B8A
100
AcDbEntity
  8
0
 48
50.0
100
AcDbBlockEnd
  0
BLOCK
  5
18BA3
330
18B97
100
AcDbEntity
  8
0
 48
50.0
100
AcDbBlockBegin
  2
*D36
 70
     1
 10
0.0
 20
0.0
 30
0.0
  3
*D36
  1

  0
LINE
  5
19069
330
18B97
100
AcDbEntity
  8
寸法
 62
     0
 48
50.0
370
    -2
100
AcDbLine
 10
8289.183055862395
 20
4189.856458683493
 30
0.0
 11
8616.726158184141
 21
4189.856458683493
 31
0.0
  0
LINE
  5
1906A
330
18B97
100
AcDbEntity
  8
寸法
 62
     0
 48
50.0
370
    -2
100
AcDbLine
 10
8289.183055862395
 20
4216.856458683495
 30
0.0
 11
8616.726158184141
 21
4216.856458683495
 31
0.0
  0
LINE
  5
1906B
330
18B97
100
AcDbEntity
  8
寸法
 62
     0
 48
50.0
370
    -2
100
AcDbLine
 10
8556.72615818414
 20
4189.856458683493
 30
0.0
 11
8556.726158184138
 21
4089.856458683494
 31
0.0
  0
LINE
  5
1906C
330
18B97
100
AcDbEntity
  8
寸法
 62
     0
 48
50.0
370
    -2
100
AcDbLine
 10
8556.72615818414
 20
4216.856458683495
 30
0.0
 11
8556.72615818414
 21
4316.856458683495
 31
0.0
  0
MTEXT
  5
1906D
330
18B97
100
AcDbEntity
  8
寸法
 62
     7
 48
50.0
100
AcDbMText
 10
8696.895981430508
 20
4217.823658523154
 30
0.0
 40
120.0
 41
0.0
 71
     5
 72
     1
  1
\A1;27
  7
STYLE1
 11
0.0000000000000001
 21
1.0
 31
0.0
 73
     1
 44
1.0
1001
ACAD
1000
MTEXTBEGIN
1070
    73
1070
     1
1070
    44
1040
1.0
1070
    74
1070
     0
1000
MTEXTEND
  0
LINE
  5
1906E
330
18B97
100
AcDbEntity
  8
寸法
 62
     0
 48
50.0
370
    -2
100
AcDbLine
 10
8556.72615818414
 20
4189.856458683493
 30
0.0
 11
8556.72615818414
 21
4216.856458683495
 31
0.0
  0
INSERT
  5
1906F
330
18B97
100
AcDbEntity
  8
寸法
 62
     0
 48
50.0
370
    -2
100
AcDbBlockReference
  2
_DOTSMALL
 10
8556.72615818414
 20
4189.856458683493
 30
0.0
 41
100.0
 42
100.0
 43
100.0
 50
90.0
  0
INSERT
  5
19070
330
18B97
100
AcDbEntity
  8
寸法
 62
     0
 48
50.0
370
    -2
100
AcDbBlockReference
  2
_DOTSMALL
 10
8556.72615818414
 20
4216.856458683495
 30
0.0
 41
100.0
 42
100.0
 43
100.0
 50
270.0
  0
POINT
  5
19071
330
18B97
100
AcDbEntity
  8
DEFPOINTS
 62
     0
 48
50.0
100
AcDbPoint
 10
8269.183055862395
 20
4189.856458683493
 30
0.0
  0
POINT
  5
19072
330
18B97
100
AcDbEntity
  8
DEFPOINTS
 62
     0
 48
50.0
100
AcDbPoint
 10
8269.183055862395
 20
4216.856458683495
 30
0.0
  0
POINT
  5
19073
330
18B97
100
AcDbEntity
  8
DEFPOINTS
 62
     0
 48
50.0
100
AcDbPoint
 10
8556.72615818414
 20
4216.856458683495
 30
0.0
  0
ENDBLK
  5
18BA4
330
18B97
100
AcDbEntity
  8
0
 48
50.0
100
AcDbBlockEnd
  0
BLOCK
  5
18BAF
330
18BA5
100
AcDbEntity
  8
0
 48
50.0
100
AcDbBlockBegin
  2
*D37
 70
     1
 10
0.0
 20
0.0
 30
0.0
  3
*D37
  1

  0
LINE
  5
18C0C
330
18BA5
100
AcDbEntity
  8
寸法
 62
     0
 48
50.0
370
    -2
100
AcDbLine
 10
8289.183055862395
 20
2241.856458683495
 30
0.0
 11
8616.726158184141
 21
2241.856458683495
 31
0.0
  0
LINE
  5
18C0D
330
18BA5
100
AcDbEntity
  8
寸法
 62
     0
 48
50.0
370
    -2
100
AcDbLine
 10
8289.183055862395
 20
4189.856458683493
 30
0.0
 11
8616.726158184141
 21
4189.856458683493
 31
0.0
  0
LINE
  5
18C0E
330
18BA5
100
AcDbEntity
  8
寸法
 62
     0
 48
50.0
370
    -2
100
AcDbLine
 10
8556.726158184138
 20
2241.856458683495
 30
0.0
 11
8556.72615818414
 21
4189.856458683493
 31
0.0
  0
INSERT
  5
18C0F
330
18BA5
100
AcDbEntity
  8
寸法
 62
     0
 48
50.0
370
    -2
100
AcDbBlockReference
  2
_DOTSMALL
 10
8556.726158184138
 20
2241.856458683495
 30
0.0
 41
100.0
 42
100.0
 43
100.0
 50
270.0
  0
INSERT
  5
18C10
330
18BA5
100
AcDbEntity
  8
寸法
 62
     0
 48
50.0
370
    -2
100
AcDbBlockReference
  2
_DOTSMALL
 10
8556.72615818414
 20
4189.856458683493
 30
0.0
 41
100.0
 42
100.0
 43
100.0
 50
90.0
  0
MTEXT
  5
18C11
330
18BA5
100
AcDbEntity
  8
寸法
 62
     7
 48
50.0
100
AcDbMText
 10
8456.726158184139
 20
3215.856458683496
 30
0.0
 40
120.0
 41
0.0
 71
     5
 72
     1
  1
\A1;有効開口部高サ 1948
  7
STYLE1
 11
0.0000000000000001
 21
1.0
 31
0.0
 73
     1
 44
1.0
1001
ACAD
1000
MTEXTBEGIN
1070
    73
1070
     1
1070
    44
1040
1.0
1070
    74
1070
     0
1000
MTEXTEND
  0
POINT
  5
18C12
330
18BA5
100
AcDbEntity
  8
DEFPOINTS
 62
     0
 48
50.0
100
AcDbPoint
 10
8269.183055862395
 20
2241.856458683495
 30
0.0
  0
POINT
  5
18C13
330
18BA5
100
AcDbEntity
  8
DEFPOINTS
 62
     0
 48
50.0
100
AcDbPoint
 10
8269.183055862395
 20
4189.856458683493
 30
0.0
  0
POINT
  5
18C14
330
18BA5
100
AcDbEntity
  8
DEFPOINTS
 62
     0
 48
50.0
100
AcDbPoint
 10
8556.72615818414
 20
4189.856458683493
 30
0.0
  0
ENDBLK
  5
18BB0
330
18BA5
100
AcDbEntity
  8
0
 48
50.0
100
AcDbBlockEnd
  0
ENDSEC
  0
SECTION
  2
ENTITIES
  0
MTEXT
  5
763F
330
747D
100
AcDbEntity
  8
0
100
AcDbMText
 10
302.846345836809
 20
280.1983726409901
 30
0.0
 40
3.5
 41
5.323721266742722
 71
     1
 72
     5
  1

  7
MSMINCHO
 73
     1
 44
1.0
1001
ACAD
1000
MTEXTBEGIN
1070
    73
1070
     1
1070
    44
1040
1.0
1070
    74
1070
     0
1000
MTEXTEND
  0
LINE
  5
10B57
330
747D
100
AcDbEntity
  8
補助
  6
PHANTOM
 62
   230
 48
50.0
100
AcDbLine
 10
139.9999999999995
 20
11409.6
 30
0.0
 11
16307.2
 21
11409.6
 31
0.0
  0
LINE
  5
10B59
330
747D
100
AcDbEntity
  8
仕様書枠
  6
Continuous
 48
50.0
100
AcDbLine
 10
13107.2
 20
1200.0
 30
0.0
 11
13107.2
 21
-0.0000000000000729
 31
0.0
  0
LINE
  5
10B5C
330
747D
100
AcDbEntity
  8
仕様書枠
 48
50.0
100
AcDbLine
 10
16307.2
 20
1200.0
 30
0.0
 11
16307.2
 21
-0.0000000000000909
 31
0.0
  0
LINE
  5
10B5D
330
747D
100
AcDbEntity
  8
仕様書枠
 48
50.0
100
AcDbLine
 10
140.0
 20
0.0
 30
0.0
 11
16307.2
 21
-0.0000000000000909
 31
0.0
  0
LINE
  5
10B5E
330
747D
100
AcDbEntity
  8
補助
  6
PHANTOM
 62
   230
 48
50.0
100
AcDbLine
 10
16307.2
 20
11409.6
 30
0.0
 11
16307.2
 21
1200.0
 31
0.0
  0
LINE
  5
10B6C
330
747D
100
AcDbEntity
  8
仕様書枠
 48
50.0
100
AcDbLine
 10
13107.2
 20
1200.0
 30
0.0
 11
16307.2
 21
1200.0
 31
0.0
  0
LINE
  5
10B6D
330
747D
100
AcDbEntity
  8
補助
  6
PHANTOM
 62
   230
 48
50.0
100
AcDbLine
 10
13107.2
 20
11409.6
 30
0.0
 11
13107.2
 21
4800.0
 31
0.0
  0
LINE
  5
10B6F
330
747D
100
AcDbEntity
  8
補助
  6
PHANTOM
 62
   230
 48
50.0
100
AcDbLine
 10
13107.2
 20
4800.0
 30
0.0
 11
16307.2
 21
4800.0
 31
0.0
  0
LINE
  5
10B72
330
747D
100
AcDbEntity
  8
文字
 62
     7
 48
50.0
100
AcDbLine
 10
13187.2
 20
400.0
 30
0.0
 11
16227.2
 21
400.0
 31
0.0
  0
TEXT
  5
10B73
330
747D
100
AcDbEntity
  8
文字
 62
     7
 48
50.0
100
AcDbText
 10
13162.9790565769
 20
895.0906074299405
 30
0.0
 40
200.0
  1
外 形 図
  7
STYLE2
100
AcDbText
  0
TEXT
  5
10B74
330
747D
100
AcDbEntity
  8
文字
 62
     7
 48
50.0
100
AcDbText
 10
13201.43669998441
 20
477.2740661031255
 30
0.0
 40
160.0
  1
機種名
  7
STYLE2
100
AcDbText
  0
TEXT
  5
10B75
330
747D
100
AcDbEntity
  8
文字
 62
     7
 48
50.0
100
AcDbText
 10
13209.4053442172
 20
228.5435242569016
 30
0.0
 40
100.0
  1
○有効開口寸法 ： 2424×1948(mm)
  7
STYLE2
100
AcDbText
  0
TEXT
  5
10B76
330
747D
100
AcDbEntity
  8
文字
 62
     7
 48
50.0
100
AcDbText
 10
13209.4053442172
 20
76.09434707649343
 30
0.0
 40
100.0
  1
○床面積 ： 16.04㎡(4.86坪) 　
  7
STYLE2
100
AcDbText
  0
TEXT
  5
10B79
330
747D
100
AcDbEntity
  8
文字
 62
     7
 48
50.0
100
AcDbText
 10
14524.131837222
 20
1031.557706291228
 30
0.0
 40
100.0
  1
NO.19      <縮尺> S=1/40
  7
STYLE2
100
AcDbText
  0
LINE
  5
10B7B
330
747D
100
AcDbEntity
  8
仕様書枠
 48
50.0
100
AcDbLine
 10
13107.2
 20
800.0
 30
0.0
 11
14251.2
 21
800.0
 31
0.0
  0
LINE
  5
10B88
330
747D
100
AcDbEntity
  8
仕様書枠
  6
Continuous
 48
50.0
100
AcDbLine
 10
14251.2
 20
1200.0
 30
0.0
 11
14251.2
 21
800.0
 31
0.0
  0
TEXT
  5
10BB0
330
747D
100
AcDbEntity
  8
文字
 62
     7
 48
50.0
100
AcDbText
 10
14302.57975890745
 20
483.8967129911414
 30
0.0
 40
160.0
  1
FXN-80HDL-2
  7
STYLE2
100
AcDbText
  0
DIMENSION
  5
162CD
330
747D
100
AcDbEntity
  8
寸法
100
AcDbDimension
  2
*D1
 10
8916.609401596813
 20
7197.497424545952
 30
0.0
 11
8816.59759057319
 21
8667.497424545961
 31
0.0
 70
    32
  1
7X420=<>
 71
     5
 42
2940.000000000015
  3
INABA_S40G
100
AcDbAlignedDimension
 13
8269.183055862407
 23
10137.49742454596
 33
0.0
 14
8269.183055862383
 24
7197.497424545952
 34
0.0
 50
90.0
100
AcDbRotatedDimension
1001
ACAD
1000
DSTYLE
1002
{
1002
}
  0
DIMENSION
  5
162CE
330
747D
100
AcDbEntity
  8
寸法
100
AcDbDimension
  2
*D2
 10
8916.609401596794
 20
7142.497424545957
 30
0.0
 11
8916.609401596792
 21
6764.635957641094
 31
0.0
 70
   160
 71
     5
 42
54.99999999999636
  3
INABA_S40G
100
AcDbAlignedDimension
 13
8269.183055862383
 23
7197.497424545952
 33
0.0
 14
8269.183055862383
 24
7142.497424545957
 34
0.0
 50
90.0
100
AcDbRotatedDimension
1001
ACAD
1000
DSTYLE
1002
{
1002
}
  0
DIMENSION
  5
162CF
330
747D
100
AcDbEntity
  8
寸法
100
AcDbDimension
  2
*D3
 10
8916.60940159682
 20
10137.49742454596
 30
0.0
 11
8916.609401596817
 21
10500.9827059202
 31
0.0
 70
   160
 71
     5
 42
54.99999999999636
  3
INABA_S40G
100
AcDbAlignedDimension
 13
8269.183055862407
 23
10192.49742454596
 33
0.0
 14
8269.183055862407
 24
10137.49742454596
 34
0.0
 50
90.0
100
AcDbRotatedDimension
1001
ACAD
1000
DSTYLE
1002
{
1002
}
  0
DIMENSION
  5
162D0
330
747D
100
AcDbEntity
  8
寸法
100
AcDbDimension
  2
*D4
 10
9281.716343336453
 20
7142.497424545957
 30
0.0
 11
9181.716343336452
 21
8667.497424545961
 31
0.0
 70
    32
 71
     5
 42
3050.000000000008
  3
INABA_S40G
100
AcDbAlignedDimension
 13
8269.183055862407
 23
10192.49742454596
 33
0.0
 14
8269.183055862383
 24
7142.497424545957
 34
0.0
 50
90.0
100
AcDbRotatedDimension
1001
ACAD
1000
DSTYLE
1002
{
1002
}
  0
LINE
  5
162DC
330
747D
100
AcDbEntity
  8
部品1
100
AcDbLine
 10
8241.183055862391
 20
10164.49742454596
 30
0.0
 11
8241.183055862384
 21
7197.497424545952
 31
0.0
  0
LINE
  5
162DD
330
747D
100
AcDbEntity
  8
部品1
100
AcDbLine
 10
3037.183055862382
 20
7197.497424545821
 30
0.0
 11
3037.183055862394
 21
10164.49742454587
 31
0.0
  0
LINE
  5
162DE
330
747D
100
AcDbEntity
  8
部品1
100
AcDbLine
 10
8269.183055862407
 20
10192.49742454596
 30
0.0
 11
8269.183055862383
 21
7142.497424545957
 31
0.0
  0
LINE
  5
162DF
330
747D
100
AcDbEntity
  8
部品1
100
AcDbLine
 10
3009.183055862373
 20
10192.49742454583
 30
0.0
 11
3009.183055862401
 21
7142.497424545826
 31
0.0
  0
DIMENSION
  5
162E4
330
747D
100
AcDbEntity
  8
寸法
 48
50.0
100
AcDbDimension
  2
*D5
 10
5742.183055862401
 20
6608.0666537797
 30
0.0
 11
6954.183055862391
 21
6708.078464803323
 31
0.0
 70
    32
  1
有効開口部間口 <>
 71
     5
 42
2423.999999999982
  3
INABA_S40G
100
AcDbAlignedDimension
 13
8166.183055862381
 23
7168.497424545865
 33
0.0
 14
5742.183055862401
 24
7168.497424545865
 34
0.0
100
AcDbRotatedDimension
1001
ACAD
1000
DSTYLE
1002
{
1070
    75
1070
     1
1070
   279
1070
     2
1002
}
  0
LINE
  5
162E6
330
747D
100
AcDbEntity
  8
部品1
 48
50.0
100
AcDbLine
 10
5706.1830558624
 20
7187.997424545864
 30
0.0
 11
8202.183055862384
 21
7187.997424545864
 31
0.0
  0
DIMENSION
  5
162E7
330
747D
100
AcDbEntity
  8
寸法
100
AcDbDimension
  2
*D6
 10
8269.183055862372
 20
6161.893658188827
 30
0.0
 11
5639.183055862385
 21
6261.905469212448
 31
0.0
 70
    32
 71
     5
 42
5259.999999999971
  3
INABA_S40G
100
AcDbAlignedDimension
 13
3009.183055862401
 23
7142.497424545862
 33
0.0
 14
8269.183055862372
 24
7142.497424545957
 34
0.0
100
AcDbRotatedDimension
1001
ACAD
1000
DSTYLE
1002
{
1002
}
  0
LINE
  5
162E8
330
747D
100
AcDbEntity
  8
部品1
100
AcDbLine
 10
3064.183055862383
 20
10137.49742454588
 30
0.0
 11
3064.1830558624
 21
7207.497424545863
 31
0.0
  0
LINE
  5
162E9
330
747D
100
AcDbEntity
  8
部品1
100
AcDbLine
 10
3089.183055862382
 20
10137.49742454588
 30
0.0
 11
3089.1830558624
 21
7207.497424545863
 31
0.0
  0
DIMENSION
  5
162EA
330
747D
100
AcDbEntity
  8
寸法
 48
50.0
100
AcDbDimension
  2
*D7
 10
3009.183055862401
 20
6608.0666537797
 30
0.0
 11
2700.697774488162
 21
6608.0666537797
 31
0.0
 70
   160
 71
     5
 42
54.99999999999636
  3
INABA_S40G
100
AcDbAlignedDimension
 13
3064.183055862397
 23
7142.497424545864
 33
0.0
 14
3009.183055862401
 24
7142.497424545862
 34
0.0
100
AcDbRotatedDimension
1001
ACAD
1000
DSTYLE
1002
{
1002
}
  0
DIMENSION
  5
162EB
330
747D
100
AcDbEntity
  8
寸法
 48
50.0
100
AcDbDimension
  2
*D8
 10
5694.183055862397
 20
6608.0666537797
 30
0.0
 11
5855.085026862457
 21
6708.0666537797
 31
0.0
 70
   160
 71
     5
 42
48.00000000000363
  3
INABA_S40G
100
AcDbAlignedDimension
 13
5742.183055862401
 23
7168.497424545865
 33
0.0
 14
5694.183055862397
 24
7142.497424545864
 34
0.0
100
AcDbRotatedDimension
1001
ACAD
1000
DSTYLE
1002
{
1070
   279
1070
     2
1002
}
  0
LINE
  5
162EC
330
747D
100
AcDbEntity
  8
部品1
100
AcDbLine
 10
3064.183055862396
 20
7142.497424545864
 30
0.0
 11
3009.183055862401
 21
7142.497424545862
 31
0.0
  0
LINE
  5
162ED
330
747D
100
AcDbEntity
  8
部品1
 48
50.0
100
AcDbLine
 10
3064.183055862401
 20
7178.497424545864
 30
0.0
 11
3041.183055862401
 21
7178.497424545864
 31
0.0
  0
LINE
  5
162EE
330
747D
100
AcDbEntity
  8
部品1
 48
50.0
100
AcDbLine
 10
3074.183055862401
 20
7168.497424545865
 30
0.0
 11
3064.183055862401
 21
7147.497424545865
 31
0.0
  0
LINE
  5
162EF
330
747D
100
AcDbEntity
  8
部品1
 48
50.0
100
AcDbLine
 10
3064.183055862401
 20
7207.497424545863
 30
0.0
 11
3064.183055862397
 21
7142.497424545864
 31
0.0
  0
LINE
  5
162F0
330
747D
100
AcDbEntity
  8
部品1
 48
50.0
100
AcDbLine
 10
3112.183055862401
 20
7168.497424545865
 30
0.0
 11
3112.183055862401
 21
7177.497424545865
 31
0.0
  0
LINE
  5
162F1
330
747D
100
AcDbEntity
  8
部品1
 48
50.0
100
AcDbLine
 10
3112.183055862401
 20
7207.497424545865
 30
0.0
 11
3112.183055862401
 21
7198.497424545866
 31
0.0
  0
LINE
  5
162F2
330
747D
100
AcDbEntity
  8
部品1
100
AcDbLine
 10
3112.183055862401
 20
7207.497424545865
 30
0.0
 11
3064.183055862401
 21
7207.497424545865
 31
0.0
  0
LINE
  5
162F3
330
747D
100
AcDbEntity
  8
部品1
100
AcDbLine
 10
3112.183055862401
 20
7168.497424545865
 30
0.0
 11
3064.183055862401
 21
7168.497424545865
 31
0.0
  0
LINE
  5
162F4
330
747D
100
AcDbEntity
  8
部品1
100
AcDbLine
 10
3064.1830558624
 20
7178.497424545864
 30
0.0
 11
3041.183055862401
 21
7178.497424545864
 31
0.0
  0
LINE
  5
162F5
330
747D
100
AcDbEntity
  8
部品1
100
AcDbLine
 10
3064.1830558624
 20
7197.497424545789
 30
0.0
 11
3009.183055862399
 21
7197.497424545789
 31
0.0
  0
LINE
  5
162F6
330
747D
100
AcDbEntity
  8
部品1
100
AcDbLine
 10
3037.183055862382
 20
7197.497424545826
 30
0.0
 11
3009.183055862399
 21
7197.497424545826
 31
0.0
  0
LINE
  5
162F7
330
747D
100
AcDbEntity
  8
部品1
100
AcDbLine
 10
3037.183055862399
 20
7197.49742454584
 30
0.0
 11
3009.183055862399
 21
7197.49742454584
 31
0.0
  0
LINE
  5
162FB
330
747D
100
AcDbEntity
  8
部品1
100
AcDbLine
 10
3037.183055862387
 20
8877.49742454584
 30
0.0
 11
3009.183055862387
 21
8877.49742454584
 31
0.0
  0
LINE
  5
162FC
330
747D
100
AcDbEntity
  8
部品1
100
AcDbLine
 10
3037.183055862387
 20
9297.49742454584
 30
0.0
 11
3009.183055862387
 21
9297.49742454584
 31
0.0
  0
LINE
  5
162FE
330
747D
100
AcDbEntity
  8
部品1
100
AcDbLine
 10
3037.183055862382
 20
9717.49742454584
 30
0.0
 11
3009.183055862381
 21
9717.49742454584
 31
0.0
  0
LINE
  5
162FF
330
747D
100
AcDbEntity
  8
部品1
100
AcDbLine
 10
8214.183055862401
 20
10137.49742454588
 30
0.0
 11
8214.183055862383
 21
7142.497424545952
 31
0.0
  0
LINE
  5
16300
330
747D
100
AcDbEntity
  8
部品1
100
AcDbLine
 10
8189.1830558624
 20
10137.49742454588
 30
0.0
 11
8189.183055862384
 21
7207.497424545865
 31
0.0
  0
DIMENSION
  5
16301
330
747D
100
AcDbEntity
  8
寸法
 48
50.0
100
AcDbDimension
  2
*D9
 10
8166.183055862381
 20
6608.0666537797
 30
0.0
 11
8055.220158213634
 21
6708.0666537797
 31
0.0
 70
   160
 71
     5
 42
48.00000000000181
  3
INABA_S40G
100
AcDbAlignedDimension
 13
8214.183055862383
 23
7142.497424545952
 33
0.0
 14
8166.183055862381
 24
7168.497424545865
 34
0.0
100
AcDbRotatedDimension
1001
ACAD
1000
DSTYLE
1002
{
1070
   279
1070
     2
1002
}
  0
DIMENSION
  5
16302
330
747D
100
AcDbEntity
  8
寸法
 48
50.0
100
AcDbDimension
  2
*D10
 10
8214.183055862383
 20
6608.066653779701
 30
0.0
 11
8577.668337236621
 21
6608.066653779701
 31
0.0
 70
   160
 71
     5
 42
54.99999999999818
  3
INABA_S40G
100
AcDbAlignedDimension
 13
8269.183055862383
 23
7142.497424545957
 33
0.0
 14
8214.183055862383
 24
7142.497424545952
 34
0.0
100
AcDbRotatedDimension
1001
ACAD
1000
DSTYLE
1002
{
1002
}
  0
LINE
  5
16303
330
747D
100
AcDbEntity
  8
部品1
 48
50.0
100
AcDbLine
 10
8204.183055862383
 20
7168.497424545865
 30
0.0
 11
8214.183055862383
 21
7147.497424545865
 31
0.0
  0
LINE
  5
16304
330
747D
100
AcDbEntity
  8
部品1
100
AcDbLine
 10
8166.183055862381
 20
7207.497424545865
 30
0.0
 11
8214.183055862383
 21
7207.497424545865
 31
0.0
  0
LINE
  5
16305
330
747D
100
AcDbEntity
  8
部品1
100
AcDbLine
 10
8166.183055862381
 20
7168.497424545865
 30
0.0
 11
8214.183055862383
 21
7168.497424545865
 31
0.0
  0
LINE
  5
16306
330
747D
100
AcDbEntity
  8
部品1
 48
50.0
100
AcDbLine
 10
8166.183055862381
 20
7207.497424545865
 30
0.0
 11
8166.183055862381
 21
7198.497424545866
 31
0.0
  0
LINE
  5
16307
330
747D
100
AcDbEntity
  8
部品1
 48
50.0
100
AcDbLine
 10
8166.183055862381
 20
7168.497424545865
 30
0.0
 11
8166.183055862381
 21
7177.497424545865
 31
0.0
  0
LINE
  5
16308
330
747D
100
AcDbEntity
  8
部品1
100
AcDbLine
 10
8214.183055862383
 20
7178.497424545861
 30
0.0
 11
8237.183055862383
 21
7178.497424545864
 31
0.0
  0
LINE
  5
16309
330
747D
100
AcDbEntity
  8
部品1
100
AcDbLine
 10
8214.183055862383
 20
7197.497424545968
 30
0.0
 11
8269.183055862415
 21
7197.497424545968
 31
0.0
  0
LINE
  5
1630A
330
747D
100
AcDbEntity
  8
部品1
100
AcDbLine
 10
8269.183055862383
 20
7142.497424545957
 30
0.0
 11
8214.183055862383
 21
7142.497424545954
 31
0.0
  0
LINE
  5
16317
330
747D
100
AcDbEntity
  8
部品1
100
AcDbLine
 10
8241.183055862412
 20
8877.497424545968
 30
0.0
 11
8269.183055862411
 21
8877.497424545968
 31
0.0
  0
LINE
  5
16319
330
747D
100
AcDbEntity
  8
部品1
100
AcDbLine
 10
8241.183055862412
 20
9297.497424545968
 30
0.0
 11
8269.183055862411
 21
9297.497424545968
 31
0.0
  0
LINE
  5
1631A
330
747D
100
AcDbEntity
  8
部品1
100
AcDbLine
 10
8241.183055862407
 20
9717.497424545967
 30
0.0
 11
8269.183055862407
 21
9717.497424545967
 31
0.0
  0
LINE
  5
1631B
330
747D
100
AcDbEntity
  8
部品1
100
AcDbLine
 10
5667.183055862407
 20
10164.49742454598
 30
0.0
 11
6941.683055862405
 21
10164.49742454598
 31
0.0
  0
LINE
  5
1631D
330
747D
100
AcDbEntity
  8
部品1
100
AcDbLine
 10
3009.183055862407
 20
10192.49742454587
 30
0.0
 11
8269.183055862407
 21
10192.49742454596
 31
0.0
  0
DIMENSION
  5
1631F
330
747D
100
AcDbEntity
  8
寸法
100
AcDbDimension
  2
*D11
 10
8214.183055862408
 20
10408.30564417096
 30
0.0
 11
6954.183055862408
 21
10508.31745519459
 31
0.0
 70
    32
  1
6X420=<>
 71
     5
 42
2520.000000000001
  3
INABA_S40G
100
AcDbAlignedDimension
 13
5694.183055862406
 23
10192.49742454587
 33
0.0
 14
8214.183055862408
 24
10192.49742454596
 34
0.0
100
AcDbRotatedDimension
1001
ACAD
1000
DSTYLE
1002
{
1002
}
  0
DIMENSION
  5
16320
330
747D
100
AcDbEntity
  8
寸法
100
AcDbDimension
  2
*D12
 10
3064.183055862407
 20
10408.30564417085
 30
0.0
 11
2700.697774488134
 21
10408.30564417085
 31
0.0
 70
   160
 71
     5
 42
55.00000000003456
  3
INABA_S40G
100
AcDbAlignedDimension
 13
3009.183055862373
 23
10192.49742454587
 33
0.0
 14
3064.183055862407
 24
10192.49742454587
 34
0.0
100
AcDbRotatedDimension
1001
ACAD
1000
DSTYLE
1002
{
1002
}
  0
LINE
  5
16321
330
747D
100
AcDbEntity
  8
部品1
100
AcDbLine
 10
3064.183055862372
 20
10192.49742454583
 30
0.0
 11
3064.183055862374
 21
10164.49742454583
 31
0.0
  0
LINE
  5
16322
330
747D
100
AcDbEntity
  8
部品1
100
AcDbLine
 10
3064.183055862407
 20
10192.49742454587
 30
0.0
 11
3064.183055862407
 21
10164.49742454587
 31
0.0
  0
LINE
  5
16323
330
747D
100
AcDbEntity
  8
部品1
100
AcDbLine
 10
3037.183055862374
 20
10137.49742454584
 30
0.0
 11
3009.183055862374
 21
10137.49742454584
 31
0.0
  0
LINE
  5
16324
330
747D
100
AcDbEntity
  8
部品1
100
AcDbLine
 10
6114.183055862407
 20
10192.49742454598
 30
0.0
 11
6114.183055862407
 21
10164.49742454598
 31
0.0
  0
LINE
  5
16325
330
747D
100
AcDbEntity
  8
部品1
100
AcDbLine
 10
6114.183055862407
 20
10192.49742454587
 30
0.0
 11
6114.183055862407
 21
10164.49742454587
 31
0.0
  0
LINE
  5
16326
330
747D
100
AcDbEntity
  8
部品1
100
AcDbLine
 10
6114.183055862407
 20
10192.49742454587
 30
0.0
 11
6114.183055862407
 21
10164.49742454587
 31
0.0
  0
LINE
  5
16327
330
747D
100
AcDbEntity
  8
部品1
100
AcDbLine
 10
6966.683055862407
 20
10164.49742454598
 30
0.0
 11
8241.183055862407
 21
10164.49742454596
 31
0.0
  0
LINE
  5
16329
330
747D
100
AcDbEntity
  8
部品1
100
AcDbLine
 10
6534.183055862406
 20
10192.49742454598
 30
0.0
 11
6534.183055862406
 21
10164.49742454598
 31
0.0
  0
LINE
  5
1632A
330
747D
100
AcDbEntity
  8
部品1
100
AcDbLine
 10
6534.183055862406
 20
10192.49742454587
 30
0.0
 11
6534.183055862406
 21
10164.49742454587
 31
0.0
  0
LINE
  5
1632B
330
747D
100
AcDbEntity
  8
部品1
100
AcDbLine
 10
6534.183055862406
 20
10192.49742454587
 30
0.0
 11
6534.183055862406
 21
10164.49742454587
 31
0.0
  0
LINE
  5
1632C
330
747D
100
AcDbEntity
  8
部品1
100
AcDbLine
 10
6954.183055862407
 20
10192.49742454598
 30
0.0
 11
6954.183055862407
 21
10164.49742454598
 31
0.0
  0
LINE
  5
1632D
330
747D
100
AcDbEntity
  8
部品1
100
AcDbLine
 10
6941.683055862407
 20
10156.49742454596
 30
0.0
 11
6966.683055862407
 21
10156.49742454597
 31
0.0
  0
LINE
  5
1632E
330
747D
100
AcDbEntity
  8
部品1
100
AcDbLine
 10
6983.183055862408
 20
10182.49742454597
 30
0.0
 11
6989.183055862406
 21
10182.49742454597
 31
0.0
  0
LINE
  5
1632F
330
747D
100
AcDbEntity
  8
部品1
100
AcDbLine
 10
6989.183055862406
 20
10182.49742454597
 30
0.0
 11
6989.183055862406
 21
10164.49742454597
 31
0.0
  0
LINE
  5
16330
330
747D
100
AcDbEntity
  8
部品1
100
AcDbLine
 10
6919.183055862408
 20
10182.49742454597
 30
0.0
 11
6925.183055862406
 21
10182.49742454597
 31
0.0
  0
LINE
  5
16331
330
747D
100
AcDbEntity
  8
部品1
100
AcDbLine
 10
6919.183055862408
 20
10182.49742454597
 30
0.0
 11
6919.183055862408
 21
10164.49742454597
 31
0.0
  0
LINE
  5
16332
330
747D
100
AcDbEntity
  8
部品1
100
AcDbLine
 10
7374.183055862407
 20
10192.49742454598
 30
0.0
 11
7374.183055862407
 21
10164.49742454598
 31
0.0
  0
DIMENSION
  5
16333
330
747D
100
AcDbEntity
  8
寸法
100
AcDbDimension
  2
*D13
 10
8269.183055862407
 20
10408.30564417095
 30
0.0
 11
8577.668337236646
 21
10408.30564417095
 31
0.0
 70
   160
 71
     5
 42
55.0
  3
INABA_S40G
100
AcDbAlignedDimension
 13
8214.183055862408
 23
10192.49742454596
 33
0.0
 14
8269.183055862407
 24
10192.49742454596
 34
0.0
100
AcDbRotatedDimension
1001
ACAD
1000
DSTYLE
1002
{
1002
}
  0
LINE
  5
16334
330
747D
100
AcDbEntity
  8
部品1
100
AcDbLine
 10
7794.183055862406
 20
10192.49742454598
 30
0.0
 11
7794.183055862406
 21
10164.49742454598
 31
0.0
  0
LINE
  5
16335
330
747D
100
AcDbEntity
  8
部品1
100
AcDbLine
 10
8214.183055862408
 20
10192.49742454596
 30
0.0
 11
8214.183055862408
 21
10164.49742454596
 31
0.0
  0
LINE
  5
16336
330
747D
100
AcDbEntity
  8
部品1
100
AcDbLine
 10
8214.183055862408
 20
10192.49742454598
 30
0.0
 11
8214.183055862408
 21
10164.49742454598
 31
0.0
  0
LINE
  5
16337
330
747D
100
AcDbEntity
  8
部品1
100
AcDbLine
 10
8241.183055862407
 20
10137.49742454596
 30
0.0
 11
8269.183055862407
 21
10137.49742454596
 31
0.0
  0
DIMENSION
  5
1659A
330
747D
100
AcDbEntity
  8
寸法
 48
50.0
100
AcDbDimension
  2
*D16
 10
5536.183055862382
 20
6608.0666537797
 30
0.0
 11
5425.220158213635
 21
6708.0666537797
 31
0.0
 70
   160
 71
     5
 42
48.00000000000181
  3
INABA_S40G
100
AcDbAlignedDimension
 13
5584.183055862384
 23
7142.497424545952
 33
0.0
 14
5536.183055862382
 24
7168.497424545865
 34
0.0
100
AcDbRotatedDimension
1001
ACAD
1000
DSTYLE
1002
{
1070
   279
1070
     2
1002
}
  0
DIMENSION
  5
1659B
330
747D
100
AcDbEntity
  8
寸法
 48
50.0
100
AcDbDimension
  2
*D14
 10
3112.183055862401
 20
6608.0666537797
 30
0.0
 11
4324.183055862391
 21
6708.078464803323
 31
0.0
 70
    32
  1
有効開口部間口 <>
 71
     5
 42
2423.999999999982
  3
INABA_S40G
100
AcDbAlignedDimension
 13
5536.183055862382
 23
7168.497424545865
 33
0.0
 14
3112.183055862401
 24
7168.497424545865
 34
0.0
100
AcDbRotatedDimension
1001
ACAD
1000
DSTYLE
1002
{
1070
    75
1070
     1
1070
   279
1070
     2
1002
}
  0
DIMENSION
  5
1659C
330
747D
100
AcDbEntity
  8
寸法
 48
50.0
100
AcDbDimension
  2
*D15
 10
3064.183055862397
 20
6608.0666537797
 30
0.0
 11
3225.085026862458
 21
6708.0666537797
 31
0.0
 70
   160
 71
     5
 42
48.00000000000363
  3
INABA_S40G
100
AcDbAlignedDimension
 13
3112.183055862401
 23
7168.497424545865
 33
0.0
 14
3064.183055862397
 24
7142.497424545864
 34
0.0
100
AcDbRotatedDimension
1001
ACAD
1000
DSTYLE
1002
{
1070
   279
1070
     2
1002
}
  0
DIMENSION
  5
165E9
330
747D
100
AcDbEntity
  8
寸法
 48
50.0
100
AcDbDimension
  2
*D17
 10
5584.183055862384
 20
6608.066653779701
 30
0.0
 11
5639.183055862391
 21
6456.37475874347
 31
0.0
 70
   160
 71
     5
 42
110.0000000000127
  3
INABA_S40G
100
AcDbAlignedDimension
 13
5694.183055862397
 23
7142.497424545864
 33
0.0
 14
5584.183055862384
 24
7142.497424545952
 34
0.0
100
AcDbRotatedDimension
1001
ACAD
1000
DSTYLE
1002
{
1070
   279
1070
     2
1002
}
  0
LINE
  5
16655
330
747D
100
AcDbEntity
  8
部品1
 48
50.0
100
AcDbLine
 10
3076.1830558624
 20
7187.997424545864
 30
0.0
 11
5572.183055862384
 21
7187.997424545864
 31
0.0
  0
LINE
  5
16656
330
747D
100
AcDbEntity
  8
部品1
100
AcDbLine
 10
5536.183055862382
 20
7207.497424545865
 30
0.0
 11
5584.183055862384
 21
7207.497424545865
 31
0.0
  0
LINE
  5
16657
330
747D
100
AcDbEntity
  8
部品1
 48
50.0
100
AcDbLine
 10
5536.183055862382
 20
7207.497424545865
 30
0.0
 11
5536.183055862382
 21
7198.497424545866
 31
0.0
  0
LINE
  5
16658
330
747D
100
AcDbEntity
  8
部品1
100
AcDbLine
 10
5536.183055862382
 20
7168.497424545865
 30
0.0
 11
5584.183055862382
 21
7168.497424545865
 31
0.0
  0
LINE
  5
16659
330
747D
100
AcDbEntity
  8
部品1
 48
50.0
100
AcDbLine
 10
5536.183055862382
 20
7168.497424545865
 30
0.0
 11
5536.183055862382
 21
7177.497424545865
 31
0.0
  0
LINE
  5
1665A
330
747D
100
AcDbEntity
  8
部品1
 48
50.0
100
AcDbLine
 10
5574.183055862382
 20
7168.497424545865
 30
0.0
 11
5584.183055862382
 21
7147.497424545865
 31
0.0
  0
LINE
  5
1665B
330
747D
100
AcDbEntity
  8
部品1
100
AcDbLine
 10
5584.183055862382
 20
7178.497424545861
 30
0.0
 11
5607.183055862382
 21
7178.497424545864
 31
0.0
  0
LINE
  5
1665C
330
747D
100
AcDbEntity
  8
部品1
100
AcDbLine
 10
5742.183055862401
 20
7207.497424545865
 30
0.0
 11
5694.1830558624
 21
7207.497424545865
 31
0.0
  0
LINE
  5
1665D
330
747D
100
AcDbEntity
  8
部品1
 48
50.0
100
AcDbLine
 10
5742.183055862401
 20
7207.497424545865
 30
0.0
 11
5742.183055862401
 21
7198.497424545866
 31
0.0
  0
LINE
  5
1665E
330
747D
100
AcDbEntity
  8
部品1
100
AcDbLine
 10
5742.183055862401
 20
7168.497424545865
 30
0.0
 11
5694.1830558624
 21
7168.497424545865
 31
0.0
  0
LINE
  5
1665F
330
747D
100
AcDbEntity
  8
部品1
 48
50.0
100
AcDbLine
 10
5704.183055862401
 20
7168.497424545865
 30
0.0
 11
5694.1830558624
 21
7147.497424545865
 31
0.0
  0
LINE
  5
16660
330
747D
100
AcDbEntity
  8
部品1
100
AcDbLine
 10
5694.183055862399
 20
7178.497424545864
 30
0.0
 11
5671.183055862401
 21
7178.497424545864
 31
0.0
  0
LINE
  5
16661
330
747D
100
AcDbEntity
  8
部品1
 48
50.0
100
AcDbLine
 10
5694.1830558624
 20
7207.497424545863
 30
0.0
 11
5694.183055862397
 21
7142.497424545864
 31
0.0
  0
LINE
  5
16662
330
747D
100
AcDbEntity
  8
部品1
 48
50.0
100
AcDbLine
 10
5742.183055862401
 20
7168.497424545865
 30
0.0
 11
5742.183055862401
 21
7177.497424545865
 31
0.0
  0
LINE
  5
16663
330
747D
100
AcDbEntity
  8
部品1
100
AcDbLine
 10
5694.183055862396
 20
7142.497424545864
 30
0.0
 11
5584.183055862386
 21
7142.497424545858
 31
0.0
  0
LINE
  5
16664
330
747D
100
AcDbEntity
  8
部品1
 48
50.0
100
AcDbLine
 10
5584.183055862389
 20
7207.497424545953
 30
0.0
 11
5584.183055862386
 21
7142.497424545952
 31
0.0
  0
LINE
  5
16666
330
747D
100
AcDbEntity
  8
部品1
100
AcDbLine
 10
5694.183055862406
 20
10192.49742454587
 30
0.0
 11
5694.183055862406
 21
10164.49742454587
 31
0.0
  0
DIMENSION
  5
16667
330
747D
100
AcDbEntity
  8
寸法
100
AcDbDimension
  2
*D18
 10
5584.183055862408
 20
10408.30564417096
 30
0.0
 11
4324.183055862408
 21
10508.31745519459
 31
0.0
 70
    32
  1
6X420=<>
 71
     5
 42
2520.000000000001
  3
INABA_S40G
100
AcDbAlignedDimension
 13
3064.183055862407
 23
10192.49742454587
 33
0.0
 14
5584.183055862408
 24
10192.49742454596
 34
0.0
100
AcDbRotatedDimension
1001
ACAD
1000
DSTYLE
1002
{
1002
}
  0
LINE
  5
16680
330
747D
100
AcDbEntity
  8
部品1
100
AcDbLine
 10
4324.183055862407
 20
10192.49742454598
 30
0.0
 11
4324.183055862407
 21
10164.49742454598
 31
0.0
  0
LINE
  5
16681
330
747D
100
AcDbEntity
  8
部品1
100
AcDbLine
 10
4311.683055862407
 20
10156.49742454596
 30
0.0
 11
4336.683055862407
 21
10156.49742454597
 31
0.0
  0
LINE
  5
16682
330
747D
100
AcDbEntity
  8
部品1
100
AcDbLine
 10
4353.183055862407
 20
10182.49742454597
 30
0.0
 11
4359.183055862406
 21
10182.49742454597
 31
0.0
  0
LINE
  5
16683
330
747D
100
AcDbEntity
  8
部品1
100
AcDbLine
 10
4359.183055862406
 20
10182.49742454597
 30
0.0
 11
4359.183055862406
 21
10164.49742454597
 31
0.0
  0
LINE
  5
16684
330
747D
100
AcDbEntity
  8
部品1
100
AcDbLine
 10
4289.183055862407
 20
10182.49742454597
 30
0.0
 11
4295.183055862406
 21
10182.49742454597
 31
0.0
  0
LINE
  5
16685
330
747D
100
AcDbEntity
  8
部品1
100
AcDbLine
 10
4289.183055862407
 20
10182.49742454597
 30
0.0
 11
4289.183055862407
 21
10164.49742454597
 31
0.0
  0
LINE
  5
16686
330
747D
100
AcDbEntity
  8
部品1
100
AcDbLine
 10
4336.683055862407
 20
10164.49742454598
 30
0.0
 11
5611.183055862408
 21
10164.49742454596
 31
0.0
  0
LINE
  5
16688
330
747D
100
AcDbEntity
  8
部品1
100
AcDbLine
 10
3037.183055862394
 20
10164.49742454598
 30
0.0
 11
4311.683055862405
 21
10164.49742454598
 31
0.0
  0
LINE
  5
1668A
330
747D
100
AcDbEntity
  8
部品1
100
AcDbLine
 10
3484.183055862407
 20
10192.49742454598
 30
0.0
 11
3484.183055862407
 21
10164.49742454598
 31
0.0
  0
LINE
  5
1668B
330
747D
100
AcDbEntity
  8
部品1
100
AcDbLine
 10
3484.183055862407
 20
10192.49742454587
 30
0.0
 11
3484.183055862407
 21
10164.49742454587
 31
0.0
  0
LINE
  5
1668C
330
747D
100
AcDbEntity
  8
部品1
100
AcDbLine
 10
3484.183055862407
 20
10192.49742454587
 30
0.0
 11
3484.183055862407
 21
10164.49742454587
 31
0.0
  0
LINE
  5
1668D
330
747D
100
AcDbEntity
  8
部品1
100
AcDbLine
 10
3904.183055862407
 20
10192.49742454598
 30
0.0
 11
3904.183055862407
 21
10164.49742454598
 31
0.0
  0
LINE
  5
1668E
330
747D
100
AcDbEntity
  8
部品1
100
AcDbLine
 10
3904.183055862407
 20
10192.49742454587
 30
0.0
 11
3904.183055862407
 21
10164.49742454587
 31
0.0
  0
LINE
  5
1668F
330
747D
100
AcDbEntity
  8
部品1
100
AcDbLine
 10
3904.183055862407
 20
10192.49742454587
 30
0.0
 11
3904.183055862407
 21
10164.49742454587
 31
0.0
  0
LINE
  5
16690
330
747D
100
AcDbEntity
  8
部品1
100
AcDbLine
 10
4744.183055862406
 20
10192.49742454598
 30
0.0
 11
4744.183055862406
 21
10164.49742454598
 31
0.0
  0
LINE
  5
16691
330
747D
100
AcDbEntity
  8
部品1
100
AcDbLine
 10
5164.183055862406
 20
10192.49742454598
 30
0.0
 11
5164.183055862406
 21
10164.49742454598
 31
0.0
  0
LINE
  5
16692
330
747D
100
AcDbEntity
  8
部品1
100
AcDbLine
 10
5584.183055862408
 20
10192.49742454596
 30
0.0
 11
5584.183055862408
 21
10164.49742454596
 31
0.0
  0
DIMENSION
  5
166DD
330
747D
100
AcDbEntity
  8
寸法
 48
50.0
100
AcDbDimension
  2
*D19
 10
5584.183055862408
 20
10408.30564417096
 30
0.0
 11
5639.183055862408
 21
10508.30564417096
 31
0.0
 70
    32
 71
     5
 42
109.9999999999991
  3
INABA_S40G
100
AcDbAlignedDimension
 13
5694.183055862406
 23
10192.49742454592
 33
0.0
 14
5584.183055862408
 24
10192.49742454591
 34
0.0
100
AcDbRotatedDimension
1001
ACAD
1000
DSTYLE
1002
{
1070
   279
1070
     2
1002
}
  0
LINE
  5
16761
330
747D
100
AcDbEntity
  8
部品1
100
AcDbLine
 10
8214.183055862401
 20
10137.49742454588
 30
0.0
 11
3064.183055862382
 21
10137.49742454588
 31
0.0
  0
LINE
  5
16762
330
747D
100
AcDbEntity
  8
部品1
 48
50.0
100
AcDbLine
 10
5611.183055862376
 20
10137.49742454588
 30
0.0
 11
5611.183055862374
 21
10192.49742454596
 31
0.0
  0
LINE
  5
16763
330
747D
100
AcDbEntity
  8
部品1
 48
50.0
100
AcDbLine
 10
5611.183055862375
 20
10164.49742454591
 30
0.0
 11
5639.183055862373
 21
10164.49742454591
 31
0.0
  0
LINE
  5
168C3
330
747D
100
AcDbEntity
  8
部品1
100
AcDbLine
 10
5663.183055862392
 20
7197.497424545861
 30
0.0
 11
5615.183055862391
 21
7197.49742454586
 31
0.0
  0
LINE
  5
168C4
330
747D
100
AcDbEntity
  8
部品1
 48
50.0
100
AcDbLine
 10
5615.183055862392
 20
7197.497424545861
 30
0.0
 11
5615.183055862394
 21
7142.497424545862
 31
0.0
  0
LINE
  5
168C5
330
747D
100
AcDbEntity
  8
部品1
 48
50.0
100
AcDbLine
 10
5663.183055862392
 20
7197.497424545861
 30
0.0
 11
5663.183055862394
 21
7142.497424545862
 31
0.0
  0
DIMENSION
  5
16907
330
747D
100
AcDbEntity
  8
寸法
 48
50.0
100
AcDbDimension
  2
*D20
 10
5639.183055862408
 20
10657.62711772726
 30
0.0
 11
4324.183055862389
 21
10757.63892875088
 31
0.0
 70
    32
 71
     5
 42
2630.000000000036
  3
INABA_S40G
100
AcDbAlignedDimension
 13
3009.183055862373
 23
10192.49742454583
 33
0.0
 14
5639.183055862408
 24
10567.29355852891
 34
0.0
100
AcDbRotatedDimension
1001
ACAD
1000
DSTYLE
1002
{
1070
   279
1070
     2
1002
}
  0
DIMENSION
  5
16913
330
747D
100
AcDbEntity
  8
寸法
 48
50.0
100
AcDbDimension
  2
*D21
 10
8269.183055862407
 20
10657.62711772726
 30
0.0
 11
6954.183055862408
 21
10757.63892875088
 31
0.0
 70
    32
 71
     5
 42
2630.0
  3
INABA_S40G
100
AcDbAlignedDimension
 13
5639.183055862408
 23
10567.29355852891
 33
0.0
 14
8269.183055862407
 24
10192.49742454596
 34
0.0
100
AcDbRotatedDimension
1001
ACAD
1000
DSTYLE
1002
{
1070
    75
1070
     1
1070
   279
1070
     2
1002
}
  0
LINE
  5
16C81
330
747D
100
AcDbEntity
  8
部品1
100
AcDbLine
 10
3037.183055862387
 20
8457.49742454584
 30
0.0
 11
3009.183055862387
 21
8457.49742454584
 31
0.0
  0
LINE
  5
16C82
330
747D
100
AcDbEntity
  8
部品1
100
AcDbLine
 10
8241.183055862412
 20
8457.497424545968
 30
0.0
 11
8269.183055862411
 21
8457.497424545968
 31
0.0
  0
LINE
  5
16FDA
330
747D
100
AcDbEntity
  8
部品1
100
AcDbLine
 10
3037.183055862387
 20
8037.49742454584
 30
0.0
 11
3009.183055862387
 21
8037.49742454584
 31
0.0
  0
LINE
  5
16FDB
330
747D
100
AcDbEntity
  8
部品1
100
AcDbLine
 10
8241.183055862412
 20
8037.497424545966
 30
0.0
 11
8269.183055862411
 21
8037.497424545966
 31
0.0
  0
LINE
  5
1733B
330
747D
100
AcDbEntity
  8
部品1
100
AcDbLine
 10
3037.183055862388
 20
7617.49742454584
 30
0.0
 11
3009.183055862388
 21
7617.49742454584
 31
0.0
  0
LINE
  5
1733C
330
747D
100
AcDbEntity
  8
部品1
100
AcDbLine
 10
8241.183055862412
 20
7617.497424545966
 30
0.0
 11
8269.183055862411
 21
7617.497424545966
 31
0.0
  0
LINE
  5
17351
330
747D
100
AcDbEntity
  8
部品1
 48
50.0
100
AcDbLine
 10
6941.683055862405
 20
10164.49742454598
 30
0.0
 11
6941.683055862407
 21
10156.49742454596
 31
0.0
  0
LINE
  5
17352
330
747D
100
AcDbEntity
  8
部品1
 48
50.0
100
AcDbLine
 10
6966.683055862407
 20
10156.49742454597
 30
0.0
 11
6966.683055862407
 21
10164.49742454598
 31
0.0
  0
LINE
  5
17353
330
747D
100
AcDbEntity
  8
部品1
 48
50.0
100
AcDbLine
 10
4311.683055862405
 20
10164.49742454598
 30
0.0
 11
4311.683055862405
 21
10156.49742454596
 31
0.0
  0
LINE
  5
17354
330
747D
100
AcDbEntity
  8
部品1
 48
50.0
100
AcDbLine
 10
4336.683055862407
 20
10164.49742454598
 30
0.0
 11
4336.683055862407
 21
10156.49742454597
 31
0.0
  0
LINE
  5
17355
330
747D
100
AcDbEntity
  8
部品1
 48
50.0
100
AcDbLine
 10
3037.183055862394
 20
10164.49742454587
 30
0.0
 11
3064.183055862382
 21
10137.49742454588
 31
0.0
  0
LINE
  5
17356
330
747D
100
AcDbEntity
  8
部品1
 48
50.0
100
AcDbLine
 10
8241.183055862391
 20
10164.49742454596
 30
0.0
 11
8214.183055862401
 21
10137.49742454588
 31
0.0
  0
LINE
  5
1735F
330
747D
100
AcDbEntity
  8
部品1
 48
50.0
100
AcDbLine
 10
5667.183055862407
 20
10192.49742454592
 30
0.0
 11
5667.183055862408
 21
10137.49742454588
 31
0.0
  0
LINE
  5
17360
330
747D
100
AcDbEntity
  8
部品1
 48
50.0
100
AcDbLine
 10
8189.183055862406
 20
10112.49742454578
 30
0.0
 11
3089.18305586238
 21
10112.49742454572
 31
0.0
  0
LINE
  5
17361
330
747D
100
AcDbEntity
  8
部品1
 48
50.0
100
AcDbLine
 10
5724.183055862457
 20
10164.49742454577
 30
0.0
 11
5724.183055862457
 21
10112.49742454576
 31
0.0
  0
LINE
  5
17362
330
747D
100
AcDbEntity
  8
部品1
 48
50.0
100
AcDbLine
 10
5554.183055862456
 20
10164.49742454587
 30
0.0
 11
5554.183055862456
 21
10112.49742454576
 31
0.0
  0
LINE
  5
17363
330
747D
100
AcDbEntity
  8
部品1
 48
50.0
100
AcDbLine
 10
5639.183055862372
 20
10164.49742454591
 30
0.0
 11
5611.183055862374
 21
10192.49742454596
 31
0.0
  0
TEXT
  5
174D2
330
747D
100
AcDbEntity
  8
文字
 62
     7
 48
50.0
100
AcDbText
 10
15022.63965474516
 20
9910.01374588373
 30
0.0
 40
100.0
  1
F12,Y10      1.2+1.6
  7
STYLE1
100
AcDbText
  0
TEXT
  5
174D3
330
747D
100
AcDbEntity
  8
文字
 62
     7
 48
50.0
100
AcDbText
 10
13583.11819016569
 20
9910.01374588373
 30
0.0
 40
100.0
  1
梁中
  7
STYLE1
100
AcDbText
  0
LINE
  5
174D4
330
747D
100
AcDbEntity
  8
仕様書枠
 48
50.0
100
AcDbLine
 10
16307.19999999999
 20
9879.600000000001
 30
0.0
 11
13127.19999999999
 21
9879.600000000003
 31
0.0
  0
LINE
  5
174D5
330
747D
100
AcDbEntity
  8
仕様書枠
 48
50.0
100
AcDbLine
 10
16307.19999999999
 20
11239.6
 30
0.0
 11
13127.2
 21
11239.6
 31
0.0
  0
LINE
  5
174D6
330
747D
100
AcDbEntity
  8
仕様書枠
 48
50.0
100
AcDbLine
 10
16307.19999999999
 20
8349.600000000004
 30
0.0
 11
16307.2
 21
11239.6
 31
0.0
  0
LINE
  5
174D7
330
747D
100
AcDbEntity
  8
仕様書枠
 48
50.0
100
AcDbLine
 10
14785.2
 20
11239.6
 30
0.0
 11
14785.2
 21
8859.600000000005
 31
0.0
  0
LINE
  5
174D8
330
747D
100
AcDbEntity
  8
仕様書枠
 48
50.0
100
AcDbLine
 10
13490.2
 20
11239.6
 30
0.0
 11
13490.20000000001
 21
8859.600000000005
 31
0.0
  0
LINE
  5
174D9
330
747D
100
AcDbEntity
  8
仕様書枠
 48
50.0
100
AcDbLine
 10
16307.19999999999
 20
11069.6
 30
0.0
 11
13127.2
 21
11069.6
 31
0.0
  0
LINE
  5
174DA
330
747D
100
AcDbEntity
  8
仕様書枠
 48
50.0
100
AcDbLine
 10
16307.19999999999
 20
10729.6
 30
0.0
 11
13127.2
 21
10729.6
 31
0.0
  0
LINE
  5
174DB
330
747D
100
AcDbEntity
  8
仕様書枠
 48
50.0
100
AcDbLine
 10
16307.19999999999
 20
10899.6
 30
0.0
 11
13127.2
 21
10899.6
 31
0.0
  0
LINE
  5
174DC
330
747D
100
AcDbEntity
  8
仕様書枠
 48
50.0
100
AcDbLine
 10
16307.19999999999
 20
10389.6
 30
0.0
 11
13127.19999999999
 21
10389.6
 31
0.0
  0
LINE
  5
174DD
330
747D
100
AcDbEntity
  8
仕様書枠
 48
50.0
100
AcDbLine
 10
16307.19999999999
 20
10219.6
 30
0.0
 11
13127.19999999999
 21
10219.6
 31
0.0
  0
LINE
  5
174DE
330
747D
100
AcDbEntity
  8
仕様書枠
 48
50.0
100
AcDbLine
 10
16307.19999999999
 20
10559.6
 30
0.0
 11
13127.19999999999
 21
10559.6
 31
0.0
  0
TEXT
  5
174DF
330
747D
100
AcDbEntity
  8
文字
 62
     7
 48
50.0
100
AcDbText
 10
13197.42518560407
 20
11100.01374588373
 30
0.0
 40
100.0
  1
品番
  7
STYLE1
100
AcDbText
  0
TEXT
  5
174E0
330
747D
100
AcDbEntity
  8
文字
 62
     7
 48
50.0
100
AcDbText
 10
13271.19032244792
 20
10930.01374588373
 30
0.0
 40
100.0
  1
1
  7
STYLE1
100
AcDbText
  0
TEXT
  5
174E1
330
747D
100
AcDbEntity
  8
文字
 62
     7
 48
50.0
100
AcDbText
 10
13271.19032244792
 20
10760.01374588373
 30
0.0
 40
100.0
  1
2
  7
STYLE1
100
AcDbText
  0
TEXT
  5
174E2
330
747D
100
AcDbEntity
  8
文字
 62
     7
 48
50.0
100
AcDbText
 10
13271.19032244792
 20
10420.01374588373
 30
0.0
 40
100.0
  1
4
  7
STYLE1
100
AcDbText
  0
TEXT
  5
174E3
330
747D
100
AcDbEntity
  8
文字
 62
     7
 48
50.0
100
AcDbText
 10
13271.19032244792
 20
10590.01374588373
 30
0.0
 40
100.0
  1
3
  7
STYLE1
100
AcDbText
  0
TEXT
  5
174E4
330
747D
100
AcDbEntity
  8
文字
 62
     7
 48
50.0
100
AcDbText
 10
13732.03840939434
 20
11100.01374588373
 30
0.0
 40
100.0
  1
部　　品　　名
  7
STYLE1
100
AcDbText
  0
TEXT
  5
174E5
330
747D
100
AcDbEntity
  8
文字
 62
     7
 48
50.0
100
AcDbText
 10
14859.79774614482
 20
11100.01374588373
 30
0.0
 40
100.0
  1
材料（材質）　　単位mm
  7
STYLE1
100
AcDbText
  0
TEXT
  5
174E6
330
747D
100
AcDbEntity
  8
文字
 62
     7
 48
50.0
100
AcDbText
 10
13583.11819016569
 20
10930.01374588373
 30
0.0
 40
100.0
  1
土台枠
  7
STYLE1
100
AcDbText
  0
TEXT
  5
174E7
330
747D
100
AcDbEntity
  8
文字
 62
     7
 48
50.0
100
AcDbText
 10
13583.11819016569
 20
10760.01374588373
 30
0.0
 40
100.0
  1
柱
  7
STYLE1
100
AcDbText
  0
TEXT
  5
174E8
330
747D
100
AcDbEntity
  8
文字
 62
     7
 48
50.0
100
AcDbText
 10
13583.11819016569
 20
10590.01374588373
 30
0.0
 40
100.0
  1
桁前
  7
STYLE1
100
AcDbText
  0
TEXT
  5
174E9
330
747D
100
AcDbEntity
  8
文字
 62
     7
 48
50.0
100
AcDbText
 10
13583.11819016569
 20
10420.01374588373
 30
0.0
 40
100.0
  1
桁後
  7
STYLE1
100
AcDbText
  0
TEXT
  5
174EA
330
747D
100
AcDbEntity
  8
文字
 62
     7
 48
50.0
100
AcDbText
 10
13271.19032244792
 20
10250.01374588373
 30
0.0
 40
100.0
  1
5
  7
STYLE1
100
AcDbText
  0
TEXT
  5
174EB
330
747D
100
AcDbEntity
  8
文字
 62
     7
 48
50.0
100
AcDbText
 10
13583.11819016569
 20
10250.01374588373
 30
0.0
 40
100.0
  1
妻板左右
  7
STYLE1
100
AcDbText
  0
TEXT
  5
174EC
330
747D
100
AcDbEntity
  8
文字
 62
     7
 48
50.0
100
AcDbText
 10
13583.11819016569
 20
8890.013745883729
 30
0.0
 40
100.0
  1
シャッターレール
  7
STYLE1
100
AcDbText
  0
TEXT
  5
174ED
330
747D
100
AcDbEntity
  8
文字
 62
     7
 48
50.0
100
AcDbText
 10
13248.77747366448
 20
9400.013745883729
 30
0.0
 40
100.0
  1
10
  7
STYLE1
100
AcDbText
  0
TEXT
  5
174EE
330
747D
100
AcDbEntity
  8
文字
 62
     7
 48
50.0
100
AcDbText
 10
13583.11819016569
 20
9400.013745883731
 30
0.0
 40
100.0
  1
壁パネル
  7
STYLE1
100
AcDbText
  0
TEXT
  5
174EF
330
747D
100
AcDbEntity
  8
文字
 62
     7
 48
50.0
100
AcDbText
 10
13583.11819016569
 20
9570.013745883729
 30
0.0
 40
100.0
  1
屋根パネル
  7
STYLE1
100
AcDbText
  0
TEXT
  5
174F0
330
747D
100
AcDbEntity
  8
文字
 62
     7
 48
50.0
100
AcDbText
 10
13583.11819016569
 20
9740.013745883729
 30
0.0
 40
100.0
  1
母屋中
  7
STYLE1
100
AcDbText
  0
TEXT
  5
174F1
330
747D
100
AcDbEntity
  8
文字
 62
     7
 48
50.0
100
AcDbText
 10
13583.11819016569
 20
10080.01374588373
 30
0.0
 40
100.0
  1
鼻隠シ前後
  7
STYLE1
100
AcDbText
  0
TEXT
  5
174F2
330
747D
100
AcDbEntity
  8
文字
 62
     7
 48
50.0
100
AcDbText
 10
13271.19032244792
 20
9740.013745883731
 30
0.0
 40
100.0
  1
8
  7
STYLE1
100
AcDbText
  0
TEXT
  5
174F3
330
747D
100
AcDbEntity
  8
文字
 62
     7
 48
50.0
100
AcDbText
 10
13271.19032244792
 20
9570.013745883731
 30
0.0
 40
100.0
  1
9
  7
STYLE1
100
AcDbText
  0
TEXT
  5
174F4
330
747D
100
AcDbEntity
  8
文字
 62
     7
 48
50.0
100
AcDbText
 10
13271.19032244792
 20
9910.01374588373
 30
0.0
 40
100.0
  1
7
  7
STYLE1
100
AcDbText
  0
TEXT
  5
174F5
330
747D
100
AcDbEntity
  8
文字
 62
     7
 48
50.0
100
AcDbText
 10
13271.19032244792
 20
10080.01374588373
 30
0.0
 40
100.0
  1
6
  7
STYLE1
100
AcDbText
  0
LINE
  5
174F6
330
747D
100
AcDbEntity
  8
仕様書枠
 48
50.0
100
AcDbLine
 10
16307.19999999999
 20
9539.6
 30
0.0
 11
13127.19999999999
 21
9539.600000000003
 31
0.0
  0
LINE
  5
174F7
330
747D
100
AcDbEntity
  8
仕様書枠
 48
50.0
100
AcDbLine
 10
16307.19999999999
 20
9199.600000000001
 30
0.0
 11
13127.19999999999
 21
9199.600000000001
 31
0.0
  0
LINE
  5
174F8
330
747D
100
AcDbEntity
  8
仕様書枠
 48
50.0
100
AcDbLine
 10
16307.19999999999
 20
9369.600000000001
 30
0.0
 11
13127.19999999999
 21
9369.600000000003
 31
0.0
  0
LINE
  5
174F9
330
747D
100
AcDbEntity
  8
仕様書枠
 48
50.0
100
AcDbLine
 10
16307.19999999999
 20
10049.6
 30
0.0
 11
13127.2
 21
10049.6
 31
0.0
  0
LINE
  5
174FA
330
747D
100
AcDbEntity
  8
仕様書枠
 48
50.0
100
AcDbLine
 10
16307.19999999999
 20
9709.600000000001
 30
0.0
 11
13127.19999999999
 21
9709.600000000001
 31
0.0
  0
TEXT
  5
174FB
330
747D
100
AcDbEntity
  8
文字
 62
     7
 48
50.0
100
AcDbText
 10
13248.77747366448
 20
9230.013745883729
 30
0.0
 40
100.0
  1
11
  7
STYLE1
100
AcDbText
  0
TEXT
  5
174FC
330
747D
100
AcDbEntity
  8
文字
 62
     7
 48
50.0
100
AcDbText
 10
13583.11819016569
 20
9060.013745883729
 30
0.0
 40
100.0
  1
シャッターカバー
 41
0.9
  7
STYLE1
100
AcDbText
  0
LINE
  5
174FD
330
747D
100
AcDbEntity
  8
仕様書枠
 48
50.0
100
AcDbLine
 10
16307.19999999999
 20
9029.6
 30
0.0
 11
13127.19999999999
 21
9029.600000000002
 31
0.0
  0
LINE
  5
174FE
330
747D
100
AcDbEntity
  8
仕様書枠
 48
50.0
100
AcDbLine
 10
16307.19999999999
 20
8859.600000000002
 30
0.0
 11
13127.19999999999
 21
8859.600000000005
 31
0.0
  0
TEXT
  5
174FF
330
747D
100
AcDbEntity
  8
文字
 62
     7
 48
50.0
100
AcDbText
 10
13583.11819016569
 20
9230.013745883731
 30
0.0
 40
100.0
  1
シャッター
  7
STYLE1
100
AcDbText
  0
TEXT
  5
17500
330
747D
100
AcDbEntity
  8
文字
 62
     7
 48
50.0
100
AcDbText
 10
13248.77747366448
 20
8890.013745883731
 30
0.0
 40
100.0
  1
13
  7
STYLE1
100
AcDbText
  0
TEXT
  5
17501
330
747D
100
AcDbEntity
  8
文字
 62
     7
 48
50.0
100
AcDbText
 10
13248.77747366448
 20
9060.013745883731
 30
0.0
 40
100.0
  1
12
  7
STYLE1
100
AcDbText
  0
TEXT
  5
17502
330
747D
100
AcDbEntity
  8
文字
 62
     7
 48
50.0
100
AcDbText
 10
15022.63965474517
 20
10930.01374588372
 30
0.0
 40
100.0
  1
F12            1.2
  7
STYLE1
100
AcDbText
  0
TEXT
  5
17503
330
747D
100
AcDbEntity
  8
文字
 62
     7
 48
50.0
100
AcDbText
 10
15022.63965474517
 20
10760.01374588372
 30
0.0
 40
100.0
  1
F12         1.0,1.2
  7
STYLE1
100
AcDbText
  0
TEXT
  5
17504
330
747D
100
AcDbEntity
  8
文字
 62
     7
 48
50.0
100
AcDbText
 10
15022.63965474516
 20
10590.01374588373
 30
0.0
 40
100.0
  1
Y10            1.0
  7
STYLE1
100
AcDbText
  0
TEXT
  5
17505
330
747D
100
AcDbEntity
  8
文字
 62
     7
 48
50.0
100
AcDbText
 10
15022.63965474516
 20
10420.01374588372
 30
0.0
 40
100.0
  1
Y10            1.0
  7
STYLE1
100
AcDbText
  0
TEXT
  5
17506
330
747D
100
AcDbEntity
  8
文字
 62
     7
 48
50.0
100
AcDbText
 10
15022.63965474516
 20
10250.01374588373
 30
0.0
 40
100.0
  1
Y10            0.7
  7
STYLE1
100
AcDbText
  0
TEXT
  5
17507
330
747D
100
AcDbEntity
  8
文字
 62
     7
 48
50.0
100
AcDbText
 10
15022.63965474516
 20
10080.01374588372
 30
0.0
 40
100.0
  1
Y10            0.7
  7
STYLE1
100
AcDbText
  0
TEXT
  5
17508
330
747D
100
AcDbEntity
  8
文字
 62
     7
 48
50.0
100
AcDbText
 10
15022.63965474516
 20
9570.013745883727
 30
0.0
 40
100.0
  1
Y10            0.5
  7
STYLE1
100
AcDbText
  0
TEXT
  5
17509
330
747D
100
AcDbEntity
  8
文字
 62
     7
 48
50.0
100
AcDbText
 10
15022.63965474516
 20
9400.013745883727
 30
0.0
 40
100.0
  1
F12            0.7
  7
STYLE1
100
AcDbText
  0
TEXT
  5
1750A
330
747D
100
AcDbEntity
  8
文字
 62
     7
 48
50.0
100
AcDbText
 10
14850.83183167176
 20
8890.013745883727
 30
0.0
 40
100.0
  1
アルミニウム合金押出形材
  7
STYLE1
100
AcDbText
  0
TEXT
  5
1750C
330
747D
100
AcDbEntity
  8
文字
 62
     7
 48
50.0
100
AcDbText
 10
15022.63965474515
 20
9230.013745883727
 30
0.0
 40
100.0
  1
Z08            0.5
  7
STYLE1
100
AcDbText
  0
LINE
  5
1750D
330
747D
100
AcDbEntity
  8
仕様書枠
 48
50.0
100
AcDbLine
 10
16307.19999999999
 20
8689.600000000003
 30
0.0
 11
13127.19999999999
 21
8689.600000000005
 31
0.0
  0
LINE
  5
1750E
330
747D
100
AcDbEntity
  8
仕様書枠
 48
50.0
100
AcDbLine
 10
16307.19999999999
 20
8519.600000000004
 30
0.0
 11
13127.19999999999
 21
8519.600000000005
 31
0.0
  0
LINE
  5
1750F
330
747D
100
AcDbEntity
  8
仕様書枠
 48
50.0
100
AcDbLine
 10
16307.19999999999
 20
8349.600000000004
 30
0.0
 11
13127.19999999999
 21
8349.600000000007
 31
0.0
  0
TEXT
  5
17510
330
747D
100
AcDbEntity
  8
文字
 62
     7
 48
50.0
100
AcDbText
 10
13229.83081656555
 20
8720.013745883733
 30
0.0
 40
100.0
  1
F12→溶融亜鉛めっき鋼板(JIS G 3302)
  7
STYLE1
100
AcDbText
  0
TEXT
  5
17511
330
747D
100
AcDbEntity
  8
文字
 62
     7
 48
50.0
100
AcDbText
 10
13229.83081656555
 20
8550.013745883733
 30
0.0
 40
100.0
  1
Y10→溶融亜鉛-5％アルミニウム合金めっき鋼板(JIS G 3317)
 41
0.9
  7
STYLE1
100
AcDbText
  0
TEXT
  5
17512
330
747D
100
AcDbEntity
  8
文字
 62
     7
 48
50.0
100
AcDbText
 10
13229.83081656555
 20
8380.013745883735
 30
0.0
 40
100.0
  1
Z08→塗装溶融亜鉛めっき鋼板(JIS G 3313)
  7
STYLE1
100
AcDbText
  0
LINE
  5
17513
330
747D
100
AcDbEntity
  8
仕様書枠
 48
50.0
100
AcDbLine
 10
13127.2
 20
11239.6
 30
0.0
 11
13127.2
 21
8349.600000000007
 31
0.0
  0
LINE
  5
1786D
330
747D
100
AcDbEntity
  8
部品1
100
AcDbLine
 10
10960.0189468048
 20
2241.856458683495
 30
0.0
 11
10567.02173259595
 21
2141.856458683495
 31
0.0
  0
LINE
  5
1786E
330
747D
100
AcDbEntity
  8
破線
 48
5.0
100
AcDbLine
 10
10960.0189468048
 20
1891.856458683495
 30
0.0
 11
11015.01894680479
 21
1891.856458683495
 31
0.0
  0
LINE
  5
1786F
330
747D
100
AcDbEntity
  8
破線
 48
5.0
100
AcDbLine
 10
11015.0189468048
 20
2141.856458683495
 30
0.0
 11
11015.0189468048
 21
1891.856458683495
 31
0.0
  0
LINE
  5
17870
330
747D
100
AcDbEntity
  8
破線
 48
5.0
100
AcDbLine
 10
10960.0189468048
 20
2141.856458683495
 30
0.0
 11
10960.0189468048
 21
1891.856458683495
 31
0.0
  0
DIMENSION
  5
17875
330
747D
100
AcDbEntity
  8
寸法
100
AcDbDimension
  2
*D22
 10
10116.26881762154
 20
2291.85645868349
 30
0.0
 11
10016.25700659791
 21
3336.856458683492
 31
0.0
 70
    32
 71
     5
 42
2090.000000000001
  3
INABA_S40G
100
AcDbAlignedDimension
 13
10960.01894680479
 23
4381.856458683491
 33
0.0
 14
10960.01894680479
 24
2291.85645868349
 34
0.0
 50
90.0
100
AcDbRotatedDimension
1001
ACAD
1000
DSTYLE
1002
{
1070
   174
1070
     0
1070
   272
1070
     1
1070
   288
1070
     0
1070
   341
1005
0
1002
}
  0
DIMENSION
  5
17876
330
747D
100
AcDbEntity
  8
寸法
100
AcDbDimension
  2
*D23
 10
9816.268817621539
 20
4616.856458683495
 30
0.0
 11
9716.257006597913
 21
3429.356458683494
 31
0.0
 70
    32
 71
     5
 42
2375.000000000005
  3
INABA_S40G
100
AcDbAlignedDimension
 13
10960.01894680479
 23
2241.85645868349
 33
0.0
 14
10900.01894680479
 24
4616.856458683495
 34
0.0
 50
90.0
100
AcDbRotatedDimension
1001
ACAD
1000
DSTYLE
1002
{
1070
   174
1070
     0
1070
   272
1070
     1
1070
   288
1070
     0
1070
   341
1005
0
1002
}
  0
DIMENSION
  5
17877
330
747D
100
AcDbEntity
  8
寸法
100
AcDbDimension
  2
*D24
 10
14714.94610477692
 20
4561.856458683496
 30
0.0
 11
14614.9342937533
 21
3401.856458683499
 31
0.0
 70
    32
 71
     5
 42
2319.999999999999
  3
INABA_S40G
100
AcDbAlignedDimension
 13
14010.0189468048
 23
2241.856458683497
 33
0.0
 14
14090.0189468048
 24
4561.856458683496
 34
0.0
 50
90.0
100
AcDbRotatedDimension
1001
ACAD
1000
DSTYLE
1002
{
1070
   174
1070
     0
1070
   272
1070
     1
1070
   288
1070
     0
1070
   341
1005
0
1002
}
  0
LINE
  5
17878
330
747D
100
AcDbEntity
  8
細線
 48
50.0
100
AcDbLine
 10
13037.5189468048
 20
4381.856458683494
 30
0.0
 11
13037.5189468048
 21
2291.856458683497
 31
0.0
  0
LINE
  5
17879
330
747D
100
AcDbEntity
  8
細線
 48
50.0
100
AcDbLine
 10
13052.5189468048
 20
4381.856458683494
 30
0.0
 11
13052.5189468048
 21
2291.856458683497
 31
0.0
  0
LINE
  5
1787A
330
747D
100
AcDbEntity
  8
細線
 48
50.0
100
AcDbLine
 10
12912.5189468048
 20
4381.856458683494
 30
0.0
 11
12912.5189468048
 21
2291.856458683497
 31
0.0
  0
LINE
  5
1787B
330
747D
100
AcDbEntity
  8
細線
 48
50.0
100
AcDbLine
 10
12897.5189468048
 20
4381.856458683494
 30
0.0
 11
12897.5189468048
 21
2291.856458683497
 31
0.0
  0
LINE
  5
1787C
330
747D
100
AcDbEntity
  8
細線
 48
50.0
100
AcDbLine
 10
12757.5189468048
 20
4381.856458683494
 30
0.0
 11
12757.5189468048
 21
2291.856458683497
 31
0.0
  0
LINE
  5
1787D
330
747D
100
AcDbEntity
  8
細線
 48
50.0
100
AcDbLine
 10
12772.5189468048
 20
4381.856458683494
 30
0.0
 11
12772.5189468048
 21
2291.856458683497
 31
0.0
  0
LINE
  5
1787E
330
747D
100
AcDbEntity
  8
部品1
100
AcDbLine
 10
12695.0189468048
 20
4381.856458683494
 30
0.0
 11
12695.0189468048
 21
2291.856458683497
 31
0.0
  0
LINE
  5
1787F
330
747D
100
AcDbEntity
  8
部品1
100
AcDbLine
 10
12338.53221932831
 20
4742.060846646512
 30
0.0
 11
12663.98723297134
 21
4724.542787687652
 31
0.0
  0
ARC
  5
17880
330
747D
100
AcDbEntity
  8
部品1
100
AcDbCircle
 10
14075.64648261874
 20
4455.880215949288
 30
0.0
 40
0.7
100
AcDbArc
 50
275.0921697642079
 51
354.1866997667087
  0
ARC
  5
17881
330
747D
100
AcDbEntity
  8
部品1
100
AcDbCircle
 10
14086.50582836806
 20
4532.923470767211
 30
0.0
 40
0.7
100
AcDbArc
 50
275.0921697642079
 51
354.1866997665532
  0
ARC
  5
17882
330
747D
100
AcDbEntity
  8
部品1
100
AcDbCircle
 10
14086.83423361066
 20
4529.238073910121
 30
0.0
 40
3.0
100
AcDbArc
 50
95.09216976420788
 51
174.1866997665532
  0
ARC
  5
17883
330
747D
100
AcDbEntity
  8
部品1
100
AcDbCircle
 10
14075.97488786134
 20
4452.194819092198
 30
0.0
 40
3.0
100
AcDbArc
 50
95.09216976420788
 51
174.1866997665532
  0
ARC
  5
17884
330
747D
100
AcDbEntity
  8
部品1
 48
50.0
100
AcDbCircle
 10
14064.94675258623
 20
4442.604074488316
 30
0.0
 40
7.0
100
AcDbArc
 50
267.8377559869492
 51
354.1866997665532
  0
ARC
  5
17885
330
747D
100
AcDbEntity
  8
部品1
 48
50.0
100
AcDbCircle
 10
14082.26884905075
 20
4553.506621630488
 30
0.0
 40
7.0
100
AcDbArc
 50
354.1866997665532
 51
87.03587545283228
  0
LINE
  5
17886
330
747D
100
AcDbEntity
  8
部品1
 48
50.0
100
AcDbLine
 10
14072.99031619072
 20
4452.4986808091
 30
0.0
 11
14071.91075315098
 21
4441.895063815542
 31
0.0
  0
LINE
  5
17887
330
747D
100
AcDbEntity
  8
部品1
 48
50.0
100
AcDbLine
 10
14083.84966194004
 20
4529.541935627025
 30
0.0
 11
14076.34288267521
 21
4455.809314882013
 31
0.0
  0
LINE
  5
17888
330
747D
100
AcDbEntity
  8
部品1
 48
50.0
100
AcDbLine
 10
14089.2328496155
 20
4552.797610957713
 30
0.0
 11
14087.20222842453
 21
4532.852569699934
 31
0.0
  0
ARC
  5
17889
330
747D
100
AcDbEntity
  8
部品1
100
AcDbCircle
 10
10906.05603867616
 20
4495.670617642399
 30
0.0
 40
0.7
100
AcDbArc
 50
181.0932240292635
 51
260.1877540314845
  0
ARC
  5
1788A
330
747D
100
AcDbEntity
  8
部品1
100
AcDbCircle
 10
10901.28336507855
 20
4588.536395842518
 30
0.0
 40
0.7
100
AcDbArc
 50
181.0932240292114
 51
260.1877540314845
  0
ARC
  5
1788B
330
747D
100
AcDbEntity
  8
部品1
100
AcDbCircle
 10
10900.65281067553
 20
4584.89052130512
 30
0.0
 40
3.0
100
AcDbArc
 50
1.093224029315636
 51
80.18775403169875
  0
ARC
  5
1788C
330
747D
100
AcDbEntity
  8
部品1
100
AcDbCircle
 10
10905.42548427314
 20
4492.024743105001
 30
0.0
 40
3.0
100
AcDbArc
 50
1.093224029315636
 51
80.18775403169875
  0
ARC
  5
1788D
330
747D
100
AcDbEntity
  8
部品1
 48
50.0
100
AcDbCircle
 10
10915.62561664834
 20
4481.63249972252
 30
0.0
 40
7.0
100
AcDbArc
 50
181.0932240293156
 51
267.8377559869492
  0
ARC
  5
1788E
330
747D
100
AcDbEntity
  8
部品1
 48
50.0
100
AcDbCircle
 10
10907.20195854624
 20
4608.583559255615
 30
0.0
 40
7.0
100
AcDbArc
 50
87.03587545283228
 51
181.0932240293156
  0
LINE
  5
1788F
330
747D
100
AcDbEntity
  8
部品1
 48
50.0
100
AcDbLine
 10
10908.42493819957
 20
4492.081980708184
 30
0.0
 11
10908.62689082
 21
4481.498945315092
 31
0.0
  0
LINE
  5
17890
330
747D
100
AcDbEntity
  8
細線
 48
50.0
100
AcDbLine
 10
10905.8188451429
 20
4495.012028826993
 30
0.0
 11
14075.82250957354
 21
4455.202709852499
 31
0.0
  0
LINE
  5
17891
330
747D
100
AcDbEntity
  8
細線
 48
50.0
100
AcDbLine
 10
10901.05836990561
 20
4587.873540524856
 30
0.0
 11
14086.69435465078
 21
4532.249335884028
 31
0.0
  0
LINE
  5
17892
330
747D
100
AcDbEntity
  8
部品1
 48
50.0
100
AcDbLine
 10
10903.65226460196
 20
4584.947758908303
 30
0.0
 11
10905.35616609332
 21
4495.657262201656
 31
0.0
  0
LINE
  5
17893
330
747D
100
AcDbEntity
  8
部品1
 48
50.0
100
AcDbLine
 10
10900.2032327179
 20
4608.450004848188
 30
0.0
 11
10900.58349249571
 21
4588.523040401775
 31
0.0
  0
LINE
  5
17894
330
747D
100
AcDbEntity
  8
細線
 48
50.0
100
AcDbLine
 10
14056.98822999849
 20
4561.009881162964
 30
0.0
 11
14052.2712639168
 21
4436.077665228047
 31
0.0
  0
LINE
  5
17895
330
747D
100
AcDbEntity
  8
細線
 48
50.0
100
AcDbLine
 10
10933.0189468048
 20
4614.2561350589
 30
0.0
 11
10927.72984524929
 21
4474.170502431545
 31
0.0
  0
LINE
  5
17896
330
747D
100
AcDbEntity
  8
部品1
100
AcDbLine
 10
10915.36151140675
 20
4474.637483752462
 30
0.0
 11
14064.68264734465
 21
4435.609058518256
 31
0.0
  0
LINE
  5
17897
330
747D
100
AcDbEntity
  8
部品1
100
AcDbLine
 10
10907.56393316176
 20
4615.574194017761
 30
0.0
 11
14082.63082366626
 21
4560.497256392634
 31
0.0
  0
LINE
  5
17898
330
747D
100
AcDbEntity
  8
部品1
 48
50.0
100
AcDbLine
 10
12363.98723297134
 20
4740.742787687651
 30
0.0
 11
12663.98723297134
 21
4740.742787687651
 31
0.0
  0
LINE
  5
17899
330
747D
100
AcDbEntity
  8
部品1
 48
50.0
100
AcDbLine
 10
12663.98723297134
 20
4740.742787687651
 30
0.0
 11
12663.98723297134
 21
4724.542787687652
 31
0.0
  0
TEXT
  5
1789A
330
747D
100
AcDbEntity
  8
部品1
 48
50.0
100
AcDbText
 10
12352.25506819507
 20
4776.626809840084
 30
0.0
 40
120.0
  1
1000
  7
STYLE1
100
AcDbText
  0
TEXT
  5
1789B
330
747D
100
AcDbEntity
  8
部品1
 48
50.0
100
AcDbText
 10
12829.88809086016
 20
4639.125551621801
 30
0.0
 40
120.0
  1
32
 50
90.0
  7
STYLE1
100
AcDbText
  0
LINE
  5
1789C
330
747D
100
AcDbEntity
  8
細線
 48
50.0
100
AcDbLine
 10
12352.5189468048
 20
4381.856458683494
 30
0.0
 11
12352.5189468048
 21
2291.856458683495
 31
0.0
  0
LINE
  5
1789D
330
747D
100
AcDbEntity
  8
細線
 48
50.0
100
AcDbLine
 10
12337.51894680479
 20
4381.856458683494
 30
0.0
 11
12337.51894680479
 21
2291.856458683495
 31
0.0
  0
LINE
  5
1789E
330
747D
100
AcDbEntity
  8
細線
 48
50.0
100
AcDbLine
 10
12477.51894680479
 20
4381.856458683494
 30
0.0
 11
12477.51894680479
 21
2291.856458683495
 31
0.0
  0
LINE
  5
1789F
330
747D
100
AcDbEntity
  8
細線
 48
50.0
100
AcDbLine
 10
12492.5189468048
 20
4381.856458683494
 30
0.0
 11
12492.5189468048
 21
2291.856458683495
 31
0.0
  0
LINE
  5
178A0
330
747D
100
AcDbEntity
  8
細線
 48
50.0
100
AcDbLine
 10
12632.5189468048
 20
4381.856458683494
 30
0.0
 11
12632.5189468048
 21
2291.856458683495
 31
0.0
  0
LINE
  5
178A1
330
747D
100
AcDbEntity
  8
細線
 48
50.0
100
AcDbLine
 10
12617.51894680479
 20
4381.856458683494
 30
0.0
 11
12617.51894680479
 21
2291.856458683495
 31
0.0
  0
LINE
  5
178A2
330
747D
100
AcDbEntity
  8
部品1
100
AcDbLine
 10
13955.01894680479
 20
4381.856458683498
 30
0.0
 11
13955.01894680479
 21
2291.856458683498
 31
0.0
  0
LINE
  5
178A3
330
747D
100
AcDbEntity
  8
部品1
100
AcDbLine
 10
10960.01894680479
 20
4381.856458683494
 30
0.0
 11
14010.01894680479
 21
4381.856458683494
 31
0.0
  0
LINE
  5
178A4
330
747D
100
AcDbEntity
  8
部品1
100
AcDbLine
 10
11015.0189468048
 20
2291.856458683495
 30
0.0
 11
14010.0189468048
 21
2291.856458683496
 31
0.0
  0
LINE
  5
178A5
330
747D
100
AcDbEntity
  8
部品1
100
AcDbLine
 10
11015.01894680479
 20
4381.856458683494
 30
0.0
 11
11015.0189468048
 21
2141.856458683495
 31
0.0
  0
LINE
  5
178A6
330
747D
100
AcDbEntity
  8
部品1
100
AcDbLine
 10
10960.01894680479
 20
4473.998896612373
 30
0.0
 11
10960.01894680479
 21
2141.856458683495
 31
0.0
  0
DIMENSION
  5
178A8
330
747D
100
AcDbEntity
  8
寸法
100
AcDbDimension
  2
*D25
 10
10116.26881762154
 20
2241.856458683495
 30
0.0
 11
10116.26881762154
 21
1935.809214589005
 31
0.0
 70
   160
 71
     5
 42
50.0
  3
INABA_S40G
100
AcDbAlignedDimension
 13
10960.01894680479
 23
2291.856458683495
 33
0.0
 14
10905.0189468048
 24
2241.856458683495
 34
0.0
 50
90.0
100
AcDbRotatedDimension
1001
ACAD
1000
DSTYLE
1002
{
1070
   174
1070
     0
1070
   272
1070
     1
1070
   288
1070
     0
1070
   341
1005
0
1002
}
  0
LINE
  5
178A9
330
747D
100
AcDbEntity
  8
部品1
100
AcDbLine
 10
11435.0189468048
 20
4381.856458683494
 30
0.0
 11
11435.0189468048
 21
2291.856458683495
 31
0.0
  0
LINE
  5
178AA
330
747D
100
AcDbEntity
  8
部品1
100
AcDbLine
 10
14010.0189468048
 20
4436.286486464616
 30
0.0
 11
14010.0189468048
 21
2141.856458683497
 31
0.0
  0
LINE
  5
178AB
330
747D
100
AcDbEntity
  8
部品1
100
AcDbLine
 10
13955.0189468048
 20
4381.856458683496
 30
0.0
 11
13955.0189468048
 21
2291.856458683497
 31
0.0
  0
DIMENSION
  5
178AC
330
747D
100
AcDbEntity
  8
寸法
 48
50.0
100
AcDbDimension
  2
*D26
 10
10960.01894680479
 20
5015.5139122628
 30
0.0
 11
12485.0189468048
 21
5015.5139122628
 31
0.0
 70
   160
  1
柱外寸法<>
 71
     5
 42
3050.0
  3
INABA_S40G
100
AcDbAlignedDimension
 13
14010.0189468048
 23
4563.66713829515
 33
0.0
 14
10960.01894680479
 24
4612.858076806471
 34
0.0
100
AcDbRotatedDimension
1001
ACAD
1000
DSTYLE
1002
{
1070
   174
1070
     0
1070
   272
1070
     1
1070
   288
1070
     0
1070
   341
1005
0
1002
}
  0
DIMENSION
  5
178AD
330
747D
100
AcDbEntity
  8
寸法
 48
50.0
100
AcDbDimension
  2
*D27
 10
10900.01894680479
 20
5015.513912262798
 30
0.0
 11
10590.3811515292
 21
5015.513912262798
 31
0.0
 70
   160
 71
     5
 42
60.0
  3
INABA_S40G
100
AcDbAlignedDimension
 13
10960.01894680479
 23
4612.858076806471
 33
0.0
 14
10900.01894680479
 24
4616.856458683499
 34
0.0
100
AcDbRotatedDimension
1001
ACAD
1000
DSTYLE
1002
{
1070
   174
1070
     0
1070
   272
1070
     1
1070
   288
1070
     0
1070
   341
1005
0
1002
}
  0
DIMENSION
  5
178AE
330
747D
100
AcDbEntity
  8
寸法
 48
50.0
100
AcDbDimension
  2
*D28
 10
10900.01894680479
 20
5245.627505049077
 30
0.0
 11
12495.0189468048
 21
5245.627505049077
 31
0.0
 70
   160
 71
     5
 42
3190.0
  3
INABA_S40G
100
AcDbAlignedDimension
 13
14090.0189468048
 23
4561.856458683496
 33
0.0
 14
10900.01894680479
 24
4616.856458683499
 34
0.0
100
AcDbRotatedDimension
1001
ACAD
1000
DSTYLE
1002
{
1070
   174
1070
     0
1070
   272
1070
     1
1070
   288
1070
     0
1070
   341
1005
0
1002
}
  0
LINE
  5
178AF
330
747D
100
AcDbEntity
  8
部品1
100
AcDbLine
 10
11015.0189468048
 20
2241.856458683495
 30
0.0
 11
14010.0189468048
 21
2241.856458683495
 31
0.0
  0
LINE
  5
178B0
330
747D
100
AcDbEntity
  8
細線
 48
50.0
100
AcDbLine
 10
11512.51894680479
 20
4381.856458683494
 30
0.0
 11
11512.51894680479
 21
2291.856458683495
 31
0.0
  0
LINE
  5
178B1
330
747D
100
AcDbEntity
  8
細線
 48
50.0
100
AcDbLine
 10
11497.5189468048
 20
4381.856458683494
 30
0.0
 11
11497.5189468048
 21
2291.856458683495
 31
0.0
  0
LINE
  5
178B2
330
747D
100
AcDbEntity
  8
細線
 48
50.0
100
AcDbLine
 10
11637.5189468048
 20
4381.856458683494
 30
0.0
 11
11637.5189468048
 21
2291.856458683495
 31
0.0
  0
LINE
  5
178B3
330
747D
100
AcDbEntity
  8
細線
 48
50.0
100
AcDbLine
 10
11652.51894680479
 20
4381.856458683494
 30
0.0
 11
11652.51894680479
 21
2291.856458683495
 31
0.0
  0
LINE
  5
178B4
330
747D
100
AcDbEntity
  8
細線
 48
50.0
100
AcDbLine
 10
11792.51894680479
 20
4381.856458683494
 30
0.0
 11
11792.51894680479
 21
2291.856458683495
 31
0.0
  0
LINE
  5
178B5
330
747D
100
AcDbEntity
  8
細線
 48
50.0
100
AcDbLine
 10
11777.51894680479
 20
4381.856458683494
 30
0.0
 11
11777.51894680479
 21
2291.856458683495
 31
0.0
  0
LINE
  5
178B6
330
747D
100
AcDbEntity
  8
細線
 48
50.0
100
AcDbLine
 10
11357.5189468048
 20
4381.856458683494
 30
0.0
 11
11357.5189468048
 21
2291.856458683495
 31
0.0
  0
LINE
  5
178B7
330
747D
100
AcDbEntity
  8
細線
 48
50.0
100
AcDbLine
 10
11372.51894680479
 20
4381.856458683494
 30
0.0
 11
11372.51894680479
 21
2291.856458683495
 31
0.0
  0
LINE
  5
178B8
330
747D
100
AcDbEntity
  8
細線
 48
50.0
100
AcDbLine
 10
11232.51894680479
 20
4381.856458683494
 30
0.0
 11
11232.51894680479
 21
2291.856458683495
 31
0.0
  0
LINE
  5
178B9
330
747D
100
AcDbEntity
  8
細線
 48
50.0
100
AcDbLine
 10
11217.5189468048
 20
4381.856458683494
 30
0.0
 11
11217.5189468048
 21
2291.856458683495
 31
0.0
  0
LINE
  5
178BA
330
747D
100
AcDbEntity
  8
細線
 48
50.0
100
AcDbLine
 10
11077.5189468048
 20
4381.856458683494
 30
0.0
 11
11077.5189468048
 21
2291.856458683495
 31
0.0
  0
LINE
  5
178BB
330
747D
100
AcDbEntity
  8
細線
 48
50.0
100
AcDbLine
 10
11092.51894680479
 20
4381.856458683494
 30
0.0
 11
11092.51894680479
 21
2291.856458683495
 31
0.0
  0
DIMENSION
  5
178BC
330
747D
100
AcDbEntity
  8
寸法
 48
50.0
100
AcDbDimension
  2
*D29
 10
14090.0189468048
 20
5015.5139122628
 30
0.0
 11
14296.06619089929
 21
5015.5139122628
 31
0.0
 70
   160
 71
     5
 42
80.0
  3
INABA_S40G
100
AcDbAlignedDimension
 13
14010.0189468048
 23
4563.66713829515
 33
0.0
 14
14090.0189468048
 24
4561.856458683498
 34
0.0
100
AcDbRotatedDimension
1001
ACAD
1000
DSTYLE
1002
{
1070
   174
1070
     0
1070
   272
1070
     1
1070
   288
1070
     0
1070
   341
1005
0
1002
}
  0
LINE
  5
178BD
330
747D
100
AcDbEntity
  8
部品1
100
AcDbLine
 10
11855.0189468048
 20
4381.856458683494
 30
0.0
 11
11855.0189468048
 21
2291.856458683495
 31
0.0
  0
LINE
  5
178BE
330
747D
100
AcDbEntity
  8
細線
 48
50.0
100
AcDbLine
 10
12197.51894680479
 20
4381.856458683494
 30
0.0
 11
12197.5189468048
 21
2291.856458683495
 31
0.0
  0
LINE
  5
178BF
330
747D
100
AcDbEntity
  8
細線
 48
50.0
100
AcDbLine
 10
12212.5189468048
 20
4381.856458683494
 30
0.0
 11
12212.5189468048
 21
2291.856458683495
 31
0.0
  0
LINE
  5
178C0
330
747D
100
AcDbEntity
  8
細線
 48
50.0
100
AcDbLine
 10
12072.51894680479
 20
4381.856458683494
 30
0.0
 11
12072.5189468048
 21
2291.856458683495
 31
0.0
  0
LINE
  5
178C1
330
747D
100
AcDbEntity
  8
細線
 48
50.0
100
AcDbLine
 10
12057.51894680479
 20
4381.856458683494
 30
0.0
 11
12057.5189468048
 21
2291.856458683495
 31
0.0
  0
LINE
  5
178C2
330
747D
100
AcDbEntity
  8
細線
 48
50.0
100
AcDbLine
 10
11917.51894680479
 20
4381.856458683494
 30
0.0
 11
11917.5189468048
 21
2291.856458683495
 31
0.0
  0
LINE
  5
178C3
330
747D
100
AcDbEntity
  8
細線
 48
50.0
100
AcDbLine
 10
11932.51894680479
 20
4381.856458683494
 30
0.0
 11
11932.5189468048
 21
2291.856458683495
 31
0.0
  0
LINE
  5
178C4
330
747D
100
AcDbEntity
  8
部品1
100
AcDbLine
 10
12275.0189468048
 20
4381.856458683494
 30
0.0
 11
12275.0189468048
 21
2291.856458683495
 31
0.0
  0
LINE
  5
178C5
330
747D
100
AcDbEntity
  8
細線
 48
50.0
100
AcDbLine
 10
13612.5189468048
 20
4381.856458683496
 30
0.0
 11
13612.5189468048
 21
2291.856458683497
 31
0.0
  0
LINE
  5
178C6
330
747D
100
AcDbEntity
  8
細線
 48
50.0
100
AcDbLine
 10
13597.5189468048
 20
4381.856458683496
 30
0.0
 11
13597.5189468048
 21
2291.856458683497
 31
0.0
  0
LINE
  5
178C7
330
747D
100
AcDbEntity
  8
細線
 48
50.0
100
AcDbLine
 10
13737.5189468048
 20
4381.856458683496
 30
0.0
 11
13737.5189468048
 21
2291.856458683497
 31
0.0
  0
LINE
  5
178C8
330
747D
100
AcDbEntity
  8
細線
 48
50.0
100
AcDbLine
 10
13752.51894680479
 20
4381.856458683496
 30
0.0
 11
13752.51894680479
 21
2291.856458683497
 31
0.0
  0
LINE
  5
178C9
330
747D
100
AcDbEntity
  8
細線
 48
50.0
100
AcDbLine
 10
13892.51894680479
 20
4381.856458683496
 30
0.0
 11
13892.51894680479
 21
2291.856458683497
 31
0.0
  0
LINE
  5
178CA
330
747D
100
AcDbEntity
  8
細線
 48
50.0
100
AcDbLine
 10
13877.5189468048
 20
4381.856458683496
 30
0.0
 11
13877.5189468048
 21
2291.856458683497
 31
0.0
  0
DIMENSION
  5
178CB
330
747D
100
AcDbEntity
  8
寸法
 48
50.0
100
AcDbDimension
  2
*D30
 10
10339.41054003642
 20
4491.201717556827
 30
0.0
 11
10350.07601529534
 21
4862.048380798526
 31
0.0
 70
   161
 71
     5
 42
141.0
  3
INABA_S40G
100
AcDbAlignedDimension
 13
10919.41496696337
 23
4615.579207518174
 33
0.0
 14
10915.36151140675
 24
4474.637483752462
 34
0.0
1001
ACAD
1000
DSTYLE
1002
{
1070
   174
1070
     0
1070
   272
1070
     1
1070
   288
1070
     0
1070
   341
1005
0
1002
}
  0
LINE
  5
178CC
330
747D
100
AcDbEntity
  8
部品1
100
AcDbLine
 10
13115.01894680479
 20
4381.856458683494
 30
0.0
 11
13115.01894680479
 21
2291.856458683497
 31
0.0
  0
LINE
  5
178CD
330
747D
100
AcDbEntity
  8
細線
 48
50.0
100
AcDbLine
 10
13192.5189468048
 20
4381.856458683494
 30
0.0
 11
13192.5189468048
 21
2291.856458683497
 31
0.0
  0
LINE
  5
178CE
330
747D
100
AcDbEntity
  8
細線
 48
50.0
100
AcDbLine
 10
13177.5189468048
 20
4381.856458683494
 30
0.0
 11
13177.5189468048
 21
2291.856458683497
 31
0.0
  0
LINE
  5
178CF
330
747D
100
AcDbEntity
  8
細線
 48
50.0
100
AcDbLine
 10
13317.5189468048
 20
4381.856458683494
 30
0.0
 11
13317.5189468048
 21
2291.856458683497
 31
0.0
  0
LINE
  5
178D0
330
747D
100
AcDbEntity
  8
細線
 48
50.0
100
AcDbLine
 10
13332.5189468048
 20
4381.856458683494
 30
0.0
 11
13332.5189468048
 21
2291.856458683497
 31
0.0
  0
LINE
  5
178D1
330
747D
100
AcDbEntity
  8
細線
 48
50.0
100
AcDbLine
 10
13472.5189468048
 20
4381.856458683494
 30
0.0
 11
13472.5189468048
 21
2291.856458683497
 31
0.0
  0
LINE
  5
178D2
330
747D
100
AcDbEntity
  8
細線
 48
50.0
100
AcDbLine
 10
13457.5189468048
 20
4381.856458683494
 30
0.0
 11
13457.5189468048
 21
2291.856458683497
 31
0.0
  0
LINE
  5
178D3
330
747D
100
AcDbEntity
  8
部品1
100
AcDbLine
 10
13535.01894680478
 20
4381.856458683496
 30
0.0
 11
13535.01894680478
 21
2291.856458683498
 31
0.0
  0
LWPOLYLINE
  5
18104
330
747D
100
AcDbEntity
  8
部品1
100
AcDbPolyline
 90
        4
 70
     1
 43
0.0
 10
5257.447722748182
 20
5991.042662259929
 10
5257.447722748182
 20
5751.150340714398
 10
6020.918388976621
 20
5751.150340714398
 10
6020.918388976621
 20
5991.042662259929
  0
TEXT
  5
18105
330
747D
100
AcDbEntity
  8
部品1
100
AcDbText
 10
5347.36733257722
 20
5798.149133041406
 30
0.0
 40
135.0
  1
平面図
  7
STYLE2
100
AcDbText
  0
LWPOLYLINE
  5
18106
330
747D
100
AcDbEntity
  8
部品1
100
AcDbPolyline
 90
        4
 70
     1
 43
0.0
 10
12103.28361369057
 20
1491.856458683495
 10
12103.28361369057
 20
1251.964137137962
 10
12866.75427991901
 20
1251.964137137962
 10
12866.75427991901
 20
1491.856458683495
  0
TEXT
  5
18107
330
747D
100
AcDbEntity
  8
部品1
100
AcDbText
 10
12192.72971511418
 20
1298.962929464971
 30
0.0
 40
135.0
  1
側面図
  7
STYLE2
100
AcDbText
  0
LINE
  5
18168
330
747D
100
AcDbEntity
  8
Ｇ．Ｌ
100
AcDbLine
 10
1835.060216281003
 20
2141.856458683495
 30
0.0
 11
14905.00616387898
 21
2141.856458683495
 31
0.0
  0
LINE
  5
18174
330
747D
100
AcDbEntity
  8
部品1
 48
50.0
100
AcDbLine
 10
5639.1830558624
 20
4216.856458683494
 30
0.0
 11
5639.183055862399
 21
4475.856458683498
 31
0.0
  0
LINE
  5
18175
330
747D
100
AcDbEntity
  8
部品1
 48
50.0
100
AcDbLine
 10
5629.183055862398
 20
4475.856458683498
 30
0.0
 11
5629.183055862394
 21
4616.856458683499
 31
0.0
  0
LINE
  5
181A2
330
747D
100
AcDbEntity
  8
部品1
 48
50.0
100
AcDbLine
 10
5629.183055862398
 20
4616.856458683498
 30
0.0
 11
2966.591476968832
 21
4616.856458683498
 31
0.0
  0
LINE
  5
181A3
330
747D
100
AcDbEntity
  8
部品1
 48
50.0
100
AcDbLine
 10
5639.183055862399
 20
4475.856458683498
 30
0.0
 11
2979.806800429862
 21
4475.856458683498
 31
0.0
  0
LINE
  5
181A4
330
747D
100
AcDbEntity
  8
細線
 48
50.0
100
AcDbLine
 10
5629.183055862398
 20
4588.829701246966
 30
0.0
 11
2961.341706874359
 21
4588.829701247287
 31
0.0
  0
LINE
  5
181A5
330
747D
100
AcDbEntity
  8
細線
 48
50.0
100
AcDbLine
 10
5629.183055862398
 20
4496.629701247282
 30
0.0
 11
2969.577737399202
 21
4496.629701247285
 31
0.0
  0
LINE
  5
181A6
330
747D
100
AcDbEntity
  8
細線
 48
50.0
100
AcDbLine
 10
2992.183055862399
 20
4616.856458683498
 30
0.0
 11
2992.183055862399
 21
4475.856458683498
 31
0.0
  0
ARC
  5
181A7
330
747D
100
AcDbEntity
  8
部品1
100
AcDbCircle
 10
2966.591476968832
 20
4609.856458683498
 30
0.0
 40
7.0
100
AcDbArc
 50
90.0
 51
183.247342790341
  0
ARC
  5
181A8
330
747D
100
AcDbEntity
  8
部品1
100
AcDbCircle
 10
2979.806800429862
 20
4482.856458683499
 30
0.0
 40
7.0
100
AcDbArc
 50
183.247342790341
 51
270.0
  0
ARC
  5
181A9
330
747D
100
AcDbEntity
  8
部品1
 48
50.0
100
AcDbCircle
 10
2961.43499021919
 20
4589.523457845185
 30
0.0
 40
0.7
100
AcDbArc
 50
183.2473427903929
 51
262.3418727926363
  0
ARC
  5
181AA
330
747D
100
AcDbEntity
  8
部品1
 48
50.0
100
AcDbCircle
 10
2969.671020744027
 20
4497.323457845181
 30
0.0
 40
0.7
100
AcDbArc
 50
183.2473427902954
 51
262.3418727926363
  0
ARC
  5
181AB
330
747D
100
AcDbEntity
  8
部品1
 48
50.0
100
AcDbCircle
 10
2969.177951635466
 20
4493.656458683497
 30
0.0
 40
3.0
100
AcDbArc
 50
3.247342790340932
 51
82.34187279263631
  0
ARC
  5
181AC
330
747D
100
AcDbEntity
  8
部品1
 48
50.0
100
AcDbCircle
 10
2960.941921110622
 20
4585.856458683498
 30
0.0
 40
3.0
100
AcDbArc
 50
3.247342790340932
 51
82.34187279263631
  0
LINE
  5
181AD
330
747D
100
AcDbEntity
  8
部品1
100
AcDbLine
 10
2963.937104006808
 20
4586.026398138602
 30
0.0
 11
2968.972144734922
 21
4497.283805305658
 31
0.0
  0
LINE
  5
181AE
330
747D
100
AcDbEntity
  8
部品1
100
AcDbLine
 10
2972.173134531658
 20
4493.8263981386
 30
0.0
 11
2972.818040338767
 21
4482.45993328826
 31
0.0
  0
LINE
  5
181AF
330
747D
100
AcDbEntity
  8
部品1
100
AcDbLine
 10
2959.602716877729
 20
4609.459933288257
 30
0.0
 11
2960.736114210078
 21
4589.483805305659
 31
0.0
  0
DIMENSION
  5
181B0
330
747D
100
AcDbEntity
  8
寸法
 48
50.0
100
AcDbDimension
  2
*D31
 10
2959.183055862399
 20
5015.949628022968
 30
0.0
 11
2645.697774488152
 21
5015.949628022968
 31
0.0
 70
   160
 71
     5
 42
50.0
  3
INABA_S40G
100
AcDbAlignedDimension
 13
3009.183055862399
 23
4616.856458683501
 33
0.0
 14
2959.183055862399
 24
4616.856458683499
 34
0.0
100
AcDbRotatedDimension
1001
ACAD
1000
DSTYLE
1002
{
1002
}
  0
ARC
  5
181BC
330
747D
100
AcDbEntity
  8
細線
 48
50.0
100
AcDbCircle
 10
4024.183055862398
 20
2804.356458683495
 30
0.0
 40
15.0
100
AcDbArc
 50
90.0
 51
270.0
  0
ARC
  5
181BD
330
747D
100
AcDbEntity
  8
細線
 48
50.0
100
AcDbCircle
 10
4124.183055862398
 20
2804.356458683495
 30
0.0
 40
15.0
100
AcDbArc
 50
270.0
 51
90.0
  0
LINE
  5
181BE
330
747D
100
AcDbEntity
  8
細線
 48
50.0
100
AcDbLine
 10
4024.183055862398
 20
2819.356458683495
 30
0.0
 11
4124.183055862398
 21
2819.356458683495
 31
0.0
  0
LINE
  5
181BF
330
747D
100
AcDbEntity
  8
細線
 48
50.0
100
AcDbLine
 10
4124.183055862398
 20
2789.356458683494
 30
0.0
 11
4024.183055862398
 21
2789.356458683494
 31
0.0
  0
LINE
  5
181C0
330
747D
100
AcDbEntity
  8
細線
 48
50.0
100
AcDbLine
 10
4624.183055862398
 20
2789.356458683494
 30
0.0
 11
4524.183055862398
 21
2789.356458683494
 31
0.0
  0
LINE
  5
181C1
330
747D
100
AcDbEntity
  8
細線
 48
50.0
100
AcDbLine
 10
4524.183055862398
 20
2819.356458683495
 30
0.0
 11
4624.183055862398
 21
2819.356458683495
 31
0.0
  0
ARC
  5
181C2
330
747D
100
AcDbEntity
  8
細線
 48
50.0
100
AcDbCircle
 10
4524.183055862398
 20
2804.356458683495
 30
0.0
 40
15.0
100
AcDbArc
 50
90.0
 51
270.0
  0
ARC
  5
181C3
330
747D
100
AcDbEntity
  8
細線
 48
50.0
100
AcDbCircle
 10
4624.183055862398
 20
2804.356458683495
 30
0.0
 40
15.0
100
AcDbArc
 50
270.0
 51
90.0
  0
CIRCLE
  5
181C4
330
747D
100
AcDbEntity
  8
細線
 48
50.0
100
AcDbCircle
 10
4324.183055862398
 20
3129.356458683495
 30
0.0
 40
18.0
  0
LINE
  5
181C5
330
747D
100
AcDbEntity
  8
細線
100
AcDbLine
 10
5536.183055862398
 20
2251.856458683494
 30
0.0
 11
3112.183055862392
 21
2251.856458683494
 31
0.0
  0
LINE
  5
181C6
330
747D
100
AcDbEntity
  8
細線
100
AcDbLine
 10
3112.183055862399
 20
2771.856458683495
 30
0.0
 11
5536.183055862398
 21
2771.856458683495
 31
0.0
  0
LINE
  5
181C7
330
747D
100
AcDbEntity
  8
細線
100
AcDbLine
 10
3112.183055862399
 20
2706.856458683495
 30
0.0
 11
5536.183055862398
 21
2706.856458683495
 31
0.0
  0
LINE
  5
181C8
330
747D
100
AcDbEntity
  8
細線
100
AcDbLine
 10
3112.183055862399
 20
2641.856458683495
 30
0.0
 11
5536.183055862398
 21
2641.856458683495
 31
0.0
  0
LINE
  5
181C9
330
747D
100
AcDbEntity
  8
細線
100
AcDbLine
 10
3112.183055862399
 20
2576.856458683494
 30
0.0
 11
5536.183055862398
 21
2576.856458683494
 31
0.0
  0
LINE
  5
181CA
330
747D
100
AcDbEntity
  8
細線
100
AcDbLine
 10
3112.183055862399
 20
2511.856458683495
 30
0.0
 11
5536.183055862398
 21
2511.856458683495
 31
0.0
  0
LINE
  5
181CB
330
747D
100
AcDbEntity
  8
細線
100
AcDbLine
 10
3112.183055862399
 20
2446.856458683495
 30
0.0
 11
5536.183055862398
 21
2446.856458683495
 31
0.0
  0
LINE
  5
181CC
330
747D
100
AcDbEntity
  8
細線
100
AcDbLine
 10
3112.183055862399
 20
2381.856458683495
 30
0.0
 11
5536.183055862398
 21
2381.856458683495
 31
0.0
  0
LINE
  5
181CD
330
747D
100
AcDbEntity
  8
細線
100
AcDbLine
 10
3112.183055862399
 20
2316.856458683495
 30
0.0
 11
5536.183055862398
 21
2316.856458683495
 31
0.0
  0
LINE
  5
181CE
330
747D
100
AcDbEntity
  8
細線
100
AcDbLine
 10
3112.183055862399
 20
2251.856458683494
 30
0.0
 11
5536.183055862398
 21
2251.856458683494
 31
0.0
  0
LINE
  5
181CF
330
747D
100
AcDbEntity
  8
細線
100
AcDbLine
 10
3112.183055862399
 20
4071.856458683494
 30
0.0
 11
5536.183055862398
 21
4071.856458683494
 31
0.0
  0
LINE
  5
181D0
330
747D
100
AcDbEntity
  8
細線
100
AcDbLine
 10
3112.183055862399
 20
4201.856458683494
 30
0.0
 11
5536.183055862398
 21
4201.856458683494
 31
0.0
  0
LINE
  5
181D1
330
747D
100
AcDbEntity
  8
細線
100
AcDbLine
 10
3112.183055862399
 20
4136.856458683495
 30
0.0
 11
5536.183055862398
 21
4136.856458683495
 31
0.0
  0
LINE
  5
181D2
330
747D
100
AcDbEntity
  8
細線
100
AcDbLine
 10
3112.183055862399
 20
3421.856458683495
 30
0.0
 11
5536.183055862398
 21
3421.856458683495
 31
0.0
  0
LINE
  5
181D3
330
747D
100
AcDbEntity
  8
細線
100
AcDbLine
 10
3112.183055862399
 20
3356.856458683495
 30
0.0
 11
5536.183055862398
 21
3356.856458683495
 31
0.0
  0
LINE
  5
181D4
330
747D
100
AcDbEntity
  8
細線
100
AcDbLine
 10
3112.183055862399
 20
3291.856458683495
 30
0.0
 11
5536.183055862398
 21
3291.856458683495
 31
0.0
  0
LINE
  5
181D5
330
747D
100
AcDbEntity
  8
細線
100
AcDbLine
 10
3112.183055862399
 20
3226.856458683495
 30
0.0
 11
5536.183055862398
 21
3226.856458683495
 31
0.0
  0
LINE
  5
181D6
330
747D
100
AcDbEntity
  8
細線
100
AcDbLine
 10
3112.183055862399
 20
3161.856458683495
 30
0.0
 11
5536.183055862398
 21
3161.856458683495
 31
0.0
  0
LINE
  5
181D7
330
747D
100
AcDbEntity
  8
細線
100
AcDbLine
 10
3112.183055862399
 20
3096.856458683495
 30
0.0
 11
5536.183055862398
 21
3096.856458683495
 31
0.0
  0
LINE
  5
181D8
330
747D
100
AcDbEntity
  8
細線
100
AcDbLine
 10
3112.183055862399
 20
3031.856458683495
 30
0.0
 11
5536.183055862398
 21
3031.856458683495
 31
0.0
  0
LINE
  5
181D9
330
747D
100
AcDbEntity
  8
細線
100
AcDbLine
 10
3112.183055862399
 20
2966.856458683495
 30
0.0
 11
5536.183055862398
 21
2966.856458683495
 31
0.0
  0
LINE
  5
181DA
330
747D
100
AcDbEntity
  8
細線
100
AcDbLine
 10
3112.183055862399
 20
2901.856458683495
 30
0.0
 11
5536.183055862398
 21
2901.856458683495
 31
0.0
  0
LINE
  5
181DB
330
747D
100
AcDbEntity
  8
細線
100
AcDbLine
 10
3112.183055862399
 20
2836.856458683495
 30
0.0
 11
5536.183055862398
 21
2836.856458683495
 31
0.0
  0
LINE
  5
181DC
330
747D
100
AcDbEntity
  8
細線
100
AcDbLine
 10
3112.183055862399
 20
3811.856458683495
 30
0.0
 11
5536.183055862398
 21
3811.856458683495
 31
0.0
  0
LINE
  5
181DD
330
747D
100
AcDbEntity
  8
細線
100
AcDbLine
 10
3112.183055862399
 20
3746.856458683494
 30
0.0
 11
5536.183055862398
 21
3746.856458683494
 31
0.0
  0
LINE
  5
181DE
330
747D
100
AcDbEntity
  8
細線
100
AcDbLine
 10
3112.183055862399
 20
3681.856458683494
 30
0.0
 11
5536.183055862398
 21
3681.856458683494
 31
0.0
  0
LINE
  5
181DF
330
747D
100
AcDbEntity
  8
細線
100
AcDbLine
 10
3112.183055862399
 20
3616.856458683495
 30
0.0
 11
5536.183055862398
 21
3616.856458683495
 31
0.0
  0
LINE
  5
181E0
330
747D
100
AcDbEntity
  8
細線
100
AcDbLine
 10
3112.183055862399
 20
3551.856458683495
 30
0.0
 11
5536.183055862398
 21
3551.856458683495
 31
0.0
  0
LINE
  5
181E1
330
747D
100
AcDbEntity
  8
細線
100
AcDbLine
 10
3112.183055862399
 20
3486.856458683495
 30
0.0
 11
5536.183055862398
 21
3486.856458683495
 31
0.0
  0
LINE
  5
181E2
330
747D
100
AcDbEntity
  8
細線
100
AcDbLine
 10
3112.183055862399
 20
4006.856458683494
 30
0.0
 11
5536.183055862398
 21
4006.856458683494
 31
0.0
  0
LINE
  5
181E3
330
747D
100
AcDbEntity
  8
細線
100
AcDbLine
 10
3112.183055862399
 20
3941.856458683495
 30
0.0
 11
5536.183055862398
 21
3941.856458683495
 31
0.0
  0
LINE
  5
181E4
330
747D
100
AcDbEntity
  8
細線
100
AcDbLine
 10
3112.183055862399
 20
3876.856458683495
 30
0.0
 11
5536.183055862398
 21
3876.856458683495
 31
0.0
  0
LINE
  5
181E5
330
747D
100
AcDbEntity
  8
部品1
100
AcDbLine
 10
3009.183055862399
 20
4216.856458683494
 30
0.0
 11
5694.183055862396
 21
4216.856458683494
 31
0.0
  0
LINE
  5
181E6
330
747D
100
AcDbEntity
  8
部品1
100
AcDbLine
 10
5536.183055862398
 20
4216.856458683494
 30
0.0
 11
5536.183055862398
 21
2241.856458683495
 31
0.0
  0
LINE
  5
181E7
330
747D
100
AcDbEntity
  8
部品1
100
AcDbLine
 10
3112.183055862399
 20
4216.856458683494
 30
0.0
 11
3112.183055862399
 21
2241.856458683495
 31
0.0
  0
LINE
  5
181E8
330
747D
100
AcDbEntity
  8
部品1
100
AcDbLine
 10
3064.183055862399
 20
4216.856458683494
 30
0.0
 11
3064.183055862399
 21
2241.856458683495
 31
0.0
  0
LINE
  5
181E9
330
747D
100
AcDbEntity
  8
部品1
100
AcDbLine
 10
5584.183055862399
 20
4216.856458683494
 30
0.0
 11
5584.183055862399
 21
2241.856458683495
 31
0.0
  0
LINE
  5
181EA
330
747D
100
AcDbEntity
  8
部品1
100
AcDbLine
 10
3009.183055862399
 20
4475.856458683498
 30
0.0
 11
3009.183055862399
 21
2141.856458683495
 31
0.0
  0
LINE
  5
181EB
330
747D
100
AcDbEntity
  8
部品1
100
AcDbLine
 10
3009.183055862399
 20
4381.856458683494
 30
0.0
 11
5639.183055862399
 21
4381.856458683494
 31
0.0
  0
LINE
  5
181EC
330
747D
100
AcDbEntity
  8
部品1
100
AcDbLine
 10
3009.183055862399
 20
2241.856458683495
 30
0.0
 11
5639.183055862399
 21
2241.856458683495
 31
0.0
  0
LINE
  5
181ED
330
747D
100
AcDbEntity
  8
部品1
100
AcDbLine
 10
2170.413464516016
 20
2271.760269251159
 30
0.0
 11
2095.413464516016
 21
2141.856458683495
 31
0.0
  0
TEXT
  5
181EE
330
747D
100
AcDbEntity
  8
部品1
100
AcDbText
 10
2198.518406640789
 20
2177.963362289396
 30
0.0
 40
125.0
  1
G.L
  7
STYLE2
100
AcDbText
  0
LINE
  5
181EF
330
747D
100
AcDbEntity
  8
部品1
100
AcDbLine
 10
2095.413464516016
 20
2141.856458683495
 30
0.0
 11
2020.413464516016
 21
2271.760269251159
 31
0.0
  0
LINE
  5
181F0
330
747D
100
AcDbEntity
  8
部品1
100
AcDbLine
 10
2020.413464516016
 20
2271.760269251159
 30
0.0
 11
2170.413464516016
 21
2271.760269251159
 31
0.0
  0
LINE
  5
181F1
330
747D
100
AcDbEntity
  8
部品1
100
AcDbLine
 10
5639.183055862395
 20
2241.856458683495
 30
0.0
 11
8269.183055862395
 21
2241.856458683495
 31
0.0
  0
LINE
  5
181F2
330
747D
100
AcDbEntity
  8
部品1
100
AcDbLine
 10
5639.183055862395
 20
4381.856458683494
 30
0.0
 11
8269.183055862395
 21
4381.856458683494
 31
0.0
  0
LINE
  5
181F3
330
747D
100
AcDbEntity
  8
部品1
100
AcDbLine
 10
8214.183055862394
 20
4216.856458683494
 30
0.0
 11
8214.183055862395
 21
2241.856458683495
 31
0.0
  0
LINE
  5
181F4
330
747D
100
AcDbEntity
  8
部品1
100
AcDbLine
 10
5694.183055862396
 20
4216.856458683494
 30
0.0
 11
5694.183055862396
 21
2241.856458683495
 31
0.0
  0
LINE
  5
181F5
330
747D
100
AcDbEntity
  8
部品1
100
AcDbLine
 10
8269.183055862395
 20
4475.856458683498
 30
0.0
 11
8269.183055862395
 21
2141.856458683495
 31
0.0
  0
LINE
  5
181F6
330
747D
100
AcDbEntity
  8
部品1
100
AcDbLine
 10
5742.183055862395
 20
4216.856458683494
 30
0.0
 11
5742.183055862395
 21
2241.856458683495
 31
0.0
  0
LINE
  5
181F7
330
747D
100
AcDbEntity
  8
部品1
100
AcDbLine
 10
8166.183055862399
 20
4216.856458683494
 30
0.0
 11
8166.183055862395
 21
2241.856458683495
 31
0.0
  0
LINE
  5
181F8
330
747D
100
AcDbEntity
  8
部品1
100
AcDbLine
 10
5694.183055862396
 20
4216.856458683494
 30
0.0
 11
8269.183055862395
 21
4216.856458683494
 31
0.0
  0
LINE
  5
181F9
330
747D
100
AcDbEntity
  8
細線
100
AcDbLine
 10
5742.183055862395
 20
3876.856458683495
 30
0.0
 11
8166.183055862395
 21
3876.856458683495
 31
0.0
  0
LINE
  5
181FA
330
747D
100
AcDbEntity
  8
細線
100
AcDbLine
 10
5742.183055862395
 20
3941.856458683495
 30
0.0
 11
8166.183055862395
 21
3941.856458683495
 31
0.0
  0
LINE
  5
181FB
330
747D
100
AcDbEntity
  8
細線
100
AcDbLine
 10
5742.183055862395
 20
4006.856458683494
 30
0.0
 11
8166.183055862395
 21
4006.856458683494
 31
0.0
  0
LINE
  5
181FC
330
747D
100
AcDbEntity
  8
細線
100
AcDbLine
 10
5742.183055862395
 20
3486.856458683495
 30
0.0
 11
8166.183055862395
 21
3486.856458683495
 31
0.0
  0
LINE
  5
181FD
330
747D
100
AcDbEntity
  8
細線
100
AcDbLine
 10
5742.183055862395
 20
3551.856458683495
 30
0.0
 11
8166.183055862395
 21
3551.856458683495
 31
0.0
  0
LINE
  5
181FE
330
747D
100
AcDbEntity
  8
細線
100
AcDbLine
 10
5742.183055862395
 20
3616.856458683495
 30
0.0
 11
8166.183055862395
 21
3616.856458683495
 31
0.0
  0
LINE
  5
181FF
330
747D
100
AcDbEntity
  8
細線
100
AcDbLine
 10
5742.183055862395
 20
3681.856458683494
 30
0.0
 11
8166.183055862395
 21
3681.856458683494
 31
0.0
  0
LINE
  5
18200
330
747D
100
AcDbEntity
  8
細線
100
AcDbLine
 10
5742.183055862395
 20
3746.856458683494
 30
0.0
 11
8166.183055862395
 21
3746.856458683494
 31
0.0
  0
LINE
  5
18201
330
747D
100
AcDbEntity
  8
細線
100
AcDbLine
 10
5742.183055862395
 20
3811.856458683495
 30
0.0
 11
8166.183055862395
 21
3811.856458683495
 31
0.0
  0
LINE
  5
18202
330
747D
100
AcDbEntity
  8
細線
100
AcDbLine
 10
5742.183055862395
 20
2836.856458683495
 30
0.0
 11
8166.183055862395
 21
2836.856458683495
 31
0.0
  0
LINE
  5
18203
330
747D
100
AcDbEntity
  8
細線
100
AcDbLine
 10
5742.183055862395
 20
2901.856458683495
 30
0.0
 11
8166.183055862395
 21
2901.856458683495
 31
0.0
  0
LINE
  5
18204
330
747D
100
AcDbEntity
  8
細線
100
AcDbLine
 10
5742.183055862395
 20
2966.856458683495
 30
0.0
 11
8166.183055862395
 21
2966.856458683495
 31
0.0
  0
LINE
  5
18205
330
747D
100
AcDbEntity
  8
細線
100
AcDbLine
 10
5742.183055862395
 20
3031.856458683495
 30
0.0
 11
8166.183055862395
 21
3031.856458683495
 31
0.0
  0
LINE
  5
18206
330
747D
100
AcDbEntity
  8
細線
100
AcDbLine
 10
5742.183055862395
 20
3096.856458683495
 30
0.0
 11
8166.183055862395
 21
3096.856458683495
 31
0.0
  0
LINE
  5
18207
330
747D
100
AcDbEntity
  8
細線
100
AcDbLine
 10
5742.183055862395
 20
3161.856458683495
 30
0.0
 11
8166.183055862395
 21
3161.856458683495
 31
0.0
  0
LINE
  5
18208
330
747D
100
AcDbEntity
  8
細線
100
AcDbLine
 10
5742.183055862395
 20
3226.856458683495
 30
0.0
 11
8166.183055862395
 21
3226.856458683495
 31
0.0
  0
LINE
  5
18209
330
747D
100
AcDbEntity
  8
細線
100
AcDbLine
 10
5742.183055862395
 20
3291.856458683495
 30
0.0
 11
8166.183055862395
 21
3291.856458683495
 31
0.0
  0
LINE
  5
1820A
330
747D
100
AcDbEntity
  8
細線
100
AcDbLine
 10
5742.183055862395
 20
3356.856458683495
 30
0.0
 11
8166.183055862395
 21
3356.856458683495
 31
0.0
  0
LINE
  5
1820B
330
747D
100
AcDbEntity
  8
細線
100
AcDbLine
 10
5742.183055862395
 20
3421.856458683495
 30
0.0
 11
8166.183055862395
 21
3421.856458683495
 31
0.0
  0
LINE
  5
1820C
330
747D
100
AcDbEntity
  8
細線
100
AcDbLine
 10
5742.183055862395
 20
4136.856458683495
 30
0.0
 11
8166.183055862395
 21
4136.856458683495
 31
0.0
  0
LINE
  5
1820D
330
747D
100
AcDbEntity
  8
細線
100
AcDbLine
 10
5742.183055862395
 20
4201.856458683494
 30
0.0
 11
8166.183055862395
 21
4201.856458683494
 31
0.0
  0
LINE
  5
1820E
330
747D
100
AcDbEntity
  8
細線
100
AcDbLine
 10
5742.183055862395
 20
4071.856458683494
 30
0.0
 11
8166.183055862395
 21
4071.856458683494
 31
0.0
  0
LINE
  5
1820F
330
747D
100
AcDbEntity
  8
細線
100
AcDbLine
 10
5742.183055862395
 20
2251.856458683494
 30
0.0
 11
8166.183055862395
 21
2251.856458683494
 31
0.0
  0
LINE
  5
18210
330
747D
100
AcDbEntity
  8
細線
100
AcDbLine
 10
5742.183055862395
 20
2316.856458683495
 30
0.0
 11
8166.183055862395
 21
2316.856458683495
 31
0.0
  0
LINE
  5
18211
330
747D
100
AcDbEntity
  8
細線
100
AcDbLine
 10
5742.183055862395
 20
2381.856458683495
 30
0.0
 11
8166.183055862395
 21
2381.856458683495
 31
0.0
  0
LINE
  5
18212
330
747D
100
AcDbEntity
  8
細線
100
AcDbLine
 10
5742.183055862395
 20
2446.856458683495
 30
0.0
 11
8166.183055862395
 21
2446.856458683495
 31
0.0
  0
LINE
  5
18213
330
747D
100
AcDbEntity
  8
細線
100
AcDbLine
 10
5742.183055862395
 20
2511.856458683495
 30
0.0
 11
8166.183055862395
 21
2511.856458683495
 31
0.0
  0
LINE
  5
18214
330
747D
100
AcDbEntity
  8
細線
100
AcDbLine
 10
5742.183055862395
 20
2576.856458683494
 30
0.0
 11
8166.183055862395
 21
2576.856458683494
 31
0.0
  0
LINE
  5
18215
330
747D
100
AcDbEntity
  8
細線
100
AcDbLine
 10
5742.183055862395
 20
2641.856458683495
 30
0.0
 11
8166.183055862395
 21
2641.856458683495
 31
0.0
  0
LINE
  5
18216
330
747D
100
AcDbEntity
  8
細線
100
AcDbLine
 10
5742.183055862395
 20
2706.856458683495
 30
0.0
 11
8166.183055862395
 21
2706.856458683495
 31
0.0
  0
LINE
  5
18217
330
747D
100
AcDbEntity
  8
細線
100
AcDbLine
 10
5742.183055862395
 20
2771.856458683495
 30
0.0
 11
8166.183055862395
 21
2771.856458683495
 31
0.0
  0
LINE
  5
18218
330
747D
100
AcDbEntity
  8
細線
100
AcDbLine
 10
8166.183055862395
 20
2251.856458683494
 30
0.0
 11
5742.183055862391
 21
2251.856458683494
 31
0.0
  0
CIRCLE
  5
1821C
330
747D
100
AcDbEntity
  8
細線
 48
50.0
100
AcDbCircle
 10
6954.183055862396
 20
3129.356458683495
 30
0.0
 40
18.0
  0
ARC
  5
1821D
330
747D
100
AcDbEntity
  8
細線
 48
50.0
100
AcDbCircle
 10
7254.183055862395
 20
2804.356458683495
 30
0.0
 40
15.0
100
AcDbArc
 50
270.0
 51
90.0
  0
ARC
  5
1821E
330
747D
100
AcDbEntity
  8
細線
 48
50.0
100
AcDbCircle
 10
7154.183055862396
 20
2804.356458683495
 30
0.0
 40
15.0
100
AcDbArc
 50
90.0
 51
270.0
  0
LINE
  5
1821F
330
747D
100
AcDbEntity
  8
細線
 48
50.0
100
AcDbLine
 10
7154.183055862396
 20
2819.356458683495
 30
0.0
 11
7254.183055862395
 21
2819.356458683495
 31
0.0
  0
LINE
  5
18220
330
747D
100
AcDbEntity
  8
細線
 48
50.0
100
AcDbLine
 10
7254.183055862395
 20
2789.356458683494
 30
0.0
 11
7154.183055862396
 21
2789.356458683494
 31
0.0
  0
LINE
  5
18221
330
747D
100
AcDbEntity
  8
細線
 48
50.0
100
AcDbLine
 10
6754.183055862395
 20
2789.356458683494
 30
0.0
 11
6654.183055862396
 21
2789.356458683494
 31
0.0
  0
LINE
  5
18222
330
747D
100
AcDbEntity
  8
細線
 48
50.0
100
AcDbLine
 10
6654.183055862396
 20
2819.356458683495
 30
0.0
 11
6754.183055862395
 21
2819.356458683495
 31
0.0
  0
ARC
  5
18223
330
747D
100
AcDbEntity
  8
細線
 48
50.0
100
AcDbCircle
 10
6754.183055862395
 20
2804.356458683495
 30
0.0
 40
15.0
100
AcDbArc
 50
270.0
 51
90.0
  0
ARC
  5
18224
330
747D
100
AcDbEntity
  8
細線
 48
50.0
100
AcDbCircle
 10
6654.183055862396
 20
2804.356458683495
 30
0.0
 40
15.0
100
AcDbArc
 50
90.0
 51
270.0
  0
TEXT
  5
1822E
330
747D
100
AcDbEntity
  8
部品1
100
AcDbText
 10
5347.973126486133
 20
1298.962929464971
 30
0.0
 40
135.0
  1
正面図
  7
STYLE2
100
AcDbText
  0
LWPOLYLINE
  5
1822F
330
747D
100
AcDbEntity
  8
部品1
100
AcDbPolyline
 90
        4
 70
     1
 43
0.0
 10
5257.447722748176
 20
1491.856458683494
 10
5257.447722748176
 20
1251.964137137961
 10
6020.918388976621
 20
1251.964137137961
 10
6020.918388976621
 20
1491.856458683494
  0
DIMENSION
  5
18230
330
747D
100
AcDbEntity
  8
寸法
 48
50.0
100
AcDbDimension
  2
*D32
 10
3009.183055862399
 20
5015.949628022968
 30
0.0
 11
5639.183055862399
 21
5015.949628022968
 31
0.0
 70
   160
  1
柱外寸法<>
 71
     5
 42
5260.0
  3
INABA_S40G
100
AcDbAlignedDimension
 13
8269.183055862399
 23
4616.856458683499
 33
0.0
 14
3009.183055862399
 24
4616.856458683501
 34
0.0
100
AcDbRotatedDimension
  0
DIMENSION
  5
18231
330
747D
100
AcDbEntity
  8
寸法
 48
50.0
100
AcDbDimension
  2
*D33
 10
8269.183055862399
 20
5015.949628022968
 30
0.0
 11
8632.668337236635
 21
5015.949628022968
 31
0.0
 70
   160
 71
     5
 42
50.0
  3
INABA_S40G
100
AcDbAlignedDimension
 13
8319.183055862399
 23
4616.856458683497
 33
0.0
 14
8269.183055862399
 24
4616.856458683499
 34
0.0
100
AcDbRotatedDimension
  0
DIMENSION
  5
18232
330
747D
100
AcDbEntity
  8
寸法
 48
50.0
100
AcDbDimension
  2
*D34
 10
8319.183055862399
 20
5232.475727641413
 30
0.0
 11
5639.183055862399
 21
5232.475727641413
 31
0.0
 70
   160
 71
     5
 42
5360.0
  3
INABA_S40G
100
AcDbAlignedDimension
 13
2959.183055862399
 23
4616.856458683499
 33
0.0
 14
8319.183055862399
 24
4616.856458683497
 34
0.0
100
AcDbRotatedDimension
  0
ARC
  5
18233
330
747D
100
AcDbEntity
  8
部品1
100
AcDbCircle
 10
8311.774634755966
 20
4609.856458683498
 30
0.0
 40
7.0
100
AcDbArc
 50
356.752657209659
 51
90.0
  0
ARC
  5
18234
330
747D
100
AcDbEntity
  8
部品1
100
AcDbCircle
 10
8298.559311294932
 20
4482.856458683499
 30
0.0
 40
7.0
100
AcDbArc
 50
270.0
 51
356.752657209659
  0
ARC
  5
18235
330
747D
100
AcDbEntity
  8
部品1
 48
50.0
100
AcDbCircle
 10
8316.931121505611
 20
4589.523457845185
 30
0.0
 40
0.7
100
AcDbArc
 50
277.6581272073637
 51
356.752657209607
  0
ARC
  5
18236
330
747D
100
AcDbEntity
  8
部品1
 48
50.0
100
AcDbCircle
 10
8308.695090980767
 20
4497.323457845181
 30
0.0
 40
0.7
100
AcDbArc
 50
277.6581272073637
 51
356.7526572097046
  0
ARC
  5
18237
330
747D
100
AcDbEntity
  8
部品1
 48
50.0
100
AcDbCircle
 10
8309.188160089329
 20
4493.656458683497
 30
0.0
 40
3.0
100
AcDbArc
 50
97.6581272073637
 51
176.752657209659
  0
ARC
  5
18238
330
747D
100
AcDbEntity
  8
部品1
 48
50.0
100
AcDbCircle
 10
8317.424190614174
 20
4585.856458683498
 30
0.0
 40
3.0
100
AcDbArc
 50
97.6581272073637
 51
176.752657209659
  0
LINE
  5
18239
330
747D
100
AcDbEntity
  8
部品1
100
AcDbLine
 10
8314.429007717988
 20
4586.026398138602
 30
0.0
 11
8309.393966989876
 21
4497.283805305658
 31
0.0
  0
LINE
  5
1823A
330
747D
100
AcDbEntity
  8
部品1
100
AcDbLine
 10
8306.192977193143
 20
4493.8263981386
 30
0.0
 11
8305.548071386031
 21
4482.45993328826
 31
0.0
  0
LINE
  5
1823B
330
747D
100
AcDbEntity
  8
細線
 48
50.0
100
AcDbLine
 10
8286.1830558624
 20
4616.856458683498
 30
0.0
 11
8286.1830558624
 21
4475.856458683498
 31
0.0
  0
LINE
  5
1823C
330
747D
100
AcDbEntity
  8
部品1
100
AcDbLine
 10
8318.763394847065
 20
4609.459933288257
 30
0.0
 11
8317.629997514719
 21
4589.483805305659
 31
0.0
  0
LINE
  5
1823D
330
747D
100
AcDbEntity
  8
細線
 48
50.0
100
AcDbLine
 10
8308.788374325638
 20
4496.629701246965
 30
0.0
 11
5629.183055862398
 21
4496.629701247285
 31
0.0
  0
LINE
  5
1823E
330
747D
100
AcDbEntity
  8
細線
 48
50.0
100
AcDbLine
 10
8317.024404850483
 20
4588.829701246966
 30
0.0
 11
5629.183055862398
 21
4588.829701246966
 31
0.0
  0
LINE
  5
1823F
330
747D
100
AcDbEntity
  8
部品1
 48
50.0
100
AcDbLine
 10
8298.559311294932
 20
4475.856458683498
 30
0.0
 11
5639.183055862399
 21
4475.856458683498
 31
0.0
  0
LINE
  5
18240
330
747D
100
AcDbEntity
  8
部品1
 48
50.0
100
AcDbLine
 10
8311.774634755966
 20
4616.856458683498
 30
0.0
 11
5629.183055862398
 21
4616.856458683498
 31
0.0
  0
LINE
  5
189B4
330
747D
100
AcDbEntity
  8
補助
  6
PHANTOM
 62
   230
 48
50.0
100
AcDbLine
 10
140.0
 20
0.0
 30
0.0
 11
139.9999999999995
 21
11409.6
 31
0.0
  0
DIMENSION
  5
18B15
330
747D
100
AcDbEntity
  8
寸法
 48
50.0
100
AcDbDimension
  2
*D35
 10
8556.726158184144
 20
4381.856458683494
 30
0.0
 11
8556.72615818414
 21
4620.341740057734
 31
0.0
 70
   160
 71
     5
 42
164.9999999999991
  3
INABA_S40G
100
AcDbAlignedDimension
 13
8269.183055862395
 23
4216.856458683495
 33
0.0
 14
8269.183055862395
 24
4381.856458683494
 34
0.0
 50
90.0
100
AcDbRotatedDimension
1001
ACAD
1000
DSTYLE
1002
{
1002
}
  0
DIMENSION
  5
18B16
330
747D
100
AcDbEntity
  8
寸法
 48
50.0
100
AcDbDimension
  2
*D36
 10
8556.72615818414
 20
4216.856458683495
 30
0.0
 11
8696.895981430508
 21
4217.823658523154
 31
0.0
 70
   160
 71
     5
 42
27.00000000000182
  3
INABA_S40G
100
AcDbAlignedDimension
 13
8269.183055862395
 23
4189.856458683493
 33
0.0
 14
8269.183055862395
 24
4216.856458683495
 34
0.0
 50
90.0
100
AcDbRotatedDimension
1001
ACAD
1000
DSTYLE
1002
{
1070
   279
1070
     2
1002
}
  0
DIMENSION
  5
18B17
330
747D
100
AcDbEntity
  8
寸法
 48
50.0
100
AcDbDimension
  2
*D37
 10
8556.72615818414
 20
4189.856458683493
 30
0.0
 11
8456.726158184139
 21
3215.856458683496
 31
0.0
 70
    32
  1
有効開口部高サ <>
 71
     5
 42
1947.999999999999
  3
INABA_S40G
100
AcDbAlignedDimension
 13
8269.183055862395
 23
2241.856458683495
 33
0.0
 14
8269.183055862395
 24
4189.856458683493
 34
0.0
 50
90.0
100
AcDbRotatedDimension
  0
ARC
  5
18DAD
330
747D
100
AcDbEntity
  8
部品1
 48
0.01
100
AcDbCircle
 10
6427.1830558624
 20
4445.856458683494
 30
0.0
 40
2.0
100
AcDbArc
 50
0.0
 51
90.0
  0
ARC
  5
18DAE
330
747D
100
AcDbEntity
  8
部品1
 48
0.01
100
AcDbCircle
 10
6251.183055862401
 20
4445.856458683494
 30
0.0
 40
2.0
100
AcDbArc
 50
90.0
 51
180.0
  0
LINE
  5
18DAF
330
747D
100
AcDbEntity
  8
細線
100
AcDbLine
 10
6339.183055862397
 20
4418.356458683494
 30
0.0
 11
6413.183055862401
 21
4418.356458683494
 31
0.0
  0
LINE
  5
18DB0
330
747D
100
AcDbEntity
  8
細線
100
AcDbLine
 10
6339.183055862401
 20
4441.356458683494
 30
0.0
 11
6265.183055862401
 21
4441.356458683494
 31
0.0
  0
LINE
  5
18DB1
330
747D
100
AcDbEntity
  8
細線
100
AcDbLine
 10
6265.183055862401
 20
4418.356458683494
 30
0.0
 11
6339.183055862401
 21
4418.356458683494
 31
0.0
  0
LINE
  5
18DB2
330
747D
100
AcDbEntity
  8
細線
100
AcDbLine
 10
6413.183055862401
 20
4441.356458683494
 30
0.0
 11
6339.183055862401
 21
4441.356458683494
 31
0.0
  0
LINE
  5
18DB3
330
747D
100
AcDbEntity
  8
細線
100
AcDbLine
 10
6413.183055862401
 20
4418.356458683494
 30
0.0
 11
6413.183055862401
 21
4441.356458683494
 31
0.0
  0
LINE
  5
18DB4
330
747D
100
AcDbEntity
  8
細線
100
AcDbLine
 10
6265.183055862401
 20
4441.356458683494
 30
0.0
 11
6265.183055862401
 21
4418.356458683494
 31
0.0
  0
LINE
  5
18DB5
330
747D
100
AcDbEntity
  8
部品1
 48
0.01
100
AcDbLine
 10
6429.183055862397
 20
4414.356458683495
 30
0.0
 11
6429.183055862401
 21
4445.856458683494
 31
0.0
  0
LINE
  5
18DB6
330
747D
100
AcDbEntity
  8
部品1
 48
0.01
100
AcDbLine
 10
6249.183055862401
 20
4445.856458683494
 30
0.0
 11
6249.183055862401
 21
4414.356458683495
 31
0.0
  0
LINE
  5
18DB7
330
747D
100
AcDbEntity
  8
部品1
 48
0.01
100
AcDbLine
 10
6427.1830558624
 20
4447.856458683495
 30
0.0
 11
6251.183055862401
 21
4447.856458683495
 31
0.0
  0
LINE
  5
18DB8
330
747D
100
AcDbEntity
  8
細線
100
AcDbLine
 10
6265.183055862401
 20
4435.356458683495
 30
0.0
 11
6339.183055862401
 21
4435.356458683495
 31
0.0
  0
LINE
  5
18DB9
330
747D
100
AcDbEntity
  8
細線
100
AcDbLine
 10
6265.183055862401
 20
4429.356458683495
 30
0.0
 11
6339.183055862401
 21
4429.356458683495
 31
0.0
  0
LINE
  5
18DBA
330
747D
100
AcDbEntity
  8
細線
100
AcDbLine
 10
6265.183055862397
 20
4423.356458683494
 30
0.0
 11
6339.183055862401
 21
4423.356458683494
 31
0.0
  0
LINE
  5
18DBB
330
747D
100
AcDbEntity
  8
細線
100
AcDbLine
 10
6265.183055862401
 20
4435.356458683495
 30
0.0
 11
6334.1830558624
 21
4435.356458683495
 31
0.0
  0
LINE
  5
18DBC
330
747D
100
AcDbEntity
  8
細線
100
AcDbLine
 10
6413.183055862397
 20
4435.356458683495
 30
0.0
 11
6339.183055862401
 21
4435.356458683495
 31
0.0
  0
LINE
  5
18DBD
330
747D
100
AcDbEntity
  8
細線
100
AcDbLine
 10
6413.183055862397
 20
4423.356458683494
 30
0.0
 11
6339.183055862401
 21
4423.356458683494
 31
0.0
  0
LINE
  5
18DBE
330
747D
100
AcDbEntity
  8
細線
100
AcDbLine
 10
6413.183055862397
 20
4429.356458683495
 30
0.0
 11
6339.183055862401
 21
4429.356458683495
 31
0.0
  0
LINE
  5
18DBF
330
747D
100
AcDbEntity
  8
細線
100
AcDbLine
 10
6339.183055862401
 20
4441.356458683494
 30
0.0
 11
6339.183055862397
 21
4418.356458683494
 31
0.0
  0
LINE
  5
18DC0
330
747D
100
AcDbEntity
  8
細線
100
AcDbLine
 10
7569.1830558624
 20
4441.356458683494
 30
0.0
 11
7569.1830558624
 21
4418.356458683494
 31
0.0
  0
LINE
  5
18DC1
330
747D
100
AcDbEntity
  8
細線
100
AcDbLine
 10
7495.183055862401
 20
4429.356458683495
 30
0.0
 11
7569.1830558624
 21
4429.356458683495
 31
0.0
  0
LINE
  5
18DC2
330
747D
100
AcDbEntity
  8
細線
100
AcDbLine
 10
7495.183055862401
 20
4423.356458683494
 30
0.0
 11
7569.1830558624
 21
4423.356458683494
 31
0.0
  0
LINE
  5
18DC3
330
747D
100
AcDbEntity
  8
細線
100
AcDbLine
 10
7495.183055862401
 20
4435.356458683495
 30
0.0
 11
7569.1830558624
 21
4435.356458683495
 31
0.0
  0
LINE
  5
18DC4
330
747D
100
AcDbEntity
  8
細線
100
AcDbLine
 10
7643.183055862401
 20
4435.356458683495
 30
0.0
 11
7574.1830558624
 21
4435.356458683495
 31
0.0
  0
LINE
  5
18DC5
330
747D
100
AcDbEntity
  8
細線
100
AcDbLine
 10
7643.183055862401
 20
4423.356458683494
 30
0.0
 11
7569.1830558624
 21
4423.356458683494
 31
0.0
  0
LINE
  5
18DC6
330
747D
100
AcDbEntity
  8
細線
100
AcDbLine
 10
7643.183055862401
 20
4429.356458683495
 30
0.0
 11
7569.1830558624
 21
4429.356458683495
 31
0.0
  0
LINE
  5
18DC7
330
747D
100
AcDbEntity
  8
細線
100
AcDbLine
 10
7643.183055862401
 20
4435.356458683495
 30
0.0
 11
7569.1830558624
 21
4435.356458683495
 31
0.0
  0
LINE
  5
18DC8
330
747D
100
AcDbEntity
  8
部品1
 48
0.01
100
AcDbLine
 10
7481.183055862401
 20
4447.856458683495
 30
0.0
 11
7657.1830558624
 21
4447.856458683495
 31
0.0
  0
LINE
  5
18DC9
330
747D
100
AcDbEntity
  8
部品1
 48
0.01
100
AcDbLine
 10
7659.183055862401
 20
4445.856458683494
 30
0.0
 11
7659.183055862401
 21
4414.356458683495
 31
0.0
  0
LINE
  5
18DCA
330
747D
100
AcDbEntity
  8
部品1
 48
0.01
100
AcDbLine
 10
7479.183055862401
 20
4414.356458683495
 30
0.0
 11
7479.183055862401
 21
4445.856458683494
 31
0.0
  0
LINE
  5
18DCB
330
747D
100
AcDbEntity
  8
細線
100
AcDbLine
 10
7643.183055862401
 20
4441.356458683494
 30
0.0
 11
7643.183055862401
 21
4418.356458683494
 31
0.0
  0
LINE
  5
18DCC
330
747D
100
AcDbEntity
  8
細線
100
AcDbLine
 10
7495.183055862401
 20
4418.356458683494
 30
0.0
 11
7495.183055862401
 21
4441.356458683494
 31
0.0
  0
LINE
  5
18DCD
330
747D
100
AcDbEntity
  8
細線
100
AcDbLine
 10
7495.183055862401
 20
4441.356458683494
 30
0.0
 11
7569.1830558624
 21
4441.356458683494
 31
0.0
  0
LINE
  5
18DCE
330
747D
100
AcDbEntity
  8
細線
100
AcDbLine
 10
7643.183055862401
 20
4418.356458683494
 30
0.0
 11
7569.1830558624
 21
4418.356458683494
 31
0.0
  0
LINE
  5
18DCF
330
747D
100
AcDbEntity
  8
細線
100
AcDbLine
 10
7569.1830558624
 20
4441.356458683494
 30
0.0
 11
7643.183055862401
 21
4441.356458683494
 31
0.0
  0
LINE
  5
18DD0
330
747D
100
AcDbEntity
  8
細線
100
AcDbLine
 10
7569.1830558624
 20
4418.356458683494
 30
0.0
 11
7495.183055862401
 21
4418.356458683494
 31
0.0
  0
ARC
  5
18DD1
330
747D
100
AcDbEntity
  8
部品1
 48
0.01
100
AcDbCircle
 10
7657.1830558624
 20
4445.856458683494
 30
0.0
 40
2.0
100
AcDbArc
 50
0.0
 51
90.0
  0
ARC
  5
18DD2
330
747D
100
AcDbEntity
  8
部品1
 48
0.01
100
AcDbCircle
 10
7481.183055862401
 20
4445.856458683494
 30
0.0
 40
2.0
100
AcDbArc
 50
90.0
 51
180.0
  0
ARC
  5
18DD3
330
747D
100
AcDbEntity
  8
部品1
 48
0.01
100
AcDbCircle
 10
6427.183055862397
 20
4414.356458683495
 30
0.0
 40
2.0
100
AcDbArc
 50
270.0
 51
0.0
  0
ARC
  5
18DD4
330
747D
100
AcDbEntity
  8
部品1
 48
0.01
100
AcDbCircle
 10
6251.183055862401
 20
4414.356458683495
 30
0.0
 40
2.0
100
AcDbArc
 50
180.0
 51
270.0
  0
LINE
  5
18DD5
330
747D
100
AcDbEntity
  8
部品1
 48
0.01
100
AcDbLine
 10
6251.183055862401
 20
4412.356458683494
 30
0.0
 11
6427.183055862397
 21
4412.356458683494
 31
0.0
  0
LINE
  5
18DD6
330
747D
100
AcDbEntity
  8
部品1
 48
0.01
100
AcDbLine
 10
7657.1830558624
 20
4412.356458683494
 30
0.0
 11
7481.183055862401
 21
4412.356458683494
 31
0.0
  0
ARC
  5
18DD7
330
747D
100
AcDbEntity
  8
部品1
 48
0.01
100
AcDbCircle
 10
7657.1830558624
 20
4414.356458683495
 30
0.0
 40
2.0
100
AcDbArc
 50
270.0
 51
0.0
  0
ARC
  5
18DD8
330
747D
100
AcDbEntity
  8
部品1
 48
0.01
100
AcDbCircle
 10
7481.183055862401
 20
4414.356458683495
 30
0.0
 40
2.0
100
AcDbArc
 50
180.0
 51
270.0
  0
ARC
  5
18DE9
330
747D
100
AcDbEntity
  8
部品1
 48
0.01
100
AcDbCircle
 10
4851.183055862403
 20
4414.356458683495
 30
0.0
 40
2.0
100
AcDbArc
 50
180.0
 51
270.0
  0
ARC
  5
18DEA
330
747D
100
AcDbEntity
  8
部品1
 48
0.01
100
AcDbCircle
 10
5027.183055862402
 20
4414.356458683495
 30
0.0
 40
2.0
100
AcDbArc
 50
270.0
 51
0.0
  0
LINE
  5
18DEB
330
747D
100
AcDbEntity
  8
部品1
 48
0.01
100
AcDbLine
 10
5027.183055862402
 20
4412.356458683494
 30
0.0
 11
4851.183055862403
 21
4412.356458683494
 31
0.0
  0
LINE
  5
18DEC
330
747D
100
AcDbEntity
  8
部品1
 48
0.01
100
AcDbLine
 10
3621.183055862402
 20
4412.356458683494
 30
0.0
 11
3797.183055862399
 21
4412.356458683494
 31
0.0
  0
ARC
  5
18DED
330
747D
100
AcDbEntity
  8
部品1
 48
0.01
100
AcDbCircle
 10
3621.183055862402
 20
4414.356458683495
 30
0.0
 40
2.0
100
AcDbArc
 50
180.0
 51
270.0
  0
ARC
  5
18DEE
330
747D
100
AcDbEntity
  8
部品1
 48
0.01
100
AcDbCircle
 10
3797.183055862399
 20
4414.356458683495
 30
0.0
 40
2.0
100
AcDbArc
 50
270.0
 51
0.0
  0
ARC
  5
18DEF
330
747D
100
AcDbEntity
  8
部品1
 48
0.01
100
AcDbCircle
 10
4851.183055862403
 20
4445.856458683494
 30
0.0
 40
2.0
100
AcDbArc
 50
90.0
 51
180.0
  0
ARC
  5
18DF0
330
747D
100
AcDbEntity
  8
部品1
 48
0.01
100
AcDbCircle
 10
5027.183055862402
 20
4445.856458683494
 30
0.0
 40
2.0
100
AcDbArc
 50
0.0
 51
90.0
  0
LINE
  5
18DF1
330
747D
100
AcDbEntity
  8
細線
100
AcDbLine
 10
4939.183055862402
 20
4418.356458683494
 30
0.0
 11
4865.183055862402
 21
4418.356458683494
 31
0.0
  0
LINE
  5
18DF2
330
747D
100
AcDbEntity
  8
細線
100
AcDbLine
 10
4939.183055862402
 20
4441.356458683494
 30
0.0
 11
5013.183055862402
 21
4441.356458683494
 31
0.0
  0
LINE
  5
18DF3
330
747D
100
AcDbEntity
  8
細線
100
AcDbLine
 10
5013.183055862402
 20
4418.356458683494
 30
0.0
 11
4939.183055862402
 21
4418.356458683494
 31
0.0
  0
LINE
  5
18DF4
330
747D
100
AcDbEntity
  8
細線
100
AcDbLine
 10
4865.183055862402
 20
4441.356458683494
 30
0.0
 11
4939.183055862402
 21
4441.356458683494
 31
0.0
  0
LINE
  5
18DF5
330
747D
100
AcDbEntity
  8
細線
100
AcDbLine
 10
4865.183055862402
 20
4418.356458683494
 30
0.0
 11
4865.183055862402
 21
4441.356458683494
 31
0.0
  0
LINE
  5
18DF6
330
747D
100
AcDbEntity
  8
細線
100
AcDbLine
 10
5013.183055862402
 20
4441.356458683494
 30
0.0
 11
5013.183055862402
 21
4418.356458683494
 31
0.0
  0
LINE
  5
18DF7
330
747D
100
AcDbEntity
  8
部品1
 48
0.01
100
AcDbLine
 10
4849.183055862402
 20
4414.356458683495
 30
0.0
 11
4849.183055862402
 21
4445.856458683494
 31
0.0
  0
LINE
  5
18DF8
330
747D
100
AcDbEntity
  8
部品1
 48
0.01
100
AcDbLine
 10
5029.183055862403
 20
4445.856458683494
 30
0.0
 11
5029.183055862403
 21
4414.356458683495
 31
0.0
  0
LINE
  5
18DF9
330
747D
100
AcDbEntity
  8
部品1
 48
0.01
100
AcDbLine
 10
4851.183055862403
 20
4447.856458683495
 30
0.0
 11
5027.183055862402
 21
4447.856458683495
 31
0.0
  0
LINE
  5
18DFA
330
747D
100
AcDbEntity
  8
細線
100
AcDbLine
 10
5013.183055862402
 20
4435.356458683495
 30
0.0
 11
4939.183055862402
 21
4435.356458683495
 31
0.0
  0
LINE
  5
18DFB
330
747D
100
AcDbEntity
  8
細線
100
AcDbLine
 10
5013.183055862402
 20
4429.356458683495
 30
0.0
 11
4939.183055862402
 21
4429.356458683495
 31
0.0
  0
LINE
  5
18DFC
330
747D
100
AcDbEntity
  8
細線
100
AcDbLine
 10
5013.183055862402
 20
4423.356458683494
 30
0.0
 11
4939.183055862402
 21
4423.356458683494
 31
0.0
  0
LINE
  5
18DFD
330
747D
100
AcDbEntity
  8
細線
100
AcDbLine
 10
5013.183055862402
 20
4435.356458683495
 30
0.0
 11
4944.183055862403
 21
4435.356458683495
 31
0.0
  0
LINE
  5
18DFE
330
747D
100
AcDbEntity
  8
細線
100
AcDbLine
 10
4865.183055862402
 20
4435.356458683495
 30
0.0
 11
4939.183055862402
 21
4435.356458683495
 31
0.0
  0
LINE
  5
18DFF
330
747D
100
AcDbEntity
  8
細線
100
AcDbLine
 10
4865.183055862402
 20
4423.356458683494
 30
0.0
 11
4939.183055862402
 21
4423.356458683494
 31
0.0
  0
LINE
  5
18E00
330
747D
100
AcDbEntity
  8
細線
100
AcDbLine
 10
4865.183055862402
 20
4429.356458683495
 30
0.0
 11
4939.183055862402
 21
4429.356458683495
 31
0.0
  0
LINE
  5
18E01
330
747D
100
AcDbEntity
  8
細線
100
AcDbLine
 10
4939.183055862402
 20
4441.356458683494
 30
0.0
 11
4939.183055862402
 21
4418.356458683494
 31
0.0
  0
LINE
  5
18E02
330
747D
100
AcDbEntity
  8
細線
100
AcDbLine
 10
3709.183055862403
 20
4441.356458683494
 30
0.0
 11
3709.183055862399
 21
4418.356458683494
 31
0.0
  0
LINE
  5
18E03
330
747D
100
AcDbEntity
  8
細線
100
AcDbLine
 10
3783.183055862399
 20
4429.356458683495
 30
0.0
 11
3709.183055862403
 21
4429.356458683495
 31
0.0
  0
LINE
  5
18E04
330
747D
100
AcDbEntity
  8
細線
100
AcDbLine
 10
3783.183055862399
 20
4423.356458683494
 30
0.0
 11
3709.183055862403
 21
4423.356458683494
 31
0.0
  0
LINE
  5
18E05
330
747D
100
AcDbEntity
  8
細線
100
AcDbLine
 10
3783.183055862399
 20
4435.356458683495
 30
0.0
 11
3709.183055862403
 21
4435.356458683495
 31
0.0
  0
LINE
  5
18E06
330
747D
100
AcDbEntity
  8
細線
100
AcDbLine
 10
3635.183055862402
 20
4435.356458683495
 30
0.0
 11
3704.183055862403
 21
4435.356458683495
 31
0.0
  0
LINE
  5
18E07
330
747D
100
AcDbEntity
  8
細線
100
AcDbLine
 10
3635.183055862399
 20
4423.356458683494
 30
0.0
 11
3709.183055862403
 21
4423.356458683494
 31
0.0
  0
LINE
  5
18E08
330
747D
100
AcDbEntity
  8
細線
100
AcDbLine
 10
3635.183055862402
 20
4429.356458683495
 30
0.0
 11
3709.183055862403
 21
4429.356458683495
 31
0.0
  0
LINE
  5
18E09
330
747D
100
AcDbEntity
  8
細線
100
AcDbLine
 10
3635.183055862402
 20
4435.356458683495
 30
0.0
 11
3709.183055862403
 21
4435.356458683495
 31
0.0
  0
LINE
  5
18E0A
330
747D
100
AcDbEntity
  8
部品1
 48
0.01
100
AcDbLine
 10
3797.183055862403
 20
4447.856458683495
 30
0.0
 11
3621.183055862402
 21
4447.856458683495
 31
0.0
  0
LINE
  5
18E0B
330
747D
100
AcDbEntity
  8
部品1
 48
0.01
100
AcDbLine
 10
3619.183055862403
 20
4445.856458683494
 30
0.0
 11
3619.183055862403
 21
4414.356458683495
 31
0.0
  0
LINE
  5
18E0C
330
747D
100
AcDbEntity
  8
部品1
 48
0.01
100
AcDbLine
 10
3799.183055862399
 20
4414.356458683495
 30
0.0
 11
3799.183055862402
 21
4445.856458683494
 31
0.0
  0
LINE
  5
18E0D
330
747D
100
AcDbEntity
  8
細線
100
AcDbLine
 10
3635.183055862402
 20
4441.356458683494
 30
0.0
 11
3635.183055862402
 21
4418.356458683494
 31
0.0
  0
LINE
  5
18E0E
330
747D
100
AcDbEntity
  8
細線
100
AcDbLine
 10
3783.183055862403
 20
4418.356458683494
 30
0.0
 11
3783.183055862403
 21
4441.356458683494
 31
0.0
  0
LINE
  5
18E0F
330
747D
100
AcDbEntity
  8
細線
100
AcDbLine
 10
3783.183055862403
 20
4441.356458683494
 30
0.0
 11
3709.183055862403
 21
4441.356458683494
 31
0.0
  0
LINE
  5
18E10
330
747D
100
AcDbEntity
  8
細線
100
AcDbLine
 10
3635.183055862402
 20
4418.356458683494
 30
0.0
 11
3709.183055862403
 21
4418.356458683494
 31
0.0
  0
LINE
  5
18E11
330
747D
100
AcDbEntity
  8
細線
100
AcDbLine
 10
3709.183055862403
 20
4441.356458683494
 30
0.0
 11
3635.183055862402
 21
4441.356458683494
 31
0.0
  0
LINE
  5
18E12
330
747D
100
AcDbEntity
  8
細線
100
AcDbLine
 10
3709.183055862399
 20
4418.356458683494
 30
0.0
 11
3783.183055862403
 21
4418.356458683494
 31
0.0
  0
ARC
  5
18E13
330
747D
100
AcDbEntity
  8
部品1
 48
0.01
100
AcDbCircle
 10
3621.183055862402
 20
4445.856458683494
 30
0.0
 40
2.0
100
AcDbArc
 50
90.0
 51
180.0
  0
ARC
  5
18E14
330
747D
100
AcDbEntity
  8
部品1
 48
0.01
100
AcDbCircle
 10
3797.183055862403
 20
4445.856458683494
 30
0.0
 40
2.0
100
AcDbArc
 50
0.0
 51
90.0
  0
TEXT
  5
18F8E
330
747D
100
AcDbEntity
  8
文字
 62
     7
 48
50.0
100
AcDbText
 10
15022.63965474517
 20
9740.013745883731
 30
0.0
 40
100.0
  1
F12            1.2
  7
STYLE1
100
AcDbText
  0
TEXT
  5
18FB2
330
747D
100
AcDbEntity
  8
文字
 62
     7
 48
50.0
100
AcDbText
 10
14646.46056207479
 20
871.9640646083623
 30
0.0
 40
100.0
  1
～一般型～
  7
STYLE2
100
AcDbText
  0
LINE
  5
18FDE
330
747D
100
AcDbEntity
  8
破線
 48
5.0
100
AcDbLine
 10
5589.1830558624
 20
1891.856458683495
 30
0.0
 11
5689.1830558624
 21
1891.856458683495
 31
0.0
  0
LINE
  5
18FDF
330
747D
100
AcDbEntity
  8
破線
 48
5.0
100
AcDbLine
 10
5639.1830558624
 20
1966.856458683494
 30
0.0
 11
5639.1830558624
 21
1891.856458683495
 31
0.0
  0
LINE
  5
18FE0
330
747D
100
AcDbEntity
  8
破線
 48
5.0
100
AcDbLine
 10
5536.183055862398
 20
2241.856458683495
 30
0.0
 11
5536.183055862401
 21
1991.856458683495
 31
0.0
  0
LINE
  5
18FE1
330
747D
100
AcDbEntity
  8
破線
 48
5.0
100
AcDbLine
 10
5584.183055862403
 20
1991.856458683495
 30
0.0
 11
5536.183055862401
 21
1991.856458683495
 31
0.0
  0
LINE
  5
18FE2
330
747D
100
AcDbEntity
  8
破線
 48
5.0
100
AcDbLine
 10
5584.183055862399
 20
2241.856458683495
 30
0.0
 11
5584.183055862402
 21
1966.856458683495
 31
0.0
  0
LINE
  5
18FE3
330
747D
100
AcDbEntity
  8
破線
 48
5.0
100
AcDbLine
 10
5694.183055862399
 20
1966.856458683494
 30
0.0
 11
5584.1830558624
 21
1966.856458683494
 31
0.0
  0
LINE
  5
18FE4
330
747D
100
AcDbEntity
  8
破線
 48
5.0
100
AcDbLine
 10
5742.183055862401
 20
2241.856458683495
 30
0.0
 11
5742.183055862398
 21
1991.8564586835
 31
0.0
  0
LINE
  5
18FE5
330
747D
100
AcDbEntity
  8
破線
 48
5.0
100
AcDbLine
 10
5742.183055862398
 20
1991.8564586835
 30
0.0
 11
5694.183055862399
 21
1991.8564586835
 31
0.0
  0
LINE
  5
18FE6
330
747D
100
AcDbEntity
  8
破線
 48
5.0
100
AcDbLine
 10
5694.1830558624
 20
2241.856458683495
 30
0.0
 11
5694.183055862399
 21
1966.856458683495
 31
0.0
  0
LINE
  5
18FFD
330
747D
100
AcDbEntity
  8
破線
 48
5.0
100
AcDbLine
 10
3112.183055862399
 20
2241.856458683495
 30
0.0
 11
3112.183055862399
 21
1991.8564586835
 31
0.0
  0
LINE
  5
18FFE
330
747D
100
AcDbEntity
  8
破線
 48
5.0
100
AcDbLine
 10
3112.183055862399
 20
2241.856458683495
 30
0.0
 11
3112.183055862399
 21
1991.8564586835
 31
0.0
  0
LINE
  5
18FFF
330
747D
100
AcDbEntity
  8
破線
 48
5.0
100
AcDbLine
 10
3112.183055862399
 20
1991.8564586835
 30
0.0
 11
3064.183055862399
 21
1991.8564586835
 31
0.0
  0
LINE
  5
19000
330
747D
100
AcDbEntity
  8
破線
 48
5.0
100
AcDbLine
 10
3112.183055862399
 20
1991.8564586835
 30
0.0
 11
3064.183055862399
 21
1991.8564586835
 31
0.0
  0
LINE
  5
19001
330
747D
100
AcDbEntity
  8
破線
 48
5.0
100
AcDbLine
 10
3064.183055862399
 20
1891.856458683502
 30
0.0
 11
3009.183055862399
 21
1891.856458683502
 31
0.0
  0
LINE
  5
19002
330
747D
100
AcDbEntity
  8
破線
 48
5.0
100
AcDbLine
 10
3009.183055862399
 20
2141.856458683495
 30
0.0
 11
3009.183055862399
 21
1891.856458683495
 31
0.0
  0
LINE
  5
19003
330
747D
100
AcDbEntity
  8
破線
 48
5.0
100
AcDbLine
 10
3064.183055862399
 20
2241.856458683495
 30
0.0
 11
3064.183055862399
 21
1891.856458683495
 31
0.0
  0
LINE
  5
19004
330
747D
100
AcDbEntity
  8
破線
 48
5.0
100
AcDbLine
 10
3064.183055862399
 20
2241.856458683495
 30
0.0
 11
3064.183055862399
 21
1891.856458683495
 31
0.0
  0
LINE
  5
19018
330
747D
100
AcDbEntity
  8
破線
 48
5.0
100
AcDbLine
 10
8214.183055862395
 20
2241.856458683495
 30
0.0
 11
8214.183055862395
 21
1891.856458683495
 31
0.0
  0
LINE
  5
19019
330
747D
100
AcDbEntity
  8
破線
 48
5.0
100
AcDbLine
 10
8269.183055862395
 20
2141.856458683495
 30
0.0
 11
8269.183055862395
 21
1891.856458683495
 31
0.0
  0
LINE
  5
1901A
330
747D
100
AcDbEntity
  8
破線
 48
5.0
100
AcDbLine
 10
8269.183055862395
 20
1891.856458683495
 30
0.0
 11
8214.183055862395
 21
1891.856458683495
 31
0.0
  0
LINE
  5
1901B
330
747D
100
AcDbEntity
  8
破線
 48
5.0
100
AcDbLine
 10
8166.183055862395
 20
2241.856458683495
 30
0.0
 11
8166.183055862395
 21
1991.856458683495
 31
0.0
  0
LINE
  5
1901C
330
747D
100
AcDbEntity
  8
破線
 48
5.0
100
AcDbLine
 10
8214.183055862399
 20
1991.856458683495
 30
0.0
 11
8166.183055862395
 21
1991.856458683495
 31
0.0
  0
TEXT
  5
19053
330
747D
100
AcDbEntity
  8
文字
 62
     7
 48
50.0
100
AcDbText
 10
15022.63965474516
 20
9060.013745883727
 30
0.0
 40
100.0
  1
F12            0.7
  7
STYLE1
100
AcDbText
  0
ENDSEC
  0
SECTION
  2
OBJECTS
  0
DICTIONARY
  5
7471
330
0
100
AcDbDictionary
281
     1
  3
ACAD_COLOR
350
1736A
  3
ACAD_GROUP
350
7472
  3
ACAD_LAYOUT
350
1736B
  3
ACAD_MATERIAL
350
17369
  3
ACAD_MLINESTYLE
350
7473
  3
ACAD_PLOTSETTINGS
350
1736C
  3
ACAD_PLOTSTYLENAME
350
17367
  3
ACDBHEADERROUNDTRIPXREC
350
1909C
  3
AcDbVariableDictionary
350
19098
  3
CONTENTDICTIONARY
350
E71C
  3
DRAWINGVARIABLESDICT
350
F3B9
  0
DICTIONARY
  5
176C6
330
7467
100
AcDbDictionary
280
     1
281
     1
  3
ACAD_LAYERSTATES
360
176C7
  0
DICTIONARY
  5
1736A
102
{ACAD_REACTORS
330
7471
102
}
330
7471
100
AcDbDictionary
281
     1
  0
DICTIONARY
  5
7472
102
{ACAD_REACTORS
330
7471
102
}
330
7471
100
AcDbDictionary
281
     1
  0
DICTIONARY
  5
1736B
102
{ACAD_REACTORS
330
7471
102
}
330
7471
100
AcDbDictionary
281
     1
  3
Model
350
1736D
  3
レイアウト1
350
1736E
  0
DICTIONARY
  5
17369
102
{ACAD_REACTORS
330
7471
102
}
330
7471
100
AcDbDictionary
281
     1
  0
DICTIONARY
  5
7473
102
{ACAD_REACTORS
330
7471
102
}
330
7471
100
AcDbDictionary
281
     1
  3
STANDARD
350
7480
  0
DICTIONARY
  5
1736C
102
{ACAD_REACTORS
330
7471
102
}
330
7471
100
AcDbDictionary
281
     1
  0
ACDBDICTIONARYWDFLT
  5
17367
102
{ACAD_REACTORS
330
7471
102
}
330
7471
100
AcDbDictionary
281
     1
  3
Normal
350
17368
100
AcDbDictionaryWithDefault
340
17368
  0
DICTIONARY
  5
1909C
102
{ACAD_REACTORS
330
7471
102
}
330
7471
100
AcDbDictionary
281
     1
  3
COLORDICT
350
1909E
  3
MATERIALDICT
350
1909D
  0
DICTIONARY
  5
19098
102
{ACAD_REACTORS
330
7471
102
}
330
7471
100
AcDbDictionary
281
     1
  3
DIMASSOC
350
19099
  3
PROJECTNAME
350
1909A
  0
DICTIONARY
  5
E71C
102
{ACAD_REACTORS
330
7471
102
}
330
7471
100
AcDbDictionary
281
     1
  0
DICTIONARY
  5
F3B9
102
{ACAD_REACTORS
330
7471
102
}
330
7471
100
AcDbDictionary
281
     1
1001
DRAWINGVARIABLESXDATA
1000
POLARMODE
1000
1
  0
DICTIONARY
  5
176C7
102
{ACAD_REACTORS
330
176C6
102
}
330
176C6
100
AcDbDictionary
281
     1
  0
LAYOUT
  5
1736D
102
{ACAD_XDICTIONARY
360
1909F
102
}
102
{ACAD_REACTORS
330
1736B
102
}
330
1736B
100
AcDbPlotSettings
  1

  2
none_device
  4
Letter_(8.50_x_11.00_Inches)
  6

 40
6.349999904632568
 41
6.349999904632568
 42
6.350006103515625
 43
6.350006103515625
 44
215.8999938964844
 45
279.3999938964844
 46
0.0
 47
0.0
 48
0.0
 49
0.0
140
0.0
141
0.0
142
1.0
143
1.0
 70
 11952
 72
     1
 73
     1
 74
     0
  7
inaba.ctb
 75
     0
147
1.0
148
-2466.961772128929
149
52.09676254684836
100
AcDbLayout
  1
Model
 70
     1
 71
     0
 10
0.0
 20
0.0
 11
12.0
 21
9.0
 12
0.0
 22
0.0
 32
0.0
 14
0.0
 24
0.0
 34
0.0
 15
0.0
 25
0.0
 35
0.0
146
0.0
 13
0.0
 23
0.0
 33
0.0
 16
1.0
 26
0.0
 36
0.0
 17
0.0
 27
1.0
 37
0.0
 76
     0
330
747D
  0
LAYOUT
  5
1736E
102
{ACAD_XDICTIONARY
360
190A1
102
}
102
{ACAD_REACTORS
330
1736B
102
}
330
1736B
100
AcDbPlotSettings
  1

  2
EPSON LP-8300
  4

  6

 40
0.0
 41
0.0
 42
0.0
 43
0.0
 44
0.0
 45
0.0
 46
0.0
 47
0.0
 48
0.0
 49
0.0
140
0.0
141
0.0
142
1.0
143
1.0
 70
   688
 72
     0
 73
     0
 74
     5
  7
inaba.ctb
 75
    16
147
1.0
148
0.0
149
0.0
100
AcDbLayout
  1
レイアウト1
 70
     0
 71
     1
 10
0.0
 20
0.0
 11
420.0
 21
297.0
 12
0.0
 22
0.0
 32
0.0
 14
1.000000000000000E+20
 24
1.000000000000000E+20
 34
1.000000000000000E+20
 15
-1.000000000000000E+20
 25
-1.000000000000000E+20
 35
-1.000000000000000E+20
146
0.0
 13
0.0
 23
0.0
 33
0.0
 16
1.0
 26
0.0
 36
0.0
 17
0.0
 27
1.0
 37
0.0
 76
     0
330
747A
  0
MLINESTYLE
  5
7480
102
{ACAD_REACTORS
330
7473
102
}
330
7473
100
AcDbMlineStyle
  2
STANDARD
 70
     0
  3

 62
     0
 51
90.0
 52
90.0
 71
     2
 49
0.5
 62
   256
  6
BYLAYER
 49
-0.5
 62
   256
  6
BYLAYER
  0
ACDBPLACEHOLDER
  5
17368
102
{ACAD_REACTORS
330
17367
102
}
330
17367
  0
XRECORD
  5
1909E
102
{ACAD_REACTORS
330
1909C
102
}
330
1909C
100
AcDbXrecord
280
     1
340
1736A
  0
XRECORD
  5
1909D
102
{ACAD_REACTORS
330
1909C
102
}
330
1909C
100
AcDbXrecord
280
     1
340
17369
  0
DICTIONARYVAR
  5
19099
102
{ACAD_REACTORS
330
19098
102
}
330
19098
100
DictionaryVariables
280
     0
  1
1
  0
DICTIONARYVAR
  5
1909A
102
{ACAD_REACTORS
330
19098
102
}
330
19098
100
DictionaryVariables
280
     0
  1

  0
DICTIONARY
  5
1909F
330
1736D
100
AcDbDictionary
280
     1
281
     1
  3
ACAD_XREC_ROUNDTRIP
360
190A0
  0
DICTIONARY
  5
190A1
330
1736E
100
AcDbDictionary
280
     1
281
     1
  3
ACAD_XREC_ROUNDTRIP
360
190A2
  0
XRECORD
  5
190A0
102
{ACAD_REACTORS
330
1909F
102
}
330
1909F
100
AcDbXrecord
280
     1
102
SHADEPLOT
 70
     0
102
SHADEPLOTRESLEVEL
 70
     2
102
SHADEPLOTCUSTOMDPI
 70
   300
  0
XRECORD
  5
190A2
102
{ACAD_REACTORS
330
190A1
102
}
330
190A1
100
AcDbXrecord
280
     1
102
SHADEPLOT
 70
     0
102
SHADEPLOTRESLEVEL
 70
     2
102
SHADEPLOTCUSTOMDPI
 70
   300
  0
ENDSEC
  0
EOF
