  0
SECTION
  2
HEADER
  9
$ACADVER
  1
AC1015
  9
$ACADMAINTVER
 70
    20
  9
$DWGCODEPAGE
  3
ANSI_932
  9
$INSBASE
 10
0.0
 20
0.0
 30
0.0
  9
$EXTMIN
 10
139.9999999999995
 20
-0.0000000000000909
 30
0.0
  9
$EXTMAX
 10
16307.2
 20
11409.6
 30
0.0
  9
$LIMMIN
 10
0.0
 20
0.0
  9
$LIMMAX
 10
16800.0
 20
11880.0
  9
$ORTHOMODE
 70
     0
  9
$REGENMODE
 70
     1
  9
$FILLMODE
 70
     1
  9
$QTEXTMODE
 70
     0
  9
$MIRRTEXT
 70
     1
  9
$LTSCALE
 40
20.0
  9
$ATTMODE
 70
     1
  9
$TEXTSIZE
 40
100.0
  9
$TRACEWID
 40
1.0
  9
$TEXTSTYLE
  7
STYLE2
  9
$CLAYER
  8
部品1
  9
$CELTYPE
  6
BYLAYER
  9
$CECOLOR
 62
   256
  9
$CELTSCALE
 40
50.0
  9
$DISPSILH
 70
     0
  9
$DIMSCALE
 40
40.0
  9
$DIMASZ
 40
2.5
  9
$DIMEXO
 40
0.5
  9
$DIMDLI
 40
7.0
  9
$DIMRND
 40
0.0
  9
$DIMDLE
 40
0.0
  9
$DIMEXE
 40
1.5
  9
$DIMTP
 40
0.0
  9
$DIMTM
 40
0.0
  9
$DIMTXT
 40
3.0
  9
$DIMCEN
 40
0.0
  9
$DIMTSZ
 40
0.0
  9
$DIMTOL
 70
     0
  9
$DIMLIM
 70
     0
  9
$DIMTIH
 70
     0
  9
$DIMTOH
 70
     0
  9
$DIMSE1
 70
     0
  9
$DIMSE2
 70
     0
  9
$DIMTAD
 70
     3
  9
$DIMZIN
 70
     8
  9
$DIMBLK
  1

  9
$DIMASO
 70
     1
  9
$DIMSHO
 70
     1
  9
$DIMPOST
  1

  9
$DIMAPOST
  1

  9
$DIMALT
 70
     0
  9
$DIMALTD
 70
     2
  9
$DIMALTF
 40
0.0394
  9
$DIMLFAC
 40
1.0
  9
$DIMTOFL
 70
     1
  9
$DIMTVP
 40
0.0
  9
$DIMTIX
 70
     1
  9
$DIMSOXD
 70
     0
  9
$DIMSAH
 70
     1
  9
$DIMBLK1
  1
DOTSMALL
  9
$DIMBLK2
  1
DOTSMALL
  9
$DIMSTYLE
  2
INABA_S40G
  9
$DIMCLRD
 70
     0
  9
$DIMCLRE
 70
     0
  9
$DIMCLRT
 70
     7
  9
$DIMTFAC
 40
1.0
  9
$DIMGAP
 40
1.0
  9
$DIMJUST
 70
     0
  9
$DIMSD1
 70
     0
  9
$DIMSD2
 70
     0
  9
$DIMTOLJ
 70
     1
  9
$DIMTZIN
 70
     0
  9
$DIMALTZ
 70
     0
  9
$DIMALTTZ
 70
     0
  9
$DIMUPT
 70
     0
  9
$DIMDEC
 70
     1
  9
$DIMTDEC
 70
     4
  9
$DIMALTU
 70
     2
  9
$DIMALTTD
 70
     2
  9
$DIMTXSTY
  7
STYLE1
  9
$DIMAUNIT
 70
     0
  9
$DIMADEC
 70
     0
  9
$DIMALTRND
 40
0.0
  9
$DIMAZIN
 70
     0
  9
$DIMDSEP
 70
    46
  9
$DIMATFIT
 70
     3
  9
$DIMFRAC
 70
     0
  9
$DIMLDRBLK
  1

  9
$DIMLUNIT
 70
     2
  9
$DIMLWD
 70
    -2
  9
$DIMLWE
 70
    -2
  9
$DIMTMOVE
 70
     2
  9
$LUNITS
 70
     2
  9
$LUPREC
 70
     1
  9
$SKETCHINC
 40
1.0
  9
$FILLETRAD
 40
3.0
  9
$AUNITS
 70
     0
  9
$AUPREC
 70
     0
  9
$MENU
  1
acad
  9
$ELEVATION
 40
0.0
  9
$PELEVATION
 40
0.0
  9
$THICKNESS
 40
0.0
  9
$LIMCHECK
 70
     0
  9
$CHAMFERA
 40
0.0
  9
$CHAMFERB
 40
0.0
  9
$CHAMFERC
 40
0.0
  9
$CHAMFERD
 40
0.0
  9
$SKPOLY
 70
     0
  9
$TDCREATE
 40
2451368.612993866
  9
$TDUCREATE
 40
2451368.237993866
  9
$TDUPDATE
 40
2455569.623704966
  9
$TDUUPDATE
 40
2455569.248704966
  9
$TDINDWG
 40
1.1338707755
  9
$TDUSRTIMER
 40
1.1338707755
  9
$USRTIMER
 70
     1
  9
$ANGBASE
 50
0.0
  9
$ANGDIR
 70
     0
  9
$PDMODE
 70
     3
  9
$PDSIZE
 40
2.0
  9
$PLINEWID
 40
0.0
  9
$SPLFRAME
 70
     0
  9
$SPLINETYPE
 70
     6
  9
$SPLINESEGS
 70
     8
  9
$HANDSEED
  5
1C33A
  9
$SURFTAB1
 70
     6
  9
$SURFTAB2
 70
     6
  9
$SURFTYPE
 70
     6
  9
$SURFU
 70
     6
  9
$SURFV
 70
     6
  9
$UCSBASE
  2

  9
$UCSNAME
  2

  9
$UCSORG
 10
0.0
 20
0.0
 30
0.0
  9
$UCSXDIR
 10
1.0
 20
0.0
 30
0.0
  9
$UCSYDIR
 10
0.0
 20
1.0
 30
0.0
  9
$UCSORTHOREF
  2

  9
$UCSORTHOVIEW
 70
     0
  9
$UCSORGTOP
 10
0.0
 20
0.0
 30
0.0
  9
$UCSORGBOTTOM
 10
0.0
 20
0.0
 30
0.0
  9
$UCSORGLEFT
 10
0.0
 20
0.0
 30
0.0
  9
$UCSORGRIGHT
 10
0.0
 20
0.0
 30
0.0
  9
$UCSORGFRONT
 10
0.0
 20
0.0
 30
0.0
  9
$UCSORGBACK
 10
0.0
 20
0.0
 30
0.0
  9
$PUCSBASE
  2

  9
$PUCSNAME
  2

  9
$PUCSORG
 10
0.0
 20
0.0
 30
0.0
  9
$PUCSXDIR
 10
1.0
 20
0.0
 30
0.0
  9
$PUCSYDIR
 10
0.0
 20
1.0
 30
0.0
  9
$PUCSORTHOREF
  2

  9
$PUCSORTHOVIEW
 70
     0
  9
$PUCSORGTOP
 10
0.0
 20
0.0
 30
0.0
  9
$PUCSORGBOTTOM
 10
0.0
 20
0.0
 30
0.0
  9
$PUCSORGLEFT
 10
0.0
 20
0.0
 30
0.0
  9
$PUCSORGRIGHT
 10
0.0
 20
0.0
 30
0.0
  9
$PUCSORGFRONT
 10
0.0
 20
0.0
 30
0.0
  9
$PUCSORGBACK
 10
0.0
 20
0.0
 30
0.0
  9
$USERI1
 70
     0
  9
$USERI2
 70
     0
  9
$USERI3
 70
     0
  9
$USERI4
 70
     0
  9
$USERI5
 70
     0
  9
$USERR1
 40
0.0
  9
$USERR2
 40
0.0
  9
$USERR3
 40
0.0
  9
$USERR4
 40
0.0
  9
$USERR5
 40
0.0
  9
$WORLDVIEW
 70
     1
  9
$SHADEDGE
 70
     3
  9
$SHADEDIF
 70
    70
  9
$TILEMODE
 70
     1
  9
$MAXACTVP
 70
    16
  9
$PINSBASE
 10
0.0
 20
0.0
 30
0.0
  9
$PLIMCHECK
 70
     0
  9
$PEXTMIN
 10
1.000000000000000E+20
 20
1.000000000000000E+20
 30
1.000000000000000E+20
  9
$PEXTMAX
 10
-1.000000000000000E+20
 20
-1.000000000000000E+20
 30
-1.000000000000000E+20
  9
$PLIMMIN
 10
0.0
 20
0.0
  9
$PLIMMAX
 10
420.0
 20
297.0
  9
$UNITMODE
 70
     0
  9
$VISRETAIN
 70
     0
  9
$PLINEGEN
 70
     0
  9
$PSLTSCALE
 70
     0
  9
$TREEDEPTH
 70
  3020
  9
$CMLSTYLE
  2
STANDARD
  9
$CMLJUST
 70
     0
  9
$CMLSCALE
 40
1.0
  9
$PROXYGRAPHICS
 70
     1
  9
$MEASUREMENT
 70
     1
  9
$CELWEIGHT
370
    -1
  9
$ENDCAPS
280
     0
  9
$JOINSTYLE
280
     0
  9
$LWDISPLAY
290
     0
  9
$INSUNITS
 70
     0
  9
$HYPERLINKBASE
  1

  9
$STYLESHEET
  1

  9
$XEDIT
290
     1
  9
$CEPSNTYPE
380
     0
  9
$PSTYLEMODE
290
     1
  9
$FINGERPRINTGUID
  2
{D9A389BE-7951-40C7-A6AD-3719D487A58A}
  9
$VERSIONGUID
  2
{43011FAC-DA6D-4067-97C8-9E6396277DE9}
  9
$EXTNAMES
290
     1
  9
$PSVPSCALE
 40
0.0
  9
$OLESTARTUP
290
     0
  0
ENDSEC
  0
SECTION
  2
CLASSES
  0
CLASS
  1
ACDBDICTIONARYWDFLT
  2
AcDbDictionaryWithDefault
  3
ObjectDBX Classes
 90
        0
280
     0
281
     0
  0
CLASS
  1
DICTIONARYVAR
  2
AcDbDictionaryVar
  3
ObjectDBX Classes
 90
        0
280
     0
281
     0
  0
CLASS
  1
ACDBPLACEHOLDER
  2
AcDbPlaceHolder
  3
ObjectDBX Classes
 90
        0
280
     0
281
     0
  0
CLASS
  1
LAYOUT
  2
AcDbLayout
  3
ObjectDBX Classes
 90
        0
280
     0
281
     0
  0
ENDSEC
  0
SECTION
  2
TABLES
  0
TABLE
  2
VPORT
  5
746D
330
0
100
AcDbSymbolTable
 70
     2
  0
VPORT
  5
1C332
330
746D
100
AcDbSymbolTableRecord
100
AcDbViewportTableRecord
  2
*Active
 70
     0
 10
0.0
 20
0.0
 11
1.0
 21
1.0
 12
8223.761025238504
 22
5958.807553215734
 13
0.0
 23
0.0
 14
10.0
 24
10.0
 15
10.0
 25
10.0
 16
0.0
 26
0.0
 36
1.0
 17
0.0
 27
0.0
 37
0.0
 40
12025.6196116811
 41
1.627450980392157
 42
50.0
 43
0.0
 44
0.0
 50
0.0
 51
0.0
 71
     0
 72
     0
 73
     1
 74
     0
 75
     0
 76
     0
 77
     0
 78
     0
281
     0
 65
     1
110
0.0
120
0.0
130
0.0
111
1.0
121
0.0
131
0.0
112
0.0
122
1.0
132
0.0
 79
     0
146
0.0
  0
ENDTAB
  0
TABLE
  2
LTYPE
  5
746A
330
0
100
AcDbSymbolTable
 70
     3
  0
LTYPE
  5
7477
330
746A
100
AcDbSymbolTableRecord
100
AcDbLinetypeTableRecord
  2
BYBLOCK
 70
     0
  3

 72
    65
 73
     0
 40
0.0
  0
LTYPE
  5
7478
330
746A
100
AcDbSymbolTableRecord
100
AcDbLinetypeTableRecord
  2
BYLAYER
 70
     0
  3

 72
    65
 73
     0
 40
0.0
  0
LTYPE
  5
7479
330
746A
100
AcDbSymbolTableRecord
100
AcDbLinetypeTableRecord
  2
CONTINUOUS
 70
     0
  3
Solid line
 72
    65
 73
     0
 40
0.0
  0
LTYPE
  5
781A
330
746A
100
AcDbSymbolTableRecord
100
AcDbLinetypeTableRecord
  2
HIDDEN
 70
     0
  3
__ __ __ __ __ __ __ __ __ __ __ __ __ __ __ __
 72
    65
 73
     2
 40
0.375
 49
0.25
 74
     0
 49
-0.125
 74
     0
  0
LTYPE
  5
781B
330
746A
100
AcDbSymbolTableRecord
100
AcDbLinetypeTableRecord
  2
PHANTOM
 70
     0
  3
______  __  __  ______  __  __  ______  __  __ 
 72
    65
 73
     6
 40
2.5
 49
1.25
 74
     0
 49
-0.25
 74
     0
 49
0.25
 74
     0
 49
-0.25
 74
     0
 49
0.25
 74
     0
 49
-0.25
 74
     0
  0
ENDTAB
  0
TABLE
  2
LAYER
  5
7467
102
{ACAD_XDICTIONARY
360
1A57F
102
}
330
0
100
AcDbSymbolTable
 70
    10
  0
LAYER
  5
7474
330
7467
100
AcDbSymbolTableRecord
100
AcDbLayerTableRecord
  2
0
 70
     0
 62
     7
  6
CONTINUOUS
370
    -3
390
1A259
  0
LAYER
  5
DEB3
330
7467
100
AcDbSymbolTableRecord
100
AcDbLayerTableRecord
  2
寸法
 70
     0
 62
     4
  6
CONTINUOUS
370
    -3
390
1A259
  0
LAYER
  5
DEB4
330
7467
100
AcDbSymbolTableRecord
100
AcDbLayerTableRecord
  2
部品1
 70
     0
 62
     7
  6
CONTINUOUS
370
    -3
390
1A259
  0
LAYER
  5
DEB5
330
7467
100
AcDbSymbolTableRecord
100
AcDbLayerTableRecord
  2
補助
 70
     0
 62
    -1
  6
CONTINUOUS
370
    -3
390
1A259
  0
LAYER
  5
DEB6
330
7467
100
AcDbSymbolTableRecord
100
AcDbLayerTableRecord
  2
文字
 70
     0
 62
     7
  6
CONTINUOUS
370
    -3
390
1A259
  0
LAYER
  5
F255
330
7467
100
AcDbSymbolTableRecord
100
AcDbLayerTableRecord
  2
DEFPOINTS
 70
     0
 62
     7
  6
CONTINUOUS
290
     0
370
    -3
390
1A259
  0
LAYER
  5
10B54
330
7467
100
AcDbSymbolTableRecord
100
AcDbLayerTableRecord
  2
仕様書枠
 70
     0
 62
   230
  6
CONTINUOUS
370
    -3
390
1A259
  0
LAYER
  5
11729
330
7467
100
AcDbSymbolTableRecord
100
AcDbLayerTableRecord
  2
Ｇ．Ｌ
 70
     0
 62
    30
  6
CONTINUOUS
370
    -3
390
1A259
  0
LAYER
  5
1173F
330
7467
100
AcDbSymbolTableRecord
100
AcDbLayerTableRecord
  2
細線
 70
     0
 62
     5
  6
CONTINUOUS
370
    -3
390
1A259
  0
LAYER
  5
142E2
330
7467
100
AcDbSymbolTableRecord
100
AcDbLayerTableRecord
  2
破線
 70
     0
 62
     2
  6
HIDDEN
370
    -3
390
1A259
  0
ENDTAB
  0
TABLE
  2
STYLE
  5
7468
330
0
100
AcDbSymbolTable
 70
     4
  0
STYLE
  5
7475
330
7468
100
AcDbSymbolTableRecord
100
AcDbTextStyleTableRecord
  2
STANDARD
 70
     0
 40
0.0
 41
1.0
 50
0.0
 71
     0
 42
4.0
  3
txt
  4
C:\AutoCAD LT\bigfont.shx
  0
STYLE
  5
763C
330
7468
100
AcDbSymbolTableRecord
100
AcDbTextStyleTableRecord
  2
MSMINCHO
 70
     0
 40
0.0
 41
1.0
 50
0.0
 71
     0
 42
1.199999999999999
  3
C:\AutoCAD LT\msminch2.TTF
  4

  0
STYLE
  5
F706
330
7468
100
AcDbSymbolTableRecord
100
AcDbTextStyleTableRecord
  2
STYLE1
 70
     0
 40
0.0
 41
1.0
 50
0.0
 71
     0
 42
120.0
  3
isocp.shx
  4
bigfont.shx
  0
STYLE
  5
103BF
330
7468
100
AcDbSymbolTableRecord
100
AcDbTextStyleTableRecord
  2
STYLE2
 70
     0
 40
0.0
 41
1.0
 50
0.0
 71
     0
 42
100.0
  3
MS PGothic.ttf
  4

1001
ACAD
1000
MS PGothic
1071
    32818
  0
ENDTAB
  0
TABLE
  2
VIEW
  5
746B
330
0
100
AcDbSymbolTable
 70
     0
  0
ENDTAB
  0
TABLE
  2
UCS
  5
746C
330
0
100
AcDbSymbolTable
 70
     0
  0
ENDTAB
  0
TABLE
  2
APPID
  5
746E
330
0
100
AcDbSymbolTable
 70
     6
  0
APPID
  5
7476
330
746E
100
AcDbSymbolTableRecord
100
AcDbRegAppTableRecord
  2
ACAD
 70
     0
  0
APPID
  5
DEA9
330
746E
100
AcDbSymbolTableRecord
100
AcDbRegAppTableRecord
  2
CONTENTBLOCKICON
 70
     0
  0
APPID
  5
DEAA
330
746E
100
AcDbSymbolTableRecord
100
AcDbRegAppTableRecord
  2
CONTENTBLOCKDESCRIPTION
 70
     0
  0
APPID
  5
E71D
330
746E
100
AcDbSymbolTableRecord
100
AcDbRegAppTableRecord
  2
CONTENTTABDATA
 70
     0
  0
APPID
  5
E71E
330
746E
100
AcDbSymbolTableRecord
100
AcDbRegAppTableRecord
  2
CONTENTCURRENTTAB
 70
     0
  0
APPID
  5
F3BA
330
746E
100
AcDbSymbolTableRecord
100
AcDbRegAppTableRecord
  2
DRAWINGVARIABLESXDATA
 70
     0
  0
ENDTAB
  0
TABLE
  2
DIMSTYLE
  5
746F
330
0
100
AcDbSymbolTable
 70
     2
100
AcDbDimStyleTable
 71
     1
340
F71F
  0
DIMSTYLE
105
F71F
102
{ACAD_REACTORS
330
162CD
330
162CE
330
162CF
330
162D0
330
162E4
330
162EA
330
162EB
330
16301
330
16302
330
1631F
330
16320
330
16333
330
1659C
330
1659A
330
165E9
330
166DD
330
16913
330
17C9E
330
17C9D
330
17C9B
330
17C9F
330
17C5D
330
17C95
330
17C60
330
1A22A
330
1A922
330
1A9D8
330
1A9D9
330
1A9DA
330
1A9DB
330
1AA1D
330
1AA22
330
1AA23
330
1AA24
330
1AA25
330
1AA3C
330
1AA3D
330
1AA48
330
1AA51
330
1B988
330
1B9AD
330
1BD02
330
1BD03
330
1BD04
330
1C17B
102
}
330
746F
100
AcDbSymbolTableRecord
100
AcDbDimStyleTableRecord
  2
INABA_S40G
 70
     0
 40
40.0
 41
2.5
 42
0.5
 43
7.0
 44
1.5
 73
     0
 74
     0
 77
     3
 78
     8
140
3.0
141
0.0
143
0.0394
147
1.0
172
     1
173
     1
174
     1
178
     7
271
     1
340
F706
341
F770
343
F770
344
F770
  0
DIMSTYLE
105
1C11B
330
746F
100
AcDbSymbolTableRecord
100
AcDbDimStyleTableRecord
  2
INABA_S20G
 70
     0
 40
20.0
 41
2.5
 42
0.5
 43
7.0
 44
1.5
 73
     0
 74
     0
 77
     3
 78
     8
140
3.0
141
0.0
143
0.0394
147
1.0
172
     1
173
     1
174
     1
178
     7
271
     1
340
F706
341
F770
343
F770
344
F770
  0
ENDTAB
  0
TABLE
  2
BLOCK_RECORD
  5
7466
330
0
100
AcDbSymbolTable
 70
    47
  0
BLOCK_RECORD
  5
747D
330
7466
100
AcDbSymbolTableRecord
100
AcDbBlockTableRecord
  2
*MODEL_SPACE
340
1A25E
  0
BLOCK_RECORD
  5
747A
330
7466
100
AcDbSymbolTableRecord
100
AcDbBlockTableRecord
  2
*PAPER_SPACE
340
1A25F
  0
BLOCK_RECORD
  5
F770
330
7466
100
AcDbSymbolTableRecord
100
AcDbBlockTableRecord
  2
_DOTSMALL
340
0
102
{BLKREFS
331
1A221
331
1A222
331
1B2A7
331
1B2A8
331
1B2C3
331
1B2C4
331
1B2CE
331
1B2CF
331
1B2D9
331
1B2DA
331
1B2E0
331
1B2E1
331
1B31B
331
1B31C
331
1B326
331
1B327
331
1B331
331
1B332
331
1B35A
331
1B35B
331
1B366
331
1B367
331
1B371
331
1B372
331
1B37B
331
1B37C
331
1B383
331
1B384
331
1B38C
331
1B38D
331
1B397
331
1B398
331
1B3A2
331
1B3A3
331
1B3AB
331
1B3AC
331
1B3F7
331
1B3F8
331
1B400
331
1B401
331
1B40B
331
1B40C
331
1B416
331
1B417
331
1B435
331
1B436
331
1B447
331
1B448
331
1B450
331
1B451
331
1B464
331
1B465
331
1B477
331
1B478
331
1B481
331
1B482
331
1B495
331
1B496
331
1BB34
331
1BB35
331
1BB3D
331
1BB3E
331
1BB52
331
1BB53
331
1BB5B
331
1BB5C
331
1BB64
331
1BB65
331
1BB6D
331
1BB6E
331
1BB78
331
1BB79
331
1BB83
331
1BB84
331
1BB8E
331
1BB8F
331
1BB97
331
1BB98
331
1BE3B
331
1BE3C
331
1C1C8
331
1C1C9
331
1C293
331
1C294
331
1C29C
331
1C29D
331
1C315
331
1C316
331
1C321
331
1C322
102
}
  0
BLOCK_RECORD
  5
16338
330
7466
100
AcDbSymbolTableRecord
100
AcDbBlockTableRecord
  2
*D1
340
0
  0
BLOCK_RECORD
  5
16344
330
7466
100
AcDbSymbolTableRecord
100
AcDbBlockTableRecord
  2
*D2
340
0
  0
BLOCK_RECORD
  5
16352
330
7466
100
AcDbSymbolTableRecord
100
AcDbBlockTableRecord
  2
*D3
340
0
  0
BLOCK_RECORD
  5
16360
330
7466
100
AcDbSymbolTableRecord
100
AcDbBlockTableRecord
  2
*D4
340
0
  0
BLOCK_RECORD
  5
16384
330
7466
100
AcDbSymbolTableRecord
100
AcDbBlockTableRecord
  2
*D5
340
0
  0
BLOCK_RECORD
  5
1639B
330
7466
100
AcDbSymbolTableRecord
100
AcDbBlockTableRecord
  2
*D6
340
0
  0
BLOCK_RECORD
  5
163A9
330
7466
100
AcDbSymbolTableRecord
100
AcDbBlockTableRecord
  2
*D7
340
0
  0
BLOCK_RECORD
  5
163B8
330
7466
100
AcDbSymbolTableRecord
100
AcDbBlockTableRecord
  2
*D8
340
0
  0
BLOCK_RECORD
  5
163C7
330
7466
100
AcDbSymbolTableRecord
100
AcDbBlockTableRecord
  2
*D9
340
0
  0
BLOCK_RECORD
  5
163E1
330
7466
100
AcDbSymbolTableRecord
100
AcDbBlockTableRecord
  2
*D10
340
0
  0
BLOCK_RECORD
  5
163ED
330
7466
100
AcDbSymbolTableRecord
100
AcDbBlockTableRecord
  2
*D11
340
0
  0
BLOCK_RECORD
  5
163FB
330
7466
100
AcDbSymbolTableRecord
100
AcDbBlockTableRecord
  2
*D12
340
0
  0
BLOCK_RECORD
  5
165B5
330
7466
100
AcDbSymbolTableRecord
100
AcDbBlockTableRecord
  2
*D13
340
0
  0
BLOCK_RECORD
  5
165C4
330
7466
100
AcDbSymbolTableRecord
100
AcDbBlockTableRecord
  2
*D14
340
0
  0
BLOCK_RECORD
  5
165EA
330
7466
100
AcDbSymbolTableRecord
100
AcDbBlockTableRecord
  2
*D15
340
0
  0
BLOCK_RECORD
  5
166CF
330
7466
100
AcDbSymbolTableRecord
100
AcDbBlockTableRecord
  2
*D16
340
0
  0
BLOCK_RECORD
  5
16908
330
7466
100
AcDbSymbolTableRecord
100
AcDbBlockTableRecord
  2
*D17
340
0
  0
BLOCK_RECORD
  5
17CB2
330
7466
100
AcDbSymbolTableRecord
100
AcDbBlockTableRecord
  2
*D18
340
0
  0
BLOCK_RECORD
  5
17CC1
330
7466
100
AcDbSymbolTableRecord
100
AcDbBlockTableRecord
  2
*D19
340
0
  0
BLOCK_RECORD
  5
17CD0
330
7466
100
AcDbSymbolTableRecord
100
AcDbBlockTableRecord
  2
*D20
340
0
  0
BLOCK_RECORD
  5
17CDB
330
7466
100
AcDbSymbolTableRecord
100
AcDbBlockTableRecord
  2
*D21
340
0
  0
BLOCK_RECORD
  5
17CE7
330
7466
100
AcDbSymbolTableRecord
100
AcDbBlockTableRecord
  2
*D22
340
0
  0
BLOCK_RECORD
  5
17CF3
330
7466
100
AcDbSymbolTableRecord
100
AcDbBlockTableRecord
  2
*D23
340
0
  0
BLOCK_RECORD
  5
17D01
330
7466
100
AcDbSymbolTableRecord
100
AcDbBlockTableRecord
  2
*D24
340
0
  0
BLOCK_RECORD
  5
1A21D
330
7466
100
AcDbSymbolTableRecord
100
AcDbBlockTableRecord
  2
*D25
340
0
  0
BLOCK_RECORD
  5
1A229
330
7466
100
AcDbSymbolTableRecord
100
AcDbBlockTableRecord
  2
A$C3EB005E7
340
0
102
{BLKREFS
331
1A22D
102
}
  0
BLOCK_RECORD
  5
1ACBF
330
7466
100
AcDbSymbolTableRecord
100
AcDbBlockTableRecord
  2
*D27
340
0
  0
BLOCK_RECORD
  5
1ACCB
330
7466
100
AcDbSymbolTableRecord
100
AcDbBlockTableRecord
  2
*D28
340
0
  0
BLOCK_RECORD
  5
1ACD9
330
7466
100
AcDbSymbolTableRecord
100
AcDbBlockTableRecord
  2
*D29
340
0
  0
BLOCK_RECORD
  5
1ACE7
330
7466
100
AcDbSymbolTableRecord
100
AcDbBlockTableRecord
  2
*D30
340
0
  0
BLOCK_RECORD
  5
1ACF3
330
7466
100
AcDbSymbolTableRecord
100
AcDbBlockTableRecord
  2
*D31
340
0
  0
BLOCK_RECORD
  5
1ACFF
330
7466
100
AcDbSymbolTableRecord
100
AcDbBlockTableRecord
  2
*D32
340
0
  0
BLOCK_RECORD
  5
1AD0C
330
7466
100
AcDbSymbolTableRecord
100
AcDbBlockTableRecord
  2
*D33
340
0
  0
BLOCK_RECORD
  5
1AD19
330
7466
100
AcDbSymbolTableRecord
100
AcDbBlockTableRecord
  2
*D34
340
0
  0
BLOCK_RECORD
  5
1AD25
330
7466
100
AcDbSymbolTableRecord
100
AcDbBlockTableRecord
  2
*D35
340
0
  0
BLOCK_RECORD
  5
1AD33
330
7466
100
AcDbSymbolTableRecord
100
AcDbBlockTableRecord
  2
*D36
340
0
  0
BLOCK_RECORD
  5
1AD3F
330
7466
100
AcDbSymbolTableRecord
100
AcDbBlockTableRecord
  2
*D37
340
0
  0
BLOCK_RECORD
  5
1AD4B
330
7466
100
AcDbSymbolTableRecord
100
AcDbBlockTableRecord
  2
*D38
340
0
  0
BLOCK_RECORD
  5
1AD71
330
7466
100
AcDbSymbolTableRecord
100
AcDbBlockTableRecord
  2
*D39
340
0
  0
BLOCK_RECORD
  5
1AD98
330
7466
100
AcDbSymbolTableRecord
100
AcDbBlockTableRecord
  2
*D40
340
0
  0
BLOCK_RECORD
  5
1B9EB
330
7466
100
AcDbSymbolTableRecord
100
AcDbBlockTableRecord
  2
*D41
340
0
  0
BLOCK_RECORD
  5
1BA46
330
7466
100
AcDbSymbolTableRecord
100
AcDbBlockTableRecord
  2
*D42
340
0
  0
BLOCK_RECORD
  5
1BD6D
330
7466
100
AcDbSymbolTableRecord
100
AcDbBlockTableRecord
  2
*D43
340
0
  0
BLOCK_RECORD
  5
1BD79
330
7466
100
AcDbSymbolTableRecord
100
AcDbBlockTableRecord
  2
*D44
340
0
  0
BLOCK_RECORD
  5
1BD87
330
7466
100
AcDbSymbolTableRecord
100
AcDbBlockTableRecord
  2
*D45
340
0
  0
BLOCK_RECORD
  5
1C182
330
7466
100
AcDbSymbolTableRecord
100
AcDbBlockTableRecord
  2
*D46
340
0
  0
ENDTAB
  0
ENDSEC
  0
SECTION
  2
BLOCKS
  0
BLOCK
  5
7489
330
747D
100
AcDbEntity
  8
0
100
AcDbBlockBegin
  2
*MODEL_SPACE
 70
     0
 10
0.0
 20
0.0
 30
0.0
  3
*MODEL_SPACE
  1

  0
ENDBLK
  5
748A
330
747D
100
AcDbEntity
  8
0
100
AcDbBlockEnd
  0
BLOCK
  5
7487
330
747A
100
AcDbEntity
 67
     1
  8
0
100
AcDbBlockBegin
  2
*PAPER_SPACE
 70
     0
 10
0.0
 20
0.0
 30
0.0
  3
*PAPER_SPACE
  1

  0
ENDBLK
  5
7488
330
747A
100
AcDbEntity
 67
     1
  8
0
100
AcDbBlockEnd
  0
BLOCK
  5
F771
330
F770
100
AcDbEntity
  8
0
 48
50.0
100
AcDbBlockBegin
  2
_DOTSMALL
 70
     0
 10
0.0
 20
0.0
 30
0.0
  3
_DOTSMALL
  1

  0
LWPOLYLINE
  5
F772
330
F770
100
AcDbEntity
  8
0
  6
ByBlock
 62
     0
 48
50.0
100
AcDbPolyline
 90
        2
 70
     1
 43
0.5
 10
-0.0625
 20
0.0
 42
1.0
 10
0.0625
 20
0.0
 42
1.0
  0
ENDBLK
  5
F776
330
F770
100
AcDbEntity
  8
0
 48
50.0
100
AcDbBlockEnd
  0
BLOCK
  5
192F2
330
16338
100
AcDbEntity
  8
0
 48
50.0
100
AcDbBlockBegin
  2
*D1
 70
     1
 10
0.0
 20
0.0
 30
0.0
  3
*D1
  1

  0
LINE
  5
1B3A8
330
16338
100
AcDbEntity
  8
寸法
 62
     0
 48
50.0
370
    -2
100
AcDbLine
 10
9870.137356965273
 20
10025.65299716573
 30
0.0
 11
10557.56370269968
 21
10025.65299716573
 31
0.0
  0
LINE
  5
1B3A9
330
16338
100
AcDbEntity
  8
寸法
 62
     0
 48
50.0
370
    -2
100
AcDbLine
 10
9870.137356965248
 20
7505.652997165714
 30
0.0
 11
10557.56370269968
 21
7505.652997165714
 31
0.0
  0
LINE
  5
1B3AA
330
16338
100
AcDbEntity
  8
寸法
 62
     0
 48
50.0
370
    -2
100
AcDbLine
 10
10497.56370269968
 20
10025.65299716573
 30
0.0
 11
10497.56370269968
 21
7505.652997165714
 31
0.0
  0
INSERT
  5
1B3AB
330
16338
100
AcDbEntity
  8
寸法
 62
     0
 48
50.0
370
    -2
100
AcDbBlockReference
  2
_DOTSMALL
 10
10497.56370269968
 20
10025.65299716573
 30
0.0
 41
100.0
 42
100.0
 43
100.0
 50
90.0
  0
INSERT
  5
1B3AC
330
16338
100
AcDbEntity
  8
寸法
 62
     0
 48
50.0
370
    -2
100
AcDbBlockReference
  2
_DOTSMALL
 10
10497.56370269968
 20
7505.652997165714
 30
0.0
 41
100.0
 42
100.0
 43
100.0
 50
270.0
  0
MTEXT
  5
1B3AD
330
16338
100
AcDbEntity
  8
寸法
 62
     7
 48
50.0
100
AcDbMText
 10
10397.55189167605
 20
8765.652997165723
 30
0.0
 40
120.0
 41
0.0
 71
     5
 72
     1
  1
\A1;6X420=2520
  7
STYLE1
 11
0.0000000000000001
 21
1.0
 31
0.0
 73
     1
 44
1.0
1001
ACAD
1000
MTEXTBEGIN
1070
    73
1070
     1
1070
    44
1040
1.0
1070
    74
1070
     0
1000
MTEXTEND
  0
POINT
  5
1B3AE
330
16338
100
AcDbEntity
  8
DEFPOINTS
 62
     0
 48
50.0
100
AcDbPoint
 10
9850.137356965275
 20
10025.65299716573
 30
0.0
  0
POINT
  5
1B3AF
330
16338
100
AcDbEntity
  8
DEFPOINTS
 62
     0
 48
50.0
100
AcDbPoint
 10
9850.137356965248
 20
7505.652997165714
 30
0.0
  0
POINT
  5
1B3B0
330
16338
100
AcDbEntity
  8
DEFPOINTS
 62
     0
 48
50.0
100
AcDbPoint
 10
10497.56370269968
 20
7505.652997165714
 30
0.0
  0
ENDBLK
  5
192FC
330
16338
100
AcDbEntity
  8
0
 48
50.0
100
AcDbBlockEnd
  0
BLOCK
  5
16414
330
16344
100
AcDbEntity
  8
0
 48
50.0
100
AcDbBlockBegin
  2
*D2
 70
     1
 10
0.0
 20
0.0
 30
0.0
  3
*D2
  1

  0
LINE
  5
1B39D
330
16344
100
AcDbEntity
  8
寸法
 62
     0
 48
50.0
370
    -2
100
AcDbLine
 10
9870.137356965248
 20
7505.652997165714
 30
0.0
 11
10557.56370269966
 21
7505.652997165714
 31
0.0
  0
LINE
  5
1B39E
330
16344
100
AcDbEntity
  8
寸法
 62
     0
 48
50.0
370
    -2
100
AcDbLine
 10
9870.137356965248
 20
7450.652997165718
 30
0.0
 11
10557.56370269966
 21
7450.652997165717
 31
0.0
  0
LINE
  5
1B39F
330
16344
100
AcDbEntity
  8
寸法
 62
     0
 48
50.0
370
    -2
100
AcDbLine
 10
10497.56370269966
 20
7505.652997165714
 30
0.0
 11
10497.56370269966
 21
7605.652997165714
 31
0.0
  0
LINE
  5
1B3A0
330
16344
100
AcDbEntity
  8
寸法
 62
     0
 48
50.0
370
    -2
100
AcDbLine
 10
10497.56370269966
 20
7450.652997165717
 30
0.0
 11
10497.56370269966
 21
6964.306248886614
 31
0.0
  0
LINE
  5
1B3A1
330
16344
100
AcDbEntity
  8
寸法
 62
     0
 48
50.0
370
    -2
100
AcDbLine
 10
10497.56370269966
 20
7505.652997165714
 30
0.0
 11
10497.56370269966
 21
7450.652997165717
 31
0.0
  0
INSERT
  5
1B3A2
330
16344
100
AcDbEntity
  8
寸法
 62
     0
 48
50.0
370
    -2
100
AcDbBlockReference
  2
_DOTSMALL
 10
10497.56370269966
 20
7505.652997165714
 30
0.0
 41
100.0
 42
100.0
 43
100.0
 50
270.0
  0
INSERT
  5
1B3A3
330
16344
100
AcDbEntity
  8
寸法
 62
     0
 48
50.0
370
    -2
100
AcDbBlockReference
  2
_DOTSMALL
 10
10497.56370269966
 20
7450.652997165717
 30
0.0
 41
100.0
 42
100.0
 43
100.0
 50
90.0
  0
MTEXT
  5
1B3A4
330
16344
100
AcDbEntity
  8
寸法
 62
     7
 48
50.0
100
AcDbMText
 10
10397.56370269965
 20
7072.791530260857
 30
0.0
 40
120.0
 41
0.0
 71
     5
 72
     1
  1
\A1;55
  7
STYLE1
 11
0.0000000000000001
 21
1.0
 31
0.0
 73
     1
 44
1.0
1001
ACAD
1000
MTEXTBEGIN
1070
    73
1070
     1
1070
    44
1040
1.0
1070
    74
1070
     0
1000
MTEXTEND
  0
POINT
  5
1B3A5
330
16344
100
AcDbEntity
  8
DEFPOINTS
 62
     0
 48
50.0
100
AcDbPoint
 10
9850.137356965248
 20
7505.652997165714
 30
0.0
  0
POINT
  5
1B3A6
330
16344
100
AcDbEntity
  8
DEFPOINTS
 62
     0
 48
50.0
100
AcDbPoint
 10
9850.137356965248
 20
7450.652997165718
 30
0.0
  0
POINT
  5
1B3A7
330
16344
100
AcDbEntity
  8
DEFPOINTS
 62
     0
 48
50.0
100
AcDbPoint
 10
10497.56370269966
 20
7450.652997165717
 30
0.0
  0
ENDBLK
  5
16420
330
16344
100
AcDbEntity
  8
0
 48
50.0
100
AcDbBlockEnd
  0
BLOCK
  5
16421
330
16352
100
AcDbEntity
  8
0
 48
50.0
100
AcDbBlockBegin
  2
*D3
 70
     1
 10
0.0
 20
0.0
 30
0.0
  3
*D3
  1

  0
LINE
  5
1B392
330
16352
100
AcDbEntity
  8
寸法
 62
     0
 48
50.0
370
    -2
100
AcDbLine
 10
9870.137356965273
 20
10080.65299716572
 30
0.0
 11
10557.56370269968
 21
10080.65299716572
 31
0.0
  0
LINE
  5
1B393
330
16352
100
AcDbEntity
  8
寸法
 62
     0
 48
50.0
370
    -2
100
AcDbLine
 10
9870.137356965273
 20
10025.65299716573
 30
0.0
 11
10557.56370269968
 21
10025.65299716573
 31
0.0
  0
LINE
  5
1B394
330
16352
100
AcDbEntity
  8
寸法
 62
     0
 48
50.0
370
    -2
100
AcDbLine
 10
10497.56370269968
 20
10025.65299716573
 30
0.0
 11
10497.56370269968
 21
9925.65299716573
 31
0.0
  0
LINE
  5
1B395
330
16352
100
AcDbEntity
  8
寸法
 62
     0
 48
50.0
370
    -2
100
AcDbLine
 10
10497.56370269968
 20
10080.65299716572
 30
0.0
 11
10497.56370269968
 21
10497.6235599142
 31
0.0
  0
LINE
  5
1B396
330
16352
100
AcDbEntity
  8
寸法
 62
     0
 48
50.0
370
    -2
100
AcDbLine
 10
10497.56370269968
 20
10025.65299716573
 30
0.0
 11
10497.56370269968
 21
10080.65299716572
 31
0.0
  0
INSERT
  5
1B397
330
16352
100
AcDbEntity
  8
寸法
 62
     0
 48
50.0
370
    -2
100
AcDbBlockReference
  2
_DOTSMALL
 10
10497.56370269968
 20
10025.65299716573
 30
0.0
 41
100.0
 42
100.0
 43
100.0
 50
90.0
  0
INSERT
  5
1B398
330
16352
100
AcDbEntity
  8
寸法
 62
     0
 48
50.0
370
    -2
100
AcDbBlockReference
  2
_DOTSMALL
 10
10497.56370269968
 20
10080.65299716572
 30
0.0
 41
100.0
 42
100.0
 43
100.0
 50
270.0
  0
MTEXT
  5
1B399
330
16352
100
AcDbEntity
  8
寸法
 62
     7
 48
50.0
100
AcDbMText
 10
10397.56370269968
 20
10389.13827853996
 30
0.0
 40
120.0
 41
0.0
 71
     5
 72
     1
  1
\A1;55
  7
STYLE1
 11
0.0000000000000001
 21
1.0
 31
0.0
 73
     1
 44
1.0
1001
ACAD
1000
MTEXTBEGIN
1070
    73
1070
     1
1070
    44
1040
1.0
1070
    74
1070
     0
1000
MTEXTEND
  0
POINT
  5
1B39A
330
16352
100
AcDbEntity
  8
DEFPOINTS
 62
     0
 48
50.0
100
AcDbPoint
 10
9850.137356965275
 20
10080.65299716572
 30
0.0
  0
POINT
  5
1B39B
330
16352
100
AcDbEntity
  8
DEFPOINTS
 62
     0
 48
50.0
100
AcDbPoint
 10
9850.137356965275
 20
10025.65299716573
 30
0.0
  0
POINT
  5
1B39C
330
16352
100
AcDbEntity
  8
DEFPOINTS
 62
     0
 48
50.0
100
AcDbPoint
 10
10497.56370269968
 20
10025.65299716573
 30
0.0
  0
ENDBLK
  5
1642D
330
16352
100
AcDbEntity
  8
0
 48
50.0
100
AcDbBlockEnd
  0
BLOCK
  5
192DC
330
16360
100
AcDbEntity
  8
0
 48
50.0
100
AcDbBlockBegin
  2
*D4
 70
     1
 10
0.0
 20
0.0
 30
0.0
  3
*D4
  1

  0
LINE
  5
1B389
330
16360
100
AcDbEntity
  8
寸法
 62
     0
 48
50.0
370
    -2
100
AcDbLine
 10
9870.137356965273
 20
10080.65299716572
 30
0.0
 11
10922.67064443932
 21
10080.65299716572
 31
0.0
  0
LINE
  5
1B38A
330
16360
100
AcDbEntity
  8
寸法
 62
     0
 48
50.0
370
    -2
100
AcDbLine
 10
9870.137356965248
 20
7450.652997165718
 30
0.0
 11
10922.67064443932
 21
7450.652997165717
 31
0.0
  0
LINE
  5
1B38B
330
16360
100
AcDbEntity
  8
寸法
 62
     0
 48
50.0
370
    -2
100
AcDbLine
 10
10862.67064443932
 20
10080.65299716572
 30
0.0
 11
10862.67064443932
 21
7450.652997165717
 31
0.0
  0
INSERT
  5
1B38C
330
16360
100
AcDbEntity
  8
寸法
 62
     0
 48
50.0
370
    -2
100
AcDbBlockReference
  2
_DOTSMALL
 10
10862.67064443932
 20
10080.65299716572
 30
0.0
 41
100.0
 42
100.0
 43
100.0
 50
90.0
  0
INSERT
  5
1B38D
330
16360
100
AcDbEntity
  8
寸法
 62
     0
 48
50.0
370
    -2
100
AcDbBlockReference
  2
_DOTSMALL
 10
10862.67064443932
 20
7450.652997165717
 30
0.0
 41
100.0
 42
100.0
 43
100.0
 50
270.0
  0
MTEXT
  5
1B38E
330
16360
100
AcDbEntity
  8
寸法
 62
     7
 48
50.0
100
AcDbMText
 10
10762.65883341569
 20
8765.652997165723
 30
0.0
 40
120.0
 41
0.0
 71
     5
 72
     1
  1
\A1;2630
  7
STYLE1
 11
0.0000000000000001
 21
1.0
 31
0.0
 73
     1
 44
1.0
1001
ACAD
1000
MTEXTBEGIN
1070
    73
1070
     1
1070
    44
1040
1.0
1070
    74
1070
     0
1000
MTEXTEND
  0
POINT
  5
1B38F
330
16360
100
AcDbEntity
  8
DEFPOINTS
 62
     0
 48
50.0
100
AcDbPoint
 10
9850.137356965275
 20
10080.65299716572
 30
0.0
  0
POINT
  5
1B390
330
16360
100
AcDbEntity
  8
DEFPOINTS
 62
     0
 48
50.0
100
AcDbPoint
 10
9850.137356965248
 20
7450.652997165718
 30
0.0
  0
POINT
  5
1B391
330
16360
100
AcDbEntity
  8
DEFPOINTS
 62
     0
 48
50.0
100
AcDbPoint
 10
10862.67064443932
 20
7450.652997165717
 30
0.0
  0
ENDBLK
  5
192E6
330
16360
100
AcDbEntity
  8
0
 48
50.0
100
AcDbBlockEnd
  0
BLOCK
  5
185CF
330
16384
100
AcDbEntity
  8
0
 48
50.0
100
AcDbBlockBegin
  2
*D5
 70
     1
 10
0.0
 20
0.0
 30
0.0
  3
*D5
  1

  0
LINE
  5
1B381
330
16384
100
AcDbEntity
  8
寸法
 62
     0
 48
50.0
370
    -2
100
AcDbLine
 10
7323.137356965266
 20
7456.652997165628
 30
0.0
 11
7323.137356965266
 21
6856.222226399463
 31
0.0
  0
LINE
  5
1B382
330
16384
100
AcDbEntity
  8
寸法
 62
     0
 48
50.0
370
    -2
100
AcDbLine
 10
9747.137356965248
 20
6916.222226399462
 30
0.0
 11
7323.137356965266
 21
6916.222226399462
 31
0.0
  0
INSERT
  5
1B383
330
16384
100
AcDbEntity
  8
寸法
 62
     0
 48
50.0
370
    -2
100
AcDbBlockReference
  2
_DOTSMALL
 10
9747.137356965248
 20
6916.222226399462
 30
0.0
 41
100.0
 42
100.0
 43
100.0
  0
INSERT
  5
1B384
330
16384
100
AcDbEntity
  8
寸法
 62
     0
 48
50.0
370
    -2
100
AcDbBlockReference
  2
_DOTSMALL
 10
7323.137356965266
 20
6916.222226399462
 30
0.0
 41
100.0
 42
100.0
 43
100.0
 50
180.0
  0
MTEXT
  5
1B385
330
16384
100
AcDbEntity
  8
寸法
 62
     7
 48
50.0
100
AcDbMText
 10
8535.137356965256
 20
7016.234037423085
 30
0.0
 40
120.0
 41
0.0
 71
     5
 72
     1
  1
\A1;有効開口部間口 2424
  7
STYLE1
 73
     1
 44
1.0
1001
ACAD
1000
MTEXTBEGIN
1070
    73
1070
     1
1070
    44
1040
1.0
1070
    74
1070
     0
1000
MTEXTEND
  0
POINT
  5
1B386
330
16384
100
AcDbEntity
  8
DEFPOINTS
 62
     0
 48
50.0
100
AcDbPoint
 10
9747.137356965248
 20
7476.652997165627
 30
0.0
  0
POINT
  5
1B387
330
16384
100
AcDbEntity
  8
DEFPOINTS
 62
     0
 48
50.0
100
AcDbPoint
 10
7323.137356965266
 20
7476.652997165627
 30
0.0
  0
POINT
  5
1B388
330
16384
100
AcDbEntity
  8
DEFPOINTS
 62
     0
 48
50.0
100
AcDbPoint
 10
7323.137356965266
 20
6916.222226399462
 30
0.0
  0
ENDBLK
  5
185D8
330
16384
100
AcDbEntity
  8
0
 48
50.0
100
AcDbBlockEnd
  0
BLOCK
  5
16464
330
1639B
100
AcDbEntity
  8
0
 48
50.0
100
AcDbBlockBegin
  2
*D6
 70
     1
 10
0.0
 20
0.0
 30
0.0
  3
*D6
  1

  0
LINE
  5
1B376
330
1639B
100
AcDbEntity
  8
寸法
 62
     0
 48
50.0
370
    -2
100
AcDbLine
 10
2015.137356965262
 20
7430.652997165627
 30
0.0
 11
2015.137356965262
 21
6856.222226399463
 31
0.0
  0
LINE
  5
1B377
330
1639B
100
AcDbEntity
  8
寸法
 62
     0
 48
50.0
370
    -2
100
AcDbLine
 10
1960.137356965266
 20
7430.652997165623
 30
0.0
 11
1960.137356965266
 21
6856.222226399463
 31
0.0
  0
LINE
  5
1B378
330
1639B
100
AcDbEntity
  8
寸法
 62
     0
 48
50.0
370
    -2
100
AcDbLine
 10
2015.137356965262
 20
6916.222226399462
 30
0.0
 11
2115.137356965262
 21
6916.222226399462
 31
0.0
  0
LINE
  5
1B379
330
1639B
100
AcDbEntity
  8
寸法
 62
     0
 48
50.0
370
    -2
100
AcDbLine
 10
1960.137356965266
 20
6916.222226399462
 30
0.0
 11
1543.166794216789
 21
6916.222226399462
 31
0.0
  0
LINE
  5
1B37A
330
1639B
100
AcDbEntity
  8
寸法
 62
     0
 48
50.0
370
    -2
100
AcDbLine
 10
2015.137356965262
 20
6916.222226399462
 30
0.0
 11
1960.137356965266
 21
6916.222226399462
 31
0.0
  0
INSERT
  5
1B37B
330
1639B
100
AcDbEntity
  8
寸法
 62
     0
 48
50.0
370
    -2
100
AcDbBlockReference
  2
_DOTSMALL
 10
2015.137356965262
 20
6916.222226399462
 30
0.0
 41
100.0
 42
100.0
 43
100.0
 50
180.0
  0
INSERT
  5
1B37C
330
1639B
100
AcDbEntity
  8
寸法
 62
     0
 48
50.0
370
    -2
100
AcDbBlockReference
  2
_DOTSMALL
 10
1960.137356965266
 20
6916.222226399462
 30
0.0
 41
100.0
 42
100.0
 43
100.0
  0
MTEXT
  5
1B37D
330
1639B
100
AcDbEntity
  8
寸法
 62
     7
 48
50.0
100
AcDbMText
 10
1651.652075591027
 20
7016.222226399462
 30
0.0
 40
120.0
 41
0.0
 71
     5
 72
     1
  1
\A1;55
  7
STYLE1
 73
     1
 44
1.0
1001
ACAD
1000
MTEXTBEGIN
1070
    73
1070
     1
1070
    44
1040
1.0
1070
    74
1070
     0
1000
MTEXTEND
  0
POINT
  5
1B37E
330
1639B
100
AcDbEntity
  8
DEFPOINTS
 62
     0
 48
50.0
100
AcDbPoint
 10
2015.137356965262
 20
7450.652997165628
 30
0.0
  0
POINT
  5
1B37F
330
1639B
100
AcDbEntity
  8
DEFPOINTS
 62
     0
 48
50.0
100
AcDbPoint
 10
1960.137356965266
 20
7450.652997165623
 30
0.0
  0
POINT
  5
1B380
330
1639B
100
AcDbEntity
  8
DEFPOINTS
 62
     0
 48
50.0
100
AcDbPoint
 10
1960.137356965266
 20
6916.222226399462
 30
0.0
  0
ENDBLK
  5
16470
330
1639B
100
AcDbEntity
  8
0
 48
50.0
100
AcDbBlockEnd
  0
BLOCK
  5
16471
330
163A9
100
AcDbEntity
  8
0
 48
50.0
100
AcDbBlockBegin
  2
*D7
 70
     1
 10
0.0
 20
0.0
 30
0.0
  3
*D7
  1

  0
LINE
  5
1B36B
330
163A9
100
AcDbEntity
  8
寸法
 62
     0
 48
50.0
370
    -2
100
AcDbLine
 10
7323.137356965266
 20
7456.652997165628
 30
0.0
 11
7323.137356965266
 21
6856.222226399463
 31
0.0
  0
LINE
  5
1B36C
330
163A9
100
AcDbEntity
  8
寸法
 62
     0
 48
50.0
370
    -2
100
AcDbLine
 10
7275.137356965263
 20
7430.652997165627
 30
0.0
 11
7275.137356965263
 21
6856.222226399463
 31
0.0
  0
LINE
  5
1B36D
330
163A9
100
AcDbEntity
  8
寸法
 62
     0
 48
50.0
370
    -2
100
AcDbLine
 10
7323.137356965266
 20
6916.222226399462
 30
0.0
 11
7423.137356965266
 21
6916.222226399462
 31
0.0
  0
LINE
  5
1B36E
330
163A9
100
AcDbEntity
  8
寸法
 62
     0
 48
50.0
370
    -2
100
AcDbLine
 10
7275.137356965263
 20
6916.222226399462
 30
0.0
 11
7175.137356965263
 21
6916.222226399462
 31
0.0
  0
MTEXT
  5
1B36F
330
163A9
100
AcDbEntity
  8
寸法
 62
     7
 48
50.0
100
AcDbMText
 10
7436.039327965324
 20
7016.222226399462
 30
0.0
 40
120.0
 41
0.0
 71
     5
 72
     1
  1
\A1;48
  7
STYLE1
 73
     1
 44
1.0
1001
ACAD
1000
MTEXTBEGIN
1070
    73
1070
     1
1070
    44
1040
1.0
1070
    74
1070
     0
1000
MTEXTEND
  0
LINE
  5
1B370
330
163A9
100
AcDbEntity
  8
寸法
 62
     0
 48
50.0
370
    -2
100
AcDbLine
 10
7323.137356965266
 20
6916.222226399462
 30
0.0
 11
7275.137356965263
 21
6916.222226399462
 31
0.0
  0
INSERT
  5
1B371
330
163A9
100
AcDbEntity
  8
寸法
 62
     0
 48
50.0
370
    -2
100
AcDbBlockReference
  2
_DOTSMALL
 10
7323.137356965266
 20
6916.222226399462
 30
0.0
 41
100.0
 42
100.0
 43
100.0
 50
180.0
  0
INSERT
  5
1B372
330
163A9
100
AcDbEntity
  8
寸法
 62
     0
 48
50.0
370
    -2
100
AcDbBlockReference
  2
_DOTSMALL
 10
7275.137356965263
 20
6916.222226399462
 30
0.0
 41
100.0
 42
100.0
 43
100.0
  0
POINT
  5
1B373
330
163A9
100
AcDbEntity
  8
DEFPOINTS
 62
     0
 48
50.0
100
AcDbPoint
 10
7323.137356965266
 20
7476.652997165627
 30
0.0
  0
POINT
  5
1B374
330
163A9
100
AcDbEntity
  8
DEFPOINTS
 62
     0
 48
50.0
100
AcDbPoint
 10
7275.137356965263
 20
7450.652997165628
 30
0.0
  0
POINT
  5
1B375
330
163A9
100
AcDbEntity
  8
DEFPOINTS
 62
     0
 48
50.0
100
AcDbPoint
 10
7275.137356965263
 20
6916.222226399462
 30
0.0
  0
ENDBLK
  5
1647E
330
163A9
100
AcDbEntity
  8
0
 48
50.0
100
AcDbBlockEnd
  0
BLOCK
  5
1647F
330
163B8
100
AcDbEntity
  8
0
 48
50.0
100
AcDbBlockBegin
  2
*D8
 70
     1
 10
0.0
 20
0.0
 30
0.0
  3
*D8
  1

  0
LINE
  5
1B360
330
163B8
100
AcDbEntity
  8
寸法
 62
     0
 48
50.0
370
    -2
100
AcDbLine
 10
9795.13735696525
 20
7430.652997165714
 30
0.0
 11
9795.13735696525
 21
6856.222226399463
 31
0.0
  0
LINE
  5
1B361
330
163B8
100
AcDbEntity
  8
寸法
 62
     0
 48
50.0
370
    -2
100
AcDbLine
 10
9747.137356965248
 20
7456.652997165628
 30
0.0
 11
9747.137356965248
 21
6856.222226399463
 31
0.0
  0
LINE
  5
1B362
330
163B8
100
AcDbEntity
  8
寸法
 62
     0
 48
50.0
370
    -2
100
AcDbLine
 10
9795.13735696525
 20
6916.222226399462
 30
0.0
 11
9895.13735696525
 21
6916.222226399462
 31
0.0
  0
LINE
  5
1B363
330
163B8
100
AcDbEntity
  8
寸法
 62
     0
 48
50.0
370
    -2
100
AcDbLine
 10
9747.137356965248
 20
6916.222226399462
 30
0.0
 11
9647.137356965249
 21
6916.222226399462
 31
0.0
  0
MTEXT
  5
1B364
330
163B8
100
AcDbEntity
  8
寸法
 62
     7
 48
50.0
100
AcDbMText
 10
9636.174459316499
 20
7016.222226399462
 30
0.0
 40
120.0
 41
0.0
 71
     5
 72
     1
  1
\A1;48
  7
STYLE1
 73
     1
 44
1.0
1001
ACAD
1000
MTEXTBEGIN
1070
    73
1070
     1
1070
    44
1040
1.0
1070
    74
1070
     0
1000
MTEXTEND
  0
LINE
  5
1B365
330
163B8
100
AcDbEntity
  8
寸法
 62
     0
 48
50.0
370
    -2
100
AcDbLine
 10
9795.13735696525
 20
6916.222226399462
 30
0.0
 11
9747.137356965248
 21
6916.222226399462
 31
0.0
  0
INSERT
  5
1B366
330
163B8
100
AcDbEntity
  8
寸法
 62
     0
 48
50.0
370
    -2
100
AcDbBlockReference
  2
_DOTSMALL
 10
9795.13735696525
 20
6916.222226399462
 30
0.0
 41
100.0
 42
100.0
 43
100.0
 50
180.0
  0
INSERT
  5
1B367
330
163B8
100
AcDbEntity
  8
寸法
 62
     0
 48
50.0
370
    -2
100
AcDbBlockReference
  2
_DOTSMALL
 10
9747.137356965248
 20
6916.222226399462
 30
0.0
 41
100.0
 42
100.0
 43
100.0
  0
POINT
  5
1B368
330
163B8
100
AcDbEntity
  8
DEFPOINTS
 62
     0
 48
50.0
100
AcDbPoint
 10
9795.13735696525
 20
7450.652997165715
 30
0.0
  0
POINT
  5
1B369
330
163B8
100
AcDbEntity
  8
DEFPOINTS
 62
     0
 48
50.0
100
AcDbPoint
 10
9747.137356965248
 20
7476.652997165627
 30
0.0
  0
POINT
  5
1B36A
330
163B8
100
AcDbEntity
  8
DEFPOINTS
 62
     0
 48
50.0
100
AcDbPoint
 10
9747.137356965248
 20
6916.222226399462
 30
0.0
  0
ENDBLK
  5
1648C
330
163B8
100
AcDbEntity
  8
0
 48
50.0
100
AcDbBlockEnd
  0
BLOCK
  5
1648D
330
163C7
100
AcDbEntity
  8
0
 48
50.0
100
AcDbBlockBegin
  2
*D9
 70
     1
 10
0.0
 20
0.0
 30
0.0
  3
*D9
  1

  0
LINE
  5
1B355
330
163C7
100
AcDbEntity
  8
寸法
 62
     0
 48
50.0
370
    -2
100
AcDbLine
 10
9850.137356965248
 20
7430.652997165719
 30
0.0
 11
9850.137356965248
 21
6856.222226399463
 31
0.0
  0
LINE
  5
1B356
330
163C7
100
AcDbEntity
  8
寸法
 62
     0
 48
50.0
370
    -2
100
AcDbLine
 10
9795.13735696525
 20
7430.652997165714
 30
0.0
 11
9795.13735696525
 21
6856.222226399463
 31
0.0
  0
LINE
  5
1B357
330
163C7
100
AcDbEntity
  8
寸法
 62
     0
 48
50.0
370
    -2
100
AcDbLine
 10
9795.13735696525
 20
6916.222226399462
 30
0.0
 11
9695.137356965251
 21
6916.222226399462
 31
0.0
  0
LINE
  5
1B358
330
163C7
100
AcDbEntity
  8
寸法
 62
     0
 48
50.0
370
    -2
100
AcDbLine
 10
9850.137356965248
 20
6916.222226399462
 30
0.0
 11
10267.10791971372
 21
6916.222226399462
 31
0.0
  0
LINE
  5
1B359
330
163C7
100
AcDbEntity
  8
寸法
 62
     0
 48
50.0
370
    -2
100
AcDbLine
 10
9795.13735696525
 20
6916.222226399462
 30
0.0
 11
9850.137356965248
 21
6916.222226399462
 31
0.0
  0
INSERT
  5
1B35A
330
163C7
100
AcDbEntity
  8
寸法
 62
     0
 48
50.0
370
    -2
100
AcDbBlockReference
  2
_DOTSMALL
 10
9795.13735696525
 20
6916.222226399462
 30
0.0
 41
100.0
 42
100.0
 43
100.0
  0
INSERT
  5
1B35B
330
163C7
100
AcDbEntity
  8
寸法
 62
     0
 48
50.0
370
    -2
100
AcDbBlockReference
  2
_DOTSMALL
 10
9850.137356965248
 20
6916.222226399462
 30
0.0
 41
100.0
 42
100.0
 43
100.0
 50
180.0
  0
MTEXT
  5
1B35C
330
163C7
100
AcDbEntity
  8
寸法
 62
     7
 48
50.0
100
AcDbMText
 10
10158.62263833948
 20
7016.222226399462
 30
0.0
 40
120.0
 41
0.0
 71
     5
 72
     1
  1
\A1;55
  7
STYLE1
 73
     1
 44
1.0
1001
ACAD
1000
MTEXTBEGIN
1070
    73
1070
     1
1070
    44
1040
1.0
1070
    74
1070
     0
1000
MTEXTEND
  0
POINT
  5
1B35D
330
163C7
100
AcDbEntity
  8
DEFPOINTS
 62
     0
 48
50.0
100
AcDbPoint
 10
9850.137356965248
 20
7450.652997165718
 30
0.0
  0
POINT
  5
1B35E
330
163C7
100
AcDbEntity
  8
DEFPOINTS
 62
     0
 48
50.0
100
AcDbPoint
 10
9795.13735696525
 20
7450.652997165715
 30
0.0
  0
POINT
  5
1B35F
330
163C7
100
AcDbEntity
  8
DEFPOINTS
 62
     0
 48
50.0
100
AcDbPoint
 10
9795.13735696525
 20
6916.222226399462
 30
0.0
  0
ENDBLK
  5
16499
330
163C7
100
AcDbEntity
  8
0
 48
50.0
100
AcDbBlockEnd
  0
BLOCK
  5
18C46
330
163E1
100
AcDbEntity
  8
0
 48
50.0
100
AcDbBlockBegin
  2
*D10
 70
     1
 10
0.0
 20
0.0
 30
0.0
  3
*D10
  1

  0
LINE
  5
1BB94
330
163E1
100
AcDbEntity
  8
寸法
 62
     0
 48
50.0
370
    -2
100
AcDbLine
 10
7275.137356965271
 20
10100.65299716563
 30
0.0
 11
7275.137356965271
 21
10556.46121679073
 31
0.0
  0
LINE
  5
1BB95
330
163E1
100
AcDbEntity
  8
寸法
 62
     0
 48
50.0
370
    -2
100
AcDbLine
 10
9795.137356965273
 20
10100.65299716572
 30
0.0
 11
9795.137356965273
 21
10556.46121679073
 31
0.0
  0
LINE
  5
1BB96
330
163E1
100
AcDbEntity
  8
寸法
 62
     0
 48
50.0
370
    -2
100
AcDbLine
 10
7275.137356965271
 20
10496.46121679073
 30
0.0
 11
9795.137356965273
 21
10496.46121679073
 31
0.0
  0
INSERT
  5
1BB97
330
163E1
100
AcDbEntity
  8
寸法
 62
     0
 48
50.0
370
    -2
100
AcDbBlockReference
  2
_DOTSMALL
 10
7275.137356965271
 20
10496.46121679073
 30
0.0
 41
100.0
 42
100.0
 43
100.0
 50
180.0
  0
INSERT
  5
1BB98
330
163E1
100
AcDbEntity
  8
寸法
 62
     0
 48
50.0
370
    -2
100
AcDbBlockReference
  2
_DOTSMALL
 10
9795.137356965273
 20
10496.46121679073
 30
0.0
 41
100.0
 42
100.0
 43
100.0
  0
MTEXT
  5
1BB99
330
163E1
100
AcDbEntity
  8
寸法
 62
     7
 48
50.0
100
AcDbMText
 10
8535.137356965272
 20
10596.47302781435
 30
0.0
 40
120.0
 41
0.0
 71
     5
 72
     1
  1
\A1;6X420=2520
  7
STYLE1
 73
     1
 44
1.0
1001
ACAD
1000
MTEXTBEGIN
1070
    73
1070
     1
1070
    44
1040
1.0
1070
    74
1070
     0
1000
MTEXTEND
  0
POINT
  5
1BB9A
330
163E1
100
AcDbEntity
  8
DEFPOINTS
 62
     0
 48
50.0
100
AcDbPoint
 10
7275.137356965271
 20
10080.65299716563
 30
0.0
  0
POINT
  5
1BB9B
330
163E1
100
AcDbEntity
  8
DEFPOINTS
 62
     0
 48
50.0
100
AcDbPoint
 10
9795.137356965273
 20
10080.65299716572
 30
0.0
  0
POINT
  5
1BB9C
330
163E1
100
AcDbEntity
  8
DEFPOINTS
 62
     0
 48
50.0
100
AcDbPoint
 10
9795.137356965273
 20
10496.46121679073
 30
0.0
  0
ENDBLK
  5
18C50
330
163E1
100
AcDbEntity
  8
0
 48
50.0
100
AcDbBlockEnd
  0
BLOCK
  5
164B0
330
163ED
100
AcDbEntity
  8
0
 48
50.0
100
AcDbBlockBegin
  2
*D11
 70
     1
 10
0.0
 20
0.0
 30
0.0
  3
*D11
  1

  0
LINE
  5
1BB89
330
163ED
100
AcDbEntity
  8
寸法
 62
     0
 48
50.0
370
    -2
100
AcDbLine
 10
1960.137356965239
 20
10100.65299716563
 30
0.0
 11
1960.137356965239
 21
10556.46121679061
 31
0.0
  0
LINE
  5
1BB8A
330
163ED
100
AcDbEntity
  8
寸法
 62
     0
 48
50.0
370
    -2
100
AcDbLine
 10
2015.137356965272
 20
10100.65299716563
 30
0.0
 11
2015.137356965272
 21
10556.46121679061
 31
0.0
  0
LINE
  5
1BB8B
330
163ED
100
AcDbEntity
  8
寸法
 62
     0
 48
50.0
370
    -2
100
AcDbLine
 10
2015.137356965272
 20
10496.46121679061
 30
0.0
 11
2115.137356965272
 21
10496.46121679061
 31
0.0
  0
LINE
  5
1BB8C
330
163ED
100
AcDbEntity
  8
寸法
 62
     0
 48
50.0
370
    -2
100
AcDbLine
 10
1960.137356965239
 20
10496.46121679061
 30
0.0
 11
1543.16679421676
 21
10496.46121679061
 31
0.0
  0
LINE
  5
1BB8D
330
163ED
100
AcDbEntity
  8
寸法
 62
     0
 48
50.0
370
    -2
100
AcDbLine
 10
2015.137356965272
 20
10496.46121679061
 30
0.0
 11
1960.137356965239
 21
10496.46121679061
 31
0.0
  0
INSERT
  5
1BB8E
330
163ED
100
AcDbEntity
  8
寸法
 62
     0
 48
50.0
370
    -2
100
AcDbBlockReference
  2
_DOTSMALL
 10
2015.137356965272
 20
10496.46121679061
 30
0.0
 41
100.0
 42
100.0
 43
100.0
 50
180.0
  0
INSERT
  5
1BB8F
330
163ED
100
AcDbEntity
  8
寸法
 62
     0
 48
50.0
370
    -2
100
AcDbBlockReference
  2
_DOTSMALL
 10
1960.137356965239
 20
10496.46121679061
 30
0.0
 41
100.0
 42
100.0
 43
100.0
  0
MTEXT
  5
1BB90
330
163ED
100
AcDbEntity
  8
寸法
 62
     7
 48
50.0
100
AcDbMText
 10
1651.652075590998
 20
10596.46121679061
 30
0.0
 40
120.0
 41
0.0
 71
     5
 72
     1
  1
\A1;55
  7
STYLE1
 73
     1
 44
1.0
1001
ACAD
1000
MTEXTBEGIN
1070
    73
1070
     1
1070
    44
1040
1.0
1070
    74
1070
     0
1000
MTEXTEND
  0
POINT
  5
1BB91
330
163ED
100
AcDbEntity
  8
DEFPOINTS
 62
     0
 48
50.0
100
AcDbPoint
 10
1960.137356965239
 20
10080.65299716563
 30
0.0
  0
POINT
  5
1BB92
330
163ED
100
AcDbEntity
  8
DEFPOINTS
 62
     0
 48
50.0
100
AcDbPoint
 10
2015.137356965272
 20
10080.65299716563
 30
0.0
  0
POINT
  5
1BB93
330
163ED
100
AcDbEntity
  8
DEFPOINTS
 62
     0
 48
50.0
100
AcDbPoint
 10
2015.137356965272
 20
10496.46121679061
 30
0.0
  0
ENDBLK
  5
164BC
330
163ED
100
AcDbEntity
  8
0
 48
50.0
100
AcDbBlockEnd
  0
BLOCK
  5
164BD
330
163FB
100
AcDbEntity
  8
0
 48
50.0
100
AcDbBlockBegin
  2
*D12
 70
     1
 10
0.0
 20
0.0
 30
0.0
  3
*D12
  1

  0
LINE
  5
1BB7E
330
163FB
100
AcDbEntity
  8
寸法
 62
     0
 48
50.0
370
    -2
100
AcDbLine
 10
9795.137356965273
 20
10100.65299716572
 30
0.0
 11
9795.137356965273
 21
10556.46121679071
 31
0.0
  0
LINE
  5
1BB7F
330
163FB
100
AcDbEntity
  8
寸法
 62
     0
 48
50.0
370
    -2
100
AcDbLine
 10
9850.137356965275
 20
10100.65299716572
 30
0.0
 11
9850.137356965275
 21
10556.46121679071
 31
0.0
  0
LINE
  5
1BB80
330
163FB
100
AcDbEntity
  8
寸法
 62
     0
 48
50.0
370
    -2
100
AcDbLine
 10
9795.137356965273
 20
10496.46121679071
 30
0.0
 11
9695.137356965274
 21
10496.46121679071
 31
0.0
  0
LINE
  5
1BB81
330
163FB
100
AcDbEntity
  8
寸法
 62
     0
 48
50.0
370
    -2
100
AcDbLine
 10
9850.137356965275
 20
10496.46121679071
 30
0.0
 11
10267.10791971375
 21
10496.46121679071
 31
0.0
  0
LINE
  5
1BB82
330
163FB
100
AcDbEntity
  8
寸法
 62
     0
 48
50.0
370
    -2
100
AcDbLine
 10
9795.137356965273
 20
10496.46121679071
 30
0.0
 11
9850.137356965275
 21
10496.46121679071
 31
0.0
  0
INSERT
  5
1BB83
330
163FB
100
AcDbEntity
  8
寸法
 62
     0
 48
50.0
370
    -2
100
AcDbBlockReference
  2
_DOTSMALL
 10
9795.137356965273
 20
10496.46121679071
 30
0.0
 41
100.0
 42
100.0
 43
100.0
  0
INSERT
  5
1BB84
330
163FB
100
AcDbEntity
  8
寸法
 62
     0
 48
50.0
370
    -2
100
AcDbBlockReference
  2
_DOTSMALL
 10
9850.137356965275
 20
10496.46121679071
 30
0.0
 41
100.0
 42
100.0
 43
100.0
 50
180.0
  0
MTEXT
  5
1BB85
330
163FB
100
AcDbEntity
  8
寸法
 62
     7
 48
50.0
100
AcDbMText
 10
10158.62263833951
 20
10596.46121679071
 30
0.0
 40
120.0
 41
0.0
 71
     5
 72
     1
  1
\A1;55
  7
STYLE1
 73
     1
 44
1.0
1001
ACAD
1000
MTEXTBEGIN
1070
    73
1070
     1
1070
    44
1040
1.0
1070
    74
1070
     0
1000
MTEXTEND
  0
POINT
  5
1BB86
330
163FB
100
AcDbEntity
  8
DEFPOINTS
 62
     0
 48
50.0
100
AcDbPoint
 10
9795.137356965273
 20
10080.65299716572
 30
0.0
  0
POINT
  5
1BB87
330
163FB
100
AcDbEntity
  8
DEFPOINTS
 62
     0
 48
50.0
100
AcDbPoint
 10
9850.137356965275
 20
10080.65299716572
 30
0.0
  0
POINT
  5
1BB88
330
163FB
100
AcDbEntity
  8
DEFPOINTS
 62
     0
 48
50.0
100
AcDbPoint
 10
9850.137356965275
 20
10496.46121679071
 30
0.0
  0
ENDBLK
  5
164C9
330
163FB
100
AcDbEntity
  8
0
 48
50.0
100
AcDbBlockEnd
  0
BLOCK
  5
165B6
330
165B5
100
AcDbEntity
  8
0
 48
50.0
100
AcDbBlockBegin
  2
*D13
 70
     1
 10
0.0
 20
0.0
 30
0.0
  3
*D13
  1

  0
LINE
  5
1B320
330
165B5
100
AcDbEntity
  8
寸法
 62
     0
 48
50.0
370
    -2
100
AcDbLine
 10
2063.137356965266
 20
7456.652997165628
 30
0.0
 11
2063.137356965266
 21
6856.222226399463
 31
0.0
  0
LINE
  5
1B321
330
165B5
100
AcDbEntity
  8
寸法
 62
     0
 48
50.0
370
    -2
100
AcDbLine
 10
2015.137356965262
 20
7430.652997165627
 30
0.0
 11
2015.137356965262
 21
6856.222226399463
 31
0.0
  0
LINE
  5
1B322
330
165B5
100
AcDbEntity
  8
寸法
 62
     0
 48
50.0
370
    -2
100
AcDbLine
 10
2063.137356965266
 20
6916.222226399462
 30
0.0
 11
2163.137356965266
 21
6916.222226399462
 31
0.0
  0
LINE
  5
1B323
330
165B5
100
AcDbEntity
  8
寸法
 62
     0
 48
50.0
370
    -2
100
AcDbLine
 10
2015.137356965262
 20
6916.222226399462
 30
0.0
 11
1915.137356965262
 21
6916.222226399462
 31
0.0
  0
MTEXT
  5
1B324
330
165B5
100
AcDbEntity
  8
寸法
 62
     7
 48
50.0
100
AcDbMText
 10
2176.039327965324
 20
7016.222226399462
 30
0.0
 40
120.0
 41
0.0
 71
     5
 72
     1
  1
\A1;48
  7
STYLE1
 73
     1
 44
1.0
1001
ACAD
1000
MTEXTBEGIN
1070
    73
1070
     1
1070
    44
1040
1.0
1070
    74
1070
     0
1000
MTEXTEND
  0
LINE
  5
1B325
330
165B5
100
AcDbEntity
  8
寸法
 62
     0
 48
50.0
370
    -2
100
AcDbLine
 10
2063.137356965266
 20
6916.222226399462
 30
0.0
 11
2015.137356965262
 21
6916.222226399462
 31
0.0
  0
INSERT
  5
1B326
330
165B5
100
AcDbEntity
  8
寸法
 62
     0
 48
50.0
370
    -2
100
AcDbBlockReference
  2
_DOTSMALL
 10
2063.137356965266
 20
6916.222226399462
 30
0.0
 41
100.0
 42
100.0
 43
100.0
 50
180.0
  0
INSERT
  5
1B327
330
165B5
100
AcDbEntity
  8
寸法
 62
     0
 48
50.0
370
    -2
100
AcDbBlockReference
  2
_DOTSMALL
 10
2015.137356965262
 20
6916.222226399462
 30
0.0
 41
100.0
 42
100.0
 43
100.0
  0
POINT
  5
1B328
330
165B5
100
AcDbEntity
  8
DEFPOINTS
 62
     0
 48
50.0
100
AcDbPoint
 10
2063.137356965266
 20
7476.652997165627
 30
0.0
  0
POINT
  5
1B329
330
165B5
100
AcDbEntity
  8
DEFPOINTS
 62
     0
 48
50.0
100
AcDbPoint
 10
2015.137356965262
 20
7450.652997165628
 30
0.0
  0
POINT
  5
1B32A
330
165B5
100
AcDbEntity
  8
DEFPOINTS
 62
     0
 48
50.0
100
AcDbPoint
 10
2015.137356965262
 20
6916.222226399462
 30
0.0
  0
ENDBLK
  5
165C3
330
165B5
100
AcDbEntity
  8
0
 48
50.0
100
AcDbBlockEnd
  0
BLOCK
  5
165C5
330
165C4
100
AcDbEntity
  8
0
 48
50.0
100
AcDbBlockBegin
  2
*D14
 70
     1
 10
0.0
 20
0.0
 30
0.0
  3
*D14
  1

  0
LINE
  5
1B32B
330
165C4
100
AcDbEntity
  8
寸法
 62
     0
 48
50.0
370
    -2
100
AcDbLine
 10
7165.137356965249
 20
7430.652997165714
 30
0.0
 11
7165.137356965249
 21
6856.222226399463
 31
0.0
  0
LINE
  5
1B32C
330
165C4
100
AcDbEntity
  8
寸法
 62
     0
 48
50.0
370
    -2
100
AcDbLine
 10
7117.137356965248
 20
7456.652997165628
 30
0.0
 11
7117.137356965248
 21
6856.222226399463
 31
0.0
  0
LINE
  5
1B32D
330
165C4
100
AcDbEntity
  8
寸法
 62
     0
 48
50.0
370
    -2
100
AcDbLine
 10
7165.137356965249
 20
6916.222226399462
 30
0.0
 11
7265.137356965249
 21
6916.222226399462
 31
0.0
  0
LINE
  5
1B32E
330
165C4
100
AcDbEntity
  8
寸法
 62
     0
 48
50.0
370
    -2
100
AcDbLine
 10
7117.137356965248
 20
6916.222226399462
 30
0.0
 11
7017.137356965247
 21
6916.222226399462
 31
0.0
  0
MTEXT
  5
1B32F
330
165C4
100
AcDbEntity
  8
寸法
 62
     7
 48
50.0
100
AcDbMText
 10
7006.1744593165
 20
7016.222226399462
 30
0.0
 40
120.0
 41
0.0
 71
     5
 72
     1
  1
\A1;48
  7
STYLE1
 73
     1
 44
1.0
1001
ACAD
1000
MTEXTBEGIN
1070
    73
1070
     1
1070
    44
1040
1.0
1070
    74
1070
     0
1000
MTEXTEND
  0
LINE
  5
1B330
330
165C4
100
AcDbEntity
  8
寸法
 62
     0
 48
50.0
370
    -2
100
AcDbLine
 10
7165.137356965249
 20
6916.222226399462
 30
0.0
 11
7117.137356965248
 21
6916.222226399462
 31
0.0
  0
INSERT
  5
1B331
330
165C4
100
AcDbEntity
  8
寸法
 62
     0
 48
50.0
370
    -2
100
AcDbBlockReference
  2
_DOTSMALL
 10
7165.137356965249
 20
6916.222226399462
 30
0.0
 41
100.0
 42
100.0
 43
100.0
 50
180.0
  0
INSERT
  5
1B332
330
165C4
100
AcDbEntity
  8
寸法
 62
     0
 48
50.0
370
    -2
100
AcDbBlockReference
  2
_DOTSMALL
 10
7117.137356965248
 20
6916.222226399462
 30
0.0
 41
100.0
 42
100.0
 43
100.0
  0
POINT
  5
1B333
330
165C4
100
AcDbEntity
  8
DEFPOINTS
 62
     0
 48
50.0
100
AcDbPoint
 10
7165.137356965249
 20
7450.652997165715
 30
0.0
  0
POINT
  5
1B334
330
165C4
100
AcDbEntity
  8
DEFPOINTS
 62
     0
 48
50.0
100
AcDbPoint
 10
7117.137356965248
 20
7476.652997165627
 30
0.0
  0
POINT
  5
1B335
330
165C4
100
AcDbEntity
  8
DEFPOINTS
 62
     0
 48
50.0
100
AcDbPoint
 10
7117.137356965248
 20
6916.222226399462
 30
0.0
  0
ENDBLK
  5
165D2
330
165C4
100
AcDbEntity
  8
0
 48
50.0
100
AcDbBlockEnd
  0
BLOCK
  5
1663F
330
165EA
100
AcDbEntity
  8
0
 48
50.0
100
AcDbBlockBegin
  2
*D15
 70
     1
 10
0.0
 20
0.0
 30
0.0
  3
*D15
  1

  0
LINE
  5
1B317
330
165EA
100
AcDbEntity
  8
寸法
 62
     0
 48
50.0
370
    -2
100
AcDbLine
 10
7275.137356965263
 20
7430.652997165627
 30
0.0
 11
7275.137356965263
 21
6856.222226399463
 31
0.0
  0
LINE
  5
1B318
330
165EA
100
AcDbEntity
  8
寸法
 62
     0
 48
50.0
370
    -2
100
AcDbLine
 10
7165.137356965249
 20
7430.652997165714
 30
0.0
 11
7165.137356965249
 21
6856.222226399463
 31
0.0
  0
LINE
  5
1B319
330
165EA
100
AcDbEntity
  8
寸法
 62
     0
 48
50.0
370
    -2
100
AcDbLine
 10
7275.137356965263
 20
6916.222226399462
 30
0.0
 11
7165.137356965249
 21
6916.222226399462
 31
0.0
  0
MTEXT
  5
1B31A
330
165EA
100
AcDbEntity
  8
寸法
 62
     7
 48
50.0
100
AcDbMText
 10
7220.137356965257
 20
6764.530331363232
 30
0.0
 40
120.0
 41
0.0
 71
     5
 72
     1
  1
\A1;110
  7
STYLE1
 73
     1
 44
1.0
1001
ACAD
1000
MTEXTBEGIN
1070
    73
1070
     1
1070
    44
1040
1.0
1070
    74
1070
     0
1000
MTEXTEND
  0
INSERT
  5
1B31B
330
165EA
100
AcDbEntity
  8
寸法
 62
     0
 48
50.0
370
    -2
100
AcDbBlockReference
  2
_DOTSMALL
 10
7275.137356965263
 20
6916.222226399462
 30
0.0
 41
100.0
 42
100.0
 43
100.0
  0
INSERT
  5
1B31C
330
165EA
100
AcDbEntity
  8
寸法
 62
     0
 48
50.0
370
    -2
100
AcDbBlockReference
  2
_DOTSMALL
 10
7165.137356965249
 20
6916.222226399462
 30
0.0
 41
100.0
 42
100.0
 43
100.0
 50
180.0
  0
POINT
  5
1B31D
330
165EA
100
AcDbEntity
  8
DEFPOINTS
 62
     0
 48
50.0
100
AcDbPoint
 10
7275.137356965263
 20
7450.652997165628
 30
0.0
  0
POINT
  5
1B31E
330
165EA
100
AcDbEntity
  8
DEFPOINTS
 62
     0
 48
50.0
100
AcDbPoint
 10
7165.137356965249
 20
7450.652997165715
 30
0.0
  0
POINT
  5
1B31F
330
165EA
100
AcDbEntity
  8
DEFPOINTS
 62
     0
 48
50.0
100
AcDbPoint
 10
7165.137356965249
 20
6916.222226399462
 30
0.0
  0
ENDBLK
  5
16649
330
165EA
100
AcDbEntity
  8
0
 48
50.0
100
AcDbBlockEnd
  0
BLOCK
  5
166D0
330
166CF
100
AcDbEntity
  8
0
 48
50.0
100
AcDbBlockBegin
  2
*D16
 70
     1
 10
0.0
 20
0.0
 30
0.0
  3
*D16
  1

  0
LINE
  5
1BB73
330
166CF
100
AcDbEntity
  8
寸法
 62
     0
 48
50.0
370
    -2
100
AcDbLine
 10
7275.137356965271
 20
10100.65299716568
 30
0.0
 11
7275.137356965271
 21
10556.46121679073
 31
0.0
  0
LINE
  5
1BB74
330
166CF
100
AcDbEntity
  8
寸法
 62
     0
 48
50.0
370
    -2
100
AcDbLine
 10
7165.137356965273
 20
10100.65299716567
 30
0.0
 11
7165.137356965273
 21
10556.46121679073
 31
0.0
  0
LINE
  5
1BB75
330
166CF
100
AcDbEntity
  8
寸法
 62
     0
 48
50.0
370
    -2
100
AcDbLine
 10
7275.137356965271
 20
10496.46121679073
 30
0.0
 11
7375.137356965272
 21
10496.46121679073
 31
0.0
  0
LINE
  5
1BB76
330
166CF
100
AcDbEntity
  8
寸法
 62
     0
 48
50.0
370
    -2
100
AcDbLine
 10
7165.137356965273
 20
10496.46121679073
 30
0.0
 11
7065.137356965273
 21
10496.46121679073
 31
0.0
  0
LINE
  5
1BB77
330
166CF
100
AcDbEntity
  8
寸法
 62
     0
 48
50.0
370
    -2
100
AcDbLine
 10
7275.137356965271
 20
10496.46121679073
 30
0.0
 11
7165.137356965273
 21
10496.46121679073
 31
0.0
  0
INSERT
  5
1BB78
330
166CF
100
AcDbEntity
  8
寸法
 62
     0
 48
50.0
370
    -2
100
AcDbBlockReference
  2
_DOTSMALL
 10
7275.137356965271
 20
10496.46121679073
 30
0.0
 41
100.0
 42
100.0
 43
100.0
 50
180.0
  0
INSERT
  5
1BB79
330
166CF
100
AcDbEntity
  8
寸法
 62
     0
 48
50.0
370
    -2
100
AcDbBlockReference
  2
_DOTSMALL
 10
7165.137356965273
 20
10496.46121679073
 30
0.0
 41
100.0
 42
100.0
 43
100.0
  0
MTEXT
  5
1BB7A
330
166CF
100
AcDbEntity
  8
寸法
 62
     7
 48
50.0
100
AcDbMText
 10
7220.137356965273
 20
10596.46121679073
 30
0.0
 40
120.0
 41
0.0
 71
     5
 72
     1
  1
\A1;110
  7
STYLE1
 73
     1
 44
1.0
1001
ACAD
1000
MTEXTBEGIN
1070
    73
1070
     1
1070
    44
1040
1.0
1070
    74
1070
     0
1000
MTEXTEND
  0
POINT
  5
1BB7B
330
166CF
100
AcDbEntity
  8
DEFPOINTS
 62
     0
 48
50.0
100
AcDbPoint
 10
7275.137356965271
 20
10080.65299716568
 30
0.0
  0
POINT
  5
1BB7C
330
166CF
100
AcDbEntity
  8
DEFPOINTS
 62
     0
 48
50.0
100
AcDbPoint
 10
7165.137356965273
 20
10080.65299716567
 30
0.0
  0
POINT
  5
1BB7D
330
166CF
100
AcDbEntity
  8
DEFPOINTS
 62
     0
 48
50.0
100
AcDbPoint
 10
7165.137356965273
 20
10496.46121679073
 30
0.0
  0
ENDBLK
  5
166DC
330
166CF
100
AcDbEntity
  8
0
 48
50.0
100
AcDbBlockEnd
  0
BLOCK
  5
185E4
330
16908
100
AcDbEntity
  8
0
 48
50.0
100
AcDbBlockBegin
  2
*D17
 70
     1
 10
0.0
 20
0.0
 30
0.0
  3
*D17
  1

  0
LINE
  5
1BB6A
330
16908
100
AcDbEntity
  8
寸法
 62
     0
 48
50.0
370
    -2
100
AcDbLine
 10
7220.137356965273
 20
10675.44913114867
 30
0.0
 11
7220.137356965273
 21
10805.78269034702
 31
0.0
  0
LINE
  5
1BB6B
330
16908
100
AcDbEntity
  8
寸法
 62
     0
 48
50.0
370
    -2
100
AcDbLine
 10
9850.137356965275
 20
10100.65299716572
 30
0.0
 11
9850.137356965275
 21
10805.78269034702
 31
0.0
  0
LINE
  5
1BB6C
330
16908
100
AcDbEntity
  8
寸法
 62
     0
 48
50.0
370
    -2
100
AcDbLine
 10
7220.137356965273
 20
10745.78269034702
 30
0.0
 11
9850.137356965275
 21
10745.78269034702
 31
0.0
  0
INSERT
  5
1BB6D
330
16908
100
AcDbEntity
  8
寸法
 62
     0
 48
50.0
370
    -2
100
AcDbBlockReference
  2
_DOTSMALL
 10
7220.137356965273
 20
10745.78269034702
 30
0.0
 41
100.0
 42
100.0
 43
100.0
 50
180.0
  0
INSERT
  5
1BB6E
330
16908
100
AcDbEntity
  8
寸法
 62
     0
 48
50.0
370
    -2
100
AcDbBlockReference
  2
_DOTSMALL
 10
9850.137356965275
 20
10745.78269034702
 30
0.0
 41
100.0
 42
100.0
 43
100.0
  0
MTEXT
  5
1BB6F
330
16908
100
AcDbEntity
  8
寸法
 62
     7
 48
50.0
100
AcDbMText
 10
8535.137356965273
 20
10845.79450137064
 30
0.0
 40
120.0
 41
0.0
 71
     5
 72
     1
  1
\A1;2630
  7
STYLE1
 73
     1
 44
1.0
1001
ACAD
1000
MTEXTBEGIN
1070
    73
1070
     1
1070
    44
1040
1.0
1070
    74
1070
     0
1000
MTEXTEND
  0
POINT
  5
1BB70
330
16908
100
AcDbEntity
  8
DEFPOINTS
 62
     0
 48
50.0
100
AcDbPoint
 10
7220.137356965273
 20
10655.44913114867
 30
0.0
  0
POINT
  5
1BB71
330
16908
100
AcDbEntity
  8
DEFPOINTS
 62
     0
 48
50.0
100
AcDbPoint
 10
9850.137356965275
 20
10080.65299716572
 30
0.0
  0
POINT
  5
1BB72
330
16908
100
AcDbEntity
  8
DEFPOINTS
 62
     0
 48
50.0
100
AcDbPoint
 10
9850.137356965275
 20
10745.78269034702
 30
0.0
  0
ENDBLK
  5
185EE
330
16908
100
AcDbEntity
  8
0
 48
50.0
100
AcDbBlockEnd
  0
BLOCK
  5
17CB3
330
17CB2
100
AcDbEntity
  8
0
 48
50.0
100
AcDbBlockBegin
  2
*D18
 70
     1
 10
0.0
 20
0.0
 30
0.0
  3
*D18
  1

  0
LINE
  5
1B2C8
330
17CB2
100
AcDbEntity
  8
寸法
 62
     0
 48
50.0
370
    -2
100
AcDbLine
 10
4693.137356965266
 20
7456.652997165628
 30
0.0
 11
4693.137356965266
 21
6856.222226399463
 31
0.0
  0
LINE
  5
1B2C9
330
17CB2
100
AcDbEntity
  8
寸法
 62
     0
 48
50.0
370
    -2
100
AcDbLine
 10
4645.137356965262
 20
7430.652997165627
 30
0.0
 11
4645.137356965262
 21
6856.222226399463
 31
0.0
  0
LINE
  5
1B2CA
330
17CB2
100
AcDbEntity
  8
寸法
 62
     0
 48
50.0
370
    -2
100
AcDbLine
 10
4693.137356965266
 20
6916.222226399462
 30
0.0
 11
4793.137356965266
 21
6916.222226399462
 31
0.0
  0
LINE
  5
1B2CB
330
17CB2
100
AcDbEntity
  8
寸法
 62
     0
 48
50.0
370
    -2
100
AcDbLine
 10
4645.137356965262
 20
6916.222226399462
 30
0.0
 11
4545.137356965262
 21
6916.222226399462
 31
0.0
  0
MTEXT
  5
1B2CC
330
17CB2
100
AcDbEntity
  8
寸法
 62
     7
 48
50.0
100
AcDbMText
 10
4806.039327965323
 20
7016.222226399462
 30
0.0
 40
120.0
 41
0.0
 71
     5
 72
     1
  1
\A1;48
  7
STYLE1
 73
     1
 44
1.0
1001
ACAD
1000
MTEXTBEGIN
1070
    73
1070
     1
1070
    44
1040
1.0
1070
    74
1070
     0
1000
MTEXTEND
  0
LINE
  5
1B2CD
330
17CB2
100
AcDbEntity
  8
寸法
 62
     0
 48
50.0
370
    -2
100
AcDbLine
 10
4693.137356965266
 20
6916.222226399462
 30
0.0
 11
4645.137356965262
 21
6916.222226399462
 31
0.0
  0
INSERT
  5
1B2CE
330
17CB2
100
AcDbEntity
  8
寸法
 62
     0
 48
50.0
370
    -2
100
AcDbBlockReference
  2
_DOTSMALL
 10
4693.137356965266
 20
6916.222226399462
 30
0.0
 41
100.0
 42
100.0
 43
100.0
 50
180.0
  0
INSERT
  5
1B2CF
330
17CB2
100
AcDbEntity
  8
寸法
 62
     0
 48
50.0
370
    -2
100
AcDbBlockReference
  2
_DOTSMALL
 10
4645.137356965262
 20
6916.222226399462
 30
0.0
 41
100.0
 42
100.0
 43
100.0
  0
POINT
  5
1B2D0
330
17CB2
100
AcDbEntity
  8
DEFPOINTS
 62
     0
 48
50.0
100
AcDbPoint
 10
4693.137356965266
 20
7476.652997165627
 30
0.0
  0
POINT
  5
1B2D1
330
17CB2
100
AcDbEntity
  8
DEFPOINTS
 62
     0
 48
50.0
100
AcDbPoint
 10
4645.137356965262
 20
7450.652997165628
 30
0.0
  0
POINT
  5
1B2D2
330
17CB2
100
AcDbEntity
  8
DEFPOINTS
 62
     0
 48
50.0
100
AcDbPoint
 10
4645.137356965262
 20
6916.222226399462
 30
0.0
  0
ENDBLK
  5
17CC0
330
17CB2
100
AcDbEntity
  8
0
 48
50.0
100
AcDbBlockEnd
  0
BLOCK
  5
17CC2
330
17CC1
100
AcDbEntity
  8
0
 48
50.0
100
AcDbBlockBegin
  2
*D19
 70
     1
 10
0.0
 20
0.0
 30
0.0
  3
*D19
  1

  0
LINE
  5
1B2D3
330
17CC1
100
AcDbEntity
  8
寸法
 62
     0
 48
50.0
370
    -2
100
AcDbLine
 10
4535.137356965249
 20
7430.652997165714
 30
0.0
 11
4535.137356965249
 21
6856.222226399463
 31
0.0
  0
LINE
  5
1B2D4
330
17CC1
100
AcDbEntity
  8
寸法
 62
     0
 48
50.0
370
    -2
100
AcDbLine
 10
4487.137356965248
 20
7456.652997165628
 30
0.0
 11
4487.137356965248
 21
6856.222226399463
 31
0.0
  0
LINE
  5
1B2D5
330
17CC1
100
AcDbEntity
  8
寸法
 62
     0
 48
50.0
370
    -2
100
AcDbLine
 10
4535.137356965249
 20
6916.222226399462
 30
0.0
 11
4635.137356965249
 21
6916.222226399462
 31
0.0
  0
LINE
  5
1B2D6
330
17CC1
100
AcDbEntity
  8
寸法
 62
     0
 48
50.0
370
    -2
100
AcDbLine
 10
4487.137356965248
 20
6916.222226399462
 30
0.0
 11
4387.137356965247
 21
6916.222226399462
 31
0.0
  0
MTEXT
  5
1B2D7
330
17CC1
100
AcDbEntity
  8
寸法
 62
     7
 48
50.0
100
AcDbMText
 10
4376.174459316501
 20
7016.222226399462
 30
0.0
 40
120.0
 41
0.0
 71
     5
 72
     1
  1
\A1;48
  7
STYLE1
 73
     1
 44
1.0
1001
ACAD
1000
MTEXTBEGIN
1070
    73
1070
     1
1070
    44
1040
1.0
1070
    74
1070
     0
1000
MTEXTEND
  0
LINE
  5
1B2D8
330
17CC1
100
AcDbEntity
  8
寸法
 62
     0
 48
50.0
370
    -2
100
AcDbLine
 10
4535.137356965249
 20
6916.222226399462
 30
0.0
 11
4487.137356965248
 21
6916.222226399462
 31
0.0
  0
INSERT
  5
1B2D9
330
17CC1
100
AcDbEntity
  8
寸法
 62
     0
 48
50.0
370
    -2
100
AcDbBlockReference
  2
_DOTSMALL
 10
4535.137356965249
 20
6916.222226399462
 30
0.0
 41
100.0
 42
100.0
 43
100.0
 50
180.0
  0
INSERT
  5
1B2DA
330
17CC1
100
AcDbEntity
  8
寸法
 62
     0
 48
50.0
370
    -2
100
AcDbBlockReference
  2
_DOTSMALL
 10
4487.137356965248
 20
6916.222226399462
 30
0.0
 41
100.0
 42
100.0
 43
100.0
  0
POINT
  5
1B2DB
330
17CC1
100
AcDbEntity
  8
DEFPOINTS
 62
     0
 48
50.0
100
AcDbPoint
 10
4535.137356965249
 20
7450.652997165715
 30
0.0
  0
POINT
  5
1B2DC
330
17CC1
100
AcDbEntity
  8
DEFPOINTS
 62
     0
 48
50.0
100
AcDbPoint
 10
4487.137356965248
 20
7476.652997165627
 30
0.0
  0
POINT
  5
1B2DD
330
17CC1
100
AcDbEntity
  8
DEFPOINTS
 62
     0
 48
50.0
100
AcDbPoint
 10
4487.137356965248
 20
6916.222226399462
 30
0.0
  0
ENDBLK
  5
17CCF
330
17CC1
100
AcDbEntity
  8
0
 48
50.0
100
AcDbBlockEnd
  0
BLOCK
  5
185A4
330
17CD0
100
AcDbEntity
  8
0
 48
50.0
100
AcDbBlockBegin
  2
*D20
 70
     1
 10
0.0
 20
0.0
 30
0.0
  3
*D20
  1

  0
LINE
  5
1B2DE
330
17CD0
100
AcDbEntity
  8
寸法
 62
     0
 48
50.0
370
    -2
100
AcDbLine
 10
2063.137356965266
 20
7456.652997165628
 30
0.0
 11
2063.137356965266
 21
6856.222226399463
 31
0.0
  0
LINE
  5
1B2DF
330
17CD0
100
AcDbEntity
  8
寸法
 62
     0
 48
50.0
370
    -2
100
AcDbLine
 10
4487.137356965248
 20
6916.222226399462
 30
0.0
 11
2063.137356965266
 21
6916.222226399462
 31
0.0
  0
INSERT
  5
1B2E0
330
17CD0
100
AcDbEntity
  8
寸法
 62
     0
 48
50.0
370
    -2
100
AcDbBlockReference
  2
_DOTSMALL
 10
4487.137356965248
 20
6916.222226399462
 30
0.0
 41
100.0
 42
100.0
 43
100.0
  0
INSERT
  5
1B2E1
330
17CD0
100
AcDbEntity
  8
寸法
 62
     0
 48
50.0
370
    -2
100
AcDbBlockReference
  2
_DOTSMALL
 10
2063.137356965266
 20
6916.222226399462
 30
0.0
 41
100.0
 42
100.0
 43
100.0
 50
180.0
  0
MTEXT
  5
1B2E2
330
17CD0
100
AcDbEntity
  8
寸法
 62
     7
 48
50.0
100
AcDbMText
 10
3275.137356965257
 20
7016.234037423085
 30
0.0
 40
120.0
 41
0.0
 71
     5
 72
     1
  1
\A1;有効開口部間口 2424
  7
STYLE1
 73
     1
 44
1.0
1001
ACAD
1000
MTEXTBEGIN
1070
    73
1070
     1
1070
    44
1040
1.0
1070
    74
1070
     0
1000
MTEXTEND
  0
POINT
  5
1B2E3
330
17CD0
100
AcDbEntity
  8
DEFPOINTS
 62
     0
 48
50.0
100
AcDbPoint
 10
4487.137356965248
 20
7476.652997165627
 30
0.0
  0
POINT
  5
1B2E4
330
17CD0
100
AcDbEntity
  8
DEFPOINTS
 62
     0
 48
50.0
100
AcDbPoint
 10
2063.137356965266
 20
7476.652997165627
 30
0.0
  0
POINT
  5
1B2E5
330
17CD0
100
AcDbEntity
  8
DEFPOINTS
 62
     0
 48
50.0
100
AcDbPoint
 10
2063.137356965266
 20
6916.222226399462
 30
0.0
  0
ENDBLK
  5
185AD
330
17CD0
100
AcDbEntity
  8
0
 48
50.0
100
AcDbBlockEnd
  0
BLOCK
  5
17CDC
330
17CDB
100
AcDbEntity
  8
0
 48
50.0
100
AcDbBlockBegin
  2
*D21
 70
     1
 10
0.0
 20
0.0
 30
0.0
  3
*D21
  1

  0
LINE
  5
1B2BF
330
17CDB
100
AcDbEntity
  8
寸法
 62
     0
 48
50.0
370
    -2
100
AcDbLine
 10
4645.137356965262
 20
7430.652997165627
 30
0.0
 11
4645.137356965262
 21
6856.222226399463
 31
0.0
  0
LINE
  5
1B2C0
330
17CDB
100
AcDbEntity
  8
寸法
 62
     0
 48
50.0
370
    -2
100
AcDbLine
 10
4535.137356965249
 20
7430.652997165714
 30
0.0
 11
4535.137356965249
 21
6856.222226399463
 31
0.0
  0
LINE
  5
1B2C1
330
17CDB
100
AcDbEntity
  8
寸法
 62
     0
 48
50.0
370
    -2
100
AcDbLine
 10
4645.137356965262
 20
6916.222226399462
 30
0.0
 11
4535.137356965249
 21
6916.222226399462
 31
0.0
  0
MTEXT
  5
1B2C2
330
17CDB
100
AcDbEntity
  8
寸法
 62
     7
 48
50.0
100
AcDbMText
 10
4590.137356965256
 20
6764.530331363232
 30
0.0
 40
120.0
 41
0.0
 71
     5
 72
     1
  1
\A1;110
  7
STYLE1
 73
     1
 44
1.0
1001
ACAD
1000
MTEXTBEGIN
1070
    73
1070
     1
1070
    44
1040
1.0
1070
    74
1070
     0
1000
MTEXTEND
  0
INSERT
  5
1B2C3
330
17CDB
100
AcDbEntity
  8
寸法
 62
     0
 48
50.0
370
    -2
100
AcDbBlockReference
  2
_DOTSMALL
 10
4645.137356965262
 20
6916.222226399462
 30
0.0
 41
100.0
 42
100.0
 43
100.0
  0
INSERT
  5
1B2C4
330
17CDB
100
AcDbEntity
  8
寸法
 62
     0
 48
50.0
370
    -2
100
AcDbBlockReference
  2
_DOTSMALL
 10
4535.137356965249
 20
6916.222226399462
 30
0.0
 41
100.0
 42
100.0
 43
100.0
 50
180.0
  0
POINT
  5
1B2C5
330
17CDB
100
AcDbEntity
  8
DEFPOINTS
 62
     0
 48
50.0
100
AcDbPoint
 10
4645.137356965262
 20
7450.652997165628
 30
0.0
  0
POINT
  5
1B2C6
330
17CDB
100
AcDbEntity
  8
DEFPOINTS
 62
     0
 48
50.0
100
AcDbPoint
 10
4535.137356965249
 20
7450.652997165715
 30
0.0
  0
POINT
  5
1B2C7
330
17CDB
100
AcDbEntity
  8
DEFPOINTS
 62
     0
 48
50.0
100
AcDbPoint
 10
4535.137356965249
 20
6916.222226399462
 30
0.0
  0
ENDBLK
  5
17CE6
330
17CDB
100
AcDbEntity
  8
0
 48
50.0
100
AcDbBlockEnd
  0
BLOCK
  5
18C3B
330
17CE7
100
AcDbEntity
  8
0
 48
50.0
100
AcDbBlockBegin
  2
*D22
 70
     1
 10
0.0
 20
0.0
 30
0.0
  3
*D22
  1

  0
LINE
  5
1BB61
330
17CE7
100
AcDbEntity
  8
寸法
 62
     0
 48
50.0
370
    -2
100
AcDbLine
 10
2015.137356965272
 20
10100.65299716563
 30
0.0
 11
2015.137356965272
 21
10556.46121679073
 31
0.0
  0
LINE
  5
1BB62
330
17CE7
100
AcDbEntity
  8
寸法
 62
     0
 48
50.0
370
    -2
100
AcDbLine
 10
4535.137356965273
 20
10100.65299716572
 30
0.0
 11
4535.137356965273
 21
10556.46121679073
 31
0.0
  0
LINE
  5
1BB63
330
17CE7
100
AcDbEntity
  8
寸法
 62
     0
 48
50.0
370
    -2
100
AcDbLine
 10
2015.137356965272
 20
10496.46121679073
 30
0.0
 11
4535.137356965273
 21
10496.46121679073
 31
0.0
  0
INSERT
  5
1BB64
330
17CE7
100
AcDbEntity
  8
寸法
 62
     0
 48
50.0
370
    -2
100
AcDbBlockReference
  2
_DOTSMALL
 10
2015.137356965272
 20
10496.46121679073
 30
0.0
 41
100.0
 42
100.0
 43
100.0
 50
180.0
  0
INSERT
  5
1BB65
330
17CE7
100
AcDbEntity
  8
寸法
 62
     0
 48
50.0
370
    -2
100
AcDbBlockReference
  2
_DOTSMALL
 10
4535.137356965273
 20
10496.46121679073
 30
0.0
 41
100.0
 42
100.0
 43
100.0
  0
MTEXT
  5
1BB66
330
17CE7
100
AcDbEntity
  8
寸法
 62
     7
 48
50.0
100
AcDbMText
 10
3275.137356965273
 20
10596.47302781435
 30
0.0
 40
120.0
 41
0.0
 71
     5
 72
     1
  1
\A1;6X420=2520
  7
STYLE1
 73
     1
 44
1.0
1001
ACAD
1000
MTEXTBEGIN
1070
    73
1070
     1
1070
    44
1040
1.0
1070
    74
1070
     0
1000
MTEXTEND
  0
POINT
  5
1BB67
330
17CE7
100
AcDbEntity
  8
DEFPOINTS
 62
     0
 48
50.0
100
AcDbPoint
 10
2015.137356965272
 20
10080.65299716563
 30
0.0
  0
POINT
  5
1BB68
330
17CE7
100
AcDbEntity
  8
DEFPOINTS
 62
     0
 48
50.0
100
AcDbPoint
 10
4535.137356965273
 20
10080.65299716572
 30
0.0
  0
POINT
  5
1BB69
330
17CE7
100
AcDbEntity
  8
DEFPOINTS
 62
     0
 48
50.0
100
AcDbPoint
 10
4535.137356965273
 20
10496.46121679073
 30
0.0
  0
ENDBLK
  5
18C45
330
17CE7
100
AcDbEntity
  8
0
 48
50.0
100
AcDbBlockEnd
  0
BLOCK
  5
17CF4
330
17CF3
100
AcDbEntity
  8
0
 48
50.0
100
AcDbBlockBegin
  2
*D23
 70
     1
 10
0.0
 20
0.0
 30
0.0
  3
*D23
  1

  0
LINE
  5
1BB4D
330
17CF3
100
AcDbEntity
  8
寸法
 62
     0
 48
50.0
370
    -2
100
AcDbLine
 10
4645.137356965271
 20
10100.65299716568
 30
0.0
 11
4645.137356965271
 21
10556.46121679073
 31
0.0
  0
LINE
  5
1BB4E
330
17CF3
100
AcDbEntity
  8
寸法
 62
     0
 48
50.0
370
    -2
100
AcDbLine
 10
4535.137356965273
 20
10100.65299716567
 30
0.0
 11
4535.137356965273
 21
10556.46121679073
 31
0.0
  0
LINE
  5
1BB4F
330
17CF3
100
AcDbEntity
  8
寸法
 62
     0
 48
50.0
370
    -2
100
AcDbLine
 10
4645.137356965271
 20
10496.46121679073
 30
0.0
 11
4745.137356965272
 21
10496.46121679073
 31
0.0
  0
LINE
  5
1BB50
330
17CF3
100
AcDbEntity
  8
寸法
 62
     0
 48
50.0
370
    -2
100
AcDbLine
 10
4535.137356965273
 20
10496.46121679073
 30
0.0
 11
4435.137356965273
 21
10496.46121679073
 31
0.0
  0
LINE
  5
1BB51
330
17CF3
100
AcDbEntity
  8
寸法
 62
     0
 48
50.0
370
    -2
100
AcDbLine
 10
4645.137356965271
 20
10496.46121679073
 30
0.0
 11
4535.137356965273
 21
10496.46121679073
 31
0.0
  0
INSERT
  5
1BB52
330
17CF3
100
AcDbEntity
  8
寸法
 62
     0
 48
50.0
370
    -2
100
AcDbBlockReference
  2
_DOTSMALL
 10
4645.137356965271
 20
10496.46121679073
 30
0.0
 41
100.0
 42
100.0
 43
100.0
 50
180.0
  0
INSERT
  5
1BB53
330
17CF3
100
AcDbEntity
  8
寸法
 62
     0
 48
50.0
370
    -2
100
AcDbBlockReference
  2
_DOTSMALL
 10
4535.137356965273
 20
10496.46121679073
 30
0.0
 41
100.0
 42
100.0
 43
100.0
  0
MTEXT
  5
1BB54
330
17CF3
100
AcDbEntity
  8
寸法
 62
     7
 48
50.0
100
AcDbMText
 10
4590.137356965272
 20
10596.46121679073
 30
0.0
 40
120.0
 41
0.0
 71
     5
 72
     1
  1
\A1;110
  7
STYLE1
 73
     1
 44
1.0
1001
ACAD
1000
MTEXTBEGIN
1070
    73
1070
     1
1070
    44
1040
1.0
1070
    74
1070
     0
1000
MTEXTEND
  0
POINT
  5
1BB55
330
17CF3
100
AcDbEntity
  8
DEFPOINTS
 62
     0
 48
50.0
100
AcDbPoint
 10
4645.137356965271
 20
10080.65299716568
 30
0.0
  0
POINT
  5
1BB56
330
17CF3
100
AcDbEntity
  8
DEFPOINTS
 62
     0
 48
50.0
100
AcDbPoint
 10
4535.137356965273
 20
10080.65299716567
 30
0.0
  0
POINT
  5
1BB57
330
17CF3
100
AcDbEntity
  8
DEFPOINTS
 62
     0
 48
50.0
100
AcDbPoint
 10
4535.137356965273
 20
10496.46121679073
 30
0.0
  0
ENDBLK
  5
17D00
330
17CF3
100
AcDbEntity
  8
0
 48
50.0
100
AcDbBlockEnd
  0
BLOCK
  5
18599
330
17D01
100
AcDbEntity
  8
0
 48
50.0
100
AcDbBlockBegin
  2
*D24
 70
     1
 10
0.0
 20
0.0
 30
0.0
  3
*D24
  1

  0
LINE
  5
1BB58
330
17D01
100
AcDbEntity
  8
寸法
 62
     0
 48
50.0
370
    -2
100
AcDbLine
 10
1960.137356965239
 20
10100.6529971656
 30
0.0
 11
1960.137356965239
 21
10805.78269034702
 31
0.0
  0
LINE
  5
1BB59
330
17D01
100
AcDbEntity
  8
寸法
 62
     0
 48
50.0
370
    -2
100
AcDbLine
 10
4590.137356965273
 20
10675.44913114867
 30
0.0
 11
4590.137356965273
 21
10805.78269034702
 31
0.0
  0
LINE
  5
1BB5A
330
17D01
100
AcDbEntity
  8
寸法
 62
     0
 48
50.0
370
    -2
100
AcDbLine
 10
1960.137356965239
 20
10745.78269034702
 30
0.0
 11
4590.137356965273
 21
10745.78269034702
 31
0.0
  0
INSERT
  5
1BB5B
330
17D01
100
AcDbEntity
  8
寸法
 62
     0
 48
50.0
370
    -2
100
AcDbBlockReference
  2
_DOTSMALL
 10
1960.137356965239
 20
10745.78269034702
 30
0.0
 41
100.0
 42
100.0
 43
100.0
 50
180.0
  0
INSERT
  5
1BB5C
330
17D01
100
AcDbEntity
  8
寸法
 62
     0
 48
50.0
370
    -2
100
AcDbBlockReference
  2
_DOTSMALL
 10
4590.137356965273
 20
10745.78269034702
 30
0.0
 41
100.0
 42
100.0
 43
100.0
  0
MTEXT
  5
1BB5D
330
17D01
100
AcDbEntity
  8
寸法
 62
     7
 48
50.0
100
AcDbMText
 10
3275.137356965256
 20
10845.79450137064
 30
0.0
 40
120.0
 41
0.0
 71
     5
 72
     1
  1
\A1;2630
  7
STYLE1
 73
     1
 44
1.0
1001
ACAD
1000
MTEXTBEGIN
1070
    73
1070
     1
1070
    44
1040
1.0
1070
    74
1070
     0
1000
MTEXTEND
  0
POINT
  5
1BB5E
330
17D01
100
AcDbEntity
  8
DEFPOINTS
 62
     0
 48
50.0
100
AcDbPoint
 10
1960.137356965239
 20
10080.6529971656
 30
0.0
  0
POINT
  5
1BB5F
330
17D01
100
AcDbEntity
  8
DEFPOINTS
 62
     0
 48
50.0
100
AcDbPoint
 10
4590.137356965273
 20
10655.44913114867
 30
0.0
  0
POINT
  5
1BB60
330
17D01
100
AcDbEntity
  8
DEFPOINTS
 62
     0
 48
50.0
100
AcDbPoint
 10
4590.137356965273
 20
10745.78269034702
 30
0.0
  0
ENDBLK
  5
185A3
330
17D01
100
AcDbEntity
  8
0
 48
50.0
100
AcDbBlockEnd
  0
BLOCK
  5
1A227
330
1A21D
100
AcDbEntity
  8
0
 48
50.0
100
AcDbBlockBegin
  2
*D25
 70
     1
 10
0.0
 20
0.0
 30
0.0
  3
*D25
  1

  0
LINE
  5
1A21E
330
1A21D
100
AcDbEntity
  8
0
  6
ByBlock
 62
     0
 48
50.0
100
AcDbLine
 10
7366.173057123664
 20
8737.138440697341
 30
0.0
 11
7761.530782985689
 21
8631.202657331206
 31
0.0
  0
LINE
  5
1A21F
330
1A21D
100
AcDbEntity
  8
0
  6
ByBlock
 62
     0
 48
50.0
100
AcDbLine
 10
7366.173057123664
 20
8287.138440697345
 30
0.0
 11
7761.530782985689
 21
8181.20265733121
 31
0.0
  0
LINE
  5
1A220
330
1A21D
100
AcDbEntity
  8
0
  6
ByBlock
 62
     0
 48
50.0
100
AcDbLine
 10
7701.530782985688
 20
8647.279608877074
 30
0.0
 11
7701.530782985688
 21
8197.279608877078
 31
0.0
  0
INSERT
  5
1A221
330
1A21D
100
AcDbEntity
  8
0
  6
ByBlock
 62
     0
 48
50.0
100
AcDbBlockReference
  2
_DOTSMALL
 10
7701.530782985688
 20
8647.279608877074
 30
0.0
 41
100.0
 42
100.0
 43
100.0
 50
90.0
  0
INSERT
  5
1A222
330
1A21D
100
AcDbEntity
  8
0
  6
ByBlock
 62
     0
 48
50.0
100
AcDbBlockReference
  2
_DOTSMALL
 10
7701.530782985688
 20
8197.279608877078
 30
0.0
 41
100.0
 42
100.0
 43
100.0
 50
270.0
  0
MTEXT
  5
1A223
330
1A21D
100
AcDbEntity
  8
0
  6
ByBlock
 62
     7
 48
50.0
100
AcDbMText
 10
7601.530782985688
 20
8422.279608877076
 30
0.0
 40
120.0
 41
0.0
 71
     5
 72
     1
  1
\A1;450
  7
STYLE1
 11
0.0000000000000001
 21
1.0
 31
0.0
 73
     1
 44
1.0
1001
ACAD
1000
MTEXTBEGIN
1070
    73
1070
     1
1070
    44
1040
1.0
1070
    74
1070
     0
1000
MTEXTEND
  0
POINT
  5
1A224
330
1A21D
100
AcDbEntity
  8
DEFPOINTS
  6
ByBlock
 62
     0
 48
50.0
100
AcDbPoint
 10
7346.173057123664
 20
8742.497424545964
 30
0.0
  0
POINT
  5
1A225
330
1A21D
100
AcDbEntity
  8
DEFPOINTS
  6
ByBlock
 62
     0
 48
50.0
100
AcDbPoint
 10
7346.173057123664
 20
8292.497424545967
 30
0.0
  0
POINT
  5
1A226
330
1A21D
100
AcDbEntity
  8
DEFPOINTS
  6
ByBlock
 62
     0
 48
50.0
100
AcDbPoint
 10
7701.530782985688
 20
8197.279608877078
 30
0.0
  0
ENDBLK
  5
1A228
330
1A21D
100
AcDbEntity
  8
0
 48
50.0
100
AcDbBlockEnd
  0
BLOCK
  5
1A22B
330
1A229
100
AcDbEntity
  8
0
 48
50.0
100
AcDbBlockBegin
  2
A$C3EB005E7
 70
     0
 10
0.0
 20
0.0
 30
0.0
  3
A$C3EB005E7
  1

  0
DIMENSION
  5
1A22A
330
1A229
100
AcDbEntity
  8
寸法
100
AcDbDimension
  2
*D25
 10
355.3577095761848
 20
16.07693845800531
 30
0.0
 11
255.3577095761848
 21
661.0769384580034
 31
0.0
 12
-7346.173073409504
 22
-8181.202670419073
 32
0.0
 71
     5
 42
-1.0
  3
INABA_S40G
100
AcDbAlignedDimension
 13
-0.0000162858395925
 23
561.2947541268913
 33
0.0
 14
-0.0000162858395925
 24
111.294754126895
 34
0.0
 50
90.0
100
AcDbRotatedDimension
1001
ACAD
1000
DSTYLE
1002
{
1002
}
  0
ENDBLK
  5
1A22C
330
1A229
100
AcDbEntity
  8
0
 48
50.0
100
AcDbBlockEnd
  0
BLOCK
  5
1ACC9
330
1ACBF
100
AcDbEntity
  8
0
 48
50.0
100
AcDbBlockBegin
  2
*D27
 70
     1
 10
0.0
 20
0.0
 30
0.0
  3
*D27
  1

  0
LINE
  5
1B2A4
330
1ACBF
100
AcDbEntity
  8
寸法
 62
     0
 48
50.0
370
    -2
100
AcDbLine
 10
1960.137356965279
 20
7430.652997165623
 30
0.0
 11
1960.137356965279
 21
6410.049230808589
 31
0.0
  0
LINE
  5
1B2A5
330
1ACBF
100
AcDbEntity
  8
寸法
 62
     0
 48
50.0
370
    -2
100
AcDbLine
 10
9850.13735696525
 20
7430.652997165719
 30
0.0
 11
9850.13735696525
 21
6410.049230808589
 31
0.0
  0
LINE
  5
1B2A6
330
1ACBF
100
AcDbEntity
  8
寸法
 62
     0
 48
50.0
370
    -2
100
AcDbLine
 10
1960.137356965279
 20
6470.049230808588
 30
0.0
 11
9850.13735696525
 21
6470.049230808588
 31
0.0
  0
INSERT
  5
1B2A7
330
1ACBF
100
AcDbEntity
  8
寸法
 62
     0
 48
50.0
370
    -2
100
AcDbBlockReference
  2
_DOTSMALL
 10
1960.137356965279
 20
6470.049230808588
 30
0.0
 41
100.0
 42
100.0
 43
100.0
 50
180.0
  0
INSERT
  5
1B2A8
330
1ACBF
100
AcDbEntity
  8
寸法
 62
     0
 48
50.0
370
    -2
100
AcDbBlockReference
  2
_DOTSMALL
 10
9850.13735696525
 20
6470.049230808588
 30
0.0
 41
100.0
 42
100.0
 43
100.0
  0
MTEXT
  5
1B2A9
330
1ACBF
100
AcDbEntity
  8
寸法
 62
     7
 48
50.0
100
AcDbMText
 10
5905.137356965264
 20
6570.06104183221
 30
0.0
 40
120.0
 41
0.0
 71
     5
 72
     1
  1
\A1;N X 2630
  7
STYLE1
 73
     1
 44
1.0
1001
ACAD
1000
MTEXTBEGIN
1070
    73
1070
     1
1070
    44
1040
1.0
1070
    74
1070
     0
1000
MTEXTEND
  0
POINT
  5
1B2AA
330
1ACBF
100
AcDbEntity
  8
DEFPOINTS
 62
     0
 48
50.0
100
AcDbPoint
 10
1960.137356965279
 20
7450.652997165623
 30
0.0
  0
POINT
  5
1B2AB
330
1ACBF
100
AcDbEntity
  8
DEFPOINTS
 62
     0
 48
50.0
100
AcDbPoint
 10
9850.13735696525
 20
7450.652997165718
 30
0.0
  0
POINT
  5
1B2AC
330
1ACBF
100
AcDbEntity
  8
DEFPOINTS
 62
     0
 48
50.0
100
AcDbPoint
 10
9850.13735696525
 20
6470.049230808588
 30
0.0
  0
ENDBLK
  5
1ACCA
330
1ACBF
100
AcDbEntity
  8
0
 48
50.0
100
AcDbBlockEnd
  0
BLOCK
  5
1ACD7
330
1ACCB
100
AcDbEntity
  8
0
 48
50.0
100
AcDbBlockBegin
  2
*D28
 70
     1
 10
0.0
 20
0.0
 30
0.0
  3
*D28
  1

  0
LINE
  5
1B411
330
1ACCB
100
AcDbEntity
  8
寸法
 62
     0
 48
50.0
370
    -2
100
AcDbLine
 10
1960.137356965275
 20
4676.821681688778
 30
0.0
 11
1960.137356965275
 21
5115.914851028246
 31
0.0
  0
LINE
  5
1B412
330
1ACCB
100
AcDbEntity
  8
寸法
 62
     0
 48
50.0
370
    -2
100
AcDbLine
 10
1910.137356965275
 20
4676.821681688777
 30
0.0
 11
1910.137356965275
 21
5115.914851028246
 31
0.0
  0
LINE
  5
1B413
330
1ACCB
100
AcDbEntity
  8
寸法
 62
     0
 48
50.0
370
    -2
100
AcDbLine
 10
1960.137356965275
 20
5055.914851028245
 30
0.0
 11
2060.137356965275
 21
5055.914851028245
 31
0.0
  0
LINE
  5
1B414
330
1ACCB
100
AcDbEntity
  8
寸法
 62
     0
 48
50.0
370
    -2
100
AcDbLine
 10
1910.137356965275
 20
5055.914851028245
 30
0.0
 11
1490.604831496539
 21
5055.914851028245
 31
0.0
  0
LINE
  5
1B415
330
1ACCB
100
AcDbEntity
  8
寸法
 62
     0
 48
50.0
370
    -2
100
AcDbLine
 10
1960.137356965275
 20
5055.914851028245
 30
0.0
 11
1910.137356965275
 21
5055.914851028245
 31
0.0
  0
INSERT
  5
1B416
330
1ACCB
100
AcDbEntity
  8
寸法
 62
     0
 48
50.0
370
    -2
100
AcDbBlockReference
  2
_DOTSMALL
 10
1960.137356965275
 20
5055.914851028245
 30
0.0
 41
100.0
 42
100.0
 43
100.0
 50
180.0
  0
INSERT
  5
1B417
330
1ACCB
100
AcDbEntity
  8
寸法
 62
     0
 48
50.0
370
    -2
100
AcDbBlockReference
  2
_DOTSMALL
 10
1910.137356965275
 20
5055.914851028245
 30
0.0
 41
100.0
 42
100.0
 43
100.0
  0
MTEXT
  5
1B418
330
1ACCB
100
AcDbEntity
  8
寸法
 62
     7
 48
50.0
100
AcDbMText
 10
1596.652075591028
 20
5155.914851028246
 30
0.0
 40
120.0
 41
0.0
 71
     5
 72
     1
  1
\A1;50
  7
STYLE1
 73
     1
 44
1.0
1001
ACAD
1000
MTEXTBEGIN
1070
    73
1070
     1
1070
    44
1040
1.0
1070
    74
1070
     0
1000
MTEXTEND
  0
POINT
  5
1B419
330
1ACCB
100
AcDbEntity
  8
DEFPOINTS
 62
     0
 48
50.0
100
AcDbPoint
 10
1960.137356965275
 20
4656.821681688779
 30
0.0
  0
POINT
  5
1B41A
330
1ACCB
100
AcDbEntity
  8
DEFPOINTS
 62
     0
 48
50.0
100
AcDbPoint
 10
1910.137356965275
 20
4656.821681688777
 30
0.0
  0
POINT
  5
1B41B
330
1ACCB
100
AcDbEntity
  8
DEFPOINTS
 62
     0
 48
50.0
100
AcDbPoint
 10
1910.137356965275
 20
5055.914851028245
 30
0.0
  0
ENDBLK
  5
1ACD8
330
1ACCB
100
AcDbEntity
  8
0
 48
50.0
100
AcDbBlockEnd
  0
BLOCK
  5
1ACE5
330
1ACD9
100
AcDbEntity
  8
0
 48
50.0
100
AcDbBlockBegin
  2
*D29
 70
     1
 10
0.0
 20
0.0
 30
0.0
  3
*D29
  1

  0
LINE
  5
1B406
330
1ACD9
100
AcDbEntity
  8
寸法
 62
     0
 48
50.0
370
    -2
100
AcDbLine
 10
9900.137356965268
 20
4676.821681688775
 30
0.0
 11
9900.137356965268
 21
5115.914851028246
 31
0.0
  0
LINE
  5
1B407
330
1ACD9
100
AcDbEntity
  8
寸法
 62
     0
 48
50.0
370
    -2
100
AcDbLine
 10
9850.137356965269
 20
4676.821681688777
 30
0.0
 11
9850.137356965269
 21
5115.914851028246
 31
0.0
  0
LINE
  5
1B408
330
1ACD9
100
AcDbEntity
  8
寸法
 62
     0
 48
50.0
370
    -2
100
AcDbLine
 10
9850.137356965269
 20
5055.914851028245
 30
0.0
 11
9750.137356965268
 21
5055.914851028245
 31
0.0
  0
LINE
  5
1B409
330
1ACD9
100
AcDbEntity
  8
寸法
 62
     0
 48
50.0
370
    -2
100
AcDbLine
 10
9900.137356965268
 20
5055.914851028245
 30
0.0
 11
10319.66988243399
 21
5055.914851028245
 31
0.0
  0
LINE
  5
1B40A
330
1ACD9
100
AcDbEntity
  8
寸法
 62
     0
 48
50.0
370
    -2
100
AcDbLine
 10
9850.137356965269
 20
5055.914851028245
 30
0.0
 11
9900.137356965268
 21
5055.914851028245
 31
0.0
  0
INSERT
  5
1B40B
330
1ACD9
100
AcDbEntity
  8
寸法
 62
     0
 48
50.0
370
    -2
100
AcDbBlockReference
  2
_DOTSMALL
 10
9850.137356965269
 20
5055.914851028245
 30
0.0
 41
100.0
 42
100.0
 43
100.0
  0
INSERT
  5
1B40C
330
1ACD9
100
AcDbEntity
  8
寸法
 62
     0
 48
50.0
370
    -2
100
AcDbBlockReference
  2
_DOTSMALL
 10
9900.137356965268
 20
5055.914851028245
 30
0.0
 41
100.0
 42
100.0
 43
100.0
 50
180.0
  0
MTEXT
  5
1B40D
330
1ACD9
100
AcDbEntity
  8
寸法
 62
     7
 48
50.0
100
AcDbMText
 10
10213.6226383395
 20
5155.914851028246
 30
0.0
 40
120.0
 41
0.0
 71
     5
 72
     1
  1
\A1;50
  7
STYLE1
 73
     1
 44
1.0
1001
ACAD
1000
MTEXTBEGIN
1070
    73
1070
     1
1070
    44
1040
1.0
1070
    74
1070
     0
1000
MTEXTEND
  0
POINT
  5
1B40E
330
1ACD9
100
AcDbEntity
  8
DEFPOINTS
 62
     0
 48
50.0
100
AcDbPoint
 10
9900.137356965268
 20
4656.821681688775
 30
0.0
  0
POINT
  5
1B40F
330
1ACD9
100
AcDbEntity
  8
DEFPOINTS
 62
     0
 48
50.0
100
AcDbPoint
 10
9850.137356965269
 20
4656.821681688777
 30
0.0
  0
POINT
  5
1B410
330
1ACD9
100
AcDbEntity
  8
DEFPOINTS
 62
     0
 48
50.0
100
AcDbPoint
 10
9850.137356965269
 20
5055.914851028245
 30
0.0
  0
ENDBLK
  5
1ACE6
330
1ACD9
100
AcDbEntity
  8
0
 48
50.0
100
AcDbBlockEnd
  0
BLOCK
  5
1ACF1
330
1ACE7
100
AcDbEntity
  8
0
 48
50.0
100
AcDbBlockBegin
  2
*D30
 70
     1
 10
0.0
 20
0.0
 30
0.0
  3
*D30
  1

  0
LINE
  5
1B3FD
330
1ACE7
100
AcDbEntity
  8
寸法
 62
     0
 48
50.0
370
    -2
100
AcDbLine
 10
1910.137356965275
 20
4676.821681688777
 30
0.0
 11
1910.137356965275
 21
5332.440950646691
 31
0.0
  0
LINE
  5
1B3FE
330
1ACE7
100
AcDbEntity
  8
寸法
 62
     0
 48
50.0
370
    -2
100
AcDbLine
 10
9900.137356965268
 20
4676.821681688775
 30
0.0
 11
9900.137356965268
 21
5332.440950646691
 31
0.0
  0
LINE
  5
1B3FF
330
1ACE7
100
AcDbEntity
  8
寸法
 62
     0
 48
50.0
370
    -2
100
AcDbLine
 10
1910.137356965275
 20
5272.440950646691
 30
0.0
 11
9900.137356965268
 21
5272.440950646691
 31
0.0
  0
INSERT
  5
1B400
330
1ACE7
100
AcDbEntity
  8
寸法
 62
     0
 48
50.0
370
    -2
100
AcDbBlockReference
  2
_DOTSMALL
 10
1910.137356965275
 20
5272.440950646691
 30
0.0
 41
100.0
 42
100.0
 43
100.0
 50
180.0
  0
INSERT
  5
1B401
330
1ACE7
100
AcDbEntity
  8
寸法
 62
     0
 48
50.0
370
    -2
100
AcDbBlockReference
  2
_DOTSMALL
 10
9900.137356965268
 20
5272.440950646691
 30
0.0
 41
100.0
 42
100.0
 43
100.0
  0
MTEXT
  5
1B402
330
1ACE7
100
AcDbEntity
  8
寸法
 62
     7
 48
50.0
100
AcDbMText
 10
5905.137356965272
 20
5372.452761670313
 30
0.0
 40
120.0
 41
0.0
 71
     5
 72
     1
  1
\A1;N X 2630+100
  7
STYLE1
 73
     1
 44
1.0
1001
ACAD
1000
MTEXTBEGIN
1070
    73
1070
     1
1070
    44
1040
1.0
1070
    74
1070
     0
1000
MTEXTEND
  0
POINT
  5
1B403
330
1ACE7
100
AcDbEntity
  8
DEFPOINTS
 62
     0
 48
50.0
100
AcDbPoint
 10
1910.137356965275
 20
4656.821681688777
 30
0.0
  0
POINT
  5
1B404
330
1ACE7
100
AcDbEntity
  8
DEFPOINTS
 62
     0
 48
50.0
100
AcDbPoint
 10
9900.137356965268
 20
4656.821681688775
 30
0.0
  0
POINT
  5
1B405
330
1ACE7
100
AcDbEntity
  8
DEFPOINTS
 62
     0
 48
50.0
100
AcDbPoint
 10
9900.137356965268
 20
5272.440950646691
 30
0.0
  0
ENDBLK
  5
1ACF2
330
1ACE7
100
AcDbEntity
  8
0
 48
50.0
100
AcDbBlockEnd
  0
BLOCK
  5
1ACFD
330
1ACF3
100
AcDbEntity
  8
0
 48
50.0
100
AcDbBlockBegin
  2
*D31
 70
     1
 10
0.0
 20
0.0
 30
0.0
  3
*D31
  1

  0
LINE
  5
1B3F4
330
1ACF3
100
AcDbEntity
  8
寸法
 62
     0
 48
50.0
370
    -2
100
AcDbLine
 10
9850.137356965269
 20
4676.821681688777
 30
0.0
 11
9850.137356965269
 21
5115.914851028246
 31
0.0
  0
LINE
  5
1B3F5
330
1ACF3
100
AcDbEntity
  8
寸法
 62
     0
 48
50.0
370
    -2
100
AcDbLine
 10
1960.137356965275
 20
4676.821681688778
 30
0.0
 11
1960.137356965275
 21
5115.914851028246
 31
0.0
  0
LINE
  5
1B3F6
330
1ACF3
100
AcDbEntity
  8
寸法
 62
     0
 48
50.0
370
    -2
100
AcDbLine
 10
9850.137356965269
 20
5055.914851028245
 30
0.0
 11
1960.137356965275
 21
5055.914851028245
 31
0.0
  0
INSERT
  5
1B3F7
330
1ACF3
100
AcDbEntity
  8
寸法
 62
     0
 48
50.0
370
    -2
100
AcDbBlockReference
  2
_DOTSMALL
 10
9850.137356965269
 20
5055.914851028245
 30
0.0
 41
100.0
 42
100.0
 43
100.0
  0
INSERT
  5
1B3F8
330
1ACF3
100
AcDbEntity
  8
寸法
 62
     0
 48
50.0
370
    -2
100
AcDbBlockReference
  2
_DOTSMALL
 10
1960.137356965275
 20
5055.914851028245
 30
0.0
 41
100.0
 42
100.0
 43
100.0
 50
180.0
  0
MTEXT
  5
1B3F9
330
1ACF3
100
AcDbEntity
  8
寸法
 62
     7
 48
50.0
100
AcDbMText
 10
5905.137356965272
 20
5155.926662051868
 30
0.0
 40
120.0
 41
0.0
 71
     5
 72
     1
  1
\A1;柱外寸法 N X 2630
  7
STYLE1
 73
     1
 44
1.0
1001
ACAD
1000
MTEXTBEGIN
1070
    73
1070
     1
1070
    44
1040
1.0
1070
    74
1070
     0
1000
MTEXTEND
  0
POINT
  5
1B3FA
330
1ACF3
100
AcDbEntity
  8
DEFPOINTS
 62
     0
 48
50.0
100
AcDbPoint
 10
9850.137356965269
 20
4656.821681688777
 30
0.0
  0
POINT
  5
1B3FB
330
1ACF3
100
AcDbEntity
  8
DEFPOINTS
 62
     0
 48
50.0
100
AcDbPoint
 10
1960.137356965275
 20
4656.821681688779
 30
0.0
  0
POINT
  5
1B3FC
330
1ACF3
100
AcDbEntity
  8
DEFPOINTS
 62
     0
 48
50.0
100
AcDbPoint
 10
1960.137356965275
 20
5055.914851028245
 30
0.0
  0
ENDBLK
  5
1ACFE
330
1ACF3
100
AcDbEntity
  8
0
 48
50.0
100
AcDbBlockEnd
  0
BLOCK
  5
1AD0A
330
1ACFF
100
AcDbEntity
  8
0
 48
50.0
100
AcDbBlockBegin
  2
*D32
 70
     1
 10
0.0
 20
0.0
 30
0.0
  3
*D32
  1

  0
LINE
  5
1B47D
330
1ACFF
100
AcDbEntity
  8
寸法
 62
     0
 48
50.0
370
    -2
100
AcDbLine
 10
11845.33902506385
 20
4656.119388758436
 30
0.0
 11
11229.40458595856
 21
4673.833539032766
 31
0.0
  0
LINE
  5
1B47E
330
1ACFF
100
AcDbEntity
  8
寸法
 62
     0
 48
50.0
370
    -2
100
AcDbLine
 10
11841.28556950722
 20
4515.177664992724
 30
0.0
 11
11225.35113040193
 21
4532.891815267054
 31
0.0
  0
LINE
  5
1B47F
330
1ACFF
100
AcDbEntity
  8
寸法
 62
     0
 48
50.0
370
    -2
100
AcDbLine
 10
11285.32633200436
 20
4531.166940562106
 30
0.0
 11
11289.37978756099
 21
4672.108664327818
 31
0.0
  0
LINE
  5
1B480
330
1ACFF
100
AcDbEntity
  8
寸法
 62
     0
 48
50.0
370
    -2
100
AcDbLine
 10
11289.37978756099
 20
4672.108664327818
 30
0.0
 11
11299.72903579067
 21
5031.959873942404
 31
0.0
  0
INSERT
  5
1B481
330
1ACFF
100
AcDbEntity
  8
寸法
 62
     0
 48
50.0
370
    -2
100
AcDbBlockReference
  2
_DOTSMALL
 10
11285.32633200436
 20
4531.166940562106
 30
0.0
 41
100.0
 42
100.0
 43
100.0
 50
268.3526390256378
  0
INSERT
  5
1B482
330
1ACFF
100
AcDbEntity
  8
寸法
 62
     0
 48
50.0
370
    -2
100
AcDbBlockReference
  2
_DOTSMALL
 10
11289.37978756099
 20
4672.108664327818
 30
0.0
 41
100.0
 42
100.0
 43
100.0
 50
88.35263902563776
  0
MTEXT
  5
1B483
330
1ACFF
100
AcDbEntity
  8
寸法
 62
     7
 48
50.0
100
AcDbMText
 10
11196.0331379259
 20
4904.888394978716
 30
0.0
 40
120.0
 41
0.0
 71
     5
 72
     1
  1
\A1;141
  7
STYLE1
 11
0.0287479117491237
 21
0.9995866933738488
 31
0.0
 73
     1
 44
1.0
1001
ACAD
1000
MTEXTBEGIN
1070
    73
1070
     1
1070
    44
1040
1.0
1070
    74
1070
     0
1000
MTEXTEND
  0
POINT
  5
1B484
330
1ACFF
100
AcDbEntity
  8
DEFPOINTS
 62
     0
 48
50.0
100
AcDbPoint
 10
11865.33075893133
 20
4655.544430523455
 30
0.0
  0
POINT
  5
1B485
330
1ACFF
100
AcDbEntity
  8
DEFPOINTS
 62
     0
 48
50.0
100
AcDbPoint
 10
11861.2773033747
 20
4514.602706757741
 30
0.0
  0
POINT
  5
1B486
330
1ACFF
100
AcDbEntity
  8
DEFPOINTS
 62
     0
 48
50.0
100
AcDbPoint
 10
11285.32633200436
 20
4531.166940562106
 30
0.0
  0
ENDBLK
  5
1AD0B
330
1ACFF
100
AcDbEntity
  8
0
 48
50.0
100
AcDbBlockEnd
  0
BLOCK
  5
1AD17
330
1AD0C
100
AcDbEntity
  8
0
 48
50.0
100
AcDbBlockBegin
  2
*D33
 70
     1
 10
0.0
 20
0.0
 30
0.0
  3
*D33
  1

  0
LINE
  5
1B473
330
1AD0C
100
AcDbEntity
  8
寸法
 62
     0
 48
50.0
370
    -2
100
AcDbLine
 10
14535.93473877275
 20
4623.632361300428
 30
0.0
 11
14535.93473877275
 21
5115.47913526808
 31
0.0
  0
LINE
  5
1B474
330
1AD0C
100
AcDbEntity
  8
寸法
 62
     0
 48
50.0
370
    -2
100
AcDbLine
 10
14615.93473877275
 20
4621.821681688776
 30
0.0
 11
14615.93473877275
 21
5115.47913526808
 31
0.0
  0
LINE
  5
1B475
330
1AD0C
100
AcDbEntity
  8
寸法
 62
     0
 48
50.0
370
    -2
100
AcDbLine
 10
14535.93473877275
 20
5055.479135268081
 30
0.0
 11
14615.93473877275
 21
5055.479135268081
 31
0.0
  0
LINE
  5
1B476
330
1AD0C
100
AcDbEntity
  8
寸法
 62
     0
 48
50.0
370
    -2
100
AcDbLine
 10
14615.93473877275
 20
5055.479135268081
 30
0.0
 11
14928.02922696172
 21
5055.479135268081
 31
0.0
  0
INSERT
  5
1B477
330
1AD0C
100
AcDbEntity
  8
寸法
 62
     0
 48
50.0
370
    -2
100
AcDbBlockReference
  2
_DOTSMALL
 10
14535.93473877275
 20
5055.479135268081
 30
0.0
 41
100.0
 42
100.0
 43
100.0
 50
180.0
  0
INSERT
  5
1B478
330
1AD0C
100
AcDbEntity
  8
寸法
 62
     0
 48
50.0
370
    -2
100
AcDbBlockReference
  2
_DOTSMALL
 10
14615.93473877275
 20
5055.479135268081
 30
0.0
 41
100.0
 42
100.0
 43
100.0
  0
MTEXT
  5
1B479
330
1AD0C
100
AcDbEntity
  8
寸法
 62
     7
 48
50.0
100
AcDbMText
 10
14821.98198286724
 20
5155.47913526808
 30
0.0
 40
120.0
 41
0.0
 71
     5
 72
     1
  1
\A1;80
  7
STYLE1
 73
     1
 44
1.0
1001
ACAD
1000
MTEXTBEGIN
1070
    73
1070
     1
1070
    44
1040
1.0
1070
    74
1070
     0
1000
MTEXTEND
  0
POINT
  5
1B47A
330
1AD0C
100
AcDbEntity
  8
DEFPOINTS
 62
     0
 48
50.0
100
AcDbPoint
 10
14535.93473877275
 20
4603.632361300427
 30
0.0
  0
POINT
  5
1B47B
330
1AD0C
100
AcDbEntity
  8
DEFPOINTS
 62
     0
 48
50.0
100
AcDbPoint
 10
14615.93473877275
 20
4601.821681688776
 30
0.0
  0
POINT
  5
1B47C
330
1AD0C
100
AcDbEntity
  8
DEFPOINTS
 62
     0
 48
50.0
100
AcDbPoint
 10
14615.93473877275
 20
5055.479135268081
 30
0.0
  0
ENDBLK
  5
1AD18
330
1AD0C
100
AcDbEntity
  8
0
 48
50.0
100
AcDbBlockEnd
  0
BLOCK
  5
1AD23
330
1AD19
100
AcDbEntity
  8
0
 48
50.0
100
AcDbBlockBegin
  2
*D34
 70
     1
 10
0.0
 20
0.0
 30
0.0
  3
*D34
  1

  0
LINE
  5
1C290
330
1AD19
100
AcDbEntity
  8
寸法
 62
     0
 48
50.0
370
    -2
100
AcDbLine
 10
14615.93473877275
 20
4621.821681688776
 30
0.0
 11
14615.93473877275
 21
5335.689821999697
 31
0.0
  0
LINE
  5
1C291
330
1AD19
100
AcDbEntity
  8
寸法
 62
     0
 48
50.0
370
    -2
100
AcDbLine
 10
11845.93473877275
 20
4676.82168168878
 30
0.0
 11
11845.93473877275
 21
5335.689821999697
 31
0.0
  0
LINE
  5
1C292
330
1AD19
100
AcDbEntity
  8
寸法
 62
     0
 48
50.0
370
    -2
100
AcDbLine
 10
14615.93473877275
 20
5275.689821999697
 30
0.0
 11
11845.93473877275
 21
5275.689821999697
 31
0.0
  0
INSERT
  5
1C293
330
1AD19
100
AcDbEntity
  8
寸法
 62
     0
 48
50.0
370
    -2
100
AcDbBlockReference
  2
_DOTSMALL
 10
14615.93473877275
 20
5275.689821999697
 30
0.0
 41
100.0
 42
100.0
 43
100.0
  0
INSERT
  5
1C294
330
1AD19
100
AcDbEntity
  8
寸法
 62
     0
 48
50.0
370
    -2
100
AcDbBlockReference
  2
_DOTSMALL
 10
11845.93473877275
 20
5275.689821999697
 30
0.0
 41
100.0
 42
100.0
 43
100.0
 50
180.0
  0
MTEXT
  5
1C295
330
1AD19
100
AcDbEntity
  8
寸法
 62
     7
 48
50.0
100
AcDbMText
 10
13230.93473877275
 20
5375.701633023318
 30
0.0
 40
120.0
 41
0.0
 71
     5
 72
     1
  1
\A1;2770
  7
STYLE1
 73
     1
 44
1.0
1001
ACAD
1000
MTEXTBEGIN
1070
    73
1070
     1
1070
    44
1040
1.0
1070
    74
1070
     0
1000
MTEXTEND
  0
POINT
  5
1C296
330
1AD19
100
AcDbEntity
  8
DEFPOINTS
 62
     0
 48
50.0
100
AcDbPoint
 10
14615.93473877275
 20
4601.821681688776
 30
0.0
  0
POINT
  5
1C297
330
1AD19
100
AcDbEntity
  8
DEFPOINTS
 62
     0
 48
50.0
100
AcDbPoint
 10
11845.93473877275
 20
4656.821681688779
 30
0.0
  0
POINT
  5
1C298
330
1AD19
100
AcDbEntity
  8
DEFPOINTS
 62
     0
 48
50.0
100
AcDbPoint
 10
11845.93473877275
 20
5275.689821999697
 30
0.0
  0
ENDBLK
  5
1AD24
330
1AD19
100
AcDbEntity
  8
0
 48
50.0
100
AcDbBlockEnd
  0
BLOCK
  5
1AD31
330
1AD25
100
AcDbEntity
  8
0
 48
50.0
100
AcDbBlockBegin
  2
*D35
 70
     1
 10
0.0
 20
0.0
 30
0.0
  3
*D35
  1

  0
LINE
  5
1B45F
330
1AD25
100
AcDbEntity
  8
寸法
 62
     0
 48
50.0
370
    -2
100
AcDbLine
 10
11905.93473877275
 20
4672.823299811751
 30
0.0
 11
11905.93473877275
 21
5115.479135268079
 31
0.0
  0
LINE
  5
1B460
330
1AD25
100
AcDbEntity
  8
寸法
 62
     0
 48
50.0
370
    -2
100
AcDbLine
 10
11845.93473877275
 20
4676.82168168878
 30
0.0
 11
11845.93473877275
 21
5115.479135268079
 31
0.0
  0
LINE
  5
1B461
330
1AD25
100
AcDbEntity
  8
寸法
 62
     0
 48
50.0
370
    -2
100
AcDbLine
 10
11905.93473877275
 20
5055.479135268079
 30
0.0
 11
12005.93473877275
 21
5055.479135268079
 31
0.0
  0
LINE
  5
1B462
330
1AD25
100
AcDbEntity
  8
寸法
 62
     0
 48
50.0
370
    -2
100
AcDbLine
 10
11845.93473877275
 20
5055.479135268079
 30
0.0
 11
11426.65914822156
 21
5055.479135268079
 31
0.0
  0
LINE
  5
1B463
330
1AD25
100
AcDbEntity
  8
寸法
 62
     0
 48
50.0
370
    -2
100
AcDbLine
 10
11905.93473877275
 20
5055.479135268079
 30
0.0
 11
11845.93473877275
 21
5055.479135268079
 31
0.0
  0
INSERT
  5
1B464
330
1AD25
100
AcDbEntity
  8
寸法
 62
     0
 48
50.0
370
    -2
100
AcDbBlockReference
  2
_DOTSMALL
 10
11905.93473877275
 20
5055.479135268079
 30
0.0
 41
100.0
 42
100.0
 43
100.0
 50
180.0
  0
INSERT
  5
1B465
330
1AD25
100
AcDbEntity
  8
寸法
 62
     0
 48
50.0
370
    -2
100
AcDbBlockReference
  2
_DOTSMALL
 10
11845.93473877275
 20
5055.479135268079
 30
0.0
 41
100.0
 42
100.0
 43
100.0
  0
MTEXT
  5
1B466
330
1AD25
100
AcDbEntity
  8
寸法
 62
     7
 48
50.0
100
AcDbMText
 10
11536.29694349715
 20
5155.479135268079
 30
0.0
 40
120.0
 41
0.0
 71
     5
 72
     1
  1
\A1;60
  7
STYLE1
 73
     1
 44
1.0
1001
ACAD
1000
MTEXTBEGIN
1070
    73
1070
     1
1070
    44
1040
1.0
1070
    74
1070
     0
1000
MTEXTEND
  0
POINT
  5
1B467
330
1AD25
100
AcDbEntity
  8
DEFPOINTS
 62
     0
 48
50.0
100
AcDbPoint
 10
11905.93473877275
 20
4652.823299811751
 30
0.0
  0
POINT
  5
1B468
330
1AD25
100
AcDbEntity
  8
DEFPOINTS
 62
     0
 48
50.0
100
AcDbPoint
 10
11845.93473877275
 20
4656.821681688779
 30
0.0
  0
POINT
  5
1B469
330
1AD25
100
AcDbEntity
  8
DEFPOINTS
 62
     0
 48
50.0
100
AcDbPoint
 10
11845.93473877275
 20
5055.479135268079
 30
0.0
  0
ENDBLK
  5
1AD32
330
1AD25
100
AcDbEntity
  8
0
 48
50.0
100
AcDbBlockEnd
  0
BLOCK
  5
1AD3D
330
1AD33
100
AcDbEntity
  8
0
 48
50.0
100
AcDbBlockBegin
  2
*D36
 70
     1
 10
0.0
 20
0.0
 30
0.0
  3
*D36
  1

  0
LINE
  5
1C299
330
1AD33
100
AcDbEntity
  8
寸法
 62
     0
 48
50.0
370
    -2
100
AcDbLine
 10
14535.93473877275
 20
4623.632361300428
 30
0.0
 11
14535.93473877275
 21
5115.47913526808
 31
0.0
  0
LINE
  5
1C29A
330
1AD33
100
AcDbEntity
  8
寸法
 62
     0
 48
50.0
370
    -2
100
AcDbLine
 10
11905.93473877275
 20
4672.823299811751
 30
0.0
 11
11905.93473877275
 21
5115.47913526808
 31
0.0
  0
LINE
  5
1C29B
330
1AD33
100
AcDbEntity
  8
寸法
 62
     0
 48
50.0
370
    -2
100
AcDbLine
 10
14535.93473877275
 20
5055.479135268081
 30
0.0
 11
11905.93473877275
 21
5055.479135268081
 31
0.0
  0
INSERT
  5
1C29C
330
1AD33
100
AcDbEntity
  8
寸法
 62
     0
 48
50.0
370
    -2
100
AcDbBlockReference
  2
_DOTSMALL
 10
14535.93473877275
 20
5055.479135268081
 30
0.0
 41
100.0
 42
100.0
 43
100.0
  0
INSERT
  5
1C29D
330
1AD33
100
AcDbEntity
  8
寸法
 62
     0
 48
50.0
370
    -2
100
AcDbBlockReference
  2
_DOTSMALL
 10
11905.93473877275
 20
5055.479135268081
 30
0.0
 41
100.0
 42
100.0
 43
100.0
 50
180.0
  0
MTEXT
  5
1C29E
330
1AD33
100
AcDbEntity
  8
寸法
 62
     7
 48
50.0
100
AcDbMText
 10
13220.93473877275
 20
5155.490946291703
 30
0.0
 40
120.0
 41
0.0
 71
     5
 72
     1
  1
\A1;柱外寸法2630
  7
STYLE1
 73
     1
 44
1.0
1001
ACAD
1000
MTEXTBEGIN
1070
    73
1070
     1
1070
    44
1040
1.0
1070
    74
1070
     0
1000
MTEXTEND
  0
POINT
  5
1C29F
330
1AD33
100
AcDbEntity
  8
DEFPOINTS
 62
     0
 48
50.0
100
AcDbPoint
 10
14535.93473877275
 20
4603.632361300427
 30
0.0
  0
POINT
  5
1C2A0
330
1AD33
100
AcDbEntity
  8
DEFPOINTS
 62
     0
 48
50.0
100
AcDbPoint
 10
11905.93473877275
 20
4652.823299811751
 30
0.0
  0
POINT
  5
1C2A1
330
1AD33
100
AcDbEntity
  8
DEFPOINTS
 62
     0
 48
50.0
100
AcDbPoint
 10
11905.93473877275
 20
5055.479135268081
 30
0.0
  0
ENDBLK
  5
1AD3E
330
1AD33
100
AcDbEntity
  8
0
 48
50.0
100
AcDbBlockEnd
  0
BLOCK
  5
1AD49
330
1AD3F
100
AcDbEntity
  8
0
 48
50.0
100
AcDbBlockBegin
  2
*D37
 70
     1
 10
0.0
 20
0.0
 30
0.0
  3
*D37
  1

  0
LINE
  5
1B492
330
1AD3F
100
AcDbEntity
  8
寸法
 62
     0
 48
50.0
370
    -2
100
AcDbLine
 10
11885.93473877275
 20
2281.821681688775
 30
0.0
 11
10702.18460958949
 21
2281.821681688775
 31
0.0
  0
LINE
  5
1B493
330
1AD3F
100
AcDbEntity
  8
寸法
 62
     0
 48
50.0
370
    -2
100
AcDbLine
 10
11750.93473877275
 20
4656.821681688778
 30
0.0
 11
10702.18460958949
 21
4656.821681688778
 31
0.0
  0
LINE
  5
1B494
330
1AD3F
100
AcDbEntity
  8
寸法
 62
     0
 48
50.0
370
    -2
100
AcDbLine
 10
10762.18460958949
 20
2281.821681688775
 30
0.0
 11
10762.18460958949
 21
4656.821681688778
 31
0.0
  0
INSERT
  5
1B495
330
1AD3F
100
AcDbEntity
  8
寸法
 62
     0
 48
50.0
370
    -2
100
AcDbBlockReference
  2
_DOTSMALL
 10
10762.18460958949
 20
2281.821681688775
 30
0.0
 41
100.0
 42
100.0
 43
100.0
 50
270.0
  0
INSERT
  5
1B496
330
1AD3F
100
AcDbEntity
  8
寸法
 62
     0
 48
50.0
370
    -2
100
AcDbBlockReference
  2
_DOTSMALL
 10
10762.18460958949
 20
4656.821681688778
 30
0.0
 41
100.0
 42
100.0
 43
100.0
 50
90.0
  0
MTEXT
  5
1B497
330
1AD3F
100
AcDbEntity
  8
寸法
 62
     7
 48
50.0
100
AcDbMText
 10
10662.17279856586
 20
3469.321681688779
 30
0.0
 40
120.0
 41
0.0
 71
     5
 72
     1
  1
\A1;2375
  7
STYLE1
 11
0.0000000000000001
 21
1.0
 31
0.0
 73
     1
 44
1.0
1001
ACAD
1000
MTEXTBEGIN
1070
    73
1070
     1
1070
    44
1040
1.0
1070
    74
1070
     0
1000
MTEXTEND
  0
POINT
  5
1B498
330
1AD3F
100
AcDbEntity
  8
DEFPOINTS
 62
     0
 48
50.0
100
AcDbPoint
 10
11905.93473877275
 20
2281.821681688775
 30
0.0
  0
POINT
  5
1B499
330
1AD3F
100
AcDbEntity
  8
DEFPOINTS
 62
     0
 48
50.0
100
AcDbPoint
 10
11770.93473877275
 20
4656.821681688778
 30
0.0
  0
POINT
  5
1B49A
330
1AD3F
100
AcDbEntity
  8
DEFPOINTS
 62
     0
 48
50.0
100
AcDbPoint
 10
10762.18460958949
 20
4656.821681688778
 30
0.0
  0
ENDBLK
  5
1AD4A
330
1AD3F
100
AcDbEntity
  8
0
 48
50.0
100
AcDbBlockEnd
  0
BLOCK
  5
1AD55
330
1AD4B
100
AcDbEntity
  8
0
 48
50.0
100
AcDbBlockBegin
  2
*D38
 70
     1
 10
0.0
 20
0.0
 30
0.0
  3
*D38
  1

  0
LINE
  5
1B444
330
1AD4B
100
AcDbEntity
  8
寸法
 62
     0
 48
50.0
370
    -2
100
AcDbLine
 10
11885.93473877275
 20
4421.821681688775
 30
0.0
 11
11002.18460958949
 21
4421.821681688775
 31
0.0
  0
LINE
  5
1B445
330
1AD4B
100
AcDbEntity
  8
寸法
 62
     0
 48
50.0
370
    -2
100
AcDbLine
 10
11885.93473877275
 20
2331.821681688774
 30
0.0
 11
11002.18460958949
 21
2331.821681688775
 31
0.0
  0
LINE
  5
1B446
330
1AD4B
100
AcDbEntity
  8
寸法
 62
     0
 48
50.0
370
    -2
100
AcDbLine
 10
11062.18460958949
 20
4421.821681688775
 30
0.0
 11
11062.18460958949
 21
2331.821681688775
 31
0.0
  0
INSERT
  5
1B447
330
1AD4B
100
AcDbEntity
  8
寸法
 62
     0
 48
50.0
370
    -2
100
AcDbBlockReference
  2
_DOTSMALL
 10
11062.18460958949
 20
4421.821681688775
 30
0.0
 41
100.0
 42
100.0
 43
100.0
 50
90.0
  0
INSERT
  5
1B448
330
1AD4B
100
AcDbEntity
  8
寸法
 62
     0
 48
50.0
370
    -2
100
AcDbBlockReference
  2
_DOTSMALL
 10
11062.18460958949
 20
2331.821681688775
 30
0.0
 41
100.0
 42
100.0
 43
100.0
 50
270.0
  0
MTEXT
  5
1B449
330
1AD4B
100
AcDbEntity
  8
寸法
 62
     7
 48
50.0
100
AcDbMText
 10
10962.17279856587
 20
3376.821681688777
 30
0.0
 40
120.0
 41
0.0
 71
     5
 72
     1
  1
\A1;2090
  7
STYLE1
 11
0.0000000000000001
 21
1.0
 31
0.0
 73
     1
 44
1.0
1001
ACAD
1000
MTEXTBEGIN
1070
    73
1070
     1
1070
    44
1040
1.0
1070
    74
1070
     0
1000
MTEXTEND
  0
POINT
  5
1B44A
330
1AD4B
100
AcDbEntity
  8
DEFPOINTS
 62
     0
 48
50.0
100
AcDbPoint
 10
11905.93473877275
 20
4421.821681688775
 30
0.0
  0
POINT
  5
1B44B
330
1AD4B
100
AcDbEntity
  8
DEFPOINTS
 62
     0
 48
50.0
100
AcDbPoint
 10
11905.93473877275
 20
2331.821681688774
 30
0.0
  0
POINT
  5
1B44C
330
1AD4B
100
AcDbEntity
  8
DEFPOINTS
 62
     0
 48
50.0
100
AcDbPoint
 10
11062.18460958949
 20
2331.821681688775
 30
0.0
  0
ENDBLK
  5
1AD56
330
1AD4B
100
AcDbEntity
  8
0
 48
50.0
100
AcDbBlockEnd
  0
BLOCK
  5
1AD7D
330
1AD71
100
AcDbEntity
  8
0
 48
50.0
100
AcDbBlockBegin
  2
*D39
 70
     1
 10
0.0
 20
0.0
 30
0.0
  3
*D39
  1

  0
LINE
  5
1B430
330
1AD71
100
AcDbEntity
  8
寸法
 62
     0
 48
50.0
370
    -2
100
AcDbLine
 10
11885.93473877275
 20
2331.821681688774
 30
0.0
 11
11002.18460958949
 21
2331.821681688775
 31
0.0
  0
LINE
  5
1B431
330
1AD71
100
AcDbEntity
  8
寸法
 62
     0
 48
50.0
370
    -2
100
AcDbLine
 10
11830.93473877275
 20
2281.821681688775
 30
0.0
 11
11002.18460958949
 21
2281.821681688775
 31
0.0
  0
LINE
  5
1B432
330
1AD71
100
AcDbEntity
  8
寸法
 62
     0
 48
50.0
370
    -2
100
AcDbLine
 10
11062.18460958949
 20
2331.821681688775
 30
0.0
 11
11062.18460958949
 21
2431.821681688775
 31
0.0
  0
LINE
  5
1B433
330
1AD71
100
AcDbEntity
  8
寸法
 62
     0
 48
50.0
370
    -2
100
AcDbLine
 10
11062.18460958949
 20
2281.821681688775
 30
0.0
 11
11062.18460958949
 21
1792.024437594284
 31
0.0
  0
LINE
  5
1B434
330
1AD71
100
AcDbEntity
  8
寸法
 62
     0
 48
50.0
370
    -2
100
AcDbLine
 10
11062.18460958949
 20
2331.821681688775
 30
0.0
 11
11062.18460958949
 21
2281.821681688775
 31
0.0
  0
INSERT
  5
1B435
330
1AD71
100
AcDbEntity
  8
寸法
 62
     0
 48
50.0
370
    -2
100
AcDbBlockReference
  2
_DOTSMALL
 10
11062.18460958949
 20
2331.821681688775
 30
0.0
 41
100.0
 42
100.0
 43
100.0
 50
270.0
  0
INSERT
  5
1B436
330
1AD71
100
AcDbEntity
  8
寸法
 62
     0
 48
50.0
370
    -2
100
AcDbBlockReference
  2
_DOTSMALL
 10
11062.18460958949
 20
2281.821681688775
 30
0.0
 41
100.0
 42
100.0
 43
100.0
 50
90.0
  0
MTEXT
  5
1B437
330
1AD71
100
AcDbEntity
  8
寸法
 62
     7
 48
50.0
100
AcDbMText
 10
10962.18460958949
 20
1898.071681688774
 30
0.0
 40
120.0
 41
0.0
 71
     5
 72
     1
  1
\A1;50
  7
STYLE1
 11
0.0000000000000001
 21
1.0
 31
0.0
 73
     1
 44
1.0
1001
ACAD
1000
MTEXTBEGIN
1070
    73
1070
     1
1070
    44
1040
1.0
1070
    74
1070
     0
1000
MTEXTEND
  0
POINT
  5
1B438
330
1AD71
100
AcDbEntity
  8
DEFPOINTS
 62
     0
 48
50.0
100
AcDbPoint
 10
11905.93473877275
 20
2331.821681688774
 30
0.0
  0
POINT
  5
1B439
330
1AD71
100
AcDbEntity
  8
DEFPOINTS
 62
     0
 48
50.0
100
AcDbPoint
 10
11850.93473877275
 20
2281.821681688775
 30
0.0
  0
POINT
  5
1B43A
330
1AD71
100
AcDbEntity
  8
DEFPOINTS
 62
     0
 48
50.0
100
AcDbPoint
 10
11062.18460958949
 20
2281.821681688775
 30
0.0
  0
ENDBLK
  5
1AD7E
330
1AD71
100
AcDbEntity
  8
0
 48
50.0
100
AcDbBlockEnd
  0
BLOCK
  5
1ADA2
330
1AD98
100
AcDbEntity
  8
0
 48
50.0
100
AcDbBlockBegin
  2
*D40
 70
     1
 10
0.0
 20
0.0
 30
0.0
  3
*D40
  1

  0
LINE
  5
1B44D
330
1AD98
100
AcDbEntity
  8
寸法
 62
     0
 48
50.0
370
    -2
100
AcDbLine
 10
14555.93473877275
 20
2281.821681688775
 30
0.0
 11
15300.86189674487
 21
2281.821681688775
 31
0.0
  0
LINE
  5
1B44E
330
1AD98
100
AcDbEntity
  8
寸法
 62
     0
 48
50.0
370
    -2
100
AcDbLine
 10
14650.93473877274
 20
4601.821681688774
 30
0.0
 11
15300.86189674487
 21
4601.821681688774
 31
0.0
  0
LINE
  5
1B44F
330
1AD98
100
AcDbEntity
  8
寸法
 62
     0
 48
50.0
370
    -2
100
AcDbLine
 10
15240.86189674487
 20
2281.821681688775
 30
0.0
 11
15240.86189674487
 21
4601.821681688774
 31
0.0
  0
INSERT
  5
1B450
330
1AD98
100
AcDbEntity
  8
寸法
 62
     0
 48
50.0
370
    -2
100
AcDbBlockReference
  2
_DOTSMALL
 10
15240.86189674487
 20
2281.821681688775
 30
0.0
 41
100.0
 42
100.0
 43
100.0
 50
270.0
  0
INSERT
  5
1B451
330
1AD98
100
AcDbEntity
  8
寸法
 62
     0
 48
50.0
370
    -2
100
AcDbBlockReference
  2
_DOTSMALL
 10
15240.86189674487
 20
4601.821681688774
 30
0.0
 41
100.0
 42
100.0
 43
100.0
 50
90.0
  0
MTEXT
  5
1B452
330
1AD98
100
AcDbEntity
  8
寸法
 62
     7
 48
50.0
100
AcDbMText
 10
15140.85008572125
 20
3436.821681688775
 30
0.0
 40
120.0
 41
0.0
 71
     5
 72
     1
  1
\A1;2320
  7
STYLE1
 11
0.0000000000000001
 21
1.0
 31
0.0
 73
     1
 44
1.0
1001
ACAD
1000
MTEXTBEGIN
1070
    73
1070
     1
1070
    44
1040
1.0
1070
    74
1070
     0
1000
MTEXTEND
  0
POINT
  5
1B453
330
1AD98
100
AcDbEntity
  8
DEFPOINTS
 62
     0
 48
50.0
100
AcDbPoint
 10
14535.93473877275
 20
2281.821681688775
 30
0.0
  0
POINT
  5
1B454
330
1AD98
100
AcDbEntity
  8
DEFPOINTS
 62
     0
 48
50.0
100
AcDbPoint
 10
14630.93473877274
 20
4601.821681688774
 30
0.0
  0
POINT
  5
1B455
330
1AD98
100
AcDbEntity
  8
DEFPOINTS
 62
     0
 48
50.0
100
AcDbPoint
 10
15240.86189674487
 20
4601.821681688774
 30
0.0
  0
ENDBLK
  5
1ADA3
330
1AD98
100
AcDbEntity
  8
0
 48
50.0
100
AcDbBlockEnd
  0
BLOCK
  5
1B9F5
330
1B9EB
100
AcDbEntity
  8
0
 48
50.0
100
AcDbBlockBegin
  2
*D41
 70
     1
 10
0.0
 20
0.0
 30
0.0
  3
*D41
  1

  0
LINE
  5
1BB3A
330
1B9EB
100
AcDbEntity
  8
寸法
 62
     0
 48
50.0
370
    -2
100
AcDbLine
 10
8543.278373116638
 20
9580.652997165733
 30
0.0
 11
8440.536559158038
 21
9197.215327410457
 31
0.0
  0
LINE
  5
1BB3B
330
1B9EB
100
AcDbEntity
  8
寸法
 62
     0
 48
50.0
370
    -2
100
AcDbLine
 10
9816.27837311665
 20
9580.652997165726
 30
0.0
 11
9713.536559158052
 21
9197.215327410457
 31
0.0
  0
LINE
  5
1BB3C
330
1B9EB
100
AcDbEntity
  8
寸法
 62
     0
 48
50.0
370
    -2
100
AcDbLine
 10
8456.613510703906
 20
9257.215327410456
 30
0.0
 11
9729.61351070392
 21
9257.215327410456
 31
0.0
  0
INSERT
  5
1BB3D
330
1B9EB
100
AcDbEntity
  8
寸法
 62
     0
 48
50.0
370
    -2
100
AcDbBlockReference
  2
_DOTSMALL
 10
8456.613510703906
 20
9257.215327410456
 30
0.0
 41
100.0
 42
100.0
 43
100.0
 50
180.0
  0
INSERT
  5
1BB3E
330
1B9EB
100
AcDbEntity
  8
寸法
 62
     0
 48
50.0
370
    -2
100
AcDbBlockReference
  2
_DOTSMALL
 10
9729.61351070392
 20
9257.215327410456
 30
0.0
 41
100.0
 42
100.0
 43
100.0
  0
MTEXT
  5
1BB3F
330
1B9EB
100
AcDbEntity
  8
寸法
 62
     7
 48
50.0
100
AcDbMText
 10
9139.622672703556
 20
9357.227138434078
 30
0.0
 40
120.0
 41
0.0
 71
     5
 72
     1
  1
\A1;1273
  7
STYLE1
 73
     1
 44
1.0
1001
ACAD
1000
MTEXTBEGIN
1070
    73
1070
     1
1070
    44
1040
1.0
1070
    74
1070
     0
1000
MTEXTEND
  0
POINT
  5
1BB40
330
1B9EB
100
AcDbEntity
  8
DEFPOINTS
 62
     0
 48
50.0
100
AcDbPoint
 10
8548.637356965262
 20
9600.652997165733
 30
0.0
  0
POINT
  5
1BB41
330
1B9EB
100
AcDbEntity
  8
DEFPOINTS
 62
     0
 48
50.0
100
AcDbPoint
 10
9821.637356965272
 20
9600.652997165726
 30
0.0
  0
POINT
  5
1BB42
330
1B9EB
100
AcDbEntity
  8
DEFPOINTS
 62
     0
 48
50.0
100
AcDbPoint
 10
9729.61351070392
 20
9257.215327410456
 30
0.0
  0
ENDBLK
  5
1B9F6
330
1B9EB
100
AcDbEntity
  8
0
 48
50.0
100
AcDbBlockEnd
  0
BLOCK
  5
1BA50
330
1BA46
100
AcDbEntity
  8
0
 48
50.0
100
AcDbBlockBegin
  2
*D42
 70
     1
 10
0.0
 20
0.0
 30
0.0
  3
*D42
  1

  0
LINE
  5
1BB31
330
1BA46
100
AcDbEntity
  8
寸法
 62
     0
 48
50.0
370
    -2
100
AcDbLine
 10
7243.278373116638
 20
9580.652997165627
 30
0.0
 11
7140.536559158068
 21
9197.215327410457
 31
0.0
  0
LINE
  5
1BB32
330
1BA46
100
AcDbEntity
  8
寸法
 62
     0
 48
50.0
370
    -2
100
AcDbLine
 10
8516.27837311665
 20
9580.65299716562
 30
0.0
 11
8413.53655915808
 21
9197.215327410457
 31
0.0
  0
LINE
  5
1BB33
330
1BA46
100
AcDbEntity
  8
寸法
 62
     0
 48
50.0
370
    -2
100
AcDbLine
 10
7156.613510703936
 20
9257.215327410456
 30
0.0
 11
8429.61351070395
 21
9257.215327410456
 31
0.0
  0
INSERT
  5
1BB34
330
1BA46
100
AcDbEntity
  8
寸法
 62
     0
 48
50.0
370
    -2
100
AcDbBlockReference
  2
_DOTSMALL
 10
7156.613510703936
 20
9257.215327410456
 30
0.0
 41
100.0
 42
100.0
 43
100.0
 50
180.0
  0
INSERT
  5
1BB35
330
1BA46
100
AcDbEntity
  8
寸法
 62
     0
 48
50.0
370
    -2
100
AcDbBlockReference
  2
_DOTSMALL
 10
8429.61351070395
 20
9257.215327410456
 30
0.0
 41
100.0
 42
100.0
 43
100.0
  0
MTEXT
  5
1BB36
330
1BA46
100
AcDbEntity
  8
寸法
 62
     7
 48
50.0
100
AcDbMText
 10
7793.113510703943
 20
9357.227138434078
 30
0.0
 40
120.0
 41
0.0
 71
     5
 72
     1
  1
\A1;1273
  7
STYLE1
 73
     1
 44
1.0
1001
ACAD
1000
MTEXTBEGIN
1070
    73
1070
     1
1070
    44
1040
1.0
1070
    74
1070
     0
1000
MTEXTEND
  0
POINT
  5
1BB37
330
1BA46
100
AcDbEntity
  8
DEFPOINTS
 62
     0
 48
50.0
100
AcDbPoint
 10
7248.637356965261
 20
9600.652997165628
 30
0.0
  0
POINT
  5
1BB38
330
1BA46
100
AcDbEntity
  8
DEFPOINTS
 62
     0
 48
50.0
100
AcDbPoint
 10
8521.637356965271
 20
9600.652997165621
 30
0.0
  0
POINT
  5
1BB39
330
1BA46
100
AcDbEntity
  8
DEFPOINTS
 62
     0
 48
50.0
100
AcDbPoint
 10
8429.61351070395
 20
9257.215327410456
 30
0.0
  0
ENDBLK
  5
1BA51
330
1BA46
100
AcDbEntity
  8
0
 48
50.0
100
AcDbBlockEnd
  0
BLOCK
  5
1BD77
330
1BD6D
100
AcDbEntity
  8
0
 48
50.0
100
AcDbBlockBegin
  2
*D43
 70
     1
 10
0.0
 20
0.0
 30
0.0
  3
*D43
  1

  0
LINE
  5
1BE38
330
1BD6D
100
AcDbEntity
  8
寸法
 62
     0
 48
50.0
370
    -2
100
AcDbLine
 10
9870.137356965271
 20
2343.821681688773
 30
0.0
 11
10197.68045928701
 21
2343.821681688773
 31
0.0
  0
LINE
  5
1BE39
330
1BD6D
100
AcDbEntity
  8
寸法
 62
     0
 48
50.0
370
    -2
100
AcDbLine
 10
9870.137356965273
 20
4229.821681688771
 30
0.0
 11
10197.68045928701
 21
4229.821681688771
 31
0.0
  0
LINE
  5
1BE3A
330
1BD6D
100
AcDbEntity
  8
寸法
 62
     0
 48
50.0
370
    -2
100
AcDbLine
 10
10137.68045928701
 20
2343.821681688773
 30
0.0
 11
10137.68045928701
 21
4229.821681688771
 31
0.0
  0
INSERT
  5
1BE3B
330
1BD6D
100
AcDbEntity
  8
寸法
 62
     0
 48
50.0
370
    -2
100
AcDbBlockReference
  2
_DOTSMALL
 10
10137.68045928701
 20
2343.821681688773
 30
0.0
 41
100.0
 42
100.0
 43
100.0
 50
270.0
  0
INSERT
  5
1BE3C
330
1BD6D
100
AcDbEntity
  8
寸法
 62
     0
 48
50.0
370
    -2
100
AcDbBlockReference
  2
_DOTSMALL
 10
10137.68045928701
 20
4229.821681688771
 30
0.0
 41
100.0
 42
100.0
 43
100.0
 50
90.0
  0
MTEXT
  5
1BE3D
330
1BD6D
100
AcDbEntity
  8
寸法
 62
     7
 48
50.0
100
AcDbMText
 10
10037.68045928701
 20
3286.821681688774
 30
0.0
 40
120.0
 41
0.0
 71
     5
 72
     1
  1
\A1;有効開口部高サ 1886
  7
STYLE1
 11
0.0000000000000001
 21
1.0
 31
0.0
 73
     1
 44
1.0
1001
ACAD
1000
MTEXTBEGIN
1070
    73
1070
     1
1070
    44
1040
1.0
1070
    74
1070
     0
1000
MTEXTEND
  0
POINT
  5
1BE3E
330
1BD6D
100
AcDbEntity
  8
DEFPOINTS
 62
     0
 48
50.0
100
AcDbPoint
 10
9850.137356965269
 20
2343.821681688773
 30
0.0
  0
POINT
  5
1BE3F
330
1BD6D
100
AcDbEntity
  8
DEFPOINTS
 62
     0
 48
50.0
100
AcDbPoint
 10
9850.137356965271
 20
4229.821681688771
 30
0.0
  0
POINT
  5
1BE40
330
1BD6D
100
AcDbEntity
  8
DEFPOINTS
 62
     0
 48
50.0
100
AcDbPoint
 10
10137.68045928701
 20
4229.821681688771
 30
0.0
  0
ENDBLK
  5
1BD78
330
1BD6D
100
AcDbEntity
  8
0
 48
50.0
100
AcDbBlockEnd
  0
BLOCK
  5
1BD85
330
1BD79
100
AcDbEntity
  8
0
 48
50.0
100
AcDbBlockBegin
  2
*D44
 70
     1
 10
0.0
 20
0.0
 30
0.0
  3
*D44
  1

  0
LINE
  5
1C31B
330
1BD79
100
AcDbEntity
  8
寸法
 62
     0
 48
50.0
370
    -2
100
AcDbLine
 10
9870.137356965273
 20
4229.821681688771
 30
0.0
 11
10197.68045928701
 21
4229.821681688771
 31
0.0
  0
LINE
  5
1C31C
330
1BD79
100
AcDbEntity
  8
寸法
 62
     0
 48
50.0
370
    -2
100
AcDbLine
 10
9870.137356965271
 20
4256.821681688773
 30
0.0
 11
10197.68045928701
 21
4256.821681688773
 31
0.0
  0
LINE
  5
1C31D
330
1BD79
100
AcDbEntity
  8
寸法
 62
     0
 48
50.0
370
    -2
100
AcDbLine
 10
10137.68045928701
 20
4229.821681688771
 30
0.0
 11
10137.68045928701
 21
4129.821681688771
 31
0.0
  0
LINE
  5
1C31E
330
1BD79
100
AcDbEntity
  8
寸法
 62
     0
 48
50.0
370
    -2
100
AcDbLine
 10
10137.68045928701
 20
4256.821681688773
 30
0.0
 11
10137.68045928701
 21
4356.821681688773
 31
0.0
  0
MTEXT
  5
1C31F
330
1BD79
100
AcDbEntity
  8
寸法
 62
     7
 48
50.0
100
AcDbMText
 10
10277.85028253338
 20
4257.788881528432
 30
0.0
 40
120.0
 41
0.0
 71
     5
 72
     1
  1
\A1;27
  7
STYLE1
 11
0.0000000000000001
 21
1.0
 31
0.0
 73
     1
 44
1.0
1001
ACAD
1000
MTEXTBEGIN
1070
    73
1070
     1
1070
    44
1040
1.0
1070
    74
1070
     0
1000
MTEXTEND
  0
LINE
  5
1C320
330
1BD79
100
AcDbEntity
  8
寸法
 62
     0
 48
50.0
370
    -2
100
AcDbLine
 10
10137.68045928701
 20
4229.821681688771
 30
0.0
 11
10137.68045928701
 21
4256.821681688773
 31
0.0
  0
INSERT
  5
1C321
330
1BD79
100
AcDbEntity
  8
寸法
 62
     0
 48
50.0
370
    -2
100
AcDbBlockReference
  2
_DOTSMALL
 10
10137.68045928701
 20
4229.821681688771
 30
0.0
 41
100.0
 42
100.0
 43
100.0
 50
90.0
  0
INSERT
  5
1C322
330
1BD79
100
AcDbEntity
  8
寸法
 62
     0
 48
50.0
370
    -2
100
AcDbBlockReference
  2
_DOTSMALL
 10
10137.68045928701
 20
4256.821681688773
 30
0.0
 41
100.0
 42
100.0
 43
100.0
 50
270.0
  0
POINT
  5
1C323
330
1BD79
100
AcDbEntity
  8
DEFPOINTS
 62
     0
 48
50.0
100
AcDbPoint
 10
9850.137356965271
 20
4229.821681688771
 30
0.0
  0
POINT
  5
1C324
330
1BD79
100
AcDbEntity
  8
DEFPOINTS
 62
     0
 48
50.0
100
AcDbPoint
 10
9850.137356965269
 20
4256.821681688773
 30
0.0
  0
POINT
  5
1C325
330
1BD79
100
AcDbEntity
  8
DEFPOINTS
 62
     0
 48
50.0
100
AcDbPoint
 10
10137.68045928701
 20
4256.821681688773
 30
0.0
  0
ENDBLK
  5
1BD86
330
1BD79
100
AcDbEntity
  8
0
 48
50.0
100
AcDbBlockEnd
  0
BLOCK
  5
1BD92
330
1BD87
100
AcDbEntity
  8
0
 48
50.0
100
AcDbBlockBegin
  2
*D45
 70
     1
 10
0.0
 20
0.0
 30
0.0
  3
*D45
  1

  0
LINE
  5
1C311
330
1BD87
100
AcDbEntity
  8
寸法
 62
     0
 48
50.0
370
    -2
100
AcDbLine
 10
9870.137356965271
 20
4256.821681688773
 30
0.0
 11
10197.68045928701
 21
4256.821681688773
 31
0.0
  0
LINE
  5
1C312
330
1BD87
100
AcDbEntity
  8
寸法
 62
     0
 48
50.0
370
    -2
100
AcDbLine
 10
9870.137356965271
 20
4421.821681688772
 30
0.0
 11
10197.68045928701
 21
4421.821681688772
 31
0.0
  0
LINE
  5
1C313
330
1BD87
100
AcDbEntity
  8
寸法
 62
     0
 48
50.0
370
    -2
100
AcDbLine
 10
10137.68045928701
 20
4256.821681688773
 30
0.0
 11
10137.68045928701
 21
4421.821681688772
 31
0.0
  0
LINE
  5
1C314
330
1BD87
100
AcDbEntity
  8
寸法
 62
     0
 48
50.0
370
    -2
100
AcDbLine
 10
10137.68045928701
 20
4421.821681688772
 30
0.0
 11
10137.68045928701
 21
4798.79224443725
 31
0.0
  0
INSERT
  5
1C315
330
1BD87
100
AcDbEntity
  8
寸法
 62
     0
 48
50.0
370
    -2
100
AcDbBlockReference
  2
_DOTSMALL
 10
10137.68045928701
 20
4256.821681688773
 30
0.0
 41
100.0
 42
100.0
 43
100.0
 50
270.0
  0
INSERT
  5
1C316
330
1BD87
100
AcDbEntity
  8
寸法
 62
     0
 48
50.0
370
    -2
100
AcDbBlockReference
  2
_DOTSMALL
 10
10137.68045928701
 20
4421.821681688772
 30
0.0
 41
100.0
 42
100.0
 43
100.0
 50
90.0
  0
MTEXT
  5
1C317
330
1BD87
100
AcDbEntity
  8
寸法
 62
     7
 48
50.0
100
AcDbMText
 10
10037.68045928701
 20
4660.306963063012
 30
0.0
 40
120.0
 41
0.0
 71
     5
 72
     1
  1
\A1;165
  7
STYLE1
 11
0.0000000000000001
 21
1.0
 31
0.0
 73
     1
 44
1.0
1001
ACAD
1000
MTEXTBEGIN
1070
    73
1070
     1
1070
    44
1040
1.0
1070
    74
1070
     0
1000
MTEXTEND
  0
POINT
  5
1C318
330
1BD87
100
AcDbEntity
  8
DEFPOINTS
 62
     0
 48
50.0
100
AcDbPoint
 10
9850.137356965269
 20
4256.821681688773
 30
0.0
  0
POINT
  5
1C319
330
1BD87
100
AcDbEntity
  8
DEFPOINTS
 62
     0
 48
50.0
100
AcDbPoint
 10
9850.137356965269
 20
4421.821681688772
 30
0.0
  0
POINT
  5
1C31A
330
1BD87
100
AcDbEntity
  8
DEFPOINTS
 62
     0
 48
50.0
100
AcDbPoint
 10
10137.68045928701
 20
4421.821681688772
 30
0.0
  0
ENDBLK
  5
1BD93
330
1BD87
100
AcDbEntity
  8
0
 48
50.0
100
AcDbBlockEnd
  0
BLOCK
  5
1C18C
330
1C182
100
AcDbEntity
  8
0
 48
50.0
100
AcDbBlockBegin
  2
*D46
 70
     1
 10
0.0
 20
0.0
 30
0.0
  3
*D46
  1

  0
LINE
  5
1C1C5
330
1C182
100
AcDbEntity
  8
寸法
 62
     0
 48
50.0
370
    -2
100
AcDbLine
 10
4635.137356965294
 20
9364.152997165549
 30
0.0
 11
4986.97871722613
 21
9364.152997165549
 31
0.0
  0
LINE
  5
1C1C6
330
1C182
100
AcDbEntity
  8
寸法
 62
     0
 48
50.0
370
    -2
100
AcDbLine
 10
4665.137356965527
 20
10080.6529971657
 30
0.0
 11
4986.97871722613
 21
10080.6529971657
 31
0.0
  0
LINE
  5
1C1C7
330
1C182
100
AcDbEntity
  8
寸法
 62
     0
 48
50.0
370
    -2
100
AcDbLine
 10
4926.978717226131
 20
9364.152997165549
 30
0.0
 11
4926.978717226131
 21
10080.6529971657
 31
0.0
  0
INSERT
  5
1C1C8
330
1C182
100
AcDbEntity
  8
寸法
 62
     0
 48
50.0
370
    -2
100
AcDbBlockReference
  2
_DOTSMALL
 10
4926.978717226131
 20
9364.152997165549
 30
0.0
 41
100.0
 42
100.0
 43
100.0
 50
270.0
  0
INSERT
  5
1C1C9
330
1C182
100
AcDbEntity
  8
寸法
 62
     0
 48
50.0
370
    -2
100
AcDbBlockReference
  2
_DOTSMALL
 10
4926.978717226131
 20
10080.6529971657
 30
0.0
 41
100.0
 42
100.0
 43
100.0
 50
90.0
  0
MTEXT
  5
1C1CA
330
1C182
100
AcDbEntity
  8
寸法
 62
     7
 48
50.0
100
AcDbMText
 10
4826.978717226129
 20
9817.212130131306
 30
0.0
 40
120.0
 41
0.0
 71
     5
 72
     1
  1
\A1;716.5
  7
STYLE1
 11
0.0000000000000001
 21
1.0
 31
0.0
 73
     1
 44
1.0
1001
ACAD
1000
MTEXTBEGIN
1070
    73
1070
     1
1070
    44
1040
1.0
1070
    74
1070
     0
1000
MTEXTEND
  0
POINT
  5
1C1CB
330
1C182
100
AcDbEntity
  8
DEFPOINTS
 62
     0
 48
50.0
100
AcDbPoint
 10
4615.137356965293
 20
9364.152997165549
 30
0.0
  0
POINT
  5
1C1CC
330
1C182
100
AcDbEntity
  8
DEFPOINTS
 62
     0
 48
50.0
100
AcDbPoint
 10
4645.137356965528
 20
10080.6529971657
 30
0.0
  0
POINT
  5
1C1CD
330
1C182
100
AcDbEntity
  8
DEFPOINTS
 62
     0
 48
50.0
100
AcDbPoint
 10
4926.978717226131
 20
10080.6529971657
 30
0.0
  0
ENDBLK
  5
1C18D
330
1C182
100
AcDbEntity
  8
0
 48
50.0
100
AcDbBlockEnd
  0
ENDSEC
  0
SECTION
  2
ENTITIES
  0
MTEXT
  5
763F
330
747D
100
AcDbEntity
  8
0
100
AcDbMText
 10
302.846345836809
 20
280.1983726409901
 30
0.0
 40
3.5
 41
5.323721266742722
 71
     1
 72
     5
  1

  7
MSMINCHO
 73
     1
 44
1.0
1001
ACAD
1000
MTEXTBEGIN
1070
    73
1070
     1
1070
    44
1040
1.0
1070
    74
1070
     0
1000
MTEXTEND
  0
LINE
  5
10B57
330
747D
100
AcDbEntity
  8
補助
  6
PHANTOM
 62
   230
 48
50.0
100
AcDbLine
 10
139.9999999999995
 20
11409.6
 30
0.0
 11
16307.2
 21
11409.6
 31
0.0
  0
LINE
  5
10B59
330
747D
100
AcDbEntity
  8
仕様書枠
  6
Continuous
 48
50.0
100
AcDbLine
 10
13107.2
 20
1200.0
 30
0.0
 11
13107.2
 21
-0.0000000000000729
 31
0.0
  0
LINE
  5
10B5C
330
747D
100
AcDbEntity
  8
仕様書枠
 48
50.0
100
AcDbLine
 10
16307.2
 20
1200.0
 30
0.0
 11
16307.2
 21
-0.0000000000000909
 31
0.0
  0
LINE
  5
10B5D
330
747D
100
AcDbEntity
  8
仕様書枠
 48
50.0
100
AcDbLine
 10
140.0
 20
0.0
 30
0.0
 11
16307.2
 21
-0.0000000000000909
 31
0.0
  0
LINE
  5
10B5E
330
747D
100
AcDbEntity
  8
補助
  6
PHANTOM
 62
   230
 48
50.0
100
AcDbLine
 10
16307.2
 20
11409.6
 30
0.0
 11
16307.2
 21
1200.0
 31
0.0
  0
LINE
  5
10B6C
330
747D
100
AcDbEntity
  8
仕様書枠
 48
50.0
100
AcDbLine
 10
13107.2
 20
1200.0
 30
0.0
 11
16307.2
 21
1200.0
 31
0.0
  0
LINE
  5
10B6D
330
747D
100
AcDbEntity
  8
補助
  6
PHANTOM
 62
   230
 48
50.0
100
AcDbLine
 10
13107.2
 20
11409.6
 30
0.0
 11
13107.2
 21
4800.0
 31
0.0
  0
LINE
  5
10B6F
330
747D
100
AcDbEntity
  8
補助
  6
PHANTOM
 62
   230
 48
50.0
100
AcDbLine
 10
13107.2
 20
4800.0
 30
0.0
 11
16307.2
 21
4800.0
 31
0.0
  0
LINE
  5
10B72
330
747D
100
AcDbEntity
  8
文字
 62
     7
 48
50.0
100
AcDbLine
 10
13187.2
 20
400.0
 30
0.0
 11
16227.2
 21
400.0
 31
0.0
  0
TEXT
  5
10B73
330
747D
100
AcDbEntity
  8
文字
 62
     7
 48
50.0
100
AcDbText
 10
13162.9790565769
 20
895.0906074299405
 30
0.0
 40
200.0
  1
外 形 図
  7
STYLE2
100
AcDbText
  0
TEXT
  5
10B74
330
747D
100
AcDbEntity
  8
文字
 62
     7
 48
50.0
100
AcDbText
 10
13201.43669998441
 20
477.2740661031255
 30
0.0
 40
160.0
  1
機種名
  7
STYLE2
100
AcDbText
  0
TEXT
  5
10B75
330
747D
100
AcDbEntity
  8
文字
 62
     7
 48
50.0
100
AcDbText
 10
13209.4053442172
 20
228.5435242569016
 30
0.0
 40
100.0
  1
○有効開口寸法 ： 2424×1886(mm)
  7
STYLE2
100
AcDbText
  0
TEXT
  5
10B76
330
747D
100
AcDbEntity
  8
文字
 62
     7
 48
50.0
100
AcDbText
 10
13209.4053442172
 20
76.09434707649343
 30
0.0
 40
100.0
  1
○床面積 ： N［連続数］ X 6.92㎡(2.10坪)
  7
STYLE2
100
AcDbText
  0
TEXT
  5
10B79
330
747D
100
AcDbEntity
  8
文字
 62
     7
 48
50.0
100
AcDbText
 10
14524.131837222
 20
1031.557706291228
 30
0.0
 40
100.0
  1
NO.34      <縮尺> S=1/40
  7
STYLE2
100
AcDbText
  0
LINE
  5
10B7B
330
747D
100
AcDbEntity
  8
仕様書枠
 48
50.0
100
AcDbLine
 10
13107.2
 20
800.0
 30
0.0
 11
14251.2
 21
800.0
 31
0.0
  0
LINE
  5
10B88
330
747D
100
AcDbEntity
  8
仕様書枠
  6
Continuous
 48
50.0
100
AcDbLine
 10
14251.2
 20
1200.0
 30
0.0
 11
14251.2
 21
800.0
 31
0.0
  0
DIMENSION
  5
162CD
330
747D
100
AcDbEntity
  8
寸法
100
AcDbDimension
  2
*D1
 10
10497.56370269968
 20
7505.652997165714
 30
0.0
 11
10397.55189167605
 21
8765.652997165723
 31
0.0
 70
    32
  1
6X420=<>
 71
     5
 42
2520.000000000015
  3
INABA_S40G
100
AcDbAlignedDimension
 13
9850.137356965275
 23
10025.65299716573
 33
0.0
 14
9850.137356965248
 24
7505.652997165714
 34
0.0
 50
90.0
100
AcDbRotatedDimension
1001
ACAD
1000
DSTYLE
1002
{
1002
}
  0
DIMENSION
  5
162CE
330
747D
100
AcDbEntity
  8
寸法
100
AcDbDimension
  2
*D2
 10
10497.56370269966
 20
7450.652997165717
 30
0.0
 11
10497.56370269965
 21
7072.791530260857
 31
0.0
 70
   160
 71
     5
 42
54.99999999999636
  3
INABA_S40G
100
AcDbAlignedDimension
 13
9850.137356965248
 23
7505.652997165714
 33
0.0
 14
9850.137356965248
 24
7450.652997165718
 34
0.0
 50
90.0
100
AcDbRotatedDimension
1001
ACAD
1000
DSTYLE
1002
{
1002
}
  0
DIMENSION
  5
162CF
330
747D
100
AcDbEntity
  8
寸法
100
AcDbDimension
  2
*D3
 10
10497.56370269968
 20
10025.65299716573
 30
0.0
 11
10497.56370269968
 21
10389.13827853996
 31
0.0
 70
   160
 71
     5
 42
54.99999999999636
  3
INABA_S40G
100
AcDbAlignedDimension
 13
9850.137356965275
 23
10080.65299716572
 33
0.0
 14
9850.137356965275
 24
10025.65299716573
 34
0.0
 50
90.0
100
AcDbRotatedDimension
1001
ACAD
1000
DSTYLE
1002
{
1002
}
  0
DIMENSION
  5
162D0
330
747D
100
AcDbEntity
  8
寸法
100
AcDbDimension
  2
*D4
 10
10862.67064443932
 20
7450.652997165717
 30
0.0
 11
10762.65883341569
 21
8765.652997165723
 31
0.0
 70
    32
 71
     5
 42
2630.000000000007
  3
INABA_S40G
100
AcDbAlignedDimension
 13
9850.137356965275
 23
10080.65299716572
 33
0.0
 14
9850.137356965248
 24
7450.652997165718
 34
0.0
 50
90.0
100
AcDbRotatedDimension
1001
ACAD
1000
DSTYLE
1002
{
1002
}
  0
LINE
  5
162DC
330
747D
100
AcDbEntity
  8
部品1
100
AcDbLine
 10
9822.137356965257
 20
10052.65299716572
 30
0.0
 11
9822.137356965249
 21
7505.652997165714
 31
0.0
  0
LINE
  5
162DD
330
747D
100
AcDbEntity
  8
部品1
100
AcDbLine
 10
1988.137356965248
 20
7505.652997165583
 30
0.0
 11
1988.137356965259
 21
10052.65299716563
 31
0.0
  0
LINE
  5
162DE
330
747D
100
AcDbEntity
  8
部品1
100
AcDbLine
 10
9850.137356965275
 20
10080.65299716572
 30
0.0
 11
9850.137356965248
 21
7450.652997165718
 31
0.0
  0
LINE
  5
162DF
330
747D
100
AcDbEntity
  8
部品1
100
AcDbLine
 10
1960.137356965239
 20
10080.6529971656
 30
0.0
 11
1960.137356965266
 21
7450.652997165588
 31
0.0
  0
DIMENSION
  5
162E4
330
747D
100
AcDbEntity
  8
寸法
 48
50.0
100
AcDbDimension
  2
*D5
 10
7323.137356965266
 20
6916.222226399462
 30
0.0
 11
8535.137356965256
 21
7016.234037423085
 31
0.0
 70
    32
  1
有効開口部間口 <>
 71
     5
 42
2423.999999999982
  3
INABA_S40G
100
AcDbAlignedDimension
 13
9747.137356965248
 23
7476.652997165627
 33
0.0
 14
7323.137356965266
 24
7476.652997165627
 34
0.0
100
AcDbRotatedDimension
1001
ACAD
1000
DSTYLE
1002
{
1070
    75
1070
     1
1070
   279
1070
     2
1002
}
  0
LINE
  5
162E6
330
747D
100
AcDbEntity
  8
部品1
 48
50.0
100
AcDbLine
 10
7287.137356965264
 20
7496.152997165626
 30
0.0
 11
9783.13735696525
 21
7496.152997165626
 31
0.0
  0
LINE
  5
162E8
330
747D
100
AcDbEntity
  8
部品1
100
AcDbLine
 10
2015.137356965249
 20
9600.652997165633
 30
0.0
 11
2015.137356965264
 21
7515.652997165625
 31
0.0
  0
DIMENSION
  5
162EA
330
747D
100
AcDbEntity
  8
寸法
 48
50.0
100
AcDbDimension
  2
*D6
 10
1960.137356965266
 20
6916.222226399462
 30
0.0
 11
1651.652075591027
 21
6916.222226399462
 31
0.0
 70
   160
 71
     5
 42
54.99999999999636
  3
INABA_S40G
100
AcDbAlignedDimension
 13
2015.137356965262
 23
7450.652997165628
 33
0.0
 14
1960.137356965266
 24
7450.652997165623
 34
0.0
100
AcDbRotatedDimension
1001
ACAD
1000
DSTYLE
1002
{
1002
}
  0
DIMENSION
  5
162EB
330
747D
100
AcDbEntity
  8
寸法
 48
50.0
100
AcDbDimension
  2
*D7
 10
7275.137356965263
 20
6916.222226399462
 30
0.0
 11
7436.039327965324
 21
7016.222226399462
 31
0.0
 70
   160
 71
     5
 42
48.00000000000363
  3
INABA_S40G
100
AcDbAlignedDimension
 13
7323.137356965266
 23
7476.652997165627
 33
0.0
 14
7275.137356965263
 24
7450.652997165628
 34
0.0
100
AcDbRotatedDimension
1001
ACAD
1000
DSTYLE
1002
{
1070
   279
1070
     2
1002
}
  0
LINE
  5
162EC
330
747D
100
AcDbEntity
  8
部品1
100
AcDbLine
 10
2015.137356965261
 20
7450.652997165628
 30
0.0
 11
1960.137356965266
 21
7450.652997165623
 31
0.0
  0
LINE
  5
162ED
330
747D
100
AcDbEntity
  8
部品1
 48
50.0
100
AcDbLine
 10
2015.137356965266
 20
7486.652997165626
 30
0.0
 11
1992.137356965266
 21
7486.652997165626
 31
0.0
  0
LINE
  5
162EE
330
747D
100
AcDbEntity
  8
部品1
 48
50.0
100
AcDbLine
 10
2025.137356965266
 20
7476.652997165627
 30
0.0
 11
2015.137356965266
 21
7455.652997165628
 31
0.0
  0
LINE
  5
162EF
330
747D
100
AcDbEntity
  8
部品1
 48
50.0
100
AcDbLine
 10
2015.137356965266
 20
7515.652997165625
 30
0.0
 11
2015.137356965262
 21
7450.652997165628
 31
0.0
  0
LINE
  5
162F0
330
747D
100
AcDbEntity
  8
部品1
 48
50.0
100
AcDbLine
 10
2063.137356965266
 20
7476.652997165627
 30
0.0
 11
2063.137356965266
 21
7485.652997165627
 31
0.0
  0
LINE
  5
162F1
330
747D
100
AcDbEntity
  8
部品1
 48
50.0
100
AcDbLine
 10
2063.137356965266
 20
7515.652997165627
 30
0.0
 11
2063.137356965266
 21
7506.652997165628
 31
0.0
  0
LINE
  5
162F2
330
747D
100
AcDbEntity
  8
部品1
100
AcDbLine
 10
2063.137356965266
 20
7515.652997165627
 30
0.0
 11
2015.137356965266
 21
7515.652997165627
 31
0.0
  0
LINE
  5
162F3
330
747D
100
AcDbEntity
  8
部品1
100
AcDbLine
 10
2063.137356965266
 20
7476.652997165627
 30
0.0
 11
2015.137356965266
 21
7476.652997165627
 31
0.0
  0
LINE
  5
162F4
330
747D
100
AcDbEntity
  8
部品1
100
AcDbLine
 10
2015.137356965264
 20
7486.652997165626
 30
0.0
 11
1992.137356965266
 21
7486.652997165626
 31
0.0
  0
LINE
  5
162F5
330
747D
100
AcDbEntity
  8
部品1
100
AcDbLine
 10
2015.137356965264
 20
7505.652997165551
 30
0.0
 11
1960.137356965264
 21
7505.652997165551
 31
0.0
  0
LINE
  5
162F6
330
747D
100
AcDbEntity
  8
部品1
100
AcDbLine
 10
1988.137356965248
 20
7505.652997165587
 30
0.0
 11
1960.137356965264
 21
7505.652997165587
 31
0.0
  0
LINE
  5
162F7
330
747D
100
AcDbEntity
  8
部品1
100
AcDbLine
 10
1988.137356965264
 20
7505.652997165602
 30
0.0
 11
1960.137356965264
 21
7505.652997165602
 31
0.0
  0
LINE
  5
162FB
330
747D
100
AcDbEntity
  8
部品1
100
AcDbLine
 10
1988.137356965253
 20
8765.6529971656
 30
0.0
 11
1960.137356965253
 21
8765.6529971656
 31
0.0
  0
LINE
  5
162FC
330
747D
100
AcDbEntity
  8
部品1
100
AcDbLine
 10
1988.137356965253
 20
9185.652997165602
 30
0.0
 11
1960.137356965253
 21
9185.652997165602
 31
0.0
  0
LINE
  5
162FE
330
747D
100
AcDbEntity
  8
部品1
100
AcDbLine
 10
1988.137356965246
 20
9605.652997165602
 30
0.0
 11
1960.137356965246
 21
9605.652997165602
 31
0.0
  0
DIMENSION
  5
16301
330
747D
100
AcDbEntity
  8
寸法
 48
50.0
100
AcDbDimension
  2
*D8
 10
9747.137356965248
 20
6916.222226399462
 30
0.0
 11
9636.174459316499
 21
7016.222226399462
 31
0.0
 70
   160
 71
     5
 42
48.00000000000181
  3
INABA_S40G
100
AcDbAlignedDimension
 13
9795.13735696525
 23
7450.652997165715
 33
0.0
 14
9747.137356965248
 24
7476.652997165627
 34
0.0
100
AcDbRotatedDimension
1001
ACAD
1000
DSTYLE
1002
{
1070
   279
1070
     2
1002
}
  0
DIMENSION
  5
16302
330
747D
100
AcDbEntity
  8
寸法
 48
50.0
100
AcDbDimension
  2
*D9
 10
9795.13735696525
 20
6916.222226399462
 30
0.0
 11
10158.62263833948
 21
6916.222226399462
 31
0.0
 70
   160
 71
     5
 42
54.99999999999818
  3
INABA_S40G
100
AcDbAlignedDimension
 13
9850.137356965248
 23
7450.652997165718
 33
0.0
 14
9795.13735696525
 24
7450.652997165715
 34
0.0
100
AcDbRotatedDimension
1001
ACAD
1000
DSTYLE
1002
{
1002
}
  0
LINE
  5
16303
330
747D
100
AcDbEntity
  8
部品1
 48
50.0
100
AcDbLine
 10
9785.137356965249
 20
7476.652997165627
 30
0.0
 11
9795.137356965248
 21
7455.652997165628
 31
0.0
  0
LINE
  5
16304
330
747D
100
AcDbEntity
  8
部品1
100
AcDbLine
 10
9747.137356965248
 20
7515.652997165627
 30
0.0
 11
9795.13735696525
 21
7515.652997165627
 31
0.0
  0
LINE
  5
16305
330
747D
100
AcDbEntity
  8
部品1
100
AcDbLine
 10
9747.137356965248
 20
7476.652997165627
 30
0.0
 11
9795.137356965248
 21
7476.652997165627
 31
0.0
  0
LINE
  5
16306
330
747D
100
AcDbEntity
  8
部品1
 48
50.0
100
AcDbLine
 10
9747.137356965248
 20
7515.652997165627
 30
0.0
 11
9747.137356965248
 21
7506.652997165628
 31
0.0
  0
LINE
  5
16307
330
747D
100
AcDbEntity
  8
部品1
 48
50.0
100
AcDbLine
 10
9747.137356965248
 20
7476.652997165627
 30
0.0
 11
9747.137356965248
 21
7485.652997165627
 31
0.0
  0
LINE
  5
16308
330
747D
100
AcDbEntity
  8
部品1
100
AcDbLine
 10
9795.137356965248
 20
7486.652997165624
 30
0.0
 11
9818.137356965248
 21
7486.652997165626
 31
0.0
  0
LINE
  5
16309
330
747D
100
AcDbEntity
  8
部品1
100
AcDbLine
 10
9795.137356965248
 20
7505.652997165729
 30
0.0
 11
9850.137356965282
 21
7505.652997165729
 31
0.0
  0
LINE
  5
1630A
330
747D
100
AcDbEntity
  8
部品1
100
AcDbLine
 10
9850.137356965248
 20
7450.652997165718
 30
0.0
 11
9795.13735696525
 21
7450.652997165715
 31
0.0
  0
LINE
  5
16317
330
747D
100
AcDbEntity
  8
部品1
100
AcDbLine
 10
9822.137356965278
 20
8765.652997165728
 30
0.0
 11
9850.137356965277
 21
8765.652997165728
 31
0.0
  0
LINE
  5
16319
330
747D
100
AcDbEntity
  8
部品1
100
AcDbLine
 10
9822.137356965278
 20
9185.65299716573
 30
0.0
 11
9850.137356965277
 21
9185.65299716573
 31
0.0
  0
LINE
  5
1631A
330
747D
100
AcDbEntity
  8
部品1
100
AcDbLine
 10
9822.137356965274
 20
9605.65299716573
 30
0.0
 11
9850.137356965275
 21
9605.65299716573
 31
0.0
  0
LINE
  5
1631C
330
747D
100
AcDbEntity
  8
部品1
100
AcDbLine
 10
7248.137356965272
 20
10052.65299716563
 30
0.0
 11
8522.637356965272
 21
10052.65299716564
 31
0.0
  0
DIMENSION
  5
1631F
330
747D
100
AcDbEntity
  8
寸法
100
AcDbDimension
  2
*D10
 10
9795.137356965273
 20
10496.46121679073
 30
0.0
 11
8535.137356965272
 21
10596.47302781435
 31
0.0
 70
    32
  1
6X420=<>
 71
     5
 42
2520.000000000002
  3
INABA_S40G
100
AcDbAlignedDimension
 13
7275.137356965271
 23
10080.65299716563
 33
0.0
 14
9795.137356965273
 24
10080.65299716572
 34
0.0
100
AcDbRotatedDimension
1001
ACAD
1000
DSTYLE
1002
{
1002
}
  0
DIMENSION
  5
16320
330
747D
100
AcDbEntity
  8
寸法
100
AcDbDimension
  2
*D11
 10
2015.137356965272
 20
10496.46121679061
 30
0.0
 11
1651.652075590998
 21
10496.46121679061
 31
0.0
 70
   160
 71
     5
 42
55.00000000003274
  3
INABA_S40G
100
AcDbAlignedDimension
 13
1960.137356965239
 23
10080.65299716563
 33
0.0
 14
2015.137356965272
 24
10080.65299716563
 34
0.0
100
AcDbRotatedDimension
1001
ACAD
1000
DSTYLE
1002
{
1002
}
  0
LINE
  5
16321
330
747D
100
AcDbEntity
  8
部品1
100
AcDbLine
 10
2015.137356965239
 20
10080.6529971656
 30
0.0
 11
2015.137356965239
 21
10052.6529971656
 31
0.0
  0
LINE
  5
16322
330
747D
100
AcDbEntity
  8
部品1
100
AcDbLine
 10
2015.137356965272
 20
10080.65299716563
 30
0.0
 11
2015.137356965272
 21
10052.65299716563
 31
0.0
  0
LINE
  5
16323
330
747D
100
AcDbEntity
  8
部品1
100
AcDbLine
 10
1988.137356965239
 20
10025.6529971656
 30
0.0
 11
1960.137356965239
 21
10025.6529971656
 31
0.0
  0
LINE
  5
16324
330
747D
100
AcDbEntity
  8
部品1
100
AcDbLine
 10
7695.137356965272
 20
10080.65299716575
 30
0.0
 11
7695.137356965272
 21
10052.65299716574
 31
0.0
  0
LINE
  5
16325
330
747D
100
AcDbEntity
  8
部品1
100
AcDbLine
 10
7695.137356965272
 20
10080.65299716563
 30
0.0
 11
7695.137356965272
 21
10052.65299716563
 31
0.0
  0
LINE
  5
16326
330
747D
100
AcDbEntity
  8
部品1
100
AcDbLine
 10
7695.137356965272
 20
10080.65299716563
 30
0.0
 11
7695.137356965272
 21
10052.65299716563
 31
0.0
  0
LINE
  5
16329
330
747D
100
AcDbEntity
  8
部品1
100
AcDbLine
 10
8115.137356965272
 20
10080.65299716575
 30
0.0
 11
8115.137356965272
 21
10052.65299716574
 31
0.0
  0
LINE
  5
1632A
330
747D
100
AcDbEntity
  8
部品1
100
AcDbLine
 10
8115.137356965272
 20
10080.65299716563
 30
0.0
 11
8115.137356965272
 21
10052.65299716563
 31
0.0
  0
LINE
  5
1632B
330
747D
100
AcDbEntity
  8
部品1
100
AcDbLine
 10
8115.137356965272
 20
10080.65299716563
 30
0.0
 11
8115.137356965272
 21
10052.65299716563
 31
0.0
  0
LINE
  5
1632C
330
747D
100
AcDbEntity
  8
部品1
100
AcDbLine
 10
8535.137356965272
 20
10080.65299716575
 30
0.0
 11
8535.137356965272
 21
10052.65299716574
 31
0.0
  0
LINE
  5
16332
330
747D
100
AcDbEntity
  8
部品1
100
AcDbLine
 10
8955.137356965272
 20
10080.65299716575
 30
0.0
 11
8955.137356965272
 21
10052.65299716574
 31
0.0
  0
DIMENSION
  5
16333
330
747D
100
AcDbEntity
  8
寸法
100
AcDbDimension
  2
*D12
 10
9850.137356965275
 20
10496.46121679071
 30
0.0
 11
10158.62263833951
 21
10496.46121679071
 31
0.0
 70
   160
 71
     5
 42
55.0
  3
INABA_S40G
100
AcDbAlignedDimension
 13
9795.137356965273
 23
10080.65299716572
 33
0.0
 14
9850.137356965275
 24
10080.65299716572
 34
0.0
100
AcDbRotatedDimension
1001
ACAD
1000
DSTYLE
1002
{
1002
}
  0
LINE
  5
16334
330
747D
100
AcDbEntity
  8
部品1
100
AcDbLine
 10
9375.137356965272
 20
10080.65299716575
 30
0.0
 11
9375.137356965272
 21
10052.65299716574
 31
0.0
  0
LINE
  5
16335
330
747D
100
AcDbEntity
  8
部品1
100
AcDbLine
 10
9795.137356965273
 20
10080.65299716572
 30
0.0
 11
9795.137356965273
 21
10052.65299716572
 31
0.0
  0
LINE
  5
16336
330
747D
100
AcDbEntity
  8
部品1
100
AcDbLine
 10
9795.137356965273
 20
10080.65299716575
 30
0.0
 11
9795.137356965273
 21
10052.65299716574
 31
0.0
  0
LINE
  5
16337
330
747D
100
AcDbEntity
  8
部品1
100
AcDbLine
 10
9822.137356965274
 20
10025.65299716573
 30
0.0
 11
9850.137356965275
 21
10025.65299716573
 31
0.0
  0
DIMENSION
  5
1659A
330
747D
100
AcDbEntity
  8
寸法
 48
50.0
100
AcDbDimension
  2
*D14
 10
7117.137356965248
 20
6916.222226399462
 30
0.0
 11
7006.1744593165
 21
7016.222226399462
 31
0.0
 70
   160
 71
     5
 42
48.00000000000181
  3
INABA_S40G
100
AcDbAlignedDimension
 13
7165.137356965249
 23
7450.652997165715
 33
0.0
 14
7117.137356965248
 24
7476.652997165627
 34
0.0
100
AcDbRotatedDimension
1001
ACAD
1000
DSTYLE
1002
{
1070
   279
1070
     2
1002
}
  0
DIMENSION
  5
1659C
330
747D
100
AcDbEntity
  8
寸法
 48
50.0
100
AcDbDimension
  2
*D13
 10
2015.137356965262
 20
6916.222226399462
 30
0.0
 11
2176.039327965324
 21
7016.222226399462
 31
0.0
 70
   160
 71
     5
 42
48.00000000000363
  3
INABA_S40G
100
AcDbAlignedDimension
 13
2063.137356965266
 23
7476.652997165627
 33
0.0
 14
2015.137356965262
 24
7450.652997165628
 34
0.0
100
AcDbRotatedDimension
1001
ACAD
1000
DSTYLE
1002
{
1070
   279
1070
     2
1002
}
  0
DIMENSION
  5
165E9
330
747D
100
AcDbEntity
  8
寸法
 48
50.0
100
AcDbDimension
  2
*D15
 10
7165.137356965249
 20
6916.222226399462
 30
0.0
 11
7220.137356965257
 21
6764.530331363232
 31
0.0
 70
   160
 71
     5
 42
110.0000000000127
  3
INABA_S40G
100
AcDbAlignedDimension
 13
7275.137356965263
 23
7450.652997165628
 33
0.0
 14
7165.137356965249
 24
7450.652997165715
 34
0.0
100
AcDbRotatedDimension
1001
ACAD
1000
DSTYLE
1002
{
1070
   279
1070
     2
1002
}
  0
LINE
  5
16656
330
747D
100
AcDbEntity
  8
部品1
100
AcDbLine
 10
7117.137356965248
 20
7515.652997165627
 30
0.0
 11
7165.137356965249
 21
7515.652997165627
 31
0.0
  0
LINE
  5
16657
330
747D
100
AcDbEntity
  8
部品1
 48
50.0
100
AcDbLine
 10
7117.137356965248
 20
7515.652997165627
 30
0.0
 11
7117.137356965248
 21
7506.652997165628
 31
0.0
  0
LINE
  5
16658
330
747D
100
AcDbEntity
  8
部品1
100
AcDbLine
 10
7117.137356965248
 20
7476.652997165627
 30
0.0
 11
7165.137356965248
 21
7476.652997165627
 31
0.0
  0
LINE
  5
16659
330
747D
100
AcDbEntity
  8
部品1
 48
50.0
100
AcDbLine
 10
7117.137356965248
 20
7476.652997165627
 30
0.0
 11
7117.137356965248
 21
7485.652997165627
 31
0.0
  0
LINE
  5
1665A
330
747D
100
AcDbEntity
  8
部品1
 48
50.0
100
AcDbLine
 10
7155.137356965248
 20
7476.652997165627
 30
0.0
 11
7165.137356965248
 21
7455.652997165628
 31
0.0
  0
LINE
  5
1665B
330
747D
100
AcDbEntity
  8
部品1
100
AcDbLine
 10
7165.137356965248
 20
7486.652997165624
 30
0.0
 11
7188.137356965248
 21
7486.652997165626
 31
0.0
  0
LINE
  5
1665C
330
747D
100
AcDbEntity
  8
部品1
100
AcDbLine
 10
7323.137356965266
 20
7515.652997165627
 30
0.0
 11
7275.137356965266
 21
7515.652997165627
 31
0.0
  0
LINE
  5
1665D
330
747D
100
AcDbEntity
  8
部品1
 48
50.0
100
AcDbLine
 10
7323.137356965266
 20
7515.652997165627
 30
0.0
 11
7323.137356965266
 21
7506.652997165628
 31
0.0
  0
LINE
  5
1665E
330
747D
100
AcDbEntity
  8
部品1
100
AcDbLine
 10
7323.137356965266
 20
7476.652997165627
 30
0.0
 11
7275.137356965266
 21
7476.652997165627
 31
0.0
  0
LINE
  5
1665F
330
747D
100
AcDbEntity
  8
部品1
 48
50.0
100
AcDbLine
 10
7285.137356965266
 20
7476.652997165627
 30
0.0
 11
7275.137356965266
 21
7455.652997165628
 31
0.0
  0
LINE
  5
16660
330
747D
100
AcDbEntity
  8
部品1
100
AcDbLine
 10
7275.137356965264
 20
7486.652997165626
 30
0.0
 11
7252.137356965267
 21
7486.652997165626
 31
0.0
  0
LINE
  5
16661
330
747D
100
AcDbEntity
  8
部品1
 48
50.0
100
AcDbLine
 10
7275.137356965266
 20
7515.652997165625
 30
0.0
 11
7275.137356965263
 21
7450.652997165628
 31
0.0
  0
LINE
  5
16662
330
747D
100
AcDbEntity
  8
部品1
 48
50.0
100
AcDbLine
 10
7323.137356965266
 20
7476.652997165627
 30
0.0
 11
7323.137356965266
 21
7485.652997165627
 31
0.0
  0
LINE
  5
16663
330
747D
100
AcDbEntity
  8
部品1
100
AcDbLine
 10
7275.137356965261
 20
7450.652997165628
 30
0.0
 11
7165.137356965252
 21
7450.652997165621
 31
0.0
  0
LINE
  5
16664
330
747D
100
AcDbEntity
  8
部品1
 48
50.0
100
AcDbLine
 10
7165.137356965253
 20
7515.652997165715
 30
0.0
 11
7165.137356965249
 21
7450.652997165715
 31
0.0
  0
LINE
  5
16666
330
747D
100
AcDbEntity
  8
部品1
100
AcDbLine
 10
7275.137356965271
 20
10080.65299716563
 30
0.0
 11
7275.137356965271
 21
10052.65299716563
 31
0.0
  0
LINE
  5
16688
330
747D
100
AcDbEntity
  8
部品1
100
AcDbLine
 10
4618.137356965259
 20
10052.65299716574
 30
0.0
 11
5892.637356965272
 21
10052.65299716574
 31
0.0
  0
LINE
  5
1668A
330
747D
100
AcDbEntity
  8
部品1
100
AcDbLine
 10
5065.137356965272
 20
10080.65299716575
 30
0.0
 11
5065.137356965272
 21
10052.65299716574
 31
0.0
  0
LINE
  5
1668B
330
747D
100
AcDbEntity
  8
部品1
100
AcDbLine
 10
5065.137356965272
 20
10080.65299716563
 30
0.0
 11
5065.137356965272
 21
10052.65299716563
 31
0.0
  0
LINE
  5
1668C
330
747D
100
AcDbEntity
  8
部品1
100
AcDbLine
 10
5065.137356965272
 20
10080.65299716563
 30
0.0
 11
5065.137356965272
 21
10052.65299716563
 31
0.0
  0
LINE
  5
1668D
330
747D
100
AcDbEntity
  8
部品1
100
AcDbLine
 10
5485.137356965271
 20
10080.65299716575
 30
0.0
 11
5485.137356965271
 21
10052.65299716574
 31
0.0
  0
LINE
  5
1668E
330
747D
100
AcDbEntity
  8
部品1
100
AcDbLine
 10
5485.137356965271
 20
10080.65299716563
 30
0.0
 11
5485.137356965271
 21
10052.65299716563
 31
0.0
  0
LINE
  5
1668F
330
747D
100
AcDbEntity
  8
部品1
100
AcDbLine
 10
5485.137356965271
 20
10080.65299716563
 30
0.0
 11
5485.137356965271
 21
10052.65299716563
 31
0.0
  0
LINE
  5
16690
330
747D
100
AcDbEntity
  8
部品1
100
AcDbLine
 10
6325.137356965271
 20
10080.65299716575
 30
0.0
 11
6325.137356965271
 21
10052.65299716574
 31
0.0
  0
LINE
  5
16691
330
747D
100
AcDbEntity
  8
部品1
100
AcDbLine
 10
6745.137356965272
 20
10080.65299716575
 30
0.0
 11
6745.137356965272
 21
10052.65299716574
 31
0.0
  0
LINE
  5
16692
330
747D
100
AcDbEntity
  8
部品1
100
AcDbLine
 10
7165.137356965273
 20
10080.65299716572
 30
0.0
 11
7165.137356965273
 21
10052.65299716572
 31
0.0
  0
DIMENSION
  5
166DD
330
747D
100
AcDbEntity
  8
寸法
 48
50.0
100
AcDbDimension
  2
*D16
 10
7165.137356965273
 20
10496.46121679073
 30
0.0
 11
7220.137356965273
 21
10596.46121679073
 31
0.0
 70
    32
 71
     5
 42
109.9999999999982
  3
INABA_S40G
100
AcDbAlignedDimension
 13
7275.137356965271
 23
10080.65299716568
 33
0.0
 14
7165.137356965273
 24
10080.65299716567
 34
0.0
100
AcDbRotatedDimension
1001
ACAD
1000
DSTYLE
1002
{
1070
   279
1070
     2
1002
}
  0
LINE
  5
16760
330
747D
100
AcDbEntity
  8
部品1
 48
50.0
100
AcDbLine
 10
7220.137356965238
 20
10052.65299716567
 30
0.0
 11
7192.13735696524
 21
10080.65299716573
 31
0.0
  0
LINE
  5
16761
330
747D
100
AcDbEntity
  8
部品1
100
AcDbLine
 10
7248.137356965241
 20
10025.65299716565
 30
0.0
 11
7192.13735696524
 21
10025.65299716565
 31
0.0
  0
LINE
  5
16762
330
747D
100
AcDbEntity
  8
部品1
 48
50.0
100
AcDbLine
 10
7192.13735696524
 20
10052.65299716578
 30
0.0
 11
7192.137356965239
 21
10080.65299716573
 31
0.0
  0
LINE
  5
16763
330
747D
100
AcDbEntity
  8
部品1
 48
50.0
100
AcDbLine
 10
7192.13735696524
 20
10052.65299716567
 30
0.0
 11
7220.137356965238
 21
10052.65299716567
 31
0.0
  0
LINE
  5
168C3
330
747D
100
AcDbEntity
  8
部品1
100
AcDbLine
 10
7244.137356965257
 20
7505.652997165623
 30
0.0
 11
7196.137356965256
 21
7505.652997165622
 31
0.0
  0
LINE
  5
168C4
330
747D
100
AcDbEntity
  8
部品1
 48
50.0
100
AcDbLine
 10
7196.137356965256
 20
7505.652997165623
 30
0.0
 11
7196.137356965261
 21
7450.652997165623
 31
0.0
  0
LINE
  5
168C5
330
747D
100
AcDbEntity
  8
部品1
 48
50.0
100
AcDbLine
 10
7244.137356965257
 20
7505.652997165623
 30
0.0
 11
7244.137356965261
 21
7450.652997165623
 31
0.0
  0
DIMENSION
  5
16913
330
747D
100
AcDbEntity
  8
寸法
 48
50.0
100
AcDbDimension
  2
*D17
 10
9850.137356965275
 20
10745.78269034702
 30
0.0
 11
8535.137356965273
 21
10845.79450137064
 31
0.0
 70
    32
 71
     5
 42
2630.0
  3
INABA_S40G
100
AcDbAlignedDimension
 13
7220.137356965273
 23
10655.44913114867
 33
0.0
 14
9850.137356965275
 24
10080.65299716572
 34
0.0
100
AcDbRotatedDimension
1001
ACAD
1000
DSTYLE
1002
{
1070
   279
1070
     2
1002
}
  0
LINE
  5
16C81
330
747D
100
AcDbEntity
  8
部品1
100
AcDbLine
 10
1988.137356965253
 20
8345.652997165602
 30
0.0
 11
1960.137356965253
 21
8345.652997165602
 31
0.0
  0
LINE
  5
16C82
330
747D
100
AcDbEntity
  8
部品1
100
AcDbLine
 10
9822.137356965278
 20
8345.652997165728
 30
0.0
 11
9850.137356965277
 21
8345.652997165728
 31
0.0
  0
LINE
  5
16FDA
330
747D
100
AcDbEntity
  8
部品1
100
AcDbLine
 10
1988.137356965253
 20
7925.652997165602
 30
0.0
 11
1960.137356965253
 21
7925.652997165602
 31
0.0
  0
LINE
  5
16FDB
330
747D
100
AcDbEntity
  8
部品1
100
AcDbLine
 10
9822.137356965278
 20
7925.652997165729
 30
0.0
 11
9850.137356965277
 21
7925.652997165729
 31
0.0
  0
DIMENSION
  5
17C5D
330
747D
100
AcDbEntity
  8
寸法
100
AcDbDimension
  2
*D22
 10
4535.137356965273
 20
10496.46121679073
 30
0.0
 11
3275.137356965273
 21
10596.47302781435
 31
0.0
 70
    32
  1
6X420=<>
 71
     5
 42
2520.000000000002
  3
INABA_S40G
100
AcDbAlignedDimension
 13
2015.137356965272
 23
10080.65299716563
 33
0.0
 14
4535.137356965273
 24
10080.65299716572
 34
0.0
100
AcDbRotatedDimension
1001
ACAD
1000
DSTYLE
1002
{
1002
}
  0
DIMENSION
  5
17C60
330
747D
100
AcDbEntity
  8
寸法
 48
50.0
100
AcDbDimension
  2
*D24
 10
4590.137356965273
 20
10745.78269034702
 30
0.0
 11
3275.137356965256
 21
10845.79450137064
 31
0.0
 70
    32
 71
     5
 42
2630.000000000034
  3
INABA_S40G
100
AcDbAlignedDimension
 13
1960.137356965239
 23
10080.6529971656
 33
0.0
 14
4590.137356965273
 24
10655.44913114867
 34
0.0
100
AcDbRotatedDimension
1001
ACAD
1000
DSTYLE
1002
{
1070
   279
1070
     2
1002
}
  0
LINE
  5
17C67
330
747D
100
AcDbEntity
  8
部品1
100
AcDbLine
 10
2435.137356965272
 20
10080.65299716575
 30
0.0
 11
2435.137356965272
 21
10052.65299716574
 31
0.0
  0
LINE
  5
17C68
330
747D
100
AcDbEntity
  8
部品1
100
AcDbLine
 10
2435.137356965272
 20
10080.65299716563
 30
0.0
 11
2435.137356965272
 21
10052.65299716563
 31
0.0
  0
LINE
  5
17C69
330
747D
100
AcDbEntity
  8
部品1
100
AcDbLine
 10
2435.137356965272
 20
10080.65299716563
 30
0.0
 11
2435.137356965272
 21
10052.65299716563
 31
0.0
  0
LINE
  5
17C6A
330
747D
100
AcDbEntity
  8
部品1
100
AcDbLine
 10
2855.137356965272
 20
10080.65299716575
 30
0.0
 11
2855.137356965272
 21
10052.65299716574
 31
0.0
  0
LINE
  5
17C6B
330
747D
100
AcDbEntity
  8
部品1
100
AcDbLine
 10
2855.137356965272
 20
10080.65299716563
 30
0.0
 11
2855.137356965272
 21
10052.65299716563
 31
0.0
  0
LINE
  5
17C6C
330
747D
100
AcDbEntity
  8
部品1
100
AcDbLine
 10
2855.137356965272
 20
10080.65299716563
 30
0.0
 11
2855.137356965272
 21
10052.65299716563
 31
0.0
  0
LINE
  5
17C71
330
747D
100
AcDbEntity
  8
部品1
100
AcDbLine
 10
3287.637356965272
 20
10052.65299716574
 30
0.0
 11
4562.137356965273
 21
10052.65299716572
 31
0.0
  0
LINE
  5
17C83
330
747D
100
AcDbEntity
  8
部品1
100
AcDbLine
 10
3275.137356965271
 20
10080.65299716575
 30
0.0
 11
3275.137356965271
 21
10052.65299716574
 31
0.0
  0
LINE
  5
17C84
330
747D
100
AcDbEntity
  8
部品1
100
AcDbLine
 10
3695.137356965272
 20
10080.65299716575
 30
0.0
 11
3695.137356965272
 21
10052.65299716574
 31
0.0
  0
LINE
  5
17C85
330
747D
100
AcDbEntity
  8
部品1
100
AcDbLine
 10
4115.137356965271
 20
10080.65299716575
 30
0.0
 11
4115.137356965271
 21
10052.65299716574
 31
0.0
  0
LINE
  5
17C94
330
747D
100
AcDbEntity
  8
部品1
100
AcDbLine
 10
4618.137356965241
 20
10025.65299716565
 30
0.0
 11
4562.13735696524
 21
10025.65299716565
 31
0.0
  0
DIMENSION
  5
17C95
330
747D
100
AcDbEntity
  8
寸法
 48
50.0
100
AcDbDimension
  2
*D23
 10
4535.137356965273
 20
10496.46121679073
 30
0.0
 11
4590.137356965272
 21
10596.46121679073
 31
0.0
 70
    32
 71
     5
 42
109.9999999999982
  3
INABA_S40G
100
AcDbAlignedDimension
 13
4645.137356965271
 23
10080.65299716568
 33
0.0
 14
4535.137356965273
 24
10080.65299716567
 34
0.0
100
AcDbRotatedDimension
1001
ACAD
1000
DSTYLE
1002
{
1070
   279
1070
     2
1002
}
  0
LINE
  5
17C96
330
747D
100
AcDbEntity
  8
部品1
100
AcDbLine
 10
4645.137356965271
 20
10080.65299716563
 30
0.0
 11
4645.137356965271
 21
10052.65299716563
 31
0.0
  0
LINE
  5
17C97
330
747D
100
AcDbEntity
  8
部品1
100
AcDbLine
 10
4535.137356965273
 20
10080.65299716572
 30
0.0
 11
4535.137356965273
 21
10052.65299716572
 31
0.0
  0
LINE
  5
17C98
330
747D
100
AcDbEntity
  8
部品1
 48
50.0
100
AcDbLine
 10
4590.137356965239
 20
10052.65299716567
 30
0.0
 11
4562.13735696524
 21
10080.65299716573
 31
0.0
  0
LINE
  5
17C99
330
747D
100
AcDbEntity
  8
部品1
 48
50.0
100
AcDbLine
 10
4562.13735696524
 20
10052.65299716578
 30
0.0
 11
4562.137356965239
 21
10080.65299716573
 31
0.0
  0
LINE
  5
17C9A
330
747D
100
AcDbEntity
  8
部品1
 48
50.0
100
AcDbLine
 10
4562.13735696524
 20
10052.65299716567
 30
0.0
 11
4590.137356965239
 21
10052.65299716567
 31
0.0
  0
DIMENSION
  5
17C9B
330
747D
100
AcDbEntity
  8
寸法
 48
50.0
100
AcDbDimension
  2
*D20
 10
2063.137356965266
 20
6916.222226399462
 30
0.0
 11
3275.137356965257
 21
7016.234037423085
 31
0.0
 70
    32
  1
有効開口部間口 <>
 71
     5
 42
2423.999999999982
  3
INABA_S40G
100
AcDbAlignedDimension
 13
4487.137356965248
 23
7476.652997165627
 33
0.0
 14
2063.137356965266
 24
7476.652997165627
 34
0.0
100
AcDbRotatedDimension
1001
ACAD
1000
DSTYLE
1002
{
1070
    75
1070
     1
1070
   279
1070
     2
1002
}
  0
LINE
  5
17C9C
330
747D
100
AcDbEntity
  8
部品1
 48
50.0
100
AcDbLine
 10
2027.137356965264
 20
7496.152997165626
 30
0.0
 11
4523.137356965249
 21
7496.152997165626
 31
0.0
  0
DIMENSION
  5
17C9D
330
747D
100
AcDbEntity
  8
寸法
 48
50.0
100
AcDbDimension
  2
*D19
 10
4487.137356965248
 20
6916.222226399462
 30
0.0
 11
4376.174459316501
 21
7016.222226399462
 31
0.0
 70
   160
 71
     5
 42
48.00000000000181
  3
INABA_S40G
100
AcDbAlignedDimension
 13
4535.137356965249
 23
7450.652997165715
 33
0.0
 14
4487.137356965248
 24
7476.652997165627
 34
0.0
100
AcDbRotatedDimension
1001
ACAD
1000
DSTYLE
1002
{
1070
   279
1070
     2
1002
}
  0
DIMENSION
  5
17C9E
330
747D
100
AcDbEntity
  8
寸法
 48
50.0
100
AcDbDimension
  2
*D18
 10
4645.137356965262
 20
6916.222226399462
 30
0.0
 11
4806.039327965323
 21
7016.222226399462
 31
0.0
 70
   160
 71
     5
 42
48.00000000000363
  3
INABA_S40G
100
AcDbAlignedDimension
 13
4693.137356965266
 23
7476.652997165627
 33
0.0
 14
4645.137356965262
 24
7450.652997165628
 34
0.0
100
AcDbRotatedDimension
1001
ACAD
1000
DSTYLE
1002
{
1070
   279
1070
     2
1002
}
  0
DIMENSION
  5
17C9F
330
747D
100
AcDbEntity
  8
寸法
 48
50.0
100
AcDbDimension
  2
*D21
 10
4535.137356965249
 20
6916.222226399462
 30
0.0
 11
4590.137356965256
 21
6764.530331363232
 31
0.0
 70
   160
 71
     5
 42
110.0000000000127
  3
INABA_S40G
100
AcDbAlignedDimension
 13
4645.137356965262
 23
7450.652997165628
 33
0.0
 14
4535.137356965249
 24
7450.652997165715
 34
0.0
100
AcDbRotatedDimension
1001
ACAD
1000
DSTYLE
1002
{
1070
   279
1070
     2
1002
}
  0
LINE
  5
17CA0
330
747D
100
AcDbEntity
  8
部品1
100
AcDbLine
 10
4693.137356965266
 20
7515.652997165627
 30
0.0
 11
4645.137356965266
 21
7515.652997165627
 31
0.0
  0
LINE
  5
17CA1
330
747D
100
AcDbEntity
  8
部品1
100
AcDbLine
 10
4693.137356965266
 20
7476.652997165627
 30
0.0
 11
4645.137356965266
 21
7476.652997165627
 31
0.0
  0
LINE
  5
17CA2
330
747D
100
AcDbEntity
  8
部品1
100
AcDbLine
 10
4487.137356965248
 20
7515.652997165627
 30
0.0
 11
4535.137356965249
 21
7515.652997165627
 31
0.0
  0
LINE
  5
17CA3
330
747D
100
AcDbEntity
  8
部品1
100
AcDbLine
 10
4487.137356965248
 20
7476.652997165627
 30
0.0
 11
4535.137356965248
 21
7476.652997165627
 31
0.0
  0
LINE
  5
17CA4
330
747D
100
AcDbEntity
  8
部品1
 48
50.0
100
AcDbLine
 10
4487.137356965248
 20
7515.652997165627
 30
0.0
 11
4487.137356965248
 21
7506.652997165628
 31
0.0
  0
LINE
  5
17CA5
330
747D
100
AcDbEntity
  8
部品1
 48
50.0
100
AcDbLine
 10
4487.137356965248
 20
7476.652997165627
 30
0.0
 11
4487.137356965248
 21
7485.652997165627
 31
0.0
  0
LINE
  5
17CA6
330
747D
100
AcDbEntity
  8
部品1
 48
50.0
100
AcDbLine
 10
4525.137356965248
 20
7476.652997165627
 30
0.0
 11
4535.137356965248
 21
7455.652997165628
 31
0.0
  0
LINE
  5
17CA7
330
747D
100
AcDbEntity
  8
部品1
 48
50.0
100
AcDbLine
 10
4655.137356965266
 20
7476.652997165627
 30
0.0
 11
4645.137356965266
 21
7455.652997165628
 31
0.0
  0
LINE
  5
17CA8
330
747D
100
AcDbEntity
  8
部品1
 48
50.0
100
AcDbLine
 10
4645.137356965266
 20
7515.652997165625
 30
0.0
 11
4645.137356965262
 21
7450.652997165628
 31
0.0
  0
LINE
  5
17CA9
330
747D
100
AcDbEntity
  8
部品1
100
AcDbLine
 10
4535.137356965248
 20
7486.652997165624
 30
0.0
 11
4558.137356965247
 21
7486.652997165626
 31
0.0
  0
LINE
  5
17CAA
330
747D
100
AcDbEntity
  8
部品1
 48
50.0
100
AcDbLine
 10
4535.137356965253
 20
7515.652997165715
 30
0.0
 11
4535.137356965249
 21
7450.652997165715
 31
0.0
  0
LINE
  5
17CAB
330
747D
100
AcDbEntity
  8
部品1
100
AcDbLine
 10
4614.137356965257
 20
7505.652997165623
 30
0.0
 11
4566.137356965256
 21
7505.652997165622
 31
0.0
  0
LINE
  5
17CAC
330
747D
100
AcDbEntity
  8
部品1
 48
50.0
100
AcDbLine
 10
4566.137356965256
 20
7505.652997165623
 30
0.0
 11
4566.13735696526
 21
7450.652997165623
 31
0.0
  0
LINE
  5
17CAD
330
747D
100
AcDbEntity
  8
部品1
 48
50.0
100
AcDbLine
 10
4614.137356965257
 20
7505.652997165623
 30
0.0
 11
4614.137356965261
 21
7450.652997165623
 31
0.0
  0
LINE
  5
17CAE
330
747D
100
AcDbEntity
  8
部品1
100
AcDbLine
 10
4645.137356965264
 20
7486.652997165626
 30
0.0
 11
4622.137356965266
 21
7486.652997165626
 31
0.0
  0
LINE
  5
17CAF
330
747D
100
AcDbEntity
  8
部品1
100
AcDbLine
 10
4645.13735696526
 20
7450.652997165628
 30
0.0
 11
4535.137356965251
 21
7450.652997165621
 31
0.0
  0
LINE
  5
17CB0
330
747D
100
AcDbEntity
  8
部品1
 48
50.0
100
AcDbLine
 10
4693.137356965266
 20
7515.652997165627
 30
0.0
 11
4693.137356965266
 21
7506.652997165628
 31
0.0
  0
LINE
  5
17CB1
330
747D
100
AcDbEntity
  8
部品1
 48
50.0
100
AcDbLine
 10
4693.137356965266
 20
7476.652997165627
 30
0.0
 11
4693.137356965266
 21
7485.652997165627
 31
0.0
  0
LINE
  5
17D73
330
747D
100
AcDbEntity
  8
部品1
100
AcDbLine
 10
1960.137356965239
 20
10080.65299716568
 30
0.0
 11
9850.137356965275
 21
10080.65299716573
 31
0.0
  0
LINE
  5
18606
330
747D
100
AcDbEntity
  8
部品1
100
AcDbLine
 10
5905.137356965272
 20
10080.65299716563
 30
0.0
 11
5905.137356965272
 21
10052.65299716563
 31
0.0
  0
LINE
  5
18607
330
747D
100
AcDbEntity
  8
部品1
100
AcDbLine
 10
5905.137356965272
 20
10080.65299716563
 30
0.0
 11
5905.137356965272
 21
10052.65299716563
 31
0.0
  0
LINE
  5
18608
330
747D
100
AcDbEntity
  8
部品1
100
AcDbLine
 10
5905.137356965272
 20
10080.65299716575
 30
0.0
 11
5905.137356965272
 21
10052.65299716574
 31
0.0
  0
LINE
  5
19F29
330
747D
100
AcDbEntity
  8
部品1
 48
50.0
100
AcDbLine
 10
7248.137356965241
 20
10025.65299716565
 30
0.0
 11
7248.137356965303
 21
10080.65299716571
 31
0.0
  0
LINE
  5
19F2A
330
747D
100
AcDbEntity
  8
部品1
 48
50.0
100
AcDbLine
 10
7192.13735696524
 20
10025.65299716565
 30
0.0
 11
7192.137356965273
 21
10052.65299716572
 31
0.0
  0
LINE
  5
19F2B
330
747D
100
AcDbEntity
  8
部品1
 48
50.0
100
AcDbLine
 10
4618.137356965241
 20
10025.65299716565
 30
0.0
 11
4618.137356965242
 21
10080.65299716569
 31
0.0
  0
LINE
  5
19F2C
330
747D
100
AcDbEntity
  8
部品1
 48
50.0
100
AcDbLine
 10
4562.13735696524
 20
10025.65299716565
 30
0.0
 11
4562.137356965239
 21
10080.65299716573
 31
0.0
  0
LINE
  5
19F30
330
747D
100
AcDbEntity
  8
部品1
 48
50.0
100
AcDbLine
 10
2015.137356965262
 20
7450.652997165626
 30
0.0
 11
4535.137356965249
 21
7450.652997165486
 31
0.0
  0
LINE
  5
19F31
330
747D
100
AcDbEntity
  8
部品1
 48
50.0
100
AcDbLine
 10
2015.137356965262
 20
7535.652997165627
 30
0.0
 11
4535.137356965249
 21
7535.652997165485
 31
0.0
  0
LINE
  5
19F32
330
747D
100
AcDbEntity
  8
部品1
 48
50.0
100
AcDbLine
 10
2015.137356965262
 20
7580.652997165626
 30
0.0
 11
4535.137356965249
 21
7580.652997165485
 31
0.0
  0
LINE
  5
19F33
330
747D
100
AcDbEntity
  8
破線
 48
10.0
100
AcDbLine
 10
2040.137356965126
 20
7605.652997165626
 30
0.0
 11
2834.637356965166
 21
7605.652997165581
 31
0.0
  0
LINE
  5
19F34
330
747D
100
AcDbEntity
  8
破線
 48
10.0
100
AcDbLine
 10
2884.637356965163
 20
7605.652997165577
 30
0.0
 11
3665.637356965167
 21
7605.652997165532
 31
0.0
  0
LINE
  5
19F35
330
747D
100
AcDbEntity
  8
破線
 48
10.0
100
AcDbLine
 10
2834.637356965166
 20
7580.652997165582
 30
0.0
 11
2834.637356965268
 21
9600.652997165701
 31
0.0
  0
LINE
  5
19F36
330
747D
100
AcDbEntity
  8
破線
 48
10.0
100
AcDbLine
 10
2884.637356965163
 20
7580.652997165579
 30
0.0
 11
2884.637356965266
 21
9600.652997165704
 31
0.0
  0
LINE
  5
19F37
330
747D
100
AcDbEntity
  8
破線
 48
10.0
100
AcDbLine
 10
3715.637356965163
 20
7580.652997165532
 30
0.0
 11
3715.637356965268
 21
9600.652997165735
 31
0.0
  0
LINE
  5
19F38
330
747D
100
AcDbEntity
  8
破線
 48
10.0
100
AcDbLine
 10
3665.637356965164
 20
7580.652997165535
 30
0.0
 11
3665.637356965268
 21
9600.652997165735
 31
0.0
  0
LINE
  5
19F39
330
747D
100
AcDbEntity
  8
破線
 48
10.0
100
AcDbLine
 10
3715.637356965166
 20
7605.652997165531
 30
0.0
 11
4510.137356965141
 21
7605.652997165485
 31
0.0
  0
LINE
  5
19F3A
330
747D
100
AcDbEntity
  8
部品1
 48
50.0
100
AcDbLine
 10
2015.137356965262
 20
7925.652997165602
 30
0.0
 11
4535.137356965267
 21
7925.652997165599
 31
0.0
  0
LINE
  5
19F3B
330
747D
100
AcDbEntity
  8
破線
 48
10.0
100
AcDbLine
 10
2040.137356965126
 20
7605.652997165626
 30
0.0
 11
2040.137356965228
 21
9600.652997165635
 31
0.0
  0
LINE
  5
19F3C
330
747D
100
AcDbEntity
  8
破線
 48
10.0
100
AcDbLine
 10
4510.137356965138
 20
7605.652997165485
 30
0.0
 11
4510.137356965242
 21
9600.652997165731
 31
0.0
  0
LINE
  5
19F3D
330
747D
100
AcDbEntity
  8
部品1
100
AcDbLine
 10
4562.137356965255
 20
10025.65299716565
 30
0.0
 11
4562.137356965243
 21
7450.652997165622
 31
0.0
  0
LINE
  5
19F3E
330
747D
100
AcDbEntity
  8
部品1
100
AcDbLine
 10
4618.137356965235
 20
7450.652997165626
 30
0.0
 11
4618.137356965253
 21
10025.65299716565
 31
0.0
  0
LINE
  5
19F3F
330
747D
100
AcDbEntity
  8
部品1
100
AcDbLine
 10
4535.137356965267
 20
7515.652997165627
 30
0.0
 11
4535.13735696527
 21
9600.652997165731
 31
0.0
  0
LINE
  5
19F40
330
747D
100
AcDbEntity
  8
部品1
100
AcDbLine
 10
4645.137356965282
 20
7515.652997165627
 30
0.0
 11
4645.137356965271
 21
9600.65299716563
 31
0.0
  0
LINE
  5
19F41
330
747D
100
AcDbEntity
  8
部品1
 48
50.0
100
AcDbLine
 10
2015.137356965262
 20
8345.652997165602
 30
0.0
 11
4535.137356965267
 21
8345.652997165599
 31
0.0
  0
LINE
  5
19F42
330
747D
100
AcDbEntity
  8
部品1
 48
50.0
100
AcDbLine
 10
2015.137356965262
 20
9185.652997165602
 30
0.0
 11
4535.137356965267
 21
9185.652997165599
 31
0.0
  0
LINE
  5
19F43
330
747D
100
AcDbEntity
  8
部品1
 48
50.0
100
AcDbLine
 10
2015.137356965262
 20
8765.6529971656
 30
0.0
 11
4535.137356965267
 21
8765.652997165599
 31
0.0
  0
LINE
  5
19F50
330
747D
100
AcDbEntity
  8
部品1
 48
50.0
100
AcDbLine
 10
9795.137356965284
 20
8765.6529971656
 30
0.0
 11
7275.137356965278
 21
8765.652997165599
 31
0.0
  0
LINE
  5
19F51
330
747D
100
AcDbEntity
  8
部品1
 48
50.0
100
AcDbLine
 10
9795.137356965284
 20
9185.652997165602
 30
0.0
 11
7275.137356965278
 21
9185.652997165599
 31
0.0
  0
LINE
  5
19F52
330
747D
100
AcDbEntity
  8
部品1
 48
50.0
100
AcDbLine
 10
9795.137356965284
 20
8345.652997165602
 30
0.0
 11
7275.137356965278
 21
8345.652997165599
 31
0.0
  0
LINE
  5
19F53
330
747D
100
AcDbEntity
  8
部品1
 48
50.0
100
AcDbLine
 10
9795.137356965284
 20
7925.652997165602
 30
0.0
 11
7275.137356965278
 21
7925.652997165599
 31
0.0
  0
LINE
  5
19F54
330
747D
100
AcDbEntity
  8
破線
 48
10.0
100
AcDbLine
 10
8925.637356965385
 20
7605.652997165577
 30
0.0
 11
8144.637356965381
 21
7605.652997165532
 31
0.0
  0
LINE
  5
19F55
330
747D
100
AcDbEntity
  8
部品1
 48
50.0
100
AcDbLine
 10
9795.137356965284
 20
7580.652997165626
 30
0.0
 11
7275.137356965297
 21
7580.652997165485
 31
0.0
  0
LINE
  5
19F56
330
747D
100
AcDbEntity
  8
破線
 48
10.0
100
AcDbLine
 10
9770.13735696542
 20
7605.652997165626
 30
0.0
 11
9770.137356965319
 21
9600.652997165724
 31
0.0
  0
LINE
  5
19F57
330
747D
100
AcDbEntity
  8
破線
 48
10.0
100
AcDbLine
 10
8925.637356965385
 20
7580.652997165579
 30
0.0
 11
8925.63735696528
 21
9600.652997165731
 31
0.0
  0
LINE
  5
19F58
330
747D
100
AcDbEntity
  8
破線
 48
10.0
100
AcDbLine
 10
8975.63735696538
 20
7580.652997165582
 30
0.0
 11
8975.637356965277
 21
9600.652997165731
 31
0.0
  0
LINE
  5
19F59
330
747D
100
AcDbEntity
  8
部品1
100
AcDbLine
 10
9795.137356965298
 20
9600.652997165726
 30
0.0
 11
9795.137356965284
 21
7486.652997165624
 31
0.0
  0
LINE
  5
19F5A
330
747D
100
AcDbEntity
  8
破線
 48
10.0
100
AcDbLine
 10
9770.13735696542
 20
7605.652997165626
 30
0.0
 11
8975.63735696538
 21
7605.652997165581
 31
0.0
  0
LINE
  5
19F5D
330
747D
100
AcDbEntity
  8
部品1
100
AcDbLine
 10
7275.137356965278
 20
7515.652997165627
 30
0.0
 11
7275.137356965277
 21
9600.652997165628
 31
0.0
  0
LINE
  5
19F5E
330
747D
100
AcDbEntity
  8
破線
 48
10.0
100
AcDbLine
 10
7300.137356965407
 20
7605.652997165485
 30
0.0
 11
7300.137356965307
 21
9600.652997165632
 31
0.0
  0
LINE
  5
19F5F
330
747D
100
AcDbEntity
  8
破線
 48
10.0
100
AcDbLine
 10
8144.637356965382
 20
7580.652997165535
 30
0.0
 11
8144.637356965279
 21
9600.652997165701
 31
0.0
  0
LINE
  5
19F60
330
747D
100
AcDbEntity
  8
破線
 48
10.0
100
AcDbLine
 10
8094.637356965384
 20
7580.652997165532
 30
0.0
 11
8094.637356965279
 21
9600.652997165695
 31
0.0
  0
LINE
  5
19F61
330
747D
100
AcDbEntity
  8
破線
 48
10.0
100
AcDbLine
 10
8094.63735696538
 20
7605.652997165531
 30
0.0
 11
7300.137356965406
 21
7605.652997165485
 31
0.0
  0
LINE
  5
19F64
330
747D
100
AcDbEntity
  8
部品1
 48
50.0
100
AcDbLine
 10
9795.137356965284
 20
7535.652997165627
 30
0.0
 11
7275.137356965297
 21
7535.652997165485
 31
0.0
  0
LINE
  5
19F65
330
747D
100
AcDbEntity
  8
部品1
 48
50.0
100
AcDbLine
 10
9795.137356965284
 20
7450.652997165626
 30
0.0
 11
7275.137356965297
 21
7450.652997165486
 31
0.0
  0
LINE
  5
19F7E
330
747D
100
AcDbEntity
  8
部品1
100
AcDbLine
 10
7192.137356965256
 20
10025.65299716565
 30
0.0
 11
7192.137356965244
 21
7450.652997165622
 31
0.0
  0
LINE
  5
19F7F
330
747D
100
AcDbEntity
  8
部品1
100
AcDbLine
 10
7248.137356965234
 20
7450.652997165626
 30
0.0
 11
7248.137356965253
 21
10025.65299716565
 31
0.0
  0
LINE
  5
19F80
330
747D
100
AcDbEntity
  8
部品1
100
AcDbLine
 10
7165.137356965267
 20
7515.652997165627
 30
0.0
 11
7165.137356965271
 21
9600.652997165726
 31
0.0
  0
LINE
  5
19F89
330
747D
100
AcDbEntity
  8
破線
 48
10.0
100
AcDbLine
 10
5514.637356965162
 20
7605.652997165577
 30
0.0
 11
5570.830170180855
 21
7605.652997165574
 31
0.0
  0
LINE
  5
19F8B
330
747D
100
AcDbEntity
  8
破線
 48
10.0
100
AcDbLine
 10
5514.637356965162
 20
7580.652997165579
 30
0.0
 11
5514.637356965266
 21
9600.652997165701
 31
0.0
  0
LINE
  5
19F8C
330
747D
100
AcDbEntity
  8
破線
 48
10.0
100
AcDbLine
 10
5464.637356965166
 20
7580.652997165582
 30
0.0
 11
5464.637356965268
 21
9600.652997165695
 31
0.0
  0
LINE
  5
19F8D
330
747D
100
AcDbEntity
  8
破線
 48
10.0
100
AcDbLine
 10
4670.137356965126
 20
7605.652997165626
 30
0.0
 11
5464.637356965166
 21
7605.652997165581
 31
0.0
  0
LINE
  5
19F8F
330
747D
100
AcDbEntity
  8
破線
 48
10.0
100
AcDbLine
 10
6295.637356965165
 20
7580.652997165535
 30
0.0
 11
6295.637356965268
 21
9600.652997165731
 31
0.0
  0
LINE
  5
19F90
330
747D
100
AcDbEntity
  8
破線
 48
10.0
100
AcDbLine
 10
6345.637356965163
 20
7580.652997165532
 30
0.0
 11
6345.637356965267
 21
9600.652997165731
 31
0.0
  0
LINE
  5
19F91
330
747D
100
AcDbEntity
  8
破線
 48
10.0
100
AcDbLine
 10
6345.637356965166
 20
7605.652997165531
 30
0.0
 11
7140.137356965141
 21
7605.652997165485
 31
0.0
  0
LINE
  5
19F95
330
747D
100
AcDbEntity
  8
破線
 48
10.0
100
AcDbLine
 10
7140.137356965138
 20
7605.652997165485
 30
0.0
 11
7140.137356965239
 21
9600.652997165726
 31
0.0
  0
LINE
  5
19F96
330
747D
100
AcDbEntity
  8
破線
 48
10.0
100
AcDbLine
 10
4670.137356965126
 20
7605.652997165626
 30
0.0
 11
4670.137356965227
 21
9600.652997165632
 31
0.0
  0
LINE
  5
19FEA
330
747D
100
AcDbEntity
  8
部品1
 48
50.0
100
AcDbLine
 10
9795.137356965248
 20
7486.652997165624
 30
0.0
 11
9795.137356965284
 21
7450.652997165626
 31
0.0
  0
LINE
  5
1A07C
330
747D
100
AcDbEntity
  8
部品1
100
AcDbLine
 10
5917.637356965272
 20
10052.65299716573
 30
0.0
 11
7192.137356965273
 21
10052.65299716572
 31
0.0
  0
TEXT
  5
1A09B
330
747D
100
AcDbEntity
  8
文字
 48
50.0
100
AcDbText
 10
5418.318536160576
 20
6955.875039731477
 30
0.0
 40
120.0
  1
2424
  7
STYLE1
100
AcDbText
  0
LINE
  5
1A09C
330
747D
100
AcDbEntity
  8
寸法
 48
50.0
100
AcDbLine
 10
4796.137362943624
 20
6916.222211684798
 30
0.0
 11
5786.137362943623
 21
6916.222211684798
 31
0.0
  0
TEXT
  5
1A09D
330
747D
100
AcDbEntity
  8
文字
 48
50.0
100
AcDbText
 10
6057.486924287087
 20
6955.875039731477
 30
0.0
 40
120.0
  1
2424
  7
STYLE1
100
AcDbText
  0
LINE
  5
1A09E
330
747D
100
AcDbEntity
  8
寸法
 48
50.0
100
AcDbLine
 10
6027.137362943598
 20
6916.222211684798
 30
0.0
 11
7017.137362943597
 21
6916.222211684798
 31
0.0
  0
TEXT
  5
1A09F
330
747D
100
AcDbEntity
  8
文字
 48
50.0
100
AcDbText
 10
6362.486918308763
 20
10785.4355183937
 30
0.0
 40
120.0
  1
2630
  7
STYLE1
100
AcDbText
  0
LINE
  5
1A0A0
330
747D
100
AcDbEntity
  8
寸法
 48
50.0
100
AcDbLine
 10
6332.137356965273
 20
10745.78269034702
 30
0.0
 11
7220.137356965273
 21
10745.78269034702
 31
0.0
  0
TEXT
  5
1A0A1
330
747D
100
AcDbEntity
  8
文字
 48
50.0
100
AcDbText
 10
6355.486918308763
 20
10536.1140448374
 30
0.0
 40
120.0
  1
2520
  7
STYLE1
100
AcDbText
  0
LINE
  5
1A0A2
330
747D
100
AcDbEntity
  8
寸法
 48
50.0
100
AcDbLine
 10
6325.137356965274
 20
10496.46121679073
 30
0.0
 11
7165.137356965273
 21
10496.46121679073
 31
0.0
  0
TEXT
  5
1A0A3
330
747D
100
AcDbEntity
  8
文字
 48
50.0
100
AcDbText
 10
5117.318530182223
 20
10536.1140448374
 30
0.0
 40
120.0
  1
2520
  7
STYLE1
100
AcDbText
  0
TEXT
  5
1A0A4
330
747D
100
AcDbEntity
  8
文字
 48
50.0
100
AcDbText
 10
5110.318530182225
 20
10785.4355183937
 30
0.0
 40
120.0
  1
2630
  7
STYLE1
100
AcDbText
  0
LINE
  5
1A0A5
330
747D
100
AcDbEntity
  8
寸法
 48
50.0
100
AcDbLine
 10
4590.137356965273
 20
10745.78269034702
 30
0.0
 11
5478.137356965273
 21
10745.78269034702
 31
0.0
  0
LINE
  5
1A0A6
330
747D
100
AcDbEntity
  8
寸法
 48
50.0
100
AcDbLine
 10
4645.137356965271
 20
10496.46121679073
 30
0.0
 11
5485.137356965271
 21
10496.46121679073
 31
0.0
  0
LINE
  5
1A16A
330
747D
100
AcDbEntity
  8
細線
 48
50.0
100
AcDbLine
 10
9821.637356965272
 20
9600.652997165726
 30
0.0
 11
8548.63735696527
 21
10050.65299716572
 31
0.0
  0
LINE
  5
1A16B
330
747D
100
AcDbEntity
  8
細線
 48
50.0
100
AcDbLine
 10
9821.637356965272
 20
10050.65299716572
 30
0.0
 11
8548.63735696527
 21
9600.652997165733
 31
0.0
  0
LINE
  5
1A16E
330
747D
100
AcDbEntity
  8
部品1
100
AcDbLine
 10
7191.637356965272
 20
10050.65299716572
 30
0.0
 11
7191.637356965272
 21
9600.652997165726
 31
0.0
  0
LINE
  5
1A16F
330
747D
100
AcDbEntity
  8
部品1
 48
50.0
100
AcDbLine
 10
5917.637356965272
 20
10052.65299716573
 30
0.0
 11
5917.637356965272
 21
9600.652997165733
 31
0.0
  0
LINE
  5
1A170
330
747D
100
AcDbEntity
  8
部品1
 48
50.0
100
AcDbLine
 10
5892.637356965272
 20
10052.65299716573
 30
0.0
 11
5892.637356965272
 21
9600.652997165733
 31
0.0
  0
LINE
  5
1A171
330
747D
100
AcDbEntity
  8
部品1
 48
50.0
100
AcDbLine
 10
5918.637356965271
 20
10050.65299716572
 30
0.0
 11
5918.637356965271
 21
9600.652997165733
 31
0.0
  0
LINE
  5
1A172
330
747D
100
AcDbEntity
  8
部品1
 48
50.0
100
AcDbLine
 10
5891.637356965271
 20
10050.65299716573
 30
0.0
 11
5891.637356965271
 21
9600.652997165733
 31
0.0
  0
LINE
  5
1A173
330
747D
100
AcDbEntity
  8
細線
 48
50.0
100
AcDbLine
 10
5891.637356965271
 20
10050.65299716573
 30
0.0
 11
4618.637356965272
 21
9600.652997165628
 31
0.0
  0
LINE
  5
1A174
330
747D
100
AcDbEntity
  8
細線
 48
50.0
100
AcDbLine
 10
5891.637356965271
 20
9600.652997165733
 30
0.0
 11
4618.637356965272
 21
10050.65299716562
 31
0.0
  0
LINE
  5
1A175
330
747D
100
AcDbEntity
  8
細線
 48
50.0
100
AcDbLine
 10
7191.637356965272
 20
9600.652997165726
 30
0.0
 11
5918.637356965271
 21
10050.65299716572
 31
0.0
  0
LINE
  5
1A176
330
747D
100
AcDbEntity
  8
細線
 48
50.0
100
AcDbLine
 10
7191.637356965272
 20
10050.65299716572
 30
0.0
 11
5918.637356965271
 21
9600.652997165733
 31
0.0
  0
LINE
  5
1A177
330
747D
100
AcDbEntity
  8
部品1
 48
50.0
100
AcDbLine
 10
7248.637356965272
 20
10050.65299716562
 30
0.0
 11
7248.637356965272
 21
9600.652997165624
 31
0.0
  0
LINE
  5
1A178
330
747D
100
AcDbEntity
  8
部品1
 48
50.0
100
AcDbLine
 10
8547.637356965273
 20
10052.65299716573
 30
0.0
 11
8547.637356965273
 21
9600.652997165733
 31
0.0
  0
LINE
  5
1A179
330
747D
100
AcDbEntity
  8
部品1
 48
50.0
100
AcDbLine
 10
8522.637356965272
 20
10052.65299716573
 30
0.0
 11
8522.637356965272
 21
9600.652997165733
 31
0.0
  0
LINE
  5
1A17A
330
747D
100
AcDbEntity
  8
部品1
 48
50.0
100
AcDbLine
 10
8548.63735696527
 20
10050.65299716572
 30
0.0
 11
8548.63735696527
 21
9600.652997165733
 31
0.0
  0
LINE
  5
1A17B
330
747D
100
AcDbEntity
  8
部品1
 48
50.0
100
AcDbLine
 10
8521.637356965271
 20
10050.65299716573
 30
0.0
 11
8521.637356965271
 21
9600.652997165733
 31
0.0
  0
LINE
  5
1A17C
330
747D
100
AcDbEntity
  8
細線
 48
50.0
100
AcDbLine
 10
8521.637356965271
 20
10050.65299716573
 30
0.0
 11
7248.637356965272
 21
9600.652997165628
 31
0.0
  0
LINE
  5
1A17D
330
747D
100
AcDbEntity
  8
細線
 48
50.0
100
AcDbLine
 10
8521.637356965271
 20
9600.652997165733
 30
0.0
 11
7248.637356965272
 21
10050.65299716562
 31
0.0
  0
LINE
  5
1A185
330
747D
100
AcDbEntity
  8
部品1
100
AcDbLine
 10
7248.637356965272
 20
9600.652997165628
 30
0.0
 11
8521.637356965271
 21
9600.652997165733
 31
0.0
  0
LINE
  5
1A187
330
747D
100
AcDbEntity
  8
部品1
100
AcDbLine
 10
8548.63735696527
 20
9600.652997165733
 30
0.0
 11
9821.637356965272
 21
9600.652997165726
 31
0.0
  0
LINE
  5
1A188
330
747D
100
AcDbEntity
  8
部品1
100
AcDbLine
 10
4618.637356965272
 20
9600.652997165628
 30
0.0
 11
5891.637356965271
 21
9600.652997165733
 31
0.0
  0
LINE
  5
1A189
330
747D
100
AcDbEntity
  8
部品1
 48
50.0
100
AcDbLine
 10
4618.637356965272
 20
10050.65299716562
 30
0.0
 11
4618.637356965272
 21
9600.652997165624
 31
0.0
  0
LINE
  5
1A18A
330
747D
100
AcDbEntity
  8
部品1
100
AcDbLine
 10
4618.637356965272
 20
10050.65299716562
 30
0.0
 11
5891.637356965271
 21
10050.65299716573
 31
0.0
  0
LINE
  5
1A18B
330
747D
100
AcDbEntity
  8
部品1
100
AcDbLine
 10
5905.137356965272
 20
10080.65299716574
 30
0.0
 11
5905.137356965272
 21
10052.65299716574
 31
0.0
  0
LINE
  5
1A18C
330
747D
100
AcDbEntity
  8
部品1
100
AcDbLine
 10
5892.637356965272
 20
10044.65299716572
 30
0.0
 11
5917.637356965272
 21
10044.65299716573
 31
0.0
  0
LINE
  5
1A18E
330
747D
100
AcDbEntity
  8
部品1
100
AcDbLine
 10
5870.137356965272
 20
10070.65299716573
 30
0.0
 11
5870.137356965272
 21
10052.65299716573
 31
0.0
  0
LINE
  5
1A18F
330
747D
100
AcDbEntity
  8
部品1
100
AcDbLine
 10
5870.137356965272
 20
10070.65299716573
 30
0.0
 11
5876.137356965272
 21
10070.65299716573
 31
0.0
  0
LINE
  5
1A192
330
747D
100
AcDbEntity
  8
部品1
100
AcDbLine
 10
5940.137356965272
 20
10070.65299716573
 30
0.0
 11
5940.137356965272
 21
10052.65299716573
 31
0.0
  0
LINE
  5
1A193
330
747D
100
AcDbEntity
  8
部品1
100
AcDbLine
 10
5934.137356965272
 20
10070.65299716573
 30
0.0
 11
5940.137356965272
 21
10070.65299716573
 31
0.0
  0
LINE
  5
1A194
330
747D
100
AcDbEntity
  8
部品1
 48
50.0
100
AcDbLine
 10
7192.137356965239
 20
10052.65299716567
 30
0.0
 11
7220.137356965238
 21
10052.65299716567
 31
0.0
  0
LINE
  5
1A195
330
747D
100
AcDbEntity
  8
部品1
 48
50.0
100
AcDbLine
 10
7192.137356965239
 20
10052.65299716577
 30
0.0
 11
7192.137356965239
 21
10080.65299716572
 31
0.0
  0
LINE
  5
1A196
330
747D
100
AcDbEntity
  8
部品1
100
AcDbLine
 10
7248.137356965239
 20
10025.65299716564
 30
0.0
 11
7192.137356965239
 21
10025.65299716564
 31
0.0
  0
LINE
  5
1A197
330
747D
100
AcDbEntity
  8
部品1
 48
50.0
100
AcDbLine
 10
7220.137356965238
 20
10052.65299716567
 30
0.0
 11
7192.137356965239
 21
10080.65299716572
 31
0.0
  0
LINE
  5
1A198
330
747D
100
AcDbEntity
  8
部品1
100
AcDbLine
 10
7165.137356965272
 20
10080.65299716572
 30
0.0
 11
7165.137356965272
 21
10052.65299716572
 31
0.0
  0
LINE
  5
1A199
330
747D
100
AcDbEntity
  8
部品1
100
AcDbLine
 10
7275.137356965271
 20
10080.65299716563
 30
0.0
 11
7275.137356965271
 21
10052.65299716562
 31
0.0
  0
LINE
  5
1A19A
330
747D
100
AcDbEntity
  8
部品1
100
AcDbLine
 10
8522.637356965272
 20
10044.65299716572
 30
0.0
 11
8547.637356965273
 21
10044.65299716573
 31
0.0
  0
LINE
  5
1A19B
330
747D
100
AcDbEntity
  8
部品1
100
AcDbLine
 10
8548.63735696527
 20
10050.65299716573
 30
0.0
 11
9821.637356965272
 21
10050.65299716572
 31
0.0
  0
LINE
  5
1A19C
330
747D
100
AcDbEntity
  8
部品1
100
AcDbLine
 10
8547.637356965273
 20
10052.65299716574
 30
0.0
 11
9822.137356965271
 21
10052.65299716572
 31
0.0
  0
LINE
  5
1A19D
330
747D
100
AcDbEntity
  8
部品1
100
AcDbLine
 10
7248.637356965272
 20
10050.65299716562
 30
0.0
 11
8521.637356965271
 21
10050.65299716573
 31
0.0
  0
LINE
  5
1A19F
330
747D
100
AcDbEntity
  8
部品1
100
AcDbLine
 10
8500.137356965272
 20
10070.65299716573
 30
0.0
 11
8500.137356965272
 21
10052.65299716573
 31
0.0
  0
LINE
  5
1A1A0
330
747D
100
AcDbEntity
  8
部品1
100
AcDbLine
 10
8500.137356965272
 20
10070.65299716573
 30
0.0
 11
8506.137356965272
 21
10070.65299716573
 31
0.0
  0
LINE
  5
1A1A1
330
747D
100
AcDbEntity
  8
部品1
100
AcDbLine
 10
8570.137356965272
 20
10070.65299716573
 30
0.0
 11
8570.137356965272
 21
10052.65299716573
 31
0.0
  0
LINE
  5
1A1A2
330
747D
100
AcDbEntity
  8
部品1
100
AcDbLine
 10
8564.137356965272
 20
10070.65299716573
 30
0.0
 11
8570.137356965272
 21
10070.65299716573
 31
0.0
  0
LINE
  5
1A1A3
330
747D
100
AcDbEntity
  8
部品1
100
AcDbLine
 10
8535.137356965272
 20
10080.65299716574
 30
0.0
 11
8535.137356965272
 21
10052.65299716574
 31
0.0
  0
LINE
  5
1A1A4
330
747D
100
AcDbEntity
  8
部品1
100
AcDbLine
 10
9821.637356965272
 20
10050.65299716572
 30
0.0
 11
9821.637356965272
 21
9600.652997165726
 31
0.0
  0
LINE
  5
1A1D3
330
747D
100
AcDbEntity
  8
部品1
100
AcDbLine
 10
1988.137356965257
 20
10052.65299716574
 30
0.0
 11
3262.63735696527
 21
10052.65299716574
 31
0.0
  0
LINE
  5
1A1D4
330
747D
100
AcDbEntity
  8
部品1
100
AcDbLine
 10
1988.637356965271
 20
10050.65299716563
 30
0.0
 11
3261.637356965272
 21
10050.65299716573
 31
0.0
  0
LINE
  5
1A1D5
330
747D
100
AcDbEntity
  8
部品1
100
AcDbLine
 10
1988.637356965271
 20
9600.652997165632
 30
0.0
 11
3261.637356965272
 21
9600.652997165738
 31
0.0
  0
LINE
  5
1A1D6
330
747D
100
AcDbEntity
  8
細線
 48
50.0
100
AcDbLine
 10
3261.637356965272
 20
9600.652997165738
 30
0.0
 11
1988.637356965271
 21
10050.65299716563
 31
0.0
  0
LINE
  5
1A1D7
330
747D
100
AcDbEntity
  8
細線
 48
50.0
100
AcDbLine
 10
3261.637356965272
 20
10050.65299716573
 30
0.0
 11
1988.637356965271
 21
9600.652997165632
 31
0.0
  0
LINE
  5
1A1D8
330
747D
100
AcDbEntity
  8
部品1
 48
50.0
100
AcDbLine
 10
1988.637356965271
 20
10050.65299716562
 30
0.0
 11
1988.637356965271
 21
9600.652997165628
 31
0.0
  0
LINE
  5
1A1DC
330
747D
100
AcDbEntity
  8
部品1
100
AcDbLine
 10
3288.637356965272
 20
10050.65299716573
 30
0.0
 11
4561.637356965271
 21
10050.65299716572
 31
0.0
  0
LINE
  5
1A1DD
330
747D
100
AcDbEntity
  8
部品1
100
AcDbLine
 10
3288.637356965272
 20
9600.652997165738
 30
0.0
 11
4561.637356965271
 21
9600.652997165731
 31
0.0
  0
LINE
  5
1A1DE
330
747D
100
AcDbEntity
  8
細線
 48
50.0
100
AcDbLine
 10
4561.637356965271
 20
10050.65299716572
 30
0.0
 11
3288.637356965272
 21
9600.652997165738
 31
0.0
  0
LINE
  5
1A1DF
330
747D
100
AcDbEntity
  8
細線
 48
50.0
100
AcDbLine
 10
4561.637356965271
 20
9600.652997165731
 30
0.0
 11
3288.637356965272
 21
10050.65299716573
 31
0.0
  0
LINE
  5
1A1E0
330
747D
100
AcDbEntity
  8
部品1
 48
50.0
100
AcDbLine
 10
3261.637356965272
 20
10050.65299716573
 30
0.0
 11
3261.637356965272
 21
9600.652997165738
 31
0.0
  0
LINE
  5
1A1E1
330
747D
100
AcDbEntity
  8
部品1
 48
50.0
100
AcDbLine
 10
3288.637356965272
 20
10050.65299716573
 30
0.0
 11
3288.637356965272
 21
9600.652997165738
 31
0.0
  0
LINE
  5
1A1E2
330
747D
100
AcDbEntity
  8
部品1
 48
50.0
100
AcDbLine
 10
3262.637356965271
 20
10052.65299716574
 30
0.0
 11
3262.637356965271
 21
9600.652997165738
 31
0.0
  0
LINE
  5
1A1E3
330
747D
100
AcDbEntity
  8
部品1
 48
50.0
100
AcDbLine
 10
3287.637356965272
 20
10052.65299716573
 30
0.0
 11
3287.637356965272
 21
9600.652997165738
 31
0.0
  0
LINE
  5
1A1E4
330
747D
100
AcDbEntity
  8
部品1
100
AcDbLine
 10
3304.137356965271
 20
10070.65299716573
 30
0.0
 11
3310.137356965272
 21
10070.65299716573
 31
0.0
  0
LINE
  5
1A1E5
330
747D
100
AcDbEntity
  8
部品1
100
AcDbLine
 10
3310.137356965272
 20
10070.65299716573
 30
0.0
 11
3310.137356965272
 21
10052.65299716573
 31
0.0
  0
LINE
  5
1A1E6
330
747D
100
AcDbEntity
  8
部品1
100
AcDbLine
 10
3240.137356965271
 20
10070.65299716573
 30
0.0
 11
3246.137356965272
 21
10070.65299716573
 31
0.0
  0
LINE
  5
1A1E7
330
747D
100
AcDbEntity
  8
部品1
100
AcDbLine
 10
3240.137356965271
 20
10070.65299716573
 30
0.0
 11
3240.137356965271
 21
10052.65299716573
 31
0.0
  0
LINE
  5
1A1E8
330
747D
100
AcDbEntity
  8
部品1
100
AcDbLine
 10
3262.637356965271
 20
10044.65299716573
 30
0.0
 11
3287.637356965272
 21
10044.65299716573
 31
0.0
  0
LINE
  5
1A1E9
330
747D
100
AcDbEntity
  8
部品1
100
AcDbLine
 10
3275.137356965271
 20
10080.65299716575
 30
0.0
 11
3275.137356965271
 21
10052.65299716574
 31
0.0
  0
LINE
  5
1A1EA
330
747D
100
AcDbEntity
  8
部品1
 48
50.0
100
AcDbLine
 10
4618.637356965272
 20
10050.65299716562
 30
0.0
 11
4618.637356965272
 21
9600.652997165628
 31
0.0
  0
LINE
  5
1A1EB
330
747D
100
AcDbEntity
  8
部品1
100
AcDbLine
 10
4561.637356965271
 20
10050.65299716572
 30
0.0
 11
4561.637356965271
 21
9600.652997165731
 31
0.0
  0
LINE
  5
1A1F1
330
747D
100
AcDbEntity
  8
部品1
100
AcDbLine
 10
4645.137356965271
 20
10080.65299716563
 30
0.0
 11
4645.137356965271
 21
10052.65299716563
 31
0.0
  0
LINE
  5
1A1F2
330
747D
100
AcDbEntity
  8
部品1
100
AcDbLine
 10
4535.137356965271
 20
10080.65299716572
 30
0.0
 11
4535.137356965271
 21
10052.65299716572
 31
0.0
  0
LINE
  5
1A1F3
330
747D
100
AcDbEntity
  8
部品1
 48
50.0
100
AcDbLine
 10
4590.137356965239
 20
10052.65299716567
 30
0.0
 11
4562.137356965239
 21
10080.65299716573
 31
0.0
  0
LINE
  5
1A1F4
330
747D
100
AcDbEntity
  8
部品1
100
AcDbLine
 10
4618.137356965238
 20
10025.65299716565
 30
0.0
 11
4562.137356965239
 21
10025.65299716565
 31
0.0
  0
LINE
  5
1A1F5
330
747D
100
AcDbEntity
  8
部品1
 48
50.0
100
AcDbLine
 10
4562.137356965239
 20
10052.65299716578
 30
0.0
 11
4562.137356965239
 21
10080.65299716573
 31
0.0
  0
LINE
  5
1A1F6
330
747D
100
AcDbEntity
  8
部品1
 48
50.0
100
AcDbLine
 10
4562.137356965239
 20
10052.65299716567
 30
0.0
 11
4590.137356965239
 21
10052.65299716567
 31
0.0
  0
LINE
  5
1A1F7
330
747D
100
AcDbEntity
  8
部品1
 48
50.0
100
AcDbLine
 10
3262.637356965271
 20
9600.652997165738
 30
0.0
 11
3287.637356965272
 21
9600.652997165738
 31
0.0
  0
LINE
  5
1A1F8
330
747D
100
AcDbEntity
  8
部品1
 48
50.0
100
AcDbLine
 10
5892.637356965272
 20
9600.652997165733
 30
0.0
 11
5917.637356965272
 21
9600.652997165733
 31
0.0
  0
LINE
  5
1A1F9
330
747D
100
AcDbEntity
  8
部品1
 48
50.0
100
AcDbLine
 10
8522.637356965272
 20
9600.652997165733
 30
0.0
 11
8547.637356965273
 21
9600.652997165733
 31
0.0
  0
LINE
  5
1A1FA
330
747D
100
AcDbEntity
  8
部品1
100
AcDbLine
 10
5918.637356965271
 20
10050.65299716572
 30
0.0
 11
7191.637356965272
 21
10050.65299716572
 31
0.0
  0
LINE
  5
1A1FE
330
747D
100
AcDbEntity
  8
部品1
100
AcDbLine
 10
5918.637356965271
 20
9600.652997165731
 30
0.0
 11
7191.637356965272
 21
9600.652997165726
 31
0.0
  0
INSERT
  5
1A22D
330
747D
100
AcDbEntity
  8
部品1
 48
50.0
100
AcDbBlockReference
  2
A$C3EB005E7
 10
9821.637373251112
 20
9489.358243038831
 30
0.0
  0
TEXT
  5
1A2C6
330
747D
100
AcDbEntity
  8
文字
 62
     7
 48
50.0
100
AcDbText
 10
13583.11819016569
 20
8380.013745883735
 30
0.0
 40
100.0
  1
床パネル
 41
0.9
  7
STYLE1
100
AcDbText
  0
TEXT
  5
1A2C7
330
747D
100
AcDbEntity
  8
文字
 62
     7
 48
50.0
100
AcDbText
 10
15022.63965474516
 20
8380.013745883728
 30
0.0
 40
100.0
  1
F12            1.0
  7
STYLE1
100
AcDbText
  0
TEXT
  5
1A2C8
330
747D
100
AcDbEntity
  8
文字
 62
     7
 48
50.0
100
AcDbText
 10
13248.77747366448
 20
8550.013745883731
 30
0.0
 40
100.0
  1
15
  7
STYLE1
100
AcDbText
  0
LINE
  5
1A2C9
330
747D
100
AcDbEntity
  8
仕様書枠
 48
50.0
100
AcDbLine
 10
16307.19999999999
 20
8519.600000000002
 30
0.0
 11
13127.19999999999
 21
8519.600000000004
 31
0.0
  0
LINE
  5
1A2CA
330
747D
100
AcDbEntity
  8
仕様書枠
 48
50.0
100
AcDbLine
 10
16307.19999999999
 20
9879.600000000001
 30
0.0
 11
13127.19999999999
 21
9879.600000000003
 31
0.0
  0
LINE
  5
1A2CB
330
747D
100
AcDbEntity
  8
仕様書枠
 48
50.0
100
AcDbLine
 10
16307.19999999999
 20
11239.6
 30
0.0
 11
13127.2
 21
11239.6
 31
0.0
  0
LINE
  5
1A2CC
330
747D
100
AcDbEntity
  8
仕様書枠
 48
50.0
100
AcDbLine
 10
16307.19999999999
 20
7669.600000000013
 30
0.0
 11
16307.2
 21
11239.6
 31
0.0
  0
LINE
  5
1A2CD
330
747D
100
AcDbEntity
  8
仕様書枠
 48
50.0
100
AcDbLine
 10
14785.2
 20
11239.6
 30
0.0
 11
14785.19999999999
 21
8179.600000000013
 31
0.0
  0
LINE
  5
1A2CE
330
747D
100
AcDbEntity
  8
仕様書枠
 48
50.0
100
AcDbLine
 10
13490.2
 20
11239.6
 30
0.0
 11
13490.20000000001
 21
8179.600000000013
 31
0.0
  0
LINE
  5
1A2CF
330
747D
100
AcDbEntity
  8
仕様書枠
 48
50.0
100
AcDbLine
 10
16307.19999999999
 20
11069.6
 30
0.0
 11
13127.2
 21
11069.6
 31
0.0
  0
LINE
  5
1A2D0
330
747D
100
AcDbEntity
  8
仕様書枠
 48
50.0
100
AcDbLine
 10
16307.19999999999
 20
10729.6
 30
0.0
 11
13127.2
 21
10729.6
 31
0.0
  0
LINE
  5
1A2D1
330
747D
100
AcDbEntity
  8
仕様書枠
 48
50.0
100
AcDbLine
 10
16307.19999999999
 20
10899.6
 30
0.0
 11
13127.2
 21
10899.6
 31
0.0
  0
LINE
  5
1A2D2
330
747D
100
AcDbEntity
  8
仕様書枠
 48
50.0
100
AcDbLine
 10
16307.19999999999
 20
10389.6
 30
0.0
 11
13127.19999999999
 21
10389.6
 31
0.0
  0
LINE
  5
1A2D3
330
747D
100
AcDbEntity
  8
仕様書枠
 48
50.0
100
AcDbLine
 10
16307.19999999999
 20
10219.6
 30
0.0
 11
13127.19999999999
 21
10219.6
 31
0.0
  0
LINE
  5
1A2D4
330
747D
100
AcDbEntity
  8
仕様書枠
 48
50.0
100
AcDbLine
 10
16307.19999999999
 20
10559.6
 30
0.0
 11
13127.19999999999
 21
10559.6
 31
0.0
  0
TEXT
  5
1A2D5
330
747D
100
AcDbEntity
  8
文字
 62
     7
 48
50.0
100
AcDbText
 10
13197.42518560407
 20
11100.01374588373
 30
0.0
 40
100.0
  1
品番
  7
STYLE1
100
AcDbText
  0
TEXT
  5
1A2D6
330
747D
100
AcDbEntity
  8
文字
 62
     7
 48
50.0
100
AcDbText
 10
13271.19032244792
 20
10930.01374588373
 30
0.0
 40
100.0
  1
1
  7
STYLE1
100
AcDbText
  0
TEXT
  5
1A2D7
330
747D
100
AcDbEntity
  8
文字
 62
     7
 48
50.0
100
AcDbText
 10
13271.19032244792
 20
10760.01374588373
 30
0.0
 40
100.0
  1
2
  7
STYLE1
100
AcDbText
  0
TEXT
  5
1A2D8
330
747D
100
AcDbEntity
  8
文字
 62
     7
 48
50.0
100
AcDbText
 10
13271.19032244792
 20
10420.01374588373
 30
0.0
 40
100.0
  1
4
  7
STYLE1
100
AcDbText
  0
TEXT
  5
1A2D9
330
747D
100
AcDbEntity
  8
文字
 62
     7
 48
50.0
100
AcDbText
 10
13271.19032244792
 20
10590.01374588373
 30
0.0
 40
100.0
  1
3
  7
STYLE1
100
AcDbText
  0
TEXT
  5
1A2DA
330
747D
100
AcDbEntity
  8
文字
 62
     7
 48
50.0
100
AcDbText
 10
13732.03840939434
 20
11100.01374588373
 30
0.0
 40
100.0
  1
部　　品　　名
  7
STYLE1
100
AcDbText
  0
TEXT
  5
1A2DB
330
747D
100
AcDbEntity
  8
文字
 62
     7
 48
50.0
100
AcDbText
 10
14859.79774614482
 20
11100.01374588373
 30
0.0
 40
100.0
  1
材料（材質）　　単位mm
  7
STYLE1
100
AcDbText
  0
TEXT
  5
1A2DC
330
747D
100
AcDbEntity
  8
文字
 62
     7
 48
50.0
100
AcDbText
 10
13583.11819016569
 20
10930.01374588373
 30
0.0
 40
100.0
  1
土台枠
  7
STYLE1
100
AcDbText
  0
TEXT
  5
1A2DD
330
747D
100
AcDbEntity
  8
文字
 62
     7
 48
50.0
100
AcDbText
 10
13583.11819016569
 20
10760.01374588373
 30
0.0
 40
100.0
  1
柱
  7
STYLE1
100
AcDbText
  0
TEXT
  5
1A2DE
330
747D
100
AcDbEntity
  8
文字
 62
     7
 48
50.0
100
AcDbText
 10
13583.11819016569
 20
10590.01374588373
 30
0.0
 40
100.0
  1
桁前
  7
STYLE1
100
AcDbText
  0
TEXT
  5
1A2DF
330
747D
100
AcDbEntity
  8
文字
 62
     7
 48
50.0
100
AcDbText
 10
13583.11819016569
 20
10420.01374588373
 30
0.0
 40
100.0
  1
桁後
  7
STYLE1
100
AcDbText
  0
TEXT
  5
1A2E0
330
747D
100
AcDbEntity
  8
文字
 62
     7
 48
50.0
100
AcDbText
 10
13271.19032244792
 20
10250.01374588373
 30
0.0
 40
100.0
  1
5
  7
STYLE1
100
AcDbText
  0
TEXT
  5
1A2E1
330
747D
100
AcDbEntity
  8
文字
 62
     7
 48
50.0
100
AcDbText
 10
13583.11819016569
 20
10250.01374588373
 30
0.0
 40
100.0
  1
妻板左右
  7
STYLE1
100
AcDbText
  0
TEXT
  5
1A2E2
330
747D
100
AcDbEntity
  8
文字
 62
     7
 48
50.0
100
AcDbText
 10
13583.11819016569
 20
8720.013745883733
 30
0.0
 40
100.0
  1
シャッターレール
  7
STYLE1
100
AcDbText
  0
TEXT
  5
1A2E3
330
747D
100
AcDbEntity
  8
文字
 62
     7
 48
50.0
100
AcDbText
 10
13248.77747366448
 20
9400.013745883729
 30
0.0
 40
100.0
  1
10
  7
STYLE1
100
AcDbText
  0
TEXT
  5
1A2E4
330
747D
100
AcDbEntity
  8
文字
 62
     7
 48
50.0
100
AcDbText
 10
13583.11819016569
 20
9400.013745883732
 30
0.0
 40
100.0
  1
壁パネル
  7
STYLE1
100
AcDbText
  0
TEXT
  5
1A2E5
330
747D
100
AcDbEntity
  8
文字
 62
     7
 48
50.0
100
AcDbText
 10
13583.11819016569
 20
9570.013745883731
 30
0.0
 40
100.0
  1
屋根パネル
  7
STYLE1
100
AcDbText
  0
TEXT
  5
1A2E6
330
747D
100
AcDbEntity
  8
文字
 62
     7
 48
50.0
100
AcDbText
 10
13583.11819016569
 20
9740.013745883731
 30
0.0
 40
100.0
  1
母屋中
  7
STYLE1
100
AcDbText
  0
TEXT
  5
1A2E7
330
747D
100
AcDbEntity
  8
文字
 62
     7
 48
50.0
100
AcDbText
 10
13583.11819016569
 20
10080.01374588373
 30
0.0
 40
100.0
  1
鼻隠シ前後
  7
STYLE1
100
AcDbText
  0
TEXT
  5
1A2E8
330
747D
100
AcDbEntity
  8
文字
 62
     7
 48
50.0
100
AcDbText
 10
13271.19032244792
 20
9740.013745883731
 30
0.0
 40
100.0
  1
8
  7
STYLE1
100
AcDbText
  0
TEXT
  5
1A2E9
330
747D
100
AcDbEntity
  8
文字
 62
     7
 48
50.0
100
AcDbText
 10
13271.19032244792
 20
9570.013745883731
 30
0.0
 40
100.0
  1
9
  7
STYLE1
100
AcDbText
  0
TEXT
  5
1A2EA
330
747D
100
AcDbEntity
  8
文字
 62
     7
 48
50.0
100
AcDbText
 10
13271.19032244792
 20
9910.01374588373
 30
0.0
 40
100.0
  1
7
  7
STYLE1
100
AcDbText
  0
TEXT
  5
1A2EB
330
747D
100
AcDbEntity
  8
文字
 62
     7
 48
50.0
100
AcDbText
 10
13271.19032244792
 20
10080.01374588373
 30
0.0
 40
100.0
  1
6
  7
STYLE1
100
AcDbText
  0
LINE
  5
1A2EC
330
747D
100
AcDbEntity
  8
仕様書枠
 48
50.0
100
AcDbLine
 10
16307.19999999999
 20
9539.6
 30
0.0
 11
13127.19999999999
 21
9539.600000000003
 31
0.0
  0
LINE
  5
1A2ED
330
747D
100
AcDbEntity
  8
仕様書枠
 48
50.0
100
AcDbLine
 10
16307.19999999999
 20
9199.600000000001
 30
0.0
 11
13127.19999999999
 21
9199.600000000001
 31
0.0
  0
LINE
  5
1A2EE
330
747D
100
AcDbEntity
  8
仕様書枠
 48
50.0
100
AcDbLine
 10
16307.19999999999
 20
9369.600000000001
 30
0.0
 11
13127.19999999999
 21
9369.600000000003
 31
0.0
  0
LINE
  5
1A2EF
330
747D
100
AcDbEntity
  8
仕様書枠
 48
50.0
100
AcDbLine
 10
16307.19999999999
 20
10049.6
 30
0.0
 11
13127.2
 21
10049.6
 31
0.0
  0
LINE
  5
1A2F0
330
747D
100
AcDbEntity
  8
仕様書枠
 48
50.0
100
AcDbLine
 10
16307.19999999999
 20
9709.600000000001
 30
0.0
 11
13127.19999999999
 21
9709.600000000001
 31
0.0
  0
TEXT
  5
1A2F1
330
747D
100
AcDbEntity
  8
文字
 62
     7
 48
50.0
100
AcDbText
 10
13248.77747366448
 20
9230.013745883729
 30
0.0
 40
100.0
  1
11
  7
STYLE1
100
AcDbText
  0
TEXT
  5
1A2F2
330
747D
100
AcDbEntity
  8
文字
 62
     7
 48
50.0
100
AcDbText
 10
13583.11819016569
 20
8890.013745883731
 30
0.0
 40
100.0
  1
シャッターカバー
 41
0.9
  7
STYLE1
100
AcDbText
  0
LINE
  5
1A2F3
330
747D
100
AcDbEntity
  8
仕様書枠
 48
50.0
100
AcDbLine
 10
16307.19999999999
 20
9029.6
 30
0.0
 11
13127.19999999999
 21
9029.600000000002
 31
0.0
  0
LINE
  5
1A2F4
330
747D
100
AcDbEntity
  8
仕様書枠
 48
50.0
100
AcDbLine
 10
16307.19999999999
 20
8349.600000000007
 30
0.0
 11
13127.19999999999
 21
8349.600000000007
 31
0.0
  0
TEXT
  5
1A2F5
330
747D
100
AcDbEntity
  8
文字
 62
     7
 48
50.0
100
AcDbText
 10
13583.11819016569
 20
9060.013745883731
 30
0.0
 40
100.0
  1
シャッター
  7
STYLE1
100
AcDbText
  0
TEXT
  5
1A2F6
330
747D
100
AcDbEntity
  8
文字
 62
     7
 48
50.0
100
AcDbText
 10
13248.77747366448
 20
8890.013745883731
 30
0.0
 40
100.0
  1
13
  7
STYLE1
100
AcDbText
  0
TEXT
  5
1A2F7
330
747D
100
AcDbEntity
  8
文字
 62
     7
 48
50.0
100
AcDbText
 10
13248.77747366448
 20
9060.013745883731
 30
0.0
 40
100.0
  1
12
  7
STYLE1
100
AcDbText
  0
TEXT
  5
1A2F8
330
747D
100
AcDbEntity
  8
文字
 62
     7
 48
50.0
100
AcDbText
 10
15022.63965474517
 20
10930.01374588372
 30
0.0
 40
100.0
  1
F12            1.2
  7
STYLE1
100
AcDbText
  0
TEXT
  5
1A2F9
330
747D
100
AcDbEntity
  8
文字
 62
     7
 48
50.0
100
AcDbText
 10
15022.63965474517
 20
10760.01374588372
 30
0.0
 40
100.0
  1
F12         1.0,1.2
  7
STYLE1
100
AcDbText
  0
TEXT
  5
1A2FA
330
747D
100
AcDbEntity
  8
文字
 62
     7
 48
50.0
100
AcDbText
 10
15022.63965474516
 20
10590.01374588373
 30
0.0
 40
100.0
  1
Y10            1.0
  7
STYLE1
100
AcDbText
  0
TEXT
  5
1A2FB
330
747D
100
AcDbEntity
  8
文字
 62
     7
 48
50.0
100
AcDbText
 10
15022.63965474516
 20
10420.01374588372
 30
0.0
 40
100.0
  1
Y10            1.0
  7
STYLE1
100
AcDbText
  0
TEXT
  5
1A2FC
330
747D
100
AcDbEntity
  8
文字
 62
     7
 48
50.0
100
AcDbText
 10
15022.63965474516
 20
10250.01374588373
 30
0.0
 40
100.0
  1
Y10            0.7
  7
STYLE1
100
AcDbText
  0
TEXT
  5
1A2FD
330
747D
100
AcDbEntity
  8
文字
 62
     7
 48
50.0
100
AcDbText
 10
15022.63965474516
 20
10080.01374588372
 30
0.0
 40
100.0
  1
Y10            0.7
  7
STYLE1
100
AcDbText
  0
TEXT
  5
1A2FE
330
747D
100
AcDbEntity
  8
文字
 62
     7
 48
50.0
100
AcDbText
 10
15022.63965474516
 20
9570.013745883729
 30
0.0
 40
100.0
  1
Y10            0.5
  7
STYLE1
100
AcDbText
  0
TEXT
  5
1A2FF
330
747D
100
AcDbEntity
  8
文字
 62
     7
 48
50.0
100
AcDbText
 10
15022.63965474516
 20
9400.013745883729
 30
0.0
 40
100.0
  1
F12            0.7
  7
STYLE1
100
AcDbText
  0
TEXT
  5
1A300
330
747D
100
AcDbEntity
  8
文字
 62
     7
 48
50.0
100
AcDbText
 10
14850.83183167176
 20
8720.013745883731
 30
0.0
 40
100.0
  1
アルミニウム合金押出形材
  7
STYLE1
100
AcDbText
  0
TEXT
  5
1A302
330
747D
100
AcDbEntity
  8
文字
 62
     7
 48
50.0
100
AcDbText
 10
15022.63965474515
 20
9060.013745883727
 30
0.0
 40
100.0
  1
Z08            0.5
  7
STYLE1
100
AcDbText
  0
LINE
  5
1A303
330
747D
100
AcDbEntity
  8
仕様書枠
 48
50.0
100
AcDbLine
 10
16307.19999999998
 20
8009.600000000011
 30
0.0
 11
13127.19999999999
 21
8009.600000000013
 31
0.0
  0
LINE
  5
1A304
330
747D
100
AcDbEntity
  8
仕様書枠
 48
50.0
100
AcDbLine
 10
16307.19999999998
 20
7839.600000000011
 30
0.0
 11
13127.19999999999
 21
7839.600000000013
 31
0.0
  0
LINE
  5
1A305
330
747D
100
AcDbEntity
  8
仕様書枠
 48
50.0
100
AcDbLine
 10
16307.19999999998
 20
7669.600000000011
 30
0.0
 11
13127.19999999999
 21
7669.600000000013
 31
0.0
  0
TEXT
  5
1A306
330
747D
100
AcDbEntity
  8
文字
 62
     7
 48
50.0
100
AcDbText
 10
13229.83081656554
 20
8040.01374588374
 30
0.0
 40
100.0
  1
F12→溶融亜鉛めっき鋼板(JIS G 3302)
  7
STYLE1
100
AcDbText
  0
TEXT
  5
1A307
330
747D
100
AcDbEntity
  8
文字
 62
     7
 48
50.0
100
AcDbText
 10
13229.83081656554
 20
7870.01374588374
 30
0.0
 40
100.0
  1
Y10→溶融亜鉛-5％アルミニウム合金めっき鋼板(JIS G 3317)
 41
0.9
  7
STYLE1
100
AcDbText
  0
TEXT
  5
1A308
330
747D
100
AcDbEntity
  8
文字
 62
     7
 48
50.0
100
AcDbText
 10
13229.83081656554
 20
7700.013745883741
 30
0.0
 40
100.0
  1
Z08→塗装溶融亜鉛めっき鋼板(JIS G 3313)
  7
STYLE1
100
AcDbText
  0
LINE
  5
1A309
330
747D
100
AcDbEntity
  8
仕様書枠
 48
50.0
100
AcDbLine
 10
13127.2
 20
11239.6
 30
0.0
 11
13127.19999999999
 21
7669.600000000013
 31
0.0
  0
LINE
  5
1A30B
330
747D
100
AcDbEntity
  8
仕様書枠
 48
50.0
100
AcDbLine
 10
16307.19999999999
 20
8689.600000000003
 30
0.0
 11
13127.19999999999
 21
8689.600000000003
 31
0.0
  0
LINE
  5
1A30C
330
747D
100
AcDbEntity
  8
仕様書枠
 48
50.0
100
AcDbLine
 10
16307.19999999999
 20
8859.600000000002
 30
0.0
 11
13127.19999999999
 21
8859.600000000005
 31
0.0
  0
TEXT
  5
1A30D
330
747D
100
AcDbEntity
  8
文字
 62
     7
 48
50.0
100
AcDbText
 10
13583.11819016569
 20
8210.013745883733
 30
0.0
 40
100.0
  1
棚板
 41
0.9
  7
STYLE1
100
AcDbText
  0
TEXT
  5
1A30E
330
747D
100
AcDbEntity
  8
文字
 62
     7
 48
50.0
100
AcDbText
 10
13583.11819016569
 20
8550.013745883733
 30
0.0
 40
100.0
  1
根太
  7
STYLE1
100
AcDbText
  0
TEXT
  5
1A30F
330
747D
100
AcDbEntity
  8
文字
 62
     7
 48
50.0
100
AcDbText
 10
13248.77747366448
 20
8720.013745883731
 30
0.0
 40
100.0
  1
14
  7
STYLE1
100
AcDbText
  0
TEXT
  5
1A310
330
747D
100
AcDbEntity
  8
文字
 62
     7
 48
50.0
100
AcDbText
 10
13248.77747366448
 20
8380.013745883733
 30
0.0
 40
100.0
  1
16
  7
STYLE1
100
AcDbText
  0
TEXT
  5
1A311
330
747D
100
AcDbEntity
  8
文字
 62
     7
 48
50.0
100
AcDbText
 10
15022.63965474516
 20
8550.013745883729
 30
0.0
 40
100.0
  1
F12            1.2
  7
STYLE1
100
AcDbText
  0
TEXT
  5
1A312
330
747D
100
AcDbEntity
  8
文字
 62
     7
 48
50.0
100
AcDbText
 10
15022.63965474516
 20
8210.013745883731
 30
0.0
 40
100.0
  1
F12            0.6
  7
STYLE1
100
AcDbText
  0
TEXT
  5
1A313
330
747D
100
AcDbEntity
  8
文字
 62
     7
 48
50.0
100
AcDbText
 10
13583.11819016569
 20
9910.01374588373
 30
0.0
 40
100.0
  1
梁中
  7
STYLE1
100
AcDbText
  0
TEXT
  5
1A314
330
747D
100
AcDbEntity
  8
文字
 62
     7
 48
50.0
100
AcDbText
 10
15022.63965474516
 20
9910.01374588373
 30
0.0
 40
100.0
  1
F12,Y10        1.0
  7
STYLE1
100
AcDbText
  0
LINE
  5
1A315
330
747D
100
AcDbEntity
  8
仕様書枠
 48
50.0
100
AcDbLine
 10
16307.19999999999
 20
8179.600000000009
 30
0.0
 11
13127.19999999999
 21
8179.600000000013
 31
0.0
  0
DIMENSION
  5
1A922
330
747D
100
AcDbEntity
  8
寸法
100
AcDbDimension
  2
*D27
 10
9850.13735696525
 20
6470.049230808588
 30
0.0
 11
5905.137356965264
 21
6570.06104183221
 31
0.0
 70
    32
  1
N X 2630
 71
     5
 42
7889.999999999971
  3
INABA_S40G
100
AcDbAlignedDimension
 13
1960.137356965279
 23
7450.652997165623
 33
0.0
 14
9850.13735696525
 24
7450.652997165718
 34
0.0
100
AcDbRotatedDimension
1001
ACAD
1000
DSTYLE
1002
{
1002
}
  0
TEXT
  5
1A924
330
747D
100
AcDbEntity
  8
部品1
100
AcDbText
 10
12928.64550708214
 20
1338.928152470249
 30
0.0
 40
135.0
  1
側面図
  7
STYLE2
100
AcDbText
  0
LWPOLYLINE
  5
1A925
330
747D
100
AcDbEntity
  8
部品1
100
AcDbPolyline
 90
        4
 70
     1
 43
0.0
 10
12839.19940565853
 20
1531.821681688772
 10
12839.19940565853
 20
1291.92936014324
 10
13602.67007188697
 20
1291.92936014324
 10
13602.67007188697
 20
1531.821681688772
  0
LWPOLYLINE
  5
1A926
330
747D
100
AcDbEntity
  8
部品1
100
AcDbPolyline
 90
        4
 70
     1
 43
0.0
 10
5523.402023851055
 20
1531.821681688772
 10
5523.402023851055
 20
1291.92936014324
 10
6286.872690079495
 20
1291.92936014324
 10
6286.872690079495
 20
1531.821681688772
  0
TEXT
  5
1A927
330
747D
100
AcDbEntity
  8
部品1
100
AcDbText
 10
5613.927427589011
 20
1338.928152470249
 30
0.0
 40
135.0
  1
正面図
  7
STYLE2
100
AcDbText
  0
LINE
  5
1A929
330
747D
100
AcDbEntity
  8
部品1
 48
50.0
100
AcDbLine
 10
7220.137356965266
 20
4515.821681688778
 30
0.0
 11
4590.137356965266
 21
4515.821681688776
 31
0.0
  0
LINE
  5
1A92A
330
747D
100
AcDbEntity
  8
細線
 48
50.0
100
AcDbLine
 10
7210.137356965266
 20
4536.59492425256
 30
0.0
 11
4580.137356965265
 21
4536.59492425256
 31
0.0
  0
LINE
  5
1A92B
330
747D
100
AcDbEntity
  8
部品1
 48
50.0
100
AcDbLine
 10
7210.137356965264
 20
4656.821681688775
 30
0.0
 11
4580.137356965265
 21
4656.821681688776
 31
0.0
  0
LINE
  5
1A92C
330
747D
100
AcDbEntity
  8
細線
 48
50.0
100
AcDbLine
 10
7210.137356965265
 20
4628.794924252244
 30
0.0
 11
4580.137356965265
 21
4628.794924252244
 31
0.0
  0
LINE
  5
1A92D
330
747D
100
AcDbEntity
  8
部品1
 48
50.0
100
AcDbLine
 10
4590.137356965266
 20
4256.821681688772
 30
0.0
 11
4590.137356965266
 21
4515.821681688776
 31
0.0
  0
LINE
  5
1A92E
330
747D
100
AcDbEntity
  8
部品1
 48
50.0
100
AcDbLine
 10
4580.137356965265
 20
4515.821681688776
 30
0.0
 11
4580.137356965265
 21
4656.821681688777
 31
0.0
  0
LINE
  5
1A95B
330
747D
100
AcDbEntity
  8
部品1
 48
50.0
100
AcDbLine
 10
4580.137356965265
 20
4656.821681688776
 30
0.0
 11
1917.545778071701
 21
4656.821681688776
 31
0.0
  0
LINE
  5
1A95C
330
747D
100
AcDbEntity
  8
部品1
 48
50.0
100
AcDbLine
 10
4590.137356965266
 20
4515.821681688776
 30
0.0
 11
1930.761101532738
 21
4515.821681688776
 31
0.0
  0
LINE
  5
1A95D
330
747D
100
AcDbEntity
  8
細線
 48
50.0
100
AcDbLine
 10
4580.137356965265
 20
4628.794924252244
 30
0.0
 11
1912.296007977235
 21
4628.794924252565
 31
0.0
  0
LINE
  5
1A95E
330
747D
100
AcDbEntity
  8
細線
 48
50.0
100
AcDbLine
 10
4580.137356965265
 20
4536.59492425256
 30
0.0
 11
1920.532038502071
 21
4536.594924252564
 31
0.0
  0
LINE
  5
1A95F
330
747D
100
AcDbEntity
  8
細線
 48
50.0
100
AcDbLine
 10
1943.137356965275
 20
4656.821681688776
 30
0.0
 11
1943.137356965275
 21
4515.821681688776
 31
0.0
  0
ARC
  5
1A960
330
747D
100
AcDbEntity
  8
部品1
100
AcDbCircle
 10
1917.545778071701
 20
4649.821681688776
 30
0.0
 40
7.0
100
AcDbArc
 50
90.0
 51
183.2473427903377
  0
ARC
  5
1A961
330
747D
100
AcDbEntity
  8
部品1
100
AcDbCircle
 10
1930.761101532738
 20
4522.821681688776
 30
0.0
 40
7.0
100
AcDbArc
 50
183.2473427903377
 51
270.0
  0
ARC
  5
1A962
330
747D
100
AcDbEntity
  8
部品1
 48
50.0
100
AcDbCircle
 10
1912.389291322059
 20
4629.488680850463
 30
0.0
 40
0.7
100
AcDbArc
 50
183.2473427903897
 51
262.3418727926349
  0
ARC
  5
1A963
330
747D
100
AcDbEntity
  8
部品1
 48
50.0
100
AcDbCircle
 10
1920.625321846903
 20
4537.288680850458
 30
0.0
 40
0.7
100
AcDbArc
 50
183.2473427902856
 51
262.3418727926349
  0
ARC
  5
1A964
330
747D
100
AcDbEntity
  8
部品1
 48
50.0
100
AcDbCircle
 10
1920.132252738342
 20
4533.621681688775
 30
0.0
 40
3.0
100
AcDbArc
 50
3.247342790337682
 51
82.3418727926348
  0
ARC
  5
1A965
330
747D
100
AcDbEntity
  8
部品1
 48
50.0
100
AcDbCircle
 10
1911.896222213498
 20
4625.821681688775
 30
0.0
 40
3.0
100
AcDbArc
 50
3.247342790337682
 51
82.3418727926348
  0
LINE
  5
1A966
330
747D
100
AcDbEntity
  8
部品1
100
AcDbLine
 10
1914.891405109683
 20
4625.991621143879
 30
0.0
 11
1919.926445837791
 21
4537.249028310936
 31
0.0
  0
LINE
  5
1A967
330
747D
100
AcDbEntity
  8
部品1
100
AcDbLine
 10
1923.127435634527
 20
4533.791621143879
 30
0.0
 11
1923.772341441636
 21
4522.425156293539
 31
0.0
  0
LINE
  5
1A968
330
747D
100
AcDbEntity
  8
部品1
100
AcDbLine
 10
1910.557017980605
 20
4649.425156293535
 30
0.0
 11
1911.690415312954
 21
4629.449028310937
 31
0.0
  0
LINE
  5
1A969
330
747D
100
AcDbEntity
  8
部品1
100
AcDbLine
 10
1960.137356965268
 20
4421.821681688772
 30
0.0
 11
4590.137356965266
 21
4421.821681688772
 31
0.0
  0
LINE
  5
1A996
330
747D
100
AcDbEntity
  8
部品1
 48
50.0
100
AcDbLine
 10
9892.728935858835
 20
4656.821681688776
 30
0.0
 11
7210.137356965266
 21
4656.821681688776
 31
0.0
  0
LINE
  5
1A997
330
747D
100
AcDbEntity
  8
部品1
 48
50.0
100
AcDbLine
 10
9879.513612397801
 20
4515.821681688776
 30
0.0
 11
7220.137356965266
 21
4515.821681688776
 31
0.0
  0
LINE
  5
1A998
330
747D
100
AcDbEntity
  8
細線
 48
50.0
100
AcDbLine
 10
9897.978705953352
 20
4628.794924252244
 30
0.0
 11
7210.137356965266
 21
4628.794924252244
 31
0.0
  0
LINE
  5
1A999
330
747D
100
AcDbEntity
  8
細線
 48
50.0
100
AcDbLine
 10
9889.742675428507
 20
4536.594924252244
 30
0.0
 11
7210.137356965266
 21
4536.594924252564
 31
0.0
  0
LINE
  5
1A99A
330
747D
100
AcDbEntity
  8
部品1
100
AcDbLine
 10
9899.717695949934
 20
4649.425156293535
 30
0.0
 11
9898.584298617588
 21
4629.449028310937
 31
0.0
  0
LINE
  5
1A99B
330
747D
100
AcDbEntity
  8
細線
 48
50.0
100
AcDbLine
 10
9867.137356965269
 20
4656.821681688776
 30
0.0
 11
9867.137356965269
 21
4515.821681688776
 31
0.0
  0
LINE
  5
1A99C
330
747D
100
AcDbEntity
  8
部品1
100
AcDbLine
 10
9887.147278296012
 20
4533.791621143879
 30
0.0
 11
9886.5023724889
 21
4522.425156293539
 31
0.0
  0
LINE
  5
1A99D
330
747D
100
AcDbEntity
  8
部品1
100
AcDbLine
 10
9895.383308820855
 20
4625.991621143879
 30
0.0
 11
9890.348268092745
 21
4537.249028310936
 31
0.0
  0
ARC
  5
1A99E
330
747D
100
AcDbEntity
  8
部品1
 48
50.0
100
AcDbCircle
 10
9898.378491717041
 20
4625.821681688775
 30
0.0
 40
3.0
100
AcDbArc
 50
97.65812720736519
 51
176.7526572096623
  0
ARC
  5
1A99F
330
747D
100
AcDbEntity
  8
部品1
 48
50.0
100
AcDbCircle
 10
9890.142461192198
 20
4533.621681688775
 30
0.0
 40
3.0
100
AcDbArc
 50
97.65812720736519
 51
176.7526572096623
  0
ARC
  5
1A9A0
330
747D
100
AcDbEntity
  8
部品1
 48
50.0
100
AcDbCircle
 10
9889.649392083637
 20
4537.288680850458
 30
0.0
 40
0.7
100
AcDbArc
 50
277.6581272073652
 51
356.7526572097143
  0
ARC
  5
1A9A1
330
747D
100
AcDbEntity
  8
部品1
 48
50.0
100
AcDbCircle
 10
9897.885422608482
 20
4629.488680850463
 30
0.0
 40
0.7
100
AcDbArc
 50
277.6581272073652
 51
356.7526572096103
  0
ARC
  5
1A9A2
330
747D
100
AcDbEntity
  8
部品1
100
AcDbCircle
 10
9879.513612397801
 20
4522.821681688776
 30
0.0
 40
7.0
100
AcDbArc
 50
270.0
 51
356.7526572096623
  0
ARC
  5
1A9A3
330
747D
100
AcDbEntity
  8
部品1
100
AcDbCircle
 10
9892.728935858835
 20
4649.821681688776
 30
0.0
 40
7.0
100
AcDbArc
 50
356.7526572096623
 51
90.0
  0
LINE
  5
1A9A4
330
747D
100
AcDbEntity
  8
部品1
100
AcDbLine
 10
7220.137356965264
 20
4421.821681688772
 30
0.0
 11
9850.137356965264
 21
4421.821681688772
 31
0.0
  0
LINE
  5
1A9A5
330
747D
100
AcDbEntity
  8
部品1
100
AcDbLine
 10
4590.137356965266
 20
4421.821681688772
 30
0.0
 11
7220.137356965266
 21
4421.821681688772
 31
0.0
  0
LINE
  5
1A9D6
330
747D
100
AcDbEntity
  8
部品1
 48
50.0
100
AcDbLine
 10
7210.137356965266
 20
4515.821681688776
 30
0.0
 11
7210.137356965264
 21
4656.821681688777
 31
0.0
  0
LINE
  5
1A9D7
330
747D
100
AcDbEntity
  8
部品1
 48
50.0
100
AcDbLine
 10
7220.137356965266
 20
4256.821681688776
 30
0.0
 11
7220.137356965266
 21
4515.821681688776
 31
0.0
  0
DIMENSION
  5
1A9D8
330
747D
100
AcDbEntity
  8
寸法
 48
50.0
100
AcDbDimension
  2
*D28
 10
1910.137356965275
 20
5055.914851028245
 30
0.0
 11
1596.652075591028
 21
5055.914851028245
 31
0.0
 70
   160
 71
     5
 42
50.0
  3
INABA_S40G
100
AcDbAlignedDimension
 13
1960.137356965275
 23
4656.821681688779
 33
0.0
 14
1910.137356965275
 24
4656.821681688777
 34
0.0
100
AcDbRotatedDimension
1001
ACAD
1000
DSTYLE
1002
{
1002
}
  0
DIMENSION
  5
1A9D9
330
747D
100
AcDbEntity
  8
寸法
 48
50.0
100
AcDbDimension
  2
*D29
 10
9850.137356965269
 20
5055.914851028245
 30
0.0
 11
10213.6226383395
 21
5055.914851028245
 31
0.0
 70
   160
 71
     5
 42
50.0
  3
INABA_S40G
100
AcDbAlignedDimension
 13
9900.137356965268
 23
4656.821681688775
 33
0.0
 14
9850.137356965269
 24
4656.821681688777
 34
0.0
100
AcDbRotatedDimension
  0
DIMENSION
  5
1A9DA
330
747D
100
AcDbEntity
  8
寸法
 48
50.0
100
AcDbDimension
  2
*D30
 10
9900.137356965268
 20
5272.440950646691
 30
0.0
 11
5905.137356965272
 21
5372.452761670313
 31
0.0
 70
    32
  1
N X 2630+100
 71
     5
 42
7989.999999999993
  3
INABA_S40G
100
AcDbAlignedDimension
 13
1910.137356965275
 23
4656.821681688777
 33
0.0
 14
9900.137356965268
 24
4656.821681688775
 34
0.0
100
AcDbRotatedDimension
  0
DIMENSION
  5
1A9DB
330
747D
100
AcDbEntity
  8
寸法
 48
50.0
100
AcDbDimension
  2
*D31
 10
1960.137356965275
 20
5055.914851028245
 30
0.0
 11
5905.137356965272
 21
5155.926662051868
 31
0.0
 70
    32
  1
柱外寸法 N X 2630
 71
     5
 42
7889.999999999993
  3
INABA_S40G
100
AcDbAlignedDimension
 13
9850.137356965269
 23
4656.821681688777
 33
0.0
 14
1960.137356965275
 24
4656.821681688779
 34
0.0
100
AcDbRotatedDimension
  0
LINE
  5
1A9DC
330
747D
100
AcDbEntity
  8
細線
 48
50.0
100
AcDbLine
 10
14403.43473877276
 20
4421.821681688775
 30
0.0
 11
14403.43473877276
 21
2331.821681688776
 31
0.0
  0
LINE
  5
1A9DD
330
747D
100
AcDbEntity
  8
細線
 48
50.0
100
AcDbLine
 10
14418.43473877276
 20
4421.821681688775
 30
0.0
 11
14418.43473877276
 21
2331.821681688776
 31
0.0
  0
LINE
  5
1A9DE
330
747D
100
AcDbEntity
  8
細線
 48
50.0
100
AcDbLine
 10
14278.43473877276
 20
4421.821681688775
 30
0.0
 11
14278.43473877276
 21
2331.821681688776
 31
0.0
  0
LINE
  5
1A9DF
330
747D
100
AcDbEntity
  8
細線
 48
50.0
100
AcDbLine
 10
14263.43473877276
 20
4421.821681688775
 30
0.0
 11
14263.43473877276
 21
2331.821681688776
 31
0.0
  0
LINE
  5
1A9E0
330
747D
100
AcDbEntity
  8
細線
 48
50.0
100
AcDbLine
 10
14123.43473877275
 20
4421.821681688775
 30
0.0
 11
14123.43473877275
 21
2331.821681688776
 31
0.0
  0
LINE
  5
1A9E1
330
747D
100
AcDbEntity
  8
細線
 48
50.0
100
AcDbLine
 10
14138.43473877276
 20
4421.821681688775
 30
0.0
 11
14138.43473877276
 21
2331.821681688776
 31
0.0
  0
LINE
  5
1A9E2
330
747D
100
AcDbEntity
  8
部品1
100
AcDbLine
 10
13220.93473877275
 20
4421.821681688775
 30
0.0
 11
13220.93473877275
 21
2331.821681688774
 31
0.0
  0
LINE
  5
1A9E3
330
747D
100
AcDbEntity
  8
細線
 48
50.0
100
AcDbLine
 10
12878.43473877275
 20
4421.821681688775
 30
0.0
 11
12878.43473877275
 21
2331.821681688774
 31
0.0
  0
LINE
  5
1A9E4
330
747D
100
AcDbEntity
  8
細線
 48
50.0
100
AcDbLine
 10
12863.43473877275
 20
4421.821681688775
 30
0.0
 11
12863.43473877275
 21
2331.821681688774
 31
0.0
  0
LINE
  5
1A9E5
330
747D
100
AcDbEntity
  8
細線
 48
50.0
100
AcDbLine
 10
13003.43473877275
 20
4421.821681688775
 30
0.0
 11
13003.43473877275
 21
2331.821681688774
 31
0.0
  0
LINE
  5
1A9E6
330
747D
100
AcDbEntity
  8
細線
 48
50.0
100
AcDbLine
 10
13018.43473877275
 20
4421.821681688775
 30
0.0
 11
13018.43473877275
 21
2331.821681688774
 31
0.0
  0
LINE
  5
1A9E7
330
747D
100
AcDbEntity
  8
細線
 48
50.0
100
AcDbLine
 10
13158.43473877275
 20
4421.821681688775
 30
0.0
 11
13158.43473877275
 21
2331.821681688774
 31
0.0
  0
LINE
  5
1A9E8
330
747D
100
AcDbEntity
  8
細線
 48
50.0
100
AcDbLine
 10
13143.43473877275
 20
4421.821681688775
 30
0.0
 11
13143.43473877275
 21
2331.821681688774
 31
0.0
  0
LINE
  5
1A9E9
330
747D
100
AcDbEntity
  8
部品1
100
AcDbLine
 10
12800.93473877275
 20
4421.821681688775
 30
0.0
 11
12800.93473877275
 21
2331.821681688774
 31
0.0
  0
LINE
  5
1A9EA
330
747D
100
AcDbEntity
  8
細線
 48
50.0
100
AcDbLine
 10
12038.43473877275
 20
4421.821681688775
 30
0.0
 11
12038.43473877275
 21
2331.821681688774
 31
0.0
  0
LINE
  5
1A9EB
330
747D
100
AcDbEntity
  8
細線
 48
50.0
100
AcDbLine
 10
12023.43473877275
 20
4421.821681688775
 30
0.0
 11
12023.43473877275
 21
2331.821681688774
 31
0.0
  0
LINE
  5
1A9EC
330
747D
100
AcDbEntity
  8
細線
 48
50.0
100
AcDbLine
 10
12163.43473877275
 20
4421.821681688775
 30
0.0
 11
12163.43473877275
 21
2331.821681688774
 31
0.0
  0
LINE
  5
1A9ED
330
747D
100
AcDbEntity
  8
細線
 48
50.0
100
AcDbLine
 10
12178.43473877275
 20
4421.821681688775
 30
0.0
 11
12178.43473877275
 21
2331.821681688774
 31
0.0
  0
LINE
  5
1A9EE
330
747D
100
AcDbEntity
  8
細線
 48
50.0
100
AcDbLine
 10
12318.43473877275
 20
4421.821681688775
 30
0.0
 11
12318.43473877275
 21
2331.821681688774
 31
0.0
  0
LINE
  5
1A9EF
330
747D
100
AcDbEntity
  8
細線
 48
50.0
100
AcDbLine
 10
12303.43473877275
 20
4421.821681688775
 30
0.0
 11
12303.43473877275
 21
2331.821681688774
 31
0.0
  0
LINE
  5
1A9F0
330
747D
100
AcDbEntity
  8
細線
 48
50.0
100
AcDbLine
 10
12723.43473877275
 20
4421.821681688775
 30
0.0
 11
12723.43473877275
 21
2331.821681688774
 31
0.0
  0
LINE
  5
1A9F1
330
747D
100
AcDbEntity
  8
細線
 48
50.0
100
AcDbLine
 10
12738.43473877275
 20
4421.821681688775
 30
0.0
 11
12738.43473877275
 21
2331.821681688774
 31
0.0
  0
LINE
  5
1A9F2
330
747D
100
AcDbEntity
  8
細線
 48
50.0
100
AcDbLine
 10
12598.43473877275
 20
4421.821681688775
 30
0.0
 11
12598.43473877275
 21
2331.821681688774
 31
0.0
  0
LINE
  5
1A9F3
330
747D
100
AcDbEntity
  8
細線
 48
50.0
100
AcDbLine
 10
12583.43473877275
 20
4421.821681688775
 30
0.0
 11
12583.43473877275
 21
2331.821681688774
 31
0.0
  0
LINE
  5
1A9F4
330
747D
100
AcDbEntity
  8
細線
 48
50.0
100
AcDbLine
 10
12443.43473877275
 20
4421.821681688775
 30
0.0
 11
12443.43473877275
 21
2331.821681688774
 31
0.0
  0
LINE
  5
1A9F5
330
747D
100
AcDbEntity
  8
細線
 48
50.0
100
AcDbLine
 10
12458.43473877275
 20
4421.821681688775
 30
0.0
 11
12458.43473877275
 21
2331.821681688774
 31
0.0
  0
LINE
  5
1A9F6
330
747D
100
AcDbEntity
  8
部品1
100
AcDbLine
 10
12380.93473877275
 20
4421.821681688775
 30
0.0
 11
12380.93473877275
 21
2331.821681688774
 31
0.0
  0
LINE
  5
1A9F7
330
747D
100
AcDbEntity
  8
部品1
100
AcDbLine
 10
14060.93473877275
 20
4421.821681688775
 30
0.0
 11
14060.93473877275
 21
2331.821681688776
 31
0.0
  0
LINE
  5
1A9F8
330
747D
100
AcDbEntity
  8
細線
 48
50.0
100
AcDbLine
 10
13563.43473877275
 20
4421.821681688775
 30
0.0
 11
13563.43473877275
 21
2331.821681688774
 31
0.0
  0
LINE
  5
1A9F9
330
747D
100
AcDbEntity
  8
細線
 48
50.0
100
AcDbLine
 10
13578.43473877275
 20
4421.821681688775
 30
0.0
 11
13578.43473877275
 21
2331.821681688774
 31
0.0
  0
LINE
  5
1A9FA
330
747D
100
AcDbEntity
  8
細線
 48
50.0
100
AcDbLine
 10
13438.43473877275
 20
4421.821681688775
 30
0.0
 11
13438.43473877275
 21
2331.821681688774
 31
0.0
  0
LINE
  5
1A9FB
330
747D
100
AcDbEntity
  8
細線
 48
50.0
100
AcDbLine
 10
13423.43473877275
 20
4421.821681688775
 30
0.0
 11
13423.43473877275
 21
2331.821681688774
 31
0.0
  0
LINE
  5
1A9FC
330
747D
100
AcDbEntity
  8
細線
 48
50.0
100
AcDbLine
 10
13283.43473877275
 20
4421.821681688775
 30
0.0
 11
13283.43473877275
 21
2331.821681688774
 31
0.0
  0
LINE
  5
1A9FD
330
747D
100
AcDbEntity
  8
細線
 48
50.0
100
AcDbLine
 10
13298.43473877275
 20
4421.821681688775
 30
0.0
 11
13298.43473877275
 21
2331.821681688774
 31
0.0
  0
LINE
  5
1A9FE
330
747D
100
AcDbEntity
  8
部品1
100
AcDbLine
 10
13640.93473877274
 20
4421.821681688775
 30
0.0
 11
13640.93473877274
 21
2331.821681688776
 31
0.0
  0
LINE
  5
1A9FF
330
747D
100
AcDbEntity
  8
細線
 48
50.0
100
AcDbLine
 10
13718.43473877275
 20
4421.821681688775
 30
0.0
 11
13718.43473877275
 21
2331.821681688776
 31
0.0
  0
LINE
  5
1AA00
330
747D
100
AcDbEntity
  8
細線
 48
50.0
100
AcDbLine
 10
13703.43473877275
 20
4421.821681688775
 30
0.0
 11
13703.43473877275
 21
2331.821681688776
 31
0.0
  0
LINE
  5
1AA01
330
747D
100
AcDbEntity
  8
細線
 48
50.0
100
AcDbLine
 10
13843.43473877275
 20
4421.821681688775
 30
0.0
 11
13843.43473877275
 21
2331.821681688776
 31
0.0
  0
LINE
  5
1AA02
330
747D
100
AcDbEntity
  8
細線
 48
50.0
100
AcDbLine
 10
13858.43473877275
 20
4421.821681688775
 30
0.0
 11
13858.43473877275
 21
2331.821681688776
 31
0.0
  0
LINE
  5
1AA03
330
747D
100
AcDbEntity
  8
細線
 48
50.0
100
AcDbLine
 10
13998.43473877275
 20
4421.821681688775
 30
0.0
 11
13998.43473877275
 21
2331.821681688776
 31
0.0
  0
LINE
  5
1AA04
330
747D
100
AcDbEntity
  8
細線
 48
50.0
100
AcDbLine
 10
13983.43473877275
 20
4421.821681688775
 30
0.0
 11
13983.43473877275
 21
2331.821681688776
 31
0.0
  0
LINE
  5
1AA05
330
747D
100
AcDbEntity
  8
部品1
100
AcDbLine
 10
11853.47972512971
 20
4655.539417023041
 30
0.0
 11
14608.54661563422
 21
4600.462479397912
 31
0.0
  0
LINE
  5
1AA06
330
747D
100
AcDbEntity
  8
部品1
100
AcDbLine
 10
11861.2773033747
 20
4514.602706757741
 30
0.0
 11
14590.5984393126
 21
4475.574281523535
 31
0.0
  0
LINE
  5
1AA07
330
747D
100
AcDbEntity
  8
細線
 48
50.0
100
AcDbLine
 10
11878.93473877275
 20
4654.221358064179
 30
0.0
 11
11873.64563721724
 21
4514.135725436825
 31
0.0
  0
LINE
  5
1AA08
330
747D
100
AcDbEntity
  8
細線
 48
50.0
100
AcDbLine
 10
14582.90402196644
 20
4600.975104168242
 30
0.0
 11
14578.18705588475
 21
4476.042888233327
 31
0.0
  0
LINE
  5
1AA09
330
747D
100
AcDbEntity
  8
部品1
 48
50.0
100
AcDbLine
 10
11846.11902468585
 20
4648.415227853467
 30
0.0
 11
11846.49928446367
 21
4628.488263407056
 31
0.0
  0
LINE
  5
1AA0A
330
747D
100
AcDbEntity
  8
部品1
 48
50.0
100
AcDbLine
 10
11849.56805656991
 20
4624.912981913583
 30
0.0
 11
11851.27195806128
 21
4535.622485206935
 31
0.0
  0
LINE
  5
1AA0B
330
747D
100
AcDbEntity
  8
細線
 48
50.0
100
AcDbLine
 10
11846.97416187356
 20
4627.838763530137
 30
0.0
 11
14612.61014661873
 21
4572.214558889307
 31
0.0
  0
LINE
  5
1AA0C
330
747D
100
AcDbEntity
  8
細線
 48
50.0
100
AcDbLine
 10
11851.73463711084
 20
4534.977251832271
 30
0.0
 11
14601.73830154149
 21
4495.167932857779
 31
0.0
  0
LINE
  5
1AA0D
330
747D
100
AcDbEntity
  8
部品1
 48
50.0
100
AcDbLine
 10
11854.34073016752
 20
4532.047203713464
 30
0.0
 11
11854.54268278795
 21
4521.464168320371
 31
0.0
  0
ARC
  5
1AA0E
330
747D
100
AcDbEntity
  8
部品1
 48
50.0
100
AcDbCircle
 10
11853.11775051419
 20
4648.548782260895
 30
0.0
 40
7.0
100
AcDbArc
 50
87.03587545283093
 51
181.0932240293156
  0
ARC
  5
1AA0F
330
747D
100
AcDbEntity
  8
部品1
 48
50.0
100
AcDbCircle
 10
11861.54140861629
 20
4521.5977227278
 30
0.0
 40
7.0
100
AcDbArc
 50
181.0932240293156
 51
267.8377559869492
  0
ARC
  5
1AA10
330
747D
100
AcDbEntity
  8
部品1
100
AcDbCircle
 10
11851.34127624109
 20
4531.98996611028
 30
0.0
 40
3.0
100
AcDbArc
 50
1.093224029315636
 51
80.18775403169875
  0
ARC
  5
1AA11
330
747D
100
AcDbEntity
  8
部品1
100
AcDbCircle
 10
11846.56860264348
 20
4624.8557443104
 30
0.0
 40
3.0
100
AcDbArc
 50
1.093224029315636
 51
80.18775403169875
  0
ARC
  5
1AA12
330
747D
100
AcDbEntity
  8
部品1
100
AcDbCircle
 10
11847.19915704651
 20
4628.501618847796
 30
0.0
 40
0.7
100
AcDbArc
 50
181.0932240292114
 51
260.1877540314845
  0
ARC
  5
1AA13
330
747D
100
AcDbEntity
  8
部品1
100
AcDbCircle
 10
11851.97183064411
 20
4535.635840647679
 30
0.0
 40
0.7
100
AcDbArc
 50
181.0932240293156
 51
260.1877540314845
  0
LINE
  5
1AA14
330
747D
100
AcDbEntity
  8
部品1
 48
50.0
100
AcDbLine
 10
14615.14864158345
 20
4592.762833962994
 30
0.0
 11
14613.11802039248
 21
4572.817792705213
 31
0.0
  0
LINE
  5
1AA15
330
747D
100
AcDbEntity
  8
部品1
 48
50.0
100
AcDbLine
 10
14609.765453908
 20
4569.507158632304
 30
0.0
 11
14602.25867464316
 21
4495.774537887293
 31
0.0
  0
LINE
  5
1AA16
330
747D
100
AcDbEntity
  8
部品1
 48
50.0
100
AcDbLine
 10
14598.90610815868
 20
4492.463903814379
 30
0.0
 11
14597.82654511894
 21
4481.860286820821
 31
0.0
  0
ARC
  5
1AA17
330
747D
100
AcDbEntity
  8
部品1
 48
50.0
100
AcDbCircle
 10
14608.18464101869
 20
4593.471844635769
 30
0.0
 40
7.0
100
AcDbArc
 50
354.1866997665532
 51
87.03587545283093
  0
ARC
  5
1AA18
330
747D
100
AcDbEntity
  8
部品1
 48
50.0
100
AcDbCircle
 10
14590.86254455418
 20
4482.569297493595
 30
0.0
 40
7.0
100
AcDbArc
 50
267.8377559869492
 51
354.1866997665532
  0
ARC
  5
1AA19
330
747D
100
AcDbEntity
  8
部品1
100
AcDbCircle
 10
14601.89067982928
 20
4492.160042097477
 30
0.0
 40
3.0
100
AcDbArc
 50
95.0921697642102
 51
174.1866997665532
  0
ARC
  5
1AA1A
330
747D
100
AcDbEntity
  8
部品1
100
AcDbCircle
 10
14612.75002557861
 20
4569.203296915403
 30
0.0
 40
3.0
100
AcDbArc
 50
95.0921697642102
 51
174.1866997665532
  0
ARC
  5
1AA1B
330
747D
100
AcDbEntity
  8
部品1
100
AcDbCircle
 10
14612.42162033601
 20
4572.88869377249
 30
0.0
 40
0.7
100
AcDbArc
 50
275.0921697642102
 51
354.1866997665532
  0
ARC
  5
1AA1C
330
747D
100
AcDbEntity
  8
部品1
100
AcDbCircle
 10
14601.56227458669
 20
4495.845438954567
 30
0.0
 40
0.7
100
AcDbArc
 50
275.0921697642102
 51
354.1866997667606
  0
DIMENSION
  5
1AA1D
330
747D
100
AcDbEntity
  8
寸法
 48
50.0
100
AcDbDimension
  2
*D32
 10
11285.32633200436
 20
4531.166940562106
 30
0.0
 11
11295.99180726329
 21
4902.013603803805
 31
0.0
 70
   161
 71
     5
 42
141.0
  3
INABA_S40G
100
AcDbAlignedDimension
 13
11865.33075893133
 23
4655.544430523455
 33
0.0
 14
11861.2773033747
 24
4514.602706757741
 34
0.0
1001
ACAD
1000
DSTYLE
1002
{
1070
   174
1070
     0
1070
   272
1070
     1
1070
   288
1070
     0
1070
   341
1005
0
1002
}
  0
TEXT
  5
1AA1E
330
747D
100
AcDbEntity
  8
部品1
 48
50.0
100
AcDbText
 10
13572.51574073384
 20
4679.090774627082
 30
0.0
 40
120.0
  1
37
 50
90.0
  7
STYLE1
100
AcDbText
  0
LINE
  5
1AA1F
330
747D
100
AcDbEntity
  8
部品1
 48
50.0
100
AcDbLine
 10
13406.61488284503
 20
4780.708010692932
 30
0.0
 11
13406.61488284503
 21
4764.508010692931
 31
0.0
  0
LINE
  5
1AA20
330
747D
100
AcDbEntity
  8
部品1
 48
50.0
100
AcDbLine
 10
13106.61488284503
 20
4780.708010692932
 30
0.0
 11
13406.61488284503
 21
4780.708010692932
 31
0.0
  0
LINE
  5
1AA21
330
747D
100
AcDbEntity
  8
部品1
100
AcDbLine
 10
13081.15986920199
 20
4782.026069651792
 30
0.0
 11
13406.61488284503
 21
4764.508010692931
 31
0.0
  0
DIMENSION
  5
1AA22
330
747D
100
AcDbEntity
  8
寸法
 48
50.0
100
AcDbDimension
  2
*D33
 10
14615.93473877275
 20
5055.479135268081
 30
0.0
 11
14821.98198286724
 21
5055.479135268081
 31
0.0
 70
   160
 71
     5
 42
80.0
  3
INABA_S40G
100
AcDbAlignedDimension
 13
14535.93473877275
 23
4603.632361300427
 33
0.0
 14
14615.93473877275
 24
4601.821681688776
 34
0.0
100
AcDbRotatedDimension
1001
ACAD
1000
DSTYLE
1002
{
1070
   174
1070
     0
1070
   272
1070
     1
1070
   288
1070
     0
1070
   341
1005
0
1002
}
  0
DIMENSION
  5
1AA23
330
747D
100
AcDbEntity
  8
寸法
 48
50.0
100
AcDbDimension
  2
*D34
 10
11845.93473877275
 20
5275.689821999697
 30
0.0
 11
13230.93473877275
 21
5275.689821999697
 31
0.0
 70
   160
 71
     5
 42
2770.0
  3
INABA_S40G
100
AcDbAlignedDimension
 13
14615.93473877275
 23
4601.821681688776
 33
0.0
 14
11845.93473877275
 24
4656.821681688779
 34
0.0
100
AcDbRotatedDimension
1001
ACAD
1000
DSTYLE
1002
{
1070
   174
1070
     0
1070
   272
1070
     1
1070
   288
1070
     0
1070
   341
1005
0
1002
}
  0
DIMENSION
  5
1AA24
330
747D
100
AcDbEntity
  8
寸法
 48
50.0
100
AcDbDimension
  2
*D35
 10
11845.93473877275
 20
5055.479135268079
 30
0.0
 11
11536.29694349715
 21
5055.479135268079
 31
0.0
 70
   160
 71
     5
 42
60.0
  3
INABA_S40G
100
AcDbAlignedDimension
 13
11905.93473877275
 23
4652.823299811751
 33
0.0
 14
11845.93473877275
 24
4656.821681688779
 34
0.0
100
AcDbRotatedDimension
1001
ACAD
1000
DSTYLE
1002
{
1070
   174
1070
     0
1070
   272
1070
     1
1070
   288
1070
     0
1070
   341
1005
0
1002
}
  0
DIMENSION
  5
1AA25
330
747D
100
AcDbEntity
  8
寸法
 48
50.0
100
AcDbDimension
  2
*D36
 10
11905.93473877275
 20
5055.479135268081
 30
0.0
 11
13220.93473877275
 21
5055.479135268081
 31
0.0
 70
   160
  1
柱外寸法<>
 71
     5
 42
2630.0
  3
INABA_S40G
100
AcDbAlignedDimension
 13
14535.93473877275
 23
4603.632361300427
 33
0.0
 14
11905.93473877275
 24
4652.823299811751
 34
0.0
100
AcDbRotatedDimension
1001
ACAD
1000
DSTYLE
1002
{
1070
   174
1070
     0
1070
   272
1070
     1
1070
   288
1070
     0
1070
   341
1005
0
1002
}
  0
TEXT
  5
1AA26
330
747D
100
AcDbEntity
  8
部品1
 48
50.0
100
AcDbText
 10
13094.88271806875
 20
4816.592032845365
 30
0.0
 40
120.0
  1
1000
  7
STYLE1
100
AcDbText
  0
LINE
  5
1AA3A
330
747D
100
AcDbEntity
  8
部品1
100
AcDbLine
 10
14480.93473877275
 20
4421.821681688775
 30
0.0
 11
14480.93473877275
 21
2331.821681688774
 31
0.0
  0
LINE
  5
1AA3B
330
747D
100
AcDbEntity
  8
部品1
100
AcDbLine
 10
14535.93473877275
 20
4476.355955076512
 30
0.0
 11
14535.93473877275
 21
2181.821681688774
 31
0.0
  0
DIMENSION
  5
1AA3C
330
747D
100
AcDbEntity
  8
寸法
100
AcDbDimension
  2
*D37
 10
10762.18460958949
 20
4656.821681688778
 30
0.0
 11
10662.17279856586
 21
3469.321681688779
 31
0.0
 70
    32
 71
     5
 42
2375.000000000003
  3
INABA_S40G
100
AcDbAlignedDimension
 13
11905.93473877275
 23
2281.821681688775
 33
0.0
 14
11770.93473877275
 24
4656.821681688778
 34
0.0
 50
90.0
100
AcDbRotatedDimension
1001
ACAD
1000
DSTYLE
1002
{
1070
   288
1070
     1
1002
}
  0
DIMENSION
  5
1AA3D
330
747D
100
AcDbEntity
  8
寸法
100
AcDbDimension
  2
*D38
 10
11062.18460958949
 20
2331.821681688775
 30
0.0
 11
10962.17279856587
 21
3376.821681688777
 31
0.0
 70
    32
 71
     5
 42
2090.0
  3
INABA_S40G
100
AcDbAlignedDimension
 13
11905.93473877275
 23
4421.821681688775
 33
0.0
 14
11905.93473877275
 24
2331.821681688774
 34
0.0
 50
90.0
100
AcDbRotatedDimension
1001
ACAD
1000
DSTYLE
1002
{
1070
   288
1070
     1
1002
}
  0
LINE
  5
1AA3E
330
747D
100
AcDbEntity
  8
部品1
100
AcDbLine
 10
11905.93473877275
 20
4513.964119617652
 30
0.0
 11
11905.93473877275
 21
2181.821681688774
 31
0.0
  0
LINE
  5
1AA3F
330
747D
100
AcDbEntity
  8
部品1
100
AcDbLine
 10
11960.93473877275
 20
4421.821681688775
 30
0.0
 11
11960.93473877275
 21
2181.821681688774
 31
0.0
  0
LINE
  5
1AA40
330
747D
100
AcDbEntity
  8
部品1
100
AcDbLine
 10
11960.93473877275
 20
2281.821681688775
 30
0.0
 11
14535.93473877275
 21
2281.821681688775
 31
0.0
  0
LINE
  5
1AA41
330
747D
100
AcDbEntity
  8
部品1
100
AcDbLine
 10
11960.93473877275
 20
2331.821681688774
 30
0.0
 11
14535.93473877275
 21
2331.821681688774
 31
0.0
  0
LINE
  5
1AA42
330
747D
100
AcDbEntity
  8
部品1
100
AcDbLine
 10
11905.93473877275
 20
4421.821681688775
 30
0.0
 11
14535.93473877275
 21
4421.821681688775
 31
0.0
  0
LINE
  5
1AA45
330
747D
100
AcDbEntity
  8
破線
  6
HIDDEN
 48
5.0
100
AcDbLine
 10
11905.93473877275
 20
1931.821681688774
 30
0.0
 11
11960.93473877275
 21
1931.821681688774
 31
0.0
  0
DIMENSION
  5
1AA48
330
747D
100
AcDbEntity
  8
寸法
100
AcDbDimension
  2
*D39
 10
11062.18460958949
 20
2281.821681688775
 30
0.0
 11
11062.18460958949
 21
1898.071681688774
 31
0.0
 70
   160
 71
     5
 42
50.0
  3
INABA_S40G
100
AcDbAlignedDimension
 13
11905.93473877275
 23
2331.821681688774
 33
0.0
 14
11850.93473877275
 24
2281.821681688775
 34
0.0
 50
90.0
100
AcDbRotatedDimension
1001
ACAD
1000
DSTYLE
1002
{
1070
   288
1070
     1
1002
}
  0
LINE
  5
1AA4A
330
747D
100
AcDbEntity
  8
破線
  6
HIDDEN
 48
5.0
100
AcDbLine
 10
11905.93473877275
 20
2181.821681688774
 30
0.0
 11
11905.93473877275
 21
1931.821681688774
 31
0.0
  0
LINE
  5
1AA4B
330
747D
100
AcDbEntity
  8
破線
  6
HIDDEN
 48
5.0
100
AcDbLine
 10
11960.93473877275
 20
2181.821681688774
 30
0.0
 11
11960.93473877275
 21
1931.821681688774
 31
0.0
  0
DIMENSION
  5
1AA51
330
747D
100
AcDbEntity
  8
寸法
100
AcDbDimension
  2
*D40
 10
15240.86189674487
 20
4601.821681688774
 30
0.0
 11
15240.86189674487
 21
3436.821681688775
 31
0.0
 70
   160
 71
     5
 42
2320.000000000001
  3
INABA_S40G
100
AcDbAlignedDimension
 13
14535.93473877275
 23
2281.821681688775
 33
0.0
 14
14630.93473877274
 24
4601.821681688774
 34
0.0
 50
90.0
100
AcDbRotatedDimension
1001
ACAD
1000
DSTYLE
1002
{
1070
   288
1070
     1
1002
}
  0
LWPOLYLINE
  5
1AA52
330
747D
100
AcDbEntity
  8
部品1
100
AcDbPolyline
 90
        4
 70
     1
 43
0.0
 10
5523.402023851031
 20
6299.198234879692
 10
5523.402023851031
 20
6059.30591333416
 10
6286.872690079472
 20
6059.30591333416
 10
6286.872690079472
 20
6299.198234879692
  0
TEXT
  5
1AA53
330
747D
100
AcDbEntity
  8
部品1
100
AcDbText
 10
5613.321633680069
 20
6106.304705661169
 30
0.0
 40
135.0
  1
平面図
  7
STYLE2
100
AcDbText
  0
LINE
  5
1AB26
330
747D
100
AcDbEntity
  8
Ｇ．Ｌ
100
AcDbLine
 10
1284.125733181224
 20
2181.821681688773
 30
0.0
 11
15798.24446421827
 21
2181.821681688773
 31
0.0
  0
LINE
  5
1AB6F
330
747D
100
AcDbEntity
  8
部品1
100
AcDbLine
 10
7275.13735696527
 20
2281.821681688773
 30
0.0
 11
9795.13735696527
 21
2281.821681688773
 31
0.0
  0
LINE
  5
1AB70
330
747D
100
AcDbEntity
  8
部品1
100
AcDbLine
 10
7275.13735696527
 20
2331.821681688773
 30
0.0
 11
9795.13735696527
 21
2331.821681688773
 31
0.0
  0
LINE
  5
1AB73
330
747D
100
AcDbEntity
  8
部品1
100
AcDbLine
 10
2015.137356965272
 20
2331.821681688773
 30
0.0
 11
4535.137356965267
 21
2331.821681688773
 31
0.0
  0
LINE
  5
1AB79
330
747D
100
AcDbEntity
  8
部品1
100
AcDbLine
 10
4645.137356965269
 20
4256.821681688772
 30
0.0
 11
7275.13735696527
 21
4256.821681688774
 31
0.0
  0
LINE
  5
1AB97
330
747D
100
AcDbEntity
  8
部品1
100
AcDbLine
 10
2015.137356965272
 20
2281.821681688773
 30
0.0
 11
4535.137356965267
 21
2281.821681688773
 31
0.0
  0
LINE
  5
1ABCD
330
747D
100
AcDbEntity
  8
部品1
100
AcDbLine
 10
4487.137356965272
 20
4256.821681688772
 30
0.0
 11
4487.137356965268
 21
2331.821681688773
 31
0.0
  0
LINE
  5
1ABCE
330
747D
100
AcDbEntity
  8
部品1
100
AcDbLine
 10
4535.137356965268
 20
4256.821681688772
 30
0.0
 11
4535.137356965267
 21
2181.821681688773
 31
0.0
  0
LINE
  5
1ABCF
330
747D
100
AcDbEntity
  8
部品1
100
AcDbLine
 10
4693.137356965269
 20
4256.821681688772
 30
0.0
 11
4693.137356965271
 21
2331.821681688773
 31
0.0
  0
LINE
  5
1ABD0
330
747D
100
AcDbEntity
  8
部品1
100
AcDbLine
 10
4645.137356965269
 20
4256.821681688772
 30
0.0
 11
4645.137356965268
 21
2181.821681688773
 31
0.0
  0
LINE
  5
1ABDC
330
747D
100
AcDbEntity
  8
細線
100
AcDbLine
 10
4487.137356965269
 20
2341.821681688772
 30
0.0
 11
2063.137356965264
 21
2341.821681688772
 31
0.0
  0
LINE
  5
1AC06
330
747D
100
AcDbEntity
  8
部品1
100
AcDbLine
 10
7275.13735696527
 20
4256.821681688772
 30
0.0
 11
9850.137356965269
 21
4256.821681688772
 31
0.0
  0
LINE
  5
1AC07
330
747D
100
AcDbEntity
  8
部品1
100
AcDbLine
 10
7275.137356965268
 20
4256.821681688772
 30
0.0
 11
7275.137356965268
 21
2181.821681688773
 31
0.0
  0
LINE
  5
1AC09
330
747D
100
AcDbEntity
  8
部品1
100
AcDbLine
 10
7323.13735696527
 20
4256.821681688772
 30
0.0
 11
7323.137356965272
 21
2331.821681688773
 31
0.0
  0
LINE
  5
1AC0C
330
747D
100
AcDbEntity
  8
部品1
100
AcDbLine
 10
7165.137356965269
 20
4256.821681688772
 30
0.0
 11
7165.137356965267
 21
2181.821681688773
 31
0.0
  0
LINE
  5
1AC0D
330
747D
100
AcDbEntity
  8
部品1
100
AcDbLine
 10
7117.137356965272
 20
4256.821681688772
 30
0.0
 11
7117.137356965269
 21
2331.821681688773
 31
0.0
  0
CIRCLE
  5
1AC0E
330
747D
100
AcDbEntity
  8
細線
 48
50.0
100
AcDbCircle
 10
3275.137356965268
 20
3219.321681688773
 30
0.0
 40
18.0
  0
ARC
  5
1AC0F
330
747D
100
AcDbEntity
  8
細線
 48
50.0
100
AcDbCircle
 10
3575.137356965268
 20
2894.321681688773
 30
0.0
 40
15.0
100
AcDbArc
 50
270.0
 51
90.0
  0
ARC
  5
1AC10
330
747D
100
AcDbEntity
  8
細線
 48
50.0
100
AcDbCircle
 10
3475.137356965268
 20
2894.321681688773
 30
0.0
 40
15.0
100
AcDbArc
 50
90.0
 51
270.0
  0
LINE
  5
1AC11
330
747D
100
AcDbEntity
  8
細線
 48
50.0
100
AcDbLine
 10
3475.137356965268
 20
2909.321681688773
 30
0.0
 11
3575.137356965268
 21
2909.321681688773
 31
0.0
  0
LINE
  5
1AC12
330
747D
100
AcDbEntity
  8
細線
 48
50.0
100
AcDbLine
 10
3575.137356965268
 20
2879.321681688773
 30
0.0
 11
3475.137356965268
 21
2879.321681688773
 31
0.0
  0
ARC
  5
1AC13
330
747D
100
AcDbEntity
  8
細線
 48
50.0
100
AcDbCircle
 10
3075.137356965268
 20
2894.321681688773
 30
0.0
 40
15.0
100
AcDbArc
 50
270.0
 51
90.0
  0
ARC
  5
1AC14
330
747D
100
AcDbEntity
  8
細線
 48
50.0
100
AcDbCircle
 10
2975.137356965268
 20
2894.321681688773
 30
0.0
 40
15.0
100
AcDbArc
 50
90.0
 51
270.0
  0
LINE
  5
1AC15
330
747D
100
AcDbEntity
  8
細線
100
AcDbLine
 10
2063.137356965264
 20
3966.821681688773
 30
0.0
 11
4487.137356965268
 21
3966.821681688773
 31
0.0
  0
LINE
  5
1AC16
330
747D
100
AcDbEntity
  8
細線
100
AcDbLine
 10
2063.137356965264
 20
4031.821681688772
 30
0.0
 11
4487.137356965268
 21
4031.821681688772
 31
0.0
  0
LINE
  5
1AC17
330
747D
100
AcDbEntity
  8
細線
100
AcDbLine
 10
2063.137356965264
 20
4096.821681688772
 30
0.0
 11
4487.137356965268
 21
4096.821681688772
 31
0.0
  0
LINE
  5
1AC18
330
747D
100
AcDbEntity
  8
細線
100
AcDbLine
 10
2063.137356965264
 20
3576.821681688772
 30
0.0
 11
4487.137356965268
 21
3576.821681688772
 31
0.0
  0
LINE
  5
1AC19
330
747D
100
AcDbEntity
  8
細線
100
AcDbLine
 10
2063.137356965264
 20
3641.821681688773
 30
0.0
 11
4487.137356965268
 21
3641.821681688773
 31
0.0
  0
LINE
  5
1AC1A
330
747D
100
AcDbEntity
  8
細線
100
AcDbLine
 10
2063.137356965264
 20
3706.821681688773
 30
0.0
 11
4487.137356965268
 21
3706.821681688773
 31
0.0
  0
LINE
  5
1AC1B
330
747D
100
AcDbEntity
  8
細線
100
AcDbLine
 10
2063.137356965264
 20
3771.821681688773
 30
0.0
 11
4487.137356965268
 21
3771.821681688773
 31
0.0
  0
LINE
  5
1AC1C
330
747D
100
AcDbEntity
  8
細線
100
AcDbLine
 10
2063.137356965264
 20
3836.821681688773
 30
0.0
 11
4487.137356965268
 21
3836.821681688773
 31
0.0
  0
LINE
  5
1AC1D
330
747D
100
AcDbEntity
  8
細線
100
AcDbLine
 10
2063.137356965264
 20
3901.821681688772
 30
0.0
 11
4487.137356965268
 21
3901.821681688772
 31
0.0
  0
LINE
  5
1AC1E
330
747D
100
AcDbEntity
  8
細線
100
AcDbLine
 10
2063.137356965264
 20
2926.821681688773
 30
0.0
 11
4487.137356965268
 21
2926.821681688773
 31
0.0
  0
LINE
  5
1AC1F
330
747D
100
AcDbEntity
  8
細線
100
AcDbLine
 10
2063.137356965264
 20
2991.821681688773
 30
0.0
 11
4487.137356965268
 21
2991.821681688773
 31
0.0
  0
LINE
  5
1AC20
330
747D
100
AcDbEntity
  8
細線
100
AcDbLine
 10
2063.137356965264
 20
3056.821681688773
 30
0.0
 11
4487.137356965268
 21
3056.821681688773
 31
0.0
  0
LINE
  5
1AC21
330
747D
100
AcDbEntity
  8
細線
100
AcDbLine
 10
2063.137356965264
 20
3121.821681688773
 30
0.0
 11
4487.137356965268
 21
3121.821681688773
 31
0.0
  0
LINE
  5
1AC22
330
747D
100
AcDbEntity
  8
細線
100
AcDbLine
 10
2063.137356965264
 20
3186.821681688773
 30
0.0
 11
4487.137356965268
 21
3186.821681688773
 31
0.0
  0
LINE
  5
1AC23
330
747D
100
AcDbEntity
  8
細線
100
AcDbLine
 10
2063.137356965264
 20
3251.821681688773
 30
0.0
 11
4487.137356965268
 21
3251.821681688773
 31
0.0
  0
LINE
  5
1AC24
330
747D
100
AcDbEntity
  8
細線
100
AcDbLine
 10
2063.137356965264
 20
3316.821681688773
 30
0.0
 11
4487.137356965268
 21
3316.821681688773
 31
0.0
  0
LINE
  5
1AC25
330
747D
100
AcDbEntity
  8
細線
100
AcDbLine
 10
2063.137356965264
 20
3381.821681688773
 30
0.0
 11
4487.137356965268
 21
3381.821681688773
 31
0.0
  0
LINE
  5
1AC26
330
747D
100
AcDbEntity
  8
細線
100
AcDbLine
 10
2063.137356965264
 20
3446.821681688773
 30
0.0
 11
4487.137356965268
 21
3446.821681688773
 31
0.0
  0
LINE
  5
1AC27
330
747D
100
AcDbEntity
  8
細線
100
AcDbLine
 10
2063.137356965264
 20
3511.821681688772
 30
0.0
 11
4487.137356965268
 21
3511.821681688772
 31
0.0
  0
LINE
  5
1AC28
330
747D
100
AcDbEntity
  8
細線
100
AcDbLine
 10
2063.137356965264
 20
4226.821681688772
 30
0.0
 11
4487.137356965268
 21
4226.821681688772
 31
0.0
  0
LINE
  5
1AC29
330
747D
100
AcDbEntity
  8
細線
100
AcDbLine
 10
2063.137356965264
 20
4161.821681688772
 30
0.0
 11
4487.137356965268
 21
4161.821681688772
 31
0.0
  0
LINE
  5
1AC2A
330
747D
100
AcDbEntity
  8
細線
100
AcDbLine
 10
2063.137356965264
 20
2406.821681688773
 30
0.0
 11
4487.137356965268
 21
2406.821681688773
 31
0.0
  0
LINE
  5
1AC2B
330
747D
100
AcDbEntity
  8
細線
100
AcDbLine
 10
2063.137356965264
 20
2471.821681688773
 30
0.0
 11
4487.137356965268
 21
2471.821681688773
 31
0.0
  0
LINE
  5
1AC2C
330
747D
100
AcDbEntity
  8
細線
100
AcDbLine
 10
2063.137356965264
 20
2536.821681688773
 30
0.0
 11
4487.137356965268
 21
2536.821681688773
 31
0.0
  0
LINE
  5
1AC2D
330
747D
100
AcDbEntity
  8
細線
100
AcDbLine
 10
2063.137356965264
 20
2601.821681688773
 30
0.0
 11
4487.137356965268
 21
2601.821681688773
 31
0.0
  0
LINE
  5
1AC2E
330
747D
100
AcDbEntity
  8
細線
100
AcDbLine
 10
2063.137356965264
 20
2666.821681688773
 30
0.0
 11
4487.137356965268
 21
2666.821681688773
 31
0.0
  0
LINE
  5
1AC2F
330
747D
100
AcDbEntity
  8
細線
100
AcDbLine
 10
2063.137356965264
 20
2731.821681688773
 30
0.0
 11
4487.137356965268
 21
2731.821681688773
 31
0.0
  0
LINE
  5
1AC30
330
747D
100
AcDbEntity
  8
細線
100
AcDbLine
 10
2063.137356965264
 20
2796.821681688772
 30
0.0
 11
4487.137356965268
 21
2796.821681688772
 31
0.0
  0
LINE
  5
1AC31
330
747D
100
AcDbEntity
  8
細線
100
AcDbLine
 10
2063.137356965264
 20
2861.821681688772
 30
0.0
 11
4487.137356965268
 21
2861.821681688772
 31
0.0
  0
LINE
  5
1AC32
330
747D
100
AcDbEntity
  8
細線
 48
50.0
100
AcDbLine
 10
3075.137356965268
 20
2879.321681688773
 30
0.0
 11
2975.137356965268
 21
2879.321681688773
 31
0.0
  0
LINE
  5
1AC33
330
747D
100
AcDbEntity
  8
細線
 48
50.0
100
AcDbLine
 10
2975.137356965268
 20
2909.321681688773
 30
0.0
 11
3075.137356965268
 21
2909.321681688773
 31
0.0
  0
ARC
  5
1AC70
330
747D
100
AcDbEntity
  8
細線
 48
50.0
100
AcDbCircle
 10
8235.137356965267
 20
2894.321681688773
 30
0.0
 40
15.0
100
AcDbArc
 50
90.0
 51
270.0
  0
ARC
  5
1AC71
330
747D
100
AcDbEntity
  8
細線
 48
50.0
100
AcDbCircle
 10
8335.137356965267
 20
2894.321681688773
 30
0.0
 40
15.0
100
AcDbArc
 50
270.0
 51
90.0
  0
LINE
  5
1AC72
330
747D
100
AcDbEntity
  8
細線
 48
50.0
100
AcDbLine
 10
8235.137356965267
 20
2909.321681688773
 30
0.0
 11
8335.137356965267
 21
2909.321681688773
 31
0.0
  0
LINE
  5
1AC73
330
747D
100
AcDbEntity
  8
細線
 48
50.0
100
AcDbLine
 10
8335.137356965267
 20
2879.321681688773
 30
0.0
 11
8235.137356965267
 21
2879.321681688773
 31
0.0
  0
LINE
  5
1AC74
330
747D
100
AcDbEntity
  8
細線
 48
50.0
100
AcDbLine
 10
8835.137356965267
 20
2879.321681688773
 30
0.0
 11
8735.137356965267
 21
2879.321681688773
 31
0.0
  0
LINE
  5
1AC75
330
747D
100
AcDbEntity
  8
細線
 48
50.0
100
AcDbLine
 10
8735.137356965267
 20
2909.321681688773
 30
0.0
 11
8835.137356965267
 21
2909.321681688773
 31
0.0
  0
ARC
  5
1AC76
330
747D
100
AcDbEntity
  8
細線
 48
50.0
100
AcDbCircle
 10
8735.137356965267
 20
2894.321681688773
 30
0.0
 40
15.0
100
AcDbArc
 50
90.0
 51
270.0
  0
ARC
  5
1AC77
330
747D
100
AcDbEntity
  8
細線
 48
50.0
100
AcDbCircle
 10
8835.137356965267
 20
2894.321681688773
 30
0.0
 40
15.0
100
AcDbArc
 50
270.0
 51
90.0
  0
CIRCLE
  5
1AC78
330
747D
100
AcDbEntity
  8
細線
 48
50.0
100
AcDbCircle
 10
8535.137356965268
 20
3219.321681688773
 30
0.0
 40
18.0
  0
LINE
  5
1AC7C
330
747D
100
AcDbEntity
  8
細線
100
AcDbLine
 10
9747.13735696527
 20
2341.821681688772
 30
0.0
 11
7323.137356965265
 21
2341.821681688772
 31
0.0
  0
LINE
  5
1AC7D
330
747D
100
AcDbEntity
  8
細線
100
AcDbLine
 10
7323.137356965266
 20
2861.821681688772
 30
0.0
 11
9747.137356965268
 21
2861.821681688772
 31
0.0
  0
LINE
  5
1AC7E
330
747D
100
AcDbEntity
  8
細線
100
AcDbLine
 10
7323.137356965266
 20
2796.821681688772
 30
0.0
 11
9747.137356965268
 21
2796.821681688772
 31
0.0
  0
LINE
  5
1AC7F
330
747D
100
AcDbEntity
  8
細線
100
AcDbLine
 10
7323.137356965266
 20
2731.821681688773
 30
0.0
 11
9747.137356965268
 21
2731.821681688773
 31
0.0
  0
LINE
  5
1AC80
330
747D
100
AcDbEntity
  8
細線
100
AcDbLine
 10
7323.137356965266
 20
2666.821681688773
 30
0.0
 11
9747.137356965268
 21
2666.821681688773
 31
0.0
  0
LINE
  5
1AC81
330
747D
100
AcDbEntity
  8
細線
100
AcDbLine
 10
7323.137356965266
 20
2601.821681688773
 30
0.0
 11
9747.137356965268
 21
2601.821681688773
 31
0.0
  0
LINE
  5
1AC82
330
747D
100
AcDbEntity
  8
細線
100
AcDbLine
 10
7323.137356965266
 20
2536.821681688773
 30
0.0
 11
9747.137356965268
 21
2536.821681688773
 31
0.0
  0
LINE
  5
1AC83
330
747D
100
AcDbEntity
  8
細線
100
AcDbLine
 10
7323.137356965266
 20
2471.821681688773
 30
0.0
 11
9747.137356965268
 21
2471.821681688773
 31
0.0
  0
LINE
  5
1AC84
330
747D
100
AcDbEntity
  8
細線
100
AcDbLine
 10
7323.137356965266
 20
2406.821681688773
 30
0.0
 11
9747.137356965268
 21
2406.821681688773
 31
0.0
  0
LINE
  5
1AC85
330
747D
100
AcDbEntity
  8
細線
100
AcDbLine
 10
7323.137356965266
 20
4161.821681688772
 30
0.0
 11
9747.137356965268
 21
4161.821681688772
 31
0.0
  0
LINE
  5
1AC86
330
747D
100
AcDbEntity
  8
細線
100
AcDbLine
 10
7323.137356965266
 20
4226.821681688772
 30
0.0
 11
9747.137356965268
 21
4226.821681688772
 31
0.0
  0
LINE
  5
1AC87
330
747D
100
AcDbEntity
  8
細線
100
AcDbLine
 10
7323.137356965266
 20
3511.821681688772
 30
0.0
 11
9747.137356965268
 21
3511.821681688772
 31
0.0
  0
LINE
  5
1AC88
330
747D
100
AcDbEntity
  8
細線
100
AcDbLine
 10
7323.137356965266
 20
3446.821681688773
 30
0.0
 11
9747.137356965268
 21
3446.821681688773
 31
0.0
  0
LINE
  5
1AC89
330
747D
100
AcDbEntity
  8
細線
100
AcDbLine
 10
7323.137356965266
 20
3381.821681688773
 30
0.0
 11
9747.137356965268
 21
3381.821681688773
 31
0.0
  0
LINE
  5
1AC8A
330
747D
100
AcDbEntity
  8
細線
100
AcDbLine
 10
7323.137356965266
 20
3316.821681688773
 30
0.0
 11
9747.137356965268
 21
3316.821681688773
 31
0.0
  0
LINE
  5
1AC8B
330
747D
100
AcDbEntity
  8
細線
100
AcDbLine
 10
7323.137356965266
 20
3251.821681688773
 30
0.0
 11
9747.137356965268
 21
3251.821681688773
 31
0.0
  0
LINE
  5
1AC8C
330
747D
100
AcDbEntity
  8
細線
100
AcDbLine
 10
7323.137356965266
 20
3186.821681688773
 30
0.0
 11
9747.137356965268
 21
3186.821681688773
 31
0.0
  0
LINE
  5
1AC8D
330
747D
100
AcDbEntity
  8
細線
100
AcDbLine
 10
7323.137356965266
 20
3121.821681688773
 30
0.0
 11
9747.137356965268
 21
3121.821681688773
 31
0.0
  0
LINE
  5
1AC8E
330
747D
100
AcDbEntity
  8
細線
100
AcDbLine
 10
7323.137356965266
 20
3056.821681688773
 30
0.0
 11
9747.137356965268
 21
3056.821681688773
 31
0.0
  0
LINE
  5
1AC8F
330
747D
100
AcDbEntity
  8
細線
100
AcDbLine
 10
7323.137356965266
 20
2991.821681688773
 30
0.0
 11
9747.137356965268
 21
2991.821681688773
 31
0.0
  0
LINE
  5
1AC90
330
747D
100
AcDbEntity
  8
細線
100
AcDbLine
 10
7323.137356965266
 20
2926.821681688773
 30
0.0
 11
9747.137356965268
 21
2926.821681688773
 31
0.0
  0
LINE
  5
1AC91
330
747D
100
AcDbEntity
  8
細線
100
AcDbLine
 10
7323.137356965266
 20
3901.821681688772
 30
0.0
 11
9747.137356965268
 21
3901.821681688772
 31
0.0
  0
LINE
  5
1AC92
330
747D
100
AcDbEntity
  8
細線
100
AcDbLine
 10
7323.137356965266
 20
3836.821681688773
 30
0.0
 11
9747.137356965268
 21
3836.821681688773
 31
0.0
  0
LINE
  5
1AC93
330
747D
100
AcDbEntity
  8
細線
100
AcDbLine
 10
7323.137356965266
 20
3771.821681688773
 30
0.0
 11
9747.137356965268
 21
3771.821681688773
 31
0.0
  0
LINE
  5
1AC94
330
747D
100
AcDbEntity
  8
細線
100
AcDbLine
 10
7323.137356965266
 20
3706.821681688773
 30
0.0
 11
9747.137356965268
 21
3706.821681688773
 31
0.0
  0
LINE
  5
1AC95
330
747D
100
AcDbEntity
  8
細線
100
AcDbLine
 10
7323.137356965266
 20
3641.821681688773
 30
0.0
 11
9747.137356965268
 21
3641.821681688773
 31
0.0
  0
LINE
  5
1AC96
330
747D
100
AcDbEntity
  8
細線
100
AcDbLine
 10
7323.137356965266
 20
3576.821681688772
 30
0.0
 11
9747.137356965268
 21
3576.821681688772
 31
0.0
  0
LINE
  5
1AC97
330
747D
100
AcDbEntity
  8
細線
100
AcDbLine
 10
7323.137356965266
 20
4096.821681688772
 30
0.0
 11
9747.137356965268
 21
4096.821681688772
 31
0.0
  0
LINE
  5
1AC98
330
747D
100
AcDbEntity
  8
細線
100
AcDbLine
 10
7323.137356965266
 20
4031.821681688772
 30
0.0
 11
9747.137356965268
 21
4031.821681688772
 31
0.0
  0
LINE
  5
1AC99
330
747D
100
AcDbEntity
  8
細線
100
AcDbLine
 10
7323.137356965266
 20
3966.821681688773
 30
0.0
 11
9747.137356965268
 21
3966.821681688773
 31
0.0
  0
LINE
  5
1AC9A
330
747D
100
AcDbEntity
  8
部品1
100
AcDbLine
 10
1960.137356965271
 20
4256.821681688772
 30
0.0
 11
4645.137356965269
 21
4256.821681688772
 31
0.0
  0
LINE
  5
1AC9B
330
747D
100
AcDbEntity
  8
部品1
100
AcDbLine
 10
9747.137356965271
 20
4256.821681688772
 30
0.0
 11
9747.13735696527
 21
2331.821681688773
 31
0.0
  0
LINE
  5
1AC9C
330
747D
100
AcDbEntity
  8
部品1
100
AcDbLine
 10
2063.137356965272
 20
4256.821681688772
 30
0.0
 11
2063.137356965272
 21
2331.821681688773
 31
0.0
  0
LINE
  5
1AC9D
330
747D
100
AcDbEntity
  8
破線
 48
5.0
100
AcDbLine
 10
2015.137356965268
 20
1931.82168168878
 30
0.0
 11
1960.137356965268
 21
1931.82168168878
 31
0.0
  0
LINE
  5
1AC9E
330
747D
100
AcDbEntity
  8
破線
 48
5.0
100
AcDbLine
 10
9850.137356965269
 20
1931.821681688773
 30
0.0
 11
9795.13735696527
 21
1931.821681688773
 31
0.0
  0
LINE
  5
1AC9F
330
747D
100
AcDbEntity
  8
破線
 48
5.0
100
AcDbLine
 10
2015.137356965272
 20
2181.821681688773
 30
0.0
 11
2015.137356965268
 21
1931.821681688773
 31
0.0
  0
LINE
  5
1ACA0
330
747D
100
AcDbEntity
  8
破線
 48
5.0
100
AcDbLine
 10
9795.13735696527
 20
2181.821681688773
 30
0.0
 11
9795.13735696527
 21
1931.821681688773
 31
0.0
  0
LINE
  5
1ACA3
330
747D
100
AcDbEntity
  8
破線
 48
5.0
100
AcDbLine
 10
1960.137356965271
 20
2181.821681688773
 30
0.0
 11
1960.137356965268
 21
1931.821681688773
 31
0.0
  0
LINE
  5
1ACA4
330
747D
100
AcDbEntity
  8
破線
 48
5.0
100
AcDbLine
 10
9850.137356965269
 20
2181.821681688773
 30
0.0
 11
9850.137356965269
 21
1931.821681688773
 31
0.0
  0
LINE
  5
1ACAB
330
747D
100
AcDbEntity
  8
部品1
100
AcDbLine
 10
9850.137356965269
 20
4515.821681688776
 30
0.0
 11
9850.137356965269
 21
2181.821681688773
 31
0.0
  0
LINE
  5
1ACAC
330
747D
100
AcDbEntity
  8
部品1
100
AcDbLine
 10
2015.137356965271
 20
4256.821681688772
 30
0.0
 11
2015.137356965272
 21
2181.821681688773
 31
0.0
  0
LINE
  5
1ACAD
330
747D
100
AcDbEntity
  8
部品1
100
AcDbLine
 10
9795.13735696527
 20
4256.821681688772
 30
0.0
 11
9795.137356965268
 21
2181.821681688773
 31
0.0
  0
LINE
  5
1ACAE
330
747D
100
AcDbEntity
  8
部品1
100
AcDbLine
 10
1960.137356965271
 20
4515.821681688776
 30
0.0
 11
1960.137356965271
 21
2181.821681688773
 31
0.0
  0
LINE
  5
1ACAF
330
747D
100
AcDbEntity
  8
部品1
100
AcDbLine
 10
1470.857427273098
 20
2311.725492256437
 30
0.0
 11
1395.857427273098
 21
2181.821681688773
 31
0.0
  0
TEXT
  5
1ACB0
330
747D
100
AcDbEntity
  8
部品1
100
AcDbText
 10
1498.962369397872
 20
2217.928585294674
 30
0.0
 40
125.0
  1
G.L
  7
STYLE2
100
AcDbText
  0
LINE
  5
1ACB1
330
747D
100
AcDbEntity
  8
部品1
100
AcDbLine
 10
1395.857427273098
 20
2181.821681688773
 30
0.0
 11
1320.857427273098
 21
2311.725492256437
 31
0.0
  0
LINE
  5
1ACB2
330
747D
100
AcDbEntity
  8
部品1
100
AcDbLine
 10
1320.857427273098
 20
2311.725492256437
 30
0.0
 11
1470.857427273098
 21
2311.725492256437
 31
0.0
  0
MTEXT
  5
1B62B
330
747D
100
AcDbEntity
  8
寸法
 62
     7
 48
50.0
100
AcDbMText
 10
2637.852555037908
 20
9665.059266132765
 30
0.0
 40
96.0
 41
0.0
 71
     5
 72
     1
  1
棚 3段
  7
STYLE1
 73
     1
 44
1.0
1001
ACAD
1000
MTEXTBEGIN
1070
    73
1070
     1
1070
    44
1040
1.0
1070
    74
1070
     0
1000
MTEXTEND
  0
MTEXT
  5
1B80B
330
747D
100
AcDbEntity
  8
寸法
 62
     7
 48
50.0
100
AcDbMText
 10
3937.852555037908
 20
9665.059266132812
 30
0.0
 40
96.0
 41
0.0
 71
     5
 72
     1
  1
棚 3段
  7
STYLE1
 73
     1
 44
1.0
1001
ACAD
1000
MTEXTBEGIN
1070
    73
1070
     1
1070
    44
1040
1.0
1070
    74
1070
     0
1000
MTEXTEND
  0
MTEXT
  5
1B80C
330
747D
100
AcDbEntity
  8
寸法
 62
     7
 48
50.0
100
AcDbMText
 10
6587.857373427738
 20
9665.059266132809
 30
0.0
 40
96.0
 41
0.0
 71
     5
 72
     1
  1
棚 3段
  7
STYLE1
 73
     1
 44
1.0
1001
ACAD
1000
MTEXTBEGIN
1070
    73
1070
     1
1070
    44
1040
1.0
1070
    74
1070
     0
1000
MTEXTEND
  0
MTEXT
  5
1B80D
330
747D
100
AcDbEntity
  8
寸法
 62
     7
 48
50.0
100
AcDbMText
 10
5287.857373427738
 20
9665.059266132759
 30
0.0
 40
96.0
 41
0.0
 71
     5
 72
     1
  1
棚 3段
  7
STYLE1
 73
     1
 44
1.0
1001
ACAD
1000
MTEXTBEGIN
1070
    73
1070
     1
1070
    44
1040
1.0
1070
    74
1070
     0
1000
MTEXTEND
  0
MTEXT
  5
1B80E
330
747D
100
AcDbEntity
  8
寸法
 62
     7
 48
50.0
100
AcDbMText
 10
9217.857373427738
 20
9665.059266132809
 30
0.0
 40
96.0
 41
0.0
 71
     5
 72
     1
  1
棚 3段
  7
STYLE1
 73
     1
 44
1.0
1001
ACAD
1000
MTEXTBEGIN
1070
    73
1070
     1
1070
    44
1040
1.0
1070
    74
1070
     0
1000
MTEXTEND
  0
MTEXT
  5
1B80F
330
747D
100
AcDbEntity
  8
寸法
 62
     7
 48
50.0
100
AcDbMText
 10
7917.857373427739
 20
9665.059266132759
 30
0.0
 40
96.0
 41
0.0
 71
     5
 72
     1
  1
棚 3段
  7
STYLE1
 73
     1
 44
1.0
1001
ACAD
1000
MTEXTBEGIN
1070
    73
1070
     1
1070
    44
1040
1.0
1070
    74
1070
     0
1000
MTEXTEND
  0
DIMENSION
  5
1B988
330
747D
100
AcDbEntity
  8
寸法
100
AcDbDimension
  2
*D41
 10
9729.61351070392
 20
9257.215327410456
 30
0.0
 11
9139.622672703556
 21
9257.215327410456
 31
0.0
 70
   160
 71
     5
 42
1273.000000000011
  3
INABA_S40G
100
AcDbAlignedDimension
 13
8548.637356965262
 23
9600.652997165733
 33
0.0
 14
9821.637356965272
 24
9600.652997165726
 34
0.0
100
AcDbRotatedDimension
1001
ACAD
1000
DSTYLE
1002
{
1002
}
  0
DIMENSION
  5
1B9AD
330
747D
100
AcDbEntity
  8
寸法
100
AcDbDimension
  2
*D42
 10
8429.61351070395
 20
9257.215327410456
 30
0.0
 11
7793.113510703943
 21
9357.227138434078
 31
0.0
 70
    32
 71
     5
 42
1273.000000000011
  3
INABA_S40G
100
AcDbAlignedDimension
 13
7248.637356965261
 23
9600.652997165628
 33
0.0
 14
8521.637356965271
 24
9600.652997165621
 34
0.0
100
AcDbRotatedDimension
1001
ACAD
1000
DSTYLE
1002
{
1002
}
  0
LINE
  5
1BBA7
330
747D
100
AcDbEntity
  8
補助
  6
PHANTOM
 62
   230
 48
50.0
100
AcDbLine
 10
140.0
 20
0.0
 30
0.0
 11
139.9999999999995
 21
11409.6
 31
0.0
  0
TEXT
  5
1BBC4
330
747D
100
AcDbEntity
  8
文字
 62
     7
 48
50.0
100
AcDbText
 10
14500.43014411085
 20
483.8967129911414
 30
0.0
 40
160.0
  1
FXN-70HYL-N
  7
STYLE2
100
AcDbText
  0
DIMENSION
  5
1BD02
330
747D
100
AcDbEntity
  8
寸法
 48
50.0
100
AcDbDimension
  2
*D43
 10
10137.68045928701
 20
4229.821681688771
 30
0.0
 11
10037.68045928701
 21
3286.821681688774
 31
0.0
 70
    32
  1
有効開口部高サ <>
 71
     5
 42
1885.999999999998
  3
INABA_S40G
100
AcDbAlignedDimension
 13
9850.137356965269
 23
2343.821681688773
 33
0.0
 14
9850.137356965271
 24
4229.821681688771
 34
0.0
 50
90.0
100
AcDbRotatedDimension
  0
DIMENSION
  5
1BD03
330
747D
100
AcDbEntity
  8
寸法
 48
50.0
100
AcDbDimension
  2
*D44
 10
10137.68045928701
 20
4256.821681688773
 30
0.0
 11
10277.85028253338
 21
4257.788881528432
 31
0.0
 70
   160
 71
     5
 42
27.00000000000182
  3
INABA_S40G
100
AcDbAlignedDimension
 13
9850.137356965271
 23
4229.821681688771
 33
0.0
 14
9850.137356965269
 24
4256.821681688773
 34
0.0
 50
90.0
100
AcDbRotatedDimension
1001
ACAD
1000
DSTYLE
1002
{
1070
   279
1070
     2
1002
}
  0
DIMENSION
  5
1BD04
330
747D
100
AcDbEntity
  8
寸法
 48
50.0
100
AcDbDimension
  2
*D45
 10
10137.68045928701
 20
4421.821681688772
 30
0.0
 11
10137.68045928701
 21
4660.306963063012
 31
0.0
 70
   160
 71
     5
 42
164.9999999999991
  3
INABA_S40G
100
AcDbAlignedDimension
 13
9850.137356965269
 23
4256.821681688773
 33
0.0
 14
9850.137356965269
 24
4421.821681688772
 34
0.0
 50
90.0
100
AcDbRotatedDimension
1001
ACAD
1000
DSTYLE
1002
{
1002
}
  0
ARC
  5
1BF6C
330
747D
100
AcDbEntity
  8
部品1
 48
0.01
100
AcDbCircle
 10
2748.137356965271
 20
4485.82168168877
 30
0.0
 40
2.0
100
AcDbArc
 50
0.0
 51
90.0
  0
ARC
  5
1BF6D
330
747D
100
AcDbEntity
  8
部品1
 48
0.01
100
AcDbCircle
 10
2572.137356965272
 20
4485.82168168877
 30
0.0
 40
2.0
100
AcDbArc
 50
90.0
 51
180.0
  0
LINE
  5
1BF6E
330
747D
100
AcDbEntity
  8
細線
100
AcDbLine
 10
2660.137356965268
 20
4458.32168168877
 30
0.0
 11
2734.137356965272
 21
4458.32168168877
 31
0.0
  0
LINE
  5
1BF6F
330
747D
100
AcDbEntity
  8
細線
100
AcDbLine
 10
2660.137356965272
 20
4481.321681688771
 30
0.0
 11
2586.137356965272
 21
4481.321681688771
 31
0.0
  0
LINE
  5
1BF70
330
747D
100
AcDbEntity
  8
細線
100
AcDbLine
 10
2586.137356965272
 20
4458.32168168877
 30
0.0
 11
2660.137356965272
 21
4458.32168168877
 31
0.0
  0
LINE
  5
1BF71
330
747D
100
AcDbEntity
  8
細線
100
AcDbLine
 10
2734.137356965272
 20
4481.321681688771
 30
0.0
 11
2660.137356965272
 21
4481.321681688771
 31
0.0
  0
LINE
  5
1BF72
330
747D
100
AcDbEntity
  8
細線
100
AcDbLine
 10
2734.137356965272
 20
4458.32168168877
 30
0.0
 11
2734.137356965272
 21
4481.321681688771
 31
0.0
  0
LINE
  5
1BF73
330
747D
100
AcDbEntity
  8
細線
100
AcDbLine
 10
2586.137356965272
 20
4481.321681688771
 30
0.0
 11
2586.137356965272
 21
4458.32168168877
 31
0.0
  0
LINE
  5
1BF74
330
747D
100
AcDbEntity
  8
部品1
 48
0.01
100
AcDbLine
 10
2750.137356965268
 20
4454.32168168877
 30
0.0
 11
2750.137356965272
 21
4485.82168168877
 31
0.0
  0
LINE
  5
1BF75
330
747D
100
AcDbEntity
  8
部品1
 48
0.01
100
AcDbLine
 10
2570.137356965272
 20
4485.82168168877
 30
0.0
 11
2570.137356965272
 21
4454.32168168877
 31
0.0
  0
LINE
  5
1BF76
330
747D
100
AcDbEntity
  8
部品1
 48
0.01
100
AcDbLine
 10
2748.137356965271
 20
4487.82168168877
 30
0.0
 11
2572.137356965272
 21
4487.82168168877
 31
0.0
  0
LINE
  5
1BF77
330
747D
100
AcDbEntity
  8
細線
100
AcDbLine
 10
2586.137356965272
 20
4475.321681688771
 30
0.0
 11
2660.137356965272
 21
4475.321681688771
 31
0.0
  0
LINE
  5
1BF78
330
747D
100
AcDbEntity
  8
細線
100
AcDbLine
 10
2586.137356965272
 20
4469.321681688771
 30
0.0
 11
2660.137356965272
 21
4469.321681688771
 31
0.0
  0
LINE
  5
1BF79
330
747D
100
AcDbEntity
  8
細線
100
AcDbLine
 10
2586.137356965268
 20
4463.32168168877
 30
0.0
 11
2660.137356965272
 21
4463.32168168877
 31
0.0
  0
LINE
  5
1BF7A
330
747D
100
AcDbEntity
  8
細線
100
AcDbLine
 10
2586.137356965272
 20
4475.321681688771
 30
0.0
 11
2655.137356965271
 21
4475.321681688771
 31
0.0
  0
LINE
  5
1BF7B
330
747D
100
AcDbEntity
  8
細線
100
AcDbLine
 10
2734.137356965268
 20
4475.321681688771
 30
0.0
 11
2660.137356965272
 21
4475.321681688771
 31
0.0
  0
LINE
  5
1BF7C
330
747D
100
AcDbEntity
  8
細線
100
AcDbLine
 10
2734.137356965268
 20
4463.32168168877
 30
0.0
 11
2660.137356965272
 21
4463.32168168877
 31
0.0
  0
LINE
  5
1BF7D
330
747D
100
AcDbEntity
  8
細線
100
AcDbLine
 10
2734.137356965268
 20
4469.321681688771
 30
0.0
 11
2660.137356965272
 21
4469.321681688771
 31
0.0
  0
LINE
  5
1BF7E
330
747D
100
AcDbEntity
  8
細線
100
AcDbLine
 10
2660.137356965272
 20
4481.321681688771
 30
0.0
 11
2660.137356965268
 21
4458.32168168877
 31
0.0
  0
LINE
  5
1BF7F
330
747D
100
AcDbEntity
  8
細線
100
AcDbLine
 10
3890.137356965271
 20
4481.321681688771
 30
0.0
 11
3890.137356965271
 21
4458.32168168877
 31
0.0
  0
LINE
  5
1BF80
330
747D
100
AcDbEntity
  8
細線
100
AcDbLine
 10
3816.137356965272
 20
4469.321681688771
 30
0.0
 11
3890.137356965271
 21
4469.321681688771
 31
0.0
  0
LINE
  5
1BF81
330
747D
100
AcDbEntity
  8
細線
100
AcDbLine
 10
3816.137356965272
 20
4463.32168168877
 30
0.0
 11
3890.137356965271
 21
4463.32168168877
 31
0.0
  0
LINE
  5
1BF82
330
747D
100
AcDbEntity
  8
細線
100
AcDbLine
 10
3816.137356965272
 20
4475.321681688771
 30
0.0
 11
3890.137356965271
 21
4475.321681688771
 31
0.0
  0
LINE
  5
1BF83
330
747D
100
AcDbEntity
  8
細線
100
AcDbLine
 10
3964.137356965272
 20
4475.321681688771
 30
0.0
 11
3895.137356965271
 21
4475.321681688771
 31
0.0
  0
LINE
  5
1BF84
330
747D
100
AcDbEntity
  8
細線
100
AcDbLine
 10
3964.137356965272
 20
4463.32168168877
 30
0.0
 11
3890.137356965271
 21
4463.32168168877
 31
0.0
  0
LINE
  5
1BF85
330
747D
100
AcDbEntity
  8
細線
100
AcDbLine
 10
3964.137356965272
 20
4469.321681688771
 30
0.0
 11
3890.137356965271
 21
4469.321681688771
 31
0.0
  0
LINE
  5
1BF86
330
747D
100
AcDbEntity
  8
細線
100
AcDbLine
 10
3964.137356965272
 20
4475.321681688771
 30
0.0
 11
3890.137356965271
 21
4475.321681688771
 31
0.0
  0
LINE
  5
1BF87
330
747D
100
AcDbEntity
  8
部品1
 48
0.01
100
AcDbLine
 10
3802.137356965272
 20
4487.82168168877
 30
0.0
 11
3978.137356965272
 21
4487.82168168877
 31
0.0
  0
LINE
  5
1BF88
330
747D
100
AcDbEntity
  8
部品1
 48
0.01
100
AcDbLine
 10
3980.137356965272
 20
4485.82168168877
 30
0.0
 11
3980.137356965272
 21
4454.32168168877
 31
0.0
  0
LINE
  5
1BF89
330
747D
100
AcDbEntity
  8
部品1
 48
0.01
100
AcDbLine
 10
3800.137356965271
 20
4454.32168168877
 30
0.0
 11
3800.137356965271
 21
4485.82168168877
 31
0.0
  0
LINE
  5
1BF8A
330
747D
100
AcDbEntity
  8
細線
100
AcDbLine
 10
3964.137356965272
 20
4481.321681688771
 30
0.0
 11
3964.137356965272
 21
4458.32168168877
 31
0.0
  0
LINE
  5
1BF8B
330
747D
100
AcDbEntity
  8
細線
100
AcDbLine
 10
3816.137356965272
 20
4458.32168168877
 30
0.0
 11
3816.137356965272
 21
4481.321681688771
 31
0.0
  0
LINE
  5
1BF8C
330
747D
100
AcDbEntity
  8
細線
100
AcDbLine
 10
3816.137356965272
 20
4481.321681688771
 30
0.0
 11
3890.137356965271
 21
4481.321681688771
 31
0.0
  0
LINE
  5
1BF8D
330
747D
100
AcDbEntity
  8
細線
100
AcDbLine
 10
3964.137356965272
 20
4458.32168168877
 30
0.0
 11
3890.137356965271
 21
4458.32168168877
 31
0.0
  0
LINE
  5
1BF8E
330
747D
100
AcDbEntity
  8
細線
100
AcDbLine
 10
3890.137356965271
 20
4481.321681688771
 30
0.0
 11
3964.137356965272
 21
4481.321681688771
 31
0.0
  0
LINE
  5
1BF8F
330
747D
100
AcDbEntity
  8
細線
100
AcDbLine
 10
3890.137356965271
 20
4458.32168168877
 30
0.0
 11
3816.137356965272
 21
4458.32168168877
 31
0.0
  0
ARC
  5
1BF90
330
747D
100
AcDbEntity
  8
部品1
 48
0.01
100
AcDbCircle
 10
3978.137356965272
 20
4485.82168168877
 30
0.0
 40
2.0
100
AcDbArc
 50
0.0
 51
90.0
  0
ARC
  5
1BF91
330
747D
100
AcDbEntity
  8
部品1
 48
0.01
100
AcDbCircle
 10
3802.137356965272
 20
4485.82168168877
 30
0.0
 40
2.0
100
AcDbArc
 50
90.0
 51
180.0
  0
ARC
  5
1BF92
330
747D
100
AcDbEntity
  8
部品1
 48
0.01
100
AcDbCircle
 10
2748.137356965268
 20
4454.32168168877
 30
0.0
 40
2.0
100
AcDbArc
 50
270.0
 51
0.0
  0
ARC
  5
1BF93
330
747D
100
AcDbEntity
  8
部品1
 48
0.01
100
AcDbCircle
 10
2572.137356965272
 20
4454.32168168877
 30
0.0
 40
2.0
100
AcDbArc
 50
180.0
 51
270.0
  0
LINE
  5
1BF94
330
747D
100
AcDbEntity
  8
部品1
 48
0.01
100
AcDbLine
 10
2572.137356965272
 20
4452.321681688771
 30
0.0
 11
2748.137356965268
 21
4452.321681688771
 31
0.0
  0
LINE
  5
1BF95
330
747D
100
AcDbEntity
  8
部品1
 48
0.01
100
AcDbLine
 10
3978.137356965272
 20
4452.321681688771
 30
0.0
 11
3802.137356965272
 21
4452.321681688771
 31
0.0
  0
ARC
  5
1BF96
330
747D
100
AcDbEntity
  8
部品1
 48
0.01
100
AcDbCircle
 10
3978.137356965272
 20
4454.32168168877
 30
0.0
 40
2.0
100
AcDbArc
 50
270.0
 51
0.0
  0
ARC
  5
1BF97
330
747D
100
AcDbEntity
  8
部品1
 48
0.01
100
AcDbCircle
 10
3802.137356965272
 20
4454.32168168877
 30
0.0
 40
2.0
100
AcDbArc
 50
180.0
 51
270.0
  0
ARC
  5
1C098
330
747D
100
AcDbEntity
  8
部品1
 48
0.01
100
AcDbCircle
 10
6432.137356965272
 20
4454.32168168877
 30
0.0
 40
2.0
100
AcDbArc
 50
180.0
 51
270.0
  0
ARC
  5
1C099
330
747D
100
AcDbEntity
  8
部品1
 48
0.01
100
AcDbCircle
 10
6608.137356965271
 20
4454.32168168877
 30
0.0
 40
2.0
100
AcDbArc
 50
270.0
 51
0.0
  0
LINE
  5
1C09A
330
747D
100
AcDbEntity
  8
部品1
 48
0.01
100
AcDbLine
 10
6608.137356965271
 20
4452.321681688771
 30
0.0
 11
6432.137356965272
 21
4452.321681688771
 31
0.0
  0
LINE
  5
1C09B
330
747D
100
AcDbEntity
  8
部品1
 48
0.01
100
AcDbLine
 10
5202.137356965272
 20
4452.321681688771
 30
0.0
 11
5378.137356965268
 21
4452.321681688771
 31
0.0
  0
ARC
  5
1C09C
330
747D
100
AcDbEntity
  8
部品1
 48
0.01
100
AcDbCircle
 10
5202.137356965272
 20
4454.32168168877
 30
0.0
 40
2.0
100
AcDbArc
 50
180.0
 51
270.0
  0
ARC
  5
1C09D
330
747D
100
AcDbEntity
  8
部品1
 48
0.01
100
AcDbCircle
 10
5378.137356965268
 20
4454.32168168877
 30
0.0
 40
2.0
100
AcDbArc
 50
270.0
 51
0.0
  0
ARC
  5
1C09E
330
747D
100
AcDbEntity
  8
部品1
 48
0.01
100
AcDbCircle
 10
6432.137356965272
 20
4485.82168168877
 30
0.0
 40
2.0
100
AcDbArc
 50
90.0
 51
180.0
  0
ARC
  5
1C09F
330
747D
100
AcDbEntity
  8
部品1
 48
0.01
100
AcDbCircle
 10
6608.137356965271
 20
4485.82168168877
 30
0.0
 40
2.0
100
AcDbArc
 50
0.0
 51
90.0
  0
LINE
  5
1C0A0
330
747D
100
AcDbEntity
  8
細線
100
AcDbLine
 10
6520.137356965271
 20
4458.32168168877
 30
0.0
 11
6446.137356965272
 21
4458.32168168877
 31
0.0
  0
LINE
  5
1C0A1
330
747D
100
AcDbEntity
  8
細線
100
AcDbLine
 10
6520.137356965271
 20
4481.321681688771
 30
0.0
 11
6594.137356965271
 21
4481.321681688771
 31
0.0
  0
LINE
  5
1C0A2
330
747D
100
AcDbEntity
  8
細線
100
AcDbLine
 10
6594.137356965271
 20
4458.32168168877
 30
0.0
 11
6520.137356965271
 21
4458.32168168877
 31
0.0
  0
LINE
  5
1C0A3
330
747D
100
AcDbEntity
  8
細線
100
AcDbLine
 10
6446.137356965272
 20
4481.321681688771
 30
0.0
 11
6520.137356965271
 21
4481.321681688771
 31
0.0
  0
LINE
  5
1C0A4
330
747D
100
AcDbEntity
  8
細線
100
AcDbLine
 10
6446.137356965272
 20
4458.32168168877
 30
0.0
 11
6446.137356965272
 21
4481.321681688771
 31
0.0
  0
LINE
  5
1C0A5
330
747D
100
AcDbEntity
  8
細線
100
AcDbLine
 10
6594.137356965271
 20
4481.321681688771
 30
0.0
 11
6594.137356965271
 21
4458.32168168877
 31
0.0
  0
LINE
  5
1C0A6
330
747D
100
AcDbEntity
  8
部品1
 48
0.01
100
AcDbLine
 10
6430.137356965271
 20
4454.32168168877
 30
0.0
 11
6430.137356965271
 21
4485.82168168877
 31
0.0
  0
LINE
  5
1C0A7
330
747D
100
AcDbEntity
  8
部品1
 48
0.01
100
AcDbLine
 10
6610.137356965272
 20
4485.82168168877
 30
0.0
 11
6610.137356965272
 21
4454.32168168877
 31
0.0
  0
LINE
  5
1C0A8
330
747D
100
AcDbEntity
  8
部品1
 48
0.01
100
AcDbLine
 10
6432.137356965272
 20
4487.82168168877
 30
0.0
 11
6608.137356965271
 21
4487.82168168877
 31
0.0
  0
LINE
  5
1C0A9
330
747D
100
AcDbEntity
  8
細線
100
AcDbLine
 10
6594.137356965271
 20
4475.321681688771
 30
0.0
 11
6520.137356965271
 21
4475.321681688771
 31
0.0
  0
LINE
  5
1C0AA
330
747D
100
AcDbEntity
  8
細線
100
AcDbLine
 10
6594.137356965271
 20
4469.321681688771
 30
0.0
 11
6520.137356965271
 21
4469.321681688771
 31
0.0
  0
LINE
  5
1C0AB
330
747D
100
AcDbEntity
  8
細線
100
AcDbLine
 10
6594.137356965271
 20
4463.32168168877
 30
0.0
 11
6520.137356965271
 21
4463.32168168877
 31
0.0
  0
LINE
  5
1C0AC
330
747D
100
AcDbEntity
  8
細線
100
AcDbLine
 10
6594.137356965271
 20
4475.321681688771
 30
0.0
 11
6525.137356965271
 21
4475.321681688771
 31
0.0
  0
LINE
  5
1C0AD
330
747D
100
AcDbEntity
  8
細線
100
AcDbLine
 10
6446.137356965272
 20
4475.321681688771
 30
0.0
 11
6520.137356965271
 21
4475.321681688771
 31
0.0
  0
LINE
  5
1C0AE
330
747D
100
AcDbEntity
  8
細線
100
AcDbLine
 10
6446.137356965272
 20
4463.32168168877
 30
0.0
 11
6520.137356965271
 21
4463.32168168877
 31
0.0
  0
LINE
  5
1C0AF
330
747D
100
AcDbEntity
  8
細線
100
AcDbLine
 10
6446.137356965272
 20
4469.321681688771
 30
0.0
 11
6520.137356965271
 21
4469.321681688771
 31
0.0
  0
LINE
  5
1C0B0
330
747D
100
AcDbEntity
  8
細線
100
AcDbLine
 10
6520.137356965271
 20
4481.321681688771
 30
0.0
 11
6520.137356965271
 21
4458.32168168877
 31
0.0
  0
LINE
  5
1C0B1
330
747D
100
AcDbEntity
  8
細線
100
AcDbLine
 10
5290.137356965272
 20
4481.321681688771
 30
0.0
 11
5290.137356965267
 21
4458.32168168877
 31
0.0
  0
LINE
  5
1C0B2
330
747D
100
AcDbEntity
  8
細線
100
AcDbLine
 10
5364.137356965268
 20
4469.321681688771
 30
0.0
 11
5290.137356965272
 21
4469.321681688771
 31
0.0
  0
LINE
  5
1C0B3
330
747D
100
AcDbEntity
  8
細線
100
AcDbLine
 10
5364.137356965268
 20
4463.32168168877
 30
0.0
 11
5290.137356965272
 21
4463.32168168877
 31
0.0
  0
LINE
  5
1C0B4
330
747D
100
AcDbEntity
  8
細線
100
AcDbLine
 10
5364.137356965268
 20
4475.321681688771
 30
0.0
 11
5290.137356965272
 21
4475.321681688771
 31
0.0
  0
LINE
  5
1C0B5
330
747D
100
AcDbEntity
  8
細線
100
AcDbLine
 10
5216.137356965272
 20
4475.321681688771
 30
0.0
 11
5285.137356965272
 21
4475.321681688771
 31
0.0
  0
LINE
  5
1C0B6
330
747D
100
AcDbEntity
  8
細線
100
AcDbLine
 10
5216.137356965268
 20
4463.32168168877
 30
0.0
 11
5290.137356965272
 21
4463.32168168877
 31
0.0
  0
LINE
  5
1C0B7
330
747D
100
AcDbEntity
  8
細線
100
AcDbLine
 10
5216.137356965272
 20
4469.321681688771
 30
0.0
 11
5290.137356965272
 21
4469.321681688771
 31
0.0
  0
LINE
  5
1C0B8
330
747D
100
AcDbEntity
  8
細線
100
AcDbLine
 10
5216.137356965272
 20
4475.321681688771
 30
0.0
 11
5290.137356965272
 21
4475.321681688771
 31
0.0
  0
LINE
  5
1C0B9
330
747D
100
AcDbEntity
  8
部品1
 48
0.01
100
AcDbLine
 10
5378.137356965272
 20
4487.82168168877
 30
0.0
 11
5202.137356965272
 21
4487.82168168877
 31
0.0
  0
LINE
  5
1C0BA
330
747D
100
AcDbEntity
  8
部品1
 48
0.01
100
AcDbLine
 10
5200.137356965271
 20
4485.82168168877
 30
0.0
 11
5200.137356965271
 21
4454.32168168877
 31
0.0
  0
LINE
  5
1C0BB
330
747D
100
AcDbEntity
  8
部品1
 48
0.01
100
AcDbLine
 10
5380.137356965268
 20
4454.32168168877
 30
0.0
 11
5380.137356965271
 21
4485.82168168877
 31
0.0
  0
LINE
  5
1C0BC
330
747D
100
AcDbEntity
  8
細線
100
AcDbLine
 10
5216.137356965272
 20
4481.321681688771
 30
0.0
 11
5216.137356965272
 21
4458.32168168877
 31
0.0
  0
LINE
  5
1C0BD
330
747D
100
AcDbEntity
  8
細線
100
AcDbLine
 10
5364.137356965271
 20
4458.32168168877
 30
0.0
 11
5364.137356965271
 21
4481.321681688771
 31
0.0
  0
LINE
  5
1C0BE
330
747D
100
AcDbEntity
  8
細線
100
AcDbLine
 10
5364.137356965271
 20
4481.321681688771
 30
0.0
 11
5290.137356965272
 21
4481.321681688771
 31
0.0
  0
LINE
  5
1C0BF
330
747D
100
AcDbEntity
  8
細線
100
AcDbLine
 10
5216.137356965272
 20
4458.32168168877
 30
0.0
 11
5290.137356965272
 21
4458.32168168877
 31
0.0
  0
LINE
  5
1C0C0
330
747D
100
AcDbEntity
  8
細線
100
AcDbLine
 10
5290.137356965272
 20
4481.321681688771
 30
0.0
 11
5216.137356965272
 21
4481.321681688771
 31
0.0
  0
LINE
  5
1C0C1
330
747D
100
AcDbEntity
  8
細線
100
AcDbLine
 10
5290.137356965267
 20
4458.32168168877
 30
0.0
 11
5364.137356965271
 21
4458.32168168877
 31
0.0
  0
ARC
  5
1C0C2
330
747D
100
AcDbEntity
  8
部品1
 48
0.01
100
AcDbCircle
 10
5202.137356965272
 20
4485.82168168877
 30
0.0
 40
2.0
100
AcDbArc
 50
90.0
 51
180.0
  0
ARC
  5
1C0C3
330
747D
100
AcDbEntity
  8
部品1
 48
0.01
100
AcDbCircle
 10
5378.137356965272
 20
4485.82168168877
 30
0.0
 40
2.0
100
AcDbArc
 50
0.0
 51
90.0
  0
ARC
  5
1C0C4
330
747D
100
AcDbEntity
  8
部品1
 48
0.01
100
AcDbCircle
 10
8008.137356965271
 20
4485.82168168877
 30
0.0
 40
2.0
100
AcDbArc
 50
0.0
 51
90.0
  0
ARC
  5
1C0C5
330
747D
100
AcDbEntity
  8
部品1
 48
0.01
100
AcDbCircle
 10
7832.137356965272
 20
4485.82168168877
 30
0.0
 40
2.0
100
AcDbArc
 50
90.0
 51
180.0
  0
LINE
  5
1C0C6
330
747D
100
AcDbEntity
  8
細線
100
AcDbLine
 10
7920.137356965267
 20
4458.32168168877
 30
0.0
 11
7994.137356965271
 21
4458.32168168877
 31
0.0
  0
LINE
  5
1C0C7
330
747D
100
AcDbEntity
  8
細線
100
AcDbLine
 10
7920.137356965271
 20
4481.321681688771
 30
0.0
 11
7846.137356965272
 21
4481.321681688771
 31
0.0
  0
LINE
  5
1C0C8
330
747D
100
AcDbEntity
  8
細線
100
AcDbLine
 10
7846.137356965272
 20
4458.32168168877
 30
0.0
 11
7920.137356965271
 21
4458.32168168877
 31
0.0
  0
LINE
  5
1C0C9
330
747D
100
AcDbEntity
  8
細線
100
AcDbLine
 10
7994.137356965271
 20
4481.321681688771
 30
0.0
 11
7920.137356965271
 21
4481.321681688771
 31
0.0
  0
LINE
  5
1C0CA
330
747D
100
AcDbEntity
  8
細線
100
AcDbLine
 10
7994.137356965271
 20
4458.32168168877
 30
0.0
 11
7994.137356965271
 21
4481.321681688771
 31
0.0
  0
LINE
  5
1C0CB
330
747D
100
AcDbEntity
  8
細線
100
AcDbLine
 10
7846.137356965272
 20
4481.321681688771
 30
0.0
 11
7846.137356965272
 21
4458.32168168877
 31
0.0
  0
LINE
  5
1C0CC
330
747D
100
AcDbEntity
  8
部品1
 48
0.01
100
AcDbLine
 10
8010.137356965268
 20
4454.32168168877
 30
0.0
 11
8010.137356965271
 21
4485.82168168877
 31
0.0
  0
LINE
  5
1C0CD
330
747D
100
AcDbEntity
  8
部品1
 48
0.01
100
AcDbLine
 10
7830.137356965271
 20
4485.82168168877
 30
0.0
 11
7830.137356965271
 21
4454.32168168877
 31
0.0
  0
LINE
  5
1C0CE
330
747D
100
AcDbEntity
  8
部品1
 48
0.01
100
AcDbLine
 10
8008.137356965271
 20
4487.82168168877
 30
0.0
 11
7832.137356965272
 21
4487.82168168877
 31
0.0
  0
LINE
  5
1C0CF
330
747D
100
AcDbEntity
  8
細線
100
AcDbLine
 10
7846.137356965272
 20
4475.321681688771
 30
0.0
 11
7920.137356965271
 21
4475.321681688771
 31
0.0
  0
LINE
  5
1C0D0
330
747D
100
AcDbEntity
  8
細線
100
AcDbLine
 10
7846.137356965272
 20
4469.321681688771
 30
0.0
 11
7920.137356965271
 21
4469.321681688771
 31
0.0
  0
LINE
  5
1C0D1
330
747D
100
AcDbEntity
  8
細線
100
AcDbLine
 10
7846.137356965268
 20
4463.32168168877
 30
0.0
 11
7920.137356965271
 21
4463.32168168877
 31
0.0
  0
LINE
  5
1C0D2
330
747D
100
AcDbEntity
  8
細線
100
AcDbLine
 10
7846.137356965272
 20
4475.321681688771
 30
0.0
 11
7915.137356965272
 21
4475.321681688771
 31
0.0
  0
LINE
  5
1C0D3
330
747D
100
AcDbEntity
  8
細線
100
AcDbLine
 10
7994.137356965268
 20
4475.321681688771
 30
0.0
 11
7920.137356965271
 21
4475.321681688771
 31
0.0
  0
LINE
  5
1C0D4
330
747D
100
AcDbEntity
  8
細線
100
AcDbLine
 10
7994.137356965268
 20
4463.32168168877
 30
0.0
 11
7920.137356965271
 21
4463.32168168877
 31
0.0
  0
LINE
  5
1C0D5
330
747D
100
AcDbEntity
  8
細線
100
AcDbLine
 10
7994.137356965268
 20
4469.321681688771
 30
0.0
 11
7920.137356965271
 21
4469.321681688771
 31
0.0
  0
LINE
  5
1C0D6
330
747D
100
AcDbEntity
  8
細線
100
AcDbLine
 10
7920.137356965271
 20
4481.321681688771
 30
0.0
 11
7920.137356965267
 21
4458.32168168877
 31
0.0
  0
LINE
  5
1C0D7
330
747D
100
AcDbEntity
  8
細線
100
AcDbLine
 10
9150.137356965272
 20
4481.321681688771
 30
0.0
 11
9150.137356965272
 21
4458.32168168877
 31
0.0
  0
LINE
  5
1C0D8
330
747D
100
AcDbEntity
  8
細線
100
AcDbLine
 10
9076.137356965272
 20
4469.321681688771
 30
0.0
 11
9150.137356965272
 21
4469.321681688771
 31
0.0
  0
LINE
  5
1C0D9
330
747D
100
AcDbEntity
  8
細線
100
AcDbLine
 10
9076.137356965272
 20
4463.32168168877
 30
0.0
 11
9150.137356965272
 21
4463.32168168877
 31
0.0
  0
LINE
  5
1C0DA
330
747D
100
AcDbEntity
  8
細線
100
AcDbLine
 10
9076.137356965272
 20
4475.321681688771
 30
0.0
 11
9150.137356965272
 21
4475.321681688771
 31
0.0
  0
LINE
  5
1C0DB
330
747D
100
AcDbEntity
  8
細線
100
AcDbLine
 10
9224.137356965272
 20
4475.321681688771
 30
0.0
 11
9155.137356965271
 21
4475.321681688771
 31
0.0
  0
LINE
  5
1C0DC
330
747D
100
AcDbEntity
  8
細線
100
AcDbLine
 10
9224.137356965272
 20
4463.32168168877
 30
0.0
 11
9150.137356965272
 21
4463.32168168877
 31
0.0
  0
LINE
  5
1C0DD
330
747D
100
AcDbEntity
  8
細線
100
AcDbLine
 10
9224.137356965272
 20
4469.321681688771
 30
0.0
 11
9150.137356965272
 21
4469.321681688771
 31
0.0
  0
LINE
  5
1C0DE
330
747D
100
AcDbEntity
  8
細線
100
AcDbLine
 10
9224.137356965272
 20
4475.321681688771
 30
0.0
 11
9150.137356965272
 21
4475.321681688771
 31
0.0
  0
LINE
  5
1C0DF
330
747D
100
AcDbEntity
  8
部品1
 48
0.01
100
AcDbLine
 10
9062.137356965271
 20
4487.82168168877
 30
0.0
 11
9238.137356965273
 21
4487.82168168877
 31
0.0
  0
LINE
  5
1C0E0
330
747D
100
AcDbEntity
  8
部品1
 48
0.01
100
AcDbLine
 10
9240.137356965272
 20
4485.82168168877
 30
0.0
 11
9240.137356965272
 21
4454.32168168877
 31
0.0
  0
LINE
  5
1C0E1
330
747D
100
AcDbEntity
  8
部品1
 48
0.01
100
AcDbLine
 10
9060.137356965272
 20
4454.32168168877
 30
0.0
 11
9060.137356965272
 21
4485.82168168877
 31
0.0
  0
LINE
  5
1C0E2
330
747D
100
AcDbEntity
  8
細線
100
AcDbLine
 10
9224.137356965272
 20
4481.321681688771
 30
0.0
 11
9224.137356965272
 21
4458.32168168877
 31
0.0
  0
LINE
  5
1C0E3
330
747D
100
AcDbEntity
  8
細線
100
AcDbLine
 10
9076.137356965272
 20
4458.32168168877
 30
0.0
 11
9076.137356965272
 21
4481.321681688771
 31
0.0
  0
LINE
  5
1C0E4
330
747D
100
AcDbEntity
  8
細線
100
AcDbLine
 10
9076.137356965272
 20
4481.321681688771
 30
0.0
 11
9150.137356965272
 21
4481.321681688771
 31
0.0
  0
LINE
  5
1C0E5
330
747D
100
AcDbEntity
  8
細線
100
AcDbLine
 10
9224.137356965272
 20
4458.32168168877
 30
0.0
 11
9150.137356965272
 21
4458.32168168877
 31
0.0
  0
LINE
  5
1C0E6
330
747D
100
AcDbEntity
  8
細線
100
AcDbLine
 10
9150.137356965272
 20
4481.321681688771
 30
0.0
 11
9224.137356965272
 21
4481.321681688771
 31
0.0
  0
LINE
  5
1C0E7
330
747D
100
AcDbEntity
  8
細線
100
AcDbLine
 10
9150.137356965272
 20
4458.32168168877
 30
0.0
 11
9076.137356965272
 21
4458.32168168877
 31
0.0
  0
ARC
  5
1C0E8
330
747D
100
AcDbEntity
  8
部品1
 48
0.01
100
AcDbCircle
 10
9238.137356965273
 20
4485.82168168877
 30
0.0
 40
2.0
100
AcDbArc
 50
0.0
 51
90.0
  0
ARC
  5
1C0E9
330
747D
100
AcDbEntity
  8
部品1
 48
0.01
100
AcDbCircle
 10
9062.137356965271
 20
4485.82168168877
 30
0.0
 40
2.0
100
AcDbArc
 50
90.0
 51
180.0
  0
ARC
  5
1C0EA
330
747D
100
AcDbEntity
  8
部品1
 48
0.01
100
AcDbCircle
 10
8008.137356965269
 20
4454.32168168877
 30
0.0
 40
2.0
100
AcDbArc
 50
270.0
 51
0.0
  0
ARC
  5
1C0EB
330
747D
100
AcDbEntity
  8
部品1
 48
0.01
100
AcDbCircle
 10
7832.137356965272
 20
4454.32168168877
 30
0.0
 40
2.0
100
AcDbArc
 50
180.0
 51
270.0
  0
LINE
  5
1C0EC
330
747D
100
AcDbEntity
  8
部品1
 48
0.01
100
AcDbLine
 10
7832.137356965272
 20
4452.321681688771
 30
0.0
 11
8008.137356965269
 21
4452.321681688771
 31
0.0
  0
LINE
  5
1C0ED
330
747D
100
AcDbEntity
  8
部品1
 48
0.01
100
AcDbLine
 10
9238.137356965273
 20
4452.321681688771
 30
0.0
 11
9062.137356965271
 21
4452.321681688771
 31
0.0
  0
ARC
  5
1C0EE
330
747D
100
AcDbEntity
  8
部品1
 48
0.01
100
AcDbCircle
 10
9238.137356965273
 20
4454.32168168877
 30
0.0
 40
2.0
100
AcDbArc
 50
270.0
 51
0.0
  0
ARC
  5
1C0EF
330
747D
100
AcDbEntity
  8
部品1
 48
0.01
100
AcDbCircle
 10
9062.137356965271
 20
4454.32168168877
 30
0.0
 40
2.0
100
AcDbArc
 50
180.0
 51
270.0
  0
DIMENSION
  5
1C17B
330
747D
100
AcDbEntity
  8
寸法
 48
50.0
100
AcDbDimension
  2
*D46
 10
4926.978717226131
 20
10080.6529971657
 30
0.0
 11
4926.97871722613
 21
9817.212130131306
 31
0.0
 70
   160
 71
     5
 42
716.5000000001546
  3
INABA_S40G
100
AcDbAlignedDimension
 13
4615.137356965293
 23
9364.152997165549
 33
0.0
 14
4645.137356965528
 24
10080.6529971657
 34
0.0
 50
90.0
100
AcDbRotatedDimension
1001
ACAD
1000
DSTYLE
1002
{
1070
   174
1070
     0
1070
   272
1070
     1
1070
   341
1005
0
1002
}
  0
LINE
  5
1C17C
330
747D
100
AcDbEntity
  8
部品1
 48
50.0
100
AcDbLine
 10
4565.137356965293
 20
10025.65299358853
 30
0.0
 11
4565.137356965293
 21
9364.152993588529
 31
0.0
  0
LINE
  5
1C17D
330
747D
100
AcDbEntity
  8
部品1
 48
50.0
100
AcDbLine
 10
4565.137356965293
 20
9364.152993588529
 30
0.0
 11
4615.137356965293
 21
9364.152993588529
 31
0.0
  0
LINE
  5
1C17E
330
747D
100
AcDbEntity
  8
部品1
 48
50.0
100
AcDbLine
 10
4615.137356965293
 20
9364.152993588529
 30
0.0
 11
4615.137356965293
 21
10025.65299358853
 31
0.0
  0
LINE
  5
1C17F
330
747D
100
AcDbEntity
  8
部品1
100
AcDbLine
 10
4615.137356965293
 20
9641.328977025384
 30
0.0
 11
4565.137356965291
 21
9636.152993588529
 31
0.0
  0
LINE
  5
1C180
330
747D
100
AcDbEntity
  8
部品1
100
AcDbLine
 10
4615.137356965293
 20
9600.977010151675
 30
0.0
 11
4565.137356965291
 21
9606.15299358853
 31
0.0
  0
LINE
  5
1C181
330
747D
100
AcDbEntity
  8
部品1
100
AcDbLine
 10
4565.137356965293
 20
9446.152993588528
 30
0.0
 11
4615.137356965291
 21
9458.864857995306
 31
0.0
  0
LINE
  5
1C23A
330
747D
100
AcDbEntity
  8
部品1
 48
50.0
100
AcDbLine
 10
7195.137356965033
 20
10025.65299358849
 30
0.0
 11
7195.137356965034
 21
9364.152993588488
 31
0.0
  0
LINE
  5
1C23B
330
747D
100
AcDbEntity
  8
部品1
 48
50.0
100
AcDbLine
 10
7195.137356965033
 20
9364.152993588488
 30
0.0
 11
7245.137356965033
 21
9364.152993588488
 31
0.0
  0
LINE
  5
1C23C
330
747D
100
AcDbEntity
  8
部品1
 48
50.0
100
AcDbLine
 10
7245.137356965035
 20
9364.152993588488
 30
0.0
 11
7245.137356965033
 21
10025.65299358849
 31
0.0
  0
LINE
  5
1C23D
330
747D
100
AcDbEntity
  8
部品1
100
AcDbLine
 10
7245.137356965033
 20
9641.328977025343
 30
0.0
 11
7195.137356965031
 21
9636.152993588488
 31
0.0
  0
LINE
  5
1C23E
330
747D
100
AcDbEntity
  8
部品1
100
AcDbLine
 10
7245.137356965033
 20
9600.977010151636
 30
0.0
 11
7195.137356965031
 21
9606.152993588489
 31
0.0
  0
LINE
  5
1C23F
330
747D
100
AcDbEntity
  8
部品1
100
AcDbLine
 10
7195.137356965033
 20
9446.152993588489
 30
0.0
 11
7245.137356965031
 21
9458.864857995266
 31
0.0
  0
TEXT
  5
1C256
330
747D
100
AcDbEntity
  8
文字
 62
     7
 48
50.0
100
AcDbText
 10
13248.77747366448
 20
8210.013745883737
 30
0.0
 40
100.0
  1
17
  7
STYLE1
100
AcDbText
  0
TEXT
  5
1C257
330
747D
100
AcDbEntity
  8
文字
 62
     7
 48
50.0
100
AcDbText
 10
13583.11819016569
 20
9230.013745883733
 30
0.0
 40
100.0
  1
梁中補強パネル
  7
STYLE1
100
AcDbText
  0
TEXT
  5
1C258
330
747D
100
AcDbEntity
  8
文字
 62
     7
 48
50.0
100
AcDbText
 10
15022.63965474516
 20
9230.013745883727
 30
0.0
 40
100.0
  1
F12         0.7+1.2
  7
STYLE1
100
AcDbText
  0
TEXT
  5
1C259
330
747D
100
AcDbEntity
  8
文字
 62
     7
 48
50.0
100
AcDbText
 10
15022.63965474517
 20
9740.013745883729
 30
0.0
 40
100.0
  1
F12            2.3
  7
STYLE1
100
AcDbText
  0
TEXT
  5
1C272
330
747D
100
AcDbEntity
  8
文字
 62
     7
 48
50.0
100
AcDbText
 10
14646.46056207479
 20
871.9640646083623
 30
0.0
 40
100.0
  1
～多雪地型～
  7
STYLE2
100
AcDbText
  0
TEXT
  5
1C28F
330
747D
100
AcDbEntity
  8
文字
 62
     7
 48
50.0
100
AcDbText
 10
15022.63965474516
 20
8890.013745883729
 30
0.0
 40
100.0
  1
F12            0.7
  7
STYLE1
100
AcDbText
  0
LINE
  5
1C2A4
330
747D
100
AcDbEntity
  8
細線
 48
50.0
100
AcDbLine
 10
5605.137356965268
 20
2909.321681688773
 30
0.0
 11
5705.137356965268
 21
2909.321681688773
 31
0.0
  0
LINE
  5
1C2A5
330
747D
100
AcDbEntity
  8
細線
 48
50.0
100
AcDbLine
 10
5705.137356965268
 20
2879.321681688773
 30
0.0
 11
5605.137356965268
 21
2879.321681688773
 31
0.0
  0
LINE
  5
1C2A6
330
747D
100
AcDbEntity
  8
細線
100
AcDbLine
 10
4693.137356965264
 20
2861.821681688772
 30
0.0
 11
7117.137356965269
 21
2861.821681688772
 31
0.0
  0
LINE
  5
1C2A7
330
747D
100
AcDbEntity
  8
細線
100
AcDbLine
 10
4693.137356965264
 20
2796.821681688772
 30
0.0
 11
7117.137356965269
 21
2796.821681688772
 31
0.0
  0
LINE
  5
1C2A8
330
747D
100
AcDbEntity
  8
細線
100
AcDbLine
 10
4693.137356965264
 20
2731.821681688773
 30
0.0
 11
7117.137356965269
 21
2731.821681688773
 31
0.0
  0
LINE
  5
1C2A9
330
747D
100
AcDbEntity
  8
細線
100
AcDbLine
 10
4693.137356965264
 20
2666.821681688773
 30
0.0
 11
7117.137356965269
 21
2666.821681688773
 31
0.0
  0
LINE
  5
1C2AA
330
747D
100
AcDbEntity
  8
細線
100
AcDbLine
 10
4693.137356965264
 20
2601.821681688773
 30
0.0
 11
7117.137356965269
 21
2601.821681688773
 31
0.0
  0
LINE
  5
1C2AB
330
747D
100
AcDbEntity
  8
細線
100
AcDbLine
 10
4693.137356965264
 20
2536.821681688773
 30
0.0
 11
7117.137356965269
 21
2536.821681688773
 31
0.0
  0
LINE
  5
1C2AC
330
747D
100
AcDbEntity
  8
細線
100
AcDbLine
 10
4693.137356965264
 20
2471.821681688773
 30
0.0
 11
7117.137356965269
 21
2471.821681688773
 31
0.0
  0
LINE
  5
1C2AD
330
747D
100
AcDbEntity
  8
細線
100
AcDbLine
 10
4693.137356965264
 20
2406.821681688773
 30
0.0
 11
7117.137356965269
 21
2406.821681688773
 31
0.0
  0
LINE
  5
1C2AE
330
747D
100
AcDbEntity
  8
細線
100
AcDbLine
 10
4693.137356965264
 20
4161.821681688772
 30
0.0
 11
7117.137356965269
 21
4161.821681688772
 31
0.0
  0
LINE
  5
1C2AF
330
747D
100
AcDbEntity
  8
細線
100
AcDbLine
 10
4693.137356965264
 20
4226.821681688772
 30
0.0
 11
7117.137356965269
 21
4226.821681688772
 31
0.0
  0
LINE
  5
1C2B0
330
747D
100
AcDbEntity
  8
細線
100
AcDbLine
 10
4693.137356965264
 20
3511.821681688772
 30
0.0
 11
7117.137356965269
 21
3511.821681688772
 31
0.0
  0
LINE
  5
1C2B1
330
747D
100
AcDbEntity
  8
細線
100
AcDbLine
 10
4693.137356965264
 20
3446.821681688773
 30
0.0
 11
7117.137356965269
 21
3446.821681688773
 31
0.0
  0
LINE
  5
1C2B2
330
747D
100
AcDbEntity
  8
細線
100
AcDbLine
 10
4693.137356965264
 20
3381.821681688773
 30
0.0
 11
7117.137356965269
 21
3381.821681688773
 31
0.0
  0
LINE
  5
1C2B3
330
747D
100
AcDbEntity
  8
細線
100
AcDbLine
 10
4693.137356965264
 20
3316.821681688773
 30
0.0
 11
7117.137356965269
 21
3316.821681688773
 31
0.0
  0
LINE
  5
1C2B4
330
747D
100
AcDbEntity
  8
細線
100
AcDbLine
 10
4693.137356965264
 20
3251.821681688773
 30
0.0
 11
7117.137356965269
 21
3251.821681688773
 31
0.0
  0
LINE
  5
1C2B5
330
747D
100
AcDbEntity
  8
細線
100
AcDbLine
 10
4693.137356965264
 20
3186.821681688773
 30
0.0
 11
7117.137356965269
 21
3186.821681688773
 31
0.0
  0
LINE
  5
1C2B6
330
747D
100
AcDbEntity
  8
細線
100
AcDbLine
 10
4693.137356965264
 20
3121.821681688773
 30
0.0
 11
7117.137356965269
 21
3121.821681688773
 31
0.0
  0
LINE
  5
1C2B7
330
747D
100
AcDbEntity
  8
細線
100
AcDbLine
 10
4693.137356965264
 20
3056.821681688773
 30
0.0
 11
7117.137356965269
 21
3056.821681688773
 31
0.0
  0
LINE
  5
1C2B8
330
747D
100
AcDbEntity
  8
細線
100
AcDbLine
 10
4693.137356965264
 20
2991.821681688773
 30
0.0
 11
7117.137356965269
 21
2991.821681688773
 31
0.0
  0
LINE
  5
1C2B9
330
747D
100
AcDbEntity
  8
細線
100
AcDbLine
 10
4693.137356965264
 20
2926.821681688773
 30
0.0
 11
7117.137356965269
 21
2926.821681688773
 31
0.0
  0
LINE
  5
1C2BA
330
747D
100
AcDbEntity
  8
細線
100
AcDbLine
 10
4693.137356965264
 20
3901.821681688772
 30
0.0
 11
7117.137356965269
 21
3901.821681688772
 31
0.0
  0
LINE
  5
1C2BB
330
747D
100
AcDbEntity
  8
細線
100
AcDbLine
 10
4693.137356965264
 20
3836.821681688773
 30
0.0
 11
7117.137356965269
 21
3836.821681688773
 31
0.0
  0
LINE
  5
1C2BC
330
747D
100
AcDbEntity
  8
細線
100
AcDbLine
 10
4693.137356965264
 20
3771.821681688773
 30
0.0
 11
7117.137356965269
 21
3771.821681688773
 31
0.0
  0
LINE
  5
1C2BD
330
747D
100
AcDbEntity
  8
細線
100
AcDbLine
 10
4693.137356965264
 20
3706.821681688773
 30
0.0
 11
7117.137356965269
 21
3706.821681688773
 31
0.0
  0
LINE
  5
1C2BE
330
747D
100
AcDbEntity
  8
細線
100
AcDbLine
 10
4693.137356965264
 20
3641.821681688773
 30
0.0
 11
7117.137356965269
 21
3641.821681688773
 31
0.0
  0
LINE
  5
1C2BF
330
747D
100
AcDbEntity
  8
細線
100
AcDbLine
 10
4693.137356965264
 20
3576.821681688772
 30
0.0
 11
7117.137356965269
 21
3576.821681688772
 31
0.0
  0
LINE
  5
1C2C0
330
747D
100
AcDbEntity
  8
細線
100
AcDbLine
 10
4693.137356965264
 20
4096.821681688772
 30
0.0
 11
7117.137356965269
 21
4096.821681688772
 31
0.0
  0
LINE
  5
1C2C1
330
747D
100
AcDbEntity
  8
細線
100
AcDbLine
 10
4693.137356965264
 20
4031.821681688772
 30
0.0
 11
7117.137356965269
 21
4031.821681688772
 31
0.0
  0
LINE
  5
1C2C2
330
747D
100
AcDbEntity
  8
細線
100
AcDbLine
 10
4693.137356965264
 20
3966.821681688773
 30
0.0
 11
7117.137356965269
 21
3966.821681688773
 31
0.0
  0
ARC
  5
1C2C3
330
747D
100
AcDbEntity
  8
細線
 48
50.0
100
AcDbCircle
 10
5605.137356965268
 20
2894.321681688773
 30
0.0
 40
15.0
100
AcDbArc
 50
90.0
 51
270.0
  0
ARC
  5
1C2C4
330
747D
100
AcDbEntity
  8
細線
 48
50.0
100
AcDbCircle
 10
5705.137356965268
 20
2894.321681688773
 30
0.0
 40
15.0
100
AcDbArc
 50
270.0
 51
90.0
  0
LINE
  5
1C2C5
330
747D
100
AcDbEntity
  8
細線
 48
50.0
100
AcDbLine
 10
6205.137356965268
 20
2879.321681688773
 30
0.0
 11
6105.137356965268
 21
2879.321681688773
 31
0.0
  0
LINE
  5
1C2C6
330
747D
100
AcDbEntity
  8
細線
 48
50.0
100
AcDbLine
 10
6105.137356965268
 20
2909.321681688773
 30
0.0
 11
6205.137356965268
 21
2909.321681688773
 31
0.0
  0
ARC
  5
1C2C7
330
747D
100
AcDbEntity
  8
細線
 48
50.0
100
AcDbCircle
 10
6105.137356965268
 20
2894.321681688773
 30
0.0
 40
15.0
100
AcDbArc
 50
90.0
 51
270.0
  0
ARC
  5
1C2C8
330
747D
100
AcDbEntity
  8
細線
 48
50.0
100
AcDbCircle
 10
6205.137356965268
 20
2894.321681688773
 30
0.0
 40
15.0
100
AcDbArc
 50
270.0
 51
90.0
  0
CIRCLE
  5
1C2C9
330
747D
100
AcDbEntity
  8
細線
 48
50.0
100
AcDbCircle
 10
5905.137356965268
 20
3219.321681688773
 30
0.0
 40
18.0
  0
LINE
  5
1C2CA
330
747D
100
AcDbEntity
  8
細線
100
AcDbLine
 10
7117.13735696527
 20
2341.821681688772
 30
0.0
 11
4693.137356965264
 21
2341.821681688772
 31
0.0
  0
LINE
  5
1C2CB
330
747D
100
AcDbEntity
  8
部品1
100
AcDbLine
 10
4645.137356965271
 20
2281.821681688773
 30
0.0
 11
7165.137356965267
 21
2281.821681688773
 31
0.0
  0
LINE
  5
1C2CC
330
747D
100
AcDbEntity
  8
部品1
100
AcDbLine
 10
4645.137356965271
 20
2331.821681688773
 30
0.0
 11
7165.137356965267
 21
2331.821681688773
 31
0.0
  0
SPLINE
  5
1C2D3
330
747D
100
AcDbEntity
  8
部品1
 48
50.0
100
AcDbSpline
210
0.0
220
0.0
230
1.0
 70
     8
 71
     3
 72
    10
 73
     6
 74
     4
 42
0.0000000001
 43
0.0000000001
 44
0.0000000001
 40
0.0
 40
0.0
 40
0.0
 40
0.0
 40
147.8767566010009
 40
301.8091093202477
 40
466.5049223087734
 40
466.5049223087734
 40
466.5049223087734
 40
466.5049223087734
 10
5972.707684698318
 20
3300.562834214566
 30
0.0
 10
5895.826002203483
 20
3291.658400556728
 30
0.0
 10
5738.914309993356
 20
3273.484894097395
 30
0.0
 10
6061.727719937699
 20
3170.964309458053
 30
0.0
 10
5891.885100268326
 20
3152.32922074585
 30
0.0
 10
5804.095095061431
 20
3142.696923868542
 30
0.0
 11
5972.707684698318
 21
3300.562834214566
 31
0.0
 11
5829.869706389549
 21
3262.289513278238
 31
0.0
 11
5963.179034308723
 21
3185.323336918614
 31
0.0
 11
5804.095095061431
 21
3142.696923868542
 31
0.0
  0
LINE
  5
1C2D4
330
747D
100
AcDbEntity
  8
部品1
 48
50.0
100
AcDbLine
 10
6330.506699949673
 20
4806.821681688776
 30
0.0
 11
5560.152771710196
 21
1931.821681688773
 31
0.0
  0
LINE
  5
1C2D6
330
747D
100
AcDbEntity
  8
部品1
 48
50.0
100
AcDbLine
 10
4645.137356965262
 20
8765.6529971656
 30
0.0
 11
7165.137356965267
 21
8765.652997165599
 31
0.0
  0
LINE
  5
1C2D7
330
747D
100
AcDbEntity
  8
部品1
 48
50.0
100
AcDbLine
 10
4645.137356965262
 20
9185.652997165602
 30
0.0
 11
7165.137356965267
 21
9185.652997165599
 31
0.0
  0
LINE
  5
1C2D8
330
747D
100
AcDbEntity
  8
部品1
 48
50.0
100
AcDbLine
 10
4645.137356965262
 20
8345.652997165602
 30
0.0
 11
7165.137356965267
 21
8345.652997165599
 31
0.0
  0
LINE
  5
1C2D9
330
747D
100
AcDbEntity
  8
部品1
 48
50.0
100
AcDbLine
 10
4645.137356965262
 20
7925.652997165602
 30
0.0
 11
7165.137356965267
 21
7925.652997165599
 31
0.0
  0
LINE
  5
1C2DA
330
747D
100
AcDbEntity
  8
破線
 48
10.0
100
AcDbLine
 10
5514.637356965162
 20
7605.652997165577
 30
0.0
 11
6295.637356965166
 21
7605.652997165532
 31
0.0
  0
LINE
  5
1C2DB
330
747D
100
AcDbEntity
  8
部品1
 48
50.0
100
AcDbLine
 10
4645.137356965262
 20
7580.652997165626
 30
0.0
 11
7165.137356965249
 21
7580.652997165485
 31
0.0
  0
LINE
  5
1C2DC
330
747D
100
AcDbEntity
  8
部品1
 48
50.0
100
AcDbLine
 10
4645.137356965262
 20
7535.652997165627
 30
0.0
 11
7165.137356965249
 21
7535.652997165485
 31
0.0
  0
LINE
  5
1C2DD
330
747D
100
AcDbEntity
  8
部品1
 48
50.0
100
AcDbLine
 10
4645.137356965262
 20
7450.652997165626
 30
0.0
 11
7165.137356965249
 21
7450.652997165486
 31
0.0
  0
LINE
  5
1C2DE
330
747D
100
AcDbEntity
  8
部品1
 48
50.0
100
AcDbLine
 10
4657.137356965264
 20
7496.152997165626
 30
0.0
 11
7153.13735696525
 21
7496.152997165626
 31
0.0
  0
SPLINE
  5
1C2E5
330
747D
100
AcDbEntity
  8
部品1
 48
50.0
100
AcDbSpline
210
0.0
220
0.0
230
1.0
 70
     8
 71
     3
 72
    10
 73
     6
 74
     4
 42
0.0000000001
 43
0.0000000001
 44
0.0000000001
 40
0.0
 40
0.0
 40
0.0
 40
0.0
 40
147.8767566010009
 40
301.8091093202477
 40
466.5049223087734
 40
466.5049223087734
 40
466.5049223087734
 40
466.5049223087734
 10
5972.707684698317
 20
8846.894149691394
 30
0.0
 10
5895.826002203482
 20
8837.989716033558
 30
0.0
 10
5738.914309993354
 20
8819.816209574224
 30
0.0
 10
6061.727719937699
 20
8717.295624934882
 30
0.0
 10
5891.885100268326
 20
8698.660536222678
 30
0.0
 10
5804.09509506143
 20
8689.028239345368
 30
0.0
 11
5972.707684698317
 21
8846.894149691394
 31
0.0
 11
5829.869706389548
 21
8808.620828755065
 31
0.0
 11
5963.179034308723
 21
8731.654652395443
 31
0.0
 11
5804.09509506143
 21
8689.028239345368
 31
0.0
  0
LINE
  5
1C2E6
330
747D
100
AcDbEntity
  8
部品1
 48
50.0
100
AcDbLine
 10
6276.916861463448
 20
10153.1529971656
 30
0.0
 11
5513.261663034706
 21
7303.152997165422
 31
0.0
  0
LINE
  5
1C2F8
330
747D
100
AcDbEntity
  8
破線
  6
HIDDEN
 48
5.0
100
AcDbLine
 10
4535.137356965271
 20
2181.821681688776
 30
0.0
 11
4535.137356965272
 21
2006.821681688775
 31
0.0
  0
LINE
  5
1C2F9
330
747D
100
AcDbEntity
  8
破線
  6
HIDDEN
 48
5.0
100
AcDbLine
 10
4645.137356965269
 20
2006.821681688775
 30
0.0
 11
4535.137356965271
 21
2006.821681688775
 31
0.0
  0
LINE
  5
1C2FA
330
747D
100
AcDbEntity
  8
破線
  6
HIDDEN
 48
5.0
100
AcDbLine
 10
4645.137356965271
 20
2181.821681688776
 30
0.0
 11
4645.13735696527
 21
2006.821681688775
 31
0.0
  0
LINE
  5
1C2FB
330
747D
100
AcDbEntity
  8
破線
 48
5.0
100
AcDbLine
 10
4590.137356965271
 20
2006.821681688775
 30
0.0
 11
4590.137356965271
 21
1931.821681688775
 31
0.0
  0
LINE
  5
1C304
330
747D
100
AcDbEntity
  8
破線
  6
HIDDEN
 48
5.0
100
AcDbLine
 10
7165.137356965272
 20
2181.821681688776
 30
0.0
 11
7165.137356965272
 21
2006.821681688775
 31
0.0
  0
LINE
  5
1C305
330
747D
100
AcDbEntity
  8
破線
  6
HIDDEN
 48
5.0
100
AcDbLine
 10
7275.13735696527
 20
2006.821681688775
 30
0.0
 11
7165.137356965272
 21
2006.821681688775
 31
0.0
  0
LINE
  5
1C306
330
747D
100
AcDbEntity
  8
破線
  6
HIDDEN
 48
5.0
100
AcDbLine
 10
7275.137356965271
 20
2181.821681688776
 30
0.0
 11
7275.137356965271
 21
2006.821681688775
 31
0.0
  0
LINE
  5
1C307
330
747D
100
AcDbEntity
  8
破線
 48
5.0
100
AcDbLine
 10
7220.13735696527
 20
2006.821681688775
 30
0.0
 11
7220.13735696527
 21
1931.821681688775
 31
0.0
  0
ENDSEC
  0
SECTION
  2
OBJECTS
  0
DICTIONARY
  5
7471
330
0
100
AcDbDictionary
281
     1
  3
ACAD_COLOR
350
1A25B
  3
ACAD_GROUP
350
7472
  3
ACAD_LAYOUT
350
1A25C
  3
ACAD_MATERIAL
350
1A25A
  3
ACAD_MLINESTYLE
350
7473
  3
ACAD_PLOTSETTINGS
350
1A25D
  3
ACAD_PLOTSTYLENAME
350
1A258
  3
ACDBHEADERROUNDTRIPXREC
350
1C333
  3
AcDbVariableDictionary
350
1C32F
  3
CONTENTDICTIONARY
350
E71C
  3
DRAWINGVARIABLESDICT
350
F3B9
  0
DICTIONARY
  5
1A57F
330
7467
100
AcDbDictionary
280
     1
281
     1
  3
ACAD_LAYERSTATES
360
1A580
  0
DICTIONARY
  5
1A25B
102
{ACAD_REACTORS
330
7471
102
}
330
7471
100
AcDbDictionary
281
     1
  0
DICTIONARY
  5
7472
102
{ACAD_REACTORS
330
7471
102
}
330
7471
100
AcDbDictionary
281
     1
  0
DICTIONARY
  5
1A25C
102
{ACAD_REACTORS
330
7471
102
}
330
7471
100
AcDbDictionary
281
     1
  3
Model
350
1A25E
  3
レイアウト1
350
1A25F
  0
DICTIONARY
  5
1A25A
102
{ACAD_REACTORS
330
7471
102
}
330
7471
100
AcDbDictionary
281
     1
  0
DICTIONARY
  5
7473
102
{ACAD_REACTORS
330
7471
102
}
330
7471
100
AcDbDictionary
281
     1
  3
STANDARD
350
7480
  0
DICTIONARY
  5
1A25D
102
{ACAD_REACTORS
330
7471
102
}
330
7471
100
AcDbDictionary
281
     1
  0
ACDBDICTIONARYWDFLT
  5
1A258
102
{ACAD_REACTORS
330
7471
102
}
330
7471
100
AcDbDictionary
281
     1
  3
Normal
350
1A259
100
AcDbDictionaryWithDefault
340
1A259
  0
DICTIONARY
  5
1C333
102
{ACAD_REACTORS
330
7471
102
}
330
7471
100
AcDbDictionary
281
     1
  3
COLORDICT
350
1C335
  3
MATERIALDICT
350
1C334
  0
DICTIONARY
  5
1C32F
102
{ACAD_REACTORS
330
7471
102
}
330
7471
100
AcDbDictionary
281
     1
  3
DIMASSOC
350
1C330
  3
PROJECTNAME
350
1C331
  0
DICTIONARY
  5
E71C
102
{ACAD_REACTORS
330
7471
102
}
330
7471
100
AcDbDictionary
281
     1
  0
DICTIONARY
  5
F3B9
102
{ACAD_REACTORS
330
7471
102
}
330
7471
100
AcDbDictionary
281
     1
1001
DRAWINGVARIABLESXDATA
1000
POLARMODE
1000
1
  0
DICTIONARY
  5
1A580
102
{ACAD_REACTORS
330
1A57F
102
}
330
1A57F
100
AcDbDictionary
281
     1
  0
LAYOUT
  5
1A25E
102
{ACAD_XDICTIONARY
360
1C336
102
}
102
{ACAD_REACTORS
330
1A25C
102
}
330
1A25C
100
AcDbPlotSettings
  1

  2
none_device
  4
Letter_(8.50_x_11.00_Inches)
  6

 40
6.349999904632568
 41
6.349999904632568
 42
6.350006103515625
 43
6.350006103515625
 44
215.8999938964844
 45
279.3999938964844
 46
0.0
 47
0.0
 48
0.0
 49
0.0
140
0.0
141
0.0
142
1.0
143
1.0
 70
 11952
 72
     1
 73
     1
 74
     0
  7
inaba.ctb
 75
     0
147
1.0
148
-2464.885871831639
149
54.00225262481853
100
AcDbLayout
  1
Model
 70
     1
 71
     0
 10
0.0
 20
0.0
 11
12.0
 21
9.0
 12
0.0
 22
0.0
 32
0.0
 14
0.0
 24
0.0
 34
0.0
 15
0.0
 25
0.0
 35
0.0
146
0.0
 13
0.0
 23
0.0
 33
0.0
 16
1.0
 26
0.0
 36
0.0
 17
0.0
 27
1.0
 37
0.0
 76
     0
330
747D
  0
LAYOUT
  5
1A25F
102
{ACAD_XDICTIONARY
360
1C338
102
}
102
{ACAD_REACTORS
330
1A25C
102
}
330
1A25C
100
AcDbPlotSettings
  1

  2
EPSON LP-8300
  4

  6

 40
0.0
 41
0.0
 42
0.0
 43
0.0
 44
0.0
 45
0.0
 46
0.0
 47
0.0
 48
0.0
 49
0.0
140
0.0
141
0.0
142
1.0
143
1.0
 70
   688
 72
     0
 73
     0
 74
     5
  7
inaba.ctb
 75
    16
147
1.0
148
0.0
149
0.0
100
AcDbLayout
  1
レイアウト1
 70
     0
 71
     1
 10
0.0
 20
0.0
 11
420.0
 21
297.0
 12
0.0
 22
0.0
 32
0.0
 14
1.000000000000000E+20
 24
1.000000000000000E+20
 34
1.000000000000000E+20
 15
-1.000000000000000E+20
 25
-1.000000000000000E+20
 35
-1.000000000000000E+20
146
0.0
 13
0.0
 23
0.0
 33
0.0
 16
1.0
 26
0.0
 36
0.0
 17
0.0
 27
1.0
 37
0.0
 76
     0
330
747A
  0
MLINESTYLE
  5
7480
102
{ACAD_REACTORS
330
7473
102
}
330
7473
100
AcDbMlineStyle
  2
STANDARD
 70
     0
  3

 62
     0
 51
90.0
 52
90.0
 71
     2
 49
0.5
 62
   256
  6
BYLAYER
 49
-0.5
 62
   256
  6
BYLAYER
  0
ACDBPLACEHOLDER
  5
1A259
102
{ACAD_REACTORS
330
1A258
102
}
330
1A258
  0
XRECORD
  5
1C335
102
{ACAD_REACTORS
330
1C333
102
}
330
1C333
100
AcDbXrecord
280
     1
340
1A25B
  0
XRECORD
  5
1C334
102
{ACAD_REACTORS
330
1C333
102
}
330
1C333
100
AcDbXrecord
280
     1
340
1A25A
  0
DICTIONARYVAR
  5
1C330
102
{ACAD_REACTORS
330
1C32F
102
}
330
1C32F
100
DictionaryVariables
280
     0
  1
1
  0
DICTIONARYVAR
  5
1C331
102
{ACAD_REACTORS
330
1C32F
102
}
330
1C32F
100
DictionaryVariables
280
     0
  1

  0
DICTIONARY
  5
1C336
330
1A25E
100
AcDbDictionary
280
     1
281
     1
  3
ACAD_XREC_ROUNDTRIP
360
1C337
  0
DICTIONARY
  5
1C338
330
1A25F
100
AcDbDictionary
280
     1
281
     1
  3
ACAD_XREC_ROUNDTRIP
360
1C339
  0
XRECORD
  5
1C337
102
{ACAD_REACTORS
330
1C336
102
}
330
1C336
100
AcDbXrecord
280
     1
102
SHADEPLOT
 70
     0
102
SHADEPLOTRESLEVEL
 70
     2
102
SHADEPLOTCUSTOMDPI
 70
   300
  0
XRECORD
  5
1C339
102
{ACAD_REACTORS
330
1C338
102
}
330
1C338
100
AcDbXrecord
280
     1
102
SHADEPLOT
 70
     0
102
SHADEPLOTRESLEVEL
 70
     2
102
SHADEPLOTCUSTOMDPI
 70
   300
  0
ENDSEC
  0
EOF
