  0
SECTION
  2
HEADER
  9
$ACADVER
  1
AC1015
  9
$ACADMAINTVER
 70
    20
  9
$DWGCODEPAGE
  3
ANSI_932
  9
$INSBASE
 10
0.0
 20
0.0
 30
0.0
  9
$EXTMIN
 10
139.9999999999995
 20
-0.0000000000000909
 30
0.0
  9
$EXTMAX
 10
16307.2
 20
11409.6
 30
0.0
  9
$LIMMIN
 10
0.0
 20
0.0
  9
$LIMMAX
 10
16800.0
 20
11880.0
  9
$ORTHOMODE
 70
     0
  9
$REGENMODE
 70
     1
  9
$FILLMODE
 70
     1
  9
$QTEXTMODE
 70
     0
  9
$MIRRTEXT
 70
     1
  9
$LTSCALE
 40
20.0
  9
$ATTMODE
 70
     1
  9
$TEXTSIZE
 40
100.0
  9
$TRACEWID
 40
1.0
  9
$TEXTSTYLE
  7
STYLE2
  9
$CLAYER
  8
部品1
  9
$CELTYPE
  6
BYLAYER
  9
$CECOLOR
 62
   256
  9
$CELTSCALE
 40
50.0
  9
$DISPSILH
 70
     0
  9
$DIMSCALE
 40
40.0
  9
$DIMASZ
 40
2.5
  9
$DIMEXO
 40
0.5
  9
$DIMDLI
 40
7.0
  9
$DIMRND
 40
0.0
  9
$DIMDLE
 40
0.0
  9
$DIMEXE
 40
1.5
  9
$DIMTP
 40
0.0
  9
$DIMTM
 40
0.0
  9
$DIMTXT
 40
3.0
  9
$DIMCEN
 40
0.0
  9
$DIMTSZ
 40
0.0
  9
$DIMTOL
 70
     0
  9
$DIMLIM
 70
     0
  9
$DIMTIH
 70
     0
  9
$DIMTOH
 70
     0
  9
$DIMSE1
 70
     0
  9
$DIMSE2
 70
     0
  9
$DIMTAD
 70
     3
  9
$DIMZIN
 70
     8
  9
$DIMBLK
  1

  9
$DIMASO
 70
     1
  9
$DIMSHO
 70
     1
  9
$DIMPOST
  1

  9
$DIMAPOST
  1

  9
$DIMALT
 70
     0
  9
$DIMALTD
 70
     2
  9
$DIMALTF
 40
0.0394
  9
$DIMLFAC
 40
1.0
  9
$DIMTOFL
 70
     1
  9
$DIMTVP
 40
0.0
  9
$DIMTIX
 70
     1
  9
$DIMSOXD
 70
     0
  9
$DIMSAH
 70
     1
  9
$DIMBLK1
  1
DOTSMALL
  9
$DIMBLK2
  1
DOTSMALL
  9
$DIMSTYLE
  2
INABA_S40G
  9
$DIMCLRD
 70
     0
  9
$DIMCLRE
 70
     0
  9
$DIMCLRT
 70
     7
  9
$DIMTFAC
 40
1.0
  9
$DIMGAP
 40
1.0
  9
$DIMJUST
 70
     0
  9
$DIMSD1
 70
     0
  9
$DIMSD2
 70
     0
  9
$DIMTOLJ
 70
     1
  9
$DIMTZIN
 70
     0
  9
$DIMALTZ
 70
     0
  9
$DIMALTTZ
 70
     0
  9
$DIMUPT
 70
     0
  9
$DIMDEC
 70
     1
  9
$DIMTDEC
 70
     4
  9
$DIMALTU
 70
     2
  9
$DIMALTTD
 70
     2
  9
$DIMTXSTY
  7
STYLE1
  9
$DIMAUNIT
 70
     0
  9
$DIMADEC
 70
     0
  9
$DIMALTRND
 40
0.0
  9
$DIMAZIN
 70
     0
  9
$DIMDSEP
 70
    46
  9
$DIMATFIT
 70
     3
  9
$DIMFRAC
 70
     0
  9
$DIMLDRBLK
  1

  9
$DIMLUNIT
 70
     2
  9
$DIMLWD
 70
    -2
  9
$DIMLWE
 70
    -2
  9
$DIMTMOVE
 70
     0
  9
$LUNITS
 70
     2
  9
$LUPREC
 70
     1
  9
$SKETCHINC
 40
1.0
  9
$FILLETRAD
 40
3.0
  9
$AUNITS
 70
     0
  9
$AUPREC
 70
     0
  9
$MENU
  1
acad
  9
$ELEVATION
 40
0.0
  9
$PELEVATION
 40
0.0
  9
$THICKNESS
 40
0.0
  9
$LIMCHECK
 70
     0
  9
$CHAMFERA
 40
0.0
  9
$CHAMFERB
 40
0.0
  9
$CHAMFERC
 40
0.0
  9
$CHAMFERD
 40
0.0
  9
$SKPOLY
 70
     0
  9
$TDCREATE
 40
2451368.612993866
  9
$TDUCREATE
 40
2451368.237993866
  9
$TDUPDATE
 40
2455569.622914676
  9
$TDUUPDATE
 40
2455569.247914676
  9
$TDINDWG
 40
1.1067717130
  9
$TDUSRTIMER
 40
1.1067717130
  9
$USRTIMER
 70
     1
  9
$ANGBASE
 50
0.0
  9
$ANGDIR
 70
     0
  9
$PDMODE
 70
     3
  9
$PDSIZE
 40
2.0
  9
$PLINEWID
 40
0.0
  9
$SPLFRAME
 70
     0
  9
$SPLINETYPE
 70
     6
  9
$SPLINESEGS
 70
     8
  9
$HANDSEED
  5
1BB82
  9
$SURFTAB1
 70
     6
  9
$SURFTAB2
 70
     6
  9
$SURFTYPE
 70
     6
  9
$SURFU
 70
     6
  9
$SURFV
 70
     6
  9
$UCSBASE
  2

  9
$UCSNAME
  2

  9
$UCSORG
 10
0.0
 20
0.0
 30
0.0
  9
$UCSXDIR
 10
1.0
 20
0.0
 30
0.0
  9
$UCSYDIR
 10
0.0
 20
1.0
 30
0.0
  9
$UCSORTHOREF
  2

  9
$UCSORTHOVIEW
 70
     0
  9
$UCSORGTOP
 10
0.0
 20
0.0
 30
0.0
  9
$UCSORGBOTTOM
 10
0.0
 20
0.0
 30
0.0
  9
$UCSORGLEFT
 10
0.0
 20
0.0
 30
0.0
  9
$UCSORGRIGHT
 10
0.0
 20
0.0
 30
0.0
  9
$UCSORGFRONT
 10
0.0
 20
0.0
 30
0.0
  9
$UCSORGBACK
 10
0.0
 20
0.0
 30
0.0
  9
$PUCSBASE
  2

  9
$PUCSNAME
  2

  9
$PUCSORG
 10
0.0
 20
0.0
 30
0.0
  9
$PUCSXDIR
 10
1.0
 20
0.0
 30
0.0
  9
$PUCSYDIR
 10
0.0
 20
1.0
 30
0.0
  9
$PUCSORTHOREF
  2

  9
$PUCSORTHOVIEW
 70
     0
  9
$PUCSORGTOP
 10
0.0
 20
0.0
 30
0.0
  9
$PUCSORGBOTTOM
 10
0.0
 20
0.0
 30
0.0
  9
$PUCSORGLEFT
 10
0.0
 20
0.0
 30
0.0
  9
$PUCSORGRIGHT
 10
0.0
 20
0.0
 30
0.0
  9
$PUCSORGFRONT
 10
0.0
 20
0.0
 30
0.0
  9
$PUCSORGBACK
 10
0.0
 20
0.0
 30
0.0
  9
$USERI1
 70
     0
  9
$USERI2
 70
     0
  9
$USERI3
 70
     0
  9
$USERI4
 70
     0
  9
$USERI5
 70
     0
  9
$USERR1
 40
0.0
  9
$USERR2
 40
0.0
  9
$USERR3
 40
0.0
  9
$USERR4
 40
0.0
  9
$USERR5
 40
0.0
  9
$WORLDVIEW
 70
     1
  9
$SHADEDGE
 70
     3
  9
$SHADEDIF
 70
    70
  9
$TILEMODE
 70
     1
  9
$MAXACTVP
 70
    16
  9
$PINSBASE
 10
0.0
 20
0.0
 30
0.0
  9
$PLIMCHECK
 70
     0
  9
$PEXTMIN
 10
1.000000000000000E+20
 20
1.000000000000000E+20
 30
1.000000000000000E+20
  9
$PEXTMAX
 10
-1.000000000000000E+20
 20
-1.000000000000000E+20
 30
-1.000000000000000E+20
  9
$PLIMMIN
 10
0.0
 20
0.0
  9
$PLIMMAX
 10
420.0
 20
297.0
  9
$UNITMODE
 70
     0
  9
$VISRETAIN
 70
     0
  9
$PLINEGEN
 70
     0
  9
$PSLTSCALE
 70
     0
  9
$TREEDEPTH
 70
  3020
  9
$CMLSTYLE
  2
STANDARD
  9
$CMLJUST
 70
     0
  9
$CMLSCALE
 40
1.0
  9
$PROXYGRAPHICS
 70
     1
  9
$MEASUREMENT
 70
     1
  9
$CELWEIGHT
370
    -1
  9
$ENDCAPS
280
     0
  9
$JOINSTYLE
280
     0
  9
$LWDISPLAY
290
     0
  9
$INSUNITS
 70
     0
  9
$HYPERLINKBASE
  1

  9
$STYLESHEET
  1

  9
$XEDIT
290
     1
  9
$CEPSNTYPE
380
     0
  9
$PSTYLEMODE
290
     1
  9
$FINGERPRINTGUID
  2
{8171A31E-7893-4CF9-B23A-C4B8D83152C5}
  9
$VERSIONGUID
  2
{0378660E-81CF-460D-9781-96B3B333011D}
  9
$EXTNAMES
290
     1
  9
$PSVPSCALE
 40
0.0
  9
$OLESTARTUP
290
     0
  0
ENDSEC
  0
SECTION
  2
CLASSES
  0
CLASS
  1
ACDBDICTIONARYWDFLT
  2
AcDbDictionaryWithDefault
  3
ObjectDBX Classes
 90
        0
280
     0
281
     0
  0
CLASS
  1
DICTIONARYVAR
  2
AcDbDictionaryVar
  3
ObjectDBX Classes
 90
        0
280
     0
281
     0
  0
CLASS
  1
ACDBPLACEHOLDER
  2
AcDbPlaceHolder
  3
ObjectDBX Classes
 90
        0
280
     0
281
     0
  0
CLASS
  1
LAYOUT
  2
AcDbLayout
  3
ObjectDBX Classes
 90
        0
280
     0
281
     0
  0
ENDSEC
  0
SECTION
  2
TABLES
  0
TABLE
  2
VPORT
  5
746D
330
0
100
AcDbSymbolTable
 70
     2
  0
VPORT
  5
1BB7A
330
746D
100
AcDbSymbolTableRecord
100
AcDbViewportTableRecord
  2
*Active
 70
     0
 10
0.0
 20
0.0
 11
1.0
 21
1.0
 12
8223.761025238504
 22
5958.807553215734
 13
0.0
 23
0.0
 14
10.0
 24
10.0
 15
10.0
 25
10.0
 16
0.0
 26
0.0
 36
1.0
 17
0.0
 27
0.0
 37
0.0
 40
12025.6196116811
 41
1.627450980392157
 42
50.0
 43
0.0
 44
0.0
 50
0.0
 51
0.0
 71
     0
 72
     0
 73
     1
 74
     0
 75
     0
 76
     0
 77
     0
 78
     0
281
     0
 65
     1
110
0.0
120
0.0
130
0.0
111
1.0
121
0.0
131
0.0
112
0.0
122
1.0
132
0.0
 79
     0
146
0.0
  0
ENDTAB
  0
TABLE
  2
LTYPE
  5
746A
330
0
100
AcDbSymbolTable
 70
     3
  0
LTYPE
  5
7477
330
746A
100
AcDbSymbolTableRecord
100
AcDbLinetypeTableRecord
  2
BYBLOCK
 70
     0
  3

 72
    65
 73
     0
 40
0.0
  0
LTYPE
  5
7478
330
746A
100
AcDbSymbolTableRecord
100
AcDbLinetypeTableRecord
  2
BYLAYER
 70
     0
  3

 72
    65
 73
     0
 40
0.0
  0
LTYPE
  5
7479
330
746A
100
AcDbSymbolTableRecord
100
AcDbLinetypeTableRecord
  2
CONTINUOUS
 70
     0
  3
Solid line
 72
    65
 73
     0
 40
0.0
  0
LTYPE
  5
781A
330
746A
100
AcDbSymbolTableRecord
100
AcDbLinetypeTableRecord
  2
HIDDEN
 70
     0
  3
__ __ __ __ __ __ __ __ __ __ __ __ __ __ __ __
 72
    65
 73
     2
 40
0.375
 49
0.25
 74
     0
 49
-0.125
 74
     0
  0
LTYPE
  5
781B
330
746A
100
AcDbSymbolTableRecord
100
AcDbLinetypeTableRecord
  2
PHANTOM
 70
     0
  3
______  __  __  ______  __  __  ______  __  __ 
 72
    65
 73
     6
 40
2.5
 49
1.25
 74
     0
 49
-0.25
 74
     0
 49
0.25
 74
     0
 49
-0.25
 74
     0
 49
0.25
 74
     0
 49
-0.25
 74
     0
  0
ENDTAB
  0
TABLE
  2
LAYER
  5
7467
102
{ACAD_XDICTIONARY
360
1A48B
102
}
330
0
100
AcDbSymbolTable
 70
    10
  0
LAYER
  5
7474
330
7467
100
AcDbSymbolTableRecord
100
AcDbLayerTableRecord
  2
0
 70
     0
 62
     7
  6
CONTINUOUS
370
    -3
390
1A188
  0
LAYER
  5
DEB3
330
7467
100
AcDbSymbolTableRecord
100
AcDbLayerTableRecord
  2
寸法
 70
     0
 62
     4
  6
CONTINUOUS
370
    -3
390
1A188
  0
LAYER
  5
DEB4
330
7467
100
AcDbSymbolTableRecord
100
AcDbLayerTableRecord
  2
部品1
 70
     0
 62
     7
  6
CONTINUOUS
370
    -3
390
1A188
  0
LAYER
  5
DEB5
330
7467
100
AcDbSymbolTableRecord
100
AcDbLayerTableRecord
  2
補助
 70
     0
 62
    -1
  6
CONTINUOUS
370
    -3
390
1A188
  0
LAYER
  5
DEB6
330
7467
100
AcDbSymbolTableRecord
100
AcDbLayerTableRecord
  2
文字
 70
     0
 62
     7
  6
CONTINUOUS
370
    -3
390
1A188
  0
LAYER
  5
F255
330
7467
100
AcDbSymbolTableRecord
100
AcDbLayerTableRecord
  2
DEFPOINTS
 70
     0
 62
     7
  6
CONTINUOUS
290
     0
370
    -3
390
1A188
  0
LAYER
  5
10B54
330
7467
100
AcDbSymbolTableRecord
100
AcDbLayerTableRecord
  2
仕様書枠
 70
     0
 62
   230
  6
CONTINUOUS
370
    -3
390
1A188
  0
LAYER
  5
11729
330
7467
100
AcDbSymbolTableRecord
100
AcDbLayerTableRecord
  2
Ｇ．Ｌ
 70
     0
 62
    30
  6
CONTINUOUS
370
    -3
390
1A188
  0
LAYER
  5
1173F
330
7467
100
AcDbSymbolTableRecord
100
AcDbLayerTableRecord
  2
細線
 70
     0
 62
     5
  6
CONTINUOUS
370
    -3
390
1A188
  0
LAYER
  5
142E2
330
7467
100
AcDbSymbolTableRecord
100
AcDbLayerTableRecord
  2
破線
 70
     0
 62
     2
  6
HIDDEN
370
    -3
390
1A188
  0
ENDTAB
  0
TABLE
  2
STYLE
  5
7468
330
0
100
AcDbSymbolTable
 70
     4
  0
STYLE
  5
7475
330
7468
100
AcDbSymbolTableRecord
100
AcDbTextStyleTableRecord
  2
STANDARD
 70
     0
 40
0.0
 41
1.0
 50
0.0
 71
     0
 42
4.0
  3
txt
  4
C:\AutoCAD LT\bigfont.shx
  0
STYLE
  5
763C
330
7468
100
AcDbSymbolTableRecord
100
AcDbTextStyleTableRecord
  2
MSMINCHO
 70
     0
 40
0.0
 41
1.0
 50
0.0
 71
     0
 42
1.199999999999999
  3
C:\AutoCAD LT\msminch2.TTF
  4

  0
STYLE
  5
F706
330
7468
100
AcDbSymbolTableRecord
100
AcDbTextStyleTableRecord
  2
STYLE1
 70
     0
 40
0.0
 41
1.0
 50
0.0
 71
     0
 42
120.0
  3
isocp.shx
  4
bigfont.shx
  0
STYLE
  5
103BF
330
7468
100
AcDbSymbolTableRecord
100
AcDbTextStyleTableRecord
  2
STYLE2
 70
     0
 40
0.0
 41
1.0
 50
0.0
 71
     0
 42
100.0
  3
MS PGothic.ttf
  4

1001
ACAD
1000
MS PGothic
1071
    32818
  0
ENDTAB
  0
TABLE
  2
VIEW
  5
746B
330
0
100
AcDbSymbolTable
 70
     0
  0
ENDTAB
  0
TABLE
  2
UCS
  5
746C
330
0
100
AcDbSymbolTable
 70
     0
  0
ENDTAB
  0
TABLE
  2
APPID
  5
746E
330
0
100
AcDbSymbolTable
 70
     6
  0
APPID
  5
7476
330
746E
100
AcDbSymbolTableRecord
100
AcDbRegAppTableRecord
  2
ACAD
 70
     0
  0
APPID
  5
DEA9
330
746E
100
AcDbSymbolTableRecord
100
AcDbRegAppTableRecord
  2
CONTENTBLOCKICON
 70
     0
  0
APPID
  5
DEAA
330
746E
100
AcDbSymbolTableRecord
100
AcDbRegAppTableRecord
  2
CONTENTBLOCKDESCRIPTION
 70
     0
  0
APPID
  5
E71D
330
746E
100
AcDbSymbolTableRecord
100
AcDbRegAppTableRecord
  2
CONTENTTABDATA
 70
     0
  0
APPID
  5
E71E
330
746E
100
AcDbSymbolTableRecord
100
AcDbRegAppTableRecord
  2
CONTENTCURRENTTAB
 70
     0
  0
APPID
  5
F3BA
330
746E
100
AcDbSymbolTableRecord
100
AcDbRegAppTableRecord
  2
DRAWINGVARIABLESXDATA
 70
     0
  0
ENDTAB
  0
TABLE
  2
DIMSTYLE
  5
746F
330
0
100
AcDbSymbolTable
 70
     1
100
AcDbDimStyleTable
 71
     1
340
F71F
  0
DIMSTYLE
105
F71F
102
{ACAD_REACTORS
330
162CD
330
162CE
330
162CF
330
162D0
330
162E4
330
162E7
330
162EA
330
162EB
330
16301
330
16302
330
1631F
330
16320
330
16333
330
1659C
330
1659A
330
165E9
330
166DD
330
16913
330
17C9D
330
17C9B
330
17C60
330
1A029
330
1A150
330
1A726
330
1A72F
330
1A73A
330
1A73B
330
1A754
330
1A755
330
1A756
330
1A757
330
1A75C
330
1A81F
330
1A820
330
1A821
330
1A822
330
1B379
330
1B39E
330
1B6E8
330
1B6E9
330
1B6EA
102
}
330
746F
100
AcDbSymbolTableRecord
100
AcDbDimStyleTableRecord
  2
INABA_S40G
 70
     0
 40
40.0
 41
2.5
 42
0.5
 43
7.0
 44
1.5
 73
     0
 74
     0
 77
     3
 78
     8
140
3.0
141
0.0
143
0.0394
147
1.0
172
     1
173
     1
174
     1
178
     7
271
     1
340
F706
341
F770
343
F770
344
F770
  0
ENDTAB
  0
TABLE
  2
BLOCK_RECORD
  5
7466
330
0
100
AcDbSymbolTable
 70
    43
  0
BLOCK_RECORD
  5
747D
330
7466
100
AcDbSymbolTableRecord
100
AcDbBlockTableRecord
  2
*MODEL_SPACE
340
1A18D
  0
BLOCK_RECORD
  5
747A
330
7466
100
AcDbSymbolTableRecord
100
AcDbBlockTableRecord
  2
*PAPER_SPACE
340
1A18E
  0
BLOCK_RECORD
  5
F770
330
7466
100
AcDbSymbolTableRecord
100
AcDbBlockTableRecord
  2
_DOTSMALL
340
0
102
{BLKREFS
331
192F6
331
192F7
331
1641A
331
1641B
331
16427
331
16428
331
192E0
331
192E1
331
185D2
331
185D3
331
1A048
331
1A049
331
1646A
331
1646B
331
16479
331
1647A
331
16487
331
16488
331
16493
331
16494
331
165BE
331
165BF
331
165CD
331
165CE
331
16644
331
16645
331
17CCA
331
17CCB
331
185A7
331
185A8
331
1A147
331
1A148
331
1ADE1
331
1ADE2
331
1ADF5
331
1ADF6
331
1ADFF
331
1AE00
331
1AE09
331
1AE0A
331
1AE1D
331
1AE1E
331
1AE38
331
1AE39
331
1AE57
331
1AE58
331
1AE73
331
1AE74
331
1AE88
331
1AE89
331
1B525
331
1B526
331
1B52E
331
1B52F
331
1B541
331
1B542
331
1B54A
331
1B54B
331
1B553
331
1B554
331
1B55E
331
1B55F
331
1B569
331
1B56A
331
1B574
331
1B575
331
1B57D
331
1B57E
331
1B821
331
1B822
331
1BB1A
331
1BB1B
331
1BB23
331
1BB24
331
1BB2C
331
1BB2D
331
1BB35
331
1BB36
331
1BB5D
331
1BB5E
331
1BB69
331
1BB6A
102
}
  0
BLOCK_RECORD
  5
16338
330
7466
100
AcDbSymbolTableRecord
100
AcDbBlockTableRecord
  2
*D1
340
0
  0
BLOCK_RECORD
  5
16344
330
7466
100
AcDbSymbolTableRecord
100
AcDbBlockTableRecord
  2
*D2
340
0
  0
BLOCK_RECORD
  5
16352
330
7466
100
AcDbSymbolTableRecord
100
AcDbBlockTableRecord
  2
*D3
340
0
  0
BLOCK_RECORD
  5
16360
330
7466
100
AcDbSymbolTableRecord
100
AcDbBlockTableRecord
  2
*D4
340
0
  0
BLOCK_RECORD
  5
16384
330
7466
100
AcDbSymbolTableRecord
100
AcDbBlockTableRecord
  2
*D5
340
0
  0
BLOCK_RECORD
  5
1638F
330
7466
100
AcDbSymbolTableRecord
100
AcDbBlockTableRecord
  2
*D6
340
0
  0
BLOCK_RECORD
  5
1639B
330
7466
100
AcDbSymbolTableRecord
100
AcDbBlockTableRecord
  2
*D7
340
0
  0
BLOCK_RECORD
  5
163A9
330
7466
100
AcDbSymbolTableRecord
100
AcDbBlockTableRecord
  2
*D8
340
0
  0
BLOCK_RECORD
  5
163B8
330
7466
100
AcDbSymbolTableRecord
100
AcDbBlockTableRecord
  2
*D9
340
0
  0
BLOCK_RECORD
  5
163C7
330
7466
100
AcDbSymbolTableRecord
100
AcDbBlockTableRecord
  2
*D10
340
0
  0
BLOCK_RECORD
  5
163E1
330
7466
100
AcDbSymbolTableRecord
100
AcDbBlockTableRecord
  2
*D11
340
0
  0
BLOCK_RECORD
  5
163ED
330
7466
100
AcDbSymbolTableRecord
100
AcDbBlockTableRecord
  2
*D12
340
0
  0
BLOCK_RECORD
  5
163FB
330
7466
100
AcDbSymbolTableRecord
100
AcDbBlockTableRecord
  2
*D13
340
0
  0
BLOCK_RECORD
  5
165B5
330
7466
100
AcDbSymbolTableRecord
100
AcDbBlockTableRecord
  2
*D14
340
0
  0
BLOCK_RECORD
  5
165C4
330
7466
100
AcDbSymbolTableRecord
100
AcDbBlockTableRecord
  2
*D15
340
0
  0
BLOCK_RECORD
  5
165EA
330
7466
100
AcDbSymbolTableRecord
100
AcDbBlockTableRecord
  2
*D16
340
0
  0
BLOCK_RECORD
  5
166CF
330
7466
100
AcDbSymbolTableRecord
100
AcDbBlockTableRecord
  2
*D17
340
0
  0
BLOCK_RECORD
  5
16908
330
7466
100
AcDbSymbolTableRecord
100
AcDbBlockTableRecord
  2
*D18
340
0
  0
BLOCK_RECORD
  5
17CC1
330
7466
100
AcDbSymbolTableRecord
100
AcDbBlockTableRecord
  2
*D19
340
0
  0
BLOCK_RECORD
  5
17CD0
330
7466
100
AcDbSymbolTableRecord
100
AcDbBlockTableRecord
  2
*D20
340
0
  0
BLOCK_RECORD
  5
17D01
330
7466
100
AcDbSymbolTableRecord
100
AcDbBlockTableRecord
  2
*D21
340
0
  0
BLOCK_RECORD
  5
1A038
330
7466
100
AcDbSymbolTableRecord
100
AcDbBlockTableRecord
  2
*D22
340
0
  0
BLOCK_RECORD
  5
1A143
330
7466
100
AcDbSymbolTableRecord
100
AcDbBlockTableRecord
  2
*D23
340
0
  0
BLOCK_RECORD
  5
1A14F
330
7466
100
AcDbSymbolTableRecord
100
AcDbBlockTableRecord
  2
A$C45D91A2E
340
0
102
{BLKREFS
331
1A153
102
}
  0
BLOCK_RECORD
  5
1A9BB
330
7466
100
AcDbSymbolTableRecord
100
AcDbBlockTableRecord
  2
*D25
340
0
  0
BLOCK_RECORD
  5
1A9E0
330
7466
100
AcDbSymbolTableRecord
100
AcDbBlockTableRecord
  2
*D26
340
0
  0
BLOCK_RECORD
  5
1AA08
330
7466
100
AcDbSymbolTableRecord
100
AcDbBlockTableRecord
  2
*D27
340
0
  0
BLOCK_RECORD
  5
1AA14
330
7466
100
AcDbSymbolTableRecord
100
AcDbBlockTableRecord
  2
*D28
340
0
  0
BLOCK_RECORD
  5
1AA20
330
7466
100
AcDbSymbolTableRecord
100
AcDbBlockTableRecord
  2
*D29
340
0
  0
BLOCK_RECORD
  5
1AA2C
330
7466
100
AcDbSymbolTableRecord
100
AcDbBlockTableRecord
  2
*D30
340
0
  0
BLOCK_RECORD
  5
1AA3A
330
7466
100
AcDbSymbolTableRecord
100
AcDbBlockTableRecord
  2
*D31
340
0
  0
BLOCK_RECORD
  5
1AA46
330
7466
100
AcDbSymbolTableRecord
100
AcDbBlockTableRecord
  2
*D32
340
0
  0
BLOCK_RECORD
  5
1AA53
330
7466
100
AcDbSymbolTableRecord
100
AcDbBlockTableRecord
  2
*D33
340
0
  0
BLOCK_RECORD
  5
1AA60
330
7466
100
AcDbSymbolTableRecord
100
AcDbBlockTableRecord
  2
*D34
340
0
  0
BLOCK_RECORD
  5
1AA6E
330
7466
100
AcDbSymbolTableRecord
100
AcDbBlockTableRecord
  2
*D35
340
0
  0
BLOCK_RECORD
  5
1AA7A
330
7466
100
AcDbSymbolTableRecord
100
AcDbBlockTableRecord
  2
*D36
340
0
  0
BLOCK_RECORD
  5
1AA88
330
7466
100
AcDbSymbolTableRecord
100
AcDbBlockTableRecord
  2
*D37
340
0
  0
BLOCK_RECORD
  5
1B3DC
330
7466
100
AcDbSymbolTableRecord
100
AcDbBlockTableRecord
  2
*D38
340
0
  0
BLOCK_RECORD
  5
1B437
330
7466
100
AcDbSymbolTableRecord
100
AcDbBlockTableRecord
  2
*D39
340
0
  0
BLOCK_RECORD
  5
1B753
330
7466
100
AcDbSymbolTableRecord
100
AcDbBlockTableRecord
  2
*D40
340
0
  0
BLOCK_RECORD
  5
1B75F
330
7466
100
AcDbSymbolTableRecord
100
AcDbBlockTableRecord
  2
*D41
340
0
  0
BLOCK_RECORD
  5
1B76D
330
7466
100
AcDbSymbolTableRecord
100
AcDbBlockTableRecord
  2
*D42
340
0
  0
ENDTAB
  0
ENDSEC
  0
SECTION
  2
BLOCKS
  0
BLOCK
  5
7489
330
747D
100
AcDbEntity
  8
0
100
AcDbBlockBegin
  2
*MODEL_SPACE
 70
     0
 10
0.0
 20
0.0
 30
0.0
  3
*MODEL_SPACE
  1

  0
ENDBLK
  5
748A
330
747D
100
AcDbEntity
  8
0
100
AcDbBlockEnd
  0
BLOCK
  5
7487
330
747A
100
AcDbEntity
 67
     1
  8
0
100
AcDbBlockBegin
  2
*PAPER_SPACE
 70
     0
 10
0.0
 20
0.0
 30
0.0
  3
*PAPER_SPACE
  1

  0
ENDBLK
  5
7488
330
747A
100
AcDbEntity
 67
     1
  8
0
100
AcDbBlockEnd
  0
BLOCK
  5
F771
330
F770
100
AcDbEntity
  8
0
 48
50.0
100
AcDbBlockBegin
  2
_DOTSMALL
 70
     0
 10
0.0
 20
0.0
 30
0.0
  3
_DOTSMALL
  1

  0
LWPOLYLINE
  5
F772
330
F770
100
AcDbEntity
  8
0
  6
ByBlock
 62
     0
 48
50.0
100
AcDbPolyline
 90
        2
 70
     1
 43
0.5
 10
-0.0625
 20
0.0
 42
1.0
 10
0.0625
 20
0.0
 42
1.0
  0
ENDBLK
  5
F776
330
F770
100
AcDbEntity
  8
0
 48
50.0
100
AcDbBlockEnd
  0
BLOCK
  5
192F2
330
16338
100
AcDbEntity
  8
0
 48
50.0
100
AcDbBlockBegin
  2
*D1
 70
     1
 10
0.0
 20
0.0
 30
0.0
  3
*D1
  1

  0
LINE
  5
192F3
330
16338
100
AcDbEntity
  8
0
  6
ByBlock
 62
     0
 48
50.0
100
AcDbLine
 10
9660.137356965273
 20
9717.497424545967
 30
0.0
 11
10347.56370269968
 21
9717.497424545967
 31
0.0
  0
LINE
  5
192F4
330
16338
100
AcDbEntity
  8
0
  6
ByBlock
 62
     0
 48
50.0
100
AcDbLine
 10
9660.137356965249
 20
7197.497424545952
 30
0.0
 11
10347.56370269968
 21
7197.497424545952
 31
0.0
  0
LINE
  5
192F5
330
16338
100
AcDbEntity
  8
0
  6
ByBlock
 62
     0
 48
50.0
100
AcDbLine
 10
10287.56370269968
 20
9717.497424545967
 30
0.0
 11
10287.56370269968
 21
7197.497424545952
 31
0.0
  0
INSERT
  5
192F6
330
16338
100
AcDbEntity
  8
0
  6
ByBlock
 62
     0
 48
50.0
100
AcDbBlockReference
  2
_DOTSMALL
 10
10287.56370269968
 20
9717.497424545967
 30
0.0
 41
100.0
 42
100.0
 43
100.0
 50
90.0
  0
INSERT
  5
192F7
330
16338
100
AcDbEntity
  8
0
  6
ByBlock
 62
     0
 48
50.0
100
AcDbBlockReference
  2
_DOTSMALL
 10
10287.56370269968
 20
7197.497424545952
 30
0.0
 41
100.0
 42
100.0
 43
100.0
 50
270.0
  0
MTEXT
  5
192F8
330
16338
100
AcDbEntity
  8
0
  6
ByBlock
 62
     7
 48
50.0
100
AcDbMText
 10
10187.55189167606
 20
8457.497424545961
 30
0.0
 40
120.0
 41
0.0
 71
     5
 72
     1
  1
\A1;6X420=2520
  7
STYLE1
 11
0.0000000000000001
 21
1.0
 31
0.0
 73
     1
 44
1.0
1001
ACAD
1000
MTEXTBEGIN
1070
    73
1070
     1
1070
    44
1040
1.0
1070
    74
1070
     0
1000
MTEXTEND
  0
POINT
  5
192F9
330
16338
100
AcDbEntity
  8
DEFPOINTS
  6
ByBlock
 62
     0
 48
50.0
100
AcDbPoint
 10
9640.137356965274
 20
9717.497424545967
 30
0.0
  0
POINT
  5
192FA
330
16338
100
AcDbEntity
  8
DEFPOINTS
  6
ByBlock
 62
     0
 48
50.0
100
AcDbPoint
 10
9640.137356965247
 20
7197.497424545952
 30
0.0
  0
POINT
  5
192FB
330
16338
100
AcDbEntity
  8
DEFPOINTS
  6
ByBlock
 62
     0
 48
50.0
100
AcDbPoint
 10
10287.56370269968
 20
7197.497424545952
 30
0.0
  0
ENDBLK
  5
192FC
330
16338
100
AcDbEntity
  8
0
 48
50.0
100
AcDbBlockEnd
  0
BLOCK
  5
16414
330
16344
100
AcDbEntity
  8
0
 48
50.0
100
AcDbBlockBegin
  2
*D2
 70
     1
 10
0.0
 20
0.0
 30
0.0
  3
*D2
  1

  0
LINE
  5
16415
330
16344
100
AcDbEntity
  8
0
  6
ByBlock
 62
     0
 48
50.0
100
AcDbLine
 10
7394.673057123639
 20
7037.497424545953
 30
0.0
 11
8082.099402858048
 21
7037.497424545951
 31
0.0
  0
LINE
  5
16416
330
16344
100
AcDbEntity
  8
0
  6
ByBlock
 62
     0
 48
50.0
100
AcDbLine
 10
7394.673057123639
 20
6982.497424545956
 30
0.0
 11
8082.099402858048
 21
6982.497424545956
 31
0.0
  0
LINE
  5
16417
330
16344
100
AcDbEntity
  8
0
  6
ByBlock
 62
     0
 48
50.0
100
AcDbLine
 10
8022.099402858048
 20
7037.497424545951
 30
0.0
 11
8022.099402858048
 21
7137.497424545951
 31
0.0
  0
LINE
  5
16418
330
16344
100
AcDbEntity
  8
0
  6
ByBlock
 62
     0
 48
50.0
100
AcDbLine
 10
8022.099402858048
 20
6982.497424545956
 30
0.0
 11
8022.099402858048
 21
6496.150676266855
 31
0.0
  0
LINE
  5
16419
330
16344
100
AcDbEntity
  8
0
  6
ByBlock
 62
     0
 48
50.0
100
AcDbLine
 10
8022.099402858048
 20
7037.497424545951
 30
0.0
 11
8022.099402858048
 21
6982.497424545956
 31
0.0
  0
INSERT
  5
1641A
330
16344
100
AcDbEntity
  8
0
  6
ByBlock
 62
     0
 48
50.0
100
AcDbBlockReference
  2
_DOTSMALL
 10
8022.099402858048
 20
7037.497424545951
 30
0.0
 41
100.0
 42
100.0
 43
100.0
 50
270.0
  0
INSERT
  5
1641B
330
16344
100
AcDbEntity
  8
0
  6
ByBlock
 62
     0
 48
50.0
100
AcDbBlockReference
  2
_DOTSMALL
 10
8022.099402858048
 20
6982.497424545956
 30
0.0
 41
100.0
 42
100.0
 43
100.0
 50
90.0
  0
MTEXT
  5
1641C
330
16344
100
AcDbEntity
  8
0
  6
ByBlock
 62
     7
 48
50.0
100
AcDbMText
 10
7922.099402858048
 20
6604.635957641093
 30
0.0
 40
120.0
 41
0.0
 71
     5
 72
     1
  1
\A1;55
  7
STYLE1
 11
0.0000000000000001
 21
1.0
 31
0.0
 73
     1
 44
1.0
1001
ACAD
1000
MTEXTBEGIN
1070
    73
1070
     1
1070
    44
1040
1.0
1070
    74
1070
     0
1000
MTEXTEND
  0
POINT
  5
1641D
330
16344
100
AcDbEntity
  8
DEFPOINTS
  6
ByBlock
 62
     0
 48
50.0
100
AcDbPoint
 10
7374.673057123638
 20
7037.497424545953
 30
0.0
  0
POINT
  5
1641E
330
16344
100
AcDbEntity
  8
DEFPOINTS
  6
ByBlock
 62
     0
 48
50.0
100
AcDbPoint
 10
7374.673057123638
 20
6982.497424545956
 30
0.0
  0
POINT
  5
1641F
330
16344
100
AcDbEntity
  8
DEFPOINTS
  6
ByBlock
 62
     0
 48
50.0
100
AcDbPoint
 10
8022.099402858048
 20
6982.497424545956
 30
0.0
  0
ENDBLK
  5
16420
330
16344
100
AcDbEntity
  8
0
 48
50.0
100
AcDbBlockEnd
  0
BLOCK
  5
16421
330
16352
100
AcDbEntity
  8
0
 48
50.0
100
AcDbBlockBegin
  2
*D3
 70
     1
 10
0.0
 20
0.0
 30
0.0
  3
*D3
  1

  0
LINE
  5
16422
330
16352
100
AcDbEntity
  8
0
  6
ByBlock
 62
     0
 48
50.0
100
AcDbLine
 10
7394.673057123664
 20
10032.49742454596
 30
0.0
 11
8082.099402858075
 21
10032.49742454596
 31
0.0
  0
LINE
  5
16423
330
16352
100
AcDbEntity
  8
0
  6
ByBlock
 62
     0
 48
50.0
100
AcDbLine
 10
7394.673057123664
 20
9977.497424545967
 30
0.0
 11
8082.099402858075
 21
9977.497424545967
 31
0.0
  0
LINE
  5
16424
330
16352
100
AcDbEntity
  8
0
  6
ByBlock
 62
     0
 48
50.0
100
AcDbLine
 10
8022.099402858072
 20
9977.497424545967
 30
0.0
 11
8022.099402858072
 21
9877.497424545968
 31
0.0
  0
LINE
  5
16425
330
16352
100
AcDbEntity
  8
0
  6
ByBlock
 62
     0
 48
50.0
100
AcDbLine
 10
8022.099402858072
 20
10032.49742454596
 30
0.0
 11
8022.099402858072
 21
10449.46798729444
 31
0.0
  0
LINE
  5
16426
330
16352
100
AcDbEntity
  8
0
  6
ByBlock
 62
     0
 48
50.0
100
AcDbLine
 10
8022.099402858072
 20
9977.497424545967
 30
0.0
 11
8022.099402858072
 21
10032.49742454596
 31
0.0
  0
INSERT
  5
16427
330
16352
100
AcDbEntity
  8
0
  6
ByBlock
 62
     0
 48
50.0
100
AcDbBlockReference
  2
_DOTSMALL
 10
8022.099402858072
 20
9977.497424545967
 30
0.0
 41
100.0
 42
100.0
 43
100.0
 50
90.0
  0
INSERT
  5
16428
330
16352
100
AcDbEntity
  8
0
  6
ByBlock
 62
     0
 48
50.0
100
AcDbBlockReference
  2
_DOTSMALL
 10
8022.099402858072
 20
10032.49742454596
 30
0.0
 41
100.0
 42
100.0
 43
100.0
 50
270.0
  0
MTEXT
  5
16429
330
16352
100
AcDbEntity
  8
0
  6
ByBlock
 62
     7
 48
50.0
100
AcDbMText
 10
7922.099402858073
 20
10340.9827059202
 30
0.0
 40
120.0
 41
0.0
 71
     5
 72
     1
  1
\A1;55
  7
STYLE1
 11
0.0000000000000001
 21
1.0
 31
0.0
 73
     1
 44
1.0
1001
ACAD
1000
MTEXTBEGIN
1070
    73
1070
     1
1070
    44
1040
1.0
1070
    74
1070
     0
1000
MTEXTEND
  0
POINT
  5
1642A
330
16352
100
AcDbEntity
  8
DEFPOINTS
  6
ByBlock
 62
     0
 48
50.0
100
AcDbPoint
 10
7374.673057123664
 20
10032.49742454596
 30
0.0
  0
POINT
  5
1642B
330
16352
100
AcDbEntity
  8
DEFPOINTS
  6
ByBlock
 62
     0
 48
50.0
100
AcDbPoint
 10
7374.673057123664
 20
9977.497424545967
 30
0.0
  0
POINT
  5
1642C
330
16352
100
AcDbEntity
  8
DEFPOINTS
  6
ByBlock
 62
     0
 48
50.0
100
AcDbPoint
 10
8022.099402858072
 20
9977.497424545967
 30
0.0
  0
ENDBLK
  5
1642D
330
16352
100
AcDbEntity
  8
0
 48
50.0
100
AcDbBlockEnd
  0
BLOCK
  5
192DC
330
16360
100
AcDbEntity
  8
0
 48
50.0
100
AcDbBlockBegin
  2
*D4
 70
     1
 10
0.0
 20
0.0
 30
0.0
  3
*D4
  1

  0
LINE
  5
192DD
330
16360
100
AcDbEntity
  8
0
  6
ByBlock
 62
     0
 48
50.0
100
AcDbLine
 10
9660.137356965273
 20
9772.497424545964
 30
0.0
 11
10712.67064443932
 21
9772.497424545964
 31
0.0
  0
LINE
  5
192DE
330
16360
100
AcDbEntity
  8
0
  6
ByBlock
 62
     0
 48
50.0
100
AcDbLine
 10
9660.137356965249
 20
7142.497424545957
 30
0.0
 11
10712.67064443932
 21
7142.497424545957
 31
0.0
  0
LINE
  5
192DF
330
16360
100
AcDbEntity
  8
0
  6
ByBlock
 62
     0
 48
50.0
100
AcDbLine
 10
10652.67064443932
 20
9772.497424545964
 30
0.0
 11
10652.67064443932
 21
7142.497424545957
 31
0.0
  0
INSERT
  5
192E0
330
16360
100
AcDbEntity
  8
0
  6
ByBlock
 62
     0
 48
50.0
100
AcDbBlockReference
  2
_DOTSMALL
 10
10652.67064443932
 20
9772.497424545964
 30
0.0
 41
100.0
 42
100.0
 43
100.0
 50
90.0
  0
INSERT
  5
192E1
330
16360
100
AcDbEntity
  8
0
  6
ByBlock
 62
     0
 48
50.0
100
AcDbBlockReference
  2
_DOTSMALL
 10
10652.67064443932
 20
7142.497424545957
 30
0.0
 41
100.0
 42
100.0
 43
100.0
 50
270.0
  0
MTEXT
  5
192E2
330
16360
100
AcDbEntity
  8
0
  6
ByBlock
 62
     7
 48
50.0
100
AcDbMText
 10
10552.6588334157
 20
8457.497424545961
 30
0.0
 40
120.0
 41
0.0
 71
     5
 72
     1
  1
\A1;2630
  7
STYLE1
 11
0.0000000000000001
 21
1.0
 31
0.0
 73
     1
 44
1.0
1001
ACAD
1000
MTEXTBEGIN
1070
    73
1070
     1
1070
    44
1040
1.0
1070
    74
1070
     0
1000
MTEXTEND
  0
POINT
  5
192E3
330
16360
100
AcDbEntity
  8
DEFPOINTS
  6
ByBlock
 62
     0
 48
50.0
100
AcDbPoint
 10
9640.137356965274
 20
9772.497424545964
 30
0.0
  0
POINT
  5
192E4
330
16360
100
AcDbEntity
  8
DEFPOINTS
  6
ByBlock
 62
     0
 48
50.0
100
AcDbPoint
 10
9640.137356965247
 20
7142.497424545957
 30
0.0
  0
POINT
  5
192E5
330
16360
100
AcDbEntity
  8
DEFPOINTS
  6
ByBlock
 62
     0
 48
50.0
100
AcDbPoint
 10
10652.67064443932
 20
7142.497424545957
 30
0.0
  0
ENDBLK
  5
192E6
330
16360
100
AcDbEntity
  8
0
 48
50.0
100
AcDbBlockEnd
  0
BLOCK
  5
185CF
330
16384
100
AcDbEntity
  8
0
 48
50.0
100
AcDbBlockBegin
  2
*D5
 70
     1
 10
0.0
 20
0.0
 30
0.0
  3
*D5
  1

  0
LINE
  5
185D0
330
16384
100
AcDbEntity
  8
0
  6
ByBlock
 62
     0
 48
50.0
100
AcDbLine
 10
7533.137356965266
 20
7148.497424545865
 30
0.0
 11
7533.137356965266
 21
6548.0666537797
 31
0.0
  0
LINE
  5
185D1
330
16384
100
AcDbEntity
  8
0
  6
ByBlock
 62
     0
 48
50.0
100
AcDbLine
 10
9957.137356965247
 20
6608.0666537797
 30
0.0
 11
7533.137356965266
 21
6608.0666537797
 31
0.0
  0
INSERT
  5
185D2
330
16384
100
AcDbEntity
  8
0
  6
ByBlock
 62
     0
 48
50.0
100
AcDbBlockReference
  2
_DOTSMALL
 10
9957.137356965247
 20
6608.0666537797
 30
0.0
 41
100.0
 42
100.0
 43
100.0
  0
INSERT
  5
185D3
330
16384
100
AcDbEntity
  8
0
  6
ByBlock
 62
     0
 48
50.0
100
AcDbBlockReference
  2
_DOTSMALL
 10
7533.137356965266
 20
6608.0666537797
 30
0.0
 41
100.0
 42
100.0
 43
100.0
 50
180.0
  0
MTEXT
  5
185D4
330
16384
100
AcDbEntity
  8
0
  6
ByBlock
 62
     7
 48
50.0
100
AcDbMText
 10
8745.137356965257
 20
6708.078464803323
 30
0.0
 40
120.0
 41
0.0
 71
     5
 72
     1
  1
\A1;有効開口部間口 2424
  7
STYLE1
 73
     1
 44
1.0
1001
ACAD
1000
MTEXTBEGIN
1070
    73
1070
     1
1070
    44
1040
1.0
1070
    74
1070
     0
1000
MTEXTEND
  0
POINT
  5
185D5
330
16384
100
AcDbEntity
  8
DEFPOINTS
  6
ByBlock
 62
     0
 48
50.0
100
AcDbPoint
 10
9957.137356965247
 20
7168.497424545865
 30
0.0
  0
POINT
  5
185D6
330
16384
100
AcDbEntity
  8
DEFPOINTS
  6
ByBlock
 62
     0
 48
50.0
100
AcDbPoint
 10
7533.137356965266
 20
7168.497424545865
 30
0.0
  0
POINT
  5
185D7
330
16384
100
AcDbEntity
  8
DEFPOINTS
  6
ByBlock
 62
     0
 48
50.0
100
AcDbPoint
 10
7533.137356965266
 20
6608.0666537797
 30
0.0
  0
ENDBLK
  5
185D8
330
16384
100
AcDbEntity
  8
0
 48
50.0
100
AcDbBlockEnd
  0
BLOCK
  5
1A044
330
1638F
100
AcDbEntity
  8
0
 48
50.0
100
AcDbBlockBegin
  2
*D6
 70
     1
 10
0.0
 20
0.0
 30
0.0
  3
*D6
  1

  0
LINE
  5
1A045
330
1638F
100
AcDbEntity
  8
0
  6
ByBlock
 62
     0
 48
50.0
100
AcDbLine
 10
4590.137356965266
 20
7122.497424545715
 30
0.0
 11
4590.137356965266
 21
6101.89365818868
 31
0.0
  0
LINE
  5
1A046
330
1638F
100
AcDbEntity
  8
0
  6
ByBlock
 62
     0
 48
50.0
100
AcDbLine
 10
9850.137356965237
 20
7122.497424545956
 30
0.0
 11
9850.137356965237
 21
6101.89365818868
 31
0.0
  0
LINE
  5
1A047
330
1638F
100
AcDbEntity
  8
0
  6
ByBlock
 62
     0
 48
50.0
100
AcDbLine
 10
4590.137356965266
 20
6161.89365818868
 30
0.0
 11
9850.137356965237
 21
6161.89365818868
 31
0.0
  0
INSERT
  5
1A048
330
1638F
100
AcDbEntity
  8
0
  6
ByBlock
 62
     0
 48
50.0
100
AcDbBlockReference
  2
_DOTSMALL
 10
4590.137356965266
 20
6161.89365818868
 30
0.0
 41
100.0
 42
100.0
 43
100.0
 50
180.0
  0
INSERT
  5
1A049
330
1638F
100
AcDbEntity
  8
0
  6
ByBlock
 62
     0
 48
50.0
100
AcDbBlockReference
  2
_DOTSMALL
 10
9850.137356965237
 20
6161.89365818868
 30
0.0
 41
100.0
 42
100.0
 43
100.0
  0
MTEXT
  5
1A04A
330
1638F
100
AcDbEntity
  8
0
  6
ByBlock
 62
     7
 48
50.0
100
AcDbMText
 10
7220.137356965252
 20
6261.905469212302
 30
0.0
 40
120.0
 41
0.0
 71
     5
 72
     1
  1
\A1;5260
  7
STYLE1
 73
     1
 44
1.0
1001
ACAD
1000
MTEXTBEGIN
1070
    73
1070
     1
1070
    44
1040
1.0
1070
    74
1070
     0
1000
MTEXTEND
  0
POINT
  5
1A04B
330
1638F
100
AcDbEntity
  8
DEFPOINTS
  6
ByBlock
 62
     0
 48
50.0
100
AcDbPoint
 10
4590.137356965266
 20
7142.497424545715
 30
0.0
  0
POINT
  5
1A04C
330
1638F
100
AcDbEntity
  8
DEFPOINTS
  6
ByBlock
 62
     0
 48
50.0
100
AcDbPoint
 10
9850.137356965237
 20
7142.497424545957
 30
0.0
  0
POINT
  5
1A04D
330
1638F
100
AcDbEntity
  8
DEFPOINTS
  6
ByBlock
 62
     0
 48
50.0
100
AcDbPoint
 10
9850.137356965237
 20
6161.89365818868
 30
0.0
  0
ENDBLK
  5
1A04E
330
1638F
100
AcDbEntity
  8
0
 48
50.0
100
AcDbBlockEnd
  0
BLOCK
  5
16464
330
1639B
100
AcDbEntity
  8
0
 48
50.0
100
AcDbBlockBegin
  2
*D7
 70
     1
 10
0.0
 20
0.0
 30
0.0
  3
*D7
  1

  0
LINE
  5
16465
330
1639B
100
AcDbEntity
  8
0
  6
ByBlock
 62
     0
 48
50.0
100
AcDbLine
 10
4799.673057123653
 20
6962.497424545865
 30
0.0
 11
4799.673057123653
 21
6388.0666537797
 31
0.0
  0
LINE
  5
16466
330
1639B
100
AcDbEntity
  8
0
  6
ByBlock
 62
     0
 48
50.0
100
AcDbLine
 10
4744.673057123656
 20
6962.497424545862
 30
0.0
 11
4744.673057123656
 21
6388.0666537797
 31
0.0
  0
LINE
  5
16467
330
1639B
100
AcDbEntity
  8
0
  6
ByBlock
 62
     0
 48
50.0
100
AcDbLine
 10
4799.673057123653
 20
6448.066653779701
 30
0.0
 11
4899.673057123653
 21
6448.066653779701
 31
0.0
  0
LINE
  5
16468
330
1639B
100
AcDbEntity
  8
0
  6
ByBlock
 62
     0
 48
50.0
100
AcDbLine
 10
4744.673057123656
 20
6448.066653779701
 30
0.0
 11
4327.70249437518
 21
6448.066653779701
 31
0.0
  0
LINE
  5
16469
330
1639B
100
AcDbEntity
  8
0
  6
ByBlock
 62
     0
 48
50.0
100
AcDbLine
 10
4799.673057123653
 20
6448.066653779701
 30
0.0
 11
4744.673057123656
 21
6448.066653779701
 31
0.0
  0
INSERT
  5
1646A
330
1639B
100
AcDbEntity
  8
0
  6
ByBlock
 62
     0
 48
50.0
100
AcDbBlockReference
  2
_DOTSMALL
 10
4799.673057123653
 20
6448.066653779701
 30
0.0
 41
100.0
 42
100.0
 43
100.0
 50
180.0
  0
INSERT
  5
1646B
330
1639B
100
AcDbEntity
  8
0
  6
ByBlock
 62
     0
 48
50.0
100
AcDbBlockReference
  2
_DOTSMALL
 10
4744.673057123656
 20
6448.066653779701
 30
0.0
 41
100.0
 42
100.0
 43
100.0
  0
MTEXT
  5
1646C
330
1639B
100
AcDbEntity
  8
0
  6
ByBlock
 62
     7
 48
50.0
100
AcDbMText
 10
4436.187775749418
 20
6548.0666537797
 30
0.0
 40
120.0
 41
0.0
 71
     5
 72
     1
  1
\A1;55
  7
STYLE1
 73
     1
 44
1.0
1001
ACAD
1000
MTEXTBEGIN
1070
    73
1070
     1
1070
    44
1040
1.0
1070
    74
1070
     0
1000
MTEXTEND
  0
POINT
  5
1646D
330
1639B
100
AcDbEntity
  8
DEFPOINTS
  6
ByBlock
 62
     0
 48
50.0
100
AcDbPoint
 10
4799.673057123653
 20
6982.497424545865
 30
0.0
  0
POINT
  5
1646E
330
1639B
100
AcDbEntity
  8
DEFPOINTS
  6
ByBlock
 62
     0
 48
50.0
100
AcDbPoint
 10
4744.673057123656
 20
6982.497424545861
 30
0.0
  0
POINT
  5
1646F
330
1639B
100
AcDbEntity
  8
DEFPOINTS
  6
ByBlock
 62
     0
 48
50.0
100
AcDbPoint
 10
4744.673057123656
 20
6448.066653779701
 30
0.0
  0
ENDBLK
  5
16470
330
1639B
100
AcDbEntity
  8
0
 48
50.0
100
AcDbBlockEnd
  0
BLOCK
  5
16471
330
163A9
100
AcDbEntity
  8
0
 48
50.0
100
AcDbBlockBegin
  2
*D8
 70
     1
 10
0.0
 20
0.0
 30
0.0
  3
*D8
  1

  0
LINE
  5
16472
330
163A9
100
AcDbEntity
  8
0
  6
ByBlock
 62
     0
 48
50.0
100
AcDbLine
 10
4847.673057123657
 20
6988.497424545865
 30
0.0
 11
4847.673057123657
 21
6388.0666537797
 31
0.0
  0
LINE
  5
16473
330
163A9
100
AcDbEntity
  8
0
  6
ByBlock
 62
     0
 48
50.0
100
AcDbLine
 10
4799.673057123653
 20
6962.497424545865
 30
0.0
 11
4799.673057123653
 21
6388.0666537797
 31
0.0
  0
LINE
  5
16474
330
163A9
100
AcDbEntity
  8
0
  6
ByBlock
 62
     0
 48
50.0
100
AcDbLine
 10
4847.673057123657
 20
6448.066653779701
 30
0.0
 11
4947.673057123656
 21
6448.066653779701
 31
0.0
  0
LINE
  5
16475
330
163A9
100
AcDbEntity
  8
0
  6
ByBlock
 62
     0
 48
50.0
100
AcDbLine
 10
4799.673057123653
 20
6448.066653779701
 30
0.0
 11
4699.673057123653
 21
6448.066653779701
 31
0.0
  0
MTEXT
  5
16476
330
163A9
100
AcDbEntity
  8
0
  6
ByBlock
 62
     7
 48
50.0
100
AcDbMText
 10
4960.575028123714
 20
6548.0666537797
 30
0.0
 40
120.0
 41
0.0
 71
     5
 72
     1
  1
\A1;48
  7
STYLE1
 73
     1
 44
1.0
1001
ACAD
1000
MTEXTBEGIN
1070
    73
1070
     1
1070
    44
1040
1.0
1070
    74
1070
     0
1000
MTEXTEND
  0
LINE
  5
16477
330
163A9
100
AcDbEntity
  8
0
  6
ByBlock
 62
     0
 48
50.0
100
AcDbLine
 10
4847.673057123657
 20
6448.066653779701
 30
0.0
 11
4799.673057123653
 21
6448.066653779701
 31
0.0
  0
LINE
  5
16478
330
163A9
100
AcDbEntity
  8
0
  6
ByBlock
 62
     0
 48
50.0
100
AcDbLine
 10
4847.673057123657
 20
6448.066653779701
 30
0.0
 11
4799.673057123653
 21
6448.066653779701
 31
0.0
  0
INSERT
  5
16479
330
163A9
100
AcDbEntity
  8
0
  6
ByBlock
 62
     0
 48
50.0
100
AcDbBlockReference
  2
_DOTSMALL
 10
4847.673057123657
 20
6448.066653779701
 30
0.0
 41
100.0
 42
100.0
 43
100.0
 50
180.0
  0
INSERT
  5
1647A
330
163A9
100
AcDbEntity
  8
0
  6
ByBlock
 62
     0
 48
50.0
100
AcDbBlockReference
  2
_DOTSMALL
 10
4799.673057123653
 20
6448.066653779701
 30
0.0
 41
100.0
 42
100.0
 43
100.0
  0
POINT
  5
1647B
330
163A9
100
AcDbEntity
  8
DEFPOINTS
  6
ByBlock
 62
     0
 48
50.0
100
AcDbPoint
 10
4847.673057123657
 20
7008.497424545864
 30
0.0
  0
POINT
  5
1647C
330
163A9
100
AcDbEntity
  8
DEFPOINTS
  6
ByBlock
 62
     0
 48
50.0
100
AcDbPoint
 10
4799.673057123653
 20
6982.497424545865
 30
0.0
  0
POINT
  5
1647D
330
163A9
100
AcDbEntity
  8
DEFPOINTS
  6
ByBlock
 62
     0
 48
50.0
100
AcDbPoint
 10
4799.673057123653
 20
6448.066653779701
 30
0.0
  0
ENDBLK
  5
1647E
330
163A9
100
AcDbEntity
  8
0
 48
50.0
100
AcDbBlockEnd
  0
BLOCK
  5
1647F
330
163B8
100
AcDbEntity
  8
0
 48
50.0
100
AcDbBlockBegin
  2
*D9
 70
     1
 10
0.0
 20
0.0
 30
0.0
  3
*D9
  1

  0
LINE
  5
16480
330
163B8
100
AcDbEntity
  8
0
  6
ByBlock
 62
     0
 48
50.0
100
AcDbLine
 10
7319.67305712364
 20
6962.497424545952
 30
0.0
 11
7319.67305712364
 21
6388.0666537797
 31
0.0
  0
LINE
  5
16481
330
163B8
100
AcDbEntity
  8
0
  6
ByBlock
 62
     0
 48
50.0
100
AcDbLine
 10
7271.673057123638
 20
6988.497424545865
 30
0.0
 11
7271.673057123638
 21
6388.0666537797
 31
0.0
  0
LINE
  5
16482
330
163B8
100
AcDbEntity
  8
0
  6
ByBlock
 62
     0
 48
50.0
100
AcDbLine
 10
7319.67305712364
 20
6448.066653779701
 30
0.0
 11
7419.67305712364
 21
6448.066653779701
 31
0.0
  0
LINE
  5
16483
330
163B8
100
AcDbEntity
  8
0
  6
ByBlock
 62
     0
 48
50.0
100
AcDbLine
 10
7271.673057123638
 20
6448.066653779701
 30
0.0
 11
7171.673057123638
 21
6448.066653779701
 31
0.0
  0
MTEXT
  5
16484
330
163B8
100
AcDbEntity
  8
0
  6
ByBlock
 62
     7
 48
50.0
100
AcDbMText
 10
7160.710159474891
 20
6548.0666537797
 30
0.0
 40
120.0
 41
0.0
 71
     5
 72
     1
  1
\A1;48
  7
STYLE1
 73
     1
 44
1.0
1001
ACAD
1000
MTEXTBEGIN
1070
    73
1070
     1
1070
    44
1040
1.0
1070
    74
1070
     0
1000
MTEXTEND
  0
LINE
  5
16485
330
163B8
100
AcDbEntity
  8
0
  6
ByBlock
 62
     0
 48
50.0
100
AcDbLine
 10
7319.67305712364
 20
6448.066653779701
 30
0.0
 11
7271.673057123638
 21
6448.066653779701
 31
0.0
  0
LINE
  5
16486
330
163B8
100
AcDbEntity
  8
0
  6
ByBlock
 62
     0
 48
50.0
100
AcDbLine
 10
7319.67305712364
 20
6448.066653779701
 30
0.0
 11
7271.673057123638
 21
6448.066653779701
 31
0.0
  0
INSERT
  5
16487
330
163B8
100
AcDbEntity
  8
0
  6
ByBlock
 62
     0
 48
50.0
100
AcDbBlockReference
  2
_DOTSMALL
 10
7319.67305712364
 20
6448.066653779701
 30
0.0
 41
100.0
 42
100.0
 43
100.0
 50
180.0
  0
INSERT
  5
16488
330
163B8
100
AcDbEntity
  8
0
  6
ByBlock
 62
     0
 48
50.0
100
AcDbBlockReference
  2
_DOTSMALL
 10
7271.673057123638
 20
6448.066653779701
 30
0.0
 41
100.0
 42
100.0
 43
100.0
  0
POINT
  5
16489
330
163B8
100
AcDbEntity
  8
DEFPOINTS
  6
ByBlock
 62
     0
 48
50.0
100
AcDbPoint
 10
7319.67305712364
 20
6982.497424545953
 30
0.0
  0
POINT
  5
1648A
330
163B8
100
AcDbEntity
  8
DEFPOINTS
  6
ByBlock
 62
     0
 48
50.0
100
AcDbPoint
 10
7271.673057123638
 20
7008.497424545865
 30
0.0
  0
POINT
  5
1648B
330
163B8
100
AcDbEntity
  8
DEFPOINTS
  6
ByBlock
 62
     0
 48
50.0
100
AcDbPoint
 10
7271.673057123638
 20
6448.066653779701
 30
0.0
  0
ENDBLK
  5
1648C
330
163B8
100
AcDbEntity
  8
0
 48
50.0
100
AcDbBlockEnd
  0
BLOCK
  5
1648D
330
163C7
100
AcDbEntity
  8
0
 48
50.0
100
AcDbBlockBegin
  2
*D10
 70
     1
 10
0.0
 20
0.0
 30
0.0
  3
*D10
  1

  0
LINE
  5
1648E
330
163C7
100
AcDbEntity
  8
0
  6
ByBlock
 62
     0
 48
50.0
100
AcDbLine
 10
7374.673057123638
 20
6962.497424545957
 30
0.0
 11
7374.673057123638
 21
6388.066653779702
 31
0.0
  0
LINE
  5
1648F
330
163C7
100
AcDbEntity
  8
0
  6
ByBlock
 62
     0
 48
50.0
100
AcDbLine
 10
7319.67305712364
 20
6962.497424545952
 30
0.0
 11
7319.67305712364
 21
6388.066653779702
 31
0.0
  0
LINE
  5
16490
330
163C7
100
AcDbEntity
  8
0
  6
ByBlock
 62
     0
 48
50.0
100
AcDbLine
 10
7319.67305712364
 20
6448.066653779702
 30
0.0
 11
7219.67305712364
 21
6448.066653779702
 31
0.0
  0
LINE
  5
16491
330
163C7
100
AcDbEntity
  8
0
  6
ByBlock
 62
     0
 48
50.0
100
AcDbLine
 10
7374.673057123638
 20
6448.066653779702
 30
0.0
 11
7791.643619872115
 21
6448.066653779702
 31
0.0
  0
LINE
  5
16492
330
163C7
100
AcDbEntity
  8
0
  6
ByBlock
 62
     0
 48
50.0
100
AcDbLine
 10
7319.67305712364
 20
6448.066653779702
 30
0.0
 11
7374.673057123638
 21
6448.066653779702
 31
0.0
  0
INSERT
  5
16493
330
163C7
100
AcDbEntity
  8
0
  6
ByBlock
 62
     0
 48
50.0
100
AcDbBlockReference
  2
_DOTSMALL
 10
7319.67305712364
 20
6448.066653779702
 30
0.0
 41
100.0
 42
100.0
 43
100.0
  0
INSERT
  5
16494
330
163C7
100
AcDbEntity
  8
0
  6
ByBlock
 62
     0
 48
50.0
100
AcDbBlockReference
  2
_DOTSMALL
 10
7374.673057123638
 20
6448.066653779702
 30
0.0
 41
100.0
 42
100.0
 43
100.0
 50
180.0
  0
MTEXT
  5
16495
330
163C7
100
AcDbEntity
  8
0
  6
ByBlock
 62
     7
 48
50.0
100
AcDbMText
 10
7683.158338497877
 20
6548.066653779702
 30
0.0
 40
120.0
 41
0.0
 71
     5
 72
     1
  1
\A1;55
  7
STYLE1
 73
     1
 44
1.0
1001
ACAD
1000
MTEXTBEGIN
1070
    73
1070
     1
1070
    44
1040
1.0
1070
    74
1070
     0
1000
MTEXTEND
  0
POINT
  5
16496
330
163C7
100
AcDbEntity
  8
DEFPOINTS
  6
ByBlock
 62
     0
 48
50.0
100
AcDbPoint
 10
7374.673057123638
 20
6982.497424545956
 30
0.0
  0
POINT
  5
16497
330
163C7
100
AcDbEntity
  8
DEFPOINTS
  6
ByBlock
 62
     0
 48
50.0
100
AcDbPoint
 10
7319.67305712364
 20
6982.497424545953
 30
0.0
  0
POINT
  5
16498
330
163C7
100
AcDbEntity
  8
DEFPOINTS
  6
ByBlock
 62
     0
 48
50.0
100
AcDbPoint
 10
7319.67305712364
 20
6448.066653779702
 30
0.0
  0
ENDBLK
  5
16499
330
163C7
100
AcDbEntity
  8
0
 48
50.0
100
AcDbBlockEnd
  0
BLOCK
  5
18C46
330
163E1
100
AcDbEntity
  8
0
 48
50.0
100
AcDbBlockBegin
  2
*D11
 70
     1
 10
0.0
 20
0.0
 30
0.0
  3
*D11
  1

  0
LINE
  5
1B57A
330
163E1
100
AcDbEntity
  8
寸法
 62
     0
 48
50.0
370
    -2
100
AcDbLine
 10
5148.101915364668
 20
9832.497424545868
 30
0.0
 11
5148.101915364668
 21
10388.30564417096
 31
0.0
  0
LINE
  5
1B57B
330
163E1
100
AcDbEntity
  8
寸法
 62
     0
 48
50.0
370
    -2
100
AcDbLine
 10
7668.10191536467
 20
9832.497424545962
 30
0.0
 11
7668.10191536467
 21
10388.30564417096
 31
0.0
  0
LINE
  5
1B57C
330
163E1
100
AcDbEntity
  8
寸法
 62
     0
 48
50.0
370
    -2
100
AcDbLine
 10
5148.101915364668
 20
10328.30564417096
 30
0.0
 11
7668.10191536467
 21
10328.30564417096
 31
0.0
  0
INSERT
  5
1B57D
330
163E1
100
AcDbEntity
  8
寸法
 62
     0
 48
50.0
370
    -2
100
AcDbBlockReference
  2
_DOTSMALL
 10
5148.101915364668
 20
10328.30564417096
 30
0.0
 41
100.0
 42
100.0
 43
100.0
 50
180.0
  0
INSERT
  5
1B57E
330
163E1
100
AcDbEntity
  8
寸法
 62
     0
 48
50.0
370
    -2
100
AcDbBlockReference
  2
_DOTSMALL
 10
7668.10191536467
 20
10328.30564417096
 30
0.0
 41
100.0
 42
100.0
 43
100.0
  0
MTEXT
  5
1B57F
330
163E1
100
AcDbEntity
  8
寸法
 62
     7
 48
50.0
100
AcDbMText
 10
6408.101915364669
 20
10428.31745519458
 30
0.0
 40
120.0
 41
0.0
 71
     5
 72
     1
  1
\A1;6X420=2520
  7
STYLE1
 73
     1
 44
1.0
1001
ACAD
1000
MTEXTBEGIN
1070
    73
1070
     1
1070
    44
1040
1.0
1070
    74
1070
     0
1000
MTEXTEND
  0
POINT
  5
1B580
330
163E1
100
AcDbEntity
  8
DEFPOINTS
 62
     0
 48
50.0
100
AcDbPoint
 10
5148.101915364668
 20
9812.497424545867
 30
0.0
  0
POINT
  5
1B581
330
163E1
100
AcDbEntity
  8
DEFPOINTS
 62
     0
 48
50.0
100
AcDbPoint
 10
7668.10191536467
 20
9812.497424545961
 30
0.0
  0
POINT
  5
1B582
330
163E1
100
AcDbEntity
  8
DEFPOINTS
 62
     0
 48
50.0
100
AcDbPoint
 10
7668.10191536467
 20
10328.30564417096
 30
0.0
  0
ENDBLK
  5
18C50
330
163E1
100
AcDbEntity
  8
0
 48
50.0
100
AcDbBlockEnd
  0
BLOCK
  5
164B0
330
163ED
100
AcDbEntity
  8
0
 48
50.0
100
AcDbBlockBegin
  2
*D12
 70
     1
 10
0.0
 20
0.0
 30
0.0
  3
*D12
  1

  0
LINE
  5
1B56F
330
163ED
100
AcDbEntity
  8
寸法
 62
     0
 48
50.0
370
    -2
100
AcDbLine
 10
2463.101915364636
 20
9832.497424545721
 30
0.0
 11
2463.101915364636
 21
10388.3056441707
 31
0.0
  0
LINE
  5
1B570
330
163ED
100
AcDbEntity
  8
寸法
 62
     0
 48
50.0
370
    -2
100
AcDbLine
 10
2518.101915364669
 20
9832.497424545721
 30
0.0
 11
2518.101915364669
 21
10388.3056441707
 31
0.0
  0
LINE
  5
1B571
330
163ED
100
AcDbEntity
  8
寸法
 62
     0
 48
50.0
370
    -2
100
AcDbLine
 10
2518.101915364669
 20
10328.3056441707
 30
0.0
 11
2618.101915364669
 21
10328.3056441707
 31
0.0
  0
LINE
  5
1B572
330
163ED
100
AcDbEntity
  8
寸法
 62
     0
 48
50.0
370
    -2
100
AcDbLine
 10
2463.101915364636
 20
10328.3056441707
 30
0.0
 11
2046.131352616157
 21
10328.3056441707
 31
0.0
  0
LINE
  5
1B573
330
163ED
100
AcDbEntity
  8
寸法
 62
     0
 48
50.0
370
    -2
100
AcDbLine
 10
2518.101915364669
 20
10328.3056441707
 30
0.0
 11
2463.101915364636
 21
10328.3056441707
 31
0.0
  0
INSERT
  5
1B574
330
163ED
100
AcDbEntity
  8
寸法
 62
     0
 48
50.0
370
    -2
100
AcDbBlockReference
  2
_DOTSMALL
 10
2518.101915364669
 20
10328.3056441707
 30
0.0
 41
100.0
 42
100.0
 43
100.0
 50
180.0
  0
INSERT
  5
1B575
330
163ED
100
AcDbEntity
  8
寸法
 62
     0
 48
50.0
370
    -2
100
AcDbBlockReference
  2
_DOTSMALL
 10
2463.101915364636
 20
10328.3056441707
 30
0.0
 41
100.0
 42
100.0
 43
100.0
  0
MTEXT
  5
1B576
330
163ED
100
AcDbEntity
  8
寸法
 62
     7
 48
50.0
100
AcDbMText
 10
2154.616633990396
 20
10428.3056441707
 30
0.0
 40
120.0
 41
0.0
 71
     5
 72
     1
  1
\A1;55
  7
STYLE1
 73
     1
 44
1.0
1001
ACAD
1000
MTEXTBEGIN
1070
    73
1070
     1
1070
    44
1040
1.0
1070
    74
1070
     0
1000
MTEXTEND
  0
POINT
  5
1B577
330
163ED
100
AcDbEntity
  8
DEFPOINTS
 62
     0
 48
50.0
100
AcDbPoint
 10
2463.101915364636
 20
9812.497424545723
 30
0.0
  0
POINT
  5
1B578
330
163ED
100
AcDbEntity
  8
DEFPOINTS
 62
     0
 48
50.0
100
AcDbPoint
 10
2518.101915364669
 20
9812.497424545723
 30
0.0
  0
POINT
  5
1B579
330
163ED
100
AcDbEntity
  8
DEFPOINTS
 62
     0
 48
50.0
100
AcDbPoint
 10
2518.101915364669
 20
10328.3056441707
 30
0.0
  0
ENDBLK
  5
164BC
330
163ED
100
AcDbEntity
  8
0
 48
50.0
100
AcDbBlockEnd
  0
BLOCK
  5
164BD
330
163FB
100
AcDbEntity
  8
0
 48
50.0
100
AcDbBlockBegin
  2
*D13
 70
     1
 10
0.0
 20
0.0
 30
0.0
  3
*D13
  1

  0
LINE
  5
1B564
330
163FB
100
AcDbEntity
  8
寸法
 62
     0
 48
50.0
370
    -2
100
AcDbLine
 10
7668.10191536467
 20
9832.497424545962
 30
0.0
 11
7668.10191536467
 21
10388.30564417094
 31
0.0
  0
LINE
  5
1B565
330
163FB
100
AcDbEntity
  8
寸法
 62
     0
 48
50.0
370
    -2
100
AcDbLine
 10
7723.10191536467
 20
9832.497424545962
 30
0.0
 11
7723.10191536467
 21
10388.30564417094
 31
0.0
  0
LINE
  5
1B566
330
163FB
100
AcDbEntity
  8
寸法
 62
     0
 48
50.0
370
    -2
100
AcDbLine
 10
7668.10191536467
 20
10328.30564417094
 30
0.0
 11
7568.10191536467
 21
10328.30564417094
 31
0.0
  0
LINE
  5
1B567
330
163FB
100
AcDbEntity
  8
寸法
 62
     0
 48
50.0
370
    -2
100
AcDbLine
 10
7723.10191536467
 20
10328.30564417094
 30
0.0
 11
8140.072478113147
 21
10328.30564417094
 31
0.0
  0
LINE
  5
1B568
330
163FB
100
AcDbEntity
  8
寸法
 62
     0
 48
50.0
370
    -2
100
AcDbLine
 10
7668.10191536467
 20
10328.30564417094
 30
0.0
 11
7723.10191536467
 21
10328.30564417094
 31
0.0
  0
INSERT
  5
1B569
330
163FB
100
AcDbEntity
  8
寸法
 62
     0
 48
50.0
370
    -2
100
AcDbBlockReference
  2
_DOTSMALL
 10
7668.10191536467
 20
10328.30564417094
 30
0.0
 41
100.0
 42
100.0
 43
100.0
  0
INSERT
  5
1B56A
330
163FB
100
AcDbEntity
  8
寸法
 62
     0
 48
50.0
370
    -2
100
AcDbBlockReference
  2
_DOTSMALL
 10
7723.10191536467
 20
10328.30564417094
 30
0.0
 41
100.0
 42
100.0
 43
100.0
 50
180.0
  0
MTEXT
  5
1B56B
330
163FB
100
AcDbEntity
  8
寸法
 62
     7
 48
50.0
100
AcDbMText
 10
8031.587196738909
 20
10428.30564417094
 30
0.0
 40
120.0
 41
0.0
 71
     5
 72
     1
  1
\A1;55
  7
STYLE1
 73
     1
 44
1.0
1001
ACAD
1000
MTEXTBEGIN
1070
    73
1070
     1
1070
    44
1040
1.0
1070
    74
1070
     0
1000
MTEXTEND
  0
POINT
  5
1B56C
330
163FB
100
AcDbEntity
  8
DEFPOINTS
 62
     0
 48
50.0
100
AcDbPoint
 10
7668.10191536467
 20
9812.497424545961
 30
0.0
  0
POINT
  5
1B56D
330
163FB
100
AcDbEntity
  8
DEFPOINTS
 62
     0
 48
50.0
100
AcDbPoint
 10
7723.10191536467
 20
9812.497424545961
 30
0.0
  0
POINT
  5
1B56E
330
163FB
100
AcDbEntity
  8
DEFPOINTS
 62
     0
 48
50.0
100
AcDbPoint
 10
7723.10191536467
 20
10328.30564417094
 30
0.0
  0
ENDBLK
  5
164C9
330
163FB
100
AcDbEntity
  8
0
 48
50.0
100
AcDbBlockEnd
  0
BLOCK
  5
165B6
330
165B5
100
AcDbEntity
  8
0
 48
50.0
100
AcDbBlockBegin
  2
*D14
 70
     1
 10
0.0
 20
0.0
 30
0.0
  3
*D14
  1

  0
LINE
  5
165B7
330
165B5
100
AcDbEntity
  8
0
  6
ByBlock
 62
     0
 48
50.0
100
AcDbLine
 10
6162.673057123657
 20
6988.497424545865
 30
0.0
 11
6162.673057123657
 21
6388.0666537797
 31
0.0
  0
LINE
  5
165B8
330
165B5
100
AcDbEntity
  8
0
  6
ByBlock
 62
     0
 48
50.0
100
AcDbLine
 10
6114.673057123653
 20
6962.497424545865
 30
0.0
 11
6114.673057123653
 21
6388.0666537797
 31
0.0
  0
LINE
  5
165B9
330
165B5
100
AcDbEntity
  8
0
  6
ByBlock
 62
     0
 48
50.0
100
AcDbLine
 10
6162.673057123657
 20
6448.066653779701
 30
0.0
 11
6262.673057123657
 21
6448.066653779701
 31
0.0
  0
LINE
  5
165BA
330
165B5
100
AcDbEntity
  8
0
  6
ByBlock
 62
     0
 48
50.0
100
AcDbLine
 10
6114.673057123653
 20
6448.066653779701
 30
0.0
 11
6014.673057123653
 21
6448.066653779701
 31
0.0
  0
MTEXT
  5
165BB
330
165B5
100
AcDbEntity
  8
0
  6
ByBlock
 62
     7
 48
50.0
100
AcDbMText
 10
6275.575028123714
 20
6548.0666537797
 30
0.0
 40
120.0
 41
0.0
 71
     5
 72
     1
  1
\A1;48
  7
STYLE1
 73
     1
 44
1.0
1001
ACAD
1000
MTEXTBEGIN
1070
    73
1070
     1
1070
    44
1040
1.0
1070
    74
1070
     0
1000
MTEXTEND
  0
LINE
  5
165BC
330
165B5
100
AcDbEntity
  8
0
  6
ByBlock
 62
     0
 48
50.0
100
AcDbLine
 10
6162.673057123657
 20
6448.066653779701
 30
0.0
 11
6114.673057123653
 21
6448.066653779701
 31
0.0
  0
LINE
  5
165BD
330
165B5
100
AcDbEntity
  8
0
  6
ByBlock
 62
     0
 48
50.0
100
AcDbLine
 10
6162.673057123657
 20
6448.066653779701
 30
0.0
 11
6114.673057123653
 21
6448.066653779701
 31
0.0
  0
INSERT
  5
165BE
330
165B5
100
AcDbEntity
  8
0
  6
ByBlock
 62
     0
 48
50.0
100
AcDbBlockReference
  2
_DOTSMALL
 10
6162.673057123657
 20
6448.066653779701
 30
0.0
 41
100.0
 42
100.0
 43
100.0
 50
180.0
  0
INSERT
  5
165BF
330
165B5
100
AcDbEntity
  8
0
  6
ByBlock
 62
     0
 48
50.0
100
AcDbBlockReference
  2
_DOTSMALL
 10
6114.673057123653
 20
6448.066653779701
 30
0.0
 41
100.0
 42
100.0
 43
100.0
  0
POINT
  5
165C0
330
165B5
100
AcDbEntity
  8
DEFPOINTS
  6
ByBlock
 62
     0
 48
50.0
100
AcDbPoint
 10
6162.673057123657
 20
7008.497424545864
 30
0.0
  0
POINT
  5
165C1
330
165B5
100
AcDbEntity
  8
DEFPOINTS
  6
ByBlock
 62
     0
 48
50.0
100
AcDbPoint
 10
6114.673057123653
 20
6982.497424545865
 30
0.0
  0
POINT
  5
165C2
330
165B5
100
AcDbEntity
  8
DEFPOINTS
  6
ByBlock
 62
     0
 48
50.0
100
AcDbPoint
 10
6114.673057123653
 20
6448.066653779701
 30
0.0
  0
ENDBLK
  5
165C3
330
165B5
100
AcDbEntity
  8
0
 48
50.0
100
AcDbBlockEnd
  0
BLOCK
  5
165C5
330
165C4
100
AcDbEntity
  8
0
 48
50.0
100
AcDbBlockBegin
  2
*D15
 70
     1
 10
0.0
 20
0.0
 30
0.0
  3
*D15
  1

  0
LINE
  5
165C6
330
165C4
100
AcDbEntity
  8
0
  6
ByBlock
 62
     0
 48
50.0
100
AcDbLine
 10
8634.67305712364
 20
6962.497424545952
 30
0.0
 11
8634.67305712364
 21
6388.0666537797
 31
0.0
  0
LINE
  5
165C7
330
165C4
100
AcDbEntity
  8
0
  6
ByBlock
 62
     0
 48
50.0
100
AcDbLine
 10
8586.673057123638
 20
6988.497424545865
 30
0.0
 11
8586.673057123638
 21
6388.0666537797
 31
0.0
  0
LINE
  5
165C8
330
165C4
100
AcDbEntity
  8
0
  6
ByBlock
 62
     0
 48
50.0
100
AcDbLine
 10
8634.67305712364
 20
6448.066653779701
 30
0.0
 11
8734.673057123641
 21
6448.066653779701
 31
0.0
  0
LINE
  5
165C9
330
165C4
100
AcDbEntity
  8
0
  6
ByBlock
 62
     0
 48
50.0
100
AcDbLine
 10
8586.673057123638
 20
6448.066653779701
 30
0.0
 11
8486.673057123638
 21
6448.066653779701
 31
0.0
  0
MTEXT
  5
165CA
330
165C4
100
AcDbEntity
  8
0
  6
ByBlock
 62
     7
 48
50.0
100
AcDbMText
 10
8475.710159474891
 20
6548.0666537797
 30
0.0
 40
120.0
 41
0.0
 71
     5
 72
     1
  1
\A1;48
  7
STYLE1
 73
     1
 44
1.0
1001
ACAD
1000
MTEXTBEGIN
1070
    73
1070
     1
1070
    44
1040
1.0
1070
    74
1070
     0
1000
MTEXTEND
  0
LINE
  5
165CB
330
165C4
100
AcDbEntity
  8
0
  6
ByBlock
 62
     0
 48
50.0
100
AcDbLine
 10
8634.67305712364
 20
6448.066653779701
 30
0.0
 11
8586.673057123638
 21
6448.066653779701
 31
0.0
  0
LINE
  5
165CC
330
165C4
100
AcDbEntity
  8
0
  6
ByBlock
 62
     0
 48
50.0
100
AcDbLine
 10
8634.67305712364
 20
6448.066653779701
 30
0.0
 11
8586.673057123638
 21
6448.066653779701
 31
0.0
  0
INSERT
  5
165CD
330
165C4
100
AcDbEntity
  8
0
  6
ByBlock
 62
     0
 48
50.0
100
AcDbBlockReference
  2
_DOTSMALL
 10
8634.67305712364
 20
6448.066653779701
 30
0.0
 41
100.0
 42
100.0
 43
100.0
 50
180.0
  0
INSERT
  5
165CE
330
165C4
100
AcDbEntity
  8
0
  6
ByBlock
 62
     0
 48
50.0
100
AcDbBlockReference
  2
_DOTSMALL
 10
8586.673057123638
 20
6448.066653779701
 30
0.0
 41
100.0
 42
100.0
 43
100.0
  0
POINT
  5
165CF
330
165C4
100
AcDbEntity
  8
DEFPOINTS
  6
ByBlock
 62
     0
 48
50.0
100
AcDbPoint
 10
8634.67305712364
 20
6982.497424545953
 30
0.0
  0
POINT
  5
165D0
330
165C4
100
AcDbEntity
  8
DEFPOINTS
  6
ByBlock
 62
     0
 48
50.0
100
AcDbPoint
 10
8586.673057123638
 20
7008.497424545865
 30
0.0
  0
POINT
  5
165D1
330
165C4
100
AcDbEntity
  8
DEFPOINTS
  6
ByBlock
 62
     0
 48
50.0
100
AcDbPoint
 10
8586.673057123638
 20
6448.066653779701
 30
0.0
  0
ENDBLK
  5
165D2
330
165C4
100
AcDbEntity
  8
0
 48
50.0
100
AcDbBlockEnd
  0
BLOCK
  5
1663F
330
165EA
100
AcDbEntity
  8
0
 48
50.0
100
AcDbBlockBegin
  2
*D16
 70
     1
 10
0.0
 20
0.0
 30
0.0
  3
*D16
  1

  0
LINE
  5
16640
330
165EA
100
AcDbEntity
  8
0
  6
ByBlock
 62
     0
 48
50.0
100
AcDbLine
 10
6114.673057123653
 20
7222.497424545863
 30
0.0
 11
6114.673057123653
 21
6648.066653779702
 31
0.0
  0
LINE
  5
16641
330
165EA
100
AcDbEntity
  8
0
  6
ByBlock
 62
     0
 48
50.0
100
AcDbLine
 10
6004.67305712364
 20
7222.497424545952
 30
0.0
 11
6004.67305712364
 21
6648.066653779702
 31
0.0
  0
LINE
  5
16642
330
165EA
100
AcDbEntity
  8
0
  6
ByBlock
 62
     0
 48
50.0
100
AcDbLine
 10
6114.673057123653
 20
6708.066653779702
 30
0.0
 11
6004.67305712364
 21
6708.066653779702
 31
0.0
  0
MTEXT
  5
16643
330
165EA
100
AcDbEntity
  8
0
  6
ByBlock
 62
     7
 48
50.0
100
AcDbMText
 10
6059.673057123647
 20
6556.37475874347
 30
0.0
 40
120.0
 41
0.0
 71
     5
 72
     1
  1
\A1;110
  7
STYLE1
 73
     1
 44
1.0
1001
ACAD
1000
MTEXTBEGIN
1070
    73
1070
     1
1070
    44
1040
1.0
1070
    74
1070
     0
1000
MTEXTEND
  0
INSERT
  5
16644
330
165EA
100
AcDbEntity
  8
0
  6
ByBlock
 62
     0
 48
50.0
100
AcDbBlockReference
  2
_DOTSMALL
 10
6114.673057123653
 20
6708.066653779702
 30
0.0
 41
100.0
 42
100.0
 43
100.0
  0
INSERT
  5
16645
330
165EA
100
AcDbEntity
  8
0
  6
ByBlock
 62
     0
 48
50.0
100
AcDbBlockReference
  2
_DOTSMALL
 10
6004.67305712364
 20
6708.066653779702
 30
0.0
 41
100.0
 42
100.0
 43
100.0
 50
180.0
  0
POINT
  5
16646
330
165EA
100
AcDbEntity
  8
DEFPOINTS
  6
ByBlock
 62
     0
 48
50.0
100
AcDbPoint
 10
6114.673057123653
 20
7242.497424545864
 30
0.0
  0
POINT
  5
16647
330
165EA
100
AcDbEntity
  8
DEFPOINTS
  6
ByBlock
 62
     0
 48
50.0
100
AcDbPoint
 10
6004.67305712364
 20
7242.497424545952
 30
0.0
  0
POINT
  5
16648
330
165EA
100
AcDbEntity
  8
DEFPOINTS
  6
ByBlock
 62
     0
 48
50.0
100
AcDbPoint
 10
6004.67305712364
 20
6708.066653779702
 30
0.0
  0
ENDBLK
  5
16649
330
165EA
100
AcDbEntity
  8
0
 48
50.0
100
AcDbBlockEnd
  0
BLOCK
  5
166D0
330
166CF
100
AcDbEntity
  8
0
 48
50.0
100
AcDbBlockBegin
  2
*D17
 70
     1
 10
0.0
 20
0.0
 30
0.0
  3
*D17
  1

  0
LINE
  5
1B559
330
166CF
100
AcDbEntity
  8
寸法
 62
     0
 48
50.0
370
    -2
100
AcDbLine
 10
5148.101915364668
 20
9832.497424545916
 30
0.0
 11
5148.101915364668
 21
10388.30564417096
 31
0.0
  0
LINE
  5
1B55A
330
166CF
100
AcDbEntity
  8
寸法
 62
     0
 48
50.0
370
    -2
100
AcDbLine
 10
5038.10191536467
 20
9832.497424545913
 30
0.0
 11
5038.10191536467
 21
10388.30564417096
 31
0.0
  0
LINE
  5
1B55B
330
166CF
100
AcDbEntity
  8
寸法
 62
     0
 48
50.0
370
    -2
100
AcDbLine
 10
5148.101915364668
 20
10328.30564417096
 30
0.0
 11
5248.101915364668
 21
10328.30564417096
 31
0.0
  0
LINE
  5
1B55C
330
166CF
100
AcDbEntity
  8
寸法
 62
     0
 48
50.0
370
    -2
100
AcDbLine
 10
5038.10191536467
 20
10328.30564417096
 30
0.0
 11
4938.10191536467
 21
10328.30564417096
 31
0.0
  0
LINE
  5
1B55D
330
166CF
100
AcDbEntity
  8
寸法
 62
     0
 48
50.0
370
    -2
100
AcDbLine
 10
5148.101915364668
 20
10328.30564417096
 30
0.0
 11
5038.10191536467
 21
10328.30564417096
 31
0.0
  0
INSERT
  5
1B55E
330
166CF
100
AcDbEntity
  8
寸法
 62
     0
 48
50.0
370
    -2
100
AcDbBlockReference
  2
_DOTSMALL
 10
5148.101915364668
 20
10328.30564417096
 30
0.0
 41
100.0
 42
100.0
 43
100.0
 50
180.0
  0
INSERT
  5
1B55F
330
166CF
100
AcDbEntity
  8
寸法
 62
     0
 48
50.0
370
    -2
100
AcDbBlockReference
  2
_DOTSMALL
 10
5038.10191536467
 20
10328.30564417096
 30
0.0
 41
100.0
 42
100.0
 43
100.0
  0
MTEXT
  5
1B560
330
166CF
100
AcDbEntity
  8
寸法
 62
     7
 48
50.0
100
AcDbMText
 10
5093.10191536467
 20
10428.30564417096
 30
0.0
 40
120.0
 41
0.0
 71
     5
 72
     1
  1
\A1;110
  7
STYLE1
 73
     1
 44
1.0
1001
ACAD
1000
MTEXTBEGIN
1070
    73
1070
     1
1070
    44
1040
1.0
1070
    74
1070
     0
1000
MTEXTEND
  0
POINT
  5
1B561
330
166CF
100
AcDbEntity
  8
DEFPOINTS
 62
     0
 48
50.0
100
AcDbPoint
 10
5148.101915364668
 20
9812.497424545917
 30
0.0
  0
POINT
  5
1B562
330
166CF
100
AcDbEntity
  8
DEFPOINTS
 62
     0
 48
50.0
100
AcDbPoint
 10
5038.10191536467
 20
9812.497424545913
 30
0.0
  0
POINT
  5
1B563
330
166CF
100
AcDbEntity
  8
DEFPOINTS
 62
     0
 48
50.0
100
AcDbPoint
 10
5038.10191536467
 20
10328.30564417096
 30
0.0
  0
ENDBLK
  5
166DC
330
166CF
100
AcDbEntity
  8
0
 48
50.0
100
AcDbBlockEnd
  0
BLOCK
  5
185E4
330
16908
100
AcDbEntity
  8
0
 48
50.0
100
AcDbBlockBegin
  2
*D18
 70
     1
 10
0.0
 20
0.0
 30
0.0
  3
*D18
  1

  0
LINE
  5
1B550
330
16908
100
AcDbEntity
  8
寸法
 62
     0
 48
50.0
370
    -2
100
AcDbLine
 10
5093.10191536467
 20
10507.29355852891
 30
0.0
 11
5093.10191536467
 21
10637.62711772726
 31
0.0
  0
LINE
  5
1B551
330
16908
100
AcDbEntity
  8
寸法
 62
     0
 48
50.0
370
    -2
100
AcDbLine
 10
7723.10191536467
 20
9832.497424545962
 30
0.0
 11
7723.10191536467
 21
10637.62711772726
 31
0.0
  0
LINE
  5
1B552
330
16908
100
AcDbEntity
  8
寸法
 62
     0
 48
50.0
370
    -2
100
AcDbLine
 10
5093.10191536467
 20
10577.62711772726
 30
0.0
 11
7723.10191536467
 21
10577.62711772726
 31
0.0
  0
INSERT
  5
1B553
330
16908
100
AcDbEntity
  8
寸法
 62
     0
 48
50.0
370
    -2
100
AcDbBlockReference
  2
_DOTSMALL
 10
5093.10191536467
 20
10577.62711772726
 30
0.0
 41
100.0
 42
100.0
 43
100.0
 50
180.0
  0
INSERT
  5
1B554
330
16908
100
AcDbEntity
  8
寸法
 62
     0
 48
50.0
370
    -2
100
AcDbBlockReference
  2
_DOTSMALL
 10
7723.10191536467
 20
10577.62711772726
 30
0.0
 41
100.0
 42
100.0
 43
100.0
  0
MTEXT
  5
1B555
330
16908
100
AcDbEntity
  8
寸法
 62
     7
 48
50.0
100
AcDbMText
 10
6408.101915364671
 20
10677.63892875088
 30
0.0
 40
120.0
 41
0.0
 71
     5
 72
     1
  1
\A1;2630
  7
STYLE1
 73
     1
 44
1.0
1001
ACAD
1000
MTEXTBEGIN
1070
    73
1070
     1
1070
    44
1040
1.0
1070
    74
1070
     0
1000
MTEXTEND
  0
POINT
  5
1B556
330
16908
100
AcDbEntity
  8
DEFPOINTS
 62
     0
 48
50.0
100
AcDbPoint
 10
5093.10191536467
 20
10487.29355852891
 30
0.0
  0
POINT
  5
1B557
330
16908
100
AcDbEntity
  8
DEFPOINTS
 62
     0
 48
50.0
100
AcDbPoint
 10
7723.10191536467
 20
9812.497424545961
 30
0.0
  0
POINT
  5
1B558
330
16908
100
AcDbEntity
  8
DEFPOINTS
 62
     0
 48
50.0
100
AcDbPoint
 10
7723.10191536467
 20
10577.62711772726
 30
0.0
  0
ENDBLK
  5
185EE
330
16908
100
AcDbEntity
  8
0
 48
50.0
100
AcDbBlockEnd
  0
BLOCK
  5
17CC2
330
17CC1
100
AcDbEntity
  8
0
 48
50.0
100
AcDbBlockBegin
  2
*D19
 70
     1
 10
0.0
 20
0.0
 30
0.0
  3
*D19
  1

  0
LINE
  5
17CC3
330
17CC1
100
AcDbEntity
  8
0
  6
ByBlock
 62
     0
 48
50.0
100
AcDbLine
 10
7285.137356965249
 20
7122.497424545952
 30
0.0
 11
7285.137356965249
 21
6548.0666537797
 31
0.0
  0
LINE
  5
17CC4
330
17CC1
100
AcDbEntity
  8
0
  6
ByBlock
 62
     0
 48
50.0
100
AcDbLine
 10
7237.137356965248
 20
7148.497424545865
 30
0.0
 11
7237.137356965248
 21
6548.0666537797
 31
0.0
  0
LINE
  5
17CC5
330
17CC1
100
AcDbEntity
  8
0
  6
ByBlock
 62
     0
 48
50.0
100
AcDbLine
 10
7285.137356965249
 20
6608.0666537797
 30
0.0
 11
7385.137356965249
 21
6608.0666537797
 31
0.0
  0
LINE
  5
17CC6
330
17CC1
100
AcDbEntity
  8
0
  6
ByBlock
 62
     0
 48
50.0
100
AcDbLine
 10
7237.137356965248
 20
6608.0666537797
 30
0.0
 11
7137.137356965247
 21
6608.0666537797
 31
0.0
  0
MTEXT
  5
17CC7
330
17CC1
100
AcDbEntity
  8
0
  6
ByBlock
 62
     7
 48
50.0
100
AcDbMText
 10
7126.174459316501
 20
6708.0666537797
 30
0.0
 40
120.0
 41
0.0
 71
     5
 72
     1
  1
\A1;48
  7
STYLE1
 73
     1
 44
1.0
1001
ACAD
1000
MTEXTBEGIN
1070
    73
1070
     1
1070
    44
1040
1.0
1070
    74
1070
     0
1000
MTEXTEND
  0
LINE
  5
17CC8
330
17CC1
100
AcDbEntity
  8
0
  6
ByBlock
 62
     0
 48
50.0
100
AcDbLine
 10
7285.137356965249
 20
6608.0666537797
 30
0.0
 11
7237.137356965248
 21
6608.0666537797
 31
0.0
  0
LINE
  5
17CC9
330
17CC1
100
AcDbEntity
  8
0
  6
ByBlock
 62
     0
 48
50.0
100
AcDbLine
 10
7285.137356965249
 20
6608.0666537797
 30
0.0
 11
7237.137356965248
 21
6608.0666537797
 31
0.0
  0
INSERT
  5
17CCA
330
17CC1
100
AcDbEntity
  8
0
  6
ByBlock
 62
     0
 48
50.0
100
AcDbBlockReference
  2
_DOTSMALL
 10
7285.137356965249
 20
6608.0666537797
 30
0.0
 41
100.0
 42
100.0
 43
100.0
 50
180.0
  0
INSERT
  5
17CCB
330
17CC1
100
AcDbEntity
  8
0
  6
ByBlock
 62
     0
 48
50.0
100
AcDbBlockReference
  2
_DOTSMALL
 10
7237.137356965248
 20
6608.0666537797
 30
0.0
 41
100.0
 42
100.0
 43
100.0
  0
POINT
  5
17CCC
330
17CC1
100
AcDbEntity
  8
DEFPOINTS
  6
ByBlock
 62
     0
 48
50.0
100
AcDbPoint
 10
7285.137356965249
 20
7142.497424545952
 30
0.0
  0
POINT
  5
17CCD
330
17CC1
100
AcDbEntity
  8
DEFPOINTS
  6
ByBlock
 62
     0
 48
50.0
100
AcDbPoint
 10
7237.137356965248
 20
7168.497424545865
 30
0.0
  0
POINT
  5
17CCE
330
17CC1
100
AcDbEntity
  8
DEFPOINTS
  6
ByBlock
 62
     0
 48
50.0
100
AcDbPoint
 10
7237.137356965248
 20
6608.0666537797
 30
0.0
  0
ENDBLK
  5
17CCF
330
17CC1
100
AcDbEntity
  8
0
 48
50.0
100
AcDbBlockEnd
  0
BLOCK
  5
185A4
330
17CD0
100
AcDbEntity
  8
0
 48
50.0
100
AcDbBlockBegin
  2
*D20
 70
     1
 10
0.0
 20
0.0
 30
0.0
  3
*D20
  1

  0
LINE
  5
185A5
330
17CD0
100
AcDbEntity
  8
0
  6
ByBlock
 62
     0
 48
50.0
100
AcDbLine
 10
1433.137356965266
 20
7148.497424545865
 30
0.0
 11
1433.137356965266
 21
6548.0666537797
 31
0.0
  0
LINE
  5
185A6
330
17CD0
100
AcDbEntity
  8
0
  6
ByBlock
 62
     0
 48
50.0
100
AcDbLine
 10
3857.137356965248
 20
6608.0666537797
 30
0.0
 11
1433.137356965266
 21
6608.0666537797
 31
0.0
  0
INSERT
  5
185A7
330
17CD0
100
AcDbEntity
  8
0
  6
ByBlock
 62
     0
 48
50.0
100
AcDbBlockReference
  2
_DOTSMALL
 10
3857.137356965248
 20
6608.0666537797
 30
0.0
 41
100.0
 42
100.0
 43
100.0
  0
INSERT
  5
185A8
330
17CD0
100
AcDbEntity
  8
0
  6
ByBlock
 62
     0
 48
50.0
100
AcDbBlockReference
  2
_DOTSMALL
 10
1433.137356965266
 20
6608.0666537797
 30
0.0
 41
100.0
 42
100.0
 43
100.0
 50
180.0
  0
MTEXT
  5
185A9
330
17CD0
100
AcDbEntity
  8
0
  6
ByBlock
 62
     7
 48
50.0
100
AcDbMText
 10
2645.137356965257
 20
6708.078464803323
 30
0.0
 40
120.0
 41
0.0
 71
     5
 72
     1
  1
\A1;有効開口部間口 2424
  7
STYLE1
 73
     1
 44
1.0
1001
ACAD
1000
MTEXTBEGIN
1070
    73
1070
     1
1070
    44
1040
1.0
1070
    74
1070
     0
1000
MTEXTEND
  0
POINT
  5
185AA
330
17CD0
100
AcDbEntity
  8
DEFPOINTS
  6
ByBlock
 62
     0
 48
50.0
100
AcDbPoint
 10
3857.137356965248
 20
7168.497424545865
 30
0.0
  0
POINT
  5
185AB
330
17CD0
100
AcDbEntity
  8
DEFPOINTS
  6
ByBlock
 62
     0
 48
50.0
100
AcDbPoint
 10
1433.137356965266
 20
7168.497424545865
 30
0.0
  0
POINT
  5
185AC
330
17CD0
100
AcDbEntity
  8
DEFPOINTS
  6
ByBlock
 62
     0
 48
50.0
100
AcDbPoint
 10
1433.137356965266
 20
6608.0666537797
 30
0.0
  0
ENDBLK
  5
185AD
330
17CD0
100
AcDbEntity
  8
0
 48
50.0
100
AcDbBlockEnd
  0
BLOCK
  5
18599
330
17D01
100
AcDbEntity
  8
0
 48
50.0
100
AcDbBlockBegin
  2
*D21
 70
     1
 10
0.0
 20
0.0
 30
0.0
  3
*D21
  1

  0
LINE
  5
1B547
330
17D01
100
AcDbEntity
  8
寸法
 62
     0
 48
50.0
370
    -2
100
AcDbLine
 10
2463.101915364636
 20
9832.497424545689
 30
0.0
 11
2463.101915364636
 21
10637.62711772711
 31
0.0
  0
LINE
  5
1B548
330
17D01
100
AcDbEntity
  8
寸法
 62
     0
 48
50.0
370
    -2
100
AcDbLine
 10
5093.10191536467
 20
10507.29355852876
 30
0.0
 11
5093.10191536467
 21
10637.62711772711
 31
0.0
  0
LINE
  5
1B549
330
17D01
100
AcDbEntity
  8
寸法
 62
     0
 48
50.0
370
    -2
100
AcDbLine
 10
2463.101915364636
 20
10577.62711772711
 30
0.0
 11
5093.10191536467
 21
10577.62711772711
 31
0.0
  0
INSERT
  5
1B54A
330
17D01
100
AcDbEntity
  8
寸法
 62
     0
 48
50.0
370
    -2
100
AcDbBlockReference
  2
_DOTSMALL
 10
2463.101915364636
 20
10577.62711772711
 30
0.0
 41
100.0
 42
100.0
 43
100.0
 50
180.0
  0
INSERT
  5
1B54B
330
17D01
100
AcDbEntity
  8
寸法
 62
     0
 48
50.0
370
    -2
100
AcDbBlockReference
  2
_DOTSMALL
 10
5093.10191536467
 20
10577.62711772711
 30
0.0
 41
100.0
 42
100.0
 43
100.0
  0
MTEXT
  5
1B54C
330
17D01
100
AcDbEntity
  8
寸法
 62
     7
 48
50.0
100
AcDbMText
 10
3778.101915364653
 20
10677.63892875073
 30
0.0
 40
120.0
 41
0.0
 71
     5
 72
     1
  1
\A1;2630
  7
STYLE1
 73
     1
 44
1.0
1001
ACAD
1000
MTEXTBEGIN
1070
    73
1070
     1
1070
    44
1040
1.0
1070
    74
1070
     0
1000
MTEXTEND
  0
POINT
  5
1B54D
330
17D01
100
AcDbEntity
  8
DEFPOINTS
 62
     0
 48
50.0
100
AcDbPoint
 10
2463.101915364636
 20
9812.497424545689
 30
0.0
  0
POINT
  5
1B54E
330
17D01
100
AcDbEntity
  8
DEFPOINTS
 62
     0
 48
50.0
100
AcDbPoint
 10
5093.10191536467
 20
10487.29355852876
 30
0.0
  0
POINT
  5
1B54F
330
17D01
100
AcDbEntity
  8
DEFPOINTS
 62
     0
 48
50.0
100
AcDbPoint
 10
5093.10191536467
 20
10577.62711772711
 30
0.0
  0
ENDBLK
  5
185A3
330
17D01
100
AcDbEntity
  8
0
 48
50.0
100
AcDbBlockEnd
  0
BLOCK
  5
1A039
330
1A038
100
AcDbEntity
  8
0
 48
50.0
100
AcDbBlockBegin
  2
*D22
 70
     1
 10
0.0
 20
0.0
 30
0.0
  3
*D22
  1

  0
LINE
  5
1B53E
330
1A038
100
AcDbEntity
  8
寸法
 62
     0
 48
50.0
370
    -2
100
AcDbLine
 10
2518.101915364669
 20
9832.497424545721
 30
0.0
 11
2518.101915364669
 21
10388.30564417082
 31
0.0
  0
LINE
  5
1B53F
330
1A038
100
AcDbEntity
  8
寸法
 62
     0
 48
50.0
370
    -2
100
AcDbLine
 10
5038.10191536467
 20
9832.497424545817
 30
0.0
 11
5038.10191536467
 21
10388.30564417082
 31
0.0
  0
LINE
  5
1B540
330
1A038
100
AcDbEntity
  8
寸法
 62
     0
 48
50.0
370
    -2
100
AcDbLine
 10
2518.101915364669
 20
10328.30564417082
 30
0.0
 11
5038.10191536467
 21
10328.30564417082
 31
0.0
  0
INSERT
  5
1B541
330
1A038
100
AcDbEntity
  8
寸法
 62
     0
 48
50.0
370
    -2
100
AcDbBlockReference
  2
_DOTSMALL
 10
2518.101915364669
 20
10328.30564417082
 30
0.0
 41
100.0
 42
100.0
 43
100.0
 50
180.0
  0
INSERT
  5
1B542
330
1A038
100
AcDbEntity
  8
寸法
 62
     0
 48
50.0
370
    -2
100
AcDbBlockReference
  2
_DOTSMALL
 10
5038.10191536467
 20
10328.30564417082
 30
0.0
 41
100.0
 42
100.0
 43
100.0
  0
MTEXT
  5
1B543
330
1A038
100
AcDbEntity
  8
寸法
 62
     7
 48
50.0
100
AcDbMText
 10
3778.10191536467
 20
10428.31745519444
 30
0.0
 40
120.0
 41
0.0
 71
     5
 72
     1
  1
\A1;6X420=2520
  7
STYLE1
 73
     1
 44
1.0
1001
ACAD
1000
MTEXTBEGIN
1070
    73
1070
     1
1070
    44
1040
1.0
1070
    74
1070
     0
1000
MTEXTEND
  0
POINT
  5
1B544
330
1A038
100
AcDbEntity
  8
DEFPOINTS
 62
     0
 48
50.0
100
AcDbPoint
 10
2518.101915364669
 20
9812.497424545723
 30
0.0
  0
POINT
  5
1B545
330
1A038
100
AcDbEntity
  8
DEFPOINTS
 62
     0
 48
50.0
100
AcDbPoint
 10
5038.10191536467
 20
9812.497424545817
 30
0.0
  0
POINT
  5
1B546
330
1A038
100
AcDbEntity
  8
DEFPOINTS
 62
     0
 48
50.0
100
AcDbPoint
 10
5038.10191536467
 20
10328.30564417082
 30
0.0
  0
ENDBLK
  5
1A043
330
1A038
100
AcDbEntity
  8
0
 48
50.0
100
AcDbBlockEnd
  0
BLOCK
  5
1A14D
330
1A143
100
AcDbEntity
  8
0
 48
50.0
100
AcDbBlockBegin
  2
*D23
 70
     1
 10
0.0
 20
0.0
 30
0.0
  3
*D23
  1

  0
LINE
  5
1A144
330
1A143
100
AcDbEntity
  8
0
  6
ByBlock
 62
     0
 48
50.0
100
AcDbLine
 10
7366.173057123664
 20
8737.138440697341
 30
0.0
 11
7761.530782985689
 21
8631.202657331206
 31
0.0
  0
LINE
  5
1A145
330
1A143
100
AcDbEntity
  8
0
  6
ByBlock
 62
     0
 48
50.0
100
AcDbLine
 10
7366.173057123664
 20
8287.138440697345
 30
0.0
 11
7761.530782985689
 21
8181.20265733121
 31
0.0
  0
LINE
  5
1A146
330
1A143
100
AcDbEntity
  8
0
  6
ByBlock
 62
     0
 48
50.0
100
AcDbLine
 10
7701.530782985688
 20
8647.279608877074
 30
0.0
 11
7701.530782985688
 21
8197.279608877078
 31
0.0
  0
INSERT
  5
1A147
330
1A143
100
AcDbEntity
  8
0
  6
ByBlock
 62
     0
 48
50.0
100
AcDbBlockReference
  2
_DOTSMALL
 10
7701.530782985688
 20
8647.279608877074
 30
0.0
 41
100.0
 42
100.0
 43
100.0
 50
90.0
  0
INSERT
  5
1A148
330
1A143
100
AcDbEntity
  8
0
  6
ByBlock
 62
     0
 48
50.0
100
AcDbBlockReference
  2
_DOTSMALL
 10
7701.530782985688
 20
8197.279608877078
 30
0.0
 41
100.0
 42
100.0
 43
100.0
 50
270.0
  0
MTEXT
  5
1A149
330
1A143
100
AcDbEntity
  8
0
  6
ByBlock
 62
     7
 48
50.0
100
AcDbMText
 10
7601.530782985688
 20
8422.279608877076
 30
0.0
 40
120.0
 41
0.0
 71
     5
 72
     1
  1
\A1;450
  7
STYLE1
 11
0.0000000000000001
 21
1.0
 31
0.0
 73
     1
 44
1.0
1001
ACAD
1000
MTEXTBEGIN
1070
    73
1070
     1
1070
    44
1040
1.0
1070
    74
1070
     0
1000
MTEXTEND
  0
POINT
  5
1A14A
330
1A143
100
AcDbEntity
  8
DEFPOINTS
  6
ByBlock
 62
     0
 48
50.0
100
AcDbPoint
 10
7346.173057123664
 20
8742.497424545964
 30
0.0
  0
POINT
  5
1A14B
330
1A143
100
AcDbEntity
  8
DEFPOINTS
  6
ByBlock
 62
     0
 48
50.0
100
AcDbPoint
 10
7346.173057123664
 20
8292.497424545967
 30
0.0
  0
POINT
  5
1A14C
330
1A143
100
AcDbEntity
  8
DEFPOINTS
  6
ByBlock
 62
     0
 48
50.0
100
AcDbPoint
 10
7701.530782985688
 20
8197.279608877078
 30
0.0
  0
ENDBLK
  5
1A14E
330
1A143
100
AcDbEntity
  8
0
 48
50.0
100
AcDbBlockEnd
  0
BLOCK
  5
1A151
330
1A14F
100
AcDbEntity
  8
0
 48
50.0
100
AcDbBlockBegin
  2
A$C45D91A2E
 70
     0
 10
0.0
 20
0.0
 30
0.0
  3
A$C45D91A2E
  1

  0
DIMENSION
  5
1A150
330
1A14F
100
AcDbEntity
  8
寸法
100
AcDbDimension
  2
*D23
 10
355.3577095761848
 20
16.07693845800531
 30
0.0
 11
255.3577095761848
 21
661.0769384580034
 31
0.0
 12
-7346.173073409504
 22
-8181.202670419073
 32
0.0
 71
     5
 42
-1.0
  3
INABA_S40G
100
AcDbAlignedDimension
 13
-0.0000162858395925
 23
561.2947541268913
 33
0.0
 14
-0.0000162858395925
 24
111.294754126895
 34
0.0
 50
90.0
100
AcDbRotatedDimension
1001
ACAD
1000
DSTYLE
1002
{
1002
}
  0
ENDBLK
  5
1A152
330
1A14F
100
AcDbEntity
  8
0
 48
50.0
100
AcDbBlockEnd
  0
BLOCK
  5
1A9C5
330
1A9BB
100
AcDbEntity
  8
0
 48
50.0
100
AcDbBlockBegin
  2
*D25
 70
     1
 10
0.0
 20
0.0
 30
0.0
  3
*D25
  1

  0
LINE
  5
1AE70
330
1A9BB
100
AcDbEntity
  8
寸法
 62
     0
 48
50.0
370
    -2
100
AcDbLine
 10
12428.89929717215
 20
2281.856458683347
 30
0.0
 11
13173.82645514427
 21
2281.856458683347
 31
0.0
  0
LINE
  5
1AE71
330
1A9BB
100
AcDbEntity
  8
寸法
 62
     0
 48
50.0
370
    -2
100
AcDbLine
 10
12523.89929717215
 20
4601.856458683347
 30
0.0
 11
13173.82645514428
 21
4601.856458683347
 31
0.0
  0
LINE
  5
1AE72
330
1A9BB
100
AcDbEntity
  8
寸法
 62
     0
 48
50.0
370
    -2
100
AcDbLine
 10
13113.82645514427
 20
2281.856458683347
 30
0.0
 11
13113.82645514428
 21
4601.856458683347
 31
0.0
  0
INSERT
  5
1AE73
330
1A9BB
100
AcDbEntity
  8
寸法
 62
     0
 48
50.0
370
    -2
100
AcDbBlockReference
  2
_DOTSMALL
 10
13113.82645514427
 20
2281.856458683347
 30
0.0
 41
100.0
 42
100.0
 43
100.0
 50
270.0
  0
INSERT
  5
1AE74
330
1A9BB
100
AcDbEntity
  8
寸法
 62
     0
 48
50.0
370
    -2
100
AcDbBlockReference
  2
_DOTSMALL
 10
13113.82645514428
 20
4601.856458683347
 30
0.0
 41
100.0
 42
100.0
 43
100.0
 50
90.0
  0
MTEXT
  5
1AE75
330
1A9BB
100
AcDbEntity
  8
寸法
 62
     7
 48
50.0
100
AcDbMText
 10
13013.81464412065
 20
3436.856458683347
 30
0.0
 40
120.0
 41
0.0
 71
     5
 72
     1
  1
\A1;2320
  7
STYLE1
 11
0.0000000000000001
 21
1.0
 31
0.0
 73
     1
 44
1.0
1001
ACAD
1000
MTEXTBEGIN
1070
    73
1070
     1
1070
    44
1040
1.0
1070
    74
1070
     0
1000
MTEXTEND
  0
POINT
  5
1AE76
330
1A9BB
100
AcDbEntity
  8
DEFPOINTS
 62
     0
 48
50.0
100
AcDbPoint
 10
12408.89929717215
 20
2281.856458683347
 30
0.0
  0
POINT
  5
1AE77
330
1A9BB
100
AcDbEntity
  8
DEFPOINTS
 62
     0
 48
50.0
100
AcDbPoint
 10
12503.89929717215
 20
4601.856458683347
 30
0.0
  0
POINT
  5
1AE78
330
1A9BB
100
AcDbEntity
  8
DEFPOINTS
 62
     0
 48
50.0
100
AcDbPoint
 10
13113.82645514428
 20
4601.856458683347
 30
0.0
  0
ENDBLK
  5
1A9C6
330
1A9BB
100
AcDbEntity
  8
0
 48
50.0
100
AcDbBlockEnd
  0
BLOCK
  5
1A9EC
330
1A9E0
100
AcDbEntity
  8
0
 48
50.0
100
AcDbBlockBegin
  2
*D26
 70
     1
 10
0.0
 20
0.0
 30
0.0
  3
*D26
  1

  0
LINE
  5
1AE52
330
1A9E0
100
AcDbEntity
  8
寸法
 62
     0
 48
50.0
370
    -2
100
AcDbLine
 10
9758.899297172153
 20
2331.856458683347
 30
0.0
 11
8875.149167988892
 21
2331.856458683348
 31
0.0
  0
LINE
  5
1AE53
330
1A9E0
100
AcDbEntity
  8
寸法
 62
     0
 48
50.0
370
    -2
100
AcDbLine
 10
9703.899297172153
 20
2281.856458683347
 30
0.0
 11
8875.149167988892
 21
2281.856458683348
 31
0.0
  0
LINE
  5
1AE54
330
1A9E0
100
AcDbEntity
  8
寸法
 62
     0
 48
50.0
370
    -2
100
AcDbLine
 10
8935.149167988894
 20
2331.856458683348
 30
0.0
 11
8935.149167988894
 21
2431.856458683348
 31
0.0
  0
LINE
  5
1AE55
330
1A9E0
100
AcDbEntity
  8
寸法
 62
     0
 48
50.0
370
    -2
100
AcDbLine
 10
8935.149167988894
 20
2281.856458683348
 30
0.0
 11
8935.149167988894
 21
1792.059214588857
 31
0.0
  0
LINE
  5
1AE56
330
1A9E0
100
AcDbEntity
  8
寸法
 62
     0
 48
50.0
370
    -2
100
AcDbLine
 10
8935.149167988894
 20
2331.856458683348
 30
0.0
 11
8935.149167988894
 21
2281.856458683348
 31
0.0
  0
INSERT
  5
1AE57
330
1A9E0
100
AcDbEntity
  8
寸法
 62
     0
 48
50.0
370
    -2
100
AcDbBlockReference
  2
_DOTSMALL
 10
8935.149167988894
 20
2331.856458683348
 30
0.0
 41
100.0
 42
100.0
 43
100.0
 50
270.0
  0
INSERT
  5
1AE58
330
1A9E0
100
AcDbEntity
  8
寸法
 62
     0
 48
50.0
370
    -2
100
AcDbBlockReference
  2
_DOTSMALL
 10
8935.149167988894
 20
2281.856458683348
 30
0.0
 41
100.0
 42
100.0
 43
100.0
 50
90.0
  0
MTEXT
  5
1AE59
330
1A9E0
100
AcDbEntity
  8
寸法
 62
     7
 48
50.0
100
AcDbMText
 10
8835.149167988893
 20
1898.106458683347
 30
0.0
 40
120.0
 41
0.0
 71
     5
 72
     1
  1
\A1;50
  7
STYLE1
 11
0.0000000000000001
 21
1.0
 31
0.0
 73
     1
 44
1.0
1001
ACAD
1000
MTEXTBEGIN
1070
    73
1070
     1
1070
    44
1040
1.0
1070
    74
1070
     0
1000
MTEXTEND
  0
POINT
  5
1AE5A
330
1A9E0
100
AcDbEntity
  8
DEFPOINTS
 62
     0
 48
50.0
100
AcDbPoint
 10
9778.899297172152
 20
2331.856458683347
 30
0.0
  0
POINT
  5
1AE5B
330
1A9E0
100
AcDbEntity
  8
DEFPOINTS
 62
     0
 48
50.0
100
AcDbPoint
 10
9723.899297172152
 20
2281.856458683347
 30
0.0
  0
POINT
  5
1AE5C
330
1A9E0
100
AcDbEntity
  8
DEFPOINTS
 62
     0
 48
50.0
100
AcDbPoint
 10
8935.149167988894
 20
2281.856458683348
 30
0.0
  0
ENDBLK
  5
1A9ED
330
1A9E0
100
AcDbEntity
  8
0
 48
50.0
100
AcDbBlockEnd
  0
BLOCK
  5
1AA12
330
1AA08
100
AcDbEntity
  8
0
 48
50.0
100
AcDbBlockBegin
  2
*D27
 70
     1
 10
0.0
 20
0.0
 30
0.0
  3
*D27
  1

  0
LINE
  5
1AE35
330
1AA08
100
AcDbEntity
  8
寸法
 62
     0
 48
50.0
370
    -2
100
AcDbLine
 10
9758.899297172153
 20
4421.856458683347
 30
0.0
 11
8875.149167988896
 21
4421.856458683347
 31
0.0
  0
LINE
  5
1AE36
330
1AA08
100
AcDbEntity
  8
寸法
 62
     0
 48
50.0
370
    -2
100
AcDbLine
 10
9758.899297172153
 20
2331.856458683347
 30
0.0
 11
8875.149167988892
 21
2331.856458683348
 31
0.0
  0
LINE
  5
1AE37
330
1AA08
100
AcDbEntity
  8
寸法
 62
     0
 48
50.0
370
    -2
100
AcDbLine
 10
8935.149167988894
 20
4421.856458683347
 30
0.0
 11
8935.149167988894
 21
2331.856458683348
 31
0.0
  0
INSERT
  5
1AE38
330
1AA08
100
AcDbEntity
  8
寸法
 62
     0
 48
50.0
370
    -2
100
AcDbBlockReference
  2
_DOTSMALL
 10
8935.149167988894
 20
4421.856458683347
 30
0.0
 41
100.0
 42
100.0
 43
100.0
 50
90.0
  0
INSERT
  5
1AE39
330
1AA08
100
AcDbEntity
  8
寸法
 62
     0
 48
50.0
370
    -2
100
AcDbBlockReference
  2
_DOTSMALL
 10
8935.149167988894
 20
2331.856458683348
 30
0.0
 41
100.0
 42
100.0
 43
100.0
 50
270.0
  0
MTEXT
  5
1AE3A
330
1AA08
100
AcDbEntity
  8
寸法
 62
     7
 48
50.0
100
AcDbMText
 10
8835.137356965272
 20
3376.856458683349
 30
0.0
 40
120.0
 41
0.0
 71
     5
 72
     1
  1
\A1;2090
  7
STYLE1
 11
0.0000000000000001
 21
1.0
 31
0.0
 73
     1
 44
1.0
1001
ACAD
1000
MTEXTBEGIN
1070
    73
1070
     1
1070
    44
1040
1.0
1070
    74
1070
     0
1000
MTEXTEND
  0
POINT
  5
1AE3B
330
1AA08
100
AcDbEntity
  8
DEFPOINTS
 62
     0
 48
50.0
100
AcDbPoint
 10
9778.899297172152
 20
4421.856458683347
 30
0.0
  0
POINT
  5
1AE3C
330
1AA08
100
AcDbEntity
  8
DEFPOINTS
 62
     0
 48
50.0
100
AcDbPoint
 10
9778.899297172152
 20
2331.856458683347
 30
0.0
  0
POINT
  5
1AE3D
330
1AA08
100
AcDbEntity
  8
DEFPOINTS
 62
     0
 48
50.0
100
AcDbPoint
 10
8935.149167988894
 20
2331.856458683348
 30
0.0
  0
ENDBLK
  5
1AA13
330
1AA08
100
AcDbEntity
  8
0
 48
50.0
100
AcDbBlockEnd
  0
BLOCK
  5
1AA1E
330
1AA14
100
AcDbEntity
  8
0
 48
50.0
100
AcDbBlockBegin
  2
*D28
 70
     1
 10
0.0
 20
0.0
 30
0.0
  3
*D28
  1

  0
LINE
  5
1AE85
330
1AA14
100
AcDbEntity
  8
寸法
 62
     0
 48
50.0
370
    -2
100
AcDbLine
 10
9758.899297172153
 20
2281.856458683347
 30
0.0
 11
8575.149167988891
 21
2281.856458683348
 31
0.0
  0
LINE
  5
1AE86
330
1AA14
100
AcDbEntity
  8
寸法
 62
     0
 48
50.0
370
    -2
100
AcDbLine
 10
9623.899297172158
 20
4656.856458683351
 30
0.0
 11
8575.149167988893
 21
4656.856458683351
 31
0.0
  0
LINE
  5
1AE87
330
1AA14
100
AcDbEntity
  8
寸法
 62
     0
 48
50.0
370
    -2
100
AcDbLine
 10
8635.14916798889
 20
2281.856458683348
 30
0.0
 11
8635.149167988894
 21
4656.856458683351
 31
0.0
  0
INSERT
  5
1AE88
330
1AA14
100
AcDbEntity
  8
寸法
 62
     0
 48
50.0
370
    -2
100
AcDbBlockReference
  2
_DOTSMALL
 10
8635.14916798889
 20
2281.856458683348
 30
0.0
 41
100.0
 42
100.0
 43
100.0
 50
270.0
  0
INSERT
  5
1AE89
330
1AA14
100
AcDbEntity
  8
寸法
 62
     0
 48
50.0
370
    -2
100
AcDbBlockReference
  2
_DOTSMALL
 10
8635.149167988894
 20
4656.856458683351
 30
0.0
 41
100.0
 42
100.0
 43
100.0
 50
90.0
  0
MTEXT
  5
1AE8A
330
1AA14
100
AcDbEntity
  8
寸法
 62
     7
 48
50.0
100
AcDbMText
 10
8535.13735696527
 20
3469.35645868335
 30
0.0
 40
120.0
 41
0.0
 71
     5
 72
     1
  1
\A1;2375
  7
STYLE1
 11
0.0000000000000001
 21
1.0
 31
0.0
 73
     1
 44
1.0
1001
ACAD
1000
MTEXTBEGIN
1070
    73
1070
     1
1070
    44
1040
1.0
1070
    74
1070
     0
1000
MTEXTEND
  0
POINT
  5
1AE8B
330
1AA14
100
AcDbEntity
  8
DEFPOINTS
 62
     0
 48
50.0
100
AcDbPoint
 10
9778.899297172152
 20
2281.856458683347
 30
0.0
  0
POINT
  5
1AE8C
330
1AA14
100
AcDbEntity
  8
DEFPOINTS
 62
     0
 48
50.0
100
AcDbPoint
 10
9643.899297172156
 20
4656.856458683351
 30
0.0
  0
POINT
  5
1AE8D
330
1AA14
100
AcDbEntity
  8
DEFPOINTS
 62
     0
 48
50.0
100
AcDbPoint
 10
8635.149167988894
 20
4656.856458683351
 30
0.0
  0
ENDBLK
  5
1AA1F
330
1AA14
100
AcDbEntity
  8
0
 48
50.0
100
AcDbBlockEnd
  0
BLOCK
  5
1AA2A
330
1AA20
100
AcDbEntity
  8
0
 48
50.0
100
AcDbBlockBegin
  2
*D29
 70
     1
 10
0.0
 20
0.0
 30
0.0
  3
*D29
  1

  0
LINE
  5
1BB32
330
1AA20
100
AcDbEntity
  8
寸法
 62
     0
 48
50.0
370
    -2
100
AcDbLine
 10
12408.89929717215
 20
4623.667138295
 30
0.0
 11
12408.89929717215
 21
5115.513912262653
 31
0.0
  0
LINE
  5
1BB33
330
1AA20
100
AcDbEntity
  8
寸法
 62
     0
 48
50.0
370
    -2
100
AcDbLine
 10
9778.899297172152
 20
4672.858076806323
 30
0.0
 11
9778.899297172152
 21
5115.513912262653
 31
0.0
  0
LINE
  5
1BB34
330
1AA20
100
AcDbEntity
  8
寸法
 62
     0
 48
50.0
370
    -2
100
AcDbLine
 10
12408.89929717215
 20
5055.513912262654
 30
0.0
 11
9778.899297172152
 21
5055.513912262654
 31
0.0
  0
INSERT
  5
1BB35
330
1AA20
100
AcDbEntity
  8
寸法
 62
     0
 48
50.0
370
    -2
100
AcDbBlockReference
  2
_DOTSMALL
 10
12408.89929717215
 20
5055.513912262654
 30
0.0
 41
100.0
 42
100.0
 43
100.0
  0
INSERT
  5
1BB36
330
1AA20
100
AcDbEntity
  8
寸法
 62
     0
 48
50.0
370
    -2
100
AcDbBlockReference
  2
_DOTSMALL
 10
9778.899297172152
 20
5055.513912262654
 30
0.0
 41
100.0
 42
100.0
 43
100.0
 50
180.0
  0
MTEXT
  5
1BB37
330
1AA20
100
AcDbEntity
  8
寸法
 62
     7
 48
50.0
100
AcDbMText
 10
11093.89929717215
 20
5155.525723286275
 30
0.0
 40
120.0
 41
0.0
 71
     5
 72
     1
  1
\A1;柱外寸法2630
  7
STYLE1
 73
     1
 44
1.0
1001
ACAD
1000
MTEXTBEGIN
1070
    73
1070
     1
1070
    44
1040
1.0
1070
    74
1070
     0
1000
MTEXTEND
  0
POINT
  5
1BB38
330
1AA20
100
AcDbEntity
  8
DEFPOINTS
 62
     0
 48
50.0
100
AcDbPoint
 10
12408.89929717215
 20
4603.667138295
 30
0.0
  0
POINT
  5
1BB39
330
1AA20
100
AcDbEntity
  8
DEFPOINTS
 62
     0
 48
50.0
100
AcDbPoint
 10
9778.899297172152
 20
4652.858076806324
 30
0.0
  0
POINT
  5
1BB3A
330
1AA20
100
AcDbEntity
  8
DEFPOINTS
 62
     0
 48
50.0
100
AcDbPoint
 10
9778.899297172152
 20
5055.513912262654
 30
0.0
  0
ENDBLK
  5
1AA2B
330
1AA20
100
AcDbEntity
  8
0
 48
50.0
100
AcDbBlockEnd
  0
BLOCK
  5
1AA38
330
1AA2C
100
AcDbEntity
  8
0
 48
50.0
100
AcDbBlockBegin
  2
*D30
 70
     1
 10
0.0
 20
0.0
 30
0.0
  3
*D30
  1

  0
LINE
  5
1AE18
330
1AA2C
100
AcDbEntity
  8
寸法
 62
     0
 48
50.0
370
    -2
100
AcDbLine
 10
9778.899297172152
 20
4672.858076806323
 30
0.0
 11
9778.899297172152
 21
5115.513912262652
 31
0.0
  0
LINE
  5
1AE19
330
1AA2C
100
AcDbEntity
  8
寸法
 62
     0
 48
50.0
370
    -2
100
AcDbLine
 10
9718.899297172153
 20
4676.856458683352
 30
0.0
 11
9718.899297172153
 21
5115.513912262652
 31
0.0
  0
LINE
  5
1AE1A
330
1AA2C
100
AcDbEntity
  8
寸法
 62
     0
 48
50.0
370
    -2
100
AcDbLine
 10
9778.899297172152
 20
5055.513912262651
 30
0.0
 11
9878.899297172154
 21
5055.513912262651
 31
0.0
  0
LINE
  5
1AE1B
330
1AA2C
100
AcDbEntity
  8
寸法
 62
     0
 48
50.0
370
    -2
100
AcDbLine
 10
9718.899297172153
 20
5055.513912262651
 30
0.0
 11
9299.623706620968
 21
5055.513912262651
 31
0.0
  0
LINE
  5
1AE1C
330
1AA2C
100
AcDbEntity
  8
寸法
 62
     0
 48
50.0
370
    -2
100
AcDbLine
 10
9778.899297172152
 20
5055.513912262651
 30
0.0
 11
9718.899297172153
 21
5055.513912262651
 31
0.0
  0
INSERT
  5
1AE1D
330
1AA2C
100
AcDbEntity
  8
寸法
 62
     0
 48
50.0
370
    -2
100
AcDbBlockReference
  2
_DOTSMALL
 10
9778.899297172152
 20
5055.513912262651
 30
0.0
 41
100.0
 42
100.0
 43
100.0
 50
180.0
  0
INSERT
  5
1AE1E
330
1AA2C
100
AcDbEntity
  8
寸法
 62
     0
 48
50.0
370
    -2
100
AcDbBlockReference
  2
_DOTSMALL
 10
9718.899297172153
 20
5055.513912262651
 30
0.0
 41
100.0
 42
100.0
 43
100.0
  0
MTEXT
  5
1AE1F
330
1AA2C
100
AcDbEntity
  8
寸法
 62
     7
 48
50.0
100
AcDbMText
 10
9409.261501896558
 20
5155.513912262652
 30
0.0
 40
120.0
 41
0.0
 71
     5
 72
     1
  1
\A1;60
  7
STYLE1
 73
     1
 44
1.0
1001
ACAD
1000
MTEXTBEGIN
1070
    73
1070
     1
1070
    44
1040
1.0
1070
    74
1070
     0
1000
MTEXTEND
  0
POINT
  5
1AE20
330
1AA2C
100
AcDbEntity
  8
DEFPOINTS
 62
     0
 48
50.0
100
AcDbPoint
 10
9778.899297172152
 20
4652.858076806324
 30
0.0
  0
POINT
  5
1AE21
330
1AA2C
100
AcDbEntity
  8
DEFPOINTS
 62
     0
 48
50.0
100
AcDbPoint
 10
9718.899297172153
 20
4656.856458683352
 30
0.0
  0
POINT
  5
1AE22
330
1AA2C
100
AcDbEntity
  8
DEFPOINTS
 62
     0
 48
50.0
100
AcDbPoint
 10
9718.899297172153
 20
5055.513912262651
 30
0.0
  0
ENDBLK
  5
1AA39
330
1AA2C
100
AcDbEntity
  8
0
 48
50.0
100
AcDbBlockEnd
  0
BLOCK
  5
1AA44
330
1AA3A
100
AcDbEntity
  8
0
 48
50.0
100
AcDbBlockBegin
  2
*D31
 70
     1
 10
0.0
 20
0.0
 30
0.0
  3
*D31
  1

  0
LINE
  5
1BB29
330
1AA3A
100
AcDbEntity
  8
寸法
 62
     0
 48
50.0
370
    -2
100
AcDbLine
 10
12488.89929717215
 20
4621.856458683349
 30
0.0
 11
12488.89929717215
 21
5335.72459899427
 31
0.0
  0
LINE
  5
1BB2A
330
1AA3A
100
AcDbEntity
  8
寸法
 62
     0
 48
50.0
370
    -2
100
AcDbLine
 10
9718.899297172153
 20
4676.856458683352
 30
0.0
 11
9718.899297172153
 21
5335.72459899427
 31
0.0
  0
LINE
  5
1BB2B
330
1AA3A
100
AcDbEntity
  8
寸法
 62
     0
 48
50.0
370
    -2
100
AcDbLine
 10
12488.89929717215
 20
5275.724598994269
 30
0.0
 11
9718.899297172153
 21
5275.724598994269
 31
0.0
  0
INSERT
  5
1BB2C
330
1AA3A
100
AcDbEntity
  8
寸法
 62
     0
 48
50.0
370
    -2
100
AcDbBlockReference
  2
_DOTSMALL
 10
12488.89929717215
 20
5275.724598994269
 30
0.0
 41
100.0
 42
100.0
 43
100.0
  0
INSERT
  5
1BB2D
330
1AA3A
100
AcDbEntity
  8
寸法
 62
     0
 48
50.0
370
    -2
100
AcDbBlockReference
  2
_DOTSMALL
 10
9718.899297172153
 20
5275.724598994269
 30
0.0
 41
100.0
 42
100.0
 43
100.0
 50
180.0
  0
MTEXT
  5
1BB2E
330
1AA3A
100
AcDbEntity
  8
寸法
 62
     7
 48
50.0
100
AcDbMText
 10
11103.89929717215
 20
5375.736410017891
 30
0.0
 40
120.0
 41
0.0
 71
     5
 72
     1
  1
\A1;2770
  7
STYLE1
 73
     1
 44
1.0
1001
ACAD
1000
MTEXTBEGIN
1070
    73
1070
     1
1070
    44
1040
1.0
1070
    74
1070
     0
1000
MTEXTEND
  0
POINT
  5
1BB2F
330
1AA3A
100
AcDbEntity
  8
DEFPOINTS
 62
     0
 48
50.0
100
AcDbPoint
 10
12488.89929717215
 20
4601.856458683349
 30
0.0
  0
POINT
  5
1BB30
330
1AA3A
100
AcDbEntity
  8
DEFPOINTS
 62
     0
 48
50.0
100
AcDbPoint
 10
9718.899297172153
 20
4656.856458683352
 30
0.0
  0
POINT
  5
1BB31
330
1AA3A
100
AcDbEntity
  8
DEFPOINTS
 62
     0
 48
50.0
100
AcDbPoint
 10
9718.899297172153
 20
5275.724598994269
 30
0.0
  0
ENDBLK
  5
1AA45
330
1AA3A
100
AcDbEntity
  8
0
 48
50.0
100
AcDbBlockEnd
  0
BLOCK
  5
1AA51
330
1AA46
100
AcDbEntity
  8
0
 48
50.0
100
AcDbBlockBegin
  2
*D32
 70
     1
 10
0.0
 20
0.0
 30
0.0
  3
*D32
  1

  0
LINE
  5
1AE05
330
1AA46
100
AcDbEntity
  8
寸法
 62
     0
 48
50.0
370
    -2
100
AcDbLine
 10
12408.89929717215
 20
4623.667138295
 30
0.0
 11
12408.89929717215
 21
5115.513912262653
 31
0.0
  0
LINE
  5
1AE06
330
1AA46
100
AcDbEntity
  8
寸法
 62
     0
 48
50.0
370
    -2
100
AcDbLine
 10
12488.89929717215
 20
4621.856458683349
 30
0.0
 11
12488.89929717215
 21
5115.513912262653
 31
0.0
  0
LINE
  5
1AE07
330
1AA46
100
AcDbEntity
  8
寸法
 62
     0
 48
50.0
370
    -2
100
AcDbLine
 10
12408.89929717215
 20
5055.513912262654
 30
0.0
 11
12488.89929717215
 21
5055.513912262654
 31
0.0
  0
LINE
  5
1AE08
330
1AA46
100
AcDbEntity
  8
寸法
 62
     0
 48
50.0
370
    -2
100
AcDbLine
 10
12488.89929717215
 20
5055.513912262654
 30
0.0
 11
12800.99378536113
 21
5055.513912262654
 31
0.0
  0
INSERT
  5
1AE09
330
1AA46
100
AcDbEntity
  8
寸法
 62
     0
 48
50.0
370
    -2
100
AcDbBlockReference
  2
_DOTSMALL
 10
12408.89929717215
 20
5055.513912262654
 30
0.0
 41
100.0
 42
100.0
 43
100.0
 50
180.0
  0
INSERT
  5
1AE0A
330
1AA46
100
AcDbEntity
  8
寸法
 62
     0
 48
50.0
370
    -2
100
AcDbBlockReference
  2
_DOTSMALL
 10
12488.89929717215
 20
5055.513912262654
 30
0.0
 41
100.0
 42
100.0
 43
100.0
  0
MTEXT
  5
1AE0B
330
1AA46
100
AcDbEntity
  8
寸法
 62
     7
 48
50.0
100
AcDbMText
 10
12694.94654126664
 20
5155.513912262653
 30
0.0
 40
120.0
 41
0.0
 71
     5
 72
     1
  1
\A1;80
  7
STYLE1
 73
     1
 44
1.0
1001
ACAD
1000
MTEXTBEGIN
1070
    73
1070
     1
1070
    44
1040
1.0
1070
    74
1070
     0
1000
MTEXTEND
  0
POINT
  5
1AE0C
330
1AA46
100
AcDbEntity
  8
DEFPOINTS
 62
     0
 48
50.0
100
AcDbPoint
 10
12408.89929717215
 20
4603.667138295
 30
0.0
  0
POINT
  5
1AE0D
330
1AA46
100
AcDbEntity
  8
DEFPOINTS
 62
     0
 48
50.0
100
AcDbPoint
 10
12488.89929717215
 20
4601.856458683349
 30
0.0
  0
POINT
  5
1AE0E
330
1AA46
100
AcDbEntity
  8
DEFPOINTS
 62
     0
 48
50.0
100
AcDbPoint
 10
12488.89929717215
 20
5055.513912262654
 30
0.0
  0
ENDBLK
  5
1AA52
330
1AA46
100
AcDbEntity
  8
0
 48
50.0
100
AcDbBlockEnd
  0
BLOCK
  5
1AA5E
330
1AA53
100
AcDbEntity
  8
0
 48
50.0
100
AcDbBlockBegin
  2
*D33
 70
     1
 10
0.0
 20
0.0
 30
0.0
  3
*D33
  1

  0
LINE
  5
1ADFB
330
1AA53
100
AcDbEntity
  8
寸法
 62
     0
 48
50.0
370
    -2
100
AcDbLine
 10
9718.303583463256
 20
4656.154165753008
 30
0.0
 11
9102.369144357973
 21
4673.868316027339
 31
0.0
  0
LINE
  5
1ADFC
330
1AA53
100
AcDbEntity
  8
寸法
 62
     0
 48
50.0
370
    -2
100
AcDbLine
 10
9714.25012790663
 20
4515.212441987296
 30
0.0
 11
9098.315688801347
 21
4532.926592261625
 31
0.0
  0
LINE
  5
1ADFD
330
1AA53
100
AcDbEntity
  8
寸法
 62
     0
 48
50.0
370
    -2
100
AcDbLine
 10
9158.29089040378
 20
4531.201717556678
 30
0.0
 11
9162.344345960406
 21
4672.143441322392
 31
0.0
  0
LINE
  5
1ADFE
330
1AA53
100
AcDbEntity
  8
寸法
 62
     0
 48
50.0
370
    -2
100
AcDbLine
 10
9162.344345960406
 20
4672.143441322392
 30
0.0
 11
9172.693594190091
 21
5031.994650936978
 31
0.0
  0
INSERT
  5
1ADFF
330
1AA53
100
AcDbEntity
  8
寸法
 62
     0
 48
50.0
370
    -2
100
AcDbBlockReference
  2
_DOTSMALL
 10
9158.29089040378
 20
4531.201717556678
 30
0.0
 41
100.0
 42
100.0
 43
100.0
 50
268.3526390256378
  0
INSERT
  5
1AE00
330
1AA53
100
AcDbEntity
  8
寸法
 62
     0
 48
50.0
370
    -2
100
AcDbBlockReference
  2
_DOTSMALL
 10
9162.344345960406
 20
4672.143441322392
 30
0.0
 41
100.0
 42
100.0
 43
100.0
 50
88.35263902563776
  0
MTEXT
  5
1AE01
330
1AA53
100
AcDbEntity
  8
寸法
 62
     7
 48
50.0
100
AcDbMText
 10
9068.997696325316
 20
4904.92317197329
 30
0.0
 40
120.0
 41
0.0
 71
     5
 72
     1
  1
\A1;141
  7
STYLE1
 11
0.0287479117491237
 21
0.9995866933738488
 31
0.0
 73
     1
 44
1.0
1001
ACAD
1000
MTEXTBEGIN
1070
    73
1070
     1
1070
    44
1040
1.0
1070
    74
1070
     0
1000
MTEXTEND
  0
POINT
  5
1AE02
330
1AA53
100
AcDbEntity
  8
DEFPOINTS
 62
     0
 48
50.0
100
AcDbPoint
 10
9738.295317330733
 20
4655.579207518027
 30
0.0
  0
POINT
  5
1AE03
330
1AA53
100
AcDbEntity
  8
DEFPOINTS
 62
     0
 48
50.0
100
AcDbPoint
 10
9734.241861774107
 20
4514.637483752313
 30
0.0
  0
POINT
  5
1AE04
330
1AA53
100
AcDbEntity
  8
DEFPOINTS
 62
     0
 48
50.0
100
AcDbPoint
 10
9158.29089040378
 20
4531.201717556678
 30
0.0
  0
ENDBLK
  5
1AA5F
330
1AA53
100
AcDbEntity
  8
0
 48
50.0
100
AcDbBlockEnd
  0
BLOCK
  5
1AA6C
330
1AA60
100
AcDbEntity
  8
0
 48
50.0
100
AcDbBlockBegin
  2
*D34
 70
     1
 10
0.0
 20
0.0
 30
0.0
  3
*D34
  1

  0
LINE
  5
1ADF0
330
1AA60
100
AcDbEntity
  8
寸法
 62
     0
 48
50.0
370
    -2
100
AcDbLine
 10
2463.101915364672
 20
4676.856458683352
 30
0.0
 11
2463.101915364672
 21
5115.94962802282
 31
0.0
  0
LINE
  5
1ADF1
330
1AA60
100
AcDbEntity
  8
寸法
 62
     0
 48
50.0
370
    -2
100
AcDbLine
 10
2413.101915364672
 20
4676.856458683348
 30
0.0
 11
2413.101915364672
 21
5115.94962802282
 31
0.0
  0
LINE
  5
1ADF2
330
1AA60
100
AcDbEntity
  8
寸法
 62
     0
 48
50.0
370
    -2
100
AcDbLine
 10
2463.101915364672
 20
5055.949628022819
 30
0.0
 11
2563.101915364673
 21
5055.949628022819
 31
0.0
  0
LINE
  5
1ADF3
330
1AA60
100
AcDbEntity
  8
寸法
 62
     0
 48
50.0
370
    -2
100
AcDbLine
 10
2413.101915364672
 20
5055.949628022819
 30
0.0
 11
1993.569389895936
 21
5055.949628022819
 31
0.0
  0
LINE
  5
1ADF4
330
1AA60
100
AcDbEntity
  8
寸法
 62
     0
 48
50.0
370
    -2
100
AcDbLine
 10
2463.101915364672
 20
5055.949628022819
 30
0.0
 11
2413.101915364672
 21
5055.949628022819
 31
0.0
  0
INSERT
  5
1ADF5
330
1AA60
100
AcDbEntity
  8
寸法
 62
     0
 48
50.0
370
    -2
100
AcDbBlockReference
  2
_DOTSMALL
 10
2463.101915364672
 20
5055.949628022819
 30
0.0
 41
100.0
 42
100.0
 43
100.0
 50
180.0
  0
INSERT
  5
1ADF6
330
1AA60
100
AcDbEntity
  8
寸法
 62
     0
 48
50.0
370
    -2
100
AcDbBlockReference
  2
_DOTSMALL
 10
2413.101915364672
 20
5055.949628022819
 30
0.0
 41
100.0
 42
100.0
 43
100.0
  0
MTEXT
  5
1ADF7
330
1AA60
100
AcDbEntity
  8
寸法
 62
     7
 48
50.0
100
AcDbMText
 10
2099.616633990425
 20
5155.94962802282
 30
0.0
 40
120.0
 41
0.0
 71
     5
 72
     1
  1
\A1;50
  7
STYLE1
 73
     1
 44
1.0
1001
ACAD
1000
MTEXTBEGIN
1070
    73
1070
     1
1070
    44
1040
1.0
1070
    74
1070
     0
1000
MTEXTEND
  0
POINT
  5
1ADF8
330
1AA60
100
AcDbEntity
  8
DEFPOINTS
 62
     0
 48
50.0
100
AcDbPoint
 10
2463.101915364672
 20
4656.856458683352
 30
0.0
  0
POINT
  5
1ADF9
330
1AA60
100
AcDbEntity
  8
DEFPOINTS
 62
     0
 48
50.0
100
AcDbPoint
 10
2413.101915364672
 20
4656.856458683349
 30
0.0
  0
POINT
  5
1ADFA
330
1AA60
100
AcDbEntity
  8
DEFPOINTS
 62
     0
 48
50.0
100
AcDbPoint
 10
2413.101915364672
 20
5055.949628022819
 30
0.0
  0
ENDBLK
  5
1AA6D
330
1AA60
100
AcDbEntity
  8
0
 48
50.0
100
AcDbBlockEnd
  0
BLOCK
  5
1AA78
330
1AA6E
100
AcDbEntity
  8
0
 48
50.0
100
AcDbBlockBegin
  2
*D35
 70
     1
 10
0.0
 20
0.0
 30
0.0
  3
*D35
  1

  0
LINE
  5
1BB17
330
1AA6E
100
AcDbEntity
  8
寸法
 62
     0
 48
50.0
370
    -2
100
AcDbLine
 10
2413.101915364672
 20
4676.856458683348
 30
0.0
 11
2413.101915364672
 21
5332.475727641264
 31
0.0
  0
LINE
  5
1BB18
330
1AA6E
100
AcDbEntity
  8
寸法
 62
     0
 48
50.0
370
    -2
100
AcDbLine
 10
7773.101915364673
 20
4676.856458683348
 30
0.0
 11
7773.101915364673
 21
5332.475727641264
 31
0.0
  0
LINE
  5
1BB19
330
1AA6E
100
AcDbEntity
  8
寸法
 62
     0
 48
50.0
370
    -2
100
AcDbLine
 10
2413.101915364672
 20
5272.475727641264
 30
0.0
 11
7773.101915364673
 21
5272.475727641264
 31
0.0
  0
INSERT
  5
1BB1A
330
1AA6E
100
AcDbEntity
  8
寸法
 62
     0
 48
50.0
370
    -2
100
AcDbBlockReference
  2
_DOTSMALL
 10
2413.101915364672
 20
5272.475727641264
 30
0.0
 41
100.0
 42
100.0
 43
100.0
 50
180.0
  0
INSERT
  5
1BB1B
330
1AA6E
100
AcDbEntity
  8
寸法
 62
     0
 48
50.0
370
    -2
100
AcDbBlockReference
  2
_DOTSMALL
 10
7773.101915364673
 20
5272.475727641264
 30
0.0
 41
100.0
 42
100.0
 43
100.0
  0
MTEXT
  5
1BB1C
330
1AA6E
100
AcDbEntity
  8
寸法
 62
     7
 48
50.0
100
AcDbMText
 10
5093.101915364672
 20
5372.475727641264
 30
0.0
 40
120.0
 41
0.0
 71
     5
 72
     1
  1
\A1;5360
  7
STYLE1
 73
     1
 44
1.0
1001
ACAD
1000
MTEXTBEGIN
1070
    73
1070
     1
1070
    44
1040
1.0
1070
    74
1070
     0
1000
MTEXTEND
  0
POINT
  5
1BB1D
330
1AA6E
100
AcDbEntity
  8
DEFPOINTS
 62
     0
 48
50.0
100
AcDbPoint
 10
2413.101915364672
 20
4656.856458683349
 30
0.0
  0
POINT
  5
1BB1E
330
1AA6E
100
AcDbEntity
  8
DEFPOINTS
 62
     0
 48
50.0
100
AcDbPoint
 10
7773.101915364673
 20
4656.856458683349
 30
0.0
  0
POINT
  5
1BB1F
330
1AA6E
100
AcDbEntity
  8
DEFPOINTS
 62
     0
 48
50.0
100
AcDbPoint
 10
7773.101915364673
 20
5272.475727641264
 30
0.0
  0
ENDBLK
  5
1AA79
330
1AA6E
100
AcDbEntity
  8
0
 48
50.0
100
AcDbBlockEnd
  0
BLOCK
  5
1AA86
330
1AA7A
100
AcDbEntity
  8
0
 48
50.0
100
AcDbBlockBegin
  2
*D36
 70
     1
 10
0.0
 20
0.0
 30
0.0
  3
*D36
  1

  0
LINE
  5
1ADDC
330
1AA7A
100
AcDbEntity
  8
寸法
 62
     0
 48
50.0
370
    -2
100
AcDbLine
 10
7773.101915364673
 20
4676.856458683348
 30
0.0
 11
7773.101915364673
 21
5115.94962802282
 31
0.0
  0
LINE
  5
1ADDD
330
1AA7A
100
AcDbEntity
  8
寸法
 62
     0
 48
50.0
370
    -2
100
AcDbLine
 10
7723.101915364672
 20
4676.856458683348
 30
0.0
 11
7723.101915364672
 21
5115.94962802282
 31
0.0
  0
LINE
  5
1ADDE
330
1AA7A
100
AcDbEntity
  8
寸法
 62
     0
 48
50.0
370
    -2
100
AcDbLine
 10
7723.101915364672
 20
5055.949628022819
 30
0.0
 11
7623.101915364673
 21
5055.949628022819
 31
0.0
  0
LINE
  5
1ADDF
330
1AA7A
100
AcDbEntity
  8
寸法
 62
     0
 48
50.0
370
    -2
100
AcDbLine
 10
7773.101915364673
 20
5055.949628022819
 30
0.0
 11
8192.634440833398
 21
5055.949628022819
 31
0.0
  0
LINE
  5
1ADE0
330
1AA7A
100
AcDbEntity
  8
寸法
 62
     0
 48
50.0
370
    -2
100
AcDbLine
 10
7723.101915364672
 20
5055.949628022819
 30
0.0
 11
7773.101915364673
 21
5055.949628022819
 31
0.0
  0
INSERT
  5
1ADE1
330
1AA7A
100
AcDbEntity
  8
寸法
 62
     0
 48
50.0
370
    -2
100
AcDbBlockReference
  2
_DOTSMALL
 10
7723.101915364672
 20
5055.949628022819
 30
0.0
 41
100.0
 42
100.0
 43
100.0
  0
INSERT
  5
1ADE2
330
1AA7A
100
AcDbEntity
  8
寸法
 62
     0
 48
50.0
370
    -2
100
AcDbBlockReference
  2
_DOTSMALL
 10
7773.101915364673
 20
5055.949628022819
 30
0.0
 41
100.0
 42
100.0
 43
100.0
 50
180.0
  0
MTEXT
  5
1ADE3
330
1AA7A
100
AcDbEntity
  8
寸法
 62
     7
 48
50.0
100
AcDbMText
 10
8086.587196738909
 20
5155.94962802282
 30
0.0
 40
120.0
 41
0.0
 71
     5
 72
     1
  1
\A1;50
  7
STYLE1
 73
     1
 44
1.0
1001
ACAD
1000
MTEXTBEGIN
1070
    73
1070
     1
1070
    44
1040
1.0
1070
    74
1070
     0
1000
MTEXTEND
  0
POINT
  5
1ADE4
330
1AA7A
100
AcDbEntity
  8
DEFPOINTS
 62
     0
 48
50.0
100
AcDbPoint
 10
7773.101915364673
 20
4656.856458683349
 30
0.0
  0
POINT
  5
1ADE5
330
1AA7A
100
AcDbEntity
  8
DEFPOINTS
 62
     0
 48
50.0
100
AcDbPoint
 10
7723.101915364672
 20
4656.856458683349
 30
0.0
  0
POINT
  5
1ADE6
330
1AA7A
100
AcDbEntity
  8
DEFPOINTS
 62
     0
 48
50.0
100
AcDbPoint
 10
7723.101915364672
 20
5055.949628022819
 30
0.0
  0
ENDBLK
  5
1AA87
330
1AA7A
100
AcDbEntity
  8
0
 48
50.0
100
AcDbBlockEnd
  0
BLOCK
  5
1AA92
330
1AA88
100
AcDbEntity
  8
0
 48
50.0
100
AcDbBlockBegin
  2
*D37
 70
     1
 10
0.0
 20
0.0
 30
0.0
  3
*D37
  1

  0
LINE
  5
1BB20
330
1AA88
100
AcDbEntity
  8
寸法
 62
     0
 48
50.0
370
    -2
100
AcDbLine
 10
7723.101915364672
 20
4676.856458683348
 30
0.0
 11
7723.101915364672
 21
5115.94962802282
 31
0.0
  0
LINE
  5
1BB21
330
1AA88
100
AcDbEntity
  8
寸法
 62
     0
 48
50.0
370
    -2
100
AcDbLine
 10
2463.101915364672
 20
4676.856458683352
 30
0.0
 11
2463.101915364672
 21
5115.94962802282
 31
0.0
  0
LINE
  5
1BB22
330
1AA88
100
AcDbEntity
  8
寸法
 62
     0
 48
50.0
370
    -2
100
AcDbLine
 10
7723.101915364672
 20
5055.949628022819
 30
0.0
 11
2463.101915364672
 21
5055.949628022819
 31
0.0
  0
INSERT
  5
1BB23
330
1AA88
100
AcDbEntity
  8
寸法
 62
     0
 48
50.0
370
    -2
100
AcDbBlockReference
  2
_DOTSMALL
 10
7723.101915364672
 20
5055.949628022819
 30
0.0
 41
100.0
 42
100.0
 43
100.0
  0
INSERT
  5
1BB24
330
1AA88
100
AcDbEntity
  8
寸法
 62
     0
 48
50.0
370
    -2
100
AcDbBlockReference
  2
_DOTSMALL
 10
2463.101915364672
 20
5055.949628022819
 30
0.0
 41
100.0
 42
100.0
 43
100.0
 50
180.0
  0
MTEXT
  5
1BB25
330
1AA88
100
AcDbEntity
  8
寸法
 62
     7
 48
50.0
100
AcDbMText
 10
5093.101915364672
 20
5155.961439046441
 30
0.0
 40
120.0
 41
0.0
 71
     5
 72
     1
  1
\A1;柱外寸法5260
  7
STYLE1
 73
     1
 44
1.0
1001
ACAD
1000
MTEXTBEGIN
1070
    73
1070
     1
1070
    44
1040
1.0
1070
    74
1070
     0
1000
MTEXTEND
  0
POINT
  5
1BB26
330
1AA88
100
AcDbEntity
  8
DEFPOINTS
 62
     0
 48
50.0
100
AcDbPoint
 10
7723.101915364672
 20
4656.856458683349
 30
0.0
  0
POINT
  5
1BB27
330
1AA88
100
AcDbEntity
  8
DEFPOINTS
 62
     0
 48
50.0
100
AcDbPoint
 10
2463.101915364672
 20
4656.856458683352
 30
0.0
  0
POINT
  5
1BB28
330
1AA88
100
AcDbEntity
  8
DEFPOINTS
 62
     0
 48
50.0
100
AcDbPoint
 10
2463.101915364672
 20
5055.949628022819
 30
0.0
  0
ENDBLK
  5
1AA93
330
1AA88
100
AcDbEntity
  8
0
 48
50.0
100
AcDbBlockEnd
  0
BLOCK
  5
1B3E6
330
1B3DC
100
AcDbEntity
  8
0
 48
50.0
100
AcDbBlockBegin
  2
*D38
 70
     1
 10
0.0
 20
0.0
 30
0.0
  3
*D38
  1

  0
LINE
  5
1B52B
330
1B3DC
100
AcDbEntity
  8
寸法
 62
     0
 48
50.0
370
    -2
100
AcDbLine
 10
6416.242931516037
 20
9312.497424545808
 30
0.0
 11
6313.501117557438
 21
8929.059754790531
 31
0.0
  0
LINE
  5
1B52C
330
1B3DC
100
AcDbEntity
  8
寸法
 62
     0
 48
50.0
370
    -2
100
AcDbLine
 10
7689.242931516048
 20
9312.497424545801
 30
0.0
 11
7586.501117557451
 21
8929.059754790531
 31
0.0
  0
LINE
  5
1B52D
330
1B3DC
100
AcDbEntity
  8
寸法
 62
     0
 48
50.0
370
    -2
100
AcDbLine
 10
6329.578069103305
 20
8989.059754790531
 30
0.0
 11
7602.578069103319
 21
8989.059754790531
 31
0.0
  0
INSERT
  5
1B52E
330
1B3DC
100
AcDbEntity
  8
寸法
 62
     0
 48
50.0
370
    -2
100
AcDbBlockReference
  2
_DOTSMALL
 10
6329.578069103305
 20
8989.059754790531
 30
0.0
 41
100.0
 42
100.0
 43
100.0
 50
180.0
  0
INSERT
  5
1B52F
330
1B3DC
100
AcDbEntity
  8
寸法
 62
     0
 48
50.0
370
    -2
100
AcDbBlockReference
  2
_DOTSMALL
 10
7602.578069103319
 20
8989.059754790531
 30
0.0
 41
100.0
 42
100.0
 43
100.0
  0
MTEXT
  5
1B530
330
1B3DC
100
AcDbEntity
  8
寸法
 62
     7
 48
50.0
100
AcDbMText
 10
7012.587231102954
 20
9089.071565814153
 30
0.0
 40
120.0
 41
0.0
 71
     5
 72
     1
  1
\A1;1273
  7
STYLE1
 73
     1
 44
1.0
1001
ACAD
1000
MTEXTBEGIN
1070
    73
1070
     1
1070
    44
1040
1.0
1070
    74
1070
     0
1000
MTEXTEND
  0
POINT
  5
1B531
330
1B3DC
100
AcDbEntity
  8
DEFPOINTS
 62
     0
 48
50.0
100
AcDbPoint
 10
6421.601915364658
 20
9332.497424545806
 30
0.0
  0
POINT
  5
1B532
330
1B3DC
100
AcDbEntity
  8
DEFPOINTS
 62
     0
 48
50.0
100
AcDbPoint
 10
7694.60191536467
 20
9332.497424545799
 30
0.0
  0
POINT
  5
1B533
330
1B3DC
100
AcDbEntity
  8
DEFPOINTS
 62
     0
 48
50.0
100
AcDbPoint
 10
7602.578069103319
 20
8989.059754790531
 30
0.0
  0
ENDBLK
  5
1B3E7
330
1B3DC
100
AcDbEntity
  8
0
 48
50.0
100
AcDbBlockEnd
  0
BLOCK
  5
1B441
330
1B437
100
AcDbEntity
  8
0
 48
50.0
100
AcDbBlockBegin
  2
*D39
 70
     1
 10
0.0
 20
0.0
 30
0.0
  3
*D39
  1

  0
LINE
  5
1B522
330
1B437
100
AcDbEntity
  8
寸法
 62
     0
 48
50.0
370
    -2
100
AcDbLine
 10
5116.242931516037
 20
9312.497424545702
 30
0.0
 11
5013.501117557467
 21
8929.059754790531
 31
0.0
  0
LINE
  5
1B523
330
1B437
100
AcDbEntity
  8
寸法
 62
     0
 48
50.0
370
    -2
100
AcDbLine
 10
6389.242931516049
 20
9312.497424545695
 30
0.0
 11
6286.501117557481
 21
8929.059754790531
 31
0.0
  0
LINE
  5
1B524
330
1B437
100
AcDbEntity
  8
寸法
 62
     0
 48
50.0
370
    -2
100
AcDbLine
 10
5029.578069103334
 20
8989.059754790531
 30
0.0
 11
6302.578069103348
 21
8989.059754790531
 31
0.0
  0
INSERT
  5
1B525
330
1B437
100
AcDbEntity
  8
寸法
 62
     0
 48
50.0
370
    -2
100
AcDbBlockReference
  2
_DOTSMALL
 10
5029.578069103334
 20
8989.059754790531
 30
0.0
 41
100.0
 42
100.0
 43
100.0
 50
180.0
  0
INSERT
  5
1B526
330
1B437
100
AcDbEntity
  8
寸法
 62
     0
 48
50.0
370
    -2
100
AcDbBlockReference
  2
_DOTSMALL
 10
6302.578069103348
 20
8989.059754790531
 30
0.0
 41
100.0
 42
100.0
 43
100.0
  0
MTEXT
  5
1B527
330
1B437
100
AcDbEntity
  8
寸法
 62
     7
 48
50.0
100
AcDbMText
 10
5666.078069103342
 20
9089.071565814153
 30
0.0
 40
120.0
 41
0.0
 71
     5
 72
     1
  1
\A1;1273
  7
STYLE1
 73
     1
 44
1.0
1001
ACAD
1000
MTEXTBEGIN
1070
    73
1070
     1
1070
    44
1040
1.0
1070
    74
1070
     0
1000
MTEXTEND
  0
POINT
  5
1B528
330
1B437
100
AcDbEntity
  8
DEFPOINTS
 62
     0
 48
50.0
100
AcDbPoint
 10
5121.601915364659
 20
9332.497424545701
 30
0.0
  0
POINT
  5
1B529
330
1B437
100
AcDbEntity
  8
DEFPOINTS
 62
     0
 48
50.0
100
AcDbPoint
 10
6394.601915364671
 20
9332.497424545694
 30
0.0
  0
POINT
  5
1B52A
330
1B437
100
AcDbEntity
  8
DEFPOINTS
 62
     0
 48
50.0
100
AcDbPoint
 10
6302.578069103348
 20
8989.059754790531
 30
0.0
  0
ENDBLK
  5
1B442
330
1B437
100
AcDbEntity
  8
0
 48
50.0
100
AcDbBlockEnd
  0
BLOCK
  5
1B75D
330
1B753
100
AcDbEntity
  8
0
 48
50.0
100
AcDbBlockBegin
  2
*D40
 70
     1
 10
0.0
 20
0.0
 30
0.0
  3
*D40
  1

  0
LINE
  5
1B81E
330
1B753
100
AcDbEntity
  8
寸法
 62
     0
 48
50.0
370
    -2
100
AcDbLine
 10
7743.10191536467
 20
2343.856458683346
 30
0.0
 11
8070.645017686416
 21
2343.856458683346
 31
0.0
  0
LINE
  5
1B81F
330
1B753
100
AcDbEntity
  8
寸法
 62
     0
 48
50.0
370
    -2
100
AcDbLine
 10
7743.101915364672
 20
4229.856458683344
 30
0.0
 11
8070.645017686416
 21
4229.856458683344
 31
0.0
  0
LINE
  5
1B820
330
1B753
100
AcDbEntity
  8
寸法
 62
     0
 48
50.0
370
    -2
100
AcDbLine
 10
8010.645017686417
 20
2343.856458683346
 30
0.0
 11
8010.645017686417
 21
4229.856458683344
 31
0.0
  0
INSERT
  5
1B821
330
1B753
100
AcDbEntity
  8
寸法
 62
     0
 48
50.0
370
    -2
100
AcDbBlockReference
  2
_DOTSMALL
 10
8010.645017686417
 20
2343.856458683346
 30
0.0
 41
100.0
 42
100.0
 43
100.0
 50
270.0
  0
INSERT
  5
1B822
330
1B753
100
AcDbEntity
  8
寸法
 62
     0
 48
50.0
370
    -2
100
AcDbBlockReference
  2
_DOTSMALL
 10
8010.645017686417
 20
4229.856458683344
 30
0.0
 41
100.0
 42
100.0
 43
100.0
 50
90.0
  0
MTEXT
  5
1B823
330
1B753
100
AcDbEntity
  8
寸法
 62
     7
 48
50.0
100
AcDbMText
 10
7910.645017686416
 20
3286.856458683347
 30
0.0
 40
120.0
 41
0.0
 71
     5
 72
     1
  1
\A1;有効開口部高サ 1886
  7
STYLE1
 11
0.0000000000000001
 21
1.0
 31
0.0
 73
     1
 44
1.0
1001
ACAD
1000
MTEXTBEGIN
1070
    73
1070
     1
1070
    44
1040
1.0
1070
    74
1070
     0
1000
MTEXTEND
  0
POINT
  5
1B824
330
1B753
100
AcDbEntity
  8
DEFPOINTS
 62
     0
 48
50.0
100
AcDbPoint
 10
7723.10191536467
 20
2343.856458683346
 30
0.0
  0
POINT
  5
1B825
330
1B753
100
AcDbEntity
  8
DEFPOINTS
 62
     0
 48
50.0
100
AcDbPoint
 10
7723.101915364671
 20
4229.856458683344
 30
0.0
  0
POINT
  5
1B826
330
1B753
100
AcDbEntity
  8
DEFPOINTS
 62
     0
 48
50.0
100
AcDbPoint
 10
8010.645017686417
 20
4229.856458683344
 30
0.0
  0
ENDBLK
  5
1B75E
330
1B753
100
AcDbEntity
  8
0
 48
50.0
100
AcDbBlockEnd
  0
BLOCK
  5
1B76B
330
1B75F
100
AcDbEntity
  8
0
 48
50.0
100
AcDbBlockBegin
  2
*D41
 70
     1
 10
0.0
 20
0.0
 30
0.0
  3
*D41
  1

  0
LINE
  5
1BB63
330
1B75F
100
AcDbEntity
  8
寸法
 62
     0
 48
50.0
370
    -2
100
AcDbLine
 10
7743.101915364672
 20
4229.856458683344
 30
0.0
 11
8070.645017686416
 21
4229.856458683344
 31
0.0
  0
LINE
  5
1BB64
330
1B75F
100
AcDbEntity
  8
寸法
 62
     0
 48
50.0
370
    -2
100
AcDbLine
 10
7743.10191536467
 20
4256.856458683345
 30
0.0
 11
8070.645017686416
 21
4256.856458683345
 31
0.0
  0
LINE
  5
1BB65
330
1B75F
100
AcDbEntity
  8
寸法
 62
     0
 48
50.0
370
    -2
100
AcDbLine
 10
8010.645017686417
 20
4229.856458683344
 30
0.0
 11
8010.645017686417
 21
4129.856458683344
 31
0.0
  0
LINE
  5
1BB66
330
1B75F
100
AcDbEntity
  8
寸法
 62
     0
 48
50.0
370
    -2
100
AcDbLine
 10
8010.645017686417
 20
4256.856458683345
 30
0.0
 11
8010.645017686417
 21
4356.856458683345
 31
0.0
  0
MTEXT
  5
1BB67
330
1B75F
100
AcDbEntity
  8
寸法
 62
     7
 48
50.0
100
AcDbMText
 10
8150.814840932783
 20
4257.823658523004
 30
0.0
 40
120.0
 41
0.0
 71
     5
 72
     1
  1
\A1;27
  7
STYLE1
 11
0.0000000000000001
 21
1.0
 31
0.0
 73
     1
 44
1.0
1001
ACAD
1000
MTEXTBEGIN
1070
    73
1070
     1
1070
    44
1040
1.0
1070
    74
1070
     0
1000
MTEXTEND
  0
LINE
  5
1BB68
330
1B75F
100
AcDbEntity
  8
寸法
 62
     0
 48
50.0
370
    -2
100
AcDbLine
 10
8010.645017686417
 20
4229.856458683344
 30
0.0
 11
8010.645017686417
 21
4256.856458683345
 31
0.0
  0
INSERT
  5
1BB69
330
1B75F
100
AcDbEntity
  8
寸法
 62
     0
 48
50.0
370
    -2
100
AcDbBlockReference
  2
_DOTSMALL
 10
8010.645017686417
 20
4229.856458683344
 30
0.0
 41
100.0
 42
100.0
 43
100.0
 50
90.0
  0
INSERT
  5
1BB6A
330
1B75F
100
AcDbEntity
  8
寸法
 62
     0
 48
50.0
370
    -2
100
AcDbBlockReference
  2
_DOTSMALL
 10
8010.645017686417
 20
4256.856458683345
 30
0.0
 41
100.0
 42
100.0
 43
100.0
 50
270.0
  0
POINT
  5
1BB6B
330
1B75F
100
AcDbEntity
  8
DEFPOINTS
 62
     0
 48
50.0
100
AcDbPoint
 10
7723.101915364671
 20
4229.856458683344
 30
0.0
  0
POINT
  5
1BB6C
330
1B75F
100
AcDbEntity
  8
DEFPOINTS
 62
     0
 48
50.0
100
AcDbPoint
 10
7723.10191536467
 20
4256.856458683345
 30
0.0
  0
POINT
  5
1BB6D
330
1B75F
100
AcDbEntity
  8
DEFPOINTS
 62
     0
 48
50.0
100
AcDbPoint
 10
8010.645017686417
 20
4256.856458683345
 30
0.0
  0
ENDBLK
  5
1B76C
330
1B75F
100
AcDbEntity
  8
0
 48
50.0
100
AcDbBlockEnd
  0
BLOCK
  5
1B778
330
1B76D
100
AcDbEntity
  8
0
 48
50.0
100
AcDbBlockBegin
  2
*D42
 70
     1
 10
0.0
 20
0.0
 30
0.0
  3
*D42
  1

  0
LINE
  5
1BB59
330
1B76D
100
AcDbEntity
  8
寸法
 62
     0
 48
50.0
370
    -2
100
AcDbLine
 10
7743.10191536467
 20
4256.856458683345
 30
0.0
 11
8070.645017686418
 21
4256.856458683345
 31
0.0
  0
LINE
  5
1BB5A
330
1B76D
100
AcDbEntity
  8
寸法
 62
     0
 48
50.0
370
    -2
100
AcDbLine
 10
7743.10191536467
 20
4421.856458683345
 30
0.0
 11
8070.645017686418
 21
4421.856458683345
 31
0.0
  0
LINE
  5
1BB5B
330
1B76D
100
AcDbEntity
  8
寸法
 62
     0
 48
50.0
370
    -2
100
AcDbLine
 10
8010.645017686417
 20
4256.856458683345
 30
0.0
 11
8010.645017686417
 21
4421.856458683345
 31
0.0
  0
LINE
  5
1BB5C
330
1B76D
100
AcDbEntity
  8
寸法
 62
     0
 48
50.0
370
    -2
100
AcDbLine
 10
8010.645017686417
 20
4421.856458683345
 30
0.0
 11
8010.645017686417
 21
4798.827021431823
 31
0.0
  0
INSERT
  5
1BB5D
330
1B76D
100
AcDbEntity
  8
寸法
 62
     0
 48
50.0
370
    -2
100
AcDbBlockReference
  2
_DOTSMALL
 10
8010.645017686417
 20
4256.856458683345
 30
0.0
 41
100.0
 42
100.0
 43
100.0
 50
270.0
  0
INSERT
  5
1BB5E
330
1B76D
100
AcDbEntity
  8
寸法
 62
     0
 48
50.0
370
    -2
100
AcDbBlockReference
  2
_DOTSMALL
 10
8010.645017686417
 20
4421.856458683345
 30
0.0
 41
100.0
 42
100.0
 43
100.0
 50
90.0
  0
MTEXT
  5
1BB5F
330
1B76D
100
AcDbEntity
  8
寸法
 62
     7
 48
50.0
100
AcDbMText
 10
7910.645017686417
 20
4660.341740057585
 30
0.0
 40
120.0
 41
0.0
 71
     5
 72
     1
  1
\A1;165
  7
STYLE1
 11
0.0000000000000001
 21
1.0
 31
0.0
 73
     1
 44
1.0
1001
ACAD
1000
MTEXTBEGIN
1070
    73
1070
     1
1070
    44
1040
1.0
1070
    74
1070
     0
1000
MTEXTEND
  0
POINT
  5
1BB60
330
1B76D
100
AcDbEntity
  8
DEFPOINTS
 62
     0
 48
50.0
100
AcDbPoint
 10
7723.10191536467
 20
4256.856458683345
 30
0.0
  0
POINT
  5
1BB61
330
1B76D
100
AcDbEntity
  8
DEFPOINTS
 62
     0
 48
50.0
100
AcDbPoint
 10
7723.10191536467
 20
4421.856458683345
 30
0.0
  0
POINT
  5
1BB62
330
1B76D
100
AcDbEntity
  8
DEFPOINTS
 62
     0
 48
50.0
100
AcDbPoint
 10
8010.645017686417
 20
4421.856458683345
 30
0.0
  0
ENDBLK
  5
1B779
330
1B76D
100
AcDbEntity
  8
0
 48
50.0
100
AcDbBlockEnd
  0
ENDSEC
  0
SECTION
  2
ENTITIES
  0
MTEXT
  5
763F
330
747D
100
AcDbEntity
  8
0
100
AcDbMText
 10
302.846345836809
 20
280.1983726409901
 30
0.0
 40
3.5
 41
5.323721266742722
 71
     1
 72
     5
  1

  7
MSMINCHO
 73
     1
 44
1.0
1001
ACAD
1000
MTEXTBEGIN
1070
    73
1070
     1
1070
    44
1040
1.0
1070
    74
1070
     0
1000
MTEXTEND
  0
LINE
  5
10B57
330
747D
100
AcDbEntity
  8
補助
  6
PHANTOM
 62
   230
 48
50.0
100
AcDbLine
 10
139.9999999999995
 20
11409.6
 30
0.0
 11
16307.2
 21
11409.6
 31
0.0
  0
LINE
  5
10B59
330
747D
100
AcDbEntity
  8
仕様書枠
  6
Continuous
 48
50.0
100
AcDbLine
 10
13107.2
 20
1200.0
 30
0.0
 11
13107.2
 21
-0.0000000000000729
 31
0.0
  0
LINE
  5
10B5C
330
747D
100
AcDbEntity
  8
仕様書枠
 48
50.0
100
AcDbLine
 10
16307.2
 20
1200.0
 30
0.0
 11
16307.2
 21
-0.0000000000000909
 31
0.0
  0
LINE
  5
10B5D
330
747D
100
AcDbEntity
  8
仕様書枠
 48
50.0
100
AcDbLine
 10
140.0
 20
0.0
 30
0.0
 11
16307.2
 21
-0.0000000000000909
 31
0.0
  0
LINE
  5
10B5E
330
747D
100
AcDbEntity
  8
補助
  6
PHANTOM
 62
   230
 48
50.0
100
AcDbLine
 10
16307.2
 20
11409.6
 30
0.0
 11
16307.2
 21
1200.0
 31
0.0
  0
LINE
  5
10B6C
330
747D
100
AcDbEntity
  8
仕様書枠
 48
50.0
100
AcDbLine
 10
13107.2
 20
1200.0
 30
0.0
 11
16307.2
 21
1200.0
 31
0.0
  0
LINE
  5
10B6D
330
747D
100
AcDbEntity
  8
補助
  6
PHANTOM
 62
   230
 48
50.0
100
AcDbLine
 10
13107.2
 20
11409.6
 30
0.0
 11
13107.2
 21
4800.0
 31
0.0
  0
LINE
  5
10B6F
330
747D
100
AcDbEntity
  8
補助
  6
PHANTOM
 62
   230
 48
50.0
100
AcDbLine
 10
13107.2
 20
4800.0
 30
0.0
 11
16307.2
 21
4800.0
 31
0.0
  0
LINE
  5
10B72
330
747D
100
AcDbEntity
  8
文字
 62
     7
 48
50.0
100
AcDbLine
 10
13187.2
 20
400.0
 30
0.0
 11
16227.2
 21
400.0
 31
0.0
  0
TEXT
  5
10B73
330
747D
100
AcDbEntity
  8
文字
 62
     7
 48
50.0
100
AcDbText
 10
13162.9790565769
 20
895.0906074299405
 30
0.0
 40
200.0
  1
外 形 図
  7
STYLE2
100
AcDbText
  0
TEXT
  5
10B74
330
747D
100
AcDbEntity
  8
文字
 62
     7
 48
50.0
100
AcDbText
 10
13201.43669998441
 20
477.2740661031255
 30
0.0
 40
160.0
  1
機種名
  7
STYLE2
100
AcDbText
  0
TEXT
  5
10B75
330
747D
100
AcDbEntity
  8
文字
 62
     7
 48
50.0
100
AcDbText
 10
13209.4053442172
 20
228.5435242569016
 30
0.0
 40
100.0
  1
○有効開口寸法 ： 2424×1886(mm)
  7
STYLE2
100
AcDbText
  0
TEXT
  5
10B76
330
747D
100
AcDbEntity
  8
文字
 62
     7
 48
50.0
100
AcDbText
 10
13209.4053442172
 20
76.09434707649343
 30
0.0
 40
100.0
  1
○床面積 ： 13.83㎡(4.19坪)
  7
STYLE2
100
AcDbText
  0
TEXT
  5
10B79
330
747D
100
AcDbEntity
  8
文字
 62
     7
 48
50.0
100
AcDbText
 10
14524.131837222
 20
1031.557706291228
 30
0.0
 40
100.0
  1
NO.29      <縮尺> S=1/40
  7
STYLE2
100
AcDbText
  0
LINE
  5
10B7B
330
747D
100
AcDbEntity
  8
仕様書枠
 48
50.0
100
AcDbLine
 10
13107.2
 20
800.0
 30
0.0
 11
14251.2
 21
800.0
 31
0.0
  0
LINE
  5
10B88
330
747D
100
AcDbEntity
  8
仕様書枠
  6
Continuous
 48
50.0
100
AcDbLine
 10
14251.2
 20
1200.0
 30
0.0
 11
14251.2
 21
800.0
 31
0.0
  0
DIMENSION
  5
162CD
330
747D
100
AcDbEntity
  8
寸法
100
AcDbDimension
  2
*D1
 10
8370.528261099076
 20
7237.497424545951
 30
0.0
 11
8270.516450075454
 21
8497.497424545958
 31
0.0
 12
-1917.035441600603
 22
39.99999999999772
 32
0.0
 70
    32
  1
6X420=<>
 71
     5
 42
-1.0
  3
INABA_S40G
100
AcDbAlignedDimension
 13
7723.10191536467
 23
9757.497424545967
 33
0.0
 14
7723.101915364644
 24
7237.497424545951
 34
0.0
 50
90.0
100
AcDbRotatedDimension
1001
ACAD
1000
DSTYLE
1002
{
1002
}
  0
DIMENSION
  5
162CE
330
747D
100
AcDbEntity
  8
寸法
100
AcDbDimension
  2
*D2
 10
8370.528261099055
 20
7182.497424545954
 30
0.0
 11
8370.528261099055
 21
6804.635957641092
 31
0.0
 12
348.4288582410063
 22
199.9999999999977
 32
0.0
 70
   160
 71
     5
 42
-1.0
  3
INABA_S40G
100
AcDbAlignedDimension
 13
7723.101915364644
 23
7237.497424545951
 33
0.0
 14
7723.101915364644
 24
7182.497424545954
 34
0.0
 50
90.0
100
AcDbRotatedDimension
1001
ACAD
1000
DSTYLE
1002
{
1002
}
  0
DIMENSION
  5
162CF
330
747D
100
AcDbEntity
  8
寸法
100
AcDbDimension
  2
*D3
 10
8370.52826109908
 20
9757.497424545967
 30
0.0
 11
8370.52826109908
 21
10120.9827059202
 31
0.0
 12
348.4288582410063
 22
-220.0000000000023
 32
0.0
 70
   160
 71
     5
 42
-1.0
  3
INABA_S40G
100
AcDbAlignedDimension
 13
7723.10191536467
 23
9812.497424545961
 33
0.0
 14
7723.10191536467
 24
9757.497424545967
 34
0.0
 50
90.0
100
AcDbRotatedDimension
1001
ACAD
1000
DSTYLE
1002
{
1002
}
  0
DIMENSION
  5
162D0
330
747D
100
AcDbEntity
  8
寸法
100
AcDbDimension
  2
*D4
 10
8735.635202838714
 20
7182.497424545954
 30
0.0
 11
8635.623391815093
 21
8497.497424545958
 31
0.0
 12
-1917.035441600603
 22
39.99999999999772
 32
0.0
 70
    32
 71
     5
 42
-1.0
  3
INABA_S40G
100
AcDbAlignedDimension
 13
7723.10191536467
 23
9812.497424545961
 33
0.0
 14
7723.101915364644
 24
7182.497424545954
 34
0.0
 50
90.0
100
AcDbRotatedDimension
1001
ACAD
1000
DSTYLE
1002
{
1002
}
  0
LINE
  5
162DC
330
747D
100
AcDbEntity
  8
部品1
100
AcDbLine
 10
7695.101915364654
 20
9784.497424545962
 30
0.0
 11
7695.101915364647
 21
7237.497424545951
 31
0.0
  0
LINE
  5
162DD
330
747D
100
AcDbEntity
  8
部品1
100
AcDbLine
 10
2491.101915364645
 20
7237.497424545672
 30
0.0
 11
2491.101915364656
 21
9784.497424545723
 31
0.0
  0
LINE
  5
162DE
330
747D
100
AcDbEntity
  8
部品1
100
AcDbLine
 10
7723.10191536467
 20
9812.497424545961
 30
0.0
 11
7723.101915364644
 21
7182.497424545954
 31
0.0
  0
LINE
  5
162DF
330
747D
100
AcDbEntity
  8
部品1
100
AcDbLine
 10
2463.101915364636
 20
9812.497424545689
 30
0.0
 11
2463.101915364663
 21
7182.497424545676
 31
0.0
  0
DIMENSION
  5
162E4
330
747D
100
AcDbEntity
  8
寸法
 48
50.0
100
AcDbDimension
  2
*D5
 10
5196.101915364663
 20
6648.066653779699
 30
0.0
 11
6408.101915364653
 21
6748.07846480332
 31
0.0
 12
-2337.035441600603
 22
39.99999999999772
 32
0.0
 70
    32
  1
有効開口部間口 <>
 71
     5
 42
-1.0
  3
INABA_S40G
100
AcDbAlignedDimension
 13
7620.101915364646
 23
7208.497424545864
 33
0.0
 14
5196.101915364663
 24
7208.497424545864
 34
0.0
100
AcDbRotatedDimension
1001
ACAD
1000
DSTYLE
1002
{
1070
    75
1070
     1
1070
   279
1070
     2
1002
}
  0
LINE
  5
162E6
330
747D
100
AcDbEntity
  8
部品1
 48
50.0
100
AcDbLine
 10
5160.101915364661
 20
7227.997424545861
 30
0.0
 11
7656.101915364647
 21
7227.997424545861
 31
0.0
  0
DIMENSION
  5
162E7
330
747D
100
AcDbEntity
  8
寸法
100
AcDbDimension
  2
*D6
 10
7723.101915364634
 20
6201.893658188677
 30
0.0
 11
5093.101915364648
 21
6301.905469212299
 31
0.0
 12
-2127.035441600603
 22
39.99999999999772
 32
0.0
 70
    32
 71
     5
 42
-1.0
  3
INABA_S40G
100
AcDbAlignedDimension
 13
2463.101915364663
 23
7182.497424545712
 33
0.0
 14
7723.101915364634
 24
7182.497424545954
 34
0.0
100
AcDbRotatedDimension
1001
ACAD
1000
DSTYLE
1002
{
1002
}
  0
LINE
  5
162E8
330
747D
100
AcDbEntity
  8
部品1
100
AcDbLine
 10
2518.101915364647
 20
9332.497424545705
 30
0.0
 11
2518.101915364661
 21
7247.497424545715
 31
0.0
  0
DIMENSION
  5
162EA
330
747D
100
AcDbEntity
  8
寸法
 48
50.0
100
AcDbDimension
  2
*D7
 10
2463.101915364663
 20
6648.066653779551
 30
0.0
 11
2154.616633990425
 21
6648.066653779551
 31
0.0
 12
-2281.571141758994
 22
199.9999999998513
 32
0.0
 70
   160
 71
     5
 42
-1.0
  3
INABA_S40G
100
AcDbAlignedDimension
 13
2518.10191536466
 23
7182.497424545715
 33
0.0
 14
2463.101915364663
 24
7182.497424545712
 34
0.0
100
AcDbRotatedDimension
1001
ACAD
1000
DSTYLE
1002
{
1002
}
  0
DIMENSION
  5
162EB
330
747D
100
AcDbEntity
  8
寸法
 48
50.0
100
AcDbDimension
  2
*D8
 10
5148.101915364659
 20
6648.066653779699
 30
0.0
 11
5309.00388636472
 21
6748.066653779699
 31
0.0
 12
348.4288582410063
 22
199.9999999999977
 32
0.0
 70
   160
 71
     5
 42
-1.0
  3
INABA_S40G
100
AcDbAlignedDimension
 13
5196.101915364663
 23
7208.497424545864
 33
0.0
 14
5148.101915364659
 24
7182.497424545863
 34
0.0
100
AcDbRotatedDimension
1001
ACAD
1000
DSTYLE
1002
{
1070
   279
1070
     2
1002
}
  0
LINE
  5
162EC
330
747D
100
AcDbEntity
  8
部品1
100
AcDbLine
 10
2518.101915364658
 20
7182.497424545715
 30
0.0
 11
2463.101915364663
 21
7182.497424545712
 31
0.0
  0
LINE
  5
162ED
330
747D
100
AcDbEntity
  8
部品1
 48
50.0
100
AcDbLine
 10
2518.101915364663
 20
7218.497424545714
 30
0.0
 11
2495.101915364663
 21
7218.497424545714
 31
0.0
  0
LINE
  5
162EE
330
747D
100
AcDbEntity
  8
部品1
 48
50.0
100
AcDbLine
 10
2528.101915364663
 20
7208.497424545716
 30
0.0
 11
2518.101915364663
 21
7187.497424545717
 31
0.0
  0
LINE
  5
162EF
330
747D
100
AcDbEntity
  8
部品1
 48
50.0
100
AcDbLine
 10
2518.101915364663
 20
7247.497424545715
 30
0.0
 11
2518.10191536466
 21
7182.497424545715
 31
0.0
  0
LINE
  5
162F0
330
747D
100
AcDbEntity
  8
部品1
 48
50.0
100
AcDbLine
 10
2566.101915364663
 20
7208.497424545716
 30
0.0
 11
2566.101915364663
 21
7217.497424545716
 31
0.0
  0
LINE
  5
162F1
330
747D
100
AcDbEntity
  8
部品1
 48
50.0
100
AcDbLine
 10
2566.101915364663
 20
7247.497424545716
 30
0.0
 11
2566.101915364663
 21
7238.497424545716
 31
0.0
  0
LINE
  5
162F2
330
747D
100
AcDbEntity
  8
部品1
100
AcDbLine
 10
2566.101915364663
 20
7247.497424545716
 30
0.0
 11
2518.101915364663
 21
7247.497424545716
 31
0.0
  0
LINE
  5
162F3
330
747D
100
AcDbEntity
  8
部品1
100
AcDbLine
 10
2566.101915364663
 20
7208.497424545716
 30
0.0
 11
2518.101915364663
 21
7208.497424545716
 31
0.0
  0
LINE
  5
162F4
330
747D
100
AcDbEntity
  8
部品1
100
AcDbLine
 10
2518.101915364661
 20
7218.497424545714
 30
0.0
 11
2495.101915364663
 21
7218.497424545714
 31
0.0
  0
LINE
  5
162F5
330
747D
100
AcDbEntity
  8
部品1
100
AcDbLine
 10
2518.101915364661
 20
7237.49742454564
 30
0.0
 11
2463.101915364661
 21
7237.49742454564
 31
0.0
  0
LINE
  5
162F6
330
747D
100
AcDbEntity
  8
部品1
100
AcDbLine
 10
2491.101915364645
 20
7237.497424545676
 30
0.0
 11
2463.101915364661
 21
7237.497424545676
 31
0.0
  0
LINE
  5
162F7
330
747D
100
AcDbEntity
  8
部品1
100
AcDbLine
 10
2491.101915364661
 20
7237.497424545691
 30
0.0
 11
2463.101915364661
 21
7237.497424545691
 31
0.0
  0
LINE
  5
162FB
330
747D
100
AcDbEntity
  8
部品1
100
AcDbLine
 10
2491.10191536465
 20
8497.497424545692
 30
0.0
 11
2463.10191536465
 21
8497.497424545692
 31
0.0
  0
LINE
  5
162FC
330
747D
100
AcDbEntity
  8
部品1
100
AcDbLine
 10
2491.10191536465
 20
8917.497424545691
 30
0.0
 11
2463.10191536465
 21
8917.497424545691
 31
0.0
  0
LINE
  5
162FE
330
747D
100
AcDbEntity
  8
部品1
100
AcDbLine
 10
2491.101915364643
 20
9337.497424545693
 30
0.0
 11
2463.101915364643
 21
9337.497424545693
 31
0.0
  0
DIMENSION
  5
16301
330
747D
100
AcDbEntity
  8
寸法
 48
50.0
100
AcDbDimension
  2
*D9
 10
7620.101915364646
 20
6648.066653779699
 30
0.0
 11
7509.139017715897
 21
6748.066653779699
 31
0.0
 12
348.4288582410063
 22
199.9999999999977
 32
0.0
 70
   160
 71
     5
 42
-1.0
  3
INABA_S40G
100
AcDbAlignedDimension
 13
7668.101915364648
 23
7182.497424545951
 33
0.0
 14
7620.101915364646
 24
7208.497424545864
 34
0.0
100
AcDbRotatedDimension
1001
ACAD
1000
DSTYLE
1002
{
1070
   279
1070
     2
1002
}
  0
DIMENSION
  5
16302
330
747D
100
AcDbEntity
  8
寸法
 48
50.0
100
AcDbDimension
  2
*D10
 10
7668.101915364648
 20
6648.066653779699
 30
0.0
 11
8031.587196738882
 21
6648.066653779699
 31
0.0
 12
348.4288582410063
 22
199.9999999999977
 32
0.0
 70
   160
 71
     5
 42
-1.0
  3
INABA_S40G
100
AcDbAlignedDimension
 13
7723.101915364644
 23
7182.497424545954
 33
0.0
 14
7668.101915364648
 24
7182.497424545951
 34
0.0
100
AcDbRotatedDimension
1001
ACAD
1000
DSTYLE
1002
{
1002
}
  0
LINE
  5
16303
330
747D
100
AcDbEntity
  8
部品1
 48
50.0
100
AcDbLine
 10
7658.101915364645
 20
7208.497424545864
 30
0.0
 11
7668.101915364644
 21
7187.497424545863
 31
0.0
  0
LINE
  5
16304
330
747D
100
AcDbEntity
  8
部品1
100
AcDbLine
 10
7620.101915364646
 20
7247.497424545864
 30
0.0
 11
7668.101915364648
 21
7247.497424545864
 31
0.0
  0
LINE
  5
16305
330
747D
100
AcDbEntity
  8
部品1
100
AcDbLine
 10
7620.101915364646
 20
7208.497424545864
 30
0.0
 11
7668.101915364644
 21
7208.497424545864
 31
0.0
  0
LINE
  5
16306
330
747D
100
AcDbEntity
  8
部品1
 48
50.0
100
AcDbLine
 10
7620.101915364646
 20
7247.497424545864
 30
0.0
 11
7620.101915364646
 21
7238.497424545863
 31
0.0
  0
LINE
  5
16307
330
747D
100
AcDbEntity
  8
部品1
 48
50.0
100
AcDbLine
 10
7620.101915364646
 20
7208.497424545864
 30
0.0
 11
7620.101915364646
 21
7217.497424545864
 31
0.0
  0
LINE
  5
16308
330
747D
100
AcDbEntity
  8
部品1
100
AcDbLine
 10
7668.101915364644
 20
7218.49742454586
 30
0.0
 11
7691.101915364645
 21
7218.497424545862
 31
0.0
  0
LINE
  5
16309
330
747D
100
AcDbEntity
  8
部品1
100
AcDbLine
 10
7668.101915364644
 20
7237.497424545965
 30
0.0
 11
7723.101915364678
 21
7237.497424545965
 31
0.0
  0
LINE
  5
1630A
330
747D
100
AcDbEntity
  8
部品1
100
AcDbLine
 10
7723.101915364644
 20
7182.497424545954
 30
0.0
 11
7668.101915364648
 21
7182.497424545951
 31
0.0
  0
LINE
  5
16317
330
747D
100
AcDbEntity
  8
部品1
100
AcDbLine
 10
7695.101915364674
 20
8497.497424545965
 30
0.0
 11
7723.101915364674
 21
8497.497424545965
 31
0.0
  0
LINE
  5
16319
330
747D
100
AcDbEntity
  8
部品1
100
AcDbLine
 10
7695.101915364674
 20
8917.497424545965
 30
0.0
 11
7723.101915364674
 21
8917.497424545965
 31
0.0
  0
LINE
  5
1631A
330
747D
100
AcDbEntity
  8
部品1
100
AcDbLine
 10
7695.10191536467
 20
9337.497424545965
 30
0.0
 11
7723.10191536467
 21
9337.497424545965
 31
0.0
  0
LINE
  5
1631C
330
747D
100
AcDbEntity
  8
部品1
100
AcDbLine
 10
5121.101915364668
 20
9784.497424545868
 30
0.0
 11
6395.601915364668
 21
9784.497424545868
 31
0.0
  0
DIMENSION
  5
1631F
330
747D
100
AcDbEntity
  8
寸法
100
AcDbDimension
  2
*D11
 10
7668.10191536467
 20
10328.30564417096
 30
0.0
 11
6408.101915364669
 21
10428.31745519458
 31
0.0
 70
    32
  1
6X420=<>
 71
     5
 42
2520.000000000002
  3
INABA_S40G
100
AcDbAlignedDimension
 13
5148.101915364668
 23
9812.497424545867
 33
0.0
 14
7668.10191536467
 24
9812.497424545961
 34
0.0
100
AcDbRotatedDimension
1001
ACAD
1000
DSTYLE
1002
{
1002
}
  0
DIMENSION
  5
16320
330
747D
100
AcDbEntity
  8
寸法
100
AcDbDimension
  2
*D12
 10
2518.101915364669
 20
10328.3056441707
 30
0.0
 11
2154.616633990396
 21
10328.3056441707
 31
0.0
 70
   160
 71
     5
 42
55.00000000003274
  3
INABA_S40G
100
AcDbAlignedDimension
 13
2463.101915364636
 23
9812.497424545723
 33
0.0
 14
2518.101915364669
 24
9812.497424545723
 34
0.0
100
AcDbRotatedDimension
1001
ACAD
1000
DSTYLE
1002
{
1002
}
  0
LINE
  5
16321
330
747D
100
AcDbEntity
  8
部品1
100
AcDbLine
 10
2518.101915364636
 20
9812.497424545689
 30
0.0
 11
2518.101915364636
 21
9784.497424545691
 31
0.0
  0
LINE
  5
16322
330
747D
100
AcDbEntity
  8
部品1
100
AcDbLine
 10
2518.101915364669
 20
9812.497424545723
 30
0.0
 11
2518.101915364669
 21
9784.497424545723
 31
0.0
  0
LINE
  5
16323
330
747D
100
AcDbEntity
  8
部品1
100
AcDbLine
 10
2491.101915364636
 20
9757.497424545693
 30
0.0
 11
2463.101915364636
 21
9757.497424545693
 31
0.0
  0
LINE
  5
16324
330
747D
100
AcDbEntity
  8
部品1
100
AcDbLine
 10
5568.101915364668
 20
9812.497424545984
 30
0.0
 11
5568.101915364668
 21
9784.497424545984
 31
0.0
  0
LINE
  5
16325
330
747D
100
AcDbEntity
  8
部品1
100
AcDbLine
 10
5568.101915364668
 20
9812.497424545867
 30
0.0
 11
5568.101915364668
 21
9784.497424545868
 31
0.0
  0
LINE
  5
16326
330
747D
100
AcDbEntity
  8
部品1
100
AcDbLine
 10
5568.101915364668
 20
9812.497424545867
 30
0.0
 11
5568.101915364668
 21
9784.497424545868
 31
0.0
  0
LINE
  5
16329
330
747D
100
AcDbEntity
  8
部品1
100
AcDbLine
 10
5988.101915364668
 20
9812.497424545984
 30
0.0
 11
5988.101915364668
 21
9784.497424545984
 31
0.0
  0
LINE
  5
1632A
330
747D
100
AcDbEntity
  8
部品1
100
AcDbLine
 10
5988.101915364668
 20
9812.497424545867
 30
0.0
 11
5988.101915364668
 21
9784.497424545868
 31
0.0
  0
LINE
  5
1632B
330
747D
100
AcDbEntity
  8
部品1
100
AcDbLine
 10
5988.101915364668
 20
9812.497424545867
 30
0.0
 11
5988.101915364668
 21
9784.497424545868
 31
0.0
  0
LINE
  5
1632C
330
747D
100
AcDbEntity
  8
部品1
100
AcDbLine
 10
6408.101915364667
 20
9812.497424545984
 30
0.0
 11
6408.101915364667
 21
9784.497424545984
 31
0.0
  0
LINE
  5
16332
330
747D
100
AcDbEntity
  8
部品1
100
AcDbLine
 10
6828.101915364668
 20
9812.497424545984
 30
0.0
 11
6828.101915364668
 21
9784.497424545984
 31
0.0
  0
DIMENSION
  5
16333
330
747D
100
AcDbEntity
  8
寸法
100
AcDbDimension
  2
*D13
 10
7723.10191536467
 20
10328.30564417094
 30
0.0
 11
8031.587196738909
 21
10328.30564417094
 31
0.0
 70
   160
 71
     5
 42
55.0
  3
INABA_S40G
100
AcDbAlignedDimension
 13
7668.10191536467
 23
9812.497424545961
 33
0.0
 14
7723.10191536467
 24
9812.497424545961
 34
0.0
100
AcDbRotatedDimension
1001
ACAD
1000
DSTYLE
1002
{
1002
}
  0
LINE
  5
16334
330
747D
100
AcDbEntity
  8
部品1
100
AcDbLine
 10
7248.101915364668
 20
9812.497424545984
 30
0.0
 11
7248.101915364668
 21
9784.497424545984
 31
0.0
  0
LINE
  5
16335
330
747D
100
AcDbEntity
  8
部品1
100
AcDbLine
 10
7668.10191536467
 20
9812.497424545961
 30
0.0
 11
7668.10191536467
 21
9784.497424545962
 31
0.0
  0
LINE
  5
16336
330
747D
100
AcDbEntity
  8
部品1
100
AcDbLine
 10
7668.10191536467
 20
9812.497424545984
 30
0.0
 11
7668.10191536467
 21
9784.497424545984
 31
0.0
  0
LINE
  5
16337
330
747D
100
AcDbEntity
  8
部品1
100
AcDbLine
 10
7695.10191536467
 20
9757.497424545967
 30
0.0
 11
7723.10191536467
 21
9757.497424545967
 31
0.0
  0
DIMENSION
  5
1659A
330
747D
100
AcDbEntity
  8
寸法
 48
50.0
100
AcDbDimension
  2
*D15
 10
4990.101915364645
 20
6648.066653779699
 30
0.0
 11
4879.139017715897
 21
6748.066653779699
 31
0.0
 12
-3596.571141758994
 22
199.9999999999977
 32
0.0
 70
   160
 71
     5
 42
-1.0
  3
INABA_S40G
100
AcDbAlignedDimension
 13
5038.101915364647
 23
7182.497424545951
 33
0.0
 14
4990.101915364645
 24
7208.497424545864
 34
0.0
100
AcDbRotatedDimension
1001
ACAD
1000
DSTYLE
1002
{
1070
   279
1070
     2
1002
}
  0
DIMENSION
  5
1659C
330
747D
100
AcDbEntity
  8
寸法
 48
50.0
100
AcDbDimension
  2
*D14
 10
2518.10191536466
 20
6648.066653779551
 30
0.0
 11
2679.00388636472
 21
6748.066653779551
 31
0.0
 12
-3596.571141758994
 22
199.9999999998513
 32
0.0
 70
   160
 71
     5
 42
-1.0
  3
INABA_S40G
100
AcDbAlignedDimension
 13
2566.101915364663
 23
7208.497424545716
 33
0.0
 14
2518.10191536466
 24
7182.497424545715
 34
0.0
100
AcDbRotatedDimension
1001
ACAD
1000
DSTYLE
1002
{
1070
   279
1070
     2
1002
}
  0
DIMENSION
  5
165E9
330
747D
100
AcDbEntity
  8
寸法
 48
50.0
100
AcDbDimension
  2
*D16
 10
5038.101915364647
 20
6648.066653779699
 30
0.0
 11
5093.101915364654
 21
6496.374758743468
 31
0.0
 12
-966.5711417589937
 22
-60.00000000000227
 32
0.0
 70
   160
 71
     5
 42
-1.0
  3
INABA_S40G
100
AcDbAlignedDimension
 13
5148.101915364659
 23
7182.497424545863
 33
0.0
 14
5038.101915364647
 24
7182.497424545951
 34
0.0
100
AcDbRotatedDimension
1001
ACAD
1000
DSTYLE
1002
{
1070
   279
1070
     2
1002
}
  0
LINE
  5
16656
330
747D
100
AcDbEntity
  8
部品1
100
AcDbLine
 10
4990.101915364645
 20
7247.497424545864
 30
0.0
 11
5038.101915364647
 21
7247.497424545864
 31
0.0
  0
LINE
  5
16657
330
747D
100
AcDbEntity
  8
部品1
 48
50.0
100
AcDbLine
 10
4990.101915364645
 20
7247.497424545864
 30
0.0
 11
4990.101915364645
 21
7238.497424545863
 31
0.0
  0
LINE
  5
16658
330
747D
100
AcDbEntity
  8
部品1
100
AcDbLine
 10
4990.101915364645
 20
7208.497424545864
 30
0.0
 11
5038.101915364645
 21
7208.497424545864
 31
0.0
  0
LINE
  5
16659
330
747D
100
AcDbEntity
  8
部品1
 48
50.0
100
AcDbLine
 10
4990.101915364645
 20
7208.497424545864
 30
0.0
 11
4990.101915364645
 21
7217.497424545864
 31
0.0
  0
LINE
  5
1665A
330
747D
100
AcDbEntity
  8
部品1
 48
50.0
100
AcDbLine
 10
5028.101915364644
 20
7208.497424545864
 30
0.0
 11
5038.101915364645
 21
7187.497424545863
 31
0.0
  0
LINE
  5
1665B
330
747D
100
AcDbEntity
  8
部品1
100
AcDbLine
 10
5038.101915364645
 20
7218.49742454586
 30
0.0
 11
5061.101915364645
 21
7218.497424545862
 31
0.0
  0
LINE
  5
1665C
330
747D
100
AcDbEntity
  8
部品1
100
AcDbLine
 10
5196.101915364663
 20
7247.497424545864
 30
0.0
 11
5148.101915364662
 21
7247.497424545864
 31
0.0
  0
LINE
  5
1665D
330
747D
100
AcDbEntity
  8
部品1
 48
50.0
100
AcDbLine
 10
5196.101915364663
 20
7247.497424545864
 30
0.0
 11
5196.101915364663
 21
7238.497424545863
 31
0.0
  0
LINE
  5
1665E
330
747D
100
AcDbEntity
  8
部品1
100
AcDbLine
 10
5196.101915364663
 20
7208.497424545864
 30
0.0
 11
5148.101915364662
 21
7208.497424545864
 31
0.0
  0
LINE
  5
1665F
330
747D
100
AcDbEntity
  8
部品1
 48
50.0
100
AcDbLine
 10
5158.101915364663
 20
7208.497424545864
 30
0.0
 11
5148.101915364662
 21
7187.497424545863
 31
0.0
  0
LINE
  5
16660
330
747D
100
AcDbEntity
  8
部品1
100
AcDbLine
 10
5148.101915364661
 20
7218.497424545862
 30
0.0
 11
5125.101915364663
 21
7218.497424545862
 31
0.0
  0
LINE
  5
16661
330
747D
100
AcDbEntity
  8
部品1
 48
50.0
100
AcDbLine
 10
5148.101915364662
 20
7247.497424545861
 30
0.0
 11
5148.101915364659
 21
7182.497424545863
 31
0.0
  0
LINE
  5
16662
330
747D
100
AcDbEntity
  8
部品1
 48
50.0
100
AcDbLine
 10
5196.101915364663
 20
7208.497424545864
 30
0.0
 11
5196.101915364663
 21
7217.497424545864
 31
0.0
  0
LINE
  5
16663
330
747D
100
AcDbEntity
  8
部品1
100
AcDbLine
 10
5148.101915364658
 20
7182.497424545863
 30
0.0
 11
5038.101915364649
 21
7182.497424545856
 31
0.0
  0
LINE
  5
16664
330
747D
100
AcDbEntity
  8
部品1
 48
50.0
100
AcDbLine
 10
5038.10191536465
 20
7247.497424545951
 30
0.0
 11
5038.101915364647
 21
7182.497424545951
 31
0.0
  0
LINE
  5
16666
330
747D
100
AcDbEntity
  8
部品1
100
AcDbLine
 10
5148.101915364668
 20
9812.497424545867
 30
0.0
 11
5148.101915364668
 21
9784.497424545868
 31
0.0
  0
LINE
  5
16692
330
747D
100
AcDbEntity
  8
部品1
100
AcDbLine
 10
5038.10191536467
 20
9812.497424545961
 30
0.0
 11
5038.10191536467
 21
9784.497424545962
 31
0.0
  0
DIMENSION
  5
166DD
330
747D
100
AcDbEntity
  8
寸法
 48
50.0
100
AcDbDimension
  2
*D17
 10
5038.10191536467
 20
10328.30564417096
 30
0.0
 11
5093.10191536467
 21
10428.30564417096
 31
0.0
 70
    32
 71
     5
 42
109.9999999999982
  3
INABA_S40G
100
AcDbAlignedDimension
 13
5148.101915364668
 23
9812.497424545917
 33
0.0
 14
5038.10191536467
 24
9812.497424545913
 34
0.0
100
AcDbRotatedDimension
1001
ACAD
1000
DSTYLE
1002
{
1070
   279
1070
     2
1002
}
  0
LINE
  5
16760
330
747D
100
AcDbEntity
  8
部品1
 48
50.0
100
AcDbLine
 10
5093.101915364636
 20
9784.497424545909
 30
0.0
 11
5065.101915364637
 21
9812.497424545965
 31
0.0
  0
LINE
  5
16761
330
747D
100
AcDbEntity
  8
部品1
100
AcDbLine
 10
5121.101915364637
 20
9757.497424545883
 30
0.0
 11
5065.101915364637
 21
9757.497424545883
 31
0.0
  0
LINE
  5
16762
330
747D
100
AcDbEntity
  8
部品1
 48
50.0
100
AcDbLine
 10
5065.101915364637
 20
9784.497424546016
 30
0.0
 11
5065.101915364635
 21
9812.497424545965
 31
0.0
  0
LINE
  5
16763
330
747D
100
AcDbEntity
  8
部品1
 48
50.0
100
AcDbLine
 10
5065.101915364637
 20
9784.497424545909
 30
0.0
 11
5093.101915364636
 21
9784.497424545911
 31
0.0
  0
LINE
  5
168C3
330
747D
100
AcDbEntity
  8
部品1
100
AcDbLine
 10
5117.101915364654
 20
7237.49742454586
 30
0.0
 11
5069.101915364655
 21
7237.497424545857
 31
0.0
  0
LINE
  5
168C4
330
747D
100
AcDbEntity
  8
部品1
 48
50.0
100
AcDbLine
 10
5069.101915364655
 20
7237.49742454586
 30
0.0
 11
5069.101915364658
 21
7182.497424545861
 31
0.0
  0
LINE
  5
168C5
330
747D
100
AcDbEntity
  8
部品1
 48
50.0
100
AcDbLine
 10
5117.101915364654
 20
7237.49742454586
 30
0.0
 11
5117.101915364657
 21
7182.497424545861
 31
0.0
  0
DIMENSION
  5
16913
330
747D
100
AcDbEntity
  8
寸法
 48
50.0
100
AcDbDimension
  2
*D18
 10
7723.10191536467
 20
10577.62711772726
 30
0.0
 11
6408.101915364671
 21
10677.63892875088
 31
0.0
 70
    32
 71
     5
 42
2630.0
  3
INABA_S40G
100
AcDbAlignedDimension
 13
5093.10191536467
 23
10487.29355852891
 33
0.0
 14
7723.10191536467
 24
9812.497424545961
 34
0.0
100
AcDbRotatedDimension
1001
ACAD
1000
DSTYLE
1002
{
1070
   279
1070
     2
1002
}
  0
LINE
  5
16C81
330
747D
100
AcDbEntity
  8
部品1
100
AcDbLine
 10
2491.10191536465
 20
8077.49742454569
 30
0.0
 11
2463.10191536465
 21
8077.49742454569
 31
0.0
  0
LINE
  5
16C82
330
747D
100
AcDbEntity
  8
部品1
100
AcDbLine
 10
7695.101915364674
 20
8077.497424545965
 30
0.0
 11
7723.101915364674
 21
8077.497424545965
 31
0.0
  0
LINE
  5
16FDA
330
747D
100
AcDbEntity
  8
部品1
100
AcDbLine
 10
2491.10191536465
 20
7657.497424545692
 30
0.0
 11
2463.10191536465
 21
7657.497424545692
 31
0.0
  0
LINE
  5
16FDB
330
747D
100
AcDbEntity
  8
部品1
100
AcDbLine
 10
7695.101915364674
 20
7657.497424545965
 30
0.0
 11
7723.101915364674
 21
7657.497424545965
 31
0.0
  0
DIMENSION
  5
17C60
330
747D
100
AcDbEntity
  8
寸法
 48
50.0
100
AcDbDimension
  2
*D21
 10
5093.10191536467
 20
10577.62711772711
 30
0.0
 11
3778.101915364653
 21
10677.63892875073
 31
0.0
 70
    32
 71
     5
 42
2630.000000000034
  3
INABA_S40G
100
AcDbAlignedDimension
 13
2463.101915364636
 23
9812.497424545689
 33
0.0
 14
5093.10191536467
 24
10487.29355852876
 34
0.0
100
AcDbRotatedDimension
1001
ACAD
1000
DSTYLE
1002
{
1070
   279
1070
     2
1002
}
  0
LINE
  5
17C67
330
747D
100
AcDbEntity
  8
部品1
100
AcDbLine
 10
2938.101915364669
 20
9812.497424545838
 30
0.0
 11
2938.101915364669
 21
9784.49742454584
 31
0.0
  0
LINE
  5
17C68
330
747D
100
AcDbEntity
  8
部品1
100
AcDbLine
 10
2938.101915364669
 20
9812.497424545723
 30
0.0
 11
2938.101915364669
 21
9784.497424545723
 31
0.0
  0
LINE
  5
17C69
330
747D
100
AcDbEntity
  8
部品1
100
AcDbLine
 10
2938.101915364669
 20
9812.497424545723
 30
0.0
 11
2938.101915364669
 21
9784.497424545723
 31
0.0
  0
LINE
  5
17C6A
330
747D
100
AcDbEntity
  8
部品1
100
AcDbLine
 10
3358.101915364669
 20
9812.497424545838
 30
0.0
 11
3358.101915364669
 21
9784.49742454584
 31
0.0
  0
LINE
  5
17C6B
330
747D
100
AcDbEntity
  8
部品1
100
AcDbLine
 10
3358.101915364669
 20
9812.497424545723
 30
0.0
 11
3358.101915364669
 21
9784.497424545723
 31
0.0
  0
LINE
  5
17C6C
330
747D
100
AcDbEntity
  8
部品1
100
AcDbLine
 10
3358.101915364669
 20
9812.497424545723
 30
0.0
 11
3358.101915364669
 21
9784.497424545723
 31
0.0
  0
LINE
  5
17C71
330
747D
100
AcDbEntity
  8
部品1
100
AcDbLine
 10
3790.601915364669
 20
9784.497424545834
 30
0.0
 11
5065.10191536467
 21
9784.497424545817
 31
0.0
  0
LINE
  5
17C83
330
747D
100
AcDbEntity
  8
部品1
100
AcDbLine
 10
3778.101915364669
 20
9812.497424545838
 30
0.0
 11
3778.101915364669
 21
9784.49742454584
 31
0.0
  0
LINE
  5
17C84
330
747D
100
AcDbEntity
  8
部品1
100
AcDbLine
 10
4198.101915364668
 20
9812.497424545838
 30
0.0
 11
4198.101915364668
 21
9784.49742454584
 31
0.0
  0
LINE
  5
17C85
330
747D
100
AcDbEntity
  8
部品1
100
AcDbLine
 10
4618.101915364668
 20
9812.497424545838
 30
0.0
 11
4618.101915364668
 21
9784.49742454584
 31
0.0
  0
LINE
  5
17C94
330
747D
100
AcDbEntity
  8
部品1
100
AcDbLine
 10
5121.101915364637
 20
9757.497424545737
 30
0.0
 11
5065.101915364637
 21
9757.497424545737
 31
0.0
  0
LINE
  5
17C97
330
747D
100
AcDbEntity
  8
部品1
100
AcDbLine
 10
5038.10191536467
 20
9812.497424545817
 30
0.0
 11
5038.10191536467
 21
9784.497424545817
 31
0.0
  0
LINE
  5
17C98
330
747D
100
AcDbEntity
  8
部品1
 48
50.0
100
AcDbLine
 10
5093.101915364636
 20
9784.497424545762
 30
0.0
 11
5065.101915364637
 21
9812.497424545817
 31
0.0
  0
LINE
  5
17C99
330
747D
100
AcDbEntity
  8
部品1
 48
50.0
100
AcDbLine
 10
5065.101915364637
 20
9784.497424545868
 30
0.0
 11
5065.101915364635
 21
9812.497424545817
 31
0.0
  0
LINE
  5
17C9A
330
747D
100
AcDbEntity
  8
部品1
 48
50.0
100
AcDbLine
 10
5065.101915364637
 20
9784.497424545762
 30
0.0
 11
5093.101915364636
 21
9784.497424545765
 31
0.0
  0
DIMENSION
  5
17C9B
330
747D
100
AcDbEntity
  8
寸法
 48
50.0
100
AcDbDimension
  2
*D20
 10
2566.101915364663
 20
6648.066653779551
 30
0.0
 11
308.1019153646539
 21
6748.07846480332
 31
0.0
 12
1132.964558399397
 22
39.9999999998513
 32
0.0
 70
    32
  1
有効開口部間口 <>
 71
     5
 42
-1.0
  3
INABA_S40G
100
AcDbAlignedDimension
 13
4990.101915364645
 23
7208.497424545716
 33
0.0
 14
2566.101915364663
 24
7208.497424545716
 34
0.0
100
AcDbRotatedDimension
1001
ACAD
1000
DSTYLE
1002
{
1070
    75
1070
     1
1070
   279
1070
     2
1002
}
  0
LINE
  5
17C9C
330
747D
100
AcDbEntity
  8
部品1
 48
50.0
100
AcDbLine
 10
2530.101915364662
 20
7227.997424545714
 30
0.0
 11
5026.101915364646
 21
7227.997424545714
 31
0.0
  0
DIMENSION
  5
17C9D
330
747D
100
AcDbEntity
  8
寸法
 48
50.0
100
AcDbDimension
  2
*D19
 10
4990.101915364645
 20
6648.066653779551
 30
0.0
 11
4879.139017715897
 21
6748.066653779551
 31
0.0
 12
-2247.035441600603
 22
39.9999999998513
 32
0.0
 70
   160
 71
     5
 42
-1.0
  3
INABA_S40G
100
AcDbAlignedDimension
 13
5038.101915364647
 23
7182.497424545804
 33
0.0
 14
4990.101915364645
 24
7208.497424545716
 34
0.0
100
AcDbRotatedDimension
1001
ACAD
1000
DSTYLE
1002
{
1070
   279
1070
     2
1002
}
  0
LINE
  5
17CA2
330
747D
100
AcDbEntity
  8
部品1
100
AcDbLine
 10
4990.101915364645
 20
7247.497424545716
 30
0.0
 11
5038.101915364647
 21
7247.497424545716
 31
0.0
  0
LINE
  5
17CA3
330
747D
100
AcDbEntity
  8
部品1
100
AcDbLine
 10
4990.101915364645
 20
7208.497424545716
 30
0.0
 11
5038.101915364645
 21
7208.497424545716
 31
0.0
  0
LINE
  5
17CA4
330
747D
100
AcDbEntity
  8
部品1
 48
50.0
100
AcDbLine
 10
4990.101915364645
 20
7247.497424545716
 30
0.0
 11
4990.101915364645
 21
7238.497424545716
 31
0.0
  0
LINE
  5
17CA5
330
747D
100
AcDbEntity
  8
部品1
 48
50.0
100
AcDbLine
 10
4990.101915364645
 20
7208.497424545716
 30
0.0
 11
4990.101915364645
 21
7217.497424545716
 31
0.0
  0
LINE
  5
17CA6
330
747D
100
AcDbEntity
  8
部品1
 48
50.0
100
AcDbLine
 10
5028.101915364644
 20
7208.497424545716
 30
0.0
 11
5038.101915364645
 21
7187.497424545717
 31
0.0
  0
LINE
  5
17CAA
330
747D
100
AcDbEntity
  8
部品1
 48
50.0
100
AcDbLine
 10
5038.10191536465
 20
7247.497424545803
 30
0.0
 11
5038.101915364647
 21
7182.497424545804
 31
0.0
  0
LINE
  5
17CAF
330
747D
100
AcDbEntity
  8
部品1
100
AcDbLine
 10
5148.101915364658
 20
7182.497424545715
 30
0.0
 11
5038.101915364649
 21
7182.497424545708
 31
0.0
  0
LINE
  5
17D73
330
747D
100
AcDbEntity
  8
部品1
100
AcDbLine
 10
2463.101915364636
 20
9812.497424545769
 30
0.0
 11
7723.10191536467
 21
9812.497424545961
 31
0.0
  0
LINE
  5
19F29
330
747D
100
AcDbEntity
  8
部品1
 48
50.0
100
AcDbLine
 10
5121.101915364637
 20
9757.497424545883
 30
0.0
 11
5121.101915364699
 21
9812.497424545947
 31
0.0
  0
LINE
  5
19F2A
330
747D
100
AcDbEntity
  8
部品1
 48
50.0
100
AcDbLine
 10
5065.101915364637
 20
9757.497424545883
 30
0.0
 11
5065.10191536467
 21
9784.497424545962
 31
0.0
  0
LINE
  5
19F2B
330
747D
100
AcDbEntity
  8
部品1
 48
50.0
100
AcDbLine
 10
5121.101915364637
 20
9757.497424545737
 30
0.0
 11
5121.101915364638
 21
9812.497424545783
 31
0.0
  0
LINE
  5
19F2C
330
747D
100
AcDbEntity
  8
部品1
 48
50.0
100
AcDbLine
 10
5065.101915364637
 20
9757.497424545737
 30
0.0
 11
5065.101915364635
 21
9812.497424545821
 31
0.0
  0
LINE
  5
19F30
330
747D
100
AcDbEntity
  8
部品1
 48
50.0
100
AcDbLine
 10
2518.10191536466
 20
7182.497424545715
 30
0.0
 11
5038.101915364647
 21
7182.497424545575
 31
0.0
  0
LINE
  5
19F31
330
747D
100
AcDbEntity
  8
部品1
 48
50.0
100
AcDbLine
 10
2518.10191536466
 20
7267.497424545716
 30
0.0
 11
5038.101915364647
 21
7267.497424545574
 31
0.0
  0
LINE
  5
19F32
330
747D
100
AcDbEntity
  8
部品1
 48
50.0
100
AcDbLine
 10
2518.10191536466
 20
7312.497424545717
 30
0.0
 11
5038.101915364647
 21
7312.497424545575
 31
0.0
  0
LINE
  5
19F33
330
747D
100
AcDbEntity
  8
破線
 48
10.0
100
AcDbLine
 10
2543.101915364523
 20
7337.497424545714
 30
0.0
 11
3337.601915364563
 21
7337.497424545668
 31
0.0
  0
LINE
  5
19F34
330
747D
100
AcDbEntity
  8
破線
 48
10.0
100
AcDbLine
 10
3387.601915364559
 20
7337.497424545667
 30
0.0
 11
4168.601915364563
 21
7337.497424545621
 31
0.0
  0
LINE
  5
19F35
330
747D
100
AcDbEntity
  8
破線
 48
10.0
100
AcDbLine
 10
3337.601915364563
 20
7312.497424545671
 30
0.0
 11
3337.601915364665
 21
9332.497424545771
 31
0.0
  0
LINE
  5
19F36
330
747D
100
AcDbEntity
  8
破線
 48
10.0
100
AcDbLine
 10
3387.601915364559
 20
7312.497424545668
 30
0.0
 11
3387.601915364663
 21
9332.497424545776
 31
0.0
  0
LINE
  5
19F37
330
747D
100
AcDbEntity
  8
破線
 48
10.0
100
AcDbLine
 10
4218.601915364559
 20
7312.497424545622
 30
0.0
 11
4218.601915364664
 21
9332.497424545804
 31
0.0
  0
LINE
  5
19F38
330
747D
100
AcDbEntity
  8
破線
 48
10.0
100
AcDbLine
 10
4168.60191536456
 20
7312.497424545625
 30
0.0
 11
4168.601915364666
 21
9332.497424545804
 31
0.0
  0
LINE
  5
19F39
330
747D
100
AcDbEntity
  8
破線
 48
10.0
100
AcDbLine
 10
4218.601915364563
 20
7337.49742454562
 30
0.0
 11
5013.101915364537
 21
7337.497424545574
 31
0.0
  0
LINE
  5
19F3A
330
747D
100
AcDbEntity
  8
部品1
 48
50.0
100
AcDbLine
 10
2518.10191536466
 20
7657.497424545692
 30
0.0
 11
5038.101915364665
 21
7657.497424545688
 31
0.0
  0
LINE
  5
19F3B
330
747D
100
AcDbEntity
  8
破線
 48
10.0
100
AcDbLine
 10
2543.101915364523
 20
7337.497424545714
 30
0.0
 11
2543.101915364626
 21
9332.497424545707
 31
0.0
  0
LINE
  5
19F3C
330
747D
100
AcDbEntity
  8
破線
 48
10.0
100
AcDbLine
 10
5013.101915364535
 20
7337.497424545574
 30
0.0
 11
5013.101915364638
 21
9332.497424545799
 31
0.0
  0
LINE
  5
19F3F
330
747D
100
AcDbEntity
  8
部品1
100
AcDbLine
 10
5038.101915364665
 20
7247.497424545716
 30
0.0
 11
5038.101915364666
 21
9332.497424545799
 31
0.0
  0
LINE
  5
19F41
330
747D
100
AcDbEntity
  8
部品1
 48
50.0
100
AcDbLine
 10
2518.10191536466
 20
8077.49742454569
 30
0.0
 11
5038.101915364665
 21
8077.497424545688
 31
0.0
  0
LINE
  5
19F42
330
747D
100
AcDbEntity
  8
部品1
 48
50.0
100
AcDbLine
 10
2518.10191536466
 20
8917.497424545691
 30
0.0
 11
5038.101915364665
 21
8917.49742454569
 31
0.0
  0
LINE
  5
19F43
330
747D
100
AcDbEntity
  8
部品1
 48
50.0
100
AcDbLine
 10
2518.10191536466
 20
8497.497424545692
 30
0.0
 11
5038.101915364665
 21
8497.49742454569
 31
0.0
  0
LINE
  5
19F50
330
747D
100
AcDbEntity
  8
部品1
 48
50.0
100
AcDbLine
 10
7668.101915364681
 20
8497.497424545839
 30
0.0
 11
5148.101915364676
 21
8497.497424545834
 31
0.0
  0
LINE
  5
19F51
330
747D
100
AcDbEntity
  8
部品1
 48
50.0
100
AcDbLine
 10
7668.101915364681
 20
8917.497424545839
 30
0.0
 11
5148.101915364676
 21
8917.497424545834
 31
0.0
  0
LINE
  5
19F52
330
747D
100
AcDbEntity
  8
部品1
 48
50.0
100
AcDbLine
 10
7668.101915364681
 20
8077.497424545837
 30
0.0
 11
5148.101915364676
 21
8077.497424545834
 31
0.0
  0
LINE
  5
19F53
330
747D
100
AcDbEntity
  8
部品1
 48
50.0
100
AcDbLine
 10
7668.101915364681
 20
7657.497424545837
 30
0.0
 11
5148.101915364676
 21
7657.497424545835
 31
0.0
  0
LINE
  5
19F54
330
747D
100
AcDbEntity
  8
破線
 48
10.0
100
AcDbLine
 10
6798.601915364781
 20
7337.497424545812
 30
0.0
 11
6017.601915364778
 21
7337.497424545766
 31
0.0
  0
LINE
  5
19F55
330
747D
100
AcDbEntity
  8
部品1
 48
50.0
100
AcDbLine
 10
7668.101915364681
 20
7312.497424545862
 30
0.0
 11
5148.101915364694
 21
7312.497424545721
 31
0.0
  0
LINE
  5
19F56
330
747D
100
AcDbEntity
  8
破線
 48
10.0
100
AcDbLine
 10
7643.101915364818
 20
7337.497424545862
 30
0.0
 11
7643.101915364716
 21
9332.497424545799
 31
0.0
  0
LINE
  5
19F57
330
747D
100
AcDbEntity
  8
破線
 48
10.0
100
AcDbLine
 10
6798.601915364781
 20
7312.497424545814
 30
0.0
 11
6798.601915364677
 21
9332.497424545804
 31
0.0
  0
LINE
  5
19F58
330
747D
100
AcDbEntity
  8
破線
 48
10.0
100
AcDbLine
 10
6848.601915364778
 20
7312.497424545817
 30
0.0
 11
6848.601915364676
 21
9332.497424545804
 31
0.0
  0
LINE
  5
19F59
330
747D
100
AcDbEntity
  8
部品1
100
AcDbLine
 10
7668.101915364694
 20
9332.497424545797
 30
0.0
 11
7668.101915364683
 21
7218.49742454586
 31
0.0
  0
LINE
  5
19F5A
330
747D
100
AcDbEntity
  8
破線
 48
10.0
100
AcDbLine
 10
7643.101915364818
 20
7337.497424545862
 30
0.0
 11
6848.601915364778
 21
7337.497424545816
 31
0.0
  0
LINE
  5
19F5D
330
747D
100
AcDbEntity
  8
部品1
100
AcDbLine
 10
5148.101915364676
 20
7247.497424545861
 30
0.0
 11
5148.101915364675
 21
9332.497424545705
 31
0.0
  0
LINE
  5
19F5E
330
747D
100
AcDbEntity
  8
破線
 48
10.0
100
AcDbLine
 10
5173.101915364805
 20
7337.497424545721
 30
0.0
 11
5173.101915364703
 21
9332.497424545705
 31
0.0
  0
LINE
  5
19F5F
330
747D
100
AcDbEntity
  8
破線
 48
10.0
100
AcDbLine
 10
6017.601915364779
 20
7312.497424545771
 30
0.0
 11
6017.601915364675
 21
9332.497424545776
 31
0.0
  0
LINE
  5
19F60
330
747D
100
AcDbEntity
  8
破線
 48
10.0
100
AcDbLine
 10
5967.601915364781
 20
7312.497424545767
 30
0.0
 11
5967.601915364675
 21
9332.497424545772
 31
0.0
  0
LINE
  5
19F61
330
747D
100
AcDbEntity
  8
破線
 48
10.0
100
AcDbLine
 10
5967.601915364777
 20
7337.497424545765
 30
0.0
 11
5173.101915364803
 21
7337.497424545721
 31
0.0
  0
LINE
  5
19F64
330
747D
100
AcDbEntity
  8
部品1
 48
50.0
100
AcDbLine
 10
7668.101915364681
 20
7267.497424545862
 30
0.0
 11
5148.101915364694
 21
7267.497424545722
 31
0.0
  0
LINE
  5
19F65
330
747D
100
AcDbEntity
  8
部品1
 48
50.0
100
AcDbLine
 10
7668.101915364681
 20
7182.497424545862
 30
0.0
 11
5148.101915364694
 21
7182.497424545721
 31
0.0
  0
LINE
  5
19F7E
330
747D
100
AcDbEntity
  8
部品1
100
AcDbLine
 10
5065.101915364652
 20
9757.497424545883
 30
0.0
 11
5065.101915364642
 21
7182.497424545857
 31
0.0
  0
LINE
  5
19F7F
330
747D
100
AcDbEntity
  8
部品1
100
AcDbLine
 10
5121.101915364632
 20
7182.497424545862
 30
0.0
 11
5121.101915364651
 21
9757.497424545883
 31
0.0
  0
LINE
  5
19F80
330
747D
100
AcDbEntity
  8
部品1
100
AcDbLine
 10
5038.101915364665
 20
7247.497424545861
 30
0.0
 11
5038.101915364666
 21
9332.497424545799
 31
0.0
  0
LINE
  5
19F93
330
747D
100
AcDbEntity
  8
部品1
 48
50.0
100
AcDbLine
 10
5148.101915364659
 20
7182.497424545715
 30
0.0
 11
5038.101915364647
 21
7182.497424545721
 31
0.0
  0
LINE
  5
19FEA
330
747D
100
AcDbEntity
  8
部品1
 48
50.0
100
AcDbLine
 10
7668.101915364644
 20
7218.49742454586
 30
0.0
 11
7668.101915364681
 21
7182.497424545862
 31
0.0
  0
DIMENSION
  5
1A029
330
747D
100
AcDbEntity
  8
寸法
100
AcDbDimension
  2
*D22
 10
5038.10191536467
 20
10328.30564417082
 30
0.0
 11
3778.10191536467
 21
10428.31745519444
 31
0.0
 70
    32
  1
6X420=<>
 71
     5
 42
2520.000000000002
  3
INABA_S40G
100
AcDbAlignedDimension
 13
2518.101915364669
 23
9812.497424545723
 33
0.0
 14
5038.10191536467
 24
9812.497424545817
 34
0.0
100
AcDbRotatedDimension
1001
ACAD
1000
DSTYLE
1002
{
1002
}
  0
LINE
  5
1A0B0
330
747D
100
AcDbEntity
  8
細線
 48
50.0
100
AcDbLine
 10
7694.60191536467
 20
9332.497424545799
 30
0.0
 11
6421.60191536467
 21
9782.4974245458
 31
0.0
  0
LINE
  5
1A0B1
330
747D
100
AcDbEntity
  8
細線
 48
50.0
100
AcDbLine
 10
7694.60191536467
 20
9782.497424545796
 30
0.0
 11
6421.601915364668
 21
9332.497424545806
 31
0.0
  0
LINE
  5
1A0B4
330
747D
100
AcDbEntity
  8
部品1
100
AcDbLine
 10
5064.60191536467
 20
9782.497424545796
 30
0.0
 11
5064.60191536467
 21
9332.497424545799
 31
0.0
  0
LINE
  5
1A0B5
330
747D
100
AcDbEntity
  8
部品1
 48
50.0
100
AcDbLine
 10
3790.60191536467
 20
9784.497424545808
 30
0.0
 11
3790.60191536467
 21
9332.497424545806
 31
0.0
  0
LINE
  5
1A0B6
330
747D
100
AcDbEntity
  8
部品1
 48
50.0
100
AcDbLine
 10
3765.601915364669
 20
9784.497424545811
 30
0.0
 11
3765.60191536467
 21
9332.497424545806
 31
0.0
  0
LINE
  5
1A0B7
330
747D
100
AcDbEntity
  8
部品1
 48
50.0
100
AcDbLine
 10
3791.601915364669
 20
9782.4974245458
 30
0.0
 11
3791.601915364669
 21
9332.497424545806
 31
0.0
  0
LINE
  5
1A0B8
330
747D
100
AcDbEntity
  8
部品1
 48
50.0
100
AcDbLine
 10
3764.60191536467
 20
9782.497424545804
 30
0.0
 11
3764.60191536467
 21
9332.497424545806
 31
0.0
  0
LINE
  5
1A0B9
330
747D
100
AcDbEntity
  8
細線
 48
50.0
100
AcDbLine
 10
3764.60191536467
 20
9782.497424545804
 30
0.0
 11
2491.60191536467
 21
9332.497424545701
 31
0.0
  0
LINE
  5
1A0BA
330
747D
100
AcDbEntity
  8
細線
 48
50.0
100
AcDbLine
 10
3764.601915364668
 20
9332.497424545806
 30
0.0
 11
2491.601915364669
 21
9782.497424545702
 31
0.0
  0
LINE
  5
1A0BB
330
747D
100
AcDbEntity
  8
細線
 48
50.0
100
AcDbLine
 10
5064.60191536467
 20
9332.497424545799
 30
0.0
 11
3791.601915364669
 21
9782.4974245458
 31
0.0
  0
LINE
  5
1A0BC
330
747D
100
AcDbEntity
  8
細線
 48
50.0
100
AcDbLine
 10
5064.60191536467
 20
9782.497424545796
 30
0.0
 11
3791.601915364669
 21
9332.497424545806
 31
0.0
  0
LINE
  5
1A0BD
330
747D
100
AcDbEntity
  8
部品1
 48
50.0
100
AcDbLine
 10
5121.601915364668
 20
9782.497424545699
 30
0.0
 11
5121.60191536467
 21
9332.497424545698
 31
0.0
  0
LINE
  5
1A0BE
330
747D
100
AcDbEntity
  8
部品1
 48
50.0
100
AcDbLine
 10
6420.601915364669
 20
9784.497424545808
 30
0.0
 11
6420.601915364669
 21
9332.497424545806
 31
0.0
  0
LINE
  5
1A0BF
330
747D
100
AcDbEntity
  8
部品1
 48
50.0
100
AcDbLine
 10
6395.601915364668
 20
9784.497424545811
 30
0.0
 11
6395.601915364669
 21
9332.497424545806
 31
0.0
  0
LINE
  5
1A0C0
330
747D
100
AcDbEntity
  8
部品1
 48
50.0
100
AcDbLine
 10
6421.60191536467
 20
9782.4974245458
 30
0.0
 11
6421.60191536467
 21
9332.497424545806
 31
0.0
  0
LINE
  5
1A0C1
330
747D
100
AcDbEntity
  8
部品1
 48
50.0
100
AcDbLine
 10
6394.60191536467
 20
9782.497424545804
 30
0.0
 11
6394.60191536467
 21
9332.497424545806
 31
0.0
  0
LINE
  5
1A0C2
330
747D
100
AcDbEntity
  8
細線
 48
50.0
100
AcDbLine
 10
6394.60191536467
 20
9782.497424545804
 30
0.0
 11
5121.60191536467
 21
9332.497424545701
 31
0.0
  0
LINE
  5
1A0C3
330
747D
100
AcDbEntity
  8
細線
 48
50.0
100
AcDbLine
 10
6394.601915364669
 20
9332.497424545806
 30
0.0
 11
5121.601915364668
 21
9782.497424545702
 31
0.0
  0
LINE
  5
1A0C6
330
747D
100
AcDbEntity
  8
部品1
 48
50.0
100
AcDbLine
 10
5118.601915364711
 20
9378.497424545839
 30
0.0
 11
5112.601915364711
 21
9378.497424545836
 31
0.0
  0
LINE
  5
1A0C7
330
747D
100
AcDbEntity
  8
部品1
100
AcDbLine
 10
5118.601915364711
 20
9340.497424545841
 30
0.0
 11
5118.601915364711
 21
9378.497424545839
 31
0.0
  0
LINE
  5
1A0C8
330
747D
100
AcDbEntity
  8
部品1
100
AcDbLine
 10
5067.601915364711
 20
9340.497424545835
 30
0.0
 11
5067.601915364711
 21
9378.497424545836
 31
0.0
  0
LINE
  5
1A0C9
330
747D
100
AcDbEntity
  8
部品1
 48
50.0
100
AcDbLine
 10
5073.601915364712
 20
9378.497424545832
 30
0.0
 11
5067.601915364711
 21
9378.497424545836
 31
0.0
  0
LINE
  5
1A0CA
330
747D
100
AcDbEntity
  8
部品1
 48
50.0
100
AcDbLine
 10
5118.601915364711
 20
9340.497424545841
 30
0.0
 11
5067.601915364711
 21
9340.497424545835
 31
0.0
  0
LINE
  5
1A0CB
330
747D
100
AcDbEntity
  8
部品1
100
AcDbLine
 10
5121.601915364671
 20
9332.497424545701
 30
0.0
 11
6394.601915364669
 21
9332.497424545806
 31
0.0
  0
LINE
  5
1A0CC
330
747D
100
AcDbEntity
  8
部品1
100
AcDbLine
 10
3791.601915364669
 20
9332.497424545806
 30
0.0
 11
5064.60191536467
 21
9332.497424545799
 31
0.0
  0
LINE
  5
1A0CD
330
747D
100
AcDbEntity
  8
部品1
100
AcDbLine
 10
6421.601915364668
 20
9332.497424545806
 30
0.0
 11
7694.60191536467
 21
9332.497424545799
 31
0.0
  0
LINE
  5
1A0CE
330
747D
100
AcDbEntity
  8
部品1
100
AcDbLine
 10
2491.60191536467
 20
9332.497424545701
 30
0.0
 11
3764.601915364668
 21
9332.497424545806
 31
0.0
  0
LINE
  5
1A0CF
330
747D
100
AcDbEntity
  8
部品1
 48
50.0
100
AcDbLine
 10
2491.601915364669
 20
9782.497424545699
 30
0.0
 11
2491.60191536467
 21
9332.497424545698
 31
0.0
  0
LINE
  5
1A0D0
330
747D
100
AcDbEntity
  8
部品1
100
AcDbLine
 10
2491.601915364669
 20
9782.497424545702
 30
0.0
 11
3764.60191536467
 21
9782.497424545807
 31
0.0
  0
LINE
  5
1A0D1
330
747D
100
AcDbEntity
  8
部品1
100
AcDbLine
 10
3778.10191536467
 20
9812.497424545817
 30
0.0
 11
3778.10191536467
 21
9784.497424545818
 31
0.0
  0
LINE
  5
1A0D2
330
747D
100
AcDbEntity
  8
部品1
100
AcDbLine
 10
3765.60191536467
 20
9776.497424545802
 30
0.0
 11
3790.60191536467
 21
9776.497424545803
 31
0.0
  0
LINE
  5
1A0D3
330
747D
100
AcDbEntity
  8
部品1
100
AcDbLine
 10
2491.101915364656
 20
9784.497424545818
 30
0.0
 11
3765.601915364668
 21
9784.497424545818
 31
0.0
  0
LINE
  5
1A0D4
330
747D
100
AcDbEntity
  8
部品1
100
AcDbLine
 10
3743.10191536467
 20
9802.497424545805
 30
0.0
 11
3743.10191536467
 21
9784.497424545804
 31
0.0
  0
LINE
  5
1A0D5
330
747D
100
AcDbEntity
  8
部品1
100
AcDbLine
 10
3743.10191536467
 20
9802.497424545805
 30
0.0
 11
3749.10191536467
 21
9802.497424545805
 31
0.0
  0
LINE
  5
1A0D6
330
747D
100
AcDbEntity
  8
部品1
100
AcDbLine
 10
3791.601915364669
 20
9782.497424545804
 30
0.0
 11
5064.60191536467
 21
9782.497424545796
 31
0.0
  0
LINE
  5
1A0D7
330
747D
100
AcDbEntity
  8
部品1
100
AcDbLine
 10
3790.60191536467
 20
9784.497424545815
 30
0.0
 11
5065.10191536467
 21
9784.497424545797
 31
0.0
  0
LINE
  5
1A0D8
330
747D
100
AcDbEntity
  8
部品1
100
AcDbLine
 10
3813.10191536467
 20
9802.497424545805
 30
0.0
 11
3813.10191536467
 21
9784.497424545804
 31
0.0
  0
LINE
  5
1A0D9
330
747D
100
AcDbEntity
  8
部品1
100
AcDbLine
 10
3807.10191536467
 20
9802.497424545805
 30
0.0
 11
3813.10191536467
 21
9802.497424545805
 31
0.0
  0
LINE
  5
1A0DA
330
747D
100
AcDbEntity
  8
部品1
 48
50.0
100
AcDbLine
 10
5065.101915364637
 20
9784.497424545744
 30
0.0
 11
5093.101915364636
 21
9784.497424545746
 31
0.0
  0
LINE
  5
1A0DB
330
747D
100
AcDbEntity
  8
部品1
 48
50.0
100
AcDbLine
 10
5065.101915364637
 20
9784.497424545849
 30
0.0
 11
5065.101915364636
 21
9812.497424545798
 31
0.0
  0
LINE
  5
1A0DC
330
747D
100
AcDbEntity
  8
部品1
100
AcDbLine
 10
5121.101915364637
 20
9757.497424545718
 30
0.0
 11
5065.101915364637
 21
9757.497424545718
 31
0.0
  0
LINE
  5
1A0DD
330
747D
100
AcDbEntity
  8
部品1
 48
50.0
100
AcDbLine
 10
5093.101915364636
 20
9784.497424545744
 30
0.0
 11
5065.101915364637
 21
9812.497424545798
 31
0.0
  0
LINE
  5
1A0DE
330
747D
100
AcDbEntity
  8
部品1
100
AcDbLine
 10
5038.10191536467
 20
9812.497424545796
 30
0.0
 11
5038.10191536467
 21
9784.497424545797
 31
0.0
  0
LINE
  5
1A0DF
330
747D
100
AcDbEntity
  8
部品1
100
AcDbLine
 10
5148.101915364669
 20
9812.497424545702
 30
0.0
 11
5148.101915364669
 21
9784.497424545703
 31
0.0
  0
LINE
  5
1A0E0
330
747D
100
AcDbEntity
  8
部品1
100
AcDbLine
 10
6395.601915364669
 20
9776.497424545802
 30
0.0
 11
6420.601915364669
 21
9776.497424545803
 31
0.0
  0
LINE
  5
1A0E1
330
747D
100
AcDbEntity
  8
部品1
100
AcDbLine
 10
6421.60191536467
 20
9782.497424545804
 30
0.0
 11
7694.60191536467
 21
9782.497424545796
 31
0.0
  0
LINE
  5
1A0E2
330
747D
100
AcDbEntity
  8
部品1
100
AcDbLine
 10
6420.601915364669
 20
9784.497424545815
 30
0.0
 11
7695.10191536467
 21
9784.497424545797
 31
0.0
  0
LINE
  5
1A0E3
330
747D
100
AcDbEntity
  8
部品1
100
AcDbLine
 10
5121.601915364668
 20
9782.497424545702
 30
0.0
 11
6394.60191536467
 21
9782.497424545807
 31
0.0
  0
LINE
  5
1A0E5
330
747D
100
AcDbEntity
  8
部品1
100
AcDbLine
 10
6373.101915364669
 20
9802.497424545805
 30
0.0
 11
6373.101915364669
 21
9784.497424545804
 31
0.0
  0
LINE
  5
1A0E6
330
747D
100
AcDbEntity
  8
部品1
100
AcDbLine
 10
6373.101915364669
 20
9802.497424545805
 30
0.0
 11
6379.101915364669
 21
9802.497424545805
 31
0.0
  0
LINE
  5
1A0E7
330
747D
100
AcDbEntity
  8
部品1
100
AcDbLine
 10
6443.10191536467
 20
9802.497424545805
 30
0.0
 11
6443.10191536467
 21
9784.497424545804
 31
0.0
  0
LINE
  5
1A0E8
330
747D
100
AcDbEntity
  8
部品1
100
AcDbLine
 10
6437.10191536467
 20
9802.497424545805
 30
0.0
 11
6443.10191536467
 21
9802.497424545805
 31
0.0
  0
LINE
  5
1A0E9
330
747D
100
AcDbEntity
  8
部品1
100
AcDbLine
 10
6408.101915364669
 20
9812.497424545817
 30
0.0
 11
6408.101915364669
 21
9784.497424545818
 31
0.0
  0
LINE
  5
1A0EA
330
747D
100
AcDbEntity
  8
部品1
100
AcDbLine
 10
7694.60191536467
 20
9782.497424545796
 30
0.0
 11
7694.60191536467
 21
9332.497424545799
 31
0.0
  0
LINE
  5
1A119
330
747D
100
AcDbEntity
  8
部品1
 48
50.0
100
AcDbLine
 10
3765.60191536467
 20
9332.497424545806
 30
0.0
 11
3790.601915364669
 21
9332.497424545806
 31
0.0
  0
LINE
  5
1A11A
330
747D
100
AcDbEntity
  8
部品1
 48
50.0
100
AcDbLine
 10
6395.601915364669
 20
9332.497424545806
 30
0.0
 11
6420.601915364669
 21
9332.497424545806
 31
0.0
  0
INSERT
  5
1A153
330
747D
100
AcDbEntity
  8
部品1
 48
50.0
100
AcDbBlockReference
  2
A$C45D91A2E
 10
7694.60193165051
 20
9221.202670418904
 30
0.0
  0
TEXT
  5
1A1F5
330
747D
100
AcDbEntity
  8
文字
 62
     7
 48
50.0
100
AcDbText
 10
13583.11819016569
 20
8550.013745883733
 30
0.0
 40
100.0
  1
床パネル
 41
0.9
  7
STYLE1
100
AcDbText
  0
TEXT
  5
1A1F6
330
747D
100
AcDbEntity
  8
文字
 62
     7
 48
50.0
100
AcDbText
 10
15022.63965474516
 20
8550.013745883727
 30
0.0
 40
100.0
  1
F12            1.0
  7
STYLE1
100
AcDbText
  0
TEXT
  5
1A1F7
330
747D
100
AcDbEntity
  8
文字
 62
     7
 48
50.0
100
AcDbText
 10
13248.77747366448
 20
8550.013745883729
 30
0.0
 40
100.0
  1
15
  7
STYLE1
100
AcDbText
  0
LINE
  5
1A1F8
330
747D
100
AcDbEntity
  8
仕様書枠
 48
50.0
100
AcDbLine
 10
16307.19999999999
 20
8519.600000000002
 30
0.0
 11
13127.19999999999
 21
8519.600000000002
 31
0.0
  0
LINE
  5
1A1F9
330
747D
100
AcDbEntity
  8
仕様書枠
 48
50.0
100
AcDbLine
 10
16307.19999999999
 20
9879.599999999999
 30
0.0
 11
13127.19999999999
 21
9879.600000000001
 31
0.0
  0
LINE
  5
1A1FA
330
747D
100
AcDbEntity
  8
仕様書枠
 48
50.0
100
AcDbLine
 10
16307.19999999999
 20
11239.6
 30
0.0
 11
13127.2
 21
11239.6
 31
0.0
  0
LINE
  5
1A1FB
330
747D
100
AcDbEntity
  8
仕様書枠
 48
50.0
100
AcDbLine
 10
16307.19999999999
 20
7839.600000000006
 30
0.0
 11
16307.2
 21
11239.6
 31
0.0
  0
LINE
  5
1A1FC
330
747D
100
AcDbEntity
  8
仕様書枠
 48
50.0
100
AcDbLine
 10
14785.2
 20
11239.59999999999
 30
0.0
 11
14785.2
 21
8349.600000000007
 31
0.0
  0
LINE
  5
1A1FD
330
747D
100
AcDbEntity
  8
仕様書枠
 48
50.0
100
AcDbLine
 10
13490.2
 20
11239.6
 30
0.0
 11
13490.20000000001
 21
8349.600000000007
 31
0.0
  0
LINE
  5
1A1FE
330
747D
100
AcDbEntity
  8
仕様書枠
 48
50.0
100
AcDbLine
 10
16307.19999999999
 20
11069.6
 30
0.0
 11
13127.2
 21
11069.6
 31
0.0
  0
LINE
  5
1A1FF
330
747D
100
AcDbEntity
  8
仕様書枠
 48
50.0
100
AcDbLine
 10
16307.19999999999
 20
10729.6
 30
0.0
 11
13127.2
 21
10729.6
 31
0.0
  0
LINE
  5
1A200
330
747D
100
AcDbEntity
  8
仕様書枠
 48
50.0
100
AcDbLine
 10
16307.19999999999
 20
10899.6
 30
0.0
 11
13127.2
 21
10899.6
 31
0.0
  0
LINE
  5
1A201
330
747D
100
AcDbEntity
  8
仕様書枠
 48
50.0
100
AcDbLine
 10
16307.19999999999
 20
10389.6
 30
0.0
 11
13127.19999999999
 21
10389.6
 31
0.0
  0
LINE
  5
1A202
330
747D
100
AcDbEntity
  8
仕様書枠
 48
50.0
100
AcDbLine
 10
16307.19999999999
 20
10219.6
 30
0.0
 11
13127.19999999999
 21
10219.6
 31
0.0
  0
LINE
  5
1A203
330
747D
100
AcDbEntity
  8
仕様書枠
 48
50.0
100
AcDbLine
 10
16307.19999999999
 20
10559.6
 30
0.0
 11
13127.19999999999
 21
10559.6
 31
0.0
  0
TEXT
  5
1A204
330
747D
100
AcDbEntity
  8
文字
 62
     7
 48
50.0
100
AcDbText
 10
13197.42518560407
 20
11100.01374588373
 30
0.0
 40
100.0
  1
品番
  7
STYLE1
100
AcDbText
  0
TEXT
  5
1A205
330
747D
100
AcDbEntity
  8
文字
 62
     7
 48
50.0
100
AcDbText
 10
13271.19032244792
 20
10930.01374588373
 30
0.0
 40
100.0
  1
1
  7
STYLE1
100
AcDbText
  0
TEXT
  5
1A206
330
747D
100
AcDbEntity
  8
文字
 62
     7
 48
50.0
100
AcDbText
 10
13271.19032244792
 20
10760.01374588373
 30
0.0
 40
100.0
  1
2
  7
STYLE1
100
AcDbText
  0
TEXT
  5
1A207
330
747D
100
AcDbEntity
  8
文字
 62
     7
 48
50.0
100
AcDbText
 10
13271.19032244792
 20
10420.01374588373
 30
0.0
 40
100.0
  1
4
  7
STYLE1
100
AcDbText
  0
TEXT
  5
1A208
330
747D
100
AcDbEntity
  8
文字
 62
     7
 48
50.0
100
AcDbText
 10
13271.19032244792
 20
10590.01374588373
 30
0.0
 40
100.0
  1
3
  7
STYLE1
100
AcDbText
  0
TEXT
  5
1A209
330
747D
100
AcDbEntity
  8
文字
 62
     7
 48
50.0
100
AcDbText
 10
13732.03840939434
 20
11100.01374588373
 30
0.0
 40
100.0
  1
部　　品　　名
  7
STYLE1
100
AcDbText
  0
TEXT
  5
1A20A
330
747D
100
AcDbEntity
  8
文字
 62
     7
 48
50.0
100
AcDbText
 10
14859.79774614482
 20
11100.01374588373
 30
0.0
 40
100.0
  1
材料（材質）　　単位mm
  7
STYLE1
100
AcDbText
  0
TEXT
  5
1A20B
330
747D
100
AcDbEntity
  8
文字
 62
     7
 48
50.0
100
AcDbText
 10
13583.11819016569
 20
10930.01374588372
 30
0.0
 40
100.0
  1
土台枠
  7
STYLE1
100
AcDbText
  0
TEXT
  5
1A20C
330
747D
100
AcDbEntity
  8
文字
 62
     7
 48
50.0
100
AcDbText
 10
13583.11819016569
 20
10760.01374588372
 30
0.0
 40
100.0
  1
柱
  7
STYLE1
100
AcDbText
  0
TEXT
  5
1A20D
330
747D
100
AcDbEntity
  8
文字
 62
     7
 48
50.0
100
AcDbText
 10
13583.11819016569
 20
10590.01374588373
 30
0.0
 40
100.0
  1
桁前
  7
STYLE1
100
AcDbText
  0
TEXT
  5
1A20E
330
747D
100
AcDbEntity
  8
文字
 62
     7
 48
50.0
100
AcDbText
 10
13583.11819016569
 20
10420.01374588373
 30
0.0
 40
100.0
  1
桁後
  7
STYLE1
100
AcDbText
  0
TEXT
  5
1A20F
330
747D
100
AcDbEntity
  8
文字
 62
     7
 48
50.0
100
AcDbText
 10
13271.19032244792
 20
10250.01374588373
 30
0.0
 40
100.0
  1
5
  7
STYLE1
100
AcDbText
  0
TEXT
  5
1A210
330
747D
100
AcDbEntity
  8
文字
 62
     7
 48
50.0
100
AcDbText
 10
13583.11819016569
 20
10250.01374588373
 30
0.0
 40
100.0
  1
妻板左右
  7
STYLE1
100
AcDbText
  0
TEXT
  5
1A211
330
747D
100
AcDbEntity
  8
文字
 62
     7
 48
50.0
100
AcDbText
 10
13583.11819016569
 20
8890.013745883729
 30
0.0
 40
100.0
  1
シャッターレール
  7
STYLE1
100
AcDbText
  0
TEXT
  5
1A212
330
747D
100
AcDbEntity
  8
文字
 62
     7
 48
50.0
100
AcDbText
 10
13248.77747366448
 20
9400.013745883727
 30
0.0
 40
100.0
  1
10
  7
STYLE1
100
AcDbText
  0
TEXT
  5
1A213
330
747D
100
AcDbEntity
  8
文字
 62
     7
 48
50.0
100
AcDbText
 10
13583.11819016569
 20
9400.013745883731
 30
0.0
 40
100.0
  1
壁パネル
  7
STYLE1
100
AcDbText
  0
TEXT
  5
1A214
330
747D
100
AcDbEntity
  8
文字
 62
     7
 48
50.0
100
AcDbText
 10
13583.11819016569
 20
9570.013745883729
 30
0.0
 40
100.0
  1
屋根パネル
  7
STYLE1
100
AcDbText
  0
TEXT
  5
1A215
330
747D
100
AcDbEntity
  8
文字
 62
     7
 48
50.0
100
AcDbText
 10
13583.11819016569
 20
9740.013745883729
 30
0.0
 40
100.0
  1
母屋中
  7
STYLE1
100
AcDbText
  0
TEXT
  5
1A216
330
747D
100
AcDbEntity
  8
文字
 62
     7
 48
50.0
100
AcDbText
 10
13583.11819016569
 20
10080.01374588372
 30
0.0
 40
100.0
  1
鼻隠シ前後
  7
STYLE1
100
AcDbText
  0
TEXT
  5
1A217
330
747D
100
AcDbEntity
  8
文字
 62
     7
 48
50.0
100
AcDbText
 10
13271.19032244792
 20
9740.013745883729
 30
0.0
 40
100.0
  1
8
  7
STYLE1
100
AcDbText
  0
TEXT
  5
1A218
330
747D
100
AcDbEntity
  8
文字
 62
     7
 48
50.0
100
AcDbText
 10
13271.19032244792
 20
9570.013745883729
 30
0.0
 40
100.0
  1
9
  7
STYLE1
100
AcDbText
  0
TEXT
  5
1A219
330
747D
100
AcDbEntity
  8
文字
 62
     7
 48
50.0
100
AcDbText
 10
13271.19032244792
 20
9910.01374588373
 30
0.0
 40
100.0
  1
7
  7
STYLE1
100
AcDbText
  0
TEXT
  5
1A21A
330
747D
100
AcDbEntity
  8
文字
 62
     7
 48
50.0
100
AcDbText
 10
13271.19032244792
 20
10080.01374588373
 30
0.0
 40
100.0
  1
6
  7
STYLE1
100
AcDbText
  0
LINE
  5
1A21B
330
747D
100
AcDbEntity
  8
仕様書枠
 48
50.0
100
AcDbLine
 10
16307.19999999999
 20
9539.599999999998
 30
0.0
 11
13127.19999999999
 21
9539.6
 31
0.0
  0
LINE
  5
1A21C
330
747D
100
AcDbEntity
  8
仕様書枠
 48
50.0
100
AcDbLine
 10
16307.19999999999
 20
9199.599999999998
 30
0.0
 11
13127.19999999999
 21
9199.600000000001
 31
0.0
  0
LINE
  5
1A21D
330
747D
100
AcDbEntity
  8
仕様書枠
 48
50.0
100
AcDbLine
 10
16307.19999999999
 20
9369.599999999998
 30
0.0
 11
13127.19999999999
 21
9369.600000000001
 31
0.0
  0
LINE
  5
1A21E
330
747D
100
AcDbEntity
  8
仕様書枠
 48
50.0
100
AcDbLine
 10
16307.19999999999
 20
10049.6
 30
0.0
 11
13127.2
 21
10049.6
 31
0.0
  0
LINE
  5
1A21F
330
747D
100
AcDbEntity
  8
仕様書枠
 48
50.0
100
AcDbLine
 10
16307.19999999999
 20
9709.6
 30
0.0
 11
13127.19999999999
 21
9709.600000000001
 31
0.0
  0
TEXT
  5
1A220
330
747D
100
AcDbEntity
  8
文字
 62
     7
 48
50.0
100
AcDbText
 10
13248.77747366448
 20
9230.013745883727
 30
0.0
 40
100.0
  1
11
  7
STYLE1
100
AcDbText
  0
TEXT
  5
1A221
330
747D
100
AcDbEntity
  8
文字
 62
     7
 48
50.0
100
AcDbText
 10
13583.11819016569
 20
9060.013745883729
 30
0.0
 40
100.0
  1
シャッターカバー
 41
0.9
  7
STYLE1
100
AcDbText
  0
LINE
  5
1A222
330
747D
100
AcDbEntity
  8
仕様書枠
 48
50.0
100
AcDbLine
 10
16307.19999999999
 20
9029.6
 30
0.0
 11
13127.19999999999
 21
9029.6
 31
0.0
  0
LINE
  5
1A223
330
747D
100
AcDbEntity
  8
仕様書枠
 48
50.0
100
AcDbLine
 10
16307.19999999999
 20
8349.600000000004
 30
0.0
 11
13127.19999999999
 21
8349.600000000007
 31
0.0
  0
TEXT
  5
1A224
330
747D
100
AcDbEntity
  8
文字
 62
     7
 48
50.0
100
AcDbText
 10
13583.11819016569
 20
9230.013745883731
 30
0.0
 40
100.0
  1
シャッター
  7
STYLE1
100
AcDbText
  0
TEXT
  5
1A225
330
747D
100
AcDbEntity
  8
文字
 62
     7
 48
50.0
100
AcDbText
 10
13248.77747366448
 20
8890.013745883729
 30
0.0
 40
100.0
  1
13
  7
STYLE1
100
AcDbText
  0
TEXT
  5
1A226
330
747D
100
AcDbEntity
  8
文字
 62
     7
 48
50.0
100
AcDbText
 10
13248.77747366448
 20
9060.013745883729
 30
0.0
 40
100.0
  1
12
  7
STYLE1
100
AcDbText
  0
TEXT
  5
1A227
330
747D
100
AcDbEntity
  8
文字
 62
     7
 48
50.0
100
AcDbText
 10
15022.63965474517
 20
10930.01374588372
 30
0.0
 40
100.0
  1
F12            1.2
  7
STYLE1
100
AcDbText
  0
TEXT
  5
1A228
330
747D
100
AcDbEntity
  8
文字
 62
     7
 48
50.0
100
AcDbText
 10
15022.63965474517
 20
10760.01374588372
 30
0.0
 40
100.0
  1
F12         1.0,1.2
  7
STYLE1
100
AcDbText
  0
TEXT
  5
1A229
330
747D
100
AcDbEntity
  8
文字
 62
     7
 48
50.0
100
AcDbText
 10
15022.63965474516
 20
10590.01374588372
 30
0.0
 40
100.0
  1
Y10            1.0
  7
STYLE1
100
AcDbText
  0
TEXT
  5
1A22A
330
747D
100
AcDbEntity
  8
文字
 62
     7
 48
50.0
100
AcDbText
 10
15022.63965474516
 20
10420.01374588372
 30
0.0
 40
100.0
  1
Y10            1.0
  7
STYLE1
100
AcDbText
  0
TEXT
  5
1A22B
330
747D
100
AcDbEntity
  8
文字
 62
     7
 48
50.0
100
AcDbText
 10
15022.63965474516
 20
10250.01374588372
 30
0.0
 40
100.0
  1
Y10            0.7
  7
STYLE1
100
AcDbText
  0
TEXT
  5
1A22C
330
747D
100
AcDbEntity
  8
文字
 62
     7
 48
50.0
100
AcDbText
 10
15022.63965474516
 20
10080.01374588372
 30
0.0
 40
100.0
  1
Y10            0.7
  7
STYLE1
100
AcDbText
  0
TEXT
  5
1A22D
330
747D
100
AcDbEntity
  8
文字
 62
     7
 48
50.0
100
AcDbText
 10
15022.63965474516
 20
9570.013745883727
 30
0.0
 40
100.0
  1
Y10            0.5
  7
STYLE1
100
AcDbText
  0
TEXT
  5
1A22E
330
747D
100
AcDbEntity
  8
文字
 62
     7
 48
50.0
100
AcDbText
 10
15022.63965474516
 20
9400.013745883727
 30
0.0
 40
100.0
  1
F12            0.7
  7
STYLE1
100
AcDbText
  0
TEXT
  5
1A22F
330
747D
100
AcDbEntity
  8
文字
 62
     7
 48
50.0
100
AcDbText
 10
14850.83183167176
 20
8890.013745883727
 30
0.0
 40
100.0
  1
アルミニウム合金押出形材
  7
STYLE1
100
AcDbText
  0
TEXT
  5
1A231
330
747D
100
AcDbEntity
  8
文字
 62
     7
 48
50.0
100
AcDbText
 10
15022.63965474515
 20
9230.013745883727
 30
0.0
 40
100.0
  1
Z08            0.5
  7
STYLE1
100
AcDbText
  0
LINE
  5
1A232
330
747D
100
AcDbEntity
  8
仕様書枠
 48
50.0
100
AcDbLine
 10
16307.19999999998
 20
8179.600000000005
 30
0.0
 11
13127.19999999999
 21
8179.600000000007
 31
0.0
  0
LINE
  5
1A233
330
747D
100
AcDbEntity
  8
仕様書枠
 48
50.0
100
AcDbLine
 10
16307.19999999998
 20
8009.600000000006
 30
0.0
 11
13127.19999999999
 21
8009.600000000007
 31
0.0
  0
LINE
  5
1A234
330
747D
100
AcDbEntity
  8
仕様書枠
 48
50.0
100
AcDbLine
 10
16307.19999999998
 20
7839.600000000006
 30
0.0
 11
13127.19999999999
 21
7839.600000000007
 31
0.0
  0
TEXT
  5
1A235
330
747D
100
AcDbEntity
  8
文字
 62
     7
 48
50.0
100
AcDbText
 10
13229.83081656554
 20
8210.013745883735
 30
0.0
 40
100.0
  1
F12→溶融亜鉛めっき鋼板(JIS G 3302)
  7
STYLE1
100
AcDbText
  0
TEXT
  5
1A236
330
747D
100
AcDbEntity
  8
文字
 62
     7
 48
50.0
100
AcDbText
 10
13229.83081656554
 20
8040.013745883735
 30
0.0
 40
100.0
  1
Y10→溶融亜鉛-5％アルミニウム合金めっき鋼板(JIS G 3317)
 41
0.9
  7
STYLE1
100
AcDbText
  0
TEXT
  5
1A237
330
747D
100
AcDbEntity
  8
文字
 62
     7
 48
50.0
100
AcDbText
 10
13229.83081656554
 20
7870.013745883736
 30
0.0
 40
100.0
  1
Z08→塗装溶融亜鉛めっき鋼板(JIS G 3313)
  7
STYLE1
100
AcDbText
  0
LINE
  5
1A238
330
747D
100
AcDbEntity
  8
仕様書枠
 48
50.0
100
AcDbLine
 10
13127.2
 20
11239.6
 30
0.0
 11
13127.19999999999
 21
7839.600000000007
 31
0.0
  0
LINE
  5
1A23A
330
747D
100
AcDbEntity
  8
仕様書枠
 48
50.0
100
AcDbLine
 10
16307.19999999999
 20
8689.6
 30
0.0
 11
13127.19999999999
 21
8689.600000000003
 31
0.0
  0
LINE
  5
1A23B
330
747D
100
AcDbEntity
  8
仕様書枠
 48
50.0
100
AcDbLine
 10
16307.19999999999
 20
8859.6
 30
0.0
 11
13127.19999999999
 21
8859.600000000002
 31
0.0
  0
TEXT
  5
1A23C
330
747D
100
AcDbEntity
  8
文字
 62
     7
 48
50.0
100
AcDbText
 10
13583.11819016569
 20
8380.013745883731
 30
0.0
 40
100.0
  1
棚板
 41
0.9
  7
STYLE1
100
AcDbText
  0
TEXT
  5
1A23D
330
747D
100
AcDbEntity
  8
文字
 62
     7
 48
50.0
100
AcDbText
 10
13583.11819016569
 20
8720.013745883731
 30
0.0
 40
100.0
  1
根太
  7
STYLE1
100
AcDbText
  0
TEXT
  5
1A23E
330
747D
100
AcDbEntity
  8
文字
 62
     7
 48
50.0
100
AcDbText
 10
13248.77747366448
 20
8720.013745883729
 30
0.0
 40
100.0
  1
14
  7
STYLE1
100
AcDbText
  0
TEXT
  5
1A23F
330
747D
100
AcDbEntity
  8
文字
 62
     7
 48
50.0
100
AcDbText
 10
13248.77747366448
 20
8380.013745883731
 30
0.0
 40
100.0
  1
16
  7
STYLE1
100
AcDbText
  0
TEXT
  5
1A240
330
747D
100
AcDbEntity
  8
文字
 62
     7
 48
50.0
100
AcDbText
 10
15022.63965474516
 20
8720.013745883727
 30
0.0
 40
100.0
  1
F12            1.2
  7
STYLE1
100
AcDbText
  0
TEXT
  5
1A241
330
747D
100
AcDbEntity
  8
文字
 62
     7
 48
50.0
100
AcDbText
 10
15022.63965474516
 20
8380.013745883728
 30
0.0
 40
100.0
  1
F12            0.6
  7
STYLE1
100
AcDbText
  0
TEXT
  5
1A242
330
747D
100
AcDbEntity
  8
文字
 62
     7
 48
50.0
100
AcDbText
 10
13583.11819016569
 20
9910.01374588373
 30
0.0
 40
100.0
  1
梁中
  7
STYLE1
100
AcDbText
  0
TEXT
  5
1A243
330
747D
100
AcDbEntity
  8
文字
 62
     7
 48
50.0
100
AcDbText
 10
15022.63965474516
 20
9910.013745883727
 30
0.0
 40
100.0
  1
F12,Y10        1.0
  7
STYLE1
100
AcDbText
  0
DIMENSION
  5
1A726
330
747D
100
AcDbEntity
  8
寸法
100
AcDbDimension
  2
*D25
 10
13113.82645514428
 20
4601.856458683347
 30
0.0
 11
13113.82645514427
 21
3436.856458683347
 31
0.0
 70
   160
 71
     5
 42
2320.0
  3
INABA_S40G
100
AcDbAlignedDimension
 13
12408.89929717215
 23
2281.856458683347
 33
0.0
 14
12503.89929717215
 24
4601.856458683347
 34
0.0
 50
90.0
100
AcDbRotatedDimension
1001
ACAD
1000
DSTYLE
1002
{
1070
   288
1070
     1
1002
}
  0
LINE
  5
1A72C
330
747D
100
AcDbEntity
  8
破線
  6
HIDDEN
 48
5.0
100
AcDbLine
 10
9833.899297172152
 20
2181.856458683347
 30
0.0
 11
9833.899297172152
 21
1931.856458683347
 31
0.0
  0
LINE
  5
1A72D
330
747D
100
AcDbEntity
  8
破線
  6
HIDDEN
 48
5.0
100
AcDbLine
 10
9778.899297172152
 20
2181.856458683347
 30
0.0
 11
9778.899297172152
 21
1931.856458683347
 31
0.0
  0
DIMENSION
  5
1A72F
330
747D
100
AcDbEntity
  8
寸法
100
AcDbDimension
  2
*D26
 10
8935.149167988894
 20
2281.856458683348
 30
0.0
 11
8935.149167988894
 21
1898.106458683347
 31
0.0
 70
   160
 71
     5
 42
50.0
  3
INABA_S40G
100
AcDbAlignedDimension
 13
9778.899297172152
 23
2331.856458683347
 33
0.0
 14
9723.899297172152
 24
2281.856458683347
 34
0.0
 50
90.0
100
AcDbRotatedDimension
1001
ACAD
1000
DSTYLE
1002
{
1070
   288
1070
     1
1002
}
  0
LINE
  5
1A732
330
747D
100
AcDbEntity
  8
破線
  6
HIDDEN
 48
5.0
100
AcDbLine
 10
9778.899297172152
 20
1931.856458683347
 30
0.0
 11
9833.89929717215
 21
1931.856458683347
 31
0.0
  0
LINE
  5
1A735
330
747D
100
AcDbEntity
  8
部品1
100
AcDbLine
 10
9778.899297172152
 20
4421.856458683347
 30
0.0
 11
12408.89929717215
 21
4421.856458683347
 31
0.0
  0
LINE
  5
1A736
330
747D
100
AcDbEntity
  8
部品1
100
AcDbLine
 10
9833.899297172152
 20
2331.856458683347
 30
0.0
 11
12408.89929717215
 21
2331.856458683347
 31
0.0
  0
LINE
  5
1A737
330
747D
100
AcDbEntity
  8
部品1
100
AcDbLine
 10
9833.899297172152
 20
2281.856458683347
 30
0.0
 11
12408.89929717215
 21
2281.856458683347
 31
0.0
  0
LINE
  5
1A738
330
747D
100
AcDbEntity
  8
部品1
100
AcDbLine
 10
9833.899297172152
 20
4421.856458683347
 30
0.0
 11
9833.899297172152
 21
2181.856458683347
 31
0.0
  0
LINE
  5
1A739
330
747D
100
AcDbEntity
  8
部品1
100
AcDbLine
 10
9778.899297172152
 20
4513.998896612224
 30
0.0
 11
9778.899297172152
 21
2181.856458683347
 31
0.0
  0
DIMENSION
  5
1A73A
330
747D
100
AcDbEntity
  8
寸法
100
AcDbDimension
  2
*D27
 10
8935.149167988894
 20
2331.856458683348
 30
0.0
 11
8835.137356965272
 21
3376.856458683349
 31
0.0
 70
    32
 71
     5
 42
2089.999999999999
  3
INABA_S40G
100
AcDbAlignedDimension
 13
9778.899297172152
 23
4421.856458683347
 33
0.0
 14
9778.899297172152
 24
2331.856458683347
 34
0.0
 50
90.0
100
AcDbRotatedDimension
1001
ACAD
1000
DSTYLE
1002
{
1070
   288
1070
     1
1002
}
  0
DIMENSION
  5
1A73B
330
747D
100
AcDbEntity
  8
寸法
100
AcDbDimension
  2
*D28
 10
8635.149167988894
 20
4656.856458683351
 30
0.0
 11
8535.13735696527
 21
3469.35645868335
 31
0.0
 70
    32
 71
     5
 42
2375.000000000003
  3
INABA_S40G
100
AcDbAlignedDimension
 13
9778.899297172152
 23
2281.856458683347
 33
0.0
 14
9643.899297172156
 24
4656.856458683351
 34
0.0
 50
90.0
100
AcDbRotatedDimension
1001
ACAD
1000
DSTYLE
1002
{
1070
   288
1070
     1
1002
}
  0
LINE
  5
1A73C
330
747D
100
AcDbEntity
  8
部品1
100
AcDbLine
 10
12408.89929717215
 20
4476.390732071086
 30
0.0
 11
12408.89929717215
 21
2181.856458683347
 31
0.0
  0
LINE
  5
1A73D
330
747D
100
AcDbEntity
  8
部品1
100
AcDbLine
 10
12353.89929717215
 20
4421.856458683347
 30
0.0
 11
12353.89929717215
 21
2331.856458683347
 31
0.0
  0
TEXT
  5
1A751
330
747D
100
AcDbEntity
  8
部品1
100
AcDbText
 10
10801.61006548154
 20
1338.962929464822
 30
0.0
 40
135.0
  1
側面図
  7
STYLE2
100
AcDbText
  0
LWPOLYLINE
  5
1A752
330
747D
100
AcDbEntity
  8
部品1
100
AcDbPolyline
 90
        4
 70
     1
 43
0.0
 10
10712.16396405793
 20
1531.856458683345
 10
10712.16396405793
 20
1291.964137137813
 10
11475.63463028637
 20
1291.964137137813
 10
11475.63463028637
 20
1531.856458683345
  0
TEXT
  5
1A753
330
747D
100
AcDbEntity
  8
部品1
 48
50.0
100
AcDbText
 10
10967.84727646816
 20
4816.626809839938
 30
0.0
 40
120.0
  1
1000
  7
STYLE1
100
AcDbText
  0
DIMENSION
  5
1A754
330
747D
100
AcDbEntity
  8
寸法
 48
50.0
100
AcDbDimension
  2
*D29
 10
9778.899297172152
 20
5055.513912262654
 30
0.0
 11
11093.89929717215
 21
5055.513912262654
 31
0.0
 70
   160
  1
柱外寸法<>
 71
     5
 42
2630.0
  3
INABA_S40G
100
AcDbAlignedDimension
 13
12408.89929717215
 23
4603.667138295
 33
0.0
 14
9778.899297172152
 24
4652.858076806324
 34
0.0
100
AcDbRotatedDimension
1001
ACAD
1000
DSTYLE
1002
{
1070
   174
1070
     0
1070
   272
1070
     1
1070
   288
1070
     0
1070
   341
1005
0
1002
}
  0
DIMENSION
  5
1A755
330
747D
100
AcDbEntity
  8
寸法
 48
50.0
100
AcDbDimension
  2
*D30
 10
9718.899297172153
 20
5055.513912262651
 30
0.0
 11
9409.261501896558
 21
5055.513912262651
 31
0.0
 70
   160
 71
     5
 42
60.0
  3
INABA_S40G
100
AcDbAlignedDimension
 13
9778.899297172152
 23
4652.858076806324
 33
0.0
 14
9718.899297172153
 24
4656.856458683352
 34
0.0
100
AcDbRotatedDimension
1001
ACAD
1000
DSTYLE
1002
{
1070
   174
1070
     0
1070
   272
1070
     1
1070
   288
1070
     0
1070
   341
1005
0
1002
}
  0
DIMENSION
  5
1A756
330
747D
100
AcDbEntity
  8
寸法
 48
50.0
100
AcDbDimension
  2
*D31
 10
9718.899297172153
 20
5275.724598994269
 30
0.0
 11
11103.89929717215
 21
5275.724598994269
 31
0.0
 70
   160
 71
     5
 42
2770.0
  3
INABA_S40G
100
AcDbAlignedDimension
 13
12488.89929717215
 23
4601.856458683349
 33
0.0
 14
9718.899297172153
 24
4656.856458683352
 34
0.0
100
AcDbRotatedDimension
1001
ACAD
1000
DSTYLE
1002
{
1070
   174
1070
     0
1070
   272
1070
     1
1070
   288
1070
     0
1070
   341
1005
0
1002
}
  0
DIMENSION
  5
1A757
330
747D
100
AcDbEntity
  8
寸法
 48
50.0
100
AcDbDimension
  2
*D32
 10
12488.89929717215
 20
5055.513912262654
 30
0.0
 11
12694.94654126664
 21
5055.513912262654
 31
0.0
 70
   160
 71
     5
 42
80.0
  3
INABA_S40G
100
AcDbAlignedDimension
 13
12408.89929717215
 23
4603.667138295
 33
0.0
 14
12488.89929717215
 24
4601.856458683349
 34
0.0
100
AcDbRotatedDimension
1001
ACAD
1000
DSTYLE
1002
{
1070
   174
1070
     0
1070
   272
1070
     1
1070
   288
1070
     0
1070
   341
1005
0
1002
}
  0
LINE
  5
1A758
330
747D
100
AcDbEntity
  8
部品1
100
AcDbLine
 10
10954.12442760139
 20
4782.060846646365
 30
0.0
 11
11279.57944124443
 21
4764.542787687504
 31
0.0
  0
LINE
  5
1A759
330
747D
100
AcDbEntity
  8
部品1
 48
50.0
100
AcDbLine
 10
10979.57944124443
 20
4780.742787687504
 30
0.0
 11
11279.57944124443
 21
4780.742787687504
 31
0.0
  0
LINE
  5
1A75A
330
747D
100
AcDbEntity
  8
部品1
 48
50.0
100
AcDbLine
 10
11279.57944124443
 20
4780.742787687504
 30
0.0
 11
11279.57944124443
 21
4764.542787687504
 31
0.0
  0
TEXT
  5
1A75B
330
747D
100
AcDbEntity
  8
部品1
 48
50.0
100
AcDbText
 10
11445.48029913325
 20
4679.125551621654
 30
0.0
 40
120.0
  1
37
 50
90.0
  7
STYLE1
100
AcDbText
  0
DIMENSION
  5
1A75C
330
747D
100
AcDbEntity
  8
寸法
 48
50.0
100
AcDbDimension
  2
*D33
 10
9158.29089040378
 20
4531.201717556678
 30
0.0
 11
9168.956365662703
 21
4902.048380798379
 31
0.0
 70
   161
 71
     5
 42
141.0000000000009
  3
INABA_S40G
100
AcDbAlignedDimension
 13
9738.295317330733
 23
4655.579207518027
 33
0.0
 14
9734.241861774107
 24
4514.637483752315
 34
0.0
1001
ACAD
1000
DSTYLE
1002
{
1070
   174
1070
     0
1070
   272
1070
     1
1070
   288
1070
     0
1070
   341
1005
0
1002
}
  0
ARC
  5
1A75D
330
747D
100
AcDbEntity
  8
部品1
100
AcDbCircle
 10
12474.52683298609
 20
4495.88021594914
 30
0.0
 40
0.7
100
AcDbArc
 50
275.0921697642102
 51
354.1866997667606
  0
ARC
  5
1A75E
330
747D
100
AcDbEntity
  8
部品1
100
AcDbCircle
 10
12485.38617873541
 20
4572.923470767064
 30
0.0
 40
0.7
100
AcDbArc
 50
275.0921697642102
 51
354.1866997665532
  0
ARC
  5
1A75F
330
747D
100
AcDbEntity
  8
部品1
100
AcDbCircle
 10
12485.71458397801
 20
4569.238073909975
 30
0.0
 40
3.0
100
AcDbArc
 50
95.0921697642102
 51
174.1866997665532
  0
ARC
  5
1A760
330
747D
100
AcDbEntity
  8
部品1
100
AcDbCircle
 10
12474.85523822869
 20
4492.19481909205
 30
0.0
 40
3.0
100
AcDbArc
 50
95.0921697642102
 51
174.1866997665532
  0
ARC
  5
1A761
330
747D
100
AcDbEntity
  8
部品1
 48
50.0
100
AcDbCircle
 10
12463.82710295358
 20
4482.604074488168
 30
0.0
 40
7.0
100
AcDbArc
 50
267.8377559869492
 51
354.1866997665532
  0
ARC
  5
1A762
330
747D
100
AcDbEntity
  8
部品1
 48
50.0
100
AcDbCircle
 10
12481.1491994181
 20
4593.506621630342
 30
0.0
 40
7.0
100
AcDbArc
 50
354.1866997665532
 51
87.03587545283093
  0
LINE
  5
1A763
330
747D
100
AcDbEntity
  8
部品1
 48
50.0
100
AcDbLine
 10
12471.87066655808
 20
4492.498680808952
 30
0.0
 11
12470.79110351834
 21
4481.895063815395
 31
0.0
  0
LINE
  5
1A764
330
747D
100
AcDbEntity
  8
部品1
 48
50.0
100
AcDbLine
 10
12482.7300123074
 20
4569.541935626878
 30
0.0
 11
12475.22323304257
 21
4495.809314881866
 31
0.0
  0
LINE
  5
1A765
330
747D
100
AcDbEntity
  8
部品1
 48
50.0
100
AcDbLine
 10
12488.11319998285
 20
4592.797610957567
 30
0.0
 11
12486.08257879189
 21
4572.852569699786
 31
0.0
  0
ARC
  5
1A766
330
747D
100
AcDbEntity
  8
部品1
100
AcDbCircle
 10
9724.93638904352
 20
4535.670617642252
 30
0.0
 40
0.7
100
AcDbArc
 50
181.0932240293156
 51
260.1877540314845
  0
ARC
  5
1A767
330
747D
100
AcDbEntity
  8
部品1
100
AcDbCircle
 10
9720.163715445909
 20
4628.536395842369
 30
0.0
 40
0.7
100
AcDbArc
 50
181.0932240292114
 51
260.1877540314845
  0
ARC
  5
1A768
330
747D
100
AcDbEntity
  8
部品1
100
AcDbCircle
 10
9719.533161042884
 20
4624.890521304973
 30
0.0
 40
3.0
100
AcDbArc
 50
1.093224029315636
 51
80.18775403169875
  0
ARC
  5
1A769
330
747D
100
AcDbEntity
  8
部品1
100
AcDbCircle
 10
9724.305834640496
 20
4532.024743104853
 30
0.0
 40
3.0
100
AcDbArc
 50
1.093224029315636
 51
80.18775403169875
  0
ARC
  5
1A76A
330
747D
100
AcDbEntity
  8
部品1
 48
50.0
100
AcDbCircle
 10
9734.505967015692
 20
4521.632499722373
 30
0.0
 40
7.0
100
AcDbArc
 50
181.0932240293156
 51
267.8377559869492
  0
ARC
  5
1A76B
330
747D
100
AcDbEntity
  8
部品1
 48
50.0
100
AcDbCircle
 10
9726.082308913596
 20
4648.583559255468
 30
0.0
 40
7.0
100
AcDbArc
 50
87.03587545283093
 51
181.0932240293156
  0
LINE
  5
1A76C
330
747D
100
AcDbEntity
  8
部品1
 48
50.0
100
AcDbLine
 10
9727.305288566924
 20
4532.081980708037
 30
0.0
 11
9727.507241187355
 21
4521.498945314944
 31
0.0
  0
LINE
  5
1A76D
330
747D
100
AcDbEntity
  8
細線
 48
50.0
100
AcDbLine
 10
9724.69919551025
 20
4535.012028826844
 30
0.0
 11
12474.70285994089
 21
4495.202709852352
 31
0.0
  0
LINE
  5
1A76E
330
747D
100
AcDbEntity
  8
細線
 48
50.0
100
AcDbLine
 10
9719.938720272963
 20
4627.873540524709
 30
0.0
 11
12485.57470501814
 21
4572.24933588388
 31
0.0
  0
LINE
  5
1A76F
330
747D
100
AcDbEntity
  8
部品1
 48
50.0
100
AcDbLine
 10
9722.532614969315
 20
4624.947758908156
 30
0.0
 11
9724.236516460683
 21
4535.657262201508
 31
0.0
  0
LINE
  5
1A770
330
747D
100
AcDbEntity
  8
部品1
 48
50.0
100
AcDbLine
 10
9719.083583085259
 20
4648.45000484804
 30
0.0
 11
9719.463842863071
 21
4628.523040401629
 31
0.0
  0
LINE
  5
1A771
330
747D
100
AcDbEntity
  8
細線
 48
50.0
100
AcDbLine
 10
12455.86858036584
 20
4601.009881162815
 30
0.0
 11
12451.15161428415
 21
4476.0776652279
 31
0.0
  0
LINE
  5
1A772
330
747D
100
AcDbEntity
  8
細線
 48
50.0
100
AcDbLine
 10
9751.899297172153
 20
4654.256135058753
 30
0.0
 11
9746.610195616646
 21
4514.170502431397
 31
0.0
  0
LINE
  5
1A773
330
747D
100
AcDbEntity
  8
部品1
100
AcDbLine
 10
9734.241861774107
 20
4514.637483752315
 30
0.0
 11
12463.562997712
 21
4475.609058518108
 31
0.0
  0
LINE
  5
1A774
330
747D
100
AcDbEntity
  8
部品1
100
AcDbLine
 10
9726.444283529112
 20
4655.574194017614
 30
0.0
 11
12481.51117403362
 21
4600.497256392485
 31
0.0
  0
LINE
  5
1A775
330
747D
100
AcDbEntity
  8
細線
 48
50.0
100
AcDbLine
 10
11856.39929717215
 20
4421.856458683347
 30
0.0
 11
11856.39929717215
 21
2331.856458683349
 31
0.0
  0
LINE
  5
1A776
330
747D
100
AcDbEntity
  8
細線
 48
50.0
100
AcDbLine
 10
11871.39929717215
 20
4421.856458683347
 30
0.0
 11
11871.39929717215
 21
2331.856458683349
 31
0.0
  0
LINE
  5
1A777
330
747D
100
AcDbEntity
  8
細線
 48
50.0
100
AcDbLine
 10
11731.39929717215
 20
4421.856458683347
 30
0.0
 11
11731.39929717215
 21
2331.856458683349
 31
0.0
  0
LINE
  5
1A778
330
747D
100
AcDbEntity
  8
細線
 48
50.0
100
AcDbLine
 10
11716.39929717215
 20
4421.856458683347
 30
0.0
 11
11716.39929717215
 21
2331.856458683349
 31
0.0
  0
LINE
  5
1A779
330
747D
100
AcDbEntity
  8
細線
 48
50.0
100
AcDbLine
 10
11576.39929717215
 20
4421.856458683347
 30
0.0
 11
11576.39929717215
 21
2331.856458683349
 31
0.0
  0
LINE
  5
1A77A
330
747D
100
AcDbEntity
  8
細線
 48
50.0
100
AcDbLine
 10
11591.39929717215
 20
4421.856458683347
 30
0.0
 11
11591.39929717215
 21
2331.856458683349
 31
0.0
  0
LINE
  5
1A77B
330
747D
100
AcDbEntity
  8
部品1
100
AcDbLine
 10
11513.89929717214
 20
4421.856458683347
 30
0.0
 11
11513.89929717214
 21
2331.856458683349
 31
0.0
  0
LINE
  5
1A77C
330
747D
100
AcDbEntity
  8
細線
 48
50.0
100
AcDbLine
 10
11171.39929717215
 20
4421.856458683347
 30
0.0
 11
11171.39929717215
 21
2331.856458683347
 31
0.0
  0
LINE
  5
1A77D
330
747D
100
AcDbEntity
  8
細線
 48
50.0
100
AcDbLine
 10
11156.39929717215
 20
4421.856458683347
 30
0.0
 11
11156.39929717215
 21
2331.856458683347
 31
0.0
  0
LINE
  5
1A77E
330
747D
100
AcDbEntity
  8
細線
 48
50.0
100
AcDbLine
 10
11296.39929717215
 20
4421.856458683347
 30
0.0
 11
11296.39929717215
 21
2331.856458683347
 31
0.0
  0
LINE
  5
1A77F
330
747D
100
AcDbEntity
  8
細線
 48
50.0
100
AcDbLine
 10
11311.39929717215
 20
4421.856458683347
 30
0.0
 11
11311.39929717215
 21
2331.856458683347
 31
0.0
  0
LINE
  5
1A780
330
747D
100
AcDbEntity
  8
細線
 48
50.0
100
AcDbLine
 10
11451.39929717215
 20
4421.856458683347
 30
0.0
 11
11451.39929717215
 21
2331.856458683347
 31
0.0
  0
LINE
  5
1A781
330
747D
100
AcDbEntity
  8
細線
 48
50.0
100
AcDbLine
 10
11436.39929717215
 20
4421.856458683347
 30
0.0
 11
11436.39929717215
 21
2331.856458683347
 31
0.0
  0
LINE
  5
1A782
330
747D
100
AcDbEntity
  8
部品1
100
AcDbLine
 10
11933.89929717215
 20
4421.856458683347
 30
0.0
 11
11933.89929717215
 21
2331.856458683349
 31
0.0
  0
LINE
  5
1A783
330
747D
100
AcDbEntity
  8
部品1
100
AcDbLine
 10
10253.89929717215
 20
4421.856458683347
 30
0.0
 11
10253.89929717215
 21
2331.856458683347
 31
0.0
  0
LINE
  5
1A784
330
747D
100
AcDbEntity
  8
細線
 48
50.0
100
AcDbLine
 10
10331.39929717215
 20
4421.856458683347
 30
0.0
 11
10331.39929717215
 21
2331.856458683347
 31
0.0
  0
LINE
  5
1A785
330
747D
100
AcDbEntity
  8
細線
 48
50.0
100
AcDbLine
 10
10316.39929717215
 20
4421.856458683347
 30
0.0
 11
10316.39929717215
 21
2331.856458683347
 31
0.0
  0
LINE
  5
1A786
330
747D
100
AcDbEntity
  8
細線
 48
50.0
100
AcDbLine
 10
10456.39929717215
 20
4421.856458683347
 30
0.0
 11
10456.39929717215
 21
2331.856458683347
 31
0.0
  0
LINE
  5
1A787
330
747D
100
AcDbEntity
  8
細線
 48
50.0
100
AcDbLine
 10
10471.39929717215
 20
4421.856458683347
 30
0.0
 11
10471.39929717215
 21
2331.856458683347
 31
0.0
  0
LINE
  5
1A788
330
747D
100
AcDbEntity
  8
細線
 48
50.0
100
AcDbLine
 10
10611.39929717215
 20
4421.856458683347
 30
0.0
 11
10611.39929717215
 21
2331.856458683347
 31
0.0
  0
LINE
  5
1A789
330
747D
100
AcDbEntity
  8
細線
 48
50.0
100
AcDbLine
 10
10596.39929717215
 20
4421.856458683347
 30
0.0
 11
10596.39929717215
 21
2331.856458683347
 31
0.0
  0
LINE
  5
1A78A
330
747D
100
AcDbEntity
  8
細線
 48
50.0
100
AcDbLine
 10
10176.39929717215
 20
4421.856458683347
 30
0.0
 11
10176.39929717215
 21
2331.856458683347
 31
0.0
  0
LINE
  5
1A78B
330
747D
100
AcDbEntity
  8
細線
 48
50.0
100
AcDbLine
 10
10191.39929717215
 20
4421.856458683347
 30
0.0
 11
10191.39929717215
 21
2331.856458683347
 31
0.0
  0
LINE
  5
1A78C
330
747D
100
AcDbEntity
  8
細線
 48
50.0
100
AcDbLine
 10
10051.39929717215
 20
4421.856458683347
 30
0.0
 11
10051.39929717215
 21
2331.856458683347
 31
0.0
  0
LINE
  5
1A78D
330
747D
100
AcDbEntity
  8
細線
 48
50.0
100
AcDbLine
 10
10036.39929717215
 20
4421.856458683347
 30
0.0
 11
10036.39929717215
 21
2331.856458683347
 31
0.0
  0
LINE
  5
1A78E
330
747D
100
AcDbEntity
  8
細線
 48
50.0
100
AcDbLine
 10
9896.399297172152
 20
4421.856458683347
 30
0.0
 11
9896.399297172152
 21
2331.856458683347
 31
0.0
  0
LINE
  5
1A78F
330
747D
100
AcDbEntity
  8
細線
 48
50.0
100
AcDbLine
 10
9911.399297172152
 20
4421.856458683347
 30
0.0
 11
9911.399297172152
 21
2331.856458683347
 31
0.0
  0
LINE
  5
1A790
330
747D
100
AcDbEntity
  8
部品1
100
AcDbLine
 10
10673.89929717215
 20
4421.856458683347
 30
0.0
 11
10673.89929717215
 21
2331.856458683347
 31
0.0
  0
LINE
  5
1A791
330
747D
100
AcDbEntity
  8
細線
 48
50.0
100
AcDbLine
 10
11016.39929717215
 20
4421.856458683347
 30
0.0
 11
11016.39929717215
 21
2331.856458683347
 31
0.0
  0
LINE
  5
1A792
330
747D
100
AcDbEntity
  8
細線
 48
50.0
100
AcDbLine
 10
11031.39929717215
 20
4421.856458683347
 30
0.0
 11
11031.39929717215
 21
2331.856458683347
 31
0.0
  0
LINE
  5
1A793
330
747D
100
AcDbEntity
  8
細線
 48
50.0
100
AcDbLine
 10
10891.39929717215
 20
4421.856458683347
 30
0.0
 11
10891.39929717215
 21
2331.856458683347
 31
0.0
  0
LINE
  5
1A794
330
747D
100
AcDbEntity
  8
細線
 48
50.0
100
AcDbLine
 10
10876.39929717215
 20
4421.856458683347
 30
0.0
 11
10876.39929717215
 21
2331.856458683347
 31
0.0
  0
LINE
  5
1A795
330
747D
100
AcDbEntity
  8
細線
 48
50.0
100
AcDbLine
 10
10736.39929717215
 20
4421.856458683347
 30
0.0
 11
10736.39929717215
 21
2331.856458683347
 31
0.0
  0
LINE
  5
1A796
330
747D
100
AcDbEntity
  8
細線
 48
50.0
100
AcDbLine
 10
10751.39929717215
 20
4421.856458683347
 30
0.0
 11
10751.39929717215
 21
2331.856458683347
 31
0.0
  0
LINE
  5
1A797
330
747D
100
AcDbEntity
  8
部品1
100
AcDbLine
 10
11093.89929717215
 20
4421.856458683347
 30
0.0
 11
11093.89929717215
 21
2331.856458683347
 31
0.0
  0
LINE
  5
1A798
330
747D
100
AcDbEntity
  8
細線
 48
50.0
100
AcDbLine
 10
12011.39929717216
 20
4421.856458683347
 30
0.0
 11
12011.39929717216
 21
2331.856458683349
 31
0.0
  0
LINE
  5
1A799
330
747D
100
AcDbEntity
  8
細線
 48
50.0
100
AcDbLine
 10
11996.39929717216
 20
4421.856458683347
 30
0.0
 11
11996.39929717216
 21
2331.856458683349
 31
0.0
  0
LINE
  5
1A79A
330
747D
100
AcDbEntity
  8
細線
 48
50.0
100
AcDbLine
 10
12136.39929717216
 20
4421.856458683347
 30
0.0
 11
12136.39929717216
 21
2331.856458683349
 31
0.0
  0
LINE
  5
1A79B
330
747D
100
AcDbEntity
  8
細線
 48
50.0
100
AcDbLine
 10
12151.39929717216
 20
4421.856458683347
 30
0.0
 11
12151.39929717216
 21
2331.856458683349
 31
0.0
  0
LINE
  5
1A79C
330
747D
100
AcDbEntity
  8
細線
 48
50.0
100
AcDbLine
 10
12291.39929717216
 20
4421.856458683347
 30
0.0
 11
12291.39929717216
 21
2331.856458683349
 31
0.0
  0
LINE
  5
1A79D
330
747D
100
AcDbEntity
  8
細線
 48
50.0
100
AcDbLine
 10
12276.39929717216
 20
4421.856458683347
 30
0.0
 11
12276.39929717216
 21
2331.856458683349
 31
0.0
  0
LWPOLYLINE
  5
1A79E
330
747D
100
AcDbEntity
  8
部品1
100
AcDbPolyline
 90
        4
 70
     1
 43
0.0
 10
4711.366582250427
 20
1531.856458683345
 10
4711.366582250427
 20
1291.964137137813
 10
5474.837248478868
 20
1291.964137137813
 10
5474.837248478868
 20
1531.856458683345
  0
TEXT
  5
1A79F
330
747D
100
AcDbEntity
  8
部品1
100
AcDbText
 10
4801.891985988383
 20
1338.962929464822
 30
0.0
 40
135.0
  1
正面図
  7
STYLE2
100
AcDbText
  0
TEXT
  5
1A7A0
330
747D
100
AcDbEntity
  8
部品1
100
AcDbText
 10
4801.28619207948
 20
5838.149133041257
 30
0.0
 40
135.0
  1
平面図
  7
STYLE2
100
AcDbText
  0
LWPOLYLINE
  5
1A7A1
330
747D
100
AcDbEntity
  8
部品1
100
AcDbPolyline
 90
        4
 70
     1
 43
0.0
 10
4711.366582250443
 20
6031.042662259781
 10
4711.366582250443
 20
5791.150340714248
 10
5474.837248478883
 20
5791.150340714248
 10
5474.837248478883
 20
6031.042662259781
  0
LINE
  5
1A7A2
330
747D
100
AcDbEntity
  8
部品1
100
AcDbLine
 10
1501.832324018289
 20
2311.76026925101
 30
0.0
 11
1651.832324018289
 21
2311.76026925101
 31
0.0
  0
LINE
  5
1A7A3
330
747D
100
AcDbEntity
  8
部品1
100
AcDbLine
 10
1576.832324018289
 20
2181.856458683345
 30
0.0
 11
1501.832324018289
 21
2311.76026925101
 31
0.0
  0
TEXT
  5
1A7A4
330
747D
100
AcDbEntity
  8
部品1
100
AcDbText
 10
1679.937266143062
 20
2217.963362289247
 30
0.0
 40
125.0
  1
G.L
  7
STYLE2
100
AcDbText
  0
LINE
  5
1A7A5
330
747D
100
AcDbEntity
  8
部品1
100
AcDbLine
 10
1651.832324018289
 20
2311.76026925101
 30
0.0
 11
1576.832324018289
 21
2181.856458683345
 31
0.0
  0
LINE
  5
1A7A6
330
747D
100
AcDbEntity
  8
Ｇ．Ｌ
100
AcDbLine
 10
1247.910202382078
 20
2181.856458683345
 30
0.0
 11
13012.29729347573
 21
2181.856458683345
 31
0.0
  0
LINE
  5
1A7D3
330
747D
100
AcDbEntity
  8
部品1
 48
50.0
100
AcDbLine
 10
7765.69349425824
 20
4656.856458683349
 30
0.0
 11
5083.101915364671
 21
4656.856458683349
 31
0.0
  0
LINE
  5
1A7D4
330
747D
100
AcDbEntity
  8
部品1
 48
50.0
100
AcDbLine
 10
7752.478170797205
 20
4515.856458683349
 30
0.0
 11
5093.10191536467
 21
4515.856458683349
 31
0.0
  0
LINE
  5
1A7D5
330
747D
100
AcDbEntity
  8
細線
 48
50.0
100
AcDbLine
 10
7770.943264352756
 20
4628.829701246817
 30
0.0
 11
5083.101915364671
 21
4628.829701246817
 31
0.0
  0
LINE
  5
1A7D6
330
747D
100
AcDbEntity
  8
細線
 48
50.0
100
AcDbLine
 10
7762.707233827912
 20
4536.629701246816
 30
0.0
 11
5083.101915364671
 21
4536.629701247137
 31
0.0
  0
LINE
  5
1A7D7
330
747D
100
AcDbEntity
  8
部品1
100
AcDbLine
 10
7772.682254349338
 20
4649.459933288108
 30
0.0
 11
7771.548857016992
 21
4629.48380530551
 31
0.0
  0
LINE
  5
1A7D8
330
747D
100
AcDbEntity
  8
細線
 48
50.0
100
AcDbLine
 10
7740.101915364673
 20
4656.856458683349
 30
0.0
 11
7740.101915364673
 21
4515.856458683349
 31
0.0
  0
LINE
  5
1A7D9
330
747D
100
AcDbEntity
  8
部品1
100
AcDbLine
 10
7760.111836695417
 20
4533.826398138451
 30
0.0
 11
7759.466930888304
 21
4522.459933288112
 31
0.0
  0
LINE
  5
1A7DA
330
747D
100
AcDbEntity
  8
部品1
100
AcDbLine
 10
7768.34786722026
 20
4626.026398138452
 30
0.0
 11
7763.31282649215
 21
4537.283805305508
 31
0.0
  0
ARC
  5
1A7DB
330
747D
100
AcDbEntity
  8
部品1
 48
50.0
100
AcDbCircle
 10
7771.343050116445
 20
4625.856458683349
 30
0.0
 40
3.0
100
AcDbArc
 50
97.65812720736519
 51
176.7526572096682
  0
ARC
  5
1A7DC
330
747D
100
AcDbEntity
  8
部品1
 48
50.0
100
AcDbCircle
 10
7763.107019591602
 20
4533.656458683348
 30
0.0
 40
3.0
100
AcDbArc
 50
97.65812720736519
 51
176.7526572096682
  0
ARC
  5
1A7DD
330
747D
100
AcDbEntity
  8
部品1
 48
50.0
100
AcDbCircle
 10
7762.61395048304
 20
4537.323457845032
 30
0.0
 40
0.7
100
AcDbArc
 50
277.6581272073652
 51
356.7526572097202
  0
ARC
  5
1A7DE
330
747D
100
AcDbEntity
  8
部品1
 48
50.0
100
AcDbCircle
 10
7770.849981007884
 20
4629.523457845036
 30
0.0
 40
0.7
100
AcDbArc
 50
277.6581272073652
 51
356.7526572096162
  0
ARC
  5
1A7DF
330
747D
100
AcDbEntity
  8
部品1
100
AcDbCircle
 10
7752.478170797205
 20
4522.856458683349
 30
0.0
 40
7.0
100
AcDbArc
 50
270.0
 51
356.7526572096682
  0
ARC
  5
1A7E0
330
747D
100
AcDbEntity
  8
部品1
100
AcDbCircle
 10
7765.69349425824
 20
4649.856458683348
 30
0.0
 40
7.0
100
AcDbArc
 50
356.7526572096682
 51
90.0
  0
LINE
  5
1A7E1
330
747D
100
AcDbEntity
  8
部品1
100
AcDbLine
 10
5093.101915364669
 20
4421.856458683345
 30
0.0
 11
7723.101915364669
 21
4421.856458683345
 31
0.0
  0
LINE
  5
1A7E2
330
747D
100
AcDbEntity
  8
部品1
100
AcDbLine
 10
2463.101915364672
 20
4421.856458683345
 30
0.0
 11
5093.10191536467
 21
4421.856458683345
 31
0.0
  0
LINE
  5
1A7E3
330
747D
100
AcDbEntity
  8
部品1
100
AcDbLine
 10
2413.521576380003
 20
4649.459933288108
 30
0.0
 11
2414.654973712352
 21
4629.48380530551
 31
0.0
  0
LINE
  5
1A7E4
330
747D
100
AcDbEntity
  8
部品1
100
AcDbLine
 10
2426.091994033932
 20
4533.826398138451
 30
0.0
 11
2426.736899841041
 21
4522.459933288112
 31
0.0
  0
LINE
  5
1A7E5
330
747D
100
AcDbEntity
  8
部品1
100
AcDbLine
 10
2417.855963509081
 20
4626.026398138452
 30
0.0
 11
2422.891004237195
 21
4537.283805305508
 31
0.0
  0
ARC
  5
1A7E6
330
747D
100
AcDbEntity
  8
部品1
 48
50.0
100
AcDbCircle
 10
2414.860780612895
 20
4625.856458683349
 30
0.0
 40
3.0
100
AcDbArc
 50
3.247342790331777
 51
82.3418727926348
  0
ARC
  5
1A7E7
330
747D
100
AcDbEntity
  8
部品1
 48
50.0
100
AcDbCircle
 10
2423.096811137739
 20
4533.656458683348
 30
0.0
 40
3.0
100
AcDbArc
 50
3.247342790331777
 51
82.3418727926348
  0
ARC
  5
1A7E8
330
747D
100
AcDbEntity
  8
部品1
 48
50.0
100
AcDbCircle
 10
2423.5898802463
 20
4537.323457845032
 30
0.0
 40
0.7
100
AcDbArc
 50
183.2473427902797
 51
262.3418727926349
  0
ARC
  5
1A7E9
330
747D
100
AcDbEntity
  8
部品1
 48
50.0
100
AcDbCircle
 10
2415.353849721463
 20
4629.523457845036
 30
0.0
 40
0.7
100
AcDbArc
 50
183.2473427903838
 51
262.3418727926349
  0
ARC
  5
1A7EA
330
747D
100
AcDbEntity
  8
部品1
100
AcDbCircle
 10
2433.725659932135
 20
4522.856458683349
 30
0.0
 40
7.0
100
AcDbArc
 50
183.2473427903317
 51
270.0
  0
ARC
  5
1A7EB
330
747D
100
AcDbEntity
  8
部品1
100
AcDbCircle
 10
2420.510336471105
 20
4649.856458683348
 30
0.0
 40
7.0
100
AcDbArc
 50
90.0
 51
183.2473427903317
  0
LINE
  5
1A7EC
330
747D
100
AcDbEntity
  8
細線
 48
50.0
100
AcDbLine
 10
2446.101915364672
 20
4656.856458683349
 30
0.0
 11
2446.101915364672
 21
4515.856458683349
 31
0.0
  0
LINE
  5
1A7ED
330
747D
100
AcDbEntity
  8
細線
 48
50.0
100
AcDbLine
 10
5083.101915364671
 20
4536.629701247133
 30
0.0
 11
2423.496596901476
 21
4536.629701247137
 31
0.0
  0
LINE
  5
1A7EE
330
747D
100
AcDbEntity
  8
細線
 48
50.0
100
AcDbLine
 10
5083.101915364671
 20
4628.829701246817
 30
0.0
 11
2415.260566376632
 21
4628.829701247137
 31
0.0
  0
LINE
  5
1A7EF
330
747D
100
AcDbEntity
  8
部品1
 48
50.0
100
AcDbLine
 10
5093.10191536467
 20
4515.856458683349
 30
0.0
 11
2433.725659932135
 21
4515.856458683349
 31
0.0
  0
LINE
  5
1A7F0
330
747D
100
AcDbEntity
  8
部品1
 48
50.0
100
AcDbLine
 10
5083.101915364671
 20
4656.856458683349
 30
0.0
 11
2420.510336471105
 21
4656.856458683349
 31
0.0
  0
LINE
  5
1A81D
330
747D
100
AcDbEntity
  8
部品1
 48
50.0
100
AcDbLine
 10
5083.101915364671
 20
4515.856458683349
 30
0.0
 11
5083.101915364668
 21
4656.856458683349
 31
0.0
  0
LINE
  5
1A81E
330
747D
100
AcDbEntity
  8
部品1
 48
50.0
100
AcDbLine
 10
5093.101915364671
 20
4256.856458683345
 30
0.0
 11
5093.10191536467
 21
4515.856458683349
 31
0.0
  0
DIMENSION
  5
1A81F
330
747D
100
AcDbEntity
  8
寸法
 48
50.0
100
AcDbDimension
  2
*D34
 10
2413.101915364672
 20
5055.949628022819
 30
0.0
 11
2099.616633990425
 21
5055.949628022819
 31
0.0
 70
   160
 71
     5
 42
50.0
  3
INABA_S40G
100
AcDbAlignedDimension
 13
2463.101915364672
 23
4656.856458683352
 33
0.0
 14
2413.101915364672
 24
4656.856458683349
 34
0.0
100
AcDbRotatedDimension
1001
ACAD
1000
DSTYLE
1002
{
1002
}
  0
DIMENSION
  5
1A820
330
747D
100
AcDbEntity
  8
寸法
 48
50.0
100
AcDbDimension
  2
*D35
 10
7773.101915364673
 20
5272.475727641264
 30
0.0
 11
5093.101915364672
 21
5272.475727641264
 31
0.0
 70
   160
 71
     5
 42
5360.0
  3
INABA_S40G
100
AcDbAlignedDimension
 13
2413.101915364672
 23
4656.856458683349
 33
0.0
 14
7773.101915364673
 24
4656.856458683349
 34
0.0
100
AcDbRotatedDimension
  0
DIMENSION
  5
1A821
330
747D
100
AcDbEntity
  8
寸法
 48
50.0
100
AcDbDimension
  2
*D36
 10
7723.101915364672
 20
5055.949628022819
 30
0.0
 11
8086.587196738909
 21
5055.949628022819
 31
0.0
 70
   160
 71
     5
 42
50.0
  3
INABA_S40G
100
AcDbAlignedDimension
 13
7773.101915364673
 23
4656.856458683349
 33
0.0
 14
7723.101915364672
 24
4656.856458683349
 34
0.0
100
AcDbRotatedDimension
  0
DIMENSION
  5
1A822
330
747D
100
AcDbEntity
  8
寸法
 48
50.0
100
AcDbDimension
  2
*D37
 10
2463.101915364672
 20
5055.949628022819
 30
0.0
 11
5093.101915364672
 21
5055.949628022819
 31
0.0
 70
   160
  1
柱外寸法<>
 71
     5
 42
5260.0
  3
INABA_S40G
100
AcDbAlignedDimension
 13
7723.101915364672
 23
4656.856458683349
 33
0.0
 14
2463.101915364672
 24
4656.856458683352
 34
0.0
100
AcDbRotatedDimension
  0
LINE
  5
1A823
330
747D
100
AcDbEntity
  8
部品1
100
AcDbLine
 10
2518.10191536467
 20
2281.856458683345
 30
0.0
 11
5038.10191536467
 21
2281.856458683345
 31
0.0
  0
LINE
  5
1A824
330
747D
100
AcDbEntity
  8
部品1
100
AcDbLine
 10
2463.101915364669
 20
4515.856458683349
 30
0.0
 11
2463.101915364671
 21
2181.856458683345
 31
0.0
  0
LINE
  5
1A825
330
747D
100
AcDbEntity
  8
部品1
100
AcDbLine
 10
7668.101915364672
 20
4256.856458683347
 30
0.0
 11
7668.10191536467
 21
2181.856458683345
 31
0.0
  0
LINE
  5
1A826
330
747D
100
AcDbEntity
  8
部品1
100
AcDbLine
 10
2518.10191536467
 20
4256.856458683347
 30
0.0
 11
2518.10191536467
 21
2181.856458683345
 31
0.0
  0
LINE
  5
1A827
330
747D
100
AcDbEntity
  8
部品1
100
AcDbLine
 10
7723.10191536467
 20
4515.856458683349
 30
0.0
 11
7723.10191536467
 21
2181.856458683345
 31
0.0
  0
LINE
  5
1A82E
330
747D
100
AcDbEntity
  8
破線
 48
5.0
100
AcDbLine
 10
7723.10191536467
 20
2181.856458683345
 30
0.0
 11
7723.10191536467
 21
1931.856458683345
 31
0.0
  0
LINE
  5
1A82F
330
747D
100
AcDbEntity
  8
破線
 48
5.0
100
AcDbLine
 10
2463.101915364671
 20
2181.856458683345
 30
0.0
 11
2463.101915364669
 21
1931.856458683345
 31
0.0
  0
LINE
  5
1A830
330
747D
100
AcDbEntity
  8
破線
 48
5.0
100
AcDbLine
 10
7668.101915364669
 20
2181.856458683345
 30
0.0
 11
7668.10191536467
 21
1931.856458683345
 31
0.0
  0
LINE
  5
1A831
330
747D
100
AcDbEntity
  8
破線
 48
5.0
100
AcDbLine
 10
2518.10191536467
 20
2181.856458683345
 30
0.0
 11
2518.101915364669
 21
1931.856458683345
 31
0.0
  0
LINE
  5
1A832
330
747D
100
AcDbEntity
  8
破線
 48
5.0
100
AcDbLine
 10
7723.101915364669
 20
1931.856458683345
 30
0.0
 11
7668.10191536467
 21
1931.856458683345
 31
0.0
  0
LINE
  5
1A833
330
747D
100
AcDbEntity
  8
破線
 48
5.0
100
AcDbLine
 10
2518.101915364669
 20
1931.856458683353
 30
0.0
 11
2463.101915364669
 21
1931.856458683353
 31
0.0
  0
LINE
  5
1A834
330
747D
100
AcDbEntity
  8
部品1
100
AcDbLine
 10
2566.10191536467
 20
4256.856458683345
 30
0.0
 11
2566.10191536467
 21
2331.856458683345
 31
0.0
  0
LINE
  5
1A835
330
747D
100
AcDbEntity
  8
部品1
100
AcDbLine
 10
7620.101915364672
 20
4256.856458683347
 30
0.0
 11
7620.101915364667
 21
2331.856458683345
 31
0.0
  0
LINE
  5
1A836
330
747D
100
AcDbEntity
  8
部品1
100
AcDbLine
 10
2463.101915364669
 20
4256.856458683345
 30
0.0
 11
5148.10191536467
 21
4256.856458683345
 31
0.0
  0
LINE
  5
1A837
330
747D
100
AcDbEntity
  8
細線
100
AcDbLine
 10
5196.101915364667
 20
3966.856458683345
 30
0.0
 11
7620.101915364668
 21
3966.856458683345
 31
0.0
  0
LINE
  5
1A838
330
747D
100
AcDbEntity
  8
細線
100
AcDbLine
 10
5196.101915364667
 20
4031.856458683345
 30
0.0
 11
7620.101915364668
 21
4031.856458683345
 31
0.0
  0
LINE
  5
1A839
330
747D
100
AcDbEntity
  8
細線
100
AcDbLine
 10
5196.101915364667
 20
4096.856458683345
 30
0.0
 11
7620.101915364668
 21
4096.856458683345
 31
0.0
  0
LINE
  5
1A83A
330
747D
100
AcDbEntity
  8
細線
100
AcDbLine
 10
5196.101915364667
 20
3576.856458683346
 30
0.0
 11
7620.101915364668
 21
3576.856458683346
 31
0.0
  0
LINE
  5
1A83B
330
747D
100
AcDbEntity
  8
細線
100
AcDbLine
 10
5196.101915364667
 20
3641.856458683346
 30
0.0
 11
7620.101915364668
 21
3641.856458683346
 31
0.0
  0
LINE
  5
1A83C
330
747D
100
AcDbEntity
  8
細線
100
AcDbLine
 10
5196.101915364667
 20
3706.856458683346
 30
0.0
 11
7620.101915364668
 21
3706.856458683346
 31
0.0
  0
LINE
  5
1A83D
330
747D
100
AcDbEntity
  8
細線
100
AcDbLine
 10
5196.101915364667
 20
3771.856458683345
 30
0.0
 11
7620.101915364668
 21
3771.856458683345
 31
0.0
  0
LINE
  5
1A83E
330
747D
100
AcDbEntity
  8
細線
100
AcDbLine
 10
5196.101915364667
 20
3836.856458683346
 30
0.0
 11
7620.101915364668
 21
3836.856458683346
 31
0.0
  0
LINE
  5
1A83F
330
747D
100
AcDbEntity
  8
細線
100
AcDbLine
 10
5196.101915364667
 20
3901.856458683346
 30
0.0
 11
7620.101915364668
 21
3901.856458683346
 31
0.0
  0
LINE
  5
1A840
330
747D
100
AcDbEntity
  8
細線
100
AcDbLine
 10
5196.101915364667
 20
2926.856458683346
 30
0.0
 11
7620.101915364668
 21
2926.856458683346
 31
0.0
  0
LINE
  5
1A841
330
747D
100
AcDbEntity
  8
細線
100
AcDbLine
 10
5196.101915364667
 20
2991.856458683346
 30
0.0
 11
7620.101915364668
 21
2991.856458683346
 31
0.0
  0
LINE
  5
1A842
330
747D
100
AcDbEntity
  8
細線
100
AcDbLine
 10
5196.101915364667
 20
3056.856458683345
 30
0.0
 11
7620.101915364668
 21
3056.856458683345
 31
0.0
  0
LINE
  5
1A843
330
747D
100
AcDbEntity
  8
細線
100
AcDbLine
 10
5196.101915364667
 20
3121.856458683346
 30
0.0
 11
7620.101915364668
 21
3121.856458683346
 31
0.0
  0
LINE
  5
1A844
330
747D
100
AcDbEntity
  8
細線
100
AcDbLine
 10
5196.101915364667
 20
3186.856458683346
 30
0.0
 11
7620.101915364668
 21
3186.856458683346
 31
0.0
  0
LINE
  5
1A845
330
747D
100
AcDbEntity
  8
細線
100
AcDbLine
 10
5196.101915364667
 20
3251.856458683346
 30
0.0
 11
7620.101915364668
 21
3251.856458683346
 31
0.0
  0
LINE
  5
1A846
330
747D
100
AcDbEntity
  8
細線
100
AcDbLine
 10
5196.101915364667
 20
3316.856458683345
 30
0.0
 11
7620.101915364668
 21
3316.856458683345
 31
0.0
  0
LINE
  5
1A847
330
747D
100
AcDbEntity
  8
細線
100
AcDbLine
 10
5196.101915364667
 20
3381.856458683345
 30
0.0
 11
7620.101915364668
 21
3381.856458683345
 31
0.0
  0
LINE
  5
1A848
330
747D
100
AcDbEntity
  8
細線
100
AcDbLine
 10
5196.101915364667
 20
3446.856458683345
 30
0.0
 11
7620.101915364668
 21
3446.856458683345
 31
0.0
  0
LINE
  5
1A849
330
747D
100
AcDbEntity
  8
細線
100
AcDbLine
 10
5196.101915364667
 20
3511.856458683346
 30
0.0
 11
7620.101915364668
 21
3511.856458683346
 31
0.0
  0
LINE
  5
1A84A
330
747D
100
AcDbEntity
  8
細線
100
AcDbLine
 10
5196.101915364667
 20
4226.856458683346
 30
0.0
 11
7620.101915364668
 21
4226.856458683346
 31
0.0
  0
LINE
  5
1A84B
330
747D
100
AcDbEntity
  8
細線
100
AcDbLine
 10
5196.101915364667
 20
4161.856458683345
 30
0.0
 11
7620.101915364668
 21
4161.856458683345
 31
0.0
  0
LINE
  5
1A84C
330
747D
100
AcDbEntity
  8
細線
100
AcDbLine
 10
5196.101915364667
 20
2341.856458683345
 30
0.0
 11
7620.101915364668
 21
2341.856458683345
 31
0.0
  0
LINE
  5
1A84D
330
747D
100
AcDbEntity
  8
細線
100
AcDbLine
 10
5196.101915364667
 20
2406.856458683345
 30
0.0
 11
7620.101915364668
 21
2406.856458683345
 31
0.0
  0
LINE
  5
1A84E
330
747D
100
AcDbEntity
  8
細線
100
AcDbLine
 10
5196.101915364667
 20
2471.856458683346
 30
0.0
 11
7620.101915364668
 21
2471.856458683346
 31
0.0
  0
LINE
  5
1A84F
330
747D
100
AcDbEntity
  8
細線
100
AcDbLine
 10
5196.101915364667
 20
2536.856458683346
 30
0.0
 11
7620.101915364668
 21
2536.856458683346
 31
0.0
  0
LINE
  5
1A850
330
747D
100
AcDbEntity
  8
細線
100
AcDbLine
 10
5196.101915364667
 20
2601.856458683346
 30
0.0
 11
7620.101915364668
 21
2601.856458683346
 31
0.0
  0
LINE
  5
1A851
330
747D
100
AcDbEntity
  8
細線
100
AcDbLine
 10
5196.101915364667
 20
2666.856458683346
 30
0.0
 11
7620.101915364668
 21
2666.856458683346
 31
0.0
  0
LINE
  5
1A852
330
747D
100
AcDbEntity
  8
細線
100
AcDbLine
 10
5196.101915364667
 20
2731.856458683346
 30
0.0
 11
7620.101915364668
 21
2731.856458683346
 31
0.0
  0
LINE
  5
1A853
330
747D
100
AcDbEntity
  8
細線
100
AcDbLine
 10
5196.101915364667
 20
2796.856458683345
 30
0.0
 11
7620.101915364668
 21
2796.856458683345
 31
0.0
  0
LINE
  5
1A854
330
747D
100
AcDbEntity
  8
細線
100
AcDbLine
 10
5196.101915364667
 20
2861.856458683345
 30
0.0
 11
7620.101915364668
 21
2861.856458683345
 31
0.0
  0
LINE
  5
1A855
330
747D
100
AcDbEntity
  8
細線
100
AcDbLine
 10
7620.10191536467
 20
2341.856458683345
 30
0.0
 11
5196.101915364664
 21
2341.856458683345
 31
0.0
  0
CIRCLE
  5
1A859
330
747D
100
AcDbEntity
  8
細線
 48
50.0
100
AcDbCircle
 10
6408.101915364667
 20
3219.356458683345
 30
0.0
 40
18.0
  0
ARC
  5
1A85A
330
747D
100
AcDbEntity
  8
細線
 48
50.0
100
AcDbCircle
 10
6708.101915364668
 20
2894.356458683346
 30
0.0
 40
15.0
100
AcDbArc
 50
270.0
 51
90.0
  0
ARC
  5
1A85B
330
747D
100
AcDbEntity
  8
細線
 48
50.0
100
AcDbCircle
 10
6608.101915364668
 20
2894.356458683346
 30
0.0
 40
15.0
100
AcDbArc
 50
90.0
 51
270.0
  0
LINE
  5
1A85C
330
747D
100
AcDbEntity
  8
細線
 48
50.0
100
AcDbLine
 10
6608.101915364668
 20
2909.356458683346
 30
0.0
 11
6708.101915364668
 21
2909.356458683346
 31
0.0
  0
LINE
  5
1A85D
330
747D
100
AcDbEntity
  8
細線
 48
50.0
100
AcDbLine
 10
6708.101915364668
 20
2879.356458683345
 30
0.0
 11
6608.101915364668
 21
2879.356458683345
 31
0.0
  0
LINE
  5
1A85E
330
747D
100
AcDbEntity
  8
細線
 48
50.0
100
AcDbLine
 10
6208.101915364668
 20
2879.356458683345
 30
0.0
 11
6108.101915364668
 21
2879.356458683345
 31
0.0
  0
LINE
  5
1A85F
330
747D
100
AcDbEntity
  8
細線
 48
50.0
100
AcDbLine
 10
6108.101915364668
 20
2909.356458683346
 30
0.0
 11
6208.101915364668
 21
2909.356458683346
 31
0.0
  0
ARC
  5
1A860
330
747D
100
AcDbEntity
  8
細線
 48
50.0
100
AcDbCircle
 10
6208.101915364668
 20
2894.356458683346
 30
0.0
 40
15.0
100
AcDbArc
 50
270.0
 51
90.0
  0
ARC
  5
1A861
330
747D
100
AcDbEntity
  8
細線
 48
50.0
100
AcDbCircle
 10
6108.101915364668
 20
2894.356458683346
 30
0.0
 40
15.0
100
AcDbArc
 50
90.0
 51
270.0
  0
LINE
  5
1A862
330
747D
100
AcDbEntity
  8
細線
 48
50.0
100
AcDbLine
 10
3478.101915364669
 20
2909.356458683346
 30
0.0
 11
3578.101915364669
 21
2909.356458683346
 31
0.0
  0
LINE
  5
1A863
330
747D
100
AcDbEntity
  8
細線
 48
50.0
100
AcDbLine
 10
3578.101915364669
 20
2879.356458683345
 30
0.0
 11
3478.101915364669
 21
2879.356458683345
 31
0.0
  0
LINE
  5
1A864
330
747D
100
AcDbEntity
  8
細線
100
AcDbLine
 10
2566.101915364667
 20
2861.856458683345
 30
0.0
 11
4990.101915364668
 21
2861.856458683345
 31
0.0
  0
LINE
  5
1A865
330
747D
100
AcDbEntity
  8
細線
100
AcDbLine
 10
2566.101915364667
 20
2796.856458683345
 30
0.0
 11
4990.101915364668
 21
2796.856458683345
 31
0.0
  0
LINE
  5
1A866
330
747D
100
AcDbEntity
  8
細線
100
AcDbLine
 10
2566.101915364667
 20
2731.856458683346
 30
0.0
 11
4990.101915364668
 21
2731.856458683346
 31
0.0
  0
LINE
  5
1A867
330
747D
100
AcDbEntity
  8
細線
100
AcDbLine
 10
2566.101915364667
 20
2666.856458683346
 30
0.0
 11
4990.101915364668
 21
2666.856458683346
 31
0.0
  0
LINE
  5
1A868
330
747D
100
AcDbEntity
  8
細線
100
AcDbLine
 10
2566.101915364667
 20
2601.856458683346
 30
0.0
 11
4990.101915364668
 21
2601.856458683346
 31
0.0
  0
LINE
  5
1A869
330
747D
100
AcDbEntity
  8
細線
100
AcDbLine
 10
2566.101915364667
 20
2536.856458683346
 30
0.0
 11
4990.101915364668
 21
2536.856458683346
 31
0.0
  0
LINE
  5
1A86A
330
747D
100
AcDbEntity
  8
細線
100
AcDbLine
 10
2566.101915364667
 20
2471.856458683346
 30
0.0
 11
4990.101915364668
 21
2471.856458683346
 31
0.0
  0
LINE
  5
1A86B
330
747D
100
AcDbEntity
  8
細線
100
AcDbLine
 10
2566.101915364667
 20
2406.856458683345
 30
0.0
 11
4990.101915364668
 21
2406.856458683345
 31
0.0
  0
LINE
  5
1A86C
330
747D
100
AcDbEntity
  8
細線
100
AcDbLine
 10
2566.101915364667
 20
4161.856458683345
 30
0.0
 11
4990.101915364668
 21
4161.856458683345
 31
0.0
  0
LINE
  5
1A86D
330
747D
100
AcDbEntity
  8
細線
100
AcDbLine
 10
2566.101915364667
 20
4226.856458683346
 30
0.0
 11
4990.101915364668
 21
4226.856458683346
 31
0.0
  0
LINE
  5
1A86E
330
747D
100
AcDbEntity
  8
細線
100
AcDbLine
 10
2566.101915364667
 20
3511.856458683346
 30
0.0
 11
4990.101915364668
 21
3511.856458683346
 31
0.0
  0
LINE
  5
1A86F
330
747D
100
AcDbEntity
  8
細線
100
AcDbLine
 10
2566.101915364667
 20
3446.856458683345
 30
0.0
 11
4990.101915364668
 21
3446.856458683345
 31
0.0
  0
LINE
  5
1A870
330
747D
100
AcDbEntity
  8
細線
100
AcDbLine
 10
2566.101915364667
 20
3381.856458683345
 30
0.0
 11
4990.101915364668
 21
3381.856458683345
 31
0.0
  0
LINE
  5
1A871
330
747D
100
AcDbEntity
  8
細線
100
AcDbLine
 10
2566.101915364667
 20
3316.856458683345
 30
0.0
 11
4990.101915364668
 21
3316.856458683345
 31
0.0
  0
LINE
  5
1A872
330
747D
100
AcDbEntity
  8
細線
100
AcDbLine
 10
2566.101915364667
 20
3251.856458683346
 30
0.0
 11
4990.101915364668
 21
3251.856458683346
 31
0.0
  0
LINE
  5
1A873
330
747D
100
AcDbEntity
  8
細線
100
AcDbLine
 10
2566.101915364667
 20
3186.856458683346
 30
0.0
 11
4990.101915364668
 21
3186.856458683346
 31
0.0
  0
LINE
  5
1A874
330
747D
100
AcDbEntity
  8
細線
100
AcDbLine
 10
2566.101915364667
 20
3121.856458683346
 30
0.0
 11
4990.101915364668
 21
3121.856458683346
 31
0.0
  0
LINE
  5
1A875
330
747D
100
AcDbEntity
  8
細線
100
AcDbLine
 10
2566.101915364667
 20
3056.856458683345
 30
0.0
 11
4990.101915364668
 21
3056.856458683345
 31
0.0
  0
LINE
  5
1A876
330
747D
100
AcDbEntity
  8
細線
100
AcDbLine
 10
2566.101915364667
 20
2991.856458683346
 30
0.0
 11
4990.101915364668
 21
2991.856458683346
 31
0.0
  0
LINE
  5
1A877
330
747D
100
AcDbEntity
  8
細線
100
AcDbLine
 10
2566.101915364667
 20
2926.856458683346
 30
0.0
 11
4990.101915364668
 21
2926.856458683346
 31
0.0
  0
LINE
  5
1A878
330
747D
100
AcDbEntity
  8
細線
100
AcDbLine
 10
2566.101915364667
 20
3901.856458683346
 30
0.0
 11
4990.101915364668
 21
3901.856458683346
 31
0.0
  0
LINE
  5
1A879
330
747D
100
AcDbEntity
  8
細線
100
AcDbLine
 10
2566.101915364667
 20
3836.856458683346
 30
0.0
 11
4990.101915364668
 21
3836.856458683346
 31
0.0
  0
LINE
  5
1A87A
330
747D
100
AcDbEntity
  8
細線
100
AcDbLine
 10
2566.101915364667
 20
3771.856458683345
 30
0.0
 11
4990.101915364668
 21
3771.856458683345
 31
0.0
  0
LINE
  5
1A87B
330
747D
100
AcDbEntity
  8
細線
100
AcDbLine
 10
2566.101915364667
 20
3706.856458683346
 30
0.0
 11
4990.101915364668
 21
3706.856458683346
 31
0.0
  0
LINE
  5
1A87C
330
747D
100
AcDbEntity
  8
細線
100
AcDbLine
 10
2566.101915364667
 20
3641.856458683346
 30
0.0
 11
4990.101915364668
 21
3641.856458683346
 31
0.0
  0
LINE
  5
1A87D
330
747D
100
AcDbEntity
  8
細線
100
AcDbLine
 10
2566.101915364667
 20
3576.856458683346
 30
0.0
 11
4990.101915364668
 21
3576.856458683346
 31
0.0
  0
LINE
  5
1A87E
330
747D
100
AcDbEntity
  8
細線
100
AcDbLine
 10
2566.101915364667
 20
4096.856458683345
 30
0.0
 11
4990.101915364668
 21
4096.856458683345
 31
0.0
  0
LINE
  5
1A87F
330
747D
100
AcDbEntity
  8
細線
100
AcDbLine
 10
2566.101915364667
 20
4031.856458683345
 30
0.0
 11
4990.101915364668
 21
4031.856458683345
 31
0.0
  0
LINE
  5
1A880
330
747D
100
AcDbEntity
  8
細線
100
AcDbLine
 10
2566.101915364667
 20
3966.856458683345
 30
0.0
 11
4990.101915364668
 21
3966.856458683345
 31
0.0
  0
ARC
  5
1A881
330
747D
100
AcDbEntity
  8
細線
 48
50.0
100
AcDbCircle
 10
3478.101915364669
 20
2894.356458683346
 30
0.0
 40
15.0
100
AcDbArc
 50
90.0
 51
270.0
  0
ARC
  5
1A882
330
747D
100
AcDbEntity
  8
細線
 48
50.0
100
AcDbCircle
 10
3578.101915364669
 20
2894.356458683346
 30
0.0
 40
15.0
100
AcDbArc
 50
270.0
 51
90.0
  0
LINE
  5
1A883
330
747D
100
AcDbEntity
  8
細線
 48
50.0
100
AcDbLine
 10
4078.101915364668
 20
2879.356458683345
 30
0.0
 11
3978.101915364669
 21
2879.356458683345
 31
0.0
  0
LINE
  5
1A884
330
747D
100
AcDbEntity
  8
細線
 48
50.0
100
AcDbLine
 10
3978.101915364669
 20
2909.356458683346
 30
0.0
 11
4078.101915364668
 21
2909.356458683346
 31
0.0
  0
ARC
  5
1A885
330
747D
100
AcDbEntity
  8
細線
 48
50.0
100
AcDbCircle
 10
3978.101915364669
 20
2894.356458683346
 30
0.0
 40
15.0
100
AcDbArc
 50
90.0
 51
270.0
  0
ARC
  5
1A886
330
747D
100
AcDbEntity
  8
細線
 48
50.0
100
AcDbCircle
 10
4078.101915364668
 20
2894.356458683346
 30
0.0
 40
15.0
100
AcDbArc
 50
270.0
 51
90.0
  0
CIRCLE
  5
1A887
330
747D
100
AcDbEntity
  8
細線
 48
50.0
100
AcDbCircle
 10
3778.101915364669
 20
3219.356458683345
 30
0.0
 40
18.0
  0
LINE
  5
1A888
330
747D
100
AcDbEntity
  8
部品1
100
AcDbLine
 10
4990.101915364672
 20
4256.856458683347
 30
0.0
 11
4990.101915364672
 21
2331.856458683345
 31
0.0
  0
LINE
  5
1A889
330
747D
100
AcDbEntity
  8
部品1
100
AcDbLine
 10
5038.10191536467
 20
4256.856458683347
 30
0.0
 11
5038.10191536467
 21
2181.856458683345
 31
0.0
  0
LINE
  5
1A88C
330
747D
100
AcDbEntity
  8
部品1
100
AcDbLine
 10
5196.10191536467
 20
4256.856458683345
 30
0.0
 11
5196.10191536467
 21
2331.856458683345
 31
0.0
  0
LINE
  5
1A88E
330
747D
100
AcDbEntity
  8
部品1
100
AcDbLine
 10
5148.10191536467
 20
4256.856458683347
 30
0.0
 11
5148.101915364668
 21
2181.856458683345
 31
0.0
  0
LINE
  5
1A88F
330
747D
100
AcDbEntity
  8
部品1
100
AcDbLine
 10
5148.10191536467
 20
4256.856458683345
 30
0.0
 11
7723.101915364671
 21
4256.856458683345
 31
0.0
  0
LINE
  5
1A893
330
747D
100
AcDbEntity
  8
細線
100
AcDbLine
 10
4990.10191536467
 20
2341.856458683345
 30
0.0
 11
2566.101915364665
 21
2341.856458683345
 31
0.0
  0
LINE
  5
1A894
330
747D
100
AcDbEntity
  8
部品1
100
AcDbLine
 10
2518.10191536467
 20
2331.856458683345
 30
0.0
 11
5038.10191536467
 21
2331.856458683345
 31
0.0
  0
LINE
  5
1A895
330
747D
100
AcDbEntity
  8
部品1
100
AcDbLine
 10
5148.10191536467
 20
2331.856458683345
 30
0.0
 11
7668.10191536467
 21
2331.856458683345
 31
0.0
  0
LINE
  5
1A896
330
747D
100
AcDbEntity
  8
部品1
100
AcDbLine
 10
5148.10191536467
 20
2281.856458683345
 30
0.0
 11
7668.10191536467
 21
2281.856458683345
 31
0.0
  0
MTEXT
  5
1B01E
330
747D
100
AcDbEntity
  8
寸法
 62
     7
 48
50.0
100
AcDbMText
 10
3140.817113437305
 20
9396.903693512832
 30
0.0
 40
96.0
 41
0.0
 71
     5
 72
     1
  1
棚 3段
  7
STYLE1
 73
     1
 44
1.0
1001
ACAD
1000
MTEXTBEGIN
1070
    73
1070
     1
1070
    44
1040
1.0
1070
    74
1070
     0
1000
MTEXTEND
  0
MTEXT
  5
1B1FE
330
747D
100
AcDbEntity
  8
寸法
 62
     7
 48
50.0
100
AcDbMText
 10
4440.817113437304
 20
9396.903693512882
 30
0.0
 40
96.0
 41
0.0
 71
     5
 72
     1
  1
棚 3段
  7
STYLE1
 73
     1
 44
1.0
1001
ACAD
1000
MTEXTBEGIN
1070
    73
1070
     1
1070
    44
1040
1.0
1070
    74
1070
     0
1000
MTEXTEND
  0
MTEXT
  5
1B1FF
330
747D
100
AcDbEntity
  8
寸法
 62
     7
 48
50.0
100
AcDbMText
 10
7070.817113437304
 20
9396.903693512882
 30
0.0
 40
96.0
 41
0.0
 71
     5
 72
     1
  1
棚 3段
  7
STYLE1
 73
     1
 44
1.0
1001
ACAD
1000
MTEXTBEGIN
1070
    73
1070
     1
1070
    44
1040
1.0
1070
    74
1070
     0
1000
MTEXTEND
  0
MTEXT
  5
1B200
330
747D
100
AcDbEntity
  8
寸法
 62
     7
 48
50.0
100
AcDbMText
 10
5770.817113437305
 20
9396.903693512832
 30
0.0
 40
96.0
 41
0.0
 71
     5
 72
     1
  1
棚 3段
  7
STYLE1
 73
     1
 44
1.0
1001
ACAD
1000
MTEXTBEGIN
1070
    73
1070
     1
1070
    44
1040
1.0
1070
    74
1070
     0
1000
MTEXTEND
  0
DIMENSION
  5
1B379
330
747D
100
AcDbEntity
  8
寸法
100
AcDbDimension
  2
*D38
 10
7602.578069103319
 20
8989.059754790531
 30
0.0
 11
7012.587231102954
 21
8989.059754790531
 31
0.0
 70
   160
 71
     5
 42
1273.000000000012
  3
INABA_S40G
100
AcDbAlignedDimension
 13
6421.601915364658
 23
9332.497424545806
 33
0.0
 14
7694.60191536467
 24
9332.497424545799
 34
0.0
100
AcDbRotatedDimension
1001
ACAD
1000
DSTYLE
1002
{
1002
}
  0
DIMENSION
  5
1B39E
330
747D
100
AcDbEntity
  8
寸法
100
AcDbDimension
  2
*D39
 10
6302.578069103348
 20
8989.059754790531
 30
0.0
 11
5666.078069103342
 21
9089.071565814153
 31
0.0
 70
    32
 71
     5
 42
1273.000000000012
  3
INABA_S40G
100
AcDbAlignedDimension
 13
5121.601915364659
 23
9332.497424545701
 33
0.0
 14
6394.601915364671
 24
9332.497424545694
 34
0.0
100
AcDbRotatedDimension
1001
ACAD
1000
DSTYLE
1002
{
1002
}
  0
LINE
  5
1B58D
330
747D
100
AcDbEntity
  8
補助
  6
PHANTOM
 62
   230
 48
50.0
100
AcDbLine
 10
140.0
 20
0.0
 30
0.0
 11
140.0
 21
11409.6
 31
0.0
  0
TEXT
  5
1B5AA
330
747D
100
AcDbEntity
  8
文字
 62
     7
 48
50.0
100
AcDbText
 10
14500.43014411085
 20
483.8967129911414
 30
0.0
 40
160.0
  1
FXN-70HYL-2
  7
STYLE2
100
AcDbText
  0
DIMENSION
  5
1B6E8
330
747D
100
AcDbEntity
  8
寸法
 48
50.0
100
AcDbDimension
  2
*D40
 10
8010.645017686417
 20
4229.856458683344
 30
0.0
 11
7910.645017686416
 21
3286.856458683347
 31
0.0
 70
    32
  1
有効開口部高サ <>
 71
     5
 42
1885.999999999999
  3
INABA_S40G
100
AcDbAlignedDimension
 13
7723.10191536467
 23
2343.856458683346
 33
0.0
 14
7723.101915364671
 24
4229.856458683344
 34
0.0
 50
90.0
100
AcDbRotatedDimension
  0
DIMENSION
  5
1B6E9
330
747D
100
AcDbEntity
  8
寸法
 48
50.0
100
AcDbDimension
  2
*D41
 10
8010.645017686417
 20
4256.856458683345
 30
0.0
 11
8150.814840932783
 21
4257.823658523004
 31
0.0
 70
   160
 71
     5
 42
27.00000000000091
  3
INABA_S40G
100
AcDbAlignedDimension
 13
7723.101915364671
 23
4229.856458683344
 33
0.0
 14
7723.10191536467
 24
4256.856458683345
 34
0.0
 50
90.0
100
AcDbRotatedDimension
1001
ACAD
1000
DSTYLE
1002
{
1070
   279
1070
     2
1002
}
  0
DIMENSION
  5
1B6EA
330
747D
100
AcDbEntity
  8
寸法
 48
50.0
100
AcDbDimension
  2
*D42
 10
8010.645017686417
 20
4421.856458683345
 30
0.0
 11
8010.645017686417
 21
4660.341740057585
 31
0.0
 70
   160
 71
     5
 42
165.0
  3
INABA_S40G
100
AcDbAlignedDimension
 13
7723.10191536467
 23
4256.856458683345
 33
0.0
 14
7723.10191536467
 24
4421.856458683345
 34
0.0
 50
90.0
100
AcDbRotatedDimension
1001
ACAD
1000
DSTYLE
1002
{
1002
}
  0
ARC
  5
1B952
330
747D
100
AcDbEntity
  8
部品1
 48
0.01
100
AcDbCircle
 10
3251.101915364672
 20
4485.856458683343
 30
0.0
 40
2.0
100
AcDbArc
 50
0.0
 51
90.0
  0
ARC
  5
1B953
330
747D
100
AcDbEntity
  8
部品1
 48
0.01
100
AcDbCircle
 10
3075.101915364673
 20
4485.856458683343
 30
0.0
 40
2.0
100
AcDbArc
 50
90.0
 51
180.0
  0
LINE
  5
1B954
330
747D
100
AcDbEntity
  8
細線
100
AcDbLine
 10
3163.101915364669
 20
4458.356458683343
 30
0.0
 11
3237.101915364672
 21
4458.356458683343
 31
0.0
  0
LINE
  5
1B955
330
747D
100
AcDbEntity
  8
細線
100
AcDbLine
 10
3163.101915364672
 20
4481.356458683343
 30
0.0
 11
3089.101915364672
 21
4481.356458683343
 31
0.0
  0
LINE
  5
1B956
330
747D
100
AcDbEntity
  8
細線
100
AcDbLine
 10
3089.101915364672
 20
4458.356458683343
 30
0.0
 11
3163.101915364672
 21
4458.356458683343
 31
0.0
  0
LINE
  5
1B957
330
747D
100
AcDbEntity
  8
細線
100
AcDbLine
 10
3237.101915364672
 20
4481.356458683343
 30
0.0
 11
3163.101915364672
 21
4481.356458683343
 31
0.0
  0
LINE
  5
1B958
330
747D
100
AcDbEntity
  8
細線
100
AcDbLine
 10
3237.101915364672
 20
4458.356458683343
 30
0.0
 11
3237.101915364672
 21
4481.356458683343
 31
0.0
  0
LINE
  5
1B959
330
747D
100
AcDbEntity
  8
細線
100
AcDbLine
 10
3089.101915364672
 20
4481.356458683343
 30
0.0
 11
3089.101915364672
 21
4458.356458683343
 31
0.0
  0
LINE
  5
1B95A
330
747D
100
AcDbEntity
  8
部品1
 48
0.01
100
AcDbLine
 10
3253.101915364668
 20
4454.356458683343
 30
0.0
 11
3253.101915364672
 21
4485.856458683343
 31
0.0
  0
LINE
  5
1B95B
330
747D
100
AcDbEntity
  8
部品1
 48
0.01
100
AcDbLine
 10
3073.101915364672
 20
4485.856458683343
 30
0.0
 11
3073.101915364672
 21
4454.356458683343
 31
0.0
  0
LINE
  5
1B95C
330
747D
100
AcDbEntity
  8
部品1
 48
0.01
100
AcDbLine
 10
3251.101915364672
 20
4487.856458683343
 30
0.0
 11
3075.101915364673
 21
4487.856458683343
 31
0.0
  0
LINE
  5
1B95D
330
747D
100
AcDbEntity
  8
細線
100
AcDbLine
 10
3089.101915364672
 20
4475.356458683343
 30
0.0
 11
3163.101915364672
 21
4475.356458683343
 31
0.0
  0
LINE
  5
1B95E
330
747D
100
AcDbEntity
  8
細線
100
AcDbLine
 10
3089.101915364672
 20
4469.356458683344
 30
0.0
 11
3163.101915364672
 21
4469.356458683344
 31
0.0
  0
LINE
  5
1B95F
330
747D
100
AcDbEntity
  8
細線
100
AcDbLine
 10
3089.101915364669
 20
4463.356458683343
 30
0.0
 11
3163.101915364672
 21
4463.356458683343
 31
0.0
  0
LINE
  5
1B960
330
747D
100
AcDbEntity
  8
細線
100
AcDbLine
 10
3089.101915364672
 20
4475.356458683343
 30
0.0
 11
3158.101915364672
 21
4475.356458683343
 31
0.0
  0
LINE
  5
1B961
330
747D
100
AcDbEntity
  8
細線
100
AcDbLine
 10
3237.101915364668
 20
4475.356458683343
 30
0.0
 11
3163.101915364672
 21
4475.356458683343
 31
0.0
  0
LINE
  5
1B962
330
747D
100
AcDbEntity
  8
細線
100
AcDbLine
 10
3237.101915364668
 20
4463.356458683343
 30
0.0
 11
3163.101915364672
 21
4463.356458683343
 31
0.0
  0
LINE
  5
1B963
330
747D
100
AcDbEntity
  8
細線
100
AcDbLine
 10
3237.101915364668
 20
4469.356458683344
 30
0.0
 11
3163.101915364672
 21
4469.356458683344
 31
0.0
  0
LINE
  5
1B964
330
747D
100
AcDbEntity
  8
細線
100
AcDbLine
 10
3163.101915364672
 20
4481.356458683343
 30
0.0
 11
3163.101915364669
 21
4458.356458683343
 31
0.0
  0
LINE
  5
1B965
330
747D
100
AcDbEntity
  8
細線
100
AcDbLine
 10
4393.101915364672
 20
4481.356458683343
 30
0.0
 11
4393.101915364672
 21
4458.356458683343
 31
0.0
  0
LINE
  5
1B966
330
747D
100
AcDbEntity
  8
細線
100
AcDbLine
 10
4319.101915364671
 20
4469.356458683344
 30
0.0
 11
4393.101915364672
 21
4469.356458683344
 31
0.0
  0
LINE
  5
1B967
330
747D
100
AcDbEntity
  8
細線
100
AcDbLine
 10
4319.101915364671
 20
4463.356458683343
 30
0.0
 11
4393.101915364672
 21
4463.356458683343
 31
0.0
  0
LINE
  5
1B968
330
747D
100
AcDbEntity
  8
細線
100
AcDbLine
 10
4319.101915364671
 20
4475.356458683343
 30
0.0
 11
4393.101915364672
 21
4475.356458683343
 31
0.0
  0
LINE
  5
1B969
330
747D
100
AcDbEntity
  8
細線
100
AcDbLine
 10
4467.101915364672
 20
4475.356458683343
 30
0.0
 11
4398.101915364672
 21
4475.356458683343
 31
0.0
  0
LINE
  5
1B96A
330
747D
100
AcDbEntity
  8
細線
100
AcDbLine
 10
4467.101915364672
 20
4463.356458683343
 30
0.0
 11
4393.101915364672
 21
4463.356458683343
 31
0.0
  0
LINE
  5
1B96B
330
747D
100
AcDbEntity
  8
細線
100
AcDbLine
 10
4467.101915364672
 20
4469.356458683344
 30
0.0
 11
4393.101915364672
 21
4469.356458683344
 31
0.0
  0
LINE
  5
1B96C
330
747D
100
AcDbEntity
  8
細線
100
AcDbLine
 10
4467.101915364672
 20
4475.356458683343
 30
0.0
 11
4393.101915364672
 21
4475.356458683343
 31
0.0
  0
LINE
  5
1B96D
330
747D
100
AcDbEntity
  8
部品1
 48
0.01
100
AcDbLine
 10
4305.101915364672
 20
4487.856458683343
 30
0.0
 11
4481.101915364671
 21
4487.856458683343
 31
0.0
  0
LINE
  5
1B96E
330
747D
100
AcDbEntity
  8
部品1
 48
0.01
100
AcDbLine
 10
4483.101915364672
 20
4485.856458683343
 30
0.0
 11
4483.101915364672
 21
4454.356458683343
 31
0.0
  0
LINE
  5
1B96F
330
747D
100
AcDbEntity
  8
部品1
 48
0.01
100
AcDbLine
 10
4303.101915364672
 20
4454.356458683343
 30
0.0
 11
4303.101915364672
 21
4485.856458683343
 31
0.0
  0
LINE
  5
1B970
330
747D
100
AcDbEntity
  8
細線
100
AcDbLine
 10
4467.101915364672
 20
4481.356458683343
 30
0.0
 11
4467.101915364672
 21
4458.356458683343
 31
0.0
  0
LINE
  5
1B971
330
747D
100
AcDbEntity
  8
細線
100
AcDbLine
 10
4319.101915364671
 20
4458.356458683343
 30
0.0
 11
4319.101915364671
 21
4481.356458683343
 31
0.0
  0
LINE
  5
1B972
330
747D
100
AcDbEntity
  8
細線
100
AcDbLine
 10
4319.101915364671
 20
4481.356458683343
 30
0.0
 11
4393.101915364672
 21
4481.356458683343
 31
0.0
  0
LINE
  5
1B973
330
747D
100
AcDbEntity
  8
細線
100
AcDbLine
 10
4467.101915364672
 20
4458.356458683343
 30
0.0
 11
4393.101915364672
 21
4458.356458683343
 31
0.0
  0
LINE
  5
1B974
330
747D
100
AcDbEntity
  8
細線
100
AcDbLine
 10
4393.101915364672
 20
4481.356458683343
 30
0.0
 11
4467.101915364672
 21
4481.356458683343
 31
0.0
  0
LINE
  5
1B975
330
747D
100
AcDbEntity
  8
細線
100
AcDbLine
 10
4393.101915364672
 20
4458.356458683343
 30
0.0
 11
4319.101915364671
 21
4458.356458683343
 31
0.0
  0
ARC
  5
1B976
330
747D
100
AcDbEntity
  8
部品1
 48
0.01
100
AcDbCircle
 10
4481.101915364671
 20
4485.856458683343
 30
0.0
 40
2.0
100
AcDbArc
 50
0.0
 51
90.0
  0
ARC
  5
1B977
330
747D
100
AcDbEntity
  8
部品1
 48
0.01
100
AcDbCircle
 10
4305.101915364672
 20
4485.856458683343
 30
0.0
 40
2.0
100
AcDbArc
 50
90.0
 51
180.0
  0
ARC
  5
1B978
330
747D
100
AcDbEntity
  8
部品1
 48
0.01
100
AcDbCircle
 10
3251.101915364669
 20
4454.356458683343
 30
0.0
 40
2.0
100
AcDbArc
 50
270.0
 51
0.0
  0
ARC
  5
1B979
330
747D
100
AcDbEntity
  8
部品1
 48
0.01
100
AcDbCircle
 10
3075.101915364673
 20
4454.356458683343
 30
0.0
 40
2.0
100
AcDbArc
 50
180.0
 51
270.0
  0
LINE
  5
1B97A
330
747D
100
AcDbEntity
  8
部品1
 48
0.01
100
AcDbLine
 10
3075.101915364673
 20
4452.356458683343
 30
0.0
 11
3251.101915364669
 21
4452.356458683343
 31
0.0
  0
LINE
  5
1B97B
330
747D
100
AcDbEntity
  8
部品1
 48
0.01
100
AcDbLine
 10
4481.101915364671
 20
4452.356458683343
 30
0.0
 11
4305.101915364672
 21
4452.356458683343
 31
0.0
  0
ARC
  5
1B97C
330
747D
100
AcDbEntity
  8
部品1
 48
0.01
100
AcDbCircle
 10
4481.101915364671
 20
4454.356458683343
 30
0.0
 40
2.0
100
AcDbArc
 50
270.0
 51
0.0
  0
ARC
  5
1B97D
330
747D
100
AcDbEntity
  8
部品1
 48
0.01
100
AcDbCircle
 10
4305.101915364672
 20
4454.356458683343
 30
0.0
 40
2.0
100
AcDbArc
 50
180.0
 51
270.0
  0
ARC
  5
1BA7E
330
747D
100
AcDbEntity
  8
部品1
 48
0.01
100
AcDbCircle
 10
6935.101915364672
 20
4454.356458683343
 30
0.0
 40
2.0
100
AcDbArc
 50
180.0
 51
270.0
  0
ARC
  5
1BA7F
330
747D
100
AcDbEntity
  8
部品1
 48
0.01
100
AcDbCircle
 10
7111.101915364672
 20
4454.356458683343
 30
0.0
 40
2.0
100
AcDbArc
 50
270.0
 51
0.0
  0
LINE
  5
1BA80
330
747D
100
AcDbEntity
  8
部品1
 48
0.01
100
AcDbLine
 10
7111.101915364672
 20
4452.356458683343
 30
0.0
 11
6935.101915364672
 21
4452.356458683343
 31
0.0
  0
LINE
  5
1BA81
330
747D
100
AcDbEntity
  8
部品1
 48
0.01
100
AcDbLine
 10
5705.101915364672
 20
4452.356458683343
 30
0.0
 11
5881.101915364668
 21
4452.356458683343
 31
0.0
  0
ARC
  5
1BA82
330
747D
100
AcDbEntity
  8
部品1
 48
0.01
100
AcDbCircle
 10
5705.101915364672
 20
4454.356458683343
 30
0.0
 40
2.0
100
AcDbArc
 50
180.0
 51
270.0
  0
ARC
  5
1BA83
330
747D
100
AcDbEntity
  8
部品1
 48
0.01
100
AcDbCircle
 10
5881.101915364668
 20
4454.356458683343
 30
0.0
 40
2.0
100
AcDbArc
 50
270.0
 51
0.0
  0
ARC
  5
1BA84
330
747D
100
AcDbEntity
  8
部品1
 48
0.01
100
AcDbCircle
 10
6935.101915364672
 20
4485.856458683343
 30
0.0
 40
2.0
100
AcDbArc
 50
90.0
 51
180.0
  0
ARC
  5
1BA85
330
747D
100
AcDbEntity
  8
部品1
 48
0.01
100
AcDbCircle
 10
7111.101915364672
 20
4485.856458683343
 30
0.0
 40
2.0
100
AcDbArc
 50
0.0
 51
90.0
  0
LINE
  5
1BA86
330
747D
100
AcDbEntity
  8
細線
100
AcDbLine
 10
7023.101915364673
 20
4458.356458683343
 30
0.0
 11
6949.101915364671
 21
4458.356458683343
 31
0.0
  0
LINE
  5
1BA87
330
747D
100
AcDbEntity
  8
細線
100
AcDbLine
 10
7023.101915364673
 20
4481.356458683343
 30
0.0
 11
7097.101915364672
 21
4481.356458683343
 31
0.0
  0
LINE
  5
1BA88
330
747D
100
AcDbEntity
  8
細線
100
AcDbLine
 10
7097.101915364672
 20
4458.356458683343
 30
0.0
 11
7023.101915364673
 21
4458.356458683343
 31
0.0
  0
LINE
  5
1BA89
330
747D
100
AcDbEntity
  8
細線
100
AcDbLine
 10
6949.101915364671
 20
4481.356458683343
 30
0.0
 11
7023.101915364673
 21
4481.356458683343
 31
0.0
  0
LINE
  5
1BA8A
330
747D
100
AcDbEntity
  8
細線
100
AcDbLine
 10
6949.101915364671
 20
4458.356458683343
 30
0.0
 11
6949.101915364671
 21
4481.356458683343
 31
0.0
  0
LINE
  5
1BA8B
330
747D
100
AcDbEntity
  8
細線
100
AcDbLine
 10
7097.101915364672
 20
4481.356458683343
 30
0.0
 11
7097.101915364672
 21
4458.356458683343
 31
0.0
  0
LINE
  5
1BA8C
330
747D
100
AcDbEntity
  8
部品1
 48
0.01
100
AcDbLine
 10
6933.101915364672
 20
4454.356458683343
 30
0.0
 11
6933.101915364672
 21
4485.856458683343
 31
0.0
  0
LINE
  5
1BA8D
330
747D
100
AcDbEntity
  8
部品1
 48
0.01
100
AcDbLine
 10
7113.101915364672
 20
4485.856458683343
 30
0.0
 11
7113.101915364672
 21
4454.356458683343
 31
0.0
  0
LINE
  5
1BA8E
330
747D
100
AcDbEntity
  8
部品1
 48
0.01
100
AcDbLine
 10
6935.101915364672
 20
4487.856458683343
 30
0.0
 11
7111.101915364672
 21
4487.856458683343
 31
0.0
  0
LINE
  5
1BA8F
330
747D
100
AcDbEntity
  8
細線
100
AcDbLine
 10
7097.101915364672
 20
4475.356458683343
 30
0.0
 11
7023.101915364673
 21
4475.356458683343
 31
0.0
  0
LINE
  5
1BA90
330
747D
100
AcDbEntity
  8
細線
100
AcDbLine
 10
7097.101915364672
 20
4469.356458683344
 30
0.0
 11
7023.101915364673
 21
4469.356458683344
 31
0.0
  0
LINE
  5
1BA91
330
747D
100
AcDbEntity
  8
細線
100
AcDbLine
 10
7097.101915364672
 20
4463.356458683343
 30
0.0
 11
7023.101915364673
 21
4463.356458683343
 31
0.0
  0
LINE
  5
1BA92
330
747D
100
AcDbEntity
  8
細線
100
AcDbLine
 10
7097.101915364672
 20
4475.356458683343
 30
0.0
 11
7028.101915364672
 21
4475.356458683343
 31
0.0
  0
LINE
  5
1BA93
330
747D
100
AcDbEntity
  8
細線
100
AcDbLine
 10
6949.101915364671
 20
4475.356458683343
 30
0.0
 11
7023.101915364673
 21
4475.356458683343
 31
0.0
  0
LINE
  5
1BA94
330
747D
100
AcDbEntity
  8
細線
100
AcDbLine
 10
6949.101915364671
 20
4463.356458683343
 30
0.0
 11
7023.101915364673
 21
4463.356458683343
 31
0.0
  0
LINE
  5
1BA95
330
747D
100
AcDbEntity
  8
細線
100
AcDbLine
 10
6949.101915364671
 20
4469.356458683344
 30
0.0
 11
7023.101915364673
 21
4469.356458683344
 31
0.0
  0
LINE
  5
1BA96
330
747D
100
AcDbEntity
  8
細線
100
AcDbLine
 10
7023.101915364673
 20
4481.356458683343
 30
0.0
 11
7023.101915364673
 21
4458.356458683343
 31
0.0
  0
LINE
  5
1BA97
330
747D
100
AcDbEntity
  8
細線
100
AcDbLine
 10
5793.101915364673
 20
4481.356458683343
 30
0.0
 11
5793.101915364669
 21
4458.356458683343
 31
0.0
  0
LINE
  5
1BA98
330
747D
100
AcDbEntity
  8
細線
100
AcDbLine
 10
5867.101915364668
 20
4469.356458683344
 30
0.0
 11
5793.101915364673
 21
4469.356458683344
 31
0.0
  0
LINE
  5
1BA99
330
747D
100
AcDbEntity
  8
細線
100
AcDbLine
 10
5867.101915364668
 20
4463.356458683343
 30
0.0
 11
5793.101915364673
 21
4463.356458683343
 31
0.0
  0
LINE
  5
1BA9A
330
747D
100
AcDbEntity
  8
細線
100
AcDbLine
 10
5867.101915364668
 20
4475.356458683343
 30
0.0
 11
5793.101915364673
 21
4475.356458683343
 31
0.0
  0
LINE
  5
1BA9B
330
747D
100
AcDbEntity
  8
細線
100
AcDbLine
 10
5719.101915364672
 20
4475.356458683343
 30
0.0
 11
5788.101915364672
 21
4475.356458683343
 31
0.0
  0
LINE
  5
1BA9C
330
747D
100
AcDbEntity
  8
細線
100
AcDbLine
 10
5719.101915364668
 20
4463.356458683343
 30
0.0
 11
5793.101915364673
 21
4463.356458683343
 31
0.0
  0
LINE
  5
1BA9D
330
747D
100
AcDbEntity
  8
細線
100
AcDbLine
 10
5719.101915364672
 20
4469.356458683344
 30
0.0
 11
5793.101915364673
 21
4469.356458683344
 31
0.0
  0
LINE
  5
1BA9E
330
747D
100
AcDbEntity
  8
細線
100
AcDbLine
 10
5719.101915364672
 20
4475.356458683343
 30
0.0
 11
5793.101915364673
 21
4475.356458683343
 31
0.0
  0
LINE
  5
1BA9F
330
747D
100
AcDbEntity
  8
部品1
 48
0.01
100
AcDbLine
 10
5881.101915364673
 20
4487.856458683343
 30
0.0
 11
5705.101915364672
 21
4487.856458683343
 31
0.0
  0
LINE
  5
1BAA0
330
747D
100
AcDbEntity
  8
部品1
 48
0.01
100
AcDbLine
 10
5703.101915364673
 20
4485.856458683343
 30
0.0
 11
5703.101915364673
 21
4454.356458683343
 31
0.0
  0
LINE
  5
1BAA1
330
747D
100
AcDbEntity
  8
部品1
 48
0.01
100
AcDbLine
 10
5883.101915364669
 20
4454.356458683343
 30
0.0
 11
5883.101915364672
 21
4485.856458683343
 31
0.0
  0
LINE
  5
1BAA2
330
747D
100
AcDbEntity
  8
細線
100
AcDbLine
 10
5719.101915364672
 20
4481.356458683343
 30
0.0
 11
5719.101915364672
 21
4458.356458683343
 31
0.0
  0
LINE
  5
1BAA3
330
747D
100
AcDbEntity
  8
細線
100
AcDbLine
 10
5867.101915364672
 20
4458.356458683343
 30
0.0
 11
5867.101915364672
 21
4481.356458683343
 31
0.0
  0
LINE
  5
1BAA4
330
747D
100
AcDbEntity
  8
細線
100
AcDbLine
 10
5867.101915364672
 20
4481.356458683343
 30
0.0
 11
5793.101915364673
 21
4481.356458683343
 31
0.0
  0
LINE
  5
1BAA5
330
747D
100
AcDbEntity
  8
細線
100
AcDbLine
 10
5719.101915364672
 20
4458.356458683343
 30
0.0
 11
5793.101915364673
 21
4458.356458683343
 31
0.0
  0
LINE
  5
1BAA6
330
747D
100
AcDbEntity
  8
細線
100
AcDbLine
 10
5793.101915364673
 20
4481.356458683343
 30
0.0
 11
5719.101915364672
 21
4481.356458683343
 31
0.0
  0
LINE
  5
1BAA7
330
747D
100
AcDbEntity
  8
細線
100
AcDbLine
 10
5793.101915364669
 20
4458.356458683343
 30
0.0
 11
5867.101915364672
 21
4458.356458683343
 31
0.0
  0
ARC
  5
1BAA8
330
747D
100
AcDbEntity
  8
部品1
 48
0.01
100
AcDbCircle
 10
5705.101915364672
 20
4485.856458683343
 30
0.0
 40
2.0
100
AcDbArc
 50
90.0
 51
180.0
  0
ARC
  5
1BAA9
330
747D
100
AcDbEntity
  8
部品1
 48
0.01
100
AcDbCircle
 10
5881.101915364673
 20
4485.856458683343
 30
0.0
 40
2.0
100
AcDbArc
 50
0.0
 51
90.0
  0
TEXT
  5
1BAC8
330
747D
100
AcDbEntity
  8
文字
 62
     7
 48
50.0
100
AcDbText
 10
15022.63965474517
 20
9740.013745883725
 30
0.0
 40
100.0
  1
F12            1.2
  7
STYLE1
100
AcDbText
  0
TEXT
  5
1BAE2
330
747D
100
AcDbEntity
  8
文字
 62
     7
 48
50.0
100
AcDbText
 10
14646.46056207479
 20
871.9640646083623
 30
0.0
 40
100.0
  1
～一般型～
  7
STYLE2
100
AcDbText
  0
TEXT
  5
1BB01
330
747D
100
AcDbEntity
  8
文字
 62
     7
 48
50.0
100
AcDbText
 10
15022.63965474516
 20
9060.013745883727
 30
0.0
 40
100.0
  1
F12            0.7
  7
STYLE1
100
AcDbText
  0
LINE
  5
1BB4C
330
747D
100
AcDbEntity
  8
破線
  6
HIDDEN
 48
5.0
100
AcDbLine
 10
5038.101915364673
 20
2181.856458683348
 30
0.0
 11
5038.101915364674
 21
2006.856458683348
 31
0.0
  0
LINE
  5
1BB4D
330
747D
100
AcDbEntity
  8
破線
  6
HIDDEN
 48
5.0
100
AcDbLine
 10
5148.101915364672
 20
2006.856458683348
 30
0.0
 11
5038.101915364673
 21
2006.856458683348
 31
0.0
  0
LINE
  5
1BB4E
330
747D
100
AcDbEntity
  8
破線
  6
HIDDEN
 48
5.0
100
AcDbLine
 10
5148.101915364674
 20
2181.856458683348
 30
0.0
 11
5148.101915364673
 21
2006.856458683348
 31
0.0
  0
LINE
  5
1BB4F
330
747D
100
AcDbEntity
  8
破線
 48
5.0
100
AcDbLine
 10
5093.101915364673
 20
2006.856458683348
 30
0.0
 11
5093.101915364673
 21
1931.856458683348
 31
0.0
  0
ENDSEC
  0
SECTION
  2
OBJECTS
  0
DICTIONARY
  5
7471
330
0
100
AcDbDictionary
281
     1
  3
ACAD_COLOR
350
1A18A
  3
ACAD_GROUP
350
7472
  3
ACAD_LAYOUT
350
1A18B
  3
ACAD_MATERIAL
350
1A189
  3
ACAD_MLINESTYLE
350
7473
  3
ACAD_PLOTSETTINGS
350
1A18C
  3
ACAD_PLOTSTYLENAME
350
1A187
  3
ACDBHEADERROUNDTRIPXREC
350
1BB7B
  3
AcDbVariableDictionary
350
1BB77
  3
CONTENTDICTIONARY
350
E71C
  3
DRAWINGVARIABLESDICT
350
F3B9
  0
DICTIONARY
  5
1A48B
330
7467
100
AcDbDictionary
280
     1
281
     1
  3
ACAD_LAYERSTATES
360
1A48C
  0
DICTIONARY
  5
1A18A
102
{ACAD_REACTORS
330
7471
102
}
330
7471
100
AcDbDictionary
281
     1
  0
DICTIONARY
  5
7472
102
{ACAD_REACTORS
330
7471
102
}
330
7471
100
AcDbDictionary
281
     1
  0
DICTIONARY
  5
1A18B
102
{ACAD_REACTORS
330
7471
102
}
330
7471
100
AcDbDictionary
281
     1
  3
Model
350
1A18D
  3
レイアウト1
350
1A18E
  0
DICTIONARY
  5
1A189
102
{ACAD_REACTORS
330
7471
102
}
330
7471
100
AcDbDictionary
281
     1
  0
DICTIONARY
  5
7473
102
{ACAD_REACTORS
330
7471
102
}
330
7471
100
AcDbDictionary
281
     1
  3
STANDARD
350
7480
  0
DICTIONARY
  5
1A18C
102
{ACAD_REACTORS
330
7471
102
}
330
7471
100
AcDbDictionary
281
     1
  0
ACDBDICTIONARYWDFLT
  5
1A187
102
{ACAD_REACTORS
330
7471
102
}
330
7471
100
AcDbDictionary
281
     1
  3
Normal
350
1A188
100
AcDbDictionaryWithDefault
340
1A188
  0
DICTIONARY
  5
1BB7B
102
{ACAD_REACTORS
330
7471
102
}
330
7471
100
AcDbDictionary
281
     1
  3
COLORDICT
350
1BB7D
  3
MATERIALDICT
350
1BB7C
  0
DICTIONARY
  5
1BB77
102
{ACAD_REACTORS
330
7471
102
}
330
7471
100
AcDbDictionary
281
     1
  3
DIMASSOC
350
1BB78
  3
PROJECTNAME
350
1BB79
  0
DICTIONARY
  5
E71C
102
{ACAD_REACTORS
330
7471
102
}
330
7471
100
AcDbDictionary
281
     1
  0
DICTIONARY
  5
F3B9
102
{ACAD_REACTORS
330
7471
102
}
330
7471
100
AcDbDictionary
281
     1
1001
DRAWINGVARIABLESXDATA
1000
POLARMODE
1000
1
  0
DICTIONARY
  5
1A48C
102
{ACAD_REACTORS
330
1A48B
102
}
330
1A48B
100
AcDbDictionary
281
     1
  0
LAYOUT
  5
1A18D
102
{ACAD_XDICTIONARY
360
1BB7E
102
}
102
{ACAD_REACTORS
330
1A18B
102
}
330
1A18B
100
AcDbPlotSettings
  1

  2
none_device
  4
Letter_(8.50_x_11.00_Inches)
  6

 40
6.349999904632568
 41
6.349999904632568
 42
6.350006103515625
 43
6.350006103515625
 44
215.8999938964844
 45
279.3999938964844
 46
0.0
 47
0.0
 48
0.0
 49
0.0
140
0.0
141
0.0
142
1.0
143
1.0
 70
 11952
 72
     1
 73
     1
 74
     0
  7
inaba.ctb
 75
     0
147
1.0
148
-2464.885871831639
149
54.00225262481853
100
AcDbLayout
  1
Model
 70
     1
 71
     0
 10
0.0
 20
0.0
 11
12.0
 21
9.0
 12
0.0
 22
0.0
 32
0.0
 14
0.0
 24
0.0
 34
0.0
 15
0.0
 25
0.0
 35
0.0
146
0.0
 13
0.0
 23
0.0
 33
0.0
 16
1.0
 26
0.0
 36
0.0
 17
0.0
 27
1.0
 37
0.0
 76
     0
330
747D
  0
LAYOUT
  5
1A18E
102
{ACAD_XDICTIONARY
360
1BB80
102
}
102
{ACAD_REACTORS
330
1A18B
102
}
330
1A18B
100
AcDbPlotSettings
  1

  2
EPSON LP-8300
  4

  6

 40
0.0
 41
0.0
 42
0.0
 43
0.0
 44
0.0
 45
0.0
 46
0.0
 47
0.0
 48
0.0
 49
0.0
140
0.0
141
0.0
142
1.0
143
1.0
 70
   688
 72
     0
 73
     0
 74
     5
  7
inaba.ctb
 75
    16
147
1.0
148
0.0
149
0.0
100
AcDbLayout
  1
レイアウト1
 70
     0
 71
     1
 10
0.0
 20
0.0
 11
420.0
 21
297.0
 12
0.0
 22
0.0
 32
0.0
 14
1.000000000000000E+20
 24
1.000000000000000E+20
 34
1.000000000000000E+20
 15
-1.000000000000000E+20
 25
-1.000000000000000E+20
 35
-1.000000000000000E+20
146
0.0
 13
0.0
 23
0.0
 33
0.0
 16
1.0
 26
0.0
 36
0.0
 17
0.0
 27
1.0
 37
0.0
 76
     0
330
747A
  0
MLINESTYLE
  5
7480
102
{ACAD_REACTORS
330
7473
102
}
330
7473
100
AcDbMlineStyle
  2
STANDARD
 70
     0
  3

 62
     0
 51
90.0
 52
90.0
 71
     2
 49
0.5
 62
   256
  6
BYLAYER
 49
-0.5
 62
   256
  6
BYLAYER
  0
ACDBPLACEHOLDER
  5
1A188
102
{ACAD_REACTORS
330
1A187
102
}
330
1A187
  0
XRECORD
  5
1BB7D
102
{ACAD_REACTORS
330
1BB7B
102
}
330
1BB7B
100
AcDbXrecord
280
     1
340
1A18A
  0
XRECORD
  5
1BB7C
102
{ACAD_REACTORS
330
1BB7B
102
}
330
1BB7B
100
AcDbXrecord
280
     1
340
1A189
  0
DICTIONARYVAR
  5
1BB78
102
{ACAD_REACTORS
330
1BB77
102
}
330
1BB77
100
DictionaryVariables
280
     0
  1
1
  0
DICTIONARYVAR
  5
1BB79
102
{ACAD_REACTORS
330
1BB77
102
}
330
1BB77
100
DictionaryVariables
280
     0
  1

  0
DICTIONARY
  5
1BB7E
330
1A18D
100
AcDbDictionary
280
     1
281
     1
  3
ACAD_XREC_ROUNDTRIP
360
1BB7F
  0
DICTIONARY
  5
1BB80
330
1A18E
100
AcDbDictionary
280
     1
281
     1
  3
ACAD_XREC_ROUNDTRIP
360
1BB81
  0
XRECORD
  5
1BB7F
102
{ACAD_REACTORS
330
1BB7E
102
}
330
1BB7E
100
AcDbXrecord
280
     1
102
SHADEPLOT
 70
     0
102
SHADEPLOTRESLEVEL
 70
     2
102
SHADEPLOTCUSTOMDPI
 70
   300
  0
XRECORD
  5
1BB81
102
{ACAD_REACTORS
330
1BB80
102
}
330
1BB80
100
AcDbXrecord
280
     1
102
SHADEPLOT
 70
     0
102
SHADEPLOTRESLEVEL
 70
     2
102
SHADEPLOTCUSTOMDPI
 70
   300
  0
ENDSEC
  0
EOF
