  0
SECTION
  2
HEADER
  9
$ACADVER
  1
AC1015
  9
$ACADMAINTVER
 70
    20
  9
$DWGCODEPAGE
  3
ANSI_932
  9
$INSBASE
 10
0.0
 20
0.0
 30
0.0
  9
$EXTMIN
 10
139.9999999999995
 20
-0.0000000000000909
 30
0.0
  9
$EXTMAX
 10
16307.2
 20
11409.6
 30
0.0
  9
$LIMMIN
 10
-183.0179068595971
 20
-160.3342785227505
  9
$LIMMAX
 10
16374.07536659319
 20
11592.19044584975
  9
$ORTHOMODE
 70
     0
  9
$REGENMODE
 70
     1
  9
$FILLMODE
 70
     1
  9
$QTEXTMODE
 70
     0
  9
$MIRRTEXT
 70
     1
  9
$LTSCALE
 40
20.0
  9
$ATTMODE
 70
     1
  9
$TEXTSIZE
 40
100.0
  9
$TRACEWID
 40
1.0
  9
$TEXTSTYLE
  7
STYLE2
  9
$CLAYER
  8
部品1
  9
$CELTYPE
  6
BYLAYER
  9
$CECOLOR
 62
   256
  9
$CELTSCALE
 40
50.0
  9
$DISPSILH
 70
     0
  9
$DIMSCALE
 40
40.0
  9
$DIMASZ
 40
2.5
  9
$DIMEXO
 40
0.5
  9
$DIMDLI
 40
7.0
  9
$DIMRND
 40
0.0
  9
$DIMDLE
 40
0.0
  9
$DIMEXE
 40
1.5
  9
$DIMTP
 40
0.0
  9
$DIMTM
 40
0.0
  9
$DIMTXT
 40
3.0
  9
$DIMCEN
 40
0.0
  9
$DIMTSZ
 40
0.0
  9
$DIMTOL
 70
     0
  9
$DIMLIM
 70
     0
  9
$DIMTIH
 70
     0
  9
$DIMTOH
 70
     0
  9
$DIMSE1
 70
     0
  9
$DIMSE2
 70
     0
  9
$DIMTAD
 70
     3
  9
$DIMZIN
 70
     8
  9
$DIMBLK
  1

  9
$DIMASO
 70
     1
  9
$DIMSHO
 70
     1
  9
$DIMPOST
  1

  9
$DIMAPOST
  1

  9
$DIMALT
 70
     0
  9
$DIMALTD
 70
     2
  9
$DIMALTF
 40
0.0394
  9
$DIMLFAC
 40
1.0
  9
$DIMTOFL
 70
     1
  9
$DIMTVP
 40
0.0
  9
$DIMTIX
 70
     1
  9
$DIMSOXD
 70
     0
  9
$DIMSAH
 70
     1
  9
$DIMBLK1
  1
DOTSMALL
  9
$DIMBLK2
  1
DOTSMALL
  9
$DIMSTYLE
  2
INABA_S40G
  9
$DIMCLRD
 70
     0
  9
$DIMCLRE
 70
     0
  9
$DIMCLRT
 70
     7
  9
$DIMTFAC
 40
1.0
  9
$DIMGAP
 40
1.0
  9
$DIMJUST
 70
     0
  9
$DIMSD1
 70
     0
  9
$DIMSD2
 70
     0
  9
$DIMTOLJ
 70
     1
  9
$DIMTZIN
 70
     0
  9
$DIMALTZ
 70
     0
  9
$DIMALTTZ
 70
     0
  9
$DIMUPT
 70
     0
  9
$DIMDEC
 70
     1
  9
$DIMTDEC
 70
     4
  9
$DIMALTU
 70
     2
  9
$DIMALTTD
 70
     2
  9
$DIMTXSTY
  7
STYLE1
  9
$DIMAUNIT
 70
     0
  9
$DIMADEC
 70
     0
  9
$DIMALTRND
 40
0.0
  9
$DIMAZIN
 70
     0
  9
$DIMDSEP
 70
    46
  9
$DIMATFIT
 70
     3
  9
$DIMFRAC
 70
     0
  9
$DIMLDRBLK
  1

  9
$DIMLUNIT
 70
     2
  9
$DIMLWD
 70
    -2
  9
$DIMLWE
 70
    -2
  9
$DIMTMOVE
 70
     2
  9
$LUNITS
 70
     2
  9
$LUPREC
 70
     1
  9
$SKETCHINC
 40
1.0
  9
$FILLETRAD
 40
3.0
  9
$AUNITS
 70
     0
  9
$AUPREC
 70
     0
  9
$MENU
  1
acad
  9
$ELEVATION
 40
0.0
  9
$PELEVATION
 40
0.0
  9
$THICKNESS
 40
0.0
  9
$LIMCHECK
 70
     0
  9
$CHAMFERA
 40
0.0
  9
$CHAMFERB
 40
0.0
  9
$CHAMFERC
 40
0.0
  9
$CHAMFERD
 40
0.0
  9
$SKPOLY
 70
     0
  9
$TDCREATE
 40
2451368.612993866
  9
$TDUCREATE
 40
2451368.237993866
  9
$TDUPDATE
 40
2455569.631605359
  9
$TDUUPDATE
 40
2455569.256605359
  9
$TDINDWG
 40
0.7765275347
  9
$TDUSRTIMER
 40
0.7765275347
  9
$USRTIMER
 70
     1
  9
$ANGBASE
 50
0.0
  9
$ANGDIR
 70
     0
  9
$PDMODE
 70
     3
  9
$PDSIZE
 40
2.0
  9
$PLINEWID
 40
0.0
  9
$SPLFRAME
 70
     0
  9
$SPLINETYPE
 70
     6
  9
$SPLINESEGS
 70
     8
  9
$HANDSEED
  5
195EF
  9
$SURFTAB1
 70
     6
  9
$SURFTAB2
 70
     6
  9
$SURFTYPE
 70
     6
  9
$SURFU
 70
     6
  9
$SURFV
 70
     6
  9
$UCSBASE
  2

  9
$UCSNAME
  2

  9
$UCSORG
 10
0.0
 20
0.0
 30
0.0
  9
$UCSXDIR
 10
1.0
 20
0.0
 30
0.0
  9
$UCSYDIR
 10
0.0
 20
1.0
 30
0.0
  9
$UCSORTHOREF
  2

  9
$UCSORTHOVIEW
 70
     0
  9
$UCSORGTOP
 10
0.0
 20
0.0
 30
0.0
  9
$UCSORGBOTTOM
 10
0.0
 20
0.0
 30
0.0
  9
$UCSORGLEFT
 10
0.0
 20
0.0
 30
0.0
  9
$UCSORGRIGHT
 10
0.0
 20
0.0
 30
0.0
  9
$UCSORGFRONT
 10
0.0
 20
0.0
 30
0.0
  9
$UCSORGBACK
 10
0.0
 20
0.0
 30
0.0
  9
$PUCSBASE
  2

  9
$PUCSNAME
  2

  9
$PUCSORG
 10
0.0
 20
0.0
 30
0.0
  9
$PUCSXDIR
 10
1.0
 20
0.0
 30
0.0
  9
$PUCSYDIR
 10
0.0
 20
1.0
 30
0.0
  9
$PUCSORTHOREF
  2

  9
$PUCSORTHOVIEW
 70
     0
  9
$PUCSORGTOP
 10
0.0
 20
0.0
 30
0.0
  9
$PUCSORGBOTTOM
 10
0.0
 20
0.0
 30
0.0
  9
$PUCSORGLEFT
 10
0.0
 20
0.0
 30
0.0
  9
$PUCSORGRIGHT
 10
0.0
 20
0.0
 30
0.0
  9
$PUCSORGFRONT
 10
0.0
 20
0.0
 30
0.0
  9
$PUCSORGBACK
 10
0.0
 20
0.0
 30
0.0
  9
$USERI1
 70
     0
  9
$USERI2
 70
     0
  9
$USERI3
 70
     0
  9
$USERI4
 70
     0
  9
$USERI5
 70
     0
  9
$USERR1
 40
0.0
  9
$USERR2
 40
0.0
  9
$USERR3
 40
0.0
  9
$USERR4
 40
0.0
  9
$USERR5
 40
0.0
  9
$WORLDVIEW
 70
     1
  9
$SHADEDGE
 70
     3
  9
$SHADEDIF
 70
    70
  9
$TILEMODE
 70
     1
  9
$MAXACTVP
 70
    16
  9
$PINSBASE
 10
0.0
 20
0.0
 30
0.0
  9
$PLIMCHECK
 70
     0
  9
$PEXTMIN
 10
1.000000000000000E+20
 20
1.000000000000000E+20
 30
1.000000000000000E+20
  9
$PEXTMAX
 10
-1.000000000000000E+20
 20
-1.000000000000000E+20
 30
-1.000000000000000E+20
  9
$PLIMMIN
 10
0.0
 20
0.0
  9
$PLIMMAX
 10
420.0
 20
297.0
  9
$UNITMODE
 70
     0
  9
$VISRETAIN
 70
     0
  9
$PLINEGEN
 70
     0
  9
$PSLTSCALE
 70
     0
  9
$TREEDEPTH
 70
  3020
  9
$CMLSTYLE
  2
STANDARD
  9
$CMLJUST
 70
     0
  9
$CMLSCALE
 40
1.0
  9
$PROXYGRAPHICS
 70
     1
  9
$MEASUREMENT
 70
     1
  9
$CELWEIGHT
370
    -1
  9
$ENDCAPS
280
     0
  9
$JOINSTYLE
280
     0
  9
$LWDISPLAY
290
     0
  9
$INSUNITS
 70
     0
  9
$HYPERLINKBASE
  1

  9
$STYLESHEET
  1
inaba.ctb
  9
$XEDIT
290
     1
  9
$CEPSNTYPE
380
     0
  9
$PSTYLEMODE
290
     1
  9
$FINGERPRINTGUID
  2
{865ABAB6-D67D-42E7-B3ED-F27A25B33646}
  9
$VERSIONGUID
  2
{CEA4FC3F-BE87-4ADD-B936-3550E8E2A864}
  9
$EXTNAMES
290
     1
  9
$PSVPSCALE
 40
0.0
  9
$OLESTARTUP
290
     0
  0
ENDSEC
  0
SECTION
  2
CLASSES
  0
CLASS
  1
ACDBDICTIONARYWDFLT
  2
AcDbDictionaryWithDefault
  3
ObjectDBX Classes
 90
        0
280
     0
281
     0
  0
CLASS
  1
DICTIONARYVAR
  2
AcDbDictionaryVar
  3
ObjectDBX Classes
 90
        0
280
     0
281
     0
  0
CLASS
  1
ACDBPLACEHOLDER
  2
AcDbPlaceHolder
  3
ObjectDBX Classes
 90
        0
280
     0
281
     0
  0
CLASS
  1
LAYOUT
  2
AcDbLayout
  3
ObjectDBX Classes
 90
        0
280
     0
281
     0
  0
ENDSEC
  0
SECTION
  2
TABLES
  0
TABLE
  2
VPORT
  5
746D
330
0
100
AcDbSymbolTable
 70
     2
  0
VPORT
  5
195E7
330
746D
100
AcDbSymbolTableRecord
100
AcDbViewportTableRecord
  2
*Active
 70
     0
 10
0.0
 20
0.0
 11
1.0
 21
1.0
 12
8807.280611575228
 22
5704.608037261908
 13
0.0
 23
0.0
 14
10.0
 24
10.0
 15
10.0
 25
10.0
 16
0.0
 26
0.0
 36
1.0
 17
0.0
 27
0.0
 37
0.0
 40
11495.08541324274
 41
1.627450980392156
 42
50.0
 43
0.0
 44
0.0
 50
0.0
 51
0.0
 71
     0
 72
     0
 73
     1
 74
     0
 75
     0
 76
     0
 77
     0
 78
     0
281
     0
 65
     1
110
0.0
120
0.0
130
0.0
111
1.0
121
0.0
131
0.0
112
0.0
122
1.0
132
0.0
 79
     0
146
0.0
  0
ENDTAB
  0
TABLE
  2
LTYPE
  5
746A
330
0
100
AcDbSymbolTable
 70
     3
  0
LTYPE
  5
7477
330
746A
100
AcDbSymbolTableRecord
100
AcDbLinetypeTableRecord
  2
BYBLOCK
 70
     0
  3

 72
    65
 73
     0
 40
0.0
  0
LTYPE
  5
7478
330
746A
100
AcDbSymbolTableRecord
100
AcDbLinetypeTableRecord
  2
BYLAYER
 70
     0
  3

 72
    65
 73
     0
 40
0.0
  0
LTYPE
  5
7479
330
746A
100
AcDbSymbolTableRecord
100
AcDbLinetypeTableRecord
  2
CONTINUOUS
 70
     0
  3
Solid line
 72
    65
 73
     0
 40
0.0
  0
LTYPE
  5
781A
330
746A
100
AcDbSymbolTableRecord
100
AcDbLinetypeTableRecord
  2
HIDDEN
 70
     0
  3
__ __ __ __ __ __ __ __ __ __ __ __ __ __ __ __
 72
    65
 73
     2
 40
0.375
 49
0.25
 74
     0
 49
-0.125
 74
     0
  0
LTYPE
  5
781B
330
746A
100
AcDbSymbolTableRecord
100
AcDbLinetypeTableRecord
  2
PHANTOM
 70
     0
  3
______  __  __  ______  __  __  ______  __  __ 
 72
    65
 73
     6
 40
2.5
 49
1.25
 74
     0
 49
-0.25
 74
     0
 49
0.25
 74
     0
 49
-0.25
 74
     0
 49
0.25
 74
     0
 49
-0.25
 74
     0
  0
ENDTAB
  0
TABLE
  2
LAYER
  5
7467
102
{ACAD_XDICTIONARY
360
17636
102
}
330
0
100
AcDbSymbolTable
 70
    10
  0
LAYER
  5
7474
330
7467
100
AcDbSymbolTableRecord
100
AcDbLayerTableRecord
  2
0
 70
     0
 62
     7
  6
CONTINUOUS
370
    -3
390
17231
  0
LAYER
  5
DEB3
330
7467
100
AcDbSymbolTableRecord
100
AcDbLayerTableRecord
  2
寸法
 70
     0
 62
     4
  6
CONTINUOUS
370
    -3
390
17231
  0
LAYER
  5
DEB4
330
7467
100
AcDbSymbolTableRecord
100
AcDbLayerTableRecord
  2
部品1
 70
     0
 62
     7
  6
CONTINUOUS
370
    -3
390
17231
  0
LAYER
  5
DEB5
330
7467
100
AcDbSymbolTableRecord
100
AcDbLayerTableRecord
  2
補助
 70
     0
 62
    -1
  6
CONTINUOUS
370
    -3
390
17231
  0
LAYER
  5
DEB6
330
7467
100
AcDbSymbolTableRecord
100
AcDbLayerTableRecord
  2
文字
 70
     0
 62
     7
  6
CONTINUOUS
370
    -3
390
17231
  0
LAYER
  5
F255
330
7467
100
AcDbSymbolTableRecord
100
AcDbLayerTableRecord
  2
DEFPOINTS
 70
     0
 62
     7
  6
CONTINUOUS
290
     0
370
    -3
390
17231
  0
LAYER
  5
10B54
330
7467
100
AcDbSymbolTableRecord
100
AcDbLayerTableRecord
  2
仕様書枠
 70
     0
 62
   230
  6
CONTINUOUS
370
    -3
390
17231
  0
LAYER
  5
11729
330
7467
100
AcDbSymbolTableRecord
100
AcDbLayerTableRecord
  2
Ｇ．Ｌ
 70
     0
 62
    30
  6
CONTINUOUS
370
    -3
390
17231
  0
LAYER
  5
1173F
330
7467
100
AcDbSymbolTableRecord
100
AcDbLayerTableRecord
  2
細線
 70
     0
 62
     5
  6
CONTINUOUS
370
    -3
390
17231
  0
LAYER
  5
142E2
330
7467
100
AcDbSymbolTableRecord
100
AcDbLayerTableRecord
  2
破線
 70
     0
 62
     2
  6
HIDDEN
370
    -3
390
17231
  0
ENDTAB
  0
TABLE
  2
STYLE
  5
7468
330
0
100
AcDbSymbolTable
 70
     4
  0
STYLE
  5
7475
330
7468
100
AcDbSymbolTableRecord
100
AcDbTextStyleTableRecord
  2
STANDARD
 70
     0
 40
0.0
 41
1.0
 50
0.0
 71
     0
 42
4.0
  3
txt
  4
C:\AutoCAD LT\bigfont.shx
  0
STYLE
  5
763C
330
7468
100
AcDbSymbolTableRecord
100
AcDbTextStyleTableRecord
  2
MSMINCHO
 70
     0
 40
0.0
 41
1.0
 50
0.0
 71
     0
 42
1.199999999999999
  3
C:\AutoCAD LT\msminch2.TTF
  4

  0
STYLE
  5
F706
330
7468
100
AcDbSymbolTableRecord
100
AcDbTextStyleTableRecord
  2
STYLE1
 70
     0
 40
0.0
 41
1.0
 50
0.0
 71
     0
 42
4.0
  3
isocp.shx
  4
bigfont.shx
  0
STYLE
  5
103BF
330
7468
100
AcDbSymbolTableRecord
100
AcDbTextStyleTableRecord
  2
STYLE2
 70
     0
 40
0.0
 41
1.0
 50
0.0
 71
     0
 42
100.0
  3
MS PGothic.ttf
  4

1001
ACAD
1000
MS PGothic
1071
    32818
  0
ENDTAB
  0
TABLE
  2
VIEW
  5
746B
330
0
100
AcDbSymbolTable
 70
     0
  0
ENDTAB
  0
TABLE
  2
UCS
  5
746C
330
0
100
AcDbSymbolTable
 70
     0
  0
ENDTAB
  0
TABLE
  2
APPID
  5
746E
330
0
100
AcDbSymbolTable
 70
     6
  0
APPID
  5
7476
330
746E
100
AcDbSymbolTableRecord
100
AcDbRegAppTableRecord
  2
ACAD
 70
     0
  0
APPID
  5
DEA9
330
746E
100
AcDbSymbolTableRecord
100
AcDbRegAppTableRecord
  2
CONTENTBLOCKICON
 70
     0
  0
APPID
  5
DEAA
330
746E
100
AcDbSymbolTableRecord
100
AcDbRegAppTableRecord
  2
CONTENTBLOCKDESCRIPTION
 70
     0
  0
APPID
  5
E71D
330
746E
100
AcDbSymbolTableRecord
100
AcDbRegAppTableRecord
  2
CONTENTTABDATA
 70
     0
  0
APPID
  5
E71E
330
746E
100
AcDbSymbolTableRecord
100
AcDbRegAppTableRecord
  2
CONTENTCURRENTTAB
 70
     0
  0
APPID
  5
F3BA
330
746E
100
AcDbSymbolTableRecord
100
AcDbRegAppTableRecord
  2
DRAWINGVARIABLESXDATA
 70
     0
  0
ENDTAB
  0
TABLE
  2
DIMSTYLE
  5
746F
330
0
100
AcDbSymbolTable
 70
     2
100
AcDbDimStyleTable
 71
     1
340
F71F
  0
DIMSTYLE
105
F71F
102
{ACAD_REACTORS
330
162CD
330
162CE
330
162CF
330
162D0
330
162E4
330
162E7
330
162EA
330
162EB
330
16301
330
16302
330
1631F
330
16320
330
16333
330
1659C
330
1659A
330
165E9
330
166DD
330
16913
330
17084
330
17082
330
17081
330
17083
330
17099
330
170AB
330
17097
330
17AB2
330
179EF
330
179F0
330
17A37
330
18B43
330
18B34
330
18B26
330
18B25
330
18B24
330
18B20
330
18AEF
330
18AEE
330
18AED
330
18DD9
330
18DDA
330
18DDB
330
192EA
102
}
330
746F
100
AcDbSymbolTableRecord
100
AcDbDimStyleTableRecord
  2
INABA_S40G
 70
     0
 40
40.0
 41
2.5
 42
0.5
 43
7.0
 44
1.5
 73
     0
 74
     0
 77
     3
 78
     8
140
3.0
141
0.0
143
0.0394
147
1.0
172
     1
173
     1
174
     1
178
     7
271
     1
340
F706
341
F770
343
F770
344
F770
  0
DIMSTYLE
105
1928A
330
746F
100
AcDbSymbolTableRecord
100
AcDbDimStyleTableRecord
  2
INABA_S20G
 70
     0
 40
20.0
 41
2.5
 42
0.5
 43
7.0
 44
1.5
 73
     0
 74
     0
 77
     3
 78
     8
140
3.0
141
0.0
143
0.0394
147
1.0
172
     1
173
     1
174
     1
178
     7
271
     1
340
F706
341
F770
343
F770
344
F770
  0
ENDTAB
  0
TABLE
  2
BLOCK_RECORD
  5
7466
330
0
100
AcDbSymbolTable
 70
    43
  0
BLOCK_RECORD
  5
747D
330
7466
100
AcDbSymbolTableRecord
100
AcDbBlockTableRecord
  2
*MODEL_SPACE
340
17236
  0
BLOCK_RECORD
  5
747A
330
7466
100
AcDbSymbolTableRecord
100
AcDbBlockTableRecord
  2
*PAPER_SPACE
340
17237
  0
BLOCK_RECORD
  5
F770
330
7466
100
AcDbSymbolTableRecord
100
AcDbBlockTableRecord
  2
_DOTSMALL
340
0
102
{BLKREFS
331
18160
331
18161
331
18169
331
1816A
331
18172
331
18173
331
1817E
331
1817F
331
18187
331
18188
331
18192
331
18193
331
18199
331
1819A
331
181A2
331
181A3
331
181AD
331
181AE
331
181B7
331
181B8
331
181C2
331
181C3
331
181CD
331
181CE
331
181D7
331
181D8
331
181E2
331
181E3
331
181EB
331
181EC
331
181F6
331
181F7
331
18202
331
18203
331
1820D
331
1820E
331
18217
331
18218
331
18220
331
18221
331
18228
331
18229
331
18231
331
18232
331
1823C
331
1823D
331
18247
331
18248
331
18250
331
18251
331
18279
331
1827A
331
18284
331
18285
331
1828D
331
1828E
331
18296
331
18297
331
18BFC
331
18BFD
331
18C06
331
18C07
331
18C1A
331
18C1B
331
18C2E
331
18C2F
331
18C41
331
18C42
331
18C4A
331
18C4B
331
18C53
331
18C54
331
18ED3
331
18ED4
331
1934D
331
1934E
331
19594
331
19595
331
1959D
331
1959E
331
195BC
331
195BD
331
195C5
331
195C6
102
}
  0
BLOCK_RECORD
  5
16338
330
7466
100
AcDbSymbolTableRecord
100
AcDbBlockTableRecord
  2
*D1
340
0
  0
BLOCK_RECORD
  5
16344
330
7466
100
AcDbSymbolTableRecord
100
AcDbBlockTableRecord
  2
*D2
340
0
  0
BLOCK_RECORD
  5
16352
330
7466
100
AcDbSymbolTableRecord
100
AcDbBlockTableRecord
  2
*D3
340
0
  0
BLOCK_RECORD
  5
16360
330
7466
100
AcDbSymbolTableRecord
100
AcDbBlockTableRecord
  2
*D4
340
0
  0
BLOCK_RECORD
  5
16384
330
7466
100
AcDbSymbolTableRecord
100
AcDbBlockTableRecord
  2
*D5
340
0
  0
BLOCK_RECORD
  5
1638F
330
7466
100
AcDbSymbolTableRecord
100
AcDbBlockTableRecord
  2
*D6
340
0
  0
BLOCK_RECORD
  5
1639B
330
7466
100
AcDbSymbolTableRecord
100
AcDbBlockTableRecord
  2
*D7
340
0
  0
BLOCK_RECORD
  5
163A9
330
7466
100
AcDbSymbolTableRecord
100
AcDbBlockTableRecord
  2
*D8
340
0
  0
BLOCK_RECORD
  5
163B8
330
7466
100
AcDbSymbolTableRecord
100
AcDbBlockTableRecord
  2
*D9
340
0
  0
BLOCK_RECORD
  5
163C7
330
7466
100
AcDbSymbolTableRecord
100
AcDbBlockTableRecord
  2
*D10
340
0
  0
BLOCK_RECORD
  5
163E1
330
7466
100
AcDbSymbolTableRecord
100
AcDbBlockTableRecord
  2
*D11
340
0
  0
BLOCK_RECORD
  5
163ED
330
7466
100
AcDbSymbolTableRecord
100
AcDbBlockTableRecord
  2
*D12
340
0
  0
BLOCK_RECORD
  5
163FB
330
7466
100
AcDbSymbolTableRecord
100
AcDbBlockTableRecord
  2
*D13
340
0
  0
BLOCK_RECORD
  5
165B5
330
7466
100
AcDbSymbolTableRecord
100
AcDbBlockTableRecord
  2
*D14
340
0
  0
BLOCK_RECORD
  5
165C4
330
7466
100
AcDbSymbolTableRecord
100
AcDbBlockTableRecord
  2
*D15
340
0
  0
BLOCK_RECORD
  5
165EA
330
7466
100
AcDbSymbolTableRecord
100
AcDbBlockTableRecord
  2
*D16
340
0
  0
BLOCK_RECORD
  5
166CF
330
7466
100
AcDbSymbolTableRecord
100
AcDbBlockTableRecord
  2
*D17
340
0
  0
BLOCK_RECORD
  5
16908
330
7466
100
AcDbSymbolTableRecord
100
AcDbBlockTableRecord
  2
*D18
340
0
  0
BLOCK_RECORD
  5
170B5
330
7466
100
AcDbSymbolTableRecord
100
AcDbBlockTableRecord
  2
*D19
340
0
  0
BLOCK_RECORD
  5
170C4
330
7466
100
AcDbSymbolTableRecord
100
AcDbBlockTableRecord
  2
*D20
340
0
  0
BLOCK_RECORD
  5
170D3
330
7466
100
AcDbSymbolTableRecord
100
AcDbBlockTableRecord
  2
*D21
340
0
  0
BLOCK_RECORD
  5
170DE
330
7466
100
AcDbSymbolTableRecord
100
AcDbBlockTableRecord
  2
*D22
340
0
  0
BLOCK_RECORD
  5
170EA
330
7466
100
AcDbSymbolTableRecord
100
AcDbBlockTableRecord
  2
*D23
340
0
  0
BLOCK_RECORD
  5
170F6
330
7466
100
AcDbSymbolTableRecord
100
AcDbBlockTableRecord
  2
*D24
340
0
  0
BLOCK_RECORD
  5
17104
330
7466
100
AcDbSymbolTableRecord
100
AcDbBlockTableRecord
  2
*D25
340
0
  0
BLOCK_RECORD
  5
17C7C
330
7466
100
AcDbSymbolTableRecord
100
AcDbBlockTableRecord
  2
*D26
340
0
  0
BLOCK_RECORD
  5
17EA5
330
7466
100
AcDbSymbolTableRecord
100
AcDbBlockTableRecord
  2
*D27
340
0
  0
BLOCK_RECORD
  5
17EB1
330
7466
100
AcDbSymbolTableRecord
100
AcDbBlockTableRecord
  2
*D28
340
0
  0
BLOCK_RECORD
  5
17EBD
330
7466
100
AcDbSymbolTableRecord
100
AcDbBlockTableRecord
  2
*D29
340
0
  0
BLOCK_RECORD
  5
18B67
330
7466
100
AcDbSymbolTableRecord
100
AcDbBlockTableRecord
  2
*D30
340
0
  0
BLOCK_RECORD
  5
18B74
330
7466
100
AcDbSymbolTableRecord
100
AcDbBlockTableRecord
  2
*D31
340
0
  0
BLOCK_RECORD
  5
18B81
330
7466
100
AcDbSymbolTableRecord
100
AcDbBlockTableRecord
  2
*D32
340
0
  0
BLOCK_RECORD
  5
18B8D
330
7466
100
AcDbSymbolTableRecord
100
AcDbBlockTableRecord
  2
*D33
340
0
  0
BLOCK_RECORD
  5
18B9B
330
7466
100
AcDbSymbolTableRecord
100
AcDbBlockTableRecord
  2
*D34
340
0
  0
BLOCK_RECORD
  5
18BA7
330
7466
100
AcDbSymbolTableRecord
100
AcDbBlockTableRecord
  2
*D35
340
0
  0
BLOCK_RECORD
  5
18BC2
330
7466
100
AcDbSymbolTableRecord
100
AcDbBlockTableRecord
  2
*D36
340
0
  0
BLOCK_RECORD
  5
18BCE
330
7466
100
AcDbSymbolTableRecord
100
AcDbBlockTableRecord
  2
*D37
340
0
  0
BLOCK_RECORD
  5
18BDA
330
7466
100
AcDbSymbolTableRecord
100
AcDbBlockTableRecord
  2
*D38
340
0
  0
BLOCK_RECORD
  5
18E4E
330
7466
100
AcDbSymbolTableRecord
100
AcDbBlockTableRecord
  2
*D39
340
0
  0
BLOCK_RECORD
  5
18E5B
330
7466
100
AcDbSymbolTableRecord
100
AcDbBlockTableRecord
  2
*D40
340
0
  0
BLOCK_RECORD
  5
18E69
330
7466
100
AcDbSymbolTableRecord
100
AcDbBlockTableRecord
  2
*D41
340
0
  0
BLOCK_RECORD
  5
192F1
330
7466
100
AcDbSymbolTableRecord
100
AcDbBlockTableRecord
  2
*D42
340
0
  0
ENDTAB
  0
ENDSEC
  0
SECTION
  2
BLOCKS
  0
BLOCK
  5
7489
330
747D
100
AcDbEntity
  8
0
100
AcDbBlockBegin
  2
*MODEL_SPACE
 70
     0
 10
0.0
 20
0.0
 30
0.0
  3
*MODEL_SPACE
  1

  0
ENDBLK
  5
748A
330
747D
100
AcDbEntity
  8
0
100
AcDbBlockEnd
  0
BLOCK
  5
7487
330
747A
100
AcDbEntity
 67
     1
  8
0
100
AcDbBlockBegin
  2
*PAPER_SPACE
 70
     0
 10
0.0
 20
0.0
 30
0.0
  3
*PAPER_SPACE
  1

  0
ENDBLK
  5
7488
330
747A
100
AcDbEntity
 67
     1
  8
0
100
AcDbBlockEnd
  0
BLOCK
  5
F771
330
F770
100
AcDbEntity
  8
0
 48
50.0
100
AcDbBlockBegin
  2
_DOTSMALL
 70
     0
 10
0.0
 20
0.0
 30
0.0
  3
_DOTSMALL
  1

  0
LWPOLYLINE
  5
F772
330
F770
100
AcDbEntity
  8
0
  6
ByBlock
 62
     0
 48
50.0
100
AcDbPolyline
 90
        2
 70
     1
 43
0.5
 10
-0.0625
 20
0.0
 42
1.0
 10
0.0625
 20
0.0
 42
1.0
  0
ENDBLK
  5
F776
330
F770
100
AcDbEntity
  8
0
 48
50.0
100
AcDbBlockEnd
  0
BLOCK
  5
16FCF
330
16338
100
AcDbEntity
  8
0
 48
50.0
100
AcDbBlockBegin
  2
*D1
 70
     1
 10
0.0
 20
0.0
 30
0.0
  3
*D1
  1

  0
LINE
  5
1824D
330
16338
100
AcDbEntity
  8
寸法
 62
     0
 48
50.0
370
    -2
100
AcDbLine
 10
9876.149345219543
 20
10088.12359164101
 30
0.0
 11
10563.57569095395
 21
10088.12359164101
 31
0.0
  0
LINE
  5
1824E
330
16338
100
AcDbEntity
  8
寸法
 62
     0
 48
50.0
370
    -2
100
AcDbLine
 10
9876.149345219516
 20
7568.123591641001
 30
0.0
 11
10563.57569095395
 21
7568.123591641001
 31
0.0
  0
LINE
  5
1824F
330
16338
100
AcDbEntity
  8
寸法
 62
     0
 48
50.0
370
    -2
100
AcDbLine
 10
10503.57569095395
 20
10088.12359164101
 30
0.0
 11
10503.57569095395
 21
7568.123591641001
 31
0.0
  0
INSERT
  5
18250
330
16338
100
AcDbEntity
  8
寸法
 62
     0
 48
50.0
370
    -2
100
AcDbBlockReference
  2
_DOTSMALL
 10
10503.57569095395
 20
10088.12359164101
 30
0.0
 41
100.0
 42
100.0
 43
100.0
 50
90.0
  0
INSERT
  5
18251
330
16338
100
AcDbEntity
  8
寸法
 62
     0
 48
50.0
370
    -2
100
AcDbBlockReference
  2
_DOTSMALL
 10
10503.57569095395
 20
7568.123591641001
 30
0.0
 41
100.0
 42
100.0
 43
100.0
 50
270.0
  0
MTEXT
  5
18252
330
16338
100
AcDbEntity
  8
寸法
 62
     7
 48
50.0
100
AcDbMText
 10
10403.56387993032
 20
8828.123591641009
 30
0.0
 40
120.0
 41
0.0
 71
     5
 72
     1
  1
\A1;6X420=2520
  7
STYLE1
 11
0.0000000000000001
 21
1.0
 31
0.0
 73
     1
 44
1.0
1001
ACAD
1000
MTEXTBEGIN
1070
    73
1070
     1
1070
    44
1040
1.0
1070
    74
1070
     0
1000
MTEXTEND
  0
POINT
  5
18253
330
16338
100
AcDbEntity
  8
DEFPOINTS
 62
     0
 48
50.0
100
AcDbPoint
 10
9856.149345219543
 20
10088.12359164101
 30
0.0
  0
POINT
  5
18254
330
16338
100
AcDbEntity
  8
DEFPOINTS
 62
     0
 48
50.0
100
AcDbPoint
 10
9856.149345219519
 20
7568.123591641001
 30
0.0
  0
POINT
  5
18255
330
16338
100
AcDbEntity
  8
DEFPOINTS
 62
     0
 48
50.0
100
AcDbPoint
 10
10503.57569095395
 20
7568.123591641001
 30
0.0
  0
ENDBLK
  5
16FD9
330
16338
100
AcDbEntity
  8
0
 48
50.0
100
AcDbBlockEnd
  0
BLOCK
  5
16414
330
16344
100
AcDbEntity
  8
0
 48
50.0
100
AcDbBlockBegin
  2
*D2
 70
     1
 10
0.0
 20
0.0
 30
0.0
  3
*D2
  1

  0
LINE
  5
18242
330
16344
100
AcDbEntity
  8
寸法
 62
     0
 48
50.0
370
    -2
100
AcDbLine
 10
9876.149345219516
 20
7568.123591641001
 30
0.0
 11
10563.57569095393
 21
7568.123591641001
 31
0.0
  0
LINE
  5
18243
330
16344
100
AcDbEntity
  8
寸法
 62
     0
 48
50.0
370
    -2
100
AcDbLine
 10
9876.149345219516
 20
7513.123591641004
 30
0.0
 11
10563.57569095393
 21
7513.123591641003
 31
0.0
  0
LINE
  5
18244
330
16344
100
AcDbEntity
  8
寸法
 62
     0
 48
50.0
370
    -2
100
AcDbLine
 10
10503.57569095393
 20
7568.123591641001
 30
0.0
 11
10503.57569095393
 21
7668.123591641
 31
0.0
  0
LINE
  5
18245
330
16344
100
AcDbEntity
  8
寸法
 62
     0
 48
50.0
370
    -2
100
AcDbLine
 10
10503.57569095393
 20
7513.123591641003
 30
0.0
 11
10503.57569095393
 21
7026.776843361901
 31
0.0
  0
LINE
  5
18246
330
16344
100
AcDbEntity
  8
寸法
 62
     0
 48
50.0
370
    -2
100
AcDbLine
 10
10503.57569095393
 20
7568.123591641001
 30
0.0
 11
10503.57569095393
 21
7513.123591641003
 31
0.0
  0
INSERT
  5
18247
330
16344
100
AcDbEntity
  8
寸法
 62
     0
 48
50.0
370
    -2
100
AcDbBlockReference
  2
_DOTSMALL
 10
10503.57569095393
 20
7568.123591641001
 30
0.0
 41
100.0
 42
100.0
 43
100.0
 50
270.0
  0
INSERT
  5
18248
330
16344
100
AcDbEntity
  8
寸法
 62
     0
 48
50.0
370
    -2
100
AcDbBlockReference
  2
_DOTSMALL
 10
10503.57569095393
 20
7513.123591641003
 30
0.0
 41
100.0
 42
100.0
 43
100.0
 50
90.0
  0
MTEXT
  5
18249
330
16344
100
AcDbEntity
  8
寸法
 62
     7
 48
50.0
100
AcDbMText
 10
10403.57569095393
 20
7135.262124736143
 30
0.0
 40
120.0
 41
0.0
 71
     5
 72
     1
  1
\A1;55
  7
STYLE1
 11
0.0000000000000001
 21
1.0
 31
0.0
 73
     1
 44
1.0
1001
ACAD
1000
MTEXTBEGIN
1070
    73
1070
     1
1070
    44
1040
1.0
1070
    74
1070
     0
1000
MTEXTEND
  0
POINT
  5
1824A
330
16344
100
AcDbEntity
  8
DEFPOINTS
 62
     0
 48
50.0
100
AcDbPoint
 10
9856.149345219519
 20
7568.123591641001
 30
0.0
  0
POINT
  5
1824B
330
16344
100
AcDbEntity
  8
DEFPOINTS
 62
     0
 48
50.0
100
AcDbPoint
 10
9856.149345219519
 20
7513.123591641004
 30
0.0
  0
POINT
  5
1824C
330
16344
100
AcDbEntity
  8
DEFPOINTS
 62
     0
 48
50.0
100
AcDbPoint
 10
10503.57569095393
 20
7513.123591641003
 30
0.0
  0
ENDBLK
  5
16420
330
16344
100
AcDbEntity
  8
0
 48
50.0
100
AcDbBlockEnd
  0
BLOCK
  5
16421
330
16352
100
AcDbEntity
  8
0
 48
50.0
100
AcDbBlockBegin
  2
*D3
 70
     1
 10
0.0
 20
0.0
 30
0.0
  3
*D3
  1

  0
LINE
  5
18237
330
16352
100
AcDbEntity
  8
寸法
 62
     0
 48
50.0
370
    -2
100
AcDbLine
 10
9876.149345219543
 20
10143.12359164101
 30
0.0
 11
10563.57569095395
 21
10143.12359164101
 31
0.0
  0
LINE
  5
18238
330
16352
100
AcDbEntity
  8
寸法
 62
     0
 48
50.0
370
    -2
100
AcDbLine
 10
9876.149345219543
 20
10088.12359164101
 30
0.0
 11
10563.57569095395
 21
10088.12359164101
 31
0.0
  0
LINE
  5
18239
330
16352
100
AcDbEntity
  8
寸法
 62
     0
 48
50.0
370
    -2
100
AcDbLine
 10
10503.57569095395
 20
10088.12359164101
 30
0.0
 11
10503.57569095395
 21
9988.123591641015
 31
0.0
  0
LINE
  5
1823A
330
16352
100
AcDbEntity
  8
寸法
 62
     0
 48
50.0
370
    -2
100
AcDbLine
 10
10503.57569095395
 20
10143.12359164101
 30
0.0
 11
10503.57569095395
 21
10560.09415438948
 31
0.0
  0
LINE
  5
1823B
330
16352
100
AcDbEntity
  8
寸法
 62
     0
 48
50.0
370
    -2
100
AcDbLine
 10
10503.57569095395
 20
10088.12359164101
 30
0.0
 11
10503.57569095395
 21
10143.12359164101
 31
0.0
  0
INSERT
  5
1823C
330
16352
100
AcDbEntity
  8
寸法
 62
     0
 48
50.0
370
    -2
100
AcDbBlockReference
  2
_DOTSMALL
 10
10503.57569095395
 20
10088.12359164101
 30
0.0
 41
100.0
 42
100.0
 43
100.0
 50
90.0
  0
INSERT
  5
1823D
330
16352
100
AcDbEntity
  8
寸法
 62
     0
 48
50.0
370
    -2
100
AcDbBlockReference
  2
_DOTSMALL
 10
10503.57569095395
 20
10143.12359164101
 30
0.0
 41
100.0
 42
100.0
 43
100.0
 50
270.0
  0
MTEXT
  5
1823E
330
16352
100
AcDbEntity
  8
寸法
 62
     7
 48
50.0
100
AcDbMText
 10
10403.57569095395
 20
10451.60887301525
 30
0.0
 40
120.0
 41
0.0
 71
     5
 72
     1
  1
\A1;55
  7
STYLE1
 11
0.0000000000000001
 21
1.0
 31
0.0
 73
     1
 44
1.0
1001
ACAD
1000
MTEXTBEGIN
1070
    73
1070
     1
1070
    44
1040
1.0
1070
    74
1070
     0
1000
MTEXTEND
  0
POINT
  5
1823F
330
16352
100
AcDbEntity
  8
DEFPOINTS
 62
     0
 48
50.0
100
AcDbPoint
 10
9856.149345219543
 20
10143.12359164101
 30
0.0
  0
POINT
  5
18240
330
16352
100
AcDbEntity
  8
DEFPOINTS
 62
     0
 48
50.0
100
AcDbPoint
 10
9856.149345219543
 20
10088.12359164101
 30
0.0
  0
POINT
  5
18241
330
16352
100
AcDbEntity
  8
DEFPOINTS
 62
     0
 48
50.0
100
AcDbPoint
 10
10503.57569095395
 20
10088.12359164101
 30
0.0
  0
ENDBLK
  5
1642D
330
16352
100
AcDbEntity
  8
0
 48
50.0
100
AcDbBlockEnd
  0
BLOCK
  5
16FB9
330
16360
100
AcDbEntity
  8
0
 48
50.0
100
AcDbBlockBegin
  2
*D4
 70
     1
 10
0.0
 20
0.0
 30
0.0
  3
*D4
  1

  0
LINE
  5
1822E
330
16360
100
AcDbEntity
  8
寸法
 62
     0
 48
50.0
370
    -2
100
AcDbLine
 10
9876.149345219543
 20
10143.12359164101
 30
0.0
 11
10928.68263269359
 21
10143.12359164101
 31
0.0
  0
LINE
  5
1822F
330
16360
100
AcDbEntity
  8
寸法
 62
     0
 48
50.0
370
    -2
100
AcDbLine
 10
9876.149345219516
 20
7513.123591641004
 30
0.0
 11
10928.68263269359
 21
7513.123591641003
 31
0.0
  0
LINE
  5
18230
330
16360
100
AcDbEntity
  8
寸法
 62
     0
 48
50.0
370
    -2
100
AcDbLine
 10
10868.68263269359
 20
10143.12359164101
 30
0.0
 11
10868.68263269359
 21
7513.123591641003
 31
0.0
  0
INSERT
  5
18231
330
16360
100
AcDbEntity
  8
寸法
 62
     0
 48
50.0
370
    -2
100
AcDbBlockReference
  2
_DOTSMALL
 10
10868.68263269359
 20
10143.12359164101
 30
0.0
 41
100.0
 42
100.0
 43
100.0
 50
90.0
  0
INSERT
  5
18232
330
16360
100
AcDbEntity
  8
寸法
 62
     0
 48
50.0
370
    -2
100
AcDbBlockReference
  2
_DOTSMALL
 10
10868.68263269359
 20
7513.123591641003
 30
0.0
 41
100.0
 42
100.0
 43
100.0
 50
270.0
  0
MTEXT
  5
18233
330
16360
100
AcDbEntity
  8
寸法
 62
     7
 48
50.0
100
AcDbMText
 10
10768.67082166996
 20
8828.123591641009
 30
0.0
 40
120.0
 41
0.0
 71
     5
 72
     1
  1
\A1;2630
  7
STYLE1
 11
0.0000000000000001
 21
1.0
 31
0.0
 73
     1
 44
1.0
1001
ACAD
1000
MTEXTBEGIN
1070
    73
1070
     1
1070
    44
1040
1.0
1070
    74
1070
     0
1000
MTEXTEND
  0
POINT
  5
18234
330
16360
100
AcDbEntity
  8
DEFPOINTS
 62
     0
 48
50.0
100
AcDbPoint
 10
9856.149345219543
 20
10143.12359164101
 30
0.0
  0
POINT
  5
18235
330
16360
100
AcDbEntity
  8
DEFPOINTS
 62
     0
 48
50.0
100
AcDbPoint
 10
9856.149345219519
 20
7513.123591641004
 30
0.0
  0
POINT
  5
18236
330
16360
100
AcDbEntity
  8
DEFPOINTS
 62
     0
 48
50.0
100
AcDbPoint
 10
10868.68263269359
 20
7513.123591641003
 30
0.0
  0
ENDBLK
  5
16FC3
330
16360
100
AcDbEntity
  8
0
 48
50.0
100
AcDbBlockEnd
  0
BLOCK
  5
1644F
330
16384
100
AcDbEntity
  8
0
 48
50.0
100
AcDbBlockBegin
  2
*D5
 70
     1
 10
0.0
 20
0.0
 30
0.0
  3
*D5
  1

  0
LINE
  5
18226
330
16384
100
AcDbEntity
  8
寸法
 62
     0
 48
50.0
370
    -2
100
AcDbLine
 10
7329.149345219535
 20
7519.123591640912
 30
0.0
 11
7329.149345219535
 21
6918.692820874749
 31
0.0
  0
LINE
  5
18227
330
16384
100
AcDbEntity
  8
寸法
 62
     0
 48
50.0
370
    -2
100
AcDbLine
 10
9753.149345219519
 20
6978.692820874748
 30
0.0
 11
7329.149345219535
 21
6978.692820874748
 31
0.0
  0
INSERT
  5
18228
330
16384
100
AcDbEntity
  8
寸法
 62
     0
 48
50.0
370
    -2
100
AcDbBlockReference
  2
_DOTSMALL
 10
9753.149345219519
 20
6978.692820874748
 30
0.0
 41
100.0
 42
100.0
 43
100.0
  0
INSERT
  5
18229
330
16384
100
AcDbEntity
  8
寸法
 62
     0
 48
50.0
370
    -2
100
AcDbBlockReference
  2
_DOTSMALL
 10
7329.149345219535
 20
6978.692820874748
 30
0.0
 41
100.0
 42
100.0
 43
100.0
 50
180.0
  0
MTEXT
  5
1822A
330
16384
100
AcDbEntity
  8
寸法
 62
     7
 48
50.0
100
AcDbMText
 10
8541.149345219526
 20
7078.70463189837
 30
0.0
 40
120.0
 41
0.0
 71
     5
 72
     1
  1
\A1;有効開口部間口 2424
  7
STYLE1
 73
     1
 44
1.0
1001
ACAD
1000
MTEXTBEGIN
1070
    73
1070
     1
1070
    44
1040
1.0
1070
    74
1070
     0
1000
MTEXTEND
  0
POINT
  5
1822B
330
16384
100
AcDbEntity
  8
DEFPOINTS
 62
     0
 48
50.0
100
AcDbPoint
 10
9753.149345219519
 20
7539.123591640913
 30
0.0
  0
POINT
  5
1822C
330
16384
100
AcDbEntity
  8
DEFPOINTS
 62
     0
 48
50.0
100
AcDbPoint
 10
7329.149345219535
 20
7539.123591640913
 30
0.0
  0
POINT
  5
1822D
330
16384
100
AcDbEntity
  8
DEFPOINTS
 62
     0
 48
50.0
100
AcDbPoint
 10
7329.149345219535
 20
6978.692820874748
 30
0.0
  0
ENDBLK
  5
16458
330
16384
100
AcDbEntity
  8
0
 48
50.0
100
AcDbBlockEnd
  0
BLOCK
  5
171F4
330
1638F
100
AcDbEntity
  8
0
 48
50.0
100
AcDbBlockBegin
  2
*D6
 70
     1
 10
0.0
 20
0.0
 30
0.0
  3
*D6
  1

  0
LINE
  5
1821D
330
1638F
100
AcDbEntity
  8
寸法
 62
     0
 48
50.0
370
    -2
100
AcDbLine
 10
1966.149345219535
 20
7493.123591640909
 30
0.0
 11
1966.149345219535
 21
6472.519825283875
 31
0.0
  0
LINE
  5
1821E
330
1638F
100
AcDbEntity
  8
寸法
 62
     0
 48
50.0
370
    -2
100
AcDbLine
 10
9856.149345219506
 20
7493.123591641005
 30
0.0
 11
9856.149345219506
 21
6472.519825283875
 31
0.0
  0
LINE
  5
1821F
330
1638F
100
AcDbEntity
  8
寸法
 62
     0
 48
50.0
370
    -2
100
AcDbLine
 10
1966.149345219535
 20
6532.519825283874
 30
0.0
 11
9856.149345219506
 21
6532.519825283874
 31
0.0
  0
INSERT
  5
18220
330
1638F
100
AcDbEntity
  8
寸法
 62
     0
 48
50.0
370
    -2
100
AcDbBlockReference
  2
_DOTSMALL
 10
1966.149345219535
 20
6532.519825283874
 30
0.0
 41
100.0
 42
100.0
 43
100.0
 50
180.0
  0
INSERT
  5
18221
330
1638F
100
AcDbEntity
  8
寸法
 62
     0
 48
50.0
370
    -2
100
AcDbBlockReference
  2
_DOTSMALL
 10
9856.149345219506
 20
6532.519825283874
 30
0.0
 41
100.0
 42
100.0
 43
100.0
  0
MTEXT
  5
18222
330
1638F
100
AcDbEntity
  8
寸法
 62
     7
 48
50.0
100
AcDbMText
 10
5911.149345219521
 20
6632.531636307496
 30
0.0
 40
120.0
 41
0.0
 71
     5
 72
     1
  1
\A1;N X 2630
  7
STYLE1
 73
     1
 44
1.0
1001
ACAD
1000
MTEXTBEGIN
1070
    73
1070
     1
1070
    44
1040
1.0
1070
    74
1070
     0
1000
MTEXTEND
  0
POINT
  5
18223
330
1638F
100
AcDbEntity
  8
DEFPOINTS
 62
     0
 48
50.0
100
AcDbPoint
 10
1966.149345219535
 20
7513.123591640909
 30
0.0
  0
POINT
  5
18224
330
1638F
100
AcDbEntity
  8
DEFPOINTS
 62
     0
 48
50.0
100
AcDbPoint
 10
9856.149345219506
 20
7513.123591641004
 30
0.0
  0
POINT
  5
18225
330
1638F
100
AcDbEntity
  8
DEFPOINTS
 62
     0
 48
50.0
100
AcDbPoint
 10
9856.149345219506
 20
6532.519825283874
 30
0.0
  0
ENDBLK
  5
171FE
330
1638F
100
AcDbEntity
  8
0
 48
50.0
100
AcDbBlockEnd
  0
BLOCK
  5
16464
330
1639B
100
AcDbEntity
  8
0
 48
50.0
100
AcDbBlockBegin
  2
*D7
 70
     1
 10
0.0
 20
0.0
 30
0.0
  3
*D7
  1

  0
LINE
  5
18212
330
1639B
100
AcDbEntity
  8
寸法
 62
     0
 48
50.0
370
    -2
100
AcDbLine
 10
2021.149345219532
 20
7493.123591640912
 30
0.0
 11
2021.149345219532
 21
6918.692820874749
 31
0.0
  0
LINE
  5
18213
330
1639B
100
AcDbEntity
  8
寸法
 62
     0
 48
50.0
370
    -2
100
AcDbLine
 10
1966.149345219535
 20
7493.123591640909
 30
0.0
 11
1966.149345219535
 21
6918.692820874749
 31
0.0
  0
LINE
  5
18214
330
1639B
100
AcDbEntity
  8
寸法
 62
     0
 48
50.0
370
    -2
100
AcDbLine
 10
2021.149345219532
 20
6978.692820874748
 30
0.0
 11
2121.149345219532
 21
6978.692820874748
 31
0.0
  0
LINE
  5
18215
330
1639B
100
AcDbEntity
  8
寸法
 62
     0
 48
50.0
370
    -2
100
AcDbLine
 10
1966.149345219535
 20
6978.692820874748
 30
0.0
 11
1549.178782471058
 21
6978.692820874748
 31
0.0
  0
LINE
  5
18216
330
1639B
100
AcDbEntity
  8
寸法
 62
     0
 48
50.0
370
    -2
100
AcDbLine
 10
2021.149345219532
 20
6978.692820874748
 30
0.0
 11
1966.149345219535
 21
6978.692820874748
 31
0.0
  0
INSERT
  5
18217
330
1639B
100
AcDbEntity
  8
寸法
 62
     0
 48
50.0
370
    -2
100
AcDbBlockReference
  2
_DOTSMALL
 10
2021.149345219532
 20
6978.692820874748
 30
0.0
 41
100.0
 42
100.0
 43
100.0
 50
180.0
  0
INSERT
  5
18218
330
1639B
100
AcDbEntity
  8
寸法
 62
     0
 48
50.0
370
    -2
100
AcDbBlockReference
  2
_DOTSMALL
 10
1966.149345219535
 20
6978.692820874748
 30
0.0
 41
100.0
 42
100.0
 43
100.0
  0
MTEXT
  5
18219
330
1639B
100
AcDbEntity
  8
寸法
 62
     7
 48
50.0
100
AcDbMText
 10
1657.664063845297
 20
7078.692820874748
 30
0.0
 40
120.0
 41
0.0
 71
     5
 72
     1
  1
\A1;55
  7
STYLE1
 73
     1
 44
1.0
1001
ACAD
1000
MTEXTBEGIN
1070
    73
1070
     1
1070
    44
1040
1.0
1070
    74
1070
     0
1000
MTEXTEND
  0
POINT
  5
1821A
330
1639B
100
AcDbEntity
  8
DEFPOINTS
 62
     0
 48
50.0
100
AcDbPoint
 10
2021.149345219532
 20
7513.123591640912
 30
0.0
  0
POINT
  5
1821B
330
1639B
100
AcDbEntity
  8
DEFPOINTS
 62
     0
 48
50.0
100
AcDbPoint
 10
1966.149345219535
 20
7513.123591640909
 30
0.0
  0
POINT
  5
1821C
330
1639B
100
AcDbEntity
  8
DEFPOINTS
 62
     0
 48
50.0
100
AcDbPoint
 10
1966.149345219535
 20
6978.692820874748
 30
0.0
  0
ENDBLK
  5
16470
330
1639B
100
AcDbEntity
  8
0
 48
50.0
100
AcDbBlockEnd
  0
BLOCK
  5
16471
330
163A9
100
AcDbEntity
  8
0
 48
50.0
100
AcDbBlockBegin
  2
*D8
 70
     1
 10
0.0
 20
0.0
 30
0.0
  3
*D8
  1

  0
LINE
  5
18207
330
163A9
100
AcDbEntity
  8
寸法
 62
     0
 48
50.0
370
    -2
100
AcDbLine
 10
7329.149345219535
 20
7519.123591640912
 30
0.0
 11
7329.149345219535
 21
6918.692820874749
 31
0.0
  0
LINE
  5
18208
330
163A9
100
AcDbEntity
  8
寸法
 62
     0
 48
50.0
370
    -2
100
AcDbLine
 10
7281.149345219532
 20
7493.123591640912
 30
0.0
 11
7281.149345219532
 21
6918.692820874749
 31
0.0
  0
LINE
  5
18209
330
163A9
100
AcDbEntity
  8
寸法
 62
     0
 48
50.0
370
    -2
100
AcDbLine
 10
7329.149345219535
 20
6978.692820874748
 30
0.0
 11
7429.149345219535
 21
6978.692820874748
 31
0.0
  0
LINE
  5
1820A
330
163A9
100
AcDbEntity
  8
寸法
 62
     0
 48
50.0
370
    -2
100
AcDbLine
 10
7281.149345219532
 20
6978.692820874748
 30
0.0
 11
7181.149345219532
 21
6978.692820874748
 31
0.0
  0
MTEXT
  5
1820B
330
163A9
100
AcDbEntity
  8
寸法
 62
     7
 48
50.0
100
AcDbMText
 10
7442.051316219593
 20
7078.692820874748
 30
0.0
 40
120.0
 41
0.0
 71
     5
 72
     1
  1
\A1;48
  7
STYLE1
 73
     1
 44
1.0
1001
ACAD
1000
MTEXTBEGIN
1070
    73
1070
     1
1070
    44
1040
1.0
1070
    74
1070
     0
1000
MTEXTEND
  0
LINE
  5
1820C
330
163A9
100
AcDbEntity
  8
寸法
 62
     0
 48
50.0
370
    -2
100
AcDbLine
 10
7329.149345219535
 20
6978.692820874748
 30
0.0
 11
7281.149345219532
 21
6978.692820874748
 31
0.0
  0
INSERT
  5
1820D
330
163A9
100
AcDbEntity
  8
寸法
 62
     0
 48
50.0
370
    -2
100
AcDbBlockReference
  2
_DOTSMALL
 10
7329.149345219535
 20
6978.692820874748
 30
0.0
 41
100.0
 42
100.0
 43
100.0
 50
180.0
  0
INSERT
  5
1820E
330
163A9
100
AcDbEntity
  8
寸法
 62
     0
 48
50.0
370
    -2
100
AcDbBlockReference
  2
_DOTSMALL
 10
7281.149345219532
 20
6978.692820874748
 30
0.0
 41
100.0
 42
100.0
 43
100.0
  0
POINT
  5
1820F
330
163A9
100
AcDbEntity
  8
DEFPOINTS
 62
     0
 48
50.0
100
AcDbPoint
 10
7329.149345219535
 20
7539.123591640913
 30
0.0
  0
POINT
  5
18210
330
163A9
100
AcDbEntity
  8
DEFPOINTS
 62
     0
 48
50.0
100
AcDbPoint
 10
7281.149345219532
 20
7513.123591640912
 30
0.0
  0
POINT
  5
18211
330
163A9
100
AcDbEntity
  8
DEFPOINTS
 62
     0
 48
50.0
100
AcDbPoint
 10
7281.149345219532
 20
6978.692820874748
 30
0.0
  0
ENDBLK
  5
1647E
330
163A9
100
AcDbEntity
  8
0
 48
50.0
100
AcDbBlockEnd
  0
BLOCK
  5
1647F
330
163B8
100
AcDbEntity
  8
0
 48
50.0
100
AcDbBlockBegin
  2
*D9
 70
     1
 10
0.0
 20
0.0
 30
0.0
  3
*D9
  1

  0
LINE
  5
181FC
330
163B8
100
AcDbEntity
  8
寸法
 62
     0
 48
50.0
370
    -2
100
AcDbLine
 10
9801.149345219521
 20
7493.123591641
 30
0.0
 11
9801.149345219521
 21
6918.692820874749
 31
0.0
  0
LINE
  5
181FD
330
163B8
100
AcDbEntity
  8
寸法
 62
     0
 48
50.0
370
    -2
100
AcDbLine
 10
9753.149345219519
 20
7519.123591640912
 30
0.0
 11
9753.149345219519
 21
6918.692820874749
 31
0.0
  0
LINE
  5
181FE
330
163B8
100
AcDbEntity
  8
寸法
 62
     0
 48
50.0
370
    -2
100
AcDbLine
 10
9801.149345219521
 20
6978.692820874748
 30
0.0
 11
9901.14934521952
 21
6978.692820874748
 31
0.0
  0
LINE
  5
181FF
330
163B8
100
AcDbEntity
  8
寸法
 62
     0
 48
50.0
370
    -2
100
AcDbLine
 10
9753.149345219519
 20
6978.692820874748
 30
0.0
 11
9653.149345219517
 21
6978.692820874748
 31
0.0
  0
MTEXT
  5
18200
330
163B8
100
AcDbEntity
  8
寸法
 62
     7
 48
50.0
100
AcDbMText
 10
9642.186447570772
 20
7078.692820874748
 30
0.0
 40
120.0
 41
0.0
 71
     5
 72
     1
  1
\A1;48
  7
STYLE1
 73
     1
 44
1.0
1001
ACAD
1000
MTEXTBEGIN
1070
    73
1070
     1
1070
    44
1040
1.0
1070
    74
1070
     0
1000
MTEXTEND
  0
LINE
  5
18201
330
163B8
100
AcDbEntity
  8
寸法
 62
     0
 48
50.0
370
    -2
100
AcDbLine
 10
9801.149345219521
 20
6978.692820874748
 30
0.0
 11
9753.149345219519
 21
6978.692820874748
 31
0.0
  0
INSERT
  5
18202
330
163B8
100
AcDbEntity
  8
寸法
 62
     0
 48
50.0
370
    -2
100
AcDbBlockReference
  2
_DOTSMALL
 10
9801.149345219521
 20
6978.692820874748
 30
0.0
 41
100.0
 42
100.0
 43
100.0
 50
180.0
  0
INSERT
  5
18203
330
163B8
100
AcDbEntity
  8
寸法
 62
     0
 48
50.0
370
    -2
100
AcDbBlockReference
  2
_DOTSMALL
 10
9753.149345219519
 20
6978.692820874748
 30
0.0
 41
100.0
 42
100.0
 43
100.0
  0
POINT
  5
18204
330
163B8
100
AcDbEntity
  8
DEFPOINTS
 62
     0
 48
50.0
100
AcDbPoint
 10
9801.149345219521
 20
7513.123591641001
 30
0.0
  0
POINT
  5
18205
330
163B8
100
AcDbEntity
  8
DEFPOINTS
 62
     0
 48
50.0
100
AcDbPoint
 10
9753.149345219519
 20
7539.123591640913
 30
0.0
  0
POINT
  5
18206
330
163B8
100
AcDbEntity
  8
DEFPOINTS
 62
     0
 48
50.0
100
AcDbPoint
 10
9753.149345219519
 20
6978.692820874748
 30
0.0
  0
ENDBLK
  5
1648C
330
163B8
100
AcDbEntity
  8
0
 48
50.0
100
AcDbBlockEnd
  0
BLOCK
  5
1648D
330
163C7
100
AcDbEntity
  8
0
 48
50.0
100
AcDbBlockBegin
  2
*D10
 70
     1
 10
0.0
 20
0.0
 30
0.0
  3
*D10
  1

  0
LINE
  5
181F1
330
163C7
100
AcDbEntity
  8
寸法
 62
     0
 48
50.0
370
    -2
100
AcDbLine
 10
9856.149345219519
 20
7493.123591641005
 30
0.0
 11
9856.149345219519
 21
6918.69282087475
 31
0.0
  0
LINE
  5
181F2
330
163C7
100
AcDbEntity
  8
寸法
 62
     0
 48
50.0
370
    -2
100
AcDbLine
 10
9801.149345219521
 20
7493.123591641
 30
0.0
 11
9801.149345219521
 21
6918.69282087475
 31
0.0
  0
LINE
  5
181F3
330
163C7
100
AcDbEntity
  8
寸法
 62
     0
 48
50.0
370
    -2
100
AcDbLine
 10
9801.149345219521
 20
6978.69282087475
 30
0.0
 11
9701.149345219519
 21
6978.69282087475
 31
0.0
  0
LINE
  5
181F4
330
163C7
100
AcDbEntity
  8
寸法
 62
     0
 48
50.0
370
    -2
100
AcDbLine
 10
9856.149345219519
 20
6978.69282087475
 30
0.0
 11
10273.11990796799
 21
6978.69282087475
 31
0.0
  0
LINE
  5
181F5
330
163C7
100
AcDbEntity
  8
寸法
 62
     0
 48
50.0
370
    -2
100
AcDbLine
 10
9801.149345219521
 20
6978.69282087475
 30
0.0
 11
9856.149345219519
 21
6978.69282087475
 31
0.0
  0
INSERT
  5
181F6
330
163C7
100
AcDbEntity
  8
寸法
 62
     0
 48
50.0
370
    -2
100
AcDbBlockReference
  2
_DOTSMALL
 10
9801.149345219521
 20
6978.69282087475
 30
0.0
 41
100.0
 42
100.0
 43
100.0
  0
INSERT
  5
181F7
330
163C7
100
AcDbEntity
  8
寸法
 62
     0
 48
50.0
370
    -2
100
AcDbBlockReference
  2
_DOTSMALL
 10
9856.149345219519
 20
6978.69282087475
 30
0.0
 41
100.0
 42
100.0
 43
100.0
 50
180.0
  0
MTEXT
  5
181F8
330
163C7
100
AcDbEntity
  8
寸法
 62
     7
 48
50.0
100
AcDbMText
 10
10164.63462659375
 20
7078.692820874749
 30
0.0
 40
120.0
 41
0.0
 71
     5
 72
     1
  1
\A1;55
  7
STYLE1
 73
     1
 44
1.0
1001
ACAD
1000
MTEXTBEGIN
1070
    73
1070
     1
1070
    44
1040
1.0
1070
    74
1070
     0
1000
MTEXTEND
  0
POINT
  5
181F9
330
163C7
100
AcDbEntity
  8
DEFPOINTS
 62
     0
 48
50.0
100
AcDbPoint
 10
9856.149345219519
 20
7513.123591641004
 30
0.0
  0
POINT
  5
181FA
330
163C7
100
AcDbEntity
  8
DEFPOINTS
 62
     0
 48
50.0
100
AcDbPoint
 10
9801.149345219521
 20
7513.123591641001
 30
0.0
  0
POINT
  5
181FB
330
163C7
100
AcDbEntity
  8
DEFPOINTS
 62
     0
 48
50.0
100
AcDbPoint
 10
9801.149345219521
 20
6978.69282087475
 30
0.0
  0
ENDBLK
  5
16499
330
163C7
100
AcDbEntity
  8
0
 48
50.0
100
AcDbBlockEnd
  0
BLOCK
  5
1661C
330
163E1
100
AcDbEntity
  8
0
 48
50.0
100
AcDbBlockBegin
  2
*D11
 70
     1
 10
0.0
 20
0.0
 30
0.0
  3
*D11
  1

  0
LINE
  5
181E8
330
163E1
100
AcDbEntity
  8
寸法
 62
     0
 48
50.0
370
    -2
100
AcDbLine
 10
7281.149345219543
 20
10163.12359164091
 30
0.0
 11
7281.149345219543
 21
10418.93181126601
 31
0.0
  0
LINE
  5
181E9
330
163E1
100
AcDbEntity
  8
寸法
 62
     0
 48
50.0
370
    -2
100
AcDbLine
 10
9801.149345219542
 20
10163.12359164101
 30
0.0
 11
9801.149345219542
 21
10418.93181126601
 31
0.0
  0
LINE
  5
181EA
330
163E1
100
AcDbEntity
  8
寸法
 62
     0
 48
50.0
370
    -2
100
AcDbLine
 10
7281.149345219543
 20
10358.93181126601
 30
0.0
 11
9801.149345219542
 21
10358.93181126601
 31
0.0
  0
INSERT
  5
181EB
330
163E1
100
AcDbEntity
  8
寸法
 62
     0
 48
50.0
370
    -2
100
AcDbBlockReference
  2
_DOTSMALL
 10
7281.149345219543
 20
10358.93181126601
 30
0.0
 41
100.0
 42
100.0
 43
100.0
 50
180.0
  0
INSERT
  5
181EC
330
163E1
100
AcDbEntity
  8
寸法
 62
     0
 48
50.0
370
    -2
100
AcDbBlockReference
  2
_DOTSMALL
 10
9801.149345219542
 20
10358.93181126601
 30
0.0
 41
100.0
 42
100.0
 43
100.0
  0
MTEXT
  5
181ED
330
163E1
100
AcDbEntity
  8
寸法
 62
     7
 48
50.0
100
AcDbMText
 10
8541.149345219542
 20
10458.94362228964
 30
0.0
 40
120.0
 41
0.0
 71
     5
 72
     1
  1
\A1;6X420=2520
  7
STYLE1
 73
     1
 44
1.0
1001
ACAD
1000
MTEXTBEGIN
1070
    73
1070
     1
1070
    44
1040
1.0
1070
    74
1070
     0
1000
MTEXTEND
  0
POINT
  5
181EE
330
163E1
100
AcDbEntity
  8
DEFPOINTS
 62
     0
 48
50.0
100
AcDbPoint
 10
7281.149345219543
 20
10143.12359164091
 30
0.0
  0
POINT
  5
181EF
330
163E1
100
AcDbEntity
  8
DEFPOINTS
 62
     0
 48
50.0
100
AcDbPoint
 10
9801.149345219542
 20
10143.12359164101
 30
0.0
  0
POINT
  5
181F0
330
163E1
100
AcDbEntity
  8
DEFPOINTS
 62
     0
 48
50.0
100
AcDbPoint
 10
9801.149345219542
 20
10358.93181126601
 30
0.0
  0
ENDBLK
  5
16626
330
163E1
100
AcDbEntity
  8
0
 48
50.0
100
AcDbBlockEnd
  0
BLOCK
  5
164B0
330
163ED
100
AcDbEntity
  8
0
 48
50.0
100
AcDbBlockBegin
  2
*D12
 70
     1
 10
0.0
 20
0.0
 30
0.0
  3
*D12
  1

  0
LINE
  5
181DD
330
163ED
100
AcDbEntity
  8
寸法
 62
     0
 48
50.0
370
    -2
100
AcDbLine
 10
1966.149345219508
 20
10163.12359164091
 30
0.0
 11
1966.149345219508
 21
10418.9318112659
 31
0.0
  0
LINE
  5
181DE
330
163ED
100
AcDbEntity
  8
寸法
 62
     0
 48
50.0
370
    -2
100
AcDbLine
 10
2021.149345219543
 20
10163.12359164091
 30
0.0
 11
2021.149345219543
 21
10418.9318112659
 31
0.0
  0
LINE
  5
181DF
330
163ED
100
AcDbEntity
  8
寸法
 62
     0
 48
50.0
370
    -2
100
AcDbLine
 10
2021.149345219543
 20
10358.9318112659
 30
0.0
 11
2121.149345219543
 21
10358.9318112659
 31
0.0
  0
LINE
  5
181E0
330
163ED
100
AcDbEntity
  8
寸法
 62
     0
 48
50.0
370
    -2
100
AcDbLine
 10
1966.149345219508
 20
10358.9318112659
 30
0.0
 11
1549.178782471031
 21
10358.9318112659
 31
0.0
  0
LINE
  5
181E1
330
163ED
100
AcDbEntity
  8
寸法
 62
     0
 48
50.0
370
    -2
100
AcDbLine
 10
2021.149345219543
 20
10358.9318112659
 30
0.0
 11
1966.149345219508
 21
10358.9318112659
 31
0.0
  0
INSERT
  5
181E2
330
163ED
100
AcDbEntity
  8
寸法
 62
     0
 48
50.0
370
    -2
100
AcDbBlockReference
  2
_DOTSMALL
 10
2021.149345219543
 20
10358.9318112659
 30
0.0
 41
100.0
 42
100.0
 43
100.0
 50
180.0
  0
INSERT
  5
181E3
330
163ED
100
AcDbEntity
  8
寸法
 62
     0
 48
50.0
370
    -2
100
AcDbBlockReference
  2
_DOTSMALL
 10
1966.149345219508
 20
10358.9318112659
 30
0.0
 41
100.0
 42
100.0
 43
100.0
  0
MTEXT
  5
181E4
330
163ED
100
AcDbEntity
  8
寸法
 62
     7
 48
50.0
100
AcDbMText
 10
1657.664063845269
 20
10458.9318112659
 30
0.0
 40
120.0
 41
0.0
 71
     5
 72
     1
  1
\A1;55
  7
STYLE1
 73
     1
 44
1.0
1001
ACAD
1000
MTEXTBEGIN
1070
    73
1070
     1
1070
    44
1040
1.0
1070
    74
1070
     0
1000
MTEXTEND
  0
POINT
  5
181E5
330
163ED
100
AcDbEntity
  8
DEFPOINTS
 62
     0
 48
50.0
100
AcDbPoint
 10
1966.149345219508
 20
10143.12359164091
 30
0.0
  0
POINT
  5
181E6
330
163ED
100
AcDbEntity
  8
DEFPOINTS
 62
     0
 48
50.0
100
AcDbPoint
 10
2021.149345219543
 20
10143.12359164091
 30
0.0
  0
POINT
  5
181E7
330
163ED
100
AcDbEntity
  8
DEFPOINTS
 62
     0
 48
50.0
100
AcDbPoint
 10
2021.149345219543
 20
10358.9318112659
 30
0.0
  0
ENDBLK
  5
164BC
330
163ED
100
AcDbEntity
  8
0
 48
50.0
100
AcDbBlockEnd
  0
BLOCK
  5
164BD
330
163FB
100
AcDbEntity
  8
0
 48
50.0
100
AcDbBlockBegin
  2
*D13
 70
     1
 10
0.0
 20
0.0
 30
0.0
  3
*D13
  1

  0
LINE
  5
181D2
330
163FB
100
AcDbEntity
  8
寸法
 62
     0
 48
50.0
370
    -2
100
AcDbLine
 10
9801.149345219542
 20
10163.12359164101
 30
0.0
 11
9801.149345219542
 21
10418.93181126599
 31
0.0
  0
LINE
  5
181D3
330
163FB
100
AcDbEntity
  8
寸法
 62
     0
 48
50.0
370
    -2
100
AcDbLine
 10
9856.149345219543
 20
10163.12359164101
 30
0.0
 11
9856.149345219543
 21
10418.93181126599
 31
0.0
  0
LINE
  5
181D4
330
163FB
100
AcDbEntity
  8
寸法
 62
     0
 48
50.0
370
    -2
100
AcDbLine
 10
9801.149345219542
 20
10358.93181126599
 30
0.0
 11
9701.149345219542
 21
10358.93181126599
 31
0.0
  0
LINE
  5
181D5
330
163FB
100
AcDbEntity
  8
寸法
 62
     0
 48
50.0
370
    -2
100
AcDbLine
 10
9856.149345219543
 20
10358.93181126599
 30
0.0
 11
10273.11990796802
 21
10358.93181126599
 31
0.0
  0
LINE
  5
181D6
330
163FB
100
AcDbEntity
  8
寸法
 62
     0
 48
50.0
370
    -2
100
AcDbLine
 10
9801.149345219542
 20
10358.93181126599
 30
0.0
 11
9856.149345219543
 21
10358.93181126599
 31
0.0
  0
INSERT
  5
181D7
330
163FB
100
AcDbEntity
  8
寸法
 62
     0
 48
50.0
370
    -2
100
AcDbBlockReference
  2
_DOTSMALL
 10
9801.149345219542
 20
10358.93181126599
 30
0.0
 41
100.0
 42
100.0
 43
100.0
  0
INSERT
  5
181D8
330
163FB
100
AcDbEntity
  8
寸法
 62
     0
 48
50.0
370
    -2
100
AcDbBlockReference
  2
_DOTSMALL
 10
9856.149345219543
 20
10358.93181126599
 30
0.0
 41
100.0
 42
100.0
 43
100.0
 50
180.0
  0
MTEXT
  5
181D9
330
163FB
100
AcDbEntity
  8
寸法
 62
     7
 48
50.0
100
AcDbMText
 10
10164.63462659378
 20
10458.93181126599
 30
0.0
 40
120.0
 41
0.0
 71
     5
 72
     1
  1
\A1;55
  7
STYLE1
 73
     1
 44
1.0
1001
ACAD
1000
MTEXTBEGIN
1070
    73
1070
     1
1070
    44
1040
1.0
1070
    74
1070
     0
1000
MTEXTEND
  0
POINT
  5
181DA
330
163FB
100
AcDbEntity
  8
DEFPOINTS
 62
     0
 48
50.0
100
AcDbPoint
 10
9801.149345219542
 20
10143.12359164101
 30
0.0
  0
POINT
  5
181DB
330
163FB
100
AcDbEntity
  8
DEFPOINTS
 62
     0
 48
50.0
100
AcDbPoint
 10
9856.149345219543
 20
10143.12359164101
 30
0.0
  0
POINT
  5
181DC
330
163FB
100
AcDbEntity
  8
DEFPOINTS
 62
     0
 48
50.0
100
AcDbPoint
 10
9856.149345219543
 20
10358.93181126599
 30
0.0
  0
ENDBLK
  5
164C9
330
163FB
100
AcDbEntity
  8
0
 48
50.0
100
AcDbBlockEnd
  0
BLOCK
  5
165B6
330
165B5
100
AcDbEntity
  8
0
 48
50.0
100
AcDbBlockBegin
  2
*D14
 70
     1
 10
0.0
 20
0.0
 30
0.0
  3
*D14
  1

  0
LINE
  5
181BC
330
165B5
100
AcDbEntity
  8
寸法
 62
     0
 48
50.0
370
    -2
100
AcDbLine
 10
2069.149345219535
 20
7519.123591640912
 30
0.0
 11
2069.149345219535
 21
6918.692820874749
 31
0.0
  0
LINE
  5
181BD
330
165B5
100
AcDbEntity
  8
寸法
 62
     0
 48
50.0
370
    -2
100
AcDbLine
 10
2021.149345219532
 20
7493.123591640912
 30
0.0
 11
2021.149345219532
 21
6918.692820874749
 31
0.0
  0
LINE
  5
181BE
330
165B5
100
AcDbEntity
  8
寸法
 62
     0
 48
50.0
370
    -2
100
AcDbLine
 10
2069.149345219535
 20
6978.692820874748
 30
0.0
 11
2169.149345219536
 21
6978.692820874748
 31
0.0
  0
LINE
  5
181BF
330
165B5
100
AcDbEntity
  8
寸法
 62
     0
 48
50.0
370
    -2
100
AcDbLine
 10
2021.149345219532
 20
6978.692820874748
 30
0.0
 11
1921.149345219532
 21
6978.692820874748
 31
0.0
  0
MTEXT
  5
181C0
330
165B5
100
AcDbEntity
  8
寸法
 62
     7
 48
50.0
100
AcDbMText
 10
2182.051316219593
 20
7078.692820874748
 30
0.0
 40
120.0
 41
0.0
 71
     5
 72
     1
  1
\A1;48
  7
STYLE1
 73
     1
 44
1.0
1001
ACAD
1000
MTEXTBEGIN
1070
    73
1070
     1
1070
    44
1040
1.0
1070
    74
1070
     0
1000
MTEXTEND
  0
LINE
  5
181C1
330
165B5
100
AcDbEntity
  8
寸法
 62
     0
 48
50.0
370
    -2
100
AcDbLine
 10
2069.149345219535
 20
6978.692820874748
 30
0.0
 11
2021.149345219532
 21
6978.692820874748
 31
0.0
  0
INSERT
  5
181C2
330
165B5
100
AcDbEntity
  8
寸法
 62
     0
 48
50.0
370
    -2
100
AcDbBlockReference
  2
_DOTSMALL
 10
2069.149345219535
 20
6978.692820874748
 30
0.0
 41
100.0
 42
100.0
 43
100.0
 50
180.0
  0
INSERT
  5
181C3
330
165B5
100
AcDbEntity
  8
寸法
 62
     0
 48
50.0
370
    -2
100
AcDbBlockReference
  2
_DOTSMALL
 10
2021.149345219532
 20
6978.692820874748
 30
0.0
 41
100.0
 42
100.0
 43
100.0
  0
POINT
  5
181C4
330
165B5
100
AcDbEntity
  8
DEFPOINTS
 62
     0
 48
50.0
100
AcDbPoint
 10
2069.149345219535
 20
7539.123591640913
 30
0.0
  0
POINT
  5
181C5
330
165B5
100
AcDbEntity
  8
DEFPOINTS
 62
     0
 48
50.0
100
AcDbPoint
 10
2021.149345219532
 20
7513.123591640912
 30
0.0
  0
POINT
  5
181C6
330
165B5
100
AcDbEntity
  8
DEFPOINTS
 62
     0
 48
50.0
100
AcDbPoint
 10
2021.149345219532
 20
6978.692820874748
 30
0.0
  0
ENDBLK
  5
165C3
330
165B5
100
AcDbEntity
  8
0
 48
50.0
100
AcDbBlockEnd
  0
BLOCK
  5
165C5
330
165C4
100
AcDbEntity
  8
0
 48
50.0
100
AcDbBlockBegin
  2
*D15
 70
     1
 10
0.0
 20
0.0
 30
0.0
  3
*D15
  1

  0
LINE
  5
181C7
330
165C4
100
AcDbEntity
  8
寸法
 62
     0
 48
50.0
370
    -2
100
AcDbLine
 10
7171.14934521952
 20
7493.123591641
 30
0.0
 11
7171.14934521952
 21
6918.692820874749
 31
0.0
  0
LINE
  5
181C8
330
165C4
100
AcDbEntity
  8
寸法
 62
     0
 48
50.0
370
    -2
100
AcDbLine
 10
7123.149345219518
 20
7519.123591640912
 30
0.0
 11
7123.149345219518
 21
6918.692820874749
 31
0.0
  0
LINE
  5
181C9
330
165C4
100
AcDbEntity
  8
寸法
 62
     0
 48
50.0
370
    -2
100
AcDbLine
 10
7171.14934521952
 20
6978.692820874748
 30
0.0
 11
7271.149345219519
 21
6978.692820874748
 31
0.0
  0
LINE
  5
181CA
330
165C4
100
AcDbEntity
  8
寸法
 62
     0
 48
50.0
370
    -2
100
AcDbLine
 10
7123.149345219518
 20
6978.692820874748
 30
0.0
 11
7023.149345219518
 21
6978.692820874748
 31
0.0
  0
MTEXT
  5
181CB
330
165C4
100
AcDbEntity
  8
寸法
 62
     7
 48
50.0
100
AcDbMText
 10
7012.186447570769
 20
7078.692820874748
 30
0.0
 40
120.0
 41
0.0
 71
     5
 72
     1
  1
\A1;48
  7
STYLE1
 73
     1
 44
1.0
1001
ACAD
1000
MTEXTBEGIN
1070
    73
1070
     1
1070
    44
1040
1.0
1070
    74
1070
     0
1000
MTEXTEND
  0
LINE
  5
181CC
330
165C4
100
AcDbEntity
  8
寸法
 62
     0
 48
50.0
370
    -2
100
AcDbLine
 10
7171.14934521952
 20
6978.692820874748
 30
0.0
 11
7123.149345219518
 21
6978.692820874748
 31
0.0
  0
INSERT
  5
181CD
330
165C4
100
AcDbEntity
  8
寸法
 62
     0
 48
50.0
370
    -2
100
AcDbBlockReference
  2
_DOTSMALL
 10
7171.14934521952
 20
6978.692820874748
 30
0.0
 41
100.0
 42
100.0
 43
100.0
 50
180.0
  0
INSERT
  5
181CE
330
165C4
100
AcDbEntity
  8
寸法
 62
     0
 48
50.0
370
    -2
100
AcDbBlockReference
  2
_DOTSMALL
 10
7123.149345219518
 20
6978.692820874748
 30
0.0
 41
100.0
 42
100.0
 43
100.0
  0
POINT
  5
181CF
330
165C4
100
AcDbEntity
  8
DEFPOINTS
 62
     0
 48
50.0
100
AcDbPoint
 10
7171.14934521952
 20
7513.123591641001
 30
0.0
  0
POINT
  5
181D0
330
165C4
100
AcDbEntity
  8
DEFPOINTS
 62
     0
 48
50.0
100
AcDbPoint
 10
7123.149345219518
 20
7539.123591640913
 30
0.0
  0
POINT
  5
181D1
330
165C4
100
AcDbEntity
  8
DEFPOINTS
 62
     0
 48
50.0
100
AcDbPoint
 10
7123.149345219518
 20
6978.692820874748
 30
0.0
  0
ENDBLK
  5
165D2
330
165C4
100
AcDbEntity
  8
0
 48
50.0
100
AcDbBlockEnd
  0
BLOCK
  5
1663F
330
165EA
100
AcDbEntity
  8
0
 48
50.0
100
AcDbBlockBegin
  2
*D16
 70
     1
 10
0.0
 20
0.0
 30
0.0
  3
*D16
  1

  0
LINE
  5
181B3
330
165EA
100
AcDbEntity
  8
寸法
 62
     0
 48
50.0
370
    -2
100
AcDbLine
 10
7281.149345219532
 20
7493.123591640912
 30
0.0
 11
7281.149345219532
 21
6918.69282087475
 31
0.0
  0
LINE
  5
181B4
330
165EA
100
AcDbEntity
  8
寸法
 62
     0
 48
50.0
370
    -2
100
AcDbLine
 10
7171.14934521952
 20
7493.123591641
 30
0.0
 11
7171.14934521952
 21
6918.69282087475
 31
0.0
  0
LINE
  5
181B5
330
165EA
100
AcDbEntity
  8
寸法
 62
     0
 48
50.0
370
    -2
100
AcDbLine
 10
7281.149345219532
 20
6978.69282087475
 30
0.0
 11
7171.14934521952
 21
6978.69282087475
 31
0.0
  0
MTEXT
  5
181B6
330
165EA
100
AcDbEntity
  8
寸法
 62
     7
 48
50.0
100
AcDbMText
 10
7226.149345219525
 20
6827.000925838518
 30
0.0
 40
120.0
 41
0.0
 71
     5
 72
     1
  1
\A1;110
  7
STYLE1
 73
     1
 44
1.0
1001
ACAD
1000
MTEXTBEGIN
1070
    73
1070
     1
1070
    44
1040
1.0
1070
    74
1070
     0
1000
MTEXTEND
  0
INSERT
  5
181B7
330
165EA
100
AcDbEntity
  8
寸法
 62
     0
 48
50.0
370
    -2
100
AcDbBlockReference
  2
_DOTSMALL
 10
7281.149345219532
 20
6978.69282087475
 30
0.0
 41
100.0
 42
100.0
 43
100.0
  0
INSERT
  5
181B8
330
165EA
100
AcDbEntity
  8
寸法
 62
     0
 48
50.0
370
    -2
100
AcDbBlockReference
  2
_DOTSMALL
 10
7171.14934521952
 20
6978.69282087475
 30
0.0
 41
100.0
 42
100.0
 43
100.0
 50
180.0
  0
POINT
  5
181B9
330
165EA
100
AcDbEntity
  8
DEFPOINTS
 62
     0
 48
50.0
100
AcDbPoint
 10
7281.149345219532
 20
7513.123591640912
 30
0.0
  0
POINT
  5
181BA
330
165EA
100
AcDbEntity
  8
DEFPOINTS
 62
     0
 48
50.0
100
AcDbPoint
 10
7171.14934521952
 20
7513.123591641001
 30
0.0
  0
POINT
  5
181BB
330
165EA
100
AcDbEntity
  8
DEFPOINTS
 62
     0
 48
50.0
100
AcDbPoint
 10
7171.14934521952
 20
6978.69282087475
 30
0.0
  0
ENDBLK
  5
16649
330
165EA
100
AcDbEntity
  8
0
 48
50.0
100
AcDbBlockEnd
  0
BLOCK
  5
166D0
330
166CF
100
AcDbEntity
  8
0
 48
50.0
100
AcDbBlockBegin
  2
*D17
 70
     1
 10
0.0
 20
0.0
 30
0.0
  3
*D17
  1

  0
LINE
  5
181A8
330
166CF
100
AcDbEntity
  8
寸法
 62
     0
 48
50.0
370
    -2
100
AcDbLine
 10
7281.149345219543
 20
10163.12359164096
 30
0.0
 11
7281.149345219543
 21
10418.93181126601
 31
0.0
  0
LINE
  5
181A9
330
166CF
100
AcDbEntity
  8
寸法
 62
     0
 48
50.0
370
    -2
100
AcDbLine
 10
7171.149345219543
 20
10163.12359164096
 30
0.0
 11
7171.149345219543
 21
10418.93181126601
 31
0.0
  0
LINE
  5
181AA
330
166CF
100
AcDbEntity
  8
寸法
 62
     0
 48
50.0
370
    -2
100
AcDbLine
 10
7281.149345219543
 20
10358.93181126601
 30
0.0
 11
7381.149345219544
 21
10358.93181126601
 31
0.0
  0
LINE
  5
181AB
330
166CF
100
AcDbEntity
  8
寸法
 62
     0
 48
50.0
370
    -2
100
AcDbLine
 10
7171.149345219543
 20
10358.93181126601
 30
0.0
 11
7071.149345219542
 21
10358.93181126601
 31
0.0
  0
LINE
  5
181AC
330
166CF
100
AcDbEntity
  8
寸法
 62
     0
 48
50.0
370
    -2
100
AcDbLine
 10
7281.149345219543
 20
10358.93181126601
 30
0.0
 11
7171.149345219543
 21
10358.93181126601
 31
0.0
  0
INSERT
  5
181AD
330
166CF
100
AcDbEntity
  8
寸法
 62
     0
 48
50.0
370
    -2
100
AcDbBlockReference
  2
_DOTSMALL
 10
7281.149345219543
 20
10358.93181126601
 30
0.0
 41
100.0
 42
100.0
 43
100.0
 50
180.0
  0
INSERT
  5
181AE
330
166CF
100
AcDbEntity
  8
寸法
 62
     0
 48
50.0
370
    -2
100
AcDbBlockReference
  2
_DOTSMALL
 10
7171.149345219543
 20
10358.93181126601
 30
0.0
 41
100.0
 42
100.0
 43
100.0
  0
MTEXT
  5
181AF
330
166CF
100
AcDbEntity
  8
寸法
 62
     7
 48
50.0
100
AcDbMText
 10
7226.149345219543
 20
10458.93181126601
 30
0.0
 40
120.0
 41
0.0
 71
     5
 72
     1
  1
\A1;110
  7
STYLE1
 73
     1
 44
1.0
1001
ACAD
1000
MTEXTBEGIN
1070
    73
1070
     1
1070
    44
1040
1.0
1070
    74
1070
     0
1000
MTEXTEND
  0
POINT
  5
181B0
330
166CF
100
AcDbEntity
  8
DEFPOINTS
 62
     0
 48
50.0
100
AcDbPoint
 10
7281.149345219543
 20
10143.12359164096
 30
0.0
  0
POINT
  5
181B1
330
166CF
100
AcDbEntity
  8
DEFPOINTS
 62
     0
 48
50.0
100
AcDbPoint
 10
7171.149345219543
 20
10143.12359164096
 30
0.0
  0
POINT
  5
181B2
330
166CF
100
AcDbEntity
  8
DEFPOINTS
 62
     0
 48
50.0
100
AcDbPoint
 10
7171.149345219543
 20
10358.93181126601
 30
0.0
  0
ENDBLK
  5
166DC
330
166CF
100
AcDbEntity
  8
0
 48
50.0
100
AcDbBlockEnd
  0
BLOCK
  5
17219
330
16908
100
AcDbEntity
  8
0
 48
50.0
100
AcDbBlockBegin
  2
*D18
 70
     1
 10
0.0
 20
0.0
 30
0.0
  3
*D18
  1

  0
LINE
  5
1819F
330
16908
100
AcDbEntity
  8
寸法
 62
     0
 48
50.0
370
    -2
100
AcDbLine
 10
7226.149345219543
 20
10537.91972562396
 30
0.0
 11
7226.149345219543
 21
10668.25328482231
 31
0.0
  0
LINE
  5
181A0
330
16908
100
AcDbEntity
  8
寸法
 62
     0
 48
50.0
370
    -2
100
AcDbLine
 10
9856.149345219543
 20
10163.12359164101
 30
0.0
 11
9856.149345219543
 21
10668.25328482231
 31
0.0
  0
LINE
  5
181A1
330
16908
100
AcDbEntity
  8
寸法
 62
     0
 48
50.0
370
    -2
100
AcDbLine
 10
7226.149345219543
 20
10608.25328482231
 30
0.0
 11
9856.149345219543
 21
10608.25328482231
 31
0.0
  0
INSERT
  5
181A2
330
16908
100
AcDbEntity
  8
寸法
 62
     0
 48
50.0
370
    -2
100
AcDbBlockReference
  2
_DOTSMALL
 10
7226.149345219543
 20
10608.25328482231
 30
0.0
 41
100.0
 42
100.0
 43
100.0
 50
180.0
  0
INSERT
  5
181A3
330
16908
100
AcDbEntity
  8
寸法
 62
     0
 48
50.0
370
    -2
100
AcDbBlockReference
  2
_DOTSMALL
 10
9856.149345219543
 20
10608.25328482231
 30
0.0
 41
100.0
 42
100.0
 43
100.0
  0
MTEXT
  5
181A4
330
16908
100
AcDbEntity
  8
寸法
 62
     7
 48
50.0
100
AcDbMText
 10
8541.149345219542
 20
10708.26509584593
 30
0.0
 40
120.0
 41
0.0
 71
     5
 72
     1
  1
\A1;2630
  7
STYLE1
 73
     1
 44
1.0
1001
ACAD
1000
MTEXTBEGIN
1070
    73
1070
     1
1070
    44
1040
1.0
1070
    74
1070
     0
1000
MTEXTEND
  0
POINT
  5
181A5
330
16908
100
AcDbEntity
  8
DEFPOINTS
 62
     0
 48
50.0
100
AcDbPoint
 10
7226.149345219543
 20
10517.91972562396
 30
0.0
  0
POINT
  5
181A6
330
16908
100
AcDbEntity
  8
DEFPOINTS
 62
     0
 48
50.0
100
AcDbPoint
 10
9856.149345219543
 20
10143.12359164101
 30
0.0
  0
POINT
  5
181A7
330
16908
100
AcDbEntity
  8
DEFPOINTS
 62
     0
 48
50.0
100
AcDbPoint
 10
9856.149345219543
 20
10608.25328482231
 30
0.0
  0
ENDBLK
  5
17223
330
16908
100
AcDbEntity
  8
0
 48
50.0
100
AcDbBlockEnd
  0
BLOCK
  5
170B6
330
170B5
100
AcDbEntity
  8
0
 48
50.0
100
AcDbBlockBegin
  2
*D19
 70
     1
 10
0.0
 20
0.0
 30
0.0
  3
*D19
  1

  0
LINE
  5
18178
330
170B5
100
AcDbEntity
  8
寸法
 62
     0
 48
50.0
370
    -2
100
AcDbLine
 10
4699.149345219535
 20
7519.123591640912
 30
0.0
 11
4699.149345219535
 21
6918.692820874749
 31
0.0
  0
LINE
  5
18179
330
170B5
100
AcDbEntity
  8
寸法
 62
     0
 48
50.0
370
    -2
100
AcDbLine
 10
4651.149345219532
 20
7493.123591640912
 30
0.0
 11
4651.149345219532
 21
6918.692820874749
 31
0.0
  0
LINE
  5
1817A
330
170B5
100
AcDbEntity
  8
寸法
 62
     0
 48
50.0
370
    -2
100
AcDbLine
 10
4699.149345219535
 20
6978.692820874748
 30
0.0
 11
4799.149345219535
 21
6978.692820874748
 31
0.0
  0
LINE
  5
1817B
330
170B5
100
AcDbEntity
  8
寸法
 62
     0
 48
50.0
370
    -2
100
AcDbLine
 10
4651.149345219532
 20
6978.692820874748
 30
0.0
 11
4551.149345219531
 21
6978.692820874748
 31
0.0
  0
MTEXT
  5
1817C
330
170B5
100
AcDbEntity
  8
寸法
 62
     7
 48
50.0
100
AcDbMText
 10
4812.051316219593
 20
7078.692820874748
 30
0.0
 40
120.0
 41
0.0
 71
     5
 72
     1
  1
\A1;48
  7
STYLE1
 73
     1
 44
1.0
1001
ACAD
1000
MTEXTBEGIN
1070
    73
1070
     1
1070
    44
1040
1.0
1070
    74
1070
     0
1000
MTEXTEND
  0
LINE
  5
1817D
330
170B5
100
AcDbEntity
  8
寸法
 62
     0
 48
50.0
370
    -2
100
AcDbLine
 10
4699.149345219535
 20
6978.692820874748
 30
0.0
 11
4651.149345219532
 21
6978.692820874748
 31
0.0
  0
INSERT
  5
1817E
330
170B5
100
AcDbEntity
  8
寸法
 62
     0
 48
50.0
370
    -2
100
AcDbBlockReference
  2
_DOTSMALL
 10
4699.149345219535
 20
6978.692820874748
 30
0.0
 41
100.0
 42
100.0
 43
100.0
 50
180.0
  0
INSERT
  5
1817F
330
170B5
100
AcDbEntity
  8
寸法
 62
     0
 48
50.0
370
    -2
100
AcDbBlockReference
  2
_DOTSMALL
 10
4651.149345219532
 20
6978.692820874748
 30
0.0
 41
100.0
 42
100.0
 43
100.0
  0
POINT
  5
18180
330
170B5
100
AcDbEntity
  8
DEFPOINTS
 62
     0
 48
50.0
100
AcDbPoint
 10
4699.149345219535
 20
7539.123591640913
 30
0.0
  0
POINT
  5
18181
330
170B5
100
AcDbEntity
  8
DEFPOINTS
 62
     0
 48
50.0
100
AcDbPoint
 10
4651.149345219532
 20
7513.123591640912
 30
0.0
  0
POINT
  5
18182
330
170B5
100
AcDbEntity
  8
DEFPOINTS
 62
     0
 48
50.0
100
AcDbPoint
 10
4651.149345219532
 20
6978.692820874748
 30
0.0
  0
ENDBLK
  5
170C3
330
170B5
100
AcDbEntity
  8
0
 48
50.0
100
AcDbBlockEnd
  0
BLOCK
  5
170C5
330
170C4
100
AcDbEntity
  8
0
 48
50.0
100
AcDbBlockBegin
  2
*D20
 70
     1
 10
0.0
 20
0.0
 30
0.0
  3
*D20
  1

  0
LINE
  5
1818C
330
170C4
100
AcDbEntity
  8
寸法
 62
     0
 48
50.0
370
    -2
100
AcDbLine
 10
4541.149345219519
 20
7493.123591641
 30
0.0
 11
4541.149345219519
 21
6918.692820874749
 31
0.0
  0
LINE
  5
1818D
330
170C4
100
AcDbEntity
  8
寸法
 62
     0
 48
50.0
370
    -2
100
AcDbLine
 10
4493.149345219517
 20
7519.123591640912
 30
0.0
 11
4493.149345219517
 21
6918.692820874749
 31
0.0
  0
LINE
  5
1818E
330
170C4
100
AcDbEntity
  8
寸法
 62
     0
 48
50.0
370
    -2
100
AcDbLine
 10
4541.149345219519
 20
6978.692820874748
 30
0.0
 11
4641.14934521952
 21
6978.692820874748
 31
0.0
  0
LINE
  5
1818F
330
170C4
100
AcDbEntity
  8
寸法
 62
     0
 48
50.0
370
    -2
100
AcDbLine
 10
4493.149345219517
 20
6978.692820874748
 30
0.0
 11
4393.149345219518
 21
6978.692820874748
 31
0.0
  0
MTEXT
  5
18190
330
170C4
100
AcDbEntity
  8
寸法
 62
     7
 48
50.0
100
AcDbMText
 10
4382.186447570769
 20
7078.692820874748
 30
0.0
 40
120.0
 41
0.0
 71
     5
 72
     1
  1
\A1;48
  7
STYLE1
 73
     1
 44
1.0
1001
ACAD
1000
MTEXTBEGIN
1070
    73
1070
     1
1070
    44
1040
1.0
1070
    74
1070
     0
1000
MTEXTEND
  0
LINE
  5
18191
330
170C4
100
AcDbEntity
  8
寸法
 62
     0
 48
50.0
370
    -2
100
AcDbLine
 10
4541.149345219519
 20
6978.692820874748
 30
0.0
 11
4493.149345219517
 21
6978.692820874748
 31
0.0
  0
INSERT
  5
18192
330
170C4
100
AcDbEntity
  8
寸法
 62
     0
 48
50.0
370
    -2
100
AcDbBlockReference
  2
_DOTSMALL
 10
4541.149345219519
 20
6978.692820874748
 30
0.0
 41
100.0
 42
100.0
 43
100.0
 50
180.0
  0
INSERT
  5
18193
330
170C4
100
AcDbEntity
  8
寸法
 62
     0
 48
50.0
370
    -2
100
AcDbBlockReference
  2
_DOTSMALL
 10
4493.149345219517
 20
6978.692820874748
 30
0.0
 41
100.0
 42
100.0
 43
100.0
  0
POINT
  5
18194
330
170C4
100
AcDbEntity
  8
DEFPOINTS
 62
     0
 48
50.0
100
AcDbPoint
 10
4541.149345219519
 20
7513.123591641001
 30
0.0
  0
POINT
  5
18195
330
170C4
100
AcDbEntity
  8
DEFPOINTS
 62
     0
 48
50.0
100
AcDbPoint
 10
4493.149345219517
 20
7539.123591640913
 30
0.0
  0
POINT
  5
18196
330
170C4
100
AcDbEntity
  8
DEFPOINTS
 62
     0
 48
50.0
100
AcDbPoint
 10
4493.149345219517
 20
6978.692820874748
 30
0.0
  0
ENDBLK
  5
170D2
330
170C4
100
AcDbEntity
  8
0
 48
50.0
100
AcDbBlockEnd
  0
BLOCK
  5
170D4
330
170D3
100
AcDbEntity
  8
0
 48
50.0
100
AcDbBlockBegin
  2
*D21
 70
     1
 10
0.0
 20
0.0
 30
0.0
  3
*D21
  1

  0
LINE
  5
18197
330
170D3
100
AcDbEntity
  8
寸法
 62
     0
 48
50.0
370
    -2
100
AcDbLine
 10
2069.149345219535
 20
7519.123591640912
 30
0.0
 11
2069.149345219535
 21
6918.692820874749
 31
0.0
  0
LINE
  5
18198
330
170D3
100
AcDbEntity
  8
寸法
 62
     0
 48
50.0
370
    -2
100
AcDbLine
 10
4493.149345219517
 20
6978.692820874748
 30
0.0
 11
2069.149345219535
 21
6978.692820874748
 31
0.0
  0
INSERT
  5
18199
330
170D3
100
AcDbEntity
  8
寸法
 62
     0
 48
50.0
370
    -2
100
AcDbBlockReference
  2
_DOTSMALL
 10
4493.149345219517
 20
6978.692820874748
 30
0.0
 41
100.0
 42
100.0
 43
100.0
  0
INSERT
  5
1819A
330
170D3
100
AcDbEntity
  8
寸法
 62
     0
 48
50.0
370
    -2
100
AcDbBlockReference
  2
_DOTSMALL
 10
2069.149345219535
 20
6978.692820874748
 30
0.0
 41
100.0
 42
100.0
 43
100.0
 50
180.0
  0
MTEXT
  5
1819B
330
170D3
100
AcDbEntity
  8
寸法
 62
     7
 48
50.0
100
AcDbMText
 10
3281.149345219527
 20
7078.70463189837
 30
0.0
 40
120.0
 41
0.0
 71
     5
 72
     1
  1
\A1;有効開口部間口 2424
  7
STYLE1
 73
     1
 44
1.0
1001
ACAD
1000
MTEXTBEGIN
1070
    73
1070
     1
1070
    44
1040
1.0
1070
    74
1070
     0
1000
MTEXTEND
  0
POINT
  5
1819C
330
170D3
100
AcDbEntity
  8
DEFPOINTS
 62
     0
 48
50.0
100
AcDbPoint
 10
4493.149345219517
 20
7539.123591640913
 30
0.0
  0
POINT
  5
1819D
330
170D3
100
AcDbEntity
  8
DEFPOINTS
 62
     0
 48
50.0
100
AcDbPoint
 10
2069.149345219535
 20
7539.123591640913
 30
0.0
  0
POINT
  5
1819E
330
170D3
100
AcDbEntity
  8
DEFPOINTS
 62
     0
 48
50.0
100
AcDbPoint
 10
2069.149345219535
 20
6978.692820874748
 30
0.0
  0
ENDBLK
  5
170DD
330
170D3
100
AcDbEntity
  8
0
 48
50.0
100
AcDbBlockEnd
  0
BLOCK
  5
170DF
330
170DE
100
AcDbEntity
  8
0
 48
50.0
100
AcDbBlockBegin
  2
*D22
 70
     1
 10
0.0
 20
0.0
 30
0.0
  3
*D22
  1

  0
LINE
  5
18183
330
170DE
100
AcDbEntity
  8
寸法
 62
     0
 48
50.0
370
    -2
100
AcDbLine
 10
4651.149345219532
 20
7493.123591640912
 30
0.0
 11
4651.149345219532
 21
6918.69282087475
 31
0.0
  0
LINE
  5
18184
330
170DE
100
AcDbEntity
  8
寸法
 62
     0
 48
50.0
370
    -2
100
AcDbLine
 10
4541.149345219519
 20
7493.123591641
 30
0.0
 11
4541.149345219519
 21
6918.69282087475
 31
0.0
  0
LINE
  5
18185
330
170DE
100
AcDbEntity
  8
寸法
 62
     0
 48
50.0
370
    -2
100
AcDbLine
 10
4651.149345219532
 20
6978.69282087475
 30
0.0
 11
4541.149345219519
 21
6978.69282087475
 31
0.0
  0
MTEXT
  5
18186
330
170DE
100
AcDbEntity
  8
寸法
 62
     7
 48
50.0
100
AcDbMText
 10
4596.149345219525
 20
6827.000925838518
 30
0.0
 40
120.0
 41
0.0
 71
     5
 72
     1
  1
\A1;110
  7
STYLE1
 73
     1
 44
1.0
1001
ACAD
1000
MTEXTBEGIN
1070
    73
1070
     1
1070
    44
1040
1.0
1070
    74
1070
     0
1000
MTEXTEND
  0
INSERT
  5
18187
330
170DE
100
AcDbEntity
  8
寸法
 62
     0
 48
50.0
370
    -2
100
AcDbBlockReference
  2
_DOTSMALL
 10
4651.149345219532
 20
6978.69282087475
 30
0.0
 41
100.0
 42
100.0
 43
100.0
  0
INSERT
  5
18188
330
170DE
100
AcDbEntity
  8
寸法
 62
     0
 48
50.0
370
    -2
100
AcDbBlockReference
  2
_DOTSMALL
 10
4541.149345219519
 20
6978.69282087475
 30
0.0
 41
100.0
 42
100.0
 43
100.0
 50
180.0
  0
POINT
  5
18189
330
170DE
100
AcDbEntity
  8
DEFPOINTS
 62
     0
 48
50.0
100
AcDbPoint
 10
4651.149345219532
 20
7513.123591640912
 30
0.0
  0
POINT
  5
1818A
330
170DE
100
AcDbEntity
  8
DEFPOINTS
 62
     0
 48
50.0
100
AcDbPoint
 10
4541.149345219519
 20
7513.123591641001
 30
0.0
  0
POINT
  5
1818B
330
170DE
100
AcDbEntity
  8
DEFPOINTS
 62
     0
 48
50.0
100
AcDbPoint
 10
4541.149345219519
 20
6978.69282087475
 30
0.0
  0
ENDBLK
  5
170E9
330
170DE
100
AcDbEntity
  8
0
 48
50.0
100
AcDbBlockEnd
  0
BLOCK
  5
170EB
330
170EA
100
AcDbEntity
  8
0
 48
50.0
100
AcDbBlockBegin
  2
*D23
 70
     1
 10
0.0
 20
0.0
 30
0.0
  3
*D23
  1

  0
LINE
  5
18166
330
170EA
100
AcDbEntity
  8
寸法
 62
     0
 48
50.0
370
    -2
100
AcDbLine
 10
2021.149345219543
 20
10163.12359164091
 30
0.0
 11
2021.149345219543
 21
10418.93181126601
 31
0.0
  0
LINE
  5
18167
330
170EA
100
AcDbEntity
  8
寸法
 62
     0
 48
50.0
370
    -2
100
AcDbLine
 10
4541.149345219543
 20
10163.12359164101
 30
0.0
 11
4541.149345219543
 21
10418.93181126601
 31
0.0
  0
LINE
  5
18168
330
170EA
100
AcDbEntity
  8
寸法
 62
     0
 48
50.0
370
    -2
100
AcDbLine
 10
2021.149345219543
 20
10358.93181126601
 30
0.0
 11
4541.149345219543
 21
10358.93181126601
 31
0.0
  0
INSERT
  5
18169
330
170EA
100
AcDbEntity
  8
寸法
 62
     0
 48
50.0
370
    -2
100
AcDbBlockReference
  2
_DOTSMALL
 10
2021.149345219543
 20
10358.93181126601
 30
0.0
 41
100.0
 42
100.0
 43
100.0
 50
180.0
  0
INSERT
  5
1816A
330
170EA
100
AcDbEntity
  8
寸法
 62
     0
 48
50.0
370
    -2
100
AcDbBlockReference
  2
_DOTSMALL
 10
4541.149345219543
 20
10358.93181126601
 30
0.0
 41
100.0
 42
100.0
 43
100.0
  0
MTEXT
  5
1816B
330
170EA
100
AcDbEntity
  8
寸法
 62
     7
 48
50.0
100
AcDbMText
 10
3281.149345219543
 20
10458.94362228964
 30
0.0
 40
120.0
 41
0.0
 71
     5
 72
     1
  1
\A1;6X420=2520
  7
STYLE1
 73
     1
 44
1.0
1001
ACAD
1000
MTEXTBEGIN
1070
    73
1070
     1
1070
    44
1040
1.0
1070
    74
1070
     0
1000
MTEXTEND
  0
POINT
  5
1816C
330
170EA
100
AcDbEntity
  8
DEFPOINTS
 62
     0
 48
50.0
100
AcDbPoint
 10
2021.149345219543
 20
10143.12359164091
 30
0.0
  0
POINT
  5
1816D
330
170EA
100
AcDbEntity
  8
DEFPOINTS
 62
     0
 48
50.0
100
AcDbPoint
 10
4541.149345219543
 20
10143.12359164101
 30
0.0
  0
POINT
  5
1816E
330
170EA
100
AcDbEntity
  8
DEFPOINTS
 62
     0
 48
50.0
100
AcDbPoint
 10
4541.149345219543
 20
10358.93181126601
 30
0.0
  0
ENDBLK
  5
170F5
330
170EA
100
AcDbEntity
  8
0
 48
50.0
100
AcDbBlockEnd
  0
BLOCK
  5
170F7
330
170F6
100
AcDbEntity
  8
0
 48
50.0
100
AcDbBlockBegin
  2
*D24
 70
     1
 10
0.0
 20
0.0
 30
0.0
  3
*D24
  1

  0
LINE
  5
1815B
330
170F6
100
AcDbEntity
  8
寸法
 62
     0
 48
50.0
370
    -2
100
AcDbLine
 10
4651.149345219542
 20
10163.12359164096
 30
0.0
 11
4651.149345219542
 21
10418.93181126601
 31
0.0
  0
LINE
  5
1815C
330
170F6
100
AcDbEntity
  8
寸法
 62
     0
 48
50.0
370
    -2
100
AcDbLine
 10
4541.149345219543
 20
10163.12359164096
 30
0.0
 11
4541.149345219543
 21
10418.93181126601
 31
0.0
  0
LINE
  5
1815D
330
170F6
100
AcDbEntity
  8
寸法
 62
     0
 48
50.0
370
    -2
100
AcDbLine
 10
4651.149345219542
 20
10358.93181126601
 30
0.0
 11
4751.149345219543
 21
10358.93181126601
 31
0.0
  0
LINE
  5
1815E
330
170F6
100
AcDbEntity
  8
寸法
 62
     0
 48
50.0
370
    -2
100
AcDbLine
 10
4541.149345219543
 20
10358.93181126601
 30
0.0
 11
4441.149345219542
 21
10358.93181126601
 31
0.0
  0
LINE
  5
1815F
330
170F6
100
AcDbEntity
  8
寸法
 62
     0
 48
50.0
370
    -2
100
AcDbLine
 10
4651.149345219542
 20
10358.93181126601
 30
0.0
 11
4541.149345219543
 21
10358.93181126601
 31
0.0
  0
INSERT
  5
18160
330
170F6
100
AcDbEntity
  8
寸法
 62
     0
 48
50.0
370
    -2
100
AcDbBlockReference
  2
_DOTSMALL
 10
4651.149345219542
 20
10358.93181126601
 30
0.0
 41
100.0
 42
100.0
 43
100.0
 50
180.0
  0
INSERT
  5
18161
330
170F6
100
AcDbEntity
  8
寸法
 62
     0
 48
50.0
370
    -2
100
AcDbBlockReference
  2
_DOTSMALL
 10
4541.149345219543
 20
10358.93181126601
 30
0.0
 41
100.0
 42
100.0
 43
100.0
  0
MTEXT
  5
18162
330
170F6
100
AcDbEntity
  8
寸法
 62
     7
 48
50.0
100
AcDbMText
 10
4596.149345219543
 20
10458.93181126601
 30
0.0
 40
120.0
 41
0.0
 71
     5
 72
     1
  1
\A1;110
  7
STYLE1
 73
     1
 44
1.0
1001
ACAD
1000
MTEXTBEGIN
1070
    73
1070
     1
1070
    44
1040
1.0
1070
    74
1070
     0
1000
MTEXTEND
  0
POINT
  5
18163
330
170F6
100
AcDbEntity
  8
DEFPOINTS
 62
     0
 48
50.0
100
AcDbPoint
 10
4651.149345219542
 20
10143.12359164096
 30
0.0
  0
POINT
  5
18164
330
170F6
100
AcDbEntity
  8
DEFPOINTS
 62
     0
 48
50.0
100
AcDbPoint
 10
4541.149345219543
 20
10143.12359164096
 30
0.0
  0
POINT
  5
18165
330
170F6
100
AcDbEntity
  8
DEFPOINTS
 62
     0
 48
50.0
100
AcDbPoint
 10
4541.149345219543
 20
10358.93181126601
 30
0.0
  0
ENDBLK
  5
17103
330
170F6
100
AcDbEntity
  8
0
 48
50.0
100
AcDbBlockEnd
  0
BLOCK
  5
17105
330
17104
100
AcDbEntity
  8
0
 48
50.0
100
AcDbBlockBegin
  2
*D25
 70
     1
 10
0.0
 20
0.0
 30
0.0
  3
*D25
  1

  0
LINE
  5
1816F
330
17104
100
AcDbEntity
  8
寸法
 62
     0
 48
50.0
370
    -2
100
AcDbLine
 10
1966.149345219506
 20
10163.12359164088
 30
0.0
 11
1966.149345219506
 21
10668.25328482231
 31
0.0
  0
LINE
  5
18170
330
17104
100
AcDbEntity
  8
寸法
 62
     0
 48
50.0
370
    -2
100
AcDbLine
 10
4596.149345219543
 20
10537.91972562396
 30
0.0
 11
4596.149345219543
 21
10668.25328482231
 31
0.0
  0
LINE
  5
18171
330
17104
100
AcDbEntity
  8
寸法
 62
     0
 48
50.0
370
    -2
100
AcDbLine
 10
1966.149345219506
 20
10608.25328482231
 30
0.0
 11
4596.149345219543
 21
10608.25328482231
 31
0.0
  0
INSERT
  5
18172
330
17104
100
AcDbEntity
  8
寸法
 62
     0
 48
50.0
370
    -2
100
AcDbBlockReference
  2
_DOTSMALL
 10
1966.149345219506
 20
10608.25328482231
 30
0.0
 41
100.0
 42
100.0
 43
100.0
 50
180.0
  0
INSERT
  5
18173
330
17104
100
AcDbEntity
  8
寸法
 62
     0
 48
50.0
370
    -2
100
AcDbBlockReference
  2
_DOTSMALL
 10
4596.149345219543
 20
10608.25328482231
 30
0.0
 41
100.0
 42
100.0
 43
100.0
  0
MTEXT
  5
18174
330
17104
100
AcDbEntity
  8
寸法
 62
     7
 48
50.0
100
AcDbMText
 10
3281.149345219525
 20
10708.26509584593
 30
0.0
 40
120.0
 41
0.0
 71
     5
 72
     1
  1
\A1;2630
  7
STYLE1
 73
     1
 44
1.0
1001
ACAD
1000
MTEXTBEGIN
1070
    73
1070
     1
1070
    44
1040
1.0
1070
    74
1070
     0
1000
MTEXTEND
  0
POINT
  5
18175
330
17104
100
AcDbEntity
  8
DEFPOINTS
 62
     0
 48
50.0
100
AcDbPoint
 10
1966.149345219506
 20
10143.12359164088
 30
0.0
  0
POINT
  5
18176
330
17104
100
AcDbEntity
  8
DEFPOINTS
 62
     0
 48
50.0
100
AcDbPoint
 10
4596.149345219543
 20
10517.91972562396
 30
0.0
  0
POINT
  5
18177
330
17104
100
AcDbEntity
  8
DEFPOINTS
 62
     0
 48
50.0
100
AcDbPoint
 10
4596.149345219543
 20
10608.25328482231
 30
0.0
  0
ENDBLK
  5
1710F
330
17104
100
AcDbEntity
  8
0
 48
50.0
100
AcDbBlockEnd
  0
BLOCK
  5
17C88
330
17C7C
100
AcDbEntity
  8
0
 48
50.0
100
AcDbBlockBegin
  2
*D26
 70
     1
 10
0.0
 20
0.0
 30
0.0
  3
*D26
  1

  0
LINE
  5
18274
330
17C7C
100
AcDbEntity
  8
寸法
 62
     0
 48
50.0
370
    -2
100
AcDbLine
 10
9906.149345219521
 20
4831.349928194467
 30
0.0
 11
9906.149345219521
 21
5270.443097533938
 31
0.0
  0
LINE
  5
18275
330
17C7C
100
AcDbEntity
  8
寸法
 62
     0
 48
50.0
370
    -2
100
AcDbLine
 10
9856.14934521952
 20
4831.349928194469
 30
0.0
 11
9856.14934521952
 21
5270.443097533938
 31
0.0
  0
LINE
  5
18276
330
17C7C
100
AcDbEntity
  8
寸法
 62
     0
 48
50.0
370
    -2
100
AcDbLine
 10
9856.14934521952
 20
5210.443097533937
 30
0.0
 11
9756.149345219521
 21
5210.443097533937
 31
0.0
  0
LINE
  5
18277
330
17C7C
100
AcDbEntity
  8
寸法
 62
     0
 48
50.0
370
    -2
100
AcDbLine
 10
9906.149345219521
 20
5210.443097533937
 30
0.0
 11
10325.68187068824
 21
5210.443097533937
 31
0.0
  0
LINE
  5
18278
330
17C7C
100
AcDbEntity
  8
寸法
 62
     0
 48
50.0
370
    -2
100
AcDbLine
 10
9856.14934521952
 20
5210.443097533937
 30
0.0
 11
9906.149345219521
 21
5210.443097533937
 31
0.0
  0
INSERT
  5
18279
330
17C7C
100
AcDbEntity
  8
寸法
 62
     0
 48
50.0
370
    -2
100
AcDbBlockReference
  2
_DOTSMALL
 10
9856.14934521952
 20
5210.443097533937
 30
0.0
 41
100.0
 42
100.0
 43
100.0
  0
INSERT
  5
1827A
330
17C7C
100
AcDbEntity
  8
寸法
 62
     0
 48
50.0
370
    -2
100
AcDbBlockReference
  2
_DOTSMALL
 10
9906.149345219521
 20
5210.443097533937
 30
0.0
 41
100.0
 42
100.0
 43
100.0
 50
180.0
  0
MTEXT
  5
1827B
330
17C7C
100
AcDbEntity
  8
寸法
 62
     7
 48
50.0
100
AcDbMText
 10
10219.63462659376
 20
5310.443097533937
 30
0.0
 40
120.0
 41
0.0
 71
     5
 72
     1
  1
\A1;50
  7
STYLE1
 73
     1
 44
1.0
1001
ACAD
1000
MTEXTBEGIN
1070
    73
1070
     1
1070
    44
1040
1.0
1070
    74
1070
     0
1000
MTEXTEND
  0
POINT
  5
1827C
330
17C7C
100
AcDbEntity
  8
DEFPOINTS
 62
     0
 48
50.0
100
AcDbPoint
 10
9906.149345219521
 20
4811.349928194466
 30
0.0
  0
POINT
  5
1827D
330
17C7C
100
AcDbEntity
  8
DEFPOINTS
 62
     0
 48
50.0
100
AcDbPoint
 10
9856.14934521952
 20
4811.349928194469
 30
0.0
  0
POINT
  5
1827E
330
17C7C
100
AcDbEntity
  8
DEFPOINTS
 62
     0
 48
50.0
100
AcDbPoint
 10
9856.14934521952
 20
5210.443097533937
 30
0.0
  0
ENDBLK
  5
17C89
330
17C7C
100
AcDbEntity
  8
0
 48
50.0
100
AcDbBlockEnd
  0
BLOCK
  5
17EAF
330
17EA5
100
AcDbEntity
  8
0
 48
50.0
100
AcDbBlockBegin
  2
*D27
 70
     1
 10
0.0
 20
0.0
 30
0.0
  3
*D27
  1

  0
LINE
  5
18293
330
17EA5
100
AcDbEntity
  8
寸法
 62
     0
 48
50.0
370
    -2
100
AcDbLine
 10
1916.149345219528
 20
4831.349928194469
 30
0.0
 11
1916.149345219528
 21
5486.969197152383
 31
0.0
  0
LINE
  5
18294
330
17EA5
100
AcDbEntity
  8
寸法
 62
     0
 48
50.0
370
    -2
100
AcDbLine
 10
9906.149345219521
 20
4831.349928194467
 30
0.0
 11
9906.149345219521
 21
5486.969197152383
 31
0.0
  0
LINE
  5
18295
330
17EA5
100
AcDbEntity
  8
寸法
 62
     0
 48
50.0
370
    -2
100
AcDbLine
 10
1916.149345219528
 20
5426.969197152383
 30
0.0
 11
9906.149345219521
 21
5426.969197152383
 31
0.0
  0
INSERT
  5
18296
330
17EA5
100
AcDbEntity
  8
寸法
 62
     0
 48
50.0
370
    -2
100
AcDbBlockReference
  2
_DOTSMALL
 10
1916.149345219528
 20
5426.969197152383
 30
0.0
 41
100.0
 42
100.0
 43
100.0
 50
180.0
  0
INSERT
  5
18297
330
17EA5
100
AcDbEntity
  8
寸法
 62
     0
 48
50.0
370
    -2
100
AcDbBlockReference
  2
_DOTSMALL
 10
9906.149345219521
 20
5426.969197152383
 30
0.0
 41
100.0
 42
100.0
 43
100.0
  0
MTEXT
  5
18298
330
17EA5
100
AcDbEntity
  8
寸法
 62
     7
 48
50.0
100
AcDbMText
 10
5911.149345219524
 20
5526.981008176004
 30
0.0
 40
120.0
 41
0.0
 71
     5
 72
     1
  1
\A1;N X 2630+100
  7
STYLE1
 73
     1
 44
1.0
1001
ACAD
1000
MTEXTBEGIN
1070
    73
1070
     1
1070
    44
1040
1.0
1070
    74
1070
     0
1000
MTEXTEND
  0
POINT
  5
18299
330
17EA5
100
AcDbEntity
  8
DEFPOINTS
 62
     0
 48
50.0
100
AcDbPoint
 10
1916.149345219528
 20
4811.349928194469
 30
0.0
  0
POINT
  5
1829A
330
17EA5
100
AcDbEntity
  8
DEFPOINTS
 62
     0
 48
50.0
100
AcDbPoint
 10
9906.149345219521
 20
4811.349928194466
 30
0.0
  0
POINT
  5
1829B
330
17EA5
100
AcDbEntity
  8
DEFPOINTS
 62
     0
 48
50.0
100
AcDbPoint
 10
9906.149345219521
 20
5426.969197152383
 30
0.0
  0
ENDBLK
  5
17EB0
330
17EA5
100
AcDbEntity
  8
0
 48
50.0
100
AcDbBlockEnd
  0
BLOCK
  5
17EBB
330
17EB1
100
AcDbEntity
  8
0
 48
50.0
100
AcDbBlockBegin
  2
*D28
 70
     1
 10
0.0
 20
0.0
 30
0.0
  3
*D28
  1

  0
LINE
  5
1828A
330
17EB1
100
AcDbEntity
  8
寸法
 62
     0
 48
50.0
370
    -2
100
AcDbLine
 10
9856.14934521952
 20
4831.349928194469
 30
0.0
 11
9856.14934521952
 21
5270.443097533938
 31
0.0
  0
LINE
  5
1828B
330
17EB1
100
AcDbEntity
  8
寸法
 62
     0
 48
50.0
370
    -2
100
AcDbLine
 10
1966.149345219528
 20
4831.34992819447
 30
0.0
 11
1966.149345219528
 21
5270.443097533938
 31
0.0
  0
LINE
  5
1828C
330
17EB1
100
AcDbEntity
  8
寸法
 62
     0
 48
50.0
370
    -2
100
AcDbLine
 10
9856.14934521952
 20
5210.443097533937
 30
0.0
 11
1966.149345219528
 21
5210.443097533937
 31
0.0
  0
INSERT
  5
1828D
330
17EB1
100
AcDbEntity
  8
寸法
 62
     0
 48
50.0
370
    -2
100
AcDbBlockReference
  2
_DOTSMALL
 10
9856.14934521952
 20
5210.443097533937
 30
0.0
 41
100.0
 42
100.0
 43
100.0
  0
INSERT
  5
1828E
330
17EB1
100
AcDbEntity
  8
寸法
 62
     0
 48
50.0
370
    -2
100
AcDbBlockReference
  2
_DOTSMALL
 10
1966.149345219528
 20
5210.443097533937
 30
0.0
 41
100.0
 42
100.0
 43
100.0
 50
180.0
  0
MTEXT
  5
1828F
330
17EB1
100
AcDbEntity
  8
寸法
 62
     7
 48
50.0
100
AcDbMText
 10
5911.149345219524
 20
5310.454908557559
 30
0.0
 40
120.0
 41
0.0
 71
     5
 72
     1
  1
\A1;柱外寸法 N X 2630
  7
STYLE1
 73
     1
 44
1.0
1001
ACAD
1000
MTEXTBEGIN
1070
    73
1070
     1
1070
    44
1040
1.0
1070
    74
1070
     0
1000
MTEXTEND
  0
POINT
  5
18290
330
17EB1
100
AcDbEntity
  8
DEFPOINTS
 62
     0
 48
50.0
100
AcDbPoint
 10
9856.14934521952
 20
4811.349928194469
 30
0.0
  0
POINT
  5
18291
330
17EB1
100
AcDbEntity
  8
DEFPOINTS
 62
     0
 48
50.0
100
AcDbPoint
 10
1966.149345219528
 20
4811.34992819447
 30
0.0
  0
POINT
  5
18292
330
17EB1
100
AcDbEntity
  8
DEFPOINTS
 62
     0
 48
50.0
100
AcDbPoint
 10
1966.149345219528
 20
5210.443097533937
 30
0.0
  0
ENDBLK
  5
17EBC
330
17EB1
100
AcDbEntity
  8
0
 48
50.0
100
AcDbBlockEnd
  0
BLOCK
  5
17EC9
330
17EBD
100
AcDbEntity
  8
0
 48
50.0
100
AcDbBlockBegin
  2
*D29
 70
     1
 10
0.0
 20
0.0
 30
0.0
  3
*D29
  1

  0
LINE
  5
1827F
330
17EBD
100
AcDbEntity
  8
寸法
 62
     0
 48
50.0
370
    -2
100
AcDbLine
 10
1966.149345219528
 20
4831.34992819447
 30
0.0
 11
1966.149345219528
 21
5270.443097533938
 31
0.0
  0
LINE
  5
18280
330
17EBD
100
AcDbEntity
  8
寸法
 62
     0
 48
50.0
370
    -2
100
AcDbLine
 10
1916.149345219528
 20
4831.349928194469
 30
0.0
 11
1916.149345219528
 21
5270.443097533938
 31
0.0
  0
LINE
  5
18281
330
17EBD
100
AcDbEntity
  8
寸法
 62
     0
 48
50.0
370
    -2
100
AcDbLine
 10
1966.149345219528
 20
5210.443097533937
 30
0.0
 11
2066.149345219528
 21
5210.443097533937
 31
0.0
  0
LINE
  5
18282
330
17EBD
100
AcDbEntity
  8
寸法
 62
     0
 48
50.0
370
    -2
100
AcDbLine
 10
1916.149345219528
 20
5210.443097533937
 30
0.0
 11
1496.616819750793
 21
5210.443097533937
 31
0.0
  0
LINE
  5
18283
330
17EBD
100
AcDbEntity
  8
寸法
 62
     0
 48
50.0
370
    -2
100
AcDbLine
 10
1966.149345219528
 20
5210.443097533937
 30
0.0
 11
1916.149345219528
 21
5210.443097533937
 31
0.0
  0
INSERT
  5
18284
330
17EBD
100
AcDbEntity
  8
寸法
 62
     0
 48
50.0
370
    -2
100
AcDbBlockReference
  2
_DOTSMALL
 10
1966.149345219528
 20
5210.443097533937
 30
0.0
 41
100.0
 42
100.0
 43
100.0
 50
180.0
  0
INSERT
  5
18285
330
17EBD
100
AcDbEntity
  8
寸法
 62
     0
 48
50.0
370
    -2
100
AcDbBlockReference
  2
_DOTSMALL
 10
1916.149345219528
 20
5210.443097533937
 30
0.0
 41
100.0
 42
100.0
 43
100.0
  0
MTEXT
  5
18286
330
17EBD
100
AcDbEntity
  8
寸法
 62
     7
 48
50.0
100
AcDbMText
 10
1602.664063845281
 20
5310.443097533937
 30
0.0
 40
120.0
 41
0.0
 71
     5
 72
     1
  1
\A1;50
  7
STYLE1
 73
     1
 44
1.0
1001
ACAD
1000
MTEXTBEGIN
1070
    73
1070
     1
1070
    44
1040
1.0
1070
    74
1070
     0
1000
MTEXTEND
  0
POINT
  5
18287
330
17EBD
100
AcDbEntity
  8
DEFPOINTS
 62
     0
 48
50.0
100
AcDbPoint
 10
1966.149345219528
 20
4811.34992819447
 30
0.0
  0
POINT
  5
18288
330
17EBD
100
AcDbEntity
  8
DEFPOINTS
 62
     0
 48
50.0
100
AcDbPoint
 10
1916.149345219528
 20
4811.349928194469
 30
0.0
  0
POINT
  5
18289
330
17EBD
100
AcDbEntity
  8
DEFPOINTS
 62
     0
 48
50.0
100
AcDbPoint
 10
1916.149345219528
 20
5210.443097533937
 30
0.0
  0
ENDBLK
  5
17ECA
330
17EBD
100
AcDbEntity
  8
0
 48
50.0
100
AcDbBlockEnd
  0
BLOCK
  5
18B72
330
18B67
100
AcDbEntity
  8
0
 48
50.0
100
AcDbBlockBegin
  2
*D30
 70
     1
 10
0.0
 20
0.0
 30
0.0
  3
*D30
  1

  0
LINE
  5
18BF8
330
18B67
100
AcDbEntity
  8
寸法
 62
     0
 48
50.0
370
    -2
100
AcDbLine
 10
12422.73040490021
 20
4810.647635264123
 30
0.0
 11
11806.79596579493
 21
4828.361785538453
 31
0.0
  0
LINE
  5
18BF9
330
18B67
100
AcDbEntity
  8
寸法
 62
     0
 48
50.0
370
    -2
100
AcDbLine
 10
12418.67694934358
 20
4669.705911498411
 30
0.0
 11
11802.7425102383
 21
4687.420061772741
 31
0.0
  0
LINE
  5
18BFA
330
18B67
100
AcDbEntity
  8
寸法
 62
     0
 48
50.0
370
    -2
100
AcDbLine
 10
11862.71771184073
 20
4685.695187067793
 30
0.0
 11
11866.77116739736
 21
4826.636910833505
 31
0.0
  0
LINE
  5
18BFB
330
18B67
100
AcDbEntity
  8
寸法
 62
     0
 48
50.0
370
    -2
100
AcDbLine
 10
11866.77116739736
 20
4826.636910833505
 30
0.0
 11
11877.12041562704
 21
5186.488120448092
 31
0.0
  0
INSERT
  5
18BFC
330
18B67
100
AcDbEntity
  8
寸法
 62
     0
 48
50.0
370
    -2
100
AcDbBlockReference
  2
_DOTSMALL
 10
11862.71771184073
 20
4685.695187067793
 30
0.0
 41
100.0
 42
100.0
 43
100.0
 50
268.3526390256378
  0
INSERT
  5
18BFD
330
18B67
100
AcDbEntity
  8
寸法
 62
     0
 48
50.0
370
    -2
100
AcDbBlockReference
  2
_DOTSMALL
 10
11866.77116739736
 20
4826.636910833505
 30
0.0
 41
100.0
 42
100.0
 43
100.0
 50
88.35263902563776
  0
MTEXT
  5
18BFE
330
18B67
100
AcDbEntity
  8
寸法
 62
     7
 48
50.0
100
AcDbMText
 10
11773.42451776227
 20
5059.416641484403
 30
0.0
 40
120.0
 41
0.0
 71
     5
 72
     1
  1
\A1;141
  7
STYLE1
 11
0.0287479117491237
 21
0.9995866933738488
 31
0.0
 73
     1
 44
1.0
1001
ACAD
1000
MTEXTBEGIN
1070
    73
1070
     1
1070
    44
1040
1.0
1070
    74
1070
     0
1000
MTEXTEND
  0
POINT
  5
18BFF
330
18B67
100
AcDbEntity
  8
DEFPOINTS
 62
     0
 48
50.0
100
AcDbPoint
 10
12442.72213876769
 20
4810.07267702914
 30
0.0
  0
POINT
  5
18C00
330
18B67
100
AcDbEntity
  8
DEFPOINTS
 62
     0
 48
50.0
100
AcDbPoint
 10
12438.66868321106
 20
4669.130953263429
 30
0.0
  0
POINT
  5
18C01
330
18B67
100
AcDbEntity
  8
DEFPOINTS
 62
     0
 48
50.0
100
AcDbPoint
 10
11862.71771184073
 20
4685.695187067793
 30
0.0
  0
ENDBLK
  5
18B73
330
18B67
100
AcDbEntity
  8
0
 48
50.0
100
AcDbBlockEnd
  0
BLOCK
  5
18B7F
330
18B74
100
AcDbEntity
  8
0
 48
50.0
100
AcDbBlockBegin
  2
*D31
 70
     1
 10
0.0
 20
0.0
 30
0.0
  3
*D31
  1

  0
LINE
  5
18C02
330
18B74
100
AcDbEntity
  8
寸法
 62
     0
 48
50.0
370
    -2
100
AcDbLine
 10
15113.32611860911
 20
4778.160607806115
 30
0.0
 11
15113.32611860911
 21
5270.007381773767
 31
0.0
  0
LINE
  5
18C03
330
18B74
100
AcDbEntity
  8
寸法
 62
     0
 48
50.0
370
    -2
100
AcDbLine
 10
15193.32611860911
 20
4776.349928194463
 30
0.0
 11
15193.32611860911
 21
5270.007381773767
 31
0.0
  0
LINE
  5
18C04
330
18B74
100
AcDbEntity
  8
寸法
 62
     0
 48
50.0
370
    -2
100
AcDbLine
 10
15113.32611860911
 20
5210.007381773767
 30
0.0
 11
15193.32611860911
 21
5210.007381773767
 31
0.0
  0
LINE
  5
18C05
330
18B74
100
AcDbEntity
  8
寸法
 62
     0
 48
50.0
370
    -2
100
AcDbLine
 10
15193.32611860911
 20
5210.007381773767
 30
0.0
 11
15505.42060679808
 21
5210.007381773767
 31
0.0
  0
INSERT
  5
18C06
330
18B74
100
AcDbEntity
  8
寸法
 62
     0
 48
50.0
370
    -2
100
AcDbBlockReference
  2
_DOTSMALL
 10
15113.32611860911
 20
5210.007381773767
 30
0.0
 41
100.0
 42
100.0
 43
100.0
 50
180.0
  0
INSERT
  5
18C07
330
18B74
100
AcDbEntity
  8
寸法
 62
     0
 48
50.0
370
    -2
100
AcDbBlockReference
  2
_DOTSMALL
 10
15193.32611860911
 20
5210.007381773767
 30
0.0
 41
100.0
 42
100.0
 43
100.0
  0
MTEXT
  5
18C08
330
18B74
100
AcDbEntity
  8
寸法
 62
     7
 48
50.0
100
AcDbMText
 10
15399.3733627036
 20
5310.007381773767
 30
0.0
 40
120.0
 41
0.0
 71
     5
 72
     1
  1
\A1;80
  7
STYLE1
 73
     1
 44
1.0
1001
ACAD
1000
MTEXTBEGIN
1070
    73
1070
     1
1070
    44
1040
1.0
1070
    74
1070
     0
1000
MTEXTEND
  0
POINT
  5
18C09
330
18B74
100
AcDbEntity
  8
DEFPOINTS
 62
     0
 48
50.0
100
AcDbPoint
 10
15113.32611860911
 20
4758.160607806114
 30
0.0
  0
POINT
  5
18C0A
330
18B74
100
AcDbEntity
  8
DEFPOINTS
 62
     0
 48
50.0
100
AcDbPoint
 10
15193.32611860911
 20
4756.349928194463
 30
0.0
  0
POINT
  5
18C0B
330
18B74
100
AcDbEntity
  8
DEFPOINTS
 62
     0
 48
50.0
100
AcDbPoint
 10
15193.32611860911
 20
5210.007381773767
 30
0.0
  0
ENDBLK
  5
18B80
330
18B74
100
AcDbEntity
  8
0
 48
50.0
100
AcDbBlockEnd
  0
BLOCK
  5
18B8B
330
18B81
100
AcDbEntity
  8
0
 48
50.0
100
AcDbBlockBegin
  2
*D32
 70
     1
 10
0.0
 20
0.0
 30
0.0
  3
*D32
  1

  0
LINE
  5
19591
330
18B81
100
AcDbEntity
  8
寸法
 62
     0
 48
50.0
370
    -2
100
AcDbLine
 10
15193.32611860911
 20
4776.349928194463
 30
0.0
 11
15193.32611860911
 21
5490.218068505384
 31
0.0
  0
LINE
  5
19592
330
18B81
100
AcDbEntity
  8
寸法
 62
     0
 48
50.0
370
    -2
100
AcDbLine
 10
12423.32611860911
 20
4831.349928194467
 30
0.0
 11
12423.32611860911
 21
5490.218068505384
 31
0.0
  0
LINE
  5
19593
330
18B81
100
AcDbEntity
  8
寸法
 62
     0
 48
50.0
370
    -2
100
AcDbLine
 10
15193.32611860911
 20
5430.218068505383
 30
0.0
 11
12423.32611860911
 21
5430.218068505383
 31
0.0
  0
INSERT
  5
19594
330
18B81
100
AcDbEntity
  8
寸法
 62
     0
 48
50.0
370
    -2
100
AcDbBlockReference
  2
_DOTSMALL
 10
15193.32611860911
 20
5430.218068505383
 30
0.0
 41
100.0
 42
100.0
 43
100.0
  0
INSERT
  5
19595
330
18B81
100
AcDbEntity
  8
寸法
 62
     0
 48
50.0
370
    -2
100
AcDbBlockReference
  2
_DOTSMALL
 10
12423.32611860911
 20
5430.218068505383
 30
0.0
 41
100.0
 42
100.0
 43
100.0
 50
180.0
  0
MTEXT
  5
19596
330
18B81
100
AcDbEntity
  8
寸法
 62
     7
 48
50.0
100
AcDbMText
 10
13808.32611860911
 20
5530.229879529006
 30
0.0
 40
120.0
 41
0.0
 71
     5
 72
     1
  1
\A1;2770
  7
STYLE1
 73
     1
 44
1.0
1001
ACAD
1000
MTEXTBEGIN
1070
    73
1070
     1
1070
    44
1040
1.0
1070
    74
1070
     0
1000
MTEXTEND
  0
POINT
  5
19597
330
18B81
100
AcDbEntity
  8
DEFPOINTS
 62
     0
 48
50.0
100
AcDbPoint
 10
15193.32611860911
 20
4756.349928194463
 30
0.0
  0
POINT
  5
19598
330
18B81
100
AcDbEntity
  8
DEFPOINTS
 62
     0
 48
50.0
100
AcDbPoint
 10
12423.32611860911
 20
4811.349928194466
 30
0.0
  0
POINT
  5
19599
330
18B81
100
AcDbEntity
  8
DEFPOINTS
 62
     0
 48
50.0
100
AcDbPoint
 10
12423.32611860911
 20
5430.218068505383
 30
0.0
  0
ENDBLK
  5
18B8C
330
18B81
100
AcDbEntity
  8
0
 48
50.0
100
AcDbBlockEnd
  0
BLOCK
  5
18B99
330
18B8D
100
AcDbEntity
  8
0
 48
50.0
100
AcDbBlockBegin
  2
*D33
 70
     1
 10
0.0
 20
0.0
 30
0.0
  3
*D33
  1

  0
LINE
  5
18C15
330
18B8D
100
AcDbEntity
  8
寸法
 62
     0
 48
50.0
370
    -2
100
AcDbLine
 10
12483.32611860911
 20
4827.351546317438
 30
0.0
 11
12483.32611860911
 21
5270.007381773766
 31
0.0
  0
LINE
  5
18C16
330
18B8D
100
AcDbEntity
  8
寸法
 62
     0
 48
50.0
370
    -2
100
AcDbLine
 10
12423.32611860911
 20
4831.349928194467
 30
0.0
 11
12423.32611860911
 21
5270.007381773766
 31
0.0
  0
LINE
  5
18C17
330
18B8D
100
AcDbEntity
  8
寸法
 62
     0
 48
50.0
370
    -2
100
AcDbLine
 10
12483.32611860911
 20
5210.007381773766
 30
0.0
 11
12583.32611860911
 21
5210.007381773766
 31
0.0
  0
LINE
  5
18C18
330
18B8D
100
AcDbEntity
  8
寸法
 62
     0
 48
50.0
370
    -2
100
AcDbLine
 10
12423.32611860911
 20
5210.007381773766
 30
0.0
 11
12004.05052805793
 21
5210.007381773766
 31
0.0
  0
LINE
  5
18C19
330
18B8D
100
AcDbEntity
  8
寸法
 62
     0
 48
50.0
370
    -2
100
AcDbLine
 10
12483.32611860911
 20
5210.007381773766
 30
0.0
 11
12423.32611860911
 21
5210.007381773766
 31
0.0
  0
INSERT
  5
18C1A
330
18B8D
100
AcDbEntity
  8
寸法
 62
     0
 48
50.0
370
    -2
100
AcDbBlockReference
  2
_DOTSMALL
 10
12483.32611860911
 20
5210.007381773766
 30
0.0
 41
100.0
 42
100.0
 43
100.0
 50
180.0
  0
INSERT
  5
18C1B
330
18B8D
100
AcDbEntity
  8
寸法
 62
     0
 48
50.0
370
    -2
100
AcDbBlockReference
  2
_DOTSMALL
 10
12423.32611860911
 20
5210.007381773766
 30
0.0
 41
100.0
 42
100.0
 43
100.0
  0
MTEXT
  5
18C1C
330
18B8D
100
AcDbEntity
  8
寸法
 62
     7
 48
50.0
100
AcDbMText
 10
12113.68832333352
 20
5310.007381773766
 30
0.0
 40
120.0
 41
0.0
 71
     5
 72
     1
  1
\A1;60
  7
STYLE1
 73
     1
 44
1.0
1001
ACAD
1000
MTEXTBEGIN
1070
    73
1070
     1
1070
    44
1040
1.0
1070
    74
1070
     0
1000
MTEXTEND
  0
POINT
  5
18C1D
330
18B8D
100
AcDbEntity
  8
DEFPOINTS
 62
     0
 48
50.0
100
AcDbPoint
 10
12483.32611860911
 20
4807.351546317438
 30
0.0
  0
POINT
  5
18C1E
330
18B8D
100
AcDbEntity
  8
DEFPOINTS
 62
     0
 48
50.0
100
AcDbPoint
 10
12423.32611860911
 20
4811.349928194466
 30
0.0
  0
POINT
  5
18C1F
330
18B8D
100
AcDbEntity
  8
DEFPOINTS
 62
     0
 48
50.0
100
AcDbPoint
 10
12423.32611860911
 20
5210.007381773766
 30
0.0
  0
ENDBLK
  5
18B9A
330
18B8D
100
AcDbEntity
  8
0
 48
50.0
100
AcDbBlockEnd
  0
BLOCK
  5
18BA5
330
18B9B
100
AcDbEntity
  8
0
 48
50.0
100
AcDbBlockBegin
  2
*D34
 70
     1
 10
0.0
 20
0.0
 30
0.0
  3
*D34
  1

  0
LINE
  5
1959A
330
18B9B
100
AcDbEntity
  8
寸法
 62
     0
 48
50.0
370
    -2
100
AcDbLine
 10
15113.32611860911
 20
4778.160607806115
 30
0.0
 11
15113.32611860911
 21
5270.007381773767
 31
0.0
  0
LINE
  5
1959B
330
18B9B
100
AcDbEntity
  8
寸法
 62
     0
 48
50.0
370
    -2
100
AcDbLine
 10
12483.32611860911
 20
4827.351546317438
 30
0.0
 11
12483.32611860911
 21
5270.007381773767
 31
0.0
  0
LINE
  5
1959C
330
18B9B
100
AcDbEntity
  8
寸法
 62
     0
 48
50.0
370
    -2
100
AcDbLine
 10
15113.32611860911
 20
5210.007381773767
 30
0.0
 11
12483.32611860911
 21
5210.007381773767
 31
0.0
  0
INSERT
  5
1959D
330
18B9B
100
AcDbEntity
  8
寸法
 62
     0
 48
50.0
370
    -2
100
AcDbBlockReference
  2
_DOTSMALL
 10
15113.32611860911
 20
5210.007381773767
 30
0.0
 41
100.0
 42
100.0
 43
100.0
  0
INSERT
  5
1959E
330
18B9B
100
AcDbEntity
  8
寸法
 62
     0
 48
50.0
370
    -2
100
AcDbBlockReference
  2
_DOTSMALL
 10
12483.32611860911
 20
5210.007381773767
 30
0.0
 41
100.0
 42
100.0
 43
100.0
 50
180.0
  0
MTEXT
  5
1959F
330
18B9B
100
AcDbEntity
  8
寸法
 62
     7
 48
50.0
100
AcDbMText
 10
13798.32611860911
 20
5310.01919279739
 30
0.0
 40
120.0
 41
0.0
 71
     5
 72
     1
  1
\A1;柱外寸法2630
  7
STYLE1
 73
     1
 44
1.0
1001
ACAD
1000
MTEXTBEGIN
1070
    73
1070
     1
1070
    44
1040
1.0
1070
    74
1070
     0
1000
MTEXTEND
  0
POINT
  5
195A0
330
18B9B
100
AcDbEntity
  8
DEFPOINTS
 62
     0
 48
50.0
100
AcDbPoint
 10
15113.32611860911
 20
4758.160607806114
 30
0.0
  0
POINT
  5
195A1
330
18B9B
100
AcDbEntity
  8
DEFPOINTS
 62
     0
 48
50.0
100
AcDbPoint
 10
12483.32611860911
 20
4807.351546317438
 30
0.0
  0
POINT
  5
195A2
330
18B9B
100
AcDbEntity
  8
DEFPOINTS
 62
     0
 48
50.0
100
AcDbPoint
 10
12483.32611860911
 20
5210.007381773767
 30
0.0
  0
ENDBLK
  5
18BA6
330
18B9B
100
AcDbEntity
  8
0
 48
50.0
100
AcDbBlockEnd
  0
BLOCK
  5
18BB3
330
18BA7
100
AcDbEntity
  8
0
 48
50.0
100
AcDbBlockBegin
  2
*D35
 70
     1
 10
0.0
 20
0.0
 30
0.0
  3
*D35
  1

  0
LINE
  5
18C29
330
18BA7
100
AcDbEntity
  8
寸法
 62
     0
 48
50.0
370
    -2
100
AcDbLine
 10
12463.32611860911
 20
2486.349928194462
 30
0.0
 11
11579.57598942585
 21
2486.349928194462
 31
0.0
  0
LINE
  5
18C2A
330
18BA7
100
AcDbEntity
  8
寸法
 62
     0
 48
50.0
370
    -2
100
AcDbLine
 10
12408.32611860911
 20
2436.349928194462
 30
0.0
 11
11579.57598942585
 21
2436.349928194462
 31
0.0
  0
LINE
  5
18C2B
330
18BA7
100
AcDbEntity
  8
寸法
 62
     0
 48
50.0
370
    -2
100
AcDbLine
 10
11639.57598942585
 20
2486.349928194462
 30
0.0
 11
11639.57598942585
 21
2586.349928194462
 31
0.0
  0
LINE
  5
18C2C
330
18BA7
100
AcDbEntity
  8
寸法
 62
     0
 48
50.0
370
    -2
100
AcDbLine
 10
11639.57598942585
 20
2436.349928194462
 30
0.0
 11
11639.57598942585
 21
2024.255440005482
 31
0.0
  0
LINE
  5
18C2D
330
18BA7
100
AcDbEntity
  8
寸法
 62
     0
 48
50.0
370
    -2
100
AcDbLine
 10
11639.57598942585
 20
2486.349928194462
 30
0.0
 11
11639.57598942585
 21
2436.349928194462
 31
0.0
  0
INSERT
  5
18C2E
330
18BA7
100
AcDbEntity
  8
寸法
 62
     0
 48
50.0
370
    -2
100
AcDbBlockReference
  2
_DOTSMALL
 10
11639.57598942585
 20
2486.349928194462
 30
0.0
 41
100.0
 42
100.0
 43
100.0
 50
270.0
  0
INSERT
  5
18C2F
330
18BA7
100
AcDbEntity
  8
寸法
 62
     0
 48
50.0
370
    -2
100
AcDbBlockReference
  2
_DOTSMALL
 10
11639.57598942585
 20
2436.349928194462
 30
0.0
 41
100.0
 42
100.0
 43
100.0
 50
90.0
  0
MTEXT
  5
18C30
330
18BA7
100
AcDbEntity
  8
寸法
 62
     7
 48
50.0
100
AcDbMText
 10
11539.57598942585
 20
2130.302684099972
 30
0.0
 40
120.0
 41
0.0
 71
     5
 72
     1
  1
\A1;50
  7
STYLE1
 11
0.0000000000000001
 21
1.0
 31
0.0
 73
     1
 44
1.0
1001
ACAD
1000
MTEXTBEGIN
1070
    73
1070
     1
1070
    44
1040
1.0
1070
    74
1070
     0
1000
MTEXTEND
  0
POINT
  5
18C31
330
18BA7
100
AcDbEntity
  8
DEFPOINTS
 62
     0
 48
50.0
100
AcDbPoint
 10
12483.32611860911
 20
2486.349928194462
 30
0.0
  0
POINT
  5
18C32
330
18BA7
100
AcDbEntity
  8
DEFPOINTS
 62
     0
 48
50.0
100
AcDbPoint
 10
12428.32611860911
 20
2436.349928194462
 30
0.0
  0
POINT
  5
18C33
330
18BA7
100
AcDbEntity
  8
DEFPOINTS
 62
     0
 48
50.0
100
AcDbPoint
 10
11639.57598942585
 20
2436.349928194462
 30
0.0
  0
ENDBLK
  5
18BB4
330
18BA7
100
AcDbEntity
  8
0
 48
50.0
100
AcDbBlockEnd
  0
BLOCK
  5
18BCC
330
18BC2
100
AcDbEntity
  8
0
 48
50.0
100
AcDbBlockBegin
  2
*D36
 70
     1
 10
0.0
 20
0.0
 30
0.0
  3
*D36
  1

  0
LINE
  5
18C3E
330
18BC2
100
AcDbEntity
  8
寸法
 62
     0
 48
50.0
370
    -2
100
AcDbLine
 10
15133.32611860911
 20
2436.349928194463
 30
0.0
 11
15878.25327658124
 21
2436.349928194463
 31
0.0
  0
LINE
  5
18C3F
330
18BC2
100
AcDbEntity
  8
寸法
 62
     0
 48
50.0
370
    -2
100
AcDbLine
 10
15213.32611860911
 20
4756.349928194463
 30
0.0
 11
15878.25327658124
 21
4756.349928194463
 31
0.0
  0
LINE
  5
18C40
330
18BC2
100
AcDbEntity
  8
寸法
 62
     0
 48
50.0
370
    -2
100
AcDbLine
 10
15818.25327658124
 20
2436.349928194463
 30
0.0
 11
15818.25327658124
 21
4756.349928194463
 31
0.0
  0
INSERT
  5
18C41
330
18BC2
100
AcDbEntity
  8
寸法
 62
     0
 48
50.0
370
    -2
100
AcDbBlockReference
  2
_DOTSMALL
 10
15818.25327658124
 20
2436.349928194463
 30
0.0
 41
100.0
 42
100.0
 43
100.0
 50
270.0
  0
INSERT
  5
18C42
330
18BC2
100
AcDbEntity
  8
寸法
 62
     0
 48
50.0
370
    -2
100
AcDbBlockReference
  2
_DOTSMALL
 10
15818.25327658124
 20
4756.349928194463
 30
0.0
 41
100.0
 42
100.0
 43
100.0
 50
90.0
  0
MTEXT
  5
18C43
330
18BC2
100
AcDbEntity
  8
寸法
 62
     7
 48
50.0
100
AcDbMText
 10
15718.24146555762
 20
3596.349928194467
 30
0.0
 40
120.0
 41
0.0
 71
     5
 72
     1
  1
\A1;2320
  7
STYLE1
 11
0.0000000000000001
 21
1.0
 31
0.0
 73
     1
 44
1.0
1001
ACAD
1000
MTEXTBEGIN
1070
    73
1070
     1
1070
    44
1040
1.0
1070
    74
1070
     0
1000
MTEXTEND
  0
POINT
  5
18C44
330
18BC2
100
AcDbEntity
  8
DEFPOINTS
 62
     0
 48
50.0
100
AcDbPoint
 10
15113.32611860911
 20
2436.349928194463
 30
0.0
  0
POINT
  5
18C45
330
18BC2
100
AcDbEntity
  8
DEFPOINTS
 62
     0
 48
50.0
100
AcDbPoint
 10
15193.32611860911
 20
4756.349928194463
 30
0.0
  0
POINT
  5
18C46
330
18BC2
100
AcDbEntity
  8
DEFPOINTS
 62
     0
 48
50.0
100
AcDbPoint
 10
15818.25327658124
 20
4756.349928194463
 30
0.0
  0
ENDBLK
  5
18BCD
330
18BC2
100
AcDbEntity
  8
0
 48
50.0
100
AcDbBlockEnd
  0
BLOCK
  5
18BD8
330
18BCE
100
AcDbEntity
  8
0
 48
50.0
100
AcDbBlockBegin
  2
*D37
 70
     1
 10
0.0
 20
0.0
 30
0.0
  3
*D37
  1

  0
LINE
  5
18C47
330
18BCE
100
AcDbEntity
  8
寸法
 62
     0
 48
50.0
370
    -2
100
AcDbLine
 10
12463.32611860911
 20
2436.349928194456
 30
0.0
 11
11279.57598942585
 21
2436.349928194456
 31
0.0
  0
LINE
  5
18C48
330
18BCE
100
AcDbEntity
  8
寸法
 62
     0
 48
50.0
370
    -2
100
AcDbLine
 10
12403.32611860911
 20
4811.349928194461
 30
0.0
 11
11279.57598942585
 21
4811.349928194461
 31
0.0
  0
LINE
  5
18C49
330
18BCE
100
AcDbEntity
  8
寸法
 62
     0
 48
50.0
370
    -2
100
AcDbLine
 10
11339.57598942585
 20
2436.349928194456
 30
0.0
 11
11339.57598942585
 21
4811.349928194461
 31
0.0
  0
INSERT
  5
18C4A
330
18BCE
100
AcDbEntity
  8
寸法
 62
     0
 48
50.0
370
    -2
100
AcDbBlockReference
  2
_DOTSMALL
 10
11339.57598942585
 20
2436.349928194456
 30
0.0
 41
100.0
 42
100.0
 43
100.0
 50
270.0
  0
INSERT
  5
18C4B
330
18BCE
100
AcDbEntity
  8
寸法
 62
     0
 48
50.0
370
    -2
100
AcDbBlockReference
  2
_DOTSMALL
 10
11339.57598942585
 20
4811.349928194461
 30
0.0
 41
100.0
 42
100.0
 43
100.0
 50
90.0
  0
MTEXT
  5
18C4C
330
18BCE
100
AcDbEntity
  8
寸法
 62
     7
 48
50.0
100
AcDbMText
 10
11239.56417840222
 20
3623.849928194461
 30
0.0
 40
120.0
 41
0.0
 71
     5
 72
     1
  1
\A1;2375
  7
STYLE1
 11
0.0000000000000001
 21
1.0
 31
0.0
 73
     1
 44
1.0
1001
ACAD
1000
MTEXTBEGIN
1070
    73
1070
     1
1070
    44
1040
1.0
1070
    74
1070
     0
1000
MTEXTEND
  0
POINT
  5
18C4D
330
18BCE
100
AcDbEntity
  8
DEFPOINTS
 62
     0
 48
50.0
100
AcDbPoint
 10
12483.32611860911
 20
2436.349928194456
 30
0.0
  0
POINT
  5
18C4E
330
18BCE
100
AcDbEntity
  8
DEFPOINTS
 62
     0
 48
50.0
100
AcDbPoint
 10
12423.32611860911
 20
4811.349928194461
 30
0.0
  0
POINT
  5
18C4F
330
18BCE
100
AcDbEntity
  8
DEFPOINTS
 62
     0
 48
50.0
100
AcDbPoint
 10
11339.57598942585
 20
4811.349928194461
 30
0.0
  0
ENDBLK
  5
18BD9
330
18BCE
100
AcDbEntity
  8
0
 48
50.0
100
AcDbBlockEnd
  0
BLOCK
  5
18BE4
330
18BDA
100
AcDbEntity
  8
0
 48
50.0
100
AcDbBlockBegin
  2
*D38
 70
     1
 10
0.0
 20
0.0
 30
0.0
  3
*D38
  1

  0
LINE
  5
18C50
330
18BDA
100
AcDbEntity
  8
寸法
 62
     0
 48
50.0
370
    -2
100
AcDbLine
 10
12463.32611860911
 20
4576.349928194457
 30
0.0
 11
11579.57598942585
 21
4576.349928194457
 31
0.0
  0
LINE
  5
18C51
330
18BDA
100
AcDbEntity
  8
寸法
 62
     0
 48
50.0
370
    -2
100
AcDbLine
 10
12463.32611860911
 20
2486.349928194456
 30
0.0
 11
11579.57598942585
 21
2486.349928194456
 31
0.0
  0
LINE
  5
18C52
330
18BDA
100
AcDbEntity
  8
寸法
 62
     0
 48
50.0
370
    -2
100
AcDbLine
 10
11639.57598942585
 20
4576.349928194457
 30
0.0
 11
11639.57598942585
 21
2486.349928194456
 31
0.0
  0
INSERT
  5
18C53
330
18BDA
100
AcDbEntity
  8
寸法
 62
     0
 48
50.0
370
    -2
100
AcDbBlockReference
  2
_DOTSMALL
 10
11639.57598942585
 20
4576.349928194457
 30
0.0
 41
100.0
 42
100.0
 43
100.0
 50
90.0
  0
INSERT
  5
18C54
330
18BDA
100
AcDbEntity
  8
寸法
 62
     0
 48
50.0
370
    -2
100
AcDbBlockReference
  2
_DOTSMALL
 10
11639.57598942585
 20
2486.349928194456
 30
0.0
 41
100.0
 42
100.0
 43
100.0
 50
270.0
  0
MTEXT
  5
18C55
330
18BDA
100
AcDbEntity
  8
寸法
 62
     7
 48
50.0
100
AcDbMText
 10
11539.56417840223
 20
3531.349928194459
 30
0.0
 40
120.0
 41
0.0
 71
     5
 72
     1
  1
\A1;2090
  7
STYLE1
 11
0.0000000000000001
 21
1.0
 31
0.0
 73
     1
 44
1.0
1001
ACAD
1000
MTEXTBEGIN
1070
    73
1070
     1
1070
    44
1040
1.0
1070
    74
1070
     0
1000
MTEXTEND
  0
POINT
  5
18C56
330
18BDA
100
AcDbEntity
  8
DEFPOINTS
 62
     0
 48
50.0
100
AcDbPoint
 10
12483.32611860911
 20
4576.349928194457
 30
0.0
  0
POINT
  5
18C57
330
18BDA
100
AcDbEntity
  8
DEFPOINTS
 62
     0
 48
50.0
100
AcDbPoint
 10
12483.32611860911
 20
2486.349928194456
 30
0.0
  0
POINT
  5
18C58
330
18BDA
100
AcDbEntity
  8
DEFPOINTS
 62
     0
 48
50.0
100
AcDbPoint
 10
11639.57598942585
 20
2486.349928194456
 30
0.0
  0
ENDBLK
  5
18BE5
330
18BDA
100
AcDbEntity
  8
0
 48
50.0
100
AcDbBlockEnd
  0
BLOCK
  5
18E59
330
18E4E
100
AcDbEntity
  8
0
 48
50.0
100
AcDbBlockBegin
  2
*D39
 70
     1
 10
0.0
 20
0.0
 30
0.0
  3
*D39
  1

  0
LINE
  5
195C1
330
18E4E
100
AcDbEntity
  8
寸法
 62
     0
 48
50.0
370
    -2
100
AcDbLine
 10
9876.149345219516
 20
4411.349928194463
 30
0.0
 11
10203.69244754126
 21
4411.349928194463
 31
0.0
  0
LINE
  5
195C2
330
18E4E
100
AcDbEntity
  8
寸法
 62
     0
 48
50.0
370
    -2
100
AcDbLine
 10
9876.149345219516
 20
4576.349928194463
 30
0.0
 11
10203.69244754126
 21
4576.349928194463
 31
0.0
  0
LINE
  5
195C3
330
18E4E
100
AcDbEntity
  8
寸法
 62
     0
 48
50.0
370
    -2
100
AcDbLine
 10
10143.69244754126
 20
4411.349928194463
 30
0.0
 11
10143.69244754126
 21
4576.349928194463
 31
0.0
  0
LINE
  5
195C4
330
18E4E
100
AcDbEntity
  8
寸法
 62
     0
 48
50.0
370
    -2
100
AcDbLine
 10
10143.69244754126
 20
4576.349928194463
 30
0.0
 11
10143.69244754126
 21
4953.320490942942
 31
0.0
  0
INSERT
  5
195C5
330
18E4E
100
AcDbEntity
  8
寸法
 62
     0
 48
50.0
370
    -2
100
AcDbBlockReference
  2
_DOTSMALL
 10
10143.69244754126
 20
4411.349928194463
 30
0.0
 41
100.0
 42
100.0
 43
100.0
 50
270.0
  0
INSERT
  5
195C6
330
18E4E
100
AcDbEntity
  8
寸法
 62
     0
 48
50.0
370
    -2
100
AcDbBlockReference
  2
_DOTSMALL
 10
10143.69244754126
 20
4576.349928194463
 30
0.0
 41
100.0
 42
100.0
 43
100.0
 50
90.0
  0
MTEXT
  5
195C7
330
18E4E
100
AcDbEntity
  8
寸法
 62
     7
 48
50.0
100
AcDbMText
 10
10043.69244754126
 20
4814.835209568705
 30
0.0
 40
120.0
 41
0.0
 71
     5
 72
     1
  1
\A1;165
  7
STYLE1
 11
0.0000000000000001
 21
1.0
 31
0.0
 73
     1
 44
1.0
1001
ACAD
1000
MTEXTBEGIN
1070
    73
1070
     1
1070
    44
1040
1.0
1070
    74
1070
     0
1000
MTEXTEND
  0
POINT
  5
195C8
330
18E4E
100
AcDbEntity
  8
DEFPOINTS
 62
     0
 48
50.0
100
AcDbPoint
 10
9856.149345219519
 20
4411.349928194463
 30
0.0
  0
POINT
  5
195C9
330
18E4E
100
AcDbEntity
  8
DEFPOINTS
 62
     0
 48
50.0
100
AcDbPoint
 10
9856.149345219519
 20
4576.349928194463
 30
0.0
  0
POINT
  5
195CA
330
18E4E
100
AcDbEntity
  8
DEFPOINTS
 62
     0
 48
50.0
100
AcDbPoint
 10
10143.69244754126
 20
4576.349928194463
 30
0.0
  0
ENDBLK
  5
18E5A
330
18E4E
100
AcDbEntity
  8
0
 48
50.0
100
AcDbBlockEnd
  0
BLOCK
  5
18E67
330
18E5B
100
AcDbEntity
  8
0
 48
50.0
100
AcDbBlockBegin
  2
*D40
 70
     1
 10
0.0
 20
0.0
 30
0.0
  3
*D40
  1

  0
LINE
  5
195B6
330
18E5B
100
AcDbEntity
  8
寸法
 62
     0
 48
50.0
370
    -2
100
AcDbLine
 10
9876.149345219516
 20
4384.349928194462
 30
0.0
 11
10203.69244754126
 21
4384.349928194462
 31
0.0
  0
LINE
  5
195B7
330
18E5B
100
AcDbEntity
  8
寸法
 62
     0
 48
50.0
370
    -2
100
AcDbLine
 10
9876.149345219516
 20
4411.349928194463
 30
0.0
 11
10203.69244754126
 21
4411.349928194463
 31
0.0
  0
LINE
  5
195B8
330
18E5B
100
AcDbEntity
  8
寸法
 62
     0
 48
50.0
370
    -2
100
AcDbLine
 10
10143.69244754126
 20
4384.349928194462
 30
0.0
 11
10143.69244754126
 21
4284.349928194463
 31
0.0
  0
LINE
  5
195B9
330
18E5B
100
AcDbEntity
  8
寸法
 62
     0
 48
50.0
370
    -2
100
AcDbLine
 10
10143.69244754126
 20
4411.349928194463
 30
0.0
 11
10143.69244754126
 21
4511.349928194464
 31
0.0
  0
MTEXT
  5
195BA
330
18E5B
100
AcDbEntity
  8
寸法
 62
     7
 48
50.0
100
AcDbMText
 10
10283.86227078763
 20
4412.317128034123
 30
0.0
 40
120.0
 41
0.0
 71
     5
 72
     1
  1
\A1;27
  7
STYLE1
 11
0.0000000000000001
 21
1.0
 31
0.0
 73
     1
 44
1.0
1001
ACAD
1000
MTEXTBEGIN
1070
    73
1070
     1
1070
    44
1040
1.0
1070
    74
1070
     0
1000
MTEXTEND
  0
LINE
  5
195BB
330
18E5B
100
AcDbEntity
  8
寸法
 62
     0
 48
50.0
370
    -2
100
AcDbLine
 10
10143.69244754126
 20
4384.349928194462
 30
0.0
 11
10143.69244754126
 21
4411.349928194463
 31
0.0
  0
INSERT
  5
195BC
330
18E5B
100
AcDbEntity
  8
寸法
 62
     0
 48
50.0
370
    -2
100
AcDbBlockReference
  2
_DOTSMALL
 10
10143.69244754126
 20
4384.349928194462
 30
0.0
 41
100.0
 42
100.0
 43
100.0
 50
90.0
  0
INSERT
  5
195BD
330
18E5B
100
AcDbEntity
  8
寸法
 62
     0
 48
50.0
370
    -2
100
AcDbBlockReference
  2
_DOTSMALL
 10
10143.69244754126
 20
4411.349928194463
 30
0.0
 41
100.0
 42
100.0
 43
100.0
 50
270.0
  0
POINT
  5
195BE
330
18E5B
100
AcDbEntity
  8
DEFPOINTS
 62
     0
 48
50.0
100
AcDbPoint
 10
9856.149345219519
 20
4384.349928194462
 30
0.0
  0
POINT
  5
195BF
330
18E5B
100
AcDbEntity
  8
DEFPOINTS
 62
     0
 48
50.0
100
AcDbPoint
 10
9856.149345219519
 20
4411.349928194463
 30
0.0
  0
POINT
  5
195C0
330
18E5B
100
AcDbEntity
  8
DEFPOINTS
 62
     0
 48
50.0
100
AcDbPoint
 10
10143.69244754126
 20
4411.349928194463
 30
0.0
  0
ENDBLK
  5
18E68
330
18E5B
100
AcDbEntity
  8
0
 48
50.0
100
AcDbBlockEnd
  0
BLOCK
  5
18E73
330
18E69
100
AcDbEntity
  8
0
 48
50.0
100
AcDbBlockBegin
  2
*D41
 70
     1
 10
0.0
 20
0.0
 30
0.0
  3
*D41
  1

  0
LINE
  5
18ED0
330
18E69
100
AcDbEntity
  8
寸法
 62
     0
 48
50.0
370
    -2
100
AcDbLine
 10
9876.149345219516
 20
2436.349928194464
 30
0.0
 11
10203.69244754126
 21
2436.349928194464
 31
0.0
  0
LINE
  5
18ED1
330
18E69
100
AcDbEntity
  8
寸法
 62
     0
 48
50.0
370
    -2
100
AcDbLine
 10
9876.149345219516
 20
4384.349928194462
 30
0.0
 11
10203.69244754126
 21
4384.349928194462
 31
0.0
  0
LINE
  5
18ED2
330
18E69
100
AcDbEntity
  8
寸法
 62
     0
 48
50.0
370
    -2
100
AcDbLine
 10
10143.69244754126
 20
2436.349928194464
 30
0.0
 11
10143.69244754126
 21
4384.349928194462
 31
0.0
  0
INSERT
  5
18ED3
330
18E69
100
AcDbEntity
  8
寸法
 62
     0
 48
50.0
370
    -2
100
AcDbBlockReference
  2
_DOTSMALL
 10
10143.69244754126
 20
2436.349928194464
 30
0.0
 41
100.0
 42
100.0
 43
100.0
 50
270.0
  0
INSERT
  5
18ED4
330
18E69
100
AcDbEntity
  8
寸法
 62
     0
 48
50.0
370
    -2
100
AcDbBlockReference
  2
_DOTSMALL
 10
10143.69244754126
 20
4384.349928194462
 30
0.0
 41
100.0
 42
100.0
 43
100.0
 50
90.0
  0
MTEXT
  5
18ED5
330
18E69
100
AcDbEntity
  8
寸法
 62
     7
 48
50.0
100
AcDbMText
 10
10043.69244754126
 20
3410.349928194466
 30
0.0
 40
120.0
 41
0.0
 71
     5
 72
     1
  1
\A1;有効開口部高サ 1948
  7
STYLE1
 11
0.0000000000000001
 21
1.0
 31
0.0
 73
     1
 44
1.0
1001
ACAD
1000
MTEXTBEGIN
1070
    73
1070
     1
1070
    44
1040
1.0
1070
    74
1070
     0
1000
MTEXTEND
  0
POINT
  5
18ED6
330
18E69
100
AcDbEntity
  8
DEFPOINTS
 62
     0
 48
50.0
100
AcDbPoint
 10
9856.149345219519
 20
2436.349928194464
 30
0.0
  0
POINT
  5
18ED7
330
18E69
100
AcDbEntity
  8
DEFPOINTS
 62
     0
 48
50.0
100
AcDbPoint
 10
9856.149345219519
 20
4384.349928194462
 30
0.0
  0
POINT
  5
18ED8
330
18E69
100
AcDbEntity
  8
DEFPOINTS
 62
     0
 48
50.0
100
AcDbPoint
 10
10143.69244754126
 20
4384.349928194462
 30
0.0
  0
ENDBLK
  5
18E74
330
18E69
100
AcDbEntity
  8
0
 48
50.0
100
AcDbBlockEnd
  0
BLOCK
  5
192FB
330
192F1
100
AcDbEntity
  8
0
 48
50.0
100
AcDbBlockBegin
  2
*D42
 70
     1
 10
0.0
 20
0.0
 30
0.0
  3
*D42
  1

  0
LINE
  5
1934A
330
192F1
100
AcDbEntity
  8
寸法
 62
     0
 48
50.0
370
    -2
100
AcDbLine
 10
4696.149345219282
 20
9426.623591640762
 30
0.0
 11
4992.99070548011
 21
9426.623591640762
 31
0.0
  0
LINE
  5
1934B
330
192F1
100
AcDbEntity
  8
寸法
 62
     0
 48
50.0
370
    -2
100
AcDbLine
 10
4671.149345219508
 20
10143.12359164091
 30
0.0
 11
4992.99070548011
 21
10143.12359164091
 31
0.0
  0
LINE
  5
1934C
330
192F1
100
AcDbEntity
  8
寸法
 62
     0
 48
50.0
370
    -2
100
AcDbLine
 10
4932.99070548011
 20
9426.623591640762
 30
0.0
 11
4932.99070548011
 21
10143.12359164091
 31
0.0
  0
INSERT
  5
1934D
330
192F1
100
AcDbEntity
  8
寸法
 62
     0
 48
50.0
370
    -2
100
AcDbBlockReference
  2
_DOTSMALL
 10
4932.99070548011
 20
9426.623591640762
 30
0.0
 41
100.0
 42
100.0
 43
100.0
 50
270.0
  0
INSERT
  5
1934E
330
192F1
100
AcDbEntity
  8
寸法
 62
     0
 48
50.0
370
    -2
100
AcDbBlockReference
  2
_DOTSMALL
 10
4932.99070548011
 20
10143.12359164091
 30
0.0
 41
100.0
 42
100.0
 43
100.0
 50
90.0
  0
MTEXT
  5
1934F
330
192F1
100
AcDbEntity
  8
寸法
 62
     7
 48
50.0
100
AcDbMText
 10
4832.990705480109
 20
9784.87359164084
 30
0.0
 40
120.0
 41
0.0
 71
     5
 72
     1
  1
\A1;716.5
  7
STYLE1
 11
0.0000000000000001
 21
1.0
 31
0.0
 73
     1
 44
1.0
1001
ACAD
1000
MTEXTBEGIN
1070
    73
1070
     1
1070
    44
1040
1.0
1070
    74
1070
     0
1000
MTEXTEND
  0
POINT
  5
19350
330
192F1
100
AcDbEntity
  8
DEFPOINTS
 62
     0
 48
50.0
100
AcDbPoint
 10
4676.149345219283
 20
9426.623591640762
 30
0.0
  0
POINT
  5
19351
330
192F1
100
AcDbEntity
  8
DEFPOINTS
 62
     0
 48
50.0
100
AcDbPoint
 10
4651.149345219508
 20
10143.12359164091
 30
0.0
  0
POINT
  5
19352
330
192F1
100
AcDbEntity
  8
DEFPOINTS
 62
     0
 48
50.0
100
AcDbPoint
 10
4932.99070548011
 20
10143.12359164091
 30
0.0
  0
ENDBLK
  5
192FC
330
192F1
100
AcDbEntity
  8
0
 48
50.0
100
AcDbBlockEnd
  0
ENDSEC
  0
SECTION
  2
ENTITIES
  0
MTEXT
  5
763F
330
747D
100
AcDbEntity
  8
0
100
AcDbMText
 10
302.846345836809
 20
280.1983726409901
 30
0.0
 40
3.5
 41
5.323721266742722
 71
     1
 72
     5
  1

  7
MSMINCHO
 73
     1
 44
1.0
1001
ACAD
1000
MTEXTBEGIN
1070
    73
1070
     1
1070
    44
1040
1.0
1070
    74
1070
     0
1000
MTEXTEND
  0
LINE
  5
10B57
330
747D
100
AcDbEntity
  8
補助
  6
PHANTOM
 62
   230
 48
50.0
100
AcDbLine
 10
139.9999999999995
 20
11409.6
 30
0.0
 11
16307.2
 21
11409.6
 31
0.0
  0
LINE
  5
10B59
330
747D
100
AcDbEntity
  8
仕様書枠
  6
Continuous
 48
50.0
100
AcDbLine
 10
13107.2
 20
1200.0
 30
0.0
 11
13107.2
 21
-0.0000000000000729
 31
0.0
  0
LINE
  5
10B5C
330
747D
100
AcDbEntity
  8
仕様書枠
 48
50.0
100
AcDbLine
 10
16307.2
 20
1200.0
 30
0.0
 11
16307.2
 21
-0.0000000000000909
 31
0.0
  0
LINE
  5
10B5D
330
747D
100
AcDbEntity
  8
仕様書枠
 48
50.0
100
AcDbLine
 10
140.0
 20
0.0
 30
0.0
 11
16307.2
 21
-0.0000000000000909
 31
0.0
  0
LINE
  5
10B5E
330
747D
100
AcDbEntity
  8
補助
  6
PHANTOM
 62
   230
 48
50.0
100
AcDbLine
 10
16307.2
 20
11409.6
 30
0.0
 11
16307.2
 21
1200.0
 31
0.0
  0
LINE
  5
10B6C
330
747D
100
AcDbEntity
  8
仕様書枠
 48
50.0
100
AcDbLine
 10
13107.2
 20
1200.0
 30
0.0
 11
16307.2
 21
1200.0
 31
0.0
  0
LINE
  5
10B6D
330
747D
100
AcDbEntity
  8
補助
  6
PHANTOM
 62
   230
 48
50.0
100
AcDbLine
 10
13107.2
 20
11409.6
 30
0.0
 11
13107.2
 21
4800.0
 31
0.0
  0
LINE
  5
10B6F
330
747D
100
AcDbEntity
  8
補助
  6
PHANTOM
 62
   230
 48
50.0
100
AcDbLine
 10
13107.2
 20
4800.0
 30
0.0
 11
16307.2
 21
4800.0
 31
0.0
  0
LINE
  5
10B72
330
747D
100
AcDbEntity
  8
文字
 62
     7
 48
50.0
100
AcDbLine
 10
13187.2
 20
400.0
 30
0.0
 11
16227.2
 21
400.0
 31
0.0
  0
TEXT
  5
10B73
330
747D
100
AcDbEntity
  8
文字
 62
     7
 48
50.0
100
AcDbText
 10
13162.9790565769
 20
895.0906074299405
 30
0.0
 40
200.0
  1
外 形 図
  7
STYLE2
100
AcDbText
  0
TEXT
  5
10B74
330
747D
100
AcDbEntity
  8
文字
 62
     7
 48
50.0
100
AcDbText
 10
13201.43669998441
 20
477.2740661031255
 30
0.0
 40
160.0
  1
機種名
  7
STYLE2
100
AcDbText
  0
TEXT
  5
10B75
330
747D
100
AcDbEntity
  8
文字
 62
     7
 48
50.0
100
AcDbText
 10
13209.4053442172
 20
228.5435242569016
 30
0.0
 40
100.0
  1
○有効開口寸法 ： 2424×1948(mm)
  7
STYLE2
100
AcDbText
  0
TEXT
  5
10B79
330
747D
100
AcDbEntity
  8
文字
 62
     7
 48
50.0
100
AcDbText
 10
14524.131837222
 20
1031.557706291228
 30
0.0
 40
100.0
  1
NO.17      <縮尺> S=1/40
  7
STYLE2
100
AcDbText
  0
LINE
  5
10B7B
330
747D
100
AcDbEntity
  8
仕様書枠
 48
50.0
100
AcDbLine
 10
13107.2
 20
800.0
 30
0.0
 11
14251.2
 21
800.0
 31
0.0
  0
LINE
  5
10B88
330
747D
100
AcDbEntity
  8
仕様書枠
  6
Continuous
 48
50.0
100
AcDbLine
 10
14251.2
 20
1200.0
 30
0.0
 11
14251.2
 21
800.0
 31
0.0
  0
DIMENSION
  5
162CD
330
747D
100
AcDbEntity
  8
寸法
100
AcDbDimension
  2
*D1
 10
10503.57569095395
 20
7568.123591641001
 30
0.0
 11
10403.56387993032
 21
8828.123591641009
 31
0.0
 70
    32
  1
6X420=<>
 71
     5
 42
2520.000000000015
  3
INABA_S40G
100
AcDbAlignedDimension
 13
9856.149345219543
 23
10088.12359164101
 33
0.0
 14
9856.149345219519
 24
7568.123591641001
 34
0.0
 50
90.0
100
AcDbRotatedDimension
1001
ACAD
1000
DSTYLE
1002
{
1002
}
  0
DIMENSION
  5
162CE
330
747D
100
AcDbEntity
  8
寸法
100
AcDbDimension
  2
*D2
 10
10503.57569095393
 20
7513.123591641003
 30
0.0
 11
10503.57569095393
 21
7135.262124736143
 31
0.0
 70
   160
 71
     5
 42
54.99999999999636
  3
INABA_S40G
100
AcDbAlignedDimension
 13
9856.149345219519
 23
7568.123591641001
 33
0.0
 14
9856.149345219519
 24
7513.123591641004
 34
0.0
 50
90.0
100
AcDbRotatedDimension
1001
ACAD
1000
DSTYLE
1002
{
1002
}
  0
DIMENSION
  5
162CF
330
747D
100
AcDbEntity
  8
寸法
100
AcDbDimension
  2
*D3
 10
10503.57569095395
 20
10088.12359164101
 30
0.0
 11
10503.57569095395
 21
10451.60887301525
 31
0.0
 70
   160
 71
     5
 42
54.99999999999636
  3
INABA_S40G
100
AcDbAlignedDimension
 13
9856.149345219543
 23
10143.12359164101
 33
0.0
 14
9856.149345219543
 24
10088.12359164101
 34
0.0
 50
90.0
100
AcDbRotatedDimension
1001
ACAD
1000
DSTYLE
1002
{
1002
}
  0
DIMENSION
  5
162D0
330
747D
100
AcDbEntity
  8
寸法
100
AcDbDimension
  2
*D4
 10
10868.68263269359
 20
7513.123591641003
 30
0.0
 11
10768.67082166996
 21
8828.123591641009
 31
0.0
 70
    32
 71
     5
 42
2630.000000000007
  3
INABA_S40G
100
AcDbAlignedDimension
 13
9856.149345219543
 23
10143.12359164101
 33
0.0
 14
9856.149345219519
 24
7513.123591641004
 34
0.0
 50
90.0
100
AcDbRotatedDimension
1001
ACAD
1000
DSTYLE
1002
{
1002
}
  0
LINE
  5
162DC
330
747D
100
AcDbEntity
  8
部品1
100
AcDbLine
 10
9828.149345219527
 20
10115.12359164101
 30
0.0
 11
9828.14934521952
 21
7568.123591641001
 31
0.0
  0
LINE
  5
162DD
330
747D
100
AcDbEntity
  8
部品1
100
AcDbLine
 10
1994.149345219517
 20
7568.123591640869
 30
0.0
 11
1994.149345219528
 21
10115.12359164092
 31
0.0
  0
LINE
  5
162DE
330
747D
100
AcDbEntity
  8
部品1
100
AcDbLine
 10
9856.149345219543
 20
10143.12359164101
 30
0.0
 11
9856.149345219519
 21
7513.123591641004
 31
0.0
  0
LINE
  5
162DF
330
747D
100
AcDbEntity
  8
部品1
100
AcDbLine
 10
1966.149345219506
 20
10143.12359164088
 30
0.0
 11
1966.149345219535
 21
7513.123591640873
 31
0.0
  0
DIMENSION
  5
162E4
330
747D
100
AcDbEntity
  8
寸法
 48
50.0
100
AcDbDimension
  2
*D5
 10
7329.149345219535
 20
6978.692820874748
 30
0.0
 11
8541.149345219526
 21
7078.70463189837
 31
0.0
 70
    32
  1
有効開口部間口 <>
 71
     5
 42
2423.999999999982
  3
INABA_S40G
100
AcDbAlignedDimension
 13
9753.149345219519
 23
7539.123591640913
 33
0.0
 14
7329.149345219535
 24
7539.123591640913
 34
0.0
100
AcDbRotatedDimension
1001
ACAD
1000
DSTYLE
1002
{
1070
    75
1070
     1
1070
   279
1070
     2
1002
}
  0
LINE
  5
162E6
330
747D
100
AcDbEntity
  8
部品1
 48
50.0
100
AcDbLine
 10
7293.149345219536
 20
7558.623591640911
 30
0.0
 11
9789.14934521952
 21
7558.623591640911
 31
0.0
  0
DIMENSION
  5
162E7
330
747D
100
AcDbEntity
  8
寸法
100
AcDbDimension
  2
*D6
 10
9856.149345219506
 20
6532.519825283874
 30
0.0
 11
5911.149345219521
 21
6632.531636307496
 31
0.0
 70
    32
  1
N X 2630
 71
     5
 42
7889.999999999971
  3
INABA_S40G
100
AcDbAlignedDimension
 13
1966.149345219535
 23
7513.123591640909
 33
0.0
 14
9856.149345219506
 24
7513.123591641004
 34
0.0
100
AcDbRotatedDimension
1001
ACAD
1000
DSTYLE
1002
{
1002
}
  0
LINE
  5
162E8
330
747D
100
AcDbEntity
  8
部品1
100
AcDbLine
 10
2021.149345219514
 20
10088.12359164093
 30
0.0
 11
2021.149345219535
 21
7578.123591640911
 31
0.0
  0
LINE
  5
162E9
330
747D
100
AcDbEntity
  8
部品1
100
AcDbLine
 10
2046.149345219514
 20
10088.12359164093
 30
0.0
 11
2046.149345219536
 21
7578.123591640911
 31
0.0
  0
DIMENSION
  5
162EA
330
747D
100
AcDbEntity
  8
寸法
 48
50.0
100
AcDbDimension
  2
*D7
 10
1966.149345219535
 20
6978.692820874748
 30
0.0
 11
1657.664063845297
 21
6978.692820874748
 31
0.0
 70
   160
 71
     5
 42
54.99999999999636
  3
INABA_S40G
100
AcDbAlignedDimension
 13
2021.149345219532
 23
7513.123591640912
 33
0.0
 14
1966.149345219535
 24
7513.123591640909
 34
0.0
100
AcDbRotatedDimension
1001
ACAD
1000
DSTYLE
1002
{
1002
}
  0
DIMENSION
  5
162EB
330
747D
100
AcDbEntity
  8
寸法
 48
50.0
100
AcDbDimension
  2
*D8
 10
7281.149345219532
 20
6978.692820874748
 30
0.0
 11
7442.051316219593
 21
7078.692820874748
 31
0.0
 70
   160
 71
     5
 42
48.00000000000363
  3
INABA_S40G
100
AcDbAlignedDimension
 13
7329.149345219535
 23
7539.123591640913
 33
0.0
 14
7281.149345219532
 24
7513.123591640912
 34
0.0
100
AcDbRotatedDimension
1001
ACAD
1000
DSTYLE
1002
{
1070
   279
1070
     2
1002
}
  0
LINE
  5
162EC
330
747D
100
AcDbEntity
  8
部品1
100
AcDbLine
 10
2021.149345219532
 20
7513.123591640912
 30
0.0
 11
1966.149345219535
 21
7513.123591640909
 31
0.0
  0
LINE
  5
162ED
330
747D
100
AcDbEntity
  8
部品1
 48
50.0
100
AcDbLine
 10
2021.149345219535
 20
7549.123591640911
 30
0.0
 11
1998.149345219535
 21
7549.123591640911
 31
0.0
  0
LINE
  5
162EE
330
747D
100
AcDbEntity
  8
部品1
 48
50.0
100
AcDbLine
 10
2031.149345219535
 20
7539.123591640913
 30
0.0
 11
2021.149345219535
 21
7518.123591640912
 31
0.0
  0
LINE
  5
162EF
330
747D
100
AcDbEntity
  8
部品1
 48
50.0
100
AcDbLine
 10
2021.149345219535
 20
7578.123591640911
 30
0.0
 11
2021.149345219532
 21
7513.123591640912
 31
0.0
  0
LINE
  5
162F0
330
747D
100
AcDbEntity
  8
部品1
 48
50.0
100
AcDbLine
 10
2069.149345219535
 20
7539.123591640913
 30
0.0
 11
2069.149345219535
 21
7548.123591640913
 31
0.0
  0
LINE
  5
162F1
330
747D
100
AcDbEntity
  8
部品1
 48
50.0
100
AcDbLine
 10
2069.149345219535
 20
7578.123591640913
 30
0.0
 11
2069.149345219535
 21
7569.123591640913
 31
0.0
  0
LINE
  5
162F2
330
747D
100
AcDbEntity
  8
部品1
100
AcDbLine
 10
2069.149345219535
 20
7578.123591640913
 30
0.0
 11
2021.149345219535
 21
7578.123591640913
 31
0.0
  0
LINE
  5
162F3
330
747D
100
AcDbEntity
  8
部品1
100
AcDbLine
 10
2069.149345219535
 20
7539.123591640913
 30
0.0
 11
2021.149345219535
 21
7539.123591640913
 31
0.0
  0
LINE
  5
162F4
330
747D
100
AcDbEntity
  8
部品1
100
AcDbLine
 10
2021.149345219535
 20
7549.123591640911
 30
0.0
 11
1998.149345219535
 21
7549.123591640911
 31
0.0
  0
LINE
  5
162F5
330
747D
100
AcDbEntity
  8
部品1
100
AcDbLine
 10
2021.149345219535
 20
7568.123591640837
 30
0.0
 11
1966.149345219535
 21
7568.123591640837
 31
0.0
  0
LINE
  5
162F6
330
747D
100
AcDbEntity
  8
部品1
100
AcDbLine
 10
1994.149345219517
 20
7568.123591640874
 30
0.0
 11
1966.149345219535
 21
7568.123591640874
 31
0.0
  0
LINE
  5
162F7
330
747D
100
AcDbEntity
  8
部品1
100
AcDbLine
 10
1994.149345219535
 20
7568.123591640888
 30
0.0
 11
1966.149345219535
 21
7568.123591640888
 31
0.0
  0
LINE
  5
162FB
330
747D
100
AcDbEntity
  8
部品1
100
AcDbLine
 10
1994.149345219521
 20
8828.123591640887
 30
0.0
 11
1966.149345219521
 21
8828.123591640887
 31
0.0
  0
LINE
  5
162FC
330
747D
100
AcDbEntity
  8
部品1
100
AcDbLine
 10
1994.149345219521
 20
9248.123591640888
 30
0.0
 11
1966.149345219521
 21
9248.123591640888
 31
0.0
  0
LINE
  5
162FE
330
747D
100
AcDbEntity
  8
部品1
100
AcDbLine
 10
1994.149345219517
 20
9668.123591640888
 30
0.0
 11
1966.149345219517
 21
9668.123591640888
 31
0.0
  0
LINE
  5
162FF
330
747D
100
AcDbEntity
  8
部品1
100
AcDbLine
 10
9801.149345219538
 20
10088.12359164093
 30
0.0
 11
9801.149345219521
 21
7513.123591641001
 31
0.0
  0
LINE
  5
16300
330
747D
100
AcDbEntity
  8
部品1
100
AcDbLine
 10
9776.149345219538
 20
10088.12359164093
 30
0.0
 11
9776.14934521952
 21
7578.123591640913
 31
0.0
  0
DIMENSION
  5
16301
330
747D
100
AcDbEntity
  8
寸法
 48
50.0
100
AcDbDimension
  2
*D9
 10
9753.149345219519
 20
6978.692820874748
 30
0.0
 11
9642.186447570772
 21
7078.692820874748
 31
0.0
 70
   160
 71
     5
 42
48.00000000000181
  3
INABA_S40G
100
AcDbAlignedDimension
 13
9801.149345219521
 23
7513.123591641001
 33
0.0
 14
9753.149345219519
 24
7539.123591640913
 34
0.0
100
AcDbRotatedDimension
1001
ACAD
1000
DSTYLE
1002
{
1070
   279
1070
     2
1002
}
  0
DIMENSION
  5
16302
330
747D
100
AcDbEntity
  8
寸法
 48
50.0
100
AcDbDimension
  2
*D10
 10
9801.149345219521
 20
6978.69282087475
 30
0.0
 11
10164.63462659375
 21
6978.69282087475
 31
0.0
 70
   160
 71
     5
 42
54.99999999999818
  3
INABA_S40G
100
AcDbAlignedDimension
 13
9856.149345219519
 23
7513.123591641004
 33
0.0
 14
9801.149345219521
 24
7513.123591641001
 34
0.0
100
AcDbRotatedDimension
1001
ACAD
1000
DSTYLE
1002
{
1002
}
  0
LINE
  5
16303
330
747D
100
AcDbEntity
  8
部品1
 48
50.0
100
AcDbLine
 10
9791.149345219517
 20
7539.123591640913
 30
0.0
 11
9801.149345219517
 21
7518.123591640912
 31
0.0
  0
LINE
  5
16304
330
747D
100
AcDbEntity
  8
部品1
100
AcDbLine
 10
9753.149345219519
 20
7578.123591640913
 30
0.0
 11
9801.149345219521
 21
7578.123591640913
 31
0.0
  0
LINE
  5
16305
330
747D
100
AcDbEntity
  8
部品1
100
AcDbLine
 10
9753.149345219519
 20
7539.123591640913
 30
0.0
 11
9801.149345219517
 21
7539.123591640913
 31
0.0
  0
LINE
  5
16306
330
747D
100
AcDbEntity
  8
部品1
 48
50.0
100
AcDbLine
 10
9753.149345219519
 20
7578.123591640913
 30
0.0
 11
9753.149345219519
 21
7569.123591640913
 31
0.0
  0
LINE
  5
16307
330
747D
100
AcDbEntity
  8
部品1
 48
50.0
100
AcDbLine
 10
9753.149345219519
 20
7539.123591640913
 30
0.0
 11
9753.149345219519
 21
7548.123591640913
 31
0.0
  0
LINE
  5
16308
330
747D
100
AcDbEntity
  8
部品1
100
AcDbLine
 10
9801.149345219517
 20
7549.123591640911
 30
0.0
 11
9824.149345219517
 21
7549.123591640911
 31
0.0
  0
LINE
  5
16309
330
747D
100
AcDbEntity
  8
部品1
100
AcDbLine
 10
9801.149345219517
 20
7568.123591641016
 30
0.0
 11
9856.14934521955
 21
7568.123591641016
 31
0.0
  0
LINE
  5
1630A
330
747D
100
AcDbEntity
  8
部品1
100
AcDbLine
 10
9856.149345219519
 20
7513.123591641004
 30
0.0
 11
9801.149345219521
 21
7513.123591641002
 31
0.0
  0
LINE
  5
16317
330
747D
100
AcDbEntity
  8
部品1
100
AcDbLine
 10
9828.149345219546
 20
8828.123591641015
 30
0.0
 11
9856.149345219547
 21
8828.123591641015
 31
0.0
  0
LINE
  5
16319
330
747D
100
AcDbEntity
  8
部品1
100
AcDbLine
 10
9828.149345219546
 20
9248.123591641016
 30
0.0
 11
9856.149345219547
 21
9248.123591641016
 31
0.0
  0
LINE
  5
1631A
330
747D
100
AcDbEntity
  8
部品1
100
AcDbLine
 10
9828.149345219543
 20
9668.123591641016
 30
0.0
 11
9856.149345219543
 21
9668.123591641016
 31
0.0
  0
LINE
  5
1631B
330
747D
100
AcDbEntity
  8
部品1
100
AcDbLine
 10
7254.149342975757
 20
10115.12359164103
 30
0.0
 11
8528.649345219539
 21
10115.12359164103
 31
0.0
  0
LINE
  5
1631D
330
747D
100
AcDbEntity
  8
部品1
100
AcDbLine
 10
1966.149345219542
 20
10143.12359164091
 30
0.0
 11
9856.149345219543
 21
10143.12359164101
 31
0.0
  0
DIMENSION
  5
1631F
330
747D
100
AcDbEntity
  8
寸法
100
AcDbDimension
  2
*D11
 10
9801.149345219542
 20
10358.93181126601
 30
0.0
 11
8541.149345219542
 21
10458.94362228964
 31
0.0
 70
    32
  1
6X420=<>
 71
     5
 42
2520.0
  3
INABA_S40G
100
AcDbAlignedDimension
 13
7281.149345219543
 23
10143.12359164091
 33
0.0
 14
9801.149345219542
 24
10143.12359164101
 34
0.0
100
AcDbRotatedDimension
1001
ACAD
1000
DSTYLE
1002
{
1002
}
  0
DIMENSION
  5
16320
330
747D
100
AcDbEntity
  8
寸法
100
AcDbDimension
  2
*D12
 10
2021.149345219543
 20
10358.9318112659
 30
0.0
 11
1657.664063845269
 21
10358.9318112659
 31
0.0
 70
   160
 71
     5
 42
55.00000000003456
  3
INABA_S40G
100
AcDbAlignedDimension
 13
1966.149345219508
 23
10143.12359164091
 33
0.0
 14
2021.149345219543
 24
10143.12359164091
 34
0.0
100
AcDbRotatedDimension
1001
ACAD
1000
DSTYLE
1002
{
1002
}
  0
LINE
  5
16321
330
747D
100
AcDbEntity
  8
部品1
100
AcDbLine
 10
2021.149345219507
 20
10143.12359164088
 30
0.0
 11
2021.14934521951
 21
10115.12359164088
 31
0.0
  0
LINE
  5
16322
330
747D
100
AcDbEntity
  8
部品1
100
AcDbLine
 10
2021.149345219543
 20
10143.12359164091
 30
0.0
 11
2021.149345219543
 21
10115.12359164091
 31
0.0
  0
LINE
  5
16323
330
747D
100
AcDbEntity
  8
部品1
100
AcDbLine
 10
1994.14934521951
 20
10088.12359164088
 30
0.0
 11
1966.14934521951
 21
10088.12359164088
 31
0.0
  0
LINE
  5
16324
330
747D
100
AcDbEntity
  8
部品1
100
AcDbLine
 10
7701.149345219542
 20
10143.12359164103
 30
0.0
 11
7701.149345219542
 21
10115.12359164103
 31
0.0
  0
LINE
  5
16325
330
747D
100
AcDbEntity
  8
部品1
100
AcDbLine
 10
7701.149345219542
 20
10143.12359164091
 30
0.0
 11
7701.149345219542
 21
10115.12359164091
 31
0.0
  0
LINE
  5
16326
330
747D
100
AcDbEntity
  8
部品1
100
AcDbLine
 10
7701.149345219542
 20
10143.12359164091
 30
0.0
 11
7701.149345219542
 21
10115.12359164091
 31
0.0
  0
LINE
  5
16327
330
747D
100
AcDbEntity
  8
部品1
100
AcDbLine
 10
8553.649345219543
 20
10115.12359164103
 30
0.0
 11
9828.149345219543
 21
10115.12359164101
 31
0.0
  0
LINE
  5
16329
330
747D
100
AcDbEntity
  8
部品1
100
AcDbLine
 10
8121.149345219542
 20
10143.12359164103
 30
0.0
 11
8121.149345219542
 21
10115.12359164103
 31
0.0
  0
LINE
  5
1632A
330
747D
100
AcDbEntity
  8
部品1
100
AcDbLine
 10
8121.149345219542
 20
10143.12359164091
 30
0.0
 11
8121.149345219542
 21
10115.12359164091
 31
0.0
  0
LINE
  5
1632B
330
747D
100
AcDbEntity
  8
部品1
100
AcDbLine
 10
8121.149345219542
 20
10143.12359164091
 30
0.0
 11
8121.149345219542
 21
10115.12359164091
 31
0.0
  0
LINE
  5
1632C
330
747D
100
AcDbEntity
  8
部品1
100
AcDbLine
 10
8541.149345219542
 20
10143.12359164103
 30
0.0
 11
8541.149345219542
 21
10115.12359164103
 31
0.0
  0
LINE
  5
1632D
330
747D
100
AcDbEntity
  8
部品1
100
AcDbLine
 10
8528.649345219543
 20
10107.12359164101
 30
0.0
 11
8553.649345219543
 21
10107.12359164102
 31
0.0
  0
LINE
  5
1632E
330
747D
100
AcDbEntity
  8
部品1
100
AcDbLine
 10
8570.149345219544
 20
10133.12359164102
 30
0.0
 11
8576.149345219542
 21
10133.12359164102
 31
0.0
  0
LINE
  5
1632F
330
747D
100
AcDbEntity
  8
部品1
100
AcDbLine
 10
8576.149345219542
 20
10133.12359164102
 30
0.0
 11
8576.149345219542
 21
10115.12359164102
 31
0.0
  0
LINE
  5
16330
330
747D
100
AcDbEntity
  8
部品1
100
AcDbLine
 10
8506.149345219544
 20
10133.12359164102
 30
0.0
 11
8512.149345219542
 21
10133.12359164102
 31
0.0
  0
LINE
  5
16331
330
747D
100
AcDbEntity
  8
部品1
100
AcDbLine
 10
8506.149345219544
 20
10133.12359164102
 30
0.0
 11
8506.149345219544
 21
10115.12359164102
 31
0.0
  0
LINE
  5
16332
330
747D
100
AcDbEntity
  8
部品1
100
AcDbLine
 10
8961.149345219544
 20
10143.12359164103
 30
0.0
 11
8961.149345219544
 21
10115.12359164103
 31
0.0
  0
DIMENSION
  5
16333
330
747D
100
AcDbEntity
  8
寸法
100
AcDbDimension
  2
*D13
 10
9856.149345219543
 20
10358.93181126599
 30
0.0
 11
10164.63462659378
 21
10358.93181126599
 31
0.0
 70
   160
 71
     5
 42
55.0
  3
INABA_S40G
100
AcDbAlignedDimension
 13
9801.149345219542
 23
10143.12359164101
 33
0.0
 14
9856.149345219543
 24
10143.12359164101
 34
0.0
100
AcDbRotatedDimension
1001
ACAD
1000
DSTYLE
1002
{
1002
}
  0
LINE
  5
16334
330
747D
100
AcDbEntity
  8
部品1
100
AcDbLine
 10
9381.14934521954
 20
10143.12359164103
 30
0.0
 11
9381.14934521954
 21
10115.12359164103
 31
0.0
  0
LINE
  5
16335
330
747D
100
AcDbEntity
  8
部品1
100
AcDbLine
 10
9801.149345219542
 20
10143.12359164101
 30
0.0
 11
9801.149345219542
 21
10115.12359164101
 31
0.0
  0
LINE
  5
16336
330
747D
100
AcDbEntity
  8
部品1
100
AcDbLine
 10
9801.149345219542
 20
10143.12359164103
 30
0.0
 11
9801.149345219542
 21
10115.12359164103
 31
0.0
  0
LINE
  5
16337
330
747D
100
AcDbEntity
  8
部品1
100
AcDbLine
 10
9828.149345219543
 20
10088.12359164101
 30
0.0
 11
9856.149345219543
 21
10088.12359164101
 31
0.0
  0
DIMENSION
  5
1659A
330
747D
100
AcDbEntity
  8
寸法
 48
50.0
100
AcDbDimension
  2
*D15
 10
7123.149345219518
 20
6978.692820874748
 30
0.0
 11
7012.186447570769
 21
7078.692820874748
 31
0.0
 70
   160
 71
     5
 42
48.00000000000181
  3
INABA_S40G
100
AcDbAlignedDimension
 13
7171.14934521952
 23
7513.123591641001
 33
0.0
 14
7123.149345219518
 24
7539.123591640913
 34
0.0
100
AcDbRotatedDimension
1001
ACAD
1000
DSTYLE
1002
{
1070
   279
1070
     2
1002
}
  0
DIMENSION
  5
1659C
330
747D
100
AcDbEntity
  8
寸法
 48
50.0
100
AcDbDimension
  2
*D14
 10
2021.149345219532
 20
6978.692820874748
 30
0.0
 11
2182.051316219593
 21
7078.692820874748
 31
0.0
 70
   160
 71
     5
 42
48.00000000000363
  3
INABA_S40G
100
AcDbAlignedDimension
 13
2069.149345219535
 23
7539.123591640913
 33
0.0
 14
2021.149345219532
 24
7513.123591640912
 34
0.0
100
AcDbRotatedDimension
1001
ACAD
1000
DSTYLE
1002
{
1070
   279
1070
     2
1002
}
  0
DIMENSION
  5
165E9
330
747D
100
AcDbEntity
  8
寸法
 48
50.0
100
AcDbDimension
  2
*D16
 10
7171.14934521952
 20
6978.69282087475
 30
0.0
 11
7226.149345219525
 21
6827.000925838518
 31
0.0
 70
   160
 71
     5
 42
110.0000000000127
  3
INABA_S40G
100
AcDbAlignedDimension
 13
7281.149345219532
 23
7513.123591640912
 33
0.0
 14
7171.14934521952
 24
7513.123591641001
 34
0.0
100
AcDbRotatedDimension
1001
ACAD
1000
DSTYLE
1002
{
1070
   279
1070
     2
1002
}
  0
LINE
  5
16656
330
747D
100
AcDbEntity
  8
部品1
100
AcDbLine
 10
7123.149345219518
 20
7578.123591640913
 30
0.0
 11
7171.14934521952
 21
7578.123591640913
 31
0.0
  0
LINE
  5
16657
330
747D
100
AcDbEntity
  8
部品1
 48
50.0
100
AcDbLine
 10
7123.149345219518
 20
7578.123591640913
 30
0.0
 11
7123.149345219518
 21
7569.123591640913
 31
0.0
  0
LINE
  5
16658
330
747D
100
AcDbEntity
  8
部品1
100
AcDbLine
 10
7123.149345219518
 20
7539.123591640913
 30
0.0
 11
7171.149345219517
 21
7539.123591640913
 31
0.0
  0
LINE
  5
16659
330
747D
100
AcDbEntity
  8
部品1
 48
50.0
100
AcDbLine
 10
7123.149345219518
 20
7539.123591640913
 30
0.0
 11
7123.149345219518
 21
7548.123591640913
 31
0.0
  0
LINE
  5
1665A
330
747D
100
AcDbEntity
  8
部品1
 48
50.0
100
AcDbLine
 10
7161.149345219517
 20
7539.123591640913
 30
0.0
 11
7171.149345219517
 21
7518.123591640912
 31
0.0
  0
LINE
  5
1665B
330
747D
100
AcDbEntity
  8
部品1
100
AcDbLine
 10
7171.149345219517
 20
7549.123591640911
 30
0.0
 11
7194.149345219518
 21
7549.123591640911
 31
0.0
  0
LINE
  5
1665C
330
747D
100
AcDbEntity
  8
部品1
100
AcDbLine
 10
7329.149345219535
 20
7578.123591640913
 30
0.0
 11
7281.149345219535
 21
7578.123591640913
 31
0.0
  0
LINE
  5
1665D
330
747D
100
AcDbEntity
  8
部品1
 48
50.0
100
AcDbLine
 10
7329.149345219535
 20
7578.123591640913
 30
0.0
 11
7329.149345219535
 21
7569.123591640913
 31
0.0
  0
LINE
  5
1665E
330
747D
100
AcDbEntity
  8
部品1
100
AcDbLine
 10
7329.149345219535
 20
7539.123591640913
 30
0.0
 11
7281.149345219535
 21
7539.123591640913
 31
0.0
  0
LINE
  5
1665F
330
747D
100
AcDbEntity
  8
部品1
 48
50.0
100
AcDbLine
 10
7291.149345219536
 20
7539.123591640913
 30
0.0
 11
7281.149345219535
 21
7518.123591640912
 31
0.0
  0
LINE
  5
16660
330
747D
100
AcDbEntity
  8
部品1
100
AcDbLine
 10
7281.149345219535
 20
7549.123591640911
 30
0.0
 11
7258.149345219536
 21
7549.123591640911
 31
0.0
  0
LINE
  5
16661
330
747D
100
AcDbEntity
  8
部品1
 48
50.0
100
AcDbLine
 10
7281.149345219535
 20
7578.123591640911
 30
0.0
 11
7281.149345219532
 21
7513.123591640912
 31
0.0
  0
LINE
  5
16662
330
747D
100
AcDbEntity
  8
部品1
 48
50.0
100
AcDbLine
 10
7329.149345219535
 20
7539.123591640913
 30
0.0
 11
7329.149345219535
 21
7548.123591640913
 31
0.0
  0
LINE
  5
16663
330
747D
100
AcDbEntity
  8
部品1
100
AcDbLine
 10
7281.149345219532
 20
7513.123591640912
 30
0.0
 11
7171.149345219522
 21
7513.123591640907
 31
0.0
  0
LINE
  5
16664
330
747D
100
AcDbEntity
  8
部品1
 48
50.0
100
AcDbLine
 10
7171.149345219524
 20
7578.123591640999
 30
0.0
 11
7171.149345219522
 21
7513.123591641001
 31
0.0
  0
LINE
  5
16688
330
747D
100
AcDbEntity
  8
部品1
100
AcDbLine
 10
4624.149345219528
 20
10115.12359164103
 30
0.0
 11
5898.649345219538
 21
10115.12359164103
 31
0.0
  0
LINE
  5
1668A
330
747D
100
AcDbEntity
  8
部品1
100
AcDbLine
 10
5071.149345219542
 20
10143.12359164103
 30
0.0
 11
5071.149345219542
 21
10115.12359164103
 31
0.0
  0
LINE
  5
1668B
330
747D
100
AcDbEntity
  8
部品1
100
AcDbLine
 10
5071.149345219542
 20
10143.12359164091
 30
0.0
 11
5071.149345219542
 21
10115.12359164091
 31
0.0
  0
LINE
  5
1668C
330
747D
100
AcDbEntity
  8
部品1
100
AcDbLine
 10
5071.149345219542
 20
10143.12359164091
 30
0.0
 11
5071.149345219542
 21
10115.12359164091
 31
0.0
  0
LINE
  5
1668D
330
747D
100
AcDbEntity
  8
部品1
100
AcDbLine
 10
5491.149345219543
 20
10143.12359164103
 30
0.0
 11
5491.149345219543
 21
10115.12359164103
 31
0.0
  0
LINE
  5
1668E
330
747D
100
AcDbEntity
  8
部品1
100
AcDbLine
 10
5491.149345219543
 20
10143.12359164091
 30
0.0
 11
5491.149345219543
 21
10115.12359164091
 31
0.0
  0
LINE
  5
1668F
330
747D
100
AcDbEntity
  8
部品1
100
AcDbLine
 10
5491.149345219543
 20
10143.12359164091
 30
0.0
 11
5491.149345219543
 21
10115.12359164091
 31
0.0
  0
LINE
  5
16690
330
747D
100
AcDbEntity
  8
部品1
100
AcDbLine
 10
6331.149345219543
 20
10143.12359164103
 30
0.0
 11
6331.149345219543
 21
10115.12359164103
 31
0.0
  0
LINE
  5
16691
330
747D
100
AcDbEntity
  8
部品1
100
AcDbLine
 10
6751.149345219541
 20
10143.12359164103
 30
0.0
 11
6751.149345219541
 21
10115.12359164103
 31
0.0
  0
DIMENSION
  5
166DD
330
747D
100
AcDbEntity
  8
寸法
 48
50.0
100
AcDbDimension
  2
*D17
 10
7171.149345219543
 20
10358.93181126601
 30
0.0
 11
7226.149345219543
 21
10458.93181126601
 31
0.0
 70
    32
 71
     5
 42
110.0
  3
INABA_S40G
100
AcDbAlignedDimension
 13
7281.149345219543
 23
10143.12359164096
 33
0.0
 14
7171.149345219543
 24
10143.12359164096
 34
0.0
100
AcDbRotatedDimension
1001
ACAD
1000
DSTYLE
1002
{
1070
   279
1070
     2
1002
}
  0
LINE
  5
16761
330
747D
100
AcDbEntity
  8
部品1
100
AcDbLine
 10
9801.149345219538
 20
10088.12359164093
 30
0.0
 11
7281.149345219619
 21
10088.12359164093
 31
0.0
  0
LINE
  5
168C3
330
747D
100
AcDbEntity
  8
部品1
100
AcDbLine
 10
7250.149345219526
 20
7568.123591640909
 30
0.0
 11
7202.149345219524
 21
7568.123591640908
 31
0.0
  0
LINE
  5
168C4
330
747D
100
AcDbEntity
  8
部品1
 48
50.0
100
AcDbLine
 10
7202.149345219526
 20
7568.123591640909
 30
0.0
 11
7202.149345219528
 21
7513.123591640909
 31
0.0
  0
LINE
  5
168C5
330
747D
100
AcDbEntity
  8
部品1
 48
50.0
100
AcDbLine
 10
7250.149345219526
 20
7568.123591640909
 30
0.0
 11
7250.149345219528
 21
7513.123591640909
 31
0.0
  0
DIMENSION
  5
16913
330
747D
100
AcDbEntity
  8
寸法
 48
50.0
100
AcDbDimension
  2
*D18
 10
9856.149345219543
 20
10608.25328482231
 30
0.0
 11
8541.149345219542
 21
10708.26509584593
 31
0.0
 70
    32
 71
     5
 42
2630.0
  3
INABA_S40G
100
AcDbAlignedDimension
 13
7226.149345219543
 23
10517.91972562396
 33
0.0
 14
9856.149345219543
 24
10143.12359164101
 34
0.0
100
AcDbRotatedDimension
1001
ACAD
1000
DSTYLE
1002
{
1070
   279
1070
     2
1002
}
  0
LINE
  5
16C81
330
747D
100
AcDbEntity
  8
部品1
100
AcDbLine
 10
1994.149345219521
 20
8408.123591640888
 30
0.0
 11
1966.149345219521
 21
8408.123591640888
 31
0.0
  0
LINE
  5
16C82
330
747D
100
AcDbEntity
  8
部品1
100
AcDbLine
 10
9828.149345219546
 20
8408.123591641015
 30
0.0
 11
9856.149345219547
 21
8408.123591641015
 31
0.0
  0
LINE
  5
16FDA
330
747D
100
AcDbEntity
  8
部品1
100
AcDbLine
 10
1994.149345219521
 20
7988.123591640889
 30
0.0
 11
1966.149345219521
 21
7988.123591640889
 31
0.0
  0
LINE
  5
16FDB
330
747D
100
AcDbEntity
  8
部品1
100
AcDbLine
 10
9828.149345219546
 20
7988.123591641015
 30
0.0
 11
9856.149345219547
 21
7988.123591641015
 31
0.0
  0
LINE
  5
16FE7
330
747D
100
AcDbEntity
  8
部品1
 48
50.0
100
AcDbLine
 10
9828.149345219527
 20
10115.12359164101
 30
0.0
 11
9801.149345219538
 21
10088.12359164093
 31
0.0
  0
LINE
  5
16FE8
330
747D
100
AcDbEntity
  8
部品1
 48
50.0
100
AcDbLine
 10
1994.149345219528
 20
10115.12359164103
 30
0.0
 11
2021.149345219518
 21
10088.12359164093
 31
0.0
  0
LINE
  5
16FEB
330
747D
100
AcDbEntity
  8
部品1
 48
50.0
100
AcDbLine
 10
8528.649345219539
 20
10115.12359164103
 30
0.0
 11
8528.649345219541
 21
10107.12359164101
 31
0.0
  0
LINE
  5
16FEC
330
747D
100
AcDbEntity
  8
部品1
 48
50.0
100
AcDbLine
 10
8553.649345219543
 20
10115.12359164103
 30
0.0
 11
8553.649345219543
 21
10107.12359164102
 31
0.0
  0
LINE
  5
16FF8
330
747D
100
AcDbEntity
  8
部品1
 48
50.0
100
AcDbLine
 10
9776.14933667507
 20
10063.12359164077
 30
0.0
 11
7306.149345219593
 21
10063.12359164076
 31
0.0
  0
TEXT
  5
1700A
330
747D
100
AcDbEntity
  8
文字
 62
     7
 48
50.0
100
AcDbText
 10
13210.0866365058
 20
76.09434707649343
 30
0.0
 40
100.0
  1
○床面積 ： Ｎ［連続数］×6.92㎡(2.10坪)
  7
STYLE2
100
AcDbText
  0
LINE
  5
17080
330
747D
100
AcDbEntity
  8
部品1
 48
50.0
100
AcDbLine
 10
2033.149345219536
 20
7558.623591640911
 30
0.0
 11
4529.149345219519
 21
7558.623591640911
 31
0.0
  0
DIMENSION
  5
17081
330
747D
100
AcDbEntity
  8
寸法
 48
50.0
100
AcDbDimension
  2
*D21
 10
2069.149345219535
 20
6978.692820874748
 30
0.0
 11
3281.149345219527
 21
7078.70463189837
 31
0.0
 70
    32
  1
有効開口部間口 <>
 71
     5
 42
2423.999999999982
  3
INABA_S40G
100
AcDbAlignedDimension
 13
4493.149345219517
 23
7539.123591640913
 33
0.0
 14
2069.149345219535
 24
7539.123591640913
 34
0.0
100
AcDbRotatedDimension
1001
ACAD
1000
DSTYLE
1002
{
1070
    75
1070
     1
1070
   279
1070
     2
1002
}
  0
DIMENSION
  5
17082
330
747D
100
AcDbEntity
  8
寸法
 48
50.0
100
AcDbDimension
  2
*D20
 10
4493.149345219517
 20
6978.692820874748
 30
0.0
 11
4382.186447570769
 21
7078.692820874748
 31
0.0
 70
   160
 71
     5
 42
48.00000000000181
  3
INABA_S40G
100
AcDbAlignedDimension
 13
4541.149345219519
 23
7513.123591641001
 33
0.0
 14
4493.149345219517
 24
7539.123591640913
 34
0.0
100
AcDbRotatedDimension
1001
ACAD
1000
DSTYLE
1002
{
1070
   279
1070
     2
1002
}
  0
DIMENSION
  5
17083
330
747D
100
AcDbEntity
  8
寸法
 48
50.0
100
AcDbDimension
  2
*D22
 10
4541.149345219519
 20
6978.69282087475
 30
0.0
 11
4596.149345219525
 21
6827.000925838518
 31
0.0
 70
   160
 71
     5
 42
110.0000000000127
  3
INABA_S40G
100
AcDbAlignedDimension
 13
4651.149345219532
 23
7513.123591640912
 33
0.0
 14
4541.149345219519
 24
7513.123591641001
 34
0.0
100
AcDbRotatedDimension
1001
ACAD
1000
DSTYLE
1002
{
1070
   279
1070
     2
1002
}
  0
DIMENSION
  5
17084
330
747D
100
AcDbEntity
  8
寸法
 48
50.0
100
AcDbDimension
  2
*D19
 10
4651.149345219532
 20
6978.692820874748
 30
0.0
 11
4812.051316219593
 21
7078.692820874748
 31
0.0
 70
   160
 71
     5
 42
48.00000000000363
  3
INABA_S40G
100
AcDbAlignedDimension
 13
4699.149345219535
 23
7539.123591640913
 33
0.0
 14
4651.149345219532
 24
7513.123591640912
 34
0.0
100
AcDbRotatedDimension
1001
ACAD
1000
DSTYLE
1002
{
1070
   279
1070
     2
1002
}
  0
LINE
  5
17085
330
747D
100
AcDbEntity
  8
部品1
100
AcDbLine
 10
4651.149345219532
 20
7513.123591640912
 30
0.0
 11
4541.149345219521
 21
7513.123591640907
 31
0.0
  0
LINE
  5
17086
330
747D
100
AcDbEntity
  8
部品1
100
AcDbLine
 10
4651.149345219535
 20
7549.123591640911
 30
0.0
 11
4628.149345219536
 21
7549.123591640911
 31
0.0
  0
LINE
  5
17087
330
747D
100
AcDbEntity
  8
部品1
 48
50.0
100
AcDbLine
 10
4620.149345219526
 20
7568.123591640909
 30
0.0
 11
4620.149345219528
 21
7513.123591640909
 31
0.0
  0
LINE
  5
17088
330
747D
100
AcDbEntity
  8
部品1
 48
50.0
100
AcDbLine
 10
4572.149345219526
 20
7568.123591640909
 30
0.0
 11
4572.149345219528
 21
7513.123591640909
 31
0.0
  0
LINE
  5
17089
330
747D
100
AcDbEntity
  8
部品1
100
AcDbLine
 10
4620.149345219526
 20
7568.123591640909
 30
0.0
 11
4572.149345219524
 21
7568.123591640908
 31
0.0
  0
LINE
  5
1708A
330
747D
100
AcDbEntity
  8
部品1
 48
50.0
100
AcDbLine
 10
4541.149345219524
 20
7578.123591640999
 30
0.0
 11
4541.149345219521
 21
7513.123591641001
 31
0.0
  0
LINE
  5
1708B
330
747D
100
AcDbEntity
  8
部品1
100
AcDbLine
 10
4541.149345219517
 20
7549.123591640911
 30
0.0
 11
4564.149345219517
 21
7549.123591640911
 31
0.0
  0
LINE
  5
1708C
330
747D
100
AcDbEntity
  8
部品1
 48
50.0
100
AcDbLine
 10
4531.149345219517
 20
7539.123591640913
 30
0.0
 11
4541.149345219517
 21
7518.123591640912
 31
0.0
  0
LINE
  5
1708D
330
747D
100
AcDbEntity
  8
部品1
 48
50.0
100
AcDbLine
 10
4493.149345219517
 20
7539.123591640913
 30
0.0
 11
4493.149345219517
 21
7548.123591640913
 31
0.0
  0
LINE
  5
1708E
330
747D
100
AcDbEntity
  8
部品1
100
AcDbLine
 10
4493.149345219517
 20
7539.123591640913
 30
0.0
 11
4541.149345219517
 21
7539.123591640913
 31
0.0
  0
LINE
  5
1708F
330
747D
100
AcDbEntity
  8
部品1
 48
50.0
100
AcDbLine
 10
4493.149345219517
 20
7578.123591640913
 30
0.0
 11
4493.149345219517
 21
7569.123591640913
 31
0.0
  0
LINE
  5
17090
330
747D
100
AcDbEntity
  8
部品1
100
AcDbLine
 10
4493.149345219517
 20
7578.123591640913
 30
0.0
 11
4541.149345219519
 21
7578.123591640913
 31
0.0
  0
LINE
  5
17091
330
747D
100
AcDbEntity
  8
部品1
 48
50.0
100
AcDbLine
 10
4699.149345219535
 20
7539.123591640913
 30
0.0
 11
4699.149345219535
 21
7548.123591640913
 31
0.0
  0
LINE
  5
17092
330
747D
100
AcDbEntity
  8
部品1
 48
50.0
100
AcDbLine
 10
4651.149345219535
 20
7578.123591640911
 30
0.0
 11
4651.149345219532
 21
7513.123591640912
 31
0.0
  0
LINE
  5
17093
330
747D
100
AcDbEntity
  8
部品1
 48
50.0
100
AcDbLine
 10
4661.149345219535
 20
7539.123591640913
 30
0.0
 11
4651.149345219535
 21
7518.123591640912
 31
0.0
  0
LINE
  5
17094
330
747D
100
AcDbEntity
  8
部品1
100
AcDbLine
 10
4699.149345219535
 20
7539.123591640913
 30
0.0
 11
4651.149345219535
 21
7539.123591640913
 31
0.0
  0
LINE
  5
17095
330
747D
100
AcDbEntity
  8
部品1
 48
50.0
100
AcDbLine
 10
4699.149345219535
 20
7578.123591640913
 30
0.0
 11
4699.149345219535
 21
7569.123591640913
 31
0.0
  0
LINE
  5
17096
330
747D
100
AcDbEntity
  8
部品1
100
AcDbLine
 10
4699.149345219535
 20
7578.123591640913
 30
0.0
 11
4651.149345219535
 21
7578.123591640913
 31
0.0
  0
DIMENSION
  5
17097
330
747D
100
AcDbEntity
  8
寸法
 48
50.0
100
AcDbDimension
  2
*D25
 10
4596.149345219543
 20
10608.25328482231
 30
0.0
 11
3281.149345219525
 21
10708.26509584593
 31
0.0
 70
    32
 71
     5
 42
2630.000000000036
  3
INABA_S40G
100
AcDbAlignedDimension
 13
1966.149345219506
 23
10143.12359164088
 33
0.0
 14
4596.149345219543
 24
10517.91972562396
 34
0.0
100
AcDbRotatedDimension
1001
ACAD
1000
DSTYLE
1002
{
1070
   279
1070
     2
1002
}
  0
LINE
  5
17098
330
747D
100
AcDbEntity
  8
部品1
100
AcDbLine
 10
3293.649345219543
 20
10115.12359164103
 30
0.0
 11
4568.149345219542
 21
10115.12359164101
 31
0.0
  0
DIMENSION
  5
17099
330
747D
100
AcDbEntity
  8
寸法
100
AcDbDimension
  2
*D23
 10
4541.149345219543
 20
10358.93181126601
 30
0.0
 11
3281.149345219543
 21
10458.94362228964
 31
0.0
 70
    32
  1
6X420=<>
 71
     5
 42
2520.0
  3
INABA_S40G
100
AcDbAlignedDimension
 13
2021.149345219543
 23
10143.12359164091
 33
0.0
 14
4541.149345219543
 24
10143.12359164101
 34
0.0
100
AcDbRotatedDimension
1001
ACAD
1000
DSTYLE
1002
{
1002
}
  0
LINE
  5
1709A
330
747D
100
AcDbEntity
  8
部品1
100
AcDbLine
 10
1994.149345219528
 20
10115.12359164103
 30
0.0
 11
3268.649345219539
 21
10115.12359164103
 31
0.0
  0
LINE
  5
1709B
330
747D
100
AcDbEntity
  8
部品1
100
AcDbLine
 10
2441.149345219543
 20
10143.12359164091
 30
0.0
 11
2441.149345219543
 21
10115.12359164091
 31
0.0
  0
LINE
  5
1709C
330
747D
100
AcDbEntity
  8
部品1
100
AcDbLine
 10
2441.149345219543
 20
10143.12359164091
 30
0.0
 11
2441.149345219543
 21
10115.12359164091
 31
0.0
  0
LINE
  5
1709D
330
747D
100
AcDbEntity
  8
部品1
100
AcDbLine
 10
2441.149345219543
 20
10143.12359164103
 30
0.0
 11
2441.149345219543
 21
10115.12359164103
 31
0.0
  0
LINE
  5
1709E
330
747D
100
AcDbEntity
  8
部品1
100
AcDbLine
 10
2861.149345219543
 20
10143.12359164091
 30
0.0
 11
2861.149345219543
 21
10115.12359164091
 31
0.0
  0
LINE
  5
1709F
330
747D
100
AcDbEntity
  8
部品1
100
AcDbLine
 10
2861.149345219543
 20
10143.12359164091
 30
0.0
 11
2861.149345219543
 21
10115.12359164091
 31
0.0
  0
LINE
  5
170A0
330
747D
100
AcDbEntity
  8
部品1
100
AcDbLine
 10
2861.149345219543
 20
10143.12359164103
 30
0.0
 11
2861.149345219543
 21
10115.12359164103
 31
0.0
  0
LINE
  5
170A1
330
747D
100
AcDbEntity
  8
部品1
 48
50.0
100
AcDbLine
 10
3293.649345219543
 20
10115.12359164103
 30
0.0
 11
3293.649345219543
 21
10107.12359164102
 31
0.0
  0
LINE
  5
170A2
330
747D
100
AcDbEntity
  8
部品1
 48
50.0
100
AcDbLine
 10
3268.649345219539
 20
10115.12359164103
 30
0.0
 11
3268.649345219543
 21
10107.12359164101
 31
0.0
  0
LINE
  5
170A3
330
747D
100
AcDbEntity
  8
部品1
100
AcDbLine
 10
3246.149345219543
 20
10133.12359164102
 30
0.0
 11
3246.149345219543
 21
10115.12359164102
 31
0.0
  0
LINE
  5
170A4
330
747D
100
AcDbEntity
  8
部品1
100
AcDbLine
 10
3246.149345219543
 20
10133.12359164102
 30
0.0
 11
3252.149345219543
 21
10133.12359164102
 31
0.0
  0
LINE
  5
170A5
330
747D
100
AcDbEntity
  8
部品1
100
AcDbLine
 10
3316.149345219543
 20
10133.12359164102
 30
0.0
 11
3316.149345219543
 21
10115.12359164102
 31
0.0
  0
LINE
  5
170A6
330
747D
100
AcDbEntity
  8
部品1
100
AcDbLine
 10
3310.149345219543
 20
10133.12359164102
 30
0.0
 11
3316.149345219543
 21
10133.12359164102
 31
0.0
  0
LINE
  5
170A7
330
747D
100
AcDbEntity
  8
部品1
100
AcDbLine
 10
3268.649345219543
 20
10107.12359164101
 30
0.0
 11
3293.649345219543
 21
10107.12359164102
 31
0.0
  0
LINE
  5
170A8
330
747D
100
AcDbEntity
  8
部品1
100
AcDbLine
 10
3281.149345219543
 20
10143.12359164103
 30
0.0
 11
3281.149345219543
 21
10115.12359164103
 31
0.0
  0
LINE
  5
170A9
330
747D
100
AcDbEntity
  8
部品1
100
AcDbLine
 10
3701.149345219543
 20
10143.12359164103
 30
0.0
 11
3701.149345219543
 21
10115.12359164103
 31
0.0
  0
LINE
  5
170AA
330
747D
100
AcDbEntity
  8
部品1
100
AcDbLine
 10
4121.149345219541
 20
10143.12359164103
 30
0.0
 11
4121.149345219541
 21
10115.12359164103
 31
0.0
  0
DIMENSION
  5
170AB
330
747D
100
AcDbEntity
  8
寸法
 48
50.0
100
AcDbDimension
  2
*D24
 10
4541.149345219543
 20
10358.93181126601
 30
0.0
 11
4596.149345219543
 21
10458.93181126601
 31
0.0
 70
    32
 71
     5
 42
110.0
  3
INABA_S40G
100
AcDbAlignedDimension
 13
4651.149345219542
 23
10143.12359164096
 33
0.0
 14
4541.149345219543
 24
10143.12359164096
 34
0.0
100
AcDbRotatedDimension
1001
ACAD
1000
DSTYLE
1002
{
1070
   279
1070
     2
1002
}
  0
TEXT
  5
17163
330
747D
100
AcDbEntity
  8
文字
 48
50.0
100
AcDbText
 10
5123.330518436493
 20
10398.58463931269
 30
0.0
 40
120.0
  1
2520
  7
STYLE1
100
AcDbText
  0
TEXT
  5
17164
330
747D
100
AcDbEntity
  8
文字
 48
50.0
100
AcDbText
 10
6361.498906563032
 20
10398.58463931269
 30
0.0
 40
120.0
  1
2520
  7
STYLE1
100
AcDbText
  0
LINE
  5
17165
330
747D
100
AcDbEntity
  8
寸法
 48
50.0
100
AcDbLine
 10
4651.149345219541
 20
10358.93181126601
 30
0.0
 11
5491.149345219541
 21
10358.93181126601
 31
0.0
  0
LINE
  5
17166
330
747D
100
AcDbEntity
  8
寸法
 48
50.0
100
AcDbLine
 10
6331.149345219543
 20
10358.93181126601
 30
0.0
 11
7171.149345219543
 21
10358.93181126601
 31
0.0
  0
LINE
  5
17169
330
747D
100
AcDbEntity
  8
寸法
 48
50.0
100
AcDbLine
 10
4596.149345219543
 20
10608.25328482231
 30
0.0
 11
5484.149345219543
 21
10608.25328482231
 31
0.0
  0
TEXT
  5
1716A
330
747D
100
AcDbEntity
  8
文字
 48
50.0
100
AcDbText
 10
5116.330518436495
 20
10647.90611286899
 30
0.0
 40
120.0
  1
2630
  7
STYLE1
100
AcDbText
  0
LINE
  5
1716B
330
747D
100
AcDbEntity
  8
寸法
 48
50.0
100
AcDbLine
 10
6338.149345219543
 20
10608.25328482231
 30
0.0
 11
7226.149345219543
 21
10608.25328482231
 31
0.0
  0
TEXT
  5
1716C
330
747D
100
AcDbEntity
  8
文字
 48
50.0
100
AcDbText
 10
6368.498906563033
 20
10647.90611286899
 30
0.0
 40
120.0
  1
2630
  7
STYLE1
100
AcDbText
  0
LINE
  5
1716F
330
747D
100
AcDbEntity
  8
寸法
 48
50.0
100
AcDbLine
 10
4699.149345219535
 20
6978.692820874748
 30
0.0
 11
5689.149345219536
 21
6978.692820874748
 31
0.0
  0
TEXT
  5
17170
330
747D
100
AcDbEntity
  8
文字
 48
50.0
100
AcDbText
 10
5321.330518436487
 20
7018.345648921426
 30
0.0
 40
120.0
  1
2424
  7
STYLE1
100
AcDbText
  0
LINE
  5
17171
330
747D
100
AcDbEntity
  8
寸法
 48
50.0
100
AcDbLine
 10
6133.149345219518
 20
6978.692820874748
 30
0.0
 11
7123.149345219518
 21
6978.692820874748
 31
0.0
  0
TEXT
  5
17172
330
747D
100
AcDbEntity
  8
文字
 48
50.0
100
AcDbText
 10
6163.498906563007
 20
7018.345648921426
 30
0.0
 40
120.0
  1
2424
  7
STYLE1
100
AcDbText
  0
LINE
  5
171CA
330
747D
100
AcDbEntity
  8
部品1
100
AcDbLine
 10
7171.149346553147
 20
10088.12359164093
 30
0.0
 11
4651.149345219299
 21
10088.12359164093
 31
0.0
  0
LINE
  5
171CB
330
747D
100
AcDbEntity
  8
部品1
 48
50.0
100
AcDbLine
 10
7146.149342975758
 20
10063.12359164075
 30
0.0
 11
4676.149345219275
 21
10063.12359164074
 31
0.0
  0
LINE
  5
17399
330
747D
100
AcDbEntity
  8
仕様書枠
 48
50.0
100
AcDbLine
 10
16307.19999999999
 20
8689.600000000003
 30
0.0
 11
13127.19999999999
 21
8689.600000000003
 31
0.0
  0
TEXT
  5
1739A
330
747D
100
AcDbEntity
  8
文字
 62
     7
 48
50.0
100
AcDbText
 10
15022.63965474516
 20
9910.013745883727
 30
0.0
 40
100.0
  1
F12,Y10        1.0
  7
STYLE1
100
AcDbText
  0
TEXT
  5
1739B
330
747D
100
AcDbEntity
  8
文字
 62
     7
 48
50.0
100
AcDbText
 10
13583.11819016569
 20
9910.01374588373
 30
0.0
 40
100.0
  1
梁中
  7
STYLE1
100
AcDbText
  0
LINE
  5
1739C
330
747D
100
AcDbEntity
  8
仕様書枠
 48
50.0
100
AcDbLine
 10
16307.19999999999
 20
9879.599999999999
 30
0.0
 11
13127.19999999999
 21
9879.600000000001
 31
0.0
  0
LINE
  5
1739D
330
747D
100
AcDbEntity
  8
仕様書枠
 48
50.0
100
AcDbLine
 10
16307.19999999999
 20
11239.6
 30
0.0
 11
13127.2
 21
11239.6
 31
0.0
  0
LINE
  5
1739E
330
747D
100
AcDbEntity
  8
仕様書枠
 48
50.0
100
AcDbLine
 10
16307.19999999999
 20
8179.600000000004
 30
0.0
 11
16307.2
 21
11239.6
 31
0.0
  0
LINE
  5
1739F
330
747D
100
AcDbEntity
  8
仕様書枠
 48
50.0
100
AcDbLine
 10
14785.2
 20
11239.59999999999
 30
0.0
 11
14785.19999999999
 21
8689.600000000003
 31
0.0
  0
LINE
  5
173A0
330
747D
100
AcDbEntity
  8
仕様書枠
 48
50.0
100
AcDbLine
 10
13490.2
 20
11239.6
 30
0.0
 11
13490.20000000001
 21
8689.600000000003
 31
0.0
  0
LINE
  5
173A1
330
747D
100
AcDbEntity
  8
仕様書枠
 48
50.0
100
AcDbLine
 10
16307.19999999999
 20
11069.6
 30
0.0
 11
13127.2
 21
11069.6
 31
0.0
  0
LINE
  5
173A2
330
747D
100
AcDbEntity
  8
仕様書枠
 48
50.0
100
AcDbLine
 10
16307.19999999999
 20
10729.6
 30
0.0
 11
13127.2
 21
10729.6
 31
0.0
  0
LINE
  5
173A3
330
747D
100
AcDbEntity
  8
仕様書枠
 48
50.0
100
AcDbLine
 10
16307.19999999999
 20
10899.6
 30
0.0
 11
13127.2
 21
10899.6
 31
0.0
  0
LINE
  5
173A4
330
747D
100
AcDbEntity
  8
仕様書枠
 48
50.0
100
AcDbLine
 10
16307.19999999999
 20
10389.6
 30
0.0
 11
13127.19999999999
 21
10389.6
 31
0.0
  0
LINE
  5
173A5
330
747D
100
AcDbEntity
  8
仕様書枠
 48
50.0
100
AcDbLine
 10
16307.19999999999
 20
10219.6
 30
0.0
 11
13127.19999999999
 21
10219.6
 31
0.0
  0
LINE
  5
173A6
330
747D
100
AcDbEntity
  8
仕様書枠
 48
50.0
100
AcDbLine
 10
16307.19999999999
 20
10559.6
 30
0.0
 11
13127.19999999999
 21
10559.6
 31
0.0
  0
TEXT
  5
173A7
330
747D
100
AcDbEntity
  8
文字
 62
     7
 48
50.0
100
AcDbText
 10
13197.42518560407
 20
11100.01374588373
 30
0.0
 40
100.0
  1
品番
  7
STYLE1
100
AcDbText
  0
TEXT
  5
173A8
330
747D
100
AcDbEntity
  8
文字
 62
     7
 48
50.0
100
AcDbText
 10
13271.19032244792
 20
10930.01374588373
 30
0.0
 40
100.0
  1
1
  7
STYLE1
100
AcDbText
  0
TEXT
  5
173A9
330
747D
100
AcDbEntity
  8
文字
 62
     7
 48
50.0
100
AcDbText
 10
13271.19032244792
 20
10760.01374588373
 30
0.0
 40
100.0
  1
2
  7
STYLE1
100
AcDbText
  0
TEXT
  5
173AA
330
747D
100
AcDbEntity
  8
文字
 62
     7
 48
50.0
100
AcDbText
 10
13271.19032244792
 20
10420.01374588373
 30
0.0
 40
100.0
  1
4
  7
STYLE1
100
AcDbText
  0
TEXT
  5
173AB
330
747D
100
AcDbEntity
  8
文字
 62
     7
 48
50.0
100
AcDbText
 10
13271.19032244792
 20
10590.01374588373
 30
0.0
 40
100.0
  1
3
  7
STYLE1
100
AcDbText
  0
TEXT
  5
173AC
330
747D
100
AcDbEntity
  8
文字
 62
     7
 48
50.0
100
AcDbText
 10
13732.03840939434
 20
11100.01374588373
 30
0.0
 40
100.0
  1
部　　品　　名
  7
STYLE1
100
AcDbText
  0
TEXT
  5
173AD
330
747D
100
AcDbEntity
  8
文字
 62
     7
 48
50.0
100
AcDbText
 10
14859.79774614482
 20
11100.01374588373
 30
0.0
 40
100.0
  1
材料（材質）　　単位mm
  7
STYLE1
100
AcDbText
  0
TEXT
  5
173AE
330
747D
100
AcDbEntity
  8
文字
 62
     7
 48
50.0
100
AcDbText
 10
13583.11819016569
 20
10930.01374588372
 30
0.0
 40
100.0
  1
土台枠
  7
STYLE1
100
AcDbText
  0
TEXT
  5
173AF
330
747D
100
AcDbEntity
  8
文字
 62
     7
 48
50.0
100
AcDbText
 10
13583.11819016569
 20
10760.01374588372
 30
0.0
 40
100.0
  1
柱
  7
STYLE1
100
AcDbText
  0
TEXT
  5
173B0
330
747D
100
AcDbEntity
  8
文字
 62
     7
 48
50.0
100
AcDbText
 10
13583.11819016569
 20
10590.01374588373
 30
0.0
 40
100.0
  1
桁前
  7
STYLE1
100
AcDbText
  0
TEXT
  5
173B1
330
747D
100
AcDbEntity
  8
文字
 62
     7
 48
50.0
100
AcDbText
 10
13583.11819016569
 20
10420.01374588373
 30
0.0
 40
100.0
  1
桁後
  7
STYLE1
100
AcDbText
  0
TEXT
  5
173B2
330
747D
100
AcDbEntity
  8
文字
 62
     7
 48
50.0
100
AcDbText
 10
13271.19032244792
 20
10250.01374588373
 30
0.0
 40
100.0
  1
5
  7
STYLE1
100
AcDbText
  0
TEXT
  5
173B3
330
747D
100
AcDbEntity
  8
文字
 62
     7
 48
50.0
100
AcDbText
 10
13583.11819016569
 20
10250.01374588373
 30
0.0
 40
100.0
  1
妻板左右
  7
STYLE1
100
AcDbText
  0
TEXT
  5
173B4
330
747D
100
AcDbEntity
  8
文字
 62
     7
 48
50.0
100
AcDbText
 10
13583.11819016569
 20
8720.013745883729
 30
0.0
 40
100.0
  1
シャッターレール
  7
STYLE1
100
AcDbText
  0
TEXT
  5
173B5
330
747D
100
AcDbEntity
  8
文字
 62
     7
 48
50.0
100
AcDbText
 10
13248.77747366448
 20
9400.013745883727
 30
0.0
 40
100.0
  1
10
  7
STYLE1
100
AcDbText
  0
TEXT
  5
173B6
330
747D
100
AcDbEntity
  8
文字
 62
     7
 48
50.0
100
AcDbText
 10
13583.11819016569
 20
9400.013745883729
 30
0.0
 40
100.0
  1
壁パネル
  7
STYLE1
100
AcDbText
  0
TEXT
  5
173B7
330
747D
100
AcDbEntity
  8
文字
 62
     7
 48
50.0
100
AcDbText
 10
13583.11819016569
 20
9570.013745883727
 30
0.0
 40
100.0
  1
屋根パネル
  7
STYLE1
100
AcDbText
  0
TEXT
  5
173B8
330
747D
100
AcDbEntity
  8
文字
 62
     7
 48
50.0
100
AcDbText
 10
13583.11819016569
 20
9740.013745883729
 30
0.0
 40
100.0
  1
母屋中
  7
STYLE1
100
AcDbText
  0
TEXT
  5
173B9
330
747D
100
AcDbEntity
  8
文字
 62
     7
 48
50.0
100
AcDbText
 10
13583.11819016569
 20
10080.01374588372
 30
0.0
 40
100.0
  1
鼻隠シ前後
  7
STYLE1
100
AcDbText
  0
TEXT
  5
173BA
330
747D
100
AcDbEntity
  8
文字
 62
     7
 48
50.0
100
AcDbText
 10
13271.19032244792
 20
9740.013745883729
 30
0.0
 40
100.0
  1
8
  7
STYLE1
100
AcDbText
  0
TEXT
  5
173BB
330
747D
100
AcDbEntity
  8
文字
 62
     7
 48
50.0
100
AcDbText
 10
13271.19032244792
 20
9570.013745883729
 30
0.0
 40
100.0
  1
9
  7
STYLE1
100
AcDbText
  0
TEXT
  5
173BC
330
747D
100
AcDbEntity
  8
文字
 62
     7
 48
50.0
100
AcDbText
 10
13271.19032244792
 20
9910.01374588373
 30
0.0
 40
100.0
  1
7
  7
STYLE1
100
AcDbText
  0
TEXT
  5
173BD
330
747D
100
AcDbEntity
  8
文字
 62
     7
 48
50.0
100
AcDbText
 10
13271.19032244792
 20
10080.01374588373
 30
0.0
 40
100.0
  1
6
  7
STYLE1
100
AcDbText
  0
LINE
  5
173BE
330
747D
100
AcDbEntity
  8
仕様書枠
 48
50.0
100
AcDbLine
 10
16307.19999999999
 20
9539.599999999998
 30
0.0
 11
13127.19999999999
 21
9539.6
 31
0.0
  0
LINE
  5
173BF
330
747D
100
AcDbEntity
  8
仕様書枠
 48
50.0
100
AcDbLine
 10
16307.19999999999
 20
9199.599999999998
 30
0.0
 11
13127.19999999999
 21
9199.600000000001
 31
0.0
  0
LINE
  5
173C0
330
747D
100
AcDbEntity
  8
仕様書枠
 48
50.0
100
AcDbLine
 10
16307.19999999999
 20
9369.599999999998
 30
0.0
 11
13127.19999999999
 21
9369.600000000001
 31
0.0
  0
LINE
  5
173C1
330
747D
100
AcDbEntity
  8
仕様書枠
 48
50.0
100
AcDbLine
 10
16307.19999999999
 20
10049.6
 30
0.0
 11
13127.2
 21
10049.6
 31
0.0
  0
LINE
  5
173C2
330
747D
100
AcDbEntity
  8
仕様書枠
 48
50.0
100
AcDbLine
 10
16307.19999999999
 20
9709.6
 30
0.0
 11
13127.19999999999
 21
9709.600000000001
 31
0.0
  0
TEXT
  5
173C3
330
747D
100
AcDbEntity
  8
文字
 62
     7
 48
50.0
100
AcDbText
 10
13248.77747366448
 20
9230.013745883727
 30
0.0
 40
100.0
  1
11
  7
STYLE1
100
AcDbText
  0
TEXT
  5
173C4
330
747D
100
AcDbEntity
  8
文字
 62
     7
 48
50.0
100
AcDbText
 10
13583.11819016569
 20
8890.013745883727
 30
0.0
 40
100.0
  1
シャッターカバー
 41
0.9
  7
STYLE1
100
AcDbText
  0
LINE
  5
173C5
330
747D
100
AcDbEntity
  8
仕様書枠
 48
50.0
100
AcDbLine
 10
16307.19999999999
 20
9029.6
 30
0.0
 11
13127.19999999999
 21
9029.6
 31
0.0
  0
LINE
  5
173C6
330
747D
100
AcDbEntity
  8
仕様書枠
 48
50.0
100
AcDbLine
 10
16307.19999999999
 20
8859.6
 30
0.0
 11
13127.19999999999
 21
8859.600000000002
 31
0.0
  0
TEXT
  5
173C7
330
747D
100
AcDbEntity
  8
文字
 62
     7
 48
50.0
100
AcDbText
 10
13583.11819016569
 20
9060.013745883727
 30
0.0
 40
100.0
  1
シャッター
  7
STYLE1
100
AcDbText
  0
TEXT
  5
173C8
330
747D
100
AcDbEntity
  8
文字
 62
     7
 48
50.0
100
AcDbText
 10
13248.77747366448
 20
8890.013745883729
 30
0.0
 40
100.0
  1
13
  7
STYLE1
100
AcDbText
  0
TEXT
  5
173C9
330
747D
100
AcDbEntity
  8
文字
 62
     7
 48
50.0
100
AcDbText
 10
13248.77747366448
 20
9060.013745883729
 30
0.0
 40
100.0
  1
12
  7
STYLE1
100
AcDbText
  0
TEXT
  5
173CA
330
747D
100
AcDbEntity
  8
文字
 62
     7
 48
50.0
100
AcDbText
 10
15022.63965474517
 20
10930.01374588372
 30
0.0
 40
100.0
  1
F12            1.2
  7
STYLE1
100
AcDbText
  0
TEXT
  5
173CB
330
747D
100
AcDbEntity
  8
文字
 62
     7
 48
50.0
100
AcDbText
 10
15022.63965474517
 20
10760.01374588372
 30
0.0
 40
100.0
  1
F12         1.0,1.2
  7
STYLE1
100
AcDbText
  0
TEXT
  5
173CC
330
747D
100
AcDbEntity
  8
文字
 62
     7
 48
50.0
100
AcDbText
 10
15022.63965474516
 20
10590.01374588372
 30
0.0
 40
100.0
  1
Y10            1.0
  7
STYLE1
100
AcDbText
  0
TEXT
  5
173CD
330
747D
100
AcDbEntity
  8
文字
 62
     7
 48
50.0
100
AcDbText
 10
15022.63965474516
 20
10420.01374588372
 30
0.0
 40
100.0
  1
Y10            1.0
  7
STYLE1
100
AcDbText
  0
TEXT
  5
173CE
330
747D
100
AcDbEntity
  8
文字
 62
     7
 48
50.0
100
AcDbText
 10
15022.63965474516
 20
10250.01374588372
 30
0.0
 40
100.0
  1
Y10            0.7
  7
STYLE1
100
AcDbText
  0
TEXT
  5
173CF
330
747D
100
AcDbEntity
  8
文字
 62
     7
 48
50.0
100
AcDbText
 10
15022.63965474516
 20
10080.01374588372
 30
0.0
 40
100.0
  1
Y10            0.7
  7
STYLE1
100
AcDbText
  0
TEXT
  5
173D0
330
747D
100
AcDbEntity
  8
文字
 62
     7
 48
50.0
100
AcDbText
 10
15022.63965474516
 20
9570.013745883725
 30
0.0
 40
100.0
  1
Y10            0.5
  7
STYLE1
100
AcDbText
  0
TEXT
  5
173D1
330
747D
100
AcDbEntity
  8
文字
 62
     7
 48
50.0
100
AcDbText
 10
15022.63965474516
 20
9400.013745883725
 30
0.0
 40
100.0
  1
F12            0.7
  7
STYLE1
100
AcDbText
  0
TEXT
  5
173D2
330
747D
100
AcDbEntity
  8
文字
 62
     7
 48
50.0
100
AcDbText
 10
14850.83183167176
 20
8720.013745883727
 30
0.0
 40
100.0
  1
アルミニウム合金押出形材
  7
STYLE1
100
AcDbText
  0
TEXT
  5
173D4
330
747D
100
AcDbEntity
  8
文字
 62
     7
 48
50.0
100
AcDbText
 10
15022.63965474515
 20
9060.013745883724
 30
0.0
 40
100.0
  1
Z08            0.5
  7
STYLE1
100
AcDbText
  0
LINE
  5
173D5
330
747D
100
AcDbEntity
  8
仕様書枠
 48
50.0
100
AcDbLine
 10
16307.19999999999
 20
8519.600000000002
 30
0.0
 11
13127.19999999999
 21
8519.600000000004
 31
0.0
  0
LINE
  5
173D6
330
747D
100
AcDbEntity
  8
仕様書枠
 48
50.0
100
AcDbLine
 10
16307.19999999999
 20
8349.600000000002
 30
0.0
 11
13127.19999999999
 21
8349.600000000004
 31
0.0
  0
LINE
  5
173D7
330
747D
100
AcDbEntity
  8
仕様書枠
 48
50.0
100
AcDbLine
 10
16307.19999999999
 20
8179.600000000002
 30
0.0
 11
13127.19999999999
 21
8179.600000000004
 31
0.0
  0
TEXT
  5
173D8
330
747D
100
AcDbEntity
  8
文字
 62
     7
 48
50.0
100
AcDbText
 10
13229.83081656555
 20
8550.013745883731
 30
0.0
 40
100.0
  1
F12→溶融亜鉛めっき鋼板(JIS G 3302)
  7
STYLE1
100
AcDbText
  0
TEXT
  5
173D9
330
747D
100
AcDbEntity
  8
文字
 62
     7
 48
50.0
100
AcDbText
 10
13229.83081656555
 20
8380.013745883731
 30
0.0
 40
100.0
  1
Y10→溶融亜鉛-5％アルミニウム合金めっき鋼板(JIS G 3317)
 41
0.9
  7
STYLE1
100
AcDbText
  0
TEXT
  5
173DA
330
747D
100
AcDbEntity
  8
文字
 62
     7
 48
50.0
100
AcDbText
 10
13229.83081656555
 20
8210.013745883733
 30
0.0
 40
100.0
  1
Z08→塗装溶融亜鉛めっき鋼板(JIS G 3313)
  7
STYLE1
100
AcDbText
  0
LINE
  5
173DB
330
747D
100
AcDbEntity
  8
仕様書枠
 48
50.0
100
AcDbLine
 10
13127.2
 20
11239.6
 30
0.0
 11
13127.2
 21
8179.600000000004
 31
0.0
  0
LWPOLYLINE
  5
179B9
330
747D
100
AcDbEntity
  8
部品1
100
AcDbPolyline
 90
        4
 70
     1
 43
0.0
 10
5529.414012105306
 20
1686.349928194464
 10
5529.414012105306
 20
1446.457606648931
 10
6292.884678333743
 20
1446.457606648931
 10
6292.884678333743
 20
1686.349928194464
  0
TEXT
  5
179BA
330
747D
100
AcDbEntity
  8
部品1
100
AcDbText
 10
5619.939415843262
 20
1493.456398975941
 30
0.0
 40
135.0
  1
正面図
  7
STYLE2
100
AcDbText
  0
LINE
  5
179CC
330
747D
100
AcDbEntity
  8
部品1
 48
50.0
100
AcDbLine
 10
7226.149345219521
 20
4670.349928194468
 30
0.0
 11
4596.149345219521
 21
4670.349928194467
 31
0.0
  0
LINE
  5
179CD
330
747D
100
AcDbEntity
  8
細線
 48
50.0
100
AcDbLine
 10
7216.149345219519
 20
4691.123170758252
 30
0.0
 11
4586.149345219521
 21
4691.123170758252
 31
0.0
  0
LINE
  5
179CE
330
747D
100
AcDbEntity
  8
部品1
 48
50.0
100
AcDbLine
 10
7216.149345219516
 20
4811.349928194467
 30
0.0
 11
4586.149345219521
 21
4811.349928194467
 31
0.0
  0
LINE
  5
179CF
330
747D
100
AcDbEntity
  8
細線
 48
50.0
100
AcDbLine
 10
7216.149345219517
 20
4783.323170757935
 30
0.0
 11
4586.149345219521
 21
4783.323170757936
 31
0.0
  0
LINE
  5
179E3
330
747D
100
AcDbEntity
  8
部品1
100
AcDbLine
 10
4596.14934521952
 20
2436.349928194464
 30
0.0
 11
7226.149345219521
 21
2436.349928194464
 31
0.0
  0
LINE
  5
179E4
330
747D
100
AcDbEntity
  8
Ｇ．Ｌ
100
AcDbLine
 10
809.4700656765295
 20
2336.349928194464
 30
0.0
 11
15272.26983364269
 21
2336.349928194464
 31
0.0
  0
DIMENSION
  5
179EF
330
747D
100
AcDbEntity
  8
寸法
 48
50.0
100
AcDbDimension
  2
*D27
 10
9906.149345219521
 20
5426.969197152383
 30
0.0
 11
5911.149345219524
 21
5526.981008176004
 31
0.0
 70
    32
  1
N X 2630+100
 71
     5
 42
7989.999999999993
  3
INABA_S40G
100
AcDbAlignedDimension
 13
1916.149345219528
 23
4811.349928194469
 33
0.0
 14
9906.149345219521
 24
4811.349928194466
 34
0.0
100
AcDbRotatedDimension
  0
DIMENSION
  5
179F0
330
747D
100
AcDbEntity
  8
寸法
 48
50.0
100
AcDbDimension
  2
*D28
 10
1966.149345219528
 20
5210.443097533937
 30
0.0
 11
5911.149345219524
 21
5310.454908557559
 31
0.0
 70
    32
  1
柱外寸法 N X 2630
 71
     5
 42
7889.999999999993
  3
INABA_S40G
100
AcDbAlignedDimension
 13
9856.14934521952
 23
4811.349928194469
 33
0.0
 14
1966.149345219528
 24
4811.34992819447
 34
0.0
100
AcDbRotatedDimension
  0
LINE
  5
179FB
330
747D
100
AcDbEntity
  8
部品1
 48
50.0
100
AcDbLine
 10
4596.149345219521
 20
4411.349928194463
 30
0.0
 11
4596.149345219521
 21
4670.349928194467
 31
0.0
  0
LINE
  5
179FC
330
747D
100
AcDbEntity
  8
部品1
 48
50.0
100
AcDbLine
 10
4586.149345219521
 20
4670.349928194467
 30
0.0
 11
4586.149345219521
 21
4811.349928194469
 31
0.0
  0
LINE
  5
17A29
330
747D
100
AcDbEntity
  8
部品1
 48
50.0
100
AcDbLine
 10
4586.149345219521
 20
4811.349928194467
 30
0.0
 11
1923.557766325954
 21
4811.349928194467
 31
0.0
  0
LINE
  5
17A2A
330
747D
100
AcDbEntity
  8
部品1
 48
50.0
100
AcDbLine
 10
4596.149345219521
 20
4670.349928194467
 30
0.0
 11
1936.773089786991
 21
4670.349928194467
 31
0.0
  0
LINE
  5
17A2B
330
747D
100
AcDbEntity
  8
細線
 48
50.0
100
AcDbLine
 10
4586.149345219521
 20
4783.323170757936
 30
0.0
 11
1918.307996231488
 21
4783.323170758256
 31
0.0
  0
LINE
  5
17A2C
330
747D
100
AcDbEntity
  8
細線
 48
50.0
100
AcDbLine
 10
4586.149345219521
 20
4691.123170758252
 30
0.0
 11
1926.544026756324
 21
4691.123170758255
 31
0.0
  0
LINE
  5
17A2D
330
747D
100
AcDbEntity
  8
細線
 48
50.0
100
AcDbLine
 10
1949.149345219528
 20
4811.349928194467
 30
0.0
 11
1949.149345219528
 21
4670.349928194467
 31
0.0
  0
ARC
  5
17A2E
330
747D
100
AcDbEntity
  8
部品1
100
AcDbCircle
 10
1923.557766325954
 20
4804.349928194468
 30
0.0
 40
7.0
100
AcDbArc
 50
90.0
 51
183.2473427903377
  0
ARC
  5
17A2F
330
747D
100
AcDbEntity
  8
部品1
100
AcDbCircle
 10
1936.773089786991
 20
4677.349928194468
 30
0.0
 40
7.0
100
AcDbArc
 50
183.2473427903377
 51
270.0
  0
ARC
  5
17A30
330
747D
100
AcDbEntity
  8
部品1
 48
50.0
100
AcDbCircle
 10
1918.401279576312
 20
4784.016927356154
 30
0.0
 40
0.7
100
AcDbArc
 50
183.2473427903897
 51
262.3418727926349
  0
ARC
  5
17A31
330
747D
100
AcDbEntity
  8
部品1
 48
50.0
100
AcDbCircle
 10
1926.637310101156
 20
4691.816927356151
 30
0.0
 40
0.7
100
AcDbArc
 50
183.2473427902856
 51
262.3418727926349
  0
ARC
  5
17A32
330
747D
100
AcDbEntity
  8
部品1
 48
50.0
100
AcDbCircle
 10
1926.144240992595
 20
4688.149928194467
 30
0.0
 40
3.0
100
AcDbArc
 50
3.247342790337682
 51
82.3418727926348
  0
ARC
  5
17A33
330
747D
100
AcDbEntity
  8
部品1
 48
50.0
100
AcDbCircle
 10
1917.908210467751
 20
4780.349928194468
 30
0.0
 40
3.0
100
AcDbArc
 50
3.247342790337682
 51
82.3418727926348
  0
LINE
  5
17A34
330
747D
100
AcDbEntity
  8
部品1
100
AcDbLine
 10
1920.903393363937
 20
4780.519867649571
 30
0.0
 11
1925.938434092044
 21
4691.777274816628
 31
0.0
  0
LINE
  5
17A35
330
747D
100
AcDbEntity
  8
部品1
100
AcDbLine
 10
1929.139423888781
 20
4688.31986764957
 30
0.0
 11
1929.784329695889
 21
4676.95340279923
 31
0.0
  0
LINE
  5
17A36
330
747D
100
AcDbEntity
  8
部品1
100
AcDbLine
 10
1916.569006234858
 20
4803.953402799226
 30
0.0
 11
1917.702403567207
 21
4783.977274816629
 31
0.0
  0
DIMENSION
  5
17A37
330
747D
100
AcDbEntity
  8
寸法
 48
50.0
100
AcDbDimension
  2
*D29
 10
1916.149345219528
 20
5210.443097533937
 30
0.0
 11
1602.664063845281
 21
5210.443097533937
 31
0.0
 70
   160
 71
     5
 42
50.0
  3
INABA_S40G
100
AcDbAlignedDimension
 13
1966.149345219528
 23
4811.34992819447
 33
0.0
 14
1916.149345219528
 24
4811.349928194469
 34
0.0
100
AcDbRotatedDimension
1001
ACAD
1000
DSTYLE
1002
{
1002
}
  0
ARC
  5
17A43
330
747D
100
AcDbEntity
  8
細線
 48
50.0
100
AcDbCircle
 10
2981.149345219521
 20
2998.849928194464
 30
0.0
 40
15.0
100
AcDbArc
 50
90.0
 51
270.0
  0
ARC
  5
17A44
330
747D
100
AcDbEntity
  8
細線
 48
50.0
100
AcDbCircle
 10
3081.149345219521
 20
2998.849928194464
 30
0.0
 40
15.0
100
AcDbArc
 50
270.0
 51
90.0
  0
LINE
  5
17A45
330
747D
100
AcDbEntity
  8
細線
 48
50.0
100
AcDbLine
 10
2981.149345219521
 20
3013.849928194464
 30
0.0
 11
3081.149345219521
 21
3013.849928194464
 31
0.0
  0
LINE
  5
17A46
330
747D
100
AcDbEntity
  8
細線
 48
50.0
100
AcDbLine
 10
3081.149345219521
 20
2983.849928194464
 30
0.0
 11
2981.149345219521
 21
2983.849928194464
 31
0.0
  0
LINE
  5
17A47
330
747D
100
AcDbEntity
  8
細線
 48
50.0
100
AcDbLine
 10
3581.149345219521
 20
2983.849928194464
 30
0.0
 11
3481.149345219521
 21
2983.849928194464
 31
0.0
  0
LINE
  5
17A48
330
747D
100
AcDbEntity
  8
細線
 48
50.0
100
AcDbLine
 10
3481.149345219521
 20
3013.849928194464
 30
0.0
 11
3581.149345219521
 21
3013.849928194464
 31
0.0
  0
ARC
  5
17A49
330
747D
100
AcDbEntity
  8
細線
 48
50.0
100
AcDbCircle
 10
3481.149345219521
 20
2998.849928194464
 30
0.0
 40
15.0
100
AcDbArc
 50
90.0
 51
270.0
  0
ARC
  5
17A4A
330
747D
100
AcDbEntity
  8
細線
 48
50.0
100
AcDbCircle
 10
3581.149345219521
 20
2998.849928194464
 30
0.0
 40
15.0
100
AcDbArc
 50
270.0
 51
90.0
  0
CIRCLE
  5
17A4B
330
747D
100
AcDbEntity
  8
細線
 48
50.0
100
AcDbCircle
 10
3281.149345219521
 20
3323.849928194464
 30
0.0
 40
18.0
  0
LINE
  5
17A4C
330
747D
100
AcDbEntity
  8
細線
100
AcDbLine
 10
4493.149345219521
 20
2446.349928194464
 30
0.0
 11
2069.149345219521
 21
2446.349928194464
 31
0.0
  0
LINE
  5
17A4D
330
747D
100
AcDbEntity
  8
細線
100
AcDbLine
 10
2069.149345219521
 20
2966.349928194464
 30
0.0
 11
4493.149345219521
 21
2966.349928194464
 31
0.0
  0
LINE
  5
17A4E
330
747D
100
AcDbEntity
  8
細線
100
AcDbLine
 10
2069.149345219521
 20
2901.349928194465
 30
0.0
 11
4493.149345219521
 21
2901.349928194465
 31
0.0
  0
LINE
  5
17A4F
330
747D
100
AcDbEntity
  8
細線
100
AcDbLine
 10
2069.149345219521
 20
2836.349928194464
 30
0.0
 11
4493.149345219521
 21
2836.349928194464
 31
0.0
  0
LINE
  5
17A50
330
747D
100
AcDbEntity
  8
細線
100
AcDbLine
 10
2069.149345219521
 20
2771.349928194464
 30
0.0
 11
4493.149345219521
 21
2771.349928194464
 31
0.0
  0
LINE
  5
17A51
330
747D
100
AcDbEntity
  8
細線
100
AcDbLine
 10
2069.149345219521
 20
2706.349928194465
 30
0.0
 11
4493.149345219521
 21
2706.349928194465
 31
0.0
  0
LINE
  5
17A52
330
747D
100
AcDbEntity
  8
細線
100
AcDbLine
 10
2069.149345219521
 20
2641.349928194464
 30
0.0
 11
4493.149345219521
 21
2641.349928194464
 31
0.0
  0
LINE
  5
17A53
330
747D
100
AcDbEntity
  8
細線
100
AcDbLine
 10
2069.149345219521
 20
2576.349928194464
 30
0.0
 11
4493.149345219521
 21
2576.349928194464
 31
0.0
  0
LINE
  5
17A54
330
747D
100
AcDbEntity
  8
細線
100
AcDbLine
 10
2069.149345219521
 20
2511.349928194464
 30
0.0
 11
4493.149345219521
 21
2511.349928194464
 31
0.0
  0
LINE
  5
17A55
330
747D
100
AcDbEntity
  8
細線
100
AcDbLine
 10
2069.149345219521
 20
2446.349928194464
 30
0.0
 11
4493.149345219521
 21
2446.349928194464
 31
0.0
  0
LINE
  5
17A56
330
747D
100
AcDbEntity
  8
細線
100
AcDbLine
 10
2069.149345219521
 20
4266.349928194464
 30
0.0
 11
4493.149345219521
 21
4266.349928194464
 31
0.0
  0
LINE
  5
17A57
330
747D
100
AcDbEntity
  8
細線
100
AcDbLine
 10
2069.149345219521
 20
4396.349928194464
 30
0.0
 11
4493.149345219521
 21
4396.349928194464
 31
0.0
  0
LINE
  5
17A58
330
747D
100
AcDbEntity
  8
細線
100
AcDbLine
 10
2069.149345219521
 20
4331.349928194464
 30
0.0
 11
4493.149345219521
 21
4331.349928194464
 31
0.0
  0
LINE
  5
17A59
330
747D
100
AcDbEntity
  8
細線
100
AcDbLine
 10
2069.149345219521
 20
3616.349928194465
 30
0.0
 11
4493.149345219521
 21
3616.349928194465
 31
0.0
  0
LINE
  5
17A5A
330
747D
100
AcDbEntity
  8
細線
100
AcDbLine
 10
2069.149345219521
 20
3551.349928194464
 30
0.0
 11
4493.149345219521
 21
3551.349928194464
 31
0.0
  0
LINE
  5
17A5B
330
747D
100
AcDbEntity
  8
細線
100
AcDbLine
 10
2069.149345219521
 20
3486.349928194464
 30
0.0
 11
4493.149345219521
 21
3486.349928194464
 31
0.0
  0
LINE
  5
17A5C
330
747D
100
AcDbEntity
  8
細線
100
AcDbLine
 10
2069.149345219521
 20
3421.349928194465
 30
0.0
 11
4493.149345219521
 21
3421.349928194465
 31
0.0
  0
LINE
  5
17A5D
330
747D
100
AcDbEntity
  8
細線
100
AcDbLine
 10
2069.149345219521
 20
3356.349928194465
 30
0.0
 11
4493.149345219521
 21
3356.349928194465
 31
0.0
  0
LINE
  5
17A5E
330
747D
100
AcDbEntity
  8
細線
100
AcDbLine
 10
2069.149345219521
 20
3291.349928194465
 30
0.0
 11
4493.149345219521
 21
3291.349928194465
 31
0.0
  0
LINE
  5
17A5F
330
747D
100
AcDbEntity
  8
細線
100
AcDbLine
 10
2069.149345219521
 20
3226.349928194464
 30
0.0
 11
4493.149345219521
 21
3226.349928194464
 31
0.0
  0
LINE
  5
17A60
330
747D
100
AcDbEntity
  8
細線
100
AcDbLine
 10
2069.149345219521
 20
3161.349928194464
 30
0.0
 11
4493.149345219521
 21
3161.349928194464
 31
0.0
  0
LINE
  5
17A61
330
747D
100
AcDbEntity
  8
細線
100
AcDbLine
 10
2069.149345219521
 20
3096.349928194464
 30
0.0
 11
4493.149345219521
 21
3096.349928194464
 31
0.0
  0
LINE
  5
17A62
330
747D
100
AcDbEntity
  8
細線
100
AcDbLine
 10
2069.149345219521
 20
3031.349928194464
 30
0.0
 11
4493.149345219521
 21
3031.349928194464
 31
0.0
  0
LINE
  5
17A63
330
747D
100
AcDbEntity
  8
細線
100
AcDbLine
 10
2069.149345219521
 20
4006.349928194464
 30
0.0
 11
4493.149345219521
 21
4006.349928194464
 31
0.0
  0
LINE
  5
17A64
330
747D
100
AcDbEntity
  8
細線
100
AcDbLine
 10
2069.149345219521
 20
3941.349928194465
 30
0.0
 11
4493.149345219521
 21
3941.349928194465
 31
0.0
  0
LINE
  5
17A65
330
747D
100
AcDbEntity
  8
細線
100
AcDbLine
 10
2069.149345219521
 20
3876.349928194464
 30
0.0
 11
4493.149345219521
 21
3876.349928194464
 31
0.0
  0
LINE
  5
17A66
330
747D
100
AcDbEntity
  8
細線
100
AcDbLine
 10
2069.149345219521
 20
3811.349928194464
 30
0.0
 11
4493.149345219521
 21
3811.349928194464
 31
0.0
  0
LINE
  5
17A67
330
747D
100
AcDbEntity
  8
細線
100
AcDbLine
 10
2069.149345219521
 20
3746.349928194464
 30
0.0
 11
4493.149345219521
 21
3746.349928194464
 31
0.0
  0
LINE
  5
17A68
330
747D
100
AcDbEntity
  8
細線
100
AcDbLine
 10
2069.149345219521
 20
3681.349928194464
 30
0.0
 11
4493.149345219521
 21
3681.349928194464
 31
0.0
  0
LINE
  5
17A69
330
747D
100
AcDbEntity
  8
細線
100
AcDbLine
 10
2069.149345219521
 20
4201.349928194463
 30
0.0
 11
4493.149345219521
 21
4201.349928194463
 31
0.0
  0
LINE
  5
17A6A
330
747D
100
AcDbEntity
  8
細線
100
AcDbLine
 10
2069.149345219521
 20
4136.349928194464
 30
0.0
 11
4493.149345219521
 21
4136.349928194464
 31
0.0
  0
LINE
  5
17A6B
330
747D
100
AcDbEntity
  8
細線
100
AcDbLine
 10
2069.149345219521
 20
4071.349928194464
 30
0.0
 11
4493.149345219521
 21
4071.349928194464
 31
0.0
  0
LINE
  5
17A6C
330
747D
100
AcDbEntity
  8
部品1
100
AcDbLine
 10
1966.149345219521
 20
4411.349928194463
 30
0.0
 11
4651.149345219521
 21
4411.349928194463
 31
0.0
  0
LINE
  5
17A6D
330
747D
100
AcDbEntity
  8
部品1
100
AcDbLine
 10
4493.149345219528
 20
4411.349928194463
 30
0.0
 11
4493.149345219521
 21
2436.349928194464
 31
0.0
  0
LINE
  5
17A6E
330
747D
100
AcDbEntity
  8
部品1
100
AcDbLine
 10
2069.149345219521
 20
4411.349928194463
 30
0.0
 11
2069.149345219521
 21
2436.349928194464
 31
0.0
  0
LINE
  5
17A6F
330
747D
100
AcDbEntity
  8
部品1
100
AcDbLine
 10
2021.149345219521
 20
4411.349928194463
 30
0.0
 11
2021.149345219521
 21
2436.349928194464
 31
0.0
  0
LINE
  5
17A70
330
747D
100
AcDbEntity
  8
部品1
100
AcDbLine
 10
4541.149345219521
 20
4411.349928194463
 30
0.0
 11
4541.149345219521
 21
2436.349928194464
 31
0.0
  0
LINE
  5
17A71
330
747D
100
AcDbEntity
  8
部品1
100
AcDbLine
 10
1966.149345219521
 20
4670.349928194467
 30
0.0
 11
1966.149345219521
 21
2336.349928194464
 31
0.0
  0
LINE
  5
17A72
330
747D
100
AcDbEntity
  8
部品1
100
AcDbLine
 10
1966.149345219521
 20
4576.349928194463
 30
0.0
 11
4596.149345219521
 21
4576.349928194463
 31
0.0
  0
LINE
  5
17A73
330
747D
100
AcDbEntity
  8
部品1
100
AcDbLine
 10
1966.149345219521
 20
2436.349928194464
 30
0.0
 11
4596.149345219521
 21
2436.349928194464
 31
0.0
  0
LINE
  5
17A74
330
747D
100
AcDbEntity
  8
部品1
100
AcDbLine
 10
1127.379753873138
 20
2466.253738762129
 30
0.0
 11
1052.379753873138
 21
2336.349928194464
 31
0.0
  0
TEXT
  5
17A75
330
747D
100
AcDbEntity
  8
部品1
100
AcDbText
 10
1155.484695997911
 20
2372.456831800366
 30
0.0
 40
125.0
  1
G.L
  7
STYLE2
100
AcDbText
  0
LINE
  5
17A76
330
747D
100
AcDbEntity
  8
部品1
100
AcDbLine
 10
1052.379753873138
 20
2336.349928194464
 30
0.0
 11
977.3797538731377
 21
2466.253738762129
 31
0.0
  0
LINE
  5
17A77
330
747D
100
AcDbEntity
  8
部品1
100
AcDbLine
 10
977.3797538731377
 20
2466.253738762129
 30
0.0
 11
1127.379753873138
 21
2466.253738762129
 31
0.0
  0
LINE
  5
17AA4
330
747D
100
AcDbEntity
  8
部品1
 48
50.0
100
AcDbLine
 10
9898.740924113088
 20
4811.349928194467
 30
0.0
 11
7216.149345219522
 21
4811.349928194467
 31
0.0
  0
LINE
  5
17AA5
330
747D
100
AcDbEntity
  8
部品1
 48
50.0
100
AcDbLine
 10
9885.525600652055
 20
4670.349928194467
 30
0.0
 11
7226.149345219521
 21
4670.349928194467
 31
0.0
  0
LINE
  5
17AA6
330
747D
100
AcDbEntity
  8
細線
 48
50.0
100
AcDbLine
 10
9903.990694207607
 20
4783.323170757936
 30
0.0
 11
7216.149345219522
 21
4783.323170757936
 31
0.0
  0
LINE
  5
17AA7
330
747D
100
AcDbEntity
  8
細線
 48
50.0
100
AcDbLine
 10
9895.754663682762
 20
4691.123170757935
 30
0.0
 11
7216.149345219522
 21
4691.123170758255
 31
0.0
  0
LINE
  5
17AA8
330
747D
100
AcDbEntity
  8
部品1
100
AcDbLine
 10
9905.729684204187
 20
4803.953402799226
 30
0.0
 11
9904.596286871843
 21
4783.977274816629
 31
0.0
  0
LINE
  5
17AA9
330
747D
100
AcDbEntity
  8
細線
 48
50.0
100
AcDbLine
 10
9873.149345219522
 20
4811.349928194467
 30
0.0
 11
9873.149345219522
 21
4670.349928194467
 31
0.0
  0
LINE
  5
17AAA
330
747D
100
AcDbEntity
  8
部品1
100
AcDbLine
 10
9893.159266550265
 20
4688.31986764957
 30
0.0
 11
9892.514360743154
 21
4676.95340279923
 31
0.0
  0
LINE
  5
17AAB
330
747D
100
AcDbEntity
  8
部品1
100
AcDbLine
 10
9901.39529707511
 20
4780.519867649571
 30
0.0
 11
9896.360256346998
 21
4691.777274816628
 31
0.0
  0
ARC
  5
17AAC
330
747D
100
AcDbEntity
  8
部品1
 48
50.0
100
AcDbCircle
 10
9904.390479971295
 20
4780.349928194468
 30
0.0
 40
3.0
100
AcDbArc
 50
97.65812720736519
 51
176.7526572096623
  0
ARC
  5
17AAD
330
747D
100
AcDbEntity
  8
部品1
 48
50.0
100
AcDbCircle
 10
9896.15444944645
 20
4688.149928194467
 30
0.0
 40
3.0
100
AcDbArc
 50
97.65812720736519
 51
176.7526572096623
  0
ARC
  5
17AAE
330
747D
100
AcDbEntity
  8
部品1
 48
50.0
100
AcDbCircle
 10
9895.661380337891
 20
4691.816927356151
 30
0.0
 40
0.7
100
AcDbArc
 50
277.6581272073652
 51
356.7526572097143
  0
ARC
  5
17AAF
330
747D
100
AcDbEntity
  8
部品1
 48
50.0
100
AcDbCircle
 10
9903.897410862734
 20
4784.016927356154
 30
0.0
 40
0.7
100
AcDbArc
 50
277.6581272073652
 51
356.7526572096103
  0
ARC
  5
17AB0
330
747D
100
AcDbEntity
  8
部品1
100
AcDbCircle
 10
9885.525600652055
 20
4677.349928194468
 30
0.0
 40
7.0
100
AcDbArc
 50
270.0
 51
356.7526572096623
  0
ARC
  5
17AB1
330
747D
100
AcDbEntity
  8
部品1
100
AcDbCircle
 10
9898.740924113088
 20
4804.349928194468
 30
0.0
 40
7.0
100
AcDbArc
 50
356.7526572096623
 51
90.0
  0
DIMENSION
  5
17AB2
330
747D
100
AcDbEntity
  8
寸法
 48
50.0
100
AcDbDimension
  2
*D26
 10
9856.14934521952
 20
5210.443097533937
 30
0.0
 11
10219.63462659376
 21
5210.443097533937
 31
0.0
 70
   160
 71
     5
 42
50.0
  3
INABA_S40G
100
AcDbAlignedDimension
 13
9906.149345219521
 23
4811.349928194466
 33
0.0
 14
9856.14934521952
 24
4811.349928194469
 34
0.0
100
AcDbRotatedDimension
  0
ARC
  5
17ABB
330
747D
100
AcDbEntity
  8
細線
 48
50.0
100
AcDbCircle
 10
8241.149345219517
 20
2998.849928194464
 30
0.0
 40
15.0
100
AcDbArc
 50
90.0
 51
270.0
  0
ARC
  5
17ABC
330
747D
100
AcDbEntity
  8
細線
 48
50.0
100
AcDbCircle
 10
8341.149345219518
 20
2998.849928194464
 30
0.0
 40
15.0
100
AcDbArc
 50
270.0
 51
90.0
  0
LINE
  5
17ABD
330
747D
100
AcDbEntity
  8
細線
 48
50.0
100
AcDbLine
 10
8241.149345219517
 20
3013.849928194464
 30
0.0
 11
8341.149345219518
 21
3013.849928194464
 31
0.0
  0
LINE
  5
17ABE
330
747D
100
AcDbEntity
  8
細線
 48
50.0
100
AcDbLine
 10
8341.149345219518
 20
2983.849928194464
 30
0.0
 11
8241.149345219517
 21
2983.849928194464
 31
0.0
  0
LINE
  5
17ABF
330
747D
100
AcDbEntity
  8
細線
 48
50.0
100
AcDbLine
 10
8841.149345219518
 20
2983.849928194464
 30
0.0
 11
8741.149345219517
 21
2983.849928194464
 31
0.0
  0
LINE
  5
17AC0
330
747D
100
AcDbEntity
  8
細線
 48
50.0
100
AcDbLine
 10
8741.149345219517
 20
3013.849928194464
 30
0.0
 11
8841.149345219518
 21
3013.849928194464
 31
0.0
  0
ARC
  5
17AC1
330
747D
100
AcDbEntity
  8
細線
 48
50.0
100
AcDbCircle
 10
8741.149345219517
 20
2998.849928194464
 30
0.0
 40
15.0
100
AcDbArc
 50
90.0
 51
270.0
  0
ARC
  5
17AC2
330
747D
100
AcDbEntity
  8
細線
 48
50.0
100
AcDbCircle
 10
8841.149345219518
 20
2998.849928194464
 30
0.0
 40
15.0
100
AcDbArc
 50
270.0
 51
90.0
  0
CIRCLE
  5
17AC3
330
747D
100
AcDbEntity
  8
細線
 48
50.0
100
AcDbCircle
 10
8541.149345219517
 20
3323.849928194464
 30
0.0
 40
18.0
  0
LINE
  5
17AC7
330
747D
100
AcDbEntity
  8
細線
100
AcDbLine
 10
9753.149345219519
 20
2446.349928194464
 30
0.0
 11
7329.149345219514
 21
2446.349928194464
 31
0.0
  0
LINE
  5
17AC8
330
747D
100
AcDbEntity
  8
細線
100
AcDbLine
 10
7329.149345219517
 20
2966.349928194464
 30
0.0
 11
9753.149345219519
 21
2966.349928194464
 31
0.0
  0
LINE
  5
17AC9
330
747D
100
AcDbEntity
  8
細線
100
AcDbLine
 10
7329.149345219517
 20
2901.349928194465
 30
0.0
 11
9753.149345219519
 21
2901.349928194465
 31
0.0
  0
LINE
  5
17ACA
330
747D
100
AcDbEntity
  8
細線
100
AcDbLine
 10
7329.149345219517
 20
2836.349928194464
 30
0.0
 11
9753.149345219519
 21
2836.349928194464
 31
0.0
  0
LINE
  5
17ACB
330
747D
100
AcDbEntity
  8
細線
100
AcDbLine
 10
7329.149345219517
 20
2771.349928194464
 30
0.0
 11
9753.149345219519
 21
2771.349928194464
 31
0.0
  0
LINE
  5
17ACC
330
747D
100
AcDbEntity
  8
細線
100
AcDbLine
 10
7329.149345219517
 20
2706.349928194465
 30
0.0
 11
9753.149345219519
 21
2706.349928194465
 31
0.0
  0
LINE
  5
17ACD
330
747D
100
AcDbEntity
  8
細線
100
AcDbLine
 10
7329.149345219517
 20
2641.349928194464
 30
0.0
 11
9753.149345219519
 21
2641.349928194464
 31
0.0
  0
LINE
  5
17ACE
330
747D
100
AcDbEntity
  8
細線
100
AcDbLine
 10
7329.149345219517
 20
2576.349928194464
 30
0.0
 11
9753.149345219519
 21
2576.349928194464
 31
0.0
  0
LINE
  5
17ACF
330
747D
100
AcDbEntity
  8
細線
100
AcDbLine
 10
7329.149345219517
 20
2511.349928194464
 30
0.0
 11
9753.149345219519
 21
2511.349928194464
 31
0.0
  0
LINE
  5
17AD0
330
747D
100
AcDbEntity
  8
細線
100
AcDbLine
 10
7329.149345219517
 20
2446.349928194464
 30
0.0
 11
9753.149345219519
 21
2446.349928194464
 31
0.0
  0
LINE
  5
17AD1
330
747D
100
AcDbEntity
  8
細線
100
AcDbLine
 10
7329.149345219517
 20
4266.349928194464
 30
0.0
 11
9753.149345219519
 21
4266.349928194464
 31
0.0
  0
LINE
  5
17AD2
330
747D
100
AcDbEntity
  8
細線
100
AcDbLine
 10
7329.149345219517
 20
4396.349928194464
 30
0.0
 11
9753.149345219519
 21
4396.349928194464
 31
0.0
  0
LINE
  5
17AD3
330
747D
100
AcDbEntity
  8
細線
100
AcDbLine
 10
7329.149345219517
 20
4331.349928194464
 30
0.0
 11
9753.149345219519
 21
4331.349928194464
 31
0.0
  0
LINE
  5
17AD4
330
747D
100
AcDbEntity
  8
細線
100
AcDbLine
 10
7329.149345219517
 20
3616.349928194465
 30
0.0
 11
9753.149345219519
 21
3616.349928194465
 31
0.0
  0
LINE
  5
17AD5
330
747D
100
AcDbEntity
  8
細線
100
AcDbLine
 10
7329.149345219517
 20
3551.349928194464
 30
0.0
 11
9753.149345219519
 21
3551.349928194464
 31
0.0
  0
LINE
  5
17AD6
330
747D
100
AcDbEntity
  8
細線
100
AcDbLine
 10
7329.149345219517
 20
3486.349928194464
 30
0.0
 11
9753.149345219519
 21
3486.349928194464
 31
0.0
  0
LINE
  5
17AD7
330
747D
100
AcDbEntity
  8
細線
100
AcDbLine
 10
7329.149345219517
 20
3421.349928194465
 30
0.0
 11
9753.149345219519
 21
3421.349928194465
 31
0.0
  0
LINE
  5
17AD8
330
747D
100
AcDbEntity
  8
細線
100
AcDbLine
 10
7329.149345219517
 20
3356.349928194465
 30
0.0
 11
9753.149345219519
 21
3356.349928194465
 31
0.0
  0
LINE
  5
17AD9
330
747D
100
AcDbEntity
  8
細線
100
AcDbLine
 10
7329.149345219517
 20
3291.349928194465
 30
0.0
 11
9753.149345219519
 21
3291.349928194465
 31
0.0
  0
LINE
  5
17ADA
330
747D
100
AcDbEntity
  8
細線
100
AcDbLine
 10
7329.149345219517
 20
3226.349928194464
 30
0.0
 11
9753.149345219519
 21
3226.349928194464
 31
0.0
  0
LINE
  5
17ADB
330
747D
100
AcDbEntity
  8
細線
100
AcDbLine
 10
7329.149345219517
 20
3161.349928194464
 30
0.0
 11
9753.149345219519
 21
3161.349928194464
 31
0.0
  0
LINE
  5
17ADC
330
747D
100
AcDbEntity
  8
細線
100
AcDbLine
 10
7329.149345219517
 20
3096.349928194464
 30
0.0
 11
9753.149345219519
 21
3096.349928194464
 31
0.0
  0
LINE
  5
17ADD
330
747D
100
AcDbEntity
  8
細線
100
AcDbLine
 10
7329.149345219517
 20
3031.349928194464
 30
0.0
 11
9753.149345219519
 21
3031.349928194464
 31
0.0
  0
LINE
  5
17ADE
330
747D
100
AcDbEntity
  8
細線
100
AcDbLine
 10
7329.149345219517
 20
4006.349928194464
 30
0.0
 11
9753.149345219519
 21
4006.349928194464
 31
0.0
  0
LINE
  5
17ADF
330
747D
100
AcDbEntity
  8
細線
100
AcDbLine
 10
7329.149345219517
 20
3941.349928194465
 30
0.0
 11
9753.149345219519
 21
3941.349928194465
 31
0.0
  0
LINE
  5
17AE0
330
747D
100
AcDbEntity
  8
細線
100
AcDbLine
 10
7329.149345219517
 20
3876.349928194464
 30
0.0
 11
9753.149345219519
 21
3876.349928194464
 31
0.0
  0
LINE
  5
17AE1
330
747D
100
AcDbEntity
  8
細線
100
AcDbLine
 10
7329.149345219517
 20
3811.349928194464
 30
0.0
 11
9753.149345219519
 21
3811.349928194464
 31
0.0
  0
LINE
  5
17AE2
330
747D
100
AcDbEntity
  8
細線
100
AcDbLine
 10
7329.149345219517
 20
3746.349928194464
 30
0.0
 11
9753.149345219519
 21
3746.349928194464
 31
0.0
  0
LINE
  5
17AE3
330
747D
100
AcDbEntity
  8
細線
100
AcDbLine
 10
7329.149345219517
 20
3681.349928194464
 30
0.0
 11
9753.149345219519
 21
3681.349928194464
 31
0.0
  0
LINE
  5
17AE4
330
747D
100
AcDbEntity
  8
細線
100
AcDbLine
 10
7329.149345219517
 20
4201.349928194463
 30
0.0
 11
9753.149345219519
 21
4201.349928194463
 31
0.0
  0
LINE
  5
17AE5
330
747D
100
AcDbEntity
  8
細線
100
AcDbLine
 10
7329.149345219517
 20
4136.349928194464
 30
0.0
 11
9753.149345219519
 21
4136.349928194464
 31
0.0
  0
LINE
  5
17AE6
330
747D
100
AcDbEntity
  8
細線
100
AcDbLine
 10
7329.149345219517
 20
4071.349928194464
 30
0.0
 11
9753.149345219519
 21
4071.349928194464
 31
0.0
  0
LINE
  5
17AE7
330
747D
100
AcDbEntity
  8
部品1
100
AcDbLine
 10
7281.149345219517
 20
4411.349928194463
 30
0.0
 11
9856.14934521952
 21
4411.349928194463
 31
0.0
  0
LINE
  5
17AE8
330
747D
100
AcDbEntity
  8
部品1
100
AcDbLine
 10
9753.149345219521
 20
4411.349928194463
 30
0.0
 11
9753.149345219519
 21
2436.349928194464
 31
0.0
  0
LINE
  5
17AE9
330
747D
100
AcDbEntity
  8
部品1
100
AcDbLine
 10
7329.149345219517
 20
4411.349928194463
 30
0.0
 11
7329.149345219517
 21
2436.349928194464
 31
0.0
  0
LINE
  5
17AEA
330
747D
100
AcDbEntity
  8
部品1
100
AcDbLine
 10
9856.149345219519
 20
4670.349928194467
 30
0.0
 11
9856.149345219519
 21
2336.349928194464
 31
0.0
  0
LINE
  5
17AEB
330
747D
100
AcDbEntity
  8
部品1
100
AcDbLine
 10
7281.149345219517
 20
4411.349928194463
 30
0.0
 11
7281.149345219517
 21
2436.349928194464
 31
0.0
  0
LINE
  5
17AEC
330
747D
100
AcDbEntity
  8
部品1
100
AcDbLine
 10
9801.149345219515
 20
4411.349928194463
 30
0.0
 11
9801.149345219517
 21
2436.349928194464
 31
0.0
  0
LINE
  5
17AED
330
747D
100
AcDbEntity
  8
部品1
100
AcDbLine
 10
7226.149345219517
 20
4576.349928194463
 30
0.0
 11
9856.149345219519
 21
4576.349928194463
 31
0.0
  0
LINE
  5
17AEE
330
747D
100
AcDbEntity
  8
部品1
100
AcDbLine
 10
7226.149345219517
 20
2436.349928194464
 30
0.0
 11
9856.149345219519
 21
2436.349928194464
 31
0.0
  0
LINE
  5
17AF1
330
747D
100
AcDbEntity
  8
部品1
100
AcDbLine
 10
4596.149345219521
 20
4576.349928194463
 30
0.0
 11
7226.149345219521
 21
4576.349928194463
 31
0.0
  0
LINE
  5
17AF2
330
747D
100
AcDbEntity
  8
部品1
100
AcDbLine
 10
7171.149345219522
 20
4411.349928194463
 30
0.0
 11
7171.149345219522
 21
2436.349928194464
 31
0.0
  0
LINE
  5
17AF3
330
747D
100
AcDbEntity
  8
部品1
100
AcDbLine
 10
4651.149345219521
 20
4411.349928194463
 30
0.0
 11
4651.149345219521
 21
2436.349928194464
 31
0.0
  0
LINE
  5
17AF4
330
747D
100
AcDbEntity
  8
部品1
100
AcDbLine
 10
4699.14934521952
 20
4411.349928194463
 30
0.0
 11
4699.14934521952
 21
2436.349928194464
 31
0.0
  0
LINE
  5
17AF5
330
747D
100
AcDbEntity
  8
部品1
100
AcDbLine
 10
7123.149345219521
 20
4411.349928194463
 30
0.0
 11
7123.149345219521
 21
2436.349928194464
 31
0.0
  0
LINE
  5
17B50
330
747D
100
AcDbEntity
  8
部品1
 48
50.0
100
AcDbLine
 10
7216.149345219522
 20
4670.349928194467
 30
0.0
 11
7216.149345219517
 21
4811.349928194469
 31
0.0
  0
LINE
  5
17B51
330
747D
100
AcDbEntity
  8
部品1
 48
50.0
100
AcDbLine
 10
7226.149345219521
 20
4411.349928194463
 30
0.0
 11
7226.149345219521
 21
4670.349928194467
 31
0.0
  0
TEXT
  5
17B5C
330
747D
100
AcDbEntity
  8
部品1
100
AcDbText
 10
5619.333621934351
 20
6168.775300136455
 30
0.0
 40
135.0
  1
平面図
  7
STYLE2
100
AcDbText
  0
LWPOLYLINE
  5
17B5D
330
747D
100
AcDbEntity
  8
部品1
100
AcDbPolyline
 90
        4
 70
     1
 43
0.0
 10
5529.414012105313
 20
6361.668829354978
 10
5529.414012105313
 20
6121.776507809445
 10
6292.884678333754
 20
6121.776507809445
 10
6292.884678333754
 20
6361.668829354978
  0
TEXT
  5
17C70
330
747D
100
AcDbEntity
  8
文字
 62
     7
 48
50.0
100
AcDbText
 10
14302.57975890745
 20
483.8967129911416
 30
0.0
 40
160.0
  1
FXN-70HDL-N
  7
STYLE2
100
AcDbText
  0
DIMENSION
  5
18AED
330
747D
100
AcDbEntity
  8
寸法
100
AcDbDimension
  2
*D38
 10
11639.57598942585
 20
2486.349928194456
 30
0.0
 11
11539.56417840223
 21
3531.349928194459
 31
0.0
 70
    32
 71
     5
 42
2090.000000000002
  3
INABA_S40G
100
AcDbAlignedDimension
 13
12483.32611860911
 23
4576.349928194457
 33
0.0
 14
12483.32611860911
 24
2486.349928194456
 34
0.0
 50
90.0
100
AcDbRotatedDimension
1001
ACAD
1000
DSTYLE
1002
{
1070
   174
1070
     0
1070
   272
1070
     1
1070
   288
1070
     0
1070
   341
1005
0
1002
}
  0
DIMENSION
  5
18AEE
330
747D
100
AcDbEntity
  8
寸法
100
AcDbDimension
  2
*D37
 10
11339.57598942585
 20
4811.349928194461
 30
0.0
 11
11239.56417840222
 21
3623.849928194461
 31
0.0
 70
    32
 71
     5
 42
2375.000000000005
  3
INABA_S40G
100
AcDbAlignedDimension
 13
12483.32611860911
 23
2436.349928194456
 33
0.0
 14
12423.32611860911
 24
4811.349928194461
 34
0.0
 50
90.0
100
AcDbRotatedDimension
1001
ACAD
1000
DSTYLE
1002
{
1070
   174
1070
     0
1070
   272
1070
     1
1070
   288
1070
     0
1070
   341
1005
0
1002
}
  0
DIMENSION
  5
18AEF
330
747D
100
AcDbEntity
  8
寸法
100
AcDbDimension
  2
*D36
 10
15818.25327658124
 20
4756.349928194463
 30
0.0
 11
15718.24146555762
 21
3596.349928194467
 31
0.0
 70
    32
 71
     5
 42
2320.000000000001
  3
INABA_S40G
100
AcDbAlignedDimension
 13
15113.32611860911
 23
2436.349928194463
 33
0.0
 14
15193.32611860911
 24
4756.349928194463
 34
0.0
 50
90.0
100
AcDbRotatedDimension
1001
ACAD
1000
DSTYLE
1002
{
1070
   174
1070
     0
1070
   272
1070
     1
1070
   288
1070
     0
1070
   341
1005
0
1002
}
  0
LINE
  5
18AF0
330
747D
100
AcDbEntity
  8
細線
 48
50.0
100
AcDbLine
 10
14560.82611860911
 20
4576.349928194462
 30
0.0
 11
14560.82611860911
 21
2486.349928194464
 31
0.0
  0
LINE
  5
18AF1
330
747D
100
AcDbEntity
  8
細線
 48
50.0
100
AcDbLine
 10
14575.82611860911
 20
4576.349928194462
 30
0.0
 11
14575.82611860911
 21
2486.349928194464
 31
0.0
  0
LINE
  5
18AF2
330
747D
100
AcDbEntity
  8
細線
 48
50.0
100
AcDbLine
 10
14435.82611860911
 20
4576.349928194462
 30
0.0
 11
14435.82611860911
 21
2486.349928194464
 31
0.0
  0
LINE
  5
18AF3
330
747D
100
AcDbEntity
  8
細線
 48
50.0
100
AcDbLine
 10
14420.82611860911
 20
4576.349928194462
 30
0.0
 11
14420.82611860911
 21
2486.349928194464
 31
0.0
  0
LINE
  5
18AF4
330
747D
100
AcDbEntity
  8
細線
 48
50.0
100
AcDbLine
 10
14280.82611860911
 20
4576.349928194462
 30
0.0
 11
14280.82611860911
 21
2486.349928194464
 31
0.0
  0
LINE
  5
18AF5
330
747D
100
AcDbEntity
  8
細線
 48
50.0
100
AcDbLine
 10
14295.82611860911
 20
4576.349928194462
 30
0.0
 11
14295.82611860911
 21
2486.349928194464
 31
0.0
  0
LINE
  5
18AF6
330
747D
100
AcDbEntity
  8
部品1
100
AcDbLine
 10
14218.3261186091
 20
4576.349928194462
 30
0.0
 11
14218.3261186091
 21
2486.349928194464
 31
0.0
  0
LINE
  5
18AF7
330
747D
100
AcDbEntity
  8
部品1
100
AcDbLine
 10
13658.55124903835
 20
4936.554316157479
 30
0.0
 11
13984.00626268139
 21
4919.036257198618
 31
0.0
  0
ARC
  5
18AF8
330
747D
100
AcDbEntity
  8
部品1
100
AcDbCircle
 10
15178.95365442305
 20
4650.373685460254
 30
0.0
 40
0.7
100
AcDbArc
 50
275.0921697642102
 51
354.1866997667606
  0
ARC
  5
18AF9
330
747D
100
AcDbEntity
  8
部品1
100
AcDbCircle
 10
15189.81300017237
 20
4727.416940278177
 30
0.0
 40
0.7
100
AcDbArc
 50
275.0921697642102
 51
354.1866997665532
  0
ARC
  5
18AFA
330
747D
100
AcDbEntity
  8
部品1
100
AcDbCircle
 10
15190.14140541497
 20
4723.73154342109
 30
0.0
 40
3.0
100
AcDbArc
 50
95.0921697642102
 51
174.1866997665532
  0
ARC
  5
18AFB
330
747D
100
AcDbEntity
  8
部品1
100
AcDbCircle
 10
15179.28205966564
 20
4646.688288603164
 30
0.0
 40
3.0
100
AcDbArc
 50
95.0921697642102
 51
174.1866997665532
  0
ARC
  5
18AFC
330
747D
100
AcDbEntity
  8
部品1
 48
50.0
100
AcDbCircle
 10
15168.25392439054
 20
4637.097543999282
 30
0.0
 40
7.0
100
AcDbArc
 50
267.8377559869492
 51
354.1866997665532
  0
ARC
  5
18AFD
330
747D
100
AcDbEntity
  8
部品1
 48
50.0
100
AcDbCircle
 10
15185.57602085505
 20
4748.000091141456
 30
0.0
 40
7.0
100
AcDbArc
 50
354.1866997665532
 51
87.03587545283093
  0
LINE
  5
18AFE
330
747D
100
AcDbEntity
  8
部品1
 48
50.0
100
AcDbLine
 10
15176.29748799504
 20
4646.992150320066
 30
0.0
 11
15175.2179249553
 21
4636.388533326509
 31
0.0
  0
LINE
  5
18AFF
330
747D
100
AcDbEntity
  8
部品1
 48
50.0
100
AcDbLine
 10
15187.15683374436
 20
4724.035405137992
 30
0.0
 11
15179.65005447952
 21
4650.30278439298
 31
0.0
  0
LINE
  5
18B00
330
747D
100
AcDbEntity
  8
部品1
 48
50.0
100
AcDbLine
 10
15192.54002141981
 20
4747.291080468681
 30
0.0
 11
15190.50940022884
 21
4727.3460392109
 31
0.0
  0
ARC
  5
18B01
330
747D
100
AcDbEntity
  8
部品1
100
AcDbCircle
 10
12429.36321048047
 20
4690.164087153366
 30
0.0
 40
0.7
100
AcDbArc
 50
181.0932240293156
 51
260.1877540314845
  0
ARC
  5
18B02
330
747D
100
AcDbEntity
  8
部品1
100
AcDbCircle
 10
12424.59053688286
 20
4783.029865353483
 30
0.0
 40
0.7
100
AcDbArc
 50
181.0932240292114
 51
260.1877540314845
  0
ARC
  5
18B03
330
747D
100
AcDbEntity
  8
部品1
100
AcDbCircle
 10
12423.95998247984
 20
4779.383990816087
 30
0.0
 40
3.0
100
AcDbArc
 50
1.093224029315636
 51
80.18775403169875
  0
ARC
  5
18B04
330
747D
100
AcDbEntity
  8
部品1
100
AcDbCircle
 10
12428.73265607745
 20
4686.518212615967
 30
0.0
 40
3.0
100
AcDbArc
 50
1.093224029315636
 51
80.18775403169875
  0
ARC
  5
18B05
330
747D
100
AcDbEntity
  8
部品1
 48
50.0
100
AcDbCircle
 10
12438.93278845265
 20
4676.125969233487
 30
0.0
 40
7.0
100
AcDbArc
 50
181.0932240293156
 51
267.8377559869492
  0
ARC
  5
18B06
330
747D
100
AcDbEntity
  8
部品1
 48
50.0
100
AcDbCircle
 10
12430.50913035055
 20
4803.077028766583
 30
0.0
 40
7.0
100
AcDbArc
 50
87.03587545283093
 51
181.0932240293156
  0
LINE
  5
18B07
330
747D
100
AcDbEntity
  8
部品1
 48
50.0
100
AcDbLine
 10
12431.73211000388
 20
4686.575450219151
 30
0.0
 11
12431.93406262431
 21
4675.992414826058
 31
0.0
  0
LINE
  5
18B08
330
747D
100
AcDbEntity
  8
細線
 48
50.0
100
AcDbLine
 10
12429.12601694721
 20
4689.505498337958
 30
0.0
 11
15179.12968137785
 21
4649.696179363466
 31
0.0
  0
LINE
  5
18B09
330
747D
100
AcDbEntity
  8
細線
 48
50.0
100
AcDbLine
 10
12424.36554170992
 20
4782.367010035824
 30
0.0
 11
15190.00152645509
 21
4726.742805394994
 31
0.0
  0
LINE
  5
18B0A
330
747D
100
AcDbEntity
  8
部品1
 48
50.0
100
AcDbLine
 10
12426.95943640627
 20
4779.44122841927
 30
0.0
 11
12428.66333789764
 21
4690.150731712622
 31
0.0
  0
LINE
  5
18B0B
330
747D
100
AcDbEntity
  8
部品1
 48
50.0
100
AcDbLine
 10
12423.51040452221
 20
4802.943474359154
 30
0.0
 11
12423.89066430003
 21
4783.016509912743
 31
0.0
  0
LINE
  5
18B0C
330
747D
100
AcDbEntity
  8
細線
 48
50.0
100
AcDbLine
 10
15160.2954018028
 20
4755.503350673929
 30
0.0
 11
15155.57843572111
 21
4630.571134739014
 31
0.0
  0
LINE
  5
18B0D
330
747D
100
AcDbEntity
  8
細線
 48
50.0
100
AcDbLine
 10
12456.32611860911
 20
4808.749604569867
 30
0.0
 11
12451.0370170536
 21
4668.663971942512
 31
0.0
  0
LINE
  5
18B0E
330
747D
100
AcDbEntity
  8
部品1
100
AcDbLine
 10
12438.66868321106
 20
4669.130953263429
 30
0.0
 11
15167.98981914896
 21
4630.102528029222
 31
0.0
  0
LINE
  5
18B0F
330
747D
100
AcDbEntity
  8
部品1
100
AcDbLine
 10
12430.87110496607
 20
4810.067663528728
 30
0.0
 11
15185.93799547058
 21
4754.990725903599
 31
0.0
  0
LINE
  5
18B10
330
747D
100
AcDbEntity
  8
部品1
 48
50.0
100
AcDbLine
 10
13684.00626268139
 20
4935.236257198619
 30
0.0
 11
13984.00626268139
 21
4935.236257198619
 31
0.0
  0
LINE
  5
18B11
330
747D
100
AcDbEntity
  8
部品1
 48
50.0
100
AcDbLine
 10
13984.00626268139
 20
4935.236257198619
 30
0.0
 11
13984.00626268139
 21
4919.036257198618
 31
0.0
  0
TEXT
  5
18B12
330
747D
100
AcDbEntity
  8
部品1
 48
50.0
100
AcDbText
 10
13672.27409790511
 20
4971.120279351052
 30
0.0
 40
120.0
  1
1000
  7
STYLE1
100
AcDbText
  0
TEXT
  5
18B13
330
747D
100
AcDbEntity
  8
部品1
 48
50.0
100
AcDbText
 10
14149.9071205702
 20
4833.619021132769
 30
0.0
 40
120.0
  1
37
 50
90.0
  7
STYLE1
100
AcDbText
  0
LINE
  5
18B14
330
747D
100
AcDbEntity
  8
細線
 48
50.0
100
AcDbLine
 10
13875.82611860911
 20
4576.349928194462
 30
0.0
 11
13875.82611860911
 21
2486.349928194462
 31
0.0
  0
LINE
  5
18B15
330
747D
100
AcDbEntity
  8
細線
 48
50.0
100
AcDbLine
 10
13860.82611860911
 20
4576.349928194462
 30
0.0
 11
13860.82611860911
 21
2486.349928194462
 31
0.0
  0
LINE
  5
18B16
330
747D
100
AcDbEntity
  8
細線
 48
50.0
100
AcDbLine
 10
14000.82611860911
 20
4576.349928194462
 30
0.0
 11
14000.82611860911
 21
2486.349928194462
 31
0.0
  0
LINE
  5
18B17
330
747D
100
AcDbEntity
  8
細線
 48
50.0
100
AcDbLine
 10
14015.82611860911
 20
4576.349928194462
 30
0.0
 11
14015.82611860911
 21
2486.349928194462
 31
0.0
  0
LINE
  5
18B18
330
747D
100
AcDbEntity
  8
細線
 48
50.0
100
AcDbLine
 10
14155.82611860911
 20
4576.349928194462
 30
0.0
 11
14155.82611860911
 21
2486.349928194462
 31
0.0
  0
LINE
  5
18B19
330
747D
100
AcDbEntity
  8
細線
 48
50.0
100
AcDbLine
 10
14140.82611860911
 20
4576.349928194462
 30
0.0
 11
14140.82611860911
 21
2486.349928194462
 31
0.0
  0
LINE
  5
18B1A
330
747D
100
AcDbEntity
  8
部品1
100
AcDbLine
 10
14638.32611860911
 20
4576.349928194462
 30
0.0
 11
14638.32611860911
 21
2486.349928194464
 31
0.0
  0
LINE
  5
18B1B
330
747D
100
AcDbEntity
  8
部品1
100
AcDbLine
 10
12483.32611860911
 20
4576.349928194462
 30
0.0
 11
15113.32611860911
 21
4576.349928194462
 31
0.0
  0
LINE
  5
18B1C
330
747D
100
AcDbEntity
  8
部品1
100
AcDbLine
 10
12538.32611860911
 20
2486.349928194461
 30
0.0
 11
15113.32611860911
 21
2486.349928194464
 31
0.0
  0
LINE
  5
18B1D
330
747D
100
AcDbEntity
  8
部品1
100
AcDbLine
 10
12538.32611860911
 20
4576.349928194462
 30
0.0
 11
12538.32611860911
 21
2336.349928194464
 31
0.0
  0
LINE
  5
18B1E
330
747D
100
AcDbEntity
  8
部品1
100
AcDbLine
 10
12483.32611860911
 20
4668.49236612334
 30
0.0
 11
12483.32611860911
 21
2336.349928194461
 31
0.0
  0
DIMENSION
  5
18B20
330
747D
100
AcDbEntity
  8
寸法
100
AcDbDimension
  2
*D35
 10
11639.57598942585
 20
2436.349928194462
 30
0.0
 11
11639.57598942585
 21
2130.302684099972
 31
0.0
 70
   160
 71
     5
 42
50.0
  3
INABA_S40G
100
AcDbAlignedDimension
 13
12483.32611860911
 23
2486.349928194462
 33
0.0
 14
12428.32611860911
 24
2436.349928194462
 34
0.0
 50
90.0
100
AcDbRotatedDimension
1001
ACAD
1000
DSTYLE
1002
{
1070
   174
1070
     0
1070
   272
1070
     1
1070
   288
1070
     0
1070
   341
1005
0
1002
}
  0
LINE
  5
18B21
330
747D
100
AcDbEntity
  8
部品1
100
AcDbLine
 10
12958.32611860911
 20
4576.349928194462
 30
0.0
 11
12958.32611860911
 21
2486.349928194462
 31
0.0
  0
LINE
  5
18B22
330
747D
100
AcDbEntity
  8
部品1
100
AcDbLine
 10
15113.32611860911
 20
4630.8842015822
 30
0.0
 11
15113.32611860911
 21
2336.349928194463
 31
0.0
  0
LINE
  5
18B23
330
747D
100
AcDbEntity
  8
部品1
100
AcDbLine
 10
15058.32611860911
 20
4576.349928194462
 30
0.0
 11
15058.32611860911
 21
2486.349928194464
 31
0.0
  0
DIMENSION
  5
18B24
330
747D
100
AcDbEntity
  8
寸法
 48
50.0
100
AcDbDimension
  2
*D34
 10
12483.32611860911
 20
5210.007381773767
 30
0.0
 11
13798.32611860911
 21
5210.007381773767
 31
0.0
 70
   160
  1
柱外寸法<>
 71
     5
 42
2630.000000000002
  3
INABA_S40G
100
AcDbAlignedDimension
 13
15113.32611860911
 23
4758.160607806114
 33
0.0
 14
12483.32611860911
 24
4807.351546317438
 34
0.0
100
AcDbRotatedDimension
1001
ACAD
1000
DSTYLE
1002
{
1070
   174
1070
     0
1070
   272
1070
     1
1070
   288
1070
     0
1070
   341
1005
0
1002
}
  0
DIMENSION
  5
18B25
330
747D
100
AcDbEntity
  8
寸法
 48
50.0
100
AcDbDimension
  2
*D33
 10
12423.32611860911
 20
5210.007381773766
 30
0.0
 11
12113.68832333352
 21
5210.007381773766
 31
0.0
 70
   160
 71
     5
 42
60.0
  3
INABA_S40G
100
AcDbAlignedDimension
 13
12483.32611860911
 23
4807.351546317438
 33
0.0
 14
12423.32611860911
 24
4811.349928194466
 34
0.0
100
AcDbRotatedDimension
1001
ACAD
1000
DSTYLE
1002
{
1070
   174
1070
     0
1070
   272
1070
     1
1070
   288
1070
     0
1070
   341
1005
0
1002
}
  0
DIMENSION
  5
18B26
330
747D
100
AcDbEntity
  8
寸法
 48
50.0
100
AcDbDimension
  2
*D32
 10
12423.32611860911
 20
5430.218068505383
 30
0.0
 11
13808.32611860911
 21
5430.218068505383
 31
0.0
 70
   160
 71
     5
 42
2770.000000000002
  3
INABA_S40G
100
AcDbAlignedDimension
 13
15193.32611860911
 23
4756.349928194463
 33
0.0
 14
12423.32611860911
 24
4811.349928194466
 34
0.0
100
AcDbRotatedDimension
1001
ACAD
1000
DSTYLE
1002
{
1070
   174
1070
     0
1070
   272
1070
     1
1070
   288
1070
     0
1070
   341
1005
0
1002
}
  0
LINE
  5
18B27
330
747D
100
AcDbEntity
  8
部品1
100
AcDbLine
 10
12538.32611860911
 20
2436.349928194461
 30
0.0
 11
15113.32611860911
 21
2436.349928194462
 31
0.0
  0
LINE
  5
18B28
330
747D
100
AcDbEntity
  8
細線
 48
50.0
100
AcDbLine
 10
13035.82611860911
 20
4576.349928194462
 30
0.0
 11
13035.82611860911
 21
2486.349928194462
 31
0.0
  0
LINE
  5
18B29
330
747D
100
AcDbEntity
  8
細線
 48
50.0
100
AcDbLine
 10
13020.82611860911
 20
4576.349928194462
 30
0.0
 11
13020.82611860911
 21
2486.349928194462
 31
0.0
  0
LINE
  5
18B2A
330
747D
100
AcDbEntity
  8
細線
 48
50.0
100
AcDbLine
 10
13160.82611860911
 20
4576.349928194462
 30
0.0
 11
13160.82611860911
 21
2486.349928194462
 31
0.0
  0
LINE
  5
18B2B
330
747D
100
AcDbEntity
  8
細線
 48
50.0
100
AcDbLine
 10
13175.82611860911
 20
4576.349928194462
 30
0.0
 11
13175.82611860911
 21
2486.349928194462
 31
0.0
  0
LINE
  5
18B2C
330
747D
100
AcDbEntity
  8
細線
 48
50.0
100
AcDbLine
 10
13315.82611860911
 20
4576.349928194462
 30
0.0
 11
13315.82611860911
 21
2486.349928194462
 31
0.0
  0
LINE
  5
18B2D
330
747D
100
AcDbEntity
  8
細線
 48
50.0
100
AcDbLine
 10
13300.82611860911
 20
4576.349928194462
 30
0.0
 11
13300.82611860911
 21
2486.349928194462
 31
0.0
  0
LINE
  5
18B2E
330
747D
100
AcDbEntity
  8
細線
 48
50.0
100
AcDbLine
 10
12880.82611860911
 20
4576.349928194462
 30
0.0
 11
12880.82611860911
 21
2486.349928194462
 31
0.0
  0
LINE
  5
18B2F
330
747D
100
AcDbEntity
  8
細線
 48
50.0
100
AcDbLine
 10
12895.82611860911
 20
4576.349928194462
 30
0.0
 11
12895.82611860911
 21
2486.349928194462
 31
0.0
  0
LINE
  5
18B30
330
747D
100
AcDbEntity
  8
細線
 48
50.0
100
AcDbLine
 10
12755.82611860911
 20
4576.349928194462
 30
0.0
 11
12755.82611860911
 21
2486.349928194462
 31
0.0
  0
LINE
  5
18B31
330
747D
100
AcDbEntity
  8
細線
 48
50.0
100
AcDbLine
 10
12740.82611860911
 20
4576.349928194462
 30
0.0
 11
12740.82611860911
 21
2486.349928194462
 31
0.0
  0
LINE
  5
18B32
330
747D
100
AcDbEntity
  8
細線
 48
50.0
100
AcDbLine
 10
12600.82611860911
 20
4576.349928194462
 30
0.0
 11
12600.82611860911
 21
2486.349928194462
 31
0.0
  0
LINE
  5
18B33
330
747D
100
AcDbEntity
  8
細線
 48
50.0
100
AcDbLine
 10
12615.82611860911
 20
4576.349928194462
 30
0.0
 11
12615.82611860911
 21
2486.349928194462
 31
0.0
  0
DIMENSION
  5
18B34
330
747D
100
AcDbEntity
  8
寸法
 48
50.0
100
AcDbDimension
  2
*D31
 10
15193.32611860911
 20
5210.007381773767
 30
0.0
 11
15399.3733627036
 21
5210.007381773767
 31
0.0
 70
   160
 71
     5
 42
80.0
  3
INABA_S40G
100
AcDbAlignedDimension
 13
15113.32611860911
 23
4758.160607806114
 33
0.0
 14
15193.32611860911
 24
4756.349928194463
 34
0.0
100
AcDbRotatedDimension
1001
ACAD
1000
DSTYLE
1002
{
1070
   174
1070
     0
1070
   272
1070
     1
1070
   288
1070
     0
1070
   341
1005
0
1002
}
  0
LINE
  5
18B35
330
747D
100
AcDbEntity
  8
部品1
100
AcDbLine
 10
13378.32611860911
 20
4576.349928194462
 30
0.0
 11
13378.32611860911
 21
2486.349928194462
 31
0.0
  0
LINE
  5
18B36
330
747D
100
AcDbEntity
  8
細線
 48
50.0
100
AcDbLine
 10
13720.82611860911
 20
4576.349928194462
 30
0.0
 11
13720.82611860911
 21
2486.349928194462
 31
0.0
  0
LINE
  5
18B37
330
747D
100
AcDbEntity
  8
細線
 48
50.0
100
AcDbLine
 10
13735.82611860911
 20
4576.349928194462
 30
0.0
 11
13735.82611860911
 21
2486.349928194462
 31
0.0
  0
LINE
  5
18B38
330
747D
100
AcDbEntity
  8
細線
 48
50.0
100
AcDbLine
 10
13595.82611860911
 20
4576.349928194462
 30
0.0
 11
13595.82611860911
 21
2486.349928194462
 31
0.0
  0
LINE
  5
18B39
330
747D
100
AcDbEntity
  8
細線
 48
50.0
100
AcDbLine
 10
13580.82611860911
 20
4576.349928194462
 30
0.0
 11
13580.82611860911
 21
2486.349928194462
 31
0.0
  0
LINE
  5
18B3A
330
747D
100
AcDbEntity
  8
細線
 48
50.0
100
AcDbLine
 10
13440.82611860911
 20
4576.349928194462
 30
0.0
 11
13440.82611860911
 21
2486.349928194462
 31
0.0
  0
LINE
  5
18B3B
330
747D
100
AcDbEntity
  8
細線
 48
50.0
100
AcDbLine
 10
13455.82611860911
 20
4576.349928194462
 30
0.0
 11
13455.82611860911
 21
2486.349928194462
 31
0.0
  0
LINE
  5
18B3C
330
747D
100
AcDbEntity
  8
部品1
100
AcDbLine
 10
13798.32611860911
 20
4576.349928194462
 30
0.0
 11
13798.32611860911
 21
2486.349928194462
 31
0.0
  0
LINE
  5
18B3D
330
747D
100
AcDbEntity
  8
細線
 48
50.0
100
AcDbLine
 10
14715.82611860912
 20
4576.349928194462
 30
0.0
 11
14715.82611860912
 21
2486.349928194464
 31
0.0
  0
LINE
  5
18B3E
330
747D
100
AcDbEntity
  8
細線
 48
50.0
100
AcDbLine
 10
14700.82611860912
 20
4576.349928194462
 30
0.0
 11
14700.82611860912
 21
2486.349928194464
 31
0.0
  0
LINE
  5
18B3F
330
747D
100
AcDbEntity
  8
細線
 48
50.0
100
AcDbLine
 10
14840.82611860912
 20
4576.349928194462
 30
0.0
 11
14840.82611860912
 21
2486.349928194464
 31
0.0
  0
LINE
  5
18B40
330
747D
100
AcDbEntity
  8
細線
 48
50.0
100
AcDbLine
 10
14855.82611860912
 20
4576.349928194462
 30
0.0
 11
14855.82611860912
 21
2486.349928194464
 31
0.0
  0
LINE
  5
18B41
330
747D
100
AcDbEntity
  8
細線
 48
50.0
100
AcDbLine
 10
14995.82611860912
 20
4576.349928194462
 30
0.0
 11
14995.82611860912
 21
2486.349928194464
 31
0.0
  0
LINE
  5
18B42
330
747D
100
AcDbEntity
  8
細線
 48
50.0
100
AcDbLine
 10
14980.82611860912
 20
4576.349928194462
 30
0.0
 11
14980.82611860912
 21
2486.349928194464
 31
0.0
  0
DIMENSION
  5
18B43
330
747D
100
AcDbEntity
  8
寸法
 48
50.0
100
AcDbDimension
  2
*D30
 10
11862.71771184073
 20
4685.695187067793
 30
0.0
 11
11873.38318709966
 21
5056.541850309492
 31
0.0
 70
   161
 71
     5
 42
140.9999999999991
  3
INABA_S40G
100
AcDbAlignedDimension
 13
12442.72213876769
 23
4810.072677029141
 33
0.0
 14
12438.66868321106
 24
4669.130953263429
 34
0.0
1001
ACAD
1000
DSTYLE
1002
{
1070
   174
1070
     0
1070
   272
1070
     1
1070
   288
1070
     0
1070
   341
1005
0
1002
}
  0
LINE
  5
18B49
330
747D
100
AcDbEntity
  8
破線
 48
5.0
100
AcDbLine
 10
12483.32611860911
 20
2336.349928194461
 30
0.0
 11
12483.32611860911
 21
2086.349928194461
 31
0.0
  0
LINE
  5
18B4A
330
747D
100
AcDbEntity
  8
破線
 48
5.0
100
AcDbLine
 10
12538.32611860911
 20
2336.349928194461
 30
0.0
 11
12538.32611860911
 21
2086.349928194461
 31
0.0
  0
LINE
  5
18B4B
330
747D
100
AcDbEntity
  8
破線
 48
5.0
100
AcDbLine
 10
12483.32611860911
 20
2086.349928194461
 30
0.0
 11
12538.32611860911
 21
2086.349928194461
 31
0.0
  0
LINE
  5
18B4C
330
747D
100
AcDbEntity
  8
部品1
100
AcDbLine
 10
12483.32611860911
 20
2436.349928194462
 30
0.0
 11
12090.32890440026
 21
2336.349928194461
 31
0.0
  0
LWPOLYLINE
  5
18B4D
330
747D
100
AcDbEntity
  8
部品1
100
AcDbPolyline
 90
        4
 70
     1
 43
0.0
 10
13416.59078549489
 20
1686.349928194464
 10
13416.59078549489
 20
1446.457606648931
 10
14180.06145172333
 20
1446.457606648931
 10
14180.06145172333
 20
1686.349928194464
  0
TEXT
  5
18B4E
330
747D
100
AcDbEntity
  8
部品1
100
AcDbText
 10
13506.0368869185
 20
1493.456398975941
 30
0.0
 40
135.0
  1
側面図
  7
STYLE2
100
AcDbText
  0
LINE
  5
18C78
330
747D
100
AcDbEntity
  8
補助
  6
PHANTOM
 62
   230
 48
50.0
100
AcDbLine
 10
140.0
 20
0.0
 30
0.0
 11
139.9999999999995
 21
11409.6
 31
0.0
  0
DIMENSION
  5
18DD9
330
747D
100
AcDbEntity
  8
寸法
 48
50.0
100
AcDbDimension
  2
*D39
 10
10143.69244754126
 20
4576.349928194463
 30
0.0
 11
10143.69244754126
 21
4814.835209568705
 31
0.0
 70
   160
 71
     5
 42
165.0
  3
INABA_S40G
100
AcDbAlignedDimension
 13
9856.149345219519
 23
4411.349928194463
 33
0.0
 14
9856.149345219519
 24
4576.349928194463
 34
0.0
 50
90.0
100
AcDbRotatedDimension
1001
ACAD
1000
DSTYLE
1002
{
1002
}
  0
DIMENSION
  5
18DDA
330
747D
100
AcDbEntity
  8
寸法
 48
50.0
100
AcDbDimension
  2
*D40
 10
10143.69244754126
 20
4411.349928194463
 30
0.0
 11
10283.86227078763
 21
4412.317128034123
 31
0.0
 70
   160
 71
     5
 42
27.00000000000091
  3
INABA_S40G
100
AcDbAlignedDimension
 13
9856.149345219519
 23
4384.349928194462
 33
0.0
 14
9856.149345219519
 24
4411.349928194463
 34
0.0
 50
90.0
100
AcDbRotatedDimension
1001
ACAD
1000
DSTYLE
1002
{
1070
   279
1070
     2
1002
}
  0
DIMENSION
  5
18DDB
330
747D
100
AcDbEntity
  8
寸法
 48
50.0
100
AcDbDimension
  2
*D41
 10
10143.69244754126
 20
4384.349928194462
 30
0.0
 11
10043.69244754126
 21
3410.349928194466
 31
0.0
 70
    32
  1
有効開口部高サ <>
 71
     5
 42
1947.999999999998
  3
INABA_S40G
100
AcDbAlignedDimension
 13
9856.149345219519
 23
2436.349928194464
 33
0.0
 14
9856.149345219519
 24
4384.349928194462
 34
0.0
 50
90.0
100
AcDbRotatedDimension
  0
ARC
  5
19071
330
747D
100
AcDbEntity
  8
部品1
 48
0.01
100
AcDbCircle
 10
5384.149345219523
 20
4640.349928194464
 30
0.0
 40
2.0
100
AcDbArc
 50
0.0
 51
90.0
  0
ARC
  5
19072
330
747D
100
AcDbEntity
  8
部品1
 48
0.01
100
AcDbCircle
 10
5208.149345219522
 20
4640.349928194464
 30
0.0
 40
2.0
100
AcDbArc
 50
90.0
 51
180.0
  0
LINE
  5
19073
330
747D
100
AcDbEntity
  8
細線
100
AcDbLine
 10
5296.149345219519
 20
4612.849928194464
 30
0.0
 11
5370.149345219523
 21
4612.849928194464
 31
0.0
  0
LINE
  5
19074
330
747D
100
AcDbEntity
  8
細線
100
AcDbLine
 10
5296.149345219522
 20
4635.849928194464
 30
0.0
 11
5222.149345219523
 21
4635.849928194464
 31
0.0
  0
LINE
  5
19075
330
747D
100
AcDbEntity
  8
細線
100
AcDbLine
 10
5222.149345219523
 20
4612.849928194464
 30
0.0
 11
5296.149345219522
 21
4612.849928194464
 31
0.0
  0
LINE
  5
19076
330
747D
100
AcDbEntity
  8
細線
100
AcDbLine
 10
5370.149345219523
 20
4635.849928194464
 30
0.0
 11
5296.149345219522
 21
4635.849928194464
 31
0.0
  0
LINE
  5
19077
330
747D
100
AcDbEntity
  8
細線
100
AcDbLine
 10
5370.149345219523
 20
4612.849928194464
 30
0.0
 11
5370.149345219523
 21
4635.849928194464
 31
0.0
  0
LINE
  5
19078
330
747D
100
AcDbEntity
  8
細線
100
AcDbLine
 10
5222.149345219523
 20
4635.849928194464
 30
0.0
 11
5222.149345219523
 21
4612.849928194464
 31
0.0
  0
LINE
  5
19079
330
747D
100
AcDbEntity
  8
部品1
 48
0.01
100
AcDbLine
 10
5386.149345219519
 20
4608.849928194464
 30
0.0
 11
5386.149345219522
 21
4640.349928194464
 31
0.0
  0
LINE
  5
1907A
330
747D
100
AcDbEntity
  8
部品1
 48
0.01
100
AcDbLine
 10
5206.149345219523
 20
4640.349928194464
 30
0.0
 11
5206.149345219523
 21
4608.849928194464
 31
0.0
  0
LINE
  5
1907B
330
747D
100
AcDbEntity
  8
部品1
 48
0.01
100
AcDbLine
 10
5384.149345219523
 20
4642.349928194464
 30
0.0
 11
5208.149345219522
 21
4642.349928194464
 31
0.0
  0
LINE
  5
1907C
330
747D
100
AcDbEntity
  8
細線
100
AcDbLine
 10
5222.149345219523
 20
4629.849928194464
 30
0.0
 11
5296.149345219522
 21
4629.849928194464
 31
0.0
  0
LINE
  5
1907D
330
747D
100
AcDbEntity
  8
細線
100
AcDbLine
 10
5222.149345219523
 20
4623.849928194464
 30
0.0
 11
5296.149345219522
 21
4623.849928194464
 31
0.0
  0
LINE
  5
1907E
330
747D
100
AcDbEntity
  8
細線
100
AcDbLine
 10
5222.149345219519
 20
4617.849928194464
 30
0.0
 11
5296.149345219522
 21
4617.849928194464
 31
0.0
  0
LINE
  5
1907F
330
747D
100
AcDbEntity
  8
細線
100
AcDbLine
 10
5222.149345219523
 20
4629.849928194464
 30
0.0
 11
5291.149345219523
 21
4629.849928194464
 31
0.0
  0
LINE
  5
19080
330
747D
100
AcDbEntity
  8
細線
100
AcDbLine
 10
5370.14934521952
 20
4629.849928194464
 30
0.0
 11
5296.149345219522
 21
4629.849928194464
 31
0.0
  0
LINE
  5
19081
330
747D
100
AcDbEntity
  8
細線
100
AcDbLine
 10
5370.14934521952
 20
4617.849928194464
 30
0.0
 11
5296.149345219522
 21
4617.849928194464
 31
0.0
  0
LINE
  5
19082
330
747D
100
AcDbEntity
  8
細線
100
AcDbLine
 10
5370.14934521952
 20
4623.849928194464
 30
0.0
 11
5296.149345219522
 21
4623.849928194464
 31
0.0
  0
LINE
  5
19083
330
747D
100
AcDbEntity
  8
細線
100
AcDbLine
 10
5296.149345219522
 20
4635.849928194464
 30
0.0
 11
5296.149345219519
 21
4612.849928194464
 31
0.0
  0
LINE
  5
19084
330
747D
100
AcDbEntity
  8
細線
100
AcDbLine
 10
6526.149345219522
 20
4635.849928194464
 30
0.0
 11
6526.149345219522
 21
4612.849928194464
 31
0.0
  0
LINE
  5
19085
330
747D
100
AcDbEntity
  8
細線
100
AcDbLine
 10
6452.149345219523
 20
4623.849928194464
 30
0.0
 11
6526.149345219522
 21
4623.849928194464
 31
0.0
  0
LINE
  5
19086
330
747D
100
AcDbEntity
  8
細線
100
AcDbLine
 10
6452.149345219523
 20
4617.849928194464
 30
0.0
 11
6526.149345219522
 21
4617.849928194464
 31
0.0
  0
LINE
  5
19087
330
747D
100
AcDbEntity
  8
細線
100
AcDbLine
 10
6452.149345219523
 20
4629.849928194464
 30
0.0
 11
6526.149345219522
 21
4629.849928194464
 31
0.0
  0
LINE
  5
19088
330
747D
100
AcDbEntity
  8
細線
100
AcDbLine
 10
6600.149345219524
 20
4629.849928194464
 30
0.0
 11
6531.149345219522
 21
4629.849928194464
 31
0.0
  0
LINE
  5
19089
330
747D
100
AcDbEntity
  8
細線
100
AcDbLine
 10
6600.149345219524
 20
4617.849928194464
 30
0.0
 11
6526.149345219522
 21
4617.849928194464
 31
0.0
  0
LINE
  5
1908A
330
747D
100
AcDbEntity
  8
細線
100
AcDbLine
 10
6600.149345219524
 20
4623.849928194464
 30
0.0
 11
6526.149345219522
 21
4623.849928194464
 31
0.0
  0
LINE
  5
1908B
330
747D
100
AcDbEntity
  8
細線
100
AcDbLine
 10
6600.149345219524
 20
4629.849928194464
 30
0.0
 11
6526.149345219522
 21
4629.849928194464
 31
0.0
  0
LINE
  5
1908C
330
747D
100
AcDbEntity
  8
部品1
 48
0.01
100
AcDbLine
 10
6438.149345219523
 20
4642.349928194464
 30
0.0
 11
6614.149345219523
 21
4642.349928194464
 31
0.0
  0
LINE
  5
1908D
330
747D
100
AcDbEntity
  8
部品1
 48
0.01
100
AcDbLine
 10
6616.149345219523
 20
4640.349928194464
 30
0.0
 11
6616.149345219523
 21
4608.849928194464
 31
0.0
  0
LINE
  5
1908E
330
747D
100
AcDbEntity
  8
部品1
 48
0.01
100
AcDbLine
 10
6436.149345219523
 20
4608.849928194464
 30
0.0
 11
6436.149345219523
 21
4640.349928194464
 31
0.0
  0
LINE
  5
1908F
330
747D
100
AcDbEntity
  8
細線
100
AcDbLine
 10
6600.149345219524
 20
4635.849928194464
 30
0.0
 11
6600.149345219524
 21
4612.849928194464
 31
0.0
  0
LINE
  5
19090
330
747D
100
AcDbEntity
  8
細線
100
AcDbLine
 10
6452.149345219523
 20
4612.849928194464
 30
0.0
 11
6452.149345219523
 21
4635.849928194464
 31
0.0
  0
LINE
  5
19091
330
747D
100
AcDbEntity
  8
細線
100
AcDbLine
 10
6452.149345219523
 20
4635.849928194464
 30
0.0
 11
6526.149345219522
 21
4635.849928194464
 31
0.0
  0
LINE
  5
19092
330
747D
100
AcDbEntity
  8
細線
100
AcDbLine
 10
6600.149345219524
 20
4612.849928194464
 30
0.0
 11
6526.149345219522
 21
4612.849928194464
 31
0.0
  0
LINE
  5
19093
330
747D
100
AcDbEntity
  8
細線
100
AcDbLine
 10
6526.149345219522
 20
4635.849928194464
 30
0.0
 11
6600.149345219524
 21
4635.849928194464
 31
0.0
  0
LINE
  5
19094
330
747D
100
AcDbEntity
  8
細線
100
AcDbLine
 10
6526.149345219522
 20
4612.849928194464
 30
0.0
 11
6452.149345219523
 21
4612.849928194464
 31
0.0
  0
ARC
  5
19095
330
747D
100
AcDbEntity
  8
部品1
 48
0.01
100
AcDbCircle
 10
6614.149345219523
 20
4640.349928194464
 30
0.0
 40
2.0
100
AcDbArc
 50
0.0
 51
90.0
  0
ARC
  5
19096
330
747D
100
AcDbEntity
  8
部品1
 48
0.01
100
AcDbCircle
 10
6438.149345219523
 20
4640.349928194464
 30
0.0
 40
2.0
100
AcDbArc
 50
90.0
 51
180.0
  0
ARC
  5
19097
330
747D
100
AcDbEntity
  8
部品1
 48
0.01
100
AcDbCircle
 10
5384.149345219519
 20
4608.849928194464
 30
0.0
 40
2.0
100
AcDbArc
 50
270.0
 51
0.0
  0
ARC
  5
19098
330
747D
100
AcDbEntity
  8
部品1
 48
0.01
100
AcDbCircle
 10
5208.149345219522
 20
4608.849928194464
 30
0.0
 40
2.0
100
AcDbArc
 50
180.0
 51
270.0
  0
LINE
  5
19099
330
747D
100
AcDbEntity
  8
部品1
 48
0.01
100
AcDbLine
 10
5208.149345219522
 20
4606.849928194463
 30
0.0
 11
5384.149345219519
 21
4606.849928194463
 31
0.0
  0
LINE
  5
1909A
330
747D
100
AcDbEntity
  8
部品1
 48
0.01
100
AcDbLine
 10
6614.149345219523
 20
4606.849928194463
 30
0.0
 11
6438.149345219523
 21
4606.849928194463
 31
0.0
  0
ARC
  5
1909B
330
747D
100
AcDbEntity
  8
部品1
 48
0.01
100
AcDbCircle
 10
6614.149345219523
 20
4608.849928194464
 30
0.0
 40
2.0
100
AcDbArc
 50
270.0
 51
0.0
  0
ARC
  5
1909C
330
747D
100
AcDbEntity
  8
部品1
 48
0.01
100
AcDbCircle
 10
6438.149345219523
 20
4608.849928194464
 30
0.0
 40
2.0
100
AcDbArc
 50
180.0
 51
270.0
  0
ARC
  5
190AD
330
747D
100
AcDbEntity
  8
部品1
 48
0.01
100
AcDbCircle
 10
3808.149345219525
 20
4608.849928194464
 30
0.0
 40
2.0
100
AcDbArc
 50
180.0
 51
270.0
  0
ARC
  5
190AE
330
747D
100
AcDbEntity
  8
部品1
 48
0.01
100
AcDbCircle
 10
3984.149345219524
 20
4608.849928194464
 30
0.0
 40
2.0
100
AcDbArc
 50
270.0
 51
0.0
  0
LINE
  5
190AF
330
747D
100
AcDbEntity
  8
部品1
 48
0.01
100
AcDbLine
 10
3984.149345219524
 20
4606.849928194463
 30
0.0
 11
3808.149345219525
 21
4606.849928194463
 31
0.0
  0
LINE
  5
190B0
330
747D
100
AcDbEntity
  8
部品1
 48
0.01
100
AcDbLine
 10
2578.149345219525
 20
4606.849928194463
 30
0.0
 11
2754.149345219521
 21
4606.849928194463
 31
0.0
  0
ARC
  5
190B1
330
747D
100
AcDbEntity
  8
部品1
 48
0.01
100
AcDbCircle
 10
2578.149345219525
 20
4608.849928194464
 30
0.0
 40
2.0
100
AcDbArc
 50
180.0
 51
270.0
  0
ARC
  5
190B2
330
747D
100
AcDbEntity
  8
部品1
 48
0.01
100
AcDbCircle
 10
2754.149345219521
 20
4608.849928194464
 30
0.0
 40
2.0
100
AcDbArc
 50
270.0
 51
0.0
  0
ARC
  5
190B3
330
747D
100
AcDbEntity
  8
部品1
 48
0.01
100
AcDbCircle
 10
3808.149345219525
 20
4640.349928194464
 30
0.0
 40
2.0
100
AcDbArc
 50
90.0
 51
180.0
  0
ARC
  5
190B4
330
747D
100
AcDbEntity
  8
部品1
 48
0.01
100
AcDbCircle
 10
3984.149345219524
 20
4640.349928194464
 30
0.0
 40
2.0
100
AcDbArc
 50
0.0
 51
90.0
  0
LINE
  5
190B5
330
747D
100
AcDbEntity
  8
細線
100
AcDbLine
 10
3896.149345219525
 20
4612.849928194464
 30
0.0
 11
3822.149345219525
 21
4612.849928194464
 31
0.0
  0
LINE
  5
190B6
330
747D
100
AcDbEntity
  8
細線
100
AcDbLine
 10
3896.149345219525
 20
4635.849928194464
 30
0.0
 11
3970.149345219525
 21
4635.849928194464
 31
0.0
  0
LINE
  5
190B7
330
747D
100
AcDbEntity
  8
細線
100
AcDbLine
 10
3970.149345219525
 20
4612.849928194464
 30
0.0
 11
3896.149345219525
 21
4612.849928194464
 31
0.0
  0
LINE
  5
190B8
330
747D
100
AcDbEntity
  8
細線
100
AcDbLine
 10
3822.149345219525
 20
4635.849928194464
 30
0.0
 11
3896.149345219525
 21
4635.849928194464
 31
0.0
  0
LINE
  5
190B9
330
747D
100
AcDbEntity
  8
細線
100
AcDbLine
 10
3822.149345219525
 20
4612.849928194464
 30
0.0
 11
3822.149345219525
 21
4635.849928194464
 31
0.0
  0
LINE
  5
190BA
330
747D
100
AcDbEntity
  8
細線
100
AcDbLine
 10
3970.149345219525
 20
4635.849928194464
 30
0.0
 11
3970.149345219525
 21
4612.849928194464
 31
0.0
  0
LINE
  5
190BB
330
747D
100
AcDbEntity
  8
部品1
 48
0.01
100
AcDbLine
 10
3806.149345219525
 20
4608.849928194464
 30
0.0
 11
3806.149345219525
 21
4640.349928194464
 31
0.0
  0
LINE
  5
190BC
330
747D
100
AcDbEntity
  8
部品1
 48
0.01
100
AcDbLine
 10
3986.149345219525
 20
4640.349928194464
 30
0.0
 11
3986.149345219525
 21
4608.849928194464
 31
0.0
  0
LINE
  5
190BD
330
747D
100
AcDbEntity
  8
部品1
 48
0.01
100
AcDbLine
 10
3808.149345219525
 20
4642.349928194464
 30
0.0
 11
3984.149345219524
 21
4642.349928194464
 31
0.0
  0
LINE
  5
190BE
330
747D
100
AcDbEntity
  8
細線
100
AcDbLine
 10
3970.149345219525
 20
4629.849928194464
 30
0.0
 11
3896.149345219525
 21
4629.849928194464
 31
0.0
  0
LINE
  5
190BF
330
747D
100
AcDbEntity
  8
細線
100
AcDbLine
 10
3970.149345219525
 20
4623.849928194464
 30
0.0
 11
3896.149345219525
 21
4623.849928194464
 31
0.0
  0
LINE
  5
190C0
330
747D
100
AcDbEntity
  8
細線
100
AcDbLine
 10
3970.149345219525
 20
4617.849928194464
 30
0.0
 11
3896.149345219525
 21
4617.849928194464
 31
0.0
  0
LINE
  5
190C1
330
747D
100
AcDbEntity
  8
細線
100
AcDbLine
 10
3970.149345219525
 20
4629.849928194464
 30
0.0
 11
3901.149345219525
 21
4629.849928194464
 31
0.0
  0
LINE
  5
190C2
330
747D
100
AcDbEntity
  8
細線
100
AcDbLine
 10
3822.149345219525
 20
4629.849928194464
 30
0.0
 11
3896.149345219525
 21
4629.849928194464
 31
0.0
  0
LINE
  5
190C3
330
747D
100
AcDbEntity
  8
細線
100
AcDbLine
 10
3822.149345219525
 20
4617.849928194464
 30
0.0
 11
3896.149345219525
 21
4617.849928194464
 31
0.0
  0
LINE
  5
190C4
330
747D
100
AcDbEntity
  8
細線
100
AcDbLine
 10
3822.149345219525
 20
4623.849928194464
 30
0.0
 11
3896.149345219525
 21
4623.849928194464
 31
0.0
  0
LINE
  5
190C5
330
747D
100
AcDbEntity
  8
細線
100
AcDbLine
 10
3896.149345219525
 20
4635.849928194464
 30
0.0
 11
3896.149345219525
 21
4612.849928194464
 31
0.0
  0
LINE
  5
190C6
330
747D
100
AcDbEntity
  8
細線
100
AcDbLine
 10
2666.149345219525
 20
4635.849928194464
 30
0.0
 11
2666.149345219521
 21
4612.849928194464
 31
0.0
  0
LINE
  5
190C7
330
747D
100
AcDbEntity
  8
細線
100
AcDbLine
 10
2740.149345219521
 20
4623.849928194464
 30
0.0
 11
2666.149345219525
 21
4623.849928194464
 31
0.0
  0
LINE
  5
190C8
330
747D
100
AcDbEntity
  8
細線
100
AcDbLine
 10
2740.149345219521
 20
4617.849928194464
 30
0.0
 11
2666.149345219525
 21
4617.849928194464
 31
0.0
  0
LINE
  5
190C9
330
747D
100
AcDbEntity
  8
細線
100
AcDbLine
 10
2740.149345219521
 20
4629.849928194464
 30
0.0
 11
2666.149345219525
 21
4629.849928194464
 31
0.0
  0
LINE
  5
190CA
330
747D
100
AcDbEntity
  8
細線
100
AcDbLine
 10
2592.149345219525
 20
4629.849928194464
 30
0.0
 11
2661.149345219525
 21
4629.849928194464
 31
0.0
  0
LINE
  5
190CB
330
747D
100
AcDbEntity
  8
細線
100
AcDbLine
 10
2592.149345219521
 20
4617.849928194464
 30
0.0
 11
2666.149345219525
 21
4617.849928194464
 31
0.0
  0
LINE
  5
190CC
330
747D
100
AcDbEntity
  8
細線
100
AcDbLine
 10
2592.149345219525
 20
4623.849928194464
 30
0.0
 11
2666.149345219525
 21
4623.849928194464
 31
0.0
  0
LINE
  5
190CD
330
747D
100
AcDbEntity
  8
細線
100
AcDbLine
 10
2592.149345219525
 20
4629.849928194464
 30
0.0
 11
2666.149345219525
 21
4629.849928194464
 31
0.0
  0
LINE
  5
190CE
330
747D
100
AcDbEntity
  8
部品1
 48
0.01
100
AcDbLine
 10
2754.149345219525
 20
4642.349928194464
 30
0.0
 11
2578.149345219525
 21
4642.349928194464
 31
0.0
  0
LINE
  5
190CF
330
747D
100
AcDbEntity
  8
部品1
 48
0.01
100
AcDbLine
 10
2576.149345219525
 20
4640.349928194464
 30
0.0
 11
2576.149345219525
 21
4608.849928194464
 31
0.0
  0
LINE
  5
190D0
330
747D
100
AcDbEntity
  8
部品1
 48
0.01
100
AcDbLine
 10
2756.149345219521
 20
4608.849928194464
 30
0.0
 11
2756.149345219525
 21
4640.349928194464
 31
0.0
  0
LINE
  5
190D1
330
747D
100
AcDbEntity
  8
細線
100
AcDbLine
 10
2592.149345219525
 20
4635.849928194464
 30
0.0
 11
2592.149345219525
 21
4612.849928194464
 31
0.0
  0
LINE
  5
190D2
330
747D
100
AcDbEntity
  8
細線
100
AcDbLine
 10
2740.149345219525
 20
4612.849928194464
 30
0.0
 11
2740.149345219525
 21
4635.849928194464
 31
0.0
  0
LINE
  5
190D3
330
747D
100
AcDbEntity
  8
細線
100
AcDbLine
 10
2740.149345219525
 20
4635.849928194464
 30
0.0
 11
2666.149345219525
 21
4635.849928194464
 31
0.0
  0
LINE
  5
190D4
330
747D
100
AcDbEntity
  8
細線
100
AcDbLine
 10
2592.149345219525
 20
4612.849928194464
 30
0.0
 11
2666.149345219525
 21
4612.849928194464
 31
0.0
  0
LINE
  5
190D5
330
747D
100
AcDbEntity
  8
細線
100
AcDbLine
 10
2666.149345219525
 20
4635.849928194464
 30
0.0
 11
2592.149345219525
 21
4635.849928194464
 31
0.0
  0
LINE
  5
190D6
330
747D
100
AcDbEntity
  8
細線
100
AcDbLine
 10
2666.149345219521
 20
4612.849928194464
 30
0.0
 11
2740.149345219525
 21
4612.849928194464
 31
0.0
  0
ARC
  5
190D7
330
747D
100
AcDbEntity
  8
部品1
 48
0.01
100
AcDbCircle
 10
2578.149345219525
 20
4640.349928194464
 30
0.0
 40
2.0
100
AcDbArc
 50
90.0
 51
180.0
  0
ARC
  5
190D8
330
747D
100
AcDbEntity
  8
部品1
 48
0.01
100
AcDbCircle
 10
2754.149345219525
 20
4640.349928194464
 30
0.0
 40
2.0
100
AcDbArc
 50
0.0
 51
90.0
  0
ARC
  5
1923E
330
747D
100
AcDbEntity
  8
部品1
 48
0.01
100
AcDbCircle
 10
9068.14934521952
 20
4608.849928194464
 30
0.0
 40
2.0
100
AcDbArc
 50
180.0
 51
270.0
  0
ARC
  5
1923F
330
747D
100
AcDbEntity
  8
部品1
 48
0.01
100
AcDbCircle
 10
9244.149345219518
 20
4608.849928194464
 30
0.0
 40
2.0
100
AcDbArc
 50
270.0
 51
0.0
  0
LINE
  5
19240
330
747D
100
AcDbEntity
  8
部品1
 48
0.01
100
AcDbLine
 10
9244.149345219518
 20
4606.849928194463
 30
0.0
 11
9068.14934521952
 21
4606.849928194463
 31
0.0
  0
LINE
  5
19241
330
747D
100
AcDbEntity
  8
部品1
 48
0.01
100
AcDbLine
 10
7838.149345219519
 20
4606.849928194463
 30
0.0
 11
8014.149345219514
 21
4606.849928194463
 31
0.0
  0
ARC
  5
19242
330
747D
100
AcDbEntity
  8
部品1
 48
0.01
100
AcDbCircle
 10
7838.149345219519
 20
4608.849928194464
 30
0.0
 40
2.0
100
AcDbArc
 50
180.0
 51
270.0
  0
ARC
  5
19243
330
747D
100
AcDbEntity
  8
部品1
 48
0.01
100
AcDbCircle
 10
8014.149345219514
 20
4608.849928194464
 30
0.0
 40
2.0
100
AcDbArc
 50
270.0
 51
0.0
  0
ARC
  5
19244
330
747D
100
AcDbEntity
  8
部品1
 48
0.01
100
AcDbCircle
 10
9068.14934521952
 20
4640.349928194464
 30
0.0
 40
2.0
100
AcDbArc
 50
90.0
 51
180.0
  0
ARC
  5
19245
330
747D
100
AcDbEntity
  8
部品1
 48
0.01
100
AcDbCircle
 10
9244.149345219518
 20
4640.349928194464
 30
0.0
 40
2.0
100
AcDbArc
 50
0.0
 51
90.0
  0
LINE
  5
19246
330
747D
100
AcDbEntity
  8
細線
100
AcDbLine
 10
9156.149345219519
 20
4612.849928194464
 30
0.0
 11
9082.149345219519
 21
4612.849928194464
 31
0.0
  0
LINE
  5
19247
330
747D
100
AcDbEntity
  8
細線
100
AcDbLine
 10
9156.149345219519
 20
4635.849928194464
 30
0.0
 11
9230.149345219519
 21
4635.849928194464
 31
0.0
  0
LINE
  5
19248
330
747D
100
AcDbEntity
  8
細線
100
AcDbLine
 10
9230.149345219519
 20
4612.849928194464
 30
0.0
 11
9156.149345219519
 21
4612.849928194464
 31
0.0
  0
LINE
  5
19249
330
747D
100
AcDbEntity
  8
細線
100
AcDbLine
 10
9082.149345219519
 20
4635.849928194464
 30
0.0
 11
9156.149345219519
 21
4635.849928194464
 31
0.0
  0
LINE
  5
1924A
330
747D
100
AcDbEntity
  8
細線
100
AcDbLine
 10
9082.149345219519
 20
4612.849928194464
 30
0.0
 11
9082.149345219519
 21
4635.849928194464
 31
0.0
  0
LINE
  5
1924B
330
747D
100
AcDbEntity
  8
細線
100
AcDbLine
 10
9230.149345219519
 20
4635.849928194464
 30
0.0
 11
9230.149345219519
 21
4612.849928194464
 31
0.0
  0
LINE
  5
1924C
330
747D
100
AcDbEntity
  8
部品1
 48
0.01
100
AcDbLine
 10
9066.149345219519
 20
4608.849928194464
 30
0.0
 11
9066.149345219519
 21
4640.349928194464
 31
0.0
  0
LINE
  5
1924D
330
747D
100
AcDbEntity
  8
部品1
 48
0.01
100
AcDbLine
 10
9246.149345219519
 20
4640.349928194464
 30
0.0
 11
9246.149345219519
 21
4608.849928194464
 31
0.0
  0
LINE
  5
1924E
330
747D
100
AcDbEntity
  8
部品1
 48
0.01
100
AcDbLine
 10
9068.14934521952
 20
4642.349928194464
 30
0.0
 11
9244.149345219518
 21
4642.349928194464
 31
0.0
  0
LINE
  5
1924F
330
747D
100
AcDbEntity
  8
細線
100
AcDbLine
 10
9230.149345219519
 20
4629.849928194464
 30
0.0
 11
9156.149345219519
 21
4629.849928194464
 31
0.0
  0
LINE
  5
19250
330
747D
100
AcDbEntity
  8
細線
100
AcDbLine
 10
9230.149345219519
 20
4623.849928194464
 30
0.0
 11
9156.149345219519
 21
4623.849928194464
 31
0.0
  0
LINE
  5
19251
330
747D
100
AcDbEntity
  8
細線
100
AcDbLine
 10
9230.149345219519
 20
4617.849928194464
 30
0.0
 11
9156.149345219519
 21
4617.849928194464
 31
0.0
  0
LINE
  5
19252
330
747D
100
AcDbEntity
  8
細線
100
AcDbLine
 10
9230.149345219519
 20
4629.849928194464
 30
0.0
 11
9161.149345219518
 21
4629.849928194464
 31
0.0
  0
LINE
  5
19253
330
747D
100
AcDbEntity
  8
細線
100
AcDbLine
 10
9082.149345219519
 20
4629.849928194464
 30
0.0
 11
9156.149345219519
 21
4629.849928194464
 31
0.0
  0
LINE
  5
19254
330
747D
100
AcDbEntity
  8
細線
100
AcDbLine
 10
9082.149345219519
 20
4617.849928194464
 30
0.0
 11
9156.149345219519
 21
4617.849928194464
 31
0.0
  0
LINE
  5
19255
330
747D
100
AcDbEntity
  8
細線
100
AcDbLine
 10
9082.149345219519
 20
4623.849928194464
 30
0.0
 11
9156.149345219519
 21
4623.849928194464
 31
0.0
  0
LINE
  5
19256
330
747D
100
AcDbEntity
  8
細線
100
AcDbLine
 10
9156.149345219519
 20
4635.849928194464
 30
0.0
 11
9156.149345219519
 21
4612.849928194464
 31
0.0
  0
LINE
  5
19257
330
747D
100
AcDbEntity
  8
細線
100
AcDbLine
 10
7926.14934521952
 20
4635.849928194464
 30
0.0
 11
7926.149345219515
 21
4612.849928194464
 31
0.0
  0
LINE
  5
19258
330
747D
100
AcDbEntity
  8
細線
100
AcDbLine
 10
8000.149345219517
 20
4623.849928194464
 30
0.0
 11
7926.14934521952
 21
4623.849928194464
 31
0.0
  0
LINE
  5
19259
330
747D
100
AcDbEntity
  8
細線
100
AcDbLine
 10
8000.149345219517
 20
4617.849928194464
 30
0.0
 11
7926.14934521952
 21
4617.849928194464
 31
0.0
  0
LINE
  5
1925A
330
747D
100
AcDbEntity
  8
細線
100
AcDbLine
 10
8000.149345219517
 20
4629.849928194464
 30
0.0
 11
7926.14934521952
 21
4629.849928194464
 31
0.0
  0
LINE
  5
1925B
330
747D
100
AcDbEntity
  8
細線
100
AcDbLine
 10
7852.149345219519
 20
4629.849928194464
 30
0.0
 11
7921.14934521952
 21
4629.849928194464
 31
0.0
  0
LINE
  5
1925C
330
747D
100
AcDbEntity
  8
細線
100
AcDbLine
 10
7852.149345219515
 20
4617.849928194464
 30
0.0
 11
7926.14934521952
 21
4617.849928194464
 31
0.0
  0
LINE
  5
1925D
330
747D
100
AcDbEntity
  8
細線
100
AcDbLine
 10
7852.149345219519
 20
4623.849928194464
 30
0.0
 11
7926.14934521952
 21
4623.849928194464
 31
0.0
  0
LINE
  5
1925E
330
747D
100
AcDbEntity
  8
細線
100
AcDbLine
 10
7852.149345219519
 20
4629.849928194464
 30
0.0
 11
7926.14934521952
 21
4629.849928194464
 31
0.0
  0
LINE
  5
1925F
330
747D
100
AcDbEntity
  8
部品1
 48
0.01
100
AcDbLine
 10
8014.14934521952
 20
4642.349928194464
 30
0.0
 11
7838.149345219519
 21
4642.349928194464
 31
0.0
  0
LINE
  5
19260
330
747D
100
AcDbEntity
  8
部品1
 48
0.01
100
AcDbLine
 10
7836.149345219519
 20
4640.349928194464
 30
0.0
 11
7836.149345219519
 21
4608.849928194464
 31
0.0
  0
LINE
  5
19261
330
747D
100
AcDbEntity
  8
部品1
 48
0.01
100
AcDbLine
 10
8016.149345219515
 20
4608.849928194464
 30
0.0
 11
8016.149345219519
 21
4640.349928194464
 31
0.0
  0
LINE
  5
19262
330
747D
100
AcDbEntity
  8
細線
100
AcDbLine
 10
7852.149345219519
 20
4635.849928194464
 30
0.0
 11
7852.149345219519
 21
4612.849928194464
 31
0.0
  0
LINE
  5
19263
330
747D
100
AcDbEntity
  8
細線
100
AcDbLine
 10
8000.149345219519
 20
4612.849928194464
 30
0.0
 11
8000.149345219519
 21
4635.849928194464
 31
0.0
  0
LINE
  5
19264
330
747D
100
AcDbEntity
  8
細線
100
AcDbLine
 10
8000.149345219519
 20
4635.849928194464
 30
0.0
 11
7926.14934521952
 21
4635.849928194464
 31
0.0
  0
LINE
  5
19265
330
747D
100
AcDbEntity
  8
細線
100
AcDbLine
 10
7852.149345219519
 20
4612.849928194464
 30
0.0
 11
7926.14934521952
 21
4612.849928194464
 31
0.0
  0
LINE
  5
19266
330
747D
100
AcDbEntity
  8
細線
100
AcDbLine
 10
7926.14934521952
 20
4635.849928194464
 30
0.0
 11
7852.149345219519
 21
4635.849928194464
 31
0.0
  0
LINE
  5
19267
330
747D
100
AcDbEntity
  8
細線
100
AcDbLine
 10
7926.149345219515
 20
4612.849928194464
 30
0.0
 11
8000.149345219519
 21
4612.849928194464
 31
0.0
  0
ARC
  5
19268
330
747D
100
AcDbEntity
  8
部品1
 48
0.01
100
AcDbCircle
 10
7838.149345219519
 20
4640.349928194464
 30
0.0
 40
2.0
100
AcDbArc
 50
90.0
 51
180.0
  0
ARC
  5
19269
330
747D
100
AcDbEntity
  8
部品1
 48
0.01
100
AcDbCircle
 10
8014.14934521952
 20
4640.349928194464
 30
0.0
 40
2.0
100
AcDbArc
 50
0.0
 51
90.0
  0
DIMENSION
  5
192EA
330
747D
100
AcDbEntity
  8
寸法
 48
50.0
100
AcDbDimension
  2
*D42
 10
4932.99070548011
 20
10143.12359164091
 30
0.0
 11
4832.990705480109
 21
9784.87359164084
 31
0.0
 70
    32
 71
     5
 42
716.5000000001546
  3
INABA_S40G
100
AcDbAlignedDimension
 13
4676.149345219283
 23
9426.623591640762
 33
0.0
 14
4651.149345219508
 24
10143.12359164091
 34
0.0
 50
90.0
100
AcDbRotatedDimension
1001
ACAD
1000
DSTYLE
1002
{
1070
   279
1070
     2
1070
   341
1005
0
1002
}
  0
TEXT
  5
19306
330
747D
100
AcDbEntity
  8
文字
 62
     7
 48
50.0
100
AcDbText
 10
15022.63965474517
 20
9740.013745883725
 30
0.0
 40
100.0
  1
F12            2.3
  7
STYLE1
100
AcDbText
  0
LINE
  5
1932C
330
747D
100
AcDbEntity
  8
部品1
 48
50.0
100
AcDbLine
 10
4516.149345219292
 20
10063.12359164073
 30
0.0
 11
2046.149336675044
 21
10063.12359164072
 31
0.0
  0
LINE
  5
1932D
330
747D
100
AcDbEntity
  8
部品1
100
AcDbLine
 10
4541.1493452193
 20
10088.12359164093
 30
0.0
 11
2021.149345219514
 21
10088.12359164093
 31
0.0
  0
LINE
  5
19431
330
747D
100
AcDbEntity
  8
部品1
 48
10.0
100
AcDbLine
 10
4676.14934297543
 20
9426.623588063492
 30
0.0
 11
4676.149342975419
 21
10088.12358806353
 31
0.0
  0
LINE
  5
19432
330
747D
100
AcDbEntity
  8
部品1
100
AcDbLine
 10
4651.149342975451
 20
9426.623588063485
 30
0.0
 11
4651.149342975444
 21
10088.1235880635
 31
0.0
  0
LINE
  5
19433
330
747D
100
AcDbEntity
  8
部品1
100
AcDbLine
 10
4624.14934297543
 20
9426.623588063485
 30
0.0
 11
4624.149342975437
 21
10143.12358806356
 31
0.0
  0
LINE
  5
19434
330
747D
100
AcDbEntity
  8
部品1
 48
50.0
100
AcDbLine
 10
4621.149342975419
 20
9427.623584486472
 30
0.0
 11
4621.149342975419
 21
10088.12358448647
 31
0.0
  0
LINE
  5
19435
330
747D
100
AcDbEntity
  8
部品1
 48
50.0
100
AcDbLine
 10
4516.149342975441
 20
9426.623588063485
 30
0.0
 11
4676.14934297543
 21
9426.623588063492
 31
0.0
  0
LINE
  5
19436
330
747D
100
AcDbEntity
  8
部品1
 48
50.0
100
AcDbLine
 10
4571.149342975419
 20
9427.623584486472
 30
0.0
 11
4621.149342975419
 21
9427.623584486472
 31
0.0
  0
LINE
  5
19437
330
747D
100
AcDbEntity
  8
部品1
100
AcDbLine
 10
4571.149342975419
 20
9509.623584486472
 30
0.0
 11
4621.149342975416
 21
9522.335448893249
 31
0.0
  0
LINE
  5
19438
330
747D
100
AcDbEntity
  8
部品1
100
AcDbLine
 10
4621.149342975419
 20
9664.447601049619
 30
0.0
 11
4571.149342975417
 21
9669.623584486473
 31
0.0
  0
LINE
  5
19439
330
747D
100
AcDbEntity
  8
部品1
100
AcDbLine
 10
4621.149342975419
 20
9704.799567923327
 30
0.0
 11
4571.149342975417
 21
9699.623584486472
 31
0.0
  0
LINE
  5
1943A
330
747D
100
AcDbEntity
  8
部品1
 48
50.0
100
AcDbLine
 10
4651.149342975444
 20
10088.12358806359
 30
0.0
 11
4624.149342975437
 21
10115.1235880636
 31
0.0
  0
LINE
  5
1943B
330
747D
100
AcDbEntity
  8
部品1
 48
50.0
100
AcDbLine
 10
4571.149342975419
 20
10088.12358448647
 30
0.0
 11
4571.149342975419
 21
9427.623584486472
 31
0.0
  0
LINE
  5
1943C
330
747D
100
AcDbEntity
  8
部品1
 48
50.0
100
AcDbLine
 10
4624.149342975623
 20
10088.12358806372
 30
0.0
 11
4568.149342975621
 21
10088.12358806372
 31
0.0
  0
LINE
  5
1943D
330
747D
100
AcDbEntity
  8
部品1
100
AcDbLine
 10
4568.149342975433
 20
10115.12358806361
 30
0.0
 11
4568.14934297543
 21
9426.623588063485
 31
0.0
  0
LINE
  5
1943E
330
747D
100
AcDbEntity
  8
部品1
 48
50.0
100
AcDbLine
 10
4568.149342975623
 20
10088.12358806366
 30
0.0
 11
4568.149342975623
 21
10115.12358806369
 31
0.0
  0
LINE
  5
1943F
330
747D
100
AcDbEntity
  8
部品1
 48
10.0
100
AcDbLine
 10
4516.149342975441
 20
9426.623588063485
 30
0.0
 11
4516.149342975437
 21
10088.12358806351
 31
0.0
  0
LINE
  5
19440
330
747D
100
AcDbEntity
  8
部品1
100
AcDbLine
 10
4541.149342975448
 20
9426.623588063485
 30
0.0
 11
4541.149342975444
 21
10088.12358806351
 31
0.0
  0
LINE
  5
19441
330
747D
100
AcDbEntity
  8
部品1
 48
50.0
100
AcDbLine
 10
4541.149342975444
 20
10088.12358806351
 30
0.0
 11
4568.149342975623
 21
10115.12358806369
 31
0.0
  0
LINE
  5
19442
330
747D
100
AcDbEntity
  8
部品1
 48
50.0
100
AcDbLine
 10
4568.149342975623
 20
10115.12358806379
 30
0.0
 11
4568.149342975619
 21
10143.12358806374
 31
0.0
  0
LINE
  5
19443
330
747D
100
AcDbEntity
  8
部品1
 48
50.0
100
AcDbLine
 10
4568.149342975623
 20
10115.12358806369
 30
0.0
 11
4596.149342975619
 21
10115.12358806369
 31
0.0
  0
LINE
  5
19444
330
747D
100
AcDbEntity
  8
部品1
 48
50.0
100
AcDbLine
 10
4596.149342975619
 20
10115.12358806369
 30
0.0
 11
4568.149342975623
 21
10143.12358806374
 31
0.0
  0
LINE
  5
19445
330
747D
100
AcDbEntity
  8
部品1
 48
50.0
100
AcDbLine
 10
4624.149342975623
 20
10088.12358806366
 30
0.0
 11
4624.149342975688
 21
10143.12358806369
 31
0.0
  0
LINE
  5
19446
330
747D
100
AcDbEntity
  8
部品1
100
AcDbLine
 10
4651.149342975652
 20
10143.12358806364
 30
0.0
 11
4651.149342975652
 21
10115.12358806365
 31
0.0
  0
LINE
  5
19447
330
747D
100
AcDbEntity
  8
部品1
 48
50.0
100
AcDbLine
 10
4651.149340731801
 20
10143.12358448647
 30
0.0
 11
4541.149342975655
 21
10143.12358806374
 31
0.0
  0
LINE
  5
19448
330
747D
100
AcDbEntity
  8
部品1
100
AcDbLine
 10
4541.149342975655
 20
10143.12358806374
 30
0.0
 11
4541.149342975655
 21
10115.12358806374
 31
0.0
  0
LINE
  5
1944A
330
747D
100
AcDbEntity
  8
部品1
 48
50.0
100
AcDbLine
 10
7251.14934297574
 20
9427.623584486509
 30
0.0
 11
7251.14934297574
 21
10088.12358448651
 31
0.0
  0
LINE
  5
1944B
330
747D
100
AcDbEntity
  8
部品1
100
AcDbLine
 10
7254.14934297575
 20
9426.623588063522
 30
0.0
 11
7254.149342975757
 21
10143.12358806359
 31
0.0
  0
LINE
  5
1944C
330
747D
100
AcDbEntity
  8
部品1
100
AcDbLine
 10
7281.149342975772
 20
9426.623588063522
 30
0.0
 11
7281.149342975765
 21
10088.12358806354
 31
0.0
  0
LINE
  5
1944D
330
747D
100
AcDbEntity
  8
部品1
 48
10.0
100
AcDbLine
 10
7306.14934297575
 20
9426.623588063529
 30
0.0
 11
7306.149342975739
 21
10088.12358806356
 31
0.0
  0
LINE
  5
1944E
330
747D
100
AcDbEntity
  8
部品1
100
AcDbLine
 10
7171.149342975976
 20
10143.12358806378
 30
0.0
 11
7171.149342975976
 21
10115.12358806378
 31
0.0
  0
LINE
  5
19450
330
747D
100
AcDbEntity
  8
部品1
100
AcDbLine
 10
7281.149342975972
 20
10143.12358806368
 30
0.0
 11
7281.149342975972
 21
10115.12358806368
 31
0.0
  0
LINE
  5
19451
330
747D
100
AcDbEntity
  8
部品1
 48
50.0
100
AcDbLine
 10
7254.149342975942
 20
10088.1235880637
 30
0.0
 11
7254.149342976008
 21
10143.12358806373
 31
0.0
  0
LINE
  5
19452
330
747D
100
AcDbEntity
  8
部品1
 48
50.0
100
AcDbLine
 10
7226.14934297594
 20
10115.12358806372
 30
0.0
 11
7198.149342975942
 21
10143.12358806378
 31
0.0
  0
LINE
  5
19453
330
747D
100
AcDbEntity
  8
部品1
 48
50.0
100
AcDbLine
 10
7198.149342975942
 20
10115.12358806372
 30
0.0
 11
7226.14934297594
 21
10115.12358806373
 31
0.0
  0
LINE
  5
19454
330
747D
100
AcDbEntity
  8
部品1
 48
50.0
100
AcDbLine
 10
7198.149342975942
 20
10115.12358806383
 30
0.0
 11
7198.14934297594
 21
10143.12358806378
 31
0.0
  0
LINE
  5
19455
330
747D
100
AcDbEntity
  8
部品1
 48
50.0
100
AcDbLine
 10
7171.149342975765
 20
10088.12358806355
 30
0.0
 11
7198.149342975942
 21
10115.12358806372
 31
0.0
  0
LINE
  5
19456
330
747D
100
AcDbEntity
  8
部品1
100
AcDbLine
 10
7171.149342975768
 20
9426.623588063522
 30
0.0
 11
7171.149342975765
 21
10088.12358806355
 31
0.0
  0
LINE
  5
19457
330
747D
100
AcDbEntity
  8
部品1
 48
10.0
100
AcDbLine
 10
7146.14934297576
 20
9426.623588063522
 30
0.0
 11
7146.149342975758
 21
10088.12358806355
 31
0.0
  0
LINE
  5
19458
330
747D
100
AcDbEntity
  8
部品1
 48
50.0
100
AcDbLine
 10
7198.149342975942
 20
10088.1235880637
 30
0.0
 11
7198.149342975942
 21
10115.12358806372
 31
0.0
  0
LINE
  5
19459
330
747D
100
AcDbEntity
  8
部品1
100
AcDbLine
 10
7198.149342975753
 20
10115.12358806364
 30
0.0
 11
7198.14934297575
 21
9426.623588063522
 31
0.0
  0
LINE
  5
1945A
330
747D
100
AcDbEntity
  8
部品1
 48
50.0
100
AcDbLine
 10
7254.149342975942
 20
10088.12358806375
 30
0.0
 11
7198.149342975941
 21
10088.12358806375
 31
0.0
  0
LINE
  5
1945B
330
747D
100
AcDbEntity
  8
部品1
 48
50.0
100
AcDbLine
 10
7201.149342975739
 20
10088.12358448651
 30
0.0
 11
7201.149342975739
 21
9427.623584486509
 31
0.0
  0
LINE
  5
1945C
330
747D
100
AcDbEntity
  8
部品1
 48
50.0
100
AcDbLine
 10
7281.149342975765
 20
10088.12358806363
 30
0.0
 11
7254.149342975757
 21
10115.12358806364
 31
0.0
  0
LINE
  5
1945D
330
747D
100
AcDbEntity
  8
部品1
100
AcDbLine
 10
7251.14934297574
 20
9704.799567923362
 30
0.0
 11
7201.149342975738
 21
9699.623584486509
 31
0.0
  0
LINE
  5
1945E
330
747D
100
AcDbEntity
  8
部品1
100
AcDbLine
 10
7251.14934297574
 20
9664.447601049655
 30
0.0
 11
7201.149342975738
 21
9669.623584486508
 31
0.0
  0
LINE
  5
1945F
330
747D
100
AcDbEntity
  8
部品1
100
AcDbLine
 10
7201.149342975739
 20
9509.623584486508
 30
0.0
 11
7251.149342975738
 21
9522.335448893285
 31
0.0
  0
LINE
  5
19460
330
747D
100
AcDbEntity
  8
部品1
 48
50.0
100
AcDbLine
 10
7201.149342975739
 20
9427.623584486509
 30
0.0
 11
7251.14934297574
 21
9427.623584486509
 31
0.0
  0
LINE
  5
19461
330
747D
100
AcDbEntity
  8
部品1
 48
50.0
100
AcDbLine
 10
7146.14934297576
 20
9426.623588063522
 30
0.0
 11
7306.14934297575
 21
9426.623588063529
 31
0.0
  0
TEXT
  5
1946D
330
747D
100
AcDbEntity
  8
文字
 62
     7
 48
50.0
100
AcDbText
 10
13248.77747366448
 20
8720.013745883731
 30
0.0
 40
100.0
  1
14
  7
STYLE1
100
AcDbText
  0
TEXT
  5
1946E
330
747D
100
AcDbEntity
  8
文字
 62
     7
 48
50.0
100
AcDbText
 10
13583.11819016569
 20
9230.013745883729
 30
0.0
 40
100.0
  1
梁中補強パネル
  7
STYLE1
100
AcDbText
  0
TEXT
  5
1946F
330
747D
100
AcDbEntity
  8
文字
 62
     7
 48
50.0
100
AcDbText
 10
15022.63965474516
 20
9230.013745883725
 30
0.0
 40
100.0
  1
F12         0.7+1.2
  7
STYLE1
100
AcDbText
  0
TEXT
  5
19487
330
747D
100
AcDbEntity
  8
文字
 62
     7
 48
50.0
100
AcDbText
 10
14646.46056207479
 20
871.9640646083623
 30
0.0
 40
100.0
  1
～多雪地型～
  7
STYLE2
100
AcDbText
  0
LINE
  5
194B0
330
747D
100
AcDbEntity
  8
破線
 48
5.0
100
AcDbLine
 10
4546.149345219522
 20
2086.349928194464
 30
0.0
 11
4646.149345219522
 21
2086.349928194464
 31
0.0
  0
LINE
  5
194B1
330
747D
100
AcDbEntity
  8
破線
 48
5.0
100
AcDbLine
 10
4596.149345219521
 20
2161.349928194464
 30
0.0
 11
4596.149345219521
 21
2086.349928194464
 31
0.0
  0
LINE
  5
194B2
330
747D
100
AcDbEntity
  8
破線
 48
5.0
100
AcDbLine
 10
4493.149345219521
 20
2436.349928194464
 30
0.0
 11
4493.149345219523
 21
2186.349928194465
 31
0.0
  0
LINE
  5
194B3
330
747D
100
AcDbEntity
  8
破線
 48
5.0
100
AcDbLine
 10
4541.149345219524
 20
2186.349928194464
 30
0.0
 11
4493.149345219523
 21
2186.349928194464
 31
0.0
  0
LINE
  5
194B4
330
747D
100
AcDbEntity
  8
破線
 48
5.0
100
AcDbLine
 10
4541.149345219521
 20
2436.349928194464
 30
0.0
 11
4541.149345219523
 21
2161.349928194465
 31
0.0
  0
LINE
  5
194B5
330
747D
100
AcDbEntity
  8
破線
 48
5.0
100
AcDbLine
 10
4651.149345219521
 20
2161.349928194464
 30
0.0
 11
4541.149345219523
 21
2161.349928194464
 31
0.0
  0
LINE
  5
194B6
330
747D
100
AcDbEntity
  8
破線
 48
5.0
100
AcDbLine
 10
4699.149345219523
 20
2436.349928194464
 30
0.0
 11
4699.149345219519
 21
2186.34992819447
 31
0.0
  0
LINE
  5
194B7
330
747D
100
AcDbEntity
  8
破線
 48
5.0
100
AcDbLine
 10
4699.14934521952
 20
2186.34992819447
 30
0.0
 11
4651.149345219521
 21
2186.34992819447
 31
0.0
  0
LINE
  5
194B8
330
747D
100
AcDbEntity
  8
破線
 48
5.0
100
AcDbLine
 10
4651.149345219522
 20
2436.349928194464
 30
0.0
 11
4651.149345219521
 21
2161.349928194465
 31
0.0
  0
LINE
  5
194C6
330
747D
100
AcDbEntity
  8
破線
 48
5.0
100
AcDbLine
 10
7176.149345219518
 20
2086.349928194464
 30
0.0
 11
7276.149345219518
 21
2086.349928194464
 31
0.0
  0
LINE
  5
194C7
330
747D
100
AcDbEntity
  8
破線
 48
5.0
100
AcDbLine
 10
7226.149345219518
 20
2161.349928194464
 30
0.0
 11
7226.149345219518
 21
2086.349928194464
 31
0.0
  0
LINE
  5
194C8
330
747D
100
AcDbEntity
  8
破線
 48
5.0
100
AcDbLine
 10
7123.149345219518
 20
2436.349928194464
 30
0.0
 11
7123.14934521952
 21
2186.349928194465
 31
0.0
  0
LINE
  5
194C9
330
747D
100
AcDbEntity
  8
破線
 48
5.0
100
AcDbLine
 10
7171.149345219522
 20
2186.349928194464
 30
0.0
 11
7123.14934521952
 21
2186.349928194464
 31
0.0
  0
LINE
  5
194CA
330
747D
100
AcDbEntity
  8
破線
 48
5.0
100
AcDbLine
 10
7171.149345219517
 20
2436.349928194464
 30
0.0
 11
7171.14934521952
 21
2161.349928194465
 31
0.0
  0
LINE
  5
194CB
330
747D
100
AcDbEntity
  8
破線
 48
5.0
100
AcDbLine
 10
7281.149345219517
 20
2161.349928194464
 30
0.0
 11
7171.14934521952
 21
2161.349928194464
 31
0.0
  0
LINE
  5
194CC
330
747D
100
AcDbEntity
  8
破線
 48
5.0
100
AcDbLine
 10
7329.149345219519
 20
2436.349928194464
 30
0.0
 11
7329.149345219517
 21
2186.34992819447
 31
0.0
  0
LINE
  5
194CD
330
747D
100
AcDbEntity
  8
破線
 48
5.0
100
AcDbLine
 10
7329.149345219517
 20
2186.34992819447
 30
0.0
 11
7281.149345219517
 21
2186.34992819447
 31
0.0
  0
LINE
  5
194CE
330
747D
100
AcDbEntity
  8
破線
 48
5.0
100
AcDbLine
 10
7281.149345219519
 20
2436.349928194464
 30
0.0
 11
7281.149345219517
 21
2161.349928194465
 31
0.0
  0
LINE
  5
194E4
330
747D
100
AcDbEntity
  8
破線
 48
5.0
100
AcDbLine
 10
2069.149345219521
 20
2436.349928194464
 30
0.0
 11
2069.149345219521
 21
2186.34992819447
 31
0.0
  0
LINE
  5
194E5
330
747D
100
AcDbEntity
  8
破線
 48
5.0
100
AcDbLine
 10
2069.149345219521
 20
2436.349928194464
 30
0.0
 11
2069.149345219521
 21
2186.34992819447
 31
0.0
  0
LINE
  5
194E6
330
747D
100
AcDbEntity
  8
破線
 48
5.0
100
AcDbLine
 10
2069.149345219521
 20
2186.34992819447
 30
0.0
 11
2021.149345219521
 21
2186.34992819447
 31
0.0
  0
LINE
  5
194E7
330
747D
100
AcDbEntity
  8
破線
 48
5.0
100
AcDbLine
 10
2069.149345219521
 20
2186.34992819447
 30
0.0
 11
2021.149345219521
 21
2186.34992819447
 31
0.0
  0
LINE
  5
194E8
330
747D
100
AcDbEntity
  8
破線
 48
5.0
100
AcDbLine
 10
2021.149345219521
 20
2086.349928194472
 30
0.0
 11
1966.149345219521
 21
2086.349928194472
 31
0.0
  0
LINE
  5
194E9
330
747D
100
AcDbEntity
  8
破線
 48
5.0
100
AcDbLine
 10
1966.149345219521
 20
2336.349928194464
 30
0.0
 11
1966.149345219521
 21
2086.349928194464
 31
0.0
  0
LINE
  5
194EA
330
747D
100
AcDbEntity
  8
破線
 48
5.0
100
AcDbLine
 10
2021.149345219521
 20
2436.349928194464
 30
0.0
 11
2021.149345219521
 21
2086.349928194464
 31
0.0
  0
LINE
  5
194EB
330
747D
100
AcDbEntity
  8
破線
 48
5.0
100
AcDbLine
 10
2021.149345219521
 20
2436.349928194464
 30
0.0
 11
2021.149345219521
 21
2086.349928194464
 31
0.0
  0
LINE
  5
194FE
330
747D
100
AcDbEntity
  8
破線
 48
5.0
100
AcDbLine
 10
9801.149345219517
 20
2436.349928194464
 30
0.0
 11
9801.149345219517
 21
2086.349928194464
 31
0.0
  0
LINE
  5
194FF
330
747D
100
AcDbEntity
  8
破線
 48
5.0
100
AcDbLine
 10
9856.149345219519
 20
2336.349928194464
 30
0.0
 11
9856.149345219519
 21
2086.349928194464
 31
0.0
  0
LINE
  5
19500
330
747D
100
AcDbEntity
  8
破線
 48
5.0
100
AcDbLine
 10
9856.149345219519
 20
2086.349928194464
 30
0.0
 11
9801.149345219517
 21
2086.349928194464
 31
0.0
  0
LINE
  5
19501
330
747D
100
AcDbEntity
  8
破線
 48
5.0
100
AcDbLine
 10
9753.149345219519
 20
2436.349928194464
 30
0.0
 11
9753.149345219519
 21
2186.349928194464
 31
0.0
  0
LINE
  5
19502
330
747D
100
AcDbEntity
  8
破線
 48
5.0
100
AcDbLine
 10
9801.149345219521
 20
2186.349928194464
 30
0.0
 11
9753.149345219519
 21
2186.349928194464
 31
0.0
  0
LINE
  5
1950C
330
747D
100
AcDbEntity
  8
部品1
100
AcDbLine
 10
5911.149345219542
 20
10143.12359164103
 30
0.0
 11
5911.149345219542
 21
10115.12359164103
 31
0.0
  0
LINE
  5
1950D
330
747D
100
AcDbEntity
  8
部品1
100
AcDbLine
 10
5898.649345219542
 20
10107.12359164101
 30
0.0
 11
5923.649345219542
 21
10107.12359164102
 31
0.0
  0
LINE
  5
1950E
330
747D
100
AcDbEntity
  8
部品1
100
AcDbLine
 10
5940.149345219543
 20
10133.12359164102
 30
0.0
 11
5946.149345219542
 21
10133.12359164102
 31
0.0
  0
LINE
  5
1950F
330
747D
100
AcDbEntity
  8
部品1
100
AcDbLine
 10
5946.149345219542
 20
10133.12359164102
 30
0.0
 11
5946.149345219542
 21
10115.12359164102
 31
0.0
  0
LINE
  5
19510
330
747D
100
AcDbEntity
  8
部品1
100
AcDbLine
 10
5876.149345219543
 20
10133.12359164102
 30
0.0
 11
5882.149345219542
 21
10133.12359164102
 31
0.0
  0
LINE
  5
19511
330
747D
100
AcDbEntity
  8
部品1
100
AcDbLine
 10
5876.149345219543
 20
10133.12359164102
 30
0.0
 11
5876.149345219543
 21
10115.12359164102
 31
0.0
  0
LINE
  5
19512
330
747D
100
AcDbEntity
  8
部品1
 48
50.0
100
AcDbLine
 10
5898.649345219538
 20
10115.12359164103
 30
0.0
 11
5898.649345219542
 21
10107.12359164101
 31
0.0
  0
LINE
  5
19513
330
747D
100
AcDbEntity
  8
部品1
 48
50.0
100
AcDbLine
 10
5923.649345219542
 20
10115.12359164103
 30
0.0
 11
5923.649345219542
 21
10107.12359164102
 31
0.0
  0
LINE
  5
19514
330
747D
100
AcDbEntity
  8
部品1
100
AcDbLine
 10
5923.649345219542
 20
10115.12359164103
 30
0.0
 11
7198.149342975942
 21
10115.12359164103
 31
0.0
  0
LINE
  5
19515
330
747D
100
AcDbEntity
  8
部品1
 48
50.0
100
AcDbLine
 10
4663.149345219536
 20
7558.623591640911
 30
0.0
 11
7159.149345219519
 21
7558.623591640911
 31
0.0
  0
LINE
  5
19516
330
747D
100
AcDbEntity
  8
部品1
100
AcDbLine
 10
4651.149345219521
 20
4411.349928194463
 30
0.0
 11
7281.149345219517
 21
4411.349928194463
 31
0.0
  0
LINE
  5
19517
330
747D
100
AcDbEntity
  8
細線
100
AcDbLine
 10
4699.14934521952
 20
4071.349928194464
 30
0.0
 11
7123.149345219521
 21
4071.349928194464
 31
0.0
  0
LINE
  5
19518
330
747D
100
AcDbEntity
  8
細線
100
AcDbLine
 10
4699.14934521952
 20
4136.349928194464
 30
0.0
 11
7123.149345219521
 21
4136.349928194464
 31
0.0
  0
LINE
  5
19519
330
747D
100
AcDbEntity
  8
細線
100
AcDbLine
 10
4699.14934521952
 20
4201.349928194463
 30
0.0
 11
7123.149345219521
 21
4201.349928194463
 31
0.0
  0
LINE
  5
1951A
330
747D
100
AcDbEntity
  8
細線
100
AcDbLine
 10
4699.14934521952
 20
3681.349928194464
 30
0.0
 11
7123.149345219521
 21
3681.349928194464
 31
0.0
  0
LINE
  5
1951B
330
747D
100
AcDbEntity
  8
細線
100
AcDbLine
 10
4699.14934521952
 20
3746.349928194464
 30
0.0
 11
7123.149345219521
 21
3746.349928194464
 31
0.0
  0
LINE
  5
1951C
330
747D
100
AcDbEntity
  8
細線
100
AcDbLine
 10
4699.14934521952
 20
3811.349928194464
 30
0.0
 11
7123.149345219521
 21
3811.349928194464
 31
0.0
  0
LINE
  5
1951D
330
747D
100
AcDbEntity
  8
細線
100
AcDbLine
 10
4699.14934521952
 20
3876.349928194464
 30
0.0
 11
7123.149345219521
 21
3876.349928194464
 31
0.0
  0
LINE
  5
1951E
330
747D
100
AcDbEntity
  8
細線
100
AcDbLine
 10
4699.14934521952
 20
3941.349928194465
 30
0.0
 11
7123.149345219521
 21
3941.349928194465
 31
0.0
  0
LINE
  5
1951F
330
747D
100
AcDbEntity
  8
細線
100
AcDbLine
 10
4699.14934521952
 20
4006.349928194464
 30
0.0
 11
7123.149345219521
 21
4006.349928194464
 31
0.0
  0
LINE
  5
19520
330
747D
100
AcDbEntity
  8
細線
100
AcDbLine
 10
4699.14934521952
 20
3031.349928194464
 30
0.0
 11
7123.149345219521
 21
3031.349928194464
 31
0.0
  0
LINE
  5
19521
330
747D
100
AcDbEntity
  8
細線
100
AcDbLine
 10
4699.14934521952
 20
3096.349928194464
 30
0.0
 11
7123.149345219521
 21
3096.349928194464
 31
0.0
  0
LINE
  5
19522
330
747D
100
AcDbEntity
  8
細線
100
AcDbLine
 10
4699.14934521952
 20
3161.349928194464
 30
0.0
 11
7123.149345219521
 21
3161.349928194464
 31
0.0
  0
LINE
  5
19523
330
747D
100
AcDbEntity
  8
細線
100
AcDbLine
 10
4699.14934521952
 20
3226.349928194464
 30
0.0
 11
7123.149345219521
 21
3226.349928194464
 31
0.0
  0
LINE
  5
19524
330
747D
100
AcDbEntity
  8
細線
100
AcDbLine
 10
4699.14934521952
 20
3291.349928194465
 30
0.0
 11
7123.149345219521
 21
3291.349928194465
 31
0.0
  0
LINE
  5
19525
330
747D
100
AcDbEntity
  8
細線
100
AcDbLine
 10
4699.14934521952
 20
3356.349928194465
 30
0.0
 11
7123.149345219521
 21
3356.349928194465
 31
0.0
  0
LINE
  5
19526
330
747D
100
AcDbEntity
  8
細線
100
AcDbLine
 10
4699.14934521952
 20
3421.349928194465
 30
0.0
 11
7123.149345219521
 21
3421.349928194465
 31
0.0
  0
LINE
  5
19527
330
747D
100
AcDbEntity
  8
細線
100
AcDbLine
 10
4699.14934521952
 20
3486.349928194464
 30
0.0
 11
7123.149345219521
 21
3486.349928194464
 31
0.0
  0
LINE
  5
19528
330
747D
100
AcDbEntity
  8
細線
100
AcDbLine
 10
4699.14934521952
 20
3551.349928194464
 30
0.0
 11
7123.149345219521
 21
3551.349928194464
 31
0.0
  0
LINE
  5
19529
330
747D
100
AcDbEntity
  8
細線
100
AcDbLine
 10
4699.14934521952
 20
3616.349928194465
 30
0.0
 11
7123.149345219521
 21
3616.349928194465
 31
0.0
  0
LINE
  5
1952A
330
747D
100
AcDbEntity
  8
細線
100
AcDbLine
 10
4699.14934521952
 20
4331.349928194464
 30
0.0
 11
7123.149345219521
 21
4331.349928194464
 31
0.0
  0
LINE
  5
1952B
330
747D
100
AcDbEntity
  8
細線
100
AcDbLine
 10
4699.14934521952
 20
4396.349928194464
 30
0.0
 11
7123.149345219521
 21
4396.349928194464
 31
0.0
  0
LINE
  5
1952C
330
747D
100
AcDbEntity
  8
細線
100
AcDbLine
 10
4699.14934521952
 20
4266.349928194464
 30
0.0
 11
7123.149345219521
 21
4266.349928194464
 31
0.0
  0
LINE
  5
1952D
330
747D
100
AcDbEntity
  8
細線
100
AcDbLine
 10
4699.14934521952
 20
2641.349928194464
 30
0.0
 11
7123.149345219521
 21
2641.349928194464
 31
0.0
  0
LINE
  5
1952E
330
747D
100
AcDbEntity
  8
細線
100
AcDbLine
 10
4699.14934521952
 20
2706.349928194465
 30
0.0
 11
7123.149345219521
 21
2706.349928194465
 31
0.0
  0
LINE
  5
1952F
330
747D
100
AcDbEntity
  8
細線
100
AcDbLine
 10
4699.14934521952
 20
2771.349928194464
 30
0.0
 11
7123.149345219521
 21
2771.349928194464
 31
0.0
  0
LINE
  5
19530
330
747D
100
AcDbEntity
  8
細線
100
AcDbLine
 10
4699.14934521952
 20
2836.349928194464
 30
0.0
 11
7123.149345219521
 21
2836.349928194464
 31
0.0
  0
LINE
  5
19531
330
747D
100
AcDbEntity
  8
細線
100
AcDbLine
 10
4699.14934521952
 20
2901.349928194465
 30
0.0
 11
7123.149345219521
 21
2901.349928194465
 31
0.0
  0
LINE
  5
19532
330
747D
100
AcDbEntity
  8
細線
100
AcDbLine
 10
4699.14934521952
 20
2966.349928194464
 30
0.0
 11
7123.149345219521
 21
2966.349928194464
 31
0.0
  0
CIRCLE
  5
19533
330
747D
100
AcDbEntity
  8
細線
 48
50.0
100
AcDbCircle
 10
5911.149345219521
 20
3323.849928194464
 30
0.0
 40
18.0
  0
ARC
  5
19534
330
747D
100
AcDbEntity
  8
細線
 48
50.0
100
AcDbCircle
 10
6211.149345219521
 20
2998.849928194464
 30
0.0
 40
15.0
100
AcDbArc
 50
270.0
 51
90.0
  0
ARC
  5
19535
330
747D
100
AcDbEntity
  8
細線
 48
50.0
100
AcDbCircle
 10
6111.149345219521
 20
2998.849928194464
 30
0.0
 40
15.0
100
AcDbArc
 50
90.0
 51
270.0
  0
LINE
  5
19536
330
747D
100
AcDbEntity
  8
細線
 48
50.0
100
AcDbLine
 10
6111.149345219521
 20
3013.849928194464
 30
0.0
 11
6211.149345219521
 21
3013.849928194464
 31
0.0
  0
LINE
  5
19537
330
747D
100
AcDbEntity
  8
細線
 48
50.0
100
AcDbLine
 10
6211.149345219521
 20
2983.849928194464
 30
0.0
 11
6111.149345219521
 21
2983.849928194464
 31
0.0
  0
LINE
  5
19538
330
747D
100
AcDbEntity
  8
細線
 48
50.0
100
AcDbLine
 10
5711.149345219521
 20
2983.849928194464
 30
0.0
 11
5611.149345219521
 21
2983.849928194464
 31
0.0
  0
LINE
  5
19539
330
747D
100
AcDbEntity
  8
細線
 48
50.0
100
AcDbLine
 10
5611.149345219521
 20
3013.849928194464
 30
0.0
 11
5711.149345219521
 21
3013.849928194464
 31
0.0
  0
ARC
  5
1953A
330
747D
100
AcDbEntity
  8
細線
 48
50.0
100
AcDbCircle
 10
5711.149345219521
 20
2998.849928194464
 30
0.0
 40
15.0
100
AcDbArc
 50
270.0
 51
90.0
  0
ARC
  5
1953B
330
747D
100
AcDbEntity
  8
細線
 48
50.0
100
AcDbCircle
 10
5611.149345219521
 20
2998.849928194464
 30
0.0
 40
15.0
100
AcDbArc
 50
90.0
 51
270.0
  0
LINE
  5
1953C
330
747D
100
AcDbEntity
  8
細線
100
AcDbLine
 10
4699.14934521952
 20
2446.349928194464
 30
0.0
 11
7123.149345219521
 21
2446.349928194464
 31
0.0
  0
LINE
  5
1953D
330
747D
100
AcDbEntity
  8
細線
100
AcDbLine
 10
4699.14934521952
 20
2511.349928194464
 30
0.0
 11
7123.149345219521
 21
2511.349928194464
 31
0.0
  0
LINE
  5
1953E
330
747D
100
AcDbEntity
  8
細線
100
AcDbLine
 10
4699.14934521952
 20
2576.349928194464
 30
0.0
 11
7123.149345219521
 21
2576.349928194464
 31
0.0
  0
LINE
  5
1953F
330
747D
100
AcDbEntity
  8
細線
100
AcDbLine
 10
7123.149345219521
 20
2446.349928194464
 30
0.0
 11
4699.14934521952
 21
2446.349928194464
 31
0.0
  0
TEXT
  5
19554
330
747D
100
AcDbEntity
  8
文字
 62
     7
 48
50.0
100
AcDbText
 10
15022.63965474516
 20
8890.013745883726
 30
0.0
 40
100.0
  1
F12            0.7
  7
STYLE1
100
AcDbText
  0
LINE
  5
19564
330
747D
100
AcDbEntity
  8
部品1
 48
50.0
100
AcDbLine
 10
5957.682084775094
 20
10275.28613987771
 30
0.0
 11
5864.616605663993
 21
9927.961043404351
 31
0.0
  0
SPLINE
  5
19565
330
747D
100
AcDbEntity
  8
部品1
 48
50.0
100
AcDbSpline
210
0.0
220
0.0
230
1.0
 70
     8
 71
     3
 72
    10
 73
     6
 74
     4
 42
0.0000000001
 43
0.0000000001
 44
0.0000000001
 40
0.0
 40
0.0
 40
0.0
 40
0.0
 40
147.8767566010009
 40
301.8091093202477
 40
466.5049223087716
 40
466.5049223087716
 40
466.5049223087716
 40
466.5049223087716
 10
5978.719672952593
 20
10182.86474416683
 30
0.0
 10
5901.837990457758
 20
10173.96031050899
 30
0.0
 10
5744.92629824763
 20
10155.78680404965
 30
0.0
 10
6067.739708191975
 20
10053.26621941031
 30
0.0
 10
5897.897088522601
 20
10034.63113069811
 30
0.0
 10
5810.10708331571
 20
10024.9988338208
 30
0.0
 11
5978.719672952593
 21
10182.86474416683
 31
0.0
 11
5835.881694643824
 21
10144.5914232305
 31
0.0
 11
5969.191022562998
 21
10067.62524687087
 31
0.0
 11
5810.10708331571
 21
10024.9988338208
 31
0.0
  0
LINE
  5
1956C
330
747D
100
AcDbEntity
  8
部品1
 48
50.0
100
AcDbLine
 10
5957.682084775079
 20
7732.286139877595
 30
0.0
 11
5864.616605663978
 21
7384.96104340423
 31
0.0
  0
SPLINE
  5
1956D
330
747D
100
AcDbEntity
  8
部品1
 48
50.0
100
AcDbSpline
210
0.0
220
0.0
230
1.0
 70
     8
 71
     3
 72
    10
 73
     6
 74
     4
 42
0.0000000001
 43
0.0000000001
 44
0.0000000001
 40
0.0
 40
0.0
 40
0.0
 40
0.0
 40
147.8767566010009
 40
301.8091093202477
 40
466.5049223087716
 40
466.5049223087716
 40
466.5049223087716
 40
466.5049223087716
 10
5978.719672952578
 20
7639.864744166705
 30
0.0
 10
5901.837990457743
 20
7630.960310508867
 30
0.0
 10
5744.926298247615
 20
7612.786804049533
 30
0.0
 10
6067.739708191961
 20
7510.266219410195
 30
0.0
 10
5897.897088522586
 20
7491.631130697989
 30
0.0
 10
5810.107083315694
 20
7481.998833820681
 30
0.0
 11
5978.719672952578
 21
7639.864744166705
 31
0.0
 11
5835.881694643809
 21
7601.591423230377
 31
0.0
 11
5969.191022562984
 21
7524.625246870754
 31
0.0
 11
5810.107083315694
 21
7481.998833820681
 31
0.0
  0
LINE
  5
1957D
330
747D
100
AcDbEntity
  8
部品1
 48
50.0
100
AcDbLine
 10
6363.313607447041
 20
5011.349928194468
 30
0.0
 11
5539.36984072134
 21
1936.349928194464
 31
0.0
  0
SPLINE
  5
1957E
330
747D
100
AcDbEntity
  8
部品1
 48
50.0
100
AcDbSpline
210
0.0
220
0.0
230
1.0
 70
     8
 71
     3
 72
    10
 73
     6
 74
     4
 42
0.0000000001
 43
0.0000000001
 44
0.0000000001
 40
0.0
 40
0.0
 40
0.0
 40
0.0
 40
147.8767566010009
 40
301.8091093202477
 40
466.5049223087734
 40
466.5049223087734
 40
466.5049223087734
 40
466.5049223087734
 10
5978.719672952573
 20
3405.091080720258
 30
0.0
 10
5901.837990457738
 20
3396.18664706242
 30
0.0
 10
5744.926298247611
 20
3378.013140603088
 30
0.0
 10
6067.739708191954
 20
3275.492555963745
 30
0.0
 10
5897.897088522579
 20
3256.857467251542
 30
0.0
 10
5810.107083315687
 20
3247.225170374233
 30
0.0
 11
5978.719672952573
 21
3405.091080720258
 31
0.0
 11
5835.881694643804
 21
3366.817759783929
 31
0.0
 11
5969.191022562978
 21
3289.851583424306
 31
0.0
 11
5810.107083315687
 21
3247.225170374233
 31
0.0
  0
ENDSEC
  0
SECTION
  2
OBJECTS
  0
DICTIONARY
  5
7471
330
0
100
AcDbDictionary
281
     1
  3
ACAD_COLOR
350
17233
  3
ACAD_GROUP
350
7472
  3
ACAD_LAYOUT
350
17234
  3
ACAD_MATERIAL
350
17232
  3
ACAD_MLINESTYLE
350
7473
  3
ACAD_PLOTSETTINGS
350
17235
  3
ACAD_PLOTSTYLENAME
350
17230
  3
ACDBHEADERROUNDTRIPXREC
350
195E8
  3
AcDbVariableDictionary
350
195E4
  3
CONTENTDICTIONARY
350
E71C
  3
DRAWINGVARIABLESDICT
350
F3B9
  0
DICTIONARY
  5
17636
330
7467
100
AcDbDictionary
280
     1
281
     1
  3
ACAD_LAYERSTATES
360
17637
  0
DICTIONARY
  5
17233
102
{ACAD_REACTORS
330
7471
102
}
330
7471
100
AcDbDictionary
281
     1
  0
DICTIONARY
  5
7472
102
{ACAD_REACTORS
330
7471
102
}
330
7471
100
AcDbDictionary
281
     1
  0
DICTIONARY
  5
17234
102
{ACAD_REACTORS
330
7471
102
}
330
7471
100
AcDbDictionary
281
     1
  3
Model
350
17236
  3
レイアウト1
350
17237
  0
DICTIONARY
  5
17232
102
{ACAD_REACTORS
330
7471
102
}
330
7471
100
AcDbDictionary
281
     1
  0
DICTIONARY
  5
7473
102
{ACAD_REACTORS
330
7471
102
}
330
7471
100
AcDbDictionary
281
     1
  3
STANDARD
350
7480
  0
DICTIONARY
  5
17235
102
{ACAD_REACTORS
330
7471
102
}
330
7471
100
AcDbDictionary
281
     1
  0
ACDBDICTIONARYWDFLT
  5
17230
102
{ACAD_REACTORS
330
7471
102
}
330
7471
100
AcDbDictionary
281
     1
  3
Normal
350
17231
100
AcDbDictionaryWithDefault
340
17231
  0
DICTIONARY
  5
195E8
102
{ACAD_REACTORS
330
7471
102
}
330
7471
100
AcDbDictionary
281
     1
  3
COLORDICT
350
195EA
  3
MATERIALDICT
350
195E9
  0
DICTIONARY
  5
195E4
102
{ACAD_REACTORS
330
7471
102
}
330
7471
100
AcDbDictionary
281
     1
  3
DIMASSOC
350
195E5
  3
PROJECTNAME
350
195E6
  0
DICTIONARY
  5
E71C
102
{ACAD_REACTORS
330
7471
102
}
330
7471
100
AcDbDictionary
281
     1
  0
DICTIONARY
  5
F3B9
102
{ACAD_REACTORS
330
7471
102
}
330
7471
100
AcDbDictionary
281
     1
1001
DRAWINGVARIABLESXDATA
1000
POLARMODE
1000
1
  0
DICTIONARY
  5
17637
102
{ACAD_REACTORS
330
17636
102
}
330
17636
100
AcDbDictionary
281
     1
  0
LAYOUT
  5
17236
102
{ACAD_XDICTIONARY
360
195EB
102
}
102
{ACAD_REACTORS
330
17234
102
}
330
17234
100
AcDbPlotSettings
  1

  2
クセロPDF
  4
A3
  6

 40
3.174999999999999
 41
3.174999999999999
 42
3.174987999999999
 43
3.174987999999999
 44
419.946655
 45
296.925995
 46
0.0
 47
0.0
 48
0.0
 49
0.0
140
0.0
141
0.0
142
1.0
143
40.44561299368567
 70
 11952
 72
     1
 73
     0
 74
     2
  7
inaba.ctb
 75
     0
147
0.0247245603659442
148
183.0179068595971
149
160.3342785227505
100
AcDbLayout
  1
Model
 70
     1
 71
     0
 10
0.0
 20
0.0
 11
12.0
 21
9.0
 12
0.0
 22
0.0
 32
0.0
 14
0.0
 24
0.0
 34
0.0
 15
0.0
 25
0.0
 35
0.0
146
0.0
 13
0.0
 23
0.0
 33
0.0
 16
1.0
 26
0.0
 36
0.0
 17
0.0
 27
1.0
 37
0.0
 76
     0
330
747D
  0
LAYOUT
  5
17237
102
{ACAD_XDICTIONARY
360
195ED
102
}
102
{ACAD_REACTORS
330
17234
102
}
330
17234
100
AcDbPlotSettings
  1

  2
EPSON LP-8300
  4

  6

 40
0.0
 41
0.0
 42
0.0
 43
0.0
 44
0.0
 45
0.0
 46
0.0
 47
0.0
 48
0.0
 49
0.0
140
0.0
141
0.0
142
1.0
143
1.0
 70
   688
 72
     0
 73
     0
 74
     5
  7
inaba.ctb
 75
    16
147
1.0
148
0.0
149
0.0
100
AcDbLayout
  1
レイアウト1
 70
     0
 71
     1
 10
0.0
 20
0.0
 11
420.0
 21
297.0
 12
0.0
 22
0.0
 32
0.0
 14
1.000000000000000E+20
 24
1.000000000000000E+20
 34
1.000000000000000E+20
 15
-1.000000000000000E+20
 25
-1.000000000000000E+20
 35
-1.000000000000000E+20
146
0.0
 13
0.0
 23
0.0
 33
0.0
 16
1.0
 26
0.0
 36
0.0
 17
0.0
 27
1.0
 37
0.0
 76
     0
330
747A
  0
MLINESTYLE
  5
7480
102
{ACAD_REACTORS
330
7473
102
}
330
7473
100
AcDbMlineStyle
  2
STANDARD
 70
     0
  3

 62
     0
 51
90.0
 52
90.0
 71
     2
 49
0.5
 62
   256
  6
BYLAYER
 49
-0.5
 62
   256
  6
BYLAYER
  0
ACDBPLACEHOLDER
  5
17231
102
{ACAD_REACTORS
330
17230
102
}
330
17230
  0
XRECORD
  5
195EA
102
{ACAD_REACTORS
330
195E8
102
}
330
195E8
100
AcDbXrecord
280
     1
340
17233
  0
XRECORD
  5
195E9
102
{ACAD_REACTORS
330
195E8
102
}
330
195E8
100
AcDbXrecord
280
     1
340
17232
  0
DICTIONARYVAR
  5
195E5
102
{ACAD_REACTORS
330
195E4
102
}
330
195E4
100
DictionaryVariables
280
     0
  1
1
  0
DICTIONARYVAR
  5
195E6
102
{ACAD_REACTORS
330
195E4
102
}
330
195E4
100
DictionaryVariables
280
     0
  1

  0
DICTIONARY
  5
195EB
330
17236
100
AcDbDictionary
280
     1
281
     1
  3
ACAD_XREC_ROUNDTRIP
360
195EC
  0
DICTIONARY
  5
195ED
330
17237
100
AcDbDictionary
280
     1
281
     1
  3
ACAD_XREC_ROUNDTRIP
360
195EE
  0
XRECORD
  5
195EC
102
{ACAD_REACTORS
330
195EB
102
}
330
195EB
100
AcDbXrecord
280
     1
102
SHADEPLOT
 70
     1
102
SHADEPLOTRESLEVEL
 70
     2
102
SHADEPLOTCUSTOMDPI
 70
   300
  0
XRECORD
  5
195EE
102
{ACAD_REACTORS
330
195ED
102
}
330
195ED
100
AcDbXrecord
280
     1
102
SHADEPLOT
 70
     0
102
SHADEPLOTRESLEVEL
 70
     2
102
SHADEPLOTCUSTOMDPI
 70
   300
  0
ENDSEC
  0
EOF
