  0
SECTION
  2
HEADER
  9
$ACADVER
  1
AC1015
  9
$ACADMAINTVER
 70
    20
  9
$DWGCODEPAGE
  3
ANSI_932
  9
$INSBASE
 10
0.0
 20
0.0
 30
0.0
  9
$EXTMIN
 10
139.9999999999995
 20
-0.0000000000000909
 30
0.0
  9
$EXTMAX
 10
16307.2
 20
11409.6
 30
0.0
  9
$LIMMIN
 10
-183.0179068595971
 20
-160.3342785227505
  9
$LIMMAX
 10
16374.07536659319
 20
11592.19044584975
  9
$ORTHOMODE
 70
     0
  9
$REGENMODE
 70
     1
  9
$FILLMODE
 70
     1
  9
$QTEXTMODE
 70
     0
  9
$MIRRTEXT
 70
     1
  9
$LTSCALE
 40
20.0
  9
$ATTMODE
 70
     1
  9
$TEXTSIZE
 40
100.0
  9
$TRACEWID
 40
1.0
  9
$TEXTSTYLE
  7
STYLE2
  9
$CLAYER
  8
部品1
  9
$CELTYPE
  6
BYLAYER
  9
$CECOLOR
 62
   256
  9
$CELTSCALE
 40
50.0
  9
$DISPSILH
 70
     0
  9
$DIMSCALE
 40
40.0
  9
$DIMASZ
 40
2.5
  9
$DIMEXO
 40
0.5
  9
$DIMDLI
 40
7.0
  9
$DIMRND
 40
0.0
  9
$DIMDLE
 40
0.0
  9
$DIMEXE
 40
1.5
  9
$DIMTP
 40
0.0
  9
$DIMTM
 40
0.0
  9
$DIMTXT
 40
3.0
  9
$DIMCEN
 40
0.0
  9
$DIMTSZ
 40
0.0
  9
$DIMTOL
 70
     0
  9
$DIMLIM
 70
     0
  9
$DIMTIH
 70
     0
  9
$DIMTOH
 70
     0
  9
$DIMSE1
 70
     0
  9
$DIMSE2
 70
     0
  9
$DIMTAD
 70
     3
  9
$DIMZIN
 70
     8
  9
$DIMBLK
  1

  9
$DIMASO
 70
     1
  9
$DIMSHO
 70
     1
  9
$DIMPOST
  1

  9
$DIMAPOST
  1

  9
$DIMALT
 70
     0
  9
$DIMALTD
 70
     2
  9
$DIMALTF
 40
0.0394
  9
$DIMLFAC
 40
1.0
  9
$DIMTOFL
 70
     1
  9
$DIMTVP
 40
0.0
  9
$DIMTIX
 70
     1
  9
$DIMSOXD
 70
     0
  9
$DIMSAH
 70
     1
  9
$DIMBLK1
  1
DOTSMALL
  9
$DIMBLK2
  1
DOTSMALL
  9
$DIMSTYLE
  2
INABA_S40G
  9
$DIMCLRD
 70
     0
  9
$DIMCLRE
 70
     0
  9
$DIMCLRT
 70
     7
  9
$DIMTFAC
 40
1.0
  9
$DIMGAP
 40
1.0
  9
$DIMJUST
 70
     0
  9
$DIMSD1
 70
     0
  9
$DIMSD2
 70
     0
  9
$DIMTOLJ
 70
     1
  9
$DIMTZIN
 70
     0
  9
$DIMALTZ
 70
     0
  9
$DIMALTTZ
 70
     0
  9
$DIMUPT
 70
     0
  9
$DIMDEC
 70
     1
  9
$DIMTDEC
 70
     4
  9
$DIMALTU
 70
     2
  9
$DIMALTTD
 70
     2
  9
$DIMTXSTY
  7
STYLE1
  9
$DIMAUNIT
 70
     0
  9
$DIMADEC
 70
     0
  9
$DIMALTRND
 40
0.0
  9
$DIMAZIN
 70
     0
  9
$DIMDSEP
 70
    46
  9
$DIMATFIT
 70
     3
  9
$DIMFRAC
 70
     0
  9
$DIMLDRBLK
  1

  9
$DIMLUNIT
 70
     2
  9
$DIMLWD
 70
    -2
  9
$DIMLWE
 70
    -2
  9
$DIMTMOVE
 70
     2
  9
$LUNITS
 70
     2
  9
$LUPREC
 70
     1
  9
$SKETCHINC
 40
1.0
  9
$FILLETRAD
 40
3.0
  9
$AUNITS
 70
     0
  9
$AUPREC
 70
     0
  9
$MENU
  1
acad
  9
$ELEVATION
 40
0.0
  9
$PELEVATION
 40
0.0
  9
$THICKNESS
 40
0.0
  9
$LIMCHECK
 70
     0
  9
$CHAMFERA
 40
0.0
  9
$CHAMFERB
 40
0.0
  9
$CHAMFERC
 40
0.0
  9
$CHAMFERD
 40
0.0
  9
$SKPOLY
 70
     0
  9
$TDCREATE
 40
2451368.612993866
  9
$TDUCREATE
 40
2451368.237993866
  9
$TDUPDATE
 40
2455569.631518183
  9
$TDUUPDATE
 40
2455569.256518183
  9
$TDINDWG
 40
0.7780388657
  9
$TDUSRTIMER
 40
0.7780388657
  9
$USRTIMER
 70
     1
  9
$ANGBASE
 50
0.0
  9
$ANGDIR
 70
     0
  9
$PDMODE
 70
     3
  9
$PDSIZE
 40
2.0
  9
$PLINEWID
 40
0.0
  9
$SPLFRAME
 70
     0
  9
$SPLINETYPE
 70
     6
  9
$SPLINESEGS
 70
     8
  9
$HANDSEED
  5
1980F
  9
$SURFTAB1
 70
     6
  9
$SURFTAB2
 70
     6
  9
$SURFTYPE
 70
     6
  9
$SURFU
 70
     6
  9
$SURFV
 70
     6
  9
$UCSBASE
  2

  9
$UCSNAME
  2

  9
$UCSORG
 10
0.0
 20
0.0
 30
0.0
  9
$UCSXDIR
 10
1.0
 20
0.0
 30
0.0
  9
$UCSYDIR
 10
0.0
 20
1.0
 30
0.0
  9
$UCSORTHOREF
  2

  9
$UCSORTHOVIEW
 70
     0
  9
$UCSORGTOP
 10
0.0
 20
0.0
 30
0.0
  9
$UCSORGBOTTOM
 10
0.0
 20
0.0
 30
0.0
  9
$UCSORGLEFT
 10
0.0
 20
0.0
 30
0.0
  9
$UCSORGRIGHT
 10
0.0
 20
0.0
 30
0.0
  9
$UCSORGFRONT
 10
0.0
 20
0.0
 30
0.0
  9
$UCSORGBACK
 10
0.0
 20
0.0
 30
0.0
  9
$PUCSBASE
  2

  9
$PUCSNAME
  2

  9
$PUCSORG
 10
0.0
 20
0.0
 30
0.0
  9
$PUCSXDIR
 10
1.0
 20
0.0
 30
0.0
  9
$PUCSYDIR
 10
0.0
 20
1.0
 30
0.0
  9
$PUCSORTHOREF
  2

  9
$PUCSORTHOVIEW
 70
     0
  9
$PUCSORGTOP
 10
0.0
 20
0.0
 30
0.0
  9
$PUCSORGBOTTOM
 10
0.0
 20
0.0
 30
0.0
  9
$PUCSORGLEFT
 10
0.0
 20
0.0
 30
0.0
  9
$PUCSORGRIGHT
 10
0.0
 20
0.0
 30
0.0
  9
$PUCSORGFRONT
 10
0.0
 20
0.0
 30
0.0
  9
$PUCSORGBACK
 10
0.0
 20
0.0
 30
0.0
  9
$USERI1
 70
     0
  9
$USERI2
 70
     0
  9
$USERI3
 70
     0
  9
$USERI4
 70
     0
  9
$USERI5
 70
     0
  9
$USERR1
 40
0.0
  9
$USERR2
 40
0.0
  9
$USERR3
 40
0.0
  9
$USERR4
 40
0.0
  9
$USERR5
 40
0.0
  9
$WORLDVIEW
 70
     1
  9
$SHADEDGE
 70
     3
  9
$SHADEDIF
 70
    70
  9
$TILEMODE
 70
     1
  9
$MAXACTVP
 70
    16
  9
$PINSBASE
 10
0.0
 20
0.0
 30
0.0
  9
$PLIMCHECK
 70
     0
  9
$PEXTMIN
 10
1.000000000000000E+20
 20
1.000000000000000E+20
 30
1.000000000000000E+20
  9
$PEXTMAX
 10
-1.000000000000000E+20
 20
-1.000000000000000E+20
 30
-1.000000000000000E+20
  9
$PLIMMIN
 10
0.0
 20
0.0
  9
$PLIMMAX
 10
420.0
 20
297.0
  9
$UNITMODE
 70
     0
  9
$VISRETAIN
 70
     0
  9
$PLINEGEN
 70
     0
  9
$PSLTSCALE
 70
     0
  9
$TREEDEPTH
 70
  3020
  9
$CMLSTYLE
  2
STANDARD
  9
$CMLJUST
 70
     0
  9
$CMLSCALE
 40
1.0
  9
$PROXYGRAPHICS
 70
     1
  9
$MEASUREMENT
 70
     1
  9
$CELWEIGHT
370
    -1
  9
$ENDCAPS
280
     0
  9
$JOINSTYLE
280
     0
  9
$LWDISPLAY
290
     0
  9
$INSUNITS
 70
     0
  9
$HYPERLINKBASE
  1

  9
$STYLESHEET
  1
inaba.ctb
  9
$XEDIT
290
     1
  9
$CEPSNTYPE
380
     0
  9
$PSTYLEMODE
290
     1
  9
$FINGERPRINTGUID
  2
{1D266319-2148-40BA-92F1-32E743B84CC2}
  9
$VERSIONGUID
  2
{26F49D4E-9F95-47C3-A3E0-D3750A207EF7}
  9
$EXTNAMES
290
     1
  9
$PSVPSCALE
 40
0.0
  9
$OLESTARTUP
290
     0
  0
ENDSEC
  0
SECTION
  2
CLASSES
  0
CLASS
  1
ACDBDICTIONARYWDFLT
  2
AcDbDictionaryWithDefault
  3
ObjectDBX Classes
 90
        0
280
     0
281
     0
  0
CLASS
  1
DICTIONARYVAR
  2
AcDbDictionaryVar
  3
ObjectDBX Classes
 90
        0
280
     0
281
     0
  0
CLASS
  1
ACDBPLACEHOLDER
  2
AcDbPlaceHolder
  3
ObjectDBX Classes
 90
        0
280
     0
281
     0
  0
CLASS
  1
LAYOUT
  2
AcDbLayout
  3
ObjectDBX Classes
 90
        0
280
     0
281
     0
  0
ENDSEC
  0
SECTION
  2
TABLES
  0
TABLE
  2
VPORT
  5
746D
330
0
100
AcDbSymbolTable
 70
     2
  0
VPORT
  5
19807
330
746D
100
AcDbSymbolTableRecord
100
AcDbViewportTableRecord
  2
*Active
 70
     0
 10
0.0
 20
0.0
 11
1.0
 21
1.0
 12
8807.280611575228
 22
5704.608037261908
 13
0.0
 23
0.0
 14
10.0
 24
10.0
 15
10.0
 25
10.0
 16
0.0
 26
0.0
 36
1.0
 17
0.0
 27
0.0
 37
0.0
 40
11495.08541324274
 41
1.627450980392156
 42
50.0
 43
0.0
 44
0.0
 50
0.0
 51
0.0
 71
     0
 72
     0
 73
     1
 74
     0
 75
     0
 76
     0
 77
     0
 78
     0
281
     0
 65
     1
110
0.0
120
0.0
130
0.0
111
1.0
121
0.0
131
0.0
112
0.0
122
1.0
132
0.0
 79
     0
146
0.0
  0
ENDTAB
  0
TABLE
  2
LTYPE
  5
746A
330
0
100
AcDbSymbolTable
 70
     3
  0
LTYPE
  5
7477
330
746A
100
AcDbSymbolTableRecord
100
AcDbLinetypeTableRecord
  2
BYBLOCK
 70
     0
  3

 72
    65
 73
     0
 40
0.0
  0
LTYPE
  5
7478
330
746A
100
AcDbSymbolTableRecord
100
AcDbLinetypeTableRecord
  2
BYLAYER
 70
     0
  3

 72
    65
 73
     0
 40
0.0
  0
LTYPE
  5
7479
330
746A
100
AcDbSymbolTableRecord
100
AcDbLinetypeTableRecord
  2
CONTINUOUS
 70
     0
  3
Solid line
 72
    65
 73
     0
 40
0.0
  0
LTYPE
  5
781A
330
746A
100
AcDbSymbolTableRecord
100
AcDbLinetypeTableRecord
  2
HIDDEN
 70
     0
  3
__ __ __ __ __ __ __ __ __ __ __ __ __ __ __ __
 72
    65
 73
     2
 40
0.375
 49
0.25
 74
     0
 49
-0.125
 74
     0
  0
LTYPE
  5
781B
330
746A
100
AcDbSymbolTableRecord
100
AcDbLinetypeTableRecord
  2
PHANTOM
 70
     0
  3
______  __  __  ______  __  __  ______  __  __ 
 72
    65
 73
     6
 40
2.5
 49
1.25
 74
     0
 49
-0.25
 74
     0
 49
0.25
 74
     0
 49
-0.25
 74
     0
 49
0.25
 74
     0
 49
-0.25
 74
     0
  0
ENDTAB
  0
TABLE
  2
LAYER
  5
7467
102
{ACAD_XDICTIONARY
360
1749E
102
}
330
0
100
AcDbSymbolTable
 70
    10
  0
LAYER
  5
7474
330
7467
100
AcDbSymbolTableRecord
100
AcDbLayerTableRecord
  2
0
 70
     0
 62
     7
  6
CONTINUOUS
370
    -3
390
16FFF
  0
LAYER
  5
DEB3
330
7467
100
AcDbSymbolTableRecord
100
AcDbLayerTableRecord
  2
寸法
 70
     0
 62
     4
  6
CONTINUOUS
370
    -3
390
16FFF
  0
LAYER
  5
DEB4
330
7467
100
AcDbSymbolTableRecord
100
AcDbLayerTableRecord
  2
部品1
 70
     0
 62
     7
  6
CONTINUOUS
370
    -3
390
16FFF
  0
LAYER
  5
DEB5
330
7467
100
AcDbSymbolTableRecord
100
AcDbLayerTableRecord
  2
補助
 70
     0
 62
    -1
  6
CONTINUOUS
370
    -3
390
16FFF
  0
LAYER
  5
DEB6
330
7467
100
AcDbSymbolTableRecord
100
AcDbLayerTableRecord
  2
文字
 70
     0
 62
     7
  6
CONTINUOUS
370
    -3
390
16FFF
  0
LAYER
  5
F255
330
7467
100
AcDbSymbolTableRecord
100
AcDbLayerTableRecord
  2
DEFPOINTS
 70
     0
 62
     7
  6
CONTINUOUS
290
     0
370
    -3
390
16FFF
  0
LAYER
  5
10B54
330
7467
100
AcDbSymbolTableRecord
100
AcDbLayerTableRecord
  2
仕様書枠
 70
     0
 62
   230
  6
CONTINUOUS
370
    -3
390
16FFF
  0
LAYER
  5
11729
330
7467
100
AcDbSymbolTableRecord
100
AcDbLayerTableRecord
  2
Ｇ．Ｌ
 70
     0
 62
    30
  6
CONTINUOUS
370
    -3
390
16FFF
  0
LAYER
  5
1173F
330
7467
100
AcDbSymbolTableRecord
100
AcDbLayerTableRecord
  2
細線
 70
     0
 62
     5
  6
CONTINUOUS
370
    -3
390
16FFF
  0
LAYER
  5
142E2
330
7467
100
AcDbSymbolTableRecord
100
AcDbLayerTableRecord
  2
破線
 70
     0
 62
     2
  6
HIDDEN
370
    -3
390
16FFF
  0
ENDTAB
  0
TABLE
  2
STYLE
  5
7468
330
0
100
AcDbSymbolTable
 70
     6
  0
STYLE
  5
7475
330
7468
100
AcDbSymbolTableRecord
100
AcDbTextStyleTableRecord
  2
STANDARD
 70
     0
 40
0.0
 41
1.0
 50
0.0
 71
     0
 42
4.0
  3
txt
  4
C:\AutoCAD LT\bigfont.shx
  0
STYLE
  5
763C
330
7468
100
AcDbSymbolTableRecord
100
AcDbTextStyleTableRecord
  2
MSMINCHO
 70
     0
 40
0.0
 41
1.0
 50
0.0
 71
     0
 42
1.199999999999999
  3
C:\AutoCAD LT\msminch2.TTF
  4

  0
STYLE
  5
F706
330
7468
100
AcDbSymbolTableRecord
100
AcDbTextStyleTableRecord
  2
STYLE1
 70
     0
 40
0.0
 41
1.0
 50
0.0
 71
     0
 42
4.0
  3
isocp.shx
  4
bigfont.shx
  0
STYLE
  5
103BF
330
7468
100
AcDbSymbolTableRecord
100
AcDbTextStyleTableRecord
  2
STYLE2
 70
     0
 40
0.0
 41
1.0
 50
0.0
 71
     0
 42
100.0
  3
MS PGothic.ttf
  4

1001
ACAD
1000
MS PGothic
1071
    32818
  0
STYLE
  5
10BAA
330
7468
100
AcDbSymbolTableRecord
100
AcDbTextStyleTableRecord
  2
STYLE3
 70
     0
 40
0.0
 41
1.0
 50
0.0
 71
     0
 42
100.0
  3
DFPGothic-EB.ttf
  4

1001
ACAD
1000
DFPGothic-EB
1071
    32818
  0
STYLE
  5
11A15
330
7468
100
AcDbSymbolTableRecord
100
AcDbTextStyleTableRecord
  2
MSGOTHIC
 70
     0
 40
0.0
 41
1.0
 50
0.0
 71
     0
 42
3.5
  3
msgothi2.ttf
  4

  0
ENDTAB
  0
TABLE
  2
VIEW
  5
746B
330
0
100
AcDbSymbolTable
 70
     0
  0
ENDTAB
  0
TABLE
  2
UCS
  5
746C
330
0
100
AcDbSymbolTable
 70
     0
  0
ENDTAB
  0
TABLE
  2
APPID
  5
746E
330
0
100
AcDbSymbolTable
 70
     6
  0
APPID
  5
7476
330
746E
100
AcDbSymbolTableRecord
100
AcDbRegAppTableRecord
  2
ACAD
 70
     0
  0
APPID
  5
DEA9
330
746E
100
AcDbSymbolTableRecord
100
AcDbRegAppTableRecord
  2
CONTENTBLOCKICON
 70
     0
  0
APPID
  5
DEAA
330
746E
100
AcDbSymbolTableRecord
100
AcDbRegAppTableRecord
  2
CONTENTBLOCKDESCRIPTION
 70
     0
  0
APPID
  5
E71D
330
746E
100
AcDbSymbolTableRecord
100
AcDbRegAppTableRecord
  2
CONTENTTABDATA
 70
     0
  0
APPID
  5
E71E
330
746E
100
AcDbSymbolTableRecord
100
AcDbRegAppTableRecord
  2
CONTENTCURRENTTAB
 70
     0
  0
APPID
  5
F3BA
330
746E
100
AcDbSymbolTableRecord
100
AcDbRegAppTableRecord
  2
DRAWINGVARIABLESXDATA
 70
     0
  0
ENDTAB
  0
TABLE
  2
DIMSTYLE
  5
746F
330
0
100
AcDbSymbolTable
 70
     2
100
AcDbDimStyleTable
 71
     0
  0
DIMSTYLE
105
F71F
102
{ACAD_REACTORS
330
162CD
330
162CE
330
162CF
330
162D0
330
162E4
330
162E7
330
162EA
330
162EB
330
16301
330
16302
330
1631F
330
16320
330
16333
330
1659B
330
1659C
330
1659A
330
165E9
330
16667
330
166DD
330
16907
330
16913
330
17774
330
17775
330
17776
330
177F8
330
188B3
330
188C2
330
188D0
330
188D1
330
188D2
330
188D6
330
18907
330
18908
330
18909
330
18F38
330
18F39
330
18F3A
330
196DF
102
}
330
746F
100
AcDbSymbolTableRecord
100
AcDbDimStyleTableRecord
  2
INABA_S40G
 70
     0
 40
40.0
 41
2.5
 42
0.5
 43
7.0
 44
1.5
 73
     0
 74
     0
 77
     3
 78
     8
140
3.0
141
0.0
143
0.0394
147
1.0
172
     1
173
     1
174
     1
178
     7
271
     1
340
F706
341
F770
343
F770
344
F770
  0
DIMSTYLE
105
19573
330
746F
100
AcDbSymbolTableRecord
100
AcDbDimStyleTableRecord
  2
INABA_S20G
 70
     0
 40
20.0
 41
2.5
 42
0.5
 43
7.0
 44
1.5
 73
     0
 74
     0
 77
     3
 78
     8
140
3.0
141
0.0
143
0.0394
147
1.0
172
     1
173
     1
174
     1
178
     7
271
     1
340
F706
341
F770
343
F770
344
F770
  0
ENDTAB
  0
TABLE
  2
BLOCK_RECORD
  5
7466
330
0
100
AcDbSymbolTable
 70
    39
  0
BLOCK_RECORD
  5
747D
330
7466
100
AcDbSymbolTableRecord
100
AcDbBlockTableRecord
  2
*MODEL_SPACE
340
17004
  0
BLOCK_RECORD
  5
747A
330
7466
100
AcDbSymbolTableRecord
100
AcDbBlockTableRecord
  2
*PAPER_SPACE
340
17005
  0
BLOCK_RECORD
  5
F770
330
7466
100
AcDbSymbolTableRecord
100
AcDbBlockTableRecord
  2
_DOTSMALL
340
0
102
{BLKREFS
331
17115
331
17116
331
1711E
331
1711F
331
17129
331
1712A
331
17132
331
17133
331
1713C
331
1713D
331
17147
331
17148
331
1714E
331
1714F
331
1715A
331
1715B
331
17164
331
17165
331
1716F
331
17170
331
17178
331
17179
331
17183
331
17184
331
1718F
331
17190
331
1719A
331
1719B
331
171A4
331
171A5
331
171AD
331
171AE
331
171B5
331
171B6
331
171BE
331
171BF
331
171C9
331
171CA
331
171D4
331
171D5
331
171DD
331
171DE
331
17CDC
331
17CDD
331
17D17
331
17D18
331
18D34
331
18D35
331
18D3D
331
18D3E
331
18D46
331
18D47
331
18D5B
331
18D5C
331
18D6F
331
18D70
331
18D82
331
18D83
331
18D8C
331
18D8D
331
19032
331
19033
331
196EF
331
196F0
331
1979D
331
1979E
331
197A6
331
197A7
331
197AF
331
197B0
331
197B8
331
197B9
331
197DA
331
197DB
331
197E3
331
197E4
102
}
  0
BLOCK_RECORD
  5
16338
330
7466
100
AcDbSymbolTableRecord
100
AcDbBlockTableRecord
  2
*D1
340
0
  0
BLOCK_RECORD
  5
16344
330
7466
100
AcDbSymbolTableRecord
100
AcDbBlockTableRecord
  2
*D2
340
0
  0
BLOCK_RECORD
  5
16352
330
7466
100
AcDbSymbolTableRecord
100
AcDbBlockTableRecord
  2
*D3
340
0
  0
BLOCK_RECORD
  5
16360
330
7466
100
AcDbSymbolTableRecord
100
AcDbBlockTableRecord
  2
*D4
340
0
  0
BLOCK_RECORD
  5
16384
330
7466
100
AcDbSymbolTableRecord
100
AcDbBlockTableRecord
  2
*D5
340
0
  0
BLOCK_RECORD
  5
1638F
330
7466
100
AcDbSymbolTableRecord
100
AcDbBlockTableRecord
  2
*D6
340
0
  0
BLOCK_RECORD
  5
1639B
330
7466
100
AcDbSymbolTableRecord
100
AcDbBlockTableRecord
  2
*D7
340
0
  0
BLOCK_RECORD
  5
163A9
330
7466
100
AcDbSymbolTableRecord
100
AcDbBlockTableRecord
  2
*D8
340
0
  0
BLOCK_RECORD
  5
163B8
330
7466
100
AcDbSymbolTableRecord
100
AcDbBlockTableRecord
  2
*D9
340
0
  0
BLOCK_RECORD
  5
163C7
330
7466
100
AcDbSymbolTableRecord
100
AcDbBlockTableRecord
  2
*D10
340
0
  0
BLOCK_RECORD
  5
163E1
330
7466
100
AcDbSymbolTableRecord
100
AcDbBlockTableRecord
  2
*D11
340
0
  0
BLOCK_RECORD
  5
163ED
330
7466
100
AcDbSymbolTableRecord
100
AcDbBlockTableRecord
  2
*D12
340
0
  0
BLOCK_RECORD
  5
163FB
330
7466
100
AcDbSymbolTableRecord
100
AcDbBlockTableRecord
  2
*D13
340
0
  0
BLOCK_RECORD
  5
1659E
330
7466
100
AcDbSymbolTableRecord
100
AcDbBlockTableRecord
  2
*D14
340
0
  0
BLOCK_RECORD
  5
165B5
330
7466
100
AcDbSymbolTableRecord
100
AcDbBlockTableRecord
  2
*D15
340
0
  0
BLOCK_RECORD
  5
165C4
330
7466
100
AcDbSymbolTableRecord
100
AcDbBlockTableRecord
  2
*D16
340
0
  0
BLOCK_RECORD
  5
165EA
330
7466
100
AcDbSymbolTableRecord
100
AcDbBlockTableRecord
  2
*D17
340
0
  0
BLOCK_RECORD
  5
166AD
330
7466
100
AcDbSymbolTableRecord
100
AcDbBlockTableRecord
  2
*D18
340
0
  0
BLOCK_RECORD
  5
166CF
330
7466
100
AcDbSymbolTableRecord
100
AcDbBlockTableRecord
  2
*D19
340
0
  0
BLOCK_RECORD
  5
168FB
330
7466
100
AcDbSymbolTableRecord
100
AcDbBlockTableRecord
  2
*D20
340
0
  0
BLOCK_RECORD
  5
16908
330
7466
100
AcDbSymbolTableRecord
100
AcDbBlockTableRecord
  2
*D21
340
0
  0
BLOCK_RECORD
  5
179B1
330
7466
100
AcDbSymbolTableRecord
100
AcDbBlockTableRecord
  2
*D22
340
0
  0
BLOCK_RECORD
  5
179BD
330
7466
100
AcDbSymbolTableRecord
100
AcDbBlockTableRecord
  2
*D23
340
0
  0
BLOCK_RECORD
  5
179CB
330
7466
100
AcDbSymbolTableRecord
100
AcDbBlockTableRecord
  2
*D24
340
0
  0
BLOCK_RECORD
  5
17A0A
330
7466
100
AcDbSymbolTableRecord
100
AcDbBlockTableRecord
  2
*D25
340
0
  0
BLOCK_RECORD
  5
18A5A
330
7466
100
AcDbSymbolTableRecord
100
AcDbBlockTableRecord
  2
*D26
340
0
  0
BLOCK_RECORD
  5
18A67
330
7466
100
AcDbSymbolTableRecord
100
AcDbBlockTableRecord
  2
*D27
340
0
  0
BLOCK_RECORD
  5
18A74
330
7466
100
AcDbSymbolTableRecord
100
AcDbBlockTableRecord
  2
*D28
340
0
  0
BLOCK_RECORD
  5
18A80
330
7466
100
AcDbSymbolTableRecord
100
AcDbBlockTableRecord
  2
*D29
340
0
  0
BLOCK_RECORD
  5
18A8E
330
7466
100
AcDbSymbolTableRecord
100
AcDbBlockTableRecord
  2
*D30
340
0
  0
BLOCK_RECORD
  5
18A9A
330
7466
100
AcDbSymbolTableRecord
100
AcDbBlockTableRecord
  2
*D31
340
0
  0
BLOCK_RECORD
  5
18AB5
330
7466
100
AcDbSymbolTableRecord
100
AcDbBlockTableRecord
  2
*D32
340
0
  0
BLOCK_RECORD
  5
18AC1
330
7466
100
AcDbSymbolTableRecord
100
AcDbBlockTableRecord
  2
*D33
340
0
  0
BLOCK_RECORD
  5
18ACD
330
7466
100
AcDbSymbolTableRecord
100
AcDbBlockTableRecord
  2
*D34
340
0
  0
BLOCK_RECORD
  5
18FAD
330
7466
100
AcDbSymbolTableRecord
100
AcDbBlockTableRecord
  2
*D35
340
0
  0
BLOCK_RECORD
  5
18FBA
330
7466
100
AcDbSymbolTableRecord
100
AcDbBlockTableRecord
  2
*D36
340
0
  0
BLOCK_RECORD
  5
18FC8
330
7466
100
AcDbSymbolTableRecord
100
AcDbBlockTableRecord
  2
*D37
340
0
  0
BLOCK_RECORD
  5
196E0
330
7466
100
AcDbSymbolTableRecord
100
AcDbBlockTableRecord
  2
*D38
340
0
  0
ENDTAB
  0
ENDSEC
  0
SECTION
  2
BLOCKS
  0
BLOCK
  5
7489
330
747D
100
AcDbEntity
  8
0
100
AcDbBlockBegin
  2
*MODEL_SPACE
 70
     0
 10
0.0
 20
0.0
 30
0.0
  3
*MODEL_SPACE
  1

  0
ENDBLK
  5
748A
330
747D
100
AcDbEntity
  8
0
100
AcDbBlockEnd
  0
BLOCK
  5
7487
330
747A
100
AcDbEntity
 67
     1
  8
0
100
AcDbBlockBegin
  2
*PAPER_SPACE
 70
     0
 10
0.0
 20
0.0
 30
0.0
  3
*PAPER_SPACE
  1

  0
ENDBLK
  5
7488
330
747A
100
AcDbEntity
 67
     1
  8
0
100
AcDbBlockEnd
  0
BLOCK
  5
F771
330
F770
100
AcDbEntity
  8
0
 48
50.0
100
AcDbBlockBegin
  2
_DOTSMALL
 70
     0
 10
0.0
 20
0.0
 30
0.0
  3
_DOTSMALL
  1

  0
LWPOLYLINE
  5
F772
330
F770
100
AcDbEntity
  8
0
  6
ByBlock
 62
     0
 48
50.0
100
AcDbPolyline
 90
        2
 70
     1
 43
0.5
 10
-0.0625
 20
0.0
 42
1.0
 10
0.0625
 20
0.0
 42
1.0
  0
ENDBLK
  5
F776
330
F770
100
AcDbEntity
  8
0
 48
50.0
100
AcDbBlockEnd
  0
BLOCK
  5
16FCF
330
16338
100
AcDbEntity
  8
0
 48
50.0
100
AcDbBlockBegin
  2
*D1
 70
     1
 10
0.0
 20
0.0
 30
0.0
  3
*D1
  1

  0
LINE
  5
171DA
330
16338
100
AcDbEntity
  8
寸法
 62
     0
 48
50.0
370
    -2
100
AcDbLine
 10
8709.673057123664
 20
10112.28248384955
 30
0.0
 11
9397.099402858071
 21
10112.28248384955
 31
0.0
  0
LINE
  5
171DB
330
16338
100
AcDbEntity
  8
寸法
 62
     0
 48
50.0
370
    -2
100
AcDbLine
 10
8709.673057123639
 20
7592.282483849536
 30
0.0
 11
9397.099402858071
 21
7592.282483849536
 31
0.0
  0
LINE
  5
171DC
330
16338
100
AcDbEntity
  8
寸法
 62
     0
 48
50.0
370
    -2
100
AcDbLine
 10
9337.09940285807
 20
10112.28248384955
 30
0.0
 11
9337.09940285807
 21
7592.282483849536
 31
0.0
  0
INSERT
  5
171DD
330
16338
100
AcDbEntity
  8
寸法
 62
     0
 48
50.0
370
    -2
100
AcDbBlockReference
  2
_DOTSMALL
 10
9337.09940285807
 20
10112.28248384955
 30
0.0
 41
100.0
 42
100.0
 43
100.0
 50
90.0
  0
INSERT
  5
171DE
330
16338
100
AcDbEntity
  8
寸法
 62
     0
 48
50.0
370
    -2
100
AcDbBlockReference
  2
_DOTSMALL
 10
9337.09940285807
 20
7592.282483849536
 30
0.0
 41
100.0
 42
100.0
 43
100.0
 50
270.0
  0
MTEXT
  5
171DF
330
16338
100
AcDbEntity
  8
寸法
 62
     7
 48
50.0
100
AcDbMText
 10
9237.087591834447
 20
8852.282483849545
 30
0.0
 40
120.0
 41
0.0
 71
     5
 72
     1
  1
\A1;6X420=2520
  7
STYLE1
 11
0.0000000000000001
 21
1.0
 31
0.0
 73
     1
 44
1.0
1001
ACAD
1000
MTEXTBEGIN
1070
    73
1070
     1
1070
    44
1040
1.0
1070
    74
1070
     0
1000
MTEXTEND
  0
POINT
  5
171E0
330
16338
100
AcDbEntity
  8
DEFPOINTS
 62
     0
 48
50.0
100
AcDbPoint
 10
8689.673057123664
 20
10112.28248384955
 30
0.0
  0
POINT
  5
171E1
330
16338
100
AcDbEntity
  8
DEFPOINTS
 62
     0
 48
50.0
100
AcDbPoint
 10
8689.67305712364
 20
7592.282483849536
 30
0.0
  0
POINT
  5
171E2
330
16338
100
AcDbEntity
  8
DEFPOINTS
 62
     0
 48
50.0
100
AcDbPoint
 10
9337.09940285807
 20
7592.282483849536
 30
0.0
  0
ENDBLK
  5
16FD9
330
16338
100
AcDbEntity
  8
0
 48
50.0
100
AcDbBlockEnd
  0
BLOCK
  5
16414
330
16344
100
AcDbEntity
  8
0
 48
50.0
100
AcDbBlockBegin
  2
*D2
 70
     1
 10
0.0
 20
0.0
 30
0.0
  3
*D2
  1

  0
LINE
  5
171CF
330
16344
100
AcDbEntity
  8
寸法
 62
     0
 48
50.0
370
    -2
100
AcDbLine
 10
8709.673057123639
 20
7592.282483849536
 30
0.0
 11
9397.099402858051
 21
7592.282483849536
 31
0.0
  0
LINE
  5
171D0
330
16344
100
AcDbEntity
  8
寸法
 62
     0
 48
50.0
370
    -2
100
AcDbLine
 10
8709.673057123639
 20
7537.282483849541
 30
0.0
 11
9397.099402858051
 21
7537.282483849541
 31
0.0
  0
LINE
  5
171D1
330
16344
100
AcDbEntity
  8
寸法
 62
     0
 48
50.0
370
    -2
100
AcDbLine
 10
9337.099402858049
 20
7592.282483849536
 30
0.0
 11
9337.099402858049
 21
7692.282483849536
 31
0.0
  0
LINE
  5
171D2
330
16344
100
AcDbEntity
  8
寸法
 62
     0
 48
50.0
370
    -2
100
AcDbLine
 10
9337.099402858049
 20
7537.282483849541
 30
0.0
 11
9337.099402858049
 21
7050.935735570438
 31
0.0
  0
LINE
  5
171D3
330
16344
100
AcDbEntity
  8
寸法
 62
     0
 48
50.0
370
    -2
100
AcDbLine
 10
9337.099402858049
 20
7592.282483849536
 30
0.0
 11
9337.099402858049
 21
7537.282483849541
 31
0.0
  0
INSERT
  5
171D4
330
16344
100
AcDbEntity
  8
寸法
 62
     0
 48
50.0
370
    -2
100
AcDbBlockReference
  2
_DOTSMALL
 10
9337.099402858049
 20
7592.282483849536
 30
0.0
 41
100.0
 42
100.0
 43
100.0
 50
270.0
  0
INSERT
  5
171D5
330
16344
100
AcDbEntity
  8
寸法
 62
     0
 48
50.0
370
    -2
100
AcDbBlockReference
  2
_DOTSMALL
 10
9337.099402858049
 20
7537.282483849541
 30
0.0
 41
100.0
 42
100.0
 43
100.0
 50
90.0
  0
MTEXT
  5
171D6
330
16344
100
AcDbEntity
  8
寸法
 62
     7
 48
50.0
100
AcDbMText
 10
9237.099402858047
 20
7159.421016944678
 30
0.0
 40
120.0
 41
0.0
 71
     5
 72
     1
  1
\A1;55
  7
STYLE1
 11
0.0000000000000001
 21
1.0
 31
0.0
 73
     1
 44
1.0
1001
ACAD
1000
MTEXTBEGIN
1070
    73
1070
     1
1070
    44
1040
1.0
1070
    74
1070
     0
1000
MTEXTEND
  0
POINT
  5
171D7
330
16344
100
AcDbEntity
  8
DEFPOINTS
 62
     0
 48
50.0
100
AcDbPoint
 10
8689.67305712364
 20
7592.282483849536
 30
0.0
  0
POINT
  5
171D8
330
16344
100
AcDbEntity
  8
DEFPOINTS
 62
     0
 48
50.0
100
AcDbPoint
 10
8689.67305712364
 20
7537.282483849541
 30
0.0
  0
POINT
  5
171D9
330
16344
100
AcDbEntity
  8
DEFPOINTS
 62
     0
 48
50.0
100
AcDbPoint
 10
9337.099402858049
 20
7537.282483849541
 30
0.0
  0
ENDBLK
  5
16420
330
16344
100
AcDbEntity
  8
0
 48
50.0
100
AcDbBlockEnd
  0
BLOCK
  5
16421
330
16352
100
AcDbEntity
  8
0
 48
50.0
100
AcDbBlockBegin
  2
*D3
 70
     1
 10
0.0
 20
0.0
 30
0.0
  3
*D3
  1

  0
LINE
  5
171C4
330
16352
100
AcDbEntity
  8
寸法
 62
     0
 48
50.0
370
    -2
100
AcDbLine
 10
8709.673057123664
 20
10167.28248384954
 30
0.0
 11
9397.099402858076
 21
10167.28248384954
 31
0.0
  0
LINE
  5
171C5
330
16352
100
AcDbEntity
  8
寸法
 62
     0
 48
50.0
370
    -2
100
AcDbLine
 10
8709.673057123664
 20
10112.28248384955
 30
0.0
 11
9397.099402858076
 21
10112.28248384955
 31
0.0
  0
LINE
  5
171C6
330
16352
100
AcDbEntity
  8
寸法
 62
     0
 48
50.0
370
    -2
100
AcDbLine
 10
9337.099402858076
 20
10112.28248384955
 30
0.0
 11
9337.099402858076
 21
10012.28248384955
 31
0.0
  0
LINE
  5
171C7
330
16352
100
AcDbEntity
  8
寸法
 62
     0
 48
50.0
370
    -2
100
AcDbLine
 10
9337.099402858076
 20
10167.28248384954
 30
0.0
 11
9337.099402858076
 21
10584.25304659802
 31
0.0
  0
LINE
  5
171C8
330
16352
100
AcDbEntity
  8
寸法
 62
     0
 48
50.0
370
    -2
100
AcDbLine
 10
9337.099402858076
 20
10112.28248384955
 30
0.0
 11
9337.099402858076
 21
10167.28248384954
 31
0.0
  0
INSERT
  5
171C9
330
16352
100
AcDbEntity
  8
寸法
 62
     0
 48
50.0
370
    -2
100
AcDbBlockReference
  2
_DOTSMALL
 10
9337.099402858076
 20
10112.28248384955
 30
0.0
 41
100.0
 42
100.0
 43
100.0
 50
90.0
  0
INSERT
  5
171CA
330
16352
100
AcDbEntity
  8
寸法
 62
     0
 48
50.0
370
    -2
100
AcDbBlockReference
  2
_DOTSMALL
 10
9337.099402858076
 20
10167.28248384954
 30
0.0
 41
100.0
 42
100.0
 43
100.0
 50
270.0
  0
MTEXT
  5
171CB
330
16352
100
AcDbEntity
  8
寸法
 62
     7
 48
50.0
100
AcDbMText
 10
9237.099402858074
 20
10475.76776522378
 30
0.0
 40
120.0
 41
0.0
 71
     5
 72
     1
  1
\A1;55
  7
STYLE1
 11
0.0000000000000001
 21
1.0
 31
0.0
 73
     1
 44
1.0
1001
ACAD
1000
MTEXTBEGIN
1070
    73
1070
     1
1070
    44
1040
1.0
1070
    74
1070
     0
1000
MTEXTEND
  0
POINT
  5
171CC
330
16352
100
AcDbEntity
  8
DEFPOINTS
 62
     0
 48
50.0
100
AcDbPoint
 10
8689.673057123664
 20
10167.28248384954
 30
0.0
  0
POINT
  5
171CD
330
16352
100
AcDbEntity
  8
DEFPOINTS
 62
     0
 48
50.0
100
AcDbPoint
 10
8689.673057123664
 20
10112.28248384955
 30
0.0
  0
POINT
  5
171CE
330
16352
100
AcDbEntity
  8
DEFPOINTS
 62
     0
 48
50.0
100
AcDbPoint
 10
9337.099402858076
 20
10112.28248384955
 30
0.0
  0
ENDBLK
  5
1642D
330
16352
100
AcDbEntity
  8
0
 48
50.0
100
AcDbBlockEnd
  0
BLOCK
  5
16FB9
330
16360
100
AcDbEntity
  8
0
 48
50.0
100
AcDbBlockBegin
  2
*D4
 70
     1
 10
0.0
 20
0.0
 30
0.0
  3
*D4
  1

  0
LINE
  5
171BB
330
16360
100
AcDbEntity
  8
寸法
 62
     0
 48
50.0
370
    -2
100
AcDbLine
 10
8709.673057123664
 20
10167.28248384954
 30
0.0
 11
9762.206344597709
 21
10167.28248384954
 31
0.0
  0
LINE
  5
171BC
330
16360
100
AcDbEntity
  8
寸法
 62
     0
 48
50.0
370
    -2
100
AcDbLine
 10
8709.673057123639
 20
7537.282483849541
 30
0.0
 11
9762.206344597709
 21
7537.282483849541
 31
0.0
  0
LINE
  5
171BD
330
16360
100
AcDbEntity
  8
寸法
 62
     0
 48
50.0
370
    -2
100
AcDbLine
 10
9702.20634459771
 20
10167.28248384954
 30
0.0
 11
9702.20634459771
 21
7537.282483849541
 31
0.0
  0
INSERT
  5
171BE
330
16360
100
AcDbEntity
  8
寸法
 62
     0
 48
50.0
370
    -2
100
AcDbBlockReference
  2
_DOTSMALL
 10
9702.20634459771
 20
10167.28248384954
 30
0.0
 41
100.0
 42
100.0
 43
100.0
 50
90.0
  0
INSERT
  5
171BF
330
16360
100
AcDbEntity
  8
寸法
 62
     0
 48
50.0
370
    -2
100
AcDbBlockReference
  2
_DOTSMALL
 10
9702.20634459771
 20
7537.282483849541
 30
0.0
 41
100.0
 42
100.0
 43
100.0
 50
270.0
  0
MTEXT
  5
171C0
330
16360
100
AcDbEntity
  8
寸法
 62
     7
 48
50.0
100
AcDbMText
 10
9602.194533574085
 20
8852.282483849545
 30
0.0
 40
120.0
 41
0.0
 71
     5
 72
     1
  1
\A1;2630
  7
STYLE1
 11
0.0000000000000001
 21
1.0
 31
0.0
 73
     1
 44
1.0
1001
ACAD
1000
MTEXTBEGIN
1070
    73
1070
     1
1070
    44
1040
1.0
1070
    74
1070
     0
1000
MTEXTEND
  0
POINT
  5
171C1
330
16360
100
AcDbEntity
  8
DEFPOINTS
 62
     0
 48
50.0
100
AcDbPoint
 10
8689.673057123664
 20
10167.28248384954
 30
0.0
  0
POINT
  5
171C2
330
16360
100
AcDbEntity
  8
DEFPOINTS
 62
     0
 48
50.0
100
AcDbPoint
 10
8689.67305712364
 20
7537.282483849541
 30
0.0
  0
POINT
  5
171C3
330
16360
100
AcDbEntity
  8
DEFPOINTS
 62
     0
 48
50.0
100
AcDbPoint
 10
9702.20634459771
 20
7537.282483849541
 30
0.0
  0
ENDBLK
  5
16FC3
330
16360
100
AcDbEntity
  8
0
 48
50.0
100
AcDbBlockEnd
  0
BLOCK
  5
1644F
330
16384
100
AcDbEntity
  8
0
 48
50.0
100
AcDbBlockBegin
  2
*D5
 70
     1
 10
0.0
 20
0.0
 30
0.0
  3
*D5
  1

  0
LINE
  5
171B3
330
16384
100
AcDbEntity
  8
寸法
 62
     0
 48
50.0
370
    -2
100
AcDbLine
 10
6162.673057123657
 20
7543.282483849448
 30
0.0
 11
6162.673057123657
 21
6942.851713083284
 31
0.0
  0
LINE
  5
171B4
330
16384
100
AcDbEntity
  8
寸法
 62
     0
 48
50.0
370
    -2
100
AcDbLine
 10
8586.673057123638
 20
7002.851713083284
 30
0.0
 11
6162.673057123657
 21
7002.851713083284
 31
0.0
  0
INSERT
  5
171B5
330
16384
100
AcDbEntity
  8
寸法
 62
     0
 48
50.0
370
    -2
100
AcDbBlockReference
  2
_DOTSMALL
 10
8586.673057123638
 20
7002.851713083284
 30
0.0
 41
100.0
 42
100.0
 43
100.0
  0
INSERT
  5
171B6
330
16384
100
AcDbEntity
  8
寸法
 62
     0
 48
50.0
370
    -2
100
AcDbBlockReference
  2
_DOTSMALL
 10
6162.673057123657
 20
7002.851713083284
 30
0.0
 41
100.0
 42
100.0
 43
100.0
 50
180.0
  0
MTEXT
  5
171B7
330
16384
100
AcDbEntity
  8
寸法
 62
     7
 48
50.0
100
AcDbMText
 10
7374.673057123648
 20
7102.863524106907
 30
0.0
 40
120.0
 41
0.0
 71
     5
 72
     1
  1
\A1;有効開口部間口 2424
  7
STYLE1
 73
     1
 44
1.0
1001
ACAD
1000
MTEXTBEGIN
1070
    73
1070
     1
1070
    44
1040
1.0
1070
    74
1070
     0
1000
MTEXTEND
  0
POINT
  5
171B8
330
16384
100
AcDbEntity
  8
DEFPOINTS
 62
     0
 48
50.0
100
AcDbPoint
 10
8586.673057123638
 20
7563.282483849448
 30
0.0
  0
POINT
  5
171B9
330
16384
100
AcDbEntity
  8
DEFPOINTS
 62
     0
 48
50.0
100
AcDbPoint
 10
6162.673057123657
 20
7563.282483849448
 30
0.0
  0
POINT
  5
171BA
330
16384
100
AcDbEntity
  8
DEFPOINTS
 62
     0
 48
50.0
100
AcDbPoint
 10
6162.673057123657
 20
7002.851713083284
 30
0.0
  0
ENDBLK
  5
16458
330
16384
100
AcDbEntity
  8
0
 48
50.0
100
AcDbBlockEnd
  0
BLOCK
  5
166C4
330
1638F
100
AcDbEntity
  8
0
 48
50.0
100
AcDbBlockBegin
  2
*D6
 70
     1
 10
0.0
 20
0.0
 30
0.0
  3
*D6
  1

  0
LINE
  5
171AA
330
1638F
100
AcDbEntity
  8
寸法
 62
     0
 48
50.0
370
    -2
100
AcDbLine
 10
3429.673057123657
 20
7517.282483849445
 30
0.0
 11
3429.673057123657
 21
6496.678717492411
 31
0.0
  0
LINE
  5
171AB
330
1638F
100
AcDbEntity
  8
寸法
 62
     0
 48
50.0
370
    -2
100
AcDbLine
 10
8689.673057123627
 20
7517.28248384954
 30
0.0
 11
8689.673057123627
 21
6496.678717492411
 31
0.0
  0
LINE
  5
171AC
330
1638F
100
AcDbEntity
  8
寸法
 62
     0
 48
50.0
370
    -2
100
AcDbLine
 10
3429.673057123657
 20
6556.67871749241
 30
0.0
 11
8689.673057123627
 21
6556.67871749241
 31
0.0
  0
INSERT
  5
171AD
330
1638F
100
AcDbEntity
  8
寸法
 62
     0
 48
50.0
370
    -2
100
AcDbBlockReference
  2
_DOTSMALL
 10
3429.673057123657
 20
6556.67871749241
 30
0.0
 41
100.0
 42
100.0
 43
100.0
 50
180.0
  0
INSERT
  5
171AE
330
1638F
100
AcDbEntity
  8
寸法
 62
     0
 48
50.0
370
    -2
100
AcDbBlockReference
  2
_DOTSMALL
 10
8689.673057123627
 20
6556.67871749241
 30
0.0
 41
100.0
 42
100.0
 43
100.0
  0
MTEXT
  5
171AF
330
1638F
100
AcDbEntity
  8
寸法
 62
     7
 48
50.0
100
AcDbMText
 10
6059.673057123642
 20
6656.690528516032
 30
0.0
 40
120.0
 41
0.0
 71
     5
 72
     1
  1
\A1;5260
  7
STYLE1
 73
     1
 44
1.0
1001
ACAD
1000
MTEXTBEGIN
1070
    73
1070
     1
1070
    44
1040
1.0
1070
    74
1070
     0
1000
MTEXTEND
  0
POINT
  5
171B0
330
1638F
100
AcDbEntity
  8
DEFPOINTS
 62
     0
 48
50.0
100
AcDbPoint
 10
3429.673057123657
 20
7537.282483849445
 30
0.0
  0
POINT
  5
171B1
330
1638F
100
AcDbEntity
  8
DEFPOINTS
 62
     0
 48
50.0
100
AcDbPoint
 10
8689.673057123627
 20
7537.282483849541
 30
0.0
  0
POINT
  5
171B2
330
1638F
100
AcDbEntity
  8
DEFPOINTS
 62
     0
 48
50.0
100
AcDbPoint
 10
8689.673057123627
 20
6556.67871749241
 30
0.0
  0
ENDBLK
  5
166CE
330
1638F
100
AcDbEntity
  8
0
 48
50.0
100
AcDbBlockEnd
  0
BLOCK
  5
16464
330
1639B
100
AcDbEntity
  8
0
 48
50.0
100
AcDbBlockBegin
  2
*D7
 70
     1
 10
0.0
 20
0.0
 30
0.0
  3
*D7
  1

  0
LINE
  5
1719F
330
1639B
100
AcDbEntity
  8
寸法
 62
     0
 48
50.0
370
    -2
100
AcDbLine
 10
3484.673057123654
 20
7517.282483849448
 30
0.0
 11
3484.673057123654
 21
6942.851713083284
 31
0.0
  0
LINE
  5
171A0
330
1639B
100
AcDbEntity
  8
寸法
 62
     0
 48
50.0
370
    -2
100
AcDbLine
 10
3429.673057123657
 20
7517.282483849445
 30
0.0
 11
3429.673057123657
 21
6942.851713083284
 31
0.0
  0
LINE
  5
171A1
330
1639B
100
AcDbEntity
  8
寸法
 62
     0
 48
50.0
370
    -2
100
AcDbLine
 10
3484.673057123654
 20
7002.851713083284
 30
0.0
 11
3584.673057123654
 21
7002.851713083284
 31
0.0
  0
LINE
  5
171A2
330
1639B
100
AcDbEntity
  8
寸法
 62
     0
 48
50.0
370
    -2
100
AcDbLine
 10
3429.673057123657
 20
7002.851713083284
 30
0.0
 11
3012.70249437518
 21
7002.851713083284
 31
0.0
  0
LINE
  5
171A3
330
1639B
100
AcDbEntity
  8
寸法
 62
     0
 48
50.0
370
    -2
100
AcDbLine
 10
3484.673057123654
 20
7002.851713083284
 30
0.0
 11
3429.673057123657
 21
7002.851713083284
 31
0.0
  0
INSERT
  5
171A4
330
1639B
100
AcDbEntity
  8
寸法
 62
     0
 48
50.0
370
    -2
100
AcDbBlockReference
  2
_DOTSMALL
 10
3484.673057123654
 20
7002.851713083284
 30
0.0
 41
100.0
 42
100.0
 43
100.0
 50
180.0
  0
INSERT
  5
171A5
330
1639B
100
AcDbEntity
  8
寸法
 62
     0
 48
50.0
370
    -2
100
AcDbBlockReference
  2
_DOTSMALL
 10
3429.673057123657
 20
7002.851713083284
 30
0.0
 41
100.0
 42
100.0
 43
100.0
  0
MTEXT
  5
171A6
330
1639B
100
AcDbEntity
  8
寸法
 62
     7
 48
50.0
100
AcDbMText
 10
3121.187775749418
 20
7102.851713083284
 30
0.0
 40
120.0
 41
0.0
 71
     5
 72
     1
  1
\A1;55
  7
STYLE1
 73
     1
 44
1.0
1001
ACAD
1000
MTEXTBEGIN
1070
    73
1070
     1
1070
    44
1040
1.0
1070
    74
1070
     0
1000
MTEXTEND
  0
POINT
  5
171A7
330
1639B
100
AcDbEntity
  8
DEFPOINTS
 62
     0
 48
50.0
100
AcDbPoint
 10
3484.673057123654
 20
7537.282483849448
 30
0.0
  0
POINT
  5
171A8
330
1639B
100
AcDbEntity
  8
DEFPOINTS
 62
     0
 48
50.0
100
AcDbPoint
 10
3429.673057123657
 20
7537.282483849445
 30
0.0
  0
POINT
  5
171A9
330
1639B
100
AcDbEntity
  8
DEFPOINTS
 62
     0
 48
50.0
100
AcDbPoint
 10
3429.673057123657
 20
7002.851713083284
 30
0.0
  0
ENDBLK
  5
16470
330
1639B
100
AcDbEntity
  8
0
 48
50.0
100
AcDbBlockEnd
  0
BLOCK
  5
16471
330
163A9
100
AcDbEntity
  8
0
 48
50.0
100
AcDbBlockBegin
  2
*D8
 70
     1
 10
0.0
 20
0.0
 30
0.0
  3
*D8
  1

  0
LINE
  5
17194
330
163A9
100
AcDbEntity
  8
寸法
 62
     0
 48
50.0
370
    -2
100
AcDbLine
 10
6162.673057123657
 20
7543.282483849448
 30
0.0
 11
6162.673057123657
 21
6942.851713083284
 31
0.0
  0
LINE
  5
17195
330
163A9
100
AcDbEntity
  8
寸法
 62
     0
 48
50.0
370
    -2
100
AcDbLine
 10
6114.673057123653
 20
7517.282483849448
 30
0.0
 11
6114.673057123653
 21
6942.851713083284
 31
0.0
  0
LINE
  5
17196
330
163A9
100
AcDbEntity
  8
寸法
 62
     0
 48
50.0
370
    -2
100
AcDbLine
 10
6162.673057123657
 20
7002.851713083284
 30
0.0
 11
6262.673057123657
 21
7002.851713083284
 31
0.0
  0
LINE
  5
17197
330
163A9
100
AcDbEntity
  8
寸法
 62
     0
 48
50.0
370
    -2
100
AcDbLine
 10
6114.673057123653
 20
7002.851713083284
 30
0.0
 11
6014.673057123653
 21
7002.851713083284
 31
0.0
  0
MTEXT
  5
17198
330
163A9
100
AcDbEntity
  8
寸法
 62
     7
 48
50.0
100
AcDbMText
 10
6275.575028123714
 20
7102.851713083284
 30
0.0
 40
120.0
 41
0.0
 71
     5
 72
     1
  1
\A1;48
  7
STYLE1
 73
     1
 44
1.0
1001
ACAD
1000
MTEXTBEGIN
1070
    73
1070
     1
1070
    44
1040
1.0
1070
    74
1070
     0
1000
MTEXTEND
  0
LINE
  5
17199
330
163A9
100
AcDbEntity
  8
寸法
 62
     0
 48
50.0
370
    -2
100
AcDbLine
 10
6162.673057123657
 20
7002.851713083284
 30
0.0
 11
6114.673057123653
 21
7002.851713083284
 31
0.0
  0
INSERT
  5
1719A
330
163A9
100
AcDbEntity
  8
寸法
 62
     0
 48
50.0
370
    -2
100
AcDbBlockReference
  2
_DOTSMALL
 10
6162.673057123657
 20
7002.851713083284
 30
0.0
 41
100.0
 42
100.0
 43
100.0
 50
180.0
  0
INSERT
  5
1719B
330
163A9
100
AcDbEntity
  8
寸法
 62
     0
 48
50.0
370
    -2
100
AcDbBlockReference
  2
_DOTSMALL
 10
6114.673057123653
 20
7002.851713083284
 30
0.0
 41
100.0
 42
100.0
 43
100.0
  0
POINT
  5
1719C
330
163A9
100
AcDbEntity
  8
DEFPOINTS
 62
     0
 48
50.0
100
AcDbPoint
 10
6162.673057123657
 20
7563.282483849448
 30
0.0
  0
POINT
  5
1719D
330
163A9
100
AcDbEntity
  8
DEFPOINTS
 62
     0
 48
50.0
100
AcDbPoint
 10
6114.673057123653
 20
7537.282483849448
 30
0.0
  0
POINT
  5
1719E
330
163A9
100
AcDbEntity
  8
DEFPOINTS
 62
     0
 48
50.0
100
AcDbPoint
 10
6114.673057123653
 20
7002.851713083284
 30
0.0
  0
ENDBLK
  5
1647E
330
163A9
100
AcDbEntity
  8
0
 48
50.0
100
AcDbBlockEnd
  0
BLOCK
  5
1647F
330
163B8
100
AcDbEntity
  8
0
 48
50.0
100
AcDbBlockBegin
  2
*D9
 70
     1
 10
0.0
 20
0.0
 30
0.0
  3
*D9
  1

  0
LINE
  5
17189
330
163B8
100
AcDbEntity
  8
寸法
 62
     0
 48
50.0
370
    -2
100
AcDbLine
 10
8634.67305712364
 20
7517.282483849536
 30
0.0
 11
8634.67305712364
 21
6942.851713083284
 31
0.0
  0
LINE
  5
1718A
330
163B8
100
AcDbEntity
  8
寸法
 62
     0
 48
50.0
370
    -2
100
AcDbLine
 10
8586.673057123638
 20
7543.282483849449
 30
0.0
 11
8586.673057123638
 21
6942.851713083284
 31
0.0
  0
LINE
  5
1718B
330
163B8
100
AcDbEntity
  8
寸法
 62
     0
 48
50.0
370
    -2
100
AcDbLine
 10
8634.67305712364
 20
7002.851713083284
 30
0.0
 11
8734.673057123641
 21
7002.851713083284
 31
0.0
  0
LINE
  5
1718C
330
163B8
100
AcDbEntity
  8
寸法
 62
     0
 48
50.0
370
    -2
100
AcDbLine
 10
8586.673057123638
 20
7002.851713083284
 30
0.0
 11
8486.673057123638
 21
7002.851713083284
 31
0.0
  0
MTEXT
  5
1718D
330
163B8
100
AcDbEntity
  8
寸法
 62
     7
 48
50.0
100
AcDbMText
 10
8475.710159474891
 20
7102.851713083284
 30
0.0
 40
120.0
 41
0.0
 71
     5
 72
     1
  1
\A1;48
  7
STYLE1
 73
     1
 44
1.0
1001
ACAD
1000
MTEXTBEGIN
1070
    73
1070
     1
1070
    44
1040
1.0
1070
    74
1070
     0
1000
MTEXTEND
  0
LINE
  5
1718E
330
163B8
100
AcDbEntity
  8
寸法
 62
     0
 48
50.0
370
    -2
100
AcDbLine
 10
8634.67305712364
 20
7002.851713083284
 30
0.0
 11
8586.673057123638
 21
7002.851713083284
 31
0.0
  0
INSERT
  5
1718F
330
163B8
100
AcDbEntity
  8
寸法
 62
     0
 48
50.0
370
    -2
100
AcDbBlockReference
  2
_DOTSMALL
 10
8634.67305712364
 20
7002.851713083284
 30
0.0
 41
100.0
 42
100.0
 43
100.0
 50
180.0
  0
INSERT
  5
17190
330
163B8
100
AcDbEntity
  8
寸法
 62
     0
 48
50.0
370
    -2
100
AcDbBlockReference
  2
_DOTSMALL
 10
8586.673057123638
 20
7002.851713083284
 30
0.0
 41
100.0
 42
100.0
 43
100.0
  0
POINT
  5
17191
330
163B8
100
AcDbEntity
  8
DEFPOINTS
 62
     0
 48
50.0
100
AcDbPoint
 10
8634.67305712364
 20
7537.282483849536
 30
0.0
  0
POINT
  5
17192
330
163B8
100
AcDbEntity
  8
DEFPOINTS
 62
     0
 48
50.0
100
AcDbPoint
 10
8586.673057123638
 20
7563.282483849448
 30
0.0
  0
POINT
  5
17193
330
163B8
100
AcDbEntity
  8
DEFPOINTS
 62
     0
 48
50.0
100
AcDbPoint
 10
8586.673057123638
 20
7002.851713083284
 30
0.0
  0
ENDBLK
  5
1648C
330
163B8
100
AcDbEntity
  8
0
 48
50.0
100
AcDbBlockEnd
  0
BLOCK
  5
1648D
330
163C7
100
AcDbEntity
  8
0
 48
50.0
100
AcDbBlockBegin
  2
*D10
 70
     1
 10
0.0
 20
0.0
 30
0.0
  3
*D10
  1

  0
LINE
  5
1717E
330
163C7
100
AcDbEntity
  8
寸法
 62
     0
 48
50.0
370
    -2
100
AcDbLine
 10
8689.67305712364
 20
7517.28248384954
 30
0.0
 11
8689.67305712364
 21
6942.851713083285
 31
0.0
  0
LINE
  5
1717F
330
163C7
100
AcDbEntity
  8
寸法
 62
     0
 48
50.0
370
    -2
100
AcDbLine
 10
8634.67305712364
 20
7517.282483849536
 30
0.0
 11
8634.67305712364
 21
6942.851713083285
 31
0.0
  0
LINE
  5
17180
330
163C7
100
AcDbEntity
  8
寸法
 62
     0
 48
50.0
370
    -2
100
AcDbLine
 10
8634.67305712364
 20
7002.851713083285
 30
0.0
 11
8534.67305712364
 21
7002.851713083285
 31
0.0
  0
LINE
  5
17181
330
163C7
100
AcDbEntity
  8
寸法
 62
     0
 48
50.0
370
    -2
100
AcDbLine
 10
8689.67305712364
 20
7002.851713083285
 30
0.0
 11
9106.643619872114
 21
7002.851713083285
 31
0.0
  0
LINE
  5
17182
330
163C7
100
AcDbEntity
  8
寸法
 62
     0
 48
50.0
370
    -2
100
AcDbLine
 10
8634.67305712364
 20
7002.851713083285
 30
0.0
 11
8689.67305712364
 21
7002.851713083285
 31
0.0
  0
INSERT
  5
17183
330
163C7
100
AcDbEntity
  8
寸法
 62
     0
 48
50.0
370
    -2
100
AcDbBlockReference
  2
_DOTSMALL
 10
8634.67305712364
 20
7002.851713083285
 30
0.0
 41
100.0
 42
100.0
 43
100.0
  0
INSERT
  5
17184
330
163C7
100
AcDbEntity
  8
寸法
 62
     0
 48
50.0
370
    -2
100
AcDbBlockReference
  2
_DOTSMALL
 10
8689.67305712364
 20
7002.851713083285
 30
0.0
 41
100.0
 42
100.0
 43
100.0
 50
180.0
  0
MTEXT
  5
17185
330
163C7
100
AcDbEntity
  8
寸法
 62
     7
 48
50.0
100
AcDbMText
 10
8998.158338497876
 20
7102.851713083286
 30
0.0
 40
120.0
 41
0.0
 71
     5
 72
     1
  1
\A1;55
  7
STYLE1
 73
     1
 44
1.0
1001
ACAD
1000
MTEXTBEGIN
1070
    73
1070
     1
1070
    44
1040
1.0
1070
    74
1070
     0
1000
MTEXTEND
  0
POINT
  5
17186
330
163C7
100
AcDbEntity
  8
DEFPOINTS
 62
     0
 48
50.0
100
AcDbPoint
 10
8689.67305712364
 20
7537.282483849541
 30
0.0
  0
POINT
  5
17187
330
163C7
100
AcDbEntity
  8
DEFPOINTS
 62
     0
 48
50.0
100
AcDbPoint
 10
8634.67305712364
 20
7537.282483849536
 30
0.0
  0
POINT
  5
17188
330
163C7
100
AcDbEntity
  8
DEFPOINTS
 62
     0
 48
50.0
100
AcDbPoint
 10
8634.67305712364
 20
7002.851713083285
 30
0.0
  0
ENDBLK
  5
16499
330
163C7
100
AcDbEntity
  8
0
 48
50.0
100
AcDbBlockEnd
  0
BLOCK
  5
1661C
330
163E1
100
AcDbEntity
  8
0
 48
50.0
100
AcDbBlockBegin
  2
*D11
 70
     1
 10
0.0
 20
0.0
 30
0.0
  3
*D11
  1

  0
LINE
  5
17175
330
163E1
100
AcDbEntity
  8
寸法
 62
     0
 48
50.0
370
    -2
100
AcDbLine
 10
6114.673057123663
 20
10187.28248384945
 30
0.0
 11
6114.673057123663
 21
10443.09070347455
 31
0.0
  0
LINE
  5
17176
330
163E1
100
AcDbEntity
  8
寸法
 62
     0
 48
50.0
370
    -2
100
AcDbLine
 10
8634.673057123665
 20
10187.28248384954
 30
0.0
 11
8634.673057123665
 21
10443.09070347455
 31
0.0
  0
LINE
  5
17177
330
163E1
100
AcDbEntity
  8
寸法
 62
     0
 48
50.0
370
    -2
100
AcDbLine
 10
6114.673057123663
 20
10383.09070347455
 30
0.0
 11
8634.673057123665
 21
10383.09070347455
 31
0.0
  0
INSERT
  5
17178
330
163E1
100
AcDbEntity
  8
寸法
 62
     0
 48
50.0
370
    -2
100
AcDbBlockReference
  2
_DOTSMALL
 10
6114.673057123663
 20
10383.09070347455
 30
0.0
 41
100.0
 42
100.0
 43
100.0
 50
180.0
  0
INSERT
  5
17179
330
163E1
100
AcDbEntity
  8
寸法
 62
     0
 48
50.0
370
    -2
100
AcDbBlockReference
  2
_DOTSMALL
 10
8634.673057123665
 20
10383.09070347455
 30
0.0
 41
100.0
 42
100.0
 43
100.0
  0
MTEXT
  5
1717A
330
163E1
100
AcDbEntity
  8
寸法
 62
     7
 48
50.0
100
AcDbMText
 10
7374.673057123664
 20
10483.10251449817
 30
0.0
 40
120.0
 41
0.0
 71
     5
 72
     1
  1
\A1;6X420=2520
  7
STYLE1
 73
     1
 44
1.0
1001
ACAD
1000
MTEXTBEGIN
1070
    73
1070
     1
1070
    44
1040
1.0
1070
    74
1070
     0
1000
MTEXTEND
  0
POINT
  5
1717B
330
163E1
100
AcDbEntity
  8
DEFPOINTS
 62
     0
 48
50.0
100
AcDbPoint
 10
6114.673057123663
 20
10167.28248384945
 30
0.0
  0
POINT
  5
1717C
330
163E1
100
AcDbEntity
  8
DEFPOINTS
 62
     0
 48
50.0
100
AcDbPoint
 10
8634.673057123665
 20
10167.28248384954
 30
0.0
  0
POINT
  5
1717D
330
163E1
100
AcDbEntity
  8
DEFPOINTS
 62
     0
 48
50.0
100
AcDbPoint
 10
8634.673057123665
 20
10383.09070347455
 30
0.0
  0
ENDBLK
  5
16626
330
163E1
100
AcDbEntity
  8
0
 48
50.0
100
AcDbBlockEnd
  0
BLOCK
  5
164B0
330
163ED
100
AcDbEntity
  8
0
 48
50.0
100
AcDbBlockBegin
  2
*D12
 70
     1
 10
0.0
 20
0.0
 30
0.0
  3
*D12
  1

  0
LINE
  5
1716A
330
163ED
100
AcDbEntity
  8
寸法
 62
     0
 48
50.0
370
    -2
100
AcDbLine
 10
3429.673057123629
 20
10187.28248384945
 30
0.0
 11
3429.673057123629
 21
10443.09070347443
 31
0.0
  0
LINE
  5
1716B
330
163ED
100
AcDbEntity
  8
寸法
 62
     0
 48
50.0
370
    -2
100
AcDbLine
 10
3484.673057123663
 20
10187.28248384945
 30
0.0
 11
3484.673057123663
 21
10443.09070347443
 31
0.0
  0
LINE
  5
1716C
330
163ED
100
AcDbEntity
  8
寸法
 62
     0
 48
50.0
370
    -2
100
AcDbLine
 10
3484.673057123663
 20
10383.09070347443
 30
0.0
 11
3584.673057123664
 21
10383.09070347443
 31
0.0
  0
LINE
  5
1716D
330
163ED
100
AcDbEntity
  8
寸法
 62
     0
 48
50.0
370
    -2
100
AcDbLine
 10
3429.673057123629
 20
10383.09070347443
 30
0.0
 11
3012.702494375151
 21
10383.09070347443
 31
0.0
  0
LINE
  5
1716E
330
163ED
100
AcDbEntity
  8
寸法
 62
     0
 48
50.0
370
    -2
100
AcDbLine
 10
3484.673057123663
 20
10383.09070347443
 30
0.0
 11
3429.673057123629
 21
10383.09070347443
 31
0.0
  0
INSERT
  5
1716F
330
163ED
100
AcDbEntity
  8
寸法
 62
     0
 48
50.0
370
    -2
100
AcDbBlockReference
  2
_DOTSMALL
 10
3484.673057123663
 20
10383.09070347443
 30
0.0
 41
100.0
 42
100.0
 43
100.0
 50
180.0
  0
INSERT
  5
17170
330
163ED
100
AcDbEntity
  8
寸法
 62
     0
 48
50.0
370
    -2
100
AcDbBlockReference
  2
_DOTSMALL
 10
3429.673057123629
 20
10383.09070347443
 30
0.0
 41
100.0
 42
100.0
 43
100.0
  0
MTEXT
  5
17171
330
163ED
100
AcDbEntity
  8
寸法
 62
     7
 48
50.0
100
AcDbMText
 10
3121.18777574939
 20
10483.09070347443
 30
0.0
 40
120.0
 41
0.0
 71
     5
 72
     1
  1
\A1;55
  7
STYLE1
 73
     1
 44
1.0
1001
ACAD
1000
MTEXTBEGIN
1070
    73
1070
     1
1070
    44
1040
1.0
1070
    74
1070
     0
1000
MTEXTEND
  0
POINT
  5
17172
330
163ED
100
AcDbEntity
  8
DEFPOINTS
 62
     0
 48
50.0
100
AcDbPoint
 10
3429.673057123629
 20
10167.28248384945
 30
0.0
  0
POINT
  5
17173
330
163ED
100
AcDbEntity
  8
DEFPOINTS
 62
     0
 48
50.0
100
AcDbPoint
 10
3484.673057123663
 20
10167.28248384945
 30
0.0
  0
POINT
  5
17174
330
163ED
100
AcDbEntity
  8
DEFPOINTS
 62
     0
 48
50.0
100
AcDbPoint
 10
3484.673057123663
 20
10383.09070347443
 30
0.0
  0
ENDBLK
  5
164BC
330
163ED
100
AcDbEntity
  8
0
 48
50.0
100
AcDbBlockEnd
  0
BLOCK
  5
164BD
330
163FB
100
AcDbEntity
  8
0
 48
50.0
100
AcDbBlockBegin
  2
*D13
 70
     1
 10
0.0
 20
0.0
 30
0.0
  3
*D13
  1

  0
LINE
  5
1715F
330
163FB
100
AcDbEntity
  8
寸法
 62
     0
 48
50.0
370
    -2
100
AcDbLine
 10
8634.673057123665
 20
10187.28248384954
 30
0.0
 11
8634.673057123665
 21
10443.09070347453
 31
0.0
  0
LINE
  5
17160
330
163FB
100
AcDbEntity
  8
寸法
 62
     0
 48
50.0
370
    -2
100
AcDbLine
 10
8689.673057123664
 20
10187.28248384954
 30
0.0
 11
8689.673057123664
 21
10443.09070347453
 31
0.0
  0
LINE
  5
17161
330
163FB
100
AcDbEntity
  8
寸法
 62
     0
 48
50.0
370
    -2
100
AcDbLine
 10
8634.673057123665
 20
10383.09070347453
 30
0.0
 11
8534.673057123665
 21
10383.09070347453
 31
0.0
  0
LINE
  5
17162
330
163FB
100
AcDbEntity
  8
寸法
 62
     0
 48
50.0
370
    -2
100
AcDbLine
 10
8689.673057123664
 20
10383.09070347453
 30
0.0
 11
9106.643619872141
 21
10383.09070347453
 31
0.0
  0
LINE
  5
17163
330
163FB
100
AcDbEntity
  8
寸法
 62
     0
 48
50.0
370
    -2
100
AcDbLine
 10
8634.673057123665
 20
10383.09070347453
 30
0.0
 11
8689.673057123664
 21
10383.09070347453
 31
0.0
  0
INSERT
  5
17164
330
163FB
100
AcDbEntity
  8
寸法
 62
     0
 48
50.0
370
    -2
100
AcDbBlockReference
  2
_DOTSMALL
 10
8634.673057123665
 20
10383.09070347453
 30
0.0
 41
100.0
 42
100.0
 43
100.0
  0
INSERT
  5
17165
330
163FB
100
AcDbEntity
  8
寸法
 62
     0
 48
50.0
370
    -2
100
AcDbBlockReference
  2
_DOTSMALL
 10
8689.673057123664
 20
10383.09070347453
 30
0.0
 41
100.0
 42
100.0
 43
100.0
 50
180.0
  0
MTEXT
  5
17166
330
163FB
100
AcDbEntity
  8
寸法
 62
     7
 48
50.0
100
AcDbMText
 10
8998.158338497901
 20
10483.09070347453
 30
0.0
 40
120.0
 41
0.0
 71
     5
 72
     1
  1
\A1;55
  7
STYLE1
 73
     1
 44
1.0
1001
ACAD
1000
MTEXTBEGIN
1070
    73
1070
     1
1070
    44
1040
1.0
1070
    74
1070
     0
1000
MTEXTEND
  0
POINT
  5
17167
330
163FB
100
AcDbEntity
  8
DEFPOINTS
 62
     0
 48
50.0
100
AcDbPoint
 10
8634.673057123665
 20
10167.28248384954
 30
0.0
  0
POINT
  5
17168
330
163FB
100
AcDbEntity
  8
DEFPOINTS
 62
     0
 48
50.0
100
AcDbPoint
 10
8689.673057123664
 20
10167.28248384954
 30
0.0
  0
POINT
  5
17169
330
163FB
100
AcDbEntity
  8
DEFPOINTS
 62
     0
 48
50.0
100
AcDbPoint
 10
8689.673057123664
 20
10383.09070347453
 30
0.0
  0
ENDBLK
  5
164C9
330
163FB
100
AcDbEntity
  8
0
 48
50.0
100
AcDbBlockEnd
  0
BLOCK
  5
1659F
330
1659E
100
AcDbEntity
  8
0
 48
50.0
100
AcDbBlockBegin
  2
*D14
 70
     1
 10
0.0
 20
0.0
 30
0.0
  3
*D14
  1

  0
LINE
  5
1714C
330
1659E
100
AcDbEntity
  8
寸法
 62
     0
 48
50.0
370
    -2
100
AcDbLine
 10
3532.673057123657
 20
7543.282483849448
 30
0.0
 11
3532.673057123657
 21
6942.851713083284
 31
0.0
  0
LINE
  5
1714D
330
1659E
100
AcDbEntity
  8
寸法
 62
     0
 48
50.0
370
    -2
100
AcDbLine
 10
5956.673057123638
 20
7002.851713083284
 30
0.0
 11
3532.673057123657
 21
7002.851713083284
 31
0.0
  0
INSERT
  5
1714E
330
1659E
100
AcDbEntity
  8
寸法
 62
     0
 48
50.0
370
    -2
100
AcDbBlockReference
  2
_DOTSMALL
 10
5956.673057123638
 20
7002.851713083284
 30
0.0
 41
100.0
 42
100.0
 43
100.0
  0
INSERT
  5
1714F
330
1659E
100
AcDbEntity
  8
寸法
 62
     0
 48
50.0
370
    -2
100
AcDbBlockReference
  2
_DOTSMALL
 10
3532.673057123657
 20
7002.851713083284
 30
0.0
 41
100.0
 42
100.0
 43
100.0
 50
180.0
  0
MTEXT
  5
17150
330
1659E
100
AcDbEntity
  8
寸法
 62
     7
 48
50.0
100
AcDbMText
 10
4744.673057123647
 20
7102.863524106907
 30
0.0
 40
120.0
 41
0.0
 71
     5
 72
     1
  1
\A1;有効開口部間口 2424
  7
STYLE1
 73
     1
 44
1.0
1001
ACAD
1000
MTEXTBEGIN
1070
    73
1070
     1
1070
    44
1040
1.0
1070
    74
1070
     0
1000
MTEXTEND
  0
POINT
  5
17151
330
1659E
100
AcDbEntity
  8
DEFPOINTS
 62
     0
 48
50.0
100
AcDbPoint
 10
5956.673057123638
 20
7563.282483849448
 30
0.0
  0
POINT
  5
17152
330
1659E
100
AcDbEntity
  8
DEFPOINTS
 62
     0
 48
50.0
100
AcDbPoint
 10
3532.673057123657
 20
7563.282483849448
 30
0.0
  0
POINT
  5
17153
330
1659E
100
AcDbEntity
  8
DEFPOINTS
 62
     0
 48
50.0
100
AcDbPoint
 10
3532.673057123657
 20
7002.851713083284
 30
0.0
  0
ENDBLK
  5
165A8
330
1659E
100
AcDbEntity
  8
0
 48
50.0
100
AcDbBlockEnd
  0
BLOCK
  5
165B6
330
165B5
100
AcDbEntity
  8
0
 48
50.0
100
AcDbBlockBegin
  2
*D15
 70
     1
 10
0.0
 20
0.0
 30
0.0
  3
*D15
  1

  0
LINE
  5
17141
330
165B5
100
AcDbEntity
  8
寸法
 62
     0
 48
50.0
370
    -2
100
AcDbLine
 10
3532.673057123657
 20
7543.282483849448
 30
0.0
 11
3532.673057123657
 21
6942.851713083284
 31
0.0
  0
LINE
  5
17142
330
165B5
100
AcDbEntity
  8
寸法
 62
     0
 48
50.0
370
    -2
100
AcDbLine
 10
3484.673057123654
 20
7517.282483849448
 30
0.0
 11
3484.673057123654
 21
6942.851713083284
 31
0.0
  0
LINE
  5
17143
330
165B5
100
AcDbEntity
  8
寸法
 62
     0
 48
50.0
370
    -2
100
AcDbLine
 10
3532.673057123657
 20
7002.851713083284
 30
0.0
 11
3632.673057123657
 21
7002.851713083284
 31
0.0
  0
LINE
  5
17144
330
165B5
100
AcDbEntity
  8
寸法
 62
     0
 48
50.0
370
    -2
100
AcDbLine
 10
3484.673057123654
 20
7002.851713083284
 30
0.0
 11
3384.673057123654
 21
7002.851713083284
 31
0.0
  0
MTEXT
  5
17145
330
165B5
100
AcDbEntity
  8
寸法
 62
     7
 48
50.0
100
AcDbMText
 10
3645.575028123714
 20
7102.851713083284
 30
0.0
 40
120.0
 41
0.0
 71
     5
 72
     1
  1
\A1;48
  7
STYLE1
 73
     1
 44
1.0
1001
ACAD
1000
MTEXTBEGIN
1070
    73
1070
     1
1070
    44
1040
1.0
1070
    74
1070
     0
1000
MTEXTEND
  0
LINE
  5
17146
330
165B5
100
AcDbEntity
  8
寸法
 62
     0
 48
50.0
370
    -2
100
AcDbLine
 10
3532.673057123657
 20
7002.851713083284
 30
0.0
 11
3484.673057123654
 21
7002.851713083284
 31
0.0
  0
INSERT
  5
17147
330
165B5
100
AcDbEntity
  8
寸法
 62
     0
 48
50.0
370
    -2
100
AcDbBlockReference
  2
_DOTSMALL
 10
3532.673057123657
 20
7002.851713083284
 30
0.0
 41
100.0
 42
100.0
 43
100.0
 50
180.0
  0
INSERT
  5
17148
330
165B5
100
AcDbEntity
  8
寸法
 62
     0
 48
50.0
370
    -2
100
AcDbBlockReference
  2
_DOTSMALL
 10
3484.673057123654
 20
7002.851713083284
 30
0.0
 41
100.0
 42
100.0
 43
100.0
  0
POINT
  5
17149
330
165B5
100
AcDbEntity
  8
DEFPOINTS
 62
     0
 48
50.0
100
AcDbPoint
 10
3532.673057123657
 20
7563.282483849448
 30
0.0
  0
POINT
  5
1714A
330
165B5
100
AcDbEntity
  8
DEFPOINTS
 62
     0
 48
50.0
100
AcDbPoint
 10
3484.673057123654
 20
7537.282483849448
 30
0.0
  0
POINT
  5
1714B
330
165B5
100
AcDbEntity
  8
DEFPOINTS
 62
     0
 48
50.0
100
AcDbPoint
 10
3484.673057123654
 20
7002.851713083284
 30
0.0
  0
ENDBLK
  5
165C3
330
165B5
100
AcDbEntity
  8
0
 48
50.0
100
AcDbBlockEnd
  0
BLOCK
  5
165C5
330
165C4
100
AcDbEntity
  8
0
 48
50.0
100
AcDbBlockBegin
  2
*D16
 70
     1
 10
0.0
 20
0.0
 30
0.0
  3
*D16
  1

  0
LINE
  5
17154
330
165C4
100
AcDbEntity
  8
寸法
 62
     0
 48
50.0
370
    -2
100
AcDbLine
 10
6004.67305712364
 20
7517.282483849536
 30
0.0
 11
6004.67305712364
 21
6942.851713083284
 31
0.0
  0
LINE
  5
17155
330
165C4
100
AcDbEntity
  8
寸法
 62
     0
 48
50.0
370
    -2
100
AcDbLine
 10
5956.673057123638
 20
7543.282483849449
 30
0.0
 11
5956.673057123638
 21
6942.851713083284
 31
0.0
  0
LINE
  5
17156
330
165C4
100
AcDbEntity
  8
寸法
 62
     0
 48
50.0
370
    -2
100
AcDbLine
 10
6004.67305712364
 20
7002.851713083284
 30
0.0
 11
6104.67305712364
 21
7002.851713083284
 31
0.0
  0
LINE
  5
17157
330
165C4
100
AcDbEntity
  8
寸法
 62
     0
 48
50.0
370
    -2
100
AcDbLine
 10
5956.673057123638
 20
7002.851713083284
 30
0.0
 11
5856.673057123638
 21
7002.851713083284
 31
0.0
  0
MTEXT
  5
17158
330
165C4
100
AcDbEntity
  8
寸法
 62
     7
 48
50.0
100
AcDbMText
 10
5845.710159474891
 20
7102.851713083284
 30
0.0
 40
120.0
 41
0.0
 71
     5
 72
     1
  1
\A1;48
  7
STYLE1
 73
     1
 44
1.0
1001
ACAD
1000
MTEXTBEGIN
1070
    73
1070
     1
1070
    44
1040
1.0
1070
    74
1070
     0
1000
MTEXTEND
  0
LINE
  5
17159
330
165C4
100
AcDbEntity
  8
寸法
 62
     0
 48
50.0
370
    -2
100
AcDbLine
 10
6004.67305712364
 20
7002.851713083284
 30
0.0
 11
5956.673057123638
 21
7002.851713083284
 31
0.0
  0
INSERT
  5
1715A
330
165C4
100
AcDbEntity
  8
寸法
 62
     0
 48
50.0
370
    -2
100
AcDbBlockReference
  2
_DOTSMALL
 10
6004.67305712364
 20
7002.851713083284
 30
0.0
 41
100.0
 42
100.0
 43
100.0
 50
180.0
  0
INSERT
  5
1715B
330
165C4
100
AcDbEntity
  8
寸法
 62
     0
 48
50.0
370
    -2
100
AcDbBlockReference
  2
_DOTSMALL
 10
5956.673057123638
 20
7002.851713083284
 30
0.0
 41
100.0
 42
100.0
 43
100.0
  0
POINT
  5
1715C
330
165C4
100
AcDbEntity
  8
DEFPOINTS
 62
     0
 48
50.0
100
AcDbPoint
 10
6004.67305712364
 20
7537.282483849536
 30
0.0
  0
POINT
  5
1715D
330
165C4
100
AcDbEntity
  8
DEFPOINTS
 62
     0
 48
50.0
100
AcDbPoint
 10
5956.673057123638
 20
7563.282483849448
 30
0.0
  0
POINT
  5
1715E
330
165C4
100
AcDbEntity
  8
DEFPOINTS
 62
     0
 48
50.0
100
AcDbPoint
 10
5956.673057123638
 20
7002.851713083284
 30
0.0
  0
ENDBLK
  5
165D2
330
165C4
100
AcDbEntity
  8
0
 48
50.0
100
AcDbBlockEnd
  0
BLOCK
  5
1663F
330
165EA
100
AcDbEntity
  8
0
 48
50.0
100
AcDbBlockBegin
  2
*D17
 70
     1
 10
0.0
 20
0.0
 30
0.0
  3
*D17
  1

  0
LINE
  5
17138
330
165EA
100
AcDbEntity
  8
寸法
 62
     0
 48
50.0
370
    -2
100
AcDbLine
 10
6114.673057123653
 20
7517.282483849448
 30
0.0
 11
6114.673057123653
 21
6942.851713083285
 31
0.0
  0
LINE
  5
17139
330
165EA
100
AcDbEntity
  8
寸法
 62
     0
 48
50.0
370
    -2
100
AcDbLine
 10
6004.67305712364
 20
7517.282483849536
 30
0.0
 11
6004.67305712364
 21
6942.851713083285
 31
0.0
  0
LINE
  5
1713A
330
165EA
100
AcDbEntity
  8
寸法
 62
     0
 48
50.0
370
    -2
100
AcDbLine
 10
6114.673057123653
 20
7002.851713083285
 30
0.0
 11
6004.67305712364
 21
7002.851713083285
 31
0.0
  0
MTEXT
  5
1713B
330
165EA
100
AcDbEntity
  8
寸法
 62
     7
 48
50.0
100
AcDbMText
 10
6059.673057123647
 20
6851.159818047054
 30
0.0
 40
120.0
 41
0.0
 71
     5
 72
     1
  1
\A1;110
  7
STYLE1
 73
     1
 44
1.0
1001
ACAD
1000
MTEXTBEGIN
1070
    73
1070
     1
1070
    44
1040
1.0
1070
    74
1070
     0
1000
MTEXTEND
  0
INSERT
  5
1713C
330
165EA
100
AcDbEntity
  8
寸法
 62
     0
 48
50.0
370
    -2
100
AcDbBlockReference
  2
_DOTSMALL
 10
6114.673057123653
 20
7002.851713083285
 30
0.0
 41
100.0
 42
100.0
 43
100.0
  0
INSERT
  5
1713D
330
165EA
100
AcDbEntity
  8
寸法
 62
     0
 48
50.0
370
    -2
100
AcDbBlockReference
  2
_DOTSMALL
 10
6004.67305712364
 20
7002.851713083285
 30
0.0
 41
100.0
 42
100.0
 43
100.0
 50
180.0
  0
POINT
  5
1713E
330
165EA
100
AcDbEntity
  8
DEFPOINTS
 62
     0
 48
50.0
100
AcDbPoint
 10
6114.673057123653
 20
7537.282483849448
 30
0.0
  0
POINT
  5
1713F
330
165EA
100
AcDbEntity
  8
DEFPOINTS
 62
     0
 48
50.0
100
AcDbPoint
 10
6004.67305712364
 20
7537.282483849536
 30
0.0
  0
POINT
  5
17140
330
165EA
100
AcDbEntity
  8
DEFPOINTS
 62
     0
 48
50.0
100
AcDbPoint
 10
6004.67305712364
 20
7002.851713083285
 30
0.0
  0
ENDBLK
  5
16649
330
165EA
100
AcDbEntity
  8
0
 48
50.0
100
AcDbBlockEnd
  0
BLOCK
  5
166AE
330
166AD
100
AcDbEntity
  8
0
 48
50.0
100
AcDbBlockBegin
  2
*D18
 70
     1
 10
0.0
 20
0.0
 30
0.0
  3
*D18
  1

  0
LINE
  5
1712F
330
166AD
100
AcDbEntity
  8
寸法
 62
     0
 48
50.0
370
    -2
100
AcDbLine
 10
3484.673057123663
 20
10187.28248384945
 30
0.0
 11
3484.673057123663
 21
10443.09070347455
 31
0.0
  0
LINE
  5
17130
330
166AD
100
AcDbEntity
  8
寸法
 62
     0
 48
50.0
370
    -2
100
AcDbLine
 10
6004.673057123664
 20
10187.28248384954
 30
0.0
 11
6004.673057123664
 21
10443.09070347455
 31
0.0
  0
LINE
  5
17131
330
166AD
100
AcDbEntity
  8
寸法
 62
     0
 48
50.0
370
    -2
100
AcDbLine
 10
3484.673057123663
 20
10383.09070347455
 30
0.0
 11
6004.673057123664
 21
10383.09070347455
 31
0.0
  0
INSERT
  5
17132
330
166AD
100
AcDbEntity
  8
寸法
 62
     0
 48
50.0
370
    -2
100
AcDbBlockReference
  2
_DOTSMALL
 10
3484.673057123663
 20
10383.09070347455
 30
0.0
 41
100.0
 42
100.0
 43
100.0
 50
180.0
  0
INSERT
  5
17133
330
166AD
100
AcDbEntity
  8
寸法
 62
     0
 48
50.0
370
    -2
100
AcDbBlockReference
  2
_DOTSMALL
 10
6004.673057123664
 20
10383.09070347455
 30
0.0
 41
100.0
 42
100.0
 43
100.0
  0
MTEXT
  5
17134
330
166AD
100
AcDbEntity
  8
寸法
 62
     7
 48
50.0
100
AcDbMText
 10
4744.673057123664
 20
10483.10251449817
 30
0.0
 40
120.0
 41
0.0
 71
     5
 72
     1
  1
\A1;6X420=2520
  7
STYLE1
 73
     1
 44
1.0
1001
ACAD
1000
MTEXTBEGIN
1070
    73
1070
     1
1070
    44
1040
1.0
1070
    74
1070
     0
1000
MTEXTEND
  0
POINT
  5
17135
330
166AD
100
AcDbEntity
  8
DEFPOINTS
 62
     0
 48
50.0
100
AcDbPoint
 10
3484.673057123663
 20
10167.28248384945
 30
0.0
  0
POINT
  5
17136
330
166AD
100
AcDbEntity
  8
DEFPOINTS
 62
     0
 48
50.0
100
AcDbPoint
 10
6004.673057123664
 20
10167.28248384954
 30
0.0
  0
POINT
  5
17137
330
166AD
100
AcDbEntity
  8
DEFPOINTS
 62
     0
 48
50.0
100
AcDbPoint
 10
6004.673057123664
 20
10383.09070347455
 30
0.0
  0
ENDBLK
  5
166B8
330
166AD
100
AcDbEntity
  8
0
 48
50.0
100
AcDbBlockEnd
  0
BLOCK
  5
166D0
330
166CF
100
AcDbEntity
  8
0
 48
50.0
100
AcDbBlockBegin
  2
*D19
 70
     1
 10
0.0
 20
0.0
 30
0.0
  3
*D19
  1

  0
LINE
  5
17124
330
166CF
100
AcDbEntity
  8
寸法
 62
     0
 48
50.0
370
    -2
100
AcDbLine
 10
6114.673057123663
 20
10187.2824838495
 30
0.0
 11
6114.673057123663
 21
10443.09070347455
 31
0.0
  0
LINE
  5
17125
330
166CF
100
AcDbEntity
  8
寸法
 62
     0
 48
50.0
370
    -2
100
AcDbLine
 10
6004.673057123664
 20
10187.2824838495
 30
0.0
 11
6004.673057123664
 21
10443.09070347455
 31
0.0
  0
LINE
  5
17126
330
166CF
100
AcDbEntity
  8
寸法
 62
     0
 48
50.0
370
    -2
100
AcDbLine
 10
6114.673057123663
 20
10383.09070347455
 30
0.0
 11
6214.673057123663
 21
10383.09070347455
 31
0.0
  0
LINE
  5
17127
330
166CF
100
AcDbEntity
  8
寸法
 62
     0
 48
50.0
370
    -2
100
AcDbLine
 10
6004.673057123664
 20
10383.09070347455
 30
0.0
 11
5904.673057123664
 21
10383.09070347455
 31
0.0
  0
LINE
  5
17128
330
166CF
100
AcDbEntity
  8
寸法
 62
     0
 48
50.0
370
    -2
100
AcDbLine
 10
6114.673057123663
 20
10383.09070347455
 30
0.0
 11
6004.673057123664
 21
10383.09070347455
 31
0.0
  0
INSERT
  5
17129
330
166CF
100
AcDbEntity
  8
寸法
 62
     0
 48
50.0
370
    -2
100
AcDbBlockReference
  2
_DOTSMALL
 10
6114.673057123663
 20
10383.09070347455
 30
0.0
 41
100.0
 42
100.0
 43
100.0
 50
180.0
  0
INSERT
  5
1712A
330
166CF
100
AcDbEntity
  8
寸法
 62
     0
 48
50.0
370
    -2
100
AcDbBlockReference
  2
_DOTSMALL
 10
6004.673057123664
 20
10383.09070347455
 30
0.0
 41
100.0
 42
100.0
 43
100.0
  0
MTEXT
  5
1712B
330
166CF
100
AcDbEntity
  8
寸法
 62
     7
 48
50.0
100
AcDbMText
 10
6059.673057123664
 20
10483.09070347455
 30
0.0
 40
120.0
 41
0.0
 71
     5
 72
     1
  1
\A1;110
  7
STYLE1
 73
     1
 44
1.0
1001
ACAD
1000
MTEXTBEGIN
1070
    73
1070
     1
1070
    44
1040
1.0
1070
    74
1070
     0
1000
MTEXTEND
  0
POINT
  5
1712C
330
166CF
100
AcDbEntity
  8
DEFPOINTS
 62
     0
 48
50.0
100
AcDbPoint
 10
6114.673057123663
 20
10167.2824838495
 30
0.0
  0
POINT
  5
1712D
330
166CF
100
AcDbEntity
  8
DEFPOINTS
 62
     0
 48
50.0
100
AcDbPoint
 10
6004.673057123664
 20
10167.2824838495
 30
0.0
  0
POINT
  5
1712E
330
166CF
100
AcDbEntity
  8
DEFPOINTS
 62
     0
 48
50.0
100
AcDbPoint
 10
6004.673057123664
 20
10383.09070347455
 30
0.0
  0
ENDBLK
  5
166DC
330
166CF
100
AcDbEntity
  8
0
 48
50.0
100
AcDbBlockEnd
  0
BLOCK
  5
16948
330
168FB
100
AcDbEntity
  8
0
 48
50.0
100
AcDbBlockBegin
  2
*D20
 70
     1
 10
0.0
 20
0.0
 30
0.0
  3
*D20
  1

  0
LINE
  5
1711B
330
168FB
100
AcDbEntity
  8
寸法
 62
     0
 48
50.0
370
    -2
100
AcDbLine
 10
3429.673057123629
 20
10187.28248384942
 30
0.0
 11
3429.673057123629
 21
10692.41217703084
 31
0.0
  0
LINE
  5
1711C
330
168FB
100
AcDbEntity
  8
寸法
 62
     0
 48
50.0
370
    -2
100
AcDbLine
 10
6059.673057123664
 20
10562.07861783249
 30
0.0
 11
6059.673057123664
 21
10692.41217703084
 31
0.0
  0
LINE
  5
1711D
330
168FB
100
AcDbEntity
  8
寸法
 62
     0
 48
50.0
370
    -2
100
AcDbLine
 10
3429.673057123629
 20
10632.41217703084
 30
0.0
 11
6059.673057123664
 21
10632.41217703084
 31
0.0
  0
INSERT
  5
1711E
330
168FB
100
AcDbEntity
  8
寸法
 62
     0
 48
50.0
370
    -2
100
AcDbBlockReference
  2
_DOTSMALL
 10
3429.673057123629
 20
10632.41217703084
 30
0.0
 41
100.0
 42
100.0
 43
100.0
 50
180.0
  0
INSERT
  5
1711F
330
168FB
100
AcDbEntity
  8
寸法
 62
     0
 48
50.0
370
    -2
100
AcDbBlockReference
  2
_DOTSMALL
 10
6059.673057123664
 20
10632.41217703084
 30
0.0
 41
100.0
 42
100.0
 43
100.0
  0
MTEXT
  5
17120
330
168FB
100
AcDbEntity
  8
寸法
 62
     7
 48
50.0
100
AcDbMText
 10
4744.673057123645
 20
10732.42398805446
 30
0.0
 40
120.0
 41
0.0
 71
     5
 72
     1
  1
\A1;2630
  7
STYLE1
 73
     1
 44
1.0
1001
ACAD
1000
MTEXTBEGIN
1070
    73
1070
     1
1070
    44
1040
1.0
1070
    74
1070
     0
1000
MTEXTEND
  0
POINT
  5
17121
330
168FB
100
AcDbEntity
  8
DEFPOINTS
 62
     0
 48
50.0
100
AcDbPoint
 10
3429.673057123629
 20
10167.28248384942
 30
0.0
  0
POINT
  5
17122
330
168FB
100
AcDbEntity
  8
DEFPOINTS
 62
     0
 48
50.0
100
AcDbPoint
 10
6059.673057123664
 20
10542.07861783249
 30
0.0
  0
POINT
  5
17123
330
168FB
100
AcDbEntity
  8
DEFPOINTS
 62
     0
 48
50.0
100
AcDbPoint
 10
6059.673057123664
 20
10632.41217703084
 30
0.0
  0
ENDBLK
  5
16952
330
168FB
100
AcDbEntity
  8
0
 48
50.0
100
AcDbBlockEnd
  0
BLOCK
  5
1693E
330
16908
100
AcDbEntity
  8
0
 48
50.0
100
AcDbBlockBegin
  2
*D21
 70
     1
 10
0.0
 20
0.0
 30
0.0
  3
*D21
  1

  0
LINE
  5
17113
330
16908
100
AcDbEntity
  8
寸法
 62
     0
 48
50.0
370
    -2
100
AcDbLine
 10
8689.673057123664
 20
10187.28248384954
 30
0.0
 11
8689.673057123664
 21
10692.41217703084
 31
0.0
  0
LINE
  5
17114
330
16908
100
AcDbEntity
  8
寸法
 62
     0
 48
50.0
370
    -2
100
AcDbLine
 10
6059.673057123664
 20
10632.41217703084
 30
0.0
 11
8689.673057123664
 21
10632.41217703084
 31
0.0
  0
INSERT
  5
17115
330
16908
100
AcDbEntity
  8
寸法
 62
     0
 48
50.0
370
    -2
100
AcDbBlockReference
  2
_DOTSMALL
 10
6059.673057123664
 20
10632.41217703084
 30
0.0
 41
100.0
 42
100.0
 43
100.0
 50
180.0
  0
INSERT
  5
17116
330
16908
100
AcDbEntity
  8
寸法
 62
     0
 48
50.0
370
    -2
100
AcDbBlockReference
  2
_DOTSMALL
 10
8689.673057123664
 20
10632.41217703084
 30
0.0
 41
100.0
 42
100.0
 43
100.0
  0
MTEXT
  5
17117
330
16908
100
AcDbEntity
  8
寸法
 62
     7
 48
50.0
100
AcDbMText
 10
7374.673057123664
 20
10732.42398805446
 30
0.0
 40
120.0
 41
0.0
 71
     5
 72
     1
  1
\A1;2630
  7
STYLE1
 73
     1
 44
1.0
1001
ACAD
1000
MTEXTBEGIN
1070
    73
1070
     1
1070
    44
1040
1.0
1070
    74
1070
     0
1000
MTEXTEND
  0
POINT
  5
17118
330
16908
100
AcDbEntity
  8
DEFPOINTS
 62
     0
 48
50.0
100
AcDbPoint
 10
6059.673057123664
 20
10542.07861783249
 30
0.0
  0
POINT
  5
17119
330
16908
100
AcDbEntity
  8
DEFPOINTS
 62
     0
 48
50.0
100
AcDbPoint
 10
8689.673057123664
 20
10167.28248384954
 30
0.0
  0
POINT
  5
1711A
330
16908
100
AcDbEntity
  8
DEFPOINTS
 62
     0
 48
50.0
100
AcDbPoint
 10
8689.673057123664
 20
10632.41217703084
 30
0.0
  0
ENDBLK
  5
16947
330
16908
100
AcDbEntity
  8
0
 48
50.0
100
AcDbBlockEnd
  0
BLOCK
  5
179BB
330
179B1
100
AcDbEntity
  8
0
 48
50.0
100
AcDbBlockBegin
  2
*D22
 70
     1
 10
0.0
 20
0.0
 30
0.0
  3
*D22
  1

  0
LINE
  5
197AC
330
179B1
100
AcDbEntity
  8
寸法
 62
     0
 48
50.0
370
    -2
100
AcDbLine
 10
3379.673057123655
 20
5031.641517987083
 30
0.0
 11
3379.673057123655
 21
5687.260786944996
 31
0.0
  0
LINE
  5
197AD
330
179B1
100
AcDbEntity
  8
寸法
 62
     0
 48
50.0
370
    -2
100
AcDbLine
 10
8739.673057123654
 20
5031.641517987081
 30
0.0
 11
8739.673057123654
 21
5687.260786944996
 31
0.0
  0
LINE
  5
197AE
330
179B1
100
AcDbEntity
  8
寸法
 62
     0
 48
50.0
370
    -2
100
AcDbLine
 10
3379.673057123655
 20
5627.260786944997
 30
0.0
 11
8739.673057123654
 21
5627.260786944997
 31
0.0
  0
INSERT
  5
197AF
330
179B1
100
AcDbEntity
  8
寸法
 62
     0
 48
50.0
370
    -2
100
AcDbBlockReference
  2
_DOTSMALL
 10
3379.673057123655
 20
5627.260786944997
 30
0.0
 41
100.0
 42
100.0
 43
100.0
 50
180.0
  0
INSERT
  5
197B0
330
179B1
100
AcDbEntity
  8
寸法
 62
     0
 48
50.0
370
    -2
100
AcDbBlockReference
  2
_DOTSMALL
 10
8739.673057123654
 20
5627.260786944997
 30
0.0
 41
100.0
 42
100.0
 43
100.0
  0
MTEXT
  5
197B1
330
179B1
100
AcDbEntity
  8
寸法
 62
     7
 48
50.0
100
AcDbMText
 10
6059.673057123655
 20
5727.260786944997
 30
0.0
 40
120.0
 41
0.0
 71
     5
 72
     1
  1
\A1;5360
  7
STYLE1
 73
     1
 44
1.0
1001
ACAD
1000
MTEXTBEGIN
1070
    73
1070
     1
1070
    44
1040
1.0
1070
    74
1070
     0
1000
MTEXTEND
  0
POINT
  5
197B2
330
179B1
100
AcDbEntity
  8
DEFPOINTS
 62
     0
 48
50.0
100
AcDbPoint
 10
3379.673057123655
 20
5011.641517987083
 30
0.0
  0
POINT
  5
197B3
330
179B1
100
AcDbEntity
  8
DEFPOINTS
 62
     0
 48
50.0
100
AcDbPoint
 10
8739.673057123654
 20
5011.641517987081
 30
0.0
  0
POINT
  5
197B4
330
179B1
100
AcDbEntity
  8
DEFPOINTS
 62
     0
 48
50.0
100
AcDbPoint
 10
8739.673057123654
 20
5627.260786944997
 30
0.0
  0
ENDBLK
  5
179BC
330
179B1
100
AcDbEntity
  8
0
 48
50.0
100
AcDbBlockEnd
  0
BLOCK
  5
179C9
330
179BD
100
AcDbEntity
  8
0
 48
50.0
100
AcDbBlockBegin
  2
*D23
 70
     1
 10
0.0
 20
0.0
 30
0.0
  3
*D23
  1

  0
LINE
  5
17D12
330
179BD
100
AcDbEntity
  8
寸法
 62
     0
 48
50.0
370
    -2
100
AcDbLine
 10
8739.673057123654
 20
5031.641517987081
 30
0.0
 11
8739.673057123654
 21
5470.734687326551
 31
0.0
  0
LINE
  5
17D13
330
179BD
100
AcDbEntity
  8
寸法
 62
     0
 48
50.0
370
    -2
100
AcDbLine
 10
8689.673057123654
 20
5031.641517987083
 30
0.0
 11
8689.673057123654
 21
5470.734687326551
 31
0.0
  0
LINE
  5
17D14
330
179BD
100
AcDbEntity
  8
寸法
 62
     0
 48
50.0
370
    -2
100
AcDbLine
 10
8689.673057123654
 20
5410.734687326551
 30
0.0
 11
8589.673057123654
 21
5410.734687326551
 31
0.0
  0
LINE
  5
17D15
330
179BD
100
AcDbEntity
  8
寸法
 62
     0
 48
50.0
370
    -2
100
AcDbLine
 10
8739.673057123654
 20
5410.734687326551
 30
0.0
 11
9159.205582592377
 21
5410.734687326551
 31
0.0
  0
LINE
  5
17D16
330
179BD
100
AcDbEntity
  8
寸法
 62
     0
 48
50.0
370
    -2
100
AcDbLine
 10
8689.673057123654
 20
5410.734687326551
 30
0.0
 11
8739.673057123654
 21
5410.734687326551
 31
0.0
  0
INSERT
  5
17D17
330
179BD
100
AcDbEntity
  8
寸法
 62
     0
 48
50.0
370
    -2
100
AcDbBlockReference
  2
_DOTSMALL
 10
8689.673057123654
 20
5410.734687326551
 30
0.0
 41
100.0
 42
100.0
 43
100.0
  0
INSERT
  5
17D18
330
179BD
100
AcDbEntity
  8
寸法
 62
     0
 48
50.0
370
    -2
100
AcDbBlockReference
  2
_DOTSMALL
 10
8739.673057123654
 20
5410.734687326551
 30
0.0
 41
100.0
 42
100.0
 43
100.0
 50
180.0
  0
MTEXT
  5
17D19
330
179BD
100
AcDbEntity
  8
寸法
 62
     7
 48
50.0
100
AcDbMText
 10
9053.158338497892
 20
5510.734687326551
 30
0.0
 40
120.0
 41
0.0
 71
     5
 72
     1
  1
\A1;50
  7
STYLE1
 73
     1
 44
1.0
1001
ACAD
1000
MTEXTBEGIN
1070
    73
1070
     1
1070
    44
1040
1.0
1070
    74
1070
     0
1000
MTEXTEND
  0
POINT
  5
17D1A
330
179BD
100
AcDbEntity
  8
DEFPOINTS
 62
     0
 48
50.0
100
AcDbPoint
 10
8739.673057123654
 20
5011.641517987081
 30
0.0
  0
POINT
  5
17D1B
330
179BD
100
AcDbEntity
  8
DEFPOINTS
 62
     0
 48
50.0
100
AcDbPoint
 10
8689.673057123654
 20
5011.641517987083
 30
0.0
  0
POINT
  5
17D1C
330
179BD
100
AcDbEntity
  8
DEFPOINTS
 62
     0
 48
50.0
100
AcDbPoint
 10
8689.673057123654
 20
5410.734687326551
 30
0.0
  0
ENDBLK
  5
179CA
330
179BD
100
AcDbEntity
  8
0
 48
50.0
100
AcDbBlockEnd
  0
BLOCK
  5
179D5
330
179CB
100
AcDbEntity
  8
0
 48
50.0
100
AcDbBlockBegin
  2
*D24
 70
     1
 10
0.0
 20
0.0
 30
0.0
  3
*D24
  1

  0
LINE
  5
197B5
330
179CB
100
AcDbEntity
  8
寸法
 62
     0
 48
50.0
370
    -2
100
AcDbLine
 10
8689.673057123654
 20
5031.641517987083
 30
0.0
 11
8689.673057123654
 21
5470.734687326551
 31
0.0
  0
LINE
  5
197B6
330
179CB
100
AcDbEntity
  8
寸法
 62
     0
 48
50.0
370
    -2
100
AcDbLine
 10
3429.673057123655
 20
5031.641517987084
 30
0.0
 11
3429.673057123655
 21
5470.734687326551
 31
0.0
  0
LINE
  5
197B7
330
179CB
100
AcDbEntity
  8
寸法
 62
     0
 48
50.0
370
    -2
100
AcDbLine
 10
8689.673057123654
 20
5410.734687326551
 30
0.0
 11
3429.673057123655
 21
5410.734687326551
 31
0.0
  0
INSERT
  5
197B8
330
179CB
100
AcDbEntity
  8
寸法
 62
     0
 48
50.0
370
    -2
100
AcDbBlockReference
  2
_DOTSMALL
 10
8689.673057123654
 20
5410.734687326551
 30
0.0
 41
100.0
 42
100.0
 43
100.0
  0
INSERT
  5
197B9
330
179CB
100
AcDbEntity
  8
寸法
 62
     0
 48
50.0
370
    -2
100
AcDbBlockReference
  2
_DOTSMALL
 10
3429.673057123655
 20
5410.734687326551
 30
0.0
 41
100.0
 42
100.0
 43
100.0
 50
180.0
  0
MTEXT
  5
197BA
330
179CB
100
AcDbEntity
  8
寸法
 62
     7
 48
50.0
100
AcDbMText
 10
6059.673057123655
 20
5510.746498350173
 30
0.0
 40
120.0
 41
0.0
 71
     5
 72
     1
  1
\A1;柱外寸法5260
  7
STYLE1
 73
     1
 44
1.0
1001
ACAD
1000
MTEXTBEGIN
1070
    73
1070
     1
1070
    44
1040
1.0
1070
    74
1070
     0
1000
MTEXTEND
  0
POINT
  5
197BB
330
179CB
100
AcDbEntity
  8
DEFPOINTS
 62
     0
 48
50.0
100
AcDbPoint
 10
8689.673057123654
 20
5011.641517987083
 30
0.0
  0
POINT
  5
197BC
330
179CB
100
AcDbEntity
  8
DEFPOINTS
 62
     0
 48
50.0
100
AcDbPoint
 10
3429.673057123655
 20
5011.641517987085
 30
0.0
  0
POINT
  5
197BD
330
179CB
100
AcDbEntity
  8
DEFPOINTS
 62
     0
 48
50.0
100
AcDbPoint
 10
3429.673057123655
 20
5410.734687326551
 30
0.0
  0
ENDBLK
  5
179D6
330
179CB
100
AcDbEntity
  8
0
 48
50.0
100
AcDbBlockEnd
  0
BLOCK
  5
17A16
330
17A0A
100
AcDbEntity
  8
0
 48
50.0
100
AcDbBlockBegin
  2
*D25
 70
     1
 10
0.0
 20
0.0
 30
0.0
  3
*D25
  1

  0
LINE
  5
17CD7
330
17A0A
100
AcDbEntity
  8
寸法
 62
     0
 48
50.0
370
    -2
100
AcDbLine
 10
3429.673057123655
 20
5031.641517987084
 30
0.0
 11
3429.673057123655
 21
5470.734687326551
 31
0.0
  0
LINE
  5
17CD8
330
17A0A
100
AcDbEntity
  8
寸法
 62
     0
 48
50.0
370
    -2
100
AcDbLine
 10
3379.673057123655
 20
5031.641517987083
 30
0.0
 11
3379.673057123655
 21
5470.734687326551
 31
0.0
  0
LINE
  5
17CD9
330
17A0A
100
AcDbEntity
  8
寸法
 62
     0
 48
50.0
370
    -2
100
AcDbLine
 10
3429.673057123655
 20
5410.734687326551
 30
0.0
 11
3529.673057123655
 21
5410.734687326551
 31
0.0
  0
LINE
  5
17CDA
330
17A0A
100
AcDbEntity
  8
寸法
 62
     0
 48
50.0
370
    -2
100
AcDbLine
 10
3379.673057123655
 20
5410.734687326551
 30
0.0
 11
2960.14053165492
 21
5410.734687326551
 31
0.0
  0
LINE
  5
17CDB
330
17A0A
100
AcDbEntity
  8
寸法
 62
     0
 48
50.0
370
    -2
100
AcDbLine
 10
3429.673057123655
 20
5410.734687326551
 30
0.0
 11
3379.673057123655
 21
5410.734687326551
 31
0.0
  0
INSERT
  5
17CDC
330
17A0A
100
AcDbEntity
  8
寸法
 62
     0
 48
50.0
370
    -2
100
AcDbBlockReference
  2
_DOTSMALL
 10
3429.673057123655
 20
5410.734687326551
 30
0.0
 41
100.0
 42
100.0
 43
100.0
 50
180.0
  0
INSERT
  5
17CDD
330
17A0A
100
AcDbEntity
  8
寸法
 62
     0
 48
50.0
370
    -2
100
AcDbBlockReference
  2
_DOTSMALL
 10
3379.673057123655
 20
5410.734687326551
 30
0.0
 41
100.0
 42
100.0
 43
100.0
  0
MTEXT
  5
17CDE
330
17A0A
100
AcDbEntity
  8
寸法
 62
     7
 48
50.0
100
AcDbMText
 10
3066.187775749408
 20
5510.734687326551
 30
0.0
 40
120.0
 41
0.0
 71
     5
 72
     1
  1
\A1;50
  7
STYLE1
 73
     1
 44
1.0
1001
ACAD
1000
MTEXTBEGIN
1070
    73
1070
     1
1070
    44
1040
1.0
1070
    74
1070
     0
1000
MTEXTEND
  0
POINT
  5
17CDF
330
17A0A
100
AcDbEntity
  8
DEFPOINTS
 62
     0
 48
50.0
100
AcDbPoint
 10
3429.673057123655
 20
5011.641517987085
 30
0.0
  0
POINT
  5
17CE0
330
17A0A
100
AcDbEntity
  8
DEFPOINTS
 62
     0
 48
50.0
100
AcDbPoint
 10
3379.673057123655
 20
5011.641517987083
 30
0.0
  0
POINT
  5
17CE1
330
17A0A
100
AcDbEntity
  8
DEFPOINTS
 62
     0
 48
50.0
100
AcDbPoint
 10
3379.673057123655
 20
5410.734687326551
 30
0.0
  0
ENDBLK
  5
17A17
330
17A0A
100
AcDbEntity
  8
0
 48
50.0
100
AcDbBlockEnd
  0
BLOCK
  5
18A65
330
18A5A
100
AcDbEntity
  8
0
 48
50.0
100
AcDbBlockBegin
  2
*D26
 70
     1
 10
0.0
 20
0.0
 30
0.0
  3
*D26
  1

  0
LINE
  5
18D88
330
18A5A
100
AcDbEntity
  8
寸法
 62
     0
 48
50.0
370
    -2
100
AcDbLine
 10
11256.25411680435
 20
5010.939225056738
 30
0.0
 11
10640.31967769906
 21
5028.653375331067
 31
0.0
  0
LINE
  5
18D89
330
18A5A
100
AcDbEntity
  8
寸法
 62
     0
 48
50.0
370
    -2
100
AcDbLine
 10
11252.20066124772
 20
4869.997501291024
 30
0.0
 11
10636.26622214244
 21
4887.711651565354
 31
0.0
  0
LINE
  5
18D8A
330
18A5A
100
AcDbEntity
  8
寸法
 62
     0
 48
50.0
370
    -2
100
AcDbLine
 10
10696.24142374487
 20
4885.986776860406
 30
0.0
 11
10700.29487930149
 21
5026.928500626119
 31
0.0
  0
LINE
  5
18D8B
330
18A5A
100
AcDbEntity
  8
寸法
 62
     0
 48
50.0
370
    -2
100
AcDbLine
 10
10700.29487930149
 20
5026.928500626119
 30
0.0
 11
10710.64412753118
 21
5386.779710240706
 31
0.0
  0
INSERT
  5
18D8C
330
18A5A
100
AcDbEntity
  8
寸法
 62
     0
 48
50.0
370
    -2
100
AcDbBlockReference
  2
_DOTSMALL
 10
10696.24142374487
 20
4885.986776860406
 30
0.0
 41
100.0
 42
100.0
 43
100.0
 50
268.3526390256378
  0
INSERT
  5
18D8D
330
18A5A
100
AcDbEntity
  8
寸法
 62
     0
 48
50.0
370
    -2
100
AcDbBlockReference
  2
_DOTSMALL
 10
10700.29487930149
 20
5026.928500626119
 30
0.0
 41
100.0
 42
100.0
 43
100.0
 50
88.35263902563776
  0
MTEXT
  5
18D8E
330
18A5A
100
AcDbEntity
  8
寸法
 62
     7
 48
50.0
100
AcDbMText
 10
10606.94822966641
 20
5259.708231277019
 30
0.0
 40
120.0
 41
0.0
 71
     5
 72
     1
  1
\A1;141
  7
STYLE1
 11
0.0287479117491237
 21
0.9995866933738488
 31
0.0
 73
     1
 44
1.0
1001
ACAD
1000
MTEXTBEGIN
1070
    73
1070
     1
1070
    44
1040
1.0
1070
    74
1070
     0
1000
MTEXTEND
  0
POINT
  5
18D8F
330
18A5A
100
AcDbEntity
  8
DEFPOINTS
 62
     0
 48
50.0
100
AcDbPoint
 10
11276.24585067182
 20
5010.364266821754
 30
0.0
  0
POINT
  5
18D90
330
18A5A
100
AcDbEntity
  8
DEFPOINTS
 62
     0
 48
50.0
100
AcDbPoint
 10
11272.19239511519
 20
4869.422543056042
 30
0.0
  0
POINT
  5
18D91
330
18A5A
100
AcDbEntity
  8
DEFPOINTS
 62
     0
 48
50.0
100
AcDbPoint
 10
10696.24142374487
 20
4885.986776860406
 30
0.0
  0
ENDBLK
  5
18A66
330
18A5A
100
AcDbEntity
  8
0
 48
50.0
100
AcDbBlockEnd
  0
BLOCK
  5
18A72
330
18A67
100
AcDbEntity
  8
0
 48
50.0
100
AcDbBlockBegin
  2
*D27
 70
     1
 10
0.0
 20
0.0
 30
0.0
  3
*D27
  1

  0
LINE
  5
18D7E
330
18A67
100
AcDbEntity
  8
寸法
 62
     0
 48
50.0
370
    -2
100
AcDbLine
 10
13946.84983051324
 20
4978.452197598729
 30
0.0
 11
13946.84983051324
 21
5470.298971566382
 31
0.0
  0
LINE
  5
18D7F
330
18A67
100
AcDbEntity
  8
寸法
 62
     0
 48
50.0
370
    -2
100
AcDbLine
 10
14026.84983051324
 20
4976.641517987077
 30
0.0
 11
14026.84983051324
 21
5470.298971566382
 31
0.0
  0
LINE
  5
18D80
330
18A67
100
AcDbEntity
  8
寸法
 62
     0
 48
50.0
370
    -2
100
AcDbLine
 10
13946.84983051324
 20
5410.298971566382
 30
0.0
 11
14026.84983051324
 21
5410.298971566382
 31
0.0
  0
LINE
  5
18D81
330
18A67
100
AcDbEntity
  8
寸法
 62
     0
 48
50.0
370
    -2
100
AcDbLine
 10
14026.84983051324
 20
5410.298971566382
 30
0.0
 11
14338.94431870222
 21
5410.298971566382
 31
0.0
  0
INSERT
  5
18D82
330
18A67
100
AcDbEntity
  8
寸法
 62
     0
 48
50.0
370
    -2
100
AcDbBlockReference
  2
_DOTSMALL
 10
13946.84983051324
 20
5410.298971566382
 30
0.0
 41
100.0
 42
100.0
 43
100.0
 50
180.0
  0
INSERT
  5
18D83
330
18A67
100
AcDbEntity
  8
寸法
 62
     0
 48
50.0
370
    -2
100
AcDbBlockReference
  2
_DOTSMALL
 10
14026.84983051324
 20
5410.298971566382
 30
0.0
 41
100.0
 42
100.0
 43
100.0
  0
MTEXT
  5
18D84
330
18A67
100
AcDbEntity
  8
寸法
 62
     7
 48
50.0
100
AcDbMText
 10
14232.89707460773
 20
5510.298971566381
 30
0.0
 40
120.0
 41
0.0
 71
     5
 72
     1
  1
\A1;80
  7
STYLE1
 73
     1
 44
1.0
1001
ACAD
1000
MTEXTBEGIN
1070
    73
1070
     1
1070
    44
1040
1.0
1070
    74
1070
     0
1000
MTEXTEND
  0
POINT
  5
18D85
330
18A67
100
AcDbEntity
  8
DEFPOINTS
 62
     0
 48
50.0
100
AcDbPoint
 10
13946.84983051324
 20
4958.452197598729
 30
0.0
  0
POINT
  5
18D86
330
18A67
100
AcDbEntity
  8
DEFPOINTS
 62
     0
 48
50.0
100
AcDbPoint
 10
14026.84983051324
 20
4956.641517987077
 30
0.0
  0
POINT
  5
18D87
330
18A67
100
AcDbEntity
  8
DEFPOINTS
 62
     0
 48
50.0
100
AcDbPoint
 10
14026.84983051324
 20
5410.298971566382
 30
0.0
  0
ENDBLK
  5
18A73
330
18A67
100
AcDbEntity
  8
0
 48
50.0
100
AcDbBlockEnd
  0
BLOCK
  5
18A7E
330
18A74
100
AcDbEntity
  8
0
 48
50.0
100
AcDbBlockBegin
  2
*D28
 70
     1
 10
0.0
 20
0.0
 30
0.0
  3
*D28
  1

  0
LINE
  5
1979A
330
18A74
100
AcDbEntity
  8
寸法
 62
     0
 48
50.0
370
    -2
100
AcDbLine
 10
14026.84983051324
 20
4976.641517987077
 30
0.0
 11
14026.84983051324
 21
5690.509658297997
 31
0.0
  0
LINE
  5
1979B
330
18A74
100
AcDbEntity
  8
寸法
 62
     0
 48
50.0
370
    -2
100
AcDbLine
 10
11256.84983051324
 20
5031.641517987081
 30
0.0
 11
11256.84983051324
 21
5690.509658297997
 31
0.0
  0
LINE
  5
1979C
330
18A74
100
AcDbEntity
  8
寸法
 62
     0
 48
50.0
370
    -2
100
AcDbLine
 10
14026.84983051324
 20
5630.509658297998
 30
0.0
 11
11256.84983051324
 21
5630.509658297998
 31
0.0
  0
INSERT
  5
1979D
330
18A74
100
AcDbEntity
  8
寸法
 62
     0
 48
50.0
370
    -2
100
AcDbBlockReference
  2
_DOTSMALL
 10
14026.84983051324
 20
5630.509658297998
 30
0.0
 41
100.0
 42
100.0
 43
100.0
  0
INSERT
  5
1979E
330
18A74
100
AcDbEntity
  8
寸法
 62
     0
 48
50.0
370
    -2
100
AcDbBlockReference
  2
_DOTSMALL
 10
11256.84983051324
 20
5630.509658297998
 30
0.0
 41
100.0
 42
100.0
 43
100.0
 50
180.0
  0
MTEXT
  5
1979F
330
18A74
100
AcDbEntity
  8
寸法
 62
     7
 48
50.0
100
AcDbMText
 10
12641.84983051324
 20
5730.521469321619
 30
0.0
 40
120.0
 41
0.0
 71
     5
 72
     1
  1
\A1;2770
  7
STYLE1
 73
     1
 44
1.0
1001
ACAD
1000
MTEXTBEGIN
1070
    73
1070
     1
1070
    44
1040
1.0
1070
    74
1070
     0
1000
MTEXTEND
  0
POINT
  5
197A0
330
18A74
100
AcDbEntity
  8
DEFPOINTS
 62
     0
 48
50.0
100
AcDbPoint
 10
14026.84983051324
 20
4956.641517987077
 30
0.0
  0
POINT
  5
197A1
330
18A74
100
AcDbEntity
  8
DEFPOINTS
 62
     0
 48
50.0
100
AcDbPoint
 10
11256.84983051324
 20
5011.641517987081
 30
0.0
  0
POINT
  5
197A2
330
18A74
100
AcDbEntity
  8
DEFPOINTS
 62
     0
 48
50.0
100
AcDbPoint
 10
11256.84983051324
 20
5630.509658297998
 30
0.0
  0
ENDBLK
  5
18A7F
330
18A74
100
AcDbEntity
  8
0
 48
50.0
100
AcDbBlockEnd
  0
BLOCK
  5
18A8C
330
18A80
100
AcDbEntity
  8
0
 48
50.0
100
AcDbBlockBegin
  2
*D29
 70
     1
 10
0.0
 20
0.0
 30
0.0
  3
*D29
  1

  0
LINE
  5
18D6A
330
18A80
100
AcDbEntity
  8
寸法
 62
     0
 48
50.0
370
    -2
100
AcDbLine
 10
11316.84983051324
 20
5027.643136110052
 30
0.0
 11
11316.84983051324
 21
5470.298971566379
 31
0.0
  0
LINE
  5
18D6B
330
18A80
100
AcDbEntity
  8
寸法
 62
     0
 48
50.0
370
    -2
100
AcDbLine
 10
11256.84983051324
 20
5031.641517987081
 30
0.0
 11
11256.84983051324
 21
5470.298971566379
 31
0.0
  0
LINE
  5
18D6C
330
18A80
100
AcDbEntity
  8
寸法
 62
     0
 48
50.0
370
    -2
100
AcDbLine
 10
11316.84983051324
 20
5410.29897156638
 30
0.0
 11
11416.84983051324
 21
5410.29897156638
 31
0.0
  0
LINE
  5
18D6D
330
18A80
100
AcDbEntity
  8
寸法
 62
     0
 48
50.0
370
    -2
100
AcDbLine
 10
11256.84983051324
 20
5410.29897156638
 30
0.0
 11
10837.57423996206
 21
5410.29897156638
 31
0.0
  0
LINE
  5
18D6E
330
18A80
100
AcDbEntity
  8
寸法
 62
     0
 48
50.0
370
    -2
100
AcDbLine
 10
11316.84983051324
 20
5410.29897156638
 30
0.0
 11
11256.84983051324
 21
5410.29897156638
 31
0.0
  0
INSERT
  5
18D6F
330
18A80
100
AcDbEntity
  8
寸法
 62
     0
 48
50.0
370
    -2
100
AcDbBlockReference
  2
_DOTSMALL
 10
11316.84983051324
 20
5410.29897156638
 30
0.0
 41
100.0
 42
100.0
 43
100.0
 50
180.0
  0
INSERT
  5
18D70
330
18A80
100
AcDbEntity
  8
寸法
 62
     0
 48
50.0
370
    -2
100
AcDbBlockReference
  2
_DOTSMALL
 10
11256.84983051324
 20
5410.29897156638
 30
0.0
 41
100.0
 42
100.0
 43
100.0
  0
MTEXT
  5
18D71
330
18A80
100
AcDbEntity
  8
寸法
 62
     7
 48
50.0
100
AcDbMText
 10
10947.21203523765
 20
5510.298971566379
 30
0.0
 40
120.0
 41
0.0
 71
     5
 72
     1
  1
\A1;60
  7
STYLE1
 73
     1
 44
1.0
1001
ACAD
1000
MTEXTBEGIN
1070
    73
1070
     1
1070
    44
1040
1.0
1070
    74
1070
     0
1000
MTEXTEND
  0
POINT
  5
18D72
330
18A80
100
AcDbEntity
  8
DEFPOINTS
 62
     0
 48
50.0
100
AcDbPoint
 10
11316.84983051324
 20
5007.643136110052
 30
0.0
  0
POINT
  5
18D73
330
18A80
100
AcDbEntity
  8
DEFPOINTS
 62
     0
 48
50.0
100
AcDbPoint
 10
11256.84983051324
 20
5011.641517987081
 30
0.0
  0
POINT
  5
18D74
330
18A80
100
AcDbEntity
  8
DEFPOINTS
 62
     0
 48
50.0
100
AcDbPoint
 10
11256.84983051324
 20
5410.29897156638
 30
0.0
  0
ENDBLK
  5
18A8D
330
18A80
100
AcDbEntity
  8
0
 48
50.0
100
AcDbBlockEnd
  0
BLOCK
  5
18A98
330
18A8E
100
AcDbEntity
  8
0
 48
50.0
100
AcDbBlockBegin
  2
*D30
 70
     1
 10
0.0
 20
0.0
 30
0.0
  3
*D30
  1

  0
LINE
  5
197A3
330
18A8E
100
AcDbEntity
  8
寸法
 62
     0
 48
50.0
370
    -2
100
AcDbLine
 10
13946.84983051324
 20
4978.452197598729
 30
0.0
 11
13946.84983051324
 21
5470.298971566382
 31
0.0
  0
LINE
  5
197A4
330
18A8E
100
AcDbEntity
  8
寸法
 62
     0
 48
50.0
370
    -2
100
AcDbLine
 10
11316.84983051324
 20
5027.643136110052
 30
0.0
 11
11316.84983051324
 21
5470.298971566382
 31
0.0
  0
LINE
  5
197A5
330
18A8E
100
AcDbEntity
  8
寸法
 62
     0
 48
50.0
370
    -2
100
AcDbLine
 10
13946.84983051324
 20
5410.298971566382
 30
0.0
 11
11316.84983051324
 21
5410.298971566382
 31
0.0
  0
INSERT
  5
197A6
330
18A8E
100
AcDbEntity
  8
寸法
 62
     0
 48
50.0
370
    -2
100
AcDbBlockReference
  2
_DOTSMALL
 10
13946.84983051324
 20
5410.298971566382
 30
0.0
 41
100.0
 42
100.0
 43
100.0
  0
INSERT
  5
197A7
330
18A8E
100
AcDbEntity
  8
寸法
 62
     0
 48
50.0
370
    -2
100
AcDbBlockReference
  2
_DOTSMALL
 10
11316.84983051324
 20
5410.298971566382
 30
0.0
 41
100.0
 42
100.0
 43
100.0
 50
180.0
  0
MTEXT
  5
197A8
330
18A8E
100
AcDbEntity
  8
寸法
 62
     7
 48
50.0
100
AcDbMText
 10
12631.84983051324
 20
5510.310782590003
 30
0.0
 40
120.0
 41
0.0
 71
     5
 72
     1
  1
\A1;柱外寸法2630
  7
STYLE1
 73
     1
 44
1.0
1001
ACAD
1000
MTEXTBEGIN
1070
    73
1070
     1
1070
    44
1040
1.0
1070
    74
1070
     0
1000
MTEXTEND
  0
POINT
  5
197A9
330
18A8E
100
AcDbEntity
  8
DEFPOINTS
 62
     0
 48
50.0
100
AcDbPoint
 10
13946.84983051324
 20
4958.452197598729
 30
0.0
  0
POINT
  5
197AA
330
18A8E
100
AcDbEntity
  8
DEFPOINTS
 62
     0
 48
50.0
100
AcDbPoint
 10
11316.84983051324
 20
5007.643136110052
 30
0.0
  0
POINT
  5
197AB
330
18A8E
100
AcDbEntity
  8
DEFPOINTS
 62
     0
 48
50.0
100
AcDbPoint
 10
11316.84983051324
 20
5410.298971566382
 30
0.0
  0
ENDBLK
  5
18A99
330
18A8E
100
AcDbEntity
  8
0
 48
50.0
100
AcDbBlockEnd
  0
BLOCK
  5
18AA6
330
18A9A
100
AcDbEntity
  8
0
 48
50.0
100
AcDbBlockBegin
  2
*D31
 70
     1
 10
0.0
 20
0.0
 30
0.0
  3
*D31
  1

  0
LINE
  5
18D56
330
18A9A
100
AcDbEntity
  8
寸法
 62
     0
 48
50.0
370
    -2
100
AcDbLine
 10
11296.84983051324
 20
2686.641517987077
 30
0.0
 11
10413.09970132998
 21
2686.641517987077
 31
0.0
  0
LINE
  5
18D57
330
18A9A
100
AcDbEntity
  8
寸法
 62
     0
 48
50.0
370
    -2
100
AcDbLine
 10
11241.84983051324
 20
2636.641517987076
 30
0.0
 11
10413.09970132998
 21
2636.641517987076
 31
0.0
  0
LINE
  5
18D58
330
18A9A
100
AcDbEntity
  8
寸法
 62
     0
 48
50.0
370
    -2
100
AcDbLine
 10
10473.09970132998
 20
2686.641517987077
 30
0.0
 11
10473.09970132998
 21
2786.641517987077
 31
0.0
  0
LINE
  5
18D59
330
18A9A
100
AcDbEntity
  8
寸法
 62
     0
 48
50.0
370
    -2
100
AcDbLine
 10
10473.09970132998
 20
2636.641517987076
 30
0.0
 11
10473.09970132998
 21
2224.547029798096
 31
0.0
  0
LINE
  5
18D5A
330
18A9A
100
AcDbEntity
  8
寸法
 62
     0
 48
50.0
370
    -2
100
AcDbLine
 10
10473.09970132998
 20
2686.641517987077
 30
0.0
 11
10473.09970132998
 21
2636.641517987076
 31
0.0
  0
INSERT
  5
18D5B
330
18A9A
100
AcDbEntity
  8
寸法
 62
     0
 48
50.0
370
    -2
100
AcDbBlockReference
  2
_DOTSMALL
 10
10473.09970132998
 20
2686.641517987077
 30
0.0
 41
100.0
 42
100.0
 43
100.0
 50
270.0
  0
INSERT
  5
18D5C
330
18A9A
100
AcDbEntity
  8
寸法
 62
     0
 48
50.0
370
    -2
100
AcDbBlockReference
  2
_DOTSMALL
 10
10473.09970132998
 20
2636.641517987076
 30
0.0
 41
100.0
 42
100.0
 43
100.0
 50
90.0
  0
MTEXT
  5
18D5D
330
18A9A
100
AcDbEntity
  8
寸法
 62
     7
 48
50.0
100
AcDbMText
 10
10373.09970132998
 20
2330.594273892586
 30
0.0
 40
120.0
 41
0.0
 71
     5
 72
     1
  1
\A1;50
  7
STYLE1
 11
0.0000000000000001
 21
1.0
 31
0.0
 73
     1
 44
1.0
1001
ACAD
1000
MTEXTBEGIN
1070
    73
1070
     1
1070
    44
1040
1.0
1070
    74
1070
     0
1000
MTEXTEND
  0
POINT
  5
18D5E
330
18A9A
100
AcDbEntity
  8
DEFPOINTS
 62
     0
 48
50.0
100
AcDbPoint
 10
11316.84983051324
 20
2686.641517987077
 30
0.0
  0
POINT
  5
18D5F
330
18A9A
100
AcDbEntity
  8
DEFPOINTS
 62
     0
 48
50.0
100
AcDbPoint
 10
11261.84983051324
 20
2636.641517987076
 30
0.0
  0
POINT
  5
18D60
330
18A9A
100
AcDbEntity
  8
DEFPOINTS
 62
     0
 48
50.0
100
AcDbPoint
 10
10473.09970132998
 20
2636.641517987076
 30
0.0
  0
ENDBLK
  5
18AA7
330
18A9A
100
AcDbEntity
  8
0
 48
50.0
100
AcDbBlockEnd
  0
BLOCK
  5
18ABF
330
18AB5
100
AcDbEntity
  8
0
 48
50.0
100
AcDbBlockBegin
  2
*D32
 70
     1
 10
0.0
 20
0.0
 30
0.0
  3
*D32
  1

  0
LINE
  5
18D43
330
18AB5
100
AcDbEntity
  8
寸法
 62
     0
 48
50.0
370
    -2
100
AcDbLine
 10
13966.84983051324
 20
2636.641517987076
 30
0.0
 11
14711.77698848537
 21
2636.641517987076
 31
0.0
  0
LINE
  5
18D44
330
18AB5
100
AcDbEntity
  8
寸法
 62
     0
 48
50.0
370
    -2
100
AcDbLine
 10
14046.84983051324
 20
4956.641517987077
 30
0.0
 11
14711.77698848537
 21
4956.641517987076
 31
0.0
  0
LINE
  5
18D45
330
18AB5
100
AcDbEntity
  8
寸法
 62
     0
 48
50.0
370
    -2
100
AcDbLine
 10
14651.77698848537
 20
2636.641517987076
 30
0.0
 11
14651.77698848537
 21
4956.641517987076
 31
0.0
  0
INSERT
  5
18D46
330
18AB5
100
AcDbEntity
  8
寸法
 62
     0
 48
50.0
370
    -2
100
AcDbBlockReference
  2
_DOTSMALL
 10
14651.77698848537
 20
2636.641517987076
 30
0.0
 41
100.0
 42
100.0
 43
100.0
 50
270.0
  0
INSERT
  5
18D47
330
18AB5
100
AcDbEntity
  8
寸法
 62
     0
 48
50.0
370
    -2
100
AcDbBlockReference
  2
_DOTSMALL
 10
14651.77698848537
 20
4956.641517987076
 30
0.0
 41
100.0
 42
100.0
 43
100.0
 50
90.0
  0
MTEXT
  5
18D48
330
18AB5
100
AcDbEntity
  8
寸法
 62
     7
 48
50.0
100
AcDbMText
 10
14551.76517746175
 20
3796.64151798708
 30
0.0
 40
120.0
 41
0.0
 71
     5
 72
     1
  1
\A1;2320
  7
STYLE1
 11
0.0000000000000001
 21
1.0
 31
0.0
 73
     1
 44
1.0
1001
ACAD
1000
MTEXTBEGIN
1070
    73
1070
     1
1070
    44
1040
1.0
1070
    74
1070
     0
1000
MTEXTEND
  0
POINT
  5
18D49
330
18AB5
100
AcDbEntity
  8
DEFPOINTS
 62
     0
 48
50.0
100
AcDbPoint
 10
13946.84983051324
 20
2636.641517987076
 30
0.0
  0
POINT
  5
18D4A
330
18AB5
100
AcDbEntity
  8
DEFPOINTS
 62
     0
 48
50.0
100
AcDbPoint
 10
14026.84983051324
 20
4956.641517987077
 30
0.0
  0
POINT
  5
18D4B
330
18AB5
100
AcDbEntity
  8
DEFPOINTS
 62
     0
 48
50.0
100
AcDbPoint
 10
14651.77698848537
 20
4956.641517987076
 30
0.0
  0
ENDBLK
  5
18AC0
330
18AB5
100
AcDbEntity
  8
0
 48
50.0
100
AcDbBlockEnd
  0
BLOCK
  5
18ACB
330
18AC1
100
AcDbEntity
  8
0
 48
50.0
100
AcDbBlockBegin
  2
*D33
 70
     1
 10
0.0
 20
0.0
 30
0.0
  3
*D33
  1

  0
LINE
  5
18D3A
330
18AC1
100
AcDbEntity
  8
寸法
 62
     0
 48
50.0
370
    -2
100
AcDbLine
 10
11296.84983051324
 20
2636.641517987069
 30
0.0
 11
10113.09970132998
 21
2636.64151798707
 31
0.0
  0
LINE
  5
18D3B
330
18AC1
100
AcDbEntity
  8
寸法
 62
     0
 48
50.0
370
    -2
100
AcDbLine
 10
11236.84983051324
 20
5011.641517987076
 30
0.0
 11
10113.09970132998
 21
5011.641517987076
 31
0.0
  0
LINE
  5
18D3C
330
18AC1
100
AcDbEntity
  8
寸法
 62
     0
 48
50.0
370
    -2
100
AcDbLine
 10
10173.09970132998
 20
2636.64151798707
 30
0.0
 11
10173.09970132998
 21
5011.641517987076
 31
0.0
  0
INSERT
  5
18D3D
330
18AC1
100
AcDbEntity
  8
寸法
 62
     0
 48
50.0
370
    -2
100
AcDbBlockReference
  2
_DOTSMALL
 10
10173.09970132998
 20
2636.64151798707
 30
0.0
 41
100.0
 42
100.0
 43
100.0
 50
270.0
  0
INSERT
  5
18D3E
330
18AC1
100
AcDbEntity
  8
寸法
 62
     0
 48
50.0
370
    -2
100
AcDbBlockReference
  2
_DOTSMALL
 10
10173.09970132998
 20
5011.641517987076
 30
0.0
 41
100.0
 42
100.0
 43
100.0
 50
90.0
  0
MTEXT
  5
18D3F
330
18AC1
100
AcDbEntity
  8
寸法
 62
     7
 48
50.0
100
AcDbMText
 10
10073.08789030636
 20
3824.141517987075
 30
0.0
 40
120.0
 41
0.0
 71
     5
 72
     1
  1
\A1;2375
  7
STYLE1
 11
0.0000000000000001
 21
1.0
 31
0.0
 73
     1
 44
1.0
1001
ACAD
1000
MTEXTBEGIN
1070
    73
1070
     1
1070
    44
1040
1.0
1070
    74
1070
     0
1000
MTEXTEND
  0
POINT
  5
18D40
330
18AC1
100
AcDbEntity
  8
DEFPOINTS
 62
     0
 48
50.0
100
AcDbPoint
 10
11316.84983051324
 20
2636.641517987069
 30
0.0
  0
POINT
  5
18D41
330
18AC1
100
AcDbEntity
  8
DEFPOINTS
 62
     0
 48
50.0
100
AcDbPoint
 10
11256.84983051324
 20
5011.641517987076
 30
0.0
  0
POINT
  5
18D42
330
18AC1
100
AcDbEntity
  8
DEFPOINTS
 62
     0
 48
50.0
100
AcDbPoint
 10
10173.09970132998
 20
5011.641517987076
 30
0.0
  0
ENDBLK
  5
18ACC
330
18AC1
100
AcDbEntity
  8
0
 48
50.0
100
AcDbBlockEnd
  0
BLOCK
  5
18AD7
330
18ACD
100
AcDbEntity
  8
0
 48
50.0
100
AcDbBlockBegin
  2
*D34
 70
     1
 10
0.0
 20
0.0
 30
0.0
  3
*D34
  1

  0
LINE
  5
18D31
330
18ACD
100
AcDbEntity
  8
寸法
 62
     0
 48
50.0
370
    -2
100
AcDbLine
 10
11296.84983051324
 20
4776.641517987072
 30
0.0
 11
10413.09970132999
 21
4776.641517987072
 31
0.0
  0
LINE
  5
18D32
330
18ACD
100
AcDbEntity
  8
寸法
 62
     0
 48
50.0
370
    -2
100
AcDbLine
 10
11296.84983051324
 20
2686.641517987069
 30
0.0
 11
10413.09970132998
 21
2686.64151798707
 31
0.0
  0
LINE
  5
18D33
330
18ACD
100
AcDbEntity
  8
寸法
 62
     0
 48
50.0
370
    -2
100
AcDbLine
 10
10473.09970132999
 20
4776.641517987072
 30
0.0
 11
10473.09970132998
 21
2686.64151798707
 31
0.0
  0
INSERT
  5
18D34
330
18ACD
100
AcDbEntity
  8
寸法
 62
     0
 48
50.0
370
    -2
100
AcDbBlockReference
  2
_DOTSMALL
 10
10473.09970132999
 20
4776.641517987072
 30
0.0
 41
100.0
 42
100.0
 43
100.0
 50
90.0
  0
INSERT
  5
18D35
330
18ACD
100
AcDbEntity
  8
寸法
 62
     0
 48
50.0
370
    -2
100
AcDbBlockReference
  2
_DOTSMALL
 10
10473.09970132998
 20
2686.64151798707
 30
0.0
 41
100.0
 42
100.0
 43
100.0
 50
270.0
  0
MTEXT
  5
18D36
330
18ACD
100
AcDbEntity
  8
寸法
 62
     7
 48
50.0
100
AcDbMText
 10
10373.08789030636
 20
3731.641517987073
 30
0.0
 40
120.0
 41
0.0
 71
     5
 72
     1
  1
\A1;2090
  7
STYLE1
 11
0.0000000000000001
 21
1.0
 31
0.0
 73
     1
 44
1.0
1001
ACAD
1000
MTEXTBEGIN
1070
    73
1070
     1
1070
    44
1040
1.0
1070
    74
1070
     0
1000
MTEXTEND
  0
POINT
  5
18D37
330
18ACD
100
AcDbEntity
  8
DEFPOINTS
 62
     0
 48
50.0
100
AcDbPoint
 10
11316.84983051324
 20
4776.641517987072
 30
0.0
  0
POINT
  5
18D38
330
18ACD
100
AcDbEntity
  8
DEFPOINTS
 62
     0
 48
50.0
100
AcDbPoint
 10
11316.84983051324
 20
2686.641517987069
 30
0.0
  0
POINT
  5
18D39
330
18ACD
100
AcDbEntity
  8
DEFPOINTS
 62
     0
 48
50.0
100
AcDbPoint
 10
10473.09970132998
 20
2686.64151798707
 30
0.0
  0
ENDBLK
  5
18AD8
330
18ACD
100
AcDbEntity
  8
0
 48
50.0
100
AcDbBlockEnd
  0
BLOCK
  5
18FB8
330
18FAD
100
AcDbEntity
  8
0
 48
50.0
100
AcDbBlockBegin
  2
*D35
 70
     1
 10
0.0
 20
0.0
 30
0.0
  3
*D35
  1

  0
LINE
  5
197DF
330
18FAD
100
AcDbEntity
  8
寸法
 62
     0
 48
50.0
370
    -2
100
AcDbLine
 10
8709.673057123652
 20
4611.641517987079
 30
0.0
 11
9037.216159445399
 21
4611.641517987079
 31
0.0
  0
LINE
  5
197E0
330
18FAD
100
AcDbEntity
  8
寸法
 62
     0
 48
50.0
370
    -2
100
AcDbLine
 10
8709.673057123652
 20
4776.641517987078
 30
0.0
 11
9037.216159445399
 21
4776.641517987078
 31
0.0
  0
LINE
  5
197E1
330
18FAD
100
AcDbEntity
  8
寸法
 62
     0
 48
50.0
370
    -2
100
AcDbLine
 10
8977.216159445399
 20
4611.641517987079
 30
0.0
 11
8977.216159445399
 21
4776.641517987078
 31
0.0
  0
LINE
  5
197E2
330
18FAD
100
AcDbEntity
  8
寸法
 62
     0
 48
50.0
370
    -2
100
AcDbLine
 10
8977.216159445399
 20
4776.641517987078
 30
0.0
 11
8977.216159445399
 21
5153.612080735556
 31
0.0
  0
INSERT
  5
197E3
330
18FAD
100
AcDbEntity
  8
寸法
 62
     0
 48
50.0
370
    -2
100
AcDbBlockReference
  2
_DOTSMALL
 10
8977.216159445399
 20
4611.641517987079
 30
0.0
 41
100.0
 42
100.0
 43
100.0
 50
270.0
  0
INSERT
  5
197E4
330
18FAD
100
AcDbEntity
  8
寸法
 62
     0
 48
50.0
370
    -2
100
AcDbBlockReference
  2
_DOTSMALL
 10
8977.216159445399
 20
4776.641517987078
 30
0.0
 41
100.0
 42
100.0
 43
100.0
 50
90.0
  0
MTEXT
  5
197E5
330
18FAD
100
AcDbEntity
  8
寸法
 62
     7
 48
50.0
100
AcDbMText
 10
8877.216159445397
 20
5015.126799361318
 30
0.0
 40
120.0
 41
0.0
 71
     5
 72
     1
  1
\A1;165
  7
STYLE1
 11
0.0000000000000001
 21
1.0
 31
0.0
 73
     1
 44
1.0
1001
ACAD
1000
MTEXTBEGIN
1070
    73
1070
     1
1070
    44
1040
1.0
1070
    74
1070
     0
1000
MTEXTEND
  0
POINT
  5
197E6
330
18FAD
100
AcDbEntity
  8
DEFPOINTS
 62
     0
 48
50.0
100
AcDbPoint
 10
8689.673057123652
 20
4611.641517987079
 30
0.0
  0
POINT
  5
197E7
330
18FAD
100
AcDbEntity
  8
DEFPOINTS
 62
     0
 48
50.0
100
AcDbPoint
 10
8689.673057123652
 20
4776.641517987078
 30
0.0
  0
POINT
  5
197E8
330
18FAD
100
AcDbEntity
  8
DEFPOINTS
 62
     0
 48
50.0
100
AcDbPoint
 10
8977.216159445399
 20
4776.641517987078
 30
0.0
  0
ENDBLK
  5
18FB9
330
18FAD
100
AcDbEntity
  8
0
 48
50.0
100
AcDbBlockEnd
  0
BLOCK
  5
18FC6
330
18FBA
100
AcDbEntity
  8
0
 48
50.0
100
AcDbBlockBegin
  2
*D36
 70
     1
 10
0.0
 20
0.0
 30
0.0
  3
*D36
  1

  0
LINE
  5
197D4
330
18FBA
100
AcDbEntity
  8
寸法
 62
     0
 48
50.0
370
    -2
100
AcDbLine
 10
8709.673057123652
 20
4584.641517987077
 30
0.0
 11
9037.216159445398
 21
4584.641517987077
 31
0.0
  0
LINE
  5
197D5
330
18FBA
100
AcDbEntity
  8
寸法
 62
     0
 48
50.0
370
    -2
100
AcDbLine
 10
8709.673057123652
 20
4611.641517987079
 30
0.0
 11
9037.216159445398
 21
4611.641517987079
 31
0.0
  0
LINE
  5
197D6
330
18FBA
100
AcDbEntity
  8
寸法
 62
     0
 48
50.0
370
    -2
100
AcDbLine
 10
8977.216159445397
 20
4584.641517987077
 30
0.0
 11
8977.216159445397
 21
4484.641517987077
 31
0.0
  0
LINE
  5
197D7
330
18FBA
100
AcDbEntity
  8
寸法
 62
     0
 48
50.0
370
    -2
100
AcDbLine
 10
8977.216159445397
 20
4611.641517987079
 30
0.0
 11
8977.216159445397
 21
4711.641517987079
 31
0.0
  0
MTEXT
  5
197D8
330
18FBA
100
AcDbEntity
  8
寸法
 62
     7
 48
50.0
100
AcDbMText
 10
9117.385982691763
 20
4612.608717826737
 30
0.0
 40
120.0
 41
0.0
 71
     5
 72
     1
  1
\A1;27
  7
STYLE1
 11
0.0000000000000001
 21
1.0
 31
0.0
 73
     1
 44
1.0
1001
ACAD
1000
MTEXTBEGIN
1070
    73
1070
     1
1070
    44
1040
1.0
1070
    74
1070
     0
1000
MTEXTEND
  0
LINE
  5
197D9
330
18FBA
100
AcDbEntity
  8
寸法
 62
     0
 48
50.0
370
    -2
100
AcDbLine
 10
8977.216159445397
 20
4584.641517987077
 30
0.0
 11
8977.216159445397
 21
4611.641517987079
 31
0.0
  0
INSERT
  5
197DA
330
18FBA
100
AcDbEntity
  8
寸法
 62
     0
 48
50.0
370
    -2
100
AcDbBlockReference
  2
_DOTSMALL
 10
8977.216159445397
 20
4584.641517987077
 30
0.0
 41
100.0
 42
100.0
 43
100.0
 50
90.0
  0
INSERT
  5
197DB
330
18FBA
100
AcDbEntity
  8
寸法
 62
     0
 48
50.0
370
    -2
100
AcDbBlockReference
  2
_DOTSMALL
 10
8977.216159445397
 20
4611.641517987079
 30
0.0
 41
100.0
 42
100.0
 43
100.0
 50
270.0
  0
POINT
  5
197DC
330
18FBA
100
AcDbEntity
  8
DEFPOINTS
 62
     0
 48
50.0
100
AcDbPoint
 10
8689.673057123652
 20
4584.641517987077
 30
0.0
  0
POINT
  5
197DD
330
18FBA
100
AcDbEntity
  8
DEFPOINTS
 62
     0
 48
50.0
100
AcDbPoint
 10
8689.673057123652
 20
4611.641517987079
 30
0.0
  0
POINT
  5
197DE
330
18FBA
100
AcDbEntity
  8
DEFPOINTS
 62
     0
 48
50.0
100
AcDbPoint
 10
8977.216159445397
 20
4611.641517987079
 30
0.0
  0
ENDBLK
  5
18FC7
330
18FBA
100
AcDbEntity
  8
0
 48
50.0
100
AcDbBlockEnd
  0
BLOCK
  5
18FD2
330
18FC8
100
AcDbEntity
  8
0
 48
50.0
100
AcDbBlockBegin
  2
*D37
 70
     1
 10
0.0
 20
0.0
 30
0.0
  3
*D37
  1

  0
LINE
  5
1902F
330
18FC8
100
AcDbEntity
  8
寸法
 62
     0
 48
50.0
370
    -2
100
AcDbLine
 10
8709.673057123652
 20
2636.641517987079
 30
0.0
 11
9037.216159445396
 21
2636.641517987079
 31
0.0
  0
LINE
  5
19030
330
18FC8
100
AcDbEntity
  8
寸法
 62
     0
 48
50.0
370
    -2
100
AcDbLine
 10
8709.673057123652
 20
4584.641517987077
 30
0.0
 11
9037.216159445398
 21
4584.641517987077
 31
0.0
  0
LINE
  5
19031
330
18FC8
100
AcDbEntity
  8
寸法
 62
     0
 48
50.0
370
    -2
100
AcDbLine
 10
8977.216159445395
 20
2636.641517987079
 30
0.0
 11
8977.216159445397
 21
4584.641517987077
 31
0.0
  0
INSERT
  5
19032
330
18FC8
100
AcDbEntity
  8
寸法
 62
     0
 48
50.0
370
    -2
100
AcDbBlockReference
  2
_DOTSMALL
 10
8977.216159445395
 20
2636.641517987079
 30
0.0
 41
100.0
 42
100.0
 43
100.0
 50
270.0
  0
INSERT
  5
19033
330
18FC8
100
AcDbEntity
  8
寸法
 62
     0
 48
50.0
370
    -2
100
AcDbBlockReference
  2
_DOTSMALL
 10
8977.216159445397
 20
4584.641517987077
 30
0.0
 41
100.0
 42
100.0
 43
100.0
 50
90.0
  0
MTEXT
  5
19034
330
18FC8
100
AcDbEntity
  8
寸法
 62
     7
 48
50.0
100
AcDbMText
 10
8877.216159445396
 20
3610.64151798708
 30
0.0
 40
120.0
 41
0.0
 71
     5
 72
     1
  1
\A1;有効開口部高サ 1948
  7
STYLE1
 11
0.0000000000000001
 21
1.0
 31
0.0
 73
     1
 44
1.0
1001
ACAD
1000
MTEXTBEGIN
1070
    73
1070
     1
1070
    44
1040
1.0
1070
    74
1070
     0
1000
MTEXTEND
  0
POINT
  5
19035
330
18FC8
100
AcDbEntity
  8
DEFPOINTS
 62
     0
 48
50.0
100
AcDbPoint
 10
8689.673057123652
 20
2636.641517987079
 30
0.0
  0
POINT
  5
19036
330
18FC8
100
AcDbEntity
  8
DEFPOINTS
 62
     0
 48
50.0
100
AcDbPoint
 10
8689.673057123652
 20
4584.641517987077
 30
0.0
  0
POINT
  5
19037
330
18FC8
100
AcDbEntity
  8
DEFPOINTS
 62
     0
 48
50.0
100
AcDbPoint
 10
8977.216159445397
 20
4584.641517987077
 30
0.0
  0
ENDBLK
  5
18FD3
330
18FC8
100
AcDbEntity
  8
0
 48
50.0
100
AcDbBlockEnd
  0
BLOCK
  5
196EA
330
196E0
100
AcDbEntity
  8
0
 48
50.0
100
AcDbBlockBegin
  2
*D38
 70
     1
 10
0.0
 20
0.0
 30
0.0
  3
*D38
  1

  0
LINE
  5
196EC
330
196E0
100
AcDbEntity
  8
寸法
 62
     0
 48
50.0
370
    -2
100
AcDbLine
 10
6159.673059367255
 20
9450.782490125735
 30
0.0
 11
6456.514419628082
 21
9450.782490125735
 31
0.0
  0
LINE
  5
196ED
330
196E0
100
AcDbEntity
  8
寸法
 62
     0
 48
50.0
370
    -2
100
AcDbLine
 10
6134.673059367481
 20
10167.28249012589
 30
0.0
 11
6456.514419628082
 21
10167.28249012589
 31
0.0
  0
LINE
  5
196EE
330
196E0
100
AcDbEntity
  8
寸法
 62
     0
 48
50.0
370
    -2
100
AcDbLine
 10
6396.514419628083
 20
9450.782490125735
 30
0.0
 11
6396.514419628083
 21
10167.28249012589
 31
0.0
  0
INSERT
  5
196EF
330
196E0
100
AcDbEntity
  8
寸法
 62
     0
 48
50.0
370
    -2
100
AcDbBlockReference
  2
_DOTSMALL
 10
6396.514419628083
 20
9450.782490125735
 30
0.0
 41
100.0
 42
100.0
 43
100.0
 50
270.0
  0
INSERT
  5
196F0
330
196E0
100
AcDbEntity
  8
寸法
 62
     0
 48
50.0
370
    -2
100
AcDbBlockReference
  2
_DOTSMALL
 10
6396.514419628083
 20
10167.28249012589
 30
0.0
 41
100.0
 42
100.0
 43
100.0
 50
90.0
  0
MTEXT
  5
196F1
330
196E0
100
AcDbEntity
  8
寸法
 62
     7
 48
50.0
100
AcDbMText
 10
6296.514419628081
 20
9809.032490125815
 30
0.0
 40
120.0
 41
0.0
 71
     5
 72
     1
  1
\A1;716.5
  7
STYLE1
 11
0.0000000000000001
 21
1.0
 31
0.0
 73
     1
 44
1.0
1001
ACAD
1000
MTEXTBEGIN
1070
    73
1070
     1
1070
    44
1040
1.0
1070
    74
1070
     0
1000
MTEXTEND
  0
POINT
  5
196F2
330
196E0
100
AcDbEntity
  8
DEFPOINTS
 62
     0
 48
50.0
100
AcDbPoint
 10
6139.673059367256
 20
9450.782490125735
 30
0.0
  0
POINT
  5
196F3
330
196E0
100
AcDbEntity
  8
DEFPOINTS
 62
     0
 48
50.0
100
AcDbPoint
 10
6114.673059367481
 20
10167.28249012589
 30
0.0
  0
POINT
  5
196F4
330
196E0
100
AcDbEntity
  8
DEFPOINTS
 62
     0
 48
50.0
100
AcDbPoint
 10
6396.514419628083
 20
10167.28249012589
 30
0.0
  0
ENDBLK
  5
196EB
330
196E0
100
AcDbEntity
  8
0
 48
50.0
100
AcDbBlockEnd
  0
ENDSEC
  0
SECTION
  2
ENTITIES
  0
MTEXT
  5
763F
330
747D
100
AcDbEntity
  8
0
100
AcDbMText
 10
302.846345836809
 20
280.1983726409901
 30
0.0
 40
3.5
 41
5.323721266742722
 71
     1
 72
     5
  1

  7
MSMINCHO
 73
     1
 44
1.0
1001
ACAD
1000
MTEXTBEGIN
1070
    73
1070
     1
1070
    44
1040
1.0
1070
    74
1070
     0
1000
MTEXTEND
  0
LINE
  5
10B57
330
747D
100
AcDbEntity
  8
補助
  6
PHANTOM
 62
   230
 48
50.0
100
AcDbLine
 10
139.9999999999995
 20
11409.6
 30
0.0
 11
16307.2
 21
11409.6
 31
0.0
  0
LINE
  5
10B59
330
747D
100
AcDbEntity
  8
仕様書枠
  6
Continuous
 48
50.0
100
AcDbLine
 10
13107.2
 20
1200.0
 30
0.0
 11
13107.2
 21
-0.0000000000000729
 31
0.0
  0
LINE
  5
10B5C
330
747D
100
AcDbEntity
  8
仕様書枠
 48
50.0
100
AcDbLine
 10
16307.2
 20
1200.0
 30
0.0
 11
16307.2
 21
-0.0000000000000909
 31
0.0
  0
LINE
  5
10B5D
330
747D
100
AcDbEntity
  8
仕様書枠
 48
50.0
100
AcDbLine
 10
140.0
 20
0.0
 30
0.0
 11
16307.2
 21
-0.0000000000000909
 31
0.0
  0
LINE
  5
10B5E
330
747D
100
AcDbEntity
  8
補助
  6
PHANTOM
 62
   230
 48
50.0
100
AcDbLine
 10
16307.2
 20
11409.6
 30
0.0
 11
16307.2
 21
1200.0
 31
0.0
  0
LINE
  5
10B6C
330
747D
100
AcDbEntity
  8
仕様書枠
 48
50.0
100
AcDbLine
 10
13107.2
 20
1200.0
 30
0.0
 11
16307.2
 21
1200.0
 31
0.0
  0
LINE
  5
10B6D
330
747D
100
AcDbEntity
  8
補助
  6
PHANTOM
 62
   230
 48
50.0
100
AcDbLine
 10
13107.2
 20
11409.6
 30
0.0
 11
13107.2
 21
4800.0
 31
0.0
  0
LINE
  5
10B6F
330
747D
100
AcDbEntity
  8
補助
  6
PHANTOM
 62
   230
 48
50.0
100
AcDbLine
 10
13107.2
 20
4800.0
 30
0.0
 11
16307.2
 21
4800.0
 31
0.0
  0
LINE
  5
10B72
330
747D
100
AcDbEntity
  8
文字
 62
     7
 48
50.0
100
AcDbLine
 10
13187.2
 20
400.0
 30
0.0
 11
16227.2
 21
400.0
 31
0.0
  0
TEXT
  5
10B73
330
747D
100
AcDbEntity
  8
文字
 62
     7
 48
50.0
100
AcDbText
 10
13162.9790565769
 20
895.0906074299405
 30
0.0
 40
200.0
  1
外 形 図
  7
STYLE2
100
AcDbText
  0
TEXT
  5
10B74
330
747D
100
AcDbEntity
  8
文字
 62
     7
 48
50.0
100
AcDbText
 10
13201.43669998441
 20
477.2740661031255
 30
0.0
 40
160.0
  1
機種名
  7
STYLE2
100
AcDbText
  0
TEXT
  5
10B75
330
747D
100
AcDbEntity
  8
文字
 62
     7
 48
50.0
100
AcDbText
 10
13209.4053442172
 20
228.5435242569016
 30
0.0
 40
100.0
  1
○有効開口寸法 ： 2424×1948(mm)
  7
STYLE2
100
AcDbText
  0
TEXT
  5
10B76
330
747D
100
AcDbEntity
  8
文字
 62
     7
 48
50.0
100
AcDbText
 10
13209.4053442172
 20
76.09434707649343
 30
0.0
 40
100.0
  1
○床面積 ： 13.83㎡(4.19坪) 　
  7
STYLE2
100
AcDbText
  0
TEXT
  5
10B79
330
747D
100
AcDbEntity
  8
文字
 62
     7
 48
50.0
100
AcDbText
 10
14524.131837222
 20
1031.557706291228
 30
0.0
 40
100.0
  1
NO.15      <縮尺> S=1/40
  7
STYLE2
100
AcDbText
  0
LINE
  5
10B7B
330
747D
100
AcDbEntity
  8
仕様書枠
 48
50.0
100
AcDbLine
 10
13107.2
 20
800.0
 30
0.0
 11
14251.2
 21
800.0
 31
0.0
  0
LINE
  5
10B88
330
747D
100
AcDbEntity
  8
仕様書枠
  6
Continuous
 48
50.0
100
AcDbLine
 10
14251.2
 20
1200.0
 30
0.0
 11
14251.2
 21
800.0
 31
0.0
  0
TEXT
  5
10BB0
330
747D
100
AcDbEntity
  8
文字
 62
     7
 48
50.0
100
AcDbText
 10
14302.57975890745
 20
483.8967129911414
 30
0.0
 40
160.0
  1
FXN-70HDL-2
  7
STYLE2
100
AcDbText
  0
DIMENSION
  5
162CD
330
747D
100
AcDbEntity
  8
寸法
100
AcDbDimension
  2
*D1
 10
9337.09940285807
 20
7592.282483849536
 30
0.0
 11
9237.087591834447
 21
8852.282483849545
 31
0.0
 70
    32
  1
6X420=<>
 71
     5
 42
2520.000000000015
  3
INABA_S40G
100
AcDbAlignedDimension
 13
8689.673057123664
 23
10112.28248384955
 33
0.0
 14
8689.67305712364
 24
7592.282483849536
 34
0.0
 50
90.0
100
AcDbRotatedDimension
1001
ACAD
1000
DSTYLE
1002
{
1002
}
  0
DIMENSION
  5
162CE
330
747D
100
AcDbEntity
  8
寸法
100
AcDbDimension
  2
*D2
 10
9337.099402858049
 20
7537.282483849541
 30
0.0
 11
9337.099402858049
 21
7159.421016944678
 31
0.0
 70
   160
 71
     5
 42
54.99999999999636
  3
INABA_S40G
100
AcDbAlignedDimension
 13
8689.67305712364
 23
7592.282483849536
 33
0.0
 14
8689.67305712364
 24
7537.282483849541
 34
0.0
 50
90.0
100
AcDbRotatedDimension
1001
ACAD
1000
DSTYLE
1002
{
1002
}
  0
DIMENSION
  5
162CF
330
747D
100
AcDbEntity
  8
寸法
100
AcDbDimension
  2
*D3
 10
9337.099402858076
 20
10112.28248384955
 30
0.0
 11
9337.099402858074
 21
10475.76776522378
 31
0.0
 70
   160
 71
     5
 42
54.99999999999636
  3
INABA_S40G
100
AcDbAlignedDimension
 13
8689.673057123664
 23
10167.28248384954
 33
0.0
 14
8689.673057123664
 24
10112.28248384955
 34
0.0
 50
90.0
100
AcDbRotatedDimension
1001
ACAD
1000
DSTYLE
1002
{
1002
}
  0
DIMENSION
  5
162D0
330
747D
100
AcDbEntity
  8
寸法
100
AcDbDimension
  2
*D4
 10
9702.20634459771
 20
7537.282483849541
 30
0.0
 11
9602.194533574085
 21
8852.282483849545
 31
0.0
 70
    32
 71
     5
 42
2630.000000000007
  3
INABA_S40G
100
AcDbAlignedDimension
 13
8689.673057123664
 23
10167.28248384954
 33
0.0
 14
8689.67305712364
 24
7537.282483849541
 34
0.0
 50
90.0
100
AcDbRotatedDimension
1001
ACAD
1000
DSTYLE
1002
{
1002
}
  0
LINE
  5
162DC
330
747D
100
AcDbEntity
  8
部品1
100
AcDbLine
 10
8661.673057123648
 20
10139.28248384954
 30
0.0
 11
8661.673057123641
 21
7592.282483849536
 31
0.0
  0
LINE
  5
162DD
330
747D
100
AcDbEntity
  8
部品1
100
AcDbLine
 10
3457.673057123639
 20
7592.282483849405
 30
0.0
 11
3457.67305712365
 21
10139.28248384945
 31
0.0
  0
LINE
  5
162DE
330
747D
100
AcDbEntity
  8
部品1
100
AcDbLine
 10
8689.673057123664
 20
10167.28248384954
 30
0.0
 11
8689.67305712364
 21
7537.282483849541
 31
0.0
  0
LINE
  5
162DF
330
747D
100
AcDbEntity
  8
部品1
100
AcDbLine
 10
3429.67305712363
 20
10167.28248384942
 30
0.0
 11
3429.673057123657
 21
7537.282483849409
 31
0.0
  0
DIMENSION
  5
162E4
330
747D
100
AcDbEntity
  8
寸法
 48
50.0
100
AcDbDimension
  2
*D5
 10
6162.673057123657
 20
7002.851713083284
 30
0.0
 11
7374.673057123648
 21
7102.863524106907
 31
0.0
 70
    32
  1
有効開口部間口 <>
 71
     5
 42
2423.999999999982
  3
INABA_S40G
100
AcDbAlignedDimension
 13
8586.673057123638
 23
7563.282483849448
 33
0.0
 14
6162.673057123657
 24
7563.282483849448
 34
0.0
100
AcDbRotatedDimension
1001
ACAD
1000
DSTYLE
1002
{
1070
    75
1070
     1
1070
   279
1070
     2
1002
}
  0
LINE
  5
162E6
330
747D
100
AcDbEntity
  8
部品1
 48
50.0
100
AcDbLine
 10
6126.673057123656
 20
7582.782483849448
 30
0.0
 11
8622.673057123639
 21
7582.782483849448
 31
0.0
  0
DIMENSION
  5
162E7
330
747D
100
AcDbEntity
  8
寸法
100
AcDbDimension
  2
*D6
 10
8689.673057123627
 20
6556.67871749241
 30
0.0
 11
6059.673057123642
 21
6656.690528516032
 31
0.0
 70
    32
 71
     5
 42
5259.999999999971
  3
INABA_S40G
100
AcDbAlignedDimension
 13
3429.673057123657
 23
7537.282483849445
 33
0.0
 14
8689.673057123627
 24
7537.282483849541
 34
0.0
100
AcDbRotatedDimension
1001
ACAD
1000
DSTYLE
1002
{
1002
}
  0
LINE
  5
162E8
330
747D
100
AcDbEntity
  8
部品1
100
AcDbLine
 10
3484.673057123637
 20
10112.28248384947
 30
0.0
 11
3484.673057123655
 21
7602.282483849447
 31
0.0
  0
LINE
  5
162E9
330
747D
100
AcDbEntity
  8
部品1
100
AcDbLine
 10
3509.673057123637
 20
10112.28248384947
 30
0.0
 11
3509.673057123655
 21
7602.282483849447
 31
0.0
  0
DIMENSION
  5
162EA
330
747D
100
AcDbEntity
  8
寸法
 48
50.0
100
AcDbDimension
  2
*D7
 10
3429.673057123657
 20
7002.851713083284
 30
0.0
 11
3121.187775749418
 21
7002.851713083284
 31
0.0
 70
   160
 71
     5
 42
54.99999999999636
  3
INABA_S40G
100
AcDbAlignedDimension
 13
3484.673057123654
 23
7537.282483849448
 33
0.0
 14
3429.673057123657
 24
7537.282483849445
 34
0.0
100
AcDbRotatedDimension
1001
ACAD
1000
DSTYLE
1002
{
1002
}
  0
DIMENSION
  5
162EB
330
747D
100
AcDbEntity
  8
寸法
 48
50.0
100
AcDbDimension
  2
*D8
 10
6114.673057123653
 20
7002.851713083284
 30
0.0
 11
6275.575028123714
 21
7102.851713083284
 31
0.0
 70
   160
 71
     5
 42
48.00000000000363
  3
INABA_S40G
100
AcDbAlignedDimension
 13
6162.673057123657
 23
7563.282483849448
 33
0.0
 14
6114.673057123653
 24
7537.282483849448
 34
0.0
100
AcDbRotatedDimension
1001
ACAD
1000
DSTYLE
1002
{
1070
   279
1070
     2
1002
}
  0
LINE
  5
162EC
330
747D
100
AcDbEntity
  8
部品1
100
AcDbLine
 10
3484.673057123651
 20
7537.282483849448
 30
0.0
 11
3429.673057123657
 21
7537.282483849445
 31
0.0
  0
LINE
  5
162ED
330
747D
100
AcDbEntity
  8
部品1
 48
50.0
100
AcDbLine
 10
3484.673057123657
 20
7573.282483849446
 30
0.0
 11
3461.673057123657
 21
7573.282483849446
 31
0.0
  0
LINE
  5
162EE
330
747D
100
AcDbEntity
  8
部品1
 48
50.0
100
AcDbLine
 10
3494.673057123657
 20
7563.282483849448
 30
0.0
 11
3484.673057123657
 21
7542.282483849447
 31
0.0
  0
LINE
  5
162EF
330
747D
100
AcDbEntity
  8
部品1
 48
50.0
100
AcDbLine
 10
3484.673057123657
 20
7602.282483849447
 30
0.0
 11
3484.673057123654
 21
7537.282483849448
 31
0.0
  0
LINE
  5
162F0
330
747D
100
AcDbEntity
  8
部品1
 48
50.0
100
AcDbLine
 10
3532.673057123657
 20
7563.282483849448
 30
0.0
 11
3532.673057123657
 21
7572.282483849448
 31
0.0
  0
LINE
  5
162F1
330
747D
100
AcDbEntity
  8
部品1
 48
50.0
100
AcDbLine
 10
3532.673057123657
 20
7602.282483849449
 30
0.0
 11
3532.673057123657
 21
7593.282483849449
 31
0.0
  0
LINE
  5
162F2
330
747D
100
AcDbEntity
  8
部品1
100
AcDbLine
 10
3532.673057123657
 20
7602.282483849449
 30
0.0
 11
3484.673057123657
 21
7602.282483849449
 31
0.0
  0
LINE
  5
162F3
330
747D
100
AcDbEntity
  8
部品1
100
AcDbLine
 10
3532.673057123657
 20
7563.282483849448
 30
0.0
 11
3484.673057123657
 21
7563.282483849448
 31
0.0
  0
LINE
  5
162F4
330
747D
100
AcDbEntity
  8
部品1
100
AcDbLine
 10
3484.673057123655
 20
7573.282483849446
 30
0.0
 11
3461.673057123657
 21
7573.282483849446
 31
0.0
  0
LINE
  5
162F5
330
747D
100
AcDbEntity
  8
部品1
100
AcDbLine
 10
3484.673057123655
 20
7592.282483849372
 30
0.0
 11
3429.673057123655
 21
7592.282483849372
 31
0.0
  0
LINE
  5
162F6
330
747D
100
AcDbEntity
  8
部品1
100
AcDbLine
 10
3457.673057123639
 20
7592.282483849409
 30
0.0
 11
3429.673057123655
 21
7592.282483849409
 31
0.0
  0
LINE
  5
162F7
330
747D
100
AcDbEntity
  8
部品1
100
AcDbLine
 10
3457.673057123655
 20
7592.282483849423
 30
0.0
 11
3429.673057123655
 21
7592.282483849423
 31
0.0
  0
LINE
  5
162FB
330
747D
100
AcDbEntity
  8
部品1
100
AcDbLine
 10
3457.673057123644
 20
8852.282483849423
 30
0.0
 11
3429.673057123644
 21
8852.282483849423
 31
0.0
  0
LINE
  5
162FC
330
747D
100
AcDbEntity
  8
部品1
100
AcDbLine
 10
3457.673057123644
 20
9272.282483849423
 30
0.0
 11
3429.673057123644
 21
9272.282483849423
 31
0.0
  0
LINE
  5
162FE
330
747D
100
AcDbEntity
  8
部品1
100
AcDbLine
 10
3457.673057123637
 20
9692.282483849425
 30
0.0
 11
3429.673057123637
 21
9692.282483849425
 31
0.0
  0
LINE
  5
162FF
330
747D
100
AcDbEntity
  8
部品1
100
AcDbLine
 10
8634.673057123659
 20
10112.28248384947
 30
0.0
 11
8634.67305712364
 21
7537.282483849536
 31
0.0
  0
LINE
  5
16300
330
747D
100
AcDbEntity
  8
部品1
100
AcDbLine
 10
8609.673057123659
 20
10112.28248384947
 30
0.0
 11
8609.673057123641
 21
7602.282483849449
 31
0.0
  0
DIMENSION
  5
16301
330
747D
100
AcDbEntity
  8
寸法
 48
50.0
100
AcDbDimension
  2
*D9
 10
8586.673057123638
 20
7002.851713083284
 30
0.0
 11
8475.710159474891
 21
7102.851713083284
 31
0.0
 70
   160
 71
     5
 42
48.00000000000181
  3
INABA_S40G
100
AcDbAlignedDimension
 13
8634.67305712364
 23
7537.282483849536
 33
0.0
 14
8586.673057123638
 24
7563.282483849448
 34
0.0
100
AcDbRotatedDimension
1001
ACAD
1000
DSTYLE
1002
{
1070
   279
1070
     2
1002
}
  0
DIMENSION
  5
16302
330
747D
100
AcDbEntity
  8
寸法
 48
50.0
100
AcDbDimension
  2
*D10
 10
8634.67305712364
 20
7002.851713083285
 30
0.0
 11
8998.158338497876
 21
7002.851713083285
 31
0.0
 70
   160
 71
     5
 42
54.99999999999818
  3
INABA_S40G
100
AcDbAlignedDimension
 13
8689.67305712364
 23
7537.282483849541
 33
0.0
 14
8634.67305712364
 24
7537.282483849536
 34
0.0
100
AcDbRotatedDimension
1001
ACAD
1000
DSTYLE
1002
{
1002
}
  0
LINE
  5
16303
330
747D
100
AcDbEntity
  8
部品1
 48
50.0
100
AcDbLine
 10
8624.673057123638
 20
7563.282483849448
 30
0.0
 11
8634.67305712364
 21
7542.282483849447
 31
0.0
  0
LINE
  5
16304
330
747D
100
AcDbEntity
  8
部品1
100
AcDbLine
 10
8586.673057123638
 20
7602.282483849449
 30
0.0
 11
8634.67305712364
 21
7602.282483849449
 31
0.0
  0
LINE
  5
16305
330
747D
100
AcDbEntity
  8
部品1
100
AcDbLine
 10
8586.673057123638
 20
7563.282483849448
 30
0.0
 11
8634.67305712364
 21
7563.282483849448
 31
0.0
  0
LINE
  5
16306
330
747D
100
AcDbEntity
  8
部品1
 48
50.0
100
AcDbLine
 10
8586.673057123638
 20
7602.282483849449
 30
0.0
 11
8586.673057123638
 21
7593.282483849449
 31
0.0
  0
LINE
  5
16307
330
747D
100
AcDbEntity
  8
部品1
 48
50.0
100
AcDbLine
 10
8586.673057123638
 20
7563.282483849448
 30
0.0
 11
8586.673057123638
 21
7572.282483849448
 31
0.0
  0
LINE
  5
16308
330
747D
100
AcDbEntity
  8
部品1
100
AcDbLine
 10
8634.67305712364
 20
7573.282483849446
 30
0.0
 11
8657.673057123638
 21
7573.282483849446
 31
0.0
  0
LINE
  5
16309
330
747D
100
AcDbEntity
  8
部品1
100
AcDbLine
 10
8634.67305712364
 20
7592.282483849551
 30
0.0
 11
8689.673057123671
 21
7592.282483849551
 31
0.0
  0
LINE
  5
1630A
330
747D
100
AcDbEntity
  8
部品1
100
AcDbLine
 10
8689.67305712364
 20
7537.282483849541
 30
0.0
 11
8634.67305712364
 21
7537.282483849537
 31
0.0
  0
LINE
  5
16317
330
747D
100
AcDbEntity
  8
部品1
100
AcDbLine
 10
8661.673057123667
 20
8852.282483849551
 30
0.0
 11
8689.673057123668
 21
8852.282483849551
 31
0.0
  0
LINE
  5
16319
330
747D
100
AcDbEntity
  8
部品1
100
AcDbLine
 10
8661.673057123667
 20
9272.282483849551
 30
0.0
 11
8689.673057123668
 21
9272.282483849551
 31
0.0
  0
LINE
  5
1631A
330
747D
100
AcDbEntity
  8
部品1
100
AcDbLine
 10
8661.673057123664
 20
9692.282483849552
 30
0.0
 11
8689.673057123664
 21
9692.282483849552
 31
0.0
  0
LINE
  5
1631B
330
747D
100
AcDbEntity
  8
部品1
100
AcDbLine
 10
6087.673057123412
 20
10139.28248384957
 30
0.0
 11
7362.173057123661
 21
10139.28248384957
 31
0.0
  0
LINE
  5
1631D
330
747D
100
AcDbEntity
  8
部品1
100
AcDbLine
 10
3429.673057123662
 20
10167.28248384945
 30
0.0
 11
8689.673057123664
 21
10167.28248384954
 31
0.0
  0
DIMENSION
  5
1631F
330
747D
100
AcDbEntity
  8
寸法
100
AcDbDimension
  2
*D11
 10
8634.673057123665
 20
10383.09070347455
 30
0.0
 11
7374.673057123664
 21
10483.10251449817
 31
0.0
 70
    32
  1
6X420=<>
 71
     5
 42
2520.000000000001
  3
INABA_S40G
100
AcDbAlignedDimension
 13
6114.673057123663
 23
10167.28248384945
 33
0.0
 14
8634.673057123665
 24
10167.28248384954
 34
0.0
100
AcDbRotatedDimension
1001
ACAD
1000
DSTYLE
1002
{
1002
}
  0
DIMENSION
  5
16320
330
747D
100
AcDbEntity
  8
寸法
100
AcDbDimension
  2
*D12
 10
3484.673057123663
 20
10383.09070347443
 30
0.0
 11
3121.18777574939
 21
10383.09070347443
 31
0.0
 70
   160
 71
     5
 42
55.00000000003456
  3
INABA_S40G
100
AcDbAlignedDimension
 13
3429.673057123629
 23
10167.28248384945
 33
0.0
 14
3484.673057123663
 24
10167.28248384945
 34
0.0
100
AcDbRotatedDimension
1001
ACAD
1000
DSTYLE
1002
{
1002
}
  0
LINE
  5
16321
330
747D
100
AcDbEntity
  8
部品1
100
AcDbLine
 10
3484.673057123629
 20
10167.28248384942
 30
0.0
 11
3484.673057123629
 21
10139.28248384942
 31
0.0
  0
LINE
  5
16322
330
747D
100
AcDbEntity
  8
部品1
100
AcDbLine
 10
3484.673057123662
 20
10167.28248384945
 30
0.0
 11
3484.673057123662
 21
10139.28248384945
 31
0.0
  0
LINE
  5
16323
330
747D
100
AcDbEntity
  8
部品1
100
AcDbLine
 10
3457.67305712363
 20
10112.28248384942
 30
0.0
 11
3429.67305712363
 21
10112.28248384942
 31
0.0
  0
LINE
  5
16324
330
747D
100
AcDbEntity
  8
部品1
100
AcDbLine
 10
6534.673057123663
 20
10167.28248384957
 30
0.0
 11
6534.673057123663
 21
10139.28248384957
 31
0.0
  0
LINE
  5
16325
330
747D
100
AcDbEntity
  8
部品1
100
AcDbLine
 10
6534.673057123663
 20
10167.28248384945
 30
0.0
 11
6534.673057123663
 21
10139.28248384945
 31
0.0
  0
LINE
  5
16326
330
747D
100
AcDbEntity
  8
部品1
100
AcDbLine
 10
6534.673057123663
 20
10167.28248384945
 30
0.0
 11
6534.673057123663
 21
10139.28248384945
 31
0.0
  0
LINE
  5
16327
330
747D
100
AcDbEntity
  8
部品1
100
AcDbLine
 10
7387.173057123662
 20
10139.28248384956
 30
0.0
 11
8661.673057123664
 21
10139.28248384954
 31
0.0
  0
LINE
  5
16329
330
747D
100
AcDbEntity
  8
部品1
100
AcDbLine
 10
6954.673057123663
 20
10167.28248384957
 30
0.0
 11
6954.673057123663
 21
10139.28248384957
 31
0.0
  0
LINE
  5
1632A
330
747D
100
AcDbEntity
  8
部品1
100
AcDbLine
 10
6954.673057123663
 20
10167.28248384945
 30
0.0
 11
6954.673057123663
 21
10139.28248384945
 31
0.0
  0
LINE
  5
1632B
330
747D
100
AcDbEntity
  8
部品1
100
AcDbLine
 10
6954.673057123663
 20
10167.28248384945
 30
0.0
 11
6954.673057123663
 21
10139.28248384945
 31
0.0
  0
LINE
  5
1632C
330
747D
100
AcDbEntity
  8
部品1
100
AcDbLine
 10
7374.673057123662
 20
10167.28248384957
 30
0.0
 11
7374.673057123662
 21
10139.28248384957
 31
0.0
  0
LINE
  5
1632D
330
747D
100
AcDbEntity
  8
部品1
100
AcDbLine
 10
7362.173057123662
 20
10131.28248384955
 30
0.0
 11
7387.173057123662
 21
10131.28248384955
 31
0.0
  0
LINE
  5
1632E
330
747D
100
AcDbEntity
  8
部品1
100
AcDbLine
 10
7403.673057123663
 20
10157.28248384955
 30
0.0
 11
7409.673057123663
 21
10157.28248384955
 31
0.0
  0
LINE
  5
1632F
330
747D
100
AcDbEntity
  8
部品1
100
AcDbLine
 10
7409.673057123663
 20
10157.28248384955
 30
0.0
 11
7409.673057123663
 21
10139.28248384955
 31
0.0
  0
LINE
  5
16330
330
747D
100
AcDbEntity
  8
部品1
100
AcDbLine
 10
7339.673057123663
 20
10157.28248384955
 30
0.0
 11
7345.673057123663
 21
10157.28248384955
 31
0.0
  0
LINE
  5
16331
330
747D
100
AcDbEntity
  8
部品1
100
AcDbLine
 10
7339.673057123663
 20
10157.28248384955
 30
0.0
 11
7339.673057123663
 21
10139.28248384955
 31
0.0
  0
LINE
  5
16332
330
747D
100
AcDbEntity
  8
部品1
100
AcDbLine
 10
7794.673057123663
 20
10167.28248384957
 30
0.0
 11
7794.673057123663
 21
10139.28248384957
 31
0.0
  0
DIMENSION
  5
16333
330
747D
100
AcDbEntity
  8
寸法
100
AcDbDimension
  2
*D13
 10
8689.673057123664
 20
10383.09070347453
 30
0.0
 11
8998.158338497901
 21
10383.09070347453
 31
0.0
 70
   160
 71
     5
 42
55.0
  3
INABA_S40G
100
AcDbAlignedDimension
 13
8634.673057123665
 23
10167.28248384954
 33
0.0
 14
8689.673057123664
 24
10167.28248384954
 34
0.0
100
AcDbRotatedDimension
1001
ACAD
1000
DSTYLE
1002
{
1002
}
  0
LINE
  5
16334
330
747D
100
AcDbEntity
  8
部品1
100
AcDbLine
 10
8214.673057123661
 20
10167.28248384957
 30
0.0
 11
8214.673057123661
 21
10139.28248384957
 31
0.0
  0
LINE
  5
16335
330
747D
100
AcDbEntity
  8
部品1
100
AcDbLine
 10
8634.673057123665
 20
10167.28248384954
 30
0.0
 11
8634.673057123665
 21
10139.28248384954
 31
0.0
  0
LINE
  5
16336
330
747D
100
AcDbEntity
  8
部品1
100
AcDbLine
 10
8634.673057123665
 20
10167.28248384957
 30
0.0
 11
8634.673057123665
 21
10139.28248384957
 31
0.0
  0
LINE
  5
16337
330
747D
100
AcDbEntity
  8
部品1
100
AcDbLine
 10
8661.673057123664
 20
10112.28248384955
 30
0.0
 11
8689.673057123664
 21
10112.28248384955
 31
0.0
  0
DIMENSION
  5
1659A
330
747D
100
AcDbEntity
  8
寸法
 48
50.0
100
AcDbDimension
  2
*D16
 10
5956.673057123638
 20
7002.851713083284
 30
0.0
 11
5845.710159474891
 21
7102.851713083284
 31
0.0
 70
   160
 71
     5
 42
48.00000000000181
  3
INABA_S40G
100
AcDbAlignedDimension
 13
6004.67305712364
 23
7537.282483849536
 33
0.0
 14
5956.673057123638
 24
7563.282483849448
 34
0.0
100
AcDbRotatedDimension
1001
ACAD
1000
DSTYLE
1002
{
1070
   279
1070
     2
1002
}
  0
DIMENSION
  5
1659B
330
747D
100
AcDbEntity
  8
寸法
 48
50.0
100
AcDbDimension
  2
*D14
 10
3532.673057123657
 20
7002.851713083284
 30
0.0
 11
4744.673057123647
 21
7102.863524106907
 31
0.0
 70
    32
  1
有効開口部間口 <>
 71
     5
 42
2423.999999999982
  3
INABA_S40G
100
AcDbAlignedDimension
 13
5956.673057123638
 23
7563.282483849448
 33
0.0
 14
3532.673057123657
 24
7563.282483849448
 34
0.0
100
AcDbRotatedDimension
1001
ACAD
1000
DSTYLE
1002
{
1070
    75
1070
     1
1070
   279
1070
     2
1002
}
  0
DIMENSION
  5
1659C
330
747D
100
AcDbEntity
  8
寸法
 48
50.0
100
AcDbDimension
  2
*D15
 10
3484.673057123654
 20
7002.851713083284
 30
0.0
 11
3645.575028123714
 21
7102.851713083284
 31
0.0
 70
   160
 71
     5
 42
48.00000000000363
  3
INABA_S40G
100
AcDbAlignedDimension
 13
3532.673057123657
 23
7563.282483849448
 33
0.0
 14
3484.673057123654
 24
7537.282483849448
 34
0.0
100
AcDbRotatedDimension
1001
ACAD
1000
DSTYLE
1002
{
1070
   279
1070
     2
1002
}
  0
DIMENSION
  5
165E9
330
747D
100
AcDbEntity
  8
寸法
 48
50.0
100
AcDbDimension
  2
*D17
 10
6004.67305712364
 20
7002.851713083285
 30
0.0
 11
6059.673057123647
 21
6851.159818047054
 31
0.0
 70
   160
 71
     5
 42
110.0000000000127
  3
INABA_S40G
100
AcDbAlignedDimension
 13
6114.673057123653
 23
7537.282483849448
 33
0.0
 14
6004.67305712364
 24
7537.282483849536
 34
0.0
100
AcDbRotatedDimension
1001
ACAD
1000
DSTYLE
1002
{
1070
   279
1070
     2
1002
}
  0
LINE
  5
16655
330
747D
100
AcDbEntity
  8
部品1
 48
50.0
100
AcDbLine
 10
3496.673057123655
 20
7582.782483849448
 30
0.0
 11
5992.67305712364
 21
7582.782483849448
 31
0.0
  0
LINE
  5
16656
330
747D
100
AcDbEntity
  8
部品1
100
AcDbLine
 10
5956.673057123638
 20
7602.282483849449
 30
0.0
 11
6004.67305712364
 21
7602.282483849449
 31
0.0
  0
LINE
  5
16657
330
747D
100
AcDbEntity
  8
部品1
 48
50.0
100
AcDbLine
 10
5956.673057123638
 20
7602.282483849449
 30
0.0
 11
5956.673057123638
 21
7593.282483849449
 31
0.0
  0
LINE
  5
16658
330
747D
100
AcDbEntity
  8
部品1
100
AcDbLine
 10
5956.673057123638
 20
7563.282483849448
 30
0.0
 11
6004.673057123639
 21
7563.282483849448
 31
0.0
  0
LINE
  5
16659
330
747D
100
AcDbEntity
  8
部品1
 48
50.0
100
AcDbLine
 10
5956.673057123638
 20
7563.282483849448
 30
0.0
 11
5956.673057123638
 21
7572.282483849448
 31
0.0
  0
LINE
  5
1665A
330
747D
100
AcDbEntity
  8
部品1
 48
50.0
100
AcDbLine
 10
5994.673057123638
 20
7563.282483849448
 30
0.0
 11
6004.673057123639
 21
7542.282483849447
 31
0.0
  0
LINE
  5
1665B
330
747D
100
AcDbEntity
  8
部品1
100
AcDbLine
 10
6004.673057123639
 20
7573.282483849446
 30
0.0
 11
6027.673057123639
 21
7573.282483849446
 31
0.0
  0
LINE
  5
1665C
330
747D
100
AcDbEntity
  8
部品1
100
AcDbLine
 10
6162.673057123657
 20
7602.282483849449
 30
0.0
 11
6114.673057123656
 21
7602.282483849449
 31
0.0
  0
LINE
  5
1665D
330
747D
100
AcDbEntity
  8
部品1
 48
50.0
100
AcDbLine
 10
6162.673057123657
 20
7602.282483849449
 30
0.0
 11
6162.673057123657
 21
7593.282483849449
 31
0.0
  0
LINE
  5
1665E
330
747D
100
AcDbEntity
  8
部品1
100
AcDbLine
 10
6162.673057123657
 20
7563.282483849448
 30
0.0
 11
6114.673057123656
 21
7563.282483849448
 31
0.0
  0
LINE
  5
1665F
330
747D
100
AcDbEntity
  8
部品1
 48
50.0
100
AcDbLine
 10
6124.673057123657
 20
7563.282483849448
 30
0.0
 11
6114.673057123656
 21
7542.282483849447
 31
0.0
  0
LINE
  5
16660
330
747D
100
AcDbEntity
  8
部品1
100
AcDbLine
 10
6114.673057123656
 20
7573.282483849446
 30
0.0
 11
6091.673057123657
 21
7573.282483849446
 31
0.0
  0
LINE
  5
16661
330
747D
100
AcDbEntity
  8
部品1
 48
50.0
100
AcDbLine
 10
6114.673057123656
 20
7602.282483849447
 30
0.0
 11
6114.673057123653
 21
7537.282483849448
 31
0.0
  0
LINE
  5
16662
330
747D
100
AcDbEntity
  8
部品1
 48
50.0
100
AcDbLine
 10
6162.673057123657
 20
7563.282483849448
 30
0.0
 11
6162.673057123657
 21
7572.282483849448
 31
0.0
  0
LINE
  5
16663
330
747D
100
AcDbEntity
  8
部品1
100
AcDbLine
 10
6114.673057123653
 20
7537.282483849448
 30
0.0
 11
6004.673057123643
 21
7537.282483849442
 31
0.0
  0
LINE
  5
16664
330
747D
100
AcDbEntity
  8
部品1
 48
50.0
100
AcDbLine
 10
6004.673057123645
 20
7602.282483849535
 30
0.0
 11
6004.673057123642
 21
7537.282483849536
 31
0.0
  0
DIMENSION
  5
16667
330
747D
100
AcDbEntity
  8
寸法
100
AcDbDimension
  2
*D18
 10
6004.673057123664
 20
10383.09070347455
 30
0.0
 11
4744.673057123664
 21
10483.10251449817
 31
0.0
 70
    32
  1
6X420=<>
 71
     5
 42
2520.000000000001
  3
INABA_S40G
100
AcDbAlignedDimension
 13
3484.673057123663
 23
10167.28248384945
 33
0.0
 14
6004.673057123664
 24
10167.28248384954
 34
0.0
100
AcDbRotatedDimension
1001
ACAD
1000
DSTYLE
1002
{
1002
}
  0
LINE
  5
16680
330
747D
100
AcDbEntity
  8
部品1
100
AcDbLine
 10
4744.673057123662
 20
10167.28248384957
 30
0.0
 11
4744.673057123662
 21
10139.28248384957
 31
0.0
  0
LINE
  5
16681
330
747D
100
AcDbEntity
  8
部品1
100
AcDbLine
 10
4732.173057123662
 20
10131.28248384955
 30
0.0
 11
4757.173057123663
 21
10131.28248384955
 31
0.0
  0
LINE
  5
16682
330
747D
100
AcDbEntity
  8
部品1
100
AcDbLine
 10
4773.673057123663
 20
10157.28248384955
 30
0.0
 11
4779.673057123662
 21
10157.28248384955
 31
0.0
  0
LINE
  5
16683
330
747D
100
AcDbEntity
  8
部品1
100
AcDbLine
 10
4779.673057123662
 20
10157.28248384955
 30
0.0
 11
4779.673057123662
 21
10139.28248384955
 31
0.0
  0
LINE
  5
16684
330
747D
100
AcDbEntity
  8
部品1
100
AcDbLine
 10
4709.673057123663
 20
10157.28248384955
 30
0.0
 11
4715.673057123662
 21
10157.28248384955
 31
0.0
  0
LINE
  5
16685
330
747D
100
AcDbEntity
  8
部品1
100
AcDbLine
 10
4709.673057123663
 20
10157.28248384955
 30
0.0
 11
4709.673057123663
 21
10139.28248384955
 31
0.0
  0
LINE
  5
16686
330
747D
100
AcDbEntity
  8
部品1
100
AcDbLine
 10
4757.173057123663
 20
10139.28248384956
 30
0.0
 11
6031.673057123664
 21
10139.28248384954
 31
0.0
  0
LINE
  5
16688
330
747D
100
AcDbEntity
  8
部品1
100
AcDbLine
 10
3457.67305712365
 20
10139.28248384957
 30
0.0
 11
4732.173057123661
 21
10139.28248384957
 31
0.0
  0
LINE
  5
1668A
330
747D
100
AcDbEntity
  8
部品1
100
AcDbLine
 10
3904.673057123662
 20
10167.28248384957
 30
0.0
 11
3904.673057123662
 21
10139.28248384957
 31
0.0
  0
LINE
  5
1668B
330
747D
100
AcDbEntity
  8
部品1
100
AcDbLine
 10
3904.673057123662
 20
10167.28248384945
 30
0.0
 11
3904.673057123662
 21
10139.28248384945
 31
0.0
  0
LINE
  5
1668C
330
747D
100
AcDbEntity
  8
部品1
100
AcDbLine
 10
3904.673057123662
 20
10167.28248384945
 30
0.0
 11
3904.673057123662
 21
10139.28248384945
 31
0.0
  0
LINE
  5
1668D
330
747D
100
AcDbEntity
  8
部品1
100
AcDbLine
 10
4324.673057123663
 20
10167.28248384957
 30
0.0
 11
4324.673057123663
 21
10139.28248384957
 31
0.0
  0
LINE
  5
1668E
330
747D
100
AcDbEntity
  8
部品1
100
AcDbLine
 10
4324.673057123663
 20
10167.28248384945
 30
0.0
 11
4324.673057123663
 21
10139.28248384945
 31
0.0
  0
LINE
  5
1668F
330
747D
100
AcDbEntity
  8
部品1
100
AcDbLine
 10
4324.673057123663
 20
10167.28248384945
 30
0.0
 11
4324.673057123663
 21
10139.28248384945
 31
0.0
  0
LINE
  5
16690
330
747D
100
AcDbEntity
  8
部品1
100
AcDbLine
 10
5164.673057123663
 20
10167.28248384957
 30
0.0
 11
5164.673057123663
 21
10139.28248384957
 31
0.0
  0
LINE
  5
16691
330
747D
100
AcDbEntity
  8
部品1
100
AcDbLine
 10
5584.673057123662
 20
10167.28248384957
 30
0.0
 11
5584.673057123662
 21
10139.28248384957
 31
0.0
  0
DIMENSION
  5
166DD
330
747D
100
AcDbEntity
  8
寸法
 48
50.0
100
AcDbDimension
  2
*D19
 10
6004.673057123664
 20
10383.09070347455
 30
0.0
 11
6059.673057123664
 21
10483.09070347455
 31
0.0
 70
    32
 71
     5
 42
109.9999999999991
  3
INABA_S40G
100
AcDbAlignedDimension
 13
6114.673057123663
 23
10167.2824838495
 33
0.0
 14
6004.673057123664
 24
10167.2824838495
 34
0.0
100
AcDbRotatedDimension
1001
ACAD
1000
DSTYLE
1002
{
1070
   279
1070
     2
1002
}
  0
LINE
  5
16761
330
747D
100
AcDbEntity
  8
部品1
100
AcDbLine
 10
8634.673057123659
 20
10112.28248384947
 30
0.0
 11
6114.67305712342
 21
10112.28248384947
 31
0.0
  0
LINE
  5
168C3
330
747D
100
AcDbEntity
  8
部品1
100
AcDbLine
 10
6083.673057123648
 20
7592.282483849444
 30
0.0
 11
6035.673057123647
 21
7592.282483849444
 31
0.0
  0
LINE
  5
168C4
330
747D
100
AcDbEntity
  8
部品1
 48
50.0
100
AcDbLine
 10
6035.673057123648
 20
7592.282483849444
 30
0.0
 11
6035.67305712365
 21
7537.282483849445
 31
0.0
  0
LINE
  5
168C5
330
747D
100
AcDbEntity
  8
部品1
 48
50.0
100
AcDbLine
 10
6083.673057123648
 20
7592.282483849444
 30
0.0
 11
6083.67305712365
 21
7537.282483849445
 31
0.0
  0
DIMENSION
  5
16907
330
747D
100
AcDbEntity
  8
寸法
 48
50.0
100
AcDbDimension
  2
*D20
 10
6059.673057123664
 20
10632.41217703084
 30
0.0
 11
4744.673057123645
 21
10732.42398805446
 31
0.0
 70
    32
 71
     5
 42
2630.000000000036
  3
INABA_S40G
100
AcDbAlignedDimension
 13
3429.673057123629
 23
10167.28248384942
 33
0.0
 14
6059.673057123664
 24
10542.07861783249
 34
0.0
100
AcDbRotatedDimension
1001
ACAD
1000
DSTYLE
1002
{
1070
   279
1070
     2
1002
}
  0
DIMENSION
  5
16913
330
747D
100
AcDbEntity
  8
寸法
 48
50.0
100
AcDbDimension
  2
*D21
 10
8689.673057123664
 20
10632.41217703084
 30
0.0
 11
7374.673057123664
 21
10732.42398805446
 31
0.0
 70
    32
 71
     5
 42
2630.0
  3
INABA_S40G
100
AcDbAlignedDimension
 13
6059.673057123664
 23
10542.07861783249
 33
0.0
 14
8689.673057123664
 24
10167.28248384954
 34
0.0
100
AcDbRotatedDimension
1001
ACAD
1000
DSTYLE
1002
{
1070
    75
1070
     1
1070
   279
1070
     2
1002
}
  0
LINE
  5
16C81
330
747D
100
AcDbEntity
  8
部品1
100
AcDbLine
 10
3457.673057123644
 20
8432.282483849425
 30
0.0
 11
3429.673057123644
 21
8432.282483849425
 31
0.0
  0
LINE
  5
16C82
330
747D
100
AcDbEntity
  8
部品1
100
AcDbLine
 10
8661.673057123667
 20
8432.282483849551
 30
0.0
 11
8689.673057123668
 21
8432.282483849551
 31
0.0
  0
LINE
  5
16FDA
330
747D
100
AcDbEntity
  8
部品1
100
AcDbLine
 10
3457.673057123644
 20
8012.282483849423
 30
0.0
 11
3429.673057123644
 21
8012.282483849423
 31
0.0
  0
LINE
  5
16FDB
330
747D
100
AcDbEntity
  8
部品1
100
AcDbLine
 10
8661.673057123667
 20
8012.282483849551
 30
0.0
 11
8689.673057123668
 21
8012.282483849551
 31
0.0
  0
LINE
  5
16FE7
330
747D
100
AcDbEntity
  8
部品1
 48
50.0
100
AcDbLine
 10
8661.673057123648
 20
10139.28248384954
 30
0.0
 11
8634.673057123659
 21
10112.28248384947
 31
0.0
  0
LINE
  5
16FE8
330
747D
100
AcDbEntity
  8
部品1
 48
50.0
100
AcDbLine
 10
3457.67305712365
 20
10139.28248384957
 30
0.0
 11
3484.673057123637
 21
10112.28248384947
 31
0.0
  0
LINE
  5
16FE9
330
747D
100
AcDbEntity
  8
部品1
 48
50.0
100
AcDbLine
 10
4732.173057123661
 20
10139.28248384957
 30
0.0
 11
4732.173057123662
 21
10131.28248384955
 31
0.0
  0
LINE
  5
16FEA
330
747D
100
AcDbEntity
  8
部品1
 48
50.0
100
AcDbLine
 10
4757.173057123663
 20
10139.28248384956
 30
0.0
 11
4757.173057123664
 21
10131.28248384955
 31
0.0
  0
LINE
  5
16FEB
330
747D
100
AcDbEntity
  8
部品1
 48
50.0
100
AcDbLine
 10
7362.173057123661
 20
10139.28248384957
 30
0.0
 11
7362.173057123662
 21
10131.28248384955
 31
0.0
  0
LINE
  5
16FEC
330
747D
100
AcDbEntity
  8
部品1
 48
50.0
100
AcDbLine
 10
7387.173057123662
 20
10139.28248384956
 30
0.0
 11
7387.173057123662
 21
10131.28248384955
 31
0.0
  0
LINE
  5
16FF8
330
747D
100
AcDbEntity
  8
部品1
 48
50.0
100
AcDbLine
 10
8609.673048579191
 20
10087.28248384931
 30
0.0
 11
6139.673057123395
 21
10087.28248384928
 31
0.0
  0
LINE
  5
17766
330
747D
100
AcDbEntity
  8
部品1
 48
50.0
100
AcDbLine
 10
8732.264636017223
 20
5011.641517987082
 30
0.0
 11
6049.673057123655
 21
5011.641517987082
 31
0.0
  0
LINE
  5
17767
330
747D
100
AcDbEntity
  8
部品1
 48
50.0
100
AcDbLine
 10
8719.049312556188
 20
4870.641517987081
 30
0.0
 11
6059.673057123655
 21
4870.641517987081
 31
0.0
  0
LINE
  5
17768
330
747D
100
AcDbEntity
  8
細線
 48
50.0
100
AcDbLine
 10
8737.51440611174
 20
4983.61476055055
 30
0.0
 11
6049.673057123655
 21
4983.61476055055
 31
0.0
  0
LINE
  5
17769
330
747D
100
AcDbEntity
  8
細線
 48
50.0
100
AcDbLine
 10
8729.278375586895
 20
4891.414760550549
 30
0.0
 11
6049.673057123655
 21
4891.414760550869
 31
0.0
  0
LINE
  5
1776A
330
747D
100
AcDbEntity
  8
部品1
100
AcDbLine
 10
8739.253396108322
 20
5004.244992591841
 30
0.0
 11
8738.119998775976
 21
4984.268864609243
 31
0.0
  0
LINE
  5
1776B
330
747D
100
AcDbEntity
  8
細線
 48
50.0
100
AcDbLine
 10
8706.673057123655
 20
5011.641517987082
 30
0.0
 11
8706.673057123655
 21
4870.641517987081
 31
0.0
  0
LINE
  5
1776C
330
747D
100
AcDbEntity
  8
部品1
100
AcDbLine
 10
8726.682978454398
 20
4888.611457442184
 30
0.0
 11
8726.038072647288
 21
4877.244992591844
 31
0.0
  0
LINE
  5
1776D
330
747D
100
AcDbEntity
  8
部品1
100
AcDbLine
 10
8734.919008979243
 20
4980.811457442185
 30
0.0
 11
8729.883968251131
 21
4892.068864609242
 31
0.0
  0
ARC
  5
1776E
330
747D
100
AcDbEntity
  8
部品1
 48
50.0
100
AcDbCircle
 10
8737.914191875429
 20
4980.641517987081
 30
0.0
 40
3.0
100
AcDbArc
 50
97.65812720736347
 51
176.7526572096623
  0
ARC
  5
1776F
330
747D
100
AcDbEntity
  8
部品1
 48
50.0
100
AcDbCircle
 10
8729.678161350584
 20
4888.441517987081
 30
0.0
 40
3.0
100
AcDbArc
 50
97.65812720736347
 51
176.7526572096623
  0
ARC
  5
17770
330
747D
100
AcDbEntity
  8
部品1
 48
50.0
100
AcDbCircle
 10
8729.185092242024
 20
4892.108517148765
 30
0.0
 40
0.7
100
AcDbArc
 50
277.6581272073635
 51
356.7526572097079
  0
ARC
  5
17771
330
747D
100
AcDbEntity
  8
部品1
 48
50.0
100
AcDbCircle
 10
8737.421122766868
 20
4984.308517148769
 30
0.0
 40
0.7
100
AcDbArc
 50
277.6581272073635
 51
356.7526572096103
  0
ARC
  5
17772
330
747D
100
AcDbEntity
  8
部品1
100
AcDbCircle
 10
8719.049312556188
 20
4877.641517987082
 30
0.0
 40
7.0
100
AcDbArc
 50
270.0
 51
356.7526572096623
  0
ARC
  5
17773
330
747D
100
AcDbEntity
  8
部品1
100
AcDbCircle
 10
8732.264636017223
 20
5004.641517987082
 30
0.0
 40
7.0
100
AcDbArc
 50
356.7526572096623
 51
90.0
  0
DIMENSION
  5
17774
330
747D
100
AcDbEntity
  8
寸法
 48
50.0
100
AcDbDimension
  2
*D22
 10
8739.673057123654
 20
5627.260786944997
 30
0.0
 11
6059.673057123655
 21
5627.260786944997
 31
0.0
 70
   160
 71
     5
 42
5360.0
  3
INABA_S40G
100
AcDbAlignedDimension
 13
3379.673057123655
 23
5011.641517987083
 33
0.0
 14
8739.673057123654
 24
5011.641517987081
 34
0.0
100
AcDbRotatedDimension
  0
DIMENSION
  5
17775
330
747D
100
AcDbEntity
  8
寸法
 48
50.0
100
AcDbDimension
  2
*D23
 10
8689.673057123654
 20
5410.734687326551
 30
0.0
 11
9053.158338497892
 21
5410.734687326551
 31
0.0
 70
   160
 71
     5
 42
50.0
  3
INABA_S40G
100
AcDbAlignedDimension
 13
8739.673057123654
 23
5011.641517987081
 33
0.0
 14
8689.673057123654
 24
5011.641517987083
 34
0.0
100
AcDbRotatedDimension
  0
DIMENSION
  5
17776
330
747D
100
AcDbEntity
  8
寸法
 48
50.0
100
AcDbDimension
  2
*D24
 10
3429.673057123655
 20
5410.734687326551
 30
0.0
 11
6059.673057123655
 21
5410.734687326551
 31
0.0
 70
   160
  1
柱外寸法<>
 71
     5
 42
5260.0
  3
INABA_S40G
100
AcDbAlignedDimension
 13
8689.673057123654
 23
5011.641517987083
 33
0.0
 14
3429.673057123655
 24
5011.641517987085
 34
0.0
100
AcDbRotatedDimension
  0
LWPOLYLINE
  5
17777
330
747D
100
AcDbEntity
  8
部品1
100
AcDbPolyline
 90
        4
 70
     1
 43
0.0
 10
5677.937724009432
 20
1886.641517987078
 10
5677.937724009432
 20
1646.749196441546
 10
6441.408390237878
 20
1646.749196441546
 10
6441.408390237878
 20
1886.641517987078
  0
TEXT
  5
17778
330
747D
100
AcDbEntity
  8
部品1
100
AcDbText
 10
5768.463127747389
 20
1693.747988768555
 30
0.0
 40
135.0
  1
正面図
  7
STYLE2
100
AcDbText
  0
ARC
  5
17784
330
747D
100
AcDbEntity
  8
細線
 48
50.0
100
AcDbCircle
 10
7074.673057123651
 20
3199.141517987079
 30
0.0
 40
15.0
100
AcDbArc
 50
90.0
 51
270.0
  0
ARC
  5
17785
330
747D
100
AcDbEntity
  8
細線
 48
50.0
100
AcDbCircle
 10
7174.673057123651
 20
3199.141517987079
 30
0.0
 40
15.0
100
AcDbArc
 50
270.0
 51
90.0
  0
LINE
  5
17786
330
747D
100
AcDbEntity
  8
細線
 48
50.0
100
AcDbLine
 10
7074.673057123651
 20
3214.141517987079
 30
0.0
 11
7174.673057123651
 21
3214.141517987079
 31
0.0
  0
LINE
  5
17787
330
747D
100
AcDbEntity
  8
細線
 48
50.0
100
AcDbLine
 10
7174.673057123651
 20
3184.141517987078
 30
0.0
 11
7074.673057123651
 21
3184.141517987078
 31
0.0
  0
LINE
  5
17788
330
747D
100
AcDbEntity
  8
細線
 48
50.0
100
AcDbLine
 10
7674.673057123651
 20
3184.141517987078
 30
0.0
 11
7574.673057123651
 21
3184.141517987078
 31
0.0
  0
LINE
  5
17789
330
747D
100
AcDbEntity
  8
細線
 48
50.0
100
AcDbLine
 10
7574.673057123651
 20
3214.141517987079
 30
0.0
 11
7674.673057123651
 21
3214.141517987079
 31
0.0
  0
ARC
  5
1778A
330
747D
100
AcDbEntity
  8
細線
 48
50.0
100
AcDbCircle
 10
7574.673057123651
 20
3199.141517987079
 30
0.0
 40
15.0
100
AcDbArc
 50
90.0
 51
270.0
  0
ARC
  5
1778B
330
747D
100
AcDbEntity
  8
細線
 48
50.0
100
AcDbCircle
 10
7674.673057123651
 20
3199.141517987079
 30
0.0
 40
15.0
100
AcDbArc
 50
270.0
 51
90.0
  0
CIRCLE
  5
1778C
330
747D
100
AcDbEntity
  8
細線
 48
50.0
100
AcDbCircle
 10
7374.673057123651
 20
3524.141517987079
 30
0.0
 40
18.0
  0
LINE
  5
17790
330
747D
100
AcDbEntity
  8
細線
100
AcDbLine
 10
8586.673057123652
 20
2646.641517987078
 30
0.0
 11
6162.673057123647
 21
2646.641517987078
 31
0.0
  0
LINE
  5
17791
330
747D
100
AcDbEntity
  8
細線
100
AcDbLine
 10
6162.673057123651
 20
3166.641517987078
 30
0.0
 11
8586.673057123652
 21
3166.641517987078
 31
0.0
  0
LINE
  5
17792
330
747D
100
AcDbEntity
  8
細線
100
AcDbLine
 10
6162.673057123651
 20
3101.641517987078
 30
0.0
 11
8586.673057123652
 21
3101.641517987078
 31
0.0
  0
LINE
  5
17793
330
747D
100
AcDbEntity
  8
細線
100
AcDbLine
 10
6162.673057123651
 20
3036.641517987078
 30
0.0
 11
8586.673057123652
 21
3036.641517987078
 31
0.0
  0
LINE
  5
17794
330
747D
100
AcDbEntity
  8
細線
100
AcDbLine
 10
6162.673057123651
 20
2971.641517987078
 30
0.0
 11
8586.673057123652
 21
2971.641517987078
 31
0.0
  0
LINE
  5
17795
330
747D
100
AcDbEntity
  8
細線
100
AcDbLine
 10
6162.673057123651
 20
2906.641517987079
 30
0.0
 11
8586.673057123652
 21
2906.641517987079
 31
0.0
  0
LINE
  5
17796
330
747D
100
AcDbEntity
  8
細線
100
AcDbLine
 10
6162.673057123651
 20
2841.641517987078
 30
0.0
 11
8586.673057123652
 21
2841.641517987078
 31
0.0
  0
LINE
  5
17797
330
747D
100
AcDbEntity
  8
細線
100
AcDbLine
 10
6162.673057123651
 20
2776.641517987079
 30
0.0
 11
8586.673057123652
 21
2776.641517987079
 31
0.0
  0
LINE
  5
17798
330
747D
100
AcDbEntity
  8
細線
100
AcDbLine
 10
6162.673057123651
 20
2711.641517987079
 30
0.0
 11
8586.673057123652
 21
2711.641517987079
 31
0.0
  0
LINE
  5
17799
330
747D
100
AcDbEntity
  8
細線
100
AcDbLine
 10
6162.673057123651
 20
2646.641517987078
 30
0.0
 11
8586.673057123652
 21
2646.641517987078
 31
0.0
  0
LINE
  5
1779A
330
747D
100
AcDbEntity
  8
細線
100
AcDbLine
 10
6162.673057123651
 20
4466.641517987078
 30
0.0
 11
8586.673057123652
 21
4466.641517987078
 31
0.0
  0
LINE
  5
1779B
330
747D
100
AcDbEntity
  8
細線
100
AcDbLine
 10
6162.673057123651
 20
4596.641517987078
 30
0.0
 11
8586.673057123652
 21
4596.641517987078
 31
0.0
  0
LINE
  5
1779C
330
747D
100
AcDbEntity
  8
細線
100
AcDbLine
 10
6162.673057123651
 20
4531.641517987078
 30
0.0
 11
8586.673057123652
 21
4531.641517987078
 31
0.0
  0
LINE
  5
1779D
330
747D
100
AcDbEntity
  8
細線
100
AcDbLine
 10
6162.673057123651
 20
3816.641517987078
 30
0.0
 11
8586.673057123652
 21
3816.641517987078
 31
0.0
  0
LINE
  5
1779E
330
747D
100
AcDbEntity
  8
細線
100
AcDbLine
 10
6162.673057123651
 20
3751.641517987078
 30
0.0
 11
8586.673057123652
 21
3751.641517987078
 31
0.0
  0
LINE
  5
1779F
330
747D
100
AcDbEntity
  8
細線
100
AcDbLine
 10
6162.673057123651
 20
3686.641517987079
 30
0.0
 11
8586.673057123652
 21
3686.641517987079
 31
0.0
  0
LINE
  5
177A0
330
747D
100
AcDbEntity
  8
細線
100
AcDbLine
 10
6162.673057123651
 20
3621.641517987079
 30
0.0
 11
8586.673057123652
 21
3621.641517987079
 31
0.0
  0
LINE
  5
177A1
330
747D
100
AcDbEntity
  8
細線
100
AcDbLine
 10
6162.673057123651
 20
3556.641517987078
 30
0.0
 11
8586.673057123652
 21
3556.641517987078
 31
0.0
  0
LINE
  5
177A2
330
747D
100
AcDbEntity
  8
細線
100
AcDbLine
 10
6162.673057123651
 20
3491.641517987079
 30
0.0
 11
8586.673057123652
 21
3491.641517987079
 31
0.0
  0
LINE
  5
177A3
330
747D
100
AcDbEntity
  8
細線
100
AcDbLine
 10
6162.673057123651
 20
3426.641517987079
 30
0.0
 11
8586.673057123652
 21
3426.641517987079
 31
0.0
  0
LINE
  5
177A4
330
747D
100
AcDbEntity
  8
細線
100
AcDbLine
 10
6162.673057123651
 20
3361.641517987079
 30
0.0
 11
8586.673057123652
 21
3361.641517987079
 31
0.0
  0
LINE
  5
177A5
330
747D
100
AcDbEntity
  8
細線
100
AcDbLine
 10
6162.673057123651
 20
3296.641517987079
 30
0.0
 11
8586.673057123652
 21
3296.641517987079
 31
0.0
  0
LINE
  5
177A6
330
747D
100
AcDbEntity
  8
細線
100
AcDbLine
 10
6162.673057123651
 20
3231.641517987078
 30
0.0
 11
8586.673057123652
 21
3231.641517987078
 31
0.0
  0
LINE
  5
177A7
330
747D
100
AcDbEntity
  8
細線
100
AcDbLine
 10
6162.673057123651
 20
4206.641517987078
 30
0.0
 11
8586.673057123652
 21
4206.641517987078
 31
0.0
  0
LINE
  5
177A8
330
747D
100
AcDbEntity
  8
細線
100
AcDbLine
 10
6162.673057123651
 20
4141.641517987078
 30
0.0
 11
8586.673057123652
 21
4141.641517987078
 31
0.0
  0
LINE
  5
177A9
330
747D
100
AcDbEntity
  8
細線
100
AcDbLine
 10
6162.673057123651
 20
4076.641517987078
 30
0.0
 11
8586.673057123652
 21
4076.641517987078
 31
0.0
  0
LINE
  5
177AA
330
747D
100
AcDbEntity
  8
細線
100
AcDbLine
 10
6162.673057123651
 20
4011.641517987079
 30
0.0
 11
8586.673057123652
 21
4011.641517987079
 31
0.0
  0
LINE
  5
177AB
330
747D
100
AcDbEntity
  8
細線
100
AcDbLine
 10
6162.673057123651
 20
3946.641517987078
 30
0.0
 11
8586.673057123652
 21
3946.641517987078
 31
0.0
  0
LINE
  5
177AC
330
747D
100
AcDbEntity
  8
細線
100
AcDbLine
 10
6162.673057123651
 20
3881.641517987078
 30
0.0
 11
8586.673057123652
 21
3881.641517987078
 31
0.0
  0
LINE
  5
177AD
330
747D
100
AcDbEntity
  8
細線
100
AcDbLine
 10
6162.673057123651
 20
4401.641517987078
 30
0.0
 11
8586.673057123652
 21
4401.641517987078
 31
0.0
  0
LINE
  5
177AE
330
747D
100
AcDbEntity
  8
細線
100
AcDbLine
 10
6162.673057123651
 20
4336.641517987078
 30
0.0
 11
8586.673057123652
 21
4336.641517987078
 31
0.0
  0
LINE
  5
177AF
330
747D
100
AcDbEntity
  8
細線
100
AcDbLine
 10
6162.673057123651
 20
4271.641517987078
 30
0.0
 11
8586.673057123652
 21
4271.641517987078
 31
0.0
  0
LINE
  5
177B0
330
747D
100
AcDbEntity
  8
部品1
100
AcDbLine
 10
6114.673057123651
 20
4611.641517987078
 30
0.0
 11
8689.673057123652
 21
4611.641517987078
 31
0.0
  0
LINE
  5
177B1
330
747D
100
AcDbEntity
  8
部品1
100
AcDbLine
 10
8586.673057123654
 20
4611.641517987078
 30
0.0
 11
8586.673057123652
 21
2636.641517987079
 31
0.0
  0
LINE
  5
177B2
330
747D
100
AcDbEntity
  8
部品1
100
AcDbLine
 10
6162.673057123651
 20
4611.641517987078
 30
0.0
 11
6162.673057123651
 21
2636.641517987079
 31
0.0
  0
LINE
  5
177B3
330
747D
100
AcDbEntity
  8
部品1
100
AcDbLine
 10
8689.673057123652
 20
4870.641517987081
 30
0.0
 11
8689.673057123652
 21
2536.641517987078
 31
0.0
  0
LINE
  5
177B4
330
747D
100
AcDbEntity
  8
部品1
100
AcDbLine
 10
6114.673057123653
 20
4611.641517987079
 30
0.0
 11
6114.673057123651
 21
2636.641517987079
 31
0.0
  0
LINE
  5
177B5
330
747D
100
AcDbEntity
  8
部品1
100
AcDbLine
 10
8634.673057123652
 20
4611.64151798708
 30
0.0
 11
8634.673057123652
 21
2636.641517987079
 31
0.0
  0
LINE
  5
177B6
330
747D
100
AcDbEntity
  8
部品1
100
AcDbLine
 10
6059.673057123651
 20
4776.641517987078
 30
0.0
 11
8689.673057123652
 21
4776.641517987078
 31
0.0
  0
LINE
  5
177B7
330
747D
100
AcDbEntity
  8
部品1
100
AcDbLine
 10
6059.673057123651
 20
2636.641517987079
 30
0.0
 11
8689.673057123652
 21
2636.641517987079
 31
0.0
  0
LINE
  5
177B8
330
747D
100
AcDbEntity
  8
部品1
100
AcDbLine
 10
2440.903465777272
 20
2666.545328554743
 30
0.0
 11
2590.903465777272
 21
2666.545328554743
 31
0.0
  0
LINE
  5
177B9
330
747D
100
AcDbEntity
  8
部品1
100
AcDbLine
 10
2515.903465777272
 20
2536.641517987078
 30
0.0
 11
2440.903465777272
 21
2666.545328554743
 31
0.0
  0
TEXT
  5
177BA
330
747D
100
AcDbEntity
  8
部品1
100
AcDbText
 10
2619.008407902045
 20
2572.74842159298
 30
0.0
 40
125.0
  1
G.L
  7
STYLE2
100
AcDbText
  0
LINE
  5
177BB
330
747D
100
AcDbEntity
  8
部品1
100
AcDbLine
 10
2590.903465777272
 20
2666.545328554743
 30
0.0
 11
2515.903465777272
 21
2536.641517987078
 31
0.0
  0
LINE
  5
177BC
330
747D
100
AcDbEntity
  8
部品1
100
AcDbLine
 10
3429.673057123655
 20
2636.641517987079
 30
0.0
 11
6059.673057123655
 21
2636.641517987079
 31
0.0
  0
LINE
  5
177BD
330
747D
100
AcDbEntity
  8
部品1
100
AcDbLine
 10
3429.673057123655
 20
4776.641517987078
 30
0.0
 11
6059.673057123655
 21
4776.641517987078
 31
0.0
  0
LINE
  5
177BE
330
747D
100
AcDbEntity
  8
部品1
100
AcDbLine
 10
3429.673057123655
 20
4870.641517987081
 30
0.0
 11
3429.673057123655
 21
2536.641517987078
 31
0.0
  0
LINE
  5
177BF
330
747D
100
AcDbEntity
  8
部品1
100
AcDbLine
 10
6004.673057123653
 20
4611.641517987079
 30
0.0
 11
6004.673057123655
 21
2636.641517987079
 31
0.0
  0
LINE
  5
177C0
330
747D
100
AcDbEntity
  8
部品1
100
AcDbLine
 10
3484.673057123655
 20
4611.641517987078
 30
0.0
 11
3484.673057123655
 21
2636.641517987079
 31
0.0
  0
LINE
  5
177C1
330
747D
100
AcDbEntity
  8
部品1
100
AcDbLine
 10
3532.673057123655
 20
4611.641517987078
 30
0.0
 11
3532.673057123655
 21
2636.641517987079
 31
0.0
  0
LINE
  5
177C2
330
747D
100
AcDbEntity
  8
部品1
100
AcDbLine
 10
5956.673057123655
 20
4611.641517987078
 30
0.0
 11
5956.673057123655
 21
2636.641517987079
 31
0.0
  0
LINE
  5
177C3
330
747D
100
AcDbEntity
  8
部品1
100
AcDbLine
 10
3429.673057123655
 20
4611.641517987078
 30
0.0
 11
6114.673057123653
 21
4611.641517987079
 31
0.0
  0
LINE
  5
177C4
330
747D
100
AcDbEntity
  8
細線
100
AcDbLine
 10
3532.673057123655
 20
4271.641517987078
 30
0.0
 11
5956.673057123655
 21
4271.641517987078
 31
0.0
  0
LINE
  5
177C5
330
747D
100
AcDbEntity
  8
細線
100
AcDbLine
 10
3532.673057123655
 20
4336.641517987078
 30
0.0
 11
5956.673057123655
 21
4336.641517987078
 31
0.0
  0
LINE
  5
177C6
330
747D
100
AcDbEntity
  8
細線
100
AcDbLine
 10
3532.673057123655
 20
4401.641517987078
 30
0.0
 11
5956.673057123655
 21
4401.641517987078
 31
0.0
  0
LINE
  5
177C7
330
747D
100
AcDbEntity
  8
細線
100
AcDbLine
 10
3532.673057123655
 20
3881.641517987078
 30
0.0
 11
5956.673057123655
 21
3881.641517987078
 31
0.0
  0
LINE
  5
177C8
330
747D
100
AcDbEntity
  8
細線
100
AcDbLine
 10
3532.673057123655
 20
3946.641517987078
 30
0.0
 11
5956.673057123655
 21
3946.641517987078
 31
0.0
  0
LINE
  5
177C9
330
747D
100
AcDbEntity
  8
細線
100
AcDbLine
 10
3532.673057123655
 20
4011.641517987079
 30
0.0
 11
5956.673057123655
 21
4011.641517987079
 31
0.0
  0
LINE
  5
177CA
330
747D
100
AcDbEntity
  8
細線
100
AcDbLine
 10
3532.673057123655
 20
4076.641517987078
 30
0.0
 11
5956.673057123655
 21
4076.641517987078
 31
0.0
  0
LINE
  5
177CB
330
747D
100
AcDbEntity
  8
細線
100
AcDbLine
 10
3532.673057123655
 20
4141.641517987078
 30
0.0
 11
5956.673057123655
 21
4141.641517987078
 31
0.0
  0
LINE
  5
177CC
330
747D
100
AcDbEntity
  8
細線
100
AcDbLine
 10
3532.673057123655
 20
4206.641517987078
 30
0.0
 11
5956.673057123655
 21
4206.641517987078
 31
0.0
  0
LINE
  5
177CD
330
747D
100
AcDbEntity
  8
細線
100
AcDbLine
 10
3532.673057123655
 20
3231.641517987078
 30
0.0
 11
5956.673057123655
 21
3231.641517987078
 31
0.0
  0
LINE
  5
177CE
330
747D
100
AcDbEntity
  8
細線
100
AcDbLine
 10
3532.673057123655
 20
3296.641517987079
 30
0.0
 11
5956.673057123655
 21
3296.641517987079
 31
0.0
  0
LINE
  5
177CF
330
747D
100
AcDbEntity
  8
細線
100
AcDbLine
 10
3532.673057123655
 20
3361.641517987079
 30
0.0
 11
5956.673057123655
 21
3361.641517987079
 31
0.0
  0
LINE
  5
177D0
330
747D
100
AcDbEntity
  8
細線
100
AcDbLine
 10
3532.673057123655
 20
3426.641517987079
 30
0.0
 11
5956.673057123655
 21
3426.641517987079
 31
0.0
  0
LINE
  5
177D1
330
747D
100
AcDbEntity
  8
細線
100
AcDbLine
 10
3532.673057123655
 20
3491.641517987079
 30
0.0
 11
5956.673057123655
 21
3491.641517987079
 31
0.0
  0
LINE
  5
177D2
330
747D
100
AcDbEntity
  8
細線
100
AcDbLine
 10
3532.673057123655
 20
3556.641517987078
 30
0.0
 11
5956.673057123655
 21
3556.641517987078
 31
0.0
  0
LINE
  5
177D3
330
747D
100
AcDbEntity
  8
細線
100
AcDbLine
 10
3532.673057123655
 20
3621.641517987079
 30
0.0
 11
5956.673057123655
 21
3621.641517987079
 31
0.0
  0
LINE
  5
177D4
330
747D
100
AcDbEntity
  8
細線
100
AcDbLine
 10
3532.673057123655
 20
3686.641517987079
 30
0.0
 11
5956.673057123655
 21
3686.641517987079
 31
0.0
  0
LINE
  5
177D5
330
747D
100
AcDbEntity
  8
細線
100
AcDbLine
 10
3532.673057123655
 20
3751.641517987078
 30
0.0
 11
5956.673057123655
 21
3751.641517987078
 31
0.0
  0
LINE
  5
177D6
330
747D
100
AcDbEntity
  8
細線
100
AcDbLine
 10
3532.673057123655
 20
3816.641517987078
 30
0.0
 11
5956.673057123655
 21
3816.641517987078
 31
0.0
  0
LINE
  5
177D7
330
747D
100
AcDbEntity
  8
細線
100
AcDbLine
 10
3532.673057123655
 20
4531.641517987078
 30
0.0
 11
5956.673057123655
 21
4531.641517987078
 31
0.0
  0
LINE
  5
177D8
330
747D
100
AcDbEntity
  8
細線
100
AcDbLine
 10
3532.673057123655
 20
4596.641517987078
 30
0.0
 11
5956.673057123655
 21
4596.641517987078
 31
0.0
  0
LINE
  5
177D9
330
747D
100
AcDbEntity
  8
細線
100
AcDbLine
 10
3532.673057123655
 20
4466.641517987078
 30
0.0
 11
5956.673057123655
 21
4466.641517987078
 31
0.0
  0
LINE
  5
177DA
330
747D
100
AcDbEntity
  8
細線
100
AcDbLine
 10
3532.673057123655
 20
2646.641517987078
 30
0.0
 11
5956.673057123655
 21
2646.641517987078
 31
0.0
  0
LINE
  5
177DB
330
747D
100
AcDbEntity
  8
細線
100
AcDbLine
 10
3532.673057123655
 20
2711.641517987079
 30
0.0
 11
5956.673057123655
 21
2711.641517987079
 31
0.0
  0
LINE
  5
177DC
330
747D
100
AcDbEntity
  8
細線
100
AcDbLine
 10
3532.673057123655
 20
2776.641517987079
 30
0.0
 11
5956.673057123655
 21
2776.641517987079
 31
0.0
  0
LINE
  5
177DD
330
747D
100
AcDbEntity
  8
細線
100
AcDbLine
 10
3532.673057123655
 20
2841.641517987078
 30
0.0
 11
5956.673057123655
 21
2841.641517987078
 31
0.0
  0
LINE
  5
177DE
330
747D
100
AcDbEntity
  8
細線
100
AcDbLine
 10
3532.673057123655
 20
2906.641517987079
 30
0.0
 11
5956.673057123655
 21
2906.641517987079
 31
0.0
  0
LINE
  5
177DF
330
747D
100
AcDbEntity
  8
細線
100
AcDbLine
 10
3532.673057123655
 20
2971.641517987078
 30
0.0
 11
5956.673057123655
 21
2971.641517987078
 31
0.0
  0
LINE
  5
177E0
330
747D
100
AcDbEntity
  8
細線
100
AcDbLine
 10
3532.673057123655
 20
3036.641517987078
 30
0.0
 11
5956.673057123655
 21
3036.641517987078
 31
0.0
  0
LINE
  5
177E1
330
747D
100
AcDbEntity
  8
細線
100
AcDbLine
 10
3532.673057123655
 20
3101.641517987078
 30
0.0
 11
5956.673057123655
 21
3101.641517987078
 31
0.0
  0
LINE
  5
177E2
330
747D
100
AcDbEntity
  8
細線
100
AcDbLine
 10
3532.673057123655
 20
3166.641517987078
 30
0.0
 11
5956.673057123655
 21
3166.641517987078
 31
0.0
  0
LINE
  5
177E3
330
747D
100
AcDbEntity
  8
細線
100
AcDbLine
 10
5956.673057123655
 20
2646.641517987078
 30
0.0
 11
3532.673057123647
 21
2646.641517987078
 31
0.0
  0
CIRCLE
  5
177E4
330
747D
100
AcDbEntity
  8
細線
 48
50.0
100
AcDbCircle
 10
4744.673057123654
 20
3524.141517987079
 30
0.0
 40
18.0
  0
ARC
  5
177E5
330
747D
100
AcDbEntity
  8
細線
 48
50.0
100
AcDbCircle
 10
5044.673057123655
 20
3199.141517987079
 30
0.0
 40
15.0
100
AcDbArc
 50
270.0
 51
90.0
  0
ARC
  5
177E6
330
747D
100
AcDbEntity
  8
細線
 48
50.0
100
AcDbCircle
 10
4944.673057123655
 20
3199.141517987079
 30
0.0
 40
15.0
100
AcDbArc
 50
90.0
 51
270.0
  0
LINE
  5
177E7
330
747D
100
AcDbEntity
  8
細線
 48
50.0
100
AcDbLine
 10
4944.673057123655
 20
3214.141517987079
 30
0.0
 11
5044.673057123655
 21
3214.141517987079
 31
0.0
  0
LINE
  5
177E8
330
747D
100
AcDbEntity
  8
細線
 48
50.0
100
AcDbLine
 10
5044.673057123655
 20
3184.141517987078
 30
0.0
 11
4944.673057123655
 21
3184.141517987078
 31
0.0
  0
LINE
  5
177E9
330
747D
100
AcDbEntity
  8
細線
 48
50.0
100
AcDbLine
 10
4544.673057123655
 20
3184.141517987078
 30
0.0
 11
4444.673057123655
 21
3184.141517987078
 31
0.0
  0
LINE
  5
177EA
330
747D
100
AcDbEntity
  8
細線
 48
50.0
100
AcDbLine
 10
4444.673057123655
 20
3214.141517987079
 30
0.0
 11
4544.673057123655
 21
3214.141517987079
 31
0.0
  0
ARC
  5
177EB
330
747D
100
AcDbEntity
  8
細線
 48
50.0
100
AcDbCircle
 10
4544.673057123655
 20
3199.141517987079
 30
0.0
 40
15.0
100
AcDbArc
 50
270.0
 51
90.0
  0
ARC
  5
177EC
330
747D
100
AcDbEntity
  8
細線
 48
50.0
100
AcDbCircle
 10
4444.673057123655
 20
3199.141517987079
 30
0.0
 40
15.0
100
AcDbArc
 50
90.0
 51
270.0
  0
DIMENSION
  5
177F8
330
747D
100
AcDbEntity
  8
寸法
 48
50.0
100
AcDbDimension
  2
*D25
 10
3379.673057123655
 20
5410.734687326551
 30
0.0
 11
3066.187775749408
 21
5410.734687326551
 31
0.0
 70
   160
 71
     5
 42
50.0
  3
INABA_S40G
100
AcDbAlignedDimension
 13
3429.673057123655
 23
5011.641517987085
 33
0.0
 14
3379.673057123655
 24
5011.641517987083
 34
0.0
100
AcDbRotatedDimension
1001
ACAD
1000
DSTYLE
1002
{
1002
}
  0
LINE
  5
177F9
330
747D
100
AcDbEntity
  8
部品1
100
AcDbLine
 10
3380.092718138985
 20
5004.244992591841
 30
0.0
 11
3381.226115471334
 21
4984.268864609243
 31
0.0
  0
LINE
  5
177FA
330
747D
100
AcDbEntity
  8
部品1
100
AcDbLine
 10
3392.663135792915
 20
4888.611457442184
 30
0.0
 11
3393.308041600023
 21
4877.244992591844
 31
0.0
  0
LINE
  5
177FB
330
747D
100
AcDbEntity
  8
部品1
100
AcDbLine
 10
3384.427105268063
 20
4980.811457442185
 30
0.0
 11
3389.462145996179
 21
4892.068864609242
 31
0.0
  0
ARC
  5
177FC
330
747D
100
AcDbEntity
  8
部品1
 48
50.0
100
AcDbCircle
 10
3381.431922371878
 20
4980.641517987081
 30
0.0
 40
3.0
100
AcDbArc
 50
3.247342790337682
 51
82.34187279263654
  0
ARC
  5
177FD
330
747D
100
AcDbEntity
  8
部品1
 48
50.0
100
AcDbCircle
 10
3389.667952896722
 20
4888.441517987081
 30
0.0
 40
3.0
100
AcDbArc
 50
3.247342790337682
 51
82.34187279263654
  0
ARC
  5
177FE
330
747D
100
AcDbEntity
  8
部品1
 48
50.0
100
AcDbCircle
 10
3390.161022005282
 20
4892.108517148765
 30
0.0
 40
0.7
100
AcDbArc
 50
183.2473427902922
 51
262.3418727926365
  0
ARC
  5
177FF
330
747D
100
AcDbEntity
  8
部品1
 48
50.0
100
AcDbCircle
 10
3381.924991480446
 20
4984.308517148769
 30
0.0
 40
0.7
100
AcDbArc
 50
183.2473427903897
 51
262.3418727926365
  0
ARC
  5
17800
330
747D
100
AcDbEntity
  8
部品1
100
AcDbCircle
 10
3400.296801691118
 20
4877.641517987082
 30
0.0
 40
7.0
100
AcDbArc
 50
183.2473427903377
 51
270.0
  0
ARC
  5
17801
330
747D
100
AcDbEntity
  8
部品1
100
AcDbCircle
 10
3387.081478230088
 20
5004.641517987082
 30
0.0
 40
7.0
100
AcDbArc
 50
90.0
 51
183.2473427903377
  0
LINE
  5
17802
330
747D
100
AcDbEntity
  8
細線
 48
50.0
100
AcDbLine
 10
3412.673057123655
 20
5011.641517987082
 30
0.0
 11
3412.673057123655
 21
4870.641517987081
 31
0.0
  0
LINE
  5
17803
330
747D
100
AcDbEntity
  8
細線
 48
50.0
100
AcDbLine
 10
6049.673057123655
 20
4891.414760550865
 30
0.0
 11
3390.067738660459
 21
4891.414760550869
 31
0.0
  0
LINE
  5
17804
330
747D
100
AcDbEntity
  8
細線
 48
50.0
100
AcDbLine
 10
6049.673057123655
 20
4983.61476055055
 30
0.0
 11
3381.831708135614
 21
4983.614760550871
 31
0.0
  0
LINE
  5
17805
330
747D
100
AcDbEntity
  8
部品1
 48
50.0
100
AcDbLine
 10
6059.673057123655
 20
4870.641517987081
 30
0.0
 11
3400.296801691118
 21
4870.641517987081
 31
0.0
  0
LINE
  5
17806
330
747D
100
AcDbEntity
  8
部品1
 48
50.0
100
AcDbLine
 10
6049.673057123655
 20
5011.641517987082
 30
0.0
 11
3387.081478230088
 21
5011.641517987082
 31
0.0
  0
LINE
  5
17833
330
747D
100
AcDbEntity
  8
部品1
 48
50.0
100
AcDbLine
 10
6049.673057123655
 20
4870.641517987081
 30
0.0
 11
6049.673057123651
 21
5011.641517987083
 31
0.0
  0
LINE
  5
17834
330
747D
100
AcDbEntity
  8
部品1
 48
50.0
100
AcDbLine
 10
6059.673057123656
 20
4611.641517987079
 30
0.0
 11
6059.673057123655
 21
4870.641517987081
 31
0.0
  0
LINE
  5
1790C
330
747D
100
AcDbEntity
  8
Ｇ．Ｌ
100
AcDbLine
 10
2255.550217542259
 20
2536.641517987078
 30
0.0
 11
14479.89257238587
 21
2536.641517987078
 31
0.0
  0
LINE
  5
188AA
330
747D
100
AcDbEntity
  8
部品1
100
AcDbLine
 10
11316.84983051324
 20
2636.641517987076
 30
0.0
 11
10923.85261630439
 21
2536.641517987077
 31
0.0
  0
LINE
  5
188AB
330
747D
100
AcDbEntity
  8
破線
 48
5.0
100
AcDbLine
 10
11316.84983051324
 20
2286.641517987074
 30
0.0
 11
11371.84983051324
 21
2286.641517987074
 31
0.0
  0
LINE
  5
188AC
330
747D
100
AcDbEntity
  8
破線
 48
5.0
100
AcDbLine
 10
11371.84983051324
 20
2536.641517987077
 30
0.0
 11
11371.84983051324
 21
2286.641517987074
 31
0.0
  0
LINE
  5
188AD
330
747D
100
AcDbEntity
  8
破線
 48
5.0
100
AcDbLine
 10
11316.84983051324
 20
2536.641517987077
 30
0.0
 11
11316.84983051324
 21
2286.641517987074
 31
0.0
  0
DIMENSION
  5
188B3
330
747D
100
AcDbEntity
  8
寸法
 48
50.0
100
AcDbDimension
  2
*D26
 10
10696.24142374487
 20
4885.986776860406
 30
0.0
 11
10706.90689900379
 21
5256.833440102107
 31
0.0
 70
   161
 71
     5
 42
141.0000000000009
  3
INABA_S40G
100
AcDbAlignedDimension
 13
11276.24585067182
 23
5010.364266821755
 33
0.0
 14
11272.1923951152
 24
4869.422543056042
 34
0.0
1001
ACAD
1000
DSTYLE
1002
{
1070
   174
1070
     0
1070
   272
1070
     1
1070
   288
1070
     0
1070
   341
1005
0
1002
}
  0
LINE
  5
188B4
330
747D
100
AcDbEntity
  8
細線
 48
50.0
100
AcDbLine
 10
13814.34983051325
 20
4776.641517987076
 30
0.0
 11
13814.34983051325
 21
2686.641517987077
 31
0.0
  0
LINE
  5
188B5
330
747D
100
AcDbEntity
  8
細線
 48
50.0
100
AcDbLine
 10
13829.34983051325
 20
4776.641517987076
 30
0.0
 11
13829.34983051325
 21
2686.641517987077
 31
0.0
  0
LINE
  5
188B6
330
747D
100
AcDbEntity
  8
細線
 48
50.0
100
AcDbLine
 10
13689.34983051325
 20
4776.641517987076
 30
0.0
 11
13689.34983051325
 21
2686.641517987077
 31
0.0
  0
LINE
  5
188B7
330
747D
100
AcDbEntity
  8
細線
 48
50.0
100
AcDbLine
 10
13674.34983051325
 20
4776.641517987076
 30
0.0
 11
13674.34983051325
 21
2686.641517987077
 31
0.0
  0
LINE
  5
188B8
330
747D
100
AcDbEntity
  8
細線
 48
50.0
100
AcDbLine
 10
13534.34983051325
 20
4776.641517987076
 30
0.0
 11
13534.34983051325
 21
2686.641517987077
 31
0.0
  0
LINE
  5
188B9
330
747D
100
AcDbEntity
  8
細線
 48
50.0
100
AcDbLine
 10
13549.34983051325
 20
4776.641517987076
 30
0.0
 11
13549.34983051325
 21
2686.641517987077
 31
0.0
  0
LINE
  5
188BA
330
747D
100
AcDbEntity
  8
部品1
100
AcDbLine
 10
12631.84983051324
 20
4776.641517987076
 30
0.0
 11
12631.84983051324
 21
2686.641517987077
 31
0.0
  0
LINE
  5
188BB
330
747D
100
AcDbEntity
  8
細線
 48
50.0
100
AcDbLine
 10
12289.34983051324
 20
4776.641517987076
 30
0.0
 11
12289.34983051325
 21
2686.641517987077
 31
0.0
  0
LINE
  5
188BC
330
747D
100
AcDbEntity
  8
細線
 48
50.0
100
AcDbLine
 10
12274.34983051324
 20
4776.641517987076
 30
0.0
 11
12274.34983051325
 21
2686.641517987077
 31
0.0
  0
LINE
  5
188BD
330
747D
100
AcDbEntity
  8
細線
 48
50.0
100
AcDbLine
 10
12414.34983051324
 20
4776.641517987076
 30
0.0
 11
12414.34983051325
 21
2686.641517987077
 31
0.0
  0
LINE
  5
188BE
330
747D
100
AcDbEntity
  8
細線
 48
50.0
100
AcDbLine
 10
12429.34983051324
 20
4776.641517987076
 30
0.0
 11
12429.34983051325
 21
2686.641517987077
 31
0.0
  0
LINE
  5
188BF
330
747D
100
AcDbEntity
  8
細線
 48
50.0
100
AcDbLine
 10
12569.34983051324
 20
4776.641517987076
 30
0.0
 11
12569.34983051324
 21
2686.641517987077
 31
0.0
  0
LINE
  5
188C0
330
747D
100
AcDbEntity
  8
細線
 48
50.0
100
AcDbLine
 10
12554.34983051324
 20
4776.641517987076
 30
0.0
 11
12554.34983051324
 21
2686.641517987077
 31
0.0
  0
LINE
  5
188C1
330
747D
100
AcDbEntity
  8
部品1
100
AcDbLine
 10
12211.84983051324
 20
4776.641517987076
 30
0.0
 11
12211.84983051324
 21
2686.641517987077
 31
0.0
  0
DIMENSION
  5
188C2
330
747D
100
AcDbEntity
  8
寸法
 48
50.0
100
AcDbDimension
  2
*D27
 10
14026.84983051324
 20
5410.298971566382
 30
0.0
 11
14232.89707460773
 21
5410.298971566382
 31
0.0
 70
   160
 71
     5
 42
80.0
  3
INABA_S40G
100
AcDbAlignedDimension
 13
13946.84983051324
 23
4958.452197598729
 33
0.0
 14
14026.84983051324
 24
4956.641517987077
 34
0.0
100
AcDbRotatedDimension
1001
ACAD
1000
DSTYLE
1002
{
1070
   174
1070
     0
1070
   272
1070
     1
1070
   288
1070
     0
1070
   341
1005
0
1002
}
  0
LINE
  5
188C3
330
747D
100
AcDbEntity
  8
細線
 48
50.0
100
AcDbLine
 10
11449.34983051324
 20
4776.641517987076
 30
0.0
 11
11449.34983051324
 21
2686.641517987077
 31
0.0
  0
LINE
  5
188C4
330
747D
100
AcDbEntity
  8
細線
 48
50.0
100
AcDbLine
 10
11434.34983051324
 20
4776.641517987076
 30
0.0
 11
11434.34983051324
 21
2686.641517987077
 31
0.0
  0
LINE
  5
188C5
330
747D
100
AcDbEntity
  8
細線
 48
50.0
100
AcDbLine
 10
11574.34983051324
 20
4776.641517987076
 30
0.0
 11
11574.34983051324
 21
2686.641517987077
 31
0.0
  0
LINE
  5
188C6
330
747D
100
AcDbEntity
  8
細線
 48
50.0
100
AcDbLine
 10
11589.34983051324
 20
4776.641517987076
 30
0.0
 11
11589.34983051324
 21
2686.641517987077
 31
0.0
  0
LINE
  5
188C7
330
747D
100
AcDbEntity
  8
細線
 48
50.0
100
AcDbLine
 10
11729.34983051324
 20
4776.641517987076
 30
0.0
 11
11729.34983051324
 21
2686.641517987077
 31
0.0
  0
LINE
  5
188C8
330
747D
100
AcDbEntity
  8
細線
 48
50.0
100
AcDbLine
 10
11714.34983051324
 20
4776.641517987076
 30
0.0
 11
11714.34983051324
 21
2686.641517987077
 31
0.0
  0
LINE
  5
188C9
330
747D
100
AcDbEntity
  8
細線
 48
50.0
100
AcDbLine
 10
12134.34983051324
 20
4776.641517987076
 30
0.0
 11
12134.34983051324
 21
2686.641517987077
 31
0.0
  0
LINE
  5
188CA
330
747D
100
AcDbEntity
  8
細線
 48
50.0
100
AcDbLine
 10
12149.34983051324
 20
4776.641517987076
 30
0.0
 11
12149.34983051324
 21
2686.641517987077
 31
0.0
  0
LINE
  5
188CB
330
747D
100
AcDbEntity
  8
細線
 48
50.0
100
AcDbLine
 10
12009.34983051324
 20
4776.641517987076
 30
0.0
 11
12009.34983051324
 21
2686.641517987077
 31
0.0
  0
LINE
  5
188CC
330
747D
100
AcDbEntity
  8
細線
 48
50.0
100
AcDbLine
 10
11994.34983051324
 20
4776.641517987076
 30
0.0
 11
11994.34983051324
 21
2686.641517987077
 31
0.0
  0
LINE
  5
188CD
330
747D
100
AcDbEntity
  8
細線
 48
50.0
100
AcDbLine
 10
11854.34983051324
 20
4776.641517987076
 30
0.0
 11
11854.34983051324
 21
2686.641517987077
 31
0.0
  0
LINE
  5
188CE
330
747D
100
AcDbEntity
  8
細線
 48
50.0
100
AcDbLine
 10
11869.34983051324
 20
4776.641517987076
 30
0.0
 11
11869.34983051324
 21
2686.641517987077
 31
0.0
  0
LINE
  5
188CF
330
747D
100
AcDbEntity
  8
部品1
100
AcDbLine
 10
11371.84983051324
 20
2636.641517987075
 30
0.0
 11
13946.84983051324
 21
2636.641517987076
 31
0.0
  0
DIMENSION
  5
188D0
330
747D
100
AcDbEntity
  8
寸法
 48
50.0
100
AcDbDimension
  2
*D28
 10
11256.84983051324
 20
5630.509658297998
 30
0.0
 11
12641.84983051324
 21
5630.509658297998
 31
0.0
 70
   160
 71
     5
 42
2770.0
  3
INABA_S40G
100
AcDbAlignedDimension
 13
14026.84983051324
 23
4956.641517987077
 33
0.0
 14
11256.84983051324
 24
5011.641517987081
 34
0.0
100
AcDbRotatedDimension
1001
ACAD
1000
DSTYLE
1002
{
1070
   174
1070
     0
1070
   272
1070
     1
1070
   288
1070
     0
1070
   341
1005
0
1002
}
  0
DIMENSION
  5
188D1
330
747D
100
AcDbEntity
  8
寸法
 48
50.0
100
AcDbDimension
  2
*D29
 10
11256.84983051324
 20
5410.29897156638
 30
0.0
 11
10947.21203523765
 21
5410.29897156638
 31
0.0
 70
   160
 71
     5
 42
60.0
  3
INABA_S40G
100
AcDbAlignedDimension
 13
11316.84983051324
 23
5007.643136110052
 33
0.0
 14
11256.84983051324
 24
5011.641517987081
 34
0.0
100
AcDbRotatedDimension
1001
ACAD
1000
DSTYLE
1002
{
1070
   174
1070
     0
1070
   272
1070
     1
1070
   288
1070
     0
1070
   341
1005
0
1002
}
  0
DIMENSION
  5
188D2
330
747D
100
AcDbEntity
  8
寸法
 48
50.0
100
AcDbDimension
  2
*D30
 10
11316.84983051324
 20
5410.298971566382
 30
0.0
 11
12631.84983051324
 21
5410.298971566382
 31
0.0
 70
   160
  1
柱外寸法<>
 71
     5
 42
2630.0
  3
INABA_S40G
100
AcDbAlignedDimension
 13
13946.84983051324
 23
4958.452197598729
 33
0.0
 14
11316.84983051324
 24
5007.643136110052
 34
0.0
100
AcDbRotatedDimension
1001
ACAD
1000
DSTYLE
1002
{
1070
   174
1070
     0
1070
   272
1070
     1
1070
   288
1070
     0
1070
   341
1005
0
1002
}
  0
LINE
  5
188D3
330
747D
100
AcDbEntity
  8
部品1
100
AcDbLine
 10
13891.84983051324
 20
4776.641517987076
 30
0.0
 11
13891.84983051324
 21
2686.641517987077
 31
0.0
  0
LINE
  5
188D4
330
747D
100
AcDbEntity
  8
部品1
100
AcDbLine
 10
13946.84983051324
 20
4831.175791374814
 30
0.0
 11
13946.84983051324
 21
2536.641517987077
 31
0.0
  0
LINE
  5
188D5
330
747D
100
AcDbEntity
  8
部品1
100
AcDbLine
 10
11791.84983051324
 20
4776.641517987076
 30
0.0
 11
11791.84983051324
 21
2686.641517987077
 31
0.0
  0
DIMENSION
  5
188D6
330
747D
100
AcDbEntity
  8
寸法
100
AcDbDimension
  2
*D31
 10
10473.09970132998
 20
2636.641517987076
 30
0.0
 11
10473.09970132998
 21
2330.594273892586
 31
0.0
 70
   160
 71
     5
 42
50.00000000000046
  3
INABA_S40G
100
AcDbAlignedDimension
 13
11316.84983051324
 23
2686.641517987077
 33
0.0
 14
11261.84983051324
 24
2636.641517987076
 34
0.0
 50
90.0
100
AcDbRotatedDimension
1001
ACAD
1000
DSTYLE
1002
{
1070
   174
1070
     0
1070
   272
1070
     1
1070
   288
1070
     0
1070
   341
1005
0
1002
}
  0
LINE
  5
188D8
330
747D
100
AcDbEntity
  8
部品1
100
AcDbLine
 10
11316.84983051324
 20
4868.783955915954
 30
0.0
 11
11316.84983051324
 21
2536.641517987077
 31
0.0
  0
LINE
  5
188D9
330
747D
100
AcDbEntity
  8
部品1
100
AcDbLine
 10
11371.84983051324
 20
4776.641517987076
 30
0.0
 11
11371.84983051324
 21
2536.641517987078
 31
0.0
  0
LINE
  5
188DA
330
747D
100
AcDbEntity
  8
部品1
100
AcDbLine
 10
11371.84983051324
 20
2686.641517987077
 30
0.0
 11
13946.84983051324
 21
2686.641517987077
 31
0.0
  0
LINE
  5
188DB
330
747D
100
AcDbEntity
  8
部品1
100
AcDbLine
 10
11316.84983051324
 20
4776.641517987076
 30
0.0
 11
13946.84983051324
 21
4776.641517987076
 31
0.0
  0
LINE
  5
188DC
330
747D
100
AcDbEntity
  8
部品1
100
AcDbLine
 10
13471.84983051324
 20
4776.641517987076
 30
0.0
 11
13471.84983051324
 21
2686.641517987077
 31
0.0
  0
LINE
  5
188DD
330
747D
100
AcDbEntity
  8
細線
 48
50.0
100
AcDbLine
 10
12974.34983051324
 20
4776.641517987076
 30
0.0
 11
12974.34983051324
 21
2686.641517987077
 31
0.0
  0
LINE
  5
188DE
330
747D
100
AcDbEntity
  8
細線
 48
50.0
100
AcDbLine
 10
12989.34983051324
 20
4776.641517987076
 30
0.0
 11
12989.34983051324
 21
2686.641517987077
 31
0.0
  0
LINE
  5
188DF
330
747D
100
AcDbEntity
  8
細線
 48
50.0
100
AcDbLine
 10
12849.34983051324
 20
4776.641517987076
 30
0.0
 11
12849.34983051324
 21
2686.641517987077
 31
0.0
  0
LINE
  5
188E0
330
747D
100
AcDbEntity
  8
細線
 48
50.0
100
AcDbLine
 10
12834.34983051324
 20
4776.641517987076
 30
0.0
 11
12834.34983051324
 21
2686.641517987077
 31
0.0
  0
LINE
  5
188E1
330
747D
100
AcDbEntity
  8
細線
 48
50.0
100
AcDbLine
 10
12694.34983051324
 20
4776.641517987076
 30
0.0
 11
12694.34983051324
 21
2686.641517987077
 31
0.0
  0
LINE
  5
188E2
330
747D
100
AcDbEntity
  8
細線
 48
50.0
100
AcDbLine
 10
12709.34983051324
 20
4776.641517987076
 30
0.0
 11
12709.34983051324
 21
2686.641517987077
 31
0.0
  0
TEXT
  5
188E3
330
747D
100
AcDbEntity
  8
部品1
 48
50.0
100
AcDbText
 10
12983.43083247434
 20
5033.910610925383
 30
0.0
 40
120.0
  1
37
 50
90.0
  7
STYLE1
100
AcDbText
  0
TEXT
  5
188E4
330
747D
100
AcDbEntity
  8
部品1
 48
50.0
100
AcDbText
 10
12505.79780980925
 20
5171.411869143666
 30
0.0
 40
120.0
  1
1000
  7
STYLE1
100
AcDbText
  0
LINE
  5
188E5
330
747D
100
AcDbEntity
  8
部品1
 48
50.0
100
AcDbLine
 10
12817.52997458552
 20
5135.527846991233
 30
0.0
 11
12817.52997458552
 21
5119.327846991232
 31
0.0
  0
LINE
  5
188E6
330
747D
100
AcDbEntity
  8
部品1
 48
50.0
100
AcDbLine
 10
12517.52997458552
 20
5135.527846991233
 30
0.0
 11
12817.52997458552
 21
5135.527846991233
 31
0.0
  0
LINE
  5
188E7
330
747D
100
AcDbEntity
  8
部品1
100
AcDbLine
 10
11264.39481687021
 20
5010.359253321342
 30
0.0
 11
14019.46170737471
 21
4955.282315696214
 31
0.0
  0
LINE
  5
188E8
330
747D
100
AcDbEntity
  8
部品1
100
AcDbLine
 10
11272.1923951152
 20
4869.422543056042
 30
0.0
 11
14001.5135310531
 21
4830.394117821836
 31
0.0
  0
LINE
  5
188E9
330
747D
100
AcDbEntity
  8
細線
 48
50.0
100
AcDbLine
 10
11289.84983051324
 20
5009.041194362481
 30
0.0
 11
11284.56072895774
 21
4868.955561735126
 31
0.0
  0
LINE
  5
188EA
330
747D
100
AcDbEntity
  8
細線
 48
50.0
100
AcDbLine
 10
13993.81911370694
 20
4955.794940466544
 30
0.0
 11
13989.10214762525
 21
4830.862724531629
 31
0.0
  0
LINE
  5
188EB
330
747D
100
AcDbEntity
  8
部品1
 48
50.0
100
AcDbLine
 10
11257.03411642635
 20
5003.235064151769
 30
0.0
 11
11257.41437620416
 21
4983.308099705357
 31
0.0
  0
LINE
  5
188EC
330
747D
100
AcDbEntity
  8
部品1
 48
50.0
100
AcDbLine
 10
11260.48314831041
 20
4979.732818211885
 30
0.0
 11
11262.18704980177
 21
4890.442321505236
 31
0.0
  0
LINE
  5
188ED
330
747D
100
AcDbEntity
  8
細線
 48
50.0
100
AcDbLine
 10
11257.88925361406
 20
4982.658599828438
 30
0.0
 11
14023.52523835923
 21
4927.034395187608
 31
0.0
  0
LINE
  5
188EE
330
747D
100
AcDbEntity
  8
細線
 48
50.0
100
AcDbLine
 10
11262.64972885134
 20
4889.797088130573
 30
0.0
 11
14012.65339328199
 21
4849.98776915608
 31
0.0
  0
LINE
  5
188EF
330
747D
100
AcDbEntity
  8
部品1
 48
50.0
100
AcDbLine
 10
11265.25582190802
 20
4886.867040011765
 30
0.0
 11
11265.45777452845
 21
4876.284004618673
 31
0.0
  0
ARC
  5
188F0
330
747D
100
AcDbEntity
  8
部品1
 48
50.0
100
AcDbCircle
 10
11264.03284225469
 20
5003.368618559196
 30
0.0
 40
7.0
100
AcDbArc
 50
87.03587545282958
 51
181.0932240293156
  0
ARC
  5
188F1
330
747D
100
AcDbEntity
  8
部品1
 48
50.0
100
AcDbCircle
 10
11272.45650035679
 20
4876.417559026101
 30
0.0
 40
7.0
100
AcDbArc
 50
181.0932240293156
 51
267.8377559869492
  0
ARC
  5
188F2
330
747D
100
AcDbEntity
  8
部品1
100
AcDbCircle
 10
11262.25636798158
 20
4886.809802408582
 30
0.0
 40
3.0
100
AcDbArc
 50
1.093224029315636
 51
80.18775403168987
  0
ARC
  5
188F3
330
747D
100
AcDbEntity
  8
部品1
100
AcDbCircle
 10
11257.48369438398
 20
4979.675580608701
 30
0.0
 40
3.0
100
AcDbArc
 50
1.093224029315636
 51
80.18775403168987
  0
ARC
  5
188F4
330
747D
100
AcDbEntity
  8
部品1
100
AcDbCircle
 10
11258.114248787
 20
4983.321455146097
 30
0.0
 40
0.7
100
AcDbArc
 50
181.0932240292114
 51
260.1877540314845
  0
ARC
  5
188F5
330
747D
100
AcDbEntity
  8
部品1
100
AcDbCircle
 10
11262.88692238461
 20
4890.455676945981
 30
0.0
 40
0.7
100
AcDbArc
 50
181.0932240293156
 51
260.1877540314845
  0
LINE
  5
188F6
330
747D
100
AcDbEntity
  8
部品1
 48
50.0
100
AcDbLine
 10
14026.06373332395
 20
4947.582670261295
 30
0.0
 11
14024.03311213298
 21
4927.637629003514
 31
0.0
  0
LINE
  5
188F7
330
747D
100
AcDbEntity
  8
部品1
 48
50.0
100
AcDbLine
 10
14020.68054564849
 20
4924.326994930606
 30
0.0
 11
14013.17376638366
 21
4850.594374185594
 31
0.0
  0
LINE
  5
188F8
330
747D
100
AcDbEntity
  8
部品1
 48
50.0
100
AcDbLine
 10
14009.82119989917
 20
4847.283740112681
 30
0.0
 11
14008.74163685943
 21
4836.680123119123
 31
0.0
  0
ARC
  5
188F9
330
747D
100
AcDbEntity
  8
部品1
 48
50.0
100
AcDbCircle
 10
14019.09973275919
 20
4948.291680934071
 30
0.0
 40
7.0
100
AcDbArc
 50
354.1866997665479
 51
87.03587545282958
  0
ARC
  5
188FA
330
747D
100
AcDbEntity
  8
部品1
 48
50.0
100
AcDbCircle
 10
14001.77763629467
 20
4837.389133791897
 30
0.0
 40
7.0
100
AcDbArc
 50
267.8377559869492
 51
354.1866997665479
  0
ARC
  5
188FB
330
747D
100
AcDbEntity
  8
部品1
100
AcDbCircle
 10
14012.80577156978
 20
4846.979878395778
 30
0.0
 40
3.0
100
AcDbArc
 50
95.09216976420788
 51
174.1866997665479
  0
ARC
  5
188FC
330
747D
100
AcDbEntity
  8
部品1
100
AcDbCircle
 10
14023.6651173191
 20
4924.023133213704
 30
0.0
 40
3.0
100
AcDbArc
 50
95.09216976420788
 51
174.1866997665479
  0
ARC
  5
188FD
330
747D
100
AcDbEntity
  8
部品1
100
AcDbCircle
 10
14023.3367120765
 20
4927.708530070792
 30
0.0
 40
0.7
100
AcDbArc
 50
275.0921697642079
 51
354.1866997665479
  0
ARC
  5
188FE
330
747D
100
AcDbEntity
  8
部品1
100
AcDbCircle
 10
14012.47736632718
 20
4850.665275252868
 30
0.0
 40
0.7
100
AcDbArc
 50
275.0921697642079
 51
354.1866997667606
  0
LINE
  5
188FF
330
747D
100
AcDbEntity
  8
部品1
100
AcDbLine
 10
12492.07496094248
 20
5136.845905950093
 30
0.0
 11
12817.52997458552
 21
5119.327846991232
 31
0.0
  0
LINE
  5
18900
330
747D
100
AcDbEntity
  8
部品1
100
AcDbLine
 10
13051.84983051324
 20
4776.641517987076
 30
0.0
 11
13051.84983051324
 21
2686.641517987077
 31
0.0
  0
LINE
  5
18901
330
747D
100
AcDbEntity
  8
細線
 48
50.0
100
AcDbLine
 10
13129.34983051324
 20
4776.641517987076
 30
0.0
 11
13129.34983051324
 21
2686.641517987077
 31
0.0
  0
LINE
  5
18902
330
747D
100
AcDbEntity
  8
細線
 48
50.0
100
AcDbLine
 10
13114.34983051324
 20
4776.641517987076
 30
0.0
 11
13114.34983051324
 21
2686.641517987077
 31
0.0
  0
LINE
  5
18903
330
747D
100
AcDbEntity
  8
細線
 48
50.0
100
AcDbLine
 10
13254.34983051324
 20
4776.641517987076
 30
0.0
 11
13254.34983051324
 21
2686.641517987077
 31
0.0
  0
LINE
  5
18904
330
747D
100
AcDbEntity
  8
細線
 48
50.0
100
AcDbLine
 10
13269.34983051324
 20
4776.641517987076
 30
0.0
 11
13269.34983051324
 21
2686.641517987077
 31
0.0
  0
LINE
  5
18905
330
747D
100
AcDbEntity
  8
細線
 48
50.0
100
AcDbLine
 10
13409.34983051324
 20
4776.641517987076
 30
0.0
 11
13409.34983051324
 21
2686.641517987077
 31
0.0
  0
LINE
  5
18906
330
747D
100
AcDbEntity
  8
細線
 48
50.0
100
AcDbLine
 10
13394.34983051324
 20
4776.641517987076
 30
0.0
 11
13394.34983051324
 21
2686.641517987077
 31
0.0
  0
DIMENSION
  5
18907
330
747D
100
AcDbEntity
  8
寸法
100
AcDbDimension
  2
*D32
 10
14651.77698848537
 20
4956.641517987076
 30
0.0
 11
14551.76517746175
 21
3796.64151798708
 31
0.0
 70
    32
 71
     5
 42
2320.000000000001
  3
INABA_S40G
100
AcDbAlignedDimension
 13
13946.84983051324
 23
2636.641517987076
 33
0.0
 14
14026.84983051324
 24
4956.641517987077
 34
0.0
 50
90.0
100
AcDbRotatedDimension
1001
ACAD
1000
DSTYLE
1002
{
1070
   174
1070
     0
1070
   272
1070
     1
1070
   288
1070
     0
1070
   341
1005
0
1002
}
  0
DIMENSION
  5
18908
330
747D
100
AcDbEntity
  8
寸法
100
AcDbDimension
  2
*D33
 10
10173.09970132998
 20
5011.641517987076
 30
0.0
 11
10073.08789030636
 21
3824.141517987075
 31
0.0
 70
    32
 71
     5
 42
2375.000000000007
  3
INABA_S40G
100
AcDbAlignedDimension
 13
11316.84983051324
 23
2636.641517987069
 33
0.0
 14
11256.84983051324
 24
5011.641517987076
 34
0.0
 50
90.0
100
AcDbRotatedDimension
1001
ACAD
1000
DSTYLE
1002
{
1070
   174
1070
     0
1070
   272
1070
     1
1070
   288
1070
     0
1070
   341
1005
0
1002
}
  0
DIMENSION
  5
18909
330
747D
100
AcDbEntity
  8
寸法
100
AcDbDimension
  2
*D34
 10
10473.09970132998
 20
2686.64151798707
 30
0.0
 11
10373.08789030636
 21
3731.641517987073
 31
0.0
 70
    32
 71
     5
 42
2090.000000000003
  3
INABA_S40G
100
AcDbAlignedDimension
 13
11316.84983051324
 23
4776.641517987072
 33
0.0
 14
11316.84983051324
 24
2686.641517987069
 34
0.0
 50
90.0
100
AcDbRotatedDimension
1001
ACAD
1000
DSTYLE
1002
{
1070
   174
1070
     0
1070
   272
1070
     1
1070
   288
1070
     0
1070
   341
1005
0
1002
}
  0
TEXT
  5
18955
330
747D
100
AcDbEntity
  8
部品1
100
AcDbText
 10
12349.56059882263
 20
1693.747988768555
 30
0.0
 40
135.0
  1
側面図
  7
STYLE2
100
AcDbText
  0
LWPOLYLINE
  5
18956
330
747D
100
AcDbEntity
  8
部品1
100
AcDbPolyline
 90
        4
 70
     1
 43
0.0
 10
12260.11449739903
 20
1886.641517987079
 10
12260.11449739903
 20
1646.749196441546
 10
13023.58516362746
 20
1646.749196441546
 10
13023.58516362746
 20
1886.641517987079
  0
TEXT
  5
189A1
330
747D
100
AcDbEntity
  8
部品1
100
AcDbText
 10
5767.857333838476
 20
6192.93419234499
 30
0.0
 40
135.0
  1
平面図
  7
STYLE2
100
AcDbText
  0
LWPOLYLINE
  5
189A2
330
747D
100
AcDbEntity
  8
部品1
100
AcDbPolyline
 90
        4
 70
     1
 43
0.0
 10
5677.937724009439
 20
6385.827721563513
 10
5677.937724009439
 20
6145.935400017981
 10
6441.408390237878
 20
6145.935400017981
 10
6441.408390237878
 20
6385.827721563513
  0
LINE
  5
18DD7
330
747D
100
AcDbEntity
  8
補助
  6
PHANTOM
 62
   230
 48
50.0
100
AcDbLine
 10
140.0
 20
0.0
 30
0.0
 11
139.9999999999995
 21
11409.6
 31
0.0
  0
DIMENSION
  5
18F38
330
747D
100
AcDbEntity
  8
寸法
 48
50.0
100
AcDbDimension
  2
*D35
 10
8977.216159445399
 20
4776.641517987078
 30
0.0
 11
8977.216159445397
 21
5015.126799361318
 31
0.0
 70
   160
 71
     5
 42
164.9999999999991
  3
INABA_S40G
100
AcDbAlignedDimension
 13
8689.673057123652
 23
4611.641517987079
 33
0.0
 14
8689.673057123652
 24
4776.641517987078
 34
0.0
 50
90.0
100
AcDbRotatedDimension
1001
ACAD
1000
DSTYLE
1002
{
1002
}
  0
DIMENSION
  5
18F39
330
747D
100
AcDbEntity
  8
寸法
 48
50.0
100
AcDbDimension
  2
*D36
 10
8977.216159445397
 20
4611.641517987079
 30
0.0
 11
9117.385982691763
 21
4612.608717826737
 31
0.0
 70
   160
 71
     5
 42
27.00000000000182
  3
INABA_S40G
100
AcDbAlignedDimension
 13
8689.673057123652
 23
4584.641517987077
 33
0.0
 14
8689.673057123652
 24
4611.641517987079
 34
0.0
 50
90.0
100
AcDbRotatedDimension
1001
ACAD
1000
DSTYLE
1002
{
1070
   279
1070
     2
1002
}
  0
DIMENSION
  5
18F3A
330
747D
100
AcDbEntity
  8
寸法
 48
50.0
100
AcDbDimension
  2
*D37
 10
8977.216159445397
 20
4584.641517987077
 30
0.0
 11
8877.216159445396
 21
3610.64151798708
 31
0.0
 70
    32
  1
有効開口部高サ <>
 71
     5
 42
1947.999999999999
  3
INABA_S40G
100
AcDbAlignedDimension
 13
8689.673057123652
 23
2636.641517987079
 33
0.0
 14
8689.673057123652
 24
4584.641517987077
 34
0.0
 50
90.0
100
AcDbRotatedDimension
  0
ARC
  5
191D0
330
747D
100
AcDbEntity
  8
部品1
 48
0.01
100
AcDbCircle
 10
6847.673057123657
 20
4840.641517987078
 30
0.0
 40
2.0
100
AcDbArc
 50
0.0
 51
90.0
  0
ARC
  5
191D1
330
747D
100
AcDbEntity
  8
部品1
 48
0.01
100
AcDbCircle
 10
6671.673057123657
 20
4840.641517987078
 30
0.0
 40
2.0
100
AcDbArc
 50
90.0
 51
180.0
  0
LINE
  5
191D2
330
747D
100
AcDbEntity
  8
細線
100
AcDbLine
 10
6759.673057123653
 20
4813.141517987078
 30
0.0
 11
6833.673057123657
 21
4813.141517987078
 31
0.0
  0
LINE
  5
191D3
330
747D
100
AcDbEntity
  8
細線
100
AcDbLine
 10
6759.673057123656
 20
4836.141517987078
 30
0.0
 11
6685.673057123657
 21
4836.141517987078
 31
0.0
  0
LINE
  5
191D4
330
747D
100
AcDbEntity
  8
細線
100
AcDbLine
 10
6685.673057123657
 20
4813.141517987078
 30
0.0
 11
6759.673057123656
 21
4813.141517987078
 31
0.0
  0
LINE
  5
191D5
330
747D
100
AcDbEntity
  8
細線
100
AcDbLine
 10
6833.673057123657
 20
4836.141517987078
 30
0.0
 11
6759.673057123656
 21
4836.141517987078
 31
0.0
  0
LINE
  5
191D6
330
747D
100
AcDbEntity
  8
細線
100
AcDbLine
 10
6833.673057123657
 20
4813.141517987078
 30
0.0
 11
6833.673057123657
 21
4836.141517987078
 31
0.0
  0
LINE
  5
191D7
330
747D
100
AcDbEntity
  8
細線
100
AcDbLine
 10
6685.673057123657
 20
4836.141517987078
 30
0.0
 11
6685.673057123657
 21
4813.141517987078
 31
0.0
  0
LINE
  5
191D8
330
747D
100
AcDbEntity
  8
部品1
 48
0.01
100
AcDbLine
 10
6849.673057123652
 20
4809.141517987079
 30
0.0
 11
6849.673057123657
 21
4840.641517987078
 31
0.0
  0
LINE
  5
191D9
330
747D
100
AcDbEntity
  8
部品1
 48
0.01
100
AcDbLine
 10
6669.673057123657
 20
4840.641517987078
 30
0.0
 11
6669.673057123657
 21
4809.141517987079
 31
0.0
  0
LINE
  5
191DA
330
747D
100
AcDbEntity
  8
部品1
 48
0.01
100
AcDbLine
 10
6847.673057123657
 20
4842.641517987079
 30
0.0
 11
6671.673057123657
 21
4842.641517987079
 31
0.0
  0
LINE
  5
191DB
330
747D
100
AcDbEntity
  8
細線
100
AcDbLine
 10
6685.673057123657
 20
4830.141517987079
 30
0.0
 11
6759.673057123656
 21
4830.141517987079
 31
0.0
  0
LINE
  5
191DC
330
747D
100
AcDbEntity
  8
細線
100
AcDbLine
 10
6685.673057123657
 20
4824.141517987079
 30
0.0
 11
6759.673057123656
 21
4824.141517987079
 31
0.0
  0
LINE
  5
191DD
330
747D
100
AcDbEntity
  8
細線
100
AcDbLine
 10
6685.673057123652
 20
4818.141517987078
 30
0.0
 11
6759.673057123656
 21
4818.141517987078
 31
0.0
  0
LINE
  5
191DE
330
747D
100
AcDbEntity
  8
細線
100
AcDbLine
 10
6685.673057123657
 20
4830.141517987079
 30
0.0
 11
6754.673057123657
 21
4830.141517987079
 31
0.0
  0
LINE
  5
191DF
330
747D
100
AcDbEntity
  8
細線
100
AcDbLine
 10
6833.673057123653
 20
4830.141517987079
 30
0.0
 11
6759.673057123656
 21
4830.141517987079
 31
0.0
  0
LINE
  5
191E0
330
747D
100
AcDbEntity
  8
細線
100
AcDbLine
 10
6833.673057123653
 20
4818.141517987078
 30
0.0
 11
6759.673057123656
 21
4818.141517987078
 31
0.0
  0
LINE
  5
191E1
330
747D
100
AcDbEntity
  8
細線
100
AcDbLine
 10
6833.673057123653
 20
4824.141517987079
 30
0.0
 11
6759.673057123656
 21
4824.141517987079
 31
0.0
  0
LINE
  5
191E2
330
747D
100
AcDbEntity
  8
細線
100
AcDbLine
 10
6759.673057123656
 20
4836.141517987078
 30
0.0
 11
6759.673057123653
 21
4813.141517987078
 31
0.0
  0
LINE
  5
191E3
330
747D
100
AcDbEntity
  8
細線
100
AcDbLine
 10
7989.673057123657
 20
4836.141517987078
 30
0.0
 11
7989.673057123657
 21
4813.141517987078
 31
0.0
  0
LINE
  5
191E4
330
747D
100
AcDbEntity
  8
細線
100
AcDbLine
 10
7915.673057123656
 20
4824.141517987079
 30
0.0
 11
7989.673057123657
 21
4824.141517987079
 31
0.0
  0
LINE
  5
191E5
330
747D
100
AcDbEntity
  8
細線
100
AcDbLine
 10
7915.673057123656
 20
4818.141517987078
 30
0.0
 11
7989.673057123657
 21
4818.141517987078
 31
0.0
  0
LINE
  5
191E6
330
747D
100
AcDbEntity
  8
細線
100
AcDbLine
 10
7915.673057123656
 20
4830.141517987079
 30
0.0
 11
7989.673057123657
 21
4830.141517987079
 31
0.0
  0
LINE
  5
191E7
330
747D
100
AcDbEntity
  8
細線
100
AcDbLine
 10
8063.673057123656
 20
4830.141517987079
 30
0.0
 11
7994.673057123657
 21
4830.141517987079
 31
0.0
  0
LINE
  5
191E8
330
747D
100
AcDbEntity
  8
細線
100
AcDbLine
 10
8063.673057123656
 20
4818.141517987078
 30
0.0
 11
7989.673057123657
 21
4818.141517987078
 31
0.0
  0
LINE
  5
191E9
330
747D
100
AcDbEntity
  8
細線
100
AcDbLine
 10
8063.673057123656
 20
4824.141517987079
 30
0.0
 11
7989.673057123657
 21
4824.141517987079
 31
0.0
  0
LINE
  5
191EA
330
747D
100
AcDbEntity
  8
細線
100
AcDbLine
 10
8063.673057123656
 20
4830.141517987079
 30
0.0
 11
7989.673057123657
 21
4830.141517987079
 31
0.0
  0
LINE
  5
191EB
330
747D
100
AcDbEntity
  8
部品1
 48
0.01
100
AcDbLine
 10
7901.673057123656
 20
4842.641517987079
 30
0.0
 11
8077.673057123657
 21
4842.641517987079
 31
0.0
  0
LINE
  5
191EC
330
747D
100
AcDbEntity
  8
部品1
 48
0.01
100
AcDbLine
 10
8079.673057123656
 20
4840.641517987078
 30
0.0
 11
8079.673057123656
 21
4809.141517987079
 31
0.0
  0
LINE
  5
191ED
330
747D
100
AcDbEntity
  8
部品1
 48
0.01
100
AcDbLine
 10
7899.673057123656
 20
4809.141517987079
 30
0.0
 11
7899.673057123656
 21
4840.641517987078
 31
0.0
  0
LINE
  5
191EE
330
747D
100
AcDbEntity
  8
細線
100
AcDbLine
 10
8063.673057123656
 20
4836.141517987078
 30
0.0
 11
8063.673057123656
 21
4813.141517987078
 31
0.0
  0
LINE
  5
191EF
330
747D
100
AcDbEntity
  8
細線
100
AcDbLine
 10
7915.673057123656
 20
4813.141517987078
 30
0.0
 11
7915.673057123656
 21
4836.141517987078
 31
0.0
  0
LINE
  5
191F0
330
747D
100
AcDbEntity
  8
細線
100
AcDbLine
 10
7915.673057123656
 20
4836.141517987078
 30
0.0
 11
7989.673057123657
 21
4836.141517987078
 31
0.0
  0
LINE
  5
191F1
330
747D
100
AcDbEntity
  8
細線
100
AcDbLine
 10
8063.673057123656
 20
4813.141517987078
 30
0.0
 11
7989.673057123657
 21
4813.141517987078
 31
0.0
  0
LINE
  5
191F2
330
747D
100
AcDbEntity
  8
細線
100
AcDbLine
 10
7989.673057123657
 20
4836.141517987078
 30
0.0
 11
8063.673057123656
 21
4836.141517987078
 31
0.0
  0
LINE
  5
191F3
330
747D
100
AcDbEntity
  8
細線
100
AcDbLine
 10
7989.673057123657
 20
4813.141517987078
 30
0.0
 11
7915.673057123656
 21
4813.141517987078
 31
0.0
  0
ARC
  5
191F4
330
747D
100
AcDbEntity
  8
部品1
 48
0.01
100
AcDbCircle
 10
8077.673057123657
 20
4840.641517987078
 30
0.0
 40
2.0
100
AcDbArc
 50
0.0
 51
90.0
  0
ARC
  5
191F5
330
747D
100
AcDbEntity
  8
部品1
 48
0.01
100
AcDbCircle
 10
7901.673057123656
 20
4840.641517987078
 30
0.0
 40
2.0
100
AcDbArc
 50
90.0
 51
180.0
  0
ARC
  5
191F6
330
747D
100
AcDbEntity
  8
部品1
 48
0.01
100
AcDbCircle
 10
6847.673057123653
 20
4809.141517987079
 30
0.0
 40
2.0
100
AcDbArc
 50
270.0
 51
0.0
  0
ARC
  5
191F7
330
747D
100
AcDbEntity
  8
部品1
 48
0.01
100
AcDbCircle
 10
6671.673057123657
 20
4809.141517987079
 30
0.0
 40
2.0
100
AcDbArc
 50
180.0
 51
270.0
  0
LINE
  5
191F8
330
747D
100
AcDbEntity
  8
部品1
 48
0.01
100
AcDbLine
 10
6671.673057123657
 20
4807.141517987078
 30
0.0
 11
6847.673057123653
 21
4807.141517987078
 31
0.0
  0
LINE
  5
191F9
330
747D
100
AcDbEntity
  8
部品1
 48
0.01
100
AcDbLine
 10
8077.673057123657
 20
4807.141517987078
 30
0.0
 11
7901.673057123656
 21
4807.141517987078
 31
0.0
  0
ARC
  5
191FA
330
747D
100
AcDbEntity
  8
部品1
 48
0.01
100
AcDbCircle
 10
8077.673057123657
 20
4809.141517987079
 30
0.0
 40
2.0
100
AcDbArc
 50
270.0
 51
0.0
  0
ARC
  5
191FB
330
747D
100
AcDbEntity
  8
部品1
 48
0.01
100
AcDbCircle
 10
7901.673057123656
 20
4809.141517987079
 30
0.0
 40
2.0
100
AcDbArc
 50
180.0
 51
270.0
  0
ARC
  5
1920C
330
747D
100
AcDbEntity
  8
部品1
 48
0.01
100
AcDbCircle
 10
5271.673057123659
 20
4809.141517987079
 30
0.0
 40
2.0
100
AcDbArc
 50
180.0
 51
270.0
  0
ARC
  5
1920D
330
747D
100
AcDbEntity
  8
部品1
 48
0.01
100
AcDbCircle
 10
5447.673057123658
 20
4809.141517987079
 30
0.0
 40
2.0
100
AcDbArc
 50
270.0
 51
0.0
  0
LINE
  5
1920E
330
747D
100
AcDbEntity
  8
部品1
 48
0.01
100
AcDbLine
 10
5447.673057123658
 20
4807.141517987078
 30
0.0
 11
5271.673057123659
 21
4807.141517987078
 31
0.0
  0
LINE
  5
1920F
330
747D
100
AcDbEntity
  8
部品1
 48
0.01
100
AcDbLine
 10
4041.673057123658
 20
4807.141517987078
 30
0.0
 11
4217.673057123654
 21
4807.141517987078
 31
0.0
  0
ARC
  5
19210
330
747D
100
AcDbEntity
  8
部品1
 48
0.01
100
AcDbCircle
 10
4041.673057123658
 20
4809.141517987079
 30
0.0
 40
2.0
100
AcDbArc
 50
180.0
 51
270.0
  0
ARC
  5
19211
330
747D
100
AcDbEntity
  8
部品1
 48
0.01
100
AcDbCircle
 10
4217.673057123654
 20
4809.141517987079
 30
0.0
 40
2.0
100
AcDbArc
 50
270.0
 51
0.0
  0
ARC
  5
19212
330
747D
100
AcDbEntity
  8
部品1
 48
0.01
100
AcDbCircle
 10
5271.673057123659
 20
4840.641517987078
 30
0.0
 40
2.0
100
AcDbArc
 50
90.0
 51
180.0
  0
ARC
  5
19213
330
747D
100
AcDbEntity
  8
部品1
 48
0.01
100
AcDbCircle
 10
5447.673057123658
 20
4840.641517987078
 30
0.0
 40
2.0
100
AcDbArc
 50
0.0
 51
90.0
  0
LINE
  5
19214
330
747D
100
AcDbEntity
  8
細線
100
AcDbLine
 10
5359.673057123658
 20
4813.141517987078
 30
0.0
 11
5285.673057123659
 21
4813.141517987078
 31
0.0
  0
LINE
  5
19215
330
747D
100
AcDbEntity
  8
細線
100
AcDbLine
 10
5359.673057123658
 20
4836.141517987078
 30
0.0
 11
5433.673057123659
 21
4836.141517987078
 31
0.0
  0
LINE
  5
19216
330
747D
100
AcDbEntity
  8
細線
100
AcDbLine
 10
5433.673057123659
 20
4813.141517987078
 30
0.0
 11
5359.673057123658
 21
4813.141517987078
 31
0.0
  0
LINE
  5
19217
330
747D
100
AcDbEntity
  8
細線
100
AcDbLine
 10
5285.673057123659
 20
4836.141517987078
 30
0.0
 11
5359.673057123658
 21
4836.141517987078
 31
0.0
  0
LINE
  5
19218
330
747D
100
AcDbEntity
  8
細線
100
AcDbLine
 10
5285.673057123659
 20
4813.141517987078
 30
0.0
 11
5285.673057123659
 21
4836.141517987078
 31
0.0
  0
LINE
  5
19219
330
747D
100
AcDbEntity
  8
細線
100
AcDbLine
 10
5433.673057123659
 20
4836.141517987078
 30
0.0
 11
5433.673057123659
 21
4813.141517987078
 31
0.0
  0
LINE
  5
1921A
330
747D
100
AcDbEntity
  8
部品1
 48
0.01
100
AcDbLine
 10
5269.673057123658
 20
4809.141517987079
 30
0.0
 11
5269.673057123658
 21
4840.641517987078
 31
0.0
  0
LINE
  5
1921B
330
747D
100
AcDbEntity
  8
部品1
 48
0.01
100
AcDbLine
 10
5449.673057123658
 20
4840.641517987078
 30
0.0
 11
5449.673057123658
 21
4809.141517987079
 31
0.0
  0
LINE
  5
1921C
330
747D
100
AcDbEntity
  8
部品1
 48
0.01
100
AcDbLine
 10
5271.673057123659
 20
4842.641517987079
 30
0.0
 11
5447.673057123658
 21
4842.641517987079
 31
0.0
  0
LINE
  5
1921D
330
747D
100
AcDbEntity
  8
細線
100
AcDbLine
 10
5433.673057123659
 20
4830.141517987079
 30
0.0
 11
5359.673057123658
 21
4830.141517987079
 31
0.0
  0
LINE
  5
1921E
330
747D
100
AcDbEntity
  8
細線
100
AcDbLine
 10
5433.673057123659
 20
4824.141517987079
 30
0.0
 11
5359.673057123658
 21
4824.141517987079
 31
0.0
  0
LINE
  5
1921F
330
747D
100
AcDbEntity
  8
細線
100
AcDbLine
 10
5433.673057123659
 20
4818.141517987078
 30
0.0
 11
5359.673057123658
 21
4818.141517987078
 31
0.0
  0
LINE
  5
19220
330
747D
100
AcDbEntity
  8
細線
100
AcDbLine
 10
5433.673057123659
 20
4830.141517987079
 30
0.0
 11
5364.673057123659
 21
4830.141517987079
 31
0.0
  0
LINE
  5
19221
330
747D
100
AcDbEntity
  8
細線
100
AcDbLine
 10
5285.673057123659
 20
4830.141517987079
 30
0.0
 11
5359.673057123658
 21
4830.141517987079
 31
0.0
  0
LINE
  5
19222
330
747D
100
AcDbEntity
  8
細線
100
AcDbLine
 10
5285.673057123659
 20
4818.141517987078
 30
0.0
 11
5359.673057123658
 21
4818.141517987078
 31
0.0
  0
LINE
  5
19223
330
747D
100
AcDbEntity
  8
細線
100
AcDbLine
 10
5285.673057123659
 20
4824.141517987079
 30
0.0
 11
5359.673057123658
 21
4824.141517987079
 31
0.0
  0
LINE
  5
19224
330
747D
100
AcDbEntity
  8
細線
100
AcDbLine
 10
5359.673057123658
 20
4836.141517987078
 30
0.0
 11
5359.673057123658
 21
4813.141517987078
 31
0.0
  0
LINE
  5
19225
330
747D
100
AcDbEntity
  8
細線
100
AcDbLine
 10
4129.673057123659
 20
4836.141517987078
 30
0.0
 11
4129.673057123655
 21
4813.141517987078
 31
0.0
  0
LINE
  5
19226
330
747D
100
AcDbEntity
  8
細線
100
AcDbLine
 10
4203.673057123654
 20
4824.141517987079
 30
0.0
 11
4129.673057123659
 21
4824.141517987079
 31
0.0
  0
LINE
  5
19227
330
747D
100
AcDbEntity
  8
細線
100
AcDbLine
 10
4203.673057123654
 20
4818.141517987078
 30
0.0
 11
4129.673057123659
 21
4818.141517987078
 31
0.0
  0
LINE
  5
19228
330
747D
100
AcDbEntity
  8
細線
100
AcDbLine
 10
4203.673057123654
 20
4830.141517987079
 30
0.0
 11
4129.673057123659
 21
4830.141517987079
 31
0.0
  0
LINE
  5
19229
330
747D
100
AcDbEntity
  8
細線
100
AcDbLine
 10
4055.673057123658
 20
4830.141517987079
 30
0.0
 11
4124.673057123658
 21
4830.141517987079
 31
0.0
  0
LINE
  5
1922A
330
747D
100
AcDbEntity
  8
細線
100
AcDbLine
 10
4055.673057123654
 20
4818.141517987078
 30
0.0
 11
4129.673057123659
 21
4818.141517987078
 31
0.0
  0
LINE
  5
1922B
330
747D
100
AcDbEntity
  8
細線
100
AcDbLine
 10
4055.673057123658
 20
4824.141517987079
 30
0.0
 11
4129.673057123659
 21
4824.141517987079
 31
0.0
  0
LINE
  5
1922C
330
747D
100
AcDbEntity
  8
細線
100
AcDbLine
 10
4055.673057123658
 20
4830.141517987079
 30
0.0
 11
4129.673057123659
 21
4830.141517987079
 31
0.0
  0
LINE
  5
1922D
330
747D
100
AcDbEntity
  8
部品1
 48
0.01
100
AcDbLine
 10
4217.673057123658
 20
4842.641517987079
 30
0.0
 11
4041.673057123658
 21
4842.641517987079
 31
0.0
  0
LINE
  5
1922E
330
747D
100
AcDbEntity
  8
部品1
 48
0.01
100
AcDbLine
 10
4039.673057123659
 20
4840.641517987078
 30
0.0
 11
4039.673057123659
 21
4809.141517987079
 31
0.0
  0
LINE
  5
1922F
330
747D
100
AcDbEntity
  8
部品1
 48
0.01
100
AcDbLine
 10
4219.673057123655
 20
4809.141517987079
 30
0.0
 11
4219.673057123658
 21
4840.641517987078
 31
0.0
  0
LINE
  5
19230
330
747D
100
AcDbEntity
  8
細線
100
AcDbLine
 10
4055.673057123658
 20
4836.141517987078
 30
0.0
 11
4055.673057123658
 21
4813.141517987078
 31
0.0
  0
LINE
  5
19231
330
747D
100
AcDbEntity
  8
細線
100
AcDbLine
 10
4203.673057123658
 20
4813.141517987078
 30
0.0
 11
4203.673057123658
 21
4836.141517987078
 31
0.0
  0
LINE
  5
19232
330
747D
100
AcDbEntity
  8
細線
100
AcDbLine
 10
4203.673057123658
 20
4836.141517987078
 30
0.0
 11
4129.673057123659
 21
4836.141517987078
 31
0.0
  0
LINE
  5
19233
330
747D
100
AcDbEntity
  8
細線
100
AcDbLine
 10
4055.673057123658
 20
4813.141517987078
 30
0.0
 11
4129.673057123659
 21
4813.141517987078
 31
0.0
  0
LINE
  5
19234
330
747D
100
AcDbEntity
  8
細線
100
AcDbLine
 10
4129.673057123659
 20
4836.141517987078
 30
0.0
 11
4055.673057123658
 21
4836.141517987078
 31
0.0
  0
LINE
  5
19235
330
747D
100
AcDbEntity
  8
細線
100
AcDbLine
 10
4129.673057123655
 20
4813.141517987078
 30
0.0
 11
4203.673057123658
 21
4813.141517987078
 31
0.0
  0
ARC
  5
19236
330
747D
100
AcDbEntity
  8
部品1
 48
0.01
100
AcDbCircle
 10
4041.673057123658
 20
4840.641517987078
 30
0.0
 40
2.0
100
AcDbArc
 50
90.0
 51
180.0
  0
ARC
  5
19237
330
747D
100
AcDbEntity
  8
部品1
 48
0.01
100
AcDbCircle
 10
4217.673057123658
 20
4840.641517987078
 30
0.0
 40
2.0
100
AcDbArc
 50
0.0
 51
90.0
  0
LINE
  5
1948F
330
747D
100
AcDbEntity
  8
仕様書枠
 48
50.0
100
AcDbLine
 10
13127.2
 20
11239.6
 30
0.0
 11
13127.2
 21
8179.600000000004
 31
0.0
  0
TEXT
  5
19490
330
747D
100
AcDbEntity
  8
文字
 62
     7
 48
50.0
100
AcDbText
 10
13229.83081656555
 20
8210.013745883733
 30
0.0
 40
100.0
  1
Z08→塗装溶融亜鉛めっき鋼板(JIS G 3313)
  7
STYLE1
100
AcDbText
  0
TEXT
  5
19491
330
747D
100
AcDbEntity
  8
文字
 62
     7
 48
50.0
100
AcDbText
 10
13229.83081656555
 20
8380.013745883731
 30
0.0
 40
100.0
  1
Y10→溶融亜鉛-5％アルミニウム合金めっき鋼板(JIS G 3317)
 41
0.9
  7
STYLE1
100
AcDbText
  0
TEXT
  5
19492
330
747D
100
AcDbEntity
  8
文字
 62
     7
 48
50.0
100
AcDbText
 10
13229.83081656555
 20
8550.013745883731
 30
0.0
 40
100.0
  1
F12→溶融亜鉛めっき鋼板(JIS G 3302)
  7
STYLE1
100
AcDbText
  0
LINE
  5
19493
330
747D
100
AcDbEntity
  8
仕様書枠
 48
50.0
100
AcDbLine
 10
16307.19999999999
 20
8179.600000000002
 30
0.0
 11
13127.19999999999
 21
8179.600000000004
 31
0.0
  0
LINE
  5
19494
330
747D
100
AcDbEntity
  8
仕様書枠
 48
50.0
100
AcDbLine
 10
16307.19999999999
 20
8349.600000000002
 30
0.0
 11
13127.19999999999
 21
8349.600000000004
 31
0.0
  0
LINE
  5
19495
330
747D
100
AcDbEntity
  8
仕様書枠
 48
50.0
100
AcDbLine
 10
16307.19999999999
 20
8519.600000000002
 30
0.0
 11
13127.19999999999
 21
8519.600000000004
 31
0.0
  0
TEXT
  5
19496
330
747D
100
AcDbEntity
  8
文字
 62
     7
 48
50.0
100
AcDbText
 10
15022.63965474515
 20
9060.013745883722
 30
0.0
 40
100.0
  1
Z08            0.5
  7
STYLE1
100
AcDbText
  0
TEXT
  5
19498
330
747D
100
AcDbEntity
  8
文字
 62
     7
 48
50.0
100
AcDbText
 10
14850.83183167176
 20
8720.013745883729
 30
0.0
 40
100.0
  1
アルミニウム合金押出形材
  7
STYLE1
100
AcDbText
  0
TEXT
  5
19499
330
747D
100
AcDbEntity
  8
文字
 62
     7
 48
50.0
100
AcDbText
 10
15022.63965474516
 20
9400.013745883725
 30
0.0
 40
100.0
  1
F12            0.7
  7
STYLE1
100
AcDbText
  0
TEXT
  5
1949A
330
747D
100
AcDbEntity
  8
文字
 62
     7
 48
50.0
100
AcDbText
 10
15022.63965474516
 20
9570.013745883725
 30
0.0
 40
100.0
  1
Y10            0.5
  7
STYLE1
100
AcDbText
  0
TEXT
  5
1949B
330
747D
100
AcDbEntity
  8
文字
 62
     7
 48
50.0
100
AcDbText
 10
15022.63965474516
 20
10080.01374588372
 30
0.0
 40
100.0
  1
Y10            0.7
  7
STYLE1
100
AcDbText
  0
TEXT
  5
1949C
330
747D
100
AcDbEntity
  8
文字
 62
     7
 48
50.0
100
AcDbText
 10
15022.63965474516
 20
10250.01374588372
 30
0.0
 40
100.0
  1
Y10            0.7
  7
STYLE1
100
AcDbText
  0
TEXT
  5
1949D
330
747D
100
AcDbEntity
  8
文字
 62
     7
 48
50.0
100
AcDbText
 10
15022.63965474516
 20
10420.01374588372
 30
0.0
 40
100.0
  1
Y10            1.0
  7
STYLE1
100
AcDbText
  0
TEXT
  5
1949E
330
747D
100
AcDbEntity
  8
文字
 62
     7
 48
50.0
100
AcDbText
 10
15022.63965474516
 20
10590.01374588372
 30
0.0
 40
100.0
  1
Y10            1.0
  7
STYLE1
100
AcDbText
  0
TEXT
  5
1949F
330
747D
100
AcDbEntity
  8
文字
 62
     7
 48
50.0
100
AcDbText
 10
15022.63965474517
 20
10760.01374588372
 30
0.0
 40
100.0
  1
F12         1.0,1.2
  7
STYLE1
100
AcDbText
  0
TEXT
  5
194A0
330
747D
100
AcDbEntity
  8
文字
 62
     7
 48
50.0
100
AcDbText
 10
15022.63965474517
 20
10930.01374588372
 30
0.0
 40
100.0
  1
F12            1.2
  7
STYLE1
100
AcDbText
  0
TEXT
  5
194A1
330
747D
100
AcDbEntity
  8
文字
 62
     7
 48
50.0
100
AcDbText
 10
13248.77747366448
 20
9060.013745883729
 30
0.0
 40
100.0
  1
12
  7
STYLE1
100
AcDbText
  0
TEXT
  5
194A2
330
747D
100
AcDbEntity
  8
文字
 62
     7
 48
50.0
100
AcDbText
 10
13248.77747366448
 20
8890.013745883729
 30
0.0
 40
100.0
  1
13
  7
STYLE1
100
AcDbText
  0
TEXT
  5
194A3
330
747D
100
AcDbEntity
  8
文字
 62
     7
 48
50.0
100
AcDbText
 10
13583.11819016569
 20
9060.013745883725
 30
0.0
 40
100.0
  1
シャッター
  7
STYLE1
100
AcDbText
  0
LINE
  5
194A4
330
747D
100
AcDbEntity
  8
仕様書枠
 48
50.0
100
AcDbLine
 10
16307.19999999999
 20
8859.6
 30
0.0
 11
13127.19999999999
 21
8859.600000000002
 31
0.0
  0
LINE
  5
194A5
330
747D
100
AcDbEntity
  8
仕様書枠
 48
50.0
100
AcDbLine
 10
16307.19999999999
 20
9029.6
 30
0.0
 11
13127.19999999999
 21
9029.6
 31
0.0
  0
TEXT
  5
194A6
330
747D
100
AcDbEntity
  8
文字
 62
     7
 48
50.0
100
AcDbText
 10
13583.11819016569
 20
8890.013745883727
 30
0.0
 40
100.0
  1
シャッターカバー
 41
0.9
  7
STYLE1
100
AcDbText
  0
TEXT
  5
194A7
330
747D
100
AcDbEntity
  8
文字
 62
     7
 48
50.0
100
AcDbText
 10
13248.77747366448
 20
9230.013745883727
 30
0.0
 40
100.0
  1
11
  7
STYLE1
100
AcDbText
  0
LINE
  5
194A8
330
747D
100
AcDbEntity
  8
仕様書枠
 48
50.0
100
AcDbLine
 10
16307.19999999999
 20
9709.6
 30
0.0
 11
13127.19999999999
 21
9709.600000000001
 31
0.0
  0
LINE
  5
194A9
330
747D
100
AcDbEntity
  8
仕様書枠
 48
50.0
100
AcDbLine
 10
16307.19999999999
 20
10049.6
 30
0.0
 11
13127.2
 21
10049.6
 31
0.0
  0
LINE
  5
194AA
330
747D
100
AcDbEntity
  8
仕様書枠
 48
50.0
100
AcDbLine
 10
16307.19999999999
 20
9369.599999999998
 30
0.0
 11
13127.19999999999
 21
9369.600000000001
 31
0.0
  0
LINE
  5
194AB
330
747D
100
AcDbEntity
  8
仕様書枠
 48
50.0
100
AcDbLine
 10
16307.19999999999
 20
9199.599999999998
 30
0.0
 11
13127.19999999999
 21
9199.600000000001
 31
0.0
  0
LINE
  5
194AC
330
747D
100
AcDbEntity
  8
仕様書枠
 48
50.0
100
AcDbLine
 10
16307.19999999999
 20
9539.599999999998
 30
0.0
 11
13127.19999999999
 21
9539.6
 31
0.0
  0
TEXT
  5
194AD
330
747D
100
AcDbEntity
  8
文字
 62
     7
 48
50.0
100
AcDbText
 10
13271.19032244792
 20
10080.01374588373
 30
0.0
 40
100.0
  1
6
  7
STYLE1
100
AcDbText
  0
TEXT
  5
194AE
330
747D
100
AcDbEntity
  8
文字
 62
     7
 48
50.0
100
AcDbText
 10
13271.19032244792
 20
9910.01374588373
 30
0.0
 40
100.0
  1
7
  7
STYLE1
100
AcDbText
  0
TEXT
  5
194AF
330
747D
100
AcDbEntity
  8
文字
 62
     7
 48
50.0
100
AcDbText
 10
13271.19032244792
 20
9570.013745883729
 30
0.0
 40
100.0
  1
9
  7
STYLE1
100
AcDbText
  0
TEXT
  5
194B0
330
747D
100
AcDbEntity
  8
文字
 62
     7
 48
50.0
100
AcDbText
 10
13271.19032244792
 20
9740.013745883729
 30
0.0
 40
100.0
  1
8
  7
STYLE1
100
AcDbText
  0
TEXT
  5
194B1
330
747D
100
AcDbEntity
  8
文字
 62
     7
 48
50.0
100
AcDbText
 10
13583.11819016569
 20
10080.01374588372
 30
0.0
 40
100.0
  1
鼻隠シ前後
  7
STYLE1
100
AcDbText
  0
TEXT
  5
194B2
330
747D
100
AcDbEntity
  8
文字
 62
     7
 48
50.0
100
AcDbText
 10
13583.11819016569
 20
9740.013745883729
 30
0.0
 40
100.0
  1
母屋中
  7
STYLE1
100
AcDbText
  0
TEXT
  5
194B3
330
747D
100
AcDbEntity
  8
文字
 62
     7
 48
50.0
100
AcDbText
 10
13583.11819016569
 20
9570.013745883727
 30
0.0
 40
100.0
  1
屋根パネル
  7
STYLE1
100
AcDbText
  0
TEXT
  5
194B4
330
747D
100
AcDbEntity
  8
文字
 62
     7
 48
50.0
100
AcDbText
 10
13583.11819016569
 20
9400.013745883729
 30
0.0
 40
100.0
  1
壁パネル
  7
STYLE1
100
AcDbText
  0
TEXT
  5
194B5
330
747D
100
AcDbEntity
  8
文字
 62
     7
 48
50.0
100
AcDbText
 10
13248.77747366448
 20
9400.013745883727
 30
0.0
 40
100.0
  1
10
  7
STYLE1
100
AcDbText
  0
TEXT
  5
194B6
330
747D
100
AcDbEntity
  8
文字
 62
     7
 48
50.0
100
AcDbText
 10
13583.11819016569
 20
8720.013745883731
 30
0.0
 40
100.0
  1
シャッターレール
  7
STYLE1
100
AcDbText
  0
TEXT
  5
194B7
330
747D
100
AcDbEntity
  8
文字
 62
     7
 48
50.0
100
AcDbText
 10
13583.11819016569
 20
10250.01374588373
 30
0.0
 40
100.0
  1
妻板左右
  7
STYLE1
100
AcDbText
  0
TEXT
  5
194B8
330
747D
100
AcDbEntity
  8
文字
 62
     7
 48
50.0
100
AcDbText
 10
13271.19032244792
 20
10250.01374588373
 30
0.0
 40
100.0
  1
5
  7
STYLE1
100
AcDbText
  0
TEXT
  5
194B9
330
747D
100
AcDbEntity
  8
文字
 62
     7
 48
50.0
100
AcDbText
 10
13583.11819016569
 20
10420.01374588373
 30
0.0
 40
100.0
  1
桁後
  7
STYLE1
100
AcDbText
  0
TEXT
  5
194BA
330
747D
100
AcDbEntity
  8
文字
 62
     7
 48
50.0
100
AcDbText
 10
13583.11819016569
 20
10590.01374588373
 30
0.0
 40
100.0
  1
桁前
  7
STYLE1
100
AcDbText
  0
TEXT
  5
194BB
330
747D
100
AcDbEntity
  8
文字
 62
     7
 48
50.0
100
AcDbText
 10
13583.11819016569
 20
10760.01374588372
 30
0.0
 40
100.0
  1
柱
  7
STYLE1
100
AcDbText
  0
TEXT
  5
194BC
330
747D
100
AcDbEntity
  8
文字
 62
     7
 48
50.0
100
AcDbText
 10
13583.11819016569
 20
10930.01374588372
 30
0.0
 40
100.0
  1
土台枠
  7
STYLE1
100
AcDbText
  0
TEXT
  5
194BD
330
747D
100
AcDbEntity
  8
文字
 62
     7
 48
50.0
100
AcDbText
 10
14859.79774614482
 20
11100.01374588373
 30
0.0
 40
100.0
  1
材料（材質）　　単位mm
  7
STYLE1
100
AcDbText
  0
TEXT
  5
194BE
330
747D
100
AcDbEntity
  8
文字
 62
     7
 48
50.0
100
AcDbText
 10
13732.03840939434
 20
11100.01374588373
 30
0.0
 40
100.0
  1
部　　品　　名
  7
STYLE1
100
AcDbText
  0
TEXT
  5
194BF
330
747D
100
AcDbEntity
  8
文字
 62
     7
 48
50.0
100
AcDbText
 10
13271.19032244792
 20
10590.01374588373
 30
0.0
 40
100.0
  1
3
  7
STYLE1
100
AcDbText
  0
TEXT
  5
194C0
330
747D
100
AcDbEntity
  8
文字
 62
     7
 48
50.0
100
AcDbText
 10
13271.19032244792
 20
10420.01374588373
 30
0.0
 40
100.0
  1
4
  7
STYLE1
100
AcDbText
  0
TEXT
  5
194C1
330
747D
100
AcDbEntity
  8
文字
 62
     7
 48
50.0
100
AcDbText
 10
13271.19032244792
 20
10760.01374588373
 30
0.0
 40
100.0
  1
2
  7
STYLE1
100
AcDbText
  0
TEXT
  5
194C2
330
747D
100
AcDbEntity
  8
文字
 62
     7
 48
50.0
100
AcDbText
 10
13271.19032244792
 20
10930.01374588373
 30
0.0
 40
100.0
  1
1
  7
STYLE1
100
AcDbText
  0
TEXT
  5
194C3
330
747D
100
AcDbEntity
  8
文字
 62
     7
 48
50.0
100
AcDbText
 10
13197.42518560407
 20
11100.01374588373
 30
0.0
 40
100.0
  1
品番
  7
STYLE1
100
AcDbText
  0
LINE
  5
194C4
330
747D
100
AcDbEntity
  8
仕様書枠
 48
50.0
100
AcDbLine
 10
16307.19999999999
 20
10559.6
 30
0.0
 11
13127.19999999999
 21
10559.6
 31
0.0
  0
LINE
  5
194C5
330
747D
100
AcDbEntity
  8
仕様書枠
 48
50.0
100
AcDbLine
 10
16307.19999999999
 20
10219.6
 30
0.0
 11
13127.19999999999
 21
10219.6
 31
0.0
  0
LINE
  5
194C6
330
747D
100
AcDbEntity
  8
仕様書枠
 48
50.0
100
AcDbLine
 10
16307.19999999999
 20
10389.6
 30
0.0
 11
13127.19999999999
 21
10389.6
 31
0.0
  0
LINE
  5
194C7
330
747D
100
AcDbEntity
  8
仕様書枠
 48
50.0
100
AcDbLine
 10
16307.19999999999
 20
10899.6
 30
0.0
 11
13127.2
 21
10899.6
 31
0.0
  0
LINE
  5
194C8
330
747D
100
AcDbEntity
  8
仕様書枠
 48
50.0
100
AcDbLine
 10
16307.19999999999
 20
10729.6
 30
0.0
 11
13127.2
 21
10729.6
 31
0.0
  0
LINE
  5
194C9
330
747D
100
AcDbEntity
  8
仕様書枠
 48
50.0
100
AcDbLine
 10
16307.19999999999
 20
11069.6
 30
0.0
 11
13127.2
 21
11069.6
 31
0.0
  0
LINE
  5
194CA
330
747D
100
AcDbEntity
  8
仕様書枠
 48
50.0
100
AcDbLine
 10
13490.2
 20
11239.6
 30
0.0
 11
13490.20000000001
 21
8689.600000000003
 31
0.0
  0
LINE
  5
194CB
330
747D
100
AcDbEntity
  8
仕様書枠
 48
50.0
100
AcDbLine
 10
14785.2
 20
11239.59999999999
 30
0.0
 11
14785.19999999999
 21
8689.600000000003
 31
0.0
  0
LINE
  5
194CC
330
747D
100
AcDbEntity
  8
仕様書枠
 48
50.0
100
AcDbLine
 10
16307.19999999999
 20
8179.600000000004
 30
0.0
 11
16307.2
 21
11239.6
 31
0.0
  0
LINE
  5
194CD
330
747D
100
AcDbEntity
  8
仕様書枠
 48
50.0
100
AcDbLine
 10
16307.19999999999
 20
11239.6
 30
0.0
 11
13127.2
 21
11239.6
 31
0.0
  0
LINE
  5
194CE
330
747D
100
AcDbEntity
  8
仕様書枠
 48
50.0
100
AcDbLine
 10
16307.19999999999
 20
9879.599999999999
 30
0.0
 11
13127.19999999999
 21
9879.600000000001
 31
0.0
  0
TEXT
  5
194CF
330
747D
100
AcDbEntity
  8
文字
 62
     7
 48
50.0
100
AcDbText
 10
13583.11819016569
 20
9910.01374588373
 30
0.0
 40
100.0
  1
梁中
  7
STYLE1
100
AcDbText
  0
TEXT
  5
194D0
330
747D
100
AcDbEntity
  8
文字
 62
     7
 48
50.0
100
AcDbText
 10
15022.63965474516
 20
9910.013745883727
 30
0.0
 40
100.0
  1
F12,Y10        1.0
  7
STYLE1
100
AcDbText
  0
LINE
  5
194D1
330
747D
100
AcDbEntity
  8
仕様書枠
 48
50.0
100
AcDbLine
 10
16307.19999999999
 20
8689.600000000003
 30
0.0
 11
13127.19999999999
 21
8689.600000000003
 31
0.0
  0
TEXT
  5
194DE
330
747D
100
AcDbEntity
  8
文字
 62
     7
 48
50.0
100
AcDbText
 10
15022.63965474517
 20
9740.013745883725
 30
0.0
 40
100.0
  1
F12            2.3
  7
STYLE1
100
AcDbText
  0
LINE
  5
19602
330
747D
100
AcDbEntity
  8
部品1
 48
50.0
100
AcDbLine
 10
5979.673057123412
 20
10087.28248384928
 30
0.0
 11
3509.673048579163
 21
10087.28248384926
 31
0.0
  0
LINE
  5
19603
330
747D
100
AcDbEntity
  8
部品1
100
AcDbLine
 10
6004.673057123419
 20
10112.28248384947
 30
0.0
 11
3484.673057123637
 21
10112.28248384947
 31
0.0
  0
LINE
  5
19646
330
747D
100
AcDbEntity
  8
部品1
 48
10.0
100
AcDbLine
 10
6139.673057123405
 20
9450.782486548463
 30
0.0
 11
6139.673057123394
 21
10112.2824865485
 31
0.0
  0
LINE
  5
19647
330
747D
100
AcDbEntity
  8
部品1
100
AcDbLine
 10
6114.673057123426
 20
9450.782486548456
 30
0.0
 11
6114.673057123419
 21
10112.28248654848
 31
0.0
  0
LINE
  5
19648
330
747D
100
AcDbEntity
  8
部品1
100
AcDbLine
 10
6087.673057123405
 20
9450.782486548456
 30
0.0
 11
6087.673057123412
 21
10167.28248654853
 31
0.0
  0
LINE
  5
19649
330
747D
100
AcDbEntity
  8
部品1
 48
50.0
100
AcDbLine
 10
6084.673057123394
 20
9451.782482971443
 30
0.0
 11
6084.673057123394
 21
10112.28248297144
 31
0.0
  0
LINE
  5
1964A
330
747D
100
AcDbEntity
  8
部品1
 48
50.0
100
AcDbLine
 10
5979.673057123416
 20
9450.782486548456
 30
0.0
 11
6139.673057123405
 21
9450.782486548463
 31
0.0
  0
LINE
  5
1964B
330
747D
100
AcDbEntity
  8
部品1
 48
50.0
100
AcDbLine
 10
6034.673057123394
 20
9451.782482971443
 30
0.0
 11
6084.673057123394
 21
9451.782482971443
 31
0.0
  0
LINE
  5
1964C
330
747D
100
AcDbEntity
  8
部品1
100
AcDbLine
 10
6034.673057123394
 20
9533.782482971444
 30
0.0
 11
6084.673057123392
 21
9546.494347378221
 31
0.0
  0
LINE
  5
1964D
330
747D
100
AcDbEntity
  8
部品1
100
AcDbLine
 10
6084.673057123394
 20
9688.606499534591
 30
0.0
 11
6034.673057123391
 21
9693.782482971442
 31
0.0
  0
LINE
  5
1964E
330
747D
100
AcDbEntity
  8
部品1
100
AcDbLine
 10
6084.673057123394
 20
9728.958466408299
 30
0.0
 11
6034.673057123391
 21
9723.782482971444
 31
0.0
  0
LINE
  5
1964F
330
747D
100
AcDbEntity
  8
部品1
 48
50.0
100
AcDbLine
 10
6114.673057123419
 20
10112.28248654856
 30
0.0
 11
6087.673057123412
 21
10139.28248654857
 31
0.0
  0
LINE
  5
19650
330
747D
100
AcDbEntity
  8
部品1
 48
50.0
100
AcDbLine
 10
6034.673057123394
 20
10112.28248297144
 30
0.0
 11
6034.673057123394
 21
9451.782482971443
 31
0.0
  0
LINE
  5
19651
330
747D
100
AcDbEntity
  8
部品1
 48
50.0
100
AcDbLine
 10
6087.673057123597
 20
10112.28248654869
 30
0.0
 11
6031.673057123596
 21
10112.28248654869
 31
0.0
  0
LINE
  5
19652
330
747D
100
AcDbEntity
  8
部品1
100
AcDbLine
 10
6031.673057123408
 20
10139.28248654858
 30
0.0
 11
6031.673057123405
 21
9450.782486548456
 31
0.0
  0
LINE
  5
19653
330
747D
100
AcDbEntity
  8
部品1
 48
50.0
100
AcDbLine
 10
6031.673057123597
 20
10112.28248654863
 30
0.0
 11
6031.673057123597
 21
10139.28248654866
 31
0.0
  0
LINE
  5
19654
330
747D
100
AcDbEntity
  8
部品1
 48
10.0
100
AcDbLine
 10
5979.673057123416
 20
9450.782486548456
 30
0.0
 11
5979.673057123412
 21
10112.28248654848
 31
0.0
  0
LINE
  5
19655
330
747D
100
AcDbEntity
  8
部品1
100
AcDbLine
 10
6004.673057123422
 20
9450.782486548456
 30
0.0
 11
6004.673057123419
 21
10112.28248654848
 31
0.0
  0
LINE
  5
19656
330
747D
100
AcDbEntity
  8
部品1
 48
50.0
100
AcDbLine
 10
6004.673057123419
 20
10112.28248654848
 30
0.0
 11
6031.673057123597
 21
10139.28248654866
 31
0.0
  0
LINE
  5
19657
330
747D
100
AcDbEntity
  8
部品1
 48
50.0
100
AcDbLine
 10
6031.673057123597
 20
10139.28248654876
 30
0.0
 11
6031.673057123594
 21
10167.28248654871
 31
0.0
  0
LINE
  5
19658
330
747D
100
AcDbEntity
  8
部品1
 48
50.0
100
AcDbLine
 10
6031.673057123597
 20
10139.28248654866
 30
0.0
 11
6059.673057123593
 21
10139.28248654866
 31
0.0
  0
LINE
  5
19659
330
747D
100
AcDbEntity
  8
部品1
 48
50.0
100
AcDbLine
 10
6059.673057123593
 20
10139.28248654866
 30
0.0
 11
6031.673057123597
 21
10167.28248654871
 31
0.0
  0
LINE
  5
1965A
330
747D
100
AcDbEntity
  8
部品1
 48
50.0
100
AcDbLine
 10
6087.673057123597
 20
10112.28248654863
 30
0.0
 11
6087.673057123663
 21
10167.28248654866
 31
0.0
  0
LINE
  5
1965B
330
747D
100
AcDbEntity
  8
部品1
100
AcDbLine
 10
6114.673057123627
 20
10167.28248654862
 30
0.0
 11
6114.673057123627
 21
10139.28248654862
 31
0.0
  0
LINE
  5
1965C
330
747D
100
AcDbEntity
  8
部品1
 48
50.0
100
AcDbLine
 10
6114.673054879776
 20
10167.28248297144
 30
0.0
 11
6004.67305712363
 21
10167.28248654871
 31
0.0
  0
LINE
  5
1965D
330
747D
100
AcDbEntity
  8
部品1
100
AcDbLine
 10
6004.67305712363
 20
10167.28248654871
 30
0.0
 11
6004.67305712363
 21
10139.28248654871
 31
0.0
  0
TEXT
  5
19669
330
747D
100
AcDbEntity
  8
文字
 62
     7
 48
50.0
100
AcDbText
 10
13248.77747366448
 20
8720.013745883731
 30
0.0
 40
100.0
  1
14
  7
STYLE1
100
AcDbText
  0
TEXT
  5
1966A
330
747D
100
AcDbEntity
  8
文字
 62
     7
 48
50.0
100
AcDbText
 10
13583.11819016569
 20
9230.013745883729
 30
0.0
 40
100.0
  1
梁中補強パネル
  7
STYLE1
100
AcDbText
  0
TEXT
  5
1966B
330
747D
100
AcDbEntity
  8
文字
 62
     7
 48
50.0
100
AcDbText
 10
15022.63965474516
 20
9230.013745883725
 30
0.0
 40
100.0
  1
F12         0.7+1.2
  7
STYLE1
100
AcDbText
  0
DIMENSION
  5
196DF
330
747D
100
AcDbEntity
  8
寸法
 48
50.0
100
AcDbDimension
  2
*D38
 10
6396.514419628083
 20
10167.28249012589
 30
0.0
 11
6296.514419628081
 21
9809.032490125815
 31
0.0
 70
    32
 71
     5
 42
716.5000000001546
  3
INABA_S40G
100
AcDbAlignedDimension
 13
6139.673059367256
 23
9450.782490125735
 33
0.0
 14
6114.673059367481
 24
10167.28249012589
 34
0.0
 50
90.0
100
AcDbRotatedDimension
1001
ACAD
1000
DSTYLE
1002
{
1070
   279
1070
     2
1070
   341
1005
0
1002
}
  0
TEXT
  5
19704
330
747D
100
AcDbEntity
  8
文字
 62
     7
 48
50.0
100
AcDbText
 10
14646.46056207479
 20
871.9640646083623
 30
0.0
 40
100.0
  1
～多雪地型～
  7
STYLE2
100
AcDbText
  0
LINE
  5
1973A
330
747D
100
AcDbEntity
  8
破線
 48
5.0
100
AcDbLine
 10
6009.673057123652
 20
2286.641517987078
 30
0.0
 11
6109.673057123652
 21
2286.641517987078
 31
0.0
  0
LINE
  5
1973B
330
747D
100
AcDbEntity
  8
破線
 48
5.0
100
AcDbLine
 10
6059.673057123652
 20
2361.641517987078
 30
0.0
 11
6059.673057123652
 21
2286.641517987078
 31
0.0
  0
LINE
  5
1973C
330
747D
100
AcDbEntity
  8
破線
 48
5.0
100
AcDbLine
 10
5956.673057123651
 20
2636.641517987079
 30
0.0
 11
5956.673057123653
 21
2386.641517987079
 31
0.0
  0
LINE
  5
1973D
330
747D
100
AcDbEntity
  8
破線
 48
5.0
100
AcDbLine
 10
6004.673057123655
 20
2386.641517987078
 30
0.0
 11
5956.673057123653
 21
2386.641517987078
 31
0.0
  0
LINE
  5
1973E
330
747D
100
AcDbEntity
  8
破線
 48
5.0
100
AcDbLine
 10
6004.673057123651
 20
2636.641517987079
 30
0.0
 11
6004.673057123653
 21
2361.641517987079
 31
0.0
  0
LINE
  5
1973F
330
747D
100
AcDbEntity
  8
破線
 48
5.0
100
AcDbLine
 10
6114.673057123651
 20
2361.641517987078
 30
0.0
 11
6004.673057123653
 21
2361.641517987078
 31
0.0
  0
LINE
  5
19740
330
747D
100
AcDbEntity
  8
破線
 48
5.0
100
AcDbLine
 10
6162.673057123653
 20
2636.641517987079
 30
0.0
 11
6162.673057123651
 21
2386.641517987084
 31
0.0
  0
LINE
  5
19741
330
747D
100
AcDbEntity
  8
破線
 48
5.0
100
AcDbLine
 10
6162.673057123651
 20
2386.641517987084
 30
0.0
 11
6114.673057123651
 21
2386.641517987084
 31
0.0
  0
LINE
  5
19742
330
747D
100
AcDbEntity
  8
破線
 48
5.0
100
AcDbLine
 10
6114.673057123653
 20
2636.641517987079
 30
0.0
 11
6114.673057123653
 21
2361.641517987079
 31
0.0
  0
LINE
  5
19759
330
747D
100
AcDbEntity
  8
破線
 48
5.0
100
AcDbLine
 10
3532.673057123655
 20
2636.641517987079
 30
0.0
 11
3532.673057123655
 21
2386.641517987084
 31
0.0
  0
LINE
  5
1975A
330
747D
100
AcDbEntity
  8
破線
 48
5.0
100
AcDbLine
 10
3532.673057123655
 20
2636.641517987079
 30
0.0
 11
3532.673057123655
 21
2386.641517987084
 31
0.0
  0
LINE
  5
1975B
330
747D
100
AcDbEntity
  8
破線
 48
5.0
100
AcDbLine
 10
3532.673057123655
 20
2386.641517987084
 30
0.0
 11
3484.673057123655
 21
2386.641517987084
 31
0.0
  0
LINE
  5
1975C
330
747D
100
AcDbEntity
  8
破線
 48
5.0
100
AcDbLine
 10
3532.673057123655
 20
2386.641517987084
 30
0.0
 11
3484.673057123655
 21
2386.641517987084
 31
0.0
  0
LINE
  5
1975D
330
747D
100
AcDbEntity
  8
破線
 48
5.0
100
AcDbLine
 10
3484.673057123655
 20
2286.641517987086
 30
0.0
 11
3429.673057123655
 21
2286.641517987086
 31
0.0
  0
LINE
  5
1975E
330
747D
100
AcDbEntity
  8
破線
 48
5.0
100
AcDbLine
 10
3429.673057123655
 20
2536.641517987078
 30
0.0
 11
3429.673057123655
 21
2286.641517987078
 31
0.0
  0
LINE
  5
1975F
330
747D
100
AcDbEntity
  8
破線
 48
5.0
100
AcDbLine
 10
3484.673057123655
 20
2636.641517987079
 30
0.0
 11
3484.673057123655
 21
2286.641517987078
 31
0.0
  0
LINE
  5
19760
330
747D
100
AcDbEntity
  8
破線
 48
5.0
100
AcDbLine
 10
3484.673057123655
 20
2636.641517987079
 30
0.0
 11
3484.673057123655
 21
2286.641517987078
 31
0.0
  0
LINE
  5
19774
330
747D
100
AcDbEntity
  8
破線
 48
5.0
100
AcDbLine
 10
8634.673057123652
 20
2636.641517987079
 30
0.0
 11
8634.673057123652
 21
2286.641517987078
 31
0.0
  0
LINE
  5
19775
330
747D
100
AcDbEntity
  8
破線
 48
5.0
100
AcDbLine
 10
8689.673057123652
 20
2536.641517987078
 30
0.0
 11
8689.673057123652
 21
2286.641517987078
 31
0.0
  0
LINE
  5
19776
330
747D
100
AcDbEntity
  8
破線
 48
5.0
100
AcDbLine
 10
8689.673057123652
 20
2286.641517987078
 30
0.0
 11
8634.673057123652
 21
2286.641517987078
 31
0.0
  0
LINE
  5
19777
330
747D
100
AcDbEntity
  8
破線
 48
5.0
100
AcDbLine
 10
8586.673057123652
 20
2636.641517987079
 30
0.0
 11
8586.673057123652
 21
2386.641517987078
 31
0.0
  0
LINE
  5
19778
330
747D
100
AcDbEntity
  8
破線
 48
5.0
100
AcDbLine
 10
8634.673057123654
 20
2386.641517987078
 30
0.0
 11
8586.673057123652
 21
2386.641517987078
 31
0.0
  0
TEXT
  5
19785
330
747D
100
AcDbEntity
  8
文字
 62
     7
 48
50.0
100
AcDbText
 10
15022.63965474516
 20
8890.013745883726
 30
0.0
 40
100.0
  1
F12            0.7
  7
STYLE1
100
AcDbText
  0
ENDSEC
  0
SECTION
  2
OBJECTS
  0
DICTIONARY
  5
7471
330
0
100
AcDbDictionary
281
     1
  3
ACAD_COLOR
350
17001
  3
ACAD_GROUP
350
7472
  3
ACAD_LAYOUT
350
17002
  3
ACAD_MATERIAL
350
17000
  3
ACAD_MLINESTYLE
350
7473
  3
ACAD_PLOTSETTINGS
350
17003
  3
ACAD_PLOTSTYLENAME
350
16FFE
  3
ACDBHEADERROUNDTRIPXREC
350
19808
  3
AcDbVariableDictionary
350
19804
  3
CONTENTDICTIONARY
350
E71C
  3
DRAWINGVARIABLESDICT
350
F3B9
  0
DICTIONARY
  5
1749E
330
7467
100
AcDbDictionary
280
     1
281
     1
  3
ACAD_LAYERSTATES
360
1749F
  0
DICTIONARY
  5
17001
102
{ACAD_REACTORS
330
7471
102
}
330
7471
100
AcDbDictionary
281
     1
  0
DICTIONARY
  5
7472
102
{ACAD_REACTORS
330
7471
102
}
330
7471
100
AcDbDictionary
281
     1
  0
DICTIONARY
  5
17002
102
{ACAD_REACTORS
330
7471
102
}
330
7471
100
AcDbDictionary
281
     1
  3
Model
350
17004
  3
レイアウト1
350
17005
  0
DICTIONARY
  5
17000
102
{ACAD_REACTORS
330
7471
102
}
330
7471
100
AcDbDictionary
281
     1
  0
DICTIONARY
  5
7473
102
{ACAD_REACTORS
330
7471
102
}
330
7471
100
AcDbDictionary
281
     1
  3
STANDARD
350
7480
  0
DICTIONARY
  5
17003
102
{ACAD_REACTORS
330
7471
102
}
330
7471
100
AcDbDictionary
281
     1
  0
ACDBDICTIONARYWDFLT
  5
16FFE
102
{ACAD_REACTORS
330
7471
102
}
330
7471
100
AcDbDictionary
281
     1
  3
Normal
350
16FFF
100
AcDbDictionaryWithDefault
340
16FFF
  0
DICTIONARY
  5
19808
102
{ACAD_REACTORS
330
7471
102
}
330
7471
100
AcDbDictionary
281
     1
  3
COLORDICT
350
1980A
  3
MATERIALDICT
350
19809
  0
DICTIONARY
  5
19804
102
{ACAD_REACTORS
330
7471
102
}
330
7471
100
AcDbDictionary
281
     1
  3
DIMASSOC
350
19805
  3
PROJECTNAME
350
19806
  0
DICTIONARY
  5
E71C
102
{ACAD_REACTORS
330
7471
102
}
330
7471
100
AcDbDictionary
281
     1
  0
DICTIONARY
  5
F3B9
102
{ACAD_REACTORS
330
7471
102
}
330
7471
100
AcDbDictionary
281
     1
1001
DRAWINGVARIABLESXDATA
1000
POLARMODE
1000
1
  0
DICTIONARY
  5
1749F
102
{ACAD_REACTORS
330
1749E
102
}
330
1749E
100
AcDbDictionary
281
     1
  0
LAYOUT
  5
17004
102
{ACAD_XDICTIONARY
360
1980B
102
}
102
{ACAD_REACTORS
330
17002
102
}
330
17002
100
AcDbPlotSettings
  1

  2
クセロPDF
  4
A3
  6

 40
3.174999999999999
 41
3.174999999999999
 42
3.174987999999999
 43
3.174987999999999
 44
419.946655
 45
296.925995
 46
0.0
 47
0.0
 48
0.0
 49
0.0
140
0.0
141
0.0
142
1.0
143
40.44561299368567
 70
 11952
 72
     1
 73
     0
 74
     2
  7
inaba.ctb
 75
     0
147
0.0247245603659442
148
183.0179068595971
149
160.3342785227505
100
AcDbLayout
  1
Model
 70
     1
 71
     0
 10
0.0
 20
0.0
 11
12.0
 21
9.0
 12
0.0
 22
0.0
 32
0.0
 14
0.0
 24
0.0
 34
0.0
 15
0.0
 25
0.0
 35
0.0
146
0.0
 13
0.0
 23
0.0
 33
0.0
 16
1.0
 26
0.0
 36
0.0
 17
0.0
 27
1.0
 37
0.0
 76
     0
330
747D
  0
LAYOUT
  5
17005
102
{ACAD_XDICTIONARY
360
1980D
102
}
102
{ACAD_REACTORS
330
17002
102
}
330
17002
100
AcDbPlotSettings
  1

  2
EPSON LP-8300
  4

  6

 40
0.0
 41
0.0
 42
0.0
 43
0.0
 44
0.0
 45
0.0
 46
0.0
 47
0.0
 48
0.0
 49
0.0
140
0.0
141
0.0
142
1.0
143
1.0
 70
   688
 72
     0
 73
     0
 74
     5
  7
inaba.ctb
 75
    16
147
1.0
148
0.0
149
0.0
100
AcDbLayout
  1
レイアウト1
 70
     0
 71
     1
 10
0.0
 20
0.0
 11
420.0
 21
297.0
 12
0.0
 22
0.0
 32
0.0
 14
1.000000000000000E+20
 24
1.000000000000000E+20
 34
1.000000000000000E+20
 15
-1.000000000000000E+20
 25
-1.000000000000000E+20
 35
-1.000000000000000E+20
146
0.0
 13
0.0
 23
0.0
 33
0.0
 16
1.0
 26
0.0
 36
0.0
 17
0.0
 27
1.0
 37
0.0
 76
     0
330
747A
  0
MLINESTYLE
  5
7480
102
{ACAD_REACTORS
330
7473
102
}
330
7473
100
AcDbMlineStyle
  2
STANDARD
 70
     0
  3

 62
     0
 51
90.0
 52
90.0
 71
     2
 49
0.5
 62
   256
  6
BYLAYER
 49
-0.5
 62
   256
  6
BYLAYER
  0
ACDBPLACEHOLDER
  5
16FFF
102
{ACAD_REACTORS
330
16FFE
102
}
330
16FFE
  0
XRECORD
  5
1980A
102
{ACAD_REACTORS
330
19808
102
}
330
19808
100
AcDbXrecord
280
     1
340
17001
  0
XRECORD
  5
19809
102
{ACAD_REACTORS
330
19808
102
}
330
19808
100
AcDbXrecord
280
     1
340
17000
  0
DICTIONARYVAR
  5
19805
102
{ACAD_REACTORS
330
19804
102
}
330
19804
100
DictionaryVariables
280
     0
  1
1
  0
DICTIONARYVAR
  5
19806
102
{ACAD_REACTORS
330
19804
102
}
330
19804
100
DictionaryVariables
280
     0
  1

  0
DICTIONARY
  5
1980B
330
17004
100
AcDbDictionary
280
     1
281
     1
  3
ACAD_XREC_ROUNDTRIP
360
1980C
  0
DICTIONARY
  5
1980D
330
17005
100
AcDbDictionary
280
     1
281
     1
  3
ACAD_XREC_ROUNDTRIP
360
1980E
  0
XRECORD
  5
1980C
102
{ACAD_REACTORS
330
1980B
102
}
330
1980B
100
AcDbXrecord
280
     1
102
SHADEPLOT
 70
     1
102
SHADEPLOTRESLEVEL
 70
     2
102
SHADEPLOTCUSTOMDPI
 70
   300
  0
XRECORD
  5
1980E
102
{ACAD_REACTORS
330
1980D
102
}
330
1980D
100
AcDbXrecord
280
     1
102
SHADEPLOT
 70
     0
102
SHADEPLOTRESLEVEL
 70
     2
102
SHADEPLOTCUSTOMDPI
 70
   300
  0
ENDSEC
  0
EOF
