  0
SECTION
  2
HEADER
  9
$ACADVER
  1
AC1015
  9
$ACADMAINTVER
 70
    20
  9
$DWGCODEPAGE
  3
ANSI_932
  9
$INSBASE
 10
0.0
 20
0.0
 30
0.0
  9
$EXTMIN
 10
139.9999999999995
 20
-0.0000000000000909
 30
0.0
  9
$EXTMAX
 10
16307.2
 20
11409.6
 30
0.0
  9
$LIMMIN
 10
-183.0179068595971
 20
-160.3342785227505
  9
$LIMMAX
 10
16374.07536659319
 20
11592.19044584975
  9
$ORTHOMODE
 70
     0
  9
$REGENMODE
 70
     1
  9
$FILLMODE
 70
     1
  9
$QTEXTMODE
 70
     0
  9
$MIRRTEXT
 70
     1
  9
$LTSCALE
 40
20.0
  9
$ATTMODE
 70
     1
  9
$TEXTSIZE
 40
100.0
  9
$TRACEWID
 40
1.0
  9
$TEXTSTYLE
  7
STYLE2
  9
$CLAYER
  8
部品1
  9
$CELTYPE
  6
BYLAYER
  9
$CECOLOR
 62
   256
  9
$CELTSCALE
 40
50.0
  9
$DISPSILH
 70
     0
  9
$DIMSCALE
 40
40.0
  9
$DIMASZ
 40
2.5
  9
$DIMEXO
 40
0.5
  9
$DIMDLI
 40
7.0
  9
$DIMRND
 40
0.0
  9
$DIMDLE
 40
0.0
  9
$DIMEXE
 40
1.5
  9
$DIMTP
 40
0.0
  9
$DIMTM
 40
0.0
  9
$DIMTXT
 40
3.0
  9
$DIMCEN
 40
0.0
  9
$DIMTSZ
 40
0.0
  9
$DIMTOL
 70
     0
  9
$DIMLIM
 70
     0
  9
$DIMTIH
 70
     0
  9
$DIMTOH
 70
     0
  9
$DIMSE1
 70
     0
  9
$DIMSE2
 70
     0
  9
$DIMTAD
 70
     3
  9
$DIMZIN
 70
     8
  9
$DIMBLK
  1

  9
$DIMASO
 70
     1
  9
$DIMSHO
 70
     1
  9
$DIMPOST
  1

  9
$DIMAPOST
  1

  9
$DIMALT
 70
     0
  9
$DIMALTD
 70
     2
  9
$DIMALTF
 40
0.0394
  9
$DIMLFAC
 40
1.0
  9
$DIMTOFL
 70
     1
  9
$DIMTVP
 40
0.0
  9
$DIMTIX
 70
     1
  9
$DIMSOXD
 70
     0
  9
$DIMSAH
 70
     1
  9
$DIMBLK1
  1
DOTSMALL
  9
$DIMBLK2
  1
DOTSMALL
  9
$DIMSTYLE
  2
INABA_S40G
  9
$DIMCLRD
 70
     0
  9
$DIMCLRE
 70
     0
  9
$DIMCLRT
 70
     7
  9
$DIMTFAC
 40
1.0
  9
$DIMGAP
 40
1.0
  9
$DIMJUST
 70
     0
  9
$DIMSD1
 70
     0
  9
$DIMSD2
 70
     0
  9
$DIMTOLJ
 70
     1
  9
$DIMTZIN
 70
     0
  9
$DIMALTZ
 70
     0
  9
$DIMALTTZ
 70
     0
  9
$DIMUPT
 70
     0
  9
$DIMDEC
 70
     1
  9
$DIMTDEC
 70
     4
  9
$DIMALTU
 70
     2
  9
$DIMALTTD
 70
     2
  9
$DIMTXSTY
  7
STYLE1
  9
$DIMAUNIT
 70
     0
  9
$DIMADEC
 70
     0
  9
$DIMALTRND
 40
0.0
  9
$DIMAZIN
 70
     0
  9
$DIMDSEP
 70
    46
  9
$DIMATFIT
 70
     3
  9
$DIMFRAC
 70
     0
  9
$DIMLDRBLK
  1

  9
$DIMLUNIT
 70
     2
  9
$DIMLWD
 70
    -2
  9
$DIMLWE
 70
    -2
  9
$DIMTMOVE
 70
     0
  9
$LUNITS
 70
     2
  9
$LUPREC
 70
     1
  9
$SKETCHINC
 40
1.0
  9
$FILLETRAD
 40
3.0
  9
$AUNITS
 70
     0
  9
$AUPREC
 70
     0
  9
$MENU
  1
acad
  9
$ELEVATION
 40
0.0
  9
$PELEVATION
 40
0.0
  9
$THICKNESS
 40
0.0
  9
$LIMCHECK
 70
     0
  9
$CHAMFERA
 40
0.0
  9
$CHAMFERB
 40
0.0
  9
$CHAMFERC
 40
0.0
  9
$CHAMFERD
 40
0.0
  9
$SKPOLY
 70
     0
  9
$TDCREATE
 40
2451368.612993866
  9
$TDUCREATE
 40
2451368.237993866
  9
$TDUPDATE
 40
2455569.631417454
  9
$TDUUPDATE
 40
2455569.256417454
  9
$TDINDWG
 40
0.6376545602
  9
$TDUSRTIMER
 40
0.6376545602
  9
$USRTIMER
 70
     1
  9
$ANGBASE
 50
0.0
  9
$ANGDIR
 70
     0
  9
$PDMODE
 70
     3
  9
$PDSIZE
 40
2.0
  9
$PLINEWID
 40
0.0
  9
$SPLFRAME
 70
     0
  9
$SPLINETYPE
 70
     6
  9
$SPLINESEGS
 70
     8
  9
$HANDSEED
  5
181E8
  9
$SURFTAB1
 70
     6
  9
$SURFTAB2
 70
     6
  9
$SURFTYPE
 70
     6
  9
$SURFU
 70
     6
  9
$SURFV
 70
     6
  9
$UCSBASE
  2

  9
$UCSNAME
  2

  9
$UCSORG
 10
0.0
 20
0.0
 30
0.0
  9
$UCSXDIR
 10
1.0
 20
0.0
 30
0.0
  9
$UCSYDIR
 10
0.0
 20
1.0
 30
0.0
  9
$UCSORTHOREF
  2

  9
$UCSORTHOVIEW
 70
     0
  9
$UCSORGTOP
 10
0.0
 20
0.0
 30
0.0
  9
$UCSORGBOTTOM
 10
0.0
 20
0.0
 30
0.0
  9
$UCSORGLEFT
 10
0.0
 20
0.0
 30
0.0
  9
$UCSORGRIGHT
 10
0.0
 20
0.0
 30
0.0
  9
$UCSORGFRONT
 10
0.0
 20
0.0
 30
0.0
  9
$UCSORGBACK
 10
0.0
 20
0.0
 30
0.0
  9
$PUCSBASE
  2

  9
$PUCSNAME
  2

  9
$PUCSORG
 10
0.0
 20
0.0
 30
0.0
  9
$PUCSXDIR
 10
1.0
 20
0.0
 30
0.0
  9
$PUCSYDIR
 10
0.0
 20
1.0
 30
0.0
  9
$PUCSORTHOREF
  2

  9
$PUCSORTHOVIEW
 70
     0
  9
$PUCSORGTOP
 10
0.0
 20
0.0
 30
0.0
  9
$PUCSORGBOTTOM
 10
0.0
 20
0.0
 30
0.0
  9
$PUCSORGLEFT
 10
0.0
 20
0.0
 30
0.0
  9
$PUCSORGRIGHT
 10
0.0
 20
0.0
 30
0.0
  9
$PUCSORGFRONT
 10
0.0
 20
0.0
 30
0.0
  9
$PUCSORGBACK
 10
0.0
 20
0.0
 30
0.0
  9
$USERI1
 70
     0
  9
$USERI2
 70
     0
  9
$USERI3
 70
     0
  9
$USERI4
 70
     0
  9
$USERI5
 70
     0
  9
$USERR1
 40
0.0
  9
$USERR2
 40
0.0
  9
$USERR3
 40
0.0
  9
$USERR4
 40
0.0
  9
$USERR5
 40
0.0
  9
$WORLDVIEW
 70
     1
  9
$SHADEDGE
 70
     3
  9
$SHADEDIF
 70
    70
  9
$TILEMODE
 70
     1
  9
$MAXACTVP
 70
    16
  9
$PINSBASE
 10
0.0
 20
0.0
 30
0.0
  9
$PLIMCHECK
 70
     0
  9
$PEXTMIN
 10
1.000000000000000E+20
 20
1.000000000000000E+20
 30
1.000000000000000E+20
  9
$PEXTMAX
 10
-1.000000000000000E+20
 20
-1.000000000000000E+20
 30
-1.000000000000000E+20
  9
$PLIMMIN
 10
0.0
 20
0.0
  9
$PLIMMAX
 10
420.0
 20
297.0
  9
$UNITMODE
 70
     0
  9
$VISRETAIN
 70
     0
  9
$PLINEGEN
 70
     0
  9
$PSLTSCALE
 70
     0
  9
$TREEDEPTH
 70
  3020
  9
$CMLSTYLE
  2
STANDARD
  9
$CMLJUST
 70
     0
  9
$CMLSCALE
 40
1.0
  9
$PROXYGRAPHICS
 70
     1
  9
$MEASUREMENT
 70
     1
  9
$CELWEIGHT
370
    -1
  9
$ENDCAPS
280
     0
  9
$JOINSTYLE
280
     0
  9
$LWDISPLAY
290
     0
  9
$INSUNITS
 70
     0
  9
$HYPERLINKBASE
  1

  9
$STYLESHEET
  1
inaba.ctb
  9
$XEDIT
290
     1
  9
$CEPSNTYPE
380
     0
  9
$PSTYLEMODE
290
     1
  9
$FINGERPRINTGUID
  2
{B0DBEC72-E9B8-49CE-B3BC-0E3E880BAE61}
  9
$VERSIONGUID
  2
{1705AA28-8B22-4F8C-B838-8921F16D1BF1}
  9
$EXTNAMES
290
     1
  9
$PSVPSCALE
 40
0.0
  9
$OLESTARTUP
290
     0
  0
ENDSEC
  0
SECTION
  2
CLASSES
  0
CLASS
  1
ACDBDICTIONARYWDFLT
  2
AcDbDictionaryWithDefault
  3
ObjectDBX Classes
 90
        0
280
     0
281
     0
  0
CLASS
  1
DICTIONARYVAR
  2
AcDbDictionaryVar
  3
ObjectDBX Classes
 90
        0
280
     0
281
     0
  0
CLASS
  1
ACDBPLACEHOLDER
  2
AcDbPlaceHolder
  3
ObjectDBX Classes
 90
        0
280
     0
281
     0
  0
CLASS
  1
LAYOUT
  2
AcDbLayout
  3
ObjectDBX Classes
 90
        0
280
     0
281
     0
  0
ENDSEC
  0
SECTION
  2
TABLES
  0
TABLE
  2
VPORT
  5
746D
330
0
100
AcDbSymbolTable
 70
     2
  0
VPORT
  5
181E0
330
746D
100
AcDbSymbolTableRecord
100
AcDbViewportTableRecord
  2
*Active
 70
     0
 10
0.0
 20
0.0
 11
1.0
 21
1.0
 12
8807.280611575228
 22
5704.608037261908
 13
0.0
 23
0.0
 14
10.0
 24
10.0
 15
10.0
 25
10.0
 16
0.0
 26
0.0
 36
1.0
 17
0.0
 27
0.0
 37
0.0
 40
11495.08541324274
 41
1.627450980392156
 42
50.0
 43
0.0
 44
0.0
 50
0.0
 51
0.0
 71
     0
 72
     0
 73
     1
 74
     0
 75
     0
 76
     0
 77
     0
 78
     0
281
     0
 65
     1
110
0.0
120
0.0
130
0.0
111
1.0
121
0.0
131
0.0
112
0.0
122
1.0
132
0.0
 79
     0
146
0.0
  0
ENDTAB
  0
TABLE
  2
LTYPE
  5
746A
330
0
100
AcDbSymbolTable
 70
     3
  0
LTYPE
  5
7477
330
746A
100
AcDbSymbolTableRecord
100
AcDbLinetypeTableRecord
  2
BYBLOCK
 70
     0
  3

 72
    65
 73
     0
 40
0.0
  0
LTYPE
  5
7478
330
746A
100
AcDbSymbolTableRecord
100
AcDbLinetypeTableRecord
  2
BYLAYER
 70
     0
  3

 72
    65
 73
     0
 40
0.0
  0
LTYPE
  5
7479
330
746A
100
AcDbSymbolTableRecord
100
AcDbLinetypeTableRecord
  2
CONTINUOUS
 70
     0
  3
Solid line
 72
    65
 73
     0
 40
0.0
  0
LTYPE
  5
781A
330
746A
100
AcDbSymbolTableRecord
100
AcDbLinetypeTableRecord
  2
HIDDEN
 70
     0
  3
__ __ __ __ __ __ __ __ __ __ __ __ __ __ __ __
 72
    65
 73
     2
 40
0.375
 49
0.25
 74
     0
 49
-0.125
 74
     0
  0
LTYPE
  5
781B
330
746A
100
AcDbSymbolTableRecord
100
AcDbLinetypeTableRecord
  2
PHANTOM
 70
     0
  3
______  __  __  ______  __  __  ______  __  __ 
 72
    65
 73
     6
 40
2.5
 49
1.25
 74
     0
 49
-0.25
 74
     0
 49
0.25
 74
     0
 49
-0.25
 74
     0
 49
0.25
 74
     0
 49
-0.25
 74
     0
  0
ENDTAB
  0
TABLE
  2
LAYER
  5
7467
102
{ACAD_XDICTIONARY
360
16952
102
}
330
0
100
AcDbSymbolTable
 70
    10
  0
LAYER
  5
7474
330
7467
100
AcDbSymbolTableRecord
100
AcDbLayerTableRecord
  2
0
 70
     0
 62
     7
  6
CONTINUOUS
370
    -3
390
16603
  0
LAYER
  5
DEB3
330
7467
100
AcDbSymbolTableRecord
100
AcDbLayerTableRecord
  2
寸法
 70
     0
 62
     4
  6
CONTINUOUS
370
    -3
390
16603
  0
LAYER
  5
DEB4
330
7467
100
AcDbSymbolTableRecord
100
AcDbLayerTableRecord
  2
部品1
 70
     0
 62
     7
  6
CONTINUOUS
370
    -3
390
16603
  0
LAYER
  5
DEB5
330
7467
100
AcDbSymbolTableRecord
100
AcDbLayerTableRecord
  2
補助
 70
     0
 62
    -1
  6
CONTINUOUS
370
    -3
390
16603
  0
LAYER
  5
DEB6
330
7467
100
AcDbSymbolTableRecord
100
AcDbLayerTableRecord
  2
文字
 70
     0
 62
     7
  6
CONTINUOUS
370
    -3
390
16603
  0
LAYER
  5
F255
330
7467
100
AcDbSymbolTableRecord
100
AcDbLayerTableRecord
  2
DEFPOINTS
 70
     0
 62
     7
  6
CONTINUOUS
290
     0
370
    -3
390
16603
  0
LAYER
  5
10B54
330
7467
100
AcDbSymbolTableRecord
100
AcDbLayerTableRecord
  2
仕様書枠
 70
     0
 62
   230
  6
CONTINUOUS
370
    -3
390
16603
  0
LAYER
  5
11729
330
7467
100
AcDbSymbolTableRecord
100
AcDbLayerTableRecord
  2
Ｇ．Ｌ
 70
     0
 62
    30
  6
CONTINUOUS
370
    -3
390
16603
  0
LAYER
  5
1173F
330
7467
100
AcDbSymbolTableRecord
100
AcDbLayerTableRecord
  2
細線
 70
     0
 62
     5
  6
CONTINUOUS
370
    -3
390
16603
  0
LAYER
  5
142E2
330
7467
100
AcDbSymbolTableRecord
100
AcDbLayerTableRecord
  2
破線
 70
     0
 62
     2
  6
HIDDEN
370
    -3
390
16603
  0
ENDTAB
  0
TABLE
  2
STYLE
  5
7468
330
0
100
AcDbSymbolTable
 70
     4
  0
STYLE
  5
7475
330
7468
100
AcDbSymbolTableRecord
100
AcDbTextStyleTableRecord
  2
STANDARD
 70
     0
 40
0.0
 41
1.0
 50
0.0
 71
     0
 42
4.0
  3
txt
  4
C:\AutoCAD LT\bigfont.shx
  0
STYLE
  5
763C
330
7468
100
AcDbSymbolTableRecord
100
AcDbTextStyleTableRecord
  2
MSMINCHO
 70
     0
 40
0.0
 41
1.0
 50
0.0
 71
     0
 42
1.199999999999999
  3
C:\AutoCAD LT\msminch2.TTF
  4

  0
STYLE
  5
F706
330
7468
100
AcDbSymbolTableRecord
100
AcDbTextStyleTableRecord
  2
STYLE1
 70
     0
 40
0.0
 41
1.0
 50
0.0
 71
     0
 42
4.0
  3
isocp.shx
  4
bigfont.shx
  0
STYLE
  5
103BF
330
7468
100
AcDbSymbolTableRecord
100
AcDbTextStyleTableRecord
  2
STYLE2
 70
     0
 40
0.0
 41
1.0
 50
0.0
 71
     0
 42
100.0
  3
MS PGothic.ttf
  4

1001
ACAD
1000
MS PGothic
1071
    32818
  0
ENDTAB
  0
TABLE
  2
VIEW
  5
746B
330
0
100
AcDbSymbolTable
 70
     0
  0
ENDTAB
  0
TABLE
  2
UCS
  5
746C
330
0
100
AcDbSymbolTable
 70
     0
  0
ENDTAB
  0
TABLE
  2
APPID
  5
746E
330
0
100
AcDbSymbolTable
 70
     6
  0
APPID
  5
7476
330
746E
100
AcDbSymbolTableRecord
100
AcDbRegAppTableRecord
  2
ACAD
 70
     0
  0
APPID
  5
DEA9
330
746E
100
AcDbSymbolTableRecord
100
AcDbRegAppTableRecord
  2
CONTENTBLOCKICON
 70
     0
  0
APPID
  5
DEAA
330
746E
100
AcDbSymbolTableRecord
100
AcDbRegAppTableRecord
  2
CONTENTBLOCKDESCRIPTION
 70
     0
  0
APPID
  5
E71D
330
746E
100
AcDbSymbolTableRecord
100
AcDbRegAppTableRecord
  2
CONTENTTABDATA
 70
     0
  0
APPID
  5
E71E
330
746E
100
AcDbSymbolTableRecord
100
AcDbRegAppTableRecord
  2
CONTENTCURRENTTAB
 70
     0
  0
APPID
  5
F3BA
330
746E
100
AcDbSymbolTableRecord
100
AcDbRegAppTableRecord
  2
DRAWINGVARIABLESXDATA
 70
     0
  0
ENDTAB
  0
TABLE
  2
DIMSTYLE
  5
746F
330
0
100
AcDbSymbolTable
 70
     1
100
AcDbDimStyleTable
 71
     1
340
F71F
  0
DIMSTYLE
105
F71F
102
{ACAD_REACTORS
330
163BA
330
163BB
330
163BC
330
163BD
330
163D1
330
163D4
330
163D7
330
163D8
330
163EE
330
163EF
330
1640C
330
1640D
330
16420
330
16B2F
330
16B30
330
16B31
330
16B32
330
17390
330
17391
330
17392
330
173CB
330
173D1
330
173D2
330
173D3
330
173FC
330
1740B
330
17C6F
330
17C70
330
17C71
102
}
330
746F
100
AcDbSymbolTableRecord
100
AcDbDimStyleTableRecord
  2
INABA_S40G
 70
     0
 40
40.0
 41
2.5
 42
0.5
 43
7.0
 44
1.5
 73
     0
 74
     0
 77
     3
 78
     8
140
3.0
141
0.0
143
0.0394
147
1.0
172
     1
173
     1
174
     1
178
     7
271
     1
340
F706
341
F770
343
F770
344
F770
  0
ENDTAB
  0
TABLE
  2
BLOCK_RECORD
  5
7466
330
0
100
AcDbSymbolTable
 70
    30
  0
BLOCK_RECORD
  5
747D
330
7466
100
AcDbSymbolTableRecord
100
AcDbBlockTableRecord
  2
*MODEL_SPACE
340
16608
  0
BLOCK_RECORD
  5
747A
330
7466
100
AcDbSymbolTableRecord
100
AcDbBlockTableRecord
  2
*PAPER_SPACE
340
16609
  0
BLOCK_RECORD
  5
F770
330
7466
100
AcDbSymbolTableRecord
100
AcDbBlockTableRecord
  2
_DOTSMALL
340
0
102
{BLKREFS
331
16688
331
16689
331
16693
331
16694
331
1669C
331
1669D
331
166A7
331
166A8
331
166B3
331
166B4
331
166BE
331
166BF
331
166C8
331
166C9
331
166D1
331
166D2
331
166D9
331
166DA
331
166E2
331
166E3
331
166ED
331
166EE
331
166F8
331
166F9
331
16701
331
16702
331
1797E
331
1797F
331
17992
331
17993
331
17A5E
331
17A5F
331
17A68
331
17A69
331
17A7C
331
17A7D
331
17A90
331
17A91
331
17AA3
331
17AA4
331
17AAC
331
17AAD
331
17AB5
331
17AB6
331
17D69
331
17D6A
331
18173
331
18174
331
1817C
331
1817D
331
18185
331
18186
331
1818E
331
1818F
331
181B5
331
181B6
331
181BE
331
181BF
102
}
  0
BLOCK_RECORD
  5
16425
330
7466
100
AcDbSymbolTableRecord
100
AcDbBlockTableRecord
  2
*D1
340
0
  0
BLOCK_RECORD
  5
16431
330
7466
100
AcDbSymbolTableRecord
100
AcDbBlockTableRecord
  2
*D2
340
0
  0
BLOCK_RECORD
  5
1643F
330
7466
100
AcDbSymbolTableRecord
100
AcDbBlockTableRecord
  2
*D3
340
0
  0
BLOCK_RECORD
  5
1644D
330
7466
100
AcDbSymbolTableRecord
100
AcDbBlockTableRecord
  2
*D4
340
0
  0
BLOCK_RECORD
  5
16471
330
7466
100
AcDbSymbolTableRecord
100
AcDbBlockTableRecord
  2
*D5
340
0
  0
BLOCK_RECORD
  5
1647C
330
7466
100
AcDbSymbolTableRecord
100
AcDbBlockTableRecord
  2
*D6
340
0
  0
BLOCK_RECORD
  5
16488
330
7466
100
AcDbSymbolTableRecord
100
AcDbBlockTableRecord
  2
*D7
340
0
  0
BLOCK_RECORD
  5
16496
330
7466
100
AcDbSymbolTableRecord
100
AcDbBlockTableRecord
  2
*D8
340
0
  0
BLOCK_RECORD
  5
164A5
330
7466
100
AcDbSymbolTableRecord
100
AcDbBlockTableRecord
  2
*D9
340
0
  0
BLOCK_RECORD
  5
164B4
330
7466
100
AcDbSymbolTableRecord
100
AcDbBlockTableRecord
  2
*D10
340
0
  0
BLOCK_RECORD
  5
164CE
330
7466
100
AcDbSymbolTableRecord
100
AcDbBlockTableRecord
  2
*D11
340
0
  0
BLOCK_RECORD
  5
164DA
330
7466
100
AcDbSymbolTableRecord
100
AcDbBlockTableRecord
  2
*D12
340
0
  0
BLOCK_RECORD
  5
164E8
330
7466
100
AcDbSymbolTableRecord
100
AcDbBlockTableRecord
  2
*D13
340
0
  0
BLOCK_RECORD
  5
16C76
330
7466
100
AcDbSymbolTableRecord
100
AcDbBlockTableRecord
  2
*D14
340
0
  0
BLOCK_RECORD
  5
16C84
330
7466
100
AcDbSymbolTableRecord
100
AcDbBlockTableRecord
  2
*D15
340
0
  0
BLOCK_RECORD
  5
16C90
330
7466
100
AcDbSymbolTableRecord
100
AcDbBlockTableRecord
  2
*D16
340
0
  0
BLOCK_RECORD
  5
16C9E
330
7466
100
AcDbSymbolTableRecord
100
AcDbBlockTableRecord
  2
*D17
340
0
  0
BLOCK_RECORD
  5
17646
330
7466
100
AcDbSymbolTableRecord
100
AcDbBlockTableRecord
  2
*D18
340
0
  0
BLOCK_RECORD
  5
17652
330
7466
100
AcDbSymbolTableRecord
100
AcDbBlockTableRecord
  2
*D19
340
0
  0
BLOCK_RECORD
  5
1765E
330
7466
100
AcDbSymbolTableRecord
100
AcDbBlockTableRecord
  2
*D20
340
0
  0
BLOCK_RECORD
  5
176AB
330
7466
100
AcDbSymbolTableRecord
100
AcDbBlockTableRecord
  2
*D21
340
0
  0
BLOCK_RECORD
  5
176B9
330
7466
100
AcDbSymbolTableRecord
100
AcDbBlockTableRecord
  2
*D22
340
0
  0
BLOCK_RECORD
  5
176C5
330
7466
100
AcDbSymbolTableRecord
100
AcDbBlockTableRecord
  2
*D23
340
0
  0
BLOCK_RECORD
  5
176D3
330
7466
100
AcDbSymbolTableRecord
100
AcDbBlockTableRecord
  2
*D24
340
0
  0
BLOCK_RECORD
  5
176DF
330
7466
100
AcDbSymbolTableRecord
100
AcDbBlockTableRecord
  2
*D25
340
0
  0
BLOCK_RECORD
  5
176EC
330
7466
100
AcDbSymbolTableRecord
100
AcDbBlockTableRecord
  2
*D26
340
0
  0
BLOCK_RECORD
  5
17CE4
330
7466
100
AcDbSymbolTableRecord
100
AcDbBlockTableRecord
  2
*D27
340
0
  0
BLOCK_RECORD
  5
17CF1
330
7466
100
AcDbSymbolTableRecord
100
AcDbBlockTableRecord
  2
*D28
340
0
  0
BLOCK_RECORD
  5
17CFF
330
7466
100
AcDbSymbolTableRecord
100
AcDbBlockTableRecord
  2
*D29
340
0
  0
ENDTAB
  0
ENDSEC
  0
SECTION
  2
BLOCKS
  0
BLOCK
  5
7489
330
747D
100
AcDbEntity
  8
0
100
AcDbBlockBegin
  2
*MODEL_SPACE
 70
     0
 10
0.0
 20
0.0
 30
0.0
  3
*MODEL_SPACE
  1

  0
ENDBLK
  5
748A
330
747D
100
AcDbEntity
  8
0
100
AcDbBlockEnd
  0
BLOCK
  5
7487
330
747A
100
AcDbEntity
 67
     1
  8
0
100
AcDbBlockBegin
  2
*PAPER_SPACE
 70
     0
 10
0.0
 20
0.0
 30
0.0
  3
*PAPER_SPACE
  1

  0
ENDBLK
  5
7488
330
747A
100
AcDbEntity
 67
     1
  8
0
100
AcDbBlockEnd
  0
BLOCK
  5
F771
330
F770
100
AcDbEntity
  8
0
 48
50.0
100
AcDbBlockBegin
  2
_DOTSMALL
 70
     0
 10
0.0
 20
0.0
 30
0.0
  3
_DOTSMALL
  1

  0
LWPOLYLINE
  5
F772
330
F770
100
AcDbEntity
  8
0
  6
ByBlock
 62
     0
 48
50.0
100
AcDbPolyline
 90
        2
 70
     1
 43
0.5
 10
-0.0625
 20
0.0
 42
1.0
 10
0.0625
 20
0.0
 42
1.0
  0
ENDBLK
  5
F776
330
F770
100
AcDbEntity
  8
0
 48
50.0
100
AcDbBlockEnd
  0
BLOCK
  5
165CD
330
16425
100
AcDbEntity
  8
0
 48
50.0
100
AcDbBlockBegin
  2
*D1
 70
     1
 10
0.0
 20
0.0
 30
0.0
  3
*D1
  1

  0
LINE
  5
166FE
330
16425
100
AcDbEntity
  8
寸法
 62
     0
 48
50.0
370
    -2
100
AcDbLine
 10
7394.673057123664
 20
9833.851149792286
 30
0.0
 11
8082.099402858069
 21
9833.851149792286
 31
0.0
  0
LINE
  5
166FF
330
16425
100
AcDbEntity
  8
寸法
 62
     0
 48
50.0
370
    -2
100
AcDbLine
 10
7394.673057123639
 20
7313.85114979227
 30
0.0
 11
8082.099402858069
 21
7313.85114979227
 31
0.0
  0
LINE
  5
16700
330
16425
100
AcDbEntity
  8
寸法
 62
     0
 48
50.0
370
    -2
100
AcDbLine
 10
8022.099402858071
 20
9833.851149792286
 30
0.0
 11
8022.099402858071
 21
7313.85114979227
 31
0.0
  0
INSERT
  5
16701
330
16425
100
AcDbEntity
  8
寸法
 62
     0
 48
50.0
370
    -2
100
AcDbBlockReference
  2
_DOTSMALL
 10
8022.099402858071
 20
9833.851149792286
 30
0.0
 41
100.0
 42
100.0
 43
100.0
 50
90.0
  0
INSERT
  5
16702
330
16425
100
AcDbEntity
  8
寸法
 62
     0
 48
50.0
370
    -2
100
AcDbBlockReference
  2
_DOTSMALL
 10
8022.099402858071
 20
7313.85114979227
 30
0.0
 41
100.0
 42
100.0
 43
100.0
 50
270.0
  0
MTEXT
  5
16703
330
16425
100
AcDbEntity
  8
寸法
 62
     7
 48
50.0
100
AcDbMText
 10
7922.087591834447
 20
8573.851149792279
 30
0.0
 40
120.0
 41
0.0
 71
     5
 72
     1
  1
\A1;6X420=2520
  7
STYLE1
 11
0.0000000000000001
 21
1.0
 31
0.0
 73
     1
 44
1.0
1001
ACAD
1000
MTEXTBEGIN
1070
    73
1070
     1
1070
    44
1040
1.0
1070
    74
1070
     0
1000
MTEXTEND
  0
POINT
  5
16704
330
16425
100
AcDbEntity
  8
DEFPOINTS
 62
     0
 48
50.0
100
AcDbPoint
 10
7374.673057123664
 20
9833.851149792286
 30
0.0
  0
POINT
  5
16705
330
16425
100
AcDbEntity
  8
DEFPOINTS
 62
     0
 48
50.0
100
AcDbPoint
 10
7374.673057123638
 20
7313.85114979227
 30
0.0
  0
POINT
  5
16706
330
16425
100
AcDbEntity
  8
DEFPOINTS
 62
     0
 48
50.0
100
AcDbPoint
 10
8022.099402858071
 20
7313.85114979227
 30
0.0
  0
ENDBLK
  5
165D7
330
16425
100
AcDbEntity
  8
0
 48
50.0
100
AcDbBlockEnd
  0
BLOCK
  5
16501
330
16431
100
AcDbEntity
  8
0
 48
50.0
100
AcDbBlockBegin
  2
*D2
 70
     1
 10
0.0
 20
0.0
 30
0.0
  3
*D2
  1

  0
LINE
  5
166F3
330
16431
100
AcDbEntity
  8
寸法
 62
     0
 48
50.0
370
    -2
100
AcDbLine
 10
7394.673057123639
 20
7313.85114979227
 30
0.0
 11
8082.09940285805
 21
7313.85114979227
 31
0.0
  0
LINE
  5
166F4
330
16431
100
AcDbEntity
  8
寸法
 62
     0
 48
50.0
370
    -2
100
AcDbLine
 10
7394.673057123639
 20
7258.851149792274
 30
0.0
 11
8082.09940285805
 21
7258.851149792274
 31
0.0
  0
LINE
  5
166F5
330
16431
100
AcDbEntity
  8
寸法
 62
     0
 48
50.0
370
    -2
100
AcDbLine
 10
8022.099402858051
 20
7313.85114979227
 30
0.0
 11
8022.099402858051
 21
7413.851149792271
 31
0.0
  0
LINE
  5
166F6
330
16431
100
AcDbEntity
  8
寸法
 62
     0
 48
50.0
370
    -2
100
AcDbLine
 10
8022.099402858051
 20
7258.851149792274
 30
0.0
 11
8022.099402858051
 21
6772.504401513171
 31
0.0
  0
LINE
  5
166F7
330
16431
100
AcDbEntity
  8
寸法
 62
     0
 48
50.0
370
    -2
100
AcDbLine
 10
8022.099402858051
 20
7313.85114979227
 30
0.0
 11
8022.099402858051
 21
7258.851149792274
 31
0.0
  0
INSERT
  5
166F8
330
16431
100
AcDbEntity
  8
寸法
 62
     0
 48
50.0
370
    -2
100
AcDbBlockReference
  2
_DOTSMALL
 10
8022.099402858051
 20
7313.85114979227
 30
0.0
 41
100.0
 42
100.0
 43
100.0
 50
270.0
  0
INSERT
  5
166F9
330
16431
100
AcDbEntity
  8
寸法
 62
     0
 48
50.0
370
    -2
100
AcDbBlockReference
  2
_DOTSMALL
 10
8022.099402858051
 20
7258.851149792274
 30
0.0
 41
100.0
 42
100.0
 43
100.0
 50
90.0
  0
MTEXT
  5
166FA
330
16431
100
AcDbEntity
  8
寸法
 62
     7
 48
50.0
100
AcDbMText
 10
7922.099402858048
 20
6880.989682887411
 30
0.0
 40
120.0
 41
0.0
 71
     5
 72
     1
  1
\A1;55
  7
STYLE1
 11
0.0000000000000001
 21
1.0
 31
0.0
 73
     1
 44
1.0
1001
ACAD
1000
MTEXTBEGIN
1070
    73
1070
     1
1070
    44
1040
1.0
1070
    74
1070
     0
1000
MTEXTEND
  0
POINT
  5
166FB
330
16431
100
AcDbEntity
  8
DEFPOINTS
 62
     0
 48
50.0
100
AcDbPoint
 10
7374.673057123638
 20
7313.85114979227
 30
0.0
  0
POINT
  5
166FC
330
16431
100
AcDbEntity
  8
DEFPOINTS
 62
     0
 48
50.0
100
AcDbPoint
 10
7374.673057123638
 20
7258.851149792274
 30
0.0
  0
POINT
  5
166FD
330
16431
100
AcDbEntity
  8
DEFPOINTS
 62
     0
 48
50.0
100
AcDbPoint
 10
8022.099402858051
 20
7258.851149792274
 30
0.0
  0
ENDBLK
  5
1650D
330
16431
100
AcDbEntity
  8
0
 48
50.0
100
AcDbBlockEnd
  0
BLOCK
  5
1650E
330
1643F
100
AcDbEntity
  8
0
 48
50.0
100
AcDbBlockBegin
  2
*D3
 70
     1
 10
0.0
 20
0.0
 30
0.0
  3
*D3
  1

  0
LINE
  5
166E8
330
1643F
100
AcDbEntity
  8
寸法
 62
     0
 48
50.0
370
    -2
100
AcDbLine
 10
7394.673057123664
 20
9888.85114979228
 30
0.0
 11
8082.099402858075
 21
9888.85114979228
 31
0.0
  0
LINE
  5
166E9
330
1643F
100
AcDbEntity
  8
寸法
 62
     0
 48
50.0
370
    -2
100
AcDbLine
 10
7394.673057123664
 20
9833.851149792286
 30
0.0
 11
8082.099402858075
 21
9833.851149792286
 31
0.0
  0
LINE
  5
166EA
330
1643F
100
AcDbEntity
  8
寸法
 62
     0
 48
50.0
370
    -2
100
AcDbLine
 10
8022.099402858074
 20
9833.851149792286
 30
0.0
 11
8022.099402858074
 21
9733.851149792286
 31
0.0
  0
LINE
  5
166EB
330
1643F
100
AcDbEntity
  8
寸法
 62
     0
 48
50.0
370
    -2
100
AcDbLine
 10
8022.099402858074
 20
9888.85114979228
 30
0.0
 11
8022.099402858076
 21
10305.82171254075
 31
0.0
  0
LINE
  5
166EC
330
1643F
100
AcDbEntity
  8
寸法
 62
     0
 48
50.0
370
    -2
100
AcDbLine
 10
8022.099402858074
 20
9833.851149792286
 30
0.0
 11
8022.099402858074
 21
9888.85114979228
 31
0.0
  0
INSERT
  5
166ED
330
1643F
100
AcDbEntity
  8
寸法
 62
     0
 48
50.0
370
    -2
100
AcDbBlockReference
  2
_DOTSMALL
 10
8022.099402858074
 20
9833.851149792286
 30
0.0
 41
100.0
 42
100.0
 43
100.0
 50
90.0
  0
INSERT
  5
166EE
330
1643F
100
AcDbEntity
  8
寸法
 62
     0
 48
50.0
370
    -2
100
AcDbBlockReference
  2
_DOTSMALL
 10
8022.099402858074
 20
9888.85114979228
 30
0.0
 41
100.0
 42
100.0
 43
100.0
 50
270.0
  0
MTEXT
  5
166EF
330
1643F
100
AcDbEntity
  8
寸法
 62
     7
 48
50.0
100
AcDbMText
 10
7922.099402858073
 20
10197.33643116652
 30
0.0
 40
120.0
 41
0.0
 71
     5
 72
     1
  1
\A1;55
  7
STYLE1
 11
0.0000000000000001
 21
1.0
 31
0.0
 73
     1
 44
1.0
1001
ACAD
1000
MTEXTBEGIN
1070
    73
1070
     1
1070
    44
1040
1.0
1070
    74
1070
     0
1000
MTEXTEND
  0
POINT
  5
166F0
330
1643F
100
AcDbEntity
  8
DEFPOINTS
 62
     0
 48
50.0
100
AcDbPoint
 10
7374.673057123664
 20
9888.85114979228
 30
0.0
  0
POINT
  5
166F1
330
1643F
100
AcDbEntity
  8
DEFPOINTS
 62
     0
 48
50.0
100
AcDbPoint
 10
7374.673057123664
 20
9833.851149792286
 30
0.0
  0
POINT
  5
166F2
330
1643F
100
AcDbEntity
  8
DEFPOINTS
 62
     0
 48
50.0
100
AcDbPoint
 10
8022.099402858074
 20
9833.851149792286
 30
0.0
  0
ENDBLK
  5
1651A
330
1643F
100
AcDbEntity
  8
0
 48
50.0
100
AcDbBlockEnd
  0
BLOCK
  5
165C2
330
1644D
100
AcDbEntity
  8
0
 48
50.0
100
AcDbBlockBegin
  2
*D4
 70
     1
 10
0.0
 20
0.0
 30
0.0
  3
*D4
  1

  0
LINE
  5
166DF
330
1644D
100
AcDbEntity
  8
寸法
 62
     0
 48
50.0
370
    -2
100
AcDbLine
 10
7394.673057123664
 20
9888.85114979228
 30
0.0
 11
8447.206344597709
 21
9888.85114979228
 31
0.0
  0
LINE
  5
166E0
330
1644D
100
AcDbEntity
  8
寸法
 62
     0
 48
50.0
370
    -2
100
AcDbLine
 10
7394.673057123639
 20
7258.851149792274
 30
0.0
 11
8447.206344597709
 21
7258.851149792274
 31
0.0
  0
LINE
  5
166E1
330
1644D
100
AcDbEntity
  8
寸法
 62
     0
 48
50.0
370
    -2
100
AcDbLine
 10
8387.206344597709
 20
9888.85114979228
 30
0.0
 11
8387.206344597709
 21
7258.851149792274
 31
0.0
  0
INSERT
  5
166E2
330
1644D
100
AcDbEntity
  8
寸法
 62
     0
 48
50.0
370
    -2
100
AcDbBlockReference
  2
_DOTSMALL
 10
8387.206344597709
 20
9888.85114979228
 30
0.0
 41
100.0
 42
100.0
 43
100.0
 50
90.0
  0
INSERT
  5
166E3
330
1644D
100
AcDbEntity
  8
寸法
 62
     0
 48
50.0
370
    -2
100
AcDbBlockReference
  2
_DOTSMALL
 10
8387.206344597709
 20
7258.851149792274
 30
0.0
 41
100.0
 42
100.0
 43
100.0
 50
270.0
  0
MTEXT
  5
166E4
330
1644D
100
AcDbEntity
  8
寸法
 62
     7
 48
50.0
100
AcDbMText
 10
8287.194533574085
 20
8573.851149792279
 30
0.0
 40
120.0
 41
0.0
 71
     5
 72
     1
  1
\A1;2630
  7
STYLE1
 11
0.0000000000000001
 21
1.0
 31
0.0
 73
     1
 44
1.0
1001
ACAD
1000
MTEXTBEGIN
1070
    73
1070
     1
1070
    44
1040
1.0
1070
    74
1070
     0
1000
MTEXTEND
  0
POINT
  5
166E5
330
1644D
100
AcDbEntity
  8
DEFPOINTS
 62
     0
 48
50.0
100
AcDbPoint
 10
7374.673057123664
 20
9888.85114979228
 30
0.0
  0
POINT
  5
166E6
330
1644D
100
AcDbEntity
  8
DEFPOINTS
 62
     0
 48
50.0
100
AcDbPoint
 10
7374.673057123638
 20
7258.851149792274
 30
0.0
  0
POINT
  5
166E7
330
1644D
100
AcDbEntity
  8
DEFPOINTS
 62
     0
 48
50.0
100
AcDbPoint
 10
8387.206344597709
 20
7258.851149792274
 30
0.0
  0
ENDBLK
  5
165CC
330
1644D
100
AcDbEntity
  8
0
 48
50.0
100
AcDbBlockEnd
  0
BLOCK
  5
1653C
330
16471
100
AcDbEntity
  8
0
 48
50.0
100
AcDbBlockBegin
  2
*D5
 70
     1
 10
0.0
 20
0.0
 30
0.0
  3
*D5
  1

  0
LINE
  5
166D7
330
16471
100
AcDbEntity
  8
寸法
 62
     0
 48
50.0
370
    -2
100
AcDbLine
 10
4847.673057123657
 20
7264.851149792182
 30
0.0
 11
4847.673057123657
 21
6664.420379026018
 31
0.0
  0
LINE
  5
166D8
330
16471
100
AcDbEntity
  8
寸法
 62
     0
 48
50.0
370
    -2
100
AcDbLine
 10
7271.673057123638
 20
6724.420379026018
 30
0.0
 11
4847.673057123657
 21
6724.420379026018
 31
0.0
  0
INSERT
  5
166D9
330
16471
100
AcDbEntity
  8
寸法
 62
     0
 48
50.0
370
    -2
100
AcDbBlockReference
  2
_DOTSMALL
 10
7271.673057123638
 20
6724.420379026018
 30
0.0
 41
100.0
 42
100.0
 43
100.0
  0
INSERT
  5
166DA
330
16471
100
AcDbEntity
  8
寸法
 62
     0
 48
50.0
370
    -2
100
AcDbBlockReference
  2
_DOTSMALL
 10
4847.673057123657
 20
6724.420379026018
 30
0.0
 41
100.0
 42
100.0
 43
100.0
 50
180.0
  0
MTEXT
  5
166DB
330
16471
100
AcDbEntity
  8
寸法
 62
     7
 48
50.0
100
AcDbMText
 10
6059.673057123648
 20
6824.43219004964
 30
0.0
 40
120.0
 41
0.0
 71
     5
 72
     1
  1
\A1;有効開口部間口 2424
  7
STYLE1
 73
     1
 44
1.0
1001
ACAD
1000
MTEXTBEGIN
1070
    73
1070
     1
1070
    44
1040
1.0
1070
    74
1070
     0
1000
MTEXTEND
  0
POINT
  5
166DC
330
16471
100
AcDbEntity
  8
DEFPOINTS
 62
     0
 48
50.0
100
AcDbPoint
 10
7271.673057123638
 20
7284.851149792183
 30
0.0
  0
POINT
  5
166DD
330
16471
100
AcDbEntity
  8
DEFPOINTS
 62
     0
 48
50.0
100
AcDbPoint
 10
4847.673057123657
 20
7284.851149792181
 30
0.0
  0
POINT
  5
166DE
330
16471
100
AcDbEntity
  8
DEFPOINTS
 62
     0
 48
50.0
100
AcDbPoint
 10
4847.673057123657
 20
6724.420379026018
 30
0.0
  0
ENDBLK
  5
16545
330
16471
100
AcDbEntity
  8
0
 48
50.0
100
AcDbBlockEnd
  0
BLOCK
  5
16546
330
1647C
100
AcDbEntity
  8
0
 48
50.0
100
AcDbBlockBegin
  2
*D6
 70
     1
 10
0.0
 20
0.0
 30
0.0
  3
*D6
  1

  0
LINE
  5
166CE
330
1647C
100
AcDbEntity
  8
寸法
 62
     0
 48
50.0
370
    -2
100
AcDbLine
 10
4744.673057123656
 20
7238.85114979211
 30
0.0
 11
4744.673057123656
 21
6378.247383435144
 31
0.0
  0
LINE
  5
166CF
330
1647C
100
AcDbEntity
  8
寸法
 62
     0
 48
50.0
370
    -2
100
AcDbLine
 10
7374.673057123638
 20
7238.851149792238
 30
0.0
 11
7374.673057123638
 21
6378.247383435144
 31
0.0
  0
LINE
  5
166D0
330
1647C
100
AcDbEntity
  8
寸法
 62
     0
 48
50.0
370
    -2
100
AcDbLine
 10
4744.673057123656
 20
6438.247383435144
 30
0.0
 11
7374.673057123638
 21
6438.247383435144
 31
0.0
  0
INSERT
  5
166D1
330
1647C
100
AcDbEntity
  8
寸法
 62
     0
 48
50.0
370
    -2
100
AcDbBlockReference
  2
_DOTSMALL
 10
4744.673057123656
 20
6438.247383435144
 30
0.0
 41
100.0
 42
100.0
 43
100.0
 50
180.0
  0
INSERT
  5
166D2
330
1647C
100
AcDbEntity
  8
寸法
 62
     0
 48
50.0
370
    -2
100
AcDbBlockReference
  2
_DOTSMALL
 10
7374.673057123638
 20
6438.247383435144
 30
0.0
 41
100.0
 42
100.0
 43
100.0
  0
MTEXT
  5
166D3
330
1647C
100
AcDbEntity
  8
寸法
 62
     7
 48
50.0
100
AcDbMText
 10
6059.673057123648
 20
6538.259194458766
 30
0.0
 40
120.0
 41
0.0
 71
     5
 72
     1
  1
\A1;2630
  7
STYLE1
 73
     1
 44
1.0
1001
ACAD
1000
MTEXTBEGIN
1070
    73
1070
     1
1070
    44
1040
1.0
1070
    74
1070
     0
1000
MTEXTEND
  0
POINT
  5
166D4
330
1647C
100
AcDbEntity
  8
DEFPOINTS
 62
     0
 48
50.0
100
AcDbPoint
 10
4744.673057123656
 20
7258.851149792111
 30
0.0
  0
POINT
  5
166D5
330
1647C
100
AcDbEntity
  8
DEFPOINTS
 62
     0
 48
50.0
100
AcDbPoint
 10
7374.673057123638
 20
7258.851149792237
 30
0.0
  0
POINT
  5
166D6
330
1647C
100
AcDbEntity
  8
DEFPOINTS
 62
     0
 48
50.0
100
AcDbPoint
 10
7374.673057123638
 20
6438.247383435144
 30
0.0
  0
ENDBLK
  5
16550
330
1647C
100
AcDbEntity
  8
0
 48
50.0
100
AcDbBlockEnd
  0
BLOCK
  5
16551
330
16488
100
AcDbEntity
  8
0
 48
50.0
100
AcDbBlockBegin
  2
*D7
 70
     1
 10
0.0
 20
0.0
 30
0.0
  3
*D7
  1

  0
LINE
  5
166C3
330
16488
100
AcDbEntity
  8
寸法
 62
     0
 48
50.0
370
    -2
100
AcDbLine
 10
4799.673057123653
 20
7238.851149792182
 30
0.0
 11
4799.673057123653
 21
6664.420379026018
 31
0.0
  0
LINE
  5
166C4
330
16488
100
AcDbEntity
  8
寸法
 62
     0
 48
50.0
370
    -2
100
AcDbLine
 10
4744.673057123656
 20
7238.851149792179
 30
0.0
 11
4744.673057123656
 21
6664.420379026018
 31
0.0
  0
LINE
  5
166C5
330
16488
100
AcDbEntity
  8
寸法
 62
     0
 48
50.0
370
    -2
100
AcDbLine
 10
4799.673057123653
 20
6724.420379026018
 30
0.0
 11
4899.673057123653
 21
6724.420379026018
 31
0.0
  0
LINE
  5
166C6
330
16488
100
AcDbEntity
  8
寸法
 62
     0
 48
50.0
370
    -2
100
AcDbLine
 10
4744.673057123656
 20
6724.420379026018
 30
0.0
 11
4327.70249437518
 21
6724.420379026018
 31
0.0
  0
LINE
  5
166C7
330
16488
100
AcDbEntity
  8
寸法
 62
     0
 48
50.0
370
    -2
100
AcDbLine
 10
4799.673057123653
 20
6724.420379026018
 30
0.0
 11
4744.673057123656
 21
6724.420379026018
 31
0.0
  0
INSERT
  5
166C8
330
16488
100
AcDbEntity
  8
寸法
 62
     0
 48
50.0
370
    -2
100
AcDbBlockReference
  2
_DOTSMALL
 10
4799.673057123653
 20
6724.420379026018
 30
0.0
 41
100.0
 42
100.0
 43
100.0
 50
180.0
  0
INSERT
  5
166C9
330
16488
100
AcDbEntity
  8
寸法
 62
     0
 48
50.0
370
    -2
100
AcDbBlockReference
  2
_DOTSMALL
 10
4744.673057123656
 20
6724.420379026018
 30
0.0
 41
100.0
 42
100.0
 43
100.0
  0
MTEXT
  5
166CA
330
16488
100
AcDbEntity
  8
寸法
 62
     7
 48
50.0
100
AcDbMText
 10
4436.187775749418
 20
6824.420379026019
 30
0.0
 40
120.0
 41
0.0
 71
     5
 72
     1
  1
\A1;55
  7
STYLE1
 73
     1
 44
1.0
1001
ACAD
1000
MTEXTBEGIN
1070
    73
1070
     1
1070
    44
1040
1.0
1070
    74
1070
     0
1000
MTEXTEND
  0
POINT
  5
166CB
330
16488
100
AcDbEntity
  8
DEFPOINTS
 62
     0
 48
50.0
100
AcDbPoint
 10
4799.673057123653
 20
7258.851149792182
 30
0.0
  0
POINT
  5
166CC
330
16488
100
AcDbEntity
  8
DEFPOINTS
 62
     0
 48
50.0
100
AcDbPoint
 10
4744.673057123656
 20
7258.851149792178
 30
0.0
  0
POINT
  5
166CD
330
16488
100
AcDbEntity
  8
DEFPOINTS
 62
     0
 48
50.0
100
AcDbPoint
 10
4744.673057123656
 20
6724.420379026018
 30
0.0
  0
ENDBLK
  5
1655D
330
16488
100
AcDbEntity
  8
0
 48
50.0
100
AcDbBlockEnd
  0
BLOCK
  5
1655E
330
16496
100
AcDbEntity
  8
0
 48
50.0
100
AcDbBlockBegin
  2
*D8
 70
     1
 10
0.0
 20
0.0
 30
0.0
  3
*D8
  1

  0
LINE
  5
166B8
330
16496
100
AcDbEntity
  8
寸法
 62
     0
 48
50.0
370
    -2
100
AcDbLine
 10
4847.673057123657
 20
7264.851149792182
 30
0.0
 11
4847.673057123657
 21
6664.420379026018
 31
0.0
  0
LINE
  5
166B9
330
16496
100
AcDbEntity
  8
寸法
 62
     0
 48
50.0
370
    -2
100
AcDbLine
 10
4799.673057123653
 20
7238.851149792182
 30
0.0
 11
4799.673057123653
 21
6664.420379026018
 31
0.0
  0
LINE
  5
166BA
330
16496
100
AcDbEntity
  8
寸法
 62
     0
 48
50.0
370
    -2
100
AcDbLine
 10
4847.673057123657
 20
6724.420379026018
 30
0.0
 11
4947.673057123656
 21
6724.420379026018
 31
0.0
  0
LINE
  5
166BB
330
16496
100
AcDbEntity
  8
寸法
 62
     0
 48
50.0
370
    -2
100
AcDbLine
 10
4799.673057123653
 20
6724.420379026018
 30
0.0
 11
4699.673057123653
 21
6724.420379026018
 31
0.0
  0
MTEXT
  5
166BC
330
16496
100
AcDbEntity
  8
寸法
 62
     7
 48
50.0
100
AcDbMText
 10
4960.575028123714
 20
6824.420379026019
 30
0.0
 40
120.0
 41
0.0
 71
     5
 72
     1
  1
\A1;48
  7
STYLE1
 73
     1
 44
1.0
1001
ACAD
1000
MTEXTBEGIN
1070
    73
1070
     1
1070
    44
1040
1.0
1070
    74
1070
     0
1000
MTEXTEND
  0
LINE
  5
166BD
330
16496
100
AcDbEntity
  8
寸法
 62
     0
 48
50.0
370
    -2
100
AcDbLine
 10
4847.673057123657
 20
6724.420379026018
 30
0.0
 11
4799.673057123653
 21
6724.420379026018
 31
0.0
  0
INSERT
  5
166BE
330
16496
100
AcDbEntity
  8
寸法
 62
     0
 48
50.0
370
    -2
100
AcDbBlockReference
  2
_DOTSMALL
 10
4847.673057123657
 20
6724.420379026018
 30
0.0
 41
100.0
 42
100.0
 43
100.0
 50
180.0
  0
INSERT
  5
166BF
330
16496
100
AcDbEntity
  8
寸法
 62
     0
 48
50.0
370
    -2
100
AcDbBlockReference
  2
_DOTSMALL
 10
4799.673057123653
 20
6724.420379026018
 30
0.0
 41
100.0
 42
100.0
 43
100.0
  0
POINT
  5
166C0
330
16496
100
AcDbEntity
  8
DEFPOINTS
 62
     0
 48
50.0
100
AcDbPoint
 10
4847.673057123657
 20
7284.851149792181
 30
0.0
  0
POINT
  5
166C1
330
16496
100
AcDbEntity
  8
DEFPOINTS
 62
     0
 48
50.0
100
AcDbPoint
 10
4799.673057123653
 20
7258.851149792182
 30
0.0
  0
POINT
  5
166C2
330
16496
100
AcDbEntity
  8
DEFPOINTS
 62
     0
 48
50.0
100
AcDbPoint
 10
4799.673057123653
 20
6724.420379026018
 30
0.0
  0
ENDBLK
  5
1656B
330
16496
100
AcDbEntity
  8
0
 48
50.0
100
AcDbBlockEnd
  0
BLOCK
  5
1656C
330
164A5
100
AcDbEntity
  8
0
 48
50.0
100
AcDbBlockBegin
  2
*D9
 70
     1
 10
0.0
 20
0.0
 30
0.0
  3
*D9
  1

  0
LINE
  5
166AD
330
164A5
100
AcDbEntity
  8
寸法
 62
     0
 48
50.0
370
    -2
100
AcDbLine
 10
7319.67305712364
 20
7238.851149792271
 30
0.0
 11
7319.67305712364
 21
6664.420379026018
 31
0.0
  0
LINE
  5
166AE
330
164A5
100
AcDbEntity
  8
寸法
 62
     0
 48
50.0
370
    -2
100
AcDbLine
 10
7271.673057123638
 20
7264.851149792183
 30
0.0
 11
7271.673057123638
 21
6664.420379026018
 31
0.0
  0
LINE
  5
166AF
330
164A5
100
AcDbEntity
  8
寸法
 62
     0
 48
50.0
370
    -2
100
AcDbLine
 10
7319.67305712364
 20
6724.420379026018
 30
0.0
 11
7419.67305712364
 21
6724.420379026018
 31
0.0
  0
LINE
  5
166B0
330
164A5
100
AcDbEntity
  8
寸法
 62
     0
 48
50.0
370
    -2
100
AcDbLine
 10
7271.673057123638
 20
6724.420379026018
 30
0.0
 11
7171.673057123638
 21
6724.420379026018
 31
0.0
  0
MTEXT
  5
166B1
330
164A5
100
AcDbEntity
  8
寸法
 62
     7
 48
50.0
100
AcDbMText
 10
7160.710159474891
 20
6824.420379026019
 30
0.0
 40
120.0
 41
0.0
 71
     5
 72
     1
  1
\A1;48
  7
STYLE1
 73
     1
 44
1.0
1001
ACAD
1000
MTEXTBEGIN
1070
    73
1070
     1
1070
    44
1040
1.0
1070
    74
1070
     0
1000
MTEXTEND
  0
LINE
  5
166B2
330
164A5
100
AcDbEntity
  8
寸法
 62
     0
 48
50.0
370
    -2
100
AcDbLine
 10
7319.67305712364
 20
6724.420379026018
 30
0.0
 11
7271.673057123638
 21
6724.420379026018
 31
0.0
  0
INSERT
  5
166B3
330
164A5
100
AcDbEntity
  8
寸法
 62
     0
 48
50.0
370
    -2
100
AcDbBlockReference
  2
_DOTSMALL
 10
7319.67305712364
 20
6724.420379026018
 30
0.0
 41
100.0
 42
100.0
 43
100.0
 50
180.0
  0
INSERT
  5
166B4
330
164A5
100
AcDbEntity
  8
寸法
 62
     0
 48
50.0
370
    -2
100
AcDbBlockReference
  2
_DOTSMALL
 10
7271.673057123638
 20
6724.420379026018
 30
0.0
 41
100.0
 42
100.0
 43
100.0
  0
POINT
  5
166B5
330
164A5
100
AcDbEntity
  8
DEFPOINTS
 62
     0
 48
50.0
100
AcDbPoint
 10
7319.67305712364
 20
7258.85114979227
 30
0.0
  0
POINT
  5
166B6
330
164A5
100
AcDbEntity
  8
DEFPOINTS
 62
     0
 48
50.0
100
AcDbPoint
 10
7271.673057123638
 20
7284.851149792183
 30
0.0
  0
POINT
  5
166B7
330
164A5
100
AcDbEntity
  8
DEFPOINTS
 62
     0
 48
50.0
100
AcDbPoint
 10
7271.673057123638
 20
6724.420379026018
 30
0.0
  0
ENDBLK
  5
16579
330
164A5
100
AcDbEntity
  8
0
 48
50.0
100
AcDbBlockEnd
  0
BLOCK
  5
1657A
330
164B4
100
AcDbEntity
  8
0
 48
50.0
100
AcDbBlockBegin
  2
*D10
 70
     1
 10
0.0
 20
0.0
 30
0.0
  3
*D10
  1

  0
LINE
  5
166A2
330
164B4
100
AcDbEntity
  8
寸法
 62
     0
 48
50.0
370
    -2
100
AcDbLine
 10
7374.673057123638
 20
7238.851149792274
 30
0.0
 11
7374.673057123638
 21
6664.420379026019
 31
0.0
  0
LINE
  5
166A3
330
164B4
100
AcDbEntity
  8
寸法
 62
     0
 48
50.0
370
    -2
100
AcDbLine
 10
7319.67305712364
 20
7238.851149792271
 30
0.0
 11
7319.67305712364
 21
6664.420379026019
 31
0.0
  0
LINE
  5
166A4
330
164B4
100
AcDbEntity
  8
寸法
 62
     0
 48
50.0
370
    -2
100
AcDbLine
 10
7319.67305712364
 20
6724.420379026018
 30
0.0
 11
7219.67305712364
 21
6724.420379026018
 31
0.0
  0
LINE
  5
166A5
330
164B4
100
AcDbEntity
  8
寸法
 62
     0
 48
50.0
370
    -2
100
AcDbLine
 10
7374.673057123638
 20
6724.420379026018
 30
0.0
 11
7791.643619872115
 21
6724.420379026018
 31
0.0
  0
LINE
  5
166A6
330
164B4
100
AcDbEntity
  8
寸法
 62
     0
 48
50.0
370
    -2
100
AcDbLine
 10
7319.67305712364
 20
6724.420379026018
 30
0.0
 11
7374.673057123638
 21
6724.420379026018
 31
0.0
  0
INSERT
  5
166A7
330
164B4
100
AcDbEntity
  8
寸法
 62
     0
 48
50.0
370
    -2
100
AcDbBlockReference
  2
_DOTSMALL
 10
7319.67305712364
 20
6724.420379026018
 30
0.0
 41
100.0
 42
100.0
 43
100.0
  0
INSERT
  5
166A8
330
164B4
100
AcDbEntity
  8
寸法
 62
     0
 48
50.0
370
    -2
100
AcDbBlockReference
  2
_DOTSMALL
 10
7374.673057123638
 20
6724.420379026018
 30
0.0
 41
100.0
 42
100.0
 43
100.0
 50
180.0
  0
MTEXT
  5
166A9
330
164B4
100
AcDbEntity
  8
寸法
 62
     7
 48
50.0
100
AcDbMText
 10
7683.158338497877
 20
6824.420379026019
 30
0.0
 40
120.0
 41
0.0
 71
     5
 72
     1
  1
\A1;55
  7
STYLE1
 73
     1
 44
1.0
1001
ACAD
1000
MTEXTBEGIN
1070
    73
1070
     1
1070
    44
1040
1.0
1070
    74
1070
     0
1000
MTEXTEND
  0
POINT
  5
166AA
330
164B4
100
AcDbEntity
  8
DEFPOINTS
 62
     0
 48
50.0
100
AcDbPoint
 10
7374.673057123638
 20
7258.851149792274
 30
0.0
  0
POINT
  5
166AB
330
164B4
100
AcDbEntity
  8
DEFPOINTS
 62
     0
 48
50.0
100
AcDbPoint
 10
7319.67305712364
 20
7258.85114979227
 30
0.0
  0
POINT
  5
166AC
330
164B4
100
AcDbEntity
  8
DEFPOINTS
 62
     0
 48
50.0
100
AcDbPoint
 10
7319.67305712364
 20
6724.420379026018
 30
0.0
  0
ENDBLK
  5
16586
330
164B4
100
AcDbEntity
  8
0
 48
50.0
100
AcDbBlockEnd
  0
BLOCK
  5
16592
330
164CE
100
AcDbEntity
  8
0
 48
50.0
100
AcDbBlockBegin
  2
*D11
 70
     1
 10
0.0
 20
0.0
 30
0.0
  3
*D11
  1

  0
LINE
  5
16699
330
164CE
100
AcDbEntity
  8
寸法
 62
     0
 48
50.0
370
    -2
100
AcDbLine
 10
4799.673057123663
 20
9908.851149792187
 30
0.0
 11
4799.673057123663
 21
10164.65936941728
 31
0.0
  0
LINE
  5
1669A
330
164CE
100
AcDbEntity
  8
寸法
 62
     0
 48
50.0
370
    -2
100
AcDbLine
 10
7319.673057123664
 20
9908.851149792281
 30
0.0
 11
7319.673057123664
 21
10164.65936941728
 31
0.0
  0
LINE
  5
1669B
330
164CE
100
AcDbEntity
  8
寸法
 62
     0
 48
50.0
370
    -2
100
AcDbLine
 10
4799.673057123663
 20
10104.65936941728
 30
0.0
 11
7319.673057123664
 21
10104.65936941728
 31
0.0
  0
INSERT
  5
1669C
330
164CE
100
AcDbEntity
  8
寸法
 62
     0
 48
50.0
370
    -2
100
AcDbBlockReference
  2
_DOTSMALL
 10
4799.673057123663
 20
10104.65936941728
 30
0.0
 41
100.0
 42
100.0
 43
100.0
 50
180.0
  0
INSERT
  5
1669D
330
164CE
100
AcDbEntity
  8
寸法
 62
     0
 48
50.0
370
    -2
100
AcDbBlockReference
  2
_DOTSMALL
 10
7319.673057123664
 20
10104.65936941728
 30
0.0
 41
100.0
 42
100.0
 43
100.0
  0
MTEXT
  5
1669E
330
164CE
100
AcDbEntity
  8
寸法
 62
     7
 48
50.0
100
AcDbMText
 10
6059.673057123664
 20
10204.6711804409
 30
0.0
 40
120.0
 41
0.0
 71
     5
 72
     1
  1
\A1;6X420=2520
  7
STYLE1
 73
     1
 44
1.0
1001
ACAD
1000
MTEXTBEGIN
1070
    73
1070
     1
1070
    44
1040
1.0
1070
    74
1070
     0
1000
MTEXTEND
  0
POINT
  5
1669F
330
164CE
100
AcDbEntity
  8
DEFPOINTS
 62
     0
 48
50.0
100
AcDbPoint
 10
4799.673057123663
 20
9888.851149792188
 30
0.0
  0
POINT
  5
166A0
330
164CE
100
AcDbEntity
  8
DEFPOINTS
 62
     0
 48
50.0
100
AcDbPoint
 10
7319.673057123664
 20
9888.85114979228
 30
0.0
  0
POINT
  5
166A1
330
164CE
100
AcDbEntity
  8
DEFPOINTS
 62
     0
 48
50.0
100
AcDbPoint
 10
7319.673057123664
 20
10104.65936941728
 30
0.0
  0
ENDBLK
  5
1659C
330
164CE
100
AcDbEntity
  8
0
 48
50.0
100
AcDbBlockEnd
  0
BLOCK
  5
1659D
330
164DA
100
AcDbEntity
  8
0
 48
50.0
100
AcDbBlockBegin
  2
*D12
 70
     1
 10
0.0
 20
0.0
 30
0.0
  3
*D12
  1

  0
LINE
  5
1668E
330
164DA
100
AcDbEntity
  8
寸法
 62
     0
 48
50.0
370
    -2
100
AcDbLine
 10
4744.673057123629
 20
9908.851149792187
 30
0.0
 11
4744.673057123629
 21
10164.65936941717
 31
0.0
  0
LINE
  5
1668F
330
164DA
100
AcDbEntity
  8
寸法
 62
     0
 48
50.0
370
    -2
100
AcDbLine
 10
4799.673057123663
 20
9908.851149792187
 30
0.0
 11
4799.673057123663
 21
10164.65936941717
 31
0.0
  0
LINE
  5
16690
330
164DA
100
AcDbEntity
  8
寸法
 62
     0
 48
50.0
370
    -2
100
AcDbLine
 10
4799.673057123663
 20
10104.65936941717
 30
0.0
 11
4899.673057123663
 21
10104.65936941717
 31
0.0
  0
LINE
  5
16691
330
164DA
100
AcDbEntity
  8
寸法
 62
     0
 48
50.0
370
    -2
100
AcDbLine
 10
4744.673057123629
 20
10104.65936941717
 30
0.0
 11
4327.702494375151
 21
10104.65936941717
 31
0.0
  0
LINE
  5
16692
330
164DA
100
AcDbEntity
  8
寸法
 62
     0
 48
50.0
370
    -2
100
AcDbLine
 10
4799.673057123663
 20
10104.65936941717
 30
0.0
 11
4744.673057123629
 21
10104.65936941717
 31
0.0
  0
INSERT
  5
16693
330
164DA
100
AcDbEntity
  8
寸法
 62
     0
 48
50.0
370
    -2
100
AcDbBlockReference
  2
_DOTSMALL
 10
4799.673057123663
 20
10104.65936941717
 30
0.0
 41
100.0
 42
100.0
 43
100.0
 50
180.0
  0
INSERT
  5
16694
330
164DA
100
AcDbEntity
  8
寸法
 62
     0
 48
50.0
370
    -2
100
AcDbBlockReference
  2
_DOTSMALL
 10
4744.673057123629
 20
10104.65936941717
 30
0.0
 41
100.0
 42
100.0
 43
100.0
  0
MTEXT
  5
16695
330
164DA
100
AcDbEntity
  8
寸法
 62
     7
 48
50.0
100
AcDbMText
 10
4436.187775749391
 20
10204.65936941717
 30
0.0
 40
120.0
 41
0.0
 71
     5
 72
     1
  1
\A1;55
  7
STYLE1
 73
     1
 44
1.0
1001
ACAD
1000
MTEXTBEGIN
1070
    73
1070
     1
1070
    44
1040
1.0
1070
    74
1070
     0
1000
MTEXTEND
  0
POINT
  5
16696
330
164DA
100
AcDbEntity
  8
DEFPOINTS
 62
     0
 48
50.0
100
AcDbPoint
 10
4744.673057123629
 20
9888.851149792188
 30
0.0
  0
POINT
  5
16697
330
164DA
100
AcDbEntity
  8
DEFPOINTS
 62
     0
 48
50.0
100
AcDbPoint
 10
4799.673057123663
 20
9888.851149792188
 30
0.0
  0
POINT
  5
16698
330
164DA
100
AcDbEntity
  8
DEFPOINTS
 62
     0
 48
50.0
100
AcDbPoint
 10
4799.673057123663
 20
10104.65936941717
 30
0.0
  0
ENDBLK
  5
165A9
330
164DA
100
AcDbEntity
  8
0
 48
50.0
100
AcDbBlockEnd
  0
BLOCK
  5
165AA
330
164E8
100
AcDbEntity
  8
0
 48
50.0
100
AcDbBlockBegin
  2
*D13
 70
     1
 10
0.0
 20
0.0
 30
0.0
  3
*D13
  1

  0
LINE
  5
16683
330
164E8
100
AcDbEntity
  8
寸法
 62
     0
 48
50.0
370
    -2
100
AcDbLine
 10
7319.673057123664
 20
9908.851149792281
 30
0.0
 11
7319.673057123664
 21
10164.65936941726
 31
0.0
  0
LINE
  5
16684
330
164E8
100
AcDbEntity
  8
寸法
 62
     0
 48
50.0
370
    -2
100
AcDbLine
 10
7374.673057123664
 20
9908.851149792281
 30
0.0
 11
7374.673057123664
 21
10164.65936941726
 31
0.0
  0
LINE
  5
16685
330
164E8
100
AcDbEntity
  8
寸法
 62
     0
 48
50.0
370
    -2
100
AcDbLine
 10
7319.673057123664
 20
10104.65936941726
 30
0.0
 11
7219.673057123664
 21
10104.65936941726
 31
0.0
  0
LINE
  5
16686
330
164E8
100
AcDbEntity
  8
寸法
 62
     0
 48
50.0
370
    -2
100
AcDbLine
 10
7374.673057123664
 20
10104.65936941726
 30
0.0
 11
7791.643619872141
 21
10104.65936941726
 31
0.0
  0
LINE
  5
16687
330
164E8
100
AcDbEntity
  8
寸法
 62
     0
 48
50.0
370
    -2
100
AcDbLine
 10
7319.673057123664
 20
10104.65936941726
 30
0.0
 11
7374.673057123664
 21
10104.65936941726
 31
0.0
  0
INSERT
  5
16688
330
164E8
100
AcDbEntity
  8
寸法
 62
     0
 48
50.0
370
    -2
100
AcDbBlockReference
  2
_DOTSMALL
 10
7319.673057123664
 20
10104.65936941726
 30
0.0
 41
100.0
 42
100.0
 43
100.0
  0
INSERT
  5
16689
330
164E8
100
AcDbEntity
  8
寸法
 62
     0
 48
50.0
370
    -2
100
AcDbBlockReference
  2
_DOTSMALL
 10
7374.673057123664
 20
10104.65936941726
 30
0.0
 41
100.0
 42
100.0
 43
100.0
 50
180.0
  0
MTEXT
  5
1668A
330
164E8
100
AcDbEntity
  8
寸法
 62
     7
 48
50.0
100
AcDbMText
 10
7683.158338497903
 20
10204.65936941726
 30
0.0
 40
120.0
 41
0.0
 71
     5
 72
     1
  1
\A1;55
  7
STYLE1
 73
     1
 44
1.0
1001
ACAD
1000
MTEXTBEGIN
1070
    73
1070
     1
1070
    44
1040
1.0
1070
    74
1070
     0
1000
MTEXTEND
  0
POINT
  5
1668B
330
164E8
100
AcDbEntity
  8
DEFPOINTS
 62
     0
 48
50.0
100
AcDbPoint
 10
7319.673057123664
 20
9888.85114979228
 30
0.0
  0
POINT
  5
1668C
330
164E8
100
AcDbEntity
  8
DEFPOINTS
 62
     0
 48
50.0
100
AcDbPoint
 10
7374.673057123664
 20
9888.85114979228
 30
0.0
  0
POINT
  5
1668D
330
164E8
100
AcDbEntity
  8
DEFPOINTS
 62
     0
 48
50.0
100
AcDbPoint
 10
7374.673057123664
 20
10104.65936941726
 30
0.0
  0
ENDBLK
  5
165B6
330
164E8
100
AcDbEntity
  8
0
 48
50.0
100
AcDbBlockEnd
  0
BLOCK
  5
16C82
330
16C76
100
AcDbEntity
  8
0
 48
50.0
100
AcDbBlockBegin
  2
*D14
 70
     1
 10
0.0
 20
0.0
 30
0.0
  3
*D14
  1

  0
LINE
  5
1798D
330
16C76
100
AcDbEntity
  8
寸法
 62
     0
 48
50.0
370
    -2
100
AcDbLine
 10
4744.673057123658
 20
4676.317390873147
 30
0.0
 11
4744.673057123658
 21
4928.858976131384
 31
0.0
  0
LINE
  5
1798E
330
16C76
100
AcDbEntity
  8
寸法
 62
     0
 48
50.0
370
    -2
100
AcDbLine
 10
4694.673057123658
 20
4676.317390873145
 30
0.0
 11
4694.673057123658
 21
4928.858976131384
 31
0.0
  0
LINE
  5
1798F
330
16C76
100
AcDbEntity
  8
寸法
 62
     0
 48
50.0
370
    -2
100
AcDbLine
 10
4744.673057123658
 20
4868.858976131384
 30
0.0
 11
4844.673057123658
 21
4868.858976131384
 31
0.0
  0
LINE
  5
17990
330
16C76
100
AcDbEntity
  8
寸法
 62
     0
 48
50.0
370
    -2
100
AcDbLine
 10
4694.673057123658
 20
4868.858976131384
 30
0.0
 11
4275.140531654924
 21
4868.858976131384
 31
0.0
  0
LINE
  5
17991
330
16C76
100
AcDbEntity
  8
寸法
 62
     0
 48
50.0
370
    -2
100
AcDbLine
 10
4744.673057123658
 20
4868.858976131384
 30
0.0
 11
4694.673057123658
 21
4868.858976131384
 31
0.0
  0
INSERT
  5
17992
330
16C76
100
AcDbEntity
  8
寸法
 62
     0
 48
50.0
370
    -2
100
AcDbBlockReference
  2
_DOTSMALL
 10
4744.673057123658
 20
4868.858976131384
 30
0.0
 41
100.0
 42
100.0
 43
100.0
 50
180.0
  0
INSERT
  5
17993
330
16C76
100
AcDbEntity
  8
寸法
 62
     0
 48
50.0
370
    -2
100
AcDbBlockReference
  2
_DOTSMALL
 10
4694.673057123658
 20
4868.858976131384
 30
0.0
 41
100.0
 42
100.0
 43
100.0
  0
MTEXT
  5
17994
330
16C76
100
AcDbEntity
  8
寸法
 62
     7
 48
50.0
100
AcDbMText
 10
4381.187775749411
 20
4968.858976131384
 30
0.0
 40
120.0
 41
0.0
 71
     5
 72
     1
  1
\A1;50
  7
STYLE1
 73
     1
 44
1.0
1001
ACAD
1000
MTEXTBEGIN
1070
    73
1070
     1
1070
    44
1040
1.0
1070
    74
1070
     0
1000
MTEXTEND
  0
POINT
  5
17995
330
16C76
100
AcDbEntity
  8
DEFPOINTS
 62
     0
 48
50.0
100
AcDbPoint
 10
4744.673057123658
 20
4656.317390873147
 30
0.0
  0
POINT
  5
17996
330
16C76
100
AcDbEntity
  8
DEFPOINTS
 62
     0
 48
50.0
100
AcDbPoint
 10
4694.673057123658
 20
4656.317390873145
 30
0.0
  0
POINT
  5
17997
330
16C76
100
AcDbEntity
  8
DEFPOINTS
 62
     0
 48
50.0
100
AcDbPoint
 10
4694.673057123658
 20
4868.858976131384
 30
0.0
  0
ENDBLK
  5
16C83
330
16C76
100
AcDbEntity
  8
0
 48
50.0
100
AcDbBlockEnd
  0
BLOCK
  5
16C8E
330
16C84
100
AcDbEntity
  8
0
 48
50.0
100
AcDbBlockBegin
  2
*D15
 70
     1
 10
0.0
 20
0.0
 30
0.0
  3
*D15
  1

  0
LINE
  5
18170
330
16C84
100
AcDbEntity
  8
寸法
 62
     0
 48
50.0
370
    -2
100
AcDbLine
 10
4694.673057123658
 20
4676.317390873145
 30
0.0
 11
4694.673057123658
 21
5144.254407613639
 31
0.0
  0
LINE
  5
18171
330
16C84
100
AcDbEntity
  8
寸法
 62
     0
 48
50.0
370
    -2
100
AcDbLine
 10
7424.673057123658
 20
4676.317390873143
 30
0.0
 11
7424.673057123658
 21
5144.254407613639
 31
0.0
  0
LINE
  5
18172
330
16C84
100
AcDbEntity
  8
寸法
 62
     0
 48
50.0
370
    -2
100
AcDbLine
 10
4694.673057123658
 20
5084.254407613639
 30
0.0
 11
7424.673057123658
 21
5084.254407613639
 31
0.0
  0
INSERT
  5
18173
330
16C84
100
AcDbEntity
  8
寸法
 62
     0
 48
50.0
370
    -2
100
AcDbBlockReference
  2
_DOTSMALL
 10
4694.673057123658
 20
5084.254407613639
 30
0.0
 41
100.0
 42
100.0
 43
100.0
 50
180.0
  0
INSERT
  5
18174
330
16C84
100
AcDbEntity
  8
寸法
 62
     0
 48
50.0
370
    -2
100
AcDbBlockReference
  2
_DOTSMALL
 10
7424.673057123658
 20
5084.254407613639
 30
0.0
 41
100.0
 42
100.0
 43
100.0
  0
MTEXT
  5
18175
330
16C84
100
AcDbEntity
  8
寸法
 62
     7
 48
50.0
100
AcDbMText
 10
6059.673057123658
 20
5184.266218637261
 30
0.0
 40
120.0
 41
0.0
 71
     5
 72
     1
  1
\A1;2730
  7
STYLE1
 73
     1
 44
1.0
1001
ACAD
1000
MTEXTBEGIN
1070
    73
1070
     1
1070
    44
1040
1.0
1070
    74
1070
     0
1000
MTEXTEND
  0
POINT
  5
18176
330
16C84
100
AcDbEntity
  8
DEFPOINTS
 62
     0
 48
50.0
100
AcDbPoint
 10
4694.673057123658
 20
4656.317390873145
 30
0.0
  0
POINT
  5
18177
330
16C84
100
AcDbEntity
  8
DEFPOINTS
 62
     0
 48
50.0
100
AcDbPoint
 10
7424.673057123658
 20
4656.317390873144
 30
0.0
  0
POINT
  5
18178
330
16C84
100
AcDbEntity
  8
DEFPOINTS
 62
     0
 48
50.0
100
AcDbPoint
 10
7424.673057123658
 20
5084.254407613639
 30
0.0
  0
ENDBLK
  5
16C8F
330
16C84
100
AcDbEntity
  8
0
 48
50.0
100
AcDbBlockEnd
  0
BLOCK
  5
16C9C
330
16C90
100
AcDbEntity
  8
0
 48
50.0
100
AcDbBlockBegin
  2
*D16
 70
     1
 10
0.0
 20
0.0
 30
0.0
  3
*D16
  1

  0
LINE
  5
17979
330
16C90
100
AcDbEntity
  8
寸法
 62
     0
 48
50.0
370
    -2
100
AcDbLine
 10
7424.673057123658
 20
4676.317390873143
 30
0.0
 11
7424.673057123658
 21
4928.858976131384
 31
0.0
  0
LINE
  5
1797A
330
16C90
100
AcDbEntity
  8
寸法
 62
     0
 48
50.0
370
    -2
100
AcDbLine
 10
7374.673057123658
 20
4676.317390873145
 30
0.0
 11
7374.673057123658
 21
4928.858976131384
 31
0.0
  0
LINE
  5
1797B
330
16C90
100
AcDbEntity
  8
寸法
 62
     0
 48
50.0
370
    -2
100
AcDbLine
 10
7374.673057123658
 20
4868.858976131384
 30
0.0
 11
7274.673057123658
 21
4868.858976131384
 31
0.0
  0
LINE
  5
1797C
330
16C90
100
AcDbEntity
  8
寸法
 62
     0
 48
50.0
370
    -2
100
AcDbLine
 10
7424.673057123658
 20
4868.858976131384
 30
0.0
 11
7844.205582592383
 21
4868.858976131384
 31
0.0
  0
LINE
  5
1797D
330
16C90
100
AcDbEntity
  8
寸法
 62
     0
 48
50.0
370
    -2
100
AcDbLine
 10
7374.673057123658
 20
4868.858976131384
 30
0.0
 11
7424.673057123658
 21
4868.858976131384
 31
0.0
  0
INSERT
  5
1797E
330
16C90
100
AcDbEntity
  8
寸法
 62
     0
 48
50.0
370
    -2
100
AcDbBlockReference
  2
_DOTSMALL
 10
7374.673057123658
 20
4868.858976131384
 30
0.0
 41
100.0
 42
100.0
 43
100.0
  0
INSERT
  5
1797F
330
16C90
100
AcDbEntity
  8
寸法
 62
     0
 48
50.0
370
    -2
100
AcDbBlockReference
  2
_DOTSMALL
 10
7424.673057123658
 20
4868.858976131384
 30
0.0
 41
100.0
 42
100.0
 43
100.0
 50
180.0
  0
MTEXT
  5
17980
330
16C90
100
AcDbEntity
  8
寸法
 62
     7
 48
50.0
100
AcDbMText
 10
7738.158338497895
 20
4968.858976131384
 30
0.0
 40
120.0
 41
0.0
 71
     5
 72
     1
  1
\A1;50
  7
STYLE1
 73
     1
 44
1.0
1001
ACAD
1000
MTEXTBEGIN
1070
    73
1070
     1
1070
    44
1040
1.0
1070
    74
1070
     0
1000
MTEXTEND
  0
POINT
  5
17981
330
16C90
100
AcDbEntity
  8
DEFPOINTS
 62
     0
 48
50.0
100
AcDbPoint
 10
7424.673057123658
 20
4656.317390873144
 30
0.0
  0
POINT
  5
17982
330
16C90
100
AcDbEntity
  8
DEFPOINTS
 62
     0
 48
50.0
100
AcDbPoint
 10
7374.673057123658
 20
4656.317390873145
 30
0.0
  0
POINT
  5
17983
330
16C90
100
AcDbEntity
  8
DEFPOINTS
 62
     0
 48
50.0
100
AcDbPoint
 10
7374.673057123658
 20
4868.858976131384
 30
0.0
  0
ENDBLK
  5
16C9D
330
16C90
100
AcDbEntity
  8
0
 48
50.0
100
AcDbBlockEnd
  0
BLOCK
  5
16CA8
330
16C9E
100
AcDbEntity
  8
0
 48
50.0
100
AcDbBlockBegin
  2
*D17
 70
     1
 10
0.0
 20
0.0
 30
0.0
  3
*D17
  1

  0
LINE
  5
18179
330
16C9E
100
AcDbEntity
  8
寸法
 62
     0
 48
50.0
370
    -2
100
AcDbLine
 10
7374.673057123658
 20
4676.317390873145
 30
0.0
 11
7374.673057123658
 21
4928.858976131384
 31
0.0
  0
LINE
  5
1817A
330
16C9E
100
AcDbEntity
  8
寸法
 62
     0
 48
50.0
370
    -2
100
AcDbLine
 10
4744.673057123658
 20
4676.317390873147
 30
0.0
 11
4744.673057123658
 21
4928.858976131384
 31
0.0
  0
LINE
  5
1817B
330
16C9E
100
AcDbEntity
  8
寸法
 62
     0
 48
50.0
370
    -2
100
AcDbLine
 10
7374.673057123658
 20
4868.858976131384
 30
0.0
 11
4744.673057123658
 21
4868.858976131384
 31
0.0
  0
INSERT
  5
1817C
330
16C9E
100
AcDbEntity
  8
寸法
 62
     0
 48
50.0
370
    -2
100
AcDbBlockReference
  2
_DOTSMALL
 10
7374.673057123658
 20
4868.858976131384
 30
0.0
 41
100.0
 42
100.0
 43
100.0
  0
INSERT
  5
1817D
330
16C9E
100
AcDbEntity
  8
寸法
 62
     0
 48
50.0
370
    -2
100
AcDbBlockReference
  2
_DOTSMALL
 10
4744.673057123658
 20
4868.858976131384
 30
0.0
 41
100.0
 42
100.0
 43
100.0
 50
180.0
  0
MTEXT
  5
1817E
330
16C9E
100
AcDbEntity
  8
寸法
 62
     7
 48
50.0
100
AcDbMText
 10
6059.673057123658
 20
4968.870787155005
 30
0.0
 40
120.0
 41
0.0
 71
     5
 72
     1
  1
\A1;柱外寸法2630
  7
STYLE1
 73
     1
 44
1.0
1001
ACAD
1000
MTEXTBEGIN
1070
    73
1070
     1
1070
    44
1040
1.0
1070
    74
1070
     0
1000
MTEXTEND
  0
POINT
  5
1817F
330
16C9E
100
AcDbEntity
  8
DEFPOINTS
 62
     0
 48
50.0
100
AcDbPoint
 10
7374.673057123658
 20
4656.317390873145
 30
0.0
  0
POINT
  5
18180
330
16C9E
100
AcDbEntity
  8
DEFPOINTS
 62
     0
 48
50.0
100
AcDbPoint
 10
4744.673057123658
 20
4656.317390873147
 30
0.0
  0
POINT
  5
18181
330
16C9E
100
AcDbEntity
  8
DEFPOINTS
 62
     0
 48
50.0
100
AcDbPoint
 10
4744.673057123658
 20
4868.858976131384
 30
0.0
  0
ENDBLK
  5
16CA9
330
16C9E
100
AcDbEntity
  8
0
 48
50.0
100
AcDbBlockEnd
  0
BLOCK
  5
17650
330
17646
100
AcDbEntity
  8
0
 48
50.0
100
AcDbBlockBegin
  2
*D18
 70
     1
 10
0.0
 20
0.0
 30
0.0
  3
*D18
  1

  0
LINE
  5
17AB2
330
17646
100
AcDbEntity
  8
寸法
 62
     0
 48
50.0
370
    -2
100
AcDbLine
 10
9981.849830513247
 20
4421.317390873134
 30
0.0
 11
9098.09970132999
 21
4421.317390873134
 31
0.0
  0
LINE
  5
17AB3
330
17646
100
AcDbEntity
  8
寸法
 62
     0
 48
50.0
370
    -2
100
AcDbLine
 10
9981.849830513247
 20
2331.317390873133
 30
0.0
 11
9098.099701329987
 21
2331.317390873133
 31
0.0
  0
LINE
  5
17AB4
330
17646
100
AcDbEntity
  8
寸法
 62
     0
 48
50.0
370
    -2
100
AcDbLine
 10
9158.099701329989
 20
4421.317390873134
 30
0.0
 11
9158.099701329987
 21
2331.317390873133
 31
0.0
  0
INSERT
  5
17AB5
330
17646
100
AcDbEntity
  8
寸法
 62
     0
 48
50.0
370
    -2
100
AcDbBlockReference
  2
_DOTSMALL
 10
9158.099701329989
 20
4421.317390873134
 30
0.0
 41
100.0
 42
100.0
 43
100.0
 50
90.0
  0
INSERT
  5
17AB6
330
17646
100
AcDbEntity
  8
寸法
 62
     0
 48
50.0
370
    -2
100
AcDbBlockReference
  2
_DOTSMALL
 10
9158.099701329987
 20
2331.317390873133
 30
0.0
 41
100.0
 42
100.0
 43
100.0
 50
270.0
  0
MTEXT
  5
17AB7
330
17646
100
AcDbEntity
  8
寸法
 62
     7
 48
50.0
100
AcDbMText
 10
9058.087890306365
 20
3376.317390873135
 30
0.0
 40
120.0
 41
0.0
 71
     5
 72
     1
  1
\A1;2090
  7
STYLE1
 11
0.0000000000000001
 21
1.0
 31
0.0
 73
     1
 44
1.0
1001
ACAD
1000
MTEXTBEGIN
1070
    73
1070
     1
1070
    44
1040
1.0
1070
    74
1070
     0
1000
MTEXTEND
  0
POINT
  5
17AB8
330
17646
100
AcDbEntity
  8
DEFPOINTS
 62
     0
 48
50.0
100
AcDbPoint
 10
10001.84983051324
 20
4421.317390873134
 30
0.0
  0
POINT
  5
17AB9
330
17646
100
AcDbEntity
  8
DEFPOINTS
 62
     0
 48
50.0
100
AcDbPoint
 10
10001.84983051324
 20
2331.317390873133
 30
0.0
  0
POINT
  5
17ABA
330
17646
100
AcDbEntity
  8
DEFPOINTS
 62
     0
 48
50.0
100
AcDbPoint
 10
9158.099701329987
 20
2331.317390873133
 30
0.0
  0
ENDBLK
  5
17651
330
17646
100
AcDbEntity
  8
0
 48
50.0
100
AcDbBlockEnd
  0
BLOCK
  5
1765C
330
17652
100
AcDbEntity
  8
0
 48
50.0
100
AcDbBlockBegin
  2
*D19
 70
     1
 10
0.0
 20
0.0
 30
0.0
  3
*D19
  1

  0
LINE
  5
17AA9
330
17652
100
AcDbEntity
  8
寸法
 62
     0
 48
50.0
370
    -2
100
AcDbLine
 10
9981.849830513247
 20
2281.317390873133
 30
0.0
 11
8798.099701329986
 21
2281.317390873133
 31
0.0
  0
LINE
  5
17AAA
330
17652
100
AcDbEntity
  8
寸法
 62
     0
 48
50.0
370
    -2
100
AcDbLine
 10
9921.849830513247
 20
4656.317390873137
 30
0.0
 11
8798.099701329986
 21
4656.317390873137
 31
0.0
  0
LINE
  5
17AAB
330
17652
100
AcDbEntity
  8
寸法
 62
     0
 48
50.0
370
    -2
100
AcDbLine
 10
8858.099701329987
 20
2281.317390873133
 30
0.0
 11
8858.099701329988
 21
4656.317390873137
 31
0.0
  0
INSERT
  5
17AAC
330
17652
100
AcDbEntity
  8
寸法
 62
     0
 48
50.0
370
    -2
100
AcDbBlockReference
  2
_DOTSMALL
 10
8858.099701329987
 20
2281.317390873133
 30
0.0
 41
100.0
 42
100.0
 43
100.0
 50
270.0
  0
INSERT
  5
17AAD
330
17652
100
AcDbEntity
  8
寸法
 62
     0
 48
50.0
370
    -2
100
AcDbBlockReference
  2
_DOTSMALL
 10
8858.099701329988
 20
4656.317390873137
 30
0.0
 41
100.0
 42
100.0
 43
100.0
 50
90.0
  0
MTEXT
  5
17AAE
330
17652
100
AcDbEntity
  8
寸法
 62
     7
 48
50.0
100
AcDbMText
 10
8758.087890306363
 20
3468.817390873137
 30
0.0
 40
120.0
 41
0.0
 71
     5
 72
     1
  1
\A1;2375
  7
STYLE1
 11
0.0000000000000001
 21
1.0
 31
0.0
 73
     1
 44
1.0
1001
ACAD
1000
MTEXTBEGIN
1070
    73
1070
     1
1070
    44
1040
1.0
1070
    74
1070
     0
1000
MTEXTEND
  0
POINT
  5
17AAF
330
17652
100
AcDbEntity
  8
DEFPOINTS
 62
     0
 48
50.0
100
AcDbPoint
 10
10001.84983051324
 20
2281.317390873133
 30
0.0
  0
POINT
  5
17AB0
330
17652
100
AcDbEntity
  8
DEFPOINTS
 62
     0
 48
50.0
100
AcDbPoint
 10
9941.849830513248
 20
4656.317390873137
 30
0.0
  0
POINT
  5
17AB1
330
17652
100
AcDbEntity
  8
DEFPOINTS
 62
     0
 48
50.0
100
AcDbPoint
 10
8858.099701329988
 20
4656.317390873137
 30
0.0
  0
ENDBLK
  5
1765D
330
17652
100
AcDbEntity
  8
0
 48
50.0
100
AcDbBlockEnd
  0
BLOCK
  5
17668
330
1765E
100
AcDbEntity
  8
0
 48
50.0
100
AcDbBlockBegin
  2
*D20
 70
     1
 10
0.0
 20
0.0
 30
0.0
  3
*D20
  1

  0
LINE
  5
17AA0
330
1765E
100
AcDbEntity
  8
寸法
 62
     0
 48
50.0
370
    -2
100
AcDbLine
 10
12651.84983051325
 20
2281.31739087314
 30
0.0
 11
13396.77698848538
 21
2281.317390873139
 31
0.0
  0
LINE
  5
17AA1
330
1765E
100
AcDbEntity
  8
寸法
 62
     0
 48
50.0
370
    -2
100
AcDbLine
 10
12731.84983051325
 20
4601.317390873139
 30
0.0
 11
13396.77698848538
 21
4601.317390873139
 31
0.0
  0
LINE
  5
17AA2
330
1765E
100
AcDbEntity
  8
寸法
 62
     0
 48
50.0
370
    -2
100
AcDbLine
 10
13336.77698848538
 20
2281.317390873139
 30
0.0
 11
13336.77698848538
 21
4601.317390873139
 31
0.0
  0
INSERT
  5
17AA3
330
1765E
100
AcDbEntity
  8
寸法
 62
     0
 48
50.0
370
    -2
100
AcDbBlockReference
  2
_DOTSMALL
 10
13336.77698848538
 20
2281.317390873139
 30
0.0
 41
100.0
 42
100.0
 43
100.0
 50
270.0
  0
INSERT
  5
17AA4
330
1765E
100
AcDbEntity
  8
寸法
 62
     0
 48
50.0
370
    -2
100
AcDbBlockReference
  2
_DOTSMALL
 10
13336.77698848538
 20
4601.317390873139
 30
0.0
 41
100.0
 42
100.0
 43
100.0
 50
90.0
  0
MTEXT
  5
17AA5
330
1765E
100
AcDbEntity
  8
寸法
 62
     7
 48
50.0
100
AcDbMText
 10
13236.76517746176
 20
3441.317390873142
 30
0.0
 40
120.0
 41
0.0
 71
     5
 72
     1
  1
\A1;2320
  7
STYLE1
 11
0.0000000000000001
 21
1.0
 31
0.0
 73
     1
 44
1.0
1001
ACAD
1000
MTEXTBEGIN
1070
    73
1070
     1
1070
    44
1040
1.0
1070
    74
1070
     0
1000
MTEXTEND
  0
POINT
  5
17AA6
330
1765E
100
AcDbEntity
  8
DEFPOINTS
 62
     0
 48
50.0
100
AcDbPoint
 10
12631.84983051325
 20
2281.31739087314
 30
0.0
  0
POINT
  5
17AA7
330
1765E
100
AcDbEntity
  8
DEFPOINTS
 62
     0
 48
50.0
100
AcDbPoint
 10
12711.84983051325
 20
4601.317390873139
 30
0.0
  0
POINT
  5
17AA8
330
1765E
100
AcDbEntity
  8
DEFPOINTS
 62
     0
 48
50.0
100
AcDbPoint
 10
13336.77698848538
 20
4601.317390873139
 30
0.0
  0
ENDBLK
  5
17669
330
1765E
100
AcDbEntity
  8
0
 48
50.0
100
AcDbBlockEnd
  0
BLOCK
  5
176B7
330
176AB
100
AcDbEntity
  8
0
 48
50.0
100
AcDbBlockBegin
  2
*D21
 70
     1
 10
0.0
 20
0.0
 30
0.0
  3
*D21
  1

  0
LINE
  5
17A8B
330
176AB
100
AcDbEntity
  8
寸法
 62
     0
 48
50.0
370
    -2
100
AcDbLine
 10
9981.849830513247
 20
2331.317390873138
 30
0.0
 11
9098.099701329987
 21
2331.317390873138
 31
0.0
  0
LINE
  5
17A8C
330
176AB
100
AcDbEntity
  8
寸法
 62
     0
 48
50.0
370
    -2
100
AcDbLine
 10
9926.849830513248
 20
2281.317390873138
 30
0.0
 11
9098.099701329987
 21
2281.317390873138
 31
0.0
  0
LINE
  5
17A8D
330
176AB
100
AcDbEntity
  8
寸法
 62
     0
 48
50.0
370
    -2
100
AcDbLine
 10
9158.099701329987
 20
2331.317390873138
 30
0.0
 11
9158.099701329987
 21
2431.317390873138
 31
0.0
  0
LINE
  5
17A8E
330
176AB
100
AcDbEntity
  8
寸法
 62
     0
 48
50.0
370
    -2
100
AcDbLine
 10
9158.099701329987
 20
2281.317390873138
 30
0.0
 11
9158.099701329987
 21
1869.222902684159
 31
0.0
  0
LINE
  5
17A8F
330
176AB
100
AcDbEntity
  8
寸法
 62
     0
 48
50.0
370
    -2
100
AcDbLine
 10
9158.099701329987
 20
2331.317390873138
 30
0.0
 11
9158.099701329987
 21
2281.317390873138
 31
0.0
  0
INSERT
  5
17A90
330
176AB
100
AcDbEntity
  8
寸法
 62
     0
 48
50.0
370
    -2
100
AcDbBlockReference
  2
_DOTSMALL
 10
9158.099701329987
 20
2331.317390873138
 30
0.0
 41
100.0
 42
100.0
 43
100.0
 50
270.0
  0
INSERT
  5
17A91
330
176AB
100
AcDbEntity
  8
寸法
 62
     0
 48
50.0
370
    -2
100
AcDbBlockReference
  2
_DOTSMALL
 10
9158.099701329987
 20
2281.317390873138
 30
0.0
 41
100.0
 42
100.0
 43
100.0
 50
90.0
  0
MTEXT
  5
17A92
330
176AB
100
AcDbEntity
  8
寸法
 62
     7
 48
50.0
100
AcDbMText
 10
9058.099701329988
 20
1975.270146778649
 30
0.0
 40
120.0
 41
0.0
 71
     5
 72
     1
  1
\A1;50
  7
STYLE1
 11
0.0000000000000001
 21
1.0
 31
0.0
 73
     1
 44
1.0
1001
ACAD
1000
MTEXTBEGIN
1070
    73
1070
     1
1070
    44
1040
1.0
1070
    74
1070
     0
1000
MTEXTEND
  0
POINT
  5
17A93
330
176AB
100
AcDbEntity
  8
DEFPOINTS
 62
     0
 48
50.0
100
AcDbPoint
 10
10001.84983051324
 20
2331.317390873138
 30
0.0
  0
POINT
  5
17A94
330
176AB
100
AcDbEntity
  8
DEFPOINTS
 62
     0
 48
50.0
100
AcDbPoint
 10
9946.849830513247
 20
2281.317390873138
 30
0.0
  0
POINT
  5
17A95
330
176AB
100
AcDbEntity
  8
DEFPOINTS
 62
     0
 48
50.0
100
AcDbPoint
 10
9158.099701329987
 20
2281.317390873138
 30
0.0
  0
ENDBLK
  5
176B8
330
176AB
100
AcDbEntity
  8
0
 48
50.0
100
AcDbBlockEnd
  0
BLOCK
  5
176C3
330
176B9
100
AcDbEntity
  8
0
 48
50.0
100
AcDbBlockBegin
  2
*D22
 70
     1
 10
0.0
 20
0.0
 30
0.0
  3
*D22
  1

  0
LINE
  5
1818B
330
176B9
100
AcDbEntity
  8
寸法
 62
     0
 48
50.0
370
    -2
100
AcDbLine
 10
12631.84983051325
 20
4623.128070484791
 30
0.0
 11
12631.84983051325
 21
5114.974844452444
 31
0.0
  0
LINE
  5
1818C
330
176B9
100
AcDbEntity
  8
寸法
 62
     0
 48
50.0
370
    -2
100
AcDbLine
 10
10001.84983051324
 20
4672.319008996114
 30
0.0
 11
10001.84983051324
 21
5114.974844452444
 31
0.0
  0
LINE
  5
1818D
330
176B9
100
AcDbEntity
  8
寸法
 62
     0
 48
50.0
370
    -2
100
AcDbLine
 10
12631.84983051325
 20
5054.974844452444
 30
0.0
 11
10001.84983051324
 21
5054.974844452444
 31
0.0
  0
INSERT
  5
1818E
330
176B9
100
AcDbEntity
  8
寸法
 62
     0
 48
50.0
370
    -2
100
AcDbBlockReference
  2
_DOTSMALL
 10
12631.84983051325
 20
5054.974844452444
 30
0.0
 41
100.0
 42
100.0
 43
100.0
  0
INSERT
  5
1818F
330
176B9
100
AcDbEntity
  8
寸法
 62
     0
 48
50.0
370
    -2
100
AcDbBlockReference
  2
_DOTSMALL
 10
10001.84983051324
 20
5054.974844452444
 30
0.0
 41
100.0
 42
100.0
 43
100.0
 50
180.0
  0
MTEXT
  5
18190
330
176B9
100
AcDbEntity
  8
寸法
 62
     7
 48
50.0
100
AcDbMText
 10
11316.84983051325
 20
5154.986655476065
 30
0.0
 40
120.0
 41
0.0
 71
     5
 72
     1
  1
\A1;柱外寸法2630
  7
STYLE1
 73
     1
 44
1.0
1001
ACAD
1000
MTEXTBEGIN
1070
    73
1070
     1
1070
    44
1040
1.0
1070
    74
1070
     0
1000
MTEXTEND
  0
POINT
  5
18191
330
176B9
100
AcDbEntity
  8
DEFPOINTS
 62
     0
 48
50.0
100
AcDbPoint
 10
12631.84983051325
 20
4603.128070484792
 30
0.0
  0
POINT
  5
18192
330
176B9
100
AcDbEntity
  8
DEFPOINTS
 62
     0
 48
50.0
100
AcDbPoint
 10
10001.84983051324
 20
4652.319008996115
 30
0.0
  0
POINT
  5
18193
330
176B9
100
AcDbEntity
  8
DEFPOINTS
 62
     0
 48
50.0
100
AcDbPoint
 10
10001.84983051324
 20
5054.974844452444
 30
0.0
  0
ENDBLK
  5
176C4
330
176B9
100
AcDbEntity
  8
0
 48
50.0
100
AcDbBlockEnd
  0
BLOCK
  5
176D1
330
176C5
100
AcDbEntity
  8
0
 48
50.0
100
AcDbBlockBegin
  2
*D23
 70
     1
 10
0.0
 20
0.0
 30
0.0
  3
*D23
  1

  0
LINE
  5
17A77
330
176C5
100
AcDbEntity
  8
寸法
 62
     0
 48
50.0
370
    -2
100
AcDbLine
 10
10001.84983051324
 20
4672.319008996114
 30
0.0
 11
10001.84983051324
 21
5114.974844452442
 31
0.0
  0
LINE
  5
17A78
330
176C5
100
AcDbEntity
  8
寸法
 62
     0
 48
50.0
370
    -2
100
AcDbLine
 10
9941.849830513248
 20
4676.317390873143
 30
0.0
 11
9941.849830513248
 21
5114.974844452442
 31
0.0
  0
LINE
  5
17A79
330
176C5
100
AcDbEntity
  8
寸法
 62
     0
 48
50.0
370
    -2
100
AcDbLine
 10
10001.84983051324
 20
5054.974844452442
 30
0.0
 11
10101.84983051324
 21
5054.974844452442
 31
0.0
  0
LINE
  5
17A7A
330
176C5
100
AcDbEntity
  8
寸法
 62
     0
 48
50.0
370
    -2
100
AcDbLine
 10
9941.849830513248
 20
5054.974844452442
 30
0.0
 11
9522.574239962066
 21
5054.974844452442
 31
0.0
  0
LINE
  5
17A7B
330
176C5
100
AcDbEntity
  8
寸法
 62
     0
 48
50.0
370
    -2
100
AcDbLine
 10
10001.84983051324
 20
5054.974844452442
 30
0.0
 11
9941.849830513248
 21
5054.974844452442
 31
0.0
  0
INSERT
  5
17A7C
330
176C5
100
AcDbEntity
  8
寸法
 62
     0
 48
50.0
370
    -2
100
AcDbBlockReference
  2
_DOTSMALL
 10
10001.84983051324
 20
5054.974844452442
 30
0.0
 41
100.0
 42
100.0
 43
100.0
 50
180.0
  0
INSERT
  5
17A7D
330
176C5
100
AcDbEntity
  8
寸法
 62
     0
 48
50.0
370
    -2
100
AcDbBlockReference
  2
_DOTSMALL
 10
9941.849830513248
 20
5054.974844452442
 30
0.0
 41
100.0
 42
100.0
 43
100.0
  0
MTEXT
  5
17A7E
330
176C5
100
AcDbEntity
  8
寸法
 62
     7
 48
50.0
100
AcDbMText
 10
9632.212035237657
 20
5154.974844452443
 30
0.0
 40
120.0
 41
0.0
 71
     5
 72
     1
  1
\A1;60
  7
STYLE1
 73
     1
 44
1.0
1001
ACAD
1000
MTEXTBEGIN
1070
    73
1070
     1
1070
    44
1040
1.0
1070
    74
1070
     0
1000
MTEXTEND
  0
POINT
  5
17A7F
330
176C5
100
AcDbEntity
  8
DEFPOINTS
 62
     0
 48
50.0
100
AcDbPoint
 10
10001.84983051324
 20
4652.319008996115
 30
0.0
  0
POINT
  5
17A80
330
176C5
100
AcDbEntity
  8
DEFPOINTS
 62
     0
 48
50.0
100
AcDbPoint
 10
9941.849830513248
 20
4656.317390873144
 30
0.0
  0
POINT
  5
17A81
330
176C5
100
AcDbEntity
  8
DEFPOINTS
 62
     0
 48
50.0
100
AcDbPoint
 10
9941.849830513248
 20
5054.974844452442
 30
0.0
  0
ENDBLK
  5
176D2
330
176C5
100
AcDbEntity
  8
0
 48
50.0
100
AcDbBlockEnd
  0
BLOCK
  5
176DD
330
176D3
100
AcDbEntity
  8
0
 48
50.0
100
AcDbBlockBegin
  2
*D24
 70
     1
 10
0.0
 20
0.0
 30
0.0
  3
*D24
  1

  0
LINE
  5
18182
330
176D3
100
AcDbEntity
  8
寸法
 62
     0
 48
50.0
370
    -2
100
AcDbLine
 10
12711.84983051325
 20
4621.31739087314
 30
0.0
 11
12711.84983051325
 21
5335.18553118406
 31
0.0
  0
LINE
  5
18183
330
176D3
100
AcDbEntity
  8
寸法
 62
     0
 48
50.0
370
    -2
100
AcDbLine
 10
9941.849830513248
 20
4676.317390873143
 30
0.0
 11
9941.849830513248
 21
5335.18553118406
 31
0.0
  0
LINE
  5
18184
330
176D3
100
AcDbEntity
  8
寸法
 62
     0
 48
50.0
370
    -2
100
AcDbLine
 10
12711.84983051325
 20
5275.18553118406
 30
0.0
 11
9941.849830513248
 21
5275.18553118406
 31
0.0
  0
INSERT
  5
18185
330
176D3
100
AcDbEntity
  8
寸法
 62
     0
 48
50.0
370
    -2
100
AcDbBlockReference
  2
_DOTSMALL
 10
12711.84983051325
 20
5275.18553118406
 30
0.0
 41
100.0
 42
100.0
 43
100.0
  0
INSERT
  5
18186
330
176D3
100
AcDbEntity
  8
寸法
 62
     0
 48
50.0
370
    -2
100
AcDbBlockReference
  2
_DOTSMALL
 10
9941.849830513248
 20
5275.18553118406
 30
0.0
 41
100.0
 42
100.0
 43
100.0
 50
180.0
  0
MTEXT
  5
18187
330
176D3
100
AcDbEntity
  8
寸法
 62
     7
 48
50.0
100
AcDbMText
 10
11326.84983051325
 20
5375.197342207681
 30
0.0
 40
120.0
 41
0.0
 71
     5
 72
     1
  1
\A1;2770
  7
STYLE1
 73
     1
 44
1.0
1001
ACAD
1000
MTEXTBEGIN
1070
    73
1070
     1
1070
    44
1040
1.0
1070
    74
1070
     0
1000
MTEXTEND
  0
POINT
  5
18188
330
176D3
100
AcDbEntity
  8
DEFPOINTS
 62
     0
 48
50.0
100
AcDbPoint
 10
12711.84983051325
 20
4601.317390873139
 30
0.0
  0
POINT
  5
18189
330
176D3
100
AcDbEntity
  8
DEFPOINTS
 62
     0
 48
50.0
100
AcDbPoint
 10
9941.849830513248
 20
4656.317390873144
 30
0.0
  0
POINT
  5
1818A
330
176D3
100
AcDbEntity
  8
DEFPOINTS
 62
     0
 48
50.0
100
AcDbPoint
 10
9941.849830513248
 20
5275.18553118406
 30
0.0
  0
ENDBLK
  5
176DE
330
176D3
100
AcDbEntity
  8
0
 48
50.0
100
AcDbBlockEnd
  0
BLOCK
  5
176EA
330
176DF
100
AcDbEntity
  8
0
 48
50.0
100
AcDbBlockBegin
  2
*D25
 70
     1
 10
0.0
 20
0.0
 30
0.0
  3
*D25
  1

  0
LINE
  5
17A64
330
176DF
100
AcDbEntity
  8
寸法
 62
     0
 48
50.0
370
    -2
100
AcDbLine
 10
12631.84983051325
 20
4623.128070484791
 30
0.0
 11
12631.84983051325
 21
5114.974844452444
 31
0.0
  0
LINE
  5
17A65
330
176DF
100
AcDbEntity
  8
寸法
 62
     0
 48
50.0
370
    -2
100
AcDbLine
 10
12711.84983051325
 20
4621.31739087314
 30
0.0
 11
12711.84983051325
 21
5114.974844452444
 31
0.0
  0
LINE
  5
17A66
330
176DF
100
AcDbEntity
  8
寸法
 62
     0
 48
50.0
370
    -2
100
AcDbLine
 10
12631.84983051325
 20
5054.974844452444
 30
0.0
 11
12711.84983051325
 21
5054.974844452444
 31
0.0
  0
LINE
  5
17A67
330
176DF
100
AcDbEntity
  8
寸法
 62
     0
 48
50.0
370
    -2
100
AcDbLine
 10
12711.84983051325
 20
5054.974844452444
 30
0.0
 11
13023.94431870222
 21
5054.974844452444
 31
0.0
  0
INSERT
  5
17A68
330
176DF
100
AcDbEntity
  8
寸法
 62
     0
 48
50.0
370
    -2
100
AcDbBlockReference
  2
_DOTSMALL
 10
12631.84983051325
 20
5054.974844452444
 30
0.0
 41
100.0
 42
100.0
 43
100.0
 50
180.0
  0
INSERT
  5
17A69
330
176DF
100
AcDbEntity
  8
寸法
 62
     0
 48
50.0
370
    -2
100
AcDbBlockReference
  2
_DOTSMALL
 10
12711.84983051325
 20
5054.974844452444
 30
0.0
 41
100.0
 42
100.0
 43
100.0
  0
MTEXT
  5
17A6A
330
176DF
100
AcDbEntity
  8
寸法
 62
     7
 48
50.0
100
AcDbMText
 10
12917.89707460774
 20
5154.974844452444
 30
0.0
 40
120.0
 41
0.0
 71
     5
 72
     1
  1
\A1;80
  7
STYLE1
 73
     1
 44
1.0
1001
ACAD
1000
MTEXTBEGIN
1070
    73
1070
     1
1070
    44
1040
1.0
1070
    74
1070
     0
1000
MTEXTEND
  0
POINT
  5
17A6B
330
176DF
100
AcDbEntity
  8
DEFPOINTS
 62
     0
 48
50.0
100
AcDbPoint
 10
12631.84983051325
 20
4603.128070484792
 30
0.0
  0
POINT
  5
17A6C
330
176DF
100
AcDbEntity
  8
DEFPOINTS
 62
     0
 48
50.0
100
AcDbPoint
 10
12711.84983051325
 20
4601.317390873139
 30
0.0
  0
POINT
  5
17A6D
330
176DF
100
AcDbEntity
  8
DEFPOINTS
 62
     0
 48
50.0
100
AcDbPoint
 10
12711.84983051325
 20
5054.974844452444
 30
0.0
  0
ENDBLK
  5
176EB
330
176DF
100
AcDbEntity
  8
0
 48
50.0
100
AcDbBlockEnd
  0
BLOCK
  5
176F7
330
176EC
100
AcDbEntity
  8
0
 48
50.0
100
AcDbBlockBegin
  2
*D26
 70
     1
 10
0.0
 20
0.0
 30
0.0
  3
*D26
  1

  0
LINE
  5
17A5A
330
176EC
100
AcDbEntity
  8
寸法
 62
     0
 48
50.0
370
    -2
100
AcDbLine
 10
9941.25411680435
 20
4655.6150979428
 30
0.0
 11
9325.31967769907
 21
4673.32924821713
 31
0.0
  0
LINE
  5
17A5B
330
176EC
100
AcDbEntity
  8
寸法
 62
     0
 48
50.0
370
    -2
100
AcDbLine
 10
9937.200661247722
 20
4514.673374177088
 30
0.0
 11
9321.266222142444
 21
4532.387524451418
 31
0.0
  0
LINE
  5
17A5C
330
176EC
100
AcDbEntity
  8
寸法
 62
     0
 48
50.0
370
    -2
100
AcDbLine
 10
9381.241423744873
 20
4530.66264974647
 30
0.0
 11
9385.2948793015
 21
4671.604373512182
 31
0.0
  0
LINE
  5
17A5D
330
176EC
100
AcDbEntity
  8
寸法
 62
     0
 48
50.0
370
    -2
100
AcDbLine
 10
9385.2948793015
 20
4671.604373512182
 30
0.0
 11
9395.644127531186
 21
5031.455583126768
 31
0.0
  0
INSERT
  5
17A5E
330
176EC
100
AcDbEntity
  8
寸法
 62
     0
 48
50.0
370
    -2
100
AcDbBlockReference
  2
_DOTSMALL
 10
9381.241423744873
 20
4530.66264974647
 30
0.0
 41
100.0
 42
100.0
 43
100.0
 50
268.3526390256378
  0
INSERT
  5
17A5F
330
176EC
100
AcDbEntity
  8
寸法
 62
     0
 48
50.0
370
    -2
100
AcDbBlockReference
  2
_DOTSMALL
 10
9385.2948793015
 20
4671.604373512182
 30
0.0
 41
100.0
 42
100.0
 43
100.0
 50
88.35263902563776
  0
MTEXT
  5
17A60
330
176EC
100
AcDbEntity
  8
寸法
 62
     7
 48
50.0
100
AcDbMText
 10
9291.948229666415
 20
4904.384104163082
 30
0.0
 40
120.0
 41
0.0
 71
     5
 72
     1
  1
\A1;141
  7
STYLE1
 11
0.0287479117491237
 21
0.9995866933738488
 31
0.0
 73
     1
 44
1.0
1001
ACAD
1000
MTEXTBEGIN
1070
    73
1070
     1
1070
    44
1040
1.0
1070
    74
1070
     0
1000
MTEXTEND
  0
POINT
  5
17A61
330
176EC
100
AcDbEntity
  8
DEFPOINTS
 62
     0
 48
50.0
100
AcDbPoint
 10
9961.245850671826
 20
4655.040139707817
 30
0.0
  0
POINT
  5
17A62
330
176EC
100
AcDbEntity
  8
DEFPOINTS
 62
     0
 48
50.0
100
AcDbPoint
 10
9957.1923951152
 20
4514.098415942105
 30
0.0
  0
POINT
  5
17A63
330
176EC
100
AcDbEntity
  8
DEFPOINTS
 62
     0
 48
50.0
100
AcDbPoint
 10
9381.241423744873
 20
4530.66264974647
 30
0.0
  0
ENDBLK
  5
176F8
330
176EC
100
AcDbEntity
  8
0
 48
50.0
100
AcDbBlockEnd
  0
BLOCK
  5
17CEF
330
17CE4
100
AcDbEntity
  8
0
 48
50.0
100
AcDbBlockBegin
  2
*D27
 70
     1
 10
0.0
 20
0.0
 30
0.0
  3
*D27
  1

  0
LINE
  5
181BA
330
17CE4
100
AcDbEntity
  8
寸法
 62
     0
 48
50.0
370
    -2
100
AcDbLine
 10
7394.673057123657
 20
4256.317390873141
 30
0.0
 11
7722.216159445403
 21
4256.317390873141
 31
0.0
  0
LINE
  5
181BB
330
17CE4
100
AcDbEntity
  8
寸法
 62
     0
 48
50.0
370
    -2
100
AcDbLine
 10
7394.673057123657
 20
4421.317390873141
 30
0.0
 11
7722.216159445403
 21
4421.317390873141
 31
0.0
  0
LINE
  5
181BC
330
17CE4
100
AcDbEntity
  8
寸法
 62
     0
 48
50.0
370
    -2
100
AcDbLine
 10
7662.216159445404
 20
4256.317390873141
 30
0.0
 11
7662.216159445404
 21
4421.317390873141
 31
0.0
  0
LINE
  5
181BD
330
17CE4
100
AcDbEntity
  8
寸法
 62
     0
 48
50.0
370
    -2
100
AcDbLine
 10
7662.216159445404
 20
4421.317390873141
 30
0.0
 11
7662.216159445404
 21
4798.287953621619
 31
0.0
  0
INSERT
  5
181BE
330
17CE4
100
AcDbEntity
  8
寸法
 62
     0
 48
50.0
370
    -2
100
AcDbBlockReference
  2
_DOTSMALL
 10
7662.216159445404
 20
4256.317390873141
 30
0.0
 41
100.0
 42
100.0
 43
100.0
 50
270.0
  0
INSERT
  5
181BF
330
17CE4
100
AcDbEntity
  8
寸法
 62
     0
 48
50.0
370
    -2
100
AcDbBlockReference
  2
_DOTSMALL
 10
7662.216159445404
 20
4421.317390873141
 30
0.0
 41
100.0
 42
100.0
 43
100.0
 50
90.0
  0
MTEXT
  5
181C0
330
17CE4
100
AcDbEntity
  8
寸法
 62
     7
 48
50.0
100
AcDbMText
 10
7562.216159445402
 20
4659.80267224738
 30
0.0
 40
120.0
 41
0.0
 71
     5
 72
     1
  1
\A1;165
  7
STYLE1
 11
0.0000000000000001
 21
1.0
 31
0.0
 73
     1
 44
1.0
1001
ACAD
1000
MTEXTBEGIN
1070
    73
1070
     1
1070
    44
1040
1.0
1070
    74
1070
     0
1000
MTEXTEND
  0
POINT
  5
181C1
330
17CE4
100
AcDbEntity
  8
DEFPOINTS
 62
     0
 48
50.0
100
AcDbPoint
 10
7374.673057123658
 20
4256.317390873141
 30
0.0
  0
POINT
  5
181C2
330
17CE4
100
AcDbEntity
  8
DEFPOINTS
 62
     0
 48
50.0
100
AcDbPoint
 10
7374.673057123657
 20
4421.317390873141
 30
0.0
  0
POINT
  5
181C3
330
17CE4
100
AcDbEntity
  8
DEFPOINTS
 62
     0
 48
50.0
100
AcDbPoint
 10
7662.216159445404
 20
4421.317390873141
 30
0.0
  0
ENDBLK
  5
17CF0
330
17CE4
100
AcDbEntity
  8
0
 48
50.0
100
AcDbBlockEnd
  0
BLOCK
  5
17CFD
330
17CF1
100
AcDbEntity
  8
0
 48
50.0
100
AcDbBlockBegin
  2
*D28
 70
     1
 10
0.0
 20
0.0
 30
0.0
  3
*D28
  1

  0
LINE
  5
181AF
330
17CF1
100
AcDbEntity
  8
寸法
 62
     0
 48
50.0
370
    -2
100
AcDbLine
 10
7394.673057123657
 20
4229.31739087314
 30
0.0
 11
7722.216159445403
 21
4229.31739087314
 31
0.0
  0
LINE
  5
181B0
330
17CF1
100
AcDbEntity
  8
寸法
 62
     0
 48
50.0
370
    -2
100
AcDbLine
 10
7394.673057123657
 20
4256.317390873141
 30
0.0
 11
7722.216159445403
 21
4256.317390873141
 31
0.0
  0
LINE
  5
181B1
330
17CF1
100
AcDbEntity
  8
寸法
 62
     0
 48
50.0
370
    -2
100
AcDbLine
 10
7662.216159445403
 20
4229.31739087314
 30
0.0
 11
7662.216159445403
 21
4129.317390873139
 31
0.0
  0
LINE
  5
181B2
330
17CF1
100
AcDbEntity
  8
寸法
 62
     0
 48
50.0
370
    -2
100
AcDbLine
 10
7662.216159445403
 20
4256.317390873141
 30
0.0
 11
7662.216159445403
 21
4356.317390873141
 31
0.0
  0
MTEXT
  5
181B3
330
17CF1
100
AcDbEntity
  8
寸法
 62
     7
 48
50.0
100
AcDbMText
 10
7802.385982691768
 20
4257.284590712798
 30
0.0
 40
120.0
 41
0.0
 71
     5
 72
     1
  1
\A1;27
  7
STYLE1
 11
0.0000000000000001
 21
1.0
 31
0.0
 73
     1
 44
1.0
1001
ACAD
1000
MTEXTBEGIN
1070
    73
1070
     1
1070
    44
1040
1.0
1070
    74
1070
     0
1000
MTEXTEND
  0
LINE
  5
181B4
330
17CF1
100
AcDbEntity
  8
寸法
 62
     0
 48
50.0
370
    -2
100
AcDbLine
 10
7662.216159445403
 20
4229.31739087314
 30
0.0
 11
7662.216159445403
 21
4256.317390873141
 31
0.0
  0
INSERT
  5
181B5
330
17CF1
100
AcDbEntity
  8
寸法
 62
     0
 48
50.0
370
    -2
100
AcDbBlockReference
  2
_DOTSMALL
 10
7662.216159445403
 20
4229.31739087314
 30
0.0
 41
100.0
 42
100.0
 43
100.0
 50
90.0
  0
INSERT
  5
181B6
330
17CF1
100
AcDbEntity
  8
寸法
 62
     0
 48
50.0
370
    -2
100
AcDbBlockReference
  2
_DOTSMALL
 10
7662.216159445403
 20
4256.317390873141
 30
0.0
 41
100.0
 42
100.0
 43
100.0
 50
270.0
  0
POINT
  5
181B7
330
17CF1
100
AcDbEntity
  8
DEFPOINTS
 62
     0
 48
50.0
100
AcDbPoint
 10
7374.673057123658
 20
4229.31739087314
 30
0.0
  0
POINT
  5
181B8
330
17CF1
100
AcDbEntity
  8
DEFPOINTS
 62
     0
 48
50.0
100
AcDbPoint
 10
7374.673057123658
 20
4256.317390873141
 30
0.0
  0
POINT
  5
181B9
330
17CF1
100
AcDbEntity
  8
DEFPOINTS
 62
     0
 48
50.0
100
AcDbPoint
 10
7662.216159445403
 20
4256.317390873141
 30
0.0
  0
ENDBLK
  5
17CFE
330
17CF1
100
AcDbEntity
  8
0
 48
50.0
100
AcDbBlockEnd
  0
BLOCK
  5
17D09
330
17CFF
100
AcDbEntity
  8
0
 48
50.0
100
AcDbBlockBegin
  2
*D29
 70
     1
 10
0.0
 20
0.0
 30
0.0
  3
*D29
  1

  0
LINE
  5
17D66
330
17CFF
100
AcDbEntity
  8
寸法
 62
     0
 48
50.0
370
    -2
100
AcDbLine
 10
7394.673057123657
 20
2281.317390873141
 30
0.0
 11
7722.216159445403
 21
2281.317390873141
 31
0.0
  0
LINE
  5
17D67
330
17CFF
100
AcDbEntity
  8
寸法
 62
     0
 48
50.0
370
    -2
100
AcDbLine
 10
7394.673057123657
 20
4229.31739087314
 30
0.0
 11
7722.216159445403
 21
4229.31739087314
 31
0.0
  0
LINE
  5
17D68
330
17CFF
100
AcDbEntity
  8
寸法
 62
     0
 48
50.0
370
    -2
100
AcDbLine
 10
7662.216159445403
 20
2281.317390873141
 30
0.0
 11
7662.216159445403
 21
4229.31739087314
 31
0.0
  0
INSERT
  5
17D69
330
17CFF
100
AcDbEntity
  8
寸法
 62
     0
 48
50.0
370
    -2
100
AcDbBlockReference
  2
_DOTSMALL
 10
7662.216159445403
 20
2281.317390873141
 30
0.0
 41
100.0
 42
100.0
 43
100.0
 50
270.0
  0
INSERT
  5
17D6A
330
17CFF
100
AcDbEntity
  8
寸法
 62
     0
 48
50.0
370
    -2
100
AcDbBlockReference
  2
_DOTSMALL
 10
7662.216159445403
 20
4229.31739087314
 30
0.0
 41
100.0
 42
100.0
 43
100.0
 50
90.0
  0
MTEXT
  5
17D6B
330
17CFF
100
AcDbEntity
  8
寸法
 62
     7
 48
50.0
100
AcDbMText
 10
7562.216159445402
 20
3255.317390873142
 30
0.0
 40
120.0
 41
0.0
 71
     5
 72
     1
  1
\A1;有効開口部高サ 1948
  7
STYLE1
 11
0.0000000000000001
 21
1.0
 31
0.0
 73
     1
 44
1.0
1001
ACAD
1000
MTEXTBEGIN
1070
    73
1070
     1
1070
    44
1040
1.0
1070
    74
1070
     0
1000
MTEXTEND
  0
POINT
  5
17D6C
330
17CFF
100
AcDbEntity
  8
DEFPOINTS
 62
     0
 48
50.0
100
AcDbPoint
 10
7374.673057123657
 20
2281.317390873141
 30
0.0
  0
POINT
  5
17D6D
330
17CFF
100
AcDbEntity
  8
DEFPOINTS
 62
     0
 48
50.0
100
AcDbPoint
 10
7374.673057123658
 20
4229.31739087314
 30
0.0
  0
POINT
  5
17D6E
330
17CFF
100
AcDbEntity
  8
DEFPOINTS
 62
     0
 48
50.0
100
AcDbPoint
 10
7662.216159445403
 20
4229.31739087314
 30
0.0
  0
ENDBLK
  5
17D0A
330
17CFF
100
AcDbEntity
  8
0
 48
50.0
100
AcDbBlockEnd
  0
ENDSEC
  0
SECTION
  2
ENTITIES
  0
MTEXT
  5
763F
330
747D
100
AcDbEntity
  8
0
100
AcDbMText
 10
302.846345836809
 20
280.1983726409901
 30
0.0
 40
3.5
 41
5.323721266742722
 71
     1
 72
     5
  1

  7
MSMINCHO
 73
     1
 44
1.0
1001
ACAD
1000
MTEXTBEGIN
1070
    73
1070
     1
1070
    44
1040
1.0
1070
    74
1070
     0
1000
MTEXTEND
  0
LINE
  5
10B57
330
747D
100
AcDbEntity
  8
補助
  6
PHANTOM
 62
   230
 48
50.0
100
AcDbLine
 10
139.9999999999995
 20
11409.6
 30
0.0
 11
16307.2
 21
11409.6
 31
0.0
  0
LINE
  5
10B59
330
747D
100
AcDbEntity
  8
仕様書枠
  6
Continuous
 48
50.0
100
AcDbLine
 10
13107.2
 20
1200.0
 30
0.0
 11
13107.2
 21
-0.0000000000000729
 31
0.0
  0
LINE
  5
10B5C
330
747D
100
AcDbEntity
  8
仕様書枠
 48
50.0
100
AcDbLine
 10
16307.2
 20
1200.0
 30
0.0
 11
16307.2
 21
-0.0000000000000909
 31
0.0
  0
LINE
  5
10B5D
330
747D
100
AcDbEntity
  8
仕様書枠
 48
50.0
100
AcDbLine
 10
140.0
 20
0.0
 30
0.0
 11
16307.2
 21
-0.0000000000000909
 31
0.0
  0
LINE
  5
10B5E
330
747D
100
AcDbEntity
  8
補助
  6
PHANTOM
 62
   230
 48
50.0
100
AcDbLine
 10
16307.2
 20
11409.6
 30
0.0
 11
16307.2
 21
1200.0
 31
0.0
  0
LINE
  5
10B6C
330
747D
100
AcDbEntity
  8
仕様書枠
 48
50.0
100
AcDbLine
 10
13107.2
 20
1200.0
 30
0.0
 11
16307.2
 21
1200.0
 31
0.0
  0
LINE
  5
10B6D
330
747D
100
AcDbEntity
  8
補助
  6
PHANTOM
 62
   230
 48
50.0
100
AcDbLine
 10
13107.2
 20
11409.6
 30
0.0
 11
13107.2
 21
4800.0
 31
0.0
  0
LINE
  5
10B6F
330
747D
100
AcDbEntity
  8
補助
  6
PHANTOM
 62
   230
 48
50.0
100
AcDbLine
 10
13107.2
 20
4800.0
 30
0.0
 11
16307.2
 21
4800.0
 31
0.0
  0
LINE
  5
10B72
330
747D
100
AcDbEntity
  8
文字
 62
     7
 48
50.0
100
AcDbLine
 10
13187.2
 20
400.0
 30
0.0
 11
16227.2
 21
400.0
 31
0.0
  0
TEXT
  5
10B73
330
747D
100
AcDbEntity
  8
文字
 62
     7
 48
50.0
100
AcDbText
 10
13162.9790565769
 20
895.0906074299405
 30
0.0
 40
200.0
  1
外 形 図
  7
STYLE2
100
AcDbText
  0
TEXT
  5
10B74
330
747D
100
AcDbEntity
  8
文字
 62
     7
 48
50.0
100
AcDbText
 10
13201.43669998441
 20
477.2740661031255
 30
0.0
 40
160.0
  1
機種名
  7
STYLE2
100
AcDbText
  0
TEXT
  5
10B75
330
747D
100
AcDbEntity
  8
文字
 62
     7
 48
50.0
100
AcDbText
 10
13209.4053442172
 20
228.5435242569016
 30
0.0
 40
100.0
  1
○有効開口寸法 ： 2424×1948(mm)
  7
STYLE2
100
AcDbText
  0
TEXT
  5
10B76
330
747D
100
AcDbEntity
  8
文字
 62
     7
 48
50.0
100
AcDbText
 10
13209.4053442172
 20
76.09434707649343
 30
0.0
 40
100.0
  1
○床面積 ： 6.92㎡(2.10坪) 　
  7
STYLE2
100
AcDbText
  0
TEXT
  5
10B79
330
747D
100
AcDbEntity
  8
文字
 62
     7
 48
50.0
100
AcDbText
 10
14524.131837222
 20
1031.557706291228
 30
0.0
 40
100.0
  1
NO.13      <縮尺> S=1/40
  7
STYLE2
100
AcDbText
  0
LINE
  5
10B7B
330
747D
100
AcDbEntity
  8
仕様書枠
 48
50.0
100
AcDbLine
 10
13107.2
 20
800.0
 30
0.0
 11
14251.2
 21
800.0
 31
0.0
  0
LINE
  5
10B88
330
747D
100
AcDbEntity
  8
仕様書枠
  6
Continuous
 48
50.0
100
AcDbLine
 10
14251.2
 20
1200.0
 30
0.0
 11
14251.2
 21
800.0
 31
0.0
  0
TEXT
  5
15550
330
747D
100
AcDbEntity
  8
文字
 62
     7
 48
50.0
100
AcDbText
 10
14646.46056207479
 20
871.9640646083623
 30
0.0
 40
100.0
  1
～一般型・多雪地型～
  7
STYLE2
100
AcDbText
  0
DIMENSION
  5
163BA
330
747D
100
AcDbEntity
  8
寸法
100
AcDbDimension
  2
*D1
 10
8022.099402858071
 20
7313.85114979227
 30
0.0
 11
7922.087591834447
 21
8573.851149792279
 31
0.0
 70
    32
  1
6X420=<>
 71
     5
 42
2520.000000000015
  3
INABA_S40G
100
AcDbAlignedDimension
 13
7374.673057123664
 23
9833.851149792286
 33
0.0
 14
7374.673057123638
 24
7313.85114979227
 34
0.0
 50
90.0
100
AcDbRotatedDimension
1001
ACAD
1000
DSTYLE
1002
{
1002
}
  0
DIMENSION
  5
163BB
330
747D
100
AcDbEntity
  8
寸法
100
AcDbDimension
  2
*D2
 10
8022.099402858051
 20
7258.851149792274
 30
0.0
 11
8022.099402858048
 21
6880.989682887411
 31
0.0
 70
   160
 71
     5
 42
54.99999999999636
  3
INABA_S40G
100
AcDbAlignedDimension
 13
7374.673057123638
 23
7313.85114979227
 33
0.0
 14
7374.673057123638
 24
7258.851149792274
 34
0.0
 50
90.0
100
AcDbRotatedDimension
1001
ACAD
1000
DSTYLE
1002
{
1002
}
  0
DIMENSION
  5
163BC
330
747D
100
AcDbEntity
  8
寸法
100
AcDbDimension
  2
*D3
 10
8022.099402858074
 20
9833.851149792286
 30
0.0
 11
8022.099402858072
 21
10197.33643116652
 31
0.0
 70
   160
 71
     5
 42
54.99999999999636
  3
INABA_S40G
100
AcDbAlignedDimension
 13
7374.673057123664
 23
9888.85114979228
 33
0.0
 14
7374.673057123664
 24
9833.851149792286
 34
0.0
 50
90.0
100
AcDbRotatedDimension
1001
ACAD
1000
DSTYLE
1002
{
1002
}
  0
DIMENSION
  5
163BD
330
747D
100
AcDbEntity
  8
寸法
100
AcDbDimension
  2
*D4
 10
8387.206344597709
 20
7258.851149792274
 30
0.0
 11
8287.194533574085
 21
8573.851149792279
 31
0.0
 70
    32
 71
     5
 42
2630.000000000007
  3
INABA_S40G
100
AcDbAlignedDimension
 13
7374.673057123664
 23
9888.85114979228
 33
0.0
 14
7374.673057123638
 24
7258.851149792274
 34
0.0
 50
90.0
100
AcDbRotatedDimension
1001
ACAD
1000
DSTYLE
1002
{
1002
}
  0
LINE
  5
163C9
330
747D
100
AcDbEntity
  8
部品1
100
AcDbLine
 10
7346.673057123648
 20
9860.851149792281
 30
0.0
 11
7346.673057123641
 21
7313.85114979227
 31
0.0
  0
LINE
  5
163CA
330
747D
100
AcDbEntity
  8
部品1
100
AcDbLine
 10
4772.673057123639
 20
7313.851149792139
 30
0.0
 11
4772.673057123649
 21
9860.851149792189
 31
0.0
  0
LINE
  5
163CB
330
747D
100
AcDbEntity
  8
部品1
100
AcDbLine
 10
7374.673057123664
 20
9888.85114979228
 30
0.0
 11
7374.673057123638
 21
7258.851149792274
 31
0.0
  0
LINE
  5
163CC
330
747D
100
AcDbEntity
  8
部品1
100
AcDbLine
 10
4744.673057123629
 20
9888.851149792154
 30
0.0
 11
4744.673057123656
 21
7258.851149792143
 31
0.0
  0
DIMENSION
  5
163D1
330
747D
100
AcDbEntity
  8
寸法
 48
50.0
100
AcDbDimension
  2
*D5
 10
4847.673057123657
 20
6724.420379026018
 30
0.0
 11
6059.673057123648
 21
6824.43219004964
 31
0.0
 70
    32
  1
有効開口部間口 <>
 71
     5
 42
2423.999999999982
  3
INABA_S40G
100
AcDbAlignedDimension
 13
7271.673057123638
 23
7284.851149792183
 33
0.0
 14
4847.673057123657
 24
7284.851149792181
 34
0.0
100
AcDbRotatedDimension
1001
ACAD
1000
DSTYLE
1002
{
1070
    75
1070
     1
1070
   279
1070
     2
1002
}
  0
LINE
  5
163D3
330
747D
100
AcDbEntity
  8
部品1
 48
50.0
100
AcDbLine
 10
4811.673057123655
 20
7304.351149792181
 30
0.0
 11
7307.67305712364
 21
7304.351149792181
 31
0.0
  0
DIMENSION
  5
163D4
330
747D
100
AcDbEntity
  8
寸法
100
AcDbDimension
  2
*D6
 10
7374.673057123638
 20
6438.247383435144
 30
0.0
 11
6059.673057123648
 21
6538.259194458766
 31
0.0
 70
    32
 71
     5
 42
2629.999999999982
  3
INABA_S40G
100
AcDbAlignedDimension
 13
4744.673057123656
 23
7258.851149792111
 33
0.0
 14
7374.673057123638
 24
7258.851149792237
 34
0.0
100
AcDbRotatedDimension
1001
ACAD
1000
DSTYLE
1002
{
1002
}
  0
LINE
  5
163D5
330
747D
100
AcDbEntity
  8
部品1
100
AcDbLine
 10
4799.673057123663
 20
9833.851149792145
 30
0.0
 11
4799.673057123656
 21
7323.85114979218
 31
0.0
  0
LINE
  5
163D6
330
747D
100
AcDbEntity
  8
部品1
100
AcDbLine
 10
4824.673057123637
 20
9833.851149792145
 30
0.0
 11
4824.673057123656
 21
7323.85114979218
 31
0.0
  0
DIMENSION
  5
163D7
330
747D
100
AcDbEntity
  8
寸法
 48
50.0
100
AcDbDimension
  2
*D7
 10
4744.673057123656
 20
6724.420379026018
 30
0.0
 11
4436.187775749418
 21
6724.420379026018
 31
0.0
 70
   160
 71
     5
 42
54.99999999999636
  3
INABA_S40G
100
AcDbAlignedDimension
 13
4799.673057123653
 23
7258.851149792182
 33
0.0
 14
4744.673057123656
 24
7258.851149792178
 34
0.0
100
AcDbRotatedDimension
1001
ACAD
1000
DSTYLE
1002
{
1002
}
  0
DIMENSION
  5
163D8
330
747D
100
AcDbEntity
  8
寸法
 48
50.0
100
AcDbDimension
  2
*D8
 10
4799.673057123653
 20
6724.420379026018
 30
0.0
 11
4960.575028123714
 21
6824.420379026019
 31
0.0
 70
   160
 71
     5
 42
48.00000000000363
  3
INABA_S40G
100
AcDbAlignedDimension
 13
4847.673057123657
 23
7284.851149792181
 33
0.0
 14
4799.673057123653
 24
7258.851149792182
 34
0.0
100
AcDbRotatedDimension
1001
ACAD
1000
DSTYLE
1002
{
1070
   279
1070
     2
1002
}
  0
LINE
  5
163D9
330
747D
100
AcDbEntity
  8
部品1
100
AcDbLine
 10
4799.673057123652
 20
7258.851149792182
 30
0.0
 11
4744.673057123656
 21
7258.851149792178
 31
0.0
  0
LINE
  5
163DA
330
747D
100
AcDbEntity
  8
部品1
 48
50.0
100
AcDbLine
 10
4799.673057123657
 20
7294.851149792181
 30
0.0
 11
4776.673057123656
 21
7294.851149792181
 31
0.0
  0
LINE
  5
163DB
330
747D
100
AcDbEntity
  8
部品1
 48
50.0
100
AcDbLine
 10
4809.673057123657
 20
7284.851149792181
 30
0.0
 11
4799.673057123657
 21
7263.851149792182
 31
0.0
  0
LINE
  5
163DC
330
747D
100
AcDbEntity
  8
部品1
 48
50.0
100
AcDbLine
 10
4799.673057123657
 20
7323.85114979218
 30
0.0
 11
4799.673057123653
 21
7258.851149792182
 31
0.0
  0
LINE
  5
163DD
330
747D
100
AcDbEntity
  8
部品1
 48
50.0
100
AcDbLine
 10
4847.673057123657
 20
7284.851149792183
 30
0.0
 11
4847.673057123657
 21
7293.851149792182
 31
0.0
  0
LINE
  5
163DE
330
747D
100
AcDbEntity
  8
部品1
 48
50.0
100
AcDbLine
 10
4847.673057123657
 20
7323.851149792183
 30
0.0
 11
4847.673057123657
 21
7314.851149792183
 31
0.0
  0
LINE
  5
163DF
330
747D
100
AcDbEntity
  8
部品1
100
AcDbLine
 10
4847.673057123657
 20
7323.851149792183
 30
0.0
 11
4799.673057123657
 21
7323.851149792182
 31
0.0
  0
LINE
  5
163E0
330
747D
100
AcDbEntity
  8
部品1
100
AcDbLine
 10
4847.673057123657
 20
7284.851149792183
 30
0.0
 11
4799.673057123657
 21
7284.851149792181
 31
0.0
  0
LINE
  5
163E1
330
747D
100
AcDbEntity
  8
部品1
100
AcDbLine
 10
4799.673057123656
 20
7294.851149792181
 30
0.0
 11
4776.673057123656
 21
7294.851149792181
 31
0.0
  0
LINE
  5
163E2
330
747D
100
AcDbEntity
  8
部品1
100
AcDbLine
 10
4799.673057123656
 20
7313.851149792106
 30
0.0
 11
4744.673057123654
 21
7313.851149792106
 31
0.0
  0
LINE
  5
163E3
330
747D
100
AcDbEntity
  8
部品1
100
AcDbLine
 10
4772.673057123639
 20
7313.851149792142
 30
0.0
 11
4744.673057123654
 21
7313.851149792142
 31
0.0
  0
LINE
  5
163E4
330
747D
100
AcDbEntity
  8
部品1
100
AcDbLine
 10
4772.673057123655
 20
7313.851149792157
 30
0.0
 11
4744.673057123654
 21
7313.851149792157
 31
0.0
  0
LINE
  5
163E5
330
747D
100
AcDbEntity
  8
部品1
100
AcDbLine
 10
4772.673057123642
 20
7733.851149792157
 30
0.0
 11
4744.673057123643
 21
7733.851149792157
 31
0.0
  0
LINE
  5
163E7
330
747D
100
AcDbEntity
  8
部品1
100
AcDbLine
 10
4772.673057123642
 20
8153.851149792158
 30
0.0
 11
4744.673057123643
 21
8153.851149792158
 31
0.0
  0
LINE
  5
163E8
330
747D
100
AcDbEntity
  8
部品1
100
AcDbLine
 10
4772.673057123642
 20
8573.851149792158
 30
0.0
 11
4744.673057123643
 21
8573.851149792158
 31
0.0
  0
LINE
  5
163E9
330
747D
100
AcDbEntity
  8
部品1
100
AcDbLine
 10
4772.673057123642
 20
8993.851149792156
 30
0.0
 11
4744.673057123643
 21
8993.851149792156
 31
0.0
  0
LINE
  5
163EB
330
747D
100
AcDbEntity
  8
部品1
100
AcDbLine
 10
4772.673057123637
 20
9413.851149792156
 30
0.0
 11
4744.673057123637
 21
9413.851149792156
 31
0.0
  0
LINE
  5
163EC
330
747D
100
AcDbEntity
  8
部品1
100
AcDbLine
 10
7319.673057123658
 20
9833.851149792133
 30
0.0
 11
7319.67305712364
 21
7258.85114979227
 31
0.0
  0
LINE
  5
163ED
330
747D
100
AcDbEntity
  8
部品1
100
AcDbLine
 10
7294.673057123661
 20
9833.851149792133
 30
0.0
 11
7294.67305712364
 21
7323.851149792182
 31
0.0
  0
DIMENSION
  5
163EE
330
747D
100
AcDbEntity
  8
寸法
 48
50.0
100
AcDbDimension
  2
*D9
 10
7271.673057123638
 20
6724.420379026018
 30
0.0
 11
7160.710159474891
 21
6824.420379026019
 31
0.0
 70
   160
 71
     5
 42
48.00000000000181
  3
INABA_S40G
100
AcDbAlignedDimension
 13
7319.67305712364
 23
7258.85114979227
 33
0.0
 14
7271.673057123638
 24
7284.851149792183
 34
0.0
100
AcDbRotatedDimension
1001
ACAD
1000
DSTYLE
1002
{
1070
   279
1070
     2
1002
}
  0
DIMENSION
  5
163EF
330
747D
100
AcDbEntity
  8
寸法
 48
50.0
100
AcDbDimension
  2
*D10
 10
7319.67305712364
 20
6724.420379026018
 30
0.0
 11
7683.158338497877
 21
6724.420379026018
 31
0.0
 70
   160
 71
     5
 42
54.99999999999818
  3
INABA_S40G
100
AcDbAlignedDimension
 13
7374.673057123638
 23
7258.851149792274
 33
0.0
 14
7319.67305712364
 24
7258.85114979227
 34
0.0
100
AcDbRotatedDimension
1001
ACAD
1000
DSTYLE
1002
{
1002
}
  0
LINE
  5
163F0
330
747D
100
AcDbEntity
  8
部品1
 48
50.0
100
AcDbLine
 10
7309.673057123639
 20
7284.851149792181
 30
0.0
 11
7319.673057123639
 21
7263.851149792182
 31
0.0
  0
LINE
  5
163F1
330
747D
100
AcDbEntity
  8
部品1
100
AcDbLine
 10
7271.673057123638
 20
7323.851149792183
 30
0.0
 11
7319.67305712364
 21
7323.851149792182
 31
0.0
  0
LINE
  5
163F2
330
747D
100
AcDbEntity
  8
部品1
100
AcDbLine
 10
7271.673057123638
 20
7284.851149792183
 30
0.0
 11
7319.673057123639
 21
7284.851149792181
 31
0.0
  0
LINE
  5
163F3
330
747D
100
AcDbEntity
  8
部品1
 48
50.0
100
AcDbLine
 10
7271.673057123638
 20
7323.851149792183
 30
0.0
 11
7271.673057123638
 21
7314.851149792183
 31
0.0
  0
LINE
  5
163F4
330
747D
100
AcDbEntity
  8
部品1
 48
50.0
100
AcDbLine
 10
7271.673057123638
 20
7284.851149792183
 30
0.0
 11
7271.673057123638
 21
7293.851149792182
 31
0.0
  0
LINE
  5
163F5
330
747D
100
AcDbEntity
  8
部品1
100
AcDbLine
 10
7319.673057123639
 20
7294.851149792179
 30
0.0
 11
7342.673057123639
 21
7294.851149792181
 31
0.0
  0
LINE
  5
163F6
330
747D
100
AcDbEntity
  8
部品1
100
AcDbLine
 10
7319.673057123639
 20
7313.851149792284
 30
0.0
 11
7374.673057123671
 21
7313.851149792284
 31
0.0
  0
LINE
  5
163F7
330
747D
100
AcDbEntity
  8
部品1
100
AcDbLine
 10
7374.673057123638
 20
7258.851149792274
 30
0.0
 11
7319.67305712364
 21
7258.85114979227
 31
0.0
  0
LINE
  5
163F8
330
747D
100
AcDbEntity
  8
部品1
100
AcDbLine
 10
7346.673057123668
 20
7733.851149792285
 30
0.0
 11
7374.673057123668
 21
7733.851149792285
 31
0.0
  0
LINE
  5
16403
330
747D
100
AcDbEntity
  8
部品1
100
AcDbLine
 10
7346.673057123668
 20
8153.851149792284
 30
0.0
 11
7374.673057123668
 21
8153.851149792284
 31
0.0
  0
LINE
  5
16404
330
747D
100
AcDbEntity
  8
部品1
100
AcDbLine
 10
7346.673057123668
 20
8573.851149792284
 30
0.0
 11
7374.673057123668
 21
8573.851149792284
 31
0.0
  0
LINE
  5
16406
330
747D
100
AcDbEntity
  8
部品1
100
AcDbLine
 10
7346.673057123668
 20
8993.851149792284
 30
0.0
 11
7374.673057123668
 21
8993.851149792284
 31
0.0
  0
LINE
  5
16407
330
747D
100
AcDbEntity
  8
部品1
100
AcDbLine
 10
7346.673057123664
 20
9413.851149792284
 30
0.0
 11
7374.673057123664
 21
9413.851149792284
 31
0.0
  0
LINE
  5
16408
330
747D
100
AcDbEntity
  8
部品1
100
AcDbLine
 10
4772.673057123649
 20
9860.851149792303
 30
0.0
 11
6047.173057123661
 21
9860.851149792303
 31
0.0
  0
LINE
  5
1640A
330
747D
100
AcDbEntity
  8
部品1
100
AcDbLine
 10
4744.673057123662
 20
9888.851149792188
 30
0.0
 11
7374.673057123664
 21
9888.85114979228
 31
0.0
  0
DIMENSION
  5
1640C
330
747D
100
AcDbEntity
  8
寸法
100
AcDbDimension
  2
*D11
 10
7319.673057123664
 20
10104.65936941728
 30
0.0
 11
6059.673057123664
 21
10204.6711804409
 31
0.0
 70
    32
  1
6X420=<>
 71
     5
 42
2520.000000000001
  3
INABA_S40G
100
AcDbAlignedDimension
 13
4799.673057123663
 23
9888.851149792188
 33
0.0
 14
7319.673057123664
 24
9888.85114979228
 34
0.0
100
AcDbRotatedDimension
1001
ACAD
1000
DSTYLE
1002
{
1002
}
  0
DIMENSION
  5
1640D
330
747D
100
AcDbEntity
  8
寸法
100
AcDbDimension
  2
*D12
 10
4799.673057123663
 20
10104.65936941717
 30
0.0
 11
4436.187775749391
 21
10104.65936941717
 31
0.0
 70
   160
 71
     5
 42
55.00000000003456
  3
INABA_S40G
100
AcDbAlignedDimension
 13
4744.673057123629
 23
9888.851149792188
 33
0.0
 14
4799.673057123663
 24
9888.851149792188
 34
0.0
100
AcDbRotatedDimension
1001
ACAD
1000
DSTYLE
1002
{
1002
}
  0
LINE
  5
1640E
330
747D
100
AcDbEntity
  8
部品1
100
AcDbLine
 10
4799.673057123628
 20
9888.851149792154
 30
0.0
 11
4799.67305712363
 21
9860.851149792154
 31
0.0
  0
LINE
  5
1640F
330
747D
100
AcDbEntity
  8
部品1
100
AcDbLine
 10
4799.673057123663
 20
9888.851149792188
 30
0.0
 11
4799.673057123663
 21
9860.851149792187
 31
0.0
  0
LINE
  5
16410
330
747D
100
AcDbEntity
  8
部品1
100
AcDbLine
 10
4772.67305712363
 20
9833.851149792158
 30
0.0
 11
4744.673057123629
 21
9833.851149792158
 31
0.0
  0
LINE
  5
16411
330
747D
100
AcDbEntity
  8
部品1
100
AcDbLine
 10
5219.673057123663
 20
9888.851149792303
 30
0.0
 11
5219.673057123663
 21
9860.851149792303
 31
0.0
  0
LINE
  5
16412
330
747D
100
AcDbEntity
  8
部品1
100
AcDbLine
 10
5219.673057123663
 20
9888.851149792188
 30
0.0
 11
5219.673057123663
 21
9860.851149792187
 31
0.0
  0
LINE
  5
16413
330
747D
100
AcDbEntity
  8
部品1
100
AcDbLine
 10
5219.673057123663
 20
9888.851149792188
 30
0.0
 11
5219.673057123663
 21
9860.851149792187
 31
0.0
  0
LINE
  5
16414
330
747D
100
AcDbEntity
  8
部品1
100
AcDbLine
 10
6072.173057123663
 20
9860.851149792299
 30
0.0
 11
7346.673057123664
 21
9860.851149792281
 31
0.0
  0
LINE
  5
16416
330
747D
100
AcDbEntity
  8
部品1
100
AcDbLine
 10
5639.673057123663
 20
9888.851149792303
 30
0.0
 11
5639.673057123663
 21
9860.851149792303
 31
0.0
  0
LINE
  5
16417
330
747D
100
AcDbEntity
  8
部品1
100
AcDbLine
 10
5639.673057123663
 20
9888.851149792188
 30
0.0
 11
5639.673057123663
 21
9860.851149792187
 31
0.0
  0
LINE
  5
16418
330
747D
100
AcDbEntity
  8
部品1
100
AcDbLine
 10
5639.673057123663
 20
9888.851149792188
 30
0.0
 11
5639.673057123663
 21
9860.851149792187
 31
0.0
  0
LINE
  5
16419
330
747D
100
AcDbEntity
  8
部品1
100
AcDbLine
 10
6059.673057123664
 20
9888.851149792303
 30
0.0
 11
6059.673057123664
 21
9860.851149792303
 31
0.0
  0
LINE
  5
1641A
330
747D
100
AcDbEntity
  8
部品1
100
AcDbLine
 10
6047.173057123663
 20
9852.851149792286
 30
0.0
 11
6072.173057123663
 21
9852.851149792288
 31
0.0
  0
LINE
  5
1641B
330
747D
100
AcDbEntity
  8
部品1
100
AcDbLine
 10
6088.673057123664
 20
9878.851149792289
 30
0.0
 11
6094.673057123663
 21
9878.851149792289
 31
0.0
  0
LINE
  5
1641C
330
747D
100
AcDbEntity
  8
部品1
100
AcDbLine
 10
6094.673057123663
 20
9878.851149792289
 30
0.0
 11
6094.673057123663
 21
9860.851149792289
 31
0.0
  0
LINE
  5
1641D
330
747D
100
AcDbEntity
  8
部品1
100
AcDbLine
 10
6024.673057123663
 20
9878.851149792289
 30
0.0
 11
6030.673057123664
 21
9878.851149792289
 31
0.0
  0
LINE
  5
1641E
330
747D
100
AcDbEntity
  8
部品1
100
AcDbLine
 10
6024.673057123663
 20
9878.851149792289
 30
0.0
 11
6024.673057123663
 21
9860.851149792289
 31
0.0
  0
LINE
  5
1641F
330
747D
100
AcDbEntity
  8
部品1
100
AcDbLine
 10
6479.673057123664
 20
9888.851149792303
 30
0.0
 11
6479.673057123664
 21
9860.851149792303
 31
0.0
  0
DIMENSION
  5
16420
330
747D
100
AcDbEntity
  8
寸法
100
AcDbDimension
  2
*D13
 10
7374.673057123664
 20
10104.65936941726
 30
0.0
 11
7683.158338497903
 21
10104.65936941726
 31
0.0
 70
   160
 71
     5
 42
55.0
  3
INABA_S40G
100
AcDbAlignedDimension
 13
7319.673057123664
 23
9888.85114979228
 33
0.0
 14
7374.673057123664
 24
9888.85114979228
 34
0.0
100
AcDbRotatedDimension
1001
ACAD
1000
DSTYLE
1002
{
1002
}
  0
LINE
  5
16421
330
747D
100
AcDbEntity
  8
部品1
100
AcDbLine
 10
6899.673057123663
 20
9888.851149792303
 30
0.0
 11
6899.673057123663
 21
9860.851149792303
 31
0.0
  0
LINE
  5
16422
330
747D
100
AcDbEntity
  8
部品1
100
AcDbLine
 10
7319.673057123664
 20
9888.85114979228
 30
0.0
 11
7319.673057123664
 21
9860.851149792281
 31
0.0
  0
LINE
  5
16423
330
747D
100
AcDbEntity
  8
部品1
100
AcDbLine
 10
7319.673057123664
 20
9888.851149792303
 30
0.0
 11
7319.673057123664
 21
9860.851149792303
 31
0.0
  0
LINE
  5
16424
330
747D
100
AcDbEntity
  8
部品1
100
AcDbLine
 10
7346.673057123664
 20
9833.851149792286
 30
0.0
 11
7374.673057123664
 21
9833.851149792286
 31
0.0
  0
LINE
  5
165EB
330
747D
100
AcDbEntity
  8
部品1
 48
50.0
100
AcDbLine
 10
6047.173057123661
 20
9860.851149792303
 30
0.0
 11
6047.173057123663
 21
9852.851149792286
 31
0.0
  0
LINE
  5
165EC
330
747D
100
AcDbEntity
  8
部品1
 48
50.0
100
AcDbLine
 10
6072.173057123663
 20
9860.851149792299
 30
0.0
 11
6072.173057123663
 21
9852.851149792288
 31
0.0
  0
LINE
  5
165FC
330
747D
100
AcDbEntity
  8
部品1
 48
50.0
100
AcDbLine
 10
7294.673057123661
 20
9808.851149792063
 30
0.0
 11
4824.673057123638
 21
9808.851149792067
 31
0.0
  0
LINE
  5
165FD
330
747D
100
AcDbEntity
  8
部品1
 48
50.0
100
AcDbLine
 10
7319.67305712366
 20
9833.851149792133
 30
0.0
 11
4799.673057123663
 21
9833.851149792145
 31
0.0
  0
LINE
  5
165FE
330
747D
100
AcDbEntity
  8
部品1
 48
50.0
100
AcDbLine
 10
4772.673057123663
 20
9860.851149792187
 30
0.0
 11
4799.673057123636
 21
9833.851149792145
 31
0.0
  0
LINE
  5
165FF
330
747D
100
AcDbEntity
  8
部品1
 48
50.0
100
AcDbLine
 10
7346.673057123648
 20
9860.851149792281
 30
0.0
 11
7319.67305712366
 21
9833.851149792133
 31
0.0
  0
LINE
  5
16755
330
747D
100
AcDbEntity
  8
仕様書枠
 48
50.0
100
AcDbLine
 10
16307.19999999999
 20
11239.6
 30
0.0
 11
13127.2
 21
11239.6
 31
0.0
  0
LINE
  5
16756
330
747D
100
AcDbEntity
  8
仕様書枠
 48
50.0
100
AcDbLine
 10
13127.2
 20
11239.6
 30
0.0
 11
13127.2
 21
8519.600000000002
 31
0.0
  0
LINE
  5
16757
330
747D
100
AcDbEntity
  8
仕様書枠
 48
50.0
100
AcDbLine
 10
16307.19999999999
 20
8519.599999999996
 30
0.0
 11
16307.2
 21
11239.6
 31
0.0
  0
LINE
  5
16758
330
747D
100
AcDbEntity
  8
仕様書枠
 48
50.0
100
AcDbLine
 10
14785.2
 20
11239.59999999999
 30
0.0
 11
14785.2
 21
9029.6
 31
0.0
  0
LINE
  5
16759
330
747D
100
AcDbEntity
  8
仕様書枠
 48
50.0
100
AcDbLine
 10
13490.2
 20
11239.6
 30
0.0
 11
13490.2
 21
9029.600000000002
 31
0.0
  0
LINE
  5
1675A
330
747D
100
AcDbEntity
  8
仕様書枠
 48
50.0
100
AcDbLine
 10
16307.19999999999
 20
11069.6
 30
0.0
 11
13127.2
 21
11069.6
 31
0.0
  0
LINE
  5
1675B
330
747D
100
AcDbEntity
  8
仕様書枠
 48
50.0
100
AcDbLine
 10
16307.19999999999
 20
10729.6
 30
0.0
 11
13127.2
 21
10729.6
 31
0.0
  0
LINE
  5
1675C
330
747D
100
AcDbEntity
  8
仕様書枠
 48
50.0
100
AcDbLine
 10
16307.19999999999
 20
10899.6
 30
0.0
 11
13127.2
 21
10899.6
 31
0.0
  0
LINE
  5
1675D
330
747D
100
AcDbEntity
  8
仕様書枠
 48
50.0
100
AcDbLine
 10
16307.19999999999
 20
10389.6
 30
0.0
 11
13127.19999999999
 21
10389.6
 31
0.0
  0
LINE
  5
1675E
330
747D
100
AcDbEntity
  8
仕様書枠
 48
50.0
100
AcDbLine
 10
16307.19999999999
 20
10219.6
 30
0.0
 11
13127.19999999999
 21
10219.6
 31
0.0
  0
LINE
  5
1675F
330
747D
100
AcDbEntity
  8
仕様書枠
 48
50.0
100
AcDbLine
 10
16307.19999999999
 20
10559.6
 30
0.0
 11
13127.19999999999
 21
10559.6
 31
0.0
  0
TEXT
  5
16760
330
747D
100
AcDbEntity
  8
文字
 62
     7
 48
50.0
100
AcDbText
 10
13197.42518560407
 20
11100.01374588373
 30
0.0
 40
100.0
  1
品番
  7
STYLE1
100
AcDbText
  0
TEXT
  5
16761
330
747D
100
AcDbEntity
  8
文字
 62
     7
 48
50.0
100
AcDbText
 10
13271.19032244792
 20
10930.01374588373
 30
0.0
 40
100.0
  1
1
  7
STYLE1
100
AcDbText
  0
TEXT
  5
16762
330
747D
100
AcDbEntity
  8
文字
 62
     7
 48
50.0
100
AcDbText
 10
13271.19032244792
 20
10760.01374588373
 30
0.0
 40
100.0
  1
2
  7
STYLE1
100
AcDbText
  0
TEXT
  5
16763
330
747D
100
AcDbEntity
  8
文字
 62
     7
 48
50.0
100
AcDbText
 10
13271.19032244792
 20
10420.01374588373
 30
0.0
 40
100.0
  1
4
  7
STYLE1
100
AcDbText
  0
TEXT
  5
16764
330
747D
100
AcDbEntity
  8
文字
 62
     7
 48
50.0
100
AcDbText
 10
13271.19032244792
 20
10590.01374588373
 30
0.0
 40
100.0
  1
3
  7
STYLE1
100
AcDbText
  0
TEXT
  5
16765
330
747D
100
AcDbEntity
  8
文字
 62
     7
 48
50.0
100
AcDbText
 10
13732.03840939434
 20
11100.01374588373
 30
0.0
 40
100.0
  1
部　　品　　名
  7
STYLE1
100
AcDbText
  0
TEXT
  5
16766
330
747D
100
AcDbEntity
  8
文字
 62
     7
 48
50.0
100
AcDbText
 10
14859.79774614482
 20
11100.01374588373
 30
0.0
 40
100.0
  1
材料（材質）　　単位mm
  7
STYLE1
100
AcDbText
  0
TEXT
  5
16767
330
747D
100
AcDbEntity
  8
文字
 62
     7
 48
50.0
100
AcDbText
 10
13583.11819016569
 20
10930.01374588372
 30
0.0
 40
100.0
  1
土台枠
  7
STYLE1
100
AcDbText
  0
TEXT
  5
16768
330
747D
100
AcDbEntity
  8
文字
 62
     7
 48
50.0
100
AcDbText
 10
13583.11819016569
 20
10760.01374588372
 30
0.0
 40
100.0
  1
柱
  7
STYLE1
100
AcDbText
  0
TEXT
  5
16769
330
747D
100
AcDbEntity
  8
文字
 62
     7
 48
50.0
100
AcDbText
 10
13583.11819016569
 20
10590.01374588373
 30
0.0
 40
100.0
  1
桁前
  7
STYLE1
100
AcDbText
  0
TEXT
  5
1676A
330
747D
100
AcDbEntity
  8
文字
 62
     7
 48
50.0
100
AcDbText
 10
13583.11819016569
 20
10420.01374588373
 30
0.0
 40
100.0
  1
桁後
  7
STYLE1
100
AcDbText
  0
TEXT
  5
1676B
330
747D
100
AcDbEntity
  8
文字
 62
     7
 48
50.0
100
AcDbText
 10
13271.19032244792
 20
10250.01374588373
 30
0.0
 40
100.0
  1
5
  7
STYLE1
100
AcDbText
  0
TEXT
  5
1676C
330
747D
100
AcDbEntity
  8
文字
 62
     7
 48
50.0
100
AcDbText
 10
13583.11819016569
 20
10250.01374588373
 30
0.0
 40
100.0
  1
妻板左右
  7
STYLE1
100
AcDbText
  0
TEXT
  5
1676D
330
747D
100
AcDbEntity
  8
文字
 62
     7
 48
50.0
100
AcDbText
 10
13583.11819016569
 20
9060.013745883727
 30
0.0
 40
100.0
  1
シャッターレール
  7
STYLE1
100
AcDbText
  0
TEXT
  5
1676E
330
747D
100
AcDbEntity
  8
文字
 62
     7
 48
50.0
100
AcDbText
 10
13248.77747366448
 20
9400.013745883727
 30
0.0
 40
100.0
  1
10
  7
STYLE1
100
AcDbText
  0
TEXT
  5
1676F
330
747D
100
AcDbEntity
  8
文字
 62
     7
 48
50.0
100
AcDbText
 10
13583.11819016569
 20
9570.013745883729
 30
0.0
 40
100.0
  1
壁パネル
  7
STYLE1
100
AcDbText
  0
TEXT
  5
16770
330
747D
100
AcDbEntity
  8
文字
 62
     7
 48
50.0
100
AcDbText
 10
13583.11819016569
 20
9740.013745883729
 30
0.0
 40
100.0
  1
屋根パネル
  7
STYLE1
100
AcDbText
  0
TEXT
  5
16771
330
747D
100
AcDbEntity
  8
文字
 62
     7
 48
50.0
100
AcDbText
 10
13583.11819016569
 20
9910.013745883727
 30
0.0
 40
100.0
  1
母屋中
  7
STYLE1
100
AcDbText
  0
TEXT
  5
16772
330
747D
100
AcDbEntity
  8
文字
 62
     7
 48
50.0
100
AcDbText
 10
13583.11819016569
 20
10080.01374588372
 30
0.0
 40
100.0
  1
鼻隠シ前後
  7
STYLE1
100
AcDbText
  0
TEXT
  5
16773
330
747D
100
AcDbEntity
  8
文字
 62
     7
 48
50.0
100
AcDbText
 10
13271.19032244792
 20
9740.013745883729
 30
0.0
 40
100.0
  1
8
  7
STYLE1
100
AcDbText
  0
TEXT
  5
16774
330
747D
100
AcDbEntity
  8
文字
 62
     7
 48
50.0
100
AcDbText
 10
13271.19032244792
 20
9570.013745883729
 30
0.0
 40
100.0
  1
9
  7
STYLE1
100
AcDbText
  0
TEXT
  5
16775
330
747D
100
AcDbEntity
  8
文字
 62
     7
 48
50.0
100
AcDbText
 10
13271.19032244792
 20
9910.01374588373
 30
0.0
 40
100.0
  1
7
  7
STYLE1
100
AcDbText
  0
TEXT
  5
16776
330
747D
100
AcDbEntity
  8
文字
 62
     7
 48
50.0
100
AcDbText
 10
13271.19032244792
 20
10080.01374588373
 30
0.0
 40
100.0
  1
6
  7
STYLE1
100
AcDbText
  0
LINE
  5
16777
330
747D
100
AcDbEntity
  8
仕様書枠
 48
50.0
100
AcDbLine
 10
16307.19999999999
 20
9369.599999999998
 30
0.0
 11
13127.19999999999
 21
9369.600000000001
 31
0.0
  0
LINE
  5
16778
330
747D
100
AcDbEntity
  8
仕様書枠
 48
50.0
100
AcDbLine
 10
16307.19999999999
 20
9539.599999999998
 30
0.0
 11
13127.19999999999
 21
9539.6
 31
0.0
  0
LINE
  5
16779
330
747D
100
AcDbEntity
  8
仕様書枠
 48
50.0
100
AcDbLine
 10
16307.19999999999
 20
10049.6
 30
0.0
 11
13127.2
 21
10049.6
 31
0.0
  0
LINE
  5
1677A
330
747D
100
AcDbEntity
  8
仕様書枠
 48
50.0
100
AcDbLine
 10
16307.19999999999
 20
9879.599999999999
 30
0.0
 11
13127.2
 21
9879.600000000001
 31
0.0
  0
TEXT
  5
1677B
330
747D
100
AcDbEntity
  8
文字
 62
     7
 48
50.0
100
AcDbText
 10
13248.77747366448
 20
9230.013745883727
 30
0.0
 40
100.0
  1
11
  7
STYLE1
100
AcDbText
  0
TEXT
  5
1677C
330
747D
100
AcDbEntity
  8
文字
 62
     7
 48
50.0
100
AcDbText
 10
13583.11819016569
 20
9230.013745883727
 30
0.0
 40
100.0
  1
シャッターカバー
 41
0.9
  7
STYLE1
100
AcDbText
  0
LINE
  5
1677D
330
747D
100
AcDbEntity
  8
仕様書枠
 48
50.0
100
AcDbLine
 10
16307.19999999999
 20
9199.599999999998
 30
0.0
 11
13127.19999999999
 21
9199.600000000001
 31
0.0
  0
LINE
  5
1677E
330
747D
100
AcDbEntity
  8
仕様書枠
 48
50.0
100
AcDbLine
 10
16307.19999999999
 20
9029.6
 30
0.0
 11
13127.19999999999
 21
9029.600000000002
 31
0.0
  0
TEXT
  5
16780
330
747D
100
AcDbEntity
  8
文字
 62
     7
 48
50.0
100
AcDbText
 10
13248.77747366448
 20
9060.013745883729
 30
0.0
 40
100.0
  1
12
  7
STYLE1
100
AcDbText
  0
TEXT
  5
16781
330
747D
100
AcDbEntity
  8
文字
 62
     7
 48
50.0
100
AcDbText
 10
15022.63965474517
 20
10930.01374588372
 30
0.0
 40
100.0
  1
F12            1.2
  7
STYLE1
100
AcDbText
  0
TEXT
  5
16782
330
747D
100
AcDbEntity
  8
文字
 62
     7
 48
50.0
100
AcDbText
 10
15022.63965474517
 20
10760.01374588372
 30
0.0
 40
100.0
  1
F12         1.0,1.2
  7
STYLE1
100
AcDbText
  0
TEXT
  5
16783
330
747D
100
AcDbEntity
  8
文字
 62
     7
 48
50.0
100
AcDbText
 10
15022.63965474516
 20
10590.01374588372
 30
0.0
 40
100.0
  1
Y10            1.0
  7
STYLE1
100
AcDbText
  0
TEXT
  5
16784
330
747D
100
AcDbEntity
  8
文字
 62
     7
 48
50.0
100
AcDbText
 10
15022.63965474516
 20
10420.01374588372
 30
0.0
 40
100.0
  1
Y10            1.0
  7
STYLE1
100
AcDbText
  0
TEXT
  5
16785
330
747D
100
AcDbEntity
  8
文字
 62
     7
 48
50.0
100
AcDbText
 10
15022.63965474516
 20
10250.01374588372
 30
0.0
 40
100.0
  1
Y10            0.7
  7
STYLE1
100
AcDbText
  0
TEXT
  5
16786
330
747D
100
AcDbEntity
  8
文字
 62
     7
 48
50.0
100
AcDbText
 10
15022.63965474516
 20
10080.01374588372
 30
0.0
 40
100.0
  1
Y10            0.7
  7
STYLE1
100
AcDbText
  0
TEXT
  5
16787
330
747D
100
AcDbEntity
  8
文字
 62
     7
 48
50.0
100
AcDbText
 10
14834.39215341524
 20
9910.013745883725
 30
0.0
 40
100.0
  1
F12    1.2(多雪地型  2.3)
  7
STYLE1
100
AcDbText
  0
TEXT
  5
16788
330
747D
100
AcDbEntity
  8
文字
 62
     7
 48
50.0
100
AcDbText
 10
15022.63965474517
 20
9740.013745883725
 30
0.0
 40
100.0
  1
Y10            0.5
  7
STYLE1
100
AcDbText
  0
TEXT
  5
16789
330
747D
100
AcDbEntity
  8
文字
 62
     7
 48
50.0
100
AcDbText
 10
15022.63965474516
 20
9570.013745883725
 30
0.0
 40
100.0
  1
F12            0.7
  7
STYLE1
100
AcDbText
  0
TEXT
  5
1678A
330
747D
100
AcDbEntity
  8
文字
 62
     7
 48
50.0
100
AcDbText
 10
14850.83183167176
 20
9060.013745883725
 30
0.0
 40
100.0
  1
アルミニウム合金押出形材
  7
STYLE1
100
AcDbText
  0
LINE
  5
1678D
330
747D
100
AcDbEntity
  8
仕様書枠
 48
50.0
100
AcDbLine
 10
16307.19999999999
 20
8859.599999999998
 30
0.0
 11
13127.19999999999
 21
8859.6
 31
0.0
  0
LINE
  5
1678E
330
747D
100
AcDbEntity
  8
仕様書枠
 48
50.0
100
AcDbLine
 10
16307.19999999999
 20
8689.599999999998
 30
0.0
 11
13127.19999999999
 21
8689.6
 31
0.0
  0
LINE
  5
1678F
330
747D
100
AcDbEntity
  8
仕様書枠
 48
50.0
100
AcDbLine
 10
16307.19999999999
 20
8519.599999999998
 30
0.0
 11
13127.19999999999
 21
8519.600000000002
 31
0.0
  0
TEXT
  5
16790
330
747D
100
AcDbEntity
  8
文字
 62
     7
 48
50.0
100
AcDbText
 10
13229.83081656555
 20
8890.013745883727
 30
0.0
 40
100.0
  1
F12→溶融亜鉛めっき鋼板(JIS G 3302)
  7
STYLE1
100
AcDbText
  0
TEXT
  5
16791
330
747D
100
AcDbEntity
  8
文字
 62
     7
 48
50.0
100
AcDbText
 10
13229.83081656555
 20
8720.013745883727
 30
0.0
 40
100.0
  1
Y10→溶融亜鉛-5％アルミニウム合金めっき鋼板(JIS G 3317)
 41
0.9
  7
STYLE1
100
AcDbText
  0
TEXT
  5
16792
330
747D
100
AcDbEntity
  8
文字
 62
     7
 48
50.0
100
AcDbText
 10
13229.83081656555
 20
8550.013745883729
 30
0.0
 40
100.0
  1
Z08→塗装溶融亜鉛めっき鋼板(JIS G 3313)
  7
STYLE1
100
AcDbText
  0
LINE
  5
16793
330
747D
100
AcDbEntity
  8
仕様書枠
 48
50.0
100
AcDbLine
 10
16307.19999999999
 20
9709.6
 30
0.0
 11
13127.19999999999
 21
9709.600000000001
 31
0.0
  0
LWPOLYLINE
  5
16AE7
330
747D
100
AcDbEntity
  8
部品1
100
AcDbPolyline
 90
        4
 70
     1
 43
0.0
 10
5677.937724009444
 20
6267.396387506248
 10
5677.937724009444
 20
6027.504065960715
 10
6441.408390237882
 20
6027.504065960715
 10
6441.408390237882
 20
6267.396387506248
  0
TEXT
  5
16AE8
330
747D
100
AcDbEntity
  8
部品1
100
AcDbText
 10
5767.857333838481
 20
6074.502858287724
 30
0.0
 40
135.0
  1
平面図
  7
STYLE2
100
AcDbText
  0
TEXT
  5
16AE9
330
747D
100
AcDbEntity
  8
部品1
100
AcDbText
 10
5768.463127747392
 20
1338.423861654617
 30
0.0
 40
135.0
  1
正面図
  7
STYLE2
100
AcDbText
  0
LWPOLYLINE
  5
16AEA
330
747D
100
AcDbEntity
  8
部品1
100
AcDbPolyline
 90
        4
 70
     1
 43
0.0
 10
5677.937724009439
 20
1531.31739087314
 10
5677.937724009439
 20
1291.425069327608
 10
6441.408390237878
 20
1291.425069327608
 10
6441.408390237878
 20
1531.31739087314
  0
LINE
  5
16B17
330
747D
100
AcDbEntity
  8
部品1
 48
50.0
100
AcDbLine
 10
7417.264636017226
 20
4656.317390873144
 30
0.0
 11
4702.081478230087
 21
4656.317390873144
 31
0.0
  0
LINE
  5
16B18
330
747D
100
AcDbEntity
  8
部品1
 48
50.0
100
AcDbLine
 10
7404.049312556193
 20
4515.317390873145
 30
0.0
 11
4715.296801691121
 21
4515.317390873145
 31
0.0
  0
LINE
  5
16B19
330
747D
100
AcDbEntity
  8
細線
 48
50.0
100
AcDbLine
 10
7422.514406111743
 20
4628.290633436612
 30
0.0
 11
4696.831708135618
 21
4628.290633436932
 31
0.0
  0
LINE
  5
16B1A
330
747D
100
AcDbEntity
  8
細線
 48
50.0
100
AcDbLine
 10
7414.278375586899
 20
4536.090633436611
 30
0.0
 11
4705.067738660458
 21
4536.090633436931
 31
0.0
  0
LINE
  5
16B1B
330
747D
100
AcDbEntity
  8
部品1
100
AcDbLine
 10
7424.253396108325
 20
4648.920865477903
 30
0.0
 11
7423.119998775979
 21
4628.944737495304
 31
0.0
  0
LINE
  5
16B1C
330
747D
100
AcDbEntity
  8
細線
 48
50.0
100
AcDbLine
 10
7391.673057123658
 20
4656.317390873144
 30
0.0
 11
7391.673057123658
 21
4515.317390873143
 31
0.0
  0
LINE
  5
16B1D
330
747D
100
AcDbEntity
  8
細線
 48
50.0
100
AcDbLine
 10
4727.673057123658
 20
4656.317390873144
 30
0.0
 11
4727.673057123658
 21
4515.317390873143
 31
0.0
  0
LINE
  5
16B1E
330
747D
100
AcDbEntity
  8
部品1
100
AcDbLine
 10
7411.682978454402
 20
4533.287330328246
 30
0.0
 11
7411.038072647291
 21
4521.920865477905
 31
0.0
  0
LINE
  5
16B1F
330
747D
100
AcDbEntity
  8
部品1
100
AcDbLine
 10
7419.919008979246
 20
4625.487330328247
 30
0.0
 11
7414.883968251135
 21
4536.744737495303
 31
0.0
  0
ARC
  5
16B20
330
747D
100
AcDbEntity
  8
部品1
 48
50.0
100
AcDbCircle
 10
7422.914191875432
 20
4625.317390873145
 30
0.0
 40
3.0
100
AcDbArc
 50
97.65812720736519
 51
176.7526572096682
  0
ARC
  5
16B21
330
747D
100
AcDbEntity
  8
部品1
 48
50.0
100
AcDbCircle
 10
7414.678161350588
 20
4533.117390873143
 30
0.0
 40
3.0
100
AcDbArc
 50
97.65812720736519
 51
176.7526572096682
  0
ARC
  5
16B22
330
747D
100
AcDbEntity
  8
部品1
 48
50.0
100
AcDbCircle
 10
7414.185092242028
 20
4536.784390034826
 30
0.0
 40
0.7
100
AcDbArc
 50
277.6581272073652
 51
356.7526572096682
  0
ARC
  5
16B23
330
747D
100
AcDbEntity
  8
部品1
 48
50.0
100
AcDbCircle
 10
7422.421122766872
 20
4628.984390034831
 30
0.0
 40
0.7
100
AcDbArc
 50
277.6581272073652
 51
356.7526572095583
  0
ARC
  5
16B24
330
747D
100
AcDbEntity
  8
部品1
100
AcDbCircle
 10
7404.049312556193
 20
4522.317390873145
 30
0.0
 40
7.0
100
AcDbArc
 50
270.0
 51
356.7526572096682
  0
ARC
  5
16B25
330
747D
100
AcDbEntity
  8
部品1
100
AcDbCircle
 10
7417.264636017226
 20
4649.317390873143
 30
0.0
 40
7.0
100
AcDbArc
 50
356.7526572096682
 51
90.0
  0
ARC
  5
16B26
330
747D
100
AcDbEntity
  8
部品1
100
AcDbCircle
 10
4702.081478230087
 20
4649.317390873143
 30
0.0
 40
7.0
100
AcDbArc
 50
90.0
 51
183.2473427903317
  0
ARC
  5
16B27
330
747D
100
AcDbEntity
  8
部品1
100
AcDbCircle
 10
4715.296801691121
 20
4522.317390873145
 30
0.0
 40
7.0
100
AcDbArc
 50
183.2473427903317
 51
270.0
  0
ARC
  5
16B28
330
747D
100
AcDbEntity
  8
部品1
 48
50.0
100
AcDbCircle
 10
4696.924991480446
 20
4628.984390034831
 30
0.0
 40
0.7
100
AcDbArc
 50
183.2473427904417
 51
262.3418727926349
  0
ARC
  5
16B29
330
747D
100
AcDbEntity
  8
部品1
 48
50.0
100
AcDbCircle
 10
4705.161022005286
 20
4536.784390034826
 30
0.0
 40
0.7
100
AcDbArc
 50
183.2473427903317
 51
262.3418727926349
  0
ARC
  5
16B2A
330
747D
100
AcDbEntity
  8
部品1
 48
50.0
100
AcDbCircle
 10
4704.667952896725
 20
4533.117390873143
 30
0.0
 40
3.0
100
AcDbArc
 50
3.247342790331777
 51
82.3418727926348
  0
ARC
  5
16B2B
330
747D
100
AcDbEntity
  8
部品1
 48
50.0
100
AcDbCircle
 10
4696.431922371881
 20
4625.317390873145
 30
0.0
 40
3.0
100
AcDbArc
 50
3.247342790331777
 51
82.3418727926348
  0
LINE
  5
16B2C
330
747D
100
AcDbEntity
  8
部品1
100
AcDbLine
 10
4699.427105268067
 20
4625.487330328247
 30
0.0
 11
4704.462145996178
 21
4536.744737495303
 31
0.0
  0
LINE
  5
16B2D
330
747D
100
AcDbEntity
  8
部品1
100
AcDbLine
 10
4707.663135792914
 20
4533.287330328246
 30
0.0
 11
4708.308041600022
 21
4521.920865477905
 31
0.0
  0
LINE
  5
16B2E
330
747D
100
AcDbEntity
  8
部品1
100
AcDbLine
 10
4695.092718138988
 20
4648.920865477903
 30
0.0
 11
4696.226115471338
 21
4628.944737495304
 31
0.0
  0
DIMENSION
  5
16B2F
330
747D
100
AcDbEntity
  8
寸法
 48
50.0
100
AcDbDimension
  2
*D14
 10
4694.673057123658
 20
4868.858976131384
 30
0.0
 11
4381.187775749411
 21
4868.858976131384
 31
0.0
 70
   160
 71
     5
 42
50.0
  3
INABA_S40G
100
AcDbAlignedDimension
 13
4744.673057123658
 23
4656.317390873147
 33
0.0
 14
4694.673057123658
 24
4656.317390873145
 34
0.0
100
AcDbRotatedDimension
1001
ACAD
1000
DSTYLE
1002
{
1002
}
  0
DIMENSION
  5
16B30
330
747D
100
AcDbEntity
  8
寸法
 48
50.0
100
AcDbDimension
  2
*D15
 10
7424.673057123658
 20
5084.254407613639
 30
0.0
 11
6059.673057123658
 21
5084.254407613639
 31
0.0
 70
   160
 71
     5
 42
2730.0
  3
INABA_S40G
100
AcDbAlignedDimension
 13
4694.673057123658
 23
4656.317390873145
 33
0.0
 14
7424.673057123658
 24
4656.317390873144
 34
0.0
100
AcDbRotatedDimension
  0
DIMENSION
  5
16B31
330
747D
100
AcDbEntity
  8
寸法
 48
50.0
100
AcDbDimension
  2
*D16
 10
7374.673057123658
 20
4868.858976131384
 30
0.0
 11
7738.158338497895
 21
4868.858976131384
 31
0.0
 70
   160
 71
     5
 42
50.0
  3
INABA_S40G
100
AcDbAlignedDimension
 13
7424.673057123658
 23
4656.317390873144
 33
0.0
 14
7374.673057123658
 24
4656.317390873145
 34
0.0
100
AcDbRotatedDimension
  0
DIMENSION
  5
16B32
330
747D
100
AcDbEntity
  8
寸法
 48
50.0
100
AcDbDimension
  2
*D17
 10
4744.673057123658
 20
4868.858976131384
 30
0.0
 11
6059.673057123658
 21
4868.858976131384
 31
0.0
 70
   160
  1
柱外寸法<>
 71
     5
 42
2630.0
  3
INABA_S40G
100
AcDbAlignedDimension
 13
7374.673057123658
 23
4656.317390873145
 33
0.0
 14
4744.673057123658
 24
4656.317390873147
 34
0.0
100
AcDbRotatedDimension
  0
LWPOLYLINE
  5
16B3F
330
747D
100
AcDbEntity
  8
部品1
100
AcDbPolyline
 90
        4
 70
     1
 43
0.0
 10
10935.11449739903
 20
1531.31739087314
 10
10935.11449739903
 20
1291.425069327608
 10
11698.58516362747
 20
1291.425069327608
 10
11698.58516362747
 20
1531.31739087314
  0
TEXT
  5
16B40
330
747D
100
AcDbEntity
  8
部品1
100
AcDbText
 10
11024.56059882264
 20
1338.423861654617
 30
0.0
 40
135.0
  1
側面図
  7
STYLE2
100
AcDbText
  0
ARC
  5
16C1D
330
747D
100
AcDbEntity
  8
細線
 48
50.0
100
AcDbCircle
 10
5759.673057123654
 20
2843.817390873141
 30
0.0
 40
15.0
100
AcDbArc
 50
90.0
 51
270.0
  0
ARC
  5
16C1E
330
747D
100
AcDbEntity
  8
細線
 48
50.0
100
AcDbCircle
 10
5859.673057123654
 20
2843.817390873141
 30
0.0
 40
15.0
100
AcDbArc
 50
270.0
 51
90.0
  0
LINE
  5
16C1F
330
747D
100
AcDbEntity
  8
細線
 48
50.0
100
AcDbLine
 10
5759.673057123654
 20
2858.817390873141
 30
0.0
 11
5859.673057123654
 21
2858.817390873141
 31
0.0
  0
LINE
  5
16C20
330
747D
100
AcDbEntity
  8
細線
 48
50.0
100
AcDbLine
 10
5859.673057123654
 20
2828.817390873141
 30
0.0
 11
5759.673057123654
 21
2828.817390873141
 31
0.0
  0
LINE
  5
16C21
330
747D
100
AcDbEntity
  8
細線
 48
50.0
100
AcDbLine
 10
6359.673057123654
 20
2828.817390873141
 30
0.0
 11
6259.673057123654
 21
2828.817390873141
 31
0.0
  0
LINE
  5
16C22
330
747D
100
AcDbEntity
  8
細線
 48
50.0
100
AcDbLine
 10
6259.673057123654
 20
2858.817390873141
 30
0.0
 11
6359.673057123654
 21
2858.817390873141
 31
0.0
  0
ARC
  5
16C23
330
747D
100
AcDbEntity
  8
細線
 48
50.0
100
AcDbCircle
 10
6259.673057123654
 20
2843.817390873141
 30
0.0
 40
15.0
100
AcDbArc
 50
90.0
 51
270.0
  0
ARC
  5
16C24
330
747D
100
AcDbEntity
  8
細線
 48
50.0
100
AcDbCircle
 10
6359.673057123654
 20
2843.817390873141
 30
0.0
 40
15.0
100
AcDbArc
 50
270.0
 51
90.0
  0
CIRCLE
  5
16C25
330
747D
100
AcDbEntity
  8
細線
 48
50.0
100
AcDbCircle
 10
6059.673057123654
 20
3168.817390873141
 30
0.0
 40
18.0
  0
LINE
  5
16C29
330
747D
100
AcDbEntity
  8
細線
100
AcDbLine
 10
7271.673057123656
 20
2291.317390873141
 30
0.0
 11
4847.673057123651
 21
2291.317390873141
 31
0.0
  0
LINE
  5
16C2A
330
747D
100
AcDbEntity
  8
細線
100
AcDbLine
 10
4847.673057123653
 20
2811.317390873141
 30
0.0
 11
7271.673057123655
 21
2811.317390873141
 31
0.0
  0
LINE
  5
16C2B
330
747D
100
AcDbEntity
  8
細線
100
AcDbLine
 10
4847.673057123653
 20
2746.317390873141
 30
0.0
 11
7271.673057123655
 21
2746.317390873141
 31
0.0
  0
LINE
  5
16C2C
330
747D
100
AcDbEntity
  8
細線
100
AcDbLine
 10
4847.673057123653
 20
2681.317390873141
 30
0.0
 11
7271.673057123655
 21
2681.317390873141
 31
0.0
  0
LINE
  5
16C2D
330
747D
100
AcDbEntity
  8
細線
100
AcDbLine
 10
4847.673057123653
 20
2616.31739087314
 30
0.0
 11
7271.673057123655
 21
2616.31739087314
 31
0.0
  0
LINE
  5
16C2E
330
747D
100
AcDbEntity
  8
細線
100
AcDbLine
 10
4847.673057123653
 20
2551.317390873141
 30
0.0
 11
7271.673057123655
 21
2551.317390873141
 31
0.0
  0
LINE
  5
16C2F
330
747D
100
AcDbEntity
  8
細線
100
AcDbLine
 10
4847.673057123653
 20
2486.317390873141
 30
0.0
 11
7271.673057123655
 21
2486.317390873141
 31
0.0
  0
LINE
  5
16C30
330
747D
100
AcDbEntity
  8
細線
100
AcDbLine
 10
4847.673057123653
 20
2421.317390873141
 30
0.0
 11
7271.673057123655
 21
2421.317390873141
 31
0.0
  0
LINE
  5
16C31
330
747D
100
AcDbEntity
  8
細線
100
AcDbLine
 10
4847.673057123653
 20
2356.317390873141
 30
0.0
 11
7271.673057123655
 21
2356.317390873141
 31
0.0
  0
LINE
  5
16C32
330
747D
100
AcDbEntity
  8
細線
100
AcDbLine
 10
4847.673057123653
 20
2291.317390873141
 30
0.0
 11
7271.673057123655
 21
2291.317390873141
 31
0.0
  0
LINE
  5
16C33
330
747D
100
AcDbEntity
  8
細線
100
AcDbLine
 10
4847.673057123653
 20
4111.31739087314
 30
0.0
 11
7271.673057123655
 21
4111.31739087314
 31
0.0
  0
LINE
  5
16C34
330
747D
100
AcDbEntity
  8
細線
100
AcDbLine
 10
4847.673057123653
 20
4241.317390873141
 30
0.0
 11
7271.673057123655
 21
4241.317390873141
 31
0.0
  0
LINE
  5
16C35
330
747D
100
AcDbEntity
  8
細線
100
AcDbLine
 10
4847.673057123653
 20
4176.31739087314
 30
0.0
 11
7271.673057123655
 21
4176.31739087314
 31
0.0
  0
LINE
  5
16C36
330
747D
100
AcDbEntity
  8
細線
100
AcDbLine
 10
4847.673057123653
 20
3461.317390873141
 30
0.0
 11
7271.673057123655
 21
3461.317390873141
 31
0.0
  0
LINE
  5
16C37
330
747D
100
AcDbEntity
  8
細線
100
AcDbLine
 10
4847.673057123653
 20
3396.317390873141
 30
0.0
 11
7271.673057123655
 21
3396.317390873141
 31
0.0
  0
LINE
  5
16C38
330
747D
100
AcDbEntity
  8
細線
100
AcDbLine
 10
4847.673057123653
 20
3331.317390873141
 30
0.0
 11
7271.673057123655
 21
3331.317390873141
 31
0.0
  0
LINE
  5
16C39
330
747D
100
AcDbEntity
  8
細線
100
AcDbLine
 10
4847.673057123653
 20
3266.317390873141
 30
0.0
 11
7271.673057123655
 21
3266.317390873141
 31
0.0
  0
LINE
  5
16C3A
330
747D
100
AcDbEntity
  8
細線
100
AcDbLine
 10
4847.673057123653
 20
3201.31739087314
 30
0.0
 11
7271.673057123655
 21
3201.31739087314
 31
0.0
  0
LINE
  5
16C3B
330
747D
100
AcDbEntity
  8
細線
100
AcDbLine
 10
4847.673057123653
 20
3136.31739087314
 30
0.0
 11
7271.673057123655
 21
3136.31739087314
 31
0.0
  0
LINE
  5
16C3C
330
747D
100
AcDbEntity
  8
細線
100
AcDbLine
 10
4847.673057123653
 20
3071.317390873141
 30
0.0
 11
7271.673057123655
 21
3071.317390873141
 31
0.0
  0
LINE
  5
16C3D
330
747D
100
AcDbEntity
  8
細線
100
AcDbLine
 10
4847.673057123653
 20
3006.317390873141
 30
0.0
 11
7271.673057123655
 21
3006.317390873141
 31
0.0
  0
LINE
  5
16C3E
330
747D
100
AcDbEntity
  8
細線
100
AcDbLine
 10
4847.673057123653
 20
2941.317390873141
 30
0.0
 11
7271.673057123655
 21
2941.317390873141
 31
0.0
  0
LINE
  5
16C3F
330
747D
100
AcDbEntity
  8
細線
100
AcDbLine
 10
4847.673057123653
 20
2876.317390873141
 30
0.0
 11
7271.673057123655
 21
2876.317390873141
 31
0.0
  0
LINE
  5
16C40
330
747D
100
AcDbEntity
  8
細線
100
AcDbLine
 10
4847.673057123653
 20
3851.31739087314
 30
0.0
 11
7271.673057123655
 21
3851.31739087314
 31
0.0
  0
LINE
  5
16C41
330
747D
100
AcDbEntity
  8
細線
100
AcDbLine
 10
4847.673057123653
 20
3786.31739087314
 30
0.0
 11
7271.673057123655
 21
3786.31739087314
 31
0.0
  0
LINE
  5
16C42
330
747D
100
AcDbEntity
  8
細線
100
AcDbLine
 10
4847.673057123653
 20
3721.317390873141
 30
0.0
 11
7271.673057123655
 21
3721.317390873141
 31
0.0
  0
LINE
  5
16C43
330
747D
100
AcDbEntity
  8
細線
100
AcDbLine
 10
4847.673057123653
 20
3656.317390873141
 30
0.0
 11
7271.673057123655
 21
3656.317390873141
 31
0.0
  0
LINE
  5
16C44
330
747D
100
AcDbEntity
  8
細線
100
AcDbLine
 10
4847.673057123653
 20
3591.317390873141
 30
0.0
 11
7271.673057123655
 21
3591.317390873141
 31
0.0
  0
LINE
  5
16C45
330
747D
100
AcDbEntity
  8
細線
100
AcDbLine
 10
4847.673057123653
 20
3526.317390873141
 30
0.0
 11
7271.673057123655
 21
3526.317390873141
 31
0.0
  0
LINE
  5
16C46
330
747D
100
AcDbEntity
  8
細線
100
AcDbLine
 10
4847.673057123653
 20
4046.317390873141
 30
0.0
 11
7271.673057123655
 21
4046.317390873141
 31
0.0
  0
LINE
  5
16C47
330
747D
100
AcDbEntity
  8
細線
100
AcDbLine
 10
4847.673057123653
 20
3981.317390873141
 30
0.0
 11
7271.673057123655
 21
3981.317390873141
 31
0.0
  0
LINE
  5
16C48
330
747D
100
AcDbEntity
  8
細線
100
AcDbLine
 10
4847.673057123653
 20
3916.317390873141
 30
0.0
 11
7271.673057123655
 21
3916.317390873141
 31
0.0
  0
LINE
  5
16C49
330
747D
100
AcDbEntity
  8
部品1
100
AcDbLine
 10
4744.673057123656
 20
4256.317390873141
 30
0.0
 11
7374.673057123658
 21
4256.317390873141
 31
0.0
  0
LINE
  5
16C4D
330
747D
100
AcDbEntity
  8
部品1
100
AcDbLine
 10
7271.673057123658
 20
4256.317390873141
 30
0.0
 11
7271.673057123655
 21
2281.317390873141
 31
0.0
  0
LINE
  5
16C4F
330
747D
100
AcDbEntity
  8
部品1
100
AcDbLine
 10
4847.673057123657
 20
4256.317390873141
 30
0.0
 11
4847.673057123657
 21
2281.317390873141
 31
0.0
  0
LINE
  5
16C5E
330
747D
100
AcDbEntity
  8
部品1
100
AcDbLine
 10
7374.673057123658
 20
4515.317390873145
 30
0.0
 11
7374.673057123657
 21
2181.317390873141
 31
0.0
  0
LINE
  5
16C5F
330
747D
100
AcDbEntity
  8
部品1
100
AcDbLine
 10
4799.673057123657
 20
4256.317390873141
 30
0.0
 11
4799.673057123657
 21
2281.317390873141
 31
0.0
  0
LINE
  5
16C60
330
747D
100
AcDbEntity
  8
部品1
100
AcDbLine
 10
7319.673057123657
 20
4256.317390873141
 30
0.0
 11
7319.673057123655
 21
2281.317390873141
 31
0.0
  0
LINE
  5
16C61
330
747D
100
AcDbEntity
  8
部品1
100
AcDbLine
 10
4744.673057123656
 20
4515.317390873145
 30
0.0
 11
4744.673057123656
 21
2181.317390873141
 31
0.0
  0
LINE
  5
16C62
330
747D
100
AcDbEntity
  8
部品1
100
AcDbLine
 10
4744.673057123656
 20
4421.317390873141
 30
0.0
 11
7374.673057123657
 21
4421.317390873141
 31
0.0
  0
LINE
  5
16C63
330
747D
100
AcDbEntity
  8
部品1
100
AcDbLine
 10
4744.673057123656
 20
2281.317390873141
 30
0.0
 11
7374.673057123657
 21
2281.317390873141
 31
0.0
  0
LINE
  5
16C64
330
747D
100
AcDbEntity
  8
部品1
100
AcDbLine
 10
3905.903465777273
 20
2311.221201440805
 30
0.0
 11
3830.903465777274
 21
2181.317390873141
 31
0.0
  0
TEXT
  5
16C65
330
747D
100
AcDbEntity
  8
部品1
100
AcDbText
 10
3934.008407902047
 20
2217.424294479042
 30
0.0
 40
125.0
  1
G.L
  7
STYLE2
100
AcDbText
  0
LINE
  5
16C66
330
747D
100
AcDbEntity
  8
部品1
100
AcDbLine
 10
3830.903465777274
 20
2181.317390873141
 30
0.0
 11
3755.903465777274
 21
2311.221201440805
 31
0.0
  0
LINE
  5
16C67
330
747D
100
AcDbEntity
  8
部品1
100
AcDbLine
 10
3755.903465777274
 20
2311.221201440805
 30
0.0
 11
3905.903465777273
 21
2311.221201440805
 31
0.0
  0
LINE
  5
16C68
330
747D
100
AcDbEntity
  8
Ｇ．Ｌ
100
AcDbLine
 10
3656.406454453174
 20
2181.317390873141
 30
0.0
 11
13210.79354554683
 21
2181.317390873141
 31
0.0
  0
DIMENSION
  5
17390
330
747D
100
AcDbEntity
  8
寸法
100
AcDbDimension
  2
*D18
 10
9158.099701329987
 20
2331.317390873133
 30
0.0
 11
9058.087890306365
 21
3376.317390873135
 31
0.0
 70
    32
 71
     5
 42
2090.000000000001
  3
INABA_S40G
100
AcDbAlignedDimension
 13
10001.84983051324
 23
4421.317390873134
 33
0.0
 14
10001.84983051324
 24
2331.317390873133
 34
0.0
 50
90.0
100
AcDbRotatedDimension
1001
ACAD
1000
DSTYLE
1002
{
1070
   174
1070
     0
1070
   272
1070
     1
1070
   288
1070
     0
1070
   341
1005
0
1002
}
  0
DIMENSION
  5
17391
330
747D
100
AcDbEntity
  8
寸法
100
AcDbDimension
  2
*D19
 10
8858.099701329988
 20
4656.317390873137
 30
0.0
 11
8758.087890306363
 21
3468.817390873137
 31
0.0
 70
    32
 71
     5
 42
2375.000000000005
  3
INABA_S40G
100
AcDbAlignedDimension
 13
10001.84983051324
 23
2281.317390873133
 33
0.0
 14
9941.849830513248
 24
4656.317390873137
 34
0.0
 50
90.0
100
AcDbRotatedDimension
1001
ACAD
1000
DSTYLE
1002
{
1070
   174
1070
     0
1070
   272
1070
     1
1070
   288
1070
     0
1070
   341
1005
0
1002
}
  0
DIMENSION
  5
17392
330
747D
100
AcDbEntity
  8
寸法
100
AcDbDimension
  2
*D20
 10
13336.77698848538
 20
4601.317390873139
 30
0.0
 11
13236.76517746176
 21
3441.317390873142
 31
0.0
 70
    32
 71
     5
 42
2320.0
  3
INABA_S40G
100
AcDbAlignedDimension
 13
12631.84983051325
 23
2281.31739087314
 33
0.0
 14
12711.84983051325
 24
4601.317390873139
 34
0.0
 50
90.0
100
AcDbRotatedDimension
1001
ACAD
1000
DSTYLE
1002
{
1070
   174
1070
     0
1070
   272
1070
     1
1070
   288
1070
     0
1070
   341
1005
0
1002
}
  0
LINE
  5
1739A
330
747D
100
AcDbEntity
  8
細線
 48
50.0
100
AcDbLine
 10
12079.34983051325
 20
4421.317390873137
 30
0.0
 11
12079.34983051325
 21
2331.31739087314
 31
0.0
  0
LINE
  5
1739B
330
747D
100
AcDbEntity
  8
細線
 48
50.0
100
AcDbLine
 10
12094.34983051325
 20
4421.317390873137
 30
0.0
 11
12094.34983051325
 21
2331.31739087314
 31
0.0
  0
LINE
  5
1739C
330
747D
100
AcDbEntity
  8
細線
 48
50.0
100
AcDbLine
 10
11954.34983051325
 20
4421.317390873137
 30
0.0
 11
11954.34983051325
 21
2331.31739087314
 31
0.0
  0
LINE
  5
1739D
330
747D
100
AcDbEntity
  8
細線
 48
50.0
100
AcDbLine
 10
11939.34983051325
 20
4421.317390873137
 30
0.0
 11
11939.34983051325
 21
2331.31739087314
 31
0.0
  0
LINE
  5
1739E
330
747D
100
AcDbEntity
  8
細線
 48
50.0
100
AcDbLine
 10
11799.34983051325
 20
4421.317390873137
 30
0.0
 11
11799.34983051325
 21
2331.31739087314
 31
0.0
  0
LINE
  5
1739F
330
747D
100
AcDbEntity
  8
細線
 48
50.0
100
AcDbLine
 10
11814.34983051325
 20
4421.317390873137
 30
0.0
 11
11814.34983051325
 21
2331.31739087314
 31
0.0
  0
LINE
  5
173A0
330
747D
100
AcDbEntity
  8
部品1
100
AcDbLine
 10
11736.84983051324
 20
4421.317390873137
 30
0.0
 11
11736.84983051324
 21
2331.31739087314
 31
0.0
  0
LINE
  5
173A1
330
747D
100
AcDbEntity
  8
部品1
100
AcDbLine
 10
11177.07496094249
 20
4781.521778836157
 30
0.0
 11
11502.52997458552
 21
4764.003719877294
 31
0.0
  0
ARC
  5
173A2
330
747D
100
AcDbEntity
  8
部品1
100
AcDbCircle
 10
12697.47736632719
 20
4495.341148138931
 30
0.0
 40
0.7
100
AcDbArc
 50
275.0921697642079
 51
354.1866997667552
  0
ARC
  5
173A3
330
747D
100
AcDbEntity
  8
部品1
100
AcDbCircle
 10
12708.3367120765
 20
4572.384402956854
 30
0.0
 40
0.7
100
AcDbArc
 50
275.0921697642079
 51
354.1866997665479
  0
ARC
  5
173A4
330
747D
100
AcDbEntity
  8
部品1
100
AcDbCircle
 10
12708.66511731911
 20
4568.699006099765
 30
0.0
 40
3.0
100
AcDbArc
 50
95.09216976420788
 51
174.1866997665479
  0
ARC
  5
173A5
330
747D
100
AcDbEntity
  8
部品1
100
AcDbCircle
 10
12697.80577156978
 20
4491.65575128184
 30
0.0
 40
3.0
100
AcDbArc
 50
95.09216976420788
 51
174.1866997665479
  0
ARC
  5
173A6
330
747D
100
AcDbEntity
  8
部品1
 48
50.0
100
AcDbCircle
 10
12686.77763629468
 20
4482.065006677959
 30
0.0
 40
7.0
100
AcDbArc
 50
267.8377559869492
 51
354.1866997665479
  0
ARC
  5
173A7
330
747D
100
AcDbEntity
  8
部品1
 48
50.0
100
AcDbCircle
 10
12704.09973275919
 20
4592.967553820133
 30
0.0
 40
7.0
100
AcDbArc
 50
354.1866997665479
 51
87.03587545282958
  0
LINE
  5
173A8
330
747D
100
AcDbEntity
  8
部品1
 48
50.0
100
AcDbLine
 10
12694.82119989918
 20
4491.959612998743
 30
0.0
 11
12693.74163685944
 21
4481.355996005185
 31
0.0
  0
LINE
  5
173A9
330
747D
100
AcDbEntity
  8
部品1
 48
50.0
100
AcDbLine
 10
12705.6805456485
 20
4569.002867816668
 30
0.0
 11
12698.17376638366
 21
4495.270247071657
 31
0.0
  0
LINE
  5
173AA
330
747D
100
AcDbEntity
  8
部品1
 48
50.0
100
AcDbLine
 10
12711.06373332395
 20
4592.258543147357
 30
0.0
 11
12709.03311213298
 21
4572.313501889577
 31
0.0
  0
ARC
  5
173AB
330
747D
100
AcDbEntity
  8
部品1
100
AcDbCircle
 10
9947.886922384615
 20
4535.131549832043
 30
0.0
 40
0.7
100
AcDbArc
 50
181.0932240293156
 51
260.1877540314845
  0
ARC
  5
173AC
330
747D
100
AcDbEntity
  8
部品1
100
AcDbCircle
 10
9943.114248787004
 20
4627.99732803216
 30
0.0
 40
0.7
100
AcDbArc
 50
181.0932240292114
 51
260.1877540314845
  0
ARC
  5
173AD
330
747D
100
AcDbEntity
  8
部品1
100
AcDbCircle
 10
9942.483694383982
 20
4624.351453494763
 30
0.0
 40
3.0
100
AcDbArc
 50
1.093224029315636
 51
80.18775403168987
  0
ARC
  5
173AE
330
747D
100
AcDbEntity
  8
部品1
100
AcDbCircle
 10
9947.256367981589
 20
4531.485675294645
 30
0.0
 40
3.0
100
AcDbArc
 50
1.093224029315636
 51
80.18775403168987
  0
ARC
  5
173AF
330
747D
100
AcDbEntity
  8
部品1
 48
50.0
100
AcDbCircle
 10
9957.456500356791
 20
4521.093431912163
 30
0.0
 40
7.0
100
AcDbArc
 50
181.0932240293156
 51
267.8377559869492
  0
ARC
  5
173B0
330
747D
100
AcDbEntity
  8
部品1
 48
50.0
100
AcDbCircle
 10
9949.032842254695
 20
4648.044491445259
 30
0.0
 40
7.0
100
AcDbArc
 50
87.03587545282958
 51
181.0932240293156
  0
LINE
  5
173B1
330
747D
100
AcDbEntity
  8
部品1
 48
50.0
100
AcDbLine
 10
9950.255821908019
 20
4531.542912897827
 30
0.0
 11
9950.45777452845
 21
4520.959877504735
 31
0.0
  0
LINE
  5
173B2
330
747D
100
AcDbEntity
  8
細線
 48
50.0
100
AcDbLine
 10
9947.649728851347
 20
4534.472961016635
 30
0.0
 11
12697.65339328199
 21
4494.663642042143
 31
0.0
  0
LINE
  5
173B3
330
747D
100
AcDbEntity
  8
細線
 48
50.0
100
AcDbLine
 10
9942.889253614062
 20
4627.3344727145
 30
0.0
 11
12708.52523835923
 21
4571.710268073671
 31
0.0
  0
LINE
  5
173B4
330
747D
100
AcDbEntity
  8
部品1
 48
50.0
100
AcDbLine
 10
9945.483148310412
 20
4624.408691097946
 30
0.0
 11
9947.187049801776
 21
4535.118194391299
 31
0.0
  0
LINE
  5
173B5
330
747D
100
AcDbEntity
  8
部品1
 48
50.0
100
AcDbLine
 10
9942.034116426354
 20
4647.91093703783
 30
0.0
 11
9942.414376204167
 21
4627.98397259142
 31
0.0
  0
LINE
  5
173B6
330
747D
100
AcDbEntity
  8
細線
 48
50.0
100
AcDbLine
 10
12678.81911370694
 20
4600.470813352607
 30
0.0
 11
12674.10214762525
 21
4475.538597417691
 31
0.0
  0
LINE
  5
173B7
330
747D
100
AcDbEntity
  8
細線
 48
50.0
100
AcDbLine
 10
9974.849830513248
 20
4653.717067248543
 30
0.0
 11
9969.560728957741
 21
4513.631434621188
 31
0.0
  0
LINE
  5
173B8
330
747D
100
AcDbEntity
  8
部品1
100
AcDbLine
 10
9957.1923951152
 20
4514.098415942105
 30
0.0
 11
12686.5135310531
 21
4475.069990707899
 31
0.0
  0
LINE
  5
173B9
330
747D
100
AcDbEntity
  8
部品1
100
AcDbLine
 10
9949.39481687021
 20
4655.035126207404
 30
0.0
 11
12704.46170737472
 21
4599.958188582276
 31
0.0
  0
LINE
  5
173BA
330
747D
100
AcDbEntity
  8
部品1
 48
50.0
100
AcDbLine
 10
11202.52997458552
 20
4780.203719877294
 30
0.0
 11
11502.52997458552
 21
4780.203719877294
 31
0.0
  0
LINE
  5
173BB
330
747D
100
AcDbEntity
  8
部品1
 48
50.0
100
AcDbLine
 10
11502.52997458552
 20
4780.203719877294
 30
0.0
 11
11502.52997458552
 21
4764.003719877294
 31
0.0
  0
TEXT
  5
173BC
330
747D
100
AcDbEntity
  8
部品1
 48
50.0
100
AcDbText
 10
11190.79780980925
 20
4816.087742029728
 30
0.0
 40
120.0
  1
1000
  7
STYLE1
100
AcDbText
  0
TEXT
  5
173BD
330
747D
100
AcDbEntity
  8
部品1
 48
50.0
100
AcDbText
 10
11668.43083247434
 20
4678.586483811446
 30
0.0
 40
120.0
  1
37
 50
90.0
  7
STYLE1
100
AcDbText
  0
LINE
  5
173BE
330
747D
100
AcDbEntity
  8
細線
 48
50.0
100
AcDbLine
 10
11394.34983051325
 20
4421.317390873137
 30
0.0
 11
11394.34983051325
 21
2331.317390873138
 31
0.0
  0
LINE
  5
173BF
330
747D
100
AcDbEntity
  8
細線
 48
50.0
100
AcDbLine
 10
11379.34983051325
 20
4421.317390873137
 30
0.0
 11
11379.34983051325
 21
2331.317390873138
 31
0.0
  0
LINE
  5
173C0
330
747D
100
AcDbEntity
  8
細線
 48
50.0
100
AcDbLine
 10
11519.34983051325
 20
4421.317390873137
 30
0.0
 11
11519.34983051325
 21
2331.317390873138
 31
0.0
  0
LINE
  5
173C1
330
747D
100
AcDbEntity
  8
細線
 48
50.0
100
AcDbLine
 10
11534.34983051325
 20
4421.317390873137
 30
0.0
 11
11534.34983051325
 21
2331.317390873138
 31
0.0
  0
LINE
  5
173C2
330
747D
100
AcDbEntity
  8
細線
 48
50.0
100
AcDbLine
 10
11674.34983051325
 20
4421.317390873137
 30
0.0
 11
11674.34983051325
 21
2331.317390873138
 31
0.0
  0
LINE
  5
173C3
330
747D
100
AcDbEntity
  8
細線
 48
50.0
100
AcDbLine
 10
11659.34983051325
 20
4421.317390873137
 30
0.0
 11
11659.34983051325
 21
2331.317390873138
 31
0.0
  0
LINE
  5
173C4
330
747D
100
AcDbEntity
  8
部品1
100
AcDbLine
 10
12156.84983051325
 20
4421.317390873137
 30
0.0
 11
12156.84983051325
 21
2331.31739087314
 31
0.0
  0
LINE
  5
173C5
330
747D
100
AcDbEntity
  8
部品1
100
AcDbLine
 10
10001.84983051324
 20
4421.317390873137
 30
0.0
 11
12631.84983051325
 21
4421.317390873137
 31
0.0
  0
LINE
  5
173C6
330
747D
100
AcDbEntity
  8
部品1
100
AcDbLine
 10
10056.84983051324
 20
2331.317390873138
 30
0.0
 11
12631.84983051325
 21
2331.31739087314
 31
0.0
  0
LINE
  5
173C8
330
747D
100
AcDbEntity
  8
部品1
100
AcDbLine
 10
10056.84983051325
 20
4421.317390873137
 30
0.0
 11
10056.84983051325
 21
2181.317390873141
 31
0.0
  0
LINE
  5
173C9
330
747D
100
AcDbEntity
  8
部品1
100
AcDbLine
 10
10001.84983051325
 20
4513.459828802016
 30
0.0
 11
10001.84983051324
 21
2181.317390873138
 31
0.0
  0
DIMENSION
  5
173CB
330
747D
100
AcDbEntity
  8
寸法
100
AcDbDimension
  2
*D21
 10
9158.099701329987
 20
2281.317390873138
 30
0.0
 11
9158.099701329987
 21
1975.270146778649
 31
0.0
 70
   160
 71
     5
 42
50.0
  3
INABA_S40G
100
AcDbAlignedDimension
 13
10001.84983051324
 23
2331.317390873138
 33
0.0
 14
9946.849830513247
 24
2281.317390873138
 34
0.0
 50
90.0
100
AcDbRotatedDimension
1001
ACAD
1000
DSTYLE
1002
{
1070
   174
1070
     0
1070
   272
1070
     1
1070
   288
1070
     0
1070
   341
1005
0
1002
}
  0
LINE
  5
173CC
330
747D
100
AcDbEntity
  8
部品1
100
AcDbLine
 10
10476.84983051325
 20
4421.317390873137
 30
0.0
 11
10476.84983051325
 21
2331.317390873138
 31
0.0
  0
LINE
  5
173CD
330
747D
100
AcDbEntity
  8
部品1
100
AcDbLine
 10
12631.84983051325
 20
4475.851664260876
 30
0.0
 11
12631.84983051325
 21
2181.31739087314
 31
0.0
  0
LINE
  5
173CE
330
747D
100
AcDbEntity
  8
部品1
100
AcDbLine
 10
12576.84983051325
 20
4421.317390873137
 30
0.0
 11
12576.84983051325
 21
2331.31739087314
 31
0.0
  0
DIMENSION
  5
173D1
330
747D
100
AcDbEntity
  8
寸法
 48
50.0
100
AcDbDimension
  2
*D22
 10
10001.84983051324
 20
5054.974844452444
 30
0.0
 11
11316.84983051325
 21
5054.974844452444
 31
0.0
 70
   160
  1
柱外寸法<>
 71
     5
 42
2630.000000000002
  3
INABA_S40G
100
AcDbAlignedDimension
 13
12631.84983051325
 23
4603.128070484792
 33
0.0
 14
10001.84983051324
 24
4652.319008996115
 34
0.0
100
AcDbRotatedDimension
1001
ACAD
1000
DSTYLE
1002
{
1070
   174
1070
     0
1070
   272
1070
     1
1070
   288
1070
     0
1070
   341
1005
0
1002
}
  0
DIMENSION
  5
173D2
330
747D
100
AcDbEntity
  8
寸法
 48
50.0
100
AcDbDimension
  2
*D23
 10
9941.849830513248
 20
5054.974844452442
 30
0.0
 11
9632.212035237657
 21
5054.974844452442
 31
0.0
 70
   160
 71
     5
 42
60.0
  3
INABA_S40G
100
AcDbAlignedDimension
 13
10001.84983051324
 23
4652.319008996115
 33
0.0
 14
9941.849830513248
 24
4656.317390873144
 34
0.0
100
AcDbRotatedDimension
1001
ACAD
1000
DSTYLE
1002
{
1070
   174
1070
     0
1070
   272
1070
     1
1070
   288
1070
     0
1070
   341
1005
0
1002
}
  0
DIMENSION
  5
173D3
330
747D
100
AcDbEntity
  8
寸法
 48
50.0
100
AcDbDimension
  2
*D24
 10
9941.849830513248
 20
5275.18553118406
 30
0.0
 11
11326.84983051325
 21
5275.18553118406
 31
0.0
 70
   160
 71
     5
 42
2770.000000000002
  3
INABA_S40G
100
AcDbAlignedDimension
 13
12711.84983051325
 23
4601.317390873139
 33
0.0
 14
9941.849830513248
 24
4656.317390873144
 34
0.0
100
AcDbRotatedDimension
1001
ACAD
1000
DSTYLE
1002
{
1070
   174
1070
     0
1070
   272
1070
     1
1070
   288
1070
     0
1070
   341
1005
0
1002
}
  0
LINE
  5
173ED
330
747D
100
AcDbEntity
  8
部品1
100
AcDbLine
 10
10056.84983051325
 20
2281.317390873137
 30
0.0
 11
12631.84983051325
 21
2281.317390873138
 31
0.0
  0
LINE
  5
173F0
330
747D
100
AcDbEntity
  8
細線
 48
50.0
100
AcDbLine
 10
10554.34983051324
 20
4421.317390873137
 30
0.0
 11
10554.34983051324
 21
2331.317390873138
 31
0.0
  0
LINE
  5
173F1
330
747D
100
AcDbEntity
  8
細線
 48
50.0
100
AcDbLine
 10
10539.34983051324
 20
4421.317390873137
 30
0.0
 11
10539.34983051324
 21
2331.317390873138
 31
0.0
  0
LINE
  5
173F2
330
747D
100
AcDbEntity
  8
細線
 48
50.0
100
AcDbLine
 10
10679.34983051324
 20
4421.317390873137
 30
0.0
 11
10679.34983051324
 21
2331.317390873138
 31
0.0
  0
LINE
  5
173F3
330
747D
100
AcDbEntity
  8
細線
 48
50.0
100
AcDbLine
 10
10694.34983051325
 20
4421.317390873137
 30
0.0
 11
10694.34983051325
 21
2331.317390873138
 31
0.0
  0
LINE
  5
173F4
330
747D
100
AcDbEntity
  8
細線
 48
50.0
100
AcDbLine
 10
10834.34983051325
 20
4421.317390873137
 30
0.0
 11
10834.34983051325
 21
2331.317390873138
 31
0.0
  0
LINE
  5
173F5
330
747D
100
AcDbEntity
  8
細線
 48
50.0
100
AcDbLine
 10
10819.34983051324
 20
4421.317390873137
 30
0.0
 11
10819.34983051324
 21
2331.317390873138
 31
0.0
  0
LINE
  5
173F6
330
747D
100
AcDbEntity
  8
細線
 48
50.0
100
AcDbLine
 10
10399.34983051324
 20
4421.317390873137
 30
0.0
 11
10399.34983051324
 21
2331.317390873138
 31
0.0
  0
LINE
  5
173F7
330
747D
100
AcDbEntity
  8
細線
 48
50.0
100
AcDbLine
 10
10414.34983051324
 20
4421.317390873137
 30
0.0
 11
10414.34983051324
 21
2331.317390873138
 31
0.0
  0
LINE
  5
173F8
330
747D
100
AcDbEntity
  8
細線
 48
50.0
100
AcDbLine
 10
10274.34983051324
 20
4421.317390873137
 30
0.0
 11
10274.34983051324
 21
2331.317390873138
 31
0.0
  0
LINE
  5
173F9
330
747D
100
AcDbEntity
  8
細線
 48
50.0
100
AcDbLine
 10
10259.34983051324
 20
4421.317390873137
 30
0.0
 11
10259.34983051324
 21
2331.317390873138
 31
0.0
  0
LINE
  5
173FA
330
747D
100
AcDbEntity
  8
細線
 48
50.0
100
AcDbLine
 10
10119.34983051324
 20
4421.317390873137
 30
0.0
 11
10119.34983051324
 21
2331.317390873138
 31
0.0
  0
LINE
  5
173FB
330
747D
100
AcDbEntity
  8
細線
 48
50.0
100
AcDbLine
 10
10134.34983051324
 20
4421.317390873137
 30
0.0
 11
10134.34983051324
 21
2331.317390873138
 31
0.0
  0
DIMENSION
  5
173FC
330
747D
100
AcDbEntity
  8
寸法
 48
50.0
100
AcDbDimension
  2
*D25
 10
12711.84983051325
 20
5054.974844452444
 30
0.0
 11
12917.89707460774
 21
5054.974844452444
 31
0.0
 70
   160
 71
     5
 42
80.0
  3
INABA_S40G
100
AcDbAlignedDimension
 13
12631.84983051325
 23
4603.128070484792
 33
0.0
 14
12711.84983051325
 24
4601.317390873139
 34
0.0
100
AcDbRotatedDimension
1001
ACAD
1000
DSTYLE
1002
{
1070
   174
1070
     0
1070
   272
1070
     1
1070
   288
1070
     0
1070
   341
1005
0
1002
}
  0
LINE
  5
173FD
330
747D
100
AcDbEntity
  8
部品1
100
AcDbLine
 10
10896.84983051324
 20
4421.317390873137
 30
0.0
 11
10896.84983051324
 21
2331.317390873138
 31
0.0
  0
LINE
  5
173FE
330
747D
100
AcDbEntity
  8
細線
 48
50.0
100
AcDbLine
 10
11239.34983051325
 20
4421.317390873137
 30
0.0
 11
11239.34983051325
 21
2331.317390873138
 31
0.0
  0
LINE
  5
173FF
330
747D
100
AcDbEntity
  8
細線
 48
50.0
100
AcDbLine
 10
11254.34983051325
 20
4421.317390873137
 30
0.0
 11
11254.34983051325
 21
2331.317390873138
 31
0.0
  0
LINE
  5
17400
330
747D
100
AcDbEntity
  8
細線
 48
50.0
100
AcDbLine
 10
11114.34983051325
 20
4421.317390873137
 30
0.0
 11
11114.34983051325
 21
2331.317390873138
 31
0.0
  0
LINE
  5
17401
330
747D
100
AcDbEntity
  8
細線
 48
50.0
100
AcDbLine
 10
11099.34983051325
 20
4421.317390873137
 30
0.0
 11
11099.34983051325
 21
2331.317390873138
 31
0.0
  0
LINE
  5
17402
330
747D
100
AcDbEntity
  8
細線
 48
50.0
100
AcDbLine
 10
10959.34983051325
 20
4421.317390873137
 30
0.0
 11
10959.34983051325
 21
2331.317390873138
 31
0.0
  0
LINE
  5
17403
330
747D
100
AcDbEntity
  8
細線
 48
50.0
100
AcDbLine
 10
10974.34983051325
 20
4421.317390873137
 30
0.0
 11
10974.34983051325
 21
2331.317390873138
 31
0.0
  0
LINE
  5
17404
330
747D
100
AcDbEntity
  8
部品1
100
AcDbLine
 10
11316.84983051325
 20
4421.317390873137
 30
0.0
 11
11316.84983051325
 21
2331.317390873138
 31
0.0
  0
LINE
  5
17405
330
747D
100
AcDbEntity
  8
細線
 48
50.0
100
AcDbLine
 10
12234.34983051325
 20
4421.317390873137
 30
0.0
 11
12234.34983051325
 21
2331.31739087314
 31
0.0
  0
LINE
  5
17406
330
747D
100
AcDbEntity
  8
細線
 48
50.0
100
AcDbLine
 10
12219.34983051325
 20
4421.317390873137
 30
0.0
 11
12219.34983051325
 21
2331.31739087314
 31
0.0
  0
LINE
  5
17407
330
747D
100
AcDbEntity
  8
細線
 48
50.0
100
AcDbLine
 10
12359.34983051325
 20
4421.317390873137
 30
0.0
 11
12359.34983051325
 21
2331.31739087314
 31
0.0
  0
LINE
  5
17408
330
747D
100
AcDbEntity
  8
細線
 48
50.0
100
AcDbLine
 10
12374.34983051325
 20
4421.317390873137
 30
0.0
 11
12374.34983051325
 21
2331.31739087314
 31
0.0
  0
LINE
  5
17409
330
747D
100
AcDbEntity
  8
細線
 48
50.0
100
AcDbLine
 10
12514.34983051325
 20
4421.317390873137
 30
0.0
 11
12514.34983051325
 21
2331.31739087314
 31
0.0
  0
LINE
  5
1740A
330
747D
100
AcDbEntity
  8
細線
 48
50.0
100
AcDbLine
 10
12499.34983051325
 20
4421.317390873137
 30
0.0
 11
12499.34983051325
 21
2331.31739087314
 31
0.0
  0
DIMENSION
  5
1740B
330
747D
100
AcDbEntity
  8
寸法
 48
50.0
100
AcDbDimension
  2
*D26
 10
9381.241423744873
 20
4530.66264974647
 30
0.0
 11
9391.906899003799
 21
4901.509312988169
 31
0.0
 70
   161
 71
     5
 42
141.0
  3
INABA_S40G
100
AcDbAlignedDimension
 13
9961.245850671827
 23
4655.040139707817
 33
0.0
 14
9957.1923951152
 24
4514.098415942105
 34
0.0
1001
ACAD
1000
DSTYLE
1002
{
1070
   174
1070
     0
1070
   272
1070
     1
1070
   288
1070
     0
1070
   341
1005
0
1002
}
  0
LINE
  5
17A19
330
747D
100
AcDbEntity
  8
破線
 48
5.0
100
AcDbLine
 10
10001.84983051325
 20
2181.317390873138
 30
0.0
 11
10001.84983051325
 21
1931.317390873137
 31
0.0
  0
LINE
  5
17A1A
330
747D
100
AcDbEntity
  8
破線
 48
5.0
100
AcDbLine
 10
10056.84983051325
 20
2181.317390873138
 30
0.0
 11
10056.84983051325
 21
1931.317390873137
 31
0.0
  0
LINE
  5
17A1B
330
747D
100
AcDbEntity
  8
破線
 48
5.0
100
AcDbLine
 10
10001.84983051325
 20
1931.317390873137
 30
0.0
 11
10056.84983051325
 21
1931.317390873137
 31
0.0
  0
LINE
  5
17A1C
330
747D
100
AcDbEntity
  8
部品1
100
AcDbLine
 10
10001.84983051325
 20
2281.317390873138
 30
0.0
 11
9608.852616304401
 21
2181.317390873138
 31
0.0
  0
TEXT
  5
17AF7
330
747D
100
AcDbEntity
  8
文字
 62
     7
 48
50.0
100
AcDbText
 10
14499.88896070973
 20
483.8967129911414
 30
0.0
 40
160.0
  1
FXN-70HD
  7
STYLE2
100
AcDbText
  0
LINE
  5
17B0E
330
747D
100
AcDbEntity
  8
補助
  6
PHANTOM
 62
   230
 48
50.0
100
AcDbLine
 10
140.0
 20
0.0
 30
0.0
 11
139.9999999999995
 21
11409.6
 31
0.0
  0
DIMENSION
  5
17C6F
330
747D
100
AcDbEntity
  8
寸法
 48
50.0
100
AcDbDimension
  2
*D27
 10
7662.216159445404
 20
4421.317390873141
 30
0.0
 11
7662.216159445403
 21
4659.80267224738
 31
0.0
 70
   160
 71
     5
 42
164.9999999999991
  3
INABA_S40G
100
AcDbAlignedDimension
 13
7374.673057123658
 23
4256.317390873141
 33
0.0
 14
7374.673057123657
 24
4421.317390873141
 34
0.0
 50
90.0
100
AcDbRotatedDimension
1001
ACAD
1000
DSTYLE
1002
{
1002
}
  0
DIMENSION
  5
17C70
330
747D
100
AcDbEntity
  8
寸法
 48
50.0
100
AcDbDimension
  2
*D28
 10
7662.216159445403
 20
4256.317390873141
 30
0.0
 11
7802.385982691768
 21
4257.284590712798
 31
0.0
 70
   160
 71
     5
 42
27.00000000000182
  3
INABA_S40G
100
AcDbAlignedDimension
 13
7374.673057123658
 23
4229.31739087314
 33
0.0
 14
7374.673057123658
 24
4256.317390873141
 34
0.0
 50
90.0
100
AcDbRotatedDimension
1001
ACAD
1000
DSTYLE
1002
{
1070
   279
1070
     2
1002
}
  0
DIMENSION
  5
17C71
330
747D
100
AcDbEntity
  8
寸法
 48
50.0
100
AcDbDimension
  2
*D29
 10
7662.216159445403
 20
4229.31739087314
 30
0.0
 11
7562.216159445402
 21
3255.317390873142
 31
0.0
 70
    32
  1
有効開口部高サ <>
 71
     5
 42
1947.999999999999
  3
INABA_S40G
100
AcDbAlignedDimension
 13
7374.673057123657
 23
2281.317390873141
 33
0.0
 14
7374.673057123658
 24
4229.31739087314
 34
0.0
 50
90.0
100
AcDbRotatedDimension
  0
ARC
  5
17F43
330
747D
100
AcDbEntity
  8
部品1
 48
0.01
100
AcDbCircle
 10
6586.67305712366
 20
4453.81739087314
 30
0.0
 40
2.0
100
AcDbArc
 50
180.0
 51
270.0
  0
ARC
  5
17F44
330
747D
100
AcDbEntity
  8
部品1
 48
0.01
100
AcDbCircle
 10
6762.67305712366
 20
4453.81739087314
 30
0.0
 40
2.0
100
AcDbArc
 50
270.0
 51
0.0
  0
LINE
  5
17F45
330
747D
100
AcDbEntity
  8
部品1
 48
0.01
100
AcDbLine
 10
6762.67305712366
 20
4451.817390873141
 30
0.0
 11
6586.67305712366
 21
4451.817390873141
 31
0.0
  0
LINE
  5
17F46
330
747D
100
AcDbEntity
  8
部品1
 48
0.01
100
AcDbLine
 10
5356.673057123661
 20
4451.817390873141
 30
0.0
 11
5532.673057123656
 21
4451.817390873141
 31
0.0
  0
ARC
  5
17F47
330
747D
100
AcDbEntity
  8
部品1
 48
0.01
100
AcDbCircle
 10
5356.673057123661
 20
4453.81739087314
 30
0.0
 40
2.0
100
AcDbArc
 50
180.0
 51
270.0
  0
ARC
  5
17F48
330
747D
100
AcDbEntity
  8
部品1
 48
0.01
100
AcDbCircle
 10
5532.673057123656
 20
4453.81739087314
 30
0.0
 40
2.0
100
AcDbArc
 50
270.0
 51
0.0
  0
ARC
  5
17F49
330
747D
100
AcDbEntity
  8
部品1
 48
0.01
100
AcDbCircle
 10
6586.67305712366
 20
4485.317390873141
 30
0.0
 40
2.0
100
AcDbArc
 50
90.0
 51
180.0
  0
ARC
  5
17F4A
330
747D
100
AcDbEntity
  8
部品1
 48
0.01
100
AcDbCircle
 10
6762.67305712366
 20
4485.317390873141
 30
0.0
 40
2.0
100
AcDbArc
 50
0.0
 51
90.0
  0
LINE
  5
17F4B
330
747D
100
AcDbEntity
  8
細線
100
AcDbLine
 10
6674.673057123661
 20
4457.817390873141
 30
0.0
 11
6600.67305712366
 21
4457.817390873141
 31
0.0
  0
LINE
  5
17F4C
330
747D
100
AcDbEntity
  8
細線
100
AcDbLine
 10
6674.673057123661
 20
4480.817390873141
 30
0.0
 11
6748.67305712366
 21
4480.817390873141
 31
0.0
  0
LINE
  5
17F4D
330
747D
100
AcDbEntity
  8
細線
100
AcDbLine
 10
6748.67305712366
 20
4457.817390873141
 30
0.0
 11
6674.673057123661
 21
4457.817390873141
 31
0.0
  0
LINE
  5
17F4E
330
747D
100
AcDbEntity
  8
細線
100
AcDbLine
 10
6600.67305712366
 20
4480.817390873141
 30
0.0
 11
6674.673057123661
 21
4480.817390873141
 31
0.0
  0
LINE
  5
17F4F
330
747D
100
AcDbEntity
  8
細線
100
AcDbLine
 10
6600.67305712366
 20
4457.817390873141
 30
0.0
 11
6600.67305712366
 21
4480.817390873141
 31
0.0
  0
LINE
  5
17F50
330
747D
100
AcDbEntity
  8
細線
100
AcDbLine
 10
6748.67305712366
 20
4480.817390873141
 30
0.0
 11
6748.67305712366
 21
4457.817390873141
 31
0.0
  0
LINE
  5
17F51
330
747D
100
AcDbEntity
  8
部品1
 48
0.01
100
AcDbLine
 10
6584.67305712366
 20
4453.81739087314
 30
0.0
 11
6584.67305712366
 21
4485.317390873141
 31
0.0
  0
LINE
  5
17F52
330
747D
100
AcDbEntity
  8
部品1
 48
0.01
100
AcDbLine
 10
6764.67305712366
 20
4485.317390873141
 30
0.0
 11
6764.67305712366
 21
4453.81739087314
 31
0.0
  0
LINE
  5
17F53
330
747D
100
AcDbEntity
  8
部品1
 48
0.01
100
AcDbLine
 10
6586.67305712366
 20
4487.31739087314
 30
0.0
 11
6762.67305712366
 21
4487.31739087314
 31
0.0
  0
LINE
  5
17F54
330
747D
100
AcDbEntity
  8
細線
100
AcDbLine
 10
6748.67305712366
 20
4474.81739087314
 30
0.0
 11
6674.673057123661
 21
4474.81739087314
 31
0.0
  0
LINE
  5
17F55
330
747D
100
AcDbEntity
  8
細線
100
AcDbLine
 10
6748.67305712366
 20
4468.81739087314
 30
0.0
 11
6674.673057123661
 21
4468.81739087314
 31
0.0
  0
LINE
  5
17F56
330
747D
100
AcDbEntity
  8
細線
100
AcDbLine
 10
6748.67305712366
 20
4462.81739087314
 30
0.0
 11
6674.673057123661
 21
4462.81739087314
 31
0.0
  0
LINE
  5
17F57
330
747D
100
AcDbEntity
  8
細線
100
AcDbLine
 10
6748.67305712366
 20
4474.81739087314
 30
0.0
 11
6679.673057123661
 21
4474.81739087314
 31
0.0
  0
LINE
  5
17F58
330
747D
100
AcDbEntity
  8
細線
100
AcDbLine
 10
6600.67305712366
 20
4474.81739087314
 30
0.0
 11
6674.673057123661
 21
4474.81739087314
 31
0.0
  0
LINE
  5
17F59
330
747D
100
AcDbEntity
  8
細線
100
AcDbLine
 10
6600.67305712366
 20
4462.81739087314
 30
0.0
 11
6674.673057123661
 21
4462.81739087314
 31
0.0
  0
LINE
  5
17F5A
330
747D
100
AcDbEntity
  8
細線
100
AcDbLine
 10
6600.67305712366
 20
4468.81739087314
 30
0.0
 11
6674.673057123661
 21
4468.81739087314
 31
0.0
  0
LINE
  5
17F5B
330
747D
100
AcDbEntity
  8
細線
100
AcDbLine
 10
6674.673057123661
 20
4480.817390873141
 30
0.0
 11
6674.673057123661
 21
4457.817390873141
 31
0.0
  0
LINE
  5
17F5C
330
747D
100
AcDbEntity
  8
細線
100
AcDbLine
 10
5444.673057123661
 20
4480.817390873141
 30
0.0
 11
5444.673057123657
 21
4457.817390873141
 31
0.0
  0
LINE
  5
17F5D
330
747D
100
AcDbEntity
  8
細線
100
AcDbLine
 10
5518.673057123656
 20
4468.81739087314
 30
0.0
 11
5444.673057123661
 21
4468.81739087314
 31
0.0
  0
LINE
  5
17F5E
330
747D
100
AcDbEntity
  8
細線
100
AcDbLine
 10
5518.673057123656
 20
4462.81739087314
 30
0.0
 11
5444.673057123661
 21
4462.81739087314
 31
0.0
  0
LINE
  5
17F5F
330
747D
100
AcDbEntity
  8
細線
100
AcDbLine
 10
5518.673057123656
 20
4474.81739087314
 30
0.0
 11
5444.673057123661
 21
4474.81739087314
 31
0.0
  0
LINE
  5
17F60
330
747D
100
AcDbEntity
  8
細線
100
AcDbLine
 10
5370.67305712366
 20
4474.81739087314
 30
0.0
 11
5439.67305712366
 21
4474.81739087314
 31
0.0
  0
LINE
  5
17F61
330
747D
100
AcDbEntity
  8
細線
100
AcDbLine
 10
5370.673057123656
 20
4462.81739087314
 30
0.0
 11
5444.673057123661
 21
4462.81739087314
 31
0.0
  0
LINE
  5
17F62
330
747D
100
AcDbEntity
  8
細線
100
AcDbLine
 10
5370.67305712366
 20
4468.81739087314
 30
0.0
 11
5444.673057123661
 21
4468.81739087314
 31
0.0
  0
LINE
  5
17F63
330
747D
100
AcDbEntity
  8
細線
100
AcDbLine
 10
5370.67305712366
 20
4474.81739087314
 30
0.0
 11
5444.673057123661
 21
4474.81739087314
 31
0.0
  0
LINE
  5
17F64
330
747D
100
AcDbEntity
  8
部品1
 48
0.01
100
AcDbLine
 10
5532.67305712366
 20
4487.31739087314
 30
0.0
 11
5356.673057123661
 21
4487.31739087314
 31
0.0
  0
LINE
  5
17F65
330
747D
100
AcDbEntity
  8
部品1
 48
0.01
100
AcDbLine
 10
5354.67305712366
 20
4485.317390873141
 30
0.0
 11
5354.67305712366
 21
4453.81739087314
 31
0.0
  0
LINE
  5
17F66
330
747D
100
AcDbEntity
  8
部品1
 48
0.01
100
AcDbLine
 10
5534.673057123657
 20
4453.81739087314
 30
0.0
 11
5534.673057123661
 21
4485.317390873141
 31
0.0
  0
LINE
  5
17F67
330
747D
100
AcDbEntity
  8
細線
100
AcDbLine
 10
5370.67305712366
 20
4480.817390873141
 30
0.0
 11
5370.67305712366
 21
4457.817390873141
 31
0.0
  0
LINE
  5
17F68
330
747D
100
AcDbEntity
  8
細線
100
AcDbLine
 10
5518.67305712366
 20
4457.817390873141
 30
0.0
 11
5518.67305712366
 21
4480.817390873141
 31
0.0
  0
LINE
  5
17F69
330
747D
100
AcDbEntity
  8
細線
100
AcDbLine
 10
5518.67305712366
 20
4480.817390873141
 30
0.0
 11
5444.673057123661
 21
4480.817390873141
 31
0.0
  0
LINE
  5
17F6A
330
747D
100
AcDbEntity
  8
細線
100
AcDbLine
 10
5370.67305712366
 20
4457.817390873141
 30
0.0
 11
5444.673057123661
 21
4457.817390873141
 31
0.0
  0
LINE
  5
17F6B
330
747D
100
AcDbEntity
  8
細線
100
AcDbLine
 10
5444.673057123661
 20
4480.817390873141
 30
0.0
 11
5370.67305712366
 21
4480.817390873141
 31
0.0
  0
LINE
  5
17F6C
330
747D
100
AcDbEntity
  8
細線
100
AcDbLine
 10
5444.673057123657
 20
4457.817390873141
 30
0.0
 11
5518.67305712366
 21
4457.817390873141
 31
0.0
  0
ARC
  5
17F6D
330
747D
100
AcDbEntity
  8
部品1
 48
0.01
100
AcDbCircle
 10
5356.673057123661
 20
4485.317390873141
 30
0.0
 40
2.0
100
AcDbArc
 50
90.0
 51
180.0
  0
ARC
  5
17F6E
330
747D
100
AcDbEntity
  8
部品1
 48
0.01
100
AcDbCircle
 10
5532.67305712366
 20
4485.317390873141
 30
0.0
 40
2.0
100
AcDbArc
 50
0.0
 51
90.0
  0
LINE
  5
18127
330
747D
100
AcDbEntity
  8
破線
 48
5.0
100
AcDbLine
 10
4847.673057123658
 20
2281.317390873141
 30
0.0
 11
4847.673057123656
 21
2031.317390873146
 31
0.0
  0
LINE
  5
18128
330
747D
100
AcDbEntity
  8
破線
 48
5.0
100
AcDbLine
 10
4847.673057123658
 20
2281.317390873141
 30
0.0
 11
4847.673057123656
 21
2031.317390873146
 31
0.0
  0
LINE
  5
18129
330
747D
100
AcDbEntity
  8
破線
 48
5.0
100
AcDbLine
 10
4847.673057123657
 20
2031.317390873146
 30
0.0
 11
4799.673057123656
 21
2031.317390873146
 31
0.0
  0
LINE
  5
1812A
330
747D
100
AcDbEntity
  8
破線
 48
5.0
100
AcDbLine
 10
4847.673057123657
 20
2031.317390873146
 30
0.0
 11
4799.673057123656
 21
2031.317390873146
 31
0.0
  0
LINE
  5
1812B
330
747D
100
AcDbEntity
  8
破線
 48
5.0
100
AcDbLine
 10
4799.673057123656
 20
1931.317390873148
 30
0.0
 11
4744.673057123656
 21
1931.317390873148
 31
0.0
  0
LINE
  5
1812C
330
747D
100
AcDbEntity
  8
破線
 48
5.0
100
AcDbLine
 10
4744.673057123658
 20
2181.317390873141
 30
0.0
 11
4744.673057123656
 21
1931.317390873141
 31
0.0
  0
LINE
  5
1812D
330
747D
100
AcDbEntity
  8
破線
 48
5.0
100
AcDbLine
 10
4799.673057123658
 20
2281.317390873141
 30
0.0
 11
4799.673057123657
 21
1931.317390873141
 31
0.0
  0
LINE
  5
1812E
330
747D
100
AcDbEntity
  8
破線
 48
5.0
100
AcDbLine
 10
4799.673057123658
 20
2281.317390873141
 30
0.0
 11
4799.673057123657
 21
1931.317390873141
 31
0.0
  0
LINE
  5
1812F
330
747D
100
AcDbEntity
  8
破線
 48
5.0
100
AcDbLine
 10
7319.67305712366
 20
2031.317390873141
 30
0.0
 11
7271.673057123658
 21
2031.317390873141
 31
0.0
  0
LINE
  5
18130
330
747D
100
AcDbEntity
  8
破線
 48
5.0
100
AcDbLine
 10
7271.673057123655
 20
2281.317390873141
 30
0.0
 11
7271.673057123658
 21
2031.317390873141
 31
0.0
  0
LINE
  5
18131
330
747D
100
AcDbEntity
  8
破線
 48
5.0
100
AcDbLine
 10
7374.673057123655
 20
1931.317390873141
 30
0.0
 11
7319.673057123657
 21
1931.317390873141
 31
0.0
  0
LINE
  5
18132
330
747D
100
AcDbEntity
  8
破線
 48
5.0
100
AcDbLine
 10
7374.673057123658
 20
2181.317390873141
 30
0.0
 11
7374.673057123658
 21
1931.317390873141
 31
0.0
  0
LINE
  5
18133
330
747D
100
AcDbEntity
  8
破線
 48
5.0
100
AcDbLine
 10
7319.673057123655
 20
2281.317390873141
 30
0.0
 11
7319.673057123657
 21
1931.317390873141
 31
0.0
  0
TEXT
  5
1815B
330
747D
100
AcDbEntity
  8
文字
 62
     7
 48
50.0
100
AcDbText
 10
15022.63965474516
 20
9230.013745883725
 30
0.0
 40
100.0
  1
F12            0.7
  7
STYLE1
100
AcDbText
  0
TEXT
  5
1815C
330
747D
100
AcDbEntity
  8
文字
 62
     7
 48
50.0
100
AcDbText
 10
15022.63965474515
 20
9400.013745883725
 30
0.0
 40
100.0
  1
Z08            0.5
  7
STYLE1
100
AcDbText
  0
TEXT
  5
1815D
330
747D
100
AcDbEntity
  8
文字
 62
     7
 48
50.0
100
AcDbText
 10
13583.11819016569
 20
9400.013745883729
 30
0.0
 40
100.0
  1
シャッター
  7
STYLE1
100
AcDbText
  0
ENDSEC
  0
SECTION
  2
OBJECTS
  0
DICTIONARY
  5
7471
330
0
100
AcDbDictionary
281
     1
  3
ACAD_COLOR
350
16605
  3
ACAD_GROUP
350
7472
  3
ACAD_LAYOUT
350
16606
  3
ACAD_MATERIAL
350
16604
  3
ACAD_MLINESTYLE
350
7473
  3
ACAD_PLOTSETTINGS
350
16607
  3
ACAD_PLOTSTYLENAME
350
16602
  3
ACDBHEADERROUNDTRIPXREC
350
181E1
  3
AcDbVariableDictionary
350
181DD
  3
CONTENTDICTIONARY
350
E71C
  3
DRAWINGVARIABLESDICT
350
F3B9
  0
DICTIONARY
  5
16952
330
7467
100
AcDbDictionary
280
     1
281
     1
  3
ACAD_LAYERSTATES
360
16953
  0
DICTIONARY
  5
16605
102
{ACAD_REACTORS
330
7471
102
}
330
7471
100
AcDbDictionary
281
     1
  0
DICTIONARY
  5
7472
102
{ACAD_REACTORS
330
7471
102
}
330
7471
100
AcDbDictionary
281
     1
  0
DICTIONARY
  5
16606
102
{ACAD_REACTORS
330
7471
102
}
330
7471
100
AcDbDictionary
281
     1
  3
Model
350
16608
  3
レイアウト1
350
16609
  0
DICTIONARY
  5
16604
102
{ACAD_REACTORS
330
7471
102
}
330
7471
100
AcDbDictionary
281
     1
  0
DICTIONARY
  5
7473
102
{ACAD_REACTORS
330
7471
102
}
330
7471
100
AcDbDictionary
281
     1
  3
STANDARD
350
7480
  0
DICTIONARY
  5
16607
102
{ACAD_REACTORS
330
7471
102
}
330
7471
100
AcDbDictionary
281
     1
  0
ACDBDICTIONARYWDFLT
  5
16602
102
{ACAD_REACTORS
330
7471
102
}
330
7471
100
AcDbDictionary
281
     1
  3
Normal
350
16603
100
AcDbDictionaryWithDefault
340
16603
  0
DICTIONARY
  5
181E1
102
{ACAD_REACTORS
330
7471
102
}
330
7471
100
AcDbDictionary
281
     1
  3
COLORDICT
350
181E3
  3
MATERIALDICT
350
181E2
  0
DICTIONARY
  5
181DD
102
{ACAD_REACTORS
330
7471
102
}
330
7471
100
AcDbDictionary
281
     1
  3
DIMASSOC
350
181DE
  3
PROJECTNAME
350
181DF
  0
DICTIONARY
  5
E71C
102
{ACAD_REACTORS
330
7471
102
}
330
7471
100
AcDbDictionary
281
     1
  0
DICTIONARY
  5
F3B9
102
{ACAD_REACTORS
330
7471
102
}
330
7471
100
AcDbDictionary
281
     1
1001
DRAWINGVARIABLESXDATA
1000
POLARMODE
1000
1
  0
DICTIONARY
  5
16953
102
{ACAD_REACTORS
330
16952
102
}
330
16952
100
AcDbDictionary
281
     1
  0
LAYOUT
  5
16608
102
{ACAD_XDICTIONARY
360
181E4
102
}
102
{ACAD_REACTORS
330
16606
102
}
330
16606
100
AcDbPlotSettings
  1

  2
クセロPDF
  4
A3
  6

 40
3.174999999999999
 41
3.174999999999999
 42
3.174987999999999
 43
3.174987999999999
 44
419.946655
 45
296.925995
 46
0.0
 47
0.0
 48
0.0
 49
0.0
140
0.0
141
0.0
142
1.0
143
40.44561299368567
 70
 11952
 72
     1
 73
     0
 74
     2
  7
inaba.ctb
 75
     0
147
0.0247245603659442
148
183.0179068595971
149
160.3342785227505
100
AcDbLayout
  1
Model
 70
     1
 71
     0
 10
0.0
 20
0.0
 11
12.0
 21
9.0
 12
0.0
 22
0.0
 32
0.0
 14
0.0
 24
0.0
 34
0.0
 15
0.0
 25
0.0
 35
0.0
146
0.0
 13
0.0
 23
0.0
 33
0.0
 16
1.0
 26
0.0
 36
0.0
 17
0.0
 27
1.0
 37
0.0
 76
     0
330
747D
  0
LAYOUT
  5
16609
102
{ACAD_XDICTIONARY
360
181E6
102
}
102
{ACAD_REACTORS
330
16606
102
}
330
16606
100
AcDbPlotSettings
  1

  2
EPSON LP-8300
  4

  6

 40
0.0
 41
0.0
 42
0.0
 43
0.0
 44
0.0
 45
0.0
 46
0.0
 47
0.0
 48
0.0
 49
0.0
140
0.0
141
0.0
142
1.0
143
1.0
 70
   688
 72
     0
 73
     0
 74
     5
  7
inaba.ctb
 75
    16
147
1.0
148
0.0
149
0.0
100
AcDbLayout
  1
レイアウト1
 70
     0
 71
     1
 10
0.0
 20
0.0
 11
420.0
 21
297.0
 12
0.0
 22
0.0
 32
0.0
 14
1.000000000000000E+20
 24
1.000000000000000E+20
 34
1.000000000000000E+20
 15
-1.000000000000000E+20
 25
-1.000000000000000E+20
 35
-1.000000000000000E+20
146
0.0
 13
0.0
 23
0.0
 33
0.0
 16
1.0
 26
0.0
 36
0.0
 17
0.0
 27
1.0
 37
0.0
 76
     0
330
747A
  0
MLINESTYLE
  5
7480
102
{ACAD_REACTORS
330
7473
102
}
330
7473
100
AcDbMlineStyle
  2
STANDARD
 70
     0
  3

 62
     0
 51
90.0
 52
90.0
 71
     2
 49
0.5
 62
   256
  6
BYLAYER
 49
-0.5
 62
   256
  6
BYLAYER
  0
ACDBPLACEHOLDER
  5
16603
102
{ACAD_REACTORS
330
16602
102
}
330
16602
  0
XRECORD
  5
181E3
102
{ACAD_REACTORS
330
181E1
102
}
330
181E1
100
AcDbXrecord
280
     1
340
16605
  0
XRECORD
  5
181E2
102
{ACAD_REACTORS
330
181E1
102
}
330
181E1
100
AcDbXrecord
280
     1
340
16604
  0
DICTIONARYVAR
  5
181DE
102
{ACAD_REACTORS
330
181DD
102
}
330
181DD
100
DictionaryVariables
280
     0
  1
1
  0
DICTIONARYVAR
  5
181DF
102
{ACAD_REACTORS
330
181DD
102
}
330
181DD
100
DictionaryVariables
280
     0
  1

  0
DICTIONARY
  5
181E4
330
16608
100
AcDbDictionary
280
     1
281
     1
  3
ACAD_XREC_ROUNDTRIP
360
181E5
  0
DICTIONARY
  5
181E6
330
16609
100
AcDbDictionary
280
     1
281
     1
  3
ACAD_XREC_ROUNDTRIP
360
181E7
  0
XRECORD
  5
181E5
102
{ACAD_REACTORS
330
181E4
102
}
330
181E4
100
AcDbXrecord
280
     1
102
SHADEPLOT
 70
     1
102
SHADEPLOTRESLEVEL
 70
     2
102
SHADEPLOTCUSTOMDPI
 70
   300
  0
XRECORD
  5
181E7
102
{ACAD_REACTORS
330
181E6
102
}
330
181E6
100
AcDbXrecord
280
     1
102
SHADEPLOT
 70
     0
102
SHADEPLOTRESLEVEL
 70
     2
102
SHADEPLOTCUSTOMDPI
 70
   300
  0
ENDSEC
  0
EOF
