  0
SECTION
  2
HEADER
  9
$ACADVER
  1
AC1015
  9
$ACADMAINTVER
 70
    20
  9
$DWGCODEPAGE
  3
ANSI_932
  9
$INSBASE
 10
0.0
 20
0.0
 30
0.0
  9
$EXTMIN
 10
139.9999999999995
 20
-0.0000000000000909
 30
0.0
  9
$EXTMAX
 10
16307.2
 20
11409.6
 30
0.0
  9
$LIMMIN
 10
0.0
 20
0.0
  9
$LIMMAX
 10
16800.0
 20
11880.0
  9
$ORTHOMODE
 70
     0
  9
$REGENMODE
 70
     1
  9
$FILLMODE
 70
     1
  9
$QTEXTMODE
 70
     0
  9
$MIRRTEXT
 70
     1
  9
$LTSCALE
 40
20.0
  9
$ATTMODE
 70
     1
  9
$TEXTSIZE
 40
100.0
  9
$TRACEWID
 40
1.0
  9
$TEXTSTYLE
  7
STYLE2
  9
$CLAYER
  8
部品1
  9
$CELTYPE
  6
BYLAYER
  9
$CECOLOR
 62
   256
  9
$CELTSCALE
 40
50.0
  9
$DISPSILH
 70
     0
  9
$DIMSCALE
 40
40.0
  9
$DIMASZ
 40
2.5
  9
$DIMEXO
 40
0.5
  9
$DIMDLI
 40
7.0
  9
$DIMRND
 40
0.0
  9
$DIMDLE
 40
0.0
  9
$DIMEXE
 40
1.5
  9
$DIMTP
 40
0.0
  9
$DIMTM
 40
0.0
  9
$DIMTXT
 40
3.0
  9
$DIMCEN
 40
0.0
  9
$DIMTSZ
 40
0.0
  9
$DIMTOL
 70
     0
  9
$DIMLIM
 70
     0
  9
$DIMTIH
 70
     0
  9
$DIMTOH
 70
     0
  9
$DIMSE1
 70
     0
  9
$DIMSE2
 70
     0
  9
$DIMTAD
 70
     3
  9
$DIMZIN
 70
     8
  9
$DIMBLK
  1

  9
$DIMASO
 70
     1
  9
$DIMSHO
 70
     1
  9
$DIMPOST
  1

  9
$DIMAPOST
  1

  9
$DIMALT
 70
     0
  9
$DIMALTD
 70
     2
  9
$DIMALTF
 40
0.0394
  9
$DIMLFAC
 40
1.0
  9
$DIMTOFL
 70
     1
  9
$DIMTVP
 40
0.0
  9
$DIMTIX
 70
     1
  9
$DIMSOXD
 70
     0
  9
$DIMSAH
 70
     1
  9
$DIMBLK1
  1
DOTSMALL
  9
$DIMBLK2
  1
DOTSMALL
  9
$DIMSTYLE
  2
INABA_S40G
  9
$DIMCLRD
 70
     0
  9
$DIMCLRE
 70
     0
  9
$DIMCLRT
 70
     7
  9
$DIMTFAC
 40
1.0
  9
$DIMGAP
 40
1.0
  9
$DIMJUST
 70
     0
  9
$DIMSD1
 70
     0
  9
$DIMSD2
 70
     0
  9
$DIMTOLJ
 70
     1
  9
$DIMTZIN
 70
     0
  9
$DIMALTZ
 70
     0
  9
$DIMALTTZ
 70
     0
  9
$DIMUPT
 70
     0
  9
$DIMDEC
 70
     1
  9
$DIMTDEC
 70
     4
  9
$DIMALTU
 70
     2
  9
$DIMALTTD
 70
     2
  9
$DIMTXSTY
  7
STYLE1
  9
$DIMAUNIT
 70
     0
  9
$DIMADEC
 70
     0
  9
$DIMALTRND
 40
0.0
  9
$DIMAZIN
 70
     0
  9
$DIMDSEP
 70
    46
  9
$DIMATFIT
 70
     3
  9
$DIMFRAC
 70
     0
  9
$DIMLDRBLK
  1

  9
$DIMLUNIT
 70
     2
  9
$DIMLWD
 70
    -2
  9
$DIMLWE
 70
    -2
  9
$DIMTMOVE
 70
     2
  9
$LUNITS
 70
     2
  9
$LUPREC
 70
     1
  9
$SKETCHINC
 40
1.0
  9
$FILLETRAD
 40
3.0
  9
$AUNITS
 70
     0
  9
$AUPREC
 70
     0
  9
$MENU
  1
acad
  9
$ELEVATION
 40
0.0
  9
$PELEVATION
 40
0.0
  9
$THICKNESS
 40
0.0
  9
$LIMCHECK
 70
     0
  9
$CHAMFERA
 40
0.0
  9
$CHAMFERB
 40
0.0
  9
$CHAMFERC
 40
0.0
  9
$CHAMFERD
 40
0.0
  9
$SKPOLY
 70
     0
  9
$TDCREATE
 40
2451368.612993866
  9
$TDUCREATE
 40
2451368.237993866
  9
$TDUPDATE
 40
2455569.622693137
  9
$TDUUPDATE
 40
2455569.247693137
  9
$TDINDWG
 40
1.1716432639
  9
$TDUSRTIMER
 40
1.1716432639
  9
$USRTIMER
 70
     1
  9
$ANGBASE
 50
0.0
  9
$ANGDIR
 70
     0
  9
$PDMODE
 70
     3
  9
$PDSIZE
 40
2.0
  9
$PLINEWID
 40
0.0
  9
$SPLFRAME
 70
     0
  9
$SPLINETYPE
 70
     6
  9
$SPLINESEGS
 70
     8
  9
$HANDSEED
  5
1C36C
  9
$SURFTAB1
 70
     6
  9
$SURFTAB2
 70
     6
  9
$SURFTYPE
 70
     6
  9
$SURFU
 70
     6
  9
$SURFV
 70
     6
  9
$UCSBASE
  2

  9
$UCSNAME
  2

  9
$UCSORG
 10
0.0
 20
0.0
 30
0.0
  9
$UCSXDIR
 10
1.0
 20
0.0
 30
0.0
  9
$UCSYDIR
 10
0.0
 20
1.0
 30
0.0
  9
$UCSORTHOREF
  2

  9
$UCSORTHOVIEW
 70
     0
  9
$UCSORGTOP
 10
0.0
 20
0.0
 30
0.0
  9
$UCSORGBOTTOM
 10
0.0
 20
0.0
 30
0.0
  9
$UCSORGLEFT
 10
0.0
 20
0.0
 30
0.0
  9
$UCSORGRIGHT
 10
0.0
 20
0.0
 30
0.0
  9
$UCSORGFRONT
 10
0.0
 20
0.0
 30
0.0
  9
$UCSORGBACK
 10
0.0
 20
0.0
 30
0.0
  9
$PUCSBASE
  2

  9
$PUCSNAME
  2

  9
$PUCSORG
 10
0.0
 20
0.0
 30
0.0
  9
$PUCSXDIR
 10
1.0
 20
0.0
 30
0.0
  9
$PUCSYDIR
 10
0.0
 20
1.0
 30
0.0
  9
$PUCSORTHOREF
  2

  9
$PUCSORTHOVIEW
 70
     0
  9
$PUCSORGTOP
 10
0.0
 20
0.0
 30
0.0
  9
$PUCSORGBOTTOM
 10
0.0
 20
0.0
 30
0.0
  9
$PUCSORGLEFT
 10
0.0
 20
0.0
 30
0.0
  9
$PUCSORGRIGHT
 10
0.0
 20
0.0
 30
0.0
  9
$PUCSORGFRONT
 10
0.0
 20
0.0
 30
0.0
  9
$PUCSORGBACK
 10
0.0
 20
0.0
 30
0.0
  9
$USERI1
 70
     0
  9
$USERI2
 70
     0
  9
$USERI3
 70
     0
  9
$USERI4
 70
     0
  9
$USERI5
 70
     0
  9
$USERR1
 40
0.0
  9
$USERR2
 40
0.0
  9
$USERR3
 40
0.0
  9
$USERR4
 40
0.0
  9
$USERR5
 40
0.0
  9
$WORLDVIEW
 70
     1
  9
$SHADEDGE
 70
     3
  9
$SHADEDIF
 70
    70
  9
$TILEMODE
 70
     1
  9
$MAXACTVP
 70
    16
  9
$PINSBASE
 10
0.0
 20
0.0
 30
0.0
  9
$PLIMCHECK
 70
     0
  9
$PEXTMIN
 10
1.000000000000000E+20
 20
1.000000000000000E+20
 30
1.000000000000000E+20
  9
$PEXTMAX
 10
-1.000000000000000E+20
 20
-1.000000000000000E+20
 30
-1.000000000000000E+20
  9
$PLIMMIN
 10
0.0
 20
0.0
  9
$PLIMMAX
 10
420.0
 20
297.0
  9
$UNITMODE
 70
     0
  9
$VISRETAIN
 70
     0
  9
$PLINEGEN
 70
     0
  9
$PSLTSCALE
 70
     0
  9
$TREEDEPTH
 70
  3020
  9
$CMLSTYLE
  2
STANDARD
  9
$CMLJUST
 70
     0
  9
$CMLSCALE
 40
1.0
  9
$PROXYGRAPHICS
 70
     1
  9
$MEASUREMENT
 70
     1
  9
$CELWEIGHT
370
    -1
  9
$ENDCAPS
280
     0
  9
$JOINSTYLE
280
     0
  9
$LWDISPLAY
290
     0
  9
$INSUNITS
 70
     0
  9
$HYPERLINKBASE
  1

  9
$STYLESHEET
  1

  9
$XEDIT
290
     1
  9
$CEPSNTYPE
380
     0
  9
$PSTYLEMODE
290
     1
  9
$FINGERPRINTGUID
  2
{635AB1AC-4621-47C8-8048-FCD263B53B5B}
  9
$VERSIONGUID
  2
{92E8CDE7-7E29-44A7-A222-D1A79A598440}
  9
$EXTNAMES
290
     1
  9
$PSVPSCALE
 40
0.0
  9
$OLESTARTUP
290
     0
  0
ENDSEC
  0
SECTION
  2
CLASSES
  0
CLASS
  1
ACDBDICTIONARYWDFLT
  2
AcDbDictionaryWithDefault
  3
ObjectDBX Classes
 90
        0
280
     0
281
     0
  0
CLASS
  1
DICTIONARYVAR
  2
AcDbDictionaryVar
  3
ObjectDBX Classes
 90
        0
280
     0
281
     0
  0
CLASS
  1
ACDBPLACEHOLDER
  2
AcDbPlaceHolder
  3
ObjectDBX Classes
 90
        0
280
     0
281
     0
  0
CLASS
  1
LAYOUT
  2
AcDbLayout
  3
ObjectDBX Classes
 90
        0
280
     0
281
     0
  0
ENDSEC
  0
SECTION
  2
TABLES
  0
TABLE
  2
VPORT
  5
746D
330
0
100
AcDbSymbolTable
 70
     2
  0
VPORT
  5
1C364
330
746D
100
AcDbSymbolTableRecord
100
AcDbViewportTableRecord
  2
*Active
 70
     0
 10
0.0
 20
0.0
 11
1.0
 21
1.0
 12
8223.761025238504
 22
5958.807553215734
 13
0.0
 23
0.0
 14
10.0
 24
10.0
 15
10.0
 25
10.0
 16
0.0
 26
0.0
 36
1.0
 17
0.0
 27
0.0
 37
0.0
 40
12025.6196116811
 41
1.627450980392157
 42
50.0
 43
0.0
 44
0.0
 50
0.0
 51
0.0
 71
     0
 72
     0
 73
     1
 74
     0
 75
     0
 76
     0
 77
     0
 78
     0
281
     0
 65
     1
110
0.0
120
0.0
130
0.0
111
1.0
121
0.0
131
0.0
112
0.0
122
1.0
132
0.0
 79
     0
146
0.0
  0
ENDTAB
  0
TABLE
  2
LTYPE
  5
746A
330
0
100
AcDbSymbolTable
 70
     3
  0
LTYPE
  5
7477
330
746A
100
AcDbSymbolTableRecord
100
AcDbLinetypeTableRecord
  2
BYBLOCK
 70
     0
  3

 72
    65
 73
     0
 40
0.0
  0
LTYPE
  5
7478
330
746A
100
AcDbSymbolTableRecord
100
AcDbLinetypeTableRecord
  2
BYLAYER
 70
     0
  3

 72
    65
 73
     0
 40
0.0
  0
LTYPE
  5
7479
330
746A
100
AcDbSymbolTableRecord
100
AcDbLinetypeTableRecord
  2
CONTINUOUS
 70
     0
  3
Solid line
 72
    65
 73
     0
 40
0.0
  0
LTYPE
  5
781A
330
746A
100
AcDbSymbolTableRecord
100
AcDbLinetypeTableRecord
  2
HIDDEN
 70
     0
  3
__ __ __ __ __ __ __ __ __ __ __ __ __ __ __ __
 72
    65
 73
     2
 40
0.375
 49
0.25
 74
     0
 49
-0.125
 74
     0
  0
LTYPE
  5
781B
330
746A
100
AcDbSymbolTableRecord
100
AcDbLinetypeTableRecord
  2
PHANTOM
 70
     0
  3
______  __  __  ______  __  __  ______  __  __ 
 72
    65
 73
     6
 40
2.5
 49
1.25
 74
     0
 49
-0.25
 74
     0
 49
0.25
 74
     0
 49
-0.25
 74
     0
 49
0.25
 74
     0
 49
-0.25
 74
     0
  0
ENDTAB
  0
TABLE
  2
LAYER
  5
7467
102
{ACAD_XDICTIONARY
360
1A6FE
102
}
330
0
100
AcDbSymbolTable
 70
    10
  0
LAYER
  5
7474
330
7467
100
AcDbSymbolTableRecord
100
AcDbLayerTableRecord
  2
0
 70
     0
 62
     7
  6
CONTINUOUS
370
    -3
390
1A3E6
  0
LAYER
  5
DEB3
330
7467
100
AcDbSymbolTableRecord
100
AcDbLayerTableRecord
  2
寸法
 70
     0
 62
     4
  6
CONTINUOUS
370
    -3
390
1A3E6
  0
LAYER
  5
DEB4
330
7467
100
AcDbSymbolTableRecord
100
AcDbLayerTableRecord
  2
部品1
 70
     0
 62
     7
  6
CONTINUOUS
370
    -3
390
1A3E6
  0
LAYER
  5
DEB5
330
7467
100
AcDbSymbolTableRecord
100
AcDbLayerTableRecord
  2
補助
 70
     0
 62
    -1
  6
CONTINUOUS
370
    -3
390
1A3E6
  0
LAYER
  5
DEB6
330
7467
100
AcDbSymbolTableRecord
100
AcDbLayerTableRecord
  2
文字
 70
     0
 62
     7
  6
CONTINUOUS
370
    -3
390
1A3E6
  0
LAYER
  5
F255
330
7467
100
AcDbSymbolTableRecord
100
AcDbLayerTableRecord
  2
DEFPOINTS
 70
     0
 62
     7
  6
CONTINUOUS
290
     0
370
    -3
390
1A3E6
  0
LAYER
  5
10B54
330
7467
100
AcDbSymbolTableRecord
100
AcDbLayerTableRecord
  2
仕様書枠
 70
     0
 62
   230
  6
CONTINUOUS
370
    -3
390
1A3E6
  0
LAYER
  5
11729
330
7467
100
AcDbSymbolTableRecord
100
AcDbLayerTableRecord
  2
Ｇ．Ｌ
 70
     0
 62
    30
  6
CONTINUOUS
370
    -3
390
1A3E6
  0
LAYER
  5
1173F
330
7467
100
AcDbSymbolTableRecord
100
AcDbLayerTableRecord
  2
細線
 70
     0
 62
     5
  6
CONTINUOUS
370
    -3
390
1A3E6
  0
LAYER
  5
142E2
330
7467
100
AcDbSymbolTableRecord
100
AcDbLayerTableRecord
  2
破線
 70
     0
 62
     2
  6
HIDDEN
370
    -3
390
1A3E6
  0
ENDTAB
  0
TABLE
  2
STYLE
  5
7468
330
0
100
AcDbSymbolTable
 70
     4
  0
STYLE
  5
7475
330
7468
100
AcDbSymbolTableRecord
100
AcDbTextStyleTableRecord
  2
STANDARD
 70
     0
 40
0.0
 41
1.0
 50
0.0
 71
     0
 42
4.0
  3
txt
  4
C:\AutoCAD LT\bigfont.shx
  0
STYLE
  5
763C
330
7468
100
AcDbSymbolTableRecord
100
AcDbTextStyleTableRecord
  2
MSMINCHO
 70
     0
 40
0.0
 41
1.0
 50
0.0
 71
     0
 42
1.199999999999999
  3
C:\AutoCAD LT\msminch2.TTF
  4

  0
STYLE
  5
F706
330
7468
100
AcDbSymbolTableRecord
100
AcDbTextStyleTableRecord
  2
STYLE1
 70
     0
 40
0.0
 41
1.0
 50
0.0
 71
     0
 42
120.0
  3
isocp.shx
  4
bigfont.shx
  0
STYLE
  5
103BF
330
7468
100
AcDbSymbolTableRecord
100
AcDbTextStyleTableRecord
  2
STYLE2
 70
     0
 40
0.0
 41
1.0
 50
0.0
 71
     0
 42
100.0
  3
MS PGothic.ttf
  4

1001
ACAD
1000
MS PGothic
1071
    32818
  0
ENDTAB
  0
TABLE
  2
VIEW
  5
746B
330
0
100
AcDbSymbolTable
 70
     0
  0
ENDTAB
  0
TABLE
  2
UCS
  5
746C
330
0
100
AcDbSymbolTable
 70
     0
  0
ENDTAB
  0
TABLE
  2
APPID
  5
746E
330
0
100
AcDbSymbolTable
 70
     6
  0
APPID
  5
7476
330
746E
100
AcDbSymbolTableRecord
100
AcDbRegAppTableRecord
  2
ACAD
 70
     0
  0
APPID
  5
DEA9
330
746E
100
AcDbSymbolTableRecord
100
AcDbRegAppTableRecord
  2
CONTENTBLOCKICON
 70
     0
  0
APPID
  5
DEAA
330
746E
100
AcDbSymbolTableRecord
100
AcDbRegAppTableRecord
  2
CONTENTBLOCKDESCRIPTION
 70
     0
  0
APPID
  5
E71D
330
746E
100
AcDbSymbolTableRecord
100
AcDbRegAppTableRecord
  2
CONTENTTABDATA
 70
     0
  0
APPID
  5
E71E
330
746E
100
AcDbSymbolTableRecord
100
AcDbRegAppTableRecord
  2
CONTENTCURRENTTAB
 70
     0
  0
APPID
  5
F3BA
330
746E
100
AcDbSymbolTableRecord
100
AcDbRegAppTableRecord
  2
DRAWINGVARIABLESXDATA
 70
     0
  0
ENDTAB
  0
TABLE
  2
DIMSTYLE
  5
746F
330
0
100
AcDbSymbolTable
 70
     2
100
AcDbDimStyleTable
 71
     1
340
F71F
  0
DIMSTYLE
105
F71F
102
{ACAD_REACTORS
330
162CD
330
162CE
330
162CF
330
162D0
330
162E4
330
162E7
330
162EA
330
162EB
330
16301
330
16302
330
1631F
330
16320
330
16333
330
1659C
330
1659A
330
165E9
330
166DD
330
16913
330
17C9E
330
17C9D
330
17C9B
330
17C9F
330
17C5D
330
17C95
330
17C60
330
1A2E8
330
1AB42
330
1AB43
330
1AB44
330
1AB45
330
1AC09
330
1AC0A
330
1AC0B
330
1AC37
330
1AC3B
330
1AC3C
330
1AC3D
330
1AC4B
330
1AC5A
330
1B980
330
1B9A5
330
1BCFB
330
1BCFC
330
1BCFD
330
1C1A3
102
}
330
746F
100
AcDbSymbolTableRecord
100
AcDbDimStyleTableRecord
  2
INABA_S40G
 70
     0
 40
40.0
 41
2.5
 42
0.5
 43
7.0
 44
1.5
 73
     0
 74
     0
 77
     3
 78
     8
140
3.0
141
0.0
143
0.0394
147
1.0
172
     1
173
     1
174
     1
178
     7
271
     1
340
F706
341
F770
343
F770
344
F770
  0
DIMSTYLE
105
1C143
330
746F
100
AcDbSymbolTableRecord
100
AcDbDimStyleTableRecord
  2
INABA_S20G
 70
     0
 40
20.0
 41
2.5
 42
0.5
 43
7.0
 44
1.5
 73
     0
 74
     0
 77
     3
 78
     8
140
3.0
141
0.0
143
0.0394
147
1.0
172
     1
173
     1
174
     1
178
     7
271
     1
340
F706
341
F770
343
F770
344
F770
  0
ENDTAB
  0
TABLE
  2
BLOCK_RECORD
  5
7466
330
0
100
AcDbSymbolTable
 70
    47
  0
BLOCK_RECORD
  5
747D
330
7466
100
AcDbSymbolTableRecord
100
AcDbBlockTableRecord
  2
*MODEL_SPACE
340
1A3EB
  0
BLOCK_RECORD
  5
747A
330
7466
100
AcDbSymbolTableRecord
100
AcDbBlockTableRecord
  2
*PAPER_SPACE
340
1A3EC
  0
BLOCK_RECORD
  5
F770
330
7466
100
AcDbSymbolTableRecord
100
AcDbBlockTableRecord
  2
_DOTSMALL
340
0
102
{BLKREFS
331
1A2DF
331
1A2E0
331
1B2D9
331
1B2DA
331
1B2E4
331
1B2E5
331
1B2EF
331
1B2F0
331
1B2F6
331
1B2F7
331
1B331
331
1B332
331
1B33C
331
1B33D
331
1B347
331
1B348
331
1B370
331
1B371
331
1B37C
331
1B37D
331
1B387
331
1B388
331
1B391
331
1B392
331
1B39A
331
1B39B
331
1B3A2
331
1B3A3
331
1B3AB
331
1B3AC
331
1B3B6
331
1B3B7
331
1B3C1
331
1B3C2
331
1B3CA
331
1B3CB
331
1B3D5
331
1B3D6
331
1B3DE
331
1B3DF
331
1B3E7
331
1B3E8
331
1B3F2
331
1B3F3
331
1B42D
331
1B42E
331
1B440
331
1B441
331
1B449
331
1B44A
331
1B465
331
1B466
331
1B46F
331
1B470
331
1B483
331
1B484
331
1B495
331
1B496
331
1BB2C
331
1BB2D
331
1BB35
331
1BB36
331
1BB4B
331
1BB4C
331
1BB54
331
1BB55
331
1BB5D
331
1BB5E
331
1BB66
331
1BB67
331
1BB71
331
1BB72
331
1BB7C
331
1BB7D
331
1BB87
331
1BB88
331
1BB90
331
1BB91
331
1BE34
331
1BE35
331
1C1F9
331
1C1FA
331
1C2C2
331
1C2C3
331
1C2CB
331
1C2CC
331
1C347
331
1C348
331
1C353
331
1C354
102
}
  0
BLOCK_RECORD
  5
16338
330
7466
100
AcDbSymbolTableRecord
100
AcDbBlockTableRecord
  2
*D1
340
0
  0
BLOCK_RECORD
  5
16344
330
7466
100
AcDbSymbolTableRecord
100
AcDbBlockTableRecord
  2
*D2
340
0
  0
BLOCK_RECORD
  5
16352
330
7466
100
AcDbSymbolTableRecord
100
AcDbBlockTableRecord
  2
*D3
340
0
  0
BLOCK_RECORD
  5
16360
330
7466
100
AcDbSymbolTableRecord
100
AcDbBlockTableRecord
  2
*D4
340
0
  0
BLOCK_RECORD
  5
16384
330
7466
100
AcDbSymbolTableRecord
100
AcDbBlockTableRecord
  2
*D5
340
0
  0
BLOCK_RECORD
  5
1638F
330
7466
100
AcDbSymbolTableRecord
100
AcDbBlockTableRecord
  2
*D6
340
0
  0
BLOCK_RECORD
  5
1639B
330
7466
100
AcDbSymbolTableRecord
100
AcDbBlockTableRecord
  2
*D7
340
0
  0
BLOCK_RECORD
  5
163A9
330
7466
100
AcDbSymbolTableRecord
100
AcDbBlockTableRecord
  2
*D8
340
0
  0
BLOCK_RECORD
  5
163B8
330
7466
100
AcDbSymbolTableRecord
100
AcDbBlockTableRecord
  2
*D9
340
0
  0
BLOCK_RECORD
  5
163C7
330
7466
100
AcDbSymbolTableRecord
100
AcDbBlockTableRecord
  2
*D10
340
0
  0
BLOCK_RECORD
  5
163E1
330
7466
100
AcDbSymbolTableRecord
100
AcDbBlockTableRecord
  2
*D11
340
0
  0
BLOCK_RECORD
  5
163ED
330
7466
100
AcDbSymbolTableRecord
100
AcDbBlockTableRecord
  2
*D12
340
0
  0
BLOCK_RECORD
  5
163FB
330
7466
100
AcDbSymbolTableRecord
100
AcDbBlockTableRecord
  2
*D13
340
0
  0
BLOCK_RECORD
  5
165B5
330
7466
100
AcDbSymbolTableRecord
100
AcDbBlockTableRecord
  2
*D14
340
0
  0
BLOCK_RECORD
  5
165C4
330
7466
100
AcDbSymbolTableRecord
100
AcDbBlockTableRecord
  2
*D15
340
0
  0
BLOCK_RECORD
  5
165EA
330
7466
100
AcDbSymbolTableRecord
100
AcDbBlockTableRecord
  2
*D16
340
0
  0
BLOCK_RECORD
  5
166CF
330
7466
100
AcDbSymbolTableRecord
100
AcDbBlockTableRecord
  2
*D17
340
0
  0
BLOCK_RECORD
  5
16908
330
7466
100
AcDbSymbolTableRecord
100
AcDbBlockTableRecord
  2
*D18
340
0
  0
BLOCK_RECORD
  5
17CB2
330
7466
100
AcDbSymbolTableRecord
100
AcDbBlockTableRecord
  2
*D19
340
0
  0
BLOCK_RECORD
  5
17CC1
330
7466
100
AcDbSymbolTableRecord
100
AcDbBlockTableRecord
  2
*D20
340
0
  0
BLOCK_RECORD
  5
17CD0
330
7466
100
AcDbSymbolTableRecord
100
AcDbBlockTableRecord
  2
*D21
340
0
  0
BLOCK_RECORD
  5
17CDB
330
7466
100
AcDbSymbolTableRecord
100
AcDbBlockTableRecord
  2
*D22
340
0
  0
BLOCK_RECORD
  5
17CE7
330
7466
100
AcDbSymbolTableRecord
100
AcDbBlockTableRecord
  2
*D23
340
0
  0
BLOCK_RECORD
  5
17CF3
330
7466
100
AcDbSymbolTableRecord
100
AcDbBlockTableRecord
  2
*D24
340
0
  0
BLOCK_RECORD
  5
17D01
330
7466
100
AcDbSymbolTableRecord
100
AcDbBlockTableRecord
  2
*D25
340
0
  0
BLOCK_RECORD
  5
1A2DB
330
7466
100
AcDbSymbolTableRecord
100
AcDbBlockTableRecord
  2
*D26
340
0
  0
BLOCK_RECORD
  5
1A2E7
330
7466
100
AcDbSymbolTableRecord
100
AcDbBlockTableRecord
  2
A$C3EB005E7
340
0
102
{BLKREFS
331
1A2EB
102
}
  0
BLOCK_RECORD
  5
1AF5D
330
7466
100
AcDbSymbolTableRecord
100
AcDbBlockTableRecord
  2
*D28
340
0
  0
BLOCK_RECORD
  5
1AF6B
330
7466
100
AcDbSymbolTableRecord
100
AcDbBlockTableRecord
  2
*D29
340
0
  0
BLOCK_RECORD
  5
1AF77
330
7466
100
AcDbSymbolTableRecord
100
AcDbBlockTableRecord
  2
*D30
340
0
  0
BLOCK_RECORD
  5
1AF83
330
7466
100
AcDbSymbolTableRecord
100
AcDbBlockTableRecord
  2
*D31
340
0
  0
BLOCK_RECORD
  5
1AFA9
330
7466
100
AcDbSymbolTableRecord
100
AcDbBlockTableRecord
  2
*D32
340
0
  0
BLOCK_RECORD
  5
1AFB5
330
7466
100
AcDbSymbolTableRecord
100
AcDbBlockTableRecord
  2
*D33
340
0
  0
BLOCK_RECORD
  5
1AFC1
330
7466
100
AcDbSymbolTableRecord
100
AcDbBlockTableRecord
  2
*D34
340
0
  0
BLOCK_RECORD
  5
1AFDA
330
7466
100
AcDbSymbolTableRecord
100
AcDbBlockTableRecord
  2
*D35
340
0
  0
BLOCK_RECORD
  5
1AFE8
330
7466
100
AcDbSymbolTableRecord
100
AcDbBlockTableRecord
  2
*D36
340
0
  0
BLOCK_RECORD
  5
1AFF4
330
7466
100
AcDbSymbolTableRecord
100
AcDbBlockTableRecord
  2
*D37
340
0
  0
BLOCK_RECORD
  5
1B002
330
7466
100
AcDbSymbolTableRecord
100
AcDbBlockTableRecord
  2
*D38
340
0
  0
BLOCK_RECORD
  5
1B00E
330
7466
100
AcDbSymbolTableRecord
100
AcDbBlockTableRecord
  2
*D39
340
0
  0
BLOCK_RECORD
  5
1B01B
330
7466
100
AcDbSymbolTableRecord
100
AcDbBlockTableRecord
  2
*D40
340
0
  0
BLOCK_RECORD
  5
1B9E3
330
7466
100
AcDbSymbolTableRecord
100
AcDbBlockTableRecord
  2
*D41
340
0
  0
BLOCK_RECORD
  5
1BA3E
330
7466
100
AcDbSymbolTableRecord
100
AcDbBlockTableRecord
  2
*D42
340
0
  0
BLOCK_RECORD
  5
1BD66
330
7466
100
AcDbSymbolTableRecord
100
AcDbBlockTableRecord
  2
*D43
340
0
  0
BLOCK_RECORD
  5
1BD72
330
7466
100
AcDbSymbolTableRecord
100
AcDbBlockTableRecord
  2
*D44
340
0
  0
BLOCK_RECORD
  5
1BD80
330
7466
100
AcDbSymbolTableRecord
100
AcDbBlockTableRecord
  2
*D45
340
0
  0
BLOCK_RECORD
  5
1C1AA
330
7466
100
AcDbSymbolTableRecord
100
AcDbBlockTableRecord
  2
*D46
340
0
  0
ENDTAB
  0
ENDSEC
  0
SECTION
  2
BLOCKS
  0
BLOCK
  5
7489
330
747D
100
AcDbEntity
  8
0
100
AcDbBlockBegin
  2
*MODEL_SPACE
 70
     0
 10
0.0
 20
0.0
 30
0.0
  3
*MODEL_SPACE
  1

  0
ENDBLK
  5
748A
330
747D
100
AcDbEntity
  8
0
100
AcDbBlockEnd
  0
BLOCK
  5
7487
330
747A
100
AcDbEntity
 67
     1
  8
0
100
AcDbBlockBegin
  2
*PAPER_SPACE
 70
     0
 10
0.0
 20
0.0
 30
0.0
  3
*PAPER_SPACE
  1

  0
ENDBLK
  5
7488
330
747A
100
AcDbEntity
 67
     1
  8
0
100
AcDbBlockEnd
  0
BLOCK
  5
F771
330
F770
100
AcDbEntity
  8
0
 48
50.0
100
AcDbBlockBegin
  2
_DOTSMALL
 70
     0
 10
0.0
 20
0.0
 30
0.0
  3
_DOTSMALL
  1

  0
LWPOLYLINE
  5
F772
330
F770
100
AcDbEntity
  8
0
  6
ByBlock
 62
     0
 48
50.0
100
AcDbPolyline
 90
        2
 70
     1
 43
0.5
 10
-0.0625
 20
0.0
 42
1.0
 10
0.0625
 20
0.0
 42
1.0
  0
ENDBLK
  5
F776
330
F770
100
AcDbEntity
  8
0
 48
50.0
100
AcDbBlockEnd
  0
BLOCK
  5
1A1EA
330
16338
100
AcDbEntity
  8
0
 48
50.0
100
AcDbBlockBegin
  2
*D1
 70
     1
 10
0.0
 20
0.0
 30
0.0
  3
*D1
  1

  0
LINE
  5
1B3C7
330
16338
100
AcDbEntity
  8
寸法
 62
     0
 48
50.0
370
    -2
100
AcDbLine
 10
9870.137356965273
 20
9853.822872679382
 30
0.0
 11
10557.56370269968
 21
9853.822872679382
 31
0.0
  0
LINE
  5
1B3C8
330
16338
100
AcDbEntity
  8
寸法
 62
     0
 48
50.0
370
    -2
100
AcDbLine
 10
9870.137356965248
 20
7753.822872679368
 30
0.0
 11
10557.56370269968
 21
7753.822872679368
 31
0.0
  0
LINE
  5
1B3C9
330
16338
100
AcDbEntity
  8
寸法
 62
     0
 48
50.0
370
    -2
100
AcDbLine
 10
10497.56370269968
 20
9853.822872679382
 30
0.0
 11
10497.56370269968
 21
7753.822872679368
 31
0.0
  0
INSERT
  5
1B3CA
330
16338
100
AcDbEntity
  8
寸法
 62
     0
 48
50.0
370
    -2
100
AcDbBlockReference
  2
_DOTSMALL
 10
10497.56370269968
 20
9853.822872679382
 30
0.0
 41
100.0
 42
100.0
 43
100.0
 50
90.0
  0
INSERT
  5
1B3CB
330
16338
100
AcDbEntity
  8
寸法
 62
     0
 48
50.0
370
    -2
100
AcDbBlockReference
  2
_DOTSMALL
 10
10497.56370269968
 20
7753.822872679368
 30
0.0
 41
100.0
 42
100.0
 43
100.0
 50
270.0
  0
MTEXT
  5
1B3CC
330
16338
100
AcDbEntity
  8
寸法
 62
     7
 48
50.0
100
AcDbMText
 10
10397.55189167605
 20
8803.822872679377
 30
0.0
 40
120.0
 41
0.0
 71
     5
 72
     1
  1
\A1;5X420=2100
  7
STYLE1
 11
0.0000000000000001
 21
1.0
 31
0.0
 73
     1
 44
1.0
1001
ACAD
1000
MTEXTBEGIN
1070
    73
1070
     1
1070
    44
1040
1.0
1070
    74
1070
     0
1000
MTEXTEND
  0
POINT
  5
1B3CD
330
16338
100
AcDbEntity
  8
DEFPOINTS
 62
     0
 48
50.0
100
AcDbPoint
 10
9850.137356965275
 20
9853.822872679382
 30
0.0
  0
POINT
  5
1B3CE
330
16338
100
AcDbEntity
  8
DEFPOINTS
 62
     0
 48
50.0
100
AcDbPoint
 10
9850.137356965248
 20
7753.822872679368
 30
0.0
  0
POINT
  5
1B3CF
330
16338
100
AcDbEntity
  8
DEFPOINTS
 62
     0
 48
50.0
100
AcDbPoint
 10
10497.56370269968
 20
7753.822872679368
 30
0.0
  0
ENDBLK
  5
1A1F4
330
16338
100
AcDbEntity
  8
0
 48
50.0
100
AcDbBlockEnd
  0
BLOCK
  5
16414
330
16344
100
AcDbEntity
  8
0
 48
50.0
100
AcDbBlockBegin
  2
*D2
 70
     1
 10
0.0
 20
0.0
 30
0.0
  3
*D2
  1

  0
LINE
  5
1B3BC
330
16344
100
AcDbEntity
  8
寸法
 62
     0
 48
50.0
370
    -2
100
AcDbLine
 10
9870.137356965248
 20
7753.822872679368
 30
0.0
 11
10557.56370269966
 21
7753.822872679368
 31
0.0
  0
LINE
  5
1B3BD
330
16344
100
AcDbEntity
  8
寸法
 62
     0
 48
50.0
370
    -2
100
AcDbLine
 10
9870.137356965248
 20
7698.822872679372
 30
0.0
 11
10557.56370269966
 21
7698.822872679371
 31
0.0
  0
LINE
  5
1B3BE
330
16344
100
AcDbEntity
  8
寸法
 62
     0
 48
50.0
370
    -2
100
AcDbLine
 10
10497.56370269966
 20
7753.822872679368
 30
0.0
 11
10497.56370269966
 21
7853.822872679367
 31
0.0
  0
LINE
  5
1B3BF
330
16344
100
AcDbEntity
  8
寸法
 62
     0
 48
50.0
370
    -2
100
AcDbLine
 10
10497.56370269966
 20
7698.822872679371
 30
0.0
 11
10497.56370269966
 21
7212.476124400268
 31
0.0
  0
LINE
  5
1B3C0
330
16344
100
AcDbEntity
  8
寸法
 62
     0
 48
50.0
370
    -2
100
AcDbLine
 10
10497.56370269966
 20
7753.822872679368
 30
0.0
 11
10497.56370269966
 21
7698.822872679371
 31
0.0
  0
INSERT
  5
1B3C1
330
16344
100
AcDbEntity
  8
寸法
 62
     0
 48
50.0
370
    -2
100
AcDbBlockReference
  2
_DOTSMALL
 10
10497.56370269966
 20
7753.822872679368
 30
0.0
 41
100.0
 42
100.0
 43
100.0
 50
270.0
  0
INSERT
  5
1B3C2
330
16344
100
AcDbEntity
  8
寸法
 62
     0
 48
50.0
370
    -2
100
AcDbBlockReference
  2
_DOTSMALL
 10
10497.56370269966
 20
7698.822872679371
 30
0.0
 41
100.0
 42
100.0
 43
100.0
 50
90.0
  0
MTEXT
  5
1B3C3
330
16344
100
AcDbEntity
  8
寸法
 62
     7
 48
50.0
100
AcDbMText
 10
10397.56370269965
 20
7320.96140577451
 30
0.0
 40
120.0
 41
0.0
 71
     5
 72
     1
  1
\A1;55
  7
STYLE1
 11
0.0000000000000001
 21
1.0
 31
0.0
 73
     1
 44
1.0
1001
ACAD
1000
MTEXTBEGIN
1070
    73
1070
     1
1070
    44
1040
1.0
1070
    74
1070
     0
1000
MTEXTEND
  0
POINT
  5
1B3C4
330
16344
100
AcDbEntity
  8
DEFPOINTS
 62
     0
 48
50.0
100
AcDbPoint
 10
9850.137356965248
 20
7753.822872679368
 30
0.0
  0
POINT
  5
1B3C5
330
16344
100
AcDbEntity
  8
DEFPOINTS
 62
     0
 48
50.0
100
AcDbPoint
 10
9850.137356965248
 20
7698.822872679372
 30
0.0
  0
POINT
  5
1B3C6
330
16344
100
AcDbEntity
  8
DEFPOINTS
 62
     0
 48
50.0
100
AcDbPoint
 10
10497.56370269966
 20
7698.822872679371
 30
0.0
  0
ENDBLK
  5
16420
330
16344
100
AcDbEntity
  8
0
 48
50.0
100
AcDbBlockEnd
  0
BLOCK
  5
16421
330
16352
100
AcDbEntity
  8
0
 48
50.0
100
AcDbBlockBegin
  2
*D3
 70
     1
 10
0.0
 20
0.0
 30
0.0
  3
*D3
  1

  0
LINE
  5
1B3B1
330
16352
100
AcDbEntity
  8
寸法
 62
     0
 48
50.0
370
    -2
100
AcDbLine
 10
9870.137356965273
 20
9908.82287267938
 30
0.0
 11
10557.56370269968
 21
9908.82287267938
 31
0.0
  0
LINE
  5
1B3B2
330
16352
100
AcDbEntity
  8
寸法
 62
     0
 48
50.0
370
    -2
100
AcDbLine
 10
9870.137356965273
 20
9853.822872679382
 30
0.0
 11
10557.56370269968
 21
9853.822872679382
 31
0.0
  0
LINE
  5
1B3B3
330
16352
100
AcDbEntity
  8
寸法
 62
     0
 48
50.0
370
    -2
100
AcDbLine
 10
10497.56370269968
 20
9853.822872679382
 30
0.0
 11
10497.56370269968
 21
9753.822872679382
 31
0.0
  0
LINE
  5
1B3B4
330
16352
100
AcDbEntity
  8
寸法
 62
     0
 48
50.0
370
    -2
100
AcDbLine
 10
10497.56370269968
 20
9908.82287267938
 30
0.0
 11
10497.56370269968
 21
10325.79343542785
 31
0.0
  0
LINE
  5
1B3B5
330
16352
100
AcDbEntity
  8
寸法
 62
     0
 48
50.0
370
    -2
100
AcDbLine
 10
10497.56370269968
 20
9853.822872679382
 30
0.0
 11
10497.56370269968
 21
9908.82287267938
 31
0.0
  0
INSERT
  5
1B3B6
330
16352
100
AcDbEntity
  8
寸法
 62
     0
 48
50.0
370
    -2
100
AcDbBlockReference
  2
_DOTSMALL
 10
10497.56370269968
 20
9853.822872679382
 30
0.0
 41
100.0
 42
100.0
 43
100.0
 50
90.0
  0
INSERT
  5
1B3B7
330
16352
100
AcDbEntity
  8
寸法
 62
     0
 48
50.0
370
    -2
100
AcDbBlockReference
  2
_DOTSMALL
 10
10497.56370269968
 20
9908.82287267938
 30
0.0
 41
100.0
 42
100.0
 43
100.0
 50
270.0
  0
MTEXT
  5
1B3B8
330
16352
100
AcDbEntity
  8
寸法
 62
     7
 48
50.0
100
AcDbMText
 10
10397.56370269968
 20
10217.30815405362
 30
0.0
 40
120.0
 41
0.0
 71
     5
 72
     1
  1
\A1;55
  7
STYLE1
 11
0.0000000000000001
 21
1.0
 31
0.0
 73
     1
 44
1.0
1001
ACAD
1000
MTEXTBEGIN
1070
    73
1070
     1
1070
    44
1040
1.0
1070
    74
1070
     0
1000
MTEXTEND
  0
POINT
  5
1B3B9
330
16352
100
AcDbEntity
  8
DEFPOINTS
 62
     0
 48
50.0
100
AcDbPoint
 10
9850.137356965275
 20
9908.82287267938
 30
0.0
  0
POINT
  5
1B3BA
330
16352
100
AcDbEntity
  8
DEFPOINTS
 62
     0
 48
50.0
100
AcDbPoint
 10
9850.137356965275
 20
9853.822872679382
 30
0.0
  0
POINT
  5
1B3BB
330
16352
100
AcDbEntity
  8
DEFPOINTS
 62
     0
 48
50.0
100
AcDbPoint
 10
10497.56370269968
 20
9853.822872679382
 30
0.0
  0
ENDBLK
  5
1642D
330
16352
100
AcDbEntity
  8
0
 48
50.0
100
AcDbBlockEnd
  0
BLOCK
  5
1A1D4
330
16360
100
AcDbEntity
  8
0
 48
50.0
100
AcDbBlockBegin
  2
*D4
 70
     1
 10
0.0
 20
0.0
 30
0.0
  3
*D4
  1

  0
LINE
  5
1B3A8
330
16360
100
AcDbEntity
  8
寸法
 62
     0
 48
50.0
370
    -2
100
AcDbLine
 10
9870.137356965273
 20
9908.82287267938
 30
0.0
 11
10922.67064443932
 21
9908.82287267938
 31
0.0
  0
LINE
  5
1B3A9
330
16360
100
AcDbEntity
  8
寸法
 62
     0
 48
50.0
370
    -2
100
AcDbLine
 10
9870.137356965248
 20
7698.822872679372
 30
0.0
 11
10922.67064443932
 21
7698.822872679371
 31
0.0
  0
LINE
  5
1B3AA
330
16360
100
AcDbEntity
  8
寸法
 62
     0
 48
50.0
370
    -2
100
AcDbLine
 10
10862.67064443932
 20
9908.82287267938
 30
0.0
 11
10862.67064443932
 21
7698.822872679371
 31
0.0
  0
INSERT
  5
1B3AB
330
16360
100
AcDbEntity
  8
寸法
 62
     0
 48
50.0
370
    -2
100
AcDbBlockReference
  2
_DOTSMALL
 10
10862.67064443932
 20
9908.82287267938
 30
0.0
 41
100.0
 42
100.0
 43
100.0
 50
90.0
  0
INSERT
  5
1B3AC
330
16360
100
AcDbEntity
  8
寸法
 62
     0
 48
50.0
370
    -2
100
AcDbBlockReference
  2
_DOTSMALL
 10
10862.67064443932
 20
7698.822872679371
 30
0.0
 41
100.0
 42
100.0
 43
100.0
 50
270.0
  0
MTEXT
  5
1B3AD
330
16360
100
AcDbEntity
  8
寸法
 62
     7
 48
50.0
100
AcDbMText
 10
10762.65883341569
 20
8803.822872679377
 30
0.0
 40
120.0
 41
0.0
 71
     5
 72
     1
  1
\A1;2210
  7
STYLE1
 11
0.0000000000000001
 21
1.0
 31
0.0
 73
     1
 44
1.0
1001
ACAD
1000
MTEXTBEGIN
1070
    73
1070
     1
1070
    44
1040
1.0
1070
    74
1070
     0
1000
MTEXTEND
  0
POINT
  5
1B3AE
330
16360
100
AcDbEntity
  8
DEFPOINTS
 62
     0
 48
50.0
100
AcDbPoint
 10
9850.137356965275
 20
9908.82287267938
 30
0.0
  0
POINT
  5
1B3AF
330
16360
100
AcDbEntity
  8
DEFPOINTS
 62
     0
 48
50.0
100
AcDbPoint
 10
9850.137356965248
 20
7698.822872679372
 30
0.0
  0
POINT
  5
1B3B0
330
16360
100
AcDbEntity
  8
DEFPOINTS
 62
     0
 48
50.0
100
AcDbPoint
 10
10862.67064443932
 20
7698.822872679371
 30
0.0
  0
ENDBLK
  5
1A1DE
330
16360
100
AcDbEntity
  8
0
 48
50.0
100
AcDbBlockEnd
  0
BLOCK
  5
185CF
330
16384
100
AcDbEntity
  8
0
 48
50.0
100
AcDbBlockBegin
  2
*D5
 70
     1
 10
0.0
 20
0.0
 30
0.0
  3
*D5
  1

  0
LINE
  5
1B3A0
330
16384
100
AcDbEntity
  8
寸法
 62
     0
 48
50.0
370
    -2
100
AcDbLine
 10
7323.137356965266
 20
7704.82287267928
 30
0.0
 11
7323.137356965266
 21
7104.392101913116
 31
0.0
  0
LINE
  5
1B3A1
330
16384
100
AcDbEntity
  8
寸法
 62
     0
 48
50.0
370
    -2
100
AcDbLine
 10
9747.137356965248
 20
7164.392101913115
 30
0.0
 11
7323.137356965266
 21
7164.392101913115
 31
0.0
  0
INSERT
  5
1B3A2
330
16384
100
AcDbEntity
  8
寸法
 62
     0
 48
50.0
370
    -2
100
AcDbBlockReference
  2
_DOTSMALL
 10
9747.137356965248
 20
7164.392101913115
 30
0.0
 41
100.0
 42
100.0
 43
100.0
  0
INSERT
  5
1B3A3
330
16384
100
AcDbEntity
  8
寸法
 62
     0
 48
50.0
370
    -2
100
AcDbBlockReference
  2
_DOTSMALL
 10
7323.137356965266
 20
7164.392101913115
 30
0.0
 41
100.0
 42
100.0
 43
100.0
 50
180.0
  0
MTEXT
  5
1B3A4
330
16384
100
AcDbEntity
  8
寸法
 62
     7
 48
50.0
100
AcDbMText
 10
8535.137356965256
 20
7264.403912936737
 30
0.0
 40
120.0
 41
0.0
 71
     5
 72
     1
  1
\A1;有効開口部間口 2424
  7
STYLE1
 73
     1
 44
1.0
1001
ACAD
1000
MTEXTBEGIN
1070
    73
1070
     1
1070
    44
1040
1.0
1070
    74
1070
     0
1000
MTEXTEND
  0
POINT
  5
1B3A5
330
16384
100
AcDbEntity
  8
DEFPOINTS
 62
     0
 48
50.0
100
AcDbPoint
 10
9747.137356965248
 20
7724.82287267928
 30
0.0
  0
POINT
  5
1B3A6
330
16384
100
AcDbEntity
  8
DEFPOINTS
 62
     0
 48
50.0
100
AcDbPoint
 10
7323.137356965266
 20
7724.82287267928
 30
0.0
  0
POINT
  5
1B3A7
330
16384
100
AcDbEntity
  8
DEFPOINTS
 62
     0
 48
50.0
100
AcDbPoint
 10
7323.137356965266
 20
7164.392101913115
 30
0.0
  0
ENDBLK
  5
185D8
330
16384
100
AcDbEntity
  8
0
 48
50.0
100
AcDbBlockEnd
  0
BLOCK
  5
1A187
330
1638F
100
AcDbEntity
  8
0
 48
50.0
100
AcDbBlockBegin
  2
*D6
 70
     1
 10
0.0
 20
0.0
 30
0.0
  3
*D6
  1

  0
LINE
  5
1B397
330
1638F
100
AcDbEntity
  8
寸法
 62
     0
 48
50.0
370
    -2
100
AcDbLine
 10
1960.137356965266
 20
7678.822872679276
 30
0.0
 11
1960.137356965266
 21
6658.219106322242
 31
0.0
  0
LINE
  5
1B398
330
1638F
100
AcDbEntity
  8
寸法
 62
     0
 48
50.0
370
    -2
100
AcDbLine
 10
9850.137356965237
 20
7678.822872679372
 30
0.0
 11
9850.137356965237
 21
6658.219106322242
 31
0.0
  0
LINE
  5
1B399
330
1638F
100
AcDbEntity
  8
寸法
 62
     0
 48
50.0
370
    -2
100
AcDbLine
 10
1960.137356965266
 20
6718.219106322242
 30
0.0
 11
9850.137356965237
 21
6718.219106322242
 31
0.0
  0
INSERT
  5
1B39A
330
1638F
100
AcDbEntity
  8
寸法
 62
     0
 48
50.0
370
    -2
100
AcDbBlockReference
  2
_DOTSMALL
 10
1960.137356965266
 20
6718.219106322242
 30
0.0
 41
100.0
 42
100.0
 43
100.0
 50
180.0
  0
INSERT
  5
1B39B
330
1638F
100
AcDbEntity
  8
寸法
 62
     0
 48
50.0
370
    -2
100
AcDbBlockReference
  2
_DOTSMALL
 10
9850.137356965237
 20
6718.219106322242
 30
0.0
 41
100.0
 42
100.0
 43
100.0
  0
MTEXT
  5
1B39C
330
1638F
100
AcDbEntity
  8
寸法
 62
     7
 48
50.0
100
AcDbMText
 10
5905.137356965251
 20
6818.230917345863
 30
0.0
 40
120.0
 41
0.0
 71
     5
 72
     1
  1
\A1;N X 2630
  7
STYLE1
 73
     1
 44
1.0
1001
ACAD
1000
MTEXTBEGIN
1070
    73
1070
     1
1070
    44
1040
1.0
1070
    74
1070
     0
1000
MTEXTEND
  0
POINT
  5
1B39D
330
1638F
100
AcDbEntity
  8
DEFPOINTS
 62
     0
 48
50.0
100
AcDbPoint
 10
1960.137356965266
 20
7698.822872679277
 30
0.0
  0
POINT
  5
1B39E
330
1638F
100
AcDbEntity
  8
DEFPOINTS
 62
     0
 48
50.0
100
AcDbPoint
 10
9850.137356965237
 20
7698.822872679372
 30
0.0
  0
POINT
  5
1B39F
330
1638F
100
AcDbEntity
  8
DEFPOINTS
 62
     0
 48
50.0
100
AcDbPoint
 10
9850.137356965237
 20
6718.219106322242
 30
0.0
  0
ENDBLK
  5
1A191
330
1638F
100
AcDbEntity
  8
0
 48
50.0
100
AcDbBlockEnd
  0
BLOCK
  5
16464
330
1639B
100
AcDbEntity
  8
0
 48
50.0
100
AcDbBlockBegin
  2
*D7
 70
     1
 10
0.0
 20
0.0
 30
0.0
  3
*D7
  1

  0
LINE
  5
1B38C
330
1639B
100
AcDbEntity
  8
寸法
 62
     0
 48
50.0
370
    -2
100
AcDbLine
 10
2015.137356965262
 20
7678.822872679281
 30
0.0
 11
2015.137356965262
 21
7104.392101913116
 31
0.0
  0
LINE
  5
1B38D
330
1639B
100
AcDbEntity
  8
寸法
 62
     0
 48
50.0
370
    -2
100
AcDbLine
 10
1960.137356965266
 20
7678.822872679276
 30
0.0
 11
1960.137356965266
 21
7104.392101913116
 31
0.0
  0
LINE
  5
1B38E
330
1639B
100
AcDbEntity
  8
寸法
 62
     0
 48
50.0
370
    -2
100
AcDbLine
 10
2015.137356965262
 20
7164.392101913115
 30
0.0
 11
2115.137356965262
 21
7164.392101913115
 31
0.0
  0
LINE
  5
1B38F
330
1639B
100
AcDbEntity
  8
寸法
 62
     0
 48
50.0
370
    -2
100
AcDbLine
 10
1960.137356965266
 20
7164.392101913115
 30
0.0
 11
1543.166794216789
 21
7164.392101913115
 31
0.0
  0
LINE
  5
1B390
330
1639B
100
AcDbEntity
  8
寸法
 62
     0
 48
50.0
370
    -2
100
AcDbLine
 10
2015.137356965262
 20
7164.392101913115
 30
0.0
 11
1960.137356965266
 21
7164.392101913115
 31
0.0
  0
INSERT
  5
1B391
330
1639B
100
AcDbEntity
  8
寸法
 62
     0
 48
50.0
370
    -2
100
AcDbBlockReference
  2
_DOTSMALL
 10
2015.137356965262
 20
7164.392101913115
 30
0.0
 41
100.0
 42
100.0
 43
100.0
 50
180.0
  0
INSERT
  5
1B392
330
1639B
100
AcDbEntity
  8
寸法
 62
     0
 48
50.0
370
    -2
100
AcDbBlockReference
  2
_DOTSMALL
 10
1960.137356965266
 20
7164.392101913115
 30
0.0
 41
100.0
 42
100.0
 43
100.0
  0
MTEXT
  5
1B393
330
1639B
100
AcDbEntity
  8
寸法
 62
     7
 48
50.0
100
AcDbMText
 10
1651.652075591027
 20
7264.392101913116
 30
0.0
 40
120.0
 41
0.0
 71
     5
 72
     1
  1
\A1;55
  7
STYLE1
 73
     1
 44
1.0
1001
ACAD
1000
MTEXTBEGIN
1070
    73
1070
     1
1070
    44
1040
1.0
1070
    74
1070
     0
1000
MTEXTEND
  0
POINT
  5
1B394
330
1639B
100
AcDbEntity
  8
DEFPOINTS
 62
     0
 48
50.0
100
AcDbPoint
 10
2015.137356965262
 20
7698.822872679281
 30
0.0
  0
POINT
  5
1B395
330
1639B
100
AcDbEntity
  8
DEFPOINTS
 62
     0
 48
50.0
100
AcDbPoint
 10
1960.137356965266
 20
7698.822872679277
 30
0.0
  0
POINT
  5
1B396
330
1639B
100
AcDbEntity
  8
DEFPOINTS
 62
     0
 48
50.0
100
AcDbPoint
 10
1960.137356965266
 20
7164.392101913115
 30
0.0
  0
ENDBLK
  5
16470
330
1639B
100
AcDbEntity
  8
0
 48
50.0
100
AcDbBlockEnd
  0
BLOCK
  5
16471
330
163A9
100
AcDbEntity
  8
0
 48
50.0
100
AcDbBlockBegin
  2
*D8
 70
     1
 10
0.0
 20
0.0
 30
0.0
  3
*D8
  1

  0
LINE
  5
1B381
330
163A9
100
AcDbEntity
  8
寸法
 62
     0
 48
50.0
370
    -2
100
AcDbLine
 10
7323.137356965266
 20
7704.82287267928
 30
0.0
 11
7323.137356965266
 21
7104.392101913116
 31
0.0
  0
LINE
  5
1B382
330
163A9
100
AcDbEntity
  8
寸法
 62
     0
 48
50.0
370
    -2
100
AcDbLine
 10
7275.137356965263
 20
7678.822872679281
 30
0.0
 11
7275.137356965263
 21
7104.392101913116
 31
0.0
  0
LINE
  5
1B383
330
163A9
100
AcDbEntity
  8
寸法
 62
     0
 48
50.0
370
    -2
100
AcDbLine
 10
7323.137356965266
 20
7164.392101913115
 30
0.0
 11
7423.137356965266
 21
7164.392101913115
 31
0.0
  0
LINE
  5
1B384
330
163A9
100
AcDbEntity
  8
寸法
 62
     0
 48
50.0
370
    -2
100
AcDbLine
 10
7275.137356965263
 20
7164.392101913115
 30
0.0
 11
7175.137356965263
 21
7164.392101913115
 31
0.0
  0
MTEXT
  5
1B385
330
163A9
100
AcDbEntity
  8
寸法
 62
     7
 48
50.0
100
AcDbMText
 10
7436.039327965324
 20
7264.392101913116
 30
0.0
 40
120.0
 41
0.0
 71
     5
 72
     1
  1
\A1;48
  7
STYLE1
 73
     1
 44
1.0
1001
ACAD
1000
MTEXTBEGIN
1070
    73
1070
     1
1070
    44
1040
1.0
1070
    74
1070
     0
1000
MTEXTEND
  0
LINE
  5
1B386
330
163A9
100
AcDbEntity
  8
寸法
 62
     0
 48
50.0
370
    -2
100
AcDbLine
 10
7323.137356965266
 20
7164.392101913115
 30
0.0
 11
7275.137356965263
 21
7164.392101913115
 31
0.0
  0
INSERT
  5
1B387
330
163A9
100
AcDbEntity
  8
寸法
 62
     0
 48
50.0
370
    -2
100
AcDbBlockReference
  2
_DOTSMALL
 10
7323.137356965266
 20
7164.392101913115
 30
0.0
 41
100.0
 42
100.0
 43
100.0
 50
180.0
  0
INSERT
  5
1B388
330
163A9
100
AcDbEntity
  8
寸法
 62
     0
 48
50.0
370
    -2
100
AcDbBlockReference
  2
_DOTSMALL
 10
7275.137356965263
 20
7164.392101913115
 30
0.0
 41
100.0
 42
100.0
 43
100.0
  0
POINT
  5
1B389
330
163A9
100
AcDbEntity
  8
DEFPOINTS
 62
     0
 48
50.0
100
AcDbPoint
 10
7323.137356965266
 20
7724.82287267928
 30
0.0
  0
POINT
  5
1B38A
330
163A9
100
AcDbEntity
  8
DEFPOINTS
 62
     0
 48
50.0
100
AcDbPoint
 10
7275.137356965263
 20
7698.822872679281
 30
0.0
  0
POINT
  5
1B38B
330
163A9
100
AcDbEntity
  8
DEFPOINTS
 62
     0
 48
50.0
100
AcDbPoint
 10
7275.137356965263
 20
7164.392101913115
 30
0.0
  0
ENDBLK
  5
1647E
330
163A9
100
AcDbEntity
  8
0
 48
50.0
100
AcDbBlockEnd
  0
BLOCK
  5
1647F
330
163B8
100
AcDbEntity
  8
0
 48
50.0
100
AcDbBlockBegin
  2
*D9
 70
     1
 10
0.0
 20
0.0
 30
0.0
  3
*D9
  1

  0
LINE
  5
1B376
330
163B8
100
AcDbEntity
  8
寸法
 62
     0
 48
50.0
370
    -2
100
AcDbLine
 10
9795.13735696525
 20
7678.822872679368
 30
0.0
 11
9795.13735696525
 21
7104.392101913116
 31
0.0
  0
LINE
  5
1B377
330
163B8
100
AcDbEntity
  8
寸法
 62
     0
 48
50.0
370
    -2
100
AcDbLine
 10
9747.137356965248
 20
7704.82287267928
 30
0.0
 11
9747.137356965248
 21
7104.392101913116
 31
0.0
  0
LINE
  5
1B378
330
163B8
100
AcDbEntity
  8
寸法
 62
     0
 48
50.0
370
    -2
100
AcDbLine
 10
9795.13735696525
 20
7164.392101913115
 30
0.0
 11
9895.13735696525
 21
7164.392101913115
 31
0.0
  0
LINE
  5
1B379
330
163B8
100
AcDbEntity
  8
寸法
 62
     0
 48
50.0
370
    -2
100
AcDbLine
 10
9747.137356965248
 20
7164.392101913115
 30
0.0
 11
9647.137356965249
 21
7164.392101913115
 31
0.0
  0
MTEXT
  5
1B37A
330
163B8
100
AcDbEntity
  8
寸法
 62
     7
 48
50.0
100
AcDbMText
 10
9636.174459316499
 20
7264.392101913116
 30
0.0
 40
120.0
 41
0.0
 71
     5
 72
     1
  1
\A1;48
  7
STYLE1
 73
     1
 44
1.0
1001
ACAD
1000
MTEXTBEGIN
1070
    73
1070
     1
1070
    44
1040
1.0
1070
    74
1070
     0
1000
MTEXTEND
  0
LINE
  5
1B37B
330
163B8
100
AcDbEntity
  8
寸法
 62
     0
 48
50.0
370
    -2
100
AcDbLine
 10
9795.13735696525
 20
7164.392101913115
 30
0.0
 11
9747.137356965248
 21
7164.392101913115
 31
0.0
  0
INSERT
  5
1B37C
330
163B8
100
AcDbEntity
  8
寸法
 62
     0
 48
50.0
370
    -2
100
AcDbBlockReference
  2
_DOTSMALL
 10
9795.13735696525
 20
7164.392101913115
 30
0.0
 41
100.0
 42
100.0
 43
100.0
 50
180.0
  0
INSERT
  5
1B37D
330
163B8
100
AcDbEntity
  8
寸法
 62
     0
 48
50.0
370
    -2
100
AcDbBlockReference
  2
_DOTSMALL
 10
9747.137356965248
 20
7164.392101913115
 30
0.0
 41
100.0
 42
100.0
 43
100.0
  0
POINT
  5
1B37E
330
163B8
100
AcDbEntity
  8
DEFPOINTS
 62
     0
 48
50.0
100
AcDbPoint
 10
9795.13735696525
 20
7698.822872679368
 30
0.0
  0
POINT
  5
1B37F
330
163B8
100
AcDbEntity
  8
DEFPOINTS
 62
     0
 48
50.0
100
AcDbPoint
 10
9747.137356965248
 20
7724.82287267928
 30
0.0
  0
POINT
  5
1B380
330
163B8
100
AcDbEntity
  8
DEFPOINTS
 62
     0
 48
50.0
100
AcDbPoint
 10
9747.137356965248
 20
7164.392101913115
 30
0.0
  0
ENDBLK
  5
1648C
330
163B8
100
AcDbEntity
  8
0
 48
50.0
100
AcDbBlockEnd
  0
BLOCK
  5
1648D
330
163C7
100
AcDbEntity
  8
0
 48
50.0
100
AcDbBlockBegin
  2
*D10
 70
     1
 10
0.0
 20
0.0
 30
0.0
  3
*D10
  1

  0
LINE
  5
1B36B
330
163C7
100
AcDbEntity
  8
寸法
 62
     0
 48
50.0
370
    -2
100
AcDbLine
 10
9850.137356965248
 20
7678.822872679372
 30
0.0
 11
9850.137356965248
 21
7104.392101913116
 31
0.0
  0
LINE
  5
1B36C
330
163C7
100
AcDbEntity
  8
寸法
 62
     0
 48
50.0
370
    -2
100
AcDbLine
 10
9795.13735696525
 20
7678.822872679368
 30
0.0
 11
9795.13735696525
 21
7104.392101913116
 31
0.0
  0
LINE
  5
1B36D
330
163C7
100
AcDbEntity
  8
寸法
 62
     0
 48
50.0
370
    -2
100
AcDbLine
 10
9795.13735696525
 20
7164.392101913115
 30
0.0
 11
9695.137356965251
 21
7164.392101913115
 31
0.0
  0
LINE
  5
1B36E
330
163C7
100
AcDbEntity
  8
寸法
 62
     0
 48
50.0
370
    -2
100
AcDbLine
 10
9850.137356965248
 20
7164.392101913115
 30
0.0
 11
10267.10791971372
 21
7164.392101913115
 31
0.0
  0
LINE
  5
1B36F
330
163C7
100
AcDbEntity
  8
寸法
 62
     0
 48
50.0
370
    -2
100
AcDbLine
 10
9795.13735696525
 20
7164.392101913115
 30
0.0
 11
9850.137356965248
 21
7164.392101913115
 31
0.0
  0
INSERT
  5
1B370
330
163C7
100
AcDbEntity
  8
寸法
 62
     0
 48
50.0
370
    -2
100
AcDbBlockReference
  2
_DOTSMALL
 10
9795.13735696525
 20
7164.392101913115
 30
0.0
 41
100.0
 42
100.0
 43
100.0
  0
INSERT
  5
1B371
330
163C7
100
AcDbEntity
  8
寸法
 62
     0
 48
50.0
370
    -2
100
AcDbBlockReference
  2
_DOTSMALL
 10
9850.137356965248
 20
7164.392101913115
 30
0.0
 41
100.0
 42
100.0
 43
100.0
 50
180.0
  0
MTEXT
  5
1B372
330
163C7
100
AcDbEntity
  8
寸法
 62
     7
 48
50.0
100
AcDbMText
 10
10158.62263833948
 20
7264.392101913116
 30
0.0
 40
120.0
 41
0.0
 71
     5
 72
     1
  1
\A1;55
  7
STYLE1
 73
     1
 44
1.0
1001
ACAD
1000
MTEXTBEGIN
1070
    73
1070
     1
1070
    44
1040
1.0
1070
    74
1070
     0
1000
MTEXTEND
  0
POINT
  5
1B373
330
163C7
100
AcDbEntity
  8
DEFPOINTS
 62
     0
 48
50.0
100
AcDbPoint
 10
9850.137356965248
 20
7698.822872679372
 30
0.0
  0
POINT
  5
1B374
330
163C7
100
AcDbEntity
  8
DEFPOINTS
 62
     0
 48
50.0
100
AcDbPoint
 10
9795.13735696525
 20
7698.822872679368
 30
0.0
  0
POINT
  5
1B375
330
163C7
100
AcDbEntity
  8
DEFPOINTS
 62
     0
 48
50.0
100
AcDbPoint
 10
9795.13735696525
 20
7164.392101913115
 30
0.0
  0
ENDBLK
  5
16499
330
163C7
100
AcDbEntity
  8
0
 48
50.0
100
AcDbBlockEnd
  0
BLOCK
  5
18C46
330
163E1
100
AcDbEntity
  8
0
 48
50.0
100
AcDbBlockBegin
  2
*D11
 70
     1
 10
0.0
 20
0.0
 30
0.0
  3
*D11
  1

  0
LINE
  5
1BB8D
330
163E1
100
AcDbEntity
  8
寸法
 62
     0
 48
50.0
370
    -2
100
AcDbLine
 10
7275.137356965271
 20
9928.822872679283
 30
0.0
 11
7275.137356965271
 21
10384.63109230438
 31
0.0
  0
LINE
  5
1BB8E
330
163E1
100
AcDbEntity
  8
寸法
 62
     0
 48
50.0
370
    -2
100
AcDbLine
 10
9795.137356965273
 20
9928.822872679379
 30
0.0
 11
9795.137356965273
 21
10384.63109230438
 31
0.0
  0
LINE
  5
1BB8F
330
163E1
100
AcDbEntity
  8
寸法
 62
     0
 48
50.0
370
    -2
100
AcDbLine
 10
7275.137356965271
 20
10324.63109230438
 30
0.0
 11
9795.137356965273
 21
10324.63109230438
 31
0.0
  0
INSERT
  5
1BB90
330
163E1
100
AcDbEntity
  8
寸法
 62
     0
 48
50.0
370
    -2
100
AcDbBlockReference
  2
_DOTSMALL
 10
7275.137356965271
 20
10324.63109230438
 30
0.0
 41
100.0
 42
100.0
 43
100.0
 50
180.0
  0
INSERT
  5
1BB91
330
163E1
100
AcDbEntity
  8
寸法
 62
     0
 48
50.0
370
    -2
100
AcDbBlockReference
  2
_DOTSMALL
 10
9795.137356965273
 20
10324.63109230438
 30
0.0
 41
100.0
 42
100.0
 43
100.0
  0
MTEXT
  5
1BB92
330
163E1
100
AcDbEntity
  8
寸法
 62
     7
 48
50.0
100
AcDbMText
 10
8535.137356965272
 20
10424.642903328
 30
0.0
 40
120.0
 41
0.0
 71
     5
 72
     1
  1
\A1;6X420=2520
  7
STYLE1
 73
     1
 44
1.0
1001
ACAD
1000
MTEXTBEGIN
1070
    73
1070
     1
1070
    44
1040
1.0
1070
    74
1070
     0
1000
MTEXTEND
  0
POINT
  5
1BB93
330
163E1
100
AcDbEntity
  8
DEFPOINTS
 62
     0
 48
50.0
100
AcDbPoint
 10
7275.137356965271
 20
9908.822872679285
 30
0.0
  0
POINT
  5
1BB94
330
163E1
100
AcDbEntity
  8
DEFPOINTS
 62
     0
 48
50.0
100
AcDbPoint
 10
9795.137356965273
 20
9908.82287267938
 30
0.0
  0
POINT
  5
1BB95
330
163E1
100
AcDbEntity
  8
DEFPOINTS
 62
     0
 48
50.0
100
AcDbPoint
 10
9795.137356965273
 20
10324.63109230438
 30
0.0
  0
ENDBLK
  5
18C50
330
163E1
100
AcDbEntity
  8
0
 48
50.0
100
AcDbBlockEnd
  0
BLOCK
  5
164B0
330
163ED
100
AcDbEntity
  8
0
 48
50.0
100
AcDbBlockBegin
  2
*D12
 70
     1
 10
0.0
 20
0.0
 30
0.0
  3
*D12
  1

  0
LINE
  5
1BB82
330
163ED
100
AcDbEntity
  8
寸法
 62
     0
 48
50.0
370
    -2
100
AcDbLine
 10
1960.137356965239
 20
9928.822872679283
 30
0.0
 11
1960.137356965239
 21
10384.63109230426
 31
0.0
  0
LINE
  5
1BB83
330
163ED
100
AcDbEntity
  8
寸法
 62
     0
 48
50.0
370
    -2
100
AcDbLine
 10
2015.137356965272
 20
9928.822872679283
 30
0.0
 11
2015.137356965272
 21
10384.63109230426
 31
0.0
  0
LINE
  5
1BB84
330
163ED
100
AcDbEntity
  8
寸法
 62
     0
 48
50.0
370
    -2
100
AcDbLine
 10
2015.137356965272
 20
10324.63109230426
 30
0.0
 11
2115.137356965272
 21
10324.63109230426
 31
0.0
  0
LINE
  5
1BB85
330
163ED
100
AcDbEntity
  8
寸法
 62
     0
 48
50.0
370
    -2
100
AcDbLine
 10
1960.137356965239
 20
10324.63109230426
 30
0.0
 11
1543.16679421676
 21
10324.63109230426
 31
0.0
  0
LINE
  5
1BB86
330
163ED
100
AcDbEntity
  8
寸法
 62
     0
 48
50.0
370
    -2
100
AcDbLine
 10
2015.137356965272
 20
10324.63109230426
 30
0.0
 11
1960.137356965239
 21
10324.63109230426
 31
0.0
  0
INSERT
  5
1BB87
330
163ED
100
AcDbEntity
  8
寸法
 62
     0
 48
50.0
370
    -2
100
AcDbBlockReference
  2
_DOTSMALL
 10
2015.137356965272
 20
10324.63109230426
 30
0.0
 41
100.0
 42
100.0
 43
100.0
 50
180.0
  0
INSERT
  5
1BB88
330
163ED
100
AcDbEntity
  8
寸法
 62
     0
 48
50.0
370
    -2
100
AcDbBlockReference
  2
_DOTSMALL
 10
1960.137356965239
 20
10324.63109230426
 30
0.0
 41
100.0
 42
100.0
 43
100.0
  0
MTEXT
  5
1BB89
330
163ED
100
AcDbEntity
  8
寸法
 62
     7
 48
50.0
100
AcDbMText
 10
1651.652075590998
 20
10424.63109230426
 30
0.0
 40
120.0
 41
0.0
 71
     5
 72
     1
  1
\A1;55
  7
STYLE1
 73
     1
 44
1.0
1001
ACAD
1000
MTEXTBEGIN
1070
    73
1070
     1
1070
    44
1040
1.0
1070
    74
1070
     0
1000
MTEXTEND
  0
POINT
  5
1BB8A
330
163ED
100
AcDbEntity
  8
DEFPOINTS
 62
     0
 48
50.0
100
AcDbPoint
 10
1960.137356965239
 20
9908.822872679285
 30
0.0
  0
POINT
  5
1BB8B
330
163ED
100
AcDbEntity
  8
DEFPOINTS
 62
     0
 48
50.0
100
AcDbPoint
 10
2015.137356965272
 20
9908.822872679285
 30
0.0
  0
POINT
  5
1BB8C
330
163ED
100
AcDbEntity
  8
DEFPOINTS
 62
     0
 48
50.0
100
AcDbPoint
 10
2015.137356965272
 20
10324.63109230426
 30
0.0
  0
ENDBLK
  5
164BC
330
163ED
100
AcDbEntity
  8
0
 48
50.0
100
AcDbBlockEnd
  0
BLOCK
  5
164BD
330
163FB
100
AcDbEntity
  8
0
 48
50.0
100
AcDbBlockBegin
  2
*D13
 70
     1
 10
0.0
 20
0.0
 30
0.0
  3
*D13
  1

  0
LINE
  5
1BB77
330
163FB
100
AcDbEntity
  8
寸法
 62
     0
 48
50.0
370
    -2
100
AcDbLine
 10
9795.137356965273
 20
9928.822872679379
 30
0.0
 11
9795.137356965273
 21
10384.63109230436
 31
0.0
  0
LINE
  5
1BB78
330
163FB
100
AcDbEntity
  8
寸法
 62
     0
 48
50.0
370
    -2
100
AcDbLine
 10
9850.137356965275
 20
9928.822872679379
 30
0.0
 11
9850.137356965275
 21
10384.63109230436
 31
0.0
  0
LINE
  5
1BB79
330
163FB
100
AcDbEntity
  8
寸法
 62
     0
 48
50.0
370
    -2
100
AcDbLine
 10
9795.137356965273
 20
10324.63109230436
 30
0.0
 11
9695.137356965274
 21
10324.63109230436
 31
0.0
  0
LINE
  5
1BB7A
330
163FB
100
AcDbEntity
  8
寸法
 62
     0
 48
50.0
370
    -2
100
AcDbLine
 10
9850.137356965275
 20
10324.63109230436
 30
0.0
 11
10267.10791971375
 21
10324.63109230436
 31
0.0
  0
LINE
  5
1BB7B
330
163FB
100
AcDbEntity
  8
寸法
 62
     0
 48
50.0
370
    -2
100
AcDbLine
 10
9795.137356965273
 20
10324.63109230436
 30
0.0
 11
9850.137356965275
 21
10324.63109230436
 31
0.0
  0
INSERT
  5
1BB7C
330
163FB
100
AcDbEntity
  8
寸法
 62
     0
 48
50.0
370
    -2
100
AcDbBlockReference
  2
_DOTSMALL
 10
9795.137356965273
 20
10324.63109230436
 30
0.0
 41
100.0
 42
100.0
 43
100.0
  0
INSERT
  5
1BB7D
330
163FB
100
AcDbEntity
  8
寸法
 62
     0
 48
50.0
370
    -2
100
AcDbBlockReference
  2
_DOTSMALL
 10
9850.137356965275
 20
10324.63109230436
 30
0.0
 41
100.0
 42
100.0
 43
100.0
 50
180.0
  0
MTEXT
  5
1BB7E
330
163FB
100
AcDbEntity
  8
寸法
 62
     7
 48
50.0
100
AcDbMText
 10
10158.62263833951
 20
10424.63109230436
 30
0.0
 40
120.0
 41
0.0
 71
     5
 72
     1
  1
\A1;55
  7
STYLE1
 73
     1
 44
1.0
1001
ACAD
1000
MTEXTBEGIN
1070
    73
1070
     1
1070
    44
1040
1.0
1070
    74
1070
     0
1000
MTEXTEND
  0
POINT
  5
1BB7F
330
163FB
100
AcDbEntity
  8
DEFPOINTS
 62
     0
 48
50.0
100
AcDbPoint
 10
9795.137356965273
 20
9908.82287267938
 30
0.0
  0
POINT
  5
1BB80
330
163FB
100
AcDbEntity
  8
DEFPOINTS
 62
     0
 48
50.0
100
AcDbPoint
 10
9850.137356965275
 20
9908.82287267938
 30
0.0
  0
POINT
  5
1BB81
330
163FB
100
AcDbEntity
  8
DEFPOINTS
 62
     0
 48
50.0
100
AcDbPoint
 10
9850.137356965275
 20
10324.63109230436
 30
0.0
  0
ENDBLK
  5
164C9
330
163FB
100
AcDbEntity
  8
0
 48
50.0
100
AcDbBlockEnd
  0
BLOCK
  5
165B6
330
165B5
100
AcDbEntity
  8
0
 48
50.0
100
AcDbBlockBegin
  2
*D14
 70
     1
 10
0.0
 20
0.0
 30
0.0
  3
*D14
  1

  0
LINE
  5
1B336
330
165B5
100
AcDbEntity
  8
寸法
 62
     0
 48
50.0
370
    -2
100
AcDbLine
 10
2063.137356965266
 20
7704.82287267928
 30
0.0
 11
2063.137356965266
 21
7104.392101913116
 31
0.0
  0
LINE
  5
1B337
330
165B5
100
AcDbEntity
  8
寸法
 62
     0
 48
50.0
370
    -2
100
AcDbLine
 10
2015.137356965262
 20
7678.822872679281
 30
0.0
 11
2015.137356965262
 21
7104.392101913116
 31
0.0
  0
LINE
  5
1B338
330
165B5
100
AcDbEntity
  8
寸法
 62
     0
 48
50.0
370
    -2
100
AcDbLine
 10
2063.137356965266
 20
7164.392101913115
 30
0.0
 11
2163.137356965266
 21
7164.392101913115
 31
0.0
  0
LINE
  5
1B339
330
165B5
100
AcDbEntity
  8
寸法
 62
     0
 48
50.0
370
    -2
100
AcDbLine
 10
2015.137356965262
 20
7164.392101913115
 30
0.0
 11
1915.137356965262
 21
7164.392101913115
 31
0.0
  0
MTEXT
  5
1B33A
330
165B5
100
AcDbEntity
  8
寸法
 62
     7
 48
50.0
100
AcDbMText
 10
2176.039327965324
 20
7264.392101913116
 30
0.0
 40
120.0
 41
0.0
 71
     5
 72
     1
  1
\A1;48
  7
STYLE1
 73
     1
 44
1.0
1001
ACAD
1000
MTEXTBEGIN
1070
    73
1070
     1
1070
    44
1040
1.0
1070
    74
1070
     0
1000
MTEXTEND
  0
LINE
  5
1B33B
330
165B5
100
AcDbEntity
  8
寸法
 62
     0
 48
50.0
370
    -2
100
AcDbLine
 10
2063.137356965266
 20
7164.392101913115
 30
0.0
 11
2015.137356965262
 21
7164.392101913115
 31
0.0
  0
INSERT
  5
1B33C
330
165B5
100
AcDbEntity
  8
寸法
 62
     0
 48
50.0
370
    -2
100
AcDbBlockReference
  2
_DOTSMALL
 10
2063.137356965266
 20
7164.392101913115
 30
0.0
 41
100.0
 42
100.0
 43
100.0
 50
180.0
  0
INSERT
  5
1B33D
330
165B5
100
AcDbEntity
  8
寸法
 62
     0
 48
50.0
370
    -2
100
AcDbBlockReference
  2
_DOTSMALL
 10
2015.137356965262
 20
7164.392101913115
 30
0.0
 41
100.0
 42
100.0
 43
100.0
  0
POINT
  5
1B33E
330
165B5
100
AcDbEntity
  8
DEFPOINTS
 62
     0
 48
50.0
100
AcDbPoint
 10
2063.137356965266
 20
7724.82287267928
 30
0.0
  0
POINT
  5
1B33F
330
165B5
100
AcDbEntity
  8
DEFPOINTS
 62
     0
 48
50.0
100
AcDbPoint
 10
2015.137356965262
 20
7698.822872679281
 30
0.0
  0
POINT
  5
1B340
330
165B5
100
AcDbEntity
  8
DEFPOINTS
 62
     0
 48
50.0
100
AcDbPoint
 10
2015.137356965262
 20
7164.392101913115
 30
0.0
  0
ENDBLK
  5
165C3
330
165B5
100
AcDbEntity
  8
0
 48
50.0
100
AcDbBlockEnd
  0
BLOCK
  5
165C5
330
165C4
100
AcDbEntity
  8
0
 48
50.0
100
AcDbBlockBegin
  2
*D15
 70
     1
 10
0.0
 20
0.0
 30
0.0
  3
*D15
  1

  0
LINE
  5
1B341
330
165C4
100
AcDbEntity
  8
寸法
 62
     0
 48
50.0
370
    -2
100
AcDbLine
 10
7165.137356965249
 20
7678.822872679368
 30
0.0
 11
7165.137356965249
 21
7104.392101913116
 31
0.0
  0
LINE
  5
1B342
330
165C4
100
AcDbEntity
  8
寸法
 62
     0
 48
50.0
370
    -2
100
AcDbLine
 10
7117.137356965248
 20
7704.82287267928
 30
0.0
 11
7117.137356965248
 21
7104.392101913116
 31
0.0
  0
LINE
  5
1B343
330
165C4
100
AcDbEntity
  8
寸法
 62
     0
 48
50.0
370
    -2
100
AcDbLine
 10
7165.137356965249
 20
7164.392101913115
 30
0.0
 11
7265.137356965249
 21
7164.392101913115
 31
0.0
  0
LINE
  5
1B344
330
165C4
100
AcDbEntity
  8
寸法
 62
     0
 48
50.0
370
    -2
100
AcDbLine
 10
7117.137356965248
 20
7164.392101913115
 30
0.0
 11
7017.137356965247
 21
7164.392101913115
 31
0.0
  0
MTEXT
  5
1B345
330
165C4
100
AcDbEntity
  8
寸法
 62
     7
 48
50.0
100
AcDbMText
 10
7006.1744593165
 20
7264.392101913116
 30
0.0
 40
120.0
 41
0.0
 71
     5
 72
     1
  1
\A1;48
  7
STYLE1
 73
     1
 44
1.0
1001
ACAD
1000
MTEXTBEGIN
1070
    73
1070
     1
1070
    44
1040
1.0
1070
    74
1070
     0
1000
MTEXTEND
  0
LINE
  5
1B346
330
165C4
100
AcDbEntity
  8
寸法
 62
     0
 48
50.0
370
    -2
100
AcDbLine
 10
7165.137356965249
 20
7164.392101913115
 30
0.0
 11
7117.137356965248
 21
7164.392101913115
 31
0.0
  0
INSERT
  5
1B347
330
165C4
100
AcDbEntity
  8
寸法
 62
     0
 48
50.0
370
    -2
100
AcDbBlockReference
  2
_DOTSMALL
 10
7165.137356965249
 20
7164.392101913115
 30
0.0
 41
100.0
 42
100.0
 43
100.0
 50
180.0
  0
INSERT
  5
1B348
330
165C4
100
AcDbEntity
  8
寸法
 62
     0
 48
50.0
370
    -2
100
AcDbBlockReference
  2
_DOTSMALL
 10
7117.137356965248
 20
7164.392101913115
 30
0.0
 41
100.0
 42
100.0
 43
100.0
  0
POINT
  5
1B349
330
165C4
100
AcDbEntity
  8
DEFPOINTS
 62
     0
 48
50.0
100
AcDbPoint
 10
7165.137356965249
 20
7698.822872679368
 30
0.0
  0
POINT
  5
1B34A
330
165C4
100
AcDbEntity
  8
DEFPOINTS
 62
     0
 48
50.0
100
AcDbPoint
 10
7117.137356965248
 20
7724.82287267928
 30
0.0
  0
POINT
  5
1B34B
330
165C4
100
AcDbEntity
  8
DEFPOINTS
 62
     0
 48
50.0
100
AcDbPoint
 10
7117.137356965248
 20
7164.392101913115
 30
0.0
  0
ENDBLK
  5
165D2
330
165C4
100
AcDbEntity
  8
0
 48
50.0
100
AcDbBlockEnd
  0
BLOCK
  5
1663F
330
165EA
100
AcDbEntity
  8
0
 48
50.0
100
AcDbBlockBegin
  2
*D16
 70
     1
 10
0.0
 20
0.0
 30
0.0
  3
*D16
  1

  0
LINE
  5
1B32D
330
165EA
100
AcDbEntity
  8
寸法
 62
     0
 48
50.0
370
    -2
100
AcDbLine
 10
7275.137356965263
 20
7678.822872679281
 30
0.0
 11
7275.137356965263
 21
7104.392101913116
 31
0.0
  0
LINE
  5
1B32E
330
165EA
100
AcDbEntity
  8
寸法
 62
     0
 48
50.0
370
    -2
100
AcDbLine
 10
7165.137356965249
 20
7678.822872679368
 30
0.0
 11
7165.137356965249
 21
7104.392101913116
 31
0.0
  0
LINE
  5
1B32F
330
165EA
100
AcDbEntity
  8
寸法
 62
     0
 48
50.0
370
    -2
100
AcDbLine
 10
7275.137356965263
 20
7164.392101913115
 30
0.0
 11
7165.137356965249
 21
7164.392101913115
 31
0.0
  0
MTEXT
  5
1B330
330
165EA
100
AcDbEntity
  8
寸法
 62
     7
 48
50.0
100
AcDbMText
 10
7220.137356965257
 20
7012.700206876885
 30
0.0
 40
120.0
 41
0.0
 71
     5
 72
     1
  1
\A1;110
  7
STYLE1
 73
     1
 44
1.0
1001
ACAD
1000
MTEXTBEGIN
1070
    73
1070
     1
1070
    44
1040
1.0
1070
    74
1070
     0
1000
MTEXTEND
  0
INSERT
  5
1B331
330
165EA
100
AcDbEntity
  8
寸法
 62
     0
 48
50.0
370
    -2
100
AcDbBlockReference
  2
_DOTSMALL
 10
7275.137356965263
 20
7164.392101913115
 30
0.0
 41
100.0
 42
100.0
 43
100.0
  0
INSERT
  5
1B332
330
165EA
100
AcDbEntity
  8
寸法
 62
     0
 48
50.0
370
    -2
100
AcDbBlockReference
  2
_DOTSMALL
 10
7165.137356965249
 20
7164.392101913115
 30
0.0
 41
100.0
 42
100.0
 43
100.0
 50
180.0
  0
POINT
  5
1B333
330
165EA
100
AcDbEntity
  8
DEFPOINTS
 62
     0
 48
50.0
100
AcDbPoint
 10
7275.137356965263
 20
7698.822872679281
 30
0.0
  0
POINT
  5
1B334
330
165EA
100
AcDbEntity
  8
DEFPOINTS
 62
     0
 48
50.0
100
AcDbPoint
 10
7165.137356965249
 20
7698.822872679368
 30
0.0
  0
POINT
  5
1B335
330
165EA
100
AcDbEntity
  8
DEFPOINTS
 62
     0
 48
50.0
100
AcDbPoint
 10
7165.137356965249
 20
7164.392101913115
 30
0.0
  0
ENDBLK
  5
16649
330
165EA
100
AcDbEntity
  8
0
 48
50.0
100
AcDbBlockEnd
  0
BLOCK
  5
1A1C7
330
166CF
100
AcDbEntity
  8
0
 48
50.0
100
AcDbBlockBegin
  2
*D17
 70
     1
 10
0.0
 20
0.0
 30
0.0
  3
*D17
  1

  0
LINE
  5
1BB6C
330
166CF
100
AcDbEntity
  8
寸法
 62
     0
 48
50.0
370
    -2
100
AcDbLine
 10
7275.137356965271
 20
9928.822872679333
 30
0.0
 11
7275.137356965271
 21
10384.63109230438
 31
0.0
  0
LINE
  5
1BB6D
330
166CF
100
AcDbEntity
  8
寸法
 62
     0
 48
50.0
370
    -2
100
AcDbLine
 10
7165.137356965273
 20
9928.822872679329
 30
0.0
 11
7165.137356965273
 21
10384.63109230438
 31
0.0
  0
LINE
  5
1BB6E
330
166CF
100
AcDbEntity
  8
寸法
 62
     0
 48
50.0
370
    -2
100
AcDbLine
 10
7275.137356965271
 20
10324.63109230438
 30
0.0
 11
7375.137356965272
 21
10324.63109230438
 31
0.0
  0
LINE
  5
1BB6F
330
166CF
100
AcDbEntity
  8
寸法
 62
     0
 48
50.0
370
    -2
100
AcDbLine
 10
7165.137356965273
 20
10324.63109230438
 30
0.0
 11
7065.137356965273
 21
10324.63109230438
 31
0.0
  0
LINE
  5
1BB70
330
166CF
100
AcDbEntity
  8
寸法
 62
     0
 48
50.0
370
    -2
100
AcDbLine
 10
7275.137356965271
 20
10324.63109230438
 30
0.0
 11
7165.137356965273
 21
10324.63109230438
 31
0.0
  0
INSERT
  5
1BB71
330
166CF
100
AcDbEntity
  8
寸法
 62
     0
 48
50.0
370
    -2
100
AcDbBlockReference
  2
_DOTSMALL
 10
7275.137356965271
 20
10324.63109230438
 30
0.0
 41
100.0
 42
100.0
 43
100.0
 50
180.0
  0
INSERT
  5
1BB72
330
166CF
100
AcDbEntity
  8
寸法
 62
     0
 48
50.0
370
    -2
100
AcDbBlockReference
  2
_DOTSMALL
 10
7165.137356965273
 20
10324.63109230438
 30
0.0
 41
100.0
 42
100.0
 43
100.0
  0
MTEXT
  5
1BB73
330
166CF
100
AcDbEntity
  8
寸法
 62
     7
 48
50.0
100
AcDbMText
 10
7220.137356965273
 20
10424.63109230438
 30
0.0
 40
120.0
 41
0.0
 71
     5
 72
     1
  1
\A1;110
  7
STYLE1
 73
     1
 44
1.0
1001
ACAD
1000
MTEXTBEGIN
1070
    73
1070
     1
1070
    44
1040
1.0
1070
    74
1070
     0
1000
MTEXTEND
  0
POINT
  5
1BB74
330
166CF
100
AcDbEntity
  8
DEFPOINTS
 62
     0
 48
50.0
100
AcDbPoint
 10
7275.137356965271
 20
9908.822872679333
 30
0.0
  0
POINT
  5
1BB75
330
166CF
100
AcDbEntity
  8
DEFPOINTS
 62
     0
 48
50.0
100
AcDbPoint
 10
7165.137356965273
 20
9908.82287267933
 30
0.0
  0
POINT
  5
1BB76
330
166CF
100
AcDbEntity
  8
DEFPOINTS
 62
     0
 48
50.0
100
AcDbPoint
 10
7165.137356965273
 20
10324.63109230438
 30
0.0
  0
ENDBLK
  5
1A1D3
330
166CF
100
AcDbEntity
  8
0
 48
50.0
100
AcDbBlockEnd
  0
BLOCK
  5
1A1A4
330
16908
100
AcDbEntity
  8
0
 48
50.0
100
AcDbBlockBegin
  2
*D18
 70
     1
 10
0.0
 20
0.0
 30
0.0
  3
*D18
  1

  0
LINE
  5
1BB63
330
16908
100
AcDbEntity
  8
寸法
 62
     0
 48
50.0
370
    -2
100
AcDbLine
 10
7220.137356965273
 20
10503.61900666233
 30
0.0
 11
7220.137356965273
 21
10633.95256586067
 31
0.0
  0
LINE
  5
1BB64
330
16908
100
AcDbEntity
  8
寸法
 62
     0
 48
50.0
370
    -2
100
AcDbLine
 10
9850.137356965275
 20
9928.822872679379
 30
0.0
 11
9850.137356965275
 21
10633.95256586067
 31
0.0
  0
LINE
  5
1BB65
330
16908
100
AcDbEntity
  8
寸法
 62
     0
 48
50.0
370
    -2
100
AcDbLine
 10
7220.137356965273
 20
10573.95256586067
 30
0.0
 11
9850.137356965275
 21
10573.95256586067
 31
0.0
  0
INSERT
  5
1BB66
330
16908
100
AcDbEntity
  8
寸法
 62
     0
 48
50.0
370
    -2
100
AcDbBlockReference
  2
_DOTSMALL
 10
7220.137356965273
 20
10573.95256586067
 30
0.0
 41
100.0
 42
100.0
 43
100.0
 50
180.0
  0
INSERT
  5
1BB67
330
16908
100
AcDbEntity
  8
寸法
 62
     0
 48
50.0
370
    -2
100
AcDbBlockReference
  2
_DOTSMALL
 10
9850.137356965275
 20
10573.95256586067
 30
0.0
 41
100.0
 42
100.0
 43
100.0
  0
MTEXT
  5
1BB68
330
16908
100
AcDbEntity
  8
寸法
 62
     7
 48
50.0
100
AcDbMText
 10
8535.137356965273
 20
10673.9643768843
 30
0.0
 40
120.0
 41
0.0
 71
     5
 72
     1
  1
\A1;2630
  7
STYLE1
 73
     1
 44
1.0
1001
ACAD
1000
MTEXTBEGIN
1070
    73
1070
     1
1070
    44
1040
1.0
1070
    74
1070
     0
1000
MTEXTEND
  0
POINT
  5
1BB69
330
16908
100
AcDbEntity
  8
DEFPOINTS
 62
     0
 48
50.0
100
AcDbPoint
 10
7220.137356965273
 20
10483.61900666233
 30
0.0
  0
POINT
  5
1BB6A
330
16908
100
AcDbEntity
  8
DEFPOINTS
 62
     0
 48
50.0
100
AcDbPoint
 10
9850.137356965275
 20
9908.82287267938
 30
0.0
  0
POINT
  5
1BB6B
330
16908
100
AcDbEntity
  8
DEFPOINTS
 62
     0
 48
50.0
100
AcDbPoint
 10
9850.137356965275
 20
10573.95256586067
 30
0.0
  0
ENDBLK
  5
1A1AE
330
16908
100
AcDbEntity
  8
0
 48
50.0
100
AcDbBlockEnd
  0
BLOCK
  5
17CB3
330
17CB2
100
AcDbEntity
  8
0
 48
50.0
100
AcDbBlockBegin
  2
*D19
 70
     1
 10
0.0
 20
0.0
 30
0.0
  3
*D19
  1

  0
LINE
  5
1B2DE
330
17CB2
100
AcDbEntity
  8
寸法
 62
     0
 48
50.0
370
    -2
100
AcDbLine
 10
4693.137356965266
 20
7704.82287267928
 30
0.0
 11
4693.137356965266
 21
7104.392101913116
 31
0.0
  0
LINE
  5
1B2DF
330
17CB2
100
AcDbEntity
  8
寸法
 62
     0
 48
50.0
370
    -2
100
AcDbLine
 10
4645.137356965262
 20
7678.822872679281
 30
0.0
 11
4645.137356965262
 21
7104.392101913116
 31
0.0
  0
LINE
  5
1B2E0
330
17CB2
100
AcDbEntity
  8
寸法
 62
     0
 48
50.0
370
    -2
100
AcDbLine
 10
4693.137356965266
 20
7164.392101913115
 30
0.0
 11
4793.137356965266
 21
7164.392101913115
 31
0.0
  0
LINE
  5
1B2E1
330
17CB2
100
AcDbEntity
  8
寸法
 62
     0
 48
50.0
370
    -2
100
AcDbLine
 10
4645.137356965262
 20
7164.392101913115
 30
0.0
 11
4545.137356965262
 21
7164.392101913115
 31
0.0
  0
MTEXT
  5
1B2E2
330
17CB2
100
AcDbEntity
  8
寸法
 62
     7
 48
50.0
100
AcDbMText
 10
4806.039327965323
 20
7264.392101913116
 30
0.0
 40
120.0
 41
0.0
 71
     5
 72
     1
  1
\A1;48
  7
STYLE1
 73
     1
 44
1.0
1001
ACAD
1000
MTEXTBEGIN
1070
    73
1070
     1
1070
    44
1040
1.0
1070
    74
1070
     0
1000
MTEXTEND
  0
LINE
  5
1B2E3
330
17CB2
100
AcDbEntity
  8
寸法
 62
     0
 48
50.0
370
    -2
100
AcDbLine
 10
4693.137356965266
 20
7164.392101913115
 30
0.0
 11
4645.137356965262
 21
7164.392101913115
 31
0.0
  0
INSERT
  5
1B2E4
330
17CB2
100
AcDbEntity
  8
寸法
 62
     0
 48
50.0
370
    -2
100
AcDbBlockReference
  2
_DOTSMALL
 10
4693.137356965266
 20
7164.392101913115
 30
0.0
 41
100.0
 42
100.0
 43
100.0
 50
180.0
  0
INSERT
  5
1B2E5
330
17CB2
100
AcDbEntity
  8
寸法
 62
     0
 48
50.0
370
    -2
100
AcDbBlockReference
  2
_DOTSMALL
 10
4645.137356965262
 20
7164.392101913115
 30
0.0
 41
100.0
 42
100.0
 43
100.0
  0
POINT
  5
1B2E6
330
17CB2
100
AcDbEntity
  8
DEFPOINTS
 62
     0
 48
50.0
100
AcDbPoint
 10
4693.137356965266
 20
7724.82287267928
 30
0.0
  0
POINT
  5
1B2E7
330
17CB2
100
AcDbEntity
  8
DEFPOINTS
 62
     0
 48
50.0
100
AcDbPoint
 10
4645.137356965262
 20
7698.822872679281
 30
0.0
  0
POINT
  5
1B2E8
330
17CB2
100
AcDbEntity
  8
DEFPOINTS
 62
     0
 48
50.0
100
AcDbPoint
 10
4645.137356965262
 20
7164.392101913115
 30
0.0
  0
ENDBLK
  5
17CC0
330
17CB2
100
AcDbEntity
  8
0
 48
50.0
100
AcDbBlockEnd
  0
BLOCK
  5
17CC2
330
17CC1
100
AcDbEntity
  8
0
 48
50.0
100
AcDbBlockBegin
  2
*D20
 70
     1
 10
0.0
 20
0.0
 30
0.0
  3
*D20
  1

  0
LINE
  5
1B2E9
330
17CC1
100
AcDbEntity
  8
寸法
 62
     0
 48
50.0
370
    -2
100
AcDbLine
 10
4535.137356965249
 20
7678.822872679368
 30
0.0
 11
4535.137356965249
 21
7104.392101913116
 31
0.0
  0
LINE
  5
1B2EA
330
17CC1
100
AcDbEntity
  8
寸法
 62
     0
 48
50.0
370
    -2
100
AcDbLine
 10
4487.137356965248
 20
7704.82287267928
 30
0.0
 11
4487.137356965248
 21
7104.392101913116
 31
0.0
  0
LINE
  5
1B2EB
330
17CC1
100
AcDbEntity
  8
寸法
 62
     0
 48
50.0
370
    -2
100
AcDbLine
 10
4535.137356965249
 20
7164.392101913115
 30
0.0
 11
4635.137356965249
 21
7164.392101913115
 31
0.0
  0
LINE
  5
1B2EC
330
17CC1
100
AcDbEntity
  8
寸法
 62
     0
 48
50.0
370
    -2
100
AcDbLine
 10
4487.137356965248
 20
7164.392101913115
 30
0.0
 11
4387.137356965247
 21
7164.392101913115
 31
0.0
  0
MTEXT
  5
1B2ED
330
17CC1
100
AcDbEntity
  8
寸法
 62
     7
 48
50.0
100
AcDbMText
 10
4376.174459316501
 20
7264.392101913116
 30
0.0
 40
120.0
 41
0.0
 71
     5
 72
     1
  1
\A1;48
  7
STYLE1
 73
     1
 44
1.0
1001
ACAD
1000
MTEXTBEGIN
1070
    73
1070
     1
1070
    44
1040
1.0
1070
    74
1070
     0
1000
MTEXTEND
  0
LINE
  5
1B2EE
330
17CC1
100
AcDbEntity
  8
寸法
 62
     0
 48
50.0
370
    -2
100
AcDbLine
 10
4535.137356965249
 20
7164.392101913115
 30
0.0
 11
4487.137356965248
 21
7164.392101913115
 31
0.0
  0
INSERT
  5
1B2EF
330
17CC1
100
AcDbEntity
  8
寸法
 62
     0
 48
50.0
370
    -2
100
AcDbBlockReference
  2
_DOTSMALL
 10
4535.137356965249
 20
7164.392101913115
 30
0.0
 41
100.0
 42
100.0
 43
100.0
 50
180.0
  0
INSERT
  5
1B2F0
330
17CC1
100
AcDbEntity
  8
寸法
 62
     0
 48
50.0
370
    -2
100
AcDbBlockReference
  2
_DOTSMALL
 10
4487.137356965248
 20
7164.392101913115
 30
0.0
 41
100.0
 42
100.0
 43
100.0
  0
POINT
  5
1B2F1
330
17CC1
100
AcDbEntity
  8
DEFPOINTS
 62
     0
 48
50.0
100
AcDbPoint
 10
4535.137356965249
 20
7698.822872679368
 30
0.0
  0
POINT
  5
1B2F2
330
17CC1
100
AcDbEntity
  8
DEFPOINTS
 62
     0
 48
50.0
100
AcDbPoint
 10
4487.137356965248
 20
7724.82287267928
 30
0.0
  0
POINT
  5
1B2F3
330
17CC1
100
AcDbEntity
  8
DEFPOINTS
 62
     0
 48
50.0
100
AcDbPoint
 10
4487.137356965248
 20
7164.392101913115
 30
0.0
  0
ENDBLK
  5
17CCF
330
17CC1
100
AcDbEntity
  8
0
 48
50.0
100
AcDbBlockEnd
  0
BLOCK
  5
185A4
330
17CD0
100
AcDbEntity
  8
0
 48
50.0
100
AcDbBlockBegin
  2
*D21
 70
     1
 10
0.0
 20
0.0
 30
0.0
  3
*D21
  1

  0
LINE
  5
1B2F4
330
17CD0
100
AcDbEntity
  8
寸法
 62
     0
 48
50.0
370
    -2
100
AcDbLine
 10
2063.137356965266
 20
7704.82287267928
 30
0.0
 11
2063.137356965266
 21
7104.392101913116
 31
0.0
  0
LINE
  5
1B2F5
330
17CD0
100
AcDbEntity
  8
寸法
 62
     0
 48
50.0
370
    -2
100
AcDbLine
 10
4487.137356965248
 20
7164.392101913115
 30
0.0
 11
2063.137356965266
 21
7164.392101913115
 31
0.0
  0
INSERT
  5
1B2F6
330
17CD0
100
AcDbEntity
  8
寸法
 62
     0
 48
50.0
370
    -2
100
AcDbBlockReference
  2
_DOTSMALL
 10
4487.137356965248
 20
7164.392101913115
 30
0.0
 41
100.0
 42
100.0
 43
100.0
  0
INSERT
  5
1B2F7
330
17CD0
100
AcDbEntity
  8
寸法
 62
     0
 48
50.0
370
    -2
100
AcDbBlockReference
  2
_DOTSMALL
 10
2063.137356965266
 20
7164.392101913115
 30
0.0
 41
100.0
 42
100.0
 43
100.0
 50
180.0
  0
MTEXT
  5
1B2F8
330
17CD0
100
AcDbEntity
  8
寸法
 62
     7
 48
50.0
100
AcDbMText
 10
3275.137356965257
 20
7264.403912936737
 30
0.0
 40
120.0
 41
0.0
 71
     5
 72
     1
  1
\A1;有効開口部間口 2424
  7
STYLE1
 73
     1
 44
1.0
1001
ACAD
1000
MTEXTBEGIN
1070
    73
1070
     1
1070
    44
1040
1.0
1070
    74
1070
     0
1000
MTEXTEND
  0
POINT
  5
1B2F9
330
17CD0
100
AcDbEntity
  8
DEFPOINTS
 62
     0
 48
50.0
100
AcDbPoint
 10
4487.137356965248
 20
7724.82287267928
 30
0.0
  0
POINT
  5
1B2FA
330
17CD0
100
AcDbEntity
  8
DEFPOINTS
 62
     0
 48
50.0
100
AcDbPoint
 10
2063.137356965266
 20
7724.82287267928
 30
0.0
  0
POINT
  5
1B2FB
330
17CD0
100
AcDbEntity
  8
DEFPOINTS
 62
     0
 48
50.0
100
AcDbPoint
 10
2063.137356965266
 20
7164.392101913115
 30
0.0
  0
ENDBLK
  5
185AD
330
17CD0
100
AcDbEntity
  8
0
 48
50.0
100
AcDbBlockEnd
  0
BLOCK
  5
17CDC
330
17CDB
100
AcDbEntity
  8
0
 48
50.0
100
AcDbBlockBegin
  2
*D22
 70
     1
 10
0.0
 20
0.0
 30
0.0
  3
*D22
  1

  0
LINE
  5
1B2D5
330
17CDB
100
AcDbEntity
  8
寸法
 62
     0
 48
50.0
370
    -2
100
AcDbLine
 10
4645.137356965262
 20
7678.822872679281
 30
0.0
 11
4645.137356965262
 21
7104.392101913116
 31
0.0
  0
LINE
  5
1B2D6
330
17CDB
100
AcDbEntity
  8
寸法
 62
     0
 48
50.0
370
    -2
100
AcDbLine
 10
4535.137356965249
 20
7678.822872679368
 30
0.0
 11
4535.137356965249
 21
7104.392101913116
 31
0.0
  0
LINE
  5
1B2D7
330
17CDB
100
AcDbEntity
  8
寸法
 62
     0
 48
50.0
370
    -2
100
AcDbLine
 10
4645.137356965262
 20
7164.392101913115
 30
0.0
 11
4535.137356965249
 21
7164.392101913115
 31
0.0
  0
MTEXT
  5
1B2D8
330
17CDB
100
AcDbEntity
  8
寸法
 62
     7
 48
50.0
100
AcDbMText
 10
4590.137356965256
 20
7012.700206876885
 30
0.0
 40
120.0
 41
0.0
 71
     5
 72
     1
  1
\A1;110
  7
STYLE1
 73
     1
 44
1.0
1001
ACAD
1000
MTEXTBEGIN
1070
    73
1070
     1
1070
    44
1040
1.0
1070
    74
1070
     0
1000
MTEXTEND
  0
INSERT
  5
1B2D9
330
17CDB
100
AcDbEntity
  8
寸法
 62
     0
 48
50.0
370
    -2
100
AcDbBlockReference
  2
_DOTSMALL
 10
4645.137356965262
 20
7164.392101913115
 30
0.0
 41
100.0
 42
100.0
 43
100.0
  0
INSERT
  5
1B2DA
330
17CDB
100
AcDbEntity
  8
寸法
 62
     0
 48
50.0
370
    -2
100
AcDbBlockReference
  2
_DOTSMALL
 10
4535.137356965249
 20
7164.392101913115
 30
0.0
 41
100.0
 42
100.0
 43
100.0
 50
180.0
  0
POINT
  5
1B2DB
330
17CDB
100
AcDbEntity
  8
DEFPOINTS
 62
     0
 48
50.0
100
AcDbPoint
 10
4645.137356965262
 20
7698.822872679281
 30
0.0
  0
POINT
  5
1B2DC
330
17CDB
100
AcDbEntity
  8
DEFPOINTS
 62
     0
 48
50.0
100
AcDbPoint
 10
4535.137356965249
 20
7698.822872679368
 30
0.0
  0
POINT
  5
1B2DD
330
17CDB
100
AcDbEntity
  8
DEFPOINTS
 62
     0
 48
50.0
100
AcDbPoint
 10
4535.137356965249
 20
7164.392101913115
 30
0.0
  0
ENDBLK
  5
17CE6
330
17CDB
100
AcDbEntity
  8
0
 48
50.0
100
AcDbBlockEnd
  0
BLOCK
  5
18C3B
330
17CE7
100
AcDbEntity
  8
0
 48
50.0
100
AcDbBlockBegin
  2
*D23
 70
     1
 10
0.0
 20
0.0
 30
0.0
  3
*D23
  1

  0
LINE
  5
1BB5A
330
17CE7
100
AcDbEntity
  8
寸法
 62
     0
 48
50.0
370
    -2
100
AcDbLine
 10
2015.137356965272
 20
9928.822872679283
 30
0.0
 11
2015.137356965272
 21
10384.63109230438
 31
0.0
  0
LINE
  5
1BB5B
330
17CE7
100
AcDbEntity
  8
寸法
 62
     0
 48
50.0
370
    -2
100
AcDbLine
 10
4535.137356965273
 20
9928.822872679379
 30
0.0
 11
4535.137356965273
 21
10384.63109230438
 31
0.0
  0
LINE
  5
1BB5C
330
17CE7
100
AcDbEntity
  8
寸法
 62
     0
 48
50.0
370
    -2
100
AcDbLine
 10
2015.137356965272
 20
10324.63109230438
 30
0.0
 11
4535.137356965273
 21
10324.63109230438
 31
0.0
  0
INSERT
  5
1BB5D
330
17CE7
100
AcDbEntity
  8
寸法
 62
     0
 48
50.0
370
    -2
100
AcDbBlockReference
  2
_DOTSMALL
 10
2015.137356965272
 20
10324.63109230438
 30
0.0
 41
100.0
 42
100.0
 43
100.0
 50
180.0
  0
INSERT
  5
1BB5E
330
17CE7
100
AcDbEntity
  8
寸法
 62
     0
 48
50.0
370
    -2
100
AcDbBlockReference
  2
_DOTSMALL
 10
4535.137356965273
 20
10324.63109230438
 30
0.0
 41
100.0
 42
100.0
 43
100.0
  0
MTEXT
  5
1BB5F
330
17CE7
100
AcDbEntity
  8
寸法
 62
     7
 48
50.0
100
AcDbMText
 10
3275.137356965273
 20
10424.642903328
 30
0.0
 40
120.0
 41
0.0
 71
     5
 72
     1
  1
\A1;6X420=2520
  7
STYLE1
 73
     1
 44
1.0
1001
ACAD
1000
MTEXTBEGIN
1070
    73
1070
     1
1070
    44
1040
1.0
1070
    74
1070
     0
1000
MTEXTEND
  0
POINT
  5
1BB60
330
17CE7
100
AcDbEntity
  8
DEFPOINTS
 62
     0
 48
50.0
100
AcDbPoint
 10
2015.137356965272
 20
9908.822872679285
 30
0.0
  0
POINT
  5
1BB61
330
17CE7
100
AcDbEntity
  8
DEFPOINTS
 62
     0
 48
50.0
100
AcDbPoint
 10
4535.137356965273
 20
9908.82287267938
 30
0.0
  0
POINT
  5
1BB62
330
17CE7
100
AcDbEntity
  8
DEFPOINTS
 62
     0
 48
50.0
100
AcDbPoint
 10
4535.137356965273
 20
10324.63109230438
 30
0.0
  0
ENDBLK
  5
18C45
330
17CE7
100
AcDbEntity
  8
0
 48
50.0
100
AcDbBlockEnd
  0
BLOCK
  5
1A1BA
330
17CF3
100
AcDbEntity
  8
0
 48
50.0
100
AcDbBlockBegin
  2
*D24
 70
     1
 10
0.0
 20
0.0
 30
0.0
  3
*D24
  1

  0
LINE
  5
1BB46
330
17CF3
100
AcDbEntity
  8
寸法
 62
     0
 48
50.0
370
    -2
100
AcDbLine
 10
4645.137356965271
 20
9928.822872679333
 30
0.0
 11
4645.137356965271
 21
10384.63109230438
 31
0.0
  0
LINE
  5
1BB47
330
17CF3
100
AcDbEntity
  8
寸法
 62
     0
 48
50.0
370
    -2
100
AcDbLine
 10
4535.137356965273
 20
9928.822872679329
 30
0.0
 11
4535.137356965273
 21
10384.63109230438
 31
0.0
  0
LINE
  5
1BB48
330
17CF3
100
AcDbEntity
  8
寸法
 62
     0
 48
50.0
370
    -2
100
AcDbLine
 10
4645.137356965271
 20
10324.63109230438
 30
0.0
 11
4745.137356965272
 21
10324.63109230438
 31
0.0
  0
LINE
  5
1BB49
330
17CF3
100
AcDbEntity
  8
寸法
 62
     0
 48
50.0
370
    -2
100
AcDbLine
 10
4535.137356965273
 20
10324.63109230438
 30
0.0
 11
4435.137356965273
 21
10324.63109230438
 31
0.0
  0
LINE
  5
1BB4A
330
17CF3
100
AcDbEntity
  8
寸法
 62
     0
 48
50.0
370
    -2
100
AcDbLine
 10
4645.137356965271
 20
10324.63109230438
 30
0.0
 11
4535.137356965273
 21
10324.63109230438
 31
0.0
  0
INSERT
  5
1BB4B
330
17CF3
100
AcDbEntity
  8
寸法
 62
     0
 48
50.0
370
    -2
100
AcDbBlockReference
  2
_DOTSMALL
 10
4645.137356965271
 20
10324.63109230438
 30
0.0
 41
100.0
 42
100.0
 43
100.0
 50
180.0
  0
INSERT
  5
1BB4C
330
17CF3
100
AcDbEntity
  8
寸法
 62
     0
 48
50.0
370
    -2
100
AcDbBlockReference
  2
_DOTSMALL
 10
4535.137356965273
 20
10324.63109230438
 30
0.0
 41
100.0
 42
100.0
 43
100.0
  0
MTEXT
  5
1BB4D
330
17CF3
100
AcDbEntity
  8
寸法
 62
     7
 48
50.0
100
AcDbMText
 10
4590.137356965272
 20
10424.63109230438
 30
0.0
 40
120.0
 41
0.0
 71
     5
 72
     1
  1
\A1;110
  7
STYLE1
 73
     1
 44
1.0
1001
ACAD
1000
MTEXTBEGIN
1070
    73
1070
     1
1070
    44
1040
1.0
1070
    74
1070
     0
1000
MTEXTEND
  0
POINT
  5
1BB4E
330
17CF3
100
AcDbEntity
  8
DEFPOINTS
 62
     0
 48
50.0
100
AcDbPoint
 10
4645.137356965271
 20
9908.822872679333
 30
0.0
  0
POINT
  5
1BB4F
330
17CF3
100
AcDbEntity
  8
DEFPOINTS
 62
     0
 48
50.0
100
AcDbPoint
 10
4535.137356965273
 20
9908.82287267933
 30
0.0
  0
POINT
  5
1BB50
330
17CF3
100
AcDbEntity
  8
DEFPOINTS
 62
     0
 48
50.0
100
AcDbPoint
 10
4535.137356965273
 20
10324.63109230438
 30
0.0
  0
ENDBLK
  5
1A1C6
330
17CF3
100
AcDbEntity
  8
0
 48
50.0
100
AcDbBlockEnd
  0
BLOCK
  5
1A1AF
330
17D01
100
AcDbEntity
  8
0
 48
50.0
100
AcDbBlockBegin
  2
*D25
 70
     1
 10
0.0
 20
0.0
 30
0.0
  3
*D25
  1

  0
LINE
  5
1BB51
330
17D01
100
AcDbEntity
  8
寸法
 62
     0
 48
50.0
370
    -2
100
AcDbLine
 10
1960.137356965239
 20
9928.822872679251
 30
0.0
 11
1960.137356965239
 21
10633.95256586067
 31
0.0
  0
LINE
  5
1BB52
330
17D01
100
AcDbEntity
  8
寸法
 62
     0
 48
50.0
370
    -2
100
AcDbLine
 10
4590.137356965273
 20
10503.61900666233
 30
0.0
 11
4590.137356965273
 21
10633.95256586067
 31
0.0
  0
LINE
  5
1BB53
330
17D01
100
AcDbEntity
  8
寸法
 62
     0
 48
50.0
370
    -2
100
AcDbLine
 10
1960.137356965239
 20
10573.95256586067
 30
0.0
 11
4590.137356965273
 21
10573.95256586067
 31
0.0
  0
INSERT
  5
1BB54
330
17D01
100
AcDbEntity
  8
寸法
 62
     0
 48
50.0
370
    -2
100
AcDbBlockReference
  2
_DOTSMALL
 10
1960.137356965239
 20
10573.95256586067
 30
0.0
 41
100.0
 42
100.0
 43
100.0
 50
180.0
  0
INSERT
  5
1BB55
330
17D01
100
AcDbEntity
  8
寸法
 62
     0
 48
50.0
370
    -2
100
AcDbBlockReference
  2
_DOTSMALL
 10
4590.137356965273
 20
10573.95256586067
 30
0.0
 41
100.0
 42
100.0
 43
100.0
  0
MTEXT
  5
1BB56
330
17D01
100
AcDbEntity
  8
寸法
 62
     7
 48
50.0
100
AcDbMText
 10
3275.137356965256
 20
10673.9643768843
 30
0.0
 40
120.0
 41
0.0
 71
     5
 72
     1
  1
\A1;2630
  7
STYLE1
 73
     1
 44
1.0
1001
ACAD
1000
MTEXTBEGIN
1070
    73
1070
     1
1070
    44
1040
1.0
1070
    74
1070
     0
1000
MTEXTEND
  0
POINT
  5
1BB57
330
17D01
100
AcDbEntity
  8
DEFPOINTS
 62
     0
 48
50.0
100
AcDbPoint
 10
1960.137356965239
 20
9908.822872679252
 30
0.0
  0
POINT
  5
1BB58
330
17D01
100
AcDbEntity
  8
DEFPOINTS
 62
     0
 48
50.0
100
AcDbPoint
 10
4590.137356965273
 20
10483.61900666233
 30
0.0
  0
POINT
  5
1BB59
330
17D01
100
AcDbEntity
  8
DEFPOINTS
 62
     0
 48
50.0
100
AcDbPoint
 10
4590.137356965273
 20
10573.95256586067
 30
0.0
  0
ENDBLK
  5
1A1B9
330
17D01
100
AcDbEntity
  8
0
 48
50.0
100
AcDbBlockEnd
  0
BLOCK
  5
1A2E5
330
1A2DB
100
AcDbEntity
  8
0
 48
50.0
100
AcDbBlockBegin
  2
*D26
 70
     1
 10
0.0
 20
0.0
 30
0.0
  3
*D26
  1

  0
LINE
  5
1A2DC
330
1A2DB
100
AcDbEntity
  8
0
  6
ByBlock
 62
     0
 48
50.0
100
AcDbLine
 10
7366.173057123664
 20
8737.138440697341
 30
0.0
 11
7761.530782985689
 21
8631.202657331206
 31
0.0
  0
LINE
  5
1A2DD
330
1A2DB
100
AcDbEntity
  8
0
  6
ByBlock
 62
     0
 48
50.0
100
AcDbLine
 10
7366.173057123664
 20
8287.138440697345
 30
0.0
 11
7761.530782985689
 21
8181.20265733121
 31
0.0
  0
LINE
  5
1A2DE
330
1A2DB
100
AcDbEntity
  8
0
  6
ByBlock
 62
     0
 48
50.0
100
AcDbLine
 10
7701.530782985688
 20
8647.279608877074
 30
0.0
 11
7701.530782985688
 21
8197.279608877078
 31
0.0
  0
INSERT
  5
1A2DF
330
1A2DB
100
AcDbEntity
  8
0
  6
ByBlock
 62
     0
 48
50.0
100
AcDbBlockReference
  2
_DOTSMALL
 10
7701.530782985688
 20
8647.279608877074
 30
0.0
 41
100.0
 42
100.0
 43
100.0
 50
90.0
  0
INSERT
  5
1A2E0
330
1A2DB
100
AcDbEntity
  8
0
  6
ByBlock
 62
     0
 48
50.0
100
AcDbBlockReference
  2
_DOTSMALL
 10
7701.530782985688
 20
8197.279608877078
 30
0.0
 41
100.0
 42
100.0
 43
100.0
 50
270.0
  0
MTEXT
  5
1A2E1
330
1A2DB
100
AcDbEntity
  8
0
  6
ByBlock
 62
     7
 48
50.0
100
AcDbMText
 10
7601.530782985688
 20
8422.279608877076
 30
0.0
 40
120.0
 41
0.0
 71
     5
 72
     1
  1
\A1;450
  7
STYLE1
 11
0.0000000000000001
 21
1.0
 31
0.0
 73
     1
 44
1.0
1001
ACAD
1000
MTEXTBEGIN
1070
    73
1070
     1
1070
    44
1040
1.0
1070
    74
1070
     0
1000
MTEXTEND
  0
POINT
  5
1A2E2
330
1A2DB
100
AcDbEntity
  8
DEFPOINTS
  6
ByBlock
 62
     0
 48
50.0
100
AcDbPoint
 10
7346.173057123664
 20
8742.497424545964
 30
0.0
  0
POINT
  5
1A2E3
330
1A2DB
100
AcDbEntity
  8
DEFPOINTS
  6
ByBlock
 62
     0
 48
50.0
100
AcDbPoint
 10
7346.173057123664
 20
8292.497424545967
 30
0.0
  0
POINT
  5
1A2E4
330
1A2DB
100
AcDbEntity
  8
DEFPOINTS
  6
ByBlock
 62
     0
 48
50.0
100
AcDbPoint
 10
7701.530782985688
 20
8197.279608877078
 30
0.0
  0
ENDBLK
  5
1A2E6
330
1A2DB
100
AcDbEntity
  8
0
 48
50.0
100
AcDbBlockEnd
  0
BLOCK
  5
1A2E9
330
1A2E7
100
AcDbEntity
  8
0
 48
50.0
100
AcDbBlockBegin
  2
A$C3EB005E7
 70
     0
 10
0.0
 20
0.0
 30
0.0
  3
A$C3EB005E7
  1

  0
DIMENSION
  5
1A2E8
330
1A2E7
100
AcDbEntity
  8
寸法
100
AcDbDimension
  2
*D26
 10
355.3577095761848
 20
16.07693845800531
 30
0.0
 11
255.3577095761848
 21
661.0769384580034
 31
0.0
 12
-7346.173073409504
 22
-8181.202670419073
 32
0.0
 71
     5
 42
-1.0
  3
INABA_S40G
100
AcDbAlignedDimension
 13
-0.0000162858395925
 23
561.2947541268913
 33
0.0
 14
-0.0000162858395925
 24
111.294754126895
 34
0.0
 50
90.0
100
AcDbRotatedDimension
1001
ACAD
1000
DSTYLE
1002
{
1002
}
  0
ENDBLK
  5
1A2EA
330
1A2E7
100
AcDbEntity
  8
0
 48
50.0
100
AcDbBlockEnd
  0
BLOCK
  5
1AF69
330
1AF5D
100
AcDbEntity
  8
0
 48
50.0
100
AcDbBlockBegin
  2
*D28
 70
     1
 10
0.0
 20
0.0
 30
0.0
  3
*D28
  1

  0
LINE
  5
1B3ED
330
1AF5D
100
AcDbEntity
  8
寸法
 62
     0
 48
50.0
370
    -2
100
AcDbLine
 10
9900.137356965236
 20
5017.049209232834
 30
0.0
 11
9900.137356965236
 21
5456.142378572304
 31
0.0
  0
LINE
  5
1B3EE
330
1AF5D
100
AcDbEntity
  8
寸法
 62
     0
 48
50.0
370
    -2
100
AcDbLine
 10
9850.137356965236
 20
5017.049209232836
 30
0.0
 11
9850.137356965236
 21
5456.142378572304
 31
0.0
  0
LINE
  5
1B3EF
330
1AF5D
100
AcDbEntity
  8
寸法
 62
     0
 48
50.0
370
    -2
100
AcDbLine
 10
9850.137356965236
 20
5396.142378572305
 30
0.0
 11
9750.137356965236
 21
5396.142378572305
 31
0.0
  0
LINE
  5
1B3F0
330
1AF5D
100
AcDbEntity
  8
寸法
 62
     0
 48
50.0
370
    -2
100
AcDbLine
 10
9900.137356965236
 20
5396.142378572305
 30
0.0
 11
10319.66988243396
 21
5396.142378572305
 31
0.0
  0
LINE
  5
1B3F1
330
1AF5D
100
AcDbEntity
  8
寸法
 62
     0
 48
50.0
370
    -2
100
AcDbLine
 10
9850.137356965236
 20
5396.142378572305
 30
0.0
 11
9900.137356965236
 21
5396.142378572305
 31
0.0
  0
INSERT
  5
1B3F2
330
1AF5D
100
AcDbEntity
  8
寸法
 62
     0
 48
50.0
370
    -2
100
AcDbBlockReference
  2
_DOTSMALL
 10
9850.137356965236
 20
5396.142378572305
 30
0.0
 41
100.0
 42
100.0
 43
100.0
  0
INSERT
  5
1B3F3
330
1AF5D
100
AcDbEntity
  8
寸法
 62
     0
 48
50.0
370
    -2
100
AcDbBlockReference
  2
_DOTSMALL
 10
9900.137356965236
 20
5396.142378572305
 30
0.0
 41
100.0
 42
100.0
 43
100.0
 50
180.0
  0
MTEXT
  5
1B3F4
330
1AF5D
100
AcDbEntity
  8
寸法
 62
     7
 48
50.0
100
AcDbMText
 10
10213.62263833947
 20
5496.142378572304
 30
0.0
 40
120.0
 41
0.0
 71
     5
 72
     1
  1
\A1;50
  7
STYLE1
 73
     1
 44
1.0
1001
ACAD
1000
MTEXTBEGIN
1070
    73
1070
     1
1070
    44
1040
1.0
1070
    74
1070
     0
1000
MTEXTEND
  0
POINT
  5
1B3F5
330
1AF5D
100
AcDbEntity
  8
DEFPOINTS
 62
     0
 48
50.0
100
AcDbPoint
 10
9900.137356965236
 20
4997.049209232834
 30
0.0
  0
POINT
  5
1B3F6
330
1AF5D
100
AcDbEntity
  8
DEFPOINTS
 62
     0
 48
50.0
100
AcDbPoint
 10
9850.137356965236
 20
4997.049209232836
 30
0.0
  0
POINT
  5
1B3F7
330
1AF5D
100
AcDbEntity
  8
DEFPOINTS
 62
     0
 48
50.0
100
AcDbPoint
 10
9850.137356965236
 20
5396.142378572305
 30
0.0
  0
ENDBLK
  5
1AF6A
330
1AF5D
100
AcDbEntity
  8
0
 48
50.0
100
AcDbBlockEnd
  0
BLOCK
  5
1AF75
330
1AF6B
100
AcDbEntity
  8
0
 48
50.0
100
AcDbBlockBegin
  2
*D29
 70
     1
 10
0.0
 20
0.0
 30
0.0
  3
*D29
  1

  0
LINE
  5
1B3E4
330
1AF6B
100
AcDbEntity
  8
寸法
 62
     0
 48
50.0
370
    -2
100
AcDbLine
 10
9850.137356965236
 20
5017.049209232836
 30
0.0
 11
9850.137356965236
 21
5456.142378572304
 31
0.0
  0
LINE
  5
1B3E5
330
1AF6B
100
AcDbEntity
  8
寸法
 62
     0
 48
50.0
370
    -2
100
AcDbLine
 10
1960.137356965242
 20
5017.049209232838
 30
0.0
 11
1960.137356965242
 21
5456.142378572304
 31
0.0
  0
LINE
  5
1B3E6
330
1AF6B
100
AcDbEntity
  8
寸法
 62
     0
 48
50.0
370
    -2
100
AcDbLine
 10
9850.137356965236
 20
5396.142378572305
 30
0.0
 11
1960.137356965242
 21
5396.142378572305
 31
0.0
  0
INSERT
  5
1B3E7
330
1AF6B
100
AcDbEntity
  8
寸法
 62
     0
 48
50.0
370
    -2
100
AcDbBlockReference
  2
_DOTSMALL
 10
9850.137356965236
 20
5396.142378572305
 30
0.0
 41
100.0
 42
100.0
 43
100.0
  0
INSERT
  5
1B3E8
330
1AF6B
100
AcDbEntity
  8
寸法
 62
     0
 48
50.0
370
    -2
100
AcDbBlockReference
  2
_DOTSMALL
 10
1960.137356965242
 20
5396.142378572305
 30
0.0
 41
100.0
 42
100.0
 43
100.0
 50
180.0
  0
MTEXT
  5
1B3E9
330
1AF6B
100
AcDbEntity
  8
寸法
 62
     7
 48
50.0
100
AcDbMText
 10
5905.137356965239
 20
5496.154189595927
 30
0.0
 40
120.0
 41
0.0
 71
     5
 72
     1
  1
\A1;柱外寸法 N X 2630
  7
STYLE1
 73
     1
 44
1.0
1001
ACAD
1000
MTEXTBEGIN
1070
    73
1070
     1
1070
    44
1040
1.0
1070
    74
1070
     0
1000
MTEXTEND
  0
POINT
  5
1B3EA
330
1AF6B
100
AcDbEntity
  8
DEFPOINTS
 62
     0
 48
50.0
100
AcDbPoint
 10
9850.137356965236
 20
4997.049209232836
 30
0.0
  0
POINT
  5
1B3EB
330
1AF6B
100
AcDbEntity
  8
DEFPOINTS
 62
     0
 48
50.0
100
AcDbPoint
 10
1960.137356965242
 20
4997.049209232837
 30
0.0
  0
POINT
  5
1B3EC
330
1AF6B
100
AcDbEntity
  8
DEFPOINTS
 62
     0
 48
50.0
100
AcDbPoint
 10
1960.137356965242
 20
5396.142378572305
 30
0.0
  0
ENDBLK
  5
1AF76
330
1AF6B
100
AcDbEntity
  8
0
 48
50.0
100
AcDbBlockEnd
  0
BLOCK
  5
1AF81
330
1AF77
100
AcDbEntity
  8
0
 48
50.0
100
AcDbBlockBegin
  2
*D30
 70
     1
 10
0.0
 20
0.0
 30
0.0
  3
*D30
  1

  0
LINE
  5
1B3DB
330
1AF77
100
AcDbEntity
  8
寸法
 62
     0
 48
50.0
370
    -2
100
AcDbLine
 10
1910.137356965242
 20
5017.049209232836
 30
0.0
 11
1910.137356965242
 21
5672.66847819075
 31
0.0
  0
LINE
  5
1B3DC
330
1AF77
100
AcDbEntity
  8
寸法
 62
     0
 48
50.0
370
    -2
100
AcDbLine
 10
9900.137356965236
 20
5017.049209232834
 30
0.0
 11
9900.137356965236
 21
5672.66847819075
 31
0.0
  0
LINE
  5
1B3DD
330
1AF77
100
AcDbEntity
  8
寸法
 62
     0
 48
50.0
370
    -2
100
AcDbLine
 10
1910.137356965242
 20
5612.66847819075
 30
0.0
 11
9900.137356965236
 21
5612.66847819075
 31
0.0
  0
INSERT
  5
1B3DE
330
1AF77
100
AcDbEntity
  8
寸法
 62
     0
 48
50.0
370
    -2
100
AcDbBlockReference
  2
_DOTSMALL
 10
1910.137356965242
 20
5612.66847819075
 30
0.0
 41
100.0
 42
100.0
 43
100.0
 50
180.0
  0
INSERT
  5
1B3DF
330
1AF77
100
AcDbEntity
  8
寸法
 62
     0
 48
50.0
370
    -2
100
AcDbBlockReference
  2
_DOTSMALL
 10
9900.137356965236
 20
5612.66847819075
 30
0.0
 41
100.0
 42
100.0
 43
100.0
  0
MTEXT
  5
1B3E0
330
1AF77
100
AcDbEntity
  8
寸法
 62
     7
 48
50.0
100
AcDbMText
 10
5905.137356965239
 20
5712.680289214372
 30
0.0
 40
120.0
 41
0.0
 71
     5
 72
     1
  1
\A1;N X 2630+100
  7
STYLE1
 73
     1
 44
1.0
1001
ACAD
1000
MTEXTBEGIN
1070
    73
1070
     1
1070
    44
1040
1.0
1070
    74
1070
     0
1000
MTEXTEND
  0
POINT
  5
1B3E1
330
1AF77
100
AcDbEntity
  8
DEFPOINTS
 62
     0
 48
50.0
100
AcDbPoint
 10
1910.137356965242
 20
4997.049209232836
 30
0.0
  0
POINT
  5
1B3E2
330
1AF77
100
AcDbEntity
  8
DEFPOINTS
 62
     0
 48
50.0
100
AcDbPoint
 10
9900.137356965236
 20
4997.049209232834
 30
0.0
  0
POINT
  5
1B3E3
330
1AF77
100
AcDbEntity
  8
DEFPOINTS
 62
     0
 48
50.0
100
AcDbPoint
 10
9900.137356965236
 20
5612.66847819075
 30
0.0
  0
ENDBLK
  5
1AF82
330
1AF77
100
AcDbEntity
  8
0
 48
50.0
100
AcDbBlockEnd
  0
BLOCK
  5
1AF8F
330
1AF83
100
AcDbEntity
  8
0
 48
50.0
100
AcDbBlockBegin
  2
*D31
 70
     1
 10
0.0
 20
0.0
 30
0.0
  3
*D31
  1

  0
LINE
  5
1B3D0
330
1AF83
100
AcDbEntity
  8
寸法
 62
     0
 48
50.0
370
    -2
100
AcDbLine
 10
1960.137356965242
 20
5017.049209232838
 30
0.0
 11
1960.137356965242
 21
5456.142378572304
 31
0.0
  0
LINE
  5
1B3D1
330
1AF83
100
AcDbEntity
  8
寸法
 62
     0
 48
50.0
370
    -2
100
AcDbLine
 10
1910.137356965242
 20
5017.049209232836
 30
0.0
 11
1910.137356965242
 21
5456.142378572304
 31
0.0
  0
LINE
  5
1B3D2
330
1AF83
100
AcDbEntity
  8
寸法
 62
     0
 48
50.0
370
    -2
100
AcDbLine
 10
1960.137356965242
 20
5396.142378572305
 30
0.0
 11
2060.137356965242
 21
5396.142378572305
 31
0.0
  0
LINE
  5
1B3D3
330
1AF83
100
AcDbEntity
  8
寸法
 62
     0
 48
50.0
370
    -2
100
AcDbLine
 10
1910.137356965242
 20
5396.142378572305
 30
0.0
 11
1490.604831496507
 21
5396.142378572305
 31
0.0
  0
LINE
  5
1B3D4
330
1AF83
100
AcDbEntity
  8
寸法
 62
     0
 48
50.0
370
    -2
100
AcDbLine
 10
1960.137356965242
 20
5396.142378572305
 30
0.0
 11
1910.137356965242
 21
5396.142378572305
 31
0.0
  0
INSERT
  5
1B3D5
330
1AF83
100
AcDbEntity
  8
寸法
 62
     0
 48
50.0
370
    -2
100
AcDbBlockReference
  2
_DOTSMALL
 10
1960.137356965242
 20
5396.142378572305
 30
0.0
 41
100.0
 42
100.0
 43
100.0
 50
180.0
  0
INSERT
  5
1B3D6
330
1AF83
100
AcDbEntity
  8
寸法
 62
     0
 48
50.0
370
    -2
100
AcDbBlockReference
  2
_DOTSMALL
 10
1910.137356965242
 20
5396.142378572305
 30
0.0
 41
100.0
 42
100.0
 43
100.0
  0
MTEXT
  5
1B3D7
330
1AF83
100
AcDbEntity
  8
寸法
 62
     7
 48
50.0
100
AcDbMText
 10
1596.652075590995
 20
5496.142378572304
 30
0.0
 40
120.0
 41
0.0
 71
     5
 72
     1
  1
\A1;50
  7
STYLE1
 73
     1
 44
1.0
1001
ACAD
1000
MTEXTBEGIN
1070
    73
1070
     1
1070
    44
1040
1.0
1070
    74
1070
     0
1000
MTEXTEND
  0
POINT
  5
1B3D8
330
1AF83
100
AcDbEntity
  8
DEFPOINTS
 62
     0
 48
50.0
100
AcDbPoint
 10
1960.137356965242
 20
4997.049209232837
 30
0.0
  0
POINT
  5
1B3D9
330
1AF83
100
AcDbEntity
  8
DEFPOINTS
 62
     0
 48
50.0
100
AcDbPoint
 10
1910.137356965242
 20
4997.049209232836
 30
0.0
  0
POINT
  5
1B3DA
330
1AF83
100
AcDbEntity
  8
DEFPOINTS
 62
     0
 48
50.0
100
AcDbPoint
 10
1910.137356965242
 20
5396.142378572305
 30
0.0
  0
ENDBLK
  5
1AF90
330
1AF83
100
AcDbEntity
  8
0
 48
50.0
100
AcDbBlockEnd
  0
BLOCK
  5
1AFB3
330
1AFA9
100
AcDbEntity
  8
0
 48
50.0
100
AcDbBlockBegin
  2
*D32
 70
     1
 10
0.0
 20
0.0
 30
0.0
  3
*D32
  1

  0
LINE
  5
1B446
330
1AFA9
100
AcDbEntity
  8
寸法
 62
     0
 48
50.0
370
    -2
100
AcDbLine
 10
12457.31413035484
 20
4762.049209232831
 30
0.0
 11
11573.56400117158
 21
4762.049209232831
 31
0.0
  0
LINE
  5
1B447
330
1AFA9
100
AcDbEntity
  8
寸法
 62
     0
 48
50.0
370
    -2
100
AcDbLine
 10
12457.31413035484
 20
2672.04920923283
 30
0.0
 11
11573.56400117158
 21
2672.04920923283
 31
0.0
  0
LINE
  5
1B448
330
1AFA9
100
AcDbEntity
  8
寸法
 62
     0
 48
50.0
370
    -2
100
AcDbLine
 10
11633.56400117158
 20
4762.049209232831
 30
0.0
 11
11633.56400117158
 21
2672.04920923283
 31
0.0
  0
INSERT
  5
1B449
330
1AFA9
100
AcDbEntity
  8
寸法
 62
     0
 48
50.0
370
    -2
100
AcDbBlockReference
  2
_DOTSMALL
 10
11633.56400117158
 20
4762.049209232831
 30
0.0
 41
100.0
 42
100.0
 43
100.0
 50
90.0
  0
INSERT
  5
1B44A
330
1AFA9
100
AcDbEntity
  8
寸法
 62
     0
 48
50.0
370
    -2
100
AcDbBlockReference
  2
_DOTSMALL
 10
11633.56400117158
 20
2672.04920923283
 30
0.0
 41
100.0
 42
100.0
 43
100.0
 50
270.0
  0
MTEXT
  5
1B44B
330
1AFA9
100
AcDbEntity
  8
寸法
 62
     7
 48
50.0
100
AcDbMText
 10
11533.55219014795
 20
3717.049209232833
 30
0.0
 40
120.0
 41
0.0
 71
     5
 72
     1
  1
\A1;2090
  7
STYLE1
 11
0.0000000000000001
 21
1.0
 31
0.0
 73
     1
 44
1.0
1001
ACAD
1000
MTEXTBEGIN
1070
    73
1070
     1
1070
    44
1040
1.0
1070
    74
1070
     0
1000
MTEXTEND
  0
POINT
  5
1B44C
330
1AFA9
100
AcDbEntity
  8
DEFPOINTS
 62
     0
 48
50.0
100
AcDbPoint
 10
12477.31413035484
 20
4762.049209232831
 30
0.0
  0
POINT
  5
1B44D
330
1AFA9
100
AcDbEntity
  8
DEFPOINTS
 62
     0
 48
50.0
100
AcDbPoint
 10
12477.31413035484
 20
2672.04920923283
 30
0.0
  0
POINT
  5
1B44E
330
1AFA9
100
AcDbEntity
  8
DEFPOINTS
 62
     0
 48
50.0
100
AcDbPoint
 10
11633.56400117158
 20
2672.04920923283
 30
0.0
  0
ENDBLK
  5
1AFB4
330
1AFA9
100
AcDbEntity
  8
0
 48
50.0
100
AcDbBlockEnd
  0
BLOCK
  5
1AFBF
330
1AFB5
100
AcDbEntity
  8
0
 48
50.0
100
AcDbBlockBegin
  2
*D33
 70
     1
 10
0.0
 20
0.0
 30
0.0
  3
*D33
  1

  0
LINE
  5
1B43D
330
1AFB5
100
AcDbEntity
  8
寸法
 62
     0
 48
50.0
370
    -2
100
AcDbLine
 10
12457.31413035484
 20
2622.04920923283
 30
0.0
 11
11273.56400117157
 21
2622.04920923283
 31
0.0
  0
LINE
  5
1B43E
330
1AFB5
100
AcDbEntity
  8
寸法
 62
     0
 48
50.0
370
    -2
100
AcDbLine
 10
12397.31413035484
 20
4997.049209232835
 30
0.0
 11
11273.56400117158
 21
4997.049209232835
 31
0.0
  0
LINE
  5
1B43F
330
1AFB5
100
AcDbEntity
  8
寸法
 62
     0
 48
50.0
370
    -2
100
AcDbLine
 10
11333.56400117157
 20
2622.04920923283
 30
0.0
 11
11333.56400117158
 21
4997.049209232835
 31
0.0
  0
INSERT
  5
1B440
330
1AFB5
100
AcDbEntity
  8
寸法
 62
     0
 48
50.0
370
    -2
100
AcDbBlockReference
  2
_DOTSMALL
 10
11333.56400117157
 20
2622.04920923283
 30
0.0
 41
100.0
 42
100.0
 43
100.0
 50
270.0
  0
INSERT
  5
1B441
330
1AFB5
100
AcDbEntity
  8
寸法
 62
     0
 48
50.0
370
    -2
100
AcDbBlockReference
  2
_DOTSMALL
 10
11333.56400117158
 20
4997.049209232835
 30
0.0
 41
100.0
 42
100.0
 43
100.0
 50
90.0
  0
MTEXT
  5
1B442
330
1AFB5
100
AcDbEntity
  8
寸法
 62
     7
 48
50.0
100
AcDbMText
 10
11233.55219014795
 20
3809.549209232834
 30
0.0
 40
120.0
 41
0.0
 71
     5
 72
     1
  1
\A1;2375
  7
STYLE1
 11
0.0000000000000001
 21
1.0
 31
0.0
 73
     1
 44
1.0
1001
ACAD
1000
MTEXTBEGIN
1070
    73
1070
     1
1070
    44
1040
1.0
1070
    74
1070
     0
1000
MTEXTEND
  0
POINT
  5
1B443
330
1AFB5
100
AcDbEntity
  8
DEFPOINTS
 62
     0
 48
50.0
100
AcDbPoint
 10
12477.31413035484
 20
2622.04920923283
 30
0.0
  0
POINT
  5
1B444
330
1AFB5
100
AcDbEntity
  8
DEFPOINTS
 62
     0
 48
50.0
100
AcDbPoint
 10
12417.31413035484
 20
4997.049209232835
 30
0.0
  0
POINT
  5
1B445
330
1AFB5
100
AcDbEntity
  8
DEFPOINTS
 62
     0
 48
50.0
100
AcDbPoint
 10
11333.56400117158
 20
4997.049209232835
 30
0.0
  0
ENDBLK
  5
1AFC0
330
1AFB5
100
AcDbEntity
  8
0
 48
50.0
100
AcDbBlockEnd
  0
BLOCK
  5
1AFCB
330
1AFC1
100
AcDbEntity
  8
0
 48
50.0
100
AcDbBlockBegin
  2
*D34
 70
     1
 10
0.0
 20
0.0
 30
0.0
  3
*D34
  1

  0
LINE
  5
1B492
330
1AFC1
100
AcDbEntity
  8
寸法
 62
     0
 48
50.0
370
    -2
100
AcDbLine
 10
14707.31413035484
 20
2622.049209232832
 30
0.0
 11
15452.24128832696
 21
2622.049209232831
 31
0.0
  0
LINE
  5
1B493
330
1AFC1
100
AcDbEntity
  8
寸法
 62
     0
 48
50.0
370
    -2
100
AcDbLine
 10
14787.31413035484
 20
4942.049209232831
 30
0.0
 11
15452.24128832697
 21
4942.049209232831
 31
0.0
  0
LINE
  5
1B494
330
1AFC1
100
AcDbEntity
  8
寸法
 62
     0
 48
50.0
370
    -2
100
AcDbLine
 10
15392.24128832696
 20
2622.049209232831
 30
0.0
 11
15392.24128832697
 21
4942.049209232831
 31
0.0
  0
INSERT
  5
1B495
330
1AFC1
100
AcDbEntity
  8
寸法
 62
     0
 48
50.0
370
    -2
100
AcDbBlockReference
  2
_DOTSMALL
 10
15392.24128832696
 20
2622.049209232831
 30
0.0
 41
100.0
 42
100.0
 43
100.0
 50
270.0
  0
INSERT
  5
1B496
330
1AFC1
100
AcDbEntity
  8
寸法
 62
     0
 48
50.0
370
    -2
100
AcDbBlockReference
  2
_DOTSMALL
 10
15392.24128832697
 20
4942.049209232831
 30
0.0
 41
100.0
 42
100.0
 43
100.0
 50
90.0
  0
MTEXT
  5
1B497
330
1AFC1
100
AcDbEntity
  8
寸法
 62
     7
 48
50.0
100
AcDbMText
 10
15292.22947730334
 20
3782.049209232834
 30
0.0
 40
120.0
 41
0.0
 71
     5
 72
     1
  1
\A1;2320
  7
STYLE1
 11
0.0000000000000001
 21
1.0
 31
0.0
 73
     1
 44
1.0
1001
ACAD
1000
MTEXTBEGIN
1070
    73
1070
     1
1070
    44
1040
1.0
1070
    74
1070
     0
1000
MTEXTEND
  0
POINT
  5
1B498
330
1AFC1
100
AcDbEntity
  8
DEFPOINTS
 62
     0
 48
50.0
100
AcDbPoint
 10
14687.31413035484
 20
2622.049209232832
 30
0.0
  0
POINT
  5
1B499
330
1AFC1
100
AcDbEntity
  8
DEFPOINTS
 62
     0
 48
50.0
100
AcDbPoint
 10
14767.31413035484
 20
4942.049209232831
 30
0.0
  0
POINT
  5
1B49A
330
1AFC1
100
AcDbEntity
  8
DEFPOINTS
 62
     0
 48
50.0
100
AcDbPoint
 10
15392.24128832697
 20
4942.049209232831
 30
0.0
  0
ENDBLK
  5
1AFCC
330
1AFC1
100
AcDbEntity
  8
0
 48
50.0
100
AcDbBlockEnd
  0
BLOCK
  5
1AFE6
330
1AFDA
100
AcDbEntity
  8
0
 48
50.0
100
AcDbBlockBegin
  2
*D35
 70
     1
 10
0.0
 20
0.0
 30
0.0
  3
*D35
  1

  0
LINE
  5
1B428
330
1AFDA
100
AcDbEntity
  8
寸法
 62
     0
 48
50.0
370
    -2
100
AcDbLine
 10
12457.31413035484
 20
2672.049209232831
 30
0.0
 11
11573.56400117158
 21
2672.049209232831
 31
0.0
  0
LINE
  5
1B429
330
1AFDA
100
AcDbEntity
  8
寸法
 62
     0
 48
50.0
370
    -2
100
AcDbLine
 10
12402.31413035484
 20
2622.049209232832
 30
0.0
 11
11573.56400117158
 21
2622.049209232832
 31
0.0
  0
LINE
  5
1B42A
330
1AFDA
100
AcDbEntity
  8
寸法
 62
     0
 48
50.0
370
    -2
100
AcDbLine
 10
11633.56400117158
 20
2672.049209232831
 30
0.0
 11
11633.56400117158
 21
2772.049209232831
 31
0.0
  0
LINE
  5
1B42B
330
1AFDA
100
AcDbEntity
  8
寸法
 62
     0
 48
50.0
370
    -2
100
AcDbLine
 10
11633.56400117158
 20
2622.049209232832
 30
0.0
 11
11633.56400117158
 21
2209.954721043851
 31
0.0
  0
LINE
  5
1B42C
330
1AFDA
100
AcDbEntity
  8
寸法
 62
     0
 48
50.0
370
    -2
100
AcDbLine
 10
11633.56400117158
 20
2672.049209232831
 30
0.0
 11
11633.56400117158
 21
2622.049209232832
 31
0.0
  0
INSERT
  5
1B42D
330
1AFDA
100
AcDbEntity
  8
寸法
 62
     0
 48
50.0
370
    -2
100
AcDbBlockReference
  2
_DOTSMALL
 10
11633.56400117158
 20
2672.049209232831
 30
0.0
 41
100.0
 42
100.0
 43
100.0
 50
270.0
  0
INSERT
  5
1B42E
330
1AFDA
100
AcDbEntity
  8
寸法
 62
     0
 48
50.0
370
    -2
100
AcDbBlockReference
  2
_DOTSMALL
 10
11633.56400117158
 20
2622.049209232832
 30
0.0
 41
100.0
 42
100.0
 43
100.0
 50
90.0
  0
MTEXT
  5
1B42F
330
1AFDA
100
AcDbEntity
  8
寸法
 62
     7
 48
50.0
100
AcDbMText
 10
11533.56400117158
 20
2316.001965138341
 30
0.0
 40
120.0
 41
0.0
 71
     5
 72
     1
  1
\A1;50
  7
STYLE1
 11
0.0000000000000001
 21
1.0
 31
0.0
 73
     1
 44
1.0
1001
ACAD
1000
MTEXTBEGIN
1070
    73
1070
     1
1070
    44
1040
1.0
1070
    74
1070
     0
1000
MTEXTEND
  0
POINT
  5
1B430
330
1AFDA
100
AcDbEntity
  8
DEFPOINTS
 62
     0
 48
50.0
100
AcDbPoint
 10
12477.31413035484
 20
2672.049209232831
 30
0.0
  0
POINT
  5
1B431
330
1AFDA
100
AcDbEntity
  8
DEFPOINTS
 62
     0
 48
50.0
100
AcDbPoint
 10
12422.31413035484
 20
2622.049209232832
 30
0.0
  0
POINT
  5
1B432
330
1AFDA
100
AcDbEntity
  8
DEFPOINTS
 62
     0
 48
50.0
100
AcDbPoint
 10
11633.56400117158
 20
2622.049209232832
 30
0.0
  0
ENDBLK
  5
1AFE7
330
1AFDA
100
AcDbEntity
  8
0
 48
50.0
100
AcDbBlockEnd
  0
BLOCK
  5
1AFF2
330
1AFE8
100
AcDbEntity
  8
0
 48
50.0
100
AcDbBlockBegin
  2
*D36
 70
     1
 10
0.0
 20
0.0
 30
0.0
  3
*D36
  1

  0
LINE
  5
1C2C8
330
1AFE8
100
AcDbEntity
  8
寸法
 62
     0
 48
50.0
370
    -2
100
AcDbLine
 10
14687.31413035483
 20
4963.859888844485
 30
0.0
 11
14687.31413035483
 21
5455.706662812136
 31
0.0
  0
LINE
  5
1C2C9
330
1AFE8
100
AcDbEntity
  8
寸法
 62
     0
 48
50.0
370
    -2
100
AcDbLine
 10
12477.31413035484
 20
5013.050827355808
 30
0.0
 11
12477.31413035484
 21
5455.706662812136
 31
0.0
  0
LINE
  5
1C2CA
330
1AFE8
100
AcDbEntity
  8
寸法
 62
     0
 48
50.0
370
    -2
100
AcDbLine
 10
14687.31413035483
 20
5395.706662812136
 30
0.0
 11
12477.31413035484
 21
5395.706662812136
 31
0.0
  0
INSERT
  5
1C2CB
330
1AFE8
100
AcDbEntity
  8
寸法
 62
     0
 48
50.0
370
    -2
100
AcDbBlockReference
  2
_DOTSMALL
 10
14687.31413035483
 20
5395.706662812136
 30
0.0
 41
100.0
 42
100.0
 43
100.0
  0
INSERT
  5
1C2CC
330
1AFE8
100
AcDbEntity
  8
寸法
 62
     0
 48
50.0
370
    -2
100
AcDbBlockReference
  2
_DOTSMALL
 10
12477.31413035484
 20
5395.706662812136
 30
0.0
 41
100.0
 42
100.0
 43
100.0
 50
180.0
  0
MTEXT
  5
1C2CD
330
1AFE8
100
AcDbEntity
  8
寸法
 62
     7
 48
50.0
100
AcDbMText
 10
13582.31413035484
 20
5495.718473835758
 30
0.0
 40
120.0
 41
0.0
 71
     5
 72
     1
  1
\A1;柱外寸法2210
  7
STYLE1
 73
     1
 44
1.0
1001
ACAD
1000
MTEXTBEGIN
1070
    73
1070
     1
1070
    44
1040
1.0
1070
    74
1070
     0
1000
MTEXTEND
  0
POINT
  5
1C2CE
330
1AFE8
100
AcDbEntity
  8
DEFPOINTS
 62
     0
 48
50.0
100
AcDbPoint
 10
14687.31413035483
 20
4943.859888844485
 30
0.0
  0
POINT
  5
1C2CF
330
1AFE8
100
AcDbEntity
  8
DEFPOINTS
 62
     0
 48
50.0
100
AcDbPoint
 10
12477.31413035484
 20
4993.050827355808
 30
0.0
  0
POINT
  5
1C2D0
330
1AFE8
100
AcDbEntity
  8
DEFPOINTS
 62
     0
 48
50.0
100
AcDbPoint
 10
12477.31413035484
 20
5395.706662812136
 30
0.0
  0
ENDBLK
  5
1AFF3
330
1AFE8
100
AcDbEntity
  8
0
 48
50.0
100
AcDbBlockEnd
  0
BLOCK
  5
1B000
330
1AFF4
100
AcDbEntity
  8
0
 48
50.0
100
AcDbBlockBegin
  2
*D37
 70
     1
 10
0.0
 20
0.0
 30
0.0
  3
*D37
  1

  0
LINE
  5
1B47E
330
1AFF4
100
AcDbEntity
  8
寸法
 62
     0
 48
50.0
370
    -2
100
AcDbLine
 10
12477.31413035484
 20
5013.050827355808
 30
0.0
 11
12477.31413035484
 21
5455.706662812136
 31
0.0
  0
LINE
  5
1B47F
330
1AFF4
100
AcDbEntity
  8
寸法
 62
     0
 48
50.0
370
    -2
100
AcDbLine
 10
12417.31413035484
 20
5017.049209232835
 30
0.0
 11
12417.31413035484
 21
5455.706662812136
 31
0.0
  0
LINE
  5
1B480
330
1AFF4
100
AcDbEntity
  8
寸法
 62
     0
 48
50.0
370
    -2
100
AcDbLine
 10
12477.31413035484
 20
5395.706662812136
 30
0.0
 11
12577.31413035484
 21
5395.706662812136
 31
0.0
  0
LINE
  5
1B481
330
1AFF4
100
AcDbEntity
  8
寸法
 62
     0
 48
50.0
370
    -2
100
AcDbLine
 10
12417.31413035484
 20
5395.706662812136
 30
0.0
 11
11998.03853980366
 21
5395.706662812136
 31
0.0
  0
LINE
  5
1B482
330
1AFF4
100
AcDbEntity
  8
寸法
 62
     0
 48
50.0
370
    -2
100
AcDbLine
 10
12477.31413035484
 20
5395.706662812136
 30
0.0
 11
12417.31413035484
 21
5395.706662812136
 31
0.0
  0
INSERT
  5
1B483
330
1AFF4
100
AcDbEntity
  8
寸法
 62
     0
 48
50.0
370
    -2
100
AcDbBlockReference
  2
_DOTSMALL
 10
12477.31413035484
 20
5395.706662812136
 30
0.0
 41
100.0
 42
100.0
 43
100.0
 50
180.0
  0
INSERT
  5
1B484
330
1AFF4
100
AcDbEntity
  8
寸法
 62
     0
 48
50.0
370
    -2
100
AcDbBlockReference
  2
_DOTSMALL
 10
12417.31413035484
 20
5395.706662812136
 30
0.0
 41
100.0
 42
100.0
 43
100.0
  0
MTEXT
  5
1B485
330
1AFF4
100
AcDbEntity
  8
寸法
 62
     7
 48
50.0
100
AcDbMText
 10
12107.67633507925
 20
5495.706662812136
 30
0.0
 40
120.0
 41
0.0
 71
     5
 72
     1
  1
\A1;60
  7
STYLE1
 73
     1
 44
1.0
1001
ACAD
1000
MTEXTBEGIN
1070
    73
1070
     1
1070
    44
1040
1.0
1070
    74
1070
     0
1000
MTEXTEND
  0
POINT
  5
1B486
330
1AFF4
100
AcDbEntity
  8
DEFPOINTS
 62
     0
 48
50.0
100
AcDbPoint
 10
12477.31413035484
 20
4993.050827355808
 30
0.0
  0
POINT
  5
1B487
330
1AFF4
100
AcDbEntity
  8
DEFPOINTS
 62
     0
 48
50.0
100
AcDbPoint
 10
12417.31413035484
 20
4997.049209232835
 30
0.0
  0
POINT
  5
1B488
330
1AFF4
100
AcDbEntity
  8
DEFPOINTS
 62
     0
 48
50.0
100
AcDbPoint
 10
12417.31413035484
 20
5395.706662812136
 30
0.0
  0
ENDBLK
  5
1B001
330
1AFF4
100
AcDbEntity
  8
0
 48
50.0
100
AcDbBlockEnd
  0
BLOCK
  5
1B00C
330
1B002
100
AcDbEntity
  8
0
 48
50.0
100
AcDbBlockBegin
  2
*D38
 70
     1
 10
0.0
 20
0.0
 30
0.0
  3
*D38
  1

  0
LINE
  5
1C2BF
330
1B002
100
AcDbEntity
  8
寸法
 62
     0
 48
50.0
370
    -2
100
AcDbLine
 10
14767.31413035483
 20
4962.049209232831
 30
0.0
 11
14767.31413035483
 21
5674.908496486427
 31
0.0
  0
LINE
  5
1C2C0
330
1B002
100
AcDbEntity
  8
寸法
 62
     0
 48
50.0
370
    -2
100
AcDbLine
 10
12417.31413035484
 20
5017.049209232835
 30
0.0
 11
12417.31413035484
 21
5674.908496486427
 31
0.0
  0
LINE
  5
1C2C1
330
1B002
100
AcDbEntity
  8
寸法
 62
     0
 48
50.0
370
    -2
100
AcDbLine
 10
14767.31413035483
 20
5614.908496486427
 30
0.0
 11
12417.31413035484
 21
5614.908496486427
 31
0.0
  0
INSERT
  5
1C2C2
330
1B002
100
AcDbEntity
  8
寸法
 62
     0
 48
50.0
370
    -2
100
AcDbBlockReference
  2
_DOTSMALL
 10
14767.31413035483
 20
5614.908496486427
 30
0.0
 41
100.0
 42
100.0
 43
100.0
  0
INSERT
  5
1C2C3
330
1B002
100
AcDbEntity
  8
寸法
 62
     0
 48
50.0
370
    -2
100
AcDbBlockReference
  2
_DOTSMALL
 10
12417.31413035484
 20
5614.908496486427
 30
0.0
 41
100.0
 42
100.0
 43
100.0
 50
180.0
  0
MTEXT
  5
1C2C4
330
1B002
100
AcDbEntity
  8
寸法
 62
     7
 48
50.0
100
AcDbMText
 10
13592.31413035483
 20
5714.920307510048
 30
0.0
 40
120.0
 41
0.0
 71
     5
 72
     1
  1
\A1;2350
  7
STYLE1
 73
     1
 44
1.0
1001
ACAD
1000
MTEXTBEGIN
1070
    73
1070
     1
1070
    44
1040
1.0
1070
    74
1070
     0
1000
MTEXTEND
  0
POINT
  5
1C2C5
330
1B002
100
AcDbEntity
  8
DEFPOINTS
 62
     0
 48
50.0
100
AcDbPoint
 10
14767.31413035483
 20
4942.049209232831
 30
0.0
  0
POINT
  5
1C2C6
330
1B002
100
AcDbEntity
  8
DEFPOINTS
 62
     0
 48
50.0
100
AcDbPoint
 10
12417.31413035484
 20
4997.049209232835
 30
0.0
  0
POINT
  5
1C2C7
330
1B002
100
AcDbEntity
  8
DEFPOINTS
 62
     0
 48
50.0
100
AcDbPoint
 10
12417.31413035484
 20
5614.908496486427
 30
0.0
  0
ENDBLK
  5
1B00D
330
1B002
100
AcDbEntity
  8
0
 48
50.0
100
AcDbBlockEnd
  0
BLOCK
  5
1B019
330
1B00E
100
AcDbEntity
  8
0
 48
50.0
100
AcDbBlockBegin
  2
*D39
 70
     1
 10
0.0
 20
0.0
 30
0.0
  3
*D39
  1

  0
LINE
  5
1B46B
330
1B00E
100
AcDbEntity
  8
寸法
 62
     0
 48
50.0
370
    -2
100
AcDbLine
 10
14687.31413035483
 20
4963.859888844485
 30
0.0
 11
14687.31413035483
 21
5455.706662812136
 31
0.0
  0
LINE
  5
1B46C
330
1B00E
100
AcDbEntity
  8
寸法
 62
     0
 48
50.0
370
    -2
100
AcDbLine
 10
14767.31413035483
 20
4962.049209232831
 30
0.0
 11
14767.31413035483
 21
5455.706662812136
 31
0.0
  0
LINE
  5
1B46D
330
1B00E
100
AcDbEntity
  8
寸法
 62
     0
 48
50.0
370
    -2
100
AcDbLine
 10
14687.31413035483
 20
5395.706662812136
 30
0.0
 11
14767.31413035483
 21
5395.706662812136
 31
0.0
  0
LINE
  5
1B46E
330
1B00E
100
AcDbEntity
  8
寸法
 62
     0
 48
50.0
370
    -2
100
AcDbLine
 10
14767.31413035483
 20
5395.706662812136
 30
0.0
 11
15079.40861854382
 21
5395.706662812136
 31
0.0
  0
INSERT
  5
1B46F
330
1B00E
100
AcDbEntity
  8
寸法
 62
     0
 48
50.0
370
    -2
100
AcDbBlockReference
  2
_DOTSMALL
 10
14687.31413035483
 20
5395.706662812136
 30
0.0
 41
100.0
 42
100.0
 43
100.0
 50
180.0
  0
INSERT
  5
1B470
330
1B00E
100
AcDbEntity
  8
寸法
 62
     0
 48
50.0
370
    -2
100
AcDbBlockReference
  2
_DOTSMALL
 10
14767.31413035483
 20
5395.706662812136
 30
0.0
 41
100.0
 42
100.0
 43
100.0
  0
MTEXT
  5
1B471
330
1B00E
100
AcDbEntity
  8
寸法
 62
     7
 48
50.0
100
AcDbMText
 10
14973.36137444933
 20
5495.706662812136
 30
0.0
 40
120.0
 41
0.0
 71
     5
 72
     1
  1
\A1;80
  7
STYLE1
 73
     1
 44
1.0
1001
ACAD
1000
MTEXTBEGIN
1070
    73
1070
     1
1070
    44
1040
1.0
1070
    74
1070
     0
1000
MTEXTEND
  0
POINT
  5
1B472
330
1B00E
100
AcDbEntity
  8
DEFPOINTS
 62
     0
 48
50.0
100
AcDbPoint
 10
14687.31413035483
 20
4943.859888844485
 30
0.0
  0
POINT
  5
1B473
330
1B00E
100
AcDbEntity
  8
DEFPOINTS
 62
     0
 48
50.0
100
AcDbPoint
 10
14767.31413035483
 20
4942.049209232831
 30
0.0
  0
POINT
  5
1B474
330
1B00E
100
AcDbEntity
  8
DEFPOINTS
 62
     0
 48
50.0
100
AcDbPoint
 10
14767.31413035483
 20
5395.706662812136
 30
0.0
  0
ENDBLK
  5
1B01A
330
1B00E
100
AcDbEntity
  8
0
 48
50.0
100
AcDbBlockEnd
  0
BLOCK
  5
1B026
330
1B01B
100
AcDbEntity
  8
0
 48
50.0
100
AcDbBlockBegin
  2
*D40
 70
     1
 10
0.0
 20
0.0
 30
0.0
  3
*D40
  1

  0
LINE
  5
1B461
330
1B01B
100
AcDbEntity
  8
寸法
 62
     0
 48
50.0
370
    -2
100
AcDbLine
 10
12416.71841664594
 20
4996.346916302493
 30
0.0
 11
11800.78397754066
 21
5014.061066576823
 31
0.0
  0
LINE
  5
1B462
330
1B01B
100
AcDbEntity
  8
寸法
 62
     0
 48
50.0
370
    -2
100
AcDbLine
 10
12412.66496108931
 20
4855.40519253678
 30
0.0
 11
11796.73052198404
 21
4873.119342811111
 31
0.0
  0
LINE
  5
1B463
330
1B01B
100
AcDbEntity
  8
寸法
 62
     0
 48
50.0
370
    -2
100
AcDbLine
 10
11856.70572358646
 20
4871.394468106164
 30
0.0
 11
11860.75917914309
 21
5012.336191871876
 31
0.0
  0
LINE
  5
1B464
330
1B01B
100
AcDbEntity
  8
寸法
 62
     0
 48
50.0
370
    -2
100
AcDbLine
 10
11860.75917914309
 20
5012.336191871876
 30
0.0
 11
11871.10842737278
 21
5372.187401486462
 31
0.0
  0
INSERT
  5
1B465
330
1B01B
100
AcDbEntity
  8
寸法
 62
     0
 48
50.0
370
    -2
100
AcDbBlockReference
  2
_DOTSMALL
 10
11856.70572358646
 20
4871.394468106164
 30
0.0
 41
100.0
 42
100.0
 43
100.0
 50
268.3526390256378
  0
INSERT
  5
1B466
330
1B01B
100
AcDbEntity
  8
寸法
 62
     0
 48
50.0
370
    -2
100
AcDbBlockReference
  2
_DOTSMALL
 10
11860.75917914309
 20
5012.336191871876
 30
0.0
 41
100.0
 42
100.0
 43
100.0
 50
88.35263902563776
  0
MTEXT
  5
1B467
330
1B01B
100
AcDbEntity
  8
寸法
 62
     7
 48
50.0
100
AcDbMText
 10
11767.41252950801
 20
5245.115922522774
 30
0.0
 40
120.0
 41
0.0
 71
     5
 72
     1
  1
\A1;141
  7
STYLE1
 11
0.0287479117491237
 21
0.9995866933738488
 31
0.0
 73
     1
 44
1.0
1001
ACAD
1000
MTEXTBEGIN
1070
    73
1070
     1
1070
    44
1040
1.0
1070
    74
1070
     0
1000
MTEXTEND
  0
POINT
  5
1B468
330
1B01B
100
AcDbEntity
  8
DEFPOINTS
 62
     0
 48
50.0
100
AcDbPoint
 10
12436.71015051342
 20
4995.771958067511
 30
0.0
  0
POINT
  5
1B469
330
1B01B
100
AcDbEntity
  8
DEFPOINTS
 62
     0
 48
50.0
100
AcDbPoint
 10
12432.65669495679
 20
4854.830234301799
 30
0.0
  0
POINT
  5
1B46A
330
1B01B
100
AcDbEntity
  8
DEFPOINTS
 62
     0
 48
50.0
100
AcDbPoint
 10
11856.70572358646
 20
4871.394468106164
 30
0.0
  0
ENDBLK
  5
1B027
330
1B01B
100
AcDbEntity
  8
0
 48
50.0
100
AcDbBlockEnd
  0
BLOCK
  5
1B9ED
330
1B9E3
100
AcDbEntity
  8
0
 48
50.0
100
AcDbBlockBegin
  2
*D41
 70
     1
 10
0.0
 20
0.0
 30
0.0
  3
*D41
  1

  0
LINE
  5
1BB29
330
1B9E3
100
AcDbEntity
  8
寸法
 62
     0
 48
50.0
370
    -2
100
AcDbLine
 10
8543.278373116638
 20
9408.822872679357
 30
0.0
 11
8440.536559158038
 21
9025.385202924081
 31
0.0
  0
LINE
  5
1BB2A
330
1B9E3
100
AcDbEntity
  8
寸法
 62
     0
 48
50.0
370
    -2
100
AcDbLine
 10
9816.27837311665
 20
9408.822872679349
 30
0.0
 11
9713.536559158052
 21
9025.385202924081
 31
0.0
  0
LINE
  5
1BB2B
330
1B9E3
100
AcDbEntity
  8
寸法
 62
     0
 48
50.0
370
    -2
100
AcDbLine
 10
8456.613510703906
 20
9085.385202924081
 30
0.0
 11
9729.61351070392
 21
9085.385202924081
 31
0.0
  0
INSERT
  5
1BB2C
330
1B9E3
100
AcDbEntity
  8
寸法
 62
     0
 48
50.0
370
    -2
100
AcDbBlockReference
  2
_DOTSMALL
 10
8456.613510703906
 20
9085.385202924081
 30
0.0
 41
100.0
 42
100.0
 43
100.0
 50
180.0
  0
INSERT
  5
1BB2D
330
1B9E3
100
AcDbEntity
  8
寸法
 62
     0
 48
50.0
370
    -2
100
AcDbBlockReference
  2
_DOTSMALL
 10
9729.61351070392
 20
9085.385202924081
 30
0.0
 41
100.0
 42
100.0
 43
100.0
  0
MTEXT
  5
1BB2E
330
1B9E3
100
AcDbEntity
  8
寸法
 62
     7
 48
50.0
100
AcDbMText
 10
9139.622672703556
 20
9185.397013947703
 30
0.0
 40
120.0
 41
0.0
 71
     5
 72
     1
  1
\A1;1273
  7
STYLE1
 73
     1
 44
1.0
1001
ACAD
1000
MTEXTBEGIN
1070
    73
1070
     1
1070
    44
1040
1.0
1070
    74
1070
     0
1000
MTEXTEND
  0
POINT
  5
1BB2F
330
1B9E3
100
AcDbEntity
  8
DEFPOINTS
 62
     0
 48
50.0
100
AcDbPoint
 10
8548.637356965262
 20
9428.822872679358
 30
0.0
  0
POINT
  5
1BB30
330
1B9E3
100
AcDbEntity
  8
DEFPOINTS
 62
     0
 48
50.0
100
AcDbPoint
 10
9821.637356965272
 20
9428.822872679349
 30
0.0
  0
POINT
  5
1BB31
330
1B9E3
100
AcDbEntity
  8
DEFPOINTS
 62
     0
 48
50.0
100
AcDbPoint
 10
9729.61351070392
 20
9085.385202924081
 30
0.0
  0
ENDBLK
  5
1B9EE
330
1B9E3
100
AcDbEntity
  8
0
 48
50.0
100
AcDbBlockEnd
  0
BLOCK
  5
1BA48
330
1BA3E
100
AcDbEntity
  8
0
 48
50.0
100
AcDbBlockBegin
  2
*D42
 70
     1
 10
0.0
 20
0.0
 30
0.0
  3
*D42
  1

  0
LINE
  5
1BB32
330
1BA3E
100
AcDbEntity
  8
寸法
 62
     0
 48
50.0
370
    -2
100
AcDbLine
 10
7243.278373116638
 20
9408.82287267925
 30
0.0
 11
7140.536559158068
 21
9025.385202924081
 31
0.0
  0
LINE
  5
1BB33
330
1BA3E
100
AcDbEntity
  8
寸法
 62
     0
 48
50.0
370
    -2
100
AcDbLine
 10
8516.27837311665
 20
9408.822872679243
 30
0.0
 11
8413.53655915808
 21
9025.385202924081
 31
0.0
  0
LINE
  5
1BB34
330
1BA3E
100
AcDbEntity
  8
寸法
 62
     0
 48
50.0
370
    -2
100
AcDbLine
 10
7156.613510703936
 20
9085.385202924081
 30
0.0
 11
8429.61351070395
 21
9085.385202924081
 31
0.0
  0
INSERT
  5
1BB35
330
1BA3E
100
AcDbEntity
  8
寸法
 62
     0
 48
50.0
370
    -2
100
AcDbBlockReference
  2
_DOTSMALL
 10
7156.613510703936
 20
9085.385202924081
 30
0.0
 41
100.0
 42
100.0
 43
100.0
 50
180.0
  0
INSERT
  5
1BB36
330
1BA3E
100
AcDbEntity
  8
寸法
 62
     0
 48
50.0
370
    -2
100
AcDbBlockReference
  2
_DOTSMALL
 10
8429.61351070395
 20
9085.385202924081
 30
0.0
 41
100.0
 42
100.0
 43
100.0
  0
MTEXT
  5
1BB37
330
1BA3E
100
AcDbEntity
  8
寸法
 62
     7
 48
50.0
100
AcDbMText
 10
7793.113510703943
 20
9185.397013947703
 30
0.0
 40
120.0
 41
0.0
 71
     5
 72
     1
  1
\A1;1273
  7
STYLE1
 73
     1
 44
1.0
1001
ACAD
1000
MTEXTBEGIN
1070
    73
1070
     1
1070
    44
1040
1.0
1070
    74
1070
     0
1000
MTEXTEND
  0
POINT
  5
1BB38
330
1BA3E
100
AcDbEntity
  8
DEFPOINTS
 62
     0
 48
50.0
100
AcDbPoint
 10
7248.637356965261
 20
9428.822872679251
 30
0.0
  0
POINT
  5
1BB39
330
1BA3E
100
AcDbEntity
  8
DEFPOINTS
 62
     0
 48
50.0
100
AcDbPoint
 10
8521.637356965271
 20
9428.822872679244
 30
0.0
  0
POINT
  5
1BB3A
330
1BA3E
100
AcDbEntity
  8
DEFPOINTS
 62
     0
 48
50.0
100
AcDbPoint
 10
8429.61351070395
 20
9085.385202924081
 30
0.0
  0
ENDBLK
  5
1BA49
330
1BA3E
100
AcDbEntity
  8
0
 48
50.0
100
AcDbBlockEnd
  0
BLOCK
  5
1BD70
330
1BD66
100
AcDbEntity
  8
0
 48
50.0
100
AcDbBlockBegin
  2
*D43
 70
     1
 10
0.0
 20
0.0
 30
0.0
  3
*D43
  1

  0
LINE
  5
1BE31
330
1BD66
100
AcDbEntity
  8
寸法
 62
     0
 48
50.0
370
    -2
100
AcDbLine
 10
9870.137356965237
 20
2684.049209232832
 30
0.0
 11
10197.68045928698
 21
2684.049209232832
 31
0.0
  0
LINE
  5
1BE32
330
1BD66
100
AcDbEntity
  8
寸法
 62
     0
 48
50.0
370
    -2
100
AcDbLine
 10
9870.137356965239
 20
4570.04920923283
 30
0.0
 11
10197.68045928698
 21
4570.04920923283
 31
0.0
  0
LINE
  5
1BE33
330
1BD66
100
AcDbEntity
  8
寸法
 62
     0
 48
50.0
370
    -2
100
AcDbLine
 10
10137.68045928698
 20
2684.049209232832
 30
0.0
 11
10137.68045928698
 21
4570.04920923283
 31
0.0
  0
INSERT
  5
1BE34
330
1BD66
100
AcDbEntity
  8
寸法
 62
     0
 48
50.0
370
    -2
100
AcDbBlockReference
  2
_DOTSMALL
 10
10137.68045928698
 20
2684.049209232832
 30
0.0
 41
100.0
 42
100.0
 43
100.0
 50
270.0
  0
INSERT
  5
1BE35
330
1BD66
100
AcDbEntity
  8
寸法
 62
     0
 48
50.0
370
    -2
100
AcDbBlockReference
  2
_DOTSMALL
 10
10137.68045928698
 20
4570.04920923283
 30
0.0
 41
100.0
 42
100.0
 43
100.0
 50
90.0
  0
MTEXT
  5
1BE36
330
1BD66
100
AcDbEntity
  8
寸法
 62
     7
 48
50.0
100
AcDbMText
 10
10037.68045928698
 20
3627.049209232833
 30
0.0
 40
120.0
 41
0.0
 71
     5
 72
     1
  1
\A1;有効開口部高サ 1886
  7
STYLE1
 11
0.0000000000000001
 21
1.0
 31
0.0
 73
     1
 44
1.0
1001
ACAD
1000
MTEXTBEGIN
1070
    73
1070
     1
1070
    44
1040
1.0
1070
    74
1070
     0
1000
MTEXTEND
  0
POINT
  5
1BE37
330
1BD66
100
AcDbEntity
  8
DEFPOINTS
 62
     0
 48
50.0
100
AcDbPoint
 10
9850.137356965237
 20
2684.049209232832
 30
0.0
  0
POINT
  5
1BE38
330
1BD66
100
AcDbEntity
  8
DEFPOINTS
 62
     0
 48
50.0
100
AcDbPoint
 10
9850.137356965239
 20
4570.04920923283
 30
0.0
  0
POINT
  5
1BE39
330
1BD66
100
AcDbEntity
  8
DEFPOINTS
 62
     0
 48
50.0
100
AcDbPoint
 10
10137.68045928698
 20
4570.04920923283
 30
0.0
  0
ENDBLK
  5
1BD71
330
1BD66
100
AcDbEntity
  8
0
 48
50.0
100
AcDbBlockEnd
  0
BLOCK
  5
1BD7E
330
1BD72
100
AcDbEntity
  8
0
 48
50.0
100
AcDbBlockBegin
  2
*D44
 70
     1
 10
0.0
 20
0.0
 30
0.0
  3
*D44
  1

  0
LINE
  5
1C34D
330
1BD72
100
AcDbEntity
  8
寸法
 62
     0
 48
50.0
370
    -2
100
AcDbLine
 10
9870.137356965239
 20
4570.04920923283
 30
0.0
 11
10197.68045928698
 21
4570.04920923283
 31
0.0
  0
LINE
  5
1C34E
330
1BD72
100
AcDbEntity
  8
寸法
 62
     0
 48
50.0
370
    -2
100
AcDbLine
 10
9870.137356965237
 20
4597.049209232831
 30
0.0
 11
10197.68045928698
 21
4597.049209232831
 31
0.0
  0
LINE
  5
1C34F
330
1BD72
100
AcDbEntity
  8
寸法
 62
     0
 48
50.0
370
    -2
100
AcDbLine
 10
10137.68045928698
 20
4570.04920923283
 30
0.0
 11
10137.68045928698
 21
4470.04920923283
 31
0.0
  0
LINE
  5
1C350
330
1BD72
100
AcDbEntity
  8
寸法
 62
     0
 48
50.0
370
    -2
100
AcDbLine
 10
10137.68045928698
 20
4597.049209232831
 30
0.0
 11
10137.68045928698
 21
4697.049209232831
 31
0.0
  0
MTEXT
  5
1C351
330
1BD72
100
AcDbEntity
  8
寸法
 62
     7
 48
50.0
100
AcDbMText
 10
10277.85028253335
 20
4598.01640907249
 30
0.0
 40
120.0
 41
0.0
 71
     5
 72
     1
  1
\A1;27
  7
STYLE1
 11
0.0000000000000001
 21
1.0
 31
0.0
 73
     1
 44
1.0
1001
ACAD
1000
MTEXTBEGIN
1070
    73
1070
     1
1070
    44
1040
1.0
1070
    74
1070
     0
1000
MTEXTEND
  0
LINE
  5
1C352
330
1BD72
100
AcDbEntity
  8
寸法
 62
     0
 48
50.0
370
    -2
100
AcDbLine
 10
10137.68045928698
 20
4570.04920923283
 30
0.0
 11
10137.68045928698
 21
4597.049209232831
 31
0.0
  0
INSERT
  5
1C353
330
1BD72
100
AcDbEntity
  8
寸法
 62
     0
 48
50.0
370
    -2
100
AcDbBlockReference
  2
_DOTSMALL
 10
10137.68045928698
 20
4570.04920923283
 30
0.0
 41
100.0
 42
100.0
 43
100.0
 50
90.0
  0
INSERT
  5
1C354
330
1BD72
100
AcDbEntity
  8
寸法
 62
     0
 48
50.0
370
    -2
100
AcDbBlockReference
  2
_DOTSMALL
 10
10137.68045928698
 20
4597.049209232831
 30
0.0
 41
100.0
 42
100.0
 43
100.0
 50
270.0
  0
POINT
  5
1C355
330
1BD72
100
AcDbEntity
  8
DEFPOINTS
 62
     0
 48
50.0
100
AcDbPoint
 10
9850.137356965239
 20
4570.04920923283
 30
0.0
  0
POINT
  5
1C356
330
1BD72
100
AcDbEntity
  8
DEFPOINTS
 62
     0
 48
50.0
100
AcDbPoint
 10
9850.137356965237
 20
4597.049209232831
 30
0.0
  0
POINT
  5
1C357
330
1BD72
100
AcDbEntity
  8
DEFPOINTS
 62
     0
 48
50.0
100
AcDbPoint
 10
10137.68045928698
 20
4597.049209232831
 30
0.0
  0
ENDBLK
  5
1BD7F
330
1BD72
100
AcDbEntity
  8
0
 48
50.0
100
AcDbBlockEnd
  0
BLOCK
  5
1BD8B
330
1BD80
100
AcDbEntity
  8
0
 48
50.0
100
AcDbBlockBegin
  2
*D45
 70
     1
 10
0.0
 20
0.0
 30
0.0
  3
*D45
  1

  0
LINE
  5
1C343
330
1BD80
100
AcDbEntity
  8
寸法
 62
     0
 48
50.0
370
    -2
100
AcDbLine
 10
9870.137356965237
 20
4597.049209232831
 30
0.0
 11
10197.68045928698
 21
4597.049209232831
 31
0.0
  0
LINE
  5
1C344
330
1BD80
100
AcDbEntity
  8
寸法
 62
     0
 48
50.0
370
    -2
100
AcDbLine
 10
9870.137356965237
 20
4762.049209232831
 30
0.0
 11
10197.68045928698
 21
4762.049209232831
 31
0.0
  0
LINE
  5
1C345
330
1BD80
100
AcDbEntity
  8
寸法
 62
     0
 48
50.0
370
    -2
100
AcDbLine
 10
10137.68045928698
 20
4597.049209232831
 30
0.0
 11
10137.68045928698
 21
4762.049209232831
 31
0.0
  0
LINE
  5
1C346
330
1BD80
100
AcDbEntity
  8
寸法
 62
     0
 48
50.0
370
    -2
100
AcDbLine
 10
10137.68045928698
 20
4762.049209232831
 30
0.0
 11
10137.68045928698
 21
5139.01977198131
 31
0.0
  0
INSERT
  5
1C347
330
1BD80
100
AcDbEntity
  8
寸法
 62
     0
 48
50.0
370
    -2
100
AcDbBlockReference
  2
_DOTSMALL
 10
10137.68045928698
 20
4597.049209232831
 30
0.0
 41
100.0
 42
100.0
 43
100.0
 50
270.0
  0
INSERT
  5
1C348
330
1BD80
100
AcDbEntity
  8
寸法
 62
     0
 48
50.0
370
    -2
100
AcDbBlockReference
  2
_DOTSMALL
 10
10137.68045928698
 20
4762.049209232831
 30
0.0
 41
100.0
 42
100.0
 43
100.0
 50
90.0
  0
MTEXT
  5
1C349
330
1BD80
100
AcDbEntity
  8
寸法
 62
     7
 48
50.0
100
AcDbMText
 10
10037.68045928698
 20
5000.534490607072
 30
0.0
 40
120.0
 41
0.0
 71
     5
 72
     1
  1
\A1;165
  7
STYLE1
 11
0.0000000000000001
 21
1.0
 31
0.0
 73
     1
 44
1.0
1001
ACAD
1000
MTEXTBEGIN
1070
    73
1070
     1
1070
    44
1040
1.0
1070
    74
1070
     0
1000
MTEXTEND
  0
POINT
  5
1C34A
330
1BD80
100
AcDbEntity
  8
DEFPOINTS
 62
     0
 48
50.0
100
AcDbPoint
 10
9850.137356965237
 20
4597.049209232831
 30
0.0
  0
POINT
  5
1C34B
330
1BD80
100
AcDbEntity
  8
DEFPOINTS
 62
     0
 48
50.0
100
AcDbPoint
 10
9850.137356965237
 20
4762.049209232831
 30
0.0
  0
POINT
  5
1C34C
330
1BD80
100
AcDbEntity
  8
DEFPOINTS
 62
     0
 48
50.0
100
AcDbPoint
 10
10137.68045928698
 20
4762.049209232831
 30
0.0
  0
ENDBLK
  5
1BD8C
330
1BD80
100
AcDbEntity
  8
0
 48
50.0
100
AcDbBlockEnd
  0
BLOCK
  5
1C1B4
330
1C1AA
100
AcDbEntity
  8
0
 48
50.0
100
AcDbBlockBegin
  2
*D46
 70
     1
 10
0.0
 20
0.0
 30
0.0
  3
*D46
  1

  0
LINE
  5
1C1F6
330
1C1AA
100
AcDbEntity
  8
寸法
 62
     0
 48
50.0
370
    -2
100
AcDbLine
 10
4635.137356964972
 20
9192.322869102126
 30
0.0
 11
4986.978717225809
 21
9192.322869102126
 31
0.0
  0
LINE
  5
1C1F7
330
1C1AA
100
AcDbEntity
  8
寸法
 62
     0
 48
50.0
370
    -2
100
AcDbLine
 10
4665.137356965207
 20
9908.822872679301
 30
0.0
 11
4986.978717225809
 21
9908.822872679301
 31
0.0
  0
LINE
  5
1C1F8
330
1C1AA
100
AcDbEntity
  8
寸法
 62
     0
 48
50.0
370
    -2
100
AcDbLine
 10
4926.978717225809
 20
9192.322869102126
 30
0.0
 11
4926.978717225809
 21
9908.822872679301
 31
0.0
  0
INSERT
  5
1C1F9
330
1C1AA
100
AcDbEntity
  8
寸法
 62
     0
 48
50.0
370
    -2
100
AcDbBlockReference
  2
_DOTSMALL
 10
4926.978717225809
 20
9192.322869102126
 30
0.0
 41
100.0
 42
100.0
 43
100.0
 50
270.0
  0
INSERT
  5
1C1FA
330
1C1AA
100
AcDbEntity
  8
寸法
 62
     0
 48
50.0
370
    -2
100
AcDbBlockReference
  2
_DOTSMALL
 10
4926.978717225809
 20
9908.822872679301
 30
0.0
 41
100.0
 42
100.0
 43
100.0
 50
90.0
  0
MTEXT
  5
1C1FB
330
1C1AA
100
AcDbEntity
  8
寸法
 62
     7
 48
50.0
100
AcDbMText
 10
4826.978717225808
 20
9646.846660753153
 30
0.0
 40
120.0
 41
0.0
 71
     5
 72
     1
  1
\A1;716.5
  7
STYLE1
 11
0.0000000000000001
 21
1.0
 31
0.0
 73
     1
 44
1.0
1001
ACAD
1000
MTEXTBEGIN
1070
    73
1070
     1
1070
    44
1040
1.0
1070
    74
1070
     0
1000
MTEXTEND
  0
POINT
  5
1C1FC
330
1C1AA
100
AcDbEntity
  8
DEFPOINTS
 62
     0
 48
50.0
100
AcDbPoint
 10
4615.137356964972
 20
9192.322869102126
 30
0.0
  0
POINT
  5
1C1FD
330
1C1AA
100
AcDbEntity
  8
DEFPOINTS
 62
     0
 48
50.0
100
AcDbPoint
 10
4645.137356965206
 20
9908.822872679301
 30
0.0
  0
POINT
  5
1C1FE
330
1C1AA
100
AcDbEntity
  8
DEFPOINTS
 62
     0
 48
50.0
100
AcDbPoint
 10
4926.978717225809
 20
9908.822872679301
 30
0.0
  0
ENDBLK
  5
1C1B5
330
1C1AA
100
AcDbEntity
  8
0
 48
50.0
100
AcDbBlockEnd
  0
ENDSEC
  0
SECTION
  2
ENTITIES
  0
MTEXT
  5
763F
330
747D
100
AcDbEntity
  8
0
100
AcDbMText
 10
302.846345836809
 20
280.1983726409901
 30
0.0
 40
3.5
 41
5.323721266742722
 71
     1
 72
     5
  1

  7
MSMINCHO
 73
     1
 44
1.0
1001
ACAD
1000
MTEXTBEGIN
1070
    73
1070
     1
1070
    44
1040
1.0
1070
    74
1070
     0
1000
MTEXTEND
  0
LINE
  5
10B57
330
747D
100
AcDbEntity
  8
補助
  6
PHANTOM
 62
   230
 48
50.0
100
AcDbLine
 10
139.9999999999995
 20
11409.6
 30
0.0
 11
16307.2
 21
11409.6
 31
0.0
  0
LINE
  5
10B59
330
747D
100
AcDbEntity
  8
仕様書枠
  6
Continuous
 48
50.0
100
AcDbLine
 10
13107.2
 20
1200.0
 30
0.0
 11
13107.2
 21
-0.0000000000000729
 31
0.0
  0
LINE
  5
10B5C
330
747D
100
AcDbEntity
  8
仕様書枠
 48
50.0
100
AcDbLine
 10
16307.2
 20
1200.0
 30
0.0
 11
16307.2
 21
-0.0000000000000909
 31
0.0
  0
LINE
  5
10B5D
330
747D
100
AcDbEntity
  8
仕様書枠
 48
50.0
100
AcDbLine
 10
140.0
 20
0.0
 30
0.0
 11
16307.2
 21
-0.0000000000000909
 31
0.0
  0
LINE
  5
10B5E
330
747D
100
AcDbEntity
  8
補助
  6
PHANTOM
 62
   230
 48
50.0
100
AcDbLine
 10
16307.2
 20
11409.6
 30
0.0
 11
16307.2
 21
1200.0
 31
0.0
  0
LINE
  5
10B6C
330
747D
100
AcDbEntity
  8
仕様書枠
 48
50.0
100
AcDbLine
 10
13107.2
 20
1200.0
 30
0.0
 11
16307.2
 21
1200.0
 31
0.0
  0
LINE
  5
10B6D
330
747D
100
AcDbEntity
  8
補助
  6
PHANTOM
 62
   230
 48
50.0
100
AcDbLine
 10
13107.2
 20
11409.6
 30
0.0
 11
13107.2
 21
4800.0
 31
0.0
  0
LINE
  5
10B6F
330
747D
100
AcDbEntity
  8
補助
  6
PHANTOM
 62
   230
 48
50.0
100
AcDbLine
 10
13107.2
 20
4800.0
 30
0.0
 11
16307.2
 21
4800.0
 31
0.0
  0
LINE
  5
10B72
330
747D
100
AcDbEntity
  8
文字
 62
     7
 48
50.0
100
AcDbLine
 10
13187.2
 20
400.0
 30
0.0
 11
16227.2
 21
400.0
 31
0.0
  0
TEXT
  5
10B73
330
747D
100
AcDbEntity
  8
文字
 62
     7
 48
50.0
100
AcDbText
 10
13162.9790565769
 20
895.0906074299405
 30
0.0
 40
200.0
  1
外 形 図
  7
STYLE2
100
AcDbText
  0
TEXT
  5
10B74
330
747D
100
AcDbEntity
  8
文字
 62
     7
 48
50.0
100
AcDbText
 10
13201.43669998441
 20
477.2740661031255
 30
0.0
 40
160.0
  1
機種名
  7
STYLE2
100
AcDbText
  0
TEXT
  5
10B75
330
747D
100
AcDbEntity
  8
文字
 62
     7
 48
50.0
100
AcDbText
 10
13209.4053442172
 20
228.5435242569016
 30
0.0
 40
100.0
  1
○有効開口寸法 ： 2424×1886(mm)
  7
STYLE2
100
AcDbText
  0
TEXT
  5
10B76
330
747D
100
AcDbEntity
  8
文字
 62
     7
 48
50.0
100
AcDbText
 10
13209.4053442172
 20
76.09434707649343
 30
0.0
 40
100.0
  1
○床面積 ： N［連続数］ X 5.81㎡(1.76坪)
  7
STYLE2
100
AcDbText
  0
TEXT
  5
10B79
330
747D
100
AcDbEntity
  8
文字
 62
     7
 48
50.0
100
AcDbText
 10
14524.131837222
 20
1031.557706291228
 30
0.0
 40
100.0
  1
NO.24      <縮尺> S=1/40
  7
STYLE2
100
AcDbText
  0
LINE
  5
10B7B
330
747D
100
AcDbEntity
  8
仕様書枠
 48
50.0
100
AcDbLine
 10
13107.2
 20
800.0
 30
0.0
 11
14251.2
 21
800.0
 31
0.0
  0
LINE
  5
10B88
330
747D
100
AcDbEntity
  8
仕様書枠
  6
Continuous
 48
50.0
100
AcDbLine
 10
14251.2
 20
1200.0
 30
0.0
 11
14251.2
 21
800.0
 31
0.0
  0
DIMENSION
  5
162CD
330
747D
100
AcDbEntity
  8
寸法
100
AcDbDimension
  2
*D1
 10
10497.56370269968
 20
7753.822872679368
 30
0.0
 11
10397.55189167605
 21
8803.822872679377
 31
0.0
 70
    32
  1
5X420=<>
 71
     5
 42
2100.000000000015
  3
INABA_S40G
100
AcDbAlignedDimension
 13
9850.137356965275
 23
9853.822872679382
 33
0.0
 14
9850.137356965248
 24
7753.822872679368
 34
0.0
 50
90.0
100
AcDbRotatedDimension
1001
ACAD
1000
DSTYLE
1002
{
1002
}
  0
DIMENSION
  5
162CE
330
747D
100
AcDbEntity
  8
寸法
100
AcDbDimension
  2
*D2
 10
10497.56370269966
 20
7698.822872679371
 30
0.0
 11
10497.56370269965
 21
7320.96140577451
 31
0.0
 70
   160
 71
     5
 42
54.99999999999636
  3
INABA_S40G
100
AcDbAlignedDimension
 13
9850.137356965248
 23
7753.822872679368
 33
0.0
 14
9850.137356965248
 24
7698.822872679372
 34
0.0
 50
90.0
100
AcDbRotatedDimension
1001
ACAD
1000
DSTYLE
1002
{
1002
}
  0
DIMENSION
  5
162CF
330
747D
100
AcDbEntity
  8
寸法
100
AcDbDimension
  2
*D3
 10
10497.56370269968
 20
9853.822872679382
 30
0.0
 11
10497.56370269968
 21
10217.30815405362
 31
0.0
 70
   160
 71
     5
 42
54.99999999999636
  3
INABA_S40G
100
AcDbAlignedDimension
 13
9850.137356965275
 23
9908.82287267938
 33
0.0
 14
9850.137356965275
 24
9853.822872679382
 34
0.0
 50
90.0
100
AcDbRotatedDimension
1001
ACAD
1000
DSTYLE
1002
{
1002
}
  0
DIMENSION
  5
162D0
330
747D
100
AcDbEntity
  8
寸法
100
AcDbDimension
  2
*D4
 10
10862.67064443932
 20
7698.822872679371
 30
0.0
 11
10762.65883341569
 21
8803.822872679377
 31
0.0
 70
    32
 71
     5
 42
2210.000000000007
  3
INABA_S40G
100
AcDbAlignedDimension
 13
9850.137356965275
 23
9908.82287267938
 33
0.0
 14
9850.137356965248
 24
7698.822872679372
 34
0.0
 50
90.0
100
AcDbRotatedDimension
1001
ACAD
1000
DSTYLE
1002
{
1002
}
  0
LINE
  5
162DC
330
747D
100
AcDbEntity
  8
部品1
100
AcDbLine
 10
9822.137356965257
 20
9880.822872679379
 30
0.0
 11
9822.137356965249
 21
7753.822872679368
 31
0.0
  0
LINE
  5
162DD
330
747D
100
AcDbEntity
  8
部品1
100
AcDbLine
 10
1988.137356965248
 20
7753.822872679236
 30
0.0
 11
1988.137356965259
 21
9880.822872679287
 31
0.0
  0
LINE
  5
162DE
330
747D
100
AcDbEntity
  8
部品1
100
AcDbLine
 10
9850.137356965275
 20
9908.82287267938
 30
0.0
 11
9850.137356965248
 21
7698.822872679372
 31
0.0
  0
LINE
  5
162DF
330
747D
100
AcDbEntity
  8
部品1
100
AcDbLine
 10
1960.137356965239
 20
9908.822872679252
 30
0.0
 11
1960.137356965266
 21
7698.82287267924
 31
0.0
  0
DIMENSION
  5
162E4
330
747D
100
AcDbEntity
  8
寸法
 48
50.0
100
AcDbDimension
  2
*D5
 10
7323.137356965266
 20
7164.392101913115
 30
0.0
 11
8535.137356965256
 21
7264.403912936737
 31
0.0
 70
    32
  1
有効開口部間口 <>
 71
     5
 42
2423.999999999982
  3
INABA_S40G
100
AcDbAlignedDimension
 13
9747.137356965248
 23
7724.82287267928
 33
0.0
 14
7323.137356965266
 24
7724.82287267928
 34
0.0
100
AcDbRotatedDimension
1001
ACAD
1000
DSTYLE
1002
{
1070
    75
1070
     1
1070
   279
1070
     2
1002
}
  0
LINE
  5
162E6
330
747D
100
AcDbEntity
  8
部品1
 48
50.0
100
AcDbLine
 10
7287.137356965264
 20
7744.322872679278
 30
0.0
 11
9783.13735696525
 21
7744.322872679278
 31
0.0
  0
DIMENSION
  5
162E7
330
747D
100
AcDbEntity
  8
寸法
100
AcDbDimension
  2
*D6
 10
9850.137356965237
 20
6718.219106322242
 30
0.0
 11
5905.137356965251
 21
6818.230917345863
 31
0.0
 70
    32
  1
N X 2630
 71
     5
 42
7889.999999999971
  3
INABA_S40G
100
AcDbAlignedDimension
 13
1960.137356965266
 23
7698.822872679277
 33
0.0
 14
9850.137356965237
 24
7698.822872679372
 34
0.0
100
AcDbRotatedDimension
1001
ACAD
1000
DSTYLE
1002
{
1002
}
  0
LINE
  5
162E8
330
747D
100
AcDbEntity
  8
部品1
100
AcDbLine
 10
2015.13735696525
 20
9428.822872679255
 30
0.0
 11
2015.137356965264
 21
7763.822872679279
 31
0.0
  0
DIMENSION
  5
162EA
330
747D
100
AcDbEntity
  8
寸法
 48
50.0
100
AcDbDimension
  2
*D7
 10
1960.137356965266
 20
7164.392101913115
 30
0.0
 11
1651.652075591027
 21
7164.392101913115
 31
0.0
 70
   160
 71
     5
 42
54.99999999999636
  3
INABA_S40G
100
AcDbAlignedDimension
 13
2015.137356965262
 23
7698.822872679281
 33
0.0
 14
1960.137356965266
 24
7698.822872679277
 34
0.0
100
AcDbRotatedDimension
1001
ACAD
1000
DSTYLE
1002
{
1002
}
  0
DIMENSION
  5
162EB
330
747D
100
AcDbEntity
  8
寸法
 48
50.0
100
AcDbDimension
  2
*D8
 10
7275.137356965263
 20
7164.392101913115
 30
0.0
 11
7436.039327965324
 21
7264.392101913116
 31
0.0
 70
   160
 71
     5
 42
48.00000000000363
  3
INABA_S40G
100
AcDbAlignedDimension
 13
7323.137356965266
 23
7724.82287267928
 33
0.0
 14
7275.137356965263
 24
7698.822872679281
 34
0.0
100
AcDbRotatedDimension
1001
ACAD
1000
DSTYLE
1002
{
1070
   279
1070
     2
1002
}
  0
LINE
  5
162EC
330
747D
100
AcDbEntity
  8
部品1
100
AcDbLine
 10
2015.137356965261
 20
7698.822872679281
 30
0.0
 11
1960.137356965266
 21
7698.822872679277
 31
0.0
  0
LINE
  5
162ED
330
747D
100
AcDbEntity
  8
部品1
 48
50.0
100
AcDbLine
 10
2015.137356965266
 20
7734.822872679278
 30
0.0
 11
1992.137356965266
 21
7734.822872679278
 31
0.0
  0
LINE
  5
162EE
330
747D
100
AcDbEntity
  8
部品1
 48
50.0
100
AcDbLine
 10
2025.137356965266
 20
7724.82287267928
 30
0.0
 11
2015.137356965266
 21
7703.822872679281
 31
0.0
  0
LINE
  5
162EF
330
747D
100
AcDbEntity
  8
部品1
 48
50.0
100
AcDbLine
 10
2015.137356965266
 20
7763.822872679279
 30
0.0
 11
2015.137356965262
 21
7698.822872679281
 31
0.0
  0
LINE
  5
162F0
330
747D
100
AcDbEntity
  8
部品1
 48
50.0
100
AcDbLine
 10
2063.137356965266
 20
7724.82287267928
 30
0.0
 11
2063.137356965266
 21
7733.82287267928
 31
0.0
  0
LINE
  5
162F1
330
747D
100
AcDbEntity
  8
部品1
 48
50.0
100
AcDbLine
 10
2063.137356965266
 20
7763.822872679281
 30
0.0
 11
2063.137356965266
 21
7754.82287267928
 31
0.0
  0
LINE
  5
162F2
330
747D
100
AcDbEntity
  8
部品1
100
AcDbLine
 10
2063.137356965266
 20
7763.822872679281
 30
0.0
 11
2015.137356965266
 21
7763.822872679281
 31
0.0
  0
LINE
  5
162F3
330
747D
100
AcDbEntity
  8
部品1
100
AcDbLine
 10
2063.137356965266
 20
7724.82287267928
 30
0.0
 11
2015.137356965266
 21
7724.82287267928
 31
0.0
  0
LINE
  5
162F4
330
747D
100
AcDbEntity
  8
部品1
100
AcDbLine
 10
2015.137356965264
 20
7734.822872679278
 30
0.0
 11
1992.137356965266
 21
7734.822872679278
 31
0.0
  0
LINE
  5
162F5
330
747D
100
AcDbEntity
  8
部品1
100
AcDbLine
 10
2015.137356965264
 20
7753.822872679204
 30
0.0
 11
1960.137356965264
 21
7753.822872679204
 31
0.0
  0
LINE
  5
162F6
330
747D
100
AcDbEntity
  8
部品1
100
AcDbLine
 10
1988.137356965248
 20
7753.822872679241
 30
0.0
 11
1960.137356965264
 21
7753.822872679241
 31
0.0
  0
LINE
  5
162F7
330
747D
100
AcDbEntity
  8
部品1
100
AcDbLine
 10
1988.137356965264
 20
7753.822872679255
 30
0.0
 11
1960.137356965264
 21
7753.822872679255
 31
0.0
  0
LINE
  5
162FB
330
747D
100
AcDbEntity
  8
部品1
100
AcDbLine
 10
1988.137356965253
 20
9013.822872679254
 30
0.0
 11
1960.137356965253
 21
9013.822872679254
 31
0.0
  0
LINE
  5
162FC
330
747D
100
AcDbEntity
  8
部品1
100
AcDbLine
 10
1988.137356965253
 20
9433.822872679256
 30
0.0
 11
1960.137356965253
 21
9433.822872679256
 31
0.0
  0
DIMENSION
  5
16301
330
747D
100
AcDbEntity
  8
寸法
 48
50.0
100
AcDbDimension
  2
*D9
 10
9747.137356965248
 20
7164.392101913115
 30
0.0
 11
9636.174459316499
 21
7264.392101913116
 31
0.0
 70
   160
 71
     5
 42
48.00000000000181
  3
INABA_S40G
100
AcDbAlignedDimension
 13
9795.13735696525
 23
7698.822872679368
 33
0.0
 14
9747.137356965248
 24
7724.82287267928
 34
0.0
100
AcDbRotatedDimension
1001
ACAD
1000
DSTYLE
1002
{
1070
   279
1070
     2
1002
}
  0
DIMENSION
  5
16302
330
747D
100
AcDbEntity
  8
寸法
 48
50.0
100
AcDbDimension
  2
*D10
 10
9795.13735696525
 20
7164.392101913115
 30
0.0
 11
10158.62263833948
 21
7164.392101913115
 31
0.0
 70
   160
 71
     5
 42
54.99999999999818
  3
INABA_S40G
100
AcDbAlignedDimension
 13
9850.137356965248
 23
7698.822872679372
 33
0.0
 14
9795.13735696525
 24
7698.822872679368
 34
0.0
100
AcDbRotatedDimension
1001
ACAD
1000
DSTYLE
1002
{
1002
}
  0
LINE
  5
16303
330
747D
100
AcDbEntity
  8
部品1
 48
50.0
100
AcDbLine
 10
9785.137356965249
 20
7724.82287267928
 30
0.0
 11
9795.137356965248
 21
7703.822872679281
 31
0.0
  0
LINE
  5
16304
330
747D
100
AcDbEntity
  8
部品1
100
AcDbLine
 10
9747.137356965248
 20
7763.822872679281
 30
0.0
 11
9795.13735696525
 21
7763.822872679281
 31
0.0
  0
LINE
  5
16305
330
747D
100
AcDbEntity
  8
部品1
100
AcDbLine
 10
9747.137356965248
 20
7724.82287267928
 30
0.0
 11
9795.137356965248
 21
7724.82287267928
 31
0.0
  0
LINE
  5
16306
330
747D
100
AcDbEntity
  8
部品1
 48
50.0
100
AcDbLine
 10
9747.137356965248
 20
7763.822872679281
 30
0.0
 11
9747.137356965248
 21
7754.82287267928
 31
0.0
  0
LINE
  5
16307
330
747D
100
AcDbEntity
  8
部品1
 48
50.0
100
AcDbLine
 10
9747.137356965248
 20
7724.82287267928
 30
0.0
 11
9747.137356965248
 21
7733.82287267928
 31
0.0
  0
LINE
  5
16308
330
747D
100
AcDbEntity
  8
部品1
100
AcDbLine
 10
9795.137356965248
 20
7734.822872679277
 30
0.0
 11
9818.137356965248
 21
7734.822872679278
 31
0.0
  0
LINE
  5
16309
330
747D
100
AcDbEntity
  8
部品1
100
AcDbLine
 10
9795.137356965248
 20
7753.822872679382
 30
0.0
 11
9850.137356965282
 21
7753.822872679382
 31
0.0
  0
LINE
  5
1630A
330
747D
100
AcDbEntity
  8
部品1
100
AcDbLine
 10
9850.137356965248
 20
7698.822872679372
 30
0.0
 11
9795.13735696525
 21
7698.822872679368
 31
0.0
  0
LINE
  5
16317
330
747D
100
AcDbEntity
  8
部品1
100
AcDbLine
 10
9822.137356965278
 20
9013.822872679382
 30
0.0
 11
9850.137356965277
 21
9013.822872679382
 31
0.0
  0
LINE
  5
16319
330
747D
100
AcDbEntity
  8
部品1
100
AcDbLine
 10
9822.137356965278
 20
9433.822872679384
 30
0.0
 11
9850.137356965277
 21
9433.822872679384
 31
0.0
  0
LINE
  5
1631B
330
747D
100
AcDbEntity
  8
部品1
100
AcDbLine
 10
7248.13735696527
 20
9880.822872679399
 30
0.0
 11
8522.637356965272
 21
9880.822872679399
 31
0.0
  0
DIMENSION
  5
1631F
330
747D
100
AcDbEntity
  8
寸法
100
AcDbDimension
  2
*D11
 10
9795.137356965273
 20
10324.63109230438
 30
0.0
 11
8535.137356965272
 21
10424.642903328
 31
0.0
 70
    32
  1
6X420=<>
 71
     5
 42
2520.000000000002
  3
INABA_S40G
100
AcDbAlignedDimension
 13
7275.137356965271
 23
9908.822872679285
 33
0.0
 14
9795.137356965273
 24
9908.82287267938
 34
0.0
100
AcDbRotatedDimension
1001
ACAD
1000
DSTYLE
1002
{
1002
}
  0
DIMENSION
  5
16320
330
747D
100
AcDbEntity
  8
寸法
100
AcDbDimension
  2
*D12
 10
2015.137356965272
 20
10324.63109230426
 30
0.0
 11
1651.652075590998
 21
10324.63109230426
 31
0.0
 70
   160
 71
     5
 42
55.00000000003274
  3
INABA_S40G
100
AcDbAlignedDimension
 13
1960.137356965239
 23
9908.822872679285
 33
0.0
 14
2015.137356965272
 24
9908.822872679285
 34
0.0
100
AcDbRotatedDimension
1001
ACAD
1000
DSTYLE
1002
{
1002
}
  0
LINE
  5
16321
330
747D
100
AcDbEntity
  8
部品1
100
AcDbLine
 10
2015.137356965239
 20
9908.822872679252
 30
0.0
 11
2015.137356965239
 21
9880.822872679253
 31
0.0
  0
LINE
  5
16322
330
747D
100
AcDbEntity
  8
部品1
100
AcDbLine
 10
2015.137356965272
 20
9908.822872679285
 30
0.0
 11
2015.137356965272
 21
9880.822872679285
 31
0.0
  0
LINE
  5
16323
330
747D
100
AcDbEntity
  8
部品1
100
AcDbLine
 10
1988.137356965239
 20
9853.822872679256
 30
0.0
 11
1960.137356965239
 21
9853.822872679256
 31
0.0
  0
LINE
  5
16324
330
747D
100
AcDbEntity
  8
部品1
100
AcDbLine
 10
7695.137356965272
 20
9908.822872679401
 30
0.0
 11
7695.137356965272
 21
9880.822872679402
 31
0.0
  0
LINE
  5
16325
330
747D
100
AcDbEntity
  8
部品1
100
AcDbLine
 10
7695.137356965272
 20
9908.822872679285
 30
0.0
 11
7695.137356965272
 21
9880.822872679285
 31
0.0
  0
LINE
  5
16326
330
747D
100
AcDbEntity
  8
部品1
100
AcDbLine
 10
7695.137356965272
 20
9908.822872679285
 30
0.0
 11
7695.137356965272
 21
9880.822872679285
 31
0.0
  0
LINE
  5
16329
330
747D
100
AcDbEntity
  8
部品1
100
AcDbLine
 10
8115.137356965272
 20
9908.822872679401
 30
0.0
 11
8115.137356965272
 21
9880.822872679402
 31
0.0
  0
LINE
  5
1632A
330
747D
100
AcDbEntity
  8
部品1
100
AcDbLine
 10
8115.137356965272
 20
9908.822872679285
 30
0.0
 11
8115.137356965272
 21
9880.822872679285
 31
0.0
  0
LINE
  5
1632B
330
747D
100
AcDbEntity
  8
部品1
100
AcDbLine
 10
8115.137356965272
 20
9908.822872679285
 30
0.0
 11
8115.137356965272
 21
9880.822872679285
 31
0.0
  0
LINE
  5
1632C
330
747D
100
AcDbEntity
  8
部品1
100
AcDbLine
 10
8535.137356965272
 20
9908.822872679401
 30
0.0
 11
8535.137356965272
 21
9880.822872679402
 31
0.0
  0
LINE
  5
16332
330
747D
100
AcDbEntity
  8
部品1
100
AcDbLine
 10
8955.137356965272
 20
9908.822872679401
 30
0.0
 11
8955.137356965272
 21
9880.822872679402
 31
0.0
  0
DIMENSION
  5
16333
330
747D
100
AcDbEntity
  8
寸法
100
AcDbDimension
  2
*D13
 10
9850.137356965275
 20
10324.63109230436
 30
0.0
 11
10158.62263833951
 21
10324.63109230436
 31
0.0
 70
   160
 71
     5
 42
55.0
  3
INABA_S40G
100
AcDbAlignedDimension
 13
9795.137356965273
 23
9908.82287267938
 33
0.0
 14
9850.137356965275
 24
9908.82287267938
 34
0.0
100
AcDbRotatedDimension
1001
ACAD
1000
DSTYLE
1002
{
1002
}
  0
LINE
  5
16334
330
747D
100
AcDbEntity
  8
部品1
100
AcDbLine
 10
9375.137356965272
 20
9908.822872679401
 30
0.0
 11
9375.137356965272
 21
9880.822872679402
 31
0.0
  0
LINE
  5
16335
330
747D
100
AcDbEntity
  8
部品1
100
AcDbLine
 10
9795.137356965273
 20
9908.82287267938
 30
0.0
 11
9795.137356965273
 21
9880.822872679379
 31
0.0
  0
LINE
  5
16336
330
747D
100
AcDbEntity
  8
部品1
100
AcDbLine
 10
9795.137356965273
 20
9908.822872679401
 30
0.0
 11
9795.137356965273
 21
9880.822872679402
 31
0.0
  0
LINE
  5
16337
330
747D
100
AcDbEntity
  8
部品1
100
AcDbLine
 10
9822.137356965274
 20
9853.822872679382
 30
0.0
 11
9850.137356965275
 21
9853.822872679382
 31
0.0
  0
DIMENSION
  5
1659A
330
747D
100
AcDbEntity
  8
寸法
 48
50.0
100
AcDbDimension
  2
*D15
 10
7117.137356965248
 20
7164.392101913115
 30
0.0
 11
7006.1744593165
 21
7264.392101913116
 31
0.0
 70
   160
 71
     5
 42
48.00000000000181
  3
INABA_S40G
100
AcDbAlignedDimension
 13
7165.137356965249
 23
7698.822872679368
 33
0.0
 14
7117.137356965248
 24
7724.82287267928
 34
0.0
100
AcDbRotatedDimension
1001
ACAD
1000
DSTYLE
1002
{
1070
   279
1070
     2
1002
}
  0
DIMENSION
  5
1659C
330
747D
100
AcDbEntity
  8
寸法
 48
50.0
100
AcDbDimension
  2
*D14
 10
2015.137356965262
 20
7164.392101913115
 30
0.0
 11
2176.039327965324
 21
7264.392101913116
 31
0.0
 70
   160
 71
     5
 42
48.00000000000363
  3
INABA_S40G
100
AcDbAlignedDimension
 13
2063.137356965266
 23
7724.82287267928
 33
0.0
 14
2015.137356965262
 24
7698.822872679281
 34
0.0
100
AcDbRotatedDimension
1001
ACAD
1000
DSTYLE
1002
{
1070
   279
1070
     2
1002
}
  0
DIMENSION
  5
165E9
330
747D
100
AcDbEntity
  8
寸法
 48
50.0
100
AcDbDimension
  2
*D16
 10
7165.137356965249
 20
7164.392101913115
 30
0.0
 11
7220.137356965257
 21
7012.700206876885
 31
0.0
 70
   160
 71
     5
 42
110.0000000000127
  3
INABA_S40G
100
AcDbAlignedDimension
 13
7275.137356965263
 23
7698.822872679281
 33
0.0
 14
7165.137356965249
 24
7698.822872679368
 34
0.0
100
AcDbRotatedDimension
1001
ACAD
1000
DSTYLE
1002
{
1070
   279
1070
     2
1002
}
  0
LINE
  5
16656
330
747D
100
AcDbEntity
  8
部品1
100
AcDbLine
 10
7117.137356965248
 20
7763.822872679281
 30
0.0
 11
7165.137356965249
 21
7763.822872679281
 31
0.0
  0
LINE
  5
16657
330
747D
100
AcDbEntity
  8
部品1
 48
50.0
100
AcDbLine
 10
7117.137356965248
 20
7763.822872679281
 30
0.0
 11
7117.137356965248
 21
7754.82287267928
 31
0.0
  0
LINE
  5
16658
330
747D
100
AcDbEntity
  8
部品1
100
AcDbLine
 10
7117.137356965248
 20
7724.82287267928
 30
0.0
 11
7165.137356965248
 21
7724.82287267928
 31
0.0
  0
LINE
  5
16659
330
747D
100
AcDbEntity
  8
部品1
 48
50.0
100
AcDbLine
 10
7117.137356965248
 20
7724.82287267928
 30
0.0
 11
7117.137356965248
 21
7733.82287267928
 31
0.0
  0
LINE
  5
1665A
330
747D
100
AcDbEntity
  8
部品1
 48
50.0
100
AcDbLine
 10
7155.137356965248
 20
7724.82287267928
 30
0.0
 11
7165.137356965248
 21
7703.822872679281
 31
0.0
  0
LINE
  5
1665B
330
747D
100
AcDbEntity
  8
部品1
100
AcDbLine
 10
7165.137356965248
 20
7734.822872679277
 30
0.0
 11
7188.137356965248
 21
7734.822872679278
 31
0.0
  0
LINE
  5
1665C
330
747D
100
AcDbEntity
  8
部品1
100
AcDbLine
 10
7323.137356965266
 20
7763.822872679281
 30
0.0
 11
7275.137356965266
 21
7763.822872679281
 31
0.0
  0
LINE
  5
1665D
330
747D
100
AcDbEntity
  8
部品1
 48
50.0
100
AcDbLine
 10
7323.137356965266
 20
7763.822872679281
 30
0.0
 11
7323.137356965266
 21
7754.82287267928
 31
0.0
  0
LINE
  5
1665E
330
747D
100
AcDbEntity
  8
部品1
100
AcDbLine
 10
7323.137356965266
 20
7724.82287267928
 30
0.0
 11
7275.137356965266
 21
7724.82287267928
 31
0.0
  0
LINE
  5
1665F
330
747D
100
AcDbEntity
  8
部品1
 48
50.0
100
AcDbLine
 10
7285.137356965266
 20
7724.82287267928
 30
0.0
 11
7275.137356965266
 21
7703.822872679281
 31
0.0
  0
LINE
  5
16660
330
747D
100
AcDbEntity
  8
部品1
100
AcDbLine
 10
7275.137356965264
 20
7734.822872679278
 30
0.0
 11
7252.137356965267
 21
7734.822872679278
 31
0.0
  0
LINE
  5
16661
330
747D
100
AcDbEntity
  8
部品1
 48
50.0
100
AcDbLine
 10
7275.137356965266
 20
7763.822872679279
 30
0.0
 11
7275.137356965263
 21
7698.822872679281
 31
0.0
  0
LINE
  5
16662
330
747D
100
AcDbEntity
  8
部品1
 48
50.0
100
AcDbLine
 10
7323.137356965266
 20
7724.82287267928
 30
0.0
 11
7323.137356965266
 21
7733.82287267928
 31
0.0
  0
LINE
  5
16663
330
747D
100
AcDbEntity
  8
部品1
100
AcDbLine
 10
7275.137356965261
 20
7698.822872679281
 30
0.0
 11
7165.137356965252
 21
7698.822872679272
 31
0.0
  0
LINE
  5
16664
330
747D
100
AcDbEntity
  8
部品1
 48
50.0
100
AcDbLine
 10
7165.137356965253
 20
7763.822872679368
 30
0.0
 11
7165.137356965249
 21
7698.822872679368
 31
0.0
  0
LINE
  5
16666
330
747D
100
AcDbEntity
  8
部品1
100
AcDbLine
 10
7275.137356965271
 20
9908.822872679285
 30
0.0
 11
7275.137356965271
 21
9880.822872679285
 31
0.0
  0
LINE
  5
16688
330
747D
100
AcDbEntity
  8
部品1
100
AcDbLine
 10
4618.137356965259
 20
9880.822872679402
 30
0.0
 11
5892.637356965272
 21
9880.822872679402
 31
0.0
  0
LINE
  5
1668A
330
747D
100
AcDbEntity
  8
部品1
100
AcDbLine
 10
5065.137356965272
 20
9908.822872679401
 30
0.0
 11
5065.137356965272
 21
9880.822872679402
 31
0.0
  0
LINE
  5
1668B
330
747D
100
AcDbEntity
  8
部品1
100
AcDbLine
 10
5065.137356965272
 20
9908.822872679285
 30
0.0
 11
5065.137356965272
 21
9880.822872679285
 31
0.0
  0
LINE
  5
1668C
330
747D
100
AcDbEntity
  8
部品1
100
AcDbLine
 10
5065.137356965272
 20
9908.822872679285
 30
0.0
 11
5065.137356965272
 21
9880.822872679285
 31
0.0
  0
LINE
  5
1668D
330
747D
100
AcDbEntity
  8
部品1
100
AcDbLine
 10
5485.137356965271
 20
9908.822872679401
 30
0.0
 11
5485.137356965271
 21
9880.822872679402
 31
0.0
  0
LINE
  5
1668E
330
747D
100
AcDbEntity
  8
部品1
100
AcDbLine
 10
5485.137356965271
 20
9908.822872679285
 30
0.0
 11
5485.137356965271
 21
9880.822872679285
 31
0.0
  0
LINE
  5
1668F
330
747D
100
AcDbEntity
  8
部品1
100
AcDbLine
 10
5485.137356965271
 20
9908.822872679285
 30
0.0
 11
5485.137356965271
 21
9880.822872679285
 31
0.0
  0
LINE
  5
16690
330
747D
100
AcDbEntity
  8
部品1
100
AcDbLine
 10
6325.137356965271
 20
9908.822872679401
 30
0.0
 11
6325.137356965271
 21
9880.822872679402
 31
0.0
  0
LINE
  5
16691
330
747D
100
AcDbEntity
  8
部品1
100
AcDbLine
 10
6745.137356965272
 20
9908.822872679401
 30
0.0
 11
6745.137356965272
 21
9880.822872679402
 31
0.0
  0
LINE
  5
16692
330
747D
100
AcDbEntity
  8
部品1
100
AcDbLine
 10
7165.137356965273
 20
9908.82287267938
 30
0.0
 11
7165.137356965273
 21
9880.822872679379
 31
0.0
  0
DIMENSION
  5
166DD
330
747D
100
AcDbEntity
  8
寸法
 48
50.0
100
AcDbDimension
  2
*D17
 10
7165.137356965273
 20
10324.63109230438
 30
0.0
 11
7220.137356965273
 21
10424.63109230438
 31
0.0
 70
    32
 71
     5
 42
109.9999999999982
  3
INABA_S40G
100
AcDbAlignedDimension
 13
7275.137356965271
 23
9908.822872679333
 33
0.0
 14
7165.137356965273
 24
9908.82287267933
 34
0.0
100
AcDbRotatedDimension
1001
ACAD
1000
DSTYLE
1002
{
1070
   279
1070
     2
1002
}
  0
LINE
  5
16760
330
747D
100
AcDbEntity
  8
部品1
 48
50.0
100
AcDbLine
 10
7220.137356965238
 20
9880.822872679326
 30
0.0
 11
7192.13735696524
 21
9908.82287267938
 31
0.0
  0
LINE
  5
16761
330
747D
100
AcDbEntity
  8
部品1
100
AcDbLine
 10
7248.137356965241
 20
9853.822872679302
 30
0.0
 11
7192.13735696524
 21
9853.822872679302
 31
0.0
  0
LINE
  5
16762
330
747D
100
AcDbEntity
  8
部品1
 48
50.0
100
AcDbLine
 10
7192.13735696524
 20
9880.822872679431
 30
0.0
 11
7192.137356965239
 21
9908.82287267938
 31
0.0
  0
LINE
  5
16763
330
747D
100
AcDbEntity
  8
部品1
 48
50.0
100
AcDbLine
 10
7192.13735696524
 20
9880.822872679326
 30
0.0
 11
7220.137356965238
 21
9880.822872679328
 31
0.0
  0
LINE
  5
168C3
330
747D
100
AcDbEntity
  8
部品1
100
AcDbLine
 10
7244.137356965257
 20
7753.822872679276
 30
0.0
 11
7196.137356965256
 21
7753.822872679275
 31
0.0
  0
LINE
  5
168C4
330
747D
100
AcDbEntity
  8
部品1
 48
50.0
100
AcDbLine
 10
7196.137356965256
 20
7753.822872679276
 30
0.0
 11
7196.137356965261
 21
7698.822872679277
 31
0.0
  0
LINE
  5
168C5
330
747D
100
AcDbEntity
  8
部品1
 48
50.0
100
AcDbLine
 10
7244.137356965257
 20
7753.822872679276
 30
0.0
 11
7244.137356965261
 21
7698.822872679277
 31
0.0
  0
DIMENSION
  5
16913
330
747D
100
AcDbEntity
  8
寸法
 48
50.0
100
AcDbDimension
  2
*D18
 10
9850.137356965275
 20
10573.95256586067
 30
0.0
 11
8535.137356965273
 21
10673.9643768843
 31
0.0
 70
    32
 71
     5
 42
2630.0
  3
INABA_S40G
100
AcDbAlignedDimension
 13
7220.137356965273
 23
10483.61900666233
 33
0.0
 14
9850.137356965275
 24
9908.82287267938
 34
0.0
100
AcDbRotatedDimension
1001
ACAD
1000
DSTYLE
1002
{
1070
   279
1070
     2
1002
}
  0
LINE
  5
16C81
330
747D
100
AcDbEntity
  8
部品1
100
AcDbLine
 10
1988.137356965253
 20
8593.822872679254
 30
0.0
 11
1960.137356965253
 21
8593.822872679254
 31
0.0
  0
LINE
  5
16C82
330
747D
100
AcDbEntity
  8
部品1
100
AcDbLine
 10
9822.137356965278
 20
8593.822872679382
 30
0.0
 11
9850.137356965277
 21
8593.822872679382
 31
0.0
  0
LINE
  5
16FDA
330
747D
100
AcDbEntity
  8
部品1
100
AcDbLine
 10
1988.137356965253
 20
8173.822872679256
 30
0.0
 11
1960.137356965253
 21
8173.822872679256
 31
0.0
  0
LINE
  5
16FDB
330
747D
100
AcDbEntity
  8
部品1
100
AcDbLine
 10
9822.137356965278
 20
8173.822872679382
 30
0.0
 11
9850.137356965277
 21
8173.822872679382
 31
0.0
  0
DIMENSION
  5
17C5D
330
747D
100
AcDbEntity
  8
寸法
100
AcDbDimension
  2
*D23
 10
4535.137356965273
 20
10324.63109230438
 30
0.0
 11
3275.137356965273
 21
10424.642903328
 31
0.0
 70
    32
  1
6X420=<>
 71
     5
 42
2520.000000000002
  3
INABA_S40G
100
AcDbAlignedDimension
 13
2015.137356965272
 23
9908.822872679285
 33
0.0
 14
4535.137356965273
 24
9908.82287267938
 34
0.0
100
AcDbRotatedDimension
1001
ACAD
1000
DSTYLE
1002
{
1002
}
  0
DIMENSION
  5
17C60
330
747D
100
AcDbEntity
  8
寸法
 48
50.0
100
AcDbDimension
  2
*D25
 10
4590.137356965273
 20
10573.95256586067
 30
0.0
 11
3275.137356965256
 21
10673.9643768843
 31
0.0
 70
    32
 71
     5
 42
2630.000000000034
  3
INABA_S40G
100
AcDbAlignedDimension
 13
1960.137356965239
 23
9908.822872679252
 33
0.0
 14
4590.137356965273
 24
10483.61900666233
 34
0.0
100
AcDbRotatedDimension
1001
ACAD
1000
DSTYLE
1002
{
1070
   279
1070
     2
1002
}
  0
LINE
  5
17C67
330
747D
100
AcDbEntity
  8
部品1
100
AcDbLine
 10
2435.137356965272
 20
9908.822872679401
 30
0.0
 11
2435.137356965272
 21
9880.822872679402
 31
0.0
  0
LINE
  5
17C68
330
747D
100
AcDbEntity
  8
部品1
100
AcDbLine
 10
2435.137356965272
 20
9908.822872679285
 30
0.0
 11
2435.137356965272
 21
9880.822872679285
 31
0.0
  0
LINE
  5
17C69
330
747D
100
AcDbEntity
  8
部品1
100
AcDbLine
 10
2435.137356965272
 20
9908.822872679285
 30
0.0
 11
2435.137356965272
 21
9880.822872679285
 31
0.0
  0
LINE
  5
17C6A
330
747D
100
AcDbEntity
  8
部品1
100
AcDbLine
 10
2855.137356965272
 20
9908.822872679401
 30
0.0
 11
2855.137356965272
 21
9880.822872679402
 31
0.0
  0
LINE
  5
17C6B
330
747D
100
AcDbEntity
  8
部品1
100
AcDbLine
 10
2855.137356965272
 20
9908.822872679285
 30
0.0
 11
2855.137356965272
 21
9880.822872679285
 31
0.0
  0
LINE
  5
17C6C
330
747D
100
AcDbEntity
  8
部品1
100
AcDbLine
 10
2855.137356965272
 20
9908.822872679285
 30
0.0
 11
2855.137356965272
 21
9880.822872679285
 31
0.0
  0
LINE
  5
17C71
330
747D
100
AcDbEntity
  8
部品1
100
AcDbLine
 10
3287.637356965272
 20
9880.822872679397
 30
0.0
 11
4562.137356965273
 21
9880.822872679379
 31
0.0
  0
LINE
  5
17C83
330
747D
100
AcDbEntity
  8
部品1
100
AcDbLine
 10
3275.137356965271
 20
9908.822872679401
 30
0.0
 11
3275.137356965271
 21
9880.822872679402
 31
0.0
  0
LINE
  5
17C84
330
747D
100
AcDbEntity
  8
部品1
100
AcDbLine
 10
3695.137356965272
 20
9908.822872679401
 30
0.0
 11
3695.137356965272
 21
9880.822872679402
 31
0.0
  0
LINE
  5
17C85
330
747D
100
AcDbEntity
  8
部品1
100
AcDbLine
 10
4115.137356965271
 20
9908.822872679401
 30
0.0
 11
4115.137356965271
 21
9880.822872679402
 31
0.0
  0
LINE
  5
17C94
330
747D
100
AcDbEntity
  8
部品1
100
AcDbLine
 10
4618.137356965241
 20
9853.822872679302
 30
0.0
 11
4562.13735696524
 21
9853.822872679302
 31
0.0
  0
DIMENSION
  5
17C95
330
747D
100
AcDbEntity
  8
寸法
 48
50.0
100
AcDbDimension
  2
*D24
 10
4535.137356965273
 20
10324.63109230438
 30
0.0
 11
4590.137356965272
 21
10424.63109230438
 31
0.0
 70
    32
 71
     5
 42
109.9999999999982
  3
INABA_S40G
100
AcDbAlignedDimension
 13
4645.137356965271
 23
9908.822872679333
 33
0.0
 14
4535.137356965273
 24
9908.82287267933
 34
0.0
100
AcDbRotatedDimension
1001
ACAD
1000
DSTYLE
1002
{
1070
   279
1070
     2
1002
}
  0
LINE
  5
17C96
330
747D
100
AcDbEntity
  8
部品1
100
AcDbLine
 10
4645.137356965271
 20
9908.822872679285
 30
0.0
 11
4645.137356965271
 21
9880.822872679285
 31
0.0
  0
LINE
  5
17C97
330
747D
100
AcDbEntity
  8
部品1
100
AcDbLine
 10
4535.137356965273
 20
9908.82287267938
 30
0.0
 11
4535.137356965273
 21
9880.822872679379
 31
0.0
  0
LINE
  5
17C98
330
747D
100
AcDbEntity
  8
部品1
 48
50.0
100
AcDbLine
 10
4590.137356965239
 20
9880.822872679326
 30
0.0
 11
4562.13735696524
 21
9908.82287267938
 31
0.0
  0
LINE
  5
17C99
330
747D
100
AcDbEntity
  8
部品1
 48
50.0
100
AcDbLine
 10
4562.13735696524
 20
9880.822872679431
 30
0.0
 11
4562.137356965239
 21
9908.82287267938
 31
0.0
  0
LINE
  5
17C9A
330
747D
100
AcDbEntity
  8
部品1
 48
50.0
100
AcDbLine
 10
4562.13735696524
 20
9880.822872679326
 30
0.0
 11
4590.137356965239
 21
9880.822872679328
 31
0.0
  0
DIMENSION
  5
17C9B
330
747D
100
AcDbEntity
  8
寸法
 48
50.0
100
AcDbDimension
  2
*D21
 10
2063.137356965266
 20
7164.392101913115
 30
0.0
 11
3275.137356965257
 21
7264.403912936737
 31
0.0
 70
    32
  1
有効開口部間口 <>
 71
     5
 42
2423.999999999982
  3
INABA_S40G
100
AcDbAlignedDimension
 13
4487.137356965248
 23
7724.82287267928
 33
0.0
 14
2063.137356965266
 24
7724.82287267928
 34
0.0
100
AcDbRotatedDimension
1001
ACAD
1000
DSTYLE
1002
{
1070
    75
1070
     1
1070
   279
1070
     2
1002
}
  0
LINE
  5
17C9C
330
747D
100
AcDbEntity
  8
部品1
 48
50.0
100
AcDbLine
 10
2027.137356965264
 20
7744.322872679278
 30
0.0
 11
4523.137356965249
 21
7744.322872679278
 31
0.0
  0
DIMENSION
  5
17C9D
330
747D
100
AcDbEntity
  8
寸法
 48
50.0
100
AcDbDimension
  2
*D20
 10
4487.137356965248
 20
7164.392101913115
 30
0.0
 11
4376.174459316501
 21
7264.392101913116
 31
0.0
 70
   160
 71
     5
 42
48.00000000000181
  3
INABA_S40G
100
AcDbAlignedDimension
 13
4535.137356965249
 23
7698.822872679368
 33
0.0
 14
4487.137356965248
 24
7724.82287267928
 34
0.0
100
AcDbRotatedDimension
1001
ACAD
1000
DSTYLE
1002
{
1070
   279
1070
     2
1002
}
  0
DIMENSION
  5
17C9E
330
747D
100
AcDbEntity
  8
寸法
 48
50.0
100
AcDbDimension
  2
*D19
 10
4645.137356965262
 20
7164.392101913115
 30
0.0
 11
4806.039327965323
 21
7264.392101913116
 31
0.0
 70
   160
 71
     5
 42
48.00000000000363
  3
INABA_S40G
100
AcDbAlignedDimension
 13
4693.137356965266
 23
7724.82287267928
 33
0.0
 14
4645.137356965262
 24
7698.822872679281
 34
0.0
100
AcDbRotatedDimension
1001
ACAD
1000
DSTYLE
1002
{
1070
   279
1070
     2
1002
}
  0
DIMENSION
  5
17C9F
330
747D
100
AcDbEntity
  8
寸法
 48
50.0
100
AcDbDimension
  2
*D22
 10
4535.137356965249
 20
7164.392101913115
 30
0.0
 11
4590.137356965256
 21
7012.700206876885
 31
0.0
 70
   160
 71
     5
 42
110.0000000000127
  3
INABA_S40G
100
AcDbAlignedDimension
 13
4645.137356965262
 23
7698.822872679281
 33
0.0
 14
4535.137356965249
 24
7698.822872679368
 34
0.0
100
AcDbRotatedDimension
1001
ACAD
1000
DSTYLE
1002
{
1070
   279
1070
     2
1002
}
  0
LINE
  5
17CA0
330
747D
100
AcDbEntity
  8
部品1
100
AcDbLine
 10
4693.137356965266
 20
7763.822872679281
 30
0.0
 11
4645.137356965266
 21
7763.822872679281
 31
0.0
  0
LINE
  5
17CA1
330
747D
100
AcDbEntity
  8
部品1
100
AcDbLine
 10
4693.137356965266
 20
7724.82287267928
 30
0.0
 11
4645.137356965266
 21
7724.82287267928
 31
0.0
  0
LINE
  5
17CA2
330
747D
100
AcDbEntity
  8
部品1
100
AcDbLine
 10
4487.137356965248
 20
7763.822872679281
 30
0.0
 11
4535.137356965249
 21
7763.822872679281
 31
0.0
  0
LINE
  5
17CA3
330
747D
100
AcDbEntity
  8
部品1
100
AcDbLine
 10
4487.137356965248
 20
7724.82287267928
 30
0.0
 11
4535.137356965248
 21
7724.82287267928
 31
0.0
  0
LINE
  5
17CA4
330
747D
100
AcDbEntity
  8
部品1
 48
50.0
100
AcDbLine
 10
4487.137356965248
 20
7763.822872679281
 30
0.0
 11
4487.137356965248
 21
7754.82287267928
 31
0.0
  0
LINE
  5
17CA5
330
747D
100
AcDbEntity
  8
部品1
 48
50.0
100
AcDbLine
 10
4487.137356965248
 20
7724.82287267928
 30
0.0
 11
4487.137356965248
 21
7733.82287267928
 31
0.0
  0
LINE
  5
17CA6
330
747D
100
AcDbEntity
  8
部品1
 48
50.0
100
AcDbLine
 10
4525.137356965248
 20
7724.82287267928
 30
0.0
 11
4535.137356965248
 21
7703.822872679281
 31
0.0
  0
LINE
  5
17CA7
330
747D
100
AcDbEntity
  8
部品1
 48
50.0
100
AcDbLine
 10
4655.137356965266
 20
7724.82287267928
 30
0.0
 11
4645.137356965266
 21
7703.822872679281
 31
0.0
  0
LINE
  5
17CA8
330
747D
100
AcDbEntity
  8
部品1
 48
50.0
100
AcDbLine
 10
4645.137356965266
 20
7763.822872679279
 30
0.0
 11
4645.137356965262
 21
7698.822872679281
 31
0.0
  0
LINE
  5
17CA9
330
747D
100
AcDbEntity
  8
部品1
100
AcDbLine
 10
4535.137356965248
 20
7734.822872679277
 30
0.0
 11
4558.137356965247
 21
7734.822872679278
 31
0.0
  0
LINE
  5
17CAA
330
747D
100
AcDbEntity
  8
部品1
 48
50.0
100
AcDbLine
 10
4535.137356965253
 20
7763.822872679368
 30
0.0
 11
4535.137356965249
 21
7698.822872679368
 31
0.0
  0
LINE
  5
17CAB
330
747D
100
AcDbEntity
  8
部品1
100
AcDbLine
 10
4614.137356965257
 20
7753.822872679276
 30
0.0
 11
4566.137356965256
 21
7753.822872679275
 31
0.0
  0
LINE
  5
17CAC
330
747D
100
AcDbEntity
  8
部品1
 48
50.0
100
AcDbLine
 10
4566.137356965256
 20
7753.822872679276
 30
0.0
 11
4566.13735696526
 21
7698.822872679277
 31
0.0
  0
LINE
  5
17CAD
330
747D
100
AcDbEntity
  8
部品1
 48
50.0
100
AcDbLine
 10
4614.137356965257
 20
7753.822872679276
 30
0.0
 11
4614.137356965261
 21
7698.822872679277
 31
0.0
  0
LINE
  5
17CAE
330
747D
100
AcDbEntity
  8
部品1
100
AcDbLine
 10
4645.137356965264
 20
7734.822872679278
 30
0.0
 11
4622.137356965266
 21
7734.822872679278
 31
0.0
  0
LINE
  5
17CAF
330
747D
100
AcDbEntity
  8
部品1
100
AcDbLine
 10
4645.13735696526
 20
7698.822872679281
 30
0.0
 11
4535.137356965251
 21
7698.822872679272
 31
0.0
  0
LINE
  5
17CB0
330
747D
100
AcDbEntity
  8
部品1
 48
50.0
100
AcDbLine
 10
4693.137356965266
 20
7763.822872679281
 30
0.0
 11
4693.137356965266
 21
7754.82287267928
 31
0.0
  0
LINE
  5
17CB1
330
747D
100
AcDbEntity
  8
部品1
 48
50.0
100
AcDbLine
 10
4693.137356965266
 20
7724.82287267928
 30
0.0
 11
4693.137356965266
 21
7733.82287267928
 31
0.0
  0
LINE
  5
17D72
330
747D
100
AcDbEntity
  8
部品1
100
AcDbLine
 10
1988.137356965259
 20
9880.822872679393
 30
0.0
 11
3262.637356965271
 21
9880.82287267939
 31
0.0
  0
LINE
  5
17D73
330
747D
100
AcDbEntity
  8
部品1
100
AcDbLine
 10
1960.137356965239
 20
9908.822872679333
 30
0.0
 11
9850.137356965275
 21
9908.82287267938
 31
0.0
  0
LINE
  5
18606
330
747D
100
AcDbEntity
  8
部品1
100
AcDbLine
 10
5905.137356965272
 20
9908.822872679285
 30
0.0
 11
5905.137356965272
 21
9880.822872679285
 31
0.0
  0
LINE
  5
18607
330
747D
100
AcDbEntity
  8
部品1
100
AcDbLine
 10
5905.137356965272
 20
9908.822872679285
 30
0.0
 11
5905.137356965272
 21
9880.822872679285
 31
0.0
  0
LINE
  5
18608
330
747D
100
AcDbEntity
  8
部品1
100
AcDbLine
 10
5905.137356965272
 20
9908.822872679401
 30
0.0
 11
5905.137356965272
 21
9880.822872679402
 31
0.0
  0
LINE
  5
19F29
330
747D
100
AcDbEntity
  8
部品1
 48
50.0
100
AcDbLine
 10
7248.137356965241
 20
9853.822872679302
 30
0.0
 11
7248.137356965303
 21
9908.822872679365
 31
0.0
  0
LINE
  5
19F2A
330
747D
100
AcDbEntity
  8
部品1
 48
50.0
100
AcDbLine
 10
7192.13735696524
 20
9853.822872679302
 30
0.0
 11
7192.137356965273
 21
9880.822872679379
 31
0.0
  0
LINE
  5
19F2B
330
747D
100
AcDbEntity
  8
部品1
 48
50.0
100
AcDbLine
 10
4618.137356965241
 20
9853.822872679302
 30
0.0
 11
4618.137356965241
 21
9908.822872679348
 31
0.0
  0
LINE
  5
19F2C
330
747D
100
AcDbEntity
  8
部品1
 48
50.0
100
AcDbLine
 10
4562.13735696524
 20
9853.822872679302
 30
0.0
 11
4562.137356965239
 21
9908.822872679383
 31
0.0
  0
LINE
  5
19F30
330
747D
100
AcDbEntity
  8
部品1
 48
50.0
100
AcDbLine
 10
2015.137356965262
 20
7698.822872679279
 30
0.0
 11
4535.137356965249
 21
7698.822872679139
 31
0.0
  0
LINE
  5
19F31
330
747D
100
AcDbEntity
  8
部品1
 48
50.0
100
AcDbLine
 10
2015.137356965262
 20
7783.822872679279
 30
0.0
 11
4535.137356965249
 21
7783.822872679138
 31
0.0
  0
LINE
  5
19F32
330
747D
100
AcDbEntity
  8
部品1
 48
50.0
100
AcDbLine
 10
2015.137356965262
 20
7828.822872679279
 30
0.0
 11
4535.137356965249
 21
7828.822872679139
 31
0.0
  0
LINE
  5
19F33
330
747D
100
AcDbEntity
  8
破線
 48
10.0
100
AcDbLine
 10
2040.137356965126
 20
7853.822872679278
 30
0.0
 11
2834.637356965166
 21
7853.822872679232
 31
0.0
  0
LINE
  5
19F34
330
747D
100
AcDbEntity
  8
破線
 48
10.0
100
AcDbLine
 10
2884.637356965163
 20
7853.822872679231
 30
0.0
 11
3665.637356965167
 21
7853.822872679185
 31
0.0
  0
LINE
  5
19F35
330
747D
100
AcDbEntity
  8
破線
 48
10.0
100
AcDbLine
 10
2834.637356965166
 20
7828.822872679236
 30
0.0
 11
2834.637356965264
 21
9428.822872679326
 31
0.0
  0
LINE
  5
19F36
330
747D
100
AcDbEntity
  8
破線
 48
10.0
100
AcDbLine
 10
2884.637356965163
 20
7828.822872679232
 30
0.0
 11
2884.637356965262
 21
9428.822872679328
 31
0.0
  0
LINE
  5
19F37
330
747D
100
AcDbEntity
  8
破線
 48
10.0
100
AcDbLine
 10
3715.637356965163
 20
7828.822872679186
 30
0.0
 11
3715.637356965264
 21
9428.82287267936
 31
0.0
  0
LINE
  5
19F38
330
747D
100
AcDbEntity
  8
破線
 48
10.0
100
AcDbLine
 10
3665.637356965164
 20
7828.822872679189
 30
0.0
 11
3665.637356965264
 21
9428.82287267936
 31
0.0
  0
LINE
  5
19F39
330
747D
100
AcDbEntity
  8
破線
 48
10.0
100
AcDbLine
 10
3715.637356965166
 20
7853.822872679183
 30
0.0
 11
4510.137356965141
 21
7853.822872679138
 31
0.0
  0
LINE
  5
19F3A
330
747D
100
AcDbEntity
  8
部品1
 48
50.0
100
AcDbLine
 10
2015.137356965262
 20
8173.822872679256
 30
0.0
 11
4535.137356965267
 21
8173.822872679252
 31
0.0
  0
LINE
  5
19F3B
330
747D
100
AcDbEntity
  8
破線
 48
10.0
100
AcDbLine
 10
2040.137356965126
 20
7853.822872679278
 30
0.0
 11
2040.137356965224
 21
9428.822872679258
 31
0.0
  0
LINE
  5
19F3C
330
747D
100
AcDbEntity
  8
破線
 48
10.0
100
AcDbLine
 10
4510.137356965138
 20
7853.822872679138
 30
0.0
 11
4510.137356965236
 21
9428.822872679353
 31
0.0
  0
LINE
  5
19F3D
330
747D
100
AcDbEntity
  8
部品1
100
AcDbLine
 10
4562.137356965255
 20
9853.822872679302
 30
0.0
 11
4562.137356965243
 21
7698.822872679276
 31
0.0
  0
LINE
  5
19F3E
330
747D
100
AcDbEntity
  8
部品1
100
AcDbLine
 10
4618.137356965235
 20
7698.822872679279
 30
0.0
 11
4618.137356965254
 21
9853.822872679302
 31
0.0
  0
LINE
  5
19F3F
330
747D
100
AcDbEntity
  8
部品1
100
AcDbLine
 10
4535.137356965267
 20
7763.822872679281
 30
0.0
 11
4535.137356965268
 21
9428.822872679353
 31
0.0
  0
LINE
  5
19F40
330
747D
100
AcDbEntity
  8
部品1
100
AcDbLine
 10
4645.137356965282
 20
7763.822872679281
 30
0.0
 11
4645.137356965274
 21
9428.822872679251
 31
0.0
  0
LINE
  5
19F41
330
747D
100
AcDbEntity
  8
部品1
 48
50.0
100
AcDbLine
 10
2015.137356965262
 20
8593.822872679254
 30
0.0
 11
4535.137356965267
 21
8593.822872679252
 31
0.0
  0
LINE
  5
19F43
330
747D
100
AcDbEntity
  8
部品1
 48
50.0
100
AcDbLine
 10
2015.137356965262
 20
9013.822872679254
 30
0.0
 11
4535.137356965267
 21
9013.822872679252
 31
0.0
  0
LINE
  5
19F50
330
747D
100
AcDbEntity
  8
部品1
 48
50.0
100
AcDbLine
 10
9795.137356965284
 20
9013.822872679254
 30
0.0
 11
7275.137356965278
 21
9013.822872679252
 31
0.0
  0
LINE
  5
19F52
330
747D
100
AcDbEntity
  8
部品1
 48
50.0
100
AcDbLine
 10
9795.137356965284
 20
8593.822872679254
 30
0.0
 11
7275.137356965278
 21
8593.822872679252
 31
0.0
  0
LINE
  5
19F53
330
747D
100
AcDbEntity
  8
部品1
 48
50.0
100
AcDbLine
 10
9795.137356965284
 20
8173.822872679256
 30
0.0
 11
7275.137356965278
 21
8173.822872679252
 31
0.0
  0
LINE
  5
19F54
330
747D
100
AcDbEntity
  8
破線
 48
10.0
100
AcDbLine
 10
8925.637356965385
 20
7853.822872679231
 30
0.0
 11
8144.637356965381
 21
7853.822872679185
 31
0.0
  0
LINE
  5
19F55
330
747D
100
AcDbEntity
  8
部品1
 48
50.0
100
AcDbLine
 10
9795.137356965284
 20
7828.822872679279
 30
0.0
 11
7275.137356965297
 21
7828.822872679139
 31
0.0
  0
LINE
  5
19F56
330
747D
100
AcDbEntity
  8
破線
 48
10.0
100
AcDbLine
 10
9770.13735696542
 20
7853.822872679278
 30
0.0
 11
9770.137356965324
 21
9428.822872679347
 31
0.0
  0
LINE
  5
19F57
330
747D
100
AcDbEntity
  8
破線
 48
10.0
100
AcDbLine
 10
8925.637356965385
 20
7828.822872679232
 30
0.0
 11
8925.637356965284
 21
9428.822872679353
 31
0.0
  0
LINE
  5
19F58
330
747D
100
AcDbEntity
  8
破線
 48
10.0
100
AcDbLine
 10
8975.63735696538
 20
7828.822872679236
 30
0.0
 11
8975.637356965282
 21
9428.822872679353
 31
0.0
  0
LINE
  5
19F59
330
747D
100
AcDbEntity
  8
部品1
100
AcDbLine
 10
9795.137356965298
 20
9428.822872679347
 30
0.0
 11
9795.137356965284
 21
7734.822872679277
 31
0.0
  0
LINE
  5
19F5A
330
747D
100
AcDbEntity
  8
破線
 48
10.0
100
AcDbLine
 10
9770.13735696542
 20
7853.822872679278
 30
0.0
 11
8975.63735696538
 21
7853.822872679232
 31
0.0
  0
LINE
  5
19F5D
330
747D
100
AcDbEntity
  8
部品1
100
AcDbLine
 10
7275.137356965278
 20
7763.822872679281
 30
0.0
 11
7275.137356965278
 21
9428.822872679253
 31
0.0
  0
LINE
  5
19F5E
330
747D
100
AcDbEntity
  8
破線
 48
10.0
100
AcDbLine
 10
7300.137356965407
 20
7853.822872679138
 30
0.0
 11
7300.137356965311
 21
9428.822872679255
 31
0.0
  0
LINE
  5
19F5F
330
747D
100
AcDbEntity
  8
破線
 48
10.0
100
AcDbLine
 10
8144.637356965382
 20
7828.822872679189
 30
0.0
 11
8144.637356965281
 21
9428.822872679324
 31
0.0
  0
LINE
  5
19F60
330
747D
100
AcDbEntity
  8
破線
 48
10.0
100
AcDbLine
 10
8094.637356965384
 20
7828.822872679186
 30
0.0
 11
8094.637356965284
 21
9428.822872679322
 31
0.0
  0
LINE
  5
19F61
330
747D
100
AcDbEntity
  8
破線
 48
10.0
100
AcDbLine
 10
8094.63735696538
 20
7853.822872679183
 30
0.0
 11
7300.137356965406
 21
7853.822872679138
 31
0.0
  0
LINE
  5
19F64
330
747D
100
AcDbEntity
  8
部品1
 48
50.0
100
AcDbLine
 10
9795.137356965284
 20
7783.822872679279
 30
0.0
 11
7275.137356965297
 21
7783.822872679138
 31
0.0
  0
LINE
  5
19F65
330
747D
100
AcDbEntity
  8
部品1
 48
50.0
100
AcDbLine
 10
9795.137356965284
 20
7698.822872679279
 30
0.0
 11
7275.137356965297
 21
7698.822872679139
 31
0.0
  0
LINE
  5
19F7E
330
747D
100
AcDbEntity
  8
部品1
100
AcDbLine
 10
7192.137356965256
 20
9853.822872679302
 30
0.0
 11
7192.137356965244
 21
7698.822872679276
 31
0.0
  0
LINE
  5
19F7F
330
747D
100
AcDbEntity
  8
部品1
100
AcDbLine
 10
7248.137356965234
 20
7698.822872679279
 30
0.0
 11
7248.137356965255
 21
9853.822872679302
 31
0.0
  0
LINE
  5
19F80
330
747D
100
AcDbEntity
  8
部品1
100
AcDbLine
 10
7165.137356965267
 20
7763.822872679281
 30
0.0
 11
7165.137356965271
 21
9428.822872679353
 31
0.0
  0
LINE
  5
19F8B
330
747D
100
AcDbEntity
  8
破線
 48
10.0
100
AcDbLine
 10
5514.637356965162
 20
7828.822872679232
 30
0.0
 11
5514.637356965262
 21
9428.822872679324
 31
0.0
  0
LINE
  5
19F8C
330
747D
100
AcDbEntity
  8
破線
 48
10.0
100
AcDbLine
 10
5464.637356965166
 20
7828.822872679236
 30
0.0
 11
5464.637356965263
 21
9428.822872679321
 31
0.0
  0
LINE
  5
19F8D
330
747D
100
AcDbEntity
  8
破線
 48
10.0
100
AcDbLine
 10
4670.137356965126
 20
7853.822872679278
 30
0.0
 11
5464.637356965166
 21
7853.822872679232
 31
0.0
  0
LINE
  5
19F8F
330
747D
100
AcDbEntity
  8
破線
 48
10.0
100
AcDbLine
 10
6295.637356965165
 20
7828.822872679189
 30
0.0
 11
6295.637356965263
 21
9428.822872679353
 31
0.0
  0
LINE
  5
19F90
330
747D
100
AcDbEntity
  8
破線
 48
10.0
100
AcDbLine
 10
6345.637356965163
 20
7828.822872679186
 30
0.0
 11
6345.637356965263
 21
9428.822872679353
 31
0.0
  0
LINE
  5
19F91
330
747D
100
AcDbEntity
  8
破線
 48
10.0
100
AcDbLine
 10
6345.637356965166
 20
7853.822872679183
 30
0.0
 11
7140.137356965141
 21
7853.822872679138
 31
0.0
  0
LINE
  5
19F95
330
747D
100
AcDbEntity
  8
破線
 48
10.0
100
AcDbLine
 10
7140.137356965138
 20
7853.822872679138
 30
0.0
 11
7140.137356965237
 21
9428.822872679353
 31
0.0
  0
LINE
  5
19F96
330
747D
100
AcDbEntity
  8
破線
 48
10.0
100
AcDbLine
 10
4670.137356965126
 20
7853.822872679278
 30
0.0
 11
4670.137356965224
 21
9428.822872679255
 31
0.0
  0
LINE
  5
19FEA
330
747D
100
AcDbEntity
  8
部品1
 48
50.0
100
AcDbLine
 10
9795.137356965248
 20
7734.822872679277
 30
0.0
 11
9795.137356965284
 21
7698.822872679279
 31
0.0
  0
LINE
  5
1A07C
330
747D
100
AcDbEntity
  8
部品1
100
AcDbLine
 10
5917.63735696527
 20
9880.822872679383
 30
0.0
 11
7192.137356965273
 21
9880.822872679379
 31
0.0
  0
LINE
  5
1A081
330
747D
100
AcDbEntity
  8
部品1
 48
50.0
100
AcDbLine
 10
4645.137356965277
 20
9013.822872679257
 30
0.0
 11
7165.137356965267
 21
9013.822872679252
 31
0.0
  0
TEXT
  5
1A09B
330
747D
100
AcDbEntity
  8
文字
 48
50.0
100
AcDbText
 10
5418.318536160576
 20
7204.044915245129
 30
0.0
 40
120.0
  1
2424
  7
STYLE1
100
AcDbText
  0
LINE
  5
1A09C
330
747D
100
AcDbEntity
  8
寸法
 48
50.0
100
AcDbLine
 10
4796.137362943624
 20
7164.392087198452
 30
0.0
 11
5786.137362943623
 21
7164.392087198452
 31
0.0
  0
TEXT
  5
1A09D
330
747D
100
AcDbEntity
  8
文字
 48
50.0
100
AcDbText
 10
6062.486924287093
 20
7204.044915245129
 30
0.0
 40
120.0
  1
2424
  7
STYLE1
100
AcDbText
  0
LINE
  5
1A09E
330
747D
100
AcDbEntity
  8
寸法
 48
50.0
100
AcDbLine
 10
6032.137362943604
 20
7164.392087198452
 30
0.0
 11
7022.137362943604
 21
7164.392087198452
 31
0.0
  0
TEXT
  5
1A09F
330
747D
100
AcDbEntity
  8
文字
 48
50.0
100
AcDbText
 10
6362.486918308763
 20
10613.60539390735
 30
0.0
 40
120.0
  1
2630
  7
STYLE1
100
AcDbText
  0
LINE
  5
1A0A0
330
747D
100
AcDbEntity
  8
寸法
 48
50.0
100
AcDbLine
 10
6332.137356965273
 20
10573.95256586067
 30
0.0
 11
7220.137356965273
 21
10573.95256586067
 31
0.0
  0
TEXT
  5
1A0A1
330
747D
100
AcDbEntity
  8
文字
 48
50.0
100
AcDbText
 10
6355.486918308763
 20
10364.28392035106
 30
0.0
 40
120.0
  1
2520
  7
STYLE1
100
AcDbText
  0
LINE
  5
1A0A2
330
747D
100
AcDbEntity
  8
寸法
 48
50.0
100
AcDbLine
 10
6325.137356965274
 20
10324.63109230438
 30
0.0
 11
7165.137356965273
 21
10324.63109230438
 31
0.0
  0
TEXT
  5
1A0A3
330
747D
100
AcDbEntity
  8
文字
 48
50.0
100
AcDbText
 10
5117.318530182223
 20
10364.28392035106
 30
0.0
 40
120.0
  1
2520
  7
STYLE1
100
AcDbText
  0
TEXT
  5
1A0A4
330
747D
100
AcDbEntity
  8
文字
 48
50.0
100
AcDbText
 10
5110.318530182225
 20
10613.60539390735
 30
0.0
 40
120.0
  1
2630
  7
STYLE1
100
AcDbText
  0
LINE
  5
1A0A5
330
747D
100
AcDbEntity
  8
寸法
 48
50.0
100
AcDbLine
 10
4590.137356965273
 20
10573.95256586067
 30
0.0
 11
5478.137356965273
 21
10573.95256586067
 31
0.0
  0
LINE
  5
1A0A6
330
747D
100
AcDbEntity
  8
寸法
 48
50.0
100
AcDbLine
 10
4645.137356965271
 20
10324.63109230438
 30
0.0
 11
5485.137356965271
 21
10324.63109230438
 31
0.0
  0
LINE
  5
1A1FA
330
747D
100
AcDbEntity
  8
部品1
 48
50.0
100
AcDbLine
 10
4645.137356965277
 20
8593.822872679259
 30
0.0
 11
7165.137356965267
 21
8593.822872679252
 31
0.0
  0
LINE
  5
1A1FB
330
747D
100
AcDbEntity
  8
部品1
 48
50.0
100
AcDbLine
 10
4645.137356965279
 20
8173.822872679256
 30
0.0
 11
7165.137356965267
 21
8173.822872679252
 31
0.0
  0
LINE
  5
1A1FC
330
747D
100
AcDbEntity
  8
部品1
 48
50.0
100
AcDbLine
 10
4645.137356965282
 20
7828.822872679278
 30
0.0
 11
7165.137356965249
 21
7828.822872679139
 31
0.0
  0
LINE
  5
1A1FD
330
747D
100
AcDbEntity
  8
破線
 48
10.0
100
AcDbLine
 10
5514.637356965163
 20
7853.82287267923
 30
0.0
 11
6295.637356965166
 21
7853.822872679185
 31
0.0
  0
LINE
  5
1A1FE
330
747D
100
AcDbEntity
  8
部品1
 48
50.0
100
AcDbLine
 10
4645.137356965281
 20
7783.822872679284
 30
0.0
 11
7165.137356965249
 21
7783.822872679138
 31
0.0
  0
LINE
  5
1A200
330
747D
100
AcDbEntity
  8
部品1
 48
50.0
100
AcDbLine
 10
4645.137356965263
 20
7698.822872679279
 30
0.0
 11
7165.137356965249
 21
7698.822872679139
 31
0.0
  0
INSERT
  5
1A2EB
330
747D
100
AcDbEntity
  8
部品1
 48
50.0
100
AcDbBlockReference
  2
A$C3EB005E7
 10
9821.637373251112
 20
9317.528118552456
 30
0.0
  0
LINE
  5
1A2ED
330
747D
100
AcDbEntity
  8
部品1
100
AcDbLine
 10
7248.637356965272
 20
9878.822872679251
 30
0.0
 11
8521.637356965271
 21
9878.822872679357
 31
0.0
  0
LINE
  5
1A2EE
330
747D
100
AcDbEntity
  8
部品1
100
AcDbLine
 10
7248.637356965272
 20
9428.822872679251
 30
0.0
 11
8521.637356965271
 21
9428.822872679358
 31
0.0
  0
LINE
  5
1A2EF
330
747D
100
AcDbEntity
  8
細線
 48
50.0
100
AcDbLine
 10
8521.637356965271
 20
9428.822872679358
 30
0.0
 11
7248.637356965272
 21
9878.822872679251
 31
0.0
  0
LINE
  5
1A2F0
330
747D
100
AcDbEntity
  8
細線
 48
50.0
100
AcDbLine
 10
8521.637356965271
 20
9878.822872679354
 30
0.0
 11
7248.637356965272
 21
9428.822872679251
 31
0.0
  0
LINE
  5
1A2F1
330
747D
100
AcDbEntity
  8
細線
 48
50.0
100
AcDbLine
 10
3261.637356965272
 20
9878.822872679357
 30
0.0
 11
1988.637356965271
 21
9428.822872679255
 31
0.0
  0
LINE
  5
1A2F2
330
747D
100
AcDbEntity
  8
細線
 48
50.0
100
AcDbLine
 10
3261.637356965271
 20
9428.82287267936
 30
0.0
 11
1988.63735696527
 21
9878.822872679256
 31
0.0
  0
LINE
  5
1A2F3
330
747D
100
AcDbEntity
  8
部品1
100
AcDbLine
 10
1988.637356965272
 20
9428.822872679255
 30
0.0
 11
3261.637356965271
 21
9428.82287267936
 31
0.0
  0
LINE
  5
1A2F4
330
747D
100
AcDbEntity
  8
部品1
100
AcDbLine
 10
1988.63735696527
 20
9878.822872679256
 30
0.0
 11
3261.637356965272
 21
9878.822872679361
 31
0.0
  0
LINE
  5
1A2F7
330
747D
100
AcDbEntity
  8
部品1
 48
50.0
100
AcDbLine
 10
1988.63735696527
 20
9878.822872679251
 30
0.0
 11
1988.637356965271
 21
9428.822872679251
 31
0.0
  0
LINE
  5
1A303
330
747D
100
AcDbEntity
  8
部品1
100
AcDbLine
 10
4561.637356965272
 20
9878.82287267935
 30
0.0
 11
4561.637356965272
 21
9428.822872679353
 31
0.0
  0
LINE
  5
1A304
330
747D
100
AcDbEntity
  8
部品1
 48
50.0
100
AcDbLine
 10
4618.637356965271
 20
9878.822872679251
 30
0.0
 11
4618.637356965272
 21
9428.822872679251
 31
0.0
  0
LINE
  5
1A305
330
747D
100
AcDbEntity
  8
部品1
 48
50.0
100
AcDbLine
 10
3287.637356965272
 20
9880.82287267936
 30
0.0
 11
3287.637356965272
 21
9428.82287267936
 31
0.0
  0
LINE
  5
1A306
330
747D
100
AcDbEntity
  8
部品1
 48
50.0
100
AcDbLine
 10
3262.637356965271
 20
9880.822872679365
 30
0.0
 11
3262.637356965271
 21
9428.82287267936
 31
0.0
  0
LINE
  5
1A307
330
747D
100
AcDbEntity
  8
部品1
 48
50.0
100
AcDbLine
 10
3288.637356965272
 20
9878.822872679354
 30
0.0
 11
3288.637356965272
 21
9428.82287267936
 31
0.0
  0
LINE
  5
1A308
330
747D
100
AcDbEntity
  8
部品1
 48
50.0
100
AcDbLine
 10
3261.637356965272
 20
9878.822872679357
 30
0.0
 11
3261.637356965272
 21
9428.82287267936
 31
0.0
  0
LINE
  5
1A309
330
747D
100
AcDbEntity
  8
細線
 48
50.0
100
AcDbLine
 10
4561.637356965272
 20
9428.822872679353
 30
0.0
 11
3288.637356965272
 21
9878.822872679354
 31
0.0
  0
LINE
  5
1A30A
330
747D
100
AcDbEntity
  8
細線
 48
50.0
100
AcDbLine
 10
4561.637356965272
 20
9878.82287267935
 30
0.0
 11
3288.637356965271
 21
9428.82287267936
 31
0.0
  0
LINE
  5
1A30B
330
747D
100
AcDbEntity
  8
部品1
 48
50.0
100
AcDbLine
 10
4618.637356965271
 20
9878.822872679249
 30
0.0
 11
4618.637356965272
 21
9428.822872679248
 31
0.0
  0
LINE
  5
1A30C
330
747D
100
AcDbEntity
  8
部品1
 48
50.0
100
AcDbLine
 10
7248.637356965272
 20
9878.822872679249
 30
0.0
 11
7248.637356965272
 21
9428.822872679248
 31
0.0
  0
LINE
  5
1A30D
330
747D
100
AcDbEntity
  8
細線
 48
50.0
100
AcDbLine
 10
7191.637356965272
 20
9878.822872679347
 30
0.0
 11
5918.637356965272
 21
9428.822872679358
 31
0.0
  0
LINE
  5
1A30E
330
747D
100
AcDbEntity
  8
細線
 48
50.0
100
AcDbLine
 10
5891.63735696527
 20
9428.822872679358
 30
0.0
 11
4618.637356965271
 21
9878.822872679251
 31
0.0
  0
LINE
  5
1A30F
330
747D
100
AcDbEntity
  8
細線
 48
50.0
100
AcDbLine
 10
5891.637356965271
 20
9878.822872679354
 30
0.0
 11
4618.637356965272
 21
9428.822872679251
 31
0.0
  0
LINE
  5
1A310
330
747D
100
AcDbEntity
  8
部品1
 48
50.0
100
AcDbLine
 10
5891.637356965271
 20
9878.822872679354
 30
0.0
 11
5891.637356965271
 21
9428.822872679358
 31
0.0
  0
LINE
  5
1A311
330
747D
100
AcDbEntity
  8
部品1
 48
50.0
100
AcDbLine
 10
5918.637356965271
 20
9878.82287267935
 30
0.0
 11
5918.637356965271
 21
9428.822872679358
 31
0.0
  0
LINE
  5
1A312
330
747D
100
AcDbEntity
  8
部品1
 48
50.0
100
AcDbLine
 10
5892.63735696527
 20
9880.82287267936
 30
0.0
 11
5892.637356965272
 21
9428.822872679358
 31
0.0
  0
LINE
  5
1A313
330
747D
100
AcDbEntity
  8
部品1
 48
50.0
100
AcDbLine
 10
5917.637356965272
 20
9880.822872679358
 30
0.0
 11
5917.637356965272
 21
9428.822872679358
 31
0.0
  0
LINE
  5
1A314
330
747D
100
AcDbEntity
  8
部品1
100
AcDbLine
 10
7191.637356965272
 20
9878.822872679347
 30
0.0
 11
7191.637356965272
 21
9428.822872679349
 31
0.0
  0
LINE
  5
1A315
330
747D
100
AcDbEntity
  8
部品1
100
AcDbLine
 10
4618.637356965272
 20
9428.822872679251
 30
0.0
 11
5891.63735696527
 21
9428.822872679358
 31
0.0
  0
LINE
  5
1A316
330
747D
100
AcDbEntity
  8
部品1
100
AcDbLine
 10
3288.637356965271
 20
9428.82287267936
 30
0.0
 11
4561.637356965272
 21
9428.822872679353
 31
0.0
  0
LINE
  5
1A317
330
747D
100
AcDbEntity
  8
部品1
 48
50.0
100
AcDbLine
 10
3262.637356965271
 20
9428.82287267936
 30
0.0
 11
3287.637356965272
 21
9428.82287267936
 31
0.0
  0
LINE
  5
1A31D
330
747D
100
AcDbEntity
  8
部品1
100
AcDbLine
 10
5918.637356965271
 20
9428.822872679358
 30
0.0
 11
7191.637356965272
 21
9428.822872679349
 31
0.0
  0
LINE
  5
1A31E
330
747D
100
AcDbEntity
  8
細線
 48
50.0
100
AcDbLine
 10
7191.637356965272
 20
9428.822872679349
 30
0.0
 11
5918.637356965271
 21
9878.82287267935
 31
0.0
  0
LINE
  5
1A321
330
747D
100
AcDbEntity
  8
部品1
 48
50.0
100
AcDbLine
 10
5892.637356965272
 20
9428.822872679358
 30
0.0
 11
5917.637356965272
 21
9428.822872679358
 31
0.0
  0
LINE
  5
1A328
330
747D
100
AcDbEntity
  8
部品1
100
AcDbLine
 10
4618.637356965271
 20
9878.822872679251
 30
0.0
 11
5891.637356965271
 21
9878.822872679357
 31
0.0
  0
LINE
  5
1A32A
330
747D
100
AcDbEntity
  8
部品1
100
AcDbLine
 10
3288.637356965272
 20
9878.822872679357
 30
0.0
 11
4561.637356965272
 21
9878.82287267935
 31
0.0
  0
LINE
  5
1A32E
330
747D
100
AcDbEntity
  8
部品1
100
AcDbLine
 10
3262.637356965271
 20
9872.822872679353
 30
0.0
 11
3287.637356965272
 21
9872.822872679357
 31
0.0
  0
LINE
  5
1A32F
330
747D
100
AcDbEntity
  8
部品1
100
AcDbLine
 10
3240.137356965271
 20
9898.822872679357
 30
0.0
 11
3240.137356965271
 21
9880.822872679358
 31
0.0
  0
LINE
  5
1A330
330
747D
100
AcDbEntity
  8
部品1
100
AcDbLine
 10
3240.137356965271
 20
9898.822872679357
 30
0.0
 11
3246.137356965272
 21
9898.822872679357
 31
0.0
  0
LINE
  5
1A331
330
747D
100
AcDbEntity
  8
部品1
100
AcDbLine
 10
3310.137356965272
 20
9898.822872679357
 30
0.0
 11
3310.137356965272
 21
9880.822872679358
 31
0.0
  0
LINE
  5
1A332
330
747D
100
AcDbEntity
  8
部品1
100
AcDbLine
 10
3304.137356965271
 20
9898.822872679357
 30
0.0
 11
3310.137356965272
 21
9898.822872679357
 31
0.0
  0
LINE
  5
1A34A
330
747D
100
AcDbEntity
  8
部品1
100
AcDbLine
 10
5918.637356965271
 20
9878.82287267935
 30
0.0
 11
7191.637356965272
 21
9878.822872679347
 31
0.0
  0
LINE
  5
1A34E
330
747D
100
AcDbEntity
  8
部品1
100
AcDbLine
 10
5934.137356965272
 20
9898.822872679353
 30
0.0
 11
5940.137356965272
 21
9898.822872679353
 31
0.0
  0
LINE
  5
1A34F
330
747D
100
AcDbEntity
  8
部品1
100
AcDbLine
 10
5870.137356965272
 20
9898.822872679353
 30
0.0
 11
5876.137356965272
 21
9898.822872679353
 31
0.0
  0
LINE
  5
1A350
330
747D
100
AcDbEntity
  8
部品1
100
AcDbLine
 10
5870.137356965272
 20
9898.822872679353
 30
0.0
 11
5870.137356965272
 21
9880.822872679352
 31
0.0
  0
LINE
  5
1A351
330
747D
100
AcDbEntity
  8
部品1
100
AcDbLine
 10
5892.637356965272
 20
9872.82287267935
 30
0.0
 11
5917.637356965272
 21
9872.822872679353
 31
0.0
  0
LINE
  5
1A356
330
747D
100
AcDbEntity
  8
部品1
100
AcDbLine
 10
5940.137356965272
 20
9898.822872679353
 30
0.0
 11
5940.137356965272
 21
9880.822872679352
 31
0.0
  0
LINE
  5
1A36E
330
747D
100
AcDbEntity
  8
部品1
100
AcDbLine
 10
9821.637356965272
 20
9878.822872679347
 30
0.0
 11
9821.637356965272
 21
9428.822872679349
 31
0.0
  0
LINE
  5
1A36F
330
747D
100
AcDbEntity
  8
部品1
 48
50.0
100
AcDbLine
 10
8521.637356965271
 20
9878.822872679354
 30
0.0
 11
8521.637356965271
 21
9428.822872679358
 31
0.0
  0
LINE
  5
1A370
330
747D
100
AcDbEntity
  8
部品1
 48
50.0
100
AcDbLine
 10
8548.63735696527
 20
9878.82287267935
 30
0.0
 11
8548.63735696527
 21
9428.822872679358
 31
0.0
  0
LINE
  5
1A371
330
747D
100
AcDbEntity
  8
部品1
 48
50.0
100
AcDbLine
 10
8522.637356965272
 20
9880.82287267936
 30
0.0
 11
8522.637356965272
 21
9428.822872679358
 31
0.0
  0
LINE
  5
1A372
330
747D
100
AcDbEntity
  8
部品1
 48
50.0
100
AcDbLine
 10
8547.637356965273
 20
9880.822872679358
 30
0.0
 11
8547.637356965273
 21
9428.822872679358
 31
0.0
  0
LINE
  5
1A373
330
747D
100
AcDbEntity
  8
細線
 48
50.0
100
AcDbLine
 10
9821.637356965272
 20
9878.822872679347
 30
0.0
 11
8548.63735696527
 21
9428.822872679358
 31
0.0
  0
LINE
  5
1A374
330
747D
100
AcDbEntity
  8
細線
 48
50.0
100
AcDbLine
 10
9821.637356965272
 20
9428.822872679349
 30
0.0
 11
8548.63735696527
 21
9878.82287267935
 31
0.0
  0
LINE
  5
1A375
330
747D
100
AcDbEntity
  8
部品1
100
AcDbLine
 10
8548.63735696527
 20
9428.822872679358
 30
0.0
 11
9821.637356965272
 21
9428.822872679349
 31
0.0
  0
LINE
  5
1A376
330
747D
100
AcDbEntity
  8
部品1
 48
50.0
100
AcDbLine
 10
8522.637356965272
 20
9428.822872679358
 30
0.0
 11
8547.637356965273
 21
9428.822872679358
 31
0.0
  0
LINE
  5
1A377
330
747D
100
AcDbEntity
  8
部品1
100
AcDbLine
 10
9822.137356965274
 20
9433.822872679353
 30
0.0
 11
9850.137356965275
 21
9433.822872679353
 31
0.0
  0
LINE
  5
1A378
330
747D
100
AcDbEntity
  8
部品1
100
AcDbLine
 10
8548.63735696527
 20
9878.822872679354
 30
0.0
 11
9821.637356965272
 21
9878.822872679347
 31
0.0
  0
LINE
  5
1A379
330
747D
100
AcDbEntity
  8
部品1
100
AcDbLine
 10
8500.137356965272
 20
9898.822872679353
 30
0.0
 11
8506.137356965272
 21
9898.822872679353
 31
0.0
  0
LINE
  5
1A37A
330
747D
100
AcDbEntity
  8
部品1
100
AcDbLine
 10
8500.137356965272
 20
9898.822872679353
 30
0.0
 11
8500.137356965272
 21
9880.822872679352
 31
0.0
  0
LINE
  5
1A37B
330
747D
100
AcDbEntity
  8
部品1
100
AcDbLine
 10
8522.637356965272
 20
9872.82287267935
 30
0.0
 11
8547.637356965273
 21
9872.822872679353
 31
0.0
  0
LINE
  5
1A37D
330
747D
100
AcDbEntity
  8
部品1
100
AcDbLine
 10
8564.137356965272
 20
9898.822872679353
 30
0.0
 11
8570.137356965272
 21
9898.822872679353
 31
0.0
  0
LINE
  5
1A37E
330
747D
100
AcDbEntity
  8
部品1
100
AcDbLine
 10
8570.137356965272
 20
9898.822872679353
 30
0.0
 11
8570.137356965272
 21
9880.822872679352
 31
0.0
  0
LINE
  5
1A3B2
330
747D
100
AcDbEntity
  8
部品1
100
AcDbLine
 10
8547.637356965273
 20
9880.822872679399
 30
0.0
 11
9822.137356965257
 21
9880.822872679402
 31
0.0
  0
TEXT
  5
1A453
330
747D
100
AcDbEntity
  8
文字
 62
     7
 48
50.0
100
AcDbText
 10
13583.11819016569
 20
8380.013745883733
 30
0.0
 40
100.0
  1
床パネル
 41
0.9
  7
STYLE1
100
AcDbText
  0
TEXT
  5
1A454
330
747D
100
AcDbEntity
  8
文字
 62
     7
 48
50.0
100
AcDbText
 10
15022.63965474516
 20
8380.013745883728
 30
0.0
 40
100.0
  1
F12            1.0
  7
STYLE1
100
AcDbText
  0
TEXT
  5
1A455
330
747D
100
AcDbEntity
  8
文字
 62
     7
 48
50.0
100
AcDbText
 10
13248.77747366448
 20
8550.013745883729
 30
0.0
 40
100.0
  1
15
  7
STYLE1
100
AcDbText
  0
LINE
  5
1A456
330
747D
100
AcDbEntity
  8
仕様書枠
 48
50.0
100
AcDbLine
 10
16307.19999999999
 20
8519.600000000002
 30
0.0
 11
13127.19999999999
 21
8519.600000000002
 31
0.0
  0
LINE
  5
1A457
330
747D
100
AcDbEntity
  8
仕様書枠
 48
50.0
100
AcDbLine
 10
16307.19999999999
 20
9879.599999999999
 30
0.0
 11
13127.19999999999
 21
9879.600000000001
 31
0.0
  0
LINE
  5
1A458
330
747D
100
AcDbEntity
  8
仕様書枠
 48
50.0
100
AcDbLine
 10
16307.19999999999
 20
11239.6
 30
0.0
 11
13127.2
 21
11239.6
 31
0.0
  0
LINE
  5
1A459
330
747D
100
AcDbEntity
  8
仕様書枠
 48
50.0
100
AcDbLine
 10
16307.19999999999
 20
7669.600000000011
 30
0.0
 11
16307.2
 21
11239.6
 31
0.0
  0
LINE
  5
1A45A
330
747D
100
AcDbEntity
  8
仕様書枠
 48
50.0
100
AcDbLine
 10
14785.2
 20
11239.59999999999
 30
0.0
 11
14785.19999999999
 21
8179.600000000009
 31
0.0
  0
LINE
  5
1A45B
330
747D
100
AcDbEntity
  8
仕様書枠
 48
50.0
100
AcDbLine
 10
13490.2
 20
11239.6
 30
0.0
 11
13490.20000000001
 21
8179.600000000009
 31
0.0
  0
LINE
  5
1A45C
330
747D
100
AcDbEntity
  8
仕様書枠
 48
50.0
100
AcDbLine
 10
16307.19999999999
 20
11069.6
 30
0.0
 11
13127.2
 21
11069.6
 31
0.0
  0
LINE
  5
1A45D
330
747D
100
AcDbEntity
  8
仕様書枠
 48
50.0
100
AcDbLine
 10
16307.19999999999
 20
10729.6
 30
0.0
 11
13127.2
 21
10729.6
 31
0.0
  0
LINE
  5
1A45E
330
747D
100
AcDbEntity
  8
仕様書枠
 48
50.0
100
AcDbLine
 10
16307.19999999999
 20
10899.6
 30
0.0
 11
13127.2
 21
10899.6
 31
0.0
  0
LINE
  5
1A45F
330
747D
100
AcDbEntity
  8
仕様書枠
 48
50.0
100
AcDbLine
 10
16307.19999999999
 20
10389.6
 30
0.0
 11
13127.19999999999
 21
10389.6
 31
0.0
  0
LINE
  5
1A460
330
747D
100
AcDbEntity
  8
仕様書枠
 48
50.0
100
AcDbLine
 10
16307.19999999999
 20
10219.6
 30
0.0
 11
13127.19999999999
 21
10219.6
 31
0.0
  0
LINE
  5
1A461
330
747D
100
AcDbEntity
  8
仕様書枠
 48
50.0
100
AcDbLine
 10
16307.19999999999
 20
10559.6
 30
0.0
 11
13127.19999999999
 21
10559.6
 31
0.0
  0
TEXT
  5
1A462
330
747D
100
AcDbEntity
  8
文字
 62
     7
 48
50.0
100
AcDbText
 10
13197.42518560407
 20
11100.01374588373
 30
0.0
 40
100.0
  1
品番
  7
STYLE1
100
AcDbText
  0
TEXT
  5
1A463
330
747D
100
AcDbEntity
  8
文字
 62
     7
 48
50.0
100
AcDbText
 10
13271.19032244792
 20
10930.01374588373
 30
0.0
 40
100.0
  1
1
  7
STYLE1
100
AcDbText
  0
TEXT
  5
1A464
330
747D
100
AcDbEntity
  8
文字
 62
     7
 48
50.0
100
AcDbText
 10
13271.19032244792
 20
10760.01374588373
 30
0.0
 40
100.0
  1
2
  7
STYLE1
100
AcDbText
  0
TEXT
  5
1A465
330
747D
100
AcDbEntity
  8
文字
 62
     7
 48
50.0
100
AcDbText
 10
13271.19032244792
 20
10420.01374588373
 30
0.0
 40
100.0
  1
4
  7
STYLE1
100
AcDbText
  0
TEXT
  5
1A466
330
747D
100
AcDbEntity
  8
文字
 62
     7
 48
50.0
100
AcDbText
 10
13271.19032244792
 20
10590.01374588373
 30
0.0
 40
100.0
  1
3
  7
STYLE1
100
AcDbText
  0
TEXT
  5
1A467
330
747D
100
AcDbEntity
  8
文字
 62
     7
 48
50.0
100
AcDbText
 10
13732.03840939434
 20
11100.01374588373
 30
0.0
 40
100.0
  1
部　　品　　名
  7
STYLE1
100
AcDbText
  0
TEXT
  5
1A468
330
747D
100
AcDbEntity
  8
文字
 62
     7
 48
50.0
100
AcDbText
 10
14859.79774614482
 20
11100.01374588373
 30
0.0
 40
100.0
  1
材料（材質）　　単位mm
  7
STYLE1
100
AcDbText
  0
TEXT
  5
1A469
330
747D
100
AcDbEntity
  8
文字
 62
     7
 48
50.0
100
AcDbText
 10
13583.11819016569
 20
10930.01374588372
 30
0.0
 40
100.0
  1
土台枠
  7
STYLE1
100
AcDbText
  0
TEXT
  5
1A46A
330
747D
100
AcDbEntity
  8
文字
 62
     7
 48
50.0
100
AcDbText
 10
13583.11819016569
 20
10760.01374588372
 30
0.0
 40
100.0
  1
柱
  7
STYLE1
100
AcDbText
  0
TEXT
  5
1A46B
330
747D
100
AcDbEntity
  8
文字
 62
     7
 48
50.0
100
AcDbText
 10
13583.11819016569
 20
10590.01374588373
 30
0.0
 40
100.0
  1
桁前
  7
STYLE1
100
AcDbText
  0
TEXT
  5
1A46C
330
747D
100
AcDbEntity
  8
文字
 62
     7
 48
50.0
100
AcDbText
 10
13583.11819016569
 20
10420.01374588373
 30
0.0
 40
100.0
  1
桁後
  7
STYLE1
100
AcDbText
  0
TEXT
  5
1A46D
330
747D
100
AcDbEntity
  8
文字
 62
     7
 48
50.0
100
AcDbText
 10
13271.19032244792
 20
10250.01374588373
 30
0.0
 40
100.0
  1
5
  7
STYLE1
100
AcDbText
  0
TEXT
  5
1A46E
330
747D
100
AcDbEntity
  8
文字
 62
     7
 48
50.0
100
AcDbText
 10
13583.11819016569
 20
10250.01374588373
 30
0.0
 40
100.0
  1
妻板左右
  7
STYLE1
100
AcDbText
  0
TEXT
  5
1A46F
330
747D
100
AcDbEntity
  8
文字
 62
     7
 48
50.0
100
AcDbText
 10
13583.11819016569
 20
8720.013745883731
 30
0.0
 40
100.0
  1
シャッターレール
  7
STYLE1
100
AcDbText
  0
TEXT
  5
1A470
330
747D
100
AcDbEntity
  8
文字
 62
     7
 48
50.0
100
AcDbText
 10
13248.77747366448
 20
9400.013745883727
 30
0.0
 40
100.0
  1
10
  7
STYLE1
100
AcDbText
  0
TEXT
  5
1A471
330
747D
100
AcDbEntity
  8
文字
 62
     7
 48
50.0
100
AcDbText
 10
13583.11819016569
 20
9400.013745883731
 30
0.0
 40
100.0
  1
壁パネル
  7
STYLE1
100
AcDbText
  0
TEXT
  5
1A472
330
747D
100
AcDbEntity
  8
文字
 62
     7
 48
50.0
100
AcDbText
 10
13583.11819016569
 20
9570.013745883729
 30
0.0
 40
100.0
  1
屋根パネル
  7
STYLE1
100
AcDbText
  0
TEXT
  5
1A473
330
747D
100
AcDbEntity
  8
文字
 62
     7
 48
50.0
100
AcDbText
 10
13583.11819016569
 20
9740.013745883729
 30
0.0
 40
100.0
  1
母屋中
  7
STYLE1
100
AcDbText
  0
TEXT
  5
1A474
330
747D
100
AcDbEntity
  8
文字
 62
     7
 48
50.0
100
AcDbText
 10
13583.11819016569
 20
10080.01374588372
 30
0.0
 40
100.0
  1
鼻隠シ前後
  7
STYLE1
100
AcDbText
  0
TEXT
  5
1A475
330
747D
100
AcDbEntity
  8
文字
 62
     7
 48
50.0
100
AcDbText
 10
13271.19032244792
 20
9740.013745883729
 30
0.0
 40
100.0
  1
8
  7
STYLE1
100
AcDbText
  0
TEXT
  5
1A476
330
747D
100
AcDbEntity
  8
文字
 62
     7
 48
50.0
100
AcDbText
 10
13271.19032244792
 20
9570.013745883729
 30
0.0
 40
100.0
  1
9
  7
STYLE1
100
AcDbText
  0
TEXT
  5
1A477
330
747D
100
AcDbEntity
  8
文字
 62
     7
 48
50.0
100
AcDbText
 10
13271.19032244792
 20
9910.01374588373
 30
0.0
 40
100.0
  1
7
  7
STYLE1
100
AcDbText
  0
TEXT
  5
1A478
330
747D
100
AcDbEntity
  8
文字
 62
     7
 48
50.0
100
AcDbText
 10
13271.19032244792
 20
10080.01374588373
 30
0.0
 40
100.0
  1
6
  7
STYLE1
100
AcDbText
  0
LINE
  5
1A479
330
747D
100
AcDbEntity
  8
仕様書枠
 48
50.0
100
AcDbLine
 10
16307.19999999999
 20
9539.599999999998
 30
0.0
 11
13127.19999999999
 21
9539.6
 31
0.0
  0
LINE
  5
1A47A
330
747D
100
AcDbEntity
  8
仕様書枠
 48
50.0
100
AcDbLine
 10
16307.19999999999
 20
9199.599999999998
 30
0.0
 11
13127.19999999999
 21
9199.600000000001
 31
0.0
  0
LINE
  5
1A47B
330
747D
100
AcDbEntity
  8
仕様書枠
 48
50.0
100
AcDbLine
 10
16307.19999999999
 20
9369.599999999998
 30
0.0
 11
13127.19999999999
 21
9369.600000000001
 31
0.0
  0
LINE
  5
1A47C
330
747D
100
AcDbEntity
  8
仕様書枠
 48
50.0
100
AcDbLine
 10
16307.19999999999
 20
10049.6
 30
0.0
 11
13127.2
 21
10049.6
 31
0.0
  0
LINE
  5
1A47D
330
747D
100
AcDbEntity
  8
仕様書枠
 48
50.0
100
AcDbLine
 10
16307.19999999999
 20
9709.6
 30
0.0
 11
13127.19999999999
 21
9709.600000000001
 31
0.0
  0
TEXT
  5
1A47E
330
747D
100
AcDbEntity
  8
文字
 62
     7
 48
50.0
100
AcDbText
 10
13248.77747366448
 20
9230.013745883727
 30
0.0
 40
100.0
  1
11
  7
STYLE1
100
AcDbText
  0
TEXT
  5
1A47F
330
747D
100
AcDbEntity
  8
文字
 62
     7
 48
50.0
100
AcDbText
 10
13583.11819016569
 20
8890.013745883729
 30
0.0
 40
100.0
  1
シャッターカバー
 41
0.9
  7
STYLE1
100
AcDbText
  0
LINE
  5
1A480
330
747D
100
AcDbEntity
  8
仕様書枠
 48
50.0
100
AcDbLine
 10
16307.19999999999
 20
9029.6
 30
0.0
 11
13127.19999999999
 21
9029.6
 31
0.0
  0
LINE
  5
1A481
330
747D
100
AcDbEntity
  8
仕様書枠
 48
50.0
100
AcDbLine
 10
16307.19999999999
 20
8349.600000000004
 30
0.0
 11
13127.19999999999
 21
8349.600000000007
 31
0.0
  0
TEXT
  5
1A482
330
747D
100
AcDbEntity
  8
文字
 62
     7
 48
50.0
100
AcDbText
 10
13583.11819016569
 20
9060.013745883731
 30
0.0
 40
100.0
  1
シャッター
  7
STYLE1
100
AcDbText
  0
TEXT
  5
1A483
330
747D
100
AcDbEntity
  8
文字
 62
     7
 48
50.0
100
AcDbText
 10
13248.77747366448
 20
8890.013745883729
 30
0.0
 40
100.0
  1
13
  7
STYLE1
100
AcDbText
  0
TEXT
  5
1A484
330
747D
100
AcDbEntity
  8
文字
 62
     7
 48
50.0
100
AcDbText
 10
13248.77747366448
 20
9060.013745883729
 30
0.0
 40
100.0
  1
12
  7
STYLE1
100
AcDbText
  0
TEXT
  5
1A485
330
747D
100
AcDbEntity
  8
文字
 62
     7
 48
50.0
100
AcDbText
 10
15022.63965474517
 20
10930.01374588372
 30
0.0
 40
100.0
  1
F12            1.2
  7
STYLE1
100
AcDbText
  0
TEXT
  5
1A486
330
747D
100
AcDbEntity
  8
文字
 62
     7
 48
50.0
100
AcDbText
 10
15022.63965474517
 20
10760.01374588372
 30
0.0
 40
100.0
  1
F12         1.0,1.2
  7
STYLE1
100
AcDbText
  0
TEXT
  5
1A487
330
747D
100
AcDbEntity
  8
文字
 62
     7
 48
50.0
100
AcDbText
 10
15022.63965474516
 20
10590.01374588372
 30
0.0
 40
100.0
  1
Y10            1.0
  7
STYLE1
100
AcDbText
  0
TEXT
  5
1A488
330
747D
100
AcDbEntity
  8
文字
 62
     7
 48
50.0
100
AcDbText
 10
15022.63965474516
 20
10420.01374588372
 30
0.0
 40
100.0
  1
Y10            1.0
  7
STYLE1
100
AcDbText
  0
TEXT
  5
1A489
330
747D
100
AcDbEntity
  8
文字
 62
     7
 48
50.0
100
AcDbText
 10
15022.63965474516
 20
10250.01374588372
 30
0.0
 40
100.0
  1
Y10            0.7
  7
STYLE1
100
AcDbText
  0
TEXT
  5
1A48A
330
747D
100
AcDbEntity
  8
文字
 62
     7
 48
50.0
100
AcDbText
 10
15022.63965474516
 20
10080.01374588372
 30
0.0
 40
100.0
  1
Y10            0.7
  7
STYLE1
100
AcDbText
  0
TEXT
  5
1A48B
330
747D
100
AcDbEntity
  8
文字
 62
     7
 48
50.0
100
AcDbText
 10
15022.63965474516
 20
9570.013745883727
 30
0.0
 40
100.0
  1
Y10            0.5
  7
STYLE1
100
AcDbText
  0
TEXT
  5
1A48C
330
747D
100
AcDbEntity
  8
文字
 62
     7
 48
50.0
100
AcDbText
 10
15022.63965474516
 20
9400.013745883727
 30
0.0
 40
100.0
  1
F12            0.7
  7
STYLE1
100
AcDbText
  0
TEXT
  5
1A48D
330
747D
100
AcDbEntity
  8
文字
 62
     7
 48
50.0
100
AcDbText
 10
14850.83183167176
 20
8720.013745883729
 30
0.0
 40
100.0
  1
アルミニウム合金押出形材
  7
STYLE1
100
AcDbText
  0
TEXT
  5
1A48F
330
747D
100
AcDbEntity
  8
文字
 62
     7
 48
50.0
100
AcDbText
 10
15022.63965474515
 20
9060.013745883727
 30
0.0
 40
100.0
  1
Z08            0.5
  7
STYLE1
100
AcDbText
  0
LINE
  5
1A490
330
747D
100
AcDbEntity
  8
仕様書枠
 48
50.0
100
AcDbLine
 10
16307.19999999998
 20
8009.600000000011
 30
0.0
 11
13127.19999999999
 21
8009.600000000011
 31
0.0
  0
LINE
  5
1A491
330
747D
100
AcDbEntity
  8
仕様書枠
 48
50.0
100
AcDbLine
 10
16307.19999999998
 20
7839.60000000001
 30
0.0
 11
13127.19999999999
 21
7839.600000000011
 31
0.0
  0
LINE
  5
1A492
330
747D
100
AcDbEntity
  8
仕様書枠
 48
50.0
100
AcDbLine
 10
16307.19999999998
 20
7669.600000000009
 30
0.0
 11
13127.19999999999
 21
7669.600000000011
 31
0.0
  0
TEXT
  5
1A493
330
747D
100
AcDbEntity
  8
文字
 62
     7
 48
50.0
100
AcDbText
 10
13229.83081656554
 20
8040.013745883738
 30
0.0
 40
100.0
  1
F12→溶融亜鉛めっき鋼板(JIS G 3302)
  7
STYLE1
100
AcDbText
  0
TEXT
  5
1A494
330
747D
100
AcDbEntity
  8
文字
 62
     7
 48
50.0
100
AcDbText
 10
13229.83081656554
 20
7870.013745883738
 30
0.0
 40
100.0
  1
Y10→溶融亜鉛-5％アルミニウム合金めっき鋼板(JIS G 3317)
 41
0.9
  7
STYLE1
100
AcDbText
  0
TEXT
  5
1A495
330
747D
100
AcDbEntity
  8
文字
 62
     7
 48
50.0
100
AcDbText
 10
13229.83081656554
 20
7700.01374588374
 30
0.0
 40
100.0
  1
Z08→塗装溶融亜鉛めっき鋼板(JIS G 3313)
  7
STYLE1
100
AcDbText
  0
LINE
  5
1A496
330
747D
100
AcDbEntity
  8
仕様書枠
 48
50.0
100
AcDbLine
 10
13127.2
 20
11239.6
 30
0.0
 11
13127.19999999999
 21
7669.600000000011
 31
0.0
  0
LINE
  5
1A498
330
747D
100
AcDbEntity
  8
仕様書枠
 48
50.0
100
AcDbLine
 10
16307.19999999999
 20
8689.6
 30
0.0
 11
13127.19999999999
 21
8689.600000000003
 31
0.0
  0
LINE
  5
1A499
330
747D
100
AcDbEntity
  8
仕様書枠
 48
50.0
100
AcDbLine
 10
16307.19999999999
 20
8859.6
 30
0.0
 11
13127.19999999999
 21
8859.600000000002
 31
0.0
  0
TEXT
  5
1A49A
330
747D
100
AcDbEntity
  8
文字
 62
     7
 48
50.0
100
AcDbText
 10
13583.11819016569
 20
8210.013745883731
 30
0.0
 40
100.0
  1
棚板
 41
0.9
  7
STYLE1
100
AcDbText
  0
TEXT
  5
1A49B
330
747D
100
AcDbEntity
  8
文字
 62
     7
 48
50.0
100
AcDbText
 10
13583.11819016569
 20
8550.013745883731
 30
0.0
 40
100.0
  1
根太
  7
STYLE1
100
AcDbText
  0
TEXT
  5
1A49C
330
747D
100
AcDbEntity
  8
文字
 62
     7
 48
50.0
100
AcDbText
 10
13248.77747366448
 20
8720.013745883729
 30
0.0
 40
100.0
  1
14
  7
STYLE1
100
AcDbText
  0
TEXT
  5
1A49D
330
747D
100
AcDbEntity
  8
文字
 62
     7
 48
50.0
100
AcDbText
 10
13248.77747366448
 20
8380.013745883731
 30
0.0
 40
100.0
  1
16
  7
STYLE1
100
AcDbText
  0
TEXT
  5
1A49E
330
747D
100
AcDbEntity
  8
文字
 62
     7
 48
50.0
100
AcDbText
 10
15022.63965474516
 20
8550.013745883727
 30
0.0
 40
100.0
  1
F12            1.2
  7
STYLE1
100
AcDbText
  0
TEXT
  5
1A49F
330
747D
100
AcDbEntity
  8
文字
 62
     7
 48
50.0
100
AcDbText
 10
15022.63965474516
 20
8210.013745883729
 30
0.0
 40
100.0
  1
F12            0.6
  7
STYLE1
100
AcDbText
  0
TEXT
  5
1A4A0
330
747D
100
AcDbEntity
  8
文字
 62
     7
 48
50.0
100
AcDbText
 10
13583.11819016569
 20
9910.01374588373
 30
0.0
 40
100.0
  1
梁中
  7
STYLE1
100
AcDbText
  0
TEXT
  5
1A4A1
330
747D
100
AcDbEntity
  8
文字
 62
     7
 48
50.0
100
AcDbText
 10
15022.63965474516
 20
9910.013745883727
 30
0.0
 40
100.0
  1
F12,Y10        1.0
  7
STYLE1
100
AcDbText
  0
LINE
  5
1A4A2
330
747D
100
AcDbEntity
  8
仕様書枠
 48
50.0
100
AcDbLine
 10
16307.19999999999
 20
8179.600000000007
 30
0.0
 11
13127.19999999999
 21
8179.600000000009
 31
0.0
  0
LINE
  5
1AA99
330
747D
100
AcDbEntity
  8
部品1
100
AcDbLine
 10
7275.137356965237
 20
2622.049209232832
 30
0.0
 11
9795.137356965238
 21
2622.049209232832
 31
0.0
  0
LINE
  5
1AA9A
330
747D
100
AcDbEntity
  8
部品1
100
AcDbLine
 10
7275.137356965237
 20
2672.049209232831
 30
0.0
 11
9795.137356965238
 21
2672.049209232831
 31
0.0
  0
LINE
  5
1AA9D
330
747D
100
AcDbEntity
  8
部品1
100
AcDbLine
 10
2015.137356965235
 20
2672.049209232831
 30
0.0
 11
4535.137356965235
 21
2672.049209232831
 31
0.0
  0
LINE
  5
1AA9E
330
747D
100
AcDbEntity
  8
部品1
100
AcDbLine
 10
4645.137356965235
 20
4597.049209232831
 30
0.0
 11
7275.137356965237
 21
4597.049209232832
 31
0.0
  0
LINE
  5
1AABC
330
747D
100
AcDbEntity
  8
部品1
100
AcDbLine
 10
2015.137356965235
 20
2622.049209232832
 30
0.0
 11
4535.137356965235
 21
2622.049209232832
 31
0.0
  0
LINE
  5
1AAC7
330
747D
100
AcDbEntity
  8
部品1
100
AcDbLine
 10
4487.137356965239
 20
4597.049209232831
 30
0.0
 11
4487.137356965234
 21
2672.049209232831
 31
0.0
  0
LINE
  5
1AAC8
330
747D
100
AcDbEntity
  8
部品1
100
AcDbLine
 10
4535.137356965235
 20
4597.049209232831
 30
0.0
 11
4535.137356965235
 21
2522.049209232831
 31
0.0
  0
LINE
  5
1AAC9
330
747D
100
AcDbEntity
  8
部品1
100
AcDbLine
 10
4693.137356965235
 20
4597.049209232831
 30
0.0
 11
4693.137356965238
 21
2672.049209232831
 31
0.0
  0
LINE
  5
1AACA
330
747D
100
AcDbEntity
  8
部品1
100
AcDbLine
 10
4645.137356965235
 20
4597.049209232831
 30
0.0
 11
4645.137356965235
 21
2522.049209232831
 31
0.0
  0
LINE
  5
1AAD1
330
747D
100
AcDbEntity
  8
細線
100
AcDbLine
 10
4487.137356965234
 20
2682.049209232832
 30
0.0
 11
2063.137356965231
 21
2682.049209232832
 31
0.0
  0
LINE
  5
1AAD6
330
747D
100
AcDbEntity
  8
部品1
100
AcDbLine
 10
7275.137356965237
 20
4597.049209232831
 30
0.0
 11
9850.137356965237
 21
4597.049209232831
 31
0.0
  0
LINE
  5
1AAD7
330
747D
100
AcDbEntity
  8
部品1
100
AcDbLine
 10
7275.137356965237
 20
4597.049209232833
 30
0.0
 11
7275.137356965236
 21
2522.049209232831
 31
0.0
  0
LINE
  5
1AAD9
330
747D
100
AcDbEntity
  8
部品1
100
AcDbLine
 10
7323.137356965237
 20
4597.049209232831
 30
0.0
 11
7323.137356965239
 21
2672.049209232832
 31
0.0
  0
LINE
  5
1AADC
330
747D
100
AcDbEntity
  8
部品1
100
AcDbLine
 10
7165.137356965236
 20
4597.049209232833
 30
0.0
 11
7165.137356965235
 21
2522.049209232831
 31
0.0
  0
LINE
  5
1AADD
330
747D
100
AcDbEntity
  8
部品1
100
AcDbLine
 10
7117.137356965239
 20
4597.049209232831
 30
0.0
 11
7117.137356965234
 21
2672.049209232831
 31
0.0
  0
CIRCLE
  5
1AADE
330
747D
100
AcDbEntity
  8
細線
 48
50.0
100
AcDbCircle
 10
3275.137356965235
 20
3559.549209232832
 30
0.0
 40
18.0
  0
ARC
  5
1AADF
330
747D
100
AcDbEntity
  8
細線
 48
50.0
100
AcDbCircle
 10
3575.137356965235
 20
3234.549209232831
 30
0.0
 40
15.0
100
AcDbArc
 50
270.0
 51
90.0
  0
ARC
  5
1AAE0
330
747D
100
AcDbEntity
  8
細線
 48
50.0
100
AcDbCircle
 10
3475.137356965235
 20
3234.549209232831
 30
0.0
 40
15.0
100
AcDbArc
 50
90.0
 51
270.0
  0
LINE
  5
1AAE1
330
747D
100
AcDbEntity
  8
細線
 48
50.0
100
AcDbLine
 10
3475.137356965235
 20
3249.549209232831
 30
0.0
 11
3575.137356965235
 21
3249.549209232831
 31
0.0
  0
LINE
  5
1AAE2
330
747D
100
AcDbEntity
  8
細線
 48
50.0
100
AcDbLine
 10
3575.137356965235
 20
3219.549209232832
 30
0.0
 11
3475.137356965235
 21
3219.549209232832
 31
0.0
  0
ARC
  5
1AAE3
330
747D
100
AcDbEntity
  8
細線
 48
50.0
100
AcDbCircle
 10
3075.137356965235
 20
3234.549209232831
 30
0.0
 40
15.0
100
AcDbArc
 50
270.0
 51
90.0
  0
ARC
  5
1AAE4
330
747D
100
AcDbEntity
  8
細線
 48
50.0
100
AcDbCircle
 10
2975.137356965235
 20
3234.549209232831
 30
0.0
 40
15.0
100
AcDbArc
 50
90.0
 51
270.0
  0
LINE
  5
1AAE5
330
747D
100
AcDbEntity
  8
細線
100
AcDbLine
 10
2063.137356965235
 20
4307.049209232832
 30
0.0
 11
4487.137356965234
 21
4307.049209232832
 31
0.0
  0
LINE
  5
1AAE6
330
747D
100
AcDbEntity
  8
細線
100
AcDbLine
 10
2063.137356965235
 20
4372.049209232831
 30
0.0
 11
4487.137356965234
 21
4372.049209232831
 31
0.0
  0
LINE
  5
1AAE7
330
747D
100
AcDbEntity
  8
細線
100
AcDbLine
 10
2063.137356965235
 20
4437.049209232831
 30
0.0
 11
4487.137356965234
 21
4437.049209232831
 31
0.0
  0
LINE
  5
1AAE8
330
747D
100
AcDbEntity
  8
細線
100
AcDbLine
 10
2063.137356965235
 20
3917.049209232832
 30
0.0
 11
4487.137356965234
 21
3917.049209232832
 31
0.0
  0
LINE
  5
1AAE9
330
747D
100
AcDbEntity
  8
細線
100
AcDbLine
 10
2063.137356965235
 20
3982.049209232832
 30
0.0
 11
4487.137356965234
 21
3982.049209232832
 31
0.0
  0
LINE
  5
1AAEA
330
747D
100
AcDbEntity
  8
細線
100
AcDbLine
 10
2063.137356965235
 20
4047.049209232831
 30
0.0
 11
4487.137356965234
 21
4047.049209232831
 31
0.0
  0
LINE
  5
1AAEB
330
747D
100
AcDbEntity
  8
細線
100
AcDbLine
 10
2063.137356965235
 20
4112.049209232831
 30
0.0
 11
4487.137356965234
 21
4112.049209232831
 31
0.0
  0
LINE
  5
1AAEC
330
747D
100
AcDbEntity
  8
細線
100
AcDbLine
 10
2063.137356965235
 20
4177.049209232831
 30
0.0
 11
4487.137356965234
 21
4177.049209232831
 31
0.0
  0
LINE
  5
1AAED
330
747D
100
AcDbEntity
  8
細線
100
AcDbLine
 10
2063.137356965235
 20
4242.049209232831
 30
0.0
 11
4487.137356965234
 21
4242.049209232831
 31
0.0
  0
LINE
  5
1AAEE
330
747D
100
AcDbEntity
  8
細線
100
AcDbLine
 10
2063.137356965235
 20
3267.049209232832
 30
0.0
 11
4487.137356965234
 21
3267.049209232832
 31
0.0
  0
LINE
  5
1AAEF
330
747D
100
AcDbEntity
  8
細線
100
AcDbLine
 10
2063.137356965235
 20
3332.049209232831
 30
0.0
 11
4487.137356965234
 21
3332.049209232831
 31
0.0
  0
LINE
  5
1AAF0
330
747D
100
AcDbEntity
  8
細線
100
AcDbLine
 10
2063.137356965235
 20
3397.049209232831
 30
0.0
 11
4487.137356965234
 21
3397.049209232831
 31
0.0
  0
LINE
  5
1AAF1
330
747D
100
AcDbEntity
  8
細線
100
AcDbLine
 10
2063.137356965235
 20
3462.049209232831
 30
0.0
 11
4487.137356965234
 21
3462.049209232831
 31
0.0
  0
LINE
  5
1AAF2
330
747D
100
AcDbEntity
  8
細線
100
AcDbLine
 10
2063.137356965235
 20
3527.049209232831
 30
0.0
 11
4487.137356965234
 21
3527.049209232831
 31
0.0
  0
LINE
  5
1AAF3
330
747D
100
AcDbEntity
  8
細線
100
AcDbLine
 10
2063.137356965235
 20
3592.049209232832
 30
0.0
 11
4487.137356965234
 21
3592.049209232832
 31
0.0
  0
LINE
  5
1AAF4
330
747D
100
AcDbEntity
  8
細線
100
AcDbLine
 10
2063.137356965235
 20
3657.049209232832
 30
0.0
 11
4487.137356965234
 21
3657.049209232832
 31
0.0
  0
LINE
  5
1AAF5
330
747D
100
AcDbEntity
  8
細線
100
AcDbLine
 10
2063.137356965235
 20
3722.049209232832
 30
0.0
 11
4487.137356965234
 21
3722.049209232832
 31
0.0
  0
LINE
  5
1AAF6
330
747D
100
AcDbEntity
  8
細線
100
AcDbLine
 10
2063.137356965235
 20
3787.049209232832
 30
0.0
 11
4487.137356965234
 21
3787.049209232832
 31
0.0
  0
LINE
  5
1AAF7
330
747D
100
AcDbEntity
  8
細線
100
AcDbLine
 10
2063.137356965235
 20
3852.049209232831
 30
0.0
 11
4487.137356965234
 21
3852.049209232831
 31
0.0
  0
LINE
  5
1AAF8
330
747D
100
AcDbEntity
  8
細線
100
AcDbLine
 10
2063.137356965235
 20
4567.049209232831
 30
0.0
 11
4487.137356965234
 21
4567.049209232831
 31
0.0
  0
LINE
  5
1AAF9
330
747D
100
AcDbEntity
  8
細線
100
AcDbLine
 10
2063.137356965235
 20
4502.049209232831
 30
0.0
 11
4487.137356965234
 21
4502.049209232831
 31
0.0
  0
LINE
  5
1AAFA
330
747D
100
AcDbEntity
  8
細線
100
AcDbLine
 10
2063.137356965235
 20
2747.049209232832
 30
0.0
 11
4487.137356965234
 21
2747.049209232832
 31
0.0
  0
LINE
  5
1AAFB
330
747D
100
AcDbEntity
  8
細線
100
AcDbLine
 10
2063.137356965235
 20
2812.049209232831
 30
0.0
 11
4487.137356965234
 21
2812.049209232831
 31
0.0
  0
LINE
  5
1AAFC
330
747D
100
AcDbEntity
  8
細線
100
AcDbLine
 10
2063.137356965235
 20
2877.049209232831
 30
0.0
 11
4487.137356965234
 21
2877.049209232831
 31
0.0
  0
LINE
  5
1AAFD
330
747D
100
AcDbEntity
  8
細線
100
AcDbLine
 10
2063.137356965235
 20
2942.049209232831
 30
0.0
 11
4487.137356965234
 21
2942.049209232831
 31
0.0
  0
LINE
  5
1AAFE
330
747D
100
AcDbEntity
  8
細線
100
AcDbLine
 10
2063.137356965235
 20
3007.049209232832
 30
0.0
 11
4487.137356965234
 21
3007.049209232832
 31
0.0
  0
LINE
  5
1AAFF
330
747D
100
AcDbEntity
  8
細線
100
AcDbLine
 10
2063.137356965235
 20
3072.049209232832
 30
0.0
 11
4487.137356965234
 21
3072.049209232832
 31
0.0
  0
LINE
  5
1AB00
330
747D
100
AcDbEntity
  8
細線
100
AcDbLine
 10
2063.137356965235
 20
3137.049209232831
 30
0.0
 11
4487.137356965234
 21
3137.049209232831
 31
0.0
  0
LINE
  5
1AB01
330
747D
100
AcDbEntity
  8
細線
100
AcDbLine
 10
2063.137356965235
 20
3202.049209232831
 30
0.0
 11
4487.137356965234
 21
3202.049209232831
 31
0.0
  0
LINE
  5
1AB02
330
747D
100
AcDbEntity
  8
細線
 48
50.0
100
AcDbLine
 10
3075.137356965235
 20
3219.549209232832
 30
0.0
 11
2975.137356965235
 21
3219.549209232832
 31
0.0
  0
LINE
  5
1AB03
330
747D
100
AcDbEntity
  8
細線
 48
50.0
100
AcDbLine
 10
2975.137356965235
 20
3249.549209232831
 30
0.0
 11
3075.137356965235
 21
3249.549209232831
 31
0.0
  0
ARC
  5
1AB04
330
747D
100
AcDbEntity
  8
細線
 48
50.0
100
AcDbCircle
 10
8235.137356965235
 20
3234.549209232831
 30
0.0
 40
15.0
100
AcDbArc
 50
90.0
 51
270.0
  0
ARC
  5
1AB05
330
747D
100
AcDbEntity
  8
細線
 48
50.0
100
AcDbCircle
 10
8335.137356965235
 20
3234.549209232831
 30
0.0
 40
15.0
100
AcDbArc
 50
270.0
 51
90.0
  0
LINE
  5
1AB06
330
747D
100
AcDbEntity
  8
細線
 48
50.0
100
AcDbLine
 10
8235.137356965235
 20
3249.549209232831
 30
0.0
 11
8335.137356965235
 21
3249.549209232831
 31
0.0
  0
LINE
  5
1AB07
330
747D
100
AcDbEntity
  8
細線
 48
50.0
100
AcDbLine
 10
8335.137356965235
 20
3219.549209232832
 30
0.0
 11
8235.137356965235
 21
3219.549209232832
 31
0.0
  0
LINE
  5
1AB08
330
747D
100
AcDbEntity
  8
細線
 48
50.0
100
AcDbLine
 10
8835.137356965235
 20
3219.549209232832
 30
0.0
 11
8735.137356965235
 21
3219.549209232832
 31
0.0
  0
LINE
  5
1AB09
330
747D
100
AcDbEntity
  8
細線
 48
50.0
100
AcDbLine
 10
8735.137356965235
 20
3249.549209232831
 30
0.0
 11
8835.137356965235
 21
3249.549209232831
 31
0.0
  0
ARC
  5
1AB0A
330
747D
100
AcDbEntity
  8
細線
 48
50.0
100
AcDbCircle
 10
8735.137356965235
 20
3234.549209232831
 30
0.0
 40
15.0
100
AcDbArc
 50
90.0
 51
270.0
  0
ARC
  5
1AB0B
330
747D
100
AcDbEntity
  8
細線
 48
50.0
100
AcDbCircle
 10
8835.137356965235
 20
3234.549209232831
 30
0.0
 40
15.0
100
AcDbArc
 50
270.0
 51
90.0
  0
CIRCLE
  5
1AB0C
330
747D
100
AcDbEntity
  8
細線
 48
50.0
100
AcDbCircle
 10
8535.137356965234
 20
3559.549209232832
 30
0.0
 40
18.0
  0
LINE
  5
1AB10
330
747D
100
AcDbEntity
  8
細線
100
AcDbLine
 10
9747.137356965238
 20
2682.049209232832
 30
0.0
 11
7323.137356965232
 21
2682.049209232832
 31
0.0
  0
LINE
  5
1AB11
330
747D
100
AcDbEntity
  8
細線
100
AcDbLine
 10
7323.137356965233
 20
3202.049209232831
 30
0.0
 11
9747.137356965236
 21
3202.049209232831
 31
0.0
  0
LINE
  5
1AB12
330
747D
100
AcDbEntity
  8
細線
100
AcDbLine
 10
7323.137356965233
 20
3137.049209232831
 30
0.0
 11
9747.137356965236
 21
3137.049209232831
 31
0.0
  0
LINE
  5
1AB13
330
747D
100
AcDbEntity
  8
細線
100
AcDbLine
 10
7323.137356965233
 20
3072.049209232832
 30
0.0
 11
9747.137356965236
 21
3072.049209232832
 31
0.0
  0
LINE
  5
1AB14
330
747D
100
AcDbEntity
  8
細線
100
AcDbLine
 10
7323.137356965233
 20
3007.049209232832
 30
0.0
 11
9747.137356965236
 21
3007.049209232832
 31
0.0
  0
LINE
  5
1AB15
330
747D
100
AcDbEntity
  8
細線
100
AcDbLine
 10
7323.137356965233
 20
2942.049209232831
 30
0.0
 11
9747.137356965236
 21
2942.049209232831
 31
0.0
  0
LINE
  5
1AB16
330
747D
100
AcDbEntity
  8
細線
100
AcDbLine
 10
7323.137356965233
 20
2877.049209232831
 30
0.0
 11
9747.137356965236
 21
2877.049209232831
 31
0.0
  0
LINE
  5
1AB17
330
747D
100
AcDbEntity
  8
細線
100
AcDbLine
 10
7323.137356965233
 20
2812.049209232831
 30
0.0
 11
9747.137356965236
 21
2812.049209232831
 31
0.0
  0
LINE
  5
1AB18
330
747D
100
AcDbEntity
  8
細線
100
AcDbLine
 10
7323.137356965233
 20
2747.049209232832
 30
0.0
 11
9747.137356965236
 21
2747.049209232832
 31
0.0
  0
LINE
  5
1AB19
330
747D
100
AcDbEntity
  8
細線
100
AcDbLine
 10
7323.137356965233
 20
4502.049209232831
 30
0.0
 11
9747.137356965236
 21
4502.049209232831
 31
0.0
  0
LINE
  5
1AB1A
330
747D
100
AcDbEntity
  8
細線
100
AcDbLine
 10
7323.137356965233
 20
4567.049209232831
 30
0.0
 11
9747.137356965236
 21
4567.049209232831
 31
0.0
  0
LINE
  5
1AB1B
330
747D
100
AcDbEntity
  8
細線
100
AcDbLine
 10
7323.137356965233
 20
3852.049209232831
 30
0.0
 11
9747.137356965236
 21
3852.049209232831
 31
0.0
  0
LINE
  5
1AB1C
330
747D
100
AcDbEntity
  8
細線
100
AcDbLine
 10
7323.137356965233
 20
3787.049209232832
 30
0.0
 11
9747.137356965236
 21
3787.049209232832
 31
0.0
  0
LINE
  5
1AB1D
330
747D
100
AcDbEntity
  8
細線
100
AcDbLine
 10
7323.137356965233
 20
3722.049209232832
 30
0.0
 11
9747.137356965236
 21
3722.049209232832
 31
0.0
  0
LINE
  5
1AB1E
330
747D
100
AcDbEntity
  8
細線
100
AcDbLine
 10
7323.137356965233
 20
3657.049209232832
 30
0.0
 11
9747.137356965236
 21
3657.049209232832
 31
0.0
  0
LINE
  5
1AB1F
330
747D
100
AcDbEntity
  8
細線
100
AcDbLine
 10
7323.137356965233
 20
3592.049209232832
 30
0.0
 11
9747.137356965236
 21
3592.049209232832
 31
0.0
  0
LINE
  5
1AB20
330
747D
100
AcDbEntity
  8
細線
100
AcDbLine
 10
7323.137356965233
 20
3527.049209232831
 30
0.0
 11
9747.137356965236
 21
3527.049209232831
 31
0.0
  0
LINE
  5
1AB21
330
747D
100
AcDbEntity
  8
細線
100
AcDbLine
 10
7323.137356965233
 20
3462.049209232831
 30
0.0
 11
9747.137356965236
 21
3462.049209232831
 31
0.0
  0
LINE
  5
1AB22
330
747D
100
AcDbEntity
  8
細線
100
AcDbLine
 10
7323.137356965233
 20
3397.049209232831
 30
0.0
 11
9747.137356965236
 21
3397.049209232831
 31
0.0
  0
LINE
  5
1AB23
330
747D
100
AcDbEntity
  8
細線
100
AcDbLine
 10
7323.137356965233
 20
3332.049209232831
 30
0.0
 11
9747.137356965236
 21
3332.049209232831
 31
0.0
  0
LINE
  5
1AB24
330
747D
100
AcDbEntity
  8
細線
100
AcDbLine
 10
7323.137356965233
 20
3267.049209232832
 30
0.0
 11
9747.137356965236
 21
3267.049209232832
 31
0.0
  0
LINE
  5
1AB25
330
747D
100
AcDbEntity
  8
細線
100
AcDbLine
 10
7323.137356965233
 20
4242.049209232831
 30
0.0
 11
9747.137356965236
 21
4242.049209232831
 31
0.0
  0
LINE
  5
1AB26
330
747D
100
AcDbEntity
  8
細線
100
AcDbLine
 10
7323.137356965233
 20
4177.049209232831
 30
0.0
 11
9747.137356965236
 21
4177.049209232831
 31
0.0
  0
LINE
  5
1AB27
330
747D
100
AcDbEntity
  8
細線
100
AcDbLine
 10
7323.137356965233
 20
4112.049209232831
 30
0.0
 11
9747.137356965236
 21
4112.049209232831
 31
0.0
  0
LINE
  5
1AB28
330
747D
100
AcDbEntity
  8
細線
100
AcDbLine
 10
7323.137356965233
 20
4047.049209232831
 30
0.0
 11
9747.137356965236
 21
4047.049209232831
 31
0.0
  0
LINE
  5
1AB29
330
747D
100
AcDbEntity
  8
細線
100
AcDbLine
 10
7323.137356965233
 20
3982.049209232832
 30
0.0
 11
9747.137356965236
 21
3982.049209232832
 31
0.0
  0
LINE
  5
1AB2A
330
747D
100
AcDbEntity
  8
細線
100
AcDbLine
 10
7323.137356965233
 20
3917.049209232832
 30
0.0
 11
9747.137356965236
 21
3917.049209232832
 31
0.0
  0
LINE
  5
1AB2B
330
747D
100
AcDbEntity
  8
細線
100
AcDbLine
 10
7323.137356965233
 20
4437.049209232831
 30
0.0
 11
9747.137356965236
 21
4437.049209232831
 31
0.0
  0
LINE
  5
1AB2C
330
747D
100
AcDbEntity
  8
細線
100
AcDbLine
 10
7323.137356965233
 20
4372.049209232831
 30
0.0
 11
9747.137356965236
 21
4372.049209232831
 31
0.0
  0
LINE
  5
1AB2D
330
747D
100
AcDbEntity
  8
細線
100
AcDbLine
 10
7323.137356965233
 20
4307.049209232832
 30
0.0
 11
9747.137356965236
 21
4307.049209232832
 31
0.0
  0
LINE
  5
1AB2E
330
747D
100
AcDbEntity
  8
部品1
100
AcDbLine
 10
1960.137356965235
 20
4597.049209232831
 30
0.0
 11
4645.137356965236
 21
4597.049209232832
 31
0.0
  0
LINE
  5
1AB2F
330
747D
100
AcDbEntity
  8
部品1
100
AcDbLine
 10
9747.137356965239
 20
4597.049209232831
 30
0.0
 11
9747.137356965238
 21
2672.049209232831
 31
0.0
  0
LINE
  5
1AB30
330
747D
100
AcDbEntity
  8
部品1
100
AcDbLine
 10
2063.137356965235
 20
4597.049209232831
 30
0.0
 11
2063.137356965235
 21
2672.049209232831
 31
0.0
  0
LINE
  5
1AB31
330
747D
100
AcDbEntity
  8
破線
  6
HIDDEN
 48
5.0
100
AcDbLine
 10
2015.137356965235
 20
2272.049209232839
 30
0.0
 11
1960.137356965235
 21
2272.049209232839
 31
0.0
  0
LINE
  5
1AB32
330
747D
100
AcDbEntity
  8
破線
  6
HIDDEN
 48
5.0
100
AcDbLine
 10
9850.137356965236
 20
2272.049209232831
 30
0.0
 11
9795.137356965238
 21
2272.049209232831
 31
0.0
  0
LINE
  5
1AB33
330
747D
100
AcDbEntity
  8
破線
  6
HIDDEN
 48
5.0
100
AcDbLine
 10
2015.137356965235
 20
2522.049209232831
 30
0.0
 11
2015.137356965235
 21
2272.049209232831
 31
0.0
  0
LINE
  5
1AB34
330
747D
100
AcDbEntity
  8
破線
  6
HIDDEN
 48
5.0
100
AcDbLine
 10
9795.137356965238
 20
2522.049209232831
 30
0.0
 11
9795.137356965238
 21
2272.049209232831
 31
0.0
  0
LINE
  5
1AB36
330
747D
100
AcDbEntity
  8
破線
  6
HIDDEN
 48
5.0
100
AcDbLine
 10
1960.137356965235
 20
2522.049209232831
 30
0.0
 11
1960.137356965235
 21
2272.049209232831
 31
0.0
  0
LINE
  5
1AB37
330
747D
100
AcDbEntity
  8
破線
  6
HIDDEN
 48
5.0
100
AcDbLine
 10
9850.137356965237
 20
2522.049209232831
 30
0.0
 11
9850.137356965237
 21
2272.049209232831
 31
0.0
  0
LINE
  5
1AB3E
330
747D
100
AcDbEntity
  8
部品1
100
AcDbLine
 10
9850.137356965237
 20
4856.049209232836
 30
0.0
 11
9850.137356965237
 21
2522.049209232831
 31
0.0
  0
LINE
  5
1AB3F
330
747D
100
AcDbEntity
  8
部品1
100
AcDbLine
 10
2015.137356965235
 20
4597.049209232831
 30
0.0
 11
2015.137356965235
 21
2522.049209232831
 31
0.0
  0
LINE
  5
1AB40
330
747D
100
AcDbEntity
  8
部品1
100
AcDbLine
 10
9795.137356965238
 20
4597.049209232833
 30
0.0
 11
9795.137356965234
 21
2522.049209232831
 31
0.0
  0
LINE
  5
1AB41
330
747D
100
AcDbEntity
  8
部品1
100
AcDbLine
 10
1960.137356965235
 20
4856.049209232836
 30
0.0
 11
1960.137356965235
 21
2522.049209232831
 31
0.0
  0
DIMENSION
  5
1AB42
330
747D
100
AcDbEntity
  8
寸法
 48
50.0
100
AcDbDimension
  2
*D28
 10
9850.137356965236
 20
5396.142378572305
 30
0.0
 11
10213.62263833947
 21
5396.142378572305
 31
0.0
 70
   160
 71
     5
 42
50.0
  3
INABA_S40G
100
AcDbAlignedDimension
 13
9900.137356965236
 23
4997.049209232834
 33
0.0
 14
9850.137356965236
 24
4997.049209232836
 34
0.0
100
AcDbRotatedDimension
  0
DIMENSION
  5
1AB43
330
747D
100
AcDbEntity
  8
寸法
 48
50.0
100
AcDbDimension
  2
*D29
 10
1960.137356965242
 20
5396.142378572305
 30
0.0
 11
5905.137356965239
 21
5496.154189595927
 31
0.0
 70
    32
  1
柱外寸法 N X 2630
 71
     5
 42
7889.999999999993
  3
INABA_S40G
100
AcDbAlignedDimension
 13
9850.137356965236
 23
4997.049209232836
 33
0.0
 14
1960.137356965242
 24
4997.049209232837
 34
0.0
100
AcDbRotatedDimension
  0
DIMENSION
  5
1AB44
330
747D
100
AcDbEntity
  8
寸法
 48
50.0
100
AcDbDimension
  2
*D30
 10
9900.137356965236
 20
5612.66847819075
 30
0.0
 11
5905.137356965239
 21
5712.680289214372
 31
0.0
 70
    32
  1
N X 2630+100
 71
     5
 42
7989.999999999993
  3
INABA_S40G
100
AcDbAlignedDimension
 13
1910.137356965242
 23
4997.049209232836
 33
0.0
 14
9900.137356965236
 24
4997.049209232834
 34
0.0
100
AcDbRotatedDimension
  0
DIMENSION
  5
1AB45
330
747D
100
AcDbEntity
  8
寸法
 48
50.0
100
AcDbDimension
  2
*D31
 10
1910.137356965242
 20
5396.142378572305
 30
0.0
 11
1596.652075590995
 21
5396.142378572305
 31
0.0
 70
   160
 71
     5
 42
50.0
  3
INABA_S40G
100
AcDbAlignedDimension
 13
1960.137356965242
 23
4997.049209232837
 33
0.0
 14
1910.137356965242
 24
4997.049209232836
 34
0.0
100
AcDbRotatedDimension
1001
ACAD
1000
DSTYLE
1002
{
1002
}
  0
LINE
  5
1AB46
330
747D
100
AcDbEntity
  8
部品1
 48
50.0
100
AcDbLine
 10
7220.137356965233
 20
4597.049209232831
 30
0.0
 11
7220.137356965233
 21
4856.049209232836
 31
0.0
  0
LINE
  5
1AB47
330
747D
100
AcDbEntity
  8
部品1
 48
50.0
100
AcDbLine
 10
7210.137356965233
 20
4856.049209232836
 30
0.0
 11
7210.137356965231
 21
4997.049209232836
 31
0.0
  0
LINE
  5
1AB78
330
747D
100
AcDbEntity
  8
部品1
100
AcDbLine
 10
4590.137356965235
 20
4762.049209232831
 30
0.0
 11
7220.137356965233
 21
4762.049209232831
 31
0.0
  0
LINE
  5
1AB79
330
747D
100
AcDbEntity
  8
部品1
100
AcDbLine
 10
7220.137356965231
 20
4762.049209232831
 30
0.0
 11
9850.137356965232
 21
4762.049209232831
 31
0.0
  0
ARC
  5
1AB7A
330
747D
100
AcDbEntity
  8
部品1
100
AcDbCircle
 10
9892.728935858803
 20
4990.049209232835
 30
0.0
 40
7.0
100
AcDbArc
 50
356.7526572096558
 51
90.0
  0
ARC
  5
1AB7B
330
747D
100
AcDbEntity
  8
部品1
100
AcDbCircle
 10
9879.513612397769
 20
4863.049209232835
 30
0.0
 40
7.0
100
AcDbArc
 50
270.0
 51
356.7526572096558
  0
ARC
  5
1AB7C
330
747D
100
AcDbEntity
  8
部品1
 48
50.0
100
AcDbCircle
 10
9897.885422608448
 20
4969.716208394522
 30
0.0
 40
0.7
100
AcDbArc
 50
277.6581272073635
 51
356.7526572096038
  0
ARC
  5
1AB7D
330
747D
100
AcDbEntity
  8
部品1
 48
50.0
100
AcDbCircle
 10
9889.649392083605
 20
4877.516208394518
 30
0.0
 40
0.7
100
AcDbArc
 50
277.6581272073635
 51
356.7526572097013
  0
ARC
  5
1AB7E
330
747D
100
AcDbEntity
  8
部品1
 48
50.0
100
AcDbCircle
 10
9890.142461192166
 20
4873.849209232834
 30
0.0
 40
3.0
100
AcDbArc
 50
97.65812720736347
 51
176.7526572096558
  0
ARC
  5
1AB7F
330
747D
100
AcDbEntity
  8
部品1
 48
50.0
100
AcDbCircle
 10
9898.378491717009
 20
4966.049209232835
 30
0.0
 40
3.0
100
AcDbArc
 50
97.65812720736347
 51
176.7526572096558
  0
LINE
  5
1AB80
330
747D
100
AcDbEntity
  8
部品1
100
AcDbLine
 10
9895.383308820823
 20
4966.219148687939
 30
0.0
 11
9890.348268092713
 21
4877.476555854995
 31
0.0
  0
LINE
  5
1AB81
330
747D
100
AcDbEntity
  8
部品1
100
AcDbLine
 10
9887.14727829598
 20
4874.019148687938
 30
0.0
 11
9886.502372488868
 21
4862.652683837598
 31
0.0
  0
LINE
  5
1AB82
330
747D
100
AcDbEntity
  8
細線
 48
50.0
100
AcDbLine
 10
9867.137356965237
 20
4997.049209232835
 30
0.0
 11
9867.137356965237
 21
4856.049209232836
 31
0.0
  0
LINE
  5
1AB83
330
747D
100
AcDbEntity
  8
部品1
100
AcDbLine
 10
9899.717695949902
 20
4989.652683837594
 30
0.0
 11
9898.584298617556
 21
4969.676555854996
 31
0.0
  0
LINE
  5
1AB84
330
747D
100
AcDbEntity
  8
細線
 48
50.0
100
AcDbLine
 10
9889.742675428475
 20
4876.822451796303
 30
0.0
 11
7210.137356965233
 21
4876.822451796623
 31
0.0
  0
LINE
  5
1AB85
330
747D
100
AcDbEntity
  8
細線
 48
50.0
100
AcDbLine
 10
9897.97870595332
 20
4969.022451796303
 30
0.0
 11
7210.137356965233
 21
4969.022451796303
 31
0.0
  0
LINE
  5
1AB86
330
747D
100
AcDbEntity
  8
部品1
 48
50.0
100
AcDbLine
 10
9879.513612397769
 20
4856.049209232836
 30
0.0
 11
7220.137356965233
 21
4856.049209232836
 31
0.0
  0
LINE
  5
1AB87
330
747D
100
AcDbEntity
  8
部品1
 48
50.0
100
AcDbLine
 10
9892.728935858803
 20
4997.049209232835
 30
0.0
 11
7210.137356965233
 21
4997.049209232835
 31
0.0
  0
LINE
  5
1ABB4
330
747D
100
AcDbEntity
  8
部品1
100
AcDbLine
 10
1960.137356965235
 20
4762.049209232831
 30
0.0
 11
4590.137356965235
 21
4762.049209232831
 31
0.0
  0
LINE
  5
1ABB5
330
747D
100
AcDbEntity
  8
部品1
100
AcDbLine
 10
1910.557017980573
 20
4989.652683837594
 30
0.0
 11
1911.690415312921
 21
4969.676555854996
 31
0.0
  0
LINE
  5
1ABB6
330
747D
100
AcDbEntity
  8
部品1
100
AcDbLine
 10
1923.127435634494
 20
4874.019148687938
 30
0.0
 11
1923.772341441603
 21
4862.652683837598
 31
0.0
  0
LINE
  5
1ABB7
330
747D
100
AcDbEntity
  8
部品1
100
AcDbLine
 10
1914.891405109651
 20
4966.219148687939
 30
0.0
 11
1919.926445837758
 21
4877.476555854995
 31
0.0
  0
ARC
  5
1ABB8
330
747D
100
AcDbEntity
  8
部品1
 48
50.0
100
AcDbCircle
 10
1911.896222213465
 20
4966.049209232835
 30
0.0
 40
3.0
100
AcDbArc
 50
3.247342790344184
 51
82.34187279263654
  0
ARC
  5
1ABB9
330
747D
100
AcDbEntity
  8
部品1
 48
50.0
100
AcDbCircle
 10
1920.132252738309
 20
4873.849209232834
 30
0.0
 40
3.0
100
AcDbArc
 50
3.247342790344184
 51
82.34187279263654
  0
ARC
  5
1ABBA
330
747D
100
AcDbEntity
  8
部品1
 48
50.0
100
AcDbCircle
 10
1920.62532184687
 20
4877.516208394518
 30
0.0
 40
0.7
100
AcDbArc
 50
183.2473427902987
 51
262.3418727926365
  0
ARC
  5
1ABBB
330
747D
100
AcDbEntity
  8
部品1
 48
50.0
100
AcDbCircle
 10
1912.389291322026
 20
4969.716208394522
 30
0.0
 40
0.7
100
AcDbArc
 50
183.2473427903962
 51
262.3418727926365
  0
ARC
  5
1ABBC
330
747D
100
AcDbEntity
  8
部品1
100
AcDbCircle
 10
1930.761101532706
 20
4863.049209232835
 30
0.0
 40
7.0
100
AcDbArc
 50
183.2473427903441
 51
270.0
  0
ARC
  5
1ABBD
330
747D
100
AcDbEntity
  8
部品1
100
AcDbCircle
 10
1917.545778071668
 20
4990.049209232835
 30
0.0
 40
7.0
100
AcDbArc
 50
90.0
 51
183.2473427903441
  0
LINE
  5
1ABBE
330
747D
100
AcDbEntity
  8
細線
 48
50.0
100
AcDbLine
 10
1943.137356965242
 20
4997.049209232835
 30
0.0
 11
1943.137356965242
 21
4856.049209232836
 31
0.0
  0
LINE
  5
1ABBF
330
747D
100
AcDbEntity
  8
細線
 48
50.0
100
AcDbLine
 10
4580.137356965234
 20
4876.822451796619
 30
0.0
 11
1920.532038502038
 21
4876.822451796623
 31
0.0
  0
LINE
  5
1ABC0
330
747D
100
AcDbEntity
  8
細線
 48
50.0
100
AcDbLine
 10
4580.137356965234
 20
4969.022451796303
 30
0.0
 11
1912.296007977202
 21
4969.022451796623
 31
0.0
  0
LINE
  5
1ABC1
330
747D
100
AcDbEntity
  8
部品1
 48
50.0
100
AcDbLine
 10
4590.137356965235
 20
4856.049209232836
 30
0.0
 11
1930.761101532706
 21
4856.049209232836
 31
0.0
  0
LINE
  5
1ABC2
330
747D
100
AcDbEntity
  8
部品1
 48
50.0
100
AcDbLine
 10
4580.137356965234
 20
4997.049209232835
 30
0.0
 11
1917.545778071668
 21
4997.049209232835
 31
0.0
  0
LINE
  5
1ABEF
330
747D
100
AcDbEntity
  8
部品1
 48
50.0
100
AcDbLine
 10
4580.137356965234
 20
4856.049209232836
 30
0.0
 11
4580.137356965234
 21
4997.049209232836
 31
0.0
  0
LINE
  5
1ABF0
330
747D
100
AcDbEntity
  8
部品1
 48
50.0
100
AcDbLine
 10
4590.137356965235
 20
4597.049209232829
 30
0.0
 11
4590.137356965235
 21
4856.049209232836
 31
0.0
  0
LINE
  5
1ABF1
330
747D
100
AcDbEntity
  8
細線
 48
50.0
100
AcDbLine
 10
7210.137356965232
 20
4969.022451796302
 30
0.0
 11
4580.137356965234
 21
4969.022451796303
 31
0.0
  0
LINE
  5
1ABF2
330
747D
100
AcDbEntity
  8
部品1
 48
50.0
100
AcDbLine
 10
7210.137356965231
 20
4997.049209232835
 30
0.0
 11
4580.137356965234
 21
4997.049209232835
 31
0.0
  0
LINE
  5
1ABF3
330
747D
100
AcDbEntity
  8
細線
 48
50.0
100
AcDbLine
 10
7210.137356965233
 20
4876.822451796619
 30
0.0
 11
4580.137356965234
 21
4876.822451796619
 31
0.0
  0
LINE
  5
1ABF4
330
747D
100
AcDbEntity
  8
部品1
 48
50.0
100
AcDbLine
 10
7220.137356965233
 20
4856.049209232836
 30
0.0
 11
4590.137356965235
 21
4856.049209232836
 31
0.0
  0
LWPOLYLINE
  5
1ABF7
330
747D
100
AcDbEntity
  8
部品1
100
AcDbPolyline
 90
        4
 70
     1
 43
0.0
 10
5523.402023851042
 20
6547.368110393344
 10
5523.402023851042
 20
6307.475788847813
 10
6286.872690079483
 20
6307.475788847813
 10
6286.872690079483
 20
6547.368110393344
  0
TEXT
  5
1ABF8
330
747D
100
AcDbEntity
  8
部品1
100
AcDbText
 10
5613.321633680079
 20
6354.474581174822
 30
0.0
 40
135.0
  1
平面図
  7
STYLE2
100
AcDbText
  0
LINE
  5
1ABFA
330
747D
100
AcDbEntity
  8
部品1
100
AcDbLine
 10
971.3677656188664
 20
2651.953019800496
 30
0.0
 11
1121.367765618866
 21
2651.953019800496
 31
0.0
  0
LINE
  5
1ABFB
330
747D
100
AcDbEntity
  8
部品1
100
AcDbLine
 10
1046.367765618866
 20
2522.049209232831
 30
0.0
 11
971.3677656188664
 21
2651.953019800496
 31
0.0
  0
TEXT
  5
1ABFC
330
747D
100
AcDbEntity
  8
部品1
100
AcDbText
 10
1149.47270774364
 20
2558.156112838733
 30
0.0
 40
125.0
  1
G.L
  7
STYLE2
100
AcDbText
  0
LINE
  5
1ABFD
330
747D
100
AcDbEntity
  8
部品1
100
AcDbLine
 10
1121.367765618866
 20
2651.953019800496
 30
0.0
 11
1046.367765618866
 21
2522.049209232831
 31
0.0
  0
LINE
  5
1ABFE
330
747D
100
AcDbEntity
  8
Ｇ．Ｌ
100
AcDbLine
 10
803.4580774222527
 20
2522.049209232831
 30
0.0
 11
15266.25784538842
 21
2522.049209232831
 31
0.0
  0
TEXT
  5
1ABFF
330
747D
100
AcDbEntity
  8
部品1
100
AcDbText
 10
5613.92742758899
 20
1679.155680014316
 30
0.0
 40
135.0
  1
正面図
  7
STYLE2
100
AcDbText
  0
LWPOLYLINE
  5
1AC00
330
747D
100
AcDbEntity
  8
部品1
100
AcDbPolyline
 90
        4
 70
     1
 43
0.0
 10
5523.402023851033
 20
1872.049209232838
 10
5523.402023851033
 20
1632.156887687306
 10
6286.872690079474
 20
1632.156887687306
 10
6286.872690079474
 20
1872.049209232838
  0
LINE
  5
1AC06
330
747D
100
AcDbEntity
  8
破線
 48
5.0
100
AcDbLine
 10
12477.31413035484
 20
2272.049209232831
 30
0.0
 11
12532.31413035484
 21
2272.049209232831
 31
0.0
  0
LINE
  5
1AC07
330
747D
100
AcDbEntity
  8
破線
 48
5.0
100
AcDbLine
 10
12532.31413035484
 20
2522.049209232831
 30
0.0
 11
12532.31413035484
 21
2272.049209232831
 31
0.0
  0
LINE
  5
1AC08
330
747D
100
AcDbEntity
  8
破線
 48
5.0
100
AcDbLine
 10
12477.31413035484
 20
2522.049209232831
 30
0.0
 11
12477.31413035484
 21
2272.049209232831
 31
0.0
  0
DIMENSION
  5
1AC09
330
747D
100
AcDbEntity
  8
寸法
100
AcDbDimension
  2
*D32
 10
11633.56400117158
 20
2672.04920923283
 30
0.0
 11
11533.55219014795
 21
3717.049209232833
 31
0.0
 70
    32
 71
     5
 42
2090.000000000002
  3
INABA_S40G
100
AcDbAlignedDimension
 13
12477.31413035484
 23
4762.049209232831
 33
0.0
 14
12477.31413035484
 24
2672.04920923283
 34
0.0
 50
90.0
100
AcDbRotatedDimension
1001
ACAD
1000
DSTYLE
1002
{
1070
   174
1070
     0
1070
   272
1070
     1
1070
   288
1070
     0
1070
   341
1005
0
1002
}
  0
DIMENSION
  5
1AC0A
330
747D
100
AcDbEntity
  8
寸法
100
AcDbDimension
  2
*D33
 10
11333.56400117158
 20
4997.049209232835
 30
0.0
 11
11233.55219014795
 21
3809.549209232834
 31
0.0
 70
    32
 71
     5
 42
2375.000000000005
  3
INABA_S40G
100
AcDbAlignedDimension
 13
12477.31413035484
 23
2622.04920923283
 33
0.0
 14
12417.31413035484
 24
4997.049209232835
 34
0.0
 50
90.0
100
AcDbRotatedDimension
1001
ACAD
1000
DSTYLE
1002
{
1070
   174
1070
     0
1070
   272
1070
     1
1070
   288
1070
     0
1070
   341
1005
0
1002
}
  0
DIMENSION
  5
1AC0B
330
747D
100
AcDbEntity
  8
寸法
100
AcDbDimension
  2
*D34
 10
15392.24128832697
 20
4942.049209232831
 30
0.0
 11
15292.22947730334
 21
3782.049209232834
 31
0.0
 70
    32
 71
     5
 42
2320.000000000001
  3
INABA_S40G
100
AcDbAlignedDimension
 13
14687.31413035484
 23
2622.049209232832
 33
0.0
 14
14767.31413035484
 24
4942.049209232831
 34
0.0
 50
90.0
100
AcDbRotatedDimension
1001
ACAD
1000
DSTYLE
1002
{
1070
   174
1070
     0
1070
   272
1070
     1
1070
   288
1070
     0
1070
   341
1005
0
1002
}
  0
LWPOLYLINE
  5
1AC0C
330
747D
100
AcDbEntity
  8
部品1
100
AcDbPolyline
 90
        4
 70
     1
 43
0.0
 10
13200.57879724062
 20
1872.049209232838
 10
13200.57879724062
 20
1632.156887687306
 10
13964.04946346905
 20
1632.156887687306
 10
13964.04946346905
 20
1872.049209232838
  0
TEXT
  5
1AC0D
330
747D
100
AcDbEntity
  8
部品1
100
AcDbText
 10
13290.02489866422
 20
1679.155680014316
 30
0.0
 40
135.0
  1
側面図
  7
STYLE2
100
AcDbText
  0
LINE
  5
1AC0E
330
747D
100
AcDbEntity
  8
部品1
100
AcDbLine
 10
13406.8591167118
 20
5128.799691532805
 30
0.0
 11
13732.31413035483
 21
5111.281632573945
 31
0.0
  0
ARC
  5
1AC0F
330
747D
100
AcDbEntity
  8
部品1
100
AcDbCircle
 10
14752.94166616878
 20
4836.072966498625
 30
0.0
 40
0.7
100
AcDbArc
 50
275.0921697642102
 51
354.1866997666698
  0
ARC
  5
1AC10
330
747D
100
AcDbEntity
  8
部品1
100
AcDbCircle
 10
14763.8010119181
 20
4913.116221316548
 30
0.0
 40
0.7
100
AcDbArc
 50
275.0921697642102
 51
354.1866997665662
  0
ARC
  5
1AC11
330
747D
100
AcDbEntity
  8
部品1
100
AcDbCircle
 10
14764.1294171607
 20
4909.430824459458
 30
0.0
 40
3.0
100
AcDbArc
 50
95.0921697642102
 51
174.1866997665661
  0
ARC
  5
1AC12
330
747D
100
AcDbEntity
  8
部品1
100
AcDbCircle
 10
14753.27007141138
 20
4832.387569641534
 30
0.0
 40
3.0
100
AcDbArc
 50
95.0921697642102
 51
174.1866997665661
  0
ARC
  5
1AC13
330
747D
100
AcDbEntity
  8
部品1
 48
50.0
100
AcDbCircle
 10
14742.24193613627
 20
4822.79682503765
 30
0.0
 40
7.0
100
AcDbArc
 50
267.8377559869489
 51
354.1866997665662
  0
ARC
  5
1AC14
330
747D
100
AcDbEntity
  8
部品1
 48
50.0
100
AcDbCircle
 10
14759.56403260079
 20
4933.699372179824
 30
0.0
 40
7.0
100
AcDbArc
 50
354.1866997665662
 51
87.03587545283093
  0
LINE
  5
1AC15
330
747D
100
AcDbEntity
  8
部品1
 48
50.0
100
AcDbLine
 10
14750.28549974076
 20
4832.691431358437
 30
0.0
 11
14749.20593670102
 21
4822.087814364877
 31
0.0
  0
LINE
  5
1AC16
330
747D
100
AcDbEntity
  8
部品1
 48
50.0
100
AcDbLine
 10
14761.14484549009
 20
4909.734686176362
 30
0.0
 11
14753.63806622525
 21
4836.002065431348
 31
0.0
  0
LINE
  5
1AC17
330
747D
100
AcDbEntity
  8
部品1
 48
50.0
100
AcDbLine
 10
14766.52803316554
 20
4932.990361507051
 30
0.0
 11
14764.49741197457
 21
4913.04532024927
 31
0.0
  0
ARC
  5
1AC18
330
747D
100
AcDbEntity
  8
部品1
100
AcDbCircle
 10
12423.3512222262
 20
4875.863368191734
 30
0.0
 40
0.7
100
AcDbArc
 50
181.0932240292114
 51
260.1877540314855
  0
ARC
  5
1AC19
330
747D
100
AcDbEntity
  8
部品1
100
AcDbCircle
 10
12418.57854862859
 20
4968.729146391855
 30
0.0
 40
0.7
100
AcDbArc
 50
181.0932240292114
 51
260.1877540314855
  0
ARC
  5
1AC1A
330
747D
100
AcDbEntity
  8
部品1
100
AcDbCircle
 10
12417.94799422557
 20
4965.083271854457
 30
0.0
 40
3.0
100
AcDbArc
 50
1.093224029315636
 51
80.18775403169765
  0
ARC
  5
1AC1B
330
747D
100
AcDbEntity
  8
部品1
100
AcDbCircle
 10
12422.72066782318
 20
4872.217493654338
 30
0.0
 40
3.0
100
AcDbArc
 50
1.093224029315636
 51
80.18775403169765
  0
ARC
  5
1AC1C
330
747D
100
AcDbEntity
  8
部品1
 48
50.0
100
AcDbCircle
 10
12432.92080019838
 20
4861.825250271857
 30
0.0
 40
7.0
100
AcDbArc
 50
181.0932240293156
 51
267.8377559869489
  0
ARC
  5
1AC1D
330
747D
100
AcDbEntity
  8
部品1
 48
50.0
100
AcDbCircle
 10
12424.49714209628
 20
4988.776309804951
 30
0.0
 40
7.0
100
AcDbArc
 50
87.03587545283093
 51
181.0932240293156
  0
LINE
  5
1AC1E
330
747D
100
AcDbEntity
  8
部品1
 48
50.0
100
AcDbLine
 10
12425.72012174961
 20
4872.274731257522
 30
0.0
 11
12425.92207437004
 21
4861.691695864429
 31
0.0
  0
LINE
  5
1AC1F
330
747D
100
AcDbEntity
  8
細線
 48
50.0
100
AcDbLine
 10
12423.11402869294
 20
4875.20477937633
 30
0.0
 11
14753.11769312358
 21
4835.395460401836
 31
0.0
  0
LINE
  5
1AC20
330
747D
100
AcDbEntity
  8
細線
 48
50.0
100
AcDbLine
 10
12418.35355345565
 20
4968.066291074192
 30
0.0
 11
14763.98953820082
 21
4912.442086433366
 31
0.0
  0
LINE
  5
1AC21
330
747D
100
AcDbEntity
  8
部品1
 48
50.0
100
AcDbLine
 10
12420.947448152
 20
4965.14050945764
 30
0.0
 11
12422.65134964336
 21
4875.850012750994
 31
0.0
  0
LINE
  5
1AC22
330
747D
100
AcDbEntity
  8
部品1
 48
50.0
100
AcDbLine
 10
12417.49841626794
 20
4988.642755397524
 30
0.0
 11
12417.87867604575
 21
4968.715790951112
 31
0.0
  0
LINE
  5
1AC23
330
747D
100
AcDbEntity
  8
細線
 48
50.0
100
AcDbLine
 10
14734.31413035484
 20
4942.016188268127
 30
0.0
 11
14729.56644746684
 21
4816.270415777385
 31
0.0
  0
LINE
  5
1AC24
330
747D
100
AcDbEntity
  8
細線
 48
50.0
100
AcDbLine
 10
12450.31413035484
 20
4994.448885608235
 30
0.0
 11
12445.02502879933
 21
4854.363252980881
 31
0.0
  0
LINE
  5
1AC25
330
747D
100
AcDbEntity
  8
部品1
100
AcDbLine
 10
12432.65669495679
 20
4854.830234301799
 30
0.0
 11
14741.97783089469
 21
4815.801809067594
 31
0.0
  0
LINE
  5
1AC26
330
747D
100
AcDbEntity
  8
部品1
100
AcDbLine
 10
12424.8591167118
 20
4995.766944567098
 30
0.0
 11
14759.9260072163
 21
4940.690006941972
 31
0.0
  0
LINE
  5
1AC27
330
747D
100
AcDbEntity
  8
部品1
 48
50.0
100
AcDbLine
 10
13432.31413035483
 20
5127.481632573942
 30
0.0
 11
13732.31413035483
 21
5127.481632573942
 31
0.0
  0
LINE
  5
1AC28
330
747D
100
AcDbEntity
  8
部品1
 48
50.0
100
AcDbLine
 10
13732.31413035483
 20
5127.481632573942
 30
0.0
 11
13732.31413035483
 21
5111.281632573945
 31
0.0
  0
TEXT
  5
1AC29
330
747D
100
AcDbEntity
  8
部品1
 48
50.0
100
AcDbText
 10
13420.58196557856
 20
5163.365654726375
 30
0.0
 40
120.0
  1
1000
  7
STYLE1
100
AcDbText
  0
TEXT
  5
1AC2A
330
747D
100
AcDbEntity
  8
部品1
 48
50.0
100
AcDbText
 10
13898.21498824365
 20
5025.864396508092
 30
0.0
 40
120.0
  1
44
 50
90.0
  7
STYLE1
100
AcDbText
  0
LINE
  5
1AC2B
330
747D
100
AcDbEntity
  8
細線
 48
50.0
100
AcDbLine
 10
13869.81413035484
 20
4762.049209232831
 30
0.0
 11
13869.81413035484
 21
2672.049209232831
 31
0.0
  0
LINE
  5
1AC2C
330
747D
100
AcDbEntity
  8
細線
 48
50.0
100
AcDbLine
 10
13854.81413035484
 20
4762.049209232831
 30
0.0
 11
13854.81413035484
 21
2672.049209232831
 31
0.0
  0
LINE
  5
1AC2D
330
747D
100
AcDbEntity
  8
細線
 48
50.0
100
AcDbLine
 10
13994.81413035484
 20
4762.049209232831
 30
0.0
 11
13994.81413035484
 21
2672.049209232831
 31
0.0
  0
LINE
  5
1AC2E
330
747D
100
AcDbEntity
  8
細線
 48
50.0
100
AcDbLine
 10
14009.81413035484
 20
4762.049209232831
 30
0.0
 11
14009.81413035484
 21
2672.049209232831
 31
0.0
  0
LINE
  5
1AC2F
330
747D
100
AcDbEntity
  8
細線
 48
50.0
100
AcDbLine
 10
14149.81413035484
 20
4762.049209232831
 30
0.0
 11
14149.81413035484
 21
2672.049209232831
 31
0.0
  0
LINE
  5
1AC30
330
747D
100
AcDbEntity
  8
細線
 48
50.0
100
AcDbLine
 10
14134.81413035484
 20
4762.049209232831
 30
0.0
 11
14134.81413035484
 21
2672.049209232831
 31
0.0
  0
LINE
  5
1AC31
330
747D
100
AcDbEntity
  8
部品1
100
AcDbLine
 10
14212.31413035483
 20
4762.049209232831
 30
0.0
 11
14212.31413035483
 21
2672.049209232831
 31
0.0
  0
LINE
  5
1AC32
330
747D
100
AcDbEntity
  8
部品1
100
AcDbLine
 10
12477.31413035484
 20
4762.049209232831
 30
0.0
 11
14687.31413035483
 21
4762.049209232831
 31
0.0
  0
LINE
  5
1AC33
330
747D
100
AcDbEntity
  8
部品1
100
AcDbLine
 10
12532.31413035484
 20
2672.049209232831
 30
0.0
 11
14687.31413035484
 21
2672.049209232831
 31
0.0
  0
LINE
  5
1AC34
330
747D
100
AcDbEntity
  8
部品1
100
AcDbLine
 10
12532.31413035484
 20
4762.049209232831
 30
0.0
 11
12532.31413035484
 21
2522.049209232831
 31
0.0
  0
LINE
  5
1AC35
330
747D
100
AcDbEntity
  8
部品1
100
AcDbLine
 10
12477.31413035484
 20
4854.075506277419
 30
0.0
 11
12477.31413035484
 21
2522.049209232831
 31
0.0
  0
DIMENSION
  5
1AC37
330
747D
100
AcDbEntity
  8
寸法
100
AcDbDimension
  2
*D35
 10
11633.56400117158
 20
2622.049209232832
 30
0.0
 11
11633.56400117158
 21
2316.001965138341
 31
0.0
 70
   160
 71
     5
 42
50.0
  3
INABA_S40G
100
AcDbAlignedDimension
 13
12477.31413035484
 23
2672.049209232831
 33
0.0
 14
12422.31413035484
 24
2622.049209232832
 34
0.0
 50
90.0
100
AcDbRotatedDimension
1001
ACAD
1000
DSTYLE
1002
{
1070
   174
1070
     0
1070
   272
1070
     1
1070
   288
1070
     0
1070
   341
1005
0
1002
}
  0
LINE
  5
1AC38
330
747D
100
AcDbEntity
  8
部品1
100
AcDbLine
 10
12952.31413035484
 20
4762.049209232831
 30
0.0
 11
12952.31413035484
 21
2672.049209232831
 31
0.0
  0
LINE
  5
1AC39
330
747D
100
AcDbEntity
  8
部品1
100
AcDbLine
 10
14687.31413035483
 20
4816.725646864053
 30
0.0
 11
14687.31413035484
 21
2522.049209232831
 31
0.0
  0
LINE
  5
1AC3A
330
747D
100
AcDbEntity
  8
部品1
100
AcDbLine
 10
14632.31413035484
 20
4762.049209232831
 30
0.0
 11
14632.31413035484
 21
2672.049209232831
 31
0.0
  0
DIMENSION
  5
1AC3B
330
747D
100
AcDbEntity
  8
寸法
 48
50.0
100
AcDbDimension
  2
*D36
 10
12477.31413035484
 20
5395.706662812136
 30
0.0
 11
13582.31413035484
 21
5395.706662812136
 31
0.0
 70
   160
  1
柱外寸法<>
 71
     5
 42
2209.999999999999
  3
INABA_S40G
100
AcDbAlignedDimension
 13
14687.31413035483
 23
4943.859888844485
 33
0.0
 14
12477.31413035484
 24
4993.050827355808
 34
0.0
100
AcDbRotatedDimension
1001
ACAD
1000
DSTYLE
1002
{
1070
   174
1070
     0
1070
   272
1070
     1
1070
   288
1070
     0
1070
   341
1005
0
1002
}
  0
DIMENSION
  5
1AC3C
330
747D
100
AcDbEntity
  8
寸法
 48
50.0
100
AcDbDimension
  2
*D37
 10
12417.31413035484
 20
5395.706662812136
 30
0.0
 11
12107.67633507925
 21
5395.706662812136
 31
0.0
 70
   160
 71
     5
 42
60.0
  3
INABA_S40G
100
AcDbAlignedDimension
 13
12477.31413035484
 23
4993.050827355808
 33
0.0
 14
12417.31413035484
 24
4997.049209232835
 34
0.0
100
AcDbRotatedDimension
1001
ACAD
1000
DSTYLE
1002
{
1070
   174
1070
     0
1070
   272
1070
     1
1070
   288
1070
     0
1070
   341
1005
0
1002
}
  0
DIMENSION
  5
1AC3D
330
747D
100
AcDbEntity
  8
寸法
 48
50.0
100
AcDbDimension
  2
*D38
 10
12417.31413035484
 20
5614.908496486427
 30
0.0
 11
13592.31413035483
 21
5614.908496486427
 31
0.0
 70
   160
 71
     5
 42
2349.999999999998
  3
INABA_S40G
100
AcDbAlignedDimension
 13
14767.31413035483
 23
4942.049209232831
 33
0.0
 14
12417.31413035484
 24
4997.049209232835
 34
0.0
100
AcDbRotatedDimension
1001
ACAD
1000
DSTYLE
1002
{
1070
   174
1070
     0
1070
   272
1070
     1
1070
   288
1070
     0
1070
   341
1005
0
1002
}
  0
LINE
  5
1AC3E
330
747D
100
AcDbEntity
  8
部品1
100
AcDbLine
 10
12532.31413035484
 20
2622.049209232832
 30
0.0
 11
14687.31413035484
 21
2622.049209232832
 31
0.0
  0
LINE
  5
1AC3F
330
747D
100
AcDbEntity
  8
細線
 48
50.0
100
AcDbLine
 10
13029.81413035484
 20
4762.049209232831
 30
0.0
 11
13029.81413035484
 21
2672.049209232831
 31
0.0
  0
LINE
  5
1AC40
330
747D
100
AcDbEntity
  8
細線
 48
50.0
100
AcDbLine
 10
13014.81413035484
 20
4762.049209232831
 30
0.0
 11
13014.81413035484
 21
2672.049209232831
 31
0.0
  0
LINE
  5
1AC41
330
747D
100
AcDbEntity
  8
細線
 48
50.0
100
AcDbLine
 10
13154.81413035484
 20
4762.049209232831
 30
0.0
 11
13154.81413035484
 21
2672.049209232831
 31
0.0
  0
LINE
  5
1AC42
330
747D
100
AcDbEntity
  8
細線
 48
50.0
100
AcDbLine
 10
13169.81413035483
 20
4762.049209232831
 30
0.0
 11
13169.81413035483
 21
2672.049209232831
 31
0.0
  0
LINE
  5
1AC43
330
747D
100
AcDbEntity
  8
細線
 48
50.0
100
AcDbLine
 10
13309.81413035484
 20
4762.049209232831
 30
0.0
 11
13309.81413035484
 21
2672.049209232831
 31
0.0
  0
LINE
  5
1AC44
330
747D
100
AcDbEntity
  8
細線
 48
50.0
100
AcDbLine
 10
13294.81413035483
 20
4762.049209232831
 30
0.0
 11
13294.81413035483
 21
2672.049209232831
 31
0.0
  0
LINE
  5
1AC45
330
747D
100
AcDbEntity
  8
細線
 48
50.0
100
AcDbLine
 10
12874.81413035484
 20
4762.049209232831
 30
0.0
 11
12874.81413035484
 21
2672.049209232831
 31
0.0
  0
LINE
  5
1AC46
330
747D
100
AcDbEntity
  8
細線
 48
50.0
100
AcDbLine
 10
12889.81413035484
 20
4762.049209232831
 30
0.0
 11
12889.81413035484
 21
2672.049209232831
 31
0.0
  0
LINE
  5
1AC47
330
747D
100
AcDbEntity
  8
細線
 48
50.0
100
AcDbLine
 10
12749.81413035484
 20
4762.049209232831
 30
0.0
 11
12749.81413035484
 21
2672.049209232831
 31
0.0
  0
LINE
  5
1AC48
330
747D
100
AcDbEntity
  8
細線
 48
50.0
100
AcDbLine
 10
12734.81413035484
 20
4762.049209232831
 30
0.0
 11
12734.81413035484
 21
2672.049209232831
 31
0.0
  0
LINE
  5
1AC49
330
747D
100
AcDbEntity
  8
細線
 48
50.0
100
AcDbLine
 10
12594.81413035484
 20
4762.049209232831
 30
0.0
 11
12594.81413035484
 21
2672.049209232831
 31
0.0
  0
LINE
  5
1AC4A
330
747D
100
AcDbEntity
  8
細線
 48
50.0
100
AcDbLine
 10
12609.81413035484
 20
4762.049209232831
 30
0.0
 11
12609.81413035484
 21
2672.049209232831
 31
0.0
  0
DIMENSION
  5
1AC4B
330
747D
100
AcDbEntity
  8
寸法
 48
50.0
100
AcDbDimension
  2
*D39
 10
14767.31413035483
 20
5395.706662812136
 30
0.0
 11
14973.36137444933
 21
5395.706662812136
 31
0.0
 70
   160
 71
     5
 42
80.0
  3
INABA_S40G
100
AcDbAlignedDimension
 13
14687.31413035483
 23
4943.859888844485
 33
0.0
 14
14767.31413035483
 24
4942.049209232831
 34
0.0
100
AcDbRotatedDimension
1001
ACAD
1000
DSTYLE
1002
{
1070
   174
1070
     0
1070
   272
1070
     1
1070
   288
1070
     0
1070
   341
1005
0
1002
}
  0
LINE
  5
1AC4C
330
747D
100
AcDbEntity
  8
部品1
100
AcDbLine
 10
13372.31413035483
 20
4762.049209232831
 30
0.0
 11
13372.31413035483
 21
2672.049209232831
 31
0.0
  0
LINE
  5
1AC4D
330
747D
100
AcDbEntity
  8
細線
 48
50.0
100
AcDbLine
 10
13714.81413035484
 20
4762.049209232831
 30
0.0
 11
13714.81413035484
 21
2672.049209232831
 31
0.0
  0
LINE
  5
1AC4E
330
747D
100
AcDbEntity
  8
細線
 48
50.0
100
AcDbLine
 10
13729.81413035484
 20
4762.049209232831
 30
0.0
 11
13729.81413035484
 21
2672.049209232831
 31
0.0
  0
LINE
  5
1AC4F
330
747D
100
AcDbEntity
  8
細線
 48
50.0
100
AcDbLine
 10
13589.81413035484
 20
4762.049209232831
 30
0.0
 11
13589.81413035484
 21
2672.049209232831
 31
0.0
  0
LINE
  5
1AC50
330
747D
100
AcDbEntity
  8
細線
 48
50.0
100
AcDbLine
 10
13574.81413035484
 20
4762.049209232831
 30
0.0
 11
13574.81413035484
 21
2672.049209232831
 31
0.0
  0
LINE
  5
1AC51
330
747D
100
AcDbEntity
  8
細線
 48
50.0
100
AcDbLine
 10
13434.81413035484
 20
4762.049209232831
 30
0.0
 11
13434.81413035484
 21
2672.049209232831
 31
0.0
  0
LINE
  5
1AC52
330
747D
100
AcDbEntity
  8
細線
 48
50.0
100
AcDbLine
 10
13449.81413035484
 20
4762.049209232831
 30
0.0
 11
13449.81413035484
 21
2672.049209232831
 31
0.0
  0
LINE
  5
1AC53
330
747D
100
AcDbEntity
  8
部品1
100
AcDbLine
 10
13792.31413035483
 20
4762.049209232831
 30
0.0
 11
13792.31413035483
 21
2672.049209232831
 31
0.0
  0
LINE
  5
1AC54
330
747D
100
AcDbEntity
  8
細線
 48
50.0
100
AcDbLine
 10
14289.81413035485
 20
4762.049209232831
 30
0.0
 11
14289.81413035484
 21
2672.049209232831
 31
0.0
  0
LINE
  5
1AC55
330
747D
100
AcDbEntity
  8
細線
 48
50.0
100
AcDbLine
 10
14274.81413035485
 20
4762.049209232831
 30
0.0
 11
14274.81413035484
 21
2672.049209232831
 31
0.0
  0
LINE
  5
1AC56
330
747D
100
AcDbEntity
  8
細線
 48
50.0
100
AcDbLine
 10
14414.81413035485
 20
4762.049209232831
 30
0.0
 11
14414.81413035484
 21
2672.049209232831
 31
0.0
  0
LINE
  5
1AC57
330
747D
100
AcDbEntity
  8
細線
 48
50.0
100
AcDbLine
 10
14429.81413035485
 20
4762.049209232831
 30
0.0
 11
14429.81413035484
 21
2672.049209232831
 31
0.0
  0
LINE
  5
1AC58
330
747D
100
AcDbEntity
  8
細線
 48
50.0
100
AcDbLine
 10
14569.81413035485
 20
4762.049209232831
 30
0.0
 11
14569.81413035484
 21
2672.049209232831
 31
0.0
  0
LINE
  5
1AC59
330
747D
100
AcDbEntity
  8
細線
 48
50.0
100
AcDbLine
 10
14554.81413035485
 20
4762.049209232831
 30
0.0
 11
14554.81413035484
 21
2672.049209232831
 31
0.0
  0
DIMENSION
  5
1AC5A
330
747D
100
AcDbEntity
  8
寸法
 48
50.0
100
AcDbDimension
  2
*D40
 10
11856.70572358646
 20
4871.394468106164
 30
0.0
 11
11867.37119884539
 21
5242.241131347863
 31
0.0
 70
   161
 71
     5
 42
141.0
  3
INABA_S40G
100
AcDbAlignedDimension
 13
12436.71015051342
 23
4995.771958067511
 33
0.0
 14
12432.65669495679
 24
4854.830234301799
 34
0.0
1001
ACAD
1000
DSTYLE
1002
{
1070
   174
1070
     0
1070
   272
1070
     1
1070
   288
1070
     0
1070
   341
1005
0
1002
}
  0
MTEXT
  5
1B623
330
747D
100
AcDbEntity
  8
寸法
 62
     7
 48
50.0
100
AcDbMText
 10
2637.852555037908
 20
9493.229141646386
 30
0.0
 40
96.0
 41
0.0
 71
     5
 72
     1
  1
棚 3段
  7
STYLE1
 73
     1
 44
1.0
1001
ACAD
1000
MTEXTBEGIN
1070
    73
1070
     1
1070
    44
1040
1.0
1070
    74
1070
     0
1000
MTEXTEND
  0
MTEXT
  5
1B803
330
747D
100
AcDbEntity
  8
寸法
 62
     7
 48
50.0
100
AcDbMText
 10
3937.852555037908
 20
9493.229141646436
 30
0.0
 40
96.0
 41
0.0
 71
     5
 72
     1
  1
棚 3段
  7
STYLE1
 73
     1
 44
1.0
1001
ACAD
1000
MTEXTBEGIN
1070
    73
1070
     1
1070
    44
1040
1.0
1070
    74
1070
     0
1000
MTEXTEND
  0
MTEXT
  5
1B806
330
747D
100
AcDbEntity
  8
寸法
 62
     7
 48
50.0
100
AcDbMText
 10
9197.852555037908
 20
9493.229141646432
 30
0.0
 40
96.0
 41
0.0
 71
     5
 72
     1
  1
棚 3段
  7
STYLE1
 73
     1
 44
1.0
1001
ACAD
1000
MTEXTBEGIN
1070
    73
1070
     1
1070
    44
1040
1.0
1070
    74
1070
     0
1000
MTEXTEND
  0
MTEXT
  5
1B807
330
747D
100
AcDbEntity
  8
寸法
 62
     7
 48
50.0
100
AcDbMText
 10
7897.852555037907
 20
9493.229141646382
 30
0.0
 40
96.0
 41
0.0
 71
     5
 72
     1
  1
棚 3段
  7
STYLE1
 73
     1
 44
1.0
1001
ACAD
1000
MTEXTBEGIN
1070
    73
1070
     1
1070
    44
1040
1.0
1070
    74
1070
     0
1000
MTEXTEND
  0
DIMENSION
  5
1B980
330
747D
100
AcDbEntity
  8
寸法
100
AcDbDimension
  2
*D41
 10
9729.61351070392
 20
9085.385202924081
 30
0.0
 11
9139.622672703556
 21
9085.385202924081
 31
0.0
 70
   160
 71
     5
 42
1273.000000000011
  3
INABA_S40G
100
AcDbAlignedDimension
 13
8548.637356965262
 23
9428.822872679358
 33
0.0
 14
9821.637356965272
 24
9428.822872679349
 34
0.0
100
AcDbRotatedDimension
1001
ACAD
1000
DSTYLE
1002
{
1002
}
  0
DIMENSION
  5
1B9A5
330
747D
100
AcDbEntity
  8
寸法
100
AcDbDimension
  2
*D42
 10
8429.61351070395
 20
9085.385202924081
 30
0.0
 11
7793.113510703943
 21
9185.397013947703
 31
0.0
 70
    32
 71
     5
 42
1273.000000000011
  3
INABA_S40G
100
AcDbAlignedDimension
 13
7248.637356965261
 23
9428.822872679251
 33
0.0
 14
8521.637356965271
 24
9428.822872679244
 34
0.0
100
AcDbRotatedDimension
1001
ACAD
1000
DSTYLE
1002
{
1002
}
  0
LINE
  5
1BBA0
330
747D
100
AcDbEntity
  8
補助
  6
PHANTOM
 62
   230
 48
50.0
100
AcDbLine
 10
140.0
 20
0.0
 30
0.0
 11
139.9999999999995
 21
11409.6
 31
0.0
  0
TEXT
  5
1BBBD
330
747D
100
AcDbEntity
  8
文字
 62
     7
 48
50.0
100
AcDbText
 10
14462.69703376366
 20
483.8967129911414
 30
0.0
 40
160.0
  1
FXN-60HYL-N
  7
STYLE2
100
AcDbText
  0
DIMENSION
  5
1BCFB
330
747D
100
AcDbEntity
  8
寸法
 48
50.0
100
AcDbDimension
  2
*D43
 10
10137.68045928698
 20
4570.04920923283
 30
0.0
 11
10037.68045928698
 21
3627.049209232833
 31
0.0
 70
    32
  1
有効開口部高サ <>
 71
     5
 42
1885.999999999998
  3
INABA_S40G
100
AcDbAlignedDimension
 13
9850.137356965237
 23
2684.049209232832
 33
0.0
 14
9850.137356965239
 24
4570.04920923283
 34
0.0
 50
90.0
100
AcDbRotatedDimension
  0
DIMENSION
  5
1BCFC
330
747D
100
AcDbEntity
  8
寸法
 48
50.0
100
AcDbDimension
  2
*D44
 10
10137.68045928698
 20
4597.049209232831
 30
0.0
 11
10277.85028253335
 21
4598.01640907249
 31
0.0
 70
   160
 71
     5
 42
27.00000000000091
  3
INABA_S40G
100
AcDbAlignedDimension
 13
9850.137356965239
 23
4570.04920923283
 33
0.0
 14
9850.137356965237
 24
4597.049209232831
 34
0.0
 50
90.0
100
AcDbRotatedDimension
1001
ACAD
1000
DSTYLE
1002
{
1070
   279
1070
     2
1002
}
  0
DIMENSION
  5
1BCFD
330
747D
100
AcDbEntity
  8
寸法
 48
50.0
100
AcDbDimension
  2
*D45
 10
10137.68045928698
 20
4762.049209232831
 30
0.0
 11
10137.68045928698
 21
5000.534490607072
 31
0.0
 70
   160
 71
     5
 42
165.0
  3
INABA_S40G
100
AcDbAlignedDimension
 13
9850.137356965237
 23
4597.049209232831
 33
0.0
 14
9850.137356965237
 24
4762.049209232831
 34
0.0
 50
90.0
100
AcDbRotatedDimension
1001
ACAD
1000
DSTYLE
1002
{
1002
}
  0
ARC
  5
1C091
330
747D
100
AcDbEntity
  8
部品1
 48
0.01
100
AcDbCircle
 10
3802.137356965237
 20
4794.549209232829
 30
0.0
 40
2.0
100
AcDbArc
 50
180.0
 51
270.0
  0
ARC
  5
1C092
330
747D
100
AcDbEntity
  8
部品1
 48
0.01
100
AcDbCircle
 10
3978.137356965237
 20
4794.549209232829
 30
0.0
 40
2.0
100
AcDbArc
 50
270.0
 51
0.0
  0
LINE
  5
1C093
330
747D
100
AcDbEntity
  8
部品1
 48
0.01
100
AcDbLine
 10
3978.137356965237
 20
4792.54920923283
 30
0.0
 11
3802.137356965237
 21
4792.54920923283
 31
0.0
  0
LINE
  5
1C094
330
747D
100
AcDbEntity
  8
部品1
 48
0.01
100
AcDbLine
 10
2572.137356965237
 20
4792.54920923283
 30
0.0
 11
2748.137356965234
 21
4792.54920923283
 31
0.0
  0
ARC
  5
1C095
330
747D
100
AcDbEntity
  8
部品1
 48
0.01
100
AcDbCircle
 10
2572.137356965237
 20
4794.549209232829
 30
0.0
 40
2.0
100
AcDbArc
 50
180.0
 51
270.0
  0
ARC
  5
1C096
330
747D
100
AcDbEntity
  8
部品1
 48
0.01
100
AcDbCircle
 10
2748.137356965234
 20
4794.549209232829
 30
0.0
 40
2.0
100
AcDbArc
 50
270.0
 51
0.0
  0
ARC
  5
1C097
330
747D
100
AcDbEntity
  8
部品1
 48
0.01
100
AcDbCircle
 10
3802.137356965237
 20
4826.04920923283
 30
0.0
 40
2.0
100
AcDbArc
 50
90.0
 51
180.0
  0
ARC
  5
1C098
330
747D
100
AcDbEntity
  8
部品1
 48
0.01
100
AcDbCircle
 10
3978.137356965237
 20
4826.04920923283
 30
0.0
 40
2.0
100
AcDbArc
 50
0.0
 51
90.0
  0
LINE
  5
1C099
330
747D
100
AcDbEntity
  8
細線
100
AcDbLine
 10
3890.137356965237
 20
4798.549209232829
 30
0.0
 11
3816.137356965237
 21
4798.549209232829
 31
0.0
  0
LINE
  5
1C09A
330
747D
100
AcDbEntity
  8
細線
100
AcDbLine
 10
3890.137356965237
 20
4821.54920923283
 30
0.0
 11
3964.137356965237
 21
4821.54920923283
 31
0.0
  0
LINE
  5
1C09B
330
747D
100
AcDbEntity
  8
細線
100
AcDbLine
 10
3964.137356965237
 20
4798.549209232829
 30
0.0
 11
3890.137356965237
 21
4798.549209232829
 31
0.0
  0
LINE
  5
1C09C
330
747D
100
AcDbEntity
  8
細線
100
AcDbLine
 10
3816.137356965237
 20
4821.54920923283
 30
0.0
 11
3890.137356965237
 21
4821.54920923283
 31
0.0
  0
LINE
  5
1C09D
330
747D
100
AcDbEntity
  8
細線
100
AcDbLine
 10
3816.137356965237
 20
4798.549209232829
 30
0.0
 11
3816.137356965237
 21
4821.54920923283
 31
0.0
  0
LINE
  5
1C09E
330
747D
100
AcDbEntity
  8
細線
100
AcDbLine
 10
3964.137356965237
 20
4821.54920923283
 30
0.0
 11
3964.137356965237
 21
4798.549209232829
 31
0.0
  0
LINE
  5
1C09F
330
747D
100
AcDbEntity
  8
部品1
 48
0.01
100
AcDbLine
 10
3800.137356965237
 20
4794.549209232829
 30
0.0
 11
3800.137356965237
 21
4826.04920923283
 31
0.0
  0
LINE
  5
1C0A0
330
747D
100
AcDbEntity
  8
部品1
 48
0.01
100
AcDbLine
 10
3980.137356965237
 20
4826.04920923283
 30
0.0
 11
3980.137356965237
 21
4794.549209232829
 31
0.0
  0
LINE
  5
1C0A1
330
747D
100
AcDbEntity
  8
部品1
 48
0.01
100
AcDbLine
 10
3802.137356965237
 20
4828.04920923283
 30
0.0
 11
3978.137356965237
 21
4828.04920923283
 31
0.0
  0
LINE
  5
1C0A2
330
747D
100
AcDbEntity
  8
細線
100
AcDbLine
 10
3964.137356965237
 20
4815.54920923283
 30
0.0
 11
3890.137356965237
 21
4815.54920923283
 31
0.0
  0
LINE
  5
1C0A3
330
747D
100
AcDbEntity
  8
細線
100
AcDbLine
 10
3964.137356965237
 20
4809.54920923283
 30
0.0
 11
3890.137356965237
 21
4809.54920923283
 31
0.0
  0
LINE
  5
1C0A4
330
747D
100
AcDbEntity
  8
細線
100
AcDbLine
 10
3964.137356965237
 20
4803.54920923283
 30
0.0
 11
3890.137356965237
 21
4803.54920923283
 31
0.0
  0
LINE
  5
1C0A5
330
747D
100
AcDbEntity
  8
細線
100
AcDbLine
 10
3964.137356965237
 20
4815.54920923283
 30
0.0
 11
3895.137356965237
 21
4815.54920923283
 31
0.0
  0
LINE
  5
1C0A6
330
747D
100
AcDbEntity
  8
細線
100
AcDbLine
 10
3816.137356965237
 20
4815.54920923283
 30
0.0
 11
3890.137356965237
 21
4815.54920923283
 31
0.0
  0
LINE
  5
1C0A7
330
747D
100
AcDbEntity
  8
細線
100
AcDbLine
 10
3816.137356965237
 20
4803.54920923283
 30
0.0
 11
3890.137356965237
 21
4803.54920923283
 31
0.0
  0
LINE
  5
1C0A8
330
747D
100
AcDbEntity
  8
細線
100
AcDbLine
 10
3816.137356965237
 20
4809.54920923283
 30
0.0
 11
3890.137356965237
 21
4809.54920923283
 31
0.0
  0
LINE
  5
1C0A9
330
747D
100
AcDbEntity
  8
細線
100
AcDbLine
 10
3890.137356965237
 20
4821.54920923283
 30
0.0
 11
3890.137356965237
 21
4798.549209232829
 31
0.0
  0
LINE
  5
1C0AA
330
747D
100
AcDbEntity
  8
細線
100
AcDbLine
 10
2660.137356965237
 20
4821.54920923283
 30
0.0
 11
2660.137356965234
 21
4798.549209232829
 31
0.0
  0
LINE
  5
1C0AB
330
747D
100
AcDbEntity
  8
細線
100
AcDbLine
 10
2734.137356965233
 20
4809.54920923283
 30
0.0
 11
2660.137356965237
 21
4809.54920923283
 31
0.0
  0
LINE
  5
1C0AC
330
747D
100
AcDbEntity
  8
細線
100
AcDbLine
 10
2734.137356965233
 20
4803.54920923283
 30
0.0
 11
2660.137356965237
 21
4803.54920923283
 31
0.0
  0
LINE
  5
1C0AD
330
747D
100
AcDbEntity
  8
細線
100
AcDbLine
 10
2734.137356965233
 20
4815.54920923283
 30
0.0
 11
2660.137356965237
 21
4815.54920923283
 31
0.0
  0
LINE
  5
1C0AE
330
747D
100
AcDbEntity
  8
細線
100
AcDbLine
 10
2586.137356965237
 20
4815.54920923283
 30
0.0
 11
2655.137356965237
 21
4815.54920923283
 31
0.0
  0
LINE
  5
1C0AF
330
747D
100
AcDbEntity
  8
細線
100
AcDbLine
 10
2586.137356965233
 20
4803.54920923283
 30
0.0
 11
2660.137356965237
 21
4803.54920923283
 31
0.0
  0
LINE
  5
1C0B0
330
747D
100
AcDbEntity
  8
細線
100
AcDbLine
 10
2586.137356965237
 20
4809.54920923283
 30
0.0
 11
2660.137356965237
 21
4809.54920923283
 31
0.0
  0
LINE
  5
1C0B1
330
747D
100
AcDbEntity
  8
細線
100
AcDbLine
 10
2586.137356965237
 20
4815.54920923283
 30
0.0
 11
2660.137356965237
 21
4815.54920923283
 31
0.0
  0
LINE
  5
1C0B2
330
747D
100
AcDbEntity
  8
部品1
 48
0.01
100
AcDbLine
 10
2748.137356965237
 20
4828.04920923283
 30
0.0
 11
2572.137356965237
 21
4828.04920923283
 31
0.0
  0
LINE
  5
1C0B3
330
747D
100
AcDbEntity
  8
部品1
 48
0.01
100
AcDbLine
 10
2570.137356965237
 20
4826.04920923283
 30
0.0
 11
2570.137356965237
 21
4794.549209232829
 31
0.0
  0
LINE
  5
1C0B4
330
747D
100
AcDbEntity
  8
部品1
 48
0.01
100
AcDbLine
 10
2750.137356965233
 20
4794.549209232829
 30
0.0
 11
2750.137356965237
 21
4826.04920923283
 31
0.0
  0
LINE
  5
1C0B5
330
747D
100
AcDbEntity
  8
細線
100
AcDbLine
 10
2586.137356965237
 20
4821.54920923283
 30
0.0
 11
2586.137356965237
 21
4798.549209232829
 31
0.0
  0
LINE
  5
1C0B6
330
747D
100
AcDbEntity
  8
細線
100
AcDbLine
 10
2734.137356965237
 20
4798.549209232829
 30
0.0
 11
2734.137356965237
 21
4821.54920923283
 31
0.0
  0
LINE
  5
1C0B7
330
747D
100
AcDbEntity
  8
細線
100
AcDbLine
 10
2734.137356965237
 20
4821.54920923283
 30
0.0
 11
2660.137356965237
 21
4821.54920923283
 31
0.0
  0
LINE
  5
1C0B8
330
747D
100
AcDbEntity
  8
細線
100
AcDbLine
 10
2586.137356965237
 20
4798.549209232829
 30
0.0
 11
2660.137356965237
 21
4798.549209232829
 31
0.0
  0
LINE
  5
1C0B9
330
747D
100
AcDbEntity
  8
細線
100
AcDbLine
 10
2660.137356965237
 20
4821.54920923283
 30
0.0
 11
2586.137356965237
 21
4821.54920923283
 31
0.0
  0
LINE
  5
1C0BA
330
747D
100
AcDbEntity
  8
細線
100
AcDbLine
 10
2660.137356965234
 20
4798.549209232829
 30
0.0
 11
2734.137356965237
 21
4798.549209232829
 31
0.0
  0
ARC
  5
1C0BB
330
747D
100
AcDbEntity
  8
部品1
 48
0.01
100
AcDbCircle
 10
2572.137356965237
 20
4826.04920923283
 30
0.0
 40
2.0
100
AcDbArc
 50
90.0
 51
180.0
  0
ARC
  5
1C0BC
330
747D
100
AcDbEntity
  8
部品1
 48
0.01
100
AcDbCircle
 10
2748.137356965237
 20
4826.04920923283
 30
0.0
 40
2.0
100
AcDbArc
 50
0.0
 51
90.0
  0
ARC
  5
1C0BD
330
747D
100
AcDbEntity
  8
部品1
 48
0.01
100
AcDbCircle
 10
5378.137356965239
 20
4826.04920923283
 30
0.0
 40
2.0
100
AcDbArc
 50
0.0
 51
90.0
  0
ARC
  5
1C0BE
330
747D
100
AcDbEntity
  8
部品1
 48
0.01
100
AcDbCircle
 10
5202.137356965239
 20
4826.04920923283
 30
0.0
 40
2.0
100
AcDbArc
 50
90.0
 51
180.0
  0
LINE
  5
1C0BF
330
747D
100
AcDbEntity
  8
細線
100
AcDbLine
 10
5290.137356965235
 20
4798.549209232829
 30
0.0
 11
5364.137356965239
 21
4798.549209232829
 31
0.0
  0
LINE
  5
1C0C0
330
747D
100
AcDbEntity
  8
細線
100
AcDbLine
 10
5290.137356965239
 20
4821.54920923283
 30
0.0
 11
5216.137356965239
 21
4821.54920923283
 31
0.0
  0
LINE
  5
1C0C1
330
747D
100
AcDbEntity
  8
細線
100
AcDbLine
 10
5216.137356965239
 20
4798.549209232829
 30
0.0
 11
5290.137356965239
 21
4798.549209232829
 31
0.0
  0
LINE
  5
1C0C2
330
747D
100
AcDbEntity
  8
細線
100
AcDbLine
 10
5364.137356965239
 20
4821.54920923283
 30
0.0
 11
5290.137356965239
 21
4821.54920923283
 31
0.0
  0
LINE
  5
1C0C3
330
747D
100
AcDbEntity
  8
細線
100
AcDbLine
 10
5364.137356965239
 20
4798.549209232829
 30
0.0
 11
5364.137356965239
 21
4821.54920923283
 31
0.0
  0
LINE
  5
1C0C4
330
747D
100
AcDbEntity
  8
細線
100
AcDbLine
 10
5216.137356965239
 20
4821.54920923283
 30
0.0
 11
5216.137356965239
 21
4798.549209232829
 31
0.0
  0
LINE
  5
1C0C5
330
747D
100
AcDbEntity
  8
部品1
 48
0.01
100
AcDbLine
 10
5380.137356965235
 20
4794.549209232829
 30
0.0
 11
5380.137356965239
 21
4826.04920923283
 31
0.0
  0
LINE
  5
1C0C6
330
747D
100
AcDbEntity
  8
部品1
 48
0.01
100
AcDbLine
 10
5200.137356965239
 20
4826.04920923283
 30
0.0
 11
5200.137356965239
 21
4794.549209232829
 31
0.0
  0
LINE
  5
1C0C7
330
747D
100
AcDbEntity
  8
部品1
 48
0.01
100
AcDbLine
 10
5378.137356965239
 20
4828.04920923283
 30
0.0
 11
5202.137356965239
 21
4828.04920923283
 31
0.0
  0
LINE
  5
1C0C8
330
747D
100
AcDbEntity
  8
細線
100
AcDbLine
 10
5216.137356965239
 20
4815.54920923283
 30
0.0
 11
5290.137356965239
 21
4815.54920923283
 31
0.0
  0
LINE
  5
1C0C9
330
747D
100
AcDbEntity
  8
細線
100
AcDbLine
 10
5216.137356965239
 20
4809.54920923283
 30
0.0
 11
5290.137356965239
 21
4809.54920923283
 31
0.0
  0
LINE
  5
1C0CA
330
747D
100
AcDbEntity
  8
細線
100
AcDbLine
 10
5216.137356965235
 20
4803.54920923283
 30
0.0
 11
5290.137356965239
 21
4803.54920923283
 31
0.0
  0
LINE
  5
1C0CB
330
747D
100
AcDbEntity
  8
細線
100
AcDbLine
 10
5216.137356965239
 20
4815.54920923283
 30
0.0
 11
5285.137356965239
 21
4815.54920923283
 31
0.0
  0
LINE
  5
1C0CC
330
747D
100
AcDbEntity
  8
細線
100
AcDbLine
 10
5364.137356965235
 20
4815.54920923283
 30
0.0
 11
5290.137356965239
 21
4815.54920923283
 31
0.0
  0
LINE
  5
1C0CD
330
747D
100
AcDbEntity
  8
細線
100
AcDbLine
 10
5364.137356965235
 20
4803.54920923283
 30
0.0
 11
5290.137356965239
 21
4803.54920923283
 31
0.0
  0
LINE
  5
1C0CE
330
747D
100
AcDbEntity
  8
細線
100
AcDbLine
 10
5364.137356965235
 20
4809.54920923283
 30
0.0
 11
5290.137356965239
 21
4809.54920923283
 31
0.0
  0
LINE
  5
1C0CF
330
747D
100
AcDbEntity
  8
細線
100
AcDbLine
 10
5290.137356965239
 20
4821.54920923283
 30
0.0
 11
5290.137356965235
 21
4798.549209232829
 31
0.0
  0
LINE
  5
1C0D0
330
747D
100
AcDbEntity
  8
細線
100
AcDbLine
 10
6520.137356965239
 20
4821.54920923283
 30
0.0
 11
6520.137356965239
 21
4798.549209232829
 31
0.0
  0
LINE
  5
1C0D1
330
747D
100
AcDbEntity
  8
細線
100
AcDbLine
 10
6446.137356965239
 20
4809.54920923283
 30
0.0
 11
6520.137356965239
 21
4809.54920923283
 31
0.0
  0
LINE
  5
1C0D2
330
747D
100
AcDbEntity
  8
細線
100
AcDbLine
 10
6446.137356965239
 20
4803.54920923283
 30
0.0
 11
6520.137356965239
 21
4803.54920923283
 31
0.0
  0
LINE
  5
1C0D3
330
747D
100
AcDbEntity
  8
細線
100
AcDbLine
 10
6446.137356965239
 20
4815.54920923283
 30
0.0
 11
6520.137356965239
 21
4815.54920923283
 31
0.0
  0
LINE
  5
1C0D4
330
747D
100
AcDbEntity
  8
細線
100
AcDbLine
 10
6594.137356965238
 20
4815.54920923283
 30
0.0
 11
6525.137356965238
 21
4815.54920923283
 31
0.0
  0
LINE
  5
1C0D5
330
747D
100
AcDbEntity
  8
細線
100
AcDbLine
 10
6594.137356965238
 20
4803.54920923283
 30
0.0
 11
6520.137356965239
 21
4803.54920923283
 31
0.0
  0
LINE
  5
1C0D6
330
747D
100
AcDbEntity
  8
細線
100
AcDbLine
 10
6594.137356965238
 20
4809.54920923283
 30
0.0
 11
6520.137356965239
 21
4809.54920923283
 31
0.0
  0
LINE
  5
1C0D7
330
747D
100
AcDbEntity
  8
細線
100
AcDbLine
 10
6594.137356965238
 20
4815.54920923283
 30
0.0
 11
6520.137356965239
 21
4815.54920923283
 31
0.0
  0
LINE
  5
1C0D8
330
747D
100
AcDbEntity
  8
部品1
 48
0.01
100
AcDbLine
 10
6432.137356965239
 20
4828.04920923283
 30
0.0
 11
6608.137356965238
 21
4828.04920923283
 31
0.0
  0
LINE
  5
1C0D9
330
747D
100
AcDbEntity
  8
部品1
 48
0.01
100
AcDbLine
 10
6610.137356965239
 20
4826.04920923283
 30
0.0
 11
6610.137356965239
 21
4794.549209232829
 31
0.0
  0
LINE
  5
1C0DA
330
747D
100
AcDbEntity
  8
部品1
 48
0.01
100
AcDbLine
 10
6430.137356965238
 20
4794.549209232829
 30
0.0
 11
6430.137356965238
 21
4826.04920923283
 31
0.0
  0
LINE
  5
1C0DB
330
747D
100
AcDbEntity
  8
細線
100
AcDbLine
 10
6594.137356965238
 20
4821.54920923283
 30
0.0
 11
6594.137356965238
 21
4798.549209232829
 31
0.0
  0
LINE
  5
1C0DC
330
747D
100
AcDbEntity
  8
細線
100
AcDbLine
 10
6446.137356965239
 20
4798.549209232829
 30
0.0
 11
6446.137356965239
 21
4821.54920923283
 31
0.0
  0
LINE
  5
1C0DD
330
747D
100
AcDbEntity
  8
細線
100
AcDbLine
 10
6446.137356965239
 20
4821.54920923283
 30
0.0
 11
6520.137356965239
 21
4821.54920923283
 31
0.0
  0
LINE
  5
1C0DE
330
747D
100
AcDbEntity
  8
細線
100
AcDbLine
 10
6594.137356965238
 20
4798.549209232829
 30
0.0
 11
6520.137356965239
 21
4798.549209232829
 31
0.0
  0
LINE
  5
1C0DF
330
747D
100
AcDbEntity
  8
細線
100
AcDbLine
 10
6520.137356965239
 20
4821.54920923283
 30
0.0
 11
6594.137356965238
 21
4821.54920923283
 31
0.0
  0
LINE
  5
1C0E0
330
747D
100
AcDbEntity
  8
細線
100
AcDbLine
 10
6520.137356965239
 20
4798.549209232829
 30
0.0
 11
6446.137356965239
 21
4798.549209232829
 31
0.0
  0
ARC
  5
1C0E1
330
747D
100
AcDbEntity
  8
部品1
 48
0.01
100
AcDbCircle
 10
6608.137356965238
 20
4826.04920923283
 30
0.0
 40
2.0
100
AcDbArc
 50
0.0
 51
90.0
  0
ARC
  5
1C0E2
330
747D
100
AcDbEntity
  8
部品1
 48
0.01
100
AcDbCircle
 10
6432.137356965239
 20
4826.04920923283
 30
0.0
 40
2.0
100
AcDbArc
 50
90.0
 51
180.0
  0
ARC
  5
1C0E3
330
747D
100
AcDbEntity
  8
部品1
 48
0.01
100
AcDbCircle
 10
5378.137356965235
 20
4794.549209232829
 30
0.0
 40
2.0
100
AcDbArc
 50
270.0
 51
0.0
  0
ARC
  5
1C0E4
330
747D
100
AcDbEntity
  8
部品1
 48
0.01
100
AcDbCircle
 10
5202.137356965239
 20
4794.549209232829
 30
0.0
 40
2.0
100
AcDbArc
 50
180.0
 51
270.0
  0
LINE
  5
1C0E5
330
747D
100
AcDbEntity
  8
部品1
 48
0.01
100
AcDbLine
 10
5202.137356965239
 20
4792.54920923283
 30
0.0
 11
5378.137356965235
 21
4792.54920923283
 31
0.0
  0
LINE
  5
1C0E6
330
747D
100
AcDbEntity
  8
部品1
 48
0.01
100
AcDbLine
 10
6608.137356965238
 20
4792.54920923283
 30
0.0
 11
6432.137356965239
 21
4792.54920923283
 31
0.0
  0
ARC
  5
1C0E7
330
747D
100
AcDbEntity
  8
部品1
 48
0.01
100
AcDbCircle
 10
6608.137356965238
 20
4794.549209232829
 30
0.0
 40
2.0
100
AcDbArc
 50
270.0
 51
0.0
  0
ARC
  5
1C0E8
330
747D
100
AcDbEntity
  8
部品1
 48
0.01
100
AcDbCircle
 10
6432.137356965239
 20
4794.549209232829
 30
0.0
 40
2.0
100
AcDbArc
 50
180.0
 51
270.0
  0
ARC
  5
1C0E9
330
747D
100
AcDbEntity
  8
部品1
 48
0.01
100
AcDbCircle
 10
9062.137356965239
 20
4794.549209232829
 30
0.0
 40
2.0
100
AcDbArc
 50
180.0
 51
270.0
  0
ARC
  5
1C0EA
330
747D
100
AcDbEntity
  8
部品1
 48
0.01
100
AcDbCircle
 10
9238.137356965237
 20
4794.549209232829
 30
0.0
 40
2.0
100
AcDbArc
 50
270.0
 51
0.0
  0
LINE
  5
1C0EB
330
747D
100
AcDbEntity
  8
部品1
 48
0.01
100
AcDbLine
 10
9238.137356965237
 20
4792.54920923283
 30
0.0
 11
9062.137356965239
 21
4792.54920923283
 31
0.0
  0
LINE
  5
1C0EC
330
747D
100
AcDbEntity
  8
部品1
 48
0.01
100
AcDbLine
 10
7832.137356965239
 20
4792.54920923283
 30
0.0
 11
8008.137356965235
 21
4792.54920923283
 31
0.0
  0
ARC
  5
1C0ED
330
747D
100
AcDbEntity
  8
部品1
 48
0.01
100
AcDbCircle
 10
7832.137356965239
 20
4794.549209232829
 30
0.0
 40
2.0
100
AcDbArc
 50
180.0
 51
270.0
  0
ARC
  5
1C0EE
330
747D
100
AcDbEntity
  8
部品1
 48
0.01
100
AcDbCircle
 10
8008.137356965235
 20
4794.549209232829
 30
0.0
 40
2.0
100
AcDbArc
 50
270.0
 51
0.0
  0
ARC
  5
1C0EF
330
747D
100
AcDbEntity
  8
部品1
 48
0.01
100
AcDbCircle
 10
9062.137356965239
 20
4826.04920923283
 30
0.0
 40
2.0
100
AcDbArc
 50
90.0
 51
180.0
  0
ARC
  5
1C0F0
330
747D
100
AcDbEntity
  8
部品1
 48
0.01
100
AcDbCircle
 10
9238.137356965237
 20
4826.04920923283
 30
0.0
 40
2.0
100
AcDbArc
 50
0.0
 51
90.0
  0
LINE
  5
1C0F1
330
747D
100
AcDbEntity
  8
細線
100
AcDbLine
 10
9150.137356965238
 20
4798.549209232829
 30
0.0
 11
9076.137356965238
 21
4798.549209232829
 31
0.0
  0
LINE
  5
1C0F2
330
747D
100
AcDbEntity
  8
細線
100
AcDbLine
 10
9150.137356965238
 20
4821.54920923283
 30
0.0
 11
9224.13735696524
 21
4821.54920923283
 31
0.0
  0
LINE
  5
1C0F3
330
747D
100
AcDbEntity
  8
細線
100
AcDbLine
 10
9224.13735696524
 20
4798.549209232829
 30
0.0
 11
9150.137356965238
 21
4798.549209232829
 31
0.0
  0
LINE
  5
1C0F4
330
747D
100
AcDbEntity
  8
細線
100
AcDbLine
 10
9076.137356965238
 20
4821.54920923283
 30
0.0
 11
9150.137356965238
 21
4821.54920923283
 31
0.0
  0
LINE
  5
1C0F5
330
747D
100
AcDbEntity
  8
細線
100
AcDbLine
 10
9076.137356965238
 20
4798.549209232829
 30
0.0
 11
9076.137356965238
 21
4821.54920923283
 31
0.0
  0
LINE
  5
1C0F6
330
747D
100
AcDbEntity
  8
細線
100
AcDbLine
 10
9224.13735696524
 20
4821.54920923283
 30
0.0
 11
9224.13735696524
 21
4798.549209232829
 31
0.0
  0
LINE
  5
1C0F7
330
747D
100
AcDbEntity
  8
部品1
 48
0.01
100
AcDbLine
 10
9060.13735696524
 20
4794.549209232829
 30
0.0
 11
9060.13735696524
 21
4826.04920923283
 31
0.0
  0
LINE
  5
1C0F8
330
747D
100
AcDbEntity
  8
部品1
 48
0.01
100
AcDbLine
 10
9240.13735696524
 20
4826.04920923283
 30
0.0
 11
9240.13735696524
 21
4794.549209232829
 31
0.0
  0
LINE
  5
1C0F9
330
747D
100
AcDbEntity
  8
部品1
 48
0.01
100
AcDbLine
 10
9062.137356965239
 20
4828.04920923283
 30
0.0
 11
9238.137356965237
 21
4828.04920923283
 31
0.0
  0
LINE
  5
1C0FA
330
747D
100
AcDbEntity
  8
細線
100
AcDbLine
 10
9224.13735696524
 20
4815.54920923283
 30
0.0
 11
9150.137356965238
 21
4815.54920923283
 31
0.0
  0
LINE
  5
1C0FB
330
747D
100
AcDbEntity
  8
細線
100
AcDbLine
 10
9224.13735696524
 20
4809.54920923283
 30
0.0
 11
9150.137356965238
 21
4809.54920923283
 31
0.0
  0
LINE
  5
1C0FC
330
747D
100
AcDbEntity
  8
細線
100
AcDbLine
 10
9224.13735696524
 20
4803.54920923283
 30
0.0
 11
9150.137356965238
 21
4803.54920923283
 31
0.0
  0
LINE
  5
1C0FD
330
747D
100
AcDbEntity
  8
細線
100
AcDbLine
 10
9224.13735696524
 20
4815.54920923283
 30
0.0
 11
9155.137356965239
 21
4815.54920923283
 31
0.0
  0
LINE
  5
1C0FE
330
747D
100
AcDbEntity
  8
細線
100
AcDbLine
 10
9076.137356965238
 20
4815.54920923283
 30
0.0
 11
9150.137356965238
 21
4815.54920923283
 31
0.0
  0
LINE
  5
1C0FF
330
747D
100
AcDbEntity
  8
細線
100
AcDbLine
 10
9076.137356965238
 20
4803.54920923283
 30
0.0
 11
9150.137356965238
 21
4803.54920923283
 31
0.0
  0
LINE
  5
1C100
330
747D
100
AcDbEntity
  8
細線
100
AcDbLine
 10
9076.137356965238
 20
4809.54920923283
 30
0.0
 11
9150.137356965238
 21
4809.54920923283
 31
0.0
  0
LINE
  5
1C101
330
747D
100
AcDbEntity
  8
細線
100
AcDbLine
 10
9150.137356965238
 20
4821.54920923283
 30
0.0
 11
9150.137356965238
 21
4798.549209232829
 31
0.0
  0
LINE
  5
1C102
330
747D
100
AcDbEntity
  8
細線
100
AcDbLine
 10
7920.137356965239
 20
4821.54920923283
 30
0.0
 11
7920.137356965234
 21
4798.549209232829
 31
0.0
  0
LINE
  5
1C103
330
747D
100
AcDbEntity
  8
細線
100
AcDbLine
 10
7994.137356965236
 20
4809.54920923283
 30
0.0
 11
7920.137356965239
 21
4809.54920923283
 31
0.0
  0
LINE
  5
1C104
330
747D
100
AcDbEntity
  8
細線
100
AcDbLine
 10
7994.137356965236
 20
4803.54920923283
 30
0.0
 11
7920.137356965239
 21
4803.54920923283
 31
0.0
  0
LINE
  5
1C105
330
747D
100
AcDbEntity
  8
細線
100
AcDbLine
 10
7994.137356965236
 20
4815.54920923283
 30
0.0
 11
7920.137356965239
 21
4815.54920923283
 31
0.0
  0
LINE
  5
1C106
330
747D
100
AcDbEntity
  8
細線
100
AcDbLine
 10
7846.13735696524
 20
4815.54920923283
 30
0.0
 11
7915.137356965239
 21
4815.54920923283
 31
0.0
  0
LINE
  5
1C107
330
747D
100
AcDbEntity
  8
細線
100
AcDbLine
 10
7846.137356965235
 20
4803.54920923283
 30
0.0
 11
7920.137356965239
 21
4803.54920923283
 31
0.0
  0
LINE
  5
1C108
330
747D
100
AcDbEntity
  8
細線
100
AcDbLine
 10
7846.13735696524
 20
4809.54920923283
 30
0.0
 11
7920.137356965239
 21
4809.54920923283
 31
0.0
  0
LINE
  5
1C109
330
747D
100
AcDbEntity
  8
細線
100
AcDbLine
 10
7846.13735696524
 20
4815.54920923283
 30
0.0
 11
7920.137356965239
 21
4815.54920923283
 31
0.0
  0
LINE
  5
1C10A
330
747D
100
AcDbEntity
  8
部品1
 48
0.01
100
AcDbLine
 10
8008.137356965239
 20
4828.04920923283
 30
0.0
 11
7832.137356965239
 21
4828.04920923283
 31
0.0
  0
LINE
  5
1C10B
330
747D
100
AcDbEntity
  8
部品1
 48
0.01
100
AcDbLine
 10
7830.137356965238
 20
4826.04920923283
 30
0.0
 11
7830.137356965238
 21
4794.549209232829
 31
0.0
  0
LINE
  5
1C10C
330
747D
100
AcDbEntity
  8
部品1
 48
0.01
100
AcDbLine
 10
8010.137356965236
 20
4794.549209232829
 30
0.0
 11
8010.137356965239
 21
4826.04920923283
 31
0.0
  0
LINE
  5
1C10D
330
747D
100
AcDbEntity
  8
細線
100
AcDbLine
 10
7846.13735696524
 20
4821.54920923283
 30
0.0
 11
7846.13735696524
 21
4798.549209232829
 31
0.0
  0
LINE
  5
1C10E
330
747D
100
AcDbEntity
  8
細線
100
AcDbLine
 10
7994.137356965238
 20
4798.549209232829
 30
0.0
 11
7994.137356965238
 21
4821.54920923283
 31
0.0
  0
LINE
  5
1C10F
330
747D
100
AcDbEntity
  8
細線
100
AcDbLine
 10
7994.137356965238
 20
4821.54920923283
 30
0.0
 11
7920.137356965239
 21
4821.54920923283
 31
0.0
  0
LINE
  5
1C110
330
747D
100
AcDbEntity
  8
細線
100
AcDbLine
 10
7846.13735696524
 20
4798.549209232829
 30
0.0
 11
7920.137356965239
 21
4798.549209232829
 31
0.0
  0
LINE
  5
1C111
330
747D
100
AcDbEntity
  8
細線
100
AcDbLine
 10
7920.137356965239
 20
4821.54920923283
 30
0.0
 11
7846.13735696524
 21
4821.54920923283
 31
0.0
  0
LINE
  5
1C112
330
747D
100
AcDbEntity
  8
細線
100
AcDbLine
 10
7920.137356965234
 20
4798.549209232829
 30
0.0
 11
7994.137356965238
 21
4798.549209232829
 31
0.0
  0
ARC
  5
1C113
330
747D
100
AcDbEntity
  8
部品1
 48
0.01
100
AcDbCircle
 10
7832.137356965239
 20
4826.04920923283
 30
0.0
 40
2.0
100
AcDbArc
 50
90.0
 51
180.0
  0
ARC
  5
1C114
330
747D
100
AcDbEntity
  8
部品1
 48
0.01
100
AcDbCircle
 10
8008.137356965239
 20
4826.04920923283
 30
0.0
 40
2.0
100
AcDbArc
 50
0.0
 51
90.0
  0
TEXT
  5
1C133
330
747D
100
AcDbEntity
  8
文字
 62
     7
 48
50.0
100
AcDbText
 10
13248.77747366448
 20
8210.013745883735
 30
0.0
 40
100.0
  1
17
  7
STYLE1
100
AcDbText
  0
TEXT
  5
1C134
330
747D
100
AcDbEntity
  8
文字
 62
     7
 48
50.0
100
AcDbText
 10
15022.63965474517
 20
9740.013745883725
 30
0.0
 40
100.0
  1
F12            2.3
  7
STYLE1
100
AcDbText
  0
TEXT
  5
1C135
330
747D
100
AcDbEntity
  8
文字
 62
     7
 48
50.0
100
AcDbText
 10
13583.11819016569
 20
9230.013745883731
 30
0.0
 40
100.0
  1
梁中補強パネル
  7
STYLE1
100
AcDbText
  0
TEXT
  5
1C136
330
747D
100
AcDbEntity
  8
文字
 62
     7
 48
50.0
100
AcDbText
 10
15022.63965474517
 20
9230.013745883725
 30
0.0
 40
100.0
  1
F12         0.7+1.2
  7
STYLE1
100
AcDbText
  0
DIMENSION
  5
1C1A3
330
747D
100
AcDbEntity
  8
寸法
 48
50.0
100
AcDbDimension
  2
*D46
 10
4926.978717225809
 20
9908.822872679301
 30
0.0
 11
4926.978717225808
 21
9646.846660753153
 31
0.0
 70
   160
 71
     5
 42
716.5000035771754
  3
INABA_S40G
100
AcDbAlignedDimension
 13
4615.137356964972
 23
9192.322869102126
 33
0.0
 14
4645.137356965206
 24
9908.822872679301
 34
0.0
 50
90.0
100
AcDbRotatedDimension
1001
ACAD
1000
DSTYLE
1002
{
1070
   174
1070
     0
1070
   272
1070
     1
1070
   341
1005
0
1002
}
  0
LINE
  5
1C1A4
330
747D
100
AcDbEntity
  8
部品1
 48
50.0
100
AcDbLine
 10
4565.137356964972
 20
9853.822869102124
 30
0.0
 11
4565.137356964972
 21
9192.322869102126
 31
0.0
  0
LINE
  5
1C1A5
330
747D
100
AcDbEntity
  8
部品1
 48
50.0
100
AcDbLine
 10
4565.137356964972
 20
9192.322869102126
 30
0.0
 11
4615.137356964972
 21
9192.322869102126
 31
0.0
  0
LINE
  5
1C1A6
330
747D
100
AcDbEntity
  8
部品1
 48
50.0
100
AcDbLine
 10
4615.137356964972
 20
9192.322869102126
 30
0.0
 11
4615.137356964972
 21
9853.822869102124
 31
0.0
  0
LINE
  5
1C1A7
330
747D
100
AcDbEntity
  8
部品1
100
AcDbLine
 10
4615.137356964972
 20
9469.498852538981
 30
0.0
 11
4565.13735696497
 21
9464.322869102124
 31
0.0
  0
LINE
  5
1C1A8
330
747D
100
AcDbEntity
  8
部品1
100
AcDbLine
 10
4615.137356964972
 20
9429.146885665272
 30
0.0
 11
4565.13735696497
 21
9434.322869102125
 31
0.0
  0
LINE
  5
1C1A9
330
747D
100
AcDbEntity
  8
部品1
100
AcDbLine
 10
4565.137356964972
 20
9274.322869102126
 30
0.0
 11
4615.137356964971
 21
9287.034733508901
 31
0.0
  0
LINE
  5
1C26B
330
747D
100
AcDbEntity
  8
部品1
 48
50.0
100
AcDbLine
 10
7195.137356965033
 20
9853.822871801305
 30
0.0
 11
7195.137356965034
 21
9192.322871801305
 31
0.0
  0
LINE
  5
1C26C
330
747D
100
AcDbEntity
  8
部品1
 48
50.0
100
AcDbLine
 10
7195.137356965033
 20
9192.322871801305
 30
0.0
 11
7245.137356965033
 21
9192.322871801305
 31
0.0
  0
LINE
  5
1C26D
330
747D
100
AcDbEntity
  8
部品1
 48
50.0
100
AcDbLine
 10
7245.137356965035
 20
9192.322871801305
 30
0.0
 11
7245.137356965033
 21
9853.822871801305
 31
0.0
  0
LINE
  5
1C26E
330
747D
100
AcDbEntity
  8
部品1
100
AcDbLine
 10
7245.137356965033
 20
9469.49885523816
 30
0.0
 11
7195.137356965031
 21
9464.322871801305
 31
0.0
  0
LINE
  5
1C26F
330
747D
100
AcDbEntity
  8
部品1
100
AcDbLine
 10
7245.137356965033
 20
9429.146888364453
 30
0.0
 11
7195.137356965031
 21
9434.322871801304
 31
0.0
  0
LINE
  5
1C270
330
747D
100
AcDbEntity
  8
部品1
100
AcDbLine
 10
7195.137356965033
 20
9274.322871801306
 30
0.0
 11
7245.137356965031
 21
9287.034736208083
 31
0.0
  0
TEXT
  5
1C29F
330
747D
100
AcDbEntity
  8
文字
 62
     7
 48
50.0
100
AcDbText
 10
14646.46056207479
 20
871.9640646083623
 30
0.0
 40
100.0
  1
～多雪地型～
  7
STYLE2
100
AcDbText
  0
TEXT
  5
1C2BD
330
747D
100
AcDbEntity
  8
文字
 62
     7
 48
50.0
100
AcDbText
 10
15022.63965474516
 20
8890.013745883727
 30
0.0
 40
100.0
  1
F12            0.7
  7
STYLE1
100
AcDbText
  0
LINE
  5
1C2D4
330
747D
100
AcDbEntity
  8
細線
100
AcDbLine
 10
4693.137356965235
 20
4567.049209232831
 30
0.0
 11
7117.137356965234
 21
4567.049209232831
 31
0.0
  0
LINE
  5
1C2D5
330
747D
100
AcDbEntity
  8
細線
100
AcDbLine
 10
4693.137356965235
 20
4502.049209232831
 30
0.0
 11
7117.137356965234
 21
4502.049209232831
 31
0.0
  0
LINE
  5
1C2D6
330
747D
100
AcDbEntity
  8
細線
 48
50.0
100
AcDbLine
 10
5605.137356965236
 20
3249.549209232831
 30
0.0
 11
5705.137356965235
 21
3249.549209232831
 31
0.0
  0
LINE
  5
1C2D7
330
747D
100
AcDbEntity
  8
細線
 48
50.0
100
AcDbLine
 10
5705.137356965235
 20
3219.549209232832
 30
0.0
 11
5605.137356965236
 21
3219.549209232832
 31
0.0
  0
LINE
  5
1C2D8
330
747D
100
AcDbEntity
  8
細線
100
AcDbLine
 10
4693.137356965235
 20
3202.049209232831
 30
0.0
 11
7117.137356965234
 21
3202.049209232831
 31
0.0
  0
LINE
  5
1C2D9
330
747D
100
AcDbEntity
  8
細線
100
AcDbLine
 10
4693.137356965235
 20
3137.049209232831
 30
0.0
 11
7117.137356965234
 21
3137.049209232831
 31
0.0
  0
LINE
  5
1C2DA
330
747D
100
AcDbEntity
  8
細線
100
AcDbLine
 10
4693.137356965235
 20
3072.049209232832
 30
0.0
 11
7117.137356965234
 21
3072.049209232832
 31
0.0
  0
LINE
  5
1C2DB
330
747D
100
AcDbEntity
  8
細線
100
AcDbLine
 10
4693.137356965235
 20
3007.049209232832
 30
0.0
 11
7117.137356965234
 21
3007.049209232832
 31
0.0
  0
LINE
  5
1C2DC
330
747D
100
AcDbEntity
  8
細線
100
AcDbLine
 10
4693.137356965235
 20
2942.049209232831
 30
0.0
 11
7117.137356965234
 21
2942.049209232831
 31
0.0
  0
LINE
  5
1C2DD
330
747D
100
AcDbEntity
  8
細線
100
AcDbLine
 10
4693.137356965235
 20
2877.049209232831
 30
0.0
 11
7117.137356965234
 21
2877.049209232831
 31
0.0
  0
LINE
  5
1C2DE
330
747D
100
AcDbEntity
  8
細線
100
AcDbLine
 10
4693.137356965235
 20
2812.049209232831
 30
0.0
 11
7117.137356965234
 21
2812.049209232831
 31
0.0
  0
LINE
  5
1C2DF
330
747D
100
AcDbEntity
  8
細線
100
AcDbLine
 10
4693.137356965235
 20
2747.049209232832
 30
0.0
 11
7117.137356965234
 21
2747.049209232832
 31
0.0
  0
LINE
  5
1C2E0
330
747D
100
AcDbEntity
  8
細線
100
AcDbLine
 10
4693.137356965235
 20
3852.049209232831
 30
0.0
 11
7117.137356965234
 21
3852.049209232831
 31
0.0
  0
LINE
  5
1C2E1
330
747D
100
AcDbEntity
  8
細線
100
AcDbLine
 10
4693.137356965235
 20
3787.049209232832
 30
0.0
 11
7117.137356965234
 21
3787.049209232832
 31
0.0
  0
LINE
  5
1C2E2
330
747D
100
AcDbEntity
  8
細線
100
AcDbLine
 10
4693.137356965235
 20
3722.049209232832
 30
0.0
 11
7117.137356965234
 21
3722.049209232832
 31
0.0
  0
LINE
  5
1C2E3
330
747D
100
AcDbEntity
  8
細線
100
AcDbLine
 10
4693.137356965235
 20
3657.049209232832
 30
0.0
 11
7117.137356965234
 21
3657.049209232832
 31
0.0
  0
LINE
  5
1C2E4
330
747D
100
AcDbEntity
  8
細線
100
AcDbLine
 10
4693.137356965235
 20
3592.049209232832
 30
0.0
 11
7117.137356965234
 21
3592.049209232832
 31
0.0
  0
LINE
  5
1C2E5
330
747D
100
AcDbEntity
  8
細線
100
AcDbLine
 10
4693.137356965235
 20
3527.049209232831
 30
0.0
 11
7117.137356965234
 21
3527.049209232831
 31
0.0
  0
LINE
  5
1C2E6
330
747D
100
AcDbEntity
  8
細線
100
AcDbLine
 10
4693.137356965235
 20
3462.049209232831
 30
0.0
 11
7117.137356965234
 21
3462.049209232831
 31
0.0
  0
LINE
  5
1C2E7
330
747D
100
AcDbEntity
  8
細線
100
AcDbLine
 10
4693.137356965235
 20
3397.049209232831
 30
0.0
 11
7117.137356965234
 21
3397.049209232831
 31
0.0
  0
LINE
  5
1C2E8
330
747D
100
AcDbEntity
  8
細線
100
AcDbLine
 10
4693.137356965235
 20
3332.049209232831
 30
0.0
 11
7117.137356965234
 21
3332.049209232831
 31
0.0
  0
LINE
  5
1C2E9
330
747D
100
AcDbEntity
  8
細線
100
AcDbLine
 10
4693.137356965235
 20
3267.049209232832
 30
0.0
 11
7117.137356965234
 21
3267.049209232832
 31
0.0
  0
LINE
  5
1C2EA
330
747D
100
AcDbEntity
  8
細線
100
AcDbLine
 10
4693.137356965235
 20
4242.049209232831
 30
0.0
 11
7117.137356965234
 21
4242.049209232831
 31
0.0
  0
LINE
  5
1C2EB
330
747D
100
AcDbEntity
  8
細線
100
AcDbLine
 10
4693.137356965235
 20
4177.049209232831
 30
0.0
 11
7117.137356965234
 21
4177.049209232831
 31
0.0
  0
LINE
  5
1C2EC
330
747D
100
AcDbEntity
  8
細線
100
AcDbLine
 10
4693.137356965235
 20
4112.049209232831
 30
0.0
 11
7117.137356965234
 21
4112.049209232831
 31
0.0
  0
LINE
  5
1C2ED
330
747D
100
AcDbEntity
  8
細線
100
AcDbLine
 10
4693.137356965235
 20
4047.049209232831
 30
0.0
 11
7117.137356965234
 21
4047.049209232831
 31
0.0
  0
LINE
  5
1C2EE
330
747D
100
AcDbEntity
  8
細線
100
AcDbLine
 10
4693.137356965235
 20
3982.049209232832
 30
0.0
 11
7117.137356965234
 21
3982.049209232832
 31
0.0
  0
LINE
  5
1C2EF
330
747D
100
AcDbEntity
  8
細線
100
AcDbLine
 10
4693.137356965235
 20
3917.049209232832
 30
0.0
 11
7117.137356965234
 21
3917.049209232832
 31
0.0
  0
LINE
  5
1C2F0
330
747D
100
AcDbEntity
  8
細線
100
AcDbLine
 10
4693.137356965235
 20
4437.049209232831
 30
0.0
 11
7117.137356965234
 21
4437.049209232831
 31
0.0
  0
LINE
  5
1C2F1
330
747D
100
AcDbEntity
  8
細線
100
AcDbLine
 10
4693.137356965235
 20
4372.049209232831
 30
0.0
 11
7117.137356965234
 21
4372.049209232831
 31
0.0
  0
LINE
  5
1C2F2
330
747D
100
AcDbEntity
  8
細線
100
AcDbLine
 10
4693.137356965235
 20
4307.049209232832
 30
0.0
 11
7117.137356965234
 21
4307.049209232832
 31
0.0
  0
ARC
  5
1C2F3
330
747D
100
AcDbEntity
  8
細線
 48
50.0
100
AcDbCircle
 10
5605.137356965236
 20
3234.549209232831
 30
0.0
 40
15.0
100
AcDbArc
 50
90.0
 51
270.0
  0
ARC
  5
1C2F4
330
747D
100
AcDbEntity
  8
細線
 48
50.0
100
AcDbCircle
 10
5705.137356965235
 20
3234.549209232831
 30
0.0
 40
15.0
100
AcDbArc
 50
270.0
 51
90.0
  0
LINE
  5
1C2F5
330
747D
100
AcDbEntity
  8
細線
 48
50.0
100
AcDbLine
 10
6205.137356965235
 20
3219.549209232832
 30
0.0
 11
6105.137356965236
 21
3219.549209232832
 31
0.0
  0
LINE
  5
1C2F6
330
747D
100
AcDbEntity
  8
細線
 48
50.0
100
AcDbLine
 10
6105.137356965236
 20
3249.549209232831
 30
0.0
 11
6205.137356965235
 21
3249.549209232831
 31
0.0
  0
ARC
  5
1C2F7
330
747D
100
AcDbEntity
  8
細線
 48
50.0
100
AcDbCircle
 10
6105.137356965236
 20
3234.549209232831
 30
0.0
 40
15.0
100
AcDbArc
 50
90.0
 51
270.0
  0
ARC
  5
1C2F8
330
747D
100
AcDbEntity
  8
細線
 48
50.0
100
AcDbCircle
 10
6205.137356965235
 20
3234.549209232831
 30
0.0
 40
15.0
100
AcDbArc
 50
270.0
 51
90.0
  0
CIRCLE
  5
1C2F9
330
747D
100
AcDbEntity
  8
細線
 48
50.0
100
AcDbCircle
 10
5905.137356965235
 20
3559.549209232832
 30
0.0
 40
18.0
  0
LINE
  5
1C2FA
330
747D
100
AcDbEntity
  8
細線
100
AcDbLine
 10
7117.137356965234
 20
2682.049209232832
 30
0.0
 11
4693.137356965231
 21
2682.049209232832
 31
0.0
  0
LINE
  5
1C2FB
330
747D
100
AcDbEntity
  8
部品1
100
AcDbLine
 10
4645.137356965235
 20
2622.049209232832
 30
0.0
 11
7165.137356965235
 21
2622.049209232832
 31
0.0
  0
LINE
  5
1C2FC
330
747D
100
AcDbEntity
  8
部品1
100
AcDbLine
 10
4645.137356965235
 20
2672.049209232831
 30
0.0
 11
7165.137356965235
 21
2672.049209232831
 31
0.0
  0
MTEXT
  5
1C2FD
330
747D
100
AcDbEntity
  8
寸法
 62
     7
 48
50.0
100
AcDbMText
 10
6567.852555037908
 20
9493.229141646436
 30
0.0
 40
96.0
 41
0.0
 71
     5
 72
     1
  1
棚 3段
  7
STYLE1
 73
     1
 44
1.0
1001
ACAD
1000
MTEXTBEGIN
1070
    73
1070
     1
1070
    44
1040
1.0
1070
    74
1070
     0
1000
MTEXTEND
  0
MTEXT
  5
1C2FE
330
747D
100
AcDbEntity
  8
寸法
 62
     7
 48
50.0
100
AcDbMText
 10
5267.852555037907
 20
9493.229141646386
 30
0.0
 40
96.0
 41
0.0
 71
     5
 72
     1
  1
棚 3段
  7
STYLE1
 73
     1
 44
1.0
1001
ACAD
1000
MTEXTBEGIN
1070
    73
1070
     1
1070
    44
1040
1.0
1070
    74
1070
     0
1000
MTEXTEND
  0
LINE
  5
1C2FF
330
747D
100
AcDbEntity
  8
部品1
 48
50.0
100
AcDbLine
 10
4657.137356965264
 20
7744.322872679278
 30
0.0
 11
7153.13735696525
 21
7744.322872679278
 31
0.0
  0
SPLINE
  5
1C30F
330
747D
100
AcDbEntity
  8
部品1
 48
50.0
100
AcDbSpline
210
0.0
220
0.0
230
1.0
 70
     8
 71
     3
 72
    10
 73
     6
 74
     4
 42
0.0000000001
 43
0.0000000001
 44
0.0000000001
 40
0.0
 40
0.0
 40
0.0
 40
0.0
 40
147.8767566010009
 40
301.8091093202477
 40
466.5049223087734
 40
466.5049223087734
 40
466.5049223087734
 40
466.5049223087734
 10
5972.707684698323
 20
8885.06402520505
 30
0.0
 10
5895.826002203488
 20
8876.15959154721
 30
0.0
 10
5738.914309993361
 20
8857.986085087878
 30
0.0
 10
6061.727719937704
 20
8755.465500448538
 30
0.0
 10
5891.885100268329
 20
8736.830411736333
 30
0.0
 10
5804.095095061436
 20
8727.198114859024
 30
0.0
 11
5972.707684698323
 21
8885.06402520505
 31
0.0
 11
5829.869706389553
 21
8846.79070426872
 31
0.0
 11
5963.179034308728
 21
8769.824527909097
 31
0.0
 11
5804.095095061436
 21
8727.198114859024
 31
0.0
  0
LINE
  5
1C310
330
747D
100
AcDbEntity
  8
部品1
 48
50.0
100
AcDbLine
 10
6223.327022977231
 20
9991.322872679262
 30
0.0
 11
5566.851501520932
 21
7541.322872679076
 31
0.0
  0
SPLINE
  5
1C317
330
747D
100
AcDbEntity
  8
部品1
 48
50.0
100
AcDbSpline
210
0.0
220
0.0
230
1.0
 70
     8
 71
     3
 72
    10
 73
     6
 74
     4
 42
0.0000000001
 43
0.0000000001
 44
0.0000000001
 40
0.0
 40
0.0
 40
0.0
 40
0.0
 40
147.8767566010009
 40
301.8091093202477
 40
466.5049223087734
 40
466.5049223087734
 40
466.5049223087734
 40
466.5049223087734
 10
5972.707684698287
 20
3640.790361758624
 30
0.0
 10
5895.826002203451
 20
3631.885928100786
 30
0.0
 10
5738.914309993323
 20
3613.712421641454
 30
0.0
 10
6061.727719937668
 20
3511.191837002112
 30
0.0
 10
5891.885100268294
 20
3492.556748289908
 30
0.0
 10
5804.095095061399
 20
3482.924451412599
 30
0.0
 11
5972.707684698287
 21
3640.790361758624
 31
0.0
 11
5829.869706389517
 21
3602.517040822295
 31
0.0
 11
5963.179034308691
 21
3525.550864462672
 31
0.0
 11
5804.095095061399
 21
3482.924451412599
 31
0.0
  0
LINE
  5
1C318
330
747D
100
AcDbEntity
  8
部品1
 48
50.0
100
AcDbLine
 10
6330.506699949642
 20
5147.049209232833
 30
0.0
 11
5560.152771710164
 21
2272.049209232831
 31
0.0
  0
LINE
  5
1C32A
330
747D
100
AcDbEntity
  8
破線
 48
5.0
100
AcDbLine
 10
4590.137356965238
 20
2347.049209232834
 30
0.0
 11
4590.137356965238
 21
2272.049209232834
 31
0.0
  0
LINE
  5
1C32B
330
747D
100
AcDbEntity
  8
破線
  6
HIDDEN
 48
5.0
100
AcDbLine
 10
4645.137356965238
 20
2522.049209232835
 30
0.0
 11
4645.137356965238
 21
2347.049209232834
 31
0.0
  0
LINE
  5
1C32C
330
747D
100
AcDbEntity
  8
破線
  6
HIDDEN
 48
5.0
100
AcDbLine
 10
4645.137356965236
 20
2347.049209232834
 30
0.0
 11
4535.137356965239
 21
2347.049209232834
 31
0.0
  0
LINE
  5
1C32D
330
747D
100
AcDbEntity
  8
破線
  6
HIDDEN
 48
5.0
100
AcDbLine
 10
4535.137356965239
 20
2522.049209232835
 30
0.0
 11
4535.137356965239
 21
2347.049209232834
 31
0.0
  0
LINE
  5
1C336
330
747D
100
AcDbEntity
  8
破線
 48
5.0
100
AcDbLine
 10
7220.137356965238
 20
2347.049209232834
 30
0.0
 11
7220.137356965238
 21
2272.049209232834
 31
0.0
  0
LINE
  5
1C337
330
747D
100
AcDbEntity
  8
破線
  6
HIDDEN
 48
5.0
100
AcDbLine
 10
7275.137356965238
 20
2522.049209232835
 30
0.0
 11
7275.137356965238
 21
2347.049209232834
 31
0.0
  0
LINE
  5
1C338
330
747D
100
AcDbEntity
  8
破線
  6
HIDDEN
 48
5.0
100
AcDbLine
 10
7275.137356965237
 20
2347.049209232834
 30
0.0
 11
7165.137356965239
 21
2347.049209232834
 31
0.0
  0
LINE
  5
1C339
330
747D
100
AcDbEntity
  8
破線
  6
HIDDEN
 48
5.0
100
AcDbLine
 10
7165.137356965239
 20
2522.049209232835
 30
0.0
 11
7165.137356965239
 21
2347.049209232834
 31
0.0
  0
ENDSEC
  0
SECTION
  2
OBJECTS
  0
DICTIONARY
  5
7471
330
0
100
AcDbDictionary
281
     1
  3
ACAD_COLOR
350
1A3E8
  3
ACAD_GROUP
350
7472
  3
ACAD_LAYOUT
350
1A3E9
  3
ACAD_MATERIAL
350
1A3E7
  3
ACAD_MLINESTYLE
350
7473
  3
ACAD_PLOTSETTINGS
350
1A3EA
  3
ACAD_PLOTSTYLENAME
350
1A3E5
  3
ACDBHEADERROUNDTRIPXREC
350
1C365
  3
AcDbVariableDictionary
350
1C361
  3
CONTENTDICTIONARY
350
E71C
  3
DRAWINGVARIABLESDICT
350
F3B9
  0
DICTIONARY
  5
1A6FE
330
7467
100
AcDbDictionary
280
     1
281
     1
  3
ACAD_LAYERSTATES
360
1A6FF
  0
DICTIONARY
  5
1A3E8
102
{ACAD_REACTORS
330
7471
102
}
330
7471
100
AcDbDictionary
281
     1
  0
DICTIONARY
  5
7472
102
{ACAD_REACTORS
330
7471
102
}
330
7471
100
AcDbDictionary
281
     1
  0
DICTIONARY
  5
1A3E9
102
{ACAD_REACTORS
330
7471
102
}
330
7471
100
AcDbDictionary
281
     1
  3
Model
350
1A3EB
  3
レイアウト1
350
1A3EC
  0
DICTIONARY
  5
1A3E7
102
{ACAD_REACTORS
330
7471
102
}
330
7471
100
AcDbDictionary
281
     1
  0
DICTIONARY
  5
7473
102
{ACAD_REACTORS
330
7471
102
}
330
7471
100
AcDbDictionary
281
     1
  3
STANDARD
350
7480
  0
DICTIONARY
  5
1A3EA
102
{ACAD_REACTORS
330
7471
102
}
330
7471
100
AcDbDictionary
281
     1
  0
ACDBDICTIONARYWDFLT
  5
1A3E5
102
{ACAD_REACTORS
330
7471
102
}
330
7471
100
AcDbDictionary
281
     1
  3
Normal
350
1A3E6
100
AcDbDictionaryWithDefault
340
1A3E6
  0
DICTIONARY
  5
1C365
102
{ACAD_REACTORS
330
7471
102
}
330
7471
100
AcDbDictionary
281
     1
  3
COLORDICT
350
1C367
  3
MATERIALDICT
350
1C366
  0
DICTIONARY
  5
1C361
102
{ACAD_REACTORS
330
7471
102
}
330
7471
100
AcDbDictionary
281
     1
  3
DIMASSOC
350
1C362
  3
PROJECTNAME
350
1C363
  0
DICTIONARY
  5
E71C
102
{ACAD_REACTORS
330
7471
102
}
330
7471
100
AcDbDictionary
281
     1
  0
DICTIONARY
  5
F3B9
102
{ACAD_REACTORS
330
7471
102
}
330
7471
100
AcDbDictionary
281
     1
1001
DRAWINGVARIABLESXDATA
1000
POLARMODE
1000
1
  0
DICTIONARY
  5
1A6FF
102
{ACAD_REACTORS
330
1A6FE
102
}
330
1A6FE
100
AcDbDictionary
281
     1
  0
LAYOUT
  5
1A3EB
102
{ACAD_XDICTIONARY
360
1C368
102
}
102
{ACAD_REACTORS
330
1A3E9
102
}
330
1A3E9
100
AcDbPlotSettings
  1

  2
none_device
  4
Letter_(8.50_x_11.00_Inches)
  6

 40
6.349999904632568
 41
6.349999904632568
 42
6.350006103515625
 43
6.350006103515625
 44
215.8999938964844
 45
279.3999938964844
 46
0.0
 47
0.0
 48
0.0
 49
0.0
140
0.0
141
0.0
142
1.0
143
1.0
 70
 11952
 72
     1
 73
     1
 74
     0
  7
inaba.ctb
 75
     0
147
1.0
148
-2464.885871831639
149
54.00225262481853
100
AcDbLayout
  1
Model
 70
     1
 71
     0
 10
0.0
 20
0.0
 11
12.0
 21
9.0
 12
0.0
 22
0.0
 32
0.0
 14
0.0
 24
0.0
 34
0.0
 15
0.0
 25
0.0
 35
0.0
146
0.0
 13
0.0
 23
0.0
 33
0.0
 16
1.0
 26
0.0
 36
0.0
 17
0.0
 27
1.0
 37
0.0
 76
     0
330
747D
  0
LAYOUT
  5
1A3EC
102
{ACAD_XDICTIONARY
360
1C36A
102
}
102
{ACAD_REACTORS
330
1A3E9
102
}
330
1A3E9
100
AcDbPlotSettings
  1

  2
EPSON LP-8300
  4

  6

 40
0.0
 41
0.0
 42
0.0
 43
0.0
 44
0.0
 45
0.0
 46
0.0
 47
0.0
 48
0.0
 49
0.0
140
0.0
141
0.0
142
1.0
143
1.0
 70
   688
 72
     0
 73
     0
 74
     5
  7
inaba.ctb
 75
    16
147
1.0
148
0.0
149
0.0
100
AcDbLayout
  1
レイアウト1
 70
     0
 71
     1
 10
0.0
 20
0.0
 11
420.0
 21
297.0
 12
0.0
 22
0.0
 32
0.0
 14
1.000000000000000E+20
 24
1.000000000000000E+20
 34
1.000000000000000E+20
 15
-1.000000000000000E+20
 25
-1.000000000000000E+20
 35
-1.000000000000000E+20
146
0.0
 13
0.0
 23
0.0
 33
0.0
 16
1.0
 26
0.0
 36
0.0
 17
0.0
 27
1.0
 37
0.0
 76
     0
330
747A
  0
MLINESTYLE
  5
7480
102
{ACAD_REACTORS
330
7473
102
}
330
7473
100
AcDbMlineStyle
  2
STANDARD
 70
     0
  3

 62
     0
 51
90.0
 52
90.0
 71
     2
 49
0.5
 62
   256
  6
BYLAYER
 49
-0.5
 62
   256
  6
BYLAYER
  0
ACDBPLACEHOLDER
  5
1A3E6
102
{ACAD_REACTORS
330
1A3E5
102
}
330
1A3E5
  0
XRECORD
  5
1C367
102
{ACAD_REACTORS
330
1C365
102
}
330
1C365
100
AcDbXrecord
280
     1
340
1A3E8
  0
XRECORD
  5
1C366
102
{ACAD_REACTORS
330
1C365
102
}
330
1C365
100
AcDbXrecord
280
     1
340
1A3E7
  0
DICTIONARYVAR
  5
1C362
102
{ACAD_REACTORS
330
1C361
102
}
330
1C361
100
DictionaryVariables
280
     0
  1
1
  0
DICTIONARYVAR
  5
1C363
102
{ACAD_REACTORS
330
1C361
102
}
330
1C361
100
DictionaryVariables
280
     0
  1

  0
DICTIONARY
  5
1C368
330
1A3EB
100
AcDbDictionary
280
     1
281
     1
  3
ACAD_XREC_ROUNDTRIP
360
1C369
  0
DICTIONARY
  5
1C36A
330
1A3EC
100
AcDbDictionary
280
     1
281
     1
  3
ACAD_XREC_ROUNDTRIP
360
1C36B
  0
XRECORD
  5
1C369
102
{ACAD_REACTORS
330
1C368
102
}
330
1C368
100
AcDbXrecord
280
     1
102
SHADEPLOT
 70
     0
102
SHADEPLOTRESLEVEL
 70
     2
102
SHADEPLOTCUSTOMDPI
 70
   300
  0
XRECORD
  5
1C36B
102
{ACAD_REACTORS
330
1C36A
102
}
330
1C36A
100
AcDbXrecord
280
     1
102
SHADEPLOT
 70
     0
102
SHADEPLOTRESLEVEL
 70
     2
102
SHADEPLOTCUSTOMDPI
 70
   300
  0
ENDSEC
  0
EOF
