  0
SECTION
  2
HEADER
  9
$ACADVER
  1
AC1015
  9
$ACADMAINTVER
 70
    20
  9
$DWGCODEPAGE
  3
ANSI_932
  9
$INSBASE
 10
0.0
 20
0.0
 30
0.0
  9
$EXTMIN
 10
139.9999999999995
 20
-0.0000000000000909
 30
0.0
  9
$EXTMAX
 10
16307.2
 20
11409.6
 30
0.0
  9
$LIMMIN
 10
0.0
 20
0.0
  9
$LIMMAX
 10
16800.0
 20
11880.0
  9
$ORTHOMODE
 70
     0
  9
$REGENMODE
 70
     1
  9
$FILLMODE
 70
     1
  9
$QTEXTMODE
 70
     0
  9
$MIRRTEXT
 70
     1
  9
$LTSCALE
 40
20.0
  9
$ATTMODE
 70
     1
  9
$TEXTSIZE
 40
100.0
  9
$TRACEWID
 40
1.0
  9
$TEXTSTYLE
  7
STYLE2
  9
$CLAYER
  8
部品1
  9
$CELTYPE
  6
BYLAYER
  9
$CECOLOR
 62
   256
  9
$CELTSCALE
 40
50.0
  9
$DISPSILH
 70
     0
  9
$DIMSCALE
 40
40.0
  9
$DIMASZ
 40
2.5
  9
$DIMEXO
 40
0.5
  9
$DIMDLI
 40
7.0
  9
$DIMRND
 40
0.0
  9
$DIMDLE
 40
0.0
  9
$DIMEXE
 40
1.5
  9
$DIMTP
 40
0.0
  9
$DIMTM
 40
0.0
  9
$DIMTXT
 40
3.0
  9
$DIMCEN
 40
0.0
  9
$DIMTSZ
 40
0.0
  9
$DIMTOL
 70
     0
  9
$DIMLIM
 70
     0
  9
$DIMTIH
 70
     0
  9
$DIMTOH
 70
     0
  9
$DIMSE1
 70
     0
  9
$DIMSE2
 70
     0
  9
$DIMTAD
 70
     3
  9
$DIMZIN
 70
     8
  9
$DIMBLK
  1

  9
$DIMASO
 70
     1
  9
$DIMSHO
 70
     1
  9
$DIMPOST
  1

  9
$DIMAPOST
  1

  9
$DIMALT
 70
     0
  9
$DIMALTD
 70
     2
  9
$DIMALTF
 40
0.0394
  9
$DIMLFAC
 40
1.0
  9
$DIMTOFL
 70
     1
  9
$DIMTVP
 40
0.0
  9
$DIMTIX
 70
     1
  9
$DIMSOXD
 70
     0
  9
$DIMSAH
 70
     1
  9
$DIMBLK1
  1
DOTSMALL
  9
$DIMBLK2
  1
DOTSMALL
  9
$DIMSTYLE
  2
INABA_S40G
  9
$DIMCLRD
 70
     0
  9
$DIMCLRE
 70
     0
  9
$DIMCLRT
 70
     7
  9
$DIMTFAC
 40
1.0
  9
$DIMGAP
 40
1.0
  9
$DIMJUST
 70
     0
  9
$DIMSD1
 70
     0
  9
$DIMSD2
 70
     0
  9
$DIMTOLJ
 70
     1
  9
$DIMTZIN
 70
     0
  9
$DIMALTZ
 70
     0
  9
$DIMALTTZ
 70
     0
  9
$DIMUPT
 70
     0
  9
$DIMDEC
 70
     1
  9
$DIMTDEC
 70
     4
  9
$DIMALTU
 70
     2
  9
$DIMALTTD
 70
     2
  9
$DIMTXSTY
  7
STYLE1
  9
$DIMAUNIT
 70
     0
  9
$DIMADEC
 70
     0
  9
$DIMALTRND
 40
0.0
  9
$DIMAZIN
 70
     0
  9
$DIMDSEP
 70
    46
  9
$DIMATFIT
 70
     3
  9
$DIMFRAC
 70
     0
  9
$DIMLDRBLK
  1

  9
$DIMLUNIT
 70
     2
  9
$DIMLWD
 70
    -2
  9
$DIMLWE
 70
    -2
  9
$DIMTMOVE
 70
     2
  9
$LUNITS
 70
     2
  9
$LUPREC
 70
     1
  9
$SKETCHINC
 40
1.0
  9
$FILLETRAD
 40
3.0
  9
$AUNITS
 70
     0
  9
$AUPREC
 70
     0
  9
$MENU
  1
acad
  9
$ELEVATION
 40
0.0
  9
$PELEVATION
 40
0.0
  9
$THICKNESS
 40
0.0
  9
$LIMCHECK
 70
     0
  9
$CHAMFERA
 40
0.0
  9
$CHAMFERB
 40
0.0
  9
$CHAMFERC
 40
0.0
  9
$CHAMFERD
 40
0.0
  9
$SKPOLY
 70
     0
  9
$TDCREATE
 40
2451368.612993866
  9
$TDUCREATE
 40
2451368.237993866
  9
$TDUPDATE
 40
2455569.622470336
  9
$TDUUPDATE
 40
2455569.247470336
  9
$TDINDWG
 40
0.7611327778
  9
$TDUSRTIMER
 40
0.7611327778
  9
$USRTIMER
 70
     1
  9
$ANGBASE
 50
0.0
  9
$ANGDIR
 70
     0
  9
$PDMODE
 70
     3
  9
$PDSIZE
 40
2.0
  9
$PLINEWID
 40
0.0
  9
$SPLFRAME
 70
     0
  9
$SPLINETYPE
 70
     6
  9
$SPLINESEGS
 70
     8
  9
$HANDSEED
  5
1957B
  9
$SURFTAB1
 70
     6
  9
$SURFTAB2
 70
     6
  9
$SURFTYPE
 70
     6
  9
$SURFU
 70
     6
  9
$SURFV
 70
     6
  9
$UCSBASE
  2

  9
$UCSNAME
  2

  9
$UCSORG
 10
0.0
 20
0.0
 30
0.0
  9
$UCSXDIR
 10
1.0
 20
0.0
 30
0.0
  9
$UCSYDIR
 10
0.0
 20
1.0
 30
0.0
  9
$UCSORTHOREF
  2

  9
$UCSORTHOVIEW
 70
     0
  9
$UCSORGTOP
 10
0.0
 20
0.0
 30
0.0
  9
$UCSORGBOTTOM
 10
0.0
 20
0.0
 30
0.0
  9
$UCSORGLEFT
 10
0.0
 20
0.0
 30
0.0
  9
$UCSORGRIGHT
 10
0.0
 20
0.0
 30
0.0
  9
$UCSORGFRONT
 10
0.0
 20
0.0
 30
0.0
  9
$UCSORGBACK
 10
0.0
 20
0.0
 30
0.0
  9
$PUCSBASE
  2

  9
$PUCSNAME
  2

  9
$PUCSORG
 10
0.0
 20
0.0
 30
0.0
  9
$PUCSXDIR
 10
1.0
 20
0.0
 30
0.0
  9
$PUCSYDIR
 10
0.0
 20
1.0
 30
0.0
  9
$PUCSORTHOREF
  2

  9
$PUCSORTHOVIEW
 70
     0
  9
$PUCSORGTOP
 10
0.0
 20
0.0
 30
0.0
  9
$PUCSORGBOTTOM
 10
0.0
 20
0.0
 30
0.0
  9
$PUCSORGLEFT
 10
0.0
 20
0.0
 30
0.0
  9
$PUCSORGRIGHT
 10
0.0
 20
0.0
 30
0.0
  9
$PUCSORGFRONT
 10
0.0
 20
0.0
 30
0.0
  9
$PUCSORGBACK
 10
0.0
 20
0.0
 30
0.0
  9
$USERI1
 70
     0
  9
$USERI2
 70
     0
  9
$USERI3
 70
     0
  9
$USERI4
 70
     0
  9
$USERI5
 70
     0
  9
$USERR1
 40
0.0
  9
$USERR2
 40
0.0
  9
$USERR3
 40
0.0
  9
$USERR4
 40
0.0
  9
$USERR5
 40
0.0
  9
$WORLDVIEW
 70
     1
  9
$SHADEDGE
 70
     3
  9
$SHADEDIF
 70
    70
  9
$TILEMODE
 70
     1
  9
$MAXACTVP
 70
    16
  9
$PINSBASE
 10
0.0
 20
0.0
 30
0.0
  9
$PLIMCHECK
 70
     0
  9
$PEXTMIN
 10
1.000000000000000E+20
 20
1.000000000000000E+20
 30
1.000000000000000E+20
  9
$PEXTMAX
 10
-1.000000000000000E+20
 20
-1.000000000000000E+20
 30
-1.000000000000000E+20
  9
$PLIMMIN
 10
0.0
 20
0.0
  9
$PLIMMAX
 10
420.0
 20
297.0
  9
$UNITMODE
 70
     0
  9
$VISRETAIN
 70
     0
  9
$PLINEGEN
 70
     0
  9
$PSLTSCALE
 70
     0
  9
$TREEDEPTH
 70
  3020
  9
$CMLSTYLE
  2
STANDARD
  9
$CMLJUST
 70
     0
  9
$CMLSCALE
 40
1.0
  9
$PROXYGRAPHICS
 70
     1
  9
$MEASUREMENT
 70
     1
  9
$CELWEIGHT
370
    -1
  9
$ENDCAPS
280
     0
  9
$JOINSTYLE
280
     0
  9
$LWDISPLAY
290
     0
  9
$INSUNITS
 70
     0
  9
$HYPERLINKBASE
  1

  9
$STYLESHEET
  1

  9
$XEDIT
290
     1
  9
$CEPSNTYPE
380
     0
  9
$PSTYLEMODE
290
     1
  9
$FINGERPRINTGUID
  2
{90FFB02D-C9DE-41F5-AB0E-1E3A343E0AE5}
  9
$VERSIONGUID
  2
{88243A0A-48C5-41E5-A34B-9950013EEBAF}
  9
$EXTNAMES
290
     1
  9
$PSVPSCALE
 40
0.0
  9
$OLESTARTUP
290
     0
  0
ENDSEC
  0
SECTION
  2
CLASSES
  0
CLASS
  1
ACDBDICTIONARYWDFLT
  2
AcDbDictionaryWithDefault
  3
ObjectDBX Classes
 90
        0
280
     0
281
     0
  0
CLASS
  1
DICTIONARYVAR
  2
AcDbDictionaryVar
  3
ObjectDBX Classes
 90
        0
280
     0
281
     0
  0
CLASS
  1
ACDBPLACEHOLDER
  2
AcDbPlaceHolder
  3
ObjectDBX Classes
 90
        0
280
     0
281
     0
  0
CLASS
  1
LAYOUT
  2
AcDbLayout
  3
ObjectDBX Classes
 90
        0
280
     0
281
     0
  0
ENDSEC
  0
SECTION
  2
TABLES
  0
TABLE
  2
VPORT
  5
746D
330
0
100
AcDbSymbolTable
 70
     2
  0
VPORT
  5
19573
330
746D
100
AcDbSymbolTableRecord
100
AcDbViewportTableRecord
  2
*Active
 70
     0
 10
0.0
 20
0.0
 11
1.0
 21
1.0
 12
8223.761025238504
 22
5958.717255377889
 13
0.0
 23
0.0
 14
10.0
 24
10.0
 15
10.0
 25
10.0
 16
0.0
 26
0.0
 36
1.0
 17
0.0
 27
0.0
 37
0.0
 40
12025.80300167551
 41
1.627450980392157
 42
50.0
 43
0.0
 44
0.0
 50
0.0
 51
0.0
 71
     0
 72
     0
 73
     1
 74
     0
 75
     0
 76
     0
 77
     0
 78
     0
281
     0
 65
     1
110
0.0
120
0.0
130
0.0
111
1.0
121
0.0
131
0.0
112
0.0
122
1.0
132
0.0
 79
     0
146
0.0
  0
ENDTAB
  0
TABLE
  2
LTYPE
  5
746A
330
0
100
AcDbSymbolTable
 70
     3
  0
LTYPE
  5
7477
330
746A
100
AcDbSymbolTableRecord
100
AcDbLinetypeTableRecord
  2
BYBLOCK
 70
     0
  3

 72
    65
 73
     0
 40
0.0
  0
LTYPE
  5
7478
330
746A
100
AcDbSymbolTableRecord
100
AcDbLinetypeTableRecord
  2
BYLAYER
 70
     0
  3

 72
    65
 73
     0
 40
0.0
  0
LTYPE
  5
7479
330
746A
100
AcDbSymbolTableRecord
100
AcDbLinetypeTableRecord
  2
CONTINUOUS
 70
     0
  3
Solid line
 72
    65
 73
     0
 40
0.0
  0
LTYPE
  5
781A
330
746A
100
AcDbSymbolTableRecord
100
AcDbLinetypeTableRecord
  2
HIDDEN
 70
     0
  3
__ __ __ __ __ __ __ __ __ __ __ __ __ __ __ __
 72
    65
 73
     2
 40
0.375
 49
0.25
 74
     0
 49
-0.125
 74
     0
  0
LTYPE
  5
781B
330
746A
100
AcDbSymbolTableRecord
100
AcDbLinetypeTableRecord
  2
PHANTOM
 70
     0
  3
______  __  __  ______  __  __  ______  __  __ 
 72
    65
 73
     6
 40
2.5
 49
1.25
 74
     0
 49
-0.25
 74
     0
 49
0.25
 74
     0
 49
-0.25
 74
     0
 49
0.25
 74
     0
 49
-0.25
 74
     0
  0
ENDTAB
  0
TABLE
  2
LAYER
  5
7467
102
{ACAD_XDICTIONARY
360
1726D
102
}
330
0
100
AcDbSymbolTable
 70
    10
  0
LAYER
  5
7474
330
7467
100
AcDbSymbolTableRecord
100
AcDbLayerTableRecord
  2
0
 70
     0
 62
     7
  6
CONTINUOUS
370
    -3
390
16E24
  0
LAYER
  5
DEB3
330
7467
100
AcDbSymbolTableRecord
100
AcDbLayerTableRecord
  2
寸法
 70
     0
 62
     4
  6
CONTINUOUS
370
    -3
390
16E24
  0
LAYER
  5
DEB4
330
7467
100
AcDbSymbolTableRecord
100
AcDbLayerTableRecord
  2
部品1
 70
     0
 62
     7
  6
CONTINUOUS
370
    -3
390
16E24
  0
LAYER
  5
DEB5
330
7467
100
AcDbSymbolTableRecord
100
AcDbLayerTableRecord
  2
補助
 70
     0
 62
    -1
  6
CONTINUOUS
370
    -3
390
16E24
  0
LAYER
  5
DEB6
330
7467
100
AcDbSymbolTableRecord
100
AcDbLayerTableRecord
  2
文字
 70
     0
 62
     7
  6
CONTINUOUS
370
    -3
390
16E24
  0
LAYER
  5
F255
330
7467
100
AcDbSymbolTableRecord
100
AcDbLayerTableRecord
  2
DEFPOINTS
 70
     0
 62
     7
  6
CONTINUOUS
290
     0
370
    -3
390
16E24
  0
LAYER
  5
10B54
330
7467
100
AcDbSymbolTableRecord
100
AcDbLayerTableRecord
  2
仕様書枠
 70
     0
 62
   230
  6
CONTINUOUS
370
    -3
390
16E24
  0
LAYER
  5
11729
330
7467
100
AcDbSymbolTableRecord
100
AcDbLayerTableRecord
  2
Ｇ．Ｌ
 70
     0
 62
    30
  6
CONTINUOUS
370
    -3
390
16E24
  0
LAYER
  5
1173F
330
7467
100
AcDbSymbolTableRecord
100
AcDbLayerTableRecord
  2
細線
 70
     0
 62
     5
  6
CONTINUOUS
370
    -3
390
16E24
  0
LAYER
  5
142E2
330
7467
100
AcDbSymbolTableRecord
100
AcDbLayerTableRecord
  2
破線
 70
     0
 62
     2
  6
HIDDEN
370
    -3
390
16E24
  0
ENDTAB
  0
TABLE
  2
STYLE
  5
7468
330
0
100
AcDbSymbolTable
 70
     4
  0
STYLE
  5
7475
330
7468
100
AcDbSymbolTableRecord
100
AcDbTextStyleTableRecord
  2
STANDARD
 70
     0
 40
0.0
 41
1.0
 50
0.0
 71
     0
 42
4.0
  3
txt
  4
C:\AutoCAD LT\bigfont.shx
  0
STYLE
  5
763C
330
7468
100
AcDbSymbolTableRecord
100
AcDbTextStyleTableRecord
  2
MSMINCHO
 70
     0
 40
0.0
 41
1.0
 50
0.0
 71
     0
 42
1.199999999999999
  3
C:\AutoCAD LT\msminch2.TTF
  4

  0
STYLE
  5
F706
330
7468
100
AcDbSymbolTableRecord
100
AcDbTextStyleTableRecord
  2
STYLE1
 70
     0
 40
0.0
 41
1.0
 50
0.0
 71
     0
 42
4.0
  3
isocp.shx
  4
bigfont.shx
  0
STYLE
  5
103BF
330
7468
100
AcDbSymbolTableRecord
100
AcDbTextStyleTableRecord
  2
STYLE2
 70
     0
 40
0.0
 41
1.0
 50
0.0
 71
     0
 42
100.0
  3
MS PGothic.ttf
  4

1001
ACAD
1000
MS PGothic
1071
    32818
  0
ENDTAB
  0
TABLE
  2
VIEW
  5
746B
330
0
100
AcDbSymbolTable
 70
     0
  0
ENDTAB
  0
TABLE
  2
UCS
  5
746C
330
0
100
AcDbSymbolTable
 70
     0
  0
ENDTAB
  0
TABLE
  2
APPID
  5
746E
330
0
100
AcDbSymbolTable
 70
     6
  0
APPID
  5
7476
330
746E
100
AcDbSymbolTableRecord
100
AcDbRegAppTableRecord
  2
ACAD
 70
     0
  0
APPID
  5
DEA9
330
746E
100
AcDbSymbolTableRecord
100
AcDbRegAppTableRecord
  2
CONTENTBLOCKICON
 70
     0
  0
APPID
  5
DEAA
330
746E
100
AcDbSymbolTableRecord
100
AcDbRegAppTableRecord
  2
CONTENTBLOCKDESCRIPTION
 70
     0
  0
APPID
  5
E71D
330
746E
100
AcDbSymbolTableRecord
100
AcDbRegAppTableRecord
  2
CONTENTTABDATA
 70
     0
  0
APPID
  5
E71E
330
746E
100
AcDbSymbolTableRecord
100
AcDbRegAppTableRecord
  2
CONTENTCURRENTTAB
 70
     0
  0
APPID
  5
F3BA
330
746E
100
AcDbSymbolTableRecord
100
AcDbRegAppTableRecord
  2
DRAWINGVARIABLESXDATA
 70
     0
  0
ENDTAB
  0
TABLE
  2
DIMSTYLE
  5
746F
330
0
100
AcDbSymbolTable
 70
     1
100
AcDbDimStyleTable
 71
     1
340
F71F
  0
DIMSTYLE
105
F71F
102
{ACAD_REACTORS
330
162CD
330
162CE
330
162CF
330
162D0
330
162DA
330
162E4
330
162E7
330
162EA
330
162EB
330
16301
330
16302
330
1631F
330
16320
330
16333
330
1659B
330
1659C
330
1659A
330
165E9
330
16667
330
166DD
330
16907
330
16913
330
175F7
330
175F8
330
175F9
330
17623
330
17627
330
17628
330
17629
330
17637
330
17646
330
186FC
330
186FB
330
186FA
330
186F9
330
18D82
330
18DA7
330
190F2
330
190F3
330
190F4
102
}
330
746F
100
AcDbSymbolTableRecord
100
AcDbDimStyleTableRecord
  2
INABA_S40G
 70
     0
 40
40.0
 41
2.5
 42
0.5
 43
7.0
 44
1.5
 73
     0
 74
     0
 77
     3
 78
     8
140
3.0
141
0.0
143
0.0394
147
1.0
172
     1
173
     1
174
     1
178
     7
271
     1
340
F706
341
F770
343
F770
344
F770
  0
ENDTAB
  0
TABLE
  2
BLOCK_RECORD
  5
7466
330
0
100
AcDbSymbolTable
 70
    41
  0
BLOCK_RECORD
  5
747D
330
7466
100
AcDbSymbolTableRecord
100
AcDbBlockTableRecord
  2
*MODEL_SPACE
340
16E29
  0
BLOCK_RECORD
  5
747A
330
7466
100
AcDbSymbolTableRecord
100
AcDbBlockTableRecord
  2
*PAPER_SPACE
340
16E2A
  0
BLOCK_RECORD
  5
F770
330
7466
100
AcDbSymbolTableRecord
100
AcDbBlockTableRecord
  2
_DOTSMALL
340
0
102
{BLKREFS
331
16E5B
331
16E5C
331
16E66
331
16E67
331
16E6D
331
16E6E
331
16E79
331
16E7A
331
16EAB
331
16EAC
331
16EB7
331
16EB8
331
16EC2
331
16EC3
331
16ECC
331
16ECD
331
16ED5
331
16ED6
331
16EDD
331
16EDE
331
16EEF
331
16EF0
331
16EF8
331
16EF9
331
16F03
331
16F04
331
16F0E
331
16F0F
331
16F17
331
16F18
331
17B11
331
17B12
331
17B1B
331
17B1C
331
17B2F
331
17B30
331
17B43
331
17B44
331
17B56
331
17B57
331
17B5F
331
17B60
331
17B68
331
17B69
331
18872
331
18873
331
1887D
331
1887E
331
18886
331
18887
331
18891
331
18892
331
18F2E
331
18F2F
331
18F37
331
18F38
331
18F49
331
18F4A
331
18F52
331
18F53
331
18F5D
331
18F5E
331
18F66
331
18F67
331
18F71
331
18F72
331
18F7C
331
18F7D
331
18F85
331
18F86
331
19217
331
19218
331
19223
331
19224
331
1922B
331
1922C
331
19521
331
19522
331
1952A
331
1952B
102
}
  0
BLOCK_RECORD
  5
16338
330
7466
100
AcDbSymbolTableRecord
100
AcDbBlockTableRecord
  2
*D1
340
0
  0
BLOCK_RECORD
  5
16344
330
7466
100
AcDbSymbolTableRecord
100
AcDbBlockTableRecord
  2
*D2
340
0
  0
BLOCK_RECORD
  5
16352
330
7466
100
AcDbSymbolTableRecord
100
AcDbBlockTableRecord
  2
*D3
340
0
  0
BLOCK_RECORD
  5
16360
330
7466
100
AcDbSymbolTableRecord
100
AcDbBlockTableRecord
  2
*D4
340
0
  0
BLOCK_RECORD
  5
1636C
330
7466
100
AcDbSymbolTableRecord
100
AcDbBlockTableRecord
  2
*D5
340
0
  0
BLOCK_RECORD
  5
16384
330
7466
100
AcDbSymbolTableRecord
100
AcDbBlockTableRecord
  2
*D6
340
0
  0
BLOCK_RECORD
  5
1638F
330
7466
100
AcDbSymbolTableRecord
100
AcDbBlockTableRecord
  2
*D7
340
0
  0
BLOCK_RECORD
  5
1639B
330
7466
100
AcDbSymbolTableRecord
100
AcDbBlockTableRecord
  2
*D8
340
0
  0
BLOCK_RECORD
  5
163A9
330
7466
100
AcDbSymbolTableRecord
100
AcDbBlockTableRecord
  2
*D9
340
0
  0
BLOCK_RECORD
  5
163B8
330
7466
100
AcDbSymbolTableRecord
100
AcDbBlockTableRecord
  2
*D10
340
0
  0
BLOCK_RECORD
  5
163C7
330
7466
100
AcDbSymbolTableRecord
100
AcDbBlockTableRecord
  2
*D11
340
0
  0
BLOCK_RECORD
  5
163E1
330
7466
100
AcDbSymbolTableRecord
100
AcDbBlockTableRecord
  2
*D12
340
0
  0
BLOCK_RECORD
  5
163ED
330
7466
100
AcDbSymbolTableRecord
100
AcDbBlockTableRecord
  2
*D13
340
0
  0
BLOCK_RECORD
  5
163FB
330
7466
100
AcDbSymbolTableRecord
100
AcDbBlockTableRecord
  2
*D14
340
0
  0
BLOCK_RECORD
  5
1659E
330
7466
100
AcDbSymbolTableRecord
100
AcDbBlockTableRecord
  2
*D15
340
0
  0
BLOCK_RECORD
  5
165B5
330
7466
100
AcDbSymbolTableRecord
100
AcDbBlockTableRecord
  2
*D16
340
0
  0
BLOCK_RECORD
  5
165C4
330
7466
100
AcDbSymbolTableRecord
100
AcDbBlockTableRecord
  2
*D17
340
0
  0
BLOCK_RECORD
  5
165EA
330
7466
100
AcDbSymbolTableRecord
100
AcDbBlockTableRecord
  2
*D18
340
0
  0
BLOCK_RECORD
  5
166AD
330
7466
100
AcDbSymbolTableRecord
100
AcDbBlockTableRecord
  2
*D19
340
0
  0
BLOCK_RECORD
  5
166CF
330
7466
100
AcDbSymbolTableRecord
100
AcDbBlockTableRecord
  2
*D20
340
0
  0
BLOCK_RECORD
  5
168FB
330
7466
100
AcDbSymbolTableRecord
100
AcDbBlockTableRecord
  2
*D21
340
0
  0
BLOCK_RECORD
  5
16908
330
7466
100
AcDbSymbolTableRecord
100
AcDbBlockTableRecord
  2
*D22
340
0
  0
BLOCK_RECORD
  5
177E4
330
7466
100
AcDbSymbolTableRecord
100
AcDbBlockTableRecord
  2
*D23
340
0
  0
BLOCK_RECORD
  5
177F0
330
7466
100
AcDbSymbolTableRecord
100
AcDbBlockTableRecord
  2
*D24
340
0
  0
BLOCK_RECORD
  5
177FC
330
7466
100
AcDbSymbolTableRecord
100
AcDbBlockTableRecord
  2
*D25
340
0
  0
BLOCK_RECORD
  5
17815
330
7466
100
AcDbSymbolTableRecord
100
AcDbBlockTableRecord
  2
*D26
340
0
  0
BLOCK_RECORD
  5
17823
330
7466
100
AcDbSymbolTableRecord
100
AcDbBlockTableRecord
  2
*D27
340
0
  0
BLOCK_RECORD
  5
1782F
330
7466
100
AcDbSymbolTableRecord
100
AcDbBlockTableRecord
  2
*D28
340
0
  0
BLOCK_RECORD
  5
1783D
330
7466
100
AcDbSymbolTableRecord
100
AcDbBlockTableRecord
  2
*D29
340
0
  0
BLOCK_RECORD
  5
17849
330
7466
100
AcDbSymbolTableRecord
100
AcDbBlockTableRecord
  2
*D30
340
0
  0
BLOCK_RECORD
  5
17856
330
7466
100
AcDbSymbolTableRecord
100
AcDbBlockTableRecord
  2
*D31
340
0
  0
BLOCK_RECORD
  5
187B2
330
7466
100
AcDbSymbolTableRecord
100
AcDbBlockTableRecord
  2
*D32
340
0
  0
BLOCK_RECORD
  5
187BE
330
7466
100
AcDbSymbolTableRecord
100
AcDbBlockTableRecord
  2
*D33
340
0
  0
BLOCK_RECORD
  5
187CC
330
7466
100
AcDbSymbolTableRecord
100
AcDbBlockTableRecord
  2
*D34
340
0
  0
BLOCK_RECORD
  5
187D8
330
7466
100
AcDbSymbolTableRecord
100
AcDbBlockTableRecord
  2
*D35
340
0
  0
BLOCK_RECORD
  5
18DE5
330
7466
100
AcDbSymbolTableRecord
100
AcDbBlockTableRecord
  2
*D36
340
0
  0
BLOCK_RECORD
  5
18E40
330
7466
100
AcDbSymbolTableRecord
100
AcDbBlockTableRecord
  2
*D37
340
0
  0
BLOCK_RECORD
  5
1915D
330
7466
100
AcDbSymbolTableRecord
100
AcDbBlockTableRecord
  2
*D38
340
0
  0
BLOCK_RECORD
  5
19169
330
7466
100
AcDbSymbolTableRecord
100
AcDbBlockTableRecord
  2
*D39
340
0
  0
BLOCK_RECORD
  5
19177
330
7466
100
AcDbSymbolTableRecord
100
AcDbBlockTableRecord
  2
*D40
340
0
  0
ENDTAB
  0
ENDSEC
  0
SECTION
  2
BLOCKS
  0
BLOCK
  5
7489
330
747D
100
AcDbEntity
  8
0
100
AcDbBlockBegin
  2
*MODEL_SPACE
 70
     0
 10
0.0
 20
0.0
 30
0.0
  3
*MODEL_SPACE
  1

  0
ENDBLK
  5
748A
330
747D
100
AcDbEntity
  8
0
100
AcDbBlockEnd
  0
BLOCK
  5
7487
330
747A
100
AcDbEntity
 67
     1
  8
0
100
AcDbBlockBegin
  2
*PAPER_SPACE
 70
     0
 10
0.0
 20
0.0
 30
0.0
  3
*PAPER_SPACE
  1

  0
ENDBLK
  5
7488
330
747A
100
AcDbEntity
 67
     1
  8
0
100
AcDbBlockEnd
  0
BLOCK
  5
F771
330
F770
100
AcDbEntity
  8
0
 48
50.0
100
AcDbBlockBegin
  2
_DOTSMALL
 70
     0
 10
0.0
 20
0.0
 30
0.0
  3
_DOTSMALL
  1

  0
LWPOLYLINE
  5
F772
330
F770
100
AcDbEntity
  8
0
  6
ByBlock
 62
     0
 48
50.0
100
AcDbPolyline
 90
        2
 70
     1
 43
0.5
 10
-0.0625
 20
0.0
 42
1.0
 10
0.0625
 20
0.0
 42
1.0
  0
ENDBLK
  5
F776
330
F770
100
AcDbEntity
  8
0
 48
50.0
100
AcDbBlockEnd
  0
BLOCK
  5
16C83
330
16338
100
AcDbEntity
  8
0
 48
50.0
100
AcDbBlockBegin
  2
*D1
 70
     1
 10
0.0
 20
0.0
 30
0.0
  3
*D1
  1

  0
LINE
  5
16F14
330
16338
100
AcDbEntity
  8
寸法
 62
     0
 48
50.0
370
    -2
100
AcDbLine
 10
8709.673057123664
 20
9907.45115042047
 30
0.0
 11
9397.099402858071
 21
9907.45115042047
 31
0.0
  0
LINE
  5
16F15
330
16338
100
AcDbEntity
  8
寸法
 62
     0
 48
50.0
370
    -2
100
AcDbLine
 10
8709.673057123639
 20
7807.451150420456
 30
0.0
 11
9397.099402858071
 21
7807.451150420456
 31
0.0
  0
LINE
  5
16F16
330
16338
100
AcDbEntity
  8
寸法
 62
     0
 48
50.0
370
    -2
100
AcDbLine
 10
9337.09940285807
 20
9907.45115042047
 30
0.0
 11
9337.09940285807
 21
7807.451150420456
 31
0.0
  0
INSERT
  5
16F17
330
16338
100
AcDbEntity
  8
寸法
 62
     0
 48
50.0
370
    -2
100
AcDbBlockReference
  2
_DOTSMALL
 10
9337.09940285807
 20
9907.45115042047
 30
0.0
 41
100.0
 42
100.0
 43
100.0
 50
90.0
  0
INSERT
  5
16F18
330
16338
100
AcDbEntity
  8
寸法
 62
     0
 48
50.0
370
    -2
100
AcDbBlockReference
  2
_DOTSMALL
 10
9337.09940285807
 20
7807.451150420456
 30
0.0
 41
100.0
 42
100.0
 43
100.0
 50
270.0
  0
MTEXT
  5
16F19
330
16338
100
AcDbEntity
  8
寸法
 62
     7
 48
50.0
100
AcDbMText
 10
9237.087591834447
 20
8857.451150420466
 30
0.0
 40
120.0
 41
0.0
 71
     5
 72
     1
  1
\A1;5X420=2100
  7
STYLE1
 11
0.0000000000000001
 21
1.0
 31
0.0
 73
     1
 44
1.0
1001
ACAD
1000
MTEXTBEGIN
1070
    73
1070
     1
1070
    44
1040
1.0
1070
    74
1070
     0
1000
MTEXTEND
  0
POINT
  5
16F1A
330
16338
100
AcDbEntity
  8
DEFPOINTS
 62
     0
 48
50.0
100
AcDbPoint
 10
8689.673057123664
 20
9907.45115042047
 30
0.0
  0
POINT
  5
16F1B
330
16338
100
AcDbEntity
  8
DEFPOINTS
 62
     0
 48
50.0
100
AcDbPoint
 10
8689.67305712364
 20
7807.451150420456
 30
0.0
  0
POINT
  5
16F1C
330
16338
100
AcDbEntity
  8
DEFPOINTS
 62
     0
 48
50.0
100
AcDbPoint
 10
9337.09940285807
 20
7807.451150420456
 30
0.0
  0
ENDBLK
  5
16C8D
330
16338
100
AcDbEntity
  8
0
 48
50.0
100
AcDbBlockEnd
  0
BLOCK
  5
16414
330
16344
100
AcDbEntity
  8
0
 48
50.0
100
AcDbBlockBegin
  2
*D2
 70
     1
 10
0.0
 20
0.0
 30
0.0
  3
*D2
  1

  0
LINE
  5
16F09
330
16344
100
AcDbEntity
  8
寸法
 62
     0
 48
50.0
370
    -2
100
AcDbLine
 10
8709.673057123639
 20
7807.451150420456
 30
0.0
 11
9397.099402858051
 21
7807.451150420456
 31
0.0
  0
LINE
  5
16F0A
330
16344
100
AcDbEntity
  8
寸法
 62
     0
 48
50.0
370
    -2
100
AcDbLine
 10
8709.673057123639
 20
7752.451150420459
 30
0.0
 11
9397.099402858051
 21
7752.451150420459
 31
0.0
  0
LINE
  5
16F0B
330
16344
100
AcDbEntity
  8
寸法
 62
     0
 48
50.0
370
    -2
100
AcDbLine
 10
9337.099402858049
 20
7807.451150420456
 30
0.0
 11
9337.099402858049
 21
7907.451150420456
 31
0.0
  0
LINE
  5
16F0C
330
16344
100
AcDbEntity
  8
寸法
 62
     0
 48
50.0
370
    -2
100
AcDbLine
 10
9337.099402858049
 20
7752.451150420459
 30
0.0
 11
9337.099402858049
 21
7266.104402141358
 31
0.0
  0
LINE
  5
16F0D
330
16344
100
AcDbEntity
  8
寸法
 62
     0
 48
50.0
370
    -2
100
AcDbLine
 10
9337.099402858049
 20
7807.451150420456
 30
0.0
 11
9337.099402858049
 21
7752.451150420459
 31
0.0
  0
INSERT
  5
16F0E
330
16344
100
AcDbEntity
  8
寸法
 62
     0
 48
50.0
370
    -2
100
AcDbBlockReference
  2
_DOTSMALL
 10
9337.099402858049
 20
7807.451150420456
 30
0.0
 41
100.0
 42
100.0
 43
100.0
 50
270.0
  0
INSERT
  5
16F0F
330
16344
100
AcDbEntity
  8
寸法
 62
     0
 48
50.0
370
    -2
100
AcDbBlockReference
  2
_DOTSMALL
 10
9337.099402858049
 20
7752.451150420459
 30
0.0
 41
100.0
 42
100.0
 43
100.0
 50
90.0
  0
MTEXT
  5
16F10
330
16344
100
AcDbEntity
  8
寸法
 62
     7
 48
50.0
100
AcDbMText
 10
9237.099402858047
 20
7374.589683515599
 30
0.0
 40
120.0
 41
0.0
 71
     5
 72
     1
  1
\A1;55
  7
STYLE1
 11
0.0000000000000001
 21
1.0
 31
0.0
 73
     1
 44
1.0
1001
ACAD
1000
MTEXTBEGIN
1070
    73
1070
     1
1070
    44
1040
1.0
1070
    74
1070
     0
1000
MTEXTEND
  0
POINT
  5
16F11
330
16344
100
AcDbEntity
  8
DEFPOINTS
 62
     0
 48
50.0
100
AcDbPoint
 10
8689.67305712364
 20
7807.451150420456
 30
0.0
  0
POINT
  5
16F12
330
16344
100
AcDbEntity
  8
DEFPOINTS
 62
     0
 48
50.0
100
AcDbPoint
 10
8689.67305712364
 20
7752.451150420459
 30
0.0
  0
POINT
  5
16F13
330
16344
100
AcDbEntity
  8
DEFPOINTS
 62
     0
 48
50.0
100
AcDbPoint
 10
9337.099402858049
 20
7752.451150420459
 30
0.0
  0
ENDBLK
  5
16420
330
16344
100
AcDbEntity
  8
0
 48
50.0
100
AcDbBlockEnd
  0
BLOCK
  5
16421
330
16352
100
AcDbEntity
  8
0
 48
50.0
100
AcDbBlockBegin
  2
*D3
 70
     1
 10
0.0
 20
0.0
 30
0.0
  3
*D3
  1

  0
LINE
  5
16EFE
330
16352
100
AcDbEntity
  8
寸法
 62
     0
 48
50.0
370
    -2
100
AcDbLine
 10
8709.673057123664
 20
9962.451150420468
 30
0.0
 11
9397.099402858076
 21
9962.451150420468
 31
0.0
  0
LINE
  5
16EFF
330
16352
100
AcDbEntity
  8
寸法
 62
     0
 48
50.0
370
    -2
100
AcDbLine
 10
8709.673057123664
 20
9907.45115042047
 30
0.0
 11
9397.099402858076
 21
9907.45115042047
 31
0.0
  0
LINE
  5
16F00
330
16352
100
AcDbEntity
  8
寸法
 62
     0
 48
50.0
370
    -2
100
AcDbLine
 10
9337.099402858076
 20
9907.45115042047
 30
0.0
 11
9337.099402858076
 21
9807.451150420471
 31
0.0
  0
LINE
  5
16F01
330
16352
100
AcDbEntity
  8
寸法
 62
     0
 48
50.0
370
    -2
100
AcDbLine
 10
9337.099402858076
 20
9962.451150420468
 30
0.0
 11
9337.099402858076
 21
10379.42171316894
 31
0.0
  0
LINE
  5
16F02
330
16352
100
AcDbEntity
  8
寸法
 62
     0
 48
50.0
370
    -2
100
AcDbLine
 10
9337.099402858076
 20
9907.45115042047
 30
0.0
 11
9337.099402858076
 21
9962.451150420468
 31
0.0
  0
INSERT
  5
16F03
330
16352
100
AcDbEntity
  8
寸法
 62
     0
 48
50.0
370
    -2
100
AcDbBlockReference
  2
_DOTSMALL
 10
9337.099402858076
 20
9907.45115042047
 30
0.0
 41
100.0
 42
100.0
 43
100.0
 50
90.0
  0
INSERT
  5
16F04
330
16352
100
AcDbEntity
  8
寸法
 62
     0
 48
50.0
370
    -2
100
AcDbBlockReference
  2
_DOTSMALL
 10
9337.099402858076
 20
9962.451150420468
 30
0.0
 41
100.0
 42
100.0
 43
100.0
 50
270.0
  0
MTEXT
  5
16F05
330
16352
100
AcDbEntity
  8
寸法
 62
     7
 48
50.0
100
AcDbMText
 10
9237.099402858074
 20
10270.93643179471
 30
0.0
 40
120.0
 41
0.0
 71
     5
 72
     1
  1
\A1;55
  7
STYLE1
 11
0.0000000000000001
 21
1.0
 31
0.0
 73
     1
 44
1.0
1001
ACAD
1000
MTEXTBEGIN
1070
    73
1070
     1
1070
    44
1040
1.0
1070
    74
1070
     0
1000
MTEXTEND
  0
POINT
  5
16F06
330
16352
100
AcDbEntity
  8
DEFPOINTS
 62
     0
 48
50.0
100
AcDbPoint
 10
8689.673057123664
 20
9962.451150420468
 30
0.0
  0
POINT
  5
16F07
330
16352
100
AcDbEntity
  8
DEFPOINTS
 62
     0
 48
50.0
100
AcDbPoint
 10
8689.673057123664
 20
9907.45115042047
 30
0.0
  0
POINT
  5
16F08
330
16352
100
AcDbEntity
  8
DEFPOINTS
 62
     0
 48
50.0
100
AcDbPoint
 10
9337.099402858076
 20
9907.45115042047
 30
0.0
  0
ENDBLK
  5
1642D
330
16352
100
AcDbEntity
  8
0
 48
50.0
100
AcDbBlockEnd
  0
BLOCK
  5
16C6B
330
16360
100
AcDbEntity
  8
0
 48
50.0
100
AcDbBlockBegin
  2
*D4
 70
     1
 10
0.0
 20
0.0
 30
0.0
  3
*D4
  1

  0
LINE
  5
16EF5
330
16360
100
AcDbEntity
  8
寸法
 62
     0
 48
50.0
370
    -2
100
AcDbLine
 10
8709.673057123664
 20
9962.451150420468
 30
0.0
 11
9762.206344597709
 21
9962.451150420468
 31
0.0
  0
LINE
  5
16EF6
330
16360
100
AcDbEntity
  8
寸法
 62
     0
 48
50.0
370
    -2
100
AcDbLine
 10
8709.673057123639
 20
7752.451150420459
 30
0.0
 11
9762.206344597709
 21
7752.451150420459
 31
0.0
  0
LINE
  5
16EF7
330
16360
100
AcDbEntity
  8
寸法
 62
     0
 48
50.0
370
    -2
100
AcDbLine
 10
9702.20634459771
 20
9962.451150420468
 30
0.0
 11
9702.20634459771
 21
7752.451150420459
 31
0.0
  0
INSERT
  5
16EF8
330
16360
100
AcDbEntity
  8
寸法
 62
     0
 48
50.0
370
    -2
100
AcDbBlockReference
  2
_DOTSMALL
 10
9702.20634459771
 20
9962.451150420468
 30
0.0
 41
100.0
 42
100.0
 43
100.0
 50
90.0
  0
INSERT
  5
16EF9
330
16360
100
AcDbEntity
  8
寸法
 62
     0
 48
50.0
370
    -2
100
AcDbBlockReference
  2
_DOTSMALL
 10
9702.20634459771
 20
7752.451150420459
 30
0.0
 41
100.0
 42
100.0
 43
100.0
 50
270.0
  0
MTEXT
  5
16EFA
330
16360
100
AcDbEntity
  8
寸法
 62
     7
 48
50.0
100
AcDbMText
 10
9602.194533574085
 20
8857.451150420466
 30
0.0
 40
120.0
 41
0.0
 71
     5
 72
     1
  1
\A1;2210
  7
STYLE1
 11
0.0000000000000001
 21
1.0
 31
0.0
 73
     1
 44
1.0
1001
ACAD
1000
MTEXTBEGIN
1070
    73
1070
     1
1070
    44
1040
1.0
1070
    74
1070
     0
1000
MTEXTEND
  0
POINT
  5
16EFB
330
16360
100
AcDbEntity
  8
DEFPOINTS
 62
     0
 48
50.0
100
AcDbPoint
 10
8689.673057123664
 20
9962.451150420468
 30
0.0
  0
POINT
  5
16EFC
330
16360
100
AcDbEntity
  8
DEFPOINTS
 62
     0
 48
50.0
100
AcDbPoint
 10
8689.67305712364
 20
7752.451150420459
 30
0.0
  0
POINT
  5
16EFD
330
16360
100
AcDbEntity
  8
DEFPOINTS
 62
     0
 48
50.0
100
AcDbPoint
 10
9702.20634459771
 20
7752.451150420459
 30
0.0
  0
ENDBLK
  5
16C75
330
16360
100
AcDbEntity
  8
0
 48
50.0
100
AcDbBlockEnd
  0
BLOCK
  5
16627
330
1636C
100
AcDbEntity
  8
0
 48
50.0
100
AcDbBlockBegin
  2
*D5
 70
     1
 10
0.0
 20
0.0
 30
0.0
  3
*D5
  1

  0
LINE
  5
16EEC
330
1636C
100
AcDbEntity
  8
寸法
 62
     0
 48
50.0
370
    -2
100
AcDbLine
 10
8681.173057123663
 20
9927.092166571846
 30
0.0
 11
9076.530782985688
 21
9821.15638320571
 31
0.0
  0
LINE
  5
16EED
330
1636C
100
AcDbEntity
  8
寸法
 62
     0
 48
50.0
370
    -2
100
AcDbLine
 10
8681.173057123663
 20
9477.092166571848
 30
0.0
 11
9076.530782985688
 21
9371.156383205715
 31
0.0
  0
LINE
  5
16EEE
330
1636C
100
AcDbEntity
  8
寸法
 62
     0
 48
50.0
370
    -2
100
AcDbLine
 10
9016.530782985688
 20
9837.233334751578
 30
0.0
 11
9016.530782985688
 21
9387.233334751583
 31
0.0
  0
INSERT
  5
16EEF
330
1636C
100
AcDbEntity
  8
寸法
 62
     0
 48
50.0
370
    -2
100
AcDbBlockReference
  2
_DOTSMALL
 10
9016.530782985688
 20
9837.233334751578
 30
0.0
 41
100.0
 42
100.0
 43
100.0
 50
90.0
  0
INSERT
  5
16EF0
330
1636C
100
AcDbEntity
  8
寸法
 62
     0
 48
50.0
370
    -2
100
AcDbBlockReference
  2
_DOTSMALL
 10
9016.530782985688
 20
9387.233334751583
 30
0.0
 41
100.0
 42
100.0
 43
100.0
 50
270.0
  0
MTEXT
  5
16EF1
330
1636C
100
AcDbEntity
  8
寸法
 62
     7
 48
50.0
100
AcDbMText
 10
8916.530782985686
 20
9612.233334751582
 30
0.0
 40
120.0
 41
0.0
 71
     5
 72
     1
  1
\A1;450
  7
STYLE1
 11
0.0000000000000001
 21
1.0
 31
0.0
 73
     1
 44
1.0
1001
ACAD
1000
MTEXTBEGIN
1070
    73
1070
     1
1070
    44
1040
1.0
1070
    74
1070
     0
1000
MTEXTEND
  0
POINT
  5
16EF2
330
1636C
100
AcDbEntity
  8
DEFPOINTS
 62
     0
 48
50.0
100
AcDbPoint
 10
8661.173057123663
 20
9932.451150420469
 30
0.0
  0
POINT
  5
16EF3
330
1636C
100
AcDbEntity
  8
DEFPOINTS
 62
     0
 48
50.0
100
AcDbPoint
 10
8661.173057123663
 20
9482.451150420471
 30
0.0
  0
POINT
  5
16EF4
330
1636C
100
AcDbEntity
  8
DEFPOINTS
 62
     0
 48
50.0
100
AcDbPoint
 10
9016.530782985688
 20
9387.233334751583
 30
0.0
  0
ENDBLK
  5
16631
330
1636C
100
AcDbEntity
  8
0
 48
50.0
100
AcDbBlockEnd
  0
BLOCK
  5
1644F
330
16384
100
AcDbEntity
  8
0
 48
50.0
100
AcDbBlockBegin
  2
*D6
 70
     1
 10
0.0
 20
0.0
 30
0.0
  3
*D6
  1

  0
LINE
  5
16EDB
330
16384
100
AcDbEntity
  8
寸法
 62
     0
 48
50.0
370
    -2
100
AcDbLine
 10
6162.673057123657
 20
7758.451150420369
 30
0.0
 11
6162.673057123657
 21
7158.020379654205
 31
0.0
  0
LINE
  5
16EDC
330
16384
100
AcDbEntity
  8
寸法
 62
     0
 48
50.0
370
    -2
100
AcDbLine
 10
8586.673057123638
 20
7218.020379654205
 30
0.0
 11
6162.673057123657
 21
7218.020379654205
 31
0.0
  0
INSERT
  5
16EDD
330
16384
100
AcDbEntity
  8
寸法
 62
     0
 48
50.0
370
    -2
100
AcDbBlockReference
  2
_DOTSMALL
 10
8586.673057123638
 20
7218.020379654205
 30
0.0
 41
100.0
 42
100.0
 43
100.0
  0
INSERT
  5
16EDE
330
16384
100
AcDbEntity
  8
寸法
 62
     0
 48
50.0
370
    -2
100
AcDbBlockReference
  2
_DOTSMALL
 10
6162.673057123657
 20
7218.020379654205
 30
0.0
 41
100.0
 42
100.0
 43
100.0
 50
180.0
  0
MTEXT
  5
16EDF
330
16384
100
AcDbEntity
  8
寸法
 62
     7
 48
50.0
100
AcDbMText
 10
7374.673057123648
 20
7318.032190677826
 30
0.0
 40
120.0
 41
0.0
 71
     5
 72
     1
  1
\A1;有効開口部間口 2424
  7
STYLE1
 73
     1
 44
1.0
1001
ACAD
1000
MTEXTBEGIN
1070
    73
1070
     1
1070
    44
1040
1.0
1070
    74
1070
     0
1000
MTEXTEND
  0
POINT
  5
16EE0
330
16384
100
AcDbEntity
  8
DEFPOINTS
 62
     0
 48
50.0
100
AcDbPoint
 10
8586.673057123638
 20
7778.451150420369
 30
0.0
  0
POINT
  5
16EE1
330
16384
100
AcDbEntity
  8
DEFPOINTS
 62
     0
 48
50.0
100
AcDbPoint
 10
6162.673057123657
 20
7778.451150420368
 30
0.0
  0
POINT
  5
16EE2
330
16384
100
AcDbEntity
  8
DEFPOINTS
 62
     0
 48
50.0
100
AcDbPoint
 10
6162.673057123657
 20
7218.020379654205
 30
0.0
  0
ENDBLK
  5
16458
330
16384
100
AcDbEntity
  8
0
 48
50.0
100
AcDbBlockEnd
  0
BLOCK
  5
166C4
330
1638F
100
AcDbEntity
  8
0
 48
50.0
100
AcDbBlockBegin
  2
*D7
 70
     1
 10
0.0
 20
0.0
 30
0.0
  3
*D7
  1

  0
LINE
  5
16ED2
330
1638F
100
AcDbEntity
  8
寸法
 62
     0
 48
50.0
370
    -2
100
AcDbLine
 10
3429.673057123657
 20
7732.451150420366
 30
0.0
 11
3429.673057123657
 21
6711.84738406333
 31
0.0
  0
LINE
  5
16ED3
330
1638F
100
AcDbEntity
  8
寸法
 62
     0
 48
50.0
370
    -2
100
AcDbLine
 10
8689.673057123627
 20
7732.451150420461
 30
0.0
 11
8689.673057123627
 21
6711.84738406333
 31
0.0
  0
LINE
  5
16ED4
330
1638F
100
AcDbEntity
  8
寸法
 62
     0
 48
50.0
370
    -2
100
AcDbLine
 10
3429.673057123657
 20
6771.847384063331
 30
0.0
 11
8689.673057123627
 21
6771.847384063331
 31
0.0
  0
INSERT
  5
16ED5
330
1638F
100
AcDbEntity
  8
寸法
 62
     0
 48
50.0
370
    -2
100
AcDbBlockReference
  2
_DOTSMALL
 10
3429.673057123657
 20
6771.847384063331
 30
0.0
 41
100.0
 42
100.0
 43
100.0
 50
180.0
  0
INSERT
  5
16ED6
330
1638F
100
AcDbEntity
  8
寸法
 62
     0
 48
50.0
370
    -2
100
AcDbBlockReference
  2
_DOTSMALL
 10
8689.673057123627
 20
6771.847384063331
 30
0.0
 41
100.0
 42
100.0
 43
100.0
  0
MTEXT
  5
16ED7
330
1638F
100
AcDbEntity
  8
寸法
 62
     7
 48
50.0
100
AcDbMText
 10
6059.673057123642
 20
6871.859195086952
 30
0.0
 40
120.0
 41
0.0
 71
     5
 72
     1
  1
\A1;5260
  7
STYLE1
 73
     1
 44
1.0
1001
ACAD
1000
MTEXTBEGIN
1070
    73
1070
     1
1070
    44
1040
1.0
1070
    74
1070
     0
1000
MTEXTEND
  0
POINT
  5
16ED8
330
1638F
100
AcDbEntity
  8
DEFPOINTS
 62
     0
 48
50.0
100
AcDbPoint
 10
3429.673057123657
 20
7752.451150420366
 30
0.0
  0
POINT
  5
16ED9
330
1638F
100
AcDbEntity
  8
DEFPOINTS
 62
     0
 48
50.0
100
AcDbPoint
 10
8689.673057123627
 20
7752.451150420459
 30
0.0
  0
POINT
  5
16EDA
330
1638F
100
AcDbEntity
  8
DEFPOINTS
 62
     0
 48
50.0
100
AcDbPoint
 10
8689.673057123627
 20
6771.847384063331
 30
0.0
  0
ENDBLK
  5
166CE
330
1638F
100
AcDbEntity
  8
0
 48
50.0
100
AcDbBlockEnd
  0
BLOCK
  5
16464
330
1639B
100
AcDbEntity
  8
0
 48
50.0
100
AcDbBlockBegin
  2
*D8
 70
     1
 10
0.0
 20
0.0
 30
0.0
  3
*D8
  1

  0
LINE
  5
16EC7
330
1639B
100
AcDbEntity
  8
寸法
 62
     0
 48
50.0
370
    -2
100
AcDbLine
 10
3484.673057123654
 20
7732.451150420368
 30
0.0
 11
3484.673057123654
 21
7158.020379654205
 31
0.0
  0
LINE
  5
16EC8
330
1639B
100
AcDbEntity
  8
寸法
 62
     0
 48
50.0
370
    -2
100
AcDbLine
 10
3429.673057123657
 20
7732.451150420366
 30
0.0
 11
3429.673057123657
 21
7158.020379654205
 31
0.0
  0
LINE
  5
16EC9
330
1639B
100
AcDbEntity
  8
寸法
 62
     0
 48
50.0
370
    -2
100
AcDbLine
 10
3484.673057123654
 20
7218.020379654205
 30
0.0
 11
3584.673057123654
 21
7218.020379654205
 31
0.0
  0
LINE
  5
16ECA
330
1639B
100
AcDbEntity
  8
寸法
 62
     0
 48
50.0
370
    -2
100
AcDbLine
 10
3429.673057123657
 20
7218.020379654205
 30
0.0
 11
3012.70249437518
 21
7218.020379654205
 31
0.0
  0
LINE
  5
16ECB
330
1639B
100
AcDbEntity
  8
寸法
 62
     0
 48
50.0
370
    -2
100
AcDbLine
 10
3484.673057123654
 20
7218.020379654205
 30
0.0
 11
3429.673057123657
 21
7218.020379654205
 31
0.0
  0
INSERT
  5
16ECC
330
1639B
100
AcDbEntity
  8
寸法
 62
     0
 48
50.0
370
    -2
100
AcDbBlockReference
  2
_DOTSMALL
 10
3484.673057123654
 20
7218.020379654205
 30
0.0
 41
100.0
 42
100.0
 43
100.0
 50
180.0
  0
INSERT
  5
16ECD
330
1639B
100
AcDbEntity
  8
寸法
 62
     0
 48
50.0
370
    -2
100
AcDbBlockReference
  2
_DOTSMALL
 10
3429.673057123657
 20
7218.020379654205
 30
0.0
 41
100.0
 42
100.0
 43
100.0
  0
MTEXT
  5
16ECE
330
1639B
100
AcDbEntity
  8
寸法
 62
     7
 48
50.0
100
AcDbMText
 10
3121.187775749418
 20
7318.020379654204
 30
0.0
 40
120.0
 41
0.0
 71
     5
 72
     1
  1
\A1;55
  7
STYLE1
 73
     1
 44
1.0
1001
ACAD
1000
MTEXTBEGIN
1070
    73
1070
     1
1070
    44
1040
1.0
1070
    74
1070
     0
1000
MTEXTEND
  0
POINT
  5
16ECF
330
1639B
100
AcDbEntity
  8
DEFPOINTS
 62
     0
 48
50.0
100
AcDbPoint
 10
3484.673057123654
 20
7752.451150420369
 30
0.0
  0
POINT
  5
16ED0
330
1639B
100
AcDbEntity
  8
DEFPOINTS
 62
     0
 48
50.0
100
AcDbPoint
 10
3429.673057123657
 20
7752.451150420366
 30
0.0
  0
POINT
  5
16ED1
330
1639B
100
AcDbEntity
  8
DEFPOINTS
 62
     0
 48
50.0
100
AcDbPoint
 10
3429.673057123657
 20
7218.020379654205
 30
0.0
  0
ENDBLK
  5
16470
330
1639B
100
AcDbEntity
  8
0
 48
50.0
100
AcDbBlockEnd
  0
BLOCK
  5
16471
330
163A9
100
AcDbEntity
  8
0
 48
50.0
100
AcDbBlockBegin
  2
*D9
 70
     1
 10
0.0
 20
0.0
 30
0.0
  3
*D9
  1

  0
LINE
  5
16EBC
330
163A9
100
AcDbEntity
  8
寸法
 62
     0
 48
50.0
370
    -2
100
AcDbLine
 10
6162.673057123657
 20
7758.451150420369
 30
0.0
 11
6162.673057123657
 21
7158.020379654205
 31
0.0
  0
LINE
  5
16EBD
330
163A9
100
AcDbEntity
  8
寸法
 62
     0
 48
50.0
370
    -2
100
AcDbLine
 10
6114.673057123653
 20
7732.451150420368
 30
0.0
 11
6114.673057123653
 21
7158.020379654205
 31
0.0
  0
LINE
  5
16EBE
330
163A9
100
AcDbEntity
  8
寸法
 62
     0
 48
50.0
370
    -2
100
AcDbLine
 10
6162.673057123657
 20
7218.020379654205
 30
0.0
 11
6262.673057123657
 21
7218.020379654205
 31
0.0
  0
LINE
  5
16EBF
330
163A9
100
AcDbEntity
  8
寸法
 62
     0
 48
50.0
370
    -2
100
AcDbLine
 10
6114.673057123653
 20
7218.020379654205
 30
0.0
 11
6014.673057123653
 21
7218.020379654205
 31
0.0
  0
MTEXT
  5
16EC0
330
163A9
100
AcDbEntity
  8
寸法
 62
     7
 48
50.0
100
AcDbMText
 10
6275.575028123714
 20
7318.020379654204
 30
0.0
 40
120.0
 41
0.0
 71
     5
 72
     1
  1
\A1;48
  7
STYLE1
 73
     1
 44
1.0
1001
ACAD
1000
MTEXTBEGIN
1070
    73
1070
     1
1070
    44
1040
1.0
1070
    74
1070
     0
1000
MTEXTEND
  0
LINE
  5
16EC1
330
163A9
100
AcDbEntity
  8
寸法
 62
     0
 48
50.0
370
    -2
100
AcDbLine
 10
6162.673057123657
 20
7218.020379654205
 30
0.0
 11
6114.673057123653
 21
7218.020379654205
 31
0.0
  0
INSERT
  5
16EC2
330
163A9
100
AcDbEntity
  8
寸法
 62
     0
 48
50.0
370
    -2
100
AcDbBlockReference
  2
_DOTSMALL
 10
6162.673057123657
 20
7218.020379654205
 30
0.0
 41
100.0
 42
100.0
 43
100.0
 50
180.0
  0
INSERT
  5
16EC3
330
163A9
100
AcDbEntity
  8
寸法
 62
     0
 48
50.0
370
    -2
100
AcDbBlockReference
  2
_DOTSMALL
 10
6114.673057123653
 20
7218.020379654205
 30
0.0
 41
100.0
 42
100.0
 43
100.0
  0
POINT
  5
16EC4
330
163A9
100
AcDbEntity
  8
DEFPOINTS
 62
     0
 48
50.0
100
AcDbPoint
 10
6162.673057123657
 20
7778.451150420368
 30
0.0
  0
POINT
  5
16EC5
330
163A9
100
AcDbEntity
  8
DEFPOINTS
 62
     0
 48
50.0
100
AcDbPoint
 10
6114.673057123653
 20
7752.451150420369
 30
0.0
  0
POINT
  5
16EC6
330
163A9
100
AcDbEntity
  8
DEFPOINTS
 62
     0
 48
50.0
100
AcDbPoint
 10
6114.673057123653
 20
7218.020379654205
 30
0.0
  0
ENDBLK
  5
1647E
330
163A9
100
AcDbEntity
  8
0
 48
50.0
100
AcDbBlockEnd
  0
BLOCK
  5
1647F
330
163B8
100
AcDbEntity
  8
0
 48
50.0
100
AcDbBlockBegin
  2
*D10
 70
     1
 10
0.0
 20
0.0
 30
0.0
  3
*D10
  1

  0
LINE
  5
16EB1
330
163B8
100
AcDbEntity
  8
寸法
 62
     0
 48
50.0
370
    -2
100
AcDbLine
 10
8634.67305712364
 20
7732.451150420456
 30
0.0
 11
8634.67305712364
 21
7158.020379654205
 31
0.0
  0
LINE
  5
16EB2
330
163B8
100
AcDbEntity
  8
寸法
 62
     0
 48
50.0
370
    -2
100
AcDbLine
 10
8586.673057123638
 20
7758.451150420369
 30
0.0
 11
8586.673057123638
 21
7158.020379654205
 31
0.0
  0
LINE
  5
16EB3
330
163B8
100
AcDbEntity
  8
寸法
 62
     0
 48
50.0
370
    -2
100
AcDbLine
 10
8634.67305712364
 20
7218.020379654205
 30
0.0
 11
8734.673057123641
 21
7218.020379654205
 31
0.0
  0
LINE
  5
16EB4
330
163B8
100
AcDbEntity
  8
寸法
 62
     0
 48
50.0
370
    -2
100
AcDbLine
 10
8586.673057123638
 20
7218.020379654205
 30
0.0
 11
8486.673057123638
 21
7218.020379654205
 31
0.0
  0
MTEXT
  5
16EB5
330
163B8
100
AcDbEntity
  8
寸法
 62
     7
 48
50.0
100
AcDbMText
 10
8475.710159474891
 20
7318.020379654204
 30
0.0
 40
120.0
 41
0.0
 71
     5
 72
     1
  1
\A1;48
  7
STYLE1
 73
     1
 44
1.0
1001
ACAD
1000
MTEXTBEGIN
1070
    73
1070
     1
1070
    44
1040
1.0
1070
    74
1070
     0
1000
MTEXTEND
  0
LINE
  5
16EB6
330
163B8
100
AcDbEntity
  8
寸法
 62
     0
 48
50.0
370
    -2
100
AcDbLine
 10
8634.67305712364
 20
7218.020379654205
 30
0.0
 11
8586.673057123638
 21
7218.020379654205
 31
0.0
  0
INSERT
  5
16EB7
330
163B8
100
AcDbEntity
  8
寸法
 62
     0
 48
50.0
370
    -2
100
AcDbBlockReference
  2
_DOTSMALL
 10
8634.67305712364
 20
7218.020379654205
 30
0.0
 41
100.0
 42
100.0
 43
100.0
 50
180.0
  0
INSERT
  5
16EB8
330
163B8
100
AcDbEntity
  8
寸法
 62
     0
 48
50.0
370
    -2
100
AcDbBlockReference
  2
_DOTSMALL
 10
8586.673057123638
 20
7218.020379654205
 30
0.0
 41
100.0
 42
100.0
 43
100.0
  0
POINT
  5
16EB9
330
163B8
100
AcDbEntity
  8
DEFPOINTS
 62
     0
 48
50.0
100
AcDbPoint
 10
8634.67305712364
 20
7752.451150420457
 30
0.0
  0
POINT
  5
16EBA
330
163B8
100
AcDbEntity
  8
DEFPOINTS
 62
     0
 48
50.0
100
AcDbPoint
 10
8586.673057123638
 20
7778.451150420369
 30
0.0
  0
POINT
  5
16EBB
330
163B8
100
AcDbEntity
  8
DEFPOINTS
 62
     0
 48
50.0
100
AcDbPoint
 10
8586.673057123638
 20
7218.020379654205
 30
0.0
  0
ENDBLK
  5
1648C
330
163B8
100
AcDbEntity
  8
0
 48
50.0
100
AcDbBlockEnd
  0
BLOCK
  5
1648D
330
163C7
100
AcDbEntity
  8
0
 48
50.0
100
AcDbBlockBegin
  2
*D11
 70
     1
 10
0.0
 20
0.0
 30
0.0
  3
*D11
  1

  0
LINE
  5
16EA6
330
163C7
100
AcDbEntity
  8
寸法
 62
     0
 48
50.0
370
    -2
100
AcDbLine
 10
8689.67305712364
 20
7732.451150420461
 30
0.0
 11
8689.67305712364
 21
7158.020379654205
 31
0.0
  0
LINE
  5
16EA7
330
163C7
100
AcDbEntity
  8
寸法
 62
     0
 48
50.0
370
    -2
100
AcDbLine
 10
8634.67305712364
 20
7732.451150420456
 30
0.0
 11
8634.67305712364
 21
7158.020379654205
 31
0.0
  0
LINE
  5
16EA8
330
163C7
100
AcDbEntity
  8
寸法
 62
     0
 48
50.0
370
    -2
100
AcDbLine
 10
8634.67305712364
 20
7218.020379654205
 30
0.0
 11
8534.67305712364
 21
7218.020379654205
 31
0.0
  0
LINE
  5
16EA9
330
163C7
100
AcDbEntity
  8
寸法
 62
     0
 48
50.0
370
    -2
100
AcDbLine
 10
8689.67305712364
 20
7218.020379654205
 30
0.0
 11
9106.643619872114
 21
7218.020379654205
 31
0.0
  0
LINE
  5
16EAA
330
163C7
100
AcDbEntity
  8
寸法
 62
     0
 48
50.0
370
    -2
100
AcDbLine
 10
8634.67305712364
 20
7218.020379654205
 30
0.0
 11
8689.67305712364
 21
7218.020379654205
 31
0.0
  0
INSERT
  5
16EAB
330
163C7
100
AcDbEntity
  8
寸法
 62
     0
 48
50.0
370
    -2
100
AcDbBlockReference
  2
_DOTSMALL
 10
8634.67305712364
 20
7218.020379654205
 30
0.0
 41
100.0
 42
100.0
 43
100.0
  0
INSERT
  5
16EAC
330
163C7
100
AcDbEntity
  8
寸法
 62
     0
 48
50.0
370
    -2
100
AcDbBlockReference
  2
_DOTSMALL
 10
8689.67305712364
 20
7218.020379654205
 30
0.0
 41
100.0
 42
100.0
 43
100.0
 50
180.0
  0
MTEXT
  5
16EAD
330
163C7
100
AcDbEntity
  8
寸法
 62
     7
 48
50.0
100
AcDbMText
 10
8998.158338497876
 20
7318.020379654206
 30
0.0
 40
120.0
 41
0.0
 71
     5
 72
     1
  1
\A1;55
  7
STYLE1
 73
     1
 44
1.0
1001
ACAD
1000
MTEXTBEGIN
1070
    73
1070
     1
1070
    44
1040
1.0
1070
    74
1070
     0
1000
MTEXTEND
  0
POINT
  5
16EAE
330
163C7
100
AcDbEntity
  8
DEFPOINTS
 62
     0
 48
50.0
100
AcDbPoint
 10
8689.67305712364
 20
7752.451150420459
 30
0.0
  0
POINT
  5
16EAF
330
163C7
100
AcDbEntity
  8
DEFPOINTS
 62
     0
 48
50.0
100
AcDbPoint
 10
8634.67305712364
 20
7752.451150420457
 30
0.0
  0
POINT
  5
16EB0
330
163C7
100
AcDbEntity
  8
DEFPOINTS
 62
     0
 48
50.0
100
AcDbPoint
 10
8634.67305712364
 20
7218.020379654205
 30
0.0
  0
ENDBLK
  5
16499
330
163C7
100
AcDbEntity
  8
0
 48
50.0
100
AcDbBlockEnd
  0
BLOCK
  5
1661C
330
163E1
100
AcDbEntity
  8
0
 48
50.0
100
AcDbBlockBegin
  2
*D12
 70
     1
 10
0.0
 20
0.0
 30
0.0
  3
*D12
  1

  0
LINE
  5
18F82
330
163E1
100
AcDbEntity
  8
寸法
 62
     0
 48
50.0
370
    -2
100
AcDbLine
 10
6114.673057123663
 20
9982.451150420374
 30
0.0
 11
6114.673057123663
 21
10538.25937004547
 31
0.0
  0
LINE
  5
18F83
330
163E1
100
AcDbEntity
  8
寸法
 62
     0
 48
50.0
370
    -2
100
AcDbLine
 10
8634.673057123665
 20
9982.451150420468
 30
0.0
 11
8634.673057123665
 21
10538.25937004547
 31
0.0
  0
LINE
  5
18F84
330
163E1
100
AcDbEntity
  8
寸法
 62
     0
 48
50.0
370
    -2
100
AcDbLine
 10
6114.673057123663
 20
10478.25937004547
 30
0.0
 11
8634.673057123665
 21
10478.25937004547
 31
0.0
  0
INSERT
  5
18F85
330
163E1
100
AcDbEntity
  8
寸法
 62
     0
 48
50.0
370
    -2
100
AcDbBlockReference
  2
_DOTSMALL
 10
6114.673057123663
 20
10478.25937004547
 30
0.0
 41
100.0
 42
100.0
 43
100.0
 50
180.0
  0
INSERT
  5
18F86
330
163E1
100
AcDbEntity
  8
寸法
 62
     0
 48
50.0
370
    -2
100
AcDbBlockReference
  2
_DOTSMALL
 10
8634.673057123665
 20
10478.25937004547
 30
0.0
 41
100.0
 42
100.0
 43
100.0
  0
MTEXT
  5
18F87
330
163E1
100
AcDbEntity
  8
寸法
 62
     7
 48
50.0
100
AcDbMText
 10
7374.673057123664
 20
10578.27118106909
 30
0.0
 40
120.0
 41
0.0
 71
     5
 72
     1
  1
\A1;6X420=2520
  7
STYLE1
 73
     1
 44
1.0
1001
ACAD
1000
MTEXTBEGIN
1070
    73
1070
     1
1070
    44
1040
1.0
1070
    74
1070
     0
1000
MTEXTEND
  0
POINT
  5
18F88
330
163E1
100
AcDbEntity
  8
DEFPOINTS
 62
     0
 48
50.0
100
AcDbPoint
 10
6114.673057123663
 20
9962.451150420372
 30
0.0
  0
POINT
  5
18F89
330
163E1
100
AcDbEntity
  8
DEFPOINTS
 62
     0
 48
50.0
100
AcDbPoint
 10
8634.673057123665
 20
9962.451150420468
 30
0.0
  0
POINT
  5
18F8A
330
163E1
100
AcDbEntity
  8
DEFPOINTS
 62
     0
 48
50.0
100
AcDbPoint
 10
8634.673057123665
 20
10478.25937004547
 30
0.0
  0
ENDBLK
  5
16626
330
163E1
100
AcDbEntity
  8
0
 48
50.0
100
AcDbBlockEnd
  0
BLOCK
  5
164B0
330
163ED
100
AcDbEntity
  8
0
 48
50.0
100
AcDbBlockBegin
  2
*D13
 70
     1
 10
0.0
 20
0.0
 30
0.0
  3
*D13
  1

  0
LINE
  5
18F77
330
163ED
100
AcDbEntity
  8
寸法
 62
     0
 48
50.0
370
    -2
100
AcDbLine
 10
3429.673057123629
 20
9982.451150420374
 30
0.0
 11
3429.673057123629
 21
10538.25937004535
 31
0.0
  0
LINE
  5
18F78
330
163ED
100
AcDbEntity
  8
寸法
 62
     0
 48
50.0
370
    -2
100
AcDbLine
 10
3484.673057123663
 20
9982.451150420374
 30
0.0
 11
3484.673057123663
 21
10538.25937004535
 31
0.0
  0
LINE
  5
18F79
330
163ED
100
AcDbEntity
  8
寸法
 62
     0
 48
50.0
370
    -2
100
AcDbLine
 10
3484.673057123663
 20
10478.25937004535
 30
0.0
 11
3584.673057123664
 21
10478.25937004535
 31
0.0
  0
LINE
  5
18F7A
330
163ED
100
AcDbEntity
  8
寸法
 62
     0
 48
50.0
370
    -2
100
AcDbLine
 10
3429.673057123629
 20
10478.25937004535
 30
0.0
 11
3012.702494375151
 21
10478.25937004535
 31
0.0
  0
LINE
  5
18F7B
330
163ED
100
AcDbEntity
  8
寸法
 62
     0
 48
50.0
370
    -2
100
AcDbLine
 10
3484.673057123663
 20
10478.25937004535
 30
0.0
 11
3429.673057123629
 21
10478.25937004535
 31
0.0
  0
INSERT
  5
18F7C
330
163ED
100
AcDbEntity
  8
寸法
 62
     0
 48
50.0
370
    -2
100
AcDbBlockReference
  2
_DOTSMALL
 10
3484.673057123663
 20
10478.25937004535
 30
0.0
 41
100.0
 42
100.0
 43
100.0
 50
180.0
  0
INSERT
  5
18F7D
330
163ED
100
AcDbEntity
  8
寸法
 62
     0
 48
50.0
370
    -2
100
AcDbBlockReference
  2
_DOTSMALL
 10
3429.673057123629
 20
10478.25937004535
 30
0.0
 41
100.0
 42
100.0
 43
100.0
  0
MTEXT
  5
18F7E
330
163ED
100
AcDbEntity
  8
寸法
 62
     7
 48
50.0
100
AcDbMText
 10
3121.18777574939
 20
10578.25937004535
 30
0.0
 40
120.0
 41
0.0
 71
     5
 72
     1
  1
\A1;55
  7
STYLE1
 73
     1
 44
1.0
1001
ACAD
1000
MTEXTBEGIN
1070
    73
1070
     1
1070
    44
1040
1.0
1070
    74
1070
     0
1000
MTEXTEND
  0
POINT
  5
18F7F
330
163ED
100
AcDbEntity
  8
DEFPOINTS
 62
     0
 48
50.0
100
AcDbPoint
 10
3429.673057123629
 20
9962.451150420372
 30
0.0
  0
POINT
  5
18F80
330
163ED
100
AcDbEntity
  8
DEFPOINTS
 62
     0
 48
50.0
100
AcDbPoint
 10
3484.673057123663
 20
9962.451150420372
 30
0.0
  0
POINT
  5
18F81
330
163ED
100
AcDbEntity
  8
DEFPOINTS
 62
     0
 48
50.0
100
AcDbPoint
 10
3484.673057123663
 20
10478.25937004535
 30
0.0
  0
ENDBLK
  5
164BC
330
163ED
100
AcDbEntity
  8
0
 48
50.0
100
AcDbBlockEnd
  0
BLOCK
  5
164BD
330
163FB
100
AcDbEntity
  8
0
 48
50.0
100
AcDbBlockBegin
  2
*D14
 70
     1
 10
0.0
 20
0.0
 30
0.0
  3
*D14
  1

  0
LINE
  5
18F6C
330
163FB
100
AcDbEntity
  8
寸法
 62
     0
 48
50.0
370
    -2
100
AcDbLine
 10
8634.673057123665
 20
9982.451150420468
 30
0.0
 11
8634.673057123665
 21
10538.25937004545
 31
0.0
  0
LINE
  5
18F6D
330
163FB
100
AcDbEntity
  8
寸法
 62
     0
 48
50.0
370
    -2
100
AcDbLine
 10
8689.673057123664
 20
9982.451150420468
 30
0.0
 11
8689.673057123664
 21
10538.25937004545
 31
0.0
  0
LINE
  5
18F6E
330
163FB
100
AcDbEntity
  8
寸法
 62
     0
 48
50.0
370
    -2
100
AcDbLine
 10
8634.673057123665
 20
10478.25937004545
 30
0.0
 11
8534.673057123665
 21
10478.25937004545
 31
0.0
  0
LINE
  5
18F6F
330
163FB
100
AcDbEntity
  8
寸法
 62
     0
 48
50.0
370
    -2
100
AcDbLine
 10
8689.673057123664
 20
10478.25937004545
 30
0.0
 11
9106.643619872141
 21
10478.25937004545
 31
0.0
  0
LINE
  5
18F70
330
163FB
100
AcDbEntity
  8
寸法
 62
     0
 48
50.0
370
    -2
100
AcDbLine
 10
8634.673057123665
 20
10478.25937004545
 30
0.0
 11
8689.673057123664
 21
10478.25937004545
 31
0.0
  0
INSERT
  5
18F71
330
163FB
100
AcDbEntity
  8
寸法
 62
     0
 48
50.0
370
    -2
100
AcDbBlockReference
  2
_DOTSMALL
 10
8634.673057123665
 20
10478.25937004545
 30
0.0
 41
100.0
 42
100.0
 43
100.0
  0
INSERT
  5
18F72
330
163FB
100
AcDbEntity
  8
寸法
 62
     0
 48
50.0
370
    -2
100
AcDbBlockReference
  2
_DOTSMALL
 10
8689.673057123664
 20
10478.25937004545
 30
0.0
 41
100.0
 42
100.0
 43
100.0
 50
180.0
  0
MTEXT
  5
18F73
330
163FB
100
AcDbEntity
  8
寸法
 62
     7
 48
50.0
100
AcDbMText
 10
8998.158338497901
 20
10578.25937004545
 30
0.0
 40
120.0
 41
0.0
 71
     5
 72
     1
  1
\A1;55
  7
STYLE1
 73
     1
 44
1.0
1001
ACAD
1000
MTEXTBEGIN
1070
    73
1070
     1
1070
    44
1040
1.0
1070
    74
1070
     0
1000
MTEXTEND
  0
POINT
  5
18F74
330
163FB
100
AcDbEntity
  8
DEFPOINTS
 62
     0
 48
50.0
100
AcDbPoint
 10
8634.673057123665
 20
9962.451150420468
 30
0.0
  0
POINT
  5
18F75
330
163FB
100
AcDbEntity
  8
DEFPOINTS
 62
     0
 48
50.0
100
AcDbPoint
 10
8689.673057123664
 20
9962.451150420468
 30
0.0
  0
POINT
  5
18F76
330
163FB
100
AcDbEntity
  8
DEFPOINTS
 62
     0
 48
50.0
100
AcDbPoint
 10
8689.673057123664
 20
10478.25937004545
 30
0.0
  0
ENDBLK
  5
164C9
330
163FB
100
AcDbEntity
  8
0
 48
50.0
100
AcDbBlockEnd
  0
BLOCK
  5
1659F
330
1659E
100
AcDbEntity
  8
0
 48
50.0
100
AcDbBlockBegin
  2
*D15
 70
     1
 10
0.0
 20
0.0
 30
0.0
  3
*D15
  1

  0
LINE
  5
16E6B
330
1659E
100
AcDbEntity
  8
寸法
 62
     0
 48
50.0
370
    -2
100
AcDbLine
 10
3532.673057123657
 20
7758.451150420369
 30
0.0
 11
3532.673057123657
 21
7158.020379654205
 31
0.0
  0
LINE
  5
16E6C
330
1659E
100
AcDbEntity
  8
寸法
 62
     0
 48
50.0
370
    -2
100
AcDbLine
 10
5956.673057123638
 20
7218.020379654205
 30
0.0
 11
3532.673057123657
 21
7218.020379654205
 31
0.0
  0
INSERT
  5
16E6D
330
1659E
100
AcDbEntity
  8
寸法
 62
     0
 48
50.0
370
    -2
100
AcDbBlockReference
  2
_DOTSMALL
 10
5956.673057123638
 20
7218.020379654205
 30
0.0
 41
100.0
 42
100.0
 43
100.0
  0
INSERT
  5
16E6E
330
1659E
100
AcDbEntity
  8
寸法
 62
     0
 48
50.0
370
    -2
100
AcDbBlockReference
  2
_DOTSMALL
 10
3532.673057123657
 20
7218.020379654205
 30
0.0
 41
100.0
 42
100.0
 43
100.0
 50
180.0
  0
MTEXT
  5
16E6F
330
1659E
100
AcDbEntity
  8
寸法
 62
     7
 48
50.0
100
AcDbMText
 10
4744.673057123647
 20
7318.032190677826
 30
0.0
 40
120.0
 41
0.0
 71
     5
 72
     1
  1
\A1;有効開口部間口 2424
  7
STYLE1
 73
     1
 44
1.0
1001
ACAD
1000
MTEXTBEGIN
1070
    73
1070
     1
1070
    44
1040
1.0
1070
    74
1070
     0
1000
MTEXTEND
  0
POINT
  5
16E70
330
1659E
100
AcDbEntity
  8
DEFPOINTS
 62
     0
 48
50.0
100
AcDbPoint
 10
5956.673057123638
 20
7778.451150420369
 30
0.0
  0
POINT
  5
16E71
330
1659E
100
AcDbEntity
  8
DEFPOINTS
 62
     0
 48
50.0
100
AcDbPoint
 10
3532.673057123657
 20
7778.451150420368
 30
0.0
  0
POINT
  5
16E72
330
1659E
100
AcDbEntity
  8
DEFPOINTS
 62
     0
 48
50.0
100
AcDbPoint
 10
3532.673057123657
 20
7218.020379654205
 30
0.0
  0
ENDBLK
  5
165A8
330
1659E
100
AcDbEntity
  8
0
 48
50.0
100
AcDbBlockEnd
  0
BLOCK
  5
165B6
330
165B5
100
AcDbEntity
  8
0
 48
50.0
100
AcDbBlockBegin
  2
*D16
 70
     1
 10
0.0
 20
0.0
 30
0.0
  3
*D16
  1

  0
LINE
  5
16E60
330
165B5
100
AcDbEntity
  8
寸法
 62
     0
 48
50.0
370
    -2
100
AcDbLine
 10
3532.673057123657
 20
7758.451150420369
 30
0.0
 11
3532.673057123657
 21
7158.020379654205
 31
0.0
  0
LINE
  5
16E61
330
165B5
100
AcDbEntity
  8
寸法
 62
     0
 48
50.0
370
    -2
100
AcDbLine
 10
3484.673057123654
 20
7732.451150420368
 30
0.0
 11
3484.673057123654
 21
7158.020379654205
 31
0.0
  0
LINE
  5
16E62
330
165B5
100
AcDbEntity
  8
寸法
 62
     0
 48
50.0
370
    -2
100
AcDbLine
 10
3532.673057123657
 20
7218.020379654205
 30
0.0
 11
3632.673057123657
 21
7218.020379654205
 31
0.0
  0
LINE
  5
16E63
330
165B5
100
AcDbEntity
  8
寸法
 62
     0
 48
50.0
370
    -2
100
AcDbLine
 10
3484.673057123654
 20
7218.020379654205
 30
0.0
 11
3384.673057123654
 21
7218.020379654205
 31
0.0
  0
MTEXT
  5
16E64
330
165B5
100
AcDbEntity
  8
寸法
 62
     7
 48
50.0
100
AcDbMText
 10
3645.575028123714
 20
7318.020379654204
 30
0.0
 40
120.0
 41
0.0
 71
     5
 72
     1
  1
\A1;48
  7
STYLE1
 73
     1
 44
1.0
1001
ACAD
1000
MTEXTBEGIN
1070
    73
1070
     1
1070
    44
1040
1.0
1070
    74
1070
     0
1000
MTEXTEND
  0
LINE
  5
16E65
330
165B5
100
AcDbEntity
  8
寸法
 62
     0
 48
50.0
370
    -2
100
AcDbLine
 10
3532.673057123657
 20
7218.020379654205
 30
0.0
 11
3484.673057123654
 21
7218.020379654205
 31
0.0
  0
INSERT
  5
16E66
330
165B5
100
AcDbEntity
  8
寸法
 62
     0
 48
50.0
370
    -2
100
AcDbBlockReference
  2
_DOTSMALL
 10
3532.673057123657
 20
7218.020379654205
 30
0.0
 41
100.0
 42
100.0
 43
100.0
 50
180.0
  0
INSERT
  5
16E67
330
165B5
100
AcDbEntity
  8
寸法
 62
     0
 48
50.0
370
    -2
100
AcDbBlockReference
  2
_DOTSMALL
 10
3484.673057123654
 20
7218.020379654205
 30
0.0
 41
100.0
 42
100.0
 43
100.0
  0
POINT
  5
16E68
330
165B5
100
AcDbEntity
  8
DEFPOINTS
 62
     0
 48
50.0
100
AcDbPoint
 10
3532.673057123657
 20
7778.451150420368
 30
0.0
  0
POINT
  5
16E69
330
165B5
100
AcDbEntity
  8
DEFPOINTS
 62
     0
 48
50.0
100
AcDbPoint
 10
3484.673057123654
 20
7752.451150420369
 30
0.0
  0
POINT
  5
16E6A
330
165B5
100
AcDbEntity
  8
DEFPOINTS
 62
     0
 48
50.0
100
AcDbPoint
 10
3484.673057123654
 20
7218.020379654205
 30
0.0
  0
ENDBLK
  5
165C3
330
165B5
100
AcDbEntity
  8
0
 48
50.0
100
AcDbBlockEnd
  0
BLOCK
  5
165C5
330
165C4
100
AcDbEntity
  8
0
 48
50.0
100
AcDbBlockBegin
  2
*D17
 70
     1
 10
0.0
 20
0.0
 30
0.0
  3
*D17
  1

  0
LINE
  5
16E73
330
165C4
100
AcDbEntity
  8
寸法
 62
     0
 48
50.0
370
    -2
100
AcDbLine
 10
6004.67305712364
 20
7732.451150420456
 30
0.0
 11
6004.67305712364
 21
7158.020379654205
 31
0.0
  0
LINE
  5
16E74
330
165C4
100
AcDbEntity
  8
寸法
 62
     0
 48
50.0
370
    -2
100
AcDbLine
 10
5956.673057123638
 20
7758.451150420369
 30
0.0
 11
5956.673057123638
 21
7158.020379654205
 31
0.0
  0
LINE
  5
16E75
330
165C4
100
AcDbEntity
  8
寸法
 62
     0
 48
50.0
370
    -2
100
AcDbLine
 10
6004.67305712364
 20
7218.020379654205
 30
0.0
 11
6104.67305712364
 21
7218.020379654205
 31
0.0
  0
LINE
  5
16E76
330
165C4
100
AcDbEntity
  8
寸法
 62
     0
 48
50.0
370
    -2
100
AcDbLine
 10
5956.673057123638
 20
7218.020379654205
 30
0.0
 11
5856.673057123638
 21
7218.020379654205
 31
0.0
  0
MTEXT
  5
16E77
330
165C4
100
AcDbEntity
  8
寸法
 62
     7
 48
50.0
100
AcDbMText
 10
5845.710159474891
 20
7318.020379654204
 30
0.0
 40
120.0
 41
0.0
 71
     5
 72
     1
  1
\A1;48
  7
STYLE1
 73
     1
 44
1.0
1001
ACAD
1000
MTEXTBEGIN
1070
    73
1070
     1
1070
    44
1040
1.0
1070
    74
1070
     0
1000
MTEXTEND
  0
LINE
  5
16E78
330
165C4
100
AcDbEntity
  8
寸法
 62
     0
 48
50.0
370
    -2
100
AcDbLine
 10
6004.67305712364
 20
7218.020379654205
 30
0.0
 11
5956.673057123638
 21
7218.020379654205
 31
0.0
  0
INSERT
  5
16E79
330
165C4
100
AcDbEntity
  8
寸法
 62
     0
 48
50.0
370
    -2
100
AcDbBlockReference
  2
_DOTSMALL
 10
6004.67305712364
 20
7218.020379654205
 30
0.0
 41
100.0
 42
100.0
 43
100.0
 50
180.0
  0
INSERT
  5
16E7A
330
165C4
100
AcDbEntity
  8
寸法
 62
     0
 48
50.0
370
    -2
100
AcDbBlockReference
  2
_DOTSMALL
 10
5956.673057123638
 20
7218.020379654205
 30
0.0
 41
100.0
 42
100.0
 43
100.0
  0
POINT
  5
16E7B
330
165C4
100
AcDbEntity
  8
DEFPOINTS
 62
     0
 48
50.0
100
AcDbPoint
 10
6004.67305712364
 20
7752.451150420457
 30
0.0
  0
POINT
  5
16E7C
330
165C4
100
AcDbEntity
  8
DEFPOINTS
 62
     0
 48
50.0
100
AcDbPoint
 10
5956.673057123638
 20
7778.451150420369
 30
0.0
  0
POINT
  5
16E7D
330
165C4
100
AcDbEntity
  8
DEFPOINTS
 62
     0
 48
50.0
100
AcDbPoint
 10
5956.673057123638
 20
7218.020379654205
 30
0.0
  0
ENDBLK
  5
165D2
330
165C4
100
AcDbEntity
  8
0
 48
50.0
100
AcDbBlockEnd
  0
BLOCK
  5
1663F
330
165EA
100
AcDbEntity
  8
0
 48
50.0
100
AcDbBlockBegin
  2
*D18
 70
     1
 10
0.0
 20
0.0
 30
0.0
  3
*D18
  1

  0
LINE
  5
16E57
330
165EA
100
AcDbEntity
  8
寸法
 62
     0
 48
50.0
370
    -2
100
AcDbLine
 10
6114.673057123653
 20
7732.451150420368
 30
0.0
 11
6114.673057123653
 21
7158.020379654205
 31
0.0
  0
LINE
  5
16E58
330
165EA
100
AcDbEntity
  8
寸法
 62
     0
 48
50.0
370
    -2
100
AcDbLine
 10
6004.67305712364
 20
7732.451150420456
 30
0.0
 11
6004.67305712364
 21
7158.020379654205
 31
0.0
  0
LINE
  5
16E59
330
165EA
100
AcDbEntity
  8
寸法
 62
     0
 48
50.0
370
    -2
100
AcDbLine
 10
6114.673057123653
 20
7218.020379654205
 30
0.0
 11
6004.67305712364
 21
7218.020379654205
 31
0.0
  0
MTEXT
  5
16E5A
330
165EA
100
AcDbEntity
  8
寸法
 62
     7
 48
50.0
100
AcDbMText
 10
6059.673057123647
 20
7066.328484617973
 30
0.0
 40
120.0
 41
0.0
 71
     5
 72
     1
  1
\A1;110
  7
STYLE1
 73
     1
 44
1.0
1001
ACAD
1000
MTEXTBEGIN
1070
    73
1070
     1
1070
    44
1040
1.0
1070
    74
1070
     0
1000
MTEXTEND
  0
INSERT
  5
16E5B
330
165EA
100
AcDbEntity
  8
寸法
 62
     0
 48
50.0
370
    -2
100
AcDbBlockReference
  2
_DOTSMALL
 10
6114.673057123653
 20
7218.020379654205
 30
0.0
 41
100.0
 42
100.0
 43
100.0
  0
INSERT
  5
16E5C
330
165EA
100
AcDbEntity
  8
寸法
 62
     0
 48
50.0
370
    -2
100
AcDbBlockReference
  2
_DOTSMALL
 10
6004.67305712364
 20
7218.020379654205
 30
0.0
 41
100.0
 42
100.0
 43
100.0
 50
180.0
  0
POINT
  5
16E5D
330
165EA
100
AcDbEntity
  8
DEFPOINTS
 62
     0
 48
50.0
100
AcDbPoint
 10
6114.673057123653
 20
7752.451150420369
 30
0.0
  0
POINT
  5
16E5E
330
165EA
100
AcDbEntity
  8
DEFPOINTS
 62
     0
 48
50.0
100
AcDbPoint
 10
6004.67305712364
 20
7752.451150420457
 30
0.0
  0
POINT
  5
16E5F
330
165EA
100
AcDbEntity
  8
DEFPOINTS
 62
     0
 48
50.0
100
AcDbPoint
 10
6004.67305712364
 20
7218.020379654205
 30
0.0
  0
ENDBLK
  5
16649
330
165EA
100
AcDbEntity
  8
0
 48
50.0
100
AcDbBlockEnd
  0
BLOCK
  5
166AE
330
166AD
100
AcDbEntity
  8
0
 48
50.0
100
AcDbBlockBegin
  2
*D19
 70
     1
 10
0.0
 20
0.0
 30
0.0
  3
*D19
  1

  0
LINE
  5
18F63
330
166AD
100
AcDbEntity
  8
寸法
 62
     0
 48
50.0
370
    -2
100
AcDbLine
 10
3484.673057123663
 20
9982.451150420374
 30
0.0
 11
3484.673057123663
 21
10538.25937004547
 31
0.0
  0
LINE
  5
18F64
330
166AD
100
AcDbEntity
  8
寸法
 62
     0
 48
50.0
370
    -2
100
AcDbLine
 10
6004.673057123664
 20
9982.451150420468
 30
0.0
 11
6004.673057123664
 21
10538.25937004547
 31
0.0
  0
LINE
  5
18F65
330
166AD
100
AcDbEntity
  8
寸法
 62
     0
 48
50.0
370
    -2
100
AcDbLine
 10
3484.673057123663
 20
10478.25937004547
 30
0.0
 11
6004.673057123664
 21
10478.25937004547
 31
0.0
  0
INSERT
  5
18F66
330
166AD
100
AcDbEntity
  8
寸法
 62
     0
 48
50.0
370
    -2
100
AcDbBlockReference
  2
_DOTSMALL
 10
3484.673057123663
 20
10478.25937004547
 30
0.0
 41
100.0
 42
100.0
 43
100.0
 50
180.0
  0
INSERT
  5
18F67
330
166AD
100
AcDbEntity
  8
寸法
 62
     0
 48
50.0
370
    -2
100
AcDbBlockReference
  2
_DOTSMALL
 10
6004.673057123664
 20
10478.25937004547
 30
0.0
 41
100.0
 42
100.0
 43
100.0
  0
MTEXT
  5
18F68
330
166AD
100
AcDbEntity
  8
寸法
 62
     7
 48
50.0
100
AcDbMText
 10
4744.673057123664
 20
10578.27118106909
 30
0.0
 40
120.0
 41
0.0
 71
     5
 72
     1
  1
\A1;6X420=2520
  7
STYLE1
 73
     1
 44
1.0
1001
ACAD
1000
MTEXTBEGIN
1070
    73
1070
     1
1070
    44
1040
1.0
1070
    74
1070
     0
1000
MTEXTEND
  0
POINT
  5
18F69
330
166AD
100
AcDbEntity
  8
DEFPOINTS
 62
     0
 48
50.0
100
AcDbPoint
 10
3484.673057123663
 20
9962.451150420372
 30
0.0
  0
POINT
  5
18F6A
330
166AD
100
AcDbEntity
  8
DEFPOINTS
 62
     0
 48
50.0
100
AcDbPoint
 10
6004.673057123664
 20
9962.451150420468
 30
0.0
  0
POINT
  5
18F6B
330
166AD
100
AcDbEntity
  8
DEFPOINTS
 62
     0
 48
50.0
100
AcDbPoint
 10
6004.673057123664
 20
10478.25937004547
 30
0.0
  0
ENDBLK
  5
166B8
330
166AD
100
AcDbEntity
  8
0
 48
50.0
100
AcDbBlockEnd
  0
BLOCK
  5
166D0
330
166CF
100
AcDbEntity
  8
0
 48
50.0
100
AcDbBlockBegin
  2
*D20
 70
     1
 10
0.0
 20
0.0
 30
0.0
  3
*D20
  1

  0
LINE
  5
18F58
330
166CF
100
AcDbEntity
  8
寸法
 62
     0
 48
50.0
370
    -2
100
AcDbLine
 10
6114.673057123663
 20
9982.451150420423
 30
0.0
 11
6114.673057123663
 21
10538.25937004547
 31
0.0
  0
LINE
  5
18F59
330
166CF
100
AcDbEntity
  8
寸法
 62
     0
 48
50.0
370
    -2
100
AcDbLine
 10
6004.673057123664
 20
9982.451150420418
 30
0.0
 11
6004.673057123664
 21
10538.25937004547
 31
0.0
  0
LINE
  5
18F5A
330
166CF
100
AcDbEntity
  8
寸法
 62
     0
 48
50.0
370
    -2
100
AcDbLine
 10
6114.673057123663
 20
10478.25937004547
 30
0.0
 11
6214.673057123663
 21
10478.25937004547
 31
0.0
  0
LINE
  5
18F5B
330
166CF
100
AcDbEntity
  8
寸法
 62
     0
 48
50.0
370
    -2
100
AcDbLine
 10
6004.673057123664
 20
10478.25937004547
 30
0.0
 11
5904.673057123664
 21
10478.25937004547
 31
0.0
  0
LINE
  5
18F5C
330
166CF
100
AcDbEntity
  8
寸法
 62
     0
 48
50.0
370
    -2
100
AcDbLine
 10
6114.673057123663
 20
10478.25937004547
 30
0.0
 11
6004.673057123664
 21
10478.25937004547
 31
0.0
  0
INSERT
  5
18F5D
330
166CF
100
AcDbEntity
  8
寸法
 62
     0
 48
50.0
370
    -2
100
AcDbBlockReference
  2
_DOTSMALL
 10
6114.673057123663
 20
10478.25937004547
 30
0.0
 41
100.0
 42
100.0
 43
100.0
 50
180.0
  0
INSERT
  5
18F5E
330
166CF
100
AcDbEntity
  8
寸法
 62
     0
 48
50.0
370
    -2
100
AcDbBlockReference
  2
_DOTSMALL
 10
6004.673057123664
 20
10478.25937004547
 30
0.0
 41
100.0
 42
100.0
 43
100.0
  0
MTEXT
  5
18F5F
330
166CF
100
AcDbEntity
  8
寸法
 62
     7
 48
50.0
100
AcDbMText
 10
6059.673057123664
 20
10578.25937004547
 30
0.0
 40
120.0
 41
0.0
 71
     5
 72
     1
  1
\A1;110
  7
STYLE1
 73
     1
 44
1.0
1001
ACAD
1000
MTEXTBEGIN
1070
    73
1070
     1
1070
    44
1040
1.0
1070
    74
1070
     0
1000
MTEXTEND
  0
POINT
  5
18F60
330
166CF
100
AcDbEntity
  8
DEFPOINTS
 62
     0
 48
50.0
100
AcDbPoint
 10
6114.673057123663
 20
9962.451150420422
 30
0.0
  0
POINT
  5
18F61
330
166CF
100
AcDbEntity
  8
DEFPOINTS
 62
     0
 48
50.0
100
AcDbPoint
 10
6004.673057123664
 20
9962.451150420418
 30
0.0
  0
POINT
  5
18F62
330
166CF
100
AcDbEntity
  8
DEFPOINTS
 62
     0
 48
50.0
100
AcDbPoint
 10
6004.673057123664
 20
10478.25937004547
 30
0.0
  0
ENDBLK
  5
166DC
330
166CF
100
AcDbEntity
  8
0
 48
50.0
100
AcDbBlockEnd
  0
BLOCK
  5
16948
330
168FB
100
AcDbEntity
  8
0
 48
50.0
100
AcDbBlockBegin
  2
*D21
 70
     1
 10
0.0
 20
0.0
 30
0.0
  3
*D21
  1

  0
LINE
  5
18F4F
330
168FB
100
AcDbEntity
  8
寸法
 62
     0
 48
50.0
370
    -2
100
AcDbLine
 10
3429.673057123629
 20
9982.45115042034
 30
0.0
 11
3429.673057123629
 21
10787.58084360176
 31
0.0
  0
LINE
  5
18F50
330
168FB
100
AcDbEntity
  8
寸法
 62
     0
 48
50.0
370
    -2
100
AcDbLine
 10
6059.673057123664
 20
10657.24728440341
 30
0.0
 11
6059.673057123664
 21
10787.58084360176
 31
0.0
  0
LINE
  5
18F51
330
168FB
100
AcDbEntity
  8
寸法
 62
     0
 48
50.0
370
    -2
100
AcDbLine
 10
3429.673057123629
 20
10727.58084360176
 30
0.0
 11
6059.673057123664
 21
10727.58084360176
 31
0.0
  0
INSERT
  5
18F52
330
168FB
100
AcDbEntity
  8
寸法
 62
     0
 48
50.0
370
    -2
100
AcDbBlockReference
  2
_DOTSMALL
 10
3429.673057123629
 20
10727.58084360176
 30
0.0
 41
100.0
 42
100.0
 43
100.0
 50
180.0
  0
INSERT
  5
18F53
330
168FB
100
AcDbEntity
  8
寸法
 62
     0
 48
50.0
370
    -2
100
AcDbBlockReference
  2
_DOTSMALL
 10
6059.673057123664
 20
10727.58084360176
 30
0.0
 41
100.0
 42
100.0
 43
100.0
  0
MTEXT
  5
18F54
330
168FB
100
AcDbEntity
  8
寸法
 62
     7
 48
50.0
100
AcDbMText
 10
4744.673057123645
 20
10827.59265462538
 30
0.0
 40
120.0
 41
0.0
 71
     5
 72
     1
  1
\A1;2630
  7
STYLE1
 73
     1
 44
1.0
1001
ACAD
1000
MTEXTBEGIN
1070
    73
1070
     1
1070
    44
1040
1.0
1070
    74
1070
     0
1000
MTEXTEND
  0
POINT
  5
18F55
330
168FB
100
AcDbEntity
  8
DEFPOINTS
 62
     0
 48
50.0
100
AcDbPoint
 10
3429.673057123629
 20
9962.45115042034
 30
0.0
  0
POINT
  5
18F56
330
168FB
100
AcDbEntity
  8
DEFPOINTS
 62
     0
 48
50.0
100
AcDbPoint
 10
6059.673057123664
 20
10637.24728440341
 30
0.0
  0
POINT
  5
18F57
330
168FB
100
AcDbEntity
  8
DEFPOINTS
 62
     0
 48
50.0
100
AcDbPoint
 10
6059.673057123664
 20
10727.58084360176
 30
0.0
  0
ENDBLK
  5
16952
330
168FB
100
AcDbEntity
  8
0
 48
50.0
100
AcDbBlockEnd
  0
BLOCK
  5
1693E
330
16908
100
AcDbEntity
  8
0
 48
50.0
100
AcDbBlockBegin
  2
*D22
 70
     1
 10
0.0
 20
0.0
 30
0.0
  3
*D22
  1

  0
LINE
  5
18F47
330
16908
100
AcDbEntity
  8
寸法
 62
     0
 48
50.0
370
    -2
100
AcDbLine
 10
8689.673057123664
 20
9982.451150420468
 30
0.0
 11
8689.673057123664
 21
10787.58084360176
 31
0.0
  0
LINE
  5
18F48
330
16908
100
AcDbEntity
  8
寸法
 62
     0
 48
50.0
370
    -2
100
AcDbLine
 10
6059.673057123664
 20
10727.58084360176
 30
0.0
 11
8689.673057123664
 21
10727.58084360176
 31
0.0
  0
INSERT
  5
18F49
330
16908
100
AcDbEntity
  8
寸法
 62
     0
 48
50.0
370
    -2
100
AcDbBlockReference
  2
_DOTSMALL
 10
6059.673057123664
 20
10727.58084360176
 30
0.0
 41
100.0
 42
100.0
 43
100.0
 50
180.0
  0
INSERT
  5
18F4A
330
16908
100
AcDbEntity
  8
寸法
 62
     0
 48
50.0
370
    -2
100
AcDbBlockReference
  2
_DOTSMALL
 10
8689.673057123664
 20
10727.58084360176
 30
0.0
 41
100.0
 42
100.0
 43
100.0
  0
MTEXT
  5
18F4B
330
16908
100
AcDbEntity
  8
寸法
 62
     7
 48
50.0
100
AcDbMText
 10
7374.673057123664
 20
10827.59265462538
 30
0.0
 40
120.0
 41
0.0
 71
     5
 72
     1
  1
\A1;2630
  7
STYLE1
 73
     1
 44
1.0
1001
ACAD
1000
MTEXTBEGIN
1070
    73
1070
     1
1070
    44
1040
1.0
1070
    74
1070
     0
1000
MTEXTEND
  0
POINT
  5
18F4C
330
16908
100
AcDbEntity
  8
DEFPOINTS
 62
     0
 48
50.0
100
AcDbPoint
 10
6059.673057123664
 20
10637.24728440341
 30
0.0
  0
POINT
  5
18F4D
330
16908
100
AcDbEntity
  8
DEFPOINTS
 62
     0
 48
50.0
100
AcDbPoint
 10
8689.673057123664
 20
9962.451150420468
 30
0.0
  0
POINT
  5
18F4E
330
16908
100
AcDbEntity
  8
DEFPOINTS
 62
     0
 48
50.0
100
AcDbPoint
 10
8689.673057123664
 20
10727.58084360176
 30
0.0
  0
ENDBLK
  5
16947
330
16908
100
AcDbEntity
  8
0
 48
50.0
100
AcDbBlockEnd
  0
BLOCK
  5
177EE
330
177E4
100
AcDbEntity
  8
0
 48
50.0
100
AcDbBlockBegin
  2
*D23
 70
     1
 10
0.0
 20
0.0
 30
0.0
  3
*D23
  1

  0
LINE
  5
17B65
330
177E4
100
AcDbEntity
  8
寸法
 62
     0
 48
50.0
370
    -2
100
AcDbLine
 10
10979.56946577019
 20
4991.810184557999
 30
0.0
 11
10095.81933658693
 21
4991.810184558
 31
0.0
  0
LINE
  5
17B66
330
177E4
100
AcDbEntity
  8
寸法
 62
     0
 48
50.0
370
    -2
100
AcDbLine
 10
10979.56946577019
 20
2901.810184557997
 30
0.0
 11
10095.81933658693
 21
2901.810184557997
 31
0.0
  0
LINE
  5
17B67
330
177E4
100
AcDbEntity
  8
寸法
 62
     0
 48
50.0
370
    -2
100
AcDbLine
 10
10155.81933658693
 20
4991.810184558
 30
0.0
 11
10155.81933658693
 21
2901.810184557997
 31
0.0
  0
INSERT
  5
17B68
330
177E4
100
AcDbEntity
  8
寸法
 62
     0
 48
50.0
370
    -2
100
AcDbBlockReference
  2
_DOTSMALL
 10
10155.81933658693
 20
4991.810184558
 30
0.0
 41
100.0
 42
100.0
 43
100.0
 50
90.0
  0
INSERT
  5
17B69
330
177E4
100
AcDbEntity
  8
寸法
 62
     0
 48
50.0
370
    -2
100
AcDbBlockReference
  2
_DOTSMALL
 10
10155.81933658693
 20
2901.810184557997
 30
0.0
 41
100.0
 42
100.0
 43
100.0
 50
270.0
  0
MTEXT
  5
17B6A
330
177E4
100
AcDbEntity
  8
寸法
 62
     7
 48
50.0
100
AcDbMText
 10
10055.8075255633
 20
3946.810184558
 30
0.0
 40
120.0
 41
0.0
 71
     5
 72
     1
  1
\A1;2090
  7
STYLE1
 11
0.0000000000000001
 21
1.0
 31
0.0
 73
     1
 44
1.0
1001
ACAD
1000
MTEXTBEGIN
1070
    73
1070
     1
1070
    44
1040
1.0
1070
    74
1070
     0
1000
MTEXTEND
  0
POINT
  5
17B6B
330
177E4
100
AcDbEntity
  8
DEFPOINTS
 62
     0
 48
50.0
100
AcDbPoint
 10
10999.56946577019
 20
4991.810184557999
 30
0.0
  0
POINT
  5
17B6C
330
177E4
100
AcDbEntity
  8
DEFPOINTS
 62
     0
 48
50.0
100
AcDbPoint
 10
10999.56946577019
 20
2901.810184557997
 30
0.0
  0
POINT
  5
17B6D
330
177E4
100
AcDbEntity
  8
DEFPOINTS
 62
     0
 48
50.0
100
AcDbPoint
 10
10155.81933658693
 20
2901.810184557997
 30
0.0
  0
ENDBLK
  5
177EF
330
177E4
100
AcDbEntity
  8
0
 48
50.0
100
AcDbBlockEnd
  0
BLOCK
  5
177FA
330
177F0
100
AcDbEntity
  8
0
 48
50.0
100
AcDbBlockBegin
  2
*D24
 70
     1
 10
0.0
 20
0.0
 30
0.0
  3
*D24
  1

  0
LINE
  5
17B5C
330
177F0
100
AcDbEntity
  8
寸法
 62
     0
 48
50.0
370
    -2
100
AcDbLine
 10
10979.56946577019
 20
2851.810184557997
 30
0.0
 11
9795.819336586927
 21
2851.810184557997
 31
0.0
  0
LINE
  5
17B5D
330
177F0
100
AcDbEntity
  8
寸法
 62
     0
 48
50.0
370
    -2
100
AcDbLine
 10
10919.56946577019
 20
5226.810184558002
 30
0.0
 11
9795.81933658693
 21
5226.810184558003
 31
0.0
  0
LINE
  5
17B5E
330
177F0
100
AcDbEntity
  8
寸法
 62
     0
 48
50.0
370
    -2
100
AcDbLine
 10
9855.819336586927
 20
2851.810184557997
 30
0.0
 11
9855.819336586929
 21
5226.810184558003
 31
0.0
  0
INSERT
  5
17B5F
330
177F0
100
AcDbEntity
  8
寸法
 62
     0
 48
50.0
370
    -2
100
AcDbBlockReference
  2
_DOTSMALL
 10
9855.819336586927
 20
2851.810184557997
 30
0.0
 41
100.0
 42
100.0
 43
100.0
 50
270.0
  0
INSERT
  5
17B60
330
177F0
100
AcDbEntity
  8
寸法
 62
     0
 48
50.0
370
    -2
100
AcDbBlockReference
  2
_DOTSMALL
 10
9855.819336586929
 20
5226.810184558003
 30
0.0
 41
100.0
 42
100.0
 43
100.0
 50
90.0
  0
MTEXT
  5
17B61
330
177F0
100
AcDbEntity
  8
寸法
 62
     7
 48
50.0
100
AcDbMText
 10
9755.807525563305
 20
4039.310184558002
 30
0.0
 40
120.0
 41
0.0
 71
     5
 72
     1
  1
\A1;2375
  7
STYLE1
 11
0.0000000000000001
 21
1.0
 31
0.0
 73
     1
 44
1.0
1001
ACAD
1000
MTEXTBEGIN
1070
    73
1070
     1
1070
    44
1040
1.0
1070
    74
1070
     0
1000
MTEXTEND
  0
POINT
  5
17B62
330
177F0
100
AcDbEntity
  8
DEFPOINTS
 62
     0
 48
50.0
100
AcDbPoint
 10
10999.56946577019
 20
2851.810184557997
 30
0.0
  0
POINT
  5
17B63
330
177F0
100
AcDbEntity
  8
DEFPOINTS
 62
     0
 48
50.0
100
AcDbPoint
 10
10939.56946577019
 20
5226.810184558002
 30
0.0
  0
POINT
  5
17B64
330
177F0
100
AcDbEntity
  8
DEFPOINTS
 62
     0
 48
50.0
100
AcDbPoint
 10
9855.819336586929
 20
5226.810184558003
 30
0.0
  0
ENDBLK
  5
177FB
330
177F0
100
AcDbEntity
  8
0
 48
50.0
100
AcDbBlockEnd
  0
BLOCK
  5
17806
330
177FC
100
AcDbEntity
  8
0
 48
50.0
100
AcDbBlockBegin
  2
*D25
 70
     1
 10
0.0
 20
0.0
 30
0.0
  3
*D25
  1

  0
LINE
  5
17B53
330
177FC
100
AcDbEntity
  8
寸法
 62
     0
 48
50.0
370
    -2
100
AcDbLine
 10
13229.56946577019
 20
2851.810184557999
 30
0.0
 11
13974.49662374232
 21
2851.810184557998
 31
0.0
  0
LINE
  5
17B54
330
177FC
100
AcDbEntity
  8
寸法
 62
     0
 48
50.0
370
    -2
100
AcDbLine
 10
13309.56946577019
 20
5171.810184557998
 30
0.0
 11
13974.49662374232
 21
5171.810184557998
 31
0.0
  0
LINE
  5
17B55
330
177FC
100
AcDbEntity
  8
寸法
 62
     0
 48
50.0
370
    -2
100
AcDbLine
 10
13914.49662374232
 20
2851.810184557998
 30
0.0
 11
13914.49662374232
 21
5171.810184557998
 31
0.0
  0
INSERT
  5
17B56
330
177FC
100
AcDbEntity
  8
寸法
 62
     0
 48
50.0
370
    -2
100
AcDbBlockReference
  2
_DOTSMALL
 10
13914.49662374232
 20
2851.810184557998
 30
0.0
 41
100.0
 42
100.0
 43
100.0
 50
270.0
  0
INSERT
  5
17B57
330
177FC
100
AcDbEntity
  8
寸法
 62
     0
 48
50.0
370
    -2
100
AcDbBlockReference
  2
_DOTSMALL
 10
13914.49662374232
 20
5171.810184557998
 30
0.0
 41
100.0
 42
100.0
 43
100.0
 50
90.0
  0
MTEXT
  5
17B58
330
177FC
100
AcDbEntity
  8
寸法
 62
     7
 48
50.0
100
AcDbMText
 10
13814.48481271869
 20
4011.810184558
 30
0.0
 40
120.0
 41
0.0
 71
     5
 72
     1
  1
\A1;2320
  7
STYLE1
 11
0.0000000000000001
 21
1.0
 31
0.0
 73
     1
 44
1.0
1001
ACAD
1000
MTEXTBEGIN
1070
    73
1070
     1
1070
    44
1040
1.0
1070
    74
1070
     0
1000
MTEXTEND
  0
POINT
  5
17B59
330
177FC
100
AcDbEntity
  8
DEFPOINTS
 62
     0
 48
50.0
100
AcDbPoint
 10
13209.56946577019
 20
2851.810184557999
 30
0.0
  0
POINT
  5
17B5A
330
177FC
100
AcDbEntity
  8
DEFPOINTS
 62
     0
 48
50.0
100
AcDbPoint
 10
13289.56946577019
 20
5171.810184557998
 30
0.0
  0
POINT
  5
17B5B
330
177FC
100
AcDbEntity
  8
DEFPOINTS
 62
     0
 48
50.0
100
AcDbPoint
 10
13914.49662374232
 20
5171.810184557998
 30
0.0
  0
ENDBLK
  5
17807
330
177FC
100
AcDbEntity
  8
0
 48
50.0
100
AcDbBlockEnd
  0
BLOCK
  5
17821
330
17815
100
AcDbEntity
  8
0
 48
50.0
100
AcDbBlockBegin
  2
*D26
 70
     1
 10
0.0
 20
0.0
 30
0.0
  3
*D26
  1

  0
LINE
  5
17B3E
330
17815
100
AcDbEntity
  8
寸法
 62
     0
 48
50.0
370
    -2
100
AcDbLine
 10
10979.56946577019
 20
2901.810184557999
 30
0.0
 11
10095.81933658693
 21
2901.810184557999
 31
0.0
  0
LINE
  5
17B3F
330
17815
100
AcDbEntity
  8
寸法
 62
     0
 48
50.0
370
    -2
100
AcDbLine
 10
10924.56946577019
 20
2851.810184557999
 30
0.0
 11
10095.81933658693
 21
2851.810184557999
 31
0.0
  0
LINE
  5
17B40
330
17815
100
AcDbEntity
  8
寸法
 62
     0
 48
50.0
370
    -2
100
AcDbLine
 10
10155.81933658693
 20
2901.810184557999
 30
0.0
 11
10155.81933658693
 21
3001.810184557999
 31
0.0
  0
LINE
  5
17B41
330
17815
100
AcDbEntity
  8
寸法
 62
     0
 48
50.0
370
    -2
100
AcDbLine
 10
10155.81933658693
 20
2851.810184557999
 30
0.0
 11
10155.81933658693
 21
2439.715696369018
 31
0.0
  0
LINE
  5
17B42
330
17815
100
AcDbEntity
  8
寸法
 62
     0
 48
50.0
370
    -2
100
AcDbLine
 10
10155.81933658693
 20
2901.810184557999
 30
0.0
 11
10155.81933658693
 21
2851.810184557999
 31
0.0
  0
INSERT
  5
17B43
330
17815
100
AcDbEntity
  8
寸法
 62
     0
 48
50.0
370
    -2
100
AcDbBlockReference
  2
_DOTSMALL
 10
10155.81933658693
 20
2901.810184557999
 30
0.0
 41
100.0
 42
100.0
 43
100.0
 50
270.0
  0
INSERT
  5
17B44
330
17815
100
AcDbEntity
  8
寸法
 62
     0
 48
50.0
370
    -2
100
AcDbBlockReference
  2
_DOTSMALL
 10
10155.81933658693
 20
2851.810184557999
 30
0.0
 41
100.0
 42
100.0
 43
100.0
 50
90.0
  0
MTEXT
  5
17B45
330
17815
100
AcDbEntity
  8
寸法
 62
     7
 48
50.0
100
AcDbMText
 10
10055.81933658693
 20
2545.762940463508
 30
0.0
 40
120.0
 41
0.0
 71
     5
 72
     1
  1
\A1;50
  7
STYLE1
 11
0.0000000000000001
 21
1.0
 31
0.0
 73
     1
 44
1.0
1001
ACAD
1000
MTEXTBEGIN
1070
    73
1070
     1
1070
    44
1040
1.0
1070
    74
1070
     0
1000
MTEXTEND
  0
POINT
  5
17B46
330
17815
100
AcDbEntity
  8
DEFPOINTS
 62
     0
 48
50.0
100
AcDbPoint
 10
10999.56946577019
 20
2901.810184557999
 30
0.0
  0
POINT
  5
17B47
330
17815
100
AcDbEntity
  8
DEFPOINTS
 62
     0
 48
50.0
100
AcDbPoint
 10
10944.56946577019
 20
2851.810184557999
 30
0.0
  0
POINT
  5
17B48
330
17815
100
AcDbEntity
  8
DEFPOINTS
 62
     0
 48
50.0
100
AcDbPoint
 10
10155.81933658693
 20
2851.810184557999
 30
0.0
  0
ENDBLK
  5
17822
330
17815
100
AcDbEntity
  8
0
 48
50.0
100
AcDbBlockEnd
  0
BLOCK
  5
1782D
330
17823
100
AcDbEntity
  8
0
 48
50.0
100
AcDbBlockBegin
  2
*D27
 70
     1
 10
0.0
 20
0.0
 30
0.0
  3
*D27
  1

  0
LINE
  5
19527
330
17823
100
AcDbEntity
  8
寸法
 62
     0
 48
50.0
370
    -2
100
AcDbLine
 10
13209.56946577019
 20
5193.620864169652
 30
0.0
 11
13209.56946577019
 21
5685.467638137303
 31
0.0
  0
LINE
  5
19528
330
17823
100
AcDbEntity
  8
寸法
 62
     0
 48
50.0
370
    -2
100
AcDbLine
 10
10999.56946577019
 20
5242.811802680975
 30
0.0
 11
10999.56946577019
 21
5685.467638137303
 31
0.0
  0
LINE
  5
19529
330
17823
100
AcDbEntity
  8
寸法
 62
     0
 48
50.0
370
    -2
100
AcDbLine
 10
13209.56946577019
 20
5625.467638137303
 30
0.0
 11
10999.56946577019
 21
5625.467638137303
 31
0.0
  0
INSERT
  5
1952A
330
17823
100
AcDbEntity
  8
寸法
 62
     0
 48
50.0
370
    -2
100
AcDbBlockReference
  2
_DOTSMALL
 10
13209.56946577019
 20
5625.467638137303
 30
0.0
 41
100.0
 42
100.0
 43
100.0
  0
INSERT
  5
1952B
330
17823
100
AcDbEntity
  8
寸法
 62
     0
 48
50.0
370
    -2
100
AcDbBlockReference
  2
_DOTSMALL
 10
10999.56946577019
 20
5625.467638137303
 30
0.0
 41
100.0
 42
100.0
 43
100.0
 50
180.0
  0
MTEXT
  5
1952C
330
17823
100
AcDbEntity
  8
寸法
 62
     7
 48
50.0
100
AcDbMText
 10
12104.56946577018
 20
5725.479449160925
 30
0.0
 40
120.0
 41
0.0
 71
     5
 72
     1
  1
\A1;柱外寸法2210
  7
STYLE1
 73
     1
 44
1.0
1001
ACAD
1000
MTEXTBEGIN
1070
    73
1070
     1
1070
    44
1040
1.0
1070
    74
1070
     0
1000
MTEXTEND
  0
POINT
  5
1952D
330
17823
100
AcDbEntity
  8
DEFPOINTS
 62
     0
 48
50.0
100
AcDbPoint
 10
13209.56946577019
 20
5173.620864169652
 30
0.0
  0
POINT
  5
1952E
330
17823
100
AcDbEntity
  8
DEFPOINTS
 62
     0
 48
50.0
100
AcDbPoint
 10
10999.56946577019
 20
5222.811802680976
 30
0.0
  0
POINT
  5
1952F
330
17823
100
AcDbEntity
  8
DEFPOINTS
 62
     0
 48
50.0
100
AcDbPoint
 10
10999.56946577019
 20
5625.467638137303
 30
0.0
  0
ENDBLK
  5
1782E
330
17823
100
AcDbEntity
  8
0
 48
50.0
100
AcDbBlockEnd
  0
BLOCK
  5
1783B
330
1782F
100
AcDbEntity
  8
0
 48
50.0
100
AcDbBlockBegin
  2
*D28
 70
     1
 10
0.0
 20
0.0
 30
0.0
  3
*D28
  1

  0
LINE
  5
17B2A
330
1782F
100
AcDbEntity
  8
寸法
 62
     0
 48
50.0
370
    -2
100
AcDbLine
 10
10999.56946577019
 20
5242.811802680975
 30
0.0
 11
10999.56946577019
 21
5685.467638137303
 31
0.0
  0
LINE
  5
17B2B
330
1782F
100
AcDbEntity
  8
寸法
 62
     0
 48
50.0
370
    -2
100
AcDbLine
 10
10939.56946577019
 20
5246.810184558002
 30
0.0
 11
10939.56946577019
 21
5685.467638137303
 31
0.0
  0
LINE
  5
17B2C
330
1782F
100
AcDbEntity
  8
寸法
 62
     0
 48
50.0
370
    -2
100
AcDbLine
 10
10999.56946577019
 20
5625.467638137303
 30
0.0
 11
11099.56946577019
 21
5625.467638137303
 31
0.0
  0
LINE
  5
17B2D
330
1782F
100
AcDbEntity
  8
寸法
 62
     0
 48
50.0
370
    -2
100
AcDbLine
 10
10939.56946577019
 20
5625.467638137303
 30
0.0
 11
10520.29387521901
 21
5625.467638137303
 31
0.0
  0
LINE
  5
17B2E
330
1782F
100
AcDbEntity
  8
寸法
 62
     0
 48
50.0
370
    -2
100
AcDbLine
 10
10999.56946577019
 20
5625.467638137303
 30
0.0
 11
10939.56946577019
 21
5625.467638137303
 31
0.0
  0
INSERT
  5
17B2F
330
1782F
100
AcDbEntity
  8
寸法
 62
     0
 48
50.0
370
    -2
100
AcDbBlockReference
  2
_DOTSMALL
 10
10999.56946577019
 20
5625.467638137303
 30
0.0
 41
100.0
 42
100.0
 43
100.0
 50
180.0
  0
INSERT
  5
17B30
330
1782F
100
AcDbEntity
  8
寸法
 62
     0
 48
50.0
370
    -2
100
AcDbBlockReference
  2
_DOTSMALL
 10
10939.56946577019
 20
5625.467638137303
 30
0.0
 41
100.0
 42
100.0
 43
100.0
  0
MTEXT
  5
17B31
330
1782F
100
AcDbEntity
  8
寸法
 62
     7
 48
50.0
100
AcDbMText
 10
10629.9316704946
 20
5725.467638137303
 30
0.0
 40
120.0
 41
0.0
 71
     5
 72
     1
  1
\A1;60
  7
STYLE1
 73
     1
 44
1.0
1001
ACAD
1000
MTEXTBEGIN
1070
    73
1070
     1
1070
    44
1040
1.0
1070
    74
1070
     0
1000
MTEXTEND
  0
POINT
  5
17B32
330
1782F
100
AcDbEntity
  8
DEFPOINTS
 62
     0
 48
50.0
100
AcDbPoint
 10
10999.56946577019
 20
5222.811802680976
 30
0.0
  0
POINT
  5
17B33
330
1782F
100
AcDbEntity
  8
DEFPOINTS
 62
     0
 48
50.0
100
AcDbPoint
 10
10939.56946577019
 20
5226.810184558002
 30
0.0
  0
POINT
  5
17B34
330
1782F
100
AcDbEntity
  8
DEFPOINTS
 62
     0
 48
50.0
100
AcDbPoint
 10
10939.56946577019
 20
5625.467638137303
 30
0.0
  0
ENDBLK
  5
1783C
330
1782F
100
AcDbEntity
  8
0
 48
50.0
100
AcDbBlockEnd
  0
BLOCK
  5
17847
330
1783D
100
AcDbEntity
  8
0
 48
50.0
100
AcDbBlockBegin
  2
*D29
 70
     1
 10
0.0
 20
0.0
 30
0.0
  3
*D29
  1

  0
LINE
  5
1951E
330
1783D
100
AcDbEntity
  8
寸法
 62
     0
 48
50.0
370
    -2
100
AcDbLine
 10
13289.56946577019
 20
5191.810184557999
 30
0.0
 11
13289.56946577019
 21
5904.669471811594
 31
0.0
  0
LINE
  5
1951F
330
1783D
100
AcDbEntity
  8
寸法
 62
     0
 48
50.0
370
    -2
100
AcDbLine
 10
10939.56946577019
 20
5246.810184558002
 30
0.0
 11
10939.56946577019
 21
5904.669471811594
 31
0.0
  0
LINE
  5
19520
330
1783D
100
AcDbEntity
  8
寸法
 62
     0
 48
50.0
370
    -2
100
AcDbLine
 10
13289.56946577019
 20
5844.669471811594
 30
0.0
 11
10939.56946577019
 21
5844.669471811594
 31
0.0
  0
INSERT
  5
19521
330
1783D
100
AcDbEntity
  8
寸法
 62
     0
 48
50.0
370
    -2
100
AcDbBlockReference
  2
_DOTSMALL
 10
13289.56946577019
 20
5844.669471811594
 30
0.0
 41
100.0
 42
100.0
 43
100.0
  0
INSERT
  5
19522
330
1783D
100
AcDbEntity
  8
寸法
 62
     0
 48
50.0
370
    -2
100
AcDbBlockReference
  2
_DOTSMALL
 10
10939.56946577019
 20
5844.669471811594
 30
0.0
 41
100.0
 42
100.0
 43
100.0
 50
180.0
  0
MTEXT
  5
19523
330
1783D
100
AcDbEntity
  8
寸法
 62
     7
 48
50.0
100
AcDbMText
 10
12114.56946577019
 20
5944.681282835215
 30
0.0
 40
120.0
 41
0.0
 71
     5
 72
     1
  1
\A1;2350
  7
STYLE1
 73
     1
 44
1.0
1001
ACAD
1000
MTEXTBEGIN
1070
    73
1070
     1
1070
    44
1040
1.0
1070
    74
1070
     0
1000
MTEXTEND
  0
POINT
  5
19524
330
1783D
100
AcDbEntity
  8
DEFPOINTS
 62
     0
 48
50.0
100
AcDbPoint
 10
13289.56946577019
 20
5171.810184557998
 30
0.0
  0
POINT
  5
19525
330
1783D
100
AcDbEntity
  8
DEFPOINTS
 62
     0
 48
50.0
100
AcDbPoint
 10
10939.56946577019
 20
5226.810184558002
 30
0.0
  0
POINT
  5
19526
330
1783D
100
AcDbEntity
  8
DEFPOINTS
 62
     0
 48
50.0
100
AcDbPoint
 10
10939.56946577019
 20
5844.669471811594
 30
0.0
  0
ENDBLK
  5
17848
330
1783D
100
AcDbEntity
  8
0
 48
50.0
100
AcDbBlockEnd
  0
BLOCK
  5
17854
330
17849
100
AcDbEntity
  8
0
 48
50.0
100
AcDbBlockBegin
  2
*D30
 70
     1
 10
0.0
 20
0.0
 30
0.0
  3
*D30
  1

  0
LINE
  5
17B17
330
17849
100
AcDbEntity
  8
寸法
 62
     0
 48
50.0
370
    -2
100
AcDbLine
 10
13209.56946577019
 20
5193.620864169652
 30
0.0
 11
13209.56946577019
 21
5685.467638137303
 31
0.0
  0
LINE
  5
17B18
330
17849
100
AcDbEntity
  8
寸法
 62
     0
 48
50.0
370
    -2
100
AcDbLine
 10
13289.56946577019
 20
5191.810184557999
 30
0.0
 11
13289.56946577019
 21
5685.467638137303
 31
0.0
  0
LINE
  5
17B19
330
17849
100
AcDbEntity
  8
寸法
 62
     0
 48
50.0
370
    -2
100
AcDbLine
 10
13209.56946577019
 20
5625.467638137303
 30
0.0
 11
13289.56946577019
 21
5625.467638137303
 31
0.0
  0
LINE
  5
17B1A
330
17849
100
AcDbEntity
  8
寸法
 62
     0
 48
50.0
370
    -2
100
AcDbLine
 10
13289.56946577019
 20
5625.467638137303
 30
0.0
 11
13601.66395395917
 21
5625.467638137303
 31
0.0
  0
INSERT
  5
17B1B
330
17849
100
AcDbEntity
  8
寸法
 62
     0
 48
50.0
370
    -2
100
AcDbBlockReference
  2
_DOTSMALL
 10
13209.56946577019
 20
5625.467638137303
 30
0.0
 41
100.0
 42
100.0
 43
100.0
 50
180.0
  0
INSERT
  5
17B1C
330
17849
100
AcDbEntity
  8
寸法
 62
     0
 48
50.0
370
    -2
100
AcDbBlockReference
  2
_DOTSMALL
 10
13289.56946577019
 20
5625.467638137303
 30
0.0
 41
100.0
 42
100.0
 43
100.0
  0
MTEXT
  5
17B1D
330
17849
100
AcDbEntity
  8
寸法
 62
     7
 48
50.0
100
AcDbMText
 10
13495.61670986468
 20
5725.467638137303
 30
0.0
 40
120.0
 41
0.0
 71
     5
 72
     1
  1
\A1;80
  7
STYLE1
 73
     1
 44
1.0
1001
ACAD
1000
MTEXTBEGIN
1070
    73
1070
     1
1070
    44
1040
1.0
1070
    74
1070
     0
1000
MTEXTEND
  0
POINT
  5
17B1E
330
17849
100
AcDbEntity
  8
DEFPOINTS
 62
     0
 48
50.0
100
AcDbPoint
 10
13209.56946577019
 20
5173.620864169652
 30
0.0
  0
POINT
  5
17B1F
330
17849
100
AcDbEntity
  8
DEFPOINTS
 62
     0
 48
50.0
100
AcDbPoint
 10
13289.56946577019
 20
5171.810184557998
 30
0.0
  0
POINT
  5
17B20
330
17849
100
AcDbEntity
  8
DEFPOINTS
 62
     0
 48
50.0
100
AcDbPoint
 10
13289.56946577019
 20
5625.467638137303
 30
0.0
  0
ENDBLK
  5
17855
330
17849
100
AcDbEntity
  8
0
 48
50.0
100
AcDbBlockEnd
  0
BLOCK
  5
17861
330
17856
100
AcDbEntity
  8
0
 48
50.0
100
AcDbBlockBegin
  2
*D31
 70
     1
 10
0.0
 20
0.0
 30
0.0
  3
*D31
  1

  0
LINE
  5
17B0D
330
17856
100
AcDbEntity
  8
寸法
 62
     0
 48
50.0
370
    -2
100
AcDbLine
 10
10938.97375206129
 20
5226.10789162766
 30
0.0
 11
10323.03931295601
 21
5243.82204190199
 31
0.0
  0
LINE
  5
17B0E
330
17856
100
AcDbEntity
  8
寸法
 62
     0
 48
50.0
370
    -2
100
AcDbLine
 10
10934.92029650466
 20
5085.166167861948
 30
0.0
 11
10318.98585739938
 21
5102.880318136278
 31
0.0
  0
LINE
  5
17B0F
330
17856
100
AcDbEntity
  8
寸法
 62
     0
 48
50.0
370
    -2
100
AcDbLine
 10
10378.96105900181
 20
5101.15544343133
 30
0.0
 11
10383.01451455844
 21
5242.097167197042
 31
0.0
  0
LINE
  5
17B10
330
17856
100
AcDbEntity
  8
寸法
 62
     0
 48
50.0
370
    -2
100
AcDbLine
 10
10383.01451455844
 20
5242.097167197042
 30
0.0
 11
10393.36376278812
 21
5601.948376811628
 31
0.0
  0
INSERT
  5
17B11
330
17856
100
AcDbEntity
  8
寸法
 62
     0
 48
50.0
370
    -2
100
AcDbBlockReference
  2
_DOTSMALL
 10
10378.96105900181
 20
5101.15544343133
 30
0.0
 41
100.0
 42
100.0
 43
100.0
 50
268.3526390256378
  0
INSERT
  5
17B12
330
17856
100
AcDbEntity
  8
寸法
 62
     0
 48
50.0
370
    -2
100
AcDbBlockReference
  2
_DOTSMALL
 10
10383.01451455844
 20
5242.097167197042
 30
0.0
 41
100.0
 42
100.0
 43
100.0
 50
88.35263902563776
  0
MTEXT
  5
17B13
330
17856
100
AcDbEntity
  8
寸法
 62
     7
 48
50.0
100
AcDbMText
 10
10289.66786492335
 20
5474.876897847941
 30
0.0
 40
120.0
 41
0.0
 71
     5
 72
     1
  1
\A1;141
  7
STYLE1
 11
0.0287479117491237
 21
0.9995866933738488
 31
0.0
 73
     1
 44
1.0
1001
ACAD
1000
MTEXTBEGIN
1070
    73
1070
     1
1070
    44
1040
1.0
1070
    74
1070
     0
1000
MTEXTEND
  0
POINT
  5
17B14
330
17856
100
AcDbEntity
  8
DEFPOINTS
 62
     0
 48
50.0
100
AcDbPoint
 10
10958.96548592876
 20
5225.532933392678
 30
0.0
  0
POINT
  5
17B15
330
17856
100
AcDbEntity
  8
DEFPOINTS
 62
     0
 48
50.0
100
AcDbPoint
 10
10954.91203037214
 20
5084.591209626965
 30
0.0
  0
POINT
  5
17B16
330
17856
100
AcDbEntity
  8
DEFPOINTS
 62
     0
 48
50.0
100
AcDbPoint
 10
10378.96105900181
 20
5101.15544343133
 30
0.0
  0
ENDBLK
  5
17862
330
17856
100
AcDbEntity
  8
0
 48
50.0
100
AcDbBlockEnd
  0
BLOCK
  5
187BC
330
187B2
100
AcDbEntity
  8
0
 48
50.0
100
AcDbBlockBegin
  2
*D32
 70
     1
 10
0.0
 20
0.0
 30
0.0
  3
*D32
  1

  0
LINE
  5
1886F
330
187B2
100
AcDbEntity
  8
寸法
 62
     0
 48
50.0
370
    -2
100
AcDbLine
 10
8689.673057123629
 20
5246.810184558003
 30
0.0
 11
8689.673057123629
 21
5685.903353897472
 31
0.0
  0
LINE
  5
18870
330
187B2
100
AcDbEntity
  8
寸法
 62
     0
 48
50.0
370
    -2
100
AcDbLine
 10
3429.67305712363
 20
5246.810184558005
 30
0.0
 11
3429.67305712363
 21
5685.903353897472
 31
0.0
  0
LINE
  5
18871
330
187B2
100
AcDbEntity
  8
寸法
 62
     0
 48
50.0
370
    -2
100
AcDbLine
 10
8689.673057123629
 20
5625.903353897472
 30
0.0
 11
3429.67305712363
 21
5625.903353897472
 31
0.0
  0
INSERT
  5
18872
330
187B2
100
AcDbEntity
  8
寸法
 62
     0
 48
50.0
370
    -2
100
AcDbBlockReference
  2
_DOTSMALL
 10
8689.673057123629
 20
5625.903353897472
 30
0.0
 41
100.0
 42
100.0
 43
100.0
  0
INSERT
  5
18873
330
187B2
100
AcDbEntity
  8
寸法
 62
     0
 48
50.0
370
    -2
100
AcDbBlockReference
  2
_DOTSMALL
 10
3429.67305712363
 20
5625.903353897472
 30
0.0
 41
100.0
 42
100.0
 43
100.0
 50
180.0
  0
MTEXT
  5
18874
330
187B2
100
AcDbEntity
  8
寸法
 62
     7
 48
50.0
100
AcDbMText
 10
6059.673057123632
 20
5725.915164921094
 30
0.0
 40
120.0
 41
0.0
 71
     5
 72
     1
  1
\A1;柱外寸法5260
  7
STYLE1
 73
     1
 44
1.0
1001
ACAD
1000
MTEXTBEGIN
1070
    73
1070
     1
1070
    44
1040
1.0
1070
    74
1070
     0
1000
MTEXTEND
  0
POINT
  5
18875
330
187B2
100
AcDbEntity
  8
DEFPOINTS
 62
     0
 48
50.0
100
AcDbPoint
 10
8689.673057123629
 20
5226.810184558003
 30
0.0
  0
POINT
  5
18876
330
187B2
100
AcDbEntity
  8
DEFPOINTS
 62
     0
 48
50.0
100
AcDbPoint
 10
3429.67305712363
 20
5226.810184558004
 30
0.0
  0
POINT
  5
18877
330
187B2
100
AcDbEntity
  8
DEFPOINTS
 62
     0
 48
50.0
100
AcDbPoint
 10
3429.67305712363
 20
5625.903353897472
 30
0.0
  0
ENDBLK
  5
187BD
330
187B2
100
AcDbEntity
  8
0
 48
50.0
100
AcDbBlockEnd
  0
BLOCK
  5
187CA
330
187BE
100
AcDbEntity
  8
0
 48
50.0
100
AcDbBlockBegin
  2
*D33
 70
     1
 10
0.0
 20
0.0
 30
0.0
  3
*D33
  1

  0
LINE
  5
18878
330
187BE
100
AcDbEntity
  8
寸法
 62
     0
 48
50.0
370
    -2
100
AcDbLine
 10
8739.67305712363
 20
5246.810184558001
 30
0.0
 11
8739.67305712363
 21
5685.903353897472
 31
0.0
  0
LINE
  5
18879
330
187BE
100
AcDbEntity
  8
寸法
 62
     0
 48
50.0
370
    -2
100
AcDbLine
 10
8689.673057123629
 20
5246.810184558003
 30
0.0
 11
8689.673057123629
 21
5685.903353897472
 31
0.0
  0
LINE
  5
1887A
330
187BE
100
AcDbEntity
  8
寸法
 62
     0
 48
50.0
370
    -2
100
AcDbLine
 10
8689.673057123629
 20
5625.903353897472
 30
0.0
 11
8589.673057123629
 21
5625.903353897472
 31
0.0
  0
LINE
  5
1887B
330
187BE
100
AcDbEntity
  8
寸法
 62
     0
 48
50.0
370
    -2
100
AcDbLine
 10
8739.67305712363
 20
5625.903353897472
 30
0.0
 11
9159.205582592353
 21
5625.903353897472
 31
0.0
  0
LINE
  5
1887C
330
187BE
100
AcDbEntity
  8
寸法
 62
     0
 48
50.0
370
    -2
100
AcDbLine
 10
8689.673057123629
 20
5625.903353897472
 30
0.0
 11
8739.67305712363
 21
5625.903353897472
 31
0.0
  0
INSERT
  5
1887D
330
187BE
100
AcDbEntity
  8
寸法
 62
     0
 48
50.0
370
    -2
100
AcDbBlockReference
  2
_DOTSMALL
 10
8689.673057123629
 20
5625.903353897472
 30
0.0
 41
100.0
 42
100.0
 43
100.0
  0
INSERT
  5
1887E
330
187BE
100
AcDbEntity
  8
寸法
 62
     0
 48
50.0
370
    -2
100
AcDbBlockReference
  2
_DOTSMALL
 10
8739.67305712363
 20
5625.903353897472
 30
0.0
 41
100.0
 42
100.0
 43
100.0
 50
180.0
  0
MTEXT
  5
1887F
330
187BE
100
AcDbEntity
  8
寸法
 62
     7
 48
50.0
100
AcDbMText
 10
9053.158338497865
 20
5725.903353897471
 30
0.0
 40
120.0
 41
0.0
 71
     5
 72
     1
  1
\A1;50
  7
STYLE1
 73
     1
 44
1.0
1001
ACAD
1000
MTEXTBEGIN
1070
    73
1070
     1
1070
    44
1040
1.0
1070
    74
1070
     0
1000
MTEXTEND
  0
POINT
  5
18880
330
187BE
100
AcDbEntity
  8
DEFPOINTS
 62
     0
 48
50.0
100
AcDbPoint
 10
8739.67305712363
 20
5226.810184558001
 30
0.0
  0
POINT
  5
18881
330
187BE
100
AcDbEntity
  8
DEFPOINTS
 62
     0
 48
50.0
100
AcDbPoint
 10
8689.673057123629
 20
5226.810184558003
 30
0.0
  0
POINT
  5
18882
330
187BE
100
AcDbEntity
  8
DEFPOINTS
 62
     0
 48
50.0
100
AcDbPoint
 10
8689.673057123629
 20
5625.903353897472
 30
0.0
  0
ENDBLK
  5
187CB
330
187BE
100
AcDbEntity
  8
0
 48
50.0
100
AcDbBlockEnd
  0
BLOCK
  5
187D6
330
187CC
100
AcDbEntity
  8
0
 48
50.0
100
AcDbBlockBegin
  2
*D34
 70
     1
 10
0.0
 20
0.0
 30
0.0
  3
*D34
  1

  0
LINE
  5
18883
330
187CC
100
AcDbEntity
  8
寸法
 62
     0
 48
50.0
370
    -2
100
AcDbLine
 10
3379.67305712363
 20
5246.810184558003
 30
0.0
 11
3379.67305712363
 21
5902.429453515917
 31
0.0
  0
LINE
  5
18884
330
187CC
100
AcDbEntity
  8
寸法
 62
     0
 48
50.0
370
    -2
100
AcDbLine
 10
8739.67305712363
 20
5246.810184558001
 30
0.0
 11
8739.67305712363
 21
5902.429453515917
 31
0.0
  0
LINE
  5
18885
330
187CC
100
AcDbEntity
  8
寸法
 62
     0
 48
50.0
370
    -2
100
AcDbLine
 10
3379.67305712363
 20
5842.429453515917
 30
0.0
 11
8739.67305712363
 21
5842.429453515917
 31
0.0
  0
INSERT
  5
18886
330
187CC
100
AcDbEntity
  8
寸法
 62
     0
 48
50.0
370
    -2
100
AcDbBlockReference
  2
_DOTSMALL
 10
3379.67305712363
 20
5842.429453515917
 30
0.0
 41
100.0
 42
100.0
 43
100.0
 50
180.0
  0
INSERT
  5
18887
330
187CC
100
AcDbEntity
  8
寸法
 62
     0
 48
50.0
370
    -2
100
AcDbBlockReference
  2
_DOTSMALL
 10
8739.67305712363
 20
5842.429453515917
 30
0.0
 41
100.0
 42
100.0
 43
100.0
  0
MTEXT
  5
18888
330
187CC
100
AcDbEntity
  8
寸法
 62
     7
 48
50.0
100
AcDbMText
 10
6059.673057123628
 20
5942.429453515917
 30
0.0
 40
120.0
 41
0.0
 71
     5
 72
     1
  1
\A1;5360
  7
STYLE1
 73
     1
 44
1.0
1001
ACAD
1000
MTEXTBEGIN
1070
    73
1070
     1
1070
    44
1040
1.0
1070
    74
1070
     0
1000
MTEXTEND
  0
POINT
  5
18889
330
187CC
100
AcDbEntity
  8
DEFPOINTS
 62
     0
 48
50.0
100
AcDbPoint
 10
3379.67305712363
 20
5226.810184558003
 30
0.0
  0
POINT
  5
1888A
330
187CC
100
AcDbEntity
  8
DEFPOINTS
 62
     0
 48
50.0
100
AcDbPoint
 10
8739.67305712363
 20
5226.810184558001
 30
0.0
  0
POINT
  5
1888B
330
187CC
100
AcDbEntity
  8
DEFPOINTS
 62
     0
 48
50.0
100
AcDbPoint
 10
8739.67305712363
 20
5842.429453515917
 30
0.0
  0
ENDBLK
  5
187D7
330
187CC
100
AcDbEntity
  8
0
 48
50.0
100
AcDbBlockEnd
  0
BLOCK
  5
187E4
330
187D8
100
AcDbEntity
  8
0
 48
50.0
100
AcDbBlockBegin
  2
*D35
 70
     1
 10
0.0
 20
0.0
 30
0.0
  3
*D35
  1

  0
LINE
  5
1888C
330
187D8
100
AcDbEntity
  8
寸法
 62
     0
 48
50.0
370
    -2
100
AcDbLine
 10
3429.67305712363
 20
5246.810184558005
 30
0.0
 11
3429.67305712363
 21
5685.903353897472
 31
0.0
  0
LINE
  5
1888D
330
187D8
100
AcDbEntity
  8
寸法
 62
     0
 48
50.0
370
    -2
100
AcDbLine
 10
3379.67305712363
 20
5246.810184558003
 30
0.0
 11
3379.67305712363
 21
5685.903353897472
 31
0.0
  0
LINE
  5
1888E
330
187D8
100
AcDbEntity
  8
寸法
 62
     0
 48
50.0
370
    -2
100
AcDbLine
 10
3429.67305712363
 20
5625.903353897472
 30
0.0
 11
3529.67305712363
 21
5625.903353897472
 31
0.0
  0
LINE
  5
1888F
330
187D8
100
AcDbEntity
  8
寸法
 62
     0
 48
50.0
370
    -2
100
AcDbLine
 10
3379.67305712363
 20
5625.903353897472
 30
0.0
 11
2960.140531654894
 21
5625.903353897472
 31
0.0
  0
LINE
  5
18890
330
187D8
100
AcDbEntity
  8
寸法
 62
     0
 48
50.0
370
    -2
100
AcDbLine
 10
3429.67305712363
 20
5625.903353897472
 30
0.0
 11
3379.67305712363
 21
5625.903353897472
 31
0.0
  0
INSERT
  5
18891
330
187D8
100
AcDbEntity
  8
寸法
 62
     0
 48
50.0
370
    -2
100
AcDbBlockReference
  2
_DOTSMALL
 10
3429.67305712363
 20
5625.903353897472
 30
0.0
 41
100.0
 42
100.0
 43
100.0
 50
180.0
  0
INSERT
  5
18892
330
187D8
100
AcDbEntity
  8
寸法
 62
     0
 48
50.0
370
    -2
100
AcDbBlockReference
  2
_DOTSMALL
 10
3379.67305712363
 20
5625.903353897472
 30
0.0
 41
100.0
 42
100.0
 43
100.0
  0
MTEXT
  5
18893
330
187D8
100
AcDbEntity
  8
寸法
 62
     7
 48
50.0
100
AcDbMText
 10
3066.187775749382
 20
5725.903353897471
 30
0.0
 40
120.0
 41
0.0
 71
     5
 72
     1
  1
\A1;50
  7
STYLE1
 73
     1
 44
1.0
1001
ACAD
1000
MTEXTBEGIN
1070
    73
1070
     1
1070
    44
1040
1.0
1070
    74
1070
     0
1000
MTEXTEND
  0
POINT
  5
18894
330
187D8
100
AcDbEntity
  8
DEFPOINTS
 62
     0
 48
50.0
100
AcDbPoint
 10
3429.67305712363
 20
5226.810184558004
 30
0.0
  0
POINT
  5
18895
330
187D8
100
AcDbEntity
  8
DEFPOINTS
 62
     0
 48
50.0
100
AcDbPoint
 10
3379.67305712363
 20
5226.810184558003
 30
0.0
  0
POINT
  5
18896
330
187D8
100
AcDbEntity
  8
DEFPOINTS
 62
     0
 48
50.0
100
AcDbPoint
 10
3379.67305712363
 20
5625.903353897472
 30
0.0
  0
ENDBLK
  5
187E5
330
187D8
100
AcDbEntity
  8
0
 48
50.0
100
AcDbBlockEnd
  0
BLOCK
  5
18DEF
330
18DE5
100
AcDbEntity
  8
0
 48
50.0
100
AcDbBlockBegin
  2
*D36
 70
     1
 10
0.0
 20
0.0
 30
0.0
  3
*D36
  1

  0
LINE
  5
18F34
330
18DE5
100
AcDbEntity
  8
寸法
 62
     0
 48
50.0
370
    -2
100
AcDbLine
 10
7382.814073275041
 20
9462.451150420479
 30
0.0
 11
7280.072259316442
 21
9079.013480665201
 31
0.0
  0
LINE
  5
18F35
330
18DE5
100
AcDbEntity
  8
寸法
 62
     0
 48
50.0
370
    -2
100
AcDbLine
 10
8655.814073275053
 20
9462.451150420472
 30
0.0
 11
8553.072259316456
 21
9079.013480665201
 31
0.0
  0
LINE
  5
18F36
330
18DE5
100
AcDbEntity
  8
寸法
 62
     0
 48
50.0
370
    -2
100
AcDbLine
 10
7296.14921086231
 20
9139.013480665203
 30
0.0
 11
8569.149210862326
 21
9139.013480665203
 31
0.0
  0
INSERT
  5
18F37
330
18DE5
100
AcDbEntity
  8
寸法
 62
     0
 48
50.0
370
    -2
100
AcDbBlockReference
  2
_DOTSMALL
 10
7296.14921086231
 20
9139.013480665203
 30
0.0
 41
100.0
 42
100.0
 43
100.0
 50
180.0
  0
INSERT
  5
18F38
330
18DE5
100
AcDbEntity
  8
寸法
 62
     0
 48
50.0
370
    -2
100
AcDbBlockReference
  2
_DOTSMALL
 10
8569.149210862326
 20
9139.013480665203
 30
0.0
 41
100.0
 42
100.0
 43
100.0
  0
MTEXT
  5
18F39
330
18DE5
100
AcDbEntity
  8
寸法
 62
     7
 48
50.0
100
AcDbMText
 10
7979.158372861959
 20
9239.025291688824
 30
0.0
 40
120.0
 41
0.0
 71
     5
 72
     1
  1
\A1;1273
  7
STYLE1
 73
     1
 44
1.0
1001
ACAD
1000
MTEXTBEGIN
1070
    73
1070
     1
1070
    44
1040
1.0
1070
    74
1070
     0
1000
MTEXTEND
  0
POINT
  5
18F3A
330
18DE5
100
AcDbEntity
  8
DEFPOINTS
 62
     0
 48
50.0
100
AcDbPoint
 10
7388.173057123663
 20
9482.451150420478
 30
0.0
  0
POINT
  5
18F3B
330
18DE5
100
AcDbEntity
  8
DEFPOINTS
 62
     0
 48
50.0
100
AcDbPoint
 10
8661.173057123674
 20
9482.451150420471
 30
0.0
  0
POINT
  5
18F3C
330
18DE5
100
AcDbEntity
  8
DEFPOINTS
 62
     0
 48
50.0
100
AcDbPoint
 10
8569.149210862326
 20
9139.013480665203
 30
0.0
  0
ENDBLK
  5
18DF0
330
18DE5
100
AcDbEntity
  8
0
 48
50.0
100
AcDbBlockEnd
  0
BLOCK
  5
18E4A
330
18E40
100
AcDbEntity
  8
0
 48
50.0
100
AcDbBlockBegin
  2
*D37
 70
     1
 10
0.0
 20
0.0
 30
0.0
  3
*D37
  1

  0
LINE
  5
18F2B
330
18E40
100
AcDbEntity
  8
寸法
 62
     0
 48
50.0
370
    -2
100
AcDbLine
 10
6082.814073275041
 20
9462.451150420372
 30
0.0
 11
5980.072259316472
 21
9079.013480665201
 31
0.0
  0
LINE
  5
18F2C
330
18E40
100
AcDbEntity
  8
寸法
 62
     0
 48
50.0
370
    -2
100
AcDbLine
 10
7355.814073275053
 20
9462.451150420365
 30
0.0
 11
7253.072259316486
 21
9079.013480665201
 31
0.0
  0
LINE
  5
18F2D
330
18E40
100
AcDbEntity
  8
寸法
 62
     0
 48
50.0
370
    -2
100
AcDbLine
 10
5996.149210862339
 20
9139.013480665203
 30
0.0
 11
7269.149210862352
 21
9139.013480665203
 31
0.0
  0
INSERT
  5
18F2E
330
18E40
100
AcDbEntity
  8
寸法
 62
     0
 48
50.0
370
    -2
100
AcDbBlockReference
  2
_DOTSMALL
 10
5996.149210862339
 20
9139.013480665203
 30
0.0
 41
100.0
 42
100.0
 43
100.0
 50
180.0
  0
INSERT
  5
18F2F
330
18E40
100
AcDbEntity
  8
寸法
 62
     0
 48
50.0
370
    -2
100
AcDbBlockReference
  2
_DOTSMALL
 10
7269.149210862352
 20
9139.013480665203
 30
0.0
 41
100.0
 42
100.0
 43
100.0
  0
MTEXT
  5
18F30
330
18E40
100
AcDbEntity
  8
寸法
 62
     7
 48
50.0
100
AcDbMText
 10
6632.649210862346
 20
9239.025291688824
 30
0.0
 40
120.0
 41
0.0
 71
     5
 72
     1
  1
\A1;1273
  7
STYLE1
 73
     1
 44
1.0
1001
ACAD
1000
MTEXTBEGIN
1070
    73
1070
     1
1070
    44
1040
1.0
1070
    74
1070
     0
1000
MTEXTEND
  0
POINT
  5
18F31
330
18E40
100
AcDbEntity
  8
DEFPOINTS
 62
     0
 48
50.0
100
AcDbPoint
 10
6088.173057123664
 20
9482.451150420372
 30
0.0
  0
POINT
  5
18F32
330
18E40
100
AcDbEntity
  8
DEFPOINTS
 62
     0
 48
50.0
100
AcDbPoint
 10
7361.173057123676
 20
9482.451150420365
 30
0.0
  0
POINT
  5
18F33
330
18E40
100
AcDbEntity
  8
DEFPOINTS
 62
     0
 48
50.0
100
AcDbPoint
 10
7269.149210862352
 20
9139.013480665203
 30
0.0
  0
ENDBLK
  5
18E4B
330
18E40
100
AcDbEntity
  8
0
 48
50.0
100
AcDbBlockEnd
  0
BLOCK
  5
19167
330
1915D
100
AcDbEntity
  8
0
 48
50.0
100
AcDbBlockBegin
  2
*D38
 70
     1
 10
0.0
 20
0.0
 30
0.0
  3
*D38
  1

  0
LINE
  5
19228
330
1915D
100
AcDbEntity
  8
寸法
 62
     0
 48
50.0
370
    -2
100
AcDbLine
 10
8709.673057123628
 20
2913.810184557999
 30
0.0
 11
9037.216159445371
 21
2913.810184557999
 31
0.0
  0
LINE
  5
19229
330
1915D
100
AcDbEntity
  8
寸法
 62
     0
 48
50.0
370
    -2
100
AcDbLine
 10
8709.673057123628
 20
4799.810184557998
 30
0.0
 11
9037.216159445375
 21
4799.810184557998
 31
0.0
  0
LINE
  5
1922A
330
1915D
100
AcDbEntity
  8
寸法
 62
     0
 48
50.0
370
    -2
100
AcDbLine
 10
8977.216159445372
 20
2913.810184557999
 30
0.0
 11
8977.216159445374
 21
4799.810184557998
 31
0.0
  0
INSERT
  5
1922B
330
1915D
100
AcDbEntity
  8
寸法
 62
     0
 48
50.0
370
    -2
100
AcDbBlockReference
  2
_DOTSMALL
 10
8977.216159445372
 20
2913.810184557999
 30
0.0
 41
100.0
 42
100.0
 43
100.0
 50
270.0
  0
INSERT
  5
1922C
330
1915D
100
AcDbEntity
  8
寸法
 62
     0
 48
50.0
370
    -2
100
AcDbBlockReference
  2
_DOTSMALL
 10
8977.216159445374
 20
4799.810184557998
 30
0.0
 41
100.0
 42
100.0
 43
100.0
 50
90.0
  0
MTEXT
  5
1922D
330
1915D
100
AcDbEntity
  8
寸法
 62
     7
 48
50.0
100
AcDbMText
 10
8877.216159445373
 20
3856.810184558
 30
0.0
 40
120.0
 41
0.0
 71
     5
 72
     1
  1
\A1;有効開口部高サ 1886
  7
STYLE1
 11
0.0000000000000001
 21
1.0
 31
0.0
 73
     1
 44
1.0
1001
ACAD
1000
MTEXTBEGIN
1070
    73
1070
     1
1070
    44
1040
1.0
1070
    74
1070
     0
1000
MTEXTEND
  0
POINT
  5
1922E
330
1915D
100
AcDbEntity
  8
DEFPOINTS
 62
     0
 48
50.0
100
AcDbPoint
 10
8689.673057123627
 20
2913.810184557999
 30
0.0
  0
POINT
  5
1922F
330
1915D
100
AcDbEntity
  8
DEFPOINTS
 62
     0
 48
50.0
100
AcDbPoint
 10
8689.673057123629
 20
4799.810184557998
 30
0.0
  0
POINT
  5
19230
330
1915D
100
AcDbEntity
  8
DEFPOINTS
 62
     0
 48
50.0
100
AcDbPoint
 10
8977.216159445374
 20
4799.810184557998
 30
0.0
  0
ENDBLK
  5
19168
330
1915D
100
AcDbEntity
  8
0
 48
50.0
100
AcDbBlockEnd
  0
BLOCK
  5
19175
330
19169
100
AcDbEntity
  8
0
 48
50.0
100
AcDbBlockBegin
  2
*D39
 70
     1
 10
0.0
 20
0.0
 30
0.0
  3
*D39
  1

  0
LINE
  5
1921D
330
19169
100
AcDbEntity
  8
寸法
 62
     0
 48
50.0
370
    -2
100
AcDbLine
 10
8709.673057123628
 20
4799.810184557998
 30
0.0
 11
9037.216159445375
 21
4799.810184557998
 31
0.0
  0
LINE
  5
1921E
330
19169
100
AcDbEntity
  8
寸法
 62
     0
 48
50.0
370
    -2
100
AcDbLine
 10
8654.673057123629
 20
4826.810184558
 30
0.0
 11
9037.216159445375
 21
4826.810184558
 31
0.0
  0
LINE
  5
1921F
330
19169
100
AcDbEntity
  8
寸法
 62
     0
 48
50.0
370
    -2
100
AcDbLine
 10
8977.216159445374
 20
4799.810184557998
 30
0.0
 11
8977.216159445374
 21
4699.810184557997
 31
0.0
  0
LINE
  5
19220
330
19169
100
AcDbEntity
  8
寸法
 62
     0
 48
50.0
370
    -2
100
AcDbLine
 10
8977.216159445374
 20
4826.810184558
 30
0.0
 11
8977.216159445374
 21
4926.810184558
 31
0.0
  0
MTEXT
  5
19221
330
19169
100
AcDbEntity
  8
寸法
 62
     7
 48
50.0
100
AcDbMText
 10
9117.38598269174
 20
4827.777384397657
 30
0.0
 40
120.0
 41
0.0
 71
     5
 72
     1
  1
\A1;27
  7
STYLE1
 11
0.0000000000000001
 21
1.0
 31
0.0
 73
     1
 44
1.0
1001
ACAD
1000
MTEXTBEGIN
1070
    73
1070
     1
1070
    44
1040
1.0
1070
    74
1070
     0
1000
MTEXTEND
  0
LINE
  5
19222
330
19169
100
AcDbEntity
  8
寸法
 62
     0
 48
50.0
370
    -2
100
AcDbLine
 10
8977.216159445374
 20
4799.810184557998
 30
0.0
 11
8977.216159445374
 21
4826.810184558
 31
0.0
  0
INSERT
  5
19223
330
19169
100
AcDbEntity
  8
寸法
 62
     0
 48
50.0
370
    -2
100
AcDbBlockReference
  2
_DOTSMALL
 10
8977.216159445374
 20
4799.810184557998
 30
0.0
 41
100.0
 42
100.0
 43
100.0
 50
90.0
  0
INSERT
  5
19224
330
19169
100
AcDbEntity
  8
寸法
 62
     0
 48
50.0
370
    -2
100
AcDbBlockReference
  2
_DOTSMALL
 10
8977.216159445374
 20
4826.810184558
 30
0.0
 41
100.0
 42
100.0
 43
100.0
 50
270.0
  0
POINT
  5
19225
330
19169
100
AcDbEntity
  8
DEFPOINTS
 62
     0
 48
50.0
100
AcDbPoint
 10
8689.673057123629
 20
4799.810184557998
 30
0.0
  0
POINT
  5
19226
330
19169
100
AcDbEntity
  8
DEFPOINTS
 62
     0
 48
50.0
100
AcDbPoint
 10
8634.673057123627
 20
4826.810184558
 30
0.0
  0
POINT
  5
19227
330
19169
100
AcDbEntity
  8
DEFPOINTS
 62
     0
 48
50.0
100
AcDbPoint
 10
8977.216159445374
 20
4826.810184558
 30
0.0
  0
ENDBLK
  5
19176
330
19169
100
AcDbEntity
  8
0
 48
50.0
100
AcDbBlockEnd
  0
BLOCK
  5
19182
330
19177
100
AcDbEntity
  8
0
 48
50.0
100
AcDbBlockBegin
  2
*D40
 70
     1
 10
0.0
 20
0.0
 30
0.0
  3
*D40
  1

  0
LINE
  5
19213
330
19177
100
AcDbEntity
  8
寸法
 62
     0
 48
50.0
370
    -2
100
AcDbLine
 10
8654.673057123629
 20
4826.810184558
 30
0.0
 11
9037.216159445376
 21
4826.810184558
 31
0.0
  0
LINE
  5
19214
330
19177
100
AcDbEntity
  8
寸法
 62
     0
 48
50.0
370
    -2
100
AcDbLine
 10
8709.673057123628
 20
4991.810184557999
 30
0.0
 11
9037.216159445376
 21
4991.810184557999
 31
0.0
  0
LINE
  5
19215
330
19177
100
AcDbEntity
  8
寸法
 62
     0
 48
50.0
370
    -2
100
AcDbLine
 10
8977.216159445376
 20
4826.810184558
 30
0.0
 11
8977.216159445376
 21
4991.810184557999
 31
0.0
  0
LINE
  5
19216
330
19177
100
AcDbEntity
  8
寸法
 62
     0
 48
50.0
370
    -2
100
AcDbLine
 10
8977.216159445376
 20
4991.810184557999
 30
0.0
 11
8977.216159445376
 21
5368.780747306477
 31
0.0
  0
INSERT
  5
19217
330
19177
100
AcDbEntity
  8
寸法
 62
     0
 48
50.0
370
    -2
100
AcDbBlockReference
  2
_DOTSMALL
 10
8977.216159445376
 20
4826.810184558
 30
0.0
 41
100.0
 42
100.0
 43
100.0
 50
270.0
  0
INSERT
  5
19218
330
19177
100
AcDbEntity
  8
寸法
 62
     0
 48
50.0
370
    -2
100
AcDbBlockReference
  2
_DOTSMALL
 10
8977.216159445376
 20
4991.810184557999
 30
0.0
 41
100.0
 42
100.0
 43
100.0
 50
90.0
  0
MTEXT
  5
19219
330
19177
100
AcDbEntity
  8
寸法
 62
     7
 48
50.0
100
AcDbMText
 10
8877.216159445373
 20
5230.295465932239
 30
0.0
 40
120.0
 41
0.0
 71
     5
 72
     1
  1
\A1;165
  7
STYLE1
 11
0.0000000000000001
 21
1.0
 31
0.0
 73
     1
 44
1.0
1001
ACAD
1000
MTEXTBEGIN
1070
    73
1070
     1
1070
    44
1040
1.0
1070
    74
1070
     0
1000
MTEXTEND
  0
POINT
  5
1921A
330
19177
100
AcDbEntity
  8
DEFPOINTS
 62
     0
 48
50.0
100
AcDbPoint
 10
8634.673057123627
 20
4826.810184558
 30
0.0
  0
POINT
  5
1921B
330
19177
100
AcDbEntity
  8
DEFPOINTS
 62
     0
 48
50.0
100
AcDbPoint
 10
8689.673057123627
 20
4991.810184557999
 30
0.0
  0
POINT
  5
1921C
330
19177
100
AcDbEntity
  8
DEFPOINTS
 62
     0
 48
50.0
100
AcDbPoint
 10
8977.216159445376
 20
4991.810184557999
 30
0.0
  0
ENDBLK
  5
19183
330
19177
100
AcDbEntity
  8
0
 48
50.0
100
AcDbBlockEnd
  0
ENDSEC
  0
SECTION
  2
ENTITIES
  0
MTEXT
  5
763F
330
747D
100
AcDbEntity
  8
0
100
AcDbMText
 10
302.846345836809
 20
280.1983726409901
 30
0.0
 40
3.5
 41
5.323721266742722
 71
     1
 72
     5
  1

  7
MSMINCHO
 73
     1
 44
1.0
1001
ACAD
1000
MTEXTBEGIN
1070
    73
1070
     1
1070
    44
1040
1.0
1070
    74
1070
     0
1000
MTEXTEND
  0
LINE
  5
10B57
330
747D
100
AcDbEntity
  8
補助
  6
PHANTOM
 62
   230
 48
50.0
100
AcDbLine
 10
139.9999999999995
 20
11409.6
 30
0.0
 11
16307.2
 21
11409.6
 31
0.0
  0
LINE
  5
10B59
330
747D
100
AcDbEntity
  8
仕様書枠
  6
Continuous
 48
50.0
100
AcDbLine
 10
13107.2
 20
1200.0
 30
0.0
 11
13107.2
 21
-0.0000000000000729
 31
0.0
  0
LINE
  5
10B5C
330
747D
100
AcDbEntity
  8
仕様書枠
 48
50.0
100
AcDbLine
 10
16307.2
 20
1200.0
 30
0.0
 11
16307.2
 21
-0.0000000000000909
 31
0.0
  0
LINE
  5
10B5D
330
747D
100
AcDbEntity
  8
仕様書枠
 48
50.0
100
AcDbLine
 10
140.0
 20
0.0
 30
0.0
 11
16307.2
 21
-0.0000000000000909
 31
0.0
  0
LINE
  5
10B5E
330
747D
100
AcDbEntity
  8
補助
  6
PHANTOM
 62
   230
 48
50.0
100
AcDbLine
 10
16307.2
 20
11409.6
 30
0.0
 11
16307.2
 21
1200.0
 31
0.0
  0
LINE
  5
10B6C
330
747D
100
AcDbEntity
  8
仕様書枠
 48
50.0
100
AcDbLine
 10
13107.2
 20
1200.0
 30
0.0
 11
16307.2
 21
1200.0
 31
0.0
  0
LINE
  5
10B6D
330
747D
100
AcDbEntity
  8
補助
  6
PHANTOM
 62
   230
 48
50.0
100
AcDbLine
 10
13107.2
 20
11409.6
 30
0.0
 11
13107.2
 21
4800.0
 31
0.0
  0
LINE
  5
10B6F
330
747D
100
AcDbEntity
  8
補助
  6
PHANTOM
 62
   230
 48
50.0
100
AcDbLine
 10
13107.2
 20
4800.0
 30
0.0
 11
16307.2
 21
4800.0
 31
0.0
  0
LINE
  5
10B72
330
747D
100
AcDbEntity
  8
文字
 62
     7
 48
50.0
100
AcDbLine
 10
13187.2
 20
400.0
 30
0.0
 11
16227.2
 21
400.0
 31
0.0
  0
TEXT
  5
10B73
330
747D
100
AcDbEntity
  8
文字
 62
     7
 48
50.0
100
AcDbText
 10
13162.9790565769
 20
895.0906074299405
 30
0.0
 40
200.0
  1
外 形 図
  7
STYLE2
100
AcDbText
  0
TEXT
  5
10B74
330
747D
100
AcDbEntity
  8
文字
 62
     7
 48
50.0
100
AcDbText
 10
13201.43669998441
 20
477.2740661031255
 30
0.0
 40
160.0
  1
機種名
  7
STYLE2
100
AcDbText
  0
TEXT
  5
10B75
330
747D
100
AcDbEntity
  8
文字
 62
     7
 48
50.0
100
AcDbText
 10
13209.4053442172
 20
228.5435242569016
 30
0.0
 40
100.0
  1
○有効開口寸法 ： 2424×1886(mm)
  7
STYLE2
100
AcDbText
  0
TEXT
  5
10B76
330
747D
100
AcDbEntity
  8
文字
 62
     7
 48
50.0
100
AcDbText
 10
13209.4053442172
 20
76.09434707649343
 30
0.0
 40
100.0
  1
○床面積 ： 11.62㎡(3.52坪) 　
  7
STYLE2
100
AcDbText
  0
TEXT
  5
10B79
330
747D
100
AcDbEntity
  8
文字
 62
     7
 48
50.0
100
AcDbText
 10
14524.131837222
 20
1031.557706291228
 30
0.0
 40
100.0
  1
NO.19      <縮尺> S=1/40
  7
STYLE2
100
AcDbText
  0
LINE
  5
10B7B
330
747D
100
AcDbEntity
  8
仕様書枠
 48
50.0
100
AcDbLine
 10
13107.2
 20
800.0
 30
0.0
 11
14251.2
 21
800.0
 31
0.0
  0
LINE
  5
10B88
330
747D
100
AcDbEntity
  8
仕様書枠
  6
Continuous
 48
50.0
100
AcDbLine
 10
14251.2
 20
1200.0
 30
0.0
 11
14251.2
 21
800.0
 31
0.0
  0
DIMENSION
  5
162CD
330
747D
100
AcDbEntity
  8
寸法
100
AcDbDimension
  2
*D1
 10
9337.09940285807
 20
7807.451150420456
 30
0.0
 11
9237.087591834447
 21
8857.451150420466
 31
0.0
 70
    32
  1
5X420=<>
 71
     5
 42
2100.000000000015
  3
INABA_S40G
100
AcDbAlignedDimension
 13
8689.673057123664
 23
9907.45115042047
 33
0.0
 14
8689.67305712364
 24
7807.451150420456
 34
0.0
 50
90.0
100
AcDbRotatedDimension
1001
ACAD
1000
DSTYLE
1002
{
1002
}
  0
DIMENSION
  5
162CE
330
747D
100
AcDbEntity
  8
寸法
100
AcDbDimension
  2
*D2
 10
9337.099402858049
 20
7752.451150420459
 30
0.0
 11
9337.099402858049
 21
7374.589683515599
 31
0.0
 70
   160
 71
     5
 42
54.99999999999636
  3
INABA_S40G
100
AcDbAlignedDimension
 13
8689.67305712364
 23
7807.451150420456
 33
0.0
 14
8689.67305712364
 24
7752.451150420459
 34
0.0
 50
90.0
100
AcDbRotatedDimension
1001
ACAD
1000
DSTYLE
1002
{
1002
}
  0
DIMENSION
  5
162CF
330
747D
100
AcDbEntity
  8
寸法
100
AcDbDimension
  2
*D3
 10
9337.099402858076
 20
9907.45115042047
 30
0.0
 11
9337.099402858074
 21
10270.93643179471
 31
0.0
 70
   160
 71
     5
 42
54.99999999999636
  3
INABA_S40G
100
AcDbAlignedDimension
 13
8689.673057123664
 23
9962.451150420468
 33
0.0
 14
8689.673057123664
 24
9907.45115042047
 34
0.0
 50
90.0
100
AcDbRotatedDimension
1001
ACAD
1000
DSTYLE
1002
{
1002
}
  0
DIMENSION
  5
162D0
330
747D
100
AcDbEntity
  8
寸法
100
AcDbDimension
  2
*D4
 10
9702.20634459771
 20
7752.451150420459
 30
0.0
 11
9602.194533574085
 21
8857.451150420466
 31
0.0
 70
    32
 71
     5
 42
2210.000000000007
  3
INABA_S40G
100
AcDbAlignedDimension
 13
8689.673057123664
 23
9962.451150420468
 33
0.0
 14
8689.67305712364
 24
7752.451150420459
 34
0.0
 50
90.0
100
AcDbRotatedDimension
1001
ACAD
1000
DSTYLE
1002
{
1002
}
  0
LINE
  5
162D1
330
747D
100
AcDbEntity
  8
細線
 48
50.0
100
AcDbLine
 10
7361.173057123662
 20
9482.451150420478
 30
0.0
 11
6088.173057123662
 21
9932.451150420373
 31
0.0
  0
LINE
  5
162D2
330
747D
100
AcDbEntity
  8
細線
 48
50.0
100
AcDbLine
 10
7361.173057123663
 20
9932.451150420476
 30
0.0
 11
6088.173057123663
 21
9482.451150420372
 31
0.0
  0
LINE
  5
162D3
330
747D
100
AcDbEntity
  8
部品1
 48
50.0
100
AcDbLine
 10
3458.173057123662
 20
9932.451150420369
 30
0.0
 11
3458.173057123663
 21
9482.45115042037
 31
0.0
  0
LINE
  5
162D4
330
747D
100
AcDbEntity
  8
細線
 48
50.0
100
AcDbLine
 10
8661.173057123663
 20
9932.451150420469
 30
0.0
 11
7388.173057123662
 21
9482.451150420478
 31
0.0
  0
LINE
  5
162D5
330
747D
100
AcDbEntity
  8
細線
 48
50.0
100
AcDbLine
 10
8661.173057123663
 20
9482.451150420471
 30
0.0
 11
7388.173057123663
 21
9932.451150420471
 31
0.0
  0
LINE
  5
162D6
330
747D
100
AcDbEntity
  8
部品1
 48
50.0
100
AcDbLine
 10
7361.173057123663
 20
9932.451150420476
 30
0.0
 11
7361.173057123663
 21
9482.451150420478
 31
0.0
  0
LINE
  5
162D7
330
747D
100
AcDbEntity
  8
部品1
 48
50.0
100
AcDbLine
 10
7388.173057123663
 20
9932.451150420471
 30
0.0
 11
7388.173057123663
 21
9482.451150420478
 31
0.0
  0
LINE
  5
162D8
330
747D
100
AcDbEntity
  8
部品1
 48
50.0
100
AcDbLine
 10
7362.173057123662
 20
9934.451150420482
 30
0.0
 11
7362.173057123662
 21
9482.451150420478
 31
0.0
  0
LINE
  5
162D9
330
747D
100
AcDbEntity
  8
部品1
 48
50.0
100
AcDbLine
 10
7387.173057123662
 20
9934.451150420478
 30
0.0
 11
7387.173057123662
 21
9482.451150420478
 31
0.0
  0
DIMENSION
  5
162DA
330
747D
100
AcDbEntity
  8
寸法
100
AcDbDimension
  2
*D5
 10
9016.530782985688
 20
9387.233334751583
 30
0.0
 11
8916.530782985686
 21
9612.233334751582
 31
0.0
 70
    32
 71
     5
 42
449.9999999999963
  3
INABA_S40G
100
AcDbAlignedDimension
 13
8661.173057123663
 23
9932.451150420469
 33
0.0
 14
8661.173057123663
 24
9482.451150420471
 34
0.0
 50
90.0
100
AcDbRotatedDimension
1001
ACAD
1000
DSTYLE
1002
{
1002
}
  0
LINE
  5
162DB
330
747D
100
AcDbEntity
  8
部品1
100
AcDbLine
 10
8661.173057123663
 20
9932.451150420469
 30
0.0
 11
8661.173057123663
 21
9482.451150420471
 31
0.0
  0
LINE
  5
162DC
330
747D
100
AcDbEntity
  8
部品1
100
AcDbLine
 10
8661.673057123648
 20
9934.451150420468
 30
0.0
 11
8661.673057123641
 21
7807.451150420456
 31
0.0
  0
LINE
  5
162DD
330
747D
100
AcDbEntity
  8
部品1
100
AcDbLine
 10
3457.673057123639
 20
7807.451150420326
 30
0.0
 11
3457.67305712365
 21
9934.451150420375
 31
0.0
  0
LINE
  5
162DE
330
747D
100
AcDbEntity
  8
部品1
100
AcDbLine
 10
8689.673057123664
 20
9962.451150420468
 30
0.0
 11
8689.67305712364
 21
7752.451150420459
 31
0.0
  0
LINE
  5
162DF
330
747D
100
AcDbEntity
  8
部品1
100
AcDbLine
 10
3429.673057123629
 20
9962.45115042034
 30
0.0
 11
3429.673057123657
 21
7752.451150420329
 31
0.0
  0
LINE
  5
162E3
330
747D
100
AcDbEntity
  8
部品1
100
AcDbLine
 10
6088.173057123664
 20
9482.451150420372
 30
0.0
 11
7361.173057123662
 21
9482.451150420478
 31
0.0
  0
DIMENSION
  5
162E4
330
747D
100
AcDbEntity
  8
寸法
 48
50.0
100
AcDbDimension
  2
*D6
 10
6162.673057123657
 20
7218.020379654205
 30
0.0
 11
7374.673057123648
 21
7318.032190677826
 31
0.0
 70
    32
  1
有効開口部間口 <>
 71
     5
 42
2423.999999999982
  3
INABA_S40G
100
AcDbAlignedDimension
 13
8586.673057123638
 23
7778.451150420369
 33
0.0
 14
6162.673057123657
 24
7778.451150420368
 34
0.0
100
AcDbRotatedDimension
1001
ACAD
1000
DSTYLE
1002
{
1070
    75
1070
     1
1070
   279
1070
     2
1002
}
  0
DIMENSION
  5
162E7
330
747D
100
AcDbEntity
  8
寸法
100
AcDbDimension
  2
*D7
 10
8689.673057123627
 20
6771.847384063331
 30
0.0
 11
6059.673057123642
 21
6871.859195086952
 31
0.0
 70
    32
 71
     5
 42
5259.999999999971
  3
INABA_S40G
100
AcDbAlignedDimension
 13
3429.673057123657
 23
7752.451150420366
 33
0.0
 14
8689.673057123627
 24
7752.451150420459
 34
0.0
100
AcDbRotatedDimension
1001
ACAD
1000
DSTYLE
1002
{
1002
}
  0
LINE
  5
162E8
330
747D
100
AcDbEntity
  8
部品1
100
AcDbLine
 10
3484.673057123641
 20
9482.451150420375
 30
0.0
 11
3484.673057123656
 21
7817.451150420367
 31
0.0
  0
DIMENSION
  5
162EA
330
747D
100
AcDbEntity
  8
寸法
 48
50.0
100
AcDbDimension
  2
*D8
 10
3429.673057123657
 20
7218.020379654205
 30
0.0
 11
3121.187775749418
 21
7218.020379654205
 31
0.0
 70
   160
 71
     5
 42
54.99999999999636
  3
INABA_S40G
100
AcDbAlignedDimension
 13
3484.673057123654
 23
7752.451150420369
 33
0.0
 14
3429.673057123657
 24
7752.451150420366
 34
0.0
100
AcDbRotatedDimension
1001
ACAD
1000
DSTYLE
1002
{
1002
}
  0
DIMENSION
  5
162EB
330
747D
100
AcDbEntity
  8
寸法
 48
50.0
100
AcDbDimension
  2
*D9
 10
6114.673057123653
 20
7218.020379654205
 30
0.0
 11
6275.575028123714
 21
7318.020379654204
 31
0.0
 70
   160
 71
     5
 42
48.00000000000363
  3
INABA_S40G
100
AcDbAlignedDimension
 13
6162.673057123657
 23
7778.451150420368
 33
0.0
 14
6114.673057123653
 24
7752.451150420369
 34
0.0
100
AcDbRotatedDimension
1001
ACAD
1000
DSTYLE
1002
{
1070
   279
1070
     2
1002
}
  0
LINE
  5
162FB
330
747D
100
AcDbEntity
  8
部品1
100
AcDbLine
 10
3457.673057123643
 20
8647.451150420343
 30
0.0
 11
3429.673057123643
 21
8647.451150420343
 31
0.0
  0
LINE
  5
162FC
330
747D
100
AcDbEntity
  8
部品1
100
AcDbLine
 10
3457.673057123643
 20
9067.451150420344
 30
0.0
 11
3429.673057123643
 21
9067.451150420344
 31
0.0
  0
LINE
  5
162FD
330
747D
100
AcDbEntity
  8
破線
 48
10.0
100
AcDbLine
 10
3509.673057123662
 20
7907.451150420219
 30
0.0
 11
3509.673057123639
 21
9482.451150420379
 31
0.0
  0
LINE
  5
162FE
330
747D
100
AcDbEntity
  8
部品1
100
AcDbLine
 10
3457.673057123638
 20
9487.451150420344
 30
0.0
 11
3429.673057123638
 21
9487.451150420344
 31
0.0
  0
LINE
  5
162FF
330
747D
100
AcDbEntity
  8
部品1
100
AcDbLine
 10
8634.673057123654
 20
9482.451150420473
 30
0.0
 11
8634.67305712364
 21
7752.451150420457
 31
0.0
  0
DIMENSION
  5
16301
330
747D
100
AcDbEntity
  8
寸法
 48
50.0
100
AcDbDimension
  2
*D10
 10
8586.673057123638
 20
7218.020379654205
 30
0.0
 11
8475.710159474891
 21
7318.020379654204
 31
0.0
 70
   160
 71
     5
 42
48.00000000000181
  3
INABA_S40G
100
AcDbAlignedDimension
 13
8634.67305712364
 23
7752.451150420457
 33
0.0
 14
8586.673057123638
 24
7778.451150420369
 34
0.0
100
AcDbRotatedDimension
1001
ACAD
1000
DSTYLE
1002
{
1070
   279
1070
     2
1002
}
  0
DIMENSION
  5
16302
330
747D
100
AcDbEntity
  8
寸法
 48
50.0
100
AcDbDimension
  2
*D11
 10
8634.67305712364
 20
7218.020379654205
 30
0.0
 11
8998.158338497876
 21
7218.020379654205
 31
0.0
 70
   160
 71
     5
 42
54.99999999999818
  3
INABA_S40G
100
AcDbAlignedDimension
 13
8689.67305712364
 23
7752.451150420459
 33
0.0
 14
8634.67305712364
 24
7752.451150420457
 34
0.0
100
AcDbRotatedDimension
1001
ACAD
1000
DSTYLE
1002
{
1002
}
  0
LINE
  5
1630E
330
747D
100
AcDbEntity
  8
部品1
100
AcDbLine
 10
7388.173057123662
 20
9482.451150420478
 30
0.0
 11
8661.173057123663
 21
9482.451150420471
 31
0.0
  0
LINE
  5
16310
330
747D
100
AcDbEntity
  8
破線
 48
10.0
100
AcDbLine
 10
6934.17305712369
 20
7882.451150420272
 30
0.0
 11
6934.173057123681
 21
9482.451150420443
 31
0.0
  0
LINE
  5
16311
330
747D
100
AcDbEntity
  8
破線
 48
10.0
100
AcDbLine
 10
6984.173057123678
 20
7882.451150420274
 30
0.0
 11
6984.173057123678
 21
9482.451150420448
 31
0.0
  0
LINE
  5
16312
330
747D
100
AcDbEntity
  8
部品1
100
AcDbLine
 10
7362.173057123662
 20
9482.451150420478
 30
0.0
 11
7387.173057123662
 21
9482.451150420478
 31
0.0
  0
LINE
  5
16313
330
747D
100
AcDbEntity
  8
破線
 48
10.0
100
AcDbLine
 10
7815.173057123678
 20
7882.45115042032
 30
0.0
 11
7815.173057123679
 21
9482.451150420478
 31
0.0
  0
LINE
  5
16314
330
747D
100
AcDbEntity
  8
破線
 48
10.0
100
AcDbLine
 10
7765.173057123679
 20
7882.451150420319
 30
0.0
 11
7765.173057123681
 21
9482.451150420478
 31
0.0
  0
LINE
  5
16317
330
747D
100
AcDbEntity
  8
部品1
100
AcDbLine
 10
8661.673057123667
 20
8647.45115042047
 30
0.0
 11
8689.673057123668
 21
8647.45115042047
 31
0.0
  0
LINE
  5
16318
330
747D
100
AcDbEntity
  8
破線
 48
10.0
100
AcDbLine
 10
8609.673057123668
 20
7907.45115042037
 30
0.0
 11
8609.673057123654
 21
9482.451150420379
 31
0.0
  0
LINE
  5
16319
330
747D
100
AcDbEntity
  8
部品1
100
AcDbLine
 10
8661.673057123667
 20
9067.451150420472
 30
0.0
 11
8689.673057123668
 21
9067.451150420472
 31
0.0
  0
LINE
  5
1631A
330
747D
100
AcDbEntity
  8
部品1
100
AcDbLine
 10
8661.673057123664
 20
9487.451150420472
 30
0.0
 11
8689.673057123664
 21
9487.451150420472
 31
0.0
  0
LINE
  5
1631B
330
747D
100
AcDbEntity
  8
部品1
100
AcDbLine
 10
6087.673057123649
 20
9934.451150420489
 30
0.0
 11
7362.173057123661
 21
9934.451150420489
 31
0.0
  0
LINE
  5
1631D
330
747D
100
AcDbEntity
  8
部品1
100
AcDbLine
 10
3429.673057123663
 20
9962.451150420372
 30
0.0
 11
8689.673057123664
 21
9962.451150420468
 31
0.0
  0
LINE
  5
1631E
330
747D
100
AcDbEntity
  8
部品1
100
AcDbLine
 10
6088.173057123662
 20
9932.451150420373
 30
0.0
 11
7361.173057123663
 21
9932.451150420479
 31
0.0
  0
DIMENSION
  5
1631F
330
747D
100
AcDbEntity
  8
寸法
100
AcDbDimension
  2
*D12
 10
8634.673057123665
 20
10478.25937004547
 30
0.0
 11
7374.673057123664
 21
10578.27118106909
 31
0.0
 70
    32
  1
6X420=<>
 71
     5
 42
2520.000000000001
  3
INABA_S40G
100
AcDbAlignedDimension
 13
6114.673057123663
 23
9962.451150420372
 33
0.0
 14
8634.673057123665
 24
9962.451150420468
 34
0.0
100
AcDbRotatedDimension
1001
ACAD
1000
DSTYLE
1002
{
1002
}
  0
DIMENSION
  5
16320
330
747D
100
AcDbEntity
  8
寸法
100
AcDbDimension
  2
*D13
 10
3484.673057123663
 20
10478.25937004535
 30
0.0
 11
3121.18777574939
 21
10478.25937004535
 31
0.0
 70
   160
 71
     5
 42
55.00000000003456
  3
INABA_S40G
100
AcDbAlignedDimension
 13
3429.673057123629
 23
9962.451150420372
 33
0.0
 14
3484.673057123663
 24
9962.451150420372
 34
0.0
100
AcDbRotatedDimension
1001
ACAD
1000
DSTYLE
1002
{
1002
}
  0
LINE
  5
16321
330
747D
100
AcDbEntity
  8
部品1
100
AcDbLine
 10
3484.673057123629
 20
9962.45115042034
 30
0.0
 11
3484.673057123631
 21
9934.451150420342
 31
0.0
  0
LINE
  5
16322
330
747D
100
AcDbEntity
  8
部品1
100
AcDbLine
 10
3484.673057123663
 20
9962.451150420372
 30
0.0
 11
3484.673057123663
 21
9934.451150420374
 31
0.0
  0
LINE
  5
16323
330
747D
100
AcDbEntity
  8
部品1
100
AcDbLine
 10
3457.67305712363
 20
9907.451150420344
 30
0.0
 11
3429.67305712363
 21
9907.451150420344
 31
0.0
  0
LINE
  5
16324
330
747D
100
AcDbEntity
  8
部品1
100
AcDbLine
 10
6534.673057123663
 20
9962.45115042049
 30
0.0
 11
6534.673057123663
 21
9934.451150420489
 31
0.0
  0
LINE
  5
16325
330
747D
100
AcDbEntity
  8
部品1
100
AcDbLine
 10
6534.673057123663
 20
9962.451150420372
 30
0.0
 11
6534.673057123663
 21
9934.451150420374
 31
0.0
  0
LINE
  5
16326
330
747D
100
AcDbEntity
  8
部品1
100
AcDbLine
 10
6534.673057123663
 20
9962.451150420372
 30
0.0
 11
6534.673057123663
 21
9934.451150420374
 31
0.0
  0
LINE
  5
16327
330
747D
100
AcDbEntity
  8
部品1
100
AcDbLine
 10
7387.173057123662
 20
9934.451150420485
 30
0.0
 11
8661.673057123664
 21
9934.451150420468
 31
0.0
  0
LINE
  5
16328
330
747D
100
AcDbEntity
  8
部品1
100
AcDbLine
 10
7388.173057123663
 20
9932.451150420476
 30
0.0
 11
8661.173057123663
 21
9932.451150420469
 31
0.0
  0
LINE
  5
16329
330
747D
100
AcDbEntity
  8
部品1
100
AcDbLine
 10
6954.673057123663
 20
9962.45115042049
 30
0.0
 11
6954.673057123663
 21
9934.451150420489
 31
0.0
  0
LINE
  5
1632A
330
747D
100
AcDbEntity
  8
部品1
100
AcDbLine
 10
6954.673057123663
 20
9962.451150420372
 30
0.0
 11
6954.673057123663
 21
9934.451150420374
 31
0.0
  0
LINE
  5
1632B
330
747D
100
AcDbEntity
  8
部品1
100
AcDbLine
 10
6954.673057123663
 20
9962.451150420372
 30
0.0
 11
6954.673057123663
 21
9934.451150420374
 31
0.0
  0
LINE
  5
1632C
330
747D
100
AcDbEntity
  8
部品1
100
AcDbLine
 10
7374.673057123662
 20
9962.45115042049
 30
0.0
 11
7374.673057123662
 21
9934.451150420489
 31
0.0
  0
LINE
  5
1632D
330
747D
100
AcDbEntity
  8
部品1
100
AcDbLine
 10
7362.173057123662
 20
9926.451150420472
 30
0.0
 11
7387.173057123662
 21
9926.451150420476
 31
0.0
  0
LINE
  5
1632E
330
747D
100
AcDbEntity
  8
部品1
100
AcDbLine
 10
7403.673057123663
 20
9952.451150420476
 30
0.0
 11
7409.673057123663
 21
9952.451150420476
 31
0.0
  0
LINE
  5
1632F
330
747D
100
AcDbEntity
  8
部品1
100
AcDbLine
 10
7409.673057123663
 20
9952.451150420476
 30
0.0
 11
7409.673057123663
 21
9934.451150420475
 31
0.0
  0
LINE
  5
16330
330
747D
100
AcDbEntity
  8
部品1
100
AcDbLine
 10
7339.673057123663
 20
9952.451150420476
 30
0.0
 11
7345.673057123663
 21
9952.451150420476
 31
0.0
  0
LINE
  5
16331
330
747D
100
AcDbEntity
  8
部品1
100
AcDbLine
 10
7339.673057123663
 20
9952.451150420476
 30
0.0
 11
7339.673057123663
 21
9934.451150420475
 31
0.0
  0
LINE
  5
16332
330
747D
100
AcDbEntity
  8
部品1
100
AcDbLine
 10
7794.673057123663
 20
9962.45115042049
 30
0.0
 11
7794.673057123663
 21
9934.451150420489
 31
0.0
  0
DIMENSION
  5
16333
330
747D
100
AcDbEntity
  8
寸法
100
AcDbDimension
  2
*D14
 10
8689.673057123664
 20
10478.25937004545
 30
0.0
 11
8998.158338497901
 21
10478.25937004545
 31
0.0
 70
   160
 71
     5
 42
55.0
  3
INABA_S40G
100
AcDbAlignedDimension
 13
8634.673057123665
 23
9962.451150420468
 33
0.0
 14
8689.673057123664
 24
9962.451150420468
 34
0.0
100
AcDbRotatedDimension
1001
ACAD
1000
DSTYLE
1002
{
1002
}
  0
LINE
  5
16334
330
747D
100
AcDbEntity
  8
部品1
100
AcDbLine
 10
8214.673057123661
 20
9962.45115042049
 30
0.0
 11
8214.673057123661
 21
9934.451150420489
 31
0.0
  0
LINE
  5
16335
330
747D
100
AcDbEntity
  8
部品1
100
AcDbLine
 10
8634.673057123665
 20
9962.451150420468
 30
0.0
 11
8634.673057123665
 21
9934.451150420468
 31
0.0
  0
LINE
  5
16336
330
747D
100
AcDbEntity
  8
部品1
100
AcDbLine
 10
8634.673057123665
 20
9962.45115042049
 30
0.0
 11
8634.673057123665
 21
9934.451150420489
 31
0.0
  0
LINE
  5
16337
330
747D
100
AcDbEntity
  8
部品1
100
AcDbLine
 10
8661.673057123664
 20
9907.45115042047
 30
0.0
 11
8689.673057123664
 21
9907.45115042047
 31
0.0
  0
DIMENSION
  5
1659A
330
747D
100
AcDbEntity
  8
寸法
 48
50.0
100
AcDbDimension
  2
*D17
 10
5956.673057123638
 20
7218.020379654205
 30
0.0
 11
5845.710159474891
 21
7318.020379654204
 31
0.0
 70
   160
 71
     5
 42
48.00000000000181
  3
INABA_S40G
100
AcDbAlignedDimension
 13
6004.67305712364
 23
7752.451150420457
 33
0.0
 14
5956.673057123638
 24
7778.451150420369
 34
0.0
100
AcDbRotatedDimension
1001
ACAD
1000
DSTYLE
1002
{
1070
   279
1070
     2
1002
}
  0
DIMENSION
  5
1659B
330
747D
100
AcDbEntity
  8
寸法
 48
50.0
100
AcDbDimension
  2
*D15
 10
3532.673057123657
 20
7218.020379654205
 30
0.0
 11
4744.673057123647
 21
7318.032190677826
 31
0.0
 70
    32
  1
有効開口部間口 <>
 71
     5
 42
2423.999999999982
  3
INABA_S40G
100
AcDbAlignedDimension
 13
5956.673057123638
 23
7778.451150420369
 33
0.0
 14
3532.673057123657
 24
7778.451150420368
 34
0.0
100
AcDbRotatedDimension
1001
ACAD
1000
DSTYLE
1002
{
1070
    75
1070
     1
1070
   279
1070
     2
1002
}
  0
DIMENSION
  5
1659C
330
747D
100
AcDbEntity
  8
寸法
 48
50.0
100
AcDbDimension
  2
*D16
 10
3484.673057123654
 20
7218.020379654205
 30
0.0
 11
3645.575028123714
 21
7318.020379654204
 31
0.0
 70
   160
 71
     5
 42
48.00000000000363
  3
INABA_S40G
100
AcDbAlignedDimension
 13
3532.673057123657
 23
7778.451150420368
 33
0.0
 14
3484.673057123654
 24
7752.451150420369
 34
0.0
100
AcDbRotatedDimension
1001
ACAD
1000
DSTYLE
1002
{
1070
   279
1070
     2
1002
}
  0
DIMENSION
  5
165E9
330
747D
100
AcDbEntity
  8
寸法
 48
50.0
100
AcDbDimension
  2
*D18
 10
6004.67305712364
 20
7218.020379654205
 30
0.0
 11
6059.673057123647
 21
7066.328484617973
 31
0.0
 70
   160
 71
     5
 42
110.0000000000127
  3
INABA_S40G
100
AcDbAlignedDimension
 13
6114.673057123653
 23
7752.451150420369
 33
0.0
 14
6004.67305712364
 24
7752.451150420457
 34
0.0
100
AcDbRotatedDimension
1001
ACAD
1000
DSTYLE
1002
{
1070
   279
1070
     2
1002
}
  0
LINE
  5
16665
330
747D
100
AcDbEntity
  8
部品1
 48
50.0
100
AcDbLine
 10
6088.173057123662
 20
9932.451150420369
 30
0.0
 11
6088.173057123663
 21
9482.45115042037
 31
0.0
  0
LINE
  5
16666
330
747D
100
AcDbEntity
  8
部品1
100
AcDbLine
 10
6114.673057123663
 20
9962.451150420372
 30
0.0
 11
6114.673057123663
 21
9934.451150420374
 31
0.0
  0
DIMENSION
  5
16667
330
747D
100
AcDbEntity
  8
寸法
100
AcDbDimension
  2
*D19
 10
6004.673057123664
 20
10478.25937004547
 30
0.0
 11
4744.673057123664
 21
10578.27118106909
 31
0.0
 70
    32
  1
6X420=<>
 71
     5
 42
2520.000000000001
  3
INABA_S40G
100
AcDbAlignedDimension
 13
3484.673057123663
 23
9962.451150420372
 33
0.0
 14
6004.673057123664
 24
9962.451150420468
 34
0.0
100
AcDbRotatedDimension
1001
ACAD
1000
DSTYLE
1002
{
1002
}
  0
LINE
  5
16668
330
747D
100
AcDbEntity
  8
細線
 48
50.0
100
AcDbLine
 10
6031.173057123663
 20
9932.451150420469
 30
0.0
 11
4758.173057123662
 21
9482.451150420478
 31
0.0
  0
LINE
  5
16669
330
747D
100
AcDbEntity
  8
細線
 48
50.0
100
AcDbLine
 10
6031.173057123663
 20
9482.451150420471
 30
0.0
 11
4758.173057123663
 21
9932.451150420471
 31
0.0
  0
LINE
  5
1666B
330
747D
100
AcDbEntity
  8
部品1
100
AcDbLine
 10
4758.173057123662
 20
9482.451150420478
 30
0.0
 11
6031.173057123663
 21
9482.451150420471
 31
0.0
  0
LINE
  5
16670
330
747D
100
AcDbEntity
  8
細線
 48
50.0
100
AcDbLine
 10
4731.173057123662
 20
9482.451150420478
 30
0.0
 11
3458.173057123662
 21
9932.451150420373
 31
0.0
  0
LINE
  5
16671
330
747D
100
AcDbEntity
  8
細線
 48
50.0
100
AcDbLine
 10
4731.173057123663
 20
9932.451150420476
 30
0.0
 11
3458.173057123663
 21
9482.451150420372
 31
0.0
  0
LINE
  5
16672
330
747D
100
AcDbEntity
  8
部品1
100
AcDbLine
 10
3458.173057123664
 20
9482.451150420372
 30
0.0
 11
4731.173057123662
 21
9482.451150420478
 31
0.0
  0
LINE
  5
16675
330
747D
100
AcDbEntity
  8
破線
 48
10.0
100
AcDbLine
 10
4304.17305712369
 20
7882.451150420178
 30
0.0
 11
4304.173057123681
 21
9482.451150420443
 31
0.0
  0
LINE
  5
16676
330
747D
100
AcDbEntity
  8
破線
 48
10.0
100
AcDbLine
 10
4354.173057123678
 20
7882.451150420173
 30
0.0
 11
4354.173057123678
 21
9482.451150420448
 31
0.0
  0
LINE
  5
16677
330
747D
100
AcDbEntity
  8
部品1
 48
50.0
100
AcDbLine
 10
4731.173057123663
 20
9932.451150420476
 30
0.0
 11
4731.173057123663
 21
9482.451150420478
 31
0.0
  0
LINE
  5
16678
330
747D
100
AcDbEntity
  8
部品1
 48
50.0
100
AcDbLine
 10
4758.173057123663
 20
9932.451150420471
 30
0.0
 11
4758.173057123663
 21
9482.451150420478
 31
0.0
  0
LINE
  5
16679
330
747D
100
AcDbEntity
  8
部品1
 48
50.0
100
AcDbLine
 10
4732.173057123662
 20
9934.451150420482
 30
0.0
 11
4732.173057123662
 21
9482.451150420478
 31
0.0
  0
LINE
  5
1667A
330
747D
100
AcDbEntity
  8
部品1
 48
50.0
100
AcDbLine
 10
4757.173057123663
 20
9934.451150420478
 30
0.0
 11
4757.173057123663
 21
9482.451150420478
 31
0.0
  0
LINE
  5
1667B
330
747D
100
AcDbEntity
  8
部品1
100
AcDbLine
 10
4732.173057123662
 20
9482.451150420478
 30
0.0
 11
4757.173057123663
 21
9482.451150420478
 31
0.0
  0
LINE
  5
1667C
330
747D
100
AcDbEntity
  8
破線
 48
10.0
100
AcDbLine
 10
5185.173057123679
 20
7882.451150420127
 30
0.0
 11
5185.173057123679
 21
9482.451150420478
 31
0.0
  0
LINE
  5
1667D
330
747D
100
AcDbEntity
  8
破線
 48
10.0
100
AcDbLine
 10
5135.17305712368
 20
7882.45115042013
 30
0.0
 11
5135.17305712368
 21
9482.451150420478
 31
0.0
  0
LINE
  5
1667E
330
747D
100
AcDbEntity
  8
部品1
 48
50.0
100
AcDbLine
 10
3458.173057123662
 20
9932.451150420369
 30
0.0
 11
3458.173057123663
 21
9482.45115042037
 31
0.0
  0
LINE
  5
1667F
330
747D
100
AcDbEntity
  8
破線
 48
10.0
100
AcDbLine
 10
5979.673057123668
 20
7907.451150420079
 30
0.0
 11
5979.673057123653
 21
9482.451150420379
 31
0.0
  0
LINE
  5
16680
330
747D
100
AcDbEntity
  8
部品1
100
AcDbLine
 10
4744.673057123662
 20
9962.45115042049
 30
0.0
 11
4744.673057123662
 21
9934.451150420489
 31
0.0
  0
LINE
  5
16681
330
747D
100
AcDbEntity
  8
部品1
100
AcDbLine
 10
4732.173057123662
 20
9926.451150420472
 30
0.0
 11
4757.173057123663
 21
9926.451150420476
 31
0.0
  0
LINE
  5
16682
330
747D
100
AcDbEntity
  8
部品1
100
AcDbLine
 10
4773.673057123663
 20
9952.451150420476
 30
0.0
 11
4779.673057123662
 21
9952.451150420476
 31
0.0
  0
LINE
  5
16683
330
747D
100
AcDbEntity
  8
部品1
100
AcDbLine
 10
4779.673057123662
 20
9952.451150420476
 30
0.0
 11
4779.673057123662
 21
9934.451150420475
 31
0.0
  0
LINE
  5
16684
330
747D
100
AcDbEntity
  8
部品1
100
AcDbLine
 10
4709.673057123663
 20
9952.451150420476
 30
0.0
 11
4715.673057123662
 21
9952.451150420476
 31
0.0
  0
LINE
  5
16685
330
747D
100
AcDbEntity
  8
部品1
100
AcDbLine
 10
4709.673057123663
 20
9952.451150420476
 30
0.0
 11
4709.673057123663
 21
9934.451150420475
 31
0.0
  0
LINE
  5
16686
330
747D
100
AcDbEntity
  8
部品1
100
AcDbLine
 10
4757.173057123663
 20
9934.451150420485
 30
0.0
 11
6031.673057123664
 21
9934.451150420468
 31
0.0
  0
LINE
  5
16687
330
747D
100
AcDbEntity
  8
部品1
100
AcDbLine
 10
4758.173057123663
 20
9932.451150420476
 30
0.0
 11
6031.173057123663
 21
9932.451150420469
 31
0.0
  0
LINE
  5
16688
330
747D
100
AcDbEntity
  8
部品1
100
AcDbLine
 10
3457.67305712365
 20
9934.451150420489
 30
0.0
 11
4732.173057123661
 21
9934.451150420489
 31
0.0
  0
LINE
  5
16689
330
747D
100
AcDbEntity
  8
部品1
100
AcDbLine
 10
3458.173057123662
 20
9932.451150420373
 30
0.0
 11
4731.173057123663
 21
9932.451150420479
 31
0.0
  0
LINE
  5
1668A
330
747D
100
AcDbEntity
  8
部品1
100
AcDbLine
 10
3904.673057123663
 20
9962.45115042049
 30
0.0
 11
3904.673057123663
 21
9934.451150420489
 31
0.0
  0
LINE
  5
1668B
330
747D
100
AcDbEntity
  8
部品1
100
AcDbLine
 10
3904.673057123663
 20
9962.451150420372
 30
0.0
 11
3904.673057123663
 21
9934.451150420374
 31
0.0
  0
LINE
  5
1668C
330
747D
100
AcDbEntity
  8
部品1
100
AcDbLine
 10
3904.673057123663
 20
9962.451150420372
 30
0.0
 11
3904.673057123663
 21
9934.451150420374
 31
0.0
  0
LINE
  5
1668D
330
747D
100
AcDbEntity
  8
部品1
100
AcDbLine
 10
4324.673057123663
 20
9962.45115042049
 30
0.0
 11
4324.673057123663
 21
9934.451150420489
 31
0.0
  0
LINE
  5
1668E
330
747D
100
AcDbEntity
  8
部品1
100
AcDbLine
 10
4324.673057123663
 20
9962.451150420372
 30
0.0
 11
4324.673057123663
 21
9934.451150420374
 31
0.0
  0
LINE
  5
1668F
330
747D
100
AcDbEntity
  8
部品1
100
AcDbLine
 10
4324.673057123663
 20
9962.451150420372
 30
0.0
 11
4324.673057123663
 21
9934.451150420374
 31
0.0
  0
LINE
  5
16690
330
747D
100
AcDbEntity
  8
部品1
100
AcDbLine
 10
5164.673057123663
 20
9962.45115042049
 30
0.0
 11
5164.673057123663
 21
9934.451150420489
 31
0.0
  0
LINE
  5
16691
330
747D
100
AcDbEntity
  8
部品1
100
AcDbLine
 10
5584.673057123662
 20
9962.45115042049
 30
0.0
 11
5584.673057123662
 21
9934.451150420489
 31
0.0
  0
LINE
  5
16692
330
747D
100
AcDbEntity
  8
部品1
100
AcDbLine
 10
6004.673057123664
 20
9962.451150420468
 30
0.0
 11
6004.673057123664
 21
9934.451150420468
 31
0.0
  0
LINE
  5
16693
330
747D
100
AcDbEntity
  8
部品1
100
AcDbLine
 10
6031.173057123663
 20
9932.451150420469
 30
0.0
 11
6031.173057123663
 21
9482.451150420471
 31
0.0
  0
DIMENSION
  5
166DD
330
747D
100
AcDbEntity
  8
寸法
 48
50.0
100
AcDbDimension
  2
*D20
 10
6004.673057123664
 20
10478.25937004547
 30
0.0
 11
6059.673057123664
 21
10578.25937004547
 31
0.0
 70
    32
 71
     5
 42
109.9999999999991
  3
INABA_S40G
100
AcDbAlignedDimension
 13
6114.673057123663
 23
9962.451150420422
 33
0.0
 14
6004.673057123664
 24
9962.451150420418
 34
0.0
100
AcDbRotatedDimension
1001
ACAD
1000
DSTYLE
1002
{
1070
   279
1070
     2
1002
}
  0
LINE
  5
166DE
330
747D
100
AcDbEntity
  8
破線
 48
10.0
100
AcDbLine
 10
6139.673057123663
 20
7907.451150420228
 30
0.0
 11
6139.67305712364
 21
9482.451150420379
 31
0.0
  0
LINE
  5
16760
330
747D
100
AcDbEntity
  8
部品1
 48
50.0
100
AcDbLine
 10
6059.673057123629
 20
9934.451150420414
 30
0.0
 11
6031.673057123631
 21
9962.45115042047
 31
0.0
  0
LINE
  5
16761
330
747D
100
AcDbEntity
  8
部品1
100
AcDbLine
 10
6087.673057123631
 20
9907.45115042039
 30
0.0
 11
6031.673057123631
 21
9907.45115042039
 31
0.0
  0
LINE
  5
16762
330
747D
100
AcDbEntity
  8
部品1
 48
50.0
100
AcDbLine
 10
6031.673057123631
 20
9934.451150420521
 30
0.0
 11
6031.67305712363
 21
9962.45115042047
 31
0.0
  0
LINE
  5
16763
330
747D
100
AcDbEntity
  8
部品1
 48
50.0
100
AcDbLine
 10
6031.673057123631
 20
9934.451150420414
 30
0.0
 11
6059.673057123629
 21
9934.451150420416
 31
0.0
  0
LINE
  5
16764
330
747D
100
AcDbEntity
  8
部品1
100
AcDbLine
 10
6031.673057123647
 20
9934.451150420468
 30
0.0
 11
6031.673057123638
 21
7752.451150420364
 31
0.0
  0
LINE
  5
16765
330
747D
100
AcDbEntity
  8
部品1
100
AcDbLine
 10
6087.673057123632
 20
7752.451150420367
 30
0.0
 11
6087.673057123649
 21
9962.451150420418
 31
0.0
  0
LINE
  5
16878
330
747D
100
AcDbEntity
  8
部品1
 48
50.0
100
AcDbLine
 10
6085.173057123705
 20
9490.451150420511
 30
0.0
 11
6034.173057123705
 21
9490.451150420508
 31
0.0
  0
LINE
  5
16879
330
747D
100
AcDbEntity
  8
部品1
 48
50.0
100
AcDbLine
 10
6040.173057123706
 20
9528.451150420504
 30
0.0
 11
6034.173057123705
 21
9528.451150420506
 31
0.0
  0
LINE
  5
1687A
330
747D
100
AcDbEntity
  8
部品1
100
AcDbLine
 10
6034.173057123705
 20
9490.451150420508
 30
0.0
 11
6034.173057123705
 21
9528.451150420506
 31
0.0
  0
LINE
  5
1687B
330
747D
100
AcDbEntity
  8
部品1
100
AcDbLine
 10
6085.173057123705
 20
9490.451150420511
 30
0.0
 11
6085.173057123705
 21
9528.451150420512
 31
0.0
  0
LINE
  5
1687C
330
747D
100
AcDbEntity
  8
部品1
 48
50.0
100
AcDbLine
 10
6085.173057123705
 20
9528.451150420512
 30
0.0
 11
6079.173057123705
 21
9528.451150420506
 31
0.0
  0
LINE
  5
16880
330
747D
100
AcDbEntity
  8
部品1
100
AcDbLine
 10
6004.67305712366
 20
7817.451150420369
 30
0.0
 11
6004.67305712366
 21
9482.451150420471
 31
0.0
  0
LINE
  5
16883
330
747D
100
AcDbEntity
  8
部品1
100
AcDbLine
 10
6114.67305712367
 20
7817.451150420367
 30
0.0
 11
6114.673057123663
 21
9482.451150420375
 31
0.0
  0
DIMENSION
  5
16907
330
747D
100
AcDbEntity
  8
寸法
 48
50.0
100
AcDbDimension
  2
*D21
 10
6059.673057123664
 20
10727.58084360176
 30
0.0
 11
4744.673057123645
 21
10827.59265462538
 31
0.0
 70
    32
 71
     5
 42
2630.000000000036
  3
INABA_S40G
100
AcDbAlignedDimension
 13
3429.673057123629
 23
9962.45115042034
 33
0.0
 14
6059.673057123664
 24
10637.24728440341
 34
0.0
100
AcDbRotatedDimension
1001
ACAD
1000
DSTYLE
1002
{
1070
   279
1070
     2
1002
}
  0
DIMENSION
  5
16913
330
747D
100
AcDbEntity
  8
寸法
 48
50.0
100
AcDbDimension
  2
*D22
 10
8689.673057123664
 20
10727.58084360176
 30
0.0
 11
7374.673057123664
 21
10827.59265462538
 31
0.0
 70
    32
 71
     5
 42
2630.0
  3
INABA_S40G
100
AcDbAlignedDimension
 13
6059.673057123664
 23
10637.24728440341
 33
0.0
 14
8689.673057123664
 24
9962.451150420468
 34
0.0
100
AcDbRotatedDimension
1001
ACAD
1000
DSTYLE
1002
{
1070
    75
1070
     1
1070
   279
1070
     2
1002
}
  0
LINE
  5
16C81
330
747D
100
AcDbEntity
  8
部品1
100
AcDbLine
 10
3457.673057123643
 20
8227.451150420344
 30
0.0
 11
3429.673057123643
 21
8227.451150420344
 31
0.0
  0
LINE
  5
16C82
330
747D
100
AcDbEntity
  8
部品1
100
AcDbLine
 10
8661.673057123667
 20
8227.451150420471
 30
0.0
 11
8689.673057123668
 21
8227.451150420471
 31
0.0
  0
LINE
  5
16CDA
330
747D
100
AcDbEntity
  8
破線
 48
10.0
100
AcDbLine
 10
3509.673057123517
 20
7907.451150420221
 30
0.0
 11
4304.173057123557
 21
7907.451150420175
 31
0.0
  0
LINE
  5
16CDB
330
747D
100
AcDbEntity
  8
部品1
 48
50.0
100
AcDbLine
 10
3484.673057123654
 20
7882.451150420222
 30
0.0
 11
6004.67305712364
 21
7882.45115042008
 31
0.0
  0
LINE
  5
16CDC
330
747D
100
AcDbEntity
  8
部品1
 48
50.0
100
AcDbLine
 10
3484.673057123654
 20
7837.451150420221
 30
0.0
 11
6004.67305712364
 21
7837.451150420079
 31
0.0
  0
LINE
  5
16CDD
330
747D
100
AcDbEntity
  8
部品1
 48
50.0
100
AcDbLine
 10
3484.673057123654
 20
7752.451150420222
 30
0.0
 11
6004.67305712364
 21
7752.45115042008
 31
0.0
  0
LINE
  5
16CDE
330
747D
100
AcDbEntity
  8
部品1
 48
50.0
100
AcDbLine
 10
3496.673057123655
 20
7797.951150420221
 30
0.0
 11
5992.67305712364
 21
7797.951150420221
 31
0.0
  0
LINE
  5
16CDF
330
747D
100
AcDbEntity
  8
部品1
100
AcDbLine
 10
3484.673057123655
 20
7807.451150420146
 30
0.0
 11
3429.673057123655
 21
7807.451150420146
 31
0.0
  0
LINE
  5
16CE0
330
747D
100
AcDbEntity
  8
部品1
100
AcDbLine
 10
3484.673057123651
 20
7752.451150420222
 30
0.0
 11
3429.673057123657
 21
7752.451150420218
 31
0.0
  0
LINE
  5
16CE1
330
747D
100
AcDbEntity
  8
部品1
100
AcDbLine
 10
3457.673057123655
 20
7807.451150420196
 30
0.0
 11
3429.673057123655
 21
7807.451150420196
 31
0.0
  0
LINE
  5
16CE2
330
747D
100
AcDbEntity
  8
部品1
100
AcDbLine
 10
3457.673057123639
 20
7807.451150420182
 30
0.0
 11
3429.673057123655
 21
7807.451150420182
 31
0.0
  0
LINE
  5
16CE3
330
747D
100
AcDbEntity
  8
部品1
100
AcDbLine
 10
3484.673057123655
 20
7788.451150420221
 30
0.0
 11
3461.673057123657
 21
7788.451150420221
 31
0.0
  0
LINE
  5
16CE4
330
747D
100
AcDbEntity
  8
部品1
100
AcDbLine
 10
3532.673057123657
 20
7778.451150420221
 30
0.0
 11
3484.673057123657
 21
7778.451150420221
 31
0.0
  0
LINE
  5
16CE5
330
747D
100
AcDbEntity
  8
部品1
100
AcDbLine
 10
3532.673057123657
 20
7817.451150420222
 30
0.0
 11
3484.673057123657
 21
7817.451150420222
 31
0.0
  0
LINE
  5
16CE6
330
747D
100
AcDbEntity
  8
部品1
 48
50.0
100
AcDbLine
 10
3532.673057123657
 20
7817.451150420222
 30
0.0
 11
3532.673057123657
 21
7808.451150420222
 31
0.0
  0
LINE
  5
16CE7
330
747D
100
AcDbEntity
  8
部品1
 48
50.0
100
AcDbLine
 10
3532.673057123657
 20
7778.451150420221
 30
0.0
 11
3532.673057123657
 21
7787.451150420221
 31
0.0
  0
LINE
  5
16CE8
330
747D
100
AcDbEntity
  8
部品1
 48
50.0
100
AcDbLine
 10
3484.673057123657
 20
7817.45115042022
 30
0.0
 11
3484.673057123654
 21
7752.451150420222
 31
0.0
  0
LINE
  5
16CE9
330
747D
100
AcDbEntity
  8
部品1
 48
50.0
100
AcDbLine
 10
3494.673057123657
 20
7778.451150420221
 30
0.0
 11
3484.673057123657
 21
7757.451150420222
 31
0.0
  0
LINE
  5
16CEA
330
747D
100
AcDbEntity
  8
部品1
 48
50.0
100
AcDbLine
 10
3484.673057123657
 20
7788.451150420221
 30
0.0
 11
3461.673057123657
 21
7788.451150420221
 31
0.0
  0
LINE
  5
16CEB
330
747D
100
AcDbEntity
  8
部品1
 48
50.0
100
AcDbLine
 10
8634.673057123675
 20
7752.451150420367
 30
0.0
 11
6114.673057123688
 21
7752.451150420228
 31
0.0
  0
LINE
  5
16CEC
330
747D
100
AcDbEntity
  8
部品1
 48
50.0
100
AcDbLine
 10
8634.673057123675
 20
7837.451150420368
 30
0.0
 11
6114.673057123688
 21
7837.451150420227
 31
0.0
  0
LINE
  5
16CED
330
747D
100
AcDbEntity
  8
破線
 48
10.0
100
AcDbLine
 10
6934.173057123771
 20
7907.451150420271
 30
0.0
 11
6139.673057123797
 21
7907.451150420228
 31
0.0
  0
LINE
  5
16CEE
330
747D
100
AcDbEntity
  8
部品1
 48
50.0
100
AcDbLine
 10
8634.673057123675
 20
7882.451150420367
 30
0.0
 11
6114.673057123688
 21
7882.451150420227
 31
0.0
  0
LINE
  5
16CEF
330
747D
100
AcDbEntity
  8
部品1
 48
50.0
100
AcDbLine
 10
6126.673057123655
 20
7797.951150420367
 30
0.0
 11
8622.673057123639
 21
7797.951150420367
 31
0.0
  0
LINE
  5
16CF0
330
747D
100
AcDbEntity
  8
破線
 48
10.0
100
AcDbLine
 10
5185.173057123557
 20
7907.451150420126
 30
0.0
 11
5979.673057123531
 21
7907.451150420079
 31
0.0
  0
LINE
  5
16CF1
330
747D
100
AcDbEntity
  8
破線
 48
10.0
100
AcDbLine
 10
4354.173057123553
 20
7907.451150420172
 30
0.0
 11
5135.173057123557
 21
7907.451150420127
 31
0.0
  0
LINE
  5
16CF2
330
747D
100
AcDbEntity
  8
部品1
 48
50.0
100
AcDbLine
 10
6114.673057123653
 20
7752.451150420222
 30
0.0
 11
6004.67305712364
 21
7752.451150420228
 31
0.0
  0
LINE
  5
16CF3
330
747D
100
AcDbEntity
  8
部品1
100
AcDbLine
 10
6114.673057123651
 20
7752.451150420222
 30
0.0
 11
6004.673057123643
 21
7752.451150420215
 31
0.0
  0
LINE
  5
16CF4
330
747D
100
AcDbEntity
  8
部品1
100
AcDbLine
 10
6114.673057123651
 20
7752.451150420369
 30
0.0
 11
6004.673057123643
 21
7752.451150420362
 31
0.0
  0
LINE
  5
16CF5
330
747D
100
AcDbEntity
  8
部品1
 48
50.0
100
AcDbLine
 10
6004.673057123643
 20
7817.45115042031
 30
0.0
 11
6004.67305712364
 21
7752.451150420309
 31
0.0
  0
LINE
  5
16CF6
330
747D
100
AcDbEntity
  8
部品1
 48
50.0
100
AcDbLine
 10
5994.673057123638
 20
7778.451150420221
 30
0.0
 11
6004.673057123639
 21
7757.451150420222
 31
0.0
  0
LINE
  5
16CF7
330
747D
100
AcDbEntity
  8
部品1
 48
50.0
100
AcDbLine
 10
5956.673057123638
 20
7778.451150420221
 30
0.0
 11
5956.673057123638
 21
7787.451150420221
 31
0.0
  0
LINE
  5
16CF8
330
747D
100
AcDbEntity
  8
部品1
 48
50.0
100
AcDbLine
 10
5956.673057123638
 20
7817.451150420222
 30
0.0
 11
5956.673057123638
 21
7808.451150420222
 31
0.0
  0
LINE
  5
16CF9
330
747D
100
AcDbEntity
  8
部品1
100
AcDbLine
 10
5956.673057123638
 20
7778.451150420221
 30
0.0
 11
6004.673057123639
 21
7778.451150420221
 31
0.0
  0
LINE
  5
16CFA
330
747D
100
AcDbEntity
  8
部品1
100
AcDbLine
 10
5956.673057123638
 20
7817.451150420222
 30
0.0
 11
6004.67305712364
 21
7817.451150420222
 31
0.0
  0
LINE
  5
16CFB
330
747D
100
AcDbEntity
  8
部品1
 48
50.0
100
AcDbLine
 10
6083.673057123648
 20
7807.451150420366
 30
0.0
 11
6083.673057123651
 21
7752.451150420366
 31
0.0
  0
LINE
  5
16CFC
330
747D
100
AcDbEntity
  8
部品1
 48
50.0
100
AcDbLine
 10
6035.673057123648
 20
7807.451150420366
 30
0.0
 11
6035.673057123651
 21
7752.451150420366
 31
0.0
  0
LINE
  5
16CFD
330
747D
100
AcDbEntity
  8
部品1
100
AcDbLine
 10
6083.673057123648
 20
7807.451150420366
 30
0.0
 11
6035.673057123648
 21
7807.451150420364
 31
0.0
  0
LINE
  5
16CFE
330
747D
100
AcDbEntity
  8
部品1
 48
50.0
100
AcDbLine
 10
6004.673057123643
 20
7817.451150420457
 30
0.0
 11
6004.67305712364
 21
7752.451150420457
 31
0.0
  0
LINE
  5
16CFF
330
747D
100
AcDbEntity
  8
部品1
100
AcDbLine
 10
6004.673057123639
 20
7788.451150420366
 30
0.0
 11
6027.673057123639
 21
7788.451150420367
 31
0.0
  0
LINE
  5
16D00
330
747D
100
AcDbEntity
  8
部品1
 48
50.0
100
AcDbLine
 10
5994.673057123638
 20
7778.451150420369
 30
0.0
 11
6004.673057123639
 21
7757.45115042037
 31
0.0
  0
LINE
  5
16D01
330
747D
100
AcDbEntity
  8
部品1
 48
50.0
100
AcDbLine
 10
5956.673057123638
 20
7778.451150420369
 30
0.0
 11
5956.673057123638
 21
7787.45115042037
 31
0.0
  0
LINE
  5
16D02
330
747D
100
AcDbEntity
  8
部品1
100
AcDbLine
 10
5956.673057123638
 20
7778.451150420369
 30
0.0
 11
6004.673057123639
 21
7778.451150420369
 31
0.0
  0
LINE
  5
16D03
330
747D
100
AcDbEntity
  8
部品1
 48
50.0
100
AcDbLine
 10
5956.673057123638
 20
7817.451150420369
 30
0.0
 11
5956.673057123638
 21
7808.451150420369
 31
0.0
  0
LINE
  5
16D04
330
747D
100
AcDbEntity
  8
部品1
100
AcDbLine
 10
5956.673057123638
 20
7817.451150420369
 30
0.0
 11
6004.67305712364
 21
7817.451150420369
 31
0.0
  0
LINE
  5
16D05
330
747D
100
AcDbEntity
  8
部品1
 48
50.0
100
AcDbLine
 10
6162.673057123657
 20
7778.451150420369
 30
0.0
 11
6162.673057123657
 21
7787.45115042037
 31
0.0
  0
LINE
  5
16D06
330
747D
100
AcDbEntity
  8
部品1
 48
50.0
100
AcDbLine
 10
6114.673057123656
 20
7817.451150420367
 30
0.0
 11
6114.673057123653
 21
7752.451150420369
 31
0.0
  0
LINE
  5
16D07
330
747D
100
AcDbEntity
  8
部品1
100
AcDbLine
 10
6114.673057123655
 20
7788.451150420367
 30
0.0
 11
6091.673057123657
 21
7788.451150420367
 31
0.0
  0
LINE
  5
16D08
330
747D
100
AcDbEntity
  8
部品1
 48
50.0
100
AcDbLine
 10
6124.673057123657
 20
7778.451150420369
 30
0.0
 11
6114.673057123656
 21
7757.45115042037
 31
0.0
  0
LINE
  5
16D09
330
747D
100
AcDbEntity
  8
部品1
100
AcDbLine
 10
6162.673057123657
 20
7778.451150420369
 30
0.0
 11
6114.673057123656
 21
7778.451150420369
 31
0.0
  0
LINE
  5
16D0A
330
747D
100
AcDbEntity
  8
部品1
 48
50.0
100
AcDbLine
 10
6162.673057123657
 20
7817.451150420369
 30
0.0
 11
6162.673057123657
 21
7808.451150420369
 31
0.0
  0
LINE
  5
16D0B
330
747D
100
AcDbEntity
  8
部品1
100
AcDbLine
 10
6162.673057123657
 20
7817.451150420369
 30
0.0
 11
6114.673057123656
 21
7817.451150420369
 31
0.0
  0
LINE
  5
16D0C
330
747D
100
AcDbEntity
  8
破線
 48
10.0
100
AcDbLine
 10
8609.673057123812
 20
7907.451150420367
 30
0.0
 11
7815.173057123772
 21
7907.451150420321
 31
0.0
  0
LINE
  5
16D0D
330
747D
100
AcDbEntity
  8
破線
 48
10.0
100
AcDbLine
 10
7765.173057123774
 20
7907.451150420318
 30
0.0
 11
6984.173057123772
 21
7907.451150420273
 31
0.0
  0
LINE
  5
16D0E
330
747D
100
AcDbEntity
  8
部品1
 48
50.0
100
AcDbLine
 10
8634.67305712364
 20
7788.451150420366
 30
0.0
 11
8634.673057123675
 21
7752.451150420367
 31
0.0
  0
LINE
  5
16D0F
330
747D
100
AcDbEntity
  8
部品1
100
AcDbLine
 10
8689.67305712364
 20
7752.451150420459
 30
0.0
 11
8634.67305712364
 21
7752.451150420457
 31
0.0
  0
LINE
  5
16D10
330
747D
100
AcDbEntity
  8
部品1
100
AcDbLine
 10
8634.67305712364
 20
7807.451150420471
 30
0.0
 11
8689.673057123671
 21
7807.451150420471
 31
0.0
  0
LINE
  5
16D11
330
747D
100
AcDbEntity
  8
部品1
100
AcDbLine
 10
8634.67305712364
 20
7788.451150420366
 30
0.0
 11
8657.673057123638
 21
7788.451150420367
 31
0.0
  0
LINE
  5
16D12
330
747D
100
AcDbEntity
  8
部品1
 48
50.0
100
AcDbLine
 10
8586.673057123638
 20
7778.451150420369
 30
0.0
 11
8586.673057123638
 21
7787.45115042037
 31
0.0
  0
LINE
  5
16D13
330
747D
100
AcDbEntity
  8
部品1
 48
50.0
100
AcDbLine
 10
8586.673057123638
 20
7817.451150420369
 30
0.0
 11
8586.673057123638
 21
7808.451150420369
 31
0.0
  0
LINE
  5
16D14
330
747D
100
AcDbEntity
  8
部品1
100
AcDbLine
 10
8586.673057123638
 20
7778.451150420369
 30
0.0
 11
8634.67305712364
 21
7778.451150420369
 31
0.0
  0
LINE
  5
16D15
330
747D
100
AcDbEntity
  8
部品1
100
AcDbLine
 10
8586.673057123638
 20
7817.451150420369
 30
0.0
 11
8634.67305712364
 21
7817.451150420369
 31
0.0
  0
LINE
  5
16D16
330
747D
100
AcDbEntity
  8
部品1
 48
50.0
100
AcDbLine
 10
8624.673057123638
 20
7778.451150420369
 30
0.0
 11
8634.67305712364
 21
7757.45115042037
 31
0.0
  0
LINE
  5
16D17
330
747D
100
AcDbEntity
  8
部品1
 48
50.0
100
AcDbLine
 10
3484.673057123644
 20
9067.451150420342
 30
0.0
 11
6004.67305712366
 21
9067.451150420344
 31
0.0
  0
LINE
  5
16D18
330
747D
100
AcDbEntity
  8
部品1
 48
50.0
100
AcDbLine
 10
3484.673057123644
 20
8647.451150420343
 30
0.0
 11
6004.67305712366
 21
8647.451150420343
 31
0.0
  0
LINE
  5
16D19
330
747D
100
AcDbEntity
  8
部品1
 48
50.0
100
AcDbLine
 10
3484.673057123644
 20
8227.451150420341
 30
0.0
 11
6004.67305712366
 21
8227.451150420344
 31
0.0
  0
LINE
  5
16D1A
330
747D
100
AcDbEntity
  8
部品1
 48
50.0
100
AcDbLine
 10
6114.673057123665
 20
8227.451150420353
 30
0.0
 11
8634.673057123681
 21
8227.451150420355
 31
0.0
  0
LINE
  5
16D1B
330
747D
100
AcDbEntity
  8
部品1
 48
50.0
100
AcDbLine
 10
6114.673057123665
 20
8647.451150420353
 30
0.0
 11
8634.673057123681
 21
8647.451150420355
 31
0.0
  0
LINE
  5
16D1C
330
747D
100
AcDbEntity
  8
部品1
 48
50.0
100
AcDbLine
 10
6114.673057123665
 20
9067.451150420353
 30
0.0
 11
8634.673057123681
 21
9067.451150420355
 31
0.0
  0
TEXT
  5
16FF9
330
747D
100
AcDbEntity
  8
文字
 62
     7
 48
50.0
100
AcDbText
 10
13583.11819016569
 20
8550.013745883733
 30
0.0
 40
100.0
  1
床パネル
 41
0.9
  7
STYLE1
100
AcDbText
  0
TEXT
  5
16FFA
330
747D
100
AcDbEntity
  8
文字
 62
     7
 48
50.0
100
AcDbText
 10
15022.63965474516
 20
8550.013745883727
 30
0.0
 40
100.0
  1
F12            1.0
  7
STYLE1
100
AcDbText
  0
TEXT
  5
16FFB
330
747D
100
AcDbEntity
  8
文字
 62
     7
 48
50.0
100
AcDbText
 10
13248.77747366448
 20
8550.013745883729
 30
0.0
 40
100.0
  1
15
  7
STYLE1
100
AcDbText
  0
LINE
  5
16FFC
330
747D
100
AcDbEntity
  8
仕様書枠
 48
50.0
100
AcDbLine
 10
16307.19999999999
 20
8519.600000000002
 30
0.0
 11
13127.19999999999
 21
8519.600000000002
 31
0.0
  0
LINE
  5
16FFD
330
747D
100
AcDbEntity
  8
仕様書枠
 48
50.0
100
AcDbLine
 10
16307.19999999999
 20
9879.599999999999
 30
0.0
 11
13127.19999999999
 21
9879.600000000001
 31
0.0
  0
LINE
  5
16FFE
330
747D
100
AcDbEntity
  8
仕様書枠
 48
50.0
100
AcDbLine
 10
16307.19999999999
 20
11239.6
 30
0.0
 11
13127.2
 21
11239.6
 31
0.0
  0
LINE
  5
16FFF
330
747D
100
AcDbEntity
  8
仕様書枠
 48
50.0
100
AcDbLine
 10
16307.19999999999
 20
7839.600000000006
 30
0.0
 11
16307.2
 21
11239.6
 31
0.0
  0
LINE
  5
17000
330
747D
100
AcDbEntity
  8
仕様書枠
 48
50.0
100
AcDbLine
 10
14785.2
 20
11239.59999999999
 30
0.0
 11
14785.2
 21
8349.600000000007
 31
0.0
  0
LINE
  5
17001
330
747D
100
AcDbEntity
  8
仕様書枠
 48
50.0
100
AcDbLine
 10
13490.2
 20
11239.6
 30
0.0
 11
13490.20000000001
 21
8349.600000000007
 31
0.0
  0
LINE
  5
17002
330
747D
100
AcDbEntity
  8
仕様書枠
 48
50.0
100
AcDbLine
 10
16307.19999999999
 20
11069.6
 30
0.0
 11
13127.2
 21
11069.6
 31
0.0
  0
LINE
  5
17003
330
747D
100
AcDbEntity
  8
仕様書枠
 48
50.0
100
AcDbLine
 10
16307.19999999999
 20
10729.6
 30
0.0
 11
13127.2
 21
10729.6
 31
0.0
  0
LINE
  5
17004
330
747D
100
AcDbEntity
  8
仕様書枠
 48
50.0
100
AcDbLine
 10
16307.19999999999
 20
10899.6
 30
0.0
 11
13127.2
 21
10899.6
 31
0.0
  0
LINE
  5
17005
330
747D
100
AcDbEntity
  8
仕様書枠
 48
50.0
100
AcDbLine
 10
16307.19999999999
 20
10389.6
 30
0.0
 11
13127.19999999999
 21
10389.6
 31
0.0
  0
LINE
  5
17006
330
747D
100
AcDbEntity
  8
仕様書枠
 48
50.0
100
AcDbLine
 10
16307.19999999999
 20
10219.6
 30
0.0
 11
13127.19999999999
 21
10219.6
 31
0.0
  0
LINE
  5
17007
330
747D
100
AcDbEntity
  8
仕様書枠
 48
50.0
100
AcDbLine
 10
16307.19999999999
 20
10559.6
 30
0.0
 11
13127.19999999999
 21
10559.6
 31
0.0
  0
TEXT
  5
17008
330
747D
100
AcDbEntity
  8
文字
 62
     7
 48
50.0
100
AcDbText
 10
13197.42518560407
 20
11100.01374588373
 30
0.0
 40
100.0
  1
品番
  7
STYLE1
100
AcDbText
  0
TEXT
  5
17009
330
747D
100
AcDbEntity
  8
文字
 62
     7
 48
50.0
100
AcDbText
 10
13271.19032244792
 20
10930.01374588373
 30
0.0
 40
100.0
  1
1
  7
STYLE1
100
AcDbText
  0
TEXT
  5
1700A
330
747D
100
AcDbEntity
  8
文字
 62
     7
 48
50.0
100
AcDbText
 10
13271.19032244792
 20
10760.01374588373
 30
0.0
 40
100.0
  1
2
  7
STYLE1
100
AcDbText
  0
TEXT
  5
1700B
330
747D
100
AcDbEntity
  8
文字
 62
     7
 48
50.0
100
AcDbText
 10
13271.19032244792
 20
10420.01374588373
 30
0.0
 40
100.0
  1
4
  7
STYLE1
100
AcDbText
  0
TEXT
  5
1700C
330
747D
100
AcDbEntity
  8
文字
 62
     7
 48
50.0
100
AcDbText
 10
13271.19032244792
 20
10590.01374588373
 30
0.0
 40
100.0
  1
3
  7
STYLE1
100
AcDbText
  0
TEXT
  5
1700D
330
747D
100
AcDbEntity
  8
文字
 62
     7
 48
50.0
100
AcDbText
 10
13732.03840939434
 20
11100.01374588373
 30
0.0
 40
100.0
  1
部　　品　　名
  7
STYLE1
100
AcDbText
  0
TEXT
  5
1700E
330
747D
100
AcDbEntity
  8
文字
 62
     7
 48
50.0
100
AcDbText
 10
14859.79774614482
 20
11100.01374588373
 30
0.0
 40
100.0
  1
材料（材質）　　単位mm
  7
STYLE1
100
AcDbText
  0
TEXT
  5
1700F
330
747D
100
AcDbEntity
  8
文字
 62
     7
 48
50.0
100
AcDbText
 10
13583.11819016569
 20
10930.01374588372
 30
0.0
 40
100.0
  1
土台枠
  7
STYLE1
100
AcDbText
  0
TEXT
  5
17010
330
747D
100
AcDbEntity
  8
文字
 62
     7
 48
50.0
100
AcDbText
 10
13583.11819016569
 20
10760.01374588372
 30
0.0
 40
100.0
  1
柱
  7
STYLE1
100
AcDbText
  0
TEXT
  5
17011
330
747D
100
AcDbEntity
  8
文字
 62
     7
 48
50.0
100
AcDbText
 10
13583.11819016569
 20
10590.01374588373
 30
0.0
 40
100.0
  1
桁前
  7
STYLE1
100
AcDbText
  0
TEXT
  5
17012
330
747D
100
AcDbEntity
  8
文字
 62
     7
 48
50.0
100
AcDbText
 10
13583.11819016569
 20
10420.01374588373
 30
0.0
 40
100.0
  1
桁後
  7
STYLE1
100
AcDbText
  0
TEXT
  5
17013
330
747D
100
AcDbEntity
  8
文字
 62
     7
 48
50.0
100
AcDbText
 10
13271.19032244792
 20
10250.01374588373
 30
0.0
 40
100.0
  1
5
  7
STYLE1
100
AcDbText
  0
TEXT
  5
17014
330
747D
100
AcDbEntity
  8
文字
 62
     7
 48
50.0
100
AcDbText
 10
13583.11819016569
 20
10250.01374588373
 30
0.0
 40
100.0
  1
妻板左右
  7
STYLE1
100
AcDbText
  0
TEXT
  5
17015
330
747D
100
AcDbEntity
  8
文字
 62
     7
 48
50.0
100
AcDbText
 10
13583.11819016569
 20
8890.013745883729
 30
0.0
 40
100.0
  1
シャッターレール
  7
STYLE1
100
AcDbText
  0
TEXT
  5
17016
330
747D
100
AcDbEntity
  8
文字
 62
     7
 48
50.0
100
AcDbText
 10
13248.77747366448
 20
9400.013745883727
 30
0.0
 40
100.0
  1
10
  7
STYLE1
100
AcDbText
  0
TEXT
  5
17017
330
747D
100
AcDbEntity
  8
文字
 62
     7
 48
50.0
100
AcDbText
 10
13583.11819016569
 20
9400.013745883731
 30
0.0
 40
100.0
  1
壁パネル
  7
STYLE1
100
AcDbText
  0
TEXT
  5
17018
330
747D
100
AcDbEntity
  8
文字
 62
     7
 48
50.0
100
AcDbText
 10
13583.11819016569
 20
9570.013745883729
 30
0.0
 40
100.0
  1
屋根パネル
  7
STYLE1
100
AcDbText
  0
TEXT
  5
17019
330
747D
100
AcDbEntity
  8
文字
 62
     7
 48
50.0
100
AcDbText
 10
13583.11819016569
 20
9740.013745883729
 30
0.0
 40
100.0
  1
母屋中
  7
STYLE1
100
AcDbText
  0
TEXT
  5
1701A
330
747D
100
AcDbEntity
  8
文字
 62
     7
 48
50.0
100
AcDbText
 10
13583.11819016569
 20
10080.01374588372
 30
0.0
 40
100.0
  1
鼻隠シ前後
  7
STYLE1
100
AcDbText
  0
TEXT
  5
1701B
330
747D
100
AcDbEntity
  8
文字
 62
     7
 48
50.0
100
AcDbText
 10
13271.19032244792
 20
9740.013745883729
 30
0.0
 40
100.0
  1
8
  7
STYLE1
100
AcDbText
  0
TEXT
  5
1701C
330
747D
100
AcDbEntity
  8
文字
 62
     7
 48
50.0
100
AcDbText
 10
13271.19032244792
 20
9570.013745883729
 30
0.0
 40
100.0
  1
9
  7
STYLE1
100
AcDbText
  0
TEXT
  5
1701D
330
747D
100
AcDbEntity
  8
文字
 62
     7
 48
50.0
100
AcDbText
 10
13271.19032244792
 20
9910.01374588373
 30
0.0
 40
100.0
  1
7
  7
STYLE1
100
AcDbText
  0
TEXT
  5
1701E
330
747D
100
AcDbEntity
  8
文字
 62
     7
 48
50.0
100
AcDbText
 10
13271.19032244792
 20
10080.01374588373
 30
0.0
 40
100.0
  1
6
  7
STYLE1
100
AcDbText
  0
LINE
  5
1701F
330
747D
100
AcDbEntity
  8
仕様書枠
 48
50.0
100
AcDbLine
 10
16307.19999999999
 20
9539.599999999998
 30
0.0
 11
13127.19999999999
 21
9539.6
 31
0.0
  0
LINE
  5
17020
330
747D
100
AcDbEntity
  8
仕様書枠
 48
50.0
100
AcDbLine
 10
16307.19999999999
 20
9199.599999999998
 30
0.0
 11
13127.19999999999
 21
9199.600000000001
 31
0.0
  0
LINE
  5
17021
330
747D
100
AcDbEntity
  8
仕様書枠
 48
50.0
100
AcDbLine
 10
16307.19999999999
 20
9369.599999999998
 30
0.0
 11
13127.19999999999
 21
9369.600000000001
 31
0.0
  0
LINE
  5
17022
330
747D
100
AcDbEntity
  8
仕様書枠
 48
50.0
100
AcDbLine
 10
16307.19999999999
 20
10049.6
 30
0.0
 11
13127.2
 21
10049.6
 31
0.0
  0
LINE
  5
17023
330
747D
100
AcDbEntity
  8
仕様書枠
 48
50.0
100
AcDbLine
 10
16307.19999999999
 20
9709.6
 30
0.0
 11
13127.19999999999
 21
9709.600000000001
 31
0.0
  0
TEXT
  5
17024
330
747D
100
AcDbEntity
  8
文字
 62
     7
 48
50.0
100
AcDbText
 10
13248.77747366448
 20
9230.013745883727
 30
0.0
 40
100.0
  1
11
  7
STYLE1
100
AcDbText
  0
TEXT
  5
17025
330
747D
100
AcDbEntity
  8
文字
 62
     7
 48
50.0
100
AcDbText
 10
13583.11819016569
 20
9060.013745883729
 30
0.0
 40
100.0
  1
シャッターカバー
 41
0.9
  7
STYLE1
100
AcDbText
  0
LINE
  5
17026
330
747D
100
AcDbEntity
  8
仕様書枠
 48
50.0
100
AcDbLine
 10
16307.19999999999
 20
9029.6
 30
0.0
 11
13127.19999999999
 21
9029.6
 31
0.0
  0
LINE
  5
17027
330
747D
100
AcDbEntity
  8
仕様書枠
 48
50.0
100
AcDbLine
 10
16307.19999999999
 20
8349.600000000004
 30
0.0
 11
13127.19999999999
 21
8349.600000000007
 31
0.0
  0
TEXT
  5
17028
330
747D
100
AcDbEntity
  8
文字
 62
     7
 48
50.0
100
AcDbText
 10
13583.11819016568
 20
9230.013745883731
 30
0.0
 40
100.0
  1
シャッター
  7
STYLE1
100
AcDbText
  0
TEXT
  5
17029
330
747D
100
AcDbEntity
  8
文字
 62
     7
 48
50.0
100
AcDbText
 10
13248.77747366448
 20
8890.013745883729
 30
0.0
 40
100.0
  1
13
  7
STYLE1
100
AcDbText
  0
TEXT
  5
1702A
330
747D
100
AcDbEntity
  8
文字
 62
     7
 48
50.0
100
AcDbText
 10
13248.77747366448
 20
9060.013745883729
 30
0.0
 40
100.0
  1
12
  7
STYLE1
100
AcDbText
  0
TEXT
  5
1702B
330
747D
100
AcDbEntity
  8
文字
 62
     7
 48
50.0
100
AcDbText
 10
15022.63965474517
 20
10930.01374588372
 30
0.0
 40
100.0
  1
F12            1.2
  7
STYLE1
100
AcDbText
  0
TEXT
  5
1702C
330
747D
100
AcDbEntity
  8
文字
 62
     7
 48
50.0
100
AcDbText
 10
15022.63965474517
 20
10760.01374588372
 30
0.0
 40
100.0
  1
F12         1.0,1.2
  7
STYLE1
100
AcDbText
  0
TEXT
  5
1702D
330
747D
100
AcDbEntity
  8
文字
 62
     7
 48
50.0
100
AcDbText
 10
15022.63965474516
 20
10590.01374588372
 30
0.0
 40
100.0
  1
Y10            1.0
  7
STYLE1
100
AcDbText
  0
TEXT
  5
1702E
330
747D
100
AcDbEntity
  8
文字
 62
     7
 48
50.0
100
AcDbText
 10
15022.63965474516
 20
10420.01374588372
 30
0.0
 40
100.0
  1
Y10            1.0
  7
STYLE1
100
AcDbText
  0
TEXT
  5
1702F
330
747D
100
AcDbEntity
  8
文字
 62
     7
 48
50.0
100
AcDbText
 10
15022.63965474516
 20
10250.01374588372
 30
0.0
 40
100.0
  1
Y10            0.7
  7
STYLE1
100
AcDbText
  0
TEXT
  5
17030
330
747D
100
AcDbEntity
  8
文字
 62
     7
 48
50.0
100
AcDbText
 10
15022.63965474516
 20
10080.01374588372
 30
0.0
 40
100.0
  1
Y10            0.7
  7
STYLE1
100
AcDbText
  0
TEXT
  5
17031
330
747D
100
AcDbEntity
  8
文字
 62
     7
 48
50.0
100
AcDbText
 10
15022.63965474516
 20
9570.013745883727
 30
0.0
 40
100.0
  1
Y10            0.5
  7
STYLE1
100
AcDbText
  0
TEXT
  5
17032
330
747D
100
AcDbEntity
  8
文字
 62
     7
 48
50.0
100
AcDbText
 10
15022.63965474516
 20
9400.013745883727
 30
0.0
 40
100.0
  1
F12            0.7
  7
STYLE1
100
AcDbText
  0
TEXT
  5
17033
330
747D
100
AcDbEntity
  8
文字
 62
     7
 48
50.0
100
AcDbText
 10
14850.83183167176
 20
8890.013745883727
 30
0.0
 40
100.0
  1
アルミニウム合金押出形材
  7
STYLE1
100
AcDbText
  0
TEXT
  5
17035
330
747D
100
AcDbEntity
  8
文字
 62
     7
 48
50.0
100
AcDbText
 10
15022.63965474515
 20
9230.013745883727
 30
0.0
 40
100.0
  1
Z08            0.5
  7
STYLE1
100
AcDbText
  0
LINE
  5
17036
330
747D
100
AcDbEntity
  8
仕様書枠
 48
50.0
100
AcDbLine
 10
16307.19999999998
 20
8179.600000000005
 30
0.0
 11
13127.19999999999
 21
8179.600000000007
 31
0.0
  0
LINE
  5
17037
330
747D
100
AcDbEntity
  8
仕様書枠
 48
50.0
100
AcDbLine
 10
16307.19999999998
 20
8009.600000000006
 30
0.0
 11
13127.19999999999
 21
8009.600000000007
 31
0.0
  0
LINE
  5
17038
330
747D
100
AcDbEntity
  8
仕様書枠
 48
50.0
100
AcDbLine
 10
16307.19999999998
 20
7839.600000000006
 30
0.0
 11
13127.19999999999
 21
7839.600000000007
 31
0.0
  0
TEXT
  5
17039
330
747D
100
AcDbEntity
  8
文字
 62
     7
 48
50.0
100
AcDbText
 10
13229.83081656554
 20
8210.013745883735
 30
0.0
 40
100.0
  1
F12→溶融亜鉛めっき鋼板(JIS G 3302)
  7
STYLE1
100
AcDbText
  0
TEXT
  5
1703A
330
747D
100
AcDbEntity
  8
文字
 62
     7
 48
50.0
100
AcDbText
 10
13229.83081656554
 20
8040.013745883735
 30
0.0
 40
100.0
  1
Y10→溶融亜鉛-5％アルミニウム合金めっき鋼板(JIS G 3317)
 41
0.9
  7
STYLE1
100
AcDbText
  0
TEXT
  5
1703B
330
747D
100
AcDbEntity
  8
文字
 62
     7
 48
50.0
100
AcDbText
 10
13229.83081656554
 20
7870.013745883736
 30
0.0
 40
100.0
  1
Z08→塗装溶融亜鉛めっき鋼板(JIS G 3313)
  7
STYLE1
100
AcDbText
  0
LINE
  5
1703C
330
747D
100
AcDbEntity
  8
仕様書枠
 48
50.0
100
AcDbLine
 10
13127.2
 20
11239.6
 30
0.0
 11
13127.19999999999
 21
7839.600000000007
 31
0.0
  0
LINE
  5
1703E
330
747D
100
AcDbEntity
  8
仕様書枠
 48
50.0
100
AcDbLine
 10
16307.19999999999
 20
8689.6
 30
0.0
 11
13127.19999999999
 21
8689.600000000003
 31
0.0
  0
LINE
  5
1703F
330
747D
100
AcDbEntity
  8
仕様書枠
 48
50.0
100
AcDbLine
 10
16307.19999999999
 20
8859.6
 30
0.0
 11
13127.19999999999
 21
8859.600000000002
 31
0.0
  0
TEXT
  5
17040
330
747D
100
AcDbEntity
  8
文字
 62
     7
 48
50.0
100
AcDbText
 10
13583.11819016569
 20
8380.013745883731
 30
0.0
 40
100.0
  1
棚板
 41
0.9
  7
STYLE1
100
AcDbText
  0
TEXT
  5
17041
330
747D
100
AcDbEntity
  8
文字
 62
     7
 48
50.0
100
AcDbText
 10
13583.11819016569
 20
8720.013745883731
 30
0.0
 40
100.0
  1
根太
  7
STYLE1
100
AcDbText
  0
TEXT
  5
17042
330
747D
100
AcDbEntity
  8
文字
 62
     7
 48
50.0
100
AcDbText
 10
13248.77747366448
 20
8720.013745883729
 30
0.0
 40
100.0
  1
14
  7
STYLE1
100
AcDbText
  0
TEXT
  5
17043
330
747D
100
AcDbEntity
  8
文字
 62
     7
 48
50.0
100
AcDbText
 10
13248.77747366448
 20
8380.013745883731
 30
0.0
 40
100.0
  1
16
  7
STYLE1
100
AcDbText
  0
TEXT
  5
17044
330
747D
100
AcDbEntity
  8
文字
 62
     7
 48
50.0
100
AcDbText
 10
15022.63965474516
 20
8720.013745883727
 30
0.0
 40
100.0
  1
F12            1.2
  7
STYLE1
100
AcDbText
  0
TEXT
  5
17045
330
747D
100
AcDbEntity
  8
文字
 62
     7
 48
50.0
100
AcDbText
 10
15022.63965474516
 20
8380.013745883728
 30
0.0
 40
100.0
  1
F12            0.6
  7
STYLE1
100
AcDbText
  0
TEXT
  5
17046
330
747D
100
AcDbEntity
  8
文字
 62
     7
 48
50.0
100
AcDbText
 10
13583.11819016569
 20
9910.01374588373
 30
0.0
 40
100.0
  1
梁中
  7
STYLE1
100
AcDbText
  0
TEXT
  5
17047
330
747D
100
AcDbEntity
  8
文字
 62
     7
 48
50.0
100
AcDbText
 10
15022.63965474516
 20
9910.013745883727
 30
0.0
 40
100.0
  1
F12,Y10        1.0
  7
STYLE1
100
AcDbText
  0
LINE
  5
174E7
330
747D
100
AcDbEntity
  8
Ｇ．Ｌ
100
AcDbLine
 10
2214.481344141074
 20
2751.810184557999
 30
0.0
 11
13978.86843523472
 21
2751.810184557999
 31
0.0
  0
LWPOLYLINE
  5
175AD
330
747D
100
AcDbEntity
  8
部品1
100
AcDbPolyline
 90
        4
 70
     1
 43
0.0
 10
5677.937724009436
 20
6600.996388134433
 10
5677.937724009436
 20
6361.104066588901
 10
6441.408390237878
 20
6361.104066588901
 10
6441.408390237878
 20
6600.996388134433
  0
TEXT
  5
175AE
330
747D
100
AcDbEntity
  8
部品1
100
AcDbText
 10
5767.857333838474
 20
6408.10285891591
 30
0.0
 40
135.0
  1
平面図
  7
STYLE2
100
AcDbText
  0
TEXT
  5
175AF
330
747D
100
AcDbEntity
  8
部品1
100
AcDbText
 10
5768.463127747376
 20
1908.916655339483
 30
0.0
 40
135.0
  1
正面図
  7
STYLE2
100
AcDbText
  0
LWPOLYLINE
  5
175B0
330
747D
100
AcDbEntity
  8
部品1
100
AcDbPolyline
 90
        4
 70
     1
 43
0.0
 10
5677.93772400942
 20
2101.810184558006
 10
5677.93772400942
 20
1861.917863012473
 10
6441.408390237862
 20
1861.917863012473
 10
6441.408390237862
 20
2101.810184558006
  0
LINE
  5
175F3
330
747D
100
AcDbEntity
  8
破線
 48
5.0
100
AcDbLine
 10
10999.56946577019
 20
2501.810184557999
 30
0.0
 11
11054.56946577018
 21
2501.810184557999
 31
0.0
  0
LINE
  5
175F4
330
747D
100
AcDbEntity
  8
破線
 48
5.0
100
AcDbLine
 10
11054.56946577018
 20
2751.810184557999
 30
0.0
 11
11054.56946577018
 21
2501.810184557999
 31
0.0
  0
LINE
  5
175F5
330
747D
100
AcDbEntity
  8
破線
 48
5.0
100
AcDbLine
 10
10999.56946577019
 20
2751.810184557999
 30
0.0
 11
10999.56946577019
 21
2501.810184557999
 31
0.0
  0
DIMENSION
  5
175F7
330
747D
100
AcDbEntity
  8
寸法
100
AcDbDimension
  2
*D23
 10
10155.81933658693
 20
2901.810184557997
 30
0.0
 11
10055.8075255633
 21
3946.810184558
 31
0.0
 70
    32
 71
     5
 42
2090.000000000002
  3
INABA_S40G
100
AcDbAlignedDimension
 13
10999.56946577019
 23
4991.810184557999
 33
0.0
 14
10999.56946577019
 24
2901.810184557997
 34
0.0
 50
90.0
100
AcDbRotatedDimension
1001
ACAD
1000
DSTYLE
1002
{
1070
   174
1070
     0
1070
   272
1070
     1
1070
   288
1070
     0
1070
   341
1005
0
1002
}
  0
DIMENSION
  5
175F8
330
747D
100
AcDbEntity
  8
寸法
100
AcDbDimension
  2
*D24
 10
9855.819336586929
 20
5226.810184558003
 30
0.0
 11
9755.807525563305
 21
4039.310184558002
 31
0.0
 70
    32
 71
     5
 42
2375.000000000006
  3
INABA_S40G
100
AcDbAlignedDimension
 13
10999.56946577019
 23
2851.810184557997
 33
0.0
 14
10939.56946577019
 24
5226.810184558002
 34
0.0
 50
90.0
100
AcDbRotatedDimension
1001
ACAD
1000
DSTYLE
1002
{
1070
   174
1070
     0
1070
   272
1070
     1
1070
   288
1070
     0
1070
   341
1005
0
1002
}
  0
DIMENSION
  5
175F9
330
747D
100
AcDbEntity
  8
寸法
100
AcDbDimension
  2
*D25
 10
13914.49662374232
 20
5171.810184557998
 30
0.0
 11
13814.48481271869
 21
4011.810184558
 31
0.0
 70
    32
 71
     5
 42
2320.0
  3
INABA_S40G
100
AcDbAlignedDimension
 13
13209.56946577019
 23
2851.810184557999
 33
0.0
 14
13289.56946577019
 24
5171.810184557998
 34
0.0
 50
90.0
100
AcDbRotatedDimension
1001
ACAD
1000
DSTYLE
1002
{
1070
   174
1070
     0
1070
   272
1070
     1
1070
   288
1070
     0
1070
   341
1005
0
1002
}
  0
LINE
  5
175FA
330
747D
100
AcDbEntity
  8
部品1
100
AcDbLine
 10
11929.11445212715
 20
5358.560666857972
 30
0.0
 11
12254.56946577019
 21
5341.042607899112
 31
0.0
  0
ARC
  5
175FB
330
747D
100
AcDbEntity
  8
部品1
100
AcDbCircle
 10
13275.19700158413
 20
5065.833941823792
 30
0.0
 40
0.7
100
AcDbArc
 50
275.0921697642102
 51
354.1866997666634
  0
ARC
  5
175FC
330
747D
100
AcDbEntity
  8
部品1
100
AcDbCircle
 10
13286.05634733345
 20
5142.877196641715
 30
0.0
 40
0.7
100
AcDbArc
 50
275.0921697642102
 51
354.1866997665596
  0
ARC
  5
175FD
330
747D
100
AcDbEntity
  8
部品1
100
AcDbCircle
 10
13286.38475257605
 20
5139.191799784625
 30
0.0
 40
3.0
100
AcDbArc
 50
95.0921697642102
 51
174.1866997665596
  0
ARC
  5
175FE
330
747D
100
AcDbEntity
  8
部品1
100
AcDbCircle
 10
13275.52540682673
 20
5062.148544966702
 30
0.0
 40
3.0
100
AcDbArc
 50
95.0921697642102
 51
174.1866997665596
  0
ARC
  5
175FF
330
747D
100
AcDbEntity
  8
部品1
 48
50.0
100
AcDbCircle
 10
13264.49727155162
 20
5052.557800362818
 30
0.0
 40
7.0
100
AcDbArc
 50
267.8377559869489
 51
354.1866997665596
  0
ARC
  5
17600
330
747D
100
AcDbEntity
  8
部品1
 48
50.0
100
AcDbCircle
 10
13281.81936801614
 20
5163.460347504991
 30
0.0
 40
7.0
100
AcDbArc
 50
354.1866997665596
 51
87.03587545283093
  0
LINE
  5
17601
330
747D
100
AcDbEntity
  8
部品1
 48
50.0
100
AcDbLine
 10
13272.54083515612
 20
5062.452406683604
 30
0.0
 11
13271.46127211638
 21
5051.848789690044
 31
0.0
  0
LINE
  5
17602
330
747D
100
AcDbEntity
  8
部品1
 48
50.0
100
AcDbLine
 10
13283.40018090544
 20
5139.495661501529
 30
0.0
 11
13275.8934016406
 21
5065.763040756515
 31
0.0
  0
LINE
  5
17603
330
747D
100
AcDbEntity
  8
部品1
 48
50.0
100
AcDbLine
 10
13288.78336858089
 20
5162.751336832219
 30
0.0
 11
13286.75274738992
 21
5142.806295574438
 31
0.0
  0
ARC
  5
17604
330
747D
100
AcDbEntity
  8
部品1
100
AcDbCircle
 10
10945.60655764155
 20
5105.624343516901
 30
0.0
 40
0.7
100
AcDbArc
 50
181.0932240292114
 51
260.1877540314855
  0
ARC
  5
17605
330
747D
100
AcDbEntity
  8
部品1
100
AcDbCircle
 10
10940.83388404394
 20
5198.490121717022
 30
0.0
 40
0.7
100
AcDbArc
 50
181.0932240292114
 51
260.1877540314855
  0
ARC
  5
17606
330
747D
100
AcDbEntity
  8
部品1
100
AcDbCircle
 10
10940.20332964092
 20
5194.844247179624
 30
0.0
 40
3.0
100
AcDbArc
 50
1.093224029315636
 51
80.18775403169765
  0
ARC
  5
17607
330
747D
100
AcDbEntity
  8
部品1
100
AcDbCircle
 10
10944.97600323853
 20
5101.978468979505
 30
0.0
 40
3.0
100
AcDbArc
 50
1.093224029315636
 51
80.18775403169765
  0
ARC
  5
17608
330
747D
100
AcDbEntity
  8
部品1
 48
50.0
100
AcDbCircle
 10
10955.17613561373
 20
5091.586225597024
 30
0.0
 40
7.0
100
AcDbArc
 50
181.0932240293156
 51
267.8377559869489
  0
ARC
  5
17609
330
747D
100
AcDbEntity
  8
部品1
 48
50.0
100
AcDbCircle
 10
10946.75247751164
 20
5218.537285130118
 30
0.0
 40
7.0
100
AcDbArc
 50
87.03587545283093
 51
181.0932240293156
  0
LINE
  5
1760A
330
747D
100
AcDbEntity
  8
部品1
 48
50.0
100
AcDbLine
 10
10947.97545716496
 20
5102.035706582689
 30
0.0
 11
10948.17740978539
 21
5091.452671189596
 31
0.0
  0
LINE
  5
1760B
330
747D
100
AcDbEntity
  8
細線
 48
50.0
100
AcDbLine
 10
10945.36936410829
 20
5104.965754701498
 30
0.0
 11
13275.37302853893
 21
5065.156435727004
 31
0.0
  0
LINE
  5
1760C
330
747D
100
AcDbEntity
  8
細線
 48
50.0
100
AcDbLine
 10
10940.608888871
 20
5197.827266399359
 30
0.0
 11
13286.24487361617
 21
5142.203061758533
 31
0.0
  0
LINE
  5
1760D
330
747D
100
AcDbEntity
  8
部品1
 48
50.0
100
AcDbLine
 10
10943.20278356735
 20
5194.901484782807
 30
0.0
 11
10944.90668505871
 21
5105.610988076161
 31
0.0
  0
LINE
  5
1760E
330
747D
100
AcDbEntity
  8
部品1
 48
50.0
100
AcDbLine
 10
10939.75375168329
 20
5218.403730722691
 30
0.0
 11
10940.1340114611
 21
5198.476766276279
 31
0.0
  0
LINE
  5
1760F
330
747D
100
AcDbEntity
  8
細線
 48
50.0
100
AcDbLine
 10
13256.56946577019
 20
5171.777163593294
 30
0.0
 11
13251.82178288219
 21
5046.031391102552
 31
0.0
  0
LINE
  5
17610
330
747D
100
AcDbEntity
  8
細線
 48
50.0
100
AcDbLine
 10
10972.56946577019
 20
5224.209860933402
 30
0.0
 11
10967.28036421468
 21
5084.124228306049
 31
0.0
  0
LINE
  5
17611
330
747D
100
AcDbEntity
  8
部品1
100
AcDbLine
 10
10954.91203037214
 20
5084.591209626966
 30
0.0
 11
13264.23316631004
 21
5045.562784392761
 31
0.0
  0
LINE
  5
17612
330
747D
100
AcDbEntity
  8
部品1
100
AcDbLine
 10
10947.11445212715
 20
5225.527919892265
 30
0.0
 11
13282.18134263166
 21
5170.450982267139
 31
0.0
  0
LINE
  5
17613
330
747D
100
AcDbEntity
  8
部品1
 48
50.0
100
AcDbLine
 10
11954.56946577019
 20
5357.242607899109
 30
0.0
 11
12254.56946577019
 21
5357.242607899109
 31
0.0
  0
LINE
  5
17614
330
747D
100
AcDbEntity
  8
部品1
 48
50.0
100
AcDbLine
 10
12254.56946577019
 20
5357.242607899109
 30
0.0
 11
12254.56946577019
 21
5341.042607899112
 31
0.0
  0
TEXT
  5
17615
330
747D
100
AcDbEntity
  8
部品1
 48
50.0
100
AcDbText
 10
11942.83730099391
 20
5393.126630051542
 30
0.0
 40
120.0
  1
1000
  7
STYLE1
100
AcDbText
  0
TEXT
  5
17616
330
747D
100
AcDbEntity
  8
部品1
 48
50.0
100
AcDbText
 10
12420.470323659
 20
5255.625371833259
 30
0.0
 40
120.0
  1
44
 50
90.0
  7
STYLE1
100
AcDbText
  0
LINE
  5
17617
330
747D
100
AcDbEntity
  8
細線
 48
50.0
100
AcDbLine
 10
12392.06946577019
 20
4991.810184557999
 30
0.0
 11
12392.06946577019
 21
2901.810184557999
 31
0.0
  0
LINE
  5
17618
330
747D
100
AcDbEntity
  8
細線
 48
50.0
100
AcDbLine
 10
12377.06946577019
 20
4991.810184557999
 30
0.0
 11
12377.06946577019
 21
2901.810184557999
 31
0.0
  0
LINE
  5
17619
330
747D
100
AcDbEntity
  8
細線
 48
50.0
100
AcDbLine
 10
12517.06946577019
 20
4991.810184557999
 30
0.0
 11
12517.06946577019
 21
2901.810184557999
 31
0.0
  0
LINE
  5
1761A
330
747D
100
AcDbEntity
  8
細線
 48
50.0
100
AcDbLine
 10
12532.06946577019
 20
4991.810184557999
 30
0.0
 11
12532.06946577019
 21
2901.810184557999
 31
0.0
  0
LINE
  5
1761B
330
747D
100
AcDbEntity
  8
細線
 48
50.0
100
AcDbLine
 10
12672.06946577019
 20
4991.810184557999
 30
0.0
 11
12672.06946577019
 21
2901.810184557999
 31
0.0
  0
LINE
  5
1761C
330
747D
100
AcDbEntity
  8
細線
 48
50.0
100
AcDbLine
 10
12657.06946577019
 20
4991.810184557999
 30
0.0
 11
12657.06946577019
 21
2901.810184557999
 31
0.0
  0
LINE
  5
1761D
330
747D
100
AcDbEntity
  8
部品1
100
AcDbLine
 10
12734.56946577019
 20
4991.810184557999
 30
0.0
 11
12734.56946577019
 21
2901.810184557999
 31
0.0
  0
LINE
  5
1761E
330
747D
100
AcDbEntity
  8
部品1
100
AcDbLine
 10
10999.56946577019
 20
4991.810184557999
 30
0.0
 11
13209.56946577019
 21
4991.810184557999
 31
0.0
  0
LINE
  5
1761F
330
747D
100
AcDbEntity
  8
部品1
100
AcDbLine
 10
11054.56946577018
 20
2901.810184557999
 30
0.0
 11
13209.56946577019
 21
2901.810184557999
 31
0.0
  0
LINE
  5
17620
330
747D
100
AcDbEntity
  8
部品1
100
AcDbLine
 10
11054.56946577018
 20
4991.810184557999
 30
0.0
 11
11054.56946577018
 21
2751.810184557999
 31
0.0
  0
LINE
  5
17621
330
747D
100
AcDbEntity
  8
部品1
100
AcDbLine
 10
10999.56946577019
 20
5083.836481602586
 30
0.0
 11
10999.56946577019
 21
2751.810184557999
 31
0.0
  0
DIMENSION
  5
17623
330
747D
100
AcDbEntity
  8
寸法
100
AcDbDimension
  2
*D26
 10
10155.81933658693
 20
2851.810184557999
 30
0.0
 11
10155.81933658693
 21
2545.762940463508
 31
0.0
 70
   160
 71
     5
 42
50.0
  3
INABA_S40G
100
AcDbAlignedDimension
 13
10999.56946577019
 23
2901.810184557999
 33
0.0
 14
10944.56946577019
 24
2851.810184557999
 34
0.0
 50
90.0
100
AcDbRotatedDimension
1001
ACAD
1000
DSTYLE
1002
{
1070
   174
1070
     0
1070
   272
1070
     1
1070
   288
1070
     0
1070
   341
1005
0
1002
}
  0
LINE
  5
17624
330
747D
100
AcDbEntity
  8
部品1
100
AcDbLine
 10
11474.56946577019
 20
4991.810184557999
 30
0.0
 11
11474.56946577019
 21
2901.810184557999
 31
0.0
  0
LINE
  5
17625
330
747D
100
AcDbEntity
  8
部品1
100
AcDbLine
 10
13209.56946577019
 20
5046.48662218922
 30
0.0
 11
13209.56946577019
 21
2751.810184557999
 31
0.0
  0
LINE
  5
17626
330
747D
100
AcDbEntity
  8
部品1
100
AcDbLine
 10
13154.56946577019
 20
4991.810184557999
 30
0.0
 11
13154.56946577019
 21
2901.810184557999
 31
0.0
  0
DIMENSION
  5
17627
330
747D
100
AcDbEntity
  8
寸法
 48
50.0
100
AcDbDimension
  2
*D27
 10
10999.56946577019
 20
5625.467638137303
 30
0.0
 11
12104.56946577018
 21
5625.467638137303
 31
0.0
 70
   160
  1
柱外寸法<>
 71
     5
 42
2210.0
  3
INABA_S40G
100
AcDbAlignedDimension
 13
13209.56946577019
 23
5173.620864169652
 33
0.0
 14
10999.56946577019
 24
5222.811802680976
 34
0.0
100
AcDbRotatedDimension
1001
ACAD
1000
DSTYLE
1002
{
1070
   174
1070
     0
1070
   272
1070
     1
1070
   288
1070
     0
1070
   341
1005
0
1002
}
  0
DIMENSION
  5
17628
330
747D
100
AcDbEntity
  8
寸法
 48
50.0
100
AcDbDimension
  2
*D28
 10
10939.56946577019
 20
5625.467638137303
 30
0.0
 11
10629.9316704946
 21
5625.467638137303
 31
0.0
 70
   160
 71
     5
 42
60.0
  3
INABA_S40G
100
AcDbAlignedDimension
 13
10999.56946577019
 23
5222.811802680976
 33
0.0
 14
10939.56946577019
 24
5226.810184558002
 34
0.0
100
AcDbRotatedDimension
1001
ACAD
1000
DSTYLE
1002
{
1070
   174
1070
     0
1070
   272
1070
     1
1070
   288
1070
     0
1070
   341
1005
0
1002
}
  0
DIMENSION
  5
17629
330
747D
100
AcDbEntity
  8
寸法
 48
50.0
100
AcDbDimension
  2
*D29
 10
10939.56946577019
 20
5844.669471811594
 30
0.0
 11
12114.56946577019
 21
5844.669471811594
 31
0.0
 70
   160
 71
     5
 42
2350.0
  3
INABA_S40G
100
AcDbAlignedDimension
 13
13289.56946577019
 23
5171.810184557998
 33
0.0
 14
10939.56946577019
 24
5226.810184558002
 34
0.0
100
AcDbRotatedDimension
1001
ACAD
1000
DSTYLE
1002
{
1070
   174
1070
     0
1070
   272
1070
     1
1070
   288
1070
     0
1070
   341
1005
0
1002
}
  0
LINE
  5
1762A
330
747D
100
AcDbEntity
  8
部品1
100
AcDbLine
 10
11054.56946577018
 20
2851.810184557999
 30
0.0
 11
13209.56946577019
 21
2851.810184557999
 31
0.0
  0
LINE
  5
1762B
330
747D
100
AcDbEntity
  8
細線
 48
50.0
100
AcDbLine
 10
11552.06946577019
 20
4991.810184557999
 30
0.0
 11
11552.06946577019
 21
2901.810184557999
 31
0.0
  0
LINE
  5
1762C
330
747D
100
AcDbEntity
  8
細線
 48
50.0
100
AcDbLine
 10
11537.06946577019
 20
4991.810184557999
 30
0.0
 11
11537.06946577019
 21
2901.810184557999
 31
0.0
  0
LINE
  5
1762D
330
747D
100
AcDbEntity
  8
細線
 48
50.0
100
AcDbLine
 10
11677.06946577019
 20
4991.810184557999
 30
0.0
 11
11677.06946577019
 21
2901.810184557999
 31
0.0
  0
LINE
  5
1762E
330
747D
100
AcDbEntity
  8
細線
 48
50.0
100
AcDbLine
 10
11692.06946577018
 20
4991.810184557999
 30
0.0
 11
11692.06946577018
 21
2901.810184557999
 31
0.0
  0
LINE
  5
1762F
330
747D
100
AcDbEntity
  8
細線
 48
50.0
100
AcDbLine
 10
11832.06946577018
 20
4991.810184557999
 30
0.0
 11
11832.06946577018
 21
2901.810184557999
 31
0.0
  0
LINE
  5
17630
330
747D
100
AcDbEntity
  8
細線
 48
50.0
100
AcDbLine
 10
11817.06946577019
 20
4991.810184557999
 30
0.0
 11
11817.06946577019
 21
2901.810184557999
 31
0.0
  0
LINE
  5
17631
330
747D
100
AcDbEntity
  8
細線
 48
50.0
100
AcDbLine
 10
11397.06946577019
 20
4991.810184557999
 30
0.0
 11
11397.06946577019
 21
2901.810184557999
 31
0.0
  0
LINE
  5
17632
330
747D
100
AcDbEntity
  8
細線
 48
50.0
100
AcDbLine
 10
11412.06946577019
 20
4991.810184557999
 30
0.0
 11
11412.06946577019
 21
2901.810184557999
 31
0.0
  0
LINE
  5
17633
330
747D
100
AcDbEntity
  8
細線
 48
50.0
100
AcDbLine
 10
11272.06946577019
 20
4991.810184557999
 30
0.0
 11
11272.06946577019
 21
2901.810184557999
 31
0.0
  0
LINE
  5
17634
330
747D
100
AcDbEntity
  8
細線
 48
50.0
100
AcDbLine
 10
11257.06946577019
 20
4991.810184557999
 30
0.0
 11
11257.06946577019
 21
2901.810184557999
 31
0.0
  0
LINE
  5
17635
330
747D
100
AcDbEntity
  8
細線
 48
50.0
100
AcDbLine
 10
11117.06946577019
 20
4991.810184557999
 30
0.0
 11
11117.06946577019
 21
2901.810184557999
 31
0.0
  0
LINE
  5
17636
330
747D
100
AcDbEntity
  8
細線
 48
50.0
100
AcDbLine
 10
11132.06946577019
 20
4991.810184557999
 30
0.0
 11
11132.06946577019
 21
2901.810184557999
 31
0.0
  0
DIMENSION
  5
17637
330
747D
100
AcDbEntity
  8
寸法
 48
50.0
100
AcDbDimension
  2
*D30
 10
13289.56946577019
 20
5625.467638137303
 30
0.0
 11
13495.61670986468
 21
5625.467638137303
 31
0.0
 70
   160
 71
     5
 42
80.0
  3
INABA_S40G
100
AcDbAlignedDimension
 13
13209.56946577019
 23
5173.620864169652
 33
0.0
 14
13289.56946577019
 24
5171.810184557998
 34
0.0
100
AcDbRotatedDimension
1001
ACAD
1000
DSTYLE
1002
{
1070
   174
1070
     0
1070
   272
1070
     1
1070
   288
1070
     0
1070
   341
1005
0
1002
}
  0
LINE
  5
17638
330
747D
100
AcDbEntity
  8
部品1
100
AcDbLine
 10
11894.56946577019
 20
4991.810184557999
 30
0.0
 11
11894.56946577019
 21
2901.810184557999
 31
0.0
  0
LINE
  5
17639
330
747D
100
AcDbEntity
  8
細線
 48
50.0
100
AcDbLine
 10
12237.06946577019
 20
4991.810184557999
 30
0.0
 11
12237.06946577019
 21
2901.810184557999
 31
0.0
  0
LINE
  5
1763A
330
747D
100
AcDbEntity
  8
細線
 48
50.0
100
AcDbLine
 10
12252.06946577019
 20
4991.810184557999
 30
0.0
 11
12252.06946577019
 21
2901.810184557999
 31
0.0
  0
LINE
  5
1763B
330
747D
100
AcDbEntity
  8
細線
 48
50.0
100
AcDbLine
 10
12112.06946577019
 20
4991.810184557999
 30
0.0
 11
12112.06946577019
 21
2901.810184557999
 31
0.0
  0
LINE
  5
1763C
330
747D
100
AcDbEntity
  8
細線
 48
50.0
100
AcDbLine
 10
12097.06946577019
 20
4991.810184557999
 30
0.0
 11
12097.06946577019
 21
2901.810184557999
 31
0.0
  0
LINE
  5
1763D
330
747D
100
AcDbEntity
  8
細線
 48
50.0
100
AcDbLine
 10
11957.06946577019
 20
4991.810184557999
 30
0.0
 11
11957.06946577019
 21
2901.810184557999
 31
0.0
  0
LINE
  5
1763E
330
747D
100
AcDbEntity
  8
細線
 48
50.0
100
AcDbLine
 10
11972.06946577019
 20
4991.810184557999
 30
0.0
 11
11972.06946577019
 21
2901.810184557999
 31
0.0
  0
LINE
  5
1763F
330
747D
100
AcDbEntity
  8
部品1
100
AcDbLine
 10
12314.56946577019
 20
4991.810184557999
 30
0.0
 11
12314.56946577019
 21
2901.810184557999
 31
0.0
  0
LINE
  5
17640
330
747D
100
AcDbEntity
  8
細線
 48
50.0
100
AcDbLine
 10
12812.0694657702
 20
4991.810184557999
 30
0.0
 11
12812.06946577019
 21
2901.810184557999
 31
0.0
  0
LINE
  5
17641
330
747D
100
AcDbEntity
  8
細線
 48
50.0
100
AcDbLine
 10
12797.0694657702
 20
4991.810184557999
 30
0.0
 11
12797.06946577019
 21
2901.810184557999
 31
0.0
  0
LINE
  5
17642
330
747D
100
AcDbEntity
  8
細線
 48
50.0
100
AcDbLine
 10
12937.0694657702
 20
4991.810184557999
 30
0.0
 11
12937.06946577019
 21
2901.810184557999
 31
0.0
  0
LINE
  5
17643
330
747D
100
AcDbEntity
  8
細線
 48
50.0
100
AcDbLine
 10
12952.0694657702
 20
4991.810184557999
 30
0.0
 11
12952.06946577019
 21
2901.810184557999
 31
0.0
  0
LINE
  5
17644
330
747D
100
AcDbEntity
  8
細線
 48
50.0
100
AcDbLine
 10
13092.0694657702
 20
4991.810184557999
 30
0.0
 11
13092.06946577019
 21
2901.810184557999
 31
0.0
  0
LINE
  5
17645
330
747D
100
AcDbEntity
  8
細線
 48
50.0
100
AcDbLine
 10
13077.0694657702
 20
4991.810184557999
 30
0.0
 11
13077.06946577019
 21
2901.810184557999
 31
0.0
  0
DIMENSION
  5
17646
330
747D
100
AcDbEntity
  8
寸法
 48
50.0
100
AcDbDimension
  2
*D31
 10
10378.96105900181
 20
5101.15544343133
 30
0.0
 11
10389.62653426074
 21
5472.002106673029
 31
0.0
 70
   161
 71
     5
 42
141.0
  3
INABA_S40G
100
AcDbAlignedDimension
 13
10958.96548592877
 23
5225.532933392678
 33
0.0
 14
10954.91203037214
 24
5084.591209626966
 34
0.0
1001
ACAD
1000
DSTYLE
1002
{
1070
   174
1070
     0
1070
   272
1070
     1
1070
   288
1070
     0
1070
   341
1005
0
1002
}
  0
LWPOLYLINE
  5
17647
330
747D
100
AcDbEntity
  8
部品1
100
AcDbPolyline
 90
        4
 70
     1
 43
0.0
 10
11722.83413265597
 20
2101.810184558006
 10
11722.83413265597
 20
1861.917863012473
 10
12486.3047988844
 20
1861.917863012473
 10
12486.3047988844
 20
2101.810184558006
  0
TEXT
  5
17648
330
747D
100
AcDbEntity
  8
部品1
100
AcDbText
 10
11812.28023407957
 20
1908.916655339482
 30
0.0
 40
135.0
  1
側面図
  7
STYLE2
100
AcDbText
  0
LINE
  5
186AD
330
747D
100
AcDbEntity
  8
部品1
 48
50.0
100
AcDbLine
 10
8732.264636017196
 20
5226.810184558002
 30
0.0
 11
6049.673057123627
 21
5226.810184558002
 31
0.0
  0
LINE
  5
186AE
330
747D
100
AcDbEntity
  8
部品1
 48
50.0
100
AcDbLine
 10
8719.049312556164
 20
5085.810184558003
 30
0.0
 11
6059.673057123628
 21
5085.810184558003
 31
0.0
  0
LINE
  5
186AF
330
747D
100
AcDbEntity
  8
細線
 48
50.0
100
AcDbLine
 10
8737.514406111714
 20
5198.783427121471
 30
0.0
 11
6049.673057123627
 21
5198.783427121471
 31
0.0
  0
LINE
  5
186B0
330
747D
100
AcDbEntity
  8
細線
 48
50.0
100
AcDbLine
 10
8729.27837558687
 20
5106.58342712147
 30
0.0
 11
6049.673057123627
 21
5106.58342712179
 31
0.0
  0
LINE
  5
186B1
330
747D
100
AcDbEntity
  8
部品1
100
AcDbLine
 10
8739.253396108296
 20
5219.413659162761
 30
0.0
 11
8738.11999877595
 21
5199.437531180163
 31
0.0
  0
LINE
  5
186B2
330
747D
100
AcDbEntity
  8
細線
 48
50.0
100
AcDbLine
 10
8706.673057123628
 20
5226.810184558002
 30
0.0
 11
8706.673057123628
 21
5085.810184558003
 31
0.0
  0
LINE
  5
186B3
330
747D
100
AcDbEntity
  8
部品1
100
AcDbLine
 10
8726.682978454373
 20
5103.780124013105
 30
0.0
 11
8726.038072647261
 21
5092.413659162765
 31
0.0
  0
LINE
  5
186B4
330
747D
100
AcDbEntity
  8
部品1
100
AcDbLine
 10
8734.919008979217
 20
5195.980124013106
 30
0.0
 11
8729.883968251106
 21
5107.237531180163
 31
0.0
  0
ARC
  5
186B5
330
747D
100
AcDbEntity
  8
部品1
 48
50.0
100
AcDbCircle
 10
8737.914191875402
 20
5195.810184558002
 30
0.0
 40
3.0
100
AcDbArc
 50
97.65812720736347
 51
176.7526572096623
  0
ARC
  5
186B6
330
747D
100
AcDbEntity
  8
部品1
 48
50.0
100
AcDbCircle
 10
8729.678161350559
 20
5103.610184558001
 30
0.0
 40
3.0
100
AcDbArc
 50
97.65812720736347
 51
176.7526572096623
  0
ARC
  5
186B7
330
747D
100
AcDbEntity
  8
部品1
 48
50.0
100
AcDbCircle
 10
8729.185092241998
 20
5107.277183719685
 30
0.0
 40
0.7
100
AcDbArc
 50
277.6581272073635
 51
356.7526572097143
  0
ARC
  5
186B8
330
747D
100
AcDbEntity
  8
部品1
 48
50.0
100
AcDbCircle
 10
8737.421122766843
 20
5199.47718371969
 30
0.0
 40
0.7
100
AcDbArc
 50
277.6581272073635
 51
356.7526572096103
  0
ARC
  5
186B9
330
747D
100
AcDbEntity
  8
部品1
100
AcDbCircle
 10
8719.049312556164
 20
5092.810184558002
 30
0.0
 40
7.0
100
AcDbArc
 50
270.0
 51
356.7526572096623
  0
ARC
  5
186BA
330
747D
100
AcDbEntity
  8
部品1
100
AcDbCircle
 10
8732.264636017196
 20
5219.810184558003
 30
0.0
 40
7.0
100
AcDbArc
 50
356.7526572096623
 51
90.0
  0
LINE
  5
186BB
330
747D
100
AcDbEntity
  8
部品1
100
AcDbLine
 10
6059.673057123625
 20
4991.810184557999
 30
0.0
 11
8689.673057123625
 21
4991.810184557999
 31
0.0
  0
LINE
  5
186BC
330
747D
100
AcDbEntity
  8
部品1
100
AcDbLine
 10
3429.67305712363
 20
4991.810184557999
 30
0.0
 11
6059.673057123628
 21
4991.810184557999
 31
0.0
  0
LINE
  5
186BD
330
747D
100
AcDbEntity
  8
部品1
100
AcDbLine
 10
3380.09271813896
 20
5219.413659162761
 30
0.0
 11
3381.226115471309
 21
5199.437531180163
 31
0.0
  0
LINE
  5
186BE
330
747D
100
AcDbEntity
  8
部品1
100
AcDbLine
 10
3392.663135792889
 20
5103.780124013105
 30
0.0
 11
3393.308041599997
 21
5092.413659162765
 31
0.0
  0
LINE
  5
186BF
330
747D
100
AcDbEntity
  8
部品1
100
AcDbLine
 10
3384.427105268038
 20
5195.980124013106
 30
0.0
 11
3389.462145996153
 21
5107.237531180163
 31
0.0
  0
ARC
  5
186C0
330
747D
100
AcDbEntity
  8
部品1
 48
50.0
100
AcDbCircle
 10
3381.431922371852
 20
5195.810184558002
 30
0.0
 40
3.0
100
AcDbArc
 50
3.247342790337682
 51
82.34187279263654
  0
ARC
  5
186C1
330
747D
100
AcDbEntity
  8
部品1
 48
50.0
100
AcDbCircle
 10
3389.667952896696
 20
5103.610184558001
 30
0.0
 40
3.0
100
AcDbArc
 50
3.247342790337682
 51
82.34187279263654
  0
ARC
  5
186C2
330
747D
100
AcDbEntity
  8
部品1
 48
50.0
100
AcDbCircle
 10
3390.161022005258
 20
5107.277183719685
 30
0.0
 40
0.7
100
AcDbArc
 50
183.2473427902856
 51
262.3418727926365
  0
ARC
  5
186C3
330
747D
100
AcDbEntity
  8
部品1
 48
50.0
100
AcDbCircle
 10
3381.924991480421
 20
5199.47718371969
 30
0.0
 40
0.7
100
AcDbArc
 50
183.2473427903897
 51
262.3418727926365
  0
ARC
  5
186C4
330
747D
100
AcDbEntity
  8
部品1
100
AcDbCircle
 10
3400.296801691093
 20
5092.810184558002
 30
0.0
 40
7.0
100
AcDbArc
 50
183.2473427903377
 51
270.0
  0
ARC
  5
186C5
330
747D
100
AcDbEntity
  8
部品1
100
AcDbCircle
 10
3387.081478230062
 20
5219.810184558003
 30
0.0
 40
7.0
100
AcDbArc
 50
90.0
 51
183.2473427903377
  0
LINE
  5
186C6
330
747D
100
AcDbEntity
  8
細線
 48
50.0
100
AcDbLine
 10
3412.67305712363
 20
5226.810184558002
 30
0.0
 11
3412.67305712363
 21
5085.810184558003
 31
0.0
  0
LINE
  5
186C7
330
747D
100
AcDbEntity
  8
細線
 48
50.0
100
AcDbLine
 10
6049.673057123627
 20
5106.583427121787
 30
0.0
 11
3390.067738660433
 21
5106.58342712179
 31
0.0
  0
LINE
  5
186C8
330
747D
100
AcDbEntity
  8
細線
 48
50.0
100
AcDbLine
 10
6049.673057123627
 20
5198.783427121471
 30
0.0
 11
3381.831708135589
 21
5198.78342712179
 31
0.0
  0
LINE
  5
186C9
330
747D
100
AcDbEntity
  8
部品1
 48
50.0
100
AcDbLine
 10
6059.673057123628
 20
5085.810184558003
 30
0.0
 11
3400.296801691093
 21
5085.810184558003
 31
0.0
  0
LINE
  5
186CA
330
747D
100
AcDbEntity
  8
部品1
 48
50.0
100
AcDbLine
 10
6049.673057123627
 20
5226.810184558002
 30
0.0
 11
3387.081478230062
 21
5226.810184558002
 31
0.0
  0
LINE
  5
186F7
330
747D
100
AcDbEntity
  8
部品1
 48
50.0
100
AcDbLine
 10
6049.673057123627
 20
5085.810184558003
 30
0.0
 11
6049.673057123626
 21
5226.810184558003
 31
0.0
  0
LINE
  5
186F8
330
747D
100
AcDbEntity
  8
部品1
 48
50.0
100
AcDbLine
 10
6059.673057123628
 20
4826.810184557999
 30
0.0
 11
6059.673057123628
 21
5085.810184558003
 31
0.0
  0
DIMENSION
  5
186F9
330
747D
100
AcDbEntity
  8
寸法
 48
50.0
100
AcDbDimension
  2
*D35
 10
3379.67305712363
 20
5625.903353897472
 30
0.0
 11
3066.187775749382
 21
5625.903353897472
 31
0.0
 70
   160
 71
     5
 42
50.0
  3
INABA_S40G
100
AcDbAlignedDimension
 13
3429.67305712363
 23
5226.810184558004
 33
0.0
 14
3379.67305712363
 24
5226.810184558003
 34
0.0
100
AcDbRotatedDimension
1001
ACAD
1000
DSTYLE
1002
{
1002
}
  0
DIMENSION
  5
186FA
330
747D
100
AcDbEntity
  8
寸法
 48
50.0
100
AcDbDimension
  2
*D34
 10
8739.67305712363
 20
5842.429453515917
 30
0.0
 11
6059.673057123628
 21
5842.429453515917
 31
0.0
 70
   160
 71
     5
 42
5360.0
  3
INABA_S40G
100
AcDbAlignedDimension
 13
3379.67305712363
 23
5226.810184558003
 33
0.0
 14
8739.67305712363
 24
5226.810184558001
 34
0.0
100
AcDbRotatedDimension
  0
DIMENSION
  5
186FB
330
747D
100
AcDbEntity
  8
寸法
 48
50.0
100
AcDbDimension
  2
*D33
 10
8689.673057123629
 20
5625.903353897472
 30
0.0
 11
9053.158338497865
 21
5625.903353897472
 31
0.0
 70
   160
 71
     5
 42
50.0
  3
INABA_S40G
100
AcDbAlignedDimension
 13
8739.67305712363
 23
5226.810184558001
 33
0.0
 14
8689.673057123629
 24
5226.810184558003
 34
0.0
100
AcDbRotatedDimension
  0
DIMENSION
  5
186FC
330
747D
100
AcDbEntity
  8
寸法
 48
50.0
100
AcDbDimension
  2
*D32
 10
3429.67305712363
 20
5625.903353897472
 30
0.0
 11
6059.673057123632
 21
5625.903353897472
 31
0.0
 70
   160
  1
柱外寸法<>
 71
     5
 42
5260.0
  3
INABA_S40G
100
AcDbAlignedDimension
 13
8689.673057123629
 23
5226.810184558003
 33
0.0
 14
3429.67305712363
 24
5226.810184558004
 34
0.0
100
AcDbRotatedDimension
  0
LINE
  5
186FD
330
747D
100
AcDbEntity
  8
部品1
100
AcDbLine
 10
3484.673057123629
 20
2851.810184557999
 30
0.0
 11
6004.673057123627
 21
2851.810184557999
 31
0.0
  0
LINE
  5
186FE
330
747D
100
AcDbEntity
  8
部品1
100
AcDbLine
 10
3429.673057123626
 20
5085.810184558003
 30
0.0
 11
3429.67305712363
 21
2751.810184557999
 31
0.0
  0
LINE
  5
186FF
330
747D
100
AcDbEntity
  8
部品1
100
AcDbLine
 10
8634.673057123627
 20
4826.810184557999
 30
0.0
 11
8634.673057123627
 21
2751.810184557999
 31
0.0
  0
LINE
  5
18700
330
747D
100
AcDbEntity
  8
部品1
100
AcDbLine
 10
3484.673057123629
 20
4826.810184557999
 30
0.0
 11
3484.673057123629
 21
2751.810184557999
 31
0.0
  0
LINE
  5
18701
330
747D
100
AcDbEntity
  8
部品1
100
AcDbLine
 10
8689.673057123627
 20
5085.810184558003
 30
0.0
 11
8689.673057123627
 21
2751.810184557999
 31
0.0
  0
LINE
  5
18708
330
747D
100
AcDbEntity
  8
破線
 48
5.0
100
AcDbLine
 10
8689.673057123627
 20
2751.810184557999
 30
0.0
 11
8689.673057123627
 21
2501.810184557999
 31
0.0
  0
LINE
  5
18709
330
747D
100
AcDbEntity
  8
破線
 48
5.0
100
AcDbLine
 10
3429.67305712363
 20
2751.810184557999
 30
0.0
 11
3429.673057123626
 21
2501.810184557999
 31
0.0
  0
LINE
  5
1870A
330
747D
100
AcDbEntity
  8
破線
 48
5.0
100
AcDbLine
 10
8634.673057123626
 20
2751.810184557999
 30
0.0
 11
8634.673057123627
 21
2501.810184557999
 31
0.0
  0
LINE
  5
1870B
330
747D
100
AcDbEntity
  8
破線
 48
5.0
100
AcDbLine
 10
3484.673057123629
 20
2751.810184557999
 30
0.0
 11
3484.673057123626
 21
2501.810184557999
 31
0.0
  0
LINE
  5
1870C
330
747D
100
AcDbEntity
  8
破線
 48
5.0
100
AcDbLine
 10
8689.673057123625
 20
2501.810184557999
 30
0.0
 11
8634.673057123627
 21
2501.810184557999
 31
0.0
  0
LINE
  5
1870D
330
747D
100
AcDbEntity
  8
破線
 48
5.0
100
AcDbLine
 10
3484.673057123626
 20
2501.810184558006
 30
0.0
 11
3429.673057123626
 21
2501.810184558006
 31
0.0
  0
LINE
  5
1870E
330
747D
100
AcDbEntity
  8
部品1
100
AcDbLine
 10
3532.67305712363
 20
4826.810184557999
 30
0.0
 11
3532.67305712363
 21
2901.810184557999
 31
0.0
  0
LINE
  5
1870F
330
747D
100
AcDbEntity
  8
部品1
100
AcDbLine
 10
8586.673057123629
 20
4826.810184558
 30
0.0
 11
8586.673057123624
 21
2901.810184557998
 31
0.0
  0
LINE
  5
18710
330
747D
100
AcDbEntity
  8
部品1
100
AcDbLine
 10
3429.673057123627
 20
4826.810184557999
 30
0.0
 11
6114.673057123627
 21
4826.810184557999
 31
0.0
  0
LINE
  5
18711
330
747D
100
AcDbEntity
  8
細線
100
AcDbLine
 10
6162.673057123624
 20
4536.810184557999
 30
0.0
 11
8586.673057123626
 21
4536.810184557999
 31
0.0
  0
LINE
  5
18712
330
747D
100
AcDbEntity
  8
細線
100
AcDbLine
 10
6162.673057123624
 20
4601.810184557998
 30
0.0
 11
8586.673057123626
 21
4601.810184557998
 31
0.0
  0
LINE
  5
18713
330
747D
100
AcDbEntity
  8
細線
100
AcDbLine
 10
6162.673057123624
 20
4666.810184557999
 30
0.0
 11
8586.673057123626
 21
4666.810184557999
 31
0.0
  0
LINE
  5
18714
330
747D
100
AcDbEntity
  8
細線
100
AcDbLine
 10
6162.673057123624
 20
4146.810184557998
 30
0.0
 11
8586.673057123626
 21
4146.810184557998
 31
0.0
  0
LINE
  5
18715
330
747D
100
AcDbEntity
  8
細線
100
AcDbLine
 10
6162.673057123624
 20
4211.810184557998
 30
0.0
 11
8586.673057123626
 21
4211.810184557998
 31
0.0
  0
LINE
  5
18716
330
747D
100
AcDbEntity
  8
細線
100
AcDbLine
 10
6162.673057123624
 20
4276.810184557998
 30
0.0
 11
8586.673057123626
 21
4276.810184557998
 31
0.0
  0
LINE
  5
18717
330
747D
100
AcDbEntity
  8
細線
100
AcDbLine
 10
6162.673057123624
 20
4341.810184557998
 30
0.0
 11
8586.673057123626
 21
4341.810184557998
 31
0.0
  0
LINE
  5
18718
330
747D
100
AcDbEntity
  8
細線
100
AcDbLine
 10
6162.673057123624
 20
4406.810184557999
 30
0.0
 11
8586.673057123626
 21
4406.810184557999
 31
0.0
  0
LINE
  5
18719
330
747D
100
AcDbEntity
  8
細線
100
AcDbLine
 10
6162.673057123624
 20
4471.810184557998
 30
0.0
 11
8586.673057123626
 21
4471.810184557998
 31
0.0
  0
LINE
  5
1871A
330
747D
100
AcDbEntity
  8
細線
100
AcDbLine
 10
6162.673057123624
 20
3496.810184557999
 30
0.0
 11
8586.673057123626
 21
3496.810184557999
 31
0.0
  0
LINE
  5
1871B
330
747D
100
AcDbEntity
  8
細線
100
AcDbLine
 10
6162.673057123624
 20
3561.810184557999
 30
0.0
 11
8586.673057123626
 21
3561.810184557999
 31
0.0
  0
LINE
  5
1871C
330
747D
100
AcDbEntity
  8
細線
100
AcDbLine
 10
6162.673057123624
 20
3626.810184557998
 30
0.0
 11
8586.673057123626
 21
3626.810184557998
 31
0.0
  0
LINE
  5
1871D
330
747D
100
AcDbEntity
  8
細線
100
AcDbLine
 10
6162.673057123624
 20
3691.810184557999
 30
0.0
 11
8586.673057123626
 21
3691.810184557999
 31
0.0
  0
LINE
  5
1871E
330
747D
100
AcDbEntity
  8
細線
100
AcDbLine
 10
6162.673057123624
 20
3756.810184557999
 30
0.0
 11
8586.673057123626
 21
3756.810184557999
 31
0.0
  0
LINE
  5
1871F
330
747D
100
AcDbEntity
  8
細線
100
AcDbLine
 10
6162.673057123624
 20
3821.810184557999
 30
0.0
 11
8586.673057123626
 21
3821.810184557999
 31
0.0
  0
LINE
  5
18720
330
747D
100
AcDbEntity
  8
細線
100
AcDbLine
 10
6162.673057123624
 20
3886.810184557999
 30
0.0
 11
8586.673057123626
 21
3886.810184557999
 31
0.0
  0
LINE
  5
18721
330
747D
100
AcDbEntity
  8
細線
100
AcDbLine
 10
6162.673057123624
 20
3951.810184557999
 30
0.0
 11
8586.673057123626
 21
3951.810184557999
 31
0.0
  0
LINE
  5
18722
330
747D
100
AcDbEntity
  8
細線
100
AcDbLine
 10
6162.673057123624
 20
4016.810184557999
 30
0.0
 11
8586.673057123626
 21
4016.810184557999
 31
0.0
  0
LINE
  5
18723
330
747D
100
AcDbEntity
  8
細線
100
AcDbLine
 10
6162.673057123624
 20
4081.810184557999
 30
0.0
 11
8586.673057123626
 21
4081.810184557999
 31
0.0
  0
LINE
  5
18724
330
747D
100
AcDbEntity
  8
細線
100
AcDbLine
 10
6162.673057123624
 20
4796.810184557998
 30
0.0
 11
8586.673057123626
 21
4796.810184557998
 31
0.0
  0
LINE
  5
18725
330
747D
100
AcDbEntity
  8
細線
100
AcDbLine
 10
6162.673057123624
 20
4731.810184557999
 30
0.0
 11
8586.673057123626
 21
4731.810184557999
 31
0.0
  0
LINE
  5
18726
330
747D
100
AcDbEntity
  8
細線
100
AcDbLine
 10
6162.673057123624
 20
2911.810184557999
 30
0.0
 11
8586.673057123626
 21
2911.810184557999
 31
0.0
  0
LINE
  5
18727
330
747D
100
AcDbEntity
  8
細線
100
AcDbLine
 10
6162.673057123624
 20
2976.810184557999
 30
0.0
 11
8586.673057123626
 21
2976.810184557999
 31
0.0
  0
LINE
  5
18728
330
747D
100
AcDbEntity
  8
細線
100
AcDbLine
 10
6162.673057123624
 20
3041.810184557999
 30
0.0
 11
8586.673057123626
 21
3041.810184557999
 31
0.0
  0
LINE
  5
18729
330
747D
100
AcDbEntity
  8
細線
100
AcDbLine
 10
6162.673057123624
 20
3106.810184557998
 30
0.0
 11
8586.673057123626
 21
3106.810184557998
 31
0.0
  0
LINE
  5
1872A
330
747D
100
AcDbEntity
  8
細線
100
AcDbLine
 10
6162.673057123624
 20
3171.810184557999
 30
0.0
 11
8586.673057123626
 21
3171.810184557999
 31
0.0
  0
LINE
  5
1872B
330
747D
100
AcDbEntity
  8
細線
100
AcDbLine
 10
6162.673057123624
 20
3236.810184557999
 30
0.0
 11
8586.673057123626
 21
3236.810184557999
 31
0.0
  0
LINE
  5
1872C
330
747D
100
AcDbEntity
  8
細線
100
AcDbLine
 10
6162.673057123624
 20
3301.810184557999
 30
0.0
 11
8586.673057123626
 21
3301.810184557999
 31
0.0
  0
LINE
  5
1872D
330
747D
100
AcDbEntity
  8
細線
100
AcDbLine
 10
6162.673057123624
 20
3366.810184557998
 30
0.0
 11
8586.673057123626
 21
3366.810184557998
 31
0.0
  0
LINE
  5
1872E
330
747D
100
AcDbEntity
  8
細線
100
AcDbLine
 10
6162.673057123624
 20
3431.810184557999
 30
0.0
 11
8586.673057123626
 21
3431.810184557999
 31
0.0
  0
LINE
  5
1872F
330
747D
100
AcDbEntity
  8
細線
100
AcDbLine
 10
8586.673057123627
 20
2911.810184557999
 30
0.0
 11
6162.673057123623
 21
2911.810184557999
 31
0.0
  0
CIRCLE
  5
18733
330
747D
100
AcDbEntity
  8
細線
 48
50.0
100
AcDbCircle
 10
7374.673057123626
 20
3789.310184557999
 30
0.0
 40
18.0
  0
ARC
  5
18734
330
747D
100
AcDbEntity
  8
細線
 48
50.0
100
AcDbCircle
 10
7674.673057123626
 20
3464.310184557998
 30
0.0
 40
15.0
100
AcDbArc
 50
270.0
 51
90.0
  0
ARC
  5
18735
330
747D
100
AcDbEntity
  8
細線
 48
50.0
100
AcDbCircle
 10
7574.673057123625
 20
3464.310184557998
 30
0.0
 40
15.0
100
AcDbArc
 50
90.0
 51
270.0
  0
LINE
  5
18736
330
747D
100
AcDbEntity
  8
細線
 48
50.0
100
AcDbLine
 10
7574.673057123625
 20
3479.310184557999
 30
0.0
 11
7674.673057123626
 21
3479.310184557999
 31
0.0
  0
LINE
  5
18737
330
747D
100
AcDbEntity
  8
細線
 48
50.0
100
AcDbLine
 10
7674.673057123626
 20
3449.310184557999
 30
0.0
 11
7574.673057123625
 21
3449.310184557999
 31
0.0
  0
LINE
  5
18738
330
747D
100
AcDbEntity
  8
細線
 48
50.0
100
AcDbLine
 10
7174.673057123626
 20
3449.310184557999
 30
0.0
 11
7074.673057123625
 21
3449.310184557999
 31
0.0
  0
LINE
  5
18739
330
747D
100
AcDbEntity
  8
細線
 48
50.0
100
AcDbLine
 10
7074.673057123625
 20
3479.310184557999
 30
0.0
 11
7174.673057123626
 21
3479.310184557999
 31
0.0
  0
ARC
  5
1873A
330
747D
100
AcDbEntity
  8
細線
 48
50.0
100
AcDbCircle
 10
7174.673057123626
 20
3464.310184557998
 30
0.0
 40
15.0
100
AcDbArc
 50
270.0
 51
90.0
  0
ARC
  5
1873B
330
747D
100
AcDbEntity
  8
細線
 48
50.0
100
AcDbCircle
 10
7074.673057123625
 20
3464.310184557998
 30
0.0
 40
15.0
100
AcDbArc
 50
90.0
 51
270.0
  0
LINE
  5
1873C
330
747D
100
AcDbEntity
  8
細線
 48
50.0
100
AcDbLine
 10
4444.673057123625
 20
3479.310184557999
 30
0.0
 11
4544.673057123626
 21
3479.310184557999
 31
0.0
  0
LINE
  5
1873D
330
747D
100
AcDbEntity
  8
細線
 48
50.0
100
AcDbLine
 10
4544.673057123626
 20
3449.310184557999
 30
0.0
 11
4444.673057123625
 21
3449.310184557999
 31
0.0
  0
LINE
  5
1873E
330
747D
100
AcDbEntity
  8
細線
100
AcDbLine
 10
3532.673057123622
 20
3431.810184557999
 30
0.0
 11
5956.673057123626
 21
3431.810184557999
 31
0.0
  0
LINE
  5
1873F
330
747D
100
AcDbEntity
  8
細線
100
AcDbLine
 10
3532.673057123622
 20
3366.810184557998
 30
0.0
 11
5956.673057123626
 21
3366.810184557998
 31
0.0
  0
LINE
  5
18740
330
747D
100
AcDbEntity
  8
細線
100
AcDbLine
 10
3532.673057123622
 20
3301.810184557999
 30
0.0
 11
5956.673057123626
 21
3301.810184557999
 31
0.0
  0
LINE
  5
18741
330
747D
100
AcDbEntity
  8
細線
100
AcDbLine
 10
3532.673057123622
 20
3236.810184557999
 30
0.0
 11
5956.673057123626
 21
3236.810184557999
 31
0.0
  0
LINE
  5
18742
330
747D
100
AcDbEntity
  8
細線
100
AcDbLine
 10
3532.673057123622
 20
3171.810184557999
 30
0.0
 11
5956.673057123626
 21
3171.810184557999
 31
0.0
  0
LINE
  5
18743
330
747D
100
AcDbEntity
  8
細線
100
AcDbLine
 10
3532.673057123622
 20
3106.810184557998
 30
0.0
 11
5956.673057123626
 21
3106.810184557998
 31
0.0
  0
LINE
  5
18744
330
747D
100
AcDbEntity
  8
細線
100
AcDbLine
 10
3532.673057123622
 20
3041.810184557999
 30
0.0
 11
5956.673057123626
 21
3041.810184557999
 31
0.0
  0
LINE
  5
18745
330
747D
100
AcDbEntity
  8
細線
100
AcDbLine
 10
3532.673057123622
 20
2976.810184557999
 30
0.0
 11
5956.673057123626
 21
2976.810184557999
 31
0.0
  0
LINE
  5
18746
330
747D
100
AcDbEntity
  8
細線
100
AcDbLine
 10
3532.673057123622
 20
4731.810184557999
 30
0.0
 11
5956.673057123626
 21
4731.810184557999
 31
0.0
  0
LINE
  5
18747
330
747D
100
AcDbEntity
  8
細線
100
AcDbLine
 10
3532.673057123622
 20
4796.810184557998
 30
0.0
 11
5956.673057123626
 21
4796.810184557998
 31
0.0
  0
LINE
  5
18748
330
747D
100
AcDbEntity
  8
細線
100
AcDbLine
 10
3532.673057123622
 20
4081.810184557999
 30
0.0
 11
5956.673057123626
 21
4081.810184557999
 31
0.0
  0
LINE
  5
18749
330
747D
100
AcDbEntity
  8
細線
100
AcDbLine
 10
3532.673057123622
 20
4016.810184557999
 30
0.0
 11
5956.673057123626
 21
4016.810184557999
 31
0.0
  0
LINE
  5
1874A
330
747D
100
AcDbEntity
  8
細線
100
AcDbLine
 10
3532.673057123622
 20
3951.810184557999
 30
0.0
 11
5956.673057123626
 21
3951.810184557999
 31
0.0
  0
LINE
  5
1874B
330
747D
100
AcDbEntity
  8
細線
100
AcDbLine
 10
3532.673057123622
 20
3886.810184557999
 30
0.0
 11
5956.673057123626
 21
3886.810184557999
 31
0.0
  0
LINE
  5
1874C
330
747D
100
AcDbEntity
  8
細線
100
AcDbLine
 10
3532.673057123622
 20
3821.810184557999
 30
0.0
 11
5956.673057123626
 21
3821.810184557999
 31
0.0
  0
LINE
  5
1874D
330
747D
100
AcDbEntity
  8
細線
100
AcDbLine
 10
3532.673057123622
 20
3756.810184557999
 30
0.0
 11
5956.673057123626
 21
3756.810184557999
 31
0.0
  0
LINE
  5
1874E
330
747D
100
AcDbEntity
  8
細線
100
AcDbLine
 10
3532.673057123622
 20
3691.810184557999
 30
0.0
 11
5956.673057123626
 21
3691.810184557999
 31
0.0
  0
LINE
  5
1874F
330
747D
100
AcDbEntity
  8
細線
100
AcDbLine
 10
3532.673057123622
 20
3626.810184557998
 30
0.0
 11
5956.673057123626
 21
3626.810184557998
 31
0.0
  0
LINE
  5
18750
330
747D
100
AcDbEntity
  8
細線
100
AcDbLine
 10
3532.673057123622
 20
3561.810184557999
 30
0.0
 11
5956.673057123626
 21
3561.810184557999
 31
0.0
  0
LINE
  5
18751
330
747D
100
AcDbEntity
  8
細線
100
AcDbLine
 10
3532.673057123622
 20
3496.810184557999
 30
0.0
 11
5956.673057123626
 21
3496.810184557999
 31
0.0
  0
LINE
  5
18752
330
747D
100
AcDbEntity
  8
細線
100
AcDbLine
 10
3532.673057123622
 20
4471.810184557998
 30
0.0
 11
5956.673057123626
 21
4471.810184557998
 31
0.0
  0
LINE
  5
18753
330
747D
100
AcDbEntity
  8
細線
100
AcDbLine
 10
3532.673057123622
 20
4406.810184557999
 30
0.0
 11
5956.673057123626
 21
4406.810184557999
 31
0.0
  0
LINE
  5
18754
330
747D
100
AcDbEntity
  8
細線
100
AcDbLine
 10
3532.673057123622
 20
4341.810184557998
 30
0.0
 11
5956.673057123626
 21
4341.810184557998
 31
0.0
  0
LINE
  5
18755
330
747D
100
AcDbEntity
  8
細線
100
AcDbLine
 10
3532.673057123622
 20
4276.810184557998
 30
0.0
 11
5956.673057123626
 21
4276.810184557998
 31
0.0
  0
LINE
  5
18756
330
747D
100
AcDbEntity
  8
細線
100
AcDbLine
 10
3532.673057123622
 20
4211.810184557998
 30
0.0
 11
5956.673057123626
 21
4211.810184557998
 31
0.0
  0
LINE
  5
18757
330
747D
100
AcDbEntity
  8
細線
100
AcDbLine
 10
3532.673057123622
 20
4146.810184557998
 30
0.0
 11
5956.673057123626
 21
4146.810184557998
 31
0.0
  0
LINE
  5
18758
330
747D
100
AcDbEntity
  8
細線
100
AcDbLine
 10
3532.673057123622
 20
4666.810184557999
 30
0.0
 11
5956.673057123626
 21
4666.810184557999
 31
0.0
  0
LINE
  5
18759
330
747D
100
AcDbEntity
  8
細線
100
AcDbLine
 10
3532.673057123622
 20
4601.810184557998
 30
0.0
 11
5956.673057123626
 21
4601.810184557998
 31
0.0
  0
LINE
  5
1875A
330
747D
100
AcDbEntity
  8
細線
100
AcDbLine
 10
3532.673057123622
 20
4536.810184557999
 30
0.0
 11
5956.673057123626
 21
4536.810184557999
 31
0.0
  0
ARC
  5
1875B
330
747D
100
AcDbEntity
  8
細線
 48
50.0
100
AcDbCircle
 10
4444.673057123625
 20
3464.310184557998
 30
0.0
 40
15.0
100
AcDbArc
 50
90.0
 51
270.0
  0
ARC
  5
1875C
330
747D
100
AcDbEntity
  8
細線
 48
50.0
100
AcDbCircle
 10
4544.673057123626
 20
3464.310184557998
 30
0.0
 40
15.0
100
AcDbArc
 50
270.0
 51
90.0
  0
LINE
  5
1875D
330
747D
100
AcDbEntity
  8
細線
 48
50.0
100
AcDbLine
 10
5044.673057123626
 20
3449.310184557999
 30
0.0
 11
4944.673057123626
 21
3449.310184557999
 31
0.0
  0
LINE
  5
1875E
330
747D
100
AcDbEntity
  8
細線
 48
50.0
100
AcDbLine
 10
4944.673057123626
 20
3479.310184557999
 30
0.0
 11
5044.673057123626
 21
3479.310184557999
 31
0.0
  0
ARC
  5
1875F
330
747D
100
AcDbEntity
  8
細線
 48
50.0
100
AcDbCircle
 10
4944.673057123626
 20
3464.310184557998
 30
0.0
 40
15.0
100
AcDbArc
 50
90.0
 51
270.0
  0
ARC
  5
18760
330
747D
100
AcDbEntity
  8
細線
 48
50.0
100
AcDbCircle
 10
5044.673057123626
 20
3464.310184557998
 30
0.0
 40
15.0
100
AcDbArc
 50
270.0
 51
90.0
  0
CIRCLE
  5
18761
330
747D
100
AcDbEntity
  8
細線
 48
50.0
100
AcDbCircle
 10
4744.673057123626
 20
3789.310184557999
 30
0.0
 40
18.0
  0
LINE
  5
18762
330
747D
100
AcDbEntity
  8
部品1
100
AcDbLine
 10
5956.673057123629
 20
4826.810184558
 30
0.0
 11
5956.673057123629
 21
2901.810184557999
 31
0.0
  0
LINE
  5
18763
330
747D
100
AcDbEntity
  8
部品1
100
AcDbLine
 10
6004.673057123628
 20
4826.810184557999
 30
0.0
 11
6004.673057123627
 21
2751.810184557999
 31
0.0
  0
LINE
  5
18766
330
747D
100
AcDbEntity
  8
部品1
100
AcDbLine
 10
6162.673057123628
 20
4826.810184557999
 30
0.0
 11
6162.673057123628
 21
2901.810184557999
 31
0.0
  0
LINE
  5
18768
330
747D
100
AcDbEntity
  8
部品1
100
AcDbLine
 10
6114.673057123627
 20
4826.810184557999
 30
0.0
 11
6114.673057123626
 21
2751.810184557999
 31
0.0
  0
LINE
  5
18769
330
747D
100
AcDbEntity
  8
部品1
100
AcDbLine
 10
6114.673057123628
 20
4826.810184557999
 30
0.0
 11
8689.673057123625
 21
4826.810184558
 31
0.0
  0
LINE
  5
1876D
330
747D
100
AcDbEntity
  8
細線
100
AcDbLine
 10
5956.673057123627
 20
2911.810184557999
 30
0.0
 11
3532.673057123622
 21
2911.810184557999
 31
0.0
  0
LINE
  5
1876E
330
747D
100
AcDbEntity
  8
部品1
100
AcDbLine
 10
3484.673057123629
 20
2901.810184557999
 30
0.0
 11
6004.673057123627
 21
2901.810184557999
 31
0.0
  0
LINE
  5
1876F
330
747D
100
AcDbEntity
  8
部品1
100
AcDbLine
 10
6114.673057123628
 20
2901.810184557999
 30
0.0
 11
8634.673057123627
 21
2901.810184557999
 31
0.0
  0
LINE
  5
18770
330
747D
100
AcDbEntity
  8
部品1
100
AcDbLine
 10
6114.673057123628
 20
2851.810184557999
 30
0.0
 11
8634.673057123627
 21
2851.810184557999
 31
0.0
  0
MTEXT
  5
18A27
330
747D
100
AcDbEntity
  8
寸法
 62
     7
 48
50.0
100
AcDbMText
 10
4107.388255196299
 20
9546.857419387505
 30
0.0
 40
96.0
 41
0.0
 71
     5
 72
     1
  1
棚 3段
  7
STYLE1
 73
     1
 44
1.0
1001
ACAD
1000
MTEXTBEGIN
1070
    73
1070
     1
1070
    44
1040
1.0
1070
    74
1070
     0
1000
MTEXTEND
  0
MTEXT
  5
18C07
330
747D
100
AcDbEntity
  8
寸法
 62
     7
 48
50.0
100
AcDbMText
 10
5407.388255196298
 20
9546.857419387555
 30
0.0
 40
96.0
 41
0.0
 71
     5
 72
     1
  1
棚 3段
  7
STYLE1
 73
     1
 44
1.0
1001
ACAD
1000
MTEXTBEGIN
1070
    73
1070
     1
1070
    44
1040
1.0
1070
    74
1070
     0
1000
MTEXTEND
  0
MTEXT
  5
18C08
330
747D
100
AcDbEntity
  8
寸法
 62
     7
 48
50.0
100
AcDbMText
 10
6737.388255196299
 20
9546.857419387505
 30
0.0
 40
96.0
 41
0.0
 71
     5
 72
     1
  1
棚 3段
  7
STYLE1
 73
     1
 44
1.0
1001
ACAD
1000
MTEXTBEGIN
1070
    73
1070
     1
1070
    44
1040
1.0
1070
    74
1070
     0
1000
MTEXTEND
  0
MTEXT
  5
18C09
330
747D
100
AcDbEntity
  8
寸法
 62
     7
 48
50.0
100
AcDbMText
 10
8037.388255196299
 20
9546.857419387555
 30
0.0
 40
96.0
 41
0.0
 71
     5
 72
     1
  1
棚 3段
  7
STYLE1
 73
     1
 44
1.0
1001
ACAD
1000
MTEXTBEGIN
1070
    73
1070
     1
1070
    44
1040
1.0
1070
    74
1070
     0
1000
MTEXTEND
  0
DIMENSION
  5
18D82
330
747D
100
AcDbEntity
  8
寸法
100
AcDbDimension
  2
*D36
 10
8569.149210862326
 20
9139.013480665203
 30
0.0
 11
7979.158372861959
 21
9139.013480665203
 31
0.0
 70
   160
 71
     5
 42
1273.000000000012
  3
INABA_S40G
100
AcDbAlignedDimension
 13
7388.173057123663
 23
9482.451150420478
 33
0.0
 14
8661.173057123674
 24
9482.451150420471
 34
0.0
100
AcDbRotatedDimension
1001
ACAD
1000
DSTYLE
1002
{
1002
}
  0
DIMENSION
  5
18DA7
330
747D
100
AcDbEntity
  8
寸法
100
AcDbDimension
  2
*D37
 10
7269.149210862352
 20
9139.013480665203
 30
0.0
 11
6632.649210862346
 21
9239.025291688824
 31
0.0
 70
    32
 71
     5
 42
1273.000000000012
  3
INABA_S40G
100
AcDbAlignedDimension
 13
6088.173057123664
 23
9482.451150420372
 33
0.0
 14
7361.173057123676
 24
9482.451150420365
 34
0.0
100
AcDbRotatedDimension
1001
ACAD
1000
DSTYLE
1002
{
1002
}
  0
LINE
  5
18F95
330
747D
100
AcDbEntity
  8
補助
  6
PHANTOM
 62
   230
 48
50.0
100
AcDbLine
 10
140.0
 20
0.0
 30
0.0
 11
140.0
 21
11409.6
 31
0.0
  0
TEXT
  5
18FB2
330
747D
100
AcDbEntity
  8
文字
 62
     7
 48
50.0
100
AcDbText
 10
14544.7600863402
 20
483.8967129911414
 30
0.0
 40
160.0
  1
FXN-60HYL-2
  7
STYLE2
100
AcDbText
  0
DIMENSION
  5
190F2
330
747D
100
AcDbEntity
  8
寸法
 48
50.0
100
AcDbDimension
  2
*D38
 10
8977.216159445374
 20
4799.810184557998
 30
0.0
 11
8877.216159445373
 21
3856.810184558
 31
0.0
 70
    32
  1
有効開口部高サ <>
 71
     5
 42
1885.999999999999
  3
INABA_S40G
100
AcDbAlignedDimension
 13
8689.673057123627
 23
2913.810184557999
 33
0.0
 14
8689.673057123629
 24
4799.810184557998
 34
0.0
 50
90.0
100
AcDbRotatedDimension
  0
DIMENSION
  5
190F3
330
747D
100
AcDbEntity
  8
寸法
 48
50.0
100
AcDbDimension
  2
*D39
 10
8977.216159445374
 20
4826.810184558
 30
0.0
 11
9117.38598269174
 21
4827.777384397657
 31
0.0
 70
   160
 71
     5
 42
27.00000000000182
  3
INABA_S40G
100
AcDbAlignedDimension
 13
8689.673057123629
 23
4799.810184557998
 33
0.0
 14
8634.673057123627
 24
4826.810184558
 34
0.0
 50
90.0
100
AcDbRotatedDimension
1001
ACAD
1000
DSTYLE
1002
{
1070
   279
1070
     2
1002
}
  0
DIMENSION
  5
190F4
330
747D
100
AcDbEntity
  8
寸法
 48
50.0
100
AcDbDimension
  2
*D40
 10
8977.216159445376
 20
4991.810184557999
 30
0.0
 11
8977.216159445374
 21
5230.295465932239
 31
0.0
 70
   160
 71
     5
 42
164.9999999999991
  3
INABA_S40G
100
AcDbAlignedDimension
 13
8634.673057123627
 23
4826.810184558
 33
0.0
 14
8689.673057123627
 24
4991.810184557999
 34
0.0
 50
90.0
100
AcDbRotatedDimension
1001
ACAD
1000
DSTYLE
1002
{
1002
}
  0
ARC
  5
1935C
330
747D
100
AcDbEntity
  8
部品1
 48
0.01
100
AcDbCircle
 10
4217.673057123629
 20
5055.810184557997
 30
0.0
 40
2.0
100
AcDbArc
 50
0.0
 51
90.0
  0
ARC
  5
1935D
330
747D
100
AcDbEntity
  8
部品1
 48
0.01
100
AcDbCircle
 10
4041.673057123629
 20
5055.810184557997
 30
0.0
 40
2.0
100
AcDbArc
 50
90.0
 51
180.0
  0
LINE
  5
1935E
330
747D
100
AcDbEntity
  8
細線
100
AcDbLine
 10
4129.673057123626
 20
5028.310184557997
 30
0.0
 11
4203.673057123629
 21
5028.310184557997
 31
0.0
  0
LINE
  5
1935F
330
747D
100
AcDbEntity
  8
細線
100
AcDbLine
 10
4129.673057123629
 20
5051.310184557997
 30
0.0
 11
4055.673057123629
 21
5051.310184557997
 31
0.0
  0
LINE
  5
19360
330
747D
100
AcDbEntity
  8
細線
100
AcDbLine
 10
4055.673057123629
 20
5028.310184557997
 30
0.0
 11
4129.673057123629
 21
5028.310184557997
 31
0.0
  0
LINE
  5
19361
330
747D
100
AcDbEntity
  8
細線
100
AcDbLine
 10
4203.673057123629
 20
5051.310184557997
 30
0.0
 11
4129.673057123629
 21
5051.310184557997
 31
0.0
  0
LINE
  5
19362
330
747D
100
AcDbEntity
  8
細線
100
AcDbLine
 10
4203.673057123629
 20
5028.310184557997
 30
0.0
 11
4203.673057123629
 21
5051.310184557997
 31
0.0
  0
LINE
  5
19363
330
747D
100
AcDbEntity
  8
細線
100
AcDbLine
 10
4055.673057123629
 20
5051.310184557997
 30
0.0
 11
4055.673057123629
 21
5028.310184557997
 31
0.0
  0
LINE
  5
19364
330
747D
100
AcDbEntity
  8
部品1
 48
0.01
100
AcDbLine
 10
4219.673057123626
 20
5024.310184557997
 30
0.0
 11
4219.673057123629
 21
5055.810184557997
 31
0.0
  0
LINE
  5
19365
330
747D
100
AcDbEntity
  8
部品1
 48
0.01
100
AcDbLine
 10
4039.673057123629
 20
5055.810184557997
 30
0.0
 11
4039.673057123629
 21
5024.310184557997
 31
0.0
  0
LINE
  5
19366
330
747D
100
AcDbEntity
  8
部品1
 48
0.01
100
AcDbLine
 10
4217.673057123629
 20
5057.810184557997
 30
0.0
 11
4041.673057123629
 21
5057.810184557997
 31
0.0
  0
LINE
  5
19367
330
747D
100
AcDbEntity
  8
細線
100
AcDbLine
 10
4055.673057123629
 20
5045.310184557997
 30
0.0
 11
4129.673057123629
 21
5045.310184557997
 31
0.0
  0
LINE
  5
19368
330
747D
100
AcDbEntity
  8
細線
100
AcDbLine
 10
4055.673057123629
 20
5039.310184557997
 30
0.0
 11
4129.673057123629
 21
5039.310184557997
 31
0.0
  0
LINE
  5
19369
330
747D
100
AcDbEntity
  8
細線
100
AcDbLine
 10
4055.673057123626
 20
5033.310184557997
 30
0.0
 11
4129.673057123629
 21
5033.310184557997
 31
0.0
  0
LINE
  5
1936A
330
747D
100
AcDbEntity
  8
細線
100
AcDbLine
 10
4055.673057123629
 20
5045.310184557997
 30
0.0
 11
4124.673057123628
 21
5045.310184557997
 31
0.0
  0
LINE
  5
1936B
330
747D
100
AcDbEntity
  8
細線
100
AcDbLine
 10
4203.673057123626
 20
5045.310184557997
 30
0.0
 11
4129.673057123629
 21
5045.310184557997
 31
0.0
  0
LINE
  5
1936C
330
747D
100
AcDbEntity
  8
細線
100
AcDbLine
 10
4203.673057123626
 20
5033.310184557997
 30
0.0
 11
4129.673057123629
 21
5033.310184557997
 31
0.0
  0
LINE
  5
1936D
330
747D
100
AcDbEntity
  8
細線
100
AcDbLine
 10
4203.673057123626
 20
5039.310184557997
 30
0.0
 11
4129.673057123629
 21
5039.310184557997
 31
0.0
  0
LINE
  5
1936E
330
747D
100
AcDbEntity
  8
細線
100
AcDbLine
 10
4129.673057123629
 20
5051.310184557997
 30
0.0
 11
4129.673057123626
 21
5028.310184557997
 31
0.0
  0
LINE
  5
1936F
330
747D
100
AcDbEntity
  8
細線
100
AcDbLine
 10
5359.673057123629
 20
5051.310184557997
 30
0.0
 11
5359.673057123629
 21
5028.310184557997
 31
0.0
  0
LINE
  5
19370
330
747D
100
AcDbEntity
  8
細線
100
AcDbLine
 10
5285.67305712363
 20
5039.310184557997
 30
0.0
 11
5359.673057123629
 21
5039.310184557997
 31
0.0
  0
LINE
  5
19371
330
747D
100
AcDbEntity
  8
細線
100
AcDbLine
 10
5285.67305712363
 20
5033.310184557997
 30
0.0
 11
5359.673057123629
 21
5033.310184557997
 31
0.0
  0
LINE
  5
19372
330
747D
100
AcDbEntity
  8
細線
100
AcDbLine
 10
5285.67305712363
 20
5045.310184557997
 30
0.0
 11
5359.673057123629
 21
5045.310184557997
 31
0.0
  0
LINE
  5
19373
330
747D
100
AcDbEntity
  8
細線
100
AcDbLine
 10
5433.67305712363
 20
5045.310184557997
 30
0.0
 11
5364.67305712363
 21
5045.310184557997
 31
0.0
  0
LINE
  5
19374
330
747D
100
AcDbEntity
  8
細線
100
AcDbLine
 10
5433.67305712363
 20
5033.310184557997
 30
0.0
 11
5359.673057123629
 21
5033.310184557997
 31
0.0
  0
LINE
  5
19375
330
747D
100
AcDbEntity
  8
細線
100
AcDbLine
 10
5433.67305712363
 20
5039.310184557997
 30
0.0
 11
5359.673057123629
 21
5039.310184557997
 31
0.0
  0
LINE
  5
19376
330
747D
100
AcDbEntity
  8
細線
100
AcDbLine
 10
5433.67305712363
 20
5045.310184557997
 30
0.0
 11
5359.673057123629
 21
5045.310184557997
 31
0.0
  0
LINE
  5
19377
330
747D
100
AcDbEntity
  8
部品1
 48
0.01
100
AcDbLine
 10
5271.67305712363
 20
5057.810184557997
 30
0.0
 11
5447.67305712363
 21
5057.810184557997
 31
0.0
  0
LINE
  5
19378
330
747D
100
AcDbEntity
  8
部品1
 48
0.01
100
AcDbLine
 10
5449.67305712363
 20
5055.810184557997
 30
0.0
 11
5449.67305712363
 21
5024.310184557997
 31
0.0
  0
LINE
  5
19379
330
747D
100
AcDbEntity
  8
部品1
 48
0.01
100
AcDbLine
 10
5269.673057123629
 20
5024.310184557997
 30
0.0
 11
5269.673057123629
 21
5055.810184557997
 31
0.0
  0
LINE
  5
1937A
330
747D
100
AcDbEntity
  8
細線
100
AcDbLine
 10
5433.67305712363
 20
5051.310184557997
 30
0.0
 11
5433.67305712363
 21
5028.310184557997
 31
0.0
  0
LINE
  5
1937B
330
747D
100
AcDbEntity
  8
細線
100
AcDbLine
 10
5285.67305712363
 20
5028.310184557997
 30
0.0
 11
5285.67305712363
 21
5051.310184557997
 31
0.0
  0
LINE
  5
1937C
330
747D
100
AcDbEntity
  8
細線
100
AcDbLine
 10
5285.67305712363
 20
5051.310184557997
 30
0.0
 11
5359.673057123629
 21
5051.310184557997
 31
0.0
  0
LINE
  5
1937D
330
747D
100
AcDbEntity
  8
細線
100
AcDbLine
 10
5433.67305712363
 20
5028.310184557997
 30
0.0
 11
5359.673057123629
 21
5028.310184557997
 31
0.0
  0
LINE
  5
1937E
330
747D
100
AcDbEntity
  8
細線
100
AcDbLine
 10
5359.673057123629
 20
5051.310184557997
 30
0.0
 11
5433.67305712363
 21
5051.310184557997
 31
0.0
  0
LINE
  5
1937F
330
747D
100
AcDbEntity
  8
細線
100
AcDbLine
 10
5359.673057123629
 20
5028.310184557997
 30
0.0
 11
5285.67305712363
 21
5028.310184557997
 31
0.0
  0
ARC
  5
19380
330
747D
100
AcDbEntity
  8
部品1
 48
0.01
100
AcDbCircle
 10
5447.67305712363
 20
5055.810184557997
 30
0.0
 40
2.0
100
AcDbArc
 50
0.0
 51
90.0
  0
ARC
  5
19381
330
747D
100
AcDbEntity
  8
部品1
 48
0.01
100
AcDbCircle
 10
5271.67305712363
 20
5055.810184557997
 30
0.0
 40
2.0
100
AcDbArc
 50
90.0
 51
180.0
  0
ARC
  5
19382
330
747D
100
AcDbEntity
  8
部品1
 48
0.01
100
AcDbCircle
 10
4217.673057123625
 20
5024.310184557997
 30
0.0
 40
2.0
100
AcDbArc
 50
270.0
 51
0.0
  0
ARC
  5
19383
330
747D
100
AcDbEntity
  8
部品1
 48
0.01
100
AcDbCircle
 10
4041.673057123629
 20
5024.310184557997
 30
0.0
 40
2.0
100
AcDbArc
 50
180.0
 51
270.0
  0
LINE
  5
19384
330
747D
100
AcDbEntity
  8
部品1
 48
0.01
100
AcDbLine
 10
4041.673057123629
 20
5022.310184557997
 30
0.0
 11
4217.673057123625
 21
5022.310184557997
 31
0.0
  0
LINE
  5
19385
330
747D
100
AcDbEntity
  8
部品1
 48
0.01
100
AcDbLine
 10
5447.67305712363
 20
5022.310184557997
 30
0.0
 11
5271.67305712363
 21
5022.310184557997
 31
0.0
  0
ARC
  5
19386
330
747D
100
AcDbEntity
  8
部品1
 48
0.01
100
AcDbCircle
 10
5447.67305712363
 20
5024.310184557997
 30
0.0
 40
2.0
100
AcDbArc
 50
270.0
 51
0.0
  0
ARC
  5
19387
330
747D
100
AcDbEntity
  8
部品1
 48
0.01
100
AcDbCircle
 10
5271.67305712363
 20
5024.310184557997
 30
0.0
 40
2.0
100
AcDbArc
 50
180.0
 51
270.0
  0
ARC
  5
19488
330
747D
100
AcDbEntity
  8
部品1
 48
0.01
100
AcDbCircle
 10
7901.673057123629
 20
5024.310184557997
 30
0.0
 40
2.0
100
AcDbArc
 50
180.0
 51
270.0
  0
ARC
  5
19489
330
747D
100
AcDbEntity
  8
部品1
 48
0.01
100
AcDbCircle
 10
8077.673057123631
 20
5024.310184557997
 30
0.0
 40
2.0
100
AcDbArc
 50
270.0
 51
0.0
  0
LINE
  5
1948A
330
747D
100
AcDbEntity
  8
部品1
 48
0.01
100
AcDbLine
 10
8077.673057123631
 20
5022.310184557997
 30
0.0
 11
7901.673057123629
 21
5022.310184557997
 31
0.0
  0
LINE
  5
1948B
330
747D
100
AcDbEntity
  8
部品1
 48
0.01
100
AcDbLine
 10
6671.67305712363
 20
5022.310184557997
 30
0.0
 11
6847.673057123626
 21
5022.310184557997
 31
0.0
  0
ARC
  5
1948C
330
747D
100
AcDbEntity
  8
部品1
 48
0.01
100
AcDbCircle
 10
6671.67305712363
 20
5024.310184557997
 30
0.0
 40
2.0
100
AcDbArc
 50
180.0
 51
270.0
  0
ARC
  5
1948D
330
747D
100
AcDbEntity
  8
部品1
 48
0.01
100
AcDbCircle
 10
6847.673057123626
 20
5024.310184557997
 30
0.0
 40
2.0
100
AcDbArc
 50
270.0
 51
0.0
  0
ARC
  5
1948E
330
747D
100
AcDbEntity
  8
部品1
 48
0.01
100
AcDbCircle
 10
7901.673057123629
 20
5055.810184557997
 30
0.0
 40
2.0
100
AcDbArc
 50
90.0
 51
180.0
  0
ARC
  5
1948F
330
747D
100
AcDbEntity
  8
部品1
 48
0.01
100
AcDbCircle
 10
8077.673057123631
 20
5055.810184557997
 30
0.0
 40
2.0
100
AcDbArc
 50
0.0
 51
90.0
  0
LINE
  5
19490
330
747D
100
AcDbEntity
  8
細線
100
AcDbLine
 10
7989.673057123629
 20
5028.310184557997
 30
0.0
 11
7915.67305712363
 21
5028.310184557997
 31
0.0
  0
LINE
  5
19491
330
747D
100
AcDbEntity
  8
細線
100
AcDbLine
 10
7989.673057123629
 20
5051.310184557997
 30
0.0
 11
8063.673057123629
 21
5051.310184557997
 31
0.0
  0
LINE
  5
19492
330
747D
100
AcDbEntity
  8
細線
100
AcDbLine
 10
8063.673057123629
 20
5028.310184557997
 30
0.0
 11
7989.673057123629
 21
5028.310184557997
 31
0.0
  0
LINE
  5
19493
330
747D
100
AcDbEntity
  8
細線
100
AcDbLine
 10
7915.67305712363
 20
5051.310184557997
 30
0.0
 11
7989.673057123629
 21
5051.310184557997
 31
0.0
  0
LINE
  5
19494
330
747D
100
AcDbEntity
  8
細線
100
AcDbLine
 10
7915.67305712363
 20
5028.310184557997
 30
0.0
 11
7915.67305712363
 21
5051.310184557997
 31
0.0
  0
LINE
  5
19495
330
747D
100
AcDbEntity
  8
細線
100
AcDbLine
 10
8063.673057123629
 20
5051.310184557997
 30
0.0
 11
8063.673057123629
 21
5028.310184557997
 31
0.0
  0
LINE
  5
19496
330
747D
100
AcDbEntity
  8
部品1
 48
0.01
100
AcDbLine
 10
7899.67305712363
 20
5024.310184557997
 30
0.0
 11
7899.67305712363
 21
5055.810184557997
 31
0.0
  0
LINE
  5
19497
330
747D
100
AcDbEntity
  8
部品1
 48
0.01
100
AcDbLine
 10
8079.673057123629
 20
5055.810184557997
 30
0.0
 11
8079.673057123629
 21
5024.310184557997
 31
0.0
  0
LINE
  5
19498
330
747D
100
AcDbEntity
  8
部品1
 48
0.01
100
AcDbLine
 10
7901.673057123629
 20
5057.810184557997
 30
0.0
 11
8077.673057123631
 21
5057.810184557997
 31
0.0
  0
LINE
  5
19499
330
747D
100
AcDbEntity
  8
細線
100
AcDbLine
 10
8063.673057123629
 20
5045.310184557997
 30
0.0
 11
7989.673057123629
 21
5045.310184557997
 31
0.0
  0
LINE
  5
1949A
330
747D
100
AcDbEntity
  8
細線
100
AcDbLine
 10
8063.673057123629
 20
5039.310184557997
 30
0.0
 11
7989.673057123629
 21
5039.310184557997
 31
0.0
  0
LINE
  5
1949B
330
747D
100
AcDbEntity
  8
細線
100
AcDbLine
 10
8063.673057123629
 20
5033.310184557997
 30
0.0
 11
7989.673057123629
 21
5033.310184557997
 31
0.0
  0
LINE
  5
1949C
330
747D
100
AcDbEntity
  8
細線
100
AcDbLine
 10
8063.673057123629
 20
5045.310184557997
 30
0.0
 11
7994.67305712363
 21
5045.310184557997
 31
0.0
  0
LINE
  5
1949D
330
747D
100
AcDbEntity
  8
細線
100
AcDbLine
 10
7915.67305712363
 20
5045.310184557997
 30
0.0
 11
7989.673057123629
 21
5045.310184557997
 31
0.0
  0
LINE
  5
1949E
330
747D
100
AcDbEntity
  8
細線
100
AcDbLine
 10
7915.67305712363
 20
5033.310184557997
 30
0.0
 11
7989.673057123629
 21
5033.310184557997
 31
0.0
  0
LINE
  5
1949F
330
747D
100
AcDbEntity
  8
細線
100
AcDbLine
 10
7915.67305712363
 20
5039.310184557997
 30
0.0
 11
7989.673057123629
 21
5039.310184557997
 31
0.0
  0
LINE
  5
194A0
330
747D
100
AcDbEntity
  8
細線
100
AcDbLine
 10
7989.673057123629
 20
5051.310184557997
 30
0.0
 11
7989.673057123629
 21
5028.310184557997
 31
0.0
  0
LINE
  5
194A1
330
747D
100
AcDbEntity
  8
細線
100
AcDbLine
 10
6759.673057123629
 20
5051.310184557997
 30
0.0
 11
6759.673057123626
 21
5028.310184557997
 31
0.0
  0
LINE
  5
194A2
330
747D
100
AcDbEntity
  8
細線
100
AcDbLine
 10
6833.673057123625
 20
5039.310184557997
 30
0.0
 11
6759.673057123629
 21
5039.310184557997
 31
0.0
  0
LINE
  5
194A3
330
747D
100
AcDbEntity
  8
細線
100
AcDbLine
 10
6833.673057123625
 20
5033.310184557997
 30
0.0
 11
6759.673057123629
 21
5033.310184557997
 31
0.0
  0
LINE
  5
194A4
330
747D
100
AcDbEntity
  8
細線
100
AcDbLine
 10
6833.673057123625
 20
5045.310184557997
 30
0.0
 11
6759.673057123629
 21
5045.310184557997
 31
0.0
  0
LINE
  5
194A5
330
747D
100
AcDbEntity
  8
細線
100
AcDbLine
 10
6685.673057123629
 20
5045.310184557997
 30
0.0
 11
6754.673057123629
 21
5045.310184557997
 31
0.0
  0
LINE
  5
194A6
330
747D
100
AcDbEntity
  8
細線
100
AcDbLine
 10
6685.673057123626
 20
5033.310184557997
 30
0.0
 11
6759.673057123629
 21
5033.310184557997
 31
0.0
  0
LINE
  5
194A7
330
747D
100
AcDbEntity
  8
細線
100
AcDbLine
 10
6685.673057123629
 20
5039.310184557997
 30
0.0
 11
6759.673057123629
 21
5039.310184557997
 31
0.0
  0
LINE
  5
194A8
330
747D
100
AcDbEntity
  8
細線
100
AcDbLine
 10
6685.673057123629
 20
5045.310184557997
 30
0.0
 11
6759.673057123629
 21
5045.310184557997
 31
0.0
  0
LINE
  5
194A9
330
747D
100
AcDbEntity
  8
部品1
 48
0.01
100
AcDbLine
 10
6847.67305712363
 20
5057.810184557997
 30
0.0
 11
6671.67305712363
 21
5057.810184557997
 31
0.0
  0
LINE
  5
194AA
330
747D
100
AcDbEntity
  8
部品1
 48
0.01
100
AcDbLine
 10
6669.67305712363
 20
5055.810184557997
 30
0.0
 11
6669.67305712363
 21
5024.310184557997
 31
0.0
  0
LINE
  5
194AB
330
747D
100
AcDbEntity
  8
部品1
 48
0.01
100
AcDbLine
 10
6849.673057123625
 20
5024.310184557997
 30
0.0
 11
6849.67305712363
 21
5055.810184557997
 31
0.0
  0
LINE
  5
194AC
330
747D
100
AcDbEntity
  8
細線
100
AcDbLine
 10
6685.673057123629
 20
5051.310184557997
 30
0.0
 11
6685.673057123629
 21
5028.310184557997
 31
0.0
  0
LINE
  5
194AD
330
747D
100
AcDbEntity
  8
細線
100
AcDbLine
 10
6833.67305712363
 20
5028.310184557997
 30
0.0
 11
6833.67305712363
 21
5051.310184557997
 31
0.0
  0
LINE
  5
194AE
330
747D
100
AcDbEntity
  8
細線
100
AcDbLine
 10
6833.67305712363
 20
5051.310184557997
 30
0.0
 11
6759.673057123629
 21
5051.310184557997
 31
0.0
  0
LINE
  5
194AF
330
747D
100
AcDbEntity
  8
細線
100
AcDbLine
 10
6685.673057123629
 20
5028.310184557997
 30
0.0
 11
6759.673057123629
 21
5028.310184557997
 31
0.0
  0
LINE
  5
194B0
330
747D
100
AcDbEntity
  8
細線
100
AcDbLine
 10
6759.673057123629
 20
5051.310184557997
 30
0.0
 11
6685.673057123629
 21
5051.310184557997
 31
0.0
  0
LINE
  5
194B1
330
747D
100
AcDbEntity
  8
細線
100
AcDbLine
 10
6759.673057123626
 20
5028.310184557997
 30
0.0
 11
6833.67305712363
 21
5028.310184557997
 31
0.0
  0
ARC
  5
194B2
330
747D
100
AcDbEntity
  8
部品1
 48
0.01
100
AcDbCircle
 10
6671.67305712363
 20
5055.810184557997
 30
0.0
 40
2.0
100
AcDbArc
 50
90.0
 51
180.0
  0
ARC
  5
194B3
330
747D
100
AcDbEntity
  8
部品1
 48
0.01
100
AcDbCircle
 10
6847.67305712363
 20
5055.810184557997
 30
0.0
 40
2.0
100
AcDbArc
 50
0.0
 51
90.0
  0
TEXT
  5
194D2
330
747D
100
AcDbEntity
  8
文字
 62
     7
 48
50.0
100
AcDbText
 10
15022.63965474517
 20
9740.013745883725
 30
0.0
 40
100.0
  1
F12            1.2
  7
STYLE1
100
AcDbText
  0
TEXT
  5
194EC
330
747D
100
AcDbEntity
  8
文字
 62
     7
 48
50.0
100
AcDbText
 10
14646.46056207479
 20
871.9640646083623
 30
0.0
 40
100.0
  1
～一般型～
  7
STYLE2
100
AcDbText
  0
TEXT
  5
1951C
330
747D
100
AcDbEntity
  8
文字
 62
     7
 48
50.0
100
AcDbText
 10
15022.63965474516
 20
9060.013745883727
 30
0.0
 40
100.0
  1
F12            0.7
  7
STYLE1
100
AcDbText
  0
LINE
  5
19544
330
747D
100
AcDbEntity
  8
破線
 48
5.0
100
AcDbLine
 10
6059.673057123631
 20
2576.810184558001
 30
0.0
 11
6059.673057123631
 21
2501.810184558002
 31
0.0
  0
LINE
  5
19545
330
747D
100
AcDbEntity
  8
破線
  6
HIDDEN
 48
5.0
100
AcDbLine
 10
6114.673057123631
 20
2751.810184558002
 30
0.0
 11
6114.67305712363
 21
2576.810184558001
 31
0.0
  0
LINE
  5
19546
330
747D
100
AcDbEntity
  8
破線
  6
HIDDEN
 48
5.0
100
AcDbLine
 10
6114.67305712363
 20
2576.810184558001
 30
0.0
 11
6004.673057123631
 21
2576.810184558001
 31
0.0
  0
LINE
  5
19547
330
747D
100
AcDbEntity
  8
破線
  6
HIDDEN
 48
5.0
100
AcDbLine
 10
6004.673057123631
 20
2751.810184558002
 30
0.0
 11
6004.673057123632
 21
2576.810184558001
 31
0.0
  0
LINE
  5
1955A
330
747D
100
AcDbEntity
  8
部品1
100
AcDbLine
 10
2401.213038232956
 20
2881.713995125664
 30
0.0
 11
2326.213038232956
 21
2751.810184557999
 31
0.0
  0
TEXT
  5
1955B
330
747D
100
AcDbEntity
  8
部品1
100
AcDbText
 10
2429.31798035773
 20
2787.917088163901
 30
0.0
 40
125.0
  1
G.L
  7
STYLE2
100
AcDbText
  0
LINE
  5
1955C
330
747D
100
AcDbEntity
  8
部品1
100
AcDbLine
 10
2326.213038232956
 20
2751.810184557999
 30
0.0
 11
2251.213038232956
 21
2881.713995125664
 31
0.0
  0
LINE
  5
1955D
330
747D
100
AcDbEntity
  8
部品1
100
AcDbLine
 10
2251.213038232956
 20
2881.713995125664
 30
0.0
 11
2401.213038232956
 21
2881.713995125664
 31
0.0
  0
ENDSEC
  0
SECTION
  2
OBJECTS
  0
DICTIONARY
  5
7471
330
0
100
AcDbDictionary
281
     1
  3
ACAD_COLOR
350
16E26
  3
ACAD_GROUP
350
7472
  3
ACAD_LAYOUT
350
16E27
  3
ACAD_MATERIAL
350
16E25
  3
ACAD_MLINESTYLE
350
7473
  3
ACAD_PLOTSETTINGS
350
16E28
  3
ACAD_PLOTSTYLENAME
350
16E23
  3
ACDBHEADERROUNDTRIPXREC
350
19574
  3
AcDbVariableDictionary
350
19570
  3
CONTENTDICTIONARY
350
E71C
  3
DRAWINGVARIABLESDICT
350
F3B9
  0
DICTIONARY
  5
1726D
330
7467
100
AcDbDictionary
280
     1
281
     1
  3
ACAD_LAYERSTATES
360
1726E
  0
DICTIONARY
  5
16E26
102
{ACAD_REACTORS
330
7471
102
}
330
7471
100
AcDbDictionary
281
     1
  0
DICTIONARY
  5
7472
102
{ACAD_REACTORS
330
7471
102
}
330
7471
100
AcDbDictionary
281
     1
  0
DICTIONARY
  5
16E27
102
{ACAD_REACTORS
330
7471
102
}
330
7471
100
AcDbDictionary
281
     1
  3
Model
350
16E29
  3
レイアウト1
350
16E2A
  0
DICTIONARY
  5
16E25
102
{ACAD_REACTORS
330
7471
102
}
330
7471
100
AcDbDictionary
281
     1
  0
DICTIONARY
  5
7473
102
{ACAD_REACTORS
330
7471
102
}
330
7471
100
AcDbDictionary
281
     1
  3
STANDARD
350
7480
  0
DICTIONARY
  5
16E28
102
{ACAD_REACTORS
330
7471
102
}
330
7471
100
AcDbDictionary
281
     1
  0
ACDBDICTIONARYWDFLT
  5
16E23
102
{ACAD_REACTORS
330
7471
102
}
330
7471
100
AcDbDictionary
281
     1
  3
Normal
350
16E24
100
AcDbDictionaryWithDefault
340
16E24
  0
DICTIONARY
  5
19574
102
{ACAD_REACTORS
330
7471
102
}
330
7471
100
AcDbDictionary
281
     1
  3
COLORDICT
350
19576
  3
MATERIALDICT
350
19575
  0
DICTIONARY
  5
19570
102
{ACAD_REACTORS
330
7471
102
}
330
7471
100
AcDbDictionary
281
     1
  3
DIMASSOC
350
19571
  3
PROJECTNAME
350
19572
  0
DICTIONARY
  5
E71C
102
{ACAD_REACTORS
330
7471
102
}
330
7471
100
AcDbDictionary
281
     1
  0
DICTIONARY
  5
F3B9
102
{ACAD_REACTORS
330
7471
102
}
330
7471
100
AcDbDictionary
281
     1
1001
DRAWINGVARIABLESXDATA
1000
POLARMODE
1000
1
  0
DICTIONARY
  5
1726E
102
{ACAD_REACTORS
330
1726D
102
}
330
1726D
100
AcDbDictionary
281
     1
  0
LAYOUT
  5
16E29
102
{ACAD_XDICTIONARY
360
19577
102
}
102
{ACAD_REACTORS
330
16E27
102
}
330
16E27
100
AcDbPlotSettings
  1

  2
none_device
  4
Letter_(8.50_x_11.00_Inches)
  6

 40
6.349999904632568
 41
6.349999904632568
 42
6.350006103515625
 43
6.350006103515625
 44
215.8999938964844
 45
279.3999938964844
 46
0.0
 47
0.0
 48
0.0
 49
0.0
140
0.0
141
0.0
142
1.0
143
1.0
 70
 11952
 72
     1
 73
     1
 74
     0
  7
inaba.ctb
 75
     0
147
1.0
148
-2464.798049323006
149
54.18424545986545
100
AcDbLayout
  1
Model
 70
     1
 71
     0
 10
0.0
 20
0.0
 11
12.0
 21
9.0
 12
0.0
 22
0.0
 32
0.0
 14
0.0
 24
0.0
 34
0.0
 15
0.0
 25
0.0
 35
0.0
146
0.0
 13
0.0
 23
0.0
 33
0.0
 16
1.0
 26
0.0
 36
0.0
 17
0.0
 27
1.0
 37
0.0
 76
     0
330
747D
  0
LAYOUT
  5
16E2A
102
{ACAD_XDICTIONARY
360
19579
102
}
102
{ACAD_REACTORS
330
16E27
102
}
330
16E27
100
AcDbPlotSettings
  1

  2
EPSON LP-8300
  4

  6

 40
0.0
 41
0.0
 42
0.0
 43
0.0
 44
0.0
 45
0.0
 46
0.0
 47
0.0
 48
0.0
 49
0.0
140
0.0
141
0.0
142
1.0
143
1.0
 70
   688
 72
     0
 73
     0
 74
     5
  7
inaba.ctb
 75
    16
147
1.0
148
0.0
149
0.0
100
AcDbLayout
  1
レイアウト1
 70
     0
 71
     1
 10
0.0
 20
0.0
 11
420.0
 21
297.0
 12
0.0
 22
0.0
 32
0.0
 14
1.000000000000000E+20
 24
1.000000000000000E+20
 34
1.000000000000000E+20
 15
-1.000000000000000E+20
 25
-1.000000000000000E+20
 35
-1.000000000000000E+20
146
0.0
 13
0.0
 23
0.0
 33
0.0
 16
1.0
 26
0.0
 36
0.0
 17
0.0
 27
1.0
 37
0.0
 76
     0
330
747A
  0
MLINESTYLE
  5
7480
102
{ACAD_REACTORS
330
7473
102
}
330
7473
100
AcDbMlineStyle
  2
STANDARD
 70
     0
  3

 62
     0
 51
90.0
 52
90.0
 71
     2
 49
0.5
 62
   256
  6
BYLAYER
 49
-0.5
 62
   256
  6
BYLAYER
  0
ACDBPLACEHOLDER
  5
16E24
102
{ACAD_REACTORS
330
16E23
102
}
330
16E23
  0
XRECORD
  5
19576
102
{ACAD_REACTORS
330
19574
102
}
330
19574
100
AcDbXrecord
280
     1
340
16E26
  0
XRECORD
  5
19575
102
{ACAD_REACTORS
330
19574
102
}
330
19574
100
AcDbXrecord
280
     1
340
16E25
  0
DICTIONARYVAR
  5
19571
102
{ACAD_REACTORS
330
19570
102
}
330
19570
100
DictionaryVariables
280
     0
  1
1
  0
DICTIONARYVAR
  5
19572
102
{ACAD_REACTORS
330
19570
102
}
330
19570
100
DictionaryVariables
280
     0
  1

  0
DICTIONARY
  5
19577
330
16E29
100
AcDbDictionary
280
     1
281
     1
  3
ACAD_XREC_ROUNDTRIP
360
19578
  0
DICTIONARY
  5
19579
330
16E2A
100
AcDbDictionary
280
     1
281
     1
  3
ACAD_XREC_ROUNDTRIP
360
1957A
  0
XRECORD
  5
19578
102
{ACAD_REACTORS
330
19577
102
}
330
19577
100
AcDbXrecord
280
     1
102
SHADEPLOT
 70
     0
102
SHADEPLOTRESLEVEL
 70
     2
102
SHADEPLOTCUSTOMDPI
 70
   300
  0
XRECORD
  5
1957A
102
{ACAD_REACTORS
330
19579
102
}
330
19579
100
AcDbXrecord
280
     1
102
SHADEPLOT
 70
     0
102
SHADEPLOTRESLEVEL
 70
     2
102
SHADEPLOTCUSTOMDPI
 70
   300
  0
ENDSEC
  0
EOF
