  0
SECTION
  2
HEADER
  9
$ACADVER
  1
AC1015
  9
$ACADMAINTVER
 70
    20
  9
$DWGCODEPAGE
  3
ANSI_932
  9
$INSBASE
 10
0.0
 20
0.0
 30
0.0
  9
$EXTMIN
 10
139.9999999999995
 20
-0.0000000000000909
 30
0.0
  9
$EXTMAX
 10
16307.2
 20
11409.6
 30
0.0
  9
$LIMMIN
 10
0.0
 20
0.0
  9
$LIMMAX
 10
16800.0
 20
11880.0
  9
$ORTHOMODE
 70
     0
  9
$REGENMODE
 70
     1
  9
$FILLMODE
 70
     1
  9
$QTEXTMODE
 70
     0
  9
$MIRRTEXT
 70
     1
  9
$LTSCALE
 40
20.0
  9
$ATTMODE
 70
     1
  9
$TEXTSIZE
 40
100.0
  9
$TRACEWID
 40
1.0
  9
$TEXTSTYLE
  7
STYLE2
  9
$CLAYER
  8
細線
  9
$CELTYPE
  6
BYLAYER
  9
$CECOLOR
 62
   256
  9
$CELTSCALE
 40
50.0
  9
$DISPSILH
 70
     0
  9
$DIMSCALE
 40
40.0
  9
$DIMASZ
 40
2.5
  9
$DIMEXO
 40
0.5
  9
$DIMDLI
 40
7.0
  9
$DIMRND
 40
0.0
  9
$DIMDLE
 40
0.0
  9
$DIMEXE
 40
1.5
  9
$DIMTP
 40
0.0
  9
$DIMTM
 40
0.0
  9
$DIMTXT
 40
3.0
  9
$DIMCEN
 40
0.0
  9
$DIMTSZ
 40
0.0
  9
$DIMTOL
 70
     0
  9
$DIMLIM
 70
     0
  9
$DIMTIH
 70
     0
  9
$DIMTOH
 70
     0
  9
$DIMSE1
 70
     0
  9
$DIMSE2
 70
     0
  9
$DIMTAD
 70
     3
  9
$DIMZIN
 70
     8
  9
$DIMBLK
  1

  9
$DIMASO
 70
     1
  9
$DIMSHO
 70
     1
  9
$DIMPOST
  1

  9
$DIMAPOST
  1

  9
$DIMALT
 70
     0
  9
$DIMALTD
 70
     2
  9
$DIMALTF
 40
0.0394
  9
$DIMLFAC
 40
1.0
  9
$DIMTOFL
 70
     1
  9
$DIMTVP
 40
0.0
  9
$DIMTIX
 70
     1
  9
$DIMSOXD
 70
     0
  9
$DIMSAH
 70
     1
  9
$DIMBLK1
  1
DOTSMALL
  9
$DIMBLK2
  1
DOTSMALL
  9
$DIMSTYLE
  2
INABA_S40G
  9
$DIMCLRD
 70
     0
  9
$DIMCLRE
 70
     0
  9
$DIMCLRT
 70
     7
  9
$DIMTFAC
 40
1.0
  9
$DIMGAP
 40
1.0
  9
$DIMJUST
 70
     0
  9
$DIMSD1
 70
     0
  9
$DIMSD2
 70
     0
  9
$DIMTOLJ
 70
     1
  9
$DIMTZIN
 70
     0
  9
$DIMALTZ
 70
     0
  9
$DIMALTTZ
 70
     0
  9
$DIMUPT
 70
     0
  9
$DIMDEC
 70
     1
  9
$DIMTDEC
 70
     4
  9
$DIMALTU
 70
     2
  9
$DIMALTTD
 70
     2
  9
$DIMTXSTY
  7
STYLE1
  9
$DIMAUNIT
 70
     0
  9
$DIMADEC
 70
     0
  9
$DIMALTRND
 40
0.0
  9
$DIMAZIN
 70
     0
  9
$DIMDSEP
 70
    46
  9
$DIMATFIT
 70
     3
  9
$DIMFRAC
 70
     0
  9
$DIMLDRBLK
  1

  9
$DIMLUNIT
 70
     2
  9
$DIMLWD
 70
    -2
  9
$DIMLWE
 70
    -2
  9
$DIMTMOVE
 70
     0
  9
$LUNITS
 70
     2
  9
$LUPREC
 70
     1
  9
$SKETCHINC
 40
1.0
  9
$FILLETRAD
 40
3.0
  9
$AUNITS
 70
     0
  9
$AUPREC
 70
     0
  9
$MENU
  1
acad
  9
$ELEVATION
 40
0.0
  9
$PELEVATION
 40
0.0
  9
$THICKNESS
 40
0.0
  9
$LIMCHECK
 70
     0
  9
$CHAMFERA
 40
0.0
  9
$CHAMFERB
 40
0.0
  9
$CHAMFERC
 40
0.0
  9
$CHAMFERD
 40
0.0
  9
$SKPOLY
 70
     0
  9
$TDCREATE
 40
2451368.612993866
  9
$TDUCREATE
 40
2451368.237993866
  9
$TDUPDATE
 40
2455569.622337234
  9
$TDUUPDATE
 40
2455569.247337234
  9
$TDINDWG
 40
0.6616460532
  9
$TDUSRTIMER
 40
0.6616460532
  9
$USRTIMER
 70
     1
  9
$ANGBASE
 50
0.0
  9
$ANGDIR
 70
     0
  9
$PDMODE
 70
     3
  9
$PDSIZE
 40
2.0
  9
$PLINEWID
 40
0.0
  9
$SPLFRAME
 70
     0
  9
$SPLINETYPE
 70
     6
  9
$SPLINESEGS
 70
     8
  9
$HANDSEED
  5
18B23
  9
$SURFTAB1
 70
     6
  9
$SURFTAB2
 70
     6
  9
$SURFTYPE
 70
     6
  9
$SURFU
 70
     6
  9
$SURFV
 70
     6
  9
$UCSBASE
  2

  9
$UCSNAME
  2

  9
$UCSORG
 10
0.0
 20
0.0
 30
0.0
  9
$UCSXDIR
 10
1.0
 20
0.0
 30
0.0
  9
$UCSYDIR
 10
0.0
 20
1.0
 30
0.0
  9
$UCSORTHOREF
  2

  9
$UCSORTHOVIEW
 70
     0
  9
$UCSORGTOP
 10
0.0
 20
0.0
 30
0.0
  9
$UCSORGBOTTOM
 10
0.0
 20
0.0
 30
0.0
  9
$UCSORGLEFT
 10
0.0
 20
0.0
 30
0.0
  9
$UCSORGRIGHT
 10
0.0
 20
0.0
 30
0.0
  9
$UCSORGFRONT
 10
0.0
 20
0.0
 30
0.0
  9
$UCSORGBACK
 10
0.0
 20
0.0
 30
0.0
  9
$PUCSBASE
  2

  9
$PUCSNAME
  2

  9
$PUCSORG
 10
0.0
 20
0.0
 30
0.0
  9
$PUCSXDIR
 10
1.0
 20
0.0
 30
0.0
  9
$PUCSYDIR
 10
0.0
 20
1.0
 30
0.0
  9
$PUCSORTHOREF
  2

  9
$PUCSORTHOVIEW
 70
     0
  9
$PUCSORGTOP
 10
0.0
 20
0.0
 30
0.0
  9
$PUCSORGBOTTOM
 10
0.0
 20
0.0
 30
0.0
  9
$PUCSORGLEFT
 10
0.0
 20
0.0
 30
0.0
  9
$PUCSORGRIGHT
 10
0.0
 20
0.0
 30
0.0
  9
$PUCSORGFRONT
 10
0.0
 20
0.0
 30
0.0
  9
$PUCSORGBACK
 10
0.0
 20
0.0
 30
0.0
  9
$USERI1
 70
     0
  9
$USERI2
 70
     0
  9
$USERI3
 70
     0
  9
$USERI4
 70
     0
  9
$USERI5
 70
     0
  9
$USERR1
 40
0.0
  9
$USERR2
 40
0.0
  9
$USERR3
 40
0.0
  9
$USERR4
 40
0.0
  9
$USERR5
 40
0.0
  9
$WORLDVIEW
 70
     1
  9
$SHADEDGE
 70
     3
  9
$SHADEDIF
 70
    70
  9
$TILEMODE
 70
     1
  9
$MAXACTVP
 70
    16
  9
$PINSBASE
 10
0.0
 20
0.0
 30
0.0
  9
$PLIMCHECK
 70
     0
  9
$PEXTMIN
 10
1.000000000000000E+20
 20
1.000000000000000E+20
 30
1.000000000000000E+20
  9
$PEXTMAX
 10
-1.000000000000000E+20
 20
-1.000000000000000E+20
 30
-1.000000000000000E+20
  9
$PLIMMIN
 10
0.0
 20
0.0
  9
$PLIMMAX
 10
420.0
 20
297.0
  9
$UNITMODE
 70
     0
  9
$VISRETAIN
 70
     0
  9
$PLINEGEN
 70
     0
  9
$PSLTSCALE
 70
     0
  9
$TREEDEPTH
 70
  3020
  9
$CMLSTYLE
  2
STANDARD
  9
$CMLJUST
 70
     0
  9
$CMLSCALE
 40
1.0
  9
$PROXYGRAPHICS
 70
     1
  9
$MEASUREMENT
 70
     1
  9
$CELWEIGHT
370
    -1
  9
$ENDCAPS
280
     0
  9
$JOINSTYLE
280
     0
  9
$LWDISPLAY
290
     0
  9
$INSUNITS
 70
     0
  9
$HYPERLINKBASE
  1

  9
$STYLESHEET
  1

  9
$XEDIT
290
     1
  9
$CEPSNTYPE
380
     0
  9
$PSTYLEMODE
290
     1
  9
$FINGERPRINTGUID
  2
{9A7D2034-74FC-438B-A82B-8794AB90E552}
  9
$VERSIONGUID
  2
{C35B6312-9932-4EF1-8007-168F24CF0458}
  9
$EXTNAMES
290
     1
  9
$PSVPSCALE
 40
0.0
  9
$OLESTARTUP
290
     0
  0
ENDSEC
  0
SECTION
  2
CLASSES
  0
CLASS
  1
ACDBDICTIONARYWDFLT
  2
AcDbDictionaryWithDefault
  3
ObjectDBX Classes
 90
        0
280
     0
281
     0
  0
CLASS
  1
DICTIONARYVAR
  2
AcDbDictionaryVar
  3
ObjectDBX Classes
 90
        0
280
     0
281
     0
  0
CLASS
  1
ACDBPLACEHOLDER
  2
AcDbPlaceHolder
  3
ObjectDBX Classes
 90
        0
280
     0
281
     0
  0
CLASS
  1
LAYOUT
  2
AcDbLayout
  3
ObjectDBX Classes
 90
        0
280
     0
281
     0
  0
ENDSEC
  0
SECTION
  2
TABLES
  0
TABLE
  2
VPORT
  5
746D
330
0
100
AcDbSymbolTable
 70
     2
  0
VPORT
  5
18B1B
330
746D
100
AcDbSymbolTableRecord
100
AcDbViewportTableRecord
  2
*Active
 70
     0
 10
0.0
 20
0.0
 11
1.0
 21
1.0
 12
8223.761025238502
 22
5958.555206651703
 13
0.0
 23
0.0
 14
10.0
 24
10.0
 15
10.0
 25
10.0
 16
0.0
 26
0.0
 36
1.0
 17
0.0
 27
0.0
 37
0.0
 40
12026.20795302914
 41
1.627450980392156
 42
50.0
 43
0.0
 44
0.0
 50
0.0
 51
0.0
 71
     0
 72
     0
 73
     1
 74
     0
 75
     0
 76
     0
 77
     0
 78
     0
281
     0
 65
     1
110
0.0
120
0.0
130
0.0
111
1.0
121
0.0
131
0.0
112
0.0
122
1.0
132
0.0
 79
     0
146
0.0
  0
ENDTAB
  0
TABLE
  2
LTYPE
  5
746A
330
0
100
AcDbSymbolTable
 70
     3
  0
LTYPE
  5
7477
330
746A
100
AcDbSymbolTableRecord
100
AcDbLinetypeTableRecord
  2
BYBLOCK
 70
     0
  3

 72
    65
 73
     0
 40
0.0
  0
LTYPE
  5
7478
330
746A
100
AcDbSymbolTableRecord
100
AcDbLinetypeTableRecord
  2
BYLAYER
 70
     0
  3

 72
    65
 73
     0
 40
0.0
  0
LTYPE
  5
7479
330
746A
100
AcDbSymbolTableRecord
100
AcDbLinetypeTableRecord
  2
CONTINUOUS
 70
     0
  3
Solid line
 72
    65
 73
     0
 40
0.0
  0
LTYPE
  5
781A
330
746A
100
AcDbSymbolTableRecord
100
AcDbLinetypeTableRecord
  2
HIDDEN
 70
     0
  3
__ __ __ __ __ __ __ __ __ __ __ __ __ __ __ __
 72
    65
 73
     2
 40
0.375
 49
0.25
 74
     0
 49
-0.125
 74
     0
  0
LTYPE
  5
781B
330
746A
100
AcDbSymbolTableRecord
100
AcDbLinetypeTableRecord
  2
PHANTOM
 70
     0
  3
______  __  __  ______  __  __  ______  __  __ 
 72
    65
 73
     6
 40
2.5
 49
1.25
 74
     0
 49
-0.25
 74
     0
 49
0.25
 74
     0
 49
-0.25
 74
     0
 49
0.25
 74
     0
 49
-0.25
 74
     0
  0
ENDTAB
  0
TABLE
  2
LAYER
  5
7467
102
{ACAD_XDICTIONARY
360
16916
102
}
330
0
100
AcDbSymbolTable
 70
    10
  0
LAYER
  5
7474
330
7467
100
AcDbSymbolTableRecord
100
AcDbLayerTableRecord
  2
0
 70
     0
 62
     7
  6
CONTINUOUS
370
    -3
390
166A2
  0
LAYER
  5
DEB3
330
7467
100
AcDbSymbolTableRecord
100
AcDbLayerTableRecord
  2
寸法
 70
     0
 62
     4
  6
CONTINUOUS
370
    -3
390
166A2
  0
LAYER
  5
DEB4
330
7467
100
AcDbSymbolTableRecord
100
AcDbLayerTableRecord
  2
部品1
 70
     0
 62
     7
  6
CONTINUOUS
370
    -3
390
166A2
  0
LAYER
  5
DEB5
330
7467
100
AcDbSymbolTableRecord
100
AcDbLayerTableRecord
  2
補助
 70
     0
 62
    -1
  6
CONTINUOUS
370
    -3
390
166A2
  0
LAYER
  5
DEB6
330
7467
100
AcDbSymbolTableRecord
100
AcDbLayerTableRecord
  2
文字
 70
     0
 62
     7
  6
CONTINUOUS
370
    -3
390
166A2
  0
LAYER
  5
F255
330
7467
100
AcDbSymbolTableRecord
100
AcDbLayerTableRecord
  2
DEFPOINTS
 70
     0
 62
     7
  6
CONTINUOUS
290
     0
370
    -3
390
166A2
  0
LAYER
  5
10B54
330
7467
100
AcDbSymbolTableRecord
100
AcDbLayerTableRecord
  2
仕様書枠
 70
     0
 62
   230
  6
CONTINUOUS
370
    -3
390
166A2
  0
LAYER
  5
11729
330
7467
100
AcDbSymbolTableRecord
100
AcDbLayerTableRecord
  2
Ｇ．Ｌ
 70
     0
 62
    30
  6
CONTINUOUS
370
    -3
390
166A2
  0
LAYER
  5
1173F
330
7467
100
AcDbSymbolTableRecord
100
AcDbLayerTableRecord
  2
細線
 70
     0
 62
     5
  6
CONTINUOUS
370
    -3
390
166A2
  0
LAYER
  5
142E2
330
7467
100
AcDbSymbolTableRecord
100
AcDbLayerTableRecord
  2
破線
 70
     0
 62
     2
  6
HIDDEN
370
    -3
390
166A2
  0
ENDTAB
  0
TABLE
  2
STYLE
  5
7468
330
0
100
AcDbSymbolTable
 70
     4
  0
STYLE
  5
7475
330
7468
100
AcDbSymbolTableRecord
100
AcDbTextStyleTableRecord
  2
STANDARD
 70
     0
 40
0.0
 41
1.0
 50
0.0
 71
     0
 42
4.0
  3
txt
  4
C:\AutoCAD LT\bigfont.shx
  0
STYLE
  5
763C
330
7468
100
AcDbSymbolTableRecord
100
AcDbTextStyleTableRecord
  2
MSMINCHO
 70
     0
 40
0.0
 41
1.0
 50
0.0
 71
     0
 42
1.199999999999999
  3
C:\AutoCAD LT\msminch2.TTF
  4

  0
STYLE
  5
F706
330
7468
100
AcDbSymbolTableRecord
100
AcDbTextStyleTableRecord
  2
STYLE1
 70
     0
 40
0.0
 41
1.0
 50
0.0
 71
     0
 42
4.0
  3
isocp.shx
  4
bigfont.shx
  0
STYLE
  5
103BF
330
7468
100
AcDbSymbolTableRecord
100
AcDbTextStyleTableRecord
  2
STYLE2
 70
     0
 40
0.0
 41
1.0
 50
0.0
 71
     0
 42
100.0
  3
MS PGothic.ttf
  4

1001
ACAD
1000
MS PGothic
1071
    32818
  0
ENDTAB
  0
TABLE
  2
VIEW
  5
746B
330
0
100
AcDbSymbolTable
 70
     0
  0
ENDTAB
  0
TABLE
  2
UCS
  5
746C
330
0
100
AcDbSymbolTable
 70
     0
  0
ENDTAB
  0
TABLE
  2
APPID
  5
746E
330
0
100
AcDbSymbolTable
 70
     6
  0
APPID
  5
7476
330
746E
100
AcDbSymbolTableRecord
100
AcDbRegAppTableRecord
  2
ACAD
 70
     0
  0
APPID
  5
DEA9
330
746E
100
AcDbSymbolTableRecord
100
AcDbRegAppTableRecord
  2
CONTENTBLOCKICON
 70
     0
  0
APPID
  5
DEAA
330
746E
100
AcDbSymbolTableRecord
100
AcDbRegAppTableRecord
  2
CONTENTBLOCKDESCRIPTION
 70
     0
  0
APPID
  5
E71D
330
746E
100
AcDbSymbolTableRecord
100
AcDbRegAppTableRecord
  2
CONTENTTABDATA
 70
     0
  0
APPID
  5
E71E
330
746E
100
AcDbSymbolTableRecord
100
AcDbRegAppTableRecord
  2
CONTENTCURRENTTAB
 70
     0
  0
APPID
  5
F3BA
330
746E
100
AcDbSymbolTableRecord
100
AcDbRegAppTableRecord
  2
DRAWINGVARIABLESXDATA
 70
     0
  0
ENDTAB
  0
TABLE
  2
DIMSTYLE
  5
746F
330
0
100
AcDbSymbolTable
 70
     1
100
AcDbDimStyleTable
 71
     1
340
F71F
  0
DIMSTYLE
105
F71F
102
{ACAD_REACTORS
330
1633A
330
1633B
330
1633C
330
1633D
330
16347
330
16351
330
16354
330
16357
330
16358
330
1636E
330
1636F
330
1638C
330
1638D
330
163A0
330
16B6B
330
16B6C
330
16B6D
330
16B6E
330
16CA6
330
16CC6
330
16CC7
330
16CC8
330
16B03
330
16B21
330
16B22
330
16B23
330
16B24
330
16B25
330
18382
330
183A7
330
186CB
330
186CC
330
186CD
102
}
330
746F
100
AcDbSymbolTableRecord
100
AcDbDimStyleTableRecord
  2
INABA_S40G
 70
     0
 40
40.0
 41
2.5
 42
0.5
 43
7.0
 44
1.5
 73
     0
 74
     0
 77
     3
 78
     8
140
3.0
141
0.0
143
0.0394
147
1.0
172
     1
173
     1
174
     1
178
     7
271
     1
340
F706
341
F770
343
F770
344
F770
  0
ENDTAB
  0
TABLE
  2
BLOCK_RECORD
  5
7466
330
0
100
AcDbSymbolTable
 70
    34
  0
BLOCK_RECORD
  5
747D
330
7466
100
AcDbSymbolTableRecord
100
AcDbBlockTableRecord
  2
*MODEL_SPACE
340
166A7
  0
BLOCK_RECORD
  5
747A
330
7466
100
AcDbSymbolTableRecord
100
AcDbBlockTableRecord
  2
*PAPER_SPACE
340
166A8
  0
BLOCK_RECORD
  5
F770
330
7466
100
AcDbSymbolTableRecord
100
AcDbBlockTableRecord
  2
_DOTSMALL
340
0
102
{BLKREFS
331
16551
331
16552
331
16487
331
16488
331
16494
331
16495
331
1653B
331
1653C
331
164AA
331
164AB
331
164BF
331
164C0
331
164D7
331
164D8
331
164E6
331
164E7
331
164F4
331
164F5
331
16500
331
16501
331
16FEA
331
16FEB
331
16FF4
331
16FF5
331
16FFF
331
17000
331
17008
331
17009
331
17060
331
17061
331
17074
331
17075
331
1707E
331
1707F
331
1709B
331
1709C
331
170A5
331
170A6
331
170AE
331
170AF
331
1852E
331
1852F
331
18537
331
18538
331
1854C
331
1854D
331
18557
331
18558
331
18560
331
18561
331
18804
331
18805
331
18AC4
331
18AC5
331
18ACD
331
18ACE
331
18AD7
331
18AD8
331
18AE0
331
18AE1
331
18AEB
331
18AEC
331
18AFE
331
18AFF
331
18B0A
331
18B0B
102
}
  0
BLOCK_RECORD
  5
163A5
330
7466
100
AcDbSymbolTableRecord
100
AcDbBlockTableRecord
  2
*D1
340
0
  0
BLOCK_RECORD
  5
163B1
330
7466
100
AcDbSymbolTableRecord
100
AcDbBlockTableRecord
  2
*D2
340
0
  0
BLOCK_RECORD
  5
163BF
330
7466
100
AcDbSymbolTableRecord
100
AcDbBlockTableRecord
  2
*D3
340
0
  0
BLOCK_RECORD
  5
163CD
330
7466
100
AcDbSymbolTableRecord
100
AcDbBlockTableRecord
  2
*D4
340
0
  0
BLOCK_RECORD
  5
163D9
330
7466
100
AcDbSymbolTableRecord
100
AcDbBlockTableRecord
  2
*D5
340
0
  0
BLOCK_RECORD
  5
163F1
330
7466
100
AcDbSymbolTableRecord
100
AcDbBlockTableRecord
  2
*D6
340
0
  0
BLOCK_RECORD
  5
163FC
330
7466
100
AcDbSymbolTableRecord
100
AcDbBlockTableRecord
  2
*D7
340
0
  0
BLOCK_RECORD
  5
16408
330
7466
100
AcDbSymbolTableRecord
100
AcDbBlockTableRecord
  2
*D8
340
0
  0
BLOCK_RECORD
  5
16416
330
7466
100
AcDbSymbolTableRecord
100
AcDbBlockTableRecord
  2
*D9
340
0
  0
BLOCK_RECORD
  5
16425
330
7466
100
AcDbSymbolTableRecord
100
AcDbBlockTableRecord
  2
*D10
340
0
  0
BLOCK_RECORD
  5
16434
330
7466
100
AcDbSymbolTableRecord
100
AcDbBlockTableRecord
  2
*D11
340
0
  0
BLOCK_RECORD
  5
1644E
330
7466
100
AcDbSymbolTableRecord
100
AcDbBlockTableRecord
  2
*D12
340
0
  0
BLOCK_RECORD
  5
1645A
330
7466
100
AcDbSymbolTableRecord
100
AcDbBlockTableRecord
  2
*D13
340
0
  0
BLOCK_RECORD
  5
16468
330
7466
100
AcDbSymbolTableRecord
100
AcDbBlockTableRecord
  2
*D14
340
0
  0
BLOCK_RECORD
  5
16CDE
330
7466
100
AcDbSymbolTableRecord
100
AcDbBlockTableRecord
  2
*D15
340
0
  0
BLOCK_RECORD
  5
16CEC
330
7466
100
AcDbSymbolTableRecord
100
AcDbBlockTableRecord
  2
*D16
340
0
  0
BLOCK_RECORD
  5
16CF8
330
7466
100
AcDbSymbolTableRecord
100
AcDbBlockTableRecord
  2
*D17
340
0
  0
BLOCK_RECORD
  5
16D06
330
7466
100
AcDbSymbolTableRecord
100
AcDbBlockTableRecord
  2
*D18
340
0
  0
BLOCK_RECORD
  5
16E16
330
7466
100
AcDbSymbolTableRecord
100
AcDbBlockTableRecord
  2
*D19
340
0
  0
BLOCK_RECORD
  5
16E22
330
7466
100
AcDbSymbolTableRecord
100
AcDbBlockTableRecord
  2
*D20
340
0
  0
BLOCK_RECORD
  5
16E30
330
7466
100
AcDbSymbolTableRecord
100
AcDbBlockTableRecord
  2
*D21
340
0
  0
BLOCK_RECORD
  5
16E3D
330
7466
100
AcDbSymbolTableRecord
100
AcDbBlockTableRecord
  2
*D22
340
0
  0
BLOCK_RECORD
  5
16E49
330
7466
100
AcDbSymbolTableRecord
100
AcDbBlockTableRecord
  2
*D23
340
0
  0
BLOCK_RECORD
  5
16E55
330
7466
100
AcDbSymbolTableRecord
100
AcDbBlockTableRecord
  2
*D24
340
0
  0
BLOCK_RECORD
  5
16E62
330
7466
100
AcDbSymbolTableRecord
100
AcDbBlockTableRecord
  2
*D25
340
0
  0
BLOCK_RECORD
  5
16E70
330
7466
100
AcDbSymbolTableRecord
100
AcDbBlockTableRecord
  2
*D26
340
0
  0
BLOCK_RECORD
  5
16E7C
330
7466
100
AcDbSymbolTableRecord
100
AcDbBlockTableRecord
  2
*D27
340
0
  0
BLOCK_RECORD
  5
16E88
330
7466
100
AcDbSymbolTableRecord
100
AcDbBlockTableRecord
  2
*D28
340
0
  0
BLOCK_RECORD
  5
183E5
330
7466
100
AcDbSymbolTableRecord
100
AcDbBlockTableRecord
  2
*D29
340
0
  0
BLOCK_RECORD
  5
18440
330
7466
100
AcDbSymbolTableRecord
100
AcDbBlockTableRecord
  2
*D30
340
0
  0
BLOCK_RECORD
  5
18736
330
7466
100
AcDbSymbolTableRecord
100
AcDbBlockTableRecord
  2
*D31
340
0
  0
BLOCK_RECORD
  5
18742
330
7466
100
AcDbSymbolTableRecord
100
AcDbBlockTableRecord
  2
*D32
340
0
  0
BLOCK_RECORD
  5
18750
330
7466
100
AcDbSymbolTableRecord
100
AcDbBlockTableRecord
  2
*D33
340
0
  0
ENDTAB
  0
ENDSEC
  0
SECTION
  2
BLOCKS
  0
BLOCK
  5
7489
330
747D
100
AcDbEntity
  8
0
100
AcDbBlockBegin
  2
*MODEL_SPACE
 70
     0
 10
0.0
 20
0.0
 30
0.0
  3
*MODEL_SPACE
  1

  0
ENDBLK
  5
748A
330
747D
100
AcDbEntity
  8
0
100
AcDbBlockEnd
  0
BLOCK
  5
7487
330
747A
100
AcDbEntity
 67
     1
  8
0
100
AcDbBlockBegin
  2
*PAPER_SPACE
 70
     0
 10
0.0
 20
0.0
 30
0.0
  3
*PAPER_SPACE
  1

  0
ENDBLK
  5
7488
330
747A
100
AcDbEntity
 67
     1
  8
0
100
AcDbBlockEnd
  0
BLOCK
  5
F771
330
F770
100
AcDbEntity
  8
0
 48
50.0
100
AcDbBlockBegin
  2
_DOTSMALL
 70
     0
 10
0.0
 20
0.0
 30
0.0
  3
_DOTSMALL
  1

  0
LWPOLYLINE
  5
F772
330
F770
100
AcDbEntity
  8
0
  6
ByBlock
 62
     0
 48
50.0
100
AcDbPolyline
 90
        2
 70
     1
 43
0.5
 10
-0.0625
 20
0.0
 42
1.0
 10
0.0625
 20
0.0
 42
1.0
  0
ENDBLK
  5
F776
330
F770
100
AcDbEntity
  8
0
 48
50.0
100
AcDbBlockEnd
  0
BLOCK
  5
1654D
330
163A5
100
AcDbEntity
  8
0
 48
50.0
100
AcDbBlockBegin
  2
*D1
 70
     1
 10
0.0
 20
0.0
 30
0.0
  3
*D1
  1

  0
LINE
  5
1654E
330
163A5
100
AcDbEntity
  8
0
  6
ByBlock
 62
     0
 48
50.0
100
AcDbLine
 10
7394.673057123664
 20
9137.497424546037
 30
0.0
 11
8082.099402858071
 21
9137.497424546037
 31
0.0
  0
LINE
  5
1654F
330
163A5
100
AcDbEntity
  8
0
  6
ByBlock
 62
     0
 48
50.0
100
AcDbLine
 10
7394.673057123639
 20
7037.497424546022
 30
0.0
 11
8082.099402858069
 21
7037.497424546021
 31
0.0
  0
LINE
  5
16550
330
163A5
100
AcDbEntity
  8
0
  6
ByBlock
 62
     0
 48
50.0
100
AcDbLine
 10
8022.099402858071
 20
9137.497424546037
 30
0.0
 11
8022.099402858071
 21
7037.497424546021
 31
0.0
  0
INSERT
  5
16551
330
163A5
100
AcDbEntity
  8
0
  6
ByBlock
 62
     0
 48
50.0
100
AcDbBlockReference
  2
_DOTSMALL
 10
8022.099402858071
 20
9137.497424546037
 30
0.0
 41
100.0
 42
100.0
 43
100.0
 50
90.0
  0
INSERT
  5
16552
330
163A5
100
AcDbEntity
  8
0
  6
ByBlock
 62
     0
 48
50.0
100
AcDbBlockReference
  2
_DOTSMALL
 10
8022.099402858071
 20
7037.497424546021
 30
0.0
 41
100.0
 42
100.0
 43
100.0
 50
270.0
  0
MTEXT
  5
16553
330
163A5
100
AcDbEntity
  8
0
  6
ByBlock
 62
     7
 48
50.0
100
AcDbMText
 10
7922.087591834449
 20
8087.497424546027
 30
0.0
 40
120.0
 41
0.0
 71
     5
 72
     1
  1
\A1;5X420=2100
  7
STYLE1
 11
0.0000000000000001
 21
1.0
 31
0.0
 73
     1
 44
1.0
1001
ACAD
1000
MTEXTBEGIN
1070
    73
1070
     1
1070
    44
1040
1.0
1070
    74
1070
     0
1000
MTEXTEND
  0
POINT
  5
16554
330
163A5
100
AcDbEntity
  8
DEFPOINTS
  6
ByBlock
 62
     0
 48
50.0
100
AcDbPoint
 10
7374.673057123664
 20
9137.497424546037
 30
0.0
  0
POINT
  5
16555
330
163A5
100
AcDbEntity
  8
DEFPOINTS
  6
ByBlock
 62
     0
 48
50.0
100
AcDbPoint
 10
7374.673057123638
 20
7037.497424546022
 30
0.0
  0
POINT
  5
16556
330
163A5
100
AcDbEntity
  8
DEFPOINTS
  6
ByBlock
 62
     0
 48
50.0
100
AcDbPoint
 10
8022.099402858071
 20
7037.497424546021
 30
0.0
  0
ENDBLK
  5
16557
330
163A5
100
AcDbEntity
  8
0
 48
50.0
100
AcDbBlockEnd
  0
BLOCK
  5
16481
330
163B1
100
AcDbEntity
  8
0
 48
50.0
100
AcDbBlockBegin
  2
*D2
 70
     1
 10
0.0
 20
0.0
 30
0.0
  3
*D2
  1

  0
LINE
  5
16482
330
163B1
100
AcDbEntity
  8
0
  6
ByBlock
 62
     0
 48
50.0
100
AcDbLine
 10
7394.673057123639
 20
7037.497424546022
 30
0.0
 11
8082.099402858048
 21
7037.497424546021
 31
0.0
  0
LINE
  5
16483
330
163B1
100
AcDbEntity
  8
0
  6
ByBlock
 62
     0
 48
50.0
100
AcDbLine
 10
7394.673057123639
 20
6982.497424546025
 30
0.0
 11
8082.099402858048
 21
6982.497424546024
 31
0.0
  0
LINE
  5
16484
330
163B1
100
AcDbEntity
  8
0
  6
ByBlock
 62
     0
 48
50.0
100
AcDbLine
 10
8022.099402858048
 20
7037.497424546021
 30
0.0
 11
8022.099402858048
 21
7137.497424546021
 31
0.0
  0
LINE
  5
16485
330
163B1
100
AcDbEntity
  8
0
  6
ByBlock
 62
     0
 48
50.0
100
AcDbLine
 10
8022.099402858048
 20
6982.497424546024
 30
0.0
 11
8022.099402858048
 21
6496.150676266925
 31
0.0
  0
LINE
  5
16486
330
163B1
100
AcDbEntity
  8
0
  6
ByBlock
 62
     0
 48
50.0
100
AcDbLine
 10
8022.099402858048
 20
7037.497424546021
 30
0.0
 11
8022.099402858048
 21
6982.497424546024
 31
0.0
  0
INSERT
  5
16487
330
163B1
100
AcDbEntity
  8
0
  6
ByBlock
 62
     0
 48
50.0
100
AcDbBlockReference
  2
_DOTSMALL
 10
8022.099402858048
 20
7037.497424546021
 30
0.0
 41
100.0
 42
100.0
 43
100.0
 50
270.0
  0
INSERT
  5
16488
330
163B1
100
AcDbEntity
  8
0
  6
ByBlock
 62
     0
 48
50.0
100
AcDbBlockReference
  2
_DOTSMALL
 10
8022.099402858048
 20
6982.497424546024
 30
0.0
 41
100.0
 42
100.0
 43
100.0
 50
90.0
  0
MTEXT
  5
16489
330
163B1
100
AcDbEntity
  8
0
  6
ByBlock
 62
     7
 48
50.0
100
AcDbMText
 10
7922.099402858048
 20
6604.635957641163
 30
0.0
 40
120.0
 41
0.0
 71
     5
 72
     1
  1
\A1;55
  7
STYLE1
 11
0.0000000000000001
 21
1.0
 31
0.0
 73
     1
 44
1.0
1001
ACAD
1000
MTEXTBEGIN
1070
    73
1070
     1
1070
    44
1040
1.0
1070
    74
1070
     0
1000
MTEXTEND
  0
POINT
  5
1648A
330
163B1
100
AcDbEntity
  8
DEFPOINTS
  6
ByBlock
 62
     0
 48
50.0
100
AcDbPoint
 10
7374.673057123638
 20
7037.497424546022
 30
0.0
  0
POINT
  5
1648B
330
163B1
100
AcDbEntity
  8
DEFPOINTS
  6
ByBlock
 62
     0
 48
50.0
100
AcDbPoint
 10
7374.673057123638
 20
6982.497424546025
 30
0.0
  0
POINT
  5
1648C
330
163B1
100
AcDbEntity
  8
DEFPOINTS
  6
ByBlock
 62
     0
 48
50.0
100
AcDbPoint
 10
8022.099402858048
 20
6982.497424546024
 30
0.0
  0
ENDBLK
  5
1648D
330
163B1
100
AcDbEntity
  8
0
 48
50.0
100
AcDbBlockEnd
  0
BLOCK
  5
1648E
330
163BF
100
AcDbEntity
  8
0
 48
50.0
100
AcDbBlockBegin
  2
*D3
 70
     1
 10
0.0
 20
0.0
 30
0.0
  3
*D3
  1

  0
LINE
  5
1648F
330
163BF
100
AcDbEntity
  8
0
  6
ByBlock
 62
     0
 48
50.0
100
AcDbLine
 10
7394.673057123664
 20
10032.49742454603
 30
0.0
 11
8082.099402858075
 21
10032.49742454603
 31
0.0
  0
LINE
  5
16490
330
163BF
100
AcDbEntity
  8
0
  6
ByBlock
 62
     0
 48
50.0
100
AcDbLine
 10
7394.673057123664
 20
9977.497424546037
 30
0.0
 11
8082.099402858075
 21
9977.497424546037
 31
0.0
  0
LINE
  5
16491
330
163BF
100
AcDbEntity
  8
0
  6
ByBlock
 62
     0
 48
50.0
100
AcDbLine
 10
8022.099402858072
 20
9977.497424546037
 30
0.0
 11
8022.099402858072
 21
9877.497424546037
 31
0.0
  0
LINE
  5
16492
330
163BF
100
AcDbEntity
  8
0
  6
ByBlock
 62
     0
 48
50.0
100
AcDbLine
 10
8022.099402858072
 20
10032.49742454603
 30
0.0
 11
8022.099402858072
 21
10449.46798729451
 31
0.0
  0
LINE
  5
16493
330
163BF
100
AcDbEntity
  8
0
  6
ByBlock
 62
     0
 48
50.0
100
AcDbLine
 10
8022.099402858072
 20
9977.497424546037
 30
0.0
 11
8022.099402858072
 21
10032.49742454603
 31
0.0
  0
INSERT
  5
16494
330
163BF
100
AcDbEntity
  8
0
  6
ByBlock
 62
     0
 48
50.0
100
AcDbBlockReference
  2
_DOTSMALL
 10
8022.099402858072
 20
9977.497424546037
 30
0.0
 41
100.0
 42
100.0
 43
100.0
 50
90.0
  0
INSERT
  5
16495
330
163BF
100
AcDbEntity
  8
0
  6
ByBlock
 62
     0
 48
50.0
100
AcDbBlockReference
  2
_DOTSMALL
 10
8022.099402858072
 20
10032.49742454603
 30
0.0
 41
100.0
 42
100.0
 43
100.0
 50
270.0
  0
MTEXT
  5
16496
330
163BF
100
AcDbEntity
  8
0
  6
ByBlock
 62
     7
 48
50.0
100
AcDbMText
 10
7922.099402858073
 20
10340.98270592027
 30
0.0
 40
120.0
 41
0.0
 71
     5
 72
     1
  1
\A1;55
  7
STYLE1
 11
0.0000000000000001
 21
1.0
 31
0.0
 73
     1
 44
1.0
1001
ACAD
1000
MTEXTBEGIN
1070
    73
1070
     1
1070
    44
1040
1.0
1070
    74
1070
     0
1000
MTEXTEND
  0
POINT
  5
16497
330
163BF
100
AcDbEntity
  8
DEFPOINTS
  6
ByBlock
 62
     0
 48
50.0
100
AcDbPoint
 10
7374.673057123664
 20
10032.49742454603
 30
0.0
  0
POINT
  5
16498
330
163BF
100
AcDbEntity
  8
DEFPOINTS
  6
ByBlock
 62
     0
 48
50.0
100
AcDbPoint
 10
7374.673057123664
 20
9977.497424546037
 30
0.0
  0
POINT
  5
16499
330
163BF
100
AcDbEntity
  8
DEFPOINTS
  6
ByBlock
 62
     0
 48
50.0
100
AcDbPoint
 10
8022.099402858072
 20
9977.497424546037
 30
0.0
  0
ENDBLK
  5
1649A
330
163BF
100
AcDbEntity
  8
0
 48
50.0
100
AcDbBlockEnd
  0
BLOCK
  5
16537
330
163CD
100
AcDbEntity
  8
0
 48
50.0
100
AcDbBlockBegin
  2
*D4
 70
     1
 10
0.0
 20
0.0
 30
0.0
  3
*D4
  1

  0
LINE
  5
16538
330
163CD
100
AcDbEntity
  8
0
  6
ByBlock
 62
     0
 48
50.0
100
AcDbLine
 10
7394.673057123664
 20
9192.497424546033
 30
0.0
 11
8447.206344597709
 21
9192.497424546033
 31
0.0
  0
LINE
  5
16539
330
163CD
100
AcDbEntity
  8
0
  6
ByBlock
 62
     0
 48
50.0
100
AcDbLine
 10
7394.673057123639
 20
6982.497424546025
 30
0.0
 11
8447.206344597709
 21
6982.497424546024
 31
0.0
  0
LINE
  5
1653A
330
163CD
100
AcDbEntity
  8
0
  6
ByBlock
 62
     0
 48
50.0
100
AcDbLine
 10
8387.206344597709
 20
9192.497424546033
 30
0.0
 11
8387.206344597709
 21
6982.497424546024
 31
0.0
  0
INSERT
  5
1653B
330
163CD
100
AcDbEntity
  8
0
  6
ByBlock
 62
     0
 48
50.0
100
AcDbBlockReference
  2
_DOTSMALL
 10
8387.206344597709
 20
9192.497424546033
 30
0.0
 41
100.0
 42
100.0
 43
100.0
 50
90.0
  0
INSERT
  5
1653C
330
163CD
100
AcDbEntity
  8
0
  6
ByBlock
 62
     0
 48
50.0
100
AcDbBlockReference
  2
_DOTSMALL
 10
8387.206344597709
 20
6982.497424546024
 30
0.0
 41
100.0
 42
100.0
 43
100.0
 50
270.0
  0
MTEXT
  5
1653D
330
163CD
100
AcDbEntity
  8
0
  6
ByBlock
 62
     7
 48
50.0
100
AcDbMText
 10
8287.194533574087
 20
8087.497424546027
 30
0.0
 40
120.0
 41
0.0
 71
     5
 72
     1
  1
\A1;2210
  7
STYLE1
 11
0.0000000000000001
 21
1.0
 31
0.0
 73
     1
 44
1.0
1001
ACAD
1000
MTEXTBEGIN
1070
    73
1070
     1
1070
    44
1040
1.0
1070
    74
1070
     0
1000
MTEXTEND
  0
POINT
  5
1653E
330
163CD
100
AcDbEntity
  8
DEFPOINTS
  6
ByBlock
 62
     0
 48
50.0
100
AcDbPoint
 10
7374.673057123664
 20
9192.497424546033
 30
0.0
  0
POINT
  5
1653F
330
163CD
100
AcDbEntity
  8
DEFPOINTS
  6
ByBlock
 62
     0
 48
50.0
100
AcDbPoint
 10
7374.673057123638
 20
6982.497424546025
 30
0.0
  0
POINT
  5
16540
330
163CD
100
AcDbEntity
  8
DEFPOINTS
  6
ByBlock
 62
     0
 48
50.0
100
AcDbPoint
 10
8387.206344597709
 20
6982.497424546024
 30
0.0
  0
ENDBLK
  5
16541
330
163CD
100
AcDbEntity
  8
0
 48
50.0
100
AcDbBlockEnd
  0
BLOCK
  5
164A6
330
163D9
100
AcDbEntity
  8
0
 48
50.0
100
AcDbBlockBegin
  2
*D5
 70
     1
 10
0.0
 20
0.0
 30
0.0
  3
*D5
  1

  0
LINE
  5
164A7
330
163D9
100
AcDbEntity
  8
0
  6
ByBlock
 62
     0
 48
50.0
100
AcDbLine
 10
7366.173057123664
 20
9997.138440697412
 30
0.0
 11
7761.530782985689
 21
9891.202657331277
 31
0.0
  0
LINE
  5
164A8
330
163D9
100
AcDbEntity
  8
0
  6
ByBlock
 62
     0
 48
50.0
100
AcDbLine
 10
7366.173057123664
 20
9547.138440697414
 30
0.0
 11
7761.530782985689
 21
9441.202657331279
 31
0.0
  0
LINE
  5
164A9
330
163D9
100
AcDbEntity
  8
0
  6
ByBlock
 62
     0
 48
50.0
100
AcDbLine
 10
7701.530782985688
 20
9907.279608877143
 30
0.0
 11
7701.530782985688
 21
9457.279608877147
 31
0.0
  0
INSERT
  5
164AA
330
163D9
100
AcDbEntity
  8
0
  6
ByBlock
 62
     0
 48
50.0
100
AcDbBlockReference
  2
_DOTSMALL
 10
7701.530782985688
 20
9907.279608877143
 30
0.0
 41
100.0
 42
100.0
 43
100.0
 50
90.0
  0
INSERT
  5
164AB
330
163D9
100
AcDbEntity
  8
0
  6
ByBlock
 62
     0
 48
50.0
100
AcDbBlockReference
  2
_DOTSMALL
 10
7701.530782985688
 20
9457.279608877147
 30
0.0
 41
100.0
 42
100.0
 43
100.0
 50
270.0
  0
MTEXT
  5
164AC
330
163D9
100
AcDbEntity
  8
0
  6
ByBlock
 62
     7
 48
50.0
100
AcDbMText
 10
7601.530782985688
 20
9682.279608877145
 30
0.0
 40
120.0
 41
0.0
 71
     5
 72
     1
  1
\A1;450
  7
STYLE1
 11
0.0000000000000001
 21
1.0
 31
0.0
 73
     1
 44
1.0
1001
ACAD
1000
MTEXTBEGIN
1070
    73
1070
     1
1070
    44
1040
1.0
1070
    74
1070
     0
1000
MTEXTEND
  0
POINT
  5
164AD
330
163D9
100
AcDbEntity
  8
DEFPOINTS
  6
ByBlock
 62
     0
 48
50.0
100
AcDbPoint
 10
7346.173057123664
 20
10002.49742454603
 30
0.0
  0
POINT
  5
164AE
330
163D9
100
AcDbEntity
  8
DEFPOINTS
  6
ByBlock
 62
     0
 48
50.0
100
AcDbPoint
 10
7346.173057123664
 20
9552.497424546038
 30
0.0
  0
POINT
  5
164AF
330
163D9
100
AcDbEntity
  8
DEFPOINTS
  6
ByBlock
 62
     0
 48
50.0
100
AcDbPoint
 10
7701.530782985688
 20
9457.279608877147
 30
0.0
  0
ENDBLK
  5
164B0
330
163D9
100
AcDbEntity
  8
0
 48
50.0
100
AcDbBlockEnd
  0
BLOCK
  5
164BC
330
163F1
100
AcDbEntity
  8
0
 48
50.0
100
AcDbBlockBegin
  2
*D6
 70
     1
 10
0.0
 20
0.0
 30
0.0
  3
*D6
  1

  0
LINE
  5
164BD
330
163F1
100
AcDbEntity
  8
0
  6
ByBlock
 62
     0
 48
50.0
100
AcDbLine
 10
4847.673057123657
 20
6988.497424545933
 30
0.0
 11
4847.673057123657
 21
6388.06665377977
 31
0.0
  0
LINE
  5
164BE
330
163F1
100
AcDbEntity
  8
0
  6
ByBlock
 62
     0
 48
50.0
100
AcDbLine
 10
7271.673057123638
 20
6448.06665377977
 30
0.0
 11
4847.673057123657
 21
6448.06665377977
 31
0.0
  0
INSERT
  5
164BF
330
163F1
100
AcDbEntity
  8
0
  6
ByBlock
 62
     0
 48
50.0
100
AcDbBlockReference
  2
_DOTSMALL
 10
7271.673057123638
 20
6448.06665377977
 30
0.0
 41
100.0
 42
100.0
 43
100.0
  0
INSERT
  5
164C0
330
163F1
100
AcDbEntity
  8
0
  6
ByBlock
 62
     0
 48
50.0
100
AcDbBlockReference
  2
_DOTSMALL
 10
4847.673057123657
 20
6448.06665377977
 30
0.0
 41
100.0
 42
100.0
 43
100.0
 50
180.0
  0
MTEXT
  5
164C1
330
163F1
100
AcDbEntity
  8
0
  6
ByBlock
 62
     7
 48
50.0
100
AcDbMText
 10
6059.673057123648
 20
6548.078464803392
 30
0.0
 40
120.0
 41
0.0
 71
     5
 72
     1
  1
\A1;有効開口部間口 2424
  7
STYLE1
 73
     1
 44
1.0
1001
ACAD
1000
MTEXTBEGIN
1070
    73
1070
     1
1070
    44
1040
1.0
1070
    74
1070
     0
1000
MTEXTEND
  0
POINT
  5
164C2
330
163F1
100
AcDbEntity
  8
DEFPOINTS
  6
ByBlock
 62
     0
 48
50.0
100
AcDbPoint
 10
7271.673057123638
 20
7008.497424545935
 30
0.0
  0
POINT
  5
164C3
330
163F1
100
AcDbEntity
  8
DEFPOINTS
  6
ByBlock
 62
     0
 48
50.0
100
AcDbPoint
 10
4847.673057123657
 20
7008.497424545933
 30
0.0
  0
POINT
  5
164C4
330
163F1
100
AcDbEntity
  8
DEFPOINTS
  6
ByBlock
 62
     0
 48
50.0
100
AcDbPoint
 10
4847.673057123657
 20
6448.06665377977
 30
0.0
  0
ENDBLK
  5
164C5
330
163F1
100
AcDbEntity
  8
0
 48
50.0
100
AcDbBlockEnd
  0
BLOCK
  5
164C6
330
163FC
100
AcDbEntity
  8
0
 48
50.0
100
AcDbBlockBegin
  2
*D7
 70
     1
 10
0.0
 20
0.0
 30
0.0
  3
*D7
  1

  0
LINE
  5
18AE8
330
163FC
100
AcDbEntity
  8
寸法
 62
     0
 48
50.0
370
    -2
100
AcDbLine
 10
4744.673057123656
 20
6962.497424545862
 30
0.0
 11
4744.673057123656
 21
6101.893658188895
 31
0.0
  0
LINE
  5
18AE9
330
163FC
100
AcDbEntity
  8
寸法
 62
     0
 48
50.0
370
    -2
100
AcDbLine
 10
7374.673057123638
 20
6962.49742454599
 30
0.0
 11
7374.673057123638
 21
6101.893658188895
 31
0.0
  0
LINE
  5
18AEA
330
163FC
100
AcDbEntity
  8
寸法
 62
     0
 48
50.0
370
    -2
100
AcDbLine
 10
4744.673057123656
 20
6161.893658188896
 30
0.0
 11
7374.673057123638
 21
6161.893658188896
 31
0.0
  0
INSERT
  5
18AEB
330
163FC
100
AcDbEntity
  8
寸法
 62
     0
 48
50.0
370
    -2
100
AcDbBlockReference
  2
_DOTSMALL
 10
4744.673057123656
 20
6161.893658188896
 30
0.0
 41
100.0
 42
100.0
 43
100.0
 50
180.0
  0
INSERT
  5
18AEC
330
163FC
100
AcDbEntity
  8
寸法
 62
     0
 48
50.0
370
    -2
100
AcDbBlockReference
  2
_DOTSMALL
 10
7374.673057123638
 20
6161.893658188896
 30
0.0
 41
100.0
 42
100.0
 43
100.0
  0
MTEXT
  5
18AED
330
163FC
100
AcDbEntity
  8
寸法
 62
     7
 48
50.0
100
AcDbMText
 10
6059.673057123648
 20
6261.905469212518
 30
0.0
 40
120.0
 41
0.0
 71
     5
 72
     1
  1
\A1;2630
  7
STYLE1
 73
     1
 44
1.0
1001
ACAD
1000
MTEXTBEGIN
1070
    73
1070
     1
1070
    44
1040
1.0
1070
    74
1070
     0
1000
MTEXTEND
  0
POINT
  5
18AEE
330
163FC
100
AcDbEntity
  8
DEFPOINTS
 62
     0
 48
50.0
100
AcDbPoint
 10
4744.673057123656
 20
6982.497424545861
 30
0.0
  0
POINT
  5
18AEF
330
163FC
100
AcDbEntity
  8
DEFPOINTS
 62
     0
 48
50.0
100
AcDbPoint
 10
7374.673057123638
 20
6982.497424545988
 30
0.0
  0
POINT
  5
18AF0
330
163FC
100
AcDbEntity
  8
DEFPOINTS
 62
     0
 48
50.0
100
AcDbPoint
 10
7374.673057123638
 20
6161.893658188896
 30
0.0
  0
ENDBLK
  5
164D0
330
163FC
100
AcDbEntity
  8
0
 48
50.0
100
AcDbBlockEnd
  0
BLOCK
  5
164D1
330
16408
100
AcDbEntity
  8
0
 48
50.0
100
AcDbBlockBegin
  2
*D8
 70
     1
 10
0.0
 20
0.0
 30
0.0
  3
*D8
  1

  0
LINE
  5
164D2
330
16408
100
AcDbEntity
  8
0
  6
ByBlock
 62
     0
 48
50.0
100
AcDbLine
 10
4799.673057123653
 20
6962.497424545934
 30
0.0
 11
4799.673057123653
 21
6388.06665377977
 31
0.0
  0
LINE
  5
164D3
330
16408
100
AcDbEntity
  8
0
  6
ByBlock
 62
     0
 48
50.0
100
AcDbLine
 10
4744.673057123656
 20
6962.497424545931
 30
0.0
 11
4744.673057123656
 21
6388.06665377977
 31
0.0
  0
LINE
  5
164D4
330
16408
100
AcDbEntity
  8
0
  6
ByBlock
 62
     0
 48
50.0
100
AcDbLine
 10
4799.673057123653
 20
6448.06665377977
 30
0.0
 11
4899.673057123653
 21
6448.06665377977
 31
0.0
  0
LINE
  5
164D5
330
16408
100
AcDbEntity
  8
0
  6
ByBlock
 62
     0
 48
50.0
100
AcDbLine
 10
4744.673057123656
 20
6448.06665377977
 30
0.0
 11
4327.70249437518
 21
6448.06665377977
 31
0.0
  0
LINE
  5
164D6
330
16408
100
AcDbEntity
  8
0
  6
ByBlock
 62
     0
 48
50.0
100
AcDbLine
 10
4799.673057123653
 20
6448.06665377977
 30
0.0
 11
4744.673057123656
 21
6448.06665377977
 31
0.0
  0
INSERT
  5
164D7
330
16408
100
AcDbEntity
  8
0
  6
ByBlock
 62
     0
 48
50.0
100
AcDbBlockReference
  2
_DOTSMALL
 10
4799.673057123653
 20
6448.06665377977
 30
0.0
 41
100.0
 42
100.0
 43
100.0
 50
180.0
  0
INSERT
  5
164D8
330
16408
100
AcDbEntity
  8
0
  6
ByBlock
 62
     0
 48
50.0
100
AcDbBlockReference
  2
_DOTSMALL
 10
4744.673057123656
 20
6448.06665377977
 30
0.0
 41
100.0
 42
100.0
 43
100.0
  0
MTEXT
  5
164D9
330
16408
100
AcDbEntity
  8
0
  6
ByBlock
 62
     7
 48
50.0
100
AcDbMText
 10
4436.187775749418
 20
6548.06665377977
 30
0.0
 40
120.0
 41
0.0
 71
     5
 72
     1
  1
\A1;55
  7
STYLE1
 73
     1
 44
1.0
1001
ACAD
1000
MTEXTBEGIN
1070
    73
1070
     1
1070
    44
1040
1.0
1070
    74
1070
     0
1000
MTEXTEND
  0
POINT
  5
164DA
330
16408
100
AcDbEntity
  8
DEFPOINTS
  6
ByBlock
 62
     0
 48
50.0
100
AcDbPoint
 10
4799.673057123653
 20
6982.497424545933
 30
0.0
  0
POINT
  5
164DB
330
16408
100
AcDbEntity
  8
DEFPOINTS
  6
ByBlock
 62
     0
 48
50.0
100
AcDbPoint
 10
4744.673057123656
 20
6982.49742454593
 30
0.0
  0
POINT
  5
164DC
330
16408
100
AcDbEntity
  8
DEFPOINTS
  6
ByBlock
 62
     0
 48
50.0
100
AcDbPoint
 10
4744.673057123656
 20
6448.06665377977
 30
0.0
  0
ENDBLK
  5
164DD
330
16408
100
AcDbEntity
  8
0
 48
50.0
100
AcDbBlockEnd
  0
BLOCK
  5
164DE
330
16416
100
AcDbEntity
  8
0
 48
50.0
100
AcDbBlockBegin
  2
*D9
 70
     1
 10
0.0
 20
0.0
 30
0.0
  3
*D9
  1

  0
LINE
  5
164DF
330
16416
100
AcDbEntity
  8
0
  6
ByBlock
 62
     0
 48
50.0
100
AcDbLine
 10
4847.673057123657
 20
6988.497424545933
 30
0.0
 11
4847.673057123657
 21
6388.06665377977
 31
0.0
  0
LINE
  5
164E0
330
16416
100
AcDbEntity
  8
0
  6
ByBlock
 62
     0
 48
50.0
100
AcDbLine
 10
4799.673057123653
 20
6962.497424545934
 30
0.0
 11
4799.673057123653
 21
6388.06665377977
 31
0.0
  0
LINE
  5
164E1
330
16416
100
AcDbEntity
  8
0
  6
ByBlock
 62
     0
 48
50.0
100
AcDbLine
 10
4847.673057123657
 20
6448.06665377977
 30
0.0
 11
4947.673057123656
 21
6448.06665377977
 31
0.0
  0
LINE
  5
164E2
330
16416
100
AcDbEntity
  8
0
  6
ByBlock
 62
     0
 48
50.0
100
AcDbLine
 10
4799.673057123653
 20
6448.06665377977
 30
0.0
 11
4699.673057123653
 21
6448.06665377977
 31
0.0
  0
MTEXT
  5
164E3
330
16416
100
AcDbEntity
  8
0
  6
ByBlock
 62
     7
 48
50.0
100
AcDbMText
 10
4960.575028123714
 20
6548.06665377977
 30
0.0
 40
120.0
 41
0.0
 71
     5
 72
     1
  1
\A1;48
  7
STYLE1
 73
     1
 44
1.0
1001
ACAD
1000
MTEXTBEGIN
1070
    73
1070
     1
1070
    44
1040
1.0
1070
    74
1070
     0
1000
MTEXTEND
  0
LINE
  5
164E4
330
16416
100
AcDbEntity
  8
0
  6
ByBlock
 62
     0
 48
50.0
100
AcDbLine
 10
4847.673057123657
 20
6448.06665377977
 30
0.0
 11
4799.673057123653
 21
6448.06665377977
 31
0.0
  0
LINE
  5
164E5
330
16416
100
AcDbEntity
  8
0
  6
ByBlock
 62
     0
 48
50.0
100
AcDbLine
 10
4847.673057123657
 20
6448.06665377977
 30
0.0
 11
4799.673057123653
 21
6448.06665377977
 31
0.0
  0
INSERT
  5
164E6
330
16416
100
AcDbEntity
  8
0
  6
ByBlock
 62
     0
 48
50.0
100
AcDbBlockReference
  2
_DOTSMALL
 10
4847.673057123657
 20
6448.06665377977
 30
0.0
 41
100.0
 42
100.0
 43
100.0
 50
180.0
  0
INSERT
  5
164E7
330
16416
100
AcDbEntity
  8
0
  6
ByBlock
 62
     0
 48
50.0
100
AcDbBlockReference
  2
_DOTSMALL
 10
4799.673057123653
 20
6448.06665377977
 30
0.0
 41
100.0
 42
100.0
 43
100.0
  0
POINT
  5
164E8
330
16416
100
AcDbEntity
  8
DEFPOINTS
  6
ByBlock
 62
     0
 48
50.0
100
AcDbPoint
 10
4847.673057123657
 20
7008.497424545933
 30
0.0
  0
POINT
  5
164E9
330
16416
100
AcDbEntity
  8
DEFPOINTS
  6
ByBlock
 62
     0
 48
50.0
100
AcDbPoint
 10
4799.673057123653
 20
6982.497424545933
 30
0.0
  0
POINT
  5
164EA
330
16416
100
AcDbEntity
  8
DEFPOINTS
  6
ByBlock
 62
     0
 48
50.0
100
AcDbPoint
 10
4799.673057123653
 20
6448.06665377977
 30
0.0
  0
ENDBLK
  5
164EB
330
16416
100
AcDbEntity
  8
0
 48
50.0
100
AcDbBlockEnd
  0
BLOCK
  5
164EC
330
16425
100
AcDbEntity
  8
0
 48
50.0
100
AcDbBlockBegin
  2
*D10
 70
     1
 10
0.0
 20
0.0
 30
0.0
  3
*D10
  1

  0
LINE
  5
164ED
330
16425
100
AcDbEntity
  8
0
  6
ByBlock
 62
     0
 48
50.0
100
AcDbLine
 10
7319.67305712364
 20
6962.497424546022
 30
0.0
 11
7319.67305712364
 21
6388.06665377977
 31
0.0
  0
LINE
  5
164EE
330
16425
100
AcDbEntity
  8
0
  6
ByBlock
 62
     0
 48
50.0
100
AcDbLine
 10
7271.673057123638
 20
6988.497424545935
 30
0.0
 11
7271.673057123638
 21
6388.06665377977
 31
0.0
  0
LINE
  5
164EF
330
16425
100
AcDbEntity
  8
0
  6
ByBlock
 62
     0
 48
50.0
100
AcDbLine
 10
7319.67305712364
 20
6448.06665377977
 30
0.0
 11
7419.67305712364
 21
6448.06665377977
 31
0.0
  0
LINE
  5
164F0
330
16425
100
AcDbEntity
  8
0
  6
ByBlock
 62
     0
 48
50.0
100
AcDbLine
 10
7271.673057123638
 20
6448.06665377977
 30
0.0
 11
7171.673057123638
 21
6448.06665377977
 31
0.0
  0
MTEXT
  5
164F1
330
16425
100
AcDbEntity
  8
0
  6
ByBlock
 62
     7
 48
50.0
100
AcDbMText
 10
7160.710159474891
 20
6548.06665377977
 30
0.0
 40
120.0
 41
0.0
 71
     5
 72
     1
  1
\A1;48
  7
STYLE1
 73
     1
 44
1.0
1001
ACAD
1000
MTEXTBEGIN
1070
    73
1070
     1
1070
    44
1040
1.0
1070
    74
1070
     0
1000
MTEXTEND
  0
LINE
  5
164F2
330
16425
100
AcDbEntity
  8
0
  6
ByBlock
 62
     0
 48
50.0
100
AcDbLine
 10
7319.67305712364
 20
6448.06665377977
 30
0.0
 11
7271.673057123638
 21
6448.06665377977
 31
0.0
  0
LINE
  5
164F3
330
16425
100
AcDbEntity
  8
0
  6
ByBlock
 62
     0
 48
50.0
100
AcDbLine
 10
7319.67305712364
 20
6448.06665377977
 30
0.0
 11
7271.673057123638
 21
6448.06665377977
 31
0.0
  0
INSERT
  5
164F4
330
16425
100
AcDbEntity
  8
0
  6
ByBlock
 62
     0
 48
50.0
100
AcDbBlockReference
  2
_DOTSMALL
 10
7319.67305712364
 20
6448.06665377977
 30
0.0
 41
100.0
 42
100.0
 43
100.0
 50
180.0
  0
INSERT
  5
164F5
330
16425
100
AcDbEntity
  8
0
  6
ByBlock
 62
     0
 48
50.0
100
AcDbBlockReference
  2
_DOTSMALL
 10
7271.673057123638
 20
6448.06665377977
 30
0.0
 41
100.0
 42
100.0
 43
100.0
  0
POINT
  5
164F6
330
16425
100
AcDbEntity
  8
DEFPOINTS
  6
ByBlock
 62
     0
 48
50.0
100
AcDbPoint
 10
7319.67305712364
 20
6982.497424546021
 30
0.0
  0
POINT
  5
164F7
330
16425
100
AcDbEntity
  8
DEFPOINTS
  6
ByBlock
 62
     0
 48
50.0
100
AcDbPoint
 10
7271.673057123638
 20
7008.497424545935
 30
0.0
  0
POINT
  5
164F8
330
16425
100
AcDbEntity
  8
DEFPOINTS
  6
ByBlock
 62
     0
 48
50.0
100
AcDbPoint
 10
7271.673057123638
 20
6448.06665377977
 30
0.0
  0
ENDBLK
  5
164F9
330
16425
100
AcDbEntity
  8
0
 48
50.0
100
AcDbBlockEnd
  0
BLOCK
  5
164FA
330
16434
100
AcDbEntity
  8
0
 48
50.0
100
AcDbBlockBegin
  2
*D11
 70
     1
 10
0.0
 20
0.0
 30
0.0
  3
*D11
  1

  0
LINE
  5
164FB
330
16434
100
AcDbEntity
  8
0
  6
ByBlock
 62
     0
 48
50.0
100
AcDbLine
 10
7374.673057123638
 20
6962.497424546025
 30
0.0
 11
7374.673057123638
 21
6388.066653779771
 31
0.0
  0
LINE
  5
164FC
330
16434
100
AcDbEntity
  8
0
  6
ByBlock
 62
     0
 48
50.0
100
AcDbLine
 10
7319.67305712364
 20
6962.497424546022
 30
0.0
 11
7319.67305712364
 21
6388.066653779771
 31
0.0
  0
LINE
  5
164FD
330
16434
100
AcDbEntity
  8
0
  6
ByBlock
 62
     0
 48
50.0
100
AcDbLine
 10
7319.67305712364
 20
6448.06665377977
 30
0.0
 11
7219.67305712364
 21
6448.06665377977
 31
0.0
  0
LINE
  5
164FE
330
16434
100
AcDbEntity
  8
0
  6
ByBlock
 62
     0
 48
50.0
100
AcDbLine
 10
7374.673057123638
 20
6448.06665377977
 30
0.0
 11
7791.643619872115
 21
6448.06665377977
 31
0.0
  0
LINE
  5
164FF
330
16434
100
AcDbEntity
  8
0
  6
ByBlock
 62
     0
 48
50.0
100
AcDbLine
 10
7319.67305712364
 20
6448.06665377977
 30
0.0
 11
7374.673057123638
 21
6448.06665377977
 31
0.0
  0
INSERT
  5
16500
330
16434
100
AcDbEntity
  8
0
  6
ByBlock
 62
     0
 48
50.0
100
AcDbBlockReference
  2
_DOTSMALL
 10
7319.67305712364
 20
6448.06665377977
 30
0.0
 41
100.0
 42
100.0
 43
100.0
  0
INSERT
  5
16501
330
16434
100
AcDbEntity
  8
0
  6
ByBlock
 62
     0
 48
50.0
100
AcDbBlockReference
  2
_DOTSMALL
 10
7374.673057123638
 20
6448.06665377977
 30
0.0
 41
100.0
 42
100.0
 43
100.0
 50
180.0
  0
MTEXT
  5
16502
330
16434
100
AcDbEntity
  8
0
  6
ByBlock
 62
     7
 48
50.0
100
AcDbMText
 10
7683.158338497877
 20
6548.06665377977
 30
0.0
 40
120.0
 41
0.0
 71
     5
 72
     1
  1
\A1;55
  7
STYLE1
 73
     1
 44
1.0
1001
ACAD
1000
MTEXTBEGIN
1070
    73
1070
     1
1070
    44
1040
1.0
1070
    74
1070
     0
1000
MTEXTEND
  0
POINT
  5
16503
330
16434
100
AcDbEntity
  8
DEFPOINTS
  6
ByBlock
 62
     0
 48
50.0
100
AcDbPoint
 10
7374.673057123638
 20
6982.497424546025
 30
0.0
  0
POINT
  5
16504
330
16434
100
AcDbEntity
  8
DEFPOINTS
  6
ByBlock
 62
     0
 48
50.0
100
AcDbPoint
 10
7319.67305712364
 20
6982.497424546021
 30
0.0
  0
POINT
  5
16505
330
16434
100
AcDbEntity
  8
DEFPOINTS
  6
ByBlock
 62
     0
 48
50.0
100
AcDbPoint
 10
7319.67305712364
 20
6448.06665377977
 30
0.0
  0
ENDBLK
  5
16506
330
16434
100
AcDbEntity
  8
0
 48
50.0
100
AcDbBlockEnd
  0
BLOCK
  5
16512
330
1644E
100
AcDbEntity
  8
0
 48
50.0
100
AcDbBlockBegin
  2
*D12
 70
     1
 10
0.0
 20
0.0
 30
0.0
  3
*D12
  1

  0
LINE
  5
1855D
330
1644E
100
AcDbEntity
  8
寸法
 62
     0
 48
50.0
370
    -2
100
AcDbLine
 10
4799.673057123663
 20
9212.497424545938
 30
0.0
 11
4799.673057123663
 21
9768.305644171036
 31
0.0
  0
LINE
  5
1855E
330
1644E
100
AcDbEntity
  8
寸法
 62
     0
 48
50.0
370
    -2
100
AcDbLine
 10
7319.673057123664
 20
9212.497424546032
 30
0.0
 11
7319.673057123664
 21
9768.305644171036
 31
0.0
  0
LINE
  5
1855F
330
1644E
100
AcDbEntity
  8
寸法
 62
     0
 48
50.0
370
    -2
100
AcDbLine
 10
4799.673057123663
 20
9708.305644171037
 30
0.0
 11
7319.673057123664
 21
9708.305644171037
 31
0.0
  0
INSERT
  5
18560
330
1644E
100
AcDbEntity
  8
寸法
 62
     0
 48
50.0
370
    -2
100
AcDbBlockReference
  2
_DOTSMALL
 10
4799.673057123663
 20
9708.305644171037
 30
0.0
 41
100.0
 42
100.0
 43
100.0
 50
180.0
  0
INSERT
  5
18561
330
1644E
100
AcDbEntity
  8
寸法
 62
     0
 48
50.0
370
    -2
100
AcDbBlockReference
  2
_DOTSMALL
 10
7319.673057123664
 20
9708.305644171037
 30
0.0
 41
100.0
 42
100.0
 43
100.0
  0
MTEXT
  5
18562
330
1644E
100
AcDbEntity
  8
寸法
 62
     7
 48
50.0
100
AcDbMText
 10
6059.673057123664
 20
9808.317455194659
 30
0.0
 40
120.0
 41
0.0
 71
     5
 72
     1
  1
\A1;6X420=2520
  7
STYLE1
 73
     1
 44
1.0
1001
ACAD
1000
MTEXTBEGIN
1070
    73
1070
     1
1070
    44
1040
1.0
1070
    74
1070
     0
1000
MTEXTEND
  0
POINT
  5
18563
330
1644E
100
AcDbEntity
  8
DEFPOINTS
 62
     0
 48
50.0
100
AcDbPoint
 10
4799.673057123663
 20
9192.497424545939
 30
0.0
  0
POINT
  5
18564
330
1644E
100
AcDbEntity
  8
DEFPOINTS
 62
     0
 48
50.0
100
AcDbPoint
 10
7319.673057123664
 20
9192.497424546033
 30
0.0
  0
POINT
  5
18565
330
1644E
100
AcDbEntity
  8
DEFPOINTS
 62
     0
 48
50.0
100
AcDbPoint
 10
7319.673057123664
 20
9708.305644171037
 30
0.0
  0
ENDBLK
  5
1651C
330
1644E
100
AcDbEntity
  8
0
 48
50.0
100
AcDbBlockEnd
  0
BLOCK
  5
1651D
330
1645A
100
AcDbEntity
  8
0
 48
50.0
100
AcDbBlockBegin
  2
*D13
 70
     1
 10
0.0
 20
0.0
 30
0.0
  3
*D13
  1

  0
LINE
  5
18552
330
1645A
100
AcDbEntity
  8
寸法
 62
     0
 48
50.0
370
    -2
100
AcDbLine
 10
4744.673057123629
 20
9212.497424545938
 30
0.0
 11
4744.673057123629
 21
9768.30564417092
 31
0.0
  0
LINE
  5
18553
330
1645A
100
AcDbEntity
  8
寸法
 62
     0
 48
50.0
370
    -2
100
AcDbLine
 10
4799.673057123663
 20
9212.497424545938
 30
0.0
 11
4799.673057123663
 21
9768.30564417092
 31
0.0
  0
LINE
  5
18554
330
1645A
100
AcDbEntity
  8
寸法
 62
     0
 48
50.0
370
    -2
100
AcDbLine
 10
4799.673057123663
 20
9708.30564417092
 30
0.0
 11
4899.673057123663
 21
9708.30564417092
 31
0.0
  0
LINE
  5
18555
330
1645A
100
AcDbEntity
  8
寸法
 62
     0
 48
50.0
370
    -2
100
AcDbLine
 10
4744.673057123629
 20
9708.30564417092
 30
0.0
 11
4327.702494375151
 21
9708.30564417092
 31
0.0
  0
LINE
  5
18556
330
1645A
100
AcDbEntity
  8
寸法
 62
     0
 48
50.0
370
    -2
100
AcDbLine
 10
4799.673057123663
 20
9708.30564417092
 30
0.0
 11
4744.673057123629
 21
9708.30564417092
 31
0.0
  0
INSERT
  5
18557
330
1645A
100
AcDbEntity
  8
寸法
 62
     0
 48
50.0
370
    -2
100
AcDbBlockReference
  2
_DOTSMALL
 10
4799.673057123663
 20
9708.30564417092
 30
0.0
 41
100.0
 42
100.0
 43
100.0
 50
180.0
  0
INSERT
  5
18558
330
1645A
100
AcDbEntity
  8
寸法
 62
     0
 48
50.0
370
    -2
100
AcDbBlockReference
  2
_DOTSMALL
 10
4744.673057123629
 20
9708.30564417092
 30
0.0
 41
100.0
 42
100.0
 43
100.0
  0
MTEXT
  5
18559
330
1645A
100
AcDbEntity
  8
寸法
 62
     7
 48
50.0
100
AcDbMText
 10
4436.187775749391
 20
9808.305644170921
 30
0.0
 40
120.0
 41
0.0
 71
     5
 72
     1
  1
\A1;55
  7
STYLE1
 73
     1
 44
1.0
1001
ACAD
1000
MTEXTBEGIN
1070
    73
1070
     1
1070
    44
1040
1.0
1070
    74
1070
     0
1000
MTEXTEND
  0
POINT
  5
1855A
330
1645A
100
AcDbEntity
  8
DEFPOINTS
 62
     0
 48
50.0
100
AcDbPoint
 10
4744.673057123629
 20
9192.497424545939
 30
0.0
  0
POINT
  5
1855B
330
1645A
100
AcDbEntity
  8
DEFPOINTS
 62
     0
 48
50.0
100
AcDbPoint
 10
4799.673057123663
 20
9192.497424545939
 30
0.0
  0
POINT
  5
1855C
330
1645A
100
AcDbEntity
  8
DEFPOINTS
 62
     0
 48
50.0
100
AcDbPoint
 10
4799.673057123663
 20
9708.30564417092
 30
0.0
  0
ENDBLK
  5
16529
330
1645A
100
AcDbEntity
  8
0
 48
50.0
100
AcDbBlockEnd
  0
BLOCK
  5
1652A
330
16468
100
AcDbEntity
  8
0
 48
50.0
100
AcDbBlockBegin
  2
*D14
 70
     1
 10
0.0
 20
0.0
 30
0.0
  3
*D14
  1

  0
LINE
  5
18547
330
16468
100
AcDbEntity
  8
寸法
 62
     0
 48
50.0
370
    -2
100
AcDbLine
 10
7319.673057123664
 20
9212.497424546032
 30
0.0
 11
7319.673057123664
 21
9768.305644171018
 31
0.0
  0
LINE
  5
18548
330
16468
100
AcDbEntity
  8
寸法
 62
     0
 48
50.0
370
    -2
100
AcDbLine
 10
7374.673057123664
 20
9212.497424546032
 30
0.0
 11
7374.673057123664
 21
9768.305644171018
 31
0.0
  0
LINE
  5
18549
330
16468
100
AcDbEntity
  8
寸法
 62
     0
 48
50.0
370
    -2
100
AcDbLine
 10
7319.673057123664
 20
9708.305644171019
 30
0.0
 11
7219.673057123664
 21
9708.305644171019
 31
0.0
  0
LINE
  5
1854A
330
16468
100
AcDbEntity
  8
寸法
 62
     0
 48
50.0
370
    -2
100
AcDbLine
 10
7374.673057123664
 20
9708.305644171019
 30
0.0
 11
7791.643619872141
 21
9708.305644171019
 31
0.0
  0
LINE
  5
1854B
330
16468
100
AcDbEntity
  8
寸法
 62
     0
 48
50.0
370
    -2
100
AcDbLine
 10
7319.673057123664
 20
9708.305644171019
 30
0.0
 11
7374.673057123664
 21
9708.305644171019
 31
0.0
  0
INSERT
  5
1854C
330
16468
100
AcDbEntity
  8
寸法
 62
     0
 48
50.0
370
    -2
100
AcDbBlockReference
  2
_DOTSMALL
 10
7319.673057123664
 20
9708.305644171019
 30
0.0
 41
100.0
 42
100.0
 43
100.0
  0
INSERT
  5
1854D
330
16468
100
AcDbEntity
  8
寸法
 62
     0
 48
50.0
370
    -2
100
AcDbBlockReference
  2
_DOTSMALL
 10
7374.673057123664
 20
9708.305644171019
 30
0.0
 41
100.0
 42
100.0
 43
100.0
 50
180.0
  0
MTEXT
  5
1854E
330
16468
100
AcDbEntity
  8
寸法
 62
     7
 48
50.0
100
AcDbMText
 10
7683.158338497903
 20
9808.305644171019
 30
0.0
 40
120.0
 41
0.0
 71
     5
 72
     1
  1
\A1;55
  7
STYLE1
 73
     1
 44
1.0
1001
ACAD
1000
MTEXTBEGIN
1070
    73
1070
     1
1070
    44
1040
1.0
1070
    74
1070
     0
1000
MTEXTEND
  0
POINT
  5
1854F
330
16468
100
AcDbEntity
  8
DEFPOINTS
 62
     0
 48
50.0
100
AcDbPoint
 10
7319.673057123664
 20
9192.497424546033
 30
0.0
  0
POINT
  5
18550
330
16468
100
AcDbEntity
  8
DEFPOINTS
 62
     0
 48
50.0
100
AcDbPoint
 10
7374.673057123664
 20
9192.497424546033
 30
0.0
  0
POINT
  5
18551
330
16468
100
AcDbEntity
  8
DEFPOINTS
 62
     0
 48
50.0
100
AcDbPoint
 10
7374.673057123664
 20
9708.305644171019
 30
0.0
  0
ENDBLK
  5
16536
330
16468
100
AcDbEntity
  8
0
 48
50.0
100
AcDbBlockEnd
  0
BLOCK
  5
16CEA
330
16CDE
100
AcDbEntity
  8
0
 48
50.0
100
AcDbBlockBegin
  2
*D15
 70
     1
 10
0.0
 20
0.0
 30
0.0
  3
*D15
  1

  0
LINE
  5
1706F
330
16CDE
100
AcDbEntity
  8
寸法
 62
     0
 48
50.0
370
    -2
100
AcDbLine
 10
4744.673057123658
 20
4932.931598713267
 30
0.0
 11
4744.673057123658
 21
5185.473183971504
 31
0.0
  0
LINE
  5
17070
330
16CDE
100
AcDbEntity
  8
寸法
 62
     0
 48
50.0
370
    -2
100
AcDbLine
 10
4694.673057123658
 20
4932.931598713265
 30
0.0
 11
4694.673057123658
 21
5185.473183971504
 31
0.0
  0
LINE
  5
17071
330
16CDE
100
AcDbEntity
  8
寸法
 62
     0
 48
50.0
370
    -2
100
AcDbLine
 10
4744.673057123658
 20
5125.473183971504
 30
0.0
 11
4844.673057123658
 21
5125.473183971504
 31
0.0
  0
LINE
  5
17072
330
16CDE
100
AcDbEntity
  8
寸法
 62
     0
 48
50.0
370
    -2
100
AcDbLine
 10
4694.673057123658
 20
5125.473183971504
 30
0.0
 11
4275.140531654924
 21
5125.473183971504
 31
0.0
  0
LINE
  5
17073
330
16CDE
100
AcDbEntity
  8
寸法
 62
     0
 48
50.0
370
    -2
100
AcDbLine
 10
4744.673057123658
 20
5125.473183971504
 30
0.0
 11
4694.673057123658
 21
5125.473183971504
 31
0.0
  0
INSERT
  5
17074
330
16CDE
100
AcDbEntity
  8
寸法
 62
     0
 48
50.0
370
    -2
100
AcDbBlockReference
  2
_DOTSMALL
 10
4744.673057123658
 20
5125.473183971504
 30
0.0
 41
100.0
 42
100.0
 43
100.0
 50
180.0
  0
INSERT
  5
17075
330
16CDE
100
AcDbEntity
  8
寸法
 62
     0
 48
50.0
370
    -2
100
AcDbBlockReference
  2
_DOTSMALL
 10
4694.673057123658
 20
5125.473183971504
 30
0.0
 41
100.0
 42
100.0
 43
100.0
  0
MTEXT
  5
17076
330
16CDE
100
AcDbEntity
  8
寸法
 62
     7
 48
50.0
100
AcDbMText
 10
4381.187775749411
 20
5225.473183971504
 30
0.0
 40
120.0
 41
0.0
 71
     5
 72
     1
  1
\A1;50
  7
STYLE1
 73
     1
 44
1.0
1001
ACAD
1000
MTEXTBEGIN
1070
    73
1070
     1
1070
    44
1040
1.0
1070
    74
1070
     0
1000
MTEXTEND
  0
POINT
  5
17077
330
16CDE
100
AcDbEntity
  8
DEFPOINTS
 62
     0
 48
50.0
100
AcDbPoint
 10
4744.673057123658
 20
4912.931598713267
 30
0.0
  0
POINT
  5
17078
330
16CDE
100
AcDbEntity
  8
DEFPOINTS
 62
     0
 48
50.0
100
AcDbPoint
 10
4694.673057123658
 20
4912.931598713265
 30
0.0
  0
POINT
  5
17079
330
16CDE
100
AcDbEntity
  8
DEFPOINTS
 62
     0
 48
50.0
100
AcDbPoint
 10
4694.673057123658
 20
5125.473183971504
 30
0.0
  0
ENDBLK
  5
16CEB
330
16CDE
100
AcDbEntity
  8
0
 48
50.0
100
AcDbBlockEnd
  0
BLOCK
  5
16CF6
330
16CEC
100
AcDbEntity
  8
0
 48
50.0
100
AcDbBlockBegin
  2
*D16
 70
     1
 10
0.0
 20
0.0
 30
0.0
  3
*D16
  1

  0
LINE
  5
18AD4
330
16CEC
100
AcDbEntity
  8
寸法
 62
     0
 48
50.0
370
    -2
100
AcDbLine
 10
4694.673057123658
 20
4932.931598713265
 30
0.0
 11
4694.673057123658
 21
5400.868615453759
 31
0.0
  0
LINE
  5
18AD5
330
16CEC
100
AcDbEntity
  8
寸法
 62
     0
 48
50.0
370
    -2
100
AcDbLine
 10
7424.673057123658
 20
4932.931598713263
 30
0.0
 11
7424.673057123658
 21
5400.868615453759
 31
0.0
  0
LINE
  5
18AD6
330
16CEC
100
AcDbEntity
  8
寸法
 62
     0
 48
50.0
370
    -2
100
AcDbLine
 10
4694.673057123658
 20
5340.868615453759
 30
0.0
 11
7424.673057123658
 21
5340.868615453759
 31
0.0
  0
INSERT
  5
18AD7
330
16CEC
100
AcDbEntity
  8
寸法
 62
     0
 48
50.0
370
    -2
100
AcDbBlockReference
  2
_DOTSMALL
 10
4694.673057123658
 20
5340.868615453759
 30
0.0
 41
100.0
 42
100.0
 43
100.0
 50
180.0
  0
INSERT
  5
18AD8
330
16CEC
100
AcDbEntity
  8
寸法
 62
     0
 48
50.0
370
    -2
100
AcDbBlockReference
  2
_DOTSMALL
 10
7424.673057123658
 20
5340.868615453759
 30
0.0
 41
100.0
 42
100.0
 43
100.0
  0
MTEXT
  5
18AD9
330
16CEC
100
AcDbEntity
  8
寸法
 62
     7
 48
50.0
100
AcDbMText
 10
6059.673057123658
 20
5440.880426477381
 30
0.0
 40
120.0
 41
0.0
 71
     5
 72
     1
  1
\A1;2730
  7
STYLE1
 73
     1
 44
1.0
1001
ACAD
1000
MTEXTBEGIN
1070
    73
1070
     1
1070
    44
1040
1.0
1070
    74
1070
     0
1000
MTEXTEND
  0
POINT
  5
18ADA
330
16CEC
100
AcDbEntity
  8
DEFPOINTS
 62
     0
 48
50.0
100
AcDbPoint
 10
4694.673057123658
 20
4912.931598713265
 30
0.0
  0
POINT
  5
18ADB
330
16CEC
100
AcDbEntity
  8
DEFPOINTS
 62
     0
 48
50.0
100
AcDbPoint
 10
7424.673057123658
 20
4912.931598713264
 30
0.0
  0
POINT
  5
18ADC
330
16CEC
100
AcDbEntity
  8
DEFPOINTS
 62
     0
 48
50.0
100
AcDbPoint
 10
7424.673057123658
 20
5340.868615453759
 30
0.0
  0
ENDBLK
  5
16CF7
330
16CEC
100
AcDbEntity
  8
0
 48
50.0
100
AcDbBlockEnd
  0
BLOCK
  5
16D04
330
16CF8
100
AcDbEntity
  8
0
 48
50.0
100
AcDbBlockBegin
  2
*D17
 70
     1
 10
0.0
 20
0.0
 30
0.0
  3
*D17
  1

  0
LINE
  5
1705B
330
16CF8
100
AcDbEntity
  8
寸法
 62
     0
 48
50.0
370
    -2
100
AcDbLine
 10
7424.673057123658
 20
4932.931598713263
 30
0.0
 11
7424.673057123658
 21
5185.473183971504
 31
0.0
  0
LINE
  5
1705C
330
16CF8
100
AcDbEntity
  8
寸法
 62
     0
 48
50.0
370
    -2
100
AcDbLine
 10
7374.673057123658
 20
4932.931598713265
 30
0.0
 11
7374.673057123658
 21
5185.473183971504
 31
0.0
  0
LINE
  5
1705D
330
16CF8
100
AcDbEntity
  8
寸法
 62
     0
 48
50.0
370
    -2
100
AcDbLine
 10
7374.673057123658
 20
5125.473183971504
 30
0.0
 11
7274.673057123658
 21
5125.473183971504
 31
0.0
  0
LINE
  5
1705E
330
16CF8
100
AcDbEntity
  8
寸法
 62
     0
 48
50.0
370
    -2
100
AcDbLine
 10
7424.673057123658
 20
5125.473183971504
 30
0.0
 11
7844.205582592383
 21
5125.473183971504
 31
0.0
  0
LINE
  5
1705F
330
16CF8
100
AcDbEntity
  8
寸法
 62
     0
 48
50.0
370
    -2
100
AcDbLine
 10
7374.673057123658
 20
5125.473183971504
 30
0.0
 11
7424.673057123658
 21
5125.473183971504
 31
0.0
  0
INSERT
  5
17060
330
16CF8
100
AcDbEntity
  8
寸法
 62
     0
 48
50.0
370
    -2
100
AcDbBlockReference
  2
_DOTSMALL
 10
7374.673057123658
 20
5125.473183971504
 30
0.0
 41
100.0
 42
100.0
 43
100.0
  0
INSERT
  5
17061
330
16CF8
100
AcDbEntity
  8
寸法
 62
     0
 48
50.0
370
    -2
100
AcDbBlockReference
  2
_DOTSMALL
 10
7424.673057123658
 20
5125.473183971504
 30
0.0
 41
100.0
 42
100.0
 43
100.0
 50
180.0
  0
MTEXT
  5
17062
330
16CF8
100
AcDbEntity
  8
寸法
 62
     7
 48
50.0
100
AcDbMText
 10
7738.158338497895
 20
5225.473183971504
 30
0.0
 40
120.0
 41
0.0
 71
     5
 72
     1
  1
\A1;50
  7
STYLE1
 73
     1
 44
1.0
1001
ACAD
1000
MTEXTBEGIN
1070
    73
1070
     1
1070
    44
1040
1.0
1070
    74
1070
     0
1000
MTEXTEND
  0
POINT
  5
17063
330
16CF8
100
AcDbEntity
  8
DEFPOINTS
 62
     0
 48
50.0
100
AcDbPoint
 10
7424.673057123658
 20
4912.931598713264
 30
0.0
  0
POINT
  5
17064
330
16CF8
100
AcDbEntity
  8
DEFPOINTS
 62
     0
 48
50.0
100
AcDbPoint
 10
7374.673057123658
 20
4912.931598713265
 30
0.0
  0
POINT
  5
17065
330
16CF8
100
AcDbEntity
  8
DEFPOINTS
 62
     0
 48
50.0
100
AcDbPoint
 10
7374.673057123658
 20
5125.473183971504
 30
0.0
  0
ENDBLK
  5
16D05
330
16CF8
100
AcDbEntity
  8
0
 48
50.0
100
AcDbBlockEnd
  0
BLOCK
  5
16D10
330
16D06
100
AcDbEntity
  8
0
 48
50.0
100
AcDbBlockBegin
  2
*D18
 70
     1
 10
0.0
 20
0.0
 30
0.0
  3
*D18
  1

  0
LINE
  5
18ADD
330
16D06
100
AcDbEntity
  8
寸法
 62
     0
 48
50.0
370
    -2
100
AcDbLine
 10
7374.673057123658
 20
4932.931598713265
 30
0.0
 11
7374.673057123658
 21
5185.473183971504
 31
0.0
  0
LINE
  5
18ADE
330
16D06
100
AcDbEntity
  8
寸法
 62
     0
 48
50.0
370
    -2
100
AcDbLine
 10
4744.673057123658
 20
4932.931598713267
 30
0.0
 11
4744.673057123658
 21
5185.473183971504
 31
0.0
  0
LINE
  5
18ADF
330
16D06
100
AcDbEntity
  8
寸法
 62
     0
 48
50.0
370
    -2
100
AcDbLine
 10
7374.673057123658
 20
5125.473183971504
 30
0.0
 11
4744.673057123658
 21
5125.473183971504
 31
0.0
  0
INSERT
  5
18AE0
330
16D06
100
AcDbEntity
  8
寸法
 62
     0
 48
50.0
370
    -2
100
AcDbBlockReference
  2
_DOTSMALL
 10
7374.673057123658
 20
5125.473183971504
 30
0.0
 41
100.0
 42
100.0
 43
100.0
  0
INSERT
  5
18AE1
330
16D06
100
AcDbEntity
  8
寸法
 62
     0
 48
50.0
370
    -2
100
AcDbBlockReference
  2
_DOTSMALL
 10
4744.673057123658
 20
5125.473183971504
 30
0.0
 41
100.0
 42
100.0
 43
100.0
 50
180.0
  0
MTEXT
  5
18AE2
330
16D06
100
AcDbEntity
  8
寸法
 62
     7
 48
50.0
100
AcDbMText
 10
6059.673057123658
 20
5225.484994995126
 30
0.0
 40
120.0
 41
0.0
 71
     5
 72
     1
  1
\A1;柱外寸法2630
  7
STYLE1
 73
     1
 44
1.0
1001
ACAD
1000
MTEXTBEGIN
1070
    73
1070
     1
1070
    44
1040
1.0
1070
    74
1070
     0
1000
MTEXTEND
  0
POINT
  5
18AE3
330
16D06
100
AcDbEntity
  8
DEFPOINTS
 62
     0
 48
50.0
100
AcDbPoint
 10
7374.673057123658
 20
4912.931598713265
 30
0.0
  0
POINT
  5
18AE4
330
16D06
100
AcDbEntity
  8
DEFPOINTS
 62
     0
 48
50.0
100
AcDbPoint
 10
4744.673057123658
 20
4912.931598713267
 30
0.0
  0
POINT
  5
18AE5
330
16D06
100
AcDbEntity
  8
DEFPOINTS
 62
     0
 48
50.0
100
AcDbPoint
 10
4744.673057123658
 20
5125.473183971504
 30
0.0
  0
ENDBLK
  5
16D11
330
16D06
100
AcDbEntity
  8
0
 48
50.0
100
AcDbBlockEnd
  0
BLOCK
  5
16E20
330
16E16
100
AcDbEntity
  8
0
 48
50.0
100
AcDbBlockBegin
  2
*D19
 70
     1
 10
0.0
 20
0.0
 30
0.0
  3
*D19
  1

  0
LINE
  5
17005
330
16E16
100
AcDbEntity
  8
寸法
 62
     0
 48
50.0
370
    -2
100
AcDbLine
 10
11540.47043893114
 20
2537.931598713262
 30
0.0
 11
12285.39759690326
 21
2537.931598713262
 31
0.0
  0
LINE
  5
17006
330
16E16
100
AcDbEntity
  8
寸法
 62
     0
 48
50.0
370
    -2
100
AcDbLine
 10
11635.47043893113
 20
4857.931598713261
 30
0.0
 11
12285.39759690326
 21
4857.931598713261
 31
0.0
  0
LINE
  5
17007
330
16E16
100
AcDbEntity
  8
寸法
 62
     0
 48
50.0
370
    -2
100
AcDbLine
 10
12225.39759690326
 20
2537.931598713262
 30
0.0
 11
12225.39759690326
 21
4857.931598713261
 31
0.0
  0
INSERT
  5
17008
330
16E16
100
AcDbEntity
  8
寸法
 62
     0
 48
50.0
370
    -2
100
AcDbBlockReference
  2
_DOTSMALL
 10
12225.39759690326
 20
2537.931598713262
 30
0.0
 41
100.0
 42
100.0
 43
100.0
 50
270.0
  0
INSERT
  5
17009
330
16E16
100
AcDbEntity
  8
寸法
 62
     0
 48
50.0
370
    -2
100
AcDbBlockReference
  2
_DOTSMALL
 10
12225.39759690326
 20
4857.931598713261
 30
0.0
 41
100.0
 42
100.0
 43
100.0
 50
90.0
  0
MTEXT
  5
1700A
330
16E16
100
AcDbEntity
  8
寸法
 62
     7
 48
50.0
100
AcDbMText
 10
12125.38578587964
 20
3692.931598713261
 30
0.0
 40
120.0
 41
0.0
 71
     5
 72
     1
  1
\A1;2320
  7
STYLE1
 11
0.0000000000000001
 21
1.0
 31
0.0
 73
     1
 44
1.0
1001
ACAD
1000
MTEXTBEGIN
1070
    73
1070
     1
1070
    44
1040
1.0
1070
    74
1070
     0
1000
MTEXTEND
  0
POINT
  5
1700B
330
16E16
100
AcDbEntity
  8
DEFPOINTS
 62
     0
 48
50.0
100
AcDbPoint
 10
11520.47043893114
 20
2537.931598713262
 30
0.0
  0
POINT
  5
1700C
330
16E16
100
AcDbEntity
  8
DEFPOINTS
 62
     0
 48
50.0
100
AcDbPoint
 10
11615.47043893113
 20
4857.931598713261
 30
0.0
  0
POINT
  5
1700D
330
16E16
100
AcDbEntity
  8
DEFPOINTS
 62
     0
 48
50.0
100
AcDbPoint
 10
12225.39759690326
 20
4857.931598713261
 30
0.0
  0
ENDBLK
  5
16E21
330
16E16
100
AcDbEntity
  8
0
 48
50.0
100
AcDbBlockEnd
  0
BLOCK
  5
16E2E
330
16E22
100
AcDbEntity
  8
0
 48
50.0
100
AcDbBlockBegin
  2
*D20
 70
     1
 10
0.0
 20
0.0
 30
0.0
  3
*D20
  1

  0
LINE
  5
16FFA
330
16E22
100
AcDbEntity
  8
寸法
 62
     0
 48
50.0
370
    -2
100
AcDbLine
 10
9290.470438931139
 20
2587.931598713261
 30
0.0
 11
8406.72030974788
 21
2587.931598713262
 31
0.0
  0
LINE
  5
16FFB
330
16E22
100
AcDbEntity
  8
寸法
 62
     0
 48
50.0
370
    -2
100
AcDbLine
 10
9235.470438931139
 20
2537.931598713262
 30
0.0
 11
8406.72030974788
 21
2537.931598713262
 31
0.0
  0
LINE
  5
16FFC
330
16E22
100
AcDbEntity
  8
寸法
 62
     0
 48
50.0
370
    -2
100
AcDbLine
 10
8466.720309747881
 20
2587.931598713262
 30
0.0
 11
8466.720309747881
 21
2687.931598713262
 31
0.0
  0
LINE
  5
16FFD
330
16E22
100
AcDbEntity
  8
寸法
 62
     0
 48
50.0
370
    -2
100
AcDbLine
 10
8466.720309747881
 20
2537.931598713262
 30
0.0
 11
8466.720309747881
 21
2048.134354618772
 31
0.0
  0
LINE
  5
16FFE
330
16E22
100
AcDbEntity
  8
寸法
 62
     0
 48
50.0
370
    -2
100
AcDbLine
 10
8466.720309747881
 20
2587.931598713262
 30
0.0
 11
8466.720309747881
 21
2537.931598713262
 31
0.0
  0
INSERT
  5
16FFF
330
16E22
100
AcDbEntity
  8
寸法
 62
     0
 48
50.0
370
    -2
100
AcDbBlockReference
  2
_DOTSMALL
 10
8466.720309747881
 20
2587.931598713262
 30
0.0
 41
100.0
 42
100.0
 43
100.0
 50
270.0
  0
INSERT
  5
17000
330
16E22
100
AcDbEntity
  8
寸法
 62
     0
 48
50.0
370
    -2
100
AcDbBlockReference
  2
_DOTSMALL
 10
8466.720309747881
 20
2537.931598713262
 30
0.0
 41
100.0
 42
100.0
 43
100.0
 50
90.0
  0
MTEXT
  5
17001
330
16E22
100
AcDbEntity
  8
寸法
 62
     7
 48
50.0
100
AcDbMText
 10
8366.720309747881
 20
2154.181598713261
 30
0.0
 40
120.0
 41
0.0
 71
     5
 72
     1
  1
\A1;50
  7
STYLE1
 11
0.0000000000000001
 21
1.0
 31
0.0
 73
     1
 44
1.0
1001
ACAD
1000
MTEXTBEGIN
1070
    73
1070
     1
1070
    44
1040
1.0
1070
    74
1070
     0
1000
MTEXTEND
  0
POINT
  5
17002
330
16E22
100
AcDbEntity
  8
DEFPOINTS
 62
     0
 48
50.0
100
AcDbPoint
 10
9310.470438931139
 20
2587.931598713261
 30
0.0
  0
POINT
  5
17003
330
16E22
100
AcDbEntity
  8
DEFPOINTS
 62
     0
 48
50.0
100
AcDbPoint
 10
9255.470438931139
 20
2537.931598713262
 30
0.0
  0
POINT
  5
17004
330
16E22
100
AcDbEntity
  8
DEFPOINTS
 62
     0
 48
50.0
100
AcDbPoint
 10
8466.720309747881
 20
2537.931598713262
 30
0.0
  0
ENDBLK
  5
16E2F
330
16E22
100
AcDbEntity
  8
0
 48
50.0
100
AcDbBlockEnd
  0
BLOCK
  5
16E3B
330
16E30
100
AcDbEntity
  8
0
 48
50.0
100
AcDbBlockBegin
  2
*D21
 70
     1
 10
0.0
 20
0.0
 30
0.0
  3
*D21
  1

  0
LINE
  5
16FF0
330
16E30
100
AcDbEntity
  8
寸法
 62
     0
 48
50.0
370
    -2
100
AcDbLine
 10
9235.470438931139
 20
2537.931598713262
 30
0.0
 11
8106.720309747881
 21
2537.931598713262
 31
0.0
  0
LINE
  5
16FF1
330
16E30
100
AcDbEntity
  8
寸法
 62
     0
 48
50.0
370
    -2
100
AcDbLine
 10
8233.969363036008
 20
2437.931598713261
 30
0.0
 11
8106.720309747881
 21
2437.931598713261
 31
0.0
  0
LINE
  5
16FF2
330
16E30
100
AcDbEntity
  8
寸法
 62
     0
 48
50.0
370
    -2
100
AcDbLine
 10
8166.72030974788
 20
2537.931598713262
 30
0.0
 11
8166.72030974788
 21
2437.931598713261
 31
0.0
  0
LINE
  5
16FF3
330
16E30
100
AcDbEntity
  8
寸法
 62
     0
 48
50.0
370
    -2
100
AcDbLine
 10
8166.72030974788
 20
2437.931598713261
 30
0.0
 11
8166.72030974788
 21
1886.884354618772
 31
0.0
  0
INSERT
  5
16FF4
330
16E30
100
AcDbEntity
  8
寸法
 62
     0
 48
50.0
370
    -2
100
AcDbBlockReference
  2
_DOTSMALL
 10
8166.72030974788
 20
2537.931598713262
 30
0.0
 41
100.0
 42
100.0
 43
100.0
 50
90.0
  0
INSERT
  5
16FF5
330
16E30
100
AcDbEntity
  8
寸法
 62
     0
 48
50.0
370
    -2
100
AcDbBlockReference
  2
_DOTSMALL
 10
8166.72030974788
 20
2437.931598713261
 30
0.0
 41
100.0
 42
100.0
 43
100.0
 50
270.0
  0
MTEXT
  5
16FF6
330
16E30
100
AcDbEntity
  8
寸法
 62
     7
 48
50.0
100
AcDbMText
 10
8066.72030974788
 20
2022.931598713261
 30
0.0
 40
120.0
 41
0.0
 71
     5
 72
     1
  1
\A1;100
  7
STYLE1
 11
0.0000000000000001
 21
1.0
 31
0.0
 73
     1
 44
1.0
1001
ACAD
1000
MTEXTBEGIN
1070
    73
1070
     1
1070
    44
1040
1.0
1070
    74
1070
     0
1000
MTEXTEND
  0
POINT
  5
16FF7
330
16E30
100
AcDbEntity
  8
DEFPOINTS
 62
     0
 48
50.0
100
AcDbPoint
 10
9255.470438931139
 20
2537.931598713262
 30
0.0
  0
POINT
  5
16FF8
330
16E30
100
AcDbEntity
  8
DEFPOINTS
 62
     0
 48
50.0
100
AcDbPoint
 10
8253.969363036008
 20
2437.931598713261
 30
0.0
  0
POINT
  5
16FF9
330
16E30
100
AcDbEntity
  8
DEFPOINTS
 62
     0
 48
50.0
100
AcDbPoint
 10
8166.72030974788
 20
2437.931598713261
 30
0.0
  0
ENDBLK
  5
16E3C
330
16E30
100
AcDbEntity
  8
0
 48
50.0
100
AcDbBlockEnd
  0
BLOCK
  5
16E47
330
16E3D
100
AcDbEntity
  8
0
 48
50.0
100
AcDbBlockBegin
  2
*D22
 70
     1
 10
0.0
 20
0.0
 30
0.0
  3
*D22
  1

  0
LINE
  5
16FE7
330
16E3D
100
AcDbEntity
  8
寸法
 62
     0
 48
50.0
370
    -2
100
AcDbLine
 10
9290.470438931139
 20
4677.931598713261
 30
0.0
 11
8406.72030974788
 21
4677.931598713261
 31
0.0
  0
LINE
  5
16FE8
330
16E3D
100
AcDbEntity
  8
寸法
 62
     0
 48
50.0
370
    -2
100
AcDbLine
 10
9290.470438931139
 20
2587.931598713261
 30
0.0
 11
8406.72030974788
 21
2587.931598713262
 31
0.0
  0
LINE
  5
16FE9
330
16E3D
100
AcDbEntity
  8
寸法
 62
     0
 48
50.0
370
    -2
100
AcDbLine
 10
8466.720309747882
 20
4677.931598713261
 30
0.0
 11
8466.720309747881
 21
2587.931598713262
 31
0.0
  0
INSERT
  5
16FEA
330
16E3D
100
AcDbEntity
  8
寸法
 62
     0
 48
50.0
370
    -2
100
AcDbBlockReference
  2
_DOTSMALL
 10
8466.720309747882
 20
4677.931598713261
 30
0.0
 41
100.0
 42
100.0
 43
100.0
 50
90.0
  0
INSERT
  5
16FEB
330
16E3D
100
AcDbEntity
  8
寸法
 62
     0
 48
50.0
370
    -2
100
AcDbBlockReference
  2
_DOTSMALL
 10
8466.720309747881
 20
2587.931598713262
 30
0.0
 41
100.0
 42
100.0
 43
100.0
 50
270.0
  0
MTEXT
  5
16FEC
330
16E3D
100
AcDbEntity
  8
寸法
 62
     7
 48
50.0
100
AcDbMText
 10
8366.708498724257
 20
3632.931598713263
 30
0.0
 40
120.0
 41
0.0
 71
     5
 72
     1
  1
\A1;2090
  7
STYLE1
 11
0.0000000000000001
 21
1.0
 31
0.0
 73
     1
 44
1.0
1001
ACAD
1000
MTEXTBEGIN
1070
    73
1070
     1
1070
    44
1040
1.0
1070
    74
1070
     0
1000
MTEXTEND
  0
POINT
  5
16FED
330
16E3D
100
AcDbEntity
  8
DEFPOINTS
 62
     0
 48
50.0
100
AcDbPoint
 10
9310.470438931139
 20
4677.931598713261
 30
0.0
  0
POINT
  5
16FEE
330
16E3D
100
AcDbEntity
  8
DEFPOINTS
 62
     0
 48
50.0
100
AcDbPoint
 10
9310.470438931139
 20
2587.931598713261
 30
0.0
  0
POINT
  5
16FEF
330
16E3D
100
AcDbEntity
  8
DEFPOINTS
 62
     0
 48
50.0
100
AcDbPoint
 10
8466.720309747881
 20
2587.931598713262
 30
0.0
  0
ENDBLK
  5
16E48
330
16E3D
100
AcDbEntity
  8
0
 48
50.0
100
AcDbBlockEnd
  0
BLOCK
  5
16E53
330
16E49
100
AcDbEntity
  8
0
 48
50.0
100
AcDbBlockBegin
  2
*D23
 70
     1
 10
0.0
 20
0.0
 30
0.0
  3
*D23
  1

  0
LINE
  5
170AB
330
16E49
100
AcDbEntity
  8
寸法
 62
     0
 48
50.0
370
    -2
100
AcDbLine
 10
9290.470438931139
 20
2537.931598713262
 30
0.0
 11
8106.720309747879
 21
2537.931598713262
 31
0.0
  0
LINE
  5
170AC
330
16E49
100
AcDbEntity
  8
寸法
 62
     0
 48
50.0
370
    -2
100
AcDbLine
 10
9230.47043893114
 20
4912.931598713267
 30
0.0
 11
8106.720309747879
 21
4912.931598713267
 31
0.0
  0
LINE
  5
170AD
330
16E49
100
AcDbEntity
  8
寸法
 62
     0
 48
50.0
370
    -2
100
AcDbLine
 10
8166.72030974788
 20
2537.931598713262
 30
0.0
 11
8166.72030974788
 21
4912.931598713267
 31
0.0
  0
INSERT
  5
170AE
330
16E49
100
AcDbEntity
  8
寸法
 62
     0
 48
50.0
370
    -2
100
AcDbBlockReference
  2
_DOTSMALL
 10
8166.72030974788
 20
2537.931598713262
 30
0.0
 41
100.0
 42
100.0
 43
100.0
 50
270.0
  0
INSERT
  5
170AF
330
16E49
100
AcDbEntity
  8
寸法
 62
     0
 48
50.0
370
    -2
100
AcDbBlockReference
  2
_DOTSMALL
 10
8166.72030974788
 20
4912.931598713267
 30
0.0
 41
100.0
 42
100.0
 43
100.0
 50
90.0
  0
MTEXT
  5
170B0
330
16E49
100
AcDbEntity
  8
寸法
 62
     7
 48
50.0
100
AcDbMText
 10
8066.708498724258
 20
3725.431598713266
 30
0.0
 40
120.0
 41
0.0
 71
     5
 72
     1
  1
\A1;2375
  7
STYLE1
 11
0.0000000000000001
 21
1.0
 31
0.0
 73
     1
 44
1.0
1001
ACAD
1000
MTEXTBEGIN
1070
    73
1070
     1
1070
    44
1040
1.0
1070
    74
1070
     0
1000
MTEXTEND
  0
POINT
  5
170B1
330
16E49
100
AcDbEntity
  8
DEFPOINTS
 62
     0
 48
50.0
100
AcDbPoint
 10
9310.470438931139
 20
2537.931598713262
 30
0.0
  0
POINT
  5
170B2
330
16E49
100
AcDbEntity
  8
DEFPOINTS
 62
     0
 48
50.0
100
AcDbPoint
 10
9250.470438931142
 20
4912.931598713267
 30
0.0
  0
POINT
  5
170B3
330
16E49
100
AcDbEntity
  8
DEFPOINTS
 62
     0
 48
50.0
100
AcDbPoint
 10
8166.72030974788
 20
4912.931598713267
 30
0.0
  0
ENDBLK
  5
16E54
330
16E49
100
AcDbEntity
  8
0
 48
50.0
100
AcDbBlockEnd
  0
BLOCK
  5
16E60
330
16E55
100
AcDbEntity
  8
0
 48
50.0
100
AcDbBlockBegin
  2
*D24
 70
     1
 10
0.0
 20
0.0
 30
0.0
  3
*D24
  1

  0
LINE
  5
170A1
330
16E55
100
AcDbEntity
  8
寸法
 62
     0
 48
50.0
370
    -2
100
AcDbLine
 10
9249.874725222241
 20
4912.229305782923
 30
0.0
 11
8633.940286116967
 21
4929.943456057253
 31
0.0
  0
LINE
  5
170A2
330
16E55
100
AcDbEntity
  8
寸法
 62
     0
 48
50.0
370
    -2
100
AcDbLine
 10
9245.821269665617
 20
4771.287582017209
 30
0.0
 11
8629.886830560341
 21
4789.001732291539
 31
0.0
  0
LINE
  5
170A3
330
16E55
100
AcDbEntity
  8
寸法
 62
     0
 48
50.0
370
    -2
100
AcDbLine
 10
8689.862032162773
 20
4787.276857586592
 30
0.0
 11
8693.915487719399
 21
4928.218581352305
 31
0.0
  0
LINE
  5
170A4
330
16E55
100
AcDbEntity
  8
寸法
 62
     0
 48
50.0
370
    -2
100
AcDbLine
 10
8693.915487719399
 20
4928.218581352305
 30
0.0
 11
8704.264735949085
 21
5288.069790966891
 31
0.0
  0
INSERT
  5
170A5
330
16E55
100
AcDbEntity
  8
寸法
 62
     0
 48
50.0
370
    -2
100
AcDbBlockReference
  2
_DOTSMALL
 10
8689.862032162773
 20
4787.276857586592
 30
0.0
 41
100.0
 42
100.0
 43
100.0
 50
268.3526390256378
  0
INSERT
  5
170A6
330
16E55
100
AcDbEntity
  8
寸法
 62
     0
 48
50.0
370
    -2
100
AcDbBlockReference
  2
_DOTSMALL
 10
8693.915487719399
 20
4928.218581352305
 30
0.0
 41
100.0
 42
100.0
 43
100.0
 50
88.35263902563776
  0
MTEXT
  5
170A7
330
16E55
100
AcDbEntity
  8
寸法
 62
     7
 48
50.0
100
AcDbMText
 10
8600.568838084312
 20
5160.998312003204
 30
0.0
 40
120.0
 41
0.0
 71
     5
 72
     1
  1
\A1;141
  7
STYLE1
 11
0.0287479117491237
 21
0.9995866933738488
 31
0.0
 73
     1
 44
1.0
1001
ACAD
1000
MTEXTBEGIN
1070
    73
1070
     1
1070
    44
1040
1.0
1070
    74
1070
     0
1000
MTEXTEND
  0
POINT
  5
170A8
330
16E55
100
AcDbEntity
  8
DEFPOINTS
 62
     0
 48
50.0
100
AcDbPoint
 10
9269.866459089719
 20
4911.654347547941
 30
0.0
  0
POINT
  5
170A9
330
16E55
100
AcDbEntity
  8
DEFPOINTS
 62
     0
 48
50.0
100
AcDbPoint
 10
9265.813003533093
 20
4770.712623782226
 30
0.0
  0
POINT
  5
170AA
330
16E55
100
AcDbEntity
  8
DEFPOINTS
 62
     0
 48
50.0
100
AcDbPoint
 10
8689.862032162773
 20
4787.276857586592
 30
0.0
  0
ENDBLK
  5
16E61
330
16E55
100
AcDbEntity
  8
0
 48
50.0
100
AcDbBlockEnd
  0
BLOCK
  5
16E6E
330
16E62
100
AcDbEntity
  8
0
 48
50.0
100
AcDbBlockBegin
  2
*D25
 70
     1
 10
0.0
 20
0.0
 30
0.0
  3
*D25
  1

  0
LINE
  5
17096
330
16E62
100
AcDbEntity
  8
寸法
 62
     0
 48
50.0
370
    -2
100
AcDbLine
 10
9310.470438931139
 20
4928.933216836238
 30
0.0
 11
9310.470438931139
 21
5371.589052292566
 31
0.0
  0
LINE
  5
17097
330
16E62
100
AcDbEntity
  8
寸法
 62
     0
 48
50.0
370
    -2
100
AcDbLine
 10
9250.47043893114
 20
4932.931598713265
 30
0.0
 11
9250.47043893114
 21
5371.589052292566
 31
0.0
  0
LINE
  5
17098
330
16E62
100
AcDbEntity
  8
寸法
 62
     0
 48
50.0
370
    -2
100
AcDbLine
 10
9310.470438931139
 20
5311.589052292566
 30
0.0
 11
9410.47043893114
 21
5311.589052292566
 31
0.0
  0
LINE
  5
17099
330
16E62
100
AcDbEntity
  8
寸法
 62
     0
 48
50.0
370
    -2
100
AcDbLine
 10
9250.47043893114
 20
5311.589052292566
 30
0.0
 11
8831.194848379958
 21
5311.589052292566
 31
0.0
  0
LINE
  5
1709A
330
16E62
100
AcDbEntity
  8
寸法
 62
     0
 48
50.0
370
    -2
100
AcDbLine
 10
9310.470438931139
 20
5311.589052292566
 30
0.0
 11
9250.47043893114
 21
5311.589052292566
 31
0.0
  0
INSERT
  5
1709B
330
16E62
100
AcDbEntity
  8
寸法
 62
     0
 48
50.0
370
    -2
100
AcDbBlockReference
  2
_DOTSMALL
 10
9310.470438931139
 20
5311.589052292566
 30
0.0
 41
100.0
 42
100.0
 43
100.0
 50
180.0
  0
INSERT
  5
1709C
330
16E62
100
AcDbEntity
  8
寸法
 62
     0
 48
50.0
370
    -2
100
AcDbBlockReference
  2
_DOTSMALL
 10
9250.47043893114
 20
5311.589052292566
 30
0.0
 41
100.0
 42
100.0
 43
100.0
  0
MTEXT
  5
1709D
330
16E62
100
AcDbEntity
  8
寸法
 62
     7
 48
50.0
100
AcDbMText
 10
8940.83264365555
 20
5411.589052292566
 30
0.0
 40
120.0
 41
0.0
 71
     5
 72
     1
  1
\A1;60
  7
STYLE1
 73
     1
 44
1.0
1001
ACAD
1000
MTEXTBEGIN
1070
    73
1070
     1
1070
    44
1040
1.0
1070
    74
1070
     0
1000
MTEXTEND
  0
POINT
  5
1709E
330
16E62
100
AcDbEntity
  8
DEFPOINTS
 62
     0
 48
50.0
100
AcDbPoint
 10
9310.470438931139
 20
4908.933216836238
 30
0.0
  0
POINT
  5
1709F
330
16E62
100
AcDbEntity
  8
DEFPOINTS
 62
     0
 48
50.0
100
AcDbPoint
 10
9250.47043893114
 20
4912.931598713265
 30
0.0
  0
POINT
  5
170A0
330
16E62
100
AcDbEntity
  8
DEFPOINTS
 62
     0
 48
50.0
100
AcDbPoint
 10
9250.47043893114
 20
5311.589052292566
 30
0.0
  0
ENDBLK
  5
16E6F
330
16E62
100
AcDbEntity
  8
0
 48
50.0
100
AcDbBlockEnd
  0
BLOCK
  5
16E7A
330
16E70
100
AcDbEntity
  8
0
 48
50.0
100
AcDbBlockBegin
  2
*D26
 70
     1
 10
0.0
 20
0.0
 30
0.0
  3
*D26
  1

  0
LINE
  5
18ACA
330
16E70
100
AcDbEntity
  8
寸法
 62
     0
 48
50.0
370
    -2
100
AcDbLine
 10
11520.47043893114
 20
4879.742278324915
 30
0.0
 11
11520.47043893114
 21
5371.589052292566
 31
0.0
  0
LINE
  5
18ACB
330
16E70
100
AcDbEntity
  8
寸法
 62
     0
 48
50.0
370
    -2
100
AcDbLine
 10
9310.470438931139
 20
4928.933216836238
 30
0.0
 11
9310.470438931139
 21
5371.589052292566
 31
0.0
  0
LINE
  5
18ACC
330
16E70
100
AcDbEntity
  8
寸法
 62
     0
 48
50.0
370
    -2
100
AcDbLine
 10
11520.47043893114
 20
5311.589052292566
 30
0.0
 11
9310.470438931139
 21
5311.589052292566
 31
0.0
  0
INSERT
  5
18ACD
330
16E70
100
AcDbEntity
  8
寸法
 62
     0
 48
50.0
370
    -2
100
AcDbBlockReference
  2
_DOTSMALL
 10
11520.47043893114
 20
5311.589052292566
 30
0.0
 41
100.0
 42
100.0
 43
100.0
  0
INSERT
  5
18ACE
330
16E70
100
AcDbEntity
  8
寸法
 62
     0
 48
50.0
370
    -2
100
AcDbBlockReference
  2
_DOTSMALL
 10
9310.470438931139
 20
5311.589052292566
 30
0.0
 41
100.0
 42
100.0
 43
100.0
 50
180.0
  0
MTEXT
  5
18ACF
330
16E70
100
AcDbEntity
  8
寸法
 62
     7
 48
50.0
100
AcDbMText
 10
10415.47043893114
 20
5411.600863316188
 30
0.0
 40
120.0
 41
0.0
 71
     5
 72
     1
  1
\A1;柱外寸法2210
  7
STYLE1
 73
     1
 44
1.0
1001
ACAD
1000
MTEXTBEGIN
1070
    73
1070
     1
1070
    44
1040
1.0
1070
    74
1070
     0
1000
MTEXTEND
  0
POINT
  5
18AD0
330
16E70
100
AcDbEntity
  8
DEFPOINTS
 62
     0
 48
50.0
100
AcDbPoint
 10
11520.47043893114
 20
4859.742278324915
 30
0.0
  0
POINT
  5
18AD1
330
16E70
100
AcDbEntity
  8
DEFPOINTS
 62
     0
 48
50.0
100
AcDbPoint
 10
9310.470438931139
 20
4908.933216836238
 30
0.0
  0
POINT
  5
18AD2
330
16E70
100
AcDbEntity
  8
DEFPOINTS
 62
     0
 48
50.0
100
AcDbPoint
 10
9310.470438931139
 20
5311.589052292566
 30
0.0
  0
ENDBLK
  5
16E7B
330
16E70
100
AcDbEntity
  8
0
 48
50.0
100
AcDbBlockEnd
  0
BLOCK
  5
16E86
330
16E7C
100
AcDbEntity
  8
0
 48
50.0
100
AcDbBlockBegin
  2
*D27
 70
     1
 10
0.0
 20
0.0
 30
0.0
  3
*D27
  1

  0
LINE
  5
18AC1
330
16E7C
100
AcDbEntity
  8
寸法
 62
     0
 48
50.0
370
    -2
100
AcDbLine
 10
11600.47043893114
 20
4877.931598713261
 30
0.0
 11
11600.47043893114
 21
5590.790885966857
 31
0.0
  0
LINE
  5
18AC2
330
16E7C
100
AcDbEntity
  8
寸法
 62
     0
 48
50.0
370
    -2
100
AcDbLine
 10
9250.47043893114
 20
4932.931598713265
 30
0.0
 11
9250.47043893114
 21
5590.790885966857
 31
0.0
  0
LINE
  5
18AC3
330
16E7C
100
AcDbEntity
  8
寸法
 62
     0
 48
50.0
370
    -2
100
AcDbLine
 10
11600.47043893114
 20
5530.790885966857
 30
0.0
 11
9250.47043893114
 21
5530.790885966857
 31
0.0
  0
INSERT
  5
18AC4
330
16E7C
100
AcDbEntity
  8
寸法
 62
     0
 48
50.0
370
    -2
100
AcDbBlockReference
  2
_DOTSMALL
 10
11600.47043893114
 20
5530.790885966857
 30
0.0
 41
100.0
 42
100.0
 43
100.0
  0
INSERT
  5
18AC5
330
16E7C
100
AcDbEntity
  8
寸法
 62
     0
 48
50.0
370
    -2
100
AcDbBlockReference
  2
_DOTSMALL
 10
9250.47043893114
 20
5530.790885966857
 30
0.0
 41
100.0
 42
100.0
 43
100.0
 50
180.0
  0
MTEXT
  5
18AC6
330
16E7C
100
AcDbEntity
  8
寸法
 62
     7
 48
50.0
100
AcDbMText
 10
10425.47043893114
 20
5630.802696990478
 30
0.0
 40
120.0
 41
0.0
 71
     5
 72
     1
  1
\A1;2350
  7
STYLE1
 73
     1
 44
1.0
1001
ACAD
1000
MTEXTBEGIN
1070
    73
1070
     1
1070
    44
1040
1.0
1070
    74
1070
     0
1000
MTEXTEND
  0
POINT
  5
18AC7
330
16E7C
100
AcDbEntity
  8
DEFPOINTS
 62
     0
 48
50.0
100
AcDbPoint
 10
11600.47043893114
 20
4857.931598713261
 30
0.0
  0
POINT
  5
18AC8
330
16E7C
100
AcDbEntity
  8
DEFPOINTS
 62
     0
 48
50.0
100
AcDbPoint
 10
9250.47043893114
 20
4912.931598713265
 30
0.0
  0
POINT
  5
18AC9
330
16E7C
100
AcDbEntity
  8
DEFPOINTS
 62
     0
 48
50.0
100
AcDbPoint
 10
9250.47043893114
 20
5530.790885966857
 30
0.0
  0
ENDBLK
  5
16E87
330
16E7C
100
AcDbEntity
  8
0
 48
50.0
100
AcDbBlockEnd
  0
BLOCK
  5
16E93
330
16E88
100
AcDbEntity
  8
0
 48
50.0
100
AcDbBlockBegin
  2
*D28
 70
     1
 10
0.0
 20
0.0
 30
0.0
  3
*D28
  1

  0
LINE
  5
1707A
330
16E88
100
AcDbEntity
  8
寸法
 62
     0
 48
50.0
370
    -2
100
AcDbLine
 10
11520.47043893114
 20
4879.742278324915
 30
0.0
 11
11520.47043893114
 21
5371.589052292566
 31
0.0
  0
LINE
  5
1707B
330
16E88
100
AcDbEntity
  8
寸法
 62
     0
 48
50.0
370
    -2
100
AcDbLine
 10
11600.47043893114
 20
4877.931598713261
 30
0.0
 11
11600.47043893114
 21
5371.589052292566
 31
0.0
  0
LINE
  5
1707C
330
16E88
100
AcDbEntity
  8
寸法
 62
     0
 48
50.0
370
    -2
100
AcDbLine
 10
11520.47043893114
 20
5311.589052292566
 30
0.0
 11
11600.47043893114
 21
5311.589052292566
 31
0.0
  0
LINE
  5
1707D
330
16E88
100
AcDbEntity
  8
寸法
 62
     0
 48
50.0
370
    -2
100
AcDbLine
 10
11600.47043893114
 20
5311.589052292566
 30
0.0
 11
11912.56492712012
 21
5311.589052292566
 31
0.0
  0
INSERT
  5
1707E
330
16E88
100
AcDbEntity
  8
寸法
 62
     0
 48
50.0
370
    -2
100
AcDbBlockReference
  2
_DOTSMALL
 10
11520.47043893114
 20
5311.589052292566
 30
0.0
 41
100.0
 42
100.0
 43
100.0
 50
180.0
  0
INSERT
  5
1707F
330
16E88
100
AcDbEntity
  8
寸法
 62
     0
 48
50.0
370
    -2
100
AcDbBlockReference
  2
_DOTSMALL
 10
11600.47043893114
 20
5311.589052292566
 30
0.0
 41
100.0
 42
100.0
 43
100.0
  0
MTEXT
  5
17080
330
16E88
100
AcDbEntity
  8
寸法
 62
     7
 48
50.0
100
AcDbMText
 10
11806.51768302563
 20
5411.589052292566
 30
0.0
 40
120.0
 41
0.0
 71
     5
 72
     1
  1
\A1;80
  7
STYLE1
 73
     1
 44
1.0
1001
ACAD
1000
MTEXTBEGIN
1070
    73
1070
     1
1070
    44
1040
1.0
1070
    74
1070
     0
1000
MTEXTEND
  0
POINT
  5
17081
330
16E88
100
AcDbEntity
  8
DEFPOINTS
 62
     0
 48
50.0
100
AcDbPoint
 10
11520.47043893114
 20
4859.742278324915
 30
0.0
  0
POINT
  5
17082
330
16E88
100
AcDbEntity
  8
DEFPOINTS
 62
     0
 48
50.0
100
AcDbPoint
 10
11600.47043893114
 20
4857.931598713261
 30
0.0
  0
POINT
  5
17083
330
16E88
100
AcDbEntity
  8
DEFPOINTS
 62
     0
 48
50.0
100
AcDbPoint
 10
11600.47043893114
 20
5311.589052292566
 30
0.0
  0
ENDBLK
  5
16E94
330
16E88
100
AcDbEntity
  8
0
 48
50.0
100
AcDbBlockEnd
  0
BLOCK
  5
183EF
330
183E5
100
AcDbEntity
  8
0
 48
50.0
100
AcDbBlockBegin
  2
*D29
 70
     1
 10
0.0
 20
0.0
 30
0.0
  3
*D29
  1

  0
LINE
  5
18534
330
183E5
100
AcDbEntity
  8
寸法
 62
     0
 48
50.0
370
    -2
100
AcDbLine
 10
6067.814073275041
 20
8692.497424546044
 30
0.0
 11
5965.072259316442
 21
8309.059754790768
 31
0.0
  0
LINE
  5
18535
330
183E5
100
AcDbEntity
  8
寸法
 62
     0
 48
50.0
370
    -2
100
AcDbLine
 10
7340.814073275052
 20
8692.497424546036
 30
0.0
 11
7238.072259316457
 21
8309.059754790768
 31
0.0
  0
LINE
  5
18536
330
183E5
100
AcDbEntity
  8
寸法
 62
     0
 48
50.0
370
    -2
100
AcDbLine
 10
5981.14921086231
 20
8369.059754790766
 30
0.0
 11
7254.149210862323
 21
8369.059754790766
 31
0.0
  0
INSERT
  5
18537
330
183E5
100
AcDbEntity
  8
寸法
 62
     0
 48
50.0
370
    -2
100
AcDbBlockReference
  2
_DOTSMALL
 10
5981.14921086231
 20
8369.059754790766
 30
0.0
 41
100.0
 42
100.0
 43
100.0
 50
180.0
  0
INSERT
  5
18538
330
183E5
100
AcDbEntity
  8
寸法
 62
     0
 48
50.0
370
    -2
100
AcDbBlockReference
  2
_DOTSMALL
 10
7254.149210862323
 20
8369.059754790766
 30
0.0
 41
100.0
 42
100.0
 43
100.0
  0
MTEXT
  5
18539
330
183E5
100
AcDbEntity
  8
寸法
 62
     7
 48
50.0
100
AcDbMText
 10
6664.158372861959
 20
8469.071565814388
 30
0.0
 40
120.0
 41
0.0
 71
     5
 72
     1
  1
\A1;1273
  7
STYLE1
 73
     1
 44
1.0
1001
ACAD
1000
MTEXTBEGIN
1070
    73
1070
     1
1070
    44
1040
1.0
1070
    74
1070
     0
1000
MTEXTEND
  0
POINT
  5
1853A
330
183E5
100
AcDbEntity
  8
DEFPOINTS
 62
     0
 48
50.0
100
AcDbPoint
 10
6073.173057123663
 20
8712.497424546043
 30
0.0
  0
POINT
  5
1853B
330
183E5
100
AcDbEntity
  8
DEFPOINTS
 62
     0
 48
50.0
100
AcDbPoint
 10
7346.173057123675
 20
8712.497424546036
 30
0.0
  0
POINT
  5
1853C
330
183E5
100
AcDbEntity
  8
DEFPOINTS
 62
     0
 48
50.0
100
AcDbPoint
 10
7254.149210862323
 20
8369.059754790766
 30
0.0
  0
ENDBLK
  5
183F0
330
183E5
100
AcDbEntity
  8
0
 48
50.0
100
AcDbBlockEnd
  0
BLOCK
  5
1844A
330
18440
100
AcDbEntity
  8
0
 48
50.0
100
AcDbBlockBegin
  2
*D30
 70
     1
 10
0.0
 20
0.0
 30
0.0
  3
*D30
  1

  0
LINE
  5
1852B
330
18440
100
AcDbEntity
  8
寸法
 62
     0
 48
50.0
370
    -2
100
AcDbLine
 10
4767.814073275041
 20
8692.497424545939
 30
0.0
 11
4665.07225931647
 21
8309.059754790768
 31
0.0
  0
LINE
  5
1852C
330
18440
100
AcDbEntity
  8
寸法
 62
     0
 48
50.0
370
    -2
100
AcDbLine
 10
6040.814073275054
 20
8692.497424545932
 30
0.0
 11
5938.072259316485
 21
8309.059754790768
 31
0.0
  0
LINE
  5
1852D
330
18440
100
AcDbEntity
  8
寸法
 62
     0
 48
50.0
370
    -2
100
AcDbLine
 10
4681.149210862339
 20
8369.059754790766
 30
0.0
 11
5954.149210862352
 21
8369.059754790766
 31
0.0
  0
INSERT
  5
1852E
330
18440
100
AcDbEntity
  8
寸法
 62
     0
 48
50.0
370
    -2
100
AcDbBlockReference
  2
_DOTSMALL
 10
4681.149210862339
 20
8369.059754790766
 30
0.0
 41
100.0
 42
100.0
 43
100.0
 50
180.0
  0
INSERT
  5
1852F
330
18440
100
AcDbEntity
  8
寸法
 62
     0
 48
50.0
370
    -2
100
AcDbBlockReference
  2
_DOTSMALL
 10
5954.149210862352
 20
8369.059754790766
 30
0.0
 41
100.0
 42
100.0
 43
100.0
  0
MTEXT
  5
18530
330
18440
100
AcDbEntity
  8
寸法
 62
     7
 48
50.0
100
AcDbMText
 10
5317.649210862346
 20
8469.071565814388
 30
0.0
 40
120.0
 41
0.0
 71
     5
 72
     1
  1
\A1;1273
  7
STYLE1
 73
     1
 44
1.0
1001
ACAD
1000
MTEXTBEGIN
1070
    73
1070
     1
1070
    44
1040
1.0
1070
    74
1070
     0
1000
MTEXTEND
  0
POINT
  5
18531
330
18440
100
AcDbEntity
  8
DEFPOINTS
 62
     0
 48
50.0
100
AcDbPoint
 10
4773.173057123663
 20
8712.497424545938
 30
0.0
  0
POINT
  5
18532
330
18440
100
AcDbEntity
  8
DEFPOINTS
 62
     0
 48
50.0
100
AcDbPoint
 10
6046.173057123676
 20
8712.497424545931
 30
0.0
  0
POINT
  5
18533
330
18440
100
AcDbEntity
  8
DEFPOINTS
 62
     0
 48
50.0
100
AcDbPoint
 10
5954.149210862352
 20
8369.059754790766
 30
0.0
  0
ENDBLK
  5
1844B
330
18440
100
AcDbEntity
  8
0
 48
50.0
100
AcDbBlockEnd
  0
BLOCK
  5
18740
330
18736
100
AcDbEntity
  8
0
 48
50.0
100
AcDbBlockBegin
  2
*D31
 70
     1
 10
0.0
 20
0.0
 30
0.0
  3
*D31
  1

  0
LINE
  5
18801
330
18736
100
AcDbEntity
  8
寸法
 62
     0
 48
50.0
370
    -2
100
AcDbLine
 10
7394.673057123657
 20
2599.931598713262
 30
0.0
 11
7722.216159445403
 21
2599.931598713262
 31
0.0
  0
LINE
  5
18802
330
18736
100
AcDbEntity
  8
寸法
 62
     0
 48
50.0
370
    -2
100
AcDbLine
 10
7394.673057123657
 20
4485.93159871326
 30
0.0
 11
7722.216159445403
 21
4485.93159871326
 31
0.0
  0
LINE
  5
18803
330
18736
100
AcDbEntity
  8
寸法
 62
     0
 48
50.0
370
    -2
100
AcDbLine
 10
7662.216159445403
 20
2599.931598713262
 30
0.0
 11
7662.216159445403
 21
4485.93159871326
 31
0.0
  0
INSERT
  5
18804
330
18736
100
AcDbEntity
  8
寸法
 62
     0
 48
50.0
370
    -2
100
AcDbBlockReference
  2
_DOTSMALL
 10
7662.216159445403
 20
2599.931598713262
 30
0.0
 41
100.0
 42
100.0
 43
100.0
 50
270.0
  0
INSERT
  5
18805
330
18736
100
AcDbEntity
  8
寸法
 62
     0
 48
50.0
370
    -2
100
AcDbBlockReference
  2
_DOTSMALL
 10
7662.216159445403
 20
4485.93159871326
 30
0.0
 41
100.0
 42
100.0
 43
100.0
 50
90.0
  0
MTEXT
  5
18806
330
18736
100
AcDbEntity
  8
寸法
 62
     7
 48
50.0
100
AcDbMText
 10
7562.216159445402
 20
3542.931598713263
 30
0.0
 40
120.0
 41
0.0
 71
     5
 72
     1
  1
\A1;有効開口部高サ 1886
  7
STYLE1
 11
0.0000000000000001
 21
1.0
 31
0.0
 73
     1
 44
1.0
1001
ACAD
1000
MTEXTBEGIN
1070
    73
1070
     1
1070
    44
1040
1.0
1070
    74
1070
     0
1000
MTEXTEND
  0
POINT
  5
18807
330
18736
100
AcDbEntity
  8
DEFPOINTS
 62
     0
 48
50.0
100
AcDbPoint
 10
7374.673057123657
 20
2599.931598713262
 30
0.0
  0
POINT
  5
18808
330
18736
100
AcDbEntity
  8
DEFPOINTS
 62
     0
 48
50.0
100
AcDbPoint
 10
7374.673057123658
 20
4485.93159871326
 30
0.0
  0
POINT
  5
18809
330
18736
100
AcDbEntity
  8
DEFPOINTS
 62
     0
 48
50.0
100
AcDbPoint
 10
7662.216159445403
 20
4485.93159871326
 30
0.0
  0
ENDBLK
  5
18741
330
18736
100
AcDbEntity
  8
0
 48
50.0
100
AcDbBlockEnd
  0
BLOCK
  5
1874E
330
18742
100
AcDbEntity
  8
0
 48
50.0
100
AcDbBlockBegin
  2
*D32
 70
     1
 10
0.0
 20
0.0
 30
0.0
  3
*D32
  1

  0
LINE
  5
18B04
330
18742
100
AcDbEntity
  8
寸法
 62
     0
 48
50.0
370
    -2
100
AcDbLine
 10
7394.673057123657
 20
4485.93159871326
 30
0.0
 11
7722.216159445403
 21
4485.93159871326
 31
0.0
  0
LINE
  5
18B05
330
18742
100
AcDbEntity
  8
寸法
 62
     0
 48
50.0
370
    -2
100
AcDbLine
 10
7394.67305712366
 20
4512.931598713263
 30
0.0
 11
7722.216159445403
 21
4512.931598713263
 31
0.0
  0
LINE
  5
18B06
330
18742
100
AcDbEntity
  8
寸法
 62
     0
 48
50.0
370
    -2
100
AcDbLine
 10
7662.216159445403
 20
4485.93159871326
 30
0.0
 11
7662.216159445403
 21
4385.93159871326
 31
0.0
  0
LINE
  5
18B07
330
18742
100
AcDbEntity
  8
寸法
 62
     0
 48
50.0
370
    -2
100
AcDbLine
 10
7662.216159445403
 20
4512.931598713263
 30
0.0
 11
7662.216159445403
 21
4612.931598713263
 31
0.0
  0
MTEXT
  5
18B08
330
18742
100
AcDbEntity
  8
寸法
 62
     7
 48
50.0
100
AcDbMText
 10
7802.385982691768
 20
4513.89879855292
 30
0.0
 40
120.0
 41
0.0
 71
     5
 72
     1
  1
\A1;27
  7
STYLE1
 11
0.0000000000000001
 21
1.0
 31
0.0
 73
     1
 44
1.0
1001
ACAD
1000
MTEXTBEGIN
1070
    73
1070
     1
1070
    44
1040
1.0
1070
    74
1070
     0
1000
MTEXTEND
  0
LINE
  5
18B09
330
18742
100
AcDbEntity
  8
寸法
 62
     0
 48
50.0
370
    -2
100
AcDbLine
 10
7662.216159445403
 20
4485.93159871326
 30
0.0
 11
7662.216159445403
 21
4512.931598713263
 31
0.0
  0
INSERT
  5
18B0A
330
18742
100
AcDbEntity
  8
寸法
 62
     0
 48
50.0
370
    -2
100
AcDbBlockReference
  2
_DOTSMALL
 10
7662.216159445403
 20
4485.93159871326
 30
0.0
 41
100.0
 42
100.0
 43
100.0
 50
90.0
  0
INSERT
  5
18B0B
330
18742
100
AcDbEntity
  8
寸法
 62
     0
 48
50.0
370
    -2
100
AcDbBlockReference
  2
_DOTSMALL
 10
7662.216159445403
 20
4512.931598713263
 30
0.0
 41
100.0
 42
100.0
 43
100.0
 50
270.0
  0
POINT
  5
18B0C
330
18742
100
AcDbEntity
  8
DEFPOINTS
 62
     0
 48
50.0
100
AcDbPoint
 10
7374.673057123658
 20
4485.93159871326
 30
0.0
  0
POINT
  5
18B0D
330
18742
100
AcDbEntity
  8
DEFPOINTS
 62
     0
 48
50.0
100
AcDbPoint
 10
7374.67305712366
 20
4512.931598713263
 30
0.0
  0
POINT
  5
18B0E
330
18742
100
AcDbEntity
  8
DEFPOINTS
 62
     0
 48
50.0
100
AcDbPoint
 10
7662.216159445403
 20
4512.931598713263
 30
0.0
  0
ENDBLK
  5
1874F
330
18742
100
AcDbEntity
  8
0
 48
50.0
100
AcDbBlockEnd
  0
BLOCK
  5
1875B
330
18750
100
AcDbEntity
  8
0
 48
50.0
100
AcDbBlockBegin
  2
*D33
 70
     1
 10
0.0
 20
0.0
 30
0.0
  3
*D33
  1

  0
LINE
  5
18AFA
330
18750
100
AcDbEntity
  8
寸法
 62
     0
 48
50.0
370
    -2
100
AcDbLine
 10
7394.67305712366
 20
4512.931598713263
 30
0.0
 11
7722.216159445403
 21
4512.931598713263
 31
0.0
  0
LINE
  5
18AFB
330
18750
100
AcDbEntity
  8
寸法
 62
     0
 48
50.0
370
    -2
100
AcDbLine
 10
7394.673057123657
 20
4677.931598713261
 30
0.0
 11
7722.216159445403
 21
4677.931598713261
 31
0.0
  0
LINE
  5
18AFC
330
18750
100
AcDbEntity
  8
寸法
 62
     0
 48
50.0
370
    -2
100
AcDbLine
 10
7662.216159445404
 20
4512.931598713263
 30
0.0
 11
7662.216159445404
 21
4677.931598713261
 31
0.0
  0
LINE
  5
18AFD
330
18750
100
AcDbEntity
  8
寸法
 62
     0
 48
50.0
370
    -2
100
AcDbLine
 10
7662.216159445404
 20
4677.931598713261
 30
0.0
 11
7662.216159445404
 21
5054.90216146174
 31
0.0
  0
INSERT
  5
18AFE
330
18750
100
AcDbEntity
  8
寸法
 62
     0
 48
50.0
370
    -2
100
AcDbBlockReference
  2
_DOTSMALL
 10
7662.216159445404
 20
4512.931598713263
 30
0.0
 41
100.0
 42
100.0
 43
100.0
 50
270.0
  0
INSERT
  5
18AFF
330
18750
100
AcDbEntity
  8
寸法
 62
     0
 48
50.0
370
    -2
100
AcDbBlockReference
  2
_DOTSMALL
 10
7662.216159445404
 20
4677.931598713261
 30
0.0
 41
100.0
 42
100.0
 43
100.0
 50
90.0
  0
MTEXT
  5
18B00
330
18750
100
AcDbEntity
  8
寸法
 62
     7
 48
50.0
100
AcDbMText
 10
7562.216159445402
 20
4916.416880087502
 30
0.0
 40
120.0
 41
0.0
 71
     5
 72
     1
  1
\A1;165
  7
STYLE1
 11
0.0000000000000001
 21
1.0
 31
0.0
 73
     1
 44
1.0
1001
ACAD
1000
MTEXTBEGIN
1070
    73
1070
     1
1070
    44
1040
1.0
1070
    74
1070
     0
1000
MTEXTEND
  0
POINT
  5
18B01
330
18750
100
AcDbEntity
  8
DEFPOINTS
 62
     0
 48
50.0
100
AcDbPoint
 10
7374.67305712366
 20
4512.931598713263
 30
0.0
  0
POINT
  5
18B02
330
18750
100
AcDbEntity
  8
DEFPOINTS
 62
     0
 48
50.0
100
AcDbPoint
 10
7374.673057123657
 20
4677.931598713261
 30
0.0
  0
POINT
  5
18B03
330
18750
100
AcDbEntity
  8
DEFPOINTS
 62
     0
 48
50.0
100
AcDbPoint
 10
7662.216159445404
 20
4677.931598713261
 30
0.0
  0
ENDBLK
  5
1875C
330
18750
100
AcDbEntity
  8
0
 48
50.0
100
AcDbBlockEnd
  0
ENDSEC
  0
SECTION
  2
ENTITIES
  0
MTEXT
  5
763F
330
747D
100
AcDbEntity
  8
0
100
AcDbMText
 10
302.846345836809
 20
280.1983726409901
 30
0.0
 40
3.5
 41
5.323721266742722
 71
     1
 72
     5
  1

  7
MSMINCHO
 73
     1
 44
1.0
1001
ACAD
1000
MTEXTBEGIN
1070
    73
1070
     1
1070
    44
1040
1.0
1070
    74
1070
     0
1000
MTEXTEND
  0
LINE
  5
10B57
330
747D
100
AcDbEntity
  8
補助
  6
PHANTOM
 62
   230
 48
50.0
100
AcDbLine
 10
139.9999999999995
 20
11409.6
 30
0.0
 11
16307.2
 21
11409.6
 31
0.0
  0
LINE
  5
10B59
330
747D
100
AcDbEntity
  8
仕様書枠
  6
Continuous
 48
50.0
100
AcDbLine
 10
13107.2
 20
1200.0
 30
0.0
 11
13107.2
 21
-0.0000000000000729
 31
0.0
  0
LINE
  5
10B5C
330
747D
100
AcDbEntity
  8
仕様書枠
 48
50.0
100
AcDbLine
 10
16307.2
 20
1200.0
 30
0.0
 11
16307.2
 21
-0.0000000000000909
 31
0.0
  0
LINE
  5
10B5D
330
747D
100
AcDbEntity
  8
仕様書枠
 48
50.0
100
AcDbLine
 10
140.0
 20
0.0
 30
0.0
 11
16307.2
 21
-0.0000000000000909
 31
0.0
  0
LINE
  5
10B5E
330
747D
100
AcDbEntity
  8
補助
  6
PHANTOM
 62
   230
 48
50.0
100
AcDbLine
 10
16307.2
 20
11409.6
 30
0.0
 11
16307.2
 21
1200.0
 31
0.0
  0
LINE
  5
10B6C
330
747D
100
AcDbEntity
  8
仕様書枠
 48
50.0
100
AcDbLine
 10
13107.2
 20
1200.0
 30
0.0
 11
16307.2
 21
1200.0
 31
0.0
  0
LINE
  5
10B6D
330
747D
100
AcDbEntity
  8
補助
  6
PHANTOM
 62
   230
 48
50.0
100
AcDbLine
 10
13107.2
 20
11409.6
 30
0.0
 11
13107.2
 21
4800.0
 31
0.0
  0
LINE
  5
10B6F
330
747D
100
AcDbEntity
  8
補助
  6
PHANTOM
 62
   230
 48
50.0
100
AcDbLine
 10
13107.2
 20
4800.0
 30
0.0
 11
16307.2
 21
4800.0
 31
0.0
  0
LINE
  5
10B72
330
747D
100
AcDbEntity
  8
文字
 62
     7
 48
50.0
100
AcDbLine
 10
13187.2
 20
400.0
 30
0.0
 11
16227.2
 21
400.0
 31
0.0
  0
TEXT
  5
10B73
330
747D
100
AcDbEntity
  8
文字
 62
     7
 48
50.0
100
AcDbText
 10
13162.9790565769
 20
895.0906074299405
 30
0.0
 40
200.0
  1
外 形 図
  7
STYLE2
100
AcDbText
  0
TEXT
  5
10B74
330
747D
100
AcDbEntity
  8
文字
 62
     7
 48
50.0
100
AcDbText
 10
13201.43669998441
 20
477.2740661031255
 30
0.0
 40
160.0
  1
機種名
  7
STYLE2
100
AcDbText
  0
TEXT
  5
10B75
330
747D
100
AcDbEntity
  8
文字
 62
     7
 48
50.0
100
AcDbText
 10
13209.4053442172
 20
228.5435242569016
 30
0.0
 40
100.0
  1
○有効開口寸法 ： 2424×1886(mm)
  7
STYLE2
100
AcDbText
  0
TEXT
  5
10B76
330
747D
100
AcDbEntity
  8
文字
 62
     7
 48
50.0
100
AcDbText
 10
13209.4053442172
 20
76.09434707649343
 30
0.0
 40
100.0
  1
○床面積 ： 5.81㎡(1.76坪) 　
  7
STYLE2
100
AcDbText
  0
TEXT
  5
10B79
330
747D
100
AcDbEntity
  8
文字
 62
     7
 48
50.0
100
AcDbText
 10
14524.131837222
 20
1031.557706291228
 30
0.0
 40
100.0
  1
NO.16      <縮尺> S=1/40
  7
STYLE2
100
AcDbText
  0
LINE
  5
10B7B
330
747D
100
AcDbEntity
  8
仕様書枠
 48
50.0
100
AcDbLine
 10
13107.2
 20
800.0
 30
0.0
 11
14251.2
 21
800.0
 31
0.0
  0
LINE
  5
10B88
330
747D
100
AcDbEntity
  8
仕様書枠
  6
Continuous
 48
50.0
100
AcDbLine
 10
14251.2
 20
1200.0
 30
0.0
 11
14251.2
 21
800.0
 31
0.0
  0
DIMENSION
  5
1633A
330
747D
100
AcDbEntity
  8
寸法
100
AcDbDimension
  2
*D1
 10
8022.099402858071
 20
7037.497424546021
 30
0.0
 11
7922.087591834449
 21
8087.497424546027
 31
0.0
 70
    32
  1
5X420=<>
 71
     5
 42
-1.0
  3
INABA_S40G
100
AcDbAlignedDimension
 13
7374.673057123664
 23
9137.497424546037
 33
0.0
 14
7374.673057123638
 24
7037.497424546022
 34
0.0
 50
90.0
100
AcDbRotatedDimension
1001
ACAD
1000
DSTYLE
1002
{
1002
}
  0
DIMENSION
  5
1633B
330
747D
100
AcDbEntity
  8
寸法
100
AcDbDimension
  2
*D2
 10
8022.099402858048
 20
6982.497424546024
 30
0.0
 11
8022.099402858048
 21
6604.635957641163
 31
0.0
 70
   160
 71
     5
 42
-1.0
  3
INABA_S40G
100
AcDbAlignedDimension
 13
7374.673057123638
 23
7037.497424546022
 33
0.0
 14
7374.673057123638
 24
6982.497424546025
 34
0.0
 50
90.0
100
AcDbRotatedDimension
1001
ACAD
1000
DSTYLE
1002
{
1002
}
  0
DIMENSION
  5
1633C
330
747D
100
AcDbEntity
  8
寸法
100
AcDbDimension
  2
*D3
 10
8022.099402858072
 20
9137.497424546037
 30
0.0
 11
8022.099402858072
 21
9500.982705920272
 31
0.0
 12
0.0
 22
-840.0
 32
0.0
 70
   160
 71
     5
 42
-1.0
  3
INABA_S40G
100
AcDbAlignedDimension
 13
7374.673057123664
 23
9192.497424546033
 33
0.0
 14
7374.673057123664
 24
9137.497424546037
 34
0.0
 50
90.0
100
AcDbRotatedDimension
1001
ACAD
1000
DSTYLE
1002
{
1002
}
  0
DIMENSION
  5
1633D
330
747D
100
AcDbEntity
  8
寸法
100
AcDbDimension
  2
*D4
 10
8387.206344597709
 20
6982.497424546024
 30
0.0
 11
8287.194533574087
 21
8087.497424546027
 31
0.0
 70
    32
 71
     5
 42
-1.0
  3
INABA_S40G
100
AcDbAlignedDimension
 13
7374.673057123664
 23
9192.497424546033
 33
0.0
 14
7374.673057123638
 24
6982.497424546025
 34
0.0
 50
90.0
100
AcDbRotatedDimension
1001
ACAD
1000
DSTYLE
1002
{
1002
}
  0
LINE
  5
1633E
330
747D
100
AcDbEntity
  8
細線
 48
50.0
100
AcDbLine
 10
6046.173057123662
 20
8712.497424546043
 30
0.0
 11
4773.173057123663
 21
9162.497424545938
 31
0.0
  0
LINE
  5
1633F
330
747D
100
AcDbEntity
  8
細線
 48
50.0
100
AcDbLine
 10
6046.173057123663
 20
9162.497424546039
 30
0.0
 11
4773.173057123663
 21
8712.497424545938
 31
0.0
  0
LINE
  5
16340
330
747D
100
AcDbEntity
  8
部品1
 48
50.0
100
AcDbLine
 10
4773.173057123663
 20
9162.497424545934
 30
0.0
 11
4773.173057123663
 21
8712.497424545935
 31
0.0
  0
LINE
  5
16341
330
747D
100
AcDbEntity
  8
細線
 48
50.0
100
AcDbLine
 10
7346.173057123664
 20
9162.497424546032
 30
0.0
 11
6073.173057123662
 21
8712.497424546043
 31
0.0
  0
LINE
  5
16342
330
747D
100
AcDbEntity
  8
細線
 48
50.0
100
AcDbLine
 10
7346.173057123664
 20
8712.497424546036
 30
0.0
 11
6073.173057123663
 21
9162.497424546037
 31
0.0
  0
LINE
  5
16343
330
747D
100
AcDbEntity
  8
部品1
 48
50.0
100
AcDbLine
 10
6046.173057123663
 20
9162.497424546039
 30
0.0
 11
6046.173057123663
 21
8712.497424546043
 31
0.0
  0
LINE
  5
16344
330
747D
100
AcDbEntity
  8
部品1
 48
50.0
100
AcDbLine
 10
6073.173057123663
 20
9162.497424546037
 30
0.0
 11
6073.173057123663
 21
8712.497424546043
 31
0.0
  0
LINE
  5
16345
330
747D
100
AcDbEntity
  8
部品1
 48
50.0
100
AcDbLine
 10
6047.173057123662
 20
9164.497424546047
 30
0.0
 11
6047.173057123663
 21
8712.497424546043
 31
0.0
  0
LINE
  5
16346
330
747D
100
AcDbEntity
  8
部品1
 48
50.0
100
AcDbLine
 10
6072.173057123663
 20
9164.497424546043
 30
0.0
 11
6072.173057123663
 21
8712.497424546043
 31
0.0
  0
DIMENSION
  5
16347
330
747D
100
AcDbEntity
  8
寸法
100
AcDbDimension
  2
*D5
 10
7701.530782985688
 20
8617.279608877145
 30
0.0
 11
7601.530782985688
 21
9682.279608877145
 31
0.0
 12
0.0
 22
-840.0
 32
0.0
 70
    32
 71
     5
 42
-1.0
  3
INABA_S40G
100
AcDbAlignedDimension
 13
7346.173057123664
 23
9162.497424546032
 33
0.0
 14
7346.173057123664
 24
8712.497424546036
 34
0.0
 50
90.0
100
AcDbRotatedDimension
1001
ACAD
1000
DSTYLE
1002
{
1002
}
  0
LINE
  5
16348
330
747D
100
AcDbEntity
  8
部品1
100
AcDbLine
 10
7346.173057123664
 20
9162.497424546032
 30
0.0
 11
7346.173057123664
 21
8712.497424546036
 31
0.0
  0
LINE
  5
16349
330
747D
100
AcDbEntity
  8
部品1
100
AcDbLine
 10
7346.673057123648
 20
9164.497424546032
 30
0.0
 11
7346.673057123641
 21
7037.497424546022
 31
0.0
  0
LINE
  5
1634A
330
747D
100
AcDbEntity
  8
部品1
100
AcDbLine
 10
4772.673057123639
 20
7037.497424545891
 30
0.0
 11
4772.673057123649
 21
9164.49742454594
 31
0.0
  0
LINE
  5
1634B
330
747D
100
AcDbEntity
  8
部品1
100
AcDbLine
 10
7374.673057123664
 20
9192.497424546033
 30
0.0
 11
7374.673057123638
 21
6982.497424546025
 31
0.0
  0
LINE
  5
1634C
330
747D
100
AcDbEntity
  8
部品1
100
AcDbLine
 10
4744.673057123629
 20
9192.497424545905
 30
0.0
 11
4744.673057123656
 21
6982.497424545894
 31
0.0
  0
LINE
  5
16350
330
747D
100
AcDbEntity
  8
部品1
100
AcDbLine
 10
4773.173057123663
 20
8712.497424545938
 30
0.0
 11
6046.173057123662
 21
8712.497424546043
 31
0.0
  0
DIMENSION
  5
16351
330
747D
100
AcDbEntity
  8
寸法
 48
50.0
100
AcDbDimension
  2
*D6
 10
4847.673057123657
 20
6448.06665377977
 30
0.0
 11
6059.673057123648
 21
6548.078464803392
 31
0.0
 70
    32
  1
有効開口部間口 <>
 71
     5
 42
-1.0
  3
INABA_S40G
100
AcDbAlignedDimension
 13
7271.673057123638
 23
7008.497424545935
 33
0.0
 14
4847.673057123657
 24
7008.497424545933
 34
0.0
100
AcDbRotatedDimension
1001
ACAD
1000
DSTYLE
1002
{
1070
    75
1070
     1
1070
   279
1070
     2
1002
}
  0
LINE
  5
16353
330
747D
100
AcDbEntity
  8
部品1
 48
50.0
100
AcDbLine
 10
4811.673057123655
 20
7027.997424545933
 30
0.0
 11
7307.67305712364
 21
7027.997424545933
 31
0.0
  0
DIMENSION
  5
16354
330
747D
100
AcDbEntity
  8
寸法
100
AcDbDimension
  2
*D7
 10
7374.673057123638
 20
6161.893658188896
 30
0.0
 11
6059.673057123648
 21
6161.893658188896
 31
0.0
 70
   160
 71
     5
 42
2629.999999999982
  3
INABA_S40G
100
AcDbAlignedDimension
 13
4744.673057123656
 23
6982.497424545861
 33
0.0
 14
7374.673057123638
 24
6982.497424545988
 34
0.0
100
AcDbRotatedDimension
1001
ACAD
1000
DSTYLE
1002
{
1002
}
  0
LINE
  5
16355
330
747D
100
AcDbEntity
  8
部品1
100
AcDbLine
 10
4799.67305712364
 20
8712.49742454594
 30
0.0
 11
4799.673057123656
 21
7047.497424545932
 31
0.0
  0
DIMENSION
  5
16357
330
747D
100
AcDbEntity
  8
寸法
 48
50.0
100
AcDbDimension
  2
*D8
 10
4744.673057123656
 20
6448.06665377977
 30
0.0
 11
4436.187775749418
 21
6448.06665377977
 31
0.0
 70
   160
 71
     5
 42
-1.0
  3
INABA_S40G
100
AcDbAlignedDimension
 13
4799.673057123653
 23
6982.497424545933
 33
0.0
 14
4744.673057123656
 24
6982.49742454593
 34
0.0
100
AcDbRotatedDimension
1001
ACAD
1000
DSTYLE
1002
{
1002
}
  0
DIMENSION
  5
16358
330
747D
100
AcDbEntity
  8
寸法
 48
50.0
100
AcDbDimension
  2
*D9
 10
4799.673057123653
 20
6448.06665377977
 30
0.0
 11
4960.575028123714
 21
6548.06665377977
 31
0.0
 70
   160
 71
     5
 42
-1.0
  3
INABA_S40G
100
AcDbAlignedDimension
 13
4847.673057123657
 23
7008.497424545933
 33
0.0
 14
4799.673057123653
 24
6982.497424545933
 34
0.0
100
AcDbRotatedDimension
1001
ACAD
1000
DSTYLE
1002
{
1070
   279
1070
     2
1002
}
  0
LINE
  5
16359
330
747D
100
AcDbEntity
  8
部品1
100
AcDbLine
 10
4799.673057123652
 20
6982.497424545933
 30
0.0
 11
4744.673057123656
 21
6982.49742454593
 31
0.0
  0
LINE
  5
1635A
330
747D
100
AcDbEntity
  8
部品1
 48
50.0
100
AcDbLine
 10
4799.673057123657
 20
7018.497424545933
 30
0.0
 11
4776.673057123656
 21
7018.497424545933
 31
0.0
  0
LINE
  5
1635B
330
747D
100
AcDbEntity
  8
部品1
 48
50.0
100
AcDbLine
 10
4809.673057123657
 20
7008.497424545933
 30
0.0
 11
4799.673057123657
 21
6987.497424545934
 31
0.0
  0
LINE
  5
1635C
330
747D
100
AcDbEntity
  8
部品1
 48
50.0
100
AcDbLine
 10
4799.673057123657
 20
7047.497424545932
 30
0.0
 11
4799.673057123653
 21
6982.497424545933
 31
0.0
  0
LINE
  5
1635D
330
747D
100
AcDbEntity
  8
部品1
 48
50.0
100
AcDbLine
 10
4847.673057123657
 20
7008.497424545935
 30
0.0
 11
4847.673057123657
 21
7017.497424545934
 31
0.0
  0
LINE
  5
1635E
330
747D
100
AcDbEntity
  8
部品1
 48
50.0
100
AcDbLine
 10
4847.673057123657
 20
7047.497424545935
 30
0.0
 11
4847.673057123657
 21
7038.497424545934
 31
0.0
  0
LINE
  5
1635F
330
747D
100
AcDbEntity
  8
部品1
100
AcDbLine
 10
4847.673057123657
 20
7047.497424545935
 30
0.0
 11
4799.673057123657
 21
7047.497424545934
 31
0.0
  0
LINE
  5
16360
330
747D
100
AcDbEntity
  8
部品1
100
AcDbLine
 10
4847.673057123657
 20
7008.497424545935
 30
0.0
 11
4799.673057123657
 21
7008.497424545933
 31
0.0
  0
LINE
  5
16361
330
747D
100
AcDbEntity
  8
部品1
100
AcDbLine
 10
4799.673057123656
 20
7018.497424545933
 30
0.0
 11
4776.673057123656
 21
7018.497424545933
 31
0.0
  0
LINE
  5
16362
330
747D
100
AcDbEntity
  8
部品1
100
AcDbLine
 10
4799.673057123656
 20
7037.497424545858
 30
0.0
 11
4744.673057123654
 21
7037.497424545858
 31
0.0
  0
LINE
  5
16363
330
747D
100
AcDbEntity
  8
部品1
100
AcDbLine
 10
4772.673057123639
 20
7037.497424545894
 30
0.0
 11
4744.673057123654
 21
7037.497424545894
 31
0.0
  0
LINE
  5
16364
330
747D
100
AcDbEntity
  8
部品1
100
AcDbLine
 10
4772.673057123655
 20
7037.497424545908
 30
0.0
 11
4744.673057123654
 21
7037.497424545908
 31
0.0
  0
LINE
  5
16365
330
747D
100
AcDbEntity
  8
部品1
100
AcDbLine
 10
4772.673057123642
 20
7457.497424545909
 30
0.0
 11
4744.673057123643
 21
7457.497424545909
 31
0.0
  0
LINE
  5
16368
330
747D
100
AcDbEntity
  8
部品1
100
AcDbLine
 10
4772.673057123642
 20
7877.497424545909
 30
0.0
 11
4744.673057123643
 21
7877.497424545909
 31
0.0
  0
LINE
  5
16369
330
747D
100
AcDbEntity
  8
部品1
100
AcDbLine
 10
4772.673057123642
 20
8297.497424545909
 30
0.0
 11
4744.673057123643
 21
8297.497424545909
 31
0.0
  0
LINE
  5
1636B
330
747D
100
AcDbEntity
  8
部品1
100
AcDbLine
 10
4772.673057123637
 20
8717.497424545909
 30
0.0
 11
4744.673057123637
 21
8717.497424545909
 31
0.0
  0
LINE
  5
1636C
330
747D
100
AcDbEntity
  8
部品1
100
AcDbLine
 10
7319.673057123655
 20
8712.497424546038
 30
0.0
 11
7319.67305712364
 21
6982.497424546021
 31
0.0
  0
DIMENSION
  5
1636E
330
747D
100
AcDbEntity
  8
寸法
 48
50.0
100
AcDbDimension
  2
*D10
 10
7271.673057123638
 20
6448.06665377977
 30
0.0
 11
7160.710159474891
 21
6548.06665377977
 31
0.0
 70
   160
 71
     5
 42
-1.0
  3
INABA_S40G
100
AcDbAlignedDimension
 13
7319.67305712364
 23
6982.497424546021
 33
0.0
 14
7271.673057123638
 24
7008.497424545935
 34
0.0
100
AcDbRotatedDimension
1001
ACAD
1000
DSTYLE
1002
{
1070
   279
1070
     2
1002
}
  0
DIMENSION
  5
1636F
330
747D
100
AcDbEntity
  8
寸法
 48
50.0
100
AcDbDimension
  2
*D11
 10
7319.67305712364
 20
6448.06665377977
 30
0.0
 11
7683.158338497877
 21
6448.06665377977
 31
0.0
 70
   160
 71
     5
 42
-1.0
  3
INABA_S40G
100
AcDbAlignedDimension
 13
7374.673057123638
 23
6982.497424546025
 33
0.0
 14
7319.67305712364
 24
6982.497424546021
 34
0.0
100
AcDbRotatedDimension
1001
ACAD
1000
DSTYLE
1002
{
1002
}
  0
LINE
  5
16370
330
747D
100
AcDbEntity
  8
部品1
 48
50.0
100
AcDbLine
 10
7309.673057123639
 20
7008.497424545933
 30
0.0
 11
7319.673057123639
 21
6987.497424545934
 31
0.0
  0
LINE
  5
16371
330
747D
100
AcDbEntity
  8
部品1
100
AcDbLine
 10
7271.673057123638
 20
7047.497424545935
 30
0.0
 11
7319.67305712364
 21
7047.497424545934
 31
0.0
  0
LINE
  5
16372
330
747D
100
AcDbEntity
  8
部品1
100
AcDbLine
 10
7271.673057123638
 20
7008.497424545935
 30
0.0
 11
7319.673057123639
 21
7008.497424545933
 31
0.0
  0
LINE
  5
16373
330
747D
100
AcDbEntity
  8
部品1
 48
50.0
100
AcDbLine
 10
7271.673057123638
 20
7047.497424545935
 30
0.0
 11
7271.673057123638
 21
7038.497424545934
 31
0.0
  0
LINE
  5
16374
330
747D
100
AcDbEntity
  8
部品1
 48
50.0
100
AcDbLine
 10
7271.673057123638
 20
7008.497424545935
 30
0.0
 11
7271.673057123638
 21
7017.497424545934
 31
0.0
  0
LINE
  5
16375
330
747D
100
AcDbEntity
  8
部品1
100
AcDbLine
 10
7319.673057123639
 20
7018.497424545931
 30
0.0
 11
7342.673057123639
 21
7018.497424545933
 31
0.0
  0
LINE
  5
16376
330
747D
100
AcDbEntity
  8
部品1
100
AcDbLine
 10
7319.673057123639
 20
7037.497424546036
 30
0.0
 11
7374.673057123671
 21
7037.497424546036
 31
0.0
  0
LINE
  5
16377
330
747D
100
AcDbEntity
  8
部品1
100
AcDbLine
 10
7374.673057123638
 20
6982.497424546025
 30
0.0
 11
7319.67305712364
 21
6982.497424546022
 31
0.0
  0
LINE
  5
16378
330
747D
100
AcDbEntity
  8
部品1
100
AcDbLine
 10
7346.673057123668
 20
7457.497424546037
 30
0.0
 11
7374.673057123668
 21
7457.497424546037
 31
0.0
  0
LINE
  5
1637B
330
747D
100
AcDbEntity
  8
部品1
100
AcDbLine
 10
6073.173057123662
 20
8712.497424546043
 30
0.0
 11
7346.173057123664
 21
8712.497424546036
 31
0.0
  0
LINE
  5
1637F
330
747D
100
AcDbEntity
  8
部品1
100
AcDbLine
 10
6047.173057123663
 20
8712.497424546043
 30
0.0
 11
6072.173057123663
 21
8712.497424546043
 31
0.0
  0
LINE
  5
16384
330
747D
100
AcDbEntity
  8
部品1
100
AcDbLine
 10
7346.673057123668
 20
7877.497424546037
 30
0.0
 11
7374.673057123668
 21
7877.497424546037
 31
0.0
  0
LINE
  5
16386
330
747D
100
AcDbEntity
  8
部品1
100
AcDbLine
 10
7346.673057123668
 20
8297.497424546035
 30
0.0
 11
7374.673057123668
 21
8297.497424546035
 31
0.0
  0
LINE
  5
16387
330
747D
100
AcDbEntity
  8
部品1
100
AcDbLine
 10
7346.673057123664
 20
8717.497424546037
 30
0.0
 11
7374.673057123664
 21
8717.497424546037
 31
0.0
  0
LINE
  5
16389
330
747D
100
AcDbEntity
  8
部品1
100
AcDbLine
 10
4772.673057123663
 20
9164.497424545938
 30
0.0
 11
6047.173057123661
 21
9164.49742454594
 31
0.0
  0
LINE
  5
1638A
330
747D
100
AcDbEntity
  8
部品1
100
AcDbLine
 10
4744.673057123662
 20
9192.497424545939
 30
0.0
 11
7374.673057123664
 21
9192.497424546033
 31
0.0
  0
LINE
  5
1638B
330
747D
100
AcDbEntity
  8
部品1
100
AcDbLine
 10
4773.173057123663
 20
9162.497424545938
 30
0.0
 11
6046.173057123663
 21
9162.497424546044
 31
0.0
  0
DIMENSION
  5
1638C
330
747D
100
AcDbEntity
  8
寸法
100
AcDbDimension
  2
*D12
 10
7319.673057123664
 20
9708.305644171037
 30
0.0
 11
6059.673057123664
 21
9808.317455194659
 31
0.0
 70
    32
  1
6X420=<>
 71
     5
 42
2520.000000000001
  3
INABA_S40G
100
AcDbAlignedDimension
 13
4799.673057123663
 23
9192.497424545939
 33
0.0
 14
7319.673057123664
 24
9192.497424546033
 34
0.0
100
AcDbRotatedDimension
1001
ACAD
1000
DSTYLE
1002
{
1002
}
  0
DIMENSION
  5
1638D
330
747D
100
AcDbEntity
  8
寸法
100
AcDbDimension
  2
*D13
 10
4799.673057123663
 20
9708.30564417092
 30
0.0
 11
4436.187775749391
 21
9708.30564417092
 31
0.0
 70
   160
 71
     5
 42
55.00000000003456
  3
INABA_S40G
100
AcDbAlignedDimension
 13
4744.673057123629
 23
9192.497424545939
 33
0.0
 14
4799.673057123663
 24
9192.497424545939
 34
0.0
100
AcDbRotatedDimension
1001
ACAD
1000
DSTYLE
1002
{
1002
}
  0
LINE
  5
1638E
330
747D
100
AcDbEntity
  8
部品1
100
AcDbLine
 10
4799.673057123628
 20
9192.497424545905
 30
0.0
 11
4799.67305712363
 21
9164.497424545904
 31
0.0
  0
LINE
  5
1638F
330
747D
100
AcDbEntity
  8
部品1
100
AcDbLine
 10
4799.673057123663
 20
9192.497424545939
 30
0.0
 11
4799.673057123663
 21
9164.497424545938
 31
0.0
  0
LINE
  5
16390
330
747D
100
AcDbEntity
  8
部品1
100
AcDbLine
 10
4772.67305712363
 20
9137.497424545909
 30
0.0
 11
4744.673057123629
 21
9137.497424545909
 31
0.0
  0
LINE
  5
16391
330
747D
100
AcDbEntity
  8
部品1
100
AcDbLine
 10
5219.673057123663
 20
9192.497424546054
 30
0.0
 11
5219.673057123663
 21
9164.497424546054
 31
0.0
  0
LINE
  5
16392
330
747D
100
AcDbEntity
  8
部品1
100
AcDbLine
 10
5219.673057123663
 20
9192.497424545939
 30
0.0
 11
5219.673057123663
 21
9164.497424545938
 31
0.0
  0
LINE
  5
16393
330
747D
100
AcDbEntity
  8
部品1
100
AcDbLine
 10
5219.673057123663
 20
9192.497424545939
 30
0.0
 11
5219.673057123663
 21
9164.497424545938
 31
0.0
  0
LINE
  5
16394
330
747D
100
AcDbEntity
  8
部品1
100
AcDbLine
 10
6072.173057123663
 20
9164.49742454605
 30
0.0
 11
7346.673057123664
 21
9164.497424546032
 31
0.0
  0
LINE
  5
16395
330
747D
100
AcDbEntity
  8
部品1
100
AcDbLine
 10
6073.173057123663
 20
9162.497424546039
 30
0.0
 11
7346.173057123664
 21
9162.497424546032
 31
0.0
  0
LINE
  5
16396
330
747D
100
AcDbEntity
  8
部品1
100
AcDbLine
 10
5639.673057123663
 20
9192.497424546054
 30
0.0
 11
5639.673057123663
 21
9164.497424546054
 31
0.0
  0
LINE
  5
16397
330
747D
100
AcDbEntity
  8
部品1
100
AcDbLine
 10
5639.673057123663
 20
9192.497424545939
 30
0.0
 11
5639.673057123663
 21
9164.497424545938
 31
0.0
  0
LINE
  5
16398
330
747D
100
AcDbEntity
  8
部品1
100
AcDbLine
 10
5639.673057123663
 20
9192.497424545939
 30
0.0
 11
5639.673057123663
 21
9164.497424545938
 31
0.0
  0
LINE
  5
16399
330
747D
100
AcDbEntity
  8
部品1
100
AcDbLine
 10
6059.673057123664
 20
9192.497424546054
 30
0.0
 11
6059.673057123664
 21
9164.497424546054
 31
0.0
  0
LINE
  5
1639A
330
747D
100
AcDbEntity
  8
部品1
100
AcDbLine
 10
6047.173057123663
 20
9156.497424546037
 30
0.0
 11
6072.173057123663
 21
9156.49742454604
 31
0.0
  0
LINE
  5
1639B
330
747D
100
AcDbEntity
  8
部品1
100
AcDbLine
 10
6088.673057123664
 20
9182.49742454604
 30
0.0
 11
6094.673057123663
 21
9182.49742454604
 31
0.0
  0
LINE
  5
1639C
330
747D
100
AcDbEntity
  8
部品1
100
AcDbLine
 10
6094.673057123663
 20
9182.49742454604
 30
0.0
 11
6094.673057123663
 21
9164.497424546039
 31
0.0
  0
LINE
  5
1639D
330
747D
100
AcDbEntity
  8
部品1
100
AcDbLine
 10
6024.673057123663
 20
9182.49742454604
 30
0.0
 11
6030.673057123664
 21
9182.49742454604
 31
0.0
  0
LINE
  5
1639E
330
747D
100
AcDbEntity
  8
部品1
100
AcDbLine
 10
6024.673057123663
 20
9182.49742454604
 30
0.0
 11
6024.673057123663
 21
9164.497424546039
 31
0.0
  0
LINE
  5
1639F
330
747D
100
AcDbEntity
  8
部品1
100
AcDbLine
 10
6479.673057123664
 20
9192.497424546054
 30
0.0
 11
6479.673057123664
 21
9164.497424546054
 31
0.0
  0
DIMENSION
  5
163A0
330
747D
100
AcDbEntity
  8
寸法
100
AcDbDimension
  2
*D14
 10
7374.673057123664
 20
9708.305644171019
 30
0.0
 11
7683.158338497903
 21
9708.305644171019
 31
0.0
 70
   160
 71
     5
 42
55.0
  3
INABA_S40G
100
AcDbAlignedDimension
 13
7319.673057123664
 23
9192.497424546033
 33
0.0
 14
7374.673057123664
 24
9192.497424546033
 34
0.0
100
AcDbRotatedDimension
1001
ACAD
1000
DSTYLE
1002
{
1002
}
  0
LINE
  5
163A1
330
747D
100
AcDbEntity
  8
部品1
100
AcDbLine
 10
6899.673057123663
 20
9192.497424546054
 30
0.0
 11
6899.673057123663
 21
9164.497424546054
 31
0.0
  0
LINE
  5
163A2
330
747D
100
AcDbEntity
  8
部品1
100
AcDbLine
 10
7319.673057123664
 20
9192.497424546033
 30
0.0
 11
7319.673057123664
 21
9164.497424546032
 31
0.0
  0
LINE
  5
163A3
330
747D
100
AcDbEntity
  8
部品1
100
AcDbLine
 10
7319.673057123664
 20
9192.497424546054
 30
0.0
 11
7319.673057123664
 21
9164.497424546054
 31
0.0
  0
LINE
  5
163A4
330
747D
100
AcDbEntity
  8
部品1
100
AcDbLine
 10
7346.673057123664
 20
9137.497424546037
 30
0.0
 11
7374.673057123664
 21
9137.497424546037
 31
0.0
  0
LINE
  5
1656A
330
747D
100
AcDbEntity
  8
部品1
 48
50.0
100
AcDbLine
 10
4799.673057123653
 20
6982.497424545933
 30
0.0
 11
7319.67305712364
 21
6982.497424545911
 31
0.0
  0
LINE
  5
1657F
330
747D
100
AcDbEntity
  8
部品1
 48
50.0
100
AcDbLine
 10
4799.673057123644
 20
7877.497424545914
 30
0.0
 11
7319.67305712365
 21
7877.497424545886
 31
0.0
  0
LINE
  5
16580
330
747D
100
AcDbEntity
  8
部品1
 48
50.0
100
AcDbLine
 10
4799.67305712365
 20
7457.497424545916
 30
0.0
 11
7319.673057123646
 21
7457.497424545888
 31
0.0
  0
LINE
  5
16581
330
747D
100
AcDbEntity
  8
破線
 48
10.0
100
AcDbLine
 10
4824.673057123642
 20
7094.497424545919
 30
0.0
 11
4824.673057123638
 21
8712.497424545944
 31
0.0
  0
LINE
  5
16582
330
747D
100
AcDbEntity
  8
破線
 48
10.0
100
AcDbLine
 10
5619.173057123682
 20
7094.497424545896
 30
0.0
 11
5619.173057123681
 21
8712.497424546009
 31
0.0
  0
LINE
  5
16583
330
747D
100
AcDbEntity
  8
破線
 48
10.0
100
AcDbLine
 10
5669.173057123678
 20
7094.497424545901
 30
0.0
 11
5669.173057123679
 21
8712.497424546013
 31
0.0
  0
LINE
  5
16584
330
747D
100
AcDbEntity
  8
破線
 48
10.0
100
AcDbLine
 10
6450.173057123681
 20
7094.497424545931
 30
0.0
 11
6450.173057123681
 21
8712.497424546041
 31
0.0
  0
LINE
  5
16585
330
747D
100
AcDbEntity
  8
破線
 48
10.0
100
AcDbLine
 10
6500.173057123679
 20
7094.497424545932
 30
0.0
 11
6500.173057123679
 21
8712.49742454604
 31
0.0
  0
LINE
  5
16586
330
747D
100
AcDbEntity
  8
破線
 48
10.0
100
AcDbLine
 10
7294.673057123656
 20
7094.497424545918
 30
0.0
 11
7294.673057123651
 21
8712.497424546038
 31
0.0
  0
LINE
  5
16587
330
747D
100
AcDbEntity
  8
部品1
 48
50.0
100
AcDbLine
 10
4799.673057123653
 20
6982.49742454594
 30
0.0
 11
7319.67305712364
 21
6982.497424545911
 31
0.0
  0
LINE
  5
16588
330
747D
100
AcDbEntity
  8
部品1
 48
50.0
100
AcDbLine
 10
4811.673057123655
 20
7027.997424545938
 30
0.0
 11
7307.67305712364
 21
7027.997424545938
 31
0.0
  0
LINE
  5
16589
330
747D
100
AcDbEntity
  8
部品1
100
AcDbLine
 10
7319.673057123655
 20
7067.497424545916
 30
0.0
 11
4799.673057123628
 21
7067.497424545917
 31
0.0
  0
LINE
  5
1658A
330
747D
100
AcDbEntity
  8
部品1
100
AcDbLine
 10
7319.673057123655
 20
7094.497424545915
 30
0.0
 11
4799.673057123628
 21
7094.497424545918
 31
0.0
  0
LINE
  5
1658B
330
747D
100
AcDbEntity
  8
破線
 48
10.0
100
AcDbLine
 10
7294.673057123683
 20
7117.997424545963
 30
0.0
 11
6500.173057123679
 21
7117.997424545926
 31
0.0
  0
LINE
  5
1658C
330
747D
100
AcDbEntity
  8
破線
 48
10.0
100
AcDbLine
 10
6450.173057123679
 20
7117.997424545922
 30
0.0
 11
5669.173057123678
 21
7117.997424545897
 31
0.0
  0
LINE
  5
1658D
330
747D
100
AcDbEntity
  8
破線
 48
10.0
100
AcDbLine
 10
5619.17305712368
 20
7117.997424545894
 30
0.0
 11
4824.673057123692
 21
7117.997424545868
 31
0.0
  0
LINE
  5
1658E
330
747D
100
AcDbEntity
  8
部品1
 48
50.0
100
AcDbLine
 10
4799.673057123644
 20
8297.497424545916
 30
0.0
 11
7319.67305712365
 21
8297.497424545886
 31
0.0
  0
TEXT
  5
16703
330
747D
100
AcDbEntity
  8
文字
 62
     7
 48
50.0
100
AcDbText
 10
13248.77747366448
 20
8380.013745883731
 30
0.0
 40
100.0
  1
16
  7
STYLE1
100
AcDbText
  0
LINE
  5
16704
330
747D
100
AcDbEntity
  8
仕様書枠
 48
50.0
100
AcDbLine
 10
16307.19999999999
 20
8519.600000000002
 30
0.0
 11
13127.19999999999
 21
8519.600000000002
 31
0.0
  0
TEXT
  5
16705
330
747D
100
AcDbEntity
  8
文字
 62
     7
 48
50.0
100
AcDbText
 10
15022.63965474516
 20
8550.013745883727
 30
0.0
 40
100.0
  1
F12            0.6
  7
STYLE1
100
AcDbText
  0
TEXT
  5
16706
330
747D
100
AcDbEntity
  8
文字
 62
     7
 48
50.0
100
AcDbText
 10
13583.11819016569
 20
8550.013745883729
 30
0.0
 40
100.0
  1
棚板
 41
0.9
  7
STYLE1
100
AcDbText
  0
TEXT
  5
16707
330
747D
100
AcDbEntity
  8
文字
 62
     7
 48
50.0
100
AcDbText
 10
13583.11819016569
 20
8380.013745883731
 30
0.0
 40
100.0
  1
アンカープレート
  7
STYLE1
100
AcDbText
  0
TEXT
  5
16708
330
747D
100
AcDbEntity
  8
文字
 62
     7
 48
50.0
100
AcDbText
 10
15022.63965474515
 20
8380.013745883726
 30
0.0
 40
100.0
  1
F12            2.3
  7
STYLE1
100
AcDbText
  0
LINE
  5
16709
330
747D
100
AcDbEntity
  8
仕様書枠
 48
50.0
100
AcDbLine
 10
16307.19999999999
 20
9879.599999999999
 30
0.0
 11
13127.19999999999
 21
9879.600000000001
 31
0.0
  0
LINE
  5
1670A
330
747D
100
AcDbEntity
  8
仕様書枠
 48
50.0
100
AcDbLine
 10
16307.19999999999
 20
11239.6
 30
0.0
 11
13127.2
 21
11239.6
 31
0.0
  0
LINE
  5
1670B
330
747D
100
AcDbEntity
  8
仕様書枠
 48
50.0
100
AcDbLine
 10
16307.19999999999
 20
7839.600000000007
 30
0.0
 11
16307.2
 21
11239.6
 31
0.0
  0
LINE
  5
1670C
330
747D
100
AcDbEntity
  8
仕様書枠
 48
50.0
100
AcDbLine
 10
14785.2
 20
11239.59999999999
 30
0.0
 11
14785.2
 21
8349.600000000007
 31
0.0
  0
LINE
  5
1670D
330
747D
100
AcDbEntity
  8
仕様書枠
 48
50.0
100
AcDbLine
 10
13490.2
 20
11239.6
 30
0.0
 11
13490.20000000001
 21
8349.600000000007
 31
0.0
  0
LINE
  5
1670E
330
747D
100
AcDbEntity
  8
仕様書枠
 48
50.0
100
AcDbLine
 10
16307.19999999999
 20
11069.6
 30
0.0
 11
13127.2
 21
11069.6
 31
0.0
  0
LINE
  5
1670F
330
747D
100
AcDbEntity
  8
仕様書枠
 48
50.0
100
AcDbLine
 10
16307.19999999999
 20
10729.6
 30
0.0
 11
13127.2
 21
10729.6
 31
0.0
  0
LINE
  5
16710
330
747D
100
AcDbEntity
  8
仕様書枠
 48
50.0
100
AcDbLine
 10
16307.19999999999
 20
10899.6
 30
0.0
 11
13127.2
 21
10899.6
 31
0.0
  0
LINE
  5
16711
330
747D
100
AcDbEntity
  8
仕様書枠
 48
50.0
100
AcDbLine
 10
16307.19999999999
 20
10389.6
 30
0.0
 11
13127.19999999999
 21
10389.6
 31
0.0
  0
LINE
  5
16712
330
747D
100
AcDbEntity
  8
仕様書枠
 48
50.0
100
AcDbLine
 10
16307.19999999999
 20
10219.6
 30
0.0
 11
13127.19999999999
 21
10219.6
 31
0.0
  0
LINE
  5
16713
330
747D
100
AcDbEntity
  8
仕様書枠
 48
50.0
100
AcDbLine
 10
16307.19999999999
 20
10559.6
 30
0.0
 11
13127.19999999999
 21
10559.6
 31
0.0
  0
TEXT
  5
16714
330
747D
100
AcDbEntity
  8
文字
 62
     7
 48
50.0
100
AcDbText
 10
13197.42518560407
 20
11100.01374588373
 30
0.0
 40
100.0
  1
品番
  7
STYLE1
100
AcDbText
  0
TEXT
  5
16715
330
747D
100
AcDbEntity
  8
文字
 62
     7
 48
50.0
100
AcDbText
 10
13271.19032244792
 20
10930.01374588373
 30
0.0
 40
100.0
  1
1
  7
STYLE1
100
AcDbText
  0
TEXT
  5
16716
330
747D
100
AcDbEntity
  8
文字
 62
     7
 48
50.0
100
AcDbText
 10
13271.19032244792
 20
10760.01374588373
 30
0.0
 40
100.0
  1
2
  7
STYLE1
100
AcDbText
  0
TEXT
  5
16717
330
747D
100
AcDbEntity
  8
文字
 62
     7
 48
50.0
100
AcDbText
 10
13271.19032244792
 20
10420.01374588373
 30
0.0
 40
100.0
  1
4
  7
STYLE1
100
AcDbText
  0
TEXT
  5
16718
330
747D
100
AcDbEntity
  8
文字
 62
     7
 48
50.0
100
AcDbText
 10
13271.19032244792
 20
10590.01374588373
 30
0.0
 40
100.0
  1
3
  7
STYLE1
100
AcDbText
  0
TEXT
  5
16719
330
747D
100
AcDbEntity
  8
文字
 62
     7
 48
50.0
100
AcDbText
 10
13732.03840939434
 20
11100.01374588373
 30
0.0
 40
100.0
  1
部　　品　　名
  7
STYLE1
100
AcDbText
  0
TEXT
  5
1671A
330
747D
100
AcDbEntity
  8
文字
 62
     7
 48
50.0
100
AcDbText
 10
14859.79774614482
 20
11100.01374588373
 30
0.0
 40
100.0
  1
材料（材質）　　単位mm
  7
STYLE1
100
AcDbText
  0
TEXT
  5
1671B
330
747D
100
AcDbEntity
  8
文字
 62
     7
 48
50.0
100
AcDbText
 10
13583.11819016569
 20
10930.01374588372
 30
0.0
 40
100.0
  1
土台枠
  7
STYLE1
100
AcDbText
  0
TEXT
  5
1671C
330
747D
100
AcDbEntity
  8
文字
 62
     7
 48
50.0
100
AcDbText
 10
13583.11819016569
 20
10760.01374588372
 30
0.0
 40
100.0
  1
柱
  7
STYLE1
100
AcDbText
  0
TEXT
  5
1671D
330
747D
100
AcDbEntity
  8
文字
 62
     7
 48
50.0
100
AcDbText
 10
13583.11819016569
 20
10590.01374588373
 30
0.0
 40
100.0
  1
桁前
  7
STYLE1
100
AcDbText
  0
TEXT
  5
1671E
330
747D
100
AcDbEntity
  8
文字
 62
     7
 48
50.0
100
AcDbText
 10
13583.11819016569
 20
10420.01374588373
 30
0.0
 40
100.0
  1
桁後
  7
STYLE1
100
AcDbText
  0
TEXT
  5
1671F
330
747D
100
AcDbEntity
  8
文字
 62
     7
 48
50.0
100
AcDbText
 10
13271.19032244792
 20
10250.01374588373
 30
0.0
 40
100.0
  1
5
  7
STYLE1
100
AcDbText
  0
TEXT
  5
16720
330
747D
100
AcDbEntity
  8
文字
 62
     7
 48
50.0
100
AcDbText
 10
13583.11819016569
 20
10250.01374588373
 30
0.0
 40
100.0
  1
妻板左右
  7
STYLE1
100
AcDbText
  0
TEXT
  5
16721
330
747D
100
AcDbEntity
  8
文字
 62
     7
 48
50.0
100
AcDbText
 10
13583.11819016569
 20
9060.013745883727
 30
0.0
 40
100.0
  1
シャッターレール
  7
STYLE1
100
AcDbText
  0
TEXT
  5
16722
330
747D
100
AcDbEntity
  8
文字
 62
     7
 48
50.0
100
AcDbText
 10
13248.77747366448
 20
9400.013745883727
 30
0.0
 40
100.0
  1
10
  7
STYLE1
100
AcDbText
  0
TEXT
  5
16723
330
747D
100
AcDbEntity
  8
文字
 62
     7
 48
50.0
100
AcDbText
 10
13583.11819016569
 20
9570.013745883729
 30
0.0
 40
100.0
  1
壁パネル
  7
STYLE1
100
AcDbText
  0
TEXT
  5
16724
330
747D
100
AcDbEntity
  8
文字
 62
     7
 48
50.0
100
AcDbText
 10
13583.11819016569
 20
9740.013745883729
 30
0.0
 40
100.0
  1
屋根パネル
  7
STYLE1
100
AcDbText
  0
TEXT
  5
16725
330
747D
100
AcDbEntity
  8
文字
 62
     7
 48
50.0
100
AcDbText
 10
13583.11819016569
 20
9910.013745883727
 30
0.0
 40
100.0
  1
母屋中
  7
STYLE1
100
AcDbText
  0
TEXT
  5
16726
330
747D
100
AcDbEntity
  8
文字
 62
     7
 48
50.0
100
AcDbText
 10
13583.11819016569
 20
10080.01374588372
 30
0.0
 40
100.0
  1
鼻隠シ前後
  7
STYLE1
100
AcDbText
  0
TEXT
  5
16727
330
747D
100
AcDbEntity
  8
文字
 62
     7
 48
50.0
100
AcDbText
 10
13271.19032244792
 20
9740.013745883729
 30
0.0
 40
100.0
  1
8
  7
STYLE1
100
AcDbText
  0
TEXT
  5
16728
330
747D
100
AcDbEntity
  8
文字
 62
     7
 48
50.0
100
AcDbText
 10
13271.19032244792
 20
9570.013745883729
 30
0.0
 40
100.0
  1
9
  7
STYLE1
100
AcDbText
  0
TEXT
  5
16729
330
747D
100
AcDbEntity
  8
文字
 62
     7
 48
50.0
100
AcDbText
 10
13271.19032244792
 20
9910.01374588373
 30
0.0
 40
100.0
  1
7
  7
STYLE1
100
AcDbText
  0
TEXT
  5
1672A
330
747D
100
AcDbEntity
  8
文字
 62
     7
 48
50.0
100
AcDbText
 10
13271.19032244792
 20
10080.01374588373
 30
0.0
 40
100.0
  1
6
  7
STYLE1
100
AcDbText
  0
LINE
  5
1672B
330
747D
100
AcDbEntity
  8
仕様書枠
 48
50.0
100
AcDbLine
 10
16307.19999999999
 20
9539.599999999998
 30
0.0
 11
13127.19999999999
 21
9539.6
 31
0.0
  0
LINE
  5
1672C
330
747D
100
AcDbEntity
  8
仕様書枠
 48
50.0
100
AcDbLine
 10
16307.19999999999
 20
9199.599999999998
 30
0.0
 11
13127.19999999999
 21
9199.600000000001
 31
0.0
  0
LINE
  5
1672D
330
747D
100
AcDbEntity
  8
仕様書枠
 48
50.0
100
AcDbLine
 10
16307.19999999999
 20
9369.599999999998
 30
0.0
 11
13127.19999999999
 21
9369.600000000001
 31
0.0
  0
LINE
  5
1672E
330
747D
100
AcDbEntity
  8
仕様書枠
 48
50.0
100
AcDbLine
 10
16307.19999999999
 20
10049.6
 30
0.0
 11
13127.2
 21
10049.6
 31
0.0
  0
LINE
  5
1672F
330
747D
100
AcDbEntity
  8
仕様書枠
 48
50.0
100
AcDbLine
 10
16307.19999999999
 20
9709.6
 30
0.0
 11
13127.19999999999
 21
9709.600000000001
 31
0.0
  0
TEXT
  5
16730
330
747D
100
AcDbEntity
  8
文字
 62
     7
 48
50.0
100
AcDbText
 10
13248.77747366448
 20
9230.013745883727
 30
0.0
 40
100.0
  1
11
  7
STYLE1
100
AcDbText
  0
TEXT
  5
16731
330
747D
100
AcDbEntity
  8
文字
 62
     7
 48
50.0
100
AcDbText
 10
13583.11819016569
 20
9230.013745883727
 30
0.0
 40
100.0
  1
シャッターカバー
 41
0.9
  7
STYLE1
100
AcDbText
  0
LINE
  5
16732
330
747D
100
AcDbEntity
  8
仕様書枠
 48
50.0
100
AcDbLine
 10
16307.19999999999
 20
9029.6
 30
0.0
 11
13127.19999999999
 21
9029.6
 31
0.0
  0
LINE
  5
16733
330
747D
100
AcDbEntity
  8
仕様書枠
 48
50.0
100
AcDbLine
 10
16307.19999999999
 20
8349.600000000004
 30
0.0
 11
13127.19999999999
 21
8349.600000000007
 31
0.0
  0
TEXT
  5
16734
330
747D
100
AcDbEntity
  8
文字
 62
     7
 48
50.0
100
AcDbText
 10
13583.11819016569
 20
9400.013745883729
 30
0.0
 40
100.0
  1
シャッター
  7
STYLE1
100
AcDbText
  0
TEXT
  5
16735
330
747D
100
AcDbEntity
  8
文字
 62
     7
 48
50.0
100
AcDbText
 10
13248.77747366448
 20
8890.013745883729
 30
0.0
 40
100.0
  1
13
  7
STYLE1
100
AcDbText
  0
TEXT
  5
16736
330
747D
100
AcDbEntity
  8
文字
 62
     7
 48
50.0
100
AcDbText
 10
13248.77747366448
 20
9060.013745883729
 30
0.0
 40
100.0
  1
12
  7
STYLE1
100
AcDbText
  0
TEXT
  5
16737
330
747D
100
AcDbEntity
  8
文字
 62
     7
 48
50.0
100
AcDbText
 10
15022.63965474517
 20
10930.01374588372
 30
0.0
 40
100.0
  1
F12            1.2
  7
STYLE1
100
AcDbText
  0
TEXT
  5
16738
330
747D
100
AcDbEntity
  8
文字
 62
     7
 48
50.0
100
AcDbText
 10
15022.63965474517
 20
10760.01374588372
 30
0.0
 40
100.0
  1
F12         1.0,1.2
  7
STYLE1
100
AcDbText
  0
TEXT
  5
16739
330
747D
100
AcDbEntity
  8
文字
 62
     7
 48
50.0
100
AcDbText
 10
15022.63965474516
 20
10590.01374588372
 30
0.0
 40
100.0
  1
Y10            1.0
  7
STYLE1
100
AcDbText
  0
TEXT
  5
1673A
330
747D
100
AcDbEntity
  8
文字
 62
     7
 48
50.0
100
AcDbText
 10
15022.63965474516
 20
10420.01374588372
 30
0.0
 40
100.0
  1
Y10            1.0
  7
STYLE1
100
AcDbText
  0
TEXT
  5
1673B
330
747D
100
AcDbEntity
  8
文字
 62
     7
 48
50.0
100
AcDbText
 10
15022.63965474516
 20
10250.01374588372
 30
0.0
 40
100.0
  1
Y10            0.7
  7
STYLE1
100
AcDbText
  0
TEXT
  5
1673C
330
747D
100
AcDbEntity
  8
文字
 62
     7
 48
50.0
100
AcDbText
 10
15022.63965474516
 20
10080.01374588372
 30
0.0
 40
100.0
  1
Y10            0.7
  7
STYLE1
100
AcDbText
  0
TEXT
  5
1673D
330
747D
100
AcDbEntity
  8
文字
 62
     7
 48
50.0
100
AcDbText
 10
15022.63965474516
 20
9740.013745883725
 30
0.0
 40
100.0
  1
Y10            0.5
  7
STYLE1
100
AcDbText
  0
TEXT
  5
1673E
330
747D
100
AcDbEntity
  8
文字
 62
     7
 48
50.0
100
AcDbText
 10
15022.63965474516
 20
9570.013745883725
 30
0.0
 40
100.0
  1
F12            0.7
  7
STYLE1
100
AcDbText
  0
TEXT
  5
1673F
330
747D
100
AcDbEntity
  8
文字
 62
     7
 48
50.0
100
AcDbText
 10
14850.83183167176
 20
9060.013745883725
 30
0.0
 40
100.0
  1
アルミニウム合金押出形材
  7
STYLE1
100
AcDbText
  0
TEXT
  5
16741
330
747D
100
AcDbEntity
  8
文字
 62
     7
 48
50.0
100
AcDbText
 10
15022.63965474515
 20
9400.013745883725
 30
0.0
 40
100.0
  1
Z08            0.5
  7
STYLE1
100
AcDbText
  0
LINE
  5
16742
330
747D
100
AcDbEntity
  8
仕様書枠
 48
50.0
100
AcDbLine
 10
16307.19999999998
 20
8179.600000000005
 30
0.0
 11
13127.19999999999
 21
8179.600000000007
 31
0.0
  0
LINE
  5
16743
330
747D
100
AcDbEntity
  8
仕様書枠
 48
50.0
100
AcDbLine
 10
16307.19999999998
 20
8009.600000000006
 30
0.0
 11
13127.19999999999
 21
8009.600000000007
 31
0.0
  0
LINE
  5
16744
330
747D
100
AcDbEntity
  8
仕様書枠
 48
50.0
100
AcDbLine
 10
16307.19999999998
 20
7839.600000000006
 30
0.0
 11
13127.19999999999
 21
7839.600000000007
 31
0.0
  0
TEXT
  5
16745
330
747D
100
AcDbEntity
  8
文字
 62
     7
 48
50.0
100
AcDbText
 10
13229.83081656554
 20
8210.013745883735
 30
0.0
 40
100.0
  1
F12→溶融亜鉛めっき鋼板(JIS G 3302)
  7
STYLE1
100
AcDbText
  0
TEXT
  5
16746
330
747D
100
AcDbEntity
  8
文字
 62
     7
 48
50.0
100
AcDbText
 10
13229.83081656554
 20
8040.013745883735
 30
0.0
 40
100.0
  1
Y10→溶融亜鉛-5％アルミニウム合金めっき鋼板(JIS G 3317)
 41
0.9
  7
STYLE1
100
AcDbText
  0
TEXT
  5
16747
330
747D
100
AcDbEntity
  8
文字
 62
     7
 48
50.0
100
AcDbText
 10
13229.83081656554
 20
7870.013745883736
 30
0.0
 40
100.0
  1
Z08→塗装溶融亜鉛めっき鋼板(JIS G 3313)
  7
STYLE1
100
AcDbText
  0
LINE
  5
16748
330
747D
100
AcDbEntity
  8
仕様書枠
 48
50.0
100
AcDbLine
 10
13127.2
 20
11239.6
 30
0.0
 11
13127.19999999999
 21
7839.600000000007
 31
0.0
  0
LINE
  5
16749
330
747D
100
AcDbEntity
  8
仕様書枠
 48
50.0
100
AcDbLine
 10
16307.19999999999
 20
8689.6
 30
0.0
 11
13127.19999999999
 21
8689.600000000003
 31
0.0
  0
LINE
  5
1674A
330
747D
100
AcDbEntity
  8
仕様書枠
 48
50.0
100
AcDbLine
 10
16307.19999999999
 20
8859.6
 30
0.0
 11
13127.19999999999
 21
8859.600000000002
 31
0.0
  0
TEXT
  5
1674B
330
747D
100
AcDbEntity
  8
文字
 62
     7
 48
50.0
100
AcDbText
 10
13583.11819016569
 20
8720.013745883729
 30
0.0
 40
100.0
  1
床パネル
 41
0.9
  7
STYLE1
100
AcDbText
  0
TEXT
  5
1674C
330
747D
100
AcDbEntity
  8
文字
 62
     7
 48
50.0
100
AcDbText
 10
13583.11819016569
 20
8890.013745883729
 30
0.0
 40
100.0
  1
根太
  7
STYLE1
100
AcDbText
  0
TEXT
  5
1674D
330
747D
100
AcDbEntity
  8
文字
 62
     7
 48
50.0
100
AcDbText
 10
13248.77747366448
 20
8720.013745883729
 30
0.0
 40
100.0
  1
14
  7
STYLE1
100
AcDbText
  0
TEXT
  5
1674E
330
747D
100
AcDbEntity
  8
文字
 62
     7
 48
50.0
100
AcDbText
 10
13248.77747366448
 20
8550.013745883731
 30
0.0
 40
100.0
  1
15
  7
STYLE1
100
AcDbText
  0
TEXT
  5
1674F
330
747D
100
AcDbEntity
  8
文字
 62
     7
 48
50.0
100
AcDbText
 10
15022.63965474516
 20
8890.013745883726
 30
0.0
 40
100.0
  1
F12            1.2
  7
STYLE1
100
AcDbText
  0
TEXT
  5
16750
330
747D
100
AcDbEntity
  8
文字
 62
     7
 48
50.0
100
AcDbText
 10
15022.63965474516
 20
8720.013745883727
 30
0.0
 40
100.0
  1
F12            1.0
  7
STYLE1
100
AcDbText
  0
TEXT
  5
16751
330
747D
100
AcDbEntity
  8
文字
 62
     7
 48
50.0
100
AcDbText
 10
14833.43123277338
 20
9915.516434800332
 30
0.0
 40
100.0
  1
F12    1.2(多雪地型  2.3)
  7
STYLE1
100
AcDbText
  0
LWPOLYLINE
  5
16AFD
330
747D
100
AcDbEntity
  8
部品1
100
AcDbPolyline
 90
        4
 70
     1
 43
0.0
 10
5677.937724009444
 20
5991.042662259999
 10
5677.937724009444
 20
5751.150340714467
 10
6441.408390237882
 20
5751.150340714467
 10
6441.408390237882
 20
5991.042662259999
  0
TEXT
  5
16AFE
330
747D
100
AcDbEntity
  8
部品1
100
AcDbText
 10
5767.857333838481
 20
5798.149133041476
 30
0.0
 40
135.0
  1
平面図
  7
STYLE2
100
AcDbText
  0
LWPOLYLINE
  5
16AFF
330
747D
100
AcDbEntity
  8
部品1
100
AcDbPolyline
 90
        4
 70
     1
 43
0.0
 10
10033.73510581692
 20
1787.931598713268
 10
10033.73510581692
 20
1548.039277167736
 10
10797.20577204535
 20
1548.039277167736
 10
10797.20577204535
 20
1787.931598713268
  0
TEXT
  5
16B00
330
747D
100
AcDbEntity
  8
部品1
100
AcDbText
 10
10123.18120724053
 20
1595.038069494745
 30
0.0
 40
135.0
  1
側面図
  7
STYLE2
100
AcDbText
  0
TEXT
  5
16B01
330
747D
100
AcDbEntity
  8
部品1
100
AcDbText
 10
5768.463127747392
 20
1595.038069494745
 30
0.0
 40
135.0
  1
正面図
  7
STYLE2
100
AcDbText
  0
LWPOLYLINE
  5
16B02
330
747D
100
AcDbEntity
  8
部品1
100
AcDbPolyline
 90
        4
 70
     1
 43
0.0
 10
5677.937724009439
 20
1787.931598713268
 10
5677.937724009439
 20
1548.039277167736
 10
6441.408390237878
 20
1548.039277167736
 10
6441.408390237878
 20
1787.931598713268
  0
DIMENSION
  5
16B03
330
747D
100
AcDbEntity
  8
寸法
100
AcDbDimension
  2
*D23
 10
8166.72030974788
 20
4912.931598713267
 30
0.0
 11
8066.708498724258
 21
3725.431598713266
 31
0.0
 70
    32
 71
     5
 42
2375.000000000005
  3
INABA_S40G
100
AcDbAlignedDimension
 13
9310.470438931139
 23
2537.931598713262
 33
0.0
 14
9250.470438931142
 24
4912.931598713267
 34
0.0
 50
90.0
100
AcDbRotatedDimension
1001
ACAD
1000
DSTYLE
1002
{
1070
   174
1070
     0
1070
   272
1070
     1
1070
   288
1070
     0
1070
   341
1005
0
1002
}
  0
LINE
  5
16B04
330
747D
100
AcDbEntity
  8
部品1
100
AcDbLine
 10
10240.0154252881
 20
5044.682081013235
 30
0.0
 11
10565.47043893114
 21
5027.164022054375
 31
0.0
  0
ARC
  5
16B05
330
747D
100
AcDbEntity
  8
部品1
100
AcDbCircle
 10
11586.09797474508
 20
4751.955355979054
 30
0.0
 40
0.7
100
AcDbArc
 50
275.0921697642102
 51
354.1866997666634
  0
ARC
  5
16B06
330
747D
100
AcDbEntity
  8
部品1
100
AcDbCircle
 10
11596.9573204944
 20
4828.998610796978
 30
0.0
 40
0.7
100
AcDbArc
 50
275.0921697642102
 51
354.1866997665596
  0
ARC
  5
16B07
330
747D
100
AcDbEntity
  8
部品1
100
AcDbCircle
 10
11597.285725737
 20
4825.313213939888
 30
0.0
 40
3.0
100
AcDbArc
 50
95.0921697642102
 51
174.1866997665596
  0
ARC
  5
16B08
330
747D
100
AcDbEntity
  8
部品1
100
AcDbCircle
 10
11586.42637998767
 20
4748.269959121964
 30
0.0
 40
3.0
100
AcDbArc
 50
95.0921697642102
 51
174.1866997665596
  0
ARC
  5
16B09
330
747D
100
AcDbEntity
  8
部品1
 48
50.0
100
AcDbCircle
 10
11575.39824471257
 20
4738.67921451808
 30
0.0
 40
7.0
100
AcDbArc
 50
267.8377559869488
 51
354.1866997665596
  0
ARC
  5
16B0A
330
747D
100
AcDbEntity
  8
部品1
 48
50.0
100
AcDbCircle
 10
11592.72034117708
 20
4849.581761660254
 30
0.0
 40
7.0
100
AcDbArc
 50
354.1866997665596
 51
87.03587545283093
  0
LINE
  5
16B0B
330
747D
100
AcDbEntity
  8
部品1
 48
50.0
100
AcDbLine
 10
11583.44180831707
 20
4748.573820838866
 30
0.0
 11
11582.36224527733
 21
4737.970203845306
 31
0.0
  0
LINE
  5
16B0C
330
747D
100
AcDbEntity
  8
部品1
 48
50.0
100
AcDbLine
 10
11594.30115406639
 20
4825.617075656792
 30
0.0
 11
11586.79437480155
 21
4751.884454911778
 31
0.0
  0
LINE
  5
16B0D
330
747D
100
AcDbEntity
  8
部品1
 48
50.0
100
AcDbLine
 10
11599.68434174184
 20
4848.872750987481
 30
0.0
 11
11597.65372055087
 21
4828.9277097297
 31
0.0
  0
ARC
  5
16B0E
330
747D
100
AcDbEntity
  8
部品1
100
AcDbCircle
 10
9256.507530802506
 20
4791.745757672164
 30
0.0
 40
0.7
100
AcDbArc
 50
181.0932240292114
 51
260.1877540314855
  0
ARC
  5
16B0F
330
747D
100
AcDbEntity
  8
部品1
100
AcDbCircle
 10
9251.734857204896
 20
4884.611535872285
 30
0.0
 40
0.7
100
AcDbArc
 50
181.0932240292114
 51
260.1877540314855
  0
ARC
  5
16B10
330
747D
100
AcDbEntity
  8
部品1
100
AcDbCircle
 10
9251.104302801875
 20
4880.965661334887
 30
0.0
 40
3.0
100
AcDbArc
 50
1.093224029315636
 51
80.18775403169708
  0
ARC
  5
16B11
330
747D
100
AcDbEntity
  8
部品1
100
AcDbCircle
 10
9255.876976399481
 20
4788.099883134768
 30
0.0
 40
3.0
100
AcDbArc
 50
1.093224029315636
 51
80.18775403169708
  0
ARC
  5
16B12
330
747D
100
AcDbEntity
  8
部品1
 48
50.0
100
AcDbCircle
 10
9266.077108774682
 20
4777.707639752287
 30
0.0
 40
7.0
100
AcDbArc
 50
181.0932240293156
 51
267.8377559869488
  0
ARC
  5
16B13
330
747D
100
AcDbEntity
  8
部品1
 48
50.0
100
AcDbCircle
 10
9257.653450672586
 20
4904.658699285381
 30
0.0
 40
7.0
100
AcDbArc
 50
87.03587545283093
 51
181.0932240293156
  0
LINE
  5
16B14
330
747D
100
AcDbEntity
  8
部品1
 48
50.0
100
AcDbLine
 10
9258.87643032591
 20
4788.157120737952
 30
0.0
 11
9259.078382946341
 21
4777.574085344858
 31
0.0
  0
LINE
  5
16B15
330
747D
100
AcDbEntity
  8
細線
 48
50.0
100
AcDbLine
 10
9256.27033726924
 20
4791.08716885676
 30
0.0
 11
11586.27400169988
 21
4751.277849882266
 31
0.0
  0
LINE
  5
16B16
330
747D
100
AcDbEntity
  8
細線
 48
50.0
100
AcDbLine
 10
9251.509862031953
 20
4883.948680554622
 30
0.0
 11
11597.14584677712
 21
4828.324475913796
 31
0.0
  0
LINE
  5
16B17
330
747D
100
AcDbEntity
  8
部品1
 48
50.0
100
AcDbLine
 10
9254.103756728303
 20
4881.02289893807
 30
0.0
 11
9255.807658219667
 21
4791.732402231423
 31
0.0
  0
LINE
  5
16B18
330
747D
100
AcDbEntity
  8
部品1
 48
50.0
100
AcDbLine
 10
9250.654724844245
 20
4904.525144877954
 30
0.0
 11
9251.034984622057
 21
4884.598180431542
 31
0.0
  0
LINE
  5
16B19
330
747D
100
AcDbEntity
  8
細線
 48
50.0
100
AcDbLine
 10
11567.47043893114
 20
4857.898577748557
 30
0.0
 11
11562.72275604314
 21
4732.152805257814
 31
0.0
  0
LINE
  5
16B1A
330
747D
100
AcDbEntity
  8
細線
 48
50.0
100
AcDbLine
 10
9283.470438931139
 20
4910.331275088665
 30
0.0
 11
9278.181337375633
 21
4770.245642461311
 31
0.0
  0
LINE
  5
16B1B
330
747D
100
AcDbEntity
  8
部品1
100
AcDbLine
 10
9265.813003533093
 20
4770.712623782229
 30
0.0
 11
11575.13413947099
 21
4731.684198548024
 31
0.0
  0
LINE
  5
16B1C
330
747D
100
AcDbEntity
  8
部品1
100
AcDbLine
 10
9258.015425288101
 20
4911.649334047528
 30
0.0
 11
11593.0823157926
 21
4856.572396422402
 31
0.0
  0
LINE
  5
16B1D
330
747D
100
AcDbEntity
  8
部品1
 48
50.0
100
AcDbLine
 10
10265.47043893114
 20
5043.364022054372
 30
0.0
 11
10565.47043893114
 21
5043.364022054372
 31
0.0
  0
LINE
  5
16B1E
330
747D
100
AcDbEntity
  8
部品1
 48
50.0
100
AcDbLine
 10
10565.47043893114
 20
5043.364022054372
 30
0.0
 11
10565.47043893114
 21
5027.164022054375
 31
0.0
  0
TEXT
  5
16B1F
330
747D
100
AcDbEntity
  8
部品1
 48
50.0
100
AcDbText
 10
10253.73827415486
 20
5079.248044206805
 30
0.0
 40
120.0
  1
1000
  7
STYLE1
100
AcDbText
  0
TEXT
  5
16B20
330
747D
100
AcDbEntity
  8
部品1
 48
50.0
100
AcDbText
 10
10731.37129681995
 20
4941.746785988522
 30
0.0
 40
120.0
  1
44
 50
90.0
  7
STYLE1
100
AcDbText
  0
DIMENSION
  5
16B21
330
747D
100
AcDbEntity
  8
寸法
 48
50.0
100
AcDbDimension
  2
*D24
 10
8689.862032162773
 20
4787.276857586592
 30
0.0
 11
8700.527507421696
 21
5158.123520828292
 31
0.0
 70
   161
 71
     5
 42
141.0000000000009
  3
INABA_S40G
100
AcDbAlignedDimension
 13
9269.866459089719
 23
4911.654347547941
 33
0.0
 14
9265.813003533093
 24
4770.712623782229
 34
0.0
1001
ACAD
1000
DSTYLE
1002
{
1070
   174
1070
     0
1070
   272
1070
     1
1070
   288
1070
     0
1070
   341
1005
0
1002
}
  0
DIMENSION
  5
16B22
330
747D
100
AcDbEntity
  8
寸法
 48
50.0
100
AcDbDimension
  2
*D25
 10
9250.47043893114
 20
5311.589052292566
 30
0.0
 11
8940.83264365555
 21
5311.589052292566
 31
0.0
 70
   160
 71
     5
 42
60.0
  3
INABA_S40G
100
AcDbAlignedDimension
 13
9310.470438931139
 23
4908.933216836238
 33
0.0
 14
9250.47043893114
 24
4912.931598713265
 34
0.0
100
AcDbRotatedDimension
1001
ACAD
1000
DSTYLE
1002
{
1070
   174
1070
     0
1070
   272
1070
     1
1070
   288
1070
     0
1070
   341
1005
0
1002
}
  0
DIMENSION
  5
16B23
330
747D
100
AcDbEntity
  8
寸法
 48
50.0
100
AcDbDimension
  2
*D26
 10
9310.470438931139
 20
5311.589052292566
 30
0.0
 11
10415.47043893114
 21
5311.589052292566
 31
0.0
 70
   160
  1
柱外寸法<>
 71
     5
 42
2210.0
  3
INABA_S40G
100
AcDbAlignedDimension
 13
11520.47043893114
 23
4859.742278324915
 33
0.0
 14
9310.470438931139
 24
4908.933216836238
 34
0.0
100
AcDbRotatedDimension
1001
ACAD
1000
DSTYLE
1002
{
1070
   174
1070
     0
1070
   272
1070
     1
1070
   288
1070
     0
1070
   341
1005
0
1002
}
  0
DIMENSION
  5
16B24
330
747D
100
AcDbEntity
  8
寸法
 48
50.0
100
AcDbDimension
  2
*D27
 10
9250.47043893114
 20
5530.790885966857
 30
0.0
 11
10425.47043893114
 21
5530.790885966857
 31
0.0
 70
   160
 71
     5
 42
2350.0
  3
INABA_S40G
100
AcDbAlignedDimension
 13
11600.47043893114
 23
4857.931598713261
 33
0.0
 14
9250.47043893114
 24
4912.931598713265
 34
0.0
100
AcDbRotatedDimension
1001
ACAD
1000
DSTYLE
1002
{
1070
   174
1070
     0
1070
   272
1070
     1
1070
   288
1070
     0
1070
   341
1005
0
1002
}
  0
DIMENSION
  5
16B25
330
747D
100
AcDbEntity
  8
寸法
 48
50.0
100
AcDbDimension
  2
*D28
 10
11600.47043893114
 20
5311.589052292566
 30
0.0
 11
11806.51768302563
 21
5311.589052292566
 31
0.0
 70
   160
 71
     5
 42
80.0
  3
INABA_S40G
100
AcDbAlignedDimension
 13
11520.47043893114
 23
4859.742278324915
 33
0.0
 14
11600.47043893114
 24
4857.931598713261
 34
0.0
100
AcDbRotatedDimension
1001
ACAD
1000
DSTYLE
1002
{
1070
   174
1070
     0
1070
   272
1070
     1
1070
   288
1070
     0
1070
   341
1005
0
1002
}
  0
LINE
  5
16B52
330
747D
100
AcDbEntity
  8
部品1
 48
50.0
100
AcDbLine
 10
7417.264636017226
 20
4912.931598713264
 30
0.0
 11
4702.081478230087
 21
4912.931598713264
 31
0.0
  0
LINE
  5
16B53
330
747D
100
AcDbEntity
  8
部品1
 48
50.0
100
AcDbLine
 10
7404.049312556193
 20
4771.931598713265
 30
0.0
 11
4715.296801691121
 21
4771.931598713265
 31
0.0
  0
LINE
  5
16B54
330
747D
100
AcDbEntity
  8
細線
 48
50.0
100
AcDbLine
 10
7422.514406111743
 20
4884.904841276732
 30
0.0
 11
4696.831708135618
 21
4884.904841277052
 31
0.0
  0
LINE
  5
16B55
330
747D
100
AcDbEntity
  8
細線
 48
50.0
100
AcDbLine
 10
7414.278375586899
 20
4792.70484127673
 30
0.0
 11
4705.067738660458
 21
4792.704841277051
 31
0.0
  0
LINE
  5
16B56
330
747D
100
AcDbEntity
  8
部品1
100
AcDbLine
 10
7424.253396108325
 20
4905.535073318024
 30
0.0
 11
7423.119998775979
 21
4885.558945335424
 31
0.0
  0
LINE
  5
16B57
330
747D
100
AcDbEntity
  8
細線
 48
50.0
100
AcDbLine
 10
7391.673057123658
 20
4912.931598713264
 30
0.0
 11
7391.673057123658
 21
4771.931598713263
 31
0.0
  0
LINE
  5
16B58
330
747D
100
AcDbEntity
  8
細線
 48
50.0
100
AcDbLine
 10
4727.673057123658
 20
4912.931598713264
 30
0.0
 11
4727.673057123658
 21
4771.931598713263
 31
0.0
  0
LINE
  5
16B59
330
747D
100
AcDbEntity
  8
部品1
100
AcDbLine
 10
7411.682978454402
 20
4789.901538168366
 30
0.0
 11
7411.038072647291
 21
4778.535073318026
 31
0.0
  0
LINE
  5
16B5A
330
747D
100
AcDbEntity
  8
部品1
100
AcDbLine
 10
7419.919008979246
 20
4882.101538168367
 30
0.0
 11
7414.883968251135
 21
4793.358945335423
 31
0.0
  0
ARC
  5
16B5B
330
747D
100
AcDbEntity
  8
部品1
 48
50.0
100
AcDbCircle
 10
7422.914191875432
 20
4881.931598713265
 30
0.0
 40
3.0
100
AcDbArc
 50
97.6581272073639
 51
176.7526572096558
  0
ARC
  5
16B5C
330
747D
100
AcDbEntity
  8
部品1
 48
50.0
100
AcDbCircle
 10
7414.678161350588
 20
4789.731598713262
 30
0.0
 40
3.0
100
AcDbArc
 50
97.6581272073639
 51
176.7526572096558
  0
ARC
  5
16B5D
330
747D
100
AcDbEntity
  8
部品1
 48
50.0
100
AcDbCircle
 10
7414.185092242028
 20
4793.398597874946
 30
0.0
 40
0.7
100
AcDbArc
 50
277.6581272073639
 51
356.7526572096558
  0
ARC
  5
16B5E
330
747D
100
AcDbEntity
  8
部品1
 48
50.0
100
AcDbCircle
 10
7422.421122766872
 20
4885.598597874951
 30
0.0
 40
0.7
100
AcDbArc
 50
277.6581272073639
 51
356.7526572095518
  0
ARC
  5
16B5F
330
747D
100
AcDbEntity
  8
部品1
100
AcDbCircle
 10
7404.049312556193
 20
4778.931598713265
 30
0.0
 40
7.0
100
AcDbArc
 50
270.0
 51
356.7526572096558
  0
ARC
  5
16B60
330
747D
100
AcDbEntity
  8
部品1
100
AcDbCircle
 10
7417.264636017226
 20
4905.931598713263
 30
0.0
 40
7.0
100
AcDbArc
 50
356.7526572096558
 51
90.0
  0
ARC
  5
16B61
330
747D
100
AcDbEntity
  8
部品1
100
AcDbCircle
 10
4702.081478230087
 20
4905.931598713263
 30
0.0
 40
7.0
100
AcDbArc
 50
90.0
 51
183.2473427903441
  0
ARC
  5
16B62
330
747D
100
AcDbEntity
  8
部品1
100
AcDbCircle
 10
4715.296801691121
 20
4778.931598713265
 30
0.0
 40
7.0
100
AcDbArc
 50
183.2473427903441
 51
270.0
  0
ARC
  5
16B63
330
747D
100
AcDbEntity
  8
部品1
 48
50.0
100
AcDbCircle
 10
4696.924991480446
 20
4885.598597874951
 30
0.0
 40
0.7
100
AcDbArc
 50
183.2473427904482
 51
262.3418727926361
  0
ARC
  5
16B64
330
747D
100
AcDbEntity
  8
部品1
 48
50.0
100
AcDbCircle
 10
4705.161022005286
 20
4793.398597874946
 30
0.0
 40
0.7
100
AcDbArc
 50
183.2473427903441
 51
262.3418727926361
  0
ARC
  5
16B65
330
747D
100
AcDbEntity
  8
部品1
 48
50.0
100
AcDbCircle
 10
4704.667952896725
 20
4789.731598713262
 30
0.0
 40
3.0
100
AcDbArc
 50
3.247342790344184
 51
82.34187279263609
  0
ARC
  5
16B66
330
747D
100
AcDbEntity
  8
部品1
 48
50.0
100
AcDbCircle
 10
4696.431922371881
 20
4881.931598713265
 30
0.0
 40
3.0
100
AcDbArc
 50
3.247342790344184
 51
82.34187279263609
  0
LINE
  5
16B67
330
747D
100
AcDbEntity
  8
部品1
100
AcDbLine
 10
4699.427105268067
 20
4882.101538168367
 30
0.0
 11
4704.462145996178
 21
4793.358945335423
 31
0.0
  0
LINE
  5
16B68
330
747D
100
AcDbEntity
  8
部品1
100
AcDbLine
 10
4707.663135792914
 20
4789.901538168366
 30
0.0
 11
4708.308041600022
 21
4778.535073318026
 31
0.0
  0
LINE
  5
16B69
330
747D
100
AcDbEntity
  8
部品1
100
AcDbLine
 10
4695.092718138988
 20
4905.535073318024
 30
0.0
 11
4696.226115471338
 21
4885.558945335424
 31
0.0
  0
LINE
  5
16B6A
330
747D
100
AcDbEntity
  8
部品1
100
AcDbLine
 10
4744.673057123656
 20
4677.931598713261
 30
0.0
 11
7374.673057123657
 21
4677.931598713261
 31
0.0
  0
DIMENSION
  5
16B6B
330
747D
100
AcDbEntity
  8
寸法
 48
50.0
100
AcDbDimension
  2
*D15
 10
4694.673057123658
 20
5125.473183971504
 30
0.0
 11
4381.187775749411
 21
5125.473183971504
 31
0.0
 70
   160
 71
     5
 42
50.0
  3
INABA_S40G
100
AcDbAlignedDimension
 13
4744.673057123658
 23
4912.931598713267
 33
0.0
 14
4694.673057123658
 24
4912.931598713265
 34
0.0
100
AcDbRotatedDimension
1001
ACAD
1000
DSTYLE
1002
{
1002
}
  0
DIMENSION
  5
16B6C
330
747D
100
AcDbEntity
  8
寸法
 48
50.0
100
AcDbDimension
  2
*D16
 10
7424.673057123658
 20
5340.868615453759
 30
0.0
 11
6059.673057123658
 21
5340.868615453759
 31
0.0
 70
   160
 71
     5
 42
2730.0
  3
INABA_S40G
100
AcDbAlignedDimension
 13
4694.673057123658
 23
4912.931598713265
 33
0.0
 14
7424.673057123658
 24
4912.931598713264
 34
0.0
100
AcDbRotatedDimension
  0
DIMENSION
  5
16B6D
330
747D
100
AcDbEntity
  8
寸法
 48
50.0
100
AcDbDimension
  2
*D17
 10
7374.673057123658
 20
5125.473183971504
 30
0.0
 11
7738.158338497895
 21
5125.473183971504
 31
0.0
 70
   160
 71
     5
 42
50.0
  3
INABA_S40G
100
AcDbAlignedDimension
 13
7424.673057123658
 23
4912.931598713264
 33
0.0
 14
7374.673057123658
 24
4912.931598713265
 34
0.0
100
AcDbRotatedDimension
  0
DIMENSION
  5
16B6E
330
747D
100
AcDbEntity
  8
寸法
 48
50.0
100
AcDbDimension
  2
*D18
 10
4744.673057123658
 20
5125.473183971504
 30
0.0
 11
6059.673057123658
 21
5125.473183971504
 31
0.0
 70
   160
  1
柱外寸法<>
 71
     5
 42
2630.0
  3
INABA_S40G
100
AcDbAlignedDimension
 13
7374.673057123658
 23
4912.931598713265
 33
0.0
 14
4744.673057123658
 24
4912.931598713267
 34
0.0
100
AcDbRotatedDimension
  0
LINE
  5
16BC3
330
747D
100
AcDbEntity
  8
部品1
100
AcDbLine
 10
11320.47043893114
 20
2537.931598713262
 30
0.0
 11
11320.47043893114
 21
2437.931598713261
 31
0.0
  0
LINE
  5
16BC6
330
747D
100
AcDbEntity
  8
破線
  6
HIDDEN
 48
5.0
100
AcDbLine
 10
11457.97043893113
 20
2285.231598713261
 30
0.0
 11
11457.97043893113
 21
2282.931598713261
 31
0.0
  0
LINE
  5
16BC7
330
747D
100
AcDbEntity
  8
破線
  6
HIDDEN
 48
5.0
100
AcDbLine
 10
11527.97043893114
 20
2285.231598713261
 30
0.0
 11
11527.97043893114
 21
2282.931598713261
 31
0.0
  0
LINE
  5
16BCA
330
747D
100
AcDbEntity
  8
部品1
100
AcDbLine
 10
10515.47276670673
 20
2537.931598713262
 30
0.0
 11
10515.47276670673
 21
2437.931598713261
 31
0.0
  0
LINE
  5
16BCB
330
747D
100
AcDbEntity
  8
部品1
100
AcDbLine
 10
10315.47276670673
 20
2537.931598713262
 30
0.0
 11
10315.47276670673
 21
2437.931598713261
 31
0.0
  0
LINE
  5
16BCC
330
747D
100
AcDbEntity
  8
部品1
100
AcDbLine
 10
9765.470438931146
 20
2537.931598713262
 30
0.0
 11
9765.470438931146
 21
2437.931598713261
 31
0.0
  0
LINE
  5
16BCD
330
747D
100
AcDbEntity
  8
部品1
100
AcDbLine
 10
4799.673057123657
 20
2587.931598713261
 30
0.0
 11
7319.673057123657
 21
2587.931598713261
 31
0.0
  0
LINE
  5
16BCE
330
747D
100
AcDbEntity
  8
部品1
100
AcDbLine
 10
7174.673057123651
 20
2537.931598713262
 30
0.0
 11
7174.67305712365
 21
2437.931598713261
 31
0.0
  0
LINE
  5
16BCF
330
747D
100
AcDbEntity
  8
部品1
100
AcDbLine
 10
6974.673057123651
 20
2537.931598713262
 30
0.0
 11
6974.673057123649
 21
2437.931598713261
 31
0.0
  0
LINE
  5
16BD0
330
747D
100
AcDbEntity
  8
部品1
100
AcDbLine
 10
6574.630482051656
 20
2537.931598713262
 30
0.0
 11
6574.630482051652
 21
2437.931598713263
 31
0.0
  0
LINE
  5
16BD1
330
747D
100
AcDbEntity
  8
部品1
100
AcDbLine
 10
6374.630482051657
 20
2537.931598713262
 30
0.0
 11
6374.630482051653
 21
2437.931598713263
 31
0.0
  0
LINE
  5
16BD2
330
747D
100
AcDbEntity
  8
部品1
100
AcDbLine
 10
5744.705225808537
 20
2537.931598713262
 30
0.0
 11
5744.705225808535
 21
2437.931598713261
 31
0.0
  0
LINE
  5
16BD3
330
747D
100
AcDbEntity
  8
部品1
100
AcDbLine
 10
5544.705225808537
 20
2537.931598713262
 30
0.0
 11
5544.705225808534
 21
2437.931598713261
 31
0.0
  0
LINE
  5
16BD4
330
747D
100
AcDbEntity
  8
部品1
100
AcDbLine
 10
5144.673057123657
 20
2537.931598713262
 30
0.0
 11
5144.673057123658
 21
2437.931598713261
 31
0.0
  0
LINE
  5
16BD5
330
747D
100
AcDbEntity
  8
部品1
100
AcDbLine
 10
4944.673057123657
 20
2537.931598713262
 30
0.0
 11
4944.673057123658
 21
2437.931598713261
 31
0.0
  0
LINE
  5
16BD6
330
747D
100
AcDbEntity
  8
部品1
100
AcDbLine
 10
4799.673057123657
 20
2537.931598713262
 30
0.0
 11
7319.673057123657
 21
2537.931598713262
 31
0.0
  0
LINE
  5
16BD7
330
747D
100
AcDbEntity
  8
破線
  6
HIDDEN
 48
5.0
100
AcDbLine
 10
7374.673057123655
 20
2187.931598713261
 30
0.0
 11
7319.673057123657
 21
2187.931598713261
 31
0.0
  0
LINE
  5
16BDB
330
747D
100
AcDbEntity
  8
破線
  6
HIDDEN
 48
5.0
100
AcDbLine
 10
4799.673057123654
 20
2187.931598713269
 30
0.0
 11
4744.673057123654
 21
2187.931598713269
 31
0.0
  0
LINE
  5
16BE0
330
747D
100
AcDbEntity
  8
破線
  6
HIDDEN
 48
5.0
100
AcDbLine
 10
4744.673057123656
 20
2437.931598713261
 30
0.0
 11
4744.673057123654
 21
2187.931598713261
 31
0.0
  0
LINE
  5
16BE1
330
747D
100
AcDbEntity
  8
破線
  6
HIDDEN
 48
5.0
100
AcDbLine
 10
7319.673057123657
 20
2437.931598713261
 30
0.0
 11
7319.673057123657
 21
2187.931598713261
 31
0.0
  0
LINE
  5
16BE2
330
747D
100
AcDbEntity
  8
破線
  6
HIDDEN
 48
5.0
100
AcDbLine
 10
4799.673057123657
 20
2437.931598713261
 30
0.0
 11
4799.673057123654
 21
2187.931598713261
 31
0.0
  0
ARC
  5
16C56
330
747D
100
AcDbEntity
  8
細線
 48
50.0
100
AcDbCircle
 10
5759.673057123655
 20
3150.431598713261
 30
0.0
 40
15.0
100
AcDbArc
 50
90.0
 51
270.0
  0
ARC
  5
16C57
330
747D
100
AcDbEntity
  8
細線
 48
50.0
100
AcDbCircle
 10
5859.673057123655
 20
3150.431598713261
 30
0.0
 40
15.0
100
AcDbArc
 50
270.0
 51
90.0
  0
LINE
  5
16C58
330
747D
100
AcDbEntity
  8
細線
 48
50.0
100
AcDbLine
 10
5759.673057123655
 20
3165.431598713261
 30
0.0
 11
5859.673057123655
 21
3165.431598713261
 31
0.0
  0
LINE
  5
16C59
330
747D
100
AcDbEntity
  8
細線
 48
50.0
100
AcDbLine
 10
5859.673057123655
 20
3135.431598713262
 30
0.0
 11
5759.673057123655
 21
3135.431598713262
 31
0.0
  0
LINE
  5
16C5A
330
747D
100
AcDbEntity
  8
細線
 48
50.0
100
AcDbLine
 10
6359.673057123655
 20
3135.431598713262
 30
0.0
 11
6259.673057123655
 21
3135.431598713262
 31
0.0
  0
LINE
  5
16C5B
330
747D
100
AcDbEntity
  8
細線
 48
50.0
100
AcDbLine
 10
6259.673057123655
 20
3165.431598713261
 30
0.0
 11
6359.673057123655
 21
3165.431598713261
 31
0.0
  0
ARC
  5
16C5C
330
747D
100
AcDbEntity
  8
細線
 48
50.0
100
AcDbCircle
 10
6259.673057123655
 20
3150.431598713261
 30
0.0
 40
15.0
100
AcDbArc
 50
90.0
 51
270.0
  0
ARC
  5
16C5D
330
747D
100
AcDbEntity
  8
細線
 48
50.0
100
AcDbCircle
 10
6359.673057123655
 20
3150.431598713261
 30
0.0
 40
15.0
100
AcDbArc
 50
270.0
 51
90.0
  0
CIRCLE
  5
16C5E
330
747D
100
AcDbEntity
  8
細線
 48
50.0
100
AcDbCircle
 10
6059.673057123655
 20
3475.431598713262
 30
0.0
 40
18.0
  0
LINE
  5
16C62
330
747D
100
AcDbEntity
  8
細線
100
AcDbLine
 10
7271.673057123656
 20
2597.931598713262
 30
0.0
 11
4847.673057123651
 21
2597.931598713262
 31
0.0
  0
LINE
  5
16C63
330
747D
100
AcDbEntity
  8
細線
100
AcDbLine
 10
4847.673057123653
 20
3117.931598713262
 30
0.0
 11
7271.673057123655
 21
3117.931598713262
 31
0.0
  0
LINE
  5
16C64
330
747D
100
AcDbEntity
  8
細線
100
AcDbLine
 10
4847.673057123653
 20
3052.931598713261
 30
0.0
 11
7271.673057123655
 21
3052.931598713261
 31
0.0
  0
LINE
  5
16C65
330
747D
100
AcDbEntity
  8
細線
100
AcDbLine
 10
4847.673057123653
 20
2987.931598713262
 30
0.0
 11
7271.673057123655
 21
2987.931598713262
 31
0.0
  0
LINE
  5
16C66
330
747D
100
AcDbEntity
  8
細線
100
AcDbLine
 10
4847.673057123653
 20
2922.931598713262
 30
0.0
 11
7271.673057123655
 21
2922.931598713262
 31
0.0
  0
LINE
  5
16C67
330
747D
100
AcDbEntity
  8
細線
100
AcDbLine
 10
4847.673057123653
 20
2857.931598713261
 30
0.0
 11
7271.673057123655
 21
2857.931598713261
 31
0.0
  0
LINE
  5
16C68
330
747D
100
AcDbEntity
  8
細線
100
AcDbLine
 10
4847.673057123653
 20
2792.931598713261
 30
0.0
 11
7271.673057123655
 21
2792.931598713261
 31
0.0
  0
LINE
  5
16C69
330
747D
100
AcDbEntity
  8
細線
100
AcDbLine
 10
4847.673057123653
 20
2727.931598713261
 30
0.0
 11
7271.673057123655
 21
2727.931598713261
 31
0.0
  0
LINE
  5
16C6A
330
747D
100
AcDbEntity
  8
細線
100
AcDbLine
 10
4847.673057123653
 20
2662.931598713262
 30
0.0
 11
7271.673057123655
 21
2662.931598713262
 31
0.0
  0
LINE
  5
16C6B
330
747D
100
AcDbEntity
  8
細線
100
AcDbLine
 10
4847.673057123653
 20
2597.931598713262
 30
0.0
 11
7271.673057123655
 21
2597.931598713262
 31
0.0
  0
LINE
  5
16C6C
330
747D
100
AcDbEntity
  8
細線
100
AcDbLine
 10
4847.673057123653
 20
4417.931598713261
 30
0.0
 11
7271.673057123655
 21
4417.931598713261
 31
0.0
  0
LINE
  5
16C6D
330
747D
100
AcDbEntity
  8
細線
100
AcDbLine
 10
4847.673057123653
 20
4482.931598713261
 30
0.0
 11
7271.673057123655
 21
4482.931598713261
 31
0.0
  0
LINE
  5
16C6E
330
747D
100
AcDbEntity
  8
細線
100
AcDbLine
 10
4847.673057123653
 20
3767.931598713261
 30
0.0
 11
7271.673057123655
 21
3767.931598713261
 31
0.0
  0
LINE
  5
16C6F
330
747D
100
AcDbEntity
  8
細線
100
AcDbLine
 10
4847.673057123653
 20
3702.931598713262
 30
0.0
 11
7271.673057123655
 21
3702.931598713262
 31
0.0
  0
LINE
  5
16C70
330
747D
100
AcDbEntity
  8
細線
100
AcDbLine
 10
4847.673057123653
 20
3637.931598713262
 30
0.0
 11
7271.673057123655
 21
3637.931598713262
 31
0.0
  0
LINE
  5
16C71
330
747D
100
AcDbEntity
  8
細線
100
AcDbLine
 10
4847.673057123653
 20
3572.931598713262
 30
0.0
 11
7271.673057123655
 21
3572.931598713262
 31
0.0
  0
LINE
  5
16C72
330
747D
100
AcDbEntity
  8
細線
100
AcDbLine
 10
4847.673057123653
 20
3507.931598713262
 30
0.0
 11
7271.673057123655
 21
3507.931598713262
 31
0.0
  0
LINE
  5
16C73
330
747D
100
AcDbEntity
  8
細線
100
AcDbLine
 10
4847.673057123653
 20
3442.931598713261
 30
0.0
 11
7271.673057123655
 21
3442.931598713261
 31
0.0
  0
LINE
  5
16C74
330
747D
100
AcDbEntity
  8
細線
100
AcDbLine
 10
4847.673057123653
 20
3377.931598713261
 30
0.0
 11
7271.673057123655
 21
3377.931598713261
 31
0.0
  0
LINE
  5
16C75
330
747D
100
AcDbEntity
  8
細線
100
AcDbLine
 10
4847.673057123653
 20
3312.931598713261
 30
0.0
 11
7271.673057123655
 21
3312.931598713261
 31
0.0
  0
LINE
  5
16C76
330
747D
100
AcDbEntity
  8
細線
100
AcDbLine
 10
4847.673057123653
 20
3247.931598713261
 30
0.0
 11
7271.673057123655
 21
3247.931598713261
 31
0.0
  0
LINE
  5
16C77
330
747D
100
AcDbEntity
  8
細線
100
AcDbLine
 10
4847.673057123653
 20
3182.931598713262
 30
0.0
 11
7271.673057123655
 21
3182.931598713262
 31
0.0
  0
LINE
  5
16C78
330
747D
100
AcDbEntity
  8
細線
100
AcDbLine
 10
4847.673057123653
 20
4157.931598713261
 30
0.0
 11
7271.673057123655
 21
4157.931598713261
 31
0.0
  0
LINE
  5
16C79
330
747D
100
AcDbEntity
  8
細線
100
AcDbLine
 10
4847.673057123653
 20
4092.931598713261
 30
0.0
 11
7271.673057123655
 21
4092.931598713261
 31
0.0
  0
LINE
  5
16C7A
330
747D
100
AcDbEntity
  8
細線
100
AcDbLine
 10
4847.673057123653
 20
4027.931598713261
 30
0.0
 11
7271.673057123655
 21
4027.931598713261
 31
0.0
  0
LINE
  5
16C7B
330
747D
100
AcDbEntity
  8
細線
100
AcDbLine
 10
4847.673057123653
 20
3962.931598713261
 30
0.0
 11
7271.673057123655
 21
3962.931598713261
 31
0.0
  0
LINE
  5
16C7C
330
747D
100
AcDbEntity
  8
細線
100
AcDbLine
 10
4847.673057123653
 20
3897.931598713262
 30
0.0
 11
7271.673057123655
 21
3897.931598713262
 31
0.0
  0
LINE
  5
16C7D
330
747D
100
AcDbEntity
  8
細線
100
AcDbLine
 10
4847.673057123653
 20
3832.931598713262
 30
0.0
 11
7271.673057123655
 21
3832.931598713262
 31
0.0
  0
LINE
  5
16C7E
330
747D
100
AcDbEntity
  8
細線
100
AcDbLine
 10
4847.673057123653
 20
4352.931598713261
 30
0.0
 11
7271.673057123655
 21
4352.931598713261
 31
0.0
  0
LINE
  5
16C7F
330
747D
100
AcDbEntity
  8
細線
100
AcDbLine
 10
4847.673057123653
 20
4287.931598713261
 30
0.0
 11
7271.673057123655
 21
4287.931598713261
 31
0.0
  0
LINE
  5
16C80
330
747D
100
AcDbEntity
  8
細線
100
AcDbLine
 10
4847.673057123653
 20
4222.931598713262
 30
0.0
 11
7271.673057123655
 21
4222.931598713262
 31
0.0
  0
LINE
  5
16C81
330
747D
100
AcDbEntity
  8
部品1
100
AcDbLine
 10
4744.673057123658
 20
4512.931598713262
 30
0.0
 11
7374.67305712366
 21
4512.931598713262
 31
0.0
  0
LINE
  5
16C82
330
747D
100
AcDbEntity
  8
部品1
100
AcDbLine
 10
7271.673057123658
 20
4512.931598713262
 30
0.0
 11
7271.673057123658
 21
2587.931598713261
 31
0.0
  0
LINE
  5
16C83
330
747D
100
AcDbEntity
  8
部品1
100
AcDbLine
 10
4847.673057123657
 20
4512.931598713261
 30
0.0
 11
4847.673057123657
 21
2587.931598713261
 31
0.0
  0
LINE
  5
16C84
330
747D
100
AcDbEntity
  8
破線
 48
5.0
100
AcDbLine
 10
9310.470438931139
 20
2437.931598713261
 30
0.0
 11
9310.470438931139
 21
2187.931598713261
 31
0.0
  0
LINE
  5
16C85
330
747D
100
AcDbEntity
  8
破線
 48
5.0
100
AcDbLine
 10
9365.470438931138
 20
2437.931598713261
 30
0.0
 11
9365.470438931138
 21
2187.931598713261
 31
0.0
  0
LINE
  5
16C87
330
747D
100
AcDbEntity
  8
破線
 48
5.0
100
AcDbLine
 10
9310.470438931139
 20
2187.931598713261
 30
0.0
 11
9365.470438931138
 21
2187.931598713261
 31
0.0
  0
LINE
  5
16C8B
330
747D
100
AcDbEntity
  8
破線
 48
5.0
100
AcDbLine
 10
7374.673057123657
 20
2437.931598713261
 30
0.0
 11
7374.673057123657
 21
2187.931598713261
 31
0.0
  0
LINE
  5
16C8C
330
747D
100
AcDbEntity
  8
部品1
100
AcDbLine
 10
9365.470438931138
 20
2537.931598713262
 30
0.0
 11
11472.97043893113
 21
2537.931598713262
 31
0.0
  0
LINE
  5
16C8D
330
747D
100
AcDbEntity
  8
部品1
100
AcDbLine
 10
11512.97043893114
 20
2537.931598713262
 30
0.0
 11
11520.47043893114
 21
2537.931598713262
 31
0.0
  0
LINE
  5
16C8E
330
747D
100
AcDbEntity
  8
破線
  6
HIDDEN
 48
5.0
100
AcDbLine
 10
11512.97043893113
 20
2437.931598713261
 30
0.0
 11
11512.97043893113
 21
2432.931598713262
 31
0.0
  0
LINE
  5
16C8F
330
747D
100
AcDbEntity
  8
破線
  6
HIDDEN
 48
5.0
100
AcDbLine
 10
11472.97043893114
 20
2437.931598713261
 30
0.0
 11
11472.97043893114
 21
2432.931598713262
 31
0.0
  0
ARC
  5
16C90
330
747D
100
AcDbEntity
  8
部品1
 48
50.0
100
AcDbCircle
 10
11507.97043893114
 20
2577.931598713262
 30
0.0
 40
5.0
100
AcDbArc
 50
0.0
 51
90.0
  0
ARC
  5
16C91
330
747D
100
AcDbEntity
  8
部品1
 48
50.0
100
AcDbCircle
 10
11477.97043893113
 20
2577.931598713262
 30
0.0
 40
5.0
100
AcDbArc
 50
90.0
 51
180.0
  0
LINE
  5
16C92
330
747D
100
AcDbEntity
  8
部品1
100
AcDbLine
 10
11507.97043893114
 20
2582.931598713261
 30
0.0
 11
11477.97043893113
 21
2582.931598713261
 31
0.0
  0
LINE
  5
16C93
330
747D
100
AcDbEntity
  8
部品1
 48
50.0
100
AcDbLine
 10
11512.97043893114
 20
2577.931598713262
 30
0.0
 11
11512.97043893113
 21
2437.931598713261
 31
0.0
  0
LINE
  5
16C94
330
747D
100
AcDbEntity
  8
部品1
 48
50.0
100
AcDbLine
 10
11472.97043893113
 20
2577.931598713262
 30
0.0
 11
11472.97043893114
 21
2437.931598713261
 31
0.0
  0
LINE
  5
16C98
330
747D
100
AcDbEntity
  8
破線
  6
HIDDEN
 48
5.0
100
AcDbLine
 10
11527.97043893114
 20
2285.231598713261
 30
0.0
 11
11527.97043893114
 21
2282.931598713261
 31
0.0
  0
LINE
  5
16C99
330
747D
100
AcDbEntity
  8
破線
  6
HIDDEN
 48
5.0
100
AcDbLine
 10
11512.97043893114
 20
2432.931598713262
 30
0.0
 11
11527.97043893114
 21
2285.231598713261
 31
0.0
  0
LINE
  5
16C9A
330
747D
100
AcDbEntity
  8
破線
  6
HIDDEN
 48
5.0
100
AcDbLine
 10
11457.97043893113
 20
2285.231598713261
 30
0.0
 11
11457.97043893113
 21
2282.931598713261
 31
0.0
  0
LINE
  5
16C9B
330
747D
100
AcDbEntity
  8
破線
  6
HIDDEN
 48
5.0
100
AcDbLine
 10
11472.97043893113
 20
2432.931598713262
 30
0.0
 11
11457.97043893113
 21
2285.231598713261
 31
0.0
  0
LINE
  5
16C9C
330
747D
100
AcDbEntity
  8
破線
  6
HIDDEN
 48
5.0
100
AcDbLine
 10
11527.97043893114
 20
2282.931598713261
 30
0.0
 11
11457.97043893113
 21
2282.931598713261
 31
0.0
  0
LINE
  5
16C9D
330
747D
100
AcDbEntity
  8
部品1
100
AcDbLine
 10
7374.673057123658
 20
4771.931598713265
 30
0.0
 11
7374.673057123657
 21
2437.931598713261
 31
0.0
  0
LINE
  5
16C9E
330
747D
100
AcDbEntity
  8
部品1
100
AcDbLine
 10
4799.673057123658
 20
4512.931598713262
 30
0.0
 11
4799.673057123657
 21
2437.931598713261
 31
0.0
  0
LINE
  5
16C9F
330
747D
100
AcDbEntity
  8
部品1
100
AcDbLine
 10
7319.673057123657
 20
4512.931598713262
 30
0.0
 11
7319.673057123657
 21
2437.931598713261
 31
0.0
  0
LINE
  5
16CA0
330
747D
100
AcDbEntity
  8
部品1
100
AcDbLine
 10
4744.673057123656
 20
4771.931598713265
 30
0.0
 11
4744.673057123656
 21
2437.931598713261
 31
0.0
  0
LINE
  5
16CA1
330
747D
100
AcDbEntity
  8
部品1
100
AcDbLine
 10
4799.673057123657
 20
2537.931598713262
 30
0.0
 11
7319.673057123655
 21
2537.931598713262
 31
0.0
  0
LINE
  5
16CA2
330
747D
100
AcDbEntity
  8
部品1
100
AcDbLine
 10
3905.903465777273
 20
2567.835409280926
 30
0.0
 11
3830.903465777274
 21
2437.931598713261
 31
0.0
  0
TEXT
  5
16CA3
330
747D
100
AcDbEntity
  8
部品1
100
AcDbText
 10
3934.008407902047
 20
2474.038502319163
 30
0.0
 40
125.0
  1
G.L
  7
STYLE2
100
AcDbText
  0
LINE
  5
16CA4
330
747D
100
AcDbEntity
  8
部品1
100
AcDbLine
 10
3830.903465777274
 20
2437.931598713261
 30
0.0
 11
3755.903465777274
 21
2567.835409280926
 31
0.0
  0
LINE
  5
16CA5
330
747D
100
AcDbEntity
  8
部品1
100
AcDbLine
 10
3755.903465777274
 20
2567.835409280926
 30
0.0
 11
3905.903465777273
 21
2567.835409280926
 31
0.0
  0
DIMENSION
  5
16CA6
330
747D
100
AcDbEntity
  8
寸法
100
AcDbDimension
  2
*D19
 10
12225.39759690326
 20
4857.931598713261
 30
0.0
 11
12225.39759690326
 21
3692.931598713261
 31
0.0
 70
   160
 71
     5
 42
2320.0
  3
INABA_S40G
100
AcDbAlignedDimension
 13
11520.47043893114
 23
2537.931598713262
 33
0.0
 14
11615.47043893113
 24
4857.931598713261
 34
0.0
 50
90.0
100
AcDbRotatedDimension
1001
ACAD
1000
DSTYLE
1002
{
1070
   288
1070
     1
1002
}
  0
LINE
  5
16CAD
330
747D
100
AcDbEntity
  8
部品1
100
AcDbLine
 10
11465.47043893114
 20
4677.931598713261
 30
0.0
 11
11465.47043893114
 21
2587.931598713261
 31
0.0
  0
LINE
  5
16CAE
330
747D
100
AcDbEntity
  8
部品1
100
AcDbLine
 10
11520.47043893114
 20
4732.608036344484
 30
0.0
 11
11520.47043893114
 21
2437.931598713261
 31
0.0
  0
DIMENSION
  5
16CC6
330
747D
100
AcDbEntity
  8
寸法
100
AcDbDimension
  2
*D20
 10
8466.720309747881
 20
2537.931598713262
 30
0.0
 11
8466.720309747881
 21
2154.181598713261
 31
0.0
 70
   160
 71
     5
 42
50.0
  3
INABA_S40G
100
AcDbAlignedDimension
 13
9310.470438931139
 23
2587.931598713261
 33
0.0
 14
9255.470438931139
 24
2537.931598713262
 34
0.0
 50
90.0
100
AcDbRotatedDimension
1001
ACAD
1000
DSTYLE
1002
{
1070
   288
1070
     1
1002
}
  0
DIMENSION
  5
16CC7
330
747D
100
AcDbEntity
  8
寸法
100
AcDbDimension
  2
*D21
 10
8166.72030974788
 20
2437.931598713261
 30
0.0
 11
8166.72030974788
 21
2022.931598713261
 31
0.0
 70
   160
 71
     5
 42
100.0000000000004
  3
INABA_S40G
100
AcDbAlignedDimension
 13
9255.470438931139
 23
2537.931598713262
 33
0.0
 14
8253.969363036008
 24
2437.931598713261
 34
0.0
 50
90.0
100
AcDbRotatedDimension
1001
ACAD
1000
DSTYLE
1002
{
1070
   288
1070
     1
1002
}
  0
DIMENSION
  5
16CC8
330
747D
100
AcDbEntity
  8
寸法
100
AcDbDimension
  2
*D22
 10
8466.720309747881
 20
2587.931598713262
 30
0.0
 11
8366.708498724257
 21
3632.931598713263
 31
0.0
 70
    32
 71
     5
 42
2089.999999999999
  3
INABA_S40G
100
AcDbAlignedDimension
 13
9310.470438931139
 23
4677.931598713261
 33
0.0
 14
9310.470438931139
 24
2587.931598713261
 34
0.0
 50
90.0
100
AcDbRotatedDimension
1001
ACAD
1000
DSTYLE
1002
{
1070
   288
1070
     1
1002
}
  0
LINE
  5
16CC9
330
747D
100
AcDbEntity
  8
部品1
100
AcDbLine
 10
9310.470438931144
 20
4769.95789575785
 30
0.0
 11
9310.470438931139
 21
2437.931598713261
 31
0.0
  0
LINE
  5
16CCD
330
747D
100
AcDbEntity
  8
部品1
100
AcDbLine
 10
9365.470438931138
 20
4677.931598713261
 30
0.0
 11
9365.470438931138
 21
2437.931598713261
 31
0.0
  0
LINE
  5
16CCE
330
747D
100
AcDbEntity
  8
部品1
100
AcDbLine
 10
9365.470438931138
 20
2587.931598713261
 30
0.0
 11
11520.47043893114
 21
2587.931598713261
 31
0.0
  0
LINE
  5
16CCF
330
747D
100
AcDbEntity
  8
部品1
100
AcDbLine
 10
9310.470438931139
 20
4677.931598713261
 30
0.0
 11
11520.47043893114
 21
4677.931598713261
 31
0.0
  0
LINE
  5
16CD0
330
747D
100
AcDbEntity
  8
Ｇ．Ｌ
100
AcDbLine
 10
3656.406454453174
 20
2437.931598713261
 30
0.0
 11
13210.79354554683
 21
2437.931598713261
 31
0.0
  0
LINE
  5
17E8B
330
747D
100
AcDbEntity
  8
細線
 48
50.0
100
AcDbLine
 10
11387.97043893114
 20
4677.931598713261
 30
0.0
 11
11387.97043893114
 21
2587.931598713261
 31
0.0
  0
LINE
  5
17E8C
330
747D
100
AcDbEntity
  8
細線
 48
50.0
100
AcDbLine
 10
11402.97043893114
 20
4677.931598713261
 30
0.0
 11
11402.97043893114
 21
2587.931598713261
 31
0.0
  0
LINE
  5
17E8D
330
747D
100
AcDbEntity
  8
細線
 48
50.0
100
AcDbLine
 10
11262.97043893114
 20
4677.931598713261
 30
0.0
 11
11262.97043893114
 21
2587.931598713261
 31
0.0
  0
LINE
  5
17E8E
330
747D
100
AcDbEntity
  8
細線
 48
50.0
100
AcDbLine
 10
11247.97043893114
 20
4677.931598713261
 30
0.0
 11
11247.97043893114
 21
2587.931598713261
 31
0.0
  0
LINE
  5
17E8F
330
747D
100
AcDbEntity
  8
細線
 48
50.0
100
AcDbLine
 10
11107.97043893114
 20
4677.931598713261
 30
0.0
 11
11107.97043893114
 21
2587.931598713261
 31
0.0
  0
LINE
  5
17E90
330
747D
100
AcDbEntity
  8
細線
 48
50.0
100
AcDbLine
 10
11122.97043893114
 20
4677.931598713261
 30
0.0
 11
11122.97043893114
 21
2587.931598713261
 31
0.0
  0
LINE
  5
17E91
330
747D
100
AcDbEntity
  8
部品1
100
AcDbLine
 10
11045.47043893113
 20
4677.931598713261
 30
0.0
 11
11045.47043893113
 21
2587.931598713261
 31
0.0
  0
LINE
  5
17E92
330
747D
100
AcDbEntity
  8
細線
 48
50.0
100
AcDbLine
 10
10702.97043893114
 20
4677.931598713261
 30
0.0
 11
10702.97043893114
 21
2587.931598713261
 31
0.0
  0
LINE
  5
17E93
330
747D
100
AcDbEntity
  8
細線
 48
50.0
100
AcDbLine
 10
10687.97043893114
 20
4677.931598713261
 30
0.0
 11
10687.97043893114
 21
2587.931598713261
 31
0.0
  0
LINE
  5
17E94
330
747D
100
AcDbEntity
  8
細線
 48
50.0
100
AcDbLine
 10
10827.97043893114
 20
4677.931598713261
 30
0.0
 11
10827.97043893114
 21
2587.931598713261
 31
0.0
  0
LINE
  5
17E95
330
747D
100
AcDbEntity
  8
細線
 48
50.0
100
AcDbLine
 10
10842.97043893114
 20
4677.931598713261
 30
0.0
 11
10842.97043893114
 21
2587.931598713261
 31
0.0
  0
LINE
  5
17E96
330
747D
100
AcDbEntity
  8
細線
 48
50.0
100
AcDbLine
 10
10982.97043893114
 20
4677.931598713261
 30
0.0
 11
10982.97043893114
 21
2587.931598713261
 31
0.0
  0
LINE
  5
17E97
330
747D
100
AcDbEntity
  8
細線
 48
50.0
100
AcDbLine
 10
10967.97043893114
 20
4677.931598713261
 30
0.0
 11
10967.97043893114
 21
2587.931598713261
 31
0.0
  0
LINE
  5
17E98
330
747D
100
AcDbEntity
  8
部品1
100
AcDbLine
 10
10625.47043893113
 20
4677.931598713261
 30
0.0
 11
10625.47043893113
 21
2587.931598713261
 31
0.0
  0
LINE
  5
17E99
330
747D
100
AcDbEntity
  8
細線
 48
50.0
100
AcDbLine
 10
9862.970438931135
 20
4677.931598713261
 30
0.0
 11
9862.970438931135
 21
2587.931598713261
 31
0.0
  0
LINE
  5
17E9A
330
747D
100
AcDbEntity
  8
細線
 48
50.0
100
AcDbLine
 10
9847.970438931135
 20
4677.931598713261
 30
0.0
 11
9847.970438931135
 21
2587.931598713261
 31
0.0
  0
LINE
  5
17E9B
330
747D
100
AcDbEntity
  8
細線
 48
50.0
100
AcDbLine
 10
9987.970438931135
 20
4677.931598713261
 30
0.0
 11
9987.970438931135
 21
2587.931598713261
 31
0.0
  0
LINE
  5
17E9C
330
747D
100
AcDbEntity
  8
細線
 48
50.0
100
AcDbLine
 10
10002.97043893113
 20
4677.931598713261
 30
0.0
 11
10002.97043893113
 21
2587.931598713261
 31
0.0
  0
LINE
  5
17E9D
330
747D
100
AcDbEntity
  8
細線
 48
50.0
100
AcDbLine
 10
10142.97043893113
 20
4677.931598713261
 30
0.0
 11
10142.97043893113
 21
2587.931598713261
 31
0.0
  0
LINE
  5
17E9E
330
747D
100
AcDbEntity
  8
細線
 48
50.0
100
AcDbLine
 10
10127.97043893113
 20
4677.931598713261
 30
0.0
 11
10127.97043893113
 21
2587.931598713261
 31
0.0
  0
LINE
  5
17E9F
330
747D
100
AcDbEntity
  8
細線
 48
50.0
100
AcDbLine
 10
10547.97043893113
 20
4677.931598713261
 30
0.0
 11
10547.97043893113
 21
2587.931598713261
 31
0.0
  0
LINE
  5
17EA0
330
747D
100
AcDbEntity
  8
細線
 48
50.0
100
AcDbLine
 10
10562.97043893113
 20
4677.931598713261
 30
0.0
 11
10562.97043893113
 21
2587.931598713261
 31
0.0
  0
LINE
  5
17EA1
330
747D
100
AcDbEntity
  8
細線
 48
50.0
100
AcDbLine
 10
10422.97043893113
 20
4677.931598713261
 30
0.0
 11
10422.97043893113
 21
2587.931598713261
 31
0.0
  0
LINE
  5
17EA2
330
747D
100
AcDbEntity
  8
細線
 48
50.0
100
AcDbLine
 10
10407.97043893113
 20
4677.931598713261
 30
0.0
 11
10407.97043893113
 21
2587.931598713261
 31
0.0
  0
LINE
  5
17EA3
330
747D
100
AcDbEntity
  8
細線
 48
50.0
100
AcDbLine
 10
10267.97043893113
 20
4677.931598713261
 30
0.0
 11
10267.97043893113
 21
2587.931598713261
 31
0.0
  0
LINE
  5
17EA4
330
747D
100
AcDbEntity
  8
細線
 48
50.0
100
AcDbLine
 10
10282.97043893113
 20
4677.931598713261
 30
0.0
 11
10282.97043893113
 21
2587.931598713261
 31
0.0
  0
LINE
  5
17EA5
330
747D
100
AcDbEntity
  8
部品1
100
AcDbLine
 10
10205.47043893113
 20
4677.931598713261
 30
0.0
 11
10205.47043893113
 21
2587.931598713261
 31
0.0
  0
LINE
  5
17EA6
330
747D
100
AcDbEntity
  8
細線
 48
50.0
100
AcDbLine
 10
9442.970438931133
 20
4677.931598713261
 30
0.0
 11
9442.970438931135
 21
2587.931598713261
 31
0.0
  0
LINE
  5
17EA7
330
747D
100
AcDbEntity
  8
細線
 48
50.0
100
AcDbLine
 10
9427.970438931133
 20
4677.931598713261
 30
0.0
 11
9427.970438931136
 21
2587.931598713261
 31
0.0
  0
LINE
  5
17EA8
330
747D
100
AcDbEntity
  8
細線
 48
50.0
100
AcDbLine
 10
9567.970438931133
 20
4677.931598713261
 30
0.0
 11
9567.970438931135
 21
2587.931598713261
 31
0.0
  0
LINE
  5
17EA9
330
747D
100
AcDbEntity
  8
細線
 48
50.0
100
AcDbLine
 10
9582.970438931134
 20
4677.931598713261
 30
0.0
 11
9582.970438931136
 21
2587.931598713261
 31
0.0
  0
LINE
  5
17EAA
330
747D
100
AcDbEntity
  8
細線
 48
50.0
100
AcDbLine
 10
9722.970438931135
 20
4677.931598713261
 30
0.0
 11
9722.970438931135
 21
2587.931598713261
 31
0.0
  0
LINE
  5
17EAB
330
747D
100
AcDbEntity
  8
細線
 48
50.0
100
AcDbLine
 10
9707.970438931134
 20
4677.931598713261
 30
0.0
 11
9707.970438931136
 21
2587.931598713261
 31
0.0
  0
LINE
  5
17EAC
330
747D
100
AcDbEntity
  8
部品1
100
AcDbLine
 10
9785.470438931135
 20
4677.931598713261
 30
0.0
 11
9785.470438931135
 21
2587.931598713261
 31
0.0
  0
MTEXT
  5
18029
330
747D
100
AcDbEntity
  8
寸法
 62
     7
 48
50.0
100
AcDbMText
 10
5422.388255196299
 20
8776.903693513069
 30
0.0
 40
96.0
 41
0.0
 71
     5
 72
     1
  1
棚 3段
  7
STYLE1
 73
     1
 44
1.0
1001
ACAD
1000
MTEXTBEGIN
1070
    73
1070
     1
1070
    44
1040
1.0
1070
    74
1070
     0
1000
MTEXTEND
  0
MTEXT
  5
18209
330
747D
100
AcDbEntity
  8
寸法
 62
     7
 48
50.0
100
AcDbMText
 10
6722.388255196299
 20
8776.903693513119
 30
0.0
 40
96.0
 41
0.0
 71
     5
 72
     1
  1
棚 3段
  7
STYLE1
 73
     1
 44
1.0
1001
ACAD
1000
MTEXTBEGIN
1070
    73
1070
     1
1070
    44
1040
1.0
1070
    74
1070
     0
1000
MTEXTEND
  0
DIMENSION
  5
18382
330
747D
100
AcDbEntity
  8
寸法
100
AcDbDimension
  2
*D29
 10
7254.149210862323
 20
8369.059754790766
 30
0.0
 11
6664.158372861959
 21
8369.059754790766
 31
0.0
 70
   160
 71
     5
 42
1273.000000000012
  3
INABA_S40G
100
AcDbAlignedDimension
 13
6073.173057123663
 23
8712.497424546043
 33
0.0
 14
7346.173057123675
 24
8712.497424546036
 34
0.0
100
AcDbRotatedDimension
1001
ACAD
1000
DSTYLE
1002
{
1002
}
  0
DIMENSION
  5
183A7
330
747D
100
AcDbEntity
  8
寸法
100
AcDbDimension
  2
*D30
 10
5954.149210862352
 20
8369.059754790766
 30
0.0
 11
5317.649210862346
 21
8469.071565814388
 31
0.0
 70
    32
 71
     5
 42
1273.000000000012
  3
INABA_S40G
100
AcDbAlignedDimension
 13
4773.173057123663
 23
8712.497424545938
 33
0.0
 14
6046.173057123676
 24
8712.497424545931
 34
0.0
100
AcDbRotatedDimension
1001
ACAD
1000
DSTYLE
1002
{
1002
}
  0
LINE
  5
18570
330
747D
100
AcDbEntity
  8
補助
  6
PHANTOM
 62
   230
 48
50.0
100
AcDbLine
 10
140.0
 20
0.0
 30
0.0
 11
140.0
 21
11409.6
 31
0.0
  0
TEXT
  5
1858D
330
747D
100
AcDbEntity
  8
文字
 62
     7
 48
50.0
100
AcDbText
 10
14544.7600863402
 20
483.8967129911414
 30
0.0
 40
160.0
  1
FXN-60HY
  7
STYLE2
100
AcDbText
  0
DIMENSION
  5
186CB
330
747D
100
AcDbEntity
  8
寸法
 48
50.0
100
AcDbDimension
  2
*D31
 10
7662.216159445403
 20
4485.93159871326
 30
0.0
 11
7562.216159445402
 21
3542.931598713263
 31
0.0
 70
    32
  1
有効開口部高サ <>
 71
     5
 42
1885.999999999999
  3
INABA_S40G
100
AcDbAlignedDimension
 13
7374.673057123657
 23
2599.931598713262
 33
0.0
 14
7374.673057123658
 24
4485.93159871326
 34
0.0
 50
90.0
100
AcDbRotatedDimension
  0
DIMENSION
  5
186CC
330
747D
100
AcDbEntity
  8
寸法
 48
50.0
100
AcDbDimension
  2
*D32
 10
7662.216159445403
 20
4512.931598713263
 30
0.0
 11
7802.385982691768
 21
4513.89879855292
 31
0.0
 70
   160
 71
     5
 42
27.00000000000273
  3
INABA_S40G
100
AcDbAlignedDimension
 13
7374.673057123658
 23
4485.93159871326
 33
0.0
 14
7374.67305712366
 24
4512.931598713263
 34
0.0
 50
90.0
100
AcDbRotatedDimension
1001
ACAD
1000
DSTYLE
1002
{
1070
   279
1070
     2
1002
}
  0
DIMENSION
  5
186CD
330
747D
100
AcDbEntity
  8
寸法
 48
50.0
100
AcDbDimension
  2
*D33
 10
7662.216159445404
 20
4677.931598713261
 30
0.0
 11
7662.216159445403
 21
4916.416880087502
 31
0.0
 70
   160
 71
     5
 42
164.9999999999982
  3
INABA_S40G
100
AcDbAlignedDimension
 13
7374.67305712366
 23
4512.931598713263
 33
0.0
 14
7374.673057123657
 24
4677.931598713261
 34
0.0
 50
90.0
100
AcDbRotatedDimension
1001
ACAD
1000
DSTYLE
1002
{
1002
}
  0
ARC
  5
18935
330
747D
100
AcDbEntity
  8
部品1
 48
0.01
100
AcDbCircle
 10
5532.673057123659
 20
4741.93159871326
 30
0.0
 40
2.0
100
AcDbArc
 50
0.0
 51
90.0
  0
ARC
  5
18936
330
747D
100
AcDbEntity
  8
部品1
 48
0.01
100
AcDbCircle
 10
5356.673057123658
 20
4741.93159871326
 30
0.0
 40
2.0
100
AcDbArc
 50
90.0
 51
180.0
  0
LINE
  5
18937
330
747D
100
AcDbEntity
  8
細線
100
AcDbLine
 10
5444.673057123655
 20
4714.431598713259
 30
0.0
 11
5518.673057123659
 21
4714.431598713259
 31
0.0
  0
LINE
  5
18938
330
747D
100
AcDbEntity
  8
細線
100
AcDbLine
 10
5444.673057123658
 20
4737.43159871326
 30
0.0
 11
5370.673057123658
 21
4737.43159871326
 31
0.0
  0
LINE
  5
18939
330
747D
100
AcDbEntity
  8
細線
100
AcDbLine
 10
5370.673057123658
 20
4714.431598713259
 30
0.0
 11
5444.673057123658
 21
4714.431598713259
 31
0.0
  0
LINE
  5
1893A
330
747D
100
AcDbEntity
  8
細線
100
AcDbLine
 10
5518.673057123659
 20
4737.43159871326
 30
0.0
 11
5444.673057123658
 21
4737.43159871326
 31
0.0
  0
LINE
  5
1893B
330
747D
100
AcDbEntity
  8
細線
100
AcDbLine
 10
5518.673057123659
 20
4714.431598713259
 30
0.0
 11
5518.673057123659
 21
4737.43159871326
 31
0.0
  0
LINE
  5
1893C
330
747D
100
AcDbEntity
  8
細線
100
AcDbLine
 10
5370.673057123658
 20
4737.43159871326
 30
0.0
 11
5370.673057123658
 21
4714.431598713259
 31
0.0
  0
LINE
  5
1893D
330
747D
100
AcDbEntity
  8
部品1
 48
0.01
100
AcDbLine
 10
5534.673057123654
 20
4710.431598713259
 30
0.0
 11
5534.673057123658
 21
4741.93159871326
 31
0.0
  0
LINE
  5
1893E
330
747D
100
AcDbEntity
  8
部品1
 48
0.01
100
AcDbLine
 10
5354.673057123658
 20
4741.93159871326
 30
0.0
 11
5354.673057123658
 21
4710.431598713259
 31
0.0
  0
LINE
  5
1893F
330
747D
100
AcDbEntity
  8
部品1
 48
0.01
100
AcDbLine
 10
5532.673057123659
 20
4743.931598713259
 30
0.0
 11
5356.673057123658
 21
4743.931598713259
 31
0.0
  0
LINE
  5
18940
330
747D
100
AcDbEntity
  8
細線
100
AcDbLine
 10
5370.673057123658
 20
4731.43159871326
 30
0.0
 11
5444.673057123658
 21
4731.43159871326
 31
0.0
  0
LINE
  5
18941
330
747D
100
AcDbEntity
  8
細線
100
AcDbLine
 10
5370.673057123658
 20
4725.431598713259
 30
0.0
 11
5444.673057123658
 21
4725.431598713259
 31
0.0
  0
LINE
  5
18942
330
747D
100
AcDbEntity
  8
細線
100
AcDbLine
 10
5370.673057123655
 20
4719.431598713259
 30
0.0
 11
5444.673057123658
 21
4719.431598713259
 31
0.0
  0
LINE
  5
18943
330
747D
100
AcDbEntity
  8
細線
100
AcDbLine
 10
5370.673057123658
 20
4731.43159871326
 30
0.0
 11
5439.673057123659
 21
4731.43159871326
 31
0.0
  0
LINE
  5
18944
330
747D
100
AcDbEntity
  8
細線
100
AcDbLine
 10
5518.673057123655
 20
4731.43159871326
 30
0.0
 11
5444.673057123658
 21
4731.43159871326
 31
0.0
  0
LINE
  5
18945
330
747D
100
AcDbEntity
  8
細線
100
AcDbLine
 10
5518.673057123655
 20
4719.431598713259
 30
0.0
 11
5444.673057123658
 21
4719.431598713259
 31
0.0
  0
LINE
  5
18946
330
747D
100
AcDbEntity
  8
細線
100
AcDbLine
 10
5518.673057123655
 20
4725.431598713259
 30
0.0
 11
5444.673057123658
 21
4725.431598713259
 31
0.0
  0
LINE
  5
18947
330
747D
100
AcDbEntity
  8
細線
100
AcDbLine
 10
5444.673057123658
 20
4737.43159871326
 30
0.0
 11
5444.673057123655
 21
4714.431598713259
 31
0.0
  0
LINE
  5
18948
330
747D
100
AcDbEntity
  8
細線
100
AcDbLine
 10
6674.673057123658
 20
4737.43159871326
 30
0.0
 11
6674.673057123658
 21
4714.431598713259
 31
0.0
  0
LINE
  5
18949
330
747D
100
AcDbEntity
  8
細線
100
AcDbLine
 10
6600.673057123659
 20
4725.431598713259
 30
0.0
 11
6674.673057123658
 21
4725.431598713259
 31
0.0
  0
LINE
  5
1894A
330
747D
100
AcDbEntity
  8
細線
100
AcDbLine
 10
6600.673057123659
 20
4719.431598713259
 30
0.0
 11
6674.673057123658
 21
4719.431598713259
 31
0.0
  0
LINE
  5
1894B
330
747D
100
AcDbEntity
  8
細線
100
AcDbLine
 10
6600.673057123659
 20
4731.43159871326
 30
0.0
 11
6674.673057123658
 21
4731.43159871326
 31
0.0
  0
LINE
  5
1894C
330
747D
100
AcDbEntity
  8
細線
100
AcDbLine
 10
6748.673057123659
 20
4731.43159871326
 30
0.0
 11
6679.673057123657
 21
4731.43159871326
 31
0.0
  0
LINE
  5
1894D
330
747D
100
AcDbEntity
  8
細線
100
AcDbLine
 10
6748.673057123659
 20
4719.431598713259
 30
0.0
 11
6674.673057123658
 21
4719.431598713259
 31
0.0
  0
LINE
  5
1894E
330
747D
100
AcDbEntity
  8
細線
100
AcDbLine
 10
6748.673057123659
 20
4725.431598713259
 30
0.0
 11
6674.673057123658
 21
4725.431598713259
 31
0.0
  0
LINE
  5
1894F
330
747D
100
AcDbEntity
  8
細線
100
AcDbLine
 10
6748.673057123659
 20
4731.43159871326
 30
0.0
 11
6674.673057123658
 21
4731.43159871326
 31
0.0
  0
LINE
  5
18950
330
747D
100
AcDbEntity
  8
部品1
 48
0.01
100
AcDbLine
 10
6586.673057123658
 20
4743.931598713259
 30
0.0
 11
6762.673057123659
 21
4743.931598713259
 31
0.0
  0
LINE
  5
18951
330
747D
100
AcDbEntity
  8
部品1
 48
0.01
100
AcDbLine
 10
6764.673057123658
 20
4741.93159871326
 30
0.0
 11
6764.673057123658
 21
4710.431598713259
 31
0.0
  0
LINE
  5
18952
330
747D
100
AcDbEntity
  8
部品1
 48
0.01
100
AcDbLine
 10
6584.673057123659
 20
4710.431598713259
 30
0.0
 11
6584.673057123659
 21
4741.93159871326
 31
0.0
  0
LINE
  5
18953
330
747D
100
AcDbEntity
  8
細線
100
AcDbLine
 10
6748.673057123659
 20
4737.43159871326
 30
0.0
 11
6748.673057123659
 21
4714.431598713259
 31
0.0
  0
LINE
  5
18954
330
747D
100
AcDbEntity
  8
細線
100
AcDbLine
 10
6600.673057123659
 20
4714.431598713259
 30
0.0
 11
6600.673057123659
 21
4737.43159871326
 31
0.0
  0
LINE
  5
18955
330
747D
100
AcDbEntity
  8
細線
100
AcDbLine
 10
6600.673057123659
 20
4737.43159871326
 30
0.0
 11
6674.673057123658
 21
4737.43159871326
 31
0.0
  0
LINE
  5
18956
330
747D
100
AcDbEntity
  8
細線
100
AcDbLine
 10
6748.673057123659
 20
4714.431598713259
 30
0.0
 11
6674.673057123658
 21
4714.431598713259
 31
0.0
  0
LINE
  5
18957
330
747D
100
AcDbEntity
  8
細線
100
AcDbLine
 10
6674.673057123658
 20
4737.43159871326
 30
0.0
 11
6748.673057123659
 21
4737.43159871326
 31
0.0
  0
LINE
  5
18958
330
747D
100
AcDbEntity
  8
細線
100
AcDbLine
 10
6674.673057123658
 20
4714.431598713259
 30
0.0
 11
6600.673057123659
 21
4714.431598713259
 31
0.0
  0
ARC
  5
18959
330
747D
100
AcDbEntity
  8
部品1
 48
0.01
100
AcDbCircle
 10
6762.673057123659
 20
4741.93159871326
 30
0.0
 40
2.0
100
AcDbArc
 50
0.0
 51
90.0
  0
ARC
  5
1895A
330
747D
100
AcDbEntity
  8
部品1
 48
0.01
100
AcDbCircle
 10
6586.673057123658
 20
4741.93159871326
 30
0.0
 40
2.0
100
AcDbArc
 50
90.0
 51
180.0
  0
ARC
  5
1895B
330
747D
100
AcDbEntity
  8
部品1
 48
0.01
100
AcDbCircle
 10
5532.673057123655
 20
4710.431598713259
 30
0.0
 40
2.0
100
AcDbArc
 50
270.0
 51
0.0
  0
ARC
  5
1895C
330
747D
100
AcDbEntity
  8
部品1
 48
0.01
100
AcDbCircle
 10
5356.673057123658
 20
4710.431598713259
 30
0.0
 40
2.0
100
AcDbArc
 50
180.0
 51
270.0
  0
LINE
  5
1895D
330
747D
100
AcDbEntity
  8
部品1
 48
0.01
100
AcDbLine
 10
5356.673057123658
 20
4708.43159871326
 30
0.0
 11
5532.673057123655
 21
4708.43159871326
 31
0.0
  0
LINE
  5
1895E
330
747D
100
AcDbEntity
  8
部品1
 48
0.01
100
AcDbLine
 10
6762.673057123659
 20
4708.43159871326
 30
0.0
 11
6586.673057123658
 21
4708.43159871326
 31
0.0
  0
ARC
  5
1895F
330
747D
100
AcDbEntity
  8
部品1
 48
0.01
100
AcDbCircle
 10
6762.673057123659
 20
4710.431598713259
 30
0.0
 40
2.0
100
AcDbArc
 50
270.0
 51
0.0
  0
ARC
  5
18960
330
747D
100
AcDbEntity
  8
部品1
 48
0.01
100
AcDbCircle
 10
6586.673057123658
 20
4710.431598713259
 30
0.0
 40
2.0
100
AcDbArc
 50
180.0
 51
270.0
  0
TEXT
  5
18AA2
330
747D
100
AcDbEntity
  8
文字
 62
     7
 48
50.0
100
AcDbText
 10
14646.46056207479
 20
871.9640646083623
 30
0.0
 40
100.0
  1
～一般型・多雪地型～
  7
STYLE2
100
AcDbText
  0
TEXT
  5
18ABF
330
747D
100
AcDbEntity
  8
文字
 62
     7
 48
50.0
100
AcDbText
 10
15022.63965474516
 20
9230.013745883725
 30
0.0
 40
100.0
  1
F12            0.7
  7
STYLE1
100
AcDbText
  0
ENDSEC
  0
SECTION
  2
OBJECTS
  0
DICTIONARY
  5
7471
330
0
100
AcDbDictionary
281
     1
  3
ACAD_COLOR
350
166A4
  3
ACAD_GROUP
350
7472
  3
ACAD_LAYOUT
350
166A5
  3
ACAD_MATERIAL
350
166A3
  3
ACAD_MLINESTYLE
350
7473
  3
ACAD_PLOTSETTINGS
350
166A6
  3
ACAD_PLOTSTYLENAME
350
166A1
  3
ACDBHEADERROUNDTRIPXREC
350
18B1C
  3
AcDbVariableDictionary
350
18B18
  3
CONTENTDICTIONARY
350
E71C
  3
DRAWINGVARIABLESDICT
350
F3B9
  0
DICTIONARY
  5
16916
330
7467
100
AcDbDictionary
280
     1
281
     1
  3
ACAD_LAYERSTATES
360
16917
  0
DICTIONARY
  5
166A4
102
{ACAD_REACTORS
330
7471
102
}
330
7471
100
AcDbDictionary
281
     1
  0
DICTIONARY
  5
7472
102
{ACAD_REACTORS
330
7471
102
}
330
7471
100
AcDbDictionary
281
     1
  0
DICTIONARY
  5
166A5
102
{ACAD_REACTORS
330
7471
102
}
330
7471
100
AcDbDictionary
281
     1
  3
Model
350
166A7
  3
レイアウト1
350
166A8
  0
DICTIONARY
  5
166A3
102
{ACAD_REACTORS
330
7471
102
}
330
7471
100
AcDbDictionary
281
     1
  0
DICTIONARY
  5
7473
102
{ACAD_REACTORS
330
7471
102
}
330
7471
100
AcDbDictionary
281
     1
  3
STANDARD
350
7480
  0
DICTIONARY
  5
166A6
102
{ACAD_REACTORS
330
7471
102
}
330
7471
100
AcDbDictionary
281
     1
  0
ACDBDICTIONARYWDFLT
  5
166A1
102
{ACAD_REACTORS
330
7471
102
}
330
7471
100
AcDbDictionary
281
     1
  3
Normal
350
166A2
100
AcDbDictionaryWithDefault
340
166A2
  0
DICTIONARY
  5
18B1C
102
{ACAD_REACTORS
330
7471
102
}
330
7471
100
AcDbDictionary
281
     1
  3
COLORDICT
350
18B1E
  3
MATERIALDICT
350
18B1D
  0
DICTIONARY
  5
18B18
102
{ACAD_REACTORS
330
7471
102
}
330
7471
100
AcDbDictionary
281
     1
  3
DIMASSOC
350
18B19
  3
PROJECTNAME
350
18B1A
  0
DICTIONARY
  5
E71C
102
{ACAD_REACTORS
330
7471
102
}
330
7471
100
AcDbDictionary
281
     1
  0
DICTIONARY
  5
F3B9
102
{ACAD_REACTORS
330
7471
102
}
330
7471
100
AcDbDictionary
281
     1
1001
DRAWINGVARIABLESXDATA
1000
POLARMODE
1000
1
  0
DICTIONARY
  5
16917
102
{ACAD_REACTORS
330
16916
102
}
330
16916
100
AcDbDictionary
281
     1
  0
LAYOUT
  5
166A7
102
{ACAD_XDICTIONARY
360
18B1F
102
}
102
{ACAD_REACTORS
330
166A5
102
}
330
166A5
100
AcDbPlotSettings
  1

  2
none_device
  4
Letter_(8.50_x_11.00_Inches)
  6

 40
6.349999904632568
 41
6.349999904632568
 42
6.350006103515625
 43
6.350006103515625
 44
215.8999938964844
 45
279.3999938964844
 46
0.0
 47
0.0
 48
0.0
 49
0.0
140
0.0
141
0.0
142
1.0
143
1.0
 70
 11952
 72
     1
 73
     1
 74
     0
  7
inaba.ctb
 75
     0
147
1.0
148
-2464.604124655163
149
54.54876986287036
100
AcDbLayout
  1
Model
 70
     1
 71
     0
 10
0.0
 20
0.0
 11
12.0
 21
9.0
 12
0.0
 22
0.0
 32
0.0
 14
0.0
 24
0.0
 34
0.0
 15
0.0
 25
0.0
 35
0.0
146
0.0
 13
0.0
 23
0.0
 33
0.0
 16
1.0
 26
0.0
 36
0.0
 17
0.0
 27
1.0
 37
0.0
 76
     0
330
747D
  0
LAYOUT
  5
166A8
102
{ACAD_XDICTIONARY
360
18B21
102
}
102
{ACAD_REACTORS
330
166A5
102
}
330
166A5
100
AcDbPlotSettings
  1

  2
EPSON LP-8300
  4

  6

 40
0.0
 41
0.0
 42
0.0
 43
0.0
 44
0.0
 45
0.0
 46
0.0
 47
0.0
 48
0.0
 49
0.0
140
0.0
141
0.0
142
1.0
143
1.0
 70
   688
 72
     0
 73
     0
 74
     5
  7
inaba.ctb
 75
    16
147
1.0
148
0.0
149
0.0
100
AcDbLayout
  1
レイアウト1
 70
     0
 71
     1
 10
0.0
 20
0.0
 11
420.0
 21
297.0
 12
0.0
 22
0.0
 32
0.0
 14
1.000000000000000E+20
 24
1.000000000000000E+20
 34
1.000000000000000E+20
 15
-1.000000000000000E+20
 25
-1.000000000000000E+20
 35
-1.000000000000000E+20
146
0.0
 13
0.0
 23
0.0
 33
0.0
 16
1.0
 26
0.0
 36
0.0
 17
0.0
 27
1.0
 37
0.0
 76
     0
330
747A
  0
MLINESTYLE
  5
7480
102
{ACAD_REACTORS
330
7473
102
}
330
7473
100
AcDbMlineStyle
  2
STANDARD
 70
     0
  3

 62
     0
 51
90.0
 52
90.0
 71
     2
 49
0.5
 62
   256
  6
BYLAYER
 49
-0.5
 62
   256
  6
BYLAYER
  0
ACDBPLACEHOLDER
  5
166A2
102
{ACAD_REACTORS
330
166A1
102
}
330
166A1
  0
XRECORD
  5
18B1E
102
{ACAD_REACTORS
330
18B1C
102
}
330
18B1C
100
AcDbXrecord
280
     1
340
166A4
  0
XRECORD
  5
18B1D
102
{ACAD_REACTORS
330
18B1C
102
}
330
18B1C
100
AcDbXrecord
280
     1
340
166A3
  0
DICTIONARYVAR
  5
18B19
102
{ACAD_REACTORS
330
18B18
102
}
330
18B18
100
DictionaryVariables
280
     0
  1
1
  0
DICTIONARYVAR
  5
18B1A
102
{ACAD_REACTORS
330
18B18
102
}
330
18B18
100
DictionaryVariables
280
     0
  1

  0
DICTIONARY
  5
18B1F
330
166A7
100
AcDbDictionary
280
     1
281
     1
  3
ACAD_XREC_ROUNDTRIP
360
18B20
  0
DICTIONARY
  5
18B21
330
166A8
100
AcDbDictionary
280
     1
281
     1
  3
ACAD_XREC_ROUNDTRIP
360
18B22
  0
XRECORD
  5
18B20
102
{ACAD_REACTORS
330
18B1F
102
}
330
18B1F
100
AcDbXrecord
280
     1
102
SHADEPLOT
 70
     0
102
SHADEPLOTRESLEVEL
 70
     2
102
SHADEPLOTCUSTOMDPI
 70
   300
  0
XRECORD
  5
18B22
102
{ACAD_REACTORS
330
18B21
102
}
330
18B21
100
AcDbXrecord
280
     1
102
SHADEPLOT
 70
     0
102
SHADEPLOTRESLEVEL
 70
     2
102
SHADEPLOTCUSTOMDPI
 70
   300
  0
ENDSEC
  0
EOF
