  0
SECTION
  2
HEADER
  9
$ACADVER
  1
AC1015
  9
$ACADMAINTVER
 70
    20
  9
$DWGCODEPAGE
  3
ANSI_932
  9
$INSBASE
 10
0.0
 20
0.0
 30
0.0
  9
$EXTMIN
 10
139.9999999999995
 20
-0.0000000000000909
 30
0.0
  9
$EXTMAX
 10
16307.2
 20
11409.6
 30
0.0
  9
$LIMMIN
 10
-183.0179068595971
 20
-160.3342785227505
  9
$LIMMAX
 10
16374.07536659319
 20
11592.19044584975
  9
$ORTHOMODE
 70
     0
  9
$REGENMODE
 70
     1
  9
$FILLMODE
 70
     1
  9
$QTEXTMODE
 70
     0
  9
$MIRRTEXT
 70
     1
  9
$LTSCALE
 40
20.0
  9
$ATTMODE
 70
     1
  9
$TEXTSIZE
 40
100.0
  9
$TRACEWID
 40
1.0
  9
$TEXTSTYLE
  7
STYLE2
  9
$CLAYER
  8
部品1
  9
$CELTYPE
  6
BYLAYER
  9
$CECOLOR
 62
   256
  9
$CELTSCALE
 40
50.0
  9
$DISPSILH
 70
     0
  9
$DIMSCALE
 40
40.0
  9
$DIMASZ
 40
2.5
  9
$DIMEXO
 40
0.5
  9
$DIMDLI
 40
7.0
  9
$DIMRND
 40
0.0
  9
$DIMDLE
 40
0.0
  9
$DIMEXE
 40
1.5
  9
$DIMTP
 40
0.0
  9
$DIMTM
 40
0.0
  9
$DIMTXT
 40
3.0
  9
$DIMCEN
 40
0.0
  9
$DIMTSZ
 40
0.0
  9
$DIMTOL
 70
     0
  9
$DIMLIM
 70
     0
  9
$DIMTIH
 70
     0
  9
$DIMTOH
 70
     0
  9
$DIMSE1
 70
     0
  9
$DIMSE2
 70
     0
  9
$DIMTAD
 70
     3
  9
$DIMZIN
 70
     8
  9
$DIMBLK
  1

  9
$DIMASO
 70
     1
  9
$DIMSHO
 70
     1
  9
$DIMPOST
  1

  9
$DIMAPOST
  1

  9
$DIMALT
 70
     0
  9
$DIMALTD
 70
     2
  9
$DIMALTF
 40
0.0394
  9
$DIMLFAC
 40
1.0
  9
$DIMTOFL
 70
     1
  9
$DIMTVP
 40
0.0
  9
$DIMTIX
 70
     1
  9
$DIMSOXD
 70
     0
  9
$DIMSAH
 70
     1
  9
$DIMBLK1
  1
DOTSMALL
  9
$DIMBLK2
  1
DOTSMALL
  9
$DIMSTYLE
  2
INABA_S40G
  9
$DIMCLRD
 70
     0
  9
$DIMCLRE
 70
     0
  9
$DIMCLRT
 70
     7
  9
$DIMTFAC
 40
1.0
  9
$DIMGAP
 40
1.0
  9
$DIMJUST
 70
     0
  9
$DIMSD1
 70
     0
  9
$DIMSD2
 70
     0
  9
$DIMTOLJ
 70
     1
  9
$DIMTZIN
 70
     0
  9
$DIMALTZ
 70
     0
  9
$DIMALTTZ
 70
     0
  9
$DIMUPT
 70
     0
  9
$DIMDEC
 70
     1
  9
$DIMTDEC
 70
     4
  9
$DIMALTU
 70
     2
  9
$DIMALTTD
 70
     2
  9
$DIMTXSTY
  7
STYLE1
  9
$DIMAUNIT
 70
     0
  9
$DIMADEC
 70
     0
  9
$DIMALTRND
 40
0.0
  9
$DIMAZIN
 70
     0
  9
$DIMDSEP
 70
    46
  9
$DIMATFIT
 70
     3
  9
$DIMFRAC
 70
     0
  9
$DIMLDRBLK
  1

  9
$DIMLUNIT
 70
     2
  9
$DIMLWD
 70
    -2
  9
$DIMLWE
 70
    -2
  9
$DIMTMOVE
 70
     2
  9
$LUNITS
 70
     2
  9
$LUPREC
 70
     1
  9
$SKETCHINC
 40
1.0
  9
$FILLETRAD
 40
3.0
  9
$AUNITS
 70
     0
  9
$AUPREC
 70
     0
  9
$MENU
  1
acad
  9
$ELEVATION
 40
0.0
  9
$PELEVATION
 40
0.0
  9
$THICKNESS
 40
0.0
  9
$LIMCHECK
 70
     0
  9
$CHAMFERA
 40
0.0
  9
$CHAMFERB
 40
0.0
  9
$CHAMFERC
 40
0.0
  9
$CHAMFERD
 40
0.0
  9
$SKPOLY
 70
     0
  9
$TDCREATE
 40
2451368.612993866
  9
$TDUCREATE
 40
2451368.237993866
  9
$TDUPDATE
 40
2455569.631311841
  9
$TDUUPDATE
 40
2455569.256311840
  9
$TDINDWG
 40
0.8119572685
  9
$TDUSRTIMER
 40
0.8119572685
  9
$USRTIMER
 70
     1
  9
$ANGBASE
 50
0.0
  9
$ANGDIR
 70
     0
  9
$PDMODE
 70
     3
  9
$PDSIZE
 40
2.0
  9
$PLINEWID
 40
0.0
  9
$SPLFRAME
 70
     0
  9
$SPLINETYPE
 70
     6
  9
$SPLINESEGS
 70
     8
  9
$HANDSEED
  5
1A01A
  9
$SURFTAB1
 70
     6
  9
$SURFTAB2
 70
     6
  9
$SURFTYPE
 70
     6
  9
$SURFU
 70
     6
  9
$SURFV
 70
     6
  9
$UCSBASE
  2

  9
$UCSNAME
  2

  9
$UCSORG
 10
0.0
 20
0.0
 30
0.0
  9
$UCSXDIR
 10
1.0
 20
0.0
 30
0.0
  9
$UCSYDIR
 10
0.0
 20
1.0
 30
0.0
  9
$UCSORTHOREF
  2

  9
$UCSORTHOVIEW
 70
     0
  9
$UCSORGTOP
 10
0.0
 20
0.0
 30
0.0
  9
$UCSORGBOTTOM
 10
0.0
 20
0.0
 30
0.0
  9
$UCSORGLEFT
 10
0.0
 20
0.0
 30
0.0
  9
$UCSORGRIGHT
 10
0.0
 20
0.0
 30
0.0
  9
$UCSORGFRONT
 10
0.0
 20
0.0
 30
0.0
  9
$UCSORGBACK
 10
0.0
 20
0.0
 30
0.0
  9
$PUCSBASE
  2

  9
$PUCSNAME
  2

  9
$PUCSORG
 10
0.0
 20
0.0
 30
0.0
  9
$PUCSXDIR
 10
1.0
 20
0.0
 30
0.0
  9
$PUCSYDIR
 10
0.0
 20
1.0
 30
0.0
  9
$PUCSORTHOREF
  2

  9
$PUCSORTHOVIEW
 70
     0
  9
$PUCSORGTOP
 10
0.0
 20
0.0
 30
0.0
  9
$PUCSORGBOTTOM
 10
0.0
 20
0.0
 30
0.0
  9
$PUCSORGLEFT
 10
0.0
 20
0.0
 30
0.0
  9
$PUCSORGRIGHT
 10
0.0
 20
0.0
 30
0.0
  9
$PUCSORGFRONT
 10
0.0
 20
0.0
 30
0.0
  9
$PUCSORGBACK
 10
0.0
 20
0.0
 30
0.0
  9
$USERI1
 70
     0
  9
$USERI2
 70
     0
  9
$USERI3
 70
     0
  9
$USERI4
 70
     0
  9
$USERI5
 70
     0
  9
$USERR1
 40
0.0
  9
$USERR2
 40
0.0
  9
$USERR3
 40
0.0
  9
$USERR4
 40
0.0
  9
$USERR5
 40
0.0
  9
$WORLDVIEW
 70
     1
  9
$SHADEDGE
 70
     3
  9
$SHADEDIF
 70
    70
  9
$TILEMODE
 70
     1
  9
$MAXACTVP
 70
    16
  9
$PINSBASE
 10
0.0
 20
0.0
 30
0.0
  9
$PLIMCHECK
 70
     0
  9
$PEXTMIN
 10
1.000000000000000E+20
 20
1.000000000000000E+20
 30
1.000000000000000E+20
  9
$PEXTMAX
 10
-1.000000000000000E+20
 20
-1.000000000000000E+20
 30
-1.000000000000000E+20
  9
$PLIMMIN
 10
0.0
 20
0.0
  9
$PLIMMAX
 10
420.0
 20
297.0
  9
$UNITMODE
 70
     0
  9
$VISRETAIN
 70
     0
  9
$PLINEGEN
 70
     0
  9
$PSLTSCALE
 70
     0
  9
$TREEDEPTH
 70
  3020
  9
$CMLSTYLE
  2
STANDARD
  9
$CMLJUST
 70
     0
  9
$CMLSCALE
 40
1.0
  9
$PROXYGRAPHICS
 70
     1
  9
$MEASUREMENT
 70
     1
  9
$CELWEIGHT
370
    -1
  9
$ENDCAPS
280
     0
  9
$JOINSTYLE
280
     0
  9
$LWDISPLAY
290
     0
  9
$INSUNITS
 70
     0
  9
$HYPERLINKBASE
  1

  9
$STYLESHEET
  1
inaba.ctb
  9
$XEDIT
290
     1
  9
$CEPSNTYPE
380
     0
  9
$PSTYLEMODE
290
     1
  9
$FINGERPRINTGUID
  2
{B2538360-1ED0-4990-9856-180270014B1F}
  9
$VERSIONGUID
  2
{BA928166-36CD-4159-86FA-7BF6D83B44C7}
  9
$EXTNAMES
290
     1
  9
$PSVPSCALE
 40
0.0
  9
$OLESTARTUP
290
     0
  0
ENDSEC
  0
SECTION
  2
CLASSES
  0
CLASS
  1
ACDBDICTIONARYWDFLT
  2
AcDbDictionaryWithDefault
  3
ObjectDBX Classes
 90
        0
280
     0
281
     0
  0
CLASS
  1
DICTIONARYVAR
  2
AcDbDictionaryVar
  3
ObjectDBX Classes
 90
        0
280
     0
281
     0
  0
CLASS
  1
ACDBPLACEHOLDER
  2
AcDbPlaceHolder
  3
ObjectDBX Classes
 90
        0
280
     0
281
     0
  0
CLASS
  1
LAYOUT
  2
AcDbLayout
  3
ObjectDBX Classes
 90
        0
280
     0
281
     0
  0
ENDSEC
  0
SECTION
  2
TABLES
  0
TABLE
  2
VPORT
  5
746D
330
0
100
AcDbSymbolTable
 70
     2
  0
VPORT
  5
1A012
330
746D
100
AcDbSymbolTableRecord
100
AcDbViewportTableRecord
  2
*Active
 70
     0
 10
0.0
 20
0.0
 11
1.0
 21
1.0
 12
8807.27167774796
 22
5704.702584019848
 13
0.0
 23
0.0
 14
10.0
 24
10.0
 15
10.0
 25
10.0
 16
0.0
 26
0.0
 36
1.0
 17
0.0
 27
0.0
 37
0.0
 40
11494.9094206799
 41
1.627450980392156
 42
50.0
 43
0.0
 44
0.0
 50
0.0
 51
0.0
 71
     0
 72
     0
 73
     1
 74
     0
 75
     0
 76
     0
 77
     0
 78
     0
281
     0
 65
     1
110
0.0
120
0.0
130
0.0
111
1.0
121
0.0
131
0.0
112
0.0
122
1.0
132
0.0
 79
     0
146
0.0
  0
ENDTAB
  0
TABLE
  2
LTYPE
  5
746A
330
0
100
AcDbSymbolTable
 70
     3
  0
LTYPE
  5
7477
330
746A
100
AcDbSymbolTableRecord
100
AcDbLinetypeTableRecord
  2
BYBLOCK
 70
     0
  3

 72
    65
 73
     0
 40
0.0
  0
LTYPE
  5
7478
330
746A
100
AcDbSymbolTableRecord
100
AcDbLinetypeTableRecord
  2
BYLAYER
 70
     0
  3

 72
    65
 73
     0
 40
0.0
  0
LTYPE
  5
7479
330
746A
100
AcDbSymbolTableRecord
100
AcDbLinetypeTableRecord
  2
CONTINUOUS
 70
     0
  3
Solid line
 72
    65
 73
     0
 40
0.0
  0
LTYPE
  5
781A
330
746A
100
AcDbSymbolTableRecord
100
AcDbLinetypeTableRecord
  2
HIDDEN
 70
     0
  3
__ __ __ __ __ __ __ __ __ __ __ __ __ __ __ __
 72
    65
 73
     2
 40
0.375
 49
0.25
 74
     0
 49
-0.125
 74
     0
  0
LTYPE
  5
781B
330
746A
100
AcDbSymbolTableRecord
100
AcDbLinetypeTableRecord
  2
PHANTOM
 70
     0
  3
______  __  __  ______  __  __  ______  __  __ 
 72
    65
 73
     6
 40
2.5
 49
1.25
 74
     0
 49
-0.25
 74
     0
 49
0.25
 74
     0
 49
-0.25
 74
     0
 49
0.25
 74
     0
 49
-0.25
 74
     0
  0
ENDTAB
  0
TABLE
  2
LAYER
  5
7467
102
{ACAD_XDICTIONARY
360
1730F
102
}
330
0
100
AcDbSymbolTable
 70
    10
  0
LAYER
  5
7474
330
7467
100
AcDbSymbolTableRecord
100
AcDbLayerTableRecord
  2
0
 70
     0
 62
     7
  6
CONTINUOUS
370
    -3
390
16E77
  0
LAYER
  5
DEB3
330
7467
100
AcDbSymbolTableRecord
100
AcDbLayerTableRecord
  2
寸法
 70
     0
 62
     4
  6
CONTINUOUS
370
    -3
390
16E77
  0
LAYER
  5
DEB4
330
7467
100
AcDbSymbolTableRecord
100
AcDbLayerTableRecord
  2
部品1
 70
     0
 62
     7
  6
CONTINUOUS
370
    -3
390
16E77
  0
LAYER
  5
DEB5
330
7467
100
AcDbSymbolTableRecord
100
AcDbLayerTableRecord
  2
補助
 70
     0
 62
    -1
  6
CONTINUOUS
370
    -3
390
16E77
  0
LAYER
  5
DEB6
330
7467
100
AcDbSymbolTableRecord
100
AcDbLayerTableRecord
  2
文字
 70
     0
 62
     7
  6
CONTINUOUS
370
    -3
390
16E77
  0
LAYER
  5
F255
330
7467
100
AcDbSymbolTableRecord
100
AcDbLayerTableRecord
  2
DEFPOINTS
 70
     0
 62
     7
  6
CONTINUOUS
290
     0
370
    -3
390
16E77
  0
LAYER
  5
10B54
330
7467
100
AcDbSymbolTableRecord
100
AcDbLayerTableRecord
  2
仕様書枠
 70
     0
 62
   230
  6
CONTINUOUS
370
    -3
390
16E77
  0
LAYER
  5
11729
330
7467
100
AcDbSymbolTableRecord
100
AcDbLayerTableRecord
  2
Ｇ．Ｌ
 70
     0
 62
    30
  6
CONTINUOUS
370
    -3
390
16E77
  0
LAYER
  5
1173F
330
7467
100
AcDbSymbolTableRecord
100
AcDbLayerTableRecord
  2
細線
 70
     0
 62
     5
  6
CONTINUOUS
370
    -3
390
16E77
  0
LAYER
  5
142E2
330
7467
100
AcDbSymbolTableRecord
100
AcDbLayerTableRecord
  2
破線
 70
     0
 62
     2
  6
HIDDEN
370
    -3
390
16E77
  0
ENDTAB
  0
TABLE
  2
STYLE
  5
7468
330
0
100
AcDbSymbolTable
 70
     4
  0
STYLE
  5
7475
330
7468
100
AcDbSymbolTableRecord
100
AcDbTextStyleTableRecord
  2
STANDARD
 70
     0
 40
0.0
 41
1.0
 50
0.0
 71
     0
 42
4.0
  3
txt
  4
C:\AutoCAD LT\bigfont.shx
  0
STYLE
  5
763C
330
7468
100
AcDbSymbolTableRecord
100
AcDbTextStyleTableRecord
  2
MSMINCHO
 70
     0
 40
0.0
 41
1.0
 50
0.0
 71
     0
 42
1.199999999999999
  3
C:\AutoCAD LT\msminch2.TTF
  4

  0
STYLE
  5
F706
330
7468
100
AcDbSymbolTableRecord
100
AcDbTextStyleTableRecord
  2
STYLE1
 70
     0
 40
0.0
 41
1.0
 50
0.0
 71
     0
 42
4.0
  3
isocp.shx
  4
bigfont.shx
  0
STYLE
  5
103BF
330
7468
100
AcDbSymbolTableRecord
100
AcDbTextStyleTableRecord
  2
STYLE2
 70
     0
 40
0.0
 41
1.0
 50
0.0
 71
     0
 42
100.0
  3
MS PGothic.ttf
  4

1001
ACAD
1000
MS PGothic
1071
    32818
  0
ENDTAB
  0
TABLE
  2
VIEW
  5
746B
330
0
100
AcDbSymbolTable
 70
     0
  0
ENDTAB
  0
TABLE
  2
UCS
  5
746C
330
0
100
AcDbSymbolTable
 70
     0
  0
ENDTAB
  0
TABLE
  2
APPID
  5
746E
330
0
100
AcDbSymbolTable
 70
     6
  0
APPID
  5
7476
330
746E
100
AcDbSymbolTableRecord
100
AcDbRegAppTableRecord
  2
ACAD
 70
     0
  0
APPID
  5
DEA9
330
746E
100
AcDbSymbolTableRecord
100
AcDbRegAppTableRecord
  2
CONTENTBLOCKICON
 70
     0
  0
APPID
  5
DEAA
330
746E
100
AcDbSymbolTableRecord
100
AcDbRegAppTableRecord
  2
CONTENTBLOCKDESCRIPTION
 70
     0
  0
APPID
  5
E71D
330
746E
100
AcDbSymbolTableRecord
100
AcDbRegAppTableRecord
  2
CONTENTTABDATA
 70
     0
  0
APPID
  5
E71E
330
746E
100
AcDbSymbolTableRecord
100
AcDbRegAppTableRecord
  2
CONTENTCURRENTTAB
 70
     0
  0
APPID
  5
F3BA
330
746E
100
AcDbSymbolTableRecord
100
AcDbRegAppTableRecord
  2
DRAWINGVARIABLESXDATA
 70
     0
  0
ENDTAB
  0
TABLE
  2
DIMSTYLE
  5
746F
330
0
100
AcDbSymbolTable
 70
     1
100
AcDbDimStyleTable
 71
     1
340
F71F
  0
DIMSTYLE
105
F71F
102
{ACAD_REACTORS
330
17E02
330
17DEF
330
17DEE
330
17DDC
330
17DDB
330
17DD9
330
17DD7
330
17DC4
330
17DC0
330
17DA1
330
17DA0
330
17D9F
330
17D9A
330
17D88
330
17D87
330
17D78
330
17D77
330
17D65
330
17D64
330
17D61
330
17D5F
330
17D5A
330
17D59
330
17D58
330
17D57
330
17FE1
330
17FE0
330
17F99
330
17F1E
330
18679
330
1867A
330
1867B
330
186A7
330
186AB
330
186AC
330
186AD
330
186BB
330
186CA
330
19961
330
19962
330
19963
102
}
330
746F
100
AcDbSymbolTableRecord
100
AcDbDimStyleTableRecord
  2
INABA_S40G
 70
     0
 40
40.0
 41
2.5
 42
0.5
 43
7.0
 44
1.5
 73
     0
 74
     0
 77
     3
 78
     8
140
3.0
141
0.0
143
0.0394
147
1.0
172
     1
173
     1
174
     1
178
     7
271
     1
340
F706
341
F770
343
F770
344
F770
  0
ENDTAB
  0
TABLE
  2
BLOCK_RECORD
  5
7466
330
0
100
AcDbSymbolTable
 70
    42
  0
BLOCK_RECORD
  5
747D
330
7466
100
AcDbSymbolTableRecord
100
AcDbBlockTableRecord
  2
*MODEL_SPACE
340
16E7C
  0
BLOCK_RECORD
  5
747A
330
7466
100
AcDbSymbolTableRecord
100
AcDbBlockTableRecord
  2
*PAPER_SPACE
340
16E7D
  0
BLOCK_RECORD
  5
F770
330
7466
100
AcDbSymbolTableRecord
100
AcDbBlockTableRecord
  2
_DOTSMALL
340
0
102
{BLKREFS
331
18284
331
18285
331
1828D
331
1828E
331
18298
331
18299
331
1829F
331
182A0
331
182CE
331
182CF
331
182D9
331
182DA
331
182E4
331
182E5
331
1830D
331
1830E
331
18319
331
1831A
331
18324
331
18325
331
1832E
331
1832F
331
18337
331
18338
331
1833F
331
18340
331
1835E
331
1835F
331
18370
331
18371
331
18379
331
1837A
331
18384
331
18385
331
1838F
331
18390
331
188E4
331
188E5
331
188EE
331
188EF
331
18902
331
18903
331
18916
331
18917
331
18929
331
1892A
331
18932
331
18933
331
1893B
331
1893C
331
18958
331
18959
331
18961
331
18962
331
1896A
331
1896B
331
1897D
331
1897E
331
18988
331
18989
331
18993
331
18994
331
1899C
331
1899D
331
189A5
331
189A6
331
189B0
331
189B1
331
189C4
331
189C5
331
19A5B
331
19A5C
331
19F25
331
19F26
331
19F3F
331
19F40
331
19FC0
331
19FC1
331
19FE7
331
19FE8
331
19FF0
331
19FF1
102
}
  0
BLOCK_RECORD
  5
18027
330
7466
100
AcDbSymbolTableRecord
100
AcDbBlockTableRecord
  2
*D1
340
0
  0
BLOCK_RECORD
  5
18035
330
7466
100
AcDbSymbolTableRecord
100
AcDbBlockTableRecord
  2
*D2
340
0
  0
BLOCK_RECORD
  5
18043
330
7466
100
AcDbSymbolTableRecord
100
AcDbBlockTableRecord
  2
*D3
340
0
  0
BLOCK_RECORD
  5
1804F
330
7466
100
AcDbSymbolTableRecord
100
AcDbBlockTableRecord
  2
*D4
340
0
  0
BLOCK_RECORD
  5
1805D
330
7466
100
AcDbSymbolTableRecord
100
AcDbBlockTableRecord
  2
*D5
340
0
  0
BLOCK_RECORD
  5
18068
330
7466
100
AcDbSymbolTableRecord
100
AcDbBlockTableRecord
  2
*D6
340
0
  0
BLOCK_RECORD
  5
18074
330
7466
100
AcDbSymbolTableRecord
100
AcDbBlockTableRecord
  2
*D7
340
0
  0
BLOCK_RECORD
  5
18080
330
7466
100
AcDbSymbolTableRecord
100
AcDbBlockTableRecord
  2
*D8
340
0
  0
BLOCK_RECORD
  5
1808B
330
7466
100
AcDbSymbolTableRecord
100
AcDbBlockTableRecord
  2
*D9
340
0
  0
BLOCK_RECORD
  5
18099
330
7466
100
AcDbSymbolTableRecord
100
AcDbBlockTableRecord
  2
*D10
340
0
  0
BLOCK_RECORD
  5
180A5
330
7466
100
AcDbSymbolTableRecord
100
AcDbBlockTableRecord
  2
*D11
340
0
  0
BLOCK_RECORD
  5
180B3
330
7466
100
AcDbSymbolTableRecord
100
AcDbBlockTableRecord
  2
*D12
340
0
  0
BLOCK_RECORD
  5
180C1
330
7466
100
AcDbSymbolTableRecord
100
AcDbBlockTableRecord
  2
*D13
340
0
  0
BLOCK_RECORD
  5
180CF
330
7466
100
AcDbSymbolTableRecord
100
AcDbBlockTableRecord
  2
*D14
340
0
  0
BLOCK_RECORD
  5
180DD
330
7466
100
AcDbSymbolTableRecord
100
AcDbBlockTableRecord
  2
*D15
340
0
  0
BLOCK_RECORD
  5
180E9
330
7466
100
AcDbSymbolTableRecord
100
AcDbBlockTableRecord
  2
*D16
340
0
  0
BLOCK_RECORD
  5
180F7
330
7466
100
AcDbSymbolTableRecord
100
AcDbBlockTableRecord
  2
*D17
340
0
  0
BLOCK_RECORD
  5
18105
330
7466
100
AcDbSymbolTableRecord
100
AcDbBlockTableRecord
  2
*D18
340
0
  0
BLOCK_RECORD
  5
18113
330
7466
100
AcDbSymbolTableRecord
100
AcDbBlockTableRecord
  2
*D19
340
0
  0
BLOCK_RECORD
  5
18121
330
7466
100
AcDbSymbolTableRecord
100
AcDbBlockTableRecord
  2
*D20
340
0
  0
BLOCK_RECORD
  5
1812D
330
7466
100
AcDbSymbolTableRecord
100
AcDbBlockTableRecord
  2
*D21
340
0
  0
BLOCK_RECORD
  5
18138
330
7466
100
AcDbSymbolTableRecord
100
AcDbBlockTableRecord
  2
*D22
340
0
  0
BLOCK_RECORD
  5
18144
330
7466
100
AcDbSymbolTableRecord
100
AcDbBlockTableRecord
  2
*D23
340
0
  0
BLOCK_RECORD
  5
18152
330
7466
100
AcDbSymbolTableRecord
100
AcDbBlockTableRecord
  2
*D24
340
0
  0
BLOCK_RECORD
  5
18160
330
7466
100
AcDbSymbolTableRecord
100
AcDbBlockTableRecord
  2
*D25
340
0
  0
BLOCK_RECORD
  5
1816C
330
7466
100
AcDbSymbolTableRecord
100
AcDbBlockTableRecord
  2
*D26
340
0
  0
BLOCK_RECORD
  5
18178
330
7466
100
AcDbSymbolTableRecord
100
AcDbBlockTableRecord
  2
*D27
340
0
  0
BLOCK_RECORD
  5
18184
330
7466
100
AcDbSymbolTableRecord
100
AcDbBlockTableRecord
  2
*D28
340
0
  0
BLOCK_RECORD
  5
18192
330
7466
100
AcDbSymbolTableRecord
100
AcDbBlockTableRecord
  2
*D29
340
0
  0
BLOCK_RECORD
  5
18762
330
7466
100
AcDbSymbolTableRecord
100
AcDbBlockTableRecord
  2
*D30
340
0
  0
BLOCK_RECORD
  5
1876E
330
7466
100
AcDbSymbolTableRecord
100
AcDbBlockTableRecord
  2
*D31
340
0
  0
BLOCK_RECORD
  5
1877A
330
7466
100
AcDbSymbolTableRecord
100
AcDbBlockTableRecord
  2
*D32
340
0
  0
BLOCK_RECORD
  5
18793
330
7466
100
AcDbSymbolTableRecord
100
AcDbBlockTableRecord
  2
*D33
340
0
  0
BLOCK_RECORD
  5
187A1
330
7466
100
AcDbSymbolTableRecord
100
AcDbBlockTableRecord
  2
*D34
340
0
  0
BLOCK_RECORD
  5
187AD
330
7466
100
AcDbSymbolTableRecord
100
AcDbBlockTableRecord
  2
*D35
340
0
  0
BLOCK_RECORD
  5
187BB
330
7466
100
AcDbSymbolTableRecord
100
AcDbBlockTableRecord
  2
*D36
340
0
  0
BLOCK_RECORD
  5
187C7
330
7466
100
AcDbSymbolTableRecord
100
AcDbBlockTableRecord
  2
*D37
340
0
  0
BLOCK_RECORD
  5
187D4
330
7466
100
AcDbSymbolTableRecord
100
AcDbBlockTableRecord
  2
*D38
340
0
  0
BLOCK_RECORD
  5
199D6
330
7466
100
AcDbSymbolTableRecord
100
AcDbBlockTableRecord
  2
*D39
340
0
  0
BLOCK_RECORD
  5
199E3
330
7466
100
AcDbSymbolTableRecord
100
AcDbBlockTableRecord
  2
*D40
340
0
  0
BLOCK_RECORD
  5
199F1
330
7466
100
AcDbSymbolTableRecord
100
AcDbBlockTableRecord
  2
*D41
340
0
  0
ENDTAB
  0
ENDSEC
  0
SECTION
  2
BLOCKS
  0
BLOCK
  5
7489
330
747D
100
AcDbEntity
  8
0
100
AcDbBlockBegin
  2
*MODEL_SPACE
 70
     0
 10
0.0
 20
0.0
 30
0.0
  3
*MODEL_SPACE
  1

  0
ENDBLK
  5
748A
330
747D
100
AcDbEntity
  8
0
100
AcDbBlockEnd
  0
BLOCK
  5
7487
330
747A
100
AcDbEntity
 67
     1
  8
0
100
AcDbBlockBegin
  2
*PAPER_SPACE
 70
     0
 10
0.0
 20
0.0
 30
0.0
  3
*PAPER_SPACE
  1

  0
ENDBLK
  5
7488
330
747A
100
AcDbEntity
 67
     1
  8
0
100
AcDbBlockEnd
  0
BLOCK
  5
F771
330
F770
100
AcDbEntity
  8
0
 48
50.0
100
AcDbBlockBegin
  2
_DOTSMALL
 70
     0
 10
0.0
 20
0.0
 30
0.0
  3
_DOTSMALL
  1

  0
LWPOLYLINE
  5
F772
330
F770
100
AcDbEntity
  8
0
  6
ByBlock
 62
     0
 48
50.0
100
AcDbPolyline
 90
        2
 70
     1
 43
0.5
 10
-0.0625
 20
0.0
 42
1.0
 10
0.0625
 20
0.0
 42
1.0
  0
ENDBLK
  5
F776
330
F770
100
AcDbEntity
  8
0
 48
50.0
100
AcDbBlockEnd
  0
BLOCK
  5
18033
330
18027
100
AcDbEntity
  8
0
 48
50.0
100
AcDbBlockBegin
  2
*D1
 70
     1
 10
0.0
 20
0.0
 30
0.0
  3
*D1
  1

  0
LINE
  5
18953
330
18027
100
AcDbEntity
  8
寸法
 62
     0
 48
50.0
370
    -2
100
AcDbLine
 10
5205.47159668358
 20
9787.029213418641
 30
0.0
 11
5205.47159668358
 21
10042.83743304369
 31
0.0
  0
LINE
  5
18954
330
18027
100
AcDbEntity
  8
寸法
 62
     0
 48
50.0
370
    -2
100
AcDbLine
 10
5095.471596683579
 20
9787.029213418637
 30
0.0
 11
5095.471596683579
 21
10042.83743304369
 31
0.0
  0
LINE
  5
18955
330
18027
100
AcDbEntity
  8
寸法
 62
     0
 48
50.0
370
    -2
100
AcDbLine
 10
5205.47159668358
 20
9982.837433043689
 30
0.0
 11
5305.471596683579
 21
9982.837433043689
 31
0.0
  0
LINE
  5
18956
330
18027
100
AcDbEntity
  8
寸法
 62
     0
 48
50.0
370
    -2
100
AcDbLine
 10
5095.471596683579
 20
9982.837433043689
 30
0.0
 11
4995.471596683579
 21
9982.837433043689
 31
0.0
  0
LINE
  5
18957
330
18027
100
AcDbEntity
  8
寸法
 62
     0
 48
50.0
370
    -2
100
AcDbLine
 10
5205.47159668358
 20
9982.837433043689
 30
0.0
 11
5095.471596683579
 21
9982.837433043689
 31
0.0
  0
INSERT
  5
18958
330
18027
100
AcDbEntity
  8
寸法
 62
     0
 48
50.0
370
    -2
100
AcDbBlockReference
  2
_DOTSMALL
 10
5205.47159668358
 20
9982.837433043689
 30
0.0
 41
100.0
 42
100.0
 43
100.0
 50
180.0
  0
INSERT
  5
18959
330
18027
100
AcDbEntity
  8
寸法
 62
     0
 48
50.0
370
    -2
100
AcDbBlockReference
  2
_DOTSMALL
 10
5095.471596683579
 20
9982.837433043689
 30
0.0
 41
100.0
 42
100.0
 43
100.0
  0
MTEXT
  5
1895A
330
18027
100
AcDbEntity
  8
寸法
 62
     7
 48
50.0
100
AcDbMText
 10
5150.47159668358
 20
10082.83743304369
 30
0.0
 40
120.0
 41
0.0
 71
     5
 72
     1
  1
\A1;110
  7
STYLE1
 73
     1
 44
1.0
1001
ACAD
1000
MTEXTBEGIN
1070
    73
1070
     1
1070
    44
1040
1.0
1070
    74
1070
     0
1000
MTEXTEND
  0
POINT
  5
1895B
330
18027
100
AcDbEntity
  8
DEFPOINTS
 62
     0
 48
50.0
100
AcDbPoint
 10
5205.47159668358
 20
9767.029213418641
 30
0.0
  0
POINT
  5
1895C
330
18027
100
AcDbEntity
  8
DEFPOINTS
 62
     0
 48
50.0
100
AcDbPoint
 10
5095.471596683579
 20
9767.029213418638
 30
0.0
  0
POINT
  5
1895D
330
18027
100
AcDbEntity
  8
DEFPOINTS
 62
     0
 48
50.0
100
AcDbPoint
 10
5095.471596683579
 20
9982.837433043689
 30
0.0
  0
ENDBLK
  5
18034
330
18027
100
AcDbEntity
  8
0
 48
50.0
100
AcDbBlockEnd
  0
BLOCK
  5
18041
330
18035
100
AcDbEntity
  8
0
 48
50.0
100
AcDbBlockBegin
  2
*D2
 70
     1
 10
0.0
 20
0.0
 30
0.0
  3
*D2
  1

  0
LINE
  5
1827E
330
18035
100
AcDbEntity
  8
寸法
 62
     0
 48
50.0
370
    -2
100
AcDbLine
 10
5253.471596683572
 20
7563.029213418587
 30
0.0
 11
5253.471596683572
 21
6962.598442652423
 31
0.0
  0
LINE
  5
1827F
330
18035
100
AcDbEntity
  8
寸法
 62
     0
 48
50.0
370
    -2
100
AcDbLine
 10
5205.471596683569
 20
7537.029213418588
 30
0.0
 11
5205.471596683569
 21
6962.598442652423
 31
0.0
  0
LINE
  5
18280
330
18035
100
AcDbEntity
  8
寸法
 62
     0
 48
50.0
370
    -2
100
AcDbLine
 10
5253.471596683572
 20
7022.598442652423
 30
0.0
 11
5353.471596683572
 21
7022.598442652423
 31
0.0
  0
LINE
  5
18281
330
18035
100
AcDbEntity
  8
寸法
 62
     0
 48
50.0
370
    -2
100
AcDbLine
 10
5205.471596683569
 20
7022.598442652423
 30
0.0
 11
5105.471596683568
 21
7022.598442652423
 31
0.0
  0
MTEXT
  5
18282
330
18035
100
AcDbEntity
  8
寸法
 62
     7
 48
50.0
100
AcDbMText
 10
5366.37356768363
 20
7122.598442652424
 30
0.0
 40
120.0
 41
0.0
 71
     5
 72
     1
  1
\A1;48
  7
STYLE1
 73
     1
 44
1.0
1001
ACAD
1000
MTEXTBEGIN
1070
    73
1070
     1
1070
    44
1040
1.0
1070
    74
1070
     0
1000
MTEXTEND
  0
LINE
  5
18283
330
18035
100
AcDbEntity
  8
寸法
 62
     0
 48
50.0
370
    -2
100
AcDbLine
 10
5253.471596683572
 20
7022.598442652423
 30
0.0
 11
5205.471596683569
 21
7022.598442652423
 31
0.0
  0
INSERT
  5
18284
330
18035
100
AcDbEntity
  8
寸法
 62
     0
 48
50.0
370
    -2
100
AcDbBlockReference
  2
_DOTSMALL
 10
5253.471596683572
 20
7022.598442652423
 30
0.0
 41
100.0
 42
100.0
 43
100.0
 50
180.0
  0
INSERT
  5
18285
330
18035
100
AcDbEntity
  8
寸法
 62
     0
 48
50.0
370
    -2
100
AcDbBlockReference
  2
_DOTSMALL
 10
5205.471596683569
 20
7022.598442652423
 30
0.0
 41
100.0
 42
100.0
 43
100.0
  0
POINT
  5
18286
330
18035
100
AcDbEntity
  8
DEFPOINTS
 62
     0
 48
50.0
100
AcDbPoint
 10
5253.471596683572
 20
7583.029213418587
 30
0.0
  0
POINT
  5
18287
330
18035
100
AcDbEntity
  8
DEFPOINTS
 62
     0
 48
50.0
100
AcDbPoint
 10
5205.471596683569
 20
7557.029213418586
 30
0.0
  0
POINT
  5
18288
330
18035
100
AcDbEntity
  8
DEFPOINTS
 62
     0
 48
50.0
100
AcDbPoint
 10
5205.471596683569
 20
7022.598442652423
 30
0.0
  0
ENDBLK
  5
18042
330
18035
100
AcDbEntity
  8
0
 48
50.0
100
AcDbBlockEnd
  0
BLOCK
  5
1804D
330
18043
100
AcDbEntity
  8
0
 48
50.0
100
AcDbBlockBegin
  2
*D3
 70
     1
 10
0.0
 20
0.0
 30
0.0
  3
*D3
  1

  0
LINE
  5
18289
330
18043
100
AcDbEntity
  8
寸法
 62
     0
 48
50.0
370
    -2
100
AcDbLine
 10
5205.471596683569
 20
7537.029213418588
 30
0.0
 11
5205.471596683569
 21
6962.598442652424
 31
0.0
  0
LINE
  5
1828A
330
18043
100
AcDbEntity
  8
寸法
 62
     0
 48
50.0
370
    -2
100
AcDbLine
 10
5095.471596683555
 20
7537.029213418676
 30
0.0
 11
5095.471596683555
 21
6962.598442652424
 31
0.0
  0
LINE
  5
1828B
330
18043
100
AcDbEntity
  8
寸法
 62
     0
 48
50.0
370
    -2
100
AcDbLine
 10
5205.471596683569
 20
7022.598442652423
 30
0.0
 11
5095.471596683555
 21
7022.598442652423
 31
0.0
  0
MTEXT
  5
1828C
330
18043
100
AcDbEntity
  8
寸法
 62
     7
 48
50.0
100
AcDbMText
 10
5150.471596683561
 20
6870.906547616193
 30
0.0
 40
120.0
 41
0.0
 71
     5
 72
     1
  1
\A1;110
  7
STYLE1
 73
     1
 44
1.0
1001
ACAD
1000
MTEXTBEGIN
1070
    73
1070
     1
1070
    44
1040
1.0
1070
    74
1070
     0
1000
MTEXTEND
  0
INSERT
  5
1828D
330
18043
100
AcDbEntity
  8
寸法
 62
     0
 48
50.0
370
    -2
100
AcDbBlockReference
  2
_DOTSMALL
 10
5205.471596683569
 20
7022.598442652423
 30
0.0
 41
100.0
 42
100.0
 43
100.0
  0
INSERT
  5
1828E
330
18043
100
AcDbEntity
  8
寸法
 62
     0
 48
50.0
370
    -2
100
AcDbBlockReference
  2
_DOTSMALL
 10
5095.471596683555
 20
7022.598442652423
 30
0.0
 41
100.0
 42
100.0
 43
100.0
 50
180.0
  0
POINT
  5
1828F
330
18043
100
AcDbEntity
  8
DEFPOINTS
 62
     0
 48
50.0
100
AcDbPoint
 10
5205.471596683569
 20
7557.029213418586
 30
0.0
  0
POINT
  5
18290
330
18043
100
AcDbEntity
  8
DEFPOINTS
 62
     0
 48
50.0
100
AcDbPoint
 10
5095.471596683555
 20
7557.029213418674
 30
0.0
  0
POINT
  5
18291
330
18043
100
AcDbEntity
  8
DEFPOINTS
 62
     0
 48
50.0
100
AcDbPoint
 10
5095.471596683555
 20
7022.598442652423
 30
0.0
  0
ENDBLK
  5
1804E
330
18043
100
AcDbEntity
  8
0
 48
50.0
100
AcDbBlockEnd
  0
BLOCK
  5
1805B
330
1804F
100
AcDbEntity
  8
0
 48
50.0
100
AcDbBlockBegin
  2
*D4
 70
     1
 10
0.0
 20
0.0
 30
0.0
  3
*D4
  1

  0
LINE
  5
18292
330
1804F
100
AcDbEntity
  8
寸法
 62
     0
 48
50.0
370
    -2
100
AcDbLine
 10
5095.471596683555
 20
7537.029213418676
 30
0.0
 11
5095.471596683555
 21
6962.598442652423
 31
0.0
  0
LINE
  5
18293
330
1804F
100
AcDbEntity
  8
寸法
 62
     0
 48
50.0
370
    -2
100
AcDbLine
 10
5047.471596683553
 20
7563.029213418587
 30
0.0
 11
5047.471596683553
 21
6962.598442652423
 31
0.0
  0
LINE
  5
18294
330
1804F
100
AcDbEntity
  8
寸法
 62
     0
 48
50.0
370
    -2
100
AcDbLine
 10
5095.471596683555
 20
7022.598442652423
 30
0.0
 11
5195.471596683556
 21
7022.598442652423
 31
0.0
  0
LINE
  5
18295
330
1804F
100
AcDbEntity
  8
寸法
 62
     0
 48
50.0
370
    -2
100
AcDbLine
 10
5047.471596683553
 20
7022.598442652423
 30
0.0
 11
4947.471596683554
 21
7022.598442652423
 31
0.0
  0
MTEXT
  5
18296
330
1804F
100
AcDbEntity
  8
寸法
 62
     7
 48
50.0
100
AcDbMText
 10
4936.508699034806
 20
7122.598442652424
 30
0.0
 40
120.0
 41
0.0
 71
     5
 72
     1
  1
\A1;48
  7
STYLE1
 73
     1
 44
1.0
1001
ACAD
1000
MTEXTBEGIN
1070
    73
1070
     1
1070
    44
1040
1.0
1070
    74
1070
     0
1000
MTEXTEND
  0
LINE
  5
18297
330
1804F
100
AcDbEntity
  8
寸法
 62
     0
 48
50.0
370
    -2
100
AcDbLine
 10
5095.471596683555
 20
7022.598442652423
 30
0.0
 11
5047.471596683553
 21
7022.598442652423
 31
0.0
  0
INSERT
  5
18298
330
1804F
100
AcDbEntity
  8
寸法
 62
     0
 48
50.0
370
    -2
100
AcDbBlockReference
  2
_DOTSMALL
 10
5095.471596683555
 20
7022.598442652423
 30
0.0
 41
100.0
 42
100.0
 43
100.0
 50
180.0
  0
INSERT
  5
18299
330
1804F
100
AcDbEntity
  8
寸法
 62
     0
 48
50.0
370
    -2
100
AcDbBlockReference
  2
_DOTSMALL
 10
5047.471596683553
 20
7022.598442652423
 30
0.0
 41
100.0
 42
100.0
 43
100.0
  0
POINT
  5
1829A
330
1804F
100
AcDbEntity
  8
DEFPOINTS
 62
     0
 48
50.0
100
AcDbPoint
 10
5095.471596683555
 20
7557.029213418674
 30
0.0
  0
POINT
  5
1829B
330
1804F
100
AcDbEntity
  8
DEFPOINTS
 62
     0
 48
50.0
100
AcDbPoint
 10
5047.471596683553
 20
7583.029213418588
 30
0.0
  0
POINT
  5
1829C
330
1804F
100
AcDbEntity
  8
DEFPOINTS
 62
     0
 48
50.0
100
AcDbPoint
 10
5047.471596683553
 20
7022.598442652423
 30
0.0
  0
ENDBLK
  5
1805C
330
1804F
100
AcDbEntity
  8
0
 48
50.0
100
AcDbBlockEnd
  0
BLOCK
  5
18066
330
1805D
100
AcDbEntity
  8
0
 48
50.0
100
AcDbBlockBegin
  2
*D5
 70
     1
 10
0.0
 20
0.0
 30
0.0
  3
*D5
  1

  0
LINE
  5
1829D
330
1805D
100
AcDbEntity
  8
寸法
 62
     0
 48
50.0
370
    -2
100
AcDbLine
 10
2623.471596683572
 20
7563.029213418587
 30
0.0
 11
2623.471596683572
 21
6962.598442652423
 31
0.0
  0
LINE
  5
1829E
330
1805D
100
AcDbEntity
  8
寸法
 62
     0
 48
50.0
370
    -2
100
AcDbLine
 10
5047.471596683553
 20
7022.598442652423
 30
0.0
 11
2623.471596683572
 21
7022.598442652423
 31
0.0
  0
INSERT
  5
1829F
330
1805D
100
AcDbEntity
  8
寸法
 62
     0
 48
50.0
370
    -2
100
AcDbBlockReference
  2
_DOTSMALL
 10
5047.471596683553
 20
7022.598442652423
 30
0.0
 41
100.0
 42
100.0
 43
100.0
  0
INSERT
  5
182A0
330
1805D
100
AcDbEntity
  8
寸法
 62
     0
 48
50.0
370
    -2
100
AcDbBlockReference
  2
_DOTSMALL
 10
2623.471596683572
 20
7022.598442652423
 30
0.0
 41
100.0
 42
100.0
 43
100.0
 50
180.0
  0
MTEXT
  5
182A1
330
1805D
100
AcDbEntity
  8
寸法
 62
     7
 48
50.0
100
AcDbMText
 10
3835.471596683563
 20
7122.610253676045
 30
0.0
 40
120.0
 41
0.0
 71
     5
 72
     1
  1
\A1;有効開口部間口 2424
  7
STYLE1
 73
     1
 44
1.0
1001
ACAD
1000
MTEXTBEGIN
1070
    73
1070
     1
1070
    44
1040
1.0
1070
    74
1070
     0
1000
MTEXTEND
  0
POINT
  5
182A2
330
1805D
100
AcDbEntity
  8
DEFPOINTS
 62
     0
 48
50.0
100
AcDbPoint
 10
5047.471596683553
 20
7583.029213418588
 30
0.0
  0
POINT
  5
182A3
330
1805D
100
AcDbEntity
  8
DEFPOINTS
 62
     0
 48
50.0
100
AcDbPoint
 10
2623.471596683572
 20
7583.029213418587
 30
0.0
  0
POINT
  5
182A4
330
1805D
100
AcDbEntity
  8
DEFPOINTS
 62
     0
 48
50.0
100
AcDbPoint
 10
2623.471596683572
 20
7022.598442652423
 30
0.0
  0
ENDBLK
  5
18067
330
1805D
100
AcDbEntity
  8
0
 48
50.0
100
AcDbBlockEnd
  0
BLOCK
  5
18072
330
18068
100
AcDbEntity
  8
0
 48
50.0
100
AcDbBlockBegin
  2
*D6
 70
     1
 10
0.0
 20
0.0
 30
0.0
  3
*D6
  1

  0
LINE
  5
1895E
330
18068
100
AcDbEntity
  8
寸法
 62
     0
 48
50.0
370
    -2
100
AcDbLine
 10
2575.471596683579
 20
9787.029213418591
 30
0.0
 11
2575.471596683579
 21
10042.83743304369
 31
0.0
  0
LINE
  5
1895F
330
18068
100
AcDbEntity
  8
寸法
 62
     0
 48
50.0
370
    -2
100
AcDbLine
 10
5095.471596683579
 20
9787.029213418685
 30
0.0
 11
5095.471596683579
 21
10042.83743304369
 31
0.0
  0
LINE
  5
18960
330
18068
100
AcDbEntity
  8
寸法
 62
     0
 48
50.0
370
    -2
100
AcDbLine
 10
2575.471596683579
 20
9982.837433043689
 30
0.0
 11
5095.471596683579
 21
9982.837433043689
 31
0.0
  0
INSERT
  5
18961
330
18068
100
AcDbEntity
  8
寸法
 62
     0
 48
50.0
370
    -2
100
AcDbBlockReference
  2
_DOTSMALL
 10
2575.471596683579
 20
9982.837433043689
 30
0.0
 41
100.0
 42
100.0
 43
100.0
 50
180.0
  0
INSERT
  5
18962
330
18068
100
AcDbEntity
  8
寸法
 62
     0
 48
50.0
370
    -2
100
AcDbBlockReference
  2
_DOTSMALL
 10
5095.471596683579
 20
9982.837433043689
 30
0.0
 41
100.0
 42
100.0
 43
100.0
  0
MTEXT
  5
18963
330
18068
100
AcDbEntity
  8
寸法
 62
     7
 48
50.0
100
AcDbMText
 10
3835.471596683579
 20
10082.84924406731
 30
0.0
 40
120.0
 41
0.0
 71
     5
 72
     1
  1
\A1;6X420=2520
  7
STYLE1
 73
     1
 44
1.0
1001
ACAD
1000
MTEXTBEGIN
1070
    73
1070
     1
1070
    44
1040
1.0
1070
    74
1070
     0
1000
MTEXTEND
  0
POINT
  5
18964
330
18068
100
AcDbEntity
  8
DEFPOINTS
 62
     0
 48
50.0
100
AcDbPoint
 10
2575.471596683579
 20
9767.029213418592
 30
0.0
  0
POINT
  5
18965
330
18068
100
AcDbEntity
  8
DEFPOINTS
 62
     0
 48
50.0
100
AcDbPoint
 10
5095.471596683579
 20
9767.029213418688
 30
0.0
  0
POINT
  5
18966
330
18068
100
AcDbEntity
  8
DEFPOINTS
 62
     0
 48
50.0
100
AcDbPoint
 10
5095.471596683579
 20
9982.837433043689
 30
0.0
  0
ENDBLK
  5
18073
330
18068
100
AcDbEntity
  8
0
 48
50.0
100
AcDbBlockEnd
  0
BLOCK
  5
1807E
330
18074
100
AcDbEntity
  8
0
 48
50.0
100
AcDbBlockBegin
  2
*D7
 70
     1
 10
0.0
 20
0.0
 30
0.0
  3
*D7
  1

  0
LINE
  5
18967
330
18074
100
AcDbEntity
  8
寸法
 62
     0
 48
50.0
370
    -2
100
AcDbLine
 10
2520.471596683543
 20
9787.029213418559
 30
0.0
 11
2520.471596683543
 21
10292.15890659998
 31
0.0
  0
LINE
  5
18968
330
18074
100
AcDbEntity
  8
寸法
 62
     0
 48
50.0
370
    -2
100
AcDbLine
 10
5150.47159668358
 20
10161.82534740163
 30
0.0
 11
5150.47159668358
 21
10292.15890659998
 31
0.0
  0
LINE
  5
18969
330
18074
100
AcDbEntity
  8
寸法
 62
     0
 48
50.0
370
    -2
100
AcDbLine
 10
2520.471596683543
 20
10232.15890659998
 30
0.0
 11
5150.47159668358
 21
10232.15890659998
 31
0.0
  0
INSERT
  5
1896A
330
18074
100
AcDbEntity
  8
寸法
 62
     0
 48
50.0
370
    -2
100
AcDbBlockReference
  2
_DOTSMALL
 10
2520.471596683543
 20
10232.15890659998
 30
0.0
 41
100.0
 42
100.0
 43
100.0
 50
180.0
  0
INSERT
  5
1896B
330
18074
100
AcDbEntity
  8
寸法
 62
     0
 48
50.0
370
    -2
100
AcDbBlockReference
  2
_DOTSMALL
 10
5150.47159668358
 20
10232.15890659998
 30
0.0
 41
100.0
 42
100.0
 43
100.0
  0
MTEXT
  5
1896C
330
18074
100
AcDbEntity
  8
寸法
 62
     7
 48
50.0
100
AcDbMText
 10
3835.471596683561
 20
10332.1707176236
 30
0.0
 40
120.0
 41
0.0
 71
     5
 72
     1
  1
\A1;2630
  7
STYLE1
 73
     1
 44
1.0
1001
ACAD
1000
MTEXTBEGIN
1070
    73
1070
     1
1070
    44
1040
1.0
1070
    74
1070
     0
1000
MTEXTEND
  0
POINT
  5
1896D
330
18074
100
AcDbEntity
  8
DEFPOINTS
 62
     0
 48
50.0
100
AcDbPoint
 10
2520.471596683543
 20
9767.02921341856
 30
0.0
  0
POINT
  5
1896E
330
18074
100
AcDbEntity
  8
DEFPOINTS
 62
     0
 48
50.0
100
AcDbPoint
 10
5150.47159668358
 20
10141.82534740163
 30
0.0
  0
POINT
  5
1896F
330
18074
100
AcDbEntity
  8
DEFPOINTS
 62
     0
 48
50.0
100
AcDbPoint
 10
5150.47159668358
 20
10232.15890659998
 30
0.0
  0
ENDBLK
  5
1807F
330
18074
100
AcDbEntity
  8
0
 48
50.0
100
AcDbBlockEnd
  0
BLOCK
  5
18089
330
18080
100
AcDbEntity
  8
0
 48
50.0
100
AcDbBlockBegin
  2
*D8
 70
     1
 10
0.0
 20
0.0
 30
0.0
  3
*D8
  1

  0
LINE
  5
19F3C
330
18080
100
AcDbEntity
  8
寸法
 62
     0
 48
50.0
370
    -2
100
AcDbLine
 10
7780.47159668358
 20
10161.82534740163
 30
0.0
 11
7780.47159668358
 21
10292.15890659998
 31
0.0
  0
LINE
  5
19F3D
330
18080
100
AcDbEntity
  8
寸法
 62
     0
 48
50.0
370
    -2
100
AcDbLine
 10
10410.47159668358
 20
9787.029213418685
 30
0.0
 11
10410.47159668358
 21
10292.15890659998
 31
0.0
  0
LINE
  5
19F3E
330
18080
100
AcDbEntity
  8
寸法
 62
     0
 48
50.0
370
    -2
100
AcDbLine
 10
7780.47159668358
 20
10232.15890659998
 30
0.0
 11
10410.47159668358
 21
10232.15890659998
 31
0.0
  0
INSERT
  5
19F3F
330
18080
100
AcDbEntity
  8
寸法
 62
     0
 48
50.0
370
    -2
100
AcDbBlockReference
  2
_DOTSMALL
 10
7780.47159668358
 20
10232.15890659998
 30
0.0
 41
100.0
 42
100.0
 43
100.0
 50
180.0
  0
INSERT
  5
19F40
330
18080
100
AcDbEntity
  8
寸法
 62
     0
 48
50.0
370
    -2
100
AcDbBlockReference
  2
_DOTSMALL
 10
10410.47159668358
 20
10232.15890659998
 30
0.0
 41
100.0
 42
100.0
 43
100.0
  0
MTEXT
  5
19F41
330
18080
100
AcDbEntity
  8
寸法
 62
     7
 48
50.0
100
AcDbMText
 10
9095.471596683578
 20
10332.1707176236
 30
0.0
 40
120.0
 41
0.0
 71
     5
 72
     1
  1
\A1;2630
  7
STYLE1
 73
     1
 44
1.0
1001
ACAD
1000
MTEXTBEGIN
1070
    73
1070
     1
1070
    44
1040
1.0
1070
    74
1070
     0
1000
MTEXTEND
  0
POINT
  5
19F42
330
18080
100
AcDbEntity
  8
DEFPOINTS
 62
     0
 48
50.0
100
AcDbPoint
 10
7780.47159668358
 20
10141.82534740163
 30
0.0
  0
POINT
  5
19F43
330
18080
100
AcDbEntity
  8
DEFPOINTS
 62
     0
 48
50.0
100
AcDbPoint
 10
10410.47159668358
 20
9767.029213418688
 30
0.0
  0
POINT
  5
19F44
330
18080
100
AcDbEntity
  8
DEFPOINTS
 62
     0
 48
50.0
100
AcDbPoint
 10
10410.47159668358
 20
10232.15890659998
 30
0.0
  0
ENDBLK
  5
1808A
330
18080
100
AcDbEntity
  8
0
 48
50.0
100
AcDbBlockEnd
  0
BLOCK
  5
18097
330
1808B
100
AcDbEntity
  8
0
 48
50.0
100
AcDbBlockBegin
  2
*D9
 70
     1
 10
0.0
 20
0.0
 30
0.0
  3
*D9
  1

  0
LINE
  5
18978
330
1808B
100
AcDbEntity
  8
寸法
 62
     0
 48
50.0
370
    -2
100
AcDbLine
 10
7835.471596683579
 20
9787.029213418641
 30
0.0
 11
7835.471596683579
 21
10042.83743304369
 31
0.0
  0
LINE
  5
18979
330
1808B
100
AcDbEntity
  8
寸法
 62
     0
 48
50.0
370
    -2
100
AcDbLine
 10
7725.471596683579
 20
9787.029213418637
 30
0.0
 11
7725.471596683579
 21
10042.83743304369
 31
0.0
  0
LINE
  5
1897A
330
1808B
100
AcDbEntity
  8
寸法
 62
     0
 48
50.0
370
    -2
100
AcDbLine
 10
7835.471596683579
 20
9982.837433043689
 30
0.0
 11
7935.47159668358
 21
9982.837433043689
 31
0.0
  0
LINE
  5
1897B
330
1808B
100
AcDbEntity
  8
寸法
 62
     0
 48
50.0
370
    -2
100
AcDbLine
 10
7725.471596683579
 20
9982.837433043689
 30
0.0
 11
7625.471596683579
 21
9982.837433043689
 31
0.0
  0
LINE
  5
1897C
330
1808B
100
AcDbEntity
  8
寸法
 62
     0
 48
50.0
370
    -2
100
AcDbLine
 10
7835.471596683579
 20
9982.837433043689
 30
0.0
 11
7725.471596683579
 21
9982.837433043689
 31
0.0
  0
INSERT
  5
1897D
330
1808B
100
AcDbEntity
  8
寸法
 62
     0
 48
50.0
370
    -2
100
AcDbBlockReference
  2
_DOTSMALL
 10
7835.471596683579
 20
9982.837433043689
 30
0.0
 41
100.0
 42
100.0
 43
100.0
 50
180.0
  0
INSERT
  5
1897E
330
1808B
100
AcDbEntity
  8
寸法
 62
     0
 48
50.0
370
    -2
100
AcDbBlockReference
  2
_DOTSMALL
 10
7725.471596683579
 20
9982.837433043689
 30
0.0
 41
100.0
 42
100.0
 43
100.0
  0
MTEXT
  5
1897F
330
1808B
100
AcDbEntity
  8
寸法
 62
     7
 48
50.0
100
AcDbMText
 10
7780.47159668358
 20
10082.83743304369
 30
0.0
 40
120.0
 41
0.0
 71
     5
 72
     1
  1
\A1;110
  7
STYLE1
 73
     1
 44
1.0
1001
ACAD
1000
MTEXTBEGIN
1070
    73
1070
     1
1070
    44
1040
1.0
1070
    74
1070
     0
1000
MTEXTEND
  0
POINT
  5
18980
330
1808B
100
AcDbEntity
  8
DEFPOINTS
 62
     0
 48
50.0
100
AcDbPoint
 10
7835.471596683579
 20
9767.029213418641
 30
0.0
  0
POINT
  5
18981
330
1808B
100
AcDbEntity
  8
DEFPOINTS
 62
     0
 48
50.0
100
AcDbPoint
 10
7725.471596683579
 20
9767.029213418638
 30
0.0
  0
POINT
  5
18982
330
1808B
100
AcDbEntity
  8
DEFPOINTS
 62
     0
 48
50.0
100
AcDbPoint
 10
7725.471596683579
 20
9982.837433043689
 30
0.0
  0
ENDBLK
  5
18098
330
1808B
100
AcDbEntity
  8
0
 48
50.0
100
AcDbBlockEnd
  0
BLOCK
  5
180A3
330
18099
100
AcDbEntity
  8
0
 48
50.0
100
AcDbBlockBegin
  2
*D10
 70
     1
 10
0.0
 20
0.0
 30
0.0
  3
*D10
  1

  0
LINE
  5
182CA
330
18099
100
AcDbEntity
  8
寸法
 62
     0
 48
50.0
370
    -2
100
AcDbLine
 10
7835.471596683568
 20
7537.029213418588
 30
0.0
 11
7835.471596683568
 21
6962.598442652424
 31
0.0
  0
LINE
  5
182CB
330
18099
100
AcDbEntity
  8
寸法
 62
     0
 48
50.0
370
    -2
100
AcDbLine
 10
7725.471596683556
 20
7537.029213418676
 30
0.0
 11
7725.471596683556
 21
6962.598442652424
 31
0.0
  0
LINE
  5
182CC
330
18099
100
AcDbEntity
  8
寸法
 62
     0
 48
50.0
370
    -2
100
AcDbLine
 10
7835.471596683568
 20
7022.598442652423
 30
0.0
 11
7725.471596683556
 21
7022.598442652423
 31
0.0
  0
MTEXT
  5
182CD
330
18099
100
AcDbEntity
  8
寸法
 62
     7
 48
50.0
100
AcDbMText
 10
7780.471596683561
 20
6870.906547616193
 30
0.0
 40
120.0
 41
0.0
 71
     5
 72
     1
  1
\A1;110
  7
STYLE1
 73
     1
 44
1.0
1001
ACAD
1000
MTEXTBEGIN
1070
    73
1070
     1
1070
    44
1040
1.0
1070
    74
1070
     0
1000
MTEXTEND
  0
INSERT
  5
182CE
330
18099
100
AcDbEntity
  8
寸法
 62
     0
 48
50.0
370
    -2
100
AcDbBlockReference
  2
_DOTSMALL
 10
7835.471596683568
 20
7022.598442652423
 30
0.0
 41
100.0
 42
100.0
 43
100.0
  0
INSERT
  5
182CF
330
18099
100
AcDbEntity
  8
寸法
 62
     0
 48
50.0
370
    -2
100
AcDbBlockReference
  2
_DOTSMALL
 10
7725.471596683556
 20
7022.598442652423
 30
0.0
 41
100.0
 42
100.0
 43
100.0
 50
180.0
  0
POINT
  5
182D0
330
18099
100
AcDbEntity
  8
DEFPOINTS
 62
     0
 48
50.0
100
AcDbPoint
 10
7835.471596683568
 20
7557.029213418586
 30
0.0
  0
POINT
  5
182D1
330
18099
100
AcDbEntity
  8
DEFPOINTS
 62
     0
 48
50.0
100
AcDbPoint
 10
7725.471596683556
 20
7557.029213418674
 30
0.0
  0
POINT
  5
182D2
330
18099
100
AcDbEntity
  8
DEFPOINTS
 62
     0
 48
50.0
100
AcDbPoint
 10
7725.471596683556
 20
7022.598442652423
 30
0.0
  0
ENDBLK
  5
180A4
330
18099
100
AcDbEntity
  8
0
 48
50.0
100
AcDbBlockEnd
  0
BLOCK
  5
180B1
330
180A5
100
AcDbEntity
  8
0
 48
50.0
100
AcDbBlockBegin
  2
*D11
 70
     1
 10
0.0
 20
0.0
 30
0.0
  3
*D11
  1

  0
LINE
  5
182D3
330
180A5
100
AcDbEntity
  8
寸法
 62
     0
 48
50.0
370
    -2
100
AcDbLine
 10
2623.471596683572
 20
7563.029213418587
 30
0.0
 11
2623.471596683572
 21
6962.598442652423
 31
0.0
  0
LINE
  5
182D4
330
180A5
100
AcDbEntity
  8
寸法
 62
     0
 48
50.0
370
    -2
100
AcDbLine
 10
2575.471596683569
 20
7537.029213418588
 30
0.0
 11
2575.471596683569
 21
6962.598442652423
 31
0.0
  0
LINE
  5
182D5
330
180A5
100
AcDbEntity
  8
寸法
 62
     0
 48
50.0
370
    -2
100
AcDbLine
 10
2623.471596683572
 20
7022.598442652423
 30
0.0
 11
2723.471596683572
 21
7022.598442652423
 31
0.0
  0
LINE
  5
182D6
330
180A5
100
AcDbEntity
  8
寸法
 62
     0
 48
50.0
370
    -2
100
AcDbLine
 10
2575.471596683569
 20
7022.598442652423
 30
0.0
 11
2475.471596683568
 21
7022.598442652423
 31
0.0
  0
MTEXT
  5
182D7
330
180A5
100
AcDbEntity
  8
寸法
 62
     7
 48
50.0
100
AcDbMText
 10
2736.37356768363
 20
7122.598442652424
 30
0.0
 40
120.0
 41
0.0
 71
     5
 72
     1
  1
\A1;48
  7
STYLE1
 73
     1
 44
1.0
1001
ACAD
1000
MTEXTBEGIN
1070
    73
1070
     1
1070
    44
1040
1.0
1070
    74
1070
     0
1000
MTEXTEND
  0
LINE
  5
182D8
330
180A5
100
AcDbEntity
  8
寸法
 62
     0
 48
50.0
370
    -2
100
AcDbLine
 10
2623.471596683572
 20
7022.598442652423
 30
0.0
 11
2575.471596683569
 21
7022.598442652423
 31
0.0
  0
INSERT
  5
182D9
330
180A5
100
AcDbEntity
  8
寸法
 62
     0
 48
50.0
370
    -2
100
AcDbBlockReference
  2
_DOTSMALL
 10
2623.471596683572
 20
7022.598442652423
 30
0.0
 41
100.0
 42
100.0
 43
100.0
 50
180.0
  0
INSERT
  5
182DA
330
180A5
100
AcDbEntity
  8
寸法
 62
     0
 48
50.0
370
    -2
100
AcDbBlockReference
  2
_DOTSMALL
 10
2575.471596683569
 20
7022.598442652423
 30
0.0
 41
100.0
 42
100.0
 43
100.0
  0
POINT
  5
182DB
330
180A5
100
AcDbEntity
  8
DEFPOINTS
 62
     0
 48
50.0
100
AcDbPoint
 10
2623.471596683572
 20
7583.029213418587
 30
0.0
  0
POINT
  5
182DC
330
180A5
100
AcDbEntity
  8
DEFPOINTS
 62
     0
 48
50.0
100
AcDbPoint
 10
2575.471596683569
 20
7557.029213418586
 30
0.0
  0
POINT
  5
182DD
330
180A5
100
AcDbEntity
  8
DEFPOINTS
 62
     0
 48
50.0
100
AcDbPoint
 10
2575.471596683569
 20
7022.598442652423
 30
0.0
  0
ENDBLK
  5
180B2
330
180A5
100
AcDbEntity
  8
0
 48
50.0
100
AcDbBlockEnd
  0
BLOCK
  5
180BF
330
180B3
100
AcDbEntity
  8
0
 48
50.0
100
AcDbBlockBegin
  2
*D12
 70
     1
 10
0.0
 20
0.0
 30
0.0
  3
*D12
  1

  0
LINE
  5
182DE
330
180B3
100
AcDbEntity
  8
寸法
 62
     0
 48
50.0
370
    -2
100
AcDbLine
 10
7725.471596683556
 20
7537.029213418676
 30
0.0
 11
7725.471596683556
 21
6962.598442652423
 31
0.0
  0
LINE
  5
182DF
330
180B3
100
AcDbEntity
  8
寸法
 62
     0
 48
50.0
370
    -2
100
AcDbLine
 10
7677.471596683554
 20
7563.029213418587
 30
0.0
 11
7677.471596683554
 21
6962.598442652423
 31
0.0
  0
LINE
  5
182E0
330
180B3
100
AcDbEntity
  8
寸法
 62
     0
 48
50.0
370
    -2
100
AcDbLine
 10
7725.471596683556
 20
7022.598442652423
 30
0.0
 11
7825.471596683556
 21
7022.598442652423
 31
0.0
  0
LINE
  5
182E1
330
180B3
100
AcDbEntity
  8
寸法
 62
     0
 48
50.0
370
    -2
100
AcDbLine
 10
7677.471596683554
 20
7022.598442652423
 30
0.0
 11
7577.471596683555
 21
7022.598442652423
 31
0.0
  0
MTEXT
  5
182E2
330
180B3
100
AcDbEntity
  8
寸法
 62
     7
 48
50.0
100
AcDbMText
 10
7566.508699034805
 20
7122.598442652424
 30
0.0
 40
120.0
 41
0.0
 71
     5
 72
     1
  1
\A1;48
  7
STYLE1
 73
     1
 44
1.0
1001
ACAD
1000
MTEXTBEGIN
1070
    73
1070
     1
1070
    44
1040
1.0
1070
    74
1070
     0
1000
MTEXTEND
  0
LINE
  5
182E3
330
180B3
100
AcDbEntity
  8
寸法
 62
     0
 48
50.0
370
    -2
100
AcDbLine
 10
7725.471596683556
 20
7022.598442652423
 30
0.0
 11
7677.471596683554
 21
7022.598442652423
 31
0.0
  0
INSERT
  5
182E4
330
180B3
100
AcDbEntity
  8
寸法
 62
     0
 48
50.0
370
    -2
100
AcDbBlockReference
  2
_DOTSMALL
 10
7725.471596683556
 20
7022.598442652423
 30
0.0
 41
100.0
 42
100.0
 43
100.0
 50
180.0
  0
INSERT
  5
182E5
330
180B3
100
AcDbEntity
  8
寸法
 62
     0
 48
50.0
370
    -2
100
AcDbBlockReference
  2
_DOTSMALL
 10
7677.471596683554
 20
7022.598442652423
 30
0.0
 41
100.0
 42
100.0
 43
100.0
  0
POINT
  5
182E6
330
180B3
100
AcDbEntity
  8
DEFPOINTS
 62
     0
 48
50.0
100
AcDbPoint
 10
7725.471596683556
 20
7557.029213418674
 30
0.0
  0
POINT
  5
182E7
330
180B3
100
AcDbEntity
  8
DEFPOINTS
 62
     0
 48
50.0
100
AcDbPoint
 10
7677.471596683554
 20
7583.029213418588
 30
0.0
  0
POINT
  5
182E8
330
180B3
100
AcDbEntity
  8
DEFPOINTS
 62
     0
 48
50.0
100
AcDbPoint
 10
7677.471596683554
 20
7022.598442652423
 30
0.0
  0
ENDBLK
  5
180C0
330
180B3
100
AcDbEntity
  8
0
 48
50.0
100
AcDbBlockEnd
  0
BLOCK
  5
180CD
330
180C1
100
AcDbEntity
  8
0
 48
50.0
100
AcDbBlockBegin
  2
*D13
 70
     1
 10
0.0
 20
0.0
 30
0.0
  3
*D13
  1

  0
LINE
  5
18983
330
180C1
100
AcDbEntity
  8
寸法
 62
     0
 48
50.0
370
    -2
100
AcDbLine
 10
10355.47159668358
 20
9787.029213418685
 30
0.0
 11
10355.47159668358
 21
10042.83743304367
 31
0.0
  0
LINE
  5
18984
330
180C1
100
AcDbEntity
  8
寸法
 62
     0
 48
50.0
370
    -2
100
AcDbLine
 10
10410.47159668358
 20
9787.029213418685
 30
0.0
 11
10410.47159668358
 21
10042.83743304367
 31
0.0
  0
LINE
  5
18985
330
180C1
100
AcDbEntity
  8
寸法
 62
     0
 48
50.0
370
    -2
100
AcDbLine
 10
10355.47159668358
 20
9982.837433043671
 30
0.0
 11
10255.47159668358
 21
9982.837433043671
 31
0.0
  0
LINE
  5
18986
330
180C1
100
AcDbEntity
  8
寸法
 62
     0
 48
50.0
370
    -2
100
AcDbLine
 10
10410.47159668358
 20
9982.837433043671
 30
0.0
 11
10827.44215943205
 21
9982.837433043671
 31
0.0
  0
LINE
  5
18987
330
180C1
100
AcDbEntity
  8
寸法
 62
     0
 48
50.0
370
    -2
100
AcDbLine
 10
10355.47159668358
 20
9982.837433043671
 30
0.0
 11
10410.47159668358
 21
9982.837433043671
 31
0.0
  0
INSERT
  5
18988
330
180C1
100
AcDbEntity
  8
寸法
 62
     0
 48
50.0
370
    -2
100
AcDbBlockReference
  2
_DOTSMALL
 10
10355.47159668358
 20
9982.837433043671
 30
0.0
 41
100.0
 42
100.0
 43
100.0
  0
INSERT
  5
18989
330
180C1
100
AcDbEntity
  8
寸法
 62
     0
 48
50.0
370
    -2
100
AcDbBlockReference
  2
_DOTSMALL
 10
10410.47159668358
 20
9982.837433043671
 30
0.0
 41
100.0
 42
100.0
 43
100.0
 50
180.0
  0
MTEXT
  5
1898A
330
180C1
100
AcDbEntity
  8
寸法
 62
     7
 48
50.0
100
AcDbMText
 10
10718.95687805781
 20
10082.83743304367
 30
0.0
 40
120.0
 41
0.0
 71
     5
 72
     1
  1
\A1;55
  7
STYLE1
 73
     1
 44
1.0
1001
ACAD
1000
MTEXTBEGIN
1070
    73
1070
     1
1070
    44
1040
1.0
1070
    74
1070
     0
1000
MTEXTEND
  0
POINT
  5
1898B
330
180C1
100
AcDbEntity
  8
DEFPOINTS
 62
     0
 48
50.0
100
AcDbPoint
 10
10355.47159668358
 20
9767.029213418688
 30
0.0
  0
POINT
  5
1898C
330
180C1
100
AcDbEntity
  8
DEFPOINTS
 62
     0
 48
50.0
100
AcDbPoint
 10
10410.47159668358
 20
9767.029213418688
 30
0.0
  0
POINT
  5
1898D
330
180C1
100
AcDbEntity
  8
DEFPOINTS
 62
     0
 48
50.0
100
AcDbPoint
 10
10410.47159668358
 20
9982.837433043671
 30
0.0
  0
ENDBLK
  5
180CE
330
180C1
100
AcDbEntity
  8
0
 48
50.0
100
AcDbBlockEnd
  0
BLOCK
  5
180DB
330
180CF
100
AcDbEntity
  8
0
 48
50.0
100
AcDbBlockBegin
  2
*D14
 70
     1
 10
0.0
 20
0.0
 30
0.0
  3
*D14
  1

  0
LINE
  5
1898E
330
180CF
100
AcDbEntity
  8
寸法
 62
     0
 48
50.0
370
    -2
100
AcDbLine
 10
2520.471596683543
 20
9787.029213418591
 30
0.0
 11
2520.471596683543
 21
10042.83743304357
 31
0.0
  0
LINE
  5
1898F
330
180CF
100
AcDbEntity
  8
寸法
 62
     0
 48
50.0
370
    -2
100
AcDbLine
 10
2575.471596683579
 20
9787.029213418591
 30
0.0
 11
2575.471596683579
 21
10042.83743304357
 31
0.0
  0
LINE
  5
18990
330
180CF
100
AcDbEntity
  8
寸法
 62
     0
 48
50.0
370
    -2
100
AcDbLine
 10
2575.471596683579
 20
9982.837433043574
 30
0.0
 11
2675.471596683579
 21
9982.837433043574
 31
0.0
  0
LINE
  5
18991
330
180CF
100
AcDbEntity
  8
寸法
 62
     0
 48
50.0
370
    -2
100
AcDbLine
 10
2520.471596683543
 20
9982.837433043574
 30
0.0
 11
2103.501033935064
 21
9982.837433043574
 31
0.0
  0
LINE
  5
18992
330
180CF
100
AcDbEntity
  8
寸法
 62
     0
 48
50.0
370
    -2
100
AcDbLine
 10
2575.471596683579
 20
9982.837433043574
 30
0.0
 11
2520.471596683543
 21
9982.837433043574
 31
0.0
  0
INSERT
  5
18993
330
180CF
100
AcDbEntity
  8
寸法
 62
     0
 48
50.0
370
    -2
100
AcDbBlockReference
  2
_DOTSMALL
 10
2575.471596683579
 20
9982.837433043574
 30
0.0
 41
100.0
 42
100.0
 43
100.0
 50
180.0
  0
INSERT
  5
18994
330
180CF
100
AcDbEntity
  8
寸法
 62
     0
 48
50.0
370
    -2
100
AcDbBlockReference
  2
_DOTSMALL
 10
2520.471596683543
 20
9982.837433043574
 30
0.0
 41
100.0
 42
100.0
 43
100.0
  0
MTEXT
  5
18995
330
180CF
100
AcDbEntity
  8
寸法
 62
     7
 48
50.0
100
AcDbMText
 10
2211.986315309303
 20
10082.83743304357
 30
0.0
 40
120.0
 41
0.0
 71
     5
 72
     1
  1
\A1;55
  7
STYLE1
 73
     1
 44
1.0
1001
ACAD
1000
MTEXTBEGIN
1070
    73
1070
     1
1070
    44
1040
1.0
1070
    74
1070
     0
1000
MTEXTEND
  0
POINT
  5
18996
330
180CF
100
AcDbEntity
  8
DEFPOINTS
 62
     0
 48
50.0
100
AcDbPoint
 10
2520.471596683543
 20
9767.029213418592
 30
0.0
  0
POINT
  5
18997
330
180CF
100
AcDbEntity
  8
DEFPOINTS
 62
     0
 48
50.0
100
AcDbPoint
 10
2575.471596683579
 20
9767.029213418592
 30
0.0
  0
POINT
  5
18998
330
180CF
100
AcDbEntity
  8
DEFPOINTS
 62
     0
 48
50.0
100
AcDbPoint
 10
2575.471596683579
 20
9982.837433043574
 30
0.0
  0
ENDBLK
  5
180DC
330
180CF
100
AcDbEntity
  8
0
 48
50.0
100
AcDbBlockEnd
  0
BLOCK
  5
180E7
330
180DD
100
AcDbEntity
  8
0
 48
50.0
100
AcDbBlockBegin
  2
*D15
 70
     1
 10
0.0
 20
0.0
 30
0.0
  3
*D15
  1

  0
LINE
  5
18999
330
180DD
100
AcDbEntity
  8
寸法
 62
     0
 48
50.0
370
    -2
100
AcDbLine
 10
7835.471596683579
 20
9787.029213418591
 30
0.0
 11
7835.471596683579
 21
10042.83743304369
 31
0.0
  0
LINE
  5
1899A
330
180DD
100
AcDbEntity
  8
寸法
 62
     0
 48
50.0
370
    -2
100
AcDbLine
 10
10355.47159668358
 20
9787.029213418685
 30
0.0
 11
10355.47159668358
 21
10042.83743304369
 31
0.0
  0
LINE
  5
1899B
330
180DD
100
AcDbEntity
  8
寸法
 62
     0
 48
50.0
370
    -2
100
AcDbLine
 10
7835.471596683579
 20
9982.837433043689
 30
0.0
 11
10355.47159668358
 21
9982.837433043689
 31
0.0
  0
INSERT
  5
1899C
330
180DD
100
AcDbEntity
  8
寸法
 62
     0
 48
50.0
370
    -2
100
AcDbBlockReference
  2
_DOTSMALL
 10
7835.471596683579
 20
9982.837433043689
 30
0.0
 41
100.0
 42
100.0
 43
100.0
 50
180.0
  0
INSERT
  5
1899D
330
180DD
100
AcDbEntity
  8
寸法
 62
     0
 48
50.0
370
    -2
100
AcDbBlockReference
  2
_DOTSMALL
 10
10355.47159668358
 20
9982.837433043689
 30
0.0
 41
100.0
 42
100.0
 43
100.0
  0
MTEXT
  5
1899E
330
180DD
100
AcDbEntity
  8
寸法
 62
     7
 48
50.0
100
AcDbMText
 10
9095.471596683578
 20
10082.84924406731
 30
0.0
 40
120.0
 41
0.0
 71
     5
 72
     1
  1
\A1;6X420=2520
  7
STYLE1
 73
     1
 44
1.0
1001
ACAD
1000
MTEXTBEGIN
1070
    73
1070
     1
1070
    44
1040
1.0
1070
    74
1070
     0
1000
MTEXTEND
  0
POINT
  5
1899F
330
180DD
100
AcDbEntity
  8
DEFPOINTS
 62
     0
 48
50.0
100
AcDbPoint
 10
7835.471596683579
 20
9767.029213418592
 30
0.0
  0
POINT
  5
189A0
330
180DD
100
AcDbEntity
  8
DEFPOINTS
 62
     0
 48
50.0
100
AcDbPoint
 10
10355.47159668358
 20
9767.029213418688
 30
0.0
  0
POINT
  5
189A1
330
180DD
100
AcDbEntity
  8
DEFPOINTS
 62
     0
 48
50.0
100
AcDbPoint
 10
10355.47159668358
 20
9982.837433043689
 30
0.0
  0
ENDBLK
  5
180E8
330
180DD
100
AcDbEntity
  8
0
 48
50.0
100
AcDbBlockEnd
  0
BLOCK
  5
180F5
330
180E9
100
AcDbEntity
  8
0
 48
50.0
100
AcDbBlockBegin
  2
*D16
 70
     1
 10
0.0
 20
0.0
 30
0.0
  3
*D16
  1

  0
LINE
  5
18308
330
180E9
100
AcDbEntity
  8
寸法
 62
     0
 48
50.0
370
    -2
100
AcDbLine
 10
10410.47159668355
 20
7537.029213418678
 30
0.0
 11
10410.47159668355
 21
6962.598442652424
 31
0.0
  0
LINE
  5
18309
330
180E9
100
AcDbEntity
  8
寸法
 62
     0
 48
50.0
370
    -2
100
AcDbLine
 10
10355.47159668355
 20
7537.029213418676
 30
0.0
 11
10355.47159668355
 21
6962.598442652424
 31
0.0
  0
LINE
  5
1830A
330
180E9
100
AcDbEntity
  8
寸法
 62
     0
 48
50.0
370
    -2
100
AcDbLine
 10
10355.47159668355
 20
7022.598442652423
 30
0.0
 11
10255.47159668355
 21
7022.598442652423
 31
0.0
  0
LINE
  5
1830B
330
180E9
100
AcDbEntity
  8
寸法
 62
     0
 48
50.0
370
    -2
100
AcDbLine
 10
10410.47159668355
 20
7022.598442652423
 30
0.0
 11
10827.44215943203
 21
7022.598442652423
 31
0.0
  0
LINE
  5
1830C
330
180E9
100
AcDbEntity
  8
寸法
 62
     0
 48
50.0
370
    -2
100
AcDbLine
 10
10355.47159668355
 20
7022.598442652423
 30
0.0
 11
10410.47159668355
 21
7022.598442652423
 31
0.0
  0
INSERT
  5
1830D
330
180E9
100
AcDbEntity
  8
寸法
 62
     0
 48
50.0
370
    -2
100
AcDbBlockReference
  2
_DOTSMALL
 10
10355.47159668355
 20
7022.598442652423
 30
0.0
 41
100.0
 42
100.0
 43
100.0
  0
INSERT
  5
1830E
330
180E9
100
AcDbEntity
  8
寸法
 62
     0
 48
50.0
370
    -2
100
AcDbBlockReference
  2
_DOTSMALL
 10
10410.47159668355
 20
7022.598442652423
 30
0.0
 41
100.0
 42
100.0
 43
100.0
 50
180.0
  0
MTEXT
  5
1830F
330
180E9
100
AcDbEntity
  8
寸法
 62
     7
 48
50.0
100
AcDbMText
 10
10718.95687805779
 20
7122.598442652424
 30
0.0
 40
120.0
 41
0.0
 71
     5
 72
     1
  1
\A1;55
  7
STYLE1
 73
     1
 44
1.0
1001
ACAD
1000
MTEXTBEGIN
1070
    73
1070
     1
1070
    44
1040
1.0
1070
    74
1070
     0
1000
MTEXTEND
  0
POINT
  5
18310
330
180E9
100
AcDbEntity
  8
DEFPOINTS
 62
     0
 48
50.0
100
AcDbPoint
 10
10410.47159668355
 20
7557.029213418679
 30
0.0
  0
POINT
  5
18311
330
180E9
100
AcDbEntity
  8
DEFPOINTS
 62
     0
 48
50.0
100
AcDbPoint
 10
10355.47159668355
 20
7557.029213418674
 30
0.0
  0
POINT
  5
18312
330
180E9
100
AcDbEntity
  8
DEFPOINTS
 62
     0
 48
50.0
100
AcDbPoint
 10
10355.47159668355
 20
7022.598442652423
 30
0.0
  0
ENDBLK
  5
180F6
330
180E9
100
AcDbEntity
  8
0
 48
50.0
100
AcDbBlockEnd
  0
BLOCK
  5
18103
330
180F7
100
AcDbEntity
  8
0
 48
50.0
100
AcDbBlockBegin
  2
*D17
 70
     1
 10
0.0
 20
0.0
 30
0.0
  3
*D17
  1

  0
LINE
  5
18313
330
180F7
100
AcDbEntity
  8
寸法
 62
     0
 48
50.0
370
    -2
100
AcDbLine
 10
10355.47159668355
 20
7537.029213418676
 30
0.0
 11
10355.47159668355
 21
6962.598442652423
 31
0.0
  0
LINE
  5
18314
330
180F7
100
AcDbEntity
  8
寸法
 62
     0
 48
50.0
370
    -2
100
AcDbLine
 10
10307.47159668355
 20
7563.029213418587
 30
0.0
 11
10307.47159668355
 21
6962.598442652423
 31
0.0
  0
LINE
  5
18315
330
180F7
100
AcDbEntity
  8
寸法
 62
     0
 48
50.0
370
    -2
100
AcDbLine
 10
10355.47159668355
 20
7022.598442652423
 30
0.0
 11
10455.47159668355
 21
7022.598442652423
 31
0.0
  0
LINE
  5
18316
330
180F7
100
AcDbEntity
  8
寸法
 62
     0
 48
50.0
370
    -2
100
AcDbLine
 10
10307.47159668355
 20
7022.598442652423
 30
0.0
 11
10207.47159668355
 21
7022.598442652423
 31
0.0
  0
MTEXT
  5
18317
330
180F7
100
AcDbEntity
  8
寸法
 62
     7
 48
50.0
100
AcDbMText
 10
10196.5086990348
 20
7122.598442652424
 30
0.0
 40
120.0
 41
0.0
 71
     5
 72
     1
  1
\A1;48
  7
STYLE1
 73
     1
 44
1.0
1001
ACAD
1000
MTEXTBEGIN
1070
    73
1070
     1
1070
    44
1040
1.0
1070
    74
1070
     0
1000
MTEXTEND
  0
LINE
  5
18318
330
180F7
100
AcDbEntity
  8
寸法
 62
     0
 48
50.0
370
    -2
100
AcDbLine
 10
10355.47159668355
 20
7022.598442652423
 30
0.0
 11
10307.47159668355
 21
7022.598442652423
 31
0.0
  0
INSERT
  5
18319
330
180F7
100
AcDbEntity
  8
寸法
 62
     0
 48
50.0
370
    -2
100
AcDbBlockReference
  2
_DOTSMALL
 10
10355.47159668355
 20
7022.598442652423
 30
0.0
 41
100.0
 42
100.0
 43
100.0
 50
180.0
  0
INSERT
  5
1831A
330
180F7
100
AcDbEntity
  8
寸法
 62
     0
 48
50.0
370
    -2
100
AcDbBlockReference
  2
_DOTSMALL
 10
10307.47159668355
 20
7022.598442652423
 30
0.0
 41
100.0
 42
100.0
 43
100.0
  0
POINT
  5
1831B
330
180F7
100
AcDbEntity
  8
DEFPOINTS
 62
     0
 48
50.0
100
AcDbPoint
 10
10355.47159668355
 20
7557.029213418674
 30
0.0
  0
POINT
  5
1831C
330
180F7
100
AcDbEntity
  8
DEFPOINTS
 62
     0
 48
50.0
100
AcDbPoint
 10
10307.47159668355
 20
7583.029213418588
 30
0.0
  0
POINT
  5
1831D
330
180F7
100
AcDbEntity
  8
DEFPOINTS
 62
     0
 48
50.0
100
AcDbPoint
 10
10307.47159668355
 20
7022.598442652423
 30
0.0
  0
ENDBLK
  5
18104
330
180F7
100
AcDbEntity
  8
0
 48
50.0
100
AcDbBlockEnd
  0
BLOCK
  5
18111
330
18105
100
AcDbEntity
  8
0
 48
50.0
100
AcDbBlockBegin
  2
*D18
 70
     1
 10
0.0
 20
0.0
 30
0.0
  3
*D18
  1

  0
LINE
  5
1831E
330
18105
100
AcDbEntity
  8
寸法
 62
     0
 48
50.0
370
    -2
100
AcDbLine
 10
7883.471596683572
 20
7563.029213418587
 30
0.0
 11
7883.471596683572
 21
6962.598442652423
 31
0.0
  0
LINE
  5
1831F
330
18105
100
AcDbEntity
  8
寸法
 62
     0
 48
50.0
370
    -2
100
AcDbLine
 10
7835.471596683568
 20
7537.029213418588
 30
0.0
 11
7835.471596683568
 21
6962.598442652423
 31
0.0
  0
LINE
  5
18320
330
18105
100
AcDbEntity
  8
寸法
 62
     0
 48
50.0
370
    -2
100
AcDbLine
 10
7883.471596683572
 20
7022.598442652423
 30
0.0
 11
7983.471596683571
 21
7022.598442652423
 31
0.0
  0
LINE
  5
18321
330
18105
100
AcDbEntity
  8
寸法
 62
     0
 48
50.0
370
    -2
100
AcDbLine
 10
7835.471596683568
 20
7022.598442652423
 30
0.0
 11
7735.471596683568
 21
7022.598442652423
 31
0.0
  0
MTEXT
  5
18322
330
18105
100
AcDbEntity
  8
寸法
 62
     7
 48
50.0
100
AcDbMText
 10
7996.37356768363
 20
7122.598442652424
 30
0.0
 40
120.0
 41
0.0
 71
     5
 72
     1
  1
\A1;48
  7
STYLE1
 73
     1
 44
1.0
1001
ACAD
1000
MTEXTBEGIN
1070
    73
1070
     1
1070
    44
1040
1.0
1070
    74
1070
     0
1000
MTEXTEND
  0
LINE
  5
18323
330
18105
100
AcDbEntity
  8
寸法
 62
     0
 48
50.0
370
    -2
100
AcDbLine
 10
7883.471596683572
 20
7022.598442652423
 30
0.0
 11
7835.471596683568
 21
7022.598442652423
 31
0.0
  0
INSERT
  5
18324
330
18105
100
AcDbEntity
  8
寸法
 62
     0
 48
50.0
370
    -2
100
AcDbBlockReference
  2
_DOTSMALL
 10
7883.471596683572
 20
7022.598442652423
 30
0.0
 41
100.0
 42
100.0
 43
100.0
 50
180.0
  0
INSERT
  5
18325
330
18105
100
AcDbEntity
  8
寸法
 62
     0
 48
50.0
370
    -2
100
AcDbBlockReference
  2
_DOTSMALL
 10
7835.471596683568
 20
7022.598442652423
 30
0.0
 41
100.0
 42
100.0
 43
100.0
  0
POINT
  5
18326
330
18105
100
AcDbEntity
  8
DEFPOINTS
 62
     0
 48
50.0
100
AcDbPoint
 10
7883.471596683572
 20
7583.029213418587
 30
0.0
  0
POINT
  5
18327
330
18105
100
AcDbEntity
  8
DEFPOINTS
 62
     0
 48
50.0
100
AcDbPoint
 10
7835.471596683568
 20
7557.029213418586
 30
0.0
  0
POINT
  5
18328
330
18105
100
AcDbEntity
  8
DEFPOINTS
 62
     0
 48
50.0
100
AcDbPoint
 10
7835.471596683568
 20
7022.598442652423
 30
0.0
  0
ENDBLK
  5
18112
330
18105
100
AcDbEntity
  8
0
 48
50.0
100
AcDbBlockEnd
  0
BLOCK
  5
1811F
330
18113
100
AcDbEntity
  8
0
 48
50.0
100
AcDbBlockBegin
  2
*D19
 70
     1
 10
0.0
 20
0.0
 30
0.0
  3
*D19
  1

  0
LINE
  5
18329
330
18113
100
AcDbEntity
  8
寸法
 62
     0
 48
50.0
370
    -2
100
AcDbLine
 10
2575.471596683569
 20
7537.029213418588
 30
0.0
 11
2575.471596683569
 21
6962.598442652423
 31
0.0
  0
LINE
  5
1832A
330
18113
100
AcDbEntity
  8
寸法
 62
     0
 48
50.0
370
    -2
100
AcDbLine
 10
2520.471596683572
 20
7537.029213418584
 30
0.0
 11
2520.471596683572
 21
6962.598442652423
 31
0.0
  0
LINE
  5
1832B
330
18113
100
AcDbEntity
  8
寸法
 62
     0
 48
50.0
370
    -2
100
AcDbLine
 10
2575.471596683569
 20
7022.598442652423
 30
0.0
 11
2675.471596683568
 21
7022.598442652423
 31
0.0
  0
LINE
  5
1832C
330
18113
100
AcDbEntity
  8
寸法
 62
     0
 48
50.0
370
    -2
100
AcDbLine
 10
2520.471596683572
 20
7022.598442652423
 30
0.0
 11
2103.501033935093
 21
7022.598442652423
 31
0.0
  0
LINE
  5
1832D
330
18113
100
AcDbEntity
  8
寸法
 62
     0
 48
50.0
370
    -2
100
AcDbLine
 10
2575.471596683569
 20
7022.598442652423
 30
0.0
 11
2520.471596683572
 21
7022.598442652423
 31
0.0
  0
INSERT
  5
1832E
330
18113
100
AcDbEntity
  8
寸法
 62
     0
 48
50.0
370
    -2
100
AcDbBlockReference
  2
_DOTSMALL
 10
2575.471596683569
 20
7022.598442652423
 30
0.0
 41
100.0
 42
100.0
 43
100.0
 50
180.0
  0
INSERT
  5
1832F
330
18113
100
AcDbEntity
  8
寸法
 62
     0
 48
50.0
370
    -2
100
AcDbBlockReference
  2
_DOTSMALL
 10
2520.471596683572
 20
7022.598442652423
 30
0.0
 41
100.0
 42
100.0
 43
100.0
  0
MTEXT
  5
18330
330
18113
100
AcDbEntity
  8
寸法
 62
     7
 48
50.0
100
AcDbMText
 10
2211.986315309332
 20
7122.598442652424
 30
0.0
 40
120.0
 41
0.0
 71
     5
 72
     1
  1
\A1;55
  7
STYLE1
 73
     1
 44
1.0
1001
ACAD
1000
MTEXTBEGIN
1070
    73
1070
     1
1070
    44
1040
1.0
1070
    74
1070
     0
1000
MTEXTEND
  0
POINT
  5
18331
330
18113
100
AcDbEntity
  8
DEFPOINTS
 62
     0
 48
50.0
100
AcDbPoint
 10
2575.471596683569
 20
7557.029213418586
 30
0.0
  0
POINT
  5
18332
330
18113
100
AcDbEntity
  8
DEFPOINTS
 62
     0
 48
50.0
100
AcDbPoint
 10
2520.471596683572
 20
7557.029213418584
 30
0.0
  0
POINT
  5
18333
330
18113
100
AcDbEntity
  8
DEFPOINTS
 62
     0
 48
50.0
100
AcDbPoint
 10
2520.471596683572
 20
7022.598442652423
 30
0.0
  0
ENDBLK
  5
18120
330
18113
100
AcDbEntity
  8
0
 48
50.0
100
AcDbBlockEnd
  0
BLOCK
  5
1812B
330
18121
100
AcDbEntity
  8
0
 48
50.0
100
AcDbBlockBegin
  2
*D20
 70
     1
 10
0.0
 20
0.0
 30
0.0
  3
*D20
  1

  0
LINE
  5
18334
330
18121
100
AcDbEntity
  8
寸法
 62
     0
 48
50.0
370
    -2
100
AcDbLine
 10
2520.471596683572
 20
7537.029213418584
 30
0.0
 11
2520.471596683572
 21
6516.425447061549
 31
0.0
  0
LINE
  5
18335
330
18121
100
AcDbEntity
  8
寸法
 62
     0
 48
50.0
370
    -2
100
AcDbLine
 10
10410.47159668354
 20
7537.029213418678
 30
0.0
 11
10410.47159668354
 21
6516.425447061549
 31
0.0
  0
LINE
  5
18336
330
18121
100
AcDbEntity
  8
寸法
 62
     0
 48
50.0
370
    -2
100
AcDbLine
 10
2520.471596683572
 20
6576.425447061549
 30
0.0
 11
10410.47159668354
 21
6576.425447061549
 31
0.0
  0
INSERT
  5
18337
330
18121
100
AcDbEntity
  8
寸法
 62
     0
 48
50.0
370
    -2
100
AcDbBlockReference
  2
_DOTSMALL
 10
2520.471596683572
 20
6576.425447061549
 30
0.0
 41
100.0
 42
100.0
 43
100.0
 50
180.0
  0
INSERT
  5
18338
330
18121
100
AcDbEntity
  8
寸法
 62
     0
 48
50.0
370
    -2
100
AcDbBlockReference
  2
_DOTSMALL
 10
10410.47159668354
 20
6576.425447061549
 30
0.0
 41
100.0
 42
100.0
 43
100.0
  0
MTEXT
  5
18339
330
18121
100
AcDbEntity
  8
寸法
 62
     7
 48
50.0
100
AcDbMText
 10
6465.471596683558
 20
6676.43725808517
 30
0.0
 40
120.0
 41
0.0
 71
     5
 72
     1
  1
\A1;N X 2630
  7
STYLE1
 73
     1
 44
1.0
1001
ACAD
1000
MTEXTBEGIN
1070
    73
1070
     1
1070
    44
1040
1.0
1070
    74
1070
     0
1000
MTEXTEND
  0
POINT
  5
1833A
330
18121
100
AcDbEntity
  8
DEFPOINTS
 62
     0
 48
50.0
100
AcDbPoint
 10
2520.471596683572
 20
7557.029213418584
 30
0.0
  0
POINT
  5
1833B
330
18121
100
AcDbEntity
  8
DEFPOINTS
 62
     0
 48
50.0
100
AcDbPoint
 10
10410.47159668354
 20
7557.029213418679
 30
0.0
  0
POINT
  5
1833C
330
18121
100
AcDbEntity
  8
DEFPOINTS
 62
     0
 48
50.0
100
AcDbPoint
 10
10410.47159668354
 20
6576.425447061549
 30
0.0
  0
ENDBLK
  5
1812C
330
18121
100
AcDbEntity
  8
0
 48
50.0
100
AcDbBlockEnd
  0
BLOCK
  5
18136
330
1812D
100
AcDbEntity
  8
0
 48
50.0
100
AcDbBlockBegin
  2
*D21
 70
     1
 10
0.0
 20
0.0
 30
0.0
  3
*D21
  1

  0
LINE
  5
1833D
330
1812D
100
AcDbEntity
  8
寸法
 62
     0
 48
50.0
370
    -2
100
AcDbLine
 10
7883.471596683572
 20
7563.029213418587
 30
0.0
 11
7883.471596683572
 21
6962.598442652423
 31
0.0
  0
LINE
  5
1833E
330
1812D
100
AcDbEntity
  8
寸法
 62
     0
 48
50.0
370
    -2
100
AcDbLine
 10
10307.47159668355
 20
7022.598442652423
 30
0.0
 11
7883.471596683572
 21
7022.598442652423
 31
0.0
  0
INSERT
  5
1833F
330
1812D
100
AcDbEntity
  8
寸法
 62
     0
 48
50.0
370
    -2
100
AcDbBlockReference
  2
_DOTSMALL
 10
10307.47159668355
 20
7022.598442652423
 30
0.0
 41
100.0
 42
100.0
 43
100.0
  0
INSERT
  5
18340
330
1812D
100
AcDbEntity
  8
寸法
 62
     0
 48
50.0
370
    -2
100
AcDbBlockReference
  2
_DOTSMALL
 10
7883.471596683572
 20
7022.598442652423
 30
0.0
 41
100.0
 42
100.0
 43
100.0
 50
180.0
  0
MTEXT
  5
18341
330
1812D
100
AcDbEntity
  8
寸法
 62
     7
 48
50.0
100
AcDbMText
 10
9095.471596683564
 20
7122.610253676045
 30
0.0
 40
120.0
 41
0.0
 71
     5
 72
     1
  1
\A1;有効開口部間口 2424
  7
STYLE1
 73
     1
 44
1.0
1001
ACAD
1000
MTEXTBEGIN
1070
    73
1070
     1
1070
    44
1040
1.0
1070
    74
1070
     0
1000
MTEXTEND
  0
POINT
  5
18342
330
1812D
100
AcDbEntity
  8
DEFPOINTS
 62
     0
 48
50.0
100
AcDbPoint
 10
10307.47159668355
 20
7583.029213418588
 30
0.0
  0
POINT
  5
18343
330
1812D
100
AcDbEntity
  8
DEFPOINTS
 62
     0
 48
50.0
100
AcDbPoint
 10
7883.471596683572
 20
7583.029213418587
 30
0.0
  0
POINT
  5
18344
330
1812D
100
AcDbEntity
  8
DEFPOINTS
 62
     0
 48
50.0
100
AcDbPoint
 10
7883.471596683572
 20
7022.598442652423
 30
0.0
  0
ENDBLK
  5
18137
330
1812D
100
AcDbEntity
  8
0
 48
50.0
100
AcDbBlockEnd
  0
BLOCK
  5
18142
330
18138
100
AcDbEntity
  8
0
 48
50.0
100
AcDbBlockBegin
  2
*D22
 70
     1
 10
0.0
 20
0.0
 30
0.0
  3
*D22
  1

  0
LINE
  5
189A2
330
18138
100
AcDbEntity
  8
寸法
 62
     0
 48
50.0
370
    -2
100
AcDbLine
 10
10430.47159668358
 20
9767.029213418688
 30
0.0
 11
11483.00488415762
 21
9767.029213418688
 31
0.0
  0
LINE
  5
189A3
330
18138
100
AcDbEntity
  8
寸法
 62
     0
 48
50.0
370
    -2
100
AcDbLine
 10
10430.47159668355
 20
7557.029213418679
 30
0.0
 11
11483.00488415762
 21
7557.029213418679
 31
0.0
  0
LINE
  5
189A4
330
18138
100
AcDbEntity
  8
寸法
 62
     0
 48
50.0
370
    -2
100
AcDbLine
 10
11423.00488415762
 20
9767.029213418688
 30
0.0
 11
11423.00488415762
 21
7557.029213418679
 31
0.0
  0
INSERT
  5
189A5
330
18138
100
AcDbEntity
  8
寸法
 62
     0
 48
50.0
370
    -2
100
AcDbBlockReference
  2
_DOTSMALL
 10
11423.00488415762
 20
9767.029213418688
 30
0.0
 41
100.0
 42
100.0
 43
100.0
 50
90.0
  0
INSERT
  5
189A6
330
18138
100
AcDbEntity
  8
寸法
 62
     0
 48
50.0
370
    -2
100
AcDbBlockReference
  2
_DOTSMALL
 10
11423.00488415762
 20
7557.029213418679
 30
0.0
 41
100.0
 42
100.0
 43
100.0
 50
270.0
  0
MTEXT
  5
189A7
330
18138
100
AcDbEntity
  8
寸法
 62
     7
 48
50.0
100
AcDbMText
 10
11322.993073134
 20
8662.029213418684
 30
0.0
 40
120.0
 41
0.0
 71
     5
 72
     1
  1
\A1;2210
  7
STYLE1
 11
0.0000000000000001
 21
1.0
 31
0.0
 73
     1
 44
1.0
1001
ACAD
1000
MTEXTBEGIN
1070
    73
1070
     1
1070
    44
1040
1.0
1070
    74
1070
     0
1000
MTEXTEND
  0
POINT
  5
189A8
330
18138
100
AcDbEntity
  8
DEFPOINTS
 62
     0
 48
50.0
100
AcDbPoint
 10
10410.47159668358
 20
9767.029213418688
 30
0.0
  0
POINT
  5
189A9
330
18138
100
AcDbEntity
  8
DEFPOINTS
 62
     0
 48
50.0
100
AcDbPoint
 10
10410.47159668355
 20
7557.029213418679
 30
0.0
  0
POINT
  5
189AA
330
18138
100
AcDbEntity
  8
DEFPOINTS
 62
     0
 48
50.0
100
AcDbPoint
 10
11423.00488415762
 20
7557.029213418679
 30
0.0
  0
ENDBLK
  5
18143
330
18138
100
AcDbEntity
  8
0
 48
50.0
100
AcDbBlockEnd
  0
BLOCK
  5
18150
330
18144
100
AcDbEntity
  8
0
 48
50.0
100
AcDbBlockBegin
  2
*D23
 70
     1
 10
0.0
 20
0.0
 30
0.0
  3
*D23
  1

  0
LINE
  5
189AB
330
18144
100
AcDbEntity
  8
寸法
 62
     0
 48
50.0
370
    -2
100
AcDbLine
 10
10430.47159668358
 20
9767.029213418688
 30
0.0
 11
11117.89794241799
 21
9767.029213418688
 31
0.0
  0
LINE
  5
189AC
330
18144
100
AcDbEntity
  8
寸法
 62
     0
 48
50.0
370
    -2
100
AcDbLine
 10
10430.47159668358
 20
9712.02921341869
 30
0.0
 11
11117.89794241799
 21
9712.02921341869
 31
0.0
  0
LINE
  5
189AD
330
18144
100
AcDbEntity
  8
寸法
 62
     0
 48
50.0
370
    -2
100
AcDbLine
 10
11057.89794241799
 20
9712.02921341869
 30
0.0
 11
11057.89794241799
 21
9612.02921341869
 31
0.0
  0
LINE
  5
189AE
330
18144
100
AcDbEntity
  8
寸法
 62
     0
 48
50.0
370
    -2
100
AcDbLine
 10
11057.89794241799
 20
9767.029213418688
 30
0.0
 11
11057.89794241799
 21
10183.99977616716
 31
0.0
  0
LINE
  5
189AF
330
18144
100
AcDbEntity
  8
寸法
 62
     0
 48
50.0
370
    -2
100
AcDbLine
 10
11057.89794241799
 20
9712.02921341869
 30
0.0
 11
11057.89794241799
 21
9767.029213418688
 31
0.0
  0
INSERT
  5
189B0
330
18144
100
AcDbEntity
  8
寸法
 62
     0
 48
50.0
370
    -2
100
AcDbBlockReference
  2
_DOTSMALL
 10
11057.89794241799
 20
9712.02921341869
 30
0.0
 41
100.0
 42
100.0
 43
100.0
 50
90.0
  0
INSERT
  5
189B1
330
18144
100
AcDbEntity
  8
寸法
 62
     0
 48
50.0
370
    -2
100
AcDbBlockReference
  2
_DOTSMALL
 10
11057.89794241799
 20
9767.029213418688
 30
0.0
 41
100.0
 42
100.0
 43
100.0
 50
270.0
  0
MTEXT
  5
189B2
330
18144
100
AcDbEntity
  8
寸法
 62
     7
 48
50.0
100
AcDbMText
 10
10957.89794241799
 20
10075.51449479292
 30
0.0
 40
120.0
 41
0.0
 71
     5
 72
     1
  1
\A1;55
  7
STYLE1
 11
0.0000000000000001
 21
1.0
 31
0.0
 73
     1
 44
1.0
1001
ACAD
1000
MTEXTBEGIN
1070
    73
1070
     1
1070
    44
1040
1.0
1070
    74
1070
     0
1000
MTEXTEND
  0
POINT
  5
189B3
330
18144
100
AcDbEntity
  8
DEFPOINTS
 62
     0
 48
50.0
100
AcDbPoint
 10
10410.47159668358
 20
9767.029213418688
 30
0.0
  0
POINT
  5
189B4
330
18144
100
AcDbEntity
  8
DEFPOINTS
 62
     0
 48
50.0
100
AcDbPoint
 10
10410.47159668358
 20
9712.02921341869
 30
0.0
  0
POINT
  5
189B5
330
18144
100
AcDbEntity
  8
DEFPOINTS
 62
     0
 48
50.0
100
AcDbPoint
 10
11057.89794241799
 20
9712.02921341869
 30
0.0
  0
ENDBLK
  5
18151
330
18144
100
AcDbEntity
  8
0
 48
50.0
100
AcDbBlockEnd
  0
BLOCK
  5
1815E
330
18152
100
AcDbEntity
  8
0
 48
50.0
100
AcDbBlockBegin
  2
*D24
 70
     1
 10
0.0
 20
0.0
 30
0.0
  3
*D24
  1

  0
LINE
  5
18359
330
18152
100
AcDbEntity
  8
寸法
 62
     0
 48
50.0
370
    -2
100
AcDbLine
 10
10430.47159668355
 20
7612.029213418676
 30
0.0
 11
11117.89794241796
 21
7612.029213418676
 31
0.0
  0
LINE
  5
1835A
330
18152
100
AcDbEntity
  8
寸法
 62
     0
 48
50.0
370
    -2
100
AcDbLine
 10
10430.47159668355
 20
7557.029213418679
 30
0.0
 11
11117.89794241796
 21
7557.029213418679
 31
0.0
  0
LINE
  5
1835B
330
18152
100
AcDbEntity
  8
寸法
 62
     0
 48
50.0
370
    -2
100
AcDbLine
 10
11057.89794241796
 20
7612.029213418676
 30
0.0
 11
11057.89794241796
 21
7712.029213418675
 31
0.0
  0
LINE
  5
1835C
330
18152
100
AcDbEntity
  8
寸法
 62
     0
 48
50.0
370
    -2
100
AcDbLine
 10
11057.89794241796
 20
7557.029213418679
 30
0.0
 11
11057.89794241796
 21
7070.682465139576
 31
0.0
  0
LINE
  5
1835D
330
18152
100
AcDbEntity
  8
寸法
 62
     0
 48
50.0
370
    -2
100
AcDbLine
 10
11057.89794241796
 20
7612.029213418676
 30
0.0
 11
11057.89794241796
 21
7557.029213418679
 31
0.0
  0
INSERT
  5
1835E
330
18152
100
AcDbEntity
  8
寸法
 62
     0
 48
50.0
370
    -2
100
AcDbBlockReference
  2
_DOTSMALL
 10
11057.89794241796
 20
7612.029213418676
 30
0.0
 41
100.0
 42
100.0
 43
100.0
 50
270.0
  0
INSERT
  5
1835F
330
18152
100
AcDbEntity
  8
寸法
 62
     0
 48
50.0
370
    -2
100
AcDbBlockReference
  2
_DOTSMALL
 10
11057.89794241796
 20
7557.029213418679
 30
0.0
 41
100.0
 42
100.0
 43
100.0
 50
90.0
  0
MTEXT
  5
18360
330
18152
100
AcDbEntity
  8
寸法
 62
     7
 48
50.0
100
AcDbMText
 10
10957.89794241796
 20
7179.167746513816
 30
0.0
 40
120.0
 41
0.0
 71
     5
 72
     1
  1
\A1;55
  7
STYLE1
 11
0.0000000000000001
 21
1.0
 31
0.0
 73
     1
 44
1.0
1001
ACAD
1000
MTEXTBEGIN
1070
    73
1070
     1
1070
    44
1040
1.0
1070
    74
1070
     0
1000
MTEXTEND
  0
POINT
  5
18361
330
18152
100
AcDbEntity
  8
DEFPOINTS
 62
     0
 48
50.0
100
AcDbPoint
 10
10410.47159668355
 20
7612.029213418676
 30
0.0
  0
POINT
  5
18362
330
18152
100
AcDbEntity
  8
DEFPOINTS
 62
     0
 48
50.0
100
AcDbPoint
 10
10410.47159668355
 20
7557.029213418679
 30
0.0
  0
POINT
  5
18363
330
18152
100
AcDbEntity
  8
DEFPOINTS
 62
     0
 48
50.0
100
AcDbPoint
 10
11057.89794241796
 20
7557.029213418679
 30
0.0
  0
ENDBLK
  5
1815F
330
18152
100
AcDbEntity
  8
0
 48
50.0
100
AcDbBlockEnd
  0
BLOCK
  5
1816A
330
18160
100
AcDbEntity
  8
0
 48
50.0
100
AcDbBlockBegin
  2
*D25
 70
     1
 10
0.0
 20
0.0
 30
0.0
  3
*D25
  1

  0
LINE
  5
189C1
330
18160
100
AcDbEntity
  8
寸法
 62
     0
 48
50.0
370
    -2
100
AcDbLine
 10
10430.47159668358
 20
9712.02921341869
 30
0.0
 11
11117.89794241798
 21
9712.02921341869
 31
0.0
  0
LINE
  5
189C2
330
18160
100
AcDbEntity
  8
寸法
 62
     0
 48
50.0
370
    -2
100
AcDbLine
 10
10430.47159668355
 20
7612.029213418676
 30
0.0
 11
11117.89794241798
 21
7612.029213418676
 31
0.0
  0
LINE
  5
189C3
330
18160
100
AcDbEntity
  8
寸法
 62
     0
 48
50.0
370
    -2
100
AcDbLine
 10
11057.89794241798
 20
9712.02921341869
 30
0.0
 11
11057.89794241798
 21
7612.029213418676
 31
0.0
  0
INSERT
  5
189C4
330
18160
100
AcDbEntity
  8
寸法
 62
     0
 48
50.0
370
    -2
100
AcDbBlockReference
  2
_DOTSMALL
 10
11057.89794241798
 20
9712.02921341869
 30
0.0
 41
100.0
 42
100.0
 43
100.0
 50
90.0
  0
INSERT
  5
189C5
330
18160
100
AcDbEntity
  8
寸法
 62
     0
 48
50.0
370
    -2
100
AcDbBlockReference
  2
_DOTSMALL
 10
11057.89794241798
 20
7612.029213418676
 30
0.0
 41
100.0
 42
100.0
 43
100.0
 50
270.0
  0
MTEXT
  5
189C6
330
18160
100
AcDbEntity
  8
寸法
 62
     7
 48
50.0
100
AcDbMText
 10
10957.88613139436
 20
8662.029213418684
 30
0.0
 40
120.0
 41
0.0
 71
     5
 72
     1
  1
\A1;5X420=2100
  7
STYLE1
 11
0.0000000000000001
 21
1.0
 31
0.0
 73
     1
 44
1.0
1001
ACAD
1000
MTEXTBEGIN
1070
    73
1070
     1
1070
    44
1040
1.0
1070
    74
1070
     0
1000
MTEXTEND
  0
POINT
  5
189C7
330
18160
100
AcDbEntity
  8
DEFPOINTS
 62
     0
 48
50.0
100
AcDbPoint
 10
10410.47159668358
 20
9712.02921341869
 30
0.0
  0
POINT
  5
189C8
330
18160
100
AcDbEntity
  8
DEFPOINTS
 62
     0
 48
50.0
100
AcDbPoint
 10
10410.47159668355
 20
7612.029213418676
 30
0.0
  0
POINT
  5
189C9
330
18160
100
AcDbEntity
  8
DEFPOINTS
 62
     0
 48
50.0
100
AcDbPoint
 10
11057.89794241798
 20
7612.029213418676
 30
0.0
  0
ENDBLK
  5
1816B
330
18160
100
AcDbEntity
  8
0
 48
50.0
100
AcDbBlockEnd
  0
BLOCK
  5
18176
330
1816C
100
AcDbEntity
  8
0
 48
50.0
100
AcDbBlockBegin
  2
*D26
 70
     1
 10
0.0
 20
0.0
 30
0.0
  3
*D26
  1

  0
LINE
  5
1836D
330
1816C
100
AcDbEntity
  8
寸法
 62
     0
 48
50.0
370
    -2
100
AcDbLine
 10
2470.471596683565
 20
4875.255549972143
 30
0.0
 11
2470.471596683565
 21
5530.874818930056
 31
0.0
  0
LINE
  5
1836E
330
1816C
100
AcDbEntity
  8
寸法
 62
     0
 48
50.0
370
    -2
100
AcDbLine
 10
10460.47159668356
 20
4875.255549972141
 30
0.0
 11
10460.47159668356
 21
5530.874818930056
 31
0.0
  0
LINE
  5
1836F
330
1816C
100
AcDbEntity
  8
寸法
 62
     0
 48
50.0
370
    -2
100
AcDbLine
 10
2470.471596683565
 20
5470.874818930057
 30
0.0
 11
10460.47159668356
 21
5470.874818930057
 31
0.0
  0
INSERT
  5
18370
330
1816C
100
AcDbEntity
  8
寸法
 62
     0
 48
50.0
370
    -2
100
AcDbBlockReference
  2
_DOTSMALL
 10
2470.471596683565
 20
5470.874818930057
 30
0.0
 41
100.0
 42
100.0
 43
100.0
 50
180.0
  0
INSERT
  5
18371
330
1816C
100
AcDbEntity
  8
寸法
 62
     0
 48
50.0
370
    -2
100
AcDbBlockReference
  2
_DOTSMALL
 10
10460.47159668356
 20
5470.874818930057
 30
0.0
 41
100.0
 42
100.0
 43
100.0
  0
MTEXT
  5
18372
330
1816C
100
AcDbEntity
  8
寸法
 62
     7
 48
50.0
100
AcDbMText
 10
6465.471596683561
 20
5570.886629953679
 30
0.0
 40
120.0
 41
0.0
 71
     5
 72
     1
  1
\A1;N X 2630+100
  7
STYLE1
 73
     1
 44
1.0
1001
ACAD
1000
MTEXTBEGIN
1070
    73
1070
     1
1070
    44
1040
1.0
1070
    74
1070
     0
1000
MTEXTEND
  0
POINT
  5
18373
330
1816C
100
AcDbEntity
  8
DEFPOINTS
 62
     0
 48
50.0
100
AcDbPoint
 10
2470.471596683565
 20
4855.255549972143
 30
0.0
  0
POINT
  5
18374
330
1816C
100
AcDbEntity
  8
DEFPOINTS
 62
     0
 48
50.0
100
AcDbPoint
 10
10460.47159668356
 20
4855.255549972142
 30
0.0
  0
POINT
  5
18375
330
1816C
100
AcDbEntity
  8
DEFPOINTS
 62
     0
 48
50.0
100
AcDbPoint
 10
10460.47159668356
 20
5470.874818930057
 30
0.0
  0
ENDBLK
  5
18177
330
1816C
100
AcDbEntity
  8
0
 48
50.0
100
AcDbBlockEnd
  0
BLOCK
  5
18182
330
18178
100
AcDbEntity
  8
0
 48
50.0
100
AcDbBlockBegin
  2
*D27
 70
     1
 10
0.0
 20
0.0
 30
0.0
  3
*D27
  1

  0
LINE
  5
18376
330
18178
100
AcDbEntity
  8
寸法
 62
     0
 48
50.0
370
    -2
100
AcDbLine
 10
10410.47159668355
 20
4875.255549972143
 30
0.0
 11
10410.47159668355
 21
5314.348719311611
 31
0.0
  0
LINE
  5
18377
330
18178
100
AcDbEntity
  8
寸法
 62
     0
 48
50.0
370
    -2
100
AcDbLine
 10
2520.471596683565
 20
4875.255549972145
 30
0.0
 11
2520.471596683565
 21
5314.348719311611
 31
0.0
  0
LINE
  5
18378
330
18178
100
AcDbEntity
  8
寸法
 62
     0
 48
50.0
370
    -2
100
AcDbLine
 10
10410.47159668355
 20
5254.348719311611
 30
0.0
 11
2520.471596683565
 21
5254.348719311611
 31
0.0
  0
INSERT
  5
18379
330
18178
100
AcDbEntity
  8
寸法
 62
     0
 48
50.0
370
    -2
100
AcDbBlockReference
  2
_DOTSMALL
 10
10410.47159668355
 20
5254.348719311611
 30
0.0
 41
100.0
 42
100.0
 43
100.0
  0
INSERT
  5
1837A
330
18178
100
AcDbEntity
  8
寸法
 62
     0
 48
50.0
370
    -2
100
AcDbBlockReference
  2
_DOTSMALL
 10
2520.471596683565
 20
5254.348719311611
 30
0.0
 41
100.0
 42
100.0
 43
100.0
 50
180.0
  0
MTEXT
  5
1837B
330
18178
100
AcDbEntity
  8
寸法
 62
     7
 48
50.0
100
AcDbMText
 10
6465.471596683561
 20
5354.360530335234
 30
0.0
 40
120.0
 41
0.0
 71
     5
 72
     1
  1
\A1;柱外寸法 N X 2630
  7
STYLE1
 73
     1
 44
1.0
1001
ACAD
1000
MTEXTBEGIN
1070
    73
1070
     1
1070
    44
1040
1.0
1070
    74
1070
     0
1000
MTEXTEND
  0
POINT
  5
1837C
330
18178
100
AcDbEntity
  8
DEFPOINTS
 62
     0
 48
50.0
100
AcDbPoint
 10
10410.47159668355
 20
4855.255549972143
 30
0.0
  0
POINT
  5
1837D
330
18178
100
AcDbEntity
  8
DEFPOINTS
 62
     0
 48
50.0
100
AcDbPoint
 10
2520.471596683565
 20
4855.255549972145
 30
0.0
  0
POINT
  5
1837E
330
18178
100
AcDbEntity
  8
DEFPOINTS
 62
     0
 48
50.0
100
AcDbPoint
 10
2520.471596683565
 20
5254.348719311611
 30
0.0
  0
ENDBLK
  5
18183
330
18178
100
AcDbEntity
  8
0
 48
50.0
100
AcDbBlockEnd
  0
BLOCK
  5
18190
330
18184
100
AcDbEntity
  8
0
 48
50.0
100
AcDbBlockBegin
  2
*D28
 70
     1
 10
0.0
 20
0.0
 30
0.0
  3
*D28
  1

  0
LINE
  5
1837F
330
18184
100
AcDbEntity
  8
寸法
 62
     0
 48
50.0
370
    -2
100
AcDbLine
 10
2520.471596683565
 20
4875.255549972145
 30
0.0
 11
2520.471596683565
 21
5314.348719311611
 31
0.0
  0
LINE
  5
18380
330
18184
100
AcDbEntity
  8
寸法
 62
     0
 48
50.0
370
    -2
100
AcDbLine
 10
2470.471596683565
 20
4875.255549972143
 30
0.0
 11
2470.471596683565
 21
5314.348719311611
 31
0.0
  0
LINE
  5
18381
330
18184
100
AcDbEntity
  8
寸法
 62
     0
 48
50.0
370
    -2
100
AcDbLine
 10
2520.471596683565
 20
5254.348719311611
 30
0.0
 11
2620.471596683565
 21
5254.348719311611
 31
0.0
  0
LINE
  5
18382
330
18184
100
AcDbEntity
  8
寸法
 62
     0
 48
50.0
370
    -2
100
AcDbLine
 10
2470.471596683565
 20
5254.348719311611
 30
0.0
 11
2050.939071214829
 21
5254.348719311611
 31
0.0
  0
LINE
  5
18383
330
18184
100
AcDbEntity
  8
寸法
 62
     0
 48
50.0
370
    -2
100
AcDbLine
 10
2520.471596683565
 20
5254.348719311611
 30
0.0
 11
2470.471596683565
 21
5254.348719311611
 31
0.0
  0
INSERT
  5
18384
330
18184
100
AcDbEntity
  8
寸法
 62
     0
 48
50.0
370
    -2
100
AcDbBlockReference
  2
_DOTSMALL
 10
2520.471596683565
 20
5254.348719311611
 30
0.0
 41
100.0
 42
100.0
 43
100.0
 50
180.0
  0
INSERT
  5
18385
330
18184
100
AcDbEntity
  8
寸法
 62
     0
 48
50.0
370
    -2
100
AcDbBlockReference
  2
_DOTSMALL
 10
2470.471596683565
 20
5254.348719311611
 30
0.0
 41
100.0
 42
100.0
 43
100.0
  0
MTEXT
  5
18386
330
18184
100
AcDbEntity
  8
寸法
 62
     7
 48
50.0
100
AcDbMText
 10
2156.986315309318
 20
5354.348719311611
 30
0.0
 40
120.0
 41
0.0
 71
     5
 72
     1
  1
\A1;50
  7
STYLE1
 73
     1
 44
1.0
1001
ACAD
1000
MTEXTBEGIN
1070
    73
1070
     1
1070
    44
1040
1.0
1070
    74
1070
     0
1000
MTEXTEND
  0
POINT
  5
18387
330
18184
100
AcDbEntity
  8
DEFPOINTS
 62
     0
 48
50.0
100
AcDbPoint
 10
2520.471596683565
 20
4855.255549972145
 30
0.0
  0
POINT
  5
18388
330
18184
100
AcDbEntity
  8
DEFPOINTS
 62
     0
 48
50.0
100
AcDbPoint
 10
2470.471596683565
 20
4855.255549972143
 30
0.0
  0
POINT
  5
18389
330
18184
100
AcDbEntity
  8
DEFPOINTS
 62
     0
 48
50.0
100
AcDbPoint
 10
2470.471596683565
 20
5254.348719311611
 30
0.0
  0
ENDBLK
  5
18191
330
18184
100
AcDbEntity
  8
0
 48
50.0
100
AcDbBlockEnd
  0
BLOCK
  5
1819E
330
18192
100
AcDbEntity
  8
0
 48
50.0
100
AcDbBlockBegin
  2
*D29
 70
     1
 10
0.0
 20
0.0
 30
0.0
  3
*D29
  1

  0
LINE
  5
1838A
330
18192
100
AcDbEntity
  8
寸法
 62
     0
 48
50.0
370
    -2
100
AcDbLine
 10
10460.47159668356
 20
4875.255549972141
 30
0.0
 11
10460.47159668356
 21
5314.348719311611
 31
0.0
  0
LINE
  5
1838B
330
18192
100
AcDbEntity
  8
寸法
 62
     0
 48
50.0
370
    -2
100
AcDbLine
 10
10410.47159668355
 20
4875.255549972143
 30
0.0
 11
10410.47159668355
 21
5314.348719311611
 31
0.0
  0
LINE
  5
1838C
330
18192
100
AcDbEntity
  8
寸法
 62
     0
 48
50.0
370
    -2
100
AcDbLine
 10
10410.47159668355
 20
5254.348719311611
 30
0.0
 11
10310.47159668355
 21
5254.348719311611
 31
0.0
  0
LINE
  5
1838D
330
18192
100
AcDbEntity
  8
寸法
 62
     0
 48
50.0
370
    -2
100
AcDbLine
 10
10460.47159668356
 20
5254.348719311611
 30
0.0
 11
10880.00412215228
 21
5254.348719311611
 31
0.0
  0
LINE
  5
1838E
330
18192
100
AcDbEntity
  8
寸法
 62
     0
 48
50.0
370
    -2
100
AcDbLine
 10
10410.47159668355
 20
5254.348719311611
 30
0.0
 11
10460.47159668356
 21
5254.348719311611
 31
0.0
  0
INSERT
  5
1838F
330
18192
100
AcDbEntity
  8
寸法
 62
     0
 48
50.0
370
    -2
100
AcDbBlockReference
  2
_DOTSMALL
 10
10410.47159668355
 20
5254.348719311611
 30
0.0
 41
100.0
 42
100.0
 43
100.0
  0
INSERT
  5
18390
330
18192
100
AcDbEntity
  8
寸法
 62
     0
 48
50.0
370
    -2
100
AcDbBlockReference
  2
_DOTSMALL
 10
10460.47159668356
 20
5254.348719311611
 30
0.0
 41
100.0
 42
100.0
 43
100.0
 50
180.0
  0
MTEXT
  5
18391
330
18192
100
AcDbEntity
  8
寸法
 62
     7
 48
50.0
100
AcDbMText
 10
10773.95687805779
 20
5354.348719311611
 30
0.0
 40
120.0
 41
0.0
 71
     5
 72
     1
  1
\A1;50
  7
STYLE1
 73
     1
 44
1.0
1001
ACAD
1000
MTEXTBEGIN
1070
    73
1070
     1
1070
    44
1040
1.0
1070
    74
1070
     0
1000
MTEXTEND
  0
POINT
  5
18392
330
18192
100
AcDbEntity
  8
DEFPOINTS
 62
     0
 48
50.0
100
AcDbPoint
 10
10460.47159668356
 20
4855.255549972142
 30
0.0
  0
POINT
  5
18393
330
18192
100
AcDbEntity
  8
DEFPOINTS
 62
     0
 48
50.0
100
AcDbPoint
 10
10410.47159668355
 20
4855.255549972143
 30
0.0
  0
POINT
  5
18394
330
18192
100
AcDbEntity
  8
DEFPOINTS
 62
     0
 48
50.0
100
AcDbPoint
 10
10410.47159668355
 20
5254.348719311611
 30
0.0
  0
ENDBLK
  5
1819F
330
18192
100
AcDbEntity
  8
0
 48
50.0
100
AcDbBlockEnd
  0
BLOCK
  5
1876C
330
18762
100
AcDbEntity
  8
0
 48
50.0
100
AcDbBlockBegin
  2
*D30
 70
     1
 10
0.0
 20
0.0
 30
0.0
  3
*D30
  1

  0
LINE
  5
18938
330
18762
100
AcDbEntity
  8
寸法
 62
     0
 48
50.0
370
    -2
100
AcDbLine
 10
13017.64837007314
 20
4620.255549972138
 30
0.0
 11
12133.89824088989
 21
4620.255549972138
 31
0.0
  0
LINE
  5
18939
330
18762
100
AcDbEntity
  8
寸法
 62
     0
 48
50.0
370
    -2
100
AcDbLine
 10
13017.64837007314
 20
2530.255549972137
 30
0.0
 11
12133.89824088988
 21
2530.255549972137
 31
0.0
  0
LINE
  5
1893A
330
18762
100
AcDbEntity
  8
寸法
 62
     0
 48
50.0
370
    -2
100
AcDbLine
 10
12193.89824088989
 20
4620.255549972138
 30
0.0
 11
12193.89824088988
 21
2530.255549972137
 31
0.0
  0
INSERT
  5
1893B
330
18762
100
AcDbEntity
  8
寸法
 62
     0
 48
50.0
370
    -2
100
AcDbBlockReference
  2
_DOTSMALL
 10
12193.89824088989
 20
4620.255549972138
 30
0.0
 41
100.0
 42
100.0
 43
100.0
 50
90.0
  0
INSERT
  5
1893C
330
18762
100
AcDbEntity
  8
寸法
 62
     0
 48
50.0
370
    -2
100
AcDbBlockReference
  2
_DOTSMALL
 10
12193.89824088988
 20
2530.255549972137
 30
0.0
 41
100.0
 42
100.0
 43
100.0
 50
270.0
  0
MTEXT
  5
1893D
330
18762
100
AcDbEntity
  8
寸法
 62
     7
 48
50.0
100
AcDbMText
 10
12093.88642986626
 20
3575.25554997214
 30
0.0
 40
120.0
 41
0.0
 71
     5
 72
     1
  1
\A1;2090
  7
STYLE1
 11
0.0000000000000001
 21
1.0
 31
0.0
 73
     1
 44
1.0
1001
ACAD
1000
MTEXTBEGIN
1070
    73
1070
     1
1070
    44
1040
1.0
1070
    74
1070
     0
1000
MTEXTEND
  0
POINT
  5
1893E
330
18762
100
AcDbEntity
  8
DEFPOINTS
 62
     0
 48
50.0
100
AcDbPoint
 10
13037.64837007314
 20
4620.255549972138
 30
0.0
  0
POINT
  5
1893F
330
18762
100
AcDbEntity
  8
DEFPOINTS
 62
     0
 48
50.0
100
AcDbPoint
 10
13037.64837007314
 20
2530.255549972137
 30
0.0
  0
POINT
  5
18940
330
18762
100
AcDbEntity
  8
DEFPOINTS
 62
     0
 48
50.0
100
AcDbPoint
 10
12193.89824088988
 20
2530.255549972137
 30
0.0
  0
ENDBLK
  5
1876D
330
18762
100
AcDbEntity
  8
0
 48
50.0
100
AcDbBlockEnd
  0
BLOCK
  5
18778
330
1876E
100
AcDbEntity
  8
0
 48
50.0
100
AcDbBlockBegin
  2
*D31
 70
     1
 10
0.0
 20
0.0
 30
0.0
  3
*D31
  1

  0
LINE
  5
1892F
330
1876E
100
AcDbEntity
  8
寸法
 62
     0
 48
50.0
370
    -2
100
AcDbLine
 10
13017.64837007314
 20
2480.255549972137
 30
0.0
 11
11833.89824088988
 21
2480.255549972137
 31
0.0
  0
LINE
  5
18930
330
1876E
100
AcDbEntity
  8
寸法
 62
     0
 48
50.0
370
    -2
100
AcDbLine
 10
12957.64837007315
 20
4855.255549972142
 30
0.0
 11
11833.89824088988
 21
4855.255549972142
 31
0.0
  0
LINE
  5
18931
330
1876E
100
AcDbEntity
  8
寸法
 62
     0
 48
50.0
370
    -2
100
AcDbLine
 10
11893.89824088988
 20
2480.255549972137
 30
0.0
 11
11893.89824088988
 21
4855.255549972142
 31
0.0
  0
INSERT
  5
18932
330
1876E
100
AcDbEntity
  8
寸法
 62
     0
 48
50.0
370
    -2
100
AcDbBlockReference
  2
_DOTSMALL
 10
11893.89824088988
 20
2480.255549972137
 30
0.0
 41
100.0
 42
100.0
 43
100.0
 50
270.0
  0
INSERT
  5
18933
330
1876E
100
AcDbEntity
  8
寸法
 62
     0
 48
50.0
370
    -2
100
AcDbBlockReference
  2
_DOTSMALL
 10
11893.89824088988
 20
4855.255549972142
 30
0.0
 41
100.0
 42
100.0
 43
100.0
 50
90.0
  0
MTEXT
  5
18934
330
1876E
100
AcDbEntity
  8
寸法
 62
     7
 48
50.0
100
AcDbMText
 10
11793.88642986626
 20
3667.755549972142
 30
0.0
 40
120.0
 41
0.0
 71
     5
 72
     1
  1
\A1;2375
  7
STYLE1
 11
0.0000000000000001
 21
1.0
 31
0.0
 73
     1
 44
1.0
1001
ACAD
1000
MTEXTBEGIN
1070
    73
1070
     1
1070
    44
1040
1.0
1070
    74
1070
     0
1000
MTEXTEND
  0
POINT
  5
18935
330
1876E
100
AcDbEntity
  8
DEFPOINTS
 62
     0
 48
50.0
100
AcDbPoint
 10
13037.64837007314
 20
2480.255549972137
 30
0.0
  0
POINT
  5
18936
330
1876E
100
AcDbEntity
  8
DEFPOINTS
 62
     0
 48
50.0
100
AcDbPoint
 10
12977.64837007315
 20
4855.255549972142
 30
0.0
  0
POINT
  5
18937
330
1876E
100
AcDbEntity
  8
DEFPOINTS
 62
     0
 48
50.0
100
AcDbPoint
 10
11893.89824088988
 20
4855.255549972142
 30
0.0
  0
ENDBLK
  5
18779
330
1876E
100
AcDbEntity
  8
0
 48
50.0
100
AcDbBlockEnd
  0
BLOCK
  5
18784
330
1877A
100
AcDbEntity
  8
0
 48
50.0
100
AcDbBlockBegin
  2
*D32
 70
     1
 10
0.0
 20
0.0
 30
0.0
  3
*D32
  1

  0
LINE
  5
18926
330
1877A
100
AcDbEntity
  8
寸法
 62
     0
 48
50.0
370
    -2
100
AcDbLine
 10
15267.64837007315
 20
2480.255549972139
 30
0.0
 11
16012.57552804527
 21
2480.255549972138
 31
0.0
  0
LINE
  5
18927
330
1877A
100
AcDbEntity
  8
寸法
 62
     0
 48
50.0
370
    -2
100
AcDbLine
 10
15347.64837007315
 20
4800.255549972138
 30
0.0
 11
16012.57552804527
 21
4800.255549972138
 31
0.0
  0
LINE
  5
18928
330
1877A
100
AcDbEntity
  8
寸法
 62
     0
 48
50.0
370
    -2
100
AcDbLine
 10
15952.57552804527
 20
2480.255549972138
 30
0.0
 11
15952.57552804527
 21
4800.255549972138
 31
0.0
  0
INSERT
  5
18929
330
1877A
100
AcDbEntity
  8
寸法
 62
     0
 48
50.0
370
    -2
100
AcDbBlockReference
  2
_DOTSMALL
 10
15952.57552804527
 20
2480.255549972138
 30
0.0
 41
100.0
 42
100.0
 43
100.0
 50
270.0
  0
INSERT
  5
1892A
330
1877A
100
AcDbEntity
  8
寸法
 62
     0
 48
50.0
370
    -2
100
AcDbBlockReference
  2
_DOTSMALL
 10
15952.57552804527
 20
4800.255549972138
 30
0.0
 41
100.0
 42
100.0
 43
100.0
 50
90.0
  0
MTEXT
  5
1892B
330
1877A
100
AcDbEntity
  8
寸法
 62
     7
 48
50.0
100
AcDbMText
 10
15852.56371702165
 20
3640.255549972141
 30
0.0
 40
120.0
 41
0.0
 71
     5
 72
     1
  1
\A1;2320
  7
STYLE1
 11
0.0000000000000001
 21
1.0
 31
0.0
 73
     1
 44
1.0
1001
ACAD
1000
MTEXTBEGIN
1070
    73
1070
     1
1070
    44
1040
1.0
1070
    74
1070
     0
1000
MTEXTEND
  0
POINT
  5
1892C
330
1877A
100
AcDbEntity
  8
DEFPOINTS
 62
     0
 48
50.0
100
AcDbPoint
 10
15247.64837007315
 20
2480.255549972139
 30
0.0
  0
POINT
  5
1892D
330
1877A
100
AcDbEntity
  8
DEFPOINTS
 62
     0
 48
50.0
100
AcDbPoint
 10
15327.64837007315
 20
4800.255549972138
 30
0.0
  0
POINT
  5
1892E
330
1877A
100
AcDbEntity
  8
DEFPOINTS
 62
     0
 48
50.0
100
AcDbPoint
 10
15952.57552804527
 20
4800.255549972138
 30
0.0
  0
ENDBLK
  5
18785
330
1877A
100
AcDbEntity
  8
0
 48
50.0
100
AcDbBlockEnd
  0
BLOCK
  5
1879F
330
18793
100
AcDbEntity
  8
0
 48
50.0
100
AcDbBlockBegin
  2
*D33
 70
     1
 10
0.0
 20
0.0
 30
0.0
  3
*D33
  1

  0
LINE
  5
18911
330
18793
100
AcDbEntity
  8
寸法
 62
     0
 48
50.0
370
    -2
100
AcDbLine
 10
13017.64837007314
 20
2530.255549972139
 30
0.0
 11
12133.89824088988
 21
2530.255549972139
 31
0.0
  0
LINE
  5
18912
330
18793
100
AcDbEntity
  8
寸法
 62
     0
 48
50.0
370
    -2
100
AcDbLine
 10
12962.64837007314
 20
2480.255549972139
 30
0.0
 11
12133.89824088988
 21
2480.255549972139
 31
0.0
  0
LINE
  5
18913
330
18793
100
AcDbEntity
  8
寸法
 62
     0
 48
50.0
370
    -2
100
AcDbLine
 10
12193.89824088988
 20
2530.255549972139
 30
0.0
 11
12193.89824088988
 21
2630.255549972139
 31
0.0
  0
LINE
  5
18914
330
18793
100
AcDbEntity
  8
寸法
 62
     0
 48
50.0
370
    -2
100
AcDbLine
 10
12193.89824088988
 20
2480.255549972139
 30
0.0
 11
12193.89824088988
 21
2068.161061783158
 31
0.0
  0
LINE
  5
18915
330
18793
100
AcDbEntity
  8
寸法
 62
     0
 48
50.0
370
    -2
100
AcDbLine
 10
12193.89824088988
 20
2530.255549972139
 30
0.0
 11
12193.89824088988
 21
2480.255549972139
 31
0.0
  0
INSERT
  5
18916
330
18793
100
AcDbEntity
  8
寸法
 62
     0
 48
50.0
370
    -2
100
AcDbBlockReference
  2
_DOTSMALL
 10
12193.89824088988
 20
2530.255549972139
 30
0.0
 41
100.0
 42
100.0
 43
100.0
 50
270.0
  0
INSERT
  5
18917
330
18793
100
AcDbEntity
  8
寸法
 62
     0
 48
50.0
370
    -2
100
AcDbBlockReference
  2
_DOTSMALL
 10
12193.89824088988
 20
2480.255549972139
 30
0.0
 41
100.0
 42
100.0
 43
100.0
 50
90.0
  0
MTEXT
  5
18918
330
18793
100
AcDbEntity
  8
寸法
 62
     7
 48
50.0
100
AcDbMText
 10
12093.89824088988
 20
2174.208305877648
 30
0.0
 40
120.0
 41
0.0
 71
     5
 72
     1
  1
\A1;50
  7
STYLE1
 11
0.0000000000000001
 21
1.0
 31
0.0
 73
     1
 44
1.0
1001
ACAD
1000
MTEXTBEGIN
1070
    73
1070
     1
1070
    44
1040
1.0
1070
    74
1070
     0
1000
MTEXTEND
  0
POINT
  5
18919
330
18793
100
AcDbEntity
  8
DEFPOINTS
 62
     0
 48
50.0
100
AcDbPoint
 10
13037.64837007314
 20
2530.255549972139
 30
0.0
  0
POINT
  5
1891A
330
18793
100
AcDbEntity
  8
DEFPOINTS
 62
     0
 48
50.0
100
AcDbPoint
 10
12982.64837007314
 20
2480.255549972139
 30
0.0
  0
POINT
  5
1891B
330
18793
100
AcDbEntity
  8
DEFPOINTS
 62
     0
 48
50.0
100
AcDbPoint
 10
12193.89824088988
 20
2480.255549972139
 30
0.0
  0
ENDBLK
  5
187A0
330
18793
100
AcDbEntity
  8
0
 48
50.0
100
AcDbBlockEnd
  0
BLOCK
  5
187AB
330
187A1
100
AcDbEntity
  8
0
 48
50.0
100
AcDbBlockBegin
  2
*D34
 70
     1
 10
0.0
 20
0.0
 30
0.0
  3
*D34
  1

  0
LINE
  5
19F22
330
187A1
100
AcDbEntity
  8
寸法
 62
     0
 48
50.0
370
    -2
100
AcDbLine
 10
15247.64837007314
 20
4822.066229583792
 30
0.0
 11
15247.64837007314
 21
5313.913003551443
 31
0.0
  0
LINE
  5
19F23
330
187A1
100
AcDbEntity
  8
寸法
 62
     0
 48
50.0
370
    -2
100
AcDbLine
 10
13037.64837007314
 20
4871.257168095115
 30
0.0
 11
13037.64837007314
 21
5313.913003551443
 31
0.0
  0
LINE
  5
19F24
330
187A1
100
AcDbEntity
  8
寸法
 62
     0
 48
50.0
370
    -2
100
AcDbLine
 10
15247.64837007314
 20
5253.913003551442
 30
0.0
 11
13037.64837007314
 21
5253.913003551442
 31
0.0
  0
INSERT
  5
19F25
330
187A1
100
AcDbEntity
  8
寸法
 62
     0
 48
50.0
370
    -2
100
AcDbBlockReference
  2
_DOTSMALL
 10
15247.64837007314
 20
5253.913003551442
 30
0.0
 41
100.0
 42
100.0
 43
100.0
  0
INSERT
  5
19F26
330
187A1
100
AcDbEntity
  8
寸法
 62
     0
 48
50.0
370
    -2
100
AcDbBlockReference
  2
_DOTSMALL
 10
13037.64837007314
 20
5253.913003551442
 30
0.0
 41
100.0
 42
100.0
 43
100.0
 50
180.0
  0
MTEXT
  5
19F27
330
187A1
100
AcDbEntity
  8
寸法
 62
     7
 48
50.0
100
AcDbMText
 10
14142.64837007314
 20
5353.924814575065
 30
0.0
 40
120.0
 41
0.0
 71
     5
 72
     1
  1
\A1;柱外寸法2210
  7
STYLE1
 73
     1
 44
1.0
1001
ACAD
1000
MTEXTBEGIN
1070
    73
1070
     1
1070
    44
1040
1.0
1070
    74
1070
     0
1000
MTEXTEND
  0
POINT
  5
19F28
330
187A1
100
AcDbEntity
  8
DEFPOINTS
 62
     0
 48
50.0
100
AcDbPoint
 10
15247.64837007314
 20
4802.066229583792
 30
0.0
  0
POINT
  5
19F29
330
187A1
100
AcDbEntity
  8
DEFPOINTS
 62
     0
 48
50.0
100
AcDbPoint
 10
13037.64837007314
 20
4851.257168095115
 30
0.0
  0
POINT
  5
19F2A
330
187A1
100
AcDbEntity
  8
DEFPOINTS
 62
     0
 48
50.0
100
AcDbPoint
 10
13037.64837007314
 20
5253.913003551442
 30
0.0
  0
ENDBLK
  5
187AC
330
187A1
100
AcDbEntity
  8
0
 48
50.0
100
AcDbBlockEnd
  0
BLOCK
  5
187B9
330
187AD
100
AcDbEntity
  8
0
 48
50.0
100
AcDbBlockBegin
  2
*D35
 70
     1
 10
0.0
 20
0.0
 30
0.0
  3
*D35
  1

  0
LINE
  5
188FD
330
187AD
100
AcDbEntity
  8
寸法
 62
     0
 48
50.0
370
    -2
100
AcDbLine
 10
13037.64837007314
 20
4871.257168095115
 30
0.0
 11
13037.64837007314
 21
5313.913003551443
 31
0.0
  0
LINE
  5
188FE
330
187AD
100
AcDbEntity
  8
寸法
 62
     0
 48
50.0
370
    -2
100
AcDbLine
 10
12977.64837007314
 20
4875.255549972142
 30
0.0
 11
12977.64837007314
 21
5313.913003551443
 31
0.0
  0
LINE
  5
188FF
330
187AD
100
AcDbEntity
  8
寸法
 62
     0
 48
50.0
370
    -2
100
AcDbLine
 10
13037.64837007314
 20
5253.913003551442
 30
0.0
 11
13137.64837007314
 21
5253.913003551442
 31
0.0
  0
LINE
  5
18900
330
187AD
100
AcDbEntity
  8
寸法
 62
     0
 48
50.0
370
    -2
100
AcDbLine
 10
12977.64837007314
 20
5253.913003551442
 30
0.0
 11
12558.37277952196
 21
5253.913003551442
 31
0.0
  0
LINE
  5
18901
330
187AD
100
AcDbEntity
  8
寸法
 62
     0
 48
50.0
370
    -2
100
AcDbLine
 10
13037.64837007314
 20
5253.913003551442
 30
0.0
 11
12977.64837007314
 21
5253.913003551442
 31
0.0
  0
INSERT
  5
18902
330
187AD
100
AcDbEntity
  8
寸法
 62
     0
 48
50.0
370
    -2
100
AcDbBlockReference
  2
_DOTSMALL
 10
13037.64837007314
 20
5253.913003551442
 30
0.0
 41
100.0
 42
100.0
 43
100.0
 50
180.0
  0
INSERT
  5
18903
330
187AD
100
AcDbEntity
  8
寸法
 62
     0
 48
50.0
370
    -2
100
AcDbBlockReference
  2
_DOTSMALL
 10
12977.64837007314
 20
5253.913003551442
 30
0.0
 41
100.0
 42
100.0
 43
100.0
  0
MTEXT
  5
18904
330
187AD
100
AcDbEntity
  8
寸法
 62
     7
 48
50.0
100
AcDbMText
 10
12668.01057479755
 20
5353.913003551443
 30
0.0
 40
120.0
 41
0.0
 71
     5
 72
     1
  1
\A1;60
  7
STYLE1
 73
     1
 44
1.0
1001
ACAD
1000
MTEXTBEGIN
1070
    73
1070
     1
1070
    44
1040
1.0
1070
    74
1070
     0
1000
MTEXTEND
  0
POINT
  5
18905
330
187AD
100
AcDbEntity
  8
DEFPOINTS
 62
     0
 48
50.0
100
AcDbPoint
 10
13037.64837007314
 20
4851.257168095115
 30
0.0
  0
POINT
  5
18906
330
187AD
100
AcDbEntity
  8
DEFPOINTS
 62
     0
 48
50.0
100
AcDbPoint
 10
12977.64837007314
 20
4855.255549972142
 30
0.0
  0
POINT
  5
18907
330
187AD
100
AcDbEntity
  8
DEFPOINTS
 62
     0
 48
50.0
100
AcDbPoint
 10
12977.64837007314
 20
5253.913003551442
 30
0.0
  0
ENDBLK
  5
187BA
330
187AD
100
AcDbEntity
  8
0
 48
50.0
100
AcDbBlockEnd
  0
BLOCK
  5
187C5
330
187BB
100
AcDbEntity
  8
0
 48
50.0
100
AcDbBlockBegin
  2
*D36
 70
     1
 10
0.0
 20
0.0
 30
0.0
  3
*D36
  1

  0
LINE
  5
19FBD
330
187BB
100
AcDbEntity
  8
寸法
 62
     0
 48
50.0
370
    -2
100
AcDbLine
 10
15327.64837007314
 20
4820.255549972138
 30
0.0
 11
15327.64837007314
 21
5533.114837225734
 31
0.0
  0
LINE
  5
19FBE
330
187BB
100
AcDbEntity
  8
寸法
 62
     0
 48
50.0
370
    -2
100
AcDbLine
 10
12977.64837007314
 20
4875.255549972142
 30
0.0
 11
12977.64837007314
 21
5533.114837225734
 31
0.0
  0
LINE
  5
19FBF
330
187BB
100
AcDbEntity
  8
寸法
 62
     0
 48
50.0
370
    -2
100
AcDbLine
 10
15327.64837007314
 20
5473.114837225733
 30
0.0
 11
12977.64837007314
 21
5473.114837225733
 31
0.0
  0
INSERT
  5
19FC0
330
187BB
100
AcDbEntity
  8
寸法
 62
     0
 48
50.0
370
    -2
100
AcDbBlockReference
  2
_DOTSMALL
 10
15327.64837007314
 20
5473.114837225733
 30
0.0
 41
100.0
 42
100.0
 43
100.0
  0
INSERT
  5
19FC1
330
187BB
100
AcDbEntity
  8
寸法
 62
     0
 48
50.0
370
    -2
100
AcDbBlockReference
  2
_DOTSMALL
 10
12977.64837007314
 20
5473.114837225733
 30
0.0
 41
100.0
 42
100.0
 43
100.0
 50
180.0
  0
MTEXT
  5
19FC2
330
187BB
100
AcDbEntity
  8
寸法
 62
     7
 48
50.0
100
AcDbMText
 10
14152.64837007314
 20
5573.126648249356
 30
0.0
 40
120.0
 41
0.0
 71
     5
 72
     1
  1
\A1;2350
  7
STYLE1
 73
     1
 44
1.0
1001
ACAD
1000
MTEXTBEGIN
1070
    73
1070
     1
1070
    44
1040
1.0
1070
    74
1070
     0
1000
MTEXTEND
  0
POINT
  5
19FC3
330
187BB
100
AcDbEntity
  8
DEFPOINTS
 62
     0
 48
50.0
100
AcDbPoint
 10
15327.64837007314
 20
4800.255549972138
 30
0.0
  0
POINT
  5
19FC4
330
187BB
100
AcDbEntity
  8
DEFPOINTS
 62
     0
 48
50.0
100
AcDbPoint
 10
12977.64837007314
 20
4855.255549972142
 30
0.0
  0
POINT
  5
19FC5
330
187BB
100
AcDbEntity
  8
DEFPOINTS
 62
     0
 48
50.0
100
AcDbPoint
 10
12977.64837007314
 20
5473.114837225733
 30
0.0
  0
ENDBLK
  5
187C6
330
187BB
100
AcDbEntity
  8
0
 48
50.0
100
AcDbBlockEnd
  0
BLOCK
  5
187D2
330
187C7
100
AcDbEntity
  8
0
 48
50.0
100
AcDbBlockBegin
  2
*D37
 70
     1
 10
0.0
 20
0.0
 30
0.0
  3
*D37
  1

  0
LINE
  5
188EA
330
187C7
100
AcDbEntity
  8
寸法
 62
     0
 48
50.0
370
    -2
100
AcDbLine
 10
15247.64837007314
 20
4822.066229583792
 30
0.0
 11
15247.64837007314
 21
5313.913003551443
 31
0.0
  0
LINE
  5
188EB
330
187C7
100
AcDbEntity
  8
寸法
 62
     0
 48
50.0
370
    -2
100
AcDbLine
 10
15327.64837007314
 20
4820.255549972138
 30
0.0
 11
15327.64837007314
 21
5313.913003551443
 31
0.0
  0
LINE
  5
188EC
330
187C7
100
AcDbEntity
  8
寸法
 62
     0
 48
50.0
370
    -2
100
AcDbLine
 10
15247.64837007314
 20
5253.913003551442
 30
0.0
 11
15327.64837007314
 21
5253.913003551442
 31
0.0
  0
LINE
  5
188ED
330
187C7
100
AcDbEntity
  8
寸法
 62
     0
 48
50.0
370
    -2
100
AcDbLine
 10
15327.64837007314
 20
5253.913003551442
 30
0.0
 11
15639.74285826212
 21
5253.913003551442
 31
0.0
  0
INSERT
  5
188EE
330
187C7
100
AcDbEntity
  8
寸法
 62
     0
 48
50.0
370
    -2
100
AcDbBlockReference
  2
_DOTSMALL
 10
15247.64837007314
 20
5253.913003551442
 30
0.0
 41
100.0
 42
100.0
 43
100.0
 50
180.0
  0
INSERT
  5
188EF
330
187C7
100
AcDbEntity
  8
寸法
 62
     0
 48
50.0
370
    -2
100
AcDbBlockReference
  2
_DOTSMALL
 10
15327.64837007314
 20
5253.913003551442
 30
0.0
 41
100.0
 42
100.0
 43
100.0
  0
MTEXT
  5
188F0
330
187C7
100
AcDbEntity
  8
寸法
 62
     7
 48
50.0
100
AcDbMText
 10
15533.69561416764
 20
5353.913003551443
 30
0.0
 40
120.0
 41
0.0
 71
     5
 72
     1
  1
\A1;80
  7
STYLE1
 73
     1
 44
1.0
1001
ACAD
1000
MTEXTBEGIN
1070
    73
1070
     1
1070
    44
1040
1.0
1070
    74
1070
     0
1000
MTEXTEND
  0
POINT
  5
188F1
330
187C7
100
AcDbEntity
  8
DEFPOINTS
 62
     0
 48
50.0
100
AcDbPoint
 10
15247.64837007314
 20
4802.066229583792
 30
0.0
  0
POINT
  5
188F2
330
187C7
100
AcDbEntity
  8
DEFPOINTS
 62
     0
 48
50.0
100
AcDbPoint
 10
15327.64837007314
 20
4800.255549972138
 30
0.0
  0
POINT
  5
188F3
330
187C7
100
AcDbEntity
  8
DEFPOINTS
 62
     0
 48
50.0
100
AcDbPoint
 10
15327.64837007314
 20
5253.913003551442
 30
0.0
  0
ENDBLK
  5
187D3
330
187C7
100
AcDbEntity
  8
0
 48
50.0
100
AcDbBlockEnd
  0
BLOCK
  5
187DF
330
187D4
100
AcDbEntity
  8
0
 48
50.0
100
AcDbBlockBegin
  2
*D38
 70
     1
 10
0.0
 20
0.0
 30
0.0
  3
*D38
  1

  0
LINE
  5
188E0
330
187D4
100
AcDbEntity
  8
寸法
 62
     0
 48
50.0
370
    -2
100
AcDbLine
 10
12977.05265636424
 20
4854.5532570418
 30
0.0
 11
12361.11821725897
 21
4872.26740731613
 31
0.0
  0
LINE
  5
188E1
330
187D4
100
AcDbEntity
  8
寸法
 62
     0
 48
50.0
370
    -2
100
AcDbLine
 10
12972.99920080762
 20
4713.611533276088
 30
0.0
 11
12357.06476170234
 21
4731.325683550418
 31
0.0
  0
LINE
  5
188E2
330
187D4
100
AcDbEntity
  8
寸法
 62
     0
 48
50.0
370
    -2
100
AcDbLine
 10
12417.03996330477
 20
4729.600808845471
 30
0.0
 11
12421.0934188614
 21
4870.542532611183
 31
0.0
  0
LINE
  5
188E3
330
187D4
100
AcDbEntity
  8
寸法
 62
     0
 48
50.0
370
    -2
100
AcDbLine
 10
12421.0934188614
 20
4870.542532611183
 30
0.0
 11
12431.44266709108
 21
5230.393742225769
 31
0.0
  0
INSERT
  5
188E4
330
187D4
100
AcDbEntity
  8
寸法
 62
     0
 48
50.0
370
    -2
100
AcDbBlockReference
  2
_DOTSMALL
 10
12417.03996330477
 20
4729.600808845471
 30
0.0
 41
100.0
 42
100.0
 43
100.0
 50
268.3526390256378
  0
INSERT
  5
188E5
330
187D4
100
AcDbEntity
  8
寸法
 62
     0
 48
50.0
370
    -2
100
AcDbBlockReference
  2
_DOTSMALL
 10
12421.0934188614
 20
4870.542532611183
 30
0.0
 41
100.0
 42
100.0
 43
100.0
 50
88.35263902563776
  0
MTEXT
  5
188E6
330
187D4
100
AcDbEntity
  8
寸法
 62
     7
 48
50.0
100
AcDbMText
 10
12327.74676922631
 20
5103.322263262082
 30
0.0
 40
120.0
 41
0.0
 71
     5
 72
     1
  1
\A1;141
  7
STYLE1
 11
0.0287479117491237
 21
0.9995866933738488
 31
0.0
 73
     1
 44
1.0
1001
ACAD
1000
MTEXTBEGIN
1070
    73
1070
     1
1070
    44
1040
1.0
1070
    74
1070
     0
1000
MTEXTEND
  0
POINT
  5
188E7
330
187D4
100
AcDbEntity
  8
DEFPOINTS
 62
     0
 48
50.0
100
AcDbPoint
 10
12997.04439023172
 20
4853.978298806818
 30
0.0
  0
POINT
  5
188E8
330
187D4
100
AcDbEntity
  8
DEFPOINTS
 62
     0
 48
50.0
100
AcDbPoint
 10
12992.99093467509
 20
4713.036575041106
 30
0.0
  0
POINT
  5
188E9
330
187D4
100
AcDbEntity
  8
DEFPOINTS
 62
     0
 48
50.0
100
AcDbPoint
 10
12417.03996330477
 20
4729.600808845471
 30
0.0
  0
ENDBLK
  5
187E0
330
187D4
100
AcDbEntity
  8
0
 48
50.0
100
AcDbBlockEnd
  0
BLOCK
  5
199E1
330
199D6
100
AcDbEntity
  8
0
 48
50.0
100
AcDbBlockBegin
  2
*D39
 70
     1
 10
0.0
 20
0.0
 30
0.0
  3
*D39
  1

  0
LINE
  5
19FEC
330
199D6
100
AcDbEntity
  8
寸法
 62
     0
 48
50.0
370
    -2
100
AcDbLine
 10
10430.47159668355
 20
4455.255549972139
 30
0.0
 11
10758.0146990053
 21
4455.255549972139
 31
0.0
  0
LINE
  5
19FED
330
199D6
100
AcDbEntity
  8
寸法
 62
     0
 48
50.0
370
    -2
100
AcDbLine
 10
10430.47159668355
 20
4620.255549972138
 30
0.0
 11
10758.0146990053
 21
4620.255549972138
 31
0.0
  0
LINE
  5
19FEE
330
199D6
100
AcDbEntity
  8
寸法
 62
     0
 48
50.0
370
    -2
100
AcDbLine
 10
10698.0146990053
 20
4455.255549972139
 30
0.0
 11
10698.0146990053
 21
4620.255549972138
 31
0.0
  0
LINE
  5
19FEF
330
199D6
100
AcDbEntity
  8
寸法
 62
     0
 48
50.0
370
    -2
100
AcDbLine
 10
10698.0146990053
 20
4620.255549972138
 30
0.0
 11
10698.0146990053
 21
4997.226112720616
 31
0.0
  0
INSERT
  5
19FF0
330
199D6
100
AcDbEntity
  8
寸法
 62
     0
 48
50.0
370
    -2
100
AcDbBlockReference
  2
_DOTSMALL
 10
10698.0146990053
 20
4455.255549972139
 30
0.0
 41
100.0
 42
100.0
 43
100.0
 50
270.0
  0
INSERT
  5
19FF1
330
199D6
100
AcDbEntity
  8
寸法
 62
     0
 48
50.0
370
    -2
100
AcDbBlockReference
  2
_DOTSMALL
 10
10698.0146990053
 20
4620.255549972138
 30
0.0
 41
100.0
 42
100.0
 43
100.0
 50
90.0
  0
MTEXT
  5
19FF2
330
199D6
100
AcDbEntity
  8
寸法
 62
     7
 48
50.0
100
AcDbMText
 10
10598.0146990053
 20
4858.740831346378
 30
0.0
 40
120.0
 41
0.0
 71
     5
 72
     1
  1
\A1;165
  7
STYLE1
 11
0.0000000000000001
 21
1.0
 31
0.0
 73
     1
 44
1.0
1001
ACAD
1000
MTEXTBEGIN
1070
    73
1070
     1
1070
    44
1040
1.0
1070
    74
1070
     0
1000
MTEXTEND
  0
POINT
  5
19FF3
330
199D6
100
AcDbEntity
  8
DEFPOINTS
 62
     0
 48
50.0
100
AcDbPoint
 10
10410.47159668355
 20
4455.255549972139
 30
0.0
  0
POINT
  5
19FF4
330
199D6
100
AcDbEntity
  8
DEFPOINTS
 62
     0
 48
50.0
100
AcDbPoint
 10
10410.47159668355
 20
4620.255549972138
 30
0.0
  0
POINT
  5
19FF5
330
199D6
100
AcDbEntity
  8
DEFPOINTS
 62
     0
 48
50.0
100
AcDbPoint
 10
10698.0146990053
 20
4620.255549972138
 30
0.0
  0
ENDBLK
  5
199E2
330
199D6
100
AcDbEntity
  8
0
 48
50.0
100
AcDbBlockEnd
  0
BLOCK
  5
199EF
330
199E3
100
AcDbEntity
  8
0
 48
50.0
100
AcDbBlockBegin
  2
*D40
 70
     1
 10
0.0
 20
0.0
 30
0.0
  3
*D40
  1

  0
LINE
  5
19FE1
330
199E3
100
AcDbEntity
  8
寸法
 62
     0
 48
50.0
370
    -2
100
AcDbLine
 10
10430.47159668355
 20
4428.255549972138
 30
0.0
 11
10758.0146990053
 21
4428.255549972138
 31
0.0
  0
LINE
  5
19FE2
330
199E3
100
AcDbEntity
  8
寸法
 62
     0
 48
50.0
370
    -2
100
AcDbLine
 10
10430.47159668355
 20
4455.255549972139
 30
0.0
 11
10758.0146990053
 21
4455.255549972139
 31
0.0
  0
LINE
  5
19FE3
330
199E3
100
AcDbEntity
  8
寸法
 62
     0
 48
50.0
370
    -2
100
AcDbLine
 10
10698.0146990053
 20
4428.255549972138
 30
0.0
 11
10698.0146990053
 21
4328.255549972137
 31
0.0
  0
LINE
  5
19FE4
330
199E3
100
AcDbEntity
  8
寸法
 62
     0
 48
50.0
370
    -2
100
AcDbLine
 10
10698.0146990053
 20
4455.255549972139
 30
0.0
 11
10698.0146990053
 21
4555.255549972138
 31
0.0
  0
MTEXT
  5
19FE5
330
199E3
100
AcDbEntity
  8
寸法
 62
     7
 48
50.0
100
AcDbMText
 10
10838.18452225166
 20
4456.222749811797
 30
0.0
 40
120.0
 41
0.0
 71
     5
 72
     1
  1
\A1;27
  7
STYLE1
 11
0.0000000000000001
 21
1.0
 31
0.0
 73
     1
 44
1.0
1001
ACAD
1000
MTEXTBEGIN
1070
    73
1070
     1
1070
    44
1040
1.0
1070
    74
1070
     0
1000
MTEXTEND
  0
LINE
  5
19FE6
330
199E3
100
AcDbEntity
  8
寸法
 62
     0
 48
50.0
370
    -2
100
AcDbLine
 10
10698.0146990053
 20
4428.255549972138
 30
0.0
 11
10698.0146990053
 21
4455.255549972139
 31
0.0
  0
INSERT
  5
19FE7
330
199E3
100
AcDbEntity
  8
寸法
 62
     0
 48
50.0
370
    -2
100
AcDbBlockReference
  2
_DOTSMALL
 10
10698.0146990053
 20
4428.255549972138
 30
0.0
 41
100.0
 42
100.0
 43
100.0
 50
90.0
  0
INSERT
  5
19FE8
330
199E3
100
AcDbEntity
  8
寸法
 62
     0
 48
50.0
370
    -2
100
AcDbBlockReference
  2
_DOTSMALL
 10
10698.0146990053
 20
4455.255549972139
 30
0.0
 41
100.0
 42
100.0
 43
100.0
 50
270.0
  0
POINT
  5
19FE9
330
199E3
100
AcDbEntity
  8
DEFPOINTS
 62
     0
 48
50.0
100
AcDbPoint
 10
10410.47159668355
 20
4428.255549972138
 30
0.0
  0
POINT
  5
19FEA
330
199E3
100
AcDbEntity
  8
DEFPOINTS
 62
     0
 48
50.0
100
AcDbPoint
 10
10410.47159668355
 20
4455.255549972139
 30
0.0
  0
POINT
  5
19FEB
330
199E3
100
AcDbEntity
  8
DEFPOINTS
 62
     0
 48
50.0
100
AcDbPoint
 10
10698.0146990053
 20
4455.255549972139
 30
0.0
  0
ENDBLK
  5
199F0
330
199E3
100
AcDbEntity
  8
0
 48
50.0
100
AcDbBlockEnd
  0
BLOCK
  5
199FB
330
199F1
100
AcDbEntity
  8
0
 48
50.0
100
AcDbBlockBegin
  2
*D41
 70
     1
 10
0.0
 20
0.0
 30
0.0
  3
*D41
  1

  0
LINE
  5
19A58
330
199F1
100
AcDbEntity
  8
寸法
 62
     0
 48
50.0
370
    -2
100
AcDbLine
 10
10430.47159668355
 20
2480.255549972139
 30
0.0
 11
10758.0146990053
 21
2480.255549972139
 31
0.0
  0
LINE
  5
19A59
330
199F1
100
AcDbEntity
  8
寸法
 62
     0
 48
50.0
370
    -2
100
AcDbLine
 10
10430.47159668355
 20
4428.255549972138
 30
0.0
 11
10758.0146990053
 21
4428.255549972138
 31
0.0
  0
LINE
  5
19A5A
330
199F1
100
AcDbEntity
  8
寸法
 62
     0
 48
50.0
370
    -2
100
AcDbLine
 10
10698.0146990053
 20
2480.255549972139
 30
0.0
 11
10698.0146990053
 21
4428.255549972138
 31
0.0
  0
INSERT
  5
19A5B
330
199F1
100
AcDbEntity
  8
寸法
 62
     0
 48
50.0
370
    -2
100
AcDbBlockReference
  2
_DOTSMALL
 10
10698.0146990053
 20
2480.255549972139
 30
0.0
 41
100.0
 42
100.0
 43
100.0
 50
270.0
  0
INSERT
  5
19A5C
330
199F1
100
AcDbEntity
  8
寸法
 62
     0
 48
50.0
370
    -2
100
AcDbBlockReference
  2
_DOTSMALL
 10
10698.0146990053
 20
4428.255549972138
 30
0.0
 41
100.0
 42
100.0
 43
100.0
 50
90.0
  0
MTEXT
  5
19A5D
330
199F1
100
AcDbEntity
  8
寸法
 62
     7
 48
50.0
100
AcDbMText
 10
10598.0146990053
 20
3454.25554997214
 30
0.0
 40
120.0
 41
0.0
 71
     5
 72
     1
  1
\A1;有効開口部高サ 1948
  7
STYLE1
 11
0.0000000000000001
 21
1.0
 31
0.0
 73
     1
 44
1.0
1001
ACAD
1000
MTEXTBEGIN
1070
    73
1070
     1
1070
    44
1040
1.0
1070
    74
1070
     0
1000
MTEXTEND
  0
POINT
  5
19A5E
330
199F1
100
AcDbEntity
  8
DEFPOINTS
 62
     0
 48
50.0
100
AcDbPoint
 10
10410.47159668355
 20
2480.255549972139
 30
0.0
  0
POINT
  5
19A5F
330
199F1
100
AcDbEntity
  8
DEFPOINTS
 62
     0
 48
50.0
100
AcDbPoint
 10
10410.47159668355
 20
4428.255549972138
 30
0.0
  0
POINT
  5
19A60
330
199F1
100
AcDbEntity
  8
DEFPOINTS
 62
     0
 48
50.0
100
AcDbPoint
 10
10698.0146990053
 20
4428.255549972138
 30
0.0
  0
ENDBLK
  5
199FC
330
199F1
100
AcDbEntity
  8
0
 48
50.0
100
AcDbBlockEnd
  0
ENDSEC
  0
SECTION
  2
ENTITIES
  0
MTEXT
  5
763F
330
747D
100
AcDbEntity
  8
0
100
AcDbMText
 10
302.846345836809
 20
280.1983726409901
 30
0.0
 40
3.5
 41
5.323721266742722
 71
     1
 72
     5
  1

  7
MSMINCHO
 73
     1
 44
1.0
1001
ACAD
1000
MTEXTBEGIN
1070
    73
1070
     1
1070
    44
1040
1.0
1070
    74
1070
     0
1000
MTEXTEND
  0
LINE
  5
10B57
330
747D
100
AcDbEntity
  8
補助
  6
PHANTOM
 62
   230
 48
50.0
100
AcDbLine
 10
139.9999999999995
 20
11409.6
 30
0.0
 11
16307.2
 21
11409.6
 31
0.0
  0
LINE
  5
10B59
330
747D
100
AcDbEntity
  8
仕様書枠
  6
Continuous
 48
50.0
100
AcDbLine
 10
13107.2
 20
1200.0
 30
0.0
 11
13107.2
 21
-0.0000000000000729
 31
0.0
  0
LINE
  5
10B5C
330
747D
100
AcDbEntity
  8
仕様書枠
 48
50.0
100
AcDbLine
 10
16307.2
 20
1200.0
 30
0.0
 11
16307.2
 21
-0.0000000000000909
 31
0.0
  0
LINE
  5
10B5D
330
747D
100
AcDbEntity
  8
仕様書枠
 48
50.0
100
AcDbLine
 10
140.0
 20
0.0
 30
0.0
 11
16307.2
 21
-0.0000000000000909
 31
0.0
  0
LINE
  5
10B5E
330
747D
100
AcDbEntity
  8
補助
  6
PHANTOM
 62
   230
 48
50.0
100
AcDbLine
 10
16307.2
 20
11409.6
 30
0.0
 11
16307.2
 21
1200.0
 31
0.0
  0
LINE
  5
10B6C
330
747D
100
AcDbEntity
  8
仕様書枠
 48
50.0
100
AcDbLine
 10
13107.2
 20
1200.0
 30
0.0
 11
16307.2
 21
1200.0
 31
0.0
  0
LINE
  5
10B6D
330
747D
100
AcDbEntity
  8
補助
  6
PHANTOM
 62
   230
 48
50.0
100
AcDbLine
 10
13107.2
 20
11409.6
 30
0.0
 11
13107.2
 21
4800.0
 31
0.0
  0
LINE
  5
10B6F
330
747D
100
AcDbEntity
  8
補助
  6
PHANTOM
 62
   230
 48
50.0
100
AcDbLine
 10
13107.2
 20
4800.0
 30
0.0
 11
16307.2
 21
4800.0
 31
0.0
  0
LINE
  5
10B72
330
747D
100
AcDbEntity
  8
文字
 62
     7
 48
50.0
100
AcDbLine
 10
13187.2
 20
400.0
 30
0.0
 11
16227.2
 21
400.0
 31
0.0
  0
TEXT
  5
10B73
330
747D
100
AcDbEntity
  8
文字
 62
     7
 48
50.0
100
AcDbText
 10
13162.9790565769
 20
895.0906074299405
 30
0.0
 40
200.0
  1
外 形 図
  7
STYLE2
100
AcDbText
  0
TEXT
  5
10B74
330
747D
100
AcDbEntity
  8
文字
 62
     7
 48
50.0
100
AcDbText
 10
13201.43669998441
 20
477.2740661031255
 30
0.0
 40
160.0
  1
機種名
  7
STYLE2
100
AcDbText
  0
TEXT
  5
10B75
330
747D
100
AcDbEntity
  8
文字
 62
     7
 48
50.0
100
AcDbText
 10
13209.4053442172
 20
228.5435242569016
 30
0.0
 40
100.0
  1
○有効開口寸法 ： 2424×1948(mm)
  7
STYLE2
100
AcDbText
  0
TEXT
  5
10B79
330
747D
100
AcDbEntity
  8
文字
 62
     7
 48
50.0
100
AcDbText
 10
14524.131837222
 20
1031.557706291228
 30
0.0
 40
100.0
  1
NO.11      <縮尺> S=1/40
  7
STYLE2
100
AcDbText
  0
LINE
  5
10B7B
330
747D
100
AcDbEntity
  8
仕様書枠
 48
50.0
100
AcDbLine
 10
13107.2
 20
800.0
 30
0.0
 11
14251.2
 21
800.0
 31
0.0
  0
LINE
  5
10B88
330
747D
100
AcDbEntity
  8
仕様書枠
  6
Continuous
 48
50.0
100
AcDbLine
 10
14251.2
 20
1200.0
 30
0.0
 11
14251.2
 21
800.0
 31
0.0
  0
TEXT
  5
10BB0
330
747D
100
AcDbEntity
  8
文字
 62
     7
 48
50.0
100
AcDbText
 10
14302.57975890745
 20
483.8967129911414
 30
0.0
 40
160.0
  1
FXN-60HDL-N
  7
STYLE2
100
AcDbText
  0
TEXT
  5
16E3B
330
747D
100
AcDbEntity
  8
文字
 62
     7
 48
50.0
100
AcDbText
 10
13202.76228741985
 20
76.09434707649343
 30
0.0
 40
100.0
  1
○床面積 ： Ｎ［連続数］×5.81㎡(1.76坪)
  7
STYLE2
100
AcDbText
  0
TEXT
  5
17073
330
747D
100
AcDbEntity
  8
文字
 62
     7
 48
50.0
100
AcDbText
 10
15022.63965474516
 20
9910.013745883727
 30
0.0
 40
100.0
  1
F12,Y10        1.0
  7
STYLE1
100
AcDbText
  0
TEXT
  5
17074
330
747D
100
AcDbEntity
  8
文字
 62
     7
 48
50.0
100
AcDbText
 10
13583.11819016569
 20
9910.01374588373
 30
0.0
 40
100.0
  1
梁中
  7
STYLE1
100
AcDbText
  0
LINE
  5
17075
330
747D
100
AcDbEntity
  8
仕様書枠
 48
50.0
100
AcDbLine
 10
16307.19999999999
 20
9879.599999999999
 30
0.0
 11
13127.19999999999
 21
9879.600000000001
 31
0.0
  0
LINE
  5
17076
330
747D
100
AcDbEntity
  8
仕様書枠
 48
50.0
100
AcDbLine
 10
16307.19999999999
 20
11239.6
 30
0.0
 11
13127.2
 21
11239.6
 31
0.0
  0
LINE
  5
17077
330
747D
100
AcDbEntity
  8
仕様書枠
 48
50.0
100
AcDbLine
 10
16307.19999999999
 20
8349.6
 30
0.0
 11
16307.2
 21
11239.6
 31
0.0
  0
LINE
  5
17078
330
747D
100
AcDbEntity
  8
仕様書枠
 48
50.0
100
AcDbLine
 10
14785.2
 20
11239.59999999999
 30
0.0
 11
14785.2
 21
8859.600000000002
 31
0.0
  0
LINE
  5
17079
330
747D
100
AcDbEntity
  8
仕様書枠
 48
50.0
100
AcDbLine
 10
13490.2
 20
11239.6
 30
0.0
 11
13490.20000000001
 21
8859.600000000002
 31
0.0
  0
LINE
  5
1707A
330
747D
100
AcDbEntity
  8
仕様書枠
 48
50.0
100
AcDbLine
 10
16307.19999999999
 20
11069.6
 30
0.0
 11
13127.2
 21
11069.6
 31
0.0
  0
LINE
  5
1707B
330
747D
100
AcDbEntity
  8
仕様書枠
 48
50.0
100
AcDbLine
 10
16307.19999999999
 20
10729.6
 30
0.0
 11
13127.2
 21
10729.6
 31
0.0
  0
LINE
  5
1707C
330
747D
100
AcDbEntity
  8
仕様書枠
 48
50.0
100
AcDbLine
 10
16307.19999999999
 20
10899.6
 30
0.0
 11
13127.2
 21
10899.6
 31
0.0
  0
LINE
  5
1707D
330
747D
100
AcDbEntity
  8
仕様書枠
 48
50.0
100
AcDbLine
 10
16307.19999999999
 20
10389.6
 30
0.0
 11
13127.19999999999
 21
10389.6
 31
0.0
  0
LINE
  5
1707E
330
747D
100
AcDbEntity
  8
仕様書枠
 48
50.0
100
AcDbLine
 10
16307.19999999999
 20
10219.6
 30
0.0
 11
13127.19999999999
 21
10219.6
 31
0.0
  0
LINE
  5
1707F
330
747D
100
AcDbEntity
  8
仕様書枠
 48
50.0
100
AcDbLine
 10
16307.19999999999
 20
10559.6
 30
0.0
 11
13127.19999999999
 21
10559.6
 31
0.0
  0
TEXT
  5
17080
330
747D
100
AcDbEntity
  8
文字
 62
     7
 48
50.0
100
AcDbText
 10
13197.42518560407
 20
11100.01374588373
 30
0.0
 40
100.0
  1
品番
  7
STYLE1
100
AcDbText
  0
TEXT
  5
17081
330
747D
100
AcDbEntity
  8
文字
 62
     7
 48
50.0
100
AcDbText
 10
13271.19032244792
 20
10930.01374588373
 30
0.0
 40
100.0
  1
1
  7
STYLE1
100
AcDbText
  0
TEXT
  5
17082
330
747D
100
AcDbEntity
  8
文字
 62
     7
 48
50.0
100
AcDbText
 10
13271.19032244792
 20
10760.01374588373
 30
0.0
 40
100.0
  1
2
  7
STYLE1
100
AcDbText
  0
TEXT
  5
17083
330
747D
100
AcDbEntity
  8
文字
 62
     7
 48
50.0
100
AcDbText
 10
13271.19032244792
 20
10420.01374588373
 30
0.0
 40
100.0
  1
4
  7
STYLE1
100
AcDbText
  0
TEXT
  5
17084
330
747D
100
AcDbEntity
  8
文字
 62
     7
 48
50.0
100
AcDbText
 10
13271.19032244792
 20
10590.01374588373
 30
0.0
 40
100.0
  1
3
  7
STYLE1
100
AcDbText
  0
TEXT
  5
17085
330
747D
100
AcDbEntity
  8
文字
 62
     7
 48
50.0
100
AcDbText
 10
13732.03840939434
 20
11100.01374588373
 30
0.0
 40
100.0
  1
部　　品　　名
  7
STYLE1
100
AcDbText
  0
TEXT
  5
17086
330
747D
100
AcDbEntity
  8
文字
 62
     7
 48
50.0
100
AcDbText
 10
14859.79774614482
 20
11100.01374588373
 30
0.0
 40
100.0
  1
材料（材質）　　単位mm
  7
STYLE1
100
AcDbText
  0
TEXT
  5
17087
330
747D
100
AcDbEntity
  8
文字
 62
     7
 48
50.0
100
AcDbText
 10
13583.11819016569
 20
10930.01374588372
 30
0.0
 40
100.0
  1
土台枠
  7
STYLE1
100
AcDbText
  0
TEXT
  5
17088
330
747D
100
AcDbEntity
  8
文字
 62
     7
 48
50.0
100
AcDbText
 10
13583.11819016569
 20
10760.01374588372
 30
0.0
 40
100.0
  1
柱
  7
STYLE1
100
AcDbText
  0
TEXT
  5
17089
330
747D
100
AcDbEntity
  8
文字
 62
     7
 48
50.0
100
AcDbText
 10
13583.11819016569
 20
10590.01374588373
 30
0.0
 40
100.0
  1
桁前
  7
STYLE1
100
AcDbText
  0
TEXT
  5
1708A
330
747D
100
AcDbEntity
  8
文字
 62
     7
 48
50.0
100
AcDbText
 10
13583.11819016569
 20
10420.01374588373
 30
0.0
 40
100.0
  1
桁後
  7
STYLE1
100
AcDbText
  0
TEXT
  5
1708B
330
747D
100
AcDbEntity
  8
文字
 62
     7
 48
50.0
100
AcDbText
 10
13271.19032244792
 20
10250.01374588373
 30
0.0
 40
100.0
  1
5
  7
STYLE1
100
AcDbText
  0
TEXT
  5
1708C
330
747D
100
AcDbEntity
  8
文字
 62
     7
 48
50.0
100
AcDbText
 10
13583.11819016569
 20
10250.01374588373
 30
0.0
 40
100.0
  1
妻板左右
  7
STYLE1
100
AcDbText
  0
TEXT
  5
1708D
330
747D
100
AcDbEntity
  8
文字
 62
     7
 48
50.0
100
AcDbText
 10
13583.11819016569
 20
8890.013745883727
 30
0.0
 40
100.0
  1
シャッターレール
  7
STYLE1
100
AcDbText
  0
TEXT
  5
1708E
330
747D
100
AcDbEntity
  8
文字
 62
     7
 48
50.0
100
AcDbText
 10
13248.77747366448
 20
9400.013745883727
 30
0.0
 40
100.0
  1
10
  7
STYLE1
100
AcDbText
  0
TEXT
  5
1708F
330
747D
100
AcDbEntity
  8
文字
 62
     7
 48
50.0
100
AcDbText
 10
13583.11819016569
 20
9400.013745883729
 30
0.0
 40
100.0
  1
壁パネル
  7
STYLE1
100
AcDbText
  0
TEXT
  5
17090
330
747D
100
AcDbEntity
  8
文字
 62
     7
 48
50.0
100
AcDbText
 10
13583.11819016569
 20
9570.013745883727
 30
0.0
 40
100.0
  1
屋根パネル
  7
STYLE1
100
AcDbText
  0
TEXT
  5
17091
330
747D
100
AcDbEntity
  8
文字
 62
     7
 48
50.0
100
AcDbText
 10
13583.11819016569
 20
9740.013745883729
 30
0.0
 40
100.0
  1
母屋中
  7
STYLE1
100
AcDbText
  0
TEXT
  5
17092
330
747D
100
AcDbEntity
  8
文字
 62
     7
 48
50.0
100
AcDbText
 10
13583.11819016569
 20
10080.01374588372
 30
0.0
 40
100.0
  1
鼻隠シ前後
  7
STYLE1
100
AcDbText
  0
TEXT
  5
17093
330
747D
100
AcDbEntity
  8
文字
 62
     7
 48
50.0
100
AcDbText
 10
13271.19032244792
 20
9740.013745883729
 30
0.0
 40
100.0
  1
8
  7
STYLE1
100
AcDbText
  0
TEXT
  5
17094
330
747D
100
AcDbEntity
  8
文字
 62
     7
 48
50.0
100
AcDbText
 10
13271.19032244792
 20
9570.013745883729
 30
0.0
 40
100.0
  1
9
  7
STYLE1
100
AcDbText
  0
TEXT
  5
17095
330
747D
100
AcDbEntity
  8
文字
 62
     7
 48
50.0
100
AcDbText
 10
13271.19032244792
 20
9910.01374588373
 30
0.0
 40
100.0
  1
7
  7
STYLE1
100
AcDbText
  0
TEXT
  5
17096
330
747D
100
AcDbEntity
  8
文字
 62
     7
 48
50.0
100
AcDbText
 10
13271.19032244792
 20
10080.01374588373
 30
0.0
 40
100.0
  1
6
  7
STYLE1
100
AcDbText
  0
LINE
  5
17097
330
747D
100
AcDbEntity
  8
仕様書枠
 48
50.0
100
AcDbLine
 10
16307.19999999999
 20
9539.599999999998
 30
0.0
 11
13127.19999999999
 21
9539.6
 31
0.0
  0
LINE
  5
17098
330
747D
100
AcDbEntity
  8
仕様書枠
 48
50.0
100
AcDbLine
 10
16307.19999999999
 20
9199.599999999998
 30
0.0
 11
13127.19999999999
 21
9199.600000000001
 31
0.0
  0
LINE
  5
17099
330
747D
100
AcDbEntity
  8
仕様書枠
 48
50.0
100
AcDbLine
 10
16307.19999999999
 20
9369.599999999998
 30
0.0
 11
13127.19999999999
 21
9369.600000000001
 31
0.0
  0
LINE
  5
1709A
330
747D
100
AcDbEntity
  8
仕様書枠
 48
50.0
100
AcDbLine
 10
16307.19999999999
 20
10049.6
 30
0.0
 11
13127.2
 21
10049.6
 31
0.0
  0
LINE
  5
1709B
330
747D
100
AcDbEntity
  8
仕様書枠
 48
50.0
100
AcDbLine
 10
16307.19999999999
 20
9709.6
 30
0.0
 11
13127.19999999999
 21
9709.600000000001
 31
0.0
  0
TEXT
  5
1709C
330
747D
100
AcDbEntity
  8
文字
 62
     7
 48
50.0
100
AcDbText
 10
13248.77747366448
 20
9230.013745883727
 30
0.0
 40
100.0
  1
11
  7
STYLE1
100
AcDbText
  0
TEXT
  5
1709D
330
747D
100
AcDbEntity
  8
文字
 62
     7
 48
50.0
100
AcDbText
 10
13583.11819016569
 20
9060.013745883727
 30
0.0
 40
100.0
  1
シャッターカバー
 41
0.9
  7
STYLE1
100
AcDbText
  0
LINE
  5
1709E
330
747D
100
AcDbEntity
  8
仕様書枠
 48
50.0
100
AcDbLine
 10
16307.19999999999
 20
9029.6
 30
0.0
 11
13127.19999999999
 21
9029.6
 31
0.0
  0
LINE
  5
1709F
330
747D
100
AcDbEntity
  8
仕様書枠
 48
50.0
100
AcDbLine
 10
16307.19999999999
 20
8859.6
 30
0.0
 11
13127.19999999999
 21
8859.600000000002
 31
0.0
  0
TEXT
  5
170A0
330
747D
100
AcDbEntity
  8
文字
 62
     7
 48
50.0
100
AcDbText
 10
13583.11819016569
 20
9230.013745883729
 30
0.0
 40
100.0
  1
シャッター
  7
STYLE1
100
AcDbText
  0
TEXT
  5
170A1
330
747D
100
AcDbEntity
  8
文字
 62
     7
 48
50.0
100
AcDbText
 10
13248.77747366448
 20
8890.013745883729
 30
0.0
 40
100.0
  1
13
  7
STYLE1
100
AcDbText
  0
TEXT
  5
170A2
330
747D
100
AcDbEntity
  8
文字
 62
     7
 48
50.0
100
AcDbText
 10
13248.77747366448
 20
9060.013745883729
 30
0.0
 40
100.0
  1
12
  7
STYLE1
100
AcDbText
  0
TEXT
  5
170A3
330
747D
100
AcDbEntity
  8
文字
 62
     7
 48
50.0
100
AcDbText
 10
15022.63965474517
 20
10930.01374588372
 30
0.0
 40
100.0
  1
F12            1.2
  7
STYLE1
100
AcDbText
  0
TEXT
  5
170A4
330
747D
100
AcDbEntity
  8
文字
 62
     7
 48
50.0
100
AcDbText
 10
15022.63965474517
 20
10760.01374588372
 30
0.0
 40
100.0
  1
F12         1.0,1.2
  7
STYLE1
100
AcDbText
  0
TEXT
  5
170A5
330
747D
100
AcDbEntity
  8
文字
 62
     7
 48
50.0
100
AcDbText
 10
15022.63965474516
 20
10590.01374588372
 30
0.0
 40
100.0
  1
Y10            1.0
  7
STYLE1
100
AcDbText
  0
TEXT
  5
170A6
330
747D
100
AcDbEntity
  8
文字
 62
     7
 48
50.0
100
AcDbText
 10
15022.63965474516
 20
10420.01374588372
 30
0.0
 40
100.0
  1
Y10            1.0
  7
STYLE1
100
AcDbText
  0
TEXT
  5
170A7
330
747D
100
AcDbEntity
  8
文字
 62
     7
 48
50.0
100
AcDbText
 10
15022.63965474516
 20
10250.01374588372
 30
0.0
 40
100.0
  1
Y10            0.7
  7
STYLE1
100
AcDbText
  0
TEXT
  5
170A8
330
747D
100
AcDbEntity
  8
文字
 62
     7
 48
50.0
100
AcDbText
 10
15022.63965474516
 20
10080.01374588372
 30
0.0
 40
100.0
  1
Y10            0.7
  7
STYLE1
100
AcDbText
  0
TEXT
  5
170A9
330
747D
100
AcDbEntity
  8
文字
 62
     7
 48
50.0
100
AcDbText
 10
15022.63965474516
 20
9570.013745883725
 30
0.0
 40
100.0
  1
Y10            0.5
  7
STYLE1
100
AcDbText
  0
TEXT
  5
170AA
330
747D
100
AcDbEntity
  8
文字
 62
     7
 48
50.0
100
AcDbText
 10
15022.63965474516
 20
9400.013745883725
 30
0.0
 40
100.0
  1
F12            0.7
  7
STYLE1
100
AcDbText
  0
TEXT
  5
170AB
330
747D
100
AcDbEntity
  8
文字
 62
     7
 48
50.0
100
AcDbText
 10
14850.83183167176
 20
8890.013745883726
 30
0.0
 40
100.0
  1
アルミニウム合金押出形材
  7
STYLE1
100
AcDbText
  0
TEXT
  5
170AD
330
747D
100
AcDbEntity
  8
文字
 62
     7
 48
50.0
100
AcDbText
 10
15022.63965474515
 20
9230.013745883725
 30
0.0
 40
100.0
  1
Z08            0.5
  7
STYLE1
100
AcDbText
  0
LINE
  5
170AE
330
747D
100
AcDbEntity
  8
仕様書枠
 48
50.0
100
AcDbLine
 10
16307.19999999999
 20
8689.600000000003
 30
0.0
 11
13127.19999999999
 21
8689.600000000003
 31
0.0
  0
LINE
  5
170AF
330
747D
100
AcDbEntity
  8
仕様書枠
 48
50.0
100
AcDbLine
 10
16307.19999999999
 20
8519.600000000002
 30
0.0
 11
13127.19999999999
 21
8519.600000000004
 31
0.0
  0
LINE
  5
170B0
330
747D
100
AcDbEntity
  8
仕様書枠
 48
50.0
100
AcDbLine
 10
16307.19999999999
 20
8349.600000000002
 30
0.0
 11
13127.19999999999
 21
8349.600000000004
 31
0.0
  0
TEXT
  5
170B1
330
747D
100
AcDbEntity
  8
文字
 62
     7
 48
50.0
100
AcDbText
 10
13229.83081656555
 20
8720.013745883731
 30
0.0
 40
100.0
  1
F12→溶融亜鉛めっき鋼板(JIS G 3302)
  7
STYLE1
100
AcDbText
  0
TEXT
  5
170B2
330
747D
100
AcDbEntity
  8
文字
 62
     7
 48
50.0
100
AcDbText
 10
13229.83081656555
 20
8550.013745883731
 30
0.0
 40
100.0
  1
Y10→溶融亜鉛-5％アルミニウム合金めっき鋼板(JIS G 3317)
 41
0.9
  7
STYLE1
100
AcDbText
  0
TEXT
  5
170B3
330
747D
100
AcDbEntity
  8
文字
 62
     7
 48
50.0
100
AcDbText
 10
13229.83081656555
 20
8380.013745883733
 30
0.0
 40
100.0
  1
Z08→塗装溶融亜鉛めっき鋼板(JIS G 3313)
  7
STYLE1
100
AcDbText
  0
LINE
  5
170B4
330
747D
100
AcDbEntity
  8
仕様書枠
 48
50.0
100
AcDbLine
 10
13127.2
 20
11239.6
 30
0.0
 11
13127.2
 21
8349.600000000002
 31
0.0
  0
DIMENSION
  5
17D57
330
747D
100
AcDbEntity
  8
寸法
100
AcDbDimension
  2
*D25
 10
11057.89794241798
 20
7612.029213418676
 30
0.0
 11
10957.88613139436
 21
8662.029213418684
 31
0.0
 70
    32
  1
5X420=<>
 71
     5
 42
2100.000000000014
  3
INABA_S40G
100
AcDbAlignedDimension
 13
10410.47159668358
 23
9712.02921341869
 33
0.0
 14
10410.47159668355
 24
7612.029213418676
 34
0.0
 50
90.0
100
AcDbRotatedDimension
1001
ACAD
1000
DSTYLE
1002
{
1002
}
  0
DIMENSION
  5
17D58
330
747D
100
AcDbEntity
  8
寸法
100
AcDbDimension
  2
*D24
 10
11057.89794241796
 20
7557.029213418679
 30
0.0
 11
11057.89794241796
 21
7179.167746513816
 31
0.0
 70
   160
 71
     5
 42
54.99999999999636
  3
INABA_S40G
100
AcDbAlignedDimension
 13
10410.47159668355
 23
7612.029213418676
 33
0.0
 14
10410.47159668355
 24
7557.029213418679
 34
0.0
 50
90.0
100
AcDbRotatedDimension
1001
ACAD
1000
DSTYLE
1002
{
1002
}
  0
DIMENSION
  5
17D59
330
747D
100
AcDbEntity
  8
寸法
100
AcDbDimension
  2
*D23
 10
11057.89794241799
 20
9712.02921341869
 30
0.0
 11
11057.89794241799
 21
10075.51449479292
 31
0.0
 70
   160
 71
     5
 42
54.99999999999636
  3
INABA_S40G
100
AcDbAlignedDimension
 13
10410.47159668358
 23
9767.029213418688
 33
0.0
 14
10410.47159668358
 24
9712.02921341869
 34
0.0
 50
90.0
100
AcDbRotatedDimension
1001
ACAD
1000
DSTYLE
1002
{
1002
}
  0
DIMENSION
  5
17D5A
330
747D
100
AcDbEntity
  8
寸法
100
AcDbDimension
  2
*D22
 10
11423.00488415762
 20
7557.029213418679
 30
0.0
 11
11322.993073134
 21
8662.029213418684
 31
0.0
 70
    32
 71
     5
 42
2210.000000000007
  3
INABA_S40G
100
AcDbAlignedDimension
 13
10410.47159668358
 23
9767.029213418688
 33
0.0
 14
10410.47159668355
 24
7557.029213418679
 34
0.0
 50
90.0
100
AcDbRotatedDimension
1001
ACAD
1000
DSTYLE
1002
{
1002
}
  0
LINE
  5
17D5B
330
747D
100
AcDbEntity
  8
部品1
100
AcDbLine
 10
10382.47159668356
 20
9739.029213418687
 30
0.0
 11
10382.47159668355
 21
7612.029213418676
 31
0.0
  0
LINE
  5
17D5C
330
747D
100
AcDbEntity
  8
部品1
100
AcDbLine
 10
2548.471596683554
 20
7612.029213418543
 30
0.0
 11
2548.471596683565
 21
9739.029213418593
 31
0.0
  0
LINE
  5
17D5D
330
747D
100
AcDbEntity
  8
部品1
100
AcDbLine
 10
10410.47159668358
 20
9767.029213418688
 30
0.0
 11
10410.47159668355
 21
7557.029213418679
 31
0.0
  0
LINE
  5
17D5E
330
747D
100
AcDbEntity
  8
部品1
100
AcDbLine
 10
2520.471596683543
 20
9767.02921341856
 30
0.0
 11
2520.471596683572
 21
7557.029213418548
 31
0.0
  0
DIMENSION
  5
17D5F
330
747D
100
AcDbEntity
  8
寸法
 48
50.0
100
AcDbDimension
  2
*D21
 10
7883.471596683572
 20
7022.598442652423
 30
0.0
 11
9095.471596683564
 21
7122.610253676045
 31
0.0
 70
    32
  1
有効開口部間口 <>
 71
     5
 42
2423.999999999982
  3
INABA_S40G
100
AcDbAlignedDimension
 13
10307.47159668355
 23
7583.029213418588
 33
0.0
 14
7883.471596683572
 24
7583.029213418587
 34
0.0
100
AcDbRotatedDimension
1001
ACAD
1000
DSTYLE
1002
{
1070
    75
1070
     1
1070
   279
1070
     2
1002
}
  0
LINE
  5
17D60
330
747D
100
AcDbEntity
  8
部品1
 48
50.0
100
AcDbLine
 10
7847.471596683572
 20
7602.529213418586
 30
0.0
 11
10343.47159668355
 21
7602.529213418586
 31
0.0
  0
DIMENSION
  5
17D61
330
747D
100
AcDbEntity
  8
寸法
100
AcDbDimension
  2
*D20
 10
10410.47159668354
 20
6576.425447061549
 30
0.0
 11
6465.471596683558
 21
6676.43725808517
 31
0.0
 70
    32
  1
N X 2630
 71
     5
 42
7889.999999999971
  3
INABA_S40G
100
AcDbAlignedDimension
 13
2520.471596683572
 23
7557.029213418584
 33
0.0
 14
10410.47159668354
 24
7557.029213418679
 34
0.0
100
AcDbRotatedDimension
1001
ACAD
1000
DSTYLE
1002
{
1002
}
  0
LINE
  5
17D62
330
747D
100
AcDbEntity
  8
部品1
100
AcDbLine
 10
2575.47159668355
 20
9712.029213418556
 30
0.0
 11
2575.471596683572
 21
7622.029213418585
 31
0.0
  0
LINE
  5
17D63
330
747D
100
AcDbEntity
  8
部品1
100
AcDbLine
 10
2600.47159668355
 20
9712.029213418556
 30
0.0
 11
2600.471596683572
 21
7622.029213418585
 31
0.0
  0
DIMENSION
  5
17D64
330
747D
100
AcDbEntity
  8
寸法
 48
50.0
100
AcDbDimension
  2
*D19
 10
2520.471596683572
 20
7022.598442652423
 30
0.0
 11
2211.986315309332
 21
7022.598442652423
 31
0.0
 70
   160
 71
     5
 42
54.99999999999636
  3
INABA_S40G
100
AcDbAlignedDimension
 13
2575.471596683569
 23
7557.029213418586
 33
0.0
 14
2520.471596683572
 24
7557.029213418584
 34
0.0
100
AcDbRotatedDimension
1001
ACAD
1000
DSTYLE
1002
{
1002
}
  0
DIMENSION
  5
17D65
330
747D
100
AcDbEntity
  8
寸法
 48
50.0
100
AcDbDimension
  2
*D18
 10
7835.471596683568
 20
7022.598442652423
 30
0.0
 11
7996.37356768363
 21
7122.598442652424
 31
0.0
 70
   160
 71
     5
 42
48.00000000000363
  3
INABA_S40G
100
AcDbAlignedDimension
 13
7883.471596683572
 23
7583.029213418587
 33
0.0
 14
7835.471596683568
 24
7557.029213418586
 34
0.0
100
AcDbRotatedDimension
1001
ACAD
1000
DSTYLE
1002
{
1070
   279
1070
     2
1002
}
  0
LINE
  5
17D66
330
747D
100
AcDbEntity
  8
部品1
100
AcDbLine
 10
2575.471596683569
 20
7557.029213418586
 30
0.0
 11
2520.471596683572
 21
7557.029213418584
 31
0.0
  0
LINE
  5
17D67
330
747D
100
AcDbEntity
  8
部品1
 48
50.0
100
AcDbLine
 10
2575.471596683572
 20
7593.029213418586
 30
0.0
 11
2552.471596683572
 21
7593.029213418586
 31
0.0
  0
LINE
  5
17D68
330
747D
100
AcDbEntity
  8
部品1
 48
50.0
100
AcDbLine
 10
2585.471596683572
 20
7583.029213418587
 30
0.0
 11
2575.471596683572
 21
7562.029213418587
 31
0.0
  0
LINE
  5
17D69
330
747D
100
AcDbEntity
  8
部品1
 48
50.0
100
AcDbLine
 10
2575.471596683572
 20
7622.029213418585
 30
0.0
 11
2575.471596683569
 21
7557.029213418586
 31
0.0
  0
LINE
  5
17D6A
330
747D
100
AcDbEntity
  8
部品1
 48
50.0
100
AcDbLine
 10
2623.471596683572
 20
7583.029213418588
 30
0.0
 11
2623.471596683572
 21
7592.029213418587
 31
0.0
  0
LINE
  5
17D6B
330
747D
100
AcDbEntity
  8
部品1
 48
50.0
100
AcDbLine
 10
2623.471596683572
 20
7622.029213418588
 30
0.0
 11
2623.471596683572
 21
7613.029213418588
 31
0.0
  0
LINE
  5
17D6C
330
747D
100
AcDbEntity
  8
部品1
100
AcDbLine
 10
2623.471596683572
 20
7622.029213418588
 30
0.0
 11
2575.471596683572
 21
7622.029213418587
 31
0.0
  0
LINE
  5
17D6D
330
747D
100
AcDbEntity
  8
部品1
100
AcDbLine
 10
2623.471596683572
 20
7583.029213418588
 30
0.0
 11
2575.471596683572
 21
7583.029213418587
 31
0.0
  0
LINE
  5
17D6E
330
747D
100
AcDbEntity
  8
部品1
100
AcDbLine
 10
2575.471596683572
 20
7593.029213418586
 30
0.0
 11
2552.471596683572
 21
7593.029213418586
 31
0.0
  0
LINE
  5
17D6F
330
747D
100
AcDbEntity
  8
部品1
100
AcDbLine
 10
2575.471596683572
 20
7612.029213418511
 30
0.0
 11
2520.471596683572
 21
7612.029213418511
 31
0.0
  0
LINE
  5
17D70
330
747D
100
AcDbEntity
  8
部品1
100
AcDbLine
 10
2548.471596683554
 20
7612.029213418548
 30
0.0
 11
2520.471596683572
 21
7612.029213418548
 31
0.0
  0
LINE
  5
17D71
330
747D
100
AcDbEntity
  8
部品1
100
AcDbLine
 10
2548.471596683572
 20
7612.029213418562
 30
0.0
 11
2520.471596683572
 21
7612.029213418562
 31
0.0
  0
LINE
  5
17D72
330
747D
100
AcDbEntity
  8
部品1
100
AcDbLine
 10
2548.471596683558
 20
8032.029213418562
 30
0.0
 11
2520.471596683558
 21
8032.029213418562
 31
0.0
  0
LINE
  5
17D73
330
747D
100
AcDbEntity
  8
部品1
100
AcDbLine
 10
2548.471596683558
 20
8452.029213418562
 30
0.0
 11
2520.471596683558
 21
8452.029213418562
 31
0.0
  0
LINE
  5
17D74
330
747D
100
AcDbEntity
  8
部品1
100
AcDbLine
 10
2548.471596683554
 20
8872.029213418562
 30
0.0
 11
2520.471596683554
 21
8872.029213418562
 31
0.0
  0
LINE
  5
17D75
330
747D
100
AcDbEntity
  8
部品1
100
AcDbLine
 10
10355.47159668357
 20
9712.029213418556
 30
0.0
 11
10355.47159668355
 21
7557.029213418674
 31
0.0
  0
LINE
  5
17D76
330
747D
100
AcDbEntity
  8
部品1
100
AcDbLine
 10
10330.47159668358
 20
9712.02921341856
 30
0.0
 11
10330.47159668355
 21
7622.029213418587
 31
0.0
  0
DIMENSION
  5
17D77
330
747D
100
AcDbEntity
  8
寸法
 48
50.0
100
AcDbDimension
  2
*D17
 10
10307.47159668355
 20
7022.598442652423
 30
0.0
 11
10196.5086990348
 21
7122.598442652424
 31
0.0
 70
   160
 71
     5
 42
48.00000000000181
  3
INABA_S40G
100
AcDbAlignedDimension
 13
10355.47159668355
 23
7557.029213418674
 33
0.0
 14
10307.47159668355
 24
7583.029213418588
 34
0.0
100
AcDbRotatedDimension
1001
ACAD
1000
DSTYLE
1002
{
1070
   279
1070
     2
1002
}
  0
DIMENSION
  5
17D78
330
747D
100
AcDbEntity
  8
寸法
 48
50.0
100
AcDbDimension
  2
*D16
 10
10355.47159668355
 20
7022.598442652423
 30
0.0
 11
10718.95687805779
 21
7022.598442652423
 31
0.0
 70
   160
 71
     5
 42
54.99999999999818
  3
INABA_S40G
100
AcDbAlignedDimension
 13
10410.47159668355
 23
7557.029213418679
 33
0.0
 14
10355.47159668355
 24
7557.029213418674
 34
0.0
100
AcDbRotatedDimension
1001
ACAD
1000
DSTYLE
1002
{
1002
}
  0
LINE
  5
17D79
330
747D
100
AcDbEntity
  8
部品1
 48
50.0
100
AcDbLine
 10
10345.47159668355
 20
7583.029213418587
 30
0.0
 11
10355.47159668355
 21
7562.029213418587
 31
0.0
  0
LINE
  5
17D7A
330
747D
100
AcDbEntity
  8
部品1
100
AcDbLine
 10
10307.47159668355
 20
7622.029213418588
 30
0.0
 11
10355.47159668355
 21
7622.029213418587
 31
0.0
  0
LINE
  5
17D7B
330
747D
100
AcDbEntity
  8
部品1
100
AcDbLine
 10
10307.47159668355
 20
7583.029213418588
 30
0.0
 11
10355.47159668355
 21
7583.029213418587
 31
0.0
  0
LINE
  5
17D7C
330
747D
100
AcDbEntity
  8
部品1
 48
50.0
100
AcDbLine
 10
10307.47159668355
 20
7622.029213418588
 30
0.0
 11
10307.47159668355
 21
7613.029213418588
 31
0.0
  0
LINE
  5
17D7D
330
747D
100
AcDbEntity
  8
部品1
 48
50.0
100
AcDbLine
 10
10307.47159668355
 20
7583.029213418588
 30
0.0
 11
10307.47159668355
 21
7592.029213418587
 31
0.0
  0
LINE
  5
17D7E
330
747D
100
AcDbEntity
  8
部品1
100
AcDbLine
 10
10355.47159668355
 20
7593.029213418585
 30
0.0
 11
10378.47159668355
 21
7593.029213418586
 31
0.0
  0
LINE
  5
17D7F
330
747D
100
AcDbEntity
  8
部品1
100
AcDbLine
 10
10355.47159668355
 20
7612.02921341869
 30
0.0
 11
10410.47159668359
 21
7612.02921341869
 31
0.0
  0
LINE
  5
17D80
330
747D
100
AcDbEntity
  8
部品1
100
AcDbLine
 10
10410.47159668355
 20
7557.029213418679
 30
0.0
 11
10355.47159668355
 21
7557.029213418676
 31
0.0
  0
LINE
  5
17D81
330
747D
100
AcDbEntity
  8
部品1
100
AcDbLine
 10
10382.47159668358
 20
8032.02921341869
 30
0.0
 11
10410.47159668358
 21
8032.02921341869
 31
0.0
  0
LINE
  5
17D82
330
747D
100
AcDbEntity
  8
部品1
100
AcDbLine
 10
10382.47159668358
 20
8452.029213418688
 30
0.0
 11
10410.47159668358
 21
8452.029213418688
 31
0.0
  0
LINE
  5
17D83
330
747D
100
AcDbEntity
  8
部品1
100
AcDbLine
 10
10382.47159668358
 20
8872.02921341869
 30
0.0
 11
10410.47159668358
 21
8872.02921341869
 31
0.0
  0
LINE
  5
17D84
330
747D
100
AcDbEntity
  8
部品1
100
AcDbLine
 10
7808.47159668363
 20
9739.029213418707
 30
0.0
 11
9082.971596683576
 21
9739.029213418708
 31
0.0
  0
LINE
  5
17D86
330
747D
100
AcDbEntity
  8
部品1
100
AcDbLine
 10
2520.471596683543
 20
9767.029213418551
 30
0.0
 11
10410.47159668358
 21
9767.029213418691
 31
0.0
  0
DIMENSION
  5
17D87
330
747D
100
AcDbEntity
  8
寸法
100
AcDbDimension
  2
*D15
 10
10355.47159668358
 20
9982.837433043689
 30
0.0
 11
9095.471596683578
 21
10082.84924406731
 31
0.0
 70
    32
  1
6X420=<>
 71
     5
 42
2520.0
  3
INABA_S40G
100
AcDbAlignedDimension
 13
7835.471596683579
 23
9767.029213418592
 33
0.0
 14
10355.47159668358
 24
9767.029213418688
 34
0.0
100
AcDbRotatedDimension
1001
ACAD
1000
DSTYLE
1002
{
1002
}
  0
DIMENSION
  5
17D88
330
747D
100
AcDbEntity
  8
寸法
100
AcDbDimension
  2
*D14
 10
2575.471596683579
 20
9982.837433043574
 30
0.0
 11
2211.986315309303
 21
9982.837433043574
 31
0.0
 70
   160
 71
     5
 42
55.00000000003637
  3
INABA_S40G
100
AcDbAlignedDimension
 13
2520.471596683543
 23
9767.029213418592
 33
0.0
 14
2575.471596683579
 24
9767.029213418592
 34
0.0
100
AcDbRotatedDimension
1001
ACAD
1000
DSTYLE
1002
{
1002
}
  0
LINE
  5
17D89
330
747D
100
AcDbEntity
  8
部品1
100
AcDbLine
 10
2575.471596683543
 20
9767.02921341856
 30
0.0
 11
2575.471596683547
 21
9739.029213418559
 31
0.0
  0
LINE
  5
17D8A
330
747D
100
AcDbEntity
  8
部品1
100
AcDbLine
 10
2575.471596683579
 20
9767.029213418592
 30
0.0
 11
2575.471596683579
 21
9739.029213418591
 31
0.0
  0
LINE
  5
17D8B
330
747D
100
AcDbEntity
  8
部品1
100
AcDbLine
 10
2548.471596683547
 20
9712.029213418562
 30
0.0
 11
2520.471596683547
 21
9712.029213418562
 31
0.0
  0
LINE
  5
17D8C
330
747D
100
AcDbEntity
  8
部品1
100
AcDbLine
 10
8255.47159668358
 20
9767.029213418709
 30
0.0
 11
8255.47159668358
 21
9739.029213418708
 31
0.0
  0
LINE
  5
17D8D
330
747D
100
AcDbEntity
  8
部品1
100
AcDbLine
 10
8255.47159668358
 20
9767.029213418592
 30
0.0
 11
8255.47159668358
 21
9739.029213418591
 31
0.0
  0
LINE
  5
17D8E
330
747D
100
AcDbEntity
  8
部品1
100
AcDbLine
 10
8255.47159668358
 20
9767.029213418592
 30
0.0
 11
8255.47159668358
 21
9739.029213418591
 31
0.0
  0
LINE
  5
17D8F
330
747D
100
AcDbEntity
  8
部品1
100
AcDbLine
 10
9107.971596683579
 20
9739.029213418703
 30
0.0
 11
10382.47159668358
 21
9739.029213418687
 31
0.0
  0
LINE
  5
17D90
330
747D
100
AcDbEntity
  8
部品1
100
AcDbLine
 10
8675.471596683578
 20
9767.029213418709
 30
0.0
 11
8675.471596683578
 21
9739.029213418708
 31
0.0
  0
LINE
  5
17D91
330
747D
100
AcDbEntity
  8
部品1
100
AcDbLine
 10
8675.471596683578
 20
9767.029213418592
 30
0.0
 11
8675.471596683578
 21
9739.029213418591
 31
0.0
  0
LINE
  5
17D92
330
747D
100
AcDbEntity
  8
部品1
100
AcDbLine
 10
8675.471596683578
 20
9767.029213418592
 30
0.0
 11
8675.471596683578
 21
9739.029213418591
 31
0.0
  0
LINE
  5
17D93
330
747D
100
AcDbEntity
  8
部品1
100
AcDbLine
 10
9095.471596683578
 20
9767.029213418709
 30
0.0
 11
9095.471596683578
 21
9739.029213418708
 31
0.0
  0
LINE
  5
17D94
330
747D
100
AcDbEntity
  8
部品1
100
AcDbLine
 10
9082.971596683579
 20
9731.02921341869
 30
0.0
 11
9107.971596683579
 21
9731.029213418693
 31
0.0
  0
LINE
  5
17D95
330
747D
100
AcDbEntity
  8
部品1
100
AcDbLine
 10
9124.47159668358
 20
9757.029213418693
 30
0.0
 11
9130.47159668358
 21
9757.029213418693
 31
0.0
  0
LINE
  5
17D96
330
747D
100
AcDbEntity
  8
部品1
100
AcDbLine
 10
9130.47159668358
 20
9757.029213418693
 30
0.0
 11
9130.47159668358
 21
9739.029213418694
 31
0.0
  0
LINE
  5
17D97
330
747D
100
AcDbEntity
  8
部品1
100
AcDbLine
 10
9060.47159668358
 20
9757.029213418693
 30
0.0
 11
9066.47159668358
 21
9757.029213418693
 31
0.0
  0
LINE
  5
17D98
330
747D
100
AcDbEntity
  8
部品1
100
AcDbLine
 10
9060.47159668358
 20
9757.029213418693
 30
0.0
 11
9060.47159668358
 21
9739.029213418694
 31
0.0
  0
LINE
  5
17D99
330
747D
100
AcDbEntity
  8
部品1
100
AcDbLine
 10
9515.47159668358
 20
9767.029213418709
 30
0.0
 11
9515.47159668358
 21
9739.029213418708
 31
0.0
  0
DIMENSION
  5
17D9A
330
747D
100
AcDbEntity
  8
寸法
100
AcDbDimension
  2
*D13
 10
10410.47159668358
 20
9982.837433043671
 30
0.0
 11
10718.95687805781
 21
9982.837433043671
 31
0.0
 70
   160
 71
     5
 42
55.0
  3
INABA_S40G
100
AcDbAlignedDimension
 13
10355.47159668358
 23
9767.029213418688
 33
0.0
 14
10410.47159668358
 24
9767.029213418688
 34
0.0
100
AcDbRotatedDimension
1001
ACAD
1000
DSTYLE
1002
{
1002
}
  0
LINE
  5
17D9B
330
747D
100
AcDbEntity
  8
部品1
100
AcDbLine
 10
9935.471596683578
 20
9767.029213418709
 30
0.0
 11
9935.471596683578
 21
9739.029213418708
 31
0.0
  0
LINE
  5
17D9C
330
747D
100
AcDbEntity
  8
部品1
100
AcDbLine
 10
10355.47159668358
 20
9767.029213418688
 30
0.0
 11
10355.47159668358
 21
9739.029213418687
 31
0.0
  0
LINE
  5
17D9D
330
747D
100
AcDbEntity
  8
部品1
100
AcDbLine
 10
10355.47159668358
 20
9767.029213418709
 30
0.0
 11
10355.47159668358
 21
9739.029213418708
 31
0.0
  0
LINE
  5
17D9E
330
747D
100
AcDbEntity
  8
部品1
100
AcDbLine
 10
10382.47159668358
 20
9712.02921341869
 30
0.0
 11
10410.47159668358
 21
9712.02921341869
 31
0.0
  0
DIMENSION
  5
17D9F
330
747D
100
AcDbEntity
  8
寸法
 48
50.0
100
AcDbDimension
  2
*D12
 10
7677.471596683554
 20
7022.598442652423
 30
0.0
 11
7566.508699034805
 21
7122.598442652424
 31
0.0
 70
   160
 71
     5
 42
48.00000000000181
  3
INABA_S40G
100
AcDbAlignedDimension
 13
7725.471596683556
 23
7557.029213418674
 33
0.0
 14
7677.471596683554
 24
7583.029213418588
 34
0.0
100
AcDbRotatedDimension
1001
ACAD
1000
DSTYLE
1002
{
1070
   279
1070
     2
1002
}
  0
DIMENSION
  5
17DA0
330
747D
100
AcDbEntity
  8
寸法
 48
50.0
100
AcDbDimension
  2
*D11
 10
2575.471596683569
 20
7022.598442652423
 30
0.0
 11
2736.37356768363
 21
7122.598442652424
 31
0.0
 70
   160
 71
     5
 42
48.00000000000363
  3
INABA_S40G
100
AcDbAlignedDimension
 13
2623.471596683572
 23
7583.029213418587
 33
0.0
 14
2575.471596683569
 24
7557.029213418586
 34
0.0
100
AcDbRotatedDimension
1001
ACAD
1000
DSTYLE
1002
{
1070
   279
1070
     2
1002
}
  0
DIMENSION
  5
17DA1
330
747D
100
AcDbEntity
  8
寸法
 48
50.0
100
AcDbDimension
  2
*D10
 10
7725.471596683556
 20
7022.598442652423
 30
0.0
 11
7780.471596683561
 21
6870.906547616193
 31
0.0
 70
   160
 71
     5
 42
110.0000000000127
  3
INABA_S40G
100
AcDbAlignedDimension
 13
7835.471596683568
 23
7557.029213418586
 33
0.0
 14
7725.471596683556
 24
7557.029213418674
 34
0.0
100
AcDbRotatedDimension
1001
ACAD
1000
DSTYLE
1002
{
1070
   279
1070
     2
1002
}
  0
LINE
  5
17DA3
330
747D
100
AcDbEntity
  8
部品1
100
AcDbLine
 10
7677.471596683554
 20
7622.029213418588
 30
0.0
 11
7725.471596683556
 21
7622.029213418587
 31
0.0
  0
LINE
  5
17DA4
330
747D
100
AcDbEntity
  8
部品1
 48
50.0
100
AcDbLine
 10
7677.471596683554
 20
7622.029213418588
 30
0.0
 11
7677.471596683554
 21
7613.029213418588
 31
0.0
  0
LINE
  5
17DA5
330
747D
100
AcDbEntity
  8
部品1
100
AcDbLine
 10
7677.471596683554
 20
7583.029213418588
 30
0.0
 11
7725.471596683553
 21
7583.029213418587
 31
0.0
  0
LINE
  5
17DA6
330
747D
100
AcDbEntity
  8
部品1
 48
50.0
100
AcDbLine
 10
7677.471596683554
 20
7583.029213418588
 30
0.0
 11
7677.471596683554
 21
7592.029213418587
 31
0.0
  0
LINE
  5
17DA7
330
747D
100
AcDbEntity
  8
部品1
 48
50.0
100
AcDbLine
 10
7715.471596683554
 20
7583.029213418587
 30
0.0
 11
7725.471596683553
 21
7562.029213418587
 31
0.0
  0
LINE
  5
17DA8
330
747D
100
AcDbEntity
  8
部品1
100
AcDbLine
 10
7725.471596683553
 20
7593.029213418585
 30
0.0
 11
7748.471596683554
 21
7593.029213418586
 31
0.0
  0
LINE
  5
17DA9
330
747D
100
AcDbEntity
  8
部品1
100
AcDbLine
 10
7883.471596683572
 20
7622.029213418588
 30
0.0
 11
7835.471596683572
 21
7622.029213418587
 31
0.0
  0
LINE
  5
17DAA
330
747D
100
AcDbEntity
  8
部品1
 48
50.0
100
AcDbLine
 10
7883.471596683572
 20
7622.029213418588
 30
0.0
 11
7883.471596683572
 21
7613.029213418588
 31
0.0
  0
LINE
  5
17DAB
330
747D
100
AcDbEntity
  8
部品1
100
AcDbLine
 10
7883.471596683572
 20
7583.029213418588
 30
0.0
 11
7835.471596683572
 21
7583.029213418587
 31
0.0
  0
LINE
  5
17DAC
330
747D
100
AcDbEntity
  8
部品1
 48
50.0
100
AcDbLine
 10
7845.471596683572
 20
7583.029213418587
 30
0.0
 11
7835.471596683572
 21
7562.029213418587
 31
0.0
  0
LINE
  5
17DAD
330
747D
100
AcDbEntity
  8
部品1
100
AcDbLine
 10
7835.471596683572
 20
7593.029213418586
 30
0.0
 11
7812.471596683572
 21
7593.029213418586
 31
0.0
  0
LINE
  5
17DAE
330
747D
100
AcDbEntity
  8
部品1
 48
50.0
100
AcDbLine
 10
7835.471596683572
 20
7622.029213418585
 30
0.0
 11
7835.471596683568
 21
7557.029213418586
 31
0.0
  0
LINE
  5
17DAF
330
747D
100
AcDbEntity
  8
部品1
 48
50.0
100
AcDbLine
 10
7883.471596683572
 20
7583.029213418588
 30
0.0
 11
7883.471596683572
 21
7592.029213418587
 31
0.0
  0
LINE
  5
17DB0
330
747D
100
AcDbEntity
  8
部品1
100
AcDbLine
 10
7835.471596683568
 20
7557.029213418586
 30
0.0
 11
7725.471596683558
 21
7557.02921341858
 31
0.0
  0
LINE
  5
17DB1
330
747D
100
AcDbEntity
  8
部品1
 48
50.0
100
AcDbLine
 10
7725.471596683561
 20
7622.029213418674
 30
0.0
 11
7725.471596683558
 21
7557.029213418674
 31
0.0
  0
LINE
  5
17DB7
330
747D
100
AcDbEntity
  8
部品1
100
AcDbLine
 10
5178.471596683564
 20
9739.029213418708
 30
0.0
 11
6452.971596683575
 21
9739.029213418708
 31
0.0
  0
LINE
  5
17DB8
330
747D
100
AcDbEntity
  8
部品1
100
AcDbLine
 10
5625.471596683579
 20
9767.029213418709
 30
0.0
 11
5625.471596683579
 21
9739.029213418708
 31
0.0
  0
LINE
  5
17DB9
330
747D
100
AcDbEntity
  8
部品1
100
AcDbLine
 10
5625.471596683579
 20
9767.029213418592
 30
0.0
 11
5625.471596683579
 21
9739.029213418591
 31
0.0
  0
LINE
  5
17DBA
330
747D
100
AcDbEntity
  8
部品1
100
AcDbLine
 10
5625.471596683579
 20
9767.029213418592
 30
0.0
 11
5625.471596683579
 21
9739.029213418591
 31
0.0
  0
LINE
  5
17DBB
330
747D
100
AcDbEntity
  8
部品1
100
AcDbLine
 10
6045.471596683579
 20
9767.029213418709
 30
0.0
 11
6045.471596683579
 21
9739.029213418708
 31
0.0
  0
LINE
  5
17DBC
330
747D
100
AcDbEntity
  8
部品1
100
AcDbLine
 10
6045.471596683579
 20
9767.029213418592
 30
0.0
 11
6045.471596683579
 21
9739.029213418591
 31
0.0
  0
LINE
  5
17DBD
330
747D
100
AcDbEntity
  8
部品1
100
AcDbLine
 10
6045.471596683579
 20
9767.029213418592
 30
0.0
 11
6045.471596683579
 21
9739.029213418591
 31
0.0
  0
LINE
  5
17DBE
330
747D
100
AcDbEntity
  8
部品1
100
AcDbLine
 10
6885.471596683579
 20
9767.029213418709
 30
0.0
 11
6885.471596683579
 21
9739.029213418708
 31
0.0
  0
LINE
  5
17DBF
330
747D
100
AcDbEntity
  8
部品1
100
AcDbLine
 10
7305.471596683577
 20
9767.029213418709
 30
0.0
 11
7305.471596683577
 21
9739.029213418708
 31
0.0
  0
DIMENSION
  5
17DC0
330
747D
100
AcDbEntity
  8
寸法
 48
50.0
100
AcDbDimension
  2
*D9
 10
7725.471596683579
 20
9982.837433043689
 30
0.0
 11
7780.47159668358
 21
10082.83743304369
 31
0.0
 70
    32
 71
     5
 42
110.0
  3
INABA_S40G
100
AcDbAlignedDimension
 13
7835.471596683579
 23
9767.029213418641
 33
0.0
 14
7725.471596683579
 24
9767.029213418638
 34
0.0
100
AcDbRotatedDimension
1001
ACAD
1000
DSTYLE
1002
{
1070
   279
1070
     2
1002
}
  0
LINE
  5
17DC1
330
747D
100
AcDbEntity
  8
部品1
100
AcDbLine
 10
7804.471596683562
 20
7612.029213418583
 30
0.0
 11
7756.47159668356
 21
7612.029213418582
 31
0.0
  0
LINE
  5
17DC2
330
747D
100
AcDbEntity
  8
部品1
 48
50.0
100
AcDbLine
 10
7756.471596683564
 20
7612.029213418584
 30
0.0
 11
7756.471596683565
 21
7557.029213418584
 31
0.0
  0
LINE
  5
17DC3
330
747D
100
AcDbEntity
  8
部品1
 48
50.0
100
AcDbLine
 10
7804.471596683562
 20
7612.029213418584
 30
0.0
 11
7804.471596683566
 21
7557.029213418584
 31
0.0
  0
DIMENSION
  5
17DC4
330
747D
100
AcDbEntity
  8
寸法
 48
50.0
100
AcDbDimension
  2
*D8
 10
10410.47159668358
 20
10232.15890659998
 30
0.0
 11
9095.471596683578
 21
10332.1707176236
 31
0.0
 70
    32
 71
     5
 42
2630.0
  3
INABA_S40G
100
AcDbAlignedDimension
 13
7780.47159668358
 23
10141.82534740163
 33
0.0
 14
10410.47159668358
 24
9767.029213418688
 34
0.0
100
AcDbRotatedDimension
1001
ACAD
1000
DSTYLE
1002
{
1070
    75
1070
     0
1070
   279
1070
     2
1002
}
  0
LINE
  5
17DC7
330
747D
100
AcDbEntity
  8
部品1
 48
50.0
100
AcDbLine
 10
9082.971596683576
 20
9739.029213418708
 30
0.0
 11
9082.971596683579
 21
9731.02921341869
 31
0.0
  0
LINE
  5
17DC8
330
747D
100
AcDbEntity
  8
部品1
 48
50.0
100
AcDbLine
 10
9107.971596683579
 20
9739.029213418703
 30
0.0
 11
9107.971596683579
 21
9731.029213418693
 31
0.0
  0
LINE
  5
17DC9
330
747D
100
AcDbEntity
  8
部品1
 48
50.0
100
AcDbLine
 10
7695.47159668363
 20
9739.029213418588
 30
0.0
 11
7695.47159668363
 21
9687.029213418487
 31
0.0
  0
LINE
  5
17DCB
330
747D
100
AcDbEntity
  8
部品1
 48
50.0
100
AcDbLine
 10
7752.471596683597
 20
9712.029213418556
 30
0.0
 11
7752.471596683597
 21
9739.029213418582
 31
0.0
  0
LINE
  5
17DCC
330
747D
100
AcDbEntity
  8
部品1
 48
50.0
100
AcDbLine
 10
7808.471596683597
 20
9712.029213418556
 30
0.0
 11
7808.471596683663
 21
9767.029213418588
 31
0.0
  0
LINE
  5
17DCD
330
747D
100
AcDbEntity
  8
部品1
 48
50.0
100
AcDbLine
 10
7752.471596683597
 20
9739.029213418582
 30
0.0
 11
7780.471596683596
 21
9739.029213418584
 31
0.0
  0
LINE
  5
17DCE
330
747D
100
AcDbEntity
  8
部品1
 48
50.0
100
AcDbLine
 10
7752.471596683597
 20
9739.029213418689
 30
0.0
 11
7752.471596683595
 21
9767.029213418638
 31
0.0
  0
LINE
  5
17DCF
330
747D
100
AcDbEntity
  8
部品1
 48
50.0
100
AcDbLine
 10
7780.471596683596
 20
9739.029213418582
 30
0.0
 11
7752.471596683597
 21
9767.029213418638
 31
0.0
  0
LINE
  5
17DD0
330
747D
100
AcDbEntity
  8
部品1
100
AcDbLine
 10
7725.47159668363
 20
9767.029213418636
 30
0.0
 11
7725.47159668363
 21
9739.029213418636
 31
0.0
  0
LINE
  5
17DD1
330
747D
100
AcDbEntity
  8
部品1
100
AcDbLine
 10
7835.471596683628
 20
9767.02921341854
 30
0.0
 11
7835.471596683628
 21
9739.02921341854
 31
0.0
  0
LINE
  5
17DD3
330
747D
100
AcDbEntity
  8
部品1
 48
50.0
100
AcDbLine
 10
7865.47159668363
 20
9739.029213418492
 30
0.0
 11
7865.47159668363
 21
9687.029213418487
 31
0.0
  0
LINE
  5
17DD5
330
747D
100
AcDbEntity
  8
部品1
 48
50.0
100
AcDbLine
 10
2548.471596683565
 20
9739.029213418593
 30
0.0
 11
2575.47159668355
 21
9712.029213418556
 31
0.0
  0
LINE
  5
17DD6
330
747D
100
AcDbEntity
  8
部品1
 48
50.0
100
AcDbLine
 10
10382.47159668356
 20
9739.029213418687
 30
0.0
 11
10355.47159668357
 21
9712.029213418556
 31
0.0
  0
DIMENSION
  5
17DD7
330
747D
100
AcDbEntity
  8
寸法
 48
50.0
100
AcDbDimension
  2
*D7
 10
5150.47159668358
 20
10232.15890659998
 30
0.0
 11
3835.471596683561
 21
10332.1707176236
 31
0.0
 70
    32
 71
     5
 42
2630.000000000036
  3
INABA_S40G
100
AcDbAlignedDimension
 13
2520.471596683543
 23
9767.02921341856
 33
0.0
 14
5150.47159668358
 24
10141.82534740163
 34
0.0
100
AcDbRotatedDimension
1001
ACAD
1000
DSTYLE
1002
{
1070
   279
1070
     2
1002
}
  0
LINE
  5
17DD8
330
747D
100
AcDbEntity
  8
部品1
100
AcDbLine
 10
3847.971596683579
 20
9739.029213418703
 30
0.0
 11
5122.471596683579
 21
9739.029213418687
 31
0.0
  0
DIMENSION
  5
17DD9
330
747D
100
AcDbEntity
  8
寸法
100
AcDbDimension
  2
*D6
 10
5095.471596683579
 20
9982.837433043689
 30
0.0
 11
3835.471596683579
 21
10082.84924406731
 31
0.0
 70
    32
  1
6X420=<>
 71
     5
 42
2520.0
  3
INABA_S40G
100
AcDbAlignedDimension
 13
2575.471596683579
 23
9767.029213418592
 33
0.0
 14
5095.471596683579
 24
9767.029213418688
 34
0.0
100
AcDbRotatedDimension
1001
ACAD
1000
DSTYLE
1002
{
1002
}
  0
LINE
  5
17DDA
330
747D
100
AcDbEntity
  8
部品1
 48
50.0
100
AcDbLine
 10
2587.471596683572
 20
7602.529213418586
 30
0.0
 11
5083.471596683556
 21
7602.529213418586
 31
0.0
  0
DIMENSION
  5
17DDB
330
747D
100
AcDbEntity
  8
寸法
 48
50.0
100
AcDbDimension
  2
*D5
 10
2623.471596683572
 20
7022.598442652423
 30
0.0
 11
3835.471596683563
 21
7122.610253676045
 31
0.0
 70
    32
  1
有効開口部間口 <>
 71
     5
 42
2423.999999999982
  3
INABA_S40G
100
AcDbAlignedDimension
 13
5047.471596683553
 23
7583.029213418588
 33
0.0
 14
2623.471596683572
 24
7583.029213418587
 34
0.0
100
AcDbRotatedDimension
1001
ACAD
1000
DSTYLE
1002
{
1070
    75
1070
     1
1070
   279
1070
     2
1002
}
  0
DIMENSION
  5
17DDC
330
747D
100
AcDbEntity
  8
寸法
 48
50.0
100
AcDbDimension
  2
*D4
 10
5047.471596683553
 20
7022.598442652423
 30
0.0
 11
4936.508699034806
 21
7122.598442652424
 31
0.0
 70
   160
 71
     5
 42
48.00000000000181
  3
INABA_S40G
100
AcDbAlignedDimension
 13
5095.471596683555
 23
7557.029213418674
 33
0.0
 14
5047.471596683553
 24
7583.029213418588
 34
0.0
100
AcDbRotatedDimension
1001
ACAD
1000
DSTYLE
1002
{
1070
   279
1070
     2
1002
}
  0
LINE
  5
17DDD
330
747D
100
AcDbEntity
  8
部品1
100
AcDbLine
 10
2548.471596683565
 20
9739.029213418708
 30
0.0
 11
3822.971596683576
 21
9739.029213418708
 31
0.0
  0
LINE
  5
17DDE
330
747D
100
AcDbEntity
  8
部品1
100
AcDbLine
 10
2995.471596683579
 20
9767.029213418592
 30
0.0
 11
2995.471596683579
 21
9739.029213418591
 31
0.0
  0
LINE
  5
17DDF
330
747D
100
AcDbEntity
  8
部品1
100
AcDbLine
 10
2995.471596683579
 20
9767.029213418592
 30
0.0
 11
2995.471596683579
 21
9739.029213418591
 31
0.0
  0
LINE
  5
17DE0
330
747D
100
AcDbEntity
  8
部品1
100
AcDbLine
 10
2995.471596683579
 20
9767.029213418709
 30
0.0
 11
2995.471596683579
 21
9739.029213418708
 31
0.0
  0
LINE
  5
17DE1
330
747D
100
AcDbEntity
  8
部品1
100
AcDbLine
 10
3415.47159668358
 20
9767.029213418592
 30
0.0
 11
3415.47159668358
 21
9739.029213418591
 31
0.0
  0
LINE
  5
17DE2
330
747D
100
AcDbEntity
  8
部品1
100
AcDbLine
 10
3415.47159668358
 20
9767.029213418592
 30
0.0
 11
3415.47159668358
 21
9739.029213418591
 31
0.0
  0
LINE
  5
17DE3
330
747D
100
AcDbEntity
  8
部品1
100
AcDbLine
 10
3415.47159668358
 20
9767.029213418709
 30
0.0
 11
3415.47159668358
 21
9739.029213418708
 31
0.0
  0
LINE
  5
17DE4
330
747D
100
AcDbEntity
  8
部品1
 48
50.0
100
AcDbLine
 10
3847.971596683579
 20
9739.029213418703
 30
0.0
 11
3847.971596683579
 21
9731.029213418693
 31
0.0
  0
LINE
  5
17DE5
330
747D
100
AcDbEntity
  8
部品1
 48
50.0
100
AcDbLine
 10
3822.971596683576
 20
9739.029213418708
 30
0.0
 11
3822.971596683579
 21
9731.02921341869
 31
0.0
  0
LINE
  5
17DE6
330
747D
100
AcDbEntity
  8
部品1
100
AcDbLine
 10
3800.47159668358
 20
9757.029213418693
 30
0.0
 11
3800.47159668358
 21
9739.029213418694
 31
0.0
  0
LINE
  5
17DE7
330
747D
100
AcDbEntity
  8
部品1
100
AcDbLine
 10
3800.47159668358
 20
9757.029213418693
 30
0.0
 11
3806.471596683579
 21
9757.029213418693
 31
0.0
  0
LINE
  5
17DE8
330
747D
100
AcDbEntity
  8
部品1
100
AcDbLine
 10
3870.471596683579
 20
9757.029213418693
 30
0.0
 11
3870.471596683579
 21
9739.029213418694
 31
0.0
  0
LINE
  5
17DE9
330
747D
100
AcDbEntity
  8
部品1
100
AcDbLine
 10
3864.47159668358
 20
9757.029213418693
 30
0.0
 11
3870.471596683579
 21
9757.029213418693
 31
0.0
  0
LINE
  5
17DEA
330
747D
100
AcDbEntity
  8
部品1
100
AcDbLine
 10
3822.971596683579
 20
9731.02921341869
 30
0.0
 11
3847.971596683579
 21
9731.029213418693
 31
0.0
  0
LINE
  5
17DEB
330
747D
100
AcDbEntity
  8
部品1
100
AcDbLine
 10
3835.471596683579
 20
9767.029213418709
 30
0.0
 11
3835.471596683579
 21
9739.029213418708
 31
0.0
  0
LINE
  5
17DEC
330
747D
100
AcDbEntity
  8
部品1
100
AcDbLine
 10
4255.471596683579
 20
9767.029213418709
 30
0.0
 11
4255.471596683579
 21
9739.029213418708
 31
0.0
  0
LINE
  5
17DED
330
747D
100
AcDbEntity
  8
部品1
100
AcDbLine
 10
4675.471596683578
 20
9767.029213418709
 30
0.0
 11
4675.471596683578
 21
9739.029213418708
 31
0.0
  0
DIMENSION
  5
17DEE
330
747D
100
AcDbEntity
  8
寸法
 48
50.0
100
AcDbDimension
  2
*D3
 10
5095.471596683555
 20
7022.598442652423
 30
0.0
 11
5150.471596683561
 21
6870.906547616193
 31
0.0
 70
   160
 71
     5
 42
110.0000000000127
  3
INABA_S40G
100
AcDbAlignedDimension
 13
5205.471596683569
 23
7557.029213418586
 33
0.0
 14
5095.471596683555
 24
7557.029213418674
 34
0.0
100
AcDbRotatedDimension
1001
ACAD
1000
DSTYLE
1002
{
1070
   279
1070
     2
1002
}
  0
DIMENSION
  5
17DEF
330
747D
100
AcDbEntity
  8
寸法
 48
50.0
100
AcDbDimension
  2
*D2
 10
5205.471596683569
 20
7022.598442652423
 30
0.0
 11
5366.37356768363
 21
7122.598442652424
 31
0.0
 70
   160
 71
     5
 42
48.00000000000363
  3
INABA_S40G
100
AcDbAlignedDimension
 13
5253.471596683572
 23
7583.029213418587
 33
0.0
 14
5205.471596683569
 24
7557.029213418586
 34
0.0
100
AcDbRotatedDimension
1001
ACAD
1000
DSTYLE
1002
{
1070
   279
1070
     2
1002
}
  0
LINE
  5
17DF0
330
747D
100
AcDbEntity
  8
部品1
100
AcDbLine
 10
5205.471596683569
 20
7557.029213418586
 30
0.0
 11
5095.471596683558
 21
7557.02921341858
 31
0.0
  0
LINE
  5
17DF1
330
747D
100
AcDbEntity
  8
部品1
100
AcDbLine
 10
5205.471596683572
 20
7593.029213418586
 30
0.0
 11
5182.471596683572
 21
7593.029213418586
 31
0.0
  0
LINE
  5
17DF2
330
747D
100
AcDbEntity
  8
部品1
 48
50.0
100
AcDbLine
 10
5174.471596683563
 20
7612.029213418584
 30
0.0
 11
5174.471596683565
 21
7557.029213418584
 31
0.0
  0
LINE
  5
17DF3
330
747D
100
AcDbEntity
  8
部品1
 48
50.0
100
AcDbLine
 10
5126.471596683563
 20
7612.029213418584
 30
0.0
 11
5126.471596683565
 21
7557.029213418584
 31
0.0
  0
LINE
  5
17DF4
330
747D
100
AcDbEntity
  8
部品1
100
AcDbLine
 10
5174.471596683563
 20
7612.029213418583
 30
0.0
 11
5126.471596683561
 21
7612.029213418582
 31
0.0
  0
LINE
  5
17DF5
330
747D
100
AcDbEntity
  8
部品1
 48
50.0
100
AcDbLine
 10
5095.471596683561
 20
7622.029213418674
 30
0.0
 11
5095.471596683558
 21
7557.029213418674
 31
0.0
  0
LINE
  5
17DF6
330
747D
100
AcDbEntity
  8
部品1
100
AcDbLine
 10
5095.471596683553
 20
7593.029213418585
 30
0.0
 11
5118.471596683554
 21
7593.029213418586
 31
0.0
  0
LINE
  5
17DF7
330
747D
100
AcDbEntity
  8
部品1
 48
50.0
100
AcDbLine
 10
5085.471596683554
 20
7583.029213418587
 30
0.0
 11
5095.471596683553
 21
7562.029213418587
 31
0.0
  0
LINE
  5
17DF8
330
747D
100
AcDbEntity
  8
部品1
 48
50.0
100
AcDbLine
 10
5047.471596683553
 20
7583.029213418588
 30
0.0
 11
5047.471596683553
 21
7592.029213418587
 31
0.0
  0
LINE
  5
17DF9
330
747D
100
AcDbEntity
  8
部品1
100
AcDbLine
 10
5047.471596683553
 20
7583.029213418588
 30
0.0
 11
5095.471596683553
 21
7583.029213418587
 31
0.0
  0
LINE
  5
17DFA
330
747D
100
AcDbEntity
  8
部品1
 48
50.0
100
AcDbLine
 10
5047.471596683553
 20
7622.029213418588
 30
0.0
 11
5047.471596683553
 21
7613.029213418588
 31
0.0
  0
LINE
  5
17DFB
330
747D
100
AcDbEntity
  8
部品1
100
AcDbLine
 10
5047.471596683553
 20
7622.029213418588
 30
0.0
 11
5095.471596683555
 21
7622.029213418587
 31
0.0
  0
LINE
  5
17DFC
330
747D
100
AcDbEntity
  8
部品1
 48
50.0
100
AcDbLine
 10
5253.471596683572
 20
7583.029213418588
 30
0.0
 11
5253.471596683572
 21
7592.029213418587
 31
0.0
  0
LINE
  5
17DFD
330
747D
100
AcDbEntity
  8
部品1
 48
50.0
100
AcDbLine
 10
5205.471596683572
 20
7622.029213418585
 30
0.0
 11
5205.471596683569
 21
7557.029213418586
 31
0.0
  0
LINE
  5
17DFE
330
747D
100
AcDbEntity
  8
部品1
 48
50.0
100
AcDbLine
 10
5215.471596683572
 20
7583.029213418587
 30
0.0
 11
5205.471596683572
 21
7562.029213418587
 31
0.0
  0
LINE
  5
17DFF
330
747D
100
AcDbEntity
  8
部品1
100
AcDbLine
 10
5253.471596683572
 20
7583.029213418588
 30
0.0
 11
5205.471596683572
 21
7583.029213418587
 31
0.0
  0
LINE
  5
17E00
330
747D
100
AcDbEntity
  8
部品1
 48
50.0
100
AcDbLine
 10
5253.471596683572
 20
7622.029213418588
 30
0.0
 11
5253.471596683572
 21
7613.029213418588
 31
0.0
  0
LINE
  5
17E01
330
747D
100
AcDbEntity
  8
部品1
100
AcDbLine
 10
5253.471596683572
 20
7622.029213418588
 30
0.0
 11
5205.471596683572
 21
7622.029213418587
 31
0.0
  0
DIMENSION
  5
17E02
330
747D
100
AcDbEntity
  8
寸法
 48
50.0
100
AcDbDimension
  2
*D1
 10
5095.471596683579
 20
9982.837433043689
 30
0.0
 11
5150.47159668358
 21
10082.83743304369
 31
0.0
 70
    32
 71
     5
 42
110.0
  3
INABA_S40G
100
AcDbAlignedDimension
 13
5205.47159668358
 23
9767.029213418641
 33
0.0
 14
5095.471596683579
 24
9767.029213418638
 34
0.0
100
AcDbRotatedDimension
1001
ACAD
1000
DSTYLE
1002
{
1070
   279
1070
     2
1002
}
  0
LINE
  5
17E03
330
747D
100
AcDbEntity
  8
部品1
100
AcDbLine
 10
5095.47159668363
 20
9767.029213418636
 30
0.0
 11
5095.47159668363
 21
9739.029213418636
 31
0.0
  0
LINE
  5
17E04
330
747D
100
AcDbEntity
  8
部品1
 48
50.0
100
AcDbLine
 10
5150.471596683596
 20
9739.029213418582
 30
0.0
 11
5122.471596683597
 21
9767.029213418638
 31
0.0
  0
LINE
  5
17E05
330
747D
100
AcDbEntity
  8
部品1
 48
50.0
100
AcDbLine
 10
5122.471596683597
 20
9739.029213418689
 30
0.0
 11
5122.471596683595
 21
9767.029213418638
 31
0.0
  0
LINE
  5
17E06
330
747D
100
AcDbEntity
  8
部品1
 48
50.0
100
AcDbLine
 10
5122.471596683597
 20
9739.029213418582
 30
0.0
 11
5150.471596683596
 21
9739.029213418584
 31
0.0
  0
LINE
  5
17E07
330
747D
100
AcDbEntity
  8
部品1
 48
50.0
100
AcDbLine
 10
5178.471596683597
 20
9712.029213418556
 30
0.0
 11
5178.471596683663
 21
9767.029213418588
 31
0.0
  0
LINE
  5
17E08
330
747D
100
AcDbEntity
  8
部品1
 48
50.0
100
AcDbLine
 10
5122.471596683597
 20
9712.029213418556
 30
0.0
 11
5122.471596683597
 21
9739.029213418582
 31
0.0
  0
LINE
  5
17E09
330
747D
100
AcDbEntity
  8
部品1
 48
50.0
100
AcDbLine
 10
5178.471596683597
 20
9712.029213418615
 30
0.0
 11
5122.471596683597
 21
9712.029213418613
 31
0.0
  0
LINE
  5
17E0A
330
747D
100
AcDbEntity
  8
部品1
 48
50.0
100
AcDbLine
 10
5065.471596683631
 20
9739.029213418588
 30
0.0
 11
5065.471596683631
 21
9687.029213418487
 31
0.0
  0
LINE
  5
17E0B
330
747D
100
AcDbEntity
  8
部品1
 48
50.0
100
AcDbLine
 10
5235.47159668363
 20
9739.029213418492
 30
0.0
 11
5235.47159668363
 21
9687.029213418487
 31
0.0
  0
LINE
  5
17E0C
330
747D
100
AcDbEntity
  8
部品1
100
AcDbLine
 10
5205.471596683628
 20
9767.02921341854
 30
0.0
 11
5205.471596683628
 21
9739.02921341854
 31
0.0
  0
LINE
  5
17E11
330
747D
100
AcDbEntity
  8
寸法
 48
50.0
100
AcDbLine
 10
5205.471596683577
 20
9982.837433043689
 30
0.0
 11
6045.471596683578
 21
9982.837433043689
 31
0.0
  0
LINE
  5
17E12
330
747D
100
AcDbEntity
  8
寸法
 48
50.0
100
AcDbLine
 10
5150.47159668358
 20
10232.15890659998
 30
0.0
 11
6038.471596683579
 21
10232.15890659998
 31
0.0
  0
TEXT
  5
17E13
330
747D
100
AcDbEntity
  8
文字
 48
50.0
100
AcDbText
 10
5677.652769900529
 20
10022.49026109036
 30
0.0
 40
120.0
  1
2520
  7
STYLE1
100
AcDbText
  0
TEXT
  5
17E14
330
747D
100
AcDbEntity
  8
文字
 48
50.0
100
AcDbText
 10
5670.652769900531
 20
10271.81173464666
 30
0.0
 40
120.0
  1
2630
  7
STYLE1
100
AcDbText
  0
LINE
  5
17E15
330
747D
100
AcDbEntity
  8
寸法
 48
50.0
100
AcDbLine
 10
6885.471596683579
 20
9982.837433043689
 30
0.0
 11
7725.471596683579
 21
9982.837433043689
 31
0.0
  0
LINE
  5
17E16
330
747D
100
AcDbEntity
  8
寸法
 48
50.0
100
AcDbLine
 10
6892.471596683579
 20
10232.15890659998
 30
0.0
 11
7780.47159668358
 21
10232.15890659998
 31
0.0
  0
TEXT
  5
17E17
330
747D
100
AcDbEntity
  8
文字
 48
50.0
100
AcDbText
 10
6915.821158027068
 20
10022.49026109036
 30
0.0
 40
120.0
  1
2520
  7
STYLE1
100
AcDbText
  0
TEXT
  5
17E18
330
747D
100
AcDbEntity
  8
文字
 48
50.0
100
AcDbText
 10
6922.821158027069
 20
10271.81173464666
 30
0.0
 40
120.0
  1
2630
  7
STYLE1
100
AcDbText
  0
LINE
  5
17E19
330
747D
100
AcDbEntity
  8
寸法
 48
50.0
100
AcDbLine
 10
5253.471596683572
 20
7022.598442652423
 30
0.0
 11
6243.471596683572
 21
7022.598442652423
 31
0.0
  0
TEXT
  5
17E1A
330
747D
100
AcDbEntity
  8
文字
 48
50.0
100
AcDbText
 10
5875.652769900524
 20
7062.2512706991
 30
0.0
 40
120.0
  1
2424
  7
STYLE1
100
AcDbText
  0
LINE
  5
17E1B
330
747D
100
AcDbEntity
  8
寸法
 48
50.0
100
AcDbLine
 10
6687.471596683554
 20
7022.598442652423
 30
0.0
 11
7677.471596683554
 21
7022.598442652423
 31
0.0
  0
TEXT
  5
17E1C
330
747D
100
AcDbEntity
  8
文字
 48
50.0
100
AcDbText
 10
6717.821158027044
 20
7062.2512706991
 30
0.0
 40
120.0
  1
2424
  7
STYLE1
100
AcDbText
  0
LINE
  5
17E1E
330
747D
100
AcDbEntity
  8
部品1
100
AcDbLine
 10
6477.97159668358
 20
9739.029213418701
 30
0.0
 11
7752.47159668358
 21
9739.029213418687
 31
0.0
  0
LINE
  5
17E1F
330
747D
100
AcDbEntity
  8
部品1
100
AcDbLine
 10
10355.47159668357
 20
9712.029213418547
 30
0.0
 11
2575.47159668355
 21
9712.029213418523
 31
0.0
  0
LINE
  5
17E20
330
747D
100
AcDbEntity
  8
部品1
100
AcDbLine
 10
10330.47159668358
 20
9687.029213418488
 30
0.0
 11
2600.47159668355
 21
9687.029213418451
 31
0.0
  0
LWPOLYLINE
  5
17E22
330
747D
100
AcDbEntity
  8
部品1
100
AcDbPolyline
 90
        4
 70
     1
 43
0.0
 10
6083.73626356935
 20
6405.574451132652
 10
6083.73626356935
 20
6165.68212958712
 10
6847.206929797791
 20
6165.68212958712
 10
6847.206929797791
 20
6405.574451132652
  0
TEXT
  5
17E23
330
747D
100
AcDbEntity
  8
部品1
100
AcDbText
 10
6173.655873398388
 20
6212.680921914128
 30
0.0
 40
135.0
  1
平面図
  7
STYLE2
100
AcDbText
  0
LINE
  5
17E2E
330
747D
100
AcDbEntity
  8
部品1
 48
50.0
100
AcDbLine
 10
7780.471596683558
 20
4455.255549972139
 30
0.0
 11
7780.471596683556
 21
4714.255549972142
 31
0.0
  0
LINE
  5
17E2F
330
747D
100
AcDbEntity
  8
部品1
 48
50.0
100
AcDbLine
 10
7770.471596683556
 20
4714.255549972142
 30
0.0
 11
7770.471596683553
 21
4855.255549972143
 31
0.0
  0
LINE
  5
17E8A
330
747D
100
AcDbEntity
  8
部品1
100
AcDbLine
 10
7677.47159668356
 20
4455.255549972139
 30
0.0
 11
7677.471596683556
 21
2480.255549972139
 31
0.0
  0
LINE
  5
17E8B
330
747D
100
AcDbEntity
  8
部品1
100
AcDbLine
 10
5253.471596683556
 20
4455.255549972139
 30
0.0
 11
5253.471596683556
 21
2480.255549972139
 31
0.0
  0
LINE
  5
17E8C
330
747D
100
AcDbEntity
  8
部品1
100
AcDbLine
 10
5205.471596683556
 20
4455.255549972138
 30
0.0
 11
5205.471596683556
 21
2480.255549972139
 31
0.0
  0
LINE
  5
17E8D
330
747D
100
AcDbEntity
  8
部品1
100
AcDbLine
 10
7725.471596683554
 20
4455.255549972138
 30
0.0
 11
7725.471596683556
 21
2480.255549972139
 31
0.0
  0
LINE
  5
17E91
330
747D
100
AcDbEntity
  8
部品1
100
AcDbLine
 10
7780.471596683554
 20
2480.255549972139
 30
0.0
 11
10410.47159668355
 21
2480.255549972139
 31
0.0
  0
LINE
  5
17E92
330
747D
100
AcDbEntity
  8
部品1
100
AcDbLine
 10
7780.471596683554
 20
4620.255549972138
 30
0.0
 11
10410.47159668355
 21
4620.255549972138
 31
0.0
  0
LINE
  5
17E93
330
747D
100
AcDbEntity
  8
部品1
100
AcDbLine
 10
10355.47159668355
 20
4455.255549972136
 30
0.0
 11
10355.47159668355
 21
2480.255549972139
 31
0.0
  0
LINE
  5
17E94
330
747D
100
AcDbEntity
  8
部品1
100
AcDbLine
 10
7835.471596683554
 20
4455.255549972138
 30
0.0
 11
7835.471596683554
 21
2480.255549972139
 31
0.0
  0
LINE
  5
17E95
330
747D
100
AcDbEntity
  8
部品1
100
AcDbLine
 10
10410.47159668355
 20
4714.255549972142
 30
0.0
 11
10410.47159668355
 21
2380.255549972138
 31
0.0
  0
LINE
  5
17E96
330
747D
100
AcDbEntity
  8
部品1
100
AcDbLine
 10
7883.471596683555
 20
4455.255549972139
 30
0.0
 11
7883.471596683555
 21
2480.255549972139
 31
0.0
  0
LINE
  5
17E97
330
747D
100
AcDbEntity
  8
部品1
100
AcDbLine
 10
10307.47159668355
 20
4455.255549972139
 30
0.0
 11
10307.47159668355
 21
2480.255549972139
 31
0.0
  0
LINE
  5
17E98
330
747D
100
AcDbEntity
  8
部品1
100
AcDbLine
 10
7835.471596683554
 20
4455.255549972139
 30
0.0
 11
10410.47159668355
 21
4455.255549972139
 31
0.0
  0
LINE
  5
17E99
330
747D
100
AcDbEntity
  8
細線
100
AcDbLine
 10
7883.471596683555
 20
4115.255549972139
 30
0.0
 11
10307.47159668355
 21
4115.255549972139
 31
0.0
  0
LINE
  5
17E9A
330
747D
100
AcDbEntity
  8
細線
100
AcDbLine
 10
7883.471596683555
 20
4180.255549972138
 30
0.0
 11
10307.47159668355
 21
4180.255549972138
 31
0.0
  0
LINE
  5
17E9B
330
747D
100
AcDbEntity
  8
細線
100
AcDbLine
 10
7883.471596683555
 20
4245.255549972138
 30
0.0
 11
10307.47159668355
 21
4245.255549972138
 31
0.0
  0
LINE
  5
17E9C
330
747D
100
AcDbEntity
  8
細線
100
AcDbLine
 10
7883.471596683555
 20
3725.255549972138
 30
0.0
 11
10307.47159668355
 21
3725.255549972138
 31
0.0
  0
LINE
  5
17E9D
330
747D
100
AcDbEntity
  8
細線
100
AcDbLine
 10
7883.471596683555
 20
3790.255549972139
 30
0.0
 11
10307.47159668355
 21
3790.255549972139
 31
0.0
  0
LINE
  5
17E9E
330
747D
100
AcDbEntity
  8
細線
100
AcDbLine
 10
7883.471596683555
 20
3855.255549972138
 30
0.0
 11
10307.47159668355
 21
3855.255549972138
 31
0.0
  0
LINE
  5
17E9F
330
747D
100
AcDbEntity
  8
細線
100
AcDbLine
 10
7883.471596683555
 20
3920.255549972138
 30
0.0
 11
10307.47159668355
 21
3920.255549972138
 31
0.0
  0
LINE
  5
17EA0
330
747D
100
AcDbEntity
  8
細線
100
AcDbLine
 10
7883.471596683555
 20
3985.255549972139
 30
0.0
 11
10307.47159668355
 21
3985.255549972139
 31
0.0
  0
LINE
  5
17EA1
330
747D
100
AcDbEntity
  8
細線
100
AcDbLine
 10
7883.471596683555
 20
4050.255549972137
 30
0.0
 11
10307.47159668355
 21
4050.255549972137
 31
0.0
  0
LINE
  5
17EA2
330
747D
100
AcDbEntity
  8
細線
100
AcDbLine
 10
7883.471596683555
 20
3075.255549972139
 30
0.0
 11
10307.47159668355
 21
3075.255549972139
 31
0.0
  0
LINE
  5
17EA3
330
747D
100
AcDbEntity
  8
細線
100
AcDbLine
 10
7883.471596683555
 20
3140.255549972139
 30
0.0
 11
10307.47159668355
 21
3140.255549972139
 31
0.0
  0
LINE
  5
17EA4
330
747D
100
AcDbEntity
  8
細線
100
AcDbLine
 10
7883.471596683555
 20
3205.255549972139
 30
0.0
 11
10307.47159668355
 21
3205.255549972139
 31
0.0
  0
LINE
  5
17EA5
330
747D
100
AcDbEntity
  8
細線
100
AcDbLine
 10
7883.471596683555
 20
3270.255549972139
 30
0.0
 11
10307.47159668355
 21
3270.255549972139
 31
0.0
  0
LINE
  5
17EA6
330
747D
100
AcDbEntity
  8
細線
100
AcDbLine
 10
7883.471596683555
 20
3335.255549972139
 30
0.0
 11
10307.47159668355
 21
3335.255549972139
 31
0.0
  0
LINE
  5
17EA7
330
747D
100
AcDbEntity
  8
細線
100
AcDbLine
 10
7883.471596683555
 20
3400.255549972138
 30
0.0
 11
10307.47159668355
 21
3400.255549972138
 31
0.0
  0
LINE
  5
17EA8
330
747D
100
AcDbEntity
  8
細線
100
AcDbLine
 10
7883.471596683555
 20
3465.255549972139
 30
0.0
 11
10307.47159668355
 21
3465.255549972139
 31
0.0
  0
LINE
  5
17EA9
330
747D
100
AcDbEntity
  8
細線
100
AcDbLine
 10
7883.471596683555
 20
3530.255549972139
 30
0.0
 11
10307.47159668355
 21
3530.255549972139
 31
0.0
  0
LINE
  5
17EAA
330
747D
100
AcDbEntity
  8
細線
100
AcDbLine
 10
7883.471596683555
 20
3595.255549972139
 30
0.0
 11
10307.47159668355
 21
3595.255549972139
 31
0.0
  0
LINE
  5
17EAB
330
747D
100
AcDbEntity
  8
細線
100
AcDbLine
 10
7883.471596683555
 20
3660.255549972138
 30
0.0
 11
10307.47159668355
 21
3660.255549972138
 31
0.0
  0
LINE
  5
17EAC
330
747D
100
AcDbEntity
  8
細線
100
AcDbLine
 10
7883.471596683555
 20
4375.255549972138
 30
0.0
 11
10307.47159668355
 21
4375.255549972138
 31
0.0
  0
LINE
  5
17EAD
330
747D
100
AcDbEntity
  8
細線
100
AcDbLine
 10
7883.471596683555
 20
4440.255549972138
 30
0.0
 11
10307.47159668355
 21
4440.255549972138
 31
0.0
  0
LINE
  5
17EAE
330
747D
100
AcDbEntity
  8
細線
100
AcDbLine
 10
7883.471596683555
 20
4310.255549972138
 30
0.0
 11
10307.47159668355
 21
4310.255549972138
 31
0.0
  0
LINE
  5
17EAF
330
747D
100
AcDbEntity
  8
細線
100
AcDbLine
 10
7883.471596683555
 20
2490.255549972138
 30
0.0
 11
10307.47159668355
 21
2490.255549972138
 31
0.0
  0
LINE
  5
17EB0
330
747D
100
AcDbEntity
  8
細線
100
AcDbLine
 10
7883.471596683555
 20
2555.255549972139
 30
0.0
 11
10307.47159668355
 21
2555.255549972139
 31
0.0
  0
LINE
  5
17EB1
330
747D
100
AcDbEntity
  8
細線
100
AcDbLine
 10
7883.471596683555
 20
2620.255549972139
 30
0.0
 11
10307.47159668355
 21
2620.255549972139
 31
0.0
  0
LINE
  5
17EB2
330
747D
100
AcDbEntity
  8
細線
100
AcDbLine
 10
7883.471596683555
 20
2685.255549972139
 30
0.0
 11
10307.47159668355
 21
2685.255549972139
 31
0.0
  0
LINE
  5
17EB3
330
747D
100
AcDbEntity
  8
細線
100
AcDbLine
 10
7883.471596683555
 20
2750.255549972139
 30
0.0
 11
10307.47159668355
 21
2750.255549972139
 31
0.0
  0
LINE
  5
17EB4
330
747D
100
AcDbEntity
  8
細線
100
AcDbLine
 10
7883.471596683555
 20
2815.255549972139
 30
0.0
 11
10307.47159668355
 21
2815.255549972139
 31
0.0
  0
LINE
  5
17EB5
330
747D
100
AcDbEntity
  8
細線
100
AcDbLine
 10
7883.471596683555
 20
2880.255549972139
 30
0.0
 11
10307.47159668355
 21
2880.255549972139
 31
0.0
  0
LINE
  5
17EB6
330
747D
100
AcDbEntity
  8
細線
100
AcDbLine
 10
7883.471596683555
 20
2945.255549972138
 30
0.0
 11
10307.47159668355
 21
2945.255549972138
 31
0.0
  0
LINE
  5
17EB7
330
747D
100
AcDbEntity
  8
細線
100
AcDbLine
 10
7883.471596683555
 20
3010.255549972138
 30
0.0
 11
10307.47159668355
 21
3010.255549972138
 31
0.0
  0
LINE
  5
17EB8
330
747D
100
AcDbEntity
  8
細線
100
AcDbLine
 10
10307.47159668355
 20
2490.255549972138
 30
0.0
 11
7883.47159668355
 21
2490.255549972138
 31
0.0
  0
CIRCLE
  5
17EBC
330
747D
100
AcDbEntity
  8
細線
 48
50.0
100
AcDbCircle
 10
9095.471596683553
 20
3367.755549972139
 30
0.0
 40
18.0
  0
ARC
  5
17EBD
330
747D
100
AcDbEntity
  8
細線
 48
50.0
100
AcDbCircle
 10
9395.471596683554
 20
3042.755549972139
 30
0.0
 40
15.0
100
AcDbArc
 50
270.0
 51
90.0
  0
ARC
  5
17EBE
330
747D
100
AcDbEntity
  8
細線
 48
50.0
100
AcDbCircle
 10
9295.471596683553
 20
3042.755549972139
 30
0.0
 40
15.0
100
AcDbArc
 50
90.0
 51
270.0
  0
LINE
  5
17EBF
330
747D
100
AcDbEntity
  8
細線
 48
50.0
100
AcDbLine
 10
9295.471596683553
 20
3057.755549972139
 30
0.0
 11
9395.471596683554
 21
3057.755549972139
 31
0.0
  0
LINE
  5
17EC0
330
747D
100
AcDbEntity
  8
細線
 48
50.0
100
AcDbLine
 10
9395.471596683554
 20
3027.755549972138
 30
0.0
 11
9295.471596683553
 21
3027.755549972138
 31
0.0
  0
LINE
  5
17EC1
330
747D
100
AcDbEntity
  8
細線
 48
50.0
100
AcDbLine
 10
8895.471596683554
 20
3027.755549972138
 30
0.0
 11
8795.471596683553
 21
3027.755549972138
 31
0.0
  0
LINE
  5
17EC2
330
747D
100
AcDbEntity
  8
細線
 48
50.0
100
AcDbLine
 10
8795.471596683553
 20
3057.755549972139
 30
0.0
 11
8895.471596683554
 21
3057.755549972139
 31
0.0
  0
ARC
  5
17EC3
330
747D
100
AcDbEntity
  8
細線
 48
50.0
100
AcDbCircle
 10
8895.471596683554
 20
3042.755549972139
 30
0.0
 40
15.0
100
AcDbArc
 50
270.0
 51
90.0
  0
ARC
  5
17EC4
330
747D
100
AcDbEntity
  8
細線
 48
50.0
100
AcDbCircle
 10
8795.471596683553
 20
3042.755549972139
 30
0.0
 40
15.0
100
AcDbArc
 50
90.0
 51
270.0
  0
DIMENSION
  5
17F1E
330
747D
100
AcDbEntity
  8
寸法
 48
50.0
100
AcDbDimension
  2
*D29
 10
10410.47159668355
 20
5254.348719311611
 30
0.0
 11
10773.95687805779
 21
5254.348719311611
 31
0.0
 70
   160
 71
     5
 42
50.0
  3
INABA_S40G
100
AcDbAlignedDimension
 13
10460.47159668356
 23
4855.255549972142
 33
0.0
 14
10410.47159668355
 24
4855.255549972143
 34
0.0
100
AcDbRotatedDimension
  0
ARC
  5
17F1F
330
747D
100
AcDbEntity
  8
部品1
100
AcDbCircle
 10
10453.06317557712
 20
4848.255549972142
 30
0.0
 40
7.0
100
AcDbArc
 50
356.752657209659
 51
90.0
  0
ARC
  5
17F20
330
747D
100
AcDbEntity
  8
部品1
100
AcDbCircle
 10
10439.84785211609
 20
4721.255549972141
 30
0.0
 40
7.0
100
AcDbArc
 50
270.0
 51
356.752657209659
  0
ARC
  5
17F21
330
747D
100
AcDbEntity
  8
部品1
 48
50.0
100
AcDbCircle
 10
10458.21966232677
 20
4827.92254913383
 30
0.0
 40
0.7
100
AcDbArc
 50
277.6581272073639
 51
356.752657209607
  0
ARC
  5
17F22
330
747D
100
AcDbEntity
  8
部品1
 48
50.0
100
AcDbCircle
 10
10449.98363180192
 20
4735.722549133824
 30
0.0
 40
0.7
100
AcDbArc
 50
277.6581272073639
 51
356.7526572097111
  0
ARC
  5
17F23
330
747D
100
AcDbEntity
  8
部品1
 48
50.0
100
AcDbCircle
 10
10450.47670091048
 20
4732.055549972141
 30
0.0
 40
3.0
100
AcDbArc
 50
97.6581272073639
 51
176.752657209659
  0
ARC
  5
17F24
330
747D
100
AcDbEntity
  8
部品1
 48
50.0
100
AcDbCircle
 10
10458.71273143533
 20
4824.255549972142
 30
0.0
 40
3.0
100
AcDbArc
 50
97.6581272073639
 51
176.752657209659
  0
LINE
  5
17F25
330
747D
100
AcDbEntity
  8
部品1
100
AcDbLine
 10
10455.71754853914
 20
4824.425489427245
 30
0.0
 11
10450.68250781103
 21
4735.682896594302
 31
0.0
  0
LINE
  5
17F26
330
747D
100
AcDbEntity
  8
部品1
100
AcDbLine
 10
10447.4815180143
 20
4732.225489427245
 30
0.0
 11
10446.83661220719
 21
4720.859024576904
 31
0.0
  0
LINE
  5
17F27
330
747D
100
AcDbEntity
  8
細線
 48
50.0
100
AcDbLine
 10
10427.47159668355
 20
4855.255549972142
 30
0.0
 11
10427.47159668355
 21
4714.255549972142
 31
0.0
  0
LINE
  5
17F28
330
747D
100
AcDbEntity
  8
部品1
100
AcDbLine
 10
10460.05193566822
 20
4847.859024576901
 30
0.0
 11
10458.91853833588
 21
4827.882896594303
 31
0.0
  0
LINE
  5
17F29
330
747D
100
AcDbEntity
  8
細線
 48
50.0
100
AcDbLine
 10
10450.07691514679
 20
4735.02879253561
 30
0.0
 11
7770.471596683556
 21
4735.02879253593
 31
0.0
  0
LINE
  5
17F2A
330
747D
100
AcDbEntity
  8
細線
 48
50.0
100
AcDbLine
 10
10458.31294567164
 20
4827.22879253561
 30
0.0
 11
7770.471596683556
 21
4827.22879253561
 31
0.0
  0
LINE
  5
17F2B
330
747D
100
AcDbEntity
  8
部品1
 48
50.0
100
AcDbLine
 10
10439.84785211609
 20
4714.255549972142
 30
0.0
 11
7780.471596683556
 21
4714.255549972142
 31
0.0
  0
LINE
  5
17F2C
330
747D
100
AcDbEntity
  8
部品1
 48
50.0
100
AcDbLine
 10
10453.06317557712
 20
4855.255549972142
 30
0.0
 11
7770.471596683556
 21
4855.255549972142
 31
0.0
  0
LINE
  5
17F59
330
747D
100
AcDbEntity
  8
部品1
100
AcDbLine
 10
1531.702005337174
 20
2510.159360539803
 30
0.0
 11
1681.702005337174
 21
2510.159360539803
 31
0.0
  0
LINE
  5
17F5A
330
747D
100
AcDbEntity
  8
部品1
100
AcDbLine
 10
1606.702005337174
 20
2380.255549972138
 30
0.0
 11
1531.702005337174
 21
2510.159360539803
 31
0.0
  0
TEXT
  5
17F5B
330
747D
100
AcDbEntity
  8
部品1
100
AcDbText
 10
1709.806947461948
 20
2416.36245357804
 30
0.0
 40
125.0
  1
G.L
  7
STYLE2
100
AcDbText
  0
LINE
  5
17F5C
330
747D
100
AcDbEntity
  8
部品1
100
AcDbLine
 10
1681.702005337174
 20
2510.159360539803
 30
0.0
 11
1606.702005337174
 21
2380.255549972138
 31
0.0
  0
LINE
  5
17F5D
330
747D
100
AcDbEntity
  8
部品1
100
AcDbLine
 10
2520.471596683558
 20
2480.255549972139
 30
0.0
 11
5150.471596683555
 21
2480.255549972139
 31
0.0
  0
LINE
  5
17F5E
330
747D
100
AcDbEntity
  8
部品1
100
AcDbLine
 10
2520.471596683558
 20
4620.255549972138
 30
0.0
 11
5150.471596683555
 21
4620.255549972138
 31
0.0
  0
LINE
  5
17F5F
330
747D
100
AcDbEntity
  8
部品1
100
AcDbLine
 10
2520.471596683558
 20
4714.255549972142
 30
0.0
 11
2520.471596683558
 21
2380.255549972138
 31
0.0
  0
LINE
  5
17F60
330
747D
100
AcDbEntity
  8
部品1
100
AcDbLine
 10
5095.471596683555
 20
4455.255549972138
 30
0.0
 11
5095.471596683555
 21
2480.255549972139
 31
0.0
  0
LINE
  5
17F61
330
747D
100
AcDbEntity
  8
部品1
100
AcDbLine
 10
2575.471596683558
 20
4455.255549972139
 30
0.0
 11
2575.471596683558
 21
2480.255549972139
 31
0.0
  0
LINE
  5
17F62
330
747D
100
AcDbEntity
  8
部品1
100
AcDbLine
 10
2623.471596683558
 20
4455.255549972139
 30
0.0
 11
2623.471596683558
 21
2480.255549972139
 31
0.0
  0
LINE
  5
17F63
330
747D
100
AcDbEntity
  8
部品1
100
AcDbLine
 10
5047.471596683563
 20
4455.255549972139
 30
0.0
 11
5047.471596683556
 21
2480.255549972139
 31
0.0
  0
LINE
  5
17F64
330
747D
100
AcDbEntity
  8
部品1
100
AcDbLine
 10
2520.471596683558
 20
4455.255549972139
 30
0.0
 11
5205.471596683555
 21
4455.255549972139
 31
0.0
  0
LINE
  5
17F65
330
747D
100
AcDbEntity
  8
細線
100
AcDbLine
 10
2623.471596683558
 20
4115.255549972139
 30
0.0
 11
5047.471596683556
 21
4115.255549972139
 31
0.0
  0
LINE
  5
17F66
330
747D
100
AcDbEntity
  8
細線
100
AcDbLine
 10
2623.471596683558
 20
4180.255549972138
 30
0.0
 11
5047.471596683556
 21
4180.255549972138
 31
0.0
  0
LINE
  5
17F67
330
747D
100
AcDbEntity
  8
細線
100
AcDbLine
 10
2623.471596683558
 20
4245.255549972138
 30
0.0
 11
5047.471596683556
 21
4245.255549972138
 31
0.0
  0
LINE
  5
17F68
330
747D
100
AcDbEntity
  8
細線
100
AcDbLine
 10
2623.471596683558
 20
3725.255549972138
 30
0.0
 11
5047.471596683556
 21
3725.255549972138
 31
0.0
  0
LINE
  5
17F69
330
747D
100
AcDbEntity
  8
細線
100
AcDbLine
 10
2623.471596683558
 20
3790.255549972139
 30
0.0
 11
5047.471596683556
 21
3790.255549972139
 31
0.0
  0
LINE
  5
17F6A
330
747D
100
AcDbEntity
  8
細線
100
AcDbLine
 10
2623.471596683558
 20
3855.255549972138
 30
0.0
 11
5047.471596683556
 21
3855.255549972138
 31
0.0
  0
LINE
  5
17F6B
330
747D
100
AcDbEntity
  8
細線
100
AcDbLine
 10
2623.471596683558
 20
3920.255549972138
 30
0.0
 11
5047.471596683556
 21
3920.255549972138
 31
0.0
  0
LINE
  5
17F6C
330
747D
100
AcDbEntity
  8
細線
100
AcDbLine
 10
2623.471596683558
 20
3985.255549972139
 30
0.0
 11
5047.471596683556
 21
3985.255549972139
 31
0.0
  0
LINE
  5
17F6D
330
747D
100
AcDbEntity
  8
細線
100
AcDbLine
 10
2623.471596683558
 20
4050.255549972137
 30
0.0
 11
5047.471596683556
 21
4050.255549972137
 31
0.0
  0
LINE
  5
17F6E
330
747D
100
AcDbEntity
  8
細線
100
AcDbLine
 10
2623.471596683558
 20
3075.255549972139
 30
0.0
 11
5047.471596683556
 21
3075.255549972139
 31
0.0
  0
LINE
  5
17F6F
330
747D
100
AcDbEntity
  8
細線
100
AcDbLine
 10
2623.471596683558
 20
3140.255549972139
 30
0.0
 11
5047.471596683556
 21
3140.255549972139
 31
0.0
  0
LINE
  5
17F70
330
747D
100
AcDbEntity
  8
細線
100
AcDbLine
 10
2623.471596683558
 20
3205.255549972139
 30
0.0
 11
5047.471596683556
 21
3205.255549972139
 31
0.0
  0
LINE
  5
17F71
330
747D
100
AcDbEntity
  8
細線
100
AcDbLine
 10
2623.471596683558
 20
3270.255549972139
 30
0.0
 11
5047.471596683556
 21
3270.255549972139
 31
0.0
  0
LINE
  5
17F72
330
747D
100
AcDbEntity
  8
細線
100
AcDbLine
 10
2623.471596683558
 20
3335.255549972139
 30
0.0
 11
5047.471596683556
 21
3335.255549972139
 31
0.0
  0
LINE
  5
17F73
330
747D
100
AcDbEntity
  8
細線
100
AcDbLine
 10
2623.471596683558
 20
3400.255549972138
 30
0.0
 11
5047.471596683556
 21
3400.255549972138
 31
0.0
  0
LINE
  5
17F74
330
747D
100
AcDbEntity
  8
細線
100
AcDbLine
 10
2623.471596683558
 20
3465.255549972139
 30
0.0
 11
5047.471596683556
 21
3465.255549972139
 31
0.0
  0
LINE
  5
17F75
330
747D
100
AcDbEntity
  8
細線
100
AcDbLine
 10
2623.471596683558
 20
3530.255549972139
 30
0.0
 11
5047.471596683556
 21
3530.255549972139
 31
0.0
  0
LINE
  5
17F76
330
747D
100
AcDbEntity
  8
細線
100
AcDbLine
 10
2623.471596683558
 20
3595.255549972139
 30
0.0
 11
5047.471596683556
 21
3595.255549972139
 31
0.0
  0
LINE
  5
17F77
330
747D
100
AcDbEntity
  8
細線
100
AcDbLine
 10
2623.471596683558
 20
3660.255549972138
 30
0.0
 11
5047.471596683556
 21
3660.255549972138
 31
0.0
  0
LINE
  5
17F78
330
747D
100
AcDbEntity
  8
細線
100
AcDbLine
 10
2623.471596683558
 20
4375.255549972138
 30
0.0
 11
5047.471596683556
 21
4375.255549972138
 31
0.0
  0
LINE
  5
17F79
330
747D
100
AcDbEntity
  8
細線
100
AcDbLine
 10
2623.471596683558
 20
4440.255549972138
 30
0.0
 11
5047.471596683556
 21
4440.255549972138
 31
0.0
  0
LINE
  5
17F7A
330
747D
100
AcDbEntity
  8
細線
100
AcDbLine
 10
2623.471596683558
 20
4310.255549972138
 30
0.0
 11
5047.471596683556
 21
4310.255549972138
 31
0.0
  0
LINE
  5
17F7B
330
747D
100
AcDbEntity
  8
細線
100
AcDbLine
 10
2623.471596683558
 20
2490.255549972138
 30
0.0
 11
5047.471596683556
 21
2490.255549972138
 31
0.0
  0
LINE
  5
17F7C
330
747D
100
AcDbEntity
  8
細線
100
AcDbLine
 10
2623.471596683558
 20
2555.255549972139
 30
0.0
 11
5047.471596683556
 21
2555.255549972139
 31
0.0
  0
LINE
  5
17F7D
330
747D
100
AcDbEntity
  8
細線
100
AcDbLine
 10
2623.471596683558
 20
2620.255549972139
 30
0.0
 11
5047.471596683556
 21
2620.255549972139
 31
0.0
  0
LINE
  5
17F7E
330
747D
100
AcDbEntity
  8
細線
100
AcDbLine
 10
2623.471596683558
 20
2685.255549972139
 30
0.0
 11
5047.471596683556
 21
2685.255549972139
 31
0.0
  0
LINE
  5
17F7F
330
747D
100
AcDbEntity
  8
細線
100
AcDbLine
 10
2623.471596683558
 20
2750.255549972139
 30
0.0
 11
5047.471596683556
 21
2750.255549972139
 31
0.0
  0
LINE
  5
17F80
330
747D
100
AcDbEntity
  8
細線
100
AcDbLine
 10
2623.471596683558
 20
2815.255549972139
 30
0.0
 11
5047.471596683556
 21
2815.255549972139
 31
0.0
  0
LINE
  5
17F81
330
747D
100
AcDbEntity
  8
細線
100
AcDbLine
 10
2623.471596683558
 20
2880.255549972139
 30
0.0
 11
5047.471596683556
 21
2880.255549972139
 31
0.0
  0
LINE
  5
17F82
330
747D
100
AcDbEntity
  8
細線
100
AcDbLine
 10
2623.471596683558
 20
2945.255549972138
 30
0.0
 11
5047.471596683556
 21
2945.255549972138
 31
0.0
  0
LINE
  5
17F83
330
747D
100
AcDbEntity
  8
細線
100
AcDbLine
 10
2623.471596683558
 20
3010.255549972138
 30
0.0
 11
5047.471596683556
 21
3010.255549972138
 31
0.0
  0
LINE
  5
17F84
330
747D
100
AcDbEntity
  8
細線
100
AcDbLine
 10
5047.471596683556
 20
2490.255549972138
 30
0.0
 11
2623.471596683558
 21
2490.255549972138
 31
0.0
  0
CIRCLE
  5
17F85
330
747D
100
AcDbEntity
  8
細線
 48
50.0
100
AcDbCircle
 10
3835.471596683558
 20
3367.755549972139
 30
0.0
 40
18.0
  0
ARC
  5
17F86
330
747D
100
AcDbEntity
  8
細線
 48
50.0
100
AcDbCircle
 10
4135.471596683557
 20
3042.755549972139
 30
0.0
 40
15.0
100
AcDbArc
 50
270.0
 51
90.0
  0
ARC
  5
17F87
330
747D
100
AcDbEntity
  8
細線
 48
50.0
100
AcDbCircle
 10
4035.471596683557
 20
3042.755549972139
 30
0.0
 40
15.0
100
AcDbArc
 50
90.0
 51
270.0
  0
LINE
  5
17F88
330
747D
100
AcDbEntity
  8
細線
 48
50.0
100
AcDbLine
 10
4035.471596683557
 20
3057.755549972139
 30
0.0
 11
4135.471596683557
 21
3057.755549972139
 31
0.0
  0
LINE
  5
17F89
330
747D
100
AcDbEntity
  8
細線
 48
50.0
100
AcDbLine
 10
4135.471596683557
 20
3027.755549972138
 30
0.0
 11
4035.471596683557
 21
3027.755549972138
 31
0.0
  0
LINE
  5
17F8A
330
747D
100
AcDbEntity
  8
細線
 48
50.0
100
AcDbLine
 10
3635.471596683558
 20
3027.755549972138
 30
0.0
 11
3535.471596683558
 21
3027.755549972138
 31
0.0
  0
LINE
  5
17F8B
330
747D
100
AcDbEntity
  8
細線
 48
50.0
100
AcDbLine
 10
3535.471596683558
 20
3057.755549972139
 30
0.0
 11
3635.471596683558
 21
3057.755549972139
 31
0.0
  0
ARC
  5
17F8C
330
747D
100
AcDbEntity
  8
細線
 48
50.0
100
AcDbCircle
 10
3635.471596683558
 20
3042.755549972139
 30
0.0
 40
15.0
100
AcDbArc
 50
270.0
 51
90.0
  0
ARC
  5
17F8D
330
747D
100
AcDbEntity
  8
細線
 48
50.0
100
AcDbCircle
 10
3535.471596683558
 20
3042.755549972139
 30
0.0
 40
15.0
100
AcDbArc
 50
90.0
 51
270.0
  0
DIMENSION
  5
17F99
330
747D
100
AcDbEntity
  8
寸法
 48
50.0
100
AcDbDimension
  2
*D28
 10
2470.471596683565
 20
5254.348719311611
 30
0.0
 11
2156.986315309318
 21
5254.348719311611
 31
0.0
 70
   160
 71
     5
 42
50.0
  3
INABA_S40G
100
AcDbAlignedDimension
 13
2520.471596683565
 23
4855.255549972145
 33
0.0
 14
2470.471596683565
 24
4855.255549972143
 34
0.0
100
AcDbRotatedDimension
1001
ACAD
1000
DSTYLE
1002
{
1002
}
  0
LINE
  5
17F9A
330
747D
100
AcDbEntity
  8
部品1
100
AcDbLine
 10
2470.891257698895
 20
4847.859024576901
 30
0.0
 11
2472.024655031245
 21
4827.882896594303
 31
0.0
  0
LINE
  5
17F9B
330
747D
100
AcDbEntity
  8
部品1
100
AcDbLine
 10
2483.461675352817
 20
4732.225489427245
 30
0.0
 11
2484.106581159926
 21
4720.859024576904
 31
0.0
  0
LINE
  5
17F9C
330
747D
100
AcDbEntity
  8
部品1
100
AcDbLine
 10
2475.225644827973
 20
4824.425489427245
 30
0.0
 11
2480.260685556081
 21
4735.682896594302
 31
0.0
  0
ARC
  5
17F9D
330
747D
100
AcDbEntity
  8
部品1
 48
50.0
100
AcDbCircle
 10
2472.230461931788
 20
4824.255549972142
 30
0.0
 40
3.0
100
AcDbArc
 50
3.247342790340932
 51
82.34187279263609
  0
ARC
  5
17F9E
330
747D
100
AcDbEntity
  8
部品1
 48
50.0
100
AcDbCircle
 10
2480.466492456632
 20
4732.055549972141
 30
0.0
 40
3.0
100
AcDbArc
 50
3.247342790340932
 51
82.34187279263609
  0
ARC
  5
17F9F
330
747D
100
AcDbEntity
  8
部品1
 48
50.0
100
AcDbCircle
 10
2480.959561565193
 20
4735.722549133824
 30
0.0
 40
0.7
100
AcDbArc
 50
183.2473427902889
 51
262.3418727926361
  0
ARC
  5
17FA0
330
747D
100
AcDbEntity
  8
部品1
 48
50.0
100
AcDbCircle
 10
2472.723531040349
 20
4827.92254913383
 30
0.0
 40
0.7
100
AcDbArc
 50
183.2473427903929
 51
262.3418727926361
  0
ARC
  5
17FA1
330
747D
100
AcDbEntity
  8
部品1
100
AcDbCircle
 10
2491.095341251028
 20
4721.255549972141
 30
0.0
 40
7.0
100
AcDbArc
 50
183.247342790341
 51
270.0
  0
ARC
  5
17FA2
330
747D
100
AcDbEntity
  8
部品1
100
AcDbCircle
 10
2477.880017789991
 20
4848.255549972142
 30
0.0
 40
7.0
100
AcDbArc
 50
90.0
 51
183.247342790341
  0
LINE
  5
17FA3
330
747D
100
AcDbEntity
  8
細線
 48
50.0
100
AcDbLine
 10
2503.471596683565
 20
4855.255549972142
 30
0.0
 11
2503.471596683565
 21
4714.255549972142
 31
0.0
  0
LINE
  5
17FA4
330
747D
100
AcDbEntity
  8
細線
 48
50.0
100
AcDbLine
 10
5140.471596683556
 20
4735.028792535926
 30
0.0
 11
2480.866278220361
 21
4735.02879253593
 31
0.0
  0
LINE
  5
17FA5
330
747D
100
AcDbEntity
  8
細線
 48
50.0
100
AcDbLine
 10
5140.471596683556
 20
4827.22879253561
 30
0.0
 11
2472.630247695525
 21
4827.22879253593
 31
0.0
  0
LINE
  5
17FA6
330
747D
100
AcDbEntity
  8
部品1
 48
50.0
100
AcDbLine
 10
5150.471596683555
 20
4714.255549972142
 30
0.0
 11
2491.095341251028
 21
4714.255549972142
 31
0.0
  0
LINE
  5
17FA7
330
747D
100
AcDbEntity
  8
部品1
 48
50.0
100
AcDbLine
 10
5140.471596683556
 20
4855.255549972142
 30
0.0
 11
2477.880017789991
 21
4855.255549972142
 31
0.0
  0
LINE
  5
17FD4
330
747D
100
AcDbEntity
  8
部品1
 48
50.0
100
AcDbLine
 10
5140.471596683556
 20
4714.255549972142
 30
0.0
 11
5140.471596683556
 21
4855.255549972143
 31
0.0
  0
LINE
  5
17FD5
330
747D
100
AcDbEntity
  8
部品1
 48
50.0
100
AcDbLine
 10
5150.471596683555
 20
4455.255549972139
 30
0.0
 11
5150.471596683555
 21
4714.255549972142
 31
0.0
  0
DIMENSION
  5
17FE0
330
747D
100
AcDbEntity
  8
寸法
 48
50.0
100
AcDbDimension
  2
*D27
 10
2520.471596683565
 20
5254.348719311611
 30
0.0
 11
6465.471596683561
 21
5354.360530335234
 31
0.0
 70
    32
  1
柱外寸法 N X 2630
 71
     5
 42
7889.999999999993
  3
INABA_S40G
100
AcDbAlignedDimension
 13
10410.47159668355
 23
4855.255549972143
 33
0.0
 14
2520.471596683565
 24
4855.255549972145
 34
0.0
100
AcDbRotatedDimension
  0
DIMENSION
  5
17FE1
330
747D
100
AcDbEntity
  8
寸法
 48
50.0
100
AcDbDimension
  2
*D26
 10
10460.47159668356
 20
5470.874818930057
 30
0.0
 11
6465.471596683561
 21
5570.886629953679
 31
0.0
 70
    32
  1
N X 2630+100
 71
     5
 42
7989.999999999993
  3
INABA_S40G
100
AcDbAlignedDimension
 13
2470.471596683565
 23
4855.255549972143
 33
0.0
 14
10460.47159668356
 24
4855.255549972142
 34
0.0
100
AcDbRotatedDimension
  0
LINE
  5
17FEC
330
747D
100
AcDbEntity
  8
Ｇ．Ｌ
100
AcDbLine
 10
1363.792317140561
 20
2380.255549972138
 30
0.0
 11
15826.59208510672
 21
2380.255549972138
 31
0.0
  0
LINE
  5
17FED
330
747D
100
AcDbEntity
  8
部品1
100
AcDbLine
 10
5150.471596683555
 20
2480.255549972138
 30
0.0
 11
7780.471596683556
 21
2480.255549972139
 31
0.0
  0
TEXT
  5
18019
330
747D
100
AcDbEntity
  8
部品1
100
AcDbText
 10
6174.261667307297
 20
1537.362020753615
 30
0.0
 40
135.0
  1
正面図
  7
STYLE2
100
AcDbText
  0
LWPOLYLINE
  5
1801A
330
747D
100
AcDbEntity
  8
部品1
100
AcDbPolyline
 90
        4
 70
     1
 43
0.0
 10
6083.736263569341
 20
1730.255549972138
 10
6083.736263569341
 20
1490.363228426606
 10
6847.206929797781
 20
1490.363228426606
 10
6847.206929797781
 20
1730.255549972138
  0
LINE
  5
18675
330
747D
100
AcDbEntity
  8
破線
 48
5.0
100
AcDbLine
 10
13037.64837007314
 20
2130.255549972138
 30
0.0
 11
13092.64837007314
 21
2130.255549972138
 31
0.0
  0
LINE
  5
18676
330
747D
100
AcDbEntity
  8
破線
 48
5.0
100
AcDbLine
 10
13092.64837007314
 20
2380.255549972138
 30
0.0
 11
13092.64837007314
 21
2130.255549972138
 31
0.0
  0
LINE
  5
18677
330
747D
100
AcDbEntity
  8
破線
 48
5.0
100
AcDbLine
 10
13037.64837007314
 20
2380.255549972138
 30
0.0
 11
13037.64837007314
 21
2130.255549972138
 31
0.0
  0
LINE
  5
18678
330
747D
100
AcDbEntity
  8
部品1
100
AcDbLine
 10
13037.64837007314
 20
2480.255549972139
 30
0.0
 11
12644.6511558643
 21
2380.255549972138
 31
0.0
  0
DIMENSION
  5
18679
330
747D
100
AcDbEntity
  8
寸法
100
AcDbDimension
  2
*D30
 10
12193.89824088988
 20
2530.255549972137
 30
0.0
 11
12093.88642986626
 21
3575.25554997214
 31
0.0
 70
    32
 71
     5
 42
2090.000000000002
  3
INABA_S40G
100
AcDbAlignedDimension
 13
13037.64837007314
 23
4620.255549972138
 33
0.0
 14
13037.64837007314
 24
2530.255549972137
 34
0.0
 50
90.0
100
AcDbRotatedDimension
1001
ACAD
1000
DSTYLE
1002
{
1070
   174
1070
     0
1070
   272
1070
     1
1070
   288
1070
     0
1070
   341
1005
0
1002
}
  0
DIMENSION
  5
1867A
330
747D
100
AcDbEntity
  8
寸法
100
AcDbDimension
  2
*D31
 10
11893.89824088988
 20
4855.255549972142
 30
0.0
 11
11793.88642986626
 21
3667.755549972142
 31
0.0
 70
    32
 71
     5
 42
2375.000000000005
  3
INABA_S40G
100
AcDbAlignedDimension
 13
13037.64837007314
 23
2480.255549972137
 33
0.0
 14
12977.64837007315
 24
4855.255549972142
 34
0.0
 50
90.0
100
AcDbRotatedDimension
1001
ACAD
1000
DSTYLE
1002
{
1070
   174
1070
     0
1070
   272
1070
     1
1070
   288
1070
     0
1070
   341
1005
0
1002
}
  0
DIMENSION
  5
1867B
330
747D
100
AcDbEntity
  8
寸法
100
AcDbDimension
  2
*D32
 10
15952.57552804527
 20
4800.255549972138
 30
0.0
 11
15852.56371702165
 21
3640.255549972141
 31
0.0
 70
    32
 71
     5
 42
2320.000000000001
  3
INABA_S40G
100
AcDbAlignedDimension
 13
15247.64837007315
 23
2480.255549972139
 33
0.0
 14
15327.64837007315
 24
4800.255549972138
 34
0.0
 50
90.0
100
AcDbRotatedDimension
1001
ACAD
1000
DSTYLE
1002
{
1070
   174
1070
     0
1070
   272
1070
     1
1070
   288
1070
     0
1070
   341
1005
0
1002
}
  0
LWPOLYLINE
  5
1867C
330
747D
100
AcDbEntity
  8
部品1
100
AcDbPolyline
 90
        4
 70
     1
 43
0.0
 10
13760.91303695892
 20
1730.255549972138
 10
13760.91303695892
 20
1490.363228426606
 10
14524.38370318736
 20
1490.363228426606
 10
14524.38370318736
 20
1730.255549972138
  0
TEXT
  5
1867D
330
747D
100
AcDbEntity
  8
部品1
100
AcDbText
 10
13850.35913838253
 20
1537.362020753615
 30
0.0
 40
135.0
  1
側面図
  7
STYLE2
100
AcDbText
  0
LINE
  5
1867E
330
747D
100
AcDbEntity
  8
部品1
100
AcDbLine
 10
13967.19335643011
 20
4987.006032272111
 30
0.0
 11
14292.64837007314
 21
4969.487973313251
 31
0.0
  0
ARC
  5
1867F
330
747D
100
AcDbEntity
  8
部品1
100
AcDbCircle
 10
15313.27590588709
 20
4694.279307237931
 30
0.0
 40
0.7
100
AcDbArc
 50
275.0921697642079
 51
354.1866997666569
  0
ARC
  5
18680
330
747D
100
AcDbEntity
  8
部品1
100
AcDbCircle
 10
15324.13525163641
 20
4771.322562055855
 30
0.0
 40
0.7
100
AcDbArc
 50
275.0921697642079
 51
354.1866997665532
  0
ARC
  5
18681
330
747D
100
AcDbEntity
  8
部品1
100
AcDbCircle
 10
15324.46365687901
 20
4767.637165198765
 30
0.0
 40
3.0
100
AcDbArc
 50
95.09216976420788
 51
174.1866997665532
  0
ARC
  5
18682
330
747D
100
AcDbEntity
  8
部品1
100
AcDbCircle
 10
15313.60431112968
 20
4690.593910380841
 30
0.0
 40
3.0
100
AcDbArc
 50
95.09216976420788
 51
174.1866997665532
  0
ARC
  5
18683
330
747D
100
AcDbEntity
  8
部品1
 48
50.0
100
AcDbCircle
 10
15302.57617585458
 20
4681.003165776957
 30
0.0
 40
7.0
100
AcDbArc
 50
267.8377559869492
 51
354.1866997665532
  0
ARC
  5
18684
330
747D
100
AcDbEntity
  8
部品1
 48
50.0
100
AcDbCircle
 10
15319.89827231909
 20
4791.905712919131
 30
0.0
 40
7.0
100
AcDbArc
 50
354.1866997665532
 51
87.03587545283228
  0
LINE
  5
18685
330
747D
100
AcDbEntity
  8
部品1
 48
50.0
100
AcDbLine
 10
15310.61973945907
 20
4690.897772097744
 30
0.0
 11
15309.54017641933
 21
4680.294155104184
 31
0.0
  0
LINE
  5
18686
330
747D
100
AcDbEntity
  8
部品1
 48
50.0
100
AcDbLine
 10
15321.4790852084
 20
4767.941026915669
 30
0.0
 11
15313.97230594356
 21
4694.208406170655
 31
0.0
  0
LINE
  5
18687
330
747D
100
AcDbEntity
  8
部品1
 48
50.0
100
AcDbLine
 10
15326.86227288385
 20
4791.196702246358
 30
0.0
 11
15324.83165169288
 21
4771.251660988577
 31
0.0
  0
ARC
  5
18688
330
747D
100
AcDbEntity
  8
部品1
100
AcDbCircle
 10
12983.68546194451
 20
4734.069708931041
 30
0.0
 40
0.7
100
AcDbArc
 50
181.0932240292114
 51
260.1877540314845
  0
ARC
  5
18689
330
747D
100
AcDbEntity
  8
部品1
100
AcDbCircle
 10
12978.9127883469
 20
4826.935487131162
 30
0.0
 40
0.7
100
AcDbArc
 50
181.0932240292114
 51
260.1877540314845
  0
ARC
  5
1868A
330
747D
100
AcDbEntity
  8
部品1
100
AcDbCircle
 10
12978.28223394388
 20
4823.289612593764
 30
0.0
 40
3.0
100
AcDbArc
 50
1.093224029315636
 51
80.18775403169875
  0
ARC
  5
1868B
330
747D
100
AcDbEntity
  8
部品1
100
AcDbCircle
 10
12983.05490754148
 20
4730.423834393644
 30
0.0
 40
3.0
100
AcDbArc
 50
1.093224029315636
 51
80.18775403169875
  0
ARC
  5
1868C
330
747D
100
AcDbEntity
  8
部品1
 48
50.0
100
AcDbCircle
 10
12993.25503991669
 20
4720.031591011164
 30
0.0
 40
7.0
100
AcDbArc
 50
181.0932240293156
 51
267.8377559869492
  0
ARC
  5
1868D
330
747D
100
AcDbEntity
  8
部品1
 48
50.0
100
AcDbCircle
 10
12984.83138181459
 20
4846.982650544259
 30
0.0
 40
7.0
100
AcDbArc
 50
87.03587545283228
 51
181.0932240293156
  0
LINE
  5
1868E
330
747D
100
AcDbEntity
  8
部品1
 48
50.0
100
AcDbLine
 10
12986.05436146792
 20
4730.481071996828
 30
0.0
 11
12986.25631408835
 21
4719.898036603736
 31
0.0
  0
LINE
  5
1868F
330
747D
100
AcDbEntity
  8
細線
 48
50.0
100
AcDbLine
 10
12983.44826841124
 20
4733.411120115637
 30
0.0
 11
15313.45193284188
 21
4693.601801141143
 31
0.0
  0
LINE
  5
18690
330
747D
100
AcDbEntity
  8
細線
 48
50.0
100
AcDbLine
 10
12978.68779317396
 20
4826.272631813499
 30
0.0
 11
15324.32377791913
 21
4770.648427172672
 31
0.0
  0
LINE
  5
18691
330
747D
100
AcDbEntity
  8
部品1
 48
50.0
100
AcDbLine
 10
12981.28168787031
 20
4823.346850196948
 30
0.0
 11
12982.98558936167
 21
4734.056353490301
 31
0.0
  0
LINE
  5
18692
330
747D
100
AcDbEntity
  8
部品1
 48
50.0
100
AcDbLine
 10
12977.83265598625
 20
4846.849096136832
 30
0.0
 11
12978.21291576406
 21
4826.922131690419
 31
0.0
  0
LINE
  5
18693
330
747D
100
AcDbEntity
  8
細線
 48
50.0
100
AcDbLine
 10
15294.64837007315
 20
4800.222529007434
 30
0.0
 11
15289.90068718515
 21
4674.476756516691
 31
0.0
  0
LINE
  5
18694
330
747D
100
AcDbEntity
  8
細線
 48
50.0
100
AcDbLine
 10
13010.64837007314
 20
4852.655226347542
 30
0.0
 11
13005.35926851764
 21
4712.569593720188
 31
0.0
  0
LINE
  5
18695
330
747D
100
AcDbEntity
  8
部品1
100
AcDbLine
 10
12992.9909346751
 20
4713.036575041106
 30
0.0
 11
15302.31207061299
 21
4674.0081498069
 31
0.0
  0
LINE
  5
18696
330
747D
100
AcDbEntity
  8
部品1
100
AcDbLine
 10
12985.19335643011
 20
4853.973285306405
 30
0.0
 11
15320.26024693461
 21
4798.896347681278
 31
0.0
  0
LINE
  5
18697
330
747D
100
AcDbEntity
  8
部品1
 48
50.0
100
AcDbLine
 10
13992.64837007314
 20
4985.687973313248
 30
0.0
 11
14292.64837007314
 21
4985.687973313248
 31
0.0
  0
LINE
  5
18698
330
747D
100
AcDbEntity
  8
部品1
 48
50.0
100
AcDbLine
 10
14292.64837007314
 20
4985.687973313248
 30
0.0
 11
14292.64837007314
 21
4969.487973313251
 31
0.0
  0
TEXT
  5
18699
330
747D
100
AcDbEntity
  8
部品1
 48
50.0
100
AcDbText
 10
13980.91620529687
 20
5021.571995465682
 30
0.0
 40
120.0
  1
1000
  7
STYLE1
100
AcDbText
  0
TEXT
  5
1869A
330
747D
100
AcDbEntity
  8
部品1
 48
50.0
100
AcDbText
 10
14458.54922796196
 20
4884.070737247399
 30
0.0
 40
120.0
  1
44
 50
90.0
  7
STYLE1
100
AcDbText
  0
LINE
  5
1869B
330
747D
100
AcDbEntity
  8
細線
 48
50.0
100
AcDbLine
 10
14430.14837007315
 20
4620.255549972138
 30
0.0
 11
14430.14837007315
 21
2530.255549972139
 31
0.0
  0
LINE
  5
1869C
330
747D
100
AcDbEntity
  8
細線
 48
50.0
100
AcDbLine
 10
14415.14837007315
 20
4620.255549972138
 30
0.0
 11
14415.14837007315
 21
2530.255549972139
 31
0.0
  0
LINE
  5
1869D
330
747D
100
AcDbEntity
  8
細線
 48
50.0
100
AcDbLine
 10
14555.14837007315
 20
4620.255549972138
 30
0.0
 11
14555.14837007315
 21
2530.255549972139
 31
0.0
  0
LINE
  5
1869E
330
747D
100
AcDbEntity
  8
細線
 48
50.0
100
AcDbLine
 10
14570.14837007315
 20
4620.255549972138
 30
0.0
 11
14570.14837007315
 21
2530.255549972139
 31
0.0
  0
LINE
  5
1869F
330
747D
100
AcDbEntity
  8
細線
 48
50.0
100
AcDbLine
 10
14710.14837007315
 20
4620.255549972138
 30
0.0
 11
14710.14837007315
 21
2530.255549972139
 31
0.0
  0
LINE
  5
186A0
330
747D
100
AcDbEntity
  8
細線
 48
50.0
100
AcDbLine
 10
14695.14837007315
 20
4620.255549972138
 30
0.0
 11
14695.14837007315
 21
2530.255549972139
 31
0.0
  0
LINE
  5
186A1
330
747D
100
AcDbEntity
  8
部品1
100
AcDbLine
 10
14772.64837007314
 20
4620.255549972138
 30
0.0
 11
14772.64837007314
 21
2530.255549972139
 31
0.0
  0
LINE
  5
186A2
330
747D
100
AcDbEntity
  8
部品1
100
AcDbLine
 10
13037.64837007314
 20
4620.255549972138
 30
0.0
 11
15247.64837007314
 21
4620.255549972138
 31
0.0
  0
LINE
  5
186A3
330
747D
100
AcDbEntity
  8
部品1
100
AcDbLine
 10
13092.64837007314
 20
2530.255549972139
 30
0.0
 11
15247.64837007315
 21
2530.255549972139
 31
0.0
  0
LINE
  5
186A4
330
747D
100
AcDbEntity
  8
部品1
100
AcDbLine
 10
13092.64837007314
 20
4620.255549972138
 30
0.0
 11
13092.64837007314
 21
2380.255549972138
 31
0.0
  0
LINE
  5
186A5
330
747D
100
AcDbEntity
  8
部品1
100
AcDbLine
 10
13037.64837007314
 20
4712.281847016726
 30
0.0
 11
13037.64837007314
 21
2380.255549972138
 31
0.0
  0
DIMENSION
  5
186A7
330
747D
100
AcDbEntity
  8
寸法
100
AcDbDimension
  2
*D33
 10
12193.89824088988
 20
2480.255549972139
 30
0.0
 11
12193.89824088988
 21
2174.208305877648
 31
0.0
 70
   160
 71
     5
 42
50.0
  3
INABA_S40G
100
AcDbAlignedDimension
 13
13037.64837007314
 23
2530.255549972139
 33
0.0
 14
12982.64837007314
 24
2480.255549972139
 34
0.0
 50
90.0
100
AcDbRotatedDimension
1001
ACAD
1000
DSTYLE
1002
{
1070
   174
1070
     0
1070
   272
1070
     1
1070
   288
1070
     0
1070
   341
1005
0
1002
}
  0
LINE
  5
186A8
330
747D
100
AcDbEntity
  8
部品1
100
AcDbLine
 10
13512.64837007314
 20
4620.255549972138
 30
0.0
 11
13512.64837007314
 21
2530.255549972139
 31
0.0
  0
LINE
  5
186A9
330
747D
100
AcDbEntity
  8
部品1
100
AcDbLine
 10
15247.64837007314
 20
4674.93198760336
 30
0.0
 11
15247.64837007315
 21
2380.255549972138
 31
0.0
  0
LINE
  5
186AA
330
747D
100
AcDbEntity
  8
部品1
100
AcDbLine
 10
15192.64837007315
 20
4620.255549972138
 30
0.0
 11
15192.64837007315
 21
2530.255549972139
 31
0.0
  0
DIMENSION
  5
186AB
330
747D
100
AcDbEntity
  8
寸法
 48
50.0
100
AcDbDimension
  2
*D34
 10
13037.64837007314
 20
5253.913003551442
 30
0.0
 11
14142.64837007314
 21
5253.913003551442
 31
0.0
 70
   160
  1
柱外寸法<>
 71
     5
 42
2209.999999999999
  3
INABA_S40G
100
AcDbAlignedDimension
 13
15247.64837007314
 23
4802.066229583792
 33
0.0
 14
13037.64837007314
 24
4851.257168095115
 34
0.0
100
AcDbRotatedDimension
1001
ACAD
1000
DSTYLE
1002
{
1070
   174
1070
     0
1070
   272
1070
     1
1070
   288
1070
     0
1070
   341
1005
0
1002
}
  0
DIMENSION
  5
186AC
330
747D
100
AcDbEntity
  8
寸法
 48
50.0
100
AcDbDimension
  2
*D35
 10
12977.64837007314
 20
5253.913003551442
 30
0.0
 11
12668.01057479755
 21
5253.913003551442
 31
0.0
 70
   160
 71
     5
 42
60.0
  3
INABA_S40G
100
AcDbAlignedDimension
 13
13037.64837007314
 23
4851.257168095115
 33
0.0
 14
12977.64837007314
 24
4855.255549972142
 34
0.0
100
AcDbRotatedDimension
1001
ACAD
1000
DSTYLE
1002
{
1070
   174
1070
     0
1070
   272
1070
     1
1070
   288
1070
     0
1070
   341
1005
0
1002
}
  0
DIMENSION
  5
186AD
330
747D
100
AcDbEntity
  8
寸法
 48
50.0
100
AcDbDimension
  2
*D36
 10
12977.64837007314
 20
5473.114837225733
 30
0.0
 11
14152.64837007314
 21
5473.114837225733
 31
0.0
 70
   160
 71
     5
 42
2349.999999999998
  3
INABA_S40G
100
AcDbAlignedDimension
 13
15327.64837007314
 23
4800.255549972138
 33
0.0
 14
12977.64837007314
 24
4855.255549972142
 34
0.0
100
AcDbRotatedDimension
1001
ACAD
1000
DSTYLE
1002
{
1070
   174
1070
     0
1070
   272
1070
     1
1070
   288
1070
     0
1070
   341
1005
0
1002
}
  0
LINE
  5
186AE
330
747D
100
AcDbEntity
  8
部品1
100
AcDbLine
 10
13092.64837007314
 20
2480.255549972139
 30
0.0
 11
15247.64837007315
 21
2480.255549972139
 31
0.0
  0
LINE
  5
186AF
330
747D
100
AcDbEntity
  8
細線
 48
50.0
100
AcDbLine
 10
13590.14837007314
 20
4620.255549972138
 30
0.0
 11
13590.14837007314
 21
2530.255549972139
 31
0.0
  0
LINE
  5
186B0
330
747D
100
AcDbEntity
  8
細線
 48
50.0
100
AcDbLine
 10
13575.14837007314
 20
4620.255549972138
 30
0.0
 11
13575.14837007314
 21
2530.255549972139
 31
0.0
  0
LINE
  5
186B1
330
747D
100
AcDbEntity
  8
細線
 48
50.0
100
AcDbLine
 10
13715.14837007314
 20
4620.255549972138
 30
0.0
 11
13715.14837007314
 21
2530.255549972139
 31
0.0
  0
LINE
  5
186B2
330
747D
100
AcDbEntity
  8
細線
 48
50.0
100
AcDbLine
 10
13730.14837007314
 20
4620.255549972138
 30
0.0
 11
13730.14837007314
 21
2530.255549972139
 31
0.0
  0
LINE
  5
186B3
330
747D
100
AcDbEntity
  8
細線
 48
50.0
100
AcDbLine
 10
13870.14837007314
 20
4620.255549972138
 30
0.0
 11
13870.14837007314
 21
2530.255549972139
 31
0.0
  0
LINE
  5
186B4
330
747D
100
AcDbEntity
  8
細線
 48
50.0
100
AcDbLine
 10
13855.14837007314
 20
4620.255549972138
 30
0.0
 11
13855.14837007314
 21
2530.255549972139
 31
0.0
  0
LINE
  5
186B5
330
747D
100
AcDbEntity
  8
細線
 48
50.0
100
AcDbLine
 10
13435.14837007314
 20
4620.255549972138
 30
0.0
 11
13435.14837007314
 21
2530.255549972139
 31
0.0
  0
LINE
  5
186B6
330
747D
100
AcDbEntity
  8
細線
 48
50.0
100
AcDbLine
 10
13450.14837007314
 20
4620.255549972138
 30
0.0
 11
13450.14837007314
 21
2530.255549972139
 31
0.0
  0
LINE
  5
186B7
330
747D
100
AcDbEntity
  8
細線
 48
50.0
100
AcDbLine
 10
13310.14837007314
 20
4620.255549972138
 30
0.0
 11
13310.14837007314
 21
2530.255549972139
 31
0.0
  0
LINE
  5
186B8
330
747D
100
AcDbEntity
  8
細線
 48
50.0
100
AcDbLine
 10
13295.14837007314
 20
4620.255549972138
 30
0.0
 11
13295.14837007314
 21
2530.255549972139
 31
0.0
  0
LINE
  5
186B9
330
747D
100
AcDbEntity
  8
細線
 48
50.0
100
AcDbLine
 10
13155.14837007314
 20
4620.255549972138
 30
0.0
 11
13155.14837007314
 21
2530.255549972139
 31
0.0
  0
LINE
  5
186BA
330
747D
100
AcDbEntity
  8
細線
 48
50.0
100
AcDbLine
 10
13170.14837007314
 20
4620.255549972138
 30
0.0
 11
13170.14837007314
 21
2530.255549972139
 31
0.0
  0
DIMENSION
  5
186BB
330
747D
100
AcDbEntity
  8
寸法
 48
50.0
100
AcDbDimension
  2
*D37
 10
15327.64837007314
 20
5253.913003551442
 30
0.0
 11
15533.69561416764
 21
5253.913003551442
 31
0.0
 70
   160
 71
     5
 42
80.0
  3
INABA_S40G
100
AcDbAlignedDimension
 13
15247.64837007314
 23
4802.066229583792
 33
0.0
 14
15327.64837007314
 24
4800.255549972138
 34
0.0
100
AcDbRotatedDimension
1001
ACAD
1000
DSTYLE
1002
{
1070
   174
1070
     0
1070
   272
1070
     1
1070
   288
1070
     0
1070
   341
1005
0
1002
}
  0
LINE
  5
186BC
330
747D
100
AcDbEntity
  8
部品1
100
AcDbLine
 10
13932.64837007314
 20
4620.255549972138
 30
0.0
 11
13932.64837007314
 21
2530.255549972139
 31
0.0
  0
LINE
  5
186BD
330
747D
100
AcDbEntity
  8
細線
 48
50.0
100
AcDbLine
 10
14275.14837007315
 20
4620.255549972138
 30
0.0
 11
14275.14837007315
 21
2530.255549972139
 31
0.0
  0
LINE
  5
186BE
330
747D
100
AcDbEntity
  8
細線
 48
50.0
100
AcDbLine
 10
14290.14837007315
 20
4620.255549972138
 30
0.0
 11
14290.14837007315
 21
2530.255549972139
 31
0.0
  0
LINE
  5
186BF
330
747D
100
AcDbEntity
  8
細線
 48
50.0
100
AcDbLine
 10
14150.14837007315
 20
4620.255549972138
 30
0.0
 11
14150.14837007315
 21
2530.255549972139
 31
0.0
  0
LINE
  5
186C0
330
747D
100
AcDbEntity
  8
細線
 48
50.0
100
AcDbLine
 10
14135.14837007315
 20
4620.255549972138
 30
0.0
 11
14135.14837007315
 21
2530.255549972139
 31
0.0
  0
LINE
  5
186C1
330
747D
100
AcDbEntity
  8
細線
 48
50.0
100
AcDbLine
 10
13995.14837007315
 20
4620.255549972138
 30
0.0
 11
13995.14837007315
 21
2530.255549972139
 31
0.0
  0
LINE
  5
186C2
330
747D
100
AcDbEntity
  8
細線
 48
50.0
100
AcDbLine
 10
14010.14837007315
 20
4620.255549972138
 30
0.0
 11
14010.14837007315
 21
2530.255549972139
 31
0.0
  0
LINE
  5
186C3
330
747D
100
AcDbEntity
  8
部品1
100
AcDbLine
 10
14352.64837007314
 20
4620.255549972138
 30
0.0
 11
14352.64837007314
 21
2530.255549972139
 31
0.0
  0
LINE
  5
186C4
330
747D
100
AcDbEntity
  8
細線
 48
50.0
100
AcDbLine
 10
14850.14837007316
 20
4620.255549972138
 30
0.0
 11
14850.14837007315
 21
2530.255549972139
 31
0.0
  0
LINE
  5
186C5
330
747D
100
AcDbEntity
  8
細線
 48
50.0
100
AcDbLine
 10
14835.14837007316
 20
4620.255549972138
 30
0.0
 11
14835.14837007315
 21
2530.255549972139
 31
0.0
  0
LINE
  5
186C6
330
747D
100
AcDbEntity
  8
細線
 48
50.0
100
AcDbLine
 10
14975.14837007316
 20
4620.255549972138
 30
0.0
 11
14975.14837007315
 21
2530.255549972139
 31
0.0
  0
LINE
  5
186C7
330
747D
100
AcDbEntity
  8
細線
 48
50.0
100
AcDbLine
 10
14990.14837007316
 20
4620.255549972138
 30
0.0
 11
14990.14837007315
 21
2530.255549972139
 31
0.0
  0
LINE
  5
186C8
330
747D
100
AcDbEntity
  8
細線
 48
50.0
100
AcDbLine
 10
15130.14837007316
 20
4620.255549972138
 30
0.0
 11
15130.14837007315
 21
2530.255549972139
 31
0.0
  0
LINE
  5
186C9
330
747D
100
AcDbEntity
  8
細線
 48
50.0
100
AcDbLine
 10
15115.14837007316
 20
4620.255549972138
 30
0.0
 11
15115.14837007315
 21
2530.255549972139
 31
0.0
  0
DIMENSION
  5
186CA
330
747D
100
AcDbEntity
  8
寸法
 48
50.0
100
AcDbDimension
  2
*D38
 10
12417.03996330477
 20
4729.600808845471
 30
0.0
 11
12427.7054385637
 21
5100.44747208717
 31
0.0
 70
   161
 71
     5
 42
140.9999999999991
  3
INABA_S40G
100
AcDbAlignedDimension
 13
12997.04439023172
 23
4853.978298806818
 33
0.0
 14
12992.9909346751
 24
4713.036575041106
 34
0.0
1001
ACAD
1000
DSTYLE
1002
{
1070
   174
1070
     0
1070
   272
1070
     1
1070
   288
1070
     0
1070
   341
1005
0
1002
}
  0
LINE
  5
189BF
330
747D
100
AcDbEntity
  8
部品1
100
AcDbLine
 10
10382.47159668357
 20
9292.02921341869
 30
0.0
 11
10410.47159668357
 21
9292.02921341869
 31
0.0
  0
LINE
  5
189C0
330
747D
100
AcDbEntity
  8
部品1
100
AcDbLine
 10
2548.47159668355
 20
9292.029213418562
 30
0.0
 11
2520.47159668355
 21
9292.029213418562
 31
0.0
  0
LINE
  5
19800
330
747D
100
AcDbEntity
  8
補助
  6
PHANTOM
 62
   230
 48
50.0
100
AcDbLine
 10
140.0
 20
0.0
 30
0.0
 11
140.0
 21
11409.6
 31
0.0
  0
DIMENSION
  5
19961
330
747D
100
AcDbEntity
  8
寸法
 48
50.0
100
AcDbDimension
  2
*D39
 10
10698.0146990053
 20
4620.255549972138
 30
0.0
 11
10698.0146990053
 21
4858.740831346378
 31
0.0
 70
   160
 71
     5
 42
165.0
  3
INABA_S40G
100
AcDbAlignedDimension
 13
10410.47159668355
 23
4455.255549972139
 33
0.0
 14
10410.47159668355
 24
4620.255549972138
 34
0.0
 50
90.0
100
AcDbRotatedDimension
1001
ACAD
1000
DSTYLE
1002
{
1002
}
  0
DIMENSION
  5
19962
330
747D
100
AcDbEntity
  8
寸法
 48
50.0
100
AcDbDimension
  2
*D40
 10
10698.0146990053
 20
4455.255549972139
 30
0.0
 11
10838.18452225166
 21
4456.222749811797
 31
0.0
 70
   160
 71
     5
 42
27.00000000000091
  3
INABA_S40G
100
AcDbAlignedDimension
 13
10410.47159668355
 23
4428.255549972138
 33
0.0
 14
10410.47159668355
 24
4455.255549972139
 34
0.0
 50
90.0
100
AcDbRotatedDimension
1001
ACAD
1000
DSTYLE
1002
{
1070
   279
1070
     2
1002
}
  0
DIMENSION
  5
19963
330
747D
100
AcDbEntity
  8
寸法
 48
50.0
100
AcDbDimension
  2
*D41
 10
10698.0146990053
 20
4428.255549972138
 30
0.0
 11
10598.0146990053
 21
3454.25554997214
 31
0.0
 70
    32
  1
有効開口部高サ <>
 71
     5
 42
1948.0
  3
INABA_S40G
100
AcDbAlignedDimension
 13
10410.47159668355
 23
2480.255549972139
 33
0.0
 14
10410.47159668355
 24
4428.255549972138
 34
0.0
 50
90.0
100
AcDbRotatedDimension
  0
ARC
  5
19DC6
330
747D
100
AcDbEntity
  8
部品1
 48
0.01
100
AcDbCircle
 10
3308.47159668356
 20
4684.255549972138
 30
0.0
 40
2.0
100
AcDbArc
 50
0.0
 51
90.0
  0
ARC
  5
19DC7
330
747D
100
AcDbEntity
  8
部品1
 48
0.01
100
AcDbCircle
 10
3132.47159668356
 20
4684.255549972138
 30
0.0
 40
2.0
100
AcDbArc
 50
90.0
 51
180.0
  0
LINE
  5
19DC8
330
747D
100
AcDbEntity
  8
細線
100
AcDbLine
 10
3220.471596683556
 20
4656.755549972138
 30
0.0
 11
3294.47159668356
 21
4656.755549972138
 31
0.0
  0
LINE
  5
19DC9
330
747D
100
AcDbEntity
  8
細線
100
AcDbLine
 10
3220.471596683559
 20
4679.755549972138
 30
0.0
 11
3146.471596683559
 21
4679.755549972138
 31
0.0
  0
LINE
  5
19DCA
330
747D
100
AcDbEntity
  8
細線
100
AcDbLine
 10
3146.471596683559
 20
4656.755549972138
 30
0.0
 11
3220.471596683559
 21
4656.755549972138
 31
0.0
  0
LINE
  5
19DCB
330
747D
100
AcDbEntity
  8
細線
100
AcDbLine
 10
3294.47159668356
 20
4679.755549972138
 30
0.0
 11
3220.471596683559
 21
4679.755549972138
 31
0.0
  0
LINE
  5
19DCC
330
747D
100
AcDbEntity
  8
細線
100
AcDbLine
 10
3294.47159668356
 20
4656.755549972138
 30
0.0
 11
3294.47159668356
 21
4679.755549972138
 31
0.0
  0
LINE
  5
19DCD
330
747D
100
AcDbEntity
  8
細線
100
AcDbLine
 10
3146.471596683559
 20
4679.755549972138
 30
0.0
 11
3146.471596683559
 21
4656.755549972138
 31
0.0
  0
LINE
  5
19DCE
330
747D
100
AcDbEntity
  8
部品1
 48
0.01
100
AcDbLine
 10
3310.471596683556
 20
4652.755549972138
 30
0.0
 11
3310.471596683559
 21
4684.255549972138
 31
0.0
  0
LINE
  5
19DCF
330
747D
100
AcDbEntity
  8
部品1
 48
0.01
100
AcDbLine
 10
3130.471596683559
 20
4684.255549972138
 30
0.0
 11
3130.471596683559
 21
4652.755549972138
 31
0.0
  0
LINE
  5
19DD0
330
747D
100
AcDbEntity
  8
部品1
 48
0.01
100
AcDbLine
 10
3308.47159668356
 20
4686.255549972139
 30
0.0
 11
3132.47159668356
 21
4686.255549972139
 31
0.0
  0
LINE
  5
19DD1
330
747D
100
AcDbEntity
  8
細線
100
AcDbLine
 10
3146.471596683559
 20
4673.755549972138
 30
0.0
 11
3220.471596683559
 21
4673.755549972138
 31
0.0
  0
LINE
  5
19DD2
330
747D
100
AcDbEntity
  8
細線
100
AcDbLine
 10
3146.471596683559
 20
4667.755549972138
 30
0.0
 11
3220.471596683559
 21
4667.755549972138
 31
0.0
  0
LINE
  5
19DD3
330
747D
100
AcDbEntity
  8
細線
100
AcDbLine
 10
3146.471596683556
 20
4661.755549972138
 30
0.0
 11
3220.471596683559
 21
4661.755549972138
 31
0.0
  0
LINE
  5
19DD4
330
747D
100
AcDbEntity
  8
細線
100
AcDbLine
 10
3146.471596683559
 20
4673.755549972138
 30
0.0
 11
3215.47159668356
 21
4673.755549972138
 31
0.0
  0
LINE
  5
19DD5
330
747D
100
AcDbEntity
  8
細線
100
AcDbLine
 10
3294.471596683556
 20
4673.755549972138
 30
0.0
 11
3220.471596683559
 21
4673.755549972138
 31
0.0
  0
LINE
  5
19DD6
330
747D
100
AcDbEntity
  8
細線
100
AcDbLine
 10
3294.471596683556
 20
4661.755549972138
 30
0.0
 11
3220.471596683559
 21
4661.755549972138
 31
0.0
  0
LINE
  5
19DD7
330
747D
100
AcDbEntity
  8
細線
100
AcDbLine
 10
3294.471596683556
 20
4667.755549972138
 30
0.0
 11
3220.471596683559
 21
4667.755549972138
 31
0.0
  0
LINE
  5
19DD8
330
747D
100
AcDbEntity
  8
細線
100
AcDbLine
 10
3220.471596683559
 20
4679.755549972138
 30
0.0
 11
3220.471596683556
 21
4656.755549972138
 31
0.0
  0
LINE
  5
19DD9
330
747D
100
AcDbEntity
  8
細線
100
AcDbLine
 10
4450.471596683558
 20
4679.755549972138
 30
0.0
 11
4450.471596683558
 21
4656.755549972138
 31
0.0
  0
LINE
  5
19DDA
330
747D
100
AcDbEntity
  8
細線
100
AcDbLine
 10
4376.471596683559
 20
4667.755549972138
 30
0.0
 11
4450.471596683558
 21
4667.755549972138
 31
0.0
  0
LINE
  5
19DDB
330
747D
100
AcDbEntity
  8
細線
100
AcDbLine
 10
4376.471596683559
 20
4661.755549972138
 30
0.0
 11
4450.471596683558
 21
4661.755549972138
 31
0.0
  0
LINE
  5
19DDC
330
747D
100
AcDbEntity
  8
細線
100
AcDbLine
 10
4376.471596683559
 20
4673.755549972138
 30
0.0
 11
4450.471596683558
 21
4673.755549972138
 31
0.0
  0
LINE
  5
19DDD
330
747D
100
AcDbEntity
  8
細線
100
AcDbLine
 10
4524.471596683559
 20
4673.755549972138
 30
0.0
 11
4455.471596683559
 21
4673.755549972138
 31
0.0
  0
LINE
  5
19DDE
330
747D
100
AcDbEntity
  8
細線
100
AcDbLine
 10
4524.471596683559
 20
4661.755549972138
 30
0.0
 11
4450.471596683558
 21
4661.755549972138
 31
0.0
  0
LINE
  5
19DDF
330
747D
100
AcDbEntity
  8
細線
100
AcDbLine
 10
4524.471596683559
 20
4667.755549972138
 30
0.0
 11
4450.471596683558
 21
4667.755549972138
 31
0.0
  0
LINE
  5
19DE0
330
747D
100
AcDbEntity
  8
細線
100
AcDbLine
 10
4524.471596683559
 20
4673.755549972138
 30
0.0
 11
4450.471596683558
 21
4673.755549972138
 31
0.0
  0
LINE
  5
19DE1
330
747D
100
AcDbEntity
  8
部品1
 48
0.01
100
AcDbLine
 10
4362.471596683559
 20
4686.255549972139
 30
0.0
 11
4538.471596683559
 21
4686.255549972139
 31
0.0
  0
LINE
  5
19DE2
330
747D
100
AcDbEntity
  8
部品1
 48
0.01
100
AcDbLine
 10
4540.471596683559
 20
4684.255549972138
 30
0.0
 11
4540.471596683559
 21
4652.755549972138
 31
0.0
  0
LINE
  5
19DE3
330
747D
100
AcDbEntity
  8
部品1
 48
0.01
100
AcDbLine
 10
4360.471596683558
 20
4652.755549972138
 30
0.0
 11
4360.471596683558
 21
4684.255549972138
 31
0.0
  0
LINE
  5
19DE4
330
747D
100
AcDbEntity
  8
細線
100
AcDbLine
 10
4524.471596683559
 20
4679.755549972138
 30
0.0
 11
4524.471596683559
 21
4656.755549972138
 31
0.0
  0
LINE
  5
19DE5
330
747D
100
AcDbEntity
  8
細線
100
AcDbLine
 10
4376.471596683559
 20
4656.755549972138
 30
0.0
 11
4376.471596683559
 21
4679.755549972138
 31
0.0
  0
LINE
  5
19DE6
330
747D
100
AcDbEntity
  8
細線
100
AcDbLine
 10
4376.471596683559
 20
4679.755549972138
 30
0.0
 11
4450.471596683558
 21
4679.755549972138
 31
0.0
  0
LINE
  5
19DE7
330
747D
100
AcDbEntity
  8
細線
100
AcDbLine
 10
4524.471596683559
 20
4656.755549972138
 30
0.0
 11
4450.471596683558
 21
4656.755549972138
 31
0.0
  0
LINE
  5
19DE8
330
747D
100
AcDbEntity
  8
細線
100
AcDbLine
 10
4450.471596683558
 20
4679.755549972138
 30
0.0
 11
4524.471596683559
 21
4679.755549972138
 31
0.0
  0
LINE
  5
19DE9
330
747D
100
AcDbEntity
  8
細線
100
AcDbLine
 10
4450.471596683558
 20
4656.755549972138
 30
0.0
 11
4376.471596683559
 21
4656.755549972138
 31
0.0
  0
ARC
  5
19DEA
330
747D
100
AcDbEntity
  8
部品1
 48
0.01
100
AcDbCircle
 10
4538.471596683559
 20
4684.255549972138
 30
0.0
 40
2.0
100
AcDbArc
 50
0.0
 51
90.0
  0
ARC
  5
19DEB
330
747D
100
AcDbEntity
  8
部品1
 48
0.01
100
AcDbCircle
 10
4362.471596683559
 20
4684.255549972138
 30
0.0
 40
2.0
100
AcDbArc
 50
90.0
 51
180.0
  0
ARC
  5
19DEC
330
747D
100
AcDbEntity
  8
部品1
 48
0.01
100
AcDbCircle
 10
3308.471596683556
 20
4652.755549972138
 30
0.0
 40
2.0
100
AcDbArc
 50
270.0
 51
0.0
  0
ARC
  5
19DED
330
747D
100
AcDbEntity
  8
部品1
 48
0.01
100
AcDbCircle
 10
3132.47159668356
 20
4652.755549972138
 30
0.0
 40
2.0
100
AcDbArc
 50
180.0
 51
270.0
  0
LINE
  5
19DEE
330
747D
100
AcDbEntity
  8
部品1
 48
0.01
100
AcDbLine
 10
3132.47159668356
 20
4650.755549972138
 30
0.0
 11
3308.471596683556
 21
4650.755549972138
 31
0.0
  0
LINE
  5
19DEF
330
747D
100
AcDbEntity
  8
部品1
 48
0.01
100
AcDbLine
 10
4538.471596683559
 20
4650.755549972138
 30
0.0
 11
4362.471596683559
 21
4650.755549972138
 31
0.0
  0
ARC
  5
19DF0
330
747D
100
AcDbEntity
  8
部品1
 48
0.01
100
AcDbCircle
 10
4538.471596683559
 20
4652.755549972138
 30
0.0
 40
2.0
100
AcDbArc
 50
270.0
 51
0.0
  0
ARC
  5
19DF1
330
747D
100
AcDbEntity
  8
部品1
 48
0.01
100
AcDbCircle
 10
4362.471596683559
 20
4652.755549972138
 30
0.0
 40
2.0
100
AcDbArc
 50
180.0
 51
270.0
  0
ARC
  5
19DF2
330
747D
100
AcDbEntity
  8
部品1
 48
0.01
100
AcDbCircle
 10
6992.471596683559
 20
4652.755549972138
 30
0.0
 40
2.0
100
AcDbArc
 50
180.0
 51
270.0
  0
ARC
  5
19DF3
330
747D
100
AcDbEntity
  8
部品1
 48
0.01
100
AcDbCircle
 10
7168.471596683559
 20
4652.755549972138
 30
0.0
 40
2.0
100
AcDbArc
 50
270.0
 51
0.0
  0
LINE
  5
19DF4
330
747D
100
AcDbEntity
  8
部品1
 48
0.01
100
AcDbLine
 10
7168.471596683559
 20
4650.755549972138
 30
0.0
 11
6992.471596683559
 21
4650.755549972138
 31
0.0
  0
LINE
  5
19DF5
330
747D
100
AcDbEntity
  8
部品1
 48
0.01
100
AcDbLine
 10
5762.47159668356
 20
4650.755549972138
 30
0.0
 11
5938.471596683555
 21
4650.755549972138
 31
0.0
  0
ARC
  5
19DF6
330
747D
100
AcDbEntity
  8
部品1
 48
0.01
100
AcDbCircle
 10
5762.47159668356
 20
4652.755549972138
 30
0.0
 40
2.0
100
AcDbArc
 50
180.0
 51
270.0
  0
ARC
  5
19DF7
330
747D
100
AcDbEntity
  8
部品1
 48
0.01
100
AcDbCircle
 10
5938.471596683555
 20
4652.755549972138
 30
0.0
 40
2.0
100
AcDbArc
 50
270.0
 51
0.0
  0
ARC
  5
19DF8
330
747D
100
AcDbEntity
  8
部品1
 48
0.01
100
AcDbCircle
 10
6992.471596683559
 20
4684.255549972138
 30
0.0
 40
2.0
100
AcDbArc
 50
90.0
 51
180.0
  0
ARC
  5
19DF9
330
747D
100
AcDbEntity
  8
部品1
 48
0.01
100
AcDbCircle
 10
7168.471596683559
 20
4684.255549972138
 30
0.0
 40
2.0
100
AcDbArc
 50
0.0
 51
90.0
  0
LINE
  5
19DFA
330
747D
100
AcDbEntity
  8
細線
100
AcDbLine
 10
7080.471596683558
 20
4656.755549972138
 30
0.0
 11
7006.471596683559
 21
4656.755549972138
 31
0.0
  0
LINE
  5
19DFB
330
747D
100
AcDbEntity
  8
細線
100
AcDbLine
 10
7080.471596683558
 20
4679.755549972138
 30
0.0
 11
7154.47159668356
 21
4679.755549972138
 31
0.0
  0
LINE
  5
19DFC
330
747D
100
AcDbEntity
  8
細線
100
AcDbLine
 10
7154.47159668356
 20
4656.755549972138
 30
0.0
 11
7080.471596683558
 21
4656.755549972138
 31
0.0
  0
LINE
  5
19DFD
330
747D
100
AcDbEntity
  8
細線
100
AcDbLine
 10
7006.471596683559
 20
4679.755549972138
 30
0.0
 11
7080.471596683558
 21
4679.755549972138
 31
0.0
  0
LINE
  5
19DFE
330
747D
100
AcDbEntity
  8
細線
100
AcDbLine
 10
7006.471596683559
 20
4656.755549972138
 30
0.0
 11
7006.471596683559
 21
4679.755549972138
 31
0.0
  0
LINE
  5
19DFF
330
747D
100
AcDbEntity
  8
細線
100
AcDbLine
 10
7154.47159668356
 20
4679.755549972138
 30
0.0
 11
7154.47159668356
 21
4656.755549972138
 31
0.0
  0
LINE
  5
19E00
330
747D
100
AcDbEntity
  8
部品1
 48
0.01
100
AcDbLine
 10
6990.471596683559
 20
4652.755549972138
 30
0.0
 11
6990.471596683559
 21
4684.255549972138
 31
0.0
  0
LINE
  5
19E01
330
747D
100
AcDbEntity
  8
部品1
 48
0.01
100
AcDbLine
 10
7170.471596683559
 20
4684.255549972138
 30
0.0
 11
7170.471596683559
 21
4652.755549972138
 31
0.0
  0
LINE
  5
19E02
330
747D
100
AcDbEntity
  8
部品1
 48
0.01
100
AcDbLine
 10
6992.471596683559
 20
4686.255549972139
 30
0.0
 11
7168.471596683559
 21
4686.255549972139
 31
0.0
  0
LINE
  5
19E03
330
747D
100
AcDbEntity
  8
細線
100
AcDbLine
 10
7154.47159668356
 20
4673.755549972138
 30
0.0
 11
7080.471596683558
 21
4673.755549972138
 31
0.0
  0
LINE
  5
19E04
330
747D
100
AcDbEntity
  8
細線
100
AcDbLine
 10
7154.47159668356
 20
4667.755549972138
 30
0.0
 11
7080.471596683558
 21
4667.755549972138
 31
0.0
  0
LINE
  5
19E05
330
747D
100
AcDbEntity
  8
細線
100
AcDbLine
 10
7154.47159668356
 20
4661.755549972138
 30
0.0
 11
7080.471596683558
 21
4661.755549972138
 31
0.0
  0
LINE
  5
19E06
330
747D
100
AcDbEntity
  8
細線
100
AcDbLine
 10
7154.47159668356
 20
4673.755549972138
 30
0.0
 11
7085.47159668356
 21
4673.755549972138
 31
0.0
  0
LINE
  5
19E07
330
747D
100
AcDbEntity
  8
細線
100
AcDbLine
 10
7006.471596683559
 20
4673.755549972138
 30
0.0
 11
7080.471596683558
 21
4673.755549972138
 31
0.0
  0
LINE
  5
19E08
330
747D
100
AcDbEntity
  8
細線
100
AcDbLine
 10
7006.471596683559
 20
4661.755549972138
 30
0.0
 11
7080.471596683558
 21
4661.755549972138
 31
0.0
  0
LINE
  5
19E09
330
747D
100
AcDbEntity
  8
細線
100
AcDbLine
 10
7006.471596683559
 20
4667.755549972138
 30
0.0
 11
7080.471596683558
 21
4667.755549972138
 31
0.0
  0
LINE
  5
19E0A
330
747D
100
AcDbEntity
  8
細線
100
AcDbLine
 10
7080.471596683558
 20
4679.755549972138
 30
0.0
 11
7080.471596683558
 21
4656.755549972138
 31
0.0
  0
LINE
  5
19E0B
330
747D
100
AcDbEntity
  8
細線
100
AcDbLine
 10
5850.471596683559
 20
4679.755549972138
 30
0.0
 11
5850.471596683555
 21
4656.755549972138
 31
0.0
  0
LINE
  5
19E0C
330
747D
100
AcDbEntity
  8
細線
100
AcDbLine
 10
5924.471596683556
 20
4667.755549972138
 30
0.0
 11
5850.471596683559
 21
4667.755549972138
 31
0.0
  0
LINE
  5
19E0D
330
747D
100
AcDbEntity
  8
細線
100
AcDbLine
 10
5924.471596683556
 20
4661.755549972138
 30
0.0
 11
5850.471596683559
 21
4661.755549972138
 31
0.0
  0
LINE
  5
19E0E
330
747D
100
AcDbEntity
  8
細線
100
AcDbLine
 10
5924.471596683556
 20
4673.755549972138
 30
0.0
 11
5850.471596683559
 21
4673.755549972138
 31
0.0
  0
LINE
  5
19E0F
330
747D
100
AcDbEntity
  8
細線
100
AcDbLine
 10
5776.47159668356
 20
4673.755549972138
 30
0.0
 11
5845.471596683559
 21
4673.755549972138
 31
0.0
  0
LINE
  5
19E10
330
747D
100
AcDbEntity
  8
細線
100
AcDbLine
 10
5776.471596683556
 20
4661.755549972138
 30
0.0
 11
5850.471596683559
 21
4661.755549972138
 31
0.0
  0
LINE
  5
19E11
330
747D
100
AcDbEntity
  8
細線
100
AcDbLine
 10
5776.47159668356
 20
4667.755549972138
 30
0.0
 11
5850.471596683559
 21
4667.755549972138
 31
0.0
  0
LINE
  5
19E12
330
747D
100
AcDbEntity
  8
細線
100
AcDbLine
 10
5776.47159668356
 20
4673.755549972138
 30
0.0
 11
5850.471596683559
 21
4673.755549972138
 31
0.0
  0
LINE
  5
19E13
330
747D
100
AcDbEntity
  8
部品1
 48
0.01
100
AcDbLine
 10
5938.471596683559
 20
4686.255549972139
 30
0.0
 11
5762.47159668356
 21
4686.255549972139
 31
0.0
  0
LINE
  5
19E14
330
747D
100
AcDbEntity
  8
部品1
 48
0.01
100
AcDbLine
 10
5760.471596683559
 20
4684.255549972138
 30
0.0
 11
5760.471596683559
 21
4652.755549972138
 31
0.0
  0
LINE
  5
19E15
330
747D
100
AcDbEntity
  8
部品1
 48
0.01
100
AcDbLine
 10
5940.471596683556
 20
4652.755549972138
 30
0.0
 11
5940.471596683559
 21
4684.255549972138
 31
0.0
  0
LINE
  5
19E16
330
747D
100
AcDbEntity
  8
細線
100
AcDbLine
 10
5776.47159668356
 20
4679.755549972138
 30
0.0
 11
5776.47159668356
 21
4656.755549972138
 31
0.0
  0
LINE
  5
19E17
330
747D
100
AcDbEntity
  8
細線
100
AcDbLine
 10
5924.471596683559
 20
4656.755549972138
 30
0.0
 11
5924.471596683559
 21
4679.755549972138
 31
0.0
  0
LINE
  5
19E18
330
747D
100
AcDbEntity
  8
細線
100
AcDbLine
 10
5924.471596683559
 20
4679.755549972138
 30
0.0
 11
5850.471596683559
 21
4679.755549972138
 31
0.0
  0
LINE
  5
19E19
330
747D
100
AcDbEntity
  8
細線
100
AcDbLine
 10
5776.47159668356
 20
4656.755549972138
 30
0.0
 11
5850.471596683559
 21
4656.755549972138
 31
0.0
  0
LINE
  5
19E1A
330
747D
100
AcDbEntity
  8
細線
100
AcDbLine
 10
5850.471596683559
 20
4679.755549972138
 30
0.0
 11
5776.47159668356
 21
4679.755549972138
 31
0.0
  0
LINE
  5
19E1B
330
747D
100
AcDbEntity
  8
細線
100
AcDbLine
 10
5850.471596683555
 20
4656.755549972138
 30
0.0
 11
5924.471596683559
 21
4656.755549972138
 31
0.0
  0
ARC
  5
19E1C
330
747D
100
AcDbEntity
  8
部品1
 48
0.01
100
AcDbCircle
 10
5762.47159668356
 20
4684.255549972138
 30
0.0
 40
2.0
100
AcDbArc
 50
90.0
 51
180.0
  0
ARC
  5
19E1D
330
747D
100
AcDbEntity
  8
部品1
 48
0.01
100
AcDbCircle
 10
5938.471596683559
 20
4684.255549972138
 30
0.0
 40
2.0
100
AcDbArc
 50
0.0
 51
90.0
  0
ARC
  5
19E1E
330
747D
100
AcDbEntity
  8
部品1
 48
0.01
100
AcDbCircle
 10
8568.471596683558
 20
4684.255549972138
 30
0.0
 40
2.0
100
AcDbArc
 50
0.0
 51
90.0
  0
ARC
  5
19E1F
330
747D
100
AcDbEntity
  8
部品1
 48
0.01
100
AcDbCircle
 10
8392.471596683558
 20
4684.255549972138
 30
0.0
 40
2.0
100
AcDbArc
 50
90.0
 51
180.0
  0
LINE
  5
19E20
330
747D
100
AcDbEntity
  8
細線
100
AcDbLine
 10
8480.471596683555
 20
4656.755549972138
 30
0.0
 11
8554.471596683558
 21
4656.755549972138
 31
0.0
  0
LINE
  5
19E21
330
747D
100
AcDbEntity
  8
細線
100
AcDbLine
 10
8480.471596683557
 20
4679.755549972138
 30
0.0
 11
8406.471596683557
 21
4679.755549972138
 31
0.0
  0
LINE
  5
19E22
330
747D
100
AcDbEntity
  8
細線
100
AcDbLine
 10
8406.471596683557
 20
4656.755549972138
 30
0.0
 11
8480.471596683557
 21
4656.755549972138
 31
0.0
  0
LINE
  5
19E23
330
747D
100
AcDbEntity
  8
細線
100
AcDbLine
 10
8554.471596683558
 20
4679.755549972138
 30
0.0
 11
8480.471596683557
 21
4679.755549972138
 31
0.0
  0
LINE
  5
19E24
330
747D
100
AcDbEntity
  8
細線
100
AcDbLine
 10
8554.471596683558
 20
4656.755549972138
 30
0.0
 11
8554.471596683558
 21
4679.755549972138
 31
0.0
  0
LINE
  5
19E25
330
747D
100
AcDbEntity
  8
細線
100
AcDbLine
 10
8406.471596683557
 20
4679.755549972138
 30
0.0
 11
8406.471596683557
 21
4656.755549972138
 31
0.0
  0
LINE
  5
19E26
330
747D
100
AcDbEntity
  8
部品1
 48
0.01
100
AcDbLine
 10
8570.471596683553
 20
4652.755549972138
 30
0.0
 11
8570.471596683558
 21
4684.255549972138
 31
0.0
  0
LINE
  5
19E27
330
747D
100
AcDbEntity
  8
部品1
 48
0.01
100
AcDbLine
 10
8390.471596683559
 20
4684.255549972138
 30
0.0
 11
8390.471596683559
 21
4652.755549972138
 31
0.0
  0
LINE
  5
19E28
330
747D
100
AcDbEntity
  8
部品1
 48
0.01
100
AcDbLine
 10
8568.471596683558
 20
4686.255549972139
 30
0.0
 11
8392.471596683558
 21
4686.255549972139
 31
0.0
  0
LINE
  5
19E29
330
747D
100
AcDbEntity
  8
細線
100
AcDbLine
 10
8406.471596683557
 20
4673.755549972138
 30
0.0
 11
8480.471596683557
 21
4673.755549972138
 31
0.0
  0
LINE
  5
19E2A
330
747D
100
AcDbEntity
  8
細線
100
AcDbLine
 10
8406.471596683557
 20
4667.755549972138
 30
0.0
 11
8480.471596683557
 21
4667.755549972138
 31
0.0
  0
LINE
  5
19E2B
330
747D
100
AcDbEntity
  8
細線
100
AcDbLine
 10
8406.471596683553
 20
4661.755549972138
 30
0.0
 11
8480.471596683557
 21
4661.755549972138
 31
0.0
  0
LINE
  5
19E2C
330
747D
100
AcDbEntity
  8
細線
100
AcDbLine
 10
8406.471596683557
 20
4673.755549972138
 30
0.0
 11
8475.471596683558
 21
4673.755549972138
 31
0.0
  0
LINE
  5
19E2D
330
747D
100
AcDbEntity
  8
細線
100
AcDbLine
 10
8554.471596683553
 20
4673.755549972138
 30
0.0
 11
8480.471596683557
 21
4673.755549972138
 31
0.0
  0
LINE
  5
19E2E
330
747D
100
AcDbEntity
  8
細線
100
AcDbLine
 10
8554.471596683553
 20
4661.755549972138
 30
0.0
 11
8480.471596683557
 21
4661.755549972138
 31
0.0
  0
LINE
  5
19E2F
330
747D
100
AcDbEntity
  8
細線
100
AcDbLine
 10
8554.471596683553
 20
4667.755549972138
 30
0.0
 11
8480.471596683557
 21
4667.755549972138
 31
0.0
  0
LINE
  5
19E30
330
747D
100
AcDbEntity
  8
細線
100
AcDbLine
 10
8480.471596683557
 20
4679.755549972138
 30
0.0
 11
8480.471596683555
 21
4656.755549972138
 31
0.0
  0
LINE
  5
19E31
330
747D
100
AcDbEntity
  8
細線
100
AcDbLine
 10
9710.471596683557
 20
4679.755549972138
 30
0.0
 11
9710.471596683557
 21
4656.755549972138
 31
0.0
  0
LINE
  5
19E32
330
747D
100
AcDbEntity
  8
細線
100
AcDbLine
 10
9636.471596683557
 20
4667.755549972138
 30
0.0
 11
9710.471596683557
 21
4667.755549972138
 31
0.0
  0
LINE
  5
19E33
330
747D
100
AcDbEntity
  8
細線
100
AcDbLine
 10
9636.471596683557
 20
4661.755549972138
 30
0.0
 11
9710.471596683557
 21
4661.755549972138
 31
0.0
  0
LINE
  5
19E34
330
747D
100
AcDbEntity
  8
細線
100
AcDbLine
 10
9636.471596683557
 20
4673.755549972138
 30
0.0
 11
9710.471596683557
 21
4673.755549972138
 31
0.0
  0
LINE
  5
19E35
330
747D
100
AcDbEntity
  8
細線
100
AcDbLine
 10
9784.471596683559
 20
4673.755549972138
 30
0.0
 11
9715.471596683558
 21
4673.755549972138
 31
0.0
  0
LINE
  5
19E36
330
747D
100
AcDbEntity
  8
細線
100
AcDbLine
 10
9784.471596683559
 20
4661.755549972138
 30
0.0
 11
9710.471596683557
 21
4661.755549972138
 31
0.0
  0
LINE
  5
19E37
330
747D
100
AcDbEntity
  8
細線
100
AcDbLine
 10
9784.471596683559
 20
4667.755549972138
 30
0.0
 11
9710.471596683557
 21
4667.755549972138
 31
0.0
  0
LINE
  5
19E38
330
747D
100
AcDbEntity
  8
細線
100
AcDbLine
 10
9784.471596683559
 20
4673.755549972138
 30
0.0
 11
9710.471596683557
 21
4673.755549972138
 31
0.0
  0
LINE
  5
19E39
330
747D
100
AcDbEntity
  8
部品1
 48
0.01
100
AcDbLine
 10
9622.471596683558
 20
4686.255549972139
 30
0.0
 11
9798.471596683558
 21
4686.255549972139
 31
0.0
  0
LINE
  5
19E3A
330
747D
100
AcDbEntity
  8
部品1
 48
0.01
100
AcDbLine
 10
9800.471596683557
 20
4684.255549972138
 30
0.0
 11
9800.471596683557
 21
4652.755549972138
 31
0.0
  0
LINE
  5
19E3B
330
747D
100
AcDbEntity
  8
部品1
 48
0.01
100
AcDbLine
 10
9620.471596683557
 20
4652.755549972138
 30
0.0
 11
9620.471596683557
 21
4684.255549972138
 31
0.0
  0
LINE
  5
19E3C
330
747D
100
AcDbEntity
  8
細線
100
AcDbLine
 10
9784.471596683559
 20
4679.755549972138
 30
0.0
 11
9784.471596683559
 21
4656.755549972138
 31
0.0
  0
LINE
  5
19E3D
330
747D
100
AcDbEntity
  8
細線
100
AcDbLine
 10
9636.471596683557
 20
4656.755549972138
 30
0.0
 11
9636.471596683557
 21
4679.755549972138
 31
0.0
  0
LINE
  5
19E3E
330
747D
100
AcDbEntity
  8
細線
100
AcDbLine
 10
9636.471596683557
 20
4679.755549972138
 30
0.0
 11
9710.471596683557
 21
4679.755549972138
 31
0.0
  0
LINE
  5
19E3F
330
747D
100
AcDbEntity
  8
細線
100
AcDbLine
 10
9784.471596683559
 20
4656.755549972138
 30
0.0
 11
9710.471596683557
 21
4656.755549972138
 31
0.0
  0
LINE
  5
19E40
330
747D
100
AcDbEntity
  8
細線
100
AcDbLine
 10
9710.471596683557
 20
4679.755549972138
 30
0.0
 11
9784.471596683559
 21
4679.755549972138
 31
0.0
  0
LINE
  5
19E41
330
747D
100
AcDbEntity
  8
細線
100
AcDbLine
 10
9710.471596683557
 20
4656.755549972138
 30
0.0
 11
9636.471596683557
 21
4656.755549972138
 31
0.0
  0
ARC
  5
19E42
330
747D
100
AcDbEntity
  8
部品1
 48
0.01
100
AcDbCircle
 10
9798.471596683558
 20
4684.255549972138
 30
0.0
 40
2.0
100
AcDbArc
 50
0.0
 51
90.0
  0
ARC
  5
19E43
330
747D
100
AcDbEntity
  8
部品1
 48
0.01
100
AcDbCircle
 10
9622.471596683558
 20
4684.255549972138
 30
0.0
 40
2.0
100
AcDbArc
 50
90.0
 51
180.0
  0
ARC
  5
19E44
330
747D
100
AcDbEntity
  8
部品1
 48
0.01
100
AcDbCircle
 10
8568.471596683554
 20
4652.755549972138
 30
0.0
 40
2.0
100
AcDbArc
 50
270.0
 51
0.0
  0
ARC
  5
19E45
330
747D
100
AcDbEntity
  8
部品1
 48
0.01
100
AcDbCircle
 10
8392.471596683558
 20
4652.755549972138
 30
0.0
 40
2.0
100
AcDbArc
 50
180.0
 51
270.0
  0
LINE
  5
19E46
330
747D
100
AcDbEntity
  8
部品1
 48
0.01
100
AcDbLine
 10
8392.471596683558
 20
4650.755549972138
 30
0.0
 11
8568.471596683554
 21
4650.755549972138
 31
0.0
  0
LINE
  5
19E47
330
747D
100
AcDbEntity
  8
部品1
 48
0.01
100
AcDbLine
 10
9798.471596683558
 20
4650.755549972138
 30
0.0
 11
9622.471596683558
 21
4650.755549972138
 31
0.0
  0
ARC
  5
19E48
330
747D
100
AcDbEntity
  8
部品1
 48
0.01
100
AcDbCircle
 10
9798.471596683558
 20
4652.755549972138
 30
0.0
 40
2.0
100
AcDbArc
 50
270.0
 51
0.0
  0
ARC
  5
19E49
330
747D
100
AcDbEntity
  8
部品1
 48
0.01
100
AcDbCircle
 10
9622.471596683558
 20
4652.755549972138
 30
0.0
 40
2.0
100
AcDbArc
 50
180.0
 51
270.0
  0
TEXT
  5
19E5E
330
747D
100
AcDbEntity
  8
文字
 62
     7
 48
50.0
100
AcDbText
 10
15022.63965474517
 20
9740.013745883725
 30
0.0
 40
100.0
  1
F12            1.2
  7
STYLE1
100
AcDbText
  0
TEXT
  5
19E80
330
747D
100
AcDbEntity
  8
文字
 62
     7
 48
50.0
100
AcDbText
 10
14646.46056207479
 20
871.9640646083623
 30
0.0
 40
100.0
  1
～一般型～
  7
STYLE2
100
AcDbText
  0
LINE
  5
19EA9
330
747D
100
AcDbEntity
  8
破線
 48
5.0
100
AcDbLine
 10
5100.471596683557
 20
2130.255549972138
 30
0.0
 11
5200.471596683557
 21
2130.255549972138
 31
0.0
  0
LINE
  5
19EAA
330
747D
100
AcDbEntity
  8
破線
 48
5.0
100
AcDbLine
 10
5150.471596683557
 20
2205.255549972139
 30
0.0
 11
5150.471596683557
 21
2130.255549972138
 31
0.0
  0
LINE
  5
19EAB
330
747D
100
AcDbEntity
  8
破線
 48
5.0
100
AcDbLine
 10
5047.471596683556
 20
2480.255549972139
 30
0.0
 11
5047.471596683557
 21
2230.255549972139
 31
0.0
  0
LINE
  5
19EAC
330
747D
100
AcDbEntity
  8
破線
 48
5.0
100
AcDbLine
 10
5095.471596683559
 20
2230.255549972139
 30
0.0
 11
5047.471596683557
 21
2230.255549972139
 31
0.0
  0
LINE
  5
19EAD
330
747D
100
AcDbEntity
  8
破線
 48
5.0
100
AcDbLine
 10
5095.471596683555
 20
2480.255549972139
 30
0.0
 11
5095.471596683559
 21
2205.255549972139
 31
0.0
  0
LINE
  5
19EAE
330
747D
100
AcDbEntity
  8
破線
 48
5.0
100
AcDbLine
 10
5205.471596683556
 20
2205.255549972139
 30
0.0
 11
5095.471596683558
 21
2205.255549972139
 31
0.0
  0
LINE
  5
19EAF
330
747D
100
AcDbEntity
  8
破線
 48
5.0
100
AcDbLine
 10
5253.471596683557
 20
2480.255549972139
 30
0.0
 11
5253.471596683555
 21
2230.255549972144
 31
0.0
  0
LINE
  5
19EB0
330
747D
100
AcDbEntity
  8
破線
 48
5.0
100
AcDbLine
 10
5253.471596683556
 20
2230.255549972144
 30
0.0
 11
5205.471596683556
 21
2230.255549972144
 31
0.0
  0
LINE
  5
19EB1
330
747D
100
AcDbEntity
  8
破線
 48
5.0
100
AcDbLine
 10
5205.471596683557
 20
2480.255549972139
 30
0.0
 11
5205.471596683556
 21
2205.255549972139
 31
0.0
  0
LINE
  5
19EBF
330
747D
100
AcDbEntity
  8
破線
 48
5.0
100
AcDbLine
 10
7730.471596683554
 20
2130.255549972138
 30
0.0
 11
7830.471596683555
 21
2130.255549972138
 31
0.0
  0
LINE
  5
19EC0
330
747D
100
AcDbEntity
  8
破線
 48
5.0
100
AcDbLine
 10
7780.471596683554
 20
2205.255549972139
 30
0.0
 11
7780.471596683554
 21
2130.255549972138
 31
0.0
  0
LINE
  5
19EC1
330
747D
100
AcDbEntity
  8
破線
 48
5.0
100
AcDbLine
 10
7677.471596683554
 20
2480.255549972139
 30
0.0
 11
7677.471596683556
 21
2230.255549972139
 31
0.0
  0
LINE
  5
19EC2
330
747D
100
AcDbEntity
  8
破線
 48
5.0
100
AcDbLine
 10
7725.471596683558
 20
2230.255549972139
 30
0.0
 11
7677.471596683556
 21
2230.255549972139
 31
0.0
  0
LINE
  5
19EC3
330
747D
100
AcDbEntity
  8
破線
 48
5.0
100
AcDbLine
 10
7725.471596683553
 20
2480.255549972139
 30
0.0
 11
7725.471596683556
 21
2205.255549972139
 31
0.0
  0
LINE
  5
19EC4
330
747D
100
AcDbEntity
  8
破線
 48
5.0
100
AcDbLine
 10
7835.471596683554
 20
2205.255549972139
 30
0.0
 11
7725.471596683556
 21
2205.255549972139
 31
0.0
  0
LINE
  5
19EC5
330
747D
100
AcDbEntity
  8
破線
 48
5.0
100
AcDbLine
 10
7883.471596683556
 20
2480.255549972139
 30
0.0
 11
7883.471596683553
 21
2230.255549972144
 31
0.0
  0
LINE
  5
19EC6
330
747D
100
AcDbEntity
  8
破線
 48
5.0
100
AcDbLine
 10
7883.471596683555
 20
2230.255549972144
 30
0.0
 11
7835.471596683554
 21
2230.255549972144
 31
0.0
  0
LINE
  5
19EC7
330
747D
100
AcDbEntity
  8
破線
 48
5.0
100
AcDbLine
 10
7835.471596683555
 20
2480.255549972139
 30
0.0
 11
7835.471596683554
 21
2205.255549972139
 31
0.0
  0
LINE
  5
19EDD
330
747D
100
AcDbEntity
  8
破線
 48
5.0
100
AcDbLine
 10
2623.471596683558
 20
2480.255549972139
 30
0.0
 11
2623.471596683558
 21
2230.255549972144
 31
0.0
  0
LINE
  5
19EDE
330
747D
100
AcDbEntity
  8
破線
 48
5.0
100
AcDbLine
 10
2623.471596683558
 20
2480.255549972139
 30
0.0
 11
2623.471596683558
 21
2230.255549972144
 31
0.0
  0
LINE
  5
19EDF
330
747D
100
AcDbEntity
  8
破線
 48
5.0
100
AcDbLine
 10
2623.471596683558
 20
2230.255549972144
 30
0.0
 11
2575.471596683558
 21
2230.255549972144
 31
0.0
  0
LINE
  5
19EE0
330
747D
100
AcDbEntity
  8
破線
 48
5.0
100
AcDbLine
 10
2623.471596683558
 20
2230.255549972144
 30
0.0
 11
2575.471596683558
 21
2230.255549972144
 31
0.0
  0
LINE
  5
19EE1
330
747D
100
AcDbEntity
  8
破線
 48
5.0
100
AcDbLine
 10
2575.471596683558
 20
2130.255549972146
 30
0.0
 11
2520.471596683558
 21
2130.255549972146
 31
0.0
  0
LINE
  5
19EE2
330
747D
100
AcDbEntity
  8
破線
 48
5.0
100
AcDbLine
 10
2520.471596683558
 20
2380.255549972138
 30
0.0
 11
2520.471596683558
 21
2130.255549972138
 31
0.0
  0
LINE
  5
19EE3
330
747D
100
AcDbEntity
  8
破線
 48
5.0
100
AcDbLine
 10
2575.471596683558
 20
2480.255549972139
 30
0.0
 11
2575.471596683558
 21
2130.255549972138
 31
0.0
  0
LINE
  5
19EE4
330
747D
100
AcDbEntity
  8
破線
 48
5.0
100
AcDbLine
 10
2575.471596683558
 20
2480.255549972139
 30
0.0
 11
2575.471596683558
 21
2130.255549972138
 31
0.0
  0
LINE
  5
19EF7
330
747D
100
AcDbEntity
  8
破線
 48
5.0
100
AcDbLine
 10
10355.47159668355
 20
2480.255549972139
 30
0.0
 11
10355.47159668355
 21
2130.255549972138
 31
0.0
  0
LINE
  5
19EF8
330
747D
100
AcDbEntity
  8
破線
 48
5.0
100
AcDbLine
 10
10410.47159668355
 20
2380.255549972138
 30
0.0
 11
10410.47159668355
 21
2130.255549972138
 31
0.0
  0
LINE
  5
19EF9
330
747D
100
AcDbEntity
  8
破線
 48
5.0
100
AcDbLine
 10
10410.47159668355
 20
2130.255549972138
 30
0.0
 11
10355.47159668355
 21
2130.255549972138
 31
0.0
  0
LINE
  5
19EFA
330
747D
100
AcDbEntity
  8
破線
 48
5.0
100
AcDbLine
 10
10307.47159668355
 20
2480.255549972139
 30
0.0
 11
10307.47159668355
 21
2230.255549972139
 31
0.0
  0
LINE
  5
19EFB
330
747D
100
AcDbEntity
  8
破線
 48
5.0
100
AcDbLine
 10
10355.47159668356
 20
2230.255549972139
 30
0.0
 11
10307.47159668355
 21
2230.255549972139
 31
0.0
  0
LINE
  5
19F34
330
747D
100
AcDbEntity
  8
部品1
100
AcDbLine
 10
6465.471596683579
 20
9767.029213418709
 30
0.0
 11
6465.471596683579
 21
9739.029213418708
 31
0.0
  0
LINE
  5
19F35
330
747D
100
AcDbEntity
  8
部品1
100
AcDbLine
 10
6452.971596683579
 20
9731.02921341869
 30
0.0
 11
6477.97159668358
 21
9731.029213418693
 31
0.0
  0
LINE
  5
19F36
330
747D
100
AcDbEntity
  8
部品1
100
AcDbLine
 10
6494.471596683578
 20
9757.029213418693
 30
0.0
 11
6500.471596683579
 21
9757.029213418693
 31
0.0
  0
LINE
  5
19F37
330
747D
100
AcDbEntity
  8
部品1
100
AcDbLine
 10
6500.471596683579
 20
9757.029213418693
 30
0.0
 11
6500.471596683579
 21
9739.029213418694
 31
0.0
  0
LINE
  5
19F38
330
747D
100
AcDbEntity
  8
部品1
100
AcDbLine
 10
6430.47159668358
 20
9757.029213418693
 30
0.0
 11
6436.471596683579
 21
9757.029213418693
 31
0.0
  0
LINE
  5
19F39
330
747D
100
AcDbEntity
  8
部品1
100
AcDbLine
 10
6430.47159668358
 20
9757.029213418693
 30
0.0
 11
6430.47159668358
 21
9739.029213418694
 31
0.0
  0
LINE
  5
19F3A
330
747D
100
AcDbEntity
  8
部品1
 48
50.0
100
AcDbLine
 10
6452.971596683575
 20
9739.029213418708
 30
0.0
 11
6452.971596683579
 21
9731.02921341869
 31
0.0
  0
LINE
  5
19F3B
330
747D
100
AcDbEntity
  8
部品1
 48
50.0
100
AcDbLine
 10
6477.97159668358
 20
9739.029213418703
 30
0.0
 11
6477.97159668358
 21
9731.029213418693
 31
0.0
  0
LINE
  5
19F45
330
747D
100
AcDbEntity
  8
部品1
 48
50.0
100
AcDbLine
 10
5217.471596683572
 20
7602.529213418586
 30
0.0
 11
7713.471596683556
 21
7602.529213418586
 31
0.0
  0
LINE
  5
19F46
330
747D
100
AcDbEntity
  8
部品1
 48
50.0
100
AcDbLine
 10
5140.471596683556
 20
4855.255549972142
 30
0.0
 11
7770.471596683553
 21
4855.255549972143
 31
0.0
  0
LINE
  5
19F47
330
747D
100
AcDbEntity
  8
部品1
 48
50.0
100
AcDbLine
 10
5150.471596683555
 20
4714.255549972142
 30
0.0
 11
7780.471596683556
 21
4714.255549972142
 31
0.0
  0
LINE
  5
19F48
330
747D
100
AcDbEntity
  8
部品1
 48
50.0
100
AcDbLine
 10
7780.471596683556
 20
4620.255549972138
 30
0.0
 11
5150.471596683555
 21
4620.255549972138
 31
0.0
  0
LINE
  5
19F49
330
747D
100
AcDbEntity
  8
部品1
100
AcDbLine
 10
5205.471596683557
 20
4455.255549972139
 30
0.0
 11
7835.471596683553
 21
4455.255549972139
 31
0.0
  0
LINE
  5
19F4A
330
747D
100
AcDbEntity
  8
細線
 48
50.0
100
AcDbLine
 10
5140.471596683556
 20
4827.22879253561
 30
0.0
 11
7770.471596683556
 21
4827.22879253561
 31
0.0
  0
LINE
  5
19F4B
330
747D
100
AcDbEntity
  8
細線
 48
50.0
100
AcDbLine
 10
5140.471596683556
 20
4735.028792535926
 30
0.0
 11
7770.471596683556
 21
4735.02879253593
 31
0.0
  0
LINE
  5
19F4C
330
747D
100
AcDbEntity
  8
細線
100
AcDbLine
 10
5253.471596683557
 20
4440.255549972138
 30
0.0
 11
7677.471596683556
 21
4440.255549972138
 31
0.0
  0
ARC
  5
19F4D
330
747D
100
AcDbEntity
  8
細線
 48
50.0
100
AcDbCircle
 10
6165.471596683557
 20
3042.755549972139
 30
0.0
 40
15.0
100
AcDbArc
 50
90.0
 51
270.0
  0
ARC
  5
19F4E
330
747D
100
AcDbEntity
  8
細線
 48
50.0
100
AcDbCircle
 10
6265.471596683557
 20
3042.755549972139
 30
0.0
 40
15.0
100
AcDbArc
 50
270.0
 51
90.0
  0
LINE
  5
19F4F
330
747D
100
AcDbEntity
  8
細線
 48
50.0
100
AcDbLine
 10
6165.471596683557
 20
3057.755549972139
 30
0.0
 11
6265.471596683557
 21
3057.755549972139
 31
0.0
  0
LINE
  5
19F50
330
747D
100
AcDbEntity
  8
細線
 48
50.0
100
AcDbLine
 10
6265.471596683557
 20
3027.755549972138
 30
0.0
 11
6165.471596683557
 21
3027.755549972138
 31
0.0
  0
LINE
  5
19F51
330
747D
100
AcDbEntity
  8
細線
 48
50.0
100
AcDbLine
 10
6765.471596683558
 20
3027.755549972138
 30
0.0
 11
6665.471596683558
 21
3027.755549972138
 31
0.0
  0
LINE
  5
19F52
330
747D
100
AcDbEntity
  8
細線
 48
50.0
100
AcDbLine
 10
6665.471596683558
 20
3057.755549972139
 30
0.0
 11
6765.471596683558
 21
3057.755549972139
 31
0.0
  0
ARC
  5
19F53
330
747D
100
AcDbEntity
  8
細線
 48
50.0
100
AcDbCircle
 10
6665.471596683558
 20
3042.755549972139
 30
0.0
 40
15.0
100
AcDbArc
 50
90.0
 51
270.0
  0
ARC
  5
19F54
330
747D
100
AcDbEntity
  8
細線
 48
50.0
100
AcDbCircle
 10
6765.471596683558
 20
3042.755549972139
 30
0.0
 40
15.0
100
AcDbArc
 50
270.0
 51
90.0
  0
CIRCLE
  5
19F55
330
747D
100
AcDbEntity
  8
細線
 48
50.0
100
AcDbCircle
 10
6465.471596683558
 20
3367.755549972139
 30
0.0
 40
18.0
  0
LINE
  5
19F56
330
747D
100
AcDbEntity
  8
細線
100
AcDbLine
 10
5253.471596683557
 20
3010.255549972138
 30
0.0
 11
7677.471596683556
 21
3010.255549972138
 31
0.0
  0
LINE
  5
19F57
330
747D
100
AcDbEntity
  8
細線
100
AcDbLine
 10
5253.471596683557
 20
2945.255549972138
 30
0.0
 11
7677.471596683556
 21
2945.255549972138
 31
0.0
  0
LINE
  5
19F58
330
747D
100
AcDbEntity
  8
細線
100
AcDbLine
 10
5253.471596683557
 20
2880.255549972139
 30
0.0
 11
7677.471596683556
 21
2880.255549972139
 31
0.0
  0
LINE
  5
19F59
330
747D
100
AcDbEntity
  8
細線
100
AcDbLine
 10
5253.471596683557
 20
2815.255549972139
 30
0.0
 11
7677.471596683556
 21
2815.255549972139
 31
0.0
  0
LINE
  5
19F5A
330
747D
100
AcDbEntity
  8
細線
100
AcDbLine
 10
5253.471596683557
 20
2750.255549972139
 30
0.0
 11
7677.471596683556
 21
2750.255549972139
 31
0.0
  0
LINE
  5
19F5B
330
747D
100
AcDbEntity
  8
細線
100
AcDbLine
 10
5253.471596683557
 20
2685.255549972139
 30
0.0
 11
7677.471596683556
 21
2685.255549972139
 31
0.0
  0
LINE
  5
19F5C
330
747D
100
AcDbEntity
  8
細線
100
AcDbLine
 10
5253.471596683557
 20
2620.255549972139
 30
0.0
 11
7677.471596683556
 21
2620.255549972139
 31
0.0
  0
LINE
  5
19F5D
330
747D
100
AcDbEntity
  8
細線
100
AcDbLine
 10
5253.471596683557
 20
4310.255549972138
 30
0.0
 11
7677.471596683556
 21
4310.255549972138
 31
0.0
  0
LINE
  5
19F5E
330
747D
100
AcDbEntity
  8
細線
100
AcDbLine
 10
5253.471596683557
 20
4375.255549972138
 30
0.0
 11
7677.471596683556
 21
4375.255549972138
 31
0.0
  0
LINE
  5
19F5F
330
747D
100
AcDbEntity
  8
細線
100
AcDbLine
 10
5253.471596683557
 20
3660.255549972138
 30
0.0
 11
7677.471596683556
 21
3660.255549972138
 31
0.0
  0
LINE
  5
19F60
330
747D
100
AcDbEntity
  8
細線
100
AcDbLine
 10
5253.471596683557
 20
3595.255549972139
 30
0.0
 11
7677.471596683556
 21
3595.255549972139
 31
0.0
  0
LINE
  5
19F61
330
747D
100
AcDbEntity
  8
細線
100
AcDbLine
 10
5253.471596683557
 20
3530.255549972139
 30
0.0
 11
7677.471596683556
 21
3530.255549972139
 31
0.0
  0
LINE
  5
19F62
330
747D
100
AcDbEntity
  8
細線
100
AcDbLine
 10
5253.471596683557
 20
3465.255549972139
 30
0.0
 11
7677.471596683556
 21
3465.255549972139
 31
0.0
  0
LINE
  5
19F63
330
747D
100
AcDbEntity
  8
細線
100
AcDbLine
 10
5253.471596683557
 20
3400.255549972138
 30
0.0
 11
7677.471596683556
 21
3400.255549972138
 31
0.0
  0
LINE
  5
19F64
330
747D
100
AcDbEntity
  8
細線
100
AcDbLine
 10
5253.471596683557
 20
3335.255549972139
 30
0.0
 11
7677.471596683556
 21
3335.255549972139
 31
0.0
  0
LINE
  5
19F65
330
747D
100
AcDbEntity
  8
細線
100
AcDbLine
 10
5253.471596683557
 20
3270.255549972139
 30
0.0
 11
7677.471596683556
 21
3270.255549972139
 31
0.0
  0
LINE
  5
19F66
330
747D
100
AcDbEntity
  8
細線
100
AcDbLine
 10
5253.471596683557
 20
3205.255549972139
 30
0.0
 11
7677.471596683556
 21
3205.255549972139
 31
0.0
  0
LINE
  5
19F67
330
747D
100
AcDbEntity
  8
細線
100
AcDbLine
 10
5253.471596683557
 20
3140.255549972139
 30
0.0
 11
7677.471596683556
 21
3140.255549972139
 31
0.0
  0
LINE
  5
19F68
330
747D
100
AcDbEntity
  8
細線
100
AcDbLine
 10
5253.471596683557
 20
3075.255549972139
 30
0.0
 11
7677.471596683556
 21
3075.255549972139
 31
0.0
  0
LINE
  5
19F69
330
747D
100
AcDbEntity
  8
細線
100
AcDbLine
 10
5253.471596683557
 20
4050.255549972137
 30
0.0
 11
7677.471596683556
 21
4050.255549972137
 31
0.0
  0
LINE
  5
19F6A
330
747D
100
AcDbEntity
  8
細線
100
AcDbLine
 10
5253.471596683557
 20
3985.255549972139
 30
0.0
 11
7677.471596683556
 21
3985.255549972139
 31
0.0
  0
LINE
  5
19F6B
330
747D
100
AcDbEntity
  8
細線
100
AcDbLine
 10
5253.471596683557
 20
3920.255549972138
 30
0.0
 11
7677.471596683556
 21
3920.255549972138
 31
0.0
  0
LINE
  5
19F6C
330
747D
100
AcDbEntity
  8
細線
100
AcDbLine
 10
5253.471596683557
 20
3855.255549972138
 30
0.0
 11
7677.471596683556
 21
3855.255549972138
 31
0.0
  0
LINE
  5
19F6D
330
747D
100
AcDbEntity
  8
細線
100
AcDbLine
 10
5253.471596683557
 20
3790.255549972139
 30
0.0
 11
7677.471596683556
 21
3790.255549972139
 31
0.0
  0
LINE
  5
19F6E
330
747D
100
AcDbEntity
  8
細線
100
AcDbLine
 10
5253.471596683557
 20
3725.255549972138
 30
0.0
 11
7677.471596683556
 21
3725.255549972138
 31
0.0
  0
LINE
  5
19F6F
330
747D
100
AcDbEntity
  8
細線
100
AcDbLine
 10
5253.471596683557
 20
4245.255549972138
 30
0.0
 11
7677.471596683556
 21
4245.255549972138
 31
0.0
  0
LINE
  5
19F70
330
747D
100
AcDbEntity
  8
細線
100
AcDbLine
 10
5253.471596683557
 20
4180.255549972138
 30
0.0
 11
7677.471596683556
 21
4180.255549972138
 31
0.0
  0
LINE
  5
19F71
330
747D
100
AcDbEntity
  8
細線
100
AcDbLine
 10
5253.471596683557
 20
4115.255549972139
 30
0.0
 11
7677.471596683556
 21
4115.255549972139
 31
0.0
  0
LINE
  5
19F72
330
747D
100
AcDbEntity
  8
細線
100
AcDbLine
 10
7677.471596683556
 20
2490.255549972138
 30
0.0
 11
5253.471596683557
 21
2490.255549972138
 31
0.0
  0
LINE
  5
19F73
330
747D
100
AcDbEntity
  8
細線
100
AcDbLine
 10
5253.471596683557
 20
2555.255549972139
 30
0.0
 11
7677.471596683556
 21
2555.255549972139
 31
0.0
  0
LINE
  5
19F74
330
747D
100
AcDbEntity
  8
細線
100
AcDbLine
 10
5253.471596683557
 20
2490.255549972138
 30
0.0
 11
7677.471596683556
 21
2490.255549972138
 31
0.0
  0
LINE
  5
19F86
330
747D
100
AcDbEntity
  8
部品1
 48
50.0
100
AcDbLine
 10
6512.004336239131
 20
9899.191761655391
 30
0.0
 11
6418.93885712803
 21
9551.866665182025
 31
0.0
  0
SPLINE
  5
19F87
330
747D
100
AcDbEntity
  8
部品1
 48
50.0
100
AcDbSpline
210
0.0
220
0.0
230
1.0
 70
     8
 71
     3
 72
    10
 73
     6
 74
     4
 42
0.0000000001
 43
0.0000000001
 44
0.0000000001
 40
0.0
 40
0.0
 40
0.0
 40
0.0
 40
147.8767566010009
 40
301.8091093202477
 40
466.5049223087716
 40
466.5049223087716
 40
466.5049223087716
 40
466.5049223087716
 10
6533.041924416631
 20
9806.770365944501
 30
0.0
 10
6456.160241921795
 20
9797.865932286663
 30
0.0
 10
6299.248549711666
 20
9779.692425827329
 30
0.0
 10
6622.061959656011
 20
9677.171841187991
 30
0.0
 10
6452.219339986638
 20
9658.536752475784
 30
0.0
 10
6364.429334779746
 20
9648.904455598476
 30
0.0
 11
6533.041924416631
 21
9806.770365944501
 31
0.0
 11
6390.203946107861
 21
9768.497045008174
 31
0.0
 11
6523.513274027036
 21
9691.53086864855
 31
0.0
 11
6364.429334779746
 21
9648.904455598476
 31
0.0
  0
LINE
  5
19F8E
330
747D
100
AcDbEntity
  8
部品1
 48
50.0
100
AcDbLine
 10
6512.004336239115
 20
7776.191761655269
 30
0.0
 11
6418.938857128015
 21
7428.866665181904
 31
0.0
  0
SPLINE
  5
19F8F
330
747D
100
AcDbEntity
  8
部品1
 48
50.0
100
AcDbSpline
210
0.0
220
0.0
230
1.0
 70
     8
 71
     3
 72
    10
 73
     6
 74
     4
 42
0.0000000001
 43
0.0000000001
 44
0.0000000001
 40
0.0
 40
0.0
 40
0.0
 40
0.0
 40
147.8767566010009
 40
301.8091093202477
 40
466.5049223087716
 40
466.5049223087716
 40
466.5049223087716
 40
466.5049223087716
 10
6533.041924416615
 20
7683.77036594438
 30
0.0
 10
6456.160241921779
 20
7674.86593228654
 30
0.0
 10
6299.248549711652
 20
7656.692425827208
 30
0.0
 10
6622.061959655995
 20
7554.17184118787
 30
0.0
 10
6452.219339986623
 20
7535.536752475661
 30
0.0
 10
6364.42933477973
 20
7525.904455598355
 30
0.0
 11
6533.041924416615
 21
7683.77036594438
 31
0.0
 11
6390.203946107845
 21
7645.497045008051
 31
0.0
 11
6523.51327402702
 21
7568.530868648427
 31
0.0
 11
6364.42933477973
 21
7525.904455598355
 31
0.0
  0
LINE
  5
19F9F
330
747D
100
AcDbEntity
  8
部品1
 48
50.0
100
AcDbLine
 10
6917.635858911078
 20
5055.255549972142
 30
0.0
 11
6093.692092185376
 21
1980.255549972138
 31
0.0
  0
SPLINE
  5
19FA0
330
747D
100
AcDbEntity
  8
部品1
 48
50.0
100
AcDbSpline
210
0.0
220
0.0
230
1.0
 70
     8
 71
     3
 72
    10
 73
     6
 74
     4
 42
0.0000000001
 43
0.0000000001
 44
0.0000000001
 40
0.0
 40
0.0
 40
0.0
 40
0.0
 40
147.8767566010009
 40
301.8091093202477
 40
466.5049223087734
 40
466.5049223087734
 40
466.5049223087734
 40
466.5049223087734
 10
6533.041924416609
 20
3448.996702497932
 30
0.0
 10
6456.160241921775
 20
3440.092268840094
 30
0.0
 10
6299.248549711647
 20
3421.918762380761
 30
0.0
 10
6622.061959655991
 20
3319.398177741419
 30
0.0
 10
6452.219339986617
 20
3300.763089029216
 30
0.0
 10
6364.429334779723
 20
3291.130792151907
 30
0.0
 11
6533.041924416609
 21
3448.996702497932
 31
0.0
 11
6390.20394610784
 21
3410.723381561604
 31
0.0
 11
6523.513274027014
 21
3333.75720520198
 31
0.0
 11
6364.429334779723
 21
3291.130792151907
 31
0.0
  0
TEXT
  5
19FB3
330
747D
100
AcDbEntity
  8
文字
 62
     7
 48
50.0
100
AcDbText
 10
15022.63965474516
 20
9060.013745883725
 30
0.0
 40
100.0
  1
F12            0.7
  7
STYLE1
100
AcDbText
  0
ENDSEC
  0
SECTION
  2
OBJECTS
  0
DICTIONARY
  5
7471
330
0
100
AcDbDictionary
281
     1
  3
ACAD_COLOR
350
16E79
  3
ACAD_GROUP
350
7472
  3
ACAD_LAYOUT
350
16E7A
  3
ACAD_MATERIAL
350
16E78
  3
ACAD_MLINESTYLE
350
7473
  3
ACAD_PLOTSETTINGS
350
16E7B
  3
ACAD_PLOTSTYLENAME
350
16E76
  3
ACDBHEADERROUNDTRIPXREC
350
1A013
  3
AcDbVariableDictionary
350
1A00F
  3
CONTENTDICTIONARY
350
E71C
  3
DRAWINGVARIABLESDICT
350
F3B9
  0
DICTIONARY
  5
1730F
330
7467
100
AcDbDictionary
280
     1
281
     1
  3
ACAD_LAYERSTATES
360
17310
  0
DICTIONARY
  5
16E79
102
{ACAD_REACTORS
330
7471
102
}
330
7471
100
AcDbDictionary
281
     1
  0
DICTIONARY
  5
7472
102
{ACAD_REACTORS
330
7471
102
}
330
7471
100
AcDbDictionary
281
     1
  0
DICTIONARY
  5
16E7A
102
{ACAD_REACTORS
330
7471
102
}
330
7471
100
AcDbDictionary
281
     1
  3
Model
350
16E7C
  3
レイアウト1
350
16E7D
  0
DICTIONARY
  5
16E78
102
{ACAD_REACTORS
330
7471
102
}
330
7471
100
AcDbDictionary
281
     1
  0
DICTIONARY
  5
7473
102
{ACAD_REACTORS
330
7471
102
}
330
7471
100
AcDbDictionary
281
     1
  3
STANDARD
350
7480
  0
DICTIONARY
  5
16E7B
102
{ACAD_REACTORS
330
7471
102
}
330
7471
100
AcDbDictionary
281
     1
  0
ACDBDICTIONARYWDFLT
  5
16E76
102
{ACAD_REACTORS
330
7471
102
}
330
7471
100
AcDbDictionary
281
     1
  3
Normal
350
16E77
100
AcDbDictionaryWithDefault
340
16E77
  0
DICTIONARY
  5
1A013
102
{ACAD_REACTORS
330
7471
102
}
330
7471
100
AcDbDictionary
281
     1
  3
COLORDICT
350
1A015
  3
MATERIALDICT
350
1A014
  0
DICTIONARY
  5
1A00F
102
{ACAD_REACTORS
330
7471
102
}
330
7471
100
AcDbDictionary
281
     1
  3
DIMASSOC
350
1A010
  3
PROJECTNAME
350
1A011
  0
DICTIONARY
  5
E71C
102
{ACAD_REACTORS
330
7471
102
}
330
7471
100
AcDbDictionary
281
     1
  0
DICTIONARY
  5
F3B9
102
{ACAD_REACTORS
330
7471
102
}
330
7471
100
AcDbDictionary
281
     1
1001
DRAWINGVARIABLESXDATA
1000
POLARMODE
1000
1
  0
DICTIONARY
  5
17310
102
{ACAD_REACTORS
330
1730F
102
}
330
1730F
100
AcDbDictionary
281
     1
  0
LAYOUT
  5
16E7C
102
{ACAD_XDICTIONARY
360
1A016
102
}
102
{ACAD_REACTORS
330
16E7A
102
}
330
16E7A
100
AcDbPlotSettings
  1

  2
クセロPDF
  4
A3
  6

 40
3.174999999999999
 41
3.174999999999999
 42
3.174987999999999
 43
3.174987999999999
 44
419.946655
 45
296.925995
 46
0.0
 47
0.0
 48
0.0
 49
0.0
140
0.0
141
0.0
142
1.0
143
40.44561299368567
 70
 11952
 72
     1
 73
     0
 74
     2
  7
inaba.ctb
 75
     0
147
0.0247245603659442
148
183.0179068595971
149
160.3342785227505
100
AcDbLayout
  1
Model
 70
     1
 71
     0
 10
0.0
 20
0.0
 11
12.0
 21
9.0
 12
0.0
 22
0.0
 32
0.0
 14
0.0
 24
0.0
 34
0.0
 15
0.0
 25
0.0
 35
0.0
146
0.0
 13
0.0
 23
0.0
 33
0.0
 16
1.0
 26
0.0
 36
0.0
 17
0.0
 27
1.0
 37
0.0
 76
     0
330
747D
  0
LAYOUT
  5
16E7D
102
{ACAD_XDICTIONARY
360
1A018
102
}
102
{ACAD_REACTORS
330
16E7A
102
}
330
16E7A
100
AcDbPlotSettings
  1

  2
EPSON LP-8300
  4

  6

 40
0.0
 41
0.0
 42
0.0
 43
0.0
 44
0.0
 45
0.0
 46
0.0
 47
0.0
 48
0.0
 49
0.0
140
0.0
141
0.0
142
1.0
143
1.0
 70
   688
 72
     0
 73
     0
 74
     5
  7
inaba.ctb
 75
    16
147
1.0
148
0.0
149
0.0
100
AcDbLayout
  1
レイアウト1
 70
     0
 71
     1
 10
0.0
 20
0.0
 11
420.0
 21
297.0
 12
0.0
 22
0.0
 32
0.0
 14
1.000000000000000E+20
 24
1.000000000000000E+20
 34
1.000000000000000E+20
 15
-1.000000000000000E+20
 25
-1.000000000000000E+20
 35
-1.000000000000000E+20
146
0.0
 13
0.0
 23
0.0
 33
0.0
 16
1.0
 26
0.0
 36
0.0
 17
0.0
 27
1.0
 37
0.0
 76
     0
330
747A
  0
MLINESTYLE
  5
7480
102
{ACAD_REACTORS
330
7473
102
}
330
7473
100
AcDbMlineStyle
  2
STANDARD
 70
     0
  3

 62
     0
 51
90.0
 52
90.0
 71
     2
 49
0.5
 62
   256
  6
BYLAYER
 49
-0.5
 62
   256
  6
BYLAYER
  0
ACDBPLACEHOLDER
  5
16E77
102
{ACAD_REACTORS
330
16E76
102
}
330
16E76
  0
XRECORD
  5
1A015
102
{ACAD_REACTORS
330
1A013
102
}
330
1A013
100
AcDbXrecord
280
     1
340
16E79
  0
XRECORD
  5
1A014
102
{ACAD_REACTORS
330
1A013
102
}
330
1A013
100
AcDbXrecord
280
     1
340
16E78
  0
DICTIONARYVAR
  5
1A010
102
{ACAD_REACTORS
330
1A00F
102
}
330
1A00F
100
DictionaryVariables
280
     0
  1
1
  0
DICTIONARYVAR
  5
1A011
102
{ACAD_REACTORS
330
1A00F
102
}
330
1A00F
100
DictionaryVariables
280
     0
  1

  0
DICTIONARY
  5
1A016
330
16E7C
100
AcDbDictionary
280
     1
281
     1
  3
ACAD_XREC_ROUNDTRIP
360
1A017
  0
DICTIONARY
  5
1A018
330
16E7D
100
AcDbDictionary
280
     1
281
     1
  3
ACAD_XREC_ROUNDTRIP
360
1A019
  0
XRECORD
  5
1A017
102
{ACAD_REACTORS
330
1A016
102
}
330
1A016
100
AcDbXrecord
280
     1
102
SHADEPLOT
 70
     1
102
SHADEPLOTRESLEVEL
 70
     2
102
SHADEPLOTCUSTOMDPI
 70
   300
  0
XRECORD
  5
1A019
102
{ACAD_REACTORS
330
1A018
102
}
330
1A018
100
AcDbXrecord
280
     1
102
SHADEPLOT
 70
     0
102
SHADEPLOTRESLEVEL
 70
     2
102
SHADEPLOTCUSTOMDPI
 70
   300
  0
ENDSEC
  0
EOF
