  0
SECTION
  2
HEADER
  9
$ACADVER
  1
AC1015
  9
$ACADMAINTVER
 70
    20
  9
$DWGCODEPAGE
  3
ANSI_932
  9
$INSBASE
 10
0.0
 20
0.0
 30
0.0
  9
$EXTMIN
 10
139.9999999999995
 20
-0.0000000000000909
 30
0.0
  9
$EXTMAX
 10
16307.2
 20
11409.6
 30
0.0
  9
$LIMMIN
 10
-183.0179068595971
 20
-160.3342785227505
  9
$LIMMAX
 10
16374.07536659319
 20
11592.19044584975
  9
$ORTHOMODE
 70
     0
  9
$REGENMODE
 70
     1
  9
$FILLMODE
 70
     1
  9
$QTEXTMODE
 70
     0
  9
$MIRRTEXT
 70
     1
  9
$LTSCALE
 40
20.0
  9
$ATTMODE
 70
     1
  9
$TEXTSIZE
 40
100.0
  9
$TRACEWID
 40
1.0
  9
$TEXTSTYLE
  7
STYLE2
  9
$CLAYER
  8
部品1
  9
$CELTYPE
  6
BYLAYER
  9
$CECOLOR
 62
   256
  9
$CELTSCALE
 40
50.0
  9
$DISPSILH
 70
     0
  9
$DIMSCALE
 40
40.0
  9
$DIMASZ
 40
2.5
  9
$DIMEXO
 40
0.5
  9
$DIMDLI
 40
7.0
  9
$DIMRND
 40
0.0
  9
$DIMDLE
 40
0.0
  9
$DIMEXE
 40
1.5
  9
$DIMTP
 40
0.0
  9
$DIMTM
 40
0.0
  9
$DIMTXT
 40
3.0
  9
$DIMCEN
 40
0.0
  9
$DIMTSZ
 40
0.0
  9
$DIMTOL
 70
     0
  9
$DIMLIM
 70
     0
  9
$DIMTIH
 70
     0
  9
$DIMTOH
 70
     0
  9
$DIMSE1
 70
     0
  9
$DIMSE2
 70
     0
  9
$DIMTAD
 70
     3
  9
$DIMZIN
 70
     8
  9
$DIMBLK
  1

  9
$DIMASO
 70
     1
  9
$DIMSHO
 70
     1
  9
$DIMPOST
  1

  9
$DIMAPOST
  1

  9
$DIMALT
 70
     0
  9
$DIMALTD
 70
     2
  9
$DIMALTF
 40
0.0394
  9
$DIMLFAC
 40
1.0
  9
$DIMTOFL
 70
     1
  9
$DIMTVP
 40
0.0
  9
$DIMTIX
 70
     1
  9
$DIMSOXD
 70
     0
  9
$DIMSAH
 70
     1
  9
$DIMBLK1
  1
DOTSMALL
  9
$DIMBLK2
  1
DOTSMALL
  9
$DIMSTYLE
  2
INABA_S40G
  9
$DIMCLRD
 70
     0
  9
$DIMCLRE
 70
     0
  9
$DIMCLRT
 70
     7
  9
$DIMTFAC
 40
1.0
  9
$DIMGAP
 40
1.0
  9
$DIMJUST
 70
     0
  9
$DIMSD1
 70
     0
  9
$DIMSD2
 70
     0
  9
$DIMTOLJ
 70
     1
  9
$DIMTZIN
 70
     0
  9
$DIMALTZ
 70
     0
  9
$DIMALTTZ
 70
     0
  9
$DIMUPT
 70
     0
  9
$DIMDEC
 70
     1
  9
$DIMTDEC
 70
     4
  9
$DIMALTU
 70
     2
  9
$DIMALTTD
 70
     2
  9
$DIMTXSTY
  7
STYLE1
  9
$DIMAUNIT
 70
     0
  9
$DIMADEC
 70
     0
  9
$DIMALTRND
 40
0.0
  9
$DIMAZIN
 70
     0
  9
$DIMDSEP
 70
    46
  9
$DIMATFIT
 70
     3
  9
$DIMFRAC
 70
     0
  9
$DIMLDRBLK
  1

  9
$DIMLUNIT
 70
     2
  9
$DIMLWD
 70
    -2
  9
$DIMLWE
 70
    -2
  9
$DIMTMOVE
 70
     2
  9
$LUNITS
 70
     2
  9
$LUPREC
 70
     1
  9
$SKETCHINC
 40
1.0
  9
$FILLETRAD
 40
3.0
  9
$AUNITS
 70
     0
  9
$AUPREC
 70
     0
  9
$MENU
  1
acad
  9
$ELEVATION
 40
0.0
  9
$PELEVATION
 40
0.0
  9
$THICKNESS
 40
0.0
  9
$LIMCHECK
 70
     0
  9
$CHAMFERA
 40
0.0
  9
$CHAMFERB
 40
0.0
  9
$CHAMFERC
 40
0.0
  9
$CHAMFERD
 40
0.0
  9
$SKPOLY
 70
     0
  9
$TDCREATE
 40
2451368.612993866
  9
$TDUCREATE
 40
2451368.237993866
  9
$TDUPDATE
 40
2455569.631267894
  9
$TDUUPDATE
 40
2455569.256267894
  9
$TDINDWG
 40
0.7750452546
  9
$TDUSRTIMER
 40
0.7750452546
  9
$USRTIMER
 70
     1
  9
$ANGBASE
 50
0.0
  9
$ANGDIR
 70
     0
  9
$PDMODE
 70
     3
  9
$PDSIZE
 40
2.0
  9
$PLINEWID
 40
0.0
  9
$SPLFRAME
 70
     0
  9
$SPLINETYPE
 70
     6
  9
$SPLINESEGS
 70
     8
  9
$HANDSEED
  5
185F6
  9
$SURFTAB1
 70
     6
  9
$SURFTAB2
 70
     6
  9
$SURFTYPE
 70
     6
  9
$SURFU
 70
     6
  9
$SURFV
 70
     6
  9
$UCSBASE
  2

  9
$UCSNAME
  2

  9
$UCSORG
 10
0.0
 20
0.0
 30
0.0
  9
$UCSXDIR
 10
1.0
 20
0.0
 30
0.0
  9
$UCSYDIR
 10
0.0
 20
1.0
 30
0.0
  9
$UCSORTHOREF
  2

  9
$UCSORTHOVIEW
 70
     0
  9
$UCSORGTOP
 10
0.0
 20
0.0
 30
0.0
  9
$UCSORGBOTTOM
 10
0.0
 20
0.0
 30
0.0
  9
$UCSORGLEFT
 10
0.0
 20
0.0
 30
0.0
  9
$UCSORGRIGHT
 10
0.0
 20
0.0
 30
0.0
  9
$UCSORGFRONT
 10
0.0
 20
0.0
 30
0.0
  9
$UCSORGBACK
 10
0.0
 20
0.0
 30
0.0
  9
$PUCSBASE
  2

  9
$PUCSNAME
  2

  9
$PUCSORG
 10
0.0
 20
0.0
 30
0.0
  9
$PUCSXDIR
 10
1.0
 20
0.0
 30
0.0
  9
$PUCSYDIR
 10
0.0
 20
1.0
 30
0.0
  9
$PUCSORTHOREF
  2

  9
$PUCSORTHOVIEW
 70
     0
  9
$PUCSORGTOP
 10
0.0
 20
0.0
 30
0.0
  9
$PUCSORGBOTTOM
 10
0.0
 20
0.0
 30
0.0
  9
$PUCSORGLEFT
 10
0.0
 20
0.0
 30
0.0
  9
$PUCSORGRIGHT
 10
0.0
 20
0.0
 30
0.0
  9
$PUCSORGFRONT
 10
0.0
 20
0.0
 30
0.0
  9
$PUCSORGBACK
 10
0.0
 20
0.0
 30
0.0
  9
$USERI1
 70
     0
  9
$USERI2
 70
     0
  9
$USERI3
 70
     0
  9
$USERI4
 70
     0
  9
$USERI5
 70
     0
  9
$USERR1
 40
0.0
  9
$USERR2
 40
0.0
  9
$USERR3
 40
0.0
  9
$USERR4
 40
0.0
  9
$USERR5
 40
0.0
  9
$WORLDVIEW
 70
     1
  9
$SHADEDGE
 70
     3
  9
$SHADEDIF
 70
    70
  9
$TILEMODE
 70
     1
  9
$MAXACTVP
 70
    16
  9
$PINSBASE
 10
0.0
 20
0.0
 30
0.0
  9
$PLIMCHECK
 70
     0
  9
$PEXTMIN
 10
1.000000000000000E+20
 20
1.000000000000000E+20
 30
1.000000000000000E+20
  9
$PEXTMAX
 10
-1.000000000000000E+20
 20
-1.000000000000000E+20
 30
-1.000000000000000E+20
  9
$PLIMMIN
 10
0.0
 20
0.0
  9
$PLIMMAX
 10
420.0
 20
297.0
  9
$UNITMODE
 70
     0
  9
$VISRETAIN
 70
     0
  9
$PLINEGEN
 70
     0
  9
$PSLTSCALE
 70
     0
  9
$TREEDEPTH
 70
  3020
  9
$CMLSTYLE
  2
STANDARD
  9
$CMLJUST
 70
     0
  9
$CMLSCALE
 40
1.0
  9
$PROXYGRAPHICS
 70
     1
  9
$MEASUREMENT
 70
     1
  9
$CELWEIGHT
370
    -1
  9
$ENDCAPS
280
     0
  9
$JOINSTYLE
280
     0
  9
$LWDISPLAY
290
     0
  9
$INSUNITS
 70
     0
  9
$HYPERLINKBASE
  1

  9
$STYLESHEET
  1
inaba.ctb
  9
$XEDIT
290
     1
  9
$CEPSNTYPE
380
     0
  9
$PSTYLEMODE
290
     1
  9
$FINGERPRINTGUID
  2
{A3510EFB-3DA4-46E9-8352-7A5C5BF31AA4}
  9
$VERSIONGUID
  2
{9BAC3D96-1E82-4BCD-8902-3BD96D1E495C}
  9
$EXTNAMES
290
     1
  9
$PSVPSCALE
 40
0.0
  9
$OLESTARTUP
290
     0
  0
ENDSEC
  0
SECTION
  2
CLASSES
  0
CLASS
  1
ACDBDICTIONARYWDFLT
  2
AcDbDictionaryWithDefault
  3
ObjectDBX Classes
 90
        0
280
     0
281
     0
  0
CLASS
  1
DICTIONARYVAR
  2
AcDbDictionaryVar
  3
ObjectDBX Classes
 90
        0
280
     0
281
     0
  0
CLASS
  1
ACDBPLACEHOLDER
  2
AcDbPlaceHolder
  3
ObjectDBX Classes
 90
        0
280
     0
281
     0
  0
CLASS
  1
LAYOUT
  2
AcDbLayout
  3
ObjectDBX Classes
 90
        0
280
     0
281
     0
  0
ENDSEC
  0
SECTION
  2
TABLES
  0
TABLE
  2
VPORT
  5
746D
330
0
100
AcDbSymbolTable
 70
     2
  0
VPORT
  5
185EE
330
746D
100
AcDbSymbolTableRecord
100
AcDbViewportTableRecord
  2
*Active
 70
     0
 10
0.0
 20
0.0
 11
1.0
 21
1.0
 12
8807.280585082221
 22
5704.60831763757
 13
0.0
 23
0.0
 14
10.0
 24
10.0
 15
10.0
 25
10.0
 16
0.0
 26
0.0
 36
1.0
 17
0.0
 27
0.0
 37
0.0
 40
11495.08489134193
 41
1.627450980392156
 42
50.0
 43
0.0
 44
0.0
 50
0.0
 51
0.0
 71
     0
 72
     0
 73
     1
 74
     0
 75
     0
 76
     0
 77
     0
 78
     0
281
     0
 65
     1
110
0.0
120
0.0
130
0.0
111
1.0
121
0.0
131
0.0
112
0.0
122
1.0
132
0.0
 79
     0
146
0.0
  0
ENDTAB
  0
TABLE
  2
LTYPE
  5
746A
330
0
100
AcDbSymbolTable
 70
     3
  0
LTYPE
  5
7477
330
746A
100
AcDbSymbolTableRecord
100
AcDbLinetypeTableRecord
  2
BYBLOCK
 70
     0
  3

 72
    65
 73
     0
 40
0.0
  0
LTYPE
  5
7478
330
746A
100
AcDbSymbolTableRecord
100
AcDbLinetypeTableRecord
  2
BYLAYER
 70
     0
  3

 72
    65
 73
     0
 40
0.0
  0
LTYPE
  5
7479
330
746A
100
AcDbSymbolTableRecord
100
AcDbLinetypeTableRecord
  2
CONTINUOUS
 70
     0
  3
Solid line
 72
    65
 73
     0
 40
0.0
  0
LTYPE
  5
781A
330
746A
100
AcDbSymbolTableRecord
100
AcDbLinetypeTableRecord
  2
HIDDEN
 70
     0
  3
__ __ __ __ __ __ __ __ __ __ __ __ __ __ __ __
 72
    65
 73
     2
 40
0.375
 49
0.25
 74
     0
 49
-0.125
 74
     0
  0
LTYPE
  5
781B
330
746A
100
AcDbSymbolTableRecord
100
AcDbLinetypeTableRecord
  2
PHANTOM
 70
     0
  3
______  __  __  ______  __  __  ______  __  __ 
 72
    65
 73
     6
 40
2.5
 49
1.25
 74
     0
 49
-0.25
 74
     0
 49
0.25
 74
     0
 49
-0.25
 74
     0
 49
0.25
 74
     0
 49
-0.25
 74
     0
  0
ENDTAB
  0
TABLE
  2
LAYER
  5
7467
102
{ACAD_XDICTIONARY
360
17102
102
}
330
0
100
AcDbSymbolTable
 70
    10
  0
LAYER
  5
7474
330
7467
100
AcDbSymbolTableRecord
100
AcDbLayerTableRecord
  2
0
 70
     0
 62
     7
  6
CONTINUOUS
370
    -3
390
16CC1
  0
LAYER
  5
DEB3
330
7467
100
AcDbSymbolTableRecord
100
AcDbLayerTableRecord
  2
寸法
 70
     0
 62
     4
  6
CONTINUOUS
370
    -3
390
16CC1
  0
LAYER
  5
DEB4
330
7467
100
AcDbSymbolTableRecord
100
AcDbLayerTableRecord
  2
部品1
 70
     0
 62
     7
  6
CONTINUOUS
370
    -3
390
16CC1
  0
LAYER
  5
DEB5
330
7467
100
AcDbSymbolTableRecord
100
AcDbLayerTableRecord
  2
補助
 70
     0
 62
    -1
  6
CONTINUOUS
370
    -3
390
16CC1
  0
LAYER
  5
DEB6
330
7467
100
AcDbSymbolTableRecord
100
AcDbLayerTableRecord
  2
文字
 70
     0
 62
     7
  6
CONTINUOUS
370
    -3
390
16CC1
  0
LAYER
  5
F255
330
7467
100
AcDbSymbolTableRecord
100
AcDbLayerTableRecord
  2
DEFPOINTS
 70
     0
 62
     7
  6
CONTINUOUS
290
     0
370
    -3
390
16CC1
  0
LAYER
  5
10B54
330
7467
100
AcDbSymbolTableRecord
100
AcDbLayerTableRecord
  2
仕様書枠
 70
     0
 62
   230
  6
CONTINUOUS
370
    -3
390
16CC1
  0
LAYER
  5
11729
330
7467
100
AcDbSymbolTableRecord
100
AcDbLayerTableRecord
  2
Ｇ．Ｌ
 70
     0
 62
    30
  6
CONTINUOUS
370
    -3
390
16CC1
  0
LAYER
  5
1173F
330
7467
100
AcDbSymbolTableRecord
100
AcDbLayerTableRecord
  2
細線
 70
     0
 62
     5
  6
CONTINUOUS
370
    -3
390
16CC1
  0
LAYER
  5
142E2
330
7467
100
AcDbSymbolTableRecord
100
AcDbLayerTableRecord
  2
破線
 70
     0
 62
     2
  6
HIDDEN
370
    -3
390
16CC1
  0
ENDTAB
  0
TABLE
  2
STYLE
  5
7468
330
0
100
AcDbSymbolTable
 70
     4
  0
STYLE
  5
7475
330
7468
100
AcDbSymbolTableRecord
100
AcDbTextStyleTableRecord
  2
STANDARD
 70
     0
 40
0.0
 41
1.0
 50
0.0
 71
     0
 42
4.0
  3
txt
  4
C:\AutoCAD LT\bigfont.shx
  0
STYLE
  5
763C
330
7468
100
AcDbSymbolTableRecord
100
AcDbTextStyleTableRecord
  2
MSMINCHO
 70
     0
 40
0.0
 41
1.0
 50
0.0
 71
     0
 42
1.199999999999999
  3
C:\AutoCAD LT\msminch2.TTF
  4

  0
STYLE
  5
F706
330
7468
100
AcDbSymbolTableRecord
100
AcDbTextStyleTableRecord
  2
STYLE1
 70
     0
 40
0.0
 41
1.0
 50
0.0
 71
     0
 42
4.0
  3
isocp.shx
  4
bigfont.shx
  0
STYLE
  5
103BF
330
7468
100
AcDbSymbolTableRecord
100
AcDbTextStyleTableRecord
  2
STYLE2
 70
     0
 40
0.0
 41
1.0
 50
0.0
 71
     0
 42
100.0
  3
MS PGothic.ttf
  4

1001
ACAD
1000
MS PGothic
1071
    32818
  0
ENDTAB
  0
TABLE
  2
VIEW
  5
746B
330
0
100
AcDbSymbolTable
 70
     0
  0
ENDTAB
  0
TABLE
  2
UCS
  5
746C
330
0
100
AcDbSymbolTable
 70
     0
  0
ENDTAB
  0
TABLE
  2
APPID
  5
746E
330
0
100
AcDbSymbolTable
 70
     6
  0
APPID
  5
7476
330
746E
100
AcDbSymbolTableRecord
100
AcDbRegAppTableRecord
  2
ACAD
 70
     0
  0
APPID
  5
DEA9
330
746E
100
AcDbSymbolTableRecord
100
AcDbRegAppTableRecord
  2
CONTENTBLOCKICON
 70
     0
  0
APPID
  5
DEAA
330
746E
100
AcDbSymbolTableRecord
100
AcDbRegAppTableRecord
  2
CONTENTBLOCKDESCRIPTION
 70
     0
  0
APPID
  5
E71D
330
746E
100
AcDbSymbolTableRecord
100
AcDbRegAppTableRecord
  2
CONTENTTABDATA
 70
     0
  0
APPID
  5
E71E
330
746E
100
AcDbSymbolTableRecord
100
AcDbRegAppTableRecord
  2
CONTENTCURRENTTAB
 70
     0
  0
APPID
  5
F3BA
330
746E
100
AcDbSymbolTableRecord
100
AcDbRegAppTableRecord
  2
DRAWINGVARIABLESXDATA
 70
     0
  0
ENDTAB
  0
TABLE
  2
DIMSTYLE
  5
746F
330
0
100
AcDbSymbolTable
 70
     2
100
AcDbDimStyleTable
 71
     1
340
F71F
  0
DIMSTYLE
105
F71F
102
{ACAD_REACTORS
330
162CD
330
162CE
330
162CF
330
162D0
330
162E4
330
162E7
330
162EA
330
162EB
330
16301
330
16302
330
1631F
330
16320
330
16333
330
1659B
330
1659C
330
1659A
330
165E9
330
16667
330
166DD
330
16907
330
16913
330
17382
330
17459
330
1745A
330
1745B
330
17B4B
330
17B4C
330
17B4D
330
17B77
330
17B7B
330
17B7C
330
17B7D
330
17B8B
330
17B9A
330
17ED0
330
17ED1
330
17ED2
330
1840D
102
}
330
746F
100
AcDbSymbolTableRecord
100
AcDbDimStyleTableRecord
  2
INABA_S40G
 70
     0
 40
40.0
 41
2.5
 42
0.5
 43
7.0
 44
1.5
 73
     0
 74
     0
 77
     3
 78
     8
140
3.0
141
0.0
143
0.0394
147
1.0
172
     1
173
     1
174
     1
178
     7
271
     1
340
F706
341
F770
343
F770
344
F770
  0
DIMSTYLE
105
183AD
330
746F
100
AcDbSymbolTableRecord
100
AcDbDimStyleTableRecord
  2
INABA_S20G
 70
     0
 40
20.0
 41
2.5
 42
0.5
 43
7.0
 44
1.5
 73
     0
 74
     0
 77
     3
 78
     8
140
3.0
141
0.0
143
0.0394
147
1.0
172
     1
173
     1
174
     1
178
     7
271
     1
340
F706
341
F770
343
F770
344
F770
  0
ENDTAB
  0
TABLE
  2
BLOCK_RECORD
  5
7466
330
0
100
AcDbSymbolTable
 70
    39
  0
BLOCK_RECORD
  5
747D
330
7466
100
AcDbSymbolTableRecord
100
AcDbBlockTableRecord
  2
*MODEL_SPACE
340
16CC6
  0
BLOCK_RECORD
  5
747A
330
7466
100
AcDbSymbolTableRecord
100
AcDbBlockTableRecord
  2
*PAPER_SPACE
340
16CC7
  0
BLOCK_RECORD
  5
F770
330
7466
100
AcDbSymbolTableRecord
100
AcDbBlockTableRecord
  2
_DOTSMALL
340
0
102
{BLKREFS
331
17930
331
17931
331
1796B
331
1796C
331
1797D
331
1797E
331
17986
331
17987
331
17991
331
17992
331
1799A
331
1799B
331
179A4
331
179A5
331
179AF
331
179B0
331
179B6
331
179B7
331
179C2
331
179C3
331
179CC
331
179CD
331
179D7
331
179D8
331
179E0
331
179E1
331
179EB
331
179EC
331
179F7
331
179F8
331
17A02
331
17A03
331
17A0C
331
17A0D
331
17A1D
331
17A1E
331
17A26
331
17A27
331
17A31
331
17A32
331
17A3C
331
17A3D
331
17A45
331
17A46
331
17CAD
331
17CAE
331
17CB7
331
17CB8
331
17CCB
331
17CCC
331
17CDF
331
17CE0
331
17CF2
331
17CF3
331
17CFB
331
17CFC
331
17D04
331
17D05
331
17FCA
331
17FCB
331
18469
331
1846A
331
18547
331
18548
331
18577
331
18578
331
18580
331
18581
331
18589
331
1858A
331
18592
331
18593
331
185C3
331
185C4
331
185CC
331
185CD
102
}
  0
BLOCK_RECORD
  5
16338
330
7466
100
AcDbSymbolTableRecord
100
AcDbBlockTableRecord
  2
*D1
340
0
  0
BLOCK_RECORD
  5
16344
330
7466
100
AcDbSymbolTableRecord
100
AcDbBlockTableRecord
  2
*D2
340
0
  0
BLOCK_RECORD
  5
16352
330
7466
100
AcDbSymbolTableRecord
100
AcDbBlockTableRecord
  2
*D3
340
0
  0
BLOCK_RECORD
  5
16360
330
7466
100
AcDbSymbolTableRecord
100
AcDbBlockTableRecord
  2
*D4
340
0
  0
BLOCK_RECORD
  5
16384
330
7466
100
AcDbSymbolTableRecord
100
AcDbBlockTableRecord
  2
*D5
340
0
  0
BLOCK_RECORD
  5
1638F
330
7466
100
AcDbSymbolTableRecord
100
AcDbBlockTableRecord
  2
*D6
340
0
  0
BLOCK_RECORD
  5
1639B
330
7466
100
AcDbSymbolTableRecord
100
AcDbBlockTableRecord
  2
*D7
340
0
  0
BLOCK_RECORD
  5
163A9
330
7466
100
AcDbSymbolTableRecord
100
AcDbBlockTableRecord
  2
*D8
340
0
  0
BLOCK_RECORD
  5
163B8
330
7466
100
AcDbSymbolTableRecord
100
AcDbBlockTableRecord
  2
*D9
340
0
  0
BLOCK_RECORD
  5
163C7
330
7466
100
AcDbSymbolTableRecord
100
AcDbBlockTableRecord
  2
*D10
340
0
  0
BLOCK_RECORD
  5
163E1
330
7466
100
AcDbSymbolTableRecord
100
AcDbBlockTableRecord
  2
*D11
340
0
  0
BLOCK_RECORD
  5
163ED
330
7466
100
AcDbSymbolTableRecord
100
AcDbBlockTableRecord
  2
*D12
340
0
  0
BLOCK_RECORD
  5
163FB
330
7466
100
AcDbSymbolTableRecord
100
AcDbBlockTableRecord
  2
*D13
340
0
  0
BLOCK_RECORD
  5
1659E
330
7466
100
AcDbSymbolTableRecord
100
AcDbBlockTableRecord
  2
*D14
340
0
  0
BLOCK_RECORD
  5
165B5
330
7466
100
AcDbSymbolTableRecord
100
AcDbBlockTableRecord
  2
*D15
340
0
  0
BLOCK_RECORD
  5
165C4
330
7466
100
AcDbSymbolTableRecord
100
AcDbBlockTableRecord
  2
*D16
340
0
  0
BLOCK_RECORD
  5
165EA
330
7466
100
AcDbSymbolTableRecord
100
AcDbBlockTableRecord
  2
*D17
340
0
  0
BLOCK_RECORD
  5
166AD
330
7466
100
AcDbSymbolTableRecord
100
AcDbBlockTableRecord
  2
*D18
340
0
  0
BLOCK_RECORD
  5
166CF
330
7466
100
AcDbSymbolTableRecord
100
AcDbBlockTableRecord
  2
*D19
340
0
  0
BLOCK_RECORD
  5
168FB
330
7466
100
AcDbSymbolTableRecord
100
AcDbBlockTableRecord
  2
*D20
340
0
  0
BLOCK_RECORD
  5
16908
330
7466
100
AcDbSymbolTableRecord
100
AcDbBlockTableRecord
  2
*D21
340
0
  0
BLOCK_RECORD
  5
1757A
330
7466
100
AcDbSymbolTableRecord
100
AcDbBlockTableRecord
  2
*D22
340
0
  0
BLOCK_RECORD
  5
17652
330
7466
100
AcDbSymbolTableRecord
100
AcDbBlockTableRecord
  2
*D23
340
0
  0
BLOCK_RECORD
  5
1765E
330
7466
100
AcDbSymbolTableRecord
100
AcDbBlockTableRecord
  2
*D24
340
0
  0
BLOCK_RECORD
  5
1766C
330
7466
100
AcDbSymbolTableRecord
100
AcDbBlockTableRecord
  2
*D25
340
0
  0
BLOCK_RECORD
  5
17BB6
330
7466
100
AcDbSymbolTableRecord
100
AcDbBlockTableRecord
  2
*D26
340
0
  0
BLOCK_RECORD
  5
17BC2
330
7466
100
AcDbSymbolTableRecord
100
AcDbBlockTableRecord
  2
*D27
340
0
  0
BLOCK_RECORD
  5
17BCE
330
7466
100
AcDbSymbolTableRecord
100
AcDbBlockTableRecord
  2
*D28
340
0
  0
BLOCK_RECORD
  5
17BE7
330
7466
100
AcDbSymbolTableRecord
100
AcDbBlockTableRecord
  2
*D29
340
0
  0
BLOCK_RECORD
  5
17BF5
330
7466
100
AcDbSymbolTableRecord
100
AcDbBlockTableRecord
  2
*D30
340
0
  0
BLOCK_RECORD
  5
17C01
330
7466
100
AcDbSymbolTableRecord
100
AcDbBlockTableRecord
  2
*D31
340
0
  0
BLOCK_RECORD
  5
17C0F
330
7466
100
AcDbSymbolTableRecord
100
AcDbBlockTableRecord
  2
*D32
340
0
  0
BLOCK_RECORD
  5
17C1B
330
7466
100
AcDbSymbolTableRecord
100
AcDbBlockTableRecord
  2
*D33
340
0
  0
BLOCK_RECORD
  5
17C28
330
7466
100
AcDbSymbolTableRecord
100
AcDbBlockTableRecord
  2
*D34
340
0
  0
BLOCK_RECORD
  5
17F45
330
7466
100
AcDbSymbolTableRecord
100
AcDbBlockTableRecord
  2
*D35
340
0
  0
BLOCK_RECORD
  5
17F52
330
7466
100
AcDbSymbolTableRecord
100
AcDbBlockTableRecord
  2
*D36
340
0
  0
BLOCK_RECORD
  5
17F60
330
7466
100
AcDbSymbolTableRecord
100
AcDbBlockTableRecord
  2
*D37
340
0
  0
BLOCK_RECORD
  5
18414
330
7466
100
AcDbSymbolTableRecord
100
AcDbBlockTableRecord
  2
*D38
340
0
  0
ENDTAB
  0
ENDSEC
  0
SECTION
  2
BLOCKS
  0
BLOCK
  5
7489
330
747D
100
AcDbEntity
  8
0
100
AcDbBlockBegin
  2
*MODEL_SPACE
 70
     0
 10
0.0
 20
0.0
 30
0.0
  3
*MODEL_SPACE
  1

  0
ENDBLK
  5
748A
330
747D
100
AcDbEntity
  8
0
100
AcDbBlockEnd
  0
BLOCK
  5
7487
330
747A
100
AcDbEntity
 67
     1
  8
0
100
AcDbBlockBegin
  2
*PAPER_SPACE
 70
     0
 10
0.0
 20
0.0
 30
0.0
  3
*PAPER_SPACE
  1

  0
ENDBLK
  5
7488
330
747A
100
AcDbEntity
 67
     1
  8
0
100
AcDbBlockEnd
  0
BLOCK
  5
F771
330
F770
100
AcDbEntity
  8
0
 48
50.0
100
AcDbBlockBegin
  2
_DOTSMALL
 70
     0
 10
0.0
 20
0.0
 30
0.0
  3
_DOTSMALL
  1

  0
LWPOLYLINE
  5
F772
330
F770
100
AcDbEntity
  8
0
  6
ByBlock
 62
     0
 48
50.0
100
AcDbPolyline
 90
        2
 70
     1
 43
0.5
 10
-0.0625
 20
0.0
 42
1.0
 10
0.0625
 20
0.0
 42
1.0
  0
ENDBLK
  5
F776
330
F770
100
AcDbEntity
  8
0
 48
50.0
100
AcDbBlockEnd
  0
BLOCK
  5
16C83
330
16338
100
AcDbEntity
  8
0
 48
50.0
100
AcDbBlockBegin
  2
*D1
 70
     1
 10
0.0
 20
0.0
 30
0.0
  3
*D1
  1

  0
LINE
  5
17A42
330
16338
100
AcDbEntity
  8
寸法
 62
     0
 48
50.0
370
    -2
100
AcDbLine
 10
8335.574030284616
 20
9593.572564575735
 30
0.0
 11
9023.000376019021
 21
9593.572564575735
 31
0.0
  0
LINE
  5
17A43
330
16338
100
AcDbEntity
  8
寸法
 62
     0
 48
50.0
370
    -2
100
AcDbLine
 10
8335.57403028459
 20
7493.572564575718
 30
0.0
 11
9023.000376019021
 21
7493.572564575718
 31
0.0
  0
LINE
  5
17A44
330
16338
100
AcDbEntity
  8
寸法
 62
     0
 48
50.0
370
    -2
100
AcDbLine
 10
8963.000376019021
 20
9593.572564575735
 30
0.0
 11
8963.000376019021
 21
7493.572564575718
 31
0.0
  0
INSERT
  5
17A45
330
16338
100
AcDbEntity
  8
寸法
 62
     0
 48
50.0
370
    -2
100
AcDbBlockReference
  2
_DOTSMALL
 10
8963.000376019021
 20
9593.572564575735
 30
0.0
 41
100.0
 42
100.0
 43
100.0
 50
90.0
  0
INSERT
  5
17A46
330
16338
100
AcDbEntity
  8
寸法
 62
     0
 48
50.0
370
    -2
100
AcDbBlockReference
  2
_DOTSMALL
 10
8963.000376019021
 20
7493.572564575718
 30
0.0
 41
100.0
 42
100.0
 43
100.0
 50
270.0
  0
MTEXT
  5
17A47
330
16338
100
AcDbEntity
  8
寸法
 62
     7
 48
50.0
100
AcDbMText
 10
8862.988564995397
 20
8543.572564575729
 30
0.0
 40
120.0
 41
0.0
 71
     5
 72
     1
  1
\A1;5X420=2100
  7
STYLE1
 11
0.0000000000000001
 21
1.0
 31
0.0
 73
     1
 44
1.0
1001
ACAD
1000
MTEXTBEGIN
1070
    73
1070
     1
1070
    44
1040
1.0
1070
    74
1070
     0
1000
MTEXTEND
  0
POINT
  5
17A48
330
16338
100
AcDbEntity
  8
DEFPOINTS
 62
     0
 48
50.0
100
AcDbPoint
 10
8315.574030284615
 20
9593.572564575735
 30
0.0
  0
POINT
  5
17A49
330
16338
100
AcDbEntity
  8
DEFPOINTS
 62
     0
 48
50.0
100
AcDbPoint
 10
8315.57403028459
 20
7493.572564575718
 30
0.0
  0
POINT
  5
17A4A
330
16338
100
AcDbEntity
  8
DEFPOINTS
 62
     0
 48
50.0
100
AcDbPoint
 10
8963.000376019021
 20
7493.572564575718
 30
0.0
  0
ENDBLK
  5
16C8D
330
16338
100
AcDbEntity
  8
0
 48
50.0
100
AcDbBlockEnd
  0
BLOCK
  5
16414
330
16344
100
AcDbEntity
  8
0
 48
50.0
100
AcDbBlockBegin
  2
*D2
 70
     1
 10
0.0
 20
0.0
 30
0.0
  3
*D2
  1

  0
LINE
  5
17A37
330
16344
100
AcDbEntity
  8
寸法
 62
     0
 48
50.0
370
    -2
100
AcDbLine
 10
8335.57403028459
 20
7493.572564575718
 30
0.0
 11
9023.000376019002
 21
7493.572564575718
 31
0.0
  0
LINE
  5
17A38
330
16344
100
AcDbEntity
  8
寸法
 62
     0
 48
50.0
370
    -2
100
AcDbLine
 10
8335.57403028459
 20
7438.572564575723
 30
0.0
 11
9023.000376019002
 21
7438.572564575723
 31
0.0
  0
LINE
  5
17A39
330
16344
100
AcDbEntity
  8
寸法
 62
     0
 48
50.0
370
    -2
100
AcDbLine
 10
8963.000376019001
 20
7493.572564575718
 30
0.0
 11
8963.000376019001
 21
7593.572564575719
 31
0.0
  0
LINE
  5
17A3A
330
16344
100
AcDbEntity
  8
寸法
 62
     0
 48
50.0
370
    -2
100
AcDbLine
 10
8963.000376019001
 20
7438.572564575723
 30
0.0
 11
8963.000376019001
 21
6952.225816296621
 31
0.0
  0
LINE
  5
17A3B
330
16344
100
AcDbEntity
  8
寸法
 62
     0
 48
50.0
370
    -2
100
AcDbLine
 10
8963.000376019001
 20
7493.572564575718
 30
0.0
 11
8963.000376019001
 21
7438.572564575723
 31
0.0
  0
INSERT
  5
17A3C
330
16344
100
AcDbEntity
  8
寸法
 62
     0
 48
50.0
370
    -2
100
AcDbBlockReference
  2
_DOTSMALL
 10
8963.000376019001
 20
7493.572564575718
 30
0.0
 41
100.0
 42
100.0
 43
100.0
 50
270.0
  0
INSERT
  5
17A3D
330
16344
100
AcDbEntity
  8
寸法
 62
     0
 48
50.0
370
    -2
100
AcDbBlockReference
  2
_DOTSMALL
 10
8963.000376019001
 20
7438.572564575723
 30
0.0
 41
100.0
 42
100.0
 43
100.0
 50
90.0
  0
MTEXT
  5
17A3E
330
16344
100
AcDbEntity
  8
寸法
 62
     7
 48
50.0
100
AcDbMText
 10
8863.000376019
 20
7060.711097670861
 30
0.0
 40
120.0
 41
0.0
 71
     5
 72
     1
  1
\A1;55
  7
STYLE1
 11
0.0000000000000001
 21
1.0
 31
0.0
 73
     1
 44
1.0
1001
ACAD
1000
MTEXTBEGIN
1070
    73
1070
     1
1070
    44
1040
1.0
1070
    74
1070
     0
1000
MTEXTEND
  0
POINT
  5
17A3F
330
16344
100
AcDbEntity
  8
DEFPOINTS
 62
     0
 48
50.0
100
AcDbPoint
 10
8315.57403028459
 20
7493.572564575718
 30
0.0
  0
POINT
  5
17A40
330
16344
100
AcDbEntity
  8
DEFPOINTS
 62
     0
 48
50.0
100
AcDbPoint
 10
8315.57403028459
 20
7438.572564575723
 30
0.0
  0
POINT
  5
17A41
330
16344
100
AcDbEntity
  8
DEFPOINTS
 62
     0
 48
50.0
100
AcDbPoint
 10
8963.000376019001
 20
7438.572564575723
 30
0.0
  0
ENDBLK
  5
16420
330
16344
100
AcDbEntity
  8
0
 48
50.0
100
AcDbBlockEnd
  0
BLOCK
  5
16421
330
16352
100
AcDbEntity
  8
0
 48
50.0
100
AcDbBlockBegin
  2
*D3
 70
     1
 10
0.0
 20
0.0
 30
0.0
  3
*D3
  1

  0
LINE
  5
17A2C
330
16352
100
AcDbEntity
  8
寸法
 62
     0
 48
50.0
370
    -2
100
AcDbLine
 10
8335.574030284616
 20
9648.572564575729
 30
0.0
 11
9023.000376019027
 21
9648.572564575729
 31
0.0
  0
LINE
  5
17A2D
330
16352
100
AcDbEntity
  8
寸法
 62
     0
 48
50.0
370
    -2
100
AcDbLine
 10
8335.574030284616
 20
9593.572564575735
 30
0.0
 11
9023.000376019027
 21
9593.572564575735
 31
0.0
  0
LINE
  5
17A2E
330
16352
100
AcDbEntity
  8
寸法
 62
     0
 48
50.0
370
    -2
100
AcDbLine
 10
8963.000376019026
 20
9593.572564575735
 30
0.0
 11
8963.000376019026
 21
9493.572564575734
 31
0.0
  0
LINE
  5
17A2F
330
16352
100
AcDbEntity
  8
寸法
 62
     0
 48
50.0
370
    -2
100
AcDbLine
 10
8963.000376019026
 20
9648.572564575729
 30
0.0
 11
8963.000376019026
 21
10065.54312732421
 31
0.0
  0
LINE
  5
17A30
330
16352
100
AcDbEntity
  8
寸法
 62
     0
 48
50.0
370
    -2
100
AcDbLine
 10
8963.000376019026
 20
9593.572564575735
 30
0.0
 11
8963.000376019026
 21
9648.572564575729
 31
0.0
  0
INSERT
  5
17A31
330
16352
100
AcDbEntity
  8
寸法
 62
     0
 48
50.0
370
    -2
100
AcDbBlockReference
  2
_DOTSMALL
 10
8963.000376019026
 20
9593.572564575735
 30
0.0
 41
100.0
 42
100.0
 43
100.0
 50
90.0
  0
INSERT
  5
17A32
330
16352
100
AcDbEntity
  8
寸法
 62
     0
 48
50.0
370
    -2
100
AcDbBlockReference
  2
_DOTSMALL
 10
8963.000376019026
 20
9648.572564575729
 30
0.0
 41
100.0
 42
100.0
 43
100.0
 50
270.0
  0
MTEXT
  5
17A33
330
16352
100
AcDbEntity
  8
寸法
 62
     7
 48
50.0
100
AcDbMText
 10
8863.000376019025
 20
9957.05784594997
 30
0.0
 40
120.0
 41
0.0
 71
     5
 72
     1
  1
\A1;55
  7
STYLE1
 11
0.0000000000000001
 21
1.0
 31
0.0
 73
     1
 44
1.0
1001
ACAD
1000
MTEXTBEGIN
1070
    73
1070
     1
1070
    44
1040
1.0
1070
    74
1070
     0
1000
MTEXTEND
  0
POINT
  5
17A34
330
16352
100
AcDbEntity
  8
DEFPOINTS
 62
     0
 48
50.0
100
AcDbPoint
 10
8315.574030284615
 20
9648.572564575729
 30
0.0
  0
POINT
  5
17A35
330
16352
100
AcDbEntity
  8
DEFPOINTS
 62
     0
 48
50.0
100
AcDbPoint
 10
8315.574030284615
 20
9593.572564575735
 30
0.0
  0
POINT
  5
17A36
330
16352
100
AcDbEntity
  8
DEFPOINTS
 62
     0
 48
50.0
100
AcDbPoint
 10
8963.000376019026
 20
9593.572564575735
 30
0.0
  0
ENDBLK
  5
1642D
330
16352
100
AcDbEntity
  8
0
 48
50.0
100
AcDbBlockEnd
  0
BLOCK
  5
16C6B
330
16360
100
AcDbEntity
  8
0
 48
50.0
100
AcDbBlockBegin
  2
*D4
 70
     1
 10
0.0
 20
0.0
 30
0.0
  3
*D4
  1

  0
LINE
  5
17A23
330
16360
100
AcDbEntity
  8
寸法
 62
     0
 48
50.0
370
    -2
100
AcDbLine
 10
8335.574030284616
 20
9648.572564575729
 30
0.0
 11
9388.10731775866
 21
9648.572564575729
 31
0.0
  0
LINE
  5
17A24
330
16360
100
AcDbEntity
  8
寸法
 62
     0
 48
50.0
370
    -2
100
AcDbLine
 10
8335.57403028459
 20
7438.572564575723
 30
0.0
 11
9388.10731775866
 21
7438.572564575723
 31
0.0
  0
LINE
  5
17A25
330
16360
100
AcDbEntity
  8
寸法
 62
     0
 48
50.0
370
    -2
100
AcDbLine
 10
9328.107317758661
 20
9648.572564575729
 30
0.0
 11
9328.107317758661
 21
7438.572564575723
 31
0.0
  0
INSERT
  5
17A26
330
16360
100
AcDbEntity
  8
寸法
 62
     0
 48
50.0
370
    -2
100
AcDbBlockReference
  2
_DOTSMALL
 10
9328.107317758661
 20
9648.572564575729
 30
0.0
 41
100.0
 42
100.0
 43
100.0
 50
90.0
  0
INSERT
  5
17A27
330
16360
100
AcDbEntity
  8
寸法
 62
     0
 48
50.0
370
    -2
100
AcDbBlockReference
  2
_DOTSMALL
 10
9328.107317758661
 20
7438.572564575723
 30
0.0
 41
100.0
 42
100.0
 43
100.0
 50
270.0
  0
MTEXT
  5
17A28
330
16360
100
AcDbEntity
  8
寸法
 62
     7
 48
50.0
100
AcDbMText
 10
9228.095506735037
 20
8543.572564575729
 30
0.0
 40
120.0
 41
0.0
 71
     5
 72
     1
  1
\A1;2210
  7
STYLE1
 11
0.0000000000000001
 21
1.0
 31
0.0
 73
     1
 44
1.0
1001
ACAD
1000
MTEXTBEGIN
1070
    73
1070
     1
1070
    44
1040
1.0
1070
    74
1070
     0
1000
MTEXTEND
  0
POINT
  5
17A29
330
16360
100
AcDbEntity
  8
DEFPOINTS
 62
     0
 48
50.0
100
AcDbPoint
 10
8315.574030284615
 20
9648.572564575729
 30
0.0
  0
POINT
  5
17A2A
330
16360
100
AcDbEntity
  8
DEFPOINTS
 62
     0
 48
50.0
100
AcDbPoint
 10
8315.57403028459
 20
7438.572564575723
 30
0.0
  0
POINT
  5
17A2B
330
16360
100
AcDbEntity
  8
DEFPOINTS
 62
     0
 48
50.0
100
AcDbPoint
 10
9328.107317758661
 20
7438.572564575723
 30
0.0
  0
ENDBLK
  5
16C75
330
16360
100
AcDbEntity
  8
0
 48
50.0
100
AcDbBlockEnd
  0
BLOCK
  5
1644F
330
16384
100
AcDbEntity
  8
0
 48
50.0
100
AcDbBlockBegin
  2
*D5
 70
     1
 10
0.0
 20
0.0
 30
0.0
  3
*D5
  1

  0
LINE
  5
17A1B
330
16384
100
AcDbEntity
  8
寸法
 62
     0
 48
50.0
370
    -2
100
AcDbLine
 10
5788.574030284608
 20
7444.572564575631
 30
0.0
 11
5788.574030284608
 21
6844.141793809467
 31
0.0
  0
LINE
  5
17A1C
330
16384
100
AcDbEntity
  8
寸法
 62
     0
 48
50.0
370
    -2
100
AcDbLine
 10
8212.57403028459
 20
6904.141793809468
 30
0.0
 11
5788.574030284608
 21
6904.141793809468
 31
0.0
  0
INSERT
  5
17A1D
330
16384
100
AcDbEntity
  8
寸法
 62
     0
 48
50.0
370
    -2
100
AcDbBlockReference
  2
_DOTSMALL
 10
8212.57403028459
 20
6904.141793809468
 30
0.0
 41
100.0
 42
100.0
 43
100.0
  0
INSERT
  5
17A1E
330
16384
100
AcDbEntity
  8
寸法
 62
     0
 48
50.0
370
    -2
100
AcDbBlockReference
  2
_DOTSMALL
 10
5788.574030284608
 20
6904.141793809468
 30
0.0
 41
100.0
 42
100.0
 43
100.0
 50
180.0
  0
MTEXT
  5
17A1F
330
16384
100
AcDbEntity
  8
寸法
 62
     7
 48
50.0
100
AcDbMText
 10
7000.5740302846
 20
7004.153604833089
 30
0.0
 40
120.0
 41
0.0
 71
     5
 72
     1
  1
\A1;有効開口部間口 2424
  7
STYLE1
 73
     1
 44
1.0
1001
ACAD
1000
MTEXTBEGIN
1070
    73
1070
     1
1070
    44
1040
1.0
1070
    74
1070
     0
1000
MTEXTEND
  0
POINT
  5
17A20
330
16384
100
AcDbEntity
  8
DEFPOINTS
 62
     0
 48
50.0
100
AcDbPoint
 10
8212.57403028459
 20
7464.572564575632
 30
0.0
  0
POINT
  5
17A21
330
16384
100
AcDbEntity
  8
DEFPOINTS
 62
     0
 48
50.0
100
AcDbPoint
 10
5788.574030284608
 20
7464.572564575632
 30
0.0
  0
POINT
  5
17A22
330
16384
100
AcDbEntity
  8
DEFPOINTS
 62
     0
 48
50.0
100
AcDbPoint
 10
5788.574030284608
 20
6904.141793809468
 30
0.0
  0
ENDBLK
  5
16458
330
16384
100
AcDbEntity
  8
0
 48
50.0
100
AcDbBlockEnd
  0
BLOCK
  5
166C4
330
1638F
100
AcDbEntity
  8
0
 48
50.0
100
AcDbBlockBegin
  2
*D6
 70
     1
 10
0.0
 20
0.0
 30
0.0
  3
*D6
  1

  0
LINE
  5
18544
330
1638F
100
AcDbEntity
  8
寸法
 62
     0
 48
50.0
370
    -2
100
AcDbLine
 10
3055.574030284608
 20
7418.572564575628
 30
0.0
 11
3055.574030284608
 21
6397.968798218593
 31
0.0
  0
LINE
  5
18545
330
1638F
100
AcDbEntity
  8
寸法
 62
     0
 48
50.0
370
    -2
100
AcDbLine
 10
8315.574030284578
 20
7418.572564575723
 30
0.0
 11
8315.574030284578
 21
6397.968798218593
 31
0.0
  0
LINE
  5
18546
330
1638F
100
AcDbEntity
  8
寸法
 62
     0
 48
50.0
370
    -2
100
AcDbLine
 10
3055.574030284608
 20
6457.968798218593
 30
0.0
 11
8315.574030284578
 21
6457.968798218593
 31
0.0
  0
INSERT
  5
18547
330
1638F
100
AcDbEntity
  8
寸法
 62
     0
 48
50.0
370
    -2
100
AcDbBlockReference
  2
_DOTSMALL
 10
3055.574030284608
 20
6457.968798218593
 30
0.0
 41
100.0
 42
100.0
 43
100.0
 50
180.0
  0
INSERT
  5
18548
330
1638F
100
AcDbEntity
  8
寸法
 62
     0
 48
50.0
370
    -2
100
AcDbBlockReference
  2
_DOTSMALL
 10
8315.574030284578
 20
6457.968798218593
 30
0.0
 41
100.0
 42
100.0
 43
100.0
  0
MTEXT
  5
18549
330
1638F
100
AcDbEntity
  8
寸法
 62
     7
 48
50.0
100
AcDbMText
 10
5685.574030284594
 20
6557.980609242214
 30
0.0
 40
120.0
 41
0.0
 71
     5
 72
     1
  1
\A1;5260
  7
STYLE1
 73
     1
 44
1.0
1001
ACAD
1000
MTEXTBEGIN
1070
    73
1070
     1
1070
    44
1040
1.0
1070
    74
1070
     0
1000
MTEXTEND
  0
POINT
  5
1854A
330
1638F
100
AcDbEntity
  8
DEFPOINTS
 62
     0
 48
50.0
100
AcDbPoint
 10
3055.574030284608
 20
7438.572564575628
 30
0.0
  0
POINT
  5
1854B
330
1638F
100
AcDbEntity
  8
DEFPOINTS
 62
     0
 48
50.0
100
AcDbPoint
 10
8315.574030284578
 20
7438.572564575723
 30
0.0
  0
POINT
  5
1854C
330
1638F
100
AcDbEntity
  8
DEFPOINTS
 62
     0
 48
50.0
100
AcDbPoint
 10
8315.574030284578
 20
6457.968798218593
 30
0.0
  0
ENDBLK
  5
166CE
330
1638F
100
AcDbEntity
  8
0
 48
50.0
100
AcDbBlockEnd
  0
BLOCK
  5
16464
330
1639B
100
AcDbEntity
  8
0
 48
50.0
100
AcDbBlockBegin
  2
*D7
 70
     1
 10
0.0
 20
0.0
 30
0.0
  3
*D7
  1

  0
LINE
  5
17A07
330
1639B
100
AcDbEntity
  8
寸法
 62
     0
 48
50.0
370
    -2
100
AcDbLine
 10
3110.574030284605
 20
7418.57256457563
 30
0.0
 11
3110.574030284605
 21
6844.141793809467
 31
0.0
  0
LINE
  5
17A08
330
1639B
100
AcDbEntity
  8
寸法
 62
     0
 48
50.0
370
    -2
100
AcDbLine
 10
3055.574030284608
 20
7418.572564575628
 30
0.0
 11
3055.574030284608
 21
6844.141793809467
 31
0.0
  0
LINE
  5
17A09
330
1639B
100
AcDbEntity
  8
寸法
 62
     0
 48
50.0
370
    -2
100
AcDbLine
 10
3110.574030284605
 20
6904.141793809468
 30
0.0
 11
3210.574030284604
 21
6904.141793809468
 31
0.0
  0
LINE
  5
17A0A
330
1639B
100
AcDbEntity
  8
寸法
 62
     0
 48
50.0
370
    -2
100
AcDbLine
 10
3055.574030284608
 20
6904.141793809468
 30
0.0
 11
2638.603467536131
 21
6904.141793809468
 31
0.0
  0
LINE
  5
17A0B
330
1639B
100
AcDbEntity
  8
寸法
 62
     0
 48
50.0
370
    -2
100
AcDbLine
 10
3110.574030284605
 20
6904.141793809468
 30
0.0
 11
3055.574030284608
 21
6904.141793809468
 31
0.0
  0
INSERT
  5
17A0C
330
1639B
100
AcDbEntity
  8
寸法
 62
     0
 48
50.0
370
    -2
100
AcDbBlockReference
  2
_DOTSMALL
 10
3110.574030284605
 20
6904.141793809468
 30
0.0
 41
100.0
 42
100.0
 43
100.0
 50
180.0
  0
INSERT
  5
17A0D
330
1639B
100
AcDbEntity
  8
寸法
 62
     0
 48
50.0
370
    -2
100
AcDbBlockReference
  2
_DOTSMALL
 10
3055.574030284608
 20
6904.141793809468
 30
0.0
 41
100.0
 42
100.0
 43
100.0
  0
MTEXT
  5
17A0E
330
1639B
100
AcDbEntity
  8
寸法
 62
     7
 48
50.0
100
AcDbMText
 10
2747.088748910369
 20
7004.141793809468
 30
0.0
 40
120.0
 41
0.0
 71
     5
 72
     1
  1
\A1;55
  7
STYLE1
 73
     1
 44
1.0
1001
ACAD
1000
MTEXTBEGIN
1070
    73
1070
     1
1070
    44
1040
1.0
1070
    74
1070
     0
1000
MTEXTEND
  0
POINT
  5
17A0F
330
1639B
100
AcDbEntity
  8
DEFPOINTS
 62
     0
 48
50.0
100
AcDbPoint
 10
3110.574030284605
 20
7438.572564575631
 30
0.0
  0
POINT
  5
17A10
330
1639B
100
AcDbEntity
  8
DEFPOINTS
 62
     0
 48
50.0
100
AcDbPoint
 10
3055.574030284608
 20
7438.572564575628
 30
0.0
  0
POINT
  5
17A11
330
1639B
100
AcDbEntity
  8
DEFPOINTS
 62
     0
 48
50.0
100
AcDbPoint
 10
3055.574030284608
 20
6904.141793809468
 30
0.0
  0
ENDBLK
  5
16470
330
1639B
100
AcDbEntity
  8
0
 48
50.0
100
AcDbBlockEnd
  0
BLOCK
  5
16471
330
163A9
100
AcDbEntity
  8
0
 48
50.0
100
AcDbBlockBegin
  2
*D8
 70
     1
 10
0.0
 20
0.0
 30
0.0
  3
*D8
  1

  0
LINE
  5
179FC
330
163A9
100
AcDbEntity
  8
寸法
 62
     0
 48
50.0
370
    -2
100
AcDbLine
 10
5788.574030284608
 20
7444.572564575631
 30
0.0
 11
5788.574030284608
 21
6844.141793809467
 31
0.0
  0
LINE
  5
179FD
330
163A9
100
AcDbEntity
  8
寸法
 62
     0
 48
50.0
370
    -2
100
AcDbLine
 10
5740.574030284604
 20
7418.57256457563
 30
0.0
 11
5740.574030284604
 21
6844.141793809467
 31
0.0
  0
LINE
  5
179FE
330
163A9
100
AcDbEntity
  8
寸法
 62
     0
 48
50.0
370
    -2
100
AcDbLine
 10
5788.574030284608
 20
6904.141793809468
 30
0.0
 11
5888.574030284608
 21
6904.141793809468
 31
0.0
  0
LINE
  5
179FF
330
163A9
100
AcDbEntity
  8
寸法
 62
     0
 48
50.0
370
    -2
100
AcDbLine
 10
5740.574030284604
 20
6904.141793809468
 30
0.0
 11
5640.574030284604
 21
6904.141793809468
 31
0.0
  0
MTEXT
  5
17A00
330
163A9
100
AcDbEntity
  8
寸法
 62
     7
 48
50.0
100
AcDbMText
 10
5901.476001284666
 20
7004.141793809468
 30
0.0
 40
120.0
 41
0.0
 71
     5
 72
     1
  1
\A1;48
  7
STYLE1
 73
     1
 44
1.0
1001
ACAD
1000
MTEXTBEGIN
1070
    73
1070
     1
1070
    44
1040
1.0
1070
    74
1070
     0
1000
MTEXTEND
  0
LINE
  5
17A01
330
163A9
100
AcDbEntity
  8
寸法
 62
     0
 48
50.0
370
    -2
100
AcDbLine
 10
5788.574030284608
 20
6904.141793809468
 30
0.0
 11
5740.574030284604
 21
6904.141793809468
 31
0.0
  0
INSERT
  5
17A02
330
163A9
100
AcDbEntity
  8
寸法
 62
     0
 48
50.0
370
    -2
100
AcDbBlockReference
  2
_DOTSMALL
 10
5788.574030284608
 20
6904.141793809468
 30
0.0
 41
100.0
 42
100.0
 43
100.0
 50
180.0
  0
INSERT
  5
17A03
330
163A9
100
AcDbEntity
  8
寸法
 62
     0
 48
50.0
370
    -2
100
AcDbBlockReference
  2
_DOTSMALL
 10
5740.574030284604
 20
6904.141793809468
 30
0.0
 41
100.0
 42
100.0
 43
100.0
  0
POINT
  5
17A04
330
163A9
100
AcDbEntity
  8
DEFPOINTS
 62
     0
 48
50.0
100
AcDbPoint
 10
5788.574030284608
 20
7464.572564575632
 30
0.0
  0
POINT
  5
17A05
330
163A9
100
AcDbEntity
  8
DEFPOINTS
 62
     0
 48
50.0
100
AcDbPoint
 10
5740.574030284604
 20
7438.572564575631
 30
0.0
  0
POINT
  5
17A06
330
163A9
100
AcDbEntity
  8
DEFPOINTS
 62
     0
 48
50.0
100
AcDbPoint
 10
5740.574030284604
 20
6904.141793809468
 30
0.0
  0
ENDBLK
  5
1647E
330
163A9
100
AcDbEntity
  8
0
 48
50.0
100
AcDbBlockEnd
  0
BLOCK
  5
1647F
330
163B8
100
AcDbEntity
  8
0
 48
50.0
100
AcDbBlockBegin
  2
*D9
 70
     1
 10
0.0
 20
0.0
 30
0.0
  3
*D9
  1

  0
LINE
  5
179F1
330
163B8
100
AcDbEntity
  8
寸法
 62
     0
 48
50.0
370
    -2
100
AcDbLine
 10
8260.574030284592
 20
7418.572564575718
 30
0.0
 11
8260.574030284592
 21
6844.141793809467
 31
0.0
  0
LINE
  5
179F2
330
163B8
100
AcDbEntity
  8
寸法
 62
     0
 48
50.0
370
    -2
100
AcDbLine
 10
8212.57403028459
 20
7444.572564575633
 30
0.0
 11
8212.57403028459
 21
6844.141793809467
 31
0.0
  0
LINE
  5
179F3
330
163B8
100
AcDbEntity
  8
寸法
 62
     0
 48
50.0
370
    -2
100
AcDbLine
 10
8260.574030284592
 20
6904.141793809468
 30
0.0
 11
8360.574030284592
 21
6904.141793809468
 31
0.0
  0
LINE
  5
179F4
330
163B8
100
AcDbEntity
  8
寸法
 62
     0
 48
50.0
370
    -2
100
AcDbLine
 10
8212.57403028459
 20
6904.141793809468
 30
0.0
 11
8112.574030284589
 21
6904.141793809468
 31
0.0
  0
MTEXT
  5
179F5
330
163B8
100
AcDbEntity
  8
寸法
 62
     7
 48
50.0
100
AcDbMText
 10
8101.611132635843
 20
7004.141793809468
 30
0.0
 40
120.0
 41
0.0
 71
     5
 72
     1
  1
\A1;48
  7
STYLE1
 73
     1
 44
1.0
1001
ACAD
1000
MTEXTBEGIN
1070
    73
1070
     1
1070
    44
1040
1.0
1070
    74
1070
     0
1000
MTEXTEND
  0
LINE
  5
179F6
330
163B8
100
AcDbEntity
  8
寸法
 62
     0
 48
50.0
370
    -2
100
AcDbLine
 10
8260.574030284592
 20
6904.141793809468
 30
0.0
 11
8212.57403028459
 21
6904.141793809468
 31
0.0
  0
INSERT
  5
179F7
330
163B8
100
AcDbEntity
  8
寸法
 62
     0
 48
50.0
370
    -2
100
AcDbBlockReference
  2
_DOTSMALL
 10
8260.574030284592
 20
6904.141793809468
 30
0.0
 41
100.0
 42
100.0
 43
100.0
 50
180.0
  0
INSERT
  5
179F8
330
163B8
100
AcDbEntity
  8
寸法
 62
     0
 48
50.0
370
    -2
100
AcDbBlockReference
  2
_DOTSMALL
 10
8212.57403028459
 20
6904.141793809468
 30
0.0
 41
100.0
 42
100.0
 43
100.0
  0
POINT
  5
179F9
330
163B8
100
AcDbEntity
  8
DEFPOINTS
 62
     0
 48
50.0
100
AcDbPoint
 10
8260.574030284592
 20
7438.572564575719
 30
0.0
  0
POINT
  5
179FA
330
163B8
100
AcDbEntity
  8
DEFPOINTS
 62
     0
 48
50.0
100
AcDbPoint
 10
8212.57403028459
 20
7464.572564575632
 30
0.0
  0
POINT
  5
179FB
330
163B8
100
AcDbEntity
  8
DEFPOINTS
 62
     0
 48
50.0
100
AcDbPoint
 10
8212.57403028459
 20
6904.141793809468
 30
0.0
  0
ENDBLK
  5
1648C
330
163B8
100
AcDbEntity
  8
0
 48
50.0
100
AcDbBlockEnd
  0
BLOCK
  5
1648D
330
163C7
100
AcDbEntity
  8
0
 48
50.0
100
AcDbBlockBegin
  2
*D10
 70
     1
 10
0.0
 20
0.0
 30
0.0
  3
*D10
  1

  0
LINE
  5
179E6
330
163C7
100
AcDbEntity
  8
寸法
 62
     0
 48
50.0
370
    -2
100
AcDbLine
 10
8315.57403028459
 20
7418.572564575723
 30
0.0
 11
8315.57403028459
 21
6844.141793809469
 31
0.0
  0
LINE
  5
179E7
330
163C7
100
AcDbEntity
  8
寸法
 62
     0
 48
50.0
370
    -2
100
AcDbLine
 10
8260.574030284592
 20
7418.572564575718
 30
0.0
 11
8260.574030284592
 21
6844.141793809469
 31
0.0
  0
LINE
  5
179E8
330
163C7
100
AcDbEntity
  8
寸法
 62
     0
 48
50.0
370
    -2
100
AcDbLine
 10
8260.574030284592
 20
6904.141793809468
 30
0.0
 11
8160.574030284591
 21
6904.141793809468
 31
0.0
  0
LINE
  5
179E9
330
163C7
100
AcDbEntity
  8
寸法
 62
     0
 48
50.0
370
    -2
100
AcDbLine
 10
8315.57403028459
 20
6904.141793809468
 30
0.0
 11
8732.544593033066
 21
6904.141793809468
 31
0.0
  0
LINE
  5
179EA
330
163C7
100
AcDbEntity
  8
寸法
 62
     0
 48
50.0
370
    -2
100
AcDbLine
 10
8260.574030284592
 20
6904.141793809468
 30
0.0
 11
8315.57403028459
 21
6904.141793809468
 31
0.0
  0
INSERT
  5
179EB
330
163C7
100
AcDbEntity
  8
寸法
 62
     0
 48
50.0
370
    -2
100
AcDbBlockReference
  2
_DOTSMALL
 10
8260.574030284592
 20
6904.141793809468
 30
0.0
 41
100.0
 42
100.0
 43
100.0
  0
INSERT
  5
179EC
330
163C7
100
AcDbEntity
  8
寸法
 62
     0
 48
50.0
370
    -2
100
AcDbBlockReference
  2
_DOTSMALL
 10
8315.57403028459
 20
6904.141793809468
 30
0.0
 41
100.0
 42
100.0
 43
100.0
 50
180.0
  0
MTEXT
  5
179ED
330
163C7
100
AcDbEntity
  8
寸法
 62
     7
 48
50.0
100
AcDbMText
 10
8624.059311658829
 20
7004.141793809468
 30
0.0
 40
120.0
 41
0.0
 71
     5
 72
     1
  1
\A1;55
  7
STYLE1
 73
     1
 44
1.0
1001
ACAD
1000
MTEXTBEGIN
1070
    73
1070
     1
1070
    44
1040
1.0
1070
    74
1070
     0
1000
MTEXTEND
  0
POINT
  5
179EE
330
163C7
100
AcDbEntity
  8
DEFPOINTS
 62
     0
 48
50.0
100
AcDbPoint
 10
8315.57403028459
 20
7438.572564575723
 30
0.0
  0
POINT
  5
179EF
330
163C7
100
AcDbEntity
  8
DEFPOINTS
 62
     0
 48
50.0
100
AcDbPoint
 10
8260.574030284592
 20
7438.572564575719
 30
0.0
  0
POINT
  5
179F0
330
163C7
100
AcDbEntity
  8
DEFPOINTS
 62
     0
 48
50.0
100
AcDbPoint
 10
8260.574030284592
 20
6904.141793809468
 30
0.0
  0
ENDBLK
  5
16499
330
163C7
100
AcDbEntity
  8
0
 48
50.0
100
AcDbBlockEnd
  0
BLOCK
  5
1661C
330
163E1
100
AcDbEntity
  8
0
 48
50.0
100
AcDbBlockBegin
  2
*D11
 70
     1
 10
0.0
 20
0.0
 30
0.0
  3
*D11
  1

  0
LINE
  5
179DD
330
163E1
100
AcDbEntity
  8
寸法
 62
     0
 48
50.0
370
    -2
100
AcDbLine
 10
5740.574030284614
 20
9668.572564575637
 30
0.0
 11
5740.574030284614
 21
9924.380784200735
 31
0.0
  0
LINE
  5
179DE
330
163E1
100
AcDbEntity
  8
寸法
 62
     0
 48
50.0
370
    -2
100
AcDbLine
 10
8260.574030284615
 20
9668.572564575731
 30
0.0
 11
8260.574030284615
 21
9924.380784200735
 31
0.0
  0
LINE
  5
179DF
330
163E1
100
AcDbEntity
  8
寸法
 62
     0
 48
50.0
370
    -2
100
AcDbLine
 10
5740.574030284614
 20
9864.380784200733
 30
0.0
 11
8260.574030284615
 21
9864.380784200733
 31
0.0
  0
INSERT
  5
179E0
330
163E1
100
AcDbEntity
  8
寸法
 62
     0
 48
50.0
370
    -2
100
AcDbBlockReference
  2
_DOTSMALL
 10
5740.574030284614
 20
9864.380784200733
 30
0.0
 41
100.0
 42
100.0
 43
100.0
 50
180.0
  0
INSERT
  5
179E1
330
163E1
100
AcDbEntity
  8
寸法
 62
     0
 48
50.0
370
    -2
100
AcDbBlockReference
  2
_DOTSMALL
 10
8260.574030284615
 20
9864.380784200733
 30
0.0
 41
100.0
 42
100.0
 43
100.0
  0
MTEXT
  5
179E2
330
163E1
100
AcDbEntity
  8
寸法
 62
     7
 48
50.0
100
AcDbMText
 10
7000.574030284615
 20
9964.392595224355
 30
0.0
 40
120.0
 41
0.0
 71
     5
 72
     1
  1
\A1;6X420=2520
  7
STYLE1
 73
     1
 44
1.0
1001
ACAD
1000
MTEXTBEGIN
1070
    73
1070
     1
1070
    44
1040
1.0
1070
    74
1070
     0
1000
MTEXTEND
  0
POINT
  5
179E3
330
163E1
100
AcDbEntity
  8
DEFPOINTS
 62
     0
 48
50.0
100
AcDbPoint
 10
5740.574030284614
 20
9648.572564575637
 30
0.0
  0
POINT
  5
179E4
330
163E1
100
AcDbEntity
  8
DEFPOINTS
 62
     0
 48
50.0
100
AcDbPoint
 10
8260.574030284615
 20
9648.572564575729
 30
0.0
  0
POINT
  5
179E5
330
163E1
100
AcDbEntity
  8
DEFPOINTS
 62
     0
 48
50.0
100
AcDbPoint
 10
8260.574030284615
 20
9864.380784200733
 30
0.0
  0
ENDBLK
  5
16626
330
163E1
100
AcDbEntity
  8
0
 48
50.0
100
AcDbBlockEnd
  0
BLOCK
  5
164B0
330
163ED
100
AcDbEntity
  8
0
 48
50.0
100
AcDbBlockBegin
  2
*D12
 70
     1
 10
0.0
 20
0.0
 30
0.0
  3
*D12
  1

  0
LINE
  5
179D2
330
163ED
100
AcDbEntity
  8
寸法
 62
     0
 48
50.0
370
    -2
100
AcDbLine
 10
3055.57403028458
 20
9668.572564575637
 30
0.0
 11
3055.57403028458
 21
9924.380784200618
 31
0.0
  0
LINE
  5
179D3
330
163ED
100
AcDbEntity
  8
寸法
 62
     0
 48
50.0
370
    -2
100
AcDbLine
 10
3110.574030284614
 20
9668.572564575637
 30
0.0
 11
3110.574030284614
 21
9924.380784200618
 31
0.0
  0
LINE
  5
179D4
330
163ED
100
AcDbEntity
  8
寸法
 62
     0
 48
50.0
370
    -2
100
AcDbLine
 10
3110.574030284614
 20
9864.380784200617
 30
0.0
 11
3210.574030284615
 21
9864.380784200617
 31
0.0
  0
LINE
  5
179D5
330
163ED
100
AcDbEntity
  8
寸法
 62
     0
 48
50.0
370
    -2
100
AcDbLine
 10
3055.57403028458
 20
9864.380784200617
 30
0.0
 11
2638.603467536102
 21
9864.380784200617
 31
0.0
  0
LINE
  5
179D6
330
163ED
100
AcDbEntity
  8
寸法
 62
     0
 48
50.0
370
    -2
100
AcDbLine
 10
3110.574030284614
 20
9864.380784200617
 30
0.0
 11
3055.57403028458
 21
9864.380784200617
 31
0.0
  0
INSERT
  5
179D7
330
163ED
100
AcDbEntity
  8
寸法
 62
     0
 48
50.0
370
    -2
100
AcDbBlockReference
  2
_DOTSMALL
 10
3110.574030284614
 20
9864.380784200617
 30
0.0
 41
100.0
 42
100.0
 43
100.0
 50
180.0
  0
INSERT
  5
179D8
330
163ED
100
AcDbEntity
  8
寸法
 62
     0
 48
50.0
370
    -2
100
AcDbBlockReference
  2
_DOTSMALL
 10
3055.57403028458
 20
9864.380784200617
 30
0.0
 41
100.0
 42
100.0
 43
100.0
  0
MTEXT
  5
179D9
330
163ED
100
AcDbEntity
  8
寸法
 62
     7
 48
50.0
100
AcDbMText
 10
2747.088748910341
 20
9964.380784200617
 30
0.0
 40
120.0
 41
0.0
 71
     5
 72
     1
  1
\A1;55
  7
STYLE1
 73
     1
 44
1.0
1001
ACAD
1000
MTEXTBEGIN
1070
    73
1070
     1
1070
    44
1040
1.0
1070
    74
1070
     0
1000
MTEXTEND
  0
POINT
  5
179DA
330
163ED
100
AcDbEntity
  8
DEFPOINTS
 62
     0
 48
50.0
100
AcDbPoint
 10
3055.57403028458
 20
9648.572564575637
 30
0.0
  0
POINT
  5
179DB
330
163ED
100
AcDbEntity
  8
DEFPOINTS
 62
     0
 48
50.0
100
AcDbPoint
 10
3110.574030284614
 20
9648.572564575637
 30
0.0
  0
POINT
  5
179DC
330
163ED
100
AcDbEntity
  8
DEFPOINTS
 62
     0
 48
50.0
100
AcDbPoint
 10
3110.574030284614
 20
9864.380784200617
 30
0.0
  0
ENDBLK
  5
164BC
330
163ED
100
AcDbEntity
  8
0
 48
50.0
100
AcDbBlockEnd
  0
BLOCK
  5
164BD
330
163FB
100
AcDbEntity
  8
0
 48
50.0
100
AcDbBlockBegin
  2
*D13
 70
     1
 10
0.0
 20
0.0
 30
0.0
  3
*D13
  1

  0
LINE
  5
179C7
330
163FB
100
AcDbEntity
  8
寸法
 62
     0
 48
50.0
370
    -2
100
AcDbLine
 10
8260.574030284615
 20
9668.572564575731
 30
0.0
 11
8260.574030284615
 21
9924.380784200716
 31
0.0
  0
LINE
  5
179C8
330
163FB
100
AcDbEntity
  8
寸法
 62
     0
 48
50.0
370
    -2
100
AcDbLine
 10
8315.574030284615
 20
9668.572564575731
 30
0.0
 11
8315.574030284615
 21
9924.380784200716
 31
0.0
  0
LINE
  5
179C9
330
163FB
100
AcDbEntity
  8
寸法
 62
     0
 48
50.0
370
    -2
100
AcDbLine
 10
8260.574030284615
 20
9864.380784200717
 30
0.0
 11
8160.574030284616
 21
9864.380784200717
 31
0.0
  0
LINE
  5
179CA
330
163FB
100
AcDbEntity
  8
寸法
 62
     0
 48
50.0
370
    -2
100
AcDbLine
 10
8315.574030284615
 20
9864.380784200717
 30
0.0
 11
8732.544593033091
 21
9864.380784200717
 31
0.0
  0
LINE
  5
179CB
330
163FB
100
AcDbEntity
  8
寸法
 62
     0
 48
50.0
370
    -2
100
AcDbLine
 10
8260.574030284615
 20
9864.380784200717
 30
0.0
 11
8315.574030284615
 21
9864.380784200717
 31
0.0
  0
INSERT
  5
179CC
330
163FB
100
AcDbEntity
  8
寸法
 62
     0
 48
50.0
370
    -2
100
AcDbBlockReference
  2
_DOTSMALL
 10
8260.574030284615
 20
9864.380784200717
 30
0.0
 41
100.0
 42
100.0
 43
100.0
  0
INSERT
  5
179CD
330
163FB
100
AcDbEntity
  8
寸法
 62
     0
 48
50.0
370
    -2
100
AcDbBlockReference
  2
_DOTSMALL
 10
8315.574030284615
 20
9864.380784200717
 30
0.0
 41
100.0
 42
100.0
 43
100.0
 50
180.0
  0
MTEXT
  5
179CE
330
163FB
100
AcDbEntity
  8
寸法
 62
     7
 48
50.0
100
AcDbMText
 10
8624.059311658854
 20
9964.380784200717
 30
0.0
 40
120.0
 41
0.0
 71
     5
 72
     1
  1
\A1;55
  7
STYLE1
 73
     1
 44
1.0
1001
ACAD
1000
MTEXTBEGIN
1070
    73
1070
     1
1070
    44
1040
1.0
1070
    74
1070
     0
1000
MTEXTEND
  0
POINT
  5
179CF
330
163FB
100
AcDbEntity
  8
DEFPOINTS
 62
     0
 48
50.0
100
AcDbPoint
 10
8260.574030284615
 20
9648.572564575729
 30
0.0
  0
POINT
  5
179D0
330
163FB
100
AcDbEntity
  8
DEFPOINTS
 62
     0
 48
50.0
100
AcDbPoint
 10
8315.574030284615
 20
9648.572564575729
 30
0.0
  0
POINT
  5
179D1
330
163FB
100
AcDbEntity
  8
DEFPOINTS
 62
     0
 48
50.0
100
AcDbPoint
 10
8315.574030284615
 20
9864.380784200717
 30
0.0
  0
ENDBLK
  5
164C9
330
163FB
100
AcDbEntity
  8
0
 48
50.0
100
AcDbBlockEnd
  0
BLOCK
  5
1659F
330
1659E
100
AcDbEntity
  8
0
 48
50.0
100
AcDbBlockBegin
  2
*D14
 70
     1
 10
0.0
 20
0.0
 30
0.0
  3
*D14
  1

  0
LINE
  5
179B4
330
1659E
100
AcDbEntity
  8
寸法
 62
     0
 48
50.0
370
    -2
100
AcDbLine
 10
3158.574030284608
 20
7444.572564575631
 30
0.0
 11
3158.574030284608
 21
6844.141793809467
 31
0.0
  0
LINE
  5
179B5
330
1659E
100
AcDbEntity
  8
寸法
 62
     0
 48
50.0
370
    -2
100
AcDbLine
 10
5582.57403028459
 20
6904.141793809468
 30
0.0
 11
3158.574030284608
 21
6904.141793809468
 31
0.0
  0
INSERT
  5
179B6
330
1659E
100
AcDbEntity
  8
寸法
 62
     0
 48
50.0
370
    -2
100
AcDbBlockReference
  2
_DOTSMALL
 10
5582.57403028459
 20
6904.141793809468
 30
0.0
 41
100.0
 42
100.0
 43
100.0
  0
INSERT
  5
179B7
330
1659E
100
AcDbEntity
  8
寸法
 62
     0
 48
50.0
370
    -2
100
AcDbBlockReference
  2
_DOTSMALL
 10
3158.574030284608
 20
6904.141793809468
 30
0.0
 41
100.0
 42
100.0
 43
100.0
 50
180.0
  0
MTEXT
  5
179B8
330
1659E
100
AcDbEntity
  8
寸法
 62
     7
 48
50.0
100
AcDbMText
 10
4370.574030284599
 20
7004.153604833089
 30
0.0
 40
120.0
 41
0.0
 71
     5
 72
     1
  1
\A1;有効開口部間口 2424
  7
STYLE1
 73
     1
 44
1.0
1001
ACAD
1000
MTEXTBEGIN
1070
    73
1070
     1
1070
    44
1040
1.0
1070
    74
1070
     0
1000
MTEXTEND
  0
POINT
  5
179B9
330
1659E
100
AcDbEntity
  8
DEFPOINTS
 62
     0
 48
50.0
100
AcDbPoint
 10
5582.57403028459
 20
7464.572564575632
 30
0.0
  0
POINT
  5
179BA
330
1659E
100
AcDbEntity
  8
DEFPOINTS
 62
     0
 48
50.0
100
AcDbPoint
 10
3158.574030284608
 20
7464.572564575632
 30
0.0
  0
POINT
  5
179BB
330
1659E
100
AcDbEntity
  8
DEFPOINTS
 62
     0
 48
50.0
100
AcDbPoint
 10
3158.574030284608
 20
6904.141793809468
 30
0.0
  0
ENDBLK
  5
165A8
330
1659E
100
AcDbEntity
  8
0
 48
50.0
100
AcDbBlockEnd
  0
BLOCK
  5
165B6
330
165B5
100
AcDbEntity
  8
0
 48
50.0
100
AcDbBlockBegin
  2
*D15
 70
     1
 10
0.0
 20
0.0
 30
0.0
  3
*D15
  1

  0
LINE
  5
179A9
330
165B5
100
AcDbEntity
  8
寸法
 62
     0
 48
50.0
370
    -2
100
AcDbLine
 10
3158.574030284608
 20
7444.572564575631
 30
0.0
 11
3158.574030284608
 21
6844.141793809467
 31
0.0
  0
LINE
  5
179AA
330
165B5
100
AcDbEntity
  8
寸法
 62
     0
 48
50.0
370
    -2
100
AcDbLine
 10
3110.574030284605
 20
7418.57256457563
 30
0.0
 11
3110.574030284605
 21
6844.141793809467
 31
0.0
  0
LINE
  5
179AB
330
165B5
100
AcDbEntity
  8
寸法
 62
     0
 48
50.0
370
    -2
100
AcDbLine
 10
3158.574030284608
 20
6904.141793809468
 30
0.0
 11
3258.574030284608
 21
6904.141793809468
 31
0.0
  0
LINE
  5
179AC
330
165B5
100
AcDbEntity
  8
寸法
 62
     0
 48
50.0
370
    -2
100
AcDbLine
 10
3110.574030284605
 20
6904.141793809468
 30
0.0
 11
3010.574030284605
 21
6904.141793809468
 31
0.0
  0
MTEXT
  5
179AD
330
165B5
100
AcDbEntity
  8
寸法
 62
     7
 48
50.0
100
AcDbMText
 10
3271.476001284665
 20
7004.141793809468
 30
0.0
 40
120.0
 41
0.0
 71
     5
 72
     1
  1
\A1;48
  7
STYLE1
 73
     1
 44
1.0
1001
ACAD
1000
MTEXTBEGIN
1070
    73
1070
     1
1070
    44
1040
1.0
1070
    74
1070
     0
1000
MTEXTEND
  0
LINE
  5
179AE
330
165B5
100
AcDbEntity
  8
寸法
 62
     0
 48
50.0
370
    -2
100
AcDbLine
 10
3158.574030284608
 20
6904.141793809468
 30
0.0
 11
3110.574030284605
 21
6904.141793809468
 31
0.0
  0
INSERT
  5
179AF
330
165B5
100
AcDbEntity
  8
寸法
 62
     0
 48
50.0
370
    -2
100
AcDbBlockReference
  2
_DOTSMALL
 10
3158.574030284608
 20
6904.141793809468
 30
0.0
 41
100.0
 42
100.0
 43
100.0
 50
180.0
  0
INSERT
  5
179B0
330
165B5
100
AcDbEntity
  8
寸法
 62
     0
 48
50.0
370
    -2
100
AcDbBlockReference
  2
_DOTSMALL
 10
3110.574030284605
 20
6904.141793809468
 30
0.0
 41
100.0
 42
100.0
 43
100.0
  0
POINT
  5
179B1
330
165B5
100
AcDbEntity
  8
DEFPOINTS
 62
     0
 48
50.0
100
AcDbPoint
 10
3158.574030284608
 20
7464.572564575632
 30
0.0
  0
POINT
  5
179B2
330
165B5
100
AcDbEntity
  8
DEFPOINTS
 62
     0
 48
50.0
100
AcDbPoint
 10
3110.574030284605
 20
7438.572564575631
 30
0.0
  0
POINT
  5
179B3
330
165B5
100
AcDbEntity
  8
DEFPOINTS
 62
     0
 48
50.0
100
AcDbPoint
 10
3110.574030284605
 20
6904.141793809468
 30
0.0
  0
ENDBLK
  5
165C3
330
165B5
100
AcDbEntity
  8
0
 48
50.0
100
AcDbBlockEnd
  0
BLOCK
  5
165C5
330
165C4
100
AcDbEntity
  8
0
 48
50.0
100
AcDbBlockBegin
  2
*D16
 70
     1
 10
0.0
 20
0.0
 30
0.0
  3
*D16
  1

  0
LINE
  5
179BC
330
165C4
100
AcDbEntity
  8
寸法
 62
     0
 48
50.0
370
    -2
100
AcDbLine
 10
5630.574030284591
 20
7418.572564575718
 30
0.0
 11
5630.574030284591
 21
6844.141793809467
 31
0.0
  0
LINE
  5
179BD
330
165C4
100
AcDbEntity
  8
寸法
 62
     0
 48
50.0
370
    -2
100
AcDbLine
 10
5582.57403028459
 20
7444.572564575633
 30
0.0
 11
5582.57403028459
 21
6844.141793809467
 31
0.0
  0
LINE
  5
179BE
330
165C4
100
AcDbEntity
  8
寸法
 62
     0
 48
50.0
370
    -2
100
AcDbLine
 10
5630.574030284591
 20
6904.141793809468
 30
0.0
 11
5730.574030284592
 21
6904.141793809468
 31
0.0
  0
LINE
  5
179BF
330
165C4
100
AcDbEntity
  8
寸法
 62
     0
 48
50.0
370
    -2
100
AcDbLine
 10
5582.57403028459
 20
6904.141793809468
 30
0.0
 11
5482.57403028459
 21
6904.141793809468
 31
0.0
  0
MTEXT
  5
179C0
330
165C4
100
AcDbEntity
  8
寸法
 62
     7
 48
50.0
100
AcDbMText
 10
5471.611132635842
 20
7004.141793809468
 30
0.0
 40
120.0
 41
0.0
 71
     5
 72
     1
  1
\A1;48
  7
STYLE1
 73
     1
 44
1.0
1001
ACAD
1000
MTEXTBEGIN
1070
    73
1070
     1
1070
    44
1040
1.0
1070
    74
1070
     0
1000
MTEXTEND
  0
LINE
  5
179C1
330
165C4
100
AcDbEntity
  8
寸法
 62
     0
 48
50.0
370
    -2
100
AcDbLine
 10
5630.574030284591
 20
6904.141793809468
 30
0.0
 11
5582.57403028459
 21
6904.141793809468
 31
0.0
  0
INSERT
  5
179C2
330
165C4
100
AcDbEntity
  8
寸法
 62
     0
 48
50.0
370
    -2
100
AcDbBlockReference
  2
_DOTSMALL
 10
5630.574030284591
 20
6904.141793809468
 30
0.0
 41
100.0
 42
100.0
 43
100.0
 50
180.0
  0
INSERT
  5
179C3
330
165C4
100
AcDbEntity
  8
寸法
 62
     0
 48
50.0
370
    -2
100
AcDbBlockReference
  2
_DOTSMALL
 10
5582.57403028459
 20
6904.141793809468
 30
0.0
 41
100.0
 42
100.0
 43
100.0
  0
POINT
  5
179C4
330
165C4
100
AcDbEntity
  8
DEFPOINTS
 62
     0
 48
50.0
100
AcDbPoint
 10
5630.574030284591
 20
7438.572564575719
 30
0.0
  0
POINT
  5
179C5
330
165C4
100
AcDbEntity
  8
DEFPOINTS
 62
     0
 48
50.0
100
AcDbPoint
 10
5582.57403028459
 20
7464.572564575632
 30
0.0
  0
POINT
  5
179C6
330
165C4
100
AcDbEntity
  8
DEFPOINTS
 62
     0
 48
50.0
100
AcDbPoint
 10
5582.57403028459
 20
6904.141793809468
 30
0.0
  0
ENDBLK
  5
165D2
330
165C4
100
AcDbEntity
  8
0
 48
50.0
100
AcDbBlockEnd
  0
BLOCK
  5
1663F
330
165EA
100
AcDbEntity
  8
0
 48
50.0
100
AcDbBlockBegin
  2
*D17
 70
     1
 10
0.0
 20
0.0
 30
0.0
  3
*D17
  1

  0
LINE
  5
179A0
330
165EA
100
AcDbEntity
  8
寸法
 62
     0
 48
50.0
370
    -2
100
AcDbLine
 10
5740.574030284604
 20
7418.57256457563
 30
0.0
 11
5740.574030284604
 21
6844.141793809469
 31
0.0
  0
LINE
  5
179A1
330
165EA
100
AcDbEntity
  8
寸法
 62
     0
 48
50.0
370
    -2
100
AcDbLine
 10
5630.574030284591
 20
7418.572564575718
 30
0.0
 11
5630.574030284591
 21
6844.141793809469
 31
0.0
  0
LINE
  5
179A2
330
165EA
100
AcDbEntity
  8
寸法
 62
     0
 48
50.0
370
    -2
100
AcDbLine
 10
5740.574030284604
 20
6904.141793809468
 30
0.0
 11
5630.574030284591
 21
6904.141793809468
 31
0.0
  0
MTEXT
  5
179A3
330
165EA
100
AcDbEntity
  8
寸法
 62
     7
 48
50.0
100
AcDbMText
 10
5685.574030284598
 20
6752.449898773237
 30
0.0
 40
120.0
 41
0.0
 71
     5
 72
     1
  1
\A1;110
  7
STYLE1
 73
     1
 44
1.0
1001
ACAD
1000
MTEXTBEGIN
1070
    73
1070
     1
1070
    44
1040
1.0
1070
    74
1070
     0
1000
MTEXTEND
  0
INSERT
  5
179A4
330
165EA
100
AcDbEntity
  8
寸法
 62
     0
 48
50.0
370
    -2
100
AcDbBlockReference
  2
_DOTSMALL
 10
5740.574030284604
 20
6904.141793809468
 30
0.0
 41
100.0
 42
100.0
 43
100.0
  0
INSERT
  5
179A5
330
165EA
100
AcDbEntity
  8
寸法
 62
     0
 48
50.0
370
    -2
100
AcDbBlockReference
  2
_DOTSMALL
 10
5630.574030284591
 20
6904.141793809468
 30
0.0
 41
100.0
 42
100.0
 43
100.0
 50
180.0
  0
POINT
  5
179A6
330
165EA
100
AcDbEntity
  8
DEFPOINTS
 62
     0
 48
50.0
100
AcDbPoint
 10
5740.574030284604
 20
7438.572564575631
 30
0.0
  0
POINT
  5
179A7
330
165EA
100
AcDbEntity
  8
DEFPOINTS
 62
     0
 48
50.0
100
AcDbPoint
 10
5630.574030284591
 20
7438.572564575719
 30
0.0
  0
POINT
  5
179A8
330
165EA
100
AcDbEntity
  8
DEFPOINTS
 62
     0
 48
50.0
100
AcDbPoint
 10
5630.574030284591
 20
6904.141793809468
 30
0.0
  0
ENDBLK
  5
16649
330
165EA
100
AcDbEntity
  8
0
 48
50.0
100
AcDbBlockEnd
  0
BLOCK
  5
166AE
330
166AD
100
AcDbEntity
  8
0
 48
50.0
100
AcDbBlockBegin
  2
*D18
 70
     1
 10
0.0
 20
0.0
 30
0.0
  3
*D18
  1

  0
LINE
  5
17997
330
166AD
100
AcDbEntity
  8
寸法
 62
     0
 48
50.0
370
    -2
100
AcDbLine
 10
3110.574030284614
 20
9668.572564575637
 30
0.0
 11
3110.574030284614
 21
9924.380784200735
 31
0.0
  0
LINE
  5
17998
330
166AD
100
AcDbEntity
  8
寸法
 62
     0
 48
50.0
370
    -2
100
AcDbLine
 10
5630.574030284615
 20
9668.572564575731
 30
0.0
 11
5630.574030284615
 21
9924.380784200735
 31
0.0
  0
LINE
  5
17999
330
166AD
100
AcDbEntity
  8
寸法
 62
     0
 48
50.0
370
    -2
100
AcDbLine
 10
3110.574030284614
 20
9864.380784200733
 30
0.0
 11
5630.574030284615
 21
9864.380784200733
 31
0.0
  0
INSERT
  5
1799A
330
166AD
100
AcDbEntity
  8
寸法
 62
     0
 48
50.0
370
    -2
100
AcDbBlockReference
  2
_DOTSMALL
 10
3110.574030284614
 20
9864.380784200733
 30
0.0
 41
100.0
 42
100.0
 43
100.0
 50
180.0
  0
INSERT
  5
1799B
330
166AD
100
AcDbEntity
  8
寸法
 62
     0
 48
50.0
370
    -2
100
AcDbBlockReference
  2
_DOTSMALL
 10
5630.574030284615
 20
9864.380784200733
 30
0.0
 41
100.0
 42
100.0
 43
100.0
  0
MTEXT
  5
1799C
330
166AD
100
AcDbEntity
  8
寸法
 62
     7
 48
50.0
100
AcDbMText
 10
4370.574030284615
 20
9964.392595224355
 30
0.0
 40
120.0
 41
0.0
 71
     5
 72
     1
  1
\A1;6X420=2520
  7
STYLE1
 73
     1
 44
1.0
1001
ACAD
1000
MTEXTBEGIN
1070
    73
1070
     1
1070
    44
1040
1.0
1070
    74
1070
     0
1000
MTEXTEND
  0
POINT
  5
1799D
330
166AD
100
AcDbEntity
  8
DEFPOINTS
 62
     0
 48
50.0
100
AcDbPoint
 10
3110.574030284614
 20
9648.572564575637
 30
0.0
  0
POINT
  5
1799E
330
166AD
100
AcDbEntity
  8
DEFPOINTS
 62
     0
 48
50.0
100
AcDbPoint
 10
5630.574030284615
 20
9648.572564575729
 30
0.0
  0
POINT
  5
1799F
330
166AD
100
AcDbEntity
  8
DEFPOINTS
 62
     0
 48
50.0
100
AcDbPoint
 10
5630.574030284615
 20
9864.380784200733
 30
0.0
  0
ENDBLK
  5
166B8
330
166AD
100
AcDbEntity
  8
0
 48
50.0
100
AcDbBlockEnd
  0
BLOCK
  5
166D0
330
166CF
100
AcDbEntity
  8
0
 48
50.0
100
AcDbBlockBegin
  2
*D19
 70
     1
 10
0.0
 20
0.0
 30
0.0
  3
*D19
  1

  0
LINE
  5
1798C
330
166CF
100
AcDbEntity
  8
寸法
 62
     0
 48
50.0
370
    -2
100
AcDbLine
 10
5740.574030284614
 20
9668.572564575685
 30
0.0
 11
5740.574030284614
 21
9924.380784200735
 31
0.0
  0
LINE
  5
1798D
330
166CF
100
AcDbEntity
  8
寸法
 62
     0
 48
50.0
370
    -2
100
AcDbLine
 10
5630.574030284615
 20
9668.572564575683
 30
0.0
 11
5630.574030284615
 21
9924.380784200735
 31
0.0
  0
LINE
  5
1798E
330
166CF
100
AcDbEntity
  8
寸法
 62
     0
 48
50.0
370
    -2
100
AcDbLine
 10
5740.574030284614
 20
9864.380784200733
 30
0.0
 11
5840.574030284614
 21
9864.380784200733
 31
0.0
  0
LINE
  5
1798F
330
166CF
100
AcDbEntity
  8
寸法
 62
     0
 48
50.0
370
    -2
100
AcDbLine
 10
5630.574030284615
 20
9864.380784200733
 30
0.0
 11
5530.574030284615
 21
9864.380784200733
 31
0.0
  0
LINE
  5
17990
330
166CF
100
AcDbEntity
  8
寸法
 62
     0
 48
50.0
370
    -2
100
AcDbLine
 10
5740.574030284614
 20
9864.380784200733
 30
0.0
 11
5630.574030284615
 21
9864.380784200733
 31
0.0
  0
INSERT
  5
17991
330
166CF
100
AcDbEntity
  8
寸法
 62
     0
 48
50.0
370
    -2
100
AcDbBlockReference
  2
_DOTSMALL
 10
5740.574030284614
 20
9864.380784200733
 30
0.0
 41
100.0
 42
100.0
 43
100.0
 50
180.0
  0
INSERT
  5
17992
330
166CF
100
AcDbEntity
  8
寸法
 62
     0
 48
50.0
370
    -2
100
AcDbBlockReference
  2
_DOTSMALL
 10
5630.574030284615
 20
9864.380784200733
 30
0.0
 41
100.0
 42
100.0
 43
100.0
  0
MTEXT
  5
17993
330
166CF
100
AcDbEntity
  8
寸法
 62
     7
 48
50.0
100
AcDbMText
 10
5685.574030284615
 20
9964.380784200734
 30
0.0
 40
120.0
 41
0.0
 71
     5
 72
     1
  1
\A1;110
  7
STYLE1
 73
     1
 44
1.0
1001
ACAD
1000
MTEXTBEGIN
1070
    73
1070
     1
1070
    44
1040
1.0
1070
    74
1070
     0
1000
MTEXTEND
  0
POINT
  5
17994
330
166CF
100
AcDbEntity
  8
DEFPOINTS
 62
     0
 48
50.0
100
AcDbPoint
 10
5740.574030284614
 20
9648.572564575685
 30
0.0
  0
POINT
  5
17995
330
166CF
100
AcDbEntity
  8
DEFPOINTS
 62
     0
 48
50.0
100
AcDbPoint
 10
5630.574030284615
 20
9648.572564575681
 30
0.0
  0
POINT
  5
17996
330
166CF
100
AcDbEntity
  8
DEFPOINTS
 62
     0
 48
50.0
100
AcDbPoint
 10
5630.574030284615
 20
9864.380784200733
 30
0.0
  0
ENDBLK
  5
166DC
330
166CF
100
AcDbEntity
  8
0
 48
50.0
100
AcDbBlockEnd
  0
BLOCK
  5
16948
330
168FB
100
AcDbEntity
  8
0
 48
50.0
100
AcDbBlockBegin
  2
*D20
 70
     1
 10
0.0
 20
0.0
 30
0.0
  3
*D20
  1

  0
LINE
  5
17983
330
168FB
100
AcDbEntity
  8
寸法
 62
     0
 48
50.0
370
    -2
100
AcDbLine
 10
3055.57403028458
 20
9668.572564575605
 30
0.0
 11
3055.57403028458
 21
10173.70225775703
 31
0.0
  0
LINE
  5
17984
330
168FB
100
AcDbEntity
  8
寸法
 62
     0
 48
50.0
370
    -2
100
AcDbLine
 10
5685.574030284615
 20
10043.36869855868
 30
0.0
 11
5685.574030284615
 21
10173.70225775703
 31
0.0
  0
LINE
  5
17985
330
168FB
100
AcDbEntity
  8
寸法
 62
     0
 48
50.0
370
    -2
100
AcDbLine
 10
3055.57403028458
 20
10113.70225775703
 30
0.0
 11
5685.574030284615
 21
10113.70225775703
 31
0.0
  0
INSERT
  5
17986
330
168FB
100
AcDbEntity
  8
寸法
 62
     0
 48
50.0
370
    -2
100
AcDbBlockReference
  2
_DOTSMALL
 10
3055.57403028458
 20
10113.70225775703
 30
0.0
 41
100.0
 42
100.0
 43
100.0
 50
180.0
  0
INSERT
  5
17987
330
168FB
100
AcDbEntity
  8
寸法
 62
     0
 48
50.0
370
    -2
100
AcDbBlockReference
  2
_DOTSMALL
 10
5685.574030284615
 20
10113.70225775703
 30
0.0
 41
100.0
 42
100.0
 43
100.0
  0
MTEXT
  5
17988
330
168FB
100
AcDbEntity
  8
寸法
 62
     7
 48
50.0
100
AcDbMText
 10
4370.574030284597
 20
10213.71406878065
 30
0.0
 40
120.0
 41
0.0
 71
     5
 72
     1
  1
\A1;2630
  7
STYLE1
 73
     1
 44
1.0
1001
ACAD
1000
MTEXTBEGIN
1070
    73
1070
     1
1070
    44
1040
1.0
1070
    74
1070
     0
1000
MTEXTEND
  0
POINT
  5
17989
330
168FB
100
AcDbEntity
  8
DEFPOINTS
 62
     0
 48
50.0
100
AcDbPoint
 10
3055.57403028458
 20
9648.572564575603
 30
0.0
  0
POINT
  5
1798A
330
168FB
100
AcDbEntity
  8
DEFPOINTS
 62
     0
 48
50.0
100
AcDbPoint
 10
5685.574030284615
 20
10023.36869855868
 30
0.0
  0
POINT
  5
1798B
330
168FB
100
AcDbEntity
  8
DEFPOINTS
 62
     0
 48
50.0
100
AcDbPoint
 10
5685.574030284615
 20
10113.70225775703
 30
0.0
  0
ENDBLK
  5
16952
330
168FB
100
AcDbEntity
  8
0
 48
50.0
100
AcDbBlockEnd
  0
BLOCK
  5
1693E
330
16908
100
AcDbEntity
  8
0
 48
50.0
100
AcDbBlockBegin
  2
*D21
 70
     1
 10
0.0
 20
0.0
 30
0.0
  3
*D21
  1

  0
LINE
  5
1797B
330
16908
100
AcDbEntity
  8
寸法
 62
     0
 48
50.0
370
    -2
100
AcDbLine
 10
8315.574030284615
 20
9668.572564575731
 30
0.0
 11
8315.574030284615
 21
10173.70225775703
 31
0.0
  0
LINE
  5
1797C
330
16908
100
AcDbEntity
  8
寸法
 62
     0
 48
50.0
370
    -2
100
AcDbLine
 10
5685.574030284615
 20
10113.70225775703
 30
0.0
 11
8315.574030284615
 21
10113.70225775703
 31
0.0
  0
INSERT
  5
1797D
330
16908
100
AcDbEntity
  8
寸法
 62
     0
 48
50.0
370
    -2
100
AcDbBlockReference
  2
_DOTSMALL
 10
5685.574030284615
 20
10113.70225775703
 30
0.0
 41
100.0
 42
100.0
 43
100.0
 50
180.0
  0
INSERT
  5
1797E
330
16908
100
AcDbEntity
  8
寸法
 62
     0
 48
50.0
370
    -2
100
AcDbBlockReference
  2
_DOTSMALL
 10
8315.574030284615
 20
10113.70225775703
 30
0.0
 41
100.0
 42
100.0
 43
100.0
  0
MTEXT
  5
1797F
330
16908
100
AcDbEntity
  8
寸法
 62
     7
 48
50.0
100
AcDbMText
 10
7000.574030284615
 20
10213.71406878065
 30
0.0
 40
120.0
 41
0.0
 71
     5
 72
     1
  1
\A1;2630
  7
STYLE1
 73
     1
 44
1.0
1001
ACAD
1000
MTEXTBEGIN
1070
    73
1070
     1
1070
    44
1040
1.0
1070
    74
1070
     0
1000
MTEXTEND
  0
POINT
  5
17980
330
16908
100
AcDbEntity
  8
DEFPOINTS
 62
     0
 48
50.0
100
AcDbPoint
 10
5685.574030284615
 20
10023.36869855868
 30
0.0
  0
POINT
  5
17981
330
16908
100
AcDbEntity
  8
DEFPOINTS
 62
     0
 48
50.0
100
AcDbPoint
 10
8315.574030284615
 20
9648.572564575729
 30
0.0
  0
POINT
  5
17982
330
16908
100
AcDbEntity
  8
DEFPOINTS
 62
     0
 48
50.0
100
AcDbPoint
 10
8315.574030284615
 20
10113.70225775703
 30
0.0
  0
ENDBLK
  5
16947
330
16908
100
AcDbEntity
  8
0
 48
50.0
100
AcDbBlockEnd
  0
BLOCK
  5
17586
330
1757A
100
AcDbEntity
  8
0
 48
50.0
100
AcDbBlockBegin
  2
*D22
 70
     1
 10
0.0
 20
0.0
 30
0.0
  3
*D22
  1

  0
LINE
  5
17966
330
1757A
100
AcDbEntity
  8
寸法
 62
     0
 48
50.0
370
    -2
100
AcDbLine
 10
3055.574030284606
 20
4932.931598713268
 30
0.0
 11
3055.574030284606
 21
5372.024768052734
 31
0.0
  0
LINE
  5
17967
330
1757A
100
AcDbEntity
  8
寸法
 62
     0
 48
50.0
370
    -2
100
AcDbLine
 10
3005.574030284606
 20
4932.931598713266
 30
0.0
 11
3005.574030284606
 21
5372.024768052734
 31
0.0
  0
LINE
  5
17968
330
1757A
100
AcDbEntity
  8
寸法
 62
     0
 48
50.0
370
    -2
100
AcDbLine
 10
3055.574030284606
 20
5312.024768052735
 30
0.0
 11
3155.574030284606
 21
5312.024768052735
 31
0.0
  0
LINE
  5
17969
330
1757A
100
AcDbEntity
  8
寸法
 62
     0
 48
50.0
370
    -2
100
AcDbLine
 10
3005.574030284606
 20
5312.024768052735
 30
0.0
 11
2586.041504815871
 21
5312.024768052735
 31
0.0
  0
LINE
  5
1796A
330
1757A
100
AcDbEntity
  8
寸法
 62
     0
 48
50.0
370
    -2
100
AcDbLine
 10
3055.574030284606
 20
5312.024768052735
 30
0.0
 11
3005.574030284606
 21
5312.024768052735
 31
0.0
  0
INSERT
  5
1796B
330
1757A
100
AcDbEntity
  8
寸法
 62
     0
 48
50.0
370
    -2
100
AcDbBlockReference
  2
_DOTSMALL
 10
3055.574030284606
 20
5312.024768052735
 30
0.0
 41
100.0
 42
100.0
 43
100.0
 50
180.0
  0
INSERT
  5
1796C
330
1757A
100
AcDbEntity
  8
寸法
 62
     0
 48
50.0
370
    -2
100
AcDbBlockReference
  2
_DOTSMALL
 10
3005.574030284606
 20
5312.024768052735
 30
0.0
 41
100.0
 42
100.0
 43
100.0
  0
MTEXT
  5
1796D
330
1757A
100
AcDbEntity
  8
寸法
 62
     7
 48
50.0
100
AcDbMText
 10
2692.088748910359
 20
5412.024768052734
 30
0.0
 40
120.0
 41
0.0
 71
     5
 72
     1
  1
\A1;50
  7
STYLE1
 73
     1
 44
1.0
1001
ACAD
1000
MTEXTBEGIN
1070
    73
1070
     1
1070
    44
1040
1.0
1070
    74
1070
     0
1000
MTEXTEND
  0
POINT
  5
1796E
330
1757A
100
AcDbEntity
  8
DEFPOINTS
 62
     0
 48
50.0
100
AcDbPoint
 10
3055.574030284606
 20
4912.931598713267
 30
0.0
  0
POINT
  5
1796F
330
1757A
100
AcDbEntity
  8
DEFPOINTS
 62
     0
 48
50.0
100
AcDbPoint
 10
3005.574030284606
 20
4912.931598713266
 30
0.0
  0
POINT
  5
17970
330
1757A
100
AcDbEntity
  8
DEFPOINTS
 62
     0
 48
50.0
100
AcDbPoint
 10
3005.574030284606
 20
5312.024768052735
 30
0.0
  0
ENDBLK
  5
17587
330
1757A
100
AcDbEntity
  8
0
 48
50.0
100
AcDbBlockEnd
  0
BLOCK
  5
1765C
330
17652
100
AcDbEntity
  8
0
 48
50.0
100
AcDbBlockBegin
  2
*D23
 70
     1
 10
0.0
 20
0.0
 30
0.0
  3
*D23
  1

  0
LINE
  5
1857D
330
17652
100
AcDbEntity
  8
寸法
 62
     0
 48
50.0
370
    -2
100
AcDbLine
 10
8315.574030284606
 20
4932.931598713266
 30
0.0
 11
8315.574030284606
 21
5372.024768052734
 31
0.0
  0
LINE
  5
1857E
330
17652
100
AcDbEntity
  8
寸法
 62
     0
 48
50.0
370
    -2
100
AcDbLine
 10
3055.574030284606
 20
4932.931598713268
 30
0.0
 11
3055.574030284606
 21
5372.024768052734
 31
0.0
  0
LINE
  5
1857F
330
17652
100
AcDbEntity
  8
寸法
 62
     0
 48
50.0
370
    -2
100
AcDbLine
 10
8315.574030284606
 20
5312.024768052735
 30
0.0
 11
3055.574030284606
 21
5312.024768052735
 31
0.0
  0
INSERT
  5
18580
330
17652
100
AcDbEntity
  8
寸法
 62
     0
 48
50.0
370
    -2
100
AcDbBlockReference
  2
_DOTSMALL
 10
8315.574030284606
 20
5312.024768052735
 30
0.0
 41
100.0
 42
100.0
 43
100.0
  0
INSERT
  5
18581
330
17652
100
AcDbEntity
  8
寸法
 62
     0
 48
50.0
370
    -2
100
AcDbBlockReference
  2
_DOTSMALL
 10
3055.574030284606
 20
5312.024768052735
 30
0.0
 41
100.0
 42
100.0
 43
100.0
 50
180.0
  0
MTEXT
  5
18582
330
17652
100
AcDbEntity
  8
寸法
 62
     7
 48
50.0
100
AcDbMText
 10
5685.574030284606
 20
5412.036579076357
 30
0.0
 40
120.0
 41
0.0
 71
     5
 72
     1
  1
\A1;柱外寸法5260
  7
STYLE1
 73
     1
 44
1.0
1001
ACAD
1000
MTEXTBEGIN
1070
    73
1070
     1
1070
    44
1040
1.0
1070
    74
1070
     0
1000
MTEXTEND
  0
POINT
  5
18583
330
17652
100
AcDbEntity
  8
DEFPOINTS
 62
     0
 48
50.0
100
AcDbPoint
 10
8315.574030284606
 20
4912.931598713266
 30
0.0
  0
POINT
  5
18584
330
17652
100
AcDbEntity
  8
DEFPOINTS
 62
     0
 48
50.0
100
AcDbPoint
 10
3055.574030284606
 20
4912.931598713267
 30
0.0
  0
POINT
  5
18585
330
17652
100
AcDbEntity
  8
DEFPOINTS
 62
     0
 48
50.0
100
AcDbPoint
 10
3055.574030284606
 20
5312.024768052735
 30
0.0
  0
ENDBLK
  5
1765D
330
17652
100
AcDbEntity
  8
0
 48
50.0
100
AcDbBlockEnd
  0
BLOCK
  5
1766A
330
1765E
100
AcDbEntity
  8
0
 48
50.0
100
AcDbBlockBegin
  2
*D24
 70
     1
 10
0.0
 20
0.0
 30
0.0
  3
*D24
  1

  0
LINE
  5
1792B
330
1765E
100
AcDbEntity
  8
寸法
 62
     0
 48
50.0
370
    -2
100
AcDbLine
 10
8365.574030284607
 20
4932.931598713264
 30
0.0
 11
8365.574030284607
 21
5372.024768052734
 31
0.0
  0
LINE
  5
1792C
330
1765E
100
AcDbEntity
  8
寸法
 62
     0
 48
50.0
370
    -2
100
AcDbLine
 10
8315.574030284606
 20
4932.931598713266
 30
0.0
 11
8315.574030284606
 21
5372.024768052734
 31
0.0
  0
LINE
  5
1792D
330
1765E
100
AcDbEntity
  8
寸法
 62
     0
 48
50.0
370
    -2
100
AcDbLine
 10
8315.574030284606
 20
5312.024768052735
 30
0.0
 11
8215.574030284606
 21
5312.024768052735
 31
0.0
  0
LINE
  5
1792E
330
1765E
100
AcDbEntity
  8
寸法
 62
     0
 48
50.0
370
    -2
100
AcDbLine
 10
8365.574030284607
 20
5312.024768052735
 30
0.0
 11
8785.106555753328
 21
5312.024768052735
 31
0.0
  0
LINE
  5
1792F
330
1765E
100
AcDbEntity
  8
寸法
 62
     0
 48
50.0
370
    -2
100
AcDbLine
 10
8315.574030284606
 20
5312.024768052735
 30
0.0
 11
8365.574030284607
 21
5312.024768052735
 31
0.0
  0
INSERT
  5
17930
330
1765E
100
AcDbEntity
  8
寸法
 62
     0
 48
50.0
370
    -2
100
AcDbBlockReference
  2
_DOTSMALL
 10
8315.574030284606
 20
5312.024768052735
 30
0.0
 41
100.0
 42
100.0
 43
100.0
  0
INSERT
  5
17931
330
1765E
100
AcDbEntity
  8
寸法
 62
     0
 48
50.0
370
    -2
100
AcDbBlockReference
  2
_DOTSMALL
 10
8365.574030284607
 20
5312.024768052735
 30
0.0
 41
100.0
 42
100.0
 43
100.0
 50
180.0
  0
MTEXT
  5
17932
330
1765E
100
AcDbEntity
  8
寸法
 62
     7
 48
50.0
100
AcDbMText
 10
8679.059311658843
 20
5412.024768052734
 30
0.0
 40
120.0
 41
0.0
 71
     5
 72
     1
  1
\A1;50
  7
STYLE1
 73
     1
 44
1.0
1001
ACAD
1000
MTEXTBEGIN
1070
    73
1070
     1
1070
    44
1040
1.0
1070
    74
1070
     0
1000
MTEXTEND
  0
POINT
  5
17933
330
1765E
100
AcDbEntity
  8
DEFPOINTS
 62
     0
 48
50.0
100
AcDbPoint
 10
8365.574030284607
 20
4912.931598713264
 30
0.0
  0
POINT
  5
17934
330
1765E
100
AcDbEntity
  8
DEFPOINTS
 62
     0
 48
50.0
100
AcDbPoint
 10
8315.574030284606
 20
4912.931598713266
 30
0.0
  0
POINT
  5
17935
330
1765E
100
AcDbEntity
  8
DEFPOINTS
 62
     0
 48
50.0
100
AcDbPoint
 10
8315.574030284606
 20
5312.024768052735
 30
0.0
  0
ENDBLK
  5
1766B
330
1765E
100
AcDbEntity
  8
0
 48
50.0
100
AcDbBlockEnd
  0
BLOCK
  5
17676
330
1766C
100
AcDbEntity
  8
0
 48
50.0
100
AcDbBlockBegin
  2
*D25
 70
     1
 10
0.0
 20
0.0
 30
0.0
  3
*D25
  1

  0
LINE
  5
18574
330
1766C
100
AcDbEntity
  8
寸法
 62
     0
 48
50.0
370
    -2
100
AcDbLine
 10
3005.574030284606
 20
4932.931598713266
 30
0.0
 11
3005.574030284606
 21
5588.55086767118
 31
0.0
  0
LINE
  5
18575
330
1766C
100
AcDbEntity
  8
寸法
 62
     0
 48
50.0
370
    -2
100
AcDbLine
 10
8365.574030284607
 20
4932.931598713264
 30
0.0
 11
8365.574030284607
 21
5588.55086767118
 31
0.0
  0
LINE
  5
18576
330
1766C
100
AcDbEntity
  8
寸法
 62
     0
 48
50.0
370
    -2
100
AcDbLine
 10
3005.574030284606
 20
5528.55086767118
 30
0.0
 11
8365.574030284607
 21
5528.55086767118
 31
0.0
  0
INSERT
  5
18577
330
1766C
100
AcDbEntity
  8
寸法
 62
     0
 48
50.0
370
    -2
100
AcDbBlockReference
  2
_DOTSMALL
 10
3005.574030284606
 20
5528.55086767118
 30
0.0
 41
100.0
 42
100.0
 43
100.0
 50
180.0
  0
INSERT
  5
18578
330
1766C
100
AcDbEntity
  8
寸法
 62
     0
 48
50.0
370
    -2
100
AcDbBlockReference
  2
_DOTSMALL
 10
8365.574030284607
 20
5528.55086767118
 30
0.0
 41
100.0
 42
100.0
 43
100.0
  0
MTEXT
  5
18579
330
1766C
100
AcDbEntity
  8
寸法
 62
     7
 48
50.0
100
AcDbMText
 10
5685.574030284606
 20
5628.550867671179
 30
0.0
 40
120.0
 41
0.0
 71
     5
 72
     1
  1
\A1;5360
  7
STYLE1
 73
     1
 44
1.0
1001
ACAD
1000
MTEXTBEGIN
1070
    73
1070
     1
1070
    44
1040
1.0
1070
    74
1070
     0
1000
MTEXTEND
  0
POINT
  5
1857A
330
1766C
100
AcDbEntity
  8
DEFPOINTS
 62
     0
 48
50.0
100
AcDbPoint
 10
3005.574030284606
 20
4912.931598713266
 30
0.0
  0
POINT
  5
1857B
330
1766C
100
AcDbEntity
  8
DEFPOINTS
 62
     0
 48
50.0
100
AcDbPoint
 10
8365.574030284607
 20
4912.931598713264
 30
0.0
  0
POINT
  5
1857C
330
1766C
100
AcDbEntity
  8
DEFPOINTS
 62
     0
 48
50.0
100
AcDbPoint
 10
8365.574030284607
 20
5528.55086767118
 30
0.0
  0
ENDBLK
  5
17677
330
1766C
100
AcDbEntity
  8
0
 48
50.0
100
AcDbBlockEnd
  0
BLOCK
  5
17BC0
330
17BB6
100
AcDbEntity
  8
0
 48
50.0
100
AcDbBlockBegin
  2
*D26
 70
     1
 10
0.0
 20
0.0
 30
0.0
  3
*D26
  1

  0
LINE
  5
17D01
330
17BB6
100
AcDbEntity
  8
寸法
 62
     0
 48
50.0
370
    -2
100
AcDbLine
 10
10605.47043893114
 20
4677.931598713261
 30
0.0
 11
9721.720309747881
 21
4677.931598713263
 31
0.0
  0
LINE
  5
17D02
330
17BB6
100
AcDbEntity
  8
寸法
 62
     0
 48
50.0
370
    -2
100
AcDbLine
 10
10605.47043893114
 20
2587.93159871326
 30
0.0
 11
9721.72030974788
 21
2587.93159871326
 31
0.0
  0
LINE
  5
17D03
330
17BB6
100
AcDbEntity
  8
寸法
 62
     0
 48
50.0
370
    -2
100
AcDbLine
 10
9781.720309747882
 20
4677.931598713263
 30
0.0
 11
9781.72030974788
 21
2587.93159871326
 31
0.0
  0
INSERT
  5
17D04
330
17BB6
100
AcDbEntity
  8
寸法
 62
     0
 48
50.0
370
    -2
100
AcDbBlockReference
  2
_DOTSMALL
 10
9781.720309747882
 20
4677.931598713263
 30
0.0
 41
100.0
 42
100.0
 43
100.0
 50
90.0
  0
INSERT
  5
17D05
330
17BB6
100
AcDbEntity
  8
寸法
 62
     0
 48
50.0
370
    -2
100
AcDbBlockReference
  2
_DOTSMALL
 10
9781.72030974788
 20
2587.93159871326
 30
0.0
 41
100.0
 42
100.0
 43
100.0
 50
270.0
  0
MTEXT
  5
17D06
330
17BB6
100
AcDbEntity
  8
寸法
 62
     7
 48
50.0
100
AcDbMText
 10
9681.708498724258
 20
3632.931598713263
 30
0.0
 40
120.0
 41
0.0
 71
     5
 72
     1
  1
\A1;2090
  7
STYLE1
 11
0.0000000000000001
 21
1.0
 31
0.0
 73
     1
 44
1.0
1001
ACAD
1000
MTEXTBEGIN
1070
    73
1070
     1
1070
    44
1040
1.0
1070
    74
1070
     0
1000
MTEXTEND
  0
POINT
  5
17D07
330
17BB6
100
AcDbEntity
  8
DEFPOINTS
 62
     0
 48
50.0
100
AcDbPoint
 10
10625.47043893114
 20
4677.931598713261
 30
0.0
  0
POINT
  5
17D08
330
17BB6
100
AcDbEntity
  8
DEFPOINTS
 62
     0
 48
50.0
100
AcDbPoint
 10
10625.47043893114
 20
2587.93159871326
 30
0.0
  0
POINT
  5
17D09
330
17BB6
100
AcDbEntity
  8
DEFPOINTS
 62
     0
 48
50.0
100
AcDbPoint
 10
9781.72030974788
 20
2587.93159871326
 30
0.0
  0
ENDBLK
  5
17BC1
330
17BB6
100
AcDbEntity
  8
0
 48
50.0
100
AcDbBlockEnd
  0
BLOCK
  5
17BCC
330
17BC2
100
AcDbEntity
  8
0
 48
50.0
100
AcDbBlockBegin
  2
*D27
 70
     1
 10
0.0
 20
0.0
 30
0.0
  3
*D27
  1

  0
LINE
  5
17CF8
330
17BC2
100
AcDbEntity
  8
寸法
 62
     0
 48
50.0
370
    -2
100
AcDbLine
 10
10605.47043893114
 20
2537.93159871326
 30
0.0
 11
9421.720309747877
 21
2537.93159871326
 31
0.0
  0
LINE
  5
17CF9
330
17BC2
100
AcDbEntity
  8
寸法
 62
     0
 48
50.0
370
    -2
100
AcDbLine
 10
10545.47043893114
 20
4912.931598713265
 30
0.0
 11
9421.720309747881
 21
4912.931598713266
 31
0.0
  0
LINE
  5
17CFA
330
17BC2
100
AcDbEntity
  8
寸法
 62
     0
 48
50.0
370
    -2
100
AcDbLine
 10
9481.720309747878
 20
2537.93159871326
 30
0.0
 11
9481.720309747879
 21
4912.931598713266
 31
0.0
  0
INSERT
  5
17CFB
330
17BC2
100
AcDbEntity
  8
寸法
 62
     0
 48
50.0
370
    -2
100
AcDbBlockReference
  2
_DOTSMALL
 10
9481.720309747878
 20
2537.93159871326
 30
0.0
 41
100.0
 42
100.0
 43
100.0
 50
270.0
  0
INSERT
  5
17CFC
330
17BC2
100
AcDbEntity
  8
寸法
 62
     0
 48
50.0
370
    -2
100
AcDbBlockReference
  2
_DOTSMALL
 10
9481.720309747879
 20
4912.931598713266
 30
0.0
 41
100.0
 42
100.0
 43
100.0
 50
90.0
  0
MTEXT
  5
17CFD
330
17BC2
100
AcDbEntity
  8
寸法
 62
     7
 48
50.0
100
AcDbMText
 10
9381.708498724256
 20
3725.431598713265
 30
0.0
 40
120.0
 41
0.0
 71
     5
 72
     1
  1
\A1;2375
  7
STYLE1
 11
0.0000000000000001
 21
1.0
 31
0.0
 73
     1
 44
1.0
1001
ACAD
1000
MTEXTBEGIN
1070
    73
1070
     1
1070
    44
1040
1.0
1070
    74
1070
     0
1000
MTEXTEND
  0
POINT
  5
17CFE
330
17BC2
100
AcDbEntity
  8
DEFPOINTS
 62
     0
 48
50.0
100
AcDbPoint
 10
10625.47043893114
 20
2537.93159871326
 30
0.0
  0
POINT
  5
17CFF
330
17BC2
100
AcDbEntity
  8
DEFPOINTS
 62
     0
 48
50.0
100
AcDbPoint
 10
10565.47043893114
 20
4912.931598713265
 30
0.0
  0
POINT
  5
17D00
330
17BC2
100
AcDbEntity
  8
DEFPOINTS
 62
     0
 48
50.0
100
AcDbPoint
 10
9481.720309747879
 20
4912.931598713266
 30
0.0
  0
ENDBLK
  5
17BCD
330
17BC2
100
AcDbEntity
  8
0
 48
50.0
100
AcDbBlockEnd
  0
BLOCK
  5
17BD8
330
17BCE
100
AcDbEntity
  8
0
 48
50.0
100
AcDbBlockBegin
  2
*D28
 70
     1
 10
0.0
 20
0.0
 30
0.0
  3
*D28
  1

  0
LINE
  5
17CEF
330
17BCE
100
AcDbEntity
  8
寸法
 62
     0
 48
50.0
370
    -2
100
AcDbLine
 10
12855.47043893114
 20
2537.931598713262
 30
0.0
 11
13600.39759690327
 21
2537.931598713261
 31
0.0
  0
LINE
  5
17CF0
330
17BCE
100
AcDbEntity
  8
寸法
 62
     0
 48
50.0
370
    -2
100
AcDbLine
 10
12935.47043893114
 20
4857.931598713261
 30
0.0
 11
13600.39759690327
 21
4857.931598713261
 31
0.0
  0
LINE
  5
17CF1
330
17BCE
100
AcDbEntity
  8
寸法
 62
     0
 48
50.0
370
    -2
100
AcDbLine
 10
13540.39759690327
 20
2537.931598713261
 30
0.0
 11
13540.39759690327
 21
4857.931598713261
 31
0.0
  0
INSERT
  5
17CF2
330
17BCE
100
AcDbEntity
  8
寸法
 62
     0
 48
50.0
370
    -2
100
AcDbBlockReference
  2
_DOTSMALL
 10
13540.39759690327
 20
2537.931598713261
 30
0.0
 41
100.0
 42
100.0
 43
100.0
 50
270.0
  0
INSERT
  5
17CF3
330
17BCE
100
AcDbEntity
  8
寸法
 62
     0
 48
50.0
370
    -2
100
AcDbBlockReference
  2
_DOTSMALL
 10
13540.39759690327
 20
4857.931598713261
 30
0.0
 41
100.0
 42
100.0
 43
100.0
 50
90.0
  0
MTEXT
  5
17CF4
330
17BCE
100
AcDbEntity
  8
寸法
 62
     7
 48
50.0
100
AcDbMText
 10
13440.38578587964
 20
3697.931598713263
 30
0.0
 40
120.0
 41
0.0
 71
     5
 72
     1
  1
\A1;2320
  7
STYLE1
 11
0.0000000000000001
 21
1.0
 31
0.0
 73
     1
 44
1.0
1001
ACAD
1000
MTEXTBEGIN
1070
    73
1070
     1
1070
    44
1040
1.0
1070
    74
1070
     0
1000
MTEXTEND
  0
POINT
  5
17CF5
330
17BCE
100
AcDbEntity
  8
DEFPOINTS
 62
     0
 48
50.0
100
AcDbPoint
 10
12835.47043893114
 20
2537.931598713262
 30
0.0
  0
POINT
  5
17CF6
330
17BCE
100
AcDbEntity
  8
DEFPOINTS
 62
     0
 48
50.0
100
AcDbPoint
 10
12915.47043893114
 20
4857.931598713261
 30
0.0
  0
POINT
  5
17CF7
330
17BCE
100
AcDbEntity
  8
DEFPOINTS
 62
     0
 48
50.0
100
AcDbPoint
 10
13540.39759690327
 20
4857.931598713261
 30
0.0
  0
ENDBLK
  5
17BD9
330
17BCE
100
AcDbEntity
  8
0
 48
50.0
100
AcDbBlockEnd
  0
BLOCK
  5
17BF3
330
17BE7
100
AcDbEntity
  8
0
 48
50.0
100
AcDbBlockBegin
  2
*D29
 70
     1
 10
0.0
 20
0.0
 30
0.0
  3
*D29
  1

  0
LINE
  5
17CDA
330
17BE7
100
AcDbEntity
  8
寸法
 62
     0
 48
50.0
370
    -2
100
AcDbLine
 10
10605.47043893114
 20
2587.931598713261
 30
0.0
 11
9721.72030974788
 21
2587.931598713261
 31
0.0
  0
LINE
  5
17CDB
330
17BE7
100
AcDbEntity
  8
寸法
 62
     0
 48
50.0
370
    -2
100
AcDbLine
 10
10550.47043893114
 20
2537.931598713262
 30
0.0
 11
9721.72030974788
 21
2537.931598713262
 31
0.0
  0
LINE
  5
17CDC
330
17BE7
100
AcDbEntity
  8
寸法
 62
     0
 48
50.0
370
    -2
100
AcDbLine
 10
9781.72030974788
 20
2587.931598713261
 30
0.0
 11
9781.72030974788
 21
2687.931598713261
 31
0.0
  0
LINE
  5
17CDD
330
17BE7
100
AcDbEntity
  8
寸法
 62
     0
 48
50.0
370
    -2
100
AcDbLine
 10
9781.72030974788
 20
2537.931598713262
 30
0.0
 11
9781.72030974788
 21
2125.837110524281
 31
0.0
  0
LINE
  5
17CDE
330
17BE7
100
AcDbEntity
  8
寸法
 62
     0
 48
50.0
370
    -2
100
AcDbLine
 10
9781.72030974788
 20
2587.931598713261
 30
0.0
 11
9781.72030974788
 21
2537.931598713262
 31
0.0
  0
INSERT
  5
17CDF
330
17BE7
100
AcDbEntity
  8
寸法
 62
     0
 48
50.0
370
    -2
100
AcDbBlockReference
  2
_DOTSMALL
 10
9781.72030974788
 20
2587.931598713261
 30
0.0
 41
100.0
 42
100.0
 43
100.0
 50
270.0
  0
INSERT
  5
17CE0
330
17BE7
100
AcDbEntity
  8
寸法
 62
     0
 48
50.0
370
    -2
100
AcDbBlockReference
  2
_DOTSMALL
 10
9781.72030974788
 20
2537.931598713262
 30
0.0
 41
100.0
 42
100.0
 43
100.0
 50
90.0
  0
MTEXT
  5
17CE1
330
17BE7
100
AcDbEntity
  8
寸法
 62
     7
 48
50.0
100
AcDbMText
 10
9681.720309747881
 20
2231.884354618771
 30
0.0
 40
120.0
 41
0.0
 71
     5
 72
     1
  1
\A1;50
  7
STYLE1
 11
0.0000000000000001
 21
1.0
 31
0.0
 73
     1
 44
1.0
1001
ACAD
1000
MTEXTBEGIN
1070
    73
1070
     1
1070
    44
1040
1.0
1070
    74
1070
     0
1000
MTEXTEND
  0
POINT
  5
17CE2
330
17BE7
100
AcDbEntity
  8
DEFPOINTS
 62
     0
 48
50.0
100
AcDbPoint
 10
10625.47043893114
 20
2587.931598713261
 30
0.0
  0
POINT
  5
17CE3
330
17BE7
100
AcDbEntity
  8
DEFPOINTS
 62
     0
 48
50.0
100
AcDbPoint
 10
10570.47043893114
 20
2537.931598713262
 30
0.0
  0
POINT
  5
17CE4
330
17BE7
100
AcDbEntity
  8
DEFPOINTS
 62
     0
 48
50.0
100
AcDbPoint
 10
9781.72030974788
 20
2537.931598713262
 30
0.0
  0
ENDBLK
  5
17BF4
330
17BE7
100
AcDbEntity
  8
0
 48
50.0
100
AcDbBlockEnd
  0
BLOCK
  5
17BFF
330
17BF5
100
AcDbEntity
  8
0
 48
50.0
100
AcDbBlockBegin
  2
*D30
 70
     1
 10
0.0
 20
0.0
 30
0.0
  3
*D30
  1

  0
LINE
  5
1858F
330
17BF5
100
AcDbEntity
  8
寸法
 62
     0
 48
50.0
370
    -2
100
AcDbLine
 10
12835.47043893114
 20
4879.742278324915
 30
0.0
 11
12835.47043893114
 21
5371.589052292566
 31
0.0
  0
LINE
  5
18590
330
17BF5
100
AcDbEntity
  8
寸法
 62
     0
 48
50.0
370
    -2
100
AcDbLine
 10
10625.47043893114
 20
4928.933216836238
 30
0.0
 11
10625.47043893114
 21
5371.589052292566
 31
0.0
  0
LINE
  5
18591
330
17BF5
100
AcDbEntity
  8
寸法
 62
     0
 48
50.0
370
    -2
100
AcDbLine
 10
12835.47043893114
 20
5311.589052292566
 30
0.0
 11
10625.47043893114
 21
5311.589052292566
 31
0.0
  0
INSERT
  5
18592
330
17BF5
100
AcDbEntity
  8
寸法
 62
     0
 48
50.0
370
    -2
100
AcDbBlockReference
  2
_DOTSMALL
 10
12835.47043893114
 20
5311.589052292566
 30
0.0
 41
100.0
 42
100.0
 43
100.0
  0
INSERT
  5
18593
330
17BF5
100
AcDbEntity
  8
寸法
 62
     0
 48
50.0
370
    -2
100
AcDbBlockReference
  2
_DOTSMALL
 10
10625.47043893114
 20
5311.589052292566
 30
0.0
 41
100.0
 42
100.0
 43
100.0
 50
180.0
  0
MTEXT
  5
18594
330
17BF5
100
AcDbEntity
  8
寸法
 62
     7
 48
50.0
100
AcDbMText
 10
11730.47043893114
 20
5411.600863316188
 30
0.0
 40
120.0
 41
0.0
 71
     5
 72
     1
  1
\A1;柱外寸法2210
  7
STYLE1
 73
     1
 44
1.0
1001
ACAD
1000
MTEXTBEGIN
1070
    73
1070
     1
1070
    44
1040
1.0
1070
    74
1070
     0
1000
MTEXTEND
  0
POINT
  5
18595
330
17BF5
100
AcDbEntity
  8
DEFPOINTS
 62
     0
 48
50.0
100
AcDbPoint
 10
12835.47043893114
 20
4859.742278324915
 30
0.0
  0
POINT
  5
18596
330
17BF5
100
AcDbEntity
  8
DEFPOINTS
 62
     0
 48
50.0
100
AcDbPoint
 10
10625.47043893114
 20
4908.933216836238
 30
0.0
  0
POINT
  5
18597
330
17BF5
100
AcDbEntity
  8
DEFPOINTS
 62
     0
 48
50.0
100
AcDbPoint
 10
10625.47043893114
 20
5311.589052292566
 30
0.0
  0
ENDBLK
  5
17C00
330
17BF5
100
AcDbEntity
  8
0
 48
50.0
100
AcDbBlockEnd
  0
BLOCK
  5
17C0D
330
17C01
100
AcDbEntity
  8
0
 48
50.0
100
AcDbBlockBegin
  2
*D31
 70
     1
 10
0.0
 20
0.0
 30
0.0
  3
*D31
  1

  0
LINE
  5
17CC6
330
17C01
100
AcDbEntity
  8
寸法
 62
     0
 48
50.0
370
    -2
100
AcDbLine
 10
10625.47043893114
 20
4928.933216836238
 30
0.0
 11
10625.47043893114
 21
5371.589052292566
 31
0.0
  0
LINE
  5
17CC7
330
17C01
100
AcDbEntity
  8
寸法
 62
     0
 48
50.0
370
    -2
100
AcDbLine
 10
10565.47043893114
 20
4932.931598713265
 30
0.0
 11
10565.47043893114
 21
5371.589052292566
 31
0.0
  0
LINE
  5
17CC8
330
17C01
100
AcDbEntity
  8
寸法
 62
     0
 48
50.0
370
    -2
100
AcDbLine
 10
10625.47043893114
 20
5311.589052292566
 30
0.0
 11
10725.47043893114
 21
5311.589052292566
 31
0.0
  0
LINE
  5
17CC9
330
17C01
100
AcDbEntity
  8
寸法
 62
     0
 48
50.0
370
    -2
100
AcDbLine
 10
10565.47043893114
 20
5311.589052292566
 30
0.0
 11
10146.19484837996
 21
5311.589052292566
 31
0.0
  0
LINE
  5
17CCA
330
17C01
100
AcDbEntity
  8
寸法
 62
     0
 48
50.0
370
    -2
100
AcDbLine
 10
10625.47043893114
 20
5311.589052292566
 30
0.0
 11
10565.47043893114
 21
5311.589052292566
 31
0.0
  0
INSERT
  5
17CCB
330
17C01
100
AcDbEntity
  8
寸法
 62
     0
 48
50.0
370
    -2
100
AcDbBlockReference
  2
_DOTSMALL
 10
10625.47043893114
 20
5311.589052292566
 30
0.0
 41
100.0
 42
100.0
 43
100.0
 50
180.0
  0
INSERT
  5
17CCC
330
17C01
100
AcDbEntity
  8
寸法
 62
     0
 48
50.0
370
    -2
100
AcDbBlockReference
  2
_DOTSMALL
 10
10565.47043893114
 20
5311.589052292566
 30
0.0
 41
100.0
 42
100.0
 43
100.0
  0
MTEXT
  5
17CCD
330
17C01
100
AcDbEntity
  8
寸法
 62
     7
 48
50.0
100
AcDbMText
 10
10255.83264365555
 20
5411.589052292566
 30
0.0
 40
120.0
 41
0.0
 71
     5
 72
     1
  1
\A1;60
  7
STYLE1
 73
     1
 44
1.0
1001
ACAD
1000
MTEXTBEGIN
1070
    73
1070
     1
1070
    44
1040
1.0
1070
    74
1070
     0
1000
MTEXTEND
  0
POINT
  5
17CCE
330
17C01
100
AcDbEntity
  8
DEFPOINTS
 62
     0
 48
50.0
100
AcDbPoint
 10
10625.47043893114
 20
4908.933216836238
 30
0.0
  0
POINT
  5
17CCF
330
17C01
100
AcDbEntity
  8
DEFPOINTS
 62
     0
 48
50.0
100
AcDbPoint
 10
10565.47043893114
 20
4912.931598713265
 30
0.0
  0
POINT
  5
17CD0
330
17C01
100
AcDbEntity
  8
DEFPOINTS
 62
     0
 48
50.0
100
AcDbPoint
 10
10565.47043893114
 20
5311.589052292566
 30
0.0
  0
ENDBLK
  5
17C0E
330
17C01
100
AcDbEntity
  8
0
 48
50.0
100
AcDbBlockEnd
  0
BLOCK
  5
17C19
330
17C0F
100
AcDbEntity
  8
0
 48
50.0
100
AcDbBlockBegin
  2
*D32
 70
     1
 10
0.0
 20
0.0
 30
0.0
  3
*D32
  1

  0
LINE
  5
18586
330
17C0F
100
AcDbEntity
  8
寸法
 62
     0
 48
50.0
370
    -2
100
AcDbLine
 10
12915.47043893114
 20
4877.931598713261
 30
0.0
 11
12915.47043893114
 21
5590.790885966857
 31
0.0
  0
LINE
  5
18587
330
17C0F
100
AcDbEntity
  8
寸法
 62
     0
 48
50.0
370
    -2
100
AcDbLine
 10
10565.47043893114
 20
4932.931598713265
 30
0.0
 11
10565.47043893114
 21
5590.790885966857
 31
0.0
  0
LINE
  5
18588
330
17C0F
100
AcDbEntity
  8
寸法
 62
     0
 48
50.0
370
    -2
100
AcDbLine
 10
12915.47043893114
 20
5530.790885966857
 30
0.0
 11
10565.47043893114
 21
5530.790885966857
 31
0.0
  0
INSERT
  5
18589
330
17C0F
100
AcDbEntity
  8
寸法
 62
     0
 48
50.0
370
    -2
100
AcDbBlockReference
  2
_DOTSMALL
 10
12915.47043893114
 20
5530.790885966857
 30
0.0
 41
100.0
 42
100.0
 43
100.0
  0
INSERT
  5
1858A
330
17C0F
100
AcDbEntity
  8
寸法
 62
     0
 48
50.0
370
    -2
100
AcDbBlockReference
  2
_DOTSMALL
 10
10565.47043893114
 20
5530.790885966857
 30
0.0
 41
100.0
 42
100.0
 43
100.0
 50
180.0
  0
MTEXT
  5
1858B
330
17C0F
100
AcDbEntity
  8
寸法
 62
     7
 48
50.0
100
AcDbMText
 10
11740.47043893114
 20
5630.802696990478
 30
0.0
 40
120.0
 41
0.0
 71
     5
 72
     1
  1
\A1;2350
  7
STYLE1
 73
     1
 44
1.0
1001
ACAD
1000
MTEXTBEGIN
1070
    73
1070
     1
1070
    44
1040
1.0
1070
    74
1070
     0
1000
MTEXTEND
  0
POINT
  5
1858C
330
17C0F
100
AcDbEntity
  8
DEFPOINTS
 62
     0
 48
50.0
100
AcDbPoint
 10
12915.47043893114
 20
4857.931598713261
 30
0.0
  0
POINT
  5
1858D
330
17C0F
100
AcDbEntity
  8
DEFPOINTS
 62
     0
 48
50.0
100
AcDbPoint
 10
10565.47043893114
 20
4912.931598713265
 30
0.0
  0
POINT
  5
1858E
330
17C0F
100
AcDbEntity
  8
DEFPOINTS
 62
     0
 48
50.0
100
AcDbPoint
 10
10565.47043893114
 20
5530.790885966857
 30
0.0
  0
ENDBLK
  5
17C1A
330
17C0F
100
AcDbEntity
  8
0
 48
50.0
100
AcDbBlockEnd
  0
BLOCK
  5
17C26
330
17C1B
100
AcDbEntity
  8
0
 48
50.0
100
AcDbBlockBegin
  2
*D33
 70
     1
 10
0.0
 20
0.0
 30
0.0
  3
*D33
  1

  0
LINE
  5
17CB3
330
17C1B
100
AcDbEntity
  8
寸法
 62
     0
 48
50.0
370
    -2
100
AcDbLine
 10
12835.47043893114
 20
4879.742278324915
 30
0.0
 11
12835.47043893114
 21
5371.589052292566
 31
0.0
  0
LINE
  5
17CB4
330
17C1B
100
AcDbEntity
  8
寸法
 62
     0
 48
50.0
370
    -2
100
AcDbLine
 10
12915.47043893114
 20
4877.931598713261
 30
0.0
 11
12915.47043893114
 21
5371.589052292566
 31
0.0
  0
LINE
  5
17CB5
330
17C1B
100
AcDbEntity
  8
寸法
 62
     0
 48
50.0
370
    -2
100
AcDbLine
 10
12835.47043893114
 20
5311.589052292566
 30
0.0
 11
12915.47043893114
 21
5311.589052292566
 31
0.0
  0
LINE
  5
17CB6
330
17C1B
100
AcDbEntity
  8
寸法
 62
     0
 48
50.0
370
    -2
100
AcDbLine
 10
12915.47043893114
 20
5311.589052292566
 30
0.0
 11
13227.56492712012
 21
5311.589052292566
 31
0.0
  0
INSERT
  5
17CB7
330
17C1B
100
AcDbEntity
  8
寸法
 62
     0
 48
50.0
370
    -2
100
AcDbBlockReference
  2
_DOTSMALL
 10
12835.47043893114
 20
5311.589052292566
 30
0.0
 41
100.0
 42
100.0
 43
100.0
 50
180.0
  0
INSERT
  5
17CB8
330
17C1B
100
AcDbEntity
  8
寸法
 62
     0
 48
50.0
370
    -2
100
AcDbBlockReference
  2
_DOTSMALL
 10
12915.47043893114
 20
5311.589052292566
 30
0.0
 41
100.0
 42
100.0
 43
100.0
  0
MTEXT
  5
17CB9
330
17C1B
100
AcDbEntity
  8
寸法
 62
     7
 48
50.0
100
AcDbMText
 10
13121.51768302563
 20
5411.589052292566
 30
0.0
 40
120.0
 41
0.0
 71
     5
 72
     1
  1
\A1;80
  7
STYLE1
 73
     1
 44
1.0
1001
ACAD
1000
MTEXTBEGIN
1070
    73
1070
     1
1070
    44
1040
1.0
1070
    74
1070
     0
1000
MTEXTEND
  0
POINT
  5
17CBA
330
17C1B
100
AcDbEntity
  8
DEFPOINTS
 62
     0
 48
50.0
100
AcDbPoint
 10
12835.47043893114
 20
4859.742278324915
 30
0.0
  0
POINT
  5
17CBB
330
17C1B
100
AcDbEntity
  8
DEFPOINTS
 62
     0
 48
50.0
100
AcDbPoint
 10
12915.47043893114
 20
4857.931598713261
 30
0.0
  0
POINT
  5
17CBC
330
17C1B
100
AcDbEntity
  8
DEFPOINTS
 62
     0
 48
50.0
100
AcDbPoint
 10
12915.47043893114
 20
5311.589052292566
 30
0.0
  0
ENDBLK
  5
17C27
330
17C1B
100
AcDbEntity
  8
0
 48
50.0
100
AcDbBlockEnd
  0
BLOCK
  5
17C33
330
17C28
100
AcDbEntity
  8
0
 48
50.0
100
AcDbBlockBegin
  2
*D34
 70
     1
 10
0.0
 20
0.0
 30
0.0
  3
*D34
  1

  0
LINE
  5
17CA9
330
17C28
100
AcDbEntity
  8
寸法
 62
     0
 48
50.0
370
    -2
100
AcDbLine
 10
10564.87472522224
 20
4912.229305782924
 30
0.0
 11
9948.940286116963
 21
4929.943456057253
 31
0.0
  0
LINE
  5
17CAA
330
17C28
100
AcDbEntity
  8
寸法
 62
     0
 48
50.0
370
    -2
100
AcDbLine
 10
10560.82126966561
 20
4771.28758201721
 30
0.0
 11
9944.886830560335
 21
4789.001732291541
 31
0.0
  0
LINE
  5
17CAB
330
17C28
100
AcDbEntity
  8
寸法
 62
     0
 48
50.0
370
    -2
100
AcDbLine
 10
10004.86203216277
 20
4787.276857586592
 30
0.0
 11
10008.91548771939
 21
4928.218581352306
 31
0.0
  0
LINE
  5
17CAC
330
17C28
100
AcDbEntity
  8
寸法
 62
     0
 48
50.0
370
    -2
100
AcDbLine
 10
10008.91548771939
 20
4928.218581352306
 30
0.0
 11
10019.26473594908
 21
5288.069790966892
 31
0.0
  0
INSERT
  5
17CAD
330
17C28
100
AcDbEntity
  8
寸法
 62
     0
 48
50.0
370
    -2
100
AcDbBlockReference
  2
_DOTSMALL
 10
10004.86203216277
 20
4787.276857586592
 30
0.0
 41
100.0
 42
100.0
 43
100.0
 50
268.3526390256378
  0
INSERT
  5
17CAE
330
17C28
100
AcDbEntity
  8
寸法
 62
     0
 48
50.0
370
    -2
100
AcDbBlockReference
  2
_DOTSMALL
 10
10008.91548771939
 20
4928.218581352306
 30
0.0
 41
100.0
 42
100.0
 43
100.0
 50
88.35263902563776
  0
MTEXT
  5
17CAF
330
17C28
100
AcDbEntity
  8
寸法
 62
     7
 48
50.0
100
AcDbMText
 10
9915.568838084308
 20
5160.998312003204
 30
0.0
 40
120.0
 41
0.0
 71
     5
 72
     1
  1
\A1;141
  7
STYLE1
 11
0.0287479117491237
 21
0.9995866933738488
 31
0.0
 73
     1
 44
1.0
1001
ACAD
1000
MTEXTBEGIN
1070
    73
1070
     1
1070
    44
1040
1.0
1070
    74
1070
     0
1000
MTEXTEND
  0
POINT
  5
17CB0
330
17C28
100
AcDbEntity
  8
DEFPOINTS
 62
     0
 48
50.0
100
AcDbPoint
 10
10584.86645908971
 20
4911.654347547941
 30
0.0
  0
POINT
  5
17CB1
330
17C28
100
AcDbEntity
  8
DEFPOINTS
 62
     0
 48
50.0
100
AcDbPoint
 10
10580.81300353309
 20
4770.712623782228
 30
0.0
  0
POINT
  5
17CB2
330
17C28
100
AcDbEntity
  8
DEFPOINTS
 62
     0
 48
50.0
100
AcDbPoint
 10
10004.86203216277
 20
4787.276857586592
 30
0.0
  0
ENDBLK
  5
17C34
330
17C28
100
AcDbEntity
  8
0
 48
50.0
100
AcDbBlockEnd
  0
BLOCK
  5
17F50
330
17F45
100
AcDbEntity
  8
0
 48
50.0
100
AcDbBlockBegin
  2
*D35
 70
     1
 10
0.0
 20
0.0
 30
0.0
  3
*D35
  1

  0
LINE
  5
185C8
330
17F45
100
AcDbEntity
  8
寸法
 62
     0
 48
50.0
370
    -2
100
AcDbLine
 10
8335.574030284602
 20
4512.931598713262
 30
0.0
 11
8663.11713260635
 21
4512.931598713262
 31
0.0
  0
LINE
  5
185C9
330
17F45
100
AcDbEntity
  8
寸法
 62
     0
 48
50.0
370
    -2
100
AcDbLine
 10
8335.574030284602
 20
4677.931598713261
 30
0.0
 11
8663.11713260635
 21
4677.931598713261
 31
0.0
  0
LINE
  5
185CA
330
17F45
100
AcDbEntity
  8
寸法
 62
     0
 48
50.0
370
    -2
100
AcDbLine
 10
8603.11713260635
 20
4512.931598713262
 30
0.0
 11
8603.11713260635
 21
4677.931598713261
 31
0.0
  0
LINE
  5
185CB
330
17F45
100
AcDbEntity
  8
寸法
 62
     0
 48
50.0
370
    -2
100
AcDbLine
 10
8603.11713260635
 20
4677.931598713261
 30
0.0
 11
8603.11713260635
 21
5054.90216146174
 31
0.0
  0
INSERT
  5
185CC
330
17F45
100
AcDbEntity
  8
寸法
 62
     0
 48
50.0
370
    -2
100
AcDbBlockReference
  2
_DOTSMALL
 10
8603.11713260635
 20
4512.931598713262
 30
0.0
 41
100.0
 42
100.0
 43
100.0
 50
270.0
  0
INSERT
  5
185CD
330
17F45
100
AcDbEntity
  8
寸法
 62
     0
 48
50.0
370
    -2
100
AcDbBlockReference
  2
_DOTSMALL
 10
8603.11713260635
 20
4677.931598713261
 30
0.0
 41
100.0
 42
100.0
 43
100.0
 50
90.0
  0
MTEXT
  5
185CE
330
17F45
100
AcDbEntity
  8
寸法
 62
     7
 48
50.0
100
AcDbMText
 10
8503.117132606348
 20
4916.416880087502
 30
0.0
 40
120.0
 41
0.0
 71
     5
 72
     1
  1
\A1;165
  7
STYLE1
 11
0.0000000000000001
 21
1.0
 31
0.0
 73
     1
 44
1.0
1001
ACAD
1000
MTEXTBEGIN
1070
    73
1070
     1
1070
    44
1040
1.0
1070
    74
1070
     0
1000
MTEXTEND
  0
POINT
  5
185CF
330
17F45
100
AcDbEntity
  8
DEFPOINTS
 62
     0
 48
50.0
100
AcDbPoint
 10
8315.574030284603
 20
4512.931598713262
 30
0.0
  0
POINT
  5
185D0
330
17F45
100
AcDbEntity
  8
DEFPOINTS
 62
     0
 48
50.0
100
AcDbPoint
 10
8315.574030284603
 20
4677.931598713261
 30
0.0
  0
POINT
  5
185D1
330
17F45
100
AcDbEntity
  8
DEFPOINTS
 62
     0
 48
50.0
100
AcDbPoint
 10
8603.11713260635
 20
4677.931598713261
 30
0.0
  0
ENDBLK
  5
17F51
330
17F45
100
AcDbEntity
  8
0
 48
50.0
100
AcDbBlockEnd
  0
BLOCK
  5
17F5E
330
17F52
100
AcDbEntity
  8
0
 48
50.0
100
AcDbBlockBegin
  2
*D36
 70
     1
 10
0.0
 20
0.0
 30
0.0
  3
*D36
  1

  0
LINE
  5
185BD
330
17F52
100
AcDbEntity
  8
寸法
 62
     0
 48
50.0
370
    -2
100
AcDbLine
 10
8335.574030284602
 20
4485.93159871326
 30
0.0
 11
8663.11713260635
 21
4485.93159871326
 31
0.0
  0
LINE
  5
185BE
330
17F52
100
AcDbEntity
  8
寸法
 62
     0
 48
50.0
370
    -2
100
AcDbLine
 10
8335.574030284602
 20
4512.931598713262
 30
0.0
 11
8663.11713260635
 21
4512.931598713262
 31
0.0
  0
LINE
  5
185BF
330
17F52
100
AcDbEntity
  8
寸法
 62
     0
 48
50.0
370
    -2
100
AcDbLine
 10
8603.117132606348
 20
4485.93159871326
 30
0.0
 11
8603.117132606348
 21
4385.93159871326
 31
0.0
  0
LINE
  5
185C0
330
17F52
100
AcDbEntity
  8
寸法
 62
     0
 48
50.0
370
    -2
100
AcDbLine
 10
8603.117132606348
 20
4512.931598713262
 30
0.0
 11
8603.117132606348
 21
4612.931598713262
 31
0.0
  0
MTEXT
  5
185C1
330
17F52
100
AcDbEntity
  8
寸法
 62
     7
 48
50.0
100
AcDbMText
 10
8743.286955852715
 20
4513.89879855292
 30
0.0
 40
120.0
 41
0.0
 71
     5
 72
     1
  1
\A1;27
  7
STYLE1
 11
0.0000000000000001
 21
1.0
 31
0.0
 73
     1
 44
1.0
1001
ACAD
1000
MTEXTBEGIN
1070
    73
1070
     1
1070
    44
1040
1.0
1070
    74
1070
     0
1000
MTEXTEND
  0
LINE
  5
185C2
330
17F52
100
AcDbEntity
  8
寸法
 62
     0
 48
50.0
370
    -2
100
AcDbLine
 10
8603.117132606348
 20
4485.93159871326
 30
0.0
 11
8603.117132606348
 21
4512.931598713262
 31
0.0
  0
INSERT
  5
185C3
330
17F52
100
AcDbEntity
  8
寸法
 62
     0
 48
50.0
370
    -2
100
AcDbBlockReference
  2
_DOTSMALL
 10
8603.117132606348
 20
4485.93159871326
 30
0.0
 41
100.0
 42
100.0
 43
100.0
 50
90.0
  0
INSERT
  5
185C4
330
17F52
100
AcDbEntity
  8
寸法
 62
     0
 48
50.0
370
    -2
100
AcDbBlockReference
  2
_DOTSMALL
 10
8603.117132606348
 20
4512.931598713262
 30
0.0
 41
100.0
 42
100.0
 43
100.0
 50
270.0
  0
POINT
  5
185C5
330
17F52
100
AcDbEntity
  8
DEFPOINTS
 62
     0
 48
50.0
100
AcDbPoint
 10
8315.574030284603
 20
4485.93159871326
 30
0.0
  0
POINT
  5
185C6
330
17F52
100
AcDbEntity
  8
DEFPOINTS
 62
     0
 48
50.0
100
AcDbPoint
 10
8315.574030284603
 20
4512.931598713262
 30
0.0
  0
POINT
  5
185C7
330
17F52
100
AcDbEntity
  8
DEFPOINTS
 62
     0
 48
50.0
100
AcDbPoint
 10
8603.117132606348
 20
4512.931598713262
 30
0.0
  0
ENDBLK
  5
17F5F
330
17F52
100
AcDbEntity
  8
0
 48
50.0
100
AcDbBlockEnd
  0
BLOCK
  5
17F6A
330
17F60
100
AcDbEntity
  8
0
 48
50.0
100
AcDbBlockBegin
  2
*D37
 70
     1
 10
0.0
 20
0.0
 30
0.0
  3
*D37
  1

  0
LINE
  5
17FC7
330
17F60
100
AcDbEntity
  8
寸法
 62
     0
 48
50.0
370
    -2
100
AcDbLine
 10
8335.574030284602
 20
2537.931598713262
 30
0.0
 11
8663.117132606346
 21
2537.931598713262
 31
0.0
  0
LINE
  5
17FC8
330
17F60
100
AcDbEntity
  8
寸法
 62
     0
 48
50.0
370
    -2
100
AcDbLine
 10
8335.574030284602
 20
4485.93159871326
 30
0.0
 11
8663.11713260635
 21
4485.93159871326
 31
0.0
  0
LINE
  5
17FC9
330
17F60
100
AcDbEntity
  8
寸法
 62
     0
 48
50.0
370
    -2
100
AcDbLine
 10
8603.117132606348
 20
2537.931598713262
 30
0.0
 11
8603.117132606348
 21
4485.93159871326
 31
0.0
  0
INSERT
  5
17FCA
330
17F60
100
AcDbEntity
  8
寸法
 62
     0
 48
50.0
370
    -2
100
AcDbBlockReference
  2
_DOTSMALL
 10
8603.117132606348
 20
2537.931598713262
 30
0.0
 41
100.0
 42
100.0
 43
100.0
 50
270.0
  0
INSERT
  5
17FCB
330
17F60
100
AcDbEntity
  8
寸法
 62
     0
 48
50.0
370
    -2
100
AcDbBlockReference
  2
_DOTSMALL
 10
8603.117132606348
 20
4485.93159871326
 30
0.0
 41
100.0
 42
100.0
 43
100.0
 50
90.0
  0
MTEXT
  5
17FCC
330
17F60
100
AcDbEntity
  8
寸法
 62
     7
 48
50.0
100
AcDbMText
 10
8503.117132606346
 20
3511.931598713263
 30
0.0
 40
120.0
 41
0.0
 71
     5
 72
     1
  1
\A1;有効開口部高サ 1948
  7
STYLE1
 11
0.0000000000000001
 21
1.0
 31
0.0
 73
     1
 44
1.0
1001
ACAD
1000
MTEXTBEGIN
1070
    73
1070
     1
1070
    44
1040
1.0
1070
    74
1070
     0
1000
MTEXTEND
  0
POINT
  5
17FCD
330
17F60
100
AcDbEntity
  8
DEFPOINTS
 62
     0
 48
50.0
100
AcDbPoint
 10
8315.574030284603
 20
2537.931598713262
 30
0.0
  0
POINT
  5
17FCE
330
17F60
100
AcDbEntity
  8
DEFPOINTS
 62
     0
 48
50.0
100
AcDbPoint
 10
8315.574030284603
 20
4485.93159871326
 30
0.0
  0
POINT
  5
17FCF
330
17F60
100
AcDbEntity
  8
DEFPOINTS
 62
     0
 48
50.0
100
AcDbPoint
 10
8603.117132606348
 20
4485.93159871326
 30
0.0
  0
ENDBLK
  5
17F6B
330
17F60
100
AcDbEntity
  8
0
 48
50.0
100
AcDbBlockEnd
  0
BLOCK
  5
1841E
330
18414
100
AcDbEntity
  8
0
 48
50.0
100
AcDbBlockBegin
  2
*D38
 70
     1
 10
0.0
 20
0.0
 30
0.0
  3
*D38
  1

  0
LINE
  5
18466
330
18414
100
AcDbEntity
  8
寸法
 62
     0
 48
50.0
370
    -2
100
AcDbLine
 10
5785.574030284688
 20
8932.072564575181
 30
0.0
 11
6082.415390545516
 21
8932.072564575181
 31
0.0
  0
LINE
  5
18467
330
18414
100
AcDbEntity
  8
寸法
 62
     0
 48
50.0
370
    -2
100
AcDbLine
 10
5760.574030284914
 20
9648.572564575337
 30
0.0
 11
6082.415390545516
 21
9648.572564575337
 31
0.0
  0
LINE
  5
18468
330
18414
100
AcDbEntity
  8
寸法
 62
     0
 48
50.0
370
    -2
100
AcDbLine
 10
6022.415390545516
 20
8932.072564575181
 30
0.0
 11
6022.415390545516
 21
9648.572564575337
 31
0.0
  0
INSERT
  5
18469
330
18414
100
AcDbEntity
  8
寸法
 62
     0
 48
50.0
370
    -2
100
AcDbBlockReference
  2
_DOTSMALL
 10
6022.415390545516
 20
8932.072564575181
 30
0.0
 41
100.0
 42
100.0
 43
100.0
 50
270.0
  0
INSERT
  5
1846A
330
18414
100
AcDbEntity
  8
寸法
 62
     0
 48
50.0
370
    -2
100
AcDbBlockReference
  2
_DOTSMALL
 10
6022.415390545516
 20
9648.572564575337
 30
0.0
 41
100.0
 42
100.0
 43
100.0
 50
90.0
  0
MTEXT
  5
1846B
330
18414
100
AcDbEntity
  8
寸法
 62
     7
 48
50.0
100
AcDbMText
 10
5922.415390545515
 20
9290.32256457526
 30
0.0
 40
120.0
 41
0.0
 71
     5
 72
     1
  1
\A1;716.5
  7
STYLE1
 11
0.0000000000000001
 21
1.0
 31
0.0
 73
     1
 44
1.0
1001
ACAD
1000
MTEXTBEGIN
1070
    73
1070
     1
1070
    44
1040
1.0
1070
    74
1070
     0
1000
MTEXTEND
  0
POINT
  5
1846C
330
18414
100
AcDbEntity
  8
DEFPOINTS
 62
     0
 48
50.0
100
AcDbPoint
 10
5765.574030284689
 20
8932.072564575181
 30
0.0
  0
POINT
  5
1846D
330
18414
100
AcDbEntity
  8
DEFPOINTS
 62
     0
 48
50.0
100
AcDbPoint
 10
5740.574030284914
 20
9648.572564575337
 30
0.0
  0
POINT
  5
1846E
330
18414
100
AcDbEntity
  8
DEFPOINTS
 62
     0
 48
50.0
100
AcDbPoint
 10
6022.415390545516
 20
9648.572564575337
 30
0.0
  0
ENDBLK
  5
1841F
330
18414
100
AcDbEntity
  8
0
 48
50.0
100
AcDbBlockEnd
  0
ENDSEC
  0
SECTION
  2
ENTITIES
  0
MTEXT
  5
763F
330
747D
100
AcDbEntity
  8
0
100
AcDbMText
 10
302.846345836809
 20
280.1983726409901
 30
0.0
 40
3.5
 41
5.323721266742722
 71
     1
 72
     5
  1

  7
MSMINCHO
 73
     1
 44
1.0
1001
ACAD
1000
MTEXTBEGIN
1070
    73
1070
     1
1070
    44
1040
1.0
1070
    74
1070
     0
1000
MTEXTEND
  0
LINE
  5
10B57
330
747D
100
AcDbEntity
  8
補助
  6
PHANTOM
 62
   230
 48
50.0
100
AcDbLine
 10
139.9999999999995
 20
11409.6
 30
0.0
 11
16307.2
 21
11409.6
 31
0.0
  0
LINE
  5
10B59
330
747D
100
AcDbEntity
  8
仕様書枠
  6
Continuous
 48
50.0
100
AcDbLine
 10
13107.2
 20
1200.0
 30
0.0
 11
13107.2
 21
-0.0000000000000729
 31
0.0
  0
LINE
  5
10B5C
330
747D
100
AcDbEntity
  8
仕様書枠
 48
50.0
100
AcDbLine
 10
16307.2
 20
1200.0
 30
0.0
 11
16307.2
 21
-0.0000000000000909
 31
0.0
  0
LINE
  5
10B5D
330
747D
100
AcDbEntity
  8
仕様書枠
 48
50.0
100
AcDbLine
 10
140.0
 20
0.0
 30
0.0
 11
16307.2
 21
-0.0000000000000909
 31
0.0
  0
LINE
  5
10B5E
330
747D
100
AcDbEntity
  8
補助
  6
PHANTOM
 62
   230
 48
50.0
100
AcDbLine
 10
16307.2
 20
11409.6
 30
0.0
 11
16307.2
 21
1200.0
 31
0.0
  0
LINE
  5
10B6C
330
747D
100
AcDbEntity
  8
仕様書枠
 48
50.0
100
AcDbLine
 10
13107.2
 20
1200.0
 30
0.0
 11
16307.2
 21
1200.0
 31
0.0
  0
LINE
  5
10B6D
330
747D
100
AcDbEntity
  8
補助
  6
PHANTOM
 62
   230
 48
50.0
100
AcDbLine
 10
13107.2
 20
11409.6
 30
0.0
 11
13107.2
 21
4800.0
 31
0.0
  0
LINE
  5
10B6F
330
747D
100
AcDbEntity
  8
補助
  6
PHANTOM
 62
   230
 48
50.0
100
AcDbLine
 10
13107.2
 20
4800.0
 30
0.0
 11
16307.2
 21
4800.0
 31
0.0
  0
LINE
  5
10B72
330
747D
100
AcDbEntity
  8
文字
 62
     7
 48
50.0
100
AcDbLine
 10
13187.2
 20
400.0
 30
0.0
 11
16227.2
 21
400.0
 31
0.0
  0
TEXT
  5
10B73
330
747D
100
AcDbEntity
  8
文字
 62
     7
 48
50.0
100
AcDbText
 10
13162.9790565769
 20
895.0906074299405
 30
0.0
 40
200.0
  1
外 形 図
  7
STYLE2
100
AcDbText
  0
TEXT
  5
10B74
330
747D
100
AcDbEntity
  8
文字
 62
     7
 48
50.0
100
AcDbText
 10
13201.43669998441
 20
477.2740661031255
 30
0.0
 40
160.0
  1
機種名
  7
STYLE2
100
AcDbText
  0
TEXT
  5
10B75
330
747D
100
AcDbEntity
  8
文字
 62
     7
 48
50.0
100
AcDbText
 10
13209.4053442172
 20
228.5435242569016
 30
0.0
 40
100.0
  1
○有効開口寸法 ： 2424×1948(mm)
  7
STYLE2
100
AcDbText
  0
TEXT
  5
10B76
330
747D
100
AcDbEntity
  8
文字
 62
     7
 48
50.0
100
AcDbText
 10
13209.4053442172
 20
76.09434707649343
 30
0.0
 40
100.0
  1
○床面積 ： 11.62㎡(3.52坪) 　
  7
STYLE2
100
AcDbText
  0
TEXT
  5
10B79
330
747D
100
AcDbEntity
  8
文字
 62
     7
 48
50.0
100
AcDbText
 10
14524.131837222
 20
1031.557706291228
 30
0.0
 40
100.0
  1
NO.10      <縮尺> S=1/40
  7
STYLE2
100
AcDbText
  0
LINE
  5
10B7B
330
747D
100
AcDbEntity
  8
仕様書枠
 48
50.0
100
AcDbLine
 10
13107.2
 20
800.0
 30
0.0
 11
14251.2
 21
800.0
 31
0.0
  0
LINE
  5
10B88
330
747D
100
AcDbEntity
  8
仕様書枠
  6
Continuous
 48
50.0
100
AcDbLine
 10
14251.2
 20
1200.0
 30
0.0
 11
14251.2
 21
800.0
 31
0.0
  0
TEXT
  5
10BB0
330
747D
100
AcDbEntity
  8
文字
 62
     7
 48
50.0
100
AcDbText
 10
14302.57975890745
 20
483.8967129911414
 30
0.0
 40
160.0
  1
FXN-60HDL-2
  7
STYLE2
100
AcDbText
  0
LINE
  5
12765
330
747D
100
AcDbEntity
  8
Ｇ．Ｌ
100
AcDbLine
 10
1840.382317302023
 20
2437.931598713261
 30
0.0
 11
13604.76940839567
 21
2437.931598713261
 31
0.0
  0
DIMENSION
  5
162CD
330
747D
100
AcDbEntity
  8
寸法
100
AcDbDimension
  2
*D1
 10
8963.000376019021
 20
7493.572564575718
 30
0.0
 11
8862.988564995397
 21
8543.572564575729
 31
0.0
 70
    32
  1
5X420=<>
 71
     5
 42
2100.000000000015
  3
INABA_S40G
100
AcDbAlignedDimension
 13
8315.574030284615
 23
9593.572564575735
 33
0.0
 14
8315.57403028459
 24
7493.572564575718
 34
0.0
 50
90.0
100
AcDbRotatedDimension
1001
ACAD
1000
DSTYLE
1002
{
1002
}
  0
DIMENSION
  5
162CE
330
747D
100
AcDbEntity
  8
寸法
100
AcDbDimension
  2
*D2
 10
8963.000376019001
 20
7438.572564575723
 30
0.0
 11
8963.000376019
 21
7060.711097670861
 31
0.0
 70
   160
 71
     5
 42
54.99999999999636
  3
INABA_S40G
100
AcDbAlignedDimension
 13
8315.57403028459
 23
7493.572564575718
 33
0.0
 14
8315.57403028459
 24
7438.572564575723
 34
0.0
 50
90.0
100
AcDbRotatedDimension
1001
ACAD
1000
DSTYLE
1002
{
1002
}
  0
DIMENSION
  5
162CF
330
747D
100
AcDbEntity
  8
寸法
100
AcDbDimension
  2
*D3
 10
8963.000376019026
 20
9593.572564575735
 30
0.0
 11
8963.000376019024
 21
9957.05784594997
 31
0.0
 70
   160
 71
     5
 42
54.99999999999636
  3
INABA_S40G
100
AcDbAlignedDimension
 13
8315.574030284615
 23
9648.572564575729
 33
0.0
 14
8315.574030284615
 24
9593.572564575735
 34
0.0
 50
90.0
100
AcDbRotatedDimension
1001
ACAD
1000
DSTYLE
1002
{
1002
}
  0
DIMENSION
  5
162D0
330
747D
100
AcDbEntity
  8
寸法
100
AcDbDimension
  2
*D4
 10
9328.107317758661
 20
7438.572564575723
 30
0.0
 11
9228.095506735037
 21
8543.572564575729
 31
0.0
 70
    32
 71
     5
 42
2210.000000000007
  3
INABA_S40G
100
AcDbAlignedDimension
 13
8315.574030284615
 23
9648.572564575729
 33
0.0
 14
8315.57403028459
 24
7438.572564575723
 34
0.0
 50
90.0
100
AcDbRotatedDimension
1001
ACAD
1000
DSTYLE
1002
{
1002
}
  0
LINE
  5
162DC
330
747D
100
AcDbEntity
  8
部品1
100
AcDbLine
 10
8287.574030284599
 20
9620.572564575731
 30
0.0
 11
8287.574030284591
 21
7493.572564575718
 31
0.0
  0
LINE
  5
162DD
330
747D
100
AcDbEntity
  8
部品1
100
AcDbLine
 10
3083.57403028459
 20
7493.572564575588
 30
0.0
 11
3083.574030284601
 21
9620.572564575638
 31
0.0
  0
LINE
  5
162DE
330
747D
100
AcDbEntity
  8
部品1
100
AcDbLine
 10
8315.574030284615
 20
9648.572564575729
 30
0.0
 11
8315.57403028459
 21
7438.572564575723
 31
0.0
  0
LINE
  5
162DF
330
747D
100
AcDbEntity
  8
部品1
100
AcDbLine
 10
3055.574030284581
 20
9648.572564575603
 30
0.0
 11
3055.574030284608
 21
7438.572564575593
 31
0.0
  0
DIMENSION
  5
162E4
330
747D
100
AcDbEntity
  8
寸法
 48
50.0
100
AcDbDimension
  2
*D5
 10
5788.574030284608
 20
6904.141793809468
 30
0.0
 11
7000.5740302846
 21
7004.153604833089
 31
0.0
 70
    32
  1
有効開口部間口 <>
 71
     5
 42
2423.999999999982
  3
INABA_S40G
100
AcDbAlignedDimension
 13
8212.57403028459
 23
7464.572564575632
 33
0.0
 14
5788.574030284608
 24
7464.572564575632
 34
0.0
100
AcDbRotatedDimension
1001
ACAD
1000
DSTYLE
1002
{
1070
    75
1070
     1
1070
   279
1070
     2
1002
}
  0
LINE
  5
162E6
330
747D
100
AcDbEntity
  8
部品1
 48
50.0
100
AcDbLine
 10
5752.574030284607
 20
7484.07256457563
 30
0.0
 11
8248.574030284592
 21
7484.07256457563
 31
0.0
  0
DIMENSION
  5
162E7
330
747D
100
AcDbEntity
  8
寸法
100
AcDbDimension
  2
*D6
 10
8315.574030284578
 20
6457.968798218593
 30
0.0
 11
5685.574030284594
 21
6457.968798218593
 31
0.0
 70
   160
 71
     5
 42
5259.999999999971
  3
INABA_S40G
100
AcDbAlignedDimension
 13
3055.574030284608
 23
7438.572564575628
 33
0.0
 14
8315.574030284578
 24
7438.572564575723
 34
0.0
100
AcDbRotatedDimension
1001
ACAD
1000
DSTYLE
1002
{
1002
}
  0
LINE
  5
162E8
330
747D
100
AcDbEntity
  8
部品1
100
AcDbLine
 10
3110.574030284588
 20
9593.57256457562
 30
0.0
 11
3110.574030284606
 21
7503.57256457563
 31
0.0
  0
LINE
  5
162E9
330
747D
100
AcDbEntity
  8
部品1
100
AcDbLine
 10
3135.574030284588
 20
9593.57256457562
 30
0.0
 11
3135.574030284606
 21
7503.57256457563
 31
0.0
  0
DIMENSION
  5
162EA
330
747D
100
AcDbEntity
  8
寸法
 48
50.0
100
AcDbDimension
  2
*D7
 10
3055.574030284608
 20
6904.141793809468
 30
0.0
 11
2747.088748910369
 21
6904.141793809468
 31
0.0
 70
   160
 71
     5
 42
54.99999999999636
  3
INABA_S40G
100
AcDbAlignedDimension
 13
3110.574030284605
 23
7438.572564575631
 33
0.0
 14
3055.574030284608
 24
7438.572564575628
 34
0.0
100
AcDbRotatedDimension
1001
ACAD
1000
DSTYLE
1002
{
1002
}
  0
DIMENSION
  5
162EB
330
747D
100
AcDbEntity
  8
寸法
 48
50.0
100
AcDbDimension
  2
*D8
 10
5740.574030284604
 20
6904.141793809468
 30
0.0
 11
5901.476001284666
 21
7004.141793809468
 31
0.0
 70
   160
 71
     5
 42
48.00000000000363
  3
INABA_S40G
100
AcDbAlignedDimension
 13
5788.574030284608
 23
7464.572564575632
 33
0.0
 14
5740.574030284604
 24
7438.572564575631
 34
0.0
100
AcDbRotatedDimension
1001
ACAD
1000
DSTYLE
1002
{
1070
   279
1070
     2
1002
}
  0
LINE
  5
162EC
330
747D
100
AcDbEntity
  8
部品1
100
AcDbLine
 10
3110.574030284603
 20
7438.572564575631
 30
0.0
 11
3055.574030284608
 21
7438.572564575628
 31
0.0
  0
LINE
  5
162ED
330
747D
100
AcDbEntity
  8
部品1
 48
50.0
100
AcDbLine
 10
3110.574030284608
 20
7474.57256457563
 30
0.0
 11
3087.574030284608
 21
7474.57256457563
 31
0.0
  0
LINE
  5
162EE
330
747D
100
AcDbEntity
  8
部品1
 48
50.0
100
AcDbLine
 10
3120.574030284608
 20
7464.572564575632
 30
0.0
 11
3110.574030284608
 21
7443.572564575631
 31
0.0
  0
LINE
  5
162EF
330
747D
100
AcDbEntity
  8
部品1
 48
50.0
100
AcDbLine
 10
3110.574030284608
 20
7503.57256457563
 30
0.0
 11
3110.574030284605
 21
7438.572564575631
 31
0.0
  0
LINE
  5
162F0
330
747D
100
AcDbEntity
  8
部品1
 48
50.0
100
AcDbLine
 10
3158.574030284608
 20
7464.572564575632
 30
0.0
 11
3158.574030284608
 21
7473.572564575632
 31
0.0
  0
LINE
  5
162F1
330
747D
100
AcDbEntity
  8
部品1
 48
50.0
100
AcDbLine
 10
3158.574030284608
 20
7503.572564575631
 30
0.0
 11
3158.574030284608
 21
7494.572564575633
 31
0.0
  0
LINE
  5
162F2
330
747D
100
AcDbEntity
  8
部品1
100
AcDbLine
 10
3158.574030284608
 20
7503.572564575631
 30
0.0
 11
3110.574030284608
 21
7503.572564575631
 31
0.0
  0
LINE
  5
162F3
330
747D
100
AcDbEntity
  8
部品1
100
AcDbLine
 10
3158.574030284608
 20
7464.572564575632
 30
0.0
 11
3110.574030284608
 21
7464.572564575632
 31
0.0
  0
LINE
  5
162F4
330
747D
100
AcDbEntity
  8
部品1
100
AcDbLine
 10
3110.574030284606
 20
7474.57256457563
 30
0.0
 11
3087.574030284608
 21
7474.57256457563
 31
0.0
  0
LINE
  5
162F5
330
747D
100
AcDbEntity
  8
部品1
100
AcDbLine
 10
3110.574030284606
 20
7493.572564575555
 30
0.0
 11
3055.574030284606
 21
7493.572564575555
 31
0.0
  0
LINE
  5
162F6
330
747D
100
AcDbEntity
  8
部品1
100
AcDbLine
 10
3083.57403028459
 20
7493.572564575592
 30
0.0
 11
3055.574030284606
 21
7493.572564575592
 31
0.0
  0
LINE
  5
162F7
330
747D
100
AcDbEntity
  8
部品1
100
AcDbLine
 10
3083.574030284606
 20
7493.572564575607
 30
0.0
 11
3055.574030284606
 21
7493.572564575607
 31
0.0
  0
LINE
  5
162FB
330
747D
100
AcDbEntity
  8
部品1
100
AcDbLine
 10
3083.574030284595
 20
8333.572564575607
 30
0.0
 11
3055.574030284595
 21
8333.572564575607
 31
0.0
  0
LINE
  5
162FC
330
747D
100
AcDbEntity
  8
部品1
100
AcDbLine
 10
3083.574030284595
 20
8753.572564575607
 30
0.0
 11
3055.574030284595
 21
8753.572564575607
 31
0.0
  0
LINE
  5
162FE
330
747D
100
AcDbEntity
  8
部品1
100
AcDbLine
 10
3083.574030284588
 20
9173.572564575605
 30
0.0
 11
3055.574030284588
 21
9173.572564575605
 31
0.0
  0
LINE
  5
162FF
330
747D
100
AcDbEntity
  8
部品1
100
AcDbLine
 10
8260.574030284612
 20
9593.572564575666
 30
0.0
 11
8260.574030284592
 21
7438.572564575719
 31
0.0
  0
LINE
  5
16300
330
747D
100
AcDbEntity
  8
部品1
100
AcDbLine
 10
8235.574030284615
 20
9593.572564575666
 30
0.0
 11
8235.574030284592
 21
7503.572564575631
 31
0.0
  0
DIMENSION
  5
16301
330
747D
100
AcDbEntity
  8
寸法
 48
50.0
100
AcDbDimension
  2
*D9
 10
8212.57403028459
 20
6904.141793809468
 30
0.0
 11
8101.611132635843
 21
7004.141793809468
 31
0.0
 70
   160
 71
     5
 42
48.00000000000181
  3
INABA_S40G
100
AcDbAlignedDimension
 13
8260.574030284592
 23
7438.572564575719
 33
0.0
 14
8212.57403028459
 24
7464.572564575632
 34
0.0
100
AcDbRotatedDimension
1001
ACAD
1000
DSTYLE
1002
{
1070
   279
1070
     2
1002
}
  0
DIMENSION
  5
16302
330
747D
100
AcDbEntity
  8
寸法
 48
50.0
100
AcDbDimension
  2
*D10
 10
8260.574030284592
 20
6904.141793809468
 30
0.0
 11
8624.059311658829
 21
6904.141793809468
 31
0.0
 70
   160
 71
     5
 42
54.99999999999818
  3
INABA_S40G
100
AcDbAlignedDimension
 13
8315.57403028459
 23
7438.572564575723
 33
0.0
 14
8260.574030284592
 24
7438.572564575719
 34
0.0
100
AcDbRotatedDimension
1001
ACAD
1000
DSTYLE
1002
{
1002
}
  0
LINE
  5
16303
330
747D
100
AcDbEntity
  8
部品1
 48
50.0
100
AcDbLine
 10
8250.574030284589
 20
7464.572564575632
 30
0.0
 11
8260.57403028459
 21
7443.572564575631
 31
0.0
  0
LINE
  5
16304
330
747D
100
AcDbEntity
  8
部品1
100
AcDbLine
 10
8212.57403028459
 20
7503.572564575631
 30
0.0
 11
8260.574030284592
 21
7503.572564575631
 31
0.0
  0
LINE
  5
16305
330
747D
100
AcDbEntity
  8
部品1
100
AcDbLine
 10
8212.57403028459
 20
7464.572564575632
 30
0.0
 11
8260.57403028459
 21
7464.572564575632
 31
0.0
  0
LINE
  5
16306
330
747D
100
AcDbEntity
  8
部品1
 48
50.0
100
AcDbLine
 10
8212.57403028459
 20
7503.572564575631
 30
0.0
 11
8212.57403028459
 21
7494.572564575633
 31
0.0
  0
LINE
  5
16307
330
747D
100
AcDbEntity
  8
部品1
 48
50.0
100
AcDbLine
 10
8212.57403028459
 20
7464.572564575632
 30
0.0
 11
8212.57403028459
 21
7473.572564575632
 31
0.0
  0
LINE
  5
16308
330
747D
100
AcDbEntity
  8
部品1
100
AcDbLine
 10
8260.57403028459
 20
7474.57256457563
 30
0.0
 11
8283.57403028459
 21
7474.57256457563
 31
0.0
  0
LINE
  5
16309
330
747D
100
AcDbEntity
  8
部品1
100
AcDbLine
 10
8260.57403028459
 20
7493.572564575734
 30
0.0
 11
8315.574030284622
 21
7493.572564575734
 31
0.0
  0
LINE
  5
1630A
330
747D
100
AcDbEntity
  8
部品1
100
AcDbLine
 10
8315.57403028459
 20
7438.572564575723
 30
0.0
 11
8260.574030284592
 21
7438.572564575721
 31
0.0
  0
LINE
  5
16317
330
747D
100
AcDbEntity
  8
部品1
100
AcDbLine
 10
8287.57403028462
 20
8333.572564575733
 30
0.0
 11
8315.574030284619
 21
8333.572564575733
 31
0.0
  0
LINE
  5
16319
330
747D
100
AcDbEntity
  8
部品1
100
AcDbLine
 10
8287.57403028462
 20
8753.572564575733
 30
0.0
 11
8315.574030284619
 21
8753.572564575733
 31
0.0
  0
LINE
  5
1631A
330
747D
100
AcDbEntity
  8
部品1
100
AcDbLine
 10
8287.574030284615
 20
9173.572564575733
 30
0.0
 11
8315.574030284615
 21
9173.572564575733
 31
0.0
  0
LINE
  5
1631B
330
747D
100
AcDbEntity
  8
部品1
100
AcDbLine
 10
5713.574028040845
 20
9620.572564575754
 30
0.0
 11
6988.074030284612
 21
9620.572564575752
 31
0.0
  0
LINE
  5
1631D
330
747D
100
AcDbEntity
  8
部品1
100
AcDbLine
 10
3055.574030284614
 20
9648.572564575637
 30
0.0
 11
8315.574030284615
 21
9648.572564575729
 31
0.0
  0
DIMENSION
  5
1631F
330
747D
100
AcDbEntity
  8
寸法
100
AcDbDimension
  2
*D11
 10
8260.574030284615
 20
9864.380784200733
 30
0.0
 11
7000.574030284615
 21
9964.392595224355
 31
0.0
 70
    32
  1
6X420=<>
 71
     5
 42
2520.000000000001
  3
INABA_S40G
100
AcDbAlignedDimension
 13
5740.574030284614
 23
9648.572564575637
 33
0.0
 14
8260.574030284615
 24
9648.572564575729
 34
0.0
100
AcDbRotatedDimension
1001
ACAD
1000
DSTYLE
1002
{
1002
}
  0
DIMENSION
  5
16320
330
747D
100
AcDbEntity
  8
寸法
100
AcDbDimension
  2
*D12
 10
3110.574030284614
 20
9864.380784200617
 30
0.0
 11
2747.088748910341
 21
9864.380784200617
 31
0.0
 70
   160
 71
     5
 42
55.00000000003456
  3
INABA_S40G
100
AcDbAlignedDimension
 13
3055.57403028458
 23
9648.572564575637
 33
0.0
 14
3110.574030284614
 24
9648.572564575637
 34
0.0
100
AcDbRotatedDimension
1001
ACAD
1000
DSTYLE
1002
{
1002
}
  0
LINE
  5
16321
330
747D
100
AcDbEntity
  8
部品1
100
AcDbLine
 10
3110.574030284581
 20
9648.572564575603
 30
0.0
 11
3110.574030284581
 21
9620.572564575603
 31
0.0
  0
LINE
  5
16322
330
747D
100
AcDbEntity
  8
部品1
100
AcDbLine
 10
3110.574030284614
 20
9648.572564575637
 30
0.0
 11
3110.574030284614
 21
9620.572564575637
 31
0.0
  0
LINE
  5
16323
330
747D
100
AcDbEntity
  8
部品1
100
AcDbLine
 10
3083.574030284581
 20
9593.572564575607
 30
0.0
 11
3055.574030284581
 21
9593.572564575607
 31
0.0
  0
LINE
  5
16324
330
747D
100
AcDbEntity
  8
部品1
100
AcDbLine
 10
6160.574030284614
 20
9648.572564575752
 30
0.0
 11
6160.574030284614
 21
9620.572564575752
 31
0.0
  0
LINE
  5
16325
330
747D
100
AcDbEntity
  8
部品1
100
AcDbLine
 10
6160.574030284614
 20
9648.572564575637
 30
0.0
 11
6160.574030284614
 21
9620.572564575637
 31
0.0
  0
LINE
  5
16326
330
747D
100
AcDbEntity
  8
部品1
100
AcDbLine
 10
6160.574030284614
 20
9648.572564575637
 30
0.0
 11
6160.574030284614
 21
9620.572564575637
 31
0.0
  0
LINE
  5
16327
330
747D
100
AcDbEntity
  8
部品1
100
AcDbLine
 10
7013.074030284615
 20
9620.572564575748
 30
0.0
 11
8287.574030284615
 21
9620.572564575731
 31
0.0
  0
LINE
  5
16329
330
747D
100
AcDbEntity
  8
部品1
100
AcDbLine
 10
6580.574030284615
 20
9648.572564575752
 30
0.0
 11
6580.574030284615
 21
9620.572564575752
 31
0.0
  0
LINE
  5
1632A
330
747D
100
AcDbEntity
  8
部品1
100
AcDbLine
 10
6580.574030284615
 20
9648.572564575637
 30
0.0
 11
6580.574030284615
 21
9620.572564575637
 31
0.0
  0
LINE
  5
1632B
330
747D
100
AcDbEntity
  8
部品1
100
AcDbLine
 10
6580.574030284615
 20
9648.572564575637
 30
0.0
 11
6580.574030284615
 21
9620.572564575637
 31
0.0
  0
LINE
  5
1632C
330
747D
100
AcDbEntity
  8
部品1
100
AcDbLine
 10
7000.574030284615
 20
9648.572564575752
 30
0.0
 11
7000.574030284615
 21
9620.572564575752
 31
0.0
  0
LINE
  5
1632D
330
747D
100
AcDbEntity
  8
部品1
100
AcDbLine
 10
6988.074030284614
 20
9612.572564575735
 30
0.0
 11
7013.074030284615
 21
9612.572564575737
 31
0.0
  0
LINE
  5
1632E
330
747D
100
AcDbEntity
  8
部品1
100
AcDbLine
 10
7029.574030284614
 20
9638.572564575738
 30
0.0
 11
7035.574030284614
 21
9638.572564575738
 31
0.0
  0
LINE
  5
1632F
330
747D
100
AcDbEntity
  8
部品1
100
AcDbLine
 10
7035.574030284614
 20
9638.572564575738
 30
0.0
 11
7035.574030284614
 21
9620.572564575738
 31
0.0
  0
LINE
  5
16330
330
747D
100
AcDbEntity
  8
部品1
100
AcDbLine
 10
6965.574030284614
 20
9638.572564575738
 30
0.0
 11
6971.574030284614
 21
9638.572564575738
 31
0.0
  0
LINE
  5
16331
330
747D
100
AcDbEntity
  8
部品1
100
AcDbLine
 10
6965.574030284614
 20
9638.572564575738
 30
0.0
 11
6965.574030284614
 21
9620.572564575738
 31
0.0
  0
LINE
  5
16332
330
747D
100
AcDbEntity
  8
部品1
100
AcDbLine
 10
7420.574030284614
 20
9648.572564575752
 30
0.0
 11
7420.574030284614
 21
9620.572564575752
 31
0.0
  0
DIMENSION
  5
16333
330
747D
100
AcDbEntity
  8
寸法
100
AcDbDimension
  2
*D13
 10
8315.574030284615
 20
9864.380784200717
 30
0.0
 11
8624.059311658854
 21
9864.380784200717
 31
0.0
 70
   160
 71
     5
 42
55.0
  3
INABA_S40G
100
AcDbAlignedDimension
 13
8260.574030284615
 23
9648.572564575729
 33
0.0
 14
8315.574030284615
 24
9648.572564575729
 34
0.0
100
AcDbRotatedDimension
1001
ACAD
1000
DSTYLE
1002
{
1002
}
  0
LINE
  5
16334
330
747D
100
AcDbEntity
  8
部品1
100
AcDbLine
 10
7840.574030284614
 20
9648.572564575752
 30
0.0
 11
7840.574030284614
 21
9620.572564575752
 31
0.0
  0
LINE
  5
16335
330
747D
100
AcDbEntity
  8
部品1
100
AcDbLine
 10
8260.574030284615
 20
9648.572564575729
 30
0.0
 11
8260.574030284615
 21
9620.572564575731
 31
0.0
  0
LINE
  5
16336
330
747D
100
AcDbEntity
  8
部品1
100
AcDbLine
 10
8260.574030284615
 20
9648.572564575752
 30
0.0
 11
8260.574030284615
 21
9620.572564575752
 31
0.0
  0
LINE
  5
16337
330
747D
100
AcDbEntity
  8
部品1
100
AcDbLine
 10
8287.574030284615
 20
9593.572564575735
 30
0.0
 11
8315.574030284615
 21
9593.572564575735
 31
0.0
  0
DIMENSION
  5
1659A
330
747D
100
AcDbEntity
  8
寸法
 48
50.0
100
AcDbDimension
  2
*D16
 10
5582.57403028459
 20
6904.141793809468
 30
0.0
 11
5471.611132635842
 21
7004.141793809468
 31
0.0
 70
   160
 71
     5
 42
48.00000000000181
  3
INABA_S40G
100
AcDbAlignedDimension
 13
5630.574030284591
 23
7438.572564575719
 33
0.0
 14
5582.57403028459
 24
7464.572564575632
 34
0.0
100
AcDbRotatedDimension
1001
ACAD
1000
DSTYLE
1002
{
1070
   279
1070
     2
1002
}
  0
DIMENSION
  5
1659B
330
747D
100
AcDbEntity
  8
寸法
 48
50.0
100
AcDbDimension
  2
*D14
 10
3158.574030284608
 20
6904.141793809468
 30
0.0
 11
4370.574030284599
 21
7004.153604833089
 31
0.0
 70
    32
  1
有効開口部間口 <>
 71
     5
 42
2423.999999999982
  3
INABA_S40G
100
AcDbAlignedDimension
 13
5582.57403028459
 23
7464.572564575632
 33
0.0
 14
3158.574030284608
 24
7464.572564575632
 34
0.0
100
AcDbRotatedDimension
1001
ACAD
1000
DSTYLE
1002
{
1070
    75
1070
     1
1070
   279
1070
     2
1002
}
  0
DIMENSION
  5
1659C
330
747D
100
AcDbEntity
  8
寸法
 48
50.0
100
AcDbDimension
  2
*D15
 10
3110.574030284605
 20
6904.141793809468
 30
0.0
 11
3271.476001284665
 21
7004.141793809468
 31
0.0
 70
   160
 71
     5
 42
48.00000000000363
  3
INABA_S40G
100
AcDbAlignedDimension
 13
3158.574030284608
 23
7464.572564575632
 33
0.0
 14
3110.574030284605
 24
7438.572564575631
 34
0.0
100
AcDbRotatedDimension
1001
ACAD
1000
DSTYLE
1002
{
1070
   279
1070
     2
1002
}
  0
DIMENSION
  5
165E9
330
747D
100
AcDbEntity
  8
寸法
 48
50.0
100
AcDbDimension
  2
*D17
 10
5630.574030284591
 20
6904.141793809468
 30
0.0
 11
5685.574030284598
 21
6752.449898773237
 31
0.0
 70
   160
 71
     5
 42
110.0000000000127
  3
INABA_S40G
100
AcDbAlignedDimension
 13
5740.574030284604
 23
7438.572564575631
 33
0.0
 14
5630.574030284591
 24
7438.572564575719
 34
0.0
100
AcDbRotatedDimension
1001
ACAD
1000
DSTYLE
1002
{
1070
   279
1070
     2
1002
}
  0
LINE
  5
16655
330
747D
100
AcDbEntity
  8
部品1
 48
50.0
100
AcDbLine
 10
3122.574030284607
 20
7484.07256457563
 30
0.0
 11
5618.574030284591
 21
7484.07256457563
 31
0.0
  0
LINE
  5
16656
330
747D
100
AcDbEntity
  8
部品1
100
AcDbLine
 10
5582.57403028459
 20
7503.572564575631
 30
0.0
 11
5630.574030284591
 21
7503.572564575631
 31
0.0
  0
LINE
  5
16657
330
747D
100
AcDbEntity
  8
部品1
 48
50.0
100
AcDbLine
 10
5582.57403028459
 20
7503.572564575631
 30
0.0
 11
5582.57403028459
 21
7494.572564575633
 31
0.0
  0
LINE
  5
16658
330
747D
100
AcDbEntity
  8
部品1
100
AcDbLine
 10
5582.57403028459
 20
7464.572564575632
 30
0.0
 11
5630.57403028459
 21
7464.572564575632
 31
0.0
  0
LINE
  5
16659
330
747D
100
AcDbEntity
  8
部品1
 48
50.0
100
AcDbLine
 10
5582.57403028459
 20
7464.572564575632
 30
0.0
 11
5582.57403028459
 21
7473.572564575632
 31
0.0
  0
LINE
  5
1665A
330
747D
100
AcDbEntity
  8
部品1
 48
50.0
100
AcDbLine
 10
5620.57403028459
 20
7464.572564575632
 30
0.0
 11
5630.57403028459
 21
7443.572564575631
 31
0.0
  0
LINE
  5
1665B
330
747D
100
AcDbEntity
  8
部品1
100
AcDbLine
 10
5630.57403028459
 20
7474.57256457563
 30
0.0
 11
5653.57403028459
 21
7474.57256457563
 31
0.0
  0
LINE
  5
1665C
330
747D
100
AcDbEntity
  8
部品1
100
AcDbLine
 10
5788.574030284608
 20
7503.572564575631
 30
0.0
 11
5740.574030284609
 21
7503.572564575631
 31
0.0
  0
LINE
  5
1665D
330
747D
100
AcDbEntity
  8
部品1
 48
50.0
100
AcDbLine
 10
5788.574030284608
 20
7503.572564575631
 30
0.0
 11
5788.574030284608
 21
7494.572564575633
 31
0.0
  0
LINE
  5
1665E
330
747D
100
AcDbEntity
  8
部品1
100
AcDbLine
 10
5788.574030284608
 20
7464.572564575632
 30
0.0
 11
5740.574030284609
 21
7464.572564575632
 31
0.0
  0
LINE
  5
1665F
330
747D
100
AcDbEntity
  8
部品1
 48
50.0
100
AcDbLine
 10
5750.574030284608
 20
7464.572564575632
 30
0.0
 11
5740.574030284609
 21
7443.572564575631
 31
0.0
  0
LINE
  5
16660
330
747D
100
AcDbEntity
  8
部品1
100
AcDbLine
 10
5740.574030284607
 20
7474.57256457563
 30
0.0
 11
5717.574030284608
 21
7474.57256457563
 31
0.0
  0
LINE
  5
16661
330
747D
100
AcDbEntity
  8
部品1
 48
50.0
100
AcDbLine
 10
5740.574030284609
 20
7503.57256457563
 30
0.0
 11
5740.574030284604
 21
7438.572564575631
 31
0.0
  0
LINE
  5
16662
330
747D
100
AcDbEntity
  8
部品1
 48
50.0
100
AcDbLine
 10
5788.574030284608
 20
7464.572564575632
 30
0.0
 11
5788.574030284608
 21
7473.572564575632
 31
0.0
  0
LINE
  5
16663
330
747D
100
AcDbEntity
  8
部品1
100
AcDbLine
 10
5740.574030284603
 20
7438.572564575631
 30
0.0
 11
5630.574030284593
 21
7438.572564575625
 31
0.0
  0
LINE
  5
16664
330
747D
100
AcDbEntity
  8
部品1
 48
50.0
100
AcDbLine
 10
5630.574030284596
 20
7503.572564575718
 30
0.0
 11
5630.574030284592
 21
7438.572564575719
 31
0.0
  0
DIMENSION
  5
16667
330
747D
100
AcDbEntity
  8
寸法
100
AcDbDimension
  2
*D18
 10
5630.574030284615
 20
9864.380784200733
 30
0.0
 11
4370.574030284615
 21
9964.392595224355
 31
0.0
 70
    32
  1
6X420=<>
 71
     5
 42
2520.000000000001
  3
INABA_S40G
100
AcDbAlignedDimension
 13
3110.574030284614
 23
9648.572564575637
 33
0.0
 14
5630.574030284615
 24
9648.572564575729
 34
0.0
100
AcDbRotatedDimension
1001
ACAD
1000
DSTYLE
1002
{
1002
}
  0
LINE
  5
16680
330
747D
100
AcDbEntity
  8
部品1
100
AcDbLine
 10
4370.574030284614
 20
9648.572564575752
 30
0.0
 11
4370.574030284614
 21
9620.572564575752
 31
0.0
  0
LINE
  5
16681
330
747D
100
AcDbEntity
  8
部品1
100
AcDbLine
 10
4358.074030284615
 20
9612.572564575735
 30
0.0
 11
4383.074030284614
 21
9612.572564575737
 31
0.0
  0
LINE
  5
16682
330
747D
100
AcDbEntity
  8
部品1
100
AcDbLine
 10
4399.574030284614
 20
9638.572564575738
 30
0.0
 11
4405.574030284614
 21
9638.572564575738
 31
0.0
  0
LINE
  5
16683
330
747D
100
AcDbEntity
  8
部品1
100
AcDbLine
 10
4405.574030284614
 20
9638.572564575738
 30
0.0
 11
4405.574030284614
 21
9620.572564575738
 31
0.0
  0
LINE
  5
16684
330
747D
100
AcDbEntity
  8
部品1
100
AcDbLine
 10
4335.574030284614
 20
9638.572564575738
 30
0.0
 11
4341.574030284614
 21
9638.572564575738
 31
0.0
  0
LINE
  5
16685
330
747D
100
AcDbEntity
  8
部品1
100
AcDbLine
 10
4335.574030284614
 20
9638.572564575738
 30
0.0
 11
4335.574030284614
 21
9620.572564575738
 31
0.0
  0
LINE
  5
16686
330
747D
100
AcDbEntity
  8
部品1
100
AcDbLine
 10
4383.074030284614
 20
9620.572564575748
 30
0.0
 11
5657.574030284616
 21
9620.572564575731
 31
0.0
  0
LINE
  5
16688
330
747D
100
AcDbEntity
  8
部品1
100
AcDbLine
 10
3083.574030284601
 20
9620.572564575752
 30
0.0
 11
4358.074030284612
 21
9620.572564575752
 31
0.0
  0
LINE
  5
1668A
330
747D
100
AcDbEntity
  8
部品1
100
AcDbLine
 10
3530.574030284615
 20
9648.572564575752
 30
0.0
 11
3530.574030284615
 21
9620.572564575752
 31
0.0
  0
LINE
  5
1668B
330
747D
100
AcDbEntity
  8
部品1
100
AcDbLine
 10
3530.574030284615
 20
9648.572564575637
 30
0.0
 11
3530.574030284615
 21
9620.572564575637
 31
0.0
  0
LINE
  5
1668C
330
747D
100
AcDbEntity
  8
部品1
100
AcDbLine
 10
3530.574030284615
 20
9648.572564575637
 30
0.0
 11
3530.574030284615
 21
9620.572564575637
 31
0.0
  0
LINE
  5
1668D
330
747D
100
AcDbEntity
  8
部品1
100
AcDbLine
 10
3950.574030284614
 20
9648.572564575752
 30
0.0
 11
3950.574030284614
 21
9620.572564575752
 31
0.0
  0
LINE
  5
1668E
330
747D
100
AcDbEntity
  8
部品1
100
AcDbLine
 10
3950.574030284614
 20
9648.572564575637
 30
0.0
 11
3950.574030284614
 21
9620.572564575637
 31
0.0
  0
LINE
  5
1668F
330
747D
100
AcDbEntity
  8
部品1
100
AcDbLine
 10
3950.574030284614
 20
9648.572564575637
 30
0.0
 11
3950.574030284614
 21
9620.572564575637
 31
0.0
  0
LINE
  5
16690
330
747D
100
AcDbEntity
  8
部品1
100
AcDbLine
 10
4790.574030284614
 20
9648.572564575752
 30
0.0
 11
4790.574030284614
 21
9620.572564575752
 31
0.0
  0
LINE
  5
16691
330
747D
100
AcDbEntity
  8
部品1
100
AcDbLine
 10
5210.574030284614
 20
9648.572564575752
 30
0.0
 11
5210.574030284614
 21
9620.572564575752
 31
0.0
  0
DIMENSION
  5
166DD
330
747D
100
AcDbEntity
  8
寸法
 48
50.0
100
AcDbDimension
  2
*D19
 10
5630.574030284615
 20
9864.380784200733
 30
0.0
 11
5685.574030284615
 21
9964.380784200734
 31
0.0
 70
    32
 71
     5
 42
109.9999999999991
  3
INABA_S40G
100
AcDbAlignedDimension
 13
5740.574030284614
 23
9648.572564575685
 33
0.0
 14
5630.574030284615
 24
9648.572564575681
 34
0.0
100
AcDbRotatedDimension
1001
ACAD
1000
DSTYLE
1002
{
1070
   279
1070
     2
1002
}
  0
LINE
  5
168C3
330
747D
100
AcDbEntity
  8
部品1
100
AcDbLine
 10
5709.574030284599
 20
7493.572564575628
 30
0.0
 11
5661.574030284597
 21
7493.572564575626
 31
0.0
  0
LINE
  5
168C4
330
747D
100
AcDbEntity
  8
部品1
 48
50.0
100
AcDbLine
 10
5661.574030284599
 20
7493.572564575628
 30
0.0
 11
5661.574030284601
 21
7438.572564575628
 31
0.0
  0
LINE
  5
168C5
330
747D
100
AcDbEntity
  8
部品1
 48
50.0
100
AcDbLine
 10
5709.574030284599
 20
7493.572564575628
 30
0.0
 11
5709.574030284602
 21
7438.572564575628
 31
0.0
  0
DIMENSION
  5
16907
330
747D
100
AcDbEntity
  8
寸法
 48
50.0
100
AcDbDimension
  2
*D20
 10
5685.574030284615
 20
10113.70225775703
 30
0.0
 11
4370.574030284597
 21
10213.71406878065
 31
0.0
 70
    32
 71
     5
 42
2630.000000000036
  3
INABA_S40G
100
AcDbAlignedDimension
 13
3055.57403028458
 23
9648.572564575603
 33
0.0
 14
5685.574030284615
 24
10023.36869855868
 34
0.0
100
AcDbRotatedDimension
1001
ACAD
1000
DSTYLE
1002
{
1070
   279
1070
     2
1002
}
  0
DIMENSION
  5
16913
330
747D
100
AcDbEntity
  8
寸法
 48
50.0
100
AcDbDimension
  2
*D21
 10
8315.574030284615
 20
10113.70225775703
 30
0.0
 11
7000.574030284615
 21
10213.71406878065
 31
0.0
 70
    32
 71
     5
 42
2630.0
  3
INABA_S40G
100
AcDbAlignedDimension
 13
5685.574030284615
 23
10023.36869855868
 33
0.0
 14
8315.574030284615
 24
9648.572564575729
 34
0.0
100
AcDbRotatedDimension
1001
ACAD
1000
DSTYLE
1002
{
1070
    75
1070
     1
1070
   279
1070
     2
1002
}
  0
LINE
  5
16C81
330
747D
100
AcDbEntity
  8
部品1
100
AcDbLine
 10
3083.574030284595
 20
7913.572564575606
 30
0.0
 11
3055.574030284595
 21
7913.572564575606
 31
0.0
  0
LINE
  5
16C82
330
747D
100
AcDbEntity
  8
部品1
100
AcDbLine
 10
8287.57403028462
 20
7913.572564575734
 30
0.0
 11
8315.574030284619
 21
7913.572564575734
 31
0.0
  0
LINE
  5
16CA9
330
747D
100
AcDbEntity
  8
部品1
 48
50.0
100
AcDbLine
 10
8260.57403028461
 20
9593.572564575666
 30
0.0
 11
5740.574030284707
 21
9593.572564575644
 31
0.0
  0
LINE
  5
16CAA
330
747D
100
AcDbEntity
  8
部品1
 48
50.0
100
AcDbLine
 10
8235.574030284615
 20
9568.572564575545
 30
0.0
 11
5765.57403028468
 21
9568.572564575521
 31
0.0
  0
LINE
  5
16CAB
330
747D
100
AcDbEntity
  8
部品1
 48
50.0
100
AcDbLine
 10
3083.574030284601
 20
9620.572564575752
 30
0.0
 11
3110.574030284588
 21
9593.57256457562
 31
0.0
  0
LINE
  5
16CAC
330
747D
100
AcDbEntity
  8
部品1
 48
50.0
100
AcDbLine
 10
4358.074030284612
 20
9620.572564575752
 30
0.0
 11
4358.074030284614
 21
9612.572564575735
 31
0.0
  0
LINE
  5
16CAD
330
747D
100
AcDbEntity
  8
部品1
 48
50.0
100
AcDbLine
 10
4383.074030284614
 20
9620.572564575748
 30
0.0
 11
4383.074030284614
 21
9612.572564575737
 31
0.0
  0
LINE
  5
16CAE
330
747D
100
AcDbEntity
  8
部品1
 48
50.0
100
AcDbLine
 10
6988.074030284612
 20
9620.572564575752
 30
0.0
 11
6988.074030284614
 21
9612.572564575735
 31
0.0
  0
LINE
  5
16CAF
330
747D
100
AcDbEntity
  8
部品1
 48
50.0
100
AcDbLine
 10
7013.074030284615
 20
9620.572564575748
 30
0.0
 11
7013.074030284615
 21
9612.572564575737
 31
0.0
  0
LINE
  5
16CB1
330
747D
100
AcDbEntity
  8
部品1
 48
50.0
100
AcDbLine
 10
8287.574030284599
 20
9620.572564575731
 30
0.0
 11
8260.574030284612
 21
9593.572564575666
 31
0.0
  0
LINE
  5
16E9B
330
747D
100
AcDbEntity
  8
仕様書枠
 48
50.0
100
AcDbLine
 10
16307.19999999999
 20
8689.600000000003
 30
0.0
 11
13127.19999999999
 21
8689.600000000003
 31
0.0
  0
TEXT
  5
16E9C
330
747D
100
AcDbEntity
  8
文字
 62
     7
 48
50.0
100
AcDbText
 10
15022.63965474516
 20
9910.013745883727
 30
0.0
 40
100.0
  1
F12,Y10        1.0
  7
STYLE1
100
AcDbText
  0
TEXT
  5
16E9D
330
747D
100
AcDbEntity
  8
文字
 62
     7
 48
50.0
100
AcDbText
 10
13583.11819016569
 20
9910.01374588373
 30
0.0
 40
100.0
  1
梁中
  7
STYLE1
100
AcDbText
  0
LINE
  5
16E9E
330
747D
100
AcDbEntity
  8
仕様書枠
 48
50.0
100
AcDbLine
 10
16307.19999999999
 20
9879.599999999999
 30
0.0
 11
13127.19999999999
 21
9879.600000000001
 31
0.0
  0
LINE
  5
16E9F
330
747D
100
AcDbEntity
  8
仕様書枠
 48
50.0
100
AcDbLine
 10
16307.19999999999
 20
11239.6
 30
0.0
 11
13127.2
 21
11239.6
 31
0.0
  0
LINE
  5
16EA0
330
747D
100
AcDbEntity
  8
仕様書枠
 48
50.0
100
AcDbLine
 10
16307.19999999999
 20
8179.600000000004
 30
0.0
 11
16307.2
 21
11239.6
 31
0.0
  0
LINE
  5
16EA1
330
747D
100
AcDbEntity
  8
仕様書枠
 48
50.0
100
AcDbLine
 10
14785.2
 20
11239.59999999999
 30
0.0
 11
14785.19999999999
 21
8689.600000000003
 31
0.0
  0
LINE
  5
16EA2
330
747D
100
AcDbEntity
  8
仕様書枠
 48
50.0
100
AcDbLine
 10
13490.2
 20
11239.6
 30
0.0
 11
13490.20000000001
 21
8689.600000000003
 31
0.0
  0
LINE
  5
16EA3
330
747D
100
AcDbEntity
  8
仕様書枠
 48
50.0
100
AcDbLine
 10
16307.19999999999
 20
11069.6
 30
0.0
 11
13127.2
 21
11069.6
 31
0.0
  0
LINE
  5
16EA4
330
747D
100
AcDbEntity
  8
仕様書枠
 48
50.0
100
AcDbLine
 10
16307.19999999999
 20
10729.6
 30
0.0
 11
13127.2
 21
10729.6
 31
0.0
  0
LINE
  5
16EA5
330
747D
100
AcDbEntity
  8
仕様書枠
 48
50.0
100
AcDbLine
 10
16307.19999999999
 20
10899.6
 30
0.0
 11
13127.2
 21
10899.6
 31
0.0
  0
LINE
  5
16EA6
330
747D
100
AcDbEntity
  8
仕様書枠
 48
50.0
100
AcDbLine
 10
16307.19999999999
 20
10389.6
 30
0.0
 11
13127.19999999999
 21
10389.6
 31
0.0
  0
LINE
  5
16EA7
330
747D
100
AcDbEntity
  8
仕様書枠
 48
50.0
100
AcDbLine
 10
16307.19999999999
 20
10219.6
 30
0.0
 11
13127.19999999999
 21
10219.6
 31
0.0
  0
LINE
  5
16EA8
330
747D
100
AcDbEntity
  8
仕様書枠
 48
50.0
100
AcDbLine
 10
16307.19999999999
 20
10559.6
 30
0.0
 11
13127.19999999999
 21
10559.6
 31
0.0
  0
TEXT
  5
16EA9
330
747D
100
AcDbEntity
  8
文字
 62
     7
 48
50.0
100
AcDbText
 10
13197.42518560407
 20
11100.01374588373
 30
0.0
 40
100.0
  1
品番
  7
STYLE1
100
AcDbText
  0
TEXT
  5
16EAA
330
747D
100
AcDbEntity
  8
文字
 62
     7
 48
50.0
100
AcDbText
 10
13271.19032244792
 20
10930.01374588373
 30
0.0
 40
100.0
  1
1
  7
STYLE1
100
AcDbText
  0
TEXT
  5
16EAB
330
747D
100
AcDbEntity
  8
文字
 62
     7
 48
50.0
100
AcDbText
 10
13271.19032244792
 20
10760.01374588373
 30
0.0
 40
100.0
  1
2
  7
STYLE1
100
AcDbText
  0
TEXT
  5
16EAC
330
747D
100
AcDbEntity
  8
文字
 62
     7
 48
50.0
100
AcDbText
 10
13271.19032244792
 20
10420.01374588373
 30
0.0
 40
100.0
  1
4
  7
STYLE1
100
AcDbText
  0
TEXT
  5
16EAD
330
747D
100
AcDbEntity
  8
文字
 62
     7
 48
50.0
100
AcDbText
 10
13271.19032244792
 20
10590.01374588373
 30
0.0
 40
100.0
  1
3
  7
STYLE1
100
AcDbText
  0
TEXT
  5
16EAE
330
747D
100
AcDbEntity
  8
文字
 62
     7
 48
50.0
100
AcDbText
 10
13732.03840939434
 20
11100.01374588373
 30
0.0
 40
100.0
  1
部　　品　　名
  7
STYLE1
100
AcDbText
  0
TEXT
  5
16EAF
330
747D
100
AcDbEntity
  8
文字
 62
     7
 48
50.0
100
AcDbText
 10
14859.79774614482
 20
11100.01374588373
 30
0.0
 40
100.0
  1
材料（材質）　　単位mm
  7
STYLE1
100
AcDbText
  0
TEXT
  5
16EB0
330
747D
100
AcDbEntity
  8
文字
 62
     7
 48
50.0
100
AcDbText
 10
13583.11819016569
 20
10930.01374588372
 30
0.0
 40
100.0
  1
土台枠
  7
STYLE1
100
AcDbText
  0
TEXT
  5
16EB1
330
747D
100
AcDbEntity
  8
文字
 62
     7
 48
50.0
100
AcDbText
 10
13583.11819016569
 20
10760.01374588372
 30
0.0
 40
100.0
  1
柱
  7
STYLE1
100
AcDbText
  0
TEXT
  5
16EB2
330
747D
100
AcDbEntity
  8
文字
 62
     7
 48
50.0
100
AcDbText
 10
13583.11819016569
 20
10590.01374588373
 30
0.0
 40
100.0
  1
桁前
  7
STYLE1
100
AcDbText
  0
TEXT
  5
16EB3
330
747D
100
AcDbEntity
  8
文字
 62
     7
 48
50.0
100
AcDbText
 10
13583.11819016569
 20
10420.01374588373
 30
0.0
 40
100.0
  1
桁後
  7
STYLE1
100
AcDbText
  0
TEXT
  5
16EB4
330
747D
100
AcDbEntity
  8
文字
 62
     7
 48
50.0
100
AcDbText
 10
13271.19032244792
 20
10250.01374588373
 30
0.0
 40
100.0
  1
5
  7
STYLE1
100
AcDbText
  0
TEXT
  5
16EB5
330
747D
100
AcDbEntity
  8
文字
 62
     7
 48
50.0
100
AcDbText
 10
13583.11819016569
 20
10250.01374588373
 30
0.0
 40
100.0
  1
妻板左右
  7
STYLE1
100
AcDbText
  0
TEXT
  5
16EB6
330
747D
100
AcDbEntity
  8
文字
 62
     7
 48
50.0
100
AcDbText
 10
13583.11819016569
 20
8720.013745883727
 30
0.0
 40
100.0
  1
シャッターレール
  7
STYLE1
100
AcDbText
  0
TEXT
  5
16EB7
330
747D
100
AcDbEntity
  8
文字
 62
     7
 48
50.0
100
AcDbText
 10
13248.77747366448
 20
9400.013745883727
 30
0.0
 40
100.0
  1
10
  7
STYLE1
100
AcDbText
  0
TEXT
  5
16EB8
330
747D
100
AcDbEntity
  8
文字
 62
     7
 48
50.0
100
AcDbText
 10
13583.11819016569
 20
9400.013745883729
 30
0.0
 40
100.0
  1
壁パネル
  7
STYLE1
100
AcDbText
  0
TEXT
  5
16EB9
330
747D
100
AcDbEntity
  8
文字
 62
     7
 48
50.0
100
AcDbText
 10
13583.11819016569
 20
9570.013745883727
 30
0.0
 40
100.0
  1
屋根パネル
  7
STYLE1
100
AcDbText
  0
TEXT
  5
16EBA
330
747D
100
AcDbEntity
  8
文字
 62
     7
 48
50.0
100
AcDbText
 10
13583.11819016569
 20
9740.013745883729
 30
0.0
 40
100.0
  1
母屋中
  7
STYLE1
100
AcDbText
  0
TEXT
  5
16EBB
330
747D
100
AcDbEntity
  8
文字
 62
     7
 48
50.0
100
AcDbText
 10
13583.11819016569
 20
10080.01374588372
 30
0.0
 40
100.0
  1
鼻隠シ前後
  7
STYLE1
100
AcDbText
  0
TEXT
  5
16EBC
330
747D
100
AcDbEntity
  8
文字
 62
     7
 48
50.0
100
AcDbText
 10
13271.19032244792
 20
9740.013745883729
 30
0.0
 40
100.0
  1
8
  7
STYLE1
100
AcDbText
  0
TEXT
  5
16EBD
330
747D
100
AcDbEntity
  8
文字
 62
     7
 48
50.0
100
AcDbText
 10
13271.19032244792
 20
9570.013745883729
 30
0.0
 40
100.0
  1
9
  7
STYLE1
100
AcDbText
  0
TEXT
  5
16EBE
330
747D
100
AcDbEntity
  8
文字
 62
     7
 48
50.0
100
AcDbText
 10
13271.19032244792
 20
9910.01374588373
 30
0.0
 40
100.0
  1
7
  7
STYLE1
100
AcDbText
  0
TEXT
  5
16EBF
330
747D
100
AcDbEntity
  8
文字
 62
     7
 48
50.0
100
AcDbText
 10
13271.19032244792
 20
10080.01374588373
 30
0.0
 40
100.0
  1
6
  7
STYLE1
100
AcDbText
  0
LINE
  5
16EC0
330
747D
100
AcDbEntity
  8
仕様書枠
 48
50.0
100
AcDbLine
 10
16307.19999999999
 20
9539.599999999998
 30
0.0
 11
13127.19999999999
 21
9539.6
 31
0.0
  0
LINE
  5
16EC1
330
747D
100
AcDbEntity
  8
仕様書枠
 48
50.0
100
AcDbLine
 10
16307.19999999999
 20
9199.599999999998
 30
0.0
 11
13127.19999999999
 21
9199.600000000001
 31
0.0
  0
LINE
  5
16EC2
330
747D
100
AcDbEntity
  8
仕様書枠
 48
50.0
100
AcDbLine
 10
16307.19999999999
 20
9369.599999999998
 30
0.0
 11
13127.19999999999
 21
9369.600000000001
 31
0.0
  0
LINE
  5
16EC3
330
747D
100
AcDbEntity
  8
仕様書枠
 48
50.0
100
AcDbLine
 10
16307.19999999999
 20
10049.6
 30
0.0
 11
13127.2
 21
10049.6
 31
0.0
  0
LINE
  5
16EC4
330
747D
100
AcDbEntity
  8
仕様書枠
 48
50.0
100
AcDbLine
 10
16307.19999999999
 20
9709.6
 30
0.0
 11
13127.19999999999
 21
9709.600000000001
 31
0.0
  0
TEXT
  5
16EC5
330
747D
100
AcDbEntity
  8
文字
 62
     7
 48
50.0
100
AcDbText
 10
13248.77747366448
 20
9230.013745883727
 30
0.0
 40
100.0
  1
11
  7
STYLE1
100
AcDbText
  0
TEXT
  5
16EC6
330
747D
100
AcDbEntity
  8
文字
 62
     7
 48
50.0
100
AcDbText
 10
13583.11819016569
 20
8890.013745883727
 30
0.0
 40
100.0
  1
シャッターカバー
 41
0.9
  7
STYLE1
100
AcDbText
  0
LINE
  5
16EC7
330
747D
100
AcDbEntity
  8
仕様書枠
 48
50.0
100
AcDbLine
 10
16307.19999999999
 20
9029.6
 30
0.0
 11
13127.19999999999
 21
9029.6
 31
0.0
  0
LINE
  5
16EC8
330
747D
100
AcDbEntity
  8
仕様書枠
 48
50.0
100
AcDbLine
 10
16307.19999999999
 20
8859.6
 30
0.0
 11
13127.19999999999
 21
8859.600000000002
 31
0.0
  0
TEXT
  5
16EC9
330
747D
100
AcDbEntity
  8
文字
 62
     7
 48
50.0
100
AcDbText
 10
13583.11819016569
 20
9060.013745883727
 30
0.0
 40
100.0
  1
シャッター
  7
STYLE1
100
AcDbText
  0
TEXT
  5
16ECA
330
747D
100
AcDbEntity
  8
文字
 62
     7
 48
50.0
100
AcDbText
 10
13248.77747366448
 20
8890.013745883729
 30
0.0
 40
100.0
  1
13
  7
STYLE1
100
AcDbText
  0
TEXT
  5
16ECB
330
747D
100
AcDbEntity
  8
文字
 62
     7
 48
50.0
100
AcDbText
 10
13248.77747366448
 20
9060.013745883729
 30
0.0
 40
100.0
  1
12
  7
STYLE1
100
AcDbText
  0
TEXT
  5
16ECC
330
747D
100
AcDbEntity
  8
文字
 62
     7
 48
50.0
100
AcDbText
 10
15022.63965474517
 20
10930.01374588372
 30
0.0
 40
100.0
  1
F12            1.2
  7
STYLE1
100
AcDbText
  0
TEXT
  5
16ECD
330
747D
100
AcDbEntity
  8
文字
 62
     7
 48
50.0
100
AcDbText
 10
15022.63965474517
 20
10760.01374588372
 30
0.0
 40
100.0
  1
F12         1.0,1.2
  7
STYLE1
100
AcDbText
  0
TEXT
  5
16ECE
330
747D
100
AcDbEntity
  8
文字
 62
     7
 48
50.0
100
AcDbText
 10
15022.63965474516
 20
10590.01374588372
 30
0.0
 40
100.0
  1
Y10            1.0
  7
STYLE1
100
AcDbText
  0
TEXT
  5
16ECF
330
747D
100
AcDbEntity
  8
文字
 62
     7
 48
50.0
100
AcDbText
 10
15022.63965474516
 20
10420.01374588372
 30
0.0
 40
100.0
  1
Y10            1.0
  7
STYLE1
100
AcDbText
  0
TEXT
  5
16ED0
330
747D
100
AcDbEntity
  8
文字
 62
     7
 48
50.0
100
AcDbText
 10
15022.63965474516
 20
10250.01374588372
 30
0.0
 40
100.0
  1
Y10            0.7
  7
STYLE1
100
AcDbText
  0
TEXT
  5
16ED1
330
747D
100
AcDbEntity
  8
文字
 62
     7
 48
50.0
100
AcDbText
 10
15022.63965474516
 20
10080.01374588372
 30
0.0
 40
100.0
  1
Y10            0.7
  7
STYLE1
100
AcDbText
  0
TEXT
  5
16ED2
330
747D
100
AcDbEntity
  8
文字
 62
     7
 48
50.0
100
AcDbText
 10
15022.63965474516
 20
9570.013745883725
 30
0.0
 40
100.0
  1
Y10            0.5
  7
STYLE1
100
AcDbText
  0
TEXT
  5
16ED3
330
747D
100
AcDbEntity
  8
文字
 62
     7
 48
50.0
100
AcDbText
 10
15022.63965474516
 20
9400.013745883725
 30
0.0
 40
100.0
  1
F12            0.7
  7
STYLE1
100
AcDbText
  0
TEXT
  5
16ED4
330
747D
100
AcDbEntity
  8
文字
 62
     7
 48
50.0
100
AcDbText
 10
14850.83183167176
 20
8720.013745883726
 30
0.0
 40
100.0
  1
アルミニウム合金押出形材
  7
STYLE1
100
AcDbText
  0
TEXT
  5
16ED6
330
747D
100
AcDbEntity
  8
文字
 62
     7
 48
50.0
100
AcDbText
 10
15022.63965474515
 20
9060.013745883724
 30
0.0
 40
100.0
  1
Z08            0.5
  7
STYLE1
100
AcDbText
  0
LINE
  5
16ED7
330
747D
100
AcDbEntity
  8
仕様書枠
 48
50.0
100
AcDbLine
 10
16307.19999999999
 20
8519.600000000002
 30
0.0
 11
13127.19999999999
 21
8519.600000000004
 31
0.0
  0
LINE
  5
16ED8
330
747D
100
AcDbEntity
  8
仕様書枠
 48
50.0
100
AcDbLine
 10
16307.19999999999
 20
8349.600000000002
 30
0.0
 11
13127.19999999999
 21
8349.600000000004
 31
0.0
  0
LINE
  5
16ED9
330
747D
100
AcDbEntity
  8
仕様書枠
 48
50.0
100
AcDbLine
 10
16307.19999999999
 20
8179.600000000002
 30
0.0
 11
13127.19999999999
 21
8179.600000000004
 31
0.0
  0
TEXT
  5
16EDA
330
747D
100
AcDbEntity
  8
文字
 62
     7
 48
50.0
100
AcDbText
 10
13229.83081656555
 20
8550.013745883731
 30
0.0
 40
100.0
  1
F12→溶融亜鉛めっき鋼板(JIS G 3302)
  7
STYLE1
100
AcDbText
  0
TEXT
  5
16EDB
330
747D
100
AcDbEntity
  8
文字
 62
     7
 48
50.0
100
AcDbText
 10
13229.83081656555
 20
8380.013745883731
 30
0.0
 40
100.0
  1
Y10→溶融亜鉛-5％アルミニウム合金めっき鋼板(JIS G 3317)
 41
0.9
  7
STYLE1
100
AcDbText
  0
TEXT
  5
16EDC
330
747D
100
AcDbEntity
  8
文字
 62
     7
 48
50.0
100
AcDbText
 10
13229.83081656555
 20
8210.013745883733
 30
0.0
 40
100.0
  1
Z08→塗装溶融亜鉛めっき鋼板(JIS G 3313)
  7
STYLE1
100
AcDbText
  0
LINE
  5
16EDD
330
747D
100
AcDbEntity
  8
仕様書枠
 48
50.0
100
AcDbLine
 10
13127.2
 20
11239.6
 30
0.0
 11
13127.2
 21
8179.600000000004
 31
0.0
  0
LINE
  5
17346
330
747D
100
AcDbEntity
  8
部品1
 48
50.0
100
AcDbLine
 10
5685.574030284605
 20
4512.931598713262
 30
0.0
 11
5685.574030284604
 21
4771.931598713265
 31
0.0
  0
LINE
  5
17347
330
747D
100
AcDbEntity
  8
部品1
 48
50.0
100
AcDbLine
 10
5675.574030284604
 20
4771.931598713265
 30
0.0
 11
5675.574030284603
 21
4912.931598713266
 31
0.0
  0
LINE
  5
17374
330
747D
100
AcDbEntity
  8
部品1
 48
50.0
100
AcDbLine
 10
5675.574030284604
 20
4912.931598713265
 30
0.0
 11
3012.982451391039
 21
4912.931598713265
 31
0.0
  0
LINE
  5
17375
330
747D
100
AcDbEntity
  8
部品1
 48
50.0
100
AcDbLine
 10
5685.574030284604
 20
4771.931598713265
 30
0.0
 11
3026.19777485207
 21
4771.931598713265
 31
0.0
  0
LINE
  5
17376
330
747D
100
AcDbEntity
  8
細線
 48
50.0
100
AcDbLine
 10
5675.574030284604
 20
4884.904841276733
 30
0.0
 11
3007.732681296566
 21
4884.904841277053
 31
0.0
  0
LINE
  5
17377
330
747D
100
AcDbEntity
  8
細線
 48
50.0
100
AcDbLine
 10
5675.574030284604
 20
4792.704841277049
 30
0.0
 11
3015.96871182141
 21
4792.704841277052
 31
0.0
  0
LINE
  5
17378
330
747D
100
AcDbEntity
  8
細線
 48
50.0
100
AcDbLine
 10
3038.574030284606
 20
4912.931598713265
 30
0.0
 11
3038.574030284606
 21
4771.931598713265
 31
0.0
  0
ARC
  5
17379
330
747D
100
AcDbEntity
  8
部品1
100
AcDbCircle
 10
3012.982451391039
 20
4905.931598713265
 30
0.0
 40
7.0
100
AcDbArc
 50
90.0
 51
183.2473427903377
  0
ARC
  5
1737A
330
747D
100
AcDbEntity
  8
部品1
100
AcDbCircle
 10
3026.19777485207
 20
4778.931598713265
 30
0.0
 40
7.0
100
AcDbArc
 50
183.2473427903377
 51
270.0
  0
ARC
  5
1737B
330
747D
100
AcDbEntity
  8
部品1
 48
50.0
100
AcDbCircle
 10
3007.825964641397
 20
4885.598597874952
 30
0.0
 40
0.7
100
AcDbArc
 50
183.2473427903897
 51
262.3418727926361
  0
ARC
  5
1737C
330
747D
100
AcDbEntity
  8
部品1
 48
50.0
100
AcDbCircle
 10
3016.061995166234
 20
4793.398597874948
 30
0.0
 40
0.7
100
AcDbArc
 50
183.2473427902856
 51
262.3418727926361
  0
ARC
  5
1737D
330
747D
100
AcDbEntity
  8
部品1
 48
50.0
100
AcDbCircle
 10
3015.568926057673
 20
4789.731598713264
 30
0.0
 40
3.0
100
AcDbArc
 50
3.247342790337682
 51
82.34187279263609
  0
ARC
  5
1737E
330
747D
100
AcDbEntity
  8
部品1
 48
50.0
100
AcDbCircle
 10
3007.332895532829
 20
4881.931598713265
 30
0.0
 40
3.0
100
AcDbArc
 50
3.247342790337682
 51
82.34187279263609
  0
LINE
  5
1737F
330
747D
100
AcDbEntity
  8
部品1
100
AcDbLine
 10
3010.328078429015
 20
4882.101538168369
 30
0.0
 11
3015.363119157129
 21
4793.358945335425
 31
0.0
  0
LINE
  5
17380
330
747D
100
AcDbEntity
  8
部品1
100
AcDbLine
 10
3018.564108953866
 20
4789.901538168368
 30
0.0
 11
3019.209014760975
 21
4778.535073318027
 31
0.0
  0
LINE
  5
17381
330
747D
100
AcDbEntity
  8
部品1
100
AcDbLine
 10
3005.993691299936
 20
4905.535073318024
 30
0.0
 11
3007.127088632286
 21
4885.558945335426
 31
0.0
  0
DIMENSION
  5
17382
330
747D
100
AcDbEntity
  8
寸法
 48
50.0
100
AcDbDimension
  2
*D22
 10
3005.574030284606
 20
5312.024768052735
 30
0.0
 11
2692.088748910359
 21
5312.024768052735
 31
0.0
 70
   160
 71
     5
 42
50.0
  3
INABA_S40G
100
AcDbAlignedDimension
 13
3055.574030284606
 23
4912.931598713267
 33
0.0
 14
3005.574030284606
 24
4912.931598713266
 34
0.0
100
AcDbRotatedDimension
1001
ACAD
1000
DSTYLE
1002
{
1002
}
  0
ARC
  5
1738E
330
747D
100
AcDbEntity
  8
細線
 48
50.0
100
AcDbCircle
 10
4070.574030284604
 20
3100.431598713262
 30
0.0
 40
15.0
100
AcDbArc
 50
90.0
 51
270.0
  0
ARC
  5
1738F
330
747D
100
AcDbEntity
  8
細線
 48
50.0
100
AcDbCircle
 10
4170.574030284604
 20
3100.431598713262
 30
0.0
 40
15.0
100
AcDbArc
 50
270.0
 51
90.0
  0
LINE
  5
17390
330
747D
100
AcDbEntity
  8
細線
 48
50.0
100
AcDbLine
 10
4070.574030284604
 20
3115.431598713261
 30
0.0
 11
4170.574030284604
 21
3115.431598713261
 31
0.0
  0
LINE
  5
17391
330
747D
100
AcDbEntity
  8
細線
 48
50.0
100
AcDbLine
 10
4170.574030284604
 20
3085.431598713262
 30
0.0
 11
4070.574030284604
 21
3085.431598713262
 31
0.0
  0
LINE
  5
17392
330
747D
100
AcDbEntity
  8
細線
 48
50.0
100
AcDbLine
 10
4670.574030284604
 20
3085.431598713262
 30
0.0
 11
4570.574030284604
 21
3085.431598713262
 31
0.0
  0
LINE
  5
17393
330
747D
100
AcDbEntity
  8
細線
 48
50.0
100
AcDbLine
 10
4570.574030284604
 20
3115.431598713261
 30
0.0
 11
4670.574030284604
 21
3115.431598713261
 31
0.0
  0
ARC
  5
17394
330
747D
100
AcDbEntity
  8
細線
 48
50.0
100
AcDbCircle
 10
4570.574030284604
 20
3100.431598713262
 30
0.0
 40
15.0
100
AcDbArc
 50
90.0
 51
270.0
  0
ARC
  5
17395
330
747D
100
AcDbEntity
  8
細線
 48
50.0
100
AcDbCircle
 10
4670.574030284604
 20
3100.431598713262
 30
0.0
 40
15.0
100
AcDbArc
 50
270.0
 51
90.0
  0
CIRCLE
  5
17396
330
747D
100
AcDbEntity
  8
細線
 48
50.0
100
AcDbCircle
 10
4370.574030284604
 20
3425.431598713262
 30
0.0
 40
18.0
  0
LINE
  5
17397
330
747D
100
AcDbEntity
  8
細線
100
AcDbLine
 10
5582.574030284604
 20
2547.931598713262
 30
0.0
 11
3158.574030284599
 21
2547.931598713262
 31
0.0
  0
LINE
  5
17398
330
747D
100
AcDbEntity
  8
細線
100
AcDbLine
 10
3158.574030284607
 20
3067.931598713262
 30
0.0
 11
5582.574030284604
 21
3067.931598713262
 31
0.0
  0
LINE
  5
17399
330
747D
100
AcDbEntity
  8
細線
100
AcDbLine
 10
3158.574030284607
 20
3002.931598713261
 30
0.0
 11
5582.574030284604
 21
3002.931598713261
 31
0.0
  0
LINE
  5
1739A
330
747D
100
AcDbEntity
  8
細線
100
AcDbLine
 10
3158.574030284607
 20
2937.931598713261
 30
0.0
 11
5582.574030284604
 21
2937.931598713261
 31
0.0
  0
LINE
  5
1739B
330
747D
100
AcDbEntity
  8
細線
100
AcDbLine
 10
3158.574030284607
 20
2872.931598713261
 30
0.0
 11
5582.574030284604
 21
2872.931598713261
 31
0.0
  0
LINE
  5
1739C
330
747D
100
AcDbEntity
  8
細線
100
AcDbLine
 10
3158.574030284607
 20
2807.931598713262
 30
0.0
 11
5582.574030284604
 21
2807.931598713262
 31
0.0
  0
LINE
  5
1739D
330
747D
100
AcDbEntity
  8
細線
100
AcDbLine
 10
3158.574030284607
 20
2742.931598713262
 30
0.0
 11
5582.574030284604
 21
2742.931598713262
 31
0.0
  0
LINE
  5
1739E
330
747D
100
AcDbEntity
  8
細線
100
AcDbLine
 10
3158.574030284607
 20
2677.931598713261
 30
0.0
 11
5582.574030284604
 21
2677.931598713261
 31
0.0
  0
LINE
  5
1739F
330
747D
100
AcDbEntity
  8
細線
100
AcDbLine
 10
3158.574030284607
 20
2612.931598713262
 30
0.0
 11
5582.574030284604
 21
2612.931598713262
 31
0.0
  0
LINE
  5
173A0
330
747D
100
AcDbEntity
  8
細線
100
AcDbLine
 10
3158.574030284607
 20
2547.931598713262
 30
0.0
 11
5582.574030284604
 21
2547.931598713262
 31
0.0
  0
LINE
  5
173A1
330
747D
100
AcDbEntity
  8
細線
100
AcDbLine
 10
3158.574030284607
 20
4367.931598713261
 30
0.0
 11
5582.574030284604
 21
4367.931598713261
 31
0.0
  0
LINE
  5
173A2
330
747D
100
AcDbEntity
  8
細線
100
AcDbLine
 10
3158.574030284607
 20
4497.931598713261
 30
0.0
 11
5582.574030284604
 21
4497.931598713261
 31
0.0
  0
LINE
  5
173A3
330
747D
100
AcDbEntity
  8
細線
100
AcDbLine
 10
3158.574030284607
 20
4432.931598713262
 30
0.0
 11
5582.574030284604
 21
4432.931598713262
 31
0.0
  0
LINE
  5
173A4
330
747D
100
AcDbEntity
  8
細線
100
AcDbLine
 10
3158.574030284607
 20
3717.931598713261
 30
0.0
 11
5582.574030284604
 21
3717.931598713261
 31
0.0
  0
LINE
  5
173A5
330
747D
100
AcDbEntity
  8
細線
100
AcDbLine
 10
3158.574030284607
 20
3652.931598713261
 30
0.0
 11
5582.574030284604
 21
3652.931598713261
 31
0.0
  0
LINE
  5
173A6
330
747D
100
AcDbEntity
  8
細線
100
AcDbLine
 10
3158.574030284607
 20
3587.931598713261
 30
0.0
 11
5582.574030284604
 21
3587.931598713261
 31
0.0
  0
LINE
  5
173A7
330
747D
100
AcDbEntity
  8
細線
100
AcDbLine
 10
3158.574030284607
 20
3522.931598713262
 30
0.0
 11
5582.574030284604
 21
3522.931598713262
 31
0.0
  0
LINE
  5
173A8
330
747D
100
AcDbEntity
  8
細線
100
AcDbLine
 10
3158.574030284607
 20
3457.931598713262
 30
0.0
 11
5582.574030284604
 21
3457.931598713262
 31
0.0
  0
LINE
  5
173A9
330
747D
100
AcDbEntity
  8
細線
100
AcDbLine
 10
3158.574030284607
 20
3392.931598713261
 30
0.0
 11
5582.574030284604
 21
3392.931598713261
 31
0.0
  0
LINE
  5
173AA
330
747D
100
AcDbEntity
  8
細線
100
AcDbLine
 10
3158.574030284607
 20
3327.931598713262
 30
0.0
 11
5582.574030284604
 21
3327.931598713262
 31
0.0
  0
LINE
  5
173AB
330
747D
100
AcDbEntity
  8
細線
100
AcDbLine
 10
3158.574030284607
 20
3262.931598713262
 30
0.0
 11
5582.574030284604
 21
3262.931598713262
 31
0.0
  0
LINE
  5
173AC
330
747D
100
AcDbEntity
  8
細線
100
AcDbLine
 10
3158.574030284607
 20
3197.931598713262
 30
0.0
 11
5582.574030284604
 21
3197.931598713262
 31
0.0
  0
LINE
  5
173AD
330
747D
100
AcDbEntity
  8
細線
100
AcDbLine
 10
3158.574030284607
 20
3132.931598713261
 30
0.0
 11
5582.574030284604
 21
3132.931598713261
 31
0.0
  0
LINE
  5
173AE
330
747D
100
AcDbEntity
  8
細線
100
AcDbLine
 10
3158.574030284607
 20
4107.931598713261
 30
0.0
 11
5582.574030284604
 21
4107.931598713261
 31
0.0
  0
LINE
  5
173AF
330
747D
100
AcDbEntity
  8
細線
100
AcDbLine
 10
3158.574030284607
 20
4042.931598713261
 30
0.0
 11
5582.574030284604
 21
4042.931598713261
 31
0.0
  0
LINE
  5
173B0
330
747D
100
AcDbEntity
  8
細線
100
AcDbLine
 10
3158.574030284607
 20
3977.931598713261
 30
0.0
 11
5582.574030284604
 21
3977.931598713261
 31
0.0
  0
LINE
  5
173B1
330
747D
100
AcDbEntity
  8
細線
100
AcDbLine
 10
3158.574030284607
 20
3912.931598713262
 30
0.0
 11
5582.574030284604
 21
3912.931598713262
 31
0.0
  0
LINE
  5
173B2
330
747D
100
AcDbEntity
  8
細線
100
AcDbLine
 10
3158.574030284607
 20
3847.931598713262
 30
0.0
 11
5582.574030284604
 21
3847.931598713262
 31
0.0
  0
LINE
  5
173B3
330
747D
100
AcDbEntity
  8
細線
100
AcDbLine
 10
3158.574030284607
 20
3782.931598713262
 30
0.0
 11
5582.574030284604
 21
3782.931598713262
 31
0.0
  0
LINE
  5
173B4
330
747D
100
AcDbEntity
  8
細線
100
AcDbLine
 10
3158.574030284607
 20
4302.931598713261
 30
0.0
 11
5582.574030284604
 21
4302.931598713261
 31
0.0
  0
LINE
  5
173B5
330
747D
100
AcDbEntity
  8
細線
100
AcDbLine
 10
3158.574030284607
 20
4237.931598713261
 30
0.0
 11
5582.574030284604
 21
4237.931598713261
 31
0.0
  0
LINE
  5
173B6
330
747D
100
AcDbEntity
  8
細線
100
AcDbLine
 10
3158.574030284607
 20
4172.931598713261
 30
0.0
 11
5582.574030284604
 21
4172.931598713261
 31
0.0
  0
LINE
  5
173B7
330
747D
100
AcDbEntity
  8
部品1
100
AcDbLine
 10
3055.574030284607
 20
4512.931598713262
 30
0.0
 11
5740.574030284602
 21
4512.931598713261
 31
0.0
  0
LINE
  5
173B8
330
747D
100
AcDbEntity
  8
部品1
100
AcDbLine
 10
5582.574030284607
 20
4512.931598713261
 30
0.0
 11
5582.574030284604
 21
2537.931598713262
 31
0.0
  0
LINE
  5
173B9
330
747D
100
AcDbEntity
  8
部品1
100
AcDbLine
 10
3158.574030284607
 20
4512.931598713261
 30
0.0
 11
3158.574030284607
 21
2537.931598713262
 31
0.0
  0
LINE
  5
173BA
330
747D
100
AcDbEntity
  8
部品1
100
AcDbLine
 10
3110.574030284606
 20
4512.931598713262
 30
0.0
 11
3110.574030284606
 21
2537.931598713262
 31
0.0
  0
LINE
  5
173BB
330
747D
100
AcDbEntity
  8
部品1
100
AcDbLine
 10
5630.574030284605
 20
4512.931598713259
 30
0.0
 11
5630.574030284605
 21
2537.931598713262
 31
0.0
  0
LINE
  5
173BC
330
747D
100
AcDbEntity
  8
部品1
100
AcDbLine
 10
3055.574030284606
 20
4771.931598713265
 30
0.0
 11
3055.574030284606
 21
2437.931598713261
 31
0.0
  0
LINE
  5
173BD
330
747D
100
AcDbEntity
  8
部品1
100
AcDbLine
 10
3055.574030284606
 20
4677.931598713261
 30
0.0
 11
5685.574030284604
 21
4677.931598713261
 31
0.0
  0
LINE
  5
173BE
330
747D
100
AcDbEntity
  8
部品1
100
AcDbLine
 10
3055.574030284606
 20
2537.931598713262
 30
0.0
 11
5685.574030284604
 21
2537.931598713262
 31
0.0
  0
LINE
  5
173BF
330
747D
100
AcDbEntity
  8
部品1
100
AcDbLine
 10
2216.804438938223
 20
2567.835409280926
 30
0.0
 11
2141.804438938223
 21
2437.931598713261
 31
0.0
  0
TEXT
  5
173C0
330
747D
100
AcDbEntity
  8
部品1
100
AcDbText
 10
2244.909381062996
 20
2474.038502319163
 30
0.0
 40
125.0
  1
G.L
  7
STYLE2
100
AcDbText
  0
LINE
  5
173C1
330
747D
100
AcDbEntity
  8
部品1
100
AcDbLine
 10
2141.804438938223
 20
2437.931598713261
 30
0.0
 11
2066.804438938223
 21
2567.835409280926
 31
0.0
  0
LINE
  5
173C2
330
747D
100
AcDbEntity
  8
部品1
100
AcDbLine
 10
2066.804438938223
 20
2567.835409280926
 30
0.0
 11
2216.804438938223
 21
2567.835409280926
 31
0.0
  0
LINE
  5
173C4
330
747D
100
AcDbEntity
  8
部品1
100
AcDbLine
 10
5685.574030284602
 20
2537.931598713262
 30
0.0
 11
8315.574030284603
 21
2537.931598713262
 31
0.0
  0
LINE
  5
173C5
330
747D
100
AcDbEntity
  8
部品1
100
AcDbLine
 10
5685.574030284602
 20
4677.931598713261
 30
0.0
 11
8315.574030284603
 21
4677.931598713261
 31
0.0
  0
LINE
  5
173C6
330
747D
100
AcDbEntity
  8
部品1
100
AcDbLine
 10
8260.574030284603
 20
4512.931598713258
 30
0.0
 11
8260.574030284603
 21
2537.931598713262
 31
0.0
  0
LINE
  5
173C7
330
747D
100
AcDbEntity
  8
部品1
100
AcDbLine
 10
5740.574030284602
 20
4512.931598713259
 30
0.0
 11
5740.574030284602
 21
2537.931598713262
 31
0.0
  0
LINE
  5
173C8
330
747D
100
AcDbEntity
  8
部品1
100
AcDbLine
 10
8315.574030284603
 20
4771.931598713265
 30
0.0
 11
8315.574030284603
 21
2437.931598713261
 31
0.0
  0
LINE
  5
173C9
330
747D
100
AcDbEntity
  8
部品1
100
AcDbLine
 10
5788.574030284602
 20
4512.931598713261
 30
0.0
 11
5788.574030284602
 21
2537.931598713262
 31
0.0
  0
LINE
  5
173CA
330
747D
100
AcDbEntity
  8
部品1
100
AcDbLine
 10
8212.574030284606
 20
4512.931598713261
 30
0.0
 11
8212.574030284603
 21
2537.931598713262
 31
0.0
  0
LINE
  5
173CB
330
747D
100
AcDbEntity
  8
部品1
100
AcDbLine
 10
5740.574030284602
 20
4512.931598713261
 30
0.0
 11
8315.574030284603
 21
4512.931598713262
 31
0.0
  0
LINE
  5
173CC
330
747D
100
AcDbEntity
  8
細線
100
AcDbLine
 10
5788.574030284602
 20
4172.931598713261
 30
0.0
 11
8212.574030284603
 21
4172.931598713261
 31
0.0
  0
LINE
  5
173CD
330
747D
100
AcDbEntity
  8
細線
100
AcDbLine
 10
5788.574030284602
 20
4237.931598713261
 30
0.0
 11
8212.574030284603
 21
4237.931598713261
 31
0.0
  0
LINE
  5
173CE
330
747D
100
AcDbEntity
  8
細線
100
AcDbLine
 10
5788.574030284602
 20
4302.931598713261
 30
0.0
 11
8212.574030284603
 21
4302.931598713261
 31
0.0
  0
LINE
  5
173CF
330
747D
100
AcDbEntity
  8
細線
100
AcDbLine
 10
5788.574030284602
 20
3782.931598713262
 30
0.0
 11
8212.574030284603
 21
3782.931598713262
 31
0.0
  0
LINE
  5
173D0
330
747D
100
AcDbEntity
  8
細線
100
AcDbLine
 10
5788.574030284602
 20
3847.931598713262
 30
0.0
 11
8212.574030284603
 21
3847.931598713262
 31
0.0
  0
LINE
  5
173D1
330
747D
100
AcDbEntity
  8
細線
100
AcDbLine
 10
5788.574030284602
 20
3912.931598713262
 30
0.0
 11
8212.574030284603
 21
3912.931598713262
 31
0.0
  0
LINE
  5
173D2
330
747D
100
AcDbEntity
  8
細線
100
AcDbLine
 10
5788.574030284602
 20
3977.931598713261
 30
0.0
 11
8212.574030284603
 21
3977.931598713261
 31
0.0
  0
LINE
  5
173D3
330
747D
100
AcDbEntity
  8
細線
100
AcDbLine
 10
5788.574030284602
 20
4042.931598713261
 30
0.0
 11
8212.574030284603
 21
4042.931598713261
 31
0.0
  0
LINE
  5
173D4
330
747D
100
AcDbEntity
  8
細線
100
AcDbLine
 10
5788.574030284602
 20
4107.931598713261
 30
0.0
 11
8212.574030284603
 21
4107.931598713261
 31
0.0
  0
LINE
  5
173D5
330
747D
100
AcDbEntity
  8
細線
100
AcDbLine
 10
5788.574030284602
 20
3132.931598713261
 30
0.0
 11
8212.574030284603
 21
3132.931598713261
 31
0.0
  0
LINE
  5
173D6
330
747D
100
AcDbEntity
  8
細線
100
AcDbLine
 10
5788.574030284602
 20
3197.931598713262
 30
0.0
 11
8212.574030284603
 21
3197.931598713262
 31
0.0
  0
LINE
  5
173D7
330
747D
100
AcDbEntity
  8
細線
100
AcDbLine
 10
5788.574030284602
 20
3262.931598713262
 30
0.0
 11
8212.574030284603
 21
3262.931598713262
 31
0.0
  0
LINE
  5
173D8
330
747D
100
AcDbEntity
  8
細線
100
AcDbLine
 10
5788.574030284602
 20
3327.931598713262
 30
0.0
 11
8212.574030284603
 21
3327.931598713262
 31
0.0
  0
LINE
  5
173D9
330
747D
100
AcDbEntity
  8
細線
100
AcDbLine
 10
5788.574030284602
 20
3392.931598713261
 30
0.0
 11
8212.574030284603
 21
3392.931598713261
 31
0.0
  0
LINE
  5
173DA
330
747D
100
AcDbEntity
  8
細線
100
AcDbLine
 10
5788.574030284602
 20
3457.931598713262
 30
0.0
 11
8212.574030284603
 21
3457.931598713262
 31
0.0
  0
LINE
  5
173DB
330
747D
100
AcDbEntity
  8
細線
100
AcDbLine
 10
5788.574030284602
 20
3522.931598713262
 30
0.0
 11
8212.574030284603
 21
3522.931598713262
 31
0.0
  0
LINE
  5
173DC
330
747D
100
AcDbEntity
  8
細線
100
AcDbLine
 10
5788.574030284602
 20
3587.931598713261
 30
0.0
 11
8212.574030284603
 21
3587.931598713261
 31
0.0
  0
LINE
  5
173DD
330
747D
100
AcDbEntity
  8
細線
100
AcDbLine
 10
5788.574030284602
 20
3652.931598713261
 30
0.0
 11
8212.574030284603
 21
3652.931598713261
 31
0.0
  0
LINE
  5
173DE
330
747D
100
AcDbEntity
  8
細線
100
AcDbLine
 10
5788.574030284602
 20
3717.931598713261
 30
0.0
 11
8212.574030284603
 21
3717.931598713261
 31
0.0
  0
LINE
  5
173DF
330
747D
100
AcDbEntity
  8
細線
100
AcDbLine
 10
5788.574030284602
 20
4432.931598713262
 30
0.0
 11
8212.574030284603
 21
4432.931598713262
 31
0.0
  0
LINE
  5
173E0
330
747D
100
AcDbEntity
  8
細線
100
AcDbLine
 10
5788.574030284602
 20
4497.931598713261
 30
0.0
 11
8212.574030284603
 21
4497.931598713261
 31
0.0
  0
LINE
  5
173E1
330
747D
100
AcDbEntity
  8
細線
100
AcDbLine
 10
5788.574030284602
 20
4367.931598713261
 30
0.0
 11
8212.574030284603
 21
4367.931598713261
 31
0.0
  0
LINE
  5
173E2
330
747D
100
AcDbEntity
  8
細線
100
AcDbLine
 10
5788.574030284602
 20
2547.931598713262
 30
0.0
 11
8212.574030284603
 21
2547.931598713262
 31
0.0
  0
LINE
  5
173E3
330
747D
100
AcDbEntity
  8
細線
100
AcDbLine
 10
5788.574030284602
 20
2612.931598713262
 30
0.0
 11
8212.574030284603
 21
2612.931598713262
 31
0.0
  0
LINE
  5
173E4
330
747D
100
AcDbEntity
  8
細線
100
AcDbLine
 10
5788.574030284602
 20
2677.931598713261
 30
0.0
 11
8212.574030284603
 21
2677.931598713261
 31
0.0
  0
LINE
  5
173E5
330
747D
100
AcDbEntity
  8
細線
100
AcDbLine
 10
5788.574030284602
 20
2742.931598713262
 30
0.0
 11
8212.574030284603
 21
2742.931598713262
 31
0.0
  0
LINE
  5
173E6
330
747D
100
AcDbEntity
  8
細線
100
AcDbLine
 10
5788.574030284602
 20
2807.931598713262
 30
0.0
 11
8212.574030284603
 21
2807.931598713262
 31
0.0
  0
LINE
  5
173E7
330
747D
100
AcDbEntity
  8
細線
100
AcDbLine
 10
5788.574030284602
 20
2872.931598713261
 30
0.0
 11
8212.574030284603
 21
2872.931598713261
 31
0.0
  0
LINE
  5
173E8
330
747D
100
AcDbEntity
  8
細線
100
AcDbLine
 10
5788.574030284602
 20
2937.931598713261
 30
0.0
 11
8212.574030284603
 21
2937.931598713261
 31
0.0
  0
LINE
  5
173E9
330
747D
100
AcDbEntity
  8
細線
100
AcDbLine
 10
5788.574030284602
 20
3002.931598713261
 30
0.0
 11
8212.574030284603
 21
3002.931598713261
 31
0.0
  0
LINE
  5
173EA
330
747D
100
AcDbEntity
  8
細線
100
AcDbLine
 10
5788.574030284602
 20
3067.931598713262
 30
0.0
 11
8212.574030284603
 21
3067.931598713262
 31
0.0
  0
LINE
  5
173EB
330
747D
100
AcDbEntity
  8
細線
100
AcDbLine
 10
8212.574030284603
 20
2547.931598713262
 30
0.0
 11
5788.574030284599
 21
2547.931598713262
 31
0.0
  0
CIRCLE
  5
173EF
330
747D
100
AcDbEntity
  8
細線
 48
50.0
100
AcDbCircle
 10
7000.574030284602
 20
3425.431598713262
 30
0.0
 40
18.0
  0
ARC
  5
173F0
330
747D
100
AcDbEntity
  8
細線
 48
50.0
100
AcDbCircle
 10
7300.574030284602
 20
3100.431598713262
 30
0.0
 40
15.0
100
AcDbArc
 50
270.0
 51
90.0
  0
ARC
  5
173F1
330
747D
100
AcDbEntity
  8
細線
 48
50.0
100
AcDbCircle
 10
7200.574030284602
 20
3100.431598713262
 30
0.0
 40
15.0
100
AcDbArc
 50
90.0
 51
270.0
  0
LINE
  5
173F2
330
747D
100
AcDbEntity
  8
細線
 48
50.0
100
AcDbLine
 10
7200.574030284602
 20
3115.431598713261
 30
0.0
 11
7300.574030284602
 21
3115.431598713261
 31
0.0
  0
LINE
  5
173F3
330
747D
100
AcDbEntity
  8
細線
 48
50.0
100
AcDbLine
 10
7300.574030284602
 20
3085.431598713262
 30
0.0
 11
7200.574030284602
 21
3085.431598713262
 31
0.0
  0
LINE
  5
173F4
330
747D
100
AcDbEntity
  8
細線
 48
50.0
100
AcDbLine
 10
6800.574030284602
 20
3085.431598713262
 30
0.0
 11
6700.574030284602
 21
3085.431598713262
 31
0.0
  0
LINE
  5
173F5
330
747D
100
AcDbEntity
  8
細線
 48
50.0
100
AcDbLine
 10
6700.574030284602
 20
3115.431598713261
 30
0.0
 11
6800.574030284602
 21
3115.431598713261
 31
0.0
  0
ARC
  5
173F6
330
747D
100
AcDbEntity
  8
細線
 48
50.0
100
AcDbCircle
 10
6800.574030284602
 20
3100.431598713262
 30
0.0
 40
15.0
100
AcDbArc
 50
270.0
 51
90.0
  0
ARC
  5
173F7
330
747D
100
AcDbEntity
  8
細線
 48
50.0
100
AcDbCircle
 10
6700.574030284602
 20
3100.431598713262
 30
0.0
 40
15.0
100
AcDbArc
 50
90.0
 51
270.0
  0
LWPOLYLINE
  5
17401
330
747D
100
AcDbEntity
  8
部品1
100
AcDbPolyline
 90
        4
 70
     1
 43
0.0
 10
5303.838697170387
 20
6287.117802289697
 10
5303.838697170387
 20
6047.225480744164
 10
6067.309363398829
 20
6047.225480744164
 10
6067.309363398829
 20
6287.117802289697
  0
TEXT
  5
17402
330
747D
100
AcDbEntity
  8
部品1
100
AcDbText
 10
5393.758306999425
 20
6094.224273071173
 30
0.0
 40
135.0
  1
平面図
  7
STYLE2
100
AcDbText
  0
TEXT
  5
17457
330
747D
100
AcDbEntity
  8
部品1
100
AcDbText
 10
5394.364100908342
 20
1595.038069494738
 30
0.0
 40
135.0
  1
正面図
  7
STYLE2
100
AcDbText
  0
LWPOLYLINE
  5
17458
330
747D
100
AcDbEntity
  8
部品1
100
AcDbPolyline
 90
        4
 70
     1
 43
0.0
 10
5303.838697170386
 20
1787.931598713261
 10
5303.838697170386
 20
1548.039277167729
 10
6067.309363398827
 20
1548.039277167729
 10
6067.309363398827
 20
1787.931598713261
  0
DIMENSION
  5
17459
330
747D
100
AcDbEntity
  8
寸法
 48
50.0
100
AcDbDimension
  2
*D23
 10
3055.574030284606
 20
5312.024768052735
 30
0.0
 11
5685.574030284606
 21
5312.024768052735
 31
0.0
 70
   160
  1
柱外寸法<>
 71
     5
 42
5260.0
  3
INABA_S40G
100
AcDbAlignedDimension
 13
8315.574030284606
 23
4912.931598713266
 33
0.0
 14
3055.574030284606
 24
4912.931598713267
 34
0.0
100
AcDbRotatedDimension
  0
DIMENSION
  5
1745A
330
747D
100
AcDbEntity
  8
寸法
 48
50.0
100
AcDbDimension
  2
*D24
 10
8315.574030284606
 20
5312.024768052735
 30
0.0
 11
8679.059311658843
 21
5312.024768052735
 31
0.0
 70
   160
 71
     5
 42
50.0
  3
INABA_S40G
100
AcDbAlignedDimension
 13
8365.574030284607
 23
4912.931598713264
 33
0.0
 14
8315.574030284606
 24
4912.931598713266
 34
0.0
100
AcDbRotatedDimension
  0
DIMENSION
  5
1745B
330
747D
100
AcDbEntity
  8
寸法
 48
50.0
100
AcDbDimension
  2
*D25
 10
8365.574030284607
 20
5528.55086767118
 30
0.0
 11
5685.574030284606
 21
5528.55086767118
 31
0.0
 70
   160
 71
     5
 42
5360.0
  3
INABA_S40G
100
AcDbAlignedDimension
 13
3005.574030284606
 23
4912.931598713266
 33
0.0
 14
8365.574030284607
 24
4912.931598713264
 34
0.0
100
AcDbRotatedDimension
  0
ARC
  5
1745C
330
747D
100
AcDbEntity
  8
部品1
100
AcDbCircle
 10
8358.165609178174
 20
4905.931598713265
 30
0.0
 40
7.0
100
AcDbArc
 50
356.7526572096623
 51
90.0
  0
ARC
  5
1745D
330
747D
100
AcDbEntity
  8
部品1
100
AcDbCircle
 10
8344.950285717139
 20
4778.931598713265
 30
0.0
 40
7.0
100
AcDbArc
 50
270.0
 51
356.7526572096623
  0
ARC
  5
1745E
330
747D
100
AcDbEntity
  8
部品1
 48
50.0
100
AcDbCircle
 10
8363.322095927818
 20
4885.598597874952
 30
0.0
 40
0.7
100
AcDbArc
 50
277.6581272073639
 51
356.7526572096103
  0
ARC
  5
1745F
330
747D
100
AcDbEntity
  8
部品1
 48
50.0
100
AcDbCircle
 10
8355.086065402975
 20
4793.398597874948
 30
0.0
 40
0.7
100
AcDbArc
 50
277.6581272073639
 51
356.7526572097143
  0
ARC
  5
17460
330
747D
100
AcDbEntity
  8
部品1
 48
50.0
100
AcDbCircle
 10
8355.579134511536
 20
4789.731598713264
 30
0.0
 40
3.0
100
AcDbArc
 50
97.6581272073639
 51
176.7526572096623
  0
ARC
  5
17461
330
747D
100
AcDbEntity
  8
部品1
 48
50.0
100
AcDbCircle
 10
8363.815165036379
 20
4881.931598713265
 30
0.0
 40
3.0
100
AcDbArc
 50
97.6581272073639
 51
176.7526572096623
  0
LINE
  5
17462
330
747D
100
AcDbEntity
  8
部品1
100
AcDbLine
 10
8360.819982140194
 20
4882.101538168369
 30
0.0
 11
8355.784941412082
 21
4793.358945335425
 31
0.0
  0
LINE
  5
17463
330
747D
100
AcDbEntity
  8
部品1
100
AcDbLine
 10
8352.583951615349
 20
4789.901538168368
 30
0.0
 11
8351.939045808238
 21
4778.535073318027
 31
0.0
  0
LINE
  5
17464
330
747D
100
AcDbEntity
  8
細線
 48
50.0
100
AcDbLine
 10
8332.574030284606
 20
4912.931598713265
 30
0.0
 11
8332.574030284606
 21
4771.931598713265
 31
0.0
  0
LINE
  5
17465
330
747D
100
AcDbEntity
  8
部品1
100
AcDbLine
 10
8365.154369269273
 20
4905.535073318024
 30
0.0
 11
8364.020971936927
 21
4885.558945335426
 31
0.0
  0
LINE
  5
17466
330
747D
100
AcDbEntity
  8
細線
 48
50.0
100
AcDbLine
 10
8355.179348747846
 20
4792.704841276733
 30
0.0
 11
5675.574030284604
 21
4792.704841277052
 31
0.0
  0
LINE
  5
17467
330
747D
100
AcDbEntity
  8
細線
 48
50.0
100
AcDbLine
 10
8363.415379272691
 20
4884.904841276733
 30
0.0
 11
5675.574030284604
 21
4884.904841276733
 31
0.0
  0
LINE
  5
17468
330
747D
100
AcDbEntity
  8
部品1
 48
50.0
100
AcDbLine
 10
8344.950285717139
 20
4771.931598713265
 30
0.0
 11
5685.574030284604
 21
4771.931598713265
 31
0.0
  0
LINE
  5
17469
330
747D
100
AcDbEntity
  8
部品1
 48
50.0
100
AcDbLine
 10
8358.165609178174
 20
4912.931598713265
 30
0.0
 11
5675.574030284604
 21
4912.931598713265
 31
0.0
  0
LINE
  5
17B47
330
747D
100
AcDbEntity
  8
破線
 48
5.0
100
AcDbLine
 10
10625.47043893114
 20
2187.931598713261
 30
0.0
 11
10680.47043893114
 21
2187.931598713261
 31
0.0
  0
LINE
  5
17B48
330
747D
100
AcDbEntity
  8
破線
 48
5.0
100
AcDbLine
 10
10680.47043893114
 20
2437.931598713261
 30
0.0
 11
10680.47043893114
 21
2187.931598713261
 31
0.0
  0
LINE
  5
17B49
330
747D
100
AcDbEntity
  8
破線
 48
5.0
100
AcDbLine
 10
10625.47043893114
 20
2437.931598713261
 30
0.0
 11
10625.47043893114
 21
2187.931598713261
 31
0.0
  0
LINE
  5
17B4A
330
747D
100
AcDbEntity
  8
部品1
100
AcDbLine
 10
10625.47043893114
 20
2537.931598713262
 30
0.0
 11
10232.47322472229
 21
2437.931598713261
 31
0.0
  0
DIMENSION
  5
17B4B
330
747D
100
AcDbEntity
  8
寸法
100
AcDbDimension
  2
*D26
 10
9781.72030974788
 20
2587.93159871326
 30
0.0
 11
9681.708498724258
 21
3632.931598713263
 31
0.0
 70
    32
 71
     5
 42
2090.000000000002
  3
INABA_S40G
100
AcDbAlignedDimension
 13
10625.47043893114
 23
4677.931598713261
 33
0.0
 14
10625.47043893114
 24
2587.93159871326
 34
0.0
 50
90.0
100
AcDbRotatedDimension
1001
ACAD
1000
DSTYLE
1002
{
1070
   174
1070
     0
1070
   272
1070
     1
1070
   288
1070
     0
1070
   341
1005
0
1002
}
  0
DIMENSION
  5
17B4C
330
747D
100
AcDbEntity
  8
寸法
100
AcDbDimension
  2
*D27
 10
9481.720309747879
 20
4912.931598713266
 30
0.0
 11
9381.708498724256
 21
3725.431598713265
 31
0.0
 70
    32
 71
     5
 42
2375.000000000006
  3
INABA_S40G
100
AcDbAlignedDimension
 13
10625.47043893114
 23
2537.93159871326
 33
0.0
 14
10565.47043893114
 24
4912.931598713265
 34
0.0
 50
90.0
100
AcDbRotatedDimension
1001
ACAD
1000
DSTYLE
1002
{
1070
   174
1070
     0
1070
   272
1070
     1
1070
   288
1070
     0
1070
   341
1005
0
1002
}
  0
DIMENSION
  5
17B4D
330
747D
100
AcDbEntity
  8
寸法
100
AcDbDimension
  2
*D28
 10
13540.39759690327
 20
4857.931598713261
 30
0.0
 11
13440.38578587964
 21
3697.931598713263
 31
0.0
 70
    32
 71
     5
 42
2320.0
  3
INABA_S40G
100
AcDbAlignedDimension
 13
12835.47043893114
 23
2537.931598713262
 33
0.0
 14
12915.47043893114
 24
4857.931598713261
 34
0.0
 50
90.0
100
AcDbRotatedDimension
1001
ACAD
1000
DSTYLE
1002
{
1070
   174
1070
     0
1070
   272
1070
     1
1070
   288
1070
     0
1070
   341
1005
0
1002
}
  0
LINE
  5
17B4E
330
747D
100
AcDbEntity
  8
部品1
100
AcDbLine
 10
11555.0154252881
 20
5044.682081013235
 30
0.0
 11
11880.47043893114
 21
5027.164022054375
 31
0.0
  0
ARC
  5
17B4F
330
747D
100
AcDbEntity
  8
部品1
100
AcDbCircle
 10
12901.09797474508
 20
4751.955355979054
 30
0.0
 40
0.7
100
AcDbArc
 50
275.0921697642102
 51
354.1866997666569
  0
ARC
  5
17B50
330
747D
100
AcDbEntity
  8
部品1
100
AcDbCircle
 10
12911.9573204944
 20
4828.998610796978
 30
0.0
 40
0.7
100
AcDbArc
 50
275.0921697642102
 51
354.1866997665532
  0
ARC
  5
17B51
330
747D
100
AcDbEntity
  8
部品1
100
AcDbCircle
 10
12912.285725737
 20
4825.313213939888
 30
0.0
 40
3.0
100
AcDbArc
 50
95.0921697642102
 51
174.1866997665532
  0
ARC
  5
17B52
330
747D
100
AcDbEntity
  8
部品1
100
AcDbCircle
 10
12901.42637998768
 20
4748.269959121964
 30
0.0
 40
3.0
100
AcDbArc
 50
95.0921697642102
 51
174.1866997665532
  0
ARC
  5
17B53
330
747D
100
AcDbEntity
  8
部品1
 48
50.0
100
AcDbCircle
 10
12890.39824471257
 20
4738.67921451808
 30
0.0
 40
7.0
100
AcDbArc
 50
267.8377559869492
 51
354.1866997665532
  0
ARC
  5
17B54
330
747D
100
AcDbEntity
  8
部品1
 48
50.0
100
AcDbCircle
 10
12907.72034117709
 20
4849.581761660254
 30
0.0
 40
7.0
100
AcDbArc
 50
354.1866997665532
 51
87.03587545283093
  0
LINE
  5
17B55
330
747D
100
AcDbEntity
  8
部品1
 48
50.0
100
AcDbLine
 10
12898.44180831707
 20
4748.573820838866
 30
0.0
 11
12897.36224527733
 21
4737.970203845306
 31
0.0
  0
LINE
  5
17B56
330
747D
100
AcDbEntity
  8
部品1
 48
50.0
100
AcDbLine
 10
12909.30115406639
 20
4825.617075656792
 30
0.0
 11
12901.79437480155
 21
4751.884454911778
 31
0.0
  0
LINE
  5
17B57
330
747D
100
AcDbEntity
  8
部品1
 48
50.0
100
AcDbLine
 10
12914.68434174184
 20
4848.872750987481
 30
0.0
 11
12912.65372055087
 21
4828.9277097297
 31
0.0
  0
ARC
  5
17B58
330
747D
100
AcDbEntity
  8
部品1
100
AcDbCircle
 10
10571.5075308025
 20
4791.745757672164
 30
0.0
 40
0.7
100
AcDbArc
 50
181.0932240292114
 51
260.1877540314845
  0
ARC
  5
17B59
330
747D
100
AcDbEntity
  8
部品1
100
AcDbCircle
 10
10566.73485720489
 20
4884.611535872285
 30
0.0
 40
0.7
100
AcDbArc
 50
181.0932240292114
 51
260.1877540314845
  0
ARC
  5
17B5A
330
747D
100
AcDbEntity
  8
部品1
100
AcDbCircle
 10
10566.10430280187
 20
4880.965661334887
 30
0.0
 40
3.0
100
AcDbArc
 50
1.093224029315636
 51
80.18775403169875
  0
ARC
  5
17B5B
330
747D
100
AcDbEntity
  8
部品1
100
AcDbCircle
 10
10570.87697639948
 20
4788.099883134768
 30
0.0
 40
3.0
100
AcDbArc
 50
1.093224029315636
 51
80.18775403169875
  0
ARC
  5
17B5C
330
747D
100
AcDbEntity
  8
部品1
 48
50.0
100
AcDbCircle
 10
10581.07710877468
 20
4777.707639752287
 30
0.0
 40
7.0
100
AcDbArc
 50
181.0932240293156
 51
267.8377559869492
  0
ARC
  5
17B5D
330
747D
100
AcDbEntity
  8
部品1
 48
50.0
100
AcDbCircle
 10
10572.65345067259
 20
4904.658699285381
 30
0.0
 40
7.0
100
AcDbArc
 50
87.03587545283093
 51
181.0932240293156
  0
LINE
  5
17B5E
330
747D
100
AcDbEntity
  8
部品1
 48
50.0
100
AcDbLine
 10
10573.87643032591
 20
4788.157120737952
 30
0.0
 11
10574.07838294634
 21
4777.574085344858
 31
0.0
  0
LINE
  5
17B5F
330
747D
100
AcDbEntity
  8
細線
 48
50.0
100
AcDbLine
 10
10571.27033726924
 20
4791.08716885676
 30
0.0
 11
12901.27400169988
 21
4751.277849882266
 31
0.0
  0
LINE
  5
17B60
330
747D
100
AcDbEntity
  8
細線
 48
50.0
100
AcDbLine
 10
10566.50986203195
 20
4883.948680554622
 30
0.0
 11
12912.14584677712
 21
4828.324475913796
 31
0.0
  0
LINE
  5
17B61
330
747D
100
AcDbEntity
  8
部品1
 48
50.0
100
AcDbLine
 10
10569.10375672831
 20
4881.02289893807
 30
0.0
 11
10570.80765821967
 21
4791.732402231423
 31
0.0
  0
LINE
  5
17B62
330
747D
100
AcDbEntity
  8
部品1
 48
50.0
100
AcDbLine
 10
10565.65472484424
 20
4904.525144877954
 30
0.0
 11
10566.03498462206
 21
4884.598180431542
 31
0.0
  0
LINE
  5
17B63
330
747D
100
AcDbEntity
  8
細線
 48
50.0
100
AcDbLine
 10
12882.47043893114
 20
4857.898577748557
 30
0.0
 11
12877.72275604314
 21
4732.152805257814
 31
0.0
  0
LINE
  5
17B64
330
747D
100
AcDbEntity
  8
細線
 48
50.0
100
AcDbLine
 10
10598.47043893114
 20
4910.331275088665
 30
0.0
 11
10593.18133737563
 21
4770.245642461311
 31
0.0
  0
LINE
  5
17B65
330
747D
100
AcDbEntity
  8
部品1
100
AcDbLine
 10
10580.81300353309
 20
4770.712623782229
 30
0.0
 11
12890.13413947099
 21
4731.684198548024
 31
0.0
  0
LINE
  5
17B66
330
747D
100
AcDbEntity
  8
部品1
100
AcDbLine
 10
10573.0154252881
 20
4911.649334047528
 30
0.0
 11
12908.08231579261
 21
4856.572396422402
 31
0.0
  0
LINE
  5
17B67
330
747D
100
AcDbEntity
  8
部品1
 48
50.0
100
AcDbLine
 10
11580.47043893114
 20
5043.364022054372
 30
0.0
 11
11880.47043893114
 21
5043.364022054372
 31
0.0
  0
LINE
  5
17B68
330
747D
100
AcDbEntity
  8
部品1
 48
50.0
100
AcDbLine
 10
11880.47043893114
 20
5043.364022054372
 30
0.0
 11
11880.47043893114
 21
5027.164022054375
 31
0.0
  0
TEXT
  5
17B69
330
747D
100
AcDbEntity
  8
部品1
 48
50.0
100
AcDbText
 10
11568.73827415486
 20
5079.248044206805
 30
0.0
 40
120.0
  1
1000
  7
STYLE1
100
AcDbText
  0
TEXT
  5
17B6A
330
747D
100
AcDbEntity
  8
部品1
 48
50.0
100
AcDbText
 10
12046.37129681995
 20
4941.746785988522
 30
0.0
 40
120.0
  1
44
 50
90.0
  7
STYLE1
100
AcDbText
  0
LINE
  5
17B6B
330
747D
100
AcDbEntity
  8
細線
 48
50.0
100
AcDbLine
 10
12017.97043893114
 20
4677.931598713261
 30
0.0
 11
12017.97043893114
 21
2587.931598713261
 31
0.0
  0
LINE
  5
17B6C
330
747D
100
AcDbEntity
  8
細線
 48
50.0
100
AcDbLine
 10
12002.97043893114
 20
4677.931598713261
 30
0.0
 11
12002.97043893114
 21
2587.931598713261
 31
0.0
  0
LINE
  5
17B6D
330
747D
100
AcDbEntity
  8
細線
 48
50.0
100
AcDbLine
 10
12142.97043893114
 20
4677.931598713261
 30
0.0
 11
12142.97043893114
 21
2587.931598713261
 31
0.0
  0
LINE
  5
17B6E
330
747D
100
AcDbEntity
  8
細線
 48
50.0
100
AcDbLine
 10
12157.97043893114
 20
4677.931598713261
 30
0.0
 11
12157.97043893114
 21
2587.931598713261
 31
0.0
  0
LINE
  5
17B6F
330
747D
100
AcDbEntity
  8
細線
 48
50.0
100
AcDbLine
 10
12297.97043893114
 20
4677.931598713261
 30
0.0
 11
12297.97043893114
 21
2587.931598713261
 31
0.0
  0
LINE
  5
17B70
330
747D
100
AcDbEntity
  8
細線
 48
50.0
100
AcDbLine
 10
12282.97043893114
 20
4677.931598713261
 30
0.0
 11
12282.97043893114
 21
2587.931598713261
 31
0.0
  0
LINE
  5
17B71
330
747D
100
AcDbEntity
  8
部品1
100
AcDbLine
 10
12360.47043893114
 20
4677.931598713261
 30
0.0
 11
12360.47043893114
 21
2587.931598713261
 31
0.0
  0
LINE
  5
17B72
330
747D
100
AcDbEntity
  8
部品1
100
AcDbLine
 10
10625.47043893114
 20
4677.931598713261
 30
0.0
 11
12835.47043893114
 21
4677.931598713261
 31
0.0
  0
LINE
  5
17B73
330
747D
100
AcDbEntity
  8
部品1
100
AcDbLine
 10
10680.47043893114
 20
2587.931598713261
 30
0.0
 11
12835.47043893114
 21
2587.931598713261
 31
0.0
  0
LINE
  5
17B74
330
747D
100
AcDbEntity
  8
部品1
100
AcDbLine
 10
10680.47043893114
 20
4677.931598713261
 30
0.0
 11
10680.47043893114
 21
2437.931598713261
 31
0.0
  0
LINE
  5
17B75
330
747D
100
AcDbEntity
  8
部品1
100
AcDbLine
 10
10625.47043893114
 20
4769.957895757849
 30
0.0
 11
10625.47043893114
 21
2437.931598713261
 31
0.0
  0
DIMENSION
  5
17B77
330
747D
100
AcDbEntity
  8
寸法
100
AcDbDimension
  2
*D29
 10
9781.72030974788
 20
2537.931598713262
 30
0.0
 11
9781.72030974788
 21
2231.884354618771
 31
0.0
 70
   160
 71
     5
 42
50.0
  3
INABA_S40G
100
AcDbAlignedDimension
 13
10625.47043893114
 23
2587.931598713261
 33
0.0
 14
10570.47043893114
 24
2537.931598713262
 34
0.0
 50
90.0
100
AcDbRotatedDimension
1001
ACAD
1000
DSTYLE
1002
{
1070
   174
1070
     0
1070
   272
1070
     1
1070
   288
1070
     0
1070
   341
1005
0
1002
}
  0
LINE
  5
17B78
330
747D
100
AcDbEntity
  8
部品1
100
AcDbLine
 10
11100.47043893114
 20
4677.931598713261
 30
0.0
 11
11100.47043893114
 21
2587.931598713261
 31
0.0
  0
LINE
  5
17B79
330
747D
100
AcDbEntity
  8
部品1
100
AcDbLine
 10
12835.47043893114
 20
4732.608036344483
 30
0.0
 11
12835.47043893114
 21
2437.931598713261
 31
0.0
  0
LINE
  5
17B7A
330
747D
100
AcDbEntity
  8
部品1
100
AcDbLine
 10
12780.47043893114
 20
4677.931598713261
 30
0.0
 11
12780.47043893114
 21
2587.931598713261
 31
0.0
  0
DIMENSION
  5
17B7B
330
747D
100
AcDbEntity
  8
寸法
 48
50.0
100
AcDbDimension
  2
*D30
 10
10625.47043893114
 20
5311.589052292566
 30
0.0
 11
11730.47043893114
 21
5311.589052292566
 31
0.0
 70
   160
  1
柱外寸法<>
 71
     5
 42
2210.0
  3
INABA_S40G
100
AcDbAlignedDimension
 13
12835.47043893114
 23
4859.742278324915
 33
0.0
 14
10625.47043893114
 24
4908.933216836238
 34
0.0
100
AcDbRotatedDimension
1001
ACAD
1000
DSTYLE
1002
{
1070
   174
1070
     0
1070
   272
1070
     1
1070
   288
1070
     0
1070
   341
1005
0
1002
}
  0
DIMENSION
  5
17B7C
330
747D
100
AcDbEntity
  8
寸法
 48
50.0
100
AcDbDimension
  2
*D31
 10
10565.47043893114
 20
5311.589052292566
 30
0.0
 11
10255.83264365555
 21
5311.589052292566
 31
0.0
 70
   160
 71
     5
 42
60.0
  3
INABA_S40G
100
AcDbAlignedDimension
 13
10625.47043893114
 23
4908.933216836238
 33
0.0
 14
10565.47043893114
 24
4912.931598713265
 34
0.0
100
AcDbRotatedDimension
1001
ACAD
1000
DSTYLE
1002
{
1070
   174
1070
     0
1070
   272
1070
     1
1070
   288
1070
     0
1070
   341
1005
0
1002
}
  0
DIMENSION
  5
17B7D
330
747D
100
AcDbEntity
  8
寸法
 48
50.0
100
AcDbDimension
  2
*D32
 10
10565.47043893114
 20
5530.790885966857
 30
0.0
 11
11740.47043893114
 21
5530.790885966857
 31
0.0
 70
   160
 71
     5
 42
2350.0
  3
INABA_S40G
100
AcDbAlignedDimension
 13
12915.47043893114
 23
4857.931598713261
 33
0.0
 14
10565.47043893114
 24
4912.931598713265
 34
0.0
100
AcDbRotatedDimension
1001
ACAD
1000
DSTYLE
1002
{
1070
   174
1070
     0
1070
   272
1070
     1
1070
   288
1070
     0
1070
   341
1005
0
1002
}
  0
LINE
  5
17B7E
330
747D
100
AcDbEntity
  8
部品1
100
AcDbLine
 10
10680.47043893114
 20
2537.931598713262
 30
0.0
 11
12835.47043893114
 21
2537.931598713262
 31
0.0
  0
LINE
  5
17B7F
330
747D
100
AcDbEntity
  8
細線
 48
50.0
100
AcDbLine
 10
11177.97043893114
 20
4677.931598713261
 30
0.0
 11
11177.97043893114
 21
2587.931598713261
 31
0.0
  0
LINE
  5
17B80
330
747D
100
AcDbEntity
  8
細線
 48
50.0
100
AcDbLine
 10
11162.97043893114
 20
4677.931598713261
 30
0.0
 11
11162.97043893114
 21
2587.931598713261
 31
0.0
  0
LINE
  5
17B81
330
747D
100
AcDbEntity
  8
細線
 48
50.0
100
AcDbLine
 10
11302.97043893114
 20
4677.931598713261
 30
0.0
 11
11302.97043893114
 21
2587.931598713261
 31
0.0
  0
LINE
  5
17B82
330
747D
100
AcDbEntity
  8
細線
 48
50.0
100
AcDbLine
 10
11317.97043893114
 20
4677.931598713261
 30
0.0
 11
11317.97043893114
 21
2587.931598713261
 31
0.0
  0
LINE
  5
17B83
330
747D
100
AcDbEntity
  8
細線
 48
50.0
100
AcDbLine
 10
11457.97043893114
 20
4677.931598713261
 30
0.0
 11
11457.97043893114
 21
2587.931598713261
 31
0.0
  0
LINE
  5
17B84
330
747D
100
AcDbEntity
  8
細線
 48
50.0
100
AcDbLine
 10
11442.97043893114
 20
4677.931598713261
 30
0.0
 11
11442.97043893114
 21
2587.931598713261
 31
0.0
  0
LINE
  5
17B85
330
747D
100
AcDbEntity
  8
細線
 48
50.0
100
AcDbLine
 10
11022.97043893114
 20
4677.931598713261
 30
0.0
 11
11022.97043893114
 21
2587.931598713261
 31
0.0
  0
LINE
  5
17B86
330
747D
100
AcDbEntity
  8
細線
 48
50.0
100
AcDbLine
 10
11037.97043893114
 20
4677.931598713261
 30
0.0
 11
11037.97043893114
 21
2587.931598713261
 31
0.0
  0
LINE
  5
17B87
330
747D
100
AcDbEntity
  8
細線
 48
50.0
100
AcDbLine
 10
10897.97043893114
 20
4677.931598713261
 30
0.0
 11
10897.97043893114
 21
2587.931598713261
 31
0.0
  0
LINE
  5
17B88
330
747D
100
AcDbEntity
  8
細線
 48
50.0
100
AcDbLine
 10
10882.97043893114
 20
4677.931598713261
 30
0.0
 11
10882.97043893114
 21
2587.931598713261
 31
0.0
  0
LINE
  5
17B89
330
747D
100
AcDbEntity
  8
細線
 48
50.0
100
AcDbLine
 10
10742.97043893114
 20
4677.931598713261
 30
0.0
 11
10742.97043893114
 21
2587.931598713261
 31
0.0
  0
LINE
  5
17B8A
330
747D
100
AcDbEntity
  8
細線
 48
50.0
100
AcDbLine
 10
10757.97043893114
 20
4677.931598713261
 30
0.0
 11
10757.97043893114
 21
2587.931598713261
 31
0.0
  0
DIMENSION
  5
17B8B
330
747D
100
AcDbEntity
  8
寸法
 48
50.0
100
AcDbDimension
  2
*D33
 10
12915.47043893114
 20
5311.589052292566
 30
0.0
 11
13121.51768302563
 21
5311.589052292566
 31
0.0
 70
   160
 71
     5
 42
80.0
  3
INABA_S40G
100
AcDbAlignedDimension
 13
12835.47043893114
 23
4859.742278324915
 33
0.0
 14
12915.47043893114
 24
4857.931598713261
 34
0.0
100
AcDbRotatedDimension
1001
ACAD
1000
DSTYLE
1002
{
1070
   174
1070
     0
1070
   272
1070
     1
1070
   288
1070
     0
1070
   341
1005
0
1002
}
  0
LINE
  5
17B8C
330
747D
100
AcDbEntity
  8
部品1
100
AcDbLine
 10
11520.47043893114
 20
4677.931598713261
 30
0.0
 11
11520.47043893114
 21
2587.931598713261
 31
0.0
  0
LINE
  5
17B8D
330
747D
100
AcDbEntity
  8
細線
 48
50.0
100
AcDbLine
 10
11862.97043893114
 20
4677.931598713261
 30
0.0
 11
11862.97043893114
 21
2587.931598713261
 31
0.0
  0
LINE
  5
17B8E
330
747D
100
AcDbEntity
  8
細線
 48
50.0
100
AcDbLine
 10
11877.97043893114
 20
4677.931598713261
 30
0.0
 11
11877.97043893114
 21
2587.931598713261
 31
0.0
  0
LINE
  5
17B8F
330
747D
100
AcDbEntity
  8
細線
 48
50.0
100
AcDbLine
 10
11737.97043893114
 20
4677.931598713261
 30
0.0
 11
11737.97043893114
 21
2587.931598713261
 31
0.0
  0
LINE
  5
17B90
330
747D
100
AcDbEntity
  8
細線
 48
50.0
100
AcDbLine
 10
11722.97043893114
 20
4677.931598713261
 30
0.0
 11
11722.97043893114
 21
2587.931598713261
 31
0.0
  0
LINE
  5
17B91
330
747D
100
AcDbEntity
  8
細線
 48
50.0
100
AcDbLine
 10
11582.97043893114
 20
4677.931598713261
 30
0.0
 11
11582.97043893114
 21
2587.931598713261
 31
0.0
  0
LINE
  5
17B92
330
747D
100
AcDbEntity
  8
細線
 48
50.0
100
AcDbLine
 10
11597.97043893114
 20
4677.931598713261
 30
0.0
 11
11597.97043893114
 21
2587.931598713261
 31
0.0
  0
LINE
  5
17B93
330
747D
100
AcDbEntity
  8
部品1
100
AcDbLine
 10
11940.47043893114
 20
4677.931598713261
 30
0.0
 11
11940.47043893114
 21
2587.931598713261
 31
0.0
  0
LINE
  5
17B94
330
747D
100
AcDbEntity
  8
細線
 48
50.0
100
AcDbLine
 10
12437.97043893115
 20
4677.931598713261
 30
0.0
 11
12437.97043893114
 21
2587.931598713261
 31
0.0
  0
LINE
  5
17B95
330
747D
100
AcDbEntity
  8
細線
 48
50.0
100
AcDbLine
 10
12422.97043893115
 20
4677.931598713261
 30
0.0
 11
12422.97043893114
 21
2587.931598713261
 31
0.0
  0
LINE
  5
17B96
330
747D
100
AcDbEntity
  8
細線
 48
50.0
100
AcDbLine
 10
12562.97043893115
 20
4677.931598713261
 30
0.0
 11
12562.97043893114
 21
2587.931598713261
 31
0.0
  0
LINE
  5
17B97
330
747D
100
AcDbEntity
  8
細線
 48
50.0
100
AcDbLine
 10
12577.97043893115
 20
4677.931598713261
 30
0.0
 11
12577.97043893114
 21
2587.931598713261
 31
0.0
  0
LINE
  5
17B98
330
747D
100
AcDbEntity
  8
細線
 48
50.0
100
AcDbLine
 10
12717.97043893115
 20
4677.931598713261
 30
0.0
 11
12717.97043893114
 21
2587.931598713261
 31
0.0
  0
LINE
  5
17B99
330
747D
100
AcDbEntity
  8
細線
 48
50.0
100
AcDbLine
 10
12702.97043893115
 20
4677.931598713261
 30
0.0
 11
12702.97043893114
 21
2587.931598713261
 31
0.0
  0
DIMENSION
  5
17B9A
330
747D
100
AcDbEntity
  8
寸法
 48
50.0
100
AcDbDimension
  2
*D34
 10
10004.86203216277
 20
4787.276857586592
 30
0.0
 11
10015.52750742169
 21
5158.123520828293
 31
0.0
 70
   161
 71
     5
 42
141.0
  3
INABA_S40G
100
AcDbAlignedDimension
 13
10584.86645908972
 23
4911.654347547941
 33
0.0
 14
10580.81300353309
 24
4770.712623782229
 34
0.0
1001
ACAD
1000
DSTYLE
1002
{
1070
   174
1070
     0
1070
   272
1070
     1
1070
   288
1070
     0
1070
   341
1005
0
1002
}
  0
LWPOLYLINE
  5
17B9C
330
747D
100
AcDbEntity
  8
部品1
100
AcDbPolyline
 90
        4
 70
     1
 43
0.0
 10
11348.73510581692
 20
1787.931598713262
 10
11348.73510581692
 20
1548.039277167729
 10
12112.20577204536
 20
1548.039277167729
 10
12112.20577204536
 20
1787.931598713262
  0
TEXT
  5
17B9D
330
747D
100
AcDbEntity
  8
部品1
100
AcDbText
 10
11438.18120724053
 20
1595.038069494738
 30
0.0
 40
135.0
  1
側面図
  7
STYLE2
100
AcDbText
  0
LINE
  5
17D6F
330
747D
100
AcDbEntity
  8
補助
  6
PHANTOM
 62
   230
 48
50.0
100
AcDbLine
 10
140.0
 20
0.0
 30
0.0
 11
139.9999999999995
 21
11409.6
 31
0.0
  0
DIMENSION
  5
17ED0
330
747D
100
AcDbEntity
  8
寸法
 48
50.0
100
AcDbDimension
  2
*D35
 10
8603.11713260635
 20
4677.931598713261
 30
0.0
 11
8603.117132606348
 21
4916.416880087502
 31
0.0
 70
   160
 71
     5
 42
164.9999999999991
  3
INABA_S40G
100
AcDbAlignedDimension
 13
8315.574030284603
 23
4512.931598713262
 33
0.0
 14
8315.574030284603
 24
4677.931598713261
 34
0.0
 50
90.0
100
AcDbRotatedDimension
1001
ACAD
1000
DSTYLE
1002
{
1002
}
  0
DIMENSION
  5
17ED1
330
747D
100
AcDbEntity
  8
寸法
 48
50.0
100
AcDbDimension
  2
*D36
 10
8603.117132606348
 20
4512.931598713262
 30
0.0
 11
8743.286955852715
 21
4513.89879855292
 31
0.0
 70
   160
 71
     5
 42
27.00000000000182
  3
INABA_S40G
100
AcDbAlignedDimension
 13
8315.574030284603
 23
4485.93159871326
 33
0.0
 14
8315.574030284603
 24
4512.931598713262
 34
0.0
 50
90.0
100
AcDbRotatedDimension
1001
ACAD
1000
DSTYLE
1002
{
1070
   279
1070
     2
1002
}
  0
DIMENSION
  5
17ED2
330
747D
100
AcDbEntity
  8
寸法
 48
50.0
100
AcDbDimension
  2
*D37
 10
8603.117132606348
 20
4485.93159871326
 30
0.0
 11
8503.117132606346
 21
3511.931598713263
 31
0.0
 70
    32
  1
有効開口部高サ <>
 71
     5
 42
1947.999999999999
  3
INABA_S40G
100
AcDbAlignedDimension
 13
8315.574030284603
 23
2537.931598713262
 33
0.0
 14
8315.574030284603
 24
4485.93159871326
 34
0.0
 50
90.0
100
AcDbRotatedDimension
  0
ARC
  5
18335
330
747D
100
AcDbEntity
  8
部品1
 48
0.01
100
AcDbCircle
 10
3843.574030284608
 20
4741.931598713261
 30
0.0
 40
2.0
100
AcDbArc
 50
0.0
 51
90.0
  0
ARC
  5
18336
330
747D
100
AcDbEntity
  8
部品1
 48
0.01
100
AcDbCircle
 10
3667.574030284608
 20
4741.931598713261
 30
0.0
 40
2.0
100
AcDbArc
 50
90.0
 51
180.0
  0
LINE
  5
18337
330
747D
100
AcDbEntity
  8
細線
100
AcDbLine
 10
3755.574030284605
 20
4714.431598713261
 30
0.0
 11
3829.574030284608
 21
4714.431598713261
 31
0.0
  0
LINE
  5
18338
330
747D
100
AcDbEntity
  8
細線
100
AcDbLine
 10
3755.574030284608
 20
4737.431598713261
 30
0.0
 11
3681.574030284608
 21
4737.431598713261
 31
0.0
  0
LINE
  5
18339
330
747D
100
AcDbEntity
  8
細線
100
AcDbLine
 10
3681.574030284608
 20
4714.431598713261
 30
0.0
 11
3755.574030284608
 21
4714.431598713261
 31
0.0
  0
LINE
  5
1833A
330
747D
100
AcDbEntity
  8
細線
100
AcDbLine
 10
3829.574030284608
 20
4737.431598713261
 30
0.0
 11
3755.574030284608
 21
4737.431598713261
 31
0.0
  0
LINE
  5
1833B
330
747D
100
AcDbEntity
  8
細線
100
AcDbLine
 10
3829.574030284608
 20
4714.431598713261
 30
0.0
 11
3829.574030284608
 21
4737.431598713261
 31
0.0
  0
LINE
  5
1833C
330
747D
100
AcDbEntity
  8
細線
100
AcDbLine
 10
3681.574030284608
 20
4737.431598713261
 30
0.0
 11
3681.574030284608
 21
4714.431598713261
 31
0.0
  0
LINE
  5
1833D
330
747D
100
AcDbEntity
  8
部品1
 48
0.01
100
AcDbLine
 10
3845.574030284605
 20
4710.431598713261
 30
0.0
 11
3845.574030284608
 21
4741.931598713261
 31
0.0
  0
LINE
  5
1833E
330
747D
100
AcDbEntity
  8
部品1
 48
0.01
100
AcDbLine
 10
3665.574030284608
 20
4741.931598713261
 30
0.0
 11
3665.574030284608
 21
4710.431598713261
 31
0.0
  0
LINE
  5
1833F
330
747D
100
AcDbEntity
  8
部品1
 48
0.01
100
AcDbLine
 10
3843.574030284608
 20
4743.931598713261
 30
0.0
 11
3667.574030284608
 21
4743.931598713261
 31
0.0
  0
LINE
  5
18340
330
747D
100
AcDbEntity
  8
細線
100
AcDbLine
 10
3681.574030284608
 20
4731.431598713261
 30
0.0
 11
3755.574030284608
 21
4731.431598713261
 31
0.0
  0
LINE
  5
18341
330
747D
100
AcDbEntity
  8
細線
100
AcDbLine
 10
3681.574030284608
 20
4725.431598713261
 30
0.0
 11
3755.574030284608
 21
4725.431598713261
 31
0.0
  0
LINE
  5
18342
330
747D
100
AcDbEntity
  8
細線
100
AcDbLine
 10
3681.574030284604
 20
4719.431598713261
 30
0.0
 11
3755.574030284608
 21
4719.431598713261
 31
0.0
  0
LINE
  5
18343
330
747D
100
AcDbEntity
  8
細線
100
AcDbLine
 10
3681.574030284608
 20
4731.431598713261
 30
0.0
 11
3750.574030284608
 21
4731.431598713261
 31
0.0
  0
LINE
  5
18344
330
747D
100
AcDbEntity
  8
細線
100
AcDbLine
 10
3829.574030284604
 20
4731.431598713261
 30
0.0
 11
3755.574030284608
 21
4731.431598713261
 31
0.0
  0
LINE
  5
18345
330
747D
100
AcDbEntity
  8
細線
100
AcDbLine
 10
3829.574030284604
 20
4719.431598713261
 30
0.0
 11
3755.574030284608
 21
4719.431598713261
 31
0.0
  0
LINE
  5
18346
330
747D
100
AcDbEntity
  8
細線
100
AcDbLine
 10
3829.574030284604
 20
4725.431598713261
 30
0.0
 11
3755.574030284608
 21
4725.431598713261
 31
0.0
  0
LINE
  5
18347
330
747D
100
AcDbEntity
  8
細線
100
AcDbLine
 10
3755.574030284608
 20
4737.431598713261
 30
0.0
 11
3755.574030284605
 21
4714.431598713261
 31
0.0
  0
LINE
  5
18348
330
747D
100
AcDbEntity
  8
細線
100
AcDbLine
 10
4985.574030284608
 20
4737.431598713261
 30
0.0
 11
4985.574030284608
 21
4714.431598713261
 31
0.0
  0
LINE
  5
18349
330
747D
100
AcDbEntity
  8
細線
100
AcDbLine
 10
4911.574030284608
 20
4725.431598713261
 30
0.0
 11
4985.574030284608
 21
4725.431598713261
 31
0.0
  0
LINE
  5
1834A
330
747D
100
AcDbEntity
  8
細線
100
AcDbLine
 10
4911.574030284608
 20
4719.431598713261
 30
0.0
 11
4985.574030284608
 21
4719.431598713261
 31
0.0
  0
LINE
  5
1834B
330
747D
100
AcDbEntity
  8
細線
100
AcDbLine
 10
4911.574030284608
 20
4731.431598713261
 30
0.0
 11
4985.574030284608
 21
4731.431598713261
 31
0.0
  0
LINE
  5
1834C
330
747D
100
AcDbEntity
  8
細線
100
AcDbLine
 10
5059.574030284608
 20
4731.431598713261
 30
0.0
 11
4990.574030284609
 21
4731.431598713261
 31
0.0
  0
LINE
  5
1834D
330
747D
100
AcDbEntity
  8
細線
100
AcDbLine
 10
5059.574030284608
 20
4719.431598713261
 30
0.0
 11
4985.574030284608
 21
4719.431598713261
 31
0.0
  0
LINE
  5
1834E
330
747D
100
AcDbEntity
  8
細線
100
AcDbLine
 10
5059.574030284608
 20
4725.431598713261
 30
0.0
 11
4985.574030284608
 21
4725.431598713261
 31
0.0
  0
LINE
  5
1834F
330
747D
100
AcDbEntity
  8
細線
100
AcDbLine
 10
5059.574030284608
 20
4731.431598713261
 30
0.0
 11
4985.574030284608
 21
4731.431598713261
 31
0.0
  0
LINE
  5
18350
330
747D
100
AcDbEntity
  8
部品1
 48
0.01
100
AcDbLine
 10
4897.574030284608
 20
4743.931598713261
 30
0.0
 11
5073.574030284608
 21
4743.931598713261
 31
0.0
  0
LINE
  5
18351
330
747D
100
AcDbEntity
  8
部品1
 48
0.01
100
AcDbLine
 10
5075.574030284608
 20
4741.931598713261
 30
0.0
 11
5075.574030284608
 21
4710.431598713261
 31
0.0
  0
LINE
  5
18352
330
747D
100
AcDbEntity
  8
部品1
 48
0.01
100
AcDbLine
 10
4895.574030284608
 20
4710.431598713261
 30
0.0
 11
4895.574030284608
 21
4741.931598713261
 31
0.0
  0
LINE
  5
18353
330
747D
100
AcDbEntity
  8
細線
100
AcDbLine
 10
5059.574030284608
 20
4737.431598713261
 30
0.0
 11
5059.574030284608
 21
4714.431598713261
 31
0.0
  0
LINE
  5
18354
330
747D
100
AcDbEntity
  8
細線
100
AcDbLine
 10
4911.574030284608
 20
4714.431598713261
 30
0.0
 11
4911.574030284608
 21
4737.431598713261
 31
0.0
  0
LINE
  5
18355
330
747D
100
AcDbEntity
  8
細線
100
AcDbLine
 10
4911.574030284608
 20
4737.431598713261
 30
0.0
 11
4985.574030284608
 21
4737.431598713261
 31
0.0
  0
LINE
  5
18356
330
747D
100
AcDbEntity
  8
細線
100
AcDbLine
 10
5059.574030284608
 20
4714.431598713261
 30
0.0
 11
4985.574030284608
 21
4714.431598713261
 31
0.0
  0
LINE
  5
18357
330
747D
100
AcDbEntity
  8
細線
100
AcDbLine
 10
4985.574030284608
 20
4737.431598713261
 30
0.0
 11
5059.574030284608
 21
4737.431598713261
 31
0.0
  0
LINE
  5
18358
330
747D
100
AcDbEntity
  8
細線
100
AcDbLine
 10
4985.574030284608
 20
4714.431598713261
 30
0.0
 11
4911.574030284608
 21
4714.431598713261
 31
0.0
  0
ARC
  5
18359
330
747D
100
AcDbEntity
  8
部品1
 48
0.01
100
AcDbCircle
 10
5073.574030284608
 20
4741.931598713261
 30
0.0
 40
2.0
100
AcDbArc
 50
0.0
 51
90.0
  0
ARC
  5
1835A
330
747D
100
AcDbEntity
  8
部品1
 48
0.01
100
AcDbCircle
 10
4897.574030284608
 20
4741.931598713261
 30
0.0
 40
2.0
100
AcDbArc
 50
90.0
 51
180.0
  0
ARC
  5
1835B
330
747D
100
AcDbEntity
  8
部品1
 48
0.01
100
AcDbCircle
 10
3843.574030284604
 20
4710.431598713261
 30
0.0
 40
2.0
100
AcDbArc
 50
270.0
 51
0.0
  0
ARC
  5
1835C
330
747D
100
AcDbEntity
  8
部品1
 48
0.01
100
AcDbCircle
 10
3667.574030284608
 20
4710.431598713261
 30
0.0
 40
2.0
100
AcDbArc
 50
180.0
 51
270.0
  0
LINE
  5
1835D
330
747D
100
AcDbEntity
  8
部品1
 48
0.01
100
AcDbLine
 10
3667.574030284608
 20
4708.431598713261
 30
0.0
 11
3843.574030284604
 21
4708.431598713261
 31
0.0
  0
LINE
  5
1835E
330
747D
100
AcDbEntity
  8
部品1
 48
0.01
100
AcDbLine
 10
5073.574030284608
 20
4708.431598713261
 30
0.0
 11
4897.574030284608
 21
4708.431598713261
 31
0.0
  0
ARC
  5
1835F
330
747D
100
AcDbEntity
  8
部品1
 48
0.01
100
AcDbCircle
 10
5073.574030284608
 20
4710.431598713261
 30
0.0
 40
2.0
100
AcDbArc
 50
270.0
 51
0.0
  0
ARC
  5
18360
330
747D
100
AcDbEntity
  8
部品1
 48
0.01
100
AcDbCircle
 10
4897.574030284608
 20
4710.431598713261
 30
0.0
 40
2.0
100
AcDbArc
 50
180.0
 51
270.0
  0
ARC
  5
18361
330
747D
100
AcDbEntity
  8
部品1
 48
0.01
100
AcDbCircle
 10
7527.574030284606
 20
4710.431598713261
 30
0.0
 40
2.0
100
AcDbArc
 50
180.0
 51
270.0
  0
ARC
  5
18362
330
747D
100
AcDbEntity
  8
部品1
 48
0.01
100
AcDbCircle
 10
7703.574030284606
 20
4710.431598713261
 30
0.0
 40
2.0
100
AcDbArc
 50
270.0
 51
0.0
  0
LINE
  5
18363
330
747D
100
AcDbEntity
  8
部品1
 48
0.01
100
AcDbLine
 10
7703.574030284606
 20
4708.431598713261
 30
0.0
 11
7527.574030284606
 21
4708.431598713261
 31
0.0
  0
LINE
  5
18364
330
747D
100
AcDbEntity
  8
部品1
 48
0.01
100
AcDbLine
 10
6297.574030284606
 20
4708.431598713261
 30
0.0
 11
6473.574030284602
 21
4708.431598713261
 31
0.0
  0
ARC
  5
18365
330
747D
100
AcDbEntity
  8
部品1
 48
0.01
100
AcDbCircle
 10
6297.574030284606
 20
4710.431598713261
 30
0.0
 40
2.0
100
AcDbArc
 50
180.0
 51
270.0
  0
ARC
  5
18366
330
747D
100
AcDbEntity
  8
部品1
 48
0.01
100
AcDbCircle
 10
6473.574030284602
 20
4710.431598713261
 30
0.0
 40
2.0
100
AcDbArc
 50
270.0
 51
0.0
  0
ARC
  5
18367
330
747D
100
AcDbEntity
  8
部品1
 48
0.01
100
AcDbCircle
 10
7527.574030284606
 20
4741.931598713261
 30
0.0
 40
2.0
100
AcDbArc
 50
90.0
 51
180.0
  0
ARC
  5
18368
330
747D
100
AcDbEntity
  8
部品1
 48
0.01
100
AcDbCircle
 10
7703.574030284606
 20
4741.931598713261
 30
0.0
 40
2.0
100
AcDbArc
 50
0.0
 51
90.0
  0
LINE
  5
18369
330
747D
100
AcDbEntity
  8
細線
100
AcDbLine
 10
7615.574030284607
 20
4714.431598713261
 30
0.0
 11
7541.574030284606
 21
4714.431598713261
 31
0.0
  0
LINE
  5
1836A
330
747D
100
AcDbEntity
  8
細線
100
AcDbLine
 10
7615.574030284607
 20
4737.431598713261
 30
0.0
 11
7689.574030284607
 21
4737.431598713261
 31
0.0
  0
LINE
  5
1836B
330
747D
100
AcDbEntity
  8
細線
100
AcDbLine
 10
7689.574030284607
 20
4714.431598713261
 30
0.0
 11
7615.574030284607
 21
4714.431598713261
 31
0.0
  0
LINE
  5
1836C
330
747D
100
AcDbEntity
  8
細線
100
AcDbLine
 10
7541.574030284606
 20
4737.431598713261
 30
0.0
 11
7615.574030284607
 21
4737.431598713261
 31
0.0
  0
LINE
  5
1836D
330
747D
100
AcDbEntity
  8
細線
100
AcDbLine
 10
7541.574030284606
 20
4714.431598713261
 30
0.0
 11
7541.574030284606
 21
4737.431598713261
 31
0.0
  0
LINE
  5
1836E
330
747D
100
AcDbEntity
  8
細線
100
AcDbLine
 10
7689.574030284607
 20
4737.431598713261
 30
0.0
 11
7689.574030284607
 21
4714.431598713261
 31
0.0
  0
LINE
  5
1836F
330
747D
100
AcDbEntity
  8
部品1
 48
0.01
100
AcDbLine
 10
7525.574030284606
 20
4710.431598713261
 30
0.0
 11
7525.574030284606
 21
4741.931598713261
 31
0.0
  0
LINE
  5
18370
330
747D
100
AcDbEntity
  8
部品1
 48
0.01
100
AcDbLine
 10
7705.574030284606
 20
4741.931598713261
 30
0.0
 11
7705.574030284606
 21
4710.431598713261
 31
0.0
  0
LINE
  5
18371
330
747D
100
AcDbEntity
  8
部品1
 48
0.01
100
AcDbLine
 10
7527.574030284606
 20
4743.931598713261
 30
0.0
 11
7703.574030284606
 21
4743.931598713261
 31
0.0
  0
LINE
  5
18372
330
747D
100
AcDbEntity
  8
細線
100
AcDbLine
 10
7689.574030284607
 20
4731.431598713261
 30
0.0
 11
7615.574030284607
 21
4731.431598713261
 31
0.0
  0
LINE
  5
18373
330
747D
100
AcDbEntity
  8
細線
100
AcDbLine
 10
7689.574030284607
 20
4725.431598713261
 30
0.0
 11
7615.574030284607
 21
4725.431598713261
 31
0.0
  0
LINE
  5
18374
330
747D
100
AcDbEntity
  8
細線
100
AcDbLine
 10
7689.574030284607
 20
4719.431598713261
 30
0.0
 11
7615.574030284607
 21
4719.431598713261
 31
0.0
  0
LINE
  5
18375
330
747D
100
AcDbEntity
  8
細線
100
AcDbLine
 10
7689.574030284607
 20
4731.431598713261
 30
0.0
 11
7620.574030284607
 21
4731.431598713261
 31
0.0
  0
LINE
  5
18376
330
747D
100
AcDbEntity
  8
細線
100
AcDbLine
 10
7541.574030284606
 20
4731.431598713261
 30
0.0
 11
7615.574030284607
 21
4731.431598713261
 31
0.0
  0
LINE
  5
18377
330
747D
100
AcDbEntity
  8
細線
100
AcDbLine
 10
7541.574030284606
 20
4719.431598713261
 30
0.0
 11
7615.574030284607
 21
4719.431598713261
 31
0.0
  0
LINE
  5
18378
330
747D
100
AcDbEntity
  8
細線
100
AcDbLine
 10
7541.574030284606
 20
4725.431598713261
 30
0.0
 11
7615.574030284607
 21
4725.431598713261
 31
0.0
  0
LINE
  5
18379
330
747D
100
AcDbEntity
  8
細線
100
AcDbLine
 10
7615.574030284607
 20
4737.431598713261
 30
0.0
 11
7615.574030284607
 21
4714.431598713261
 31
0.0
  0
LINE
  5
1837A
330
747D
100
AcDbEntity
  8
細線
100
AcDbLine
 10
6385.574030284606
 20
4737.431598713261
 30
0.0
 11
6385.574030284602
 21
4714.431598713261
 31
0.0
  0
LINE
  5
1837B
330
747D
100
AcDbEntity
  8
細線
100
AcDbLine
 10
6459.574030284603
 20
4725.431598713261
 30
0.0
 11
6385.574030284606
 21
4725.431598713261
 31
0.0
  0
LINE
  5
1837C
330
747D
100
AcDbEntity
  8
細線
100
AcDbLine
 10
6459.574030284603
 20
4719.431598713261
 30
0.0
 11
6385.574030284606
 21
4719.431598713261
 31
0.0
  0
LINE
  5
1837D
330
747D
100
AcDbEntity
  8
細線
100
AcDbLine
 10
6459.574030284603
 20
4731.431598713261
 30
0.0
 11
6385.574030284606
 21
4731.431598713261
 31
0.0
  0
LINE
  5
1837E
330
747D
100
AcDbEntity
  8
細線
100
AcDbLine
 10
6311.574030284607
 20
4731.431598713261
 30
0.0
 11
6380.574030284606
 21
4731.431598713261
 31
0.0
  0
LINE
  5
1837F
330
747D
100
AcDbEntity
  8
細線
100
AcDbLine
 10
6311.574030284603
 20
4719.431598713261
 30
0.0
 11
6385.574030284606
 21
4719.431598713261
 31
0.0
  0
LINE
  5
18380
330
747D
100
AcDbEntity
  8
細線
100
AcDbLine
 10
6311.574030284607
 20
4725.431598713261
 30
0.0
 11
6385.574030284606
 21
4725.431598713261
 31
0.0
  0
LINE
  5
18381
330
747D
100
AcDbEntity
  8
細線
100
AcDbLine
 10
6311.574030284607
 20
4731.431598713261
 30
0.0
 11
6385.574030284606
 21
4731.431598713261
 31
0.0
  0
LINE
  5
18382
330
747D
100
AcDbEntity
  8
部品1
 48
0.01
100
AcDbLine
 10
6473.574030284606
 20
4743.931598713261
 30
0.0
 11
6297.574030284606
 21
4743.931598713261
 31
0.0
  0
LINE
  5
18383
330
747D
100
AcDbEntity
  8
部品1
 48
0.01
100
AcDbLine
 10
6295.574030284606
 20
4741.931598713261
 30
0.0
 11
6295.574030284606
 21
4710.431598713261
 31
0.0
  0
LINE
  5
18384
330
747D
100
AcDbEntity
  8
部品1
 48
0.01
100
AcDbLine
 10
6475.574030284602
 20
4710.431598713261
 30
0.0
 11
6475.574030284606
 21
4741.931598713261
 31
0.0
  0
LINE
  5
18385
330
747D
100
AcDbEntity
  8
細線
100
AcDbLine
 10
6311.574030284607
 20
4737.431598713261
 30
0.0
 11
6311.574030284607
 21
4714.431598713261
 31
0.0
  0
LINE
  5
18386
330
747D
100
AcDbEntity
  8
細線
100
AcDbLine
 10
6459.574030284606
 20
4714.431598713261
 30
0.0
 11
6459.574030284606
 21
4737.431598713261
 31
0.0
  0
LINE
  5
18387
330
747D
100
AcDbEntity
  8
細線
100
AcDbLine
 10
6459.574030284606
 20
4737.431598713261
 30
0.0
 11
6385.574030284606
 21
4737.431598713261
 31
0.0
  0
LINE
  5
18388
330
747D
100
AcDbEntity
  8
細線
100
AcDbLine
 10
6311.574030284607
 20
4714.431598713261
 30
0.0
 11
6385.574030284606
 21
4714.431598713261
 31
0.0
  0
LINE
  5
18389
330
747D
100
AcDbEntity
  8
細線
100
AcDbLine
 10
6385.574030284606
 20
4737.431598713261
 30
0.0
 11
6311.574030284607
 21
4737.431598713261
 31
0.0
  0
LINE
  5
1838A
330
747D
100
AcDbEntity
  8
細線
100
AcDbLine
 10
6385.574030284602
 20
4714.431598713261
 30
0.0
 11
6459.574030284606
 21
4714.431598713261
 31
0.0
  0
ARC
  5
1838B
330
747D
100
AcDbEntity
  8
部品1
 48
0.01
100
AcDbCircle
 10
6297.574030284606
 20
4741.931598713261
 30
0.0
 40
2.0
100
AcDbArc
 50
90.0
 51
180.0
  0
ARC
  5
1838C
330
747D
100
AcDbEntity
  8
部品1
 48
0.01
100
AcDbCircle
 10
6473.574030284606
 20
4741.931598713261
 30
0.0
 40
2.0
100
AcDbArc
 50
0.0
 51
90.0
  0
DIMENSION
  5
1840D
330
747D
100
AcDbEntity
  8
寸法
 48
50.0
100
AcDbDimension
  2
*D38
 10
6022.415390545516
 20
9648.572564575337
 30
0.0
 11
5922.415390545515
 21
9290.32256457526
 31
0.0
 70
    32
 71
     5
 42
716.5000000001546
  3
INABA_S40G
100
AcDbAlignedDimension
 13
5765.574030284689
 23
8932.072564575181
 33
0.0
 14
5740.574030284914
 24
9648.572564575337
 34
0.0
 50
90.0
100
AcDbRotatedDimension
1001
ACAD
1000
DSTYLE
1002
{
1070
   279
1070
     2
1070
   341
1005
0
1002
}
  0
TEXT
  5
18429
330
747D
100
AcDbEntity
  8
文字
 62
     7
 48
50.0
100
AcDbText
 10
15022.63965474517
 20
9740.013745883725
 30
0.0
 40
100.0
  1
F12            2.3
  7
STYLE1
100
AcDbText
  0
LINE
  5
18448
330
747D
100
AcDbEntity
  8
部品1
 48
50.0
100
AcDbLine
 10
5605.574030284698
 20
9568.572564575516
 30
0.0
 11
3135.574030284588
 21
9568.572564575493
 31
0.0
  0
LINE
  5
18449
330
747D
100
AcDbEntity
  8
部品1
 48
50.0
100
AcDbLine
 10
5630.574030284705
 20
9593.572564575643
 30
0.0
 11
3110.574030284588
 21
9593.57256457562
 31
0.0
  0
LINE
  5
18495
102
{ACAD_REACTORS
330
184AD
102
}
330
747D
100
AcDbEntity
  8
部品1
 48
10.0
100
AcDbLine
 10
5765.574028040837
 20
8932.072560997911
 30
0.0
 11
5765.574028040825
 21
9593.572560997946
 31
0.0
  0
LINE
  5
18496
102
{ACAD_REACTORS
330
184AD
102
}
330
747D
100
AcDbEntity
  8
部品1
100
AcDbLine
 10
5740.574028040858
 20
8932.072560997903
 30
0.0
 11
5740.574028040851
 21
9593.572560997925
 31
0.0
  0
LINE
  5
18497
102
{ACAD_REACTORS
330
184AD
102
}
330
747D
100
AcDbEntity
  8
部品1
100
AcDbLine
 10
5713.574028040836
 20
8932.072560997903
 30
0.0
 11
5713.574028040843
 21
9648.572560997976
 31
0.0
  0
LINE
  5
18498
102
{ACAD_REACTORS
330
184AD
102
}
330
747D
100
AcDbEntity
  8
部品1
 48
50.0
100
AcDbLine
 10
5710.574028040825
 20
8933.07255742089
 30
0.0
 11
5710.574028040825
 21
9593.572557420889
 31
0.0
  0
LINE
  5
18499
102
{ACAD_REACTORS
330
184AD
102
}
330
747D
100
AcDbEntity
  8
部品1
 48
50.0
100
AcDbLine
 10
5605.574028040847
 20
8932.072560997903
 30
0.0
 11
5765.574028040837
 21
8932.072560997911
 31
0.0
  0
LINE
  5
1849A
102
{ACAD_REACTORS
330
184AD
102
}
330
747D
100
AcDbEntity
  8
部品1
 48
50.0
100
AcDbLine
 10
5660.574028040826
 20
8933.07255742089
 30
0.0
 11
5710.574028040825
 21
8933.07255742089
 31
0.0
  0
LINE
  5
1849B
102
{ACAD_REACTORS
330
184AD
102
}
330
747D
100
AcDbEntity
  8
部品1
100
AcDbLine
 10
5660.574028040826
 20
9015.072557420891
 30
0.0
 11
5710.574028040824
 21
9027.784421827668
 31
0.0
  0
LINE
  5
1849C
102
{ACAD_REACTORS
330
184AD
102
}
330
747D
100
AcDbEntity
  8
部品1
100
AcDbLine
 10
5710.574028040825
 20
9169.896573984038
 30
0.0
 11
5660.574028040823
 21
9175.07255742089
 31
0.0
  0
LINE
  5
1849D
102
{ACAD_REACTORS
330
184AD
102
}
330
747D
100
AcDbEntity
  8
部品1
100
AcDbLine
 10
5710.574028040825
 20
9210.248540857746
 30
0.0
 11
5660.574028040823
 21
9205.072557420889
 31
0.0
  0
LINE
  5
1849E
102
{ACAD_REACTORS
330
184AD
102
}
330
747D
100
AcDbEntity
  8
部品1
 48
50.0
100
AcDbLine
 10
5740.574028040851
 20
9593.572560998012
 30
0.0
 11
5713.574028040843
 21
9620.57256099802
 31
0.0
  0
LINE
  5
1849F
102
{ACAD_REACTORS
330
184AD
102
}
330
747D
100
AcDbEntity
  8
部品1
 48
50.0
100
AcDbLine
 10
5660.574028040826
 20
9593.572557420889
 30
0.0
 11
5660.574028040826
 21
8933.07255742089
 31
0.0
  0
LINE
  5
184A0
102
{ACAD_REACTORS
330
184AD
102
}
330
747D
100
AcDbEntity
  8
部品1
 48
50.0
100
AcDbLine
 10
5713.574028041029
 20
9593.57256099814
 30
0.0
 11
5657.574028041027
 21
9593.572560998138
 31
0.0
  0
LINE
  5
184A1
102
{ACAD_REACTORS
330
184AD
102
}
330
747D
100
AcDbEntity
  8
部品1
100
AcDbLine
 10
5657.574028040841
 20
9620.572560998027
 30
0.0
 11
5657.574028040836
 21
8932.072560997903
 31
0.0
  0
LINE
  5
184A2
102
{ACAD_REACTORS
330
184AD
102
}
330
747D
100
AcDbEntity
  8
部品1
 48
50.0
100
AcDbLine
 10
5657.574028041029
 20
9593.572560998081
 30
0.0
 11
5657.574028041029
 21
9620.572560998107
 31
0.0
  0
LINE
  5
184A3
102
{ACAD_REACTORS
330
184AD
102
}
330
747D
100
AcDbEntity
  8
部品1
 48
10.0
100
AcDbLine
 10
5605.574028040847
 20
8932.072560997903
 30
0.0
 11
5605.574028040844
 21
9593.572560997932
 31
0.0
  0
LINE
  5
184A4
102
{ACAD_REACTORS
330
184AD
102
}
330
747D
100
AcDbEntity
  8
部品1
100
AcDbLine
 10
5630.574028040854
 20
8932.072560997903
 30
0.0
 11
5630.57402804085
 21
9593.572560997932
 31
0.0
  0
LINE
  5
184A5
102
{ACAD_REACTORS
330
184AD
102
}
330
747D
100
AcDbEntity
  8
部品1
 48
50.0
100
AcDbLine
 10
5630.57402804085
 20
9593.572560997932
 30
0.0
 11
5657.574028041029
 21
9620.572560998107
 31
0.0
  0
LINE
  5
184A6
102
{ACAD_REACTORS
330
184AD
102
}
330
747D
100
AcDbEntity
  8
部品1
 48
50.0
100
AcDbLine
 10
5657.574028041029
 20
9620.572560998212
 30
0.0
 11
5657.574028041025
 21
9648.572560998161
 31
0.0
  0
LINE
  5
184A7
102
{ACAD_REACTORS
330
184AD
102
}
330
747D
100
AcDbEntity
  8
部品1
 48
50.0
100
AcDbLine
 10
5657.574028041029
 20
9620.572560998107
 30
0.0
 11
5685.574028041026
 21
9620.572560998109
 31
0.0
  0
LINE
  5
184A8
102
{ACAD_REACTORS
330
184AD
102
}
330
747D
100
AcDbEntity
  8
部品1
 48
50.0
100
AcDbLine
 10
5685.574028041026
 20
9620.572560998107
 30
0.0
 11
5657.574028041029
 21
9648.572560998161
 31
0.0
  0
LINE
  5
184A9
102
{ACAD_REACTORS
330
184AD
102
}
330
747D
100
AcDbEntity
  8
部品1
 48
50.0
100
AcDbLine
 10
5713.574028041029
 20
9593.572560998081
 30
0.0
 11
5713.574028041095
 21
9648.572560998113
 31
0.0
  0
LINE
  5
184AA
102
{ACAD_REACTORS
330
184AD
102
}
330
747D
100
AcDbEntity
  8
部品1
100
AcDbLine
 10
5740.574028041058
 20
9648.572560998067
 30
0.0
 11
5740.574028041058
 21
9620.572560998066
 31
0.0
  0
LINE
  5
184AB
102
{ACAD_REACTORS
330
184AD
102
}
330
747D
100
AcDbEntity
  8
部品1
 48
50.0
100
AcDbLine
 10
5740.574025797208
 20
9648.572557420891
 30
0.0
 11
5630.574028041062
 21
9648.572560998161
 31
0.0
  0
LINE
  5
184AC
102
{ACAD_REACTORS
330
184AD
102
}
330
747D
100
AcDbEntity
  8
部品1
100
AcDbLine
 10
5630.574028041062
 20
9648.572560998161
 30
0.0
 11
5630.574028041062
 21
9620.57256099816
 31
0.0
  0
TEXT
  5
184B8
330
747D
100
AcDbEntity
  8
文字
 62
     7
 48
50.0
100
AcDbText
 10
13248.77747366448
 20
8720.013745883731
 30
0.0
 40
100.0
  1
14
  7
STYLE1
100
AcDbText
  0
TEXT
  5
184B9
330
747D
100
AcDbEntity
  8
文字
 62
     7
 48
50.0
100
AcDbText
 10
13583.11819016569
 20
9230.013745883729
 30
0.0
 40
100.0
  1
梁中補強パネル
  7
STYLE1
100
AcDbText
  0
TEXT
  5
184BA
330
747D
100
AcDbEntity
  8
文字
 62
     7
 48
50.0
100
AcDbText
 10
15022.63965474516
 20
9230.013745883725
 30
0.0
 40
100.0
  1
F12         0.7+1.2
  7
STYLE1
100
AcDbText
  0
TEXT
  5
184D4
330
747D
100
AcDbEntity
  8
文字
 62
     7
 48
50.0
100
AcDbText
 10
14646.46056207479
 20
871.9640646083623
 30
0.0
 40
100.0
  1
～多雪地型～
  7
STYLE2
100
AcDbText
  0
LINE
  5
184FE
330
747D
100
AcDbEntity
  8
破線
 48
5.0
100
AcDbLine
 10
5635.574030284604
 20
2187.931598713261
 30
0.0
 11
5735.574030284603
 21
2187.931598713261
 31
0.0
  0
LINE
  5
184FF
330
747D
100
AcDbEntity
  8
破線
 48
5.0
100
AcDbLine
 10
5685.574030284604
 20
2262.931598713262
 30
0.0
 11
5685.574030284604
 21
2187.931598713261
 31
0.0
  0
LINE
  5
18500
330
747D
100
AcDbEntity
  8
破線
 48
5.0
100
AcDbLine
 10
5582.574030284603
 20
2537.931598713262
 30
0.0
 11
5582.574030284604
 21
2287.931598713262
 31
0.0
  0
LINE
  5
18501
330
747D
100
AcDbEntity
  8
破線
 48
5.0
100
AcDbLine
 10
5630.574030284606
 20
2287.931598713262
 30
0.0
 11
5582.574030284604
 21
2287.931598713262
 31
0.0
  0
LINE
  5
18502
330
747D
100
AcDbEntity
  8
破線
 48
5.0
100
AcDbLine
 10
5630.574030284602
 20
2537.931598713262
 30
0.0
 11
5630.574030284606
 21
2262.931598713262
 31
0.0
  0
LINE
  5
18503
330
747D
100
AcDbEntity
  8
破線
 48
5.0
100
AcDbLine
 10
5740.574030284602
 20
2262.931598713262
 30
0.0
 11
5630.574030284605
 21
2262.931598713262
 31
0.0
  0
LINE
  5
18504
330
747D
100
AcDbEntity
  8
破線
 48
5.0
100
AcDbLine
 10
5788.574030284604
 20
2537.931598713262
 30
0.0
 11
5788.574030284602
 21
2287.931598713267
 31
0.0
  0
LINE
  5
18505
330
747D
100
AcDbEntity
  8
破線
 48
5.0
100
AcDbLine
 10
5788.574030284602
 20
2287.931598713267
 30
0.0
 11
5740.574030284602
 21
2287.931598713267
 31
0.0
  0
LINE
  5
18506
330
747D
100
AcDbEntity
  8
破線
 48
5.0
100
AcDbLine
 10
5740.574030284604
 20
2537.931598713262
 30
0.0
 11
5740.574030284603
 21
2262.931598713262
 31
0.0
  0
LINE
  5
1851C
330
747D
100
AcDbEntity
  8
破線
 48
5.0
100
AcDbLine
 10
3158.574030284607
 20
2537.931598713262
 30
0.0
 11
3158.574030284607
 21
2287.931598713267
 31
0.0
  0
LINE
  5
1851D
330
747D
100
AcDbEntity
  8
破線
 48
5.0
100
AcDbLine
 10
3158.574030284607
 20
2537.931598713262
 30
0.0
 11
3158.574030284607
 21
2287.931598713267
 31
0.0
  0
LINE
  5
1851E
330
747D
100
AcDbEntity
  8
破線
 48
5.0
100
AcDbLine
 10
3158.574030284607
 20
2287.931598713267
 30
0.0
 11
3110.574030284606
 21
2287.931598713267
 31
0.0
  0
LINE
  5
1851F
330
747D
100
AcDbEntity
  8
破線
 48
5.0
100
AcDbLine
 10
3158.574030284607
 20
2287.931598713267
 30
0.0
 11
3110.574030284606
 21
2287.931598713267
 31
0.0
  0
LINE
  5
18520
330
747D
100
AcDbEntity
  8
破線
 48
5.0
100
AcDbLine
 10
3110.574030284606
 20
2187.931598713269
 30
0.0
 11
3055.574030284606
 21
2187.931598713269
 31
0.0
  0
LINE
  5
18521
330
747D
100
AcDbEntity
  8
破線
 48
5.0
100
AcDbLine
 10
3055.574030284606
 20
2437.931598713261
 30
0.0
 11
3055.574030284606
 21
2187.931598713261
 31
0.0
  0
LINE
  5
18522
330
747D
100
AcDbEntity
  8
破線
 48
5.0
100
AcDbLine
 10
3110.574030284606
 20
2537.931598713262
 30
0.0
 11
3110.574030284606
 21
2187.931598713261
 31
0.0
  0
LINE
  5
18523
330
747D
100
AcDbEntity
  8
破線
 48
5.0
100
AcDbLine
 10
3110.574030284606
 20
2537.931598713262
 30
0.0
 11
3110.574030284606
 21
2187.931598713261
 31
0.0
  0
LINE
  5
18536
330
747D
100
AcDbEntity
  8
破線
 48
5.0
100
AcDbLine
 10
8260.574030284603
 20
2537.931598713262
 30
0.0
 11
8260.574030284603
 21
2187.931598713261
 31
0.0
  0
LINE
  5
18537
330
747D
100
AcDbEntity
  8
破線
 48
5.0
100
AcDbLine
 10
8315.574030284603
 20
2437.931598713261
 30
0.0
 11
8315.574030284603
 21
2187.931598713261
 31
0.0
  0
LINE
  5
18538
330
747D
100
AcDbEntity
  8
破線
 48
5.0
100
AcDbLine
 10
8315.574030284603
 20
2187.931598713261
 30
0.0
 11
8260.574030284603
 21
2187.931598713261
 31
0.0
  0
LINE
  5
18539
330
747D
100
AcDbEntity
  8
破線
 48
5.0
100
AcDbLine
 10
8212.574030284603
 20
2537.931598713262
 30
0.0
 11
8212.574030284603
 21
2287.931598713262
 31
0.0
  0
LINE
  5
1853A
330
747D
100
AcDbEntity
  8
破線
 48
5.0
100
AcDbLine
 10
8260.574030284606
 20
2287.931598713262
 30
0.0
 11
8212.574030284603
 21
2287.931598713262
 31
0.0
  0
TEXT
  5
185AA
330
747D
100
AcDbEntity
  8
文字
 62
     7
 48
50.0
100
AcDbText
 10
15022.63965474516
 20
8890.013745883726
 30
0.0
 40
100.0
  1
F12            0.7
  7
STYLE1
100
AcDbText
  0
ENDSEC
  0
SECTION
  2
OBJECTS
  0
DICTIONARY
  5
7471
330
0
100
AcDbDictionary
281
     1
  3
ACAD_COLOR
350
16CC3
  3
ACAD_GROUP
350
7472
  3
ACAD_LAYOUT
350
16CC4
  3
ACAD_MATERIAL
350
16CC2
  3
ACAD_MLINESTYLE
350
7473
  3
ACAD_PLOTSETTINGS
350
16CC5
  3
ACAD_PLOTSTYLENAME
350
16CC0
  3
ACDBHEADERROUNDTRIPXREC
350
185EF
  3
AcDbVariableDictionary
350
185EB
  3
CONTENTDICTIONARY
350
E71C
  3
DRAWINGVARIABLESDICT
350
F3B9
  0
DICTIONARY
  5
17102
330
7467
100
AcDbDictionary
280
     1
281
     1
  3
ACAD_LAYERSTATES
360
17103
  0
DICTIONARY
  5
16CC3
102
{ACAD_REACTORS
330
7471
102
}
330
7471
100
AcDbDictionary
281
     1
  0
DICTIONARY
  5
7472
102
{ACAD_REACTORS
330
7471
102
}
330
7471
100
AcDbDictionary
281
     1
  3
*A1
350
184AD
  0
DICTIONARY
  5
16CC4
102
{ACAD_REACTORS
330
7471
102
}
330
7471
100
AcDbDictionary
281
     1
  3
Model
350
16CC6
  3
レイアウト1
350
16CC7
  0
DICTIONARY
  5
16CC2
102
{ACAD_REACTORS
330
7471
102
}
330
7471
100
AcDbDictionary
281
     1
  0
DICTIONARY
  5
7473
102
{ACAD_REACTORS
330
7471
102
}
330
7471
100
AcDbDictionary
281
     1
  3
STANDARD
350
7480
  0
DICTIONARY
  5
16CC5
102
{ACAD_REACTORS
330
7471
102
}
330
7471
100
AcDbDictionary
281
     1
  0
ACDBDICTIONARYWDFLT
  5
16CC0
102
{ACAD_REACTORS
330
7471
102
}
330
7471
100
AcDbDictionary
281
     1
  3
Normal
350
16CC1
100
AcDbDictionaryWithDefault
340
16CC1
  0
DICTIONARY
  5
185EF
102
{ACAD_REACTORS
330
7471
102
}
330
7471
100
AcDbDictionary
281
     1
  3
COLORDICT
350
185F1
  3
MATERIALDICT
350
185F0
  0
DICTIONARY
  5
185EB
102
{ACAD_REACTORS
330
7471
102
}
330
7471
100
AcDbDictionary
281
     1
  3
DIMASSOC
350
185EC
  3
PROJECTNAME
350
185ED
  0
DICTIONARY
  5
E71C
102
{ACAD_REACTORS
330
7471
102
}
330
7471
100
AcDbDictionary
281
     1
  0
DICTIONARY
  5
F3B9
102
{ACAD_REACTORS
330
7471
102
}
330
7471
100
AcDbDictionary
281
     1
1001
DRAWINGVARIABLESXDATA
1000
POLARMODE
1000
1
  0
DICTIONARY
  5
17103
102
{ACAD_REACTORS
330
17102
102
}
330
17102
100
AcDbDictionary
281
     1
  0
GROUP
  5
184AD
102
{ACAD_REACTORS
330
7472
102
}
330
7472
100
AcDbGroup
300

 70
     1
 71
     1
340
184AC
340
184AB
340
184AA
340
184A9
340
184A8
340
184A7
340
184A6
340
184A5
340
184A4
340
184A3
340
184A2
340
184A1
340
184A0
340
1849F
340
1849E
340
1849D
340
1849C
340
1849B
340
1849A
340
18499
340
18498
340
18497
340
18496
340
18495
  0
LAYOUT
  5
16CC6
102
{ACAD_XDICTIONARY
360
185F2
102
}
102
{ACAD_REACTORS
330
16CC4
102
}
330
16CC4
100
AcDbPlotSettings
  1

  2
クセロPDF
  4
A3
  6

 40
3.174999999999999
 41
3.174999999999999
 42
3.174987999999999
 43
3.174987999999999
 44
419.946655
 45
296.925995
 46
0.0
 47
0.0
 48
0.0
 49
0.0
140
0.0
141
0.0
142
1.0
143
40.44561299368567
 70
 11952
 72
     1
 73
     0
 74
     2
  7
inaba.ctb
 75
     0
147
0.0247245603659442
148
183.0179068595971
149
160.3342785227505
100
AcDbLayout
  1
Model
 70
     1
 71
     0
 10
0.0
 20
0.0
 11
12.0
 21
9.0
 12
0.0
 22
0.0
 32
0.0
 14
0.0
 24
0.0
 34
0.0
 15
0.0
 25
0.0
 35
0.0
146
0.0
 13
0.0
 23
0.0
 33
0.0
 16
1.0
 26
0.0
 36
0.0
 17
0.0
 27
1.0
 37
0.0
 76
     0
330
747D
  0
LAYOUT
  5
16CC7
102
{ACAD_XDICTIONARY
360
185F4
102
}
102
{ACAD_REACTORS
330
16CC4
102
}
330
16CC4
100
AcDbPlotSettings
  1

  2
EPSON LP-8300
  4

  6

 40
0.0
 41
0.0
 42
0.0
 43
0.0
 44
0.0
 45
0.0
 46
0.0
 47
0.0
 48
0.0
 49
0.0
140
0.0
141
0.0
142
1.0
143
1.0
 70
   688
 72
     0
 73
     0
 74
     5
  7
inaba.ctb
 75
    16
147
1.0
148
0.0
149
0.0
100
AcDbLayout
  1
レイアウト1
 70
     0
 71
     1
 10
0.0
 20
0.0
 11
420.0
 21
297.0
 12
0.0
 22
0.0
 32
0.0
 14
1.000000000000000E+20
 24
1.000000000000000E+20
 34
1.000000000000000E+20
 15
-1.000000000000000E+20
 25
-1.000000000000000E+20
 35
-1.000000000000000E+20
146
0.0
 13
0.0
 23
0.0
 33
0.0
 16
1.0
 26
0.0
 36
0.0
 17
0.0
 27
1.0
 37
0.0
 76
     0
330
747A
  0
MLINESTYLE
  5
7480
102
{ACAD_REACTORS
330
7473
102
}
330
7473
100
AcDbMlineStyle
  2
STANDARD
 70
     0
  3

 62
     0
 51
90.0
 52
90.0
 71
     2
 49
0.5
 62
   256
  6
BYLAYER
 49
-0.5
 62
   256
  6
BYLAYER
  0
ACDBPLACEHOLDER
  5
16CC1
102
{ACAD_REACTORS
330
16CC0
102
}
330
16CC0
  0
XRECORD
  5
185F1
102
{ACAD_REACTORS
330
185EF
102
}
330
185EF
100
AcDbXrecord
280
     1
340
16CC3
  0
XRECORD
  5
185F0
102
{ACAD_REACTORS
330
185EF
102
}
330
185EF
100
AcDbXrecord
280
     1
340
16CC2
  0
DICTIONARYVAR
  5
185EC
102
{ACAD_REACTORS
330
185EB
102
}
330
185EB
100
DictionaryVariables
280
     0
  1
1
  0
DICTIONARYVAR
  5
185ED
102
{ACAD_REACTORS
330
185EB
102
}
330
185EB
100
DictionaryVariables
280
     0
  1

  0
DICTIONARY
  5
185F2
330
16CC6
100
AcDbDictionary
280
     1
281
     1
  3
ACAD_XREC_ROUNDTRIP
360
185F3
  0
DICTIONARY
  5
185F4
330
16CC7
100
AcDbDictionary
280
     1
281
     1
  3
ACAD_XREC_ROUNDTRIP
360
185F5
  0
XRECORD
  5
185F3
102
{ACAD_REACTORS
330
185F2
102
}
330
185F2
100
AcDbXrecord
280
     1
102
SHADEPLOT
 70
     1
102
SHADEPLOTRESLEVEL
 70
     2
102
SHADEPLOTCUSTOMDPI
 70
   300
  0
XRECORD
  5
185F5
102
{ACAD_REACTORS
330
185F4
102
}
330
185F4
100
AcDbXrecord
280
     1
102
SHADEPLOT
 70
     0
102
SHADEPLOTRESLEVEL
 70
     2
102
SHADEPLOTCUSTOMDPI
 70
   300
  0
ENDSEC
  0
EOF
