  0
SECTION
  2
HEADER
  9
$ACADVER
  1
AC1015
  9
$ACADMAINTVER
 70
    20
  9
$DWGCODEPAGE
  3
ANSI_932
  9
$INSBASE
 10
0.0
 20
0.0
 30
0.0
  9
$EXTMIN
 10
139.9999999999995
 20
-0.0000000000000909
 30
0.0
  9
$EXTMAX
 10
16307.2
 20
11409.6
 30
0.0
  9
$LIMMIN
 10
-183.0179068595971
 20
-160.3342785227505
  9
$LIMMAX
 10
16374.07536659319
 20
11592.19044584975
  9
$ORTHOMODE
 70
     0
  9
$REGENMODE
 70
     1
  9
$FILLMODE
 70
     1
  9
$QTEXTMODE
 70
     0
  9
$MIRRTEXT
 70
     1
  9
$LTSCALE
 40
20.0
  9
$ATTMODE
 70
     1
  9
$TEXTSIZE
 40
100.0
  9
$TRACEWID
 40
1.0
  9
$TEXTSTYLE
  7
STYLE2
  9
$CLAYER
  8
部品1
  9
$CELTYPE
  6
BYLAYER
  9
$CECOLOR
 62
   256
  9
$CELTSCALE
 40
50.0
  9
$DISPSILH
 70
     0
  9
$DIMSCALE
 40
40.0
  9
$DIMASZ
 40
2.5
  9
$DIMEXO
 40
0.5
  9
$DIMDLI
 40
7.0
  9
$DIMRND
 40
0.0
  9
$DIMDLE
 40
0.0
  9
$DIMEXE
 40
1.5
  9
$DIMTP
 40
0.0
  9
$DIMTM
 40
0.0
  9
$DIMTXT
 40
3.0
  9
$DIMCEN
 40
0.0
  9
$DIMTSZ
 40
0.0
  9
$DIMTOL
 70
     0
  9
$DIMLIM
 70
     0
  9
$DIMTIH
 70
     0
  9
$DIMTOH
 70
     0
  9
$DIMSE1
 70
     0
  9
$DIMSE2
 70
     0
  9
$DIMTAD
 70
     3
  9
$DIMZIN
 70
     8
  9
$DIMBLK
  1

  9
$DIMASO
 70
     1
  9
$DIMSHO
 70
     1
  9
$DIMPOST
  1

  9
$DIMAPOST
  1

  9
$DIMALT
 70
     0
  9
$DIMALTD
 70
     2
  9
$DIMALTF
 40
0.0394
  9
$DIMLFAC
 40
1.0
  9
$DIMTOFL
 70
     1
  9
$DIMTVP
 40
0.0
  9
$DIMTIX
 70
     1
  9
$DIMSOXD
 70
     0
  9
$DIMSAH
 70
     1
  9
$DIMBLK1
  1
DOTSMALL
  9
$DIMBLK2
  1
DOTSMALL
  9
$DIMSTYLE
  2
INABA_S40G
  9
$DIMCLRD
 70
     0
  9
$DIMCLRE
 70
     0
  9
$DIMCLRT
 70
     7
  9
$DIMTFAC
 40
1.0
  9
$DIMGAP
 40
1.0
  9
$DIMJUST
 70
     0
  9
$DIMSD1
 70
     0
  9
$DIMSD2
 70
     0
  9
$DIMTOLJ
 70
     1
  9
$DIMTZIN
 70
     0
  9
$DIMALTZ
 70
     0
  9
$DIMALTTZ
 70
     0
  9
$DIMUPT
 70
     0
  9
$DIMDEC
 70
     1
  9
$DIMTDEC
 70
     4
  9
$DIMALTU
 70
     2
  9
$DIMALTTD
 70
     2
  9
$DIMTXSTY
  7
STYLE1
  9
$DIMAUNIT
 70
     0
  9
$DIMADEC
 70
     0
  9
$DIMALTRND
 40
0.0
  9
$DIMAZIN
 70
     0
  9
$DIMDSEP
 70
    46
  9
$DIMATFIT
 70
     3
  9
$DIMFRAC
 70
     0
  9
$DIMLDRBLK
  1

  9
$DIMLUNIT
 70
     2
  9
$DIMLWD
 70
    -2
  9
$DIMLWE
 70
    -2
  9
$DIMTMOVE
 70
     0
  9
$LUNITS
 70
     2
  9
$LUPREC
 70
     1
  9
$SKETCHINC
 40
1.0
  9
$FILLETRAD
 40
3.0
  9
$AUNITS
 70
     0
  9
$AUPREC
 70
     0
  9
$MENU
  1
acad
  9
$ELEVATION
 40
0.0
  9
$PELEVATION
 40
0.0
  9
$THICKNESS
 40
0.0
  9
$LIMCHECK
 70
     0
  9
$CHAMFERA
 40
0.0
  9
$CHAMFERB
 40
0.0
  9
$CHAMFERC
 40
0.0
  9
$CHAMFERD
 40
0.0
  9
$SKPOLY
 70
     0
  9
$TDCREATE
 40
2451368.612993866
  9
$TDUCREATE
 40
2451368.237993866
  9
$TDUPDATE
 40
2455569.631091574
  9
$TDUUPDATE
 40
2455569.256091575
  9
$TDINDWG
 40
0.6349842245
  9
$TDUSRTIMER
 40
0.6349842245
  9
$USRTIMER
 70
     1
  9
$ANGBASE
 50
0.0
  9
$ANGDIR
 70
     0
  9
$PDMODE
 70
     3
  9
$PDSIZE
 40
2.0
  9
$PLINEWID
 40
0.0
  9
$SPLFRAME
 70
     0
  9
$SPLINETYPE
 70
     6
  9
$SPLINESEGS
 70
     8
  9
$HANDSEED
  5
18FC7
  9
$SURFTAB1
 70
     6
  9
$SURFTAB2
 70
     6
  9
$SURFTYPE
 70
     6
  9
$SURFU
 70
     6
  9
$SURFV
 70
     6
  9
$UCSBASE
  2

  9
$UCSNAME
  2

  9
$UCSORG
 10
0.0
 20
0.0
 30
0.0
  9
$UCSXDIR
 10
1.0
 20
0.0
 30
0.0
  9
$UCSYDIR
 10
0.0
 20
1.0
 30
0.0
  9
$UCSORTHOREF
  2

  9
$UCSORTHOVIEW
 70
     0
  9
$UCSORGTOP
 10
0.0
 20
0.0
 30
0.0
  9
$UCSORGBOTTOM
 10
0.0
 20
0.0
 30
0.0
  9
$UCSORGLEFT
 10
0.0
 20
0.0
 30
0.0
  9
$UCSORGRIGHT
 10
0.0
 20
0.0
 30
0.0
  9
$UCSORGFRONT
 10
0.0
 20
0.0
 30
0.0
  9
$UCSORGBACK
 10
0.0
 20
0.0
 30
0.0
  9
$PUCSBASE
  2

  9
$PUCSNAME
  2

  9
$PUCSORG
 10
0.0
 20
0.0
 30
0.0
  9
$PUCSXDIR
 10
1.0
 20
0.0
 30
0.0
  9
$PUCSYDIR
 10
0.0
 20
1.0
 30
0.0
  9
$PUCSORTHOREF
  2

  9
$PUCSORTHOVIEW
 70
     0
  9
$PUCSORGTOP
 10
0.0
 20
0.0
 30
0.0
  9
$PUCSORGBOTTOM
 10
0.0
 20
0.0
 30
0.0
  9
$PUCSORGLEFT
 10
0.0
 20
0.0
 30
0.0
  9
$PUCSORGRIGHT
 10
0.0
 20
0.0
 30
0.0
  9
$PUCSORGFRONT
 10
0.0
 20
0.0
 30
0.0
  9
$PUCSORGBACK
 10
0.0
 20
0.0
 30
0.0
  9
$USERI1
 70
     0
  9
$USERI2
 70
     0
  9
$USERI3
 70
     0
  9
$USERI4
 70
     0
  9
$USERI5
 70
     0
  9
$USERR1
 40
0.0
  9
$USERR2
 40
0.0
  9
$USERR3
 40
0.0
  9
$USERR4
 40
0.0
  9
$USERR5
 40
0.0
  9
$WORLDVIEW
 70
     1
  9
$SHADEDGE
 70
     3
  9
$SHADEDIF
 70
    70
  9
$TILEMODE
 70
     1
  9
$MAXACTVP
 70
    16
  9
$PINSBASE
 10
0.0
 20
0.0
 30
0.0
  9
$PLIMCHECK
 70
     0
  9
$PEXTMIN
 10
1.000000000000000E+20
 20
1.000000000000000E+20
 30
1.000000000000000E+20
  9
$PEXTMAX
 10
-1.000000000000000E+20
 20
-1.000000000000000E+20
 30
-1.000000000000000E+20
  9
$PLIMMIN
 10
0.0
 20
0.0
  9
$PLIMMAX
 10
420.0
 20
297.0
  9
$UNITMODE
 70
     0
  9
$VISRETAIN
 70
     0
  9
$PLINEGEN
 70
     0
  9
$PSLTSCALE
 70
     0
  9
$TREEDEPTH
 70
  3020
  9
$CMLSTYLE
  2
STANDARD
  9
$CMLJUST
 70
     0
  9
$CMLSCALE
 40
1.0
  9
$PROXYGRAPHICS
 70
     1
  9
$MEASUREMENT
 70
     1
  9
$CELWEIGHT
370
    -1
  9
$ENDCAPS
280
     0
  9
$JOINSTYLE
280
     0
  9
$LWDISPLAY
290
     0
  9
$INSUNITS
 70
     0
  9
$HYPERLINKBASE
  1

  9
$STYLESHEET
  1
inaba.ctb
  9
$XEDIT
290
     1
  9
$CEPSNTYPE
380
     0
  9
$PSTYLEMODE
290
     1
  9
$FINGERPRINTGUID
  2
{164183A0-19FF-4B5B-A0EF-FC558CFA5DF5}
  9
$VERSIONGUID
  2
{96B7D4BB-A318-46B1-8730-2FDEFE0473C6}
  9
$EXTNAMES
290
     1
  9
$PSVPSCALE
 40
0.0
  9
$OLESTARTUP
290
     0
  0
ENDSEC
  0
SECTION
  2
CLASSES
  0
CLASS
  1
ACDBDICTIONARYWDFLT
  2
AcDbDictionaryWithDefault
  3
ObjectDBX Classes
 90
        0
280
     0
281
     0
  0
CLASS
  1
DICTIONARYVAR
  2
AcDbDictionaryVar
  3
ObjectDBX Classes
 90
        0
280
     0
281
     0
  0
CLASS
  1
ACDBPLACEHOLDER
  2
AcDbPlaceHolder
  3
ObjectDBX Classes
 90
        0
280
     0
281
     0
  0
CLASS
  1
LAYOUT
  2
AcDbLayout
  3
ObjectDBX Classes
 90
        0
280
     0
281
     0
  0
ENDSEC
  0
SECTION
  2
TABLES
  0
TABLE
  2
VPORT
  5
746D
330
0
100
AcDbSymbolTable
 70
     2
  0
VPORT
  5
18FBF
330
746D
100
AcDbSymbolTableRecord
100
AcDbViewportTableRecord
  2
*Active
 70
     0
 10
0.0
 20
0.0
 11
1.0
 21
1.0
 12
8807.271704240562
 22
5704.702303648471
 13
0.0
 23
0.0
 14
10.0
 24
10.0
 15
10.0
 25
10.0
 16
0.0
 26
0.0
 36
1.0
 17
0.0
 27
0.0
 37
0.0
 40
11494.90994257276
 41
1.627450980392156
 42
50.0
 43
0.0
 44
0.0
 50
0.0
 51
0.0
 71
     0
 72
     0
 73
     1
 74
     0
 75
     0
 76
     0
 77
     0
 78
     0
281
     0
 65
     1
110
0.0
120
0.0
130
0.0
111
1.0
121
0.0
131
0.0
112
0.0
122
1.0
132
0.0
 79
     0
146
0.0
  0
ENDTAB
  0
TABLE
  2
LTYPE
  5
746A
330
0
100
AcDbSymbolTable
 70
     5
  0
LTYPE
  5
7477
330
746A
100
AcDbSymbolTableRecord
100
AcDbLinetypeTableRecord
  2
BYBLOCK
 70
     0
  3

 72
    65
 73
     0
 40
0.0
  0
LTYPE
  5
7478
330
746A
100
AcDbSymbolTableRecord
100
AcDbLinetypeTableRecord
  2
BYLAYER
 70
     0
  3

 72
    65
 73
     0
 40
0.0
  0
LTYPE
  5
7479
330
746A
100
AcDbSymbolTableRecord
100
AcDbLinetypeTableRecord
  2
CONTINUOUS
 70
     0
  3
Solid line
 72
    65
 73
     0
 40
0.0
  0
LTYPE
  5
7816
330
746A
100
AcDbSymbolTableRecord
100
AcDbLinetypeTableRecord
  2
CENTER
 70
     0
  3
____ _ ____ _ ____ _ ____ _ ____ _ ____ _ ____ 
 72
    65
 73
     4
 40
2.0
 49
1.25
 74
     0
 49
-0.25
 74
     0
 49
0.25
 74
     0
 49
-0.25
 74
     0
  0
LTYPE
  5
781A
330
746A
100
AcDbSymbolTableRecord
100
AcDbLinetypeTableRecord
  2
HIDDEN
 70
     0
  3
__ __ __ __ __ __ __ __ __ __ __ __ __ __ __ __
 72
    65
 73
     2
 40
0.375
 49
0.25
 74
     0
 49
-0.125
 74
     0
  0
LTYPE
  5
781B
330
746A
100
AcDbSymbolTableRecord
100
AcDbLinetypeTableRecord
  2
PHANTOM
 70
     0
  3
______  __  __  ______  __  __  ______  __  __ 
 72
    65
 73
     6
 40
2.5
 49
1.25
 74
     0
 49
-0.25
 74
     0
 49
0.25
 74
     0
 49
-0.25
 74
     0
 49
0.25
 74
     0
 49
-0.25
 74
     0
  0
LTYPE
  5
12CC3
330
746A
100
AcDbSymbolTableRecord
100
AcDbLinetypeTableRecord
  2
HIDDENX2
 70
     0
  3
Hidden (2x) ____ ____ ____ ____ ____ ____ ____
 72
    65
 73
     2
 40
19.05
 49
12.7
 74
     0
 49
-6.349999999999999
 74
     0
  0
ENDTAB
  0
TABLE
  2
LAYER
  5
7467
102
{ACAD_XDICTIONARY
360
168A2
102
}
330
0
100
AcDbSymbolTable
 70
    12
  0
LAYER
  5
7474
330
7467
100
AcDbSymbolTableRecord
100
AcDbLayerTableRecord
  2
0
 70
     0
 62
     7
  6
CONTINUOUS
370
    -3
390
16583
  0
LAYER
  5
DEB2
330
7467
100
AcDbSymbolTableRecord
100
AcDbLayerTableRecord
  2
センター
 70
     0
 62
     3
  6
CENTER
370
    -3
390
16583
  0
LAYER
  5
DEB3
330
7467
100
AcDbSymbolTableRecord
100
AcDbLayerTableRecord
  2
寸法
 70
     0
 62
     4
  6
CONTINUOUS
370
    -3
390
16583
  0
LAYER
  5
DEB4
330
7467
100
AcDbSymbolTableRecord
100
AcDbLayerTableRecord
  2
部品1
 70
     0
 62
     7
  6
CONTINUOUS
370
    -3
390
16583
  0
LAYER
  5
DEB5
330
7467
100
AcDbSymbolTableRecord
100
AcDbLayerTableRecord
  2
補助
 70
     0
 62
    -1
  6
CONTINUOUS
370
    -3
390
16583
  0
LAYER
  5
DEB6
330
7467
100
AcDbSymbolTableRecord
100
AcDbLayerTableRecord
  2
文字
 70
     0
 62
     7
  6
CONTINUOUS
370
    -3
390
16583
  0
LAYER
  5
F255
330
7467
100
AcDbSymbolTableRecord
100
AcDbLayerTableRecord
  2
DEFPOINTS
 70
     0
 62
     7
  6
CONTINUOUS
290
     0
370
    -3
390
16583
  0
LAYER
  5
10B54
330
7467
100
AcDbSymbolTableRecord
100
AcDbLayerTableRecord
  2
仕様書枠
 70
     0
 62
   230
  6
CONTINUOUS
370
    -3
390
16583
  0
LAYER
  5
11729
330
7467
100
AcDbSymbolTableRecord
100
AcDbLayerTableRecord
  2
Ｇ．Ｌ
 70
     0
 62
    30
  6
CONTINUOUS
370
    -3
390
16583
  0
LAYER
  5
1173F
330
7467
100
AcDbSymbolTableRecord
100
AcDbLayerTableRecord
  2
細線
 70
     0
 62
     5
  6
CONTINUOUS
370
    -3
390
16583
  0
LAYER
  5
12CC4
330
7467
100
AcDbSymbolTableRecord
100
AcDbLayerTableRecord
  2
想像線
 70
     0
 62
     6
  6
PHANTOM
370
    -3
390
16583
  0
LAYER
  5
142E2
330
7467
100
AcDbSymbolTableRecord
100
AcDbLayerTableRecord
  2
破線
 70
     0
 62
     2
  6
HIDDEN
370
    -3
390
16583
  0
ENDTAB
  0
TABLE
  2
STYLE
  5
7468
330
0
100
AcDbSymbolTable
 70
     6
  0
STYLE
  5
7475
330
7468
100
AcDbSymbolTableRecord
100
AcDbTextStyleTableRecord
  2
STANDARD
 70
     0
 40
0.0
 41
1.0
 50
0.0
 71
     0
 42
4.0
  3
txt
  4
C:\AutoCAD LT\bigfont.shx
  0
STYLE
  5
763C
330
7468
100
AcDbSymbolTableRecord
100
AcDbTextStyleTableRecord
  2
MSMINCHO
 70
     0
 40
0.0
 41
1.0
 50
0.0
 71
     0
 42
1.199999999999999
  3
C:\AutoCAD LT\msminch2.TTF
  4

  0
STYLE
  5
F706
330
7468
100
AcDbSymbolTableRecord
100
AcDbTextStyleTableRecord
  2
STYLE1
 70
     0
 40
0.0
 41
1.0
 50
0.0
 71
     0
 42
4.0
  3
isocp.shx
  4
bigfont.shx
  0
STYLE
  5
103BF
330
7468
100
AcDbSymbolTableRecord
100
AcDbTextStyleTableRecord
  2
STYLE2
 70
     0
 40
0.0
 41
1.0
 50
0.0
 71
     0
 42
100.0
  3
MS PGothic.ttf
  4

1001
ACAD
1000
MS PGothic
1071
    32818
  0
STYLE
  5
11A15
330
7468
100
AcDbSymbolTableRecord
100
AcDbTextStyleTableRecord
  2
MSGOTHIC
 70
     0
 40
0.0
 41
1.0
 50
0.0
 71
     0
 42
3.5
  3
msgothi2.ttf
  4

  0
STYLE
  5
13E96
330
7468
100
AcDbSymbolTableRecord
100
AcDbTextStyleTableRecord
  2
MSPゴシック
 70
     0
 40
0.0
 41
1.0
 50
0.0
 71
     0
 42
4.0
  3
MS PGothic.ttf
  4

1001
ACAD
1000
MS PGothic
1071
    32818
  0
ENDTAB
  0
TABLE
  2
VIEW
  5
746B
330
0
100
AcDbSymbolTable
 70
     0
  0
ENDTAB
  0
TABLE
  2
UCS
  5
746C
330
0
100
AcDbSymbolTable
 70
     0
  0
ENDTAB
  0
TABLE
  2
APPID
  5
746E
330
0
100
AcDbSymbolTable
 70
     6
  0
APPID
  5
7476
330
746E
100
AcDbSymbolTableRecord
100
AcDbRegAppTableRecord
  2
ACAD
 70
     0
  0
APPID
  5
DEA9
330
746E
100
AcDbSymbolTableRecord
100
AcDbRegAppTableRecord
  2
CONTENTBLOCKICON
 70
     0
  0
APPID
  5
DEAA
330
746E
100
AcDbSymbolTableRecord
100
AcDbRegAppTableRecord
  2
CONTENTBLOCKDESCRIPTION
 70
     0
  0
APPID
  5
E71D
330
746E
100
AcDbSymbolTableRecord
100
AcDbRegAppTableRecord
  2
CONTENTTABDATA
 70
     0
  0
APPID
  5
E71E
330
746E
100
AcDbSymbolTableRecord
100
AcDbRegAppTableRecord
  2
CONTENTCURRENTTAB
 70
     0
  0
APPID
  5
F3BA
330
746E
100
AcDbSymbolTableRecord
100
AcDbRegAppTableRecord
  2
DRAWINGVARIABLESXDATA
 70
     0
  0
ENDTAB
  0
TABLE
  2
DIMSTYLE
  5
746F
330
0
100
AcDbSymbolTable
 70
     6
100
AcDbDimStyleTable
 71
     0
  0
DIMSTYLE
105
7484
330
746F
100
AcDbSymbolTableRecord
100
AcDbDimStyleTableRecord
  2
JIS
 70
     0
 41
2.5
 42
1.0
 43
7.0
 44
1.0
 73
     0
 74
     0
 77
     1
 78
     8
140
2.5
141
0.0
143
0.0394
147
0.0
172
     1
174
     1
175
     1
340
7475
  0
DIMSTYLE
105
F236
330
746F
100
AcDbSymbolTableRecord
100
AcDbDimStyleTableRecord
  2
INABA_S40
 70
     0
 40
40.0
 41
2.5
 42
0.5
 43
7.0
 44
1.5
 73
     0
 74
     0
 77
     3
 78
     8
140
3.0
141
0.0
143
0.0394
147
1.0
172
     1
173
     1
174
     1
175
     1
178
     7
289
     0
340
7475
341
DEAC
343
DEAC
344
DEAC
  0
DIMSTYLE
105
F71F
102
{ACAD_REACTORS
330
1633A
330
1633B
330
1633C
330
1633D
330
16351
330
16354
330
16357
330
16358
330
1636E
330
1636F
330
1638C
330
1638D
330
163A0
330
17B60
330
17B5F
330
17B5E
330
17B2F
330
17B29
330
17B28
330
17B27
330
17B00
330
17AF1
330
17D33
330
17D32
330
17D34
330
17D31
330
188EC
330
188ED
330
188EE
102
}
330
746F
100
AcDbSymbolTableRecord
100
AcDbDimStyleTableRecord
  2
INABA_S40G
 70
     0
 40
40.0
 41
2.5
 42
0.5
 43
7.0
 44
1.5
 73
     0
 74
     0
 77
     3
 78
     8
140
3.0
141
0.0
143
0.0394
147
1.0
172
     1
173
     1
174
     1
178
     7
271
     1
340
F706
341
F770
343
F770
344
F770
  0
DIMSTYLE
105
142E3
330
746F
100
AcDbSymbolTableRecord
100
AcDbDimStyleTableRecord
  2
INABA_S1
 70
     0
 40
0.0
 41
2.5
 42
0.5
 43
7.0
 44
1.5
 73
     0
 74
     0
 77
     3
 78
     8
140
3.0
141
0.0
143
0.0394
146
0.5
147
0.5
172
     1
173
     1
176
   256
177
   256
178
     7
271
     2
272
     2
284
     8
288
     1
340
7475
341
DEAC
343
DEAC
344
DEAC
  0
DIMSTYLE
105
14463
330
746F
100
AcDbSymbolTableRecord
100
AcDbDimStyleTableRecord
  2
INABA_S30G
 70
     0
 40
30.0
 41
2.5
 42
0.5
 43
7.0
 44
1.5
 73
     0
 74
     0
 77
     3
 78
     8
140
3.0
141
0.0
143
0.0394
147
1.0
172
     1
173
     1
174
     1
175
     1
178
     7
271
     1
340
F706
341
F770
343
F770
344
F770
  0
DIMSTYLE
105
156F9
330
746F
100
AcDbSymbolTableRecord
100
AcDbDimStyleTableRecord
  2
INABA_S50
 70
     0
 40
50.0
 41
2.5
 42
0.5
 43
7.0
 44
1.0
 73
     0
 74
     0
 77
     3
 78
     8
140
2.5
141
0.0
143
0.0394
147
1.0
172
     1
173
     1
174
     1
175
     1
178
     7
289
     0
340
7475
341
DEAC
343
DEAC
344
DEAC
  0
ENDTAB
  0
TABLE
  2
BLOCK_RECORD
  5
7466
330
0
100
AcDbSymbolTable
 70
    42
  0
BLOCK_RECORD
  5
747D
330
7466
100
AcDbSymbolTableRecord
100
AcDbBlockTableRecord
  2
*MODEL_SPACE
340
16588
  0
BLOCK_RECORD
  5
747A
330
7466
100
AcDbSymbolTableRecord
100
AcDbBlockTableRecord
  2
*PAPER_SPACE
340
16589
  0
BLOCK_RECORD
  5
DEAC
330
7466
100
AcDbSymbolTableRecord
100
AcDbBlockTableRecord
  2
_OPEN
340
0
  0
BLOCK_RECORD
  5
F770
330
7466
100
AcDbSymbolTableRecord
100
AcDbBlockTableRecord
  2
_DOTSMALL
340
0
102
{BLKREFS
331
16608
331
16609
331
16613
331
16614
331
1661C
331
1661D
331
16627
331
16628
331
16633
331
16634
331
1663E
331
1663F
331
16648
331
16649
331
16651
331
16652
331
16659
331
1665A
331
16662
331
16663
331
1666D
331
1666E
331
16678
331
16679
331
16681
331
16682
331
17CD3
331
17CD4
331
17CDC
331
17CDD
331
17CE5
331
17CE6
331
17CFA
331
17CFB
331
17D0E
331
17D0F
331
17D21
331
17D22
331
17D2B
331
17D2C
331
17DBB
331
17DBC
331
17DC6
331
17DC7
331
189E6
331
189E7
331
18DBD
331
18DBE
331
18DB2
331
18DB3
331
18DA3
331
18DA4
331
18D96
331
18D97
331
18D8A
331
18D8B
331
18D7C
331
18D7D
331
18D70
331
18D71
331
18D64
331
18D65
331
18D56
331
18D57
331
18F3F
331
18F40
331
18F48
331
18F49
331
18F51
331
18F52
331
18F5A
331
18F5B
331
18F94
331
18F95
331
18F9D
331
18F9E
102
}
  0
BLOCK_RECORD
  5
163A5
330
7466
100
AcDbSymbolTableRecord
100
AcDbBlockTableRecord
  2
*D2
340
0
  0
BLOCK_RECORD
  5
163B1
330
7466
100
AcDbSymbolTableRecord
100
AcDbBlockTableRecord
  2
*D3
340
0
  0
BLOCK_RECORD
  5
163BF
330
7466
100
AcDbSymbolTableRecord
100
AcDbBlockTableRecord
  2
*D4
340
0
  0
BLOCK_RECORD
  5
163CD
330
7466
100
AcDbSymbolTableRecord
100
AcDbBlockTableRecord
  2
*D5
340
0
  0
BLOCK_RECORD
  5
163F1
330
7466
100
AcDbSymbolTableRecord
100
AcDbBlockTableRecord
  2
*D6
340
0
  0
BLOCK_RECORD
  5
163FC
330
7466
100
AcDbSymbolTableRecord
100
AcDbBlockTableRecord
  2
*D7
340
0
  0
BLOCK_RECORD
  5
16408
330
7466
100
AcDbSymbolTableRecord
100
AcDbBlockTableRecord
  2
*D8
340
0
  0
BLOCK_RECORD
  5
16416
330
7466
100
AcDbSymbolTableRecord
100
AcDbBlockTableRecord
  2
*D9
340
0
  0
BLOCK_RECORD
  5
16425
330
7466
100
AcDbSymbolTableRecord
100
AcDbBlockTableRecord
  2
*D10
340
0
  0
BLOCK_RECORD
  5
16434
330
7466
100
AcDbSymbolTableRecord
100
AcDbBlockTableRecord
  2
*D11
340
0
  0
BLOCK_RECORD
  5
1644E
330
7466
100
AcDbSymbolTableRecord
100
AcDbBlockTableRecord
  2
*D12
340
0
  0
BLOCK_RECORD
  5
1645A
330
7466
100
AcDbSymbolTableRecord
100
AcDbBlockTableRecord
  2
*D13
340
0
  0
BLOCK_RECORD
  5
16468
330
7466
100
AcDbSymbolTableRecord
100
AcDbBlockTableRecord
  2
*D14
340
0
  0
BLOCK_RECORD
  5
17B6E
330
7466
100
AcDbSymbolTableRecord
100
AcDbBlockTableRecord
  2
*D15
340
0
  0
BLOCK_RECORD
  5
17B7A
330
7466
100
AcDbSymbolTableRecord
100
AcDbBlockTableRecord
  2
*D16
340
0
  0
BLOCK_RECORD
  5
17B86
330
7466
100
AcDbSymbolTableRecord
100
AcDbBlockTableRecord
  2
*D17
340
0
  0
BLOCK_RECORD
  5
17B9F
330
7466
100
AcDbSymbolTableRecord
100
AcDbBlockTableRecord
  2
*D18
340
0
  0
BLOCK_RECORD
  5
17BAD
330
7466
100
AcDbSymbolTableRecord
100
AcDbBlockTableRecord
  2
*D19
340
0
  0
BLOCK_RECORD
  5
17BB9
330
7466
100
AcDbSymbolTableRecord
100
AcDbBlockTableRecord
  2
*D20
340
0
  0
BLOCK_RECORD
  5
17BC7
330
7466
100
AcDbSymbolTableRecord
100
AcDbBlockTableRecord
  2
*D21
340
0
  0
BLOCK_RECORD
  5
17BD3
330
7466
100
AcDbSymbolTableRecord
100
AcDbBlockTableRecord
  2
*D22
340
0
  0
BLOCK_RECORD
  5
17BE0
330
7466
100
AcDbSymbolTableRecord
100
AcDbBlockTableRecord
  2
*D23
340
0
  0
BLOCK_RECORD
  5
17D79
330
7466
100
AcDbSymbolTableRecord
100
AcDbBlockTableRecord
  2
*D24
340
0
  0
BLOCK_RECORD
  5
17D85
330
7466
100
AcDbSymbolTableRecord
100
AcDbBlockTableRecord
  2
*D25
340
0
  0
BLOCK_RECORD
  5
17D93
330
7466
100
AcDbSymbolTableRecord
100
AcDbBlockTableRecord
  2
*D26
340
0
  0
BLOCK_RECORD
  5
17DA1
330
7466
100
AcDbSymbolTableRecord
100
AcDbBlockTableRecord
  2
*D27
340
0
  0
BLOCK_RECORD
  5
18961
330
7466
100
AcDbSymbolTableRecord
100
AcDbBlockTableRecord
  2
*D28
340
0
  0
BLOCK_RECORD
  5
1896E
330
7466
100
AcDbSymbolTableRecord
100
AcDbBlockTableRecord
  2
*D29
340
0
  0
BLOCK_RECORD
  5
1897C
330
7466
100
AcDbSymbolTableRecord
100
AcDbBlockTableRecord
  2
*D30
340
0
  0
BLOCK_RECORD
  5
18D51
330
7466
100
AcDbSymbolTableRecord
100
AcDbBlockTableRecord
  2
*D31
340
0
  0
BLOCK_RECORD
  5
18D5D
330
7466
100
AcDbSymbolTableRecord
100
AcDbBlockTableRecord
  2
*D32
340
0
  0
BLOCK_RECORD
  5
18D6B
330
7466
100
AcDbSymbolTableRecord
100
AcDbBlockTableRecord
  2
*D33
340
0
  0
BLOCK_RECORD
  5
18D77
330
7466
100
AcDbSymbolTableRecord
100
AcDbBlockTableRecord
  2
*D34
340
0
  0
BLOCK_RECORD
  5
18D83
330
7466
100
AcDbSymbolTableRecord
100
AcDbBlockTableRecord
  2
*D35
340
0
  0
BLOCK_RECORD
  5
18D91
330
7466
100
AcDbSymbolTableRecord
100
AcDbBlockTableRecord
  2
*D36
340
0
  0
BLOCK_RECORD
  5
18D9D
330
7466
100
AcDbSymbolTableRecord
100
AcDbBlockTableRecord
  2
*D37
340
0
  0
BLOCK_RECORD
  5
18DAA
330
7466
100
AcDbSymbolTableRecord
100
AcDbBlockTableRecord
  2
*D38
340
0
  0
BLOCK_RECORD
  5
18DB8
330
7466
100
AcDbSymbolTableRecord
100
AcDbBlockTableRecord
  2
*D39
340
0
  0
BLOCK_RECORD
  5
18DC4
330
7466
100
AcDbSymbolTableRecord
100
AcDbBlockTableRecord
  2
A$C3D24348E
340
0
  0
BLOCK_RECORD
  5
18F0B
330
7466
100
AcDbSymbolTableRecord
100
AcDbBlockTableRecord
  2
A$C4B7C0B65
340
0
  0
ENDTAB
  0
ENDSEC
  0
SECTION
  2
BLOCKS
  0
BLOCK
  5
7489
330
747D
100
AcDbEntity
  8
0
100
AcDbBlockBegin
  2
*MODEL_SPACE
 70
     0
 10
0.0
 20
0.0
 30
0.0
  3
*MODEL_SPACE
  1

  0
ENDBLK
  5
748A
330
747D
100
AcDbEntity
  8
0
100
AcDbBlockEnd
  0
BLOCK
  5
7487
330
747A
100
AcDbEntity
 67
     1
  8
0
100
AcDbBlockBegin
  2
*PAPER_SPACE
 70
     0
 10
0.0
 20
0.0
 30
0.0
  3
*PAPER_SPACE
  1

  0
ENDBLK
  5
7488
330
747A
100
AcDbEntity
 67
     1
  8
0
100
AcDbBlockEnd
  0
BLOCK
  5
DEAD
330
DEAC
100
AcDbEntity
  8
0
100
AcDbBlockBegin
  2
_OPEN
 70
     0
 10
0.0
 20
0.0
 30
0.0
  3
_OPEN
  1

  0
LINE
  5
DEAE
330
DEAC
100
AcDbEntity
  8
0
  6
ByBlock
 62
     0
100
AcDbLine
 10
-1.0
 20
0.1666666666666666
 30
0.0
 11
0.0
 21
0.0
 31
0.0
  0
LINE
  5
DEAF
330
DEAC
100
AcDbEntity
  8
0
  6
ByBlock
 62
     0
100
AcDbLine
 10
0.0
 20
0.0
 30
0.0
 11
-1.0
 21
-0.1666666666666666
 31
0.0
  0
LINE
  5
DEB0
330
DEAC
100
AcDbEntity
  8
0
  6
ByBlock
 62
     0
100
AcDbLine
 10
0.0
 20
0.0
 30
0.0
 11
-1.0
 21
0.0
 31
0.0
  0
ENDBLK
  5
DEB1
330
DEAC
100
AcDbEntity
  8
0
100
AcDbBlockEnd
  0
BLOCK
  5
F771
330
F770
100
AcDbEntity
  8
0
 48
50.0
100
AcDbBlockBegin
  2
_DOTSMALL
 70
     0
 10
0.0
 20
0.0
 30
0.0
  3
_DOTSMALL
  1

  0
LWPOLYLINE
  5
F772
330
F770
100
AcDbEntity
  8
0
  6
ByBlock
 62
     0
 48
50.0
100
AcDbPolyline
 90
        2
 70
     1
 43
0.5
 10
-0.0625
 20
0.0
 42
1.0
 10
0.0625
 20
0.0
 42
1.0
  0
ENDBLK
  5
F776
330
F770
100
AcDbEntity
  8
0
 48
50.0
100
AcDbBlockEnd
  0
BLOCK
  5
1654D
330
163A5
100
AcDbEntity
  8
0
 48
50.0
100
AcDbBlockBegin
  2
*D2
 70
     1
 10
0.0
 20
0.0
 30
0.0
  3
*D2
  1

  0
LINE
  5
1667E
330
163A5
100
AcDbEntity
  8
寸法
 62
     0
 48
50.0
370
    -2
100
AcDbLine
 10
7394.673057123664
 20
9670.465357632407
 30
0.0
 11
8082.099402858069
 21
9670.465357632407
 31
0.0
  0
LINE
  5
1667F
330
163A5
100
AcDbEntity
  8
寸法
 62
     0
 48
50.0
370
    -2
100
AcDbLine
 10
7394.673057123639
 20
7570.46535763239
 30
0.0
 11
8082.099402858069
 21
7570.46535763239
 31
0.0
  0
LINE
  5
16680
330
163A5
100
AcDbEntity
  8
寸法
 62
     0
 48
50.0
370
    -2
100
AcDbLine
 10
8022.099402858071
 20
9670.465357632407
 30
0.0
 11
8022.099402858071
 21
7570.46535763239
 31
0.0
  0
INSERT
  5
16681
330
163A5
100
AcDbEntity
  8
寸法
 62
     0
 48
50.0
370
    -2
100
AcDbBlockReference
  2
_DOTSMALL
 10
8022.099402858071
 20
9670.465357632407
 30
0.0
 41
100.0
 42
100.0
 43
100.0
 50
90.0
  0
INSERT
  5
16682
330
163A5
100
AcDbEntity
  8
寸法
 62
     0
 48
50.0
370
    -2
100
AcDbBlockReference
  2
_DOTSMALL
 10
8022.099402858071
 20
7570.46535763239
 30
0.0
 41
100.0
 42
100.0
 43
100.0
 50
270.0
  0
MTEXT
  5
16683
330
163A5
100
AcDbEntity
  8
寸法
 62
     7
 48
50.0
100
AcDbMText
 10
7922.087591834447
 20
8620.465357632401
 30
0.0
 40
120.0
 41
0.0
 71
     5
 72
     1
  1
\A1;5X420=2100
  7
STYLE1
 11
0.0000000000000001
 21
1.0
 31
0.0
 73
     1
 44
1.0
1001
ACAD
1000
MTEXTBEGIN
1070
    73
1070
     1
1070
    44
1040
1.0
1070
    74
1070
     0
1000
MTEXTEND
  0
POINT
  5
16684
330
163A5
100
AcDbEntity
  8
DEFPOINTS
 62
     0
 48
50.0
100
AcDbPoint
 10
7374.673057123664
 20
9670.465357632407
 30
0.0
  0
POINT
  5
16685
330
163A5
100
AcDbEntity
  8
DEFPOINTS
 62
     0
 48
50.0
100
AcDbPoint
 10
7374.673057123638
 20
7570.46535763239
 30
0.0
  0
POINT
  5
16686
330
163A5
100
AcDbEntity
  8
DEFPOINTS
 62
     0
 48
50.0
100
AcDbPoint
 10
8022.099402858071
 20
7570.46535763239
 30
0.0
  0
ENDBLK
  5
16557
330
163A5
100
AcDbEntity
  8
0
 48
50.0
100
AcDbBlockEnd
  0
BLOCK
  5
16481
330
163B1
100
AcDbEntity
  8
0
 48
50.0
100
AcDbBlockBegin
  2
*D3
 70
     1
 10
0.0
 20
0.0
 30
0.0
  3
*D3
  1

  0
LINE
  5
16673
330
163B1
100
AcDbEntity
  8
寸法
 62
     0
 48
50.0
370
    -2
100
AcDbLine
 10
7394.673057123639
 20
7570.46535763239
 30
0.0
 11
8082.09940285805
 21
7570.46535763239
 31
0.0
  0
LINE
  5
16674
330
163B1
100
AcDbEntity
  8
寸法
 62
     0
 48
50.0
370
    -2
100
AcDbLine
 10
7394.673057123639
 20
7515.465357632395
 30
0.0
 11
8082.09940285805
 21
7515.465357632395
 31
0.0
  0
LINE
  5
16675
330
163B1
100
AcDbEntity
  8
寸法
 62
     0
 48
50.0
370
    -2
100
AcDbLine
 10
8022.099402858051
 20
7570.46535763239
 30
0.0
 11
8022.099402858051
 21
7670.465357632391
 31
0.0
  0
LINE
  5
16676
330
163B1
100
AcDbEntity
  8
寸法
 62
     0
 48
50.0
370
    -2
100
AcDbLine
 10
8022.099402858051
 20
7515.465357632395
 30
0.0
 11
8022.099402858051
 21
7029.118609353293
 31
0.0
  0
LINE
  5
16677
330
163B1
100
AcDbEntity
  8
寸法
 62
     0
 48
50.0
370
    -2
100
AcDbLine
 10
8022.099402858051
 20
7570.46535763239
 30
0.0
 11
8022.099402858051
 21
7515.465357632395
 31
0.0
  0
INSERT
  5
16678
330
163B1
100
AcDbEntity
  8
寸法
 62
     0
 48
50.0
370
    -2
100
AcDbBlockReference
  2
_DOTSMALL
 10
8022.099402858051
 20
7570.46535763239
 30
0.0
 41
100.0
 42
100.0
 43
100.0
 50
270.0
  0
INSERT
  5
16679
330
163B1
100
AcDbEntity
  8
寸法
 62
     0
 48
50.0
370
    -2
100
AcDbBlockReference
  2
_DOTSMALL
 10
8022.099402858051
 20
7515.465357632395
 30
0.0
 41
100.0
 42
100.0
 43
100.0
 50
90.0
  0
MTEXT
  5
1667A
330
163B1
100
AcDbEntity
  8
寸法
 62
     7
 48
50.0
100
AcDbMText
 10
7922.099402858048
 20
7137.603890727532
 30
0.0
 40
120.0
 41
0.0
 71
     5
 72
     1
  1
\A1;55
  7
STYLE1
 11
0.0000000000000001
 21
1.0
 31
0.0
 73
     1
 44
1.0
1001
ACAD
1000
MTEXTBEGIN
1070
    73
1070
     1
1070
    44
1040
1.0
1070
    74
1070
     0
1000
MTEXTEND
  0
POINT
  5
1667B
330
163B1
100
AcDbEntity
  8
DEFPOINTS
 62
     0
 48
50.0
100
AcDbPoint
 10
7374.673057123638
 20
7570.46535763239
 30
0.0
  0
POINT
  5
1667C
330
163B1
100
AcDbEntity
  8
DEFPOINTS
 62
     0
 48
50.0
100
AcDbPoint
 10
7374.673057123638
 20
7515.465357632395
 30
0.0
  0
POINT
  5
1667D
330
163B1
100
AcDbEntity
  8
DEFPOINTS
 62
     0
 48
50.0
100
AcDbPoint
 10
8022.099402858051
 20
7515.465357632395
 30
0.0
  0
ENDBLK
  5
1648D
330
163B1
100
AcDbEntity
  8
0
 48
50.0
100
AcDbBlockEnd
  0
BLOCK
  5
1648E
330
163BF
100
AcDbEntity
  8
0
 48
50.0
100
AcDbBlockBegin
  2
*D4
 70
     1
 10
0.0
 20
0.0
 30
0.0
  3
*D4
  1

  0
LINE
  5
16668
330
163BF
100
AcDbEntity
  8
寸法
 62
     0
 48
50.0
370
    -2
100
AcDbLine
 10
7394.673057123664
 20
9725.465357632401
 30
0.0
 11
8082.099402858075
 21
9725.465357632401
 31
0.0
  0
LINE
  5
16669
330
163BF
100
AcDbEntity
  8
寸法
 62
     0
 48
50.0
370
    -2
100
AcDbLine
 10
7394.673057123664
 20
9670.465357632407
 30
0.0
 11
8082.099402858075
 21
9670.465357632407
 31
0.0
  0
LINE
  5
1666A
330
163BF
100
AcDbEntity
  8
寸法
 62
     0
 48
50.0
370
    -2
100
AcDbLine
 10
8022.099402858074
 20
9670.465357632407
 30
0.0
 11
8022.099402858074
 21
9570.465357632405
 31
0.0
  0
LINE
  5
1666B
330
163BF
100
AcDbEntity
  8
寸法
 62
     0
 48
50.0
370
    -2
100
AcDbLine
 10
8022.099402858074
 20
9725.465357632401
 30
0.0
 11
8022.099402858074
 21
10142.43592038088
 31
0.0
  0
LINE
  5
1666C
330
163BF
100
AcDbEntity
  8
寸法
 62
     0
 48
50.0
370
    -2
100
AcDbLine
 10
8022.099402858074
 20
9670.465357632407
 30
0.0
 11
8022.099402858074
 21
9725.465357632401
 31
0.0
  0
INSERT
  5
1666D
330
163BF
100
AcDbEntity
  8
寸法
 62
     0
 48
50.0
370
    -2
100
AcDbBlockReference
  2
_DOTSMALL
 10
8022.099402858074
 20
9670.465357632407
 30
0.0
 41
100.0
 42
100.0
 43
100.0
 50
90.0
  0
INSERT
  5
1666E
330
163BF
100
AcDbEntity
  8
寸法
 62
     0
 48
50.0
370
    -2
100
AcDbBlockReference
  2
_DOTSMALL
 10
8022.099402858074
 20
9725.465357632401
 30
0.0
 41
100.0
 42
100.0
 43
100.0
 50
270.0
  0
MTEXT
  5
1666F
330
163BF
100
AcDbEntity
  8
寸法
 62
     7
 48
50.0
100
AcDbMText
 10
7922.099402858073
 20
10033.95063900664
 30
0.0
 40
120.0
 41
0.0
 71
     5
 72
     1
  1
\A1;55
  7
STYLE1
 11
0.0000000000000001
 21
1.0
 31
0.0
 73
     1
 44
1.0
1001
ACAD
1000
MTEXTBEGIN
1070
    73
1070
     1
1070
    44
1040
1.0
1070
    74
1070
     0
1000
MTEXTEND
  0
POINT
  5
16670
330
163BF
100
AcDbEntity
  8
DEFPOINTS
 62
     0
 48
50.0
100
AcDbPoint
 10
7374.673057123664
 20
9725.465357632401
 30
0.0
  0
POINT
  5
16671
330
163BF
100
AcDbEntity
  8
DEFPOINTS
 62
     0
 48
50.0
100
AcDbPoint
 10
7374.673057123664
 20
9670.465357632407
 30
0.0
  0
POINT
  5
16672
330
163BF
100
AcDbEntity
  8
DEFPOINTS
 62
     0
 48
50.0
100
AcDbPoint
 10
8022.099402858074
 20
9670.465357632407
 30
0.0
  0
ENDBLK
  5
1649A
330
163BF
100
AcDbEntity
  8
0
 48
50.0
100
AcDbBlockEnd
  0
BLOCK
  5
16537
330
163CD
100
AcDbEntity
  8
0
 48
50.0
100
AcDbBlockBegin
  2
*D5
 70
     1
 10
0.0
 20
0.0
 30
0.0
  3
*D5
  1

  0
LINE
  5
1665F
330
163CD
100
AcDbEntity
  8
寸法
 62
     0
 48
50.0
370
    -2
100
AcDbLine
 10
7394.673057123664
 20
9725.465357632401
 30
0.0
 11
8447.206344597709
 21
9725.465357632401
 31
0.0
  0
LINE
  5
16660
330
163CD
100
AcDbEntity
  8
寸法
 62
     0
 48
50.0
370
    -2
100
AcDbLine
 10
7394.673057123639
 20
7515.465357632395
 30
0.0
 11
8447.206344597709
 21
7515.465357632395
 31
0.0
  0
LINE
  5
16661
330
163CD
100
AcDbEntity
  8
寸法
 62
     0
 48
50.0
370
    -2
100
AcDbLine
 10
8387.206344597709
 20
9725.465357632401
 30
0.0
 11
8387.206344597709
 21
7515.465357632395
 31
0.0
  0
INSERT
  5
16662
330
163CD
100
AcDbEntity
  8
寸法
 62
     0
 48
50.0
370
    -2
100
AcDbBlockReference
  2
_DOTSMALL
 10
8387.206344597709
 20
9725.465357632401
 30
0.0
 41
100.0
 42
100.0
 43
100.0
 50
90.0
  0
INSERT
  5
16663
330
163CD
100
AcDbEntity
  8
寸法
 62
     0
 48
50.0
370
    -2
100
AcDbBlockReference
  2
_DOTSMALL
 10
8387.206344597709
 20
7515.465357632395
 30
0.0
 41
100.0
 42
100.0
 43
100.0
 50
270.0
  0
MTEXT
  5
16664
330
163CD
100
AcDbEntity
  8
寸法
 62
     7
 48
50.0
100
AcDbMText
 10
8287.194533574085
 20
8620.465357632401
 30
0.0
 40
120.0
 41
0.0
 71
     5
 72
     1
  1
\A1;2210
  7
STYLE1
 11
0.0000000000000001
 21
1.0
 31
0.0
 73
     1
 44
1.0
1001
ACAD
1000
MTEXTBEGIN
1070
    73
1070
     1
1070
    44
1040
1.0
1070
    74
1070
     0
1000
MTEXTEND
  0
POINT
  5
16665
330
163CD
100
AcDbEntity
  8
DEFPOINTS
 62
     0
 48
50.0
100
AcDbPoint
 10
7374.673057123664
 20
9725.465357632401
 30
0.0
  0
POINT
  5
16666
330
163CD
100
AcDbEntity
  8
DEFPOINTS
 62
     0
 48
50.0
100
AcDbPoint
 10
7374.673057123638
 20
7515.465357632395
 30
0.0
  0
POINT
  5
16667
330
163CD
100
AcDbEntity
  8
DEFPOINTS
 62
     0
 48
50.0
100
AcDbPoint
 10
8387.206344597709
 20
7515.465357632395
 30
0.0
  0
ENDBLK
  5
16541
330
163CD
100
AcDbEntity
  8
0
 48
50.0
100
AcDbBlockEnd
  0
BLOCK
  5
164BC
330
163F1
100
AcDbEntity
  8
0
 48
50.0
100
AcDbBlockBegin
  2
*D6
 70
     1
 10
0.0
 20
0.0
 30
0.0
  3
*D6
  1

  0
LINE
  5
16657
330
163F1
100
AcDbEntity
  8
寸法
 62
     0
 48
50.0
370
    -2
100
AcDbLine
 10
4847.673057123657
 20
7521.465357632303
 30
0.0
 11
4847.673057123657
 21
6921.034586866139
 31
0.0
  0
LINE
  5
16658
330
163F1
100
AcDbEntity
  8
寸法
 62
     0
 48
50.0
370
    -2
100
AcDbLine
 10
7271.673057123638
 20
6981.034586866138
 30
0.0
 11
4847.673057123657
 21
6981.034586866138
 31
0.0
  0
INSERT
  5
16659
330
163F1
100
AcDbEntity
  8
寸法
 62
     0
 48
50.0
370
    -2
100
AcDbBlockReference
  2
_DOTSMALL
 10
7271.673057123638
 20
6981.034586866138
 30
0.0
 41
100.0
 42
100.0
 43
100.0
  0
INSERT
  5
1665A
330
163F1
100
AcDbEntity
  8
寸法
 62
     0
 48
50.0
370
    -2
100
AcDbBlockReference
  2
_DOTSMALL
 10
4847.673057123657
 20
6981.034586866138
 30
0.0
 41
100.0
 42
100.0
 43
100.0
 50
180.0
  0
MTEXT
  5
1665B
330
163F1
100
AcDbEntity
  8
寸法
 62
     7
 48
50.0
100
AcDbMText
 10
6059.673057123648
 20
7081.04639788976
 30
0.0
 40
120.0
 41
0.0
 71
     5
 72
     1
  1
\A1;有効開口部間口 2424
  7
STYLE1
 73
     1
 44
1.0
1001
ACAD
1000
MTEXTBEGIN
1070
    73
1070
     1
1070
    44
1040
1.0
1070
    74
1070
     0
1000
MTEXTEND
  0
POINT
  5
1665C
330
163F1
100
AcDbEntity
  8
DEFPOINTS
 62
     0
 48
50.0
100
AcDbPoint
 10
7271.673057123638
 20
7541.465357632303
 30
0.0
  0
POINT
  5
1665D
330
163F1
100
AcDbEntity
  8
DEFPOINTS
 62
     0
 48
50.0
100
AcDbPoint
 10
4847.673057123657
 20
7541.465357632303
 30
0.0
  0
POINT
  5
1665E
330
163F1
100
AcDbEntity
  8
DEFPOINTS
 62
     0
 48
50.0
100
AcDbPoint
 10
4847.673057123657
 20
6981.034586866138
 30
0.0
  0
ENDBLK
  5
164C5
330
163F1
100
AcDbEntity
  8
0
 48
50.0
100
AcDbBlockEnd
  0
BLOCK
  5
164C6
330
163FC
100
AcDbEntity
  8
0
 48
50.0
100
AcDbBlockBegin
  2
*D7
 70
     1
 10
0.0
 20
0.0
 30
0.0
  3
*D7
  1

  0
LINE
  5
1664E
330
163FC
100
AcDbEntity
  8
寸法
 62
     0
 48
50.0
370
    -2
100
AcDbLine
 10
4744.673057123656
 20
7495.465357632231
 30
0.0
 11
4744.673057123656
 21
6634.861591275265
 31
0.0
  0
LINE
  5
1664F
330
163FC
100
AcDbEntity
  8
寸法
 62
     0
 48
50.0
370
    -2
100
AcDbLine
 10
7374.673057123638
 20
7495.465357632358
 30
0.0
 11
7374.673057123638
 21
6634.861591275265
 31
0.0
  0
LINE
  5
16650
330
163FC
100
AcDbEntity
  8
寸法
 62
     0
 48
50.0
370
    -2
100
AcDbLine
 10
4744.673057123656
 20
6694.861591275264
 30
0.0
 11
7374.673057123638
 21
6694.861591275264
 31
0.0
  0
INSERT
  5
16651
330
163FC
100
AcDbEntity
  8
寸法
 62
     0
 48
50.0
370
    -2
100
AcDbBlockReference
  2
_DOTSMALL
 10
4744.673057123656
 20
6694.861591275264
 30
0.0
 41
100.0
 42
100.0
 43
100.0
 50
180.0
  0
INSERT
  5
16652
330
163FC
100
AcDbEntity
  8
寸法
 62
     0
 48
50.0
370
    -2
100
AcDbBlockReference
  2
_DOTSMALL
 10
7374.673057123638
 20
6694.861591275264
 30
0.0
 41
100.0
 42
100.0
 43
100.0
  0
MTEXT
  5
16653
330
163FC
100
AcDbEntity
  8
寸法
 62
     7
 48
50.0
100
AcDbMText
 10
6059.673057123648
 20
6794.873402298887
 30
0.0
 40
120.0
 41
0.0
 71
     5
 72
     1
  1
\A1;2630
  7
STYLE1
 73
     1
 44
1.0
1001
ACAD
1000
MTEXTBEGIN
1070
    73
1070
     1
1070
    44
1040
1.0
1070
    74
1070
     0
1000
MTEXTEND
  0
POINT
  5
16654
330
163FC
100
AcDbEntity
  8
DEFPOINTS
 62
     0
 48
50.0
100
AcDbPoint
 10
4744.673057123656
 20
7515.46535763223
 30
0.0
  0
POINT
  5
16655
330
163FC
100
AcDbEntity
  8
DEFPOINTS
 62
     0
 48
50.0
100
AcDbPoint
 10
7374.673057123638
 20
7515.465357632358
 30
0.0
  0
POINT
  5
16656
330
163FC
100
AcDbEntity
  8
DEFPOINTS
 62
     0
 48
50.0
100
AcDbPoint
 10
7374.673057123638
 20
6694.861591275264
 30
0.0
  0
ENDBLK
  5
164D0
330
163FC
100
AcDbEntity
  8
0
 48
50.0
100
AcDbBlockEnd
  0
BLOCK
  5
164D1
330
16408
100
AcDbEntity
  8
0
 48
50.0
100
AcDbBlockBegin
  2
*D8
 70
     1
 10
0.0
 20
0.0
 30
0.0
  3
*D8
  1

  0
LINE
  5
16643
330
16408
100
AcDbEntity
  8
寸法
 62
     0
 48
50.0
370
    -2
100
AcDbLine
 10
4799.673057123653
 20
7495.465357632302
 30
0.0
 11
4799.673057123653
 21
6921.034586866139
 31
0.0
  0
LINE
  5
16644
330
16408
100
AcDbEntity
  8
寸法
 62
     0
 48
50.0
370
    -2
100
AcDbLine
 10
4744.673057123656
 20
7495.4653576323
 30
0.0
 11
4744.673057123656
 21
6921.034586866139
 31
0.0
  0
LINE
  5
16645
330
16408
100
AcDbEntity
  8
寸法
 62
     0
 48
50.0
370
    -2
100
AcDbLine
 10
4799.673057123653
 20
6981.034586866138
 30
0.0
 11
4899.673057123653
 21
6981.034586866138
 31
0.0
  0
LINE
  5
16646
330
16408
100
AcDbEntity
  8
寸法
 62
     0
 48
50.0
370
    -2
100
AcDbLine
 10
4744.673057123656
 20
6981.034586866138
 30
0.0
 11
4327.70249437518
 21
6981.034586866138
 31
0.0
  0
LINE
  5
16647
330
16408
100
AcDbEntity
  8
寸法
 62
     0
 48
50.0
370
    -2
100
AcDbLine
 10
4799.673057123653
 20
6981.034586866138
 30
0.0
 11
4744.673057123656
 21
6981.034586866138
 31
0.0
  0
INSERT
  5
16648
330
16408
100
AcDbEntity
  8
寸法
 62
     0
 48
50.0
370
    -2
100
AcDbBlockReference
  2
_DOTSMALL
 10
4799.673057123653
 20
6981.034586866138
 30
0.0
 41
100.0
 42
100.0
 43
100.0
 50
180.0
  0
INSERT
  5
16649
330
16408
100
AcDbEntity
  8
寸法
 62
     0
 48
50.0
370
    -2
100
AcDbBlockReference
  2
_DOTSMALL
 10
4744.673057123656
 20
6981.034586866138
 30
0.0
 41
100.0
 42
100.0
 43
100.0
  0
MTEXT
  5
1664A
330
16408
100
AcDbEntity
  8
寸法
 62
     7
 48
50.0
100
AcDbMText
 10
4436.187775749418
 20
7081.034586866138
 30
0.0
 40
120.0
 41
0.0
 71
     5
 72
     1
  1
\A1;55
  7
STYLE1
 73
     1
 44
1.0
1001
ACAD
1000
MTEXTBEGIN
1070
    73
1070
     1
1070
    44
1040
1.0
1070
    74
1070
     0
1000
MTEXTEND
  0
POINT
  5
1664B
330
16408
100
AcDbEntity
  8
DEFPOINTS
 62
     0
 48
50.0
100
AcDbPoint
 10
4799.673057123653
 20
7515.465357632303
 30
0.0
  0
POINT
  5
1664C
330
16408
100
AcDbEntity
  8
DEFPOINTS
 62
     0
 48
50.0
100
AcDbPoint
 10
4744.673057123656
 20
7515.4653576323
 30
0.0
  0
POINT
  5
1664D
330
16408
100
AcDbEntity
  8
DEFPOINTS
 62
     0
 48
50.0
100
AcDbPoint
 10
4744.673057123656
 20
6981.034586866138
 30
0.0
  0
ENDBLK
  5
164DD
330
16408
100
AcDbEntity
  8
0
 48
50.0
100
AcDbBlockEnd
  0
BLOCK
  5
164DE
330
16416
100
AcDbEntity
  8
0
 48
50.0
100
AcDbBlockBegin
  2
*D9
 70
     1
 10
0.0
 20
0.0
 30
0.0
  3
*D9
  1

  0
LINE
  5
16638
330
16416
100
AcDbEntity
  8
寸法
 62
     0
 48
50.0
370
    -2
100
AcDbLine
 10
4847.673057123657
 20
7521.465357632303
 30
0.0
 11
4847.673057123657
 21
6921.034586866139
 31
0.0
  0
LINE
  5
16639
330
16416
100
AcDbEntity
  8
寸法
 62
     0
 48
50.0
370
    -2
100
AcDbLine
 10
4799.673057123653
 20
7495.465357632302
 30
0.0
 11
4799.673057123653
 21
6921.034586866139
 31
0.0
  0
LINE
  5
1663A
330
16416
100
AcDbEntity
  8
寸法
 62
     0
 48
50.0
370
    -2
100
AcDbLine
 10
4847.673057123657
 20
6981.034586866138
 30
0.0
 11
4947.673057123656
 21
6981.034586866138
 31
0.0
  0
LINE
  5
1663B
330
16416
100
AcDbEntity
  8
寸法
 62
     0
 48
50.0
370
    -2
100
AcDbLine
 10
4799.673057123653
 20
6981.034586866138
 30
0.0
 11
4699.673057123653
 21
6981.034586866138
 31
0.0
  0
MTEXT
  5
1663C
330
16416
100
AcDbEntity
  8
寸法
 62
     7
 48
50.0
100
AcDbMText
 10
4960.575028123714
 20
7081.034586866138
 30
0.0
 40
120.0
 41
0.0
 71
     5
 72
     1
  1
\A1;48
  7
STYLE1
 73
     1
 44
1.0
1001
ACAD
1000
MTEXTBEGIN
1070
    73
1070
     1
1070
    44
1040
1.0
1070
    74
1070
     0
1000
MTEXTEND
  0
LINE
  5
1663D
330
16416
100
AcDbEntity
  8
寸法
 62
     0
 48
50.0
370
    -2
100
AcDbLine
 10
4847.673057123657
 20
6981.034586866138
 30
0.0
 11
4799.673057123653
 21
6981.034586866138
 31
0.0
  0
INSERT
  5
1663E
330
16416
100
AcDbEntity
  8
寸法
 62
     0
 48
50.0
370
    -2
100
AcDbBlockReference
  2
_DOTSMALL
 10
4847.673057123657
 20
6981.034586866138
 30
0.0
 41
100.0
 42
100.0
 43
100.0
 50
180.0
  0
INSERT
  5
1663F
330
16416
100
AcDbEntity
  8
寸法
 62
     0
 48
50.0
370
    -2
100
AcDbBlockReference
  2
_DOTSMALL
 10
4799.673057123653
 20
6981.034586866138
 30
0.0
 41
100.0
 42
100.0
 43
100.0
  0
POINT
  5
16640
330
16416
100
AcDbEntity
  8
DEFPOINTS
 62
     0
 48
50.0
100
AcDbPoint
 10
4847.673057123657
 20
7541.465357632303
 30
0.0
  0
POINT
  5
16641
330
16416
100
AcDbEntity
  8
DEFPOINTS
 62
     0
 48
50.0
100
AcDbPoint
 10
4799.673057123653
 20
7515.465357632303
 30
0.0
  0
POINT
  5
16642
330
16416
100
AcDbEntity
  8
DEFPOINTS
 62
     0
 48
50.0
100
AcDbPoint
 10
4799.673057123653
 20
6981.034586866138
 30
0.0
  0
ENDBLK
  5
164EB
330
16416
100
AcDbEntity
  8
0
 48
50.0
100
AcDbBlockEnd
  0
BLOCK
  5
164EC
330
16425
100
AcDbEntity
  8
0
 48
50.0
100
AcDbBlockBegin
  2
*D10
 70
     1
 10
0.0
 20
0.0
 30
0.0
  3
*D10
  1

  0
LINE
  5
1662D
330
16425
100
AcDbEntity
  8
寸法
 62
     0
 48
50.0
370
    -2
100
AcDbLine
 10
7319.67305712364
 20
7495.46535763239
 30
0.0
 11
7319.67305712364
 21
6921.034586866139
 31
0.0
  0
LINE
  5
1662E
330
16425
100
AcDbEntity
  8
寸法
 62
     0
 48
50.0
370
    -2
100
AcDbLine
 10
7271.673057123638
 20
7521.465357632303
 30
0.0
 11
7271.673057123638
 21
6921.034586866139
 31
0.0
  0
LINE
  5
1662F
330
16425
100
AcDbEntity
  8
寸法
 62
     0
 48
50.0
370
    -2
100
AcDbLine
 10
7319.67305712364
 20
6981.034586866138
 30
0.0
 11
7419.67305712364
 21
6981.034586866138
 31
0.0
  0
LINE
  5
16630
330
16425
100
AcDbEntity
  8
寸法
 62
     0
 48
50.0
370
    -2
100
AcDbLine
 10
7271.673057123638
 20
6981.034586866138
 30
0.0
 11
7171.673057123638
 21
6981.034586866138
 31
0.0
  0
MTEXT
  5
16631
330
16425
100
AcDbEntity
  8
寸法
 62
     7
 48
50.0
100
AcDbMText
 10
7160.710159474891
 20
7081.034586866138
 30
0.0
 40
120.0
 41
0.0
 71
     5
 72
     1
  1
\A1;48
  7
STYLE1
 73
     1
 44
1.0
1001
ACAD
1000
MTEXTBEGIN
1070
    73
1070
     1
1070
    44
1040
1.0
1070
    74
1070
     0
1000
MTEXTEND
  0
LINE
  5
16632
330
16425
100
AcDbEntity
  8
寸法
 62
     0
 48
50.0
370
    -2
100
AcDbLine
 10
7319.67305712364
 20
6981.034586866138
 30
0.0
 11
7271.673057123638
 21
6981.034586866138
 31
0.0
  0
INSERT
  5
16633
330
16425
100
AcDbEntity
  8
寸法
 62
     0
 48
50.0
370
    -2
100
AcDbBlockReference
  2
_DOTSMALL
 10
7319.67305712364
 20
6981.034586866138
 30
0.0
 41
100.0
 42
100.0
 43
100.0
 50
180.0
  0
INSERT
  5
16634
330
16425
100
AcDbEntity
  8
寸法
 62
     0
 48
50.0
370
    -2
100
AcDbBlockReference
  2
_DOTSMALL
 10
7271.673057123638
 20
6981.034586866138
 30
0.0
 41
100.0
 42
100.0
 43
100.0
  0
POINT
  5
16635
330
16425
100
AcDbEntity
  8
DEFPOINTS
 62
     0
 48
50.0
100
AcDbPoint
 10
7319.67305712364
 20
7515.465357632391
 30
0.0
  0
POINT
  5
16636
330
16425
100
AcDbEntity
  8
DEFPOINTS
 62
     0
 48
50.0
100
AcDbPoint
 10
7271.673057123638
 20
7541.465357632303
 30
0.0
  0
POINT
  5
16637
330
16425
100
AcDbEntity
  8
DEFPOINTS
 62
     0
 48
50.0
100
AcDbPoint
 10
7271.673057123638
 20
6981.034586866138
 30
0.0
  0
ENDBLK
  5
164F9
330
16425
100
AcDbEntity
  8
0
 48
50.0
100
AcDbBlockEnd
  0
BLOCK
  5
164FA
330
16434
100
AcDbEntity
  8
0
 48
50.0
100
AcDbBlockBegin
  2
*D11
 70
     1
 10
0.0
 20
0.0
 30
0.0
  3
*D11
  1

  0
LINE
  5
16622
330
16434
100
AcDbEntity
  8
寸法
 62
     0
 48
50.0
370
    -2
100
AcDbLine
 10
7374.673057123638
 20
7495.465357632395
 30
0.0
 11
7374.673057123638
 21
6921.034586866141
 31
0.0
  0
LINE
  5
16623
330
16434
100
AcDbEntity
  8
寸法
 62
     0
 48
50.0
370
    -2
100
AcDbLine
 10
7319.67305712364
 20
7495.46535763239
 30
0.0
 11
7319.67305712364
 21
6921.034586866141
 31
0.0
  0
LINE
  5
16624
330
16434
100
AcDbEntity
  8
寸法
 62
     0
 48
50.0
370
    -2
100
AcDbLine
 10
7319.67305712364
 20
6981.03458686614
 30
0.0
 11
7219.67305712364
 21
6981.03458686614
 31
0.0
  0
LINE
  5
16625
330
16434
100
AcDbEntity
  8
寸法
 62
     0
 48
50.0
370
    -2
100
AcDbLine
 10
7374.673057123638
 20
6981.03458686614
 30
0.0
 11
7791.643619872115
 21
6981.03458686614
 31
0.0
  0
LINE
  5
16626
330
16434
100
AcDbEntity
  8
寸法
 62
     0
 48
50.0
370
    -2
100
AcDbLine
 10
7319.67305712364
 20
6981.03458686614
 30
0.0
 11
7374.673057123638
 21
6981.03458686614
 31
0.0
  0
INSERT
  5
16627
330
16434
100
AcDbEntity
  8
寸法
 62
     0
 48
50.0
370
    -2
100
AcDbBlockReference
  2
_DOTSMALL
 10
7319.67305712364
 20
6981.03458686614
 30
0.0
 41
100.0
 42
100.0
 43
100.0
  0
INSERT
  5
16628
330
16434
100
AcDbEntity
  8
寸法
 62
     0
 48
50.0
370
    -2
100
AcDbBlockReference
  2
_DOTSMALL
 10
7374.673057123638
 20
6981.03458686614
 30
0.0
 41
100.0
 42
100.0
 43
100.0
 50
180.0
  0
MTEXT
  5
16629
330
16434
100
AcDbEntity
  8
寸法
 62
     7
 48
50.0
100
AcDbMText
 10
7683.158338497877
 20
7081.03458686614
 30
0.0
 40
120.0
 41
0.0
 71
     5
 72
     1
  1
\A1;55
  7
STYLE1
 73
     1
 44
1.0
1001
ACAD
1000
MTEXTBEGIN
1070
    73
1070
     1
1070
    44
1040
1.0
1070
    74
1070
     0
1000
MTEXTEND
  0
POINT
  5
1662A
330
16434
100
AcDbEntity
  8
DEFPOINTS
 62
     0
 48
50.0
100
AcDbPoint
 10
7374.673057123638
 20
7515.465357632395
 30
0.0
  0
POINT
  5
1662B
330
16434
100
AcDbEntity
  8
DEFPOINTS
 62
     0
 48
50.0
100
AcDbPoint
 10
7319.67305712364
 20
7515.465357632391
 30
0.0
  0
POINT
  5
1662C
330
16434
100
AcDbEntity
  8
DEFPOINTS
 62
     0
 48
50.0
100
AcDbPoint
 10
7319.67305712364
 20
6981.03458686614
 30
0.0
  0
ENDBLK
  5
16506
330
16434
100
AcDbEntity
  8
0
 48
50.0
100
AcDbBlockEnd
  0
BLOCK
  5
16512
330
1644E
100
AcDbEntity
  8
0
 48
50.0
100
AcDbBlockBegin
  2
*D12
 70
     1
 10
0.0
 20
0.0
 30
0.0
  3
*D12
  1

  0
LINE
  5
16619
330
1644E
100
AcDbEntity
  8
寸法
 62
     0
 48
50.0
370
    -2
100
AcDbLine
 10
4799.673057123663
 20
9745.465357632307
 30
0.0
 11
4799.673057123663
 21
10001.2735772574
 31
0.0
  0
LINE
  5
1661A
330
1644E
100
AcDbEntity
  8
寸法
 62
     0
 48
50.0
370
    -2
100
AcDbLine
 10
7319.673057123664
 20
9745.465357632403
 30
0.0
 11
7319.673057123664
 21
10001.2735772574
 31
0.0
  0
LINE
  5
1661B
330
1644E
100
AcDbEntity
  8
寸法
 62
     0
 48
50.0
370
    -2
100
AcDbLine
 10
4799.673057123663
 20
9941.273577257405
 30
0.0
 11
7319.673057123664
 21
9941.273577257405
 31
0.0
  0
INSERT
  5
1661C
330
1644E
100
AcDbEntity
  8
寸法
 62
     0
 48
50.0
370
    -2
100
AcDbBlockReference
  2
_DOTSMALL
 10
4799.673057123663
 20
9941.273577257405
 30
0.0
 41
100.0
 42
100.0
 43
100.0
 50
180.0
  0
INSERT
  5
1661D
330
1644E
100
AcDbEntity
  8
寸法
 62
     0
 48
50.0
370
    -2
100
AcDbBlockReference
  2
_DOTSMALL
 10
7319.673057123664
 20
9941.273577257405
 30
0.0
 41
100.0
 42
100.0
 43
100.0
  0
MTEXT
  5
1661E
330
1644E
100
AcDbEntity
  8
寸法
 62
     7
 48
50.0
100
AcDbMText
 10
6059.673057123664
 20
10041.28538828102
 30
0.0
 40
120.0
 41
0.0
 71
     5
 72
     1
  1
\A1;6X420=2520
  7
STYLE1
 73
     1
 44
1.0
1001
ACAD
1000
MTEXTBEGIN
1070
    73
1070
     1
1070
    44
1040
1.0
1070
    74
1070
     0
1000
MTEXTEND
  0
POINT
  5
1661F
330
1644E
100
AcDbEntity
  8
DEFPOINTS
 62
     0
 48
50.0
100
AcDbPoint
 10
4799.673057123663
 20
9725.465357632309
 30
0.0
  0
POINT
  5
16620
330
1644E
100
AcDbEntity
  8
DEFPOINTS
 62
     0
 48
50.0
100
AcDbPoint
 10
7319.673057123664
 20
9725.465357632401
 30
0.0
  0
POINT
  5
16621
330
1644E
100
AcDbEntity
  8
DEFPOINTS
 62
     0
 48
50.0
100
AcDbPoint
 10
7319.673057123664
 20
9941.273577257405
 30
0.0
  0
ENDBLK
  5
1651C
330
1644E
100
AcDbEntity
  8
0
 48
50.0
100
AcDbBlockEnd
  0
BLOCK
  5
1651D
330
1645A
100
AcDbEntity
  8
0
 48
50.0
100
AcDbBlockBegin
  2
*D13
 70
     1
 10
0.0
 20
0.0
 30
0.0
  3
*D13
  1

  0
LINE
  5
1660E
330
1645A
100
AcDbEntity
  8
寸法
 62
     0
 48
50.0
370
    -2
100
AcDbLine
 10
4744.673057123629
 20
9745.465357632307
 30
0.0
 11
4744.673057123629
 21
10001.27357725729
 31
0.0
  0
LINE
  5
1660F
330
1645A
100
AcDbEntity
  8
寸法
 62
     0
 48
50.0
370
    -2
100
AcDbLine
 10
4799.673057123663
 20
9745.465357632307
 30
0.0
 11
4799.673057123663
 21
10001.27357725729
 31
0.0
  0
LINE
  5
16610
330
1645A
100
AcDbEntity
  8
寸法
 62
     0
 48
50.0
370
    -2
100
AcDbLine
 10
4799.673057123663
 20
9941.273577257289
 30
0.0
 11
4899.673057123663
 21
9941.273577257289
 31
0.0
  0
LINE
  5
16611
330
1645A
100
AcDbEntity
  8
寸法
 62
     0
 48
50.0
370
    -2
100
AcDbLine
 10
4744.673057123629
 20
9941.273577257289
 30
0.0
 11
4327.702494375151
 21
9941.273577257289
 31
0.0
  0
LINE
  5
16612
330
1645A
100
AcDbEntity
  8
寸法
 62
     0
 48
50.0
370
    -2
100
AcDbLine
 10
4799.673057123663
 20
9941.273577257289
 30
0.0
 11
4744.673057123629
 21
9941.273577257289
 31
0.0
  0
INSERT
  5
16613
330
1645A
100
AcDbEntity
  8
寸法
 62
     0
 48
50.0
370
    -2
100
AcDbBlockReference
  2
_DOTSMALL
 10
4799.673057123663
 20
9941.273577257289
 30
0.0
 41
100.0
 42
100.0
 43
100.0
 50
180.0
  0
INSERT
  5
16614
330
1645A
100
AcDbEntity
  8
寸法
 62
     0
 48
50.0
370
    -2
100
AcDbBlockReference
  2
_DOTSMALL
 10
4744.673057123629
 20
9941.273577257289
 30
0.0
 41
100.0
 42
100.0
 43
100.0
  0
MTEXT
  5
16615
330
1645A
100
AcDbEntity
  8
寸法
 62
     7
 48
50.0
100
AcDbMText
 10
4436.187775749391
 20
10041.27357725729
 30
0.0
 40
120.0
 41
0.0
 71
     5
 72
     1
  1
\A1;55
  7
STYLE1
 73
     1
 44
1.0
1001
ACAD
1000
MTEXTBEGIN
1070
    73
1070
     1
1070
    44
1040
1.0
1070
    74
1070
     0
1000
MTEXTEND
  0
POINT
  5
16616
330
1645A
100
AcDbEntity
  8
DEFPOINTS
 62
     0
 48
50.0
100
AcDbPoint
 10
4744.673057123629
 20
9725.465357632309
 30
0.0
  0
POINT
  5
16617
330
1645A
100
AcDbEntity
  8
DEFPOINTS
 62
     0
 48
50.0
100
AcDbPoint
 10
4799.673057123663
 20
9725.465357632309
 30
0.0
  0
POINT
  5
16618
330
1645A
100
AcDbEntity
  8
DEFPOINTS
 62
     0
 48
50.0
100
AcDbPoint
 10
4799.673057123663
 20
9941.273577257289
 30
0.0
  0
ENDBLK
  5
16529
330
1645A
100
AcDbEntity
  8
0
 48
50.0
100
AcDbBlockEnd
  0
BLOCK
  5
1652A
330
16468
100
AcDbEntity
  8
0
 48
50.0
100
AcDbBlockBegin
  2
*D14
 70
     1
 10
0.0
 20
0.0
 30
0.0
  3
*D14
  1

  0
LINE
  5
16603
330
16468
100
AcDbEntity
  8
寸法
 62
     0
 48
50.0
370
    -2
100
AcDbLine
 10
7319.673057123664
 20
9745.465357632403
 30
0.0
 11
7319.673057123664
 21
10001.27357725739
 31
0.0
  0
LINE
  5
16604
330
16468
100
AcDbEntity
  8
寸法
 62
     0
 48
50.0
370
    -2
100
AcDbLine
 10
7374.673057123664
 20
9745.465357632403
 30
0.0
 11
7374.673057123664
 21
10001.27357725739
 31
0.0
  0
LINE
  5
16605
330
16468
100
AcDbEntity
  8
寸法
 62
     0
 48
50.0
370
    -2
100
AcDbLine
 10
7319.673057123664
 20
9941.273577257387
 30
0.0
 11
7219.673057123664
 21
9941.273577257387
 31
0.0
  0
LINE
  5
16606
330
16468
100
AcDbEntity
  8
寸法
 62
     0
 48
50.0
370
    -2
100
AcDbLine
 10
7374.673057123664
 20
9941.273577257387
 30
0.0
 11
7791.643619872141
 21
9941.273577257387
 31
0.0
  0
LINE
  5
16607
330
16468
100
AcDbEntity
  8
寸法
 62
     0
 48
50.0
370
    -2
100
AcDbLine
 10
7319.673057123664
 20
9941.273577257387
 30
0.0
 11
7374.673057123664
 21
9941.273577257387
 31
0.0
  0
INSERT
  5
16608
330
16468
100
AcDbEntity
  8
寸法
 62
     0
 48
50.0
370
    -2
100
AcDbBlockReference
  2
_DOTSMALL
 10
7319.673057123664
 20
9941.273577257387
 30
0.0
 41
100.0
 42
100.0
 43
100.0
  0
INSERT
  5
16609
330
16468
100
AcDbEntity
  8
寸法
 62
     0
 48
50.0
370
    -2
100
AcDbBlockReference
  2
_DOTSMALL
 10
7374.673057123664
 20
9941.273577257387
 30
0.0
 41
100.0
 42
100.0
 43
100.0
 50
180.0
  0
MTEXT
  5
1660A
330
16468
100
AcDbEntity
  8
寸法
 62
     7
 48
50.0
100
AcDbMText
 10
7683.158338497903
 20
10041.27357725739
 30
0.0
 40
120.0
 41
0.0
 71
     5
 72
     1
  1
\A1;55
  7
STYLE1
 73
     1
 44
1.0
1001
ACAD
1000
MTEXTBEGIN
1070
    73
1070
     1
1070
    44
1040
1.0
1070
    74
1070
     0
1000
MTEXTEND
  0
POINT
  5
1660B
330
16468
100
AcDbEntity
  8
DEFPOINTS
 62
     0
 48
50.0
100
AcDbPoint
 10
7319.673057123664
 20
9725.465357632401
 30
0.0
  0
POINT
  5
1660C
330
16468
100
AcDbEntity
  8
DEFPOINTS
 62
     0
 48
50.0
100
AcDbPoint
 10
7374.673057123664
 20
9725.465357632401
 30
0.0
  0
POINT
  5
1660D
330
16468
100
AcDbEntity
  8
DEFPOINTS
 62
     0
 48
50.0
100
AcDbPoint
 10
7374.673057123664
 20
9941.273577257387
 30
0.0
  0
ENDBLK
  5
16536
330
16468
100
AcDbEntity
  8
0
 48
50.0
100
AcDbBlockEnd
  0
BLOCK
  5
17B78
330
17B6E
100
AcDbEntity
  8
0
 48
50.0
100
AcDbBlockBegin
  2
*D15
 70
     1
 10
0.0
 20
0.0
 30
0.0
  3
*D15
  1

  0
LINE
  5
17CD0
330
17B6E
100
AcDbEntity
  8
寸法
 62
     0
 48
50.0
370
    -2
100
AcDbLine
 10
9981.849830513247
 20
4677.931598713261
 30
0.0
 11
9098.09970132999
 21
4677.931598713261
 31
0.0
  0
LINE
  5
17CD1
330
17B6E
100
AcDbEntity
  8
寸法
 62
     0
 48
50.0
370
    -2
100
AcDbLine
 10
9981.849830513247
 20
2587.93159871326
 30
0.0
 11
9098.099701329987
 21
2587.93159871326
 31
0.0
  0
LINE
  5
17CD2
330
17B6E
100
AcDbEntity
  8
寸法
 62
     0
 48
50.0
370
    -2
100
AcDbLine
 10
9158.099701329989
 20
4677.931598713261
 30
0.0
 11
9158.099701329987
 21
2587.93159871326
 31
0.0
  0
INSERT
  5
17CD3
330
17B6E
100
AcDbEntity
  8
寸法
 62
     0
 48
50.0
370
    -2
100
AcDbBlockReference
  2
_DOTSMALL
 10
9158.099701329989
 20
4677.931598713261
 30
0.0
 41
100.0
 42
100.0
 43
100.0
 50
90.0
  0
INSERT
  5
17CD4
330
17B6E
100
AcDbEntity
  8
寸法
 62
     0
 48
50.0
370
    -2
100
AcDbBlockReference
  2
_DOTSMALL
 10
9158.099701329987
 20
2587.93159871326
 30
0.0
 41
100.0
 42
100.0
 43
100.0
 50
270.0
  0
MTEXT
  5
17CD5
330
17B6E
100
AcDbEntity
  8
寸法
 62
     7
 48
50.0
100
AcDbMText
 10
9058.087890306365
 20
3632.931598713262
 30
0.0
 40
120.0
 41
0.0
 71
     5
 72
     1
  1
\A1;2090
  7
STYLE1
 11
0.0000000000000001
 21
1.0
 31
0.0
 73
     1
 44
1.0
1001
ACAD
1000
MTEXTBEGIN
1070
    73
1070
     1
1070
    44
1040
1.0
1070
    74
1070
     0
1000
MTEXTEND
  0
POINT
  5
17CD6
330
17B6E
100
AcDbEntity
  8
DEFPOINTS
 62
     0
 48
50.0
100
AcDbPoint
 10
10001.84983051324
 20
4677.931598713261
 30
0.0
  0
POINT
  5
17CD7
330
17B6E
100
AcDbEntity
  8
DEFPOINTS
 62
     0
 48
50.0
100
AcDbPoint
 10
10001.84983051324
 20
2587.93159871326
 30
0.0
  0
POINT
  5
17CD8
330
17B6E
100
AcDbEntity
  8
DEFPOINTS
 62
     0
 48
50.0
100
AcDbPoint
 10
9158.099701329987
 20
2587.93159871326
 30
0.0
  0
ENDBLK
  5
17B79
330
17B6E
100
AcDbEntity
  8
0
 48
50.0
100
AcDbBlockEnd
  0
BLOCK
  5
17B84
330
17B7A
100
AcDbEntity
  8
0
 48
50.0
100
AcDbBlockBegin
  2
*D16
 70
     1
 10
0.0
 20
0.0
 30
0.0
  3
*D16
  1

  0
LINE
  5
17CD9
330
17B7A
100
AcDbEntity
  8
寸法
 62
     0
 48
50.0
370
    -2
100
AcDbLine
 10
9981.849830513247
 20
2537.93159871326
 30
0.0
 11
8798.099701329986
 21
2537.93159871326
 31
0.0
  0
LINE
  5
17CDA
330
17B7A
100
AcDbEntity
  8
寸法
 62
     0
 48
50.0
370
    -2
100
AcDbLine
 10
9921.849830513249
 20
4912.931598713265
 30
0.0
 11
8798.099701329986
 21
4912.931598713265
 31
0.0
  0
LINE
  5
17CDB
330
17B7A
100
AcDbEntity
  8
寸法
 62
     0
 48
50.0
370
    -2
100
AcDbLine
 10
8858.099701329987
 20
2537.93159871326
 30
0.0
 11
8858.099701329988
 21
4912.931598713265
 31
0.0
  0
INSERT
  5
17CDC
330
17B7A
100
AcDbEntity
  8
寸法
 62
     0
 48
50.0
370
    -2
100
AcDbBlockReference
  2
_DOTSMALL
 10
8858.099701329987
 20
2537.93159871326
 30
0.0
 41
100.0
 42
100.0
 43
100.0
 50
270.0
  0
INSERT
  5
17CDD
330
17B7A
100
AcDbEntity
  8
寸法
 62
     0
 48
50.0
370
    -2
100
AcDbBlockReference
  2
_DOTSMALL
 10
8858.099701329988
 20
4912.931598713265
 30
0.0
 41
100.0
 42
100.0
 43
100.0
 50
90.0
  0
MTEXT
  5
17CDE
330
17B7A
100
AcDbEntity
  8
寸法
 62
     7
 48
50.0
100
AcDbMText
 10
8758.087890306363
 20
3725.431598713264
 30
0.0
 40
120.0
 41
0.0
 71
     5
 72
     1
  1
\A1;2375
  7
STYLE1
 11
0.0000000000000001
 21
1.0
 31
0.0
 73
     1
 44
1.0
1001
ACAD
1000
MTEXTBEGIN
1070
    73
1070
     1
1070
    44
1040
1.0
1070
    74
1070
     0
1000
MTEXTEND
  0
POINT
  5
17CDF
330
17B7A
100
AcDbEntity
  8
DEFPOINTS
 62
     0
 48
50.0
100
AcDbPoint
 10
10001.84983051324
 20
2537.93159871326
 30
0.0
  0
POINT
  5
17CE0
330
17B7A
100
AcDbEntity
  8
DEFPOINTS
 62
     0
 48
50.0
100
AcDbPoint
 10
9941.849830513248
 20
4912.931598713265
 30
0.0
  0
POINT
  5
17CE1
330
17B7A
100
AcDbEntity
  8
DEFPOINTS
 62
     0
 48
50.0
100
AcDbPoint
 10
8858.099701329988
 20
4912.931598713265
 30
0.0
  0
ENDBLK
  5
17B85
330
17B7A
100
AcDbEntity
  8
0
 48
50.0
100
AcDbBlockEnd
  0
BLOCK
  5
17B90
330
17B86
100
AcDbEntity
  8
0
 48
50.0
100
AcDbBlockBegin
  2
*D17
 70
     1
 10
0.0
 20
0.0
 30
0.0
  3
*D17
  1

  0
LINE
  5
17CE2
330
17B86
100
AcDbEntity
  8
寸法
 62
     0
 48
50.0
370
    -2
100
AcDbLine
 10
12231.84983051325
 20
2537.931598713262
 30
0.0
 11
12976.77698848537
 21
2537.931598713262
 31
0.0
  0
LINE
  5
17CE3
330
17B86
100
AcDbEntity
  8
寸法
 62
     0
 48
50.0
370
    -2
100
AcDbLine
 10
12311.84983051325
 20
4857.931598713261
 30
0.0
 11
12976.77698848537
 21
4857.931598713261
 31
0.0
  0
LINE
  5
17CE4
330
17B86
100
AcDbEntity
  8
寸法
 62
     0
 48
50.0
370
    -2
100
AcDbLine
 10
12916.77698848537
 20
2537.931598713262
 30
0.0
 11
12916.77698848537
 21
4857.931598713261
 31
0.0
  0
INSERT
  5
17CE5
330
17B86
100
AcDbEntity
  8
寸法
 62
     0
 48
50.0
370
    -2
100
AcDbBlockReference
  2
_DOTSMALL
 10
12916.77698848537
 20
2537.931598713262
 30
0.0
 41
100.0
 42
100.0
 43
100.0
 50
270.0
  0
INSERT
  5
17CE6
330
17B86
100
AcDbEntity
  8
寸法
 62
     0
 48
50.0
370
    -2
100
AcDbBlockReference
  2
_DOTSMALL
 10
12916.77698848537
 20
4857.931598713261
 30
0.0
 41
100.0
 42
100.0
 43
100.0
 50
90.0
  0
MTEXT
  5
17CE7
330
17B86
100
AcDbEntity
  8
寸法
 62
     7
 48
50.0
100
AcDbMText
 10
12816.76517746175
 20
3697.931598713263
 30
0.0
 40
120.0
 41
0.0
 71
     5
 72
     1
  1
\A1;2320
  7
STYLE1
 11
0.0000000000000001
 21
1.0
 31
0.0
 73
     1
 44
1.0
1001
ACAD
1000
MTEXTBEGIN
1070
    73
1070
     1
1070
    44
1040
1.0
1070
    74
1070
     0
1000
MTEXTEND
  0
POINT
  5
17CE8
330
17B86
100
AcDbEntity
  8
DEFPOINTS
 62
     0
 48
50.0
100
AcDbPoint
 10
12211.84983051325
 20
2537.931598713262
 30
0.0
  0
POINT
  5
17CE9
330
17B86
100
AcDbEntity
  8
DEFPOINTS
 62
     0
 48
50.0
100
AcDbPoint
 10
12291.84983051325
 20
4857.931598713261
 30
0.0
  0
POINT
  5
17CEA
330
17B86
100
AcDbEntity
  8
DEFPOINTS
 62
     0
 48
50.0
100
AcDbPoint
 10
12916.77698848537
 20
4857.931598713261
 30
0.0
  0
ENDBLK
  5
17B91
330
17B86
100
AcDbEntity
  8
0
 48
50.0
100
AcDbBlockEnd
  0
BLOCK
  5
17BAB
330
17B9F
100
AcDbEntity
  8
0
 48
50.0
100
AcDbBlockBegin
  2
*D18
 70
     1
 10
0.0
 20
0.0
 30
0.0
  3
*D18
  1

  0
LINE
  5
17CF5
330
17B9F
100
AcDbEntity
  8
寸法
 62
     0
 48
50.0
370
    -2
100
AcDbLine
 10
9981.849830513247
 20
2587.931598713261
 30
0.0
 11
9098.099701329987
 21
2587.931598713262
 31
0.0
  0
LINE
  5
17CF6
330
17B9F
100
AcDbEntity
  8
寸法
 62
     0
 48
50.0
370
    -2
100
AcDbLine
 10
9926.849830513248
 20
2537.931598713262
 30
0.0
 11
9098.099701329987
 21
2537.931598713262
 31
0.0
  0
LINE
  5
17CF7
330
17B9F
100
AcDbEntity
  8
寸法
 62
     0
 48
50.0
370
    -2
100
AcDbLine
 10
9158.099701329987
 20
2587.931598713262
 30
0.0
 11
9158.099701329987
 21
2687.931598713262
 31
0.0
  0
LINE
  5
17CF8
330
17B9F
100
AcDbEntity
  8
寸法
 62
     0
 48
50.0
370
    -2
100
AcDbLine
 10
9158.099701329987
 20
2537.931598713262
 30
0.0
 11
9158.099701329987
 21
2125.837110524281
 31
0.0
  0
LINE
  5
17CF9
330
17B9F
100
AcDbEntity
  8
寸法
 62
     0
 48
50.0
370
    -2
100
AcDbLine
 10
9158.099701329987
 20
2587.931598713262
 30
0.0
 11
9158.099701329987
 21
2537.931598713262
 31
0.0
  0
INSERT
  5
17CFA
330
17B9F
100
AcDbEntity
  8
寸法
 62
     0
 48
50.0
370
    -2
100
AcDbBlockReference
  2
_DOTSMALL
 10
9158.099701329987
 20
2587.931598713262
 30
0.0
 41
100.0
 42
100.0
 43
100.0
 50
270.0
  0
INSERT
  5
17CFB
330
17B9F
100
AcDbEntity
  8
寸法
 62
     0
 48
50.0
370
    -2
100
AcDbBlockReference
  2
_DOTSMALL
 10
9158.099701329987
 20
2537.931598713262
 30
0.0
 41
100.0
 42
100.0
 43
100.0
 50
90.0
  0
MTEXT
  5
17CFC
330
17B9F
100
AcDbEntity
  8
寸法
 62
     7
 48
50.0
100
AcDbMText
 10
9058.099701329988
 20
2231.884354618771
 30
0.0
 40
120.0
 41
0.0
 71
     5
 72
     1
  1
\A1;50
  7
STYLE1
 11
0.0000000000000001
 21
1.0
 31
0.0
 73
     1
 44
1.0
1001
ACAD
1000
MTEXTBEGIN
1070
    73
1070
     1
1070
    44
1040
1.0
1070
    74
1070
     0
1000
MTEXTEND
  0
POINT
  5
17CFD
330
17B9F
100
AcDbEntity
  8
DEFPOINTS
 62
     0
 48
50.0
100
AcDbPoint
 10
10001.84983051324
 20
2587.931598713261
 30
0.0
  0
POINT
  5
17CFE
330
17B9F
100
AcDbEntity
  8
DEFPOINTS
 62
     0
 48
50.0
100
AcDbPoint
 10
9946.849830513247
 20
2537.931598713262
 30
0.0
  0
POINT
  5
17CFF
330
17B9F
100
AcDbEntity
  8
DEFPOINTS
 62
     0
 48
50.0
100
AcDbPoint
 10
9158.099701329987
 20
2537.931598713262
 30
0.0
  0
ENDBLK
  5
17BAC
330
17B9F
100
AcDbEntity
  8
0
 48
50.0
100
AcDbBlockEnd
  0
BLOCK
  5
17BB7
330
17BAD
100
AcDbEntity
  8
0
 48
50.0
100
AcDbBlockBegin
  2
*D19
 70
     1
 10
0.0
 20
0.0
 30
0.0
  3
*D19
  1

  0
LINE
  5
18F57
330
17BAD
100
AcDbEntity
  8
寸法
 62
     0
 48
50.0
370
    -2
100
AcDbLine
 10
12211.84983051325
 20
4879.742278324915
 30
0.0
 11
12211.84983051325
 21
5371.589052292566
 31
0.0
  0
LINE
  5
18F58
330
17BAD
100
AcDbEntity
  8
寸法
 62
     0
 48
50.0
370
    -2
100
AcDbLine
 10
10001.84983051324
 20
4928.933216836238
 30
0.0
 11
10001.84983051324
 21
5371.589052292566
 31
0.0
  0
LINE
  5
18F59
330
17BAD
100
AcDbEntity
  8
寸法
 62
     0
 48
50.0
370
    -2
100
AcDbLine
 10
12211.84983051325
 20
5311.589052292566
 30
0.0
 11
10001.84983051324
 21
5311.589052292566
 31
0.0
  0
INSERT
  5
18F5A
330
17BAD
100
AcDbEntity
  8
寸法
 62
     0
 48
50.0
370
    -2
100
AcDbBlockReference
  2
_DOTSMALL
 10
12211.84983051325
 20
5311.589052292566
 30
0.0
 41
100.0
 42
100.0
 43
100.0
  0
INSERT
  5
18F5B
330
17BAD
100
AcDbEntity
  8
寸法
 62
     0
 48
50.0
370
    -2
100
AcDbBlockReference
  2
_DOTSMALL
 10
10001.84983051324
 20
5311.589052292566
 30
0.0
 41
100.0
 42
100.0
 43
100.0
 50
180.0
  0
MTEXT
  5
18F5C
330
17BAD
100
AcDbEntity
  8
寸法
 62
     7
 48
50.0
100
AcDbMText
 10
11106.84983051325
 20
5411.600863316188
 30
0.0
 40
120.0
 41
0.0
 71
     5
 72
     1
  1
\A1;柱外寸法2210
  7
STYLE1
 73
     1
 44
1.0
1001
ACAD
1000
MTEXTBEGIN
1070
    73
1070
     1
1070
    44
1040
1.0
1070
    74
1070
     0
1000
MTEXTEND
  0
POINT
  5
18F5D
330
17BAD
100
AcDbEntity
  8
DEFPOINTS
 62
     0
 48
50.0
100
AcDbPoint
 10
12211.84983051325
 20
4859.742278324915
 30
0.0
  0
POINT
  5
18F5E
330
17BAD
100
AcDbEntity
  8
DEFPOINTS
 62
     0
 48
50.0
100
AcDbPoint
 10
10001.84983051324
 20
4908.933216836238
 30
0.0
  0
POINT
  5
18F5F
330
17BAD
100
AcDbEntity
  8
DEFPOINTS
 62
     0
 48
50.0
100
AcDbPoint
 10
10001.84983051324
 20
5311.589052292566
 30
0.0
  0
ENDBLK
  5
17BB8
330
17BAD
100
AcDbEntity
  8
0
 48
50.0
100
AcDbBlockEnd
  0
BLOCK
  5
17BC5
330
17BB9
100
AcDbEntity
  8
0
 48
50.0
100
AcDbBlockBegin
  2
*D20
 70
     1
 10
0.0
 20
0.0
 30
0.0
  3
*D20
  1

  0
LINE
  5
17D09
330
17BB9
100
AcDbEntity
  8
寸法
 62
     0
 48
50.0
370
    -2
100
AcDbLine
 10
10001.84983051324
 20
4928.933216836238
 30
0.0
 11
10001.84983051324
 21
5371.589052292566
 31
0.0
  0
LINE
  5
17D0A
330
17BB9
100
AcDbEntity
  8
寸法
 62
     0
 48
50.0
370
    -2
100
AcDbLine
 10
9941.849830513248
 20
4932.931598713265
 30
0.0
 11
9941.849830513248
 21
5371.589052292566
 31
0.0
  0
LINE
  5
17D0B
330
17BB9
100
AcDbEntity
  8
寸法
 62
     0
 48
50.0
370
    -2
100
AcDbLine
 10
10001.84983051324
 20
5311.589052292566
 30
0.0
 11
10101.84983051324
 21
5311.589052292566
 31
0.0
  0
LINE
  5
17D0C
330
17BB9
100
AcDbEntity
  8
寸法
 62
     0
 48
50.0
370
    -2
100
AcDbLine
 10
9941.849830513248
 20
5311.589052292566
 30
0.0
 11
9522.574239962066
 21
5311.589052292566
 31
0.0
  0
LINE
  5
17D0D
330
17BB9
100
AcDbEntity
  8
寸法
 62
     0
 48
50.0
370
    -2
100
AcDbLine
 10
10001.84983051324
 20
5311.589052292566
 30
0.0
 11
9941.849830513248
 21
5311.589052292566
 31
0.0
  0
INSERT
  5
17D0E
330
17BB9
100
AcDbEntity
  8
寸法
 62
     0
 48
50.0
370
    -2
100
AcDbBlockReference
  2
_DOTSMALL
 10
10001.84983051324
 20
5311.589052292566
 30
0.0
 41
100.0
 42
100.0
 43
100.0
 50
180.0
  0
INSERT
  5
17D0F
330
17BB9
100
AcDbEntity
  8
寸法
 62
     0
 48
50.0
370
    -2
100
AcDbBlockReference
  2
_DOTSMALL
 10
9941.849830513248
 20
5311.589052292566
 30
0.0
 41
100.0
 42
100.0
 43
100.0
  0
MTEXT
  5
17D10
330
17BB9
100
AcDbEntity
  8
寸法
 62
     7
 48
50.0
100
AcDbMText
 10
9632.212035237657
 20
5411.589052292566
 30
0.0
 40
120.0
 41
0.0
 71
     5
 72
     1
  1
\A1;60
  7
STYLE1
 73
     1
 44
1.0
1001
ACAD
1000
MTEXTBEGIN
1070
    73
1070
     1
1070
    44
1040
1.0
1070
    74
1070
     0
1000
MTEXTEND
  0
POINT
  5
17D11
330
17BB9
100
AcDbEntity
  8
DEFPOINTS
 62
     0
 48
50.0
100
AcDbPoint
 10
10001.84983051324
 20
4908.933216836238
 30
0.0
  0
POINT
  5
17D12
330
17BB9
100
AcDbEntity
  8
DEFPOINTS
 62
     0
 48
50.0
100
AcDbPoint
 10
9941.849830513248
 20
4912.931598713265
 30
0.0
  0
POINT
  5
17D13
330
17BB9
100
AcDbEntity
  8
DEFPOINTS
 62
     0
 48
50.0
100
AcDbPoint
 10
9941.849830513248
 20
5311.589052292566
 30
0.0
  0
ENDBLK
  5
17BC6
330
17BB9
100
AcDbEntity
  8
0
 48
50.0
100
AcDbBlockEnd
  0
BLOCK
  5
17BD1
330
17BC7
100
AcDbEntity
  8
0
 48
50.0
100
AcDbBlockBegin
  2
*D21
 70
     1
 10
0.0
 20
0.0
 30
0.0
  3
*D21
  1

  0
LINE
  5
18F4E
330
17BC7
100
AcDbEntity
  8
寸法
 62
     0
 48
50.0
370
    -2
100
AcDbLine
 10
12291.84983051325
 20
4877.931598713261
 30
0.0
 11
12291.84983051325
 21
5590.790885966857
 31
0.0
  0
LINE
  5
18F4F
330
17BC7
100
AcDbEntity
  8
寸法
 62
     0
 48
50.0
370
    -2
100
AcDbLine
 10
9941.849830513248
 20
4932.931598713265
 30
0.0
 11
9941.849830513248
 21
5590.790885966857
 31
0.0
  0
LINE
  5
18F50
330
17BC7
100
AcDbEntity
  8
寸法
 62
     0
 48
50.0
370
    -2
100
AcDbLine
 10
12291.84983051325
 20
5530.790885966857
 30
0.0
 11
9941.849830513248
 21
5530.790885966857
 31
0.0
  0
INSERT
  5
18F51
330
17BC7
100
AcDbEntity
  8
寸法
 62
     0
 48
50.0
370
    -2
100
AcDbBlockReference
  2
_DOTSMALL
 10
12291.84983051325
 20
5530.790885966857
 30
0.0
 41
100.0
 42
100.0
 43
100.0
  0
INSERT
  5
18F52
330
17BC7
100
AcDbEntity
  8
寸法
 62
     0
 48
50.0
370
    -2
100
AcDbBlockReference
  2
_DOTSMALL
 10
9941.849830513248
 20
5530.790885966857
 30
0.0
 41
100.0
 42
100.0
 43
100.0
 50
180.0
  0
MTEXT
  5
18F53
330
17BC7
100
AcDbEntity
  8
寸法
 62
     7
 48
50.0
100
AcDbMText
 10
11116.84983051324
 20
5630.802696990478
 30
0.0
 40
120.0
 41
0.0
 71
     5
 72
     1
  1
\A1;2350
  7
STYLE1
 73
     1
 44
1.0
1001
ACAD
1000
MTEXTBEGIN
1070
    73
1070
     1
1070
    44
1040
1.0
1070
    74
1070
     0
1000
MTEXTEND
  0
POINT
  5
18F54
330
17BC7
100
AcDbEntity
  8
DEFPOINTS
 62
     0
 48
50.0
100
AcDbPoint
 10
12291.84983051325
 20
4857.931598713261
 30
0.0
  0
POINT
  5
18F55
330
17BC7
100
AcDbEntity
  8
DEFPOINTS
 62
     0
 48
50.0
100
AcDbPoint
 10
9941.849830513248
 20
4912.931598713265
 30
0.0
  0
POINT
  5
18F56
330
17BC7
100
AcDbEntity
  8
DEFPOINTS
 62
     0
 48
50.0
100
AcDbPoint
 10
9941.849830513248
 20
5530.790885966857
 30
0.0
  0
ENDBLK
  5
17BD2
330
17BC7
100
AcDbEntity
  8
0
 48
50.0
100
AcDbBlockEnd
  0
BLOCK
  5
17BDE
330
17BD3
100
AcDbEntity
  8
0
 48
50.0
100
AcDbBlockBegin
  2
*D22
 70
     1
 10
0.0
 20
0.0
 30
0.0
  3
*D22
  1

  0
LINE
  5
17D1D
330
17BD3
100
AcDbEntity
  8
寸法
 62
     0
 48
50.0
370
    -2
100
AcDbLine
 10
12211.84983051325
 20
4879.742278324915
 30
0.0
 11
12211.84983051325
 21
5371.589052292566
 31
0.0
  0
LINE
  5
17D1E
330
17BD3
100
AcDbEntity
  8
寸法
 62
     0
 48
50.0
370
    -2
100
AcDbLine
 10
12291.84983051325
 20
4877.931598713261
 30
0.0
 11
12291.84983051325
 21
5371.589052292566
 31
0.0
  0
LINE
  5
17D1F
330
17BD3
100
AcDbEntity
  8
寸法
 62
     0
 48
50.0
370
    -2
100
AcDbLine
 10
12211.84983051325
 20
5311.589052292566
 30
0.0
 11
12291.84983051325
 21
5311.589052292566
 31
0.0
  0
LINE
  5
17D20
330
17BD3
100
AcDbEntity
  8
寸法
 62
     0
 48
50.0
370
    -2
100
AcDbLine
 10
12291.84983051325
 20
5311.589052292566
 30
0.0
 11
12603.94431870222
 21
5311.589052292566
 31
0.0
  0
INSERT
  5
17D21
330
17BD3
100
AcDbEntity
  8
寸法
 62
     0
 48
50.0
370
    -2
100
AcDbBlockReference
  2
_DOTSMALL
 10
12211.84983051325
 20
5311.589052292566
 30
0.0
 41
100.0
 42
100.0
 43
100.0
 50
180.0
  0
INSERT
  5
17D22
330
17BD3
100
AcDbEntity
  8
寸法
 62
     0
 48
50.0
370
    -2
100
AcDbBlockReference
  2
_DOTSMALL
 10
12291.84983051325
 20
5311.589052292566
 30
0.0
 41
100.0
 42
100.0
 43
100.0
  0
MTEXT
  5
17D23
330
17BD3
100
AcDbEntity
  8
寸法
 62
     7
 48
50.0
100
AcDbMText
 10
12497.89707460774
 20
5411.589052292566
 30
0.0
 40
120.0
 41
0.0
 71
     5
 72
     1
  1
\A1;80
  7
STYLE1
 73
     1
 44
1.0
1001
ACAD
1000
MTEXTBEGIN
1070
    73
1070
     1
1070
    44
1040
1.0
1070
    74
1070
     0
1000
MTEXTEND
  0
POINT
  5
17D24
330
17BD3
100
AcDbEntity
  8
DEFPOINTS
 62
     0
 48
50.0
100
AcDbPoint
 10
12211.84983051325
 20
4859.742278324915
 30
0.0
  0
POINT
  5
17D25
330
17BD3
100
AcDbEntity
  8
DEFPOINTS
 62
     0
 48
50.0
100
AcDbPoint
 10
12291.84983051325
 20
4857.931598713261
 30
0.0
  0
POINT
  5
17D26
330
17BD3
100
AcDbEntity
  8
DEFPOINTS
 62
     0
 48
50.0
100
AcDbPoint
 10
12291.84983051325
 20
5311.589052292566
 30
0.0
  0
ENDBLK
  5
17BDF
330
17BD3
100
AcDbEntity
  8
0
 48
50.0
100
AcDbBlockEnd
  0
BLOCK
  5
17BEB
330
17BE0
100
AcDbEntity
  8
0
 48
50.0
100
AcDbBlockBegin
  2
*D23
 70
     1
 10
0.0
 20
0.0
 30
0.0
  3
*D23
  1

  0
LINE
  5
17D27
330
17BE0
100
AcDbEntity
  8
寸法
 62
     0
 48
50.0
370
    -2
100
AcDbLine
 10
9941.25411680435
 20
4912.229305782924
 30
0.0
 11
9325.319677699075
 21
4929.943456057253
 31
0.0
  0
LINE
  5
17D28
330
17BE0
100
AcDbEntity
  8
寸法
 62
     0
 48
50.0
370
    -2
100
AcDbLine
 10
9937.200661247723
 20
4771.28758201721
 30
0.0
 11
9321.266222142449
 21
4789.001732291541
 31
0.0
  0
LINE
  5
17D29
330
17BE0
100
AcDbEntity
  8
寸法
 62
     0
 48
50.0
370
    -2
100
AcDbLine
 10
9381.24142374488
 20
4787.276857586593
 30
0.0
 11
9385.294879301508
 21
4928.218581352306
 31
0.0
  0
LINE
  5
17D2A
330
17BE0
100
AcDbEntity
  8
寸法
 62
     0
 48
50.0
370
    -2
100
AcDbLine
 10
9385.294879301508
 20
4928.218581352306
 30
0.0
 11
9395.644127531191
 21
5288.069790966893
 31
0.0
  0
INSERT
  5
17D2B
330
17BE0
100
AcDbEntity
  8
寸法
 62
     0
 48
50.0
370
    -2
100
AcDbBlockReference
  2
_DOTSMALL
 10
9381.24142374488
 20
4787.276857586593
 30
0.0
 41
100.0
 42
100.0
 43
100.0
 50
268.3526390256378
  0
INSERT
  5
17D2C
330
17BE0
100
AcDbEntity
  8
寸法
 62
     0
 48
50.0
370
    -2
100
AcDbBlockReference
  2
_DOTSMALL
 10
9385.294879301508
 20
4928.218581352306
 30
0.0
 41
100.0
 42
100.0
 43
100.0
 50
88.35263902563776
  0
MTEXT
  5
17D2D
330
17BE0
100
AcDbEntity
  8
寸法
 62
     7
 48
50.0
100
AcDbMText
 10
9291.94822966642
 20
5160.998312003204
 30
0.0
 40
120.0
 41
0.0
 71
     5
 72
     1
  1
\A1;141
  7
STYLE1
 11
0.0287479117491237
 21
0.9995866933738488
 31
0.0
 73
     1
 44
1.0
1001
ACAD
1000
MTEXTBEGIN
1070
    73
1070
     1
1070
    44
1040
1.0
1070
    74
1070
     0
1000
MTEXTEND
  0
POINT
  5
17D2E
330
17BE0
100
AcDbEntity
  8
DEFPOINTS
 62
     0
 48
50.0
100
AcDbPoint
 10
9961.245850671826
 20
4911.654347547941
 30
0.0
  0
POINT
  5
17D2F
330
17BE0
100
AcDbEntity
  8
DEFPOINTS
 62
     0
 48
50.0
100
AcDbPoint
 10
9957.1923951152
 20
4770.712623782228
 30
0.0
  0
POINT
  5
17D30
330
17BE0
100
AcDbEntity
  8
DEFPOINTS
 62
     0
 48
50.0
100
AcDbPoint
 10
9381.24142374488
 20
4787.276857586593
 30
0.0
  0
ENDBLK
  5
17BEC
330
17BE0
100
AcDbEntity
  8
0
 48
50.0
100
AcDbBlockEnd
  0
BLOCK
  5
17D83
330
17D79
100
AcDbEntity
  8
0
 48
50.0
100
AcDbBlockBegin
  2
*D24
 70
     1
 10
0.0
 20
0.0
 30
0.0
  3
*D24
  1

  0
LINE
  5
18F3C
330
17D79
100
AcDbEntity
  8
寸法
 62
     0
 48
50.0
370
    -2
100
AcDbLine
 10
4694.673057123658
 20
4932.931598713266
 30
0.0
 11
4694.673057123658
 21
5400.868615453759
 31
0.0
  0
LINE
  5
18F3D
330
17D79
100
AcDbEntity
  8
寸法
 62
     0
 48
50.0
370
    -2
100
AcDbLine
 10
7424.673057123658
 20
4932.931598713264
 30
0.0
 11
7424.673057123658
 21
5400.868615453759
 31
0.0
  0
LINE
  5
18F3E
330
17D79
100
AcDbEntity
  8
寸法
 62
     0
 48
50.0
370
    -2
100
AcDbLine
 10
4694.673057123658
 20
5340.86861545376
 30
0.0
 11
7424.673057123658
 21
5340.86861545376
 31
0.0
  0
INSERT
  5
18F3F
330
17D79
100
AcDbEntity
  8
寸法
 62
     0
 48
50.0
370
    -2
100
AcDbBlockReference
  2
_DOTSMALL
 10
4694.673057123658
 20
5340.86861545376
 30
0.0
 41
100.0
 42
100.0
 43
100.0
 50
180.0
  0
INSERT
  5
18F40
330
17D79
100
AcDbEntity
  8
寸法
 62
     0
 48
50.0
370
    -2
100
AcDbBlockReference
  2
_DOTSMALL
 10
7424.673057123658
 20
5340.86861545376
 30
0.0
 41
100.0
 42
100.0
 43
100.0
  0
MTEXT
  5
18F41
330
17D79
100
AcDbEntity
  8
寸法
 62
     7
 48
50.0
100
AcDbMText
 10
6059.673057123658
 20
5440.880426477382
 30
0.0
 40
120.0
 41
0.0
 71
     5
 72
     1
  1
\A1;2730
  7
STYLE1
 73
     1
 44
1.0
1001
ACAD
1000
MTEXTBEGIN
1070
    73
1070
     1
1070
    44
1040
1.0
1070
    74
1070
     0
1000
MTEXTEND
  0
POINT
  5
18F42
330
17D79
100
AcDbEntity
  8
DEFPOINTS
 62
     0
 48
50.0
100
AcDbPoint
 10
4694.673057123658
 20
4912.931598713266
 30
0.0
  0
POINT
  5
18F43
330
17D79
100
AcDbEntity
  8
DEFPOINTS
 62
     0
 48
50.0
100
AcDbPoint
 10
7424.673057123658
 20
4912.931598713264
 30
0.0
  0
POINT
  5
18F44
330
17D79
100
AcDbEntity
  8
DEFPOINTS
 62
     0
 48
50.0
100
AcDbPoint
 10
7424.673057123658
 20
5340.86861545376
 30
0.0
  0
ENDBLK
  5
17D84
330
17D79
100
AcDbEntity
  8
0
 48
50.0
100
AcDbBlockEnd
  0
BLOCK
  5
17D91
330
17D85
100
AcDbEntity
  8
0
 48
50.0
100
AcDbBlockBegin
  2
*D25
 70
     1
 10
0.0
 20
0.0
 30
0.0
  3
*D25
  1

  0
LINE
  5
17DB6
330
17D85
100
AcDbEntity
  8
寸法
 62
     0
 48
50.0
370
    -2
100
AcDbLine
 10
7424.673057123658
 20
4932.931598713264
 30
0.0
 11
7424.673057123658
 21
5185.473183971505
 31
0.0
  0
LINE
  5
17DB7
330
17D85
100
AcDbEntity
  8
寸法
 62
     0
 48
50.0
370
    -2
100
AcDbLine
 10
7374.673057123658
 20
4932.931598713266
 30
0.0
 11
7374.673057123658
 21
5185.473183971505
 31
0.0
  0
LINE
  5
17DB8
330
17D85
100
AcDbEntity
  8
寸法
 62
     0
 48
50.0
370
    -2
100
AcDbLine
 10
7374.673057123658
 20
5125.473183971505
 30
0.0
 11
7274.673057123658
 21
5125.473183971505
 31
0.0
  0
LINE
  5
17DB9
330
17D85
100
AcDbEntity
  8
寸法
 62
     0
 48
50.0
370
    -2
100
AcDbLine
 10
7424.673057123658
 20
5125.473183971505
 30
0.0
 11
7844.205582592383
 21
5125.473183971505
 31
0.0
  0
LINE
  5
17DBA
330
17D85
100
AcDbEntity
  8
寸法
 62
     0
 48
50.0
370
    -2
100
AcDbLine
 10
7374.673057123658
 20
5125.473183971505
 30
0.0
 11
7424.673057123658
 21
5125.473183971505
 31
0.0
  0
INSERT
  5
17DBB
330
17D85
100
AcDbEntity
  8
寸法
 62
     0
 48
50.0
370
    -2
100
AcDbBlockReference
  2
_DOTSMALL
 10
7374.673057123658
 20
5125.473183971505
 30
0.0
 41
100.0
 42
100.0
 43
100.0
  0
INSERT
  5
17DBC
330
17D85
100
AcDbEntity
  8
寸法
 62
     0
 48
50.0
370
    -2
100
AcDbBlockReference
  2
_DOTSMALL
 10
7424.673057123658
 20
5125.473183971505
 30
0.0
 41
100.0
 42
100.0
 43
100.0
 50
180.0
  0
MTEXT
  5
17DBD
330
17D85
100
AcDbEntity
  8
寸法
 62
     7
 48
50.0
100
AcDbMText
 10
7738.158338497895
 20
5225.473183971505
 30
0.0
 40
120.0
 41
0.0
 71
     5
 72
     1
  1
\A1;50
  7
STYLE1
 73
     1
 44
1.0
1001
ACAD
1000
MTEXTBEGIN
1070
    73
1070
     1
1070
    44
1040
1.0
1070
    74
1070
     0
1000
MTEXTEND
  0
POINT
  5
17DBE
330
17D85
100
AcDbEntity
  8
DEFPOINTS
 62
     0
 48
50.0
100
AcDbPoint
 10
7424.673057123658
 20
4912.931598713264
 30
0.0
  0
POINT
  5
17DBF
330
17D85
100
AcDbEntity
  8
DEFPOINTS
 62
     0
 48
50.0
100
AcDbPoint
 10
7374.673057123658
 20
4912.931598713266
 30
0.0
  0
POINT
  5
17DC0
330
17D85
100
AcDbEntity
  8
DEFPOINTS
 62
     0
 48
50.0
100
AcDbPoint
 10
7374.673057123658
 20
5125.473183971505
 30
0.0
  0
ENDBLK
  5
17D92
330
17D85
100
AcDbEntity
  8
0
 48
50.0
100
AcDbBlockEnd
  0
BLOCK
  5
17D9F
330
17D93
100
AcDbEntity
  8
0
 48
50.0
100
AcDbBlockBegin
  2
*D26
 70
     1
 10
0.0
 20
0.0
 30
0.0
  3
*D26
  1

  0
LINE
  5
17DC1
330
17D93
100
AcDbEntity
  8
寸法
 62
     0
 48
50.0
370
    -2
100
AcDbLine
 10
4744.673057123658
 20
4932.931598713268
 30
0.0
 11
4744.673057123658
 21
5185.473183971505
 31
0.0
  0
LINE
  5
17DC2
330
17D93
100
AcDbEntity
  8
寸法
 62
     0
 48
50.0
370
    -2
100
AcDbLine
 10
4694.673057123658
 20
4932.931598713266
 30
0.0
 11
4694.673057123658
 21
5185.473183971505
 31
0.0
  0
LINE
  5
17DC3
330
17D93
100
AcDbEntity
  8
寸法
 62
     0
 48
50.0
370
    -2
100
AcDbLine
 10
4744.673057123658
 20
5125.473183971505
 30
0.0
 11
4844.673057123658
 21
5125.473183971505
 31
0.0
  0
LINE
  5
17DC4
330
17D93
100
AcDbEntity
  8
寸法
 62
     0
 48
50.0
370
    -2
100
AcDbLine
 10
4694.673057123658
 20
5125.473183971505
 30
0.0
 11
4275.140531654924
 21
5125.473183971505
 31
0.0
  0
LINE
  5
17DC5
330
17D93
100
AcDbEntity
  8
寸法
 62
     0
 48
50.0
370
    -2
100
AcDbLine
 10
4744.673057123658
 20
5125.473183971505
 30
0.0
 11
4694.673057123658
 21
5125.473183971505
 31
0.0
  0
INSERT
  5
17DC6
330
17D93
100
AcDbEntity
  8
寸法
 62
     0
 48
50.0
370
    -2
100
AcDbBlockReference
  2
_DOTSMALL
 10
4744.673057123658
 20
5125.473183971505
 30
0.0
 41
100.0
 42
100.0
 43
100.0
 50
180.0
  0
INSERT
  5
17DC7
330
17D93
100
AcDbEntity
  8
寸法
 62
     0
 48
50.0
370
    -2
100
AcDbBlockReference
  2
_DOTSMALL
 10
4694.673057123658
 20
5125.473183971505
 30
0.0
 41
100.0
 42
100.0
 43
100.0
  0
MTEXT
  5
17DC8
330
17D93
100
AcDbEntity
  8
寸法
 62
     7
 48
50.0
100
AcDbMText
 10
4381.187775749411
 20
5225.473183971505
 30
0.0
 40
120.0
 41
0.0
 71
     5
 72
     1
  1
\A1;50
  7
STYLE1
 73
     1
 44
1.0
1001
ACAD
1000
MTEXTBEGIN
1070
    73
1070
     1
1070
    44
1040
1.0
1070
    74
1070
     0
1000
MTEXTEND
  0
POINT
  5
17DC9
330
17D93
100
AcDbEntity
  8
DEFPOINTS
 62
     0
 48
50.0
100
AcDbPoint
 10
4744.673057123658
 20
4912.931598713267
 30
0.0
  0
POINT
  5
17DCA
330
17D93
100
AcDbEntity
  8
DEFPOINTS
 62
     0
 48
50.0
100
AcDbPoint
 10
4694.673057123658
 20
4912.931598713266
 30
0.0
  0
POINT
  5
17DCB
330
17D93
100
AcDbEntity
  8
DEFPOINTS
 62
     0
 48
50.0
100
AcDbPoint
 10
4694.673057123658
 20
5125.473183971505
 30
0.0
  0
ENDBLK
  5
17DA0
330
17D93
100
AcDbEntity
  8
0
 48
50.0
100
AcDbBlockEnd
  0
BLOCK
  5
17DAB
330
17DA1
100
AcDbEntity
  8
0
 48
50.0
100
AcDbBlockBegin
  2
*D27
 70
     1
 10
0.0
 20
0.0
 30
0.0
  3
*D27
  1

  0
LINE
  5
18F45
330
17DA1
100
AcDbEntity
  8
寸法
 62
     0
 48
50.0
370
    -2
100
AcDbLine
 10
7374.673057123658
 20
4932.931598713266
 30
0.0
 11
7374.673057123658
 21
5185.473183971505
 31
0.0
  0
LINE
  5
18F46
330
17DA1
100
AcDbEntity
  8
寸法
 62
     0
 48
50.0
370
    -2
100
AcDbLine
 10
4744.673057123658
 20
4932.931598713268
 30
0.0
 11
4744.673057123658
 21
5185.473183971505
 31
0.0
  0
LINE
  5
18F47
330
17DA1
100
AcDbEntity
  8
寸法
 62
     0
 48
50.0
370
    -2
100
AcDbLine
 10
7374.673057123658
 20
5125.473183971505
 30
0.0
 11
4744.673057123658
 21
5125.473183971505
 31
0.0
  0
INSERT
  5
18F48
330
17DA1
100
AcDbEntity
  8
寸法
 62
     0
 48
50.0
370
    -2
100
AcDbBlockReference
  2
_DOTSMALL
 10
7374.673057123658
 20
5125.473183971505
 30
0.0
 41
100.0
 42
100.0
 43
100.0
  0
INSERT
  5
18F49
330
17DA1
100
AcDbEntity
  8
寸法
 62
     0
 48
50.0
370
    -2
100
AcDbBlockReference
  2
_DOTSMALL
 10
4744.673057123658
 20
5125.473183971505
 30
0.0
 41
100.0
 42
100.0
 43
100.0
 50
180.0
  0
MTEXT
  5
18F4A
330
17DA1
100
AcDbEntity
  8
寸法
 62
     7
 48
50.0
100
AcDbMText
 10
6059.673057123658
 20
5225.484994995127
 30
0.0
 40
120.0
 41
0.0
 71
     5
 72
     1
  1
\A1;柱外寸法2630
  7
STYLE1
 73
     1
 44
1.0
1001
ACAD
1000
MTEXTBEGIN
1070
    73
1070
     1
1070
    44
1040
1.0
1070
    74
1070
     0
1000
MTEXTEND
  0
POINT
  5
18F4B
330
17DA1
100
AcDbEntity
  8
DEFPOINTS
 62
     0
 48
50.0
100
AcDbPoint
 10
7374.673057123658
 20
4912.931598713266
 30
0.0
  0
POINT
  5
18F4C
330
17DA1
100
AcDbEntity
  8
DEFPOINTS
 62
     0
 48
50.0
100
AcDbPoint
 10
4744.673057123658
 20
4912.931598713267
 30
0.0
  0
POINT
  5
18F4D
330
17DA1
100
AcDbEntity
  8
DEFPOINTS
 62
     0
 48
50.0
100
AcDbPoint
 10
4744.673057123658
 20
5125.473183971505
 30
0.0
  0
ENDBLK
  5
17DAC
330
17DA1
100
AcDbEntity
  8
0
 48
50.0
100
AcDbBlockEnd
  0
BLOCK
  5
1896C
330
18961
100
AcDbEntity
  8
0
 48
50.0
100
AcDbBlockBegin
  2
*D28
 70
     1
 10
0.0
 20
0.0
 30
0.0
  3
*D28
  1

  0
LINE
  5
18F99
330
18961
100
AcDbEntity
  8
寸法
 62
     0
 48
50.0
370
    -2
100
AcDbLine
 10
7394.673057123657
 20
4512.931598713262
 30
0.0
 11
7722.216159445403
 21
4512.931598713262
 31
0.0
  0
LINE
  5
18F9A
330
18961
100
AcDbEntity
  8
寸法
 62
     0
 48
50.0
370
    -2
100
AcDbLine
 10
7394.673057123657
 20
4677.931598713261
 30
0.0
 11
7722.216159445403
 21
4677.931598713261
 31
0.0
  0
LINE
  5
18F9B
330
18961
100
AcDbEntity
  8
寸法
 62
     0
 48
50.0
370
    -2
100
AcDbLine
 10
7662.216159445404
 20
4512.931598713262
 30
0.0
 11
7662.216159445404
 21
4677.931598713261
 31
0.0
  0
LINE
  5
18F9C
330
18961
100
AcDbEntity
  8
寸法
 62
     0
 48
50.0
370
    -2
100
AcDbLine
 10
7662.216159445404
 20
4677.931598713261
 30
0.0
 11
7662.216159445404
 21
5054.90216146174
 31
0.0
  0
INSERT
  5
18F9D
330
18961
100
AcDbEntity
  8
寸法
 62
     0
 48
50.0
370
    -2
100
AcDbBlockReference
  2
_DOTSMALL
 10
7662.216159445404
 20
4512.931598713262
 30
0.0
 41
100.0
 42
100.0
 43
100.0
 50
270.0
  0
INSERT
  5
18F9E
330
18961
100
AcDbEntity
  8
寸法
 62
     0
 48
50.0
370
    -2
100
AcDbBlockReference
  2
_DOTSMALL
 10
7662.216159445404
 20
4677.931598713261
 30
0.0
 41
100.0
 42
100.0
 43
100.0
 50
90.0
  0
MTEXT
  5
18F9F
330
18961
100
AcDbEntity
  8
寸法
 62
     7
 48
50.0
100
AcDbMText
 10
7562.216159445402
 20
4916.416880087502
 30
0.0
 40
120.0
 41
0.0
 71
     5
 72
     1
  1
\A1;165
  7
STYLE1
 11
0.0000000000000001
 21
1.0
 31
0.0
 73
     1
 44
1.0
1001
ACAD
1000
MTEXTBEGIN
1070
    73
1070
     1
1070
    44
1040
1.0
1070
    74
1070
     0
1000
MTEXTEND
  0
POINT
  5
18FA0
330
18961
100
AcDbEntity
  8
DEFPOINTS
 62
     0
 48
50.0
100
AcDbPoint
 10
7374.673057123658
 20
4512.931598713262
 30
0.0
  0
POINT
  5
18FA1
330
18961
100
AcDbEntity
  8
DEFPOINTS
 62
     0
 48
50.0
100
AcDbPoint
 10
7374.673057123657
 20
4677.931598713261
 30
0.0
  0
POINT
  5
18FA2
330
18961
100
AcDbEntity
  8
DEFPOINTS
 62
     0
 48
50.0
100
AcDbPoint
 10
7662.216159445404
 20
4677.931598713261
 30
0.0
  0
ENDBLK
  5
1896D
330
18961
100
AcDbEntity
  8
0
 48
50.0
100
AcDbBlockEnd
  0
BLOCK
  5
1897A
330
1896E
100
AcDbEntity
  8
0
 48
50.0
100
AcDbBlockBegin
  2
*D29
 70
     1
 10
0.0
 20
0.0
 30
0.0
  3
*D29
  1

  0
LINE
  5
18F8E
330
1896E
100
AcDbEntity
  8
寸法
 62
     0
 48
50.0
370
    -2
100
AcDbLine
 10
7394.673057123657
 20
4485.93159871326
 30
0.0
 11
7722.216159445403
 21
4485.93159871326
 31
0.0
  0
LINE
  5
18F8F
330
1896E
100
AcDbEntity
  8
寸法
 62
     0
 48
50.0
370
    -2
100
AcDbLine
 10
7394.673057123657
 20
4512.931598713262
 30
0.0
 11
7722.216159445403
 21
4512.931598713262
 31
0.0
  0
LINE
  5
18F90
330
1896E
100
AcDbEntity
  8
寸法
 62
     0
 48
50.0
370
    -2
100
AcDbLine
 10
7662.216159445403
 20
4485.93159871326
 30
0.0
 11
7662.216159445403
 21
4385.93159871326
 31
0.0
  0
LINE
  5
18F91
330
1896E
100
AcDbEntity
  8
寸法
 62
     0
 48
50.0
370
    -2
100
AcDbLine
 10
7662.216159445403
 20
4512.931598713262
 30
0.0
 11
7662.216159445403
 21
4612.931598713262
 31
0.0
  0
MTEXT
  5
18F92
330
1896E
100
AcDbEntity
  8
寸法
 62
     7
 48
50.0
100
AcDbMText
 10
7802.385982691768
 20
4513.89879855292
 30
0.0
 40
120.0
 41
0.0
 71
     5
 72
     1
  1
\A1;27
  7
STYLE1
 11
0.0000000000000001
 21
1.0
 31
0.0
 73
     1
 44
1.0
1001
ACAD
1000
MTEXTBEGIN
1070
    73
1070
     1
1070
    44
1040
1.0
1070
    74
1070
     0
1000
MTEXTEND
  0
LINE
  5
18F93
330
1896E
100
AcDbEntity
  8
寸法
 62
     0
 48
50.0
370
    -2
100
AcDbLine
 10
7662.216159445403
 20
4485.93159871326
 30
0.0
 11
7662.216159445403
 21
4512.931598713262
 31
0.0
  0
INSERT
  5
18F94
330
1896E
100
AcDbEntity
  8
寸法
 62
     0
 48
50.0
370
    -2
100
AcDbBlockReference
  2
_DOTSMALL
 10
7662.216159445403
 20
4485.93159871326
 30
0.0
 41
100.0
 42
100.0
 43
100.0
 50
90.0
  0
INSERT
  5
18F95
330
1896E
100
AcDbEntity
  8
寸法
 62
     0
 48
50.0
370
    -2
100
AcDbBlockReference
  2
_DOTSMALL
 10
7662.216159445403
 20
4512.931598713262
 30
0.0
 41
100.0
 42
100.0
 43
100.0
 50
270.0
  0
POINT
  5
18F96
330
1896E
100
AcDbEntity
  8
DEFPOINTS
 62
     0
 48
50.0
100
AcDbPoint
 10
7374.673057123658
 20
4485.93159871326
 30
0.0
  0
POINT
  5
18F97
330
1896E
100
AcDbEntity
  8
DEFPOINTS
 62
     0
 48
50.0
100
AcDbPoint
 10
7374.673057123658
 20
4512.931598713262
 30
0.0
  0
POINT
  5
18F98
330
1896E
100
AcDbEntity
  8
DEFPOINTS
 62
     0
 48
50.0
100
AcDbPoint
 10
7662.216159445403
 20
4512.931598713262
 30
0.0
  0
ENDBLK
  5
1897B
330
1896E
100
AcDbEntity
  8
0
 48
50.0
100
AcDbBlockEnd
  0
BLOCK
  5
18986
330
1897C
100
AcDbEntity
  8
0
 48
50.0
100
AcDbBlockBegin
  2
*D30
 70
     1
 10
0.0
 20
0.0
 30
0.0
  3
*D30
  1

  0
LINE
  5
189E3
330
1897C
100
AcDbEntity
  8
寸法
 62
     0
 48
50.0
370
    -2
100
AcDbLine
 10
7394.673057123657
 20
2537.931598713262
 30
0.0
 11
7722.216159445403
 21
2537.931598713262
 31
0.0
  0
LINE
  5
189E4
330
1897C
100
AcDbEntity
  8
寸法
 62
     0
 48
50.0
370
    -2
100
AcDbLine
 10
7394.673057123657
 20
4485.93159871326
 30
0.0
 11
7722.216159445403
 21
4485.93159871326
 31
0.0
  0
LINE
  5
189E5
330
1897C
100
AcDbEntity
  8
寸法
 62
     0
 48
50.0
370
    -2
100
AcDbLine
 10
7662.216159445403
 20
2537.931598713262
 30
0.0
 11
7662.216159445403
 21
4485.93159871326
 31
0.0
  0
INSERT
  5
189E6
330
1897C
100
AcDbEntity
  8
寸法
 62
     0
 48
50.0
370
    -2
100
AcDbBlockReference
  2
_DOTSMALL
 10
7662.216159445403
 20
2537.931598713262
 30
0.0
 41
100.0
 42
100.0
 43
100.0
 50
270.0
  0
INSERT
  5
189E7
330
1897C
100
AcDbEntity
  8
寸法
 62
     0
 48
50.0
370
    -2
100
AcDbBlockReference
  2
_DOTSMALL
 10
7662.216159445403
 20
4485.93159871326
 30
0.0
 41
100.0
 42
100.0
 43
100.0
 50
90.0
  0
MTEXT
  5
189E8
330
1897C
100
AcDbEntity
  8
寸法
 62
     7
 48
50.0
100
AcDbMText
 10
7562.216159445402
 20
3511.931598713263
 30
0.0
 40
120.0
 41
0.0
 71
     5
 72
     1
  1
\A1;有効開口部高サ 1948
  7
STYLE1
 11
0.0000000000000001
 21
1.0
 31
0.0
 73
     1
 44
1.0
1001
ACAD
1000
MTEXTBEGIN
1070
    73
1070
     1
1070
    44
1040
1.0
1070
    74
1070
     0
1000
MTEXTEND
  0
POINT
  5
189E9
330
1897C
100
AcDbEntity
  8
DEFPOINTS
 62
     0
 48
50.0
100
AcDbPoint
 10
7374.673057123657
 20
2537.931598713262
 30
0.0
  0
POINT
  5
189EA
330
1897C
100
AcDbEntity
  8
DEFPOINTS
 62
     0
 48
50.0
100
AcDbPoint
 10
7374.673057123658
 20
4485.93159871326
 30
0.0
  0
POINT
  5
189EB
330
1897C
100
AcDbEntity
  8
DEFPOINTS
 62
     0
 48
50.0
100
AcDbPoint
 10
7662.216159445403
 20
4485.93159871326
 30
0.0
  0
ENDBLK
  5
18987
330
1897C
100
AcDbEntity
  8
0
 48
50.0
100
AcDbBlockEnd
  0
BLOCK
  5
18D52
330
18D51
100
AcDbEntity
  8
0
 48
50.0
100
AcDbBlockBegin
  2
*D31
 70
     1
 10
0.0
 20
0.0
 30
0.0
  3
*D31
  1

  0
LINE
  5
18D53
330
18D51
100
AcDbEntity
  8
寸法
 62
     0
 48
50.0
370
    -2
100
AcDbLine
 10
3379.673057123646
 20
4913.264454520763
 30
0.0
 11
3379.673057123646
 21
5568.883723478677
 31
0.0
  0
LINE
  5
18D54
330
18D51
100
AcDbEntity
  8
寸法
 62
     0
 48
50.0
370
    -2
100
AcDbLine
 10
8739.673057123644
 20
4913.264454520761
 30
0.0
 11
8739.673057123644
 21
5568.883723478677
 31
0.0
  0
LINE
  5
18D55
330
18D51
100
AcDbEntity
  8
寸法
 62
     0
 48
50.0
370
    -2
100
AcDbLine
 10
3379.673057123646
 20
5508.883723478677
 30
0.0
 11
8739.673057123644
 21
5508.883723478677
 31
0.0
  0
INSERT
  5
18D56
330
18D51
100
AcDbEntity
  8
寸法
 62
     0
 48
50.0
370
    -2
100
AcDbBlockReference
  2
_DOTSMALL
 10
3379.673057123646
 20
5508.883723478677
 30
0.0
 41
100.0
 42
100.0
 43
100.0
 50
180.0
  0
INSERT
  5
18D57
330
18D51
100
AcDbEntity
  8
寸法
 62
     0
 48
50.0
370
    -2
100
AcDbBlockReference
  2
_DOTSMALL
 10
8739.673057123644
 20
5508.883723478677
 30
0.0
 41
100.0
 42
100.0
 43
100.0
  0
MTEXT
  5
18D58
330
18D51
100
AcDbEntity
  8
寸法
 62
     7
 48
50.0
100
AcDbMText
 10
6059.673057123642
 20
5608.883723478677
 30
0.0
 40
120.0
 41
0.0
 71
     5
 72
     1
  1
\A1;5360
  7
STYLE1
 73
     1
 44
1.0
1001
ACAD
1000
MTEXTBEGIN
1070
    73
1070
     1
1070
    44
1040
1.0
1070
    74
1070
     0
1000
MTEXTEND
  0
POINT
  5
18D59
330
18D51
100
AcDbEntity
  8
DEFPOINTS
 62
     0
 48
50.0
100
AcDbPoint
 10
3379.673057123646
 20
4893.264454520763
 30
0.0
  0
POINT
  5
18D5A
330
18D51
100
AcDbEntity
  8
DEFPOINTS
 62
     0
 48
50.0
100
AcDbPoint
 10
8739.673057123644
 20
4893.264454520761
 30
0.0
  0
POINT
  5
18D5B
330
18D51
100
AcDbEntity
  8
DEFPOINTS
 62
     0
 48
50.0
100
AcDbPoint
 10
8739.673057123644
 20
5508.883723478677
 30
0.0
  0
ENDBLK
  5
18D5C
330
18D51
100
AcDbEntity
  8
0
 48
50.0
100
AcDbBlockEnd
  0
BLOCK
  5
18D5E
330
18D5D
100
AcDbEntity
  8
0
 48
50.0
100
AcDbBlockBegin
  2
*D32
 70
     1
 10
0.0
 20
0.0
 30
0.0
  3
*D32
  1

  0
LINE
  5
18D5F
330
18D5D
100
AcDbEntity
  8
寸法
 62
     0
 48
50.0
370
    -2
100
AcDbLine
 10
8739.673057123644
 20
4913.264454520761
 30
0.0
 11
8739.673057123644
 21
5352.357623860232
 31
0.0
  0
LINE
  5
18D60
330
18D5D
100
AcDbEntity
  8
寸法
 62
     0
 48
50.0
370
    -2
100
AcDbLine
 10
8689.673057123645
 20
4913.264454520763
 30
0.0
 11
8689.673057123645
 21
5352.357623860232
 31
0.0
  0
LINE
  5
18D61
330
18D5D
100
AcDbEntity
  8
寸法
 62
     0
 48
50.0
370
    -2
100
AcDbLine
 10
8689.673057123645
 20
5292.357623860232
 30
0.0
 11
8589.673057123645
 21
5292.357623860232
 31
0.0
  0
LINE
  5
18D62
330
18D5D
100
AcDbEntity
  8
寸法
 62
     0
 48
50.0
370
    -2
100
AcDbLine
 10
8739.673057123644
 20
5292.357623860232
 30
0.0
 11
9159.205582592369
 21
5292.357623860232
 31
0.0
  0
LINE
  5
18D63
330
18D5D
100
AcDbEntity
  8
寸法
 62
     0
 48
50.0
370
    -2
100
AcDbLine
 10
8689.673057123645
 20
5292.357623860232
 30
0.0
 11
8739.673057123644
 21
5292.357623860232
 31
0.0
  0
INSERT
  5
18D64
330
18D5D
100
AcDbEntity
  8
寸法
 62
     0
 48
50.0
370
    -2
100
AcDbBlockReference
  2
_DOTSMALL
 10
8689.673057123645
 20
5292.357623860232
 30
0.0
 41
100.0
 42
100.0
 43
100.0
  0
INSERT
  5
18D65
330
18D5D
100
AcDbEntity
  8
寸法
 62
     0
 48
50.0
370
    -2
100
AcDbBlockReference
  2
_DOTSMALL
 10
8739.673057123644
 20
5292.357623860232
 30
0.0
 41
100.0
 42
100.0
 43
100.0
 50
180.0
  0
MTEXT
  5
18D66
330
18D5D
100
AcDbEntity
  8
寸法
 62
     7
 48
50.0
100
AcDbMText
 10
9053.15833849788
 20
5392.357623860232
 30
0.0
 40
120.0
 41
0.0
 71
     5
 72
     1
  1
\A1;50
  7
STYLE1
 73
     1
 44
1.0
1001
ACAD
1000
MTEXTBEGIN
1070
    73
1070
     1
1070
    44
1040
1.0
1070
    74
1070
     0
1000
MTEXTEND
  0
POINT
  5
18D67
330
18D5D
100
AcDbEntity
  8
DEFPOINTS
 62
     0
 48
50.0
100
AcDbPoint
 10
8739.673057123644
 20
4893.264454520761
 30
0.0
  0
POINT
  5
18D68
330
18D5D
100
AcDbEntity
  8
DEFPOINTS
 62
     0
 48
50.0
100
AcDbPoint
 10
8689.673057123645
 20
4893.264454520763
 30
0.0
  0
POINT
  5
18D69
330
18D5D
100
AcDbEntity
  8
DEFPOINTS
 62
     0
 48
50.0
100
AcDbPoint
 10
8689.673057123645
 20
5292.357623860232
 30
0.0
  0
ENDBLK
  5
18D6A
330
18D5D
100
AcDbEntity
  8
0
 48
50.0
100
AcDbBlockEnd
  0
BLOCK
  5
18D6C
330
18D6B
100
AcDbEntity
  8
0
 48
50.0
100
AcDbBlockBegin
  2
*D33
 70
     1
 10
0.0
 20
0.0
 30
0.0
  3
*D33
  1

  0
LINE
  5
18D6D
330
18D6B
100
AcDbEntity
  8
寸法
 62
     0
 48
50.0
370
    -2
100
AcDbLine
 10
8689.673057123645
 20
4913.264454520763
 30
0.0
 11
8689.673057123645
 21
5352.357623860232
 31
0.0
  0
LINE
  5
18D6E
330
18D6B
100
AcDbEntity
  8
寸法
 62
     0
 48
50.0
370
    -2
100
AcDbLine
 10
3429.673057123646
 20
4913.264454520765
 30
0.0
 11
3429.673057123646
 21
5352.357623860232
 31
0.0
  0
LINE
  5
18D6F
330
18D6B
100
AcDbEntity
  8
寸法
 62
     0
 48
50.0
370
    -2
100
AcDbLine
 10
8689.673057123645
 20
5292.357623860232
 30
0.0
 11
3429.673057123646
 21
5292.357623860232
 31
0.0
  0
INSERT
  5
18D70
330
18D6B
100
AcDbEntity
  8
寸法
 62
     0
 48
50.0
370
    -2
100
AcDbBlockReference
  2
_DOTSMALL
 10
8689.673057123645
 20
5292.357623860232
 30
0.0
 41
100.0
 42
100.0
 43
100.0
  0
INSERT
  5
18D71
330
18D6B
100
AcDbEntity
  8
寸法
 62
     0
 48
50.0
370
    -2
100
AcDbBlockReference
  2
_DOTSMALL
 10
3429.673057123646
 20
5292.357623860232
 30
0.0
 41
100.0
 42
100.0
 43
100.0
 50
180.0
  0
MTEXT
  5
18D72
330
18D6B
100
AcDbEntity
  8
寸法
 62
     7
 48
50.0
100
AcDbMText
 10
6059.673057123646
 20
5392.369434883853
 30
0.0
 40
120.0
 41
0.0
 71
     5
 72
     1
  1
\A1;柱外寸法5260
  7
STYLE1
 73
     1
 44
1.0
1001
ACAD
1000
MTEXTBEGIN
1070
    73
1070
     1
1070
    44
1040
1.0
1070
    74
1070
     0
1000
MTEXTEND
  0
POINT
  5
18D73
330
18D6B
100
AcDbEntity
  8
DEFPOINTS
 62
     0
 48
50.0
100
AcDbPoint
 10
8689.673057123645
 20
4893.264454520763
 30
0.0
  0
POINT
  5
18D74
330
18D6B
100
AcDbEntity
  8
DEFPOINTS
 62
     0
 48
50.0
100
AcDbPoint
 10
3429.673057123646
 20
4893.264454520765
 30
0.0
  0
POINT
  5
18D75
330
18D6B
100
AcDbEntity
  8
DEFPOINTS
 62
     0
 48
50.0
100
AcDbPoint
 10
3429.673057123646
 20
5292.357623860232
 30
0.0
  0
ENDBLK
  5
18D76
330
18D6B
100
AcDbEntity
  8
0
 48
50.0
100
AcDbBlockEnd
  0
BLOCK
  5
18D78
330
18D77
100
AcDbEntity
  8
0
 48
50.0
100
AcDbBlockBegin
  2
*D34
 70
     1
 10
0.0
 20
0.0
 30
0.0
  3
*D34
  1

  0
LINE
  5
18D79
330
18D77
100
AcDbEntity
  8
寸法
 62
     0
 48
50.0
370
    -2
100
AcDbLine
 10
8809.673057123644
 20
2098.264454520759
 30
0.0
 11
8809.673057123644
 21
1772.217125220381
 31
0.0
  0
LINE
  5
18D7A
330
18D77
100
AcDbEntity
  8
寸法
 62
     0
 48
50.0
370
    -2
100
AcDbLine
 10
8459.673057123641
 20
2098.264454520759
 30
0.0
 11
8459.673057123641
 21
1772.217125220381
 31
0.0
  0
LINE
  5
18D7B
330
18D77
100
AcDbEntity
  8
寸法
 62
     0
 48
50.0
370
    -2
100
AcDbLine
 10
8809.673057123644
 20
1832.217125220381
 30
0.0
 11
8459.673057123641
 21
1832.217125220381
 31
0.0
  0
INSERT
  5
18D7C
330
18D77
100
AcDbEntity
  8
寸法
 62
     0
 48
50.0
370
    -2
100
AcDbBlockReference
  2
_DOTSMALL
 10
8809.673057123644
 20
1832.217125220381
 30
0.0
 41
100.0
 42
100.0
 43
100.0
  0
INSERT
  5
18D7D
330
18D77
100
AcDbEntity
  8
寸法
 62
     0
 48
50.0
370
    -2
100
AcDbBlockReference
  2
_DOTSMALL
 10
8459.673057123641
 20
1832.217125220381
 30
0.0
 41
100.0
 42
100.0
 43
100.0
 50
180.0
  0
MTEXT
  5
18D7E
330
18D77
100
AcDbEntity
  8
寸法
 62
     7
 48
50.0
100
AcDbMText
 10
8634.673057123642
 20
1932.217125220381
 30
0.0
 40
120.0
 41
0.0
 71
     5
 72
     1
  1
\A1;350
  7
STYLE1
 73
     1
 44
1.0
1001
ACAD
1000
MTEXTBEGIN
1070
    73
1070
     1
1070
    44
1040
1.0
1070
    74
1070
     0
1000
MTEXTEND
  0
POINT
  5
18D7F
330
18D77
100
AcDbEntity
  8
DEFPOINTS
 62
     0
 48
50.0
100
AcDbPoint
 10
8809.673057123644
 20
2118.264454520759
 30
0.0
  0
POINT
  5
18D80
330
18D77
100
AcDbEntity
  8
DEFPOINTS
 62
     0
 48
50.0
100
AcDbPoint
 10
8459.673057123641
 20
2118.264454520759
 30
0.0
  0
POINT
  5
18D81
330
18D77
100
AcDbEntity
  8
DEFPOINTS
 62
     0
 48
50.0
100
AcDbPoint
 10
8459.673057123641
 20
1832.217125220381
 30
0.0
  0
ENDBLK
  5
18D82
330
18D77
100
AcDbEntity
  8
0
 48
50.0
100
AcDbBlockEnd
  0
BLOCK
  5
18D84
330
18D83
100
AcDbEntity
  8
0
 48
50.0
100
AcDbBlockBegin
  2
*D35
 70
     1
 10
0.0
 20
0.0
 30
0.0
  3
*D35
  1

  0
LINE
  5
18D85
330
18D83
100
AcDbEntity
  8
寸法
 62
     0
 48
50.0
370
    -2
100
AcDbLine
 10
3429.673057123646
 20
4913.264454520765
 30
0.0
 11
3429.673057123646
 21
5352.357623860232
 31
0.0
  0
LINE
  5
18D86
330
18D83
100
AcDbEntity
  8
寸法
 62
     0
 48
50.0
370
    -2
100
AcDbLine
 10
3379.673057123646
 20
4913.264454520763
 30
0.0
 11
3379.673057123646
 21
5352.357623860232
 31
0.0
  0
LINE
  5
18D87
330
18D83
100
AcDbEntity
  8
寸法
 62
     0
 48
50.0
370
    -2
100
AcDbLine
 10
3429.673057123646
 20
5292.357623860232
 30
0.0
 11
3529.673057123646
 21
5292.357623860232
 31
0.0
  0
LINE
  5
18D88
330
18D83
100
AcDbEntity
  8
寸法
 62
     0
 48
50.0
370
    -2
100
AcDbLine
 10
3379.673057123646
 20
5292.357623860232
 30
0.0
 11
2960.140531654911
 21
5292.357623860232
 31
0.0
  0
LINE
  5
18D89
330
18D83
100
AcDbEntity
  8
寸法
 62
     0
 48
50.0
370
    -2
100
AcDbLine
 10
3429.673057123646
 20
5292.357623860232
 30
0.0
 11
3379.673057123646
 21
5292.357623860232
 31
0.0
  0
INSERT
  5
18D8A
330
18D83
100
AcDbEntity
  8
寸法
 62
     0
 48
50.0
370
    -2
100
AcDbBlockReference
  2
_DOTSMALL
 10
3429.673057123646
 20
5292.357623860232
 30
0.0
 41
100.0
 42
100.0
 43
100.0
 50
180.0
  0
INSERT
  5
18D8B
330
18D83
100
AcDbEntity
  8
寸法
 62
     0
 48
50.0
370
    -2
100
AcDbBlockReference
  2
_DOTSMALL
 10
3379.673057123646
 20
5292.357623860232
 30
0.0
 41
100.0
 42
100.0
 43
100.0
  0
MTEXT
  5
18D8C
330
18D83
100
AcDbEntity
  8
寸法
 62
     7
 48
50.0
100
AcDbMText
 10
3066.187775749399
 20
5392.357623860232
 30
0.0
 40
120.0
 41
0.0
 71
     5
 72
     1
  1
\A1;50
  7
STYLE1
 73
     1
 44
1.0
1001
ACAD
1000
MTEXTBEGIN
1070
    73
1070
     1
1070
    44
1040
1.0
1070
    74
1070
     0
1000
MTEXTEND
  0
POINT
  5
18D8D
330
18D83
100
AcDbEntity
  8
DEFPOINTS
 62
     0
 48
50.0
100
AcDbPoint
 10
3429.673057123646
 20
4893.264454520765
 30
0.0
  0
POINT
  5
18D8E
330
18D83
100
AcDbEntity
  8
DEFPOINTS
 62
     0
 48
50.0
100
AcDbPoint
 10
3379.673057123646
 20
4893.264454520763
 30
0.0
  0
POINT
  5
18D8F
330
18D83
100
AcDbEntity
  8
DEFPOINTS
 62
     0
 48
50.0
100
AcDbPoint
 10
3379.673057123646
 20
5292.357623860232
 30
0.0
  0
ENDBLK
  5
18D90
330
18D83
100
AcDbEntity
  8
0
 48
50.0
100
AcDbBlockEnd
  0
BLOCK
  5
18D92
330
18D91
100
AcDbEntity
  8
0
 48
50.0
100
AcDbBlockBegin
  2
*D36
 70
     1
 10
0.0
 20
0.0
 30
0.0
  3
*D36
  1

  0
LINE
  5
18D93
330
18D91
100
AcDbEntity
  8
寸法
 62
     0
 48
50.0
370
    -2
100
AcDbLine
 10
6259.673057123644
 20
2098.264454520759
 30
0.0
 11
6259.673057123644
 21
1772.217125220381
 31
0.0
  0
LINE
  5
18D94
330
18D91
100
AcDbEntity
  8
寸法
 62
     0
 48
50.0
370
    -2
100
AcDbLine
 10
5859.67305712364
 20
2098.264454520759
 30
0.0
 11
5859.67305712364
 21
1772.217125220381
 31
0.0
  0
LINE
  5
18D95
330
18D91
100
AcDbEntity
  8
寸法
 62
     0
 48
50.0
370
    -2
100
AcDbLine
 10
6259.673057123644
 20
1832.217125220381
 30
0.0
 11
5859.67305712364
 21
1832.217125220381
 31
0.0
  0
INSERT
  5
18D96
330
18D91
100
AcDbEntity
  8
寸法
 62
     0
 48
50.0
370
    -2
100
AcDbBlockReference
  2
_DOTSMALL
 10
6259.673057123644
 20
1832.217125220381
 30
0.0
 41
100.0
 42
100.0
 43
100.0
  0
INSERT
  5
18D97
330
18D91
100
AcDbEntity
  8
寸法
 62
     0
 48
50.0
370
    -2
100
AcDbBlockReference
  2
_DOTSMALL
 10
5859.67305712364
 20
1832.217125220381
 30
0.0
 41
100.0
 42
100.0
 43
100.0
 50
180.0
  0
MTEXT
  5
18D98
330
18D91
100
AcDbEntity
  8
寸法
 62
     7
 48
50.0
100
AcDbMText
 10
6059.673057123642
 20
1932.217125220381
 30
0.0
 40
120.0
 41
0.0
 71
     5
 72
     1
  1
\A1;400
  7
STYLE1
 73
     1
 44
1.0
1001
ACAD
1000
MTEXTBEGIN
1070
    73
1070
     1
1070
    44
1040
1.0
1070
    74
1070
     0
1000
MTEXTEND
  0
POINT
  5
18D99
330
18D91
100
AcDbEntity
  8
DEFPOINTS
 62
     0
 48
50.0
100
AcDbPoint
 10
6259.673057123644
 20
2118.264454520759
 30
0.0
  0
POINT
  5
18D9A
330
18D91
100
AcDbEntity
  8
DEFPOINTS
 62
     0
 48
50.0
100
AcDbPoint
 10
5859.67305712364
 20
2118.264454520759
 30
0.0
  0
POINT
  5
18D9B
330
18D91
100
AcDbEntity
  8
DEFPOINTS
 62
     0
 48
50.0
100
AcDbPoint
 10
5859.67305712364
 20
1832.217125220381
 30
0.0
  0
ENDBLK
  5
18D9C
330
18D91
100
AcDbEntity
  8
0
 48
50.0
100
AcDbBlockEnd
  0
BLOCK
  5
18D9E
330
18D9D
100
AcDbEntity
  8
0
 48
50.0
100
AcDbBlockBegin
  2
*D37
 70
     1
 10
0.0
 20
0.0
 30
0.0
  3
*D37
  1

  0
LINE
  5
18D9F
330
18D9D
100
AcDbEntity
  8
寸法
 62
     0
 48
50.0
370
    -2
100
AcDbLine
 10
8654.673057123641
 20
4493.264454520759
 30
0.0
 11
9037.216159445389
 21
4493.264454520759
 31
0.0
  0
LINE
  5
18DA0
330
18D9D
100
AcDbEntity
  8
寸法
 62
     0
 48
50.0
370
    -2
100
AcDbLine
 10
8709.673057123641
 20
4658.264454520758
 30
0.0
 11
9037.216159445389
 21
4658.264454520758
 31
0.0
  0
LINE
  5
18DA1
330
18D9D
100
AcDbEntity
  8
寸法
 62
     0
 48
50.0
370
    -2
100
AcDbLine
 10
8977.216159445388
 20
4493.264454520759
 30
0.0
 11
8977.216159445388
 21
4658.264454520758
 31
0.0
  0
LINE
  5
18DA2
330
18D9D
100
AcDbEntity
  8
寸法
 62
     0
 48
50.0
370
    -2
100
AcDbLine
 10
8977.216159445388
 20
4658.264454520758
 30
0.0
 11
8977.216159445388
 21
5035.235017269236
 31
0.0
  0
INSERT
  5
18DA3
330
18D9D
100
AcDbEntity
  8
寸法
 62
     0
 48
50.0
370
    -2
100
AcDbBlockReference
  2
_DOTSMALL
 10
8977.216159445388
 20
4493.264454520759
 30
0.0
 41
100.0
 42
100.0
 43
100.0
 50
270.0
  0
INSERT
  5
18DA4
330
18D9D
100
AcDbEntity
  8
寸法
 62
     0
 48
50.0
370
    -2
100
AcDbBlockReference
  2
_DOTSMALL
 10
8977.216159445388
 20
4658.264454520758
 30
0.0
 41
100.0
 42
100.0
 43
100.0
 50
90.0
  0
MTEXT
  5
18DA5
330
18D9D
100
AcDbEntity
  8
寸法
 62
     7
 48
50.0
100
AcDbMText
 10
8877.216159445387
 20
4896.749735894998
 30
0.0
 40
120.0
 41
0.0
 71
     5
 72
     1
  1
\A1;165
  7
STYLE1
 11
0.0000000000000001
 21
1.0
 31
0.0
 73
     1
 44
1.0
1001
ACAD
1000
MTEXTBEGIN
1070
    73
1070
     1
1070
    44
1040
1.0
1070
    74
1070
     0
1000
MTEXTEND
  0
POINT
  5
18DA6
330
18D9D
100
AcDbEntity
  8
DEFPOINTS
 62
     0
 48
50.0
100
AcDbPoint
 10
8634.67305712364
 20
4493.264454520759
 30
0.0
  0
POINT
  5
18DA7
330
18D9D
100
AcDbEntity
  8
DEFPOINTS
 62
     0
 48
50.0
100
AcDbPoint
 10
8689.67305712364
 20
4658.264454520758
 30
0.0
  0
POINT
  5
18DA8
330
18D9D
100
AcDbEntity
  8
DEFPOINTS
 62
     0
 48
50.0
100
AcDbPoint
 10
8977.216159445388
 20
4658.264454520758
 30
0.0
  0
ENDBLK
  5
18DA9
330
18D9D
100
AcDbEntity
  8
0
 48
50.0
100
AcDbBlockEnd
  0
BLOCK
  5
18DAB
330
18DAA
100
AcDbEntity
  8
0
 48
50.0
100
AcDbBlockBegin
  2
*D38
 70
     1
 10
0.0
 20
0.0
 30
0.0
  3
*D38
  1

  0
LINE
  5
18DAC
330
18DAA
100
AcDbEntity
  8
寸法
 62
     0
 48
50.0
370
    -2
100
AcDbLine
 10
8709.673057123641
 20
4466.264454520757
 30
0.0
 11
9037.216159445387
 21
4466.264454520757
 31
0.0
  0
LINE
  5
18DAD
330
18DAA
100
AcDbEntity
  8
寸法
 62
     0
 48
50.0
370
    -2
100
AcDbLine
 10
8654.673057123641
 20
4493.264454520759
 30
0.0
 11
9037.216159445387
 21
4493.264454520759
 31
0.0
  0
LINE
  5
18DAE
330
18DAA
100
AcDbEntity
  8
寸法
 62
     0
 48
50.0
370
    -2
100
AcDbLine
 10
8977.216159445386
 20
4466.264454520757
 30
0.0
 11
8977.216159445386
 21
4366.264454520758
 31
0.0
  0
LINE
  5
18DAF
330
18DAA
100
AcDbEntity
  8
寸法
 62
     0
 48
50.0
370
    -2
100
AcDbLine
 10
8977.216159445386
 20
4493.264454520759
 30
0.0
 11
8977.216159445386
 21
4593.264454520759
 31
0.0
  0
MTEXT
  5
18DB0
330
18DAA
100
AcDbEntity
  8
寸法
 62
     7
 48
50.0
100
AcDbMText
 10
9117.385982691752
 20
4494.231654360418
 30
0.0
 40
120.0
 41
0.0
 71
     5
 72
     1
  1
\A1;27
  7
STYLE1
 11
0.0000000000000001
 21
1.0
 31
0.0
 73
     1
 44
1.0
1001
ACAD
1000
MTEXTBEGIN
1070
    73
1070
     1
1070
    44
1040
1.0
1070
    74
1070
     0
1000
MTEXTEND
  0
LINE
  5
18DB1
330
18DAA
100
AcDbEntity
  8
寸法
 62
     0
 48
50.0
370
    -2
100
AcDbLine
 10
8977.216159445386
 20
4466.264454520757
 30
0.0
 11
8977.216159445386
 21
4493.264454520759
 31
0.0
  0
INSERT
  5
18DB2
330
18DAA
100
AcDbEntity
  8
寸法
 62
     0
 48
50.0
370
    -2
100
AcDbBlockReference
  2
_DOTSMALL
 10
8977.216159445386
 20
4466.264454520757
 30
0.0
 41
100.0
 42
100.0
 43
100.0
 50
90.0
  0
INSERT
  5
18DB3
330
18DAA
100
AcDbEntity
  8
寸法
 62
     0
 48
50.0
370
    -2
100
AcDbBlockReference
  2
_DOTSMALL
 10
8977.216159445386
 20
4493.264454520759
 30
0.0
 41
100.0
 42
100.0
 43
100.0
 50
270.0
  0
POINT
  5
18DB4
330
18DAA
100
AcDbEntity
  8
DEFPOINTS
 62
     0
 48
50.0
100
AcDbPoint
 10
8689.67305712364
 20
4466.264454520757
 30
0.0
  0
POINT
  5
18DB5
330
18DAA
100
AcDbEntity
  8
DEFPOINTS
 62
     0
 48
50.0
100
AcDbPoint
 10
8634.67305712364
 20
4493.264454520759
 30
0.0
  0
POINT
  5
18DB6
330
18DAA
100
AcDbEntity
  8
DEFPOINTS
 62
     0
 48
50.0
100
AcDbPoint
 10
8977.216159445386
 20
4493.264454520759
 30
0.0
  0
ENDBLK
  5
18DB7
330
18DAA
100
AcDbEntity
  8
0
 48
50.0
100
AcDbBlockEnd
  0
BLOCK
  5
18DB9
330
18DB8
100
AcDbEntity
  8
0
 48
50.0
100
AcDbBlockBegin
  2
*D39
 70
     1
 10
0.0
 20
0.0
 30
0.0
  3
*D39
  1

  0
LINE
  5
18DBA
330
18DB8
100
AcDbEntity
  8
寸法
 62
     0
 48
50.0
370
    -2
100
AcDbLine
 10
8709.673057123641
 20
2518.264454520759
 30
0.0
 11
9037.216159445383
 21
2518.264454520759
 31
0.0
  0
LINE
  5
18DBB
330
18DB8
100
AcDbEntity
  8
寸法
 62
     0
 48
50.0
370
    -2
100
AcDbLine
 10
8709.673057123641
 20
4466.264454520757
 30
0.0
 11
9037.216159445387
 21
4466.264454520757
 31
0.0
  0
LINE
  5
18DBC
330
18DB8
100
AcDbEntity
  8
寸法
 62
     0
 48
50.0
370
    -2
100
AcDbLine
 10
8977.216159445385
 20
2518.264454520759
 30
0.0
 11
8977.216159445386
 21
4466.264454520757
 31
0.0
  0
INSERT
  5
18DBD
330
18DB8
100
AcDbEntity
  8
寸法
 62
     0
 48
50.0
370
    -2
100
AcDbBlockReference
  2
_DOTSMALL
 10
8977.216159445385
 20
2518.264454520759
 30
0.0
 41
100.0
 42
100.0
 43
100.0
 50
270.0
  0
INSERT
  5
18DBE
330
18DB8
100
AcDbEntity
  8
寸法
 62
     0
 48
50.0
370
    -2
100
AcDbBlockReference
  2
_DOTSMALL
 10
8977.216159445386
 20
4466.264454520757
 30
0.0
 41
100.0
 42
100.0
 43
100.0
 50
90.0
  0
MTEXT
  5
18DBF
330
18DB8
100
AcDbEntity
  8
寸法
 62
     7
 48
50.0
100
AcDbMText
 10
8877.216159445385
 20
3492.26445452076
 30
0.0
 40
120.0
 41
0.0
 71
     5
 72
     1
  1
\A1;有効開口部高サ 1948
  7
STYLE1
 11
0.0000000000000001
 21
1.0
 31
0.0
 73
     1
 44
1.0
1001
ACAD
1000
MTEXTBEGIN
1070
    73
1070
     1
1070
    44
1040
1.0
1070
    74
1070
     0
1000
MTEXTEND
  0
POINT
  5
18DC0
330
18DB8
100
AcDbEntity
  8
DEFPOINTS
 62
     0
 48
50.0
100
AcDbPoint
 10
8689.67305712364
 20
2518.264454520759
 30
0.0
  0
POINT
  5
18DC1
330
18DB8
100
AcDbEntity
  8
DEFPOINTS
 62
     0
 48
50.0
100
AcDbPoint
 10
8689.67305712364
 20
4466.264454520757
 30
0.0
  0
POINT
  5
18DC2
330
18DB8
100
AcDbEntity
  8
DEFPOINTS
 62
     0
 48
50.0
100
AcDbPoint
 10
8977.216159445386
 20
4466.264454520757
 30
0.0
  0
ENDBLK
  5
18DC3
330
18DB8
100
AcDbEntity
  8
0
 48
50.0
100
AcDbBlockEnd
  0
BLOCK
  5
18EC7
330
18DC4
100
AcDbEntity
  8
0
 48
50.0
100
AcDbBlockBegin
  2
A$C3D24348E
 70
     0
 10
0.0
 20
0.0
 30
0.0
  3
A$C3D24348E
  1

  0
ARC
  5
18DC5
330
18DC4
100
AcDbEntity
  8
部品1
 48
0.01
100
AcDbCircle
 10
4406.769596743328
 20
2950.047327592089
 30
0.0
 40
2.0
100
AcDbArc
 50
0.0
 51
90.0
  0
ARC
  5
18DC6
330
18DC4
100
AcDbEntity
  8
部品1
 48
0.01
100
AcDbCircle
 10
4230.769596743328
 20
2950.047327592089
 30
0.0
 40
2.0
100
AcDbArc
 50
90.0
 51
180.0
  0
LINE
  5
18DC7
330
18DC4
100
AcDbEntity
  8
細線
100
AcDbLine
 10
4318.769596743325
 20
2922.547327592089
 30
0.0
 11
4392.769596743328
 21
2922.547327592089
 31
0.0
  0
LINE
  5
18DC8
330
18DC4
100
AcDbEntity
  8
細線
100
AcDbLine
 10
4318.769596743329
 20
2945.547327592089
 30
0.0
 11
4244.769596743328
 21
2945.547327592089
 31
0.0
  0
LINE
  5
18DC9
330
18DC4
100
AcDbEntity
  8
細線
100
AcDbLine
 10
4244.769596743328
 20
2922.547327592089
 30
0.0
 11
4318.769596743329
 21
2922.547327592089
 31
0.0
  0
LINE
  5
18DCA
330
18DC4
100
AcDbEntity
  8
細線
100
AcDbLine
 10
4392.769596743328
 20
2945.547327592089
 30
0.0
 11
4318.769596743329
 21
2945.547327592089
 31
0.0
  0
LINE
  5
18DCB
330
18DC4
100
AcDbEntity
  8
細線
100
AcDbLine
 10
4392.769596743328
 20
2922.547327592089
 30
0.0
 11
4392.769596743328
 21
2945.547327592089
 31
0.0
  0
LINE
  5
18DCC
330
18DC4
100
AcDbEntity
  8
細線
100
AcDbLine
 10
4244.769596743328
 20
2945.547327592089
 30
0.0
 11
4244.769596743328
 21
2922.547327592089
 31
0.0
  0
LINE
  5
18DCD
330
18DC4
100
AcDbEntity
  8
部品1
 48
0.01
100
AcDbLine
 10
4408.769596743325
 20
2918.547327592089
 30
0.0
 11
4408.769596743328
 21
2950.047327592089
 31
0.0
  0
LINE
  5
18DCE
330
18DC4
100
AcDbEntity
  8
部品1
 48
0.01
100
AcDbLine
 10
4228.769596743329
 20
2950.047327592089
 30
0.0
 11
4228.769596743329
 21
2918.547327592089
 31
0.0
  0
LINE
  5
18DCF
330
18DC4
100
AcDbEntity
  8
部品1
 48
0.01
100
AcDbLine
 10
4406.769596743328
 20
2952.047327592089
 30
0.0
 11
4230.769596743328
 21
2952.047327592089
 31
0.0
  0
LINE
  5
18DD0
330
18DC4
100
AcDbEntity
  8
細線
100
AcDbLine
 10
4244.769596743328
 20
2939.547327592089
 30
0.0
 11
4318.769596743329
 21
2939.547327592089
 31
0.0
  0
LINE
  5
18DD1
330
18DC4
100
AcDbEntity
  8
細線
100
AcDbLine
 10
4244.769596743328
 20
2933.547327592089
 30
0.0
 11
4318.769596743329
 21
2933.547327592089
 31
0.0
  0
LINE
  5
18DD2
330
18DC4
100
AcDbEntity
  8
細線
100
AcDbLine
 10
4244.769596743324
 20
2927.547327592089
 30
0.0
 11
4318.769596743329
 21
2927.547327592089
 31
0.0
  0
LINE
  5
18DD3
330
18DC4
100
AcDbEntity
  8
細線
100
AcDbLine
 10
4244.769596743328
 20
2939.547327592089
 30
0.0
 11
4313.769596743328
 21
2939.547327592089
 31
0.0
  0
LINE
  5
18DD4
330
18DC4
100
AcDbEntity
  8
細線
100
AcDbLine
 10
4392.769596743324
 20
2939.547327592089
 30
0.0
 11
4318.769596743329
 21
2939.547327592089
 31
0.0
  0
LINE
  5
18DD5
330
18DC4
100
AcDbEntity
  8
細線
100
AcDbLine
 10
4392.769596743324
 20
2927.547327592089
 30
0.0
 11
4318.769596743329
 21
2927.547327592089
 31
0.0
  0
LINE
  5
18DD6
330
18DC4
100
AcDbEntity
  8
細線
100
AcDbLine
 10
4392.769596743324
 20
2933.547327592089
 30
0.0
 11
4318.769596743329
 21
2933.547327592089
 31
0.0
  0
LINE
  5
18DD7
330
18DC4
100
AcDbEntity
  8
細線
100
AcDbLine
 10
4318.769596743329
 20
2945.547327592089
 30
0.0
 11
4318.769596743325
 21
2922.547327592089
 31
0.0
  0
LINE
  5
18DD8
330
18DC4
100
AcDbEntity
  8
細線
100
AcDbLine
 10
5548.769596743328
 20
2945.547327592089
 30
0.0
 11
5548.769596743328
 21
2922.547327592089
 31
0.0
  0
LINE
  5
18DD9
330
18DC4
100
AcDbEntity
  8
細線
100
AcDbLine
 10
5474.769596743328
 20
2933.547327592089
 30
0.0
 11
5548.769596743328
 21
2933.547327592089
 31
0.0
  0
LINE
  5
18DDA
330
18DC4
100
AcDbEntity
  8
細線
100
AcDbLine
 10
5474.769596743328
 20
2927.547327592089
 30
0.0
 11
5548.769596743328
 21
2927.547327592089
 31
0.0
  0
LINE
  5
18DDB
330
18DC4
100
AcDbEntity
  8
細線
100
AcDbLine
 10
5474.769596743328
 20
2939.547327592089
 30
0.0
 11
5548.769596743328
 21
2939.547327592089
 31
0.0
  0
LINE
  5
18DDC
330
18DC4
100
AcDbEntity
  8
細線
100
AcDbLine
 10
5622.769596743328
 20
2939.547327592089
 30
0.0
 11
5553.769596743329
 21
2939.547327592089
 31
0.0
  0
LINE
  5
18DDD
330
18DC4
100
AcDbEntity
  8
細線
100
AcDbLine
 10
5622.769596743328
 20
2927.547327592089
 30
0.0
 11
5548.769596743328
 21
2927.547327592089
 31
0.0
  0
LINE
  5
18DDE
330
18DC4
100
AcDbEntity
  8
細線
100
AcDbLine
 10
5622.769596743328
 20
2933.547327592089
 30
0.0
 11
5548.769596743328
 21
2933.547327592089
 31
0.0
  0
LINE
  5
18DDF
330
18DC4
100
AcDbEntity
  8
細線
100
AcDbLine
 10
5622.769596743328
 20
2939.547327592089
 30
0.0
 11
5548.769596743328
 21
2939.547327592089
 31
0.0
  0
LINE
  5
18DE0
330
18DC4
100
AcDbEntity
  8
部品1
 48
0.01
100
AcDbLine
 10
5460.769596743329
 20
2952.047327592089
 30
0.0
 11
5636.769596743328
 21
2952.047327592089
 31
0.0
  0
LINE
  5
18DE1
330
18DC4
100
AcDbEntity
  8
部品1
 48
0.01
100
AcDbLine
 10
5638.769596743328
 20
2950.047327592089
 30
0.0
 11
5638.769596743328
 21
2918.547327592089
 31
0.0
  0
LINE
  5
18DE2
330
18DC4
100
AcDbEntity
  8
部品1
 48
0.01
100
AcDbLine
 10
5458.769596743328
 20
2918.547327592089
 30
0.0
 11
5458.769596743328
 21
2950.047327592089
 31
0.0
  0
LINE
  5
18DE3
330
18DC4
100
AcDbEntity
  8
細線
100
AcDbLine
 10
5622.769596743328
 20
2945.547327592089
 30
0.0
 11
5622.769596743328
 21
2922.547327592089
 31
0.0
  0
LINE
  5
18DE4
330
18DC4
100
AcDbEntity
  8
細線
100
AcDbLine
 10
5474.769596743328
 20
2922.547327592089
 30
0.0
 11
5474.769596743328
 21
2945.547327592089
 31
0.0
  0
LINE
  5
18DE5
330
18DC4
100
AcDbEntity
  8
細線
100
AcDbLine
 10
5474.769596743328
 20
2945.547327592089
 30
0.0
 11
5548.769596743328
 21
2945.547327592089
 31
0.0
  0
LINE
  5
18DE6
330
18DC4
100
AcDbEntity
  8
細線
100
AcDbLine
 10
5622.769596743328
 20
2922.547327592089
 30
0.0
 11
5548.769596743328
 21
2922.547327592089
 31
0.0
  0
LINE
  5
18DE7
330
18DC4
100
AcDbEntity
  8
細線
100
AcDbLine
 10
5548.769596743328
 20
2945.547327592089
 30
0.0
 11
5622.769596743328
 21
2945.547327592089
 31
0.0
  0
LINE
  5
18DE8
330
18DC4
100
AcDbEntity
  8
細線
100
AcDbLine
 10
5548.769596743328
 20
2922.547327592089
 30
0.0
 11
5474.769596743328
 21
2922.547327592089
 31
0.0
  0
ARC
  5
18DE9
330
18DC4
100
AcDbEntity
  8
部品1
 48
0.01
100
AcDbCircle
 10
5636.769596743328
 20
2950.047327592089
 30
0.0
 40
2.0
100
AcDbArc
 50
0.0
 51
90.0
  0
ARC
  5
18DEA
330
18DC4
100
AcDbEntity
  8
部品1
 48
0.01
100
AcDbCircle
 10
5460.769596743329
 20
2950.047327592089
 30
0.0
 40
2.0
100
AcDbArc
 50
90.0
 51
180.0
  0
ARC
  5
18DEB
330
18DC4
100
AcDbEntity
  8
部品1
 48
0.01
100
AcDbCircle
 10
4406.769596743324
 20
2918.547327592089
 30
0.0
 40
2.0
100
AcDbArc
 50
270.0
 51
0.0
  0
ARC
  5
18DEC
330
18DC4
100
AcDbEntity
  8
部品1
 48
0.01
100
AcDbCircle
 10
4230.769596743328
 20
2918.547327592089
 30
0.0
 40
2.0
100
AcDbArc
 50
180.0
 51
270.0
  0
LINE
  5
18DED
330
18DC4
100
AcDbEntity
  8
部品1
 48
0.01
100
AcDbLine
 10
4230.769596743328
 20
2916.547327592089
 30
0.0
 11
4406.769596743324
 21
2916.547327592089
 31
0.0
  0
LINE
  5
18DEE
330
18DC4
100
AcDbEntity
  8
部品1
 48
0.01
100
AcDbLine
 10
5636.769596743328
 20
2916.547327592089
 30
0.0
 11
5460.769596743329
 21
2916.547327592089
 31
0.0
  0
ARC
  5
18DEF
330
18DC4
100
AcDbEntity
  8
部品1
 48
0.01
100
AcDbCircle
 10
5636.769596743328
 20
2918.547327592089
 30
0.0
 40
2.0
100
AcDbArc
 50
270.0
 51
0.0
  0
ARC
  5
18DF0
330
18DC4
100
AcDbEntity
  8
部品1
 48
0.01
100
AcDbCircle
 10
5460.769596743329
 20
2918.547327592089
 30
0.0
 40
2.0
100
AcDbArc
 50
180.0
 51
270.0
  0
DIMENSION
  5
18DF1
330
18DC4
100
AcDbEntity
  8
寸法
 48
50.0
100
AcDbDimension
  2
*D39
 10
6536.312699065071
 20
2694.047327592088
 30
0.0
 11
6436.312699065068
 21
1720.047327592089
 31
0.0
 12
-2440.903460380316
 22
-1772.21712692867
 32
0.0
  1
有効開口部高サ <>
 71
     5
 42
1947.999999999999
  3
INABA_S40G
100
AcDbAlignedDimension
 13
6248.769596743325
 23
746.0473275920885
 33
0.0
 14
6248.769596743325
 24
2694.047327592088
 34
0.0
 50
90.0
100
AcDbRotatedDimension
  0
DIMENSION
  5
18DF2
330
18DC4
100
AcDbEntity
  8
寸法
 48
50.0
100
AcDbDimension
  2
*D38
 10
6536.312699065071
 20
2721.047327592089
 30
0.0
 11
6676.482522311437
 21
2722.014527431748
 31
0.0
 12
-2440.903460380316
 22
-1772.21712692867
 32
0.0
 70
   128
 71
     5
 42
27.00000000000182
  3
INABA_S40G
100
AcDbAlignedDimension
 13
6248.769596743325
 23
2694.047327592088
 33
0.0
 14
6193.769596743325
 24
2721.047327592089
 34
0.0
 50
90.0
100
AcDbRotatedDimension
1001
ACAD
1000
DSTYLE
1002
{
1070
   279
1070
     2
1002
}
  0
DIMENSION
  5
18DF3
330
18DC4
100
AcDbEntity
  8
寸法
 48
50.0
100
AcDbDimension
  2
*D37
 10
6536.312699065073
 20
2886.047327592089
 30
0.0
 11
6536.312699065071
 21
3124.532608966329
 31
0.0
 12
-2440.903460380316
 22
-1772.21712692867
 32
0.0
 70
   128
 71
     5
 42
164.9999999999991
  3
INABA_S40G
100
AcDbAlignedDimension
 13
6193.769596743325
 23
2721.047327592089
 33
0.0
 14
6248.769596743325
 24
2886.047327592089
 34
0.0
 50
90.0
100
AcDbRotatedDimension
1001
ACAD
1000
DSTYLE
1002
{
1002
}
  0
LINE
  5
18DF4
330
18DC4
100
AcDbEntity
  8
破線
 48
5.0
100
AcDbLine
 10
3515.769596743325
 20
746.0473275920885
 30
0.0
 11
3515.769596743326
 21
446.0473275920885
 31
0.0
  0
LINE
  5
18DF5
330
18DC4
100
AcDbEntity
  8
破線
 48
5.0
100
AcDbLine
 10
3563.769596743328
 20
446.0473275920885
 30
0.0
 11
3515.769596743326
 21
446.0473275920885
 31
0.0
  0
LINE
  5
18DF6
330
18DC4
100
AcDbEntity
  8
破線
 48
5.0
100
AcDbLine
 10
3563.769596743325
 20
746.0473275920885
 30
0.0
 11
3563.769596743327
 21
396.0473275920886
 31
0.0
  0
LINE
  5
18DF7
330
18DC4
100
AcDbEntity
  8
破線
 48
5.0
100
AcDbLine
 10
3673.769596743325
 20
396.0473275920886
 30
0.0
 11
3563.769596743327
 21
396.0473275920886
 31
0.0
  0
LINE
  5
18DF8
330
18DC4
100
AcDbEntity
  8
破線
 48
5.0
100
AcDbLine
 10
3721.769596743327
 20
746.0473275920885
 30
0.0
 11
3721.769596743325
 21
446.0473275920939
 31
0.0
  0
LINE
  5
18DF9
330
18DC4
100
AcDbEntity
  8
破線
 48
5.0
100
AcDbLine
 10
3721.769596743325
 20
446.0473275920939
 30
0.0
 11
3673.769596743325
 21
446.0473275920939
 31
0.0
  0
LINE
  5
18DFA
330
18DC4
100
AcDbEntity
  8
破線
 48
5.0
100
AcDbLine
 10
3673.769596743327
 20
746.0473275920885
 30
0.0
 11
3673.769596743325
 21
396.0473275920886
 31
0.0
  0
LINE
  5
18DFB
330
18DC4
100
AcDbEntity
  8
破線
 48
5.0
100
AcDbLine
 10
3818.769596743329
 20
646.0473275920885
 30
0.0
 11
3818.769596743329
 21
346.0473275920886
 31
0.0
  0
LINE
  5
18DFC
330
18DC4
100
AcDbEntity
  8
破線
 48
5.0
100
AcDbLine
 10
3818.769596743329
 20
346.0473275920886
 30
0.0
 11
3418.769596743325
 21
346.0473275920886
 31
0.0
  0
LINE
  5
18DFD
330
18DC4
100
AcDbEntity
  8
破線
 48
5.0
100
AcDbLine
 10
3418.769596743329
 20
646.0473275920885
 30
0.0
 11
3418.769596743329
 21
346.0473275920886
 31
0.0
  0
DIMENSION
  5
18DFE
330
18DC4
100
AcDbEntity
  8
寸法
 48
50.0
100
AcDbDimension
  2
*D36
 10
3418.769596743325
 20
59.99999829171065
 30
0.0
 11
3618.769596743327
 21
159.9999982917106
 31
0.0
 12
-2440.903460380316
 22
-1772.21712692867
 32
0.0
 71
     5
 42
400.0000000000036
  3
INABA_S40G
100
AcDbAlignedDimension
 13
3818.769596743329
 23
346.0473275920886
 33
0.0
 14
3418.769596743325
 24
346.0473275920886
 34
0.0
100
AcDbRotatedDimension
  0
LINE
  5
18DFF
330
18DC4
100
AcDbEntity
  8
部品1
 48
50.0
100
AcDbLine
 10
3618.769596743327
 20
2886.047327592089
 30
0.0
 11
3618.769596743327
 21
2980.047327592092
 31
0.0
  0
LINE
  5
18E00
330
18DC4
100
AcDbEntity
  8
部品1
 48
50.0
100
AcDbLine
 10
3608.769596743326
 20
2980.047327592092
 30
0.0
 11
3608.769596743325
 21
3121.047327592093
 31
0.0
  0
ARC
  5
18E01
330
18DC4
100
AcDbEntity
  8
部品1
 48
0.01
100
AcDbCircle
 10
2830.76959674333
 20
2918.547327592089
 30
0.0
 40
2.0
100
AcDbArc
 50
180.0
 51
270.0
  0
ARC
  5
18E02
330
18DC4
100
AcDbEntity
  8
部品1
 48
0.01
100
AcDbCircle
 10
3006.76959674333
 20
2918.547327592089
 30
0.0
 40
2.0
100
AcDbArc
 50
270.0
 51
0.0
  0
LINE
  5
18E03
330
18DC4
100
AcDbEntity
  8
部品1
 48
0.01
100
AcDbLine
 10
3006.76959674333
 20
2916.547327592089
 30
0.0
 11
2830.76959674333
 21
2916.547327592089
 31
0.0
  0
LINE
  5
18E04
330
18DC4
100
AcDbEntity
  8
部品1
 48
0.01
100
AcDbLine
 10
1600.76959674333
 20
2916.547327592089
 30
0.0
 11
1776.769596743326
 21
2916.547327592089
 31
0.0
  0
ARC
  5
18E05
330
18DC4
100
AcDbEntity
  8
部品1
 48
0.01
100
AcDbCircle
 10
1600.76959674333
 20
2918.547327592089
 30
0.0
 40
2.0
100
AcDbArc
 50
180.0
 51
270.0
  0
ARC
  5
18E06
330
18DC4
100
AcDbEntity
  8
部品1
 48
0.01
100
AcDbCircle
 10
1776.769596743326
 20
2918.547327592089
 30
0.0
 40
2.0
100
AcDbArc
 50
270.0
 51
0.0
  0
ARC
  5
18E07
330
18DC4
100
AcDbEntity
  8
部品1
 48
0.01
100
AcDbCircle
 10
2830.76959674333
 20
2950.047327592089
 30
0.0
 40
2.0
100
AcDbArc
 50
90.0
 51
180.0
  0
ARC
  5
18E08
330
18DC4
100
AcDbEntity
  8
部品1
 48
0.01
100
AcDbCircle
 10
3006.76959674333
 20
2950.047327592089
 30
0.0
 40
2.0
100
AcDbArc
 50
0.0
 51
90.0
  0
LINE
  5
18E09
330
18DC4
100
AcDbEntity
  8
細線
100
AcDbLine
 10
2918.769596743331
 20
2922.547327592089
 30
0.0
 11
2844.76959674333
 21
2922.547327592089
 31
0.0
  0
LINE
  5
18E0A
330
18DC4
100
AcDbEntity
  8
細線
100
AcDbLine
 10
2918.769596743331
 20
2945.547327592089
 30
0.0
 11
2992.76959674333
 21
2945.547327592089
 31
0.0
  0
LINE
  5
18E0B
330
18DC4
100
AcDbEntity
  8
細線
100
AcDbLine
 10
2992.76959674333
 20
2922.547327592089
 30
0.0
 11
2918.769596743331
 21
2922.547327592089
 31
0.0
  0
LINE
  5
18E0C
330
18DC4
100
AcDbEntity
  8
細線
100
AcDbLine
 10
2844.76959674333
 20
2945.547327592089
 30
0.0
 11
2918.769596743331
 21
2945.547327592089
 31
0.0
  0
LINE
  5
18E0D
330
18DC4
100
AcDbEntity
  8
細線
100
AcDbLine
 10
2844.76959674333
 20
2922.547327592089
 30
0.0
 11
2844.76959674333
 21
2945.547327592089
 31
0.0
  0
LINE
  5
18E0E
330
18DC4
100
AcDbEntity
  8
細線
100
AcDbLine
 10
2992.76959674333
 20
2945.547327592089
 30
0.0
 11
2992.76959674333
 21
2922.547327592089
 31
0.0
  0
LINE
  5
18E0F
330
18DC4
100
AcDbEntity
  8
部品1
 48
0.01
100
AcDbLine
 10
2828.76959674333
 20
2918.547327592089
 30
0.0
 11
2828.76959674333
 21
2950.047327592089
 31
0.0
  0
LINE
  5
18E10
330
18DC4
100
AcDbEntity
  8
部品1
 48
0.01
100
AcDbLine
 10
3008.76959674333
 20
2950.047327592089
 30
0.0
 11
3008.76959674333
 21
2918.547327592089
 31
0.0
  0
LINE
  5
18E11
330
18DC4
100
AcDbEntity
  8
部品1
 48
0.01
100
AcDbLine
 10
2830.76959674333
 20
2952.047327592089
 30
0.0
 11
3006.76959674333
 21
2952.047327592089
 31
0.0
  0
LINE
  5
18E12
330
18DC4
100
AcDbEntity
  8
細線
100
AcDbLine
 10
2992.76959674333
 20
2939.547327592089
 30
0.0
 11
2918.769596743331
 21
2939.547327592089
 31
0.0
  0
LINE
  5
18E13
330
18DC4
100
AcDbEntity
  8
細線
100
AcDbLine
 10
2992.76959674333
 20
2933.547327592089
 30
0.0
 11
2918.769596743331
 21
2933.547327592089
 31
0.0
  0
LINE
  5
18E14
330
18DC4
100
AcDbEntity
  8
細線
100
AcDbLine
 10
2992.76959674333
 20
2927.547327592089
 30
0.0
 11
2918.769596743331
 21
2927.547327592089
 31
0.0
  0
LINE
  5
18E15
330
18DC4
100
AcDbEntity
  8
細線
100
AcDbLine
 10
2992.76959674333
 20
2939.547327592089
 30
0.0
 11
2923.76959674333
 21
2939.547327592089
 31
0.0
  0
LINE
  5
18E16
330
18DC4
100
AcDbEntity
  8
細線
100
AcDbLine
 10
2844.76959674333
 20
2939.547327592089
 30
0.0
 11
2918.769596743331
 21
2939.547327592089
 31
0.0
  0
LINE
  5
18E17
330
18DC4
100
AcDbEntity
  8
細線
100
AcDbLine
 10
2844.76959674333
 20
2927.547327592089
 30
0.0
 11
2918.769596743331
 21
2927.547327592089
 31
0.0
  0
LINE
  5
18E18
330
18DC4
100
AcDbEntity
  8
細線
100
AcDbLine
 10
2844.76959674333
 20
2933.547327592089
 30
0.0
 11
2918.769596743331
 21
2933.547327592089
 31
0.0
  0
LINE
  5
18E19
330
18DC4
100
AcDbEntity
  8
細線
100
AcDbLine
 10
2918.769596743331
 20
2945.547327592089
 30
0.0
 11
2918.769596743331
 21
2922.547327592089
 31
0.0
  0
LINE
  5
18E1A
330
18DC4
100
AcDbEntity
  8
細線
100
AcDbLine
 10
1688.76959674333
 20
2945.547327592089
 30
0.0
 11
1688.769596743326
 21
2922.547327592089
 31
0.0
  0
LINE
  5
18E1B
330
18DC4
100
AcDbEntity
  8
細線
100
AcDbLine
 10
1762.769596743326
 20
2933.547327592089
 30
0.0
 11
1688.76959674333
 21
2933.547327592089
 31
0.0
  0
LINE
  5
18E1C
330
18DC4
100
AcDbEntity
  8
細線
100
AcDbLine
 10
1762.769596743326
 20
2927.547327592089
 30
0.0
 11
1688.76959674333
 21
2927.547327592089
 31
0.0
  0
LINE
  5
18E1D
330
18DC4
100
AcDbEntity
  8
細線
100
AcDbLine
 10
1762.769596743326
 20
2939.547327592089
 30
0.0
 11
1688.76959674333
 21
2939.547327592089
 31
0.0
  0
LINE
  5
18E1E
330
18DC4
100
AcDbEntity
  8
細線
100
AcDbLine
 10
1614.76959674333
 20
2939.547327592089
 30
0.0
 11
1683.76959674333
 21
2939.547327592089
 31
0.0
  0
LINE
  5
18E1F
330
18DC4
100
AcDbEntity
  8
細線
100
AcDbLine
 10
1614.769596743326
 20
2927.547327592089
 30
0.0
 11
1688.76959674333
 21
2927.547327592089
 31
0.0
  0
LINE
  5
18E20
330
18DC4
100
AcDbEntity
  8
細線
100
AcDbLine
 10
1614.76959674333
 20
2933.547327592089
 30
0.0
 11
1688.76959674333
 21
2933.547327592089
 31
0.0
  0
LINE
  5
18E21
330
18DC4
100
AcDbEntity
  8
細線
100
AcDbLine
 10
1614.76959674333
 20
2939.547327592089
 30
0.0
 11
1688.76959674333
 21
2939.547327592089
 31
0.0
  0
LINE
  5
18E22
330
18DC4
100
AcDbEntity
  8
部品1
 48
0.01
100
AcDbLine
 10
1776.76959674333
 20
2952.047327592089
 30
0.0
 11
1600.76959674333
 21
2952.047327592089
 31
0.0
  0
LINE
  5
18E23
330
18DC4
100
AcDbEntity
  8
部品1
 48
0.01
100
AcDbLine
 10
1598.76959674333
 20
2950.047327592089
 30
0.0
 11
1598.76959674333
 21
2918.547327592089
 31
0.0
  0
LINE
  5
18E24
330
18DC4
100
AcDbEntity
  8
部品1
 48
0.01
100
AcDbLine
 10
1778.769596743326
 20
2918.547327592089
 30
0.0
 11
1778.76959674333
 21
2950.047327592089
 31
0.0
  0
LINE
  5
18E25
330
18DC4
100
AcDbEntity
  8
細線
100
AcDbLine
 10
1614.76959674333
 20
2945.547327592089
 30
0.0
 11
1614.76959674333
 21
2922.547327592089
 31
0.0
  0
LINE
  5
18E26
330
18DC4
100
AcDbEntity
  8
細線
100
AcDbLine
 10
1762.76959674333
 20
2922.547327592089
 30
0.0
 11
1762.76959674333
 21
2945.547327592089
 31
0.0
  0
LINE
  5
18E27
330
18DC4
100
AcDbEntity
  8
細線
100
AcDbLine
 10
1762.76959674333
 20
2945.547327592089
 30
0.0
 11
1688.76959674333
 21
2945.547327592089
 31
0.0
  0
LINE
  5
18E28
330
18DC4
100
AcDbEntity
  8
細線
100
AcDbLine
 10
1614.76959674333
 20
2922.547327592089
 30
0.0
 11
1688.76959674333
 21
2922.547327592089
 31
0.0
  0
LINE
  5
18E29
330
18DC4
100
AcDbEntity
  8
細線
100
AcDbLine
 10
1688.76959674333
 20
2945.547327592089
 30
0.0
 11
1614.76959674333
 21
2945.547327592089
 31
0.0
  0
LINE
  5
18E2A
330
18DC4
100
AcDbEntity
  8
細線
100
AcDbLine
 10
1688.769596743326
 20
2922.547327592089
 30
0.0
 11
1762.76959674333
 21
2922.547327592089
 31
0.0
  0
ARC
  5
18E2B
330
18DC4
100
AcDbEntity
  8
部品1
 48
0.01
100
AcDbCircle
 10
1600.76959674333
 20
2950.047327592089
 30
0.0
 40
2.0
100
AcDbArc
 50
90.0
 51
180.0
  0
ARC
  5
18E2C
330
18DC4
100
AcDbEntity
  8
部品1
 48
0.01
100
AcDbCircle
 10
1776.76959674333
 20
2950.047327592089
 30
0.0
 40
2.0
100
AcDbArc
 50
0.0
 51
90.0
  0
LINE
  5
18E2D
330
18DC4
100
AcDbEntity
  8
部品1
 48
50.0
100
AcDbLine
 10
3608.769596743326
 20
3121.047327592092
 30
0.0
 11
946.1780178497592
 21
3121.047327592092
 31
0.0
  0
LINE
  5
18E2E
330
18DC4
100
AcDbEntity
  8
部品1
 48
50.0
100
AcDbLine
 10
3618.769596743327
 20
2980.047327592092
 30
0.0
 11
959.3933413107933
 21
2980.047327592092
 31
0.0
  0
LINE
  5
18E2F
330
18DC4
100
AcDbEntity
  8
細線
 48
50.0
100
AcDbLine
 10
3608.769596743326
 20
3093.020570155561
 30
0.0
 11
940.9282477552897
 21
3093.020570155881
 31
0.0
  0
LINE
  5
18E30
330
18DC4
100
AcDbEntity
  8
細線
 48
50.0
100
AcDbLine
 10
3608.769596743326
 20
3000.820570155877
 30
0.0
 11
949.1642782801299
 21
3000.82057015588
 31
0.0
  0
LINE
  5
18E31
330
18DC4
100
AcDbEntity
  8
細線
 48
50.0
100
AcDbLine
 10
971.76959674333
 20
3121.047327592092
 30
0.0
 11
971.76959674333
 21
2980.047327592092
 31
0.0
  0
ARC
  5
18E32
330
18DC4
100
AcDbEntity
  8
部品1
100
AcDbCircle
 10
946.1780178497592
 20
3114.047327592092
 30
0.0
 40
7.0
100
AcDbArc
 50
90.0
 51
183.2473427903347
  0
ARC
  5
18E33
330
18DC4
100
AcDbEntity
  8
部品1
100
AcDbCircle
 10
959.3933413107933
 20
2987.047327592092
 30
0.0
 40
7.0
100
AcDbArc
 50
183.2473427903347
 51
270.0
  0
ARC
  5
18E34
330
18DC4
100
AcDbEntity
  8
部品1
 48
50.0
100
AcDbCircle
 10
941.0215311001175
 20
3093.71432675378
 30
0.0
 40
0.7
100
AcDbArc
 50
183.2473427903867
 51
262.3418727926365
  0
ARC
  5
18E35
330
18DC4
100
AcDbEntity
  8
部品1
 48
50.0
100
AcDbCircle
 10
949.2575616249578
 20
3001.514326753775
 30
0.0
 40
0.7
100
AcDbArc
 50
183.2473427902827
 51
262.3418727926365
  0
ARC
  5
18E36
330
18DC4
100
AcDbEntity
  8
部品1
 48
50.0
100
AcDbCircle
 10
948.7644925163968
 20
2997.847327592092
 30
0.0
 40
3.0
100
AcDbArc
 50
3.24734279033473
 51
82.34187279263654
  0
ARC
  5
18E37
330
18DC4
100
AcDbEntity
  8
部品1
 48
50.0
100
AcDbCircle
 10
940.5284619915528
 20
3090.047327592092
 30
0.0
 40
3.0
100
AcDbArc
 50
3.24734279033473
 51
82.34187279263654
  0
LINE
  5
18E38
330
18DC4
100
AcDbEntity
  8
部品1
100
AcDbLine
 10
943.5236448877386
 20
3090.217267047196
 30
0.0
 11
948.5586856158498
 21
3001.474674214252
 31
0.0
  0
LINE
  5
18E39
330
18DC4
100
AcDbEntity
  8
部品1
100
AcDbLine
 10
951.7596754125861
 20
2998.017267047195
 30
0.0
 11
952.4045812196945
 21
2986.650802196855
 31
0.0
  0
LINE
  5
18E3A
330
18DC4
100
AcDbEntity
  8
部品1
100
AcDbLine
 10
939.1892577586604
 20
3113.650802196851
 30
0.0
 11
940.3226550910094
 21
3093.674674214253
 31
0.0
  0
DIMENSION
  5
18E3B
330
18DC4
100
AcDbEntity
  8
寸法
 48
50.0
100
AcDbDimension
  2
*D35
 10
938.76959674333
 20
3520.140496931562
 30
0.0
 11
625.2843153690828
 21
3520.140496931562
 31
0.0
 12
-2440.903460380316
 22
-1772.21712692867
 32
0.0
 70
   128
 71
     5
 42
50.0
  3
INABA_S40G
100
AcDbAlignedDimension
 13
988.76959674333
 23
3121.047327592095
 33
0.0
 14
938.76959674333
 24
3121.047327592093
 34
0.0
100
AcDbRotatedDimension
1001
ACAD
1000
DSTYLE
1002
{
1002
}
  0
LINE
  5
18E3C
330
18DC4
100
AcDbEntity
  8
破線
 48
5.0
100
AcDbLine
 10
1091.769596743326
 20
746.0473275920885
 30
0.0
 11
1091.769596743326
 21
446.0473275920939
 31
0.0
  0
LINE
  5
18E3D
330
18DC4
100
AcDbEntity
  8
破線
 48
5.0
100
AcDbLine
 10
1091.769596743326
 20
746.0473275920885
 30
0.0
 11
1091.769596743326
 21
446.0473275920939
 31
0.0
  0
LINE
  5
18E3E
330
18DC4
100
AcDbEntity
  8
破線
 48
5.0
100
AcDbLine
 10
1091.769596743326
 20
446.0473275920939
 30
0.0
 11
1043.769596743326
 21
446.0473275920939
 31
0.0
  0
LINE
  5
18E3F
330
18DC4
100
AcDbEntity
  8
破線
 48
5.0
100
AcDbLine
 10
1091.769596743326
 20
446.0473275920939
 30
0.0
 11
1043.769596743326
 21
446.0473275920939
 31
0.0
  0
LINE
  5
18E40
330
18DC4
100
AcDbEntity
  8
破線
 48
5.0
100
AcDbLine
 10
1043.769596743326
 20
396.0473275920958
 30
0.0
 11
988.7695967433264
 21
396.0473275920958
 31
0.0
  0
LINE
  5
18E41
330
18DC4
100
AcDbEntity
  8
破線
 48
5.0
100
AcDbLine
 10
868.7695967433265
 20
346.0473275920886
 30
0.0
 11
1218.769596743326
 21
346.0473275920886
 31
0.0
  0
LINE
  5
18E42
330
18DC4
100
AcDbEntity
  8
破線
 48
5.0
100
AcDbLine
 10
868.7695967433265
 20
646.0473275920885
 30
0.0
 11
868.7695967433265
 21
346.0473275920886
 31
0.0
  0
LINE
  5
18E43
330
18DC4
100
AcDbEntity
  8
破線
 48
5.0
100
AcDbLine
 10
1218.769596743326
 20
646.0473275920885
 30
0.0
 11
1218.769596743326
 21
346.0473275920886
 31
0.0
  0
LINE
  5
18E44
330
18DC4
100
AcDbEntity
  8
破線
 48
5.0
100
AcDbLine
 10
988.7695967433264
 20
646.0473275920885
 30
0.0
 11
988.7695967433264
 21
396.0473275920886
 31
0.0
  0
LINE
  5
18E45
330
18DC4
100
AcDbEntity
  8
破線
 48
5.0
100
AcDbLine
 10
1043.769596743326
 20
746.0473275920885
 30
0.0
 11
1043.769596743326
 21
396.0473275920886
 31
0.0
  0
LINE
  5
18E46
330
18DC4
100
AcDbEntity
  8
破線
 48
5.0
100
AcDbLine
 10
1043.769596743326
 20
746.0473275920885
 30
0.0
 11
1043.769596743326
 21
396.0473275920886
 31
0.0
  0
ARC
  5
18E47
330
18DC4
100
AcDbEntity
  8
細線
 48
50.0
100
AcDbCircle
 10
2003.769596743326
 20
1308.547327592088
 30
0.0
 40
15.0
100
AcDbArc
 50
90.0
 51
270.0
  0
ARC
  5
18E48
330
18DC4
100
AcDbEntity
  8
細線
 48
50.0
100
AcDbCircle
 10
2103.769596743326
 20
1308.547327592088
 30
0.0
 40
15.0
100
AcDbArc
 50
270.0
 51
90.0
  0
LINE
  5
18E49
330
18DC4
100
AcDbEntity
  8
細線
 48
50.0
100
AcDbLine
 10
2003.769596743326
 20
1323.547327592088
 30
0.0
 11
2103.769596743326
 21
1323.547327592088
 31
0.0
  0
LINE
  5
18E4A
330
18DC4
100
AcDbEntity
  8
細線
 48
50.0
100
AcDbLine
 10
2103.769596743326
 20
1293.547327592089
 30
0.0
 11
2003.769596743326
 21
1293.547327592089
 31
0.0
  0
LINE
  5
18E4B
330
18DC4
100
AcDbEntity
  8
細線
 48
50.0
100
AcDbLine
 10
2603.769596743326
 20
1293.547327592089
 30
0.0
 11
2503.769596743327
 21
1293.547327592089
 31
0.0
  0
LINE
  5
18E4C
330
18DC4
100
AcDbEntity
  8
細線
 48
50.0
100
AcDbLine
 10
2503.769596743327
 20
1323.547327592088
 30
0.0
 11
2603.769596743326
 21
1323.547327592088
 31
0.0
  0
ARC
  5
18E4D
330
18DC4
100
AcDbEntity
  8
細線
 48
50.0
100
AcDbCircle
 10
2503.769596743327
 20
1308.547327592088
 30
0.0
 40
15.0
100
AcDbArc
 50
90.0
 51
270.0
  0
ARC
  5
18E4E
330
18DC4
100
AcDbEntity
  8
細線
 48
50.0
100
AcDbCircle
 10
2603.769596743326
 20
1308.547327592088
 30
0.0
 40
15.0
100
AcDbArc
 50
270.0
 51
90.0
  0
CIRCLE
  5
18E4F
330
18DC4
100
AcDbEntity
  8
細線
 48
50.0
100
AcDbCircle
 10
2303.769596743327
 20
1633.547327592088
 30
0.0
 40
18.0
  0
LINE
  5
18E50
330
18DC4
100
AcDbEntity
  8
細線
100
AcDbLine
 10
3515.769596743326
 20
756.0473275920885
 30
0.0
 11
1091.769596743323
 21
756.0473275920885
 31
0.0
  0
LINE
  5
18E51
330
18DC4
100
AcDbEntity
  8
細線
100
AcDbLine
 10
1091.769596743326
 20
1276.047327592088
 30
0.0
 11
3515.769596743326
 21
1276.047327592088
 31
0.0
  0
LINE
  5
18E52
330
18DC4
100
AcDbEntity
  8
細線
100
AcDbLine
 10
1091.769596743326
 20
1211.047327592088
 30
0.0
 11
3515.769596743326
 21
1211.047327592088
 31
0.0
  0
LINE
  5
18E53
330
18DC4
100
AcDbEntity
  8
細線
100
AcDbLine
 10
1091.769596743326
 20
1146.047327592088
 30
0.0
 11
3515.769596743326
 21
1146.047327592088
 31
0.0
  0
LINE
  5
18E54
330
18DC4
100
AcDbEntity
  8
細線
100
AcDbLine
 10
1091.769596743326
 20
1081.047327592088
 30
0.0
 11
3515.769596743326
 21
1081.047327592088
 31
0.0
  0
LINE
  5
18E55
330
18DC4
100
AcDbEntity
  8
細線
100
AcDbLine
 10
1091.769596743326
 20
1016.047327592088
 30
0.0
 11
3515.769596743326
 21
1016.047327592088
 31
0.0
  0
LINE
  5
18E56
330
18DC4
100
AcDbEntity
  8
細線
100
AcDbLine
 10
1091.769596743326
 20
951.0473275920885
 30
0.0
 11
3515.769596743326
 21
951.0473275920885
 31
0.0
  0
LINE
  5
18E57
330
18DC4
100
AcDbEntity
  8
細線
100
AcDbLine
 10
1091.769596743326
 20
886.0473275920885
 30
0.0
 11
3515.769596743326
 21
886.0473275920885
 31
0.0
  0
LINE
  5
18E58
330
18DC4
100
AcDbEntity
  8
細線
100
AcDbLine
 10
1091.769596743326
 20
821.0473275920886
 30
0.0
 11
3515.769596743326
 21
821.0473275920886
 31
0.0
  0
LINE
  5
18E59
330
18DC4
100
AcDbEntity
  8
細線
100
AcDbLine
 10
1091.769596743326
 20
756.0473275920885
 30
0.0
 11
3515.769596743326
 21
756.0473275920885
 31
0.0
  0
LINE
  5
18E5A
330
18DC4
100
AcDbEntity
  8
細線
100
AcDbLine
 10
1091.769596743326
 20
2576.047327592089
 30
0.0
 11
3515.769596743326
 21
2576.047327592089
 31
0.0
  0
LINE
  5
18E5B
330
18DC4
100
AcDbEntity
  8
細線
100
AcDbLine
 10
1091.769596743326
 20
2706.047327592088
 30
0.0
 11
3515.769596743326
 21
2706.047327592088
 31
0.0
  0
LINE
  5
18E5C
330
18DC4
100
AcDbEntity
  8
細線
100
AcDbLine
 10
1091.769596743326
 20
2641.047327592089
 30
0.0
 11
3515.769596743326
 21
2641.047327592089
 31
0.0
  0
LINE
  5
18E5D
330
18DC4
100
AcDbEntity
  8
細線
100
AcDbLine
 10
1091.769596743326
 20
1926.047327592089
 30
0.0
 11
3515.769596743326
 21
1926.047327592089
 31
0.0
  0
LINE
  5
18E5E
330
18DC4
100
AcDbEntity
  8
細線
100
AcDbLine
 10
1091.769596743326
 20
1861.047327592088
 30
0.0
 11
3515.769596743326
 21
1861.047327592088
 31
0.0
  0
LINE
  5
18E5F
330
18DC4
100
AcDbEntity
  8
細線
100
AcDbLine
 10
1091.769596743326
 20
1796.047327592089
 30
0.0
 11
3515.769596743326
 21
1796.047327592089
 31
0.0
  0
LINE
  5
18E60
330
18DC4
100
AcDbEntity
  8
細線
100
AcDbLine
 10
1091.769596743326
 20
1731.047327592088
 30
0.0
 11
3515.769596743326
 21
1731.047327592088
 31
0.0
  0
LINE
  5
18E61
330
18DC4
100
AcDbEntity
  8
細線
100
AcDbLine
 10
1091.769596743326
 20
1666.047327592088
 30
0.0
 11
3515.769596743326
 21
1666.047327592088
 31
0.0
  0
LINE
  5
18E62
330
18DC4
100
AcDbEntity
  8
細線
100
AcDbLine
 10
1091.769596743326
 20
1601.047327592089
 30
0.0
 11
3515.769596743326
 21
1601.047327592089
 31
0.0
  0
LINE
  5
18E63
330
18DC4
100
AcDbEntity
  8
細線
100
AcDbLine
 10
1091.769596743326
 20
1536.047327592088
 30
0.0
 11
3515.769596743326
 21
1536.047327592088
 31
0.0
  0
LINE
  5
18E64
330
18DC4
100
AcDbEntity
  8
細線
100
AcDbLine
 10
1091.769596743326
 20
1471.047327592089
 30
0.0
 11
3515.769596743326
 21
1471.047327592089
 31
0.0
  0
LINE
  5
18E65
330
18DC4
100
AcDbEntity
  8
細線
100
AcDbLine
 10
1091.769596743326
 20
1406.047327592088
 30
0.0
 11
3515.769596743326
 21
1406.047327592088
 31
0.0
  0
LINE
  5
18E66
330
18DC4
100
AcDbEntity
  8
細線
100
AcDbLine
 10
1091.769596743326
 20
1341.047327592088
 30
0.0
 11
3515.769596743326
 21
1341.047327592088
 31
0.0
  0
LINE
  5
18E67
330
18DC4
100
AcDbEntity
  8
細線
100
AcDbLine
 10
1091.769596743326
 20
2316.047327592089
 30
0.0
 11
3515.769596743326
 21
2316.047327592089
 31
0.0
  0
LINE
  5
18E68
330
18DC4
100
AcDbEntity
  8
細線
100
AcDbLine
 10
1091.769596743326
 20
2251.047327592089
 30
0.0
 11
3515.769596743326
 21
2251.047327592089
 31
0.0
  0
LINE
  5
18E69
330
18DC4
100
AcDbEntity
  8
細線
100
AcDbLine
 10
1091.769596743326
 20
2186.047327592088
 30
0.0
 11
3515.769596743326
 21
2186.047327592088
 31
0.0
  0
LINE
  5
18E6A
330
18DC4
100
AcDbEntity
  8
細線
100
AcDbLine
 10
1091.769596743326
 20
2121.047327592089
 30
0.0
 11
3515.769596743326
 21
2121.047327592089
 31
0.0
  0
LINE
  5
18E6B
330
18DC4
100
AcDbEntity
  8
細線
100
AcDbLine
 10
1091.769596743326
 20
2056.047327592088
 30
0.0
 11
3515.769596743326
 21
2056.047327592088
 31
0.0
  0
LINE
  5
18E6C
330
18DC4
100
AcDbEntity
  8
細線
100
AcDbLine
 10
1091.769596743326
 20
1991.047327592088
 30
0.0
 11
3515.769596743326
 21
1991.047327592088
 31
0.0
  0
LINE
  5
18E6D
330
18DC4
100
AcDbEntity
  8
細線
100
AcDbLine
 10
1091.769596743326
 20
2511.047327592089
 30
0.0
 11
3515.769596743326
 21
2511.047327592089
 31
0.0
  0
LINE
  5
18E6E
330
18DC4
100
AcDbEntity
  8
細線
100
AcDbLine
 10
1091.769596743326
 20
2446.047327592089
 30
0.0
 11
3515.769596743326
 21
2446.047327592089
 31
0.0
  0
LINE
  5
18E6F
330
18DC4
100
AcDbEntity
  8
細線
100
AcDbLine
 10
1091.769596743326
 20
2381.047327592089
 30
0.0
 11
3515.769596743326
 21
2381.047327592089
 31
0.0
  0
LINE
  5
18E70
330
18DC4
100
AcDbEntity
  8
部品1
100
AcDbLine
 10
1043.769596743326
 20
2721.047327592089
 30
0.0
 11
3563.769596743327
 21
2721.047327592089
 31
0.0
  0
LINE
  5
18E71
330
18DC4
100
AcDbEntity
  8
部品1
100
AcDbLine
 10
3515.769596743331
 20
2721.047327592089
 30
0.0
 11
3515.769596743326
 21
746.0473275920885
 31
0.0
  0
LINE
  5
18E72
330
18DC4
100
AcDbEntity
  8
部品1
100
AcDbLine
 10
1091.769596743326
 20
2721.047327592089
 30
0.0
 11
1091.769596743326
 21
746.0473275920885
 31
0.0
  0
LINE
  5
18E73
330
18DC4
100
AcDbEntity
  8
部品1
100
AcDbLine
 10
1043.769596743326
 20
2886.047327592089
 30
0.0
 11
1043.769596743326
 21
746.0473275920885
 31
0.0
  0
LINE
  5
18E74
330
18DC4
100
AcDbEntity
  8
部品1
100
AcDbLine
 10
3563.769596743327
 20
2886.047327592089
 30
0.0
 11
3563.769596743327
 21
746.0473275920885
 31
0.0
  0
LINE
  5
18E75
330
18DC4
100
AcDbEntity
  8
部品1
100
AcDbLine
 10
988.7695967433264
 20
2980.047327592092
 30
0.0
 11
988.7695967433264
 21
646.0473275920885
 31
0.0
  0
LINE
  5
18E76
330
18DC4
100
AcDbEntity
  8
部品1
100
AcDbLine
 10
988.7695967433264
 20
2886.047327592089
 30
0.0
 11
3618.769596743327
 21
2886.047327592089
 31
0.0
  0
LINE
  5
18E77
330
18DC4
100
AcDbEntity
  8
部品1
100
AcDbLine
 10
988.7695967433264
 20
746.0473275920885
 30
0.0
 11
3618.769596743327
 21
746.0473275920885
 31
0.0
  0
LINE
  5
18E78
330
18DC4
100
AcDbEntity
  8
部品1
100
AcDbLine
 10
150.0000053969434
 20
775.9511381597531
 30
0.0
 11
75.00000539694338
 21
646.0473275920885
 31
0.0
  0
TEXT
  5
18E79
330
18DC4
100
AcDbEntity
  8
部品1
100
AcDbText
 10
178.1049475217169
 20
682.1542311979901
 30
0.0
 40
125.0
  1
G.L
  7
MSGOTHIC
100
AcDbText
  0
LINE
  5
18E7A
330
18DC4
100
AcDbEntity
  8
部品1
100
AcDbLine
 10
75.00000539694338
 20
646.0473275920885
 30
0.0
 11
0.0000053969433793
 21
775.9511381597531
 31
0.0
  0
LINE
  5
18E7B
330
18DC4
100
AcDbEntity
  8
部品1
100
AcDbLine
 10
0.0000053969433793
 20
775.9511381597531
 30
0.0
 11
150.0000053969434
 21
775.9511381597531
 31
0.0
  0
LINE
  5
18E7C
330
18DC4
100
AcDbEntity
  8
部品1
100
AcDbLine
 10
3618.769596743325
 20
746.0473275920885
 30
0.0
 11
6248.769596743325
 21
746.0473275920885
 31
0.0
  0
LINE
  5
18E7D
330
18DC4
100
AcDbEntity
  8
部品1
100
AcDbLine
 10
3618.769596743325
 20
2886.047327592089
 30
0.0
 11
6248.769596743325
 21
2886.047327592089
 31
0.0
  0
LINE
  5
18E7E
330
18DC4
100
AcDbEntity
  8
部品1
100
AcDbLine
 10
6193.769596743325
 20
2886.047327592089
 30
0.0
 11
6193.769596743325
 21
746.0473275920885
 31
0.0
  0
LINE
  5
18E7F
330
18DC4
100
AcDbEntity
  8
部品1
100
AcDbLine
 10
3673.769596743325
 20
2886.047327592089
 30
0.0
 11
3673.769596743325
 21
746.0473275920885
 31
0.0
  0
LINE
  5
18E80
330
18DC4
100
AcDbEntity
  8
部品1
100
AcDbLine
 10
6248.769596743325
 20
2980.047327592092
 30
0.0
 11
6248.769596743325
 21
646.0473275920885
 31
0.0
  0
LINE
  5
18E81
330
18DC4
100
AcDbEntity
  8
部品1
100
AcDbLine
 10
3721.769596743325
 20
2721.047327592089
 30
0.0
 11
3721.769596743325
 21
746.0473275920885
 31
0.0
  0
LINE
  5
18E82
330
18DC4
100
AcDbEntity
  8
部品1
100
AcDbLine
 10
6145.769596743328
 20
2721.047327592089
 30
0.0
 11
6145.769596743324
 21
746.0473275920885
 31
0.0
  0
LINE
  5
18E83
330
18DC4
100
AcDbEntity
  8
部品1
100
AcDbLine
 10
3673.769596743325
 20
2721.047327592089
 30
0.0
 11
6193.769596743325
 21
2721.047327592089
 31
0.0
  0
LINE
  5
18E84
330
18DC4
100
AcDbEntity
  8
細線
100
AcDbLine
 10
3721.769596743325
 20
2381.047327592089
 30
0.0
 11
6145.769596743324
 21
2381.047327592089
 31
0.0
  0
LINE
  5
18E85
330
18DC4
100
AcDbEntity
  8
細線
100
AcDbLine
 10
3721.769596743325
 20
2446.047327592089
 30
0.0
 11
6145.769596743324
 21
2446.047327592089
 31
0.0
  0
LINE
  5
18E86
330
18DC4
100
AcDbEntity
  8
細線
100
AcDbLine
 10
3721.769596743325
 20
2511.047327592089
 30
0.0
 11
6145.769596743324
 21
2511.047327592089
 31
0.0
  0
LINE
  5
18E87
330
18DC4
100
AcDbEntity
  8
細線
100
AcDbLine
 10
3721.769596743325
 20
1991.047327592088
 30
0.0
 11
6145.769596743324
 21
1991.047327592088
 31
0.0
  0
LINE
  5
18E88
330
18DC4
100
AcDbEntity
  8
細線
100
AcDbLine
 10
3721.769596743325
 20
2056.047327592088
 30
0.0
 11
6145.769596743324
 21
2056.047327592088
 31
0.0
  0
LINE
  5
18E89
330
18DC4
100
AcDbEntity
  8
細線
100
AcDbLine
 10
3721.769596743325
 20
2121.047327592089
 30
0.0
 11
6145.769596743324
 21
2121.047327592089
 31
0.0
  0
LINE
  5
18E8A
330
18DC4
100
AcDbEntity
  8
細線
100
AcDbLine
 10
3721.769596743325
 20
2186.047327592088
 30
0.0
 11
6145.769596743324
 21
2186.047327592088
 31
0.0
  0
LINE
  5
18E8B
330
18DC4
100
AcDbEntity
  8
細線
100
AcDbLine
 10
3721.769596743325
 20
2251.047327592089
 30
0.0
 11
6145.769596743324
 21
2251.047327592089
 31
0.0
  0
LINE
  5
18E8C
330
18DC4
100
AcDbEntity
  8
細線
100
AcDbLine
 10
3721.769596743325
 20
2316.047327592089
 30
0.0
 11
6145.769596743324
 21
2316.047327592089
 31
0.0
  0
LINE
  5
18E8D
330
18DC4
100
AcDbEntity
  8
細線
100
AcDbLine
 10
3721.769596743325
 20
1341.047327592088
 30
0.0
 11
6145.769596743324
 21
1341.047327592088
 31
0.0
  0
LINE
  5
18E8E
330
18DC4
100
AcDbEntity
  8
細線
100
AcDbLine
 10
3721.769596743325
 20
1406.047327592088
 30
0.0
 11
6145.769596743324
 21
1406.047327592088
 31
0.0
  0
LINE
  5
18E8F
330
18DC4
100
AcDbEntity
  8
細線
100
AcDbLine
 10
3721.769596743325
 20
1471.047327592089
 30
0.0
 11
6145.769596743324
 21
1471.047327592089
 31
0.0
  0
LINE
  5
18E90
330
18DC4
100
AcDbEntity
  8
細線
100
AcDbLine
 10
3721.769596743325
 20
1536.047327592088
 30
0.0
 11
6145.769596743324
 21
1536.047327592088
 31
0.0
  0
LINE
  5
18E91
330
18DC4
100
AcDbEntity
  8
細線
100
AcDbLine
 10
3721.769596743325
 20
1601.047327592089
 30
0.0
 11
6145.769596743324
 21
1601.047327592089
 31
0.0
  0
LINE
  5
18E92
330
18DC4
100
AcDbEntity
  8
細線
100
AcDbLine
 10
3721.769596743325
 20
1666.047327592088
 30
0.0
 11
6145.769596743324
 21
1666.047327592088
 31
0.0
  0
LINE
  5
18E93
330
18DC4
100
AcDbEntity
  8
細線
100
AcDbLine
 10
3721.769596743325
 20
1731.047327592088
 30
0.0
 11
6145.769596743324
 21
1731.047327592088
 31
0.0
  0
LINE
  5
18E94
330
18DC4
100
AcDbEntity
  8
細線
100
AcDbLine
 10
3721.769596743325
 20
1796.047327592089
 30
0.0
 11
6145.769596743324
 21
1796.047327592089
 31
0.0
  0
LINE
  5
18E95
330
18DC4
100
AcDbEntity
  8
細線
100
AcDbLine
 10
3721.769596743325
 20
1861.047327592088
 30
0.0
 11
6145.769596743324
 21
1861.047327592088
 31
0.0
  0
LINE
  5
18E96
330
18DC4
100
AcDbEntity
  8
細線
100
AcDbLine
 10
3721.769596743325
 20
1926.047327592089
 30
0.0
 11
6145.769596743324
 21
1926.047327592089
 31
0.0
  0
LINE
  5
18E97
330
18DC4
100
AcDbEntity
  8
細線
100
AcDbLine
 10
3721.769596743325
 20
2641.047327592089
 30
0.0
 11
6145.769596743324
 21
2641.047327592089
 31
0.0
  0
LINE
  5
18E98
330
18DC4
100
AcDbEntity
  8
細線
100
AcDbLine
 10
3721.769596743325
 20
2706.047327592088
 30
0.0
 11
6145.769596743324
 21
2706.047327592088
 31
0.0
  0
LINE
  5
18E99
330
18DC4
100
AcDbEntity
  8
細線
100
AcDbLine
 10
3721.769596743325
 20
2576.047327592089
 30
0.0
 11
6145.769596743324
 21
2576.047327592089
 31
0.0
  0
LINE
  5
18E9A
330
18DC4
100
AcDbEntity
  8
細線
100
AcDbLine
 10
3721.769596743325
 20
756.0473275920885
 30
0.0
 11
6145.769596743324
 21
756.0473275920885
 31
0.0
  0
LINE
  5
18E9B
330
18DC4
100
AcDbEntity
  8
細線
100
AcDbLine
 10
3721.769596743325
 20
821.0473275920886
 30
0.0
 11
6145.769596743324
 21
821.0473275920886
 31
0.0
  0
LINE
  5
18E9C
330
18DC4
100
AcDbEntity
  8
細線
100
AcDbLine
 10
3721.769596743325
 20
886.0473275920885
 30
0.0
 11
6145.769596743324
 21
886.0473275920885
 31
0.0
  0
LINE
  5
18E9D
330
18DC4
100
AcDbEntity
  8
細線
100
AcDbLine
 10
3721.769596743325
 20
951.0473275920885
 30
0.0
 11
6145.769596743324
 21
951.0473275920885
 31
0.0
  0
LINE
  5
18E9E
330
18DC4
100
AcDbEntity
  8
細線
100
AcDbLine
 10
3721.769596743325
 20
1016.047327592088
 30
0.0
 11
6145.769596743324
 21
1016.047327592088
 31
0.0
  0
LINE
  5
18E9F
330
18DC4
100
AcDbEntity
  8
細線
100
AcDbLine
 10
3721.769596743325
 20
1081.047327592088
 30
0.0
 11
6145.769596743324
 21
1081.047327592088
 31
0.0
  0
LINE
  5
18EA0
330
18DC4
100
AcDbEntity
  8
細線
100
AcDbLine
 10
3721.769596743325
 20
1146.047327592088
 30
0.0
 11
6145.769596743324
 21
1146.047327592088
 31
0.0
  0
LINE
  5
18EA1
330
18DC4
100
AcDbEntity
  8
細線
100
AcDbLine
 10
3721.769596743325
 20
1211.047327592088
 30
0.0
 11
6145.769596743324
 21
1211.047327592088
 31
0.0
  0
LINE
  5
18EA2
330
18DC4
100
AcDbEntity
  8
細線
100
AcDbLine
 10
3721.769596743325
 20
1276.047327592088
 30
0.0
 11
6145.769596743324
 21
1276.047327592088
 31
0.0
  0
LINE
  5
18EA3
330
18DC4
100
AcDbEntity
  8
細線
100
AcDbLine
 10
6145.769596743324
 20
756.0473275920885
 30
0.0
 11
3721.769596743321
 21
756.0473275920885
 31
0.0
  0
CIRCLE
  5
18EA4
330
18DC4
100
AcDbEntity
  8
細線
 48
50.0
100
AcDbCircle
 10
4933.769596743324
 20
1633.547327592088
 30
0.0
 40
18.0
  0
ARC
  5
18EA5
330
18DC4
100
AcDbEntity
  8
細線
 48
50.0
100
AcDbCircle
 10
5233.769596743325
 20
1308.547327592088
 30
0.0
 40
15.0
100
AcDbArc
 50
270.0
 51
90.0
  0
ARC
  5
18EA6
330
18DC4
100
AcDbEntity
  8
細線
 48
50.0
100
AcDbCircle
 10
5133.769596743325
 20
1308.547327592088
 30
0.0
 40
15.0
100
AcDbArc
 50
90.0
 51
270.0
  0
LINE
  5
18EA7
330
18DC4
100
AcDbEntity
  8
細線
 48
50.0
100
AcDbLine
 10
5133.769596743325
 20
1323.547327592088
 30
0.0
 11
5233.769596743325
 21
1323.547327592088
 31
0.0
  0
LINE
  5
18EA8
330
18DC4
100
AcDbEntity
  8
細線
 48
50.0
100
AcDbLine
 10
5233.769596743325
 20
1293.547327592089
 30
0.0
 11
5133.769596743325
 21
1293.547327592089
 31
0.0
  0
LINE
  5
18EA9
330
18DC4
100
AcDbEntity
  8
細線
 48
50.0
100
AcDbLine
 10
4733.769596743324
 20
1293.547327592089
 30
0.0
 11
4633.769596743325
 21
1293.547327592089
 31
0.0
  0
LINE
  5
18EAA
330
18DC4
100
AcDbEntity
  8
細線
 48
50.0
100
AcDbLine
 10
4633.769596743325
 20
1323.547327592088
 30
0.0
 11
4733.769596743324
 21
1323.547327592088
 31
0.0
  0
ARC
  5
18EAB
330
18DC4
100
AcDbEntity
  8
細線
 48
50.0
100
AcDbCircle
 10
4733.769596743324
 20
1308.547327592088
 30
0.0
 40
15.0
100
AcDbArc
 50
270.0
 51
90.0
  0
ARC
  5
18EAC
330
18DC4
100
AcDbEntity
  8
細線
 48
50.0
100
AcDbCircle
 10
4633.769596743325
 20
1308.547327592088
 30
0.0
 40
15.0
100
AcDbArc
 50
90.0
 51
270.0
  0
LINE
  5
18EAD
330
18DC4
100
AcDbEntity
  8
破線
 48
5.0
100
AcDbLine
 10
6193.769596743325
 20
746.0473275920885
 30
0.0
 11
6193.769596743325
 21
396.0473275920886
 31
0.0
  0
LINE
  5
18EAE
330
18DC4
100
AcDbEntity
  8
破線
 48
5.0
100
AcDbLine
 10
6248.769596743325
 20
646.0473275920885
 30
0.0
 11
6248.769596743325
 21
396.0473275920886
 31
0.0
  0
LINE
  5
18EAF
330
18DC4
100
AcDbEntity
  8
破線
 48
5.0
100
AcDbLine
 10
6368.769596743328
 20
646.0473275920885
 30
0.0
 11
6368.769596743328
 21
346.0473275920886
 31
0.0
  0
LINE
  5
18EB0
330
18DC4
100
AcDbEntity
  8
破線
 48
5.0
100
AcDbLine
 10
6018.769596743329
 20
646.0473275920885
 30
0.0
 11
6018.769596743329
 21
346.0473275920886
 31
0.0
  0
DIMENSION
  5
18EB1
330
18DC4
100
AcDbEntity
  8
寸法
 48
50.0
100
AcDbDimension
  2
*D34
 10
6018.769596743325
 20
59.99999829171065
 30
0.0
 11
6193.769596743326
 21
159.9999982917106
 31
0.0
 12
-2440.903460380316
 22
-1772.21712692867
 32
0.0
 71
     5
 42
350.0000000000036
  3
INABA_S40G
100
AcDbAlignedDimension
 13
6368.769596743328
 23
346.0473275920886
 33
0.0
 14
6018.769596743325
 24
346.0473275920886
 34
0.0
100
AcDbRotatedDimension
  0
LINE
  5
18EB2
330
18DC4
100
AcDbEntity
  8
破線
 48
5.0
100
AcDbLine
 10
6368.769596743328
 20
346.0473275920886
 30
0.0
 11
6018.769596743325
 21
346.0473275920886
 31
0.0
  0
LINE
  5
18EB3
330
18DC4
100
AcDbEntity
  8
破線
 48
5.0
100
AcDbLine
 10
6248.769596743325
 20
396.0473275920886
 30
0.0
 11
6193.769596743325
 21
396.0473275920886
 31
0.0
  0
LINE
  5
18EB4
330
18DC4
100
AcDbEntity
  8
破線
 48
5.0
100
AcDbLine
 10
6145.769596743324
 20
746.0473275920885
 30
0.0
 11
6145.769596743324
 21
446.0473275920885
 31
0.0
  0
LINE
  5
18EB5
330
18DC4
100
AcDbEntity
  8
破線
 48
5.0
100
AcDbLine
 10
6193.769596743329
 20
446.0473275920885
 30
0.0
 11
6145.769596743324
 21
446.0473275920885
 31
0.0
  0
DIMENSION
  5
18EB6
330
18DC4
100
AcDbEntity
  8
寸法
 48
50.0
100
AcDbDimension
  2
*D33
 10
988.76959674333
 20
3520.140496931562
 30
0.0
 11
3618.76959674333
 21
3520.140496931562
 31
0.0
 12
-2440.903460380316
 22
-1772.21712692867
 32
0.0
 70
   128
  1
柱外寸法<>
 71
     5
 42
5259.999999999998
  3
INABA_S40G
100
AcDbAlignedDimension
 13
6248.769596743328
 23
3121.047327592093
 33
0.0
 14
988.76959674333
 24
3121.047327592095
 34
0.0
100
AcDbRotatedDimension
  0
DIMENSION
  5
18EB7
330
18DC4
100
AcDbEntity
  8
寸法
 48
50.0
100
AcDbDimension
  2
*D32
 10
6248.769596743328
 20
3520.140496931562
 30
0.0
 11
6612.254878117565
 21
3520.140496931562
 31
0.0
 12
-2440.903460380316
 22
-1772.21712692867
 32
0.0
 70
   128
 71
     5
 42
50.0
  3
INABA_S40G
100
AcDbAlignedDimension
 13
6298.769596743328
 23
3121.047327592092
 33
0.0
 14
6248.769596743328
 24
3121.047327592093
 34
0.0
100
AcDbRotatedDimension
  0
DIMENSION
  5
18EB8
330
18DC4
100
AcDbEntity
  8
寸法
 48
50.0
100
AcDbDimension
  2
*D31
 10
6298.769596743328
 20
3736.666596550007
 30
0.0
 11
3618.769596743327
 21
3736.666596550007
 31
0.0
 12
-2440.903460380316
 22
-1772.21712692867
 32
0.0
 70
   128
 71
     5
 42
5359.999999999998
  3
INABA_S40G
100
AcDbAlignedDimension
 13
938.76959674333
 23
3121.047327592093
 33
0.0
 14
6298.769596743328
 24
3121.047327592092
 34
0.0
100
AcDbRotatedDimension
  0
ARC
  5
18EB9
330
18DC4
100
AcDbEntity
  8
部品1
100
AcDbCircle
 10
6291.361175636896
 20
3114.047327592092
 30
0.0
 40
7.0
100
AcDbArc
 50
356.7526572096653
 51
90.0
  0
ARC
  5
18EBA
330
18DC4
100
AcDbEntity
  8
部品1
100
AcDbCircle
 10
6278.145852175861
 20
2987.047327592092
 30
0.0
 40
7.0
100
AcDbArc
 50
270.0
 51
356.7526572096653
  0
ARC
  5
18EBB
330
18DC4
100
AcDbEntity
  8
部品1
 48
50.0
100
AcDbCircle
 10
6296.517662386541
 20
3093.71432675378
 30
0.0
 40
0.7
100
AcDbArc
 50
277.6581272073635
 51
356.7526572096132
  0
ARC
  5
18EBC
330
18DC4
100
AcDbEntity
  8
部品1
 48
50.0
100
AcDbCircle
 10
6288.281631861696
 20
3001.514326753775
 30
0.0
 40
0.7
100
AcDbArc
 50
277.6581272073635
 51
356.7526572097173
  0
ARC
  5
18EBD
330
18DC4
100
AcDbEntity
  8
部品1
 48
50.0
100
AcDbCircle
 10
6288.774700970257
 20
2997.847327592092
 30
0.0
 40
3.0
100
AcDbArc
 50
97.65812720736347
 51
176.7526572096653
  0
ARC
  5
18EBE
330
18DC4
100
AcDbEntity
  8
部品1
 48
50.0
100
AcDbCircle
 10
6297.010731495102
 20
3090.047327592092
 30
0.0
 40
3.0
100
AcDbArc
 50
97.65812720736347
 51
176.7526572096653
  0
LINE
  5
18EBF
330
18DC4
100
AcDbEntity
  8
部品1
100
AcDbLine
 10
6294.015548598917
 20
3090.217267047196
 30
0.0
 11
6288.980507870805
 21
3001.474674214252
 31
0.0
  0
LINE
  5
18EC0
330
18DC4
100
AcDbEntity
  8
部品1
100
AcDbLine
 10
6285.779518074072
 20
2998.017267047195
 30
0.0
 11
6285.13461226696
 21
2986.650802196855
 31
0.0
  0
LINE
  5
18EC1
330
18DC4
100
AcDbEntity
  8
細線
 48
50.0
100
AcDbLine
 10
6265.769596743329
 20
3121.047327592092
 30
0.0
 11
6265.769596743329
 21
2980.047327592092
 31
0.0
  0
LINE
  5
18EC2
330
18DC4
100
AcDbEntity
  8
部品1
100
AcDbLine
 10
6298.349935727994
 20
3113.650802196851
 30
0.0
 11
6297.216538395649
 21
3093.674674214253
 31
0.0
  0
LINE
  5
18EC3
330
18DC4
100
AcDbEntity
  8
細線
 48
50.0
100
AcDbLine
 10
6288.374915206568
 20
3000.82057015556
 30
0.0
 11
3608.769596743326
 21
3000.82057015588
 31
0.0
  0
LINE
  5
18EC4
330
18DC4
100
AcDbEntity
  8
細線
 48
50.0
100
AcDbLine
 10
6296.610945731412
 20
3093.020570155561
 30
0.0
 11
3608.769596743326
 21
3093.020570155561
 31
0.0
  0
LINE
  5
18EC5
330
18DC4
100
AcDbEntity
  8
部品1
 48
50.0
100
AcDbLine
 10
6278.145852175861
 20
2980.047327592092
 30
0.0
 11
3618.769596743327
 21
2980.047327592092
 31
0.0
  0
LINE
  5
18EC6
330
18DC4
100
AcDbEntity
  8
部品1
 48
50.0
100
AcDbLine
 10
6291.361175636896
 20
3121.047327592092
 30
0.0
 11
3608.769596743326
 21
3121.047327592092
 31
0.0
  0
ENDBLK
  5
18EC8
330
18DC4
100
AcDbEntity
  8
0
 48
50.0
100
AcDbBlockEnd
  0
BLOCK
  5
18F19
330
18F0B
100
AcDbEntity
  8
0
 48
50.0
100
AcDbBlockBegin
  2
A$C4B7C0B65
 70
     0
 10
0.0
 20
0.0
 30
0.0
  3
A$C4B7C0B65
  1

  0
LINE
  5
18F0C
330
18F0B
100
AcDbEntity
  8
破線
 48
5.0
100
AcDbLine
 10
103.0000000000009
 20
-2140.0
 30
0.0
 11
102.9999999999991
 21
-2389.999999999995
 31
0.0
  0
LINE
  5
18F0D
330
18F0B
100
AcDbEntity
  8
破線
 48
5.0
100
AcDbLine
 10
103.0000000000009
 20
-2140.0
 30
0.0
 11
102.9999999999991
 21
-2389.999999999995
 31
0.0
  0
LINE
  5
18F0E
330
18F0B
100
AcDbEntity
  8
破線
 48
5.0
100
AcDbLine
 10
103.0
 20
-2389.999999999995
 30
0.0
 11
54.99999999999909
 21
-2389.999999999995
 31
0.0
  0
LINE
  5
18F0F
330
18F0B
100
AcDbEntity
  8
破線
 48
5.0
100
AcDbLine
 10
103.0
 20
-2389.999999999995
 30
0.0
 11
54.99999999999909
 21
-2389.999999999995
 31
0.0
  0
LINE
  5
18F10
330
18F0B
100
AcDbEntity
  8
破線
 48
5.0
100
AcDbLine
 10
54.99999999999909
 20
-2489.999999999993
 30
0.0
 11
0.0
 21
-2489.999999999993
 31
0.0
  0
LINE
  5
18F11
330
18F0B
100
AcDbEntity
  8
破線
 48
5.0
100
AcDbLine
 10
0.0000000000009095
 20
-2240.0
 30
0.0
 11
0.0
 21
-2490.0
 31
0.0
  0
LINE
  5
18F12
330
18F0B
100
AcDbEntity
  8
破線
 48
5.0
100
AcDbLine
 10
55.00000000000091
 20
-2140.0
 30
0.0
 11
55.0
 21
-2490.0
 31
0.0
  0
LINE
  5
18F13
330
18F0B
100
AcDbEntity
  8
破線
 48
5.0
100
AcDbLine
 10
55.00000000000091
 20
-2140.0
 30
0.0
 11
55.0
 21
-2490.0
 31
0.0
  0
LINE
  5
18F14
330
18F0B
100
AcDbEntity
  8
破線
 48
5.0
100
AcDbLine
 10
2575.000000000003
 20
-2390.0
 30
0.0
 11
2527.000000000001
 21
-2390.0
 31
0.0
  0
LINE
  5
18F15
330
18F0B
100
AcDbEntity
  8
破線
 48
5.0
100
AcDbLine
 10
2526.999999999999
 20
-2140.0
 30
0.0
 11
2527.000000000002
 21
-2390.0
 31
0.0
  0
LINE
  5
18F16
330
18F0B
100
AcDbEntity
  8
破線
 48
5.0
100
AcDbLine
 10
2629.999999999999
 20
-2490.0
 30
0.0
 11
2575.000000000001
 21
-2490.0
 31
0.0
  0
LINE
  5
18F17
330
18F0B
100
AcDbEntity
  8
破線
 48
5.0
100
AcDbLine
 10
2630.000000000001
 20
-2240.0
 30
0.0
 11
2630.000000000001
 21
-2490.0
 31
0.0
  0
LINE
  5
18F18
330
18F0B
100
AcDbEntity
  8
破線
 48
5.0
100
AcDbLine
 10
2574.999999999999
 20
-2140.0
 30
0.0
 11
2575.000000000001
 21
-2490.0
 31
0.0
  0
ENDBLK
  5
18F1A
330
18F0B
100
AcDbEntity
  8
0
 48
50.0
100
AcDbBlockEnd
  0
ENDSEC
  0
SECTION
  2
ENTITIES
  0
MTEXT
  5
763F
330
747D
100
AcDbEntity
  8
0
100
AcDbMText
 10
302.846345836809
 20
280.1983726409901
 30
0.0
 40
3.5
 41
5.323721266742722
 71
     1
 72
     5
  1

  7
MSMINCHO
 73
     1
 44
1.0
1001
ACAD
1000
MTEXTBEGIN
1070
    73
1070
     1
1070
    44
1040
1.0
1070
    74
1070
     0
1000
MTEXTEND
  0
LINE
  5
10B57
330
747D
100
AcDbEntity
  8
補助
  6
PHANTOM
 62
   230
 48
50.0
100
AcDbLine
 10
139.9999999999995
 20
11409.6
 30
0.0
 11
16307.2
 21
11409.6
 31
0.0
  0
LINE
  5
10B59
330
747D
100
AcDbEntity
  8
仕様書枠
  6
Continuous
 48
50.0
100
AcDbLine
 10
13107.2
 20
1200.0
 30
0.0
 11
13107.2
 21
-0.0000000000000729
 31
0.0
  0
LINE
  5
10B5C
330
747D
100
AcDbEntity
  8
仕様書枠
 48
50.0
100
AcDbLine
 10
16307.2
 20
1200.0
 30
0.0
 11
16307.2
 21
-0.0000000000000909
 31
0.0
  0
LINE
  5
10B5D
330
747D
100
AcDbEntity
  8
仕様書枠
 48
50.0
100
AcDbLine
 10
140.0
 20
0.0
 30
0.0
 11
16307.2
 21
-0.0000000000000909
 31
0.0
  0
LINE
  5
10B5E
330
747D
100
AcDbEntity
  8
補助
  6
PHANTOM
 62
   230
 48
50.0
100
AcDbLine
 10
16307.2
 20
11409.6
 30
0.0
 11
16307.2
 21
1200.0
 31
0.0
  0
LINE
  5
10B6C
330
747D
100
AcDbEntity
  8
仕様書枠
 48
50.0
100
AcDbLine
 10
13107.2
 20
1200.0
 30
0.0
 11
16307.2
 21
1200.0
 31
0.0
  0
LINE
  5
10B6D
330
747D
100
AcDbEntity
  8
補助
  6
PHANTOM
 62
   230
 48
50.0
100
AcDbLine
 10
13107.2
 20
11409.6
 30
0.0
 11
13107.2
 21
4800.0
 31
0.0
  0
LINE
  5
10B6F
330
747D
100
AcDbEntity
  8
補助
  6
PHANTOM
 62
   230
 48
50.0
100
AcDbLine
 10
13107.2
 20
4800.0
 30
0.0
 11
16307.2
 21
4800.0
 31
0.0
  0
LINE
  5
10B72
330
747D
100
AcDbEntity
  8
文字
 62
     7
 48
50.0
100
AcDbLine
 10
13187.2
 20
400.0
 30
0.0
 11
16227.2
 21
400.0
 31
0.0
  0
TEXT
  5
10B73
330
747D
100
AcDbEntity
  8
文字
 62
     7
 48
50.0
100
AcDbText
 10
13162.9790565769
 20
895.0906074299405
 30
0.0
 40
200.0
  1
外 形 図
  7
STYLE2
100
AcDbText
  0
TEXT
  5
10B74
330
747D
100
AcDbEntity
  8
文字
 62
     7
 48
50.0
100
AcDbText
 10
13201.43669998441
 20
477.2740661031255
 30
0.0
 40
160.0
  1
機種名
  7
STYLE2
100
AcDbText
  0
TEXT
  5
10B75
330
747D
100
AcDbEntity
  8
文字
 62
     7
 48
50.0
100
AcDbText
 10
13209.4053442172
 20
228.5435242569016
 30
0.0
 40
100.0
  1
○有効開口寸法 ： 2424×1948(mm)
  7
STYLE2
100
AcDbText
  0
TEXT
  5
10B76
330
747D
100
AcDbEntity
  8
文字
 62
     7
 48
50.0
100
AcDbText
 10
13209.4053442172
 20
76.09434707649343
 30
0.0
 40
100.0
  1
○床面積 ： 5.81㎡(1.76坪) 　
  7
STYLE2
100
AcDbText
  0
TEXT
  5
10B79
330
747D
100
AcDbEntity
  8
文字
 62
     7
 48
50.0
100
AcDbText
 10
14524.131837222
 20
1031.557706291228
 30
0.0
 40
100.0
  1
NO.08      <縮尺> S=1/40
  7
STYLE2
100
AcDbText
  0
LINE
  5
10B7B
330
747D
100
AcDbEntity
  8
仕様書枠
 48
50.0
100
AcDbLine
 10
13107.2
 20
800.0
 30
0.0
 11
14251.2
 21
800.0
 31
0.0
  0
LINE
  5
10B88
330
747D
100
AcDbEntity
  8
仕様書枠
  6
Continuous
 48
50.0
100
AcDbLine
 10
14251.2
 20
1200.0
 30
0.0
 11
14251.2
 21
800.0
 31
0.0
  0
LINE
  5
12765
330
747D
100
AcDbEntity
  8
Ｇ．Ｌ
100
AcDbLine
 10
3656.406454453174
 20
2437.931598713261
 30
0.0
 11
13210.79354554683
 21
2437.931598713261
 31
0.0
  0
LINE
  5
127A8
330
747D
100
AcDbEntity
  8
部品1
100
AcDbLine
 10
3755.903465777274
 20
2567.835409280926
 30
0.0
 11
3905.903465777273
 21
2567.835409280926
 31
0.0
  0
LINE
  5
127A9
330
747D
100
AcDbEntity
  8
部品1
100
AcDbLine
 10
3830.903465777274
 20
2437.931598713261
 30
0.0
 11
3755.903465777274
 21
2567.835409280926
 31
0.0
  0
TEXT
  5
127AA
330
747D
100
AcDbEntity
  8
部品1
100
AcDbText
 10
3934.008407902047
 20
2474.038502319163
 30
0.0
 40
125.0
  1
G.L
  7
STYLE2
100
AcDbText
  0
LINE
  5
127AB
330
747D
100
AcDbEntity
  8
部品1
100
AcDbLine
 10
3905.903465777273
 20
2567.835409280926
 30
0.0
 11
3830.903465777274
 21
2437.931598713261
 31
0.0
  0
LINE
  5
13BE8
330
747D
100
AcDbEntity
  8
部品1
100
AcDbLine
 10
4744.673057123656
 20
2537.931598713262
 30
0.0
 11
7374.673057123657
 21
2537.931598713262
 31
0.0
  0
LINE
  5
13BE9
330
747D
100
AcDbEntity
  8
部品1
100
AcDbLine
 10
4744.673057123656
 20
4677.931598713261
 30
0.0
 11
7374.673057123657
 21
4677.931598713261
 31
0.0
  0
LINE
  5
13C1F
330
747D
100
AcDbEntity
  8
部品1
100
AcDbLine
 10
4744.673057123656
 20
4771.931598713265
 30
0.0
 11
4744.673057123656
 21
2437.931598713261
 31
0.0
  0
LINE
  5
13CFC
330
747D
100
AcDbEntity
  8
部品1
100
AcDbLine
 10
7319.673057123657
 20
4512.931598713263
 30
0.0
 11
7319.673057123655
 21
2537.931598713262
 31
0.0
  0
LINE
  5
13CFE
330
747D
100
AcDbEntity
  8
部品1
100
AcDbLine
 10
4799.673057123657
 20
4512.931598713261
 30
0.0
 11
4799.673057123657
 21
2537.931598713262
 31
0.0
  0
LINE
  5
13D18
330
747D
100
AcDbEntity
  8
部品1
100
AcDbLine
 10
7374.673057123658
 20
4771.931598713265
 30
0.0
 11
7374.673057123657
 21
2437.931598713261
 31
0.0
  0
TEXT
  5
15550
330
747D
100
AcDbEntity
  8
文字
 62
     7
 48
50.0
100
AcDbText
 10
14646.46056207479
 20
871.9640646083623
 30
0.0
 40
100.0
  1
～一般型・多雪地型～
  7
STYLE2
100
AcDbText
  0
LINE
  5
15CE9
330
747D
100
AcDbEntity
  8
部品1
100
AcDbLine
 10
4847.673057123657
 20
4512.931598713261
 30
0.0
 11
4847.673057123657
 21
2537.931598713262
 31
0.0
  0
LINE
  5
15CEB
330
747D
100
AcDbEntity
  8
部品1
100
AcDbLine
 10
7271.673057123658
 20
4512.931598713262
 30
0.0
 11
7271.673057123655
 21
2537.931598713262
 31
0.0
  0
LINE
  5
15CF0
330
747D
100
AcDbEntity
  8
部品1
100
AcDbLine
 10
4744.673057123656
 20
4512.931598713261
 30
0.0
 11
7374.673057123658
 21
4512.931598713263
 31
0.0
  0
LINE
  5
15D20
330
747D
100
AcDbEntity
  8
細線
100
AcDbLine
 10
4847.673057123653
 20
4172.931598713261
 30
0.0
 11
7271.673057123655
 21
4172.931598713261
 31
0.0
  0
LINE
  5
15D21
330
747D
100
AcDbEntity
  8
細線
100
AcDbLine
 10
4847.673057123653
 20
4237.931598713261
 30
0.0
 11
7271.673057123655
 21
4237.931598713261
 31
0.0
  0
LINE
  5
15D22
330
747D
100
AcDbEntity
  8
細線
100
AcDbLine
 10
4847.673057123653
 20
4302.931598713261
 30
0.0
 11
7271.673057123655
 21
4302.931598713261
 31
0.0
  0
LINE
  5
15D23
330
747D
100
AcDbEntity
  8
細線
100
AcDbLine
 10
4847.673057123653
 20
3782.931598713262
 30
0.0
 11
7271.673057123655
 21
3782.931598713262
 31
0.0
  0
LINE
  5
15D24
330
747D
100
AcDbEntity
  8
細線
100
AcDbLine
 10
4847.673057123653
 20
3847.931598713262
 30
0.0
 11
7271.673057123655
 21
3847.931598713262
 31
0.0
  0
LINE
  5
15D25
330
747D
100
AcDbEntity
  8
細線
100
AcDbLine
 10
4847.673057123653
 20
3912.931598713262
 30
0.0
 11
7271.673057123655
 21
3912.931598713262
 31
0.0
  0
LINE
  5
15D26
330
747D
100
AcDbEntity
  8
細線
100
AcDbLine
 10
4847.673057123653
 20
3977.931598713261
 30
0.0
 11
7271.673057123655
 21
3977.931598713261
 31
0.0
  0
LINE
  5
15D27
330
747D
100
AcDbEntity
  8
細線
100
AcDbLine
 10
4847.673057123653
 20
4042.931598713261
 30
0.0
 11
7271.673057123655
 21
4042.931598713261
 31
0.0
  0
LINE
  5
15D28
330
747D
100
AcDbEntity
  8
細線
100
AcDbLine
 10
4847.673057123653
 20
4107.931598713261
 30
0.0
 11
7271.673057123655
 21
4107.931598713261
 31
0.0
  0
LINE
  5
15D29
330
747D
100
AcDbEntity
  8
細線
100
AcDbLine
 10
4847.673057123653
 20
3132.931598713261
 30
0.0
 11
7271.673057123655
 21
3132.931598713261
 31
0.0
  0
LINE
  5
15D2A
330
747D
100
AcDbEntity
  8
細線
100
AcDbLine
 10
4847.673057123653
 20
3197.931598713262
 30
0.0
 11
7271.673057123655
 21
3197.931598713262
 31
0.0
  0
LINE
  5
15D2B
330
747D
100
AcDbEntity
  8
細線
100
AcDbLine
 10
4847.673057123653
 20
3262.931598713262
 30
0.0
 11
7271.673057123655
 21
3262.931598713262
 31
0.0
  0
LINE
  5
15D2C
330
747D
100
AcDbEntity
  8
細線
100
AcDbLine
 10
4847.673057123653
 20
3327.931598713262
 30
0.0
 11
7271.673057123655
 21
3327.931598713262
 31
0.0
  0
LINE
  5
15D2D
330
747D
100
AcDbEntity
  8
細線
100
AcDbLine
 10
4847.673057123653
 20
3392.931598713261
 30
0.0
 11
7271.673057123655
 21
3392.931598713261
 31
0.0
  0
LINE
  5
15D2E
330
747D
100
AcDbEntity
  8
細線
100
AcDbLine
 10
4847.673057123653
 20
3457.931598713262
 30
0.0
 11
7271.673057123655
 21
3457.931598713262
 31
0.0
  0
LINE
  5
15D2F
330
747D
100
AcDbEntity
  8
細線
100
AcDbLine
 10
4847.673057123653
 20
3522.931598713262
 30
0.0
 11
7271.673057123655
 21
3522.931598713262
 31
0.0
  0
LINE
  5
15D30
330
747D
100
AcDbEntity
  8
細線
100
AcDbLine
 10
4847.673057123653
 20
3587.931598713261
 30
0.0
 11
7271.673057123655
 21
3587.931598713261
 31
0.0
  0
LINE
  5
15D31
330
747D
100
AcDbEntity
  8
細線
100
AcDbLine
 10
4847.673057123653
 20
3652.931598713261
 30
0.0
 11
7271.673057123655
 21
3652.931598713261
 31
0.0
  0
LINE
  5
15D32
330
747D
100
AcDbEntity
  8
細線
100
AcDbLine
 10
4847.673057123653
 20
3717.931598713261
 30
0.0
 11
7271.673057123655
 21
3717.931598713261
 31
0.0
  0
LINE
  5
15D33
330
747D
100
AcDbEntity
  8
細線
100
AcDbLine
 10
4847.673057123653
 20
4432.931598713262
 30
0.0
 11
7271.673057123655
 21
4432.931598713262
 31
0.0
  0
LINE
  5
15D34
330
747D
100
AcDbEntity
  8
細線
100
AcDbLine
 10
4847.673057123653
 20
4497.931598713261
 30
0.0
 11
7271.673057123655
 21
4497.931598713261
 31
0.0
  0
LINE
  5
15D35
330
747D
100
AcDbEntity
  8
細線
100
AcDbLine
 10
4847.673057123653
 20
4367.931598713261
 30
0.0
 11
7271.673057123655
 21
4367.931598713261
 31
0.0
  0
LINE
  5
15D36
330
747D
100
AcDbEntity
  8
細線
100
AcDbLine
 10
4847.673057123653
 20
2547.931598713262
 30
0.0
 11
7271.673057123655
 21
2547.931598713262
 31
0.0
  0
LINE
  5
15D37
330
747D
100
AcDbEntity
  8
細線
100
AcDbLine
 10
4847.673057123653
 20
2612.931598713262
 30
0.0
 11
7271.673057123655
 21
2612.931598713262
 31
0.0
  0
LINE
  5
15D38
330
747D
100
AcDbEntity
  8
細線
100
AcDbLine
 10
4847.673057123653
 20
2677.931598713261
 30
0.0
 11
7271.673057123655
 21
2677.931598713261
 31
0.0
  0
LINE
  5
15D39
330
747D
100
AcDbEntity
  8
細線
100
AcDbLine
 10
4847.673057123653
 20
2742.931598713262
 30
0.0
 11
7271.673057123655
 21
2742.931598713262
 31
0.0
  0
LINE
  5
15D3A
330
747D
100
AcDbEntity
  8
細線
100
AcDbLine
 10
4847.673057123653
 20
2807.931598713262
 30
0.0
 11
7271.673057123655
 21
2807.931598713262
 31
0.0
  0
LINE
  5
15D3B
330
747D
100
AcDbEntity
  8
細線
100
AcDbLine
 10
4847.673057123653
 20
2872.931598713261
 30
0.0
 11
7271.673057123655
 21
2872.931598713261
 31
0.0
  0
LINE
  5
15D3C
330
747D
100
AcDbEntity
  8
細線
100
AcDbLine
 10
4847.673057123653
 20
2937.931598713261
 30
0.0
 11
7271.673057123655
 21
2937.931598713261
 31
0.0
  0
LINE
  5
15D3D
330
747D
100
AcDbEntity
  8
細線
100
AcDbLine
 10
4847.673057123653
 20
3002.931598713261
 30
0.0
 11
7271.673057123655
 21
3002.931598713261
 31
0.0
  0
LINE
  5
15D3E
330
747D
100
AcDbEntity
  8
細線
100
AcDbLine
 10
4847.673057123653
 20
3067.931598713262
 30
0.0
 11
7271.673057123655
 21
3067.931598713262
 31
0.0
  0
LINE
  5
15D3F
330
747D
100
AcDbEntity
  8
細線
100
AcDbLine
 10
7271.673057123656
 20
2547.931598713262
 30
0.0
 11
4847.673057123651
 21
2547.931598713262
 31
0.0
  0
CIRCLE
  5
16043
330
747D
100
AcDbEntity
  8
細線
 48
50.0
100
AcDbCircle
 10
6059.673057123654
 20
3425.431598713262
 30
0.0
 40
18.0
  0
ARC
  5
16045
330
747D
100
AcDbEntity
  8
細線
 48
50.0
100
AcDbCircle
 10
6359.673057123654
 20
3100.431598713262
 30
0.0
 40
15.0
100
AcDbArc
 50
270.0
 51
90.0
  0
ARC
  5
16046
330
747D
100
AcDbEntity
  8
細線
 48
50.0
100
AcDbCircle
 10
6259.673057123654
 20
3100.431598713262
 30
0.0
 40
15.0
100
AcDbArc
 50
90.0
 51
270.0
  0
LINE
  5
16047
330
747D
100
AcDbEntity
  8
細線
 48
50.0
100
AcDbLine
 10
6259.673057123654
 20
3115.431598713261
 30
0.0
 11
6359.673057123654
 21
3115.431598713261
 31
0.0
  0
LINE
  5
16048
330
747D
100
AcDbEntity
  8
細線
 48
50.0
100
AcDbLine
 10
6359.673057123654
 20
3085.431598713262
 30
0.0
 11
6259.673057123654
 21
3085.431598713262
 31
0.0
  0
LINE
  5
16049
330
747D
100
AcDbEntity
  8
細線
 48
50.0
100
AcDbLine
 10
5859.673057123654
 20
3085.431598713262
 30
0.0
 11
5759.673057123654
 21
3085.431598713262
 31
0.0
  0
LINE
  5
1604A
330
747D
100
AcDbEntity
  8
細線
 48
50.0
100
AcDbLine
 10
5759.673057123654
 20
3115.431598713261
 30
0.0
 11
5859.673057123654
 21
3115.431598713261
 31
0.0
  0
ARC
  5
1604B
330
747D
100
AcDbEntity
  8
細線
 48
50.0
100
AcDbCircle
 10
5859.673057123654
 20
3100.431598713262
 30
0.0
 40
15.0
100
AcDbArc
 50
270.0
 51
90.0
  0
ARC
  5
1604C
330
747D
100
AcDbEntity
  8
細線
 48
50.0
100
AcDbCircle
 10
5759.673057123654
 20
3100.431598713262
 30
0.0
 40
15.0
100
AcDbArc
 50
90.0
 51
270.0
  0
DIMENSION
  5
1633A
330
747D
100
AcDbEntity
  8
寸法
100
AcDbDimension
  2
*D2
 10
8022.099402858071
 20
7570.46535763239
 30
0.0
 11
7922.087591834447
 21
8620.465357632401
 31
0.0
 70
    32
  1
5X420=<>
 71
     5
 42
2100.000000000015
  3
INABA_S40G
100
AcDbAlignedDimension
 13
7374.673057123664
 23
9670.465357632407
 33
0.0
 14
7374.673057123638
 24
7570.46535763239
 34
0.0
 50
90.0
100
AcDbRotatedDimension
1001
ACAD
1000
DSTYLE
1002
{
1002
}
  0
DIMENSION
  5
1633B
330
747D
100
AcDbEntity
  8
寸法
100
AcDbDimension
  2
*D3
 10
8022.099402858051
 20
7515.465357632395
 30
0.0
 11
8022.099402858048
 21
7137.603890727532
 31
0.0
 70
   160
 71
     5
 42
54.99999999999636
  3
INABA_S40G
100
AcDbAlignedDimension
 13
7374.673057123638
 23
7570.46535763239
 33
0.0
 14
7374.673057123638
 24
7515.465357632395
 34
0.0
 50
90.0
100
AcDbRotatedDimension
1001
ACAD
1000
DSTYLE
1002
{
1002
}
  0
DIMENSION
  5
1633C
330
747D
100
AcDbEntity
  8
寸法
100
AcDbDimension
  2
*D4
 10
8022.099402858074
 20
9670.465357632407
 30
0.0
 11
8022.099402858072
 21
10033.95063900664
 31
0.0
 70
   160
 71
     5
 42
54.99999999999636
  3
INABA_S40G
100
AcDbAlignedDimension
 13
7374.673057123664
 23
9725.465357632401
 33
0.0
 14
7374.673057123664
 24
9670.465357632407
 34
0.0
 50
90.0
100
AcDbRotatedDimension
1001
ACAD
1000
DSTYLE
1002
{
1002
}
  0
DIMENSION
  5
1633D
330
747D
100
AcDbEntity
  8
寸法
100
AcDbDimension
  2
*D5
 10
8387.206344597709
 20
7515.465357632395
 30
0.0
 11
8287.194533574085
 21
8620.465357632401
 31
0.0
 70
    32
 71
     5
 42
2210.000000000007
  3
INABA_S40G
100
AcDbAlignedDimension
 13
7374.673057123664
 23
9725.465357632401
 33
0.0
 14
7374.673057123638
 24
7515.465357632395
 34
0.0
 50
90.0
100
AcDbRotatedDimension
1001
ACAD
1000
DSTYLE
1002
{
1002
}
  0
LINE
  5
16349
330
747D
100
AcDbEntity
  8
部品1
100
AcDbLine
 10
7346.673057123648
 20
9697.465357632403
 30
0.0
 11
7346.673057123641
 21
7570.46535763239
 31
0.0
  0
LINE
  5
1634A
330
747D
100
AcDbEntity
  8
部品1
100
AcDbLine
 10
4772.673057123639
 20
7570.46535763226
 30
0.0
 11
4772.673057123649
 21
9697.46535763231
 31
0.0
  0
LINE
  5
1634B
330
747D
100
AcDbEntity
  8
部品1
100
AcDbLine
 10
7374.673057123664
 20
9725.465357632401
 30
0.0
 11
7374.673057123638
 21
7515.465357632395
 31
0.0
  0
LINE
  5
1634C
330
747D
100
AcDbEntity
  8
部品1
100
AcDbLine
 10
4744.673057123629
 20
9725.465357632275
 30
0.0
 11
4744.673057123656
 21
7515.465357632263
 31
0.0
  0
DIMENSION
  5
16351
330
747D
100
AcDbEntity
  8
寸法
 48
50.0
100
AcDbDimension
  2
*D6
 10
4847.673057123657
 20
6981.034586866138
 30
0.0
 11
6059.673057123648
 21
7081.04639788976
 31
0.0
 70
    32
  1
有効開口部間口 <>
 71
     5
 42
2423.999999999982
  3
INABA_S40G
100
AcDbAlignedDimension
 13
7271.673057123638
 23
7541.465357632303
 33
0.0
 14
4847.673057123657
 24
7541.465357632303
 34
0.0
100
AcDbRotatedDimension
1001
ACAD
1000
DSTYLE
1002
{
1070
    75
1070
     1
1070
   279
1070
     2
1002
}
  0
LINE
  5
16353
330
747D
100
AcDbEntity
  8
部品1
 48
50.0
100
AcDbLine
 10
4811.673057123655
 20
7560.965357632301
 30
0.0
 11
7307.67305712364
 21
7560.965357632301
 31
0.0
  0
DIMENSION
  5
16354
330
747D
100
AcDbEntity
  8
寸法
100
AcDbDimension
  2
*D7
 10
7374.673057123638
 20
6694.861591275264
 30
0.0
 11
6059.673057123648
 21
6794.873402298887
 31
0.0
 70
    32
 71
     5
 42
2629.999999999982
  3
INABA_S40G
100
AcDbAlignedDimension
 13
4744.673057123656
 23
7515.46535763223
 33
0.0
 14
7374.673057123638
 24
7515.465357632358
 34
0.0
100
AcDbRotatedDimension
1001
ACAD
1000
DSTYLE
1002
{
1002
}
  0
LINE
  5
16355
330
747D
100
AcDbEntity
  8
部品1
100
AcDbLine
 10
4799.673057123635
 20
9670.465357632355
 30
0.0
 11
4799.673057123656
 21
7580.465357632302
 31
0.0
  0
LINE
  5
16356
330
747D
100
AcDbEntity
  8
部品1
100
AcDbLine
 10
4824.673057123635
 20
9670.465357632355
 30
0.0
 11
4824.673057123656
 21
7580.465357632302
 31
0.0
  0
DIMENSION
  5
16357
330
747D
100
AcDbEntity
  8
寸法
 48
50.0
100
AcDbDimension
  2
*D8
 10
4744.673057123656
 20
6981.034586866138
 30
0.0
 11
4436.187775749418
 21
6981.034586866138
 31
0.0
 70
   160
 71
     5
 42
54.99999999999636
  3
INABA_S40G
100
AcDbAlignedDimension
 13
4799.673057123653
 23
7515.465357632303
 33
0.0
 14
4744.673057123656
 24
7515.4653576323
 34
0.0
100
AcDbRotatedDimension
1001
ACAD
1000
DSTYLE
1002
{
1002
}
  0
DIMENSION
  5
16358
330
747D
100
AcDbEntity
  8
寸法
 48
50.0
100
AcDbDimension
  2
*D9
 10
4799.673057123653
 20
6981.034586866138
 30
0.0
 11
4960.575028123714
 21
7081.034586866138
 31
0.0
 70
   160
 71
     5
 42
48.00000000000363
  3
INABA_S40G
100
AcDbAlignedDimension
 13
4847.673057123657
 23
7541.465357632303
 33
0.0
 14
4799.673057123653
 24
7515.465357632303
 34
0.0
100
AcDbRotatedDimension
1001
ACAD
1000
DSTYLE
1002
{
1070
   279
1070
     2
1002
}
  0
LINE
  5
16359
330
747D
100
AcDbEntity
  8
部品1
100
AcDbLine
 10
4799.673057123652
 20
7515.465357632303
 30
0.0
 11
4744.673057123656
 21
7515.4653576323
 31
0.0
  0
LINE
  5
1635A
330
747D
100
AcDbEntity
  8
部品1
 48
50.0
100
AcDbLine
 10
4799.673057123657
 20
7551.465357632301
 30
0.0
 11
4776.673057123656
 21
7551.465357632301
 31
0.0
  0
LINE
  5
1635B
330
747D
100
AcDbEntity
  8
部品1
 48
50.0
100
AcDbLine
 10
4809.673057123657
 20
7541.465357632303
 30
0.0
 11
4799.673057123657
 21
7520.465357632303
 31
0.0
  0
LINE
  5
1635C
330
747D
100
AcDbEntity
  8
部品1
 48
50.0
100
AcDbLine
 10
4799.673057123657
 20
7580.465357632302
 30
0.0
 11
4799.673057123653
 21
7515.465357632303
 31
0.0
  0
LINE
  5
1635D
330
747D
100
AcDbEntity
  8
部品1
 48
50.0
100
AcDbLine
 10
4847.673057123657
 20
7541.465357632303
 30
0.0
 11
4847.673057123657
 21
7550.465357632304
 31
0.0
  0
LINE
  5
1635E
330
747D
100
AcDbEntity
  8
部品1
 48
50.0
100
AcDbLine
 10
4847.673057123657
 20
7580.465357632303
 30
0.0
 11
4847.673057123657
 21
7571.465357632303
 31
0.0
  0
LINE
  5
1635F
330
747D
100
AcDbEntity
  8
部品1
100
AcDbLine
 10
4847.673057123657
 20
7580.465357632303
 30
0.0
 11
4799.673057123657
 21
7580.465357632303
 31
0.0
  0
LINE
  5
16360
330
747D
100
AcDbEntity
  8
部品1
100
AcDbLine
 10
4847.673057123657
 20
7541.465357632303
 30
0.0
 11
4799.673057123657
 21
7541.465357632303
 31
0.0
  0
LINE
  5
16361
330
747D
100
AcDbEntity
  8
部品1
100
AcDbLine
 10
4799.673057123656
 20
7551.465357632301
 30
0.0
 11
4776.673057123656
 21
7551.465357632301
 31
0.0
  0
LINE
  5
16362
330
747D
100
AcDbEntity
  8
部品1
100
AcDbLine
 10
4799.673057123656
 20
7570.465357632227
 30
0.0
 11
4744.673057123654
 21
7570.465357632227
 31
0.0
  0
LINE
  5
16363
330
747D
100
AcDbEntity
  8
部品1
100
AcDbLine
 10
4772.673057123639
 20
7570.465357632264
 30
0.0
 11
4744.673057123654
 21
7570.465357632264
 31
0.0
  0
LINE
  5
16364
330
747D
100
AcDbEntity
  8
部品1
100
AcDbLine
 10
4772.673057123655
 20
7570.465357632278
 30
0.0
 11
4744.673057123654
 21
7570.465357632278
 31
0.0
  0
LINE
  5
16365
330
747D
100
AcDbEntity
  8
部品1
100
AcDbLine
 10
4772.673057123642
 20
7990.465357632278
 30
0.0
 11
4744.673057123643
 21
7990.465357632278
 31
0.0
  0
LINE
  5
16368
330
747D
100
AcDbEntity
  8
部品1
100
AcDbLine
 10
4772.673057123642
 20
8410.465357632277
 30
0.0
 11
4744.673057123643
 21
8410.465357632277
 31
0.0
  0
LINE
  5
16369
330
747D
100
AcDbEntity
  8
部品1
100
AcDbLine
 10
4772.673057123642
 20
8830.465357632277
 30
0.0
 11
4744.673057123643
 21
8830.465357632277
 31
0.0
  0
LINE
  5
1636B
330
747D
100
AcDbEntity
  8
部品1
100
AcDbLine
 10
4772.673057123637
 20
9250.465357632277
 30
0.0
 11
4744.673057123637
 21
9250.465357632277
 31
0.0
  0
LINE
  5
1636C
330
747D
100
AcDbEntity
  8
部品1
100
AcDbLine
 10
7319.673057123657
 20
9670.46535763238
 30
0.0
 11
7319.67305712364
 21
7515.465357632391
 31
0.0
  0
LINE
  5
1636D
330
747D
100
AcDbEntity
  8
部品1
100
AcDbLine
 10
7294.673057123663
 20
9670.46535763238
 30
0.0
 11
7294.67305712364
 21
7580.465357632303
 31
0.0
  0
DIMENSION
  5
1636E
330
747D
100
AcDbEntity
  8
寸法
 48
50.0
100
AcDbDimension
  2
*D10
 10
7271.673057123638
 20
6981.034586866138
 30
0.0
 11
7160.710159474891
 21
7081.034586866138
 31
0.0
 70
   160
 71
     5
 42
48.00000000000181
  3
INABA_S40G
100
AcDbAlignedDimension
 13
7319.67305712364
 23
7515.465357632391
 33
0.0
 14
7271.673057123638
 24
7541.465357632303
 34
0.0
100
AcDbRotatedDimension
1001
ACAD
1000
DSTYLE
1002
{
1070
   279
1070
     2
1002
}
  0
DIMENSION
  5
1636F
330
747D
100
AcDbEntity
  8
寸法
 48
50.0
100
AcDbDimension
  2
*D11
 10
7319.67305712364
 20
6981.03458686614
 30
0.0
 11
7683.158338497877
 21
6981.03458686614
 31
0.0
 70
   160
 71
     5
 42
54.99999999999818
  3
INABA_S40G
100
AcDbAlignedDimension
 13
7374.673057123638
 23
7515.465357632395
 33
0.0
 14
7319.67305712364
 24
7515.465357632391
 34
0.0
100
AcDbRotatedDimension
1001
ACAD
1000
DSTYLE
1002
{
1002
}
  0
LINE
  5
16370
330
747D
100
AcDbEntity
  8
部品1
 48
50.0
100
AcDbLine
 10
7309.673057123639
 20
7541.465357632303
 30
0.0
 11
7319.673057123639
 21
7520.465357632303
 31
0.0
  0
LINE
  5
16371
330
747D
100
AcDbEntity
  8
部品1
100
AcDbLine
 10
7271.673057123638
 20
7580.465357632303
 30
0.0
 11
7319.67305712364
 21
7580.465357632303
 31
0.0
  0
LINE
  5
16372
330
747D
100
AcDbEntity
  8
部品1
100
AcDbLine
 10
7271.673057123638
 20
7541.465357632303
 30
0.0
 11
7319.673057123639
 21
7541.465357632303
 31
0.0
  0
LINE
  5
16373
330
747D
100
AcDbEntity
  8
部品1
 48
50.0
100
AcDbLine
 10
7271.673057123638
 20
7580.465357632303
 30
0.0
 11
7271.673057123638
 21
7571.465357632303
 31
0.0
  0
LINE
  5
16374
330
747D
100
AcDbEntity
  8
部品1
 48
50.0
100
AcDbLine
 10
7271.673057123638
 20
7541.465357632303
 30
0.0
 11
7271.673057123638
 21
7550.465357632304
 31
0.0
  0
LINE
  5
16375
330
747D
100
AcDbEntity
  8
部品1
100
AcDbLine
 10
7319.673057123639
 20
7551.465357632301
 30
0.0
 11
7342.673057123639
 21
7551.465357632301
 31
0.0
  0
LINE
  5
16376
330
747D
100
AcDbEntity
  8
部品1
100
AcDbLine
 10
7319.673057123639
 20
7570.465357632405
 30
0.0
 11
7374.673057123671
 21
7570.465357632405
 31
0.0
  0
LINE
  5
16377
330
747D
100
AcDbEntity
  8
部品1
100
AcDbLine
 10
7374.673057123638
 20
7515.465357632395
 30
0.0
 11
7319.67305712364
 21
7515.465357632392
 31
0.0
  0
LINE
  5
16378
330
747D
100
AcDbEntity
  8
部品1
100
AcDbLine
 10
7346.673057123668
 20
7990.465357632405
 30
0.0
 11
7374.673057123668
 21
7990.465357632405
 31
0.0
  0
LINE
  5
16384
330
747D
100
AcDbEntity
  8
部品1
100
AcDbLine
 10
7346.673057123668
 20
8410.465357632405
 30
0.0
 11
7374.673057123668
 21
8410.465357632405
 31
0.0
  0
LINE
  5
16386
330
747D
100
AcDbEntity
  8
部品1
100
AcDbLine
 10
7346.673057123668
 20
8830.465357632405
 30
0.0
 11
7374.673057123668
 21
8830.465357632405
 31
0.0
  0
LINE
  5
16387
330
747D
100
AcDbEntity
  8
部品1
100
AcDbLine
 10
7346.673057123664
 20
9250.465357632405
 30
0.0
 11
7374.673057123664
 21
9250.465357632405
 31
0.0
  0
LINE
  5
16388
330
747D
100
AcDbEntity
  8
部品1
100
AcDbLine
 10
4772.673057123649
 20
9697.465357632424
 30
0.0
 11
6047.173057123661
 21
9697.465357632424
 31
0.0
  0
LINE
  5
1638A
330
747D
100
AcDbEntity
  8
部品1
100
AcDbLine
 10
4744.673057123662
 20
9725.465357632309
 30
0.0
 11
7374.673057123664
 21
9725.465357632401
 31
0.0
  0
DIMENSION
  5
1638C
330
747D
100
AcDbEntity
  8
寸法
100
AcDbDimension
  2
*D12
 10
7319.673057123664
 20
9941.273577257405
 30
0.0
 11
6059.673057123664
 21
10041.28538828102
 31
0.0
 70
    32
  1
6X420=<>
 71
     5
 42
2520.000000000001
  3
INABA_S40G
100
AcDbAlignedDimension
 13
4799.673057123663
 23
9725.465357632309
 33
0.0
 14
7319.673057123664
 24
9725.465357632401
 34
0.0
100
AcDbRotatedDimension
1001
ACAD
1000
DSTYLE
1002
{
1002
}
  0
DIMENSION
  5
1638D
330
747D
100
AcDbEntity
  8
寸法
100
AcDbDimension
  2
*D13
 10
4799.673057123663
 20
9941.273577257289
 30
0.0
 11
4436.187775749391
 21
9941.273577257289
 31
0.0
 70
   160
 71
     5
 42
55.00000000003456
  3
INABA_S40G
100
AcDbAlignedDimension
 13
4744.673057123629
 23
9725.465357632309
 33
0.0
 14
4799.673057123663
 24
9725.465357632309
 34
0.0
100
AcDbRotatedDimension
1001
ACAD
1000
DSTYLE
1002
{
1002
}
  0
LINE
  5
1638E
330
747D
100
AcDbEntity
  8
部品1
100
AcDbLine
 10
4799.673057123628
 20
9725.465357632275
 30
0.0
 11
4799.67305712363
 21
9697.465357632275
 31
0.0
  0
LINE
  5
1638F
330
747D
100
AcDbEntity
  8
部品1
100
AcDbLine
 10
4799.673057123663
 20
9725.465357632309
 30
0.0
 11
4799.673057123663
 21
9697.465357632308
 31
0.0
  0
LINE
  5
16390
330
747D
100
AcDbEntity
  8
部品1
100
AcDbLine
 10
4772.67305712363
 20
9670.465357632279
 30
0.0
 11
4744.673057123629
 21
9670.465357632279
 31
0.0
  0
LINE
  5
16391
330
747D
100
AcDbEntity
  8
部品1
100
AcDbLine
 10
5219.673057123663
 20
9725.465357632424
 30
0.0
 11
5219.673057123663
 21
9697.465357632424
 31
0.0
  0
LINE
  5
16392
330
747D
100
AcDbEntity
  8
部品1
100
AcDbLine
 10
5219.673057123663
 20
9725.465357632309
 30
0.0
 11
5219.673057123663
 21
9697.465357632308
 31
0.0
  0
LINE
  5
16393
330
747D
100
AcDbEntity
  8
部品1
100
AcDbLine
 10
5219.673057123663
 20
9725.465357632309
 30
0.0
 11
5219.673057123663
 21
9697.465357632308
 31
0.0
  0
LINE
  5
16394
330
747D
100
AcDbEntity
  8
部品1
100
AcDbLine
 10
6072.173057123663
 20
9697.46535763242
 30
0.0
 11
7346.673057123664
 21
9697.465357632403
 31
0.0
  0
LINE
  5
16396
330
747D
100
AcDbEntity
  8
部品1
100
AcDbLine
 10
5639.673057123663
 20
9725.465357632424
 30
0.0
 11
5639.673057123663
 21
9697.465357632424
 31
0.0
  0
LINE
  5
16397
330
747D
100
AcDbEntity
  8
部品1
100
AcDbLine
 10
5639.673057123663
 20
9725.465357632309
 30
0.0
 11
5639.673057123663
 21
9697.465357632308
 31
0.0
  0
LINE
  5
16398
330
747D
100
AcDbEntity
  8
部品1
100
AcDbLine
 10
5639.673057123663
 20
9725.465357632309
 30
0.0
 11
5639.673057123663
 21
9697.465357632308
 31
0.0
  0
LINE
  5
16399
330
747D
100
AcDbEntity
  8
部品1
100
AcDbLine
 10
6059.673057123664
 20
9725.465357632424
 30
0.0
 11
6059.673057123664
 21
9697.465357632424
 31
0.0
  0
LINE
  5
1639A
330
747D
100
AcDbEntity
  8
部品1
100
AcDbLine
 10
6047.173057123663
 20
9689.465357632407
 30
0.0
 11
6072.173057123663
 21
9689.465357632409
 31
0.0
  0
LINE
  5
1639B
330
747D
100
AcDbEntity
  8
部品1
100
AcDbLine
 10
6088.673057123664
 20
9715.46535763241
 30
0.0
 11
6094.673057123663
 21
9715.46535763241
 31
0.0
  0
LINE
  5
1639C
330
747D
100
AcDbEntity
  8
部品1
100
AcDbLine
 10
6094.673057123663
 20
9715.46535763241
 30
0.0
 11
6094.673057123663
 21
9697.46535763241
 31
0.0
  0
LINE
  5
1639D
330
747D
100
AcDbEntity
  8
部品1
100
AcDbLine
 10
6024.673057123663
 20
9715.46535763241
 30
0.0
 11
6030.673057123664
 21
9715.46535763241
 31
0.0
  0
LINE
  5
1639E
330
747D
100
AcDbEntity
  8
部品1
100
AcDbLine
 10
6024.673057123663
 20
9715.46535763241
 30
0.0
 11
6024.673057123663
 21
9697.46535763241
 31
0.0
  0
LINE
  5
1639F
330
747D
100
AcDbEntity
  8
部品1
100
AcDbLine
 10
6479.673057123664
 20
9725.465357632424
 30
0.0
 11
6479.673057123664
 21
9697.465357632424
 31
0.0
  0
DIMENSION
  5
163A0
330
747D
100
AcDbEntity
  8
寸法
100
AcDbDimension
  2
*D14
 10
7374.673057123664
 20
9941.273577257387
 30
0.0
 11
7683.158338497903
 21
9941.273577257387
 31
0.0
 70
   160
 71
     5
 42
55.0
  3
INABA_S40G
100
AcDbAlignedDimension
 13
7319.673057123664
 23
9725.465357632401
 33
0.0
 14
7374.673057123664
 24
9725.465357632401
 34
0.0
100
AcDbRotatedDimension
1001
ACAD
1000
DSTYLE
1002
{
1002
}
  0
LINE
  5
163A1
330
747D
100
AcDbEntity
  8
部品1
100
AcDbLine
 10
6899.673057123663
 20
9725.465357632424
 30
0.0
 11
6899.673057123663
 21
9697.465357632424
 31
0.0
  0
LINE
  5
163A2
330
747D
100
AcDbEntity
  8
部品1
100
AcDbLine
 10
7319.673057123664
 20
9725.465357632401
 30
0.0
 11
7319.673057123664
 21
9697.465357632403
 31
0.0
  0
LINE
  5
163A3
330
747D
100
AcDbEntity
  8
部品1
100
AcDbLine
 10
7319.673057123664
 20
9725.465357632424
 30
0.0
 11
7319.673057123664
 21
9697.465357632424
 31
0.0
  0
LINE
  5
163A4
330
747D
100
AcDbEntity
  8
部品1
100
AcDbLine
 10
7346.673057123664
 20
9670.465357632407
 30
0.0
 11
7374.673057123664
 21
9670.465357632407
 31
0.0
  0
LINE
  5
1656B
330
747D
100
AcDbEntity
  8
部品1
 48
50.0
100
AcDbLine
 10
6047.173057123661
 20
9697.465357632424
 30
0.0
 11
6047.173057123662
 21
9689.465357632407
 31
0.0
  0
LINE
  5
1656C
330
747D
100
AcDbEntity
  8
部品1
 48
50.0
100
AcDbLine
 10
6072.173057123663
 20
9697.46535763242
 30
0.0
 11
6072.173057123663
 21
9689.465357632409
 31
0.0
  0
LINE
  5
1657C
330
747D
100
AcDbEntity
  8
部品1
 48
50.0
100
AcDbLine
 10
7294.673057123663
 20
9645.465357632305
 30
0.0
 11
4824.673057123636
 21
9645.465357632286
 31
0.0
  0
LINE
  5
1657D
330
747D
100
AcDbEntity
  8
部品1
 48
50.0
100
AcDbLine
 10
7319.673057123658
 20
9670.46535763238
 30
0.0
 11
4799.673057123635
 21
9670.465357632355
 31
0.0
  0
LINE
  5
1657E
330
747D
100
AcDbEntity
  8
部品1
 48
50.0
100
AcDbLine
 10
7346.673057123648
 20
9697.465357632403
 30
0.0
 11
7319.673057123658
 21
9670.46535763238
 31
0.0
  0
LINE
  5
1657F
330
747D
100
AcDbEntity
  8
部品1
 48
50.0
100
AcDbLine
 10
4772.673057123649
 20
9697.46535763231
 30
0.0
 11
4799.673057123635
 21
9670.465357632355
 31
0.0
  0
LINE
  5
166D4
330
747D
100
AcDbEntity
  8
仕様書枠
 48
50.0
100
AcDbLine
 10
16307.19999999999
 20
11239.6
 30
0.0
 11
13127.2
 21
11239.6
 31
0.0
  0
LINE
  5
166D5
330
747D
100
AcDbEntity
  8
仕様書枠
 48
50.0
100
AcDbLine
 10
13127.2
 20
11239.6
 30
0.0
 11
13127.2
 21
8519.600000000002
 31
0.0
  0
LINE
  5
166D6
330
747D
100
AcDbEntity
  8
仕様書枠
 48
50.0
100
AcDbLine
 10
16307.19999999999
 20
8519.599999999998
 30
0.0
 11
16307.2
 21
11239.6
 31
0.0
  0
LINE
  5
166D7
330
747D
100
AcDbEntity
  8
仕様書枠
 48
50.0
100
AcDbLine
 10
14785.2
 20
11239.6
 30
0.0
 11
14785.2
 21
9029.600000000002
 31
0.0
  0
LINE
  5
166D8
330
747D
100
AcDbEntity
  8
仕様書枠
 48
50.0
100
AcDbLine
 10
13490.2
 20
11239.6
 30
0.0
 11
13490.2
 21
9029.600000000003
 31
0.0
  0
LINE
  5
166D9
330
747D
100
AcDbEntity
  8
仕様書枠
 48
50.0
100
AcDbLine
 10
16307.19999999999
 20
11069.6
 30
0.0
 11
13127.2
 21
11069.6
 31
0.0
  0
LINE
  5
166DA
330
747D
100
AcDbEntity
  8
仕様書枠
 48
50.0
100
AcDbLine
 10
16307.19999999999
 20
10729.6
 30
0.0
 11
13127.2
 21
10729.6
 31
0.0
  0
LINE
  5
166DB
330
747D
100
AcDbEntity
  8
仕様書枠
 48
50.0
100
AcDbLine
 10
16307.19999999999
 20
10899.6
 30
0.0
 11
13127.2
 21
10899.6
 31
0.0
  0
LINE
  5
166DC
330
747D
100
AcDbEntity
  8
仕様書枠
 48
50.0
100
AcDbLine
 10
16307.19999999999
 20
10389.6
 30
0.0
 11
13127.19999999999
 21
10389.6
 31
0.0
  0
LINE
  5
166DD
330
747D
100
AcDbEntity
  8
仕様書枠
 48
50.0
100
AcDbLine
 10
16307.19999999999
 20
10219.6
 30
0.0
 11
13127.19999999999
 21
10219.6
 31
0.0
  0
LINE
  5
166DE
330
747D
100
AcDbEntity
  8
仕様書枠
 48
50.0
100
AcDbLine
 10
16307.19999999999
 20
10559.6
 30
0.0
 11
13127.19999999999
 21
10559.6
 31
0.0
  0
TEXT
  5
166DF
330
747D
100
AcDbEntity
  8
文字
 62
     7
 48
50.0
100
AcDbText
 10
13197.42518560407
 20
11100.01374588373
 30
0.0
 40
100.0
  1
品番
  7
STYLE1
100
AcDbText
  0
TEXT
  5
166E0
330
747D
100
AcDbEntity
  8
文字
 62
     7
 48
50.0
100
AcDbText
 10
13271.19032244792
 20
10930.01374588373
 30
0.0
 40
100.0
  1
1
  7
STYLE1
100
AcDbText
  0
TEXT
  5
166E1
330
747D
100
AcDbEntity
  8
文字
 62
     7
 48
50.0
100
AcDbText
 10
13271.19032244792
 20
10760.01374588373
 30
0.0
 40
100.0
  1
2
  7
STYLE1
100
AcDbText
  0
TEXT
  5
166E2
330
747D
100
AcDbEntity
  8
文字
 62
     7
 48
50.0
100
AcDbText
 10
13271.19032244792
 20
10420.01374588373
 30
0.0
 40
100.0
  1
4
  7
STYLE1
100
AcDbText
  0
TEXT
  5
166E3
330
747D
100
AcDbEntity
  8
文字
 62
     7
 48
50.0
100
AcDbText
 10
13271.19032244792
 20
10590.01374588373
 30
0.0
 40
100.0
  1
3
  7
STYLE1
100
AcDbText
  0
TEXT
  5
166E4
330
747D
100
AcDbEntity
  8
文字
 62
     7
 48
50.0
100
AcDbText
 10
13732.03840939434
 20
11100.01374588373
 30
0.0
 40
100.0
  1
部　　品　　名
  7
STYLE1
100
AcDbText
  0
TEXT
  5
166E5
330
747D
100
AcDbEntity
  8
文字
 62
     7
 48
50.0
100
AcDbText
 10
14859.79774614482
 20
11100.01374588373
 30
0.0
 40
100.0
  1
材料（材質）　　単位mm
  7
STYLE1
100
AcDbText
  0
TEXT
  5
166E6
330
747D
100
AcDbEntity
  8
文字
 62
     7
 48
50.0
100
AcDbText
 10
13583.11819016569
 20
10930.01374588373
 30
0.0
 40
100.0
  1
土台枠
  7
STYLE1
100
AcDbText
  0
TEXT
  5
166E7
330
747D
100
AcDbEntity
  8
文字
 62
     7
 48
50.0
100
AcDbText
 10
13583.11819016569
 20
10760.01374588373
 30
0.0
 40
100.0
  1
柱
  7
STYLE1
100
AcDbText
  0
TEXT
  5
166E8
330
747D
100
AcDbEntity
  8
文字
 62
     7
 48
50.0
100
AcDbText
 10
13583.11819016569
 20
10590.01374588373
 30
0.0
 40
100.0
  1
桁前
  7
STYLE1
100
AcDbText
  0
TEXT
  5
166E9
330
747D
100
AcDbEntity
  8
文字
 62
     7
 48
50.0
100
AcDbText
 10
13583.11819016569
 20
10420.01374588373
 30
0.0
 40
100.0
  1
桁後
  7
STYLE1
100
AcDbText
  0
TEXT
  5
166EA
330
747D
100
AcDbEntity
  8
文字
 62
     7
 48
50.0
100
AcDbText
 10
13271.19032244792
 20
10250.01374588373
 30
0.0
 40
100.0
  1
5
  7
STYLE1
100
AcDbText
  0
TEXT
  5
166EB
330
747D
100
AcDbEntity
  8
文字
 62
     7
 48
50.0
100
AcDbText
 10
13583.11819016569
 20
10250.01374588373
 30
0.0
 40
100.0
  1
妻板左右
  7
STYLE1
100
AcDbText
  0
TEXT
  5
166EC
330
747D
100
AcDbEntity
  8
文字
 62
     7
 48
50.0
100
AcDbText
 10
13583.11819016569
 20
9060.013745883729
 30
0.0
 40
100.0
  1
シャッターレール
  7
STYLE1
100
AcDbText
  0
TEXT
  5
166ED
330
747D
100
AcDbEntity
  8
文字
 62
     7
 48
50.0
100
AcDbText
 10
13248.77747366448
 20
9400.013745883729
 30
0.0
 40
100.0
  1
10
  7
STYLE1
100
AcDbText
  0
TEXT
  5
166EE
330
747D
100
AcDbEntity
  8
文字
 62
     7
 48
50.0
100
AcDbText
 10
13583.11819016569
 20
9570.013745883731
 30
0.0
 40
100.0
  1
壁パネル
  7
STYLE1
100
AcDbText
  0
TEXT
  5
166EF
330
747D
100
AcDbEntity
  8
文字
 62
     7
 48
50.0
100
AcDbText
 10
13583.11819016569
 20
9740.013745883729
 30
0.0
 40
100.0
  1
屋根パネル
  7
STYLE1
100
AcDbText
  0
TEXT
  5
166F0
330
747D
100
AcDbEntity
  8
文字
 62
     7
 48
50.0
100
AcDbText
 10
13583.11819016569
 20
9910.01374588373
 30
0.0
 40
100.0
  1
母屋中
  7
STYLE1
100
AcDbText
  0
TEXT
  5
166F1
330
747D
100
AcDbEntity
  8
文字
 62
     7
 48
50.0
100
AcDbText
 10
13583.11819016569
 20
10080.01374588373
 30
0.0
 40
100.0
  1
鼻隠シ前後
  7
STYLE1
100
AcDbText
  0
TEXT
  5
166F2
330
747D
100
AcDbEntity
  8
文字
 62
     7
 48
50.0
100
AcDbText
 10
13271.19032244792
 20
9740.013745883731
 30
0.0
 40
100.0
  1
8
  7
STYLE1
100
AcDbText
  0
TEXT
  5
166F3
330
747D
100
AcDbEntity
  8
文字
 62
     7
 48
50.0
100
AcDbText
 10
13271.19032244792
 20
9570.013745883731
 30
0.0
 40
100.0
  1
9
  7
STYLE1
100
AcDbText
  0
TEXT
  5
166F4
330
747D
100
AcDbEntity
  8
文字
 62
     7
 48
50.0
100
AcDbText
 10
13271.19032244792
 20
9910.01374588373
 30
0.0
 40
100.0
  1
7
  7
STYLE1
100
AcDbText
  0
TEXT
  5
166F5
330
747D
100
AcDbEntity
  8
文字
 62
     7
 48
50.0
100
AcDbText
 10
13271.19032244792
 20
10080.01374588373
 30
0.0
 40
100.0
  1
6
  7
STYLE1
100
AcDbText
  0
LINE
  5
166F6
330
747D
100
AcDbEntity
  8
仕様書枠
 48
50.0
100
AcDbLine
 10
16307.19999999999
 20
9369.600000000001
 30
0.0
 11
13127.19999999999
 21
9369.600000000003
 31
0.0
  0
LINE
  5
166F7
330
747D
100
AcDbEntity
  8
仕様書枠
 48
50.0
100
AcDbLine
 10
16307.19999999999
 20
9539.6
 30
0.0
 11
13127.19999999999
 21
9539.600000000003
 31
0.0
  0
LINE
  5
166F8
330
747D
100
AcDbEntity
  8
仕様書枠
 48
50.0
100
AcDbLine
 10
16307.19999999999
 20
10049.6
 30
0.0
 11
13127.2
 21
10049.6
 31
0.0
  0
LINE
  5
166F9
330
747D
100
AcDbEntity
  8
仕様書枠
 48
50.0
100
AcDbLine
 10
16307.19999999999
 20
9879.600000000001
 30
0.0
 11
13127.2
 21
9879.600000000003
 31
0.0
  0
TEXT
  5
166FA
330
747D
100
AcDbEntity
  8
文字
 62
     7
 48
50.0
100
AcDbText
 10
13248.77747366448
 20
9230.013745883729
 30
0.0
 40
100.0
  1
11
  7
STYLE1
100
AcDbText
  0
TEXT
  5
166FB
330
747D
100
AcDbEntity
  8
文字
 62
     7
 48
50.0
100
AcDbText
 10
13583.11819016569
 20
9230.013745883729
 30
0.0
 40
100.0
  1
シャッターカバー
 41
0.9
  7
STYLE1
100
AcDbText
  0
LINE
  5
166FC
330
747D
100
AcDbEntity
  8
仕様書枠
 48
50.0
100
AcDbLine
 10
16307.19999999999
 20
9199.600000000001
 30
0.0
 11
13127.19999999999
 21
9199.600000000001
 31
0.0
  0
LINE
  5
166FD
330
747D
100
AcDbEntity
  8
仕様書枠
 48
50.0
100
AcDbLine
 10
16307.19999999999
 20
9029.600000000002
 30
0.0
 11
13127.19999999999
 21
9029.600000000003
 31
0.0
  0
TEXT
  5
166FE
330
747D
100
AcDbEntity
  8
文字
 62
     7
 48
50.0
100
AcDbText
 10
13583.11819016569
 20
9400.013745883731
 30
0.0
 40
100.0
  1
シャッター
  7
STYLE1
100
AcDbText
  0
TEXT
  5
166FF
330
747D
100
AcDbEntity
  8
文字
 62
     7
 48
50.0
100
AcDbText
 10
13248.77747366448
 20
9060.013745883731
 30
0.0
 40
100.0
  1
12
  7
STYLE1
100
AcDbText
  0
TEXT
  5
16700
330
747D
100
AcDbEntity
  8
文字
 62
     7
 48
50.0
100
AcDbText
 10
15022.63965474517
 20
10930.01374588372
 30
0.0
 40
100.0
  1
F12            1.2
  7
STYLE1
100
AcDbText
  0
TEXT
  5
16701
330
747D
100
AcDbEntity
  8
文字
 62
     7
 48
50.0
100
AcDbText
 10
15022.63965474517
 20
10760.01374588372
 30
0.0
 40
100.0
  1
F12         1.0,1.2
  7
STYLE1
100
AcDbText
  0
TEXT
  5
16702
330
747D
100
AcDbEntity
  8
文字
 62
     7
 48
50.0
100
AcDbText
 10
15022.63965474516
 20
10590.01374588373
 30
0.0
 40
100.0
  1
Y10            1.0
  7
STYLE1
100
AcDbText
  0
TEXT
  5
16703
330
747D
100
AcDbEntity
  8
文字
 62
     7
 48
50.0
100
AcDbText
 10
15022.63965474516
 20
10420.01374588372
 30
0.0
 40
100.0
  1
Y10            1.0
  7
STYLE1
100
AcDbText
  0
TEXT
  5
16704
330
747D
100
AcDbEntity
  8
文字
 62
     7
 48
50.0
100
AcDbText
 10
15022.63965474516
 20
10250.01374588373
 30
0.0
 40
100.0
  1
Y10            0.7
  7
STYLE1
100
AcDbText
  0
TEXT
  5
16705
330
747D
100
AcDbEntity
  8
文字
 62
     7
 48
50.0
100
AcDbText
 10
15022.63965474516
 20
10080.01374588372
 30
0.0
 40
100.0
  1
Y10            0.7
  7
STYLE1
100
AcDbText
  0
TEXT
  5
16706
330
747D
100
AcDbEntity
  8
文字
 62
     7
 48
50.0
100
AcDbText
 10
14834.39215341524
 20
9910.013745883727
 30
0.0
 40
100.0
  1
F12    1.2(多雪地型  2.3)
  7
STYLE1
100
AcDbText
  0
TEXT
  5
16707
330
747D
100
AcDbEntity
  8
文字
 62
     7
 48
50.0
100
AcDbText
 10
15022.63965474517
 20
9740.013745883729
 30
0.0
 40
100.0
  1
Y10            0.5
  7
STYLE1
100
AcDbText
  0
TEXT
  5
16708
330
747D
100
AcDbEntity
  8
文字
 62
     7
 48
50.0
100
AcDbText
 10
15022.63965474516
 20
9570.013745883727
 30
0.0
 40
100.0
  1
F12            0.7
  7
STYLE1
100
AcDbText
  0
TEXT
  5
16709
330
747D
100
AcDbEntity
  8
文字
 62
     7
 48
50.0
100
AcDbText
 10
14850.83183167176
 20
9060.013745883727
 30
0.0
 40
100.0
  1
アルミニウム合金押出形材
  7
STYLE1
100
AcDbText
  0
TEXT
  5
1670B
330
747D
100
AcDbEntity
  8
文字
 62
     7
 48
50.0
100
AcDbText
 10
15022.63965474515
 20
9400.013745883727
 30
0.0
 40
100.0
  1
Z08            0.5
  7
STYLE1
100
AcDbText
  0
LINE
  5
1670C
330
747D
100
AcDbEntity
  8
仕様書枠
 48
50.0
100
AcDbLine
 10
16307.19999999999
 20
8859.6
 30
0.0
 11
13127.19999999999
 21
8859.600000000002
 31
0.0
  0
LINE
  5
1670D
330
747D
100
AcDbEntity
  8
仕様書枠
 48
50.0
100
AcDbLine
 10
16307.19999999999
 20
8689.6
 30
0.0
 11
13127.19999999999
 21
8689.600000000003
 31
0.0
  0
LINE
  5
1670E
330
747D
100
AcDbEntity
  8
仕様書枠
 48
50.0
100
AcDbLine
 10
16307.19999999999
 20
8519.600000000002
 30
0.0
 11
13127.19999999999
 21
8519.600000000002
 31
0.0
  0
TEXT
  5
1670F
330
747D
100
AcDbEntity
  8
文字
 62
     7
 48
50.0
100
AcDbText
 10
13229.83081656555
 20
8890.013745883729
 30
0.0
 40
100.0
  1
F12→溶融亜鉛めっき鋼板(JIS G 3302)
  7
STYLE1
100
AcDbText
  0
TEXT
  5
16710
330
747D
100
AcDbEntity
  8
文字
 62
     7
 48
50.0
100
AcDbText
 10
13229.83081656555
 20
8720.013745883729
 30
0.0
 40
100.0
  1
Y10→溶融亜鉛-5％アルミニウム合金めっき鋼板(JIS G 3317)
 41
0.9
  7
STYLE1
100
AcDbText
  0
TEXT
  5
16711
330
747D
100
AcDbEntity
  8
文字
 62
     7
 48
50.0
100
AcDbText
 10
13229.83081656555
 20
8550.013745883731
 30
0.0
 40
100.0
  1
Z08→塗装溶融亜鉛めっき鋼板(JIS G 3313)
  7
STYLE1
100
AcDbText
  0
LINE
  5
16712
330
747D
100
AcDbEntity
  8
仕様書枠
 48
50.0
100
AcDbLine
 10
16307.19999999999
 20
9709.600000000001
 30
0.0
 11
13127.19999999999
 21
9709.600000000001
 31
0.0
  0
DIMENSION
  5
17AF1
330
747D
100
AcDbEntity
  8
寸法
 48
50.0
100
AcDbDimension
  2
*D23
 10
9381.24142374488
 20
4787.276857586593
 30
0.0
 11
9391.906899003805
 21
5158.123520828293
 31
0.0
 70
   161
 71
     5
 42
141.0000000000009
  3
INABA_S40G
100
AcDbAlignedDimension
 13
9961.245850671827
 23
4911.654347547941
 33
0.0
 14
9957.1923951152
 24
4770.712623782229
 34
0.0
1001
ACAD
1000
DSTYLE
1002
{
1070
   174
1070
     0
1070
   272
1070
     1
1070
   288
1070
     0
1070
   341
1005
0
1002
}
  0
LINE
  5
17AF2
330
747D
100
AcDbEntity
  8
細線
 48
50.0
100
AcDbLine
 10
12079.34983051326
 20
4677.931598713261
 30
0.0
 11
12079.34983051325
 21
2587.931598713261
 31
0.0
  0
LINE
  5
17AF3
330
747D
100
AcDbEntity
  8
細線
 48
50.0
100
AcDbLine
 10
12094.34983051326
 20
4677.931598713261
 30
0.0
 11
12094.34983051325
 21
2587.931598713261
 31
0.0
  0
LINE
  5
17AF4
330
747D
100
AcDbEntity
  8
細線
 48
50.0
100
AcDbLine
 10
11954.34983051326
 20
4677.931598713261
 30
0.0
 11
11954.34983051325
 21
2587.931598713261
 31
0.0
  0
LINE
  5
17AF5
330
747D
100
AcDbEntity
  8
細線
 48
50.0
100
AcDbLine
 10
11939.34983051326
 20
4677.931598713261
 30
0.0
 11
11939.34983051325
 21
2587.931598713261
 31
0.0
  0
LINE
  5
17AF6
330
747D
100
AcDbEntity
  8
細線
 48
50.0
100
AcDbLine
 10
11799.34983051326
 20
4677.931598713261
 30
0.0
 11
11799.34983051325
 21
2587.931598713261
 31
0.0
  0
LINE
  5
17AF7
330
747D
100
AcDbEntity
  8
細線
 48
50.0
100
AcDbLine
 10
11814.34983051325
 20
4677.931598713261
 30
0.0
 11
11814.34983051325
 21
2587.931598713261
 31
0.0
  0
LINE
  5
17AF8
330
747D
100
AcDbEntity
  8
部品1
100
AcDbLine
 10
11316.84983051324
 20
4677.931598713261
 30
0.0
 11
11316.84983051324
 21
2587.931598713261
 31
0.0
  0
LINE
  5
17AF9
330
747D
100
AcDbEntity
  8
細線
 48
50.0
100
AcDbLine
 10
10974.34983051325
 20
4677.931598713261
 30
0.0
 11
10974.34983051325
 21
2587.931598713261
 31
0.0
  0
LINE
  5
17AFA
330
747D
100
AcDbEntity
  8
細線
 48
50.0
100
AcDbLine
 10
10959.34983051325
 20
4677.931598713261
 30
0.0
 11
10959.34983051325
 21
2587.931598713261
 31
0.0
  0
LINE
  5
17AFB
330
747D
100
AcDbEntity
  8
細線
 48
50.0
100
AcDbLine
 10
11099.34983051325
 20
4677.931598713261
 30
0.0
 11
11099.34983051325
 21
2587.931598713261
 31
0.0
  0
LINE
  5
17AFC
330
747D
100
AcDbEntity
  8
細線
 48
50.0
100
AcDbLine
 10
11114.34983051325
 20
4677.931598713261
 30
0.0
 11
11114.34983051325
 21
2587.931598713261
 31
0.0
  0
LINE
  5
17AFD
330
747D
100
AcDbEntity
  8
細線
 48
50.0
100
AcDbLine
 10
11254.34983051325
 20
4677.931598713261
 30
0.0
 11
11254.34983051325
 21
2587.931598713261
 31
0.0
  0
LINE
  5
17AFE
330
747D
100
AcDbEntity
  8
細線
 48
50.0
100
AcDbLine
 10
11239.34983051325
 20
4677.931598713261
 30
0.0
 11
11239.34983051325
 21
2587.931598713261
 31
0.0
  0
LINE
  5
17AFF
330
747D
100
AcDbEntity
  8
部品1
100
AcDbLine
 10
10896.84983051324
 20
4677.931598713261
 30
0.0
 11
10896.84983051324
 21
2587.931598713261
 31
0.0
  0
DIMENSION
  5
17B00
330
747D
100
AcDbEntity
  8
寸法
 48
50.0
100
AcDbDimension
  2
*D22
 10
12291.84983051325
 20
5311.589052292566
 30
0.0
 11
12497.89707460774
 21
5311.589052292566
 31
0.0
 70
   160
 71
     5
 42
80.0
  3
INABA_S40G
100
AcDbAlignedDimension
 13
12211.84983051325
 23
4859.742278324915
 33
0.0
 14
12291.84983051325
 24
4857.931598713261
 34
0.0
100
AcDbRotatedDimension
1001
ACAD
1000
DSTYLE
1002
{
1070
   174
1070
     0
1070
   272
1070
     1
1070
   288
1070
     0
1070
   341
1005
0
1002
}
  0
LINE
  5
17B01
330
747D
100
AcDbEntity
  8
細線
 48
50.0
100
AcDbLine
 10
10134.34983051324
 20
4677.931598713261
 30
0.0
 11
10134.34983051324
 21
2587.931598713261
 31
0.0
  0
LINE
  5
17B02
330
747D
100
AcDbEntity
  8
細線
 48
50.0
100
AcDbLine
 10
10119.34983051324
 20
4677.931598713261
 30
0.0
 11
10119.34983051324
 21
2587.931598713261
 31
0.0
  0
LINE
  5
17B03
330
747D
100
AcDbEntity
  8
細線
 48
50.0
100
AcDbLine
 10
10259.34983051324
 20
4677.931598713261
 30
0.0
 11
10259.34983051324
 21
2587.931598713261
 31
0.0
  0
LINE
  5
17B04
330
747D
100
AcDbEntity
  8
細線
 48
50.0
100
AcDbLine
 10
10274.34983051324
 20
4677.931598713261
 30
0.0
 11
10274.34983051324
 21
2587.931598713261
 31
0.0
  0
LINE
  5
17B05
330
747D
100
AcDbEntity
  8
細線
 48
50.0
100
AcDbLine
 10
10414.34983051324
 20
4677.931598713261
 30
0.0
 11
10414.34983051324
 21
2587.931598713261
 31
0.0
  0
LINE
  5
17B06
330
747D
100
AcDbEntity
  8
細線
 48
50.0
100
AcDbLine
 10
10399.34983051324
 20
4677.931598713261
 30
0.0
 11
10399.34983051324
 21
2587.931598713261
 31
0.0
  0
LINE
  5
17B07
330
747D
100
AcDbEntity
  8
細線
 48
50.0
100
AcDbLine
 10
10819.34983051324
 20
4677.931598713261
 30
0.0
 11
10819.34983051324
 21
2587.931598713261
 31
0.0
  0
LINE
  5
17B08
330
747D
100
AcDbEntity
  8
細線
 48
50.0
100
AcDbLine
 10
10834.34983051325
 20
4677.931598713261
 30
0.0
 11
10834.34983051325
 21
2587.931598713261
 31
0.0
  0
LINE
  5
17B09
330
747D
100
AcDbEntity
  8
細線
 48
50.0
100
AcDbLine
 10
10694.34983051325
 20
4677.931598713261
 30
0.0
 11
10694.34983051325
 21
2587.931598713261
 31
0.0
  0
LINE
  5
17B0A
330
747D
100
AcDbEntity
  8
細線
 48
50.0
100
AcDbLine
 10
10679.34983051324
 20
4677.931598713261
 30
0.0
 11
10679.34983051324
 21
2587.931598713261
 31
0.0
  0
LINE
  5
17B0B
330
747D
100
AcDbEntity
  8
細線
 48
50.0
100
AcDbLine
 10
10539.34983051324
 20
4677.931598713261
 30
0.0
 11
10539.34983051324
 21
2587.931598713261
 31
0.0
  0
LINE
  5
17B0C
330
747D
100
AcDbEntity
  8
細線
 48
50.0
100
AcDbLine
 10
10554.34983051324
 20
4677.931598713261
 30
0.0
 11
10554.34983051324
 21
2587.931598713261
 31
0.0
  0
LINE
  5
17B0D
330
747D
100
AcDbEntity
  8
部品1
100
AcDbLine
 10
10056.84983051325
 20
2537.931598713262
 30
0.0
 11
12211.84983051325
 21
2537.931598713262
 31
0.0
  0
DIMENSION
  5
17B27
330
747D
100
AcDbEntity
  8
寸法
 48
50.0
100
AcDbDimension
  2
*D21
 10
9941.849830513248
 20
5530.790885966857
 30
0.0
 11
11116.84983051324
 21
5530.790885966857
 31
0.0
 70
   160
 71
     5
 42
2350.0
  3
INABA_S40G
100
AcDbAlignedDimension
 13
12291.84983051325
 23
4857.931598713261
 33
0.0
 14
9941.849830513248
 24
4912.931598713265
 34
0.0
100
AcDbRotatedDimension
1001
ACAD
1000
DSTYLE
1002
{
1070
   174
1070
     0
1070
   272
1070
     1
1070
   288
1070
     0
1070
   341
1005
0
1002
}
  0
DIMENSION
  5
17B28
330
747D
100
AcDbEntity
  8
寸法
 48
50.0
100
AcDbDimension
  2
*D20
 10
9941.849830513248
 20
5311.589052292566
 30
0.0
 11
9632.212035237657
 21
5311.589052292566
 31
0.0
 70
   160
 71
     5
 42
60.0
  3
INABA_S40G
100
AcDbAlignedDimension
 13
10001.84983051324
 23
4908.933216836238
 33
0.0
 14
9941.849830513248
 24
4912.931598713265
 34
0.0
100
AcDbRotatedDimension
1001
ACAD
1000
DSTYLE
1002
{
1070
   174
1070
     0
1070
   272
1070
     1
1070
   288
1070
     0
1070
   341
1005
0
1002
}
  0
DIMENSION
  5
17B29
330
747D
100
AcDbEntity
  8
寸法
 48
50.0
100
AcDbDimension
  2
*D19
 10
10001.84983051324
 20
5311.589052292566
 30
0.0
 11
11106.84983051325
 21
5311.589052292566
 31
0.0
 70
   160
  1
柱外寸法<>
 71
     5
 42
2210.0
  3
INABA_S40G
100
AcDbAlignedDimension
 13
12211.84983051325
 23
4859.742278324915
 33
0.0
 14
10001.84983051324
 24
4908.933216836238
 34
0.0
100
AcDbRotatedDimension
1001
ACAD
1000
DSTYLE
1002
{
1070
   174
1070
     0
1070
   272
1070
     1
1070
   288
1070
     0
1070
   341
1005
0
1002
}
  0
LINE
  5
17B2C
330
747D
100
AcDbEntity
  8
部品1
100
AcDbLine
 10
12156.84983051325
 20
4677.931598713261
 30
0.0
 11
12156.84983051325
 21
2587.931598713261
 31
0.0
  0
LINE
  5
17B2D
330
747D
100
AcDbEntity
  8
部品1
100
AcDbLine
 10
12211.84983051325
 20
4732.608036344483
 30
0.0
 11
12211.84983051325
 21
2437.931598713261
 31
0.0
  0
LINE
  5
17B2E
330
747D
100
AcDbEntity
  8
部品1
100
AcDbLine
 10
10476.84983051325
 20
4677.931598713261
 30
0.0
 11
10476.84983051325
 21
2587.931598713261
 31
0.0
  0
DIMENSION
  5
17B2F
330
747D
100
AcDbEntity
  8
寸法
100
AcDbDimension
  2
*D18
 10
9158.099701329987
 20
2537.931598713262
 30
0.0
 11
9158.099701329987
 21
2231.884354618771
 31
0.0
 70
   160
 71
     5
 42
50.0
  3
INABA_S40G
100
AcDbAlignedDimension
 13
10001.84983051324
 23
2587.931598713261
 33
0.0
 14
9946.849830513247
 24
2537.931598713262
 34
0.0
 50
90.0
100
AcDbRotatedDimension
1001
ACAD
1000
DSTYLE
1002
{
1070
   174
1070
     0
1070
   272
1070
     1
1070
   288
1070
     0
1070
   341
1005
0
1002
}
  0
LINE
  5
17B31
330
747D
100
AcDbEntity
  8
部品1
100
AcDbLine
 10
10001.84983051324
 20
4769.957895757849
 30
0.0
 11
10001.84983051324
 21
2437.931598713261
 31
0.0
  0
LINE
  5
17B32
330
747D
100
AcDbEntity
  8
部品1
100
AcDbLine
 10
10056.84983051325
 20
4677.931598713261
 30
0.0
 11
10056.84983051325
 21
2437.931598713261
 31
0.0
  0
LINE
  5
17B34
330
747D
100
AcDbEntity
  8
部品1
100
AcDbLine
 10
10056.84983051325
 20
2587.931598713261
 30
0.0
 11
12211.84983051325
 21
2587.931598713261
 31
0.0
  0
LINE
  5
17B35
330
747D
100
AcDbEntity
  8
部品1
100
AcDbLine
 10
10001.84983051324
 20
4677.931598713261
 30
0.0
 11
12211.84983051325
 21
4677.931598713261
 31
0.0
  0
LINE
  5
17B36
330
747D
100
AcDbEntity
  8
部品1
100
AcDbLine
 10
11736.84983051324
 20
4677.931598713261
 30
0.0
 11
11736.84983051324
 21
2587.931598713261
 31
0.0
  0
LINE
  5
17B37
330
747D
100
AcDbEntity
  8
細線
 48
50.0
100
AcDbLine
 10
11659.34983051325
 20
4677.931598713261
 30
0.0
 11
11659.34983051325
 21
2587.931598713261
 31
0.0
  0
LINE
  5
17B38
330
747D
100
AcDbEntity
  8
細線
 48
50.0
100
AcDbLine
 10
11674.34983051325
 20
4677.931598713261
 30
0.0
 11
11674.34983051325
 21
2587.931598713261
 31
0.0
  0
LINE
  5
17B39
330
747D
100
AcDbEntity
  8
細線
 48
50.0
100
AcDbLine
 10
11534.34983051325
 20
4677.931598713261
 30
0.0
 11
11534.34983051325
 21
2587.931598713261
 31
0.0
  0
LINE
  5
17B3A
330
747D
100
AcDbEntity
  8
細線
 48
50.0
100
AcDbLine
 10
11519.34983051325
 20
4677.931598713261
 30
0.0
 11
11519.34983051325
 21
2587.931598713261
 31
0.0
  0
LINE
  5
17B3B
330
747D
100
AcDbEntity
  8
細線
 48
50.0
100
AcDbLine
 10
11379.34983051325
 20
4677.931598713261
 30
0.0
 11
11379.34983051325
 21
2587.931598713261
 31
0.0
  0
LINE
  5
17B3C
330
747D
100
AcDbEntity
  8
細線
 48
50.0
100
AcDbLine
 10
11394.34983051325
 20
4677.931598713261
 30
0.0
 11
11394.34983051325
 21
2587.931598713261
 31
0.0
  0
TEXT
  5
17B3D
330
747D
100
AcDbEntity
  8
部品1
 48
50.0
100
AcDbText
 10
11422.75068840206
 20
4941.746785988522
 30
0.0
 40
120.0
  1
44
 50
90.0
  7
STYLE1
100
AcDbText
  0
TEXT
  5
17B3E
330
747D
100
AcDbEntity
  8
部品1
 48
50.0
100
AcDbText
 10
10945.11766573697
 20
5079.248044206805
 30
0.0
 40
120.0
  1
1000
  7
STYLE1
100
AcDbText
  0
LINE
  5
17B3F
330
747D
100
AcDbEntity
  8
部品1
 48
50.0
100
AcDbLine
 10
11256.84983051324
 20
5043.364022054372
 30
0.0
 11
11256.84983051324
 21
5027.164022054375
 31
0.0
  0
LINE
  5
17B40
330
747D
100
AcDbEntity
  8
部品1
 48
50.0
100
AcDbLine
 10
10956.84983051324
 20
5043.364022054372
 30
0.0
 11
11256.84983051324
 21
5043.364022054372
 31
0.0
  0
LINE
  5
17B41
330
747D
100
AcDbEntity
  8
部品1
100
AcDbLine
 10
9949.39481687021
 20
4911.649334047528
 30
0.0
 11
12284.46170737471
 21
4856.572396422402
 31
0.0
  0
LINE
  5
17B42
330
747D
100
AcDbEntity
  8
部品1
100
AcDbLine
 10
9957.1923951152
 20
4770.712623782229
 30
0.0
 11
12266.51353105309
 21
4731.684198548024
 31
0.0
  0
LINE
  5
17B43
330
747D
100
AcDbEntity
  8
細線
 48
50.0
100
AcDbLine
 10
9974.849830513248
 20
4910.331275088665
 30
0.0
 11
9969.560728957741
 21
4770.245642461311
 31
0.0
  0
LINE
  5
17B44
330
747D
100
AcDbEntity
  8
細線
 48
50.0
100
AcDbLine
 10
12258.84983051325
 20
4857.898577748557
 30
0.0
 11
12254.10214762525
 21
4732.152805257814
 31
0.0
  0
LINE
  5
17B45
330
747D
100
AcDbEntity
  8
部品1
 48
50.0
100
AcDbLine
 10
9942.034116426354
 20
4904.525144877954
 30
0.0
 11
9942.414376204167
 21
4884.598180431542
 31
0.0
  0
LINE
  5
17B46
330
747D
100
AcDbEntity
  8
部品1
 48
50.0
100
AcDbLine
 10
9945.483148310412
 20
4881.02289893807
 30
0.0
 11
9947.187049801776
 21
4791.732402231423
 31
0.0
  0
LINE
  5
17B47
330
747D
100
AcDbEntity
  8
細線
 48
50.0
100
AcDbLine
 10
9942.889253614062
 20
4883.948680554622
 30
0.0
 11
12288.52523835923
 21
4828.324475913796
 31
0.0
  0
LINE
  5
17B48
330
747D
100
AcDbEntity
  8
細線
 48
50.0
100
AcDbLine
 10
9947.649728851347
 20
4791.08716885676
 30
0.0
 11
12277.65339328198
 21
4751.277849882266
 31
0.0
  0
LINE
  5
17B49
330
747D
100
AcDbEntity
  8
部品1
 48
50.0
100
AcDbLine
 10
9950.255821908019
 20
4788.157120737952
 30
0.0
 11
9950.45777452845
 21
4777.574085344858
 31
0.0
  0
ARC
  5
17B4A
330
747D
100
AcDbEntity
  8
部品1
 48
50.0
100
AcDbCircle
 10
9949.032842254695
 20
4904.658699285381
 30
0.0
 40
7.0
100
AcDbArc
 50
87.03587545282958
 51
181.0932240293156
  0
ARC
  5
17B4B
330
747D
100
AcDbEntity
  8
部品1
 48
50.0
100
AcDbCircle
 10
9957.456500356791
 20
4777.707639752287
 30
0.0
 40
7.0
100
AcDbArc
 50
181.0932240293156
 51
267.8377559869492
  0
ARC
  5
17B4C
330
747D
100
AcDbEntity
  8
部品1
100
AcDbCircle
 10
9947.256367981589
 20
4788.099883134768
 30
0.0
 40
3.0
100
AcDbArc
 50
1.093224029315636
 51
80.18775403168987
  0
ARC
  5
17B4D
330
747D
100
AcDbEntity
  8
部品1
100
AcDbCircle
 10
9942.483694383982
 20
4880.965661334887
 30
0.0
 40
3.0
100
AcDbArc
 50
1.093224029315636
 51
80.18775403168987
  0
ARC
  5
17B4E
330
747D
100
AcDbEntity
  8
部品1
100
AcDbCircle
 10
9943.114248787004
 20
4884.611535872285
 30
0.0
 40
0.7
100
AcDbArc
 50
181.0932240292114
 51
260.1877540314845
  0
ARC
  5
17B4F
330
747D
100
AcDbEntity
  8
部品1
100
AcDbCircle
 10
9947.886922384615
 20
4791.745757672164
 30
0.0
 40
0.7
100
AcDbArc
 50
181.0932240292114
 51
260.1877540314845
  0
LINE
  5
17B50
330
747D
100
AcDbEntity
  8
部品1
 48
50.0
100
AcDbLine
 10
12291.06373332395
 20
4848.872750987481
 30
0.0
 11
12289.03311213298
 21
4828.9277097297
 31
0.0
  0
LINE
  5
17B51
330
747D
100
AcDbEntity
  8
部品1
 48
50.0
100
AcDbLine
 10
12285.6805456485
 20
4825.617075656792
 30
0.0
 11
12278.17376638366
 21
4751.884454911778
 31
0.0
  0
LINE
  5
17B52
330
747D
100
AcDbEntity
  8
部品1
 48
50.0
100
AcDbLine
 10
12274.82119989917
 20
4748.573820838866
 30
0.0
 11
12273.74163685943
 21
4737.970203845306
 31
0.0
  0
ARC
  5
17B53
330
747D
100
AcDbEntity
  8
部品1
 48
50.0
100
AcDbCircle
 10
12284.09973275919
 20
4849.581761660254
 30
0.0
 40
7.0
100
AcDbArc
 50
354.1866997665532
 51
87.03587545282958
  0
ARC
  5
17B54
330
747D
100
AcDbEntity
  8
部品1
 48
50.0
100
AcDbCircle
 10
12266.77763629468
 20
4738.67921451808
 30
0.0
 40
7.0
100
AcDbArc
 50
267.8377559869492
 51
354.1866997665532
  0
ARC
  5
17B55
330
747D
100
AcDbEntity
  8
部品1
100
AcDbCircle
 10
12277.80577156978
 20
4748.269959121964
 30
0.0
 40
3.0
100
AcDbArc
 50
95.09216976420788
 51
174.1866997665532
  0
ARC
  5
17B56
330
747D
100
AcDbEntity
  8
部品1
100
AcDbCircle
 10
12288.66511731911
 20
4825.313213939888
 30
0.0
 40
3.0
100
AcDbArc
 50
95.09216976420788
 51
174.1866997665532
  0
ARC
  5
17B57
330
747D
100
AcDbEntity
  8
部品1
100
AcDbCircle
 10
12288.33671207651
 20
4828.998610796978
 30
0.0
 40
0.7
100
AcDbArc
 50
275.0921697642079
 51
354.1866997665532
  0
ARC
  5
17B58
330
747D
100
AcDbEntity
  8
部品1
100
AcDbCircle
 10
12277.47736632719
 20
4751.955355979054
 30
0.0
 40
0.7
100
AcDbArc
 50
275.0921697642079
 51
354.1866997666569
  0
LINE
  5
17B5B
330
747D
100
AcDbEntity
  8
部品1
100
AcDbLine
 10
10931.39481687021
 20
5044.682081013235
 30
0.0
 11
11256.84983051324
 21
5027.164022054375
 31
0.0
  0
TEXT
  5
17B5C
330
747D
100
AcDbEntity
  8
部品1
100
AcDbText
 10
10814.56059882263
 20
1595.038069494738
 30
0.0
 40
135.0
  1
側面図
  7
STYLE2
100
AcDbText
  0
LWPOLYLINE
  5
17B5D
330
747D
100
AcDbEntity
  8
部品1
100
AcDbPolyline
 90
        4
 70
     1
 43
0.0
 10
10725.11449739903
 20
1787.931598713261
 10
10725.11449739903
 20
1548.039277167729
 10
11488.58516362746
 20
1548.039277167729
 10
11488.58516362746
 20
1787.931598713261
  0
DIMENSION
  5
17B5E
330
747D
100
AcDbEntity
  8
寸法
100
AcDbDimension
  2
*D17
 10
12916.77698848537
 20
4857.931598713261
 30
0.0
 11
12816.76517746175
 21
3697.931598713263
 31
0.0
 70
    32
 71
     5
 42
2320.0
  3
INABA_S40G
100
AcDbAlignedDimension
 13
12211.84983051325
 23
2537.931598713262
 33
0.0
 14
12291.84983051325
 24
4857.931598713261
 34
0.0
 50
90.0
100
AcDbRotatedDimension
1001
ACAD
1000
DSTYLE
1002
{
1070
   174
1070
     0
1070
   272
1070
     1
1070
   288
1070
     0
1070
   341
1005
0
1002
}
  0
DIMENSION
  5
17B5F
330
747D
100
AcDbEntity
  8
寸法
100
AcDbDimension
  2
*D16
 10
8858.099701329988
 20
4912.931598713265
 30
0.0
 11
8758.087890306363
 21
3725.431598713264
 31
0.0
 70
    32
 71
     5
 42
2375.000000000005
  3
INABA_S40G
100
AcDbAlignedDimension
 13
10001.84983051324
 23
2537.93159871326
 33
0.0
 14
9941.849830513248
 24
4912.931598713265
 34
0.0
 50
90.0
100
AcDbRotatedDimension
1001
ACAD
1000
DSTYLE
1002
{
1070
   174
1070
     0
1070
   272
1070
     1
1070
   288
1070
     0
1070
   341
1005
0
1002
}
  0
DIMENSION
  5
17B60
330
747D
100
AcDbEntity
  8
寸法
100
AcDbDimension
  2
*D15
 10
9158.099701329987
 20
2587.93159871326
 30
0.0
 11
9058.087890306365
 21
3632.931598713262
 31
0.0
 70
    32
 71
     5
 42
2090.000000000001
  3
INABA_S40G
100
AcDbAlignedDimension
 13
10001.84983051324
 23
4677.931598713261
 33
0.0
 14
10001.84983051324
 24
2587.93159871326
 34
0.0
 50
90.0
100
AcDbRotatedDimension
1001
ACAD
1000
DSTYLE
1002
{
1070
   174
1070
     0
1070
   272
1070
     1
1070
   288
1070
     0
1070
   341
1005
0
1002
}
  0
LINE
  5
17C81
330
747D
100
AcDbEntity
  8
部品1
100
AcDbLine
 10
10001.84983051324
 20
2537.931598713262
 30
0.0
 11
9608.8526163044
 21
2437.931598713261
 31
0.0
  0
LINE
  5
17C82
330
747D
100
AcDbEntity
  8
破線
 48
5.0
100
AcDbLine
 10
10001.84983051324
 20
2437.931598713261
 30
0.0
 11
10001.84983051324
 21
2187.931598713261
 31
0.0
  0
LINE
  5
17C83
330
747D
100
AcDbEntity
  8
破線
 48
5.0
100
AcDbLine
 10
10056.84983051325
 20
2437.931598713261
 30
0.0
 11
10056.84983051325
 21
2187.931598713261
 31
0.0
  0
LINE
  5
17C84
330
747D
100
AcDbEntity
  8
破線
 48
5.0
100
AcDbLine
 10
10001.84983051324
 20
2187.931598713261
 30
0.0
 11
10056.84983051324
 21
2187.931598713261
 31
0.0
  0
DIMENSION
  5
17D31
330
747D
100
AcDbEntity
  8
寸法
 48
50.0
100
AcDbDimension
  2
*D27
 10
4744.673057123658
 20
5125.473183971505
 30
0.0
 11
6059.673057123658
 21
5125.473183971505
 31
0.0
 70
   160
  1
柱外寸法<>
 71
     5
 42
2630.0
  3
INABA_S40G
100
AcDbAlignedDimension
 13
7374.673057123658
 23
4912.931598713266
 33
0.0
 14
4744.673057123658
 24
4912.931598713267
 34
0.0
100
AcDbRotatedDimension
  0
DIMENSION
  5
17D32
330
747D
100
AcDbEntity
  8
寸法
 48
50.0
100
AcDbDimension
  2
*D25
 10
7374.673057123658
 20
5125.473183971505
 30
0.0
 11
7738.158338497895
 21
5125.473183971505
 31
0.0
 70
   160
 71
     5
 42
50.0
  3
INABA_S40G
100
AcDbAlignedDimension
 13
7424.673057123658
 23
4912.931598713264
 33
0.0
 14
7374.673057123658
 24
4912.931598713266
 34
0.0
100
AcDbRotatedDimension
  0
DIMENSION
  5
17D33
330
747D
100
AcDbEntity
  8
寸法
 48
50.0
100
AcDbDimension
  2
*D24
 10
7424.673057123658
 20
5340.86861545376
 30
0.0
 11
6059.673057123658
 21
5340.86861545376
 31
0.0
 70
   160
 71
     5
 42
2730.0
  3
INABA_S40G
100
AcDbAlignedDimension
 13
4694.673057123658
 23
4912.931598713266
 33
0.0
 14
7424.673057123658
 24
4912.931598713264
 34
0.0
100
AcDbRotatedDimension
  0
DIMENSION
  5
17D34
330
747D
100
AcDbEntity
  8
寸法
 48
50.0
100
AcDbDimension
  2
*D26
 10
4694.673057123658
 20
5125.473183971505
 30
0.0
 11
4381.187775749411
 21
5125.473183971505
 31
0.0
 70
   160
 71
     5
 42
50.0
  3
INABA_S40G
100
AcDbAlignedDimension
 13
4744.673057123658
 23
4912.931598713267
 33
0.0
 14
4694.673057123658
 24
4912.931598713266
 34
0.0
100
AcDbRotatedDimension
1001
ACAD
1000
DSTYLE
1002
{
1002
}
  0
LINE
  5
17D35
330
747D
100
AcDbEntity
  8
部品1
100
AcDbLine
 10
4695.092718138988
 20
4905.535073318024
 30
0.0
 11
4696.226115471338
 21
4885.558945335425
 31
0.0
  0
LINE
  5
17D36
330
747D
100
AcDbEntity
  8
部品1
100
AcDbLine
 10
4707.663135792914
 20
4789.901538168367
 30
0.0
 11
4708.308041600022
 21
4778.535073318026
 31
0.0
  0
LINE
  5
17D37
330
747D
100
AcDbEntity
  8
部品1
100
AcDbLine
 10
4699.427105268067
 20
4882.101538168367
 30
0.0
 11
4704.462145996178
 21
4793.358945335424
 31
0.0
  0
ARC
  5
17D38
330
747D
100
AcDbEntity
  8
部品1
 48
50.0
100
AcDbCircle
 10
4696.431922371881
 20
4881.931598713266
 30
0.0
 40
3.0
100
AcDbArc
 50
3.247342790337682
 51
82.3418727926348
  0
ARC
  5
17D39
330
747D
100
AcDbEntity
  8
部品1
 48
50.0
100
AcDbCircle
 10
4704.667952896725
 20
4789.731598713263
 30
0.0
 40
3.0
100
AcDbArc
 50
3.247342790337682
 51
82.3418727926348
  0
ARC
  5
17D3A
330
747D
100
AcDbEntity
  8
部品1
 48
50.0
100
AcDbCircle
 10
4705.161022005286
 20
4793.398597874946
 30
0.0
 40
0.7
100
AcDbArc
 50
183.2473427903377
 51
262.3418727926349
  0
ARC
  5
17D3B
330
747D
100
AcDbEntity
  8
部品1
 48
50.0
100
AcDbCircle
 10
4696.924991480446
 20
4885.598597874952
 30
0.0
 40
0.7
100
AcDbArc
 50
183.2473427904417
 51
262.3418727926349
  0
ARC
  5
17D3C
330
747D
100
AcDbEntity
  8
部品1
100
AcDbCircle
 10
4715.296801691121
 20
4778.931598713266
 30
0.0
 40
7.0
100
AcDbArc
 50
183.2473427903377
 51
270.0
  0
ARC
  5
17D3D
330
747D
100
AcDbEntity
  8
部品1
100
AcDbCircle
 10
4702.081478230087
 20
4905.931598713264
 30
0.0
 40
7.0
100
AcDbArc
 50
90.0
 51
183.2473427903377
  0
ARC
  5
17D3E
330
747D
100
AcDbEntity
  8
部品1
100
AcDbCircle
 10
7417.264636017226
 20
4905.931598713264
 30
0.0
 40
7.0
100
AcDbArc
 50
356.7526572096623
 51
90.0
  0
ARC
  5
17D3F
330
747D
100
AcDbEntity
  8
部品1
100
AcDbCircle
 10
7404.049312556193
 20
4778.931598713266
 30
0.0
 40
7.0
100
AcDbArc
 50
270.0
 51
356.7526572096623
  0
ARC
  5
17D40
330
747D
100
AcDbEntity
  8
部品1
 48
50.0
100
AcDbCircle
 10
7422.421122766872
 20
4885.598597874952
 30
0.0
 40
0.7
100
AcDbArc
 50
277.6581272073652
 51
356.7526572095583
  0
ARC
  5
17D41
330
747D
100
AcDbEntity
  8
部品1
 48
50.0
100
AcDbCircle
 10
7414.185092242028
 20
4793.398597874946
 30
0.0
 40
0.7
100
AcDbArc
 50
277.6581272073652
 51
356.7526572096623
  0
ARC
  5
17D42
330
747D
100
AcDbEntity
  8
部品1
 48
50.0
100
AcDbCircle
 10
7414.678161350588
 20
4789.731598713263
 30
0.0
 40
3.0
100
AcDbArc
 50
97.65812720736519
 51
176.7526572096623
  0
ARC
  5
17D43
330
747D
100
AcDbEntity
  8
部品1
 48
50.0
100
AcDbCircle
 10
7422.914191875432
 20
4881.931598713266
 30
0.0
 40
3.0
100
AcDbArc
 50
97.65812720736519
 51
176.7526572096623
  0
LINE
  5
17D44
330
747D
100
AcDbEntity
  8
部品1
100
AcDbLine
 10
7419.919008979246
 20
4882.101538168367
 30
0.0
 11
7414.883968251135
 21
4793.358945335424
 31
0.0
  0
LINE
  5
17D45
330
747D
100
AcDbEntity
  8
部品1
100
AcDbLine
 10
7411.682978454402
 20
4789.901538168367
 30
0.0
 11
7411.038072647291
 21
4778.535073318026
 31
0.0
  0
LINE
  5
17D46
330
747D
100
AcDbEntity
  8
細線
 48
50.0
100
AcDbLine
 10
4727.673057123658
 20
4912.931598713264
 30
0.0
 11
4727.673057123658
 21
4771.931598713264
 31
0.0
  0
LINE
  5
17D47
330
747D
100
AcDbEntity
  8
細線
 48
50.0
100
AcDbLine
 10
7391.673057123658
 20
4912.931598713264
 30
0.0
 11
7391.673057123658
 21
4771.931598713264
 31
0.0
  0
LINE
  5
17D48
330
747D
100
AcDbEntity
  8
部品1
100
AcDbLine
 10
7424.253396108325
 20
4905.535073318024
 30
0.0
 11
7423.119998775979
 21
4885.558945335425
 31
0.0
  0
LINE
  5
17D49
330
747D
100
AcDbEntity
  8
細線
 48
50.0
100
AcDbLine
 10
7414.278375586899
 20
4792.704841276732
 30
0.0
 11
4705.067738660458
 21
4792.704841277052
 31
0.0
  0
LINE
  5
17D4A
330
747D
100
AcDbEntity
  8
細線
 48
50.0
100
AcDbLine
 10
7422.514406111743
 20
4884.904841276732
 30
0.0
 11
4696.831708135618
 21
4884.904841277053
 31
0.0
  0
LINE
  5
17D4B
330
747D
100
AcDbEntity
  8
部品1
 48
50.0
100
AcDbLine
 10
7404.049312556193
 20
4771.931598713265
 30
0.0
 11
4715.296801691121
 21
4771.931598713265
 31
0.0
  0
LINE
  5
17D4C
330
747D
100
AcDbEntity
  8
部品1
 48
50.0
100
AcDbLine
 10
7417.264636017226
 20
4912.931598713264
 30
0.0
 11
4702.081478230087
 21
4912.931598713264
 31
0.0
  0
LWPOLYLINE
  5
1848C
330
747D
100
AcDbEntity
  8
部品1
100
AcDbPolyline
 90
        4
 70
     1
 43
0.0
 10
5677.937724009439
 20
1787.931598713261
 10
5677.937724009439
 20
1548.039277167729
 10
6441.408390237878
 20
1548.039277167729
 10
6441.408390237878
 20
1787.931598713261
  0
TEXT
  5
1848D
330
747D
100
AcDbEntity
  8
部品1
100
AcDbText
 10
5768.463127747392
 20
1595.038069494738
 30
0.0
 40
135.0
  1
正面図
  7
STYLE2
100
AcDbText
  0
TEXT
  5
1848E
330
747D
100
AcDbEntity
  8
部品1
100
AcDbText
 10
5767.857333838481
 20
6331.117066127845
 30
0.0
 40
135.0
  1
平面図
  7
STYLE2
100
AcDbText
  0
LWPOLYLINE
  5
1848F
330
747D
100
AcDbEntity
  8
部品1
100
AcDbPolyline
 90
        4
 70
     1
 43
0.0
 10
5677.937724009444
 20
6524.010595346368
 10
5677.937724009444
 20
6284.118273800835
 10
6441.408390237882
 20
6284.118273800835
 10
6441.408390237882
 20
6524.010595346368
  0
TEXT
  5
18774
330
747D
100
AcDbEntity
  8
文字
 62
     7
 48
50.0
100
AcDbText
 10
14499.88896070973
 20
483.8967129911414
 30
0.0
 40
160.0
  1
FXN-60HD
  7
STYLE2
100
AcDbText
  0
LINE
  5
1878B
330
747D
100
AcDbEntity
  8
補助
  6
PHANTOM
 62
   230
 48
50.0
100
AcDbLine
 10
140.0
 20
0.0
 30
0.0
 11
140.0
 21
11409.6
 31
0.0
  0
DIMENSION
  5
188EC
330
747D
100
AcDbEntity
  8
寸法
 48
50.0
100
AcDbDimension
  2
*D28
 10
7662.216159445404
 20
4677.931598713261
 30
0.0
 11
7662.216159445403
 21
4916.416880087502
 31
0.0
 70
   160
 71
     5
 42
164.9999999999991
  3
INABA_S40G
100
AcDbAlignedDimension
 13
7374.673057123658
 23
4512.931598713262
 33
0.0
 14
7374.673057123657
 24
4677.931598713261
 34
0.0
 50
90.0
100
AcDbRotatedDimension
1001
ACAD
1000
DSTYLE
1002
{
1002
}
  0
DIMENSION
  5
188ED
330
747D
100
AcDbEntity
  8
寸法
 48
50.0
100
AcDbDimension
  2
*D29
 10
7662.216159445403
 20
4512.931598713262
 30
0.0
 11
7802.385982691768
 21
4513.89879855292
 31
0.0
 70
   160
 71
     5
 42
27.00000000000182
  3
INABA_S40G
100
AcDbAlignedDimension
 13
7374.673057123658
 23
4485.93159871326
 33
0.0
 14
7374.673057123658
 24
4512.931598713262
 34
0.0
 50
90.0
100
AcDbRotatedDimension
1001
ACAD
1000
DSTYLE
1002
{
1070
   279
1070
     2
1002
}
  0
DIMENSION
  5
188EE
330
747D
100
AcDbEntity
  8
寸法
 48
50.0
100
AcDbDimension
  2
*D30
 10
7662.216159445403
 20
4485.93159871326
 30
0.0
 11
7562.216159445402
 21
3511.931598713263
 31
0.0
 70
    32
  1
有効開口部高サ <>
 71
     5
 42
1947.999999999999
  3
INABA_S40G
100
AcDbAlignedDimension
 13
7374.673057123657
 23
2537.931598713262
 33
0.0
 14
7374.673057123658
 24
4485.93159871326
 34
0.0
 50
90.0
100
AcDbRotatedDimension
  0
ARC
  5
18BC0
330
747D
100
AcDbEntity
  8
部品1
 48
0.01
100
AcDbCircle
 10
6586.67305712366
 20
4710.431598713261
 30
0.0
 40
2.0
100
AcDbArc
 50
180.0
 51
270.0
  0
ARC
  5
18BC1
330
747D
100
AcDbEntity
  8
部品1
 48
0.01
100
AcDbCircle
 10
6762.67305712366
 20
4710.431598713261
 30
0.0
 40
2.0
100
AcDbArc
 50
270.0
 51
0.0
  0
LINE
  5
18BC2
330
747D
100
AcDbEntity
  8
部品1
 48
0.01
100
AcDbLine
 10
6762.67305712366
 20
4708.431598713261
 30
0.0
 11
6586.67305712366
 21
4708.431598713261
 31
0.0
  0
LINE
  5
18BC3
330
747D
100
AcDbEntity
  8
部品1
 48
0.01
100
AcDbLine
 10
5356.673057123661
 20
4708.431598713261
 30
0.0
 11
5532.673057123656
 21
4708.431598713261
 31
0.0
  0
ARC
  5
18BC4
330
747D
100
AcDbEntity
  8
部品1
 48
0.01
100
AcDbCircle
 10
5356.673057123661
 20
4710.431598713261
 30
0.0
 40
2.0
100
AcDbArc
 50
180.0
 51
270.0
  0
ARC
  5
18BC5
330
747D
100
AcDbEntity
  8
部品1
 48
0.01
100
AcDbCircle
 10
5532.673057123656
 20
4710.431598713261
 30
0.0
 40
2.0
100
AcDbArc
 50
270.0
 51
0.0
  0
ARC
  5
18BC6
330
747D
100
AcDbEntity
  8
部品1
 48
0.01
100
AcDbCircle
 10
6586.67305712366
 20
4741.931598713261
 30
0.0
 40
2.0
100
AcDbArc
 50
90.0
 51
180.0
  0
ARC
  5
18BC7
330
747D
100
AcDbEntity
  8
部品1
 48
0.01
100
AcDbCircle
 10
6762.67305712366
 20
4741.931598713261
 30
0.0
 40
2.0
100
AcDbArc
 50
0.0
 51
90.0
  0
LINE
  5
18BC8
330
747D
100
AcDbEntity
  8
細線
100
AcDbLine
 10
6674.673057123661
 20
4714.431598713261
 30
0.0
 11
6600.67305712366
 21
4714.431598713261
 31
0.0
  0
LINE
  5
18BC9
330
747D
100
AcDbEntity
  8
細線
100
AcDbLine
 10
6674.673057123661
 20
4737.431598713261
 30
0.0
 11
6748.67305712366
 21
4737.431598713261
 31
0.0
  0
LINE
  5
18BCA
330
747D
100
AcDbEntity
  8
細線
100
AcDbLine
 10
6748.67305712366
 20
4714.431598713261
 30
0.0
 11
6674.673057123661
 21
4714.431598713261
 31
0.0
  0
LINE
  5
18BCB
330
747D
100
AcDbEntity
  8
細線
100
AcDbLine
 10
6600.67305712366
 20
4737.431598713261
 30
0.0
 11
6674.673057123661
 21
4737.431598713261
 31
0.0
  0
LINE
  5
18BCC
330
747D
100
AcDbEntity
  8
細線
100
AcDbLine
 10
6600.67305712366
 20
4714.431598713261
 30
0.0
 11
6600.67305712366
 21
4737.431598713261
 31
0.0
  0
LINE
  5
18BCD
330
747D
100
AcDbEntity
  8
細線
100
AcDbLine
 10
6748.67305712366
 20
4737.431598713261
 30
0.0
 11
6748.67305712366
 21
4714.431598713261
 31
0.0
  0
LINE
  5
18BCE
330
747D
100
AcDbEntity
  8
部品1
 48
0.01
100
AcDbLine
 10
6584.67305712366
 20
4710.431598713261
 30
0.0
 11
6584.67305712366
 21
4741.931598713261
 31
0.0
  0
LINE
  5
18BCF
330
747D
100
AcDbEntity
  8
部品1
 48
0.01
100
AcDbLine
 10
6764.67305712366
 20
4741.931598713261
 30
0.0
 11
6764.67305712366
 21
4710.431598713261
 31
0.0
  0
LINE
  5
18BD0
330
747D
100
AcDbEntity
  8
部品1
 48
0.01
100
AcDbLine
 10
6586.67305712366
 20
4743.931598713261
 30
0.0
 11
6762.67305712366
 21
4743.931598713261
 31
0.0
  0
LINE
  5
18BD1
330
747D
100
AcDbEntity
  8
細線
100
AcDbLine
 10
6748.67305712366
 20
4731.431598713261
 30
0.0
 11
6674.673057123661
 21
4731.431598713261
 31
0.0
  0
LINE
  5
18BD2
330
747D
100
AcDbEntity
  8
細線
100
AcDbLine
 10
6748.67305712366
 20
4725.431598713261
 30
0.0
 11
6674.673057123661
 21
4725.431598713261
 31
0.0
  0
LINE
  5
18BD3
330
747D
100
AcDbEntity
  8
細線
100
AcDbLine
 10
6748.67305712366
 20
4719.431598713261
 30
0.0
 11
6674.673057123661
 21
4719.431598713261
 31
0.0
  0
LINE
  5
18BD4
330
747D
100
AcDbEntity
  8
細線
100
AcDbLine
 10
6748.67305712366
 20
4731.431598713261
 30
0.0
 11
6679.673057123661
 21
4731.431598713261
 31
0.0
  0
LINE
  5
18BD5
330
747D
100
AcDbEntity
  8
細線
100
AcDbLine
 10
6600.67305712366
 20
4731.431598713261
 30
0.0
 11
6674.673057123661
 21
4731.431598713261
 31
0.0
  0
LINE
  5
18BD6
330
747D
100
AcDbEntity
  8
細線
100
AcDbLine
 10
6600.67305712366
 20
4719.431598713261
 30
0.0
 11
6674.673057123661
 21
4719.431598713261
 31
0.0
  0
LINE
  5
18BD7
330
747D
100
AcDbEntity
  8
細線
100
AcDbLine
 10
6600.67305712366
 20
4725.431598713261
 30
0.0
 11
6674.673057123661
 21
4725.431598713261
 31
0.0
  0
LINE
  5
18BD8
330
747D
100
AcDbEntity
  8
細線
100
AcDbLine
 10
6674.673057123661
 20
4737.431598713261
 30
0.0
 11
6674.673057123661
 21
4714.431598713261
 31
0.0
  0
LINE
  5
18BD9
330
747D
100
AcDbEntity
  8
細線
100
AcDbLine
 10
5444.673057123661
 20
4737.431598713261
 30
0.0
 11
5444.673057123657
 21
4714.431598713261
 31
0.0
  0
LINE
  5
18BDA
330
747D
100
AcDbEntity
  8
細線
100
AcDbLine
 10
5518.673057123656
 20
4725.431598713261
 30
0.0
 11
5444.673057123661
 21
4725.431598713261
 31
0.0
  0
LINE
  5
18BDB
330
747D
100
AcDbEntity
  8
細線
100
AcDbLine
 10
5518.673057123656
 20
4719.431598713261
 30
0.0
 11
5444.673057123661
 21
4719.431598713261
 31
0.0
  0
LINE
  5
18BDC
330
747D
100
AcDbEntity
  8
細線
100
AcDbLine
 10
5518.673057123656
 20
4731.431598713261
 30
0.0
 11
5444.673057123661
 21
4731.431598713261
 31
0.0
  0
LINE
  5
18BDD
330
747D
100
AcDbEntity
  8
細線
100
AcDbLine
 10
5370.67305712366
 20
4731.431598713261
 30
0.0
 11
5439.67305712366
 21
4731.431598713261
 31
0.0
  0
LINE
  5
18BDE
330
747D
100
AcDbEntity
  8
細線
100
AcDbLine
 10
5370.673057123656
 20
4719.431598713261
 30
0.0
 11
5444.673057123661
 21
4719.431598713261
 31
0.0
  0
LINE
  5
18BDF
330
747D
100
AcDbEntity
  8
細線
100
AcDbLine
 10
5370.67305712366
 20
4725.431598713261
 30
0.0
 11
5444.673057123661
 21
4725.431598713261
 31
0.0
  0
LINE
  5
18BE0
330
747D
100
AcDbEntity
  8
細線
100
AcDbLine
 10
5370.67305712366
 20
4731.431598713261
 30
0.0
 11
5444.673057123661
 21
4731.431598713261
 31
0.0
  0
LINE
  5
18BE1
330
747D
100
AcDbEntity
  8
部品1
 48
0.01
100
AcDbLine
 10
5532.67305712366
 20
4743.931598713261
 30
0.0
 11
5356.673057123661
 21
4743.931598713261
 31
0.0
  0
LINE
  5
18BE2
330
747D
100
AcDbEntity
  8
部品1
 48
0.01
100
AcDbLine
 10
5354.67305712366
 20
4741.931598713261
 30
0.0
 11
5354.67305712366
 21
4710.431598713261
 31
0.0
  0
LINE
  5
18BE3
330
747D
100
AcDbEntity
  8
部品1
 48
0.01
100
AcDbLine
 10
5534.673057123657
 20
4710.431598713261
 30
0.0
 11
5534.673057123661
 21
4741.931598713261
 31
0.0
  0
LINE
  5
18BE4
330
747D
100
AcDbEntity
  8
細線
100
AcDbLine
 10
5370.67305712366
 20
4737.431598713261
 30
0.0
 11
5370.67305712366
 21
4714.431598713261
 31
0.0
  0
LINE
  5
18BE5
330
747D
100
AcDbEntity
  8
細線
100
AcDbLine
 10
5518.67305712366
 20
4714.431598713261
 30
0.0
 11
5518.67305712366
 21
4737.431598713261
 31
0.0
  0
LINE
  5
18BE6
330
747D
100
AcDbEntity
  8
細線
100
AcDbLine
 10
5518.67305712366
 20
4737.431598713261
 30
0.0
 11
5444.673057123661
 21
4737.431598713261
 31
0.0
  0
LINE
  5
18BE7
330
747D
100
AcDbEntity
  8
細線
100
AcDbLine
 10
5370.67305712366
 20
4714.431598713261
 30
0.0
 11
5444.673057123661
 21
4714.431598713261
 31
0.0
  0
LINE
  5
18BE8
330
747D
100
AcDbEntity
  8
細線
100
AcDbLine
 10
5444.673057123661
 20
4737.431598713261
 30
0.0
 11
5370.67305712366
 21
4737.431598713261
 31
0.0
  0
LINE
  5
18BE9
330
747D
100
AcDbEntity
  8
細線
100
AcDbLine
 10
5444.673057123657
 20
4714.431598713261
 30
0.0
 11
5518.67305712366
 21
4714.431598713261
 31
0.0
  0
ARC
  5
18BEA
330
747D
100
AcDbEntity
  8
部品1
 48
0.01
100
AcDbCircle
 10
5356.673057123661
 20
4741.931598713261
 30
0.0
 40
2.0
100
AcDbArc
 50
90.0
 51
180.0
  0
ARC
  5
18BEB
330
747D
100
AcDbEntity
  8
部品1
 48
0.01
100
AcDbCircle
 10
5532.67305712366
 20
4741.931598713261
 30
0.0
 40
2.0
100
AcDbArc
 50
0.0
 51
90.0
  0
LINE
  5
18F2C
330
747D
100
AcDbEntity
  8
破線
 48
5.0
100
AcDbLine
 10
4847.673057123658
 20
2537.931598713262
 30
0.0
 11
4847.673057123656
 21
2287.931598713267
 31
0.0
  0
LINE
  5
18F2D
330
747D
100
AcDbEntity
  8
破線
 48
5.0
100
AcDbLine
 10
4847.673057123658
 20
2537.931598713262
 30
0.0
 11
4847.673057123656
 21
2287.931598713267
 31
0.0
  0
LINE
  5
18F2E
330
747D
100
AcDbEntity
  8
破線
 48
5.0
100
AcDbLine
 10
4847.673057123657
 20
2287.931598713267
 30
0.0
 11
4799.673057123656
 21
2287.931598713267
 31
0.0
  0
LINE
  5
18F2F
330
747D
100
AcDbEntity
  8
破線
 48
5.0
100
AcDbLine
 10
4847.673057123657
 20
2287.931598713267
 30
0.0
 11
4799.673057123656
 21
2287.931598713267
 31
0.0
  0
LINE
  5
18F30
330
747D
100
AcDbEntity
  8
破線
 48
5.0
100
AcDbLine
 10
4799.673057123656
 20
2187.931598713269
 30
0.0
 11
4744.673057123656
 21
2187.931598713269
 31
0.0
  0
LINE
  5
18F31
330
747D
100
AcDbEntity
  8
破線
 48
5.0
100
AcDbLine
 10
4744.673057123658
 20
2437.931598713261
 30
0.0
 11
4744.673057123656
 21
2187.931598713261
 31
0.0
  0
LINE
  5
18F32
330
747D
100
AcDbEntity
  8
破線
 48
5.0
100
AcDbLine
 10
4799.673057123658
 20
2537.931598713262
 30
0.0
 11
4799.673057123657
 21
2187.931598713261
 31
0.0
  0
LINE
  5
18F33
330
747D
100
AcDbEntity
  8
破線
 48
5.0
100
AcDbLine
 10
4799.673057123658
 20
2537.931598713262
 30
0.0
 11
4799.673057123657
 21
2187.931598713261
 31
0.0
  0
LINE
  5
18F34
330
747D
100
AcDbEntity
  8
破線
 48
5.0
100
AcDbLine
 10
7319.67305712366
 20
2287.931598713262
 30
0.0
 11
7271.673057123658
 21
2287.931598713262
 31
0.0
  0
LINE
  5
18F35
330
747D
100
AcDbEntity
  8
破線
 48
5.0
100
AcDbLine
 10
7271.673057123655
 20
2537.931598713262
 30
0.0
 11
7271.673057123658
 21
2287.931598713262
 31
0.0
  0
LINE
  5
18F36
330
747D
100
AcDbEntity
  8
破線
 48
5.0
100
AcDbLine
 10
7374.673057123655
 20
2187.931598713261
 30
0.0
 11
7319.673057123657
 21
2187.931598713261
 31
0.0
  0
LINE
  5
18F37
330
747D
100
AcDbEntity
  8
破線
 48
5.0
100
AcDbLine
 10
7374.673057123658
 20
2437.931598713261
 30
0.0
 11
7374.673057123658
 21
2187.931598713261
 31
0.0
  0
LINE
  5
18F38
330
747D
100
AcDbEntity
  8
破線
 48
5.0
100
AcDbLine
 10
7319.673057123655
 20
2537.931598713262
 30
0.0
 11
7319.673057123657
 21
2187.931598713261
 31
0.0
  0
TEXT
  5
18F60
330
747D
100
AcDbEntity
  8
文字
 62
     7
 48
50.0
100
AcDbText
 10
15022.63965474516
 20
9230.013745883727
 30
0.0
 40
100.0
  1
F12            0.7
  7
STYLE1
100
AcDbText
  0
ENDSEC
  0
SECTION
  2
OBJECTS
  0
DICTIONARY
  5
7471
330
0
100
AcDbDictionary
281
     1
  3
ACAD_COLOR
350
16585
  3
ACAD_GROUP
350
7472
  3
ACAD_LAYOUT
350
16586
  3
ACAD_MATERIAL
350
16584
  3
ACAD_MLINESTYLE
350
7473
  3
ACAD_PLOTSETTINGS
350
16587
  3
ACAD_PLOTSTYLENAME
350
16582
  3
ACDBHEADERROUNDTRIPXREC
350
18FC0
  3
AcDbVariableDictionary
350
18FBC
  3
CONTENTDICTIONARY
350
E71C
  3
DRAWINGVARIABLESDICT
350
F3B9
  0
DICTIONARY
  5
168A2
330
7467
100
AcDbDictionary
280
     1
281
     1
  3
ACAD_LAYERSTATES
360
168A3
  0
DICTIONARY
  5
16585
102
{ACAD_REACTORS
330
7471
102
}
330
7471
100
AcDbDictionary
281
     1
  0
DICTIONARY
  5
7472
102
{ACAD_REACTORS
330
7471
102
}
330
7471
100
AcDbDictionary
281
     1
  0
DICTIONARY
  5
16586
102
{ACAD_REACTORS
330
7471
102
}
330
7471
100
AcDbDictionary
281
     1
  3
Model
350
16588
  3
レイアウト1
350
16589
  0
DICTIONARY
  5
16584
102
{ACAD_REACTORS
330
7471
102
}
330
7471
100
AcDbDictionary
281
     1
  0
DICTIONARY
  5
7473
102
{ACAD_REACTORS
330
7471
102
}
330
7471
100
AcDbDictionary
281
     1
  3
STANDARD
350
7480
  0
DICTIONARY
  5
16587
102
{ACAD_REACTORS
330
7471
102
}
330
7471
100
AcDbDictionary
281
     1
  0
ACDBDICTIONARYWDFLT
  5
16582
102
{ACAD_REACTORS
330
7471
102
}
330
7471
100
AcDbDictionary
281
     1
  3
Normal
350
16583
100
AcDbDictionaryWithDefault
340
16583
  0
DICTIONARY
  5
18FC0
102
{ACAD_REACTORS
330
7471
102
}
330
7471
100
AcDbDictionary
281
     1
  3
COLORDICT
350
18FC2
  3
MATERIALDICT
350
18FC1
  0
DICTIONARY
  5
18FBC
102
{ACAD_REACTORS
330
7471
102
}
330
7471
100
AcDbDictionary
281
     1
  3
DIMASSOC
350
18FBD
  3
PROJECTNAME
350
18FBE
  0
DICTIONARY
  5
E71C
102
{ACAD_REACTORS
330
7471
102
}
330
7471
100
AcDbDictionary
281
     1
  0
DICTIONARY
  5
F3B9
102
{ACAD_REACTORS
330
7471
102
}
330
7471
100
AcDbDictionary
281
     1
1001
DRAWINGVARIABLESXDATA
1000
POLARMODE
1000
1
  0
DICTIONARY
  5
168A3
102
{ACAD_REACTORS
330
168A2
102
}
330
168A2
100
AcDbDictionary
281
     1
  0
LAYOUT
  5
16588
102
{ACAD_XDICTIONARY
360
18FC3
102
}
102
{ACAD_REACTORS
330
16586
102
}
330
16586
100
AcDbPlotSettings
  1

  2
クセロPDF
  4
A3
  6

 40
3.174999999999999
 41
3.174999999999999
 42
3.174987999999999
 43
3.174987999999999
 44
419.946655
 45
296.925995
 46
0.0
 47
0.0
 48
0.0
 49
0.0
140
0.0
141
0.0
142
1.0
143
40.44561299368567
 70
 11952
 72
     1
 73
     0
 74
     2
  7
inaba.ctb
 75
     0
147
0.0247245603659442
148
183.0179068595971
149
160.3342785227505
100
AcDbLayout
  1
Model
 70
     1
 71
     0
 10
0.0
 20
0.0
 11
12.0
 21
9.0
 12
0.0
 22
0.0
 32
0.0
 14
0.0
 24
0.0
 34
0.0
 15
0.0
 25
0.0
 35
0.0
146
0.0
 13
0.0
 23
0.0
 33
0.0
 16
1.0
 26
0.0
 36
0.0
 17
0.0
 27
1.0
 37
0.0
 76
     0
330
747D
  0
LAYOUT
  5
16589
102
{ACAD_XDICTIONARY
360
18FC5
102
}
102
{ACAD_REACTORS
330
16586
102
}
330
16586
100
AcDbPlotSettings
  1

  2
EPSON LP-8300
  4

  6

 40
0.0
 41
0.0
 42
0.0
 43
0.0
 44
0.0
 45
0.0
 46
0.0
 47
0.0
 48
0.0
 49
0.0
140
0.0
141
0.0
142
1.0
143
1.0
 70
   688
 72
     0
 73
     0
 74
     5
  7
inaba.ctb
 75
    16
147
1.0
148
0.0
149
0.0
100
AcDbLayout
  1
レイアウト1
 70
     0
 71
     1
 10
0.0
 20
0.0
 11
420.0
 21
297.0
 12
0.0
 22
0.0
 32
0.0
 14
1.000000000000000E+20
 24
1.000000000000000E+20
 34
1.000000000000000E+20
 15
-1.000000000000000E+20
 25
-1.000000000000000E+20
 35
-1.000000000000000E+20
146
0.0
 13
0.0
 23
0.0
 33
0.0
 16
1.0
 26
0.0
 36
0.0
 17
0.0
 27
1.0
 37
0.0
 76
     0
330
747A
  0
MLINESTYLE
  5
7480
102
{ACAD_REACTORS
330
7473
102
}
330
7473
100
AcDbMlineStyle
  2
STANDARD
 70
     0
  3

 62
     0
 51
90.0
 52
90.0
 71
     2
 49
0.5
 62
   256
  6
BYLAYER
 49
-0.5
 62
   256
  6
BYLAYER
  0
ACDBPLACEHOLDER
  5
16583
102
{ACAD_REACTORS
330
16582
102
}
330
16582
  0
XRECORD
  5
18FC2
102
{ACAD_REACTORS
330
18FC0
102
}
330
18FC0
100
AcDbXrecord
280
     1
340
16585
  0
XRECORD
  5
18FC1
102
{ACAD_REACTORS
330
18FC0
102
}
330
18FC0
100
AcDbXrecord
280
     1
340
16584
  0
DICTIONARYVAR
  5
18FBD
102
{ACAD_REACTORS
330
18FBC
102
}
330
18FBC
100
DictionaryVariables
280
     0
  1
1
  0
DICTIONARYVAR
  5
18FBE
102
{ACAD_REACTORS
330
18FBC
102
}
330
18FBC
100
DictionaryVariables
280
     0
  1

  0
DICTIONARY
  5
18FC3
330
16588
100
AcDbDictionary
280
     1
281
     1
  3
ACAD_XREC_ROUNDTRIP
360
18FC4
  0
DICTIONARY
  5
18FC5
330
16589
100
AcDbDictionary
280
     1
281
     1
  3
ACAD_XREC_ROUNDTRIP
360
18FC6
  0
XRECORD
  5
18FC4
102
{ACAD_REACTORS
330
18FC3
102
}
330
18FC3
100
AcDbXrecord
280
     1
102
SHADEPLOT
 70
     1
102
SHADEPLOTRESLEVEL
 70
     2
102
SHADEPLOTCUSTOMDPI
 70
   300
  0
XRECORD
  5
18FC6
102
{ACAD_REACTORS
330
18FC5
102
}
330
18FC5
100
AcDbXrecord
280
     1
102
SHADEPLOT
 70
     0
102
SHADEPLOTRESLEVEL
 70
     2
102
SHADEPLOTCUSTOMDPI
 70
   300
  0
ENDSEC
  0
EOF
