  0
SECTION
  2
HEADER
  9
$ACADVER
  1
AC1015
  9
$ACADMAINTVER
 70
    20
  9
$DWGCODEPAGE
  3
ANSI_932
  9
$INSBASE
 10
0.0
 20
0.0
 30
0.0
  9
$EXTMIN
 10
139.9999999999995
 20
-0.0000000000000909
 30
0.0
  9
$EXTMAX
 10
16307.2
 20
11409.6
 30
0.0
  9
$LIMMIN
 10
0.0
 20
0.0
  9
$LIMMAX
 10
16800.0
 20
11880.0
  9
$ORTHOMODE
 70
     0
  9
$REGENMODE
 70
     1
  9
$FILLMODE
 70
     1
  9
$QTEXTMODE
 70
     0
  9
$MIRRTEXT
 70
     1
  9
$LTSCALE
 40
20.0
  9
$ATTMODE
 70
     1
  9
$TEXTSIZE
 40
100.0
  9
$TRACEWID
 40
1.0
  9
$TEXTSTYLE
  7
STYLE2
  9
$CLAYER
  8
部品1
  9
$CELTYPE
  6
CONTINUOUS
  9
$CECOLOR
 62
   256
  9
$CELTSCALE
 40
50.0
  9
$DISPSILH
 70
     0
  9
$DIMSCALE
 40
40.0
  9
$DIMASZ
 40
2.5
  9
$DIMEXO
 40
0.5
  9
$DIMDLI
 40
7.0
  9
$DIMRND
 40
0.0
  9
$DIMDLE
 40
0.0
  9
$DIMEXE
 40
1.5
  9
$DIMTP
 40
0.0
  9
$DIMTM
 40
0.0
  9
$DIMTXT
 40
3.0
  9
$DIMCEN
 40
0.0
  9
$DIMTSZ
 40
0.0
  9
$DIMTOL
 70
     0
  9
$DIMLIM
 70
     0
  9
$DIMTIH
 70
     0
  9
$DIMTOH
 70
     0
  9
$DIMSE1
 70
     0
  9
$DIMSE2
 70
     0
  9
$DIMTAD
 70
     3
  9
$DIMZIN
 70
     8
  9
$DIMBLK
  1

  9
$DIMASO
 70
     1
  9
$DIMSHO
 70
     1
  9
$DIMPOST
  1

  9
$DIMAPOST
  1

  9
$DIMALT
 70
     0
  9
$DIMALTD
 70
     2
  9
$DIMALTF
 40
0.0394
  9
$DIMLFAC
 40
1.0
  9
$DIMTOFL
 70
     1
  9
$DIMTVP
 40
0.0
  9
$DIMTIX
 70
     1
  9
$DIMSOXD
 70
     0
  9
$DIMSAH
 70
     1
  9
$DIMBLK1
  1
DOTSMALL
  9
$DIMBLK2
  1
DOTSMALL
  9
$DIMSTYLE
  2
INABA_S40G
  9
$DIMCLRD
 70
     0
  9
$DIMCLRE
 70
     0
  9
$DIMCLRT
 70
     7
  9
$DIMTFAC
 40
1.0
  9
$DIMGAP
 40
1.0
  9
$DIMJUST
 70
     0
  9
$DIMSD1
 70
     0
  9
$DIMSD2
 70
     0
  9
$DIMTOLJ
 70
     1
  9
$DIMTZIN
 70
     0
  9
$DIMALTZ
 70
     0
  9
$DIMALTTZ
 70
     0
  9
$DIMUPT
 70
     0
  9
$DIMDEC
 70
     1
  9
$DIMTDEC
 70
     4
  9
$DIMALTU
 70
     2
  9
$DIMALTTD
 70
     2
  9
$DIMTXSTY
  7
STYLE1
  9
$DIMAUNIT
 70
     0
  9
$DIMADEC
 70
     0
  9
$DIMALTRND
 40
0.0
  9
$DIMAZIN
 70
     0
  9
$DIMDSEP
 70
    46
  9
$DIMATFIT
 70
     3
  9
$DIMFRAC
 70
     0
  9
$DIMLDRBLK
  1

  9
$DIMLUNIT
 70
     2
  9
$DIMLWD
 70
    -2
  9
$DIMLWE
 70
    -2
  9
$DIMTMOVE
 70
     0
  9
$LUNITS
 70
     2
  9
$LUPREC
 70
     1
  9
$SKETCHINC
 40
1.0
  9
$FILLETRAD
 40
3.0
  9
$AUNITS
 70
     0
  9
$AUPREC
 70
     0
  9
$MENU
  1
acad
  9
$ELEVATION
 40
0.0
  9
$PELEVATION
 40
0.0
  9
$THICKNESS
 40
0.0
  9
$LIMCHECK
 70
     0
  9
$CHAMFERA
 40
0.0
  9
$CHAMFERB
 40
0.0
  9
$CHAMFERC
 40
0.0
  9
$CHAMFERD
 40
0.0
  9
$SKPOLY
 70
     0
  9
$TDCREATE
 40
2451368.612993866
  9
$TDUCREATE
 40
2451368.237993866
  9
$TDUPDATE
 40
2455569.622250429
  9
$TDUUPDATE
 40
2455569.247250429
  9
$TDINDWG
 40
1.1666717824
  9
$TDUSRTIMER
 40
1.1666717824
  9
$USRTIMER
 70
     1
  9
$ANGBASE
 50
0.0
  9
$ANGDIR
 70
     0
  9
$PDMODE
 70
     3
  9
$PDSIZE
 40
2.0
  9
$PLINEWID
 40
0.0
  9
$SPLFRAME
 70
     0
  9
$SPLINETYPE
 70
     6
  9
$SPLINESEGS
 70
     8
  9
$HANDSEED
  5
1D71F
  9
$SURFTAB1
 70
     6
  9
$SURFTAB2
 70
     6
  9
$SURFTYPE
 70
     6
  9
$SURFU
 70
     6
  9
$SURFV
 70
     6
  9
$UCSBASE
  2

  9
$UCSNAME
  2

  9
$UCSORG
 10
0.0
 20
0.0
 30
0.0
  9
$UCSXDIR
 10
1.0
 20
0.0
 30
0.0
  9
$UCSYDIR
 10
0.0
 20
1.0
 30
0.0
  9
$UCSORTHOREF
  2

  9
$UCSORTHOVIEW
 70
     0
  9
$UCSORGTOP
 10
0.0
 20
0.0
 30
0.0
  9
$UCSORGBOTTOM
 10
0.0
 20
0.0
 30
0.0
  9
$UCSORGLEFT
 10
0.0
 20
0.0
 30
0.0
  9
$UCSORGRIGHT
 10
0.0
 20
0.0
 30
0.0
  9
$UCSORGFRONT
 10
0.0
 20
0.0
 30
0.0
  9
$UCSORGBACK
 10
0.0
 20
0.0
 30
0.0
  9
$PUCSBASE
  2

  9
$PUCSNAME
  2

  9
$PUCSORG
 10
0.0
 20
0.0
 30
0.0
  9
$PUCSXDIR
 10
1.0
 20
0.0
 30
0.0
  9
$PUCSYDIR
 10
0.0
 20
1.0
 30
0.0
  9
$PUCSORTHOREF
  2

  9
$PUCSORTHOVIEW
 70
     0
  9
$PUCSORGTOP
 10
0.0
 20
0.0
 30
0.0
  9
$PUCSORGBOTTOM
 10
0.0
 20
0.0
 30
0.0
  9
$PUCSORGLEFT
 10
0.0
 20
0.0
 30
0.0
  9
$PUCSORGRIGHT
 10
0.0
 20
0.0
 30
0.0
  9
$PUCSORGFRONT
 10
0.0
 20
0.0
 30
0.0
  9
$PUCSORGBACK
 10
0.0
 20
0.0
 30
0.0
  9
$USERI1
 70
     0
  9
$USERI2
 70
     0
  9
$USERI3
 70
     0
  9
$USERI4
 70
     0
  9
$USERI5
 70
     0
  9
$USERR1
 40
0.0
  9
$USERR2
 40
0.0
  9
$USERR3
 40
0.0
  9
$USERR4
 40
0.0
  9
$USERR5
 40
0.0
  9
$WORLDVIEW
 70
     1
  9
$SHADEDGE
 70
     3
  9
$SHADEDIF
 70
    70
  9
$TILEMODE
 70
     1
  9
$MAXACTVP
 70
    16
  9
$PINSBASE
 10
0.0
 20
0.0
 30
0.0
  9
$PLIMCHECK
 70
     0
  9
$PEXTMIN
 10
1.000000000000000E+20
 20
1.000000000000000E+20
 30
1.000000000000000E+20
  9
$PEXTMAX
 10
-1.000000000000000E+20
 20
-1.000000000000000E+20
 30
-1.000000000000000E+20
  9
$PLIMMIN
 10
0.0
 20
0.0
  9
$PLIMMAX
 10
420.0
 20
297.0
  9
$UNITMODE
 70
     0
  9
$VISRETAIN
 70
     0
  9
$PLINEGEN
 70
     0
  9
$PSLTSCALE
 70
     0
  9
$TREEDEPTH
 70
  3020
  9
$CMLSTYLE
  2
STANDARD
  9
$CMLJUST
 70
     0
  9
$CMLSCALE
 40
1.0
  9
$PROXYGRAPHICS
 70
     1
  9
$MEASUREMENT
 70
     1
  9
$CELWEIGHT
370
    -1
  9
$ENDCAPS
280
     0
  9
$JOINSTYLE
280
     0
  9
$LWDISPLAY
290
     0
  9
$INSUNITS
 70
     0
  9
$HYPERLINKBASE
  1

  9
$STYLESHEET
  1
inaba.ctb
  9
$XEDIT
290
     1
  9
$CEPSNTYPE
380
     0
  9
$PSTYLEMODE
290
     1
  9
$FINGERPRINTGUID
  2
{9B26F8E0-7785-4120-BDEF-D367507F1FB2}
  9
$VERSIONGUID
  2
{8BA347CD-D8F7-4115-95F1-F2935C0F6AA7}
  9
$EXTNAMES
290
     1
  9
$PSVPSCALE
 40
0.0
  9
$OLESTARTUP
290
     0
  0
ENDSEC
  0
SECTION
  2
CLASSES
  0
CLASS
  1
ACDBDICTIONARYWDFLT
  2
AcDbDictionaryWithDefault
  3
ObjectDBX Classes
 90
        0
280
     0
281
     0
  0
CLASS
  1
DICTIONARYVAR
  2
AcDbDictionaryVar
  3
ObjectDBX Classes
 90
        0
280
     0
281
     0
  0
CLASS
  1
ACDBPLACEHOLDER
  2
AcDbPlaceHolder
  3
ObjectDBX Classes
 90
        0
280
     0
281
     0
  0
CLASS
  1
LAYOUT
  2
AcDbLayout
  3
ObjectDBX Classes
 90
        0
280
     0
281
     0
  0
ENDSEC
  0
SECTION
  2
TABLES
  0
TABLE
  2
VPORT
  5
746D
330
0
100
AcDbSymbolTable
 70
     2
  0
VPORT
  5
1D717
330
746D
100
AcDbSymbolTableRecord
100
AcDbViewportTableRecord
  2
*Active
 70
     0
 10
0.0
 20
0.0
 11
1.0
 21
1.0
 12
8223.761025238504
 22
5958.807553215734
 13
0.0
 23
0.0
 14
10.0
 24
10.0
 15
10.0
 25
10.0
 16
0.0
 26
0.0
 36
1.0
 17
0.0
 27
0.0
 37
0.0
 40
12025.6196116811
 41
1.627450980392157
 42
50.0
 43
0.0
 44
0.0
 50
0.0
 51
0.0
 71
     0
 72
     0
 73
     1
 74
     0
 75
     0
 76
     0
 77
     0
 78
     0
281
     0
 65
     1
110
0.0
120
0.0
130
0.0
111
1.0
121
0.0
131
0.0
112
0.0
122
1.0
132
0.0
 79
     0
146
0.0
  0
ENDTAB
  0
TABLE
  2
LTYPE
  5
746A
330
0
100
AcDbSymbolTable
 70
     3
  0
LTYPE
  5
7477
330
746A
100
AcDbSymbolTableRecord
100
AcDbLinetypeTableRecord
  2
BYBLOCK
 70
     0
  3

 72
    65
 73
     0
 40
0.0
  0
LTYPE
  5
7478
330
746A
100
AcDbSymbolTableRecord
100
AcDbLinetypeTableRecord
  2
BYLAYER
 70
     0
  3

 72
    65
 73
     0
 40
0.0
  0
LTYPE
  5
7479
330
746A
100
AcDbSymbolTableRecord
100
AcDbLinetypeTableRecord
  2
CONTINUOUS
 70
     0
  3
Solid line
 72
    65
 73
     0
 40
0.0
  0
LTYPE
  5
781A
330
746A
100
AcDbSymbolTableRecord
100
AcDbLinetypeTableRecord
  2
HIDDEN
 70
     0
  3
__ __ __ __ __ __ __ __ __ __ __ __ __ __ __ __
 72
    65
 73
     2
 40
0.375
 49
0.25
 74
     0
 49
-0.125
 74
     0
  0
LTYPE
  5
781B
330
746A
100
AcDbSymbolTableRecord
100
AcDbLinetypeTableRecord
  2
PHANTOM
 70
     0
  3
______  __  __  ______  __  __  ______  __  __ 
 72
    65
 73
     6
 40
2.5
 49
1.25
 74
     0
 49
-0.25
 74
     0
 49
0.25
 74
     0
 49
-0.25
 74
     0
 49
0.25
 74
     0
 49
-0.25
 74
     0
  0
ENDTAB
  0
TABLE
  2
LAYER
  5
7467
102
{ACAD_XDICTIONARY
360
1AB9A
102
}
330
0
100
AcDbSymbolTable
 70
    10
  0
LAYER
  5
7474
330
7467
100
AcDbSymbolTableRecord
100
AcDbLayerTableRecord
  2
0
 70
     0
 62
     7
  6
CONTINUOUS
370
    -3
390
1A73A
  0
LAYER
  5
DEB3
330
7467
100
AcDbSymbolTableRecord
100
AcDbLayerTableRecord
  2
寸法
 70
     0
 62
     4
  6
CONTINUOUS
370
    -3
390
1A73A
  0
LAYER
  5
DEB4
330
7467
100
AcDbSymbolTableRecord
100
AcDbLayerTableRecord
  2
部品1
 70
     0
 62
     7
  6
CONTINUOUS
370
    -3
390
1A73A
  0
LAYER
  5
DEB5
330
7467
100
AcDbSymbolTableRecord
100
AcDbLayerTableRecord
  2
補助
 70
     0
 62
    -1
  6
CONTINUOUS
370
    -3
390
1A73A
  0
LAYER
  5
DEB6
330
7467
100
AcDbSymbolTableRecord
100
AcDbLayerTableRecord
  2
文字
 70
     0
 62
     7
  6
CONTINUOUS
370
    -3
390
1A73A
  0
LAYER
  5
F255
330
7467
100
AcDbSymbolTableRecord
100
AcDbLayerTableRecord
  2
DEFPOINTS
 70
     0
 62
     7
  6
CONTINUOUS
290
     0
370
    -3
390
1A73A
  0
LAYER
  5
10B54
330
7467
100
AcDbSymbolTableRecord
100
AcDbLayerTableRecord
  2
仕様書枠
 70
     0
 62
   230
  6
CONTINUOUS
370
    -3
390
1A73A
  0
LAYER
  5
11729
330
7467
100
AcDbSymbolTableRecord
100
AcDbLayerTableRecord
  2
Ｇ．Ｌ
 70
     0
 62
    30
  6
CONTINUOUS
370
    -3
390
1A73A
  0
LAYER
  5
1173F
330
7467
100
AcDbSymbolTableRecord
100
AcDbLayerTableRecord
  2
細線
 70
     0
 62
     5
  6
CONTINUOUS
370
    -3
390
1A73A
  0
LAYER
  5
142E2
330
7467
100
AcDbSymbolTableRecord
100
AcDbLayerTableRecord
  2
破線
 70
     0
 62
     2
  6
HIDDEN
370
    -3
390
1A73A
  0
ENDTAB
  0
TABLE
  2
STYLE
  5
7468
330
0
100
AcDbSymbolTable
 70
     4
  0
STYLE
  5
7475
330
7468
100
AcDbSymbolTableRecord
100
AcDbTextStyleTableRecord
  2
STANDARD
 70
     0
 40
0.0
 41
1.0
 50
0.0
 71
     0
 42
4.0
  3
txt
  4
C:\AutoCAD LT\bigfont.shx
  0
STYLE
  5
763C
330
7468
100
AcDbSymbolTableRecord
100
AcDbTextStyleTableRecord
  2
MSMINCHO
 70
     0
 40
0.0
 41
1.0
 50
0.0
 71
     0
 42
1.199999999999999
  3
C:\AutoCAD LT\msminch2.TTF
  4

  0
STYLE
  5
F706
330
7468
100
AcDbSymbolTableRecord
100
AcDbTextStyleTableRecord
  2
STYLE1
 70
     0
 40
0.0
 41
1.0
 50
0.0
 71
     0
 42
120.0
  3
isocp.shx
  4
bigfont.shx
  0
STYLE
  5
103BF
330
7468
100
AcDbSymbolTableRecord
100
AcDbTextStyleTableRecord
  2
STYLE2
 70
     0
 40
0.0
 41
1.0
 50
0.0
 71
     0
 42
100.0
  3
MS PGothic.ttf
  4

1001
ACAD
1000
MS PGothic
1071
    32818
  0
ENDTAB
  0
TABLE
  2
VIEW
  5
746B
330
0
100
AcDbSymbolTable
 70
     0
  0
ENDTAB
  0
TABLE
  2
UCS
  5
746C
330
0
100
AcDbSymbolTable
 70
     0
  0
ENDTAB
  0
TABLE
  2
APPID
  5
746E
330
0
100
AcDbSymbolTable
 70
     6
  0
APPID
  5
7476
330
746E
100
AcDbSymbolTableRecord
100
AcDbRegAppTableRecord
  2
ACAD
 70
     0
  0
APPID
  5
DEA9
330
746E
100
AcDbSymbolTableRecord
100
AcDbRegAppTableRecord
  2
CONTENTBLOCKICON
 70
     0
  0
APPID
  5
DEAA
330
746E
100
AcDbSymbolTableRecord
100
AcDbRegAppTableRecord
  2
CONTENTBLOCKDESCRIPTION
 70
     0
  0
APPID
  5
E71D
330
746E
100
AcDbSymbolTableRecord
100
AcDbRegAppTableRecord
  2
CONTENTTABDATA
 70
     0
  0
APPID
  5
E71E
330
746E
100
AcDbSymbolTableRecord
100
AcDbRegAppTableRecord
  2
CONTENTCURRENTTAB
 70
     0
  0
APPID
  5
F3BA
330
746E
100
AcDbSymbolTableRecord
100
AcDbRegAppTableRecord
  2
DRAWINGVARIABLESXDATA
 70
     0
  0
ENDTAB
  0
TABLE
  2
DIMSTYLE
  5
746F
330
0
100
AcDbSymbolTable
 70
     2
100
AcDbDimStyleTable
 71
     1
340
F71F
  0
DIMSTYLE
105
F71F
102
{ACAD_REACTORS
330
162CD
330
162CE
330
162CF
330
162D0
330
162E4
330
162E7
330
162EA
330
162EB
330
16301
330
16302
330
1631F
330
16320
330
16333
330
1659C
330
1659A
330
165E9
330
166DD
330
16913
330
17C9D
330
1A48D
330
1A48C
330
1A48B
330
1A4B0
330
1A48A
330
1A50F
330
1A511
330
1A510
330
1A698
330
1AFDE
330
1AFE2
330
1AFE3
330
1AFE4
330
1B00C
330
1B01F
330
1B021
330
1B022
330
1B023
330
1C656
330
1C637
330
1C636
330
1C5F1
330
1CCFF
330
1CD24
330
1D079
330
1D07A
330
1D07B
330
1D51D
102
}
330
746F
100
AcDbSymbolTableRecord
100
AcDbDimStyleTableRecord
  2
INABA_S40G
 70
     0
 40
40.0
 41
2.5
 42
0.5
 43
7.0
 44
1.5
 73
     0
 74
     0
 77
     3
 78
     8
140
3.0
141
0.0
143
0.0394
147
1.0
172
     1
173
     1
174
     1
178
     7
271
     1
340
F706
341
F770
343
F770
344
F770
  0
DIMSTYLE
105
1D4BD
330
746F
100
AcDbSymbolTableRecord
100
AcDbDimStyleTableRecord
  2
INABA_S20G
 70
     0
 40
20.0
 41
2.5
 42
0.5
 43
7.0
 44
1.5
 73
     0
 74
     0
 77
     3
 78
     8
140
3.0
141
0.0
143
0.0394
147
1.0
172
     1
173
     1
174
     1
178
     7
271
     1
340
F706
341
F770
343
F770
344
F770
  0
ENDTAB
  0
TABLE
  2
BLOCK_RECORD
  5
7466
330
0
100
AcDbSymbolTable
 70
    49
  0
BLOCK_RECORD
  5
747D
330
7466
100
AcDbSymbolTableRecord
100
AcDbBlockTableRecord
  2
*MODEL_SPACE
340
1A73F
  0
BLOCK_RECORD
  5
747A
330
7466
100
AcDbSymbolTableRecord
100
AcDbBlockTableRecord
  2
*PAPER_SPACE
340
1A740
  0
BLOCK_RECORD
  5
F770
330
7466
100
AcDbSymbolTableRecord
100
AcDbBlockTableRecord
  2
_DOTSMALL
340
0
102
{BLKREFS
331
1A74B
331
1A74C
331
1A777
331
1A778
331
1A78E
331
1A78F
331
1A799
331
1A79A
331
1A7A2
331
1A7A3
331
1A7AD
331
1A7AE
331
1A7B8
331
1A7B9
331
1A7D5
331
1A7D6
331
1A7E0
331
1A7E1
331
1A7EB
331
1A7EC
331
1A814
331
1A815
331
1A820
331
1A821
331
1A82B
331
1A82C
331
1A835
331
1A836
331
1A83E
331
1A83F
331
1A846
331
1A847
331
1A84F
331
1A850
331
1A85A
331
1A85B
331
1A865
331
1A866
331
1A86E
331
1A86F
331
1B73D
331
1B73E
331
1B746
331
1B747
331
1B74F
331
1B750
331
1B759
331
1B75A
331
1B763
331
1B764
331
1B777
331
1B778
331
1B78B
331
1B78C
331
1C7B6
331
1C7B7
331
1C7BF
331
1C7C0
331
1C7C8
331
1C7C9
331
1C803
331
1C804
331
1CEAB
331
1CEAC
331
1CEB4
331
1CEB5
331
1CEC7
331
1CEC8
331
1CED0
331
1CED1
331
1CEDB
331
1CEDC
331
1CEE4
331
1CEE5
331
1CEEF
331
1CEF0
331
1CEFA
331
1CEFB
331
1CF05
331
1CF06
331
1CF0E
331
1CF0F
331
1D1B2
331
1D1B3
331
1D57A
331
1D57B
331
1D67C
331
1D67D
331
1D685
331
1D686
331
1D6FA
331
1D6FB
331
1D706
331
1D707
102
}
  0
BLOCK_RECORD
  5
16338
330
7466
100
AcDbSymbolTableRecord
100
AcDbBlockTableRecord
  2
*D1
340
0
  0
BLOCK_RECORD
  5
16344
330
7466
100
AcDbSymbolTableRecord
100
AcDbBlockTableRecord
  2
*D2
340
0
  0
BLOCK_RECORD
  5
16352
330
7466
100
AcDbSymbolTableRecord
100
AcDbBlockTableRecord
  2
*D3
340
0
  0
BLOCK_RECORD
  5
16360
330
7466
100
AcDbSymbolTableRecord
100
AcDbBlockTableRecord
  2
*D4
340
0
  0
BLOCK_RECORD
  5
16384
330
7466
100
AcDbSymbolTableRecord
100
AcDbBlockTableRecord
  2
*D5
340
0
  0
BLOCK_RECORD
  5
1638F
330
7466
100
AcDbSymbolTableRecord
100
AcDbBlockTableRecord
  2
*D6
340
0
  0
BLOCK_RECORD
  5
1639B
330
7466
100
AcDbSymbolTableRecord
100
AcDbBlockTableRecord
  2
*D7
340
0
  0
BLOCK_RECORD
  5
163A9
330
7466
100
AcDbSymbolTableRecord
100
AcDbBlockTableRecord
  2
*D8
340
0
  0
BLOCK_RECORD
  5
163B8
330
7466
100
AcDbSymbolTableRecord
100
AcDbBlockTableRecord
  2
*D9
340
0
  0
BLOCK_RECORD
  5
163C7
330
7466
100
AcDbSymbolTableRecord
100
AcDbBlockTableRecord
  2
*D10
340
0
  0
BLOCK_RECORD
  5
163E1
330
7466
100
AcDbSymbolTableRecord
100
AcDbBlockTableRecord
  2
*D11
340
0
  0
BLOCK_RECORD
  5
163ED
330
7466
100
AcDbSymbolTableRecord
100
AcDbBlockTableRecord
  2
*D12
340
0
  0
BLOCK_RECORD
  5
163FB
330
7466
100
AcDbSymbolTableRecord
100
AcDbBlockTableRecord
  2
*D13
340
0
  0
BLOCK_RECORD
  5
165B5
330
7466
100
AcDbSymbolTableRecord
100
AcDbBlockTableRecord
  2
*D14
340
0
  0
BLOCK_RECORD
  5
165C4
330
7466
100
AcDbSymbolTableRecord
100
AcDbBlockTableRecord
  2
*D15
340
0
  0
BLOCK_RECORD
  5
165EA
330
7466
100
AcDbSymbolTableRecord
100
AcDbBlockTableRecord
  2
*D16
340
0
  0
BLOCK_RECORD
  5
166CF
330
7466
100
AcDbSymbolTableRecord
100
AcDbBlockTableRecord
  2
*D17
340
0
  0
BLOCK_RECORD
  5
16908
330
7466
100
AcDbSymbolTableRecord
100
AcDbBlockTableRecord
  2
*D18
340
0
  0
BLOCK_RECORD
  5
17CC1
330
7466
100
AcDbSymbolTableRecord
100
AcDbBlockTableRecord
  2
*D19
340
0
  0
BLOCK_RECORD
  5
1A4C4
330
7466
100
AcDbSymbolTableRecord
100
AcDbBlockTableRecord
  2
*D20
340
0
  0
BLOCK_RECORD
  5
1A4D3
330
7466
100
AcDbSymbolTableRecord
100
AcDbBlockTableRecord
  2
*D21
340
0
  0
BLOCK_RECORD
  5
1A4E2
330
7466
100
AcDbSymbolTableRecord
100
AcDbBlockTableRecord
  2
*D22
340
0
  0
BLOCK_RECORD
  5
1A4EE
330
7466
100
AcDbSymbolTableRecord
100
AcDbBlockTableRecord
  2
*D23
340
0
  0
BLOCK_RECORD
  5
1A4FC
330
7466
100
AcDbSymbolTableRecord
100
AcDbBlockTableRecord
  2
*D24
340
0
  0
BLOCK_RECORD
  5
1A512
330
7466
100
AcDbSymbolTableRecord
100
AcDbBlockTableRecord
  2
*D25
340
0
  0
BLOCK_RECORD
  5
1A51D
330
7466
100
AcDbSymbolTableRecord
100
AcDbBlockTableRecord
  2
*D26
340
0
  0
BLOCK_RECORD
  5
1A529
330
7466
100
AcDbSymbolTableRecord
100
AcDbBlockTableRecord
  2
*D27
340
0
  0
BLOCK_RECORD
  5
1A6BA
330
7466
100
AcDbSymbolTableRecord
100
AcDbBlockTableRecord
  2
*D28
340
0
  0
BLOCK_RECORD
  5
1B48C
330
7466
100
AcDbSymbolTableRecord
100
AcDbBlockTableRecord
  2
*D29
340
0
  0
BLOCK_RECORD
  5
1B49A
330
7466
100
AcDbSymbolTableRecord
100
AcDbBlockTableRecord
  2
*D30
340
0
  0
BLOCK_RECORD
  5
1B4A6
330
7466
100
AcDbSymbolTableRecord
100
AcDbBlockTableRecord
  2
*D31
340
0
  0
BLOCK_RECORD
  5
1B4B4
330
7466
100
AcDbSymbolTableRecord
100
AcDbBlockTableRecord
  2
*D32
340
0
  0
BLOCK_RECORD
  5
1B4C0
330
7466
100
AcDbSymbolTableRecord
100
AcDbBlockTableRecord
  2
*D33
340
0
  0
BLOCK_RECORD
  5
1B4CD
330
7466
100
AcDbSymbolTableRecord
100
AcDbBlockTableRecord
  2
*D34
340
0
  0
BLOCK_RECORD
  5
1B4DA
330
7466
100
AcDbSymbolTableRecord
100
AcDbBlockTableRecord
  2
*D35
340
0
  0
BLOCK_RECORD
  5
1B4E6
330
7466
100
AcDbSymbolTableRecord
100
AcDbBlockTableRecord
  2
*D36
340
0
  0
BLOCK_RECORD
  5
1B4F2
330
7466
100
AcDbSymbolTableRecord
100
AcDbBlockTableRecord
  2
*D37
340
0
  0
BLOCK_RECORD
  5
1C732
330
7466
100
AcDbSymbolTableRecord
100
AcDbBlockTableRecord
  2
*D38
340
0
  0
BLOCK_RECORD
  5
1C740
330
7466
100
AcDbSymbolTableRecord
100
AcDbBlockTableRecord
  2
*D39
340
0
  0
BLOCK_RECORD
  5
1C74C
330
7466
100
AcDbSymbolTableRecord
100
AcDbBlockTableRecord
  2
*D40
340
0
  0
BLOCK_RECORD
  5
1C797
330
7466
100
AcDbSymbolTableRecord
100
AcDbBlockTableRecord
  2
*D41
340
0
  0
BLOCK_RECORD
  5
1CD62
330
7466
100
AcDbSymbolTableRecord
100
AcDbBlockTableRecord
  2
*D42
340
0
  0
BLOCK_RECORD
  5
1CDBD
330
7466
100
AcDbSymbolTableRecord
100
AcDbBlockTableRecord
  2
*D43
340
0
  0
BLOCK_RECORD
  5
1D0E4
330
7466
100
AcDbSymbolTableRecord
100
AcDbBlockTableRecord
  2
*D44
340
0
  0
BLOCK_RECORD
  5
1D0F0
330
7466
100
AcDbSymbolTableRecord
100
AcDbBlockTableRecord
  2
*D45
340
0
  0
BLOCK_RECORD
  5
1D0FE
330
7466
100
AcDbSymbolTableRecord
100
AcDbBlockTableRecord
  2
*D46
340
0
  0
BLOCK_RECORD
  5
1D524
330
7466
100
AcDbSymbolTableRecord
100
AcDbBlockTableRecord
  2
*D47
340
0
  0
BLOCK_RECORD
  5
1D6B6
330
7466
100
AcDbSymbolTableRecord
100
AcDbBlockTableRecord
  2
A$C24934B0C
340
0
  0
ENDTAB
  0
ENDSEC
  0
SECTION
  2
BLOCKS
  0
BLOCK
  5
7489
330
747D
100
AcDbEntity
  8
0
100
AcDbBlockBegin
  2
*MODEL_SPACE
 70
     0
 10
0.0
 20
0.0
 30
0.0
  3
*MODEL_SPACE
  1

  0
ENDBLK
  5
748A
330
747D
100
AcDbEntity
  8
0
100
AcDbBlockEnd
  0
BLOCK
  5
7487
330
747A
100
AcDbEntity
 67
     1
  8
0
100
AcDbBlockBegin
  2
*PAPER_SPACE
 70
     0
 10
0.0
 20
0.0
 30
0.0
  3
*PAPER_SPACE
  1

  0
ENDBLK
  5
7488
330
747A
100
AcDbEntity
 67
     1
  8
0
100
AcDbBlockEnd
  0
BLOCK
  5
F771
330
F770
100
AcDbEntity
  8
0
 48
50.0
100
AcDbBlockBegin
  2
_DOTSMALL
 70
     0
 10
0.0
 20
0.0
 30
0.0
  3
_DOTSMALL
  1

  0
LWPOLYLINE
  5
F772
330
F770
100
AcDbEntity
  8
0
  6
ByBlock
 62
     0
 48
50.0
100
AcDbPolyline
 90
        2
 70
     1
 43
0.5
 10
-0.0625
 20
0.0
 42
1.0
 10
0.0625
 20
0.0
 42
1.0
  0
ENDBLK
  5
F776
330
F770
100
AcDbEntity
  8
0
 48
50.0
100
AcDbBlockEnd
  0
BLOCK
  5
1A0C2
330
16338
100
AcDbEntity
  8
0
 48
50.0
100
AcDbBlockBegin
  2
*D1
 70
     1
 10
0.0
 20
0.0
 30
0.0
  3
*D1
  1

  0
LINE
  5
1A86B
330
16338
100
AcDbEntity
  8
寸法
 62
     0
 48
50.0
370
    -2
100
AcDbLine
 10
9558.101915364671
 20
9527.421310507611
 30
0.0
 11
10245.52826109907
 21
9527.421310507611
 31
0.0
  0
LINE
  5
1A86C
330
16338
100
AcDbEntity
  8
寸法
 62
     0
 48
50.0
370
    -2
100
AcDbLine
 10
9558.101915364645
 20
7847.421310507596
 30
0.0
 11
10245.52826109907
 21
7847.421310507595
 31
0.0
  0
LINE
  5
1A86D
330
16338
100
AcDbEntity
  8
寸法
 62
     0
 48
50.0
370
    -2
100
AcDbLine
 10
10185.52826109907
 20
9527.421310507611
 30
0.0
 11
10185.52826109907
 21
7847.421310507596
 31
0.0
  0
INSERT
  5
1A86E
330
16338
100
AcDbEntity
  8
寸法
 62
     0
 48
50.0
370
    -2
100
AcDbBlockReference
  2
_DOTSMALL
 10
10185.52826109907
 20
9527.421310507611
 30
0.0
 41
100.0
 42
100.0
 43
100.0
 50
90.0
  0
INSERT
  5
1A86F
330
16338
100
AcDbEntity
  8
寸法
 62
     0
 48
50.0
370
    -2
100
AcDbBlockReference
  2
_DOTSMALL
 10
10185.52826109907
 20
7847.421310507596
 30
0.0
 41
100.0
 42
100.0
 43
100.0
 50
270.0
  0
MTEXT
  5
1A870
330
16338
100
AcDbEntity
  8
寸法
 62
     7
 48
50.0
100
AcDbMText
 10
10085.51645007545
 20
8687.421310507605
 30
0.0
 40
120.0
 41
0.0
 71
     5
 72
     1
  1
\A1;4X420=1680
  7
STYLE1
 11
0.0000000000000001
 21
1.0
 31
0.0
 73
     1
 44
1.0
1001
ACAD
1000
MTEXTBEGIN
1070
    73
1070
     1
1070
    44
1040
1.0
1070
    74
1070
     0
1000
MTEXTEND
  0
POINT
  5
1A871
330
16338
100
AcDbEntity
  8
DEFPOINTS
 62
     0
 48
50.0
100
AcDbPoint
 10
9538.10191536467
 20
9527.421310507611
 30
0.0
  0
POINT
  5
1A872
330
16338
100
AcDbEntity
  8
DEFPOINTS
 62
     0
 48
50.0
100
AcDbPoint
 10
9538.101915364645
 20
7847.421310507596
 30
0.0
  0
POINT
  5
1A873
330
16338
100
AcDbEntity
  8
DEFPOINTS
 62
     0
 48
50.0
100
AcDbPoint
 10
10185.52826109907
 20
7847.421310507596
 30
0.0
  0
ENDBLK
  5
1A0CC
330
16338
100
AcDbEntity
  8
0
 48
50.0
100
AcDbBlockEnd
  0
BLOCK
  5
16414
330
16344
100
AcDbEntity
  8
0
 48
50.0
100
AcDbBlockBegin
  2
*D2
 70
     1
 10
0.0
 20
0.0
 30
0.0
  3
*D2
  1

  0
LINE
  5
1A860
330
16344
100
AcDbEntity
  8
寸法
 62
     0
 48
50.0
370
    -2
100
AcDbLine
 10
9558.101915364645
 20
7847.421310507596
 30
0.0
 11
10245.52826109905
 21
7847.421310507595
 31
0.0
  0
LINE
  5
1A861
330
16344
100
AcDbEntity
  8
寸法
 62
     0
 48
50.0
370
    -2
100
AcDbLine
 10
9558.101915364645
 20
7792.421310507599
 30
0.0
 11
10245.52826109905
 21
7792.421310507599
 31
0.0
  0
LINE
  5
1A862
330
16344
100
AcDbEntity
  8
寸法
 62
     0
 48
50.0
370
    -2
100
AcDbLine
 10
10185.52826109905
 20
7847.421310507596
 30
0.0
 11
10185.52826109905
 21
7947.421310507596
 31
0.0
  0
LINE
  5
1A863
330
16344
100
AcDbEntity
  8
寸法
 62
     0
 48
50.0
370
    -2
100
AcDbLine
 10
10185.52826109905
 20
7792.421310507599
 30
0.0
 11
10185.52826109905
 21
7306.074562228499
 31
0.0
  0
LINE
  5
1A864
330
16344
100
AcDbEntity
  8
寸法
 62
     0
 48
50.0
370
    -2
100
AcDbLine
 10
10185.52826109905
 20
7847.421310507596
 30
0.0
 11
10185.52826109905
 21
7792.421310507599
 31
0.0
  0
INSERT
  5
1A865
330
16344
100
AcDbEntity
  8
寸法
 62
     0
 48
50.0
370
    -2
100
AcDbBlockReference
  2
_DOTSMALL
 10
10185.52826109905
 20
7847.421310507596
 30
0.0
 41
100.0
 42
100.0
 43
100.0
 50
270.0
  0
INSERT
  5
1A866
330
16344
100
AcDbEntity
  8
寸法
 62
     0
 48
50.0
370
    -2
100
AcDbBlockReference
  2
_DOTSMALL
 10
10185.52826109905
 20
7792.421310507599
 30
0.0
 41
100.0
 42
100.0
 43
100.0
 50
90.0
  0
MTEXT
  5
1A867
330
16344
100
AcDbEntity
  8
寸法
 62
     7
 48
50.0
100
AcDbMText
 10
10085.52826109905
 20
7414.559843602738
 30
0.0
 40
120.0
 41
0.0
 71
     5
 72
     1
  1
\A1;55
  7
STYLE1
 11
0.0000000000000001
 21
1.0
 31
0.0
 73
     1
 44
1.0
1001
ACAD
1000
MTEXTBEGIN
1070
    73
1070
     1
1070
    44
1040
1.0
1070
    74
1070
     0
1000
MTEXTEND
  0
POINT
  5
1A868
330
16344
100
AcDbEntity
  8
DEFPOINTS
 62
     0
 48
50.0
100
AcDbPoint
 10
9538.101915364645
 20
7847.421310507596
 30
0.0
  0
POINT
  5
1A869
330
16344
100
AcDbEntity
  8
DEFPOINTS
 62
     0
 48
50.0
100
AcDbPoint
 10
9538.101915364645
 20
7792.421310507599
 30
0.0
  0
POINT
  5
1A86A
330
16344
100
AcDbEntity
  8
DEFPOINTS
 62
     0
 48
50.0
100
AcDbPoint
 10
10185.52826109905
 20
7792.421310507599
 30
0.0
  0
ENDBLK
  5
16420
330
16344
100
AcDbEntity
  8
0
 48
50.0
100
AcDbBlockEnd
  0
BLOCK
  5
16421
330
16352
100
AcDbEntity
  8
0
 48
50.0
100
AcDbBlockBegin
  2
*D3
 70
     1
 10
0.0
 20
0.0
 30
0.0
  3
*D3
  1

  0
LINE
  5
1A855
330
16352
100
AcDbEntity
  8
寸法
 62
     0
 48
50.0
370
    -2
100
AcDbLine
 10
9558.101915364671
 20
9582.421310507607
 30
0.0
 11
10245.52826109908
 21
9582.421310507607
 31
0.0
  0
LINE
  5
1A856
330
16352
100
AcDbEntity
  8
寸法
 62
     0
 48
50.0
370
    -2
100
AcDbLine
 10
9558.101915364671
 20
9527.421310507611
 30
0.0
 11
10245.52826109908
 21
9527.421310507611
 31
0.0
  0
LINE
  5
1A857
330
16352
100
AcDbEntity
  8
寸法
 62
     0
 48
50.0
370
    -2
100
AcDbLine
 10
10185.52826109908
 20
9527.421310507611
 30
0.0
 11
10185.52826109908
 21
9427.421310507609
 31
0.0
  0
LINE
  5
1A858
330
16352
100
AcDbEntity
  8
寸法
 62
     0
 48
50.0
370
    -2
100
AcDbLine
 10
10185.52826109908
 20
9582.421310507607
 30
0.0
 11
10185.52826109908
 21
9999.391873256083
 31
0.0
  0
LINE
  5
1A859
330
16352
100
AcDbEntity
  8
寸法
 62
     0
 48
50.0
370
    -2
100
AcDbLine
 10
10185.52826109908
 20
9527.421310507611
 30
0.0
 11
10185.52826109908
 21
9582.421310507607
 31
0.0
  0
INSERT
  5
1A85A
330
16352
100
AcDbEntity
  8
寸法
 62
     0
 48
50.0
370
    -2
100
AcDbBlockReference
  2
_DOTSMALL
 10
10185.52826109908
 20
9527.421310507611
 30
0.0
 41
100.0
 42
100.0
 43
100.0
 50
90.0
  0
INSERT
  5
1A85B
330
16352
100
AcDbEntity
  8
寸法
 62
     0
 48
50.0
370
    -2
100
AcDbBlockReference
  2
_DOTSMALL
 10
10185.52826109908
 20
9582.421310507607
 30
0.0
 41
100.0
 42
100.0
 43
100.0
 50
270.0
  0
MTEXT
  5
1A85C
330
16352
100
AcDbEntity
  8
寸法
 62
     7
 48
50.0
100
AcDbMText
 10
10085.52826109908
 20
9890.906591881847
 30
0.0
 40
120.0
 41
0.0
 71
     5
 72
     1
  1
\A1;55
  7
STYLE1
 11
0.0000000000000001
 21
1.0
 31
0.0
 73
     1
 44
1.0
1001
ACAD
1000
MTEXTBEGIN
1070
    73
1070
     1
1070
    44
1040
1.0
1070
    74
1070
     0
1000
MTEXTEND
  0
POINT
  5
1A85D
330
16352
100
AcDbEntity
  8
DEFPOINTS
 62
     0
 48
50.0
100
AcDbPoint
 10
9538.10191536467
 20
9582.421310507607
 30
0.0
  0
POINT
  5
1A85E
330
16352
100
AcDbEntity
  8
DEFPOINTS
 62
     0
 48
50.0
100
AcDbPoint
 10
9538.10191536467
 20
9527.421310507611
 30
0.0
  0
POINT
  5
1A85F
330
16352
100
AcDbEntity
  8
DEFPOINTS
 62
     0
 48
50.0
100
AcDbPoint
 10
10185.52826109908
 20
9527.421310507611
 30
0.0
  0
ENDBLK
  5
1642D
330
16352
100
AcDbEntity
  8
0
 48
50.0
100
AcDbBlockEnd
  0
BLOCK
  5
1A07E
330
16360
100
AcDbEntity
  8
0
 48
50.0
100
AcDbBlockBegin
  2
*D4
 70
     1
 10
0.0
 20
0.0
 30
0.0
  3
*D4
  1

  0
LINE
  5
1A84C
330
16360
100
AcDbEntity
  8
寸法
 62
     0
 48
50.0
370
    -2
100
AcDbLine
 10
9558.101915364671
 20
9582.421310507607
 30
0.0
 11
10610.63520283871
 21
9582.421310507607
 31
0.0
  0
LINE
  5
1A84D
330
16360
100
AcDbEntity
  8
寸法
 62
     0
 48
50.0
370
    -2
100
AcDbLine
 10
9558.101915364645
 20
7792.421310507599
 30
0.0
 11
10610.63520283871
 21
7792.421310507599
 31
0.0
  0
LINE
  5
1A84E
330
16360
100
AcDbEntity
  8
寸法
 62
     0
 48
50.0
370
    -2
100
AcDbLine
 10
10550.63520283871
 20
9582.421310507607
 30
0.0
 11
10550.63520283871
 21
7792.421310507599
 31
0.0
  0
INSERT
  5
1A84F
330
16360
100
AcDbEntity
  8
寸法
 62
     0
 48
50.0
370
    -2
100
AcDbBlockReference
  2
_DOTSMALL
 10
10550.63520283871
 20
9582.421310507607
 30
0.0
 41
100.0
 42
100.0
 43
100.0
 50
90.0
  0
INSERT
  5
1A850
330
16360
100
AcDbEntity
  8
寸法
 62
     0
 48
50.0
370
    -2
100
AcDbBlockReference
  2
_DOTSMALL
 10
10550.63520283871
 20
7792.421310507599
 30
0.0
 41
100.0
 42
100.0
 43
100.0
 50
270.0
  0
MTEXT
  5
1A851
330
16360
100
AcDbEntity
  8
寸法
 62
     7
 48
50.0
100
AcDbMText
 10
10450.63520283871
 20
8687.421310507605
 30
0.0
 40
120.0
 41
0.0
 71
     5
 72
     1
  1
\A1;1790
  7
STYLE1
 11
0.0000000000000001
 21
1.0
 31
0.0
 73
     1
 44
1.0
1001
ACAD
1000
MTEXTBEGIN
1070
    73
1070
     1
1070
    44
1040
1.0
1070
    74
1070
     0
1000
MTEXTEND
  0
POINT
  5
1A852
330
16360
100
AcDbEntity
  8
DEFPOINTS
 62
     0
 48
50.0
100
AcDbPoint
 10
9538.10191536467
 20
9582.421310507607
 30
0.0
  0
POINT
  5
1A853
330
16360
100
AcDbEntity
  8
DEFPOINTS
 62
     0
 48
50.0
100
AcDbPoint
 10
9538.101915364645
 20
7792.421310507599
 30
0.0
  0
POINT
  5
1A854
330
16360
100
AcDbEntity
  8
DEFPOINTS
 62
     0
 48
50.0
100
AcDbPoint
 10
10550.63520283871
 20
7792.421310507599
 30
0.0
  0
ENDBLK
  5
1A088
330
16360
100
AcDbEntity
  8
0
 48
50.0
100
AcDbBlockEnd
  0
BLOCK
  5
185CF
330
16384
100
AcDbEntity
  8
0
 48
50.0
100
AcDbBlockBegin
  2
*D5
 70
     1
 10
0.0
 20
0.0
 30
0.0
  3
*D5
  1

  0
LINE
  5
1A844
330
16384
100
AcDbEntity
  8
寸法
 62
     0
 48
50.0
370
    -2
100
AcDbLine
 10
7011.101915364664
 20
7798.421310507508
 30
0.0
 11
7011.101915364664
 21
7197.990539741344
 31
0.0
  0
LINE
  5
1A845
330
16384
100
AcDbEntity
  8
寸法
 62
     0
 48
50.0
370
    -2
100
AcDbLine
 10
9435.101915364645
 20
7257.990539741344
 30
0.0
 11
7011.101915364664
 21
7257.990539741344
 31
0.0
  0
INSERT
  5
1A846
330
16384
100
AcDbEntity
  8
寸法
 62
     0
 48
50.0
370
    -2
100
AcDbBlockReference
  2
_DOTSMALL
 10
9435.101915364645
 20
7257.990539741344
 30
0.0
 41
100.0
 42
100.0
 43
100.0
  0
INSERT
  5
1A847
330
16384
100
AcDbEntity
  8
寸法
 62
     0
 48
50.0
370
    -2
100
AcDbBlockReference
  2
_DOTSMALL
 10
7011.101915364664
 20
7257.990539741344
 30
0.0
 41
100.0
 42
100.0
 43
100.0
 50
180.0
  0
MTEXT
  5
1A848
330
16384
100
AcDbEntity
  8
寸法
 62
     7
 48
50.0
100
AcDbMText
 10
8223.101915364654
 20
7358.002350764966
 30
0.0
 40
120.0
 41
0.0
 71
     5
 72
     1
  1
\A1;有効開口部間口 2424
  7
STYLE1
 73
     1
 44
1.0
1001
ACAD
1000
MTEXTBEGIN
1070
    73
1070
     1
1070
    44
1040
1.0
1070
    74
1070
     0
1000
MTEXTEND
  0
POINT
  5
1A849
330
16384
100
AcDbEntity
  8
DEFPOINTS
 62
     0
 48
50.0
100
AcDbPoint
 10
9435.101915364645
 20
7818.421310507509
 30
0.0
  0
POINT
  5
1A84A
330
16384
100
AcDbEntity
  8
DEFPOINTS
 62
     0
 48
50.0
100
AcDbPoint
 10
7011.101915364664
 20
7818.421310507509
 30
0.0
  0
POINT
  5
1A84B
330
16384
100
AcDbEntity
  8
DEFPOINTS
 62
     0
 48
50.0
100
AcDbPoint
 10
7011.101915364664
 20
7257.990539741344
 30
0.0
  0
ENDBLK
  5
185D8
330
16384
100
AcDbEntity
  8
0
 48
50.0
100
AcDbBlockEnd
  0
BLOCK
  5
1A5DA
330
1638F
100
AcDbEntity
  8
0
 48
50.0
100
AcDbBlockBegin
  2
*D6
 70
     1
 10
0.0
 20
0.0
 30
0.0
  3
*D6
  1

  0
LINE
  5
1A83B
330
1638F
100
AcDbEntity
  8
寸法
 62
     0
 48
50.0
370
    -2
100
AcDbLine
 10
1648.101915364663
 20
7772.421310507358
 30
0.0
 11
1648.101915364663
 21
6751.817544150323
 31
0.0
  0
LINE
  5
1A83C
330
1638F
100
AcDbEntity
  8
寸法
 62
     0
 48
50.0
370
    -2
100
AcDbLine
 10
9538.101915364633
 20
7772.4213105076
 30
0.0
 11
9538.101915364633
 21
6751.817544150323
 31
0.0
  0
LINE
  5
1A83D
330
1638F
100
AcDbEntity
  8
寸法
 62
     0
 48
50.0
370
    -2
100
AcDbLine
 10
1648.101915364663
 20
6811.817544150322
 30
0.0
 11
9538.101915364633
 21
6811.817544150322
 31
0.0
  0
INSERT
  5
1A83E
330
1638F
100
AcDbEntity
  8
寸法
 62
     0
 48
50.0
370
    -2
100
AcDbBlockReference
  2
_DOTSMALL
 10
1648.101915364663
 20
6811.817544150322
 30
0.0
 41
100.0
 42
100.0
 43
100.0
 50
180.0
  0
INSERT
  5
1A83F
330
1638F
100
AcDbEntity
  8
寸法
 62
     0
 48
50.0
370
    -2
100
AcDbBlockReference
  2
_DOTSMALL
 10
9538.101915364633
 20
6811.817544150322
 30
0.0
 41
100.0
 42
100.0
 43
100.0
  0
MTEXT
  5
1A840
330
1638F
100
AcDbEntity
  8
寸法
 62
     7
 48
50.0
100
AcDbMText
 10
5593.101915364648
 20
6911.829355173944
 30
0.0
 40
120.0
 41
0.0
 71
     5
 72
     1
  1
\A1;N X 2630
  7
STYLE1
 73
     1
 44
1.0
1001
ACAD
1000
MTEXTBEGIN
1070
    73
1070
     1
1070
    44
1040
1.0
1070
    74
1070
     0
1000
MTEXTEND
  0
POINT
  5
1A841
330
1638F
100
AcDbEntity
  8
DEFPOINTS
 62
     0
 48
50.0
100
AcDbPoint
 10
1648.101915364663
 20
7792.421310507357
 30
0.0
  0
POINT
  5
1A842
330
1638F
100
AcDbEntity
  8
DEFPOINTS
 62
     0
 48
50.0
100
AcDbPoint
 10
9538.101915364633
 20
7792.421310507599
 30
0.0
  0
POINT
  5
1A843
330
1638F
100
AcDbEntity
  8
DEFPOINTS
 62
     0
 48
50.0
100
AcDbPoint
 10
9538.101915364633
 20
6811.817544150322
 30
0.0
  0
ENDBLK
  5
1A5E4
330
1638F
100
AcDbEntity
  8
0
 48
50.0
100
AcDbBlockEnd
  0
BLOCK
  5
16464
330
1639B
100
AcDbEntity
  8
0
 48
50.0
100
AcDbBlockBegin
  2
*D7
 70
     1
 10
0.0
 20
0.0
 30
0.0
  3
*D7
  1

  0
LINE
  5
1A830
330
1639B
100
AcDbEntity
  8
寸法
 62
     0
 48
50.0
370
    -2
100
AcDbLine
 10
1703.101915364659
 20
7772.421310507361
 30
0.0
 11
1703.101915364659
 21
7197.990539741197
 31
0.0
  0
LINE
  5
1A831
330
1639B
100
AcDbEntity
  8
寸法
 62
     0
 48
50.0
370
    -2
100
AcDbLine
 10
1648.101915364663
 20
7772.421310507358
 30
0.0
 11
1648.101915364663
 21
7197.990539741197
 31
0.0
  0
LINE
  5
1A832
330
1639B
100
AcDbEntity
  8
寸法
 62
     0
 48
50.0
370
    -2
100
AcDbLine
 10
1703.101915364659
 20
7257.990539741197
 30
0.0
 11
1803.101915364659
 21
7257.990539741197
 31
0.0
  0
LINE
  5
1A833
330
1639B
100
AcDbEntity
  8
寸法
 62
     0
 48
50.0
370
    -2
100
AcDbLine
 10
1648.101915364663
 20
7257.990539741197
 30
0.0
 11
1231.131352616186
 21
7257.990539741197
 31
0.0
  0
LINE
  5
1A834
330
1639B
100
AcDbEntity
  8
寸法
 62
     0
 48
50.0
370
    -2
100
AcDbLine
 10
1703.101915364659
 20
7257.990539741197
 30
0.0
 11
1648.101915364663
 21
7257.990539741197
 31
0.0
  0
INSERT
  5
1A835
330
1639B
100
AcDbEntity
  8
寸法
 62
     0
 48
50.0
370
    -2
100
AcDbBlockReference
  2
_DOTSMALL
 10
1703.101915364659
 20
7257.990539741197
 30
0.0
 41
100.0
 42
100.0
 43
100.0
 50
180.0
  0
INSERT
  5
1A836
330
1639B
100
AcDbEntity
  8
寸法
 62
     0
 48
50.0
370
    -2
100
AcDbBlockReference
  2
_DOTSMALL
 10
1648.101915364663
 20
7257.990539741197
 30
0.0
 41
100.0
 42
100.0
 43
100.0
  0
MTEXT
  5
1A837
330
1639B
100
AcDbEntity
  8
寸法
 62
     7
 48
50.0
100
AcDbMText
 10
1339.616633990424
 20
7357.990539741196
 30
0.0
 40
120.0
 41
0.0
 71
     5
 72
     1
  1
\A1;55
  7
STYLE1
 73
     1
 44
1.0
1001
ACAD
1000
MTEXTBEGIN
1070
    73
1070
     1
1070
    44
1040
1.0
1070
    74
1070
     0
1000
MTEXTEND
  0
POINT
  5
1A838
330
1639B
100
AcDbEntity
  8
DEFPOINTS
 62
     0
 48
50.0
100
AcDbPoint
 10
1703.101915364659
 20
7792.421310507362
 30
0.0
  0
POINT
  5
1A839
330
1639B
100
AcDbEntity
  8
DEFPOINTS
 62
     0
 48
50.0
100
AcDbPoint
 10
1648.101915364663
 20
7792.421310507357
 30
0.0
  0
POINT
  5
1A83A
330
1639B
100
AcDbEntity
  8
DEFPOINTS
 62
     0
 48
50.0
100
AcDbPoint
 10
1648.101915364663
 20
7257.990539741197
 30
0.0
  0
ENDBLK
  5
16470
330
1639B
100
AcDbEntity
  8
0
 48
50.0
100
AcDbBlockEnd
  0
BLOCK
  5
16471
330
163A9
100
AcDbEntity
  8
0
 48
50.0
100
AcDbBlockBegin
  2
*D8
 70
     1
 10
0.0
 20
0.0
 30
0.0
  3
*D8
  1

  0
LINE
  5
1A825
330
163A9
100
AcDbEntity
  8
寸法
 62
     0
 48
50.0
370
    -2
100
AcDbLine
 10
7011.101915364664
 20
7798.421310507508
 30
0.0
 11
7011.101915364664
 21
7197.990539741344
 31
0.0
  0
LINE
  5
1A826
330
163A9
100
AcDbEntity
  8
寸法
 62
     0
 48
50.0
370
    -2
100
AcDbLine
 10
6963.101915364659
 20
7772.421310507509
 30
0.0
 11
6963.101915364659
 21
7197.990539741344
 31
0.0
  0
LINE
  5
1A827
330
163A9
100
AcDbEntity
  8
寸法
 62
     0
 48
50.0
370
    -2
100
AcDbLine
 10
7011.101915364664
 20
7257.990539741344
 30
0.0
 11
7111.101915364663
 21
7257.990539741344
 31
0.0
  0
LINE
  5
1A828
330
163A9
100
AcDbEntity
  8
寸法
 62
     0
 48
50.0
370
    -2
100
AcDbLine
 10
6963.101915364659
 20
7257.990539741344
 30
0.0
 11
6863.101915364659
 21
7257.990539741344
 31
0.0
  0
MTEXT
  5
1A829
330
163A9
100
AcDbEntity
  8
寸法
 62
     7
 48
50.0
100
AcDbMText
 10
7124.00388636472
 20
7357.990539741344
 30
0.0
 40
120.0
 41
0.0
 71
     5
 72
     1
  1
\A1;48
  7
STYLE1
 73
     1
 44
1.0
1001
ACAD
1000
MTEXTBEGIN
1070
    73
1070
     1
1070
    44
1040
1.0
1070
    74
1070
     0
1000
MTEXTEND
  0
LINE
  5
1A82A
330
163A9
100
AcDbEntity
  8
寸法
 62
     0
 48
50.0
370
    -2
100
AcDbLine
 10
7011.101915364664
 20
7257.990539741344
 30
0.0
 11
6963.101915364659
 21
7257.990539741344
 31
0.0
  0
INSERT
  5
1A82B
330
163A9
100
AcDbEntity
  8
寸法
 62
     0
 48
50.0
370
    -2
100
AcDbBlockReference
  2
_DOTSMALL
 10
7011.101915364664
 20
7257.990539741344
 30
0.0
 41
100.0
 42
100.0
 43
100.0
 50
180.0
  0
INSERT
  5
1A82C
330
163A9
100
AcDbEntity
  8
寸法
 62
     0
 48
50.0
370
    -2
100
AcDbBlockReference
  2
_DOTSMALL
 10
6963.101915364659
 20
7257.990539741344
 30
0.0
 41
100.0
 42
100.0
 43
100.0
  0
POINT
  5
1A82D
330
163A9
100
AcDbEntity
  8
DEFPOINTS
 62
     0
 48
50.0
100
AcDbPoint
 10
7011.101915364664
 20
7818.421310507509
 30
0.0
  0
POINT
  5
1A82E
330
163A9
100
AcDbEntity
  8
DEFPOINTS
 62
     0
 48
50.0
100
AcDbPoint
 10
6963.101915364659
 20
7792.421310507508
 30
0.0
  0
POINT
  5
1A82F
330
163A9
100
AcDbEntity
  8
DEFPOINTS
 62
     0
 48
50.0
100
AcDbPoint
 10
6963.101915364659
 20
7257.990539741344
 30
0.0
  0
ENDBLK
  5
1647E
330
163A9
100
AcDbEntity
  8
0
 48
50.0
100
AcDbBlockEnd
  0
BLOCK
  5
1647F
330
163B8
100
AcDbEntity
  8
0
 48
50.0
100
AcDbBlockBegin
  2
*D9
 70
     1
 10
0.0
 20
0.0
 30
0.0
  3
*D9
  1

  0
LINE
  5
1A81A
330
163B8
100
AcDbEntity
  8
寸法
 62
     0
 48
50.0
370
    -2
100
AcDbLine
 10
9483.101915364647
 20
7772.421310507596
 30
0.0
 11
9483.101915364647
 21
7197.990539741344
 31
0.0
  0
LINE
  5
1A81B
330
163B8
100
AcDbEntity
  8
寸法
 62
     0
 48
50.0
370
    -2
100
AcDbLine
 10
9435.101915364645
 20
7798.421310507508
 30
0.0
 11
9435.101915364645
 21
7197.990539741344
 31
0.0
  0
LINE
  5
1A81C
330
163B8
100
AcDbEntity
  8
寸法
 62
     0
 48
50.0
370
    -2
100
AcDbLine
 10
9483.101915364647
 20
7257.990539741344
 30
0.0
 11
9583.101915364647
 21
7257.990539741344
 31
0.0
  0
LINE
  5
1A81D
330
163B8
100
AcDbEntity
  8
寸法
 62
     0
 48
50.0
370
    -2
100
AcDbLine
 10
9435.101915364645
 20
7257.990539741344
 30
0.0
 11
9335.101915364644
 21
7257.990539741344
 31
0.0
  0
MTEXT
  5
1A81E
330
163B8
100
AcDbEntity
  8
寸法
 62
     7
 48
50.0
100
AcDbMText
 10
9324.139017715898
 20
7357.990539741344
 30
0.0
 40
120.0
 41
0.0
 71
     5
 72
     1
  1
\A1;48
  7
STYLE1
 73
     1
 44
1.0
1001
ACAD
1000
MTEXTBEGIN
1070
    73
1070
     1
1070
    44
1040
1.0
1070
    74
1070
     0
1000
MTEXTEND
  0
LINE
  5
1A81F
330
163B8
100
AcDbEntity
  8
寸法
 62
     0
 48
50.0
370
    -2
100
AcDbLine
 10
9483.101915364647
 20
7257.990539741344
 30
0.0
 11
9435.101915364645
 21
7257.990539741344
 31
0.0
  0
INSERT
  5
1A820
330
163B8
100
AcDbEntity
  8
寸法
 62
     0
 48
50.0
370
    -2
100
AcDbBlockReference
  2
_DOTSMALL
 10
9483.101915364647
 20
7257.990539741344
 30
0.0
 41
100.0
 42
100.0
 43
100.0
 50
180.0
  0
INSERT
  5
1A821
330
163B8
100
AcDbEntity
  8
寸法
 62
     0
 48
50.0
370
    -2
100
AcDbBlockReference
  2
_DOTSMALL
 10
9435.101915364645
 20
7257.990539741344
 30
0.0
 41
100.0
 42
100.0
 43
100.0
  0
POINT
  5
1A822
330
163B8
100
AcDbEntity
  8
DEFPOINTS
 62
     0
 48
50.0
100
AcDbPoint
 10
9483.101915364647
 20
7792.421310507596
 30
0.0
  0
POINT
  5
1A823
330
163B8
100
AcDbEntity
  8
DEFPOINTS
 62
     0
 48
50.0
100
AcDbPoint
 10
9435.101915364645
 20
7818.421310507509
 30
0.0
  0
POINT
  5
1A824
330
163B8
100
AcDbEntity
  8
DEFPOINTS
 62
     0
 48
50.0
100
AcDbPoint
 10
9435.101915364645
 20
7257.990539741344
 30
0.0
  0
ENDBLK
  5
1648C
330
163B8
100
AcDbEntity
  8
0
 48
50.0
100
AcDbBlockEnd
  0
BLOCK
  5
1648D
330
163C7
100
AcDbEntity
  8
0
 48
50.0
100
AcDbBlockBegin
  2
*D10
 70
     1
 10
0.0
 20
0.0
 30
0.0
  3
*D10
  1

  0
LINE
  5
1A80F
330
163C7
100
AcDbEntity
  8
寸法
 62
     0
 48
50.0
370
    -2
100
AcDbLine
 10
9538.101915364645
 20
7772.4213105076
 30
0.0
 11
9538.101915364645
 21
7197.990539741344
 31
0.0
  0
LINE
  5
1A810
330
163C7
100
AcDbEntity
  8
寸法
 62
     0
 48
50.0
370
    -2
100
AcDbLine
 10
9483.101915364647
 20
7772.421310507596
 30
0.0
 11
9483.101915364647
 21
7197.990539741344
 31
0.0
  0
LINE
  5
1A811
330
163C7
100
AcDbEntity
  8
寸法
 62
     0
 48
50.0
370
    -2
100
AcDbLine
 10
9483.101915364647
 20
7257.990539741344
 30
0.0
 11
9383.101915364646
 21
7257.990539741344
 31
0.0
  0
LINE
  5
1A812
330
163C7
100
AcDbEntity
  8
寸法
 62
     0
 48
50.0
370
    -2
100
AcDbLine
 10
9538.101915364645
 20
7257.990539741344
 30
0.0
 11
9955.072478113121
 21
7257.990539741344
 31
0.0
  0
LINE
  5
1A813
330
163C7
100
AcDbEntity
  8
寸法
 62
     0
 48
50.0
370
    -2
100
AcDbLine
 10
9483.101915364647
 20
7257.990539741344
 30
0.0
 11
9538.101915364645
 21
7257.990539741344
 31
0.0
  0
INSERT
  5
1A814
330
163C7
100
AcDbEntity
  8
寸法
 62
     0
 48
50.0
370
    -2
100
AcDbBlockReference
  2
_DOTSMALL
 10
9483.101915364647
 20
7257.990539741344
 30
0.0
 41
100.0
 42
100.0
 43
100.0
  0
INSERT
  5
1A815
330
163C7
100
AcDbEntity
  8
寸法
 62
     0
 48
50.0
370
    -2
100
AcDbBlockReference
  2
_DOTSMALL
 10
9538.101915364645
 20
7257.990539741344
 30
0.0
 41
100.0
 42
100.0
 43
100.0
 50
180.0
  0
MTEXT
  5
1A816
330
163C7
100
AcDbEntity
  8
寸法
 62
     7
 48
50.0
100
AcDbMText
 10
9846.587196738884
 20
7357.990539741344
 30
0.0
 40
120.0
 41
0.0
 71
     5
 72
     1
  1
\A1;55
  7
STYLE1
 73
     1
 44
1.0
1001
ACAD
1000
MTEXTBEGIN
1070
    73
1070
     1
1070
    44
1040
1.0
1070
    74
1070
     0
1000
MTEXTEND
  0
POINT
  5
1A817
330
163C7
100
AcDbEntity
  8
DEFPOINTS
 62
     0
 48
50.0
100
AcDbPoint
 10
9538.101915364645
 20
7792.421310507599
 30
0.0
  0
POINT
  5
1A818
330
163C7
100
AcDbEntity
  8
DEFPOINTS
 62
     0
 48
50.0
100
AcDbPoint
 10
9483.101915364647
 20
7792.421310507596
 30
0.0
  0
POINT
  5
1A819
330
163C7
100
AcDbEntity
  8
DEFPOINTS
 62
     0
 48
50.0
100
AcDbPoint
 10
9483.101915364647
 20
7257.990539741344
 30
0.0
  0
ENDBLK
  5
16499
330
163C7
100
AcDbEntity
  8
0
 48
50.0
100
AcDbBlockEnd
  0
BLOCK
  5
18C46
330
163E1
100
AcDbEntity
  8
0
 48
50.0
100
AcDbBlockBegin
  2
*D11
 70
     1
 10
0.0
 20
0.0
 30
0.0
  3
*D11
  1

  0
LINE
  5
1CF0B
330
163E1
100
AcDbEntity
  8
寸法
 62
     0
 48
50.0
370
    -2
100
AcDbLine
 10
6963.101915364669
 20
9602.421310507512
 30
0.0
 11
6963.101915364669
 21
10058.22953013261
 31
0.0
  0
LINE
  5
1CF0C
330
163E1
100
AcDbEntity
  8
寸法
 62
     0
 48
50.0
370
    -2
100
AcDbLine
 10
9483.10191536467
 20
9602.421310507608
 30
0.0
 11
9483.10191536467
 21
10058.22953013261
 31
0.0
  0
LINE
  5
1CF0D
330
163E1
100
AcDbEntity
  8
寸法
 62
     0
 48
50.0
370
    -2
100
AcDbLine
 10
6963.101915364669
 20
9998.229530132611
 30
0.0
 11
9483.10191536467
 21
9998.229530132611
 31
0.0
  0
INSERT
  5
1CF0E
330
163E1
100
AcDbEntity
  8
寸法
 62
     0
 48
50.0
370
    -2
100
AcDbBlockReference
  2
_DOTSMALL
 10
6963.101915364669
 20
9998.229530132611
 30
0.0
 41
100.0
 42
100.0
 43
100.0
 50
180.0
  0
INSERT
  5
1CF0F
330
163E1
100
AcDbEntity
  8
寸法
 62
     0
 48
50.0
370
    -2
100
AcDbBlockReference
  2
_DOTSMALL
 10
9483.10191536467
 20
9998.229530132611
 30
0.0
 41
100.0
 42
100.0
 43
100.0
  0
MTEXT
  5
1CF10
330
163E1
100
AcDbEntity
  8
寸法
 62
     7
 48
50.0
100
AcDbMText
 10
8223.10191536467
 20
10098.24134115623
 30
0.0
 40
120.0
 41
0.0
 71
     5
 72
     1
  1
\A1;6X420=2520
  7
STYLE1
 73
     1
 44
1.0
1001
ACAD
1000
MTEXTBEGIN
1070
    73
1070
     1
1070
    44
1040
1.0
1070
    74
1070
     0
1000
MTEXTEND
  0
POINT
  5
1CF11
330
163E1
100
AcDbEntity
  8
DEFPOINTS
 62
     0
 48
50.0
100
AcDbPoint
 10
6963.101915364669
 20
9582.421310507513
 30
0.0
  0
POINT
  5
1CF12
330
163E1
100
AcDbEntity
  8
DEFPOINTS
 62
     0
 48
50.0
100
AcDbPoint
 10
9483.10191536467
 20
9582.421310507607
 30
0.0
  0
POINT
  5
1CF13
330
163E1
100
AcDbEntity
  8
DEFPOINTS
 62
     0
 48
50.0
100
AcDbPoint
 10
9483.10191536467
 20
9998.229530132611
 30
0.0
  0
ENDBLK
  5
18C50
330
163E1
100
AcDbEntity
  8
0
 48
50.0
100
AcDbBlockEnd
  0
BLOCK
  5
164B0
330
163ED
100
AcDbEntity
  8
0
 48
50.0
100
AcDbBlockBegin
  2
*D12
 70
     1
 10
0.0
 20
0.0
 30
0.0
  3
*D12
  1

  0
LINE
  5
1CF00
330
163ED
100
AcDbEntity
  8
寸法
 62
     0
 48
50.0
370
    -2
100
AcDbLine
 10
1648.101915364636
 20
9602.421310507367
 30
0.0
 11
1648.101915364636
 21
10058.22953013235
 31
0.0
  0
LINE
  5
1CF01
330
163ED
100
AcDbEntity
  8
寸法
 62
     0
 48
50.0
370
    -2
100
AcDbLine
 10
1703.101915364668
 20
9602.421310507367
 30
0.0
 11
1703.101915364668
 21
10058.22953013235
 31
0.0
  0
LINE
  5
1CF02
330
163ED
100
AcDbEntity
  8
寸法
 62
     0
 48
50.0
370
    -2
100
AcDbLine
 10
1703.101915364668
 20
9998.229530132348
 30
0.0
 11
1803.101915364668
 21
9998.229530132348
 31
0.0
  0
LINE
  5
1CF03
330
163ED
100
AcDbEntity
  8
寸法
 62
     0
 48
50.0
370
    -2
100
AcDbLine
 10
1648.101915364636
 20
9998.229530132348
 30
0.0
 11
1231.131352616157
 21
9998.229530132348
 31
0.0
  0
LINE
  5
1CF04
330
163ED
100
AcDbEntity
  8
寸法
 62
     0
 48
50.0
370
    -2
100
AcDbLine
 10
1703.101915364668
 20
9998.229530132348
 30
0.0
 11
1648.101915364636
 21
9998.229530132348
 31
0.0
  0
INSERT
  5
1CF05
330
163ED
100
AcDbEntity
  8
寸法
 62
     0
 48
50.0
370
    -2
100
AcDbBlockReference
  2
_DOTSMALL
 10
1703.101915364668
 20
9998.229530132348
 30
0.0
 41
100.0
 42
100.0
 43
100.0
 50
180.0
  0
INSERT
  5
1CF06
330
163ED
100
AcDbEntity
  8
寸法
 62
     0
 48
50.0
370
    -2
100
AcDbBlockReference
  2
_DOTSMALL
 10
1648.101915364636
 20
9998.229530132348
 30
0.0
 41
100.0
 42
100.0
 43
100.0
  0
MTEXT
  5
1CF07
330
163ED
100
AcDbEntity
  8
寸法
 62
     7
 48
50.0
100
AcDbMText
 10
1339.616633990395
 20
10098.22953013235
 30
0.0
 40
120.0
 41
0.0
 71
     5
 72
     1
  1
\A1;55
  7
STYLE1
 73
     1
 44
1.0
1001
ACAD
1000
MTEXTBEGIN
1070
    73
1070
     1
1070
    44
1040
1.0
1070
    74
1070
     0
1000
MTEXTEND
  0
POINT
  5
1CF08
330
163ED
100
AcDbEntity
  8
DEFPOINTS
 62
     0
 48
50.0
100
AcDbPoint
 10
1648.101915364636
 20
9582.421310507367
 30
0.0
  0
POINT
  5
1CF09
330
163ED
100
AcDbEntity
  8
DEFPOINTS
 62
     0
 48
50.0
100
AcDbPoint
 10
1703.101915364668
 20
9582.421310507367
 30
0.0
  0
POINT
  5
1CF0A
330
163ED
100
AcDbEntity
  8
DEFPOINTS
 62
     0
 48
50.0
100
AcDbPoint
 10
1703.101915364668
 20
9998.229530132348
 30
0.0
  0
ENDBLK
  5
164BC
330
163ED
100
AcDbEntity
  8
0
 48
50.0
100
AcDbBlockEnd
  0
BLOCK
  5
164BD
330
163FB
100
AcDbEntity
  8
0
 48
50.0
100
AcDbBlockBegin
  2
*D13
 70
     1
 10
0.0
 20
0.0
 30
0.0
  3
*D13
  1

  0
LINE
  5
1CEF5
330
163FB
100
AcDbEntity
  8
寸法
 62
     0
 48
50.0
370
    -2
100
AcDbLine
 10
9483.10191536467
 20
9602.421310507608
 30
0.0
 11
9483.10191536467
 21
10058.22953013259
 31
0.0
  0
LINE
  5
1CEF6
330
163FB
100
AcDbEntity
  8
寸法
 62
     0
 48
50.0
370
    -2
100
AcDbLine
 10
9538.10191536467
 20
9602.421310507608
 30
0.0
 11
9538.10191536467
 21
10058.22953013259
 31
0.0
  0
LINE
  5
1CEF7
330
163FB
100
AcDbEntity
  8
寸法
 62
     0
 48
50.0
370
    -2
100
AcDbLine
 10
9483.10191536467
 20
9998.229530132592
 30
0.0
 11
9383.101915364671
 21
9998.229530132592
 31
0.0
  0
LINE
  5
1CEF8
330
163FB
100
AcDbEntity
  8
寸法
 62
     0
 48
50.0
370
    -2
100
AcDbLine
 10
9538.10191536467
 20
9998.229530132592
 30
0.0
 11
9955.072478113146
 21
9998.229530132592
 31
0.0
  0
LINE
  5
1CEF9
330
163FB
100
AcDbEntity
  8
寸法
 62
     0
 48
50.0
370
    -2
100
AcDbLine
 10
9483.10191536467
 20
9998.229530132592
 30
0.0
 11
9538.10191536467
 21
9998.229530132592
 31
0.0
  0
INSERT
  5
1CEFA
330
163FB
100
AcDbEntity
  8
寸法
 62
     0
 48
50.0
370
    -2
100
AcDbBlockReference
  2
_DOTSMALL
 10
9483.10191536467
 20
9998.229530132592
 30
0.0
 41
100.0
 42
100.0
 43
100.0
  0
INSERT
  5
1CEFB
330
163FB
100
AcDbEntity
  8
寸法
 62
     0
 48
50.0
370
    -2
100
AcDbBlockReference
  2
_DOTSMALL
 10
9538.10191536467
 20
9998.229530132592
 30
0.0
 41
100.0
 42
100.0
 43
100.0
 50
180.0
  0
MTEXT
  5
1CEFC
330
163FB
100
AcDbEntity
  8
寸法
 62
     7
 48
50.0
100
AcDbMText
 10
9846.587196738909
 20
10098.22953013259
 30
0.0
 40
120.0
 41
0.0
 71
     5
 72
     1
  1
\A1;55
  7
STYLE1
 73
     1
 44
1.0
1001
ACAD
1000
MTEXTBEGIN
1070
    73
1070
     1
1070
    44
1040
1.0
1070
    74
1070
     0
1000
MTEXTEND
  0
POINT
  5
1CEFD
330
163FB
100
AcDbEntity
  8
DEFPOINTS
 62
     0
 48
50.0
100
AcDbPoint
 10
9483.10191536467
 20
9582.421310507607
 30
0.0
  0
POINT
  5
1CEFE
330
163FB
100
AcDbEntity
  8
DEFPOINTS
 62
     0
 48
50.0
100
AcDbPoint
 10
9538.10191536467
 20
9582.421310507607
 30
0.0
  0
POINT
  5
1CEFF
330
163FB
100
AcDbEntity
  8
DEFPOINTS
 62
     0
 48
50.0
100
AcDbPoint
 10
9538.10191536467
 20
9998.229530132592
 30
0.0
  0
ENDBLK
  5
164C9
330
163FB
100
AcDbEntity
  8
0
 48
50.0
100
AcDbBlockEnd
  0
BLOCK
  5
165B6
330
165B5
100
AcDbEntity
  8
0
 48
50.0
100
AcDbBlockBegin
  2
*D14
 70
     1
 10
0.0
 20
0.0
 30
0.0
  3
*D14
  1

  0
LINE
  5
1A7DA
330
165B5
100
AcDbEntity
  8
寸法
 62
     0
 48
50.0
370
    -2
100
AcDbLine
 10
1751.101915364663
 20
7798.421310507362
 30
0.0
 11
1751.101915364663
 21
7197.990539741197
 31
0.0
  0
LINE
  5
1A7DB
330
165B5
100
AcDbEntity
  8
寸法
 62
     0
 48
50.0
370
    -2
100
AcDbLine
 10
1703.101915364659
 20
7772.421310507361
 30
0.0
 11
1703.101915364659
 21
7197.990539741197
 31
0.0
  0
LINE
  5
1A7DC
330
165B5
100
AcDbEntity
  8
寸法
 62
     0
 48
50.0
370
    -2
100
AcDbLine
 10
1751.101915364663
 20
7257.990539741197
 30
0.0
 11
1851.101915364663
 21
7257.990539741197
 31
0.0
  0
LINE
  5
1A7DD
330
165B5
100
AcDbEntity
  8
寸法
 62
     0
 48
50.0
370
    -2
100
AcDbLine
 10
1703.101915364659
 20
7257.990539741197
 30
0.0
 11
1603.101915364659
 21
7257.990539741197
 31
0.0
  0
MTEXT
  5
1A7DE
330
165B5
100
AcDbEntity
  8
寸法
 62
     7
 48
50.0
100
AcDbMText
 10
1864.00388636472
 20
7357.990539741196
 30
0.0
 40
120.0
 41
0.0
 71
     5
 72
     1
  1
\A1;48
  7
STYLE1
 73
     1
 44
1.0
1001
ACAD
1000
MTEXTBEGIN
1070
    73
1070
     1
1070
    44
1040
1.0
1070
    74
1070
     0
1000
MTEXTEND
  0
LINE
  5
1A7DF
330
165B5
100
AcDbEntity
  8
寸法
 62
     0
 48
50.0
370
    -2
100
AcDbLine
 10
1751.101915364663
 20
7257.990539741197
 30
0.0
 11
1703.101915364659
 21
7257.990539741197
 31
0.0
  0
INSERT
  5
1A7E0
330
165B5
100
AcDbEntity
  8
寸法
 62
     0
 48
50.0
370
    -2
100
AcDbBlockReference
  2
_DOTSMALL
 10
1751.101915364663
 20
7257.990539741197
 30
0.0
 41
100.0
 42
100.0
 43
100.0
 50
180.0
  0
INSERT
  5
1A7E1
330
165B5
100
AcDbEntity
  8
寸法
 62
     0
 48
50.0
370
    -2
100
AcDbBlockReference
  2
_DOTSMALL
 10
1703.101915364659
 20
7257.990539741197
 30
0.0
 41
100.0
 42
100.0
 43
100.0
  0
POINT
  5
1A7E2
330
165B5
100
AcDbEntity
  8
DEFPOINTS
 62
     0
 48
50.0
100
AcDbPoint
 10
1751.101915364663
 20
7818.42131050736
 30
0.0
  0
POINT
  5
1A7E3
330
165B5
100
AcDbEntity
  8
DEFPOINTS
 62
     0
 48
50.0
100
AcDbPoint
 10
1703.101915364659
 20
7792.421310507362
 30
0.0
  0
POINT
  5
1A7E4
330
165B5
100
AcDbEntity
  8
DEFPOINTS
 62
     0
 48
50.0
100
AcDbPoint
 10
1703.101915364659
 20
7257.990539741197
 30
0.0
  0
ENDBLK
  5
165C3
330
165B5
100
AcDbEntity
  8
0
 48
50.0
100
AcDbBlockEnd
  0
BLOCK
  5
165C5
330
165C4
100
AcDbEntity
  8
0
 48
50.0
100
AcDbBlockBegin
  2
*D15
 70
     1
 10
0.0
 20
0.0
 30
0.0
  3
*D15
  1

  0
LINE
  5
1A7E5
330
165C4
100
AcDbEntity
  8
寸法
 62
     0
 48
50.0
370
    -2
100
AcDbLine
 10
6853.101915364646
 20
7772.421310507596
 30
0.0
 11
6853.101915364646
 21
7197.990539741344
 31
0.0
  0
LINE
  5
1A7E6
330
165C4
100
AcDbEntity
  8
寸法
 62
     0
 48
50.0
370
    -2
100
AcDbLine
 10
6805.101915364645
 20
7798.421310507508
 30
0.0
 11
6805.101915364645
 21
7197.990539741344
 31
0.0
  0
LINE
  5
1A7E7
330
165C4
100
AcDbEntity
  8
寸法
 62
     0
 48
50.0
370
    -2
100
AcDbLine
 10
6853.101915364646
 20
7257.990539741344
 30
0.0
 11
6953.101915364647
 21
7257.990539741344
 31
0.0
  0
LINE
  5
1A7E8
330
165C4
100
AcDbEntity
  8
寸法
 62
     0
 48
50.0
370
    -2
100
AcDbLine
 10
6805.101915364645
 20
7257.990539741344
 30
0.0
 11
6705.101915364645
 21
7257.990539741344
 31
0.0
  0
MTEXT
  5
1A7E9
330
165C4
100
AcDbEntity
  8
寸法
 62
     7
 48
50.0
100
AcDbMText
 10
6694.139017715897
 20
7357.990539741344
 30
0.0
 40
120.0
 41
0.0
 71
     5
 72
     1
  1
\A1;48
  7
STYLE1
 73
     1
 44
1.0
1001
ACAD
1000
MTEXTBEGIN
1070
    73
1070
     1
1070
    44
1040
1.0
1070
    74
1070
     0
1000
MTEXTEND
  0
LINE
  5
1A7EA
330
165C4
100
AcDbEntity
  8
寸法
 62
     0
 48
50.0
370
    -2
100
AcDbLine
 10
6853.101915364646
 20
7257.990539741344
 30
0.0
 11
6805.101915364645
 21
7257.990539741344
 31
0.0
  0
INSERT
  5
1A7EB
330
165C4
100
AcDbEntity
  8
寸法
 62
     0
 48
50.0
370
    -2
100
AcDbBlockReference
  2
_DOTSMALL
 10
6853.101915364646
 20
7257.990539741344
 30
0.0
 41
100.0
 42
100.0
 43
100.0
 50
180.0
  0
INSERT
  5
1A7EC
330
165C4
100
AcDbEntity
  8
寸法
 62
     0
 48
50.0
370
    -2
100
AcDbBlockReference
  2
_DOTSMALL
 10
6805.101915364645
 20
7257.990539741344
 30
0.0
 41
100.0
 42
100.0
 43
100.0
  0
POINT
  5
1A7ED
330
165C4
100
AcDbEntity
  8
DEFPOINTS
 62
     0
 48
50.0
100
AcDbPoint
 10
6853.101915364646
 20
7792.421310507596
 30
0.0
  0
POINT
  5
1A7EE
330
165C4
100
AcDbEntity
  8
DEFPOINTS
 62
     0
 48
50.0
100
AcDbPoint
 10
6805.101915364645
 20
7818.421310507509
 30
0.0
  0
POINT
  5
1A7EF
330
165C4
100
AcDbEntity
  8
DEFPOINTS
 62
     0
 48
50.0
100
AcDbPoint
 10
6805.101915364645
 20
7257.990539741344
 30
0.0
  0
ENDBLK
  5
165D2
330
165C4
100
AcDbEntity
  8
0
 48
50.0
100
AcDbBlockEnd
  0
BLOCK
  5
1663F
330
165EA
100
AcDbEntity
  8
0
 48
50.0
100
AcDbBlockBegin
  2
*D16
 70
     1
 10
0.0
 20
0.0
 30
0.0
  3
*D16
  1

  0
LINE
  5
1A7D1
330
165EA
100
AcDbEntity
  8
寸法
 62
     0
 48
50.0
370
    -2
100
AcDbLine
 10
6963.101915364659
 20
7772.421310507509
 30
0.0
 11
6963.101915364659
 21
7197.990539741344
 31
0.0
  0
LINE
  5
1A7D2
330
165EA
100
AcDbEntity
  8
寸法
 62
     0
 48
50.0
370
    -2
100
AcDbLine
 10
6853.101915364646
 20
7772.421310507596
 30
0.0
 11
6853.101915364646
 21
7197.990539741344
 31
0.0
  0
LINE
  5
1A7D3
330
165EA
100
AcDbEntity
  8
寸法
 62
     0
 48
50.0
370
    -2
100
AcDbLine
 10
6963.101915364659
 20
7257.990539741344
 30
0.0
 11
6853.101915364646
 21
7257.990539741344
 31
0.0
  0
MTEXT
  5
1A7D4
330
165EA
100
AcDbEntity
  8
寸法
 62
     7
 48
50.0
100
AcDbMText
 10
6908.101915364653
 20
7106.298644705113
 30
0.0
 40
120.0
 41
0.0
 71
     5
 72
     1
  1
\A1;110
  7
STYLE1
 73
     1
 44
1.0
1001
ACAD
1000
MTEXTBEGIN
1070
    73
1070
     1
1070
    44
1040
1.0
1070
    74
1070
     0
1000
MTEXTEND
  0
INSERT
  5
1A7D5
330
165EA
100
AcDbEntity
  8
寸法
 62
     0
 48
50.0
370
    -2
100
AcDbBlockReference
  2
_DOTSMALL
 10
6963.101915364659
 20
7257.990539741344
 30
0.0
 41
100.0
 42
100.0
 43
100.0
  0
INSERT
  5
1A7D6
330
165EA
100
AcDbEntity
  8
寸法
 62
     0
 48
50.0
370
    -2
100
AcDbBlockReference
  2
_DOTSMALL
 10
6853.101915364646
 20
7257.990539741344
 30
0.0
 41
100.0
 42
100.0
 43
100.0
 50
180.0
  0
POINT
  5
1A7D7
330
165EA
100
AcDbEntity
  8
DEFPOINTS
 62
     0
 48
50.0
100
AcDbPoint
 10
6963.101915364659
 20
7792.421310507508
 30
0.0
  0
POINT
  5
1A7D8
330
165EA
100
AcDbEntity
  8
DEFPOINTS
 62
     0
 48
50.0
100
AcDbPoint
 10
6853.101915364646
 20
7792.421310507596
 30
0.0
  0
POINT
  5
1A7D9
330
165EA
100
AcDbEntity
  8
DEFPOINTS
 62
     0
 48
50.0
100
AcDbPoint
 10
6853.101915364646
 20
7257.990539741344
 30
0.0
  0
ENDBLK
  5
16649
330
165EA
100
AcDbEntity
  8
0
 48
50.0
100
AcDbBlockEnd
  0
BLOCK
  5
1A0B5
330
166CF
100
AcDbEntity
  8
0
 48
50.0
100
AcDbBlockBegin
  2
*D17
 70
     1
 10
0.0
 20
0.0
 30
0.0
  3
*D17
  1

  0
LINE
  5
1CEEA
330
166CF
100
AcDbEntity
  8
寸法
 62
     0
 48
50.0
370
    -2
100
AcDbLine
 10
6963.101915364669
 20
9602.421310507562
 30
0.0
 11
6963.101915364669
 21
10058.22953013261
 31
0.0
  0
LINE
  5
1CEEB
330
166CF
100
AcDbEntity
  8
寸法
 62
     0
 48
50.0
370
    -2
100
AcDbLine
 10
6853.101915364671
 20
9602.421310507558
 30
0.0
 11
6853.101915364671
 21
10058.22953013261
 31
0.0
  0
LINE
  5
1CEEC
330
166CF
100
AcDbEntity
  8
寸法
 62
     0
 48
50.0
370
    -2
100
AcDbLine
 10
6963.101915364669
 20
9998.229530132611
 30
0.0
 11
7063.101915364669
 21
9998.229530132611
 31
0.0
  0
LINE
  5
1CEED
330
166CF
100
AcDbEntity
  8
寸法
 62
     0
 48
50.0
370
    -2
100
AcDbLine
 10
6853.101915364671
 20
9998.229530132611
 30
0.0
 11
6753.101915364671
 21
9998.229530132611
 31
0.0
  0
LINE
  5
1CEEE
330
166CF
100
AcDbEntity
  8
寸法
 62
     0
 48
50.0
370
    -2
100
AcDbLine
 10
6963.101915364669
 20
9998.229530132611
 30
0.0
 11
6853.101915364671
 21
9998.229530132611
 31
0.0
  0
INSERT
  5
1CEEF
330
166CF
100
AcDbEntity
  8
寸法
 62
     0
 48
50.0
370
    -2
100
AcDbBlockReference
  2
_DOTSMALL
 10
6963.101915364669
 20
9998.229530132611
 30
0.0
 41
100.0
 42
100.0
 43
100.0
 50
180.0
  0
INSERT
  5
1CEF0
330
166CF
100
AcDbEntity
  8
寸法
 62
     0
 48
50.0
370
    -2
100
AcDbBlockReference
  2
_DOTSMALL
 10
6853.101915364671
 20
9998.229530132611
 30
0.0
 41
100.0
 42
100.0
 43
100.0
  0
MTEXT
  5
1CEF1
330
166CF
100
AcDbEntity
  8
寸法
 62
     7
 48
50.0
100
AcDbMText
 10
6908.101915364669
 20
10098.22953013261
 30
0.0
 40
120.0
 41
0.0
 71
     5
 72
     1
  1
\A1;110
  7
STYLE1
 73
     1
 44
1.0
1001
ACAD
1000
MTEXTBEGIN
1070
    73
1070
     1
1070
    44
1040
1.0
1070
    74
1070
     0
1000
MTEXTEND
  0
POINT
  5
1CEF2
330
166CF
100
AcDbEntity
  8
DEFPOINTS
 62
     0
 48
50.0
100
AcDbPoint
 10
6963.101915364669
 20
9582.421310507561
 30
0.0
  0
POINT
  5
1CEF3
330
166CF
100
AcDbEntity
  8
DEFPOINTS
 62
     0
 48
50.0
100
AcDbPoint
 10
6853.101915364671
 20
9582.421310507559
 30
0.0
  0
POINT
  5
1CEF4
330
166CF
100
AcDbEntity
  8
DEFPOINTS
 62
     0
 48
50.0
100
AcDbPoint
 10
6853.101915364671
 20
9998.229530132611
 30
0.0
  0
ENDBLK
  5
1A0C1
330
166CF
100
AcDbEntity
  8
0
 48
50.0
100
AcDbBlockEnd
  0
BLOCK
  5
1A0AA
330
16908
100
AcDbEntity
  8
0
 48
50.0
100
AcDbBlockBegin
  2
*D18
 70
     1
 10
0.0
 20
0.0
 30
0.0
  3
*D18
  1

  0
LINE
  5
1CEE1
330
16908
100
AcDbEntity
  8
寸法
 62
     0
 48
50.0
370
    -2
100
AcDbLine
 10
6908.101915364671
 20
10177.21744449055
 30
0.0
 11
6908.101915364671
 21
10307.5510036889
 31
0.0
  0
LINE
  5
1CEE2
330
16908
100
AcDbEntity
  8
寸法
 62
     0
 48
50.0
370
    -2
100
AcDbLine
 10
9538.10191536467
 20
9602.421310507608
 30
0.0
 11
9538.10191536467
 21
10307.5510036889
 31
0.0
  0
LINE
  5
1CEE3
330
16908
100
AcDbEntity
  8
寸法
 62
     0
 48
50.0
370
    -2
100
AcDbLine
 10
6908.101915364671
 20
10247.5510036889
 30
0.0
 11
9538.10191536467
 21
10247.5510036889
 31
0.0
  0
INSERT
  5
1CEE4
330
16908
100
AcDbEntity
  8
寸法
 62
     0
 48
50.0
370
    -2
100
AcDbBlockReference
  2
_DOTSMALL
 10
6908.101915364671
 20
10247.5510036889
 30
0.0
 41
100.0
 42
100.0
 43
100.0
 50
180.0
  0
INSERT
  5
1CEE5
330
16908
100
AcDbEntity
  8
寸法
 62
     0
 48
50.0
370
    -2
100
AcDbBlockReference
  2
_DOTSMALL
 10
9538.10191536467
 20
10247.5510036889
 30
0.0
 41
100.0
 42
100.0
 43
100.0
  0
MTEXT
  5
1CEE6
330
16908
100
AcDbEntity
  8
寸法
 62
     7
 48
50.0
100
AcDbMText
 10
8223.10191536467
 20
10347.56281471252
 30
0.0
 40
120.0
 41
0.0
 71
     5
 72
     1
  1
\A1;2630
  7
STYLE1
 73
     1
 44
1.0
1001
ACAD
1000
MTEXTBEGIN
1070
    73
1070
     1
1070
    44
1040
1.0
1070
    74
1070
     0
1000
MTEXTEND
  0
POINT
  5
1CEE7
330
16908
100
AcDbEntity
  8
DEFPOINTS
 62
     0
 48
50.0
100
AcDbPoint
 10
6908.101915364671
 20
10157.21744449055
 30
0.0
  0
POINT
  5
1CEE8
330
16908
100
AcDbEntity
  8
DEFPOINTS
 62
     0
 48
50.0
100
AcDbPoint
 10
9538.10191536467
 20
9582.421310507607
 30
0.0
  0
POINT
  5
1CEE9
330
16908
100
AcDbEntity
  8
DEFPOINTS
 62
     0
 48
50.0
100
AcDbPoint
 10
9538.10191536467
 20
10247.5510036889
 30
0.0
  0
ENDBLK
  5
1A0B4
330
16908
100
AcDbEntity
  8
0
 48
50.0
100
AcDbBlockEnd
  0
BLOCK
  5
17CC2
330
17CC1
100
AcDbEntity
  8
0
 48
50.0
100
AcDbBlockBegin
  2
*D19
 70
     1
 10
0.0
 20
0.0
 30
0.0
  3
*D19
  1

  0
LINE
  5
1A7B2
330
17CC1
100
AcDbEntity
  8
寸法
 62
     0
 48
50.0
370
    -2
100
AcDbLine
 10
6853.101915364646
 20
7772.421310507448
 30
0.0
 11
6853.101915364646
 21
7197.990539741197
 31
0.0
  0
LINE
  5
1A7B3
330
17CC1
100
AcDbEntity
  8
寸法
 62
     0
 48
50.0
370
    -2
100
AcDbLine
 10
6805.101915364645
 20
7798.421310507362
 30
0.0
 11
6805.101915364645
 21
7197.990539741197
 31
0.0
  0
LINE
  5
1A7B4
330
17CC1
100
AcDbEntity
  8
寸法
 62
     0
 48
50.0
370
    -2
100
AcDbLine
 10
6853.101915364646
 20
7257.990539741197
 30
0.0
 11
6953.101915364647
 21
7257.990539741197
 31
0.0
  0
LINE
  5
1A7B5
330
17CC1
100
AcDbEntity
  8
寸法
 62
     0
 48
50.0
370
    -2
100
AcDbLine
 10
6805.101915364645
 20
7257.990539741197
 30
0.0
 11
6705.101915364645
 21
7257.990539741197
 31
0.0
  0
MTEXT
  5
1A7B6
330
17CC1
100
AcDbEntity
  8
寸法
 62
     7
 48
50.0
100
AcDbMText
 10
6694.139017715897
 20
7357.990539741196
 30
0.0
 40
120.0
 41
0.0
 71
     5
 72
     1
  1
\A1;48
  7
STYLE1
 73
     1
 44
1.0
1001
ACAD
1000
MTEXTBEGIN
1070
    73
1070
     1
1070
    44
1040
1.0
1070
    74
1070
     0
1000
MTEXTEND
  0
LINE
  5
1A7B7
330
17CC1
100
AcDbEntity
  8
寸法
 62
     0
 48
50.0
370
    -2
100
AcDbLine
 10
6853.101915364646
 20
7257.990539741197
 30
0.0
 11
6805.101915364645
 21
7257.990539741197
 31
0.0
  0
INSERT
  5
1A7B8
330
17CC1
100
AcDbEntity
  8
寸法
 62
     0
 48
50.0
370
    -2
100
AcDbBlockReference
  2
_DOTSMALL
 10
6853.101915364646
 20
7257.990539741197
 30
0.0
 41
100.0
 42
100.0
 43
100.0
 50
180.0
  0
INSERT
  5
1A7B9
330
17CC1
100
AcDbEntity
  8
寸法
 62
     0
 48
50.0
370
    -2
100
AcDbBlockReference
  2
_DOTSMALL
 10
6805.101915364645
 20
7257.990539741197
 30
0.0
 41
100.0
 42
100.0
 43
100.0
  0
POINT
  5
1A7BA
330
17CC1
100
AcDbEntity
  8
DEFPOINTS
 62
     0
 48
50.0
100
AcDbPoint
 10
6853.101915364646
 20
7792.421310507449
 30
0.0
  0
POINT
  5
1A7BB
330
17CC1
100
AcDbEntity
  8
DEFPOINTS
 62
     0
 48
50.0
100
AcDbPoint
 10
6805.101915364645
 20
7818.42131050736
 30
0.0
  0
POINT
  5
1A7BC
330
17CC1
100
AcDbEntity
  8
DEFPOINTS
 62
     0
 48
50.0
100
AcDbPoint
 10
6805.101915364645
 20
7257.990539741197
 30
0.0
  0
ENDBLK
  5
17CCF
330
17CC1
100
AcDbEntity
  8
0
 48
50.0
100
AcDbBlockEnd
  0
BLOCK
  5
1A4C5
330
1A4C4
100
AcDbEntity
  8
0
 48
50.0
100
AcDbBlockBegin
  2
*D20
 70
     1
 10
0.0
 20
0.0
 30
0.0
  3
*D20
  1

  0
LINE
  5
1A788
330
1A4C4
100
AcDbEntity
  8
寸法
 62
     0
 48
50.0
370
    -2
100
AcDbLine
 10
4381.101915364663
 20
7798.421310507508
 30
0.0
 11
4381.101915364663
 21
7197.990539741344
 31
0.0
  0
LINE
  5
1A789
330
1A4C4
100
AcDbEntity
  8
寸法
 62
     0
 48
50.0
370
    -2
100
AcDbLine
 10
4333.101915364659
 20
7772.421310507509
 30
0.0
 11
4333.101915364659
 21
7197.990539741344
 31
0.0
  0
LINE
  5
1A78A
330
1A4C4
100
AcDbEntity
  8
寸法
 62
     0
 48
50.0
370
    -2
100
AcDbLine
 10
4381.101915364663
 20
7257.990539741344
 30
0.0
 11
4481.101915364663
 21
7257.990539741344
 31
0.0
  0
LINE
  5
1A78B
330
1A4C4
100
AcDbEntity
  8
寸法
 62
     0
 48
50.0
370
    -2
100
AcDbLine
 10
4333.101915364659
 20
7257.990539741344
 30
0.0
 11
4233.101915364659
 21
7257.990539741344
 31
0.0
  0
MTEXT
  5
1A78C
330
1A4C4
100
AcDbEntity
  8
寸法
 62
     7
 48
50.0
100
AcDbMText
 10
4494.00388636472
 20
7357.990539741344
 30
0.0
 40
120.0
 41
0.0
 71
     5
 72
     1
  1
\A1;48
  7
STYLE1
 73
     1
 44
1.0
1001
ACAD
1000
MTEXTBEGIN
1070
    73
1070
     1
1070
    44
1040
1.0
1070
    74
1070
     0
1000
MTEXTEND
  0
LINE
  5
1A78D
330
1A4C4
100
AcDbEntity
  8
寸法
 62
     0
 48
50.0
370
    -2
100
AcDbLine
 10
4381.101915364663
 20
7257.990539741344
 30
0.0
 11
4333.101915364659
 21
7257.990539741344
 31
0.0
  0
INSERT
  5
1A78E
330
1A4C4
100
AcDbEntity
  8
寸法
 62
     0
 48
50.0
370
    -2
100
AcDbBlockReference
  2
_DOTSMALL
 10
4381.101915364663
 20
7257.990539741344
 30
0.0
 41
100.0
 42
100.0
 43
100.0
 50
180.0
  0
INSERT
  5
1A78F
330
1A4C4
100
AcDbEntity
  8
寸法
 62
     0
 48
50.0
370
    -2
100
AcDbBlockReference
  2
_DOTSMALL
 10
4333.101915364659
 20
7257.990539741344
 30
0.0
 41
100.0
 42
100.0
 43
100.0
  0
POINT
  5
1A790
330
1A4C4
100
AcDbEntity
  8
DEFPOINTS
 62
     0
 48
50.0
100
AcDbPoint
 10
4381.101915364663
 20
7818.421310507509
 30
0.0
  0
POINT
  5
1A791
330
1A4C4
100
AcDbEntity
  8
DEFPOINTS
 62
     0
 48
50.0
100
AcDbPoint
 10
4333.101915364659
 20
7792.421310507508
 30
0.0
  0
POINT
  5
1A792
330
1A4C4
100
AcDbEntity
  8
DEFPOINTS
 62
     0
 48
50.0
100
AcDbPoint
 10
4333.101915364659
 20
7257.990539741344
 30
0.0
  0
ENDBLK
  5
1A4D2
330
1A4C4
100
AcDbEntity
  8
0
 48
50.0
100
AcDbBlockEnd
  0
BLOCK
  5
1A4D4
330
1A4D3
100
AcDbEntity
  8
0
 48
50.0
100
AcDbBlockBegin
  2
*D21
 70
     1
 10
0.0
 20
0.0
 30
0.0
  3
*D21
  1

  0
LINE
  5
1A793
330
1A4D3
100
AcDbEntity
  8
寸法
 62
     0
 48
50.0
370
    -2
100
AcDbLine
 10
4223.101915364646
 20
7772.421310507596
 30
0.0
 11
4223.101915364646
 21
7197.990539741344
 31
0.0
  0
LINE
  5
1A794
330
1A4D3
100
AcDbEntity
  8
寸法
 62
     0
 48
50.0
370
    -2
100
AcDbLine
 10
4175.101915364645
 20
7798.421310507508
 30
0.0
 11
4175.101915364645
 21
7197.990539741344
 31
0.0
  0
LINE
  5
1A795
330
1A4D3
100
AcDbEntity
  8
寸法
 62
     0
 48
50.0
370
    -2
100
AcDbLine
 10
4223.101915364646
 20
7257.990539741344
 30
0.0
 11
4323.101915364646
 21
7257.990539741344
 31
0.0
  0
LINE
  5
1A796
330
1A4D3
100
AcDbEntity
  8
寸法
 62
     0
 48
50.0
370
    -2
100
AcDbLine
 10
4175.101915364645
 20
7257.990539741344
 30
0.0
 11
4075.101915364644
 21
7257.990539741344
 31
0.0
  0
MTEXT
  5
1A797
330
1A4D3
100
AcDbEntity
  8
寸法
 62
     7
 48
50.0
100
AcDbMText
 10
4064.139017715898
 20
7357.990539741344
 30
0.0
 40
120.0
 41
0.0
 71
     5
 72
     1
  1
\A1;48
  7
STYLE1
 73
     1
 44
1.0
1001
ACAD
1000
MTEXTBEGIN
1070
    73
1070
     1
1070
    44
1040
1.0
1070
    74
1070
     0
1000
MTEXTEND
  0
LINE
  5
1A798
330
1A4D3
100
AcDbEntity
  8
寸法
 62
     0
 48
50.0
370
    -2
100
AcDbLine
 10
4223.101915364646
 20
7257.990539741344
 30
0.0
 11
4175.101915364645
 21
7257.990539741344
 31
0.0
  0
INSERT
  5
1A799
330
1A4D3
100
AcDbEntity
  8
寸法
 62
     0
 48
50.0
370
    -2
100
AcDbBlockReference
  2
_DOTSMALL
 10
4223.101915364646
 20
7257.990539741344
 30
0.0
 41
100.0
 42
100.0
 43
100.0
 50
180.0
  0
INSERT
  5
1A79A
330
1A4D3
100
AcDbEntity
  8
寸法
 62
     0
 48
50.0
370
    -2
100
AcDbBlockReference
  2
_DOTSMALL
 10
4175.101915364645
 20
7257.990539741344
 30
0.0
 41
100.0
 42
100.0
 43
100.0
  0
POINT
  5
1A79B
330
1A4D3
100
AcDbEntity
  8
DEFPOINTS
 62
     0
 48
50.0
100
AcDbPoint
 10
4223.101915364646
 20
7792.421310507596
 30
0.0
  0
POINT
  5
1A79C
330
1A4D3
100
AcDbEntity
  8
DEFPOINTS
 62
     0
 48
50.0
100
AcDbPoint
 10
4175.101915364645
 20
7818.421310507509
 30
0.0
  0
POINT
  5
1A79D
330
1A4D3
100
AcDbEntity
  8
DEFPOINTS
 62
     0
 48
50.0
100
AcDbPoint
 10
4175.101915364645
 20
7257.990539741344
 30
0.0
  0
ENDBLK
  5
1A4E1
330
1A4D3
100
AcDbEntity
  8
0
 48
50.0
100
AcDbBlockEnd
  0
BLOCK
  5
1A4E3
330
1A4E2
100
AcDbEntity
  8
0
 48
50.0
100
AcDbBlockBegin
  2
*D22
 70
     1
 10
0.0
 20
0.0
 30
0.0
  3
*D22
  1

  0
LINE
  5
1A79E
330
1A4E2
100
AcDbEntity
  8
寸法
 62
     0
 48
50.0
370
    -2
100
AcDbLine
 10
4333.101915364659
 20
7772.421310507509
 30
0.0
 11
4333.101915364659
 21
7197.990539741344
 31
0.0
  0
LINE
  5
1A79F
330
1A4E2
100
AcDbEntity
  8
寸法
 62
     0
 48
50.0
370
    -2
100
AcDbLine
 10
4223.101915364646
 20
7772.421310507596
 30
0.0
 11
4223.101915364646
 21
7197.990539741344
 31
0.0
  0
LINE
  5
1A7A0
330
1A4E2
100
AcDbEntity
  8
寸法
 62
     0
 48
50.0
370
    -2
100
AcDbLine
 10
4333.101915364659
 20
7257.990539741344
 30
0.0
 11
4223.101915364646
 21
7257.990539741344
 31
0.0
  0
MTEXT
  5
1A7A1
330
1A4E2
100
AcDbEntity
  8
寸法
 62
     7
 48
50.0
100
AcDbMText
 10
4278.101915364653
 20
7106.298644705113
 30
0.0
 40
120.0
 41
0.0
 71
     5
 72
     1
  1
\A1;110
  7
STYLE1
 73
     1
 44
1.0
1001
ACAD
1000
MTEXTBEGIN
1070
    73
1070
     1
1070
    44
1040
1.0
1070
    74
1070
     0
1000
MTEXTEND
  0
INSERT
  5
1A7A2
330
1A4E2
100
AcDbEntity
  8
寸法
 62
     0
 48
50.0
370
    -2
100
AcDbBlockReference
  2
_DOTSMALL
 10
4333.101915364659
 20
7257.990539741344
 30
0.0
 41
100.0
 42
100.0
 43
100.0
  0
INSERT
  5
1A7A3
330
1A4E2
100
AcDbEntity
  8
寸法
 62
     0
 48
50.0
370
    -2
100
AcDbBlockReference
  2
_DOTSMALL
 10
4223.101915364646
 20
7257.990539741344
 30
0.0
 41
100.0
 42
100.0
 43
100.0
 50
180.0
  0
POINT
  5
1A7A4
330
1A4E2
100
AcDbEntity
  8
DEFPOINTS
 62
     0
 48
50.0
100
AcDbPoint
 10
4333.101915364659
 20
7792.421310507508
 30
0.0
  0
POINT
  5
1A7A5
330
1A4E2
100
AcDbEntity
  8
DEFPOINTS
 62
     0
 48
50.0
100
AcDbPoint
 10
4223.101915364646
 20
7792.421310507596
 30
0.0
  0
POINT
  5
1A7A6
330
1A4E2
100
AcDbEntity
  8
DEFPOINTS
 62
     0
 48
50.0
100
AcDbPoint
 10
4223.101915364646
 20
7257.990539741344
 30
0.0
  0
ENDBLK
  5
1A4ED
330
1A4E2
100
AcDbEntity
  8
0
 48
50.0
100
AcDbBlockEnd
  0
BLOCK
  5
1A4EF
330
1A4EE
100
AcDbEntity
  8
0
 48
50.0
100
AcDbBlockBegin
  2
*D23
 70
     1
 10
0.0
 20
0.0
 30
0.0
  3
*D23
  1

  0
LINE
  5
1CED6
330
1A4EE
100
AcDbEntity
  8
寸法
 62
     0
 48
50.0
370
    -2
100
AcDbLine
 10
4333.101915364668
 20
9602.421310507562
 30
0.0
 11
4333.101915364668
 21
10058.22953013261
 31
0.0
  0
LINE
  5
1CED7
330
1A4EE
100
AcDbEntity
  8
寸法
 62
     0
 48
50.0
370
    -2
100
AcDbLine
 10
4223.10191536467
 20
9602.421310507558
 30
0.0
 11
4223.10191536467
 21
10058.22953013261
 31
0.0
  0
LINE
  5
1CED8
330
1A4EE
100
AcDbEntity
  8
寸法
 62
     0
 48
50.0
370
    -2
100
AcDbLine
 10
4333.101915364668
 20
9998.229530132611
 30
0.0
 11
4433.101915364669
 21
9998.229530132611
 31
0.0
  0
LINE
  5
1CED9
330
1A4EE
100
AcDbEntity
  8
寸法
 62
     0
 48
50.0
370
    -2
100
AcDbLine
 10
4223.10191536467
 20
9998.229530132611
 30
0.0
 11
4123.10191536467
 21
9998.229530132611
 31
0.0
  0
LINE
  5
1CEDA
330
1A4EE
100
AcDbEntity
  8
寸法
 62
     0
 48
50.0
370
    -2
100
AcDbLine
 10
4333.101915364668
 20
9998.229530132611
 30
0.0
 11
4223.10191536467
 21
9998.229530132611
 31
0.0
  0
INSERT
  5
1CEDB
330
1A4EE
100
AcDbEntity
  8
寸法
 62
     0
 48
50.0
370
    -2
100
AcDbBlockReference
  2
_DOTSMALL
 10
4333.101915364668
 20
9998.229530132611
 30
0.0
 41
100.0
 42
100.0
 43
100.0
 50
180.0
  0
INSERT
  5
1CEDC
330
1A4EE
100
AcDbEntity
  8
寸法
 62
     0
 48
50.0
370
    -2
100
AcDbBlockReference
  2
_DOTSMALL
 10
4223.10191536467
 20
9998.229530132611
 30
0.0
 41
100.0
 42
100.0
 43
100.0
  0
MTEXT
  5
1CEDD
330
1A4EE
100
AcDbEntity
  8
寸法
 62
     7
 48
50.0
100
AcDbMText
 10
4278.101915364669
 20
10098.22953013261
 30
0.0
 40
120.0
 41
0.0
 71
     5
 72
     1
  1
\A1;110
  7
STYLE1
 73
     1
 44
1.0
1001
ACAD
1000
MTEXTBEGIN
1070
    73
1070
     1
1070
    44
1040
1.0
1070
    74
1070
     0
1000
MTEXTEND
  0
POINT
  5
1CEDE
330
1A4EE
100
AcDbEntity
  8
DEFPOINTS
 62
     0
 48
50.0
100
AcDbPoint
 10
4333.101915364668
 20
9582.421310507561
 30
0.0
  0
POINT
  5
1CEDF
330
1A4EE
100
AcDbEntity
  8
DEFPOINTS
 62
     0
 48
50.0
100
AcDbPoint
 10
4223.10191536467
 20
9582.421310507559
 30
0.0
  0
POINT
  5
1CEE0
330
1A4EE
100
AcDbEntity
  8
DEFPOINTS
 62
     0
 48
50.0
100
AcDbPoint
 10
4223.10191536467
 20
9998.229530132611
 30
0.0
  0
ENDBLK
  5
1A4FB
330
1A4EE
100
AcDbEntity
  8
0
 48
50.0
100
AcDbBlockEnd
  0
BLOCK
  5
1A4FD
330
1A4FC
100
AcDbEntity
  8
0
 48
50.0
100
AcDbBlockBegin
  2
*D24
 70
     1
 10
0.0
 20
0.0
 30
0.0
  3
*D24
  1

  0
LINE
  5
1A7A7
330
1A4FC
100
AcDbEntity
  8
寸法
 62
     0
 48
50.0
370
    -2
100
AcDbLine
 10
4223.101915364646
 20
7772.421310507448
 30
0.0
 11
4223.101915364646
 21
7197.990539741197
 31
0.0
  0
LINE
  5
1A7A8
330
1A4FC
100
AcDbEntity
  8
寸法
 62
     0
 48
50.0
370
    -2
100
AcDbLine
 10
4175.101915364645
 20
7798.421310507362
 30
0.0
 11
4175.101915364645
 21
7197.990539741197
 31
0.0
  0
LINE
  5
1A7A9
330
1A4FC
100
AcDbEntity
  8
寸法
 62
     0
 48
50.0
370
    -2
100
AcDbLine
 10
4223.101915364646
 20
7257.990539741197
 30
0.0
 11
4323.101915364646
 21
7257.990539741197
 31
0.0
  0
LINE
  5
1A7AA
330
1A4FC
100
AcDbEntity
  8
寸法
 62
     0
 48
50.0
370
    -2
100
AcDbLine
 10
4175.101915364645
 20
7257.990539741197
 30
0.0
 11
4075.101915364644
 21
7257.990539741197
 31
0.0
  0
MTEXT
  5
1A7AB
330
1A4FC
100
AcDbEntity
  8
寸法
 62
     7
 48
50.0
100
AcDbMText
 10
4064.139017715898
 20
7357.990539741196
 30
0.0
 40
120.0
 41
0.0
 71
     5
 72
     1
  1
\A1;48
  7
STYLE1
 73
     1
 44
1.0
1001
ACAD
1000
MTEXTBEGIN
1070
    73
1070
     1
1070
    44
1040
1.0
1070
    74
1070
     0
1000
MTEXTEND
  0
LINE
  5
1A7AC
330
1A4FC
100
AcDbEntity
  8
寸法
 62
     0
 48
50.0
370
    -2
100
AcDbLine
 10
4223.101915364646
 20
7257.990539741197
 30
0.0
 11
4175.101915364645
 21
7257.990539741197
 31
0.0
  0
INSERT
  5
1A7AD
330
1A4FC
100
AcDbEntity
  8
寸法
 62
     0
 48
50.0
370
    -2
100
AcDbBlockReference
  2
_DOTSMALL
 10
4223.101915364646
 20
7257.990539741197
 30
0.0
 41
100.0
 42
100.0
 43
100.0
 50
180.0
  0
INSERT
  5
1A7AE
330
1A4FC
100
AcDbEntity
  8
寸法
 62
     0
 48
50.0
370
    -2
100
AcDbBlockReference
  2
_DOTSMALL
 10
4175.101915364645
 20
7257.990539741197
 30
0.0
 41
100.0
 42
100.0
 43
100.0
  0
POINT
  5
1A7AF
330
1A4FC
100
AcDbEntity
  8
DEFPOINTS
 62
     0
 48
50.0
100
AcDbPoint
 10
4223.101915364646
 20
7792.421310507449
 30
0.0
  0
POINT
  5
1A7B0
330
1A4FC
100
AcDbEntity
  8
DEFPOINTS
 62
     0
 48
50.0
100
AcDbPoint
 10
4175.101915364645
 20
7818.42131050736
 30
0.0
  0
POINT
  5
1A7B1
330
1A4FC
100
AcDbEntity
  8
DEFPOINTS
 62
     0
 48
50.0
100
AcDbPoint
 10
4175.101915364645
 20
7257.990539741197
 30
0.0
  0
ENDBLK
  5
1A50A
330
1A4FC
100
AcDbEntity
  8
0
 48
50.0
100
AcDbBlockEnd
  0
BLOCK
  5
1A513
330
1A512
100
AcDbEntity
  8
0
 48
50.0
100
AcDbBlockBegin
  2
*D25
 70
     1
 10
0.0
 20
0.0
 30
0.0
  3
*D25
  1

  0
LINE
  5
1A775
330
1A512
100
AcDbEntity
  8
寸法
 62
     0
 48
50.0
370
    -2
100
AcDbLine
 10
1751.101915364663
 20
7798.421310507508
 30
0.0
 11
1751.101915364663
 21
7197.990539741344
 31
0.0
  0
LINE
  5
1A776
330
1A512
100
AcDbEntity
  8
寸法
 62
     0
 48
50.0
370
    -2
100
AcDbLine
 10
4175.101915364645
 20
7257.990539741344
 30
0.0
 11
1751.101915364663
 21
7257.990539741344
 31
0.0
  0
INSERT
  5
1A777
330
1A512
100
AcDbEntity
  8
寸法
 62
     0
 48
50.0
370
    -2
100
AcDbBlockReference
  2
_DOTSMALL
 10
4175.101915364645
 20
7257.990539741344
 30
0.0
 41
100.0
 42
100.0
 43
100.0
  0
INSERT
  5
1A778
330
1A512
100
AcDbEntity
  8
寸法
 62
     0
 48
50.0
370
    -2
100
AcDbBlockReference
  2
_DOTSMALL
 10
1751.101915364663
 20
7257.990539741344
 30
0.0
 41
100.0
 42
100.0
 43
100.0
 50
180.0
  0
MTEXT
  5
1A779
330
1A512
100
AcDbEntity
  8
寸法
 62
     7
 48
50.0
100
AcDbMText
 10
2963.101915364654
 20
7358.002350764966
 30
0.0
 40
120.0
 41
0.0
 71
     5
 72
     1
  1
\A1;有効開口部間口 2424
  7
STYLE1
 73
     1
 44
1.0
1001
ACAD
1000
MTEXTBEGIN
1070
    73
1070
     1
1070
    44
1040
1.0
1070
    74
1070
     0
1000
MTEXTEND
  0
POINT
  5
1A77A
330
1A512
100
AcDbEntity
  8
DEFPOINTS
 62
     0
 48
50.0
100
AcDbPoint
 10
4175.101915364645
 20
7818.421310507509
 30
0.0
  0
POINT
  5
1A77B
330
1A512
100
AcDbEntity
  8
DEFPOINTS
 62
     0
 48
50.0
100
AcDbPoint
 10
1751.101915364663
 20
7818.421310507509
 30
0.0
  0
POINT
  5
1A77C
330
1A512
100
AcDbEntity
  8
DEFPOINTS
 62
     0
 48
50.0
100
AcDbPoint
 10
1751.101915364663
 20
7257.990539741344
 30
0.0
  0
ENDBLK
  5
1A51C
330
1A512
100
AcDbEntity
  8
0
 48
50.0
100
AcDbBlockEnd
  0
BLOCK
  5
1A51E
330
1A51D
100
AcDbEntity
  8
0
 48
50.0
100
AcDbBlockBegin
  2
*D26
 70
     1
 10
0.0
 20
0.0
 30
0.0
  3
*D26
  1

  0
LINE
  5
1CEC4
330
1A51D
100
AcDbEntity
  8
寸法
 62
     0
 48
50.0
370
    -2
100
AcDbLine
 10
1703.101915364668
 20
9602.421310507512
 30
0.0
 11
1703.101915364668
 21
10058.22953013261
 31
0.0
  0
LINE
  5
1CEC5
330
1A51D
100
AcDbEntity
  8
寸法
 62
     0
 48
50.0
370
    -2
100
AcDbLine
 10
4223.10191536467
 20
9602.421310507608
 30
0.0
 11
4223.10191536467
 21
10058.22953013261
 31
0.0
  0
LINE
  5
1CEC6
330
1A51D
100
AcDbEntity
  8
寸法
 62
     0
 48
50.0
370
    -2
100
AcDbLine
 10
1703.101915364668
 20
9998.229530132611
 30
0.0
 11
4223.10191536467
 21
9998.229530132611
 31
0.0
  0
INSERT
  5
1CEC7
330
1A51D
100
AcDbEntity
  8
寸法
 62
     0
 48
50.0
370
    -2
100
AcDbBlockReference
  2
_DOTSMALL
 10
1703.101915364668
 20
9998.229530132611
 30
0.0
 41
100.0
 42
100.0
 43
100.0
 50
180.0
  0
INSERT
  5
1CEC8
330
1A51D
100
AcDbEntity
  8
寸法
 62
     0
 48
50.0
370
    -2
100
AcDbBlockReference
  2
_DOTSMALL
 10
4223.10191536467
 20
9998.229530132611
 30
0.0
 41
100.0
 42
100.0
 43
100.0
  0
MTEXT
  5
1CEC9
330
1A51D
100
AcDbEntity
  8
寸法
 62
     7
 48
50.0
100
AcDbMText
 10
2963.101915364669
 20
10098.24134115623
 30
0.0
 40
120.0
 41
0.0
 71
     5
 72
     1
  1
\A1;6X420=2520
  7
STYLE1
 73
     1
 44
1.0
1001
ACAD
1000
MTEXTBEGIN
1070
    73
1070
     1
1070
    44
1040
1.0
1070
    74
1070
     0
1000
MTEXTEND
  0
POINT
  5
1CECA
330
1A51D
100
AcDbEntity
  8
DEFPOINTS
 62
     0
 48
50.0
100
AcDbPoint
 10
1703.101915364668
 20
9582.421310507513
 30
0.0
  0
POINT
  5
1CECB
330
1A51D
100
AcDbEntity
  8
DEFPOINTS
 62
     0
 48
50.0
100
AcDbPoint
 10
4223.10191536467
 20
9582.421310507607
 30
0.0
  0
POINT
  5
1CECC
330
1A51D
100
AcDbEntity
  8
DEFPOINTS
 62
     0
 48
50.0
100
AcDbPoint
 10
4223.10191536467
 20
9998.229530132611
 30
0.0
  0
ENDBLK
  5
1A528
330
1A51D
100
AcDbEntity
  8
0
 48
50.0
100
AcDbBlockEnd
  0
BLOCK
  5
1A540
330
1A529
100
AcDbEntity
  8
0
 48
50.0
100
AcDbBlockBegin
  2
*D27
 70
     1
 10
0.0
 20
0.0
 30
0.0
  3
*D27
  1

  0
LINE
  5
1CECD
330
1A529
100
AcDbEntity
  8
寸法
 62
     0
 48
50.0
370
    -2
100
AcDbLine
 10
1648.101915364636
 20
9602.421310507414
 30
0.0
 11
1648.101915364636
 21
10307.5510036889
 31
0.0
  0
LINE
  5
1CECE
330
1A529
100
AcDbEntity
  8
寸法
 62
     0
 48
50.0
370
    -2
100
AcDbLine
 10
4278.10191536467
 20
10178.22953013261
 30
0.0
 11
4278.10191536467
 21
10307.5510036889
 31
0.0
  0
LINE
  5
1CECF
330
1A529
100
AcDbEntity
  8
寸法
 62
     0
 48
50.0
370
    -2
100
AcDbLine
 10
1648.101915364636
 20
10247.5510036889
 30
0.0
 11
4278.10191536467
 21
10247.5510036889
 31
0.0
  0
INSERT
  5
1CED0
330
1A529
100
AcDbEntity
  8
寸法
 62
     0
 48
50.0
370
    -2
100
AcDbBlockReference
  2
_DOTSMALL
 10
1648.101915364636
 20
10247.5510036889
 30
0.0
 41
100.0
 42
100.0
 43
100.0
 50
180.0
  0
INSERT
  5
1CED1
330
1A529
100
AcDbEntity
  8
寸法
 62
     0
 48
50.0
370
    -2
100
AcDbBlockReference
  2
_DOTSMALL
 10
4278.10191536467
 20
10247.5510036889
 30
0.0
 41
100.0
 42
100.0
 43
100.0
  0
MTEXT
  5
1CED2
330
1A529
100
AcDbEntity
  8
寸法
 62
     7
 48
50.0
100
AcDbMText
 10
2963.101915364653
 20
10347.56281471252
 30
0.0
 40
120.0
 41
0.0
 71
     5
 72
     1
  1
\A1;2630
  7
STYLE1
 73
     1
 44
1.0
1001
ACAD
1000
MTEXTBEGIN
1070
    73
1070
     1
1070
    44
1040
1.0
1070
    74
1070
     0
1000
MTEXTEND
  0
POINT
  5
1CED3
330
1A529
100
AcDbEntity
  8
DEFPOINTS
 62
     0
 48
50.0
100
AcDbPoint
 10
1648.101915364636
 20
9582.421310507413
 30
0.0
  0
POINT
  5
1CED4
330
1A529
100
AcDbEntity
  8
DEFPOINTS
 62
     0
 48
50.0
100
AcDbPoint
 10
4278.10191536467
 20
10158.22953013261
 30
0.0
  0
POINT
  5
1CED5
330
1A529
100
AcDbEntity
  8
DEFPOINTS
 62
     0
 48
50.0
100
AcDbPoint
 10
4278.10191536467
 20
10247.5510036889
 30
0.0
  0
ENDBLK
  5
1A54A
330
1A529
100
AcDbEntity
  8
0
 48
50.0
100
AcDbBlockEnd
  0
BLOCK
  5
1A6BB
330
1A6BA
100
AcDbEntity
  8
0
 48
50.0
100
AcDbBlockBegin
  2
*D28
 70
     1
 10
0.0
 20
0.0
 30
0.0
  3
*D28
  1

  0
LINE
  5
1A748
330
1A6BA
100
AcDbEntity
  8
寸法
 62
     0
 48
50.0
370
    -2
100
AcDbLine
 10
9529.60191536467
 20
9547.062326658929
 30
0.0
 11
9924.959641226696
 21
9441.126543292796
 31
0.0
  0
LINE
  5
1A749
330
1A6BA
100
AcDbEntity
  8
寸法
 62
     0
 48
50.0
370
    -2
100
AcDbLine
 10
9529.60191536467
 20
9097.062326658933
 30
0.0
 11
9924.959641226696
 21
8991.126543292798
 31
0.0
  0
LINE
  5
1A74A
330
1A6BA
100
AcDbEntity
  8
寸法
 62
     0
 48
50.0
370
    -2
100
AcDbLine
 10
9864.959641226695
 20
9457.203494838664
 30
0.0
 11
9864.959641226695
 21
9007.203494838666
 31
0.0
  0
INSERT
  5
1A74B
330
1A6BA
100
AcDbEntity
  8
寸法
 62
     0
 48
50.0
370
    -2
100
AcDbBlockReference
  2
_DOTSMALL
 10
9864.959641226695
 20
9457.203494838664
 30
0.0
 41
100.0
 42
100.0
 43
100.0
 50
90.0
  0
INSERT
  5
1A74C
330
1A6BA
100
AcDbEntity
  8
寸法
 62
     0
 48
50.0
370
    -2
100
AcDbBlockReference
  2
_DOTSMALL
 10
9864.959641226695
 20
9007.203494838666
 30
0.0
 41
100.0
 42
100.0
 43
100.0
 50
270.0
  0
MTEXT
  5
1A74D
330
1A6BA
100
AcDbEntity
  8
寸法
 62
     7
 48
50.0
100
AcDbMText
 10
9764.959641226694
 20
9232.203494838666
 30
0.0
 40
120.0
 41
0.0
 71
     5
 72
     1
  1
\A1;450
  7
STYLE1
 11
0.0000000000000001
 21
1.0
 31
0.0
 73
     1
 44
1.0
1001
ACAD
1000
MTEXTBEGIN
1070
    73
1070
     1
1070
    44
1040
1.0
1070
    74
1070
     0
1000
MTEXTEND
  0
POINT
  5
1A74E
330
1A6BA
100
AcDbEntity
  8
DEFPOINTS
 62
     0
 48
50.0
100
AcDbPoint
 10
9509.601915364671
 20
9552.421310507552
 30
0.0
  0
POINT
  5
1A74F
330
1A6BA
100
AcDbEntity
  8
DEFPOINTS
 62
     0
 48
50.0
100
AcDbPoint
 10
9509.601915364671
 20
9102.421310507557
 30
0.0
  0
POINT
  5
1A750
330
1A6BA
100
AcDbEntity
  8
DEFPOINTS
 62
     0
 48
50.0
100
AcDbPoint
 10
9864.959641226695
 20
9007.203494838666
 30
0.0
  0
ENDBLK
  5
1A6C5
330
1A6BA
100
AcDbEntity
  8
0
 48
50.0
100
AcDbBlockEnd
  0
BLOCK
  5
1B498
330
1B48C
100
AcDbEntity
  8
0
 48
50.0
100
AcDbBlockBegin
  2
*D29
 70
     1
 10
0.0
 20
0.0
 30
0.0
  3
*D29
  1

  0
LINE
  5
1B786
330
1B48C
100
AcDbEntity
  8
寸法
 62
     0
 48
50.0
370
    -2
100
AcDbLine
 10
11827.99832401118
 20
2765.647647060913
 30
0.0
 11
10944.24819482792
 21
2765.647647060913
 31
0.0
  0
LINE
  5
1B787
330
1B48C
100
AcDbEntity
  8
寸法
 62
     0
 48
50.0
370
    -2
100
AcDbLine
 10
11772.99832401118
 20
2715.647647060912
 30
0.0
 11
10944.24819482792
 21
2715.647647060913
 31
0.0
  0
LINE
  5
1B788
330
1B48C
100
AcDbEntity
  8
寸法
 62
     0
 48
50.0
370
    -2
100
AcDbLine
 10
11004.24819482792
 20
2765.647647060913
 30
0.0
 11
11004.24819482792
 21
2865.647647060913
 31
0.0
  0
LINE
  5
1B789
330
1B48C
100
AcDbEntity
  8
寸法
 62
     0
 48
50.0
370
    -2
100
AcDbLine
 10
11004.24819482792
 20
2715.647647060913
 30
0.0
 11
11004.24819482792
 21
2303.553158871932
 31
0.0
  0
LINE
  5
1B78A
330
1B48C
100
AcDbEntity
  8
寸法
 62
     0
 48
50.0
370
    -2
100
AcDbLine
 10
11004.24819482792
 20
2765.647647060913
 30
0.0
 11
11004.24819482792
 21
2715.647647060913
 31
0.0
  0
INSERT
  5
1B78B
330
1B48C
100
AcDbEntity
  8
寸法
 62
     0
 48
50.0
370
    -2
100
AcDbBlockReference
  2
_DOTSMALL
 10
11004.24819482792
 20
2765.647647060913
 30
0.0
 41
100.0
 42
100.0
 43
100.0
 50
270.0
  0
INSERT
  5
1B78C
330
1B48C
100
AcDbEntity
  8
寸法
 62
     0
 48
50.0
370
    -2
100
AcDbBlockReference
  2
_DOTSMALL
 10
11004.24819482792
 20
2715.647647060913
 30
0.0
 41
100.0
 42
100.0
 43
100.0
 50
90.0
  0
MTEXT
  5
1B78D
330
1B48C
100
AcDbEntity
  8
寸法
 62
     7
 48
50.0
100
AcDbMText
 10
10904.24819482792
 20
2409.600402966422
 30
0.0
 40
120.0
 41
0.0
 71
     5
 72
     1
  1
\A1;50
  7
STYLE1
 11
0.0000000000000001
 21
1.0
 31
0.0
 73
     1
 44
1.0
1001
ACAD
1000
MTEXTBEGIN
1070
    73
1070
     1
1070
    44
1040
1.0
1070
    74
1070
     0
1000
MTEXTEND
  0
POINT
  5
1B78E
330
1B48C
100
AcDbEntity
  8
DEFPOINTS
 62
     0
 48
50.0
100
AcDbPoint
 10
11847.99832401118
 20
2765.647647060913
 30
0.0
  0
POINT
  5
1B78F
330
1B48C
100
AcDbEntity
  8
DEFPOINTS
 62
     0
 48
50.0
100
AcDbPoint
 10
11792.99832401118
 20
2715.647647060912
 30
0.0
  0
POINT
  5
1B790
330
1B48C
100
AcDbEntity
  8
DEFPOINTS
 62
     0
 48
50.0
100
AcDbPoint
 10
11004.24819482792
 20
2715.647647060913
 30
0.0
  0
ENDBLK
  5
1B499
330
1B48C
100
AcDbEntity
  8
0
 48
50.0
100
AcDbBlockEnd
  0
BLOCK
  5
1B4A4
330
1B49A
100
AcDbEntity
  8
0
 48
50.0
100
AcDbBlockBegin
  2
*D30
 70
     1
 10
0.0
 20
0.0
 30
0.0
  3
*D30
  1

  0
LINE
  5
1D682
330
1B49A
100
AcDbEntity
  8
寸法
 62
     0
 48
50.0
370
    -2
100
AcDbLine
 10
13637.99832401118
 20
5057.458326672566
 30
0.0
 11
13637.99832401118
 21
5549.740816400386
 31
0.0
  0
LINE
  5
1D683
330
1B49A
100
AcDbEntity
  8
寸法
 62
     0
 48
50.0
370
    -2
100
AcDbLine
 10
11847.99832401118
 20
5106.649265183889
 30
0.0
 11
11847.99832401118
 21
5549.740816400386
 31
0.0
  0
LINE
  5
1D684
330
1B49A
100
AcDbEntity
  8
寸法
 62
     0
 48
50.0
370
    -2
100
AcDbLine
 10
13637.99832401118
 20
5489.740816400385
 30
0.0
 11
11847.99832401118
 21
5489.740816400385
 31
0.0
  0
INSERT
  5
1D685
330
1B49A
100
AcDbEntity
  8
寸法
 62
     0
 48
50.0
370
    -2
100
AcDbBlockReference
  2
_DOTSMALL
 10
13637.99832401118
 20
5489.740816400385
 30
0.0
 41
100.0
 42
100.0
 43
100.0
  0
INSERT
  5
1D686
330
1B49A
100
AcDbEntity
  8
寸法
 62
     0
 48
50.0
370
    -2
100
AcDbBlockReference
  2
_DOTSMALL
 10
11847.99832401118
 20
5489.740816400385
 30
0.0
 41
100.0
 42
100.0
 43
100.0
 50
180.0
  0
MTEXT
  5
1D687
330
1B49A
100
AcDbEntity
  8
寸法
 62
     7
 48
50.0
100
AcDbMText
 10
12742.99832401118
 20
5589.740816400386
 30
0.0
 40
120.0
 41
0.0
 71
     5
 72
     1
  1
\A1;柱外寸法1790
  7
STYLE1
 73
     1
 44
1.0
1001
ACAD
1000
MTEXTBEGIN
1070
    73
1070
     1
1070
    44
1040
1.0
1070
    74
1070
     0
1000
MTEXTEND
  0
POINT
  5
1D688
330
1B49A
100
AcDbEntity
  8
DEFPOINTS
 62
     0
 48
50.0
100
AcDbPoint
 10
13637.99832401118
 20
5037.458326672566
 30
0.0
  0
POINT
  5
1D689
330
1B49A
100
AcDbEntity
  8
DEFPOINTS
 62
     0
 48
50.0
100
AcDbPoint
 10
11847.99832401118
 20
5086.649265183889
 30
0.0
  0
POINT
  5
1D68A
330
1B49A
100
AcDbEntity
  8
DEFPOINTS
 62
     0
 48
50.0
100
AcDbPoint
 10
11847.99832401118
 20
5489.740816400385
 30
0.0
  0
ENDBLK
  5
1B4A5
330
1B49A
100
AcDbEntity
  8
0
 48
50.0
100
AcDbBlockEnd
  0
BLOCK
  5
1B4B2
330
1B4A6
100
AcDbEntity
  8
0
 48
50.0
100
AcDbBlockBegin
  2
*D31
 70
     1
 10
0.0
 20
0.0
 30
0.0
  3
*D31
  1

  0
LINE
  5
1B772
330
1B4A6
100
AcDbEntity
  8
寸法
 62
     0
 48
50.0
370
    -2
100
AcDbLine
 10
11847.99832401118
 20
5106.649265183889
 30
0.0
 11
11847.99832401118
 21
5549.740816400386
 31
0.0
  0
LINE
  5
1B773
330
1B4A6
100
AcDbEntity
  8
寸法
 62
     0
 48
50.0
370
    -2
100
AcDbLine
 10
11787.99832401118
 20
5110.647647060917
 30
0.0
 11
11787.99832401118
 21
5549.740816400386
 31
0.0
  0
LINE
  5
1B774
330
1B4A6
100
AcDbEntity
  8
寸法
 62
     0
 48
50.0
370
    -2
100
AcDbLine
 10
11847.99832401118
 20
5489.740816400385
 30
0.0
 11
11947.99832401118
 21
5489.740816400385
 31
0.0
  0
LINE
  5
1B775
330
1B4A6
100
AcDbEntity
  8
寸法
 62
     0
 48
50.0
370
    -2
100
AcDbLine
 10
11787.99832401118
 20
5489.740816400385
 30
0.0
 11
11368.72273346
 21
5489.740816400385
 31
0.0
  0
LINE
  5
1B776
330
1B4A6
100
AcDbEntity
  8
寸法
 62
     0
 48
50.0
370
    -2
100
AcDbLine
 10
11847.99832401118
 20
5489.740816400385
 30
0.0
 11
11787.99832401118
 21
5489.740816400385
 31
0.0
  0
INSERT
  5
1B777
330
1B4A6
100
AcDbEntity
  8
寸法
 62
     0
 48
50.0
370
    -2
100
AcDbBlockReference
  2
_DOTSMALL
 10
11847.99832401118
 20
5489.740816400385
 30
0.0
 41
100.0
 42
100.0
 43
100.0
 50
180.0
  0
INSERT
  5
1B778
330
1B4A6
100
AcDbEntity
  8
寸法
 62
     0
 48
50.0
370
    -2
100
AcDbBlockReference
  2
_DOTSMALL
 10
11787.99832401118
 20
5489.740816400385
 30
0.0
 41
100.0
 42
100.0
 43
100.0
  0
MTEXT
  5
1B779
330
1B4A6
100
AcDbEntity
  8
寸法
 62
     7
 48
50.0
100
AcDbMText
 10
11478.36052873559
 20
5589.740816400386
 30
0.0
 40
120.0
 41
0.0
 71
     5
 72
     1
  1
\A1;60
  7
STYLE1
 73
     1
 44
1.0
1001
ACAD
1000
MTEXTBEGIN
1070
    73
1070
     1
1070
    44
1040
1.0
1070
    74
1070
     0
1000
MTEXTEND
  0
POINT
  5
1B77A
330
1B4A6
100
AcDbEntity
  8
DEFPOINTS
 62
     0
 48
50.0
100
AcDbPoint
 10
11847.99832401118
 20
5086.649265183889
 30
0.0
  0
POINT
  5
1B77B
330
1B4A6
100
AcDbEntity
  8
DEFPOINTS
 62
     0
 48
50.0
100
AcDbPoint
 10
11787.99832401118
 20
5090.647647060917
 30
0.0
  0
POINT
  5
1B77C
330
1B4A6
100
AcDbEntity
  8
DEFPOINTS
 62
     0
 48
50.0
100
AcDbPoint
 10
11787.99832401118
 20
5489.740816400385
 30
0.0
  0
ENDBLK
  5
1B4B3
330
1B4A6
100
AcDbEntity
  8
0
 48
50.0
100
AcDbBlockEnd
  0
BLOCK
  5
1B4BE
330
1B4B4
100
AcDbEntity
  8
0
 48
50.0
100
AcDbBlockBegin
  2
*D32
 70
     1
 10
0.0
 20
0.0
 30
0.0
  3
*D32
  1

  0
LINE
  5
1D679
330
1B4B4
100
AcDbEntity
  8
寸法
 62
     0
 48
50.0
370
    -2
100
AcDbLine
 10
13717.99832401118
 20
5055.647647060913
 30
0.0
 11
13717.99832401118
 21
5766.266916018831
 31
0.0
  0
LINE
  5
1D67A
330
1B4B4
100
AcDbEntity
  8
寸法
 62
     0
 48
50.0
370
    -2
100
AcDbLine
 10
11787.99832401118
 20
5110.647647060917
 30
0.0
 11
11787.99832401118
 21
5766.266916018831
 31
0.0
  0
LINE
  5
1D67B
330
1B4B4
100
AcDbEntity
  8
寸法
 62
     0
 48
50.0
370
    -2
100
AcDbLine
 10
13717.99832401118
 20
5706.26691601883
 30
0.0
 11
11787.99832401118
 21
5706.26691601883
 31
0.0
  0
INSERT
  5
1D67C
330
1B4B4
100
AcDbEntity
  8
寸法
 62
     0
 48
50.0
370
    -2
100
AcDbBlockReference
  2
_DOTSMALL
 10
13717.99832401118
 20
5706.26691601883
 30
0.0
 41
100.0
 42
100.0
 43
100.0
  0
INSERT
  5
1D67D
330
1B4B4
100
AcDbEntity
  8
寸法
 62
     0
 48
50.0
370
    -2
100
AcDbBlockReference
  2
_DOTSMALL
 10
11787.99832401118
 20
5706.26691601883
 30
0.0
 41
100.0
 42
100.0
 43
100.0
 50
180.0
  0
MTEXT
  5
1D67E
330
1B4B4
100
AcDbEntity
  8
寸法
 62
     7
 48
50.0
100
AcDbMText
 10
12752.99832401118
 20
5806.266916018831
 30
0.0
 40
120.0
 41
0.0
 71
     5
 72
     1
  1
\A1;1930
  7
STYLE1
 73
     1
 44
1.0
1001
ACAD
1000
MTEXTBEGIN
1070
    73
1070
     1
1070
    44
1040
1.0
1070
    74
1070
     0
1000
MTEXTEND
  0
POINT
  5
1D67F
330
1B4B4
100
AcDbEntity
  8
DEFPOINTS
 62
     0
 48
50.0
100
AcDbPoint
 10
13717.99832401118
 20
5035.647647060913
 30
0.0
  0
POINT
  5
1D680
330
1B4B4
100
AcDbEntity
  8
DEFPOINTS
 62
     0
 48
50.0
100
AcDbPoint
 10
11787.99832401118
 20
5090.647647060917
 30
0.0
  0
POINT
  5
1D681
330
1B4B4
100
AcDbEntity
  8
DEFPOINTS
 62
     0
 48
50.0
100
AcDbPoint
 10
11787.99832401118
 20
5706.26691601883
 30
0.0
  0
ENDBLK
  5
1B4BF
330
1B4B4
100
AcDbEntity
  8
0
 48
50.0
100
AcDbBlockEnd
  0
BLOCK
  5
1B4CB
330
1B4C0
100
AcDbEntity
  8
0
 48
50.0
100
AcDbBlockBegin
  2
*D33
 70
     1
 10
0.0
 20
0.0
 30
0.0
  3
*D33
  1

  0
LINE
  5
1B75F
330
1B4C0
100
AcDbEntity
  8
寸法
 62
     0
 48
50.0
370
    -2
100
AcDbLine
 10
13637.99832401118
 20
5057.458326672566
 30
0.0
 11
13637.99832401118
 21
5549.740816400386
 31
0.0
  0
LINE
  5
1B760
330
1B4C0
100
AcDbEntity
  8
寸法
 62
     0
 48
50.0
370
    -2
100
AcDbLine
 10
13717.99832401118
 20
5055.647647060913
 30
0.0
 11
13717.99832401118
 21
5549.740816400386
 31
0.0
  0
LINE
  5
1B761
330
1B4C0
100
AcDbEntity
  8
寸法
 62
     0
 48
50.0
370
    -2
100
AcDbLine
 10
13637.99832401118
 20
5489.740816400385
 30
0.0
 11
13717.99832401118
 21
5489.740816400385
 31
0.0
  0
LINE
  5
1B762
330
1B4C0
100
AcDbEntity
  8
寸法
 62
     0
 48
50.0
370
    -2
100
AcDbLine
 10
13717.99832401118
 20
5489.740816400385
 30
0.0
 11
14030.09281220016
 21
5489.740816400385
 31
0.0
  0
INSERT
  5
1B763
330
1B4C0
100
AcDbEntity
  8
寸法
 62
     0
 48
50.0
370
    -2
100
AcDbBlockReference
  2
_DOTSMALL
 10
13637.99832401118
 20
5489.740816400385
 30
0.0
 41
100.0
 42
100.0
 43
100.0
 50
180.0
  0
INSERT
  5
1B764
330
1B4C0
100
AcDbEntity
  8
寸法
 62
     0
 48
50.0
370
    -2
100
AcDbBlockReference
  2
_DOTSMALL
 10
13717.99832401118
 20
5489.740816400385
 30
0.0
 41
100.0
 42
100.0
 43
100.0
  0
MTEXT
  5
1B765
330
1B4C0
100
AcDbEntity
  8
寸法
 62
     7
 48
50.0
100
AcDbMText
 10
13924.04556810567
 20
5589.740816400386
 30
0.0
 40
120.0
 41
0.0
 71
     5
 72
     1
  1
\A1;80
  7
STYLE1
 73
     1
 44
1.0
1001
ACAD
1000
MTEXTBEGIN
1070
    73
1070
     1
1070
    44
1040
1.0
1070
    74
1070
     0
1000
MTEXTEND
  0
POINT
  5
1B766
330
1B4C0
100
AcDbEntity
  8
DEFPOINTS
 62
     0
 48
50.0
100
AcDbPoint
 10
13637.99832401118
 20
5037.458326672566
 30
0.0
  0
POINT
  5
1B767
330
1B4C0
100
AcDbEntity
  8
DEFPOINTS
 62
     0
 48
50.0
100
AcDbPoint
 10
13717.99832401118
 20
5035.647647060913
 30
0.0
  0
POINT
  5
1B768
330
1B4C0
100
AcDbEntity
  8
DEFPOINTS
 62
     0
 48
50.0
100
AcDbPoint
 10
13717.99832401118
 20
5489.740816400385
 30
0.0
  0
ENDBLK
  5
1B4CC
330
1B4C0
100
AcDbEntity
  8
0
 48
50.0
100
AcDbBlockEnd
  0
BLOCK
  5
1B4D8
330
1B4CD
100
AcDbEntity
  8
0
 48
50.0
100
AcDbBlockBegin
  2
*D34
 70
     1
 10
0.0
 20
0.0
 30
0.0
  3
*D34
  1

  0
LINE
  5
1B755
330
1B4CD
100
AcDbEntity
  8
寸法
 62
     0
 48
50.0
370
    -2
100
AcDbLine
 10
11787.40261030228
 20
5089.945354130573
 30
0.0
 11
11171.46817119702
 21
5107.659504404894
 31
0.0
  0
LINE
  5
1B756
330
1B4CD
100
AcDbEntity
  8
寸法
 62
     0
 48
50.0
370
    -2
100
AcDbLine
 10
11783.34915474566
 20
4949.00363036486
 30
0.0
 11
11167.4147156404
 21
4966.717780639182
 31
0.0
  0
LINE
  5
1B757
330
1B4CD
100
AcDbEntity
  8
寸法
 62
     0
 48
50.0
370
    -2
100
AcDbLine
 10
11227.38991724283
 20
4964.992905934234
 30
0.0
 11
11231.44337279945
 21
5105.934629699948
 31
0.0
  0
LINE
  5
1B758
330
1B4CD
100
AcDbEntity
  8
寸法
 62
     0
 48
50.0
370
    -2
100
AcDbLine
 10
11231.44337279945
 20
5105.934629699948
 30
0.0
 11
11241.79262102913
 21
5465.785839314539
 31
0.0
  0
INSERT
  5
1B759
330
1B4CD
100
AcDbEntity
  8
寸法
 62
     0
 48
50.0
370
    -2
100
AcDbBlockReference
  2
_DOTSMALL
 10
11227.38991724283
 20
4964.992905934234
 30
0.0
 41
100.0
 42
100.0
 43
100.0
 50
268.3526390256385
  0
INSERT
  5
1B75A
330
1B4CD
100
AcDbEntity
  8
寸法
 62
     0
 48
50.0
370
    -2
100
AcDbBlockReference
  2
_DOTSMALL
 10
11231.44337279945
 20
5105.934629699948
 30
0.0
 41
100.0
 42
100.0
 43
100.0
 50
88.35263902563855
  0
MTEXT
  5
1B75B
330
1B4CD
100
AcDbEntity
  8
寸法
 62
     7
 48
50.0
100
AcDbMText
 10
11138.09672316437
 20
5338.71436035085
 30
0.0
 40
120.0
 41
0.0
 71
     5
 72
     1
  1
\A1;141
  7
STYLE1
 11
0.0287479117491103
 21
0.999586693373849
 31
0.0
 73
     1
 44
1.0
1001
ACAD
1000
MTEXTBEGIN
1070
    73
1070
     1
1070
    44
1040
1.0
1070
    74
1070
     0
1000
MTEXTEND
  0
POINT
  5
1B75C
330
1B4CD
100
AcDbEntity
  8
DEFPOINTS
 62
     0
 48
50.0
100
AcDbPoint
 10
11807.39434416976
 20
5089.370395895591
 30
0.0
  0
POINT
  5
1B75D
330
1B4CD
100
AcDbEntity
  8
DEFPOINTS
 62
     0
 48
50.0
100
AcDbPoint
 10
11803.34088861313
 20
4948.428672129878
 30
0.0
  0
POINT
  5
1B75E
330
1B4CD
100
AcDbEntity
  8
DEFPOINTS
 62
     0
 48
50.0
100
AcDbPoint
 10
11227.38991724283
 20
4964.992905934234
 30
0.0
  0
ENDBLK
  5
1B4D9
330
1B4CD
100
AcDbEntity
  8
0
 48
50.0
100
AcDbBlockEnd
  0
BLOCK
  5
1B4E4
330
1B4DA
100
AcDbEntity
  8
0
 48
50.0
100
AcDbBlockBegin
  2
*D35
 70
     1
 10
0.0
 20
0.0
 30
0.0
  3
*D35
  1

  0
LINE
  5
1B74C
330
1B4DA
100
AcDbEntity
  8
寸法
 62
     0
 48
50.0
370
    -2
100
AcDbLine
 10
11827.99832401118
 20
2715.64764706091
 30
0.0
 11
10644.24819482792
 21
2715.64764706091
 31
0.0
  0
LINE
  5
1B74D
330
1B4DA
100
AcDbEntity
  8
寸法
 62
     0
 48
50.0
370
    -2
100
AcDbLine
 10
11767.99832401118
 20
5090.647647060914
 30
0.0
 11
10644.24819482792
 21
5090.647647060914
 31
0.0
  0
LINE
  5
1B74E
330
1B4DA
100
AcDbEntity
  8
寸法
 62
     0
 48
50.0
370
    -2
100
AcDbLine
 10
10704.24819482792
 20
2715.64764706091
 30
0.0
 11
10704.24819482792
 21
5090.647647060914
 31
0.0
  0
INSERT
  5
1B74F
330
1B4DA
100
AcDbEntity
  8
寸法
 62
     0
 48
50.0
370
    -2
100
AcDbBlockReference
  2
_DOTSMALL
 10
10704.24819482792
 20
2715.64764706091
 30
0.0
 41
100.0
 42
100.0
 43
100.0
 50
270.0
  0
INSERT
  5
1B750
330
1B4DA
100
AcDbEntity
  8
寸法
 62
     0
 48
50.0
370
    -2
100
AcDbBlockReference
  2
_DOTSMALL
 10
10704.24819482792
 20
5090.647647060914
 30
0.0
 41
100.0
 42
100.0
 43
100.0
 50
90.0
  0
MTEXT
  5
1B751
330
1B4DA
100
AcDbEntity
  8
寸法
 62
     7
 48
50.0
100
AcDbMText
 10
10604.2363838043
 20
3903.147647060914
 30
0.0
 40
120.0
 41
0.0
 71
     5
 72
     1
  1
\A1;2375
  7
STYLE1
 11
0.0000000000000001
 21
1.0
 31
0.0
 73
     1
 44
1.0
1001
ACAD
1000
MTEXTBEGIN
1070
    73
1070
     1
1070
    44
1040
1.0
1070
    74
1070
     0
1000
MTEXTEND
  0
POINT
  5
1B752
330
1B4DA
100
AcDbEntity
  8
DEFPOINTS
 62
     0
 48
50.0
100
AcDbPoint
 10
11847.99832401118
 20
2715.64764706091
 30
0.0
  0
POINT
  5
1B753
330
1B4DA
100
AcDbEntity
  8
DEFPOINTS
 62
     0
 48
50.0
100
AcDbPoint
 10
11787.99832401118
 20
5090.647647060914
 30
0.0
  0
POINT
  5
1B754
330
1B4DA
100
AcDbEntity
  8
DEFPOINTS
 62
     0
 48
50.0
100
AcDbPoint
 10
10704.24819482792
 20
5090.647647060914
 30
0.0
  0
ENDBLK
  5
1B4E5
330
1B4DA
100
AcDbEntity
  8
0
 48
50.0
100
AcDbBlockEnd
  0
BLOCK
  5
1B4F0
330
1B4E6
100
AcDbEntity
  8
0
 48
50.0
100
AcDbBlockBegin
  2
*D36
 70
     1
 10
0.0
 20
0.0
 30
0.0
  3
*D36
  1

  0
LINE
  5
1B743
330
1B4E6
100
AcDbEntity
  8
寸法
 62
     0
 48
50.0
370
    -2
100
AcDbLine
 10
11827.99832401118
 20
4855.64764706091
 30
0.0
 11
10944.24819482792
 21
4855.64764706091
 31
0.0
  0
LINE
  5
1B744
330
1B4E6
100
AcDbEntity
  8
寸法
 62
     0
 48
50.0
370
    -2
100
AcDbLine
 10
11827.99832401118
 20
2765.64764706091
 30
0.0
 11
10944.24819482792
 21
2765.64764706091
 31
0.0
  0
LINE
  5
1B745
330
1B4E6
100
AcDbEntity
  8
寸法
 62
     0
 48
50.0
370
    -2
100
AcDbLine
 10
11004.24819482792
 20
4855.64764706091
 30
0.0
 11
11004.24819482792
 21
2765.64764706091
 31
0.0
  0
INSERT
  5
1B746
330
1B4E6
100
AcDbEntity
  8
寸法
 62
     0
 48
50.0
370
    -2
100
AcDbBlockReference
  2
_DOTSMALL
 10
11004.24819482792
 20
4855.64764706091
 30
0.0
 41
100.0
 42
100.0
 43
100.0
 50
90.0
  0
INSERT
  5
1B747
330
1B4E6
100
AcDbEntity
  8
寸法
 62
     0
 48
50.0
370
    -2
100
AcDbBlockReference
  2
_DOTSMALL
 10
11004.24819482792
 20
2765.64764706091
 30
0.0
 41
100.0
 42
100.0
 43
100.0
 50
270.0
  0
MTEXT
  5
1B748
330
1B4E6
100
AcDbEntity
  8
寸法
 62
     7
 48
50.0
100
AcDbMText
 10
10904.2363838043
 20
3810.647647060913
 30
0.0
 40
120.0
 41
0.0
 71
     5
 72
     1
  1
\A1;2090
  7
STYLE1
 11
0.0000000000000001
 21
1.0
 31
0.0
 73
     1
 44
1.0
1001
ACAD
1000
MTEXTBEGIN
1070
    73
1070
     1
1070
    44
1040
1.0
1070
    74
1070
     0
1000
MTEXTEND
  0
POINT
  5
1B749
330
1B4E6
100
AcDbEntity
  8
DEFPOINTS
 62
     0
 48
50.0
100
AcDbPoint
 10
11847.99832401118
 20
4855.64764706091
 30
0.0
  0
POINT
  5
1B74A
330
1B4E6
100
AcDbEntity
  8
DEFPOINTS
 62
     0
 48
50.0
100
AcDbPoint
 10
11847.99832401118
 20
2765.64764706091
 30
0.0
  0
POINT
  5
1B74B
330
1B4E6
100
AcDbEntity
  8
DEFPOINTS
 62
     0
 48
50.0
100
AcDbPoint
 10
11004.24819482792
 20
2765.64764706091
 30
0.0
  0
ENDBLK
  5
1B4F1
330
1B4E6
100
AcDbEntity
  8
0
 48
50.0
100
AcDbBlockEnd
  0
BLOCK
  5
1B4FC
330
1B4F2
100
AcDbEntity
  8
0
 48
50.0
100
AcDbBlockBegin
  2
*D37
 70
     1
 10
0.0
 20
0.0
 30
0.0
  3
*D37
  1

  0
LINE
  5
1B73A
330
1B4F2
100
AcDbEntity
  8
寸法
 62
     0
 48
50.0
370
    -2
100
AcDbLine
 10
13657.99832401118
 20
2715.647647060912
 30
0.0
 11
14402.92548198331
 21
2715.647647060912
 31
0.0
  0
LINE
  5
1B73B
330
1B4F2
100
AcDbEntity
  8
寸法
 62
     0
 48
50.0
370
    -2
100
AcDbLine
 10
13737.99832401118
 20
5035.647647060912
 30
0.0
 11
14402.92548198331
 21
5035.647647060912
 31
0.0
  0
LINE
  5
1B73C
330
1B4F2
100
AcDbEntity
  8
寸法
 62
     0
 48
50.0
370
    -2
100
AcDbLine
 10
14342.92548198331
 20
2715.647647060912
 30
0.0
 11
14342.92548198331
 21
5035.647647060912
 31
0.0
  0
INSERT
  5
1B73D
330
1B4F2
100
AcDbEntity
  8
寸法
 62
     0
 48
50.0
370
    -2
100
AcDbBlockReference
  2
_DOTSMALL
 10
14342.92548198331
 20
2715.647647060912
 30
0.0
 41
100.0
 42
100.0
 43
100.0
 50
270.0
  0
INSERT
  5
1B73E
330
1B4F2
100
AcDbEntity
  8
寸法
 62
     0
 48
50.0
370
    -2
100
AcDbBlockReference
  2
_DOTSMALL
 10
14342.92548198331
 20
5035.647647060912
 30
0.0
 41
100.0
 42
100.0
 43
100.0
 50
90.0
  0
MTEXT
  5
1B73F
330
1B4F2
100
AcDbEntity
  8
寸法
 62
     7
 48
50.0
100
AcDbMText
 10
14242.91367095969
 20
3875.647647060914
 30
0.0
 40
120.0
 41
0.0
 71
     5
 72
     1
  1
\A1;2320
  7
STYLE1
 11
0.0000000000000001
 21
1.0
 31
0.0
 73
     1
 44
1.0
1001
ACAD
1000
MTEXTBEGIN
1070
    73
1070
     1
1070
    44
1040
1.0
1070
    74
1070
     0
1000
MTEXTEND
  0
POINT
  5
1B740
330
1B4F2
100
AcDbEntity
  8
DEFPOINTS
 62
     0
 48
50.0
100
AcDbPoint
 10
13637.99832401118
 20
2715.647647060912
 30
0.0
  0
POINT
  5
1B741
330
1B4F2
100
AcDbEntity
  8
DEFPOINTS
 62
     0
 48
50.0
100
AcDbPoint
 10
13717.99832401118
 20
5035.647647060912
 30
0.0
  0
POINT
  5
1B742
330
1B4F2
100
AcDbEntity
  8
DEFPOINTS
 62
     0
 48
50.0
100
AcDbPoint
 10
14342.92548198331
 20
5035.647647060912
 30
0.0
  0
ENDBLK
  5
1B4FD
330
1B4F2
100
AcDbEntity
  8
0
 48
50.0
100
AcDbBlockEnd
  0
BLOCK
  5
1C73E
330
1C732
100
AcDbEntity
  8
0
 48
50.0
100
AcDbBlockBegin
  2
*D38
 70
     1
 10
0.0
 20
0.0
 30
0.0
  3
*D38
  1

  0
LINE
  5
1C7B1
330
1C732
100
AcDbEntity
  8
寸法
 62
     0
 48
50.0
370
    -2
100
AcDbLine
 10
1648.101915364652
 20
5110.647647060917
 30
0.0
 11
1648.101915364652
 21
5549.740816400383
 31
0.0
  0
LINE
  5
1C7B2
330
1C732
100
AcDbEntity
  8
寸法
 62
     0
 48
50.0
370
    -2
100
AcDbLine
 10
1598.101915364652
 20
5110.647647060915
 30
0.0
 11
1598.101915364652
 21
5549.740816400383
 31
0.0
  0
LINE
  5
1C7B3
330
1C732
100
AcDbEntity
  8
寸法
 62
     0
 48
50.0
370
    -2
100
AcDbLine
 10
1648.101915364652
 20
5489.740816400384
 30
0.0
 11
1748.101915364652
 21
5489.740816400384
 31
0.0
  0
LINE
  5
1C7B4
330
1C732
100
AcDbEntity
  8
寸法
 62
     0
 48
50.0
370
    -2
100
AcDbLine
 10
1598.101915364652
 20
5489.740816400384
 30
0.0
 11
1178.569389895916
 21
5489.740816400384
 31
0.0
  0
LINE
  5
1C7B5
330
1C732
100
AcDbEntity
  8
寸法
 62
     0
 48
50.0
370
    -2
100
AcDbLine
 10
1648.101915364652
 20
5489.740816400384
 30
0.0
 11
1598.101915364652
 21
5489.740816400384
 31
0.0
  0
INSERT
  5
1C7B6
330
1C732
100
AcDbEntity
  8
寸法
 62
     0
 48
50.0
370
    -2
100
AcDbBlockReference
  2
_DOTSMALL
 10
1648.101915364652
 20
5489.740816400384
 30
0.0
 41
100.0
 42
100.0
 43
100.0
 50
180.0
  0
INSERT
  5
1C7B7
330
1C732
100
AcDbEntity
  8
寸法
 62
     0
 48
50.0
370
    -2
100
AcDbBlockReference
  2
_DOTSMALL
 10
1598.101915364652
 20
5489.740816400384
 30
0.0
 41
100.0
 42
100.0
 43
100.0
  0
MTEXT
  5
1C7B8
330
1C732
100
AcDbEntity
  8
寸法
 62
     7
 48
50.0
100
AcDbMText
 10
1284.616633990405
 20
5589.740816400383
 30
0.0
 40
120.0
 41
0.0
 71
     5
 72
     1
  1
\A1;50
  7
STYLE1
 73
     1
 44
1.0
1001
ACAD
1000
MTEXTBEGIN
1070
    73
1070
     1
1070
    44
1040
1.0
1070
    74
1070
     0
1000
MTEXTEND
  0
POINT
  5
1C7B9
330
1C732
100
AcDbEntity
  8
DEFPOINTS
 62
     0
 48
50.0
100
AcDbPoint
 10
1648.101915364652
 20
5090.647647060917
 30
0.0
  0
POINT
  5
1C7BA
330
1C732
100
AcDbEntity
  8
DEFPOINTS
 62
     0
 48
50.0
100
AcDbPoint
 10
1598.101915364652
 20
5090.647647060915
 30
0.0
  0
POINT
  5
1C7BB
330
1C732
100
AcDbEntity
  8
DEFPOINTS
 62
     0
 48
50.0
100
AcDbPoint
 10
1598.101915364652
 20
5489.740816400384
 30
0.0
  0
ENDBLK
  5
1C73F
330
1C732
100
AcDbEntity
  8
0
 48
50.0
100
AcDbBlockEnd
  0
BLOCK
  5
1C74A
330
1C740
100
AcDbEntity
  8
0
 48
50.0
100
AcDbBlockBegin
  2
*D39
 70
     1
 10
0.0
 20
0.0
 30
0.0
  3
*D39
  1

  0
LINE
  5
1C7BC
330
1C740
100
AcDbEntity
  8
寸法
 62
     0
 48
50.0
370
    -2
100
AcDbLine
 10
9538.101915364645
 20
5110.647647060915
 30
0.0
 11
9538.101915364645
 21
5549.740816400383
 31
0.0
  0
LINE
  5
1C7BD
330
1C740
100
AcDbEntity
  8
寸法
 62
     0
 48
50.0
370
    -2
100
AcDbLine
 10
1648.101915364652
 20
5110.647647060917
 30
0.0
 11
1648.101915364652
 21
5549.740816400383
 31
0.0
  0
LINE
  5
1C7BE
330
1C740
100
AcDbEntity
  8
寸法
 62
     0
 48
50.0
370
    -2
100
AcDbLine
 10
9538.101915364645
 20
5489.740816400384
 30
0.0
 11
1648.101915364652
 21
5489.740816400384
 31
0.0
  0
INSERT
  5
1C7BF
330
1C740
100
AcDbEntity
  8
寸法
 62
     0
 48
50.0
370
    -2
100
AcDbBlockReference
  2
_DOTSMALL
 10
9538.101915364645
 20
5489.740816400384
 30
0.0
 41
100.0
 42
100.0
 43
100.0
  0
INSERT
  5
1C7C0
330
1C740
100
AcDbEntity
  8
寸法
 62
     0
 48
50.0
370
    -2
100
AcDbBlockReference
  2
_DOTSMALL
 10
1648.101915364652
 20
5489.740816400384
 30
0.0
 41
100.0
 42
100.0
 43
100.0
 50
180.0
  0
MTEXT
  5
1C7C1
330
1C740
100
AcDbEntity
  8
寸法
 62
     7
 48
50.0
100
AcDbMText
 10
5593.101915364648
 20
5589.752627424005
 30
0.0
 40
120.0
 41
0.0
 71
     5
 72
     1
  1
\A1;柱外寸法 N X 2630
  7
STYLE1
 73
     1
 44
1.0
1001
ACAD
1000
MTEXTBEGIN
1070
    73
1070
     1
1070
    44
1040
1.0
1070
    74
1070
     0
1000
MTEXTEND
  0
POINT
  5
1C7C2
330
1C740
100
AcDbEntity
  8
DEFPOINTS
 62
     0
 48
50.0
100
AcDbPoint
 10
9538.101915364645
 20
5090.647647060915
 30
0.0
  0
POINT
  5
1C7C3
330
1C740
100
AcDbEntity
  8
DEFPOINTS
 62
     0
 48
50.0
100
AcDbPoint
 10
1648.101915364652
 20
5090.647647060917
 30
0.0
  0
POINT
  5
1C7C4
330
1C740
100
AcDbEntity
  8
DEFPOINTS
 62
     0
 48
50.0
100
AcDbPoint
 10
1648.101915364652
 20
5489.740816400384
 30
0.0
  0
ENDBLK
  5
1C74B
330
1C740
100
AcDbEntity
  8
0
 48
50.0
100
AcDbBlockEnd
  0
BLOCK
  5
1C756
330
1C74C
100
AcDbEntity
  8
0
 48
50.0
100
AcDbBlockBegin
  2
*D40
 70
     1
 10
0.0
 20
0.0
 30
0.0
  3
*D40
  1

  0
LINE
  5
1C7C5
330
1C74C
100
AcDbEntity
  8
寸法
 62
     0
 48
50.0
370
    -2
100
AcDbLine
 10
1598.101915364652
 20
5110.647647060915
 30
0.0
 11
1598.101915364652
 21
5766.266916018828
 31
0.0
  0
LINE
  5
1C7C6
330
1C74C
100
AcDbEntity
  8
寸法
 62
     0
 48
50.0
370
    -2
100
AcDbLine
 10
9588.101915364644
 20
5110.647647060913
 30
0.0
 11
9588.101915364644
 21
5766.266916018828
 31
0.0
  0
LINE
  5
1C7C7
330
1C74C
100
AcDbEntity
  8
寸法
 62
     0
 48
50.0
370
    -2
100
AcDbLine
 10
1598.101915364652
 20
5706.266916018829
 30
0.0
 11
9588.101915364644
 21
5706.266916018829
 31
0.0
  0
INSERT
  5
1C7C8
330
1C74C
100
AcDbEntity
  8
寸法
 62
     0
 48
50.0
370
    -2
100
AcDbBlockReference
  2
_DOTSMALL
 10
1598.101915364652
 20
5706.266916018829
 30
0.0
 41
100.0
 42
100.0
 43
100.0
 50
180.0
  0
INSERT
  5
1C7C9
330
1C74C
100
AcDbEntity
  8
寸法
 62
     0
 48
50.0
370
    -2
100
AcDbBlockReference
  2
_DOTSMALL
 10
9588.101915364644
 20
5706.266916018829
 30
0.0
 41
100.0
 42
100.0
 43
100.0
  0
MTEXT
  5
1C7CA
330
1C74C
100
AcDbEntity
  8
寸法
 62
     7
 48
50.0
100
AcDbMText
 10
5593.101915364648
 20
5806.27872704245
 30
0.0
 40
120.0
 41
0.0
 71
     5
 72
     1
  1
\A1;N X 2630+100
  7
STYLE1
 73
     1
 44
1.0
1001
ACAD
1000
MTEXTBEGIN
1070
    73
1070
     1
1070
    44
1040
1.0
1070
    74
1070
     0
1000
MTEXTEND
  0
POINT
  5
1C7CB
330
1C74C
100
AcDbEntity
  8
DEFPOINTS
 62
     0
 48
50.0
100
AcDbPoint
 10
1598.101915364652
 20
5090.647647060915
 30
0.0
  0
POINT
  5
1C7CC
330
1C74C
100
AcDbEntity
  8
DEFPOINTS
 62
     0
 48
50.0
100
AcDbPoint
 10
9588.101915364644
 20
5090.647647060913
 30
0.0
  0
POINT
  5
1C7CD
330
1C74C
100
AcDbEntity
  8
DEFPOINTS
 62
     0
 48
50.0
100
AcDbPoint
 10
9588.101915364644
 20
5706.266916018829
 30
0.0
  0
ENDBLK
  5
1C757
330
1C74C
100
AcDbEntity
  8
0
 48
50.0
100
AcDbBlockEnd
  0
BLOCK
  5
1C7A3
330
1C797
100
AcDbEntity
  8
0
 48
50.0
100
AcDbBlockBegin
  2
*D41
 70
     1
 10
0.0
 20
0.0
 30
0.0
  3
*D41
  1

  0
LINE
  5
1C7FE
330
1C797
100
AcDbEntity
  8
寸法
 62
     0
 48
50.0
370
    -2
100
AcDbLine
 10
9588.101915364644
 20
5110.647647060913
 30
0.0
 11
9588.101915364644
 21
5549.740816400383
 31
0.0
  0
LINE
  5
1C7FF
330
1C797
100
AcDbEntity
  8
寸法
 62
     0
 48
50.0
370
    -2
100
AcDbLine
 10
9538.101915364645
 20
5110.647647060915
 30
0.0
 11
9538.101915364645
 21
5549.740816400383
 31
0.0
  0
LINE
  5
1C800
330
1C797
100
AcDbEntity
  8
寸法
 62
     0
 48
50.0
370
    -2
100
AcDbLine
 10
9538.101915364645
 20
5489.740816400384
 30
0.0
 11
9438.101915364645
 21
5489.740816400384
 31
0.0
  0
LINE
  5
1C801
330
1C797
100
AcDbEntity
  8
寸法
 62
     0
 48
50.0
370
    -2
100
AcDbLine
 10
9588.101915364644
 20
5489.740816400384
 30
0.0
 11
10007.63444083337
 21
5489.740816400384
 31
0.0
  0
LINE
  5
1C802
330
1C797
100
AcDbEntity
  8
寸法
 62
     0
 48
50.0
370
    -2
100
AcDbLine
 10
9538.101915364645
 20
5489.740816400384
 30
0.0
 11
9588.101915364644
 21
5489.740816400384
 31
0.0
  0
INSERT
  5
1C803
330
1C797
100
AcDbEntity
  8
寸法
 62
     0
 48
50.0
370
    -2
100
AcDbBlockReference
  2
_DOTSMALL
 10
9538.101915364645
 20
5489.740816400384
 30
0.0
 41
100.0
 42
100.0
 43
100.0
  0
INSERT
  5
1C804
330
1C797
100
AcDbEntity
  8
寸法
 62
     0
 48
50.0
370
    -2
100
AcDbBlockReference
  2
_DOTSMALL
 10
9588.101915364644
 20
5489.740816400384
 30
0.0
 41
100.0
 42
100.0
 43
100.0
 50
180.0
  0
MTEXT
  5
1C805
330
1C797
100
AcDbEntity
  8
寸法
 62
     7
 48
50.0
100
AcDbMText
 10
9901.587196738882
 20
5589.740816400383
 30
0.0
 40
120.0
 41
0.0
 71
     5
 72
     1
  1
\A1;50
  7
STYLE1
 73
     1
 44
1.0
1001
ACAD
1000
MTEXTBEGIN
1070
    73
1070
     1
1070
    44
1040
1.0
1070
    74
1070
     0
1000
MTEXTEND
  0
POINT
  5
1C806
330
1C797
100
AcDbEntity
  8
DEFPOINTS
 62
     0
 48
50.0
100
AcDbPoint
 10
9588.101915364644
 20
5090.647647060913
 30
0.0
  0
POINT
  5
1C807
330
1C797
100
AcDbEntity
  8
DEFPOINTS
 62
     0
 48
50.0
100
AcDbPoint
 10
9538.101915364645
 20
5090.647647060915
 30
0.0
  0
POINT
  5
1C808
330
1C797
100
AcDbEntity
  8
DEFPOINTS
 62
     0
 48
50.0
100
AcDbPoint
 10
9538.101915364645
 20
5489.740816400384
 30
0.0
  0
ENDBLK
  5
1C7A4
330
1C797
100
AcDbEntity
  8
0
 48
50.0
100
AcDbBlockEnd
  0
BLOCK
  5
1CD6C
330
1CD62
100
AcDbEntity
  8
0
 48
50.0
100
AcDbBlockBegin
  2
*D42
 70
     1
 10
0.0
 20
0.0
 30
0.0
  3
*D42
  1

  0
LINE
  5
1CEB1
330
1CD62
100
AcDbEntity
  8
寸法
 62
     0
 48
50.0
370
    -2
100
AcDbLine
 10
8231.242931516048
 20
9082.421310507562
 30
0.0
 11
8128.501117557449
 21
8698.983640752286
 31
0.0
  0
LINE
  5
1CEB2
330
1CD62
100
AcDbEntity
  8
寸法
 62
     0
 48
50.0
370
    -2
100
AcDbLine
 10
9504.242931516058
 20
9082.421310507555
 30
0.0
 11
9401.501117557462
 21
8698.983640752286
 31
0.0
  0
LINE
  5
1CEB3
330
1CD62
100
AcDbEntity
  8
寸法
 62
     0
 48
50.0
370
    -2
100
AcDbLine
 10
8144.578069103316
 20
8758.983640752287
 30
0.0
 11
9417.578069103331
 21
8758.983640752287
 31
0.0
  0
INSERT
  5
1CEB4
330
1CD62
100
AcDbEntity
  8
寸法
 62
     0
 48
50.0
370
    -2
100
AcDbBlockReference
  2
_DOTSMALL
 10
8144.578069103316
 20
8758.983640752287
 30
0.0
 41
100.0
 42
100.0
 43
100.0
 50
180.0
  0
INSERT
  5
1CEB5
330
1CD62
100
AcDbEntity
  8
寸法
 62
     0
 48
50.0
370
    -2
100
AcDbBlockReference
  2
_DOTSMALL
 10
9417.578069103331
 20
8758.983640752287
 30
0.0
 41
100.0
 42
100.0
 43
100.0
  0
MTEXT
  5
1CEB6
330
1CD62
100
AcDbEntity
  8
寸法
 62
     7
 48
50.0
100
AcDbMText
 10
8827.587231102965
 20
8858.995451775909
 30
0.0
 40
120.0
 41
0.0
 71
     5
 72
     1
  1
\A1;1273
  7
STYLE1
 73
     1
 44
1.0
1001
ACAD
1000
MTEXTBEGIN
1070
    73
1070
     1
1070
    44
1040
1.0
1070
    74
1070
     0
1000
MTEXTEND
  0
POINT
  5
1CEB7
330
1CD62
100
AcDbEntity
  8
DEFPOINTS
 62
     0
 48
50.0
100
AcDbPoint
 10
8236.601915364671
 20
9102.421310507564
 30
0.0
  0
POINT
  5
1CEB8
330
1CD62
100
AcDbEntity
  8
DEFPOINTS
 62
     0
 48
50.0
100
AcDbPoint
 10
9509.601915364681
 20
9102.421310507557
 30
0.0
  0
POINT
  5
1CEB9
330
1CD62
100
AcDbEntity
  8
DEFPOINTS
 62
     0
 48
50.0
100
AcDbPoint
 10
9417.578069103331
 20
8758.983640752287
 30
0.0
  0
ENDBLK
  5
1CD6D
330
1CD62
100
AcDbEntity
  8
0
 48
50.0
100
AcDbBlockEnd
  0
BLOCK
  5
1CDC7
330
1CDBD
100
AcDbEntity
  8
0
 48
50.0
100
AcDbBlockBegin
  2
*D43
 70
     1
 10
0.0
 20
0.0
 30
0.0
  3
*D43
  1

  0
LINE
  5
1CEA8
330
1CDBD
100
AcDbEntity
  8
寸法
 62
     0
 48
50.0
370
    -2
100
AcDbLine
 10
6931.242931516049
 20
9082.421310507458
 30
0.0
 11
6828.501117557478
 21
8698.983640752286
 31
0.0
  0
LINE
  5
1CEA9
330
1CDBD
100
AcDbEntity
  8
寸法
 62
     0
 48
50.0
370
    -2
100
AcDbLine
 10
8204.242931516059
 20
9082.42131050745
 30
0.0
 11
8101.501117557491
 21
8698.983640752286
 31
0.0
  0
LINE
  5
1CEAA
330
1CDBD
100
AcDbEntity
  8
寸法
 62
     0
 48
50.0
370
    -2
100
AcDbLine
 10
6844.578069103345
 20
8758.983640752287
 30
0.0
 11
8117.578069103357
 21
8758.983640752287
 31
0.0
  0
INSERT
  5
1CEAB
330
1CDBD
100
AcDbEntity
  8
寸法
 62
     0
 48
50.0
370
    -2
100
AcDbBlockReference
  2
_DOTSMALL
 10
6844.578069103345
 20
8758.983640752287
 30
0.0
 41
100.0
 42
100.0
 43
100.0
 50
180.0
  0
INSERT
  5
1CEAC
330
1CDBD
100
AcDbEntity
  8
寸法
 62
     0
 48
50.0
370
    -2
100
AcDbBlockReference
  2
_DOTSMALL
 10
8117.578069103357
 20
8758.983640752287
 30
0.0
 41
100.0
 42
100.0
 43
100.0
  0
MTEXT
  5
1CEAD
330
1CDBD
100
AcDbEntity
  8
寸法
 62
     7
 48
50.0
100
AcDbMText
 10
7481.078069103351
 20
8858.995451775909
 30
0.0
 40
120.0
 41
0.0
 71
     5
 72
     1
  1
\A1;1273
  7
STYLE1
 73
     1
 44
1.0
1001
ACAD
1000
MTEXTBEGIN
1070
    73
1070
     1
1070
    44
1040
1.0
1070
    74
1070
     0
1000
MTEXTEND
  0
POINT
  5
1CEAE
330
1CDBD
100
AcDbEntity
  8
DEFPOINTS
 62
     0
 48
50.0
100
AcDbPoint
 10
6936.60191536467
 20
9102.421310507457
 30
0.0
  0
POINT
  5
1CEAF
330
1CDBD
100
AcDbEntity
  8
DEFPOINTS
 62
     0
 48
50.0
100
AcDbPoint
 10
8209.601915364681
 20
9102.42131050745
 30
0.0
  0
POINT
  5
1CEB0
330
1CDBD
100
AcDbEntity
  8
DEFPOINTS
 62
     0
 48
50.0
100
AcDbPoint
 10
8117.578069103357
 20
8758.983640752287
 30
0.0
  0
ENDBLK
  5
1CDC8
330
1CDBD
100
AcDbEntity
  8
0
 48
50.0
100
AcDbBlockEnd
  0
BLOCK
  5
1D0EE
330
1D0E4
100
AcDbEntity
  8
0
 48
50.0
100
AcDbBlockBegin
  2
*D44
 70
     1
 10
0.0
 20
0.0
 30
0.0
  3
*D44
  1

  0
LINE
  5
1D1AF
330
1D0E4
100
AcDbEntity
  8
寸法
 62
     0
 48
50.0
370
    -2
100
AcDbLine
 10
9558.101915364645
 20
2777.647647060912
 30
0.0
 11
9885.645017686389
 21
2777.647647060912
 31
0.0
  0
LINE
  5
1D1B0
330
1D0E4
100
AcDbEntity
  8
寸法
 62
     0
 48
50.0
370
    -2
100
AcDbLine
 10
9558.101915364645
 20
4663.647647060911
 30
0.0
 11
9885.645017686393
 21
4663.647647060911
 31
0.0
  0
LINE
  5
1D1B1
330
1D0E4
100
AcDbEntity
  8
寸法
 62
     0
 48
50.0
370
    -2
100
AcDbLine
 10
9825.64501768639
 20
2777.647647060912
 30
0.0
 11
9825.64501768639
 21
4663.647647060911
 31
0.0
  0
INSERT
  5
1D1B2
330
1D0E4
100
AcDbEntity
  8
寸法
 62
     0
 48
50.0
370
    -2
100
AcDbBlockReference
  2
_DOTSMALL
 10
9825.64501768639
 20
2777.647647060912
 30
0.0
 41
100.0
 42
100.0
 43
100.0
 50
270.0
  0
INSERT
  5
1D1B3
330
1D0E4
100
AcDbEntity
  8
寸法
 62
     0
 48
50.0
370
    -2
100
AcDbBlockReference
  2
_DOTSMALL
 10
9825.64501768639
 20
4663.647647060911
 30
0.0
 41
100.0
 42
100.0
 43
100.0
 50
90.0
  0
MTEXT
  5
1D1B4
330
1D0E4
100
AcDbEntity
  8
寸法
 62
     7
 48
50.0
100
AcDbMText
 10
9725.645017686389
 20
3720.647647060914
 30
0.0
 40
120.0
 41
0.0
 71
     5
 72
     1
  1
\A1;有効開口部高サ 1886
  7
STYLE1
 11
0.0000000000000001
 21
1.0
 31
0.0
 73
     1
 44
1.0
1001
ACAD
1000
MTEXTBEGIN
1070
    73
1070
     1
1070
    44
1040
1.0
1070
    74
1070
     0
1000
MTEXTEND
  0
POINT
  5
1D1B5
330
1D0E4
100
AcDbEntity
  8
DEFPOINTS
 62
     0
 48
50.0
100
AcDbPoint
 10
9538.101915364645
 20
2777.647647060912
 30
0.0
  0
POINT
  5
1D1B6
330
1D0E4
100
AcDbEntity
  8
DEFPOINTS
 62
     0
 48
50.0
100
AcDbPoint
 10
9538.101915364645
 20
4663.647647060911
 30
0.0
  0
POINT
  5
1D1B7
330
1D0E4
100
AcDbEntity
  8
DEFPOINTS
 62
     0
 48
50.0
100
AcDbPoint
 10
9825.64501768639
 20
4663.647647060911
 30
0.0
  0
ENDBLK
  5
1D0EF
330
1D0E4
100
AcDbEntity
  8
0
 48
50.0
100
AcDbBlockEnd
  0
BLOCK
  5
1D0FC
330
1D0F0
100
AcDbEntity
  8
0
 48
50.0
100
AcDbBlockBegin
  2
*D45
 70
     1
 10
0.0
 20
0.0
 30
0.0
  3
*D45
  1

  0
LINE
  5
1D700
330
1D0F0
100
AcDbEntity
  8
寸法
 62
     0
 48
50.0
370
    -2
100
AcDbLine
 10
9558.101915364645
 20
4663.647647060911
 30
0.0
 11
9885.645017686393
 21
4663.647647060911
 31
0.0
  0
LINE
  5
1D701
330
1D0F0
100
AcDbEntity
  8
寸法
 62
     0
 48
50.0
370
    -2
100
AcDbLine
 10
9558.101915364645
 20
4690.647647060913
 30
0.0
 11
9885.645017686393
 21
4690.647647060913
 31
0.0
  0
LINE
  5
1D702
330
1D0F0
100
AcDbEntity
  8
寸法
 62
     0
 48
50.0
370
    -2
100
AcDbLine
 10
9825.64501768639
 20
4663.647647060911
 30
0.0
 11
9825.64501768639
 21
4563.647647060911
 31
0.0
  0
LINE
  5
1D703
330
1D0F0
100
AcDbEntity
  8
寸法
 62
     0
 48
50.0
370
    -2
100
AcDbLine
 10
9825.64501768639
 20
4690.647647060913
 30
0.0
 11
9825.64501768639
 21
4790.647647060914
 31
0.0
  0
MTEXT
  5
1D704
330
1D0F0
100
AcDbEntity
  8
寸法
 62
     7
 48
50.0
100
AcDbMText
 10
9965.814840932758
 20
4691.614846900571
 30
0.0
 40
120.0
 41
0.0
 71
     5
 72
     1
  1
\A1;27
  7
STYLE1
 11
0.0000000000000001
 21
1.0
 31
0.0
 73
     1
 44
1.0
1001
ACAD
1000
MTEXTBEGIN
1070
    73
1070
     1
1070
    44
1040
1.0
1070
    74
1070
     0
1000
MTEXTEND
  0
LINE
  5
1D705
330
1D0F0
100
AcDbEntity
  8
寸法
 62
     0
 48
50.0
370
    -2
100
AcDbLine
 10
9825.64501768639
 20
4663.647647060911
 30
0.0
 11
9825.64501768639
 21
4690.647647060913
 31
0.0
  0
INSERT
  5
1D706
330
1D0F0
100
AcDbEntity
  8
寸法
 62
     0
 48
50.0
370
    -2
100
AcDbBlockReference
  2
_DOTSMALL
 10
9825.64501768639
 20
4663.647647060911
 30
0.0
 41
100.0
 42
100.0
 43
100.0
 50
90.0
  0
INSERT
  5
1D707
330
1D0F0
100
AcDbEntity
  8
寸法
 62
     0
 48
50.0
370
    -2
100
AcDbBlockReference
  2
_DOTSMALL
 10
9825.64501768639
 20
4690.647647060913
 30
0.0
 41
100.0
 42
100.0
 43
100.0
 50
270.0
  0
POINT
  5
1D708
330
1D0F0
100
AcDbEntity
  8
DEFPOINTS
 62
     0
 48
50.0
100
AcDbPoint
 10
9538.101915364645
 20
4663.647647060911
 30
0.0
  0
POINT
  5
1D709
330
1D0F0
100
AcDbEntity
  8
DEFPOINTS
 62
     0
 48
50.0
100
AcDbPoint
 10
9538.101915364645
 20
4690.647647060913
 30
0.0
  0
POINT
  5
1D70A
330
1D0F0
100
AcDbEntity
  8
DEFPOINTS
 62
     0
 48
50.0
100
AcDbPoint
 10
9825.64501768639
 20
4690.647647060913
 30
0.0
  0
ENDBLK
  5
1D0FD
330
1D0F0
100
AcDbEntity
  8
0
 48
50.0
100
AcDbBlockEnd
  0
BLOCK
  5
1D109
330
1D0FE
100
AcDbEntity
  8
0
 48
50.0
100
AcDbBlockBegin
  2
*D46
 70
     1
 10
0.0
 20
0.0
 30
0.0
  3
*D46
  1

  0
LINE
  5
1D6F6
330
1D0FE
100
AcDbEntity
  8
寸法
 62
     0
 48
50.0
370
    -2
100
AcDbLine
 10
9558.101915364645
 20
4690.647647060913
 30
0.0
 11
9885.645017686393
 21
4690.647647060913
 31
0.0
  0
LINE
  5
1D6F7
330
1D0FE
100
AcDbEntity
  8
寸法
 62
     0
 48
50.0
370
    -2
100
AcDbLine
 10
9558.101915364645
 20
4855.647647060912
 30
0.0
 11
9885.645017686393
 21
4855.647647060912
 31
0.0
  0
LINE
  5
1D6F8
330
1D0FE
100
AcDbEntity
  8
寸法
 62
     0
 48
50.0
370
    -2
100
AcDbLine
 10
9825.645017686394
 20
4690.647647060913
 30
0.0
 11
9825.645017686394
 21
4855.647647060912
 31
0.0
  0
LINE
  5
1D6F9
330
1D0FE
100
AcDbEntity
  8
寸法
 62
     0
 48
50.0
370
    -2
100
AcDbLine
 10
9825.645017686394
 20
4855.647647060912
 30
0.0
 11
9825.645017686394
 21
5232.618209809391
 31
0.0
  0
INSERT
  5
1D6FA
330
1D0FE
100
AcDbEntity
  8
寸法
 62
     0
 48
50.0
370
    -2
100
AcDbBlockReference
  2
_DOTSMALL
 10
9825.645017686394
 20
4690.647647060913
 30
0.0
 41
100.0
 42
100.0
 43
100.0
 50
270.0
  0
INSERT
  5
1D6FB
330
1D0FE
100
AcDbEntity
  8
寸法
 62
     0
 48
50.0
370
    -2
100
AcDbBlockReference
  2
_DOTSMALL
 10
9825.645017686394
 20
4855.647647060912
 30
0.0
 41
100.0
 42
100.0
 43
100.0
 50
90.0
  0
MTEXT
  5
1D6FC
330
1D0FE
100
AcDbEntity
  8
寸法
 62
     7
 48
50.0
100
AcDbMText
 10
9725.645017686391
 20
5094.132928435152
 30
0.0
 40
120.0
 41
0.0
 71
     5
 72
     1
  1
\A1;165
  7
STYLE1
 11
0.0000000000000001
 21
1.0
 31
0.0
 73
     1
 44
1.0
1001
ACAD
1000
MTEXTBEGIN
1070
    73
1070
     1
1070
    44
1040
1.0
1070
    74
1070
     0
1000
MTEXTEND
  0
POINT
  5
1D6FD
330
1D0FE
100
AcDbEntity
  8
DEFPOINTS
 62
     0
 48
50.0
100
AcDbPoint
 10
9538.101915364645
 20
4690.647647060913
 30
0.0
  0
POINT
  5
1D6FE
330
1D0FE
100
AcDbEntity
  8
DEFPOINTS
 62
     0
 48
50.0
100
AcDbPoint
 10
9538.101915364645
 20
4855.647647060912
 30
0.0
  0
POINT
  5
1D6FF
330
1D0FE
100
AcDbEntity
  8
DEFPOINTS
 62
     0
 48
50.0
100
AcDbPoint
 10
9825.645017686394
 20
4855.647647060912
 30
0.0
  0
ENDBLK
  5
1D10A
330
1D0FE
100
AcDbEntity
  8
0
 48
50.0
100
AcDbBlockEnd
  0
BLOCK
  5
1D52E
330
1D524
100
AcDbEntity
  8
0
 48
50.0
100
AcDbBlockBegin
  2
*D47
 70
     1
 10
0.0
 20
0.0
 30
0.0
  3
*D47
  1

  0
LINE
  5
1D577
330
1D524
100
AcDbEntity
  8
寸法
 62
     0
 48
50.0
370
    -2
100
AcDbLine
 10
4323.10191536475
 20
8865.921306930314
 30
0.0
 11
4674.943275625587
 21
8865.921306930314
 31
0.0
  0
LINE
  5
1D578
330
1D524
100
AcDbEntity
  8
寸法
 62
     0
 48
50.0
370
    -2
100
AcDbLine
 10
4353.101915364985
 20
9582.42131050749
 30
0.0
 11
4674.943275625587
 21
9582.42131050749
 31
0.0
  0
LINE
  5
1D579
330
1D524
100
AcDbEntity
  8
寸法
 62
     0
 48
50.0
370
    -2
100
AcDbLine
 10
4614.943275625587
 20
8865.921306930314
 30
0.0
 11
4614.943275625587
 21
9582.42131050749
 31
0.0
  0
INSERT
  5
1D57A
330
1D524
100
AcDbEntity
  8
寸法
 62
     0
 48
50.0
370
    -2
100
AcDbBlockReference
  2
_DOTSMALL
 10
4614.943275625587
 20
8865.921306930314
 30
0.0
 41
100.0
 42
100.0
 43
100.0
 50
270.0
  0
INSERT
  5
1D57B
330
1D524
100
AcDbEntity
  8
寸法
 62
     0
 48
50.0
370
    -2
100
AcDbBlockReference
  2
_DOTSMALL
 10
4614.943275625587
 20
9582.42131050749
 30
0.0
 41
100.0
 42
100.0
 43
100.0
 50
90.0
  0
MTEXT
  5
1D57C
330
1D524
100
AcDbEntity
  8
寸法
 62
     7
 48
50.0
100
AcDbMText
 10
4514.943275625586
 20
9319.159458952098
 30
0.0
 40
120.0
 41
0.0
 71
     5
 72
     1
  1
\A1;716.5
  7
STYLE1
 11
0.0000000000000001
 21
1.0
 31
0.0
 73
     1
 44
1.0
1001
ACAD
1000
MTEXTBEGIN
1070
    73
1070
     1
1070
    44
1040
1.0
1070
    74
1070
     0
1000
MTEXTEND
  0
POINT
  5
1D57D
330
1D524
100
AcDbEntity
  8
DEFPOINTS
 62
     0
 48
50.0
100
AcDbPoint
 10
4303.10191536475
 20
8865.921306930314
 30
0.0
  0
POINT
  5
1D57E
330
1D524
100
AcDbEntity
  8
DEFPOINTS
 62
     0
 48
50.0
100
AcDbPoint
 10
4333.101915364984
 20
9582.42131050749
 30
0.0
  0
POINT
  5
1D57F
330
1D524
100
AcDbEntity
  8
DEFPOINTS
 62
     0
 48
50.0
100
AcDbPoint
 10
4614.943275625587
 20
9582.42131050749
 30
0.0
  0
ENDBLK
  5
1D52F
330
1D524
100
AcDbEntity
  8
0
 48
50.0
100
AcDbBlockEnd
  0
BLOCK
  5
1D6B9
330
1D6B6
100
AcDbEntity
  8
0
 48
50.0
100
AcDbBlockBegin
  2
A$C24934B0C
 70
     0
 10
0.0
 20
0.0
 30
0.0
  3
A$C24934B0C
  1

  0
LINE
  5
1D6B7
330
1D6B6
100
AcDbEntity
  8
部品1
 48
50.0
100
AcDbLine
 10
264.5998275257352
 20
987.5000000000037
 30
0.0
 11
-284.6960169581143
 21
-1062.500000000181
 31
0.0
  0
SPLINE
  5
1D6B8
330
1D6B6
100
AcDbEntity
  8
部品1
 48
50.0
100
AcDbSpline
210
0.0
220
0.0
230
1.0
 70
     8
 71
     3
 72
    10
 73
     6
 74
     4
 42
0.0000000001
 43
0.0000000001
 44
0.0000000001
 40
0.0
 40
0.0
 40
0.0
 40
0.0
 40
147.8767566010009
 40
301.8091093202477
 40
466.5049223087734
 40
466.5049223087734
 40
466.5049223087734
 40
466.5049223087734
 10
67.57032773305218
 20
81.24115252579214
 30
0.0
 10
-9.311354761782588
 20
72.33671886795416
 30
0.0
 10
-166.2230469719098
 20
54.16321240862247
 30
0.0
 10
156.5903629724327
 20
-48.35737223072093
 30
0.0
 10
-13.25225669694057
 20
-66.99246094292409
 30
0.0
 10
-101.0422619038345
 20
-76.62475782023284
 30
0.0
 11
67.57032773305218
 21
81.24115252579214
 31
0.0
 11
-75.26765057571719
 21
42.96783158946346
 31
0.0
 11
58.04167734345719
 21
-33.99834477015975
 31
0.0
 11
-101.0422619038345
 21
-76.62475782023284
 31
0.0
  0
ENDBLK
  5
1D6BA
330
1D6B6
100
AcDbEntity
  8
0
 48
50.0
100
AcDbBlockEnd
  0
ENDSEC
  0
SECTION
  2
ENTITIES
  0
MTEXT
  5
763F
330
747D
100
AcDbEntity
  8
0
100
AcDbMText
 10
302.846345836809
 20
280.1983726409901
 30
0.0
 40
3.5
 41
5.323721266742722
 71
     1
 72
     5
  1

  7
MSMINCHO
 73
     1
 44
1.0
1001
ACAD
1000
MTEXTBEGIN
1070
    73
1070
     1
1070
    44
1040
1.0
1070
    74
1070
     0
1000
MTEXTEND
  0
LINE
  5
10B57
330
747D
100
AcDbEntity
  8
補助
  6
PHANTOM
 62
   230
 48
50.0
100
AcDbLine
 10
139.9999999999995
 20
11409.6
 30
0.0
 11
16307.2
 21
11409.6
 31
0.0
  0
LINE
  5
10B59
330
747D
100
AcDbEntity
  8
仕様書枠
  6
Continuous
 48
50.0
100
AcDbLine
 10
13107.2
 20
1200.0
 30
0.0
 11
13107.2
 21
-0.0000000000000729
 31
0.0
  0
LINE
  5
10B5C
330
747D
100
AcDbEntity
  8
仕様書枠
 48
50.0
100
AcDbLine
 10
16307.2
 20
1200.0
 30
0.0
 11
16307.2
 21
-0.0000000000000909
 31
0.0
  0
LINE
  5
10B5D
330
747D
100
AcDbEntity
  8
仕様書枠
 48
50.0
100
AcDbLine
 10
140.0
 20
0.0
 30
0.0
 11
16307.2
 21
-0.0000000000000909
 31
0.0
  0
LINE
  5
10B5E
330
747D
100
AcDbEntity
  8
補助
  6
PHANTOM
 62
   230
 48
50.0
100
AcDbLine
 10
16307.2
 20
11409.6
 30
0.0
 11
16307.2
 21
1200.0
 31
0.0
  0
LINE
  5
10B6C
330
747D
100
AcDbEntity
  8
仕様書枠
 48
50.0
100
AcDbLine
 10
13107.2
 20
1200.0
 30
0.0
 11
16307.2
 21
1200.0
 31
0.0
  0
LINE
  5
10B6D
330
747D
100
AcDbEntity
  8
補助
  6
PHANTOM
 62
   230
 48
50.0
100
AcDbLine
 10
13107.2
 20
11409.6
 30
0.0
 11
13107.2
 21
4800.0
 31
0.0
  0
LINE
  5
10B6F
330
747D
100
AcDbEntity
  8
補助
  6
PHANTOM
 62
   230
 48
50.0
100
AcDbLine
 10
13107.2
 20
4800.0
 30
0.0
 11
16307.2
 21
4800.0
 31
0.0
  0
LINE
  5
10B72
330
747D
100
AcDbEntity
  8
文字
 62
     7
 48
50.0
100
AcDbLine
 10
13187.2
 20
400.0
 30
0.0
 11
16227.2
 21
400.0
 31
0.0
  0
TEXT
  5
10B73
330
747D
100
AcDbEntity
  8
文字
 62
     7
 48
50.0
100
AcDbText
 10
13162.9790565769
 20
895.0906074299405
 30
0.0
 40
200.0
  1
外 形 図
  7
STYLE2
100
AcDbText
  0
TEXT
  5
10B74
330
747D
100
AcDbEntity
  8
文字
 62
     7
 48
50.0
100
AcDbText
 10
13201.43669998441
 20
477.2740661031255
 30
0.0
 40
160.0
  1
機種名
  7
STYLE2
100
AcDbText
  0
TEXT
  5
10B75
330
747D
100
AcDbEntity
  8
文字
 62
     7
 48
50.0
100
AcDbText
 10
13209.4053442172
 20
228.5435242569016
 30
0.0
 40
100.0
  1
○有効開口寸法 ： 2424×1886(mm)
  7
STYLE2
100
AcDbText
  0
TEXT
  5
10B76
330
747D
100
AcDbEntity
  8
文字
 62
     7
 48
50.0
100
AcDbText
 10
13209.4053442172
 20
76.09434707649343
 30
0.0
 40
100.0
  1
○床面積 ：N［連続数］X4.71㎡(1.43坪)
  7
STYLE2
100
AcDbText
  0
TEXT
  5
10B79
330
747D
100
AcDbEntity
  8
文字
 62
     7
 48
50.0
100
AcDbText
 10
14524.131837222
 20
1031.557706291228
 30
0.0
 40
100.0
  1
NO.14      <縮尺> S=1/40
  7
STYLE2
100
AcDbText
  0
LINE
  5
10B7B
330
747D
100
AcDbEntity
  8
仕様書枠
 48
50.0
100
AcDbLine
 10
13107.2
 20
800.0
 30
0.0
 11
14251.2
 21
800.0
 31
0.0
  0
LINE
  5
10B88
330
747D
100
AcDbEntity
  8
仕様書枠
  6
Continuous
 48
50.0
100
AcDbLine
 10
14251.2
 20
1200.0
 30
0.0
 11
14251.2
 21
800.0
 31
0.0
  0
DIMENSION
  5
162CD
330
747D
100
AcDbEntity
  8
寸法
100
AcDbDimension
  2
*D1
 10
10185.52826109907
 20
7847.421310507596
 30
0.0
 11
10085.51645007545
 21
8687.421310507605
 31
0.0
 70
    32
  1
4X420=<>
 71
     5
 42
1680.000000000014
  3
INABA_S40G
100
AcDbAlignedDimension
 13
9538.10191536467
 23
9527.421310507611
 33
0.0
 14
9538.101915364645
 24
7847.421310507596
 34
0.0
 50
90.0
100
AcDbRotatedDimension
1001
ACAD
1000
DSTYLE
1002
{
1002
}
  0
DIMENSION
  5
162CE
330
747D
100
AcDbEntity
  8
寸法
100
AcDbDimension
  2
*D2
 10
10185.52826109905
 20
7792.421310507599
 30
0.0
 11
10185.52826109905
 21
7414.559843602738
 31
0.0
 70
   160
 71
     5
 42
54.99999999999636
  3
INABA_S40G
100
AcDbAlignedDimension
 13
9538.101915364645
 23
7847.421310507596
 33
0.0
 14
9538.101915364645
 24
7792.421310507599
 34
0.0
 50
90.0
100
AcDbRotatedDimension
1001
ACAD
1000
DSTYLE
1002
{
1002
}
  0
DIMENSION
  5
162CF
330
747D
100
AcDbEntity
  8
寸法
100
AcDbDimension
  2
*D3
 10
10185.52826109908
 20
9527.421310507611
 30
0.0
 11
10185.52826109908
 21
9890.906591881847
 31
0.0
 70
   160
 71
     5
 42
54.99999999999636
  3
INABA_S40G
100
AcDbAlignedDimension
 13
9538.10191536467
 23
9582.421310507607
 33
0.0
 14
9538.10191536467
 24
9527.421310507611
 34
0.0
 50
90.0
100
AcDbRotatedDimension
1001
ACAD
1000
DSTYLE
1002
{
1002
}
  0
DIMENSION
  5
162D0
330
747D
100
AcDbEntity
  8
寸法
100
AcDbDimension
  2
*D4
 10
10550.63520283871
 20
7792.421310507599
 30
0.0
 11
10450.63520283871
 21
8687.421310507605
 31
0.0
 70
    32
 71
     5
 42
1790.000000000007
  3
INABA_S40G
100
AcDbAlignedDimension
 13
9538.10191536467
 23
9582.421310507607
 33
0.0
 14
9538.101915364645
 24
7792.421310507599
 34
0.0
 50
90.0
100
AcDbRotatedDimension
1001
ACAD
1000
DSTYLE
1002
{
1002
}
  0
LINE
  5
162DC
330
747D
100
AcDbEntity
  8
部品1
100
AcDbLine
 10
9510.101915364655
 20
9554.421310507606
 30
0.0
 11
9510.101915364646
 21
7847.421310507596
 31
0.0
  0
LINE
  5
162DD
330
747D
100
AcDbEntity
  8
部品1
100
AcDbLine
 10
1676.101915364645
 20
7847.421310507318
 30
0.0
 11
1676.101915364656
 21
9554.421310507366
 31
0.0
  0
LINE
  5
162DE
330
747D
100
AcDbEntity
  8
部品1
100
AcDbLine
 10
9538.10191536467
 20
9582.421310507607
 30
0.0
 11
9538.101915364645
 21
7792.421310507599
 31
0.0
  0
LINE
  5
162DF
330
747D
100
AcDbEntity
  8
部品1
100
AcDbLine
 10
1648.101915364636
 20
9582.421310507333
 30
0.0
 11
1648.101915364663
 21
7792.421310507322
 31
0.0
  0
DIMENSION
  5
162E4
330
747D
100
AcDbEntity
  8
寸法
 48
50.0
100
AcDbDimension
  2
*D5
 10
7011.101915364664
 20
7257.990539741344
 30
0.0
 11
8223.101915364654
 21
7358.002350764966
 31
0.0
 70
    32
  1
有効開口部間口 <>
 71
     5
 42
2423.999999999982
  3
INABA_S40G
100
AcDbAlignedDimension
 13
9435.101915364645
 23
7818.421310507509
 33
0.0
 14
7011.101915364664
 24
7818.421310507509
 34
0.0
100
AcDbRotatedDimension
1001
ACAD
1000
DSTYLE
1002
{
1070
    75
1070
     1
1070
   279
1070
     2
1002
}
  0
LINE
  5
162E6
330
747D
100
AcDbEntity
  8
部品1
 48
50.0
100
AcDbLine
 10
6975.10191536466
 20
7837.921310507507
 30
0.0
 11
9471.101915364647
 21
7837.921310507507
 31
0.0
  0
DIMENSION
  5
162E7
330
747D
100
AcDbEntity
  8
寸法
100
AcDbDimension
  2
*D6
 10
9538.101915364633
 20
6811.817544150322
 30
0.0
 11
5593.101915364648
 21
6911.829355173944
 31
0.0
 70
    32
  1
N X 2630
 71
     5
 42
7889.999999999971
  3
INABA_S40G
100
AcDbAlignedDimension
 13
1648.101915364663
 23
7792.421310507357
 33
0.0
 14
9538.101915364633
 24
7792.421310507599
 34
0.0
100
AcDbRotatedDimension
1001
ACAD
1000
DSTYLE
1002
{
1002
}
  0
LINE
  5
162E8
330
747D
100
AcDbEntity
  8
部品1
100
AcDbLine
 10
1703.101915364648
 20
9102.421310507336
 30
0.0
 11
1703.101915364661
 21
7857.421310507359
 31
0.0
  0
DIMENSION
  5
162EA
330
747D
100
AcDbEntity
  8
寸法
 48
50.0
100
AcDbDimension
  2
*D7
 10
1648.101915364663
 20
7257.990539741197
 30
0.0
 11
1339.616633990424
 21
7257.990539741197
 31
0.0
 70
   160
 71
     5
 42
54.99999999999636
  3
INABA_S40G
100
AcDbAlignedDimension
 13
1703.101915364659
 23
7792.421310507362
 33
0.0
 14
1648.101915364663
 24
7792.421310507357
 34
0.0
100
AcDbRotatedDimension
1001
ACAD
1000
DSTYLE
1002
{
1002
}
  0
DIMENSION
  5
162EB
330
747D
100
AcDbEntity
  8
寸法
 48
50.0
100
AcDbDimension
  2
*D8
 10
6963.101915364659
 20
7257.990539741344
 30
0.0
 11
7124.00388636472
 21
7357.990539741344
 31
0.0
 70
   160
 71
     5
 42
48.00000000000363
  3
INABA_S40G
100
AcDbAlignedDimension
 13
7011.101915364664
 23
7818.421310507509
 33
0.0
 14
6963.101915364659
 24
7792.421310507508
 34
0.0
100
AcDbRotatedDimension
1001
ACAD
1000
DSTYLE
1002
{
1070
   279
1070
     2
1002
}
  0
LINE
  5
162EC
330
747D
100
AcDbEntity
  8
部品1
100
AcDbLine
 10
1703.101915364657
 20
7792.421310507362
 30
0.0
 11
1648.101915364663
 21
7792.421310507357
 31
0.0
  0
LINE
  5
162ED
330
747D
100
AcDbEntity
  8
部品1
 48
50.0
100
AcDbLine
 10
1703.101915364663
 20
7828.421310507359
 30
0.0
 11
1680.101915364663
 21
7828.421310507359
 31
0.0
  0
LINE
  5
162EE
330
747D
100
AcDbEntity
  8
部品1
 48
50.0
100
AcDbLine
 10
1713.101915364663
 20
7818.42131050736
 30
0.0
 11
1703.101915364663
 21
7797.421310507361
 31
0.0
  0
LINE
  5
162EF
330
747D
100
AcDbEntity
  8
部品1
 48
50.0
100
AcDbLine
 10
1703.101915364663
 20
7857.421310507359
 30
0.0
 11
1703.101915364659
 21
7792.421310507362
 31
0.0
  0
LINE
  5
162F0
330
747D
100
AcDbEntity
  8
部品1
 48
50.0
100
AcDbLine
 10
1751.101915364663
 20
7818.42131050736
 30
0.0
 11
1751.101915364663
 21
7827.421310507361
 31
0.0
  0
LINE
  5
162F1
330
747D
100
AcDbEntity
  8
部品1
 48
50.0
100
AcDbLine
 10
1751.101915364663
 20
7857.421310507361
 30
0.0
 11
1751.101915364663
 21
7848.421310507362
 31
0.0
  0
LINE
  5
162F2
330
747D
100
AcDbEntity
  8
部品1
100
AcDbLine
 10
1751.101915364663
 20
7857.421310507361
 30
0.0
 11
1703.101915364663
 21
7857.421310507361
 31
0.0
  0
LINE
  5
162F3
330
747D
100
AcDbEntity
  8
部品1
100
AcDbLine
 10
1751.101915364663
 20
7818.42131050736
 30
0.0
 11
1703.101915364663
 21
7818.42131050736
 31
0.0
  0
LINE
  5
162F4
330
747D
100
AcDbEntity
  8
部品1
100
AcDbLine
 10
1703.101915364661
 20
7828.421310507359
 30
0.0
 11
1680.101915364663
 21
7828.421310507359
 31
0.0
  0
LINE
  5
162F5
330
747D
100
AcDbEntity
  8
部品1
100
AcDbLine
 10
1703.101915364661
 20
7847.421310507285
 30
0.0
 11
1648.101915364661
 21
7847.421310507285
 31
0.0
  0
LINE
  5
162F6
330
747D
100
AcDbEntity
  8
部品1
100
AcDbLine
 10
1676.101915364645
 20
7847.421310507321
 30
0.0
 11
1648.101915364661
 21
7847.421310507321
 31
0.0
  0
LINE
  5
162F7
330
747D
100
AcDbEntity
  8
部品1
100
AcDbLine
 10
1676.101915364661
 20
7847.421310507336
 30
0.0
 11
1648.101915364661
 21
7847.421310507336
 31
0.0
  0
LINE
  5
162FB
330
747D
100
AcDbEntity
  8
部品1
100
AcDbLine
 10
1676.10191536465
 20
9107.421310507339
 30
0.0
 11
1648.10191536465
 21
9107.421310507339
 31
0.0
  0
DIMENSION
  5
16301
330
747D
100
AcDbEntity
  8
寸法
 48
50.0
100
AcDbDimension
  2
*D9
 10
9435.101915364645
 20
7257.990539741344
 30
0.0
 11
9324.139017715898
 21
7357.990539741344
 31
0.0
 70
   160
 71
     5
 42
48.00000000000181
  3
INABA_S40G
100
AcDbAlignedDimension
 13
9483.101915364647
 23
7792.421310507596
 33
0.0
 14
9435.101915364645
 24
7818.421310507509
 34
0.0
100
AcDbRotatedDimension
1001
ACAD
1000
DSTYLE
1002
{
1070
   279
1070
     2
1002
}
  0
DIMENSION
  5
16302
330
747D
100
AcDbEntity
  8
寸法
 48
50.0
100
AcDbDimension
  2
*D10
 10
9483.101915364647
 20
7257.990539741344
 30
0.0
 11
9846.587196738884
 21
7257.990539741344
 31
0.0
 70
   160
 71
     5
 42
54.99999999999818
  3
INABA_S40G
100
AcDbAlignedDimension
 13
9538.101915364645
 23
7792.421310507599
 33
0.0
 14
9483.101915364647
 24
7792.421310507596
 34
0.0
100
AcDbRotatedDimension
1001
ACAD
1000
DSTYLE
1002
{
1002
}
  0
LINE
  5
16303
330
747D
100
AcDbEntity
  8
部品1
 48
50.0
100
AcDbLine
 10
9473.101915364644
 20
7818.421310507509
 30
0.0
 11
9483.101915364645
 21
7797.421310507509
 31
0.0
  0
LINE
  5
16304
330
747D
100
AcDbEntity
  8
部品1
100
AcDbLine
 10
9435.101915364645
 20
7857.421310507509
 30
0.0
 11
9483.101915364647
 21
7857.421310507509
 31
0.0
  0
LINE
  5
16305
330
747D
100
AcDbEntity
  8
部品1
100
AcDbLine
 10
9435.101915364645
 20
7818.421310507509
 30
0.0
 11
9483.101915364645
 21
7818.421310507509
 31
0.0
  0
LINE
  5
16306
330
747D
100
AcDbEntity
  8
部品1
 48
50.0
100
AcDbLine
 10
9435.101915364645
 20
7857.421310507509
 30
0.0
 11
9435.101915364645
 21
7848.421310507508
 31
0.0
  0
LINE
  5
16307
330
747D
100
AcDbEntity
  8
部品1
 48
50.0
100
AcDbLine
 10
9435.101915364645
 20
7818.421310507509
 30
0.0
 11
9435.101915364645
 21
7827.421310507509
 31
0.0
  0
LINE
  5
16308
330
747D
100
AcDbEntity
  8
部品1
100
AcDbLine
 10
9483.101915364645
 20
7828.421310507505
 30
0.0
 11
9506.101915364645
 21
7828.421310507507
 31
0.0
  0
LINE
  5
16309
330
747D
100
AcDbEntity
  8
部品1
100
AcDbLine
 10
9483.101915364645
 20
7847.42131050761
 30
0.0
 11
9538.101915364677
 21
7847.42131050761
 31
0.0
  0
LINE
  5
1630A
330
747D
100
AcDbEntity
  8
部品1
100
AcDbLine
 10
9538.101915364645
 20
7792.421310507599
 30
0.0
 11
9483.101915364647
 21
7792.421310507596
 31
0.0
  0
LINE
  5
16317
330
747D
100
AcDbEntity
  8
部品1
100
AcDbLine
 10
9510.101915364675
 20
9107.421310507611
 30
0.0
 11
9538.101915364675
 21
9107.421310507611
 31
0.0
  0
LINE
  5
1631B
330
747D
100
AcDbEntity
  8
部品1
100
AcDbLine
 10
6963.101915364669
 20
9554.421310507629
 30
0.0
 11
8210.601915364668
 21
9554.421310507629
 31
0.0
  0
LINE
  5
1631C
330
747D
100
AcDbEntity
  8
部品1
100
AcDbLine
 10
6936.101915364668
 20
9554.421310507512
 30
0.0
 11
7593.101915364669
 21
9554.421310507516
 31
0.0
  0
DIMENSION
  5
1631F
330
747D
100
AcDbEntity
  8
寸法
100
AcDbDimension
  2
*D11
 10
9483.10191536467
 20
9998.229530132611
 30
0.0
 11
8223.10191536467
 21
10098.24134115623
 31
0.0
 70
    32
  1
6X420=<>
 71
     5
 42
2520.000000000002
  3
INABA_S40G
100
AcDbAlignedDimension
 13
6963.101915364669
 23
9582.421310507513
 33
0.0
 14
9483.10191536467
 24
9582.421310507607
 34
0.0
100
AcDbRotatedDimension
1001
ACAD
1000
DSTYLE
1002
{
1002
}
  0
DIMENSION
  5
16320
330
747D
100
AcDbEntity
  8
寸法
100
AcDbDimension
  2
*D12
 10
1703.101915364668
 20
9998.229530132348
 30
0.0
 11
1339.616633990395
 21
9998.229530132348
 31
0.0
 70
   160
 71
     5
 42
55.00000000003274
  3
INABA_S40G
100
AcDbAlignedDimension
 13
1648.101915364636
 23
9582.421310507367
 33
0.0
 14
1703.101915364668
 24
9582.421310507367
 34
0.0
100
AcDbRotatedDimension
1001
ACAD
1000
DSTYLE
1002
{
1002
}
  0
LINE
  5
16321
330
747D
100
AcDbEntity
  8
部品1
100
AcDbLine
 10
1703.101915364636
 20
9582.421310507333
 30
0.0
 11
1703.101915364636
 21
9554.421310507335
 31
0.0
  0
LINE
  5
16322
330
747D
100
AcDbEntity
  8
部品1
100
AcDbLine
 10
1703.101915364668
 20
9582.421310507367
 30
0.0
 11
1703.101915364668
 21
9554.421310507366
 31
0.0
  0
LINE
  5
16323
330
747D
100
AcDbEntity
  8
部品1
100
AcDbLine
 10
1676.101915364636
 20
9527.421310507337
 30
0.0
 11
1648.101915364636
 21
9527.421310507337
 31
0.0
  0
LINE
  5
16324
330
747D
100
AcDbEntity
  8
部品1
100
AcDbLine
 10
7383.101915364669
 20
9582.42131050763
 30
0.0
 11
7383.101915364669
 21
9554.421310507629
 31
0.0
  0
LINE
  5
16325
330
747D
100
AcDbEntity
  8
部品1
100
AcDbLine
 10
7383.101915364669
 20
9582.421310507513
 30
0.0
 11
7383.101915364669
 21
9554.421310507512
 31
0.0
  0
LINE
  5
16326
330
747D
100
AcDbEntity
  8
部品1
100
AcDbLine
 10
7383.101915364669
 20
9582.421310507513
 30
0.0
 11
7383.101915364669
 21
9554.421310507512
 31
0.0
  0
LINE
  5
16329
330
747D
100
AcDbEntity
  8
部品1
100
AcDbLine
 10
7803.101915364668
 20
9582.42131050763
 30
0.0
 11
7803.101915364668
 21
9554.421310507629
 31
0.0
  0
LINE
  5
1632A
330
747D
100
AcDbEntity
  8
部品1
100
AcDbLine
 10
7803.101915364668
 20
9582.421310507513
 30
0.0
 11
7803.101915364668
 21
9554.421310507512
 31
0.0
  0
LINE
  5
1632B
330
747D
100
AcDbEntity
  8
部品1
100
AcDbLine
 10
7803.101915364668
 20
9582.421310507513
 30
0.0
 11
7803.101915364668
 21
9554.421310507512
 31
0.0
  0
LINE
  5
1632C
330
747D
100
AcDbEntity
  8
部品1
100
AcDbLine
 10
8223.101915364669
 20
9582.42131050763
 30
0.0
 11
8223.101915364669
 21
9554.421310507629
 31
0.0
  0
LINE
  5
16332
330
747D
100
AcDbEntity
  8
部品1
100
AcDbLine
 10
8643.101915364669
 20
9582.42131050763
 30
0.0
 11
8643.101915364669
 21
9554.421310507629
 31
0.0
  0
DIMENSION
  5
16333
330
747D
100
AcDbEntity
  8
寸法
100
AcDbDimension
  2
*D13
 10
9538.10191536467
 20
9998.229530132592
 30
0.0
 11
9846.587196738909
 21
9998.229530132592
 31
0.0
 70
   160
 71
     5
 42
55.0
  3
INABA_S40G
100
AcDbAlignedDimension
 13
9483.10191536467
 23
9582.421310507607
 33
0.0
 14
9538.10191536467
 24
9582.421310507607
 34
0.0
100
AcDbRotatedDimension
1001
ACAD
1000
DSTYLE
1002
{
1002
}
  0
LINE
  5
16334
330
747D
100
AcDbEntity
  8
部品1
100
AcDbLine
 10
9063.101915364669
 20
9582.42131050763
 30
0.0
 11
9063.101915364669
 21
9554.421310507629
 31
0.0
  0
LINE
  5
16335
330
747D
100
AcDbEntity
  8
部品1
100
AcDbLine
 10
9483.10191536467
 20
9582.421310507607
 30
0.0
 11
9483.10191536467
 21
9554.421310507606
 31
0.0
  0
LINE
  5
16336
330
747D
100
AcDbEntity
  8
部品1
100
AcDbLine
 10
9483.10191536467
 20
9582.42131050763
 30
0.0
 11
9483.10191536467
 21
9554.421310507629
 31
0.0
  0
LINE
  5
16337
330
747D
100
AcDbEntity
  8
部品1
100
AcDbLine
 10
9510.101915364669
 20
9527.421310507611
 30
0.0
 11
9538.10191536467
 21
9527.421310507611
 31
0.0
  0
DIMENSION
  5
1659A
330
747D
100
AcDbEntity
  8
寸法
 48
50.0
100
AcDbDimension
  2
*D15
 10
6805.101915364645
 20
7257.990539741344
 30
0.0
 11
6694.139017715897
 21
7357.990539741344
 31
0.0
 70
   160
 71
     5
 42
48.00000000000181
  3
INABA_S40G
100
AcDbAlignedDimension
 13
6853.101915364646
 23
7792.421310507596
 33
0.0
 14
6805.101915364645
 24
7818.421310507509
 34
0.0
100
AcDbRotatedDimension
1001
ACAD
1000
DSTYLE
1002
{
1070
   279
1070
     2
1002
}
  0
DIMENSION
  5
1659C
330
747D
100
AcDbEntity
  8
寸法
 48
50.0
100
AcDbDimension
  2
*D14
 10
1703.101915364659
 20
7257.990539741197
 30
0.0
 11
1864.00388636472
 21
7357.990539741196
 31
0.0
 70
   160
 71
     5
 42
48.00000000000363
  3
INABA_S40G
100
AcDbAlignedDimension
 13
1751.101915364663
 23
7818.42131050736
 33
0.0
 14
1703.101915364659
 24
7792.421310507362
 34
0.0
100
AcDbRotatedDimension
1001
ACAD
1000
DSTYLE
1002
{
1070
   279
1070
     2
1002
}
  0
DIMENSION
  5
165E9
330
747D
100
AcDbEntity
  8
寸法
 48
50.0
100
AcDbDimension
  2
*D16
 10
6853.101915364646
 20
7257.990539741344
 30
0.0
 11
6908.101915364653
 21
7106.298644705113
 31
0.0
 70
   160
 71
     5
 42
110.0000000000127
  3
INABA_S40G
100
AcDbAlignedDimension
 13
6963.101915364659
 23
7792.421310507508
 33
0.0
 14
6853.101915364646
 24
7792.421310507596
 34
0.0
100
AcDbRotatedDimension
1001
ACAD
1000
DSTYLE
1002
{
1070
   279
1070
     2
1002
}
  0
LINE
  5
16656
330
747D
100
AcDbEntity
  8
部品1
100
AcDbLine
 10
6805.101915364645
 20
7857.421310507509
 30
0.0
 11
6853.101915364646
 21
7857.421310507509
 31
0.0
  0
LINE
  5
16657
330
747D
100
AcDbEntity
  8
部品1
 48
50.0
100
AcDbLine
 10
6805.101915364645
 20
7857.421310507509
 30
0.0
 11
6805.101915364645
 21
7848.421310507508
 31
0.0
  0
LINE
  5
16658
330
747D
100
AcDbEntity
  8
部品1
100
AcDbLine
 10
6805.101915364645
 20
7818.421310507509
 30
0.0
 11
6853.101915364645
 21
7818.421310507509
 31
0.0
  0
LINE
  5
16659
330
747D
100
AcDbEntity
  8
部品1
 48
50.0
100
AcDbLine
 10
6805.101915364645
 20
7818.421310507509
 30
0.0
 11
6805.101915364645
 21
7827.421310507509
 31
0.0
  0
LINE
  5
1665A
330
747D
100
AcDbEntity
  8
部品1
 48
50.0
100
AcDbLine
 10
6843.101915364645
 20
7818.421310507509
 30
0.0
 11
6853.101915364645
 21
7797.421310507509
 31
0.0
  0
LINE
  5
1665B
330
747D
100
AcDbEntity
  8
部品1
100
AcDbLine
 10
6853.101915364645
 20
7828.421310507505
 30
0.0
 11
6876.101915364644
 21
7828.421310507507
 31
0.0
  0
LINE
  5
1665C
330
747D
100
AcDbEntity
  8
部品1
100
AcDbLine
 10
7011.101915364664
 20
7857.421310507509
 30
0.0
 11
6963.101915364664
 21
7857.421310507509
 31
0.0
  0
LINE
  5
1665D
330
747D
100
AcDbEntity
  8
部品1
 48
50.0
100
AcDbLine
 10
7011.101915364664
 20
7857.421310507509
 30
0.0
 11
7011.101915364664
 21
7848.421310507508
 31
0.0
  0
LINE
  5
1665E
330
747D
100
AcDbEntity
  8
部品1
100
AcDbLine
 10
7011.101915364664
 20
7818.421310507509
 30
0.0
 11
6963.101915364664
 21
7818.421310507509
 31
0.0
  0
LINE
  5
1665F
330
747D
100
AcDbEntity
  8
部品1
 48
50.0
100
AcDbLine
 10
6973.101915364662
 20
7818.421310507509
 30
0.0
 11
6963.101915364664
 21
7797.421310507509
 31
0.0
  0
LINE
  5
16660
330
747D
100
AcDbEntity
  8
部品1
100
AcDbLine
 10
6963.101915364662
 20
7828.421310507507
 30
0.0
 11
6940.101915364663
 21
7828.421310507507
 31
0.0
  0
LINE
  5
16661
330
747D
100
AcDbEntity
  8
部品1
 48
50.0
100
AcDbLine
 10
6963.101915364664
 20
7857.421310507508
 30
0.0
 11
6963.101915364659
 21
7792.421310507508
 31
0.0
  0
LINE
  5
16662
330
747D
100
AcDbEntity
  8
部品1
 48
50.0
100
AcDbLine
 10
7011.101915364664
 20
7818.421310507509
 30
0.0
 11
7011.101915364664
 21
7827.421310507509
 31
0.0
  0
LINE
  5
16663
330
747D
100
AcDbEntity
  8
部品1
100
AcDbLine
 10
6963.101915364657
 20
7792.421310507508
 30
0.0
 11
6853.101915364648
 21
7792.421310507501
 31
0.0
  0
LINE
  5
16664
330
747D
100
AcDbEntity
  8
部品1
 48
50.0
100
AcDbLine
 10
6853.101915364651
 20
7857.421310507596
 30
0.0
 11
6853.101915364646
 21
7792.421310507596
 31
0.0
  0
LINE
  5
16666
330
747D
100
AcDbEntity
  8
部品1
100
AcDbLine
 10
6963.101915364669
 20
9582.421310507513
 30
0.0
 11
6963.101915364669
 21
9554.421310507512
 31
0.0
  0
LINE
  5
16692
330
747D
100
AcDbEntity
  8
部品1
100
AcDbLine
 10
6853.101915364671
 20
9582.421310507607
 30
0.0
 11
6853.101915364671
 21
9554.421310507606
 31
0.0
  0
DIMENSION
  5
166DD
330
747D
100
AcDbEntity
  8
寸法
 48
50.0
100
AcDbDimension
  2
*D17
 10
6853.101915364671
 20
9998.229530132611
 30
0.0
 11
6908.101915364669
 21
10098.22953013261
 31
0.0
 70
    32
 71
     5
 42
109.9999999999982
  3
INABA_S40G
100
AcDbAlignedDimension
 13
6963.101915364669
 23
9582.421310507561
 33
0.0
 14
6853.101915364671
 24
9582.421310507559
 34
0.0
100
AcDbRotatedDimension
1001
ACAD
1000
DSTYLE
1002
{
1070
   279
1070
     2
1002
}
  0
LINE
  5
16760
330
747D
100
AcDbEntity
  8
部品1
 48
50.0
100
AcDbLine
 10
6908.101915364635
 20
9554.421310507555
 30
0.0
 11
6880.101915364638
 21
9582.421310507609
 31
0.0
  0
LINE
  5
16761
330
747D
100
AcDbEntity
  8
部品1
100
AcDbLine
 10
6936.101915364638
 20
9527.421310507529
 30
0.0
 11
6880.101915364638
 21
9527.421310507529
 31
0.0
  0
LINE
  5
16762
330
747D
100
AcDbEntity
  8
部品1
 48
50.0
100
AcDbLine
 10
6880.101915364638
 20
9554.42131050766
 30
0.0
 11
6880.101915364637
 21
9582.421310507609
 31
0.0
  0
LINE
  5
16763
330
747D
100
AcDbEntity
  8
部品1
 48
50.0
100
AcDbLine
 10
6880.101915364638
 20
9554.421310507555
 30
0.0
 11
6908.101915364635
 21
9554.421310507555
 31
0.0
  0
LINE
  5
168C3
330
747D
100
AcDbEntity
  8
部品1
100
AcDbLine
 10
6932.101915364654
 20
7847.421310507505
 30
0.0
 11
6884.101915364654
 21
7847.421310507503
 31
0.0
  0
LINE
  5
168C4
330
747D
100
AcDbEntity
  8
部品1
 48
50.0
100
AcDbLine
 10
6884.101915364654
 20
7847.421310507505
 30
0.0
 11
6884.101915364657
 21
7792.421310507505
 31
0.0
  0
LINE
  5
168C5
330
747D
100
AcDbEntity
  8
部品1
 48
50.0
100
AcDbLine
 10
6932.101915364654
 20
7847.421310507505
 30
0.0
 11
6932.101915364658
 21
7792.421310507505
 31
0.0
  0
DIMENSION
  5
16913
330
747D
100
AcDbEntity
  8
寸法
 48
50.0
100
AcDbDimension
  2
*D18
 10
9538.10191536467
 20
10247.5510036889
 30
0.0
 11
8223.10191536467
 21
10347.56281471252
 31
0.0
 70
    32
 71
     5
 42
2630.0
  3
INABA_S40G
100
AcDbAlignedDimension
 13
6908.101915364671
 23
10157.21744449055
 33
0.0
 14
9538.10191536467
 24
9582.421310507607
 34
0.0
100
AcDbRotatedDimension
1001
ACAD
1000
DSTYLE
1002
{
1070
   279
1070
     2
1002
}
  0
LINE
  5
16C81
330
747D
100
AcDbEntity
  8
部品1
100
AcDbLine
 10
1676.10191536465
 20
8687.421310507337
 30
0.0
 11
1648.10191536465
 21
8687.421310507337
 31
0.0
  0
LINE
  5
16C82
330
747D
100
AcDbEntity
  8
部品1
100
AcDbLine
 10
9510.101915364675
 20
8687.421310507611
 30
0.0
 11
9538.101915364675
 21
8687.421310507611
 31
0.0
  0
LINE
  5
16FDA
330
747D
100
AcDbEntity
  8
部品1
100
AcDbLine
 10
1676.10191536465
 20
8267.421310507335
 30
0.0
 11
1648.10191536465
 21
8267.421310507335
 31
0.0
  0
LINE
  5
16FDB
330
747D
100
AcDbEntity
  8
部品1
100
AcDbLine
 10
9510.101915364675
 20
8267.421310507611
 30
0.0
 11
9538.101915364675
 21
8267.421310507611
 31
0.0
  0
LINE
  5
17C67
330
747D
100
AcDbEntity
  8
部品1
100
AcDbLine
 10
4753.101915364669
 20
9582.421310507482
 30
0.0
 11
4753.101915364669
 21
9554.421310507484
 31
0.0
  0
LINE
  5
17C68
330
747D
100
AcDbEntity
  8
部品1
100
AcDbLine
 10
4753.101915364669
 20
9582.421310507367
 30
0.0
 11
4753.101915364669
 21
9554.421310507366
 31
0.0
  0
LINE
  5
17C69
330
747D
100
AcDbEntity
  8
部品1
100
AcDbLine
 10
4753.101915364669
 20
9582.421310507367
 30
0.0
 11
4753.101915364669
 21
9554.421310507366
 31
0.0
  0
LINE
  5
17C6A
330
747D
100
AcDbEntity
  8
部品1
100
AcDbLine
 10
5173.101915364668
 20
9582.421310507482
 30
0.0
 11
5173.101915364668
 21
9554.421310507484
 31
0.0
  0
LINE
  5
17C6B
330
747D
100
AcDbEntity
  8
部品1
100
AcDbLine
 10
5173.101915364668
 20
9582.421310507367
 30
0.0
 11
5173.101915364668
 21
9554.421310507366
 31
0.0
  0
LINE
  5
17C6C
330
747D
100
AcDbEntity
  8
部品1
100
AcDbLine
 10
5173.101915364668
 20
9582.421310507367
 30
0.0
 11
5173.101915364668
 21
9554.421310507366
 31
0.0
  0
LINE
  5
17C83
330
747D
100
AcDbEntity
  8
部品1
100
AcDbLine
 10
5593.101915364669
 20
9582.421310507482
 30
0.0
 11
5593.101915364669
 21
9554.421310507484
 31
0.0
  0
LINE
  5
17C84
330
747D
100
AcDbEntity
  8
部品1
100
AcDbLine
 10
6013.101915364668
 20
9582.421310507482
 30
0.0
 11
6013.101915364668
 21
9554.421310507484
 31
0.0
  0
LINE
  5
17C85
330
747D
100
AcDbEntity
  8
部品1
100
AcDbLine
 10
6433.101915364668
 20
9582.421310507482
 30
0.0
 11
6433.101915364668
 21
9554.421310507484
 31
0.0
  0
LINE
  5
17C94
330
747D
100
AcDbEntity
  8
部品1
100
AcDbLine
 10
6936.101915364638
 20
9527.421310507381
 30
0.0
 11
6880.101915364638
 21
9527.421310507381
 31
0.0
  0
LINE
  5
17C97
330
747D
100
AcDbEntity
  8
部品1
100
AcDbLine
 10
6853.101915364671
 20
9582.421310507461
 30
0.0
 11
6853.101915364671
 21
9554.421310507462
 31
0.0
  0
LINE
  5
17C98
330
747D
100
AcDbEntity
  8
部品1
 48
50.0
100
AcDbLine
 10
6908.101915364635
 20
9554.421310507406
 30
0.0
 11
6880.101915364638
 21
9582.421310507461
 31
0.0
  0
LINE
  5
17C99
330
747D
100
AcDbEntity
  8
部品1
 48
50.0
100
AcDbLine
 10
6880.101915364638
 20
9554.421310507512
 30
0.0
 11
6880.101915364637
 21
9582.421310507461
 31
0.0
  0
LINE
  5
17C9A
330
747D
100
AcDbEntity
  8
部品1
 48
50.0
100
AcDbLine
 10
6880.101915364638
 20
9554.421310507406
 30
0.0
 11
6908.101915364635
 21
9554.421310507411
 31
0.0
  0
DIMENSION
  5
17C9D
330
747D
100
AcDbEntity
  8
寸法
 48
50.0
100
AcDbDimension
  2
*D19
 10
6805.101915364645
 20
7257.990539741197
 30
0.0
 11
6694.139017715897
 21
7357.990539741196
 31
0.0
 70
   160
 71
     5
 42
48.00000000000181
  3
INABA_S40G
100
AcDbAlignedDimension
 13
6853.101915364646
 23
7792.421310507449
 33
0.0
 14
6805.101915364645
 24
7818.42131050736
 34
0.0
100
AcDbRotatedDimension
1001
ACAD
1000
DSTYLE
1002
{
1070
   279
1070
     2
1002
}
  0
LINE
  5
17CA2
330
747D
100
AcDbEntity
  8
部品1
100
AcDbLine
 10
6805.101915364645
 20
7857.421310507361
 30
0.0
 11
6853.101915364646
 21
7857.421310507361
 31
0.0
  0
LINE
  5
17CA3
330
747D
100
AcDbEntity
  8
部品1
100
AcDbLine
 10
6805.101915364645
 20
7818.42131050736
 30
0.0
 11
6853.101915364645
 21
7818.42131050736
 31
0.0
  0
LINE
  5
17CA4
330
747D
100
AcDbEntity
  8
部品1
 48
50.0
100
AcDbLine
 10
6805.101915364645
 20
7857.421310507361
 30
0.0
 11
6805.101915364645
 21
7848.421310507362
 31
0.0
  0
LINE
  5
17CA5
330
747D
100
AcDbEntity
  8
部品1
 48
50.0
100
AcDbLine
 10
6805.101915364645
 20
7818.42131050736
 30
0.0
 11
6805.101915364645
 21
7827.421310507361
 31
0.0
  0
LINE
  5
17CA6
330
747D
100
AcDbEntity
  8
部品1
 48
50.0
100
AcDbLine
 10
6843.101915364645
 20
7818.42131050736
 30
0.0
 11
6853.101915364645
 21
7797.421310507361
 31
0.0
  0
LINE
  5
17CAA
330
747D
100
AcDbEntity
  8
部品1
 48
50.0
100
AcDbLine
 10
6853.101915364651
 20
7857.421310507449
 30
0.0
 11
6853.101915364646
 21
7792.421310507449
 31
0.0
  0
LINE
  5
17CAF
330
747D
100
AcDbEntity
  8
部品1
100
AcDbLine
 10
6963.101915364657
 20
7792.421310507362
 30
0.0
 11
6853.101915364648
 21
7792.421310507354
 31
0.0
  0
LINE
  5
17D72
330
747D
100
AcDbEntity
  8
部品1
100
AcDbLine
 10
1676.101915364656
 20
9554.421310507477
 30
0.0
 11
2950.601915364666
 21
9554.421310507475
 31
0.0
  0
LINE
  5
17D73
330
747D
100
AcDbEntity
  8
部品1
100
AcDbLine
 10
1648.101915364636
 20
9582.421310507413
 30
0.0
 11
9538.10191536467
 21
9582.421310507607
 31
0.0
  0
LINE
  5
19F29
330
747D
100
AcDbEntity
  8
部品1
 48
50.0
100
AcDbLine
 10
6936.101915364638
 20
9527.421310507529
 30
0.0
 11
6936.101915364699
 21
9582.421310507593
 31
0.0
  0
LINE
  5
19F2A
330
747D
100
AcDbEntity
  8
部品1
 48
50.0
100
AcDbLine
 10
6880.101915364638
 20
9527.421310507529
 30
0.0
 11
6880.10191536467
 21
9554.421310507606
 31
0.0
  0
LINE
  5
19F2B
330
747D
100
AcDbEntity
  8
部品1
 48
50.0
100
AcDbLine
 10
6936.101915364638
 20
9527.421310507381
 30
0.0
 11
6936.101915364638
 21
9582.421310507429
 31
0.0
  0
LINE
  5
19F2C
330
747D
100
AcDbEntity
  8
部品1
 48
50.0
100
AcDbLine
 10
6880.101915364638
 20
9527.421310507381
 30
0.0
 11
6880.101915364637
 21
9582.421310507465
 31
0.0
  0
LINE
  5
19F31
330
747D
100
AcDbEntity
  8
部品1
 48
50.0
100
AcDbLine
 10
1703.101915364659
 20
7877.421310507362
 30
0.0
 11
4223.101915364667
 21
7877.421310507291
 31
0.0
  0
LINE
  5
19F32
330
747D
100
AcDbEntity
  8
部品1
 48
50.0
100
AcDbLine
 10
1703.101915364659
 20
7922.421310507361
 30
0.0
 11
4223.101915364667
 21
7922.421310507292
 31
0.0
  0
LINE
  5
19F33
330
747D
100
AcDbEntity
  8
破線
 48
10.0
100
AcDbLine
 10
4358.101915364523
 20
7947.42131050736
 30
0.0
 11
5152.601915364563
 21
7947.421310507315
 31
0.0
  0
LINE
  5
19F35
330
747D
100
AcDbEntity
  8
破線
 48
10.0
100
AcDbLine
 10
5152.601915364563
 20
7922.421310507316
 30
0.0
 11
5152.601915364654
 21
9102.421310507436
 31
0.0
  0
LINE
  5
19F36
330
747D
100
AcDbEntity
  8
破線
 48
10.0
100
AcDbLine
 10
5202.601915364559
 20
7922.421310507314
 30
0.0
 11
5202.601915364652
 21
9102.421310507439
 31
0.0
  0
LINE
  5
19F37
330
747D
100
AcDbEntity
  8
破線
 48
10.0
100
AcDbLine
 10
6033.60191536456
 20
7922.421310507266
 30
0.0
 11
6033.601915364653
 21
9102.421310507471
 31
0.0
  0
LINE
  5
19F38
330
747D
100
AcDbEntity
  8
破線
 48
10.0
100
AcDbLine
 10
5983.601915364562
 20
7922.421310507271
 30
0.0
 11
5983.601915364654
 21
9102.421310507471
 31
0.0
  0
LINE
  5
19F39
330
747D
100
AcDbEntity
  8
破線
 48
10.0
100
AcDbLine
 10
6033.601915364563
 20
7947.421310507265
 30
0.0
 11
6828.101915364538
 21
7947.42131050722
 31
0.0
  0
LINE
  5
19F3A
330
747D
100
AcDbEntity
  8
部品1
 48
50.0
100
AcDbLine
 10
4333.101915364659
 20
8267.421310507335
 30
0.0
 11
6853.101915364665
 21
8267.421310507332
 31
0.0
  0
LINE
  5
19F3C
330
747D
100
AcDbEntity
  8
破線
 48
10.0
100
AcDbLine
 10
6828.101915364536
 20
7947.42131050722
 30
0.0
 11
6828.101915364628
 21
9102.421310507464
 31
0.0
  0
LINE
  5
19F41
330
747D
100
AcDbEntity
  8
部品1
 48
50.0
100
AcDbLine
 10
4333.101915364659
 20
8687.421310507337
 30
0.0
 11
6853.101915364667
 21
8687.421310507337
 31
0.0
  0
LINE
  5
19F52
330
747D
100
AcDbEntity
  8
部品1
 48
50.0
100
AcDbLine
 10
9483.101915364681
 20
8687.421310507483
 30
0.0
 11
6963.101915364676
 21
8687.421310507479
 31
0.0
  0
LINE
  5
19F53
330
747D
100
AcDbEntity
  8
部品1
 48
50.0
100
AcDbLine
 10
9483.101915364681
 20
8267.421310507483
 30
0.0
 11
6963.101915364676
 21
8267.421310507479
 31
0.0
  0
LINE
  5
19F54
330
747D
100
AcDbEntity
  8
破線
 48
10.0
100
AcDbLine
 10
8613.60191536478
 20
7947.421310507458
 30
0.0
 11
7832.601915364778
 21
7947.421310507412
 31
0.0
  0
LINE
  5
19F55
330
747D
100
AcDbEntity
  8
部品1
 48
50.0
100
AcDbLine
 10
9483.101915364681
 20
7922.421310507506
 30
0.0
 11
6963.101915364695
 21
7922.421310507367
 31
0.0
  0
LINE
  5
19F56
330
747D
100
AcDbEntity
  8
破線
 48
10.0
100
AcDbLine
 10
9458.101915364817
 20
7947.421310507507
 30
0.0
 11
9458.101915364728
 21
9102.421310507557
 31
0.0
  0
LINE
  5
19F57
330
747D
100
AcDbEntity
  8
破線
 48
10.0
100
AcDbLine
 10
8613.60191536478
 20
7922.421310507459
 30
0.0
 11
8613.601915364688
 21
9102.421310507564
 31
0.0
  0
LINE
  5
19F58
330
747D
100
AcDbEntity
  8
破線
 48
10.0
100
AcDbLine
 10
8663.601915364777
 20
7922.421310507464
 30
0.0
 11
8663.601915364687
 21
9102.421310507564
 31
0.0
  0
LINE
  5
19F59
330
747D
100
AcDbEntity
  8
部品1
100
AcDbLine
 10
9483.101915364693
 20
9102.421310507557
 30
0.0
 11
9483.101915364681
 21
7828.421310507505
 31
0.0
  0
LINE
  5
19F5A
330
747D
100
AcDbEntity
  8
破線
 48
10.0
100
AcDbLine
 10
9458.101915364817
 20
7947.421310507507
 30
0.0
 11
8663.601915364777
 21
7947.421310507461
 31
0.0
  0
LINE
  5
19F5D
330
747D
100
AcDbEntity
  8
部品1
100
AcDbLine
 10
6963.101915364676
 20
7857.421310507508
 30
0.0
 11
6963.101915364674
 21
9102.421310507459
 31
0.0
  0
LINE
  5
19F5E
330
747D
100
AcDbEntity
  8
破線
 48
10.0
100
AcDbLine
 10
6988.101915364805
 20
7947.421310507367
 30
0.0
 11
6988.101915364713
 21
9102.421310507462
 31
0.0
  0
LINE
  5
19F5F
330
747D
100
AcDbEntity
  8
破線
 48
10.0
100
AcDbLine
 10
7832.601915364779
 20
7922.421310507416
 30
0.0
 11
7832.601915364688
 21
9102.421310507532
 31
0.0
  0
LINE
  5
19F60
330
747D
100
AcDbEntity
  8
破線
 48
10.0
100
AcDbLine
 10
7782.601915364782
 20
7922.421310507413
 30
0.0
 11
7782.601915364686
 21
9102.421310507525
 31
0.0
  0
LINE
  5
19F61
330
747D
100
AcDbEntity
  8
破線
 48
10.0
100
AcDbLine
 10
7782.601915364778
 20
7947.42131050741
 30
0.0
 11
6988.101915364802
 21
7947.421310507367
 31
0.0
  0
LINE
  5
19F64
330
747D
100
AcDbEntity
  8
部品1
 48
50.0
100
AcDbLine
 10
9483.101915364681
 20
7877.421310507507
 30
0.0
 11
6963.101915364695
 21
7877.421310507367
 31
0.0
  0
LINE
  5
19F65
330
747D
100
AcDbEntity
  8
部品1
 48
50.0
100
AcDbLine
 10
9483.101915364681
 20
7792.421310507506
 30
0.0
 11
6963.101915364695
 21
7792.421310507368
 31
0.0
  0
LINE
  5
19F7E
330
747D
100
AcDbEntity
  8
部品1
100
AcDbLine
 10
6880.101915364652
 20
9527.421310507529
 30
0.0
 11
6880.10191536464
 21
7792.421310507504
 31
0.0
  0
LINE
  5
19F7F
330
747D
100
AcDbEntity
  8
部品1
100
AcDbLine
 10
6936.101915364632
 20
7792.421310507506
 30
0.0
 11
6936.101915364652
 21
9527.421310507529
 31
0.0
  0
LINE
  5
19F80
330
747D
100
AcDbEntity
  8
部品1
100
AcDbLine
 10
6853.101915364665
 20
7857.421310507508
 30
0.0
 11
6853.101915364665
 21
9102.421310507464
 31
0.0
  0
LINE
  5
19F93
330
747D
100
AcDbEntity
  8
部品1
 48
50.0
100
AcDbLine
 10
6963.101915364659
 20
7792.421310507362
 30
0.0
 11
6853.101915364646
 21
7792.421310507368
 31
0.0
  0
LINE
  5
19FEA
330
747D
100
AcDbEntity
  8
部品1
 48
50.0
100
AcDbLine
 10
9483.101915364645
 20
7828.421310507505
 30
0.0
 11
9483.101915364681
 21
7792.421310507506
 31
0.0
  0
LINE
  5
1A476
330
747D
100
AcDbEntity
  8
部品1
 48
50.0
100
AcDbLine
 10
1703.101915364659
 20
8687.421310507337
 30
0.0
 11
4223.101915364664
 21
8687.421310507334
 31
0.0
  0
LINE
  5
1A477
330
747D
100
AcDbEntity
  8
部品1
 48
50.0
100
AcDbLine
 10
1703.101915364659
 20
8267.421310507335
 30
0.0
 11
4223.101915364664
 21
8267.421310507335
 31
0.0
  0
LINE
  5
1A478
330
747D
100
AcDbEntity
  8
破線
 48
10.0
100
AcDbLine
 10
1728.101915364523
 20
7947.42131050736
 30
0.0
 11
2522.601915364563
 21
7947.421310507315
 31
0.0
  0
LINE
  5
1A479
330
747D
100
AcDbEntity
  8
破線
 48
10.0
100
AcDbLine
 10
1728.101915364523
 20
7947.42131050736
 30
0.0
 11
1728.101915364615
 21
9102.421310507336
 31
0.0
  0
LINE
  5
1A47A
330
747D
100
AcDbEntity
  8
部品1
100
AcDbLine
 10
2123.101915364669
 20
9582.421310507482
 30
0.0
 11
2123.101915364669
 21
9554.421310507484
 31
0.0
  0
LINE
  5
1A47B
330
747D
100
AcDbEntity
  8
部品1
100
AcDbLine
 10
2123.101915364669
 20
9582.421310507367
 30
0.0
 11
2123.101915364669
 21
9554.421310507366
 31
0.0
  0
LINE
  5
1A47C
330
747D
100
AcDbEntity
  8
部品1
100
AcDbLine
 10
2123.101915364669
 20
9582.421310507367
 30
0.0
 11
2123.101915364669
 21
9554.421310507366
 31
0.0
  0
LINE
  5
1A47D
330
747D
100
AcDbEntity
  8
破線
 48
10.0
100
AcDbLine
 10
2522.601915364563
 20
7922.421310507316
 30
0.0
 11
2522.601915364654
 21
9102.4213105074
 31
0.0
  0
LINE
  5
1A47E
330
747D
100
AcDbEntity
  8
破線
 48
10.0
100
AcDbLine
 10
2572.60191536456
 20
7922.421310507314
 30
0.0
 11
2572.601915364652
 21
9102.421310507406
 31
0.0
  0
LINE
  5
1A47F
330
747D
100
AcDbEntity
  8
破線
 48
10.0
100
AcDbLine
 10
3403.60191536456
 20
7922.421310507266
 30
0.0
 11
3403.601915364652
 21
9102.421310507436
 31
0.0
  0
LINE
  5
1A480
330
747D
100
AcDbEntity
  8
破線
 48
10.0
100
AcDbLine
 10
3353.601915364561
 20
7922.421310507271
 30
0.0
 11
3353.601915364655
 21
9102.421310507434
 31
0.0
  0
LINE
  5
1A481
330
747D
100
AcDbEntity
  8
破線
 48
10.0
100
AcDbLine
 10
4198.101915364535
 20
7947.42131050722
 30
0.0
 11
4198.101915364627
 21
9102.421310507429
 31
0.0
  0
LINE
  5
1A483
330
747D
100
AcDbEntity
  8
部品1
100
AcDbLine
 10
4333.101915364675
 20
7857.421310507508
 30
0.0
 11
4333.101915364674
 21
9102.421310507368
 31
0.0
  0
LINE
  5
1A484
330
747D
100
AcDbEntity
  8
破線
 48
10.0
100
AcDbLine
 10
4358.101915364804
 20
7947.421310507367
 30
0.0
 11
4358.101915364714
 21
9102.421310507372
 31
0.0
  0
LINE
  5
1A485
330
747D
100
AcDbEntity
  8
部品1
100
AcDbLine
 10
4250.101915364652
 20
9527.421310507529
 30
0.0
 11
4250.10191536464
 21
7792.421310507504
 31
0.0
  0
LINE
  5
1A486
330
747D
100
AcDbEntity
  8
部品1
100
AcDbLine
 10
4306.101915364632
 20
7792.421310507506
 30
0.0
 11
4306.101915364652
 21
9527.421310507529
 31
0.0
  0
LINE
  5
1A487
330
747D
100
AcDbEntity
  8
部品1
100
AcDbLine
 10
4223.101915364664
 20
7857.421310507508
 30
0.0
 11
4223.101915364667
 21
9102.42131050743
 31
0.0
  0
LINE
  5
1A488
330
747D
100
AcDbEntity
  8
破線
 48
10.0
100
AcDbLine
 10
3403.601915364563
 20
7947.421310507265
 30
0.0
 11
4198.101915364538
 21
7947.42131050722
 31
0.0
  0
LINE
  5
1A489
330
747D
100
AcDbEntity
  8
破線
 48
10.0
100
AcDbLine
 10
2572.60191536456
 20
7947.421310507312
 30
0.0
 11
3353.601915364563
 21
7947.421310507266
 31
0.0
  0
DIMENSION
  5
1A48A
330
747D
100
AcDbEntity
  8
寸法
 48
50.0
100
AcDbDimension
  2
*D24
 10
4175.101915364645
 20
7257.990539741197
 30
0.0
 11
4064.139017715898
 21
7357.990539741196
 31
0.0
 70
   160
 71
     5
 42
48.00000000000181
  3
INABA_S40G
100
AcDbAlignedDimension
 13
4223.101915364646
 23
7792.421310507449
 33
0.0
 14
4175.101915364645
 24
7818.42131050736
 34
0.0
100
AcDbRotatedDimension
1001
ACAD
1000
DSTYLE
1002
{
1070
   279
1070
     2
1002
}
  0
DIMENSION
  5
1A48B
330
747D
100
AcDbEntity
  8
寸法
 48
50.0
100
AcDbDimension
  2
*D22
 10
4223.101915364646
 20
7257.990539741344
 30
0.0
 11
4278.101915364653
 21
7106.298644705113
 31
0.0
 70
   160
 71
     5
 42
110.0000000000127
  3
INABA_S40G
100
AcDbAlignedDimension
 13
4333.101915364659
 23
7792.421310507508
 33
0.0
 14
4223.101915364646
 24
7792.421310507596
 34
0.0
100
AcDbRotatedDimension
1001
ACAD
1000
DSTYLE
1002
{
1070
   279
1070
     2
1002
}
  0
DIMENSION
  5
1A48C
330
747D
100
AcDbEntity
  8
寸法
 48
50.0
100
AcDbDimension
  2
*D21
 10
4175.101915364645
 20
7257.990539741344
 30
0.0
 11
4064.139017715898
 21
7357.990539741344
 31
0.0
 70
   160
 71
     5
 42
48.00000000000181
  3
INABA_S40G
100
AcDbAlignedDimension
 13
4223.101915364646
 23
7792.421310507596
 33
0.0
 14
4175.101915364645
 24
7818.421310507509
 34
0.0
100
AcDbRotatedDimension
1001
ACAD
1000
DSTYLE
1002
{
1070
   279
1070
     2
1002
}
  0
DIMENSION
  5
1A48D
330
747D
100
AcDbEntity
  8
寸法
 48
50.0
100
AcDbDimension
  2
*D20
 10
4333.101915364659
 20
7257.990539741344
 30
0.0
 11
4494.00388636472
 21
7357.990539741344
 31
0.0
 70
   160
 71
     5
 42
48.00000000000363
  3
INABA_S40G
100
AcDbAlignedDimension
 13
4381.101915364663
 23
7818.421310507509
 33
0.0
 14
4333.101915364659
 24
7792.421310507508
 34
0.0
100
AcDbRotatedDimension
1001
ACAD
1000
DSTYLE
1002
{
1070
   279
1070
     2
1002
}
  0
LINE
  5
1A48E
330
747D
100
AcDbEntity
  8
部品1
 48
50.0
100
AcDbLine
 10
4333.101915364659
 20
7792.421310507362
 30
0.0
 11
4223.101915364646
 21
7792.421310507368
 31
0.0
  0
LINE
  5
1A48F
330
747D
100
AcDbEntity
  8
部品1
100
AcDbLine
 10
4333.101915364657
 20
7792.421310507362
 30
0.0
 11
4223.101915364648
 21
7792.421310507354
 31
0.0
  0
LINE
  5
1A490
330
747D
100
AcDbEntity
  8
部品1
100
AcDbLine
 10
4333.101915364657
 20
7792.421310507508
 30
0.0
 11
4223.101915364648
 21
7792.421310507501
 31
0.0
  0
LINE
  5
1A491
330
747D
100
AcDbEntity
  8
部品1
 48
50.0
100
AcDbLine
 10
4223.10191536465
 20
7857.421310507449
 30
0.0
 11
4223.101915364646
 21
7792.421310507449
 31
0.0
  0
LINE
  5
1A492
330
747D
100
AcDbEntity
  8
部品1
 48
50.0
100
AcDbLine
 10
4213.101915364645
 20
7818.42131050736
 30
0.0
 11
4223.101915364645
 21
7797.421310507361
 31
0.0
  0
LINE
  5
1A493
330
747D
100
AcDbEntity
  8
部品1
 48
50.0
100
AcDbLine
 10
4175.101915364645
 20
7818.42131050736
 30
0.0
 11
4175.101915364645
 21
7827.421310507361
 31
0.0
  0
LINE
  5
1A494
330
747D
100
AcDbEntity
  8
部品1
 48
50.0
100
AcDbLine
 10
4175.101915364645
 20
7857.421310507361
 30
0.0
 11
4175.101915364645
 21
7848.421310507362
 31
0.0
  0
LINE
  5
1A495
330
747D
100
AcDbEntity
  8
部品1
100
AcDbLine
 10
4175.101915364645
 20
7818.42131050736
 30
0.0
 11
4223.101915364645
 21
7818.42131050736
 31
0.0
  0
LINE
  5
1A496
330
747D
100
AcDbEntity
  8
部品1
100
AcDbLine
 10
4175.101915364645
 20
7857.421310507361
 30
0.0
 11
4223.101915364646
 21
7857.421310507361
 31
0.0
  0
LINE
  5
1A497
330
747D
100
AcDbEntity
  8
部品1
 48
50.0
100
AcDbLine
 10
4302.101915364654
 20
7847.421310507505
 30
0.0
 11
4302.101915364658
 21
7792.421310507505
 31
0.0
  0
LINE
  5
1A498
330
747D
100
AcDbEntity
  8
部品1
 48
50.0
100
AcDbLine
 10
4254.101915364653
 20
7847.421310507505
 30
0.0
 11
4254.101915364657
 21
7792.421310507505
 31
0.0
  0
LINE
  5
1A499
330
747D
100
AcDbEntity
  8
部品1
100
AcDbLine
 10
4302.101915364654
 20
7847.421310507505
 30
0.0
 11
4254.101915364653
 21
7847.421310507503
 31
0.0
  0
LINE
  5
1A49A
330
747D
100
AcDbEntity
  8
部品1
 48
50.0
100
AcDbLine
 10
4223.10191536465
 20
7857.421310507596
 30
0.0
 11
4223.101915364646
 21
7792.421310507596
 31
0.0
  0
LINE
  5
1A49B
330
747D
100
AcDbEntity
  8
部品1
100
AcDbLine
 10
4223.101915364645
 20
7828.421310507505
 30
0.0
 11
4246.101915364644
 21
7828.421310507507
 31
0.0
  0
LINE
  5
1A49C
330
747D
100
AcDbEntity
  8
部品1
 48
50.0
100
AcDbLine
 10
4213.101915364645
 20
7818.421310507509
 30
0.0
 11
4223.101915364645
 21
7797.421310507509
 31
0.0
  0
LINE
  5
1A49D
330
747D
100
AcDbEntity
  8
部品1
 48
50.0
100
AcDbLine
 10
4175.101915364645
 20
7818.421310507509
 30
0.0
 11
4175.101915364645
 21
7827.421310507509
 31
0.0
  0
LINE
  5
1A49E
330
747D
100
AcDbEntity
  8
部品1
100
AcDbLine
 10
4175.101915364645
 20
7818.421310507509
 30
0.0
 11
4223.101915364645
 21
7818.421310507509
 31
0.0
  0
LINE
  5
1A49F
330
747D
100
AcDbEntity
  8
部品1
 48
50.0
100
AcDbLine
 10
4175.101915364645
 20
7857.421310507509
 30
0.0
 11
4175.101915364645
 21
7848.421310507508
 31
0.0
  0
LINE
  5
1A4A0
330
747D
100
AcDbEntity
  8
部品1
100
AcDbLine
 10
4175.101915364645
 20
7857.421310507509
 30
0.0
 11
4223.101915364646
 21
7857.421310507509
 31
0.0
  0
LINE
  5
1A4A1
330
747D
100
AcDbEntity
  8
部品1
 48
50.0
100
AcDbLine
 10
4381.101915364663
 20
7818.421310507509
 30
0.0
 11
4381.101915364663
 21
7827.421310507509
 31
0.0
  0
LINE
  5
1A4A2
330
747D
100
AcDbEntity
  8
部品1
 48
50.0
100
AcDbLine
 10
4333.101915364663
 20
7857.421310507508
 30
0.0
 11
4333.101915364659
 21
7792.421310507508
 31
0.0
  0
LINE
  5
1A4A3
330
747D
100
AcDbEntity
  8
部品1
100
AcDbLine
 10
4333.101915364661
 20
7828.421310507507
 30
0.0
 11
4310.101915364663
 21
7828.421310507507
 31
0.0
  0
LINE
  5
1A4A4
330
747D
100
AcDbEntity
  8
部品1
 48
50.0
100
AcDbLine
 10
4343.101915364663
 20
7818.421310507509
 30
0.0
 11
4333.101915364663
 21
7797.421310507509
 31
0.0
  0
LINE
  5
1A4A5
330
747D
100
AcDbEntity
  8
部品1
100
AcDbLine
 10
4381.101915364663
 20
7818.421310507509
 30
0.0
 11
4333.101915364663
 21
7818.421310507509
 31
0.0
  0
LINE
  5
1A4A6
330
747D
100
AcDbEntity
  8
部品1
 48
50.0
100
AcDbLine
 10
4381.101915364663
 20
7857.421310507509
 30
0.0
 11
4381.101915364663
 21
7848.421310507508
 31
0.0
  0
LINE
  5
1A4A7
330
747D
100
AcDbEntity
  8
部品1
100
AcDbLine
 10
4381.101915364663
 20
7857.421310507509
 30
0.0
 11
4333.101915364663
 21
7857.421310507509
 31
0.0
  0
LINE
  5
1A4A8
330
747D
100
AcDbEntity
  8
部品1
100
AcDbLine
 10
2975.601915364669
 20
9554.42131050748
 30
0.0
 11
4250.10191536467
 21
9554.421310507462
 31
0.0
  0
LINE
  5
1A4AB
330
747D
100
AcDbEntity
  8
部品1
100
AcDbLine
 10
2543.101915364669
 20
9582.421310507482
 30
0.0
 11
2543.101915364669
 21
9554.421310507484
 31
0.0
  0
LINE
  5
1A4AC
330
747D
100
AcDbEntity
  8
部品1
100
AcDbLine
 10
2543.101915364669
 20
9582.421310507367
 30
0.0
 11
2543.101915364669
 21
9554.421310507366
 31
0.0
  0
LINE
  5
1A4AD
330
747D
100
AcDbEntity
  8
部品1
100
AcDbLine
 10
2543.101915364669
 20
9582.421310507367
 30
0.0
 11
2543.101915364669
 21
9554.421310507366
 31
0.0
  0
LINE
  5
1A4AE
330
747D
100
AcDbEntity
  8
部品1
100
AcDbLine
 10
2963.101915364669
 20
9582.421310507482
 30
0.0
 11
2963.101915364669
 21
9554.421310507484
 31
0.0
  0
LINE
  5
1A4AF
330
747D
100
AcDbEntity
  8
部品1
100
AcDbLine
 10
3383.101915364669
 20
9582.421310507482
 30
0.0
 11
3383.101915364669
 21
9554.421310507484
 31
0.0
  0
DIMENSION
  5
1A4B0
330
747D
100
AcDbEntity
  8
寸法
 48
50.0
100
AcDbDimension
  2
*D23
 10
4223.10191536467
 20
9998.229530132611
 30
0.0
 11
4278.101915364669
 21
10098.22953013261
 31
0.0
 70
    32
 71
     5
 42
109.9999999999982
  3
INABA_S40G
100
AcDbAlignedDimension
 13
4333.101915364668
 23
9582.421310507561
 33
0.0
 14
4223.10191536467
 24
9582.421310507559
 34
0.0
100
AcDbRotatedDimension
1001
ACAD
1000
DSTYLE
1002
{
1070
   279
1070
     2
1002
}
  0
LINE
  5
1A4B1
330
747D
100
AcDbEntity
  8
部品1
100
AcDbLine
 10
4306.101915364638
 20
9527.421310507529
 30
0.0
 11
4250.101915364637
 21
9527.421310507529
 31
0.0
  0
LINE
  5
1A4B2
330
747D
100
AcDbEntity
  8
部品1
100
AcDbLine
 10
4306.101915364638
 20
9527.421310507381
 30
0.0
 11
4250.101915364637
 21
9527.421310507381
 31
0.0
  0
LINE
  5
1A4B3
330
747D
100
AcDbEntity
  8
部品1
100
AcDbLine
 10
3803.101915364669
 20
9582.421310507482
 30
0.0
 11
3803.101915364669
 21
9554.421310507484
 31
0.0
  0
LINE
  5
1A4B4
330
747D
100
AcDbEntity
  8
部品1
100
AcDbLine
 10
4223.10191536467
 20
9582.421310507607
 30
0.0
 11
4223.10191536467
 21
9554.421310507606
 31
0.0
  0
LINE
  5
1A4B5
330
747D
100
AcDbEntity
  8
部品1
 48
50.0
100
AcDbLine
 10
4278.101915364636
 20
9554.421310507555
 30
0.0
 11
4250.101915364637
 21
9582.421310507609
 31
0.0
  0
LINE
  5
1A4B6
330
747D
100
AcDbEntity
  8
部品1
 48
50.0
100
AcDbLine
 10
4250.101915364637
 20
9554.42131050766
 30
0.0
 11
4250.101915364636
 21
9582.421310507609
 31
0.0
  0
LINE
  5
1A4B7
330
747D
100
AcDbEntity
  8
部品1
100
AcDbLine
 10
4223.10191536467
 20
9582.421310507461
 30
0.0
 11
4223.10191536467
 21
9554.421310507462
 31
0.0
  0
LINE
  5
1A4B8
330
747D
100
AcDbEntity
  8
部品1
 48
50.0
100
AcDbLine
 10
4278.101915364636
 20
9554.421310507406
 30
0.0
 11
4250.101915364637
 21
9582.421310507461
 31
0.0
  0
LINE
  5
1A4B9
330
747D
100
AcDbEntity
  8
部品1
 48
50.0
100
AcDbLine
 10
4250.101915364637
 20
9554.421310507512
 30
0.0
 11
4250.101915364636
 21
9582.421310507461
 31
0.0
  0
LINE
  5
1A4BA
330
747D
100
AcDbEntity
  8
部品1
 48
50.0
100
AcDbLine
 10
4250.101915364637
 20
9527.421310507381
 30
0.0
 11
4250.101915364636
 21
9582.421310507465
 31
0.0
  0
LINE
  5
1A4BB
330
747D
100
AcDbEntity
  8
部品1
 48
50.0
100
AcDbLine
 10
4250.101915364637
 20
9554.421310507555
 30
0.0
 11
4278.101915364636
 21
9554.421310507555
 31
0.0
  0
LINE
  5
1A4BC
330
747D
100
AcDbEntity
  8
部品1
 48
50.0
100
AcDbLine
 10
4250.101915364637
 20
9554.421310507406
 30
0.0
 11
4278.101915364636
 21
9554.421310507411
 31
0.0
  0
LINE
  5
1A4BD
330
747D
100
AcDbEntity
  8
部品1
 48
50.0
100
AcDbLine
 10
4250.101915364637
 20
9527.421310507529
 30
0.0
 11
4250.10191536467
 21
9554.421310507606
 31
0.0
  0
LINE
  5
1A4C0
330
747D
100
AcDbEntity
  8
部品1
100
AcDbLine
 10
4333.101915364668
 20
9582.421310507513
 30
0.0
 11
4333.101915364668
 21
9554.421310507512
 31
0.0
  0
LINE
  5
1A4C1
330
747D
100
AcDbEntity
  8
部品1
 48
50.0
100
AcDbLine
 10
4306.101915364638
 20
9527.421310507529
 30
0.0
 11
4306.101915364699
 21
9582.421310507593
 31
0.0
  0
LINE
  5
1A4C2
330
747D
100
AcDbEntity
  8
部品1
 48
50.0
100
AcDbLine
 10
4306.101915364638
 20
9527.421310507381
 30
0.0
 11
4306.101915364639
 21
9582.421310507429
 31
0.0
  0
LINE
  5
1A50E
330
747D
100
AcDbEntity
  8
部品1
 48
50.0
100
AcDbLine
 10
1715.101915364661
 20
7837.921310507507
 30
0.0
 11
4211.101915364646
 21
7837.921310507507
 31
0.0
  0
DIMENSION
  5
1A50F
330
747D
100
AcDbEntity
  8
寸法
 48
50.0
100
AcDbDimension
  2
*D25
 10
1751.101915364663
 20
7257.990539741344
 30
0.0
 11
2963.101915364654
 21
7358.002350764966
 31
0.0
 70
    32
  1
有効開口部間口 <>
 71
     5
 42
2423.999999999982
  3
INABA_S40G
100
AcDbAlignedDimension
 13
4175.101915364645
 23
7818.421310507509
 33
0.0
 14
1751.101915364663
 24
7818.421310507509
 34
0.0
100
AcDbRotatedDimension
1001
ACAD
1000
DSTYLE
1002
{
1070
    75
1070
     1
1070
   279
1070
     2
1002
}
  0
DIMENSION
  5
1A510
330
747D
100
AcDbEntity
  8
寸法
 48
50.0
100
AcDbDimension
  2
*D27
 10
4278.10191536467
 20
10247.5510036889
 30
0.0
 11
2963.101915364653
 21
10347.56281471252
 31
0.0
 70
    32
 71
     5
 42
2630.000000000034
  3
INABA_S40G
100
AcDbAlignedDimension
 13
1648.101915364636
 23
9582.421310507413
 33
0.0
 14
4278.10191536467
 24
10158.22953013261
 34
0.0
100
AcDbRotatedDimension
1001
ACAD
1000
DSTYLE
1002
{
1070
   279
1070
     2
1002
}
  0
DIMENSION
  5
1A511
330
747D
100
AcDbEntity
  8
寸法
100
AcDbDimension
  2
*D26
 10
4223.10191536467
 20
9998.229530132611
 30
0.0
 11
2963.101915364669
 21
10098.24134115623
 31
0.0
 70
    32
  1
6X420=<>
 71
     5
 42
2520.000000000002
  3
INABA_S40G
100
AcDbAlignedDimension
 13
1703.101915364668
 23
9582.421310507513
 33
0.0
 14
4223.10191536467
 24
9582.421310507607
 34
0.0
100
AcDbRotatedDimension
1001
ACAD
1000
DSTYLE
1002
{
1002
}
  0
TEXT
  5
1A57A
330
747D
100
AcDbEntity
  8
文字
 48
50.0
100
AcDbText
 10
4798.283088581622
 20
10287.20383173558
 30
0.0
 40
120.0
  1
2630
  7
STYLE1
100
AcDbText
  0
TEXT
  5
1A57B
330
747D
100
AcDbEntity
  8
文字
 48
50.0
100
AcDbText
 10
4805.283088581621
 20
10037.88235817929
 30
0.0
 40
120.0
  1
2520
  7
STYLE1
100
AcDbText
  0
LINE
  5
1A57C
330
747D
100
AcDbEntity
  8
寸法
 48
50.0
100
AcDbLine
 10
4333.101915364668
 20
9998.229530132611
 30
0.0
 11
5173.101915364668
 21
9998.229530132611
 31
0.0
  0
LINE
  5
1A57D
330
747D
100
AcDbEntity
  8
寸法
 48
50.0
100
AcDbLine
 10
4278.10191536467
 20
10247.5510036889
 30
0.0
 11
5166.10191536467
 21
10247.5510036889
 31
0.0
  0
TEXT
  5
1A57E
330
747D
100
AcDbEntity
  8
文字
 48
50.0
100
AcDbText
 10
6050.45147670816
 20
10287.20383173558
 30
0.0
 40
120.0
  1
2630
  7
STYLE1
100
AcDbText
  0
TEXT
  5
1A57F
330
747D
100
AcDbEntity
  8
文字
 48
50.0
100
AcDbText
 10
6043.45147670816
 20
10037.88235817929
 30
0.0
 40
120.0
  1
2520
  7
STYLE1
100
AcDbText
  0
LINE
  5
1A580
330
747D
100
AcDbEntity
  8
寸法
 48
50.0
100
AcDbLine
 10
6013.10191536467
 20
9998.229530132611
 30
0.0
 11
6853.101915364671
 21
9998.229530132611
 31
0.0
  0
LINE
  5
1A581
330
747D
100
AcDbEntity
  8
寸法
 48
50.0
100
AcDbLine
 10
6020.10191536467
 20
10247.5510036889
 30
0.0
 11
6908.101915364671
 21
10247.5510036889
 31
0.0
  0
LINE
  5
1A58C
330
747D
100
AcDbEntity
  8
寸法
 48
50.0
100
AcDbLine
 10
4381.101915364663
 20
7257.990539741344
 30
0.0
 11
5371.101915364663
 21
7257.990539741344
 31
0.0
  0
TEXT
  5
1A58D
330
747D
100
AcDbEntity
  8
文字
 48
50.0
100
AcDbText
 10
5003.283088581614
 20
7297.643367788021
 30
0.0
 40
120.0
  1
2424
  7
STYLE1
100
AcDbText
  0
LINE
  5
1A58E
330
747D
100
AcDbEntity
  8
寸法
 48
50.0
100
AcDbLine
 10
5815.101915364645
 20
7257.990539741344
 30
0.0
 11
6805.101915364645
 21
7257.990539741344
 31
0.0
  0
TEXT
  5
1A58F
330
747D
100
AcDbEntity
  8
文字
 48
50.0
100
AcDbText
 10
5845.451476708134
 20
7297.643367788021
 30
0.0
 40
120.0
  1
2424
  7
STYLE1
100
AcDbText
  0
LINE
  5
1A62E
330
747D
100
AcDbEntity
  8
細線
 48
50.0
100
AcDbLine
 10
2949.601915364669
 20
9552.421310507432
 30
0.0
 11
1676.601915364668
 21
9102.421310507329
 31
0.0
  0
LINE
  5
1A62F
330
747D
100
AcDbEntity
  8
細線
 48
50.0
100
AcDbLine
 10
2949.601915364667
 20
9102.421310507436
 30
0.0
 11
1676.601915364666
 21
9552.42131050733
 31
0.0
  0
LINE
  5
1A630
330
747D
100
AcDbEntity
  8
細線
 48
50.0
100
AcDbLine
 10
4249.60191536467
 20
9102.421310507429
 30
0.0
 11
2976.601915364669
 21
9552.421310507428
 31
0.0
  0
LINE
  5
1A631
330
747D
100
AcDbEntity
  8
細線
 48
50.0
100
AcDbLine
 10
4249.60191536467
 20
9552.421310507424
 30
0.0
 11
2976.601915364667
 21
9102.421310507436
 31
0.0
  0
LINE
  5
1A632
330
747D
100
AcDbEntity
  8
部品1
 48
50.0
100
AcDbLine
 10
2975.601915364669
 20
9554.421310507436
 30
0.0
 11
2975.601915364669
 21
9102.421310507436
 31
0.0
  0
LINE
  5
1A633
330
747D
100
AcDbEntity
  8
部品1
 48
50.0
100
AcDbLine
 10
2950.601915364666
 20
9554.421310507439
 30
0.0
 11
2950.601915364669
 21
9102.421310507436
 31
0.0
  0
LINE
  5
1A634
330
747D
100
AcDbEntity
  8
部品1
 48
50.0
100
AcDbLine
 10
2976.601915364669
 20
9552.421310507428
 30
0.0
 11
2976.601915364669
 21
9102.421310507436
 31
0.0
  0
LINE
  5
1A635
330
747D
100
AcDbEntity
  8
部品1
 48
50.0
100
AcDbLine
 10
2949.601915364669
 20
9552.421310507432
 30
0.0
 11
2949.601915364669
 21
9102.421310507436
 31
0.0
  0
LINE
  5
1A639
330
747D
100
AcDbEntity
  8
部品1
100
AcDbLine
 10
2976.601915364667
 20
9102.421310507436
 30
0.0
 11
4249.60191536467
 21
9102.421310507429
 31
0.0
  0
LINE
  5
1A63A
330
747D
100
AcDbEntity
  8
部品1
100
AcDbLine
 10
1676.60191536467
 20
9102.421310507329
 30
0.0
 11
2949.601915364667
 21
9102.421310507436
 31
0.0
  0
LINE
  5
1A63B
330
747D
100
AcDbEntity
  8
部品1
100
AcDbLine
 10
2950.601915364669
 20
9102.421310507436
 30
0.0
 11
2975.601915364669
 21
9102.421310507436
 31
0.0
  0
LINE
  5
1A63C
330
747D
100
AcDbEntity
  8
部品1
 48
50.0
100
AcDbLine
 10
1676.601915364666
 20
9552.421310507327
 30
0.0
 11
1676.601915364668
 21
9102.421310507327
 31
0.0
  0
LINE
  5
1A63D
330
747D
100
AcDbEntity
  8
部品1
100
AcDbLine
 10
1676.601915364666
 20
9552.42131050733
 30
0.0
 11
2949.601915364669
 21
9552.421310507437
 31
0.0
  0
LINE
  5
1A63E
330
747D
100
AcDbEntity
  8
部品1
100
AcDbLine
 10
2950.601915364669
 20
9546.42131050743
 30
0.0
 11
2975.601915364669
 21
9546.421310507431
 31
0.0
  0
LINE
  5
1A63F
330
747D
100
AcDbEntity
  8
部品1
100
AcDbLine
 10
2928.101915364669
 20
9572.421310507433
 30
0.0
 11
2928.101915364669
 21
9554.421310507432
 31
0.0
  0
LINE
  5
1A640
330
747D
100
AcDbEntity
  8
部品1
100
AcDbLine
 10
2928.101915364669
 20
9572.421310507433
 30
0.0
 11
2934.101915364669
 21
9572.421310507433
 31
0.0
  0
LINE
  5
1A641
330
747D
100
AcDbEntity
  8
部品1
100
AcDbLine
 10
2998.101915364669
 20
9572.421310507433
 30
0.0
 11
2998.101915364669
 21
9554.421310507432
 31
0.0
  0
LINE
  5
1A642
330
747D
100
AcDbEntity
  8
部品1
100
AcDbLine
 10
2992.101915364669
 20
9572.421310507433
 30
0.0
 11
2998.101915364669
 21
9572.421310507433
 31
0.0
  0
LINE
  5
1A644
330
747D
100
AcDbEntity
  8
部品1
100
AcDbLine
 10
2976.601915364669
 20
9552.421310507432
 30
0.0
 11
4249.60191536467
 21
9552.421310507424
 31
0.0
  0
LINE
  5
1A645
330
747D
100
AcDbEntity
  8
部品1
100
AcDbLine
 10
4249.60191536467
 20
9552.421310507424
 30
0.0
 11
4249.60191536467
 21
9102.421310507429
 31
0.0
  0
LINE
  5
1A68B
330
747D
100
AcDbEntity
  8
部品1
100
AcDbLine
 10
8210.601915364668
 20
9546.421310507556
 30
0.0
 11
8235.601915364668
 21
9546.421310507559
 31
0.0
  0
LINE
  5
1A68C
330
747D
100
AcDbEntity
  8
部品1
100
AcDbLine
 10
8210.601915364668
 20
9102.421310507564
 30
0.0
 11
8235.601915364668
 21
9102.421310507564
 31
0.0
  0
LINE
  5
1A68F
330
747D
100
AcDbEntity
  8
部品1
100
AcDbLine
 10
6936.601915364668
 20
9552.421310507458
 30
0.0
 11
8209.601915364668
 21
9552.421310507563
 31
0.0
  0
LINE
  5
1A690
330
747D
100
AcDbEntity
  8
部品1
100
AcDbLine
 10
6936.601915364668
 20
9102.421310507457
 30
0.0
 11
8209.601915364666
 21
9102.421310507564
 31
0.0
  0
LINE
  5
1A691
330
747D
100
AcDbEntity
  8
細線
 48
50.0
100
AcDbLine
 10
8209.601915364666
 20
9102.421310507564
 30
0.0
 11
6936.601915364668
 21
9552.421310507458
 31
0.0
  0
LINE
  5
1A692
330
747D
100
AcDbEntity
  8
細線
 48
50.0
100
AcDbLine
 10
8209.601915364668
 20
9552.421310507559
 30
0.0
 11
6936.601915364668
 21
9102.421310507457
 31
0.0
  0
LINE
  5
1A693
330
747D
100
AcDbEntity
  8
部品1
 48
50.0
100
AcDbLine
 10
6936.601915364668
 20
9552.421310507453
 30
0.0
 11
6936.601915364668
 21
9102.421310507454
 31
0.0
  0
LINE
  5
1A694
330
747D
100
AcDbEntity
  8
部品1
 48
50.0
100
AcDbLine
 10
8209.601915364668
 20
9552.421310507559
 30
0.0
 11
8209.601915364668
 21
9102.421310507564
 31
0.0
  0
LINE
  5
1A695
330
747D
100
AcDbEntity
  8
部品1
 48
50.0
100
AcDbLine
 10
8210.601915364668
 20
9554.421310507567
 30
0.0
 11
8210.601915364668
 21
9102.421310507564
 31
0.0
  0
LINE
  5
1A696
330
747D
100
AcDbEntity
  8
部品1
100
AcDbLine
 10
8188.101915364669
 20
9572.421310507559
 30
0.0
 11
8194.101915364669
 21
9572.421310507559
 31
0.0
  0
LINE
  5
1A697
330
747D
100
AcDbEntity
  8
部品1
100
AcDbLine
 10
8188.101915364669
 20
9572.421310507559
 30
0.0
 11
8188.101915364669
 21
9554.42131050756
 31
0.0
  0
DIMENSION
  5
1A698
330
747D
100
AcDbEntity
  8
寸法
100
AcDbDimension
  2
*D28
 10
9864.959641226695
 20
9007.203494838666
 30
0.0
 11
9764.959641226694
 21
9232.203494838666
 31
0.0
 70
    32
 71
     5
 42
449.9999999999963
  3
INABA_S40G
100
AcDbAlignedDimension
 13
9509.601915364671
 23
9552.421310507552
 33
0.0
 14
9509.601915364671
 24
9102.421310507557
 34
0.0
 50
90.0
100
AcDbRotatedDimension
1001
ACAD
1000
DSTYLE
1002
{
1002
}
  0
LINE
  5
1A699
330
747D
100
AcDbEntity
  8
部品1
100
AcDbLine
 10
8236.601915364669
 20
9552.421310507559
 30
0.0
 11
9509.601915364671
 21
9552.421310507552
 31
0.0
  0
LINE
  5
1A69A
330
747D
100
AcDbEntity
  8
部品1
100
AcDbLine
 10
8236.601915364666
 20
9102.421310507564
 30
0.0
 11
9509.601915364671
 21
9102.421310507557
 31
0.0
  0
LINE
  5
1A69B
330
747D
100
AcDbEntity
  8
細線
 48
50.0
100
AcDbLine
 10
9509.601915364671
 20
9552.421310507552
 30
0.0
 11
8236.601915364666
 21
9102.421310507564
 31
0.0
  0
LINE
  5
1A69C
330
747D
100
AcDbEntity
  8
細線
 48
50.0
100
AcDbLine
 10
9509.601915364671
 20
9102.421310507557
 30
0.0
 11
8236.601915364669
 21
9552.421310507556
 31
0.0
  0
LINE
  5
1A69D
330
747D
100
AcDbEntity
  8
部品1
 48
50.0
100
AcDbLine
 10
8236.601915364669
 20
9552.421310507556
 30
0.0
 11
8236.601915364669
 21
9102.421310507564
 31
0.0
  0
LINE
  5
1A69E
330
747D
100
AcDbEntity
  8
部品1
 48
50.0
100
AcDbLine
 10
8235.601915364668
 20
9554.421310507562
 30
0.0
 11
8235.601915364668
 21
9102.421310507564
 31
0.0
  0
LINE
  5
1A69F
330
747D
100
AcDbEntity
  8
部品1
100
AcDbLine
 10
8252.101915364669
 20
9572.421310507559
 30
0.0
 11
8258.101915364669
 21
9572.421310507559
 31
0.0
  0
LINE
  5
1A6A0
330
747D
100
AcDbEntity
  8
部品1
100
AcDbLine
 10
8258.101915364669
 20
9572.421310507559
 30
0.0
 11
8258.101915364669
 21
9554.42131050756
 31
0.0
  0
LINE
  5
1A6A1
330
747D
100
AcDbEntity
  8
部品1
100
AcDbLine
 10
9509.601915364671
 20
9552.421310507552
 30
0.0
 11
9509.601915364671
 21
9102.421310507557
 31
0.0
  0
LINE
  5
1A6C6
330
747D
100
AcDbEntity
  8
部品1
100
AcDbLine
 10
8235.601915364668
 20
9554.421310507629
 30
0.0
 11
9510.101915364655
 21
9554.421310507629
 31
0.0
  0
LINE
  5
1A6C7
330
747D
100
AcDbEntity
  8
部品1
100
AcDbLine
 10
5580.601915364669
 20
9546.421310507465
 30
0.0
 11
5605.601915364669
 21
9546.421310507469
 31
0.0
  0
LINE
  5
1A6C8
330
747D
100
AcDbEntity
  8
部品1
100
AcDbLine
 10
5580.601915364669
 20
9102.421310507471
 30
0.0
 11
5605.601915364669
 21
9102.421310507471
 31
0.0
  0
LINE
  5
1A6CB
330
747D
100
AcDbEntity
  8
部品1
100
AcDbLine
 10
4306.601915364666
 20
9552.421310507368
 30
0.0
 11
5579.601915364668
 21
9552.421310507472
 31
0.0
  0
LINE
  5
1A6CC
330
747D
100
AcDbEntity
  8
部品1
100
AcDbLine
 10
4306.60191536467
 20
9102.421310507367
 30
0.0
 11
5579.601915364667
 21
9102.421310507471
 31
0.0
  0
LINE
  5
1A6CD
330
747D
100
AcDbEntity
  8
細線
 48
50.0
100
AcDbLine
 10
5579.601915364667
 20
9102.421310507471
 30
0.0
 11
4306.601915364666
 21
9552.421310507368
 31
0.0
  0
LINE
  5
1A6CE
330
747D
100
AcDbEntity
  8
細線
 48
50.0
100
AcDbLine
 10
5579.601915364668
 20
9552.421310507469
 30
0.0
 11
4306.601915364669
 21
9102.421310507367
 31
0.0
  0
LINE
  5
1A6CF
330
747D
100
AcDbEntity
  8
部品1
 48
50.0
100
AcDbLine
 10
4306.601915364666
 20
9552.421310507362
 30
0.0
 11
4306.601915364669
 21
9102.421310507363
 31
0.0
  0
LINE
  5
1A6D0
330
747D
100
AcDbEntity
  8
部品1
 48
50.0
100
AcDbLine
 10
5579.601915364668
 20
9552.421310507469
 30
0.0
 11
5579.601915364668
 21
9102.421310507471
 31
0.0
  0
LINE
  5
1A6D1
330
747D
100
AcDbEntity
  8
部品1
 48
50.0
100
AcDbLine
 10
5580.601915364667
 20
9554.421310507477
 30
0.0
 11
5580.601915364669
 21
9102.421310507471
 31
0.0
  0
LINE
  5
1A6D2
330
747D
100
AcDbEntity
  8
部品1
100
AcDbLine
 10
5558.101915364669
 20
9572.421310507468
 30
0.0
 11
5564.101915364669
 21
9572.421310507468
 31
0.0
  0
LINE
  5
1A6D3
330
747D
100
AcDbEntity
  8
部品1
100
AcDbLine
 10
5558.101915364669
 20
9572.421310507468
 30
0.0
 11
5558.101915364669
 21
9554.42131050747
 31
0.0
  0
LINE
  5
1A6D6
330
747D
100
AcDbEntity
  8
細線
 48
50.0
100
AcDbLine
 10
6879.60191536467
 20
9552.421310507462
 30
0.0
 11
5606.601915364668
 21
9102.421310507473
 31
0.0
  0
LINE
  5
1A6D7
330
747D
100
AcDbEntity
  8
細線
 48
50.0
100
AcDbLine
 10
6879.60191536467
 20
9102.421310507464
 30
0.0
 11
5606.601915364669
 21
9552.421310507467
 31
0.0
  0
LINE
  5
1A6D8
330
747D
100
AcDbEntity
  8
部品1
 48
50.0
100
AcDbLine
 10
5606.601915364668
 20
9552.421310507465
 30
0.0
 11
5606.601915364668
 21
9102.421310507471
 31
0.0
  0
LINE
  5
1A6D9
330
747D
100
AcDbEntity
  8
部品1
 48
50.0
100
AcDbLine
 10
5605.601915364669
 20
9554.421310507471
 30
0.0
 11
5605.601915364669
 21
9102.421310507471
 31
0.0
  0
LINE
  5
1A6DA
330
747D
100
AcDbEntity
  8
部品1
100
AcDbLine
 10
5622.101915364669
 20
9572.421310507468
 30
0.0
 11
5628.101915364669
 21
9572.421310507468
 31
0.0
  0
LINE
  5
1A6DB
330
747D
100
AcDbEntity
  8
部品1
100
AcDbLine
 10
5628.101915364669
 20
9572.421310507468
 30
0.0
 11
5628.101915364669
 21
9554.42131050747
 31
0.0
  0
LINE
  5
1A6DC
330
747D
100
AcDbEntity
  8
部品1
100
AcDbLine
 10
6879.60191536467
 20
9552.421310507462
 30
0.0
 11
6879.60191536467
 21
9102.421310507464
 31
0.0
  0
LINE
  5
1A6FF
330
747D
100
AcDbEntity
  8
部品1
100
AcDbLine
 10
5606.601915364669
 20
9102.421310507471
 30
0.0
 11
6879.60191536467
 21
9102.421310507464
 31
0.0
  0
LINE
  5
1A702
330
747D
100
AcDbEntity
  8
部品1
100
AcDbLine
 10
5605.601915364669
 20
9554.421310507464
 30
0.0
 11
6908.101915364575
 21
9554.421310507464
 31
0.0
  0
LINE
  5
1A703
330
747D
100
AcDbEntity
  8
部品1
100
AcDbLine
 10
5606.601915364668
 20
9552.421310507469
 30
0.0
 11
6879.60191536467
 21
9552.421310507462
 31
0.0
  0
LINE
  5
1A708
330
747D
100
AcDbEntity
  8
破線
 48
10.0
100
AcDbLine
 10
5202.601915364562
 20
7947.421310507316
 30
0.0
 11
5983.601915364562
 21
7947.421310507266
 31
0.0
  0
LINE
  5
1A709
330
747D
100
AcDbEntity
  8
部品1
 48
50.0
100
AcDbLine
 10
4333.101915364675
 20
7922.421310507292
 30
0.0
 11
6853.101915364646
 21
7922.421310507219
 31
0.0
  0
LINE
  5
1A70A
330
747D
100
AcDbEntity
  8
部品1
 48
50.0
100
AcDbLine
 10
4333.101915364675
 20
7877.42131050729
 30
0.0
 11
6853.101915364646
 21
7877.421310507219
 31
0.0
  0
LINE
  5
1A70C
330
747D
100
AcDbEntity
  8
部品1
 48
50.0
100
AcDbLine
 10
1703.10191536466
 20
7792.421310507359
 30
0.0
 11
6853.101915364646
 21
7792.421310507219
 31
0.0
  0
TEXT
  5
1A8D3
330
747D
100
AcDbEntity
  8
文字
 62
     7
 48
50.0
100
AcDbText
 10
13583.11819016569
 20
8380.013745883733
 30
0.0
 40
100.0
  1
床パネル
 41
0.9
  7
STYLE1
100
AcDbText
  0
TEXT
  5
1A8D4
330
747D
100
AcDbEntity
  8
文字
 62
     7
 48
50.0
100
AcDbText
 10
15022.63965474516
 20
8380.013745883728
 30
0.0
 40
100.0
  1
F12            1.0
  7
STYLE1
100
AcDbText
  0
TEXT
  5
1A8D5
330
747D
100
AcDbEntity
  8
文字
 62
     7
 48
50.0
100
AcDbText
 10
13248.77747366448
 20
8550.013745883729
 30
0.0
 40
100.0
  1
15
  7
STYLE1
100
AcDbText
  0
LINE
  5
1A8D6
330
747D
100
AcDbEntity
  8
仕様書枠
 48
50.0
100
AcDbLine
 10
16307.19999999999
 20
8519.600000000002
 30
0.0
 11
13127.19999999999
 21
8519.600000000002
 31
0.0
  0
LINE
  5
1A8D7
330
747D
100
AcDbEntity
  8
仕様書枠
 48
50.0
100
AcDbLine
 10
16307.19999999999
 20
9879.599999999999
 30
0.0
 11
13127.19999999999
 21
9879.600000000001
 31
0.0
  0
LINE
  5
1A8D8
330
747D
100
AcDbEntity
  8
仕様書枠
 48
50.0
100
AcDbLine
 10
16307.19999999999
 20
11239.6
 30
0.0
 11
13127.2
 21
11239.6
 31
0.0
  0
LINE
  5
1A8D9
330
747D
100
AcDbEntity
  8
仕様書枠
 48
50.0
100
AcDbLine
 10
16307.19999999999
 20
7669.600000000011
 30
0.0
 11
16307.2
 21
11239.6
 31
0.0
  0
LINE
  5
1A8DA
330
747D
100
AcDbEntity
  8
仕様書枠
 48
50.0
100
AcDbLine
 10
14785.2
 20
11239.59999999999
 30
0.0
 11
14785.19999999999
 21
8179.600000000009
 31
0.0
  0
LINE
  5
1A8DB
330
747D
100
AcDbEntity
  8
仕様書枠
 48
50.0
100
AcDbLine
 10
13490.2
 20
11239.6
 30
0.0
 11
13490.20000000001
 21
8179.600000000009
 31
0.0
  0
LINE
  5
1A8DC
330
747D
100
AcDbEntity
  8
仕様書枠
 48
50.0
100
AcDbLine
 10
16307.19999999999
 20
11069.6
 30
0.0
 11
13127.2
 21
11069.6
 31
0.0
  0
LINE
  5
1A8DD
330
747D
100
AcDbEntity
  8
仕様書枠
 48
50.0
100
AcDbLine
 10
16307.19999999999
 20
10729.6
 30
0.0
 11
13127.2
 21
10729.6
 31
0.0
  0
LINE
  5
1A8DE
330
747D
100
AcDbEntity
  8
仕様書枠
 48
50.0
100
AcDbLine
 10
16307.19999999999
 20
10899.6
 30
0.0
 11
13127.2
 21
10899.6
 31
0.0
  0
LINE
  5
1A8DF
330
747D
100
AcDbEntity
  8
仕様書枠
 48
50.0
100
AcDbLine
 10
16307.19999999999
 20
10389.6
 30
0.0
 11
13127.19999999999
 21
10389.6
 31
0.0
  0
LINE
  5
1A8E0
330
747D
100
AcDbEntity
  8
仕様書枠
 48
50.0
100
AcDbLine
 10
16307.19999999999
 20
10219.6
 30
0.0
 11
13127.19999999999
 21
10219.6
 31
0.0
  0
LINE
  5
1A8E1
330
747D
100
AcDbEntity
  8
仕様書枠
 48
50.0
100
AcDbLine
 10
16307.19999999999
 20
10559.6
 30
0.0
 11
13127.19999999999
 21
10559.6
 31
0.0
  0
TEXT
  5
1A8E2
330
747D
100
AcDbEntity
  8
文字
 62
     7
 48
50.0
100
AcDbText
 10
13197.42518560407
 20
11100.01374588373
 30
0.0
 40
100.0
  1
品番
  7
STYLE1
100
AcDbText
  0
TEXT
  5
1A8E3
330
747D
100
AcDbEntity
  8
文字
 62
     7
 48
50.0
100
AcDbText
 10
13271.19032244792
 20
10930.01374588373
 30
0.0
 40
100.0
  1
1
  7
STYLE1
100
AcDbText
  0
TEXT
  5
1A8E4
330
747D
100
AcDbEntity
  8
文字
 62
     7
 48
50.0
100
AcDbText
 10
13271.19032244792
 20
10760.01374588373
 30
0.0
 40
100.0
  1
2
  7
STYLE1
100
AcDbText
  0
TEXT
  5
1A8E5
330
747D
100
AcDbEntity
  8
文字
 62
     7
 48
50.0
100
AcDbText
 10
13271.19032244792
 20
10420.01374588373
 30
0.0
 40
100.0
  1
4
  7
STYLE1
100
AcDbText
  0
TEXT
  5
1A8E6
330
747D
100
AcDbEntity
  8
文字
 62
     7
 48
50.0
100
AcDbText
 10
13271.19032244792
 20
10590.01374588373
 30
0.0
 40
100.0
  1
3
  7
STYLE1
100
AcDbText
  0
TEXT
  5
1A8E7
330
747D
100
AcDbEntity
  8
文字
 62
     7
 48
50.0
100
AcDbText
 10
13732.03840939434
 20
11100.01374588373
 30
0.0
 40
100.0
  1
部　　品　　名
  7
STYLE1
100
AcDbText
  0
TEXT
  5
1A8E8
330
747D
100
AcDbEntity
  8
文字
 62
     7
 48
50.0
100
AcDbText
 10
14859.79774614482
 20
11100.01374588373
 30
0.0
 40
100.0
  1
材料（材質）　　単位mm
  7
STYLE1
100
AcDbText
  0
TEXT
  5
1A8E9
330
747D
100
AcDbEntity
  8
文字
 62
     7
 48
50.0
100
AcDbText
 10
13583.11819016569
 20
10930.01374588372
 30
0.0
 40
100.0
  1
土台枠
  7
STYLE1
100
AcDbText
  0
TEXT
  5
1A8EA
330
747D
100
AcDbEntity
  8
文字
 62
     7
 48
50.0
100
AcDbText
 10
13583.11819016569
 20
10760.01374588372
 30
0.0
 40
100.0
  1
柱
  7
STYLE1
100
AcDbText
  0
TEXT
  5
1A8EB
330
747D
100
AcDbEntity
  8
文字
 62
     7
 48
50.0
100
AcDbText
 10
13583.11819016569
 20
10590.01374588373
 30
0.0
 40
100.0
  1
桁前
  7
STYLE1
100
AcDbText
  0
TEXT
  5
1A8EC
330
747D
100
AcDbEntity
  8
文字
 62
     7
 48
50.0
100
AcDbText
 10
13583.11819016569
 20
10420.01374588373
 30
0.0
 40
100.0
  1
桁後
  7
STYLE1
100
AcDbText
  0
TEXT
  5
1A8ED
330
747D
100
AcDbEntity
  8
文字
 62
     7
 48
50.0
100
AcDbText
 10
13271.19032244792
 20
10250.01374588373
 30
0.0
 40
100.0
  1
5
  7
STYLE1
100
AcDbText
  0
TEXT
  5
1A8EE
330
747D
100
AcDbEntity
  8
文字
 62
     7
 48
50.0
100
AcDbText
 10
13583.11819016569
 20
10250.01374588373
 30
0.0
 40
100.0
  1
妻板左右
  7
STYLE1
100
AcDbText
  0
TEXT
  5
1A8EF
330
747D
100
AcDbEntity
  8
文字
 62
     7
 48
50.0
100
AcDbText
 10
13583.11819016569
 20
8720.013745883731
 30
0.0
 40
100.0
  1
シャッターレール
  7
STYLE1
100
AcDbText
  0
TEXT
  5
1A8F0
330
747D
100
AcDbEntity
  8
文字
 62
     7
 48
50.0
100
AcDbText
 10
13248.77747366448
 20
9400.013745883727
 30
0.0
 40
100.0
  1
10
  7
STYLE1
100
AcDbText
  0
TEXT
  5
1A8F1
330
747D
100
AcDbEntity
  8
文字
 62
     7
 48
50.0
100
AcDbText
 10
13583.11819016569
 20
9400.013745883731
 30
0.0
 40
100.0
  1
壁パネル
  7
STYLE1
100
AcDbText
  0
TEXT
  5
1A8F2
330
747D
100
AcDbEntity
  8
文字
 62
     7
 48
50.0
100
AcDbText
 10
13583.11819016569
 20
9570.013745883729
 30
0.0
 40
100.0
  1
屋根パネル
  7
STYLE1
100
AcDbText
  0
TEXT
  5
1A8F3
330
747D
100
AcDbEntity
  8
文字
 62
     7
 48
50.0
100
AcDbText
 10
13583.11819016569
 20
9740.013745883729
 30
0.0
 40
100.0
  1
母屋中
  7
STYLE1
100
AcDbText
  0
TEXT
  5
1A8F4
330
747D
100
AcDbEntity
  8
文字
 62
     7
 48
50.0
100
AcDbText
 10
13583.11819016569
 20
10080.01374588372
 30
0.0
 40
100.0
  1
鼻隠シ前後
  7
STYLE1
100
AcDbText
  0
TEXT
  5
1A8F5
330
747D
100
AcDbEntity
  8
文字
 62
     7
 48
50.0
100
AcDbText
 10
13271.19032244792
 20
9740.013745883729
 30
0.0
 40
100.0
  1
8
  7
STYLE1
100
AcDbText
  0
TEXT
  5
1A8F6
330
747D
100
AcDbEntity
  8
文字
 62
     7
 48
50.0
100
AcDbText
 10
13271.19032244792
 20
9570.013745883729
 30
0.0
 40
100.0
  1
9
  7
STYLE1
100
AcDbText
  0
TEXT
  5
1A8F7
330
747D
100
AcDbEntity
  8
文字
 62
     7
 48
50.0
100
AcDbText
 10
13271.19032244792
 20
9910.01374588373
 30
0.0
 40
100.0
  1
7
  7
STYLE1
100
AcDbText
  0
TEXT
  5
1A8F8
330
747D
100
AcDbEntity
  8
文字
 62
     7
 48
50.0
100
AcDbText
 10
13271.19032244792
 20
10080.01374588373
 30
0.0
 40
100.0
  1
6
  7
STYLE1
100
AcDbText
  0
LINE
  5
1A8F9
330
747D
100
AcDbEntity
  8
仕様書枠
 48
50.0
100
AcDbLine
 10
16307.19999999999
 20
9539.599999999998
 30
0.0
 11
13127.19999999999
 21
9539.6
 31
0.0
  0
LINE
  5
1A8FA
330
747D
100
AcDbEntity
  8
仕様書枠
 48
50.0
100
AcDbLine
 10
16307.19999999999
 20
9199.599999999998
 30
0.0
 11
13127.19999999999
 21
9199.600000000001
 31
0.0
  0
LINE
  5
1A8FB
330
747D
100
AcDbEntity
  8
仕様書枠
 48
50.0
100
AcDbLine
 10
16307.19999999999
 20
9369.599999999998
 30
0.0
 11
13127.19999999999
 21
9369.600000000001
 31
0.0
  0
LINE
  5
1A8FC
330
747D
100
AcDbEntity
  8
仕様書枠
 48
50.0
100
AcDbLine
 10
16307.19999999999
 20
10049.6
 30
0.0
 11
13127.2
 21
10049.6
 31
0.0
  0
LINE
  5
1A8FD
330
747D
100
AcDbEntity
  8
仕様書枠
 48
50.0
100
AcDbLine
 10
16307.19999999999
 20
9709.6
 30
0.0
 11
13127.19999999999
 21
9709.600000000001
 31
0.0
  0
TEXT
  5
1A8FE
330
747D
100
AcDbEntity
  8
文字
 62
     7
 48
50.0
100
AcDbText
 10
13248.77747366448
 20
9230.013745883727
 30
0.0
 40
100.0
  1
11
  7
STYLE1
100
AcDbText
  0
TEXT
  5
1A8FF
330
747D
100
AcDbEntity
  8
文字
 62
     7
 48
50.0
100
AcDbText
 10
13583.11819016569
 20
8890.013745883729
 30
0.0
 40
100.0
  1
シャッターカバー
 41
0.9
  7
STYLE1
100
AcDbText
  0
LINE
  5
1A900
330
747D
100
AcDbEntity
  8
仕様書枠
 48
50.0
100
AcDbLine
 10
16307.19999999999
 20
9029.6
 30
0.0
 11
13127.19999999999
 21
9029.6
 31
0.0
  0
LINE
  5
1A901
330
747D
100
AcDbEntity
  8
仕様書枠
 48
50.0
100
AcDbLine
 10
16307.19999999999
 20
8349.600000000004
 30
0.0
 11
13127.19999999999
 21
8349.600000000007
 31
0.0
  0
TEXT
  5
1A902
330
747D
100
AcDbEntity
  8
文字
 62
     7
 48
50.0
100
AcDbText
 10
13583.11819016569
 20
9060.013745883731
 30
0.0
 40
100.0
  1
シャッター
  7
STYLE1
100
AcDbText
  0
TEXT
  5
1A903
330
747D
100
AcDbEntity
  8
文字
 62
     7
 48
50.0
100
AcDbText
 10
13248.77747366448
 20
8890.013745883729
 30
0.0
 40
100.0
  1
13
  7
STYLE1
100
AcDbText
  0
TEXT
  5
1A904
330
747D
100
AcDbEntity
  8
文字
 62
     7
 48
50.0
100
AcDbText
 10
13248.77747366448
 20
9060.013745883729
 30
0.0
 40
100.0
  1
12
  7
STYLE1
100
AcDbText
  0
TEXT
  5
1A905
330
747D
100
AcDbEntity
  8
文字
 62
     7
 48
50.0
100
AcDbText
 10
15022.63965474517
 20
10930.01374588372
 30
0.0
 40
100.0
  1
F12            1.2
  7
STYLE1
100
AcDbText
  0
TEXT
  5
1A906
330
747D
100
AcDbEntity
  8
文字
 62
     7
 48
50.0
100
AcDbText
 10
15022.63965474517
 20
10760.01374588372
 30
0.0
 40
100.0
  1
F12         1.0,1.2
  7
STYLE1
100
AcDbText
  0
TEXT
  5
1A907
330
747D
100
AcDbEntity
  8
文字
 62
     7
 48
50.0
100
AcDbText
 10
15022.63965474516
 20
10590.01374588372
 30
0.0
 40
100.0
  1
Y10            1.0
  7
STYLE1
100
AcDbText
  0
TEXT
  5
1A908
330
747D
100
AcDbEntity
  8
文字
 62
     7
 48
50.0
100
AcDbText
 10
15022.63965474516
 20
10420.01374588372
 30
0.0
 40
100.0
  1
Y10            1.0
  7
STYLE1
100
AcDbText
  0
TEXT
  5
1A909
330
747D
100
AcDbEntity
  8
文字
 62
     7
 48
50.0
100
AcDbText
 10
15022.63965474516
 20
10250.01374588372
 30
0.0
 40
100.0
  1
Y10            0.7
  7
STYLE1
100
AcDbText
  0
TEXT
  5
1A90A
330
747D
100
AcDbEntity
  8
文字
 62
     7
 48
50.0
100
AcDbText
 10
15022.63965474516
 20
10080.01374588372
 30
0.0
 40
100.0
  1
Y10            0.7
  7
STYLE1
100
AcDbText
  0
TEXT
  5
1A90B
330
747D
100
AcDbEntity
  8
文字
 62
     7
 48
50.0
100
AcDbText
 10
15022.63965474516
 20
9570.013745883727
 30
0.0
 40
100.0
  1
Y10            0.5
  7
STYLE1
100
AcDbText
  0
TEXT
  5
1A90C
330
747D
100
AcDbEntity
  8
文字
 62
     7
 48
50.0
100
AcDbText
 10
15022.63965474516
 20
9400.013745883727
 30
0.0
 40
100.0
  1
F12            0.7
  7
STYLE1
100
AcDbText
  0
TEXT
  5
1A90D
330
747D
100
AcDbEntity
  8
文字
 62
     7
 48
50.0
100
AcDbText
 10
14850.83183167176
 20
8720.013745883729
 30
0.0
 40
100.0
  1
アルミニウム合金押出形材
  7
STYLE1
100
AcDbText
  0
TEXT
  5
1A90F
330
747D
100
AcDbEntity
  8
文字
 62
     7
 48
50.0
100
AcDbText
 10
15022.63965474515
 20
9060.013745883727
 30
0.0
 40
100.0
  1
Z08            0.5
  7
STYLE1
100
AcDbText
  0
LINE
  5
1A910
330
747D
100
AcDbEntity
  8
仕様書枠
 48
50.0
100
AcDbLine
 10
16307.19999999998
 20
8009.600000000011
 30
0.0
 11
13127.19999999999
 21
8009.600000000011
 31
0.0
  0
LINE
  5
1A911
330
747D
100
AcDbEntity
  8
仕様書枠
 48
50.0
100
AcDbLine
 10
16307.19999999998
 20
7839.60000000001
 30
0.0
 11
13127.19999999999
 21
7839.600000000011
 31
0.0
  0
LINE
  5
1A912
330
747D
100
AcDbEntity
  8
仕様書枠
 48
50.0
100
AcDbLine
 10
16307.19999999998
 20
7669.600000000009
 30
0.0
 11
13127.19999999999
 21
7669.600000000011
 31
0.0
  0
TEXT
  5
1A913
330
747D
100
AcDbEntity
  8
文字
 62
     7
 48
50.0
100
AcDbText
 10
13229.83081656554
 20
8040.013745883738
 30
0.0
 40
100.0
  1
F12→溶融亜鉛めっき鋼板(JIS G 3302)
  7
STYLE1
100
AcDbText
  0
TEXT
  5
1A914
330
747D
100
AcDbEntity
  8
文字
 62
     7
 48
50.0
100
AcDbText
 10
13229.83081656554
 20
7870.013745883738
 30
0.0
 40
100.0
  1
Y10→溶融亜鉛-5％アルミニウム合金めっき鋼板(JIS G 3317)
 41
0.9
  7
STYLE1
100
AcDbText
  0
TEXT
  5
1A915
330
747D
100
AcDbEntity
  8
文字
 62
     7
 48
50.0
100
AcDbText
 10
13229.83081656554
 20
7700.01374588374
 30
0.0
 40
100.0
  1
Z08→塗装溶融亜鉛めっき鋼板(JIS G 3313)
  7
STYLE1
100
AcDbText
  0
LINE
  5
1A916
330
747D
100
AcDbEntity
  8
仕様書枠
 48
50.0
100
AcDbLine
 10
13127.2
 20
11239.6
 30
0.0
 11
13127.19999999999
 21
7669.600000000011
 31
0.0
  0
LINE
  5
1A918
330
747D
100
AcDbEntity
  8
仕様書枠
 48
50.0
100
AcDbLine
 10
16307.19999999999
 20
8689.6
 30
0.0
 11
13127.19999999999
 21
8689.600000000003
 31
0.0
  0
LINE
  5
1A919
330
747D
100
AcDbEntity
  8
仕様書枠
 48
50.0
100
AcDbLine
 10
16307.19999999999
 20
8859.6
 30
0.0
 11
13127.19999999999
 21
8859.600000000002
 31
0.0
  0
TEXT
  5
1A91A
330
747D
100
AcDbEntity
  8
文字
 62
     7
 48
50.0
100
AcDbText
 10
13583.11819016569
 20
8210.013745883731
 30
0.0
 40
100.0
  1
棚板
 41
0.9
  7
STYLE1
100
AcDbText
  0
TEXT
  5
1A91B
330
747D
100
AcDbEntity
  8
文字
 62
     7
 48
50.0
100
AcDbText
 10
13583.11819016569
 20
8550.013745883731
 30
0.0
 40
100.0
  1
根太
  7
STYLE1
100
AcDbText
  0
TEXT
  5
1A91C
330
747D
100
AcDbEntity
  8
文字
 62
     7
 48
50.0
100
AcDbText
 10
13248.77747366448
 20
8720.013745883729
 30
0.0
 40
100.0
  1
14
  7
STYLE1
100
AcDbText
  0
TEXT
  5
1A91D
330
747D
100
AcDbEntity
  8
文字
 62
     7
 48
50.0
100
AcDbText
 10
13248.77747366448
 20
8380.013745883731
 30
0.0
 40
100.0
  1
16
  7
STYLE1
100
AcDbText
  0
TEXT
  5
1A91E
330
747D
100
AcDbEntity
  8
文字
 62
     7
 48
50.0
100
AcDbText
 10
15022.63965474516
 20
8550.013745883727
 30
0.0
 40
100.0
  1
F12            1.2
  7
STYLE1
100
AcDbText
  0
TEXT
  5
1A91F
330
747D
100
AcDbEntity
  8
文字
 62
     7
 48
50.0
100
AcDbText
 10
15022.63965474516
 20
8210.013745883729
 30
0.0
 40
100.0
  1
F12            0.6
  7
STYLE1
100
AcDbText
  0
TEXT
  5
1A920
330
747D
100
AcDbEntity
  8
文字
 62
     7
 48
50.0
100
AcDbText
 10
13583.11819016569
 20
9910.01374588373
 30
0.0
 40
100.0
  1
梁中
  7
STYLE1
100
AcDbText
  0
TEXT
  5
1A921
330
747D
100
AcDbEntity
  8
文字
 62
     7
 48
50.0
100
AcDbText
 10
15022.63965474516
 20
9910.013745883727
 30
0.0
 40
100.0
  1
F12,Y10        1.0
  7
STYLE1
100
AcDbText
  0
LINE
  5
1A922
330
747D
100
AcDbEntity
  8
仕様書枠
 48
50.0
100
AcDbLine
 10
16307.19999999999
 20
8179.600000000007
 30
0.0
 11
13127.19999999999
 21
8179.600000000009
 31
0.0
  0
LWPOLYLINE
  5
1AFD7
330
747D
100
AcDbEntity
  8
部品1
100
AcDbPolyline
 90
        4
 70
     1
 43
0.0
 10
5211.366582250441
 20
6640.966548221427
 10
5211.366582250441
 20
6401.074226675894
 10
5974.837248478881
 20
6401.074226675894
 10
5974.837248478881
 20
6640.966548221427
  0
TEXT
  5
1AFD8
330
747D
100
AcDbEntity
  8
部品1
100
AcDbText
 10
5301.286192079478
 20
6448.073019002902
 30
0.0
 40
135.0
  1
平面図
  7
STYLE2
100
AcDbText
  0
LINE
  5
1AFD9
330
747D
100
AcDbEntity
  8
部品1
100
AcDbLine
 10
11847.99832401118
 20
4855.647647060912
 30
0.0
 11
13637.99832401118
 21
4855.647647060912
 31
0.0
  0
LINE
  5
1AFDA
330
747D
100
AcDbEntity
  8
部品1
100
AcDbLine
 10
11902.99832401118
 20
2765.647647060913
 30
0.0
 11
13637.99832401118
 21
2765.647647060913
 31
0.0
  0
LINE
  5
1AFDB
330
747D
100
AcDbEntity
  8
部品1
100
AcDbLine
 10
11902.99832401118
 20
4855.647647060912
 30
0.0
 11
11902.99832401118
 21
2615.647647060912
 31
0.0
  0
LINE
  5
1AFDC
330
747D
100
AcDbEntity
  8
部品1
100
AcDbLine
 10
11847.99832401118
 20
4947.506166503159
 30
0.0
 11
11847.99832401118
 21
2615.647647060912
 31
0.0
  0
DIMENSION
  5
1AFDE
330
747D
100
AcDbEntity
  8
寸法
100
AcDbDimension
  2
*D29
 10
11004.24819482792
 20
2715.647647060913
 30
0.0
 11
11004.24819482792
 21
2409.600402966422
 31
0.0
 70
   160
 71
     5
 42
50.0
  3
INABA_S40G
100
AcDbAlignedDimension
 13
11847.99832401118
 23
2765.647647060913
 33
0.0
 14
11792.99832401118
 24
2715.647647060912
 34
0.0
 50
90.0
100
AcDbRotatedDimension
1001
ACAD
1000
DSTYLE
1002
{
1070
   174
1070
     0
1070
   272
1070
     1
1070
   288
1070
     0
1070
   341
1005
0
1002
}
  0
LINE
  5
1AFDF
330
747D
100
AcDbEntity
  8
部品1
100
AcDbLine
 10
12322.99832401118
 20
4855.647647060912
 30
0.0
 11
12322.99832401118
 21
2765.647647060913
 31
0.0
  0
LINE
  5
1AFE0
330
747D
100
AcDbEntity
  8
部品1
100
AcDbLine
 10
13637.99832401118
 20
4910.529455746918
 30
0.0
 11
13637.99832401118
 21
2615.647647060912
 31
0.0
  0
LINE
  5
1AFE1
330
747D
100
AcDbEntity
  8
部品1
100
AcDbLine
 10
13582.99832401118
 20
4855.647647060912
 30
0.0
 11
13582.99832401118
 21
2765.647647060913
 31
0.0
  0
DIMENSION
  5
1AFE2
330
747D
100
AcDbEntity
  8
寸法
 48
50.0
100
AcDbDimension
  2
*D30
 10
11847.99832401118
 20
5489.740816400385
 30
0.0
 11
12742.99832401118
 21
5489.740816400385
 31
0.0
 70
   160
  1
柱外寸法<>
 71
     5
 42
1789.999999999998
  3
INABA_S40G
100
AcDbAlignedDimension
 13
13637.99832401118
 23
5037.458326672566
 33
0.0
 14
11847.99832401118
 24
5086.649265183889
 34
0.0
100
AcDbRotatedDimension
1001
ACAD
1000
DSTYLE
1002
{
1070
   174
1070
     0
1070
   272
1070
     1
1070
   288
1070
     0
1070
   341
1005
0
1002
}
  0
DIMENSION
  5
1AFE3
330
747D
100
AcDbEntity
  8
寸法
 48
50.0
100
AcDbDimension
  2
*D31
 10
11787.99832401118
 20
5489.740816400385
 30
0.0
 11
11478.36052873559
 21
5489.740816400385
 31
0.0
 70
   160
 71
     5
 42
60.0
  3
INABA_S40G
100
AcDbAlignedDimension
 13
11847.99832401118
 23
5086.649265183889
 33
0.0
 14
11787.99832401118
 24
5090.647647060917
 34
0.0
100
AcDbRotatedDimension
1001
ACAD
1000
DSTYLE
1002
{
1070
   174
1070
     0
1070
   272
1070
     1
1070
   288
1070
     0
1070
   341
1005
0
1002
}
  0
DIMENSION
  5
1AFE4
330
747D
100
AcDbEntity
  8
寸法
 48
50.0
100
AcDbDimension
  2
*D32
 10
11787.99832401118
 20
5706.26691601883
 30
0.0
 11
12752.99832401118
 21
5706.26691601883
 31
0.0
 70
   160
 71
     5
 42
1929.999999999998
  3
INABA_S40G
100
AcDbAlignedDimension
 13
13717.99832401118
 23
5035.647647060913
 33
0.0
 14
11787.99832401118
 24
5090.647647060917
 34
0.0
100
AcDbRotatedDimension
1001
ACAD
1000
DSTYLE
1002
{
1070
   174
1070
     0
1070
   272
1070
     1
1070
   288
1070
     0
1070
   341
1005
0
1002
}
  0
LINE
  5
1AFE5
330
747D
100
AcDbEntity
  8
部品1
100
AcDbLine
 10
11902.99832401118
 20
2715.647647060912
 30
0.0
 11
13637.99832401118
 21
2715.647647060912
 31
0.0
  0
TEXT
  5
1AFE6
330
747D
100
AcDbEntity
  8
部品1
100
AcDbText
 10
12450.70909232057
 20
1772.754117842388
 30
0.0
 40
135.0
  1
側面図
  7
STYLE2
100
AcDbText
  0
LWPOLYLINE
  5
1AFE7
330
747D
100
AcDbEntity
  8
部品1
100
AcDbPolyline
 90
        4
 70
     1
 43
0.0
 10
12361.26299089696
 20
1965.647647060911
 10
12361.26299089696
 20
1725.755325515378
 10
13124.7336571254
 20
1725.755325515378
 10
13124.7336571254
 20
1965.647647060911
  0
LINE
  5
1AFE8
330
747D
100
AcDbEntity
  8
細線
 48
50.0
100
AcDbLine
 10
12400.49832401118
 20
4855.647647060912
 30
0.0
 11
12400.49832401118
 21
2765.647647060913
 31
0.0
  0
LINE
  5
1AFE9
330
747D
100
AcDbEntity
  8
細線
 48
50.0
100
AcDbLine
 10
12385.49832401118
 20
4855.647647060912
 30
0.0
 11
12385.49832401118
 21
2765.647647060913
 31
0.0
  0
LINE
  5
1AFEA
330
747D
100
AcDbEntity
  8
細線
 48
50.0
100
AcDbLine
 10
12525.49832401118
 20
4855.647647060912
 30
0.0
 11
12525.49832401118
 21
2765.647647060913
 31
0.0
  0
LINE
  5
1AFEB
330
747D
100
AcDbEntity
  8
細線
 48
50.0
100
AcDbLine
 10
12540.49832401118
 20
4855.647647060912
 30
0.0
 11
12540.49832401118
 21
2765.647647060913
 31
0.0
  0
LINE
  5
1AFEC
330
747D
100
AcDbEntity
  8
細線
 48
50.0
100
AcDbLine
 10
12680.49832401118
 20
4855.647647060912
 30
0.0
 11
12680.49832401118
 21
2765.647647060913
 31
0.0
  0
LINE
  5
1AFED
330
747D
100
AcDbEntity
  8
細線
 48
50.0
100
AcDbLine
 10
12665.49832401118
 20
4855.647647060912
 30
0.0
 11
12665.49832401118
 21
2765.647647060913
 31
0.0
  0
LINE
  5
1AFEE
330
747D
100
AcDbEntity
  8
細線
 48
50.0
100
AcDbLine
 10
12245.49832401118
 20
4855.647647060912
 30
0.0
 11
12245.49832401118
 21
2765.647647060913
 31
0.0
  0
LINE
  5
1AFEF
330
747D
100
AcDbEntity
  8
細線
 48
50.0
100
AcDbLine
 10
12260.49832401118
 20
4855.647647060912
 30
0.0
 11
12260.49832401118
 21
2765.647647060913
 31
0.0
  0
LINE
  5
1AFF0
330
747D
100
AcDbEntity
  8
細線
 48
50.0
100
AcDbLine
 10
12120.49832401118
 20
4855.647647060912
 30
0.0
 11
12120.49832401118
 21
2765.647647060913
 31
0.0
  0
LINE
  5
1AFF1
330
747D
100
AcDbEntity
  8
細線
 48
50.0
100
AcDbLine
 10
12105.49832401118
 20
4855.647647060912
 30
0.0
 11
12105.49832401118
 21
2765.647647060913
 31
0.0
  0
LINE
  5
1AFF2
330
747D
100
AcDbEntity
  8
細線
 48
50.0
100
AcDbLine
 10
11965.49832401118
 20
4855.647647060912
 30
0.0
 11
11965.49832401118
 21
2765.647647060913
 31
0.0
  0
LINE
  5
1AFF3
330
747D
100
AcDbEntity
  8
細線
 48
50.0
100
AcDbLine
 10
11980.49832401118
 20
4855.647647060912
 30
0.0
 11
11980.49832401118
 21
2765.647647060913
 31
0.0
  0
LINE
  5
1AFF4
330
747D
100
AcDbEntity
  8
部品1
100
AcDbLine
 10
11795.54331036814
 20
5089.365382395179
 30
0.0
 11
13710.61020087264
 21
5034.288444770052
 31
0.0
  0
LINE
  5
1AFF5
330
747D
100
AcDbEntity
  8
部品1
100
AcDbLine
 10
11803.34088861313
 20
4948.428672129879
 30
0.0
 11
13692.66202455102
 21
4909.400246895675
 31
0.0
  0
LINE
  5
1AFF6
330
747D
100
AcDbEntity
  8
細線
 48
50.0
100
AcDbLine
 10
11820.99832401118
 20
5088.047323436317
 30
0.0
 11
11815.70922245567
 21
4947.961690808963
 31
0.0
  0
LINE
  5
1AFF7
330
747D
100
AcDbEntity
  8
細線
 48
50.0
100
AcDbLine
 10
13684.99832401118
 20
5035.614626096208
 30
0.0
 11
13680.25064112318
 21
4909.868853605465
 31
0.0
  0
LINE
  5
1AFF8
330
747D
100
AcDbEntity
  8
部品1
 48
50.0
100
AcDbLine
 10
11788.18260992429
 20
5082.241193225605
 30
0.0
 11
11788.5628697021
 21
5062.314228779193
 31
0.0
  0
LINE
  5
1AFF9
330
747D
100
AcDbEntity
  8
部品1
 48
50.0
100
AcDbLine
 10
11791.63164180834
 20
5058.738947285721
 30
0.0
 11
11793.33554329971
 21
4969.448450579076
 31
0.0
  0
LINE
  5
1AFFA
330
747D
100
AcDbEntity
  8
細線
 48
50.0
100
AcDbLine
 10
11789.03774711199
 20
5061.664728902273
 30
0.0
 11
13714.67373185716
 21
5006.040524261447
 31
0.0
  0
LINE
  5
1AFFB
330
747D
100
AcDbEntity
  8
細線
 48
50.0
100
AcDbLine
 10
11793.79822234928
 20
4968.803217204412
 30
0.0
 11
13703.80188677991
 21
4928.993898229918
 31
0.0
  0
LINE
  5
1AFFC
330
747D
100
AcDbEntity
  8
部品1
 48
50.0
100
AcDbLine
 10
11796.40431540595
 20
4965.873169085602
 30
0.0
 11
11796.60626802638
 21
4955.29013369251
 31
0.0
  0
ARC
  5
1AFFD
330
747D
100
AcDbEntity
  8
部品1
 48
50.0
100
AcDbCircle
 10
11795.18133575263
 20
5082.374747633032
 30
0.0
 40
7.0
100
AcDbArc
 50
87.03587545303976
 51
181.0932240292635
  0
ARC
  5
1AFFE
330
747D
100
AcDbEntity
  8
部品1
 48
50.0
100
AcDbCircle
 10
11803.60499385472
 20
4955.423688099938
 30
0.0
 40
7.0
100
AcDbArc
 50
181.0932240292635
 51
267.8377559871574
  0
ARC
  5
1AFFF
330
747D
100
AcDbEntity
  8
部品1
100
AcDbCircle
 10
11793.40486147952
 20
4965.815931482419
 30
0.0
 40
3.0
100
AcDbArc
 50
1.093224029263536
 51
80.18775403148671
  0
ARC
  5
1B000
330
747D
100
AcDbEntity
  8
部品1
100
AcDbCircle
 10
11788.63218788192
 20
5058.681709682538
 30
0.0
 40
3.0
100
AcDbArc
 50
1.093224029263536
 51
80.18775403148671
  0
ARC
  5
1B001
330
747D
100
AcDbEntity
  8
部品1
100
AcDbCircle
 10
11789.26274228494
 20
5062.327584219936
 30
0.0
 40
0.7
100
AcDbArc
 50
181.0932240292114
 51
260.1877540314855
  0
ARC
  5
1B002
330
747D
100
AcDbEntity
  8
部品1
100
AcDbCircle
 10
11794.03541588254
 20
4969.461806019815
 30
0.0
 40
0.7
100
AcDbArc
 50
181.0932240292114
 51
260.1877540314855
  0
LINE
  5
1B003
330
747D
100
AcDbEntity
  8
部品1
 48
50.0
100
AcDbLine
 10
13717.21222682188
 20
5026.588799335132
 30
0.0
 11
13715.18160563091
 21
5006.643758077351
 31
0.0
  0
LINE
  5
1B004
330
747D
100
AcDbEntity
  8
部品1
 48
50.0
100
AcDbLine
 10
13711.82903914643
 20
5003.333124004442
 30
0.0
 11
13704.32225988159
 21
4929.600503259429
 31
0.0
  0
LINE
  5
1B005
330
747D
100
AcDbEntity
  8
部品1
 48
50.0
100
AcDbLine
 10
13700.96969339711
 20
4926.289869186518
 30
0.0
 11
13699.89013035737
 21
4915.686252192958
 31
0.0
  0
ARC
  5
1B006
330
747D
100
AcDbEntity
  8
部品1
 48
50.0
100
AcDbCircle
 10
13710.24822625712
 20
5027.297810007905
 30
0.0
 40
7.0
100
AcDbArc
 50
354.1866997665726
 51
87.03587545303976
  0
ARC
  5
1B007
330
747D
100
AcDbEntity
  8
部品1
 48
50.0
100
AcDbCircle
 10
13692.92612979261
 20
4916.395262865732
 30
0.0
 40
7.0
100
AcDbArc
 50
267.8377559871574
 51
354.1866997665726
  0
ARC
  5
1B008
330
747D
100
AcDbEntity
  8
部品1
100
AcDbCircle
 10
13703.95426506771
 20
4925.986007469616
 30
0.0
 40
3.0
100
AcDbArc
 50
95.0921697642102
 51
174.1866997665726
  0
ARC
  5
1B009
330
747D
100
AcDbEntity
  8
部品1
100
AcDbCircle
 10
13714.81361081704
 20
5003.029262287538
 30
0.0
 40
3.0
100
AcDbArc
 50
95.09216976441896
 51
174.1866997665726
  0
ARC
  5
1B00A
330
747D
100
AcDbEntity
  8
部品1
100
AcDbCircle
 10
13714.48520557444
 20
5006.714659144629
 30
0.0
 40
0.7
100
AcDbArc
 50
275.0921697642102
 51
354.1866997665726
  0
ARC
  5
1B00B
330
747D
100
AcDbEntity
  8
部品1
100
AcDbCircle
 10
13703.62585982512
 20
4929.671404326706
 30
0.0
 40
0.7
100
AcDbArc
 50
275.0921697642102
 51
354.1866997667152
  0
DIMENSION
  5
1B00C
330
747D
100
AcDbEntity
  8
寸法
 48
50.0
100
AcDbDimension
  2
*D33
 10
13717.99832401118
 20
5489.740816400385
 30
0.0
 11
13924.04556810567
 21
5489.740816400385
 31
0.0
 70
   160
 71
     5
 42
80.0
  3
INABA_S40G
100
AcDbAlignedDimension
 13
13637.99832401118
 23
5037.458326672566
 33
0.0
 14
13717.99832401118
 24
5035.647647060913
 34
0.0
100
AcDbRotatedDimension
1001
ACAD
1000
DSTYLE
1002
{
1070
   174
1070
     0
1070
   272
1070
     1
1070
   288
1070
     0
1070
   341
1005
0
1002
}
  0
LINE
  5
1B00D
330
747D
100
AcDbEntity
  8
部品1
 48
50.0
100
AcDbLine
 10
12592.99832401118
 20
5221.515786162192
 30
0.0
 11
12892.99832401118
 21
5221.515786162192
 31
0.0
  0
LINE
  5
1B00E
330
747D
100
AcDbEntity
  8
部品1
 48
50.0
100
AcDbLine
 10
12892.99832401118
 20
5221.515786162192
 30
0.0
 11
12892.99832401118
 21
5205.315786162193
 31
0.0
  0
TEXT
  5
1B00F
330
747D
100
AcDbEntity
  8
部品1
 48
50.0
100
AcDbText
 10
12581.26615923491
 20
5257.399808314625
 30
0.0
 40
120.0
  1
1000
  7
STYLE1
100
AcDbText
  0
TEXT
  5
1B010
330
747D
100
AcDbEntity
  8
部品1
 48
50.0
100
AcDbText
 10
13070.09117129904
 20
5119.898550096343
 30
0.0
 40
120.0
  1
54
 50
90.0
  7
STYLE1
100
AcDbText
  0
LINE
  5
1B011
330
747D
100
AcDbEntity
  8
部品1
100
AcDbLine
 10
12742.99832401118
 20
4855.647647060912
 30
0.0
 11
12742.99832401118
 21
2765.647647060913
 31
0.0
  0
LINE
  5
1B012
330
747D
100
AcDbEntity
  8
細線
 48
50.0
100
AcDbLine
 10
13085.49832401118
 20
4855.647647060912
 30
0.0
 11
13085.49832401118
 21
2765.647647060913
 31
0.0
  0
LINE
  5
1B013
330
747D
100
AcDbEntity
  8
細線
 48
50.0
100
AcDbLine
 10
13100.49832401118
 20
4855.647647060912
 30
0.0
 11
13100.49832401118
 21
2765.647647060913
 31
0.0
  0
LINE
  5
1B014
330
747D
100
AcDbEntity
  8
細線
 48
50.0
100
AcDbLine
 10
12960.49832401118
 20
4855.647647060912
 30
0.0
 11
12960.49832401118
 21
2765.647647060913
 31
0.0
  0
LINE
  5
1B015
330
747D
100
AcDbEntity
  8
細線
 48
50.0
100
AcDbLine
 10
12945.49832401118
 20
4855.647647060912
 30
0.0
 11
12945.49832401118
 21
2765.647647060913
 31
0.0
  0
LINE
  5
1B016
330
747D
100
AcDbEntity
  8
細線
 48
50.0
100
AcDbLine
 10
12805.49832401118
 20
4855.647647060912
 30
0.0
 11
12805.49832401118
 21
2765.647647060913
 31
0.0
  0
LINE
  5
1B017
330
747D
100
AcDbEntity
  8
細線
 48
50.0
100
AcDbLine
 10
12820.49832401118
 20
4855.647647060912
 30
0.0
 11
12820.49832401118
 21
2765.647647060913
 31
0.0
  0
LINE
  5
1B018
330
747D
100
AcDbEntity
  8
部品1
100
AcDbLine
 10
13162.99832401118
 20
4855.647647060912
 30
0.0
 11
13162.99832401118
 21
2765.647647060913
 31
0.0
  0
LINE
  5
1B019
330
747D
100
AcDbEntity
  8
細線
 48
50.0
100
AcDbLine
 10
13240.49832401118
 20
4855.647647060912
 30
0.0
 11
13240.49832401119
 21
2765.647647060913
 31
0.0
  0
LINE
  5
1B01A
330
747D
100
AcDbEntity
  8
細線
 48
50.0
100
AcDbLine
 10
13225.49832401118
 20
4855.647647060912
 30
0.0
 11
13225.49832401119
 21
2765.647647060913
 31
0.0
  0
LINE
  5
1B01B
330
747D
100
AcDbEntity
  8
細線
 48
50.0
100
AcDbLine
 10
13365.49832401118
 20
4855.647647060912
 30
0.0
 11
13365.49832401119
 21
2765.647647060913
 31
0.0
  0
LINE
  5
1B01C
330
747D
100
AcDbEntity
  8
細線
 48
50.0
100
AcDbLine
 10
13380.49832401118
 20
4855.647647060912
 30
0.0
 11
13380.49832401119
 21
2765.647647060913
 31
0.0
  0
LINE
  5
1B01D
330
747D
100
AcDbEntity
  8
細線
 48
50.0
100
AcDbLine
 10
13520.49832401119
 20
4855.647647060912
 30
0.0
 11
13520.49832401119
 21
2765.647647060913
 31
0.0
  0
LINE
  5
1B01E
330
747D
100
AcDbEntity
  8
細線
 48
50.0
100
AcDbLine
 10
13505.49832401119
 20
4855.647647060912
 30
0.0
 11
13505.49832401119
 21
2765.647647060913
 31
0.0
  0
DIMENSION
  5
1B01F
330
747D
100
AcDbEntity
  8
寸法
 48
50.0
100
AcDbDimension
  2
*D34
 10
11227.38991724283
 20
4964.992905934234
 30
0.0
 11
11238.05539250175
 21
5335.83956917594
 31
0.0
 70
   161
 71
     5
 42
141.0
  3
INABA_S40G
100
AcDbAlignedDimension
 13
11807.39434416976
 23
5089.370395895592
 33
0.0
 14
11803.34088861313
 24
4948.428672129879
 34
0.0
1001
ACAD
1000
DSTYLE
1002
{
1070
   174
1070
     0
1070
   272
1070
     1
1070
   288
1070
     0
1070
   341
1005
0
1002
}
  0
LINE
  5
1B020
330
747D
100
AcDbEntity
  8
部品1
 48
50.0
100
AcDbLine
 10
12592.99832401118
 20
5221.515786162192
 30
0.0
 11
12892.99832401118
 21
5205.315786162193
 31
0.0
  0
DIMENSION
  5
1B021
330
747D
100
AcDbEntity
  8
寸法
100
AcDbDimension
  2
*D35
 10
10704.24819482792
 20
5090.647647060914
 30
0.0
 11
10604.2363838043
 21
3903.147647060914
 31
0.0
 70
    32
 71
     5
 42
2375.000000000005
  3
INABA_S40G
100
AcDbAlignedDimension
 13
11847.99832401118
 23
2715.64764706091
 33
0.0
 14
11787.99832401118
 24
5090.647647060914
 34
0.0
 50
90.0
100
AcDbRotatedDimension
1001
ACAD
1000
DSTYLE
1002
{
1070
   174
1070
     0
1070
   272
1070
     1
1070
   288
1070
     0
1070
   341
1005
0
1002
}
  0
DIMENSION
  5
1B022
330
747D
100
AcDbEntity
  8
寸法
100
AcDbDimension
  2
*D36
 10
11004.24819482792
 20
2765.64764706091
 30
0.0
 11
10904.2363838043
 21
3810.647647060913
 31
0.0
 70
    32
 71
     5
 42
2090.000000000001
  3
INABA_S40G
100
AcDbAlignedDimension
 13
11847.99832401118
 23
4855.64764706091
 33
0.0
 14
11847.99832401118
 24
2765.64764706091
 34
0.0
 50
90.0
100
AcDbRotatedDimension
1001
ACAD
1000
DSTYLE
1002
{
1070
   174
1070
     0
1070
   272
1070
     1
1070
   288
1070
     0
1070
   341
1005
0
1002
}
  0
DIMENSION
  5
1B023
330
747D
100
AcDbEntity
  8
寸法
100
AcDbDimension
  2
*D37
 10
14342.92548198331
 20
5035.647647060912
 30
0.0
 11
14242.91367095969
 21
3875.647647060914
 31
0.0
 70
    32
 71
     5
 42
2320.0
  3
INABA_S40G
100
AcDbAlignedDimension
 13
13637.99832401118
 23
2715.647647060912
 33
0.0
 14
13717.99832401118
 24
5035.647647060912
 34
0.0
 50
90.0
100
AcDbRotatedDimension
1001
ACAD
1000
DSTYLE
1002
{
1070
   174
1070
     0
1070
   272
1070
     1
1070
   288
1070
     0
1070
   341
1005
0
1002
}
  0
LINE
  5
1B024
330
747D
100
AcDbEntity
  8
破線
 48
5.0
100
AcDbLine
 10
11847.99832401118
 20
2365.647647060912
 30
0.0
 11
11902.99832401118
 21
2365.647647060912
 31
0.0
  0
LINE
  5
1B029
330
747D
100
AcDbEntity
  8
破線
 48
5.0
100
AcDbLine
 10
11847.99832401118
 20
2615.647647060912
 30
0.0
 11
11847.99832401118
 21
2365.647647060912
 31
0.0
  0
LINE
  5
1B02B
330
747D
100
AcDbEntity
  8
破線
 48
5.0
100
AcDbLine
 10
11902.99832401118
 20
2615.647647060912
 30
0.0
 11
11902.99832401118
 21
2365.647647060912
 31
0.0
  0
LINE
  5
1B0FD
330
747D
100
AcDbEntity
  8
Ｇ．Ｌ
100
AcDbLine
 10
491.4226358216518
 20
2615.647647060912
 30
0.0
 11
14954.22240378782
 21
2615.647647060912
 31
0.0
  0
LINE
  5
1C5A2
330
747D
100
AcDbEntity
  8
部品1
100
AcDbLine
 10
809.3323240182654
 20
2745.551457628577
 30
0.0
 11
734.3323240182654
 21
2615.647647060912
 31
0.0
  0
TEXT
  5
1C5A3
330
747D
100
AcDbEntity
  8
部品1
100
AcDbText
 10
837.4372661430388
 20
2651.754550666814
 30
0.0
 40
125.0
  1
G.L
  7
STYLE2
100
AcDbText
  0
LINE
  5
1C5A4
330
747D
100
AcDbEntity
  8
部品1
100
AcDbLine
 10
734.3323240182654
 20
2615.647647060912
 30
0.0
 11
659.3323240182654
 21
2745.551457628577
 31
0.0
  0
LINE
  5
1C5A5
330
747D
100
AcDbEntity
  8
部品1
100
AcDbLine
 10
659.3323240182654
 20
2745.551457628577
 30
0.0
 11
809.3323240182654
 21
2745.551457628577
 31
0.0
  0
LWPOLYLINE
  5
1C5A6
330
747D
100
AcDbEntity
  8
部品1
100
AcDbPolyline
 90
        4
 70
     1
 43
0.0
 10
5211.366582250431
 20
1965.647647060911
 10
5211.366582250431
 20
1725.755325515378
 10
5974.837248478872
 20
1725.755325515378
 10
5974.837248478872
 20
1965.647647060911
  0
TEXT
  5
1C5A7
330
747D
100
AcDbEntity
  8
部品1
100
AcDbText
 10
5301.891985988388
 20
1772.754117842388
 30
0.0
 40
135.0
  1
正面図
  7
STYLE2
100
AcDbText
  0
LINE
  5
1C5B4
330
747D
100
AcDbEntity
  8
部品1
 48
50.0
100
AcDbLine
 10
6898.101915364643
 20
4949.647647060913
 30
0.0
 11
6898.101915364641
 21
5090.647647060915
 31
0.0
  0
LINE
  5
1C5B5
330
747D
100
AcDbEntity
  8
部品1
 48
50.0
100
AcDbLine
 10
6908.101915364643
 20
4690.647647060911
 30
0.0
 11
6908.101915364643
 21
4949.647647060913
 31
0.0
  0
LINE
  5
1C5B6
330
747D
100
AcDbEntity
  8
部品1
100
AcDbLine
 10
6805.101915364646
 20
4690.647647060914
 30
0.0
 11
6805.101915364644
 21
2765.647647060914
 31
0.0
  0
LINE
  5
1C5B7
330
747D
100
AcDbEntity
  8
部品1
100
AcDbLine
 10
6853.101915364645
 20
4690.647647060909
 30
0.0
 11
6853.101915364641
 21
2615.647647060914
 31
0.0
  0
LINE
  5
1C5BA
330
747D
100
AcDbEntity
  8
部品1
100
AcDbLine
 10
7011.101915364645
 20
4690.647647060914
 30
0.0
 11
7011.101915364645
 21
2765.647647060915
 31
0.0
  0
LINE
  5
1C5BC
330
747D
100
AcDbEntity
  8
部品1
100
AcDbLine
 10
6963.101915364643
 20
4690.647647060909
 30
0.0
 11
6963.101915364645
 21
2615.647647060914
 31
0.0
  0
LINE
  5
1C5E2
330
747D
100
AcDbEntity
  8
部品1
 48
50.0
100
AcDbLine
 10
9580.693494258211
 20
5090.647647060914
 30
0.0
 11
6898.101915364643
 21
5090.647647060914
 31
0.0
  0
LINE
  5
1C5E3
330
747D
100
AcDbEntity
  8
部品1
 48
50.0
100
AcDbLine
 10
9567.478170797178
 20
4949.647647060913
 30
0.0
 11
6908.101915364643
 21
4949.647647060913
 31
0.0
  0
LINE
  5
1C5E4
330
747D
100
AcDbEntity
  8
細線
 48
50.0
100
AcDbLine
 10
9585.943264352728
 20
5062.620889624382
 30
0.0
 11
6898.101915364643
 21
5062.620889624382
 31
0.0
  0
LINE
  5
1C5E5
330
747D
100
AcDbEntity
  8
細線
 48
50.0
100
AcDbLine
 10
9577.707233827885
 20
4970.420889624381
 30
0.0
 11
6898.101915364643
 21
4970.420889624701
 31
0.0
  0
LINE
  5
1C5E6
330
747D
100
AcDbEntity
  8
部品1
100
AcDbLine
 10
9587.68225434931
 20
5083.251121665673
 30
0.0
 11
9586.548857016966
 21
5063.274993683075
 31
0.0
  0
LINE
  5
1C5E7
330
747D
100
AcDbEntity
  8
細線
 48
50.0
100
AcDbLine
 10
9555.101915364645
 20
5090.647647060914
 30
0.0
 11
9555.101915364645
 21
4949.647647060913
 31
0.0
  0
LINE
  5
1C5E8
330
747D
100
AcDbEntity
  8
部品1
100
AcDbLine
 10
9575.11183669539
 20
4967.617586516016
 30
0.0
 11
9574.466930888275
 21
4956.251121665676
 31
0.0
  0
LINE
  5
1C5E9
330
747D
100
AcDbEntity
  8
部品1
100
AcDbLine
 10
9583.347867220233
 20
5059.817586516017
 30
0.0
 11
9578.312826492121
 21
4971.074993683075
 31
0.0
  0
ARC
  5
1C5EA
330
747D
100
AcDbEntity
  8
部品1
 48
50.0
100
AcDbCircle
 10
9586.343050116418
 20
5059.647647060914
 30
0.0
 40
3.0
100
AcDbArc
 50
97.65812720736347
 51
176.7526572096623
  0
ARC
  5
1C5EB
330
747D
100
AcDbEntity
  8
部品1
 48
50.0
100
AcDbCircle
 10
9578.107019591575
 20
4967.447647060914
 30
0.0
 40
3.0
100
AcDbArc
 50
97.65812720736347
 51
176.7526572096623
  0
ARC
  5
1C5EC
330
747D
100
AcDbEntity
  8
部品1
 48
50.0
100
AcDbCircle
 10
9577.613950483014
 20
4971.114646222597
 30
0.0
 40
0.7
100
AcDbArc
 50
277.6581272073635
 51
356.7526572097013
  0
ARC
  5
1C5ED
330
747D
100
AcDbEntity
  8
部品1
 48
50.0
100
AcDbCircle
 10
9585.849981007857
 20
5063.314646222601
 30
0.0
 40
0.7
100
AcDbArc
 50
277.6581272073635
 51
356.7526572096103
  0
ARC
  5
1C5EE
330
747D
100
AcDbEntity
  8
部品1
100
AcDbCircle
 10
9567.478170797178
 20
4956.647647060914
 30
0.0
 40
7.0
100
AcDbArc
 50
270.0
 51
356.7526572096623
  0
ARC
  5
1C5EF
330
747D
100
AcDbEntity
  8
部品1
100
AcDbCircle
 10
9580.693494258211
 20
5083.647647060914
 30
0.0
 40
7.0
100
AcDbArc
 50
356.7526572096623
 51
90.0
  0
LINE
  5
1C5F0
330
747D
100
AcDbEntity
  8
部品1
100
AcDbLine
 10
6908.101915364641
 20
4855.64764706091
 30
0.0
 11
9538.101915364642
 21
4855.64764706091
 31
0.0
  0
DIMENSION
  5
1C5F1
330
747D
100
AcDbEntity
  8
寸法
 48
50.0
100
AcDbDimension
  2
*D41
 10
9538.101915364645
 20
5489.740816400384
 30
0.0
 11
9901.587196738882
 21
5489.740816400384
 31
0.0
 70
   160
 71
     5
 42
50.0
  3
INABA_S40G
100
AcDbAlignedDimension
 13
9588.101915364644
 23
5090.647647060913
 33
0.0
 14
9538.101915364645
 24
5090.647647060915
 34
0.0
100
AcDbRotatedDimension
  0
LINE
  5
1C5F2
330
747D
100
AcDbEntity
  8
部品1
100
AcDbLine
 10
9483.101915364645
 20
4690.647647060909
 30
0.0
 11
9483.101915364644
 21
2615.647647060914
 31
0.0
  0
LINE
  5
1C5F3
330
747D
100
AcDbEntity
  8
部品1
100
AcDbLine
 10
9538.101915364647
 20
4949.647647060913
 30
0.0
 11
9538.101915364645
 21
2615.647647060914
 31
0.0
  0
LINE
  5
1C5F7
330
747D
100
AcDbEntity
  8
破線
  6
HIDDEN
 48
5.0
100
AcDbLine
 10
9538.101915364645
 20
2615.647647060914
 30
0.0
 11
9538.101915364645
 21
2365.647647060914
 31
0.0
  0
LINE
  5
1C5F9
330
747D
100
AcDbEntity
  8
破線
  6
HIDDEN
 48
5.0
100
AcDbLine
 10
9483.101915364645
 20
2615.647647060914
 30
0.0
 11
9483.101915364645
 21
2365.647647060914
 31
0.0
  0
LINE
  5
1C5FA
330
747D
100
AcDbEntity
  8
破線
  6
HIDDEN
 48
5.0
100
AcDbLine
 10
9538.101915364643
 20
2365.647647060914
 30
0.0
 11
9483.101915364645
 21
2365.647647060914
 31
0.0
  0
LINE
  5
1C5FB
330
747D
100
AcDbEntity
  8
部品1
100
AcDbLine
 10
9435.101915364645
 20
4690.647647060914
 30
0.0
 11
9435.101915364645
 21
2765.647647060914
 31
0.0
  0
LINE
  5
1C5FC
330
747D
100
AcDbEntity
  8
細線
100
AcDbLine
 10
7011.101915364641
 20
4400.647647060914
 30
0.0
 11
9435.101915364644
 21
4400.647647060914
 31
0.0
  0
LINE
  5
1C5FD
330
747D
100
AcDbEntity
  8
細線
100
AcDbLine
 10
7011.101915364641
 20
4465.647647060914
 30
0.0
 11
9435.101915364644
 21
4465.647647060914
 31
0.0
  0
LINE
  5
1C5FE
330
747D
100
AcDbEntity
  8
細線
100
AcDbLine
 10
7011.101915364641
 20
4530.647647060914
 30
0.0
 11
9435.101915364644
 21
4530.647647060914
 31
0.0
  0
LINE
  5
1C5FF
330
747D
100
AcDbEntity
  8
細線
100
AcDbLine
 10
7011.101915364641
 20
4010.647647060913
 30
0.0
 11
9435.101915364644
 21
4010.647647060913
 31
0.0
  0
LINE
  5
1C600
330
747D
100
AcDbEntity
  8
細線
100
AcDbLine
 10
7011.101915364641
 20
4075.647647060914
 30
0.0
 11
9435.101915364644
 21
4075.647647060914
 31
0.0
  0
LINE
  5
1C601
330
747D
100
AcDbEntity
  8
細線
100
AcDbLine
 10
7011.101915364641
 20
4140.647647060914
 30
0.0
 11
9435.101915364644
 21
4140.647647060914
 31
0.0
  0
LINE
  5
1C602
330
747D
100
AcDbEntity
  8
細線
100
AcDbLine
 10
7011.101915364641
 20
4205.647647060914
 30
0.0
 11
9435.101915364644
 21
4205.647647060914
 31
0.0
  0
LINE
  5
1C603
330
747D
100
AcDbEntity
  8
細線
100
AcDbLine
 10
7011.101915364641
 20
4270.647647060914
 30
0.0
 11
9435.101915364644
 21
4270.647647060914
 31
0.0
  0
LINE
  5
1C604
330
747D
100
AcDbEntity
  8
細線
100
AcDbLine
 10
7011.101915364641
 20
4335.647647060914
 30
0.0
 11
9435.101915364644
 21
4335.647647060914
 31
0.0
  0
LINE
  5
1C605
330
747D
100
AcDbEntity
  8
細線
100
AcDbLine
 10
7011.101915364641
 20
3360.647647060914
 30
0.0
 11
9435.101915364644
 21
3360.647647060914
 31
0.0
  0
LINE
  5
1C606
330
747D
100
AcDbEntity
  8
細線
100
AcDbLine
 10
7011.101915364641
 20
3425.647647060914
 30
0.0
 11
9435.101915364644
 21
3425.647647060914
 31
0.0
  0
LINE
  5
1C607
330
747D
100
AcDbEntity
  8
細線
100
AcDbLine
 10
7011.101915364641
 20
3490.647647060914
 30
0.0
 11
9435.101915364644
 21
3490.647647060914
 31
0.0
  0
LINE
  5
1C608
330
747D
100
AcDbEntity
  8
細線
100
AcDbLine
 10
7011.101915364641
 20
3555.647647060914
 30
0.0
 11
9435.101915364644
 21
3555.647647060914
 31
0.0
  0
LINE
  5
1C609
330
747D
100
AcDbEntity
  8
細線
100
AcDbLine
 10
7011.101915364641
 20
3620.647647060914
 30
0.0
 11
9435.101915364644
 21
3620.647647060914
 31
0.0
  0
LINE
  5
1C60A
330
747D
100
AcDbEntity
  8
細線
100
AcDbLine
 10
7011.101915364641
 20
3685.647647060914
 30
0.0
 11
9435.101915364644
 21
3685.647647060914
 31
0.0
  0
LINE
  5
1C60B
330
747D
100
AcDbEntity
  8
細線
100
AcDbLine
 10
7011.101915364641
 20
3750.647647060914
 30
0.0
 11
9435.101915364644
 21
3750.647647060914
 31
0.0
  0
LINE
  5
1C60C
330
747D
100
AcDbEntity
  8
細線
100
AcDbLine
 10
7011.101915364641
 20
3815.647647060913
 30
0.0
 11
9435.101915364644
 21
3815.647647060913
 31
0.0
  0
LINE
  5
1C60D
330
747D
100
AcDbEntity
  8
細線
100
AcDbLine
 10
7011.101915364641
 20
3880.647647060913
 30
0.0
 11
9435.101915364644
 21
3880.647647060913
 31
0.0
  0
LINE
  5
1C60E
330
747D
100
AcDbEntity
  8
細線
100
AcDbLine
 10
7011.101915364641
 20
3945.647647060914
 30
0.0
 11
9435.101915364644
 21
3945.647647060914
 31
0.0
  0
LINE
  5
1C60F
330
747D
100
AcDbEntity
  8
細線
100
AcDbLine
 10
7011.101915364641
 20
4660.647647060915
 30
0.0
 11
9435.101915364644
 21
4660.647647060915
 31
0.0
  0
LINE
  5
1C610
330
747D
100
AcDbEntity
  8
細線
100
AcDbLine
 10
7011.101915364641
 20
4595.647647060913
 30
0.0
 11
9435.101915364644
 21
4595.647647060913
 31
0.0
  0
LINE
  5
1C611
330
747D
100
AcDbEntity
  8
細線
100
AcDbLine
 10
7011.101915364641
 20
2840.647647060914
 30
0.0
 11
9435.101915364644
 21
2840.647647060914
 31
0.0
  0
LINE
  5
1C612
330
747D
100
AcDbEntity
  8
細線
100
AcDbLine
 10
7011.101915364641
 20
2905.647647060914
 30
0.0
 11
9435.101915364644
 21
2905.647647060914
 31
0.0
  0
LINE
  5
1C613
330
747D
100
AcDbEntity
  8
細線
100
AcDbLine
 10
7011.101915364641
 20
2970.647647060914
 30
0.0
 11
9435.101915364644
 21
2970.647647060914
 31
0.0
  0
LINE
  5
1C614
330
747D
100
AcDbEntity
  8
細線
100
AcDbLine
 10
7011.101915364641
 20
3035.647647060914
 30
0.0
 11
9435.101915364644
 21
3035.647647060914
 31
0.0
  0
LINE
  5
1C615
330
747D
100
AcDbEntity
  8
細線
100
AcDbLine
 10
7011.101915364641
 20
3100.647647060914
 30
0.0
 11
9435.101915364644
 21
3100.647647060914
 31
0.0
  0
LINE
  5
1C616
330
747D
100
AcDbEntity
  8
細線
100
AcDbLine
 10
7011.101915364641
 20
3165.647647060914
 30
0.0
 11
9435.101915364644
 21
3165.647647060914
 31
0.0
  0
LINE
  5
1C617
330
747D
100
AcDbEntity
  8
細線
100
AcDbLine
 10
7011.101915364641
 20
3230.647647060914
 30
0.0
 11
9435.101915364644
 21
3230.647647060914
 31
0.0
  0
LINE
  5
1C618
330
747D
100
AcDbEntity
  8
細線
100
AcDbLine
 10
7011.101915364641
 20
3295.647647060914
 30
0.0
 11
9435.101915364644
 21
3295.647647060914
 31
0.0
  0
LINE
  5
1C619
330
747D
100
AcDbEntity
  8
細線
100
AcDbLine
 10
9435.101915364645
 20
2775.647647060914
 30
0.0
 11
7011.10191536464
 21
2775.647647060914
 31
0.0
  0
CIRCLE
  5
1C61D
330
747D
100
AcDbEntity
  8
細線
 48
50.0
100
AcDbCircle
 10
8223.101915364642
 20
3653.147647060914
 30
0.0
 40
18.0
  0
ARC
  5
1C61E
330
747D
100
AcDbEntity
  8
細線
 48
50.0
100
AcDbCircle
 10
8523.101915364643
 20
3328.147647060914
 30
0.0
 40
15.0
100
AcDbArc
 50
270.0
 51
90.0
  0
ARC
  5
1C61F
330
747D
100
AcDbEntity
  8
細線
 48
50.0
100
AcDbCircle
 10
8423.101915364643
 20
3328.147647060914
 30
0.0
 40
15.0
100
AcDbArc
 50
90.0
 51
270.0
  0
LINE
  5
1C620
330
747D
100
AcDbEntity
  8
細線
 48
50.0
100
AcDbLine
 10
8423.101915364643
 20
3343.147647060913
 30
0.0
 11
8523.101915364643
 21
3343.147647060913
 31
0.0
  0
LINE
  5
1C621
330
747D
100
AcDbEntity
  8
細線
 48
50.0
100
AcDbLine
 10
8523.101915364643
 20
3313.147647060914
 30
0.0
 11
8423.101915364643
 21
3313.147647060914
 31
0.0
  0
LINE
  5
1C622
330
747D
100
AcDbEntity
  8
細線
 48
50.0
100
AcDbLine
 10
8023.101915364643
 20
3313.147647060914
 30
0.0
 11
7923.101915364643
 21
3313.147647060914
 31
0.0
  0
LINE
  5
1C623
330
747D
100
AcDbEntity
  8
細線
 48
50.0
100
AcDbLine
 10
7923.101915364643
 20
3343.147647060913
 30
0.0
 11
8023.101915364643
 21
3343.147647060913
 31
0.0
  0
ARC
  5
1C624
330
747D
100
AcDbEntity
  8
細線
 48
50.0
100
AcDbCircle
 10
8023.101915364643
 20
3328.147647060914
 30
0.0
 40
15.0
100
AcDbArc
 50
270.0
 51
90.0
  0
ARC
  5
1C625
330
747D
100
AcDbEntity
  8
細線
 48
50.0
100
AcDbCircle
 10
7923.101915364643
 20
3328.147647060914
 30
0.0
 40
15.0
100
AcDbArc
 50
90.0
 51
270.0
  0
LINE
  5
1C626
330
747D
100
AcDbEntity
  8
部品1
100
AcDbLine
 10
6963.101915364645
 20
4690.647647060914
 30
0.0
 11
9538.101915364649
 21
4690.647647060914
 31
0.0
  0
LINE
  5
1C627
330
747D
100
AcDbEntity
  8
部品1
100
AcDbLine
 10
6963.101915364645
 20
2765.647647060914
 30
0.0
 11
9483.101915364645
 21
2765.647647060914
 31
0.0
  0
LINE
  5
1C628
330
747D
100
AcDbEntity
  8
部品1
100
AcDbLine
 10
6963.101915364645
 20
2715.647647060914
 30
0.0
 11
9483.101915364645
 21
2715.647647060914
 31
0.0
  0
LINE
  5
1C629
330
747D
100
AcDbEntity
  8
部品1
 48
50.0
100
AcDbLine
 10
4278.101915364641
 20
4690.647647060911
 30
0.0
 11
4278.101915364641
 21
4949.647647060913
 31
0.0
  0
LINE
  5
1C62A
330
747D
100
AcDbEntity
  8
部品1
 48
50.0
100
AcDbLine
 10
4268.101915364641
 20
4949.647647060913
 30
0.0
 11
4268.101915364641
 21
5090.647647060915
 31
0.0
  0
LINE
  5
1C62F
330
747D
100
AcDbEntity
  8
部品1
100
AcDbLine
 10
4333.101915364645
 20
4690.64764706091
 30
0.0
 11
4333.101915364645
 21
2615.647647060914
 31
0.0
  0
LINE
  5
1C630
330
747D
100
AcDbEntity
  8
部品1
100
AcDbLine
 10
4381.101915364644
 20
4690.647647060914
 30
0.0
 11
4381.101915364647
 21
2765.647647060915
 31
0.0
  0
LINE
  5
1C631
330
747D
100
AcDbEntity
  8
部品1
100
AcDbLine
 10
4223.101915364645
 20
4690.64764706091
 30
0.0
 11
4223.101915364643
 21
2615.647647060914
 31
0.0
  0
LINE
  5
1C632
330
747D
100
AcDbEntity
  8
部品1
100
AcDbLine
 10
4175.101915364646
 20
4690.647647060914
 30
0.0
 11
4175.101915364643
 21
2765.647647060914
 31
0.0
  0
DIMENSION
  5
1C636
330
747D
100
AcDbEntity
  8
寸法
 48
50.0
100
AcDbDimension
  2
*D40
 10
9588.101915364644
 20
5706.266916018829
 30
0.0
 11
5593.101915364648
 21
5806.27872704245
 31
0.0
 70
    32
  1
N X 2630+100
 71
     5
 42
7989.999999999993
  3
INABA_S40G
100
AcDbAlignedDimension
 13
1598.101915364652
 23
5090.647647060915
 33
0.0
 14
9588.101915364644
 24
5090.647647060913
 34
0.0
100
AcDbRotatedDimension
  0
DIMENSION
  5
1C637
330
747D
100
AcDbEntity
  8
寸法
 48
50.0
100
AcDbDimension
  2
*D39
 10
1648.101915364652
 20
5489.740816400384
 30
0.0
 11
5593.101915364648
 21
5589.752627424005
 31
0.0
 70
    32
  1
柱外寸法 N X 2630
 71
     5
 42
7889.999999999993
  3
INABA_S40G
100
AcDbAlignedDimension
 13
9538.101915364645
 23
5090.647647060915
 33
0.0
 14
1648.101915364652
 24
5090.647647060917
 34
0.0
100
AcDbRotatedDimension
  0
LINE
  5
1C643
330
747D
100
AcDbEntity
  8
細線
 48
50.0
100
AcDbLine
 10
1631.101915364652
 20
5090.647647060914
 30
0.0
 11
1631.101915364652
 21
4949.647647060913
 31
0.0
  0
ARC
  5
1C644
330
747D
100
AcDbEntity
  8
部品1
100
AcDbCircle
 10
1605.510336471078
 20
5083.647647060914
 30
0.0
 40
7.0
100
AcDbArc
 50
90.0
 51
183.2473427903377
  0
ARC
  5
1C645
330
747D
100
AcDbEntity
  8
部品1
100
AcDbCircle
 10
1618.725659932115
 20
4956.647647060914
 30
0.0
 40
7.0
100
AcDbArc
 50
183.2473427903377
 51
270.0
  0
ARC
  5
1C646
330
747D
100
AcDbEntity
  8
部品1
 48
50.0
100
AcDbCircle
 10
1600.353849721436
 20
5063.314646222601
 30
0.0
 40
0.7
100
AcDbArc
 50
183.2473427903897
 51
262.3418727926365
  0
ARC
  5
1C647
330
747D
100
AcDbEntity
  8
部品1
 48
50.0
100
AcDbCircle
 10
1608.589880246279
 20
4971.114646222597
 30
0.0
 40
0.7
100
AcDbArc
 50
183.2473427902987
 51
262.3418727926365
  0
ARC
  5
1C648
330
747D
100
AcDbEntity
  8
部品1
 48
50.0
100
AcDbCircle
 10
1608.096811137719
 20
4967.447647060914
 30
0.0
 40
3.0
100
AcDbArc
 50
3.247342790337682
 51
82.34187279263654
  0
ARC
  5
1C649
330
747D
100
AcDbEntity
  8
部品1
 48
50.0
100
AcDbCircle
 10
1599.860780612875
 20
5059.647647060914
 30
0.0
 40
3.0
100
AcDbArc
 50
3.247342790337682
 51
82.34187279263654
  0
LINE
  5
1C64A
330
747D
100
AcDbEntity
  8
部品1
100
AcDbLine
 10
1602.85596350906
 20
5059.817586516017
 30
0.0
 11
1607.891004237168
 21
4971.074993683075
 31
0.0
  0
LINE
  5
1C64B
330
747D
100
AcDbEntity
  8
部品1
100
AcDbLine
 10
1611.091994033904
 20
4967.617586516016
 30
0.0
 11
1611.736899841013
 21
4956.251121665676
 31
0.0
  0
LINE
  5
1C64C
330
747D
100
AcDbEntity
  8
部品1
100
AcDbLine
 10
1598.521576379982
 20
5083.251121665673
 30
0.0
 11
1599.654973712331
 21
5063.274993683075
 31
0.0
  0
LINE
  5
1C64D
330
747D
100
AcDbEntity
  8
部品1
100
AcDbLine
 10
1648.101915364648
 20
4949.647647060913
 30
0.0
 11
1648.101915364645
 21
2615.647647060911
 31
0.0
  0
LINE
  5
1C64E
330
747D
100
AcDbEntity
  8
部品1
100
AcDbLine
 10
1703.101915364644
 20
4690.647647060911
 30
0.0
 11
1703.101915364644
 21
2615.647647060911
 31
0.0
  0
LINE
  5
1C652
330
747D
100
AcDbEntity
  8
破線
  6
HIDDEN
 48
5.0
100
AcDbLine
 10
1648.101915364645
 20
2615.647647060911
 30
0.0
 11
1648.101915364645
 21
2365.647647060911
 31
0.0
  0
LINE
  5
1C653
330
747D
100
AcDbEntity
  8
破線
  6
HIDDEN
 48
5.0
100
AcDbLine
 10
1703.101915364644
 20
2615.647647060912
 30
0.0
 11
1703.101915364644
 21
2365.647647060911
 31
0.0
  0
LINE
  5
1C654
330
747D
100
AcDbEntity
  8
破線
  6
HIDDEN
 48
5.0
100
AcDbLine
 10
1703.101915364644
 20
2365.647647060918
 30
0.0
 11
1648.101915364645
 21
2365.647647060918
 31
0.0
  0
LINE
  5
1C655
330
747D
100
AcDbEntity
  8
部品1
100
AcDbLine
 10
1751.101915364644
 20
4690.64764706091
 30
0.0
 11
1751.101915364644
 21
2765.647647060911
 31
0.0
  0
DIMENSION
  5
1C656
330
747D
100
AcDbEntity
  8
寸法
 48
50.0
100
AcDbDimension
  2
*D38
 10
1598.101915364652
 20
5489.740816400384
 30
0.0
 11
1284.616633990405
 21
5489.740816400384
 31
0.0
 70
   160
 71
     5
 42
50.0
  3
INABA_S40G
100
AcDbAlignedDimension
 13
1648.101915364652
 23
5090.647647060917
 33
0.0
 14
1598.101915364652
 24
5090.647647060915
 34
0.0
100
AcDbRotatedDimension
1001
ACAD
1000
DSTYLE
1002
{
1002
}
  0
LINE
  5
1C678
330
747D
100
AcDbEntity
  8
部品1
 48
50.0
100
AcDbLine
 10
4268.101915364641
 20
5090.647647060914
 30
0.0
 11
1605.510336471078
 21
5090.647647060914
 31
0.0
  0
LINE
  5
1C679
330
747D
100
AcDbEntity
  8
部品1
 48
50.0
100
AcDbLine
 10
4278.101915364641
 20
4949.647647060913
 30
0.0
 11
1618.725659932115
 21
4949.647647060913
 31
0.0
  0
LINE
  5
1C67A
330
747D
100
AcDbEntity
  8
細線
 48
50.0
100
AcDbLine
 10
4268.101915364641
 20
5062.620889624382
 30
0.0
 11
1600.260566376612
 21
5062.620889624703
 31
0.0
  0
LINE
  5
1C67B
330
747D
100
AcDbEntity
  8
細線
 48
50.0
100
AcDbLine
 10
4268.101915364641
 20
4970.420889624698
 30
0.0
 11
1608.496596901448
 21
4970.420889624701
 31
0.0
  0
LINE
  5
1C67C
330
747D
100
AcDbEntity
  8
部品1
100
AcDbLine
 10
1648.101915364645
 20
4855.64764706091
 30
0.0
 11
4278.101915364641
 21
4855.64764706091
 31
0.0
  0
LINE
  5
1C67D
330
747D
100
AcDbEntity
  8
部品1
100
AcDbLine
 10
1648.101915364648
 20
4690.647647060911
 30
0.0
 11
4333.101915364646
 21
4690.64764706091
 31
0.0
  0
LINE
  5
1C67E
330
747D
100
AcDbEntity
  8
細線
100
AcDbLine
 10
1751.101915364641
 20
3295.647647060911
 30
0.0
 11
4175.101915364645
 21
3295.647647060911
 31
0.0
  0
LINE
  5
1C67F
330
747D
100
AcDbEntity
  8
細線
100
AcDbLine
 10
1751.101915364641
 20
3230.647647060911
 30
0.0
 11
4175.101915364645
 21
3230.647647060911
 31
0.0
  0
LINE
  5
1C680
330
747D
100
AcDbEntity
  8
細線
100
AcDbLine
 10
1751.101915364641
 20
3165.647647060911
 30
0.0
 11
4175.101915364645
 21
3165.647647060911
 31
0.0
  0
LINE
  5
1C681
330
747D
100
AcDbEntity
  8
細線
100
AcDbLine
 10
1751.101915364641
 20
3100.647647060911
 30
0.0
 11
4175.101915364645
 21
3100.647647060911
 31
0.0
  0
LINE
  5
1C682
330
747D
100
AcDbEntity
  8
細線
100
AcDbLine
 10
1751.101915364641
 20
3035.647647060911
 30
0.0
 11
4175.101915364645
 21
3035.647647060911
 31
0.0
  0
LINE
  5
1C683
330
747D
100
AcDbEntity
  8
細線
100
AcDbLine
 10
1751.101915364641
 20
2970.647647060911
 30
0.0
 11
4175.101915364645
 21
2970.647647060911
 31
0.0
  0
LINE
  5
1C684
330
747D
100
AcDbEntity
  8
細線
100
AcDbLine
 10
1751.101915364641
 20
2905.647647060911
 30
0.0
 11
4175.101915364645
 21
2905.647647060911
 31
0.0
  0
LINE
  5
1C685
330
747D
100
AcDbEntity
  8
細線
100
AcDbLine
 10
1751.101915364641
 20
2840.647647060911
 30
0.0
 11
4175.101915364645
 21
2840.647647060911
 31
0.0
  0
LINE
  5
1C686
330
747D
100
AcDbEntity
  8
細線
100
AcDbLine
 10
1751.101915364641
 20
4595.64764706091
 30
0.0
 11
4175.101915364646
 21
4595.64764706091
 31
0.0
  0
LINE
  5
1C687
330
747D
100
AcDbEntity
  8
細線
100
AcDbLine
 10
1751.101915364641
 20
4660.64764706091
 30
0.0
 11
4175.101915364648
 21
4660.64764706091
 31
0.0
  0
LINE
  5
1C688
330
747D
100
AcDbEntity
  8
細線
100
AcDbLine
 10
1751.101915364641
 20
3945.647647060911
 30
0.0
 11
4175.101915364645
 21
3945.647647060911
 31
0.0
  0
LINE
  5
1C689
330
747D
100
AcDbEntity
  8
細線
100
AcDbLine
 10
1751.101915364641
 20
3880.647647060911
 30
0.0
 11
4175.101915364645
 21
3880.647647060911
 31
0.0
  0
LINE
  5
1C68A
330
747D
100
AcDbEntity
  8
細線
100
AcDbLine
 10
1751.101915364641
 20
3815.647647060911
 30
0.0
 11
4175.101915364645
 21
3815.647647060911
 31
0.0
  0
LINE
  5
1C68B
330
747D
100
AcDbEntity
  8
細線
100
AcDbLine
 10
1751.101915364641
 20
3750.647647060911
 30
0.0
 11
4175.101915364645
 21
3750.647647060911
 31
0.0
  0
LINE
  5
1C68C
330
747D
100
AcDbEntity
  8
細線
100
AcDbLine
 10
1751.101915364641
 20
3685.647647060911
 30
0.0
 11
4175.101915364645
 21
3685.647647060911
 31
0.0
  0
LINE
  5
1C68D
330
747D
100
AcDbEntity
  8
細線
100
AcDbLine
 10
1751.101915364641
 20
3620.647647060911
 30
0.0
 11
4175.101915364645
 21
3620.647647060911
 31
0.0
  0
LINE
  5
1C68E
330
747D
100
AcDbEntity
  8
細線
100
AcDbLine
 10
1751.101915364641
 20
3555.647647060911
 30
0.0
 11
4175.101915364645
 21
3555.647647060911
 31
0.0
  0
LINE
  5
1C68F
330
747D
100
AcDbEntity
  8
細線
100
AcDbLine
 10
1751.101915364641
 20
3490.647647060911
 30
0.0
 11
4175.101915364645
 21
3490.647647060911
 31
0.0
  0
LINE
  5
1C690
330
747D
100
AcDbEntity
  8
細線
100
AcDbLine
 10
1751.101915364641
 20
3425.647647060911
 30
0.0
 11
4175.101915364645
 21
3425.647647060911
 31
0.0
  0
LINE
  5
1C691
330
747D
100
AcDbEntity
  8
細線
100
AcDbLine
 10
1751.101915364641
 20
3360.647647060911
 30
0.0
 11
4175.101915364645
 21
3360.647647060911
 31
0.0
  0
LINE
  5
1C692
330
747D
100
AcDbEntity
  8
細線
100
AcDbLine
 10
1751.101915364641
 20
4335.64764706091
 30
0.0
 11
4175.101915364646
 21
4335.64764706091
 31
0.0
  0
LINE
  5
1C693
330
747D
100
AcDbEntity
  8
細線
100
AcDbLine
 10
1751.101915364641
 20
4270.64764706091
 30
0.0
 11
4175.101915364646
 21
4270.64764706091
 31
0.0
  0
LINE
  5
1C694
330
747D
100
AcDbEntity
  8
細線
100
AcDbLine
 10
1751.101915364641
 20
4205.64764706091
 30
0.0
 11
4175.101915364646
 21
4205.647647060911
 31
0.0
  0
LINE
  5
1C695
330
747D
100
AcDbEntity
  8
細線
100
AcDbLine
 10
1751.101915364641
 20
4140.647647060911
 30
0.0
 11
4175.101915364646
 21
4140.647647060911
 31
0.0
  0
LINE
  5
1C696
330
747D
100
AcDbEntity
  8
細線
100
AcDbLine
 10
1751.101915364641
 20
4075.64764706091
 30
0.0
 11
4175.101915364646
 21
4075.647647060911
 31
0.0
  0
LINE
  5
1C697
330
747D
100
AcDbEntity
  8
細線
100
AcDbLine
 10
1751.101915364641
 20
4010.647647060911
 30
0.0
 11
4175.101915364646
 21
4010.64764706091
 31
0.0
  0
LINE
  5
1C698
330
747D
100
AcDbEntity
  8
細線
100
AcDbLine
 10
1751.101915364641
 20
4530.64764706091
 30
0.0
 11
4175.101915364646
 21
4530.64764706091
 31
0.0
  0
LINE
  5
1C699
330
747D
100
AcDbEntity
  8
細線
100
AcDbLine
 10
1751.101915364641
 20
4465.647647060911
 30
0.0
 11
4175.101915364646
 21
4465.647647060911
 31
0.0
  0
LINE
  5
1C69A
330
747D
100
AcDbEntity
  8
細線
100
AcDbLine
 10
1751.101915364641
 20
4400.64764706091
 30
0.0
 11
4175.101915364646
 21
4400.64764706091
 31
0.0
  0
LINE
  5
1C69B
330
747D
100
AcDbEntity
  8
部品1
100
AcDbLine
 10
1703.101915364644
 20
2715.647647060911
 30
0.0
 11
4223.101915364641
 21
2715.647647060912
 31
0.0
  0
LINE
  5
1C69C
330
747D
100
AcDbEntity
  8
部品1
100
AcDbLine
 10
1703.101915364644
 20
2765.647647060911
 30
0.0
 11
4223.101915364643
 21
2765.647647060911
 31
0.0
  0
LINE
  5
1C69D
330
747D
100
AcDbEntity
  8
細線
 48
50.0
100
AcDbLine
 10
2763.101915364645
 20
3313.147647060911
 30
0.0
 11
2663.101915364645
 21
3313.147647060911
 31
0.0
  0
LINE
  5
1C69E
330
747D
100
AcDbEntity
  8
細線
 48
50.0
100
AcDbLine
 10
2663.101915364645
 20
3343.147647060912
 30
0.0
 11
2763.101915364645
 21
3343.147647060912
 31
0.0
  0
ARC
  5
1C69F
330
747D
100
AcDbEntity
  8
細線
 48
50.0
100
AcDbCircle
 10
2663.101915364645
 20
3328.147647060911
 30
0.0
 40
15.0
100
AcDbArc
 50
90.0
 51
270.0
  0
ARC
  5
1C6A0
330
747D
100
AcDbEntity
  8
細線
 48
50.0
100
AcDbCircle
 10
2763.101915364645
 20
3328.147647060911
 30
0.0
 40
15.0
100
AcDbArc
 50
270.0
 51
90.0
  0
CIRCLE
  5
1C6A1
330
747D
100
AcDbEntity
  8
細線
 48
50.0
100
AcDbCircle
 10
2963.101915364645
 20
3653.147647060911
 30
0.0
 40
18.0
  0
ARC
  5
1C6A2
330
747D
100
AcDbEntity
  8
細線
 48
50.0
100
AcDbCircle
 10
3163.101915364645
 20
3328.147647060911
 30
0.0
 40
15.0
100
AcDbArc
 50
90.0
 51
270.0
  0
ARC
  5
1C6A3
330
747D
100
AcDbEntity
  8
細線
 48
50.0
100
AcDbCircle
 10
3263.101915364645
 20
3328.147647060911
 30
0.0
 40
15.0
100
AcDbArc
 50
270.0
 51
90.0
  0
LINE
  5
1C6A4
330
747D
100
AcDbEntity
  8
細線
 48
50.0
100
AcDbLine
 10
3163.101915364645
 20
3343.147647060912
 30
0.0
 11
3263.101915364645
 21
3343.147647060912
 31
0.0
  0
LINE
  5
1C6A5
330
747D
100
AcDbEntity
  8
細線
 48
50.0
100
AcDbLine
 10
3263.101915364645
 20
3313.147647060911
 30
0.0
 11
3163.101915364645
 21
3313.147647060911
 31
0.0
  0
LINE
  5
1C6A6
330
747D
100
AcDbEntity
  8
細線
100
AcDbLine
 10
4175.101915364643
 20
2775.647647060911
 30
0.0
 11
1751.101915364637
 21
2775.647647060911
 31
0.0
  0
LINE
  5
1C6A8
330
747D
100
AcDbEntity
  8
部品1
 48
50.0
100
AcDbLine
 10
6908.101915364643
 20
4949.647647060913
 30
0.0
 11
4278.101915364641
 21
4949.647647060913
 31
0.0
  0
LINE
  5
1C6A9
330
747D
100
AcDbEntity
  8
細線
 48
50.0
100
AcDbLine
 10
6898.101915364645
 20
4970.420889624699
 30
0.0
 11
4268.101915364641
 21
4970.420889624698
 31
0.0
  0
LINE
  5
1C6AA
330
747D
100
AcDbEntity
  8
部品1
 48
50.0
100
AcDbLine
 10
6898.10191536464
 20
5090.647647060913
 30
0.0
 11
4268.101915364641
 21
5090.647647060914
 31
0.0
  0
LINE
  5
1C6AB
330
747D
100
AcDbEntity
  8
細線
 48
50.0
100
AcDbLine
 10
6898.101915364643
 20
5062.620889624382
 30
0.0
 11
4268.101915364641
 21
5062.620889624382
 31
0.0
  0
LINE
  5
1C6AC
330
747D
100
AcDbEntity
  8
部品1
100
AcDbLine
 10
4278.101915364641
 20
4855.64764706091
 30
0.0
 11
6908.101915364643
 21
4855.64764706091
 31
0.0
  0
LINE
  5
1C704
330
747D
100
AcDbEntity
  8
部品1
100
AcDbLine
 10
4333.101915364645
 20
4690.64764706091
 30
0.0
 11
6963.101915364646
 21
4690.647647060912
 31
0.0
  0
LINE
  5
1C705
330
747D
100
AcDbEntity
  8
部品1
100
AcDbLine
 10
4333.101915364645
 20
2715.647647060912
 30
0.0
 11
6853.101915364643
 21
2715.647647060912
 31
0.0
  0
LINE
  5
1C706
330
747D
100
AcDbEntity
  8
部品1
100
AcDbLine
 10
4333.101915364645
 20
2765.647647060911
 30
0.0
 11
6853.101915364641
 21
2765.647647060911
 31
0.0
  0
MTEXT
  5
1C9A2
330
747D
100
AcDbEntity
  8
寸法
 62
     7
 48
50.0
100
AcDbMText
 10
2325.817113437304
 20
9166.827579474462
 30
0.0
 40
96.0
 41
0.0
 71
     5
 72
     1
  1
棚 3段
  7
STYLE1
 73
     1
 44
1.0
1001
ACAD
1000
MTEXTBEGIN
1070
    73
1070
     1
1070
    44
1040
1.0
1070
    74
1070
     0
1000
MTEXTEND
  0
MTEXT
  5
1CB82
330
747D
100
AcDbEntity
  8
寸法
 62
     7
 48
50.0
100
AcDbMText
 10
3625.817113437304
 20
9166.827579474512
 30
0.0
 40
96.0
 41
0.0
 71
     5
 72
     1
  1
棚 3段
  7
STYLE1
 73
     1
 44
1.0
1001
ACAD
1000
MTEXTBEGIN
1070
    73
1070
     1
1070
    44
1040
1.0
1070
    74
1070
     0
1000
MTEXTEND
  0
MTEXT
  5
1CB83
330
747D
100
AcDbEntity
  8
寸法
 62
     7
 48
50.0
100
AcDbMText
 10
6313.629032692814
 20
9166.827579474547
 30
0.0
 40
96.0
 41
0.0
 71
     5
 72
     1
  1
棚 3段
  7
STYLE1
 73
     1
 44
1.0
1001
ACAD
1000
MTEXTBEGIN
1070
    73
1070
     1
1070
    44
1040
1.0
1070
    74
1070
     0
1000
MTEXTEND
  0
MTEXT
  5
1CB84
330
747D
100
AcDbEntity
  8
寸法
 62
     7
 48
50.0
100
AcDbMText
 10
5013.629032692814
 20
9166.827579474498
 30
0.0
 40
96.0
 41
0.0
 71
     5
 72
     1
  1
棚 3段
  7
STYLE1
 73
     1
 44
1.0
1001
ACAD
1000
MTEXTBEGIN
1070
    73
1070
     1
1070
    44
1040
1.0
1070
    74
1070
     0
1000
MTEXTEND
  0
MTEXT
  5
1CB85
330
747D
100
AcDbEntity
  8
寸法
 62
     7
 48
50.0
100
AcDbMText
 10
8885.817113437303
 20
9166.82757947464
 30
0.0
 40
96.0
 41
0.0
 71
     5
 72
     1
  1
棚 3段
  7
STYLE1
 73
     1
 44
1.0
1001
ACAD
1000
MTEXTBEGIN
1070
    73
1070
     1
1070
    44
1040
1.0
1070
    74
1070
     0
1000
MTEXTEND
  0
MTEXT
  5
1CB86
330
747D
100
AcDbEntity
  8
寸法
 62
     7
 48
50.0
100
AcDbMText
 10
7585.817113437304
 20
9166.82757947459
 30
0.0
 40
96.0
 41
0.0
 71
     5
 72
     1
  1
棚 3段
  7
STYLE1
 73
     1
 44
1.0
1001
ACAD
1000
MTEXTBEGIN
1070
    73
1070
     1
1070
    44
1040
1.0
1070
    74
1070
     0
1000
MTEXTEND
  0
DIMENSION
  5
1CCFF
330
747D
100
AcDbEntity
  8
寸法
100
AcDbDimension
  2
*D42
 10
9417.578069103331
 20
8758.983640752287
 30
0.0
 11
8827.587231102965
 21
8758.983640752287
 31
0.0
 70
   160
 71
     5
 42
1273.000000000011
  3
INABA_S40G
100
AcDbAlignedDimension
 13
8236.601915364671
 23
9102.421310507564
 33
0.0
 14
9509.601915364681
 24
9102.421310507557
 34
0.0
100
AcDbRotatedDimension
1001
ACAD
1000
DSTYLE
1002
{
1002
}
  0
DIMENSION
  5
1CD24
330
747D
100
AcDbEntity
  8
寸法
100
AcDbDimension
  2
*D43
 10
8117.578069103357
 20
8758.983640752287
 30
0.0
 11
7481.078069103351
 21
8858.995451775909
 31
0.0
 70
    32
 71
     5
 42
1273.000000000011
  3
INABA_S40G
100
AcDbAlignedDimension
 13
6936.60191536467
 23
9102.421310507457
 33
0.0
 14
8209.601915364681
 24
9102.42131050745
 34
0.0
100
AcDbRotatedDimension
1001
ACAD
1000
DSTYLE
1002
{
1002
}
  0
LINE
  5
1CF1E
330
747D
100
AcDbEntity
  8
補助
  6
PHANTOM
 62
   230
 48
50.0
100
AcDbLine
 10
140.0
 20
0.0
 30
0.0
 11
139.9999999999995
 21
11409.6
 31
0.0
  0
TEXT
  5
1CF3B
330
747D
100
AcDbEntity
  8
文字
 62
     7
 48
50.0
100
AcDbText
 10
14544.7600863402
 20
483.8967129911414
 30
0.0
 40
160.0
  1
FXN-50HYL-N
  7
STYLE2
100
AcDbText
  0
DIMENSION
  5
1D079
330
747D
100
AcDbEntity
  8
寸法
 48
50.0
100
AcDbDimension
  2
*D44
 10
9825.64501768639
 20
4663.647647060911
 30
0.0
 11
9725.645017686389
 21
3720.647647060914
 31
0.0
 70
    32
  1
有効開口部高サ <>
 71
     5
 42
1885.999999999998
  3
INABA_S40G
100
AcDbAlignedDimension
 13
9538.101915364645
 23
2777.647647060912
 33
0.0
 14
9538.101915364645
 24
4663.647647060911
 34
0.0
 50
90.0
100
AcDbRotatedDimension
  0
DIMENSION
  5
1D07A
330
747D
100
AcDbEntity
  8
寸法
 48
50.0
100
AcDbDimension
  2
*D45
 10
9825.64501768639
 20
4690.647647060913
 30
0.0
 11
9965.814840932758
 21
4691.614846900571
 31
0.0
 70
   160
 71
     5
 42
27.00000000000182
  3
INABA_S40G
100
AcDbAlignedDimension
 13
9538.101915364645
 23
4663.647647060911
 33
0.0
 14
9538.101915364645
 24
4690.647647060913
 34
0.0
 50
90.0
100
AcDbRotatedDimension
1001
ACAD
1000
DSTYLE
1002
{
1070
   279
1070
     2
1002
}
  0
DIMENSION
  5
1D07B
330
747D
100
AcDbEntity
  8
寸法
 48
50.0
100
AcDbDimension
  2
*D46
 10
9825.645017686394
 20
4855.647647060912
 30
0.0
 11
9825.64501768639
 21
5094.132928435152
 31
0.0
 70
   160
 71
     5
 42
164.9999999999991
  3
INABA_S40G
100
AcDbAlignedDimension
 13
9538.101915364645
 23
4690.647647060913
 33
0.0
 14
9538.101915364645
 24
4855.647647060912
 34
0.0
 50
90.0
100
AcDbRotatedDimension
1001
ACAD
1000
DSTYLE
1002
{
1002
}
  0
ARC
  5
1D40F
330
747D
100
AcDbEntity
  8
部品1
 48
0.01
100
AcDbCircle
 10
3490.101915364647
 20
4888.147647060908
 30
0.0
 40
2.0
100
AcDbArc
 50
180.0
 51
270.0
  0
ARC
  5
1D410
330
747D
100
AcDbEntity
  8
部品1
 48
0.01
100
AcDbCircle
 10
3666.101915364647
 20
4888.147647060908
 30
0.0
 40
2.0
100
AcDbArc
 50
270.0
 51
0.0
  0
LINE
  5
1D411
330
747D
100
AcDbEntity
  8
部品1
 48
0.01
100
AcDbLine
 10
3666.101915364647
 20
4886.147647060909
 30
0.0
 11
3490.101915364647
 21
4886.147647060909
 31
0.0
  0
LINE
  5
1D412
330
747D
100
AcDbEntity
  8
部品1
 48
0.01
100
AcDbLine
 10
2260.101915364646
 20
4886.147647060909
 30
0.0
 11
2436.101915364643
 21
4886.147647060909
 31
0.0
  0
ARC
  5
1D413
330
747D
100
AcDbEntity
  8
部品1
 48
0.01
100
AcDbCircle
 10
2260.101915364646
 20
4888.147647060908
 30
0.0
 40
2.0
100
AcDbArc
 50
180.0
 51
270.0
  0
ARC
  5
1D414
330
747D
100
AcDbEntity
  8
部品1
 48
0.01
100
AcDbCircle
 10
2436.101915364643
 20
4888.147647060908
 30
0.0
 40
2.0
100
AcDbArc
 50
270.0
 51
0.0
  0
ARC
  5
1D415
330
747D
100
AcDbEntity
  8
部品1
 48
0.01
100
AcDbCircle
 10
3490.101915364647
 20
4919.647647060909
 30
0.0
 40
2.0
100
AcDbArc
 50
90.0
 51
180.0
  0
ARC
  5
1D416
330
747D
100
AcDbEntity
  8
部品1
 48
0.01
100
AcDbCircle
 10
3666.101915364647
 20
4919.647647060909
 30
0.0
 40
2.0
100
AcDbArc
 50
0.0
 51
90.0
  0
LINE
  5
1D417
330
747D
100
AcDbEntity
  8
細線
100
AcDbLine
 10
3578.101915364647
 20
4892.147647060909
 30
0.0
 11
3504.101915364647
 21
4892.147647060909
 31
0.0
  0
LINE
  5
1D418
330
747D
100
AcDbEntity
  8
細線
100
AcDbLine
 10
3578.101915364647
 20
4915.147647060909
 30
0.0
 11
3652.101915364647
 21
4915.147647060909
 31
0.0
  0
LINE
  5
1D419
330
747D
100
AcDbEntity
  8
細線
100
AcDbLine
 10
3652.101915364647
 20
4892.147647060909
 30
0.0
 11
3578.101915364647
 21
4892.147647060909
 31
0.0
  0
LINE
  5
1D41A
330
747D
100
AcDbEntity
  8
細線
100
AcDbLine
 10
3504.101915364647
 20
4915.147647060909
 30
0.0
 11
3578.101915364647
 21
4915.147647060909
 31
0.0
  0
LINE
  5
1D41B
330
747D
100
AcDbEntity
  8
細線
100
AcDbLine
 10
3504.101915364647
 20
4892.147647060909
 30
0.0
 11
3504.101915364647
 21
4915.147647060909
 31
0.0
  0
LINE
  5
1D41C
330
747D
100
AcDbEntity
  8
細線
100
AcDbLine
 10
3652.101915364647
 20
4915.147647060909
 30
0.0
 11
3652.101915364647
 21
4892.147647060909
 31
0.0
  0
LINE
  5
1D41D
330
747D
100
AcDbEntity
  8
部品1
 48
0.01
100
AcDbLine
 10
3488.101915364647
 20
4888.147647060908
 30
0.0
 11
3488.101915364647
 21
4919.647647060909
 31
0.0
  0
LINE
  5
1D41E
330
747D
100
AcDbEntity
  8
部品1
 48
0.01
100
AcDbLine
 10
3668.101915364647
 20
4919.647647060909
 30
0.0
 11
3668.101915364647
 21
4888.147647060908
 31
0.0
  0
LINE
  5
1D41F
330
747D
100
AcDbEntity
  8
部品1
 48
0.01
100
AcDbLine
 10
3490.101915364647
 20
4921.647647060908
 30
0.0
 11
3666.101915364647
 21
4921.647647060908
 31
0.0
  0
LINE
  5
1D420
330
747D
100
AcDbEntity
  8
細線
100
AcDbLine
 10
3652.101915364647
 20
4909.147647060908
 30
0.0
 11
3578.101915364647
 21
4909.147647060908
 31
0.0
  0
LINE
  5
1D421
330
747D
100
AcDbEntity
  8
細線
100
AcDbLine
 10
3652.101915364647
 20
4903.147647060908
 30
0.0
 11
3578.101915364647
 21
4903.147647060908
 31
0.0
  0
LINE
  5
1D422
330
747D
100
AcDbEntity
  8
細線
100
AcDbLine
 10
3652.101915364647
 20
4897.147647060909
 30
0.0
 11
3578.101915364647
 21
4897.147647060909
 31
0.0
  0
LINE
  5
1D423
330
747D
100
AcDbEntity
  8
細線
100
AcDbLine
 10
3652.101915364647
 20
4909.147647060908
 30
0.0
 11
3583.101915364647
 21
4909.147647060908
 31
0.0
  0
LINE
  5
1D424
330
747D
100
AcDbEntity
  8
細線
100
AcDbLine
 10
3504.101915364647
 20
4909.147647060908
 30
0.0
 11
3578.101915364647
 21
4909.147647060908
 31
0.0
  0
LINE
  5
1D425
330
747D
100
AcDbEntity
  8
細線
100
AcDbLine
 10
3504.101915364647
 20
4897.147647060909
 30
0.0
 11
3578.101915364647
 21
4897.147647060909
 31
0.0
  0
LINE
  5
1D426
330
747D
100
AcDbEntity
  8
細線
100
AcDbLine
 10
3504.101915364647
 20
4903.147647060908
 30
0.0
 11
3578.101915364647
 21
4903.147647060908
 31
0.0
  0
LINE
  5
1D427
330
747D
100
AcDbEntity
  8
細線
100
AcDbLine
 10
3578.101915364647
 20
4915.147647060909
 30
0.0
 11
3578.101915364647
 21
4892.147647060909
 31
0.0
  0
LINE
  5
1D428
330
747D
100
AcDbEntity
  8
細線
100
AcDbLine
 10
2348.101915364647
 20
4915.147647060909
 30
0.0
 11
2348.101915364643
 21
4892.147647060909
 31
0.0
  0
LINE
  5
1D429
330
747D
100
AcDbEntity
  8
細線
100
AcDbLine
 10
2422.101915364643
 20
4903.147647060908
 30
0.0
 11
2348.101915364647
 21
4903.147647060908
 31
0.0
  0
LINE
  5
1D42A
330
747D
100
AcDbEntity
  8
細線
100
AcDbLine
 10
2422.101915364643
 20
4897.147647060909
 30
0.0
 11
2348.101915364647
 21
4897.147647060909
 31
0.0
  0
LINE
  5
1D42B
330
747D
100
AcDbEntity
  8
細線
100
AcDbLine
 10
2422.101915364643
 20
4909.147647060908
 30
0.0
 11
2348.101915364647
 21
4909.147647060908
 31
0.0
  0
LINE
  5
1D42C
330
747D
100
AcDbEntity
  8
細線
100
AcDbLine
 10
2274.101915364647
 20
4909.147647060908
 30
0.0
 11
2343.101915364647
 21
4909.147647060908
 31
0.0
  0
LINE
  5
1D42D
330
747D
100
AcDbEntity
  8
細線
100
AcDbLine
 10
2274.101915364643
 20
4897.147647060909
 30
0.0
 11
2348.101915364647
 21
4897.147647060909
 31
0.0
  0
LINE
  5
1D42E
330
747D
100
AcDbEntity
  8
細線
100
AcDbLine
 10
2274.101915364647
 20
4903.147647060908
 30
0.0
 11
2348.101915364647
 21
4903.147647060908
 31
0.0
  0
LINE
  5
1D42F
330
747D
100
AcDbEntity
  8
細線
100
AcDbLine
 10
2274.101915364647
 20
4909.147647060908
 30
0.0
 11
2348.101915364647
 21
4909.147647060908
 31
0.0
  0
LINE
  5
1D430
330
747D
100
AcDbEntity
  8
部品1
 48
0.01
100
AcDbLine
 10
2436.101915364647
 20
4921.647647060908
 30
0.0
 11
2260.101915364646
 21
4921.647647060908
 31
0.0
  0
LINE
  5
1D431
330
747D
100
AcDbEntity
  8
部品1
 48
0.01
100
AcDbLine
 10
2258.101915364647
 20
4919.647647060909
 30
0.0
 11
2258.101915364647
 21
4888.147647060908
 31
0.0
  0
LINE
  5
1D432
330
747D
100
AcDbEntity
  8
部品1
 48
0.01
100
AcDbLine
 10
2438.101915364643
 20
4888.147647060908
 30
0.0
 11
2438.101915364647
 21
4919.647647060909
 31
0.0
  0
LINE
  5
1D433
330
747D
100
AcDbEntity
  8
細線
100
AcDbLine
 10
2274.101915364647
 20
4915.147647060909
 30
0.0
 11
2274.101915364647
 21
4892.147647060909
 31
0.0
  0
LINE
  5
1D434
330
747D
100
AcDbEntity
  8
細線
100
AcDbLine
 10
2422.101915364647
 20
4892.147647060909
 30
0.0
 11
2422.101915364647
 21
4915.147647060909
 31
0.0
  0
LINE
  5
1D435
330
747D
100
AcDbEntity
  8
細線
100
AcDbLine
 10
2422.101915364647
 20
4915.147647060909
 30
0.0
 11
2348.101915364647
 21
4915.147647060909
 31
0.0
  0
LINE
  5
1D436
330
747D
100
AcDbEntity
  8
細線
100
AcDbLine
 10
2274.101915364647
 20
4892.147647060909
 30
0.0
 11
2348.101915364647
 21
4892.147647060909
 31
0.0
  0
LINE
  5
1D437
330
747D
100
AcDbEntity
  8
細線
100
AcDbLine
 10
2348.101915364647
 20
4915.147647060909
 30
0.0
 11
2274.101915364647
 21
4915.147647060909
 31
0.0
  0
LINE
  5
1D438
330
747D
100
AcDbEntity
  8
細線
100
AcDbLine
 10
2348.101915364643
 20
4892.147647060909
 30
0.0
 11
2422.101915364647
 21
4892.147647060909
 31
0.0
  0
ARC
  5
1D439
330
747D
100
AcDbEntity
  8
部品1
 48
0.01
100
AcDbCircle
 10
2260.101915364646
 20
4919.647647060909
 30
0.0
 40
2.0
100
AcDbArc
 50
90.0
 51
180.0
  0
ARC
  5
1D43A
330
747D
100
AcDbEntity
  8
部品1
 48
0.01
100
AcDbCircle
 10
2436.101915364647
 20
4919.647647060909
 30
0.0
 40
2.0
100
AcDbArc
 50
0.0
 51
90.0
  0
ARC
  5
1D43B
330
747D
100
AcDbEntity
  8
部品1
 48
0.01
100
AcDbCircle
 10
5066.101915364646
 20
4919.647647060912
 30
0.0
 40
2.0
100
AcDbArc
 50
0.0
 51
90.0
  0
ARC
  5
1D43C
330
747D
100
AcDbEntity
  8
部品1
 48
0.01
100
AcDbCircle
 10
4890.101915364646
 20
4919.647647060912
 30
0.0
 40
2.0
100
AcDbArc
 50
90.0
 51
180.0
  0
LINE
  5
1D43D
330
747D
100
AcDbEntity
  8
細線
100
AcDbLine
 10
4978.101915364643
 20
4892.147647060912
 30
0.0
 11
5052.101915364647
 21
4892.147647060912
 31
0.0
  0
LINE
  5
1D43E
330
747D
100
AcDbEntity
  8
細線
100
AcDbLine
 10
4978.101915364646
 20
4915.147647060912
 30
0.0
 11
4904.101915364647
 21
4915.147647060912
 31
0.0
  0
LINE
  5
1D43F
330
747D
100
AcDbEntity
  8
細線
100
AcDbLine
 10
4904.101915364647
 20
4892.147647060912
 30
0.0
 11
4978.101915364646
 21
4892.147647060912
 31
0.0
  0
LINE
  5
1D440
330
747D
100
AcDbEntity
  8
細線
100
AcDbLine
 10
5052.101915364647
 20
4915.147647060912
 30
0.0
 11
4978.101915364646
 21
4915.147647060912
 31
0.0
  0
LINE
  5
1D441
330
747D
100
AcDbEntity
  8
細線
100
AcDbLine
 10
5052.101915364647
 20
4892.147647060912
 30
0.0
 11
5052.101915364647
 21
4915.147647060912
 31
0.0
  0
LINE
  5
1D442
330
747D
100
AcDbEntity
  8
細線
100
AcDbLine
 10
4904.101915364647
 20
4915.147647060912
 30
0.0
 11
4904.101915364647
 21
4892.147647060912
 31
0.0
  0
LINE
  5
1D443
330
747D
100
AcDbEntity
  8
部品1
 48
0.01
100
AcDbLine
 10
5068.101915364643
 20
4888.147647060912
 30
0.0
 11
5068.101915364646
 21
4919.647647060912
 31
0.0
  0
LINE
  5
1D444
330
747D
100
AcDbEntity
  8
部品1
 48
0.01
100
AcDbLine
 10
4888.101915364646
 20
4919.647647060912
 30
0.0
 11
4888.101915364646
 21
4888.147647060912
 31
0.0
  0
LINE
  5
1D445
330
747D
100
AcDbEntity
  8
部品1
 48
0.01
100
AcDbLine
 10
5066.101915364646
 20
4921.647647060912
 30
0.0
 11
4890.101915364646
 21
4921.647647060912
 31
0.0
  0
LINE
  5
1D446
330
747D
100
AcDbEntity
  8
細線
100
AcDbLine
 10
4904.101915364647
 20
4909.147647060912
 30
0.0
 11
4978.101915364646
 21
4909.147647060912
 31
0.0
  0
LINE
  5
1D447
330
747D
100
AcDbEntity
  8
細線
100
AcDbLine
 10
4904.101915364647
 20
4903.147647060912
 30
0.0
 11
4978.101915364646
 21
4903.147647060912
 31
0.0
  0
LINE
  5
1D448
330
747D
100
AcDbEntity
  8
細線
100
AcDbLine
 10
4904.101915364643
 20
4897.147647060912
 30
0.0
 11
4978.101915364646
 21
4897.147647060912
 31
0.0
  0
LINE
  5
1D449
330
747D
100
AcDbEntity
  8
細線
100
AcDbLine
 10
4904.101915364647
 20
4909.147647060912
 30
0.0
 11
4973.101915364646
 21
4909.147647060912
 31
0.0
  0
LINE
  5
1D44A
330
747D
100
AcDbEntity
  8
細線
100
AcDbLine
 10
5052.101915364643
 20
4909.147647060912
 30
0.0
 11
4978.101915364646
 21
4909.147647060912
 31
0.0
  0
LINE
  5
1D44B
330
747D
100
AcDbEntity
  8
細線
100
AcDbLine
 10
5052.101915364643
 20
4897.147647060912
 30
0.0
 11
4978.101915364646
 21
4897.147647060912
 31
0.0
  0
LINE
  5
1D44C
330
747D
100
AcDbEntity
  8
細線
100
AcDbLine
 10
5052.101915364643
 20
4903.147647060912
 30
0.0
 11
4978.101915364646
 21
4903.147647060912
 31
0.0
  0
LINE
  5
1D44D
330
747D
100
AcDbEntity
  8
細線
100
AcDbLine
 10
4978.101915364646
 20
4915.147647060912
 30
0.0
 11
4978.101915364643
 21
4892.147647060912
 31
0.0
  0
LINE
  5
1D44E
330
747D
100
AcDbEntity
  8
細線
100
AcDbLine
 10
6208.101915364647
 20
4915.147647060912
 30
0.0
 11
6208.101915364647
 21
4892.147647060912
 31
0.0
  0
LINE
  5
1D44F
330
747D
100
AcDbEntity
  8
細線
100
AcDbLine
 10
6134.101915364647
 20
4903.147647060912
 30
0.0
 11
6208.101915364647
 21
4903.147647060912
 31
0.0
  0
LINE
  5
1D450
330
747D
100
AcDbEntity
  8
細線
100
AcDbLine
 10
6134.101915364647
 20
4897.147647060912
 30
0.0
 11
6208.101915364647
 21
4897.147647060912
 31
0.0
  0
LINE
  5
1D451
330
747D
100
AcDbEntity
  8
細線
100
AcDbLine
 10
6134.101915364647
 20
4909.147647060912
 30
0.0
 11
6208.101915364647
 21
4909.147647060912
 31
0.0
  0
LINE
  5
1D452
330
747D
100
AcDbEntity
  8
細線
100
AcDbLine
 10
6282.101915364647
 20
4909.147647060912
 30
0.0
 11
6213.101915364647
 21
4909.147647060912
 31
0.0
  0
LINE
  5
1D453
330
747D
100
AcDbEntity
  8
細線
100
AcDbLine
 10
6282.101915364647
 20
4897.147647060912
 30
0.0
 11
6208.101915364647
 21
4897.147647060912
 31
0.0
  0
LINE
  5
1D454
330
747D
100
AcDbEntity
  8
細線
100
AcDbLine
 10
6282.101915364647
 20
4903.147647060912
 30
0.0
 11
6208.101915364647
 21
4903.147647060912
 31
0.0
  0
LINE
  5
1D455
330
747D
100
AcDbEntity
  8
細線
100
AcDbLine
 10
6282.101915364647
 20
4909.147647060912
 30
0.0
 11
6208.101915364647
 21
4909.147647060912
 31
0.0
  0
LINE
  5
1D456
330
747D
100
AcDbEntity
  8
部品1
 48
0.01
100
AcDbLine
 10
6120.101915364647
 20
4921.647647060912
 30
0.0
 11
6296.101915364647
 21
4921.647647060912
 31
0.0
  0
LINE
  5
1D457
330
747D
100
AcDbEntity
  8
部品1
 48
0.01
100
AcDbLine
 10
6298.101915364647
 20
4919.647647060912
 30
0.0
 11
6298.101915364647
 21
4888.147647060912
 31
0.0
  0
LINE
  5
1D458
330
747D
100
AcDbEntity
  8
部品1
 48
0.01
100
AcDbLine
 10
6118.101915364647
 20
4888.147647060912
 30
0.0
 11
6118.101915364647
 21
4919.647647060912
 31
0.0
  0
LINE
  5
1D459
330
747D
100
AcDbEntity
  8
細線
100
AcDbLine
 10
6282.101915364647
 20
4915.147647060912
 30
0.0
 11
6282.101915364647
 21
4892.147647060912
 31
0.0
  0
LINE
  5
1D45A
330
747D
100
AcDbEntity
  8
細線
100
AcDbLine
 10
6134.101915364647
 20
4892.147647060912
 30
0.0
 11
6134.101915364647
 21
4915.147647060912
 31
0.0
  0
LINE
  5
1D45B
330
747D
100
AcDbEntity
  8
細線
100
AcDbLine
 10
6134.101915364647
 20
4915.147647060912
 30
0.0
 11
6208.101915364647
 21
4915.147647060912
 31
0.0
  0
LINE
  5
1D45C
330
747D
100
AcDbEntity
  8
細線
100
AcDbLine
 10
6282.101915364647
 20
4892.147647060912
 30
0.0
 11
6208.101915364647
 21
4892.147647060912
 31
0.0
  0
LINE
  5
1D45D
330
747D
100
AcDbEntity
  8
細線
100
AcDbLine
 10
6208.101915364647
 20
4915.147647060912
 30
0.0
 11
6282.101915364647
 21
4915.147647060912
 31
0.0
  0
LINE
  5
1D45E
330
747D
100
AcDbEntity
  8
細線
100
AcDbLine
 10
6208.101915364647
 20
4892.147647060912
 30
0.0
 11
6134.101915364647
 21
4892.147647060912
 31
0.0
  0
ARC
  5
1D45F
330
747D
100
AcDbEntity
  8
部品1
 48
0.01
100
AcDbCircle
 10
6296.101915364647
 20
4919.647647060912
 30
0.0
 40
2.0
100
AcDbArc
 50
0.0
 51
90.0
  0
ARC
  5
1D460
330
747D
100
AcDbEntity
  8
部品1
 48
0.01
100
AcDbCircle
 10
6120.101915364647
 20
4919.647647060912
 30
0.0
 40
2.0
100
AcDbArc
 50
90.0
 51
180.0
  0
ARC
  5
1D461
330
747D
100
AcDbEntity
  8
部品1
 48
0.01
100
AcDbCircle
 10
5066.101915364643
 20
4888.147647060912
 30
0.0
 40
2.0
100
AcDbArc
 50
270.0
 51
0.0
  0
ARC
  5
1D462
330
747D
100
AcDbEntity
  8
部品1
 48
0.01
100
AcDbCircle
 10
4890.101915364646
 20
4888.147647060912
 30
0.0
 40
2.0
100
AcDbArc
 50
180.0
 51
270.0
  0
LINE
  5
1D463
330
747D
100
AcDbEntity
  8
部品1
 48
0.01
100
AcDbLine
 10
4890.101915364646
 20
4886.147647060912
 30
0.0
 11
5066.101915364643
 21
4886.147647060912
 31
0.0
  0
LINE
  5
1D464
330
747D
100
AcDbEntity
  8
部品1
 48
0.01
100
AcDbLine
 10
6296.101915364647
 20
4886.147647060912
 30
0.0
 11
6120.101915364647
 21
4886.147647060912
 31
0.0
  0
ARC
  5
1D465
330
747D
100
AcDbEntity
  8
部品1
 48
0.01
100
AcDbCircle
 10
6296.101915364647
 20
4888.147647060912
 30
0.0
 40
2.0
100
AcDbArc
 50
270.0
 51
0.0
  0
ARC
  5
1D466
330
747D
100
AcDbEntity
  8
部品1
 48
0.01
100
AcDbCircle
 10
6120.101915364647
 20
4888.147647060912
 30
0.0
 40
2.0
100
AcDbArc
 50
180.0
 51
270.0
  0
ARC
  5
1D467
330
747D
100
AcDbEntity
  8
部品1
 48
0.01
100
AcDbCircle
 10
8750.101915364647
 20
4888.147647060915
 30
0.0
 40
2.0
100
AcDbArc
 50
180.0
 51
270.0
  0
ARC
  5
1D468
330
747D
100
AcDbEntity
  8
部品1
 48
0.01
100
AcDbCircle
 10
8926.101915364647
 20
4888.147647060915
 30
0.0
 40
2.0
100
AcDbArc
 50
270.0
 51
0.0
  0
LINE
  5
1D469
330
747D
100
AcDbEntity
  8
部品1
 48
0.01
100
AcDbLine
 10
8926.101915364647
 20
4886.147647060916
 30
0.0
 11
8750.101915364647
 21
4886.147647060916
 31
0.0
  0
LINE
  5
1D46A
330
747D
100
AcDbEntity
  8
部品1
 48
0.01
100
AcDbLine
 10
7520.101915364647
 20
4886.147647060916
 30
0.0
 11
7696.101915364643
 21
4886.147647060916
 31
0.0
  0
ARC
  5
1D46B
330
747D
100
AcDbEntity
  8
部品1
 48
0.01
100
AcDbCircle
 10
7520.101915364647
 20
4888.147647060915
 30
0.0
 40
2.0
100
AcDbArc
 50
180.0
 51
270.0
  0
ARC
  5
1D46C
330
747D
100
AcDbEntity
  8
部品1
 48
0.01
100
AcDbCircle
 10
7696.101915364643
 20
4888.147647060915
 30
0.0
 40
2.0
100
AcDbArc
 50
270.0
 51
0.0
  0
ARC
  5
1D46D
330
747D
100
AcDbEntity
  8
部品1
 48
0.01
100
AcDbCircle
 10
8750.101915364647
 20
4919.647647060916
 30
0.0
 40
2.0
100
AcDbArc
 50
90.0
 51
180.0
  0
ARC
  5
1D46E
330
747D
100
AcDbEntity
  8
部品1
 48
0.01
100
AcDbCircle
 10
8926.101915364647
 20
4919.647647060916
 30
0.0
 40
2.0
100
AcDbArc
 50
0.0
 51
90.0
  0
LINE
  5
1D46F
330
747D
100
AcDbEntity
  8
細線
100
AcDbLine
 10
8838.101915364646
 20
4892.147647060916
 30
0.0
 11
8764.101915364646
 21
4892.147647060916
 31
0.0
  0
LINE
  5
1D470
330
747D
100
AcDbEntity
  8
細線
100
AcDbLine
 10
8838.101915364646
 20
4915.147647060916
 30
0.0
 11
8912.101915364647
 21
4915.147647060916
 31
0.0
  0
LINE
  5
1D471
330
747D
100
AcDbEntity
  8
細線
100
AcDbLine
 10
8912.101915364647
 20
4892.147647060916
 30
0.0
 11
8838.101915364646
 21
4892.147647060916
 31
0.0
  0
LINE
  5
1D472
330
747D
100
AcDbEntity
  8
細線
100
AcDbLine
 10
8764.101915364646
 20
4915.147647060916
 30
0.0
 11
8838.101915364646
 21
4915.147647060916
 31
0.0
  0
LINE
  5
1D473
330
747D
100
AcDbEntity
  8
細線
100
AcDbLine
 10
8764.101915364646
 20
4892.147647060916
 30
0.0
 11
8764.101915364646
 21
4915.147647060916
 31
0.0
  0
LINE
  5
1D474
330
747D
100
AcDbEntity
  8
細線
100
AcDbLine
 10
8912.101915364647
 20
4915.147647060916
 30
0.0
 11
8912.101915364647
 21
4892.147647060916
 31
0.0
  0
LINE
  5
1D475
330
747D
100
AcDbEntity
  8
部品1
 48
0.01
100
AcDbLine
 10
8748.101915364648
 20
4888.147647060915
 30
0.0
 11
8748.101915364648
 21
4919.647647060916
 31
0.0
  0
LINE
  5
1D476
330
747D
100
AcDbEntity
  8
部品1
 48
0.01
100
AcDbLine
 10
8928.101915364647
 20
4919.647647060916
 30
0.0
 11
8928.101915364647
 21
4888.147647060915
 31
0.0
  0
LINE
  5
1D477
330
747D
100
AcDbEntity
  8
部品1
 48
0.01
100
AcDbLine
 10
8750.101915364647
 20
4921.647647060916
 30
0.0
 11
8926.101915364647
 21
4921.647647060916
 31
0.0
  0
LINE
  5
1D478
330
747D
100
AcDbEntity
  8
細線
100
AcDbLine
 10
8912.101915364647
 20
4909.147647060915
 30
0.0
 11
8838.101915364646
 21
4909.147647060915
 31
0.0
  0
LINE
  5
1D479
330
747D
100
AcDbEntity
  8
細線
100
AcDbLine
 10
8912.101915364647
 20
4903.147647060916
 30
0.0
 11
8838.101915364646
 21
4903.147647060916
 31
0.0
  0
LINE
  5
1D47A
330
747D
100
AcDbEntity
  8
細線
100
AcDbLine
 10
8912.101915364647
 20
4897.147647060916
 30
0.0
 11
8838.101915364646
 21
4897.147647060916
 31
0.0
  0
LINE
  5
1D47B
330
747D
100
AcDbEntity
  8
細線
100
AcDbLine
 10
8912.101915364647
 20
4909.147647060915
 30
0.0
 11
8843.101915364647
 21
4909.147647060915
 31
0.0
  0
LINE
  5
1D47C
330
747D
100
AcDbEntity
  8
細線
100
AcDbLine
 10
8764.101915364646
 20
4909.147647060915
 30
0.0
 11
8838.101915364646
 21
4909.147647060915
 31
0.0
  0
LINE
  5
1D47D
330
747D
100
AcDbEntity
  8
細線
100
AcDbLine
 10
8764.101915364646
 20
4897.147647060916
 30
0.0
 11
8838.101915364646
 21
4897.147647060916
 31
0.0
  0
LINE
  5
1D47E
330
747D
100
AcDbEntity
  8
細線
100
AcDbLine
 10
8764.101915364646
 20
4903.147647060916
 30
0.0
 11
8838.101915364646
 21
4903.147647060916
 31
0.0
  0
LINE
  5
1D47F
330
747D
100
AcDbEntity
  8
細線
100
AcDbLine
 10
8838.101915364646
 20
4915.147647060916
 30
0.0
 11
8838.101915364646
 21
4892.147647060916
 31
0.0
  0
LINE
  5
1D480
330
747D
100
AcDbEntity
  8
細線
100
AcDbLine
 10
7608.101915364646
 20
4915.147647060916
 30
0.0
 11
7608.101915364644
 21
4892.147647060916
 31
0.0
  0
LINE
  5
1D481
330
747D
100
AcDbEntity
  8
細線
100
AcDbLine
 10
7682.101915364643
 20
4903.147647060916
 30
0.0
 11
7608.101915364646
 21
4903.147647060916
 31
0.0
  0
LINE
  5
1D482
330
747D
100
AcDbEntity
  8
細線
100
AcDbLine
 10
7682.101915364643
 20
4897.147647060916
 30
0.0
 11
7608.101915364646
 21
4897.147647060916
 31
0.0
  0
LINE
  5
1D483
330
747D
100
AcDbEntity
  8
細線
100
AcDbLine
 10
7682.101915364643
 20
4909.147647060915
 30
0.0
 11
7608.101915364646
 21
4909.147647060915
 31
0.0
  0
LINE
  5
1D484
330
747D
100
AcDbEntity
  8
細線
100
AcDbLine
 10
7534.101915364647
 20
4909.147647060915
 30
0.0
 11
7603.101915364646
 21
4909.147647060915
 31
0.0
  0
LINE
  5
1D485
330
747D
100
AcDbEntity
  8
細線
100
AcDbLine
 10
7534.101915364643
 20
4897.147647060916
 30
0.0
 11
7608.101915364646
 21
4897.147647060916
 31
0.0
  0
LINE
  5
1D486
330
747D
100
AcDbEntity
  8
細線
100
AcDbLine
 10
7534.101915364647
 20
4903.147647060916
 30
0.0
 11
7608.101915364646
 21
4903.147647060916
 31
0.0
  0
LINE
  5
1D487
330
747D
100
AcDbEntity
  8
細線
100
AcDbLine
 10
7534.101915364647
 20
4909.147647060915
 30
0.0
 11
7608.101915364646
 21
4909.147647060915
 31
0.0
  0
LINE
  5
1D488
330
747D
100
AcDbEntity
  8
部品1
 48
0.01
100
AcDbLine
 10
7696.101915364646
 20
4921.647647060916
 30
0.0
 11
7520.101915364647
 21
4921.647647060916
 31
0.0
  0
LINE
  5
1D489
330
747D
100
AcDbEntity
  8
部品1
 48
0.01
100
AcDbLine
 10
7518.101915364647
 20
4919.647647060916
 30
0.0
 11
7518.101915364647
 21
4888.147647060915
 31
0.0
  0
LINE
  5
1D48A
330
747D
100
AcDbEntity
  8
部品1
 48
0.01
100
AcDbLine
 10
7698.101915364643
 20
4888.147647060915
 30
0.0
 11
7698.101915364647
 21
4919.647647060916
 31
0.0
  0
LINE
  5
1D48B
330
747D
100
AcDbEntity
  8
細線
100
AcDbLine
 10
7534.101915364647
 20
4915.147647060916
 30
0.0
 11
7534.101915364647
 21
4892.147647060916
 31
0.0
  0
LINE
  5
1D48C
330
747D
100
AcDbEntity
  8
細線
100
AcDbLine
 10
7682.101915364647
 20
4892.147647060916
 30
0.0
 11
7682.101915364647
 21
4915.147647060916
 31
0.0
  0
LINE
  5
1D48D
330
747D
100
AcDbEntity
  8
細線
100
AcDbLine
 10
7682.101915364647
 20
4915.147647060916
 30
0.0
 11
7608.101915364646
 21
4915.147647060916
 31
0.0
  0
LINE
  5
1D48E
330
747D
100
AcDbEntity
  8
細線
100
AcDbLine
 10
7534.101915364647
 20
4892.147647060916
 30
0.0
 11
7608.101915364646
 21
4892.147647060916
 31
0.0
  0
LINE
  5
1D48F
330
747D
100
AcDbEntity
  8
細線
100
AcDbLine
 10
7608.101915364646
 20
4915.147647060916
 30
0.0
 11
7534.101915364647
 21
4915.147647060916
 31
0.0
  0
LINE
  5
1D490
330
747D
100
AcDbEntity
  8
細線
100
AcDbLine
 10
7608.101915364644
 20
4892.147647060916
 30
0.0
 11
7682.101915364647
 21
4892.147647060916
 31
0.0
  0
ARC
  5
1D491
330
747D
100
AcDbEntity
  8
部品1
 48
0.01
100
AcDbCircle
 10
7520.101915364647
 20
4919.647647060916
 30
0.0
 40
2.0
100
AcDbArc
 50
90.0
 51
180.0
  0
ARC
  5
1D492
330
747D
100
AcDbEntity
  8
部品1
 48
0.01
100
AcDbCircle
 10
7696.101915364646
 20
4919.647647060916
 30
0.0
 40
2.0
100
AcDbArc
 50
0.0
 51
90.0
  0
DIMENSION
  5
1D51D
330
747D
100
AcDbEntity
  8
寸法
 48
50.0
100
AcDbDimension
  2
*D47
 10
4614.943275625587
 20
9582.42131050749
 30
0.0
 11
4614.943275625586
 21
9319.159458952098
 31
0.0
 70
   160
 71
     5
 42
716.5000035771754
  3
INABA_S40G
100
AcDbAlignedDimension
 13
4303.10191536475
 23
8865.921306930314
 33
0.0
 14
4333.101915364984
 24
9582.42131050749
 34
0.0
 50
90.0
100
AcDbRotatedDimension
1001
ACAD
1000
DSTYLE
1002
{
1070
   174
1070
     0
1070
   272
1070
     1
1070
   341
1005
0
1002
}
  0
LINE
  5
1D51E
330
747D
100
AcDbEntity
  8
部品1
 48
50.0
100
AcDbLine
 10
4253.101915364751
 20
9527.421306930312
 30
0.0
 11
4253.101915364751
 21
8865.921306930314
 31
0.0
  0
LINE
  5
1D51F
330
747D
100
AcDbEntity
  8
部品1
 48
50.0
100
AcDbLine
 10
4253.101915364751
 20
8865.921306930314
 30
0.0
 11
4303.10191536475
 21
8865.921306930314
 31
0.0
  0
LINE
  5
1D520
330
747D
100
AcDbEntity
  8
部品1
 48
50.0
100
AcDbLine
 10
4303.10191536475
 20
8865.921306930314
 30
0.0
 11
4303.10191536475
 21
9527.421306930312
 31
0.0
  0
LINE
  5
1D521
330
747D
100
AcDbEntity
  8
部品1
100
AcDbLine
 10
4303.10191536475
 20
9143.097290367169
 30
0.0
 11
4253.101915364748
 21
9137.921306930314
 31
0.0
  0
LINE
  5
1D522
330
747D
100
AcDbEntity
  8
部品1
100
AcDbLine
 10
4303.10191536475
 20
9102.74532349346
 30
0.0
 11
4253.101915364748
 21
9107.921306930313
 31
0.0
  0
LINE
  5
1D523
330
747D
100
AcDbEntity
  8
部品1
100
AcDbLine
 10
4253.101915364751
 20
8947.921306930313
 30
0.0
 11
4303.101915364748
 21
8960.633171337091
 31
0.0
  0
TEXT
  5
1D539
330
747D
100
AcDbEntity
  8
文字
 62
     7
 48
50.0
100
AcDbText
 10
13248.77747366448
 20
8210.013745883735
 30
0.0
 40
100.0
  1
17
  7
STYLE1
100
AcDbText
  0
TEXT
  5
1D53A
330
747D
100
AcDbEntity
  8
文字
 62
     7
 48
50.0
100
AcDbText
 10
13583.11819016569
 20
9230.013745883731
 30
0.0
 40
100.0
  1
梁中補強パネル
  7
STYLE1
100
AcDbText
  0
TEXT
  5
1D53B
330
747D
100
AcDbEntity
  8
文字
 62
     7
 48
50.0
100
AcDbText
 10
15022.63965474516
 20
9230.013745883725
 30
0.0
 40
100.0
  1
F12         0.7+1.2
  7
STYLE1
100
AcDbText
  0
TEXT
  5
1D53C
330
747D
100
AcDbEntity
  8
文字
 62
     7
 48
50.0
100
AcDbText
 10
15022.63965474517
 20
9740.013745883725
 30
0.0
 40
100.0
  1
F12            2.3
  7
STYLE1
100
AcDbText
  0
LINE
  5
1D551
330
747D
100
AcDbEntity
  8
部品1
  6
Continuous
 48
50.0
100
AcDbLine
 10
5580.601915364667
 20
9554.421310507477
 30
0.0
 11
4306.101915364638
 21
9554.421310507477
 31
0.0
  0
LINE
  5
1D5EC
330
747D
100
AcDbEntity
  8
部品1
 48
50.0
100
AcDbLine
 10
6883.101915364689
 20
9527.421306930262
 30
0.0
 11
6883.101915364689
 21
8865.921306930262
 31
0.0
  0
LINE
  5
1D5ED
330
747D
100
AcDbEntity
  8
部品1
 48
50.0
100
AcDbLine
 10
6883.101915364689
 20
8865.921306930262
 30
0.0
 11
6933.101915364689
 21
8865.921306930262
 31
0.0
  0
LINE
  5
1D5EE
330
747D
100
AcDbEntity
  8
部品1
 48
50.0
100
AcDbLine
 10
6933.101915364689
 20
8865.921306930262
 30
0.0
 11
6933.101915364689
 21
9527.421306930262
 31
0.0
  0
LINE
  5
1D5EF
330
747D
100
AcDbEntity
  8
部品1
100
AcDbLine
 10
6933.101915364689
 20
9143.097290367117
 30
0.0
 11
6883.101915364687
 21
9137.921306930262
 31
0.0
  0
LINE
  5
1D5F0
330
747D
100
AcDbEntity
  8
部品1
100
AcDbLine
 10
6933.101915364689
 20
9102.74532349341
 30
0.0
 11
6883.101915364687
 21
9107.921306930263
 31
0.0
  0
LINE
  5
1D5F1
330
747D
100
AcDbEntity
  8
部品1
100
AcDbLine
 10
6883.101915364689
 20
8947.921306930263
 30
0.0
 11
6933.101915364686
 21
8960.633171337041
 31
0.0
  0
TEXT
  5
1D656
330
747D
100
AcDbEntity
  8
文字
 62
     7
 48
50.0
100
AcDbText
 10
14646.46056207479
 20
871.9640646083623
 30
0.0
 40
100.0
  1
～多雪地型～
  7
STYLE2
100
AcDbText
  0
TEXT
  5
1D676
330
747D
100
AcDbEntity
  8
文字
 62
     7
 48
50.0
100
AcDbText
 10
15022.63965474516
 20
8890.013745883727
 30
0.0
 40
100.0
  1
F12            0.7
  7
STYLE1
100
AcDbText
  0
LINE
  5
1D68E
330
747D
100
AcDbEntity
  8
細線
100
AcDbLine
 10
4381.101915364641
 20
4660.64764706091
 30
0.0
 11
6805.101915364648
 21
4660.64764706091
 31
0.0
  0
LINE
  5
1D68F
330
747D
100
AcDbEntity
  8
細線
 48
50.0
100
AcDbLine
 10
5893.101915364645
 20
3313.147647060911
 30
0.0
 11
5793.101915364644
 21
3313.147647060911
 31
0.0
  0
LINE
  5
1D690
330
747D
100
AcDbEntity
  8
細線
 48
50.0
100
AcDbLine
 10
5793.101915364644
 20
3343.147647060912
 30
0.0
 11
5893.101915364645
 21
3343.147647060912
 31
0.0
  0
ARC
  5
1D691
330
747D
100
AcDbEntity
  8
細線
 48
50.0
100
AcDbCircle
 10
5893.101915364645
 20
3328.147647060911
 30
0.0
 40
15.0
100
AcDbArc
 50
270.0
 51
90.0
  0
ARC
  5
1D692
330
747D
100
AcDbEntity
  8
細線
 48
50.0
100
AcDbCircle
 10
5793.101915364644
 20
3328.147647060911
 30
0.0
 40
15.0
100
AcDbArc
 50
90.0
 51
270.0
  0
CIRCLE
  5
1D693
330
747D
100
AcDbEntity
  8
細線
 48
50.0
100
AcDbCircle
 10
5593.101915364645
 20
3653.147647060911
 30
0.0
 40
18.0
  0
ARC
  5
1D694
330
747D
100
AcDbEntity
  8
細線
 48
50.0
100
AcDbCircle
 10
5393.101915364645
 20
3328.147647060911
 30
0.0
 40
15.0
100
AcDbArc
 50
270.0
 51
90.0
  0
ARC
  5
1D695
330
747D
100
AcDbEntity
  8
細線
 48
50.0
100
AcDbCircle
 10
5293.101915364644
 20
3328.147647060911
 30
0.0
 40
15.0
100
AcDbArc
 50
90.0
 51
270.0
  0
LINE
  5
1D696
330
747D
100
AcDbEntity
  8
細線
 48
50.0
100
AcDbLine
 10
5293.101915364644
 20
3343.147647060912
 30
0.0
 11
5393.101915364645
 21
3343.147647060912
 31
0.0
  0
LINE
  5
1D697
330
747D
100
AcDbEntity
  8
細線
 48
50.0
100
AcDbLine
 10
5393.101915364645
 20
3313.147647060911
 30
0.0
 11
5293.101915364644
 21
3313.147647060911
 31
0.0
  0
LINE
  5
1D698
330
747D
100
AcDbEntity
  8
細線
100
AcDbLine
 10
4381.101915364641
 20
4400.64764706091
 30
0.0
 11
6805.101915364646
 21
4400.64764706091
 31
0.0
  0
LINE
  5
1D699
330
747D
100
AcDbEntity
  8
細線
100
AcDbLine
 10
4381.101915364641
 20
4465.647647060911
 30
0.0
 11
6805.101915364646
 21
4465.647647060911
 31
0.0
  0
LINE
  5
1D69A
330
747D
100
AcDbEntity
  8
細線
100
AcDbLine
 10
4381.101915364641
 20
4530.64764706091
 30
0.0
 11
6805.101915364646
 21
4530.64764706091
 31
0.0
  0
LINE
  5
1D69B
330
747D
100
AcDbEntity
  8
細線
100
AcDbLine
 10
4381.101915364641
 20
4010.647647060911
 30
0.0
 11
6805.101915364646
 21
4010.64764706091
 31
0.0
  0
LINE
  5
1D69C
330
747D
100
AcDbEntity
  8
細線
100
AcDbLine
 10
4381.101915364641
 20
4075.64764706091
 30
0.0
 11
6805.101915364646
 21
4075.647647060911
 31
0.0
  0
LINE
  5
1D69D
330
747D
100
AcDbEntity
  8
細線
100
AcDbLine
 10
4381.101915364641
 20
4140.647647060911
 30
0.0
 11
6805.101915364646
 21
4140.647647060911
 31
0.0
  0
LINE
  5
1D69E
330
747D
100
AcDbEntity
  8
細線
100
AcDbLine
 10
4381.101915364641
 20
4205.64764706091
 30
0.0
 11
6805.101915364646
 21
4205.647647060911
 31
0.0
  0
LINE
  5
1D69F
330
747D
100
AcDbEntity
  8
細線
100
AcDbLine
 10
4381.101915364641
 20
4270.64764706091
 30
0.0
 11
6805.101915364646
 21
4270.64764706091
 31
0.0
  0
LINE
  5
1D6A0
330
747D
100
AcDbEntity
  8
細線
100
AcDbLine
 10
4381.101915364641
 20
4335.64764706091
 30
0.0
 11
6805.101915364646
 21
4335.64764706091
 31
0.0
  0
LINE
  5
1D6A1
330
747D
100
AcDbEntity
  8
細線
100
AcDbLine
 10
4381.101915364641
 20
3360.647647060911
 30
0.0
 11
6805.101915364645
 21
3360.647647060911
 31
0.0
  0
LINE
  5
1D6A2
330
747D
100
AcDbEntity
  8
細線
100
AcDbLine
 10
4381.101915364641
 20
3425.647647060911
 30
0.0
 11
6805.101915364645
 21
3425.647647060911
 31
0.0
  0
LINE
  5
1D6A3
330
747D
100
AcDbEntity
  8
細線
100
AcDbLine
 10
4381.101915364641
 20
3490.647647060911
 30
0.0
 11
6805.101915364645
 21
3490.647647060911
 31
0.0
  0
LINE
  5
1D6A4
330
747D
100
AcDbEntity
  8
細線
100
AcDbLine
 10
4381.101915364641
 20
3555.647647060911
 30
0.0
 11
6805.101915364645
 21
3555.647647060911
 31
0.0
  0
LINE
  5
1D6A5
330
747D
100
AcDbEntity
  8
細線
100
AcDbLine
 10
4381.101915364641
 20
3620.647647060911
 30
0.0
 11
6805.101915364645
 21
3620.647647060911
 31
0.0
  0
LINE
  5
1D6A6
330
747D
100
AcDbEntity
  8
細線
100
AcDbLine
 10
4381.101915364641
 20
3685.647647060911
 30
0.0
 11
6805.101915364645
 21
3685.647647060911
 31
0.0
  0
LINE
  5
1D6A7
330
747D
100
AcDbEntity
  8
細線
100
AcDbLine
 10
4381.101915364641
 20
3750.647647060911
 30
0.0
 11
6805.101915364645
 21
3750.647647060911
 31
0.0
  0
LINE
  5
1D6A8
330
747D
100
AcDbEntity
  8
細線
100
AcDbLine
 10
4381.101915364641
 20
3815.647647060911
 30
0.0
 11
6805.101915364645
 21
3815.647647060911
 31
0.0
  0
LINE
  5
1D6A9
330
747D
100
AcDbEntity
  8
細線
100
AcDbLine
 10
4381.101915364641
 20
3880.647647060911
 30
0.0
 11
6805.101915364645
 21
3880.647647060911
 31
0.0
  0
LINE
  5
1D6AA
330
747D
100
AcDbEntity
  8
細線
100
AcDbLine
 10
4381.101915364641
 20
3945.647647060911
 30
0.0
 11
6805.101915364645
 21
3945.647647060911
 31
0.0
  0
LINE
  5
1D6AB
330
747D
100
AcDbEntity
  8
細線
100
AcDbLine
 10
4381.101915364641
 20
4595.64764706091
 30
0.0
 11
6805.101915364646
 21
4595.64764706091
 31
0.0
  0
LINE
  5
1D6AC
330
747D
100
AcDbEntity
  8
細線
100
AcDbLine
 10
4381.101915364641
 20
3100.647647060911
 30
0.0
 11
6805.101915364645
 21
3100.647647060911
 31
0.0
  0
LINE
  5
1D6AD
330
747D
100
AcDbEntity
  8
細線
100
AcDbLine
 10
4381.101915364641
 20
3165.647647060911
 30
0.0
 11
6805.101915364645
 21
3165.647647060911
 31
0.0
  0
LINE
  5
1D6AE
330
747D
100
AcDbEntity
  8
細線
100
AcDbLine
 10
4381.101915364641
 20
3230.647647060911
 30
0.0
 11
6805.101915364645
 21
3230.647647060911
 31
0.0
  0
LINE
  5
1D6AF
330
747D
100
AcDbEntity
  8
細線
100
AcDbLine
 10
4381.101915364641
 20
3295.647647060911
 30
0.0
 11
6805.101915364645
 21
3295.647647060911
 31
0.0
  0
LINE
  5
1D6B0
330
747D
100
AcDbEntity
  8
細線
100
AcDbLine
 10
4381.101915364641
 20
3035.647647060911
 30
0.0
 11
6805.101915364645
 21
3035.647647060911
 31
0.0
  0
LINE
  5
1D6B1
330
747D
100
AcDbEntity
  8
細線
100
AcDbLine
 10
6805.101915364644
 20
2775.647647060911
 30
0.0
 11
4381.101915364637
 21
2775.647647060911
 31
0.0
  0
LINE
  5
1D6B2
330
747D
100
AcDbEntity
  8
細線
100
AcDbLine
 10
4381.101915364641
 20
2840.647647060911
 30
0.0
 11
6805.101915364645
 21
2840.647647060911
 31
0.0
  0
LINE
  5
1D6B3
330
747D
100
AcDbEntity
  8
細線
100
AcDbLine
 10
4381.101915364641
 20
2905.647647060911
 30
0.0
 11
6805.101915364645
 21
2905.647647060911
 31
0.0
  0
LINE
  5
1D6B4
330
747D
100
AcDbEntity
  8
細線
100
AcDbLine
 10
4381.101915364641
 20
2970.647647060911
 30
0.0
 11
6805.101915364645
 21
2970.647647060911
 31
0.0
  0
LINE
  5
1D6BB
330
747D
100
AcDbEntity
  8
部品1
 48
50.0
100
AcDbLine
 10
4345.101915364661
 20
7837.921310507507
 30
0.0
 11
6841.101915364646
 21
7837.921310507507
 31
0.0
  0
LINE
  5
1D6C2
330
747D
100
AcDbEntity
  8
部品1
 48
50.0
100
AcDbLine
 10
5857.701742890398
 20
9674.92131050734
 30
0.0
 11
5308.405898406548
 21
7624.921310507154
 31
0.0
  0
SPLINE
  5
1D6C3
330
747D
100
AcDbEntity
  8
部品1
 48
50.0
100
AcDbSpline
210
0.0
220
0.0
230
1.0
 70
     8
 71
     3
 72
    10
 73
     6
 74
     4
 42
0.0000000001
 43
0.0000000001
 44
0.0000000001
 40
0.0
 40
0.0
 40
0.0
 40
0.0
 40
147.8767566010009
 40
301.8091093202477
 40
466.5049223087734
 40
466.5049223087734
 40
466.5049223087734
 40
466.5049223087734
 10
5660.672243097715
 20
8768.662463033129
 30
0.0
 10
5583.790560602881
 20
8759.758029375289
 30
0.0
 10
5426.878868392754
 20
8741.584522915957
 30
0.0
 10
5749.692278337096
 20
8639.063938276617
 30
0.0
 10
5579.849658667723
 20
8620.428849564412
 30
0.0
 10
5492.059653460828
 20
8610.796552687103
 30
0.0
 11
5660.672243097715
 21
8768.662463033129
 31
0.0
 11
5517.834264788946
 21
8730.3891420968
 31
0.0
 11
5651.14359270812
 21
8653.422965737176
 31
0.0
 11
5492.059653460828
 21
8610.796552687103
 31
0.0
  0
LINE
  5
1D6CA
330
747D
100
AcDbEntity
  8
部品1
 48
50.0
100
AcDbLine
 10
6018.471258349053
 20
5240.647647060914
 30
0.0
 11
5248.117330109575
 21
2365.647647060912
 31
0.0
  0
SPLINE
  5
1D6CB
330
747D
100
AcDbEntity
  8
部品1
 48
50.0
100
AcDbSpline
210
0.0
220
0.0
230
1.0
 70
     8
 71
     3
 72
    10
 73
     6
 74
     4
 42
0.0000000001
 43
0.0000000001
 44
0.0000000001
 40
0.0
 40
0.0
 40
0.0
 40
0.0
 40
147.8767566010009
 40
301.8091093202477
 40
466.5049223087734
 40
466.5049223087734
 40
466.5049223087734
 40
466.5049223087734
 10
5660.672243097697
 20
3734.388799586704
 30
0.0
 10
5583.790560602862
 20
3725.484365928866
 30
0.0
 10
5426.878868392734
 20
3707.310859469534
 30
0.0
 10
5749.692278337079
 20
3604.790274830192
 30
0.0
 10
5579.849658667704
 20
3586.155186117988
 30
0.0
 10
5492.05965346081
 20
3576.52288924068
 30
0.0
 11
5660.672243097697
 21
3734.388799586704
 31
0.0
 11
5517.834264788928
 21
3696.115478650376
 31
0.0
 11
5651.143592708102
 21
3619.149302290753
 31
0.0
 11
5492.05965346081
 21
3576.52288924068
 31
0.0
  0
LINE
  5
1D6DD
330
747D
100
AcDbEntity
  8
破線
 48
5.0
100
AcDbLine
 10
4278.101915364644
 20
2440.647647060914
 30
0.0
 11
4278.101915364644
 21
2365.647647060914
 31
0.0
  0
LINE
  5
1D6DE
330
747D
100
AcDbEntity
  8
破線
  6
HIDDEN
 48
5.0
100
AcDbLine
 10
4333.101915364645
 20
2615.647647060915
 30
0.0
 11
4333.101915364643
 21
2440.647647060914
 31
0.0
  0
LINE
  5
1D6DF
330
747D
100
AcDbEntity
  8
破線
  6
HIDDEN
 48
5.0
100
AcDbLine
 10
4333.101915364642
 20
2440.647647060914
 30
0.0
 11
4223.101915364645
 21
2440.647647060914
 31
0.0
  0
LINE
  5
1D6E0
330
747D
100
AcDbEntity
  8
破線
  6
HIDDEN
 48
5.0
100
AcDbLine
 10
4223.101915364645
 20
2615.647647060915
 30
0.0
 11
4223.101915364646
 21
2440.647647060914
 31
0.0
  0
LINE
  5
1D6E9
330
747D
100
AcDbEntity
  8
破線
 48
5.0
100
AcDbLine
 10
6908.101915364643
 20
2440.647647060914
 30
0.0
 11
6908.101915364643
 21
2365.647647060914
 31
0.0
  0
LINE
  5
1D6EA
330
747D
100
AcDbEntity
  8
破線
  6
HIDDEN
 48
5.0
100
AcDbLine
 10
6963.101915364645
 20
2615.647647060915
 30
0.0
 11
6963.101915364643
 21
2440.647647060914
 31
0.0
  0
LINE
  5
1D6EB
330
747D
100
AcDbEntity
  8
破線
  6
HIDDEN
 48
5.0
100
AcDbLine
 10
6963.101915364643
 20
2440.647647060914
 30
0.0
 11
6853.101915364645
 21
2440.647647060914
 31
0.0
  0
LINE
  5
1D6EC
330
747D
100
AcDbEntity
  8
破線
  6
HIDDEN
 48
5.0
100
AcDbLine
 10
6853.101915364645
 20
2615.647647060915
 30
0.0
 11
6853.101915364645
 21
2440.647647060914
 31
0.0
  0
ENDSEC
  0
SECTION
  2
OBJECTS
  0
DICTIONARY
  5
7471
330
0
100
AcDbDictionary
281
     1
  3
ACAD_COLOR
350
1A73C
  3
ACAD_GROUP
350
7472
  3
ACAD_LAYOUT
350
1A73D
  3
ACAD_MATERIAL
350
1A73B
  3
ACAD_MLINESTYLE
350
7473
  3
ACAD_PLOTSETTINGS
350
1A73E
  3
ACAD_PLOTSTYLENAME
350
1A739
  3
ACDBHEADERROUNDTRIPXREC
350
1D718
  3
AcDbVariableDictionary
350
1D714
  3
CONTENTDICTIONARY
350
E71C
  3
DRAWINGVARIABLESDICT
350
F3B9
  0
DICTIONARY
  5
1AB9A
330
7467
100
AcDbDictionary
280
     1
281
     1
  3
ACAD_LAYERSTATES
360
1AB9B
  0
DICTIONARY
  5
1A73C
102
{ACAD_REACTORS
330
7471
102
}
330
7471
100
AcDbDictionary
281
     1
  0
DICTIONARY
  5
7472
102
{ACAD_REACTORS
330
7471
102
}
330
7471
100
AcDbDictionary
281
     1
  0
DICTIONARY
  5
1A73D
102
{ACAD_REACTORS
330
7471
102
}
330
7471
100
AcDbDictionary
281
     1
  3
Model
350
1A73F
  3
レイアウト1
350
1A740
  0
DICTIONARY
  5
1A73B
102
{ACAD_REACTORS
330
7471
102
}
330
7471
100
AcDbDictionary
281
     1
  0
DICTIONARY
  5
7473
102
{ACAD_REACTORS
330
7471
102
}
330
7471
100
AcDbDictionary
281
     1
  3
STANDARD
350
7480
  0
DICTIONARY
  5
1A73E
102
{ACAD_REACTORS
330
7471
102
}
330
7471
100
AcDbDictionary
281
     1
  0
ACDBDICTIONARYWDFLT
  5
1A739
102
{ACAD_REACTORS
330
7471
102
}
330
7471
100
AcDbDictionary
281
     1
  3
Normal
350
1A73A
100
AcDbDictionaryWithDefault
340
1A73A
  0
DICTIONARY
  5
1D718
102
{ACAD_REACTORS
330
7471
102
}
330
7471
100
AcDbDictionary
281
     1
  3
COLORDICT
350
1D71A
  3
MATERIALDICT
350
1D719
  0
DICTIONARY
  5
1D714
102
{ACAD_REACTORS
330
7471
102
}
330
7471
100
AcDbDictionary
281
     1
  3
DIMASSOC
350
1D715
  3
PROJECTNAME
350
1D716
  0
DICTIONARY
  5
E71C
102
{ACAD_REACTORS
330
7471
102
}
330
7471
100
AcDbDictionary
281
     1
  0
DICTIONARY
  5
F3B9
102
{ACAD_REACTORS
330
7471
102
}
330
7471
100
AcDbDictionary
281
     1
1001
DRAWINGVARIABLESXDATA
1000
POLARMODE
1000
1
  0
DICTIONARY
  5
1AB9B
102
{ACAD_REACTORS
330
1AB9A
102
}
330
1AB9A
100
AcDbDictionary
281
     1
  0
LAYOUT
  5
1A73F
102
{ACAD_XDICTIONARY
360
1D71B
102
}
102
{ACAD_REACTORS
330
1A73D
102
}
330
1A73D
100
AcDbPlotSettings
  1

  2
none_device
  4
Letter_(8.50_x_11.00_Inches)
  6

 40
6.349999904632568
 41
6.349999904632568
 42
6.350006103515625
 43
6.350006103515625
 44
215.8999938964844
 45
279.3999938964844
 46
0.0
 47
0.0
 48
0.0
 49
0.0
140
0.0
141
0.0
142
1.0
143
1.0
 70
 11952
 72
     1
 73
     1
 74
     0
  7
inaba.ctb
 75
     0
147
1.0
148
-2464.885871831639
149
54.00225262481853
100
AcDbLayout
  1
Model
 70
     1
 71
     0
 10
0.0
 20
0.0
 11
12.0
 21
9.0
 12
0.0
 22
0.0
 32
0.0
 14
0.0
 24
0.0
 34
0.0
 15
0.0
 25
0.0
 35
0.0
146
0.0
 13
0.0
 23
0.0
 33
0.0
 16
1.0
 26
0.0
 36
0.0
 17
0.0
 27
1.0
 37
0.0
 76
     0
330
747D
  0
LAYOUT
  5
1A740
102
{ACAD_XDICTIONARY
360
1D71D
102
}
102
{ACAD_REACTORS
330
1A73D
102
}
330
1A73D
100
AcDbPlotSettings
  1

  2
EPSON LP-8300
  4

  6

 40
0.0
 41
0.0
 42
0.0
 43
0.0
 44
0.0
 45
0.0
 46
0.0
 47
0.0
 48
0.0
 49
0.0
140
0.0
141
0.0
142
1.0
143
1.0
 70
   688
 72
     0
 73
     0
 74
     5
  7
inaba.ctb
 75
    16
147
1.0
148
0.0
149
0.0
100
AcDbLayout
  1
レイアウト1
 70
     0
 71
     1
 10
0.0
 20
0.0
 11
420.0
 21
297.0
 12
0.0
 22
0.0
 32
0.0
 14
1.000000000000000E+20
 24
1.000000000000000E+20
 34
1.000000000000000E+20
 15
-1.000000000000000E+20
 25
-1.000000000000000E+20
 35
-1.000000000000000E+20
146
0.0
 13
0.0
 23
0.0
 33
0.0
 16
1.0
 26
0.0
 36
0.0
 17
0.0
 27
1.0
 37
0.0
 76
     0
330
747A
  0
MLINESTYLE
  5
7480
102
{ACAD_REACTORS
330
7473
102
}
330
7473
100
AcDbMlineStyle
  2
STANDARD
 70
     0
  3

 62
     0
 51
90.0
 52
90.0
 71
     2
 49
0.5
 62
   256
  6
BYLAYER
 49
-0.5
 62
   256
  6
BYLAYER
  0
ACDBPLACEHOLDER
  5
1A73A
102
{ACAD_REACTORS
330
1A739
102
}
330
1A739
  0
XRECORD
  5
1D71A
102
{ACAD_REACTORS
330
1D718
102
}
330
1D718
100
AcDbXrecord
280
     1
340
1A73C
  0
XRECORD
  5
1D719
102
{ACAD_REACTORS
330
1D718
102
}
330
1D718
100
AcDbXrecord
280
     1
340
1A73B
  0
DICTIONARYVAR
  5
1D715
102
{ACAD_REACTORS
330
1D714
102
}
330
1D714
100
DictionaryVariables
280
     0
  1
1
  0
DICTIONARYVAR
  5
1D716
102
{ACAD_REACTORS
330
1D714
102
}
330
1D714
100
DictionaryVariables
280
     0
  1

  0
DICTIONARY
  5
1D71B
330
1A73F
100
AcDbDictionary
280
     1
281
     1
  3
ACAD_XREC_ROUNDTRIP
360
1D71C
  0
DICTIONARY
  5
1D71D
330
1A740
100
AcDbDictionary
280
     1
281
     1
  3
ACAD_XREC_ROUNDTRIP
360
1D71E
  0
XRECORD
  5
1D71C
102
{ACAD_REACTORS
330
1D71B
102
}
330
1D71B
100
AcDbXrecord
280
     1
102
SHADEPLOT
 70
     0
102
SHADEPLOTRESLEVEL
 70
     2
102
SHADEPLOTCUSTOMDPI
 70
   300
  0
XRECORD
  5
1D71E
102
{ACAD_REACTORS
330
1D71D
102
}
330
1D71D
100
AcDbXrecord
280
     1
102
SHADEPLOT
 70
     0
102
SHADEPLOTRESLEVEL
 70
     2
102
SHADEPLOTCUSTOMDPI
 70
   300
  0
ENDSEC
  0
EOF
